  0
SECTION
  2
HEADER
  9
$ACADVER
  1
AC1018
  9
$ACADMAINTVER
 70
     0
  9
$DWGCODEPAGE
  3
ANSI_932
  9
$INSBASE
 10
0.0
 20
0.0
 30
0.0
  9
$EXTMIN
 10
173.9960207766853
 20
-0.4531514603331744
 30
-0.0015258207003583
  9
$EXTMAX
 10
20385.40654231959
 20
14262.44433931126
 30
0.0000000349246037
  9
$LIMMIN
 10
0.0
 20
0.0
  9
$LIMMAX
 10
21000.0
 20
14850.0
  9
$ORTHOMODE
 70
     0
  9
$REGENMODE
 70
     1
  9
$FILLMODE
 70
     1
  9
$QTEXTMODE
 70
     0
  9
$MIRRTEXT
 70
     1
  9
$LTSCALE
 40
20.0
  9
$ATTMODE
 70
     1
  9
$TEXTSIZE
 40
150.0
  9
$TRACEWID
 40
1.0
  9
$TEXTSTYLE
  7
STYLE1
  9
$CLAYER
  8
寸法
  9
$CELTYPE
  6
BYLAYER
  9
$CECOLOR
 62
   256
  9
$CELTSCALE
 40
50.0
  9
$DISPSILH
 70
     0
  9
$DIMSCALE
 40
1.0
  9
$DIMASZ
 40
125.0
  9
$DIMEXO
 40
25.0
  9
$DIMDLI
 40
7.0
  9
$DIMRND
 40
0.0
  9
$DIMDLE
 40
0.0
  9
$DIMEXE
 40
75.0
  9
$DIMTP
 40
0.0
  9
$DIMTM
 40
0.0
  9
$DIMTXT
 40
150.0
  9
$DIMCEN
 40
0.0
  9
$DIMTSZ
 40
0.0
  9
$DIMTOL
 70
     0
  9
$DIMLIM
 70
     0
  9
$DIMTIH
 70
     0
  9
$DIMTOH
 70
     0
  9
$DIMSE1
 70
     0
  9
$DIMSE2
 70
     0
  9
$DIMTAD
 70
     3
  9
$DIMZIN
 70
     8
  9
$DIMBLK
  1

  9
$DIMASO
 70
     1
  9
$DIMSHO
 70
     1
  9
$DIMPOST
  1

  9
$DIMAPOST
  1

  9
$DIMALT
 70
     0
  9
$DIMALTD
 70
     2
  9
$DIMALTF
 40
0.0394
  9
$DIMLFAC
 40
1.0
  9
$DIMTOFL
 70
     1
  9
$DIMTVP
 40
0.0
  9
$DIMTIX
 70
     1
  9
$DIMSOXD
 70
     1
  9
$DIMSAH
 70
     1
  9
$DIMBLK1
  1
DOTSMALL
  9
$DIMBLK2
  1
DOTSMALL
  9
$DIMSTYLE
  2
INABA_S50G
  9
$DIMCLRD
 70
     0
  9
$DIMCLRE
 70
     0
  9
$DIMCLRT
 70
     7
  9
$DIMTFAC
 40
1.0
  9
$DIMGAP
 40
25.0
  9
$DIMJUST
 70
     0
  9
$DIMSD1
 70
     0
  9
$DIMSD2
 70
     0
  9
$DIMTOLJ
 70
     1
  9
$DIMTZIN
 70
     0
  9
$DIMALTZ
 70
     0
  9
$DIMALTTZ
 70
     0
  9
$DIMUPT
 70
     0
  9
$DIMDEC
 70
     1
  9
$DIMTDEC
 70
     4
  9
$DIMALTU
 70
     2
  9
$DIMALTTD
 70
     2
  9
$DIMTXSTY
  7
STYLE1
  9
$DIMAUNIT
 70
     0
  9
$DIMADEC
 70
     0
  9
$DIMALTRND
 40
0.0
  9
$DIMAZIN
 70
     0
  9
$DIMDSEP
 70
    46
  9
$DIMATFIT
 70
     3
  9
$DIMFRAC
 70
     0
  9
$DIMLDRBLK
  1
DOTSMALL
  9
$DIMLUNIT
 70
     2
  9
$DIMLWD
 70
    -2
  9
$DIMLWE
 70
    -2
  9
$DIMTMOVE
 70
     0
  9
$LUNITS
 70
     2
  9
$LUPREC
 70
     1
  9
$SKETCHINC
 40
1.0
  9
$FILLETRAD
 40
200.0
  9
$AUNITS
 70
     0
  9
$AUPREC
 70
     0
  9
$MENU
  1
acad
  9
$ELEVATION
 40
0.0
  9
$PELEVATION
 40
0.0
  9
$THICKNESS
 40
0.0
  9
$LIMCHECK
 70
     0
  9
$CHAMFERA
 40
0.0
  9
$CHAMFERB
 40
0.0
  9
$CHAMFERC
 40
30.0
  9
$CHAMFERD
 40
0.7853981633974483
  9
$SKPOLY
 70
     0
  9
$TDCREATE
 40
2450927.380327778
  9
$TDUCREATE
 40
2450927.005327778
  9
$TDUPDATE
 40
2454882.540316111
  9
$TDUUPDATE
 40
2454882.165316111
  9
$TDINDWG
 40
1.9886690394
  9
$TDUSRTIMER
 40
1.9886650694
  9
$USRTIMER
 70
     1
  9
$ANGBASE
 50
0.0
  9
$ANGDIR
 70
     0
  9
$PDMODE
 70
     3
  9
$PDSIZE
 40
2.0
  9
$PLINEWID
 40
0.0
  9
$SPLFRAME
 70
     0
  9
$SPLINETYPE
 70
     6
  9
$SPLINESEGS
 70
     8
  9
$HANDSEED
  5
1FF7B
  9
$SURFTAB1
 70
     6
  9
$SURFTAB2
 70
     6
  9
$SURFTYPE
 70
     6
  9
$SURFU
 70
     6
  9
$SURFV
 70
     6
  9
$UCSBASE
  2

  9
$UCSNAME
  2

  9
$UCSORG
 10
0.0
 20
0.0
 30
0.0
  9
$UCSXDIR
 10
1.0
 20
0.0
 30
0.0
  9
$UCSYDIR
 10
0.0
 20
1.0
 30
0.0
  9
$UCSORTHOREF
  2

  9
$UCSORTHOVIEW
 70
     0
  9
$UCSORGTOP
 10
0.0
 20
0.0
 30
0.0
  9
$UCSORGBOTTOM
 10
0.0
 20
0.0
 30
0.0
  9
$UCSORGLEFT
 10
0.0
 20
0.0
 30
0.0
  9
$UCSORGRIGHT
 10
0.0
 20
0.0
 30
0.0
  9
$UCSORGFRONT
 10
0.0
 20
0.0
 30
0.0
  9
$UCSORGBACK
 10
0.0
 20
0.0
 30
0.0
  9
$PUCSBASE
  2

  9
$PUCSNAME
  2

  9
$PUCSORG
 10
0.0
 20
0.0
 30
0.0
  9
$PUCSXDIR
 10
1.0
 20
0.0
 30
0.0
  9
$PUCSYDIR
 10
0.0
 20
1.0
 30
0.0
  9
$PUCSORTHOREF
  2

  9
$PUCSORTHOVIEW
 70
     0
  9
$PUCSORGTOP
 10
0.0
 20
0.0
 30
0.0
  9
$PUCSORGBOTTOM
 10
0.0
 20
0.0
 30
0.0
  9
$PUCSORGLEFT
 10
0.0
 20
0.0
 30
0.0
  9
$PUCSORGRIGHT
 10
0.0
 20
0.0
 30
0.0
  9
$PUCSORGFRONT
 10
0.0
 20
0.0
 30
0.0
  9
$PUCSORGBACK
 10
0.0
 20
0.0
 30
0.0
  9
$USERI1
 70
     0
  9
$USERI2
 70
     0
  9
$USERI3
 70
     0
  9
$USERI4
 70
     0
  9
$USERI5
 70
     0
  9
$USERR1
 40
0.0
  9
$USERR2
 40
0.0
  9
$USERR3
 40
0.0
  9
$USERR4
 40
0.0
  9
$USERR5
 40
0.0
  9
$WORLDVIEW
 70
     1
  9
$SHADEDGE
 70
     3
  9
$SHADEDIF
 70
    70
  9
$TILEMODE
 70
     1
  9
$MAXACTVP
 70
    16
  9
$PINSBASE
 10
0.0
 20
0.0
 30
0.0
  9
$PLIMCHECK
 70
     0
  9
$PEXTMIN
 10
1.000000000000000E+20
 20
1.000000000000000E+20
 30
1.000000000000000E+20
  9
$PEXTMAX
 10
-1.000000000000000E+20
 20
-1.000000000000000E+20
 30
-1.000000000000000E+20
  9
$PLIMMIN
 10
0.0
 20
0.0
  9
$PLIMMAX
 10
420.0
 20
297.0
  9
$UNITMODE
 70
     0
  9
$VISRETAIN
 70
     0
  9
$PLINEGEN
 70
     0
  9
$PSLTSCALE
 70
     0
  9
$TREEDEPTH
 70
  3020
  9
$CMLSTYLE
  2
STANDARD
  9
$CMLJUST
 70
     0
  9
$CMLSCALE
 40
1.0
  9
$PROXYGRAPHICS
 70
     1
  9
$MEASUREMENT
 70
     1
  9
$CELWEIGHT
370
    -1
  9
$ENDCAPS
280
     0
  9
$JOINSTYLE
280
     0
  9
$LWDISPLAY
290
     0
  9
$INSUNITS
 70
     0
  9
$HYPERLINKBASE
  1

  9
$STYLESHEET
  1

  9
$XEDIT
290
     1
  9
$CEPSNTYPE
380
     0
  9
$PSTYLEMODE
290
     1
  9
$FINGERPRINTGUID
  2
{3A4AED84-7EBA-410B-8392-E919531848B6}
  9
$VERSIONGUID
  2
{47F6AEC6-9004-4F8C-9AE9-F63E18938C7B}
  9
$EXTNAMES
290
     1
  9
$PSVPSCALE
 40
0.0
  9
$OLESTARTUP
290
     0
  9
$SORTENTS
280
    96
  9
$INDEXCTL
280
     0
  9
$HIDETEXT
280
     0
  9
$XCLIPFRAME
290
     0
  9
$HALOGAP
280
     0
  9
$OBSCOLOR
 70
   257
  9
$OBSLTYPE
280
     0
  9
$INTERSECTIONDISPLAY
280
     0
  9
$INTERSECTIONCOLOR
 70
   257
  9
$DIMASSOC
280
     1
  9
$PROJECTNAME
  1

  0
ENDSEC
  0
SECTION
  2
CLASSES
  0
CLASS
  1
DICTIONARYVAR
  2
AcDbDictionaryVar
  3
ObjectDBX Classes
 90
        0
 91
        1
280
     0
281
     0
  0
CLASS
  1
ACDBDICTIONARYWDFLT
  2
AcDbDictionaryWithDefault
  3
ObjectDBX Classes
 90
        0
 91
        1
280
     0
281
     0
  0
ENDSEC
  0
SECTION
  2
TABLES
  0
TABLE
  2
VPORT
  5
746D
330
0
100
AcDbSymbolTable
 70
     2
  0
VPORT
  5
1FF7A
330
746D
100
AcDbSymbolTableRecord
100
AcDbViewportTableRecord
  2
*Active
 70
     0
 10
0.0
 20
0.0
 11
1.0
 21
1.0
 12
10279.70128154813
 22
7130.995593925466
 13
0.0
 23
0.0
 14
10.0
 24
10.0
 15
10.0
 25
10.0
 16
0.0
 26
0.0
 36
1.0
 17
0.0
 27
0.0
 37
0.0
 40
17694.81119003843
 41
1.149397590361445
 42
50.0
 43
0.0
 44
0.0
 50
0.0
 51
0.0
 71
     0
 72
     0
 73
     1
 74
     0
 75
     0
 76
     0
 77
     0
 78
     0
281
     0
 65
     1
110
0.0
120
0.0
130
0.0
111
1.0
121
0.0
131
0.0
112
0.0
122
1.0
132
0.0
 79
     0
146
0.0
  0
ENDTAB
  0
TABLE
  2
LTYPE
  5
746A
330
0
100
AcDbSymbolTable
 70
     4
  0
LTYPE
  5
7477
330
746A
100
AcDbSymbolTableRecord
100
AcDbLinetypeTableRecord
  2
BYBLOCK
 70
     0
  3

 72
    65
 73
     0
 40
0.0
  0
LTYPE
  5
7478
330
746A
100
AcDbSymbolTableRecord
100
AcDbLinetypeTableRecord
  2
BYLAYER
 70
     0
  3

 72
    65
 73
     0
 40
0.0
  0
LTYPE
  5
7479
330
746A
100
AcDbSymbolTableRecord
100
AcDbLinetypeTableRecord
  2
CONTINUOUS
 70
     0
  3
Solid line
 72
    65
 73
     0
 40
0.0
  0
LTYPE
  5
7816
330
746A
100
AcDbSymbolTableRecord
100
AcDbLinetypeTableRecord
  2
CENTER
 70
     0
  3
____ _ ____ _ ____ _ ____ _ ____ _ ____ _ ____ 
 72
    65
 73
     4
 40
2.0
 49
1.25
 74
     0
 49
-0.25
 74
     0
 49
0.25
 74
     0
 49
-0.25
 74
     0
  0
LTYPE
  5
781B
330
746A
100
AcDbSymbolTableRecord
100
AcDbLinetypeTableRecord
  2
PHANTOM
 70
     0
  3
______  __  __  ______  __  __  ______  __  __ 
 72
    65
 73
     6
 40
2.5
 49
1.25
 74
     0
 49
-0.25
 74
     0
 49
0.25
 74
     0
 49
-0.25
 74
     0
 49
0.25
 74
     0
 49
-0.25
 74
     0
  0
LTYPE
  5
13F72
330
746A
100
AcDbSymbolTableRecord
100
AcDbLinetypeTableRecord
  2
HIDDEN
 70
     0
  3
__ __ __ __ __ __ __ __ __ __ __ __ __ __ __ __
 72
    65
 73
     2
 40
0.375
 49
0.25
 74
     0
 49
-0.125
 74
     0
  0
ENDTAB
  0
TABLE
  2
LAYER
  5
7467
330
0
100
AcDbSymbolTable
 70
    12
  0
LAYER
  5
7474
330
7467
100
AcDbSymbolTableRecord
100
AcDbLayerTableRecord
  2
0
 70
     0
 62
     7
  6
CONTINUOUS
370
    -3
390
1A1FA
  0
LAYER
  5
DEB2
330
7467
100
AcDbSymbolTableRecord
100
AcDbLayerTableRecord
  2
センター
 70
     0
 62
     3
  6
CENTER
370
    -3
390
1A1FA
  0
LAYER
  5
DEB3
330
7467
100
AcDbSymbolTableRecord
100
AcDbLayerTableRecord
  2
寸法
 70
     0
 62
     4
  6
CONTINUOUS
370
    -3
390
1A1FA
  0
LAYER
  5
DEB4
330
7467
100
AcDbSymbolTableRecord
100
AcDbLayerTableRecord
  2
部品1
 70
     0
 62
     7
  6
CONTINUOUS
370
    -3
390
1A1FA
  0
LAYER
  5
DEB5
330
7467
100
AcDbSymbolTableRecord
100
AcDbLayerTableRecord
  2
補助
 70
     0
 62
    -1
  6
CONTINUOUS
370
    -3
390
1A1FA
  0
LAYER
  5
DEB6
330
7467
100
AcDbSymbolTableRecord
100
AcDbLayerTableRecord
  2
文字
 70
     0
 62
     7
  6
CONTINUOUS
370
    -3
390
1A1FA
  0
LAYER
  5
F255
330
7467
100
AcDbSymbolTableRecord
100
AcDbLayerTableRecord
  2
DEFPOINTS
 70
     0
 62
     7
  6
CONTINUOUS
290
     0
370
    -3
390
1A1FA
  0
LAYER
  5
10B54
330
7467
100
AcDbSymbolTableRecord
100
AcDbLayerTableRecord
  2
仕様書枠
 70
     0
 62
   230
  6
CONTINUOUS
370
    -3
390
1A1FA
  0
LAYER
  5
13F73
330
7467
100
AcDbSymbolTableRecord
100
AcDbLayerTableRecord
  2
細線
 70
     0
 62
     5
  6
CONTINUOUS
370
    -3
390
1A1FA
  0
LAYER
  5
13F74
330
7467
100
AcDbSymbolTableRecord
100
AcDbLayerTableRecord
  2
点線
 70
     0
 62
     2
  6
HIDDEN
370
    -3
390
1A1FA
  0
LAYER
  5
1643F
330
7467
100
AcDbSymbolTableRecord
100
AcDbLayerTableRecord
  2
想像線
 70
     0
 62
     6
  6
PHANTOM
370
    -3
390
1A1FA
  0
LAYER
  5
18753
330
7467
100
AcDbSymbolTableRecord
100
AcDbLayerTableRecord
  2
Ｇ．Ｌ
 70
     0
 62
    30
  6
CONTINUOUS
370
    -3
390
1A1FA
  0
ENDTAB
  0
TABLE
  2
STYLE
  5
7468
330
0
100
AcDbSymbolTable
 70
     3
  0
STYLE
  5
7475
330
7468
100
AcDbSymbolTableRecord
100
AcDbTextStyleTableRecord
  2
STANDARD
 70
     0
 40
0.0
 41
1.0
 50
0.0
 71
     0
 42
4.0
  3
txt
  4
C:\AutoCAD LT\bigfont.shx
  0
STYLE
  5
F706
330
7468
100
AcDbSymbolTableRecord
100
AcDbTextStyleTableRecord
  2
STYLE1
 70
     0
 40
0.0
 41
1.0
 50
0.0
 71
     0
 42
150.0
  3
isocp.shx
  4
bigfont.shx
  0
STYLE
  5
103BF
330
7468
100
AcDbSymbolTableRecord
100
AcDbTextStyleTableRecord
  2
STYLE2
 70
     0
 40
0.0
 41
1.0
 50
0.0
 71
     0
 42
100.0
  3
MS PGothic.ttf
  4

1001
ACAD
1000
MS PGothic
1071
    32818
  0
ENDTAB
  0
TABLE
  2
VIEW
  5
746B
330
0
100
AcDbSymbolTable
 70
     0
  0
ENDTAB
  0
TABLE
  2
UCS
  5
746C
330
0
100
AcDbSymbolTable
 70
     0
  0
ENDTAB
  0
TABLE
  2
APPID
  5
746E
330
0
100
AcDbSymbolTable
 70
     6
  0
APPID
  5
7476
330
746E
100
AcDbSymbolTableRecord
100
AcDbRegAppTableRecord
  2
ACAD
 70
     0
  0
APPID
  5
DEA9
330
746E
100
AcDbSymbolTableRecord
100
AcDbRegAppTableRecord
  2
CONTENTBLOCKICON
 70
     0
  0
APPID
  5
DEAA
330
746E
100
AcDbSymbolTableRecord
100
AcDbRegAppTableRecord
  2
CONTENTBLOCKDESCRIPTION
 70
     0
  0
APPID
  5
E71D
330
746E
100
AcDbSymbolTableRecord
100
AcDbRegAppTableRecord
  2
CONTENTTABDATA
 70
     0
  0
APPID
  5
E71E
330
746E
100
AcDbSymbolTableRecord
100
AcDbRegAppTableRecord
  2
CONTENTCURRENTTAB
 70
     0
  0
APPID
  5
F3BA
330
746E
100
AcDbSymbolTableRecord
100
AcDbRegAppTableRecord
  2
DRAWINGVARIABLESXDATA
 70
     0
  0
ENDTAB
  0
TABLE
  2
DIMSTYLE
  5
746F
330
0
100
AcDbSymbolTable
 70
     2
100
AcDbDimStyleTable
 71
     0
  0
DIMSTYLE
105
7484
330
746F
100
AcDbSymbolTableRecord
100
AcDbDimStyleTableRecord
  2
JIS
 70
     0
 41
2.5
 42
1.0
 43
7.0
 44
1.0
 73
     0
 74
     0
 77
     1
 78
     8
140
2.5
141
0.0
143
0.0394
147
0.0
172
     1
174
     1
175
     1
340
7475
  0
DIMSTYLE
105
F71F
102
{ACAD_REACTORS
330
1F4CD
330
1F4CE
330
1F4D2
330
1F4D9
330
1F4DA
330
1F4DC
330
1F4E3
330
1F4E4
330
1F4E5
330
1F4E6
330
1F6A0
330
1F6A1
330
1F6A2
330
1F6BD
330
1F6C0
330
1F6C1
330
1F784
330
1F785
330
1F917
330
1F919
330
1FEF4
330
1FEF5
330
1FEF9
330
1FF00
102
}
330
746F
100
AcDbSymbolTableRecord
100
AcDbDimStyleTableRecord
  2
INABA_S50G
 70
     0
 41
125.0
 42
25.0
 43
7.0
 44
75.0
 73
     0
 74
     0
 77
     3
 78
     8
140
150.0
141
0.0
143
0.0394
147
25.0
172
     1
173
     1
174
     1
175
     1
178
     7
271
     1
340
F706
341
F770
343
F770
344
F770
  0
ENDTAB
  0
TABLE
  2
BLOCK_RECORD
  5
7466
330
0
100
AcDbSymbolTable
 70
    36
  0
BLOCK_RECORD
  5
747D
330
7466
100
AcDbSymbolTableRecord
100
AcDbBlockTableRecord
  2
*MODEL_SPACE
340
1A1FD
  0
BLOCK_RECORD
  5
747A
330
7466
100
AcDbSymbolTableRecord
100
AcDbBlockTableRecord
  2
*PAPER_SPACE
340
1A1FE
  0
BLOCK_RECORD
  5
F770
330
7466
100
AcDbSymbolTableRecord
100
AcDbBlockTableRecord
  2
_DOTSMALL
340
0
102
{BLKREFS
331
1FC18
331
1FC19
331
1FC21
331
1FC22
331
1FC2A
331
1FC2B
331
1FC33
331
1FC34
331
1FC3B
331
1FC3C
331
1FC43
331
1FC44
331
1FC4C
331
1FC4D
331
1FC54
331
1FC55
331
1FC5E
331
1FC5F
331
1FC68
331
1FC69
331
1FC70
331
1FC71
331
1FC78
331
1FC79
331
1FC82
331
1FC83
331
1FC8B
331
1FC8C
331
1FC95
331
1FC96
331
1FC9D
331
1FC9E
331
1FCA6
331
1FCA7
331
1FCAF
331
1FCB0
331
1FCB8
331
1FCB9
331
1FCC0
331
1FCC1
331
1FCC9
331
1FCCA
331
1FCD2
331
1FCD3
331
1FCDB
331
1FCDC
331
1FCE5
331
1FCE6
331
1FCEE
331
1FCEF
331
1FCF7
331
1FCF8
331
1FD33
331
1FD34
331
1FD0E
331
1FD0F
331
1FD1A
331
1FD1B
331
1FD27
331
1FD28
331
1FF58
331
1FF59
331
1FF61
331
1FF62
331
1FF6A
331
1FF6B
331
1FF74
331
1FF75
102
}
  0
BLOCK_RECORD
  5
18892
330
7466
100
AcDbSymbolTableRecord
100
AcDbBlockTableRecord
  2
*D1
340
0
  0
BLOCK_RECORD
  5
1889E
330
7466
100
AcDbSymbolTableRecord
100
AcDbBlockTableRecord
  2
*D2
340
0
  0
BLOCK_RECORD
  5
188AA
330
7466
100
AcDbSymbolTableRecord
100
AcDbBlockTableRecord
  2
*D3
340
0
  0
BLOCK_RECORD
  5
188B7
330
7466
100
AcDbSymbolTableRecord
100
AcDbBlockTableRecord
  2
*D4
340
0
  0
BLOCK_RECORD
  5
188C3
330
7466
100
AcDbSymbolTableRecord
100
AcDbBlockTableRecord
  2
*D5
340
0
  0
BLOCK_RECORD
  5
188CF
330
7466
100
AcDbSymbolTableRecord
100
AcDbBlockTableRecord
  2
*D6
340
0
  0
BLOCK_RECORD
  5
1F920
330
7466
100
AcDbSymbolTableRecord
100
AcDbBlockTableRecord
  2
*D7
340
0
  0
BLOCK_RECORD
  5
1F92B
330
7466
100
AcDbSymbolTableRecord
100
AcDbBlockTableRecord
  2
*D8
340
0
  0
BLOCK_RECORD
  5
1F937
330
7466
100
AcDbSymbolTableRecord
100
AcDbBlockTableRecord
  2
*D9
340
0
  0
BLOCK_RECORD
  5
1F943
330
7466
100
AcDbSymbolTableRecord
100
AcDbBlockTableRecord
  2
*D10
340
0
  0
BLOCK_RECORD
  5
1F94F
330
7466
100
AcDbSymbolTableRecord
100
AcDbBlockTableRecord
  2
*D11
340
0
  0
BLOCK_RECORD
  5
1F95A
330
7466
100
AcDbSymbolTableRecord
100
AcDbBlockTableRecord
  2
*D12
340
0
  0
BLOCK_RECORD
  5
1F967
330
7466
100
AcDbSymbolTableRecord
100
AcDbBlockTableRecord
  2
*D13
340
0
  0
BLOCK_RECORD
  5
1F973
330
7466
100
AcDbSymbolTableRecord
100
AcDbBlockTableRecord
  2
*D14
340
0
  0
BLOCK_RECORD
  5
1F980
330
7466
100
AcDbSymbolTableRecord
100
AcDbBlockTableRecord
  2
*D15
340
0
  0
BLOCK_RECORD
  5
1F98B
330
7466
100
AcDbSymbolTableRecord
100
AcDbBlockTableRecord
  2
*D16
340
0
  0
BLOCK_RECORD
  5
1F996
330
7466
100
AcDbSymbolTableRecord
100
AcDbBlockTableRecord
  2
*D17
340
0
  0
BLOCK_RECORD
  5
1F9A3
330
7466
100
AcDbSymbolTableRecord
100
AcDbBlockTableRecord
  2
*D18
340
0
  0
BLOCK_RECORD
  5
1F9B0
330
7466
100
AcDbSymbolTableRecord
100
AcDbBlockTableRecord
  2
*D19
340
0
  0
BLOCK_RECORD
  5
1F9BB
330
7466
100
AcDbSymbolTableRecord
100
AcDbBlockTableRecord
  2
*D20
340
0
  0
BLOCK_RECORD
  5
1F9C7
330
7466
100
AcDbSymbolTableRecord
100
AcDbBlockTableRecord
  2
*D21
340
0
  0
BLOCK_RECORD
  5
1F9D2
330
7466
100
AcDbSymbolTableRecord
100
AcDbBlockTableRecord
  2
*D22
340
0
  0
BLOCK_RECORD
  5
1F9DD
330
7466
100
AcDbSymbolTableRecord
100
AcDbBlockTableRecord
  2
*D23
340
0
  0
BLOCK_RECORD
  5
1F9E9
330
7466
100
AcDbSymbolTableRecord
100
AcDbBlockTableRecord
  2
*D24
340
0
  0
BLOCK_RECORD
  5
1F9F5
330
7466
100
AcDbSymbolTableRecord
100
AcDbBlockTableRecord
  2
*D25
340
0
  0
BLOCK_RECORD
  5
1FA01
330
7466
100
AcDbSymbolTableRecord
100
AcDbBlockTableRecord
  2
*D26
340
0
  0
BLOCK_RECORD
  5
1FD09
330
7466
100
AcDbSymbolTableRecord
100
AcDbBlockTableRecord
  2
*D27
340
0
  0
BLOCK_RECORD
  5
1FD15
330
7466
100
AcDbSymbolTableRecord
100
AcDbBlockTableRecord
  2
*D28
340
0
  0
BLOCK_RECORD
  5
1FD21
330
7466
100
AcDbSymbolTableRecord
100
AcDbBlockTableRecord
  2
*D29
340
0
  0
BLOCK_RECORD
  5
1FD2E
330
7466
100
AcDbSymbolTableRecord
100
AcDbBlockTableRecord
  2
*D30
340
0
  0
BLOCK_RECORD
  5
1FF24
330
7466
100
AcDbSymbolTableRecord
100
AcDbBlockTableRecord
  2
*D32
340
0
  0
BLOCK_RECORD
  5
1FF30
330
7466
100
AcDbSymbolTableRecord
100
AcDbBlockTableRecord
  2
*D33
340
0
  0
BLOCK_RECORD
  5
1FF3C
330
7466
100
AcDbSymbolTableRecord
100
AcDbBlockTableRecord
  2
*D34
340
0
  0
BLOCK_RECORD
  5
1FF48
330
7466
100
AcDbSymbolTableRecord
100
AcDbBlockTableRecord
  2
*D35
340
0
  0
ENDTAB
  0
ENDSEC
  0
SECTION
  2
BLOCKS
  0
BLOCK
  5
7489
330
747D
100
AcDbEntity
  8
0
100
AcDbBlockBegin
  2
*MODEL_SPACE
 70
     0
 10
0.0
 20
0.0
 30
0.0
  3
*MODEL_SPACE
  1

  0
ENDBLK
  5
748A
330
747D
100
AcDbEntity
  8
0
100
AcDbBlockEnd
  0
BLOCK
  5
7487
330
747A
100
AcDbEntity
 67
     1
  8
0
100
AcDbBlockBegin
  2
*PAPER_SPACE
 70
     0
 10
0.0
 20
0.0
 30
0.0
  3
*PAPER_SPACE
  1

  0
ENDBLK
  5
7488
330
747A
100
AcDbEntity
 67
     1
  8
0
100
AcDbBlockEnd
  0
BLOCK
  5
F771
330
F770
100
AcDbEntity
  8
0
 48
50.0
100
AcDbBlockBegin
  2
_DOTSMALL
 70
     0
 10
0.0
 20
0.0
 30
0.0
  3
_DOTSMALL
  1

  0
LWPOLYLINE
  5
F772
330
F770
100
AcDbEntity
  8
0
  6
ByBlock
 62
     0
 48
50.0
100
AcDbPolyline
 90
        2
 70
     1
 43
0.5
 10
-0.0625
 20
0.0
 42
1.0
 10
0.0625
 20
0.0
 42
1.0
  0
ENDBLK
  5
F776
330
F770
100
AcDbEntity
  8
0
 48
50.0
100
AcDbBlockEnd
  0
BLOCK
  5
188DB
330
18892
100
AcDbEntity
  8
0
 48
50.0
100
AcDbBlockBegin
  2
*D1
 70
     1
 10
0.0
 20
0.0
 30
0.0
  3
*D1
  1

  0
LINE
  5
1FCF4
330
18892
100
AcDbEntity
  8
寸法
 62
     0
 48
50.0
370
    -2
100
AcDbLine
 10
10621.47449085893
 20
2029.373661269834
 30
0.0
 11
10190.75447588975
 21
2029.373661269834
 31
0.0
  0
LINE
  5
1FCF5
330
18892
100
AcDbEntity
  8
寸法
 62
     0
 48
50.0
370
    -2
100
AcDbLine
 10
10577.47449085893
 20
1459.373661269833
 30
0.0
 11
10190.75447588975
 21
1459.373661269833
 31
0.0
  0
LINE
  5
1FCF6
330
18892
100
AcDbEntity
  8
寸法
 62
     0
 48
50.0
370
    -2
100
AcDbLine
 10
10265.75447588975
 20
2029.373661269834
 30
0.0
 11
10265.75447588975
 21
1459.373661269833
 31
0.0
  0
INSERT
  5
1FCF7
330
18892
100
AcDbEntity
  8
寸法
 62
     0
 48
50.0
370
    -2
100
AcDbBlockReference
  2
_DOTSMALL
 10
10265.75447588975
 20
2029.373661269834
 30
0.0
 41
125.0
 42
125.0
 43
125.0
 50
90.0
  0
INSERT
  5
1FCF8
330
18892
100
AcDbEntity
  8
寸法
 62
     0
 48
50.0
370
    -2
100
AcDbBlockReference
  2
_DOTSMALL
 10
10265.75447588975
 20
1459.373661269833
 30
0.0
 41
125.0
 42
125.0
 43
125.0
 50
270.0
  0
MTEXT
  5
1FCF9
330
18892
100
AcDbEntity
  8
寸法
 62
     7
 48
50.0
100
AcDbMText
 10
10165.73971211022
 20
1744.373661269835
 30
0.0
 40
150.0
 41
0.0
 71
     5
 72
     1
  1
\A1;285
  7
STYLE1
 11
0.0000000000000001
 21
1.0
 31
0.0
 73
     1
 44
1.0
  0
POINT
  5
1FCFA
330
18892
100
AcDbEntity
  8
DEFPOINTS
 62
     0
 48
50.0
100
AcDbPoint
 10
10646.47449085893
 20
2029.373661269834
 30
0.0
  0
POINT
  5
1FCFB
330
18892
100
AcDbEntity
  8
DEFPOINTS
 62
     0
 48
50.0
100
AcDbPoint
 10
10602.47449085893
 20
1459.373661269833
 30
0.0
  0
POINT
  5
1FCFC
330
18892
100
AcDbEntity
  8
DEFPOINTS
 62
     0
 48
50.0
100
AcDbPoint
 10
10265.75447588975
 20
1459.373661269833
 30
0.0
  0
ENDBLK
  5
188E5
330
18892
100
AcDbEntity
  8
0
 48
50.0
100
AcDbBlockEnd
  0
BLOCK
  5
188E6
330
1889E
100
AcDbEntity
  8
0
 48
50.0
100
AcDbBlockBegin
  2
*D2
 70
     1
 10
0.0
 20
0.0
 30
0.0
  3
*D2
  1

  0
LINE
  5
1FCEB
330
1889E
100
AcDbEntity
  8
寸法
 62
     0
 48
50.0
370
    -2
100
AcDbLine
 10
10023.30215180335
 20
1749.373661269833
 30
0.0
 11
9908.343789282213
 21
1749.373661269833
 31
0.0
  0
LINE
  5
1FCEC
330
1889E
100
AcDbEntity
  8
寸法
 62
     0
 48
50.0
370
    -2
100
AcDbLine
 10
10433.47449085893
 20
1349.373661269834
 30
0.0
 11
9908.343789282213
 21
1349.373661269834
 31
0.0
  0
LINE
  5
1FCED
330
1889E
100
AcDbEntity
  8
寸法
 62
     0
 48
50.0
370
    -2
100
AcDbLine
 10
9983.343789282216
 20
1749.373661269833
 30
0.0
 11
9983.343789282216
 21
1349.373661269834
 31
0.0
  0
INSERT
  5
1FCEE
330
1889E
100
AcDbEntity
  8
寸法
 62
     0
 48
50.0
370
    -2
100
AcDbBlockReference
  2
_DOTSMALL
 10
9983.343789282216
 20
1749.373661269833
 30
0.0
 41
125.0
 42
125.0
 43
125.0
 50
90.0
  0
INSERT
  5
1FCEF
330
1889E
100
AcDbEntity
  8
寸法
 62
     0
 48
50.0
370
    -2
100
AcDbBlockReference
  2
_DOTSMALL
 10
9983.343789282216
 20
1349.373661269834
 30
0.0
 41
125.0
 42
125.0
 43
125.0
 50
270.0
  0
MTEXT
  5
1FCF0
330
1889E
100
AcDbEntity
  8
寸法
 62
     7
 48
50.0
100
AcDbMText
 10
9883.329025502689
 20
1549.373661269835
 30
0.0
 40
150.0
 41
0.0
 71
     5
 72
     1
  1
\A1;200
  7
STYLE1
 11
0.0000000000000001
 21
1.0
 31
0.0
 73
     1
 44
1.0
  0
POINT
  5
1FCF1
330
1889E
100
AcDbEntity
  8
DEFPOINTS
 62
     0
 48
50.0
100
AcDbPoint
 10
10048.30215180335
 20
1749.373661269833
 30
0.0
  0
POINT
  5
1FCF2
330
1889E
100
AcDbEntity
  8
DEFPOINTS
 62
     0
 48
50.0
100
AcDbPoint
 10
10458.47449085893
 20
1349.373661269834
 30
0.0
  0
POINT
  5
1FCF3
330
1889E
100
AcDbEntity
  8
DEFPOINTS
 62
     0
 48
50.0
100
AcDbPoint
 10
9983.343789282216
 20
1349.373661269834
 30
0.0
  0
ENDBLK
  5
188F0
330
1889E
100
AcDbEntity
  8
0
 48
50.0
100
AcDbBlockEnd
  0
BLOCK
  5
188F1
330
188AA
100
AcDbEntity
  8
0
 48
50.0
100
AcDbBlockBegin
  2
*D3
 70
     1
 10
0.0
 20
0.0
 30
0.0
  3
*D3
  1

  0
LINE
  5
1FCE1
330
188AA
100
AcDbEntity
  8
寸法
 62
     0
 48
50.0
370
    -2
100
AcDbLine
 10
10240.75447588975
 20
1949.373661269834
 30
0.0
 11
9908.992508710598
 21
1949.373661269834
 31
0.0
  0
LINE
  5
1FCE2
330
188AA
100
AcDbEntity
  8
寸法
 62
     0
 48
50.0
370
    -2
100
AcDbLine
 10
10023.30215180335
 20
1749.373661269833
 30
0.0
 11
9908.992508710598
 21
1749.373661269833
 31
0.0
  0
LINE
  5
1FCE3
330
188AA
100
AcDbEntity
  8
寸法
 62
     0
 48
50.0
370
    -2
100
AcDbLine
 10
9983.992508710601
 20
1749.373661269833
 30
0.0
 11
9983.992508710601
 21
1949.373661269834
 31
0.0
  0
LINE
  5
1FCE4
330
188AA
100
AcDbEntity
  8
寸法
 62
     0
 48
50.0
370
    -2
100
AcDbLine
 10
9983.992508710601
 20
1949.373661269834
 30
0.0
 11
9983.992508710601
 21
2381.396299065108
 31
0.0
  0
INSERT
  5
1FCE5
330
188AA
100
AcDbEntity
  8
寸法
 62
     0
 48
50.0
370
    -2
100
AcDbBlockReference
  2
_DOTSMALL
 10
9983.992508710601
 20
1749.373661269833
 30
0.0
 41
125.0
 42
125.0
 43
125.0
 50
270.0
  0
INSERT
  5
1FCE6
330
188AA
100
AcDbEntity
  8
寸法
 62
     0
 48
50.0
370
    -2
100
AcDbBlockReference
  2
_DOTSMALL
 10
9983.992508710601
 20
1949.373661269834
 30
0.0
 41
125.0
 42
125.0
 43
125.0
 50
90.0
  0
MTEXT
  5
1FCE7
330
188AA
100
AcDbEntity
  8
寸法
 62
     7
 48
50.0
100
AcDbMText
 10
9883.992508710598
 20
2236.337243947
 30
0.0
 40
150.0
 41
0.0
 71
     5
 72
     1
  1
\A1;100
  7
STYLE1
 11
0.0000000000000001
 21
1.0
 31
0.0
 73
     1
 44
1.0
  0
POINT
  5
1FCE8
330
188AA
100
AcDbEntity
  8
DEFPOINTS
 62
     0
 48
50.0
100
AcDbPoint
 10
10265.75447588975
 20
1949.373661269834
 30
0.0
  0
POINT
  5
1FCE9
330
188AA
100
AcDbEntity
  8
DEFPOINTS
 62
     0
 48
50.0
100
AcDbPoint
 10
10048.30215180335
 20
1749.373661269833
 30
0.0
  0
POINT
  5
1FCEA
330
188AA
100
AcDbEntity
  8
DEFPOINTS
 62
     0
 48
50.0
100
AcDbPoint
 10
9983.992508710601
 20
1749.373661269833
 30
0.0
  0
ENDBLK
  5
188FC
330
188AA
100
AcDbEntity
  8
0
 48
50.0
100
AcDbBlockEnd
  0
BLOCK
  5
188FD
330
188B7
100
AcDbEntity
  8
0
 48
50.0
100
AcDbBlockBegin
  2
*D4
 70
     1
 10
0.0
 20
0.0
 30
0.0
  3
*D4
  1

  0
LINE
  5
1FCD8
330
188B7
100
AcDbEntity
  8
寸法
 62
     0
 48
50.0
370
    -2
100
AcDbLine
 10
12489.69235086196
 20
1324.373661269834
 30
0.0
 11
12489.69235086196
 21
947.8906957845302
 31
0.0
  0
LINE
  5
1FCD9
330
188B7
100
AcDbEntity
  8
寸法
 62
     0
 48
50.0
370
    -2
100
AcDbLine
 10
12089.69235086196
 20
1324.373661269834
 30
0.0
 11
12089.69235086196
 21
947.8906957845302
 31
0.0
  0
LINE
  5
1FCDA
330
188B7
100
AcDbEntity
  8
寸法
 62
     0
 48
50.0
370
    -2
100
AcDbLine
 10
12489.69235086196
 20
1022.89069578453
 30
0.0
 11
12089.69235086196
 21
1022.89069578453
 31
0.0
  0
INSERT
  5
1FCDB
330
188B7
100
AcDbEntity
  8
寸法
 62
     0
 48
50.0
370
    -2
100
AcDbBlockReference
  2
_DOTSMALL
 10
12489.69235086196
 20
1022.89069578453
 30
0.0
 41
125.0
 42
125.0
 43
125.0
  0
INSERT
  5
1FCDC
330
188B7
100
AcDbEntity
  8
寸法
 62
     0
 48
50.0
370
    -2
100
AcDbBlockReference
  2
_DOTSMALL
 10
12089.69235086196
 20
1022.89069578453
 30
0.0
 41
125.0
 42
125.0
 43
125.0
 50
180.0
  0
MTEXT
  5
1FCDD
330
188B7
100
AcDbEntity
  8
寸法
 62
     7
 48
50.0
100
AcDbMText
 10
12289.69235086196
 20
1122.905459564057
 30
0.0
 40
150.0
 41
0.0
 71
     5
 72
     1
  1
\A1;200
  7
STYLE1
 73
     1
 44
1.0
  0
POINT
  5
1FCDE
330
188B7
100
AcDbEntity
  8
DEFPOINTS
 62
     0
 48
50.0
100
AcDbPoint
 10
12489.69235086196
 20
1349.373661269834
 30
0.0
  0
POINT
  5
1FCDF
330
188B7
100
AcDbEntity
  8
DEFPOINTS
 62
     0
 48
50.0
100
AcDbPoint
 10
12089.69235086196
 20
1349.373661269834
 30
0.0
  0
POINT
  5
1FCE0
330
188B7
100
AcDbEntity
  8
DEFPOINTS
 62
     0
 48
50.0
100
AcDbPoint
 10
12089.69235086196
 20
1022.89069578453
 30
0.0
  0
ENDBLK
  5
18907
330
188B7
100
AcDbEntity
  8
0
 48
50.0
100
AcDbBlockEnd
  0
BLOCK
  5
18908
330
188C3
100
AcDbEntity
  8
0
 48
50.0
100
AcDbBlockBegin
  2
*D5
 70
     1
 10
0.0
 20
0.0
 30
0.0
  3
*D5
  1

  0
LINE
  5
1FCCF
330
188C3
100
AcDbEntity
  8
寸法
 62
     0
 48
50.0
370
    -2
100
AcDbLine
 10
10858.47449085893
 20
1324.373661269834
 30
0.0
 11
10858.47449085893
 21
947.8906957845302
 31
0.0
  0
LINE
  5
1FCD0
330
188C3
100
AcDbEntity
  8
寸法
 62
     0
 48
50.0
370
    -2
100
AcDbLine
 10
10458.47449085893
 20
1324.373661269834
 30
0.0
 11
10458.47449085893
 21
947.8906957845302
 31
0.0
  0
LINE
  5
1FCD1
330
188C3
100
AcDbEntity
  8
寸法
 62
     0
 48
50.0
370
    -2
100
AcDbLine
 10
10858.47449085893
 20
1022.89069578453
 30
0.0
 11
10458.47449085893
 21
1022.89069578453
 31
0.0
  0
INSERT
  5
1FCD2
330
188C3
100
AcDbEntity
  8
寸法
 62
     0
 48
50.0
370
    -2
100
AcDbBlockReference
  2
_DOTSMALL
 10
10858.47449085893
 20
1022.89069578453
 30
0.0
 41
125.0
 42
125.0
 43
125.0
  0
INSERT
  5
1FCD3
330
188C3
100
AcDbEntity
  8
寸法
 62
     0
 48
50.0
370
    -2
100
AcDbBlockReference
  2
_DOTSMALL
 10
10458.47449085893
 20
1022.89069578453
 30
0.0
 41
125.0
 42
125.0
 43
125.0
 50
180.0
  0
MTEXT
  5
1FCD4
330
188C3
100
AcDbEntity
  8
寸法
 62
     7
 48
50.0
100
AcDbMText
 10
10658.47449085893
 20
1122.905459564057
 30
0.0
 40
150.0
 41
0.0
 71
     5
 72
     1
  1
\A1;200
  7
STYLE1
 73
     1
 44
1.0
  0
POINT
  5
1FCD5
330
188C3
100
AcDbEntity
  8
DEFPOINTS
 62
     0
 48
50.0
100
AcDbPoint
 10
10858.47449085893
 20
1349.373661269834
 30
0.0
  0
POINT
  5
1FCD6
330
188C3
100
AcDbEntity
  8
DEFPOINTS
 62
     0
 48
50.0
100
AcDbPoint
 10
10458.47449085893
 20
1349.373661269834
 30
0.0
  0
POINT
  5
1FCD7
330
188C3
100
AcDbEntity
  8
DEFPOINTS
 62
     0
 48
50.0
100
AcDbPoint
 10
10458.47449085893
 20
1022.89069578453
 30
0.0
  0
ENDBLK
  5
18912
330
188C3
100
AcDbEntity
  8
0
 48
50.0
100
AcDbBlockEnd
  0
BLOCK
  5
18913
330
188CF
100
AcDbEntity
  8
0
 48
50.0
100
AcDbBlockBegin
  2
*D6
 70
     1
 10
0.0
 20
0.0
 30
0.0
  3
*D6
  1

  0
LINE
  5
1FCC6
330
188CF
100
AcDbEntity
  8
寸法
 62
     0
 48
50.0
370
    -2
100
AcDbLine
 10
11654.52001180637
 20
1749.373661269833
 30
0.0
 11
11539.56164928524
 21
1749.373661269833
 31
0.0
  0
LINE
  5
1FCC7
330
188CF
100
AcDbEntity
  8
寸法
 62
     0
 48
50.0
370
    -2
100
AcDbLine
 10
12064.69235086196
 20
1349.373661269834
 30
0.0
 11
11539.56164928524
 21
1349.373661269834
 31
0.0
  0
LINE
  5
1FCC8
330
188CF
100
AcDbEntity
  8
寸法
 62
     0
 48
50.0
370
    -2
100
AcDbLine
 10
11614.56164928524
 20
1749.373661269833
 30
0.0
 11
11614.56164928524
 21
1349.373661269834
 31
0.0
  0
INSERT
  5
1FCC9
330
188CF
100
AcDbEntity
  8
寸法
 62
     0
 48
50.0
370
    -2
100
AcDbBlockReference
  2
_DOTSMALL
 10
11614.56164928524
 20
1749.373661269833
 30
0.0
 41
125.0
 42
125.0
 43
125.0
 50
90.0
  0
INSERT
  5
1FCCA
330
188CF
100
AcDbEntity
  8
寸法
 62
     0
 48
50.0
370
    -2
100
AcDbBlockReference
  2
_DOTSMALL
 10
11614.56164928524
 20
1349.373661269834
 30
0.0
 41
125.0
 42
125.0
 43
125.0
 50
270.0
  0
MTEXT
  5
1FCCB
330
188CF
100
AcDbEntity
  8
寸法
 62
     7
 48
50.0
100
AcDbMText
 10
11514.54688550571
 20
1549.373661269835
 30
0.0
 40
150.0
 41
0.0
 71
     5
 72
     1
  1
\A1;200
  7
STYLE1
 11
0.0000000000000001
 21
1.0
 31
0.0
 73
     1
 44
1.0
  0
POINT
  5
1FCCC
330
188CF
100
AcDbEntity
  8
DEFPOINTS
 62
     0
 48
50.0
100
AcDbPoint
 10
11679.52001180637
 20
1749.373661269833
 30
0.0
  0
POINT
  5
1FCCD
330
188CF
100
AcDbEntity
  8
DEFPOINTS
 62
     0
 48
50.0
100
AcDbPoint
 10
12089.69235086196
 20
1349.373661269834
 30
0.0
  0
POINT
  5
1FCCE
330
188CF
100
AcDbEntity
  8
DEFPOINTS
 62
     0
 48
50.0
100
AcDbPoint
 10
11614.56164928524
 20
1349.373661269834
 30
0.0
  0
ENDBLK
  5
1891D
330
188CF
100
AcDbEntity
  8
0
 48
50.0
100
AcDbBlockEnd
  0
BLOCK
  5
1F929
330
1F920
100
AcDbEntity
  8
0
 48
50.0
100
AcDbBlockBegin
  2
*D7
 70
     1
 10
0.0
 20
0.0
 30
0.0
  3
*D7
  1

  0
LINE
  5
1FCBE
330
1F920
100
AcDbEntity
  8
寸法
 62
     0
 48
50.0
370
    -2
100
AcDbLine
 10
9515.500000000008
 20
7195.955177899422
 30
0.0
 11
8218.499999999989
 21
7195.955177899422
 31
0.0
  0
LINE
  5
1FCBF
330
1F920
100
AcDbEntity
  8
寸法
 62
     0
 48
50.0
370
    -2
100
AcDbLine
 10
8293.499999999989
 20
7630.955177899423
 30
0.0
 11
8293.499999999989
 21
7195.955177899422
 31
0.0
  0
INSERT
  5
1FCC0
330
1F920
100
AcDbEntity
  8
寸法
 62
     0
 48
50.0
370
    -2
100
AcDbBlockReference
  2
_DOTSMALL
 10
8293.499999999989
 20
7630.955177899423
 30
0.0
 41
125.0
 42
125.0
 43
125.0
 50
90.0
  0
INSERT
  5
1FCC1
330
1F920
100
AcDbEntity
  8
寸法
 62
     0
 48
50.0
370
    -2
100
AcDbBlockReference
  2
_DOTSMALL
 10
8293.499999999989
 20
7195.955177899422
 30
0.0
 41
125.0
 42
125.0
 43
125.0
 50
270.0
  0
MTEXT
  5
1FCC2
330
1F920
100
AcDbEntity
  8
寸法
 62
     7
 48
50.0
100
AcDbMText
 10
8193.499999999987
 20
7413.455177899423
 30
0.0
 40
150.0
 41
0.0
 71
     5
 72
     1
  1
\A1;435
  7
STYLE1
 11
0.0000000000000001
 21
1.0
 31
0.0
 73
     1
 44
1.0
  0
POINT
  5
1FCC3
330
1F920
100
AcDbEntity
  8
DEFPOINTS
 62
     0
 48
50.0
100
AcDbPoint
 10
9540.500000000008
 20
7630.955177899423
 30
0.0
  0
POINT
  5
1FCC4
330
1F920
100
AcDbEntity
  8
DEFPOINTS
 62
     0
 48
50.0
100
AcDbPoint
 10
9540.500000000008
 20
7195.955177899422
 30
0.0
  0
POINT
  5
1FCC5
330
1F920
100
AcDbEntity
  8
DEFPOINTS
 62
     0
 48
50.0
100
AcDbPoint
 10
8293.499999999989
 20
7195.955177899422
 30
0.0
  0
ENDBLK
  5
1F92A
330
1F920
100
AcDbEntity
  8
0
 48
50.0
100
AcDbBlockEnd
  0
BLOCK
  5
1F935
330
1F92B
100
AcDbEntity
  8
0
 48
50.0
100
AcDbBlockBegin
  2
*D8
 70
     1
 10
0.0
 20
0.0
 30
0.0
  3
*D8
  1

  0
LINE
  5
1FCB5
330
1F92B
100
AcDbEntity
  8
寸法
 62
     0
 48
50.0
370
    -2
100
AcDbLine
 10
11535.49999999998
 20
7253.955177899422
 30
0.0
 11
12440.49999999998
 21
7253.955177899422
 31
0.0
  0
LINE
  5
1FCB6
330
1F92B
100
AcDbEntity
  8
寸法
 62
     0
 48
50.0
370
    -2
100
AcDbLine
 10
11535.49999999998
 20
8007.955177899424
 30
0.0
 11
12440.49999999998
 21
8007.955177899424
 31
0.0
  0
LINE
  5
1FCB7
330
1F92B
100
AcDbEntity
  8
寸法
 62
     0
 48
50.0
370
    -2
100
AcDbLine
 10
12365.49999999998
 20
7253.955177899422
 30
0.0
 11
12365.49999999998
 21
8007.955177899424
 31
0.0
  0
INSERT
  5
1FCB8
330
1F92B
100
AcDbEntity
  8
寸法
 62
     0
 48
50.0
370
    -2
100
AcDbBlockReference
  2
_DOTSMALL
 10
12365.49999999998
 20
7253.955177899422
 30
0.0
 41
125.0
 42
125.0
 43
125.0
 50
270.0
  0
INSERT
  5
1FCB9
330
1F92B
100
AcDbEntity
  8
寸法
 62
     0
 48
50.0
370
    -2
100
AcDbBlockReference
  2
_DOTSMALL
 10
12365.49999999998
 20
8007.955177899424
 30
0.0
 41
125.0
 42
125.0
 43
125.0
 50
90.0
  0
MTEXT
  5
1FCBA
330
1F92B
100
AcDbEntity
  8
寸法
 62
     7
 48
50.0
100
AcDbMText
 10
12265.49999999998
 20
7630.955177899423
 30
0.0
 40
150.0
 41
0.0
 71
     5
 72
     1
  1
\A1;754
  7
STYLE1
 11
0.0000000000000001
 21
1.0
 31
0.0
 73
     1
 44
1.0
  0
POINT
  5
1FCBB
330
1F92B
100
AcDbEntity
  8
DEFPOINTS
 62
     0
 48
50.0
100
AcDbPoint
 10
11510.49999999999
 20
7253.955177899422
 30
0.0
  0
POINT
  5
1FCBC
330
1F92B
100
AcDbEntity
  8
DEFPOINTS
 62
     0
 48
50.0
100
AcDbPoint
 10
11510.49999999999
 20
8007.955177899424
 30
0.0
  0
POINT
  5
1FCBD
330
1F92B
100
AcDbEntity
  8
DEFPOINTS
 62
     0
 48
50.0
100
AcDbPoint
 10
12365.49999999998
 20
8007.955177899424
 30
0.0
  0
ENDBLK
  5
1F936
330
1F92B
100
AcDbEntity
  8
0
 48
50.0
100
AcDbBlockEnd
  0
BLOCK
  5
1F941
330
1F937
100
AcDbEntity
  8
0
 48
50.0
100
AcDbBlockBegin
  2
*D9
 70
     1
 10
0.0
 20
0.0
 30
0.0
  3
*D9
  1

  0
LINE
  5
1FCAC
330
1F937
100
AcDbEntity
  8
寸法
 62
     0
 48
50.0
370
    -2
100
AcDbLine
 10
11680.49999999998
 20
6399.955177899423
 30
0.0
 11
12790.5
 21
6399.955177899423
 31
0.0
  0
LINE
  5
1FCAD
330
1F937
100
AcDbEntity
  8
寸法
 62
     0
 48
50.0
370
    -2
100
AcDbLine
 10
11680.49999999998
 20
8861.955177899423
 30
0.0
 11
12790.5
 21
8861.955177899421
 31
0.0
  0
LINE
  5
1FCAE
330
1F937
100
AcDbEntity
  8
寸法
 62
     0
 48
50.0
370
    -2
100
AcDbLine
 10
12715.5
 20
6399.955177899423
 30
0.0
 11
12715.5
 21
8861.955177899421
 31
0.0
  0
INSERT
  5
1FCAF
330
1F937
100
AcDbEntity
  8
寸法
 62
     0
 48
50.0
370
    -2
100
AcDbBlockReference
  2
_DOTSMALL
 10
12715.5
 20
6399.955177899423
 30
0.0
 41
125.0
 42
125.0
 43
125.0
 50
270.0
  0
INSERT
  5
1FCB0
330
1F937
100
AcDbEntity
  8
寸法
 62
     0
 48
50.0
370
    -2
100
AcDbBlockReference
  2
_DOTSMALL
 10
12715.5
 20
8861.955177899421
 30
0.0
 41
125.0
 42
125.0
 43
125.0
 50
90.0
  0
MTEXT
  5
1FCB1
330
1F937
100
AcDbEntity
  8
寸法
 62
     7
 48
50.0
100
AcDbMText
 10
12615.48523622047
 20
7630.955177899423
 30
0.0
 40
150.0
 41
0.0
 71
     5
 72
     1
  1
\A1;2462
  7
STYLE1
 11
0.0000000000000001
 21
1.0
 31
0.0
 73
     1
 44
1.0
  0
POINT
  5
1FCB2
330
1F937
100
AcDbEntity
  8
DEFPOINTS
 62
     0
 48
50.0
100
AcDbPoint
 10
11655.49999999998
 20
6399.955177899423
 30
0.0
  0
POINT
  5
1FCB3
330
1F937
100
AcDbEntity
  8
DEFPOINTS
 62
     0
 48
50.0
100
AcDbPoint
 10
11655.49999999998
 20
8861.955177899423
 30
0.0
  0
POINT
  5
1FCB4
330
1F937
100
AcDbEntity
  8
DEFPOINTS
 62
     0
 48
50.0
100
AcDbPoint
 10
12715.5
 20
8861.955177899421
 30
0.0
  0
ENDBLK
  5
1F942
330
1F937
100
AcDbEntity
  8
0
 48
50.0
100
AcDbBlockEnd
  0
BLOCK
  5
1F94D
330
1F943
100
AcDbEntity
  8
0
 48
50.0
100
AcDbBlockBegin
  2
*D10
 70
     1
 10
0.0
 20
0.0
 30
0.0
  3
*D10
  1

  0
LINE
  5
1FCA3
330
1F943
100
AcDbEntity
  8
寸法
 62
     0
 48
50.0
370
    -2
100
AcDbLine
 10
9048.499999999988
 20
6229.955177899423
 30
0.0
 11
9048.499999999988
 21
5389.955177899423
 31
0.0
  0
LINE
  5
1FCA4
330
1F943
100
AcDbEntity
  8
寸法
 62
     0
 48
50.0
370
    -2
100
AcDbLine
 10
11510.49999999999
 20
6229.955177899423
 30
0.0
 11
11510.49999999999
 21
5389.955177899423
 31
0.0
  0
LINE
  5
1FCA5
330
1F943
100
AcDbEntity
  8
寸法
 62
     0
 48
50.0
370
    -2
100
AcDbLine
 10
9048.499999999988
 20
5464.955177899422
 30
0.0
 11
11510.49999999999
 21
5464.955177899422
 31
0.0
  0
INSERT
  5
1FCA6
330
1F943
100
AcDbEntity
  8
寸法
 62
     0
 48
50.0
370
    -2
100
AcDbBlockReference
  2
_DOTSMALL
 10
9048.499999999988
 20
5464.955177899422
 30
0.0
 41
125.0
 42
125.0
 43
125.0
 50
180.0
  0
INSERT
  5
1FCA7
330
1F943
100
AcDbEntity
  8
寸法
 62
     0
 48
50.0
370
    -2
100
AcDbBlockReference
  2
_DOTSMALL
 10
11510.49999999999
 20
5464.955177899422
 30
0.0
 41
125.0
 42
125.0
 43
125.0
  0
MTEXT
  5
1FCA8
330
1F943
100
AcDbEntity
  8
寸法
 62
     7
 48
50.0
100
AcDbMText
 10
10279.49999999999
 20
5564.96994167895
 30
0.0
 40
150.0
 41
0.0
 71
     5
 72
     1
  1
\A1;2462
  7
STYLE1
 73
     1
 44
1.0
  0
POINT
  5
1FCA9
330
1F943
100
AcDbEntity
  8
DEFPOINTS
 62
     0
 48
50.0
100
AcDbPoint
 10
9048.499999999988
 20
6254.955177899423
 30
0.0
  0
POINT
  5
1FCAA
330
1F943
100
AcDbEntity
  8
DEFPOINTS
 62
     0
 48
50.0
100
AcDbPoint
 10
11510.49999999999
 20
6254.955177899423
 30
0.0
  0
POINT
  5
1FCAB
330
1F943
100
AcDbEntity
  8
DEFPOINTS
 62
     0
 48
50.0
100
AcDbPoint
 10
11510.49999999999
 20
5464.955177899422
 30
0.0
  0
ENDBLK
  5
1F94E
330
1F943
100
AcDbEntity
  8
0
 48
50.0
100
AcDbBlockEnd
  0
BLOCK
  5
1F958
330
1F94F
100
AcDbEntity
  8
0
 48
50.0
100
AcDbBlockBegin
  2
*D11
 70
     1
 10
0.0
 20
0.0
 30
0.0
  3
*D11
  1

  0
LINE
  5
1FC9B
330
1F94F
100
AcDbEntity
  8
寸法
 62
     0
 48
50.0
370
    -2
100
AcDbLine
 10
11510.49999999999
 20
6229.955177899423
 30
0.0
 11
11510.49999999999
 21
5789.955177899423
 31
0.0
  0
LINE
  5
1FC9C
330
1F94F
100
AcDbEntity
  8
寸法
 62
     0
 48
50.0
370
    -2
100
AcDbLine
 10
10279.49999999999
 20
5864.955177899423
 30
0.0
 11
11510.49999999999
 21
5864.955177899423
 31
0.0
  0
INSERT
  5
1FC9D
330
1F94F
100
AcDbEntity
  8
寸法
 62
     0
 48
50.0
370
    -2
100
AcDbBlockReference
  2
_DOTSMALL
 10
10279.49999999999
 20
5864.955177899423
 30
0.0
 41
125.0
 42
125.0
 43
125.0
 50
180.0
  0
INSERT
  5
1FC9E
330
1F94F
100
AcDbEntity
  8
寸法
 62
     0
 48
50.0
370
    -2
100
AcDbBlockReference
  2
_DOTSMALL
 10
11510.49999999999
 20
5864.955177899423
 30
0.0
 41
125.0
 42
125.0
 43
125.0
  0
MTEXT
  5
1FC9F
330
1F94F
100
AcDbEntity
  8
寸法
 62
     7
 48
50.0
100
AcDbMText
 10
10894.99999999999
 20
5964.96994167895
 30
0.0
 40
150.0
 41
0.0
 71
     5
 72
     1
  1
\A1;1231
  7
STYLE1
 73
     1
 44
1.0
  0
POINT
  5
1FCA0
330
1F94F
100
AcDbEntity
  8
DEFPOINTS
 62
     0
 48
50.0
100
AcDbPoint
 10
10279.49999999999
 20
6334.955177899423
 30
0.0
  0
POINT
  5
1FCA1
330
1F94F
100
AcDbEntity
  8
DEFPOINTS
 62
     0
 48
50.0
100
AcDbPoint
 10
11510.49999999999
 20
6254.955177899423
 30
0.0
  0
POINT
  5
1FCA2
330
1F94F
100
AcDbEntity
  8
DEFPOINTS
 62
     0
 48
50.0
100
AcDbPoint
 10
11510.49999999999
 20
5864.955177899423
 30
0.0
  0
ENDBLK
  5
1F959
330
1F94F
100
AcDbEntity
  8
0
 48
50.0
100
AcDbBlockEnd
  0
BLOCK
  5
1F965
330
1F95A
100
AcDbEntity
  8
0
 48
50.0
100
AcDbBlockBegin
  2
*D12
 70
     1
 10
0.0
 20
0.0
 30
0.0
  3
*D12
  1

  0
LINE
  5
1FC91
330
1F95A
100
AcDbEntity
  8
寸法
 62
     0
 48
50.0
370
    -2
100
AcDbLine
 10
8878.500000000009
 20
6399.955177899423
 30
0.0
 11
8218.499999999991
 21
6399.955177899423
 31
0.0
  0
LINE
  5
1FC92
330
1F95A
100
AcDbEntity
  8
寸法
 62
     0
 48
50.0
370
    -2
100
AcDbLine
 10
10154.49999999998
 20
6334.955177899423
 30
0.0
 11
8218.499999999991
 21
6334.955177899423
 31
0.0
  0
LINE
  5
1FC93
330
1F95A
100
AcDbEntity
  8
寸法
 62
     0
 48
50.0
370
    -2
100
AcDbLine
 10
8293.499999999992
 20
6399.955177899423
 30
0.0
 11
8293.499999999992
 21
6334.955177899423
 31
0.0
  0
LINE
  5
1FC94
330
1F95A
100
AcDbEntity
  8
寸法
 62
     0
 48
50.0
370
    -2
100
AcDbLine
 10
8293.499999999992
 20
6334.955177899423
 30
0.0
 11
8293.499999999992
 21
5426.241974463827
 31
0.0
  0
INSERT
  5
1FC95
330
1F95A
100
AcDbEntity
  8
寸法
 62
     0
 48
50.0
370
    -2
100
AcDbBlockReference
  2
_DOTSMALL
 10
8293.499999999992
 20
6399.955177899423
 30
0.0
 41
125.0
 42
125.0
 43
125.0
 50
90.0
  0
INSERT
  5
1FC96
330
1F95A
100
AcDbEntity
  8
寸法
 62
     0
 48
50.0
370
    -2
100
AcDbBlockReference
  2
_DOTSMALL
 10
8293.499999999992
 20
6334.955177899423
 30
0.0
 41
125.0
 42
125.0
 43
125.0
 50
270.0
  0
MTEXT
  5
1FC97
330
1F95A
100
AcDbEntity
  8
寸法
 62
     7
 48
50.0
100
AcDbMText
 10
8193.499999999989
 20
5818.098576181625
 30
0.0
 40
150.0
 41
0.0
 71
     5
 72
     1
  1
\A1;扉の出65
  7
STYLE1
 11
0.0000000000000001
 21
1.0
 31
0.0
 73
     1
 44
1.0
  0
POINT
  5
1FC98
330
1F95A
100
AcDbEntity
  8
DEFPOINTS
 62
     0
 48
50.0
100
AcDbPoint
 10
8903.500000000009
 20
6399.955177899423
 30
0.0
  0
POINT
  5
1FC99
330
1F95A
100
AcDbEntity
  8
DEFPOINTS
 62
     0
 48
50.0
100
AcDbPoint
 10
10179.49999999999
 20
6334.955177899423
 30
0.0
  0
POINT
  5
1FC9A
330
1F95A
100
AcDbEntity
  8
DEFPOINTS
 62
     0
 48
50.0
100
AcDbPoint
 10
8293.499999999992
 20
6334.955177899423
 30
0.0
  0
ENDBLK
  5
1F966
330
1F95A
100
AcDbEntity
  8
0
 48
50.0
100
AcDbBlockEnd
  0
BLOCK
  5
1F971
330
1F967
100
AcDbEntity
  8
0
 48
50.0
100
AcDbBlockBegin
  2
*D13
 70
     1
 10
0.0
 20
0.0
 30
0.0
  3
*D13
  1

  0
LINE
  5
1FC88
330
1F967
100
AcDbEntity
  8
寸法
 62
     0
 48
50.0
370
    -2
100
AcDbLine
 10
9048.499999999988
 20
6229.955177899423
 30
0.0
 11
9048.499999999988
 21
5789.955177899423
 31
0.0
  0
LINE
  5
1FC89
330
1F967
100
AcDbEntity
  8
寸法
 62
     0
 48
50.0
370
    -2
100
AcDbLine
 10
10279.49999999999
 20
6309.955177899423
 30
0.0
 11
10279.49999999999
 21
5789.955177899423
 31
0.0
  0
LINE
  5
1FC8A
330
1F967
100
AcDbEntity
  8
寸法
 62
     0
 48
50.0
370
    -2
100
AcDbLine
 10
9048.499999999988
 20
5864.955177899423
 30
0.0
 11
10279.49999999999
 21
5864.955177899423
 31
0.0
  0
INSERT
  5
1FC8B
330
1F967
100
AcDbEntity
  8
寸法
 62
     0
 48
50.0
370
    -2
100
AcDbBlockReference
  2
_DOTSMALL
 10
9048.499999999988
 20
5864.955177899423
 30
0.0
 41
125.0
 42
125.0
 43
125.0
 50
180.0
  0
INSERT
  5
1FC8C
330
1F967
100
AcDbEntity
  8
寸法
 62
     0
 48
50.0
370
    -2
100
AcDbBlockReference
  2
_DOTSMALL
 10
10279.49999999999
 20
5864.955177899423
 30
0.0
 41
125.0
 42
125.0
 43
125.0
  0
MTEXT
  5
1FC8D
330
1F967
100
AcDbEntity
  8
寸法
 62
     7
 48
50.0
100
AcDbMText
 10
9663.999999999987
 20
5964.96994167895
 30
0.0
 40
150.0
 41
0.0
 71
     5
 72
     1
  1
\A1;1231
  7
STYLE1
 73
     1
 44
1.0
  0
POINT
  5
1FC8E
330
1F967
100
AcDbEntity
  8
DEFPOINTS
 62
     0
 48
50.0
100
AcDbPoint
 10
9048.499999999988
 20
6254.955177899423
 30
0.0
  0
POINT
  5
1FC8F
330
1F967
100
AcDbEntity
  8
DEFPOINTS
 62
     0
 48
50.0
100
AcDbPoint
 10
10279.49999999999
 20
6334.955177899423
 30
0.0
  0
POINT
  5
1FC90
330
1F967
100
AcDbEntity
  8
DEFPOINTS
 62
     0
 48
50.0
100
AcDbPoint
 10
10279.49999999999
 20
5864.955177899423
 30
0.0
  0
ENDBLK
  5
1F972
330
1F967
100
AcDbEntity
  8
0
 48
50.0
100
AcDbBlockEnd
  0
BLOCK
  5
1F97E
330
1F973
100
AcDbEntity
  8
0
 48
50.0
100
AcDbBlockBegin
  2
*D14
 70
     1
 10
0.0
 20
0.0
 30
0.0
  3
*D14
  1

  0
LINE
  5
1FC7E
330
1F973
100
AcDbEntity
  8
寸法
 62
     0
 48
50.0
370
    -2
100
AcDbLine
 10
8993.499999999988
 20
6239.955177899423
 30
0.0
 11
8993.499999999988
 21
5389.955177899423
 31
0.0
  0
LINE
  5
1FC7F
330
1F973
100
AcDbEntity
  8
寸法
 62
     0
 48
50.0
370
    -2
100
AcDbLine
 10
9048.499999999988
 20
6229.955177899423
 30
0.0
 11
9048.499999999988
 21
5389.955177899423
 31
0.0
  0
LINE
  5
1FC80
330
1F973
100
AcDbEntity
  8
寸法
 62
     0
 48
50.0
370
    -2
100
AcDbLine
 10
9048.499999999988
 20
5464.955177899422
 30
0.0
 11
8993.499999999988
 21
5464.955177899422
 31
0.0
  0
LINE
  5
1FC81
330
1F973
100
AcDbEntity
  8
寸法
 62
     0
 48
50.0
370
    -2
100
AcDbLine
 10
8993.499999999988
 20
5464.955177899422
 30
0.0
 11
8533.61811023621
 21
5464.955177899422
 31
0.0
  0
INSERT
  5
1FC82
330
1F973
100
AcDbEntity
  8
寸法
 62
     0
 48
50.0
370
    -2
100
AcDbBlockReference
  2
_DOTSMALL
 10
9048.499999999988
 20
5464.955177899422
 30
0.0
 41
125.0
 42
125.0
 43
125.0
  0
INSERT
  5
1FC83
330
1F973
100
AcDbEntity
  8
寸法
 62
     0
 48
50.0
370
    -2
100
AcDbBlockReference
  2
_DOTSMALL
 10
8993.499999999988
 20
5464.955177899422
 30
0.0
 41
125.0
 42
125.0
 43
125.0
 50
180.0
  0
MTEXT
  5
1FC84
330
1F973
100
AcDbEntity
  8
寸法
 62
     7
 48
50.0
100
AcDbMText
 10
8701.059055118099
 20
5572.455177899422
 30
0.0
 40
150.0
 41
0.0
 71
     5
 72
     1
  1
\A1;(55)
  7
STYLE1
 73
     1
 44
1.0
  0
POINT
  5
1FC85
330
1F973
100
AcDbEntity
  8
DEFPOINTS
 62
     0
 48
50.0
100
AcDbPoint
 10
8993.499999999988
 20
6264.955177899423
 30
0.0
  0
POINT
  5
1FC86
330
1F973
100
AcDbEntity
  8
DEFPOINTS
 62
     0
 48
50.0
100
AcDbPoint
 10
9048.499999999988
 20
6254.955177899423
 30
0.0
  0
POINT
  5
1FC87
330
1F973
100
AcDbEntity
  8
DEFPOINTS
 62
     0
 48
50.0
100
AcDbPoint
 10
9048.499999999988
 20
5464.955177899422
 30
0.0
  0
ENDBLK
  5
1F97F
330
1F973
100
AcDbEntity
  8
0
 48
50.0
100
AcDbBlockEnd
  0
BLOCK
  5
1F989
330
1F980
100
AcDbEntity
  8
0
 48
50.0
100
AcDbBlockBegin
  2
*D15
 70
     1
 10
0.0
 20
0.0
 30
0.0
  3
*D15
  1

  0
LINE
  5
1FC76
330
1F980
100
AcDbEntity
  8
寸法
 62
     0
 48
50.0
370
    -2
100
AcDbLine
 10
8878.500000000009
 20
6399.955177899423
 30
0.0
 11
8218.499999999989
 21
6399.955177899423
 31
0.0
  0
LINE
  5
1FC77
330
1F980
100
AcDbEntity
  8
寸法
 62
     0
 48
50.0
370
    -2
100
AcDbLine
 10
8293.499999999989
 20
6760.955177899423
 30
0.0
 11
8293.499999999989
 21
6399.955177899423
 31
0.0
  0
INSERT
  5
1FC78
330
1F980
100
AcDbEntity
  8
寸法
 62
     0
 48
50.0
370
    -2
100
AcDbBlockReference
  2
_DOTSMALL
 10
8293.499999999989
 20
6760.955177899423
 30
0.0
 41
125.0
 42
125.0
 43
125.0
 50
90.0
  0
INSERT
  5
1FC79
330
1F980
100
AcDbEntity
  8
寸法
 62
     0
 48
50.0
370
    -2
100
AcDbBlockReference
  2
_DOTSMALL
 10
8293.499999999989
 20
6399.955177899423
 30
0.0
 41
125.0
 42
125.0
 43
125.0
 50
270.0
  0
MTEXT
  5
1FC7A
330
1F980
100
AcDbEntity
  8
寸法
 62
     7
 48
50.0
100
AcDbMText
 10
8193.499999999987
 20
6580.455177899422
 30
0.0
 40
150.0
 41
0.0
 71
     5
 72
     1
  1
\A1;361
  7
STYLE1
 11
0.0000000000000001
 21
1.0
 31
0.0
 73
     1
 44
1.0
  0
POINT
  5
1FC7B
330
1F980
100
AcDbEntity
  8
DEFPOINTS
 62
     0
 48
50.0
100
AcDbPoint
 10
9540.500000000008
 20
6760.955177899423
 30
0.0
  0
POINT
  5
1FC7C
330
1F980
100
AcDbEntity
  8
DEFPOINTS
 62
     0
 48
50.0
100
AcDbPoint
 10
8903.500000000009
 20
6399.955177899423
 30
0.0
  0
POINT
  5
1FC7D
330
1F980
100
AcDbEntity
  8
DEFPOINTS
 62
     0
 48
50.0
100
AcDbPoint
 10
8293.499999999989
 20
6399.955177899423
 30
0.0
  0
ENDBLK
  5
1F98A
330
1F980
100
AcDbEntity
  8
0
 48
50.0
100
AcDbBlockEnd
  0
BLOCK
  5
1F994
330
1F98B
100
AcDbEntity
  8
0
 48
50.0
100
AcDbBlockBegin
  2
*D16
 70
     1
 10
0.0
 20
0.0
 30
0.0
  3
*D16
  1

  0
LINE
  5
1FC6E
330
1F98B
100
AcDbEntity
  8
寸法
 62
     0
 48
50.0
370
    -2
100
AcDbLine
 10
9515.500000000008
 20
6760.955177899423
 30
0.0
 11
8218.499999999989
 21
6760.955177899423
 31
0.0
  0
LINE
  5
1FC6F
330
1F98B
100
AcDbEntity
  8
寸法
 62
     0
 48
50.0
370
    -2
100
AcDbLine
 10
8293.499999999989
 20
7195.955177899422
 30
0.0
 11
8293.499999999989
 21
6760.955177899423
 31
0.0
  0
INSERT
  5
1FC70
330
1F98B
100
AcDbEntity
  8
寸法
 62
     0
 48
50.0
370
    -2
100
AcDbBlockReference
  2
_DOTSMALL
 10
8293.499999999989
 20
7195.955177899422
 30
0.0
 41
125.0
 42
125.0
 43
125.0
 50
90.0
  0
INSERT
  5
1FC71
330
1F98B
100
AcDbEntity
  8
寸法
 62
     0
 48
50.0
370
    -2
100
AcDbBlockReference
  2
_DOTSMALL
 10
8293.499999999989
 20
6760.955177899423
 30
0.0
 41
125.0
 42
125.0
 43
125.0
 50
270.0
  0
MTEXT
  5
1FC72
330
1F98B
100
AcDbEntity
  8
寸法
 62
     7
 48
50.0
100
AcDbMText
 10
8193.499999999987
 20
6978.455177899424
 30
0.0
 40
150.0
 41
0.0
 71
     5
 72
     1
  1
\A1;435
  7
STYLE1
 11
0.0000000000000001
 21
1.0
 31
0.0
 73
     1
 44
1.0
  0
POINT
  5
1FC73
330
1F98B
100
AcDbEntity
  8
DEFPOINTS
 62
     0
 48
50.0
100
AcDbPoint
 10
9540.500000000008
 20
7195.955177899422
 30
0.0
  0
POINT
  5
1FC74
330
1F98B
100
AcDbEntity
  8
DEFPOINTS
 62
     0
 48
50.0
100
AcDbPoint
 10
9540.500000000008
 20
6760.955177899423
 30
0.0
  0
POINT
  5
1FC75
330
1F98B
100
AcDbEntity
  8
DEFPOINTS
 62
     0
 48
50.0
100
AcDbPoint
 10
8293.499999999989
 20
6760.955177899423
 30
0.0
  0
ENDBLK
  5
1F995
330
1F98B
100
AcDbEntity
  8
0
 48
50.0
100
AcDbBlockEnd
  0
BLOCK
  5
1F9A1
330
1F996
100
AcDbEntity
  8
0
 48
50.0
100
AcDbBlockBegin
  2
*D17
 70
     1
 10
0.0
 20
0.0
 30
0.0
  3
*D17
  1

  0
LINE
  5
1FC64
330
1F996
100
AcDbEntity
  8
寸法
 62
     0
 48
50.0
370
    -2
100
AcDbLine
 10
11510.49999999999
 20
6229.955177899423
 30
0.0
 11
11510.49999999999
 21
5389.955177899423
 31
0.0
  0
LINE
  5
1FC65
330
1F996
100
AcDbEntity
  8
寸法
 62
     0
 48
50.0
370
    -2
100
AcDbLine
 10
11565.5
 20
6239.955177899423
 30
0.0
 11
11565.5
 21
5389.955177899423
 31
0.0
  0
LINE
  5
1FC66
330
1F996
100
AcDbEntity
  8
寸法
 62
     0
 48
50.0
370
    -2
100
AcDbLine
 10
11510.49999999999
 20
5464.955177899422
 30
0.0
 11
11565.5
 21
5464.955177899422
 31
0.0
  0
LINE
  5
1FC67
330
1F996
100
AcDbEntity
  8
寸法
 62
     0
 48
50.0
370
    -2
100
AcDbLine
 10
11565.5
 20
5464.955177899422
 30
0.0
 11
12025.38188976378
 21
5464.955177899422
 31
0.0
  0
INSERT
  5
1FC68
330
1F996
100
AcDbEntity
  8
寸法
 62
     0
 48
50.0
370
    -2
100
AcDbBlockReference
  2
_DOTSMALL
 10
11510.49999999999
 20
5464.955177899422
 30
0.0
 41
125.0
 42
125.0
 43
125.0
 50
180.0
  0
INSERT
  5
1FC69
330
1F996
100
AcDbEntity
  8
寸法
 62
     0
 48
50.0
370
    -2
100
AcDbBlockReference
  2
_DOTSMALL
 10
11565.5
 20
5464.955177899422
 30
0.0
 41
125.0
 42
125.0
 43
125.0
  0
MTEXT
  5
1FC6A
330
1F996
100
AcDbEntity
  8
寸法
 62
     7
 48
50.0
100
AcDbMText
 10
11857.94094488189
 20
5572.455177899422
 30
0.0
 40
150.0
 41
0.0
 71
     5
 72
     1
  1
\A1;(55)
  7
STYLE1
 73
     1
 44
1.0
  0
POINT
  5
1FC6B
330
1F996
100
AcDbEntity
  8
DEFPOINTS
 62
     0
 48
50.0
100
AcDbPoint
 10
11510.49999999999
 20
6254.955177899423
 30
0.0
  0
POINT
  5
1FC6C
330
1F996
100
AcDbEntity
  8
DEFPOINTS
 62
     0
 48
50.0
100
AcDbPoint
 10
11565.5
 20
6264.955177899423
 30
0.0
  0
POINT
  5
1FC6D
330
1F996
100
AcDbEntity
  8
DEFPOINTS
 62
     0
 48
50.0
100
AcDbPoint
 10
11565.5
 20
5464.955177899422
 30
0.0
  0
ENDBLK
  5
1F9A2
330
1F996
100
AcDbEntity
  8
0
 48
50.0
100
AcDbBlockEnd
  0
BLOCK
  5
1F9AE
330
1F9A3
100
AcDbEntity
  8
0
 48
50.0
100
AcDbBlockBegin
  2
*D18
 70
     1
 10
0.0
 20
0.0
 30
0.0
  3
*D18
  1

  0
LINE
  5
1FC5A
330
1F9A3
100
AcDbEntity
  8
寸法
 62
     0
 48
50.0
370
    -2
100
AcDbLine
 10
11680.49999999998
 20
6399.955177899423
 30
0.0
 11
12790.5
 21
6399.955177899423
 31
0.0
  0
LINE
  5
1FC5B
330
1F9A3
100
AcDbEntity
  8
寸法
 62
     0
 48
50.0
370
    -2
100
AcDbLine
 10
11590.5
 20
6264.955177899423
 30
0.0
 11
12790.5
 21
6264.955177899423
 31
0.0
  0
LINE
  5
1FC5C
330
1F9A3
100
AcDbEntity
  8
寸法
 62
     0
 48
50.0
370
    -2
100
AcDbLine
 10
12715.50000000001
 20
6399.955177899423
 30
0.0
 11
12715.50000000001
 21
6264.955177899423
 31
0.0
  0
LINE
  5
1FC5D
330
1F9A3
100
AcDbEntity
  8
寸法
 62
     0
 48
50.0
370
    -2
100
AcDbLine
 10
12715.50000000001
 20
6264.955177899423
 30
0.0
 11
12715.50000000001
 21
5730.073288135642
 31
0.0
  0
INSERT
  5
1FC5E
330
1F9A3
100
AcDbEntity
  8
寸法
 62
     0
 48
50.0
370
    -2
100
AcDbBlockReference
  2
_DOTSMALL
 10
12715.50000000001
 20
6399.955177899423
 30
0.0
 41
125.0
 42
125.0
 43
125.0
 50
90.0
  0
INSERT
  5
1FC5F
330
1F9A3
100
AcDbEntity
  8
寸法
 62
     0
 48
50.0
370
    -2
100
AcDbBlockReference
  2
_DOTSMALL
 10
12715.50000000001
 20
6264.955177899423
 30
0.0
 41
125.0
 42
125.0
 43
125.0
 50
270.0
  0
MTEXT
  5
1FC60
330
1F9A3
100
AcDbEntity
  8
寸法
 62
     7
 48
50.0
100
AcDbMText
 10
12608.0
 20
5935.014233017533
 30
0.0
 40
150.0
 41
0.0
 71
     5
 72
     1
  1
\A1;(135)
  7
STYLE1
 11
0.0000000000000001
 21
1.0
 31
0.0
 73
     1
 44
1.0
  0
POINT
  5
1FC61
330
1F9A3
100
AcDbEntity
  8
DEFPOINTS
 62
     0
 48
50.0
100
AcDbPoint
 10
11655.49999999998
 20
6399.955177899423
 30
0.0
  0
POINT
  5
1FC62
330
1F9A3
100
AcDbEntity
  8
DEFPOINTS
 62
     0
 48
50.0
100
AcDbPoint
 10
11565.5
 20
6264.955177899423
 30
0.0
  0
POINT
  5
1FC63
330
1F9A3
100
AcDbEntity
  8
DEFPOINTS
 62
     0
 48
50.0
100
AcDbPoint
 10
12715.50000000001
 20
6264.955177899423
 30
0.0
  0
ENDBLK
  5
1F9AF
330
1F9A3
100
AcDbEntity
  8
0
 48
50.0
100
AcDbBlockEnd
  0
BLOCK
  5
1F9B9
330
1F9B0
100
AcDbEntity
  8
0
 48
50.0
100
AcDbBlockBegin
  2
*D19
 70
     1
 10
0.0
 20
0.0
 30
0.0
  3
*D19
  1

  0
LINE
  5
1FC52
330
1F9B0
100
AcDbEntity
  8
寸法
 62
     0
 48
50.0
370
    -2
100
AcDbLine
 10
11791.51782778972
 20
6399.955177899423
 30
0.0
 11
12440.49999999998
 21
6399.955177899423
 31
0.0
  0
LINE
  5
1FC53
330
1F9B0
100
AcDbEntity
  8
寸法
 62
     0
 48
50.0
370
    -2
100
AcDbLine
 10
12365.49999999998
 20
7253.955177899422
 30
0.0
 11
12365.49999999998
 21
6399.955177899423
 31
0.0
  0
INSERT
  5
1FC54
330
1F9B0
100
AcDbEntity
  8
寸法
 62
     0
 48
50.0
370
    -2
100
AcDbBlockReference
  2
_DOTSMALL
 10
12365.49999999998
 20
7253.955177899422
 30
0.0
 41
125.0
 42
125.0
 43
125.0
 50
90.0
  0
INSERT
  5
1FC55
330
1F9B0
100
AcDbEntity
  8
寸法
 62
     0
 48
50.0
370
    -2
100
AcDbBlockReference
  2
_DOTSMALL
 10
12365.49999999998
 20
6399.955177899423
 30
0.0
 41
125.0
 42
125.0
 43
125.0
 50
270.0
  0
MTEXT
  5
1FC56
330
1F9B0
100
AcDbEntity
  8
寸法
 62
     7
 48
50.0
100
AcDbMText
 10
12265.49999999998
 20
6826.955177899424
 30
0.0
 40
150.0
 41
0.0
 71
     5
 72
     1
  1
\A1;854
  7
STYLE1
 11
0.0000000000000001
 21
1.0
 31
0.0
 73
     1
 44
1.0
  0
POINT
  5
1FC57
330
1F9B0
100
AcDbEntity
  8
DEFPOINTS
 62
     0
 48
50.0
100
AcDbPoint
 10
11510.49999999999
 20
7253.955177899422
 30
0.0
  0
POINT
  5
1FC58
330
1F9B0
100
AcDbEntity
  8
DEFPOINTS
 62
     0
 48
50.0
100
AcDbPoint
 10
11766.51782778972
 20
6399.955177899423
 30
0.0
  0
POINT
  5
1FC59
330
1F9B0
100
AcDbEntity
  8
DEFPOINTS
 62
     0
 48
50.0
100
AcDbPoint
 10
12365.49999999998
 20
6399.955177899423
 30
0.0
  0
ENDBLK
  5
1F9BA
330
1F9B0
100
AcDbEntity
  8
0
 48
50.0
100
AcDbBlockEnd
  0
BLOCK
  5
1F9C5
330
1F9BB
100
AcDbEntity
  8
0
 48
50.0
100
AcDbBlockBegin
  2
*D20
 70
     1
 10
0.0
 20
0.0
 30
0.0
  3
*D20
  1

  0
LINE
  5
1FC49
330
1F9BB
100
AcDbEntity
  8
寸法
 62
     0
 48
50.0
370
    -2
100
AcDbLine
 10
8493.470472440947
 20
8861.955177899423
 30
0.0
 11
8218.499999999989
 21
8861.955177899423
 31
0.0
  0
LINE
  5
1FC4A
330
1F9BB
100
AcDbEntity
  8
寸法
 62
     0
 48
50.0
370
    -2
100
AcDbLine
 10
9515.500000000008
 20
8500.955177899426
 30
0.0
 11
8218.499999999989
 21
8500.955177899426
 31
0.0
  0
LINE
  5
1FC4B
330
1F9BB
100
AcDbEntity
  8
寸法
 62
     0
 48
50.0
370
    -2
100
AcDbLine
 10
8293.499999999989
 20
8861.955177899423
 30
0.0
 11
8293.499999999989
 21
8500.955177899426
 31
0.0
  0
INSERT
  5
1FC4C
330
1F9BB
100
AcDbEntity
  8
寸法
 62
     0
 48
50.0
370
    -2
100
AcDbBlockReference
  2
_DOTSMALL
 10
8293.499999999989
 20
8861.955177899423
 30
0.0
 41
125.0
 42
125.0
 43
125.0
 50
90.0
  0
INSERT
  5
1FC4D
330
1F9BB
100
AcDbEntity
  8
寸法
 62
     0
 48
50.0
370
    -2
100
AcDbBlockReference
  2
_DOTSMALL
 10
8293.499999999989
 20
8500.955177899426
 30
0.0
 41
125.0
 42
125.0
 43
125.0
 50
270.0
  0
MTEXT
  5
1FC4E
330
1F9BB
100
AcDbEntity
  8
寸法
 62
     7
 48
50.0
100
AcDbMText
 10
8193.499999999987
 20
8681.455177899424
 30
0.0
 40
150.0
 41
0.0
 71
     5
 72
     1
  1
\A1;361
  7
STYLE1
 11
0.0000000000000001
 21
1.0
 31
0.0
 73
     1
 44
1.0
  0
POINT
  5
1FC4F
330
1F9BB
100
AcDbEntity
  8
DEFPOINTS
 62
     0
 48
50.0
100
AcDbPoint
 10
8518.470472440947
 20
8861.955177899423
 30
0.0
  0
POINT
  5
1FC50
330
1F9BB
100
AcDbEntity
  8
DEFPOINTS
 62
     0
 48
50.0
100
AcDbPoint
 10
9540.500000000008
 20
8500.955177899426
 30
0.0
  0
POINT
  5
1FC51
330
1F9BB
100
AcDbEntity
  8
DEFPOINTS
 62
     0
 48
50.0
100
AcDbPoint
 10
8293.499999999989
 20
8500.955177899426
 30
0.0
  0
ENDBLK
  5
1F9C6
330
1F9BB
100
AcDbEntity
  8
0
 48
50.0
100
AcDbBlockEnd
  0
BLOCK
  5
1F9D0
330
1F9C7
100
AcDbEntity
  8
0
 48
50.0
100
AcDbBlockBegin
  2
*D21
 70
     1
 10
0.0
 20
0.0
 30
0.0
  3
*D21
  1

  0
LINE
  5
1FC41
330
1F9C7
100
AcDbEntity
  8
寸法
 62
     0
 48
50.0
370
    -2
100
AcDbLine
 10
9515.500000000008
 20
7630.955177899423
 30
0.0
 11
8218.499999999989
 21
7630.955177899423
 31
0.0
  0
LINE
  5
1FC42
330
1F9C7
100
AcDbEntity
  8
寸法
 62
     0
 48
50.0
370
    -2
100
AcDbLine
 10
8293.499999999989
 20
8065.955177899423
 30
0.0
 11
8293.499999999989
 21
7630.955177899423
 31
0.0
  0
INSERT
  5
1FC43
330
1F9C7
100
AcDbEntity
  8
寸法
 62
     0
 48
50.0
370
    -2
100
AcDbBlockReference
  2
_DOTSMALL
 10
8293.499999999989
 20
8065.955177899423
 30
0.0
 41
125.0
 42
125.0
 43
125.0
 50
90.0
  0
INSERT
  5
1FC44
330
1F9C7
100
AcDbEntity
  8
寸法
 62
     0
 48
50.0
370
    -2
100
AcDbBlockReference
  2
_DOTSMALL
 10
8293.499999999989
 20
7630.955177899423
 30
0.0
 41
125.0
 42
125.0
 43
125.0
 50
270.0
  0
MTEXT
  5
1FC45
330
1F9C7
100
AcDbEntity
  8
寸法
 62
     7
 48
50.0
100
AcDbMText
 10
8193.499999999987
 20
7848.455177899424
 30
0.0
 40
150.0
 41
0.0
 71
     5
 72
     1
  1
\A1;435
  7
STYLE1
 11
0.0000000000000001
 21
1.0
 31
0.0
 73
     1
 44
1.0
  0
POINT
  5
1FC46
330
1F9C7
100
AcDbEntity
  8
DEFPOINTS
 62
     0
 48
50.0
100
AcDbPoint
 10
9540.500000000008
 20
8065.955177899423
 30
0.0
  0
POINT
  5
1FC47
330
1F9C7
100
AcDbEntity
  8
DEFPOINTS
 62
     0
 48
50.0
100
AcDbPoint
 10
9540.500000000008
 20
7630.955177899423
 30
0.0
  0
POINT
  5
1FC48
330
1F9C7
100
AcDbEntity
  8
DEFPOINTS
 62
     0
 48
50.0
100
AcDbPoint
 10
8293.499999999989
 20
7630.955177899423
 30
0.0
  0
ENDBLK
  5
1F9D1
330
1F9C7
100
AcDbEntity
  8
0
 48
50.0
100
AcDbBlockEnd
  0
BLOCK
  5
1F9DB
330
1F9D2
100
AcDbEntity
  8
0
 48
50.0
100
AcDbBlockBegin
  2
*D22
 70
     1
 10
0.0
 20
0.0
 30
0.0
  3
*D22
  1

  0
LINE
  5
1FC39
330
1F9D2
100
AcDbEntity
  8
寸法
 62
     0
 48
50.0
370
    -2
100
AcDbLine
 10
9515.500000000008
 20
8065.955177899423
 30
0.0
 11
8218.499999999989
 21
8065.955177899423
 31
0.0
  0
LINE
  5
1FC3A
330
1F9D2
100
AcDbEntity
  8
寸法
 62
     0
 48
50.0
370
    -2
100
AcDbLine
 10
8293.499999999989
 20
8500.955177899426
 30
0.0
 11
8293.499999999989
 21
8065.955177899423
 31
0.0
  0
INSERT
  5
1FC3B
330
1F9D2
100
AcDbEntity
  8
寸法
 62
     0
 48
50.0
370
    -2
100
AcDbBlockReference
  2
_DOTSMALL
 10
8293.499999999989
 20
8500.955177899426
 30
0.0
 41
125.0
 42
125.0
 43
125.0
 50
90.0
  0
INSERT
  5
1FC3C
330
1F9D2
100
AcDbEntity
  8
寸法
 62
     0
 48
50.0
370
    -2
100
AcDbBlockReference
  2
_DOTSMALL
 10
8293.499999999989
 20
8065.955177899423
 30
0.0
 41
125.0
 42
125.0
 43
125.0
 50
270.0
  0
MTEXT
  5
1FC3D
330
1F9D2
100
AcDbEntity
  8
寸法
 62
     7
 48
50.0
100
AcDbMText
 10
8193.499999999987
 20
8283.455177899424
 30
0.0
 40
150.0
 41
0.0
 71
     5
 72
     1
  1
\A1;435
  7
STYLE1
 11
0.0000000000000001
 21
1.0
 31
0.0
 73
     1
 44
1.0
  0
POINT
  5
1FC3E
330
1F9D2
100
AcDbEntity
  8
DEFPOINTS
 62
     0
 48
50.0
100
AcDbPoint
 10
9540.500000000008
 20
8500.955177899426
 30
0.0
  0
POINT
  5
1FC3F
330
1F9D2
100
AcDbEntity
  8
DEFPOINTS
 62
     0
 48
50.0
100
AcDbPoint
 10
9540.500000000008
 20
8065.955177899423
 30
0.0
  0
POINT
  5
1FC40
330
1F9D2
100
AcDbEntity
  8
DEFPOINTS
 62
     0
 48
50.0
100
AcDbPoint
 10
8293.499999999989
 20
8065.955177899423
 30
0.0
  0
ENDBLK
  5
1F9DC
330
1F9D2
100
AcDbEntity
  8
0
 48
50.0
100
AcDbBlockEnd
  0
BLOCK
  5
1F9E7
330
1F9DD
100
AcDbEntity
  8
0
 48
50.0
100
AcDbBlockBegin
  2
*D23
 70
     1
 10
0.0
 20
0.0
 30
0.0
  3
*D23
  1

  0
LINE
  5
1FC30
330
1F9DD
100
AcDbEntity
  8
寸法
 62
     0
 48
50.0
370
    -2
100
AcDbLine
 10
8923.499999999988
 20
8961.955177899424
 30
0.0
 11
8618.499999999992
 21
8961.955177899424
 31
0.0
  0
LINE
  5
1FC31
330
1F9DD
100
AcDbEntity
  8
寸法
 62
     0
 48
50.0
370
    -2
100
AcDbLine
 10
8923.499999999988
 20
8761.955177899423
 30
0.0
 11
8618.499999999992
 21
8761.955177899423
 31
0.0
  0
LINE
  5
1FC32
330
1F9DD
100
AcDbEntity
  8
寸法
 62
     0
 48
50.0
370
    -2
100
AcDbLine
 10
8693.499999999991
 20
8961.955177899424
 30
0.0
 11
8693.499999999991
 21
8761.955177899423
 31
0.0
  0
INSERT
  5
1FC33
330
1F9DD
100
AcDbEntity
  8
寸法
 62
     0
 48
50.0
370
    -2
100
AcDbBlockReference
  2
_DOTSMALL
 10
8693.499999999991
 20
8961.955177899424
 30
0.0
 41
125.0
 42
125.0
 43
125.0
 50
90.0
  0
INSERT
  5
1FC34
330
1F9DD
100
AcDbEntity
  8
寸法
 62
     0
 48
50.0
370
    -2
100
AcDbBlockReference
  2
_DOTSMALL
 10
8693.499999999991
 20
8761.955177899423
 30
0.0
 41
125.0
 42
125.0
 43
125.0
 50
270.0
  0
MTEXT
  5
1FC35
330
1F9DD
100
AcDbEntity
  8
寸法
 62
     7
 48
50.0
100
AcDbMText
 10
8593.485236220463
 20
8861.955177899424
 30
0.0
 40
150.0
 41
0.0
 71
     5
 72
     1
  1
\A1;200
  7
STYLE1
 11
0.0000000000000001
 21
1.0
 31
0.0
 73
     1
 44
1.0
  0
POINT
  5
1FC36
330
1F9DD
100
AcDbEntity
  8
DEFPOINTS
 62
     0
 48
50.0
100
AcDbPoint
 10
8948.499999999986
 20
8961.955177899424
 30
0.0
  0
POINT
  5
1FC37
330
1F9DD
100
AcDbEntity
  8
DEFPOINTS
 62
     0
 48
50.0
100
AcDbPoint
 10
8948.499999999986
 20
8761.955177899423
 30
0.0
  0
POINT
  5
1FC38
330
1F9DD
100
AcDbEntity
  8
DEFPOINTS
 62
     0
 48
50.0
100
AcDbPoint
 10
8693.499999999991
 20
8761.955177899423
 30
0.0
  0
ENDBLK
  5
1F9E8
330
1F9DD
100
AcDbEntity
  8
0
 48
50.0
100
AcDbBlockEnd
  0
BLOCK
  5
1F9F3
330
1F9E9
100
AcDbEntity
  8
0
 48
50.0
100
AcDbBlockBegin
  2
*D24
 70
     1
 10
0.0
 20
0.0
 30
0.0
  3
*D24
  1

  0
LINE
  5
1FC27
330
1F9E9
100
AcDbEntity
  8
寸法
 62
     0
 48
50.0
370
    -2
100
AcDbLine
 10
9148.50000000001
 20
8986.955177899423
 30
0.0
 11
9148.50000000001
 21
9331.955177899422
 31
0.0
  0
LINE
  5
1FC28
330
1F9E9
100
AcDbEntity
  8
寸法
 62
     0
 48
50.0
370
    -2
100
AcDbLine
 10
8948.499999999986
 20
8986.955177899424
 30
0.0
 11
8948.499999999986
 21
9331.955177899422
 31
0.0
  0
LINE
  5
1FC29
330
1F9E9
100
AcDbEntity
  8
寸法
 62
     0
 48
50.0
370
    -2
100
AcDbLine
 10
9148.50000000001
 20
9256.955177899422
 30
0.0
 11
8948.499999999986
 21
9256.955177899422
 31
0.0
  0
INSERT
  5
1FC2A
330
1F9E9
100
AcDbEntity
  8
寸法
 62
     0
 48
50.0
370
    -2
100
AcDbBlockReference
  2
_DOTSMALL
 10
9148.50000000001
 20
9256.955177899422
 30
0.0
 41
125.0
 42
125.0
 43
125.0
  0
INSERT
  5
1FC2B
330
1F9E9
100
AcDbEntity
  8
寸法
 62
     0
 48
50.0
370
    -2
100
AcDbBlockReference
  2
_DOTSMALL
 10
8948.499999999986
 20
9256.955177899422
 30
0.0
 41
125.0
 42
125.0
 43
125.0
 50
180.0
  0
MTEXT
  5
1FC2C
330
1F9E9
100
AcDbEntity
  8
寸法
 62
     7
 48
50.0
100
AcDbMText
 10
9048.5
 20
9356.969941678952
 30
0.0
 40
150.0
 41
0.0
 71
     5
 72
     1
  1
\A1;200
  7
STYLE1
 73
     1
 44
1.0
  0
POINT
  5
1FC2D
330
1F9E9
100
AcDbEntity
  8
DEFPOINTS
 62
     0
 48
50.0
100
AcDbPoint
 10
9148.50000000001
 20
8961.955177899424
 30
0.0
  0
POINT
  5
1FC2E
330
1F9E9
100
AcDbEntity
  8
DEFPOINTS
 62
     0
 48
50.0
100
AcDbPoint
 10
8948.499999999986
 20
8961.955177899424
 30
0.0
  0
POINT
  5
1FC2F
330
1F9E9
100
AcDbEntity
  8
DEFPOINTS
 62
     0
 48
50.0
100
AcDbPoint
 10
8948.499999999986
 20
9256.955177899422
 30
0.0
  0
ENDBLK
  5
1F9F4
330
1F9E9
100
AcDbEntity
  8
0
 48
50.0
100
AcDbBlockEnd
  0
BLOCK
  5
1F9FF
330
1F9F5
100
AcDbEntity
  8
0
 48
50.0
100
AcDbBlockBegin
  2
*D25
 70
     1
 10
0.0
 20
0.0
 30
0.0
  3
*D25
  1

  0
LINE
  5
1FC1E
330
1F9F5
100
AcDbEntity
  8
寸法
 62
     0
 48
50.0
370
    -2
100
AcDbLine
 10
12472.51782778972
 20
8861.955177899423
 30
0.0
 11
12290.49999999998
 21
8861.955177899423
 31
0.0
  0
LINE
  5
1FC1F
330
1F9F5
100
AcDbEntity
  8
寸法
 62
     0
 48
50.0
370
    -2
100
AcDbLine
 10
11535.49999999998
 20
8007.955177899424
 30
0.0
 11
12440.49999999998
 21
8007.955177899424
 31
0.0
  0
LINE
  5
1FC20
330
1F9F5
100
AcDbEntity
  8
寸法
 62
     0
 48
50.0
370
    -2
100
AcDbLine
 10
12365.49999999998
 20
8861.955177899423
 30
0.0
 11
12365.49999999998
 21
8007.955177899424
 31
0.0
  0
INSERT
  5
1FC21
330
1F9F5
100
AcDbEntity
  8
寸法
 62
     0
 48
50.0
370
    -2
100
AcDbBlockReference
  2
_DOTSMALL
 10
12365.49999999998
 20
8861.955177899423
 30
0.0
 41
125.0
 42
125.0
 43
125.0
 50
90.0
  0
INSERT
  5
1FC22
330
1F9F5
100
AcDbEntity
  8
寸法
 62
     0
 48
50.0
370
    -2
100
AcDbBlockReference
  2
_DOTSMALL
 10
12365.49999999998
 20
8007.955177899424
 30
0.0
 41
125.0
 42
125.0
 43
125.0
 50
270.0
  0
MTEXT
  5
1FC23
330
1F9F5
100
AcDbEntity
  8
寸法
 62
     7
 48
50.0
100
AcDbMText
 10
12265.49999999998
 20
8434.955177899428
 30
0.0
 40
150.0
 41
0.0
 71
     5
 72
     1
  1
\A1;854
  7
STYLE1
 11
0.0000000000000001
 21
1.0
 31
0.0
 73
     1
 44
1.0
  0
POINT
  5
1FC24
330
1F9F5
100
AcDbEntity
  8
DEFPOINTS
 62
     0
 48
50.0
100
AcDbPoint
 10
12497.51782778972
 20
8861.955177899423
 30
0.0
  0
POINT
  5
1FC25
330
1F9F5
100
AcDbEntity
  8
DEFPOINTS
 62
     0
 48
50.0
100
AcDbPoint
 10
11510.49999999999
 20
8007.955177899424
 30
0.0
  0
POINT
  5
1FC26
330
1F9F5
100
AcDbEntity
  8
DEFPOINTS
 62
     0
 48
50.0
100
AcDbPoint
 10
12365.49999999998
 20
8007.955177899424
 30
0.0
  0
ENDBLK
  5
1FA00
330
1F9F5
100
AcDbEntity
  8
0
 48
50.0
100
AcDbBlockEnd
  0
BLOCK
  5
1FA0C
330
1FA01
100
AcDbEntity
  8
0
 48
50.0
100
AcDbBlockBegin
  2
*D26
 70
     1
 10
0.0
 20
0.0
 30
0.0
  3
*D26
  1

  0
LINE
  5
1FC14
330
1FA01
100
AcDbEntity
  8
寸法
 62
     0
 48
50.0
370
    -2
100
AcDbLine
 10
11680.49999999998
 20
8861.955177899423
 30
0.0
 11
12790.5
 21
8861.955177899421
 31
0.0
  0
LINE
  5
1FC15
330
1FA01
100
AcDbEntity
  8
寸法
 62
     0
 48
50.0
370
    -2
100
AcDbLine
 10
11590.5
 20
8956.955177899422
 30
0.0
 11
12790.5
 21
8956.955177899418
 31
0.0
  0
LINE
  5
1FC16
330
1FA01
100
AcDbEntity
  8
寸法
 62
     0
 48
50.0
370
    -2
100
AcDbLine
 10
12715.50000000001
 20
8861.955177899421
 30
0.0
 11
12715.50000000001
 21
8956.955177899418
 31
0.0
  0
LINE
  5
1FC17
330
1FA01
100
AcDbEntity
  8
寸法
 62
     0
 48
50.0
370
    -2
100
AcDbLine
 10
12715.50000000001
 20
8956.955177899418
 30
0.0
 11
12715.50000000001
 21
9417.361217237338
 31
0.0
  0
INSERT
  5
1FC18
330
1FA01
100
AcDbEntity
  8
寸法
 62
     0
 48
50.0
370
    -2
100
AcDbBlockReference
  2
_DOTSMALL
 10
12715.50000000001
 20
8861.955177899421
 30
0.0
 41
125.0
 42
125.0
 43
125.0
 50
270.0
  0
INSERT
  5
1FC19
330
1FA01
100
AcDbEntity
  8
寸法
 62
     0
 48
50.0
370
    -2
100
AcDbBlockReference
  2
_DOTSMALL
 10
12715.50000000001
 20
8956.955177899418
 30
0.0
 41
125.0
 42
125.0
 43
125.0
 50
90.0
  0
MTEXT
  5
1FC1A
330
1FA01
100
AcDbEntity
  8
寸法
 62
     7
 48
50.0
100
AcDbMText
 10
12607.96374807353
 20
9249.658197568384
 30
0.0
 40
150.0
 41
0.0
 71
     5
 72
     1
  1
\A1;(95)
  7
STYLE1
 11
0.0000000000000001
 21
1.0
 31
0.0
 73
     1
 44
1.0
  0
POINT
  5
1FC1B
330
1FA01
100
AcDbEntity
  8
DEFPOINTS
 62
     0
 48
50.0
100
AcDbPoint
 10
11655.49999999998
 20
8861.955177899423
 30
0.0
  0
POINT
  5
1FC1C
330
1FA01
100
AcDbEntity
  8
DEFPOINTS
 62
     0
 48
50.0
100
AcDbPoint
 10
11565.5
 20
8956.955177899422
 30
0.0
  0
POINT
  5
1FC1D
330
1FA01
100
AcDbEntity
  8
DEFPOINTS
 62
     0
 48
50.0
100
AcDbPoint
 10
12715.50000000001
 20
8956.955177899418
 30
0.0
  0
ENDBLK
  5
1FA0D
330
1FA01
100
AcDbEntity
  8
0
 48
50.0
100
AcDbBlockEnd
  0
BLOCK
  5
1FD0A
330
1FD09
100
AcDbEntity
  8
0
 48
50.0
100
AcDbBlockBegin
  2
*D27
 70
     1
 10
0.0
 20
0.0
 30
0.0
  3
*D27
  1

  0
LINE
  5
1FD0B
330
1FD09
100
AcDbEntity
  8
寸法
 62
     0
 48
50.0
370
    -2
100
AcDbLine
 10
12134.39291868346
 20
2029.373661269834
 30
0.0
 11
11703.67290371428
 21
2029.373661269834
 31
0.0
  0
LINE
  5
1FD0C
330
1FD09
100
AcDbEntity
  8
寸法
 62
     0
 48
50.0
370
    -2
100
AcDbLine
 10
12090.39291868346
 20
1459.373661269833
 30
0.0
 11
11703.67290371428
 21
1459.373661269833
 31
0.0
  0
LINE
  5
1FD0D
330
1FD09
100
AcDbEntity
  8
寸法
 62
     0
 48
50.0
370
    -2
100
AcDbLine
 10
11778.67290371428
 20
2029.373661269834
 30
0.0
 11
11778.67290371428
 21
1459.373661269833
 31
0.0
  0
INSERT
  5
1FD0E
330
1FD09
100
AcDbEntity
  8
寸法
 62
     0
 48
50.0
370
    -2
100
AcDbBlockReference
  2
_DOTSMALL
 10
11778.67290371428
 20
2029.373661269834
 30
0.0
 41
125.0
 42
125.0
 43
125.0
 50
90.0
  0
INSERT
  5
1FD0F
330
1FD09
100
AcDbEntity
  8
寸法
 62
     0
 48
50.0
370
    -2
100
AcDbBlockReference
  2
_DOTSMALL
 10
11778.67290371428
 20
1459.373661269833
 30
0.0
 41
125.0
 42
125.0
 43
125.0
 50
270.0
  0
MTEXT
  5
1FD10
330
1FD09
100
AcDbEntity
  8
寸法
 62
     7
 48
50.0
100
AcDbMText
 10
11678.65813993475
 20
1744.373661269835
 30
0.0
 40
150.0
 41
0.0
 71
     5
 72
     1
  1
\A1;285
  7
STYLE1
 11
0.0000000000000001
 21
1.0
 31
0.0
 73
     1
 44
1.0
  0
POINT
  5
1FD11
330
1FD09
100
AcDbEntity
  8
DEFPOINTS
 62
     0
 48
50.0
100
AcDbPoint
 10
12159.39291868346
 20
2029.373661269834
 30
0.0
  0
POINT
  5
1FD12
330
1FD09
100
AcDbEntity
  8
DEFPOINTS
 62
     0
 48
50.0
100
AcDbPoint
 10
12115.39291868346
 20
1459.373661269833
 30
0.0
  0
POINT
  5
1FD13
330
1FD09
100
AcDbEntity
  8
DEFPOINTS
 62
     0
 48
50.0
100
AcDbPoint
 10
11778.67290371428
 20
1459.373661269833
 30
0.0
  0
ENDBLK
  5
1FD14
330
1FD09
100
AcDbEntity
  8
0
 48
50.0
100
AcDbBlockEnd
  0
BLOCK
  5
1FD16
330
1FD15
100
AcDbEntity
  8
0
 48
50.0
100
AcDbBlockBegin
  2
*D28
 70
     1
 10
0.0
 20
0.0
 30
0.0
  3
*D28
  1

  0
LINE
  5
1FD17
330
1FD15
100
AcDbEntity
  8
寸法
 62
     0
 48
50.0
370
    -2
100
AcDbLine
 10
11536.22057962788
 20
1749.373661269833
 30
0.0
 11
11421.26221710674
 21
1749.373661269833
 31
0.0
  0
LINE
  5
1FD18
330
1FD15
100
AcDbEntity
  8
寸法
 62
     0
 48
50.0
370
    -2
100
AcDbLine
 10
11946.39291868346
 20
1349.373661269834
 30
0.0
 11
11421.26221710674
 21
1349.373661269834
 31
0.0
  0
LINE
  5
1FD19
330
1FD15
100
AcDbEntity
  8
寸法
 62
     0
 48
50.0
370
    -2
100
AcDbLine
 10
11496.26221710674
 20
1749.373661269833
 30
0.0
 11
11496.26221710674
 21
1349.373661269834
 31
0.0
  0
INSERT
  5
1FD1A
330
1FD15
100
AcDbEntity
  8
寸法
 62
     0
 48
50.0
370
    -2
100
AcDbBlockReference
  2
_DOTSMALL
 10
11496.26221710674
 20
1749.373661269833
 30
0.0
 41
125.0
 42
125.0
 43
125.0
 50
90.0
  0
INSERT
  5
1FD1B
330
1FD15
100
AcDbEntity
  8
寸法
 62
     0
 48
50.0
370
    -2
100
AcDbBlockReference
  2
_DOTSMALL
 10
11496.26221710674
 20
1349.373661269834
 30
0.0
 41
125.0
 42
125.0
 43
125.0
 50
270.0
  0
MTEXT
  5
1FD1C
330
1FD15
100
AcDbEntity
  8
寸法
 62
     7
 48
50.0
100
AcDbMText
 10
11396.24745332722
 20
1549.373661269835
 30
0.0
 40
150.0
 41
0.0
 71
     5
 72
     1
  1
\A1;200
  7
STYLE1
 11
0.0000000000000001
 21
1.0
 31
0.0
 73
     1
 44
1.0
  0
POINT
  5
1FD1D
330
1FD15
100
AcDbEntity
  8
DEFPOINTS
 62
     0
 48
50.0
100
AcDbPoint
 10
11561.22057962788
 20
1749.373661269833
 30
0.0
  0
POINT
  5
1FD1E
330
1FD15
100
AcDbEntity
  8
DEFPOINTS
 62
     0
 48
50.0
100
AcDbPoint
 10
11971.39291868346
 20
1349.373661269834
 30
0.0
  0
POINT
  5
1FD1F
330
1FD15
100
AcDbEntity
  8
DEFPOINTS
 62
     0
 48
50.0
100
AcDbPoint
 10
11496.26221710674
 20
1349.373661269834
 30
0.0
  0
ENDBLK
  5
1FD20
330
1FD15
100
AcDbEntity
  8
0
 48
50.0
100
AcDbBlockEnd
  0
BLOCK
  5
1FD22
330
1FD21
100
AcDbEntity
  8
0
 48
50.0
100
AcDbBlockBegin
  2
*D29
 70
     1
 10
0.0
 20
0.0
 30
0.0
  3
*D29
  1

  0
LINE
  5
1FD23
330
1FD21
100
AcDbEntity
  8
寸法
 62
     0
 48
50.0
370
    -2
100
AcDbLine
 10
11753.67290371428
 20
1949.373661269834
 30
0.0
 11
11421.91093653513
 21
1949.373661269834
 31
0.0
  0
LINE
  5
1FD24
330
1FD21
100
AcDbEntity
  8
寸法
 62
     0
 48
50.0
370
    -2
100
AcDbLine
 10
11536.22057962788
 20
1749.373661269833
 30
0.0
 11
11421.91093653513
 21
1749.373661269833
 31
0.0
  0
LINE
  5
1FD25
330
1FD21
100
AcDbEntity
  8
寸法
 62
     0
 48
50.0
370
    -2
100
AcDbLine
 10
11496.91093653513
 20
1749.373661269833
 30
0.0
 11
11496.91093653513
 21
1949.373661269834
 31
0.0
  0
LINE
  5
1FD26
330
1FD21
100
AcDbEntity
  8
寸法
 62
     0
 48
50.0
370
    -2
100
AcDbLine
 10
11496.91093653513
 20
1949.373661269834
 30
0.0
 11
11496.91093653513
 21
2381.396299065108
 31
0.0
  0
INSERT
  5
1FD27
330
1FD21
100
AcDbEntity
  8
寸法
 62
     0
 48
50.0
370
    -2
100
AcDbBlockReference
  2
_DOTSMALL
 10
11496.91093653513
 20
1749.373661269833
 30
0.0
 41
125.0
 42
125.0
 43
125.0
 50
270.0
  0
INSERT
  5
1FD28
330
1FD21
100
AcDbEntity
  8
寸法
 62
     0
 48
50.0
370
    -2
100
AcDbBlockReference
  2
_DOTSMALL
 10
11496.91093653513
 20
1949.373661269834
 30
0.0
 41
125.0
 42
125.0
 43
125.0
 50
90.0
  0
MTEXT
  5
1FD29
330
1FD21
100
AcDbEntity
  8
寸法
 62
     7
 48
50.0
100
AcDbMText
 10
11396.91093653513
 20
2236.337243947
 30
0.0
 40
150.0
 41
0.0
 71
     5
 72
     1
  1
\A1;100
  7
STYLE1
 11
0.0000000000000001
 21
1.0
 31
0.0
 73
     1
 44
1.0
  0
POINT
  5
1FD2A
330
1FD21
100
AcDbEntity
  8
DEFPOINTS
 62
     0
 48
50.0
100
AcDbPoint
 10
11778.67290371428
 20
1949.373661269834
 30
0.0
  0
POINT
  5
1FD2B
330
1FD21
100
AcDbEntity
  8
DEFPOINTS
 62
     0
 48
50.0
100
AcDbPoint
 10
11561.22057962788
 20
1749.373661269833
 30
0.0
  0
POINT
  5
1FD2C
330
1FD21
100
AcDbEntity
  8
DEFPOINTS
 62
     0
 48
50.0
100
AcDbPoint
 10
11496.91093653513
 20
1749.373661269833
 30
0.0
  0
ENDBLK
  5
1FD2D
330
1FD21
100
AcDbEntity
  8
0
 48
50.0
100
AcDbBlockEnd
  0
BLOCK
  5
1FD2F
330
1FD2E
100
AcDbEntity
  8
0
 48
50.0
100
AcDbBlockBegin
  2
*D30
 70
     1
 10
0.0
 20
0.0
 30
0.0
  3
*D30
  1

  0
LINE
  5
1FD30
330
1FD2E
100
AcDbEntity
  8
寸法
 62
     0
 48
50.0
370
    -2
100
AcDbLine
 10
12371.39291868346
 20
1324.373661269834
 30
0.0
 11
12371.39291868346
 21
947.89069578453
 31
0.0
  0
LINE
  5
1FD31
330
1FD2E
100
AcDbEntity
  8
寸法
 62
     0
 48
50.0
370
    -2
100
AcDbLine
 10
11971.39291868346
 20
1324.373661269834
 30
0.0
 11
11971.39291868346
 21
947.89069578453
 31
0.0
  0
LINE
  5
1FD32
330
1FD2E
100
AcDbEntity
  8
寸法
 62
     0
 48
50.0
370
    -2
100
AcDbLine
 10
12371.39291868346
 20
1022.89069578453
 30
0.0
 11
11971.39291868346
 21
1022.89069578453
 31
0.0
  0
INSERT
  5
1FD33
330
1FD2E
100
AcDbEntity
  8
寸法
 62
     0
 48
50.0
370
    -2
100
AcDbBlockReference
  2
_DOTSMALL
 10
12371.39291868346
 20
1022.89069578453
 30
0.0
 41
125.0
 42
125.0
 43
125.0
  0
INSERT
  5
1FD34
330
1FD2E
100
AcDbEntity
  8
寸法
 62
     0
 48
50.0
370
    -2
100
AcDbBlockReference
  2
_DOTSMALL
 10
11971.39291868346
 20
1022.89069578453
 30
0.0
 41
125.0
 42
125.0
 43
125.0
 50
180.0
  0
MTEXT
  5
1FD35
330
1FD2E
100
AcDbEntity
  8
寸法
 62
     7
 48
50.0
100
AcDbMText
 10
12171.39291868346
 20
1122.905459564057
 30
0.0
 40
150.0
 41
0.0
 71
     5
 72
     1
  1
\A1;200
  7
STYLE1
 73
     1
 44
1.0
  0
POINT
  5
1FD36
330
1FD2E
100
AcDbEntity
  8
DEFPOINTS
 62
     0
 48
50.0
100
AcDbPoint
 10
12371.39291868346
 20
1349.373661269834
 30
0.0
  0
POINT
  5
1FD37
330
1FD2E
100
AcDbEntity
  8
DEFPOINTS
 62
     0
 48
50.0
100
AcDbPoint
 10
11971.39291868346
 20
1349.373661269834
 30
0.0
  0
POINT
  5
1FD38
330
1FD2E
100
AcDbEntity
  8
DEFPOINTS
 62
     0
 48
50.0
100
AcDbPoint
 10
11971.39291868346
 20
1022.89069578453
 30
0.0
  0
ENDBLK
  5
1FD39
330
1FD2E
100
AcDbEntity
  8
0
 48
50.0
100
AcDbBlockEnd
  0
BLOCK
  5
1FF2E
330
1FF24
100
AcDbEntity
  8
0
 48
50.0
100
AcDbBlockBegin
  2
*D32
 70
     1
 10
0.0
 20
0.0
 30
0.0
  3
*D32
  1

  0
LINE
  5
1FF55
330
1FF24
100
AcDbEntity
  8
寸法
 62
     0
 48
50.0
370
    -2
100
AcDbLine
 10
12371.39291868346
 20
1324.373661269834
 30
0.0
 11
12371.39291868346
 21
947.89069578453
 31
0.0
  0
LINE
  5
1FF56
330
1FF24
100
AcDbEntity
  8
寸法
 62
     0
 48
50.0
370
    -2
100
AcDbLine
 10
11971.39291868346
 20
1324.373661269834
 30
0.0
 11
11971.39291868346
 21
947.89069578453
 31
0.0
  0
LINE
  5
1FF57
330
1FF24
100
AcDbEntity
  8
寸法
 62
     0
 48
50.0
370
    -2
100
AcDbLine
 10
12371.39291868346
 20
1022.89069578453
 30
0.0
 11
11971.39291868346
 21
1022.89069578453
 31
0.0
  0
INSERT
  5
1FF58
330
1FF24
100
AcDbEntity
  8
寸法
 62
     0
 48
50.0
370
    -2
100
AcDbBlockReference
  2
_DOTSMALL
 10
12371.39291868346
 20
1022.89069578453
 30
0.0
 41
125.0
 42
125.0
 43
125.0
  0
INSERT
  5
1FF59
330
1FF24
100
AcDbEntity
  8
寸法
 62
     0
 48
50.0
370
    -2
100
AcDbBlockReference
  2
_DOTSMALL
 10
11971.39291868346
 20
1022.89069578453
 30
0.0
 41
125.0
 42
125.0
 43
125.0
 50
180.0
  0
MTEXT
  5
1FF5A
330
1FF24
100
AcDbEntity
  8
寸法
 62
     7
 48
50.0
100
AcDbMText
 10
12171.39291868346
 20
1122.905459564057
 30
0.0
 40
150.0
 41
0.0
 71
     5
 72
     1
  1
\A1;200
  7
STYLE1
 73
     1
 44
1.0
  0
POINT
  5
1FF5B
330
1FF24
100
AcDbEntity
  8
DEFPOINTS
 62
     0
 48
50.0
100
AcDbPoint
 10
12371.39291868346
 20
1349.373661269834
 30
0.0
  0
POINT
  5
1FF5C
330
1FF24
100
AcDbEntity
  8
DEFPOINTS
 62
     0
 48
50.0
100
AcDbPoint
 10
11971.39291868346
 20
1349.373661269834
 30
0.0
  0
POINT
  5
1FF5D
330
1FF24
100
AcDbEntity
  8
DEFPOINTS
 62
     0
 48
50.0
100
AcDbPoint
 10
11971.39291868346
 20
1022.89069578453
 30
0.0
  0
ENDBLK
  5
1FF2F
330
1FF24
100
AcDbEntity
  8
0
 48
50.0
100
AcDbBlockEnd
  0
BLOCK
  5
1FF3A
330
1FF30
100
AcDbEntity
  8
0
 48
50.0
100
AcDbBlockBegin
  2
*D33
 70
     1
 10
0.0
 20
0.0
 30
0.0
  3
*D33
  1

  0
LINE
  5
1FF5E
330
1FF30
100
AcDbEntity
  8
寸法
 62
     0
 48
50.0
370
    -2
100
AcDbLine
 10
12134.39291868346
 20
2029.373661269834
 30
0.0
 11
11703.67290371428
 21
2029.373661269834
 31
0.0
  0
LINE
  5
1FF5F
330
1FF30
100
AcDbEntity
  8
寸法
 62
     0
 48
50.0
370
    -2
100
AcDbLine
 10
12090.39291868346
 20
1459.373661269833
 30
0.0
 11
11703.67290371428
 21
1459.373661269833
 31
0.0
  0
LINE
  5
1FF60
330
1FF30
100
AcDbEntity
  8
寸法
 62
     0
 48
50.0
370
    -2
100
AcDbLine
 10
11778.67290371428
 20
2029.373661269834
 30
0.0
 11
11778.67290371428
 21
1459.373661269833
 31
0.0
  0
INSERT
  5
1FF61
330
1FF30
100
AcDbEntity
  8
寸法
 62
     0
 48
50.0
370
    -2
100
AcDbBlockReference
  2
_DOTSMALL
 10
11778.67290371428
 20
2029.373661269834
 30
0.0
 41
125.0
 42
125.0
 43
125.0
 50
90.0
  0
INSERT
  5
1FF62
330
1FF30
100
AcDbEntity
  8
寸法
 62
     0
 48
50.0
370
    -2
100
AcDbBlockReference
  2
_DOTSMALL
 10
11778.67290371428
 20
1459.373661269833
 30
0.0
 41
125.0
 42
125.0
 43
125.0
 50
270.0
  0
MTEXT
  5
1FF63
330
1FF30
100
AcDbEntity
  8
寸法
 62
     7
 48
50.0
100
AcDbMText
 10
11678.65813993475
 20
1744.373661269835
 30
0.0
 40
150.0
 41
0.0
 71
     5
 72
     1
  1
\A1;285
  7
STYLE1
 11
0.0000000000000001
 21
1.0
 31
0.0
 73
     1
 44
1.0
  0
POINT
  5
1FF64
330
1FF30
100
AcDbEntity
  8
DEFPOINTS
 62
     0
 48
50.0
100
AcDbPoint
 10
12159.39291868346
 20
2029.373661269834
 30
0.0
  0
POINT
  5
1FF65
330
1FF30
100
AcDbEntity
  8
DEFPOINTS
 62
     0
 48
50.0
100
AcDbPoint
 10
12115.39291868346
 20
1459.373661269833
 30
0.0
  0
POINT
  5
1FF66
330
1FF30
100
AcDbEntity
  8
DEFPOINTS
 62
     0
 48
50.0
100
AcDbPoint
 10
11778.67290371428
 20
1459.373661269833
 30
0.0
  0
ENDBLK
  5
1FF3B
330
1FF30
100
AcDbEntity
  8
0
 48
50.0
100
AcDbBlockEnd
  0
BLOCK
  5
1FF46
330
1FF3C
100
AcDbEntity
  8
0
 48
50.0
100
AcDbBlockBegin
  2
*D34
 70
     1
 10
0.0
 20
0.0
 30
0.0
  3
*D34
  1

  0
LINE
  5
1FF67
330
1FF3C
100
AcDbEntity
  8
寸法
 62
     0
 48
50.0
370
    -2
100
AcDbLine
 10
11536.22057962788
 20
1749.373661269833
 30
0.0
 11
11421.26221710674
 21
1749.373661269833
 31
0.0
  0
LINE
  5
1FF68
330
1FF3C
100
AcDbEntity
  8
寸法
 62
     0
 48
50.0
370
    -2
100
AcDbLine
 10
11946.39291868346
 20
1349.373661269834
 30
0.0
 11
11421.26221710674
 21
1349.373661269834
 31
0.0
  0
LINE
  5
1FF69
330
1FF3C
100
AcDbEntity
  8
寸法
 62
     0
 48
50.0
370
    -2
100
AcDbLine
 10
11496.26221710674
 20
1749.373661269833
 30
0.0
 11
11496.26221710674
 21
1349.373661269834
 31
0.0
  0
INSERT
  5
1FF6A
330
1FF3C
100
AcDbEntity
  8
寸法
 62
     0
 48
50.0
370
    -2
100
AcDbBlockReference
  2
_DOTSMALL
 10
11496.26221710674
 20
1749.373661269833
 30
0.0
 41
125.0
 42
125.0
 43
125.0
 50
90.0
  0
INSERT
  5
1FF6B
330
1FF3C
100
AcDbEntity
  8
寸法
 62
     0
 48
50.0
370
    -2
100
AcDbBlockReference
  2
_DOTSMALL
 10
11496.26221710674
 20
1349.373661269834
 30
0.0
 41
125.0
 42
125.0
 43
125.0
 50
270.0
  0
MTEXT
  5
1FF6C
330
1FF3C
100
AcDbEntity
  8
寸法
 62
     7
 48
50.0
100
AcDbMText
 10
11396.24745332721
 20
1549.373661269835
 30
0.0
 40
150.0
 41
0.0
 71
     5
 72
     1
  1
\A1;200
  7
STYLE1
 11
0.0000000000000001
 21
1.0
 31
0.0
 73
     1
 44
1.0
  0
POINT
  5
1FF6D
330
1FF3C
100
AcDbEntity
  8
DEFPOINTS
 62
     0
 48
50.0
100
AcDbPoint
 10
11561.22057962788
 20
1749.373661269833
 30
0.0
  0
POINT
  5
1FF6E
330
1FF3C
100
AcDbEntity
  8
DEFPOINTS
 62
     0
 48
50.0
100
AcDbPoint
 10
11971.39291868346
 20
1349.373661269834
 30
0.0
  0
POINT
  5
1FF6F
330
1FF3C
100
AcDbEntity
  8
DEFPOINTS
 62
     0
 48
50.0
100
AcDbPoint
 10
11496.26221710674
 20
1349.373661269834
 30
0.0
  0
ENDBLK
  5
1FF47
330
1FF3C
100
AcDbEntity
  8
0
 48
50.0
100
AcDbBlockEnd
  0
BLOCK
  5
1FF53
330
1FF48
100
AcDbEntity
  8
0
 48
50.0
100
AcDbBlockBegin
  2
*D35
 70
     1
 10
0.0
 20
0.0
 30
0.0
  3
*D35
  1

  0
LINE
  5
1FF70
330
1FF48
100
AcDbEntity
  8
寸法
 62
     0
 48
50.0
370
    -2
100
AcDbLine
 10
11753.67290371428
 20
1949.373661269834
 30
0.0
 11
11421.91093653513
 21
1949.373661269834
 31
0.0
  0
LINE
  5
1FF71
330
1FF48
100
AcDbEntity
  8
寸法
 62
     0
 48
50.0
370
    -2
100
AcDbLine
 10
11536.22057962788
 20
1749.373661269833
 30
0.0
 11
11421.91093653513
 21
1749.373661269833
 31
0.0
  0
LINE
  5
1FF72
330
1FF48
100
AcDbEntity
  8
寸法
 62
     0
 48
50.0
370
    -2
100
AcDbLine
 10
11496.91093653513
 20
1749.373661269833
 30
0.0
 11
11496.91093653513
 21
1949.373661269834
 31
0.0
  0
LINE
  5
1FF73
330
1FF48
100
AcDbEntity
  8
寸法
 62
     0
 48
50.0
370
    -2
100
AcDbLine
 10
11496.91093653513
 20
1949.373661269834
 30
0.0
 11
11496.91093653513
 21
2381.396299065108
 31
0.0
  0
INSERT
  5
1FF74
330
1FF48
100
AcDbEntity
  8
寸法
 62
     0
 48
50.0
370
    -2
100
AcDbBlockReference
  2
_DOTSMALL
 10
11496.91093653513
 20
1749.373661269833
 30
0.0
 41
125.0
 42
125.0
 43
125.0
 50
270.0
  0
INSERT
  5
1FF75
330
1FF48
100
AcDbEntity
  8
寸法
 62
     0
 48
50.0
370
    -2
100
AcDbBlockReference
  2
_DOTSMALL
 10
11496.91093653513
 20
1949.373661269834
 30
0.0
 41
125.0
 42
125.0
 43
125.0
 50
90.0
  0
MTEXT
  5
1FF76
330
1FF48
100
AcDbEntity
  8
寸法
 62
     7
 48
50.0
100
AcDbMText
 10
11396.91093653513
 20
2236.337243947
 30
0.0
 40
150.0
 41
0.0
 71
     5
 72
     1
  1
\A1;100
  7
STYLE1
 11
0.0000000000000001
 21
1.0
 31
0.0
 73
     1
 44
1.0
  0
POINT
  5
1FF77
330
1FF48
100
AcDbEntity
  8
DEFPOINTS
 62
     0
 48
50.0
100
AcDbPoint
 10
11778.67290371428
 20
1949.373661269834
 30
0.0
  0
POINT
  5
1FF78
330
1FF48
100
AcDbEntity
  8
DEFPOINTS
 62
     0
 48
50.0
100
AcDbPoint
 10
11561.22057962788
 20
1749.373661269833
 30
0.0
  0
POINT
  5
1FF79
330
1FF48
100
AcDbEntity
  8
DEFPOINTS
 62
     0
 48
50.0
100
AcDbPoint
 10
11496.91093653513
 20
1749.373661269833
 30
0.0
  0
ENDBLK
  5
1FF54
330
1FF48
100
AcDbEntity
  8
0
 48
50.0
100
AcDbBlockEnd
  0
ENDSEC
  0
SECTION
  2
ENTITIES
  0
LINE
  5
10B56
330
747D
100
AcDbEntity
  8
補助
  6
PHANTOM
 62
     7
 48
50.0
100
AcDbLine
 10
175.0
 20
0.0
 30
0.0
 11
174.9999999999993
 21
14262.0
 31
0.0
  0
LINE
  5
10B57
330
747D
100
AcDbEntity
  8
補助
  6
PHANTOM
 62
     7
 48
50.0
100
AcDbLine
 10
174.9999999999993
 20
14262.0
 30
0.0
 11
20384.0
 21
14262.0
 31
0.0
  0
LINE
  5
10B59
330
747D
100
AcDbEntity
  8
仕様書枠
  6
Continuous
 62
     7
 48
50.0
100
AcDbLine
 10
16384.0
 20
1500.0
 30
0.0
 11
16384.0
 21
-0.0000000000000912
 31
0.0
  0
LINE
  5
10B5C
330
747D
100
AcDbEntity
  8
仕様書枠
 62
     7
 48
50.0
100
AcDbLine
 10
20384.0
 20
1500.0
 30
0.0
 11
20384.0
 21
-0.0000000000001137
 31
0.0
  0
LINE
  5
10B5D
330
747D
100
AcDbEntity
  8
仕様書枠
 62
     7
 48
50.0
100
AcDbLine
 10
175.0
 20
0.0
 30
0.0
 11
20384.0
 21
-0.0000000000001137
 31
0.0
  0
LINE
  5
10B5E
330
747D
100
AcDbEntity
  8
補助
  6
PHANTOM
 62
     7
 48
50.0
100
AcDbLine
 10
20384.0
 20
14262.0
 30
0.0
 11
20384.0
 21
1500.0
 31
0.0
  0
LINE
  5
10B6C
330
747D
100
AcDbEntity
  8
仕様書枠
 62
     7
 48
50.0
100
AcDbLine
 10
16384.0
 20
1500.0
 30
0.0
 11
20384.0
 21
1500.0
 31
0.0
  0
TEXT
  5
10B73
330
747D
100
AcDbEntity
  8
仕様書枠
 62
     7
 48
50.0
100
AcDbText
 10
16453.72382072112
 20
1118.863259287425
 30
0.0
 40
250.0
  1
基 礎 図
  7
STYLE2
100
AcDbText
  0
LINE
  5
10B7B
330
747D
100
AcDbEntity
  8
仕様書枠
 62
     7
 48
50.0
100
AcDbLine
 10
16384.0
 20
1000.0
 30
0.0
 11
17814.0
 21
1000.0
 31
0.0
  0
LINE
  5
10B88
330
747D
100
AcDbEntity
  8
仕様書枠
  6
Continuous
 62
     7
 48
50.0
100
AcDbLine
 10
17814.0
 20
1500.0
 30
0.0
 11
17814.0
 21
1000.0
 31
0.0
  0
TEXT
  5
1893F
330
747D
100
AcDbEntity
  8
文字
 62
     7
 48
50.0
100
AcDbText
 10
16511.7566802715
 20
202.8024588414045
 30
0.0
 40
100.0
  1
※寒冷地等は、地域の実情に合わせた基礎にしてください。
  7
STYLE2
100
AcDbText
  0
LINE
  5
18940
330
747D
100
AcDbEntity
  8
仕様書枠
 62
     7
 48
50.0
100
AcDbLine
 10
16484.0
 20
500.0
 30
0.0
 11
20284.0
 21
500.0
 31
0.0
  0
TEXT
  5
1A1F2
330
747D
100
AcDbEntity
  8
文字
 62
     7
 48
50.0
100
AcDbText
 10
18851.17639418858
 20
1289.447132864035
 30
0.0
 40
125.0
  1
<縮尺> S=1/50
  7
STYLE2
100
AcDbText
  0
TEXT
  5
1A1F3
330
747D
100
AcDbEntity
  8
文字
 62
     7
 48
50.0
100
AcDbText
 10
17947.84348957211
 20
604.8708912389265
 30
0.0
 40
225.0
  1
ＳＭＫ－６１Ｓ・Ｈ
  7
STYLE2
100
AcDbText
  0
TEXT
  5
1A1F4
330
747D
100
AcDbEntity
  8
文字
 62
     7
 48
50.0
100
AcDbText
 10
16501.79587498051
 20
596.5925826289065
 30
0.0
 40
200.0
  1
機種名
  7
STYLE2
100
AcDbText
  0
DIMENSION
  5
1F4CD
330
747D
100
AcDbEntity
  8
寸法
 62
     7
 48
50.0
100
AcDbDimension
  2
*D7
 10
8293.499999999989
 20
7195.955177899422
 30
0.0
 11
8193.499999999987
 21
7413.455177899423
 31
0.0
 70
    32
 71
     5
 42
435.0
  3
INABA_S50G
100
AcDbAlignedDimension
 13
9540.500000000008
 23
7630.955177899423
 33
0.0
 14
9540.500000000008
 24
7195.955177899422
 34
0.0
 50
90.0
100
AcDbRotatedDimension
1001
ACAD
1000
DSTYLE
1002
{
1070
   287
1070
     4
1070
    75
1070
     1
1070
   279
1070
     1
1002
}
  0
DIMENSION
  5
1F4CE
330
747D
100
AcDbEntity
  8
寸法
 62
     7
 48
50.0
100
AcDbDimension
  2
*D8
 10
12365.49999999998
 20
8007.955177899424
 30
0.0
 11
12265.49999999998
 21
7630.955177899423
 31
0.0
 70
    32
 71
     5
 42
754.0000000000008
  3
INABA_S50G
100
AcDbAlignedDimension
 13
11510.49999999999
 23
7253.955177899422
 33
0.0
 14
11510.49999999999
 24
8007.955177899424
 34
0.0
 50
90.0
100
AcDbRotatedDimension
  0
LINE
  5
1F4CF
330
747D
100
AcDbEntity
  8
センター
 62
     7
 48
5.0
100
AcDbLine
 10
10279.49999999999
 20
7398.955177899423
 30
0.0
 11
10279.49999999999
 21
7108.955177899423
 31
0.0
  0
LINE
  5
1F4D0
330
747D
100
AcDbEntity
  8
想像線
 62
     7
 48
20.0
100
AcDbLine
 10
8993.499999999988
 20
8956.955177899422
 30
0.0
 11
8993.499999999988
 21
6264.955177899423
 31
0.0
  0
LINE
  5
1F4D1
330
747D
100
AcDbEntity
  8
想像線
 62
     7
 48
20.0
100
AcDbLine
 10
11565.5
 20
6264.955177899423
 30
0.0
 11
11565.5
 21
8956.955177899422
 31
0.0
  0
DIMENSION
  5
1F4D2
330
747D
100
AcDbEntity
  8
寸法
 62
     7
 48
50.0
100
AcDbDimension
  2
*D9
 10
12715.5
 20
8861.955177899421
 30
0.0
 11
12615.48523622047
 21
7630.955177899423
 31
0.0
 70
    32
 71
     5
 42
2461.999999999999
  3
INABA_S50G
100
AcDbAlignedDimension
 13
11655.49999999998
 23
6399.955177899423
 33
0.0
 14
11655.49999999998
 24
8861.955177899423
 34
0.0
 50
90.0
100
AcDbRotatedDimension
  0
LINE
  5
1F4D3
330
747D
100
AcDbEntity
  8
部品1
 62
     7
 48
50.0
100
AcDbLine
 10
11510.49999999999
 20
7353.955177899422
 30
0.0
 11
11310.49999999999
 21
7353.955177899422
 31
0.0
  0
LINE
  5
1F4D4
330
747D
100
AcDbEntity
  8
部品1
 62
     7
 48
50.0
100
AcDbLine
 10
11310.49999999999
 20
7153.955177899423
 30
0.0
 11
11510.49999999999
 21
7153.955177899423
 31
0.0
  0
LINE
  5
1F4D5
330
747D
100
AcDbEntity
  8
部品1
 62
     7
 48
50.0
100
AcDbLine
 10
11110.49999999998
 20
6599.955177899421
 30
0.0
 11
11510.49999999999
 21
6599.955177899421
 31
0.0
  0
LINE
  5
1F4D6
330
747D
100
AcDbEntity
  8
部品1
 62
     7
 48
50.0
100
AcDbLine
 10
11110.49999999998
 20
6399.955177899423
 30
0.0
 11
11510.49999999999
 21
6399.955177899423
 31
0.0
  0
LINE
  5
1F4D7
330
747D
100
AcDbEntity
  8
センター
 62
     7
 48
5.0
100
AcDbLine
 10
11655.49999999998
 20
6399.955177899423
 30
0.0
 11
11365.5
 21
6399.955177899423
 31
0.0
  0
LINE
  5
1F4D8
330
747D
100
AcDbEntity
  8
想像線
 62
     7
 48
20.0
100
AcDbLine
 10
8993.499999999988
 20
6264.955177899423
 30
0.0
 11
11565.5
 21
6264.955177899423
 31
0.0
  0
DIMENSION
  5
1F4D9
330
747D
100
AcDbEntity
  8
寸法
 62
     7
 48
50.0
100
AcDbDimension
  2
*D10
 10
11510.49999999999
 20
5464.955177899422
 30
0.0
 11
10279.49999999999
 21
5564.96994167895
 31
0.0
 70
    32
 71
     5
 42
2462.0
  3
INABA_S50G
100
AcDbAlignedDimension
 13
9048.499999999988
 23
6254.955177899423
 33
0.0
 14
11510.49999999999
 24
6254.955177899423
 34
0.0
100
AcDbRotatedDimension
  0
DIMENSION
  5
1F4DA
330
747D
100
AcDbEntity
  8
寸法
 62
     7
 48
50.0
100
AcDbDimension
  2
*D11
 10
11510.49999999999
 20
5864.955177899423
 30
0.0
 11
10894.99999999999
 21
5964.96994167895
 31
0.0
 70
    32
 71
     5
 42
1231.0
  3
INABA_S50G
100
AcDbAlignedDimension
 13
10279.49999999999
 23
6334.955177899423
 33
0.0
 14
11510.49999999999
 24
6254.955177899423
 34
0.0
100
AcDbRotatedDimension
1001
ACAD
1000
DSTYLE
1002
{
1070
   287
1070
     4
1070
    75
1070
     1
1070
   279
1070
     1
1002
}
  0
DIMENSION
  5
1F4DC
330
747D
100
AcDbEntity
  8
寸法
 62
     7
 48
50.0
100
AcDbDimension
  2
*D12
 10
8293.499999999992
 20
6334.955177899423
 30
0.0
 11
8293.499999999989
 21
5818.098576181625
 31
0.0
 70
   160
  1
扉の出<>
 71
     5
 42
65.0
  3
INABA_S50G
100
AcDbAlignedDimension
 13
8903.500000000009
 23
6399.955177899423
 33
0.0
 14
10179.49999999999
 24
6334.955177899423
 34
0.0
 50
90.0
100
AcDbRotatedDimension
  0
LINE
  5
1F4DD
330
747D
100
AcDbEntity
  8
細線
 62
     7
 48
10.0
100
AcDbLine
 10
9585.500000000008
 20
6660.955177899423
 30
0.0
 11
9785.500000000009
 21
6660.955177899423
 31
0.0
  0
LINE
  5
1F4DE
330
747D
100
AcDbEntity
  8
細線
 62
     7
 48
10.0
100
AcDbLine
 10
9785.500000000009
 20
6860.955177899423
 30
0.0
 11
9585.500000000008
 21
6860.955177899423
 31
0.0
  0
LINE
  5
1F4DF
330
747D
100
AcDbEntity
  8
センター
 62
     7
 48
5.0
100
AcDbLine
 10
9830.500000000009
 20
6760.955177899423
 30
0.0
 11
9540.500000000008
 21
6760.955177899423
 31
0.0
  0
LINE
  5
1F4E0
330
747D
100
AcDbEntity
  8
細線
 62
     7
 48
10.0
100
AcDbLine
 10
9585.500000000008
 20
7395.955177899423
 30
0.0
 11
9785.500000000009
 21
7395.955177899423
 31
0.0
  0
LINE
  5
1F4E1
330
747D
100
AcDbEntity
  8
細線
 62
     7
 48
10.0
100
AcDbLine
 10
9785.500000000009
 20
6995.955177899422
 30
0.0
 11
9585.500000000008
 21
6995.955177899422
 31
0.0
  0
LINE
  5
1F4E2
330
747D
100
AcDbEntity
  8
センター
 62
     7
 48
5.0
100
AcDbLine
 10
9540.500000000008
 20
7195.955177899422
 30
0.0
 11
9830.500000000009
 21
7195.955177899422
 31
0.0
  0
DIMENSION
  5
1F4E3
330
747D
100
AcDbEntity
  8
寸法
 62
     7
 48
50.0
100
AcDbDimension
  2
*D13
 10
10279.49999999999
 20
5864.955177899423
 30
0.0
 11
9663.999999999987
 21
5964.96994167895
 31
0.0
 70
    32
 71
     5
 42
1231.0
  3
INABA_S50G
100
AcDbAlignedDimension
 13
9048.499999999988
 23
6254.955177899423
 33
0.0
 14
10279.49999999999
 24
6334.955177899423
 34
0.0
100
AcDbRotatedDimension
  0
DIMENSION
  5
1F4E4
330
747D
100
AcDbEntity
  8
寸法
 62
     7
 48
50.0
100
AcDbDimension
  2
*D14
 10
9048.499999999988
 20
5464.955177899422
 30
0.0
 11
8701.059055118099
 21
5464.955177899422
 31
0.0
 70
   160
  1
(<>)
 71
     5
 42
55.0
  3
INABA_S50G
100
AcDbAlignedDimension
 13
8993.499999999988
 23
6264.955177899423
 33
0.0
 14
9048.499999999988
 24
6254.955177899423
 34
0.0
100
AcDbRotatedDimension
  0
DIMENSION
  5
1F4E5
330
747D
100
AcDbEntity
  8
寸法
 62
     7
 48
50.0
100
AcDbDimension
  2
*D15
 10
8293.499999999989
 20
6399.955177899423
 30
0.0
 11
8193.499999999987
 21
6580.455177899422
 31
0.0
 70
    32
 71
     5
 42
361.0
  3
INABA_S50G
100
AcDbAlignedDimension
 13
9540.500000000008
 23
6760.955177899423
 33
0.0
 14
8903.500000000009
 24
6399.955177899423
 34
0.0
 50
90.0
100
AcDbRotatedDimension
1001
ACAD
1000
DSTYLE
1002
{
1070
   287
1070
     4
1070
    75
1070
     1
1070
   279
1070
     1
1002
}
  0
DIMENSION
  5
1F4E6
330
747D
100
AcDbEntity
  8
寸法
 62
     7
 48
50.0
100
AcDbDimension
  2
*D16
 10
8293.499999999989
 20
6760.955177899423
 30
0.0
 11
8193.499999999987
 21
6978.455177899424
 31
0.0
 70
    32
 71
     5
 42
435.0
  3
INABA_S50G
100
AcDbAlignedDimension
 13
9540.500000000008
 23
7195.955177899422
 33
0.0
 14
9540.500000000008
 24
6760.955177899423
 34
0.0
 50
90.0
100
AcDbRotatedDimension
1001
ACAD
1000
DSTYLE
1002
{
1070
   287
1070
     4
1070
    75
1070
     1
1070
   279
1070
     1
1002
}
  0
LINE
  5
1F4E7
330
747D
100
AcDbEntity
  8
センター
 62
     7
 48
5.0
100
AcDbLine
 10
9193.499999999987
 20
6399.955177899423
 30
0.0
 11
8903.500000000009
 21
6399.955177899423
 31
0.0
  0
LINE
  5
1F4E8
330
747D
100
AcDbEntity
  8
細線
 62
     7
 48
10.0
100
AcDbLine
 10
9585.500000000008
 20
6860.955177899423
 30
0.0
 11
9585.500000000008
 21
6660.955177899423
 31
0.0
  0
LINE
  5
1F4E9
330
747D
100
AcDbEntity
  8
センター
 62
     7
 48
5.0
100
AcDbLine
 10
9685.500000000009
 20
6615.955177899421
 30
0.0
 11
9685.500000000009
 21
6905.955177899423
 31
0.0
  0
LINE
  5
1F4EA
330
747D
100
AcDbEntity
  8
部品1
 62
     7
 48
50.0
100
AcDbLine
 10
9048.499999999988
 20
6399.955177899423
 30
0.0
 11
9448.500000000009
 21
6399.955177899423
 31
0.0
  0
LINE
  5
1F4EB
330
747D
100
AcDbEntity
  8
部品1
 62
     7
 48
50.0
100
AcDbLine
 10
9048.499999999988
 20
6599.955177899421
 30
0.0
 11
9448.500000000009
 21
6599.955177899421
 31
0.0
  0
LINE
  5
1F4EC
330
747D
100
AcDbEntity
  8
センター
 62
     7
 48
5.0
100
AcDbLine
 10
9048.499999999988
 20
6544.955177899423
 30
0.0
 11
9048.499999999988
 21
6254.955177899423
 31
0.0
  0
LINE
  5
1F4ED
330
747D
100
AcDbEntity
  8
部品1
 62
     7
 48
50.0
100
AcDbLine
 10
9048.499999999988
 20
6599.955177899421
 30
0.0
 11
9048.499999999988
 21
6399.955177899423
 31
0.0
  0
LINE
  5
1F4EE
330
747D
100
AcDbEntity
  8
点線
 62
     7
 48
10.0
100
AcDbLine
 10
9148.50000000001
 20
6299.955177899421
 30
0.0
 11
8948.499999999986
 21
6299.955177899421
 31
0.0
  0
LINE
  5
1F4EF
330
747D
100
AcDbEntity
  8
点線
 62
     7
 48
10.0
100
AcDbLine
 10
9148.50000000001
 20
6499.955177899423
 30
0.0
 11
8948.499999999986
 21
6499.955177899423
 31
0.0
  0
LINE
  5
1F4F0
330
747D
100
AcDbEntity
  8
点線
 62
     7
 48
10.0
100
AcDbLine
 10
8948.499999999986
 20
6299.955177899421
 30
0.0
 11
8948.499999999986
 21
6499.955177899423
 31
0.0
  0
LINE
  5
1F4F1
330
747D
100
AcDbEntity
  8
点線
 62
     7
 48
10.0
100
AcDbLine
 10
9148.50000000001
 20
6299.955177899421
 30
0.0
 11
9148.50000000001
 21
6499.955177899423
 31
0.0
  0
LINE
  5
1F4F2
330
747D
100
AcDbEntity
  8
部品1
 62
     7
 48
50.0
100
AcDbLine
 10
9448.500000000009
 20
6599.955177899421
 30
0.0
 11
9448.500000000009
 21
6399.955177899423
 31
0.0
  0
LINE
  5
1F4F3
330
747D
100
AcDbEntity
  8
部品1
 62
     7
 48
50.0
100
AcDbLine
 10
9724.140127007638
 20
6683.356764573615
 30
0.0
 11
9724.140127007638
 21
6683.356764573615
 31
0.0
  0
LINE
  5
1F4F4
330
747D
100
AcDbEntity
  8
部品1
 62
     7
 48
50.0
100
AcDbLine
 10
9700.327627007638
 20
6683.356764573615
 30
0.0
 11
9700.327627007638
 21
6683.356764573615
 31
0.0
  0
LINE
  5
1F4F5
330
747D
100
AcDbEntity
  8
部品1
 62
     7
 48
50.0
100
AcDbLine
 10
9676.51512700764
 20
6683.356764573615
 30
0.0
 11
9676.51512700764
 21
6683.356764573615
 31
0.0
  0
LINE
  5
1F4F6
330
747D
100
AcDbEntity
  8
部品1
 62
     7
 48
50.0
100
AcDbLine
 10
9652.702627007641
 20
6683.356764573615
 30
0.0
 11
9652.702627007641
 21
6683.356764573615
 31
0.0
  0
LINE
  5
1F4F7
330
747D
100
AcDbEntity
  8
部品1
 62
     7
 48
50.0
100
AcDbLine
 10
9628.890127007641
 20
6683.356764573615
 30
0.0
 11
9628.890127007641
 21
6683.356764573615
 31
0.0
  0
LINE
  5
1F4F8
330
747D
100
AcDbEntity
  8
部品1
 62
     7
 48
50.0
100
AcDbLine
 10
9605.077627007638
 20
6683.356764573615
 30
0.0
 11
9605.077627007638
 21
6683.356764573615
 31
0.0
  0
LINE
  5
1F4F9
330
747D
100
AcDbEntity
  8
部品1
 62
     7
 48
50.0
100
AcDbLine
 10
9712.233877007641
 20
6707.169264573616
 30
0.0
 11
9712.233877007641
 21
6707.169264573616
 31
0.0
  0
LINE
  5
1F4FA
330
747D
100
AcDbEntity
  8
部品1
 62
     7
 48
50.0
100
AcDbLine
 10
9688.421377007641
 20
6707.169264573616
 30
0.0
 11
9688.421377007641
 21
6707.169264573616
 31
0.0
  0
LINE
  5
1F4FB
330
747D
100
AcDbEntity
  8
部品1
 62
     7
 48
50.0
100
AcDbLine
 10
9664.608877007641
 20
6707.169264573616
 30
0.0
 11
9664.608877007641
 21
6707.169264573616
 31
0.0
  0
LINE
  5
1F4FC
330
747D
100
AcDbEntity
  8
部品1
 62
     7
 48
50.0
100
AcDbLine
 10
9640.796377007641
 20
6707.169264573616
 30
0.0
 11
9640.796377007641
 21
6707.169264573616
 31
0.0
  0
LINE
  5
1F4FD
330
747D
100
AcDbEntity
  8
部品1
 62
     7
 48
50.0
100
AcDbLine
 10
9616.983877007641
 20
6707.169264573616
 30
0.0
 11
9616.983877007641
 21
6707.169264573616
 31
0.0
  0
LINE
  5
1F4FE
330
747D
100
AcDbEntity
  8
部品1
 62
     7
 48
50.0
100
AcDbLine
 10
9593.17137700764
 20
6707.169264573616
 30
0.0
 11
9593.17137700764
 21
6707.169264573616
 31
0.0
  0
LINE
  5
1F4FF
330
747D
100
AcDbEntity
  8
部品1
 62
     7
 48
50.0
100
AcDbLine
 10
9724.140127007638
 20
6730.981764573616
 30
0.0
 11
9724.140127007638
 21
6730.981764573616
 31
0.0
  0
LINE
  5
1F500
330
747D
100
AcDbEntity
  8
部品1
 62
     7
 48
50.0
100
AcDbLine
 10
9700.327627007638
 20
6730.981764573616
 30
0.0
 11
9700.327627007638
 21
6730.981764573616
 31
0.0
  0
LINE
  5
1F501
330
747D
100
AcDbEntity
  8
部品1
 62
     7
 48
50.0
100
AcDbLine
 10
9676.51512700764
 20
6730.981764573616
 30
0.0
 11
9676.51512700764
 21
6730.981764573616
 31
0.0
  0
LINE
  5
1F502
330
747D
100
AcDbEntity
  8
部品1
 62
     7
 48
50.0
100
AcDbLine
 10
9652.702627007641
 20
6730.981764573616
 30
0.0
 11
9652.702627007641
 21
6730.981764573616
 31
0.0
  0
LINE
  5
1F503
330
747D
100
AcDbEntity
  8
部品1
 62
     7
 48
50.0
100
AcDbLine
 10
9628.890127007641
 20
6730.981764573616
 30
0.0
 11
9628.890127007641
 21
6730.981764573616
 31
0.0
  0
LINE
  5
1F504
330
747D
100
AcDbEntity
  8
部品1
 62
     7
 48
50.0
100
AcDbLine
 10
9605.077627007638
 20
6730.981764573616
 30
0.0
 11
9605.077627007638
 21
6730.981764573616
 31
0.0
  0
LINE
  5
1F505
330
747D
100
AcDbEntity
  8
部品1
 62
     7
 48
50.0
100
AcDbLine
 10
9712.233877007641
 20
6754.794264573617
 30
0.0
 11
9712.233877007641
 21
6754.794264573617
 31
0.0
  0
LINE
  5
1F506
330
747D
100
AcDbEntity
  8
部品1
 62
     7
 48
50.0
100
AcDbLine
 10
9688.421377007641
 20
6754.794264573617
 30
0.0
 11
9688.421377007641
 21
6754.794264573617
 31
0.0
  0
LINE
  5
1F507
330
747D
100
AcDbEntity
  8
部品1
 62
     7
 48
50.0
100
AcDbLine
 10
9664.608877007641
 20
6754.794264573617
 30
0.0
 11
9664.608877007641
 21
6754.794264573617
 31
0.0
  0
LINE
  5
1F508
330
747D
100
AcDbEntity
  8
部品1
 62
     7
 48
50.0
100
AcDbLine
 10
9640.796377007641
 20
6754.794264573617
 30
0.0
 11
9640.796377007641
 21
6754.794264573617
 31
0.0
  0
LINE
  5
1F509
330
747D
100
AcDbEntity
  8
部品1
 62
     7
 48
50.0
100
AcDbLine
 10
9616.983877007641
 20
6754.794264573617
 30
0.0
 11
9616.983877007641
 21
6754.794264573617
 31
0.0
  0
LINE
  5
1F50A
330
747D
100
AcDbEntity
  8
部品1
 62
     7
 48
50.0
100
AcDbLine
 10
9593.17137700764
 20
6754.794264573617
 30
0.0
 11
9593.17137700764
 21
6754.794264573617
 31
0.0
  0
LINE
  5
1F50B
330
747D
100
AcDbEntity
  8
部品1
 62
     7
 48
50.0
100
AcDbLine
 10
9724.140127007638
 20
6778.606764573615
 30
0.0
 11
9724.140127007638
 21
6778.606764573615
 31
0.0
  0
LINE
  5
1F50C
330
747D
100
AcDbEntity
  8
部品1
 62
     7
 48
50.0
100
AcDbLine
 10
9700.327627007638
 20
6778.606764573615
 30
0.0
 11
9700.327627007638
 21
6778.606764573615
 31
0.0
  0
LINE
  5
1F50D
330
747D
100
AcDbEntity
  8
部品1
 62
     7
 48
50.0
100
AcDbLine
 10
9676.51512700764
 20
6778.606764573615
 30
0.0
 11
9676.51512700764
 21
6778.606764573615
 31
0.0
  0
LINE
  5
1F50E
330
747D
100
AcDbEntity
  8
部品1
 62
     7
 48
50.0
100
AcDbLine
 10
9652.702627007641
 20
6778.606764573615
 30
0.0
 11
9652.702627007641
 21
6778.606764573615
 31
0.0
  0
LINE
  5
1F50F
330
747D
100
AcDbEntity
  8
部品1
 62
     7
 48
50.0
100
AcDbLine
 10
9628.890127007641
 20
6778.606764573615
 30
0.0
 11
9628.890127007641
 21
6778.606764573615
 31
0.0
  0
LINE
  5
1F510
330
747D
100
AcDbEntity
  8
部品1
 62
     7
 48
50.0
100
AcDbLine
 10
9605.077627007638
 20
6778.606764573615
 30
0.0
 11
9605.077627007638
 21
6778.606764573615
 31
0.0
  0
LINE
  5
1F511
330
747D
100
AcDbEntity
  8
部品1
 62
     7
 48
50.0
100
AcDbLine
 10
9712.233877007641
 20
6802.419264573616
 30
0.0
 11
9712.233877007641
 21
6802.419264573616
 31
0.0
  0
LINE
  5
1F512
330
747D
100
AcDbEntity
  8
部品1
 62
     7
 48
50.0
100
AcDbLine
 10
9688.421377007641
 20
6802.419264573616
 30
0.0
 11
9688.421377007641
 21
6802.419264573616
 31
0.0
  0
LINE
  5
1F513
330
747D
100
AcDbEntity
  8
部品1
 62
     7
 48
50.0
100
AcDbLine
 10
9664.608877007641
 20
6802.419264573616
 30
0.0
 11
9664.608877007641
 21
6802.419264573616
 31
0.0
  0
LINE
  5
1F514
330
747D
100
AcDbEntity
  8
部品1
 62
     7
 48
50.0
100
AcDbLine
 10
9640.796377007641
 20
6802.419264573616
 30
0.0
 11
9640.796377007641
 21
6802.419264573616
 31
0.0
  0
LINE
  5
1F515
330
747D
100
AcDbEntity
  8
部品1
 62
     7
 48
50.0
100
AcDbLine
 10
9616.983877007641
 20
6802.419264573616
 30
0.0
 11
9616.983877007641
 21
6802.419264573616
 31
0.0
  0
LINE
  5
1F516
330
747D
100
AcDbEntity
  8
部品1
 62
     7
 48
50.0
100
AcDbLine
 10
9593.17137700764
 20
6802.419264573616
 30
0.0
 11
9593.17137700764
 21
6802.419264573616
 31
0.0
  0
LINE
  5
1F517
330
747D
100
AcDbEntity
  8
部品1
 62
     7
 48
50.0
100
AcDbLine
 10
9248.50000000001
 20
7153.955177899423
 30
0.0
 11
9048.499999999988
 21
7153.955177899423
 31
0.0
  0
LINE
  5
1F518
330
747D
100
AcDbEntity
  8
部品1
 62
     7
 48
50.0
100
AcDbLine
 10
9048.499999999988
 20
7353.955177899422
 30
0.0
 11
9248.50000000001
 21
7353.955177899422
 31
0.0
  0
LINE
  5
1F519
330
747D
100
AcDbEntity
  8
部品1
 62
     7
 48
50.0
100
AcDbLine
 10
9048.499999999988
 20
7153.955177899423
 30
0.0
 11
9048.499999999988
 21
7353.955177899422
 31
0.0
  0
LINE
  5
1F51A
330
747D
100
AcDbEntity
  8
部品1
 62
     7
 48
50.0
100
AcDbLine
 10
9248.50000000001
 20
7353.955177899422
 30
0.0
 11
9248.50000000001
 21
7153.955177899423
 31
0.0
  0
LINE
  5
1F51B
330
747D
100
AcDbEntity
  8
センター
 62
     7
 48
5.0
100
AcDbLine
 10
9685.500000000009
 20
7340.955177899423
 30
0.0
 11
9685.500000000009
 21
7050.955177899424
 31
0.0
  0
LINE
  5
1F51C
330
747D
100
AcDbEntity
  8
細線
 62
     7
 48
10.0
100
AcDbLine
 10
9585.500000000008
 20
6995.955177899422
 30
0.0
 11
9585.500000000008
 21
7395.955177899423
 31
0.0
  0
LINE
  5
1F51D
330
747D
100
AcDbEntity
  8
部品1
 62
     7
 48
50.0
100
AcDbLine
 10
9724.140127007638
 20
6826.231764573616
 30
0.0
 11
9724.140127007638
 21
6826.231764573616
 31
0.0
  0
LINE
  5
1F51E
330
747D
100
AcDbEntity
  8
部品1
 62
     7
 48
50.0
100
AcDbLine
 10
9700.327627007638
 20
6826.231764573616
 30
0.0
 11
9700.327627007638
 21
6826.231764573616
 31
0.0
  0
LINE
  5
1F51F
330
747D
100
AcDbEntity
  8
部品1
 62
     7
 48
50.0
100
AcDbLine
 10
9676.51512700764
 20
6826.231764573616
 30
0.0
 11
9676.51512700764
 21
6826.231764573616
 31
0.0
  0
LINE
  5
1F520
330
747D
100
AcDbEntity
  8
部品1
 62
     7
 48
50.0
100
AcDbLine
 10
9652.702627007641
 20
6826.231764573616
 30
0.0
 11
9652.702627007641
 21
6826.231764573616
 31
0.0
  0
LINE
  5
1F521
330
747D
100
AcDbEntity
  8
部品1
 62
     7
 48
50.0
100
AcDbLine
 10
9628.890127007641
 20
6826.231764573616
 30
0.0
 11
9628.890127007641
 21
6826.231764573616
 31
0.0
  0
LINE
  5
1F522
330
747D
100
AcDbEntity
  8
部品1
 62
     7
 48
50.0
100
AcDbLine
 10
9605.077627007638
 20
6826.231764573616
 30
0.0
 11
9605.077627007638
 21
6826.231764573616
 31
0.0
  0
LINE
  5
1F523
330
747D
100
AcDbEntity
  8
部品1
 62
     7
 48
50.0
100
AcDbLine
 10
9712.233877007641
 20
6850.044264573617
 30
0.0
 11
9712.233877007641
 21
6850.044264573617
 31
0.0
  0
LINE
  5
1F524
330
747D
100
AcDbEntity
  8
部品1
 62
     7
 48
50.0
100
AcDbLine
 10
9688.421377007641
 20
6850.044264573617
 30
0.0
 11
9688.421377007641
 21
6850.044264573617
 31
0.0
  0
LINE
  5
1F525
330
747D
100
AcDbEntity
  8
部品1
 62
     7
 48
50.0
100
AcDbLine
 10
9664.608877007641
 20
6850.044264573617
 30
0.0
 11
9664.608877007641
 21
6850.044264573617
 31
0.0
  0
LINE
  5
1F526
330
747D
100
AcDbEntity
  8
部品1
 62
     7
 48
50.0
100
AcDbLine
 10
9640.796377007641
 20
6850.044264573617
 30
0.0
 11
9640.796377007641
 21
6850.044264573617
 31
0.0
  0
LINE
  5
1F527
330
747D
100
AcDbEntity
  8
部品1
 62
     7
 48
50.0
100
AcDbLine
 10
9616.983877007641
 20
6850.044264573617
 30
0.0
 11
9616.983877007641
 21
6850.044264573617
 31
0.0
  0
LINE
  5
1F528
330
747D
100
AcDbEntity
  8
部品1
 62
     7
 48
50.0
100
AcDbLine
 10
9593.17137700764
 20
6850.044264573617
 30
0.0
 11
9593.17137700764
 21
6850.044264573617
 31
0.0
  0
LINE
  5
1F529
330
747D
100
AcDbEntity
  8
部品1
 62
     7
 48
50.0
100
AcDbLine
 10
9724.140127007638
 20
7016.731764573616
 30
0.0
 11
9724.140127007638
 21
7016.731764573616
 31
0.0
  0
LINE
  5
1F52A
330
747D
100
AcDbEntity
  8
部品1
 62
     7
 48
50.0
100
AcDbLine
 10
9700.327627007638
 20
7016.731764573616
 30
0.0
 11
9700.327627007638
 21
7016.731764573616
 31
0.0
  0
LINE
  5
1F52B
330
747D
100
AcDbEntity
  8
部品1
 62
     7
 48
50.0
100
AcDbLine
 10
9676.51512700764
 20
7016.731764573616
 30
0.0
 11
9676.51512700764
 21
7016.731764573616
 31
0.0
  0
LINE
  5
1F52C
330
747D
100
AcDbEntity
  8
部品1
 62
     7
 48
50.0
100
AcDbLine
 10
9652.702627007641
 20
7016.731764573616
 30
0.0
 11
9652.702627007641
 21
7016.731764573616
 31
0.0
  0
LINE
  5
1F52D
330
747D
100
AcDbEntity
  8
部品1
 62
     7
 48
50.0
100
AcDbLine
 10
9628.890127007641
 20
7016.731764573616
 30
0.0
 11
9628.890127007641
 21
7016.731764573616
 31
0.0
  0
LINE
  5
1F52E
330
747D
100
AcDbEntity
  8
部品1
 62
     7
 48
50.0
100
AcDbLine
 10
9605.077627007638
 20
7016.731764573616
 30
0.0
 11
9605.077627007638
 21
7016.731764573616
 31
0.0
  0
LINE
  5
1F52F
330
747D
100
AcDbEntity
  8
部品1
 62
     7
 48
50.0
100
AcDbLine
 10
9712.233877007641
 20
7040.544264573617
 30
0.0
 11
9712.233877007641
 21
7040.544264573617
 31
0.0
  0
LINE
  5
1F530
330
747D
100
AcDbEntity
  8
部品1
 62
     7
 48
50.0
100
AcDbLine
 10
9688.421377007641
 20
7040.544264573617
 30
0.0
 11
9688.421377007641
 21
7040.544264573617
 31
0.0
  0
LINE
  5
1F531
330
747D
100
AcDbEntity
  8
部品1
 62
     7
 48
50.0
100
AcDbLine
 10
9664.608877007641
 20
7040.544264573617
 30
0.0
 11
9664.608877007641
 21
7040.544264573617
 31
0.0
  0
LINE
  5
1F532
330
747D
100
AcDbEntity
  8
部品1
 62
     7
 48
50.0
100
AcDbLine
 10
9640.796377007641
 20
7040.544264573617
 30
0.0
 11
9640.796377007641
 21
7040.544264573617
 31
0.0
  0
LINE
  5
1F533
330
747D
100
AcDbEntity
  8
部品1
 62
     7
 48
50.0
100
AcDbLine
 10
9616.983877007641
 20
7040.544264573617
 30
0.0
 11
9616.983877007641
 21
7040.544264573617
 31
0.0
  0
LINE
  5
1F534
330
747D
100
AcDbEntity
  8
部品1
 62
     7
 48
50.0
100
AcDbLine
 10
9593.17137700764
 20
7040.544264573617
 30
0.0
 11
9593.17137700764
 21
7040.544264573617
 31
0.0
  0
LINE
  5
1F535
330
747D
100
AcDbEntity
  8
部品1
 62
     7
 48
50.0
100
AcDbLine
 10
9724.140127007638
 20
7064.356764573616
 30
0.0
 11
9724.140127007638
 21
7064.356764573616
 31
0.0
  0
LINE
  5
1F536
330
747D
100
AcDbEntity
  8
部品1
 62
     7
 48
50.0
100
AcDbLine
 10
9700.327627007638
 20
7064.356764573616
 30
0.0
 11
9700.327627007638
 21
7064.356764573616
 31
0.0
  0
LINE
  5
1F537
330
747D
100
AcDbEntity
  8
部品1
 62
     7
 48
50.0
100
AcDbLine
 10
9676.51512700764
 20
7064.356764573616
 30
0.0
 11
9676.51512700764
 21
7064.356764573616
 31
0.0
  0
LINE
  5
1F538
330
747D
100
AcDbEntity
  8
部品1
 62
     7
 48
50.0
100
AcDbLine
 10
9652.702627007641
 20
7064.356764573616
 30
0.0
 11
9652.702627007641
 21
7064.356764573616
 31
0.0
  0
LINE
  5
1F539
330
747D
100
AcDbEntity
  8
部品1
 62
     7
 48
50.0
100
AcDbLine
 10
9628.890127007641
 20
7064.356764573616
 30
0.0
 11
9628.890127007641
 21
7064.356764573616
 31
0.0
  0
LINE
  5
1F53A
330
747D
100
AcDbEntity
  8
部品1
 62
     7
 48
50.0
100
AcDbLine
 10
9605.077627007638
 20
7064.356764573616
 30
0.0
 11
9605.077627007638
 21
7064.356764573616
 31
0.0
  0
LINE
  5
1F53B
330
747D
100
AcDbEntity
  8
部品1
 62
     7
 48
50.0
100
AcDbLine
 10
9712.233877007641
 20
7088.169264573615
 30
0.0
 11
9712.233877007641
 21
7088.169264573615
 31
0.0
  0
LINE
  5
1F53C
330
747D
100
AcDbEntity
  8
部品1
 62
     7
 48
50.0
100
AcDbLine
 10
9688.421377007641
 20
7088.169264573615
 30
0.0
 11
9688.421377007641
 21
7088.169264573615
 31
0.0
  0
LINE
  5
1F53D
330
747D
100
AcDbEntity
  8
部品1
 62
     7
 48
50.0
100
AcDbLine
 10
9664.608877007641
 20
7088.169264573615
 30
0.0
 11
9664.608877007641
 21
7088.169264573615
 31
0.0
  0
LINE
  5
1F53E
330
747D
100
AcDbEntity
  8
部品1
 62
     7
 48
50.0
100
AcDbLine
 10
9640.796377007641
 20
7088.169264573615
 30
0.0
 11
9640.796377007641
 21
7088.169264573615
 31
0.0
  0
LINE
  5
1F53F
330
747D
100
AcDbEntity
  8
部品1
 62
     7
 48
50.0
100
AcDbLine
 10
9616.983877007641
 20
7088.169264573615
 30
0.0
 11
9616.983877007641
 21
7088.169264573615
 31
0.0
  0
LINE
  5
1F540
330
747D
100
AcDbEntity
  8
部品1
 62
     7
 48
50.0
100
AcDbLine
 10
9593.17137700764
 20
7088.169264573615
 30
0.0
 11
9593.17137700764
 21
7088.169264573615
 31
0.0
  0
LINE
  5
1F541
330
747D
100
AcDbEntity
  8
部品1
 62
     7
 48
50.0
100
AcDbLine
 10
9724.140127007638
 20
7111.981764573616
 30
0.0
 11
9724.140127007638
 21
7111.981764573616
 31
0.0
  0
LINE
  5
1F542
330
747D
100
AcDbEntity
  8
部品1
 62
     7
 48
50.0
100
AcDbLine
 10
9700.327627007638
 20
7111.981764573616
 30
0.0
 11
9700.327627007638
 21
7111.981764573616
 31
0.0
  0
LINE
  5
1F543
330
747D
100
AcDbEntity
  8
部品1
 62
     7
 48
50.0
100
AcDbLine
 10
9676.51512700764
 20
7111.981764573616
 30
0.0
 11
9676.51512700764
 21
7111.981764573616
 31
0.0
  0
LINE
  5
1F544
330
747D
100
AcDbEntity
  8
部品1
 62
     7
 48
50.0
100
AcDbLine
 10
9652.702627007641
 20
7111.981764573616
 30
0.0
 11
9652.702627007641
 21
7111.981764573616
 31
0.0
  0
LINE
  5
1F545
330
747D
100
AcDbEntity
  8
部品1
 62
     7
 48
50.0
100
AcDbLine
 10
9628.890127007641
 20
7111.981764573616
 30
0.0
 11
9628.890127007641
 21
7111.981764573616
 31
0.0
  0
LINE
  5
1F546
330
747D
100
AcDbEntity
  8
部品1
 62
     7
 48
50.0
100
AcDbLine
 10
9605.077627007638
 20
7111.981764573616
 30
0.0
 11
9605.077627007638
 21
7111.981764573616
 31
0.0
  0
LINE
  5
1F547
330
747D
100
AcDbEntity
  8
部品1
 62
     7
 48
50.0
100
AcDbLine
 10
9712.233877007641
 20
7135.794264573617
 30
0.0
 11
9712.233877007641
 21
7135.794264573617
 31
0.0
  0
LINE
  5
1F548
330
747D
100
AcDbEntity
  8
部品1
 62
     7
 48
50.0
100
AcDbLine
 10
9688.421377007641
 20
7135.794264573617
 30
0.0
 11
9688.421377007641
 21
7135.794264573617
 31
0.0
  0
LINE
  5
1F549
330
747D
100
AcDbEntity
  8
部品1
 62
     7
 48
50.0
100
AcDbLine
 10
9664.608877007641
 20
7135.794264573617
 30
0.0
 11
9664.608877007641
 21
7135.794264573617
 31
0.0
  0
LINE
  5
1F54A
330
747D
100
AcDbEntity
  8
部品1
 62
     7
 48
50.0
100
AcDbLine
 10
9640.796377007641
 20
7135.794264573617
 30
0.0
 11
9640.796377007641
 21
7135.794264573617
 31
0.0
  0
LINE
  5
1F54B
330
747D
100
AcDbEntity
  8
部品1
 62
     7
 48
50.0
100
AcDbLine
 10
9616.983877007641
 20
7135.794264573617
 30
0.0
 11
9616.983877007641
 21
7135.794264573617
 31
0.0
  0
LINE
  5
1F54C
330
747D
100
AcDbEntity
  8
部品1
 62
     7
 48
50.0
100
AcDbLine
 10
9593.17137700764
 20
7135.794264573617
 30
0.0
 11
9593.17137700764
 21
7135.794264573617
 31
0.0
  0
LINE
  5
1F54D
330
747D
100
AcDbEntity
  8
部品1
 62
     7
 48
50.0
100
AcDbLine
 10
9724.140127007638
 20
7159.606764573616
 30
0.0
 11
9724.140127007638
 21
7159.606764573616
 31
0.0
  0
LINE
  5
1F54E
330
747D
100
AcDbEntity
  8
部品1
 62
     7
 48
50.0
100
AcDbLine
 10
9700.327627007638
 20
7159.606764573616
 30
0.0
 11
9700.327627007638
 21
7159.606764573616
 31
0.0
  0
LINE
  5
1F54F
330
747D
100
AcDbEntity
  8
部品1
 62
     7
 48
50.0
100
AcDbLine
 10
9676.51512700764
 20
7159.606764573616
 30
0.0
 11
9676.51512700764
 21
7159.606764573616
 31
0.0
  0
LINE
  5
1F550
330
747D
100
AcDbEntity
  8
部品1
 62
     7
 48
50.0
100
AcDbLine
 10
9652.702627007641
 20
7159.606764573616
 30
0.0
 11
9652.702627007641
 21
7159.606764573616
 31
0.0
  0
LINE
  5
1F551
330
747D
100
AcDbEntity
  8
部品1
 62
     7
 48
50.0
100
AcDbLine
 10
9628.890127007641
 20
7159.606764573616
 30
0.0
 11
9628.890127007641
 21
7159.606764573616
 31
0.0
  0
LINE
  5
1F552
330
747D
100
AcDbEntity
  8
部品1
 62
     7
 48
50.0
100
AcDbLine
 10
9605.077627007638
 20
7159.606764573616
 30
0.0
 11
9605.077627007638
 21
7159.606764573616
 31
0.0
  0
LINE
  5
1F553
330
747D
100
AcDbEntity
  8
部品1
 62
     7
 48
50.0
100
AcDbLine
 10
9712.233877007641
 20
7183.419264573617
 30
0.0
 11
9712.233877007641
 21
7183.419264573617
 31
0.0
  0
LINE
  5
1F554
330
747D
100
AcDbEntity
  8
部品1
 62
     7
 48
50.0
100
AcDbLine
 10
9688.421377007641
 20
7183.419264573617
 30
0.0
 11
9688.421377007641
 21
7183.419264573617
 31
0.0
  0
LINE
  5
1F555
330
747D
100
AcDbEntity
  8
部品1
 62
     7
 48
50.0
100
AcDbLine
 10
9664.608877007641
 20
7183.419264573617
 30
0.0
 11
9664.608877007641
 21
7183.419264573617
 31
0.0
  0
LINE
  5
1F556
330
747D
100
AcDbEntity
  8
部品1
 62
     7
 48
50.0
100
AcDbLine
 10
9640.796377007641
 20
7183.419264573617
 30
0.0
 11
9640.796377007641
 21
7183.419264573617
 31
0.0
  0
LINE
  5
1F557
330
747D
100
AcDbEntity
  8
部品1
 62
     7
 48
50.0
100
AcDbLine
 10
9616.983877007641
 20
7183.419264573617
 30
0.0
 11
9616.983877007641
 21
7183.419264573617
 31
0.0
  0
LINE
  5
1F558
330
747D
100
AcDbEntity
  8
部品1
 62
     7
 48
50.0
100
AcDbLine
 10
9593.17137700764
 20
7183.419264573617
 30
0.0
 11
9593.17137700764
 21
7183.419264573617
 31
0.0
  0
LINE
  5
1F559
330
747D
100
AcDbEntity
  8
部品1
 62
     7
 48
50.0
100
AcDbLine
 10
9724.140127007638
 20
7207.231764573617
 30
0.0
 11
9724.140127007638
 21
7207.231764573617
 31
0.0
  0
LINE
  5
1F55A
330
747D
100
AcDbEntity
  8
部品1
 62
     7
 48
50.0
100
AcDbLine
 10
9700.327627007638
 20
7207.231764573617
 30
0.0
 11
9700.327627007638
 21
7207.231764573617
 31
0.0
  0
LINE
  5
1F55B
330
747D
100
AcDbEntity
  8
部品1
 62
     7
 48
50.0
100
AcDbLine
 10
9676.51512700764
 20
7207.231764573617
 30
0.0
 11
9676.51512700764
 21
7207.231764573617
 31
0.0
  0
LINE
  5
1F55C
330
747D
100
AcDbEntity
  8
部品1
 62
     7
 48
50.0
100
AcDbLine
 10
9652.702627007641
 20
7207.231764573617
 30
0.0
 11
9652.702627007641
 21
7207.231764573617
 31
0.0
  0
LINE
  5
1F55D
330
747D
100
AcDbEntity
  8
部品1
 62
     7
 48
50.0
100
AcDbLine
 10
9628.890127007641
 20
7207.231764573617
 30
0.0
 11
9628.890127007641
 21
7207.231764573617
 31
0.0
  0
LINE
  5
1F55E
330
747D
100
AcDbEntity
  8
部品1
 62
     7
 48
50.0
100
AcDbLine
 10
9605.077627007638
 20
7207.231764573617
 30
0.0
 11
9605.077627007638
 21
7207.231764573617
 31
0.0
  0
LINE
  5
1F55F
330
747D
100
AcDbEntity
  8
部品1
 62
     7
 48
50.0
100
AcDbLine
 10
9712.233877007641
 20
7231.044264573617
 30
0.0
 11
9712.233877007641
 21
7231.044264573617
 31
0.0
  0
LINE
  5
1F560
330
747D
100
AcDbEntity
  8
部品1
 62
     7
 48
50.0
100
AcDbLine
 10
9688.421377007641
 20
7231.044264573617
 30
0.0
 11
9688.421377007641
 21
7231.044264573617
 31
0.0
  0
LINE
  5
1F561
330
747D
100
AcDbEntity
  8
部品1
 62
     7
 48
50.0
100
AcDbLine
 10
9664.608877007641
 20
7231.044264573617
 30
0.0
 11
9664.608877007641
 21
7231.044264573617
 31
0.0
  0
LINE
  5
1F562
330
747D
100
AcDbEntity
  8
部品1
 62
     7
 48
50.0
100
AcDbLine
 10
9640.796377007641
 20
7231.044264573617
 30
0.0
 11
9640.796377007641
 21
7231.044264573617
 31
0.0
  0
LINE
  5
1F563
330
747D
100
AcDbEntity
  8
部品1
 62
     7
 48
50.0
100
AcDbLine
 10
9616.983877007641
 20
7231.044264573617
 30
0.0
 11
9616.983877007641
 21
7231.044264573617
 31
0.0
  0
LINE
  5
1F564
330
747D
100
AcDbEntity
  8
部品1
 62
     7
 48
50.0
100
AcDbLine
 10
9593.17137700764
 20
7231.044264573617
 30
0.0
 11
9593.17137700764
 21
7231.044264573617
 31
0.0
  0
LINE
  5
1F565
330
747D
100
AcDbEntity
  8
部品1
 62
     7
 48
50.0
100
AcDbLine
 10
9724.140127007638
 20
7254.856764573617
 30
0.0
 11
9724.140127007638
 21
7254.856764573617
 31
0.0
  0
LINE
  5
1F566
330
747D
100
AcDbEntity
  8
部品1
 62
     7
 48
50.0
100
AcDbLine
 10
9700.327627007638
 20
7254.856764573617
 30
0.0
 11
9700.327627007638
 21
7254.856764573617
 31
0.0
  0
LINE
  5
1F567
330
747D
100
AcDbEntity
  8
部品1
 62
     7
 48
50.0
100
AcDbLine
 10
9676.51512700764
 20
7254.856764573617
 30
0.0
 11
9676.51512700764
 21
7254.856764573617
 31
0.0
  0
LINE
  5
1F568
330
747D
100
AcDbEntity
  8
部品1
 62
     7
 48
50.0
100
AcDbLine
 10
9652.702627007641
 20
7254.856764573617
 30
0.0
 11
9652.702627007641
 21
7254.856764573617
 31
0.0
  0
LINE
  5
1F569
330
747D
100
AcDbEntity
  8
部品1
 62
     7
 48
50.0
100
AcDbLine
 10
9628.890127007641
 20
7254.856764573617
 30
0.0
 11
9628.890127007641
 21
7254.856764573617
 31
0.0
  0
LINE
  5
1F56A
330
747D
100
AcDbEntity
  8
部品1
 62
     7
 48
50.0
100
AcDbLine
 10
9605.077627007638
 20
7254.856764573617
 30
0.0
 11
9605.077627007638
 21
7254.856764573617
 31
0.0
  0
LINE
  5
1F56B
330
747D
100
AcDbEntity
  8
部品1
 62
     7
 48
50.0
100
AcDbLine
 10
9712.233877007641
 20
7278.669264573617
 30
0.0
 11
9712.233877007641
 21
7278.669264573617
 31
0.0
  0
LINE
  5
1F56C
330
747D
100
AcDbEntity
  8
部品1
 62
     7
 48
50.0
100
AcDbLine
 10
9688.421377007641
 20
7278.669264573617
 30
0.0
 11
9688.421377007641
 21
7278.669264573617
 31
0.0
  0
LINE
  5
1F56D
330
747D
100
AcDbEntity
  8
部品1
 62
     7
 48
50.0
100
AcDbLine
 10
9664.608877007641
 20
7278.669264573617
 30
0.0
 11
9664.608877007641
 21
7278.669264573617
 31
0.0
  0
LINE
  5
1F56E
330
747D
100
AcDbEntity
  8
部品1
 62
     7
 48
50.0
100
AcDbLine
 10
9640.796377007641
 20
7278.669264573617
 30
0.0
 11
9640.796377007641
 21
7278.669264573617
 31
0.0
  0
LINE
  5
1F56F
330
747D
100
AcDbEntity
  8
部品1
 62
     7
 48
50.0
100
AcDbLine
 10
9616.983877007641
 20
7278.669264573617
 30
0.0
 11
9616.983877007641
 21
7278.669264573617
 31
0.0
  0
LINE
  5
1F570
330
747D
100
AcDbEntity
  8
部品1
 62
     7
 48
50.0
100
AcDbLine
 10
9593.17137700764
 20
7278.669264573617
 30
0.0
 11
9593.17137700764
 21
7278.669264573617
 31
0.0
  0
LINE
  5
1F571
330
747D
100
AcDbEntity
  8
部品1
 62
     7
 48
50.0
100
AcDbLine
 10
9724.140127007638
 20
7302.481764573617
 30
0.0
 11
9724.140127007638
 21
7302.481764573617
 31
0.0
  0
LINE
  5
1F572
330
747D
100
AcDbEntity
  8
部品1
 62
     7
 48
50.0
100
AcDbLine
 10
9700.327627007638
 20
7302.481764573617
 30
0.0
 11
9700.327627007638
 21
7302.481764573617
 31
0.0
  0
LINE
  5
1F573
330
747D
100
AcDbEntity
  8
部品1
 62
     7
 48
50.0
100
AcDbLine
 10
9676.51512700764
 20
7302.481764573617
 30
0.0
 11
9676.51512700764
 21
7302.481764573617
 31
0.0
  0
LINE
  5
1F574
330
747D
100
AcDbEntity
  8
部品1
 62
     7
 48
50.0
100
AcDbLine
 10
9652.702627007641
 20
7302.481764573617
 30
0.0
 11
9652.702627007641
 21
7302.481764573617
 31
0.0
  0
LINE
  5
1F575
330
747D
100
AcDbEntity
  8
部品1
 62
     7
 48
50.0
100
AcDbLine
 10
9628.890127007641
 20
7302.481764573617
 30
0.0
 11
9628.890127007641
 21
7302.481764573617
 31
0.0
  0
LINE
  5
1F576
330
747D
100
AcDbEntity
  8
部品1
 62
     7
 48
50.0
100
AcDbLine
 10
9605.077627007638
 20
7302.481764573617
 30
0.0
 11
9605.077627007638
 21
7302.481764573617
 31
0.0
  0
LINE
  5
1F577
330
747D
100
AcDbEntity
  8
部品1
 62
     7
 48
50.0
100
AcDbLine
 10
9712.233877007641
 20
7326.294264573617
 30
0.0
 11
9712.233877007641
 21
7326.294264573617
 31
0.0
  0
LINE
  5
1F578
330
747D
100
AcDbEntity
  8
部品1
 62
     7
 48
50.0
100
AcDbLine
 10
9688.421377007641
 20
7326.294264573617
 30
0.0
 11
9688.421377007641
 21
7326.294264573617
 31
0.0
  0
LINE
  5
1F579
330
747D
100
AcDbEntity
  8
部品1
 62
     7
 48
50.0
100
AcDbLine
 10
9664.608877007641
 20
7326.294264573617
 30
0.0
 11
9664.608877007641
 21
7326.294264573617
 31
0.0
  0
LINE
  5
1F57A
330
747D
100
AcDbEntity
  8
部品1
 62
     7
 48
50.0
100
AcDbLine
 10
9640.796377007641
 20
7326.294264573617
 30
0.0
 11
9640.796377007641
 21
7326.294264573617
 31
0.0
  0
LINE
  5
1F57B
330
747D
100
AcDbEntity
  8
部品1
 62
     7
 48
50.0
100
AcDbLine
 10
9616.983877007641
 20
7326.294264573617
 30
0.0
 11
9616.983877007641
 21
7326.294264573617
 31
0.0
  0
LINE
  5
1F57C
330
747D
100
AcDbEntity
  8
部品1
 62
     7
 48
50.0
100
AcDbLine
 10
9593.17137700764
 20
7326.294264573617
 30
0.0
 11
9593.17137700764
 21
7326.294264573617
 31
0.0
  0
LINE
  5
1F57D
330
747D
100
AcDbEntity
  8
部品1
 62
     7
 48
50.0
100
AcDbLine
 10
9724.140127007638
 20
7350.106764573617
 30
0.0
 11
9724.140127007638
 21
7350.106764573617
 31
0.0
  0
LINE
  5
1F57E
330
747D
100
AcDbEntity
  8
部品1
 62
     7
 48
50.0
100
AcDbLine
 10
9700.327627007638
 20
7350.106764573617
 30
0.0
 11
9700.327627007638
 21
7350.106764573617
 31
0.0
  0
LINE
  5
1F57F
330
747D
100
AcDbEntity
  8
部品1
 62
     7
 48
50.0
100
AcDbLine
 10
9676.51512700764
 20
7350.106764573617
 30
0.0
 11
9676.51512700764
 21
7350.106764573617
 31
0.0
  0
LINE
  5
1F580
330
747D
100
AcDbEntity
  8
部品1
 62
     7
 48
50.0
100
AcDbLine
 10
9652.702627007641
 20
7350.106764573617
 30
0.0
 11
9652.702627007641
 21
7350.106764573617
 31
0.0
  0
LINE
  5
1F581
330
747D
100
AcDbEntity
  8
部品1
 62
     7
 48
50.0
100
AcDbLine
 10
9628.890127007641
 20
7350.106764573617
 30
0.0
 11
9628.890127007641
 21
7350.106764573617
 31
0.0
  0
LINE
  5
1F582
330
747D
100
AcDbEntity
  8
部品1
 62
     7
 48
50.0
100
AcDbLine
 10
9605.077627007638
 20
7350.106764573617
 30
0.0
 11
9605.077627007638
 21
7350.106764573617
 31
0.0
  0
LINE
  5
1F583
330
747D
100
AcDbEntity
  8
部品1
 62
     7
 48
50.0
100
AcDbLine
 10
9712.233877007641
 20
7373.919264573617
 30
0.0
 11
9712.233877007641
 21
7373.919264573617
 31
0.0
  0
LINE
  5
1F584
330
747D
100
AcDbEntity
  8
部品1
 62
     7
 48
50.0
100
AcDbLine
 10
9688.421377007641
 20
7373.919264573617
 30
0.0
 11
9688.421377007641
 21
7373.919264573617
 31
0.0
  0
LINE
  5
1F585
330
747D
100
AcDbEntity
  8
部品1
 62
     7
 48
50.0
100
AcDbLine
 10
9664.608877007641
 20
7373.919264573617
 30
0.0
 11
9664.608877007641
 21
7373.919264573617
 31
0.0
  0
LINE
  5
1F586
330
747D
100
AcDbEntity
  8
部品1
 62
     7
 48
50.0
100
AcDbLine
 10
9640.796377007641
 20
7373.919264573617
 30
0.0
 11
9640.796377007641
 21
7373.919264573617
 31
0.0
  0
LINE
  5
1F587
330
747D
100
AcDbEntity
  8
部品1
 62
     7
 48
50.0
100
AcDbLine
 10
9616.983877007641
 20
7373.919264573617
 30
0.0
 11
9616.983877007641
 21
7373.919264573617
 31
0.0
  0
LINE
  5
1F588
330
747D
100
AcDbEntity
  8
部品1
 62
     7
 48
50.0
100
AcDbLine
 10
9593.17137700764
 20
7373.919264573617
 30
0.0
 11
9593.17137700764
 21
7373.919264573617
 31
0.0
  0
MTEXT
  5
1F589
102
{ACAD_REACTORS
330
1F58A
102
}
330
747D
100
AcDbEntity
  8
細線
 62
     7
 48
50.0
100
AcDbMText
 10
10469.2534945176
 20
6842.569075062613
 30
0.0
 40
150.0
 41
0.0
 71
     4
 72
     5
  1
\A1;C.B
  7
STYLE1
 73
     1
 44
1.0
1001
ACAD
1000
MTEXTBEGIN
1070
    73
1070
     1
1070
    44
1040
1.0
1070
    74
1070
     0
1000
MTEXTEND
  0
LEADER
  5
1F58A
330
747D
100
AcDbEntity
  8
寸法
 62
     7
 48
50.0
100
AcDbLeader
  3
INABA_S50G
 71
     0
 73
     0
 74
     0
 75
     1
 40
150.0
 41
231.9898538650462
 76
     3
 10
10235.87413285431
 20
6534.955177899423
 30
0.0
 10
10319.2534945176
 20
6742.569075062613
 30
0.0
 10
10444.2534945176
 20
6742.569075062613
 30
0.0
340
1F589
1001
ACAD
1000
DSTYLE
1002
{
1070
     6
1000
DOTSMALL
1002
}
1000
LEANOF
1010
0.0
1020
0.0
1030
0.0
  0
LINE
  5
1F58B
330
747D
100
AcDbEntity
  8
部品1
 62
     7
 48
50.0
100
AcDbLine
 10
10179.49999999999
 20
6534.955177899423
 30
0.0
 11
10579.5
 21
6534.955177899423
 31
0.0
  0
LINE
  5
1F58C
330
747D
100
AcDbEntity
  8
部品1
 62
     7
 48
50.0
100
AcDbLine
 10
10179.49999999999
 20
6334.955177899423
 30
0.0
 11
10579.5
 21
6334.955177899423
 31
0.0
  0
LINE
  5
1F58D
330
747D
100
AcDbEntity
  8
細線
 62
     7
 48
10.0
100
AcDbLine
 10
9785.500000000009
 20
6660.955177899423
 30
0.0
 11
9785.500000000009
 21
6860.955177899423
 31
0.0
  0
LINE
  5
1F58E
330
747D
100
AcDbEntity
  8
部品1
 62
     7
 48
50.0
100
AcDbLine
 10
9771.76512700764
 20
6683.356764573615
 30
0.0
 11
9771.76512700764
 21
6683.356764573615
 31
0.0
  0
LINE
  5
1F58F
330
747D
100
AcDbEntity
  8
部品1
 62
     7
 48
50.0
100
AcDbLine
 10
9747.952627007641
 20
6683.356764573615
 30
0.0
 11
9747.952627007641
 21
6683.356764573615
 31
0.0
  0
LINE
  5
1F590
330
747D
100
AcDbEntity
  8
部品1
 62
     7
 48
50.0
100
AcDbLine
 10
9783.671377007641
 20
6707.169264573616
 30
0.0
 11
9783.671377007641
 21
6707.169264573616
 31
0.0
  0
LINE
  5
1F591
330
747D
100
AcDbEntity
  8
部品1
 62
     7
 48
50.0
100
AcDbLine
 10
9759.858877007641
 20
6707.169264573616
 30
0.0
 11
9759.858877007641
 21
6707.169264573616
 31
0.0
  0
LINE
  5
1F592
330
747D
100
AcDbEntity
  8
部品1
 62
     7
 48
50.0
100
AcDbLine
 10
9736.046377007641
 20
6707.169264573616
 30
0.0
 11
9736.046377007641
 21
6707.169264573616
 31
0.0
  0
LINE
  5
1F593
330
747D
100
AcDbEntity
  8
部品1
 62
     7
 48
50.0
100
AcDbLine
 10
9771.76512700764
 20
6730.981764573616
 30
0.0
 11
9771.76512700764
 21
6730.981764573616
 31
0.0
  0
LINE
  5
1F594
330
747D
100
AcDbEntity
  8
部品1
 62
     7
 48
50.0
100
AcDbLine
 10
9747.952627007641
 20
6730.981764573616
 30
0.0
 11
9747.952627007641
 21
6730.981764573616
 31
0.0
  0
LINE
  5
1F595
330
747D
100
AcDbEntity
  8
部品1
 62
     7
 48
50.0
100
AcDbLine
 10
9783.671377007641
 20
6754.794264573617
 30
0.0
 11
9783.671377007641
 21
6754.794264573617
 31
0.0
  0
LINE
  5
1F596
330
747D
100
AcDbEntity
  8
部品1
 62
     7
 48
50.0
100
AcDbLine
 10
9759.858877007641
 20
6754.794264573617
 30
0.0
 11
9759.858877007641
 21
6754.794264573617
 31
0.0
  0
LINE
  5
1F597
330
747D
100
AcDbEntity
  8
部品1
 62
     7
 48
50.0
100
AcDbLine
 10
9736.046377007641
 20
6754.794264573617
 30
0.0
 11
9736.046377007641
 21
6754.794264573617
 31
0.0
  0
LINE
  5
1F598
330
747D
100
AcDbEntity
  8
部品1
 62
     7
 48
50.0
100
AcDbLine
 10
9771.76512700764
 20
6778.606764573615
 30
0.0
 11
9771.76512700764
 21
6778.606764573615
 31
0.0
  0
LINE
  5
1F599
330
747D
100
AcDbEntity
  8
部品1
 62
     7
 48
50.0
100
AcDbLine
 10
9747.952627007641
 20
6778.606764573615
 30
0.0
 11
9747.952627007641
 21
6778.606764573615
 31
0.0
  0
LINE
  5
1F59A
330
747D
100
AcDbEntity
  8
部品1
 62
     7
 48
50.0
100
AcDbLine
 10
9783.671377007641
 20
6802.419264573616
 30
0.0
 11
9783.671377007641
 21
6802.419264573616
 31
0.0
  0
LINE
  5
1F59B
330
747D
100
AcDbEntity
  8
部品1
 62
     7
 48
50.0
100
AcDbLine
 10
9759.858877007641
 20
6802.419264573616
 30
0.0
 11
9759.858877007641
 21
6802.419264573616
 31
0.0
  0
LINE
  5
1F59C
330
747D
100
AcDbEntity
  8
部品1
 62
     7
 48
50.0
100
AcDbLine
 10
9736.046377007641
 20
6802.419264573616
 30
0.0
 11
9736.046377007641
 21
6802.419264573616
 31
0.0
  0
LINE
  5
1F59D
330
747D
100
AcDbEntity
  8
部品1
 62
     7
 48
50.0
100
AcDbLine
 10
10179.49999999999
 20
6334.955177899423
 30
0.0
 11
10179.49999999999
 21
6534.955177899423
 31
0.0
  0
LINE
  5
1F59E
330
747D
100
AcDbEntity
  8
センター
 62
     7
 48
5.0
100
AcDbLine
 10
10424.49999999998
 20
7253.955177899422
 30
0.0
 11
10134.5
 21
7253.955177899422
 31
0.0
  0
LINE
  5
1F59F
330
747D
100
AcDbEntity
  8
細線
 62
     7
 48
10.0
100
AcDbLine
 10
9785.500000000009
 20
7395.955177899423
 30
0.0
 11
9785.500000000009
 21
6995.955177899422
 31
0.0
  0
LINE
  5
1F5A0
330
747D
100
AcDbEntity
  8
部品1
 62
     7
 48
50.0
100
AcDbLine
 10
9771.76512700764
 20
6826.231764573616
 30
0.0
 11
9771.76512700764
 21
6826.231764573616
 31
0.0
  0
LINE
  5
1F5A1
330
747D
100
AcDbEntity
  8
部品1
 62
     7
 48
50.0
100
AcDbLine
 10
9747.952627007641
 20
6826.231764573616
 30
0.0
 11
9747.952627007641
 21
6826.231764573616
 31
0.0
  0
LINE
  5
1F5A2
330
747D
100
AcDbEntity
  8
部品1
 62
     7
 48
50.0
100
AcDbLine
 10
9783.671377007641
 20
6850.044264573617
 30
0.0
 11
9783.671377007641
 21
6850.044264573617
 31
0.0
  0
LINE
  5
1F5A3
330
747D
100
AcDbEntity
  8
部品1
 62
     7
 48
50.0
100
AcDbLine
 10
9759.858877007641
 20
6850.044264573617
 30
0.0
 11
9759.858877007641
 21
6850.044264573617
 31
0.0
  0
LINE
  5
1F5A4
330
747D
100
AcDbEntity
  8
部品1
 62
     7
 48
50.0
100
AcDbLine
 10
9736.046377007641
 20
6850.044264573617
 30
0.0
 11
9736.046377007641
 21
6850.044264573617
 31
0.0
  0
LINE
  5
1F5A5
330
747D
100
AcDbEntity
  8
部品1
 62
     7
 48
50.0
100
AcDbLine
 10
9771.76512700764
 20
7016.731764573616
 30
0.0
 11
9771.76512700764
 21
7016.731764573616
 31
0.0
  0
LINE
  5
1F5A6
330
747D
100
AcDbEntity
  8
部品1
 62
     7
 48
50.0
100
AcDbLine
 10
9747.952627007641
 20
7016.731764573616
 30
0.0
 11
9747.952627007641
 21
7016.731764573616
 31
0.0
  0
LINE
  5
1F5A7
330
747D
100
AcDbEntity
  8
部品1
 62
     7
 48
50.0
100
AcDbLine
 10
9783.671377007641
 20
7040.544264573617
 30
0.0
 11
9783.671377007641
 21
7040.544264573617
 31
0.0
  0
LINE
  5
1F5A8
330
747D
100
AcDbEntity
  8
部品1
 62
     7
 48
50.0
100
AcDbLine
 10
9759.858877007641
 20
7040.544264573617
 30
0.0
 11
9759.858877007641
 21
7040.544264573617
 31
0.0
  0
LINE
  5
1F5A9
330
747D
100
AcDbEntity
  8
部品1
 62
     7
 48
50.0
100
AcDbLine
 10
9736.046377007641
 20
7040.544264573617
 30
0.0
 11
9736.046377007641
 21
7040.544264573617
 31
0.0
  0
LINE
  5
1F5AA
330
747D
100
AcDbEntity
  8
部品1
 62
     7
 48
50.0
100
AcDbLine
 10
9771.76512700764
 20
7064.356764573616
 30
0.0
 11
9771.76512700764
 21
7064.356764573616
 31
0.0
  0
LINE
  5
1F5AB
330
747D
100
AcDbEntity
  8
部品1
 62
     7
 48
50.0
100
AcDbLine
 10
9747.952627007641
 20
7064.356764573616
 30
0.0
 11
9747.952627007641
 21
7064.356764573616
 31
0.0
  0
LINE
  5
1F5AC
330
747D
100
AcDbEntity
  8
部品1
 62
     7
 48
50.0
100
AcDbLine
 10
9783.671377007641
 20
7088.169264573615
 30
0.0
 11
9783.671377007641
 21
7088.169264573615
 31
0.0
  0
LINE
  5
1F5AD
330
747D
100
AcDbEntity
  8
部品1
 62
     7
 48
50.0
100
AcDbLine
 10
9759.858877007641
 20
7088.169264573615
 30
0.0
 11
9759.858877007641
 21
7088.169264573615
 31
0.0
  0
LINE
  5
1F5AE
330
747D
100
AcDbEntity
  8
部品1
 62
     7
 48
50.0
100
AcDbLine
 10
9736.046377007641
 20
7088.169264573615
 30
0.0
 11
9736.046377007641
 21
7088.169264573615
 31
0.0
  0
LINE
  5
1F5AF
330
747D
100
AcDbEntity
  8
部品1
 62
     7
 48
50.0
100
AcDbLine
 10
9771.76512700764
 20
7111.981764573616
 30
0.0
 11
9771.76512700764
 21
7111.981764573616
 31
0.0
  0
LINE
  5
1F5B0
330
747D
100
AcDbEntity
  8
部品1
 62
     7
 48
50.0
100
AcDbLine
 10
9747.952627007641
 20
7111.981764573616
 30
0.0
 11
9747.952627007641
 21
7111.981764573616
 31
0.0
  0
LINE
  5
1F5B1
330
747D
100
AcDbEntity
  8
部品1
 62
     7
 48
50.0
100
AcDbLine
 10
9783.671377007641
 20
7135.794264573617
 30
0.0
 11
9783.671377007641
 21
7135.794264573617
 31
0.0
  0
LINE
  5
1F5B2
330
747D
100
AcDbEntity
  8
部品1
 62
     7
 48
50.0
100
AcDbLine
 10
9759.858877007641
 20
7135.794264573617
 30
0.0
 11
9759.858877007641
 21
7135.794264573617
 31
0.0
  0
LINE
  5
1F5B3
330
747D
100
AcDbEntity
  8
部品1
 62
     7
 48
50.0
100
AcDbLine
 10
9736.046377007641
 20
7135.794264573617
 30
0.0
 11
9736.046377007641
 21
7135.794264573617
 31
0.0
  0
LINE
  5
1F5B4
330
747D
100
AcDbEntity
  8
部品1
 62
     7
 48
50.0
100
AcDbLine
 10
9771.76512700764
 20
7159.606764573616
 30
0.0
 11
9771.76512700764
 21
7159.606764573616
 31
0.0
  0
LINE
  5
1F5B5
330
747D
100
AcDbEntity
  8
部品1
 62
     7
 48
50.0
100
AcDbLine
 10
9747.952627007641
 20
7159.606764573616
 30
0.0
 11
9747.952627007641
 21
7159.606764573616
 31
0.0
  0
LINE
  5
1F5B6
330
747D
100
AcDbEntity
  8
部品1
 62
     7
 48
50.0
100
AcDbLine
 10
9783.671377007641
 20
7183.419264573617
 30
0.0
 11
9783.671377007641
 21
7183.419264573617
 31
0.0
  0
LINE
  5
1F5B7
330
747D
100
AcDbEntity
  8
部品1
 62
     7
 48
50.0
100
AcDbLine
 10
9759.858877007641
 20
7183.419264573617
 30
0.0
 11
9759.858877007641
 21
7183.419264573617
 31
0.0
  0
LINE
  5
1F5B8
330
747D
100
AcDbEntity
  8
部品1
 62
     7
 48
50.0
100
AcDbLine
 10
9736.046377007641
 20
7183.419264573617
 30
0.0
 11
9736.046377007641
 21
7183.419264573617
 31
0.0
  0
LINE
  5
1F5B9
330
747D
100
AcDbEntity
  8
部品1
 62
     7
 48
50.0
100
AcDbLine
 10
9771.76512700764
 20
7207.231764573617
 30
0.0
 11
9771.76512700764
 21
7207.231764573617
 31
0.0
  0
LINE
  5
1F5BA
330
747D
100
AcDbEntity
  8
部品1
 62
     7
 48
50.0
100
AcDbLine
 10
9747.952627007641
 20
7207.231764573617
 30
0.0
 11
9747.952627007641
 21
7207.231764573617
 31
0.0
  0
LINE
  5
1F5BB
330
747D
100
AcDbEntity
  8
部品1
 62
     7
 48
50.0
100
AcDbLine
 10
9783.671377007641
 20
7231.044264573617
 30
0.0
 11
9783.671377007641
 21
7231.044264573617
 31
0.0
  0
LINE
  5
1F5BC
330
747D
100
AcDbEntity
  8
部品1
 62
     7
 48
50.0
100
AcDbLine
 10
9759.858877007641
 20
7231.044264573617
 30
0.0
 11
9759.858877007641
 21
7231.044264573617
 31
0.0
  0
LINE
  5
1F5BD
330
747D
100
AcDbEntity
  8
部品1
 62
     7
 48
50.0
100
AcDbLine
 10
9736.046377007641
 20
7231.044264573617
 30
0.0
 11
9736.046377007641
 21
7231.044264573617
 31
0.0
  0
LINE
  5
1F5BE
330
747D
100
AcDbEntity
  8
部品1
 62
     7
 48
50.0
100
AcDbLine
 10
9771.76512700764
 20
7254.856764573617
 30
0.0
 11
9771.76512700764
 21
7254.856764573617
 31
0.0
  0
LINE
  5
1F5BF
330
747D
100
AcDbEntity
  8
部品1
 62
     7
 48
50.0
100
AcDbLine
 10
9747.952627007641
 20
7254.856764573617
 30
0.0
 11
9747.952627007641
 21
7254.856764573617
 31
0.0
  0
LINE
  5
1F5C0
330
747D
100
AcDbEntity
  8
部品1
 62
     7
 48
50.0
100
AcDbLine
 10
9783.671377007641
 20
7278.669264573617
 30
0.0
 11
9783.671377007641
 21
7278.669264573617
 31
0.0
  0
LINE
  5
1F5C1
330
747D
100
AcDbEntity
  8
部品1
 62
     7
 48
50.0
100
AcDbLine
 10
9759.858877007641
 20
7278.669264573617
 30
0.0
 11
9759.858877007641
 21
7278.669264573617
 31
0.0
  0
LINE
  5
1F5C2
330
747D
100
AcDbEntity
  8
部品1
 62
     7
 48
50.0
100
AcDbLine
 10
9736.046377007641
 20
7278.669264573617
 30
0.0
 11
9736.046377007641
 21
7278.669264573617
 31
0.0
  0
LINE
  5
1F5C3
330
747D
100
AcDbEntity
  8
部品1
 62
     7
 48
50.0
100
AcDbLine
 10
9771.76512700764
 20
7302.481764573617
 30
0.0
 11
9771.76512700764
 21
7302.481764573617
 31
0.0
  0
LINE
  5
1F5C4
330
747D
100
AcDbEntity
  8
部品1
 62
     7
 48
50.0
100
AcDbLine
 10
9747.952627007641
 20
7302.481764573617
 30
0.0
 11
9747.952627007641
 21
7302.481764573617
 31
0.0
  0
LINE
  5
1F5C5
330
747D
100
AcDbEntity
  8
部品1
 62
     7
 48
50.0
100
AcDbLine
 10
9783.671377007641
 20
7326.294264573617
 30
0.0
 11
9783.671377007641
 21
7326.294264573617
 31
0.0
  0
LINE
  5
1F5C6
330
747D
100
AcDbEntity
  8
部品1
 62
     7
 48
50.0
100
AcDbLine
 10
9759.858877007641
 20
7326.294264573617
 30
0.0
 11
9759.858877007641
 21
7326.294264573617
 31
0.0
  0
LINE
  5
1F5C7
330
747D
100
AcDbEntity
  8
部品1
 62
     7
 48
50.0
100
AcDbLine
 10
9736.046377007641
 20
7326.294264573617
 30
0.0
 11
9736.046377007641
 21
7326.294264573617
 31
0.0
  0
LINE
  5
1F5C8
330
747D
100
AcDbEntity
  8
部品1
 62
     7
 48
50.0
100
AcDbLine
 10
9771.76512700764
 20
7350.106764573617
 30
0.0
 11
9771.76512700764
 21
7350.106764573617
 31
0.0
  0
LINE
  5
1F5C9
330
747D
100
AcDbEntity
  8
部品1
 62
     7
 48
50.0
100
AcDbLine
 10
9747.952627007641
 20
7350.106764573617
 30
0.0
 11
9747.952627007641
 21
7350.106764573617
 31
0.0
  0
LINE
  5
1F5CA
330
747D
100
AcDbEntity
  8
部品1
 62
     7
 48
50.0
100
AcDbLine
 10
9783.671377007641
 20
7373.919264573617
 30
0.0
 11
9783.671377007641
 21
7373.919264573617
 31
0.0
  0
LINE
  5
1F5CB
330
747D
100
AcDbEntity
  8
部品1
 62
     7
 48
50.0
100
AcDbLine
 10
9759.858877007641
 20
7373.919264573617
 30
0.0
 11
9759.858877007641
 21
7373.919264573617
 31
0.0
  0
LINE
  5
1F5CC
330
747D
100
AcDbEntity
  8
部品1
 62
     7
 48
50.0
100
AcDbLine
 10
9736.046377007641
 20
7373.919264573617
 30
0.0
 11
9736.046377007641
 21
7373.919264573617
 31
0.0
  0
LINE
  5
1F5CD
330
747D
100
AcDbEntity
  8
部品1
 62
     7
 48
50.0
100
AcDbLine
 10
10179.49999999999
 20
7353.955177899422
 30
0.0
 11
10379.49999999999
 21
7353.955177899422
 31
0.0
  0
LINE
  5
1F5CE
330
747D
100
AcDbEntity
  8
部品1
 62
     7
 48
50.0
100
AcDbLine
 10
10379.49999999999
 20
7153.955177899423
 30
0.0
 11
10179.49999999999
 21
7153.955177899423
 31
0.0
  0
LINE
  5
1F5CF
330
747D
100
AcDbEntity
  8
部品1
 62
     7
 48
50.0
100
AcDbLine
 10
10179.49999999999
 20
7153.955177899423
 30
0.0
 11
10179.49999999999
 21
7353.955177899422
 31
0.0
  0
LINE
  5
1F5D0
330
747D
100
AcDbEntity
  8
部品1
 62
     7
 48
50.0
100
AcDbLine
 10
10379.49999999999
 20
7353.955177899422
 30
0.0
 11
10379.49999999999
 21
7153.955177899423
 31
0.0
  0
LINE
  5
1F5D1
330
747D
100
AcDbEntity
  8
細線
 62
     7
 48
10.0
100
AcDbLine
 10
10773.49999999998
 20
6660.955177899423
 30
0.0
 11
10773.49999999998
 21
6860.955177899423
 31
0.0
  0
LINE
  5
1F5D2
330
747D
100
AcDbEntity
  8
センター
 62
     7
 48
5.0
100
AcDbLine
 10
10873.49999999998
 20
6615.955177899421
 30
0.0
 11
10873.49999999998
 21
6905.955177899423
 31
0.0
  0
LINE
  5
1F5D3
330
747D
100
AcDbEntity
  8
細線
 62
     7
 48
10.0
100
AcDbLine
 10
10973.49999999998
 20
6860.955177899423
 30
0.0
 11
10973.49999999998
 21
6660.955177899423
 31
0.0
  0
LINE
  5
1F5D4
330
747D
100
AcDbEntity
  8
細線
 62
     7
 48
10.0
100
AcDbLine
 10
10973.49999999998
 20
6660.955177899423
 30
0.0
 11
10773.49999999998
 21
6660.955177899423
 31
0.0
  0
LINE
  5
1F5D5
330
747D
100
AcDbEntity
  8
センター
 62
     7
 48
5.0
100
AcDbLine
 10
10728.49999999998
 20
6760.955177899423
 30
0.0
 11
11018.49999999998
 21
6760.955177899423
 31
0.0
  0
LINE
  5
1F5D6
330
747D
100
AcDbEntity
  8
部品1
 62
     7
 48
50.0
100
AcDbLine
 10
10579.5
 20
6334.955177899423
 30
0.0
 11
10579.5
 21
6534.955177899423
 31
0.0
  0
LINE
  5
1F5D7
330
747D
100
AcDbEntity
  8
部品1
 62
     7
 48
50.0
100
AcDbLine
 10
10867.14012700763
 20
6683.356764573615
 30
0.0
 11
10867.14012700763
 21
6683.356764573615
 31
0.0
  0
LINE
  5
1F5D8
330
747D
100
AcDbEntity
  8
部品1
 62
     7
 48
50.0
100
AcDbLine
 10
10843.32762700763
 20
6683.356764573615
 30
0.0
 11
10843.32762700763
 21
6683.356764573615
 31
0.0
  0
LINE
  5
1F5D9
330
747D
100
AcDbEntity
  8
部品1
 62
     7
 48
50.0
100
AcDbLine
 10
10819.51512700763
 20
6683.356764573615
 30
0.0
 11
10819.51512700763
 21
6683.356764573615
 31
0.0
  0
LINE
  5
1F5DA
330
747D
100
AcDbEntity
  8
部品1
 62
     7
 48
50.0
100
AcDbLine
 10
10795.70262700763
 20
6683.356764573615
 30
0.0
 11
10795.70262700763
 21
6683.356764573615
 31
0.0
  0
LINE
  5
1F5DB
330
747D
100
AcDbEntity
  8
部品1
 62
     7
 48
50.0
100
AcDbLine
 10
10962.39012700763
 20
6683.356764573615
 30
0.0
 11
10962.39012700763
 21
6683.356764573615
 31
0.0
  0
LINE
  5
1F5DC
330
747D
100
AcDbEntity
  8
部品1
 62
     7
 48
50.0
100
AcDbLine
 10
10938.57762700763
 20
6683.356764573615
 30
0.0
 11
10938.57762700763
 21
6683.356764573615
 31
0.0
  0
LINE
  5
1F5DD
330
747D
100
AcDbEntity
  8
部品1
 62
     7
 48
50.0
100
AcDbLine
 10
10914.76512700763
 20
6683.356764573615
 30
0.0
 11
10914.76512700763
 21
6683.356764573615
 31
0.0
  0
LINE
  5
1F5DE
330
747D
100
AcDbEntity
  8
部品1
 62
     7
 48
50.0
100
AcDbLine
 10
10890.95262700763
 20
6683.356764573615
 30
0.0
 11
10890.95262700763
 21
6683.356764573615
 31
0.0
  0
LINE
  5
1F5DF
330
747D
100
AcDbEntity
  8
部品1
 62
     7
 48
50.0
100
AcDbLine
 10
10855.23387700763
 20
6707.169264573616
 30
0.0
 11
10855.23387700763
 21
6707.169264573616
 31
0.0
  0
LINE
  5
1F5E0
330
747D
100
AcDbEntity
  8
部品1
 62
     7
 48
50.0
100
AcDbLine
 10
10831.42137700763
 20
6707.169264573616
 30
0.0
 11
10831.42137700763
 21
6707.169264573616
 31
0.0
  0
LINE
  5
1F5E1
330
747D
100
AcDbEntity
  8
部品1
 62
     7
 48
50.0
100
AcDbLine
 10
10807.60887700763
 20
6707.169264573616
 30
0.0
 11
10807.60887700763
 21
6707.169264573616
 31
0.0
  0
LINE
  5
1F5E2
330
747D
100
AcDbEntity
  8
部品1
 62
     7
 48
50.0
100
AcDbLine
 10
10783.79637700763
 20
6707.169264573616
 30
0.0
 11
10783.79637700763
 21
6707.169264573616
 31
0.0
  0
LINE
  5
1F5E3
330
747D
100
AcDbEntity
  8
部品1
 62
     7
 48
50.0
100
AcDbLine
 10
10950.48387700763
 20
6707.169264573616
 30
0.0
 11
10950.48387700763
 21
6707.169264573616
 31
0.0
  0
LINE
  5
1F5E4
330
747D
100
AcDbEntity
  8
部品1
 62
     7
 48
50.0
100
AcDbLine
 10
10926.67137700763
 20
6707.169264573616
 30
0.0
 11
10926.67137700763
 21
6707.169264573616
 31
0.0
  0
LINE
  5
1F5E5
330
747D
100
AcDbEntity
  8
部品1
 62
     7
 48
50.0
100
AcDbLine
 10
10902.85887700763
 20
6707.169264573616
 30
0.0
 11
10902.85887700763
 21
6707.169264573616
 31
0.0
  0
LINE
  5
1F5E6
330
747D
100
AcDbEntity
  8
部品1
 62
     7
 48
50.0
100
AcDbLine
 10
10879.04637700763
 20
6707.169264573616
 30
0.0
 11
10879.04637700763
 21
6707.169264573616
 31
0.0
  0
LINE
  5
1F5E7
330
747D
100
AcDbEntity
  8
部品1
 62
     7
 48
50.0
100
AcDbLine
 10
10867.14012700763
 20
6730.981764573616
 30
0.0
 11
10867.14012700763
 21
6730.981764573616
 31
0.0
  0
LINE
  5
1F5E8
330
747D
100
AcDbEntity
  8
部品1
 62
     7
 48
50.0
100
AcDbLine
 10
10843.32762700763
 20
6730.981764573616
 30
0.0
 11
10843.32762700763
 21
6730.981764573616
 31
0.0
  0
LINE
  5
1F5E9
330
747D
100
AcDbEntity
  8
部品1
 62
     7
 48
50.0
100
AcDbLine
 10
10819.51512700763
 20
6730.981764573616
 30
0.0
 11
10819.51512700763
 21
6730.981764573616
 31
0.0
  0
LINE
  5
1F5EA
330
747D
100
AcDbEntity
  8
部品1
 62
     7
 48
50.0
100
AcDbLine
 10
10795.70262700763
 20
6730.981764573616
 30
0.0
 11
10795.70262700763
 21
6730.981764573616
 31
0.0
  0
LINE
  5
1F5EB
330
747D
100
AcDbEntity
  8
部品1
 62
     7
 48
50.0
100
AcDbLine
 10
10962.39012700763
 20
6730.981764573616
 30
0.0
 11
10962.39012700763
 21
6730.981764573616
 31
0.0
  0
LINE
  5
1F5EC
330
747D
100
AcDbEntity
  8
部品1
 62
     7
 48
50.0
100
AcDbLine
 10
10938.57762700763
 20
6730.981764573616
 30
0.0
 11
10938.57762700763
 21
6730.981764573616
 31
0.0
  0
LINE
  5
1F5ED
330
747D
100
AcDbEntity
  8
部品1
 62
     7
 48
50.0
100
AcDbLine
 10
10914.76512700763
 20
6730.981764573616
 30
0.0
 11
10914.76512700763
 21
6730.981764573616
 31
0.0
  0
LINE
  5
1F5EE
330
747D
100
AcDbEntity
  8
部品1
 62
     7
 48
50.0
100
AcDbLine
 10
10890.95262700763
 20
6730.981764573616
 30
0.0
 11
10890.95262700763
 21
6730.981764573616
 31
0.0
  0
LINE
  5
1F5EF
330
747D
100
AcDbEntity
  8
部品1
 62
     7
 48
50.0
100
AcDbLine
 10
10855.23387700763
 20
6754.794264573617
 30
0.0
 11
10855.23387700763
 21
6754.794264573617
 31
0.0
  0
LINE
  5
1F5F0
330
747D
100
AcDbEntity
  8
部品1
 62
     7
 48
50.0
100
AcDbLine
 10
10831.42137700763
 20
6754.794264573617
 30
0.0
 11
10831.42137700763
 21
6754.794264573617
 31
0.0
  0
LINE
  5
1F5F1
330
747D
100
AcDbEntity
  8
部品1
 62
     7
 48
50.0
100
AcDbLine
 10
10807.60887700763
 20
6754.794264573617
 30
0.0
 11
10807.60887700763
 21
6754.794264573617
 31
0.0
  0
LINE
  5
1F5F2
330
747D
100
AcDbEntity
  8
部品1
 62
     7
 48
50.0
100
AcDbLine
 10
10783.79637700763
 20
6754.794264573617
 30
0.0
 11
10783.79637700763
 21
6754.794264573617
 31
0.0
  0
LINE
  5
1F5F3
330
747D
100
AcDbEntity
  8
部品1
 62
     7
 48
50.0
100
AcDbLine
 10
10950.48387700763
 20
6754.794264573617
 30
0.0
 11
10950.48387700763
 21
6754.794264573617
 31
0.0
  0
LINE
  5
1F5F4
330
747D
100
AcDbEntity
  8
部品1
 62
     7
 48
50.0
100
AcDbLine
 10
10926.67137700763
 20
6754.794264573617
 30
0.0
 11
10926.67137700763
 21
6754.794264573617
 31
0.0
  0
LINE
  5
1F5F5
330
747D
100
AcDbEntity
  8
部品1
 62
     7
 48
50.0
100
AcDbLine
 10
10902.85887700763
 20
6754.794264573617
 30
0.0
 11
10902.85887700763
 21
6754.794264573617
 31
0.0
  0
LINE
  5
1F5F6
330
747D
100
AcDbEntity
  8
部品1
 62
     7
 48
50.0
100
AcDbLine
 10
10879.04637700763
 20
6754.794264573617
 30
0.0
 11
10879.04637700763
 21
6754.794264573617
 31
0.0
  0
LINE
  5
1F5F7
330
747D
100
AcDbEntity
  8
部品1
 62
     7
 48
50.0
100
AcDbLine
 10
10867.14012700763
 20
6778.606764573615
 30
0.0
 11
10867.14012700763
 21
6778.606764573615
 31
0.0
  0
LINE
  5
1F5F8
330
747D
100
AcDbEntity
  8
部品1
 62
     7
 48
50.0
100
AcDbLine
 10
10843.32762700763
 20
6778.606764573615
 30
0.0
 11
10843.32762700763
 21
6778.606764573615
 31
0.0
  0
LINE
  5
1F5F9
330
747D
100
AcDbEntity
  8
部品1
 62
     7
 48
50.0
100
AcDbLine
 10
10819.51512700763
 20
6778.606764573615
 30
0.0
 11
10819.51512700763
 21
6778.606764573615
 31
0.0
  0
LINE
  5
1F5FA
330
747D
100
AcDbEntity
  8
部品1
 62
     7
 48
50.0
100
AcDbLine
 10
10795.70262700763
 20
6778.606764573615
 30
0.0
 11
10795.70262700763
 21
6778.606764573615
 31
0.0
  0
LINE
  5
1F5FB
330
747D
100
AcDbEntity
  8
部品1
 62
     7
 48
50.0
100
AcDbLine
 10
10962.39012700763
 20
6778.606764573615
 30
0.0
 11
10962.39012700763
 21
6778.606764573615
 31
0.0
  0
LINE
  5
1F5FC
330
747D
100
AcDbEntity
  8
部品1
 62
     7
 48
50.0
100
AcDbLine
 10
10938.57762700763
 20
6778.606764573615
 30
0.0
 11
10938.57762700763
 21
6778.606764573615
 31
0.0
  0
LINE
  5
1F5FD
330
747D
100
AcDbEntity
  8
部品1
 62
     7
 48
50.0
100
AcDbLine
 10
10914.76512700763
 20
6778.606764573615
 30
0.0
 11
10914.76512700763
 21
6778.606764573615
 31
0.0
  0
LINE
  5
1F5FE
330
747D
100
AcDbEntity
  8
部品1
 62
     7
 48
50.0
100
AcDbLine
 10
10890.95262700763
 20
6778.606764573615
 30
0.0
 11
10890.95262700763
 21
6778.606764573615
 31
0.0
  0
LINE
  5
1F5FF
330
747D
100
AcDbEntity
  8
部品1
 62
     7
 48
50.0
100
AcDbLine
 10
10855.23387700763
 20
6802.419264573616
 30
0.0
 11
10855.23387700763
 21
6802.419264573616
 31
0.0
  0
LINE
  5
1F600
330
747D
100
AcDbEntity
  8
部品1
 62
     7
 48
50.0
100
AcDbLine
 10
10831.42137700763
 20
6802.419264573616
 30
0.0
 11
10831.42137700763
 21
6802.419264573616
 31
0.0
  0
LINE
  5
1F601
330
747D
100
AcDbEntity
  8
部品1
 62
     7
 48
50.0
100
AcDbLine
 10
10807.60887700763
 20
6802.419264573616
 30
0.0
 11
10807.60887700763
 21
6802.419264573616
 31
0.0
  0
LINE
  5
1F602
330
747D
100
AcDbEntity
  8
部品1
 62
     7
 48
50.0
100
AcDbLine
 10
10783.79637700763
 20
6802.419264573616
 30
0.0
 11
10783.79637700763
 21
6802.419264573616
 31
0.0
  0
LINE
  5
1F603
330
747D
100
AcDbEntity
  8
部品1
 62
     7
 48
50.0
100
AcDbLine
 10
10950.48387700763
 20
6802.419264573616
 30
0.0
 11
10950.48387700763
 21
6802.419264573616
 31
0.0
  0
LINE
  5
1F604
330
747D
100
AcDbEntity
  8
部品1
 62
     7
 48
50.0
100
AcDbLine
 10
10926.67137700763
 20
6802.419264573616
 30
0.0
 11
10926.67137700763
 21
6802.419264573616
 31
0.0
  0
LINE
  5
1F605
330
747D
100
AcDbEntity
  8
部品1
 62
     7
 48
50.0
100
AcDbLine
 10
10902.85887700763
 20
6802.419264573616
 30
0.0
 11
10902.85887700763
 21
6802.419264573616
 31
0.0
  0
LINE
  5
1F606
330
747D
100
AcDbEntity
  8
部品1
 62
     7
 48
50.0
100
AcDbLine
 10
10879.04637700763
 20
6802.419264573616
 30
0.0
 11
10879.04637700763
 21
6802.419264573616
 31
0.0
  0
LINE
  5
1F607
330
747D
100
AcDbEntity
  8
部品1
 62
     7
 48
50.0
100
AcDbLine
 10
11110.49999999998
 20
6399.955177899423
 30
0.0
 11
11110.49999999998
 21
6599.955177899421
 31
0.0
  0
LINE
  5
1F608
330
747D
100
AcDbEntity
  8
細線
 62
     7
 48
10.0
100
AcDbLine
 10
10773.49999999998
 20
6860.955177899423
 30
0.0
 11
10973.49999999998
 21
6860.955177899423
 31
0.0
  0
LINE
  5
1F609
330
747D
100
AcDbEntity
  8
細線
 62
     7
 48
10.0
100
AcDbLine
 10
10973.49999999998
 20
7395.955177899423
 30
0.0
 11
10773.49999999998
 21
7395.955177899423
 31
0.0
  0
LINE
  5
1F60A
330
747D
100
AcDbEntity
  8
細線
 62
     7
 48
10.0
100
AcDbLine
 10
10773.49999999998
 20
6995.955177899422
 30
0.0
 11
10973.49999999998
 21
6995.955177899422
 31
0.0
  0
LINE
  5
1F60B
330
747D
100
AcDbEntity
  8
センター
 62
     7
 48
5.0
100
AcDbLine
 10
11018.49999999998
 20
7195.955177899422
 30
0.0
 11
10728.49999999998
 21
7195.955177899422
 31
0.0
  0
LINE
  5
1F60C
330
747D
100
AcDbEntity
  8
センター
 62
     7
 48
5.0
100
AcDbLine
 10
10873.49999999998
 20
7340.955177899423
 30
0.0
 11
10873.49999999998
 21
7050.955177899424
 31
0.0
  0
LINE
  5
1F60D
330
747D
100
AcDbEntity
  8
細線
 62
     7
 48
10.0
100
AcDbLine
 10
10773.49999999998
 20
7395.955177899423
 30
0.0
 11
10773.49999999998
 21
6995.955177899422
 31
0.0
  0
LINE
  5
1F60E
330
747D
100
AcDbEntity
  8
部品1
 62
     7
 48
50.0
100
AcDbLine
 10
10867.14012700763
 20
6826.231764573616
 30
0.0
 11
10867.14012700763
 21
6826.231764573616
 31
0.0
  0
LINE
  5
1F60F
330
747D
100
AcDbEntity
  8
部品1
 62
     7
 48
50.0
100
AcDbLine
 10
10843.32762700763
 20
6826.231764573616
 30
0.0
 11
10843.32762700763
 21
6826.231764573616
 31
0.0
  0
LINE
  5
1F610
330
747D
100
AcDbEntity
  8
部品1
 62
     7
 48
50.0
100
AcDbLine
 10
10819.51512700763
 20
6826.231764573616
 30
0.0
 11
10819.51512700763
 21
6826.231764573616
 31
0.0
  0
LINE
  5
1F611
330
747D
100
AcDbEntity
  8
部品1
 62
     7
 48
50.0
100
AcDbLine
 10
10795.70262700763
 20
6826.231764573616
 30
0.0
 11
10795.70262700763
 21
6826.231764573616
 31
0.0
  0
LINE
  5
1F612
330
747D
100
AcDbEntity
  8
部品1
 62
     7
 48
50.0
100
AcDbLine
 10
10962.39012700763
 20
6826.231764573616
 30
0.0
 11
10962.39012700763
 21
6826.231764573616
 31
0.0
  0
LINE
  5
1F613
330
747D
100
AcDbEntity
  8
部品1
 62
     7
 48
50.0
100
AcDbLine
 10
10938.57762700763
 20
6826.231764573616
 30
0.0
 11
10938.57762700763
 21
6826.231764573616
 31
0.0
  0
LINE
  5
1F614
330
747D
100
AcDbEntity
  8
部品1
 62
     7
 48
50.0
100
AcDbLine
 10
10914.76512700763
 20
6826.231764573616
 30
0.0
 11
10914.76512700763
 21
6826.231764573616
 31
0.0
  0
LINE
  5
1F615
330
747D
100
AcDbEntity
  8
部品1
 62
     7
 48
50.0
100
AcDbLine
 10
10890.95262700763
 20
6826.231764573616
 30
0.0
 11
10890.95262700763
 21
6826.231764573616
 31
0.0
  0
LINE
  5
1F616
330
747D
100
AcDbEntity
  8
部品1
 62
     7
 48
50.0
100
AcDbLine
 10
10855.23387700763
 20
6850.044264573617
 30
0.0
 11
10855.23387700763
 21
6850.044264573617
 31
0.0
  0
LINE
  5
1F617
330
747D
100
AcDbEntity
  8
部品1
 62
     7
 48
50.0
100
AcDbLine
 10
10831.42137700763
 20
6850.044264573617
 30
0.0
 11
10831.42137700763
 21
6850.044264573617
 31
0.0
  0
LINE
  5
1F618
330
747D
100
AcDbEntity
  8
部品1
 62
     7
 48
50.0
100
AcDbLine
 10
10807.60887700763
 20
6850.044264573617
 30
0.0
 11
10807.60887700763
 21
6850.044264573617
 31
0.0
  0
LINE
  5
1F619
330
747D
100
AcDbEntity
  8
部品1
 62
     7
 48
50.0
100
AcDbLine
 10
10783.79637700763
 20
6850.044264573617
 30
0.0
 11
10783.79637700763
 21
6850.044264573617
 31
0.0
  0
LINE
  5
1F61A
330
747D
100
AcDbEntity
  8
部品1
 62
     7
 48
50.0
100
AcDbLine
 10
10950.48387700763
 20
6850.044264573617
 30
0.0
 11
10950.48387700763
 21
6850.044264573617
 31
0.0
  0
LINE
  5
1F61B
330
747D
100
AcDbEntity
  8
部品1
 62
     7
 48
50.0
100
AcDbLine
 10
10926.67137700763
 20
6850.044264573617
 30
0.0
 11
10926.67137700763
 21
6850.044264573617
 31
0.0
  0
LINE
  5
1F61C
330
747D
100
AcDbEntity
  8
部品1
 62
     7
 48
50.0
100
AcDbLine
 10
10902.85887700763
 20
6850.044264573617
 30
0.0
 11
10902.85887700763
 21
6850.044264573617
 31
0.0
  0
LINE
  5
1F61D
330
747D
100
AcDbEntity
  8
部品1
 62
     7
 48
50.0
100
AcDbLine
 10
10879.04637700763
 20
6850.044264573617
 30
0.0
 11
10879.04637700763
 21
6850.044264573617
 31
0.0
  0
LINE
  5
1F61E
330
747D
100
AcDbEntity
  8
部品1
 62
     7
 48
50.0
100
AcDbLine
 10
10962.39012700763
 20
7016.731764573616
 30
0.0
 11
10962.39012700763
 21
7016.731764573616
 31
0.0
  0
LINE
  5
1F61F
330
747D
100
AcDbEntity
  8
部品1
 62
     7
 48
50.0
100
AcDbLine
 10
10938.57762700763
 20
7016.731764573616
 30
0.0
 11
10938.57762700763
 21
7016.731764573616
 31
0.0
  0
LINE
  5
1F620
330
747D
100
AcDbEntity
  8
部品1
 62
     7
 48
50.0
100
AcDbLine
 10
10914.76512700763
 20
7016.731764573616
 30
0.0
 11
10914.76512700763
 21
7016.731764573616
 31
0.0
  0
LINE
  5
1F621
330
747D
100
AcDbEntity
  8
部品1
 62
     7
 48
50.0
100
AcDbLine
 10
10890.95262700763
 20
7016.731764573616
 30
0.0
 11
10890.95262700763
 21
7016.731764573616
 31
0.0
  0
LINE
  5
1F622
330
747D
100
AcDbEntity
  8
部品1
 62
     7
 48
50.0
100
AcDbLine
 10
10867.14012700763
 20
7016.731764573616
 30
0.0
 11
10867.14012700763
 21
7016.731764573616
 31
0.0
  0
LINE
  5
1F623
330
747D
100
AcDbEntity
  8
部品1
 62
     7
 48
50.0
100
AcDbLine
 10
10843.32762700763
 20
7016.731764573616
 30
0.0
 11
10843.32762700763
 21
7016.731764573616
 31
0.0
  0
LINE
  5
1F624
330
747D
100
AcDbEntity
  8
部品1
 62
     7
 48
50.0
100
AcDbLine
 10
10819.51512700763
 20
7016.731764573616
 30
0.0
 11
10819.51512700763
 21
7016.731764573616
 31
0.0
  0
LINE
  5
1F625
330
747D
100
AcDbEntity
  8
部品1
 62
     7
 48
50.0
100
AcDbLine
 10
10795.70262700763
 20
7016.731764573616
 30
0.0
 11
10795.70262700763
 21
7016.731764573616
 31
0.0
  0
LINE
  5
1F626
330
747D
100
AcDbEntity
  8
部品1
 62
     7
 48
50.0
100
AcDbLine
 10
10950.48387700763
 20
7040.544264573617
 30
0.0
 11
10950.48387700763
 21
7040.544264573617
 31
0.0
  0
LINE
  5
1F627
330
747D
100
AcDbEntity
  8
部品1
 62
     7
 48
50.0
100
AcDbLine
 10
10926.67137700763
 20
7040.544264573617
 30
0.0
 11
10926.67137700763
 21
7040.544264573617
 31
0.0
  0
LINE
  5
1F628
330
747D
100
AcDbEntity
  8
部品1
 62
     7
 48
50.0
100
AcDbLine
 10
10902.85887700763
 20
7040.544264573617
 30
0.0
 11
10902.85887700763
 21
7040.544264573617
 31
0.0
  0
LINE
  5
1F629
330
747D
100
AcDbEntity
  8
部品1
 62
     7
 48
50.0
100
AcDbLine
 10
10879.04637700763
 20
7040.544264573617
 30
0.0
 11
10879.04637700763
 21
7040.544264573617
 31
0.0
  0
LINE
  5
1F62A
330
747D
100
AcDbEntity
  8
部品1
 62
     7
 48
50.0
100
AcDbLine
 10
10855.23387700763
 20
7040.544264573617
 30
0.0
 11
10855.23387700763
 21
7040.544264573617
 31
0.0
  0
LINE
  5
1F62B
330
747D
100
AcDbEntity
  8
部品1
 62
     7
 48
50.0
100
AcDbLine
 10
10831.42137700763
 20
7040.544264573617
 30
0.0
 11
10831.42137700763
 21
7040.544264573617
 31
0.0
  0
LINE
  5
1F62C
330
747D
100
AcDbEntity
  8
部品1
 62
     7
 48
50.0
100
AcDbLine
 10
10807.60887700763
 20
7040.544264573617
 30
0.0
 11
10807.60887700763
 21
7040.544264573617
 31
0.0
  0
LINE
  5
1F62D
330
747D
100
AcDbEntity
  8
部品1
 62
     7
 48
50.0
100
AcDbLine
 10
10783.79637700763
 20
7040.544264573617
 30
0.0
 11
10783.79637700763
 21
7040.544264573617
 31
0.0
  0
LINE
  5
1F62E
330
747D
100
AcDbEntity
  8
部品1
 62
     7
 48
50.0
100
AcDbLine
 10
10962.39012700763
 20
7064.356764573616
 30
0.0
 11
10962.39012700763
 21
7064.356764573616
 31
0.0
  0
LINE
  5
1F62F
330
747D
100
AcDbEntity
  8
部品1
 62
     7
 48
50.0
100
AcDbLine
 10
10938.57762700763
 20
7064.356764573616
 30
0.0
 11
10938.57762700763
 21
7064.356764573616
 31
0.0
  0
LINE
  5
1F630
330
747D
100
AcDbEntity
  8
部品1
 62
     7
 48
50.0
100
AcDbLine
 10
10914.76512700763
 20
7064.356764573616
 30
0.0
 11
10914.76512700763
 21
7064.356764573616
 31
0.0
  0
LINE
  5
1F631
330
747D
100
AcDbEntity
  8
部品1
 62
     7
 48
50.0
100
AcDbLine
 10
10890.95262700763
 20
7064.356764573616
 30
0.0
 11
10890.95262700763
 21
7064.356764573616
 31
0.0
  0
LINE
  5
1F632
330
747D
100
AcDbEntity
  8
部品1
 62
     7
 48
50.0
100
AcDbLine
 10
10867.14012700763
 20
7064.356764573616
 30
0.0
 11
10867.14012700763
 21
7064.356764573616
 31
0.0
  0
LINE
  5
1F633
330
747D
100
AcDbEntity
  8
部品1
 62
     7
 48
50.0
100
AcDbLine
 10
10843.32762700763
 20
7064.356764573616
 30
0.0
 11
10843.32762700763
 21
7064.356764573616
 31
0.0
  0
LINE
  5
1F634
330
747D
100
AcDbEntity
  8
部品1
 62
     7
 48
50.0
100
AcDbLine
 10
10819.51512700763
 20
7064.356764573616
 30
0.0
 11
10819.51512700763
 21
7064.356764573616
 31
0.0
  0
LINE
  5
1F635
330
747D
100
AcDbEntity
  8
部品1
 62
     7
 48
50.0
100
AcDbLine
 10
10795.70262700763
 20
7064.356764573616
 30
0.0
 11
10795.70262700763
 21
7064.356764573616
 31
0.0
  0
LINE
  5
1F636
330
747D
100
AcDbEntity
  8
部品1
 62
     7
 48
50.0
100
AcDbLine
 10
10950.48387700763
 20
7088.169264573615
 30
0.0
 11
10950.48387700763
 21
7088.169264573615
 31
0.0
  0
LINE
  5
1F637
330
747D
100
AcDbEntity
  8
部品1
 62
     7
 48
50.0
100
AcDbLine
 10
10926.67137700763
 20
7088.169264573615
 30
0.0
 11
10926.67137700763
 21
7088.169264573615
 31
0.0
  0
LINE
  5
1F638
330
747D
100
AcDbEntity
  8
部品1
 62
     7
 48
50.0
100
AcDbLine
 10
10902.85887700763
 20
7088.169264573615
 30
0.0
 11
10902.85887700763
 21
7088.169264573615
 31
0.0
  0
LINE
  5
1F639
330
747D
100
AcDbEntity
  8
部品1
 62
     7
 48
50.0
100
AcDbLine
 10
10879.04637700763
 20
7088.169264573615
 30
0.0
 11
10879.04637700763
 21
7088.169264573615
 31
0.0
  0
LINE
  5
1F63A
330
747D
100
AcDbEntity
  8
部品1
 62
     7
 48
50.0
100
AcDbLine
 10
10855.23387700763
 20
7088.169264573615
 30
0.0
 11
10855.23387700763
 21
7088.169264573615
 31
0.0
  0
LINE
  5
1F63B
330
747D
100
AcDbEntity
  8
部品1
 62
     7
 48
50.0
100
AcDbLine
 10
10831.42137700763
 20
7088.169264573615
 30
0.0
 11
10831.42137700763
 21
7088.169264573615
 31
0.0
  0
LINE
  5
1F63C
330
747D
100
AcDbEntity
  8
部品1
 62
     7
 48
50.0
100
AcDbLine
 10
10807.60887700763
 20
7088.169264573615
 30
0.0
 11
10807.60887700763
 21
7088.169264573615
 31
0.0
  0
LINE
  5
1F63D
330
747D
100
AcDbEntity
  8
部品1
 62
     7
 48
50.0
100
AcDbLine
 10
10783.79637700763
 20
7088.169264573615
 30
0.0
 11
10783.79637700763
 21
7088.169264573615
 31
0.0
  0
LINE
  5
1F63E
330
747D
100
AcDbEntity
  8
部品1
 62
     7
 48
50.0
100
AcDbLine
 10
10962.39012700763
 20
7111.981764573616
 30
0.0
 11
10962.39012700763
 21
7111.981764573616
 31
0.0
  0
LINE
  5
1F63F
330
747D
100
AcDbEntity
  8
部品1
 62
     7
 48
50.0
100
AcDbLine
 10
10938.57762700763
 20
7111.981764573616
 30
0.0
 11
10938.57762700763
 21
7111.981764573616
 31
0.0
  0
LINE
  5
1F640
330
747D
100
AcDbEntity
  8
部品1
 62
     7
 48
50.0
100
AcDbLine
 10
10914.76512700763
 20
7111.981764573616
 30
0.0
 11
10914.76512700763
 21
7111.981764573616
 31
0.0
  0
LINE
  5
1F641
330
747D
100
AcDbEntity
  8
部品1
 62
     7
 48
50.0
100
AcDbLine
 10
10890.95262700763
 20
7111.981764573616
 30
0.0
 11
10890.95262700763
 21
7111.981764573616
 31
0.0
  0
LINE
  5
1F642
330
747D
100
AcDbEntity
  8
部品1
 62
     7
 48
50.0
100
AcDbLine
 10
10867.14012700763
 20
7111.981764573616
 30
0.0
 11
10867.14012700763
 21
7111.981764573616
 31
0.0
  0
LINE
  5
1F643
330
747D
100
AcDbEntity
  8
部品1
 62
     7
 48
50.0
100
AcDbLine
 10
10843.32762700763
 20
7111.981764573616
 30
0.0
 11
10843.32762700763
 21
7111.981764573616
 31
0.0
  0
LINE
  5
1F644
330
747D
100
AcDbEntity
  8
部品1
 62
     7
 48
50.0
100
AcDbLine
 10
10819.51512700763
 20
7111.981764573616
 30
0.0
 11
10819.51512700763
 21
7111.981764573616
 31
0.0
  0
LINE
  5
1F645
330
747D
100
AcDbEntity
  8
部品1
 62
     7
 48
50.0
100
AcDbLine
 10
10795.70262700763
 20
7111.981764573616
 30
0.0
 11
10795.70262700763
 21
7111.981764573616
 31
0.0
  0
LINE
  5
1F646
330
747D
100
AcDbEntity
  8
部品1
 62
     7
 48
50.0
100
AcDbLine
 10
10950.48387700763
 20
7135.794264573617
 30
0.0
 11
10950.48387700763
 21
7135.794264573617
 31
0.0
  0
LINE
  5
1F647
330
747D
100
AcDbEntity
  8
部品1
 62
     7
 48
50.0
100
AcDbLine
 10
10926.67137700763
 20
7135.794264573617
 30
0.0
 11
10926.67137700763
 21
7135.794264573617
 31
0.0
  0
LINE
  5
1F648
330
747D
100
AcDbEntity
  8
部品1
 62
     7
 48
50.0
100
AcDbLine
 10
10902.85887700763
 20
7135.794264573617
 30
0.0
 11
10902.85887700763
 21
7135.794264573617
 31
0.0
  0
LINE
  5
1F649
330
747D
100
AcDbEntity
  8
部品1
 62
     7
 48
50.0
100
AcDbLine
 10
10879.04637700763
 20
7135.794264573617
 30
0.0
 11
10879.04637700763
 21
7135.794264573617
 31
0.0
  0
LINE
  5
1F64A
330
747D
100
AcDbEntity
  8
部品1
 62
     7
 48
50.0
100
AcDbLine
 10
10855.23387700763
 20
7135.794264573617
 30
0.0
 11
10855.23387700763
 21
7135.794264573617
 31
0.0
  0
LINE
  5
1F64B
330
747D
100
AcDbEntity
  8
部品1
 62
     7
 48
50.0
100
AcDbLine
 10
10831.42137700763
 20
7135.794264573617
 30
0.0
 11
10831.42137700763
 21
7135.794264573617
 31
0.0
  0
LINE
  5
1F64C
330
747D
100
AcDbEntity
  8
部品1
 62
     7
 48
50.0
100
AcDbLine
 10
10807.60887700763
 20
7135.794264573617
 30
0.0
 11
10807.60887700763
 21
7135.794264573617
 31
0.0
  0
LINE
  5
1F64D
330
747D
100
AcDbEntity
  8
部品1
 62
     7
 48
50.0
100
AcDbLine
 10
10783.79637700763
 20
7135.794264573617
 30
0.0
 11
10783.79637700763
 21
7135.794264573617
 31
0.0
  0
LINE
  5
1F64E
330
747D
100
AcDbEntity
  8
部品1
 62
     7
 48
50.0
100
AcDbLine
 10
10962.39012700763
 20
7159.606764573616
 30
0.0
 11
10962.39012700763
 21
7159.606764573616
 31
0.0
  0
LINE
  5
1F64F
330
747D
100
AcDbEntity
  8
部品1
 62
     7
 48
50.0
100
AcDbLine
 10
10938.57762700763
 20
7159.606764573616
 30
0.0
 11
10938.57762700763
 21
7159.606764573616
 31
0.0
  0
LINE
  5
1F650
330
747D
100
AcDbEntity
  8
部品1
 62
     7
 48
50.0
100
AcDbLine
 10
10914.76512700763
 20
7159.606764573616
 30
0.0
 11
10914.76512700763
 21
7159.606764573616
 31
0.0
  0
LINE
  5
1F651
330
747D
100
AcDbEntity
  8
部品1
 62
     7
 48
50.0
100
AcDbLine
 10
10890.95262700763
 20
7159.606764573616
 30
0.0
 11
10890.95262700763
 21
7159.606764573616
 31
0.0
  0
LINE
  5
1F652
330
747D
100
AcDbEntity
  8
部品1
 62
     7
 48
50.0
100
AcDbLine
 10
10867.14012700763
 20
7159.606764573616
 30
0.0
 11
10867.14012700763
 21
7159.606764573616
 31
0.0
  0
LINE
  5
1F653
330
747D
100
AcDbEntity
  8
部品1
 62
     7
 48
50.0
100
AcDbLine
 10
10843.32762700763
 20
7159.606764573616
 30
0.0
 11
10843.32762700763
 21
7159.606764573616
 31
0.0
  0
LINE
  5
1F654
330
747D
100
AcDbEntity
  8
部品1
 62
     7
 48
50.0
100
AcDbLine
 10
10819.51512700763
 20
7159.606764573616
 30
0.0
 11
10819.51512700763
 21
7159.606764573616
 31
0.0
  0
LINE
  5
1F655
330
747D
100
AcDbEntity
  8
部品1
 62
     7
 48
50.0
100
AcDbLine
 10
10795.70262700763
 20
7159.606764573616
 30
0.0
 11
10795.70262700763
 21
7159.606764573616
 31
0.0
  0
LINE
  5
1F656
330
747D
100
AcDbEntity
  8
部品1
 62
     7
 48
50.0
100
AcDbLine
 10
10950.48387700763
 20
7183.419264573617
 30
0.0
 11
10950.48387700763
 21
7183.419264573617
 31
0.0
  0
LINE
  5
1F657
330
747D
100
AcDbEntity
  8
部品1
 62
     7
 48
50.0
100
AcDbLine
 10
10926.67137700763
 20
7183.419264573617
 30
0.0
 11
10926.67137700763
 21
7183.419264573617
 31
0.0
  0
LINE
  5
1F658
330
747D
100
AcDbEntity
  8
部品1
 62
     7
 48
50.0
100
AcDbLine
 10
10902.85887700763
 20
7183.419264573617
 30
0.0
 11
10902.85887700763
 21
7183.419264573617
 31
0.0
  0
LINE
  5
1F659
330
747D
100
AcDbEntity
  8
部品1
 62
     7
 48
50.0
100
AcDbLine
 10
10879.04637700763
 20
7183.419264573617
 30
0.0
 11
10879.04637700763
 21
7183.419264573617
 31
0.0
  0
LINE
  5
1F65A
330
747D
100
AcDbEntity
  8
部品1
 62
     7
 48
50.0
100
AcDbLine
 10
10855.23387700763
 20
7183.419264573617
 30
0.0
 11
10855.23387700763
 21
7183.419264573617
 31
0.0
  0
LINE
  5
1F65B
330
747D
100
AcDbEntity
  8
部品1
 62
     7
 48
50.0
100
AcDbLine
 10
10831.42137700763
 20
7183.419264573617
 30
0.0
 11
10831.42137700763
 21
7183.419264573617
 31
0.0
  0
LINE
  5
1F65C
330
747D
100
AcDbEntity
  8
部品1
 62
     7
 48
50.0
100
AcDbLine
 10
10807.60887700763
 20
7183.419264573617
 30
0.0
 11
10807.60887700763
 21
7183.419264573617
 31
0.0
  0
LINE
  5
1F65D
330
747D
100
AcDbEntity
  8
部品1
 62
     7
 48
50.0
100
AcDbLine
 10
10783.79637700763
 20
7183.419264573617
 30
0.0
 11
10783.79637700763
 21
7183.419264573617
 31
0.0
  0
LINE
  5
1F65E
330
747D
100
AcDbEntity
  8
部品1
 62
     7
 48
50.0
100
AcDbLine
 10
10962.39012700763
 20
7207.231764573617
 30
0.0
 11
10962.39012700763
 21
7207.231764573617
 31
0.0
  0
LINE
  5
1F65F
330
747D
100
AcDbEntity
  8
部品1
 62
     7
 48
50.0
100
AcDbLine
 10
10938.57762700763
 20
7207.231764573617
 30
0.0
 11
10938.57762700763
 21
7207.231764573617
 31
0.0
  0
LINE
  5
1F660
330
747D
100
AcDbEntity
  8
部品1
 62
     7
 48
50.0
100
AcDbLine
 10
10914.76512700763
 20
7207.231764573617
 30
0.0
 11
10914.76512700763
 21
7207.231764573617
 31
0.0
  0
LINE
  5
1F661
330
747D
100
AcDbEntity
  8
部品1
 62
     7
 48
50.0
100
AcDbLine
 10
10890.95262700763
 20
7207.231764573617
 30
0.0
 11
10890.95262700763
 21
7207.231764573617
 31
0.0
  0
LINE
  5
1F662
330
747D
100
AcDbEntity
  8
部品1
 62
     7
 48
50.0
100
AcDbLine
 10
10867.14012700763
 20
7207.231764573617
 30
0.0
 11
10867.14012700763
 21
7207.231764573617
 31
0.0
  0
LINE
  5
1F663
330
747D
100
AcDbEntity
  8
部品1
 62
     7
 48
50.0
100
AcDbLine
 10
10843.32762700763
 20
7207.231764573617
 30
0.0
 11
10843.32762700763
 21
7207.231764573617
 31
0.0
  0
LINE
  5
1F664
330
747D
100
AcDbEntity
  8
部品1
 62
     7
 48
50.0
100
AcDbLine
 10
10819.51512700763
 20
7207.231764573617
 30
0.0
 11
10819.51512700763
 21
7207.231764573617
 31
0.0
  0
LINE
  5
1F665
330
747D
100
AcDbEntity
  8
部品1
 62
     7
 48
50.0
100
AcDbLine
 10
10795.70262700763
 20
7207.231764573617
 30
0.0
 11
10795.70262700763
 21
7207.231764573617
 31
0.0
  0
LINE
  5
1F666
330
747D
100
AcDbEntity
  8
部品1
 62
     7
 48
50.0
100
AcDbLine
 10
10950.48387700763
 20
7231.044264573617
 30
0.0
 11
10950.48387700763
 21
7231.044264573617
 31
0.0
  0
LINE
  5
1F667
330
747D
100
AcDbEntity
  8
部品1
 62
     7
 48
50.0
100
AcDbLine
 10
10926.67137700763
 20
7231.044264573617
 30
0.0
 11
10926.67137700763
 21
7231.044264573617
 31
0.0
  0
LINE
  5
1F668
330
747D
100
AcDbEntity
  8
部品1
 62
     7
 48
50.0
100
AcDbLine
 10
10902.85887700763
 20
7231.044264573617
 30
0.0
 11
10902.85887700763
 21
7231.044264573617
 31
0.0
  0
LINE
  5
1F669
330
747D
100
AcDbEntity
  8
部品1
 62
     7
 48
50.0
100
AcDbLine
 10
10879.04637700763
 20
7231.044264573617
 30
0.0
 11
10879.04637700763
 21
7231.044264573617
 31
0.0
  0
LINE
  5
1F66A
330
747D
100
AcDbEntity
  8
部品1
 62
     7
 48
50.0
100
AcDbLine
 10
10855.23387700763
 20
7231.044264573617
 30
0.0
 11
10855.23387700763
 21
7231.044264573617
 31
0.0
  0
LINE
  5
1F66B
330
747D
100
AcDbEntity
  8
部品1
 62
     7
 48
50.0
100
AcDbLine
 10
10831.42137700763
 20
7231.044264573617
 30
0.0
 11
10831.42137700763
 21
7231.044264573617
 31
0.0
  0
LINE
  5
1F66C
330
747D
100
AcDbEntity
  8
部品1
 62
     7
 48
50.0
100
AcDbLine
 10
10807.60887700763
 20
7231.044264573617
 30
0.0
 11
10807.60887700763
 21
7231.044264573617
 31
0.0
  0
LINE
  5
1F66D
330
747D
100
AcDbEntity
  8
部品1
 62
     7
 48
50.0
100
AcDbLine
 10
10783.79637700763
 20
7231.044264573617
 30
0.0
 11
10783.79637700763
 21
7231.044264573617
 31
0.0
  0
LINE
  5
1F66E
330
747D
100
AcDbEntity
  8
部品1
 62
     7
 48
50.0
100
AcDbLine
 10
10962.39012700763
 20
7254.856764573617
 30
0.0
 11
10962.39012700763
 21
7254.856764573617
 31
0.0
  0
LINE
  5
1F66F
330
747D
100
AcDbEntity
  8
部品1
 62
     7
 48
50.0
100
AcDbLine
 10
10938.57762700763
 20
7254.856764573617
 30
0.0
 11
10938.57762700763
 21
7254.856764573617
 31
0.0
  0
LINE
  5
1F670
330
747D
100
AcDbEntity
  8
部品1
 62
     7
 48
50.0
100
AcDbLine
 10
10914.76512700763
 20
7254.856764573617
 30
0.0
 11
10914.76512700763
 21
7254.856764573617
 31
0.0
  0
LINE
  5
1F671
330
747D
100
AcDbEntity
  8
部品1
 62
     7
 48
50.0
100
AcDbLine
 10
10890.95262700763
 20
7254.856764573617
 30
0.0
 11
10890.95262700763
 21
7254.856764573617
 31
0.0
  0
LINE
  5
1F672
330
747D
100
AcDbEntity
  8
部品1
 62
     7
 48
50.0
100
AcDbLine
 10
10867.14012700763
 20
7254.856764573617
 30
0.0
 11
10867.14012700763
 21
7254.856764573617
 31
0.0
  0
LINE
  5
1F673
330
747D
100
AcDbEntity
  8
部品1
 62
     7
 48
50.0
100
AcDbLine
 10
10843.32762700763
 20
7254.856764573617
 30
0.0
 11
10843.32762700763
 21
7254.856764573617
 31
0.0
  0
LINE
  5
1F674
330
747D
100
AcDbEntity
  8
部品1
 62
     7
 48
50.0
100
AcDbLine
 10
10819.51512700763
 20
7254.856764573617
 30
0.0
 11
10819.51512700763
 21
7254.856764573617
 31
0.0
  0
LINE
  5
1F675
330
747D
100
AcDbEntity
  8
部品1
 62
     7
 48
50.0
100
AcDbLine
 10
10795.70262700763
 20
7254.856764573617
 30
0.0
 11
10795.70262700763
 21
7254.856764573617
 31
0.0
  0
LINE
  5
1F676
330
747D
100
AcDbEntity
  8
部品1
 62
     7
 48
50.0
100
AcDbLine
 10
10950.48387700763
 20
7278.669264573617
 30
0.0
 11
10950.48387700763
 21
7278.669264573617
 31
0.0
  0
LINE
  5
1F677
330
747D
100
AcDbEntity
  8
部品1
 62
     7
 48
50.0
100
AcDbLine
 10
10926.67137700763
 20
7278.669264573617
 30
0.0
 11
10926.67137700763
 21
7278.669264573617
 31
0.0
  0
LINE
  5
1F678
330
747D
100
AcDbEntity
  8
部品1
 62
     7
 48
50.0
100
AcDbLine
 10
10902.85887700763
 20
7278.669264573617
 30
0.0
 11
10902.85887700763
 21
7278.669264573617
 31
0.0
  0
LINE
  5
1F679
330
747D
100
AcDbEntity
  8
部品1
 62
     7
 48
50.0
100
AcDbLine
 10
10879.04637700763
 20
7278.669264573617
 30
0.0
 11
10879.04637700763
 21
7278.669264573617
 31
0.0
  0
LINE
  5
1F67A
330
747D
100
AcDbEntity
  8
部品1
 62
     7
 48
50.0
100
AcDbLine
 10
10855.23387700763
 20
7278.669264573617
 30
0.0
 11
10855.23387700763
 21
7278.669264573617
 31
0.0
  0
LINE
  5
1F67B
330
747D
100
AcDbEntity
  8
部品1
 62
     7
 48
50.0
100
AcDbLine
 10
10831.42137700763
 20
7278.669264573617
 30
0.0
 11
10831.42137700763
 21
7278.669264573617
 31
0.0
  0
LINE
  5
1F67C
330
747D
100
AcDbEntity
  8
部品1
 62
     7
 48
50.0
100
AcDbLine
 10
10807.60887700763
 20
7278.669264573617
 30
0.0
 11
10807.60887700763
 21
7278.669264573617
 31
0.0
  0
LINE
  5
1F67D
330
747D
100
AcDbEntity
  8
部品1
 62
     7
 48
50.0
100
AcDbLine
 10
10783.79637700763
 20
7278.669264573617
 30
0.0
 11
10783.79637700763
 21
7278.669264573617
 31
0.0
  0
LINE
  5
1F67E
330
747D
100
AcDbEntity
  8
部品1
 62
     7
 48
50.0
100
AcDbLine
 10
10962.39012700763
 20
7302.481764573617
 30
0.0
 11
10962.39012700763
 21
7302.481764573617
 31
0.0
  0
LINE
  5
1F67F
330
747D
100
AcDbEntity
  8
部品1
 62
     7
 48
50.0
100
AcDbLine
 10
10938.57762700763
 20
7302.481764573617
 30
0.0
 11
10938.57762700763
 21
7302.481764573617
 31
0.0
  0
LINE
  5
1F680
330
747D
100
AcDbEntity
  8
部品1
 62
     7
 48
50.0
100
AcDbLine
 10
10914.76512700763
 20
7302.481764573617
 30
0.0
 11
10914.76512700763
 21
7302.481764573617
 31
0.0
  0
LINE
  5
1F681
330
747D
100
AcDbEntity
  8
部品1
 62
     7
 48
50.0
100
AcDbLine
 10
10890.95262700763
 20
7302.481764573617
 30
0.0
 11
10890.95262700763
 21
7302.481764573617
 31
0.0
  0
LINE
  5
1F682
330
747D
100
AcDbEntity
  8
部品1
 62
     7
 48
50.0
100
AcDbLine
 10
10867.14012700763
 20
7302.481764573617
 30
0.0
 11
10867.14012700763
 21
7302.481764573617
 31
0.0
  0
LINE
  5
1F683
330
747D
100
AcDbEntity
  8
部品1
 62
     7
 48
50.0
100
AcDbLine
 10
10843.32762700763
 20
7302.481764573617
 30
0.0
 11
10843.32762700763
 21
7302.481764573617
 31
0.0
  0
LINE
  5
1F684
330
747D
100
AcDbEntity
  8
部品1
 62
     7
 48
50.0
100
AcDbLine
 10
10819.51512700763
 20
7302.481764573617
 30
0.0
 11
10819.51512700763
 21
7302.481764573617
 31
0.0
  0
LINE
  5
1F685
330
747D
100
AcDbEntity
  8
部品1
 62
     7
 48
50.0
100
AcDbLine
 10
10795.70262700763
 20
7302.481764573617
 30
0.0
 11
10795.70262700763
 21
7302.481764573617
 31
0.0
  0
LINE
  5
1F686
330
747D
100
AcDbEntity
  8
部品1
 62
     7
 48
50.0
100
AcDbLine
 10
10950.48387700763
 20
7326.294264573617
 30
0.0
 11
10950.48387700763
 21
7326.294264573617
 31
0.0
  0
LINE
  5
1F687
330
747D
100
AcDbEntity
  8
部品1
 62
     7
 48
50.0
100
AcDbLine
 10
10926.67137700763
 20
7326.294264573617
 30
0.0
 11
10926.67137700763
 21
7326.294264573617
 31
0.0
  0
LINE
  5
1F688
330
747D
100
AcDbEntity
  8
部品1
 62
     7
 48
50.0
100
AcDbLine
 10
10902.85887700763
 20
7326.294264573617
 30
0.0
 11
10902.85887700763
 21
7326.294264573617
 31
0.0
  0
LINE
  5
1F689
330
747D
100
AcDbEntity
  8
部品1
 62
     7
 48
50.0
100
AcDbLine
 10
10879.04637700763
 20
7326.294264573617
 30
0.0
 11
10879.04637700763
 21
7326.294264573617
 31
0.0
  0
LINE
  5
1F68A
330
747D
100
AcDbEntity
  8
部品1
 62
     7
 48
50.0
100
AcDbLine
 10
10855.23387700763
 20
7326.294264573617
 30
0.0
 11
10855.23387700763
 21
7326.294264573617
 31
0.0
  0
LINE
  5
1F68B
330
747D
100
AcDbEntity
  8
部品1
 62
     7
 48
50.0
100
AcDbLine
 10
10831.42137700763
 20
7326.294264573617
 30
0.0
 11
10831.42137700763
 21
7326.294264573617
 31
0.0
  0
LINE
  5
1F68C
330
747D
100
AcDbEntity
  8
部品1
 62
     7
 48
50.0
100
AcDbLine
 10
10807.60887700763
 20
7326.294264573617
 30
0.0
 11
10807.60887700763
 21
7326.294264573617
 31
0.0
  0
LINE
  5
1F68D
330
747D
100
AcDbEntity
  8
部品1
 62
     7
 48
50.0
100
AcDbLine
 10
10783.79637700763
 20
7326.294264573617
 30
0.0
 11
10783.79637700763
 21
7326.294264573617
 31
0.0
  0
LINE
  5
1F68E
330
747D
100
AcDbEntity
  8
部品1
 62
     7
 48
50.0
100
AcDbLine
 10
10962.39012700763
 20
7350.106764573617
 30
0.0
 11
10962.39012700763
 21
7350.106764573617
 31
0.0
  0
LINE
  5
1F68F
330
747D
100
AcDbEntity
  8
部品1
 62
     7
 48
50.0
100
AcDbLine
 10
10938.57762700763
 20
7350.106764573617
 30
0.0
 11
10938.57762700763
 21
7350.106764573617
 31
0.0
  0
LINE
  5
1F690
330
747D
100
AcDbEntity
  8
部品1
 62
     7
 48
50.0
100
AcDbLine
 10
10914.76512700763
 20
7350.106764573617
 30
0.0
 11
10914.76512700763
 21
7350.106764573617
 31
0.0
  0
LINE
  5
1F691
330
747D
100
AcDbEntity
  8
部品1
 62
     7
 48
50.0
100
AcDbLine
 10
10890.95262700763
 20
7350.106764573617
 30
0.0
 11
10890.95262700763
 21
7350.106764573617
 31
0.0
  0
LINE
  5
1F692
330
747D
100
AcDbEntity
  8
部品1
 62
     7
 48
50.0
100
AcDbLine
 10
10867.14012700763
 20
7350.106764573617
 30
0.0
 11
10867.14012700763
 21
7350.106764573617
 31
0.0
  0
LINE
  5
1F693
330
747D
100
AcDbEntity
  8
部品1
 62
     7
 48
50.0
100
AcDbLine
 10
10843.32762700763
 20
7350.106764573617
 30
0.0
 11
10843.32762700763
 21
7350.106764573617
 31
0.0
  0
LINE
  5
1F694
330
747D
100
AcDbEntity
  8
部品1
 62
     7
 48
50.0
100
AcDbLine
 10
10819.51512700763
 20
7350.106764573617
 30
0.0
 11
10819.51512700763
 21
7350.106764573617
 31
0.0
  0
LINE
  5
1F695
330
747D
100
AcDbEntity
  8
部品1
 62
     7
 48
50.0
100
AcDbLine
 10
10795.70262700763
 20
7350.106764573617
 30
0.0
 11
10795.70262700763
 21
7350.106764573617
 31
0.0
  0
LINE
  5
1F696
330
747D
100
AcDbEntity
  8
部品1
 62
     7
 48
50.0
100
AcDbLine
 10
10950.48387700763
 20
7373.919264573617
 30
0.0
 11
10950.48387700763
 21
7373.919264573617
 31
0.0
  0
LINE
  5
1F697
330
747D
100
AcDbEntity
  8
部品1
 62
     7
 48
50.0
100
AcDbLine
 10
10926.67137700763
 20
7373.919264573617
 30
0.0
 11
10926.67137700763
 21
7373.919264573617
 31
0.0
  0
LINE
  5
1F698
330
747D
100
AcDbEntity
  8
部品1
 62
     7
 48
50.0
100
AcDbLine
 10
10902.85887700763
 20
7373.919264573617
 30
0.0
 11
10902.85887700763
 21
7373.919264573617
 31
0.0
  0
LINE
  5
1F699
330
747D
100
AcDbEntity
  8
部品1
 62
     7
 48
50.0
100
AcDbLine
 10
10879.04637700763
 20
7373.919264573617
 30
0.0
 11
10879.04637700763
 21
7373.919264573617
 31
0.0
  0
LINE
  5
1F69A
330
747D
100
AcDbEntity
  8
部品1
 62
     7
 48
50.0
100
AcDbLine
 10
10855.23387700763
 20
7373.919264573617
 30
0.0
 11
10855.23387700763
 21
7373.919264573617
 31
0.0
  0
LINE
  5
1F69B
330
747D
100
AcDbEntity
  8
部品1
 62
     7
 48
50.0
100
AcDbLine
 10
10831.42137700763
 20
7373.919264573617
 30
0.0
 11
10831.42137700763
 21
7373.919264573617
 31
0.0
  0
LINE
  5
1F69C
330
747D
100
AcDbEntity
  8
部品1
 62
     7
 48
50.0
100
AcDbLine
 10
10807.60887700763
 20
7373.919264573617
 30
0.0
 11
10807.60887700763
 21
7373.919264573617
 31
0.0
  0
LINE
  5
1F69D
330
747D
100
AcDbEntity
  8
部品1
 62
     7
 48
50.0
100
AcDbLine
 10
10783.79637700763
 20
7373.919264573617
 30
0.0
 11
10783.79637700763
 21
7373.919264573617
 31
0.0
  0
LINE
  5
1F69E
330
747D
100
AcDbEntity
  8
細線
 62
     7
 48
10.0
100
AcDbLine
 10
10973.49999999998
 20
6995.955177899422
 30
0.0
 11
10973.49999999998
 21
7395.955177899423
 31
0.0
  0
LINE
  5
1F69F
330
747D
100
AcDbEntity
  8
部品1
 62
     7
 48
50.0
100
AcDbLine
 10
11310.49999999999
 20
7353.955177899422
 30
0.0
 11
11310.49999999999
 21
7153.955177899423
 31
0.0
  0
DIMENSION
  5
1F6A0
330
747D
100
AcDbEntity
  8
寸法
 62
     7
 48
50.0
100
AcDbDimension
  2
*D17
 10
11565.5
 20
5464.955177899422
 30
0.0
 11
11857.94094488189
 21
5464.955177899422
 31
0.0
 70
   160
  1
(<>)
 71
     5
 42
55.00000000001818
  3
INABA_S50G
100
AcDbAlignedDimension
 13
11510.49999999999
 23
6254.955177899423
 33
0.0
 14
11565.5
 24
6264.955177899423
 34
0.0
100
AcDbRotatedDimension
  0
DIMENSION
  5
1F6A1
330
747D
100
AcDbEntity
  8
寸法
 62
     7
 48
50.0
100
AcDbDimension
  2
*D18
 10
12715.50000000001
 20
6264.955177899423
 30
0.0
 11
12715.5
 21
5935.014233017533
 31
0.0
 70
   160
  1
(<>)
 71
     5
 42
135.0
  3
INABA_S50G
100
AcDbAlignedDimension
 13
11655.49999999998
 23
6399.955177899423
 33
0.0
 14
11565.5
 24
6264.955177899423
 34
0.0
 50
90.0
100
AcDbRotatedDimension
  0
DIMENSION
  5
1F6A2
330
747D
100
AcDbEntity
  8
寸法
 62
     7
 48
50.0
100
AcDbDimension
  2
*D19
 10
12365.49999999998
 20
6399.955177899423
 30
0.0
 11
12265.49999999998
 21
6826.955177899424
 31
0.0
 70
    32
 71
     5
 42
853.999999999999
  3
INABA_S50G
100
AcDbAlignedDimension
 13
11510.49999999999
 23
7253.955177899422
 33
0.0
 14
11766.51782778972
 24
6399.955177899423
 34
0.0
 50
90.0
100
AcDbRotatedDimension
1001
ACAD
1000
DSTYLE
1002
{
1070
   287
1070
     4
1070
    75
1070
     1
1070
   279
1070
     1
1002
}
  0
LINE
  5
1F6A3
330
747D
100
AcDbEntity
  8
センター
 62
     7
 48
5.0
100
AcDbLine
 10
11510.49999999999
 20
6544.955177899423
 30
0.0
 11
11510.49999999999
 21
6254.955177899423
 31
0.0
  0
LINE
  5
1F6A4
330
747D
100
AcDbEntity
  8
部品1
 62
     7
 48
50.0
100
AcDbLine
 10
11510.49999999999
 20
6399.955177899423
 30
0.0
 11
11510.49999999999
 21
6599.955177899421
 31
0.0
  0
LINE
  5
1F6A5
330
747D
100
AcDbEntity
  8
点線
 62
     7
 48
10.0
100
AcDbLine
 10
11410.49999999999
 20
6299.955177899421
 30
0.0
 11
11610.49999999999
 21
6299.955177899421
 31
0.0
  0
LINE
  5
1F6A6
330
747D
100
AcDbEntity
  8
点線
 62
     7
 48
10.0
100
AcDbLine
 10
11410.49999999999
 20
6499.955177899423
 30
0.0
 11
11610.49999999999
 21
6499.955177899423
 31
0.0
  0
LINE
  5
1F6A7
330
747D
100
AcDbEntity
  8
点線
 62
     7
 48
10.0
100
AcDbLine
 10
11410.49999999999
 20
6299.955177899421
 30
0.0
 11
11410.49999999999
 21
6499.955177899423
 31
0.0
  0
LINE
  5
1F6A8
330
747D
100
AcDbEntity
  8
点線
 62
     7
 48
10.0
100
AcDbLine
 10
11610.49999999999
 20
6299.955177899421
 30
0.0
 11
11610.49999999999
 21
6499.955177899423
 31
0.0
  0
LINE
  5
1F6A9
330
747D
100
AcDbEntity
  8
部品1
 62
     7
 48
50.0
100
AcDbLine
 10
11510.49999999999
 20
7153.955177899423
 30
0.0
 11
11510.49999999999
 21
7353.955177899422
 31
0.0
  0
LINE
  5
1F6AA
330
747D
100
AcDbEntity
  8
部品1
 62
     7
 48
50.0
100
AcDbLine
 10
11510.49999999999
 20
8107.955177899423
 30
0.0
 11
11310.49999999999
 21
8107.955177899423
 31
0.0
  0
LINE
  5
1F6AB
330
747D
100
AcDbEntity
  8
部品1
 62
     7
 48
50.0
100
AcDbLine
 10
11310.49999999999
 20
7907.955177899423
 30
0.0
 11
11510.49999999999
 21
7907.955177899423
 31
0.0
  0
LINE
  5
1F6AC
330
747D
100
AcDbEntity
  8
部品1
 62
     7
 48
50.0
100
AcDbLine
 10
11510.49999999999
 20
8861.955177899423
 30
0.0
 11
11110.49999999998
 21
8861.955177899423
 31
0.0
  0
LINE
  5
1F6AD
330
747D
100
AcDbEntity
  8
部品1
 62
     7
 48
50.0
100
AcDbLine
 10
11510.49999999999
 20
8661.955177899423
 30
0.0
 11
11110.49999999998
 21
8661.955177899423
 31
0.0
  0
LINE
  5
1F6AE
330
747D
100
AcDbEntity
  8
センター
 62
     7
 48
5.0
100
AcDbLine
 10
11655.49999999998
 20
8861.955177899423
 30
0.0
 11
11365.5
 21
8861.955177899423
 31
0.0
  0
MTEXT
  5
1F6AF
102
{ACAD_REACTORS
330
1F6B0
102
}
330
747D
100
AcDbEntity
  8
部品1
 62
     7
 48
50.0
100
AcDbMText
 10
11484.15206936181
 20
9258.728998074664
 30
0.0
 40
150.0
 41
0.0
 71
     6
 72
     5
  1
\A1;屋根の外寸
  7
STYLE1
 73
     1
 44
1.0
1001
ACAD
1000
MTEXTBEGIN
1070
    73
1070
     1
1070
    44
1040
1.0
1070
    74
1070
     0
1000
MTEXTEND
  0
LEADER
  5
1F6B0
330
747D
100
AcDbEntity
  8
寸法
 62
     7
 48
50.0
100
AcDbLeader
  3
INABA_S50G
 73
     0
 74
     0
 75
     1
 40
150.0
 41
840.0
 76
     3
 10
10279.49999999999
 20
8956.955177899422
 30
0.0
 10
10494.15206936181
 20
9158.728998074662
 30
0.0
 10
10619.15206936181
 20
9158.728998074662
 30
0.0
340
1F6AF
1001
ACAD
1000
DSTYLE
1002
{
1070
     6
1000

1070
    40
1040
1.0
1070
   341
1005
0
1070
   343
1005
0
1070
   344
1005
0
1002
}
1000
LEANOF
1010
0.0
1020
0.0
1030
0.0
  0
LINE
  5
1F6B1
330
747D
100
AcDbEntity
  8
想像線
 62
     7
 48
20.0
100
AcDbLine
 10
11565.5
 20
8956.955177899422
 30
0.0
 11
8993.499999999988
 21
8956.955177899422
 31
0.0
  0
MTEXT
  5
1F6B2
102
{ACAD_REACTORS
330
1F6BC
102
}
330
747D
100
AcDbEntity
  8
細線
 62
     7
 48
50.0
100
AcDbMText
 10
9678.057947897
 20
9683.481252862234
 30
0.0
 40
150.0
 41
0.0
 71
     4
 72
     5
  1
\A1;組立後\P現場打コンクリート
  7
STYLE1
 73
     1
 44
1.0
1001
ACAD
1000
MTEXTBEGIN
1070
    73
1070
     1
1070
    44
1040
1.0
1070
    74
1070
     0
1000
MTEXTEND
  0
LINE
  5
1F6B3
330
747D
100
AcDbEntity
  8
細線
 62
     7
 48
10.0
100
AcDbLine
 10
9585.500000000008
 20
8400.955177899424
 30
0.0
 11
9785.500000000009
 21
8400.955177899424
 31
0.0
  0
LINE
  5
1F6B4
330
747D
100
AcDbEntity
  8
細線
 62
     7
 48
10.0
100
AcDbLine
 10
9785.500000000009
 20
8600.955177899423
 30
0.0
 11
9585.500000000008
 21
8600.955177899423
 31
0.0
  0
LINE
  5
1F6B5
330
747D
100
AcDbEntity
  8
センター
 62
     7
 48
5.0
100
AcDbLine
 10
9830.500000000009
 20
8500.955177899426
 30
0.0
 11
9540.500000000008
 21
8500.955177899426
 31
0.0
  0
LINE
  5
1F6B6
330
747D
100
AcDbEntity
  8
細線
 62
     7
 48
10.0
100
AcDbLine
 10
9785.500000000009
 20
8265.955177899423
 30
0.0
 11
9585.500000000008
 21
8265.955177899423
 31
0.0
  0
LINE
  5
1F6B7
330
747D
100
AcDbEntity
  8
センター
 62
     7
 48
5.0
100
AcDbLine
 10
9540.500000000008
 20
8065.955177899423
 30
0.0
 11
9830.500000000009
 21
8065.955177899423
 31
0.0
  0
LINE
  5
1F6B8
330
747D
100
AcDbEntity
  8
細線
 62
     7
 48
10.0
100
AcDbLine
 10
9585.500000000008
 20
7865.955177899422
 30
0.0
 11
9785.500000000009
 21
7865.955177899422
 31
0.0
  0
LINE
  5
1F6B9
330
747D
100
AcDbEntity
  8
センター
 62
     7
 48
5.0
100
AcDbLine
 10
9830.500000000009
 20
7630.955177899423
 30
0.0
 11
9540.500000000008
 21
7630.955177899423
 31
0.0
  0
LINE
  5
1F6BA
330
747D
100
AcDbEntity
  8
細線
 62
     7
 48
10.0
100
AcDbLine
 10
9585.500000000008
 20
7730.955177899423
 30
0.0
 11
9785.500000000009
 21
7730.955177899423
 31
0.0
  0
LINE
  5
1F6BB
330
747D
100
AcDbEntity
  8
細線
 62
     7
 48
10.0
100
AcDbLine
 10
9785.500000000009
 20
7530.955177899423
 30
0.0
 11
9585.500000000008
 21
7530.955177899423
 31
0.0
  0
LEADER
  5
1F6BC
330
747D
100
AcDbEntity
  8
寸法
 62
     7
 48
50.0
100
AcDbLeader
  3
INABA_S50G
 71
     0
 73
     0
 74
     0
 75
     1
 40
400.0
 41
1602.936553006147
 76
     3
 10
9098.554223318741
 20
8911.966894634234
 30
0.0
 10
9528.057947897
 20
9458.481252862233
 30
0.0
 10
9653.057947897
 20
9458.481252862233
 30
0.0
340
1F6B2
1001
ACAD
1000
DSTYLE
1002
{
1070
     6
1000
DOTSMALL
1002
}
1000
LEANOF
1010
0.0
1020
0.0
1030
0.0
  0
DIMENSION
  5
1F6BD
330
747D
100
AcDbEntity
  8
寸法
 62
     7
 48
50.0
100
AcDbDimension
  2
*D20
 10
8293.499999999989
 20
8500.955177899426
 30
0.0
 11
8193.499999999987
 21
8681.455177899424
 31
0.0
 70
    32
 71
     5
 42
361.0
  3
INABA_S50G
100
AcDbAlignedDimension
 13
8518.470472440947
 23
8861.955177899423
 33
0.0
 14
9540.500000000008
 24
8500.955177899426
 34
0.0
 50
90.0
100
AcDbRotatedDimension
  0
LINE
  5
1F6BE
330
747D
100
AcDbEntity
  8
細線
 62
     7
 48
10.0
100
AcDbLine
 10
9585.500000000008
 20
8600.955177899423
 30
0.0
 11
9585.500000000008
 21
8400.955177899424
 31
0.0
  0
LINE
  5
1F6BF
330
747D
100
AcDbEntity
  8
センター
 62
     7
 48
5.0
100
AcDbLine
 10
9685.500000000009
 20
8355.955177899422
 30
0.0
 11
9685.500000000009
 21
8645.955177899422
 31
0.0
  0
DIMENSION
  5
1F6C0
330
747D
100
AcDbEntity
  8
寸法
 62
     7
 48
50.0
100
AcDbDimension
  2
*D21
 10
8293.499999999989
 20
7630.955177899423
 30
0.0
 11
8193.499999999987
 21
7848.455177899424
 31
0.0
 70
    32
 71
     5
 42
435.0
  3
INABA_S50G
100
AcDbAlignedDimension
 13
9540.500000000008
 23
8065.955177899423
 33
0.0
 14
9540.500000000008
 24
7630.955177899423
 34
0.0
 50
90.0
100
AcDbRotatedDimension
1001
ACAD
1000
DSTYLE
1002
{
1070
   287
1070
     4
1070
    75
1070
     1
1070
   279
1070
     1
1002
}
  0
DIMENSION
  5
1F6C1
330
747D
100
AcDbEntity
  8
寸法
 62
     7
 48
50.0
100
AcDbDimension
  2
*D22
 10
8293.499999999989
 20
8065.955177899423
 30
0.0
 11
8193.499999999987
 21
8283.455177899424
 31
0.0
 70
    32
 71
     5
 42
435.0
  3
INABA_S50G
100
AcDbAlignedDimension
 13
9540.500000000008
 23
8500.955177899426
 33
0.0
 14
9540.500000000008
 24
8065.955177899423
 34
0.0
 50
90.0
100
AcDbRotatedDimension
1001
ACAD
1000
DSTYLE
1002
{
1070
   287
1070
     4
1070
    75
1070
     1
1070
   279
1070
     1
1002
}
  0
LINE
  5
1F6C2
330
747D
100
AcDbEntity
  8
部品1
 62
     7
 48
50.0
100
AcDbLine
 10
9248.50000000001
 20
8107.955177899423
 30
0.0
 11
9248.50000000001
 21
7907.955177899423
 31
0.0
  0
LINE
  5
1F6C3
330
747D
100
AcDbEntity
  8
部品1
 62
     7
 48
50.0
100
AcDbLine
 10
9048.499999999988
 20
7907.955177899423
 30
0.0
 11
9048.499999999988
 21
8107.955177899423
 31
0.0
  0
LINE
  5
1F6C4
330
747D
100
AcDbEntity
  8
細線
 62
     7
 48
10.0
100
AcDbLine
 10
9585.500000000008
 20
8265.955177899423
 30
0.0
 11
9585.500000000008
 21
7865.955177899422
 31
0.0
  0
LINE
  5
1F6C5
330
747D
100
AcDbEntity
  8
センター
 62
     7
 48
5.0
100
AcDbLine
 10
9685.500000000009
 20
7920.955177899422
 30
0.0
 11
9685.500000000009
 21
8210.955177899423
 31
0.0
  0
LINE
  5
1F6C6
330
747D
100
AcDbEntity
  8
部品1
 62
     7
 48
50.0
100
AcDbLine
 10
9248.50000000001
 20
7907.955177899423
 30
0.0
 11
9048.499999999988
 21
7907.955177899423
 31
0.0
  0
LINE
  5
1F6C7
330
747D
100
AcDbEntity
  8
センター
 62
     7
 48
5.0
100
AcDbLine
 10
9685.500000000009
 20
7775.955177899423
 30
0.0
 11
9685.500000000009
 21
7485.955177899423
 31
0.0
  0
LINE
  5
1F6C8
330
747D
100
AcDbEntity
  8
細線
 62
     7
 48
10.0
100
AcDbLine
 10
9585.500000000008
 20
7530.955177899423
 30
0.0
 11
9585.500000000008
 21
7730.955177899423
 31
0.0
  0
LINE
  5
1F6C9
330
747D
100
AcDbEntity
  8
部品1
 62
     7
 48
50.0
100
AcDbLine
 10
9724.140127007638
 20
7540.606764573614
 30
0.0
 11
9724.140127007638
 21
7540.606764573614
 31
0.0
  0
LINE
  5
1F6CA
330
747D
100
AcDbEntity
  8
部品1
 62
     7
 48
50.0
100
AcDbLine
 10
9700.327627007638
 20
7540.606764573614
 30
0.0
 11
9700.327627007638
 21
7540.606764573614
 31
0.0
  0
LINE
  5
1F6CB
330
747D
100
AcDbEntity
  8
部品1
 62
     7
 48
50.0
100
AcDbLine
 10
9676.51512700764
 20
7540.606764573614
 30
0.0
 11
9676.51512700764
 21
7540.606764573614
 31
0.0
  0
LINE
  5
1F6CC
330
747D
100
AcDbEntity
  8
部品1
 62
     7
 48
50.0
100
AcDbLine
 10
9652.702627007641
 20
7540.606764573614
 30
0.0
 11
9652.702627007641
 21
7540.606764573614
 31
0.0
  0
LINE
  5
1F6CD
330
747D
100
AcDbEntity
  8
部品1
 62
     7
 48
50.0
100
AcDbLine
 10
9628.890127007641
 20
7540.606764573614
 30
0.0
 11
9628.890127007641
 21
7540.606764573614
 31
0.0
  0
LINE
  5
1F6CE
330
747D
100
AcDbEntity
  8
部品1
 62
     7
 48
50.0
100
AcDbLine
 10
9605.077627007638
 20
7540.606764573614
 30
0.0
 11
9605.077627007638
 21
7540.606764573614
 31
0.0
  0
LINE
  5
1F6CF
330
747D
100
AcDbEntity
  8
部品1
 62
     7
 48
50.0
100
AcDbLine
 10
9712.233877007641
 20
7564.419264573615
 30
0.0
 11
9712.233877007641
 21
7564.419264573615
 31
0.0
  0
LINE
  5
1F6D0
330
747D
100
AcDbEntity
  8
部品1
 62
     7
 48
50.0
100
AcDbLine
 10
9688.421377007641
 20
7564.419264573615
 30
0.0
 11
9688.421377007641
 21
7564.419264573615
 31
0.0
  0
LINE
  5
1F6D1
330
747D
100
AcDbEntity
  8
部品1
 62
     7
 48
50.0
100
AcDbLine
 10
9664.608877007641
 20
7564.419264573615
 30
0.0
 11
9664.608877007641
 21
7564.419264573615
 31
0.0
  0
LINE
  5
1F6D2
330
747D
100
AcDbEntity
  8
部品1
 62
     7
 48
50.0
100
AcDbLine
 10
9640.796377007641
 20
7564.419264573615
 30
0.0
 11
9640.796377007641
 21
7564.419264573615
 31
0.0
  0
LINE
  5
1F6D3
330
747D
100
AcDbEntity
  8
部品1
 62
     7
 48
50.0
100
AcDbLine
 10
9616.983877007641
 20
7564.419264573615
 30
0.0
 11
9616.983877007641
 21
7564.419264573615
 31
0.0
  0
LINE
  5
1F6D4
330
747D
100
AcDbEntity
  8
部品1
 62
     7
 48
50.0
100
AcDbLine
 10
9593.17137700764
 20
7564.419264573615
 30
0.0
 11
9593.17137700764
 21
7564.419264573615
 31
0.0
  0
LINE
  5
1F6D5
330
747D
100
AcDbEntity
  8
部品1
 62
     7
 48
50.0
100
AcDbLine
 10
9724.140127007638
 20
7588.231764573617
 30
0.0
 11
9724.140127007638
 21
7588.231764573617
 31
0.0
  0
LINE
  5
1F6D6
330
747D
100
AcDbEntity
  8
部品1
 62
     7
 48
50.0
100
AcDbLine
 10
9700.327627007638
 20
7588.231764573617
 30
0.0
 11
9700.327627007638
 21
7588.231764573617
 31
0.0
  0
LINE
  5
1F6D7
330
747D
100
AcDbEntity
  8
部品1
 62
     7
 48
50.0
100
AcDbLine
 10
9676.51512700764
 20
7588.231764573617
 30
0.0
 11
9676.51512700764
 21
7588.231764573617
 31
0.0
  0
LINE
  5
1F6D8
330
747D
100
AcDbEntity
  8
部品1
 62
     7
 48
50.0
100
AcDbLine
 10
9652.702627007641
 20
7588.231764573617
 30
0.0
 11
9652.702627007641
 21
7588.231764573617
 31
0.0
  0
LINE
  5
1F6D9
330
747D
100
AcDbEntity
  8
部品1
 62
     7
 48
50.0
100
AcDbLine
 10
9628.890127007641
 20
7588.231764573617
 30
0.0
 11
9628.890127007641
 21
7588.231764573617
 31
0.0
  0
LINE
  5
1F6DA
330
747D
100
AcDbEntity
  8
部品1
 62
     7
 48
50.0
100
AcDbLine
 10
9605.077627007638
 20
7588.231764573617
 30
0.0
 11
9605.077627007638
 21
7588.231764573617
 31
0.0
  0
LINE
  5
1F6DB
330
747D
100
AcDbEntity
  8
部品1
 62
     7
 48
50.0
100
AcDbLine
 10
9712.233877007641
 20
7612.044264573616
 30
0.0
 11
9712.233877007641
 21
7612.044264573616
 31
0.0
  0
LINE
  5
1F6DC
330
747D
100
AcDbEntity
  8
部品1
 62
     7
 48
50.0
100
AcDbLine
 10
9688.421377007641
 20
7612.044264573616
 30
0.0
 11
9688.421377007641
 21
7612.044264573616
 31
0.0
  0
LINE
  5
1F6DD
330
747D
100
AcDbEntity
  8
部品1
 62
     7
 48
50.0
100
AcDbLine
 10
9664.608877007641
 20
7612.044264573616
 30
0.0
 11
9664.608877007641
 21
7612.044264573616
 31
0.0
  0
LINE
  5
1F6DE
330
747D
100
AcDbEntity
  8
部品1
 62
     7
 48
50.0
100
AcDbLine
 10
9640.796377007641
 20
7612.044264573616
 30
0.0
 11
9640.796377007641
 21
7612.044264573616
 31
0.0
  0
LINE
  5
1F6DF
330
747D
100
AcDbEntity
  8
部品1
 62
     7
 48
50.0
100
AcDbLine
 10
9616.983877007641
 20
7612.044264573616
 30
0.0
 11
9616.983877007641
 21
7612.044264573616
 31
0.0
  0
LINE
  5
1F6E0
330
747D
100
AcDbEntity
  8
部品1
 62
     7
 48
50.0
100
AcDbLine
 10
9593.17137700764
 20
7612.044264573616
 30
0.0
 11
9593.17137700764
 21
7612.044264573616
 31
0.0
  0
LINE
  5
1F6E1
330
747D
100
AcDbEntity
  8
部品1
 62
     7
 48
50.0
100
AcDbLine
 10
9724.140127007638
 20
7635.856764573617
 30
0.0
 11
9724.140127007638
 21
7635.856764573617
 31
0.0
  0
LINE
  5
1F6E2
330
747D
100
AcDbEntity
  8
部品1
 62
     7
 48
50.0
100
AcDbLine
 10
9700.327627007638
 20
7635.856764573617
 30
0.0
 11
9700.327627007638
 21
7635.856764573617
 31
0.0
  0
LINE
  5
1F6E3
330
747D
100
AcDbEntity
  8
部品1
 62
     7
 48
50.0
100
AcDbLine
 10
9676.51512700764
 20
7635.856764573617
 30
0.0
 11
9676.51512700764
 21
7635.856764573617
 31
0.0
  0
LINE
  5
1F6E4
330
747D
100
AcDbEntity
  8
部品1
 62
     7
 48
50.0
100
AcDbLine
 10
9652.702627007641
 20
7635.856764573617
 30
0.0
 11
9652.702627007641
 21
7635.856764573617
 31
0.0
  0
LINE
  5
1F6E5
330
747D
100
AcDbEntity
  8
部品1
 62
     7
 48
50.0
100
AcDbLine
 10
9628.890127007641
 20
7635.856764573617
 30
0.0
 11
9628.890127007641
 21
7635.856764573617
 31
0.0
  0
LINE
  5
1F6E6
330
747D
100
AcDbEntity
  8
部品1
 62
     7
 48
50.0
100
AcDbLine
 10
9605.077627007638
 20
7635.856764573617
 30
0.0
 11
9605.077627007638
 21
7635.856764573617
 31
0.0
  0
LINE
  5
1F6E7
330
747D
100
AcDbEntity
  8
部品1
 62
     7
 48
50.0
100
AcDbLine
 10
9712.233877007641
 20
7659.669264573617
 30
0.0
 11
9712.233877007641
 21
7659.669264573617
 31
0.0
  0
LINE
  5
1F6E8
330
747D
100
AcDbEntity
  8
部品1
 62
     7
 48
50.0
100
AcDbLine
 10
9688.421377007641
 20
7659.669264573617
 30
0.0
 11
9688.421377007641
 21
7659.669264573617
 31
0.0
  0
LINE
  5
1F6E9
330
747D
100
AcDbEntity
  8
部品1
 62
     7
 48
50.0
100
AcDbLine
 10
9664.608877007641
 20
7659.669264573617
 30
0.0
 11
9664.608877007641
 21
7659.669264573617
 31
0.0
  0
LINE
  5
1F6EA
330
747D
100
AcDbEntity
  8
部品1
 62
     7
 48
50.0
100
AcDbLine
 10
9640.796377007641
 20
7659.669264573617
 30
0.0
 11
9640.796377007641
 21
7659.669264573617
 31
0.0
  0
LINE
  5
1F6EB
330
747D
100
AcDbEntity
  8
部品1
 62
     7
 48
50.0
100
AcDbLine
 10
9616.983877007641
 20
7659.669264573617
 30
0.0
 11
9616.983877007641
 21
7659.669264573617
 31
0.0
  0
LINE
  5
1F6EC
330
747D
100
AcDbEntity
  8
部品1
 62
     7
 48
50.0
100
AcDbLine
 10
9593.17137700764
 20
7659.669264573617
 30
0.0
 11
9593.17137700764
 21
7659.669264573617
 31
0.0
  0
LINE
  5
1F6ED
330
747D
100
AcDbEntity
  8
部品1
 62
     7
 48
50.0
100
AcDbLine
 10
9724.140127007638
 20
7683.481764573617
 30
0.0
 11
9724.140127007638
 21
7683.481764573617
 31
0.0
  0
LINE
  5
1F6EE
330
747D
100
AcDbEntity
  8
部品1
 62
     7
 48
50.0
100
AcDbLine
 10
9700.327627007638
 20
7683.481764573617
 30
0.0
 11
9700.327627007638
 21
7683.481764573617
 31
0.0
  0
LINE
  5
1F6EF
330
747D
100
AcDbEntity
  8
部品1
 62
     7
 48
50.0
100
AcDbLine
 10
9676.51512700764
 20
7683.481764573617
 30
0.0
 11
9676.51512700764
 21
7683.481764573617
 31
0.0
  0
LINE
  5
1F6F0
330
747D
100
AcDbEntity
  8
部品1
 62
     7
 48
50.0
100
AcDbLine
 10
9652.702627007641
 20
7683.481764573617
 30
0.0
 11
9652.702627007641
 21
7683.481764573617
 31
0.0
  0
LINE
  5
1F6F1
330
747D
100
AcDbEntity
  8
部品1
 62
     7
 48
50.0
100
AcDbLine
 10
9628.890127007641
 20
7683.481764573617
 30
0.0
 11
9628.890127007641
 21
7683.481764573617
 31
0.0
  0
LINE
  5
1F6F2
330
747D
100
AcDbEntity
  8
部品1
 62
     7
 48
50.0
100
AcDbLine
 10
9605.077627007638
 20
7683.481764573617
 30
0.0
 11
9605.077627007638
 21
7683.481764573617
 31
0.0
  0
LINE
  5
1F6F3
330
747D
100
AcDbEntity
  8
部品1
 62
     7
 48
50.0
100
AcDbLine
 10
9712.233877007641
 20
7707.294264573616
 30
0.0
 11
9712.233877007641
 21
7707.294264573616
 31
0.0
  0
LINE
  5
1F6F4
330
747D
100
AcDbEntity
  8
部品1
 62
     7
 48
50.0
100
AcDbLine
 10
9688.421377007641
 20
7707.294264573616
 30
0.0
 11
9688.421377007641
 21
7707.294264573616
 31
0.0
  0
LINE
  5
1F6F5
330
747D
100
AcDbEntity
  8
部品1
 62
     7
 48
50.0
100
AcDbLine
 10
9664.608877007641
 20
7707.294264573616
 30
0.0
 11
9664.608877007641
 21
7707.294264573616
 31
0.0
  0
LINE
  5
1F6F6
330
747D
100
AcDbEntity
  8
部品1
 62
     7
 48
50.0
100
AcDbLine
 10
9640.796377007641
 20
7707.294264573616
 30
0.0
 11
9640.796377007641
 21
7707.294264573616
 31
0.0
  0
LINE
  5
1F6F7
330
747D
100
AcDbEntity
  8
部品1
 62
     7
 48
50.0
100
AcDbLine
 10
9616.983877007641
 20
7707.294264573616
 30
0.0
 11
9616.983877007641
 21
7707.294264573616
 31
0.0
  0
LINE
  5
1F6F8
330
747D
100
AcDbEntity
  8
部品1
 62
     7
 48
50.0
100
AcDbLine
 10
9593.17137700764
 20
7707.294264573616
 30
0.0
 11
9593.17137700764
 21
7707.294264573616
 31
0.0
  0
LINE
  5
1F6F9
330
747D
100
AcDbEntity
  8
部品1
 62
     7
 48
50.0
100
AcDbLine
 10
9724.140127007638
 20
7873.981764573617
 30
0.0
 11
9724.140127007638
 21
7873.981764573617
 31
0.0
  0
LINE
  5
1F6FA
330
747D
100
AcDbEntity
  8
部品1
 62
     7
 48
50.0
100
AcDbLine
 10
9700.327627007638
 20
7873.981764573617
 30
0.0
 11
9700.327627007638
 21
7873.981764573617
 31
0.0
  0
LINE
  5
1F6FB
330
747D
100
AcDbEntity
  8
部品1
 62
     7
 48
50.0
100
AcDbLine
 10
9676.51512700764
 20
7873.981764573617
 30
0.0
 11
9676.51512700764
 21
7873.981764573617
 31
0.0
  0
LINE
  5
1F6FC
330
747D
100
AcDbEntity
  8
部品1
 62
     7
 48
50.0
100
AcDbLine
 10
9652.702627007641
 20
7873.981764573617
 30
0.0
 11
9652.702627007641
 21
7873.981764573617
 31
0.0
  0
LINE
  5
1F6FD
330
747D
100
AcDbEntity
  8
部品1
 62
     7
 48
50.0
100
AcDbLine
 10
9628.890127007641
 20
7873.981764573617
 30
0.0
 11
9628.890127007641
 21
7873.981764573617
 31
0.0
  0
LINE
  5
1F6FE
330
747D
100
AcDbEntity
  8
部品1
 62
     7
 48
50.0
100
AcDbLine
 10
9605.077627007638
 20
7873.981764573617
 30
0.0
 11
9605.077627007638
 21
7873.981764573617
 31
0.0
  0
LINE
  5
1F6FF
330
747D
100
AcDbEntity
  8
部品1
 62
     7
 48
50.0
100
AcDbLine
 10
9712.233877007641
 20
7897.794264573616
 30
0.0
 11
9712.233877007641
 21
7897.794264573616
 31
0.0
  0
LINE
  5
1F700
330
747D
100
AcDbEntity
  8
部品1
 62
     7
 48
50.0
100
AcDbLine
 10
9688.421377007641
 20
7897.794264573616
 30
0.0
 11
9688.421377007641
 21
7897.794264573616
 31
0.0
  0
LINE
  5
1F701
330
747D
100
AcDbEntity
  8
部品1
 62
     7
 48
50.0
100
AcDbLine
 10
9664.608877007641
 20
7897.794264573616
 30
0.0
 11
9664.608877007641
 21
7897.794264573616
 31
0.0
  0
LINE
  5
1F702
330
747D
100
AcDbEntity
  8
部品1
 62
     7
 48
50.0
100
AcDbLine
 10
9640.796377007641
 20
7897.794264573616
 30
0.0
 11
9640.796377007641
 21
7897.794264573616
 31
0.0
  0
LINE
  5
1F703
330
747D
100
AcDbEntity
  8
部品1
 62
     7
 48
50.0
100
AcDbLine
 10
9616.983877007641
 20
7897.794264573616
 30
0.0
 11
9616.983877007641
 21
7897.794264573616
 31
0.0
  0
LINE
  5
1F704
330
747D
100
AcDbEntity
  8
部品1
 62
     7
 48
50.0
100
AcDbLine
 10
9593.17137700764
 20
7897.794264573616
 30
0.0
 11
9593.17137700764
 21
7897.794264573616
 31
0.0
  0
LINE
  5
1F705
330
747D
100
AcDbEntity
  8
部品1
 62
     7
 48
50.0
100
AcDbLine
 10
9724.140127007638
 20
7921.606764573617
 30
0.0
 11
9724.140127007638
 21
7921.606764573617
 31
0.0
  0
LINE
  5
1F706
330
747D
100
AcDbEntity
  8
部品1
 62
     7
 48
50.0
100
AcDbLine
 10
9700.327627007638
 20
7921.606764573617
 30
0.0
 11
9700.327627007638
 21
7921.606764573617
 31
0.0
  0
LINE
  5
1F707
330
747D
100
AcDbEntity
  8
部品1
 62
     7
 48
50.0
100
AcDbLine
 10
9676.51512700764
 20
7921.606764573617
 30
0.0
 11
9676.51512700764
 21
7921.606764573617
 31
0.0
  0
LINE
  5
1F708
330
747D
100
AcDbEntity
  8
部品1
 62
     7
 48
50.0
100
AcDbLine
 10
9652.702627007641
 20
7921.606764573617
 30
0.0
 11
9652.702627007641
 21
7921.606764573617
 31
0.0
  0
LINE
  5
1F709
330
747D
100
AcDbEntity
  8
部品1
 62
     7
 48
50.0
100
AcDbLine
 10
9628.890127007641
 20
7921.606764573617
 30
0.0
 11
9628.890127007641
 21
7921.606764573617
 31
0.0
  0
LINE
  5
1F70A
330
747D
100
AcDbEntity
  8
部品1
 62
     7
 48
50.0
100
AcDbLine
 10
9605.077627007638
 20
7921.606764573617
 30
0.0
 11
9605.077627007638
 21
7921.606764573617
 31
0.0
  0
LINE
  5
1F70B
330
747D
100
AcDbEntity
  8
部品1
 62
     7
 48
50.0
100
AcDbLine
 10
9712.233877007641
 20
7945.419264573617
 30
0.0
 11
9712.233877007641
 21
7945.419264573617
 31
0.0
  0
LINE
  5
1F70C
330
747D
100
AcDbEntity
  8
部品1
 62
     7
 48
50.0
100
AcDbLine
 10
9688.421377007641
 20
7945.419264573617
 30
0.0
 11
9688.421377007641
 21
7945.419264573617
 31
0.0
  0
LINE
  5
1F70D
330
747D
100
AcDbEntity
  8
部品1
 62
     7
 48
50.0
100
AcDbLine
 10
9664.608877007641
 20
7945.419264573617
 30
0.0
 11
9664.608877007641
 21
7945.419264573617
 31
0.0
  0
LINE
  5
1F70E
330
747D
100
AcDbEntity
  8
部品1
 62
     7
 48
50.0
100
AcDbLine
 10
9640.796377007641
 20
7945.419264573617
 30
0.0
 11
9640.796377007641
 21
7945.419264573617
 31
0.0
  0
LINE
  5
1F70F
330
747D
100
AcDbEntity
  8
部品1
 62
     7
 48
50.0
100
AcDbLine
 10
9616.983877007641
 20
7945.419264573617
 30
0.0
 11
9616.983877007641
 21
7945.419264573617
 31
0.0
  0
LINE
  5
1F710
330
747D
100
AcDbEntity
  8
部品1
 62
     7
 48
50.0
100
AcDbLine
 10
9593.17137700764
 20
7945.419264573617
 30
0.0
 11
9593.17137700764
 21
7945.419264573617
 31
0.0
  0
LINE
  5
1F711
330
747D
100
AcDbEntity
  8
部品1
 62
     7
 48
50.0
100
AcDbLine
 10
9724.140127007638
 20
7969.231764573617
 30
0.0
 11
9724.140127007638
 21
7969.231764573617
 31
0.0
  0
LINE
  5
1F712
330
747D
100
AcDbEntity
  8
部品1
 62
     7
 48
50.0
100
AcDbLine
 10
9700.327627007638
 20
7969.231764573617
 30
0.0
 11
9700.327627007638
 21
7969.231764573617
 31
0.0
  0
LINE
  5
1F713
330
747D
100
AcDbEntity
  8
部品1
 62
     7
 48
50.0
100
AcDbLine
 10
9676.51512700764
 20
7969.231764573617
 30
0.0
 11
9676.51512700764
 21
7969.231764573617
 31
0.0
  0
LINE
  5
1F714
330
747D
100
AcDbEntity
  8
部品1
 62
     7
 48
50.0
100
AcDbLine
 10
9652.702627007641
 20
7969.231764573617
 30
0.0
 11
9652.702627007641
 21
7969.231764573617
 31
0.0
  0
LINE
  5
1F715
330
747D
100
AcDbEntity
  8
部品1
 62
     7
 48
50.0
100
AcDbLine
 10
9628.890127007641
 20
7969.231764573617
 30
0.0
 11
9628.890127007641
 21
7969.231764573617
 31
0.0
  0
LINE
  5
1F716
330
747D
100
AcDbEntity
  8
部品1
 62
     7
 48
50.0
100
AcDbLine
 10
9605.077627007638
 20
7969.231764573617
 30
0.0
 11
9605.077627007638
 21
7969.231764573617
 31
0.0
  0
LINE
  5
1F717
330
747D
100
AcDbEntity
  8
部品1
 62
     7
 48
50.0
100
AcDbLine
 10
9048.499999999988
 20
8107.955177899423
 30
0.0
 11
9248.50000000001
 21
8107.955177899423
 31
0.0
  0
LINE
  5
1F718
330
747D
100
AcDbEntity
  8
部品1
 62
     7
 48
50.0
100
AcDbLine
 10
9712.233877007641
 20
7993.044264573616
 30
0.0
 11
9712.233877007641
 21
7993.044264573616
 31
0.0
  0
LINE
  5
1F719
330
747D
100
AcDbEntity
  8
部品1
 62
     7
 48
50.0
100
AcDbLine
 10
9688.421377007641
 20
7993.044264573616
 30
0.0
 11
9688.421377007641
 21
7993.044264573616
 31
0.0
  0
LINE
  5
1F71A
330
747D
100
AcDbEntity
  8
部品1
 62
     7
 48
50.0
100
AcDbLine
 10
9664.608877007641
 20
7993.044264573616
 30
0.0
 11
9664.608877007641
 21
7993.044264573616
 31
0.0
  0
LINE
  5
1F71B
330
747D
100
AcDbEntity
  8
部品1
 62
     7
 48
50.0
100
AcDbLine
 10
9640.796377007641
 20
7993.044264573616
 30
0.0
 11
9640.796377007641
 21
7993.044264573616
 31
0.0
  0
LINE
  5
1F71C
330
747D
100
AcDbEntity
  8
部品1
 62
     7
 48
50.0
100
AcDbLine
 10
9616.983877007641
 20
7993.044264573616
 30
0.0
 11
9616.983877007641
 21
7993.044264573616
 31
0.0
  0
LINE
  5
1F71D
330
747D
100
AcDbEntity
  8
部品1
 62
     7
 48
50.0
100
AcDbLine
 10
9593.17137700764
 20
7993.044264573616
 30
0.0
 11
9593.17137700764
 21
7993.044264573616
 31
0.0
  0
LINE
  5
1F71E
330
747D
100
AcDbEntity
  8
部品1
 62
     7
 48
50.0
100
AcDbLine
 10
9724.140127007638
 20
8016.856764573615
 30
0.0
 11
9724.140127007638
 21
8016.856764573615
 31
0.0
  0
LINE
  5
1F71F
330
747D
100
AcDbEntity
  8
部品1
 62
     7
 48
50.0
100
AcDbLine
 10
9700.327627007638
 20
8016.856764573615
 30
0.0
 11
9700.327627007638
 21
8016.856764573615
 31
0.0
  0
LINE
  5
1F720
330
747D
100
AcDbEntity
  8
部品1
 62
     7
 48
50.0
100
AcDbLine
 10
9676.51512700764
 20
8016.856764573615
 30
0.0
 11
9676.51512700764
 21
8016.856764573615
 31
0.0
  0
LINE
  5
1F721
330
747D
100
AcDbEntity
  8
部品1
 62
     7
 48
50.0
100
AcDbLine
 10
9652.702627007641
 20
8016.856764573615
 30
0.0
 11
9652.702627007641
 21
8016.856764573615
 31
0.0
  0
LINE
  5
1F722
330
747D
100
AcDbEntity
  8
部品1
 62
     7
 48
50.0
100
AcDbLine
 10
9628.890127007641
 20
8016.856764573615
 30
0.0
 11
9628.890127007641
 21
8016.856764573615
 31
0.0
  0
LINE
  5
1F723
330
747D
100
AcDbEntity
  8
部品1
 62
     7
 48
50.0
100
AcDbLine
 10
9605.077627007638
 20
8016.856764573615
 30
0.0
 11
9605.077627007638
 21
8016.856764573615
 31
0.0
  0
LINE
  5
1F724
330
747D
100
AcDbEntity
  8
部品1
 62
     7
 48
50.0
100
AcDbLine
 10
9712.233877007641
 20
8040.669264573617
 30
0.0
 11
9712.233877007641
 21
8040.669264573617
 31
0.0
  0
LINE
  5
1F725
330
747D
100
AcDbEntity
  8
部品1
 62
     7
 48
50.0
100
AcDbLine
 10
9688.421377007641
 20
8040.669264573617
 30
0.0
 11
9688.421377007641
 21
8040.669264573617
 31
0.0
  0
LINE
  5
1F726
330
747D
100
AcDbEntity
  8
部品1
 62
     7
 48
50.0
100
AcDbLine
 10
9664.608877007641
 20
8040.669264573617
 30
0.0
 11
9664.608877007641
 21
8040.669264573617
 31
0.0
  0
LINE
  5
1F727
330
747D
100
AcDbEntity
  8
部品1
 62
     7
 48
50.0
100
AcDbLine
 10
9640.796377007641
 20
8040.669264573617
 30
0.0
 11
9640.796377007641
 21
8040.669264573617
 31
0.0
  0
LINE
  5
1F728
330
747D
100
AcDbEntity
  8
部品1
 62
     7
 48
50.0
100
AcDbLine
 10
9616.983877007641
 20
8040.669264573617
 30
0.0
 11
9616.983877007641
 21
8040.669264573617
 31
0.0
  0
LINE
  5
1F729
330
747D
100
AcDbEntity
  8
部品1
 62
     7
 48
50.0
100
AcDbLine
 10
9593.17137700764
 20
8040.669264573617
 30
0.0
 11
9593.17137700764
 21
8040.669264573617
 31
0.0
  0
LINE
  5
1F72A
330
747D
100
AcDbEntity
  8
部品1
 62
     7
 48
50.0
100
AcDbLine
 10
9724.140127007638
 20
8064.481764573617
 30
0.0
 11
9724.140127007638
 21
8064.481764573617
 31
0.0
  0
LINE
  5
1F72B
330
747D
100
AcDbEntity
  8
部品1
 62
     7
 48
50.0
100
AcDbLine
 10
9700.327627007638
 20
8064.481764573617
 30
0.0
 11
9700.327627007638
 21
8064.481764573617
 31
0.0
  0
LINE
  5
1F72C
330
747D
100
AcDbEntity
  8
部品1
 62
     7
 48
50.0
100
AcDbLine
 10
9676.51512700764
 20
8064.481764573617
 30
0.0
 11
9676.51512700764
 21
8064.481764573617
 31
0.0
  0
LINE
  5
1F72D
330
747D
100
AcDbEntity
  8
部品1
 62
     7
 48
50.0
100
AcDbLine
 10
9652.702627007641
 20
8064.481764573617
 30
0.0
 11
9652.702627007641
 21
8064.481764573617
 31
0.0
  0
LINE
  5
1F72E
330
747D
100
AcDbEntity
  8
部品1
 62
     7
 48
50.0
100
AcDbLine
 10
9628.890127007641
 20
8064.481764573617
 30
0.0
 11
9628.890127007641
 21
8064.481764573617
 31
0.0
  0
LINE
  5
1F72F
330
747D
100
AcDbEntity
  8
部品1
 62
     7
 48
50.0
100
AcDbLine
 10
9605.077627007638
 20
8064.481764573617
 30
0.0
 11
9605.077627007638
 21
8064.481764573617
 31
0.0
  0
LINE
  5
1F730
330
747D
100
AcDbEntity
  8
部品1
 62
     7
 48
50.0
100
AcDbLine
 10
9712.233877007641
 20
8088.294264573617
 30
0.0
 11
9712.233877007641
 21
8088.294264573617
 31
0.0
  0
LINE
  5
1F731
330
747D
100
AcDbEntity
  8
部品1
 62
     7
 48
50.0
100
AcDbLine
 10
9688.421377007641
 20
8088.294264573617
 30
0.0
 11
9688.421377007641
 21
8088.294264573617
 31
0.0
  0
LINE
  5
1F732
330
747D
100
AcDbEntity
  8
部品1
 62
     7
 48
50.0
100
AcDbLine
 10
9664.608877007641
 20
8088.294264573617
 30
0.0
 11
9664.608877007641
 21
8088.294264573617
 31
0.0
  0
LINE
  5
1F733
330
747D
100
AcDbEntity
  8
部品1
 62
     7
 48
50.0
100
AcDbLine
 10
9640.796377007641
 20
8088.294264573617
 30
0.0
 11
9640.796377007641
 21
8088.294264573617
 31
0.0
  0
LINE
  5
1F734
330
747D
100
AcDbEntity
  8
部品1
 62
     7
 48
50.0
100
AcDbLine
 10
9616.983877007641
 20
8088.294264573617
 30
0.0
 11
9616.983877007641
 21
8088.294264573617
 31
0.0
  0
LINE
  5
1F735
330
747D
100
AcDbEntity
  8
部品1
 62
     7
 48
50.0
100
AcDbLine
 10
9593.17137700764
 20
8088.294264573617
 30
0.0
 11
9593.17137700764
 21
8088.294264573617
 31
0.0
  0
LINE
  5
1F736
330
747D
100
AcDbEntity
  8
部品1
 62
     7
 48
50.0
100
AcDbLine
 10
9724.140127007638
 20
8112.106764573615
 30
0.0
 11
9724.140127007638
 21
8112.106764573615
 31
0.0
  0
LINE
  5
1F737
330
747D
100
AcDbEntity
  8
部品1
 62
     7
 48
50.0
100
AcDbLine
 10
9700.327627007638
 20
8112.106764573615
 30
0.0
 11
9700.327627007638
 21
8112.106764573615
 31
0.0
  0
LINE
  5
1F738
330
747D
100
AcDbEntity
  8
部品1
 62
     7
 48
50.0
100
AcDbLine
 10
9676.51512700764
 20
8112.106764573615
 30
0.0
 11
9676.51512700764
 21
8112.106764573615
 31
0.0
  0
LINE
  5
1F739
330
747D
100
AcDbEntity
  8
部品1
 62
     7
 48
50.0
100
AcDbLine
 10
9652.702627007641
 20
8112.106764573615
 30
0.0
 11
9652.702627007641
 21
8112.106764573615
 31
0.0
  0
LINE
  5
1F73A
330
747D
100
AcDbEntity
  8
部品1
 62
     7
 48
50.0
100
AcDbLine
 10
9628.890127007641
 20
8112.106764573615
 30
0.0
 11
9628.890127007641
 21
8112.106764573615
 31
0.0
  0
LINE
  5
1F73B
330
747D
100
AcDbEntity
  8
部品1
 62
     7
 48
50.0
100
AcDbLine
 10
9605.077627007638
 20
8112.106764573615
 30
0.0
 11
9605.077627007638
 21
8112.106764573615
 31
0.0
  0
LINE
  5
1F73C
330
747D
100
AcDbEntity
  8
部品1
 62
     7
 48
50.0
100
AcDbLine
 10
9712.233877007641
 20
8135.919264573617
 30
0.0
 11
9712.233877007641
 21
8135.919264573617
 31
0.0
  0
LINE
  5
1F73D
330
747D
100
AcDbEntity
  8
部品1
 62
     7
 48
50.0
100
AcDbLine
 10
9688.421377007641
 20
8135.919264573617
 30
0.0
 11
9688.421377007641
 21
8135.919264573617
 31
0.0
  0
LINE
  5
1F73E
330
747D
100
AcDbEntity
  8
部品1
 62
     7
 48
50.0
100
AcDbLine
 10
9664.608877007641
 20
8135.919264573617
 30
0.0
 11
9664.608877007641
 21
8135.919264573617
 31
0.0
  0
LINE
  5
1F73F
330
747D
100
AcDbEntity
  8
部品1
 62
     7
 48
50.0
100
AcDbLine
 10
9640.796377007641
 20
8135.919264573617
 30
0.0
 11
9640.796377007641
 21
8135.919264573617
 31
0.0
  0
LINE
  5
1F740
330
747D
100
AcDbEntity
  8
部品1
 62
     7
 48
50.0
100
AcDbLine
 10
9616.983877007641
 20
8135.919264573617
 30
0.0
 11
9616.983877007641
 21
8135.919264573617
 31
0.0
  0
LINE
  5
1F741
330
747D
100
AcDbEntity
  8
部品1
 62
     7
 48
50.0
100
AcDbLine
 10
9593.17137700764
 20
8135.919264573617
 30
0.0
 11
9593.17137700764
 21
8135.919264573617
 31
0.0
  0
LINE
  5
1F742
330
747D
100
AcDbEntity
  8
部品1
 62
     7
 48
50.0
100
AcDbLine
 10
9724.140127007638
 20
8159.731764573617
 30
0.0
 11
9724.140127007638
 21
8159.731764573617
 31
0.0
  0
LINE
  5
1F743
330
747D
100
AcDbEntity
  8
部品1
 62
     7
 48
50.0
100
AcDbLine
 10
9700.327627007638
 20
8159.731764573617
 30
0.0
 11
9700.327627007638
 21
8159.731764573617
 31
0.0
  0
LINE
  5
1F744
330
747D
100
AcDbEntity
  8
部品1
 62
     7
 48
50.0
100
AcDbLine
 10
9676.51512700764
 20
8159.731764573617
 30
0.0
 11
9676.51512700764
 21
8159.731764573617
 31
0.0
  0
LINE
  5
1F745
330
747D
100
AcDbEntity
  8
部品1
 62
     7
 48
50.0
100
AcDbLine
 10
9652.702627007641
 20
8159.731764573617
 30
0.0
 11
9652.702627007641
 21
8159.731764573617
 31
0.0
  0
LINE
  5
1F746
330
747D
100
AcDbEntity
  8
部品1
 62
     7
 48
50.0
100
AcDbLine
 10
9628.890127007641
 20
8159.731764573617
 30
0.0
 11
9628.890127007641
 21
8159.731764573617
 31
0.0
  0
LINE
  5
1F747
330
747D
100
AcDbEntity
  8
部品1
 62
     7
 48
50.0
100
AcDbLine
 10
9605.077627007638
 20
8159.731764573617
 30
0.0
 11
9605.077627007638
 21
8159.731764573617
 31
0.0
  0
LINE
  5
1F748
330
747D
100
AcDbEntity
  8
部品1
 62
     7
 48
50.0
100
AcDbLine
 10
9712.233877007641
 20
8183.544264573617
 30
0.0
 11
9712.233877007641
 21
8183.544264573617
 31
0.0
  0
LINE
  5
1F749
330
747D
100
AcDbEntity
  8
部品1
 62
     7
 48
50.0
100
AcDbLine
 10
9688.421377007641
 20
8183.544264573617
 30
0.0
 11
9688.421377007641
 21
8183.544264573617
 31
0.0
  0
LINE
  5
1F74A
330
747D
100
AcDbEntity
  8
部品1
 62
     7
 48
50.0
100
AcDbLine
 10
9664.608877007641
 20
8183.544264573617
 30
0.0
 11
9664.608877007641
 21
8183.544264573617
 31
0.0
  0
LINE
  5
1F74B
330
747D
100
AcDbEntity
  8
部品1
 62
     7
 48
50.0
100
AcDbLine
 10
9640.796377007641
 20
8183.544264573617
 30
0.0
 11
9640.796377007641
 21
8183.544264573617
 31
0.0
  0
LINE
  5
1F74C
330
747D
100
AcDbEntity
  8
部品1
 62
     7
 48
50.0
100
AcDbLine
 10
9616.983877007641
 20
8183.544264573617
 30
0.0
 11
9616.983877007641
 21
8183.544264573617
 31
0.0
  0
LINE
  5
1F74D
330
747D
100
AcDbEntity
  8
部品1
 62
     7
 48
50.0
100
AcDbLine
 10
9593.17137700764
 20
8183.544264573617
 30
0.0
 11
9593.17137700764
 21
8183.544264573617
 31
0.0
  0
LINE
  5
1F74E
330
747D
100
AcDbEntity
  8
部品1
 62
     7
 48
50.0
100
AcDbLine
 10
9724.140127007638
 20
8207.356764573615
 30
0.0
 11
9724.140127007638
 21
8207.356764573615
 31
0.0
  0
LINE
  5
1F74F
330
747D
100
AcDbEntity
  8
部品1
 62
     7
 48
50.0
100
AcDbLine
 10
9700.327627007638
 20
8207.356764573615
 30
0.0
 11
9700.327627007638
 21
8207.356764573615
 31
0.0
  0
LINE
  5
1F750
330
747D
100
AcDbEntity
  8
部品1
 62
     7
 48
50.0
100
AcDbLine
 10
9676.51512700764
 20
8207.356764573615
 30
0.0
 11
9676.51512700764
 21
8207.356764573615
 31
0.0
  0
LINE
  5
1F751
330
747D
100
AcDbEntity
  8
部品1
 62
     7
 48
50.0
100
AcDbLine
 10
9652.702627007641
 20
8207.356764573615
 30
0.0
 11
9652.702627007641
 21
8207.356764573615
 31
0.0
  0
LINE
  5
1F752
330
747D
100
AcDbEntity
  8
部品1
 62
     7
 48
50.0
100
AcDbLine
 10
9628.890127007641
 20
8207.356764573615
 30
0.0
 11
9628.890127007641
 21
8207.356764573615
 31
0.0
  0
LINE
  5
1F753
330
747D
100
AcDbEntity
  8
部品1
 62
     7
 48
50.0
100
AcDbLine
 10
9605.077627007638
 20
8207.356764573615
 30
0.0
 11
9605.077627007638
 21
8207.356764573615
 31
0.0
  0
LINE
  5
1F754
330
747D
100
AcDbEntity
  8
部品1
 62
     7
 48
50.0
100
AcDbLine
 10
9712.233877007641
 20
8231.169264573617
 30
0.0
 11
9712.233877007641
 21
8231.169264573617
 31
0.0
  0
LINE
  5
1F755
330
747D
100
AcDbEntity
  8
部品1
 62
     7
 48
50.0
100
AcDbLine
 10
9688.421377007641
 20
8231.169264573617
 30
0.0
 11
9688.421377007641
 21
8231.169264573617
 31
0.0
  0
LINE
  5
1F756
330
747D
100
AcDbEntity
  8
部品1
 62
     7
 48
50.0
100
AcDbLine
 10
9664.608877007641
 20
8231.169264573617
 30
0.0
 11
9664.608877007641
 21
8231.169264573617
 31
0.0
  0
LINE
  5
1F757
330
747D
100
AcDbEntity
  8
部品1
 62
     7
 48
50.0
100
AcDbLine
 10
9640.796377007641
 20
8231.169264573617
 30
0.0
 11
9640.796377007641
 21
8231.169264573617
 31
0.0
  0
LINE
  5
1F758
330
747D
100
AcDbEntity
  8
部品1
 62
     7
 48
50.0
100
AcDbLine
 10
9616.983877007641
 20
8231.169264573617
 30
0.0
 11
9616.983877007641
 21
8231.169264573617
 31
0.0
  0
LINE
  5
1F759
330
747D
100
AcDbEntity
  8
部品1
 62
     7
 48
50.0
100
AcDbLine
 10
9593.17137700764
 20
8231.169264573617
 30
0.0
 11
9593.17137700764
 21
8231.169264573617
 31
0.0
  0
LINE
  5
1F75A
330
747D
100
AcDbEntity
  8
部品1
 62
     7
 48
50.0
100
AcDbLine
 10
9724.140127007638
 20
8254.981764573617
 30
0.0
 11
9724.140127007638
 21
8254.981764573617
 31
0.0
  0
LINE
  5
1F75B
330
747D
100
AcDbEntity
  8
部品1
 62
     7
 48
50.0
100
AcDbLine
 10
9700.327627007638
 20
8254.981764573617
 30
0.0
 11
9700.327627007638
 21
8254.981764573617
 31
0.0
  0
LINE
  5
1F75C
330
747D
100
AcDbEntity
  8
部品1
 62
     7
 48
50.0
100
AcDbLine
 10
9676.51512700764
 20
8254.981764573617
 30
0.0
 11
9676.51512700764
 21
8254.981764573617
 31
0.0
  0
LINE
  5
1F75D
330
747D
100
AcDbEntity
  8
部品1
 62
     7
 48
50.0
100
AcDbLine
 10
9652.702627007641
 20
8254.981764573617
 30
0.0
 11
9652.702627007641
 21
8254.981764573617
 31
0.0
  0
LINE
  5
1F75E
330
747D
100
AcDbEntity
  8
部品1
 62
     7
 48
50.0
100
AcDbLine
 10
9628.890127007641
 20
8254.981764573617
 30
0.0
 11
9628.890127007641
 21
8254.981764573617
 31
0.0
  0
LINE
  5
1F75F
330
747D
100
AcDbEntity
  8
部品1
 62
     7
 48
50.0
100
AcDbLine
 10
9605.077627007638
 20
8254.981764573617
 30
0.0
 11
9605.077627007638
 21
8254.981764573617
 31
0.0
  0
LINE
  5
1F760
330
747D
100
AcDbEntity
  8
部品1
 62
     7
 48
50.0
100
AcDbLine
 10
9712.233877007641
 20
8421.669264573617
 30
0.0
 11
9712.233877007641
 21
8421.669264573617
 31
0.0
  0
LINE
  5
1F761
330
747D
100
AcDbEntity
  8
部品1
 62
     7
 48
50.0
100
AcDbLine
 10
9688.421377007641
 20
8421.669264573617
 30
0.0
 11
9688.421377007641
 21
8421.669264573617
 31
0.0
  0
LINE
  5
1F762
330
747D
100
AcDbEntity
  8
部品1
 62
     7
 48
50.0
100
AcDbLine
 10
9664.608877007641
 20
8421.669264573617
 30
0.0
 11
9664.608877007641
 21
8421.669264573617
 31
0.0
  0
LINE
  5
1F763
330
747D
100
AcDbEntity
  8
部品1
 62
     7
 48
50.0
100
AcDbLine
 10
9640.796377007641
 20
8421.669264573617
 30
0.0
 11
9640.796377007641
 21
8421.669264573617
 31
0.0
  0
LINE
  5
1F764
330
747D
100
AcDbEntity
  8
部品1
 62
     7
 48
50.0
100
AcDbLine
 10
9616.983877007641
 20
8421.669264573617
 30
0.0
 11
9616.983877007641
 21
8421.669264573617
 31
0.0
  0
LINE
  5
1F765
330
747D
100
AcDbEntity
  8
部品1
 62
     7
 48
50.0
100
AcDbLine
 10
9593.17137700764
 20
8421.669264573617
 30
0.0
 11
9593.17137700764
 21
8421.669264573617
 31
0.0
  0
LINE
  5
1F766
330
747D
100
AcDbEntity
  8
部品1
 62
     7
 48
50.0
100
AcDbLine
 10
9724.140127007638
 20
8445.481764573617
 30
0.0
 11
9724.140127007638
 21
8445.481764573617
 31
0.0
  0
LINE
  5
1F767
330
747D
100
AcDbEntity
  8
部品1
 62
     7
 48
50.0
100
AcDbLine
 10
9700.327627007638
 20
8445.481764573617
 30
0.0
 11
9700.327627007638
 21
8445.481764573617
 31
0.0
  0
LINE
  5
1F768
330
747D
100
AcDbEntity
  8
部品1
 62
     7
 48
50.0
100
AcDbLine
 10
9676.51512700764
 20
8445.481764573617
 30
0.0
 11
9676.51512700764
 21
8445.481764573617
 31
0.0
  0
LINE
  5
1F769
330
747D
100
AcDbEntity
  8
部品1
 62
     7
 48
50.0
100
AcDbLine
 10
9652.702627007641
 20
8445.481764573617
 30
0.0
 11
9652.702627007641
 21
8445.481764573617
 31
0.0
  0
LINE
  5
1F76A
330
747D
100
AcDbEntity
  8
部品1
 62
     7
 48
50.0
100
AcDbLine
 10
9628.890127007641
 20
8445.481764573617
 30
0.0
 11
9628.890127007641
 21
8445.481764573617
 31
0.0
  0
LINE
  5
1F76B
330
747D
100
AcDbEntity
  8
部品1
 62
     7
 48
50.0
100
AcDbLine
 10
9605.077627007638
 20
8445.481764573617
 30
0.0
 11
9605.077627007638
 21
8445.481764573617
 31
0.0
  0
LINE
  5
1F76C
330
747D
100
AcDbEntity
  8
部品1
 62
     7
 48
50.0
100
AcDbLine
 10
9712.233877007641
 20
8469.294264573617
 30
0.0
 11
9712.233877007641
 21
8469.294264573617
 31
0.0
  0
LINE
  5
1F76D
330
747D
100
AcDbEntity
  8
部品1
 62
     7
 48
50.0
100
AcDbLine
 10
9688.421377007641
 20
8469.294264573617
 30
0.0
 11
9688.421377007641
 21
8469.294264573617
 31
0.0
  0
LINE
  5
1F76E
330
747D
100
AcDbEntity
  8
部品1
 62
     7
 48
50.0
100
AcDbLine
 10
9664.608877007641
 20
8469.294264573617
 30
0.0
 11
9664.608877007641
 21
8469.294264573617
 31
0.0
  0
LINE
  5
1F76F
330
747D
100
AcDbEntity
  8
部品1
 62
     7
 48
50.0
100
AcDbLine
 10
9640.796377007641
 20
8469.294264573617
 30
0.0
 11
9640.796377007641
 21
8469.294264573617
 31
0.0
  0
LINE
  5
1F770
330
747D
100
AcDbEntity
  8
部品1
 62
     7
 48
50.0
100
AcDbLine
 10
9616.983877007641
 20
8469.294264573617
 30
0.0
 11
9616.983877007641
 21
8469.294264573617
 31
0.0
  0
LINE
  5
1F771
330
747D
100
AcDbEntity
  8
部品1
 62
     7
 48
50.0
100
AcDbLine
 10
9593.17137700764
 20
8469.294264573617
 30
0.0
 11
9593.17137700764
 21
8469.294264573617
 31
0.0
  0
LINE
  5
1F772
330
747D
100
AcDbEntity
  8
部品1
 62
     7
 48
50.0
100
AcDbLine
 10
9724.140127007638
 20
8493.106764573616
 30
0.0
 11
9724.140127007638
 21
8493.106764573616
 31
0.0
  0
LINE
  5
1F773
330
747D
100
AcDbEntity
  8
部品1
 62
     7
 48
50.0
100
AcDbLine
 10
9700.327627007638
 20
8493.106764573616
 30
0.0
 11
9700.327627007638
 21
8493.106764573616
 31
0.0
  0
LINE
  5
1F774
330
747D
100
AcDbEntity
  8
部品1
 62
     7
 48
50.0
100
AcDbLine
 10
9676.51512700764
 20
8493.106764573616
 30
0.0
 11
9676.51512700764
 21
8493.106764573616
 31
0.0
  0
LINE
  5
1F775
330
747D
100
AcDbEntity
  8
部品1
 62
     7
 48
50.0
100
AcDbLine
 10
9652.702627007641
 20
8493.106764573616
 30
0.0
 11
9652.702627007641
 21
8493.106764573616
 31
0.0
  0
LINE
  5
1F776
330
747D
100
AcDbEntity
  8
部品1
 62
     7
 48
50.0
100
AcDbLine
 10
9628.890127007641
 20
8493.106764573616
 30
0.0
 11
9628.890127007641
 21
8493.106764573616
 31
0.0
  0
LINE
  5
1F777
330
747D
100
AcDbEntity
  8
部品1
 62
     7
 48
50.0
100
AcDbLine
 10
9605.077627007638
 20
8493.106764573616
 30
0.0
 11
9605.077627007638
 21
8493.106764573616
 31
0.0
  0
LINE
  5
1F778
330
747D
100
AcDbEntity
  8
部品1
 62
     7
 48
50.0
100
AcDbLine
 10
9712.233877007641
 20
8516.919264573617
 30
0.0
 11
9712.233877007641
 21
8516.919264573617
 31
0.0
  0
LINE
  5
1F779
330
747D
100
AcDbEntity
  8
部品1
 62
     7
 48
50.0
100
AcDbLine
 10
9688.421377007641
 20
8516.919264573617
 30
0.0
 11
9688.421377007641
 21
8516.919264573617
 31
0.0
  0
LINE
  5
1F77A
330
747D
100
AcDbEntity
  8
部品1
 62
     7
 48
50.0
100
AcDbLine
 10
9664.608877007641
 20
8516.919264573617
 30
0.0
 11
9664.608877007641
 21
8516.919264573617
 31
0.0
  0
LINE
  5
1F77B
330
747D
100
AcDbEntity
  8
部品1
 62
     7
 48
50.0
100
AcDbLine
 10
9640.796377007641
 20
8516.919264573617
 30
0.0
 11
9640.796377007641
 21
8516.919264573617
 31
0.0
  0
LINE
  5
1F77C
330
747D
100
AcDbEntity
  8
部品1
 62
     7
 48
50.0
100
AcDbLine
 10
9616.983877007641
 20
8516.919264573617
 30
0.0
 11
9616.983877007641
 21
8516.919264573617
 31
0.0
  0
LINE
  5
1F77D
330
747D
100
AcDbEntity
  8
部品1
 62
     7
 48
50.0
100
AcDbLine
 10
9593.17137700764
 20
8516.919264573617
 30
0.0
 11
9593.17137700764
 21
8516.919264573617
 31
0.0
  0
LINE
  5
1F77E
330
747D
100
AcDbEntity
  8
部品1
 62
     7
 48
50.0
100
AcDbLine
 10
9724.140127007638
 20
8540.731764573617
 30
0.0
 11
9724.140127007638
 21
8540.731764573617
 31
0.0
  0
LINE
  5
1F77F
330
747D
100
AcDbEntity
  8
部品1
 62
     7
 48
50.0
100
AcDbLine
 10
9700.327627007638
 20
8540.731764573617
 30
0.0
 11
9700.327627007638
 21
8540.731764573617
 31
0.0
  0
LINE
  5
1F780
330
747D
100
AcDbEntity
  8
部品1
 62
     7
 48
50.0
100
AcDbLine
 10
9676.51512700764
 20
8540.731764573617
 30
0.0
 11
9676.51512700764
 21
8540.731764573617
 31
0.0
  0
LINE
  5
1F781
330
747D
100
AcDbEntity
  8
部品1
 62
     7
 48
50.0
100
AcDbLine
 10
9652.702627007641
 20
8540.731764573617
 30
0.0
 11
9652.702627007641
 21
8540.731764573617
 31
0.0
  0
LINE
  5
1F782
330
747D
100
AcDbEntity
  8
部品1
 62
     7
 48
50.0
100
AcDbLine
 10
9628.890127007641
 20
8540.731764573617
 30
0.0
 11
9628.890127007641
 21
8540.731764573617
 31
0.0
  0
LINE
  5
1F783
330
747D
100
AcDbEntity
  8
部品1
 62
     7
 48
50.0
100
AcDbLine
 10
9605.077627007638
 20
8540.731764573617
 30
0.0
 11
9605.077627007638
 21
8540.731764573617
 31
0.0
  0
DIMENSION
  5
1F784
330
747D
100
AcDbEntity
  8
寸法
 62
     7
 48
50.0
100
AcDbDimension
  2
*D23
 10
8693.499999999991
 20
8761.955177899423
 30
0.0
 11
8693.499999999989
 21
8861.955177899424
 31
0.0
 70
   160
 71
     5
 42
200.0
  3
INABA_S50G
100
AcDbAlignedDimension
 13
8948.499999999986
 23
8961.955177899424
 33
0.0
 14
8948.499999999986
 24
8761.955177899423
 34
0.0
 50
90.0
100
AcDbRotatedDimension
  0
DIMENSION
  5
1F785
330
747D
100
AcDbEntity
  8
寸法
 62
     7
 48
50.0
100
AcDbDimension
  2
*D24
 10
8948.499999999986
 20
9256.955177899422
 30
0.0
 11
9048.5
 21
9256.955177899422
 31
0.0
 70
   160
 71
     5
 42
200.00000000002
  3
INABA_S50G
100
AcDbAlignedDimension
 13
9148.50000000001
 23
8961.955177899424
 33
0.0
 14
8948.499999999986
 24
8961.955177899424
 34
0.0
100
AcDbRotatedDimension
  0
LINE
  5
1F786
330
747D
100
AcDbEntity
  8
センター
 62
     7
 48
5.0
100
AcDbLine
 10
9193.499999999987
 20
8861.955177899423
 30
0.0
 11
8903.500000000009
 21
8861.955177899423
 31
0.0
  0
LINE
  5
1F787
330
747D
100
AcDbEntity
  8
部品1
 62
     7
 48
50.0
100
AcDbLine
 10
9448.500000000009
 20
8661.955177899423
 30
0.0
 11
9048.499999999988
 21
8661.955177899423
 31
0.0
  0
LINE
  5
1F788
330
747D
100
AcDbEntity
  8
部品1
 62
     7
 48
50.0
100
AcDbLine
 10
9448.500000000009
 20
8861.955177899423
 30
0.0
 11
9048.499999999988
 21
8861.955177899423
 31
0.0
  0
LINE
  5
1F789
330
747D
100
AcDbEntity
  8
点線
 62
     7
 48
10.0
100
AcDbLine
 10
9148.50000000001
 20
8961.955177899424
 30
0.0
 11
9148.50000000001
 21
8761.955177899423
 31
0.0
  0
LINE
  5
1F78A
330
747D
100
AcDbEntity
  8
点線
 62
     7
 48
10.0
100
AcDbLine
 10
8948.499999999986
 20
8961.955177899424
 30
0.0
 11
8948.499999999986
 21
8761.955177899423
 31
0.0
  0
LINE
  5
1F78B
330
747D
100
AcDbEntity
  8
センター
 62
     7
 48
5.0
100
AcDbLine
 10
9048.499999999988
 20
9006.955177899422
 30
0.0
 11
9048.499999999988
 21
8716.955177899423
 31
0.0
  0
LINE
  5
1F78C
330
747D
100
AcDbEntity
  8
部品1
 62
     7
 48
50.0
100
AcDbLine
 10
9048.499999999988
 20
8861.955177899423
 30
0.0
 11
9048.499999999988
 21
8661.955177899423
 31
0.0
  0
LINE
  5
1F78D
330
747D
100
AcDbEntity
  8
点線
 62
     7
 48
10.0
100
AcDbLine
 10
9148.50000000001
 20
8761.955177899423
 30
0.0
 11
8948.499999999986
 21
8761.955177899423
 31
0.0
  0
LINE
  5
1F78E
330
747D
100
AcDbEntity
  8
点線
 62
     7
 48
10.0
100
AcDbLine
 10
9148.50000000001
 20
8961.955177899424
 30
0.0
 11
8948.499999999986
 21
8961.955177899424
 31
0.0
  0
LINE
  5
1F78F
330
747D
100
AcDbEntity
  8
部品1
 62
     7
 48
50.0
100
AcDbLine
 10
9448.500000000009
 20
8861.955177899423
 30
0.0
 11
9448.500000000009
 21
8661.955177899423
 31
0.0
  0
LINE
  5
1F790
330
747D
100
AcDbEntity
  8
部品1
 62
     7
 48
50.0
100
AcDbLine
 10
9712.233877007641
 20
8564.544264573617
 30
0.0
 11
9712.233877007641
 21
8564.544264573617
 31
0.0
  0
LINE
  5
1F791
330
747D
100
AcDbEntity
  8
部品1
 62
     7
 48
50.0
100
AcDbLine
 10
9688.421377007641
 20
8564.544264573617
 30
0.0
 11
9688.421377007641
 21
8564.544264573617
 31
0.0
  0
LINE
  5
1F792
330
747D
100
AcDbEntity
  8
部品1
 62
     7
 48
50.0
100
AcDbLine
 10
9664.608877007641
 20
8564.544264573617
 30
0.0
 11
9664.608877007641
 21
8564.544264573617
 31
0.0
  0
LINE
  5
1F793
330
747D
100
AcDbEntity
  8
部品1
 62
     7
 48
50.0
100
AcDbLine
 10
9640.796377007641
 20
8564.544264573617
 30
0.0
 11
9640.796377007641
 21
8564.544264573617
 31
0.0
  0
LINE
  5
1F794
330
747D
100
AcDbEntity
  8
部品1
 62
     7
 48
50.0
100
AcDbLine
 10
9616.983877007641
 20
8564.544264573617
 30
0.0
 11
9616.983877007641
 21
8564.544264573617
 31
0.0
  0
LINE
  5
1F795
330
747D
100
AcDbEntity
  8
部品1
 62
     7
 48
50.0
100
AcDbLine
 10
9593.17137700764
 20
8564.544264573617
 30
0.0
 11
9593.17137700764
 21
8564.544264573617
 31
0.0
  0
LINE
  5
1F796
330
747D
100
AcDbEntity
  8
部品1
 62
     7
 48
50.0
100
AcDbLine
 10
9724.140127007638
 20
8588.356764573616
 30
0.0
 11
9724.140127007638
 21
8588.356764573616
 31
0.0
  0
LINE
  5
1F797
330
747D
100
AcDbEntity
  8
部品1
 62
     7
 48
50.0
100
AcDbLine
 10
9700.327627007638
 20
8588.356764573616
 30
0.0
 11
9700.327627007638
 21
8588.356764573616
 31
0.0
  0
LINE
  5
1F798
330
747D
100
AcDbEntity
  8
部品1
 62
     7
 48
50.0
100
AcDbLine
 10
9676.51512700764
 20
8588.356764573616
 30
0.0
 11
9676.51512700764
 21
8588.356764573616
 31
0.0
  0
LINE
  5
1F799
330
747D
100
AcDbEntity
  8
部品1
 62
     7
 48
50.0
100
AcDbLine
 10
9652.702627007641
 20
8588.356764573616
 30
0.0
 11
9652.702627007641
 21
8588.356764573616
 31
0.0
  0
LINE
  5
1F79A
330
747D
100
AcDbEntity
  8
部品1
 62
     7
 48
50.0
100
AcDbLine
 10
9628.890127007641
 20
8588.356764573616
 30
0.0
 11
9628.890127007641
 21
8588.356764573616
 31
0.0
  0
LINE
  5
1F79B
330
747D
100
AcDbEntity
  8
部品1
 62
     7
 48
50.0
100
AcDbLine
 10
9605.077627007638
 20
8588.356764573616
 30
0.0
 11
9605.077627007638
 21
8588.356764573616
 31
0.0
  0
LINE
  5
1F79C
330
747D
100
AcDbEntity
  8
細線
 62
     7
 48
10.0
100
AcDbLine
 10
10773.49999999998
 20
8400.955177899424
 30
0.0
 11
10773.49999999998
 21
8600.955177899423
 31
0.0
  0
LINE
  5
1F79D
330
747D
100
AcDbEntity
  8
センター
 62
     7
 48
5.0
100
AcDbLine
 10
10873.49999999998
 20
8355.955177899422
 30
0.0
 11
10873.49999999998
 21
8645.955177899422
 31
0.0
  0
LINE
  5
1F79E
330
747D
100
AcDbEntity
  8
細線
 62
     7
 48
10.0
100
AcDbLine
 10
10973.49999999998
 20
8600.955177899423
 30
0.0
 11
10973.49999999998
 21
8400.955177899424
 31
0.0
  0
LINE
  5
1F79F
330
747D
100
AcDbEntity
  8
細線
 62
     7
 48
10.0
100
AcDbLine
 10
9785.500000000009
 20
8400.955177899424
 30
0.0
 11
9785.500000000009
 21
8600.955177899423
 31
0.0
  0
LINE
  5
1F7A0
330
747D
100
AcDbEntity
  8
センター
 62
     7
 48
5.0
100
AcDbLine
 10
10279.49999999999
 20
8152.955177899423
 30
0.0
 11
10279.49999999999
 21
7862.955177899422
 31
0.0
  0
LINE
  5
1F7A1
330
747D
100
AcDbEntity
  8
部品1
 62
     7
 48
50.0
100
AcDbLine
 10
10179.49999999999
 20
7907.955177899423
 30
0.0
 11
10179.49999999999
 21
8107.955177899423
 31
0.0
  0
LINE
  5
1F7A2
330
747D
100
AcDbEntity
  8
部品1
 62
     7
 48
50.0
100
AcDbLine
 10
10379.49999999999
 20
8107.955177899423
 30
0.0
 11
10379.49999999999
 21
7907.955177899423
 31
0.0
  0
LINE
  5
1F7A3
330
747D
100
AcDbEntity
  8
細線
 62
     7
 48
10.0
100
AcDbLine
 10
9785.500000000009
 20
7865.955177899422
 30
0.0
 11
9785.500000000009
 21
8265.955177899423
 31
0.0
  0
LINE
  5
1F7A4
330
747D
100
AcDbEntity
  8
細線
 62
     7
 48
10.0
100
AcDbLine
 10
9785.500000000009
 20
7730.955177899423
 30
0.0
 11
9785.500000000009
 21
7530.955177899423
 31
0.0
  0
LINE
  5
1F7A5
330
747D
100
AcDbEntity
  8
部品1
 62
     7
 48
50.0
100
AcDbLine
 10
9771.76512700764
 20
7540.606764573614
 30
0.0
 11
9771.76512700764
 21
7540.606764573614
 31
0.0
  0
LINE
  5
1F7A6
330
747D
100
AcDbEntity
  8
部品1
 62
     7
 48
50.0
100
AcDbLine
 10
9747.952627007641
 20
7540.606764573614
 30
0.0
 11
9747.952627007641
 21
7540.606764573614
 31
0.0
  0
LINE
  5
1F7A7
330
747D
100
AcDbEntity
  8
部品1
 62
     7
 48
50.0
100
AcDbLine
 10
9783.671377007641
 20
7564.419264573615
 30
0.0
 11
9783.671377007641
 21
7564.419264573615
 31
0.0
  0
LINE
  5
1F7A8
330
747D
100
AcDbEntity
  8
部品1
 62
     7
 48
50.0
100
AcDbLine
 10
9759.858877007641
 20
7564.419264573615
 30
0.0
 11
9759.858877007641
 21
7564.419264573615
 31
0.0
  0
LINE
  5
1F7A9
330
747D
100
AcDbEntity
  8
部品1
 62
     7
 48
50.0
100
AcDbLine
 10
9736.046377007641
 20
7564.419264573615
 30
0.0
 11
9736.046377007641
 21
7564.419264573615
 31
0.0
  0
LINE
  5
1F7AA
330
747D
100
AcDbEntity
  8
部品1
 62
     7
 48
50.0
100
AcDbLine
 10
9771.76512700764
 20
7588.231764573617
 30
0.0
 11
9771.76512700764
 21
7588.231764573617
 31
0.0
  0
LINE
  5
1F7AB
330
747D
100
AcDbEntity
  8
部品1
 62
     7
 48
50.0
100
AcDbLine
 10
9747.952627007641
 20
7588.231764573617
 30
0.0
 11
9747.952627007641
 21
7588.231764573617
 31
0.0
  0
LINE
  5
1F7AC
330
747D
100
AcDbEntity
  8
部品1
 62
     7
 48
50.0
100
AcDbLine
 10
9783.671377007641
 20
7612.044264573616
 30
0.0
 11
9783.671377007641
 21
7612.044264573616
 31
0.0
  0
LINE
  5
1F7AD
330
747D
100
AcDbEntity
  8
部品1
 62
     7
 48
50.0
100
AcDbLine
 10
9759.858877007641
 20
7612.044264573616
 30
0.0
 11
9759.858877007641
 21
7612.044264573616
 31
0.0
  0
LINE
  5
1F7AE
330
747D
100
AcDbEntity
  8
部品1
 62
     7
 48
50.0
100
AcDbLine
 10
9736.046377007641
 20
7612.044264573616
 30
0.0
 11
9736.046377007641
 21
7612.044264573616
 31
0.0
  0
LINE
  5
1F7AF
330
747D
100
AcDbEntity
  8
部品1
 62
     7
 48
50.0
100
AcDbLine
 10
9771.76512700764
 20
7635.856764573617
 30
0.0
 11
9771.76512700764
 21
7635.856764573617
 31
0.0
  0
LINE
  5
1F7B0
330
747D
100
AcDbEntity
  8
部品1
 62
     7
 48
50.0
100
AcDbLine
 10
9747.952627007641
 20
7635.856764573617
 30
0.0
 11
9747.952627007641
 21
7635.856764573617
 31
0.0
  0
LINE
  5
1F7B1
330
747D
100
AcDbEntity
  8
部品1
 62
     7
 48
50.0
100
AcDbLine
 10
9783.671377007641
 20
7659.669264573617
 30
0.0
 11
9783.671377007641
 21
7659.669264573617
 31
0.0
  0
LINE
  5
1F7B2
330
747D
100
AcDbEntity
  8
部品1
 62
     7
 48
50.0
100
AcDbLine
 10
9759.858877007641
 20
7659.669264573617
 30
0.0
 11
9759.858877007641
 21
7659.669264573617
 31
0.0
  0
LINE
  5
1F7B3
330
747D
100
AcDbEntity
  8
部品1
 62
     7
 48
50.0
100
AcDbLine
 10
9736.046377007641
 20
7659.669264573617
 30
0.0
 11
9736.046377007641
 21
7659.669264573617
 31
0.0
  0
LINE
  5
1F7B4
330
747D
100
AcDbEntity
  8
部品1
 62
     7
 48
50.0
100
AcDbLine
 10
9771.76512700764
 20
7683.481764573617
 30
0.0
 11
9771.76512700764
 21
7683.481764573617
 31
0.0
  0
LINE
  5
1F7B5
330
747D
100
AcDbEntity
  8
部品1
 62
     7
 48
50.0
100
AcDbLine
 10
9747.952627007641
 20
7683.481764573617
 30
0.0
 11
9747.952627007641
 21
7683.481764573617
 31
0.0
  0
LINE
  5
1F7B6
330
747D
100
AcDbEntity
  8
部品1
 62
     7
 48
50.0
100
AcDbLine
 10
9783.671377007641
 20
7707.294264573616
 30
0.0
 11
9783.671377007641
 21
7707.294264573616
 31
0.0
  0
LINE
  5
1F7B7
330
747D
100
AcDbEntity
  8
部品1
 62
     7
 48
50.0
100
AcDbLine
 10
9759.858877007641
 20
7707.294264573616
 30
0.0
 11
9759.858877007641
 21
7707.294264573616
 31
0.0
  0
LINE
  5
1F7B8
330
747D
100
AcDbEntity
  8
部品1
 62
     7
 48
50.0
100
AcDbLine
 10
9736.046377007641
 20
7707.294264573616
 30
0.0
 11
9736.046377007641
 21
7707.294264573616
 31
0.0
  0
LINE
  5
1F7B9
330
747D
100
AcDbEntity
  8
部品1
 62
     7
 48
50.0
100
AcDbLine
 10
9771.76512700764
 20
7873.981764573617
 30
0.0
 11
9771.76512700764
 21
7873.981764573617
 31
0.0
  0
LINE
  5
1F7BA
330
747D
100
AcDbEntity
  8
部品1
 62
     7
 48
50.0
100
AcDbLine
 10
9747.952627007641
 20
7873.981764573617
 30
0.0
 11
9747.952627007641
 21
7873.981764573617
 31
0.0
  0
LINE
  5
1F7BB
330
747D
100
AcDbEntity
  8
部品1
 62
     7
 48
50.0
100
AcDbLine
 10
9783.671377007641
 20
7897.794264573616
 30
0.0
 11
9783.671377007641
 21
7897.794264573616
 31
0.0
  0
LINE
  5
1F7BC
330
747D
100
AcDbEntity
  8
部品1
 62
     7
 48
50.0
100
AcDbLine
 10
9759.858877007641
 20
7897.794264573616
 30
0.0
 11
9759.858877007641
 21
7897.794264573616
 31
0.0
  0
LINE
  5
1F7BD
330
747D
100
AcDbEntity
  8
部品1
 62
     7
 48
50.0
100
AcDbLine
 10
9736.046377007641
 20
7897.794264573616
 30
0.0
 11
9736.046377007641
 21
7897.794264573616
 31
0.0
  0
LINE
  5
1F7BE
330
747D
100
AcDbEntity
  8
部品1
 62
     7
 48
50.0
100
AcDbLine
 10
9771.76512700764
 20
7921.606764573617
 30
0.0
 11
9771.76512700764
 21
7921.606764573617
 31
0.0
  0
LINE
  5
1F7BF
330
747D
100
AcDbEntity
  8
部品1
 62
     7
 48
50.0
100
AcDbLine
 10
9747.952627007641
 20
7921.606764573617
 30
0.0
 11
9747.952627007641
 21
7921.606764573617
 31
0.0
  0
LINE
  5
1F7C0
330
747D
100
AcDbEntity
  8
部品1
 62
     7
 48
50.0
100
AcDbLine
 10
9783.671377007641
 20
7945.419264573617
 30
0.0
 11
9783.671377007641
 21
7945.419264573617
 31
0.0
  0
LINE
  5
1F7C1
330
747D
100
AcDbEntity
  8
部品1
 62
     7
 48
50.0
100
AcDbLine
 10
9759.858877007641
 20
7945.419264573617
 30
0.0
 11
9759.858877007641
 21
7945.419264573617
 31
0.0
  0
LINE
  5
1F7C2
330
747D
100
AcDbEntity
  8
部品1
 62
     7
 48
50.0
100
AcDbLine
 10
9736.046377007641
 20
7945.419264573617
 30
0.0
 11
9736.046377007641
 21
7945.419264573617
 31
0.0
  0
LINE
  5
1F7C3
330
747D
100
AcDbEntity
  8
部品1
 62
     7
 48
50.0
100
AcDbLine
 10
9771.76512700764
 20
7969.231764573617
 30
0.0
 11
9771.76512700764
 21
7969.231764573617
 31
0.0
  0
LINE
  5
1F7C4
330
747D
100
AcDbEntity
  8
部品1
 62
     7
 48
50.0
100
AcDbLine
 10
9747.952627007641
 20
7969.231764573617
 30
0.0
 11
9747.952627007641
 21
7969.231764573617
 31
0.0
  0
LINE
  5
1F7C5
330
747D
100
AcDbEntity
  8
部品1
 62
     7
 48
50.0
100
AcDbLine
 10
10379.49999999999
 20
7907.955177899423
 30
0.0
 11
10179.49999999999
 21
7907.955177899423
 31
0.0
  0
LINE
  5
1F7C6
330
747D
100
AcDbEntity
  8
センター
 62
     7
 48
5.0
100
AcDbLine
 10
10424.49999999998
 20
8007.955177899424
 30
0.0
 11
10134.5
 21
8007.955177899424
 31
0.0
  0
LINE
  5
1F7C7
330
747D
100
AcDbEntity
  8
部品1
 62
     7
 48
50.0
100
AcDbLine
 10
9783.671377007641
 20
7993.044264573616
 30
0.0
 11
9783.671377007641
 21
7993.044264573616
 31
0.0
  0
LINE
  5
1F7C8
330
747D
100
AcDbEntity
  8
部品1
 62
     7
 48
50.0
100
AcDbLine
 10
9759.858877007641
 20
7993.044264573616
 30
0.0
 11
9759.858877007641
 21
7993.044264573616
 31
0.0
  0
LINE
  5
1F7C9
330
747D
100
AcDbEntity
  8
部品1
 62
     7
 48
50.0
100
AcDbLine
 10
9736.046377007641
 20
7993.044264573616
 30
0.0
 11
9736.046377007641
 21
7993.044264573616
 31
0.0
  0
LINE
  5
1F7CA
330
747D
100
AcDbEntity
  8
部品1
 62
     7
 48
50.0
100
AcDbLine
 10
9771.76512700764
 20
8016.856764573615
 30
0.0
 11
9771.76512700764
 21
8016.856764573615
 31
0.0
  0
LINE
  5
1F7CB
330
747D
100
AcDbEntity
  8
部品1
 62
     7
 48
50.0
100
AcDbLine
 10
9747.952627007641
 20
8016.856764573615
 30
0.0
 11
9747.952627007641
 21
8016.856764573615
 31
0.0
  0
LINE
  5
1F7CC
330
747D
100
AcDbEntity
  8
部品1
 62
     7
 48
50.0
100
AcDbLine
 10
9783.671377007641
 20
8040.669264573617
 30
0.0
 11
9783.671377007641
 21
8040.669264573617
 31
0.0
  0
LINE
  5
1F7CD
330
747D
100
AcDbEntity
  8
部品1
 62
     7
 48
50.0
100
AcDbLine
 10
9759.858877007641
 20
8040.669264573617
 30
0.0
 11
9759.858877007641
 21
8040.669264573617
 31
0.0
  0
LINE
  5
1F7CE
330
747D
100
AcDbEntity
  8
部品1
 62
     7
 48
50.0
100
AcDbLine
 10
9736.046377007641
 20
8040.669264573617
 30
0.0
 11
9736.046377007641
 21
8040.669264573617
 31
0.0
  0
LINE
  5
1F7CF
330
747D
100
AcDbEntity
  8
部品1
 62
     7
 48
50.0
100
AcDbLine
 10
9771.76512700764
 20
8064.481764573617
 30
0.0
 11
9771.76512700764
 21
8064.481764573617
 31
0.0
  0
LINE
  5
1F7D0
330
747D
100
AcDbEntity
  8
部品1
 62
     7
 48
50.0
100
AcDbLine
 10
9747.952627007641
 20
8064.481764573617
 30
0.0
 11
9747.952627007641
 21
8064.481764573617
 31
0.0
  0
LINE
  5
1F7D1
330
747D
100
AcDbEntity
  8
部品1
 62
     7
 48
50.0
100
AcDbLine
 10
9783.671377007641
 20
8088.294264573617
 30
0.0
 11
9783.671377007641
 21
8088.294264573617
 31
0.0
  0
LINE
  5
1F7D2
330
747D
100
AcDbEntity
  8
部品1
 62
     7
 48
50.0
100
AcDbLine
 10
9759.858877007641
 20
8088.294264573617
 30
0.0
 11
9759.858877007641
 21
8088.294264573617
 31
0.0
  0
LINE
  5
1F7D3
330
747D
100
AcDbEntity
  8
部品1
 62
     7
 48
50.0
100
AcDbLine
 10
9736.046377007641
 20
8088.294264573617
 30
0.0
 11
9736.046377007641
 21
8088.294264573617
 31
0.0
  0
LINE
  5
1F7D4
330
747D
100
AcDbEntity
  8
部品1
 62
     7
 48
50.0
100
AcDbLine
 10
9771.76512700764
 20
8112.106764573615
 30
0.0
 11
9771.76512700764
 21
8112.106764573615
 31
0.0
  0
LINE
  5
1F7D5
330
747D
100
AcDbEntity
  8
部品1
 62
     7
 48
50.0
100
AcDbLine
 10
9747.952627007641
 20
8112.106764573615
 30
0.0
 11
9747.952627007641
 21
8112.106764573615
 31
0.0
  0
LINE
  5
1F7D6
330
747D
100
AcDbEntity
  8
部品1
 62
     7
 48
50.0
100
AcDbLine
 10
9783.671377007641
 20
8135.919264573617
 30
0.0
 11
9783.671377007641
 21
8135.919264573617
 31
0.0
  0
LINE
  5
1F7D7
330
747D
100
AcDbEntity
  8
部品1
 62
     7
 48
50.0
100
AcDbLine
 10
9759.858877007641
 20
8135.919264573617
 30
0.0
 11
9759.858877007641
 21
8135.919264573617
 31
0.0
  0
LINE
  5
1F7D8
330
747D
100
AcDbEntity
  8
部品1
 62
     7
 48
50.0
100
AcDbLine
 10
9736.046377007641
 20
8135.919264573617
 30
0.0
 11
9736.046377007641
 21
8135.919264573617
 31
0.0
  0
LINE
  5
1F7D9
330
747D
100
AcDbEntity
  8
部品1
 62
     7
 48
50.0
100
AcDbLine
 10
9771.76512700764
 20
8159.731764573617
 30
0.0
 11
9771.76512700764
 21
8159.731764573617
 31
0.0
  0
LINE
  5
1F7DA
330
747D
100
AcDbEntity
  8
部品1
 62
     7
 48
50.0
100
AcDbLine
 10
9747.952627007641
 20
8159.731764573617
 30
0.0
 11
9747.952627007641
 21
8159.731764573617
 31
0.0
  0
LINE
  5
1F7DB
330
747D
100
AcDbEntity
  8
部品1
 62
     7
 48
50.0
100
AcDbLine
 10
9783.671377007641
 20
8183.544264573617
 30
0.0
 11
9783.671377007641
 21
8183.544264573617
 31
0.0
  0
LINE
  5
1F7DC
330
747D
100
AcDbEntity
  8
部品1
 62
     7
 48
50.0
100
AcDbLine
 10
9759.858877007641
 20
8183.544264573617
 30
0.0
 11
9759.858877007641
 21
8183.544264573617
 31
0.0
  0
LINE
  5
1F7DD
330
747D
100
AcDbEntity
  8
部品1
 62
     7
 48
50.0
100
AcDbLine
 10
9736.046377007641
 20
8183.544264573617
 30
0.0
 11
9736.046377007641
 21
8183.544264573617
 31
0.0
  0
LINE
  5
1F7DE
330
747D
100
AcDbEntity
  8
部品1
 62
     7
 48
50.0
100
AcDbLine
 10
9771.76512700764
 20
8207.356764573615
 30
0.0
 11
9771.76512700764
 21
8207.356764573615
 31
0.0
  0
LINE
  5
1F7DF
330
747D
100
AcDbEntity
  8
部品1
 62
     7
 48
50.0
100
AcDbLine
 10
9747.952627007641
 20
8207.356764573615
 30
0.0
 11
9747.952627007641
 21
8207.356764573615
 31
0.0
  0
LINE
  5
1F7E0
330
747D
100
AcDbEntity
  8
部品1
 62
     7
 48
50.0
100
AcDbLine
 10
9783.671377007641
 20
8231.169264573617
 30
0.0
 11
9783.671377007641
 21
8231.169264573617
 31
0.0
  0
LINE
  5
1F7E1
330
747D
100
AcDbEntity
  8
部品1
 62
     7
 48
50.0
100
AcDbLine
 10
9759.858877007641
 20
8231.169264573617
 30
0.0
 11
9759.858877007641
 21
8231.169264573617
 31
0.0
  0
LINE
  5
1F7E2
330
747D
100
AcDbEntity
  8
部品1
 62
     7
 48
50.0
100
AcDbLine
 10
9736.046377007641
 20
8231.169264573617
 30
0.0
 11
9736.046377007641
 21
8231.169264573617
 31
0.0
  0
LINE
  5
1F7E3
330
747D
100
AcDbEntity
  8
部品1
 62
     7
 48
50.0
100
AcDbLine
 10
9771.76512700764
 20
8254.981764573617
 30
0.0
 11
9771.76512700764
 21
8254.981764573617
 31
0.0
  0
LINE
  5
1F7E4
330
747D
100
AcDbEntity
  8
部品1
 62
     7
 48
50.0
100
AcDbLine
 10
9747.952627007641
 20
8254.981764573617
 30
0.0
 11
9747.952627007641
 21
8254.981764573617
 31
0.0
  0
LINE
  5
1F7E5
330
747D
100
AcDbEntity
  8
部品1
 62
     7
 48
50.0
100
AcDbLine
 10
9783.671377007641
 20
8421.669264573617
 30
0.0
 11
9783.671377007641
 21
8421.669264573617
 31
0.0
  0
LINE
  5
1F7E6
330
747D
100
AcDbEntity
  8
部品1
 62
     7
 48
50.0
100
AcDbLine
 10
9759.858877007641
 20
8421.669264573617
 30
0.0
 11
9759.858877007641
 21
8421.669264573617
 31
0.0
  0
LINE
  5
1F7E7
330
747D
100
AcDbEntity
  8
部品1
 62
     7
 48
50.0
100
AcDbLine
 10
9736.046377007641
 20
8421.669264573617
 30
0.0
 11
9736.046377007641
 21
8421.669264573617
 31
0.0
  0
LINE
  5
1F7E8
330
747D
100
AcDbEntity
  8
部品1
 62
     7
 48
50.0
100
AcDbLine
 10
9771.76512700764
 20
8445.481764573617
 30
0.0
 11
9771.76512700764
 21
8445.481764573617
 31
0.0
  0
LINE
  5
1F7E9
330
747D
100
AcDbEntity
  8
部品1
 62
     7
 48
50.0
100
AcDbLine
 10
9747.952627007641
 20
8445.481764573617
 30
0.0
 11
9747.952627007641
 21
8445.481764573617
 31
0.0
  0
LINE
  5
1F7EA
330
747D
100
AcDbEntity
  8
部品1
 62
     7
 48
50.0
100
AcDbLine
 10
9783.671377007641
 20
8469.294264573617
 30
0.0
 11
9783.671377007641
 21
8469.294264573617
 31
0.0
  0
LINE
  5
1F7EB
330
747D
100
AcDbEntity
  8
部品1
 62
     7
 48
50.0
100
AcDbLine
 10
9759.858877007641
 20
8469.294264573617
 30
0.0
 11
9759.858877007641
 21
8469.294264573617
 31
0.0
  0
LINE
  5
1F7EC
330
747D
100
AcDbEntity
  8
部品1
 62
     7
 48
50.0
100
AcDbLine
 10
9736.046377007641
 20
8469.294264573617
 30
0.0
 11
9736.046377007641
 21
8469.294264573617
 31
0.0
  0
LINE
  5
1F7ED
330
747D
100
AcDbEntity
  8
部品1
 62
     7
 48
50.0
100
AcDbLine
 10
9771.76512700764
 20
8493.106764573616
 30
0.0
 11
9771.76512700764
 21
8493.106764573616
 31
0.0
  0
LINE
  5
1F7EE
330
747D
100
AcDbEntity
  8
部品1
 62
     7
 48
50.0
100
AcDbLine
 10
9747.952627007641
 20
8493.106764573616
 30
0.0
 11
9747.952627007641
 21
8493.106764573616
 31
0.0
  0
LINE
  5
1F7EF
330
747D
100
AcDbEntity
  8
部品1
 62
     7
 48
50.0
100
AcDbLine
 10
9783.671377007641
 20
8516.919264573617
 30
0.0
 11
9783.671377007641
 21
8516.919264573617
 31
0.0
  0
LINE
  5
1F7F0
330
747D
100
AcDbEntity
  8
部品1
 62
     7
 48
50.0
100
AcDbLine
 10
9759.858877007641
 20
8516.919264573617
 30
0.0
 11
9759.858877007641
 21
8516.919264573617
 31
0.0
  0
LINE
  5
1F7F1
330
747D
100
AcDbEntity
  8
部品1
 62
     7
 48
50.0
100
AcDbLine
 10
9736.046377007641
 20
8516.919264573617
 30
0.0
 11
9736.046377007641
 21
8516.919264573617
 31
0.0
  0
LINE
  5
1F7F2
330
747D
100
AcDbEntity
  8
部品1
 62
     7
 48
50.0
100
AcDbLine
 10
9771.76512700764
 20
8540.731764573617
 30
0.0
 11
9771.76512700764
 21
8540.731764573617
 31
0.0
  0
LINE
  5
1F7F3
330
747D
100
AcDbEntity
  8
部品1
 62
     7
 48
50.0
100
AcDbLine
 10
9747.952627007641
 20
8540.731764573617
 30
0.0
 11
9747.952627007641
 21
8540.731764573617
 31
0.0
  0
LINE
  5
1F7F4
330
747D
100
AcDbEntity
  8
部品1
 62
     7
 48
50.0
100
AcDbLine
 10
10379.49999999999
 20
8107.955177899423
 30
0.0
 11
10179.49999999999
 21
8107.955177899423
 31
0.0
  0
LINE
  5
1F7F5
330
747D
100
AcDbEntity
  8
部品1
 62
     7
 48
50.0
100
AcDbLine
 10
11310.49999999999
 20
8107.955177899423
 30
0.0
 11
11310.49999999999
 21
7907.955177899423
 31
0.0
  0
LINE
  5
1F7F6
330
747D
100
AcDbEntity
  8
細線
 62
     7
 48
10.0
100
AcDbLine
 10
10773.49999999998
 20
7865.955177899422
 30
0.0
 11
10773.49999999998
 21
8265.955177899423
 31
0.0
  0
LINE
  5
1F7F7
330
747D
100
AcDbEntity
  8
センター
 62
     7
 48
5.0
100
AcDbLine
 10
10873.49999999998
 20
7920.955177899422
 30
0.0
 11
10873.49999999998
 21
8210.955177899423
 31
0.0
  0
LINE
  5
1F7F8
330
747D
100
AcDbEntity
  8
細線
 62
     7
 48
10.0
100
AcDbLine
 10
10973.49999999998
 20
8265.955177899423
 30
0.0
 11
10973.49999999998
 21
7865.955177899422
 31
0.0
  0
LINE
  5
1F7F9
330
747D
100
AcDbEntity
  8
細線
 62
     7
 48
10.0
100
AcDbLine
 10
10973.49999999998
 20
7865.955177899422
 30
0.0
 11
10773.49999999998
 21
7865.955177899422
 31
0.0
  0
LINE
  5
1F7FA
330
747D
100
AcDbEntity
  8
細線
 62
     7
 48
10.0
100
AcDbLine
 10
10973.49999999998
 20
7730.955177899423
 30
0.0
 11
10773.49999999998
 21
7730.955177899423
 31
0.0
  0
LINE
  5
1F7FB
330
747D
100
AcDbEntity
  8
細線
 62
     7
 48
10.0
100
AcDbLine
 10
10773.49999999998
 20
7530.955177899423
 30
0.0
 11
10973.49999999998
 21
7530.955177899423
 31
0.0
  0
LINE
  5
1F7FC
330
747D
100
AcDbEntity
  8
センター
 62
     7
 48
5.0
100
AcDbLine
 10
10728.49999999998
 20
7630.955177899423
 30
0.0
 11
11018.49999999998
 21
7630.955177899423
 31
0.0
  0
LINE
  5
1F7FD
330
747D
100
AcDbEntity
  8
センター
 62
     7
 48
5.0
100
AcDbLine
 10
10873.49999999998
 20
7775.955177899423
 30
0.0
 11
10873.49999999998
 21
7485.955177899423
 31
0.0
  0
LINE
  5
1F7FE
330
747D
100
AcDbEntity
  8
細線
 62
     7
 48
10.0
100
AcDbLine
 10
10773.49999999998
 20
7730.955177899423
 30
0.0
 11
10773.49999999998
 21
7530.955177899423
 31
0.0
  0
LINE
  5
1F7FF
330
747D
100
AcDbEntity
  8
部品1
 62
     7
 48
50.0
100
AcDbLine
 10
10867.14012700763
 20
7540.606764573614
 30
0.0
 11
10867.14012700763
 21
7540.606764573614
 31
0.0
  0
LINE
  5
1F800
330
747D
100
AcDbEntity
  8
部品1
 62
     7
 48
50.0
100
AcDbLine
 10
10843.32762700763
 20
7540.606764573614
 30
0.0
 11
10843.32762700763
 21
7540.606764573614
 31
0.0
  0
LINE
  5
1F801
330
747D
100
AcDbEntity
  8
部品1
 62
     7
 48
50.0
100
AcDbLine
 10
10819.51512700763
 20
7540.606764573614
 30
0.0
 11
10819.51512700763
 21
7540.606764573614
 31
0.0
  0
LINE
  5
1F802
330
747D
100
AcDbEntity
  8
部品1
 62
     7
 48
50.0
100
AcDbLine
 10
10795.70262700763
 20
7540.606764573614
 30
0.0
 11
10795.70262700763
 21
7540.606764573614
 31
0.0
  0
LINE
  5
1F803
330
747D
100
AcDbEntity
  8
部品1
 62
     7
 48
50.0
100
AcDbLine
 10
10962.39012700763
 20
7540.606764573614
 30
0.0
 11
10962.39012700763
 21
7540.606764573614
 31
0.0
  0
LINE
  5
1F804
330
747D
100
AcDbEntity
  8
部品1
 62
     7
 48
50.0
100
AcDbLine
 10
10938.57762700763
 20
7540.606764573614
 30
0.0
 11
10938.57762700763
 21
7540.606764573614
 31
0.0
  0
LINE
  5
1F805
330
747D
100
AcDbEntity
  8
部品1
 62
     7
 48
50.0
100
AcDbLine
 10
10914.76512700763
 20
7540.606764573614
 30
0.0
 11
10914.76512700763
 21
7540.606764573614
 31
0.0
  0
LINE
  5
1F806
330
747D
100
AcDbEntity
  8
部品1
 62
     7
 48
50.0
100
AcDbLine
 10
10890.95262700763
 20
7540.606764573614
 30
0.0
 11
10890.95262700763
 21
7540.606764573614
 31
0.0
  0
LINE
  5
1F807
330
747D
100
AcDbEntity
  8
部品1
 62
     7
 48
50.0
100
AcDbLine
 10
10855.23387700763
 20
7564.419264573615
 30
0.0
 11
10855.23387700763
 21
7564.419264573615
 31
0.0
  0
LINE
  5
1F808
330
747D
100
AcDbEntity
  8
部品1
 62
     7
 48
50.0
100
AcDbLine
 10
10831.42137700763
 20
7564.419264573615
 30
0.0
 11
10831.42137700763
 21
7564.419264573615
 31
0.0
  0
LINE
  5
1F809
330
747D
100
AcDbEntity
  8
部品1
 62
     7
 48
50.0
100
AcDbLine
 10
10807.60887700763
 20
7564.419264573615
 30
0.0
 11
10807.60887700763
 21
7564.419264573615
 31
0.0
  0
LINE
  5
1F80A
330
747D
100
AcDbEntity
  8
部品1
 62
     7
 48
50.0
100
AcDbLine
 10
10783.79637700763
 20
7564.419264573615
 30
0.0
 11
10783.79637700763
 21
7564.419264573615
 31
0.0
  0
LINE
  5
1F80B
330
747D
100
AcDbEntity
  8
部品1
 62
     7
 48
50.0
100
AcDbLine
 10
10950.48387700763
 20
7564.419264573615
 30
0.0
 11
10950.48387700763
 21
7564.419264573615
 31
0.0
  0
LINE
  5
1F80C
330
747D
100
AcDbEntity
  8
部品1
 62
     7
 48
50.0
100
AcDbLine
 10
10926.67137700763
 20
7564.419264573615
 30
0.0
 11
10926.67137700763
 21
7564.419264573615
 31
0.0
  0
LINE
  5
1F80D
330
747D
100
AcDbEntity
  8
部品1
 62
     7
 48
50.0
100
AcDbLine
 10
10902.85887700763
 20
7564.419264573615
 30
0.0
 11
10902.85887700763
 21
7564.419264573615
 31
0.0
  0
LINE
  5
1F80E
330
747D
100
AcDbEntity
  8
部品1
 62
     7
 48
50.0
100
AcDbLine
 10
10879.04637700763
 20
7564.419264573615
 30
0.0
 11
10879.04637700763
 21
7564.419264573615
 31
0.0
  0
LINE
  5
1F80F
330
747D
100
AcDbEntity
  8
部品1
 62
     7
 48
50.0
100
AcDbLine
 10
10867.14012700763
 20
7588.231764573617
 30
0.0
 11
10867.14012700763
 21
7588.231764573617
 31
0.0
  0
LINE
  5
1F810
330
747D
100
AcDbEntity
  8
部品1
 62
     7
 48
50.0
100
AcDbLine
 10
10843.32762700763
 20
7588.231764573617
 30
0.0
 11
10843.32762700763
 21
7588.231764573617
 31
0.0
  0
LINE
  5
1F811
330
747D
100
AcDbEntity
  8
部品1
 62
     7
 48
50.0
100
AcDbLine
 10
10819.51512700763
 20
7588.231764573617
 30
0.0
 11
10819.51512700763
 21
7588.231764573617
 31
0.0
  0
LINE
  5
1F812
330
747D
100
AcDbEntity
  8
部品1
 62
     7
 48
50.0
100
AcDbLine
 10
10795.70262700763
 20
7588.231764573617
 30
0.0
 11
10795.70262700763
 21
7588.231764573617
 31
0.0
  0
LINE
  5
1F813
330
747D
100
AcDbEntity
  8
部品1
 62
     7
 48
50.0
100
AcDbLine
 10
10962.39012700763
 20
7588.231764573617
 30
0.0
 11
10962.39012700763
 21
7588.231764573617
 31
0.0
  0
LINE
  5
1F814
330
747D
100
AcDbEntity
  8
部品1
 62
     7
 48
50.0
100
AcDbLine
 10
10938.57762700763
 20
7588.231764573617
 30
0.0
 11
10938.57762700763
 21
7588.231764573617
 31
0.0
  0
LINE
  5
1F815
330
747D
100
AcDbEntity
  8
部品1
 62
     7
 48
50.0
100
AcDbLine
 10
10914.76512700763
 20
7588.231764573617
 30
0.0
 11
10914.76512700763
 21
7588.231764573617
 31
0.0
  0
LINE
  5
1F816
330
747D
100
AcDbEntity
  8
部品1
 62
     7
 48
50.0
100
AcDbLine
 10
10890.95262700763
 20
7588.231764573617
 30
0.0
 11
10890.95262700763
 21
7588.231764573617
 31
0.0
  0
LINE
  5
1F817
330
747D
100
AcDbEntity
  8
部品1
 62
     7
 48
50.0
100
AcDbLine
 10
10855.23387700763
 20
7612.044264573616
 30
0.0
 11
10855.23387700763
 21
7612.044264573616
 31
0.0
  0
LINE
  5
1F818
330
747D
100
AcDbEntity
  8
部品1
 62
     7
 48
50.0
100
AcDbLine
 10
10831.42137700763
 20
7612.044264573616
 30
0.0
 11
10831.42137700763
 21
7612.044264573616
 31
0.0
  0
LINE
  5
1F819
330
747D
100
AcDbEntity
  8
部品1
 62
     7
 48
50.0
100
AcDbLine
 10
10807.60887700763
 20
7612.044264573616
 30
0.0
 11
10807.60887700763
 21
7612.044264573616
 31
0.0
  0
LINE
  5
1F81A
330
747D
100
AcDbEntity
  8
部品1
 62
     7
 48
50.0
100
AcDbLine
 10
10783.79637700763
 20
7612.044264573616
 30
0.0
 11
10783.79637700763
 21
7612.044264573616
 31
0.0
  0
LINE
  5
1F81B
330
747D
100
AcDbEntity
  8
部品1
 62
     7
 48
50.0
100
AcDbLine
 10
10950.48387700763
 20
7612.044264573616
 30
0.0
 11
10950.48387700763
 21
7612.044264573616
 31
0.0
  0
LINE
  5
1F81C
330
747D
100
AcDbEntity
  8
部品1
 62
     7
 48
50.0
100
AcDbLine
 10
10926.67137700763
 20
7612.044264573616
 30
0.0
 11
10926.67137700763
 21
7612.044264573616
 31
0.0
  0
LINE
  5
1F81D
330
747D
100
AcDbEntity
  8
部品1
 62
     7
 48
50.0
100
AcDbLine
 10
10902.85887700763
 20
7612.044264573616
 30
0.0
 11
10902.85887700763
 21
7612.044264573616
 31
0.0
  0
LINE
  5
1F81E
330
747D
100
AcDbEntity
  8
部品1
 62
     7
 48
50.0
100
AcDbLine
 10
10879.04637700763
 20
7612.044264573616
 30
0.0
 11
10879.04637700763
 21
7612.044264573616
 31
0.0
  0
LINE
  5
1F81F
330
747D
100
AcDbEntity
  8
部品1
 62
     7
 48
50.0
100
AcDbLine
 10
10867.14012700763
 20
7635.856764573617
 30
0.0
 11
10867.14012700763
 21
7635.856764573617
 31
0.0
  0
LINE
  5
1F820
330
747D
100
AcDbEntity
  8
部品1
 62
     7
 48
50.0
100
AcDbLine
 10
10843.32762700763
 20
7635.856764573617
 30
0.0
 11
10843.32762700763
 21
7635.856764573617
 31
0.0
  0
LINE
  5
1F821
330
747D
100
AcDbEntity
  8
部品1
 62
     7
 48
50.0
100
AcDbLine
 10
10819.51512700763
 20
7635.856764573617
 30
0.0
 11
10819.51512700763
 21
7635.856764573617
 31
0.0
  0
LINE
  5
1F822
330
747D
100
AcDbEntity
  8
部品1
 62
     7
 48
50.0
100
AcDbLine
 10
10795.70262700763
 20
7635.856764573617
 30
0.0
 11
10795.70262700763
 21
7635.856764573617
 31
0.0
  0
LINE
  5
1F823
330
747D
100
AcDbEntity
  8
部品1
 62
     7
 48
50.0
100
AcDbLine
 10
10962.39012700763
 20
7635.856764573617
 30
0.0
 11
10962.39012700763
 21
7635.856764573617
 31
0.0
  0
LINE
  5
1F824
330
747D
100
AcDbEntity
  8
部品1
 62
     7
 48
50.0
100
AcDbLine
 10
10938.57762700763
 20
7635.856764573617
 30
0.0
 11
10938.57762700763
 21
7635.856764573617
 31
0.0
  0
LINE
  5
1F825
330
747D
100
AcDbEntity
  8
部品1
 62
     7
 48
50.0
100
AcDbLine
 10
10914.76512700763
 20
7635.856764573617
 30
0.0
 11
10914.76512700763
 21
7635.856764573617
 31
0.0
  0
LINE
  5
1F826
330
747D
100
AcDbEntity
  8
部品1
 62
     7
 48
50.0
100
AcDbLine
 10
10890.95262700763
 20
7635.856764573617
 30
0.0
 11
10890.95262700763
 21
7635.856764573617
 31
0.0
  0
LINE
  5
1F827
330
747D
100
AcDbEntity
  8
部品1
 62
     7
 48
50.0
100
AcDbLine
 10
10855.23387700763
 20
7659.669264573617
 30
0.0
 11
10855.23387700763
 21
7659.669264573617
 31
0.0
  0
LINE
  5
1F828
330
747D
100
AcDbEntity
  8
部品1
 62
     7
 48
50.0
100
AcDbLine
 10
10831.42137700763
 20
7659.669264573617
 30
0.0
 11
10831.42137700763
 21
7659.669264573617
 31
0.0
  0
LINE
  5
1F829
330
747D
100
AcDbEntity
  8
部品1
 62
     7
 48
50.0
100
AcDbLine
 10
10807.60887700763
 20
7659.669264573617
 30
0.0
 11
10807.60887700763
 21
7659.669264573617
 31
0.0
  0
LINE
  5
1F82A
330
747D
100
AcDbEntity
  8
部品1
 62
     7
 48
50.0
100
AcDbLine
 10
10783.79637700763
 20
7659.669264573617
 30
0.0
 11
10783.79637700763
 21
7659.669264573617
 31
0.0
  0
LINE
  5
1F82B
330
747D
100
AcDbEntity
  8
部品1
 62
     7
 48
50.0
100
AcDbLine
 10
10950.48387700763
 20
7659.669264573617
 30
0.0
 11
10950.48387700763
 21
7659.669264573617
 31
0.0
  0
LINE
  5
1F82C
330
747D
100
AcDbEntity
  8
部品1
 62
     7
 48
50.0
100
AcDbLine
 10
10926.67137700763
 20
7659.669264573617
 30
0.0
 11
10926.67137700763
 21
7659.669264573617
 31
0.0
  0
LINE
  5
1F82D
330
747D
100
AcDbEntity
  8
部品1
 62
     7
 48
50.0
100
AcDbLine
 10
10902.85887700763
 20
7659.669264573617
 30
0.0
 11
10902.85887700763
 21
7659.669264573617
 31
0.0
  0
LINE
  5
1F82E
330
747D
100
AcDbEntity
  8
部品1
 62
     7
 48
50.0
100
AcDbLine
 10
10879.04637700763
 20
7659.669264573617
 30
0.0
 11
10879.04637700763
 21
7659.669264573617
 31
0.0
  0
LINE
  5
1F82F
330
747D
100
AcDbEntity
  8
部品1
 62
     7
 48
50.0
100
AcDbLine
 10
10867.14012700763
 20
7683.481764573617
 30
0.0
 11
10867.14012700763
 21
7683.481764573617
 31
0.0
  0
LINE
  5
1F830
330
747D
100
AcDbEntity
  8
部品1
 62
     7
 48
50.0
100
AcDbLine
 10
10843.32762700763
 20
7683.481764573617
 30
0.0
 11
10843.32762700763
 21
7683.481764573617
 31
0.0
  0
LINE
  5
1F831
330
747D
100
AcDbEntity
  8
部品1
 62
     7
 48
50.0
100
AcDbLine
 10
10819.51512700763
 20
7683.481764573617
 30
0.0
 11
10819.51512700763
 21
7683.481764573617
 31
0.0
  0
LINE
  5
1F832
330
747D
100
AcDbEntity
  8
部品1
 62
     7
 48
50.0
100
AcDbLine
 10
10795.70262700763
 20
7683.481764573617
 30
0.0
 11
10795.70262700763
 21
7683.481764573617
 31
0.0
  0
LINE
  5
1F833
330
747D
100
AcDbEntity
  8
部品1
 62
     7
 48
50.0
100
AcDbLine
 10
10962.39012700763
 20
7683.481764573617
 30
0.0
 11
10962.39012700763
 21
7683.481764573617
 31
0.0
  0
LINE
  5
1F834
330
747D
100
AcDbEntity
  8
部品1
 62
     7
 48
50.0
100
AcDbLine
 10
10938.57762700763
 20
7683.481764573617
 30
0.0
 11
10938.57762700763
 21
7683.481764573617
 31
0.0
  0
LINE
  5
1F835
330
747D
100
AcDbEntity
  8
部品1
 62
     7
 48
50.0
100
AcDbLine
 10
10914.76512700763
 20
7683.481764573617
 30
0.0
 11
10914.76512700763
 21
7683.481764573617
 31
0.0
  0
LINE
  5
1F836
330
747D
100
AcDbEntity
  8
部品1
 62
     7
 48
50.0
100
AcDbLine
 10
10890.95262700763
 20
7683.481764573617
 30
0.0
 11
10890.95262700763
 21
7683.481764573617
 31
0.0
  0
LINE
  5
1F837
330
747D
100
AcDbEntity
  8
部品1
 62
     7
 48
50.0
100
AcDbLine
 10
10855.23387700763
 20
7707.294264573616
 30
0.0
 11
10855.23387700763
 21
7707.294264573616
 31
0.0
  0
LINE
  5
1F838
330
747D
100
AcDbEntity
  8
部品1
 62
     7
 48
50.0
100
AcDbLine
 10
10831.42137700763
 20
7707.294264573616
 30
0.0
 11
10831.42137700763
 21
7707.294264573616
 31
0.0
  0
LINE
  5
1F839
330
747D
100
AcDbEntity
  8
部品1
 62
     7
 48
50.0
100
AcDbLine
 10
10807.60887700763
 20
7707.294264573616
 30
0.0
 11
10807.60887700763
 21
7707.294264573616
 31
0.0
  0
LINE
  5
1F83A
330
747D
100
AcDbEntity
  8
部品1
 62
     7
 48
50.0
100
AcDbLine
 10
10783.79637700763
 20
7707.294264573616
 30
0.0
 11
10783.79637700763
 21
7707.294264573616
 31
0.0
  0
LINE
  5
1F83B
330
747D
100
AcDbEntity
  8
部品1
 62
     7
 48
50.0
100
AcDbLine
 10
10950.48387700763
 20
7707.294264573616
 30
0.0
 11
10950.48387700763
 21
7707.294264573616
 31
0.0
  0
LINE
  5
1F83C
330
747D
100
AcDbEntity
  8
部品1
 62
     7
 48
50.0
100
AcDbLine
 10
10926.67137700763
 20
7707.294264573616
 30
0.0
 11
10926.67137700763
 21
7707.294264573616
 31
0.0
  0
LINE
  5
1F83D
330
747D
100
AcDbEntity
  8
部品1
 62
     7
 48
50.0
100
AcDbLine
 10
10902.85887700763
 20
7707.294264573616
 30
0.0
 11
10902.85887700763
 21
7707.294264573616
 31
0.0
  0
LINE
  5
1F83E
330
747D
100
AcDbEntity
  8
部品1
 62
     7
 48
50.0
100
AcDbLine
 10
10879.04637700763
 20
7707.294264573616
 30
0.0
 11
10879.04637700763
 21
7707.294264573616
 31
0.0
  0
LINE
  5
1F83F
330
747D
100
AcDbEntity
  8
部品1
 62
     7
 48
50.0
100
AcDbLine
 10
10962.39012700763
 20
7873.981764573617
 30
0.0
 11
10962.39012700763
 21
7873.981764573617
 31
0.0
  0
LINE
  5
1F840
330
747D
100
AcDbEntity
  8
部品1
 62
     7
 48
50.0
100
AcDbLine
 10
10938.57762700763
 20
7873.981764573617
 30
0.0
 11
10938.57762700763
 21
7873.981764573617
 31
0.0
  0
LINE
  5
1F841
330
747D
100
AcDbEntity
  8
部品1
 62
     7
 48
50.0
100
AcDbLine
 10
10914.76512700763
 20
7873.981764573617
 30
0.0
 11
10914.76512700763
 21
7873.981764573617
 31
0.0
  0
LINE
  5
1F842
330
747D
100
AcDbEntity
  8
部品1
 62
     7
 48
50.0
100
AcDbLine
 10
10890.95262700763
 20
7873.981764573617
 30
0.0
 11
10890.95262700763
 21
7873.981764573617
 31
0.0
  0
LINE
  5
1F843
330
747D
100
AcDbEntity
  8
部品1
 62
     7
 48
50.0
100
AcDbLine
 10
10867.14012700763
 20
7873.981764573617
 30
0.0
 11
10867.14012700763
 21
7873.981764573617
 31
0.0
  0
LINE
  5
1F844
330
747D
100
AcDbEntity
  8
部品1
 62
     7
 48
50.0
100
AcDbLine
 10
10843.32762700763
 20
7873.981764573617
 30
0.0
 11
10843.32762700763
 21
7873.981764573617
 31
0.0
  0
LINE
  5
1F845
330
747D
100
AcDbEntity
  8
部品1
 62
     7
 48
50.0
100
AcDbLine
 10
10819.51512700763
 20
7873.981764573617
 30
0.0
 11
10819.51512700763
 21
7873.981764573617
 31
0.0
  0
LINE
  5
1F846
330
747D
100
AcDbEntity
  8
部品1
 62
     7
 48
50.0
100
AcDbLine
 10
10795.70262700763
 20
7873.981764573617
 30
0.0
 11
10795.70262700763
 21
7873.981764573617
 31
0.0
  0
LINE
  5
1F847
330
747D
100
AcDbEntity
  8
部品1
 62
     7
 48
50.0
100
AcDbLine
 10
10950.48387700763
 20
7897.794264573616
 30
0.0
 11
10950.48387700763
 21
7897.794264573616
 31
0.0
  0
LINE
  5
1F848
330
747D
100
AcDbEntity
  8
部品1
 62
     7
 48
50.0
100
AcDbLine
 10
10926.67137700763
 20
7897.794264573616
 30
0.0
 11
10926.67137700763
 21
7897.794264573616
 31
0.0
  0
LINE
  5
1F849
330
747D
100
AcDbEntity
  8
部品1
 62
     7
 48
50.0
100
AcDbLine
 10
10902.85887700763
 20
7897.794264573616
 30
0.0
 11
10902.85887700763
 21
7897.794264573616
 31
0.0
  0
LINE
  5
1F84A
330
747D
100
AcDbEntity
  8
部品1
 62
     7
 48
50.0
100
AcDbLine
 10
10879.04637700763
 20
7897.794264573616
 30
0.0
 11
10879.04637700763
 21
7897.794264573616
 31
0.0
  0
LINE
  5
1F84B
330
747D
100
AcDbEntity
  8
部品1
 62
     7
 48
50.0
100
AcDbLine
 10
10855.23387700763
 20
7897.794264573616
 30
0.0
 11
10855.23387700763
 21
7897.794264573616
 31
0.0
  0
LINE
  5
1F84C
330
747D
100
AcDbEntity
  8
部品1
 62
     7
 48
50.0
100
AcDbLine
 10
10831.42137700763
 20
7897.794264573616
 30
0.0
 11
10831.42137700763
 21
7897.794264573616
 31
0.0
  0
LINE
  5
1F84D
330
747D
100
AcDbEntity
  8
部品1
 62
     7
 48
50.0
100
AcDbLine
 10
10807.60887700763
 20
7897.794264573616
 30
0.0
 11
10807.60887700763
 21
7897.794264573616
 31
0.0
  0
LINE
  5
1F84E
330
747D
100
AcDbEntity
  8
部品1
 62
     7
 48
50.0
100
AcDbLine
 10
10783.79637700763
 20
7897.794264573616
 30
0.0
 11
10783.79637700763
 21
7897.794264573616
 31
0.0
  0
LINE
  5
1F84F
330
747D
100
AcDbEntity
  8
部品1
 62
     7
 48
50.0
100
AcDbLine
 10
10962.39012700763
 20
7921.606764573617
 30
0.0
 11
10962.39012700763
 21
7921.606764573617
 31
0.0
  0
LINE
  5
1F850
330
747D
100
AcDbEntity
  8
部品1
 62
     7
 48
50.0
100
AcDbLine
 10
10938.57762700763
 20
7921.606764573617
 30
0.0
 11
10938.57762700763
 21
7921.606764573617
 31
0.0
  0
LINE
  5
1F851
330
747D
100
AcDbEntity
  8
部品1
 62
     7
 48
50.0
100
AcDbLine
 10
10914.76512700763
 20
7921.606764573617
 30
0.0
 11
10914.76512700763
 21
7921.606764573617
 31
0.0
  0
LINE
  5
1F852
330
747D
100
AcDbEntity
  8
部品1
 62
     7
 48
50.0
100
AcDbLine
 10
10890.95262700763
 20
7921.606764573617
 30
0.0
 11
10890.95262700763
 21
7921.606764573617
 31
0.0
  0
LINE
  5
1F853
330
747D
100
AcDbEntity
  8
部品1
 62
     7
 48
50.0
100
AcDbLine
 10
10867.14012700763
 20
7921.606764573617
 30
0.0
 11
10867.14012700763
 21
7921.606764573617
 31
0.0
  0
LINE
  5
1F854
330
747D
100
AcDbEntity
  8
部品1
 62
     7
 48
50.0
100
AcDbLine
 10
10843.32762700763
 20
7921.606764573617
 30
0.0
 11
10843.32762700763
 21
7921.606764573617
 31
0.0
  0
LINE
  5
1F855
330
747D
100
AcDbEntity
  8
部品1
 62
     7
 48
50.0
100
AcDbLine
 10
10819.51512700763
 20
7921.606764573617
 30
0.0
 11
10819.51512700763
 21
7921.606764573617
 31
0.0
  0
LINE
  5
1F856
330
747D
100
AcDbEntity
  8
部品1
 62
     7
 48
50.0
100
AcDbLine
 10
10795.70262700763
 20
7921.606764573617
 30
0.0
 11
10795.70262700763
 21
7921.606764573617
 31
0.0
  0
LINE
  5
1F857
330
747D
100
AcDbEntity
  8
部品1
 62
     7
 48
50.0
100
AcDbLine
 10
10950.48387700763
 20
7945.419264573617
 30
0.0
 11
10950.48387700763
 21
7945.419264573617
 31
0.0
  0
LINE
  5
1F858
330
747D
100
AcDbEntity
  8
部品1
 62
     7
 48
50.0
100
AcDbLine
 10
10926.67137700763
 20
7945.419264573617
 30
0.0
 11
10926.67137700763
 21
7945.419264573617
 31
0.0
  0
LINE
  5
1F859
330
747D
100
AcDbEntity
  8
部品1
 62
     7
 48
50.0
100
AcDbLine
 10
10902.85887700763
 20
7945.419264573617
 30
0.0
 11
10902.85887700763
 21
7945.419264573617
 31
0.0
  0
LINE
  5
1F85A
330
747D
100
AcDbEntity
  8
部品1
 62
     7
 48
50.0
100
AcDbLine
 10
10879.04637700763
 20
7945.419264573617
 30
0.0
 11
10879.04637700763
 21
7945.419264573617
 31
0.0
  0
LINE
  5
1F85B
330
747D
100
AcDbEntity
  8
部品1
 62
     7
 48
50.0
100
AcDbLine
 10
10855.23387700763
 20
7945.419264573617
 30
0.0
 11
10855.23387700763
 21
7945.419264573617
 31
0.0
  0
LINE
  5
1F85C
330
747D
100
AcDbEntity
  8
部品1
 62
     7
 48
50.0
100
AcDbLine
 10
10831.42137700763
 20
7945.419264573617
 30
0.0
 11
10831.42137700763
 21
7945.419264573617
 31
0.0
  0
LINE
  5
1F85D
330
747D
100
AcDbEntity
  8
部品1
 62
     7
 48
50.0
100
AcDbLine
 10
10807.60887700763
 20
7945.419264573617
 30
0.0
 11
10807.60887700763
 21
7945.419264573617
 31
0.0
  0
LINE
  5
1F85E
330
747D
100
AcDbEntity
  8
部品1
 62
     7
 48
50.0
100
AcDbLine
 10
10783.79637700763
 20
7945.419264573617
 30
0.0
 11
10783.79637700763
 21
7945.419264573617
 31
0.0
  0
LINE
  5
1F85F
330
747D
100
AcDbEntity
  8
部品1
 62
     7
 48
50.0
100
AcDbLine
 10
10962.39012700763
 20
7969.231764573617
 30
0.0
 11
10962.39012700763
 21
7969.231764573617
 31
0.0
  0
LINE
  5
1F860
330
747D
100
AcDbEntity
  8
部品1
 62
     7
 48
50.0
100
AcDbLine
 10
10938.57762700763
 20
7969.231764573617
 30
0.0
 11
10938.57762700763
 21
7969.231764573617
 31
0.0
  0
LINE
  5
1F861
330
747D
100
AcDbEntity
  8
部品1
 62
     7
 48
50.0
100
AcDbLine
 10
10914.76512700763
 20
7969.231764573617
 30
0.0
 11
10914.76512700763
 21
7969.231764573617
 31
0.0
  0
LINE
  5
1F862
330
747D
100
AcDbEntity
  8
部品1
 62
     7
 48
50.0
100
AcDbLine
 10
10890.95262700763
 20
7969.231764573617
 30
0.0
 11
10890.95262700763
 21
7969.231764573617
 31
0.0
  0
LINE
  5
1F863
330
747D
100
AcDbEntity
  8
部品1
 62
     7
 48
50.0
100
AcDbLine
 10
10867.14012700763
 20
7969.231764573617
 30
0.0
 11
10867.14012700763
 21
7969.231764573617
 31
0.0
  0
LINE
  5
1F864
330
747D
100
AcDbEntity
  8
部品1
 62
     7
 48
50.0
100
AcDbLine
 10
10843.32762700763
 20
7969.231764573617
 30
0.0
 11
10843.32762700763
 21
7969.231764573617
 31
0.0
  0
LINE
  5
1F865
330
747D
100
AcDbEntity
  8
部品1
 62
     7
 48
50.0
100
AcDbLine
 10
10819.51512700763
 20
7969.231764573617
 30
0.0
 11
10819.51512700763
 21
7969.231764573617
 31
0.0
  0
LINE
  5
1F866
330
747D
100
AcDbEntity
  8
部品1
 62
     7
 48
50.0
100
AcDbLine
 10
10795.70262700763
 20
7969.231764573617
 30
0.0
 11
10795.70262700763
 21
7969.231764573617
 31
0.0
  0
LINE
  5
1F867
330
747D
100
AcDbEntity
  8
細線
 62
     7
 48
10.0
100
AcDbLine
 10
10973.49999999998
 20
7530.955177899423
 30
0.0
 11
10973.49999999998
 21
7730.955177899423
 31
0.0
  0
LINE
  5
1F868
330
747D
100
AcDbEntity
  8
細線
 62
     7
 48
10.0
100
AcDbLine
 10
10973.49999999998
 20
8400.955177899424
 30
0.0
 11
10773.49999999998
 21
8400.955177899424
 31
0.0
  0
LINE
  5
1F869
330
747D
100
AcDbEntity
  8
センター
 62
     7
 48
5.0
100
AcDbLine
 10
10728.49999999998
 20
8500.955177899426
 30
0.0
 11
11018.49999999998
 21
8500.955177899426
 31
0.0
  0
LINE
  5
1F86A
330
747D
100
AcDbEntity
  8
細線
 62
     7
 48
10.0
100
AcDbLine
 10
10773.49999999998
 20
8265.955177899423
 30
0.0
 11
10973.49999999998
 21
8265.955177899423
 31
0.0
  0
LINE
  5
1F86B
330
747D
100
AcDbEntity
  8
センター
 62
     7
 48
5.0
100
AcDbLine
 10
11018.49999999998
 20
8065.955177899423
 30
0.0
 11
10728.49999999998
 21
8065.955177899423
 31
0.0
  0
LINE
  5
1F86C
330
747D
100
AcDbEntity
  8
部品1
 62
     7
 48
50.0
100
AcDbLine
 10
10950.48387700763
 20
7993.044264573616
 30
0.0
 11
10950.48387700763
 21
7993.044264573616
 31
0.0
  0
LINE
  5
1F86D
330
747D
100
AcDbEntity
  8
部品1
 62
     7
 48
50.0
100
AcDbLine
 10
10926.67137700763
 20
7993.044264573616
 30
0.0
 11
10926.67137700763
 21
7993.044264573616
 31
0.0
  0
LINE
  5
1F86E
330
747D
100
AcDbEntity
  8
部品1
 62
     7
 48
50.0
100
AcDbLine
 10
10902.85887700763
 20
7993.044264573616
 30
0.0
 11
10902.85887700763
 21
7993.044264573616
 31
0.0
  0
LINE
  5
1F86F
330
747D
100
AcDbEntity
  8
部品1
 62
     7
 48
50.0
100
AcDbLine
 10
10879.04637700763
 20
7993.044264573616
 30
0.0
 11
10879.04637700763
 21
7993.044264573616
 31
0.0
  0
LINE
  5
1F870
330
747D
100
AcDbEntity
  8
部品1
 62
     7
 48
50.0
100
AcDbLine
 10
10855.23387700763
 20
7993.044264573616
 30
0.0
 11
10855.23387700763
 21
7993.044264573616
 31
0.0
  0
LINE
  5
1F871
330
747D
100
AcDbEntity
  8
部品1
 62
     7
 48
50.0
100
AcDbLine
 10
10831.42137700763
 20
7993.044264573616
 30
0.0
 11
10831.42137700763
 21
7993.044264573616
 31
0.0
  0
LINE
  5
1F872
330
747D
100
AcDbEntity
  8
部品1
 62
     7
 48
50.0
100
AcDbLine
 10
10807.60887700763
 20
7993.044264573616
 30
0.0
 11
10807.60887700763
 21
7993.044264573616
 31
0.0
  0
LINE
  5
1F873
330
747D
100
AcDbEntity
  8
部品1
 62
     7
 48
50.0
100
AcDbLine
 10
10783.79637700763
 20
7993.044264573616
 30
0.0
 11
10783.79637700763
 21
7993.044264573616
 31
0.0
  0
LINE
  5
1F874
330
747D
100
AcDbEntity
  8
部品1
 62
     7
 48
50.0
100
AcDbLine
 10
10962.39012700763
 20
8016.856764573615
 30
0.0
 11
10962.39012700763
 21
8016.856764573615
 31
0.0
  0
LINE
  5
1F875
330
747D
100
AcDbEntity
  8
部品1
 62
     7
 48
50.0
100
AcDbLine
 10
10938.57762700763
 20
8016.856764573615
 30
0.0
 11
10938.57762700763
 21
8016.856764573615
 31
0.0
  0
LINE
  5
1F876
330
747D
100
AcDbEntity
  8
部品1
 62
     7
 48
50.0
100
AcDbLine
 10
10914.76512700763
 20
8016.856764573615
 30
0.0
 11
10914.76512700763
 21
8016.856764573615
 31
0.0
  0
LINE
  5
1F877
330
747D
100
AcDbEntity
  8
部品1
 62
     7
 48
50.0
100
AcDbLine
 10
10890.95262700763
 20
8016.856764573615
 30
0.0
 11
10890.95262700763
 21
8016.856764573615
 31
0.0
  0
LINE
  5
1F878
330
747D
100
AcDbEntity
  8
部品1
 62
     7
 48
50.0
100
AcDbLine
 10
10867.14012700763
 20
8016.856764573615
 30
0.0
 11
10867.14012700763
 21
8016.856764573615
 31
0.0
  0
LINE
  5
1F879
330
747D
100
AcDbEntity
  8
部品1
 62
     7
 48
50.0
100
AcDbLine
 10
10843.32762700763
 20
8016.856764573615
 30
0.0
 11
10843.32762700763
 21
8016.856764573615
 31
0.0
  0
LINE
  5
1F87A
330
747D
100
AcDbEntity
  8
部品1
 62
     7
 48
50.0
100
AcDbLine
 10
10819.51512700763
 20
8016.856764573615
 30
0.0
 11
10819.51512700763
 21
8016.856764573615
 31
0.0
  0
LINE
  5
1F87B
330
747D
100
AcDbEntity
  8
部品1
 62
     7
 48
50.0
100
AcDbLine
 10
10795.70262700763
 20
8016.856764573615
 30
0.0
 11
10795.70262700763
 21
8016.856764573615
 31
0.0
  0
LINE
  5
1F87C
330
747D
100
AcDbEntity
  8
部品1
 62
     7
 48
50.0
100
AcDbLine
 10
10950.48387700763
 20
8040.669264573617
 30
0.0
 11
10950.48387700763
 21
8040.669264573617
 31
0.0
  0
LINE
  5
1F87D
330
747D
100
AcDbEntity
  8
部品1
 62
     7
 48
50.0
100
AcDbLine
 10
10926.67137700763
 20
8040.669264573617
 30
0.0
 11
10926.67137700763
 21
8040.669264573617
 31
0.0
  0
LINE
  5
1F87E
330
747D
100
AcDbEntity
  8
部品1
 62
     7
 48
50.0
100
AcDbLine
 10
10902.85887700763
 20
8040.669264573617
 30
0.0
 11
10902.85887700763
 21
8040.669264573617
 31
0.0
  0
LINE
  5
1F87F
330
747D
100
AcDbEntity
  8
部品1
 62
     7
 48
50.0
100
AcDbLine
 10
10879.04637700763
 20
8040.669264573617
 30
0.0
 11
10879.04637700763
 21
8040.669264573617
 31
0.0
  0
LINE
  5
1F880
330
747D
100
AcDbEntity
  8
部品1
 62
     7
 48
50.0
100
AcDbLine
 10
10855.23387700763
 20
8040.669264573617
 30
0.0
 11
10855.23387700763
 21
8040.669264573617
 31
0.0
  0
LINE
  5
1F881
330
747D
100
AcDbEntity
  8
部品1
 62
     7
 48
50.0
100
AcDbLine
 10
10831.42137700763
 20
8040.669264573617
 30
0.0
 11
10831.42137700763
 21
8040.669264573617
 31
0.0
  0
LINE
  5
1F882
330
747D
100
AcDbEntity
  8
部品1
 62
     7
 48
50.0
100
AcDbLine
 10
10807.60887700763
 20
8040.669264573617
 30
0.0
 11
10807.60887700763
 21
8040.669264573617
 31
0.0
  0
LINE
  5
1F883
330
747D
100
AcDbEntity
  8
部品1
 62
     7
 48
50.0
100
AcDbLine
 10
10783.79637700763
 20
8040.669264573617
 30
0.0
 11
10783.79637700763
 21
8040.669264573617
 31
0.0
  0
LINE
  5
1F884
330
747D
100
AcDbEntity
  8
部品1
 62
     7
 48
50.0
100
AcDbLine
 10
10962.39012700763
 20
8064.481764573617
 30
0.0
 11
10962.39012700763
 21
8064.481764573617
 31
0.0
  0
LINE
  5
1F885
330
747D
100
AcDbEntity
  8
部品1
 62
     7
 48
50.0
100
AcDbLine
 10
10938.57762700763
 20
8064.481764573617
 30
0.0
 11
10938.57762700763
 21
8064.481764573617
 31
0.0
  0
LINE
  5
1F886
330
747D
100
AcDbEntity
  8
部品1
 62
     7
 48
50.0
100
AcDbLine
 10
10914.76512700763
 20
8064.481764573617
 30
0.0
 11
10914.76512700763
 21
8064.481764573617
 31
0.0
  0
LINE
  5
1F887
330
747D
100
AcDbEntity
  8
部品1
 62
     7
 48
50.0
100
AcDbLine
 10
10890.95262700763
 20
8064.481764573617
 30
0.0
 11
10890.95262700763
 21
8064.481764573617
 31
0.0
  0
LINE
  5
1F888
330
747D
100
AcDbEntity
  8
部品1
 62
     7
 48
50.0
100
AcDbLine
 10
10867.14012700763
 20
8064.481764573617
 30
0.0
 11
10867.14012700763
 21
8064.481764573617
 31
0.0
  0
LINE
  5
1F889
330
747D
100
AcDbEntity
  8
部品1
 62
     7
 48
50.0
100
AcDbLine
 10
10843.32762700763
 20
8064.481764573617
 30
0.0
 11
10843.32762700763
 21
8064.481764573617
 31
0.0
  0
LINE
  5
1F88A
330
747D
100
AcDbEntity
  8
部品1
 62
     7
 48
50.0
100
AcDbLine
 10
10819.51512700763
 20
8064.481764573617
 30
0.0
 11
10819.51512700763
 21
8064.481764573617
 31
0.0
  0
LINE
  5
1F88B
330
747D
100
AcDbEntity
  8
部品1
 62
     7
 48
50.0
100
AcDbLine
 10
10795.70262700763
 20
8064.481764573617
 30
0.0
 11
10795.70262700763
 21
8064.481764573617
 31
0.0
  0
LINE
  5
1F88C
330
747D
100
AcDbEntity
  8
部品1
 62
     7
 48
50.0
100
AcDbLine
 10
10950.48387700763
 20
8088.294264573617
 30
0.0
 11
10950.48387700763
 21
8088.294264573617
 31
0.0
  0
LINE
  5
1F88D
330
747D
100
AcDbEntity
  8
部品1
 62
     7
 48
50.0
100
AcDbLine
 10
10926.67137700763
 20
8088.294264573617
 30
0.0
 11
10926.67137700763
 21
8088.294264573617
 31
0.0
  0
LINE
  5
1F88E
330
747D
100
AcDbEntity
  8
部品1
 62
     7
 48
50.0
100
AcDbLine
 10
10902.85887700763
 20
8088.294264573617
 30
0.0
 11
10902.85887700763
 21
8088.294264573617
 31
0.0
  0
LINE
  5
1F88F
330
747D
100
AcDbEntity
  8
部品1
 62
     7
 48
50.0
100
AcDbLine
 10
10879.04637700763
 20
8088.294264573617
 30
0.0
 11
10879.04637700763
 21
8088.294264573617
 31
0.0
  0
LINE
  5
1F890
330
747D
100
AcDbEntity
  8
部品1
 62
     7
 48
50.0
100
AcDbLine
 10
10855.23387700763
 20
8088.294264573617
 30
0.0
 11
10855.23387700763
 21
8088.294264573617
 31
0.0
  0
LINE
  5
1F891
330
747D
100
AcDbEntity
  8
部品1
 62
     7
 48
50.0
100
AcDbLine
 10
10831.42137700763
 20
8088.294264573617
 30
0.0
 11
10831.42137700763
 21
8088.294264573617
 31
0.0
  0
LINE
  5
1F892
330
747D
100
AcDbEntity
  8
部品1
 62
     7
 48
50.0
100
AcDbLine
 10
10807.60887700763
 20
8088.294264573617
 30
0.0
 11
10807.60887700763
 21
8088.294264573617
 31
0.0
  0
LINE
  5
1F893
330
747D
100
AcDbEntity
  8
部品1
 62
     7
 48
50.0
100
AcDbLine
 10
10783.79637700763
 20
8088.294264573617
 30
0.0
 11
10783.79637700763
 21
8088.294264573617
 31
0.0
  0
LINE
  5
1F894
330
747D
100
AcDbEntity
  8
部品1
 62
     7
 48
50.0
100
AcDbLine
 10
10962.39012700763
 20
8112.106764573615
 30
0.0
 11
10962.39012700763
 21
8112.106764573615
 31
0.0
  0
LINE
  5
1F895
330
747D
100
AcDbEntity
  8
部品1
 62
     7
 48
50.0
100
AcDbLine
 10
10938.57762700763
 20
8112.106764573615
 30
0.0
 11
10938.57762700763
 21
8112.106764573615
 31
0.0
  0
LINE
  5
1F896
330
747D
100
AcDbEntity
  8
部品1
 62
     7
 48
50.0
100
AcDbLine
 10
10914.76512700763
 20
8112.106764573615
 30
0.0
 11
10914.76512700763
 21
8112.106764573615
 31
0.0
  0
LINE
  5
1F897
330
747D
100
AcDbEntity
  8
部品1
 62
     7
 48
50.0
100
AcDbLine
 10
10890.95262700763
 20
8112.106764573615
 30
0.0
 11
10890.95262700763
 21
8112.106764573615
 31
0.0
  0
LINE
  5
1F898
330
747D
100
AcDbEntity
  8
部品1
 62
     7
 48
50.0
100
AcDbLine
 10
10867.14012700763
 20
8112.106764573615
 30
0.0
 11
10867.14012700763
 21
8112.106764573615
 31
0.0
  0
LINE
  5
1F899
330
747D
100
AcDbEntity
  8
部品1
 62
     7
 48
50.0
100
AcDbLine
 10
10843.32762700763
 20
8112.106764573615
 30
0.0
 11
10843.32762700763
 21
8112.106764573615
 31
0.0
  0
LINE
  5
1F89A
330
747D
100
AcDbEntity
  8
部品1
 62
     7
 48
50.0
100
AcDbLine
 10
10819.51512700763
 20
8112.106764573615
 30
0.0
 11
10819.51512700763
 21
8112.106764573615
 31
0.0
  0
LINE
  5
1F89B
330
747D
100
AcDbEntity
  8
部品1
 62
     7
 48
50.0
100
AcDbLine
 10
10795.70262700763
 20
8112.106764573615
 30
0.0
 11
10795.70262700763
 21
8112.106764573615
 31
0.0
  0
LINE
  5
1F89C
330
747D
100
AcDbEntity
  8
部品1
 62
     7
 48
50.0
100
AcDbLine
 10
10950.48387700763
 20
8135.919264573617
 30
0.0
 11
10950.48387700763
 21
8135.919264573617
 31
0.0
  0
LINE
  5
1F89D
330
747D
100
AcDbEntity
  8
部品1
 62
     7
 48
50.0
100
AcDbLine
 10
10926.67137700763
 20
8135.919264573617
 30
0.0
 11
10926.67137700763
 21
8135.919264573617
 31
0.0
  0
LINE
  5
1F89E
330
747D
100
AcDbEntity
  8
部品1
 62
     7
 48
50.0
100
AcDbLine
 10
10902.85887700763
 20
8135.919264573617
 30
0.0
 11
10902.85887700763
 21
8135.919264573617
 31
0.0
  0
LINE
  5
1F89F
330
747D
100
AcDbEntity
  8
部品1
 62
     7
 48
50.0
100
AcDbLine
 10
10879.04637700763
 20
8135.919264573617
 30
0.0
 11
10879.04637700763
 21
8135.919264573617
 31
0.0
  0
LINE
  5
1F8A0
330
747D
100
AcDbEntity
  8
部品1
 62
     7
 48
50.0
100
AcDbLine
 10
10855.23387700763
 20
8135.919264573617
 30
0.0
 11
10855.23387700763
 21
8135.919264573617
 31
0.0
  0
LINE
  5
1F8A1
330
747D
100
AcDbEntity
  8
部品1
 62
     7
 48
50.0
100
AcDbLine
 10
10831.42137700763
 20
8135.919264573617
 30
0.0
 11
10831.42137700763
 21
8135.919264573617
 31
0.0
  0
LINE
  5
1F8A2
330
747D
100
AcDbEntity
  8
部品1
 62
     7
 48
50.0
100
AcDbLine
 10
10807.60887700763
 20
8135.919264573617
 30
0.0
 11
10807.60887700763
 21
8135.919264573617
 31
0.0
  0
LINE
  5
1F8A3
330
747D
100
AcDbEntity
  8
部品1
 62
     7
 48
50.0
100
AcDbLine
 10
10783.79637700763
 20
8135.919264573617
 30
0.0
 11
10783.79637700763
 21
8135.919264573617
 31
0.0
  0
LINE
  5
1F8A4
330
747D
100
AcDbEntity
  8
部品1
 62
     7
 48
50.0
100
AcDbLine
 10
10962.39012700763
 20
8159.731764573617
 30
0.0
 11
10962.39012700763
 21
8159.731764573617
 31
0.0
  0
LINE
  5
1F8A5
330
747D
100
AcDbEntity
  8
部品1
 62
     7
 48
50.0
100
AcDbLine
 10
10938.57762700763
 20
8159.731764573617
 30
0.0
 11
10938.57762700763
 21
8159.731764573617
 31
0.0
  0
LINE
  5
1F8A6
330
747D
100
AcDbEntity
  8
部品1
 62
     7
 48
50.0
100
AcDbLine
 10
10914.76512700763
 20
8159.731764573617
 30
0.0
 11
10914.76512700763
 21
8159.731764573617
 31
0.0
  0
LINE
  5
1F8A7
330
747D
100
AcDbEntity
  8
部品1
 62
     7
 48
50.0
100
AcDbLine
 10
10890.95262700763
 20
8159.731764573617
 30
0.0
 11
10890.95262700763
 21
8159.731764573617
 31
0.0
  0
LINE
  5
1F8A8
330
747D
100
AcDbEntity
  8
部品1
 62
     7
 48
50.0
100
AcDbLine
 10
10867.14012700763
 20
8159.731764573617
 30
0.0
 11
10867.14012700763
 21
8159.731764573617
 31
0.0
  0
LINE
  5
1F8A9
330
747D
100
AcDbEntity
  8
部品1
 62
     7
 48
50.0
100
AcDbLine
 10
10843.32762700763
 20
8159.731764573617
 30
0.0
 11
10843.32762700763
 21
8159.731764573617
 31
0.0
  0
LINE
  5
1F8AA
330
747D
100
AcDbEntity
  8
部品1
 62
     7
 48
50.0
100
AcDbLine
 10
10819.51512700763
 20
8159.731764573617
 30
0.0
 11
10819.51512700763
 21
8159.731764573617
 31
0.0
  0
LINE
  5
1F8AB
330
747D
100
AcDbEntity
  8
部品1
 62
     7
 48
50.0
100
AcDbLine
 10
10795.70262700763
 20
8159.731764573617
 30
0.0
 11
10795.70262700763
 21
8159.731764573617
 31
0.0
  0
LINE
  5
1F8AC
330
747D
100
AcDbEntity
  8
部品1
 62
     7
 48
50.0
100
AcDbLine
 10
10950.48387700763
 20
8183.544264573617
 30
0.0
 11
10950.48387700763
 21
8183.544264573617
 31
0.0
  0
LINE
  5
1F8AD
330
747D
100
AcDbEntity
  8
部品1
 62
     7
 48
50.0
100
AcDbLine
 10
10926.67137700763
 20
8183.544264573617
 30
0.0
 11
10926.67137700763
 21
8183.544264573617
 31
0.0
  0
LINE
  5
1F8AE
330
747D
100
AcDbEntity
  8
部品1
 62
     7
 48
50.0
100
AcDbLine
 10
10902.85887700763
 20
8183.544264573617
 30
0.0
 11
10902.85887700763
 21
8183.544264573617
 31
0.0
  0
LINE
  5
1F8AF
330
747D
100
AcDbEntity
  8
部品1
 62
     7
 48
50.0
100
AcDbLine
 10
10879.04637700763
 20
8183.544264573617
 30
0.0
 11
10879.04637700763
 21
8183.544264573617
 31
0.0
  0
LINE
  5
1F8B0
330
747D
100
AcDbEntity
  8
部品1
 62
     7
 48
50.0
100
AcDbLine
 10
10855.23387700763
 20
8183.544264573617
 30
0.0
 11
10855.23387700763
 21
8183.544264573617
 31
0.0
  0
LINE
  5
1F8B1
330
747D
100
AcDbEntity
  8
部品1
 62
     7
 48
50.0
100
AcDbLine
 10
10831.42137700763
 20
8183.544264573617
 30
0.0
 11
10831.42137700763
 21
8183.544264573617
 31
0.0
  0
LINE
  5
1F8B2
330
747D
100
AcDbEntity
  8
部品1
 62
     7
 48
50.0
100
AcDbLine
 10
10807.60887700763
 20
8183.544264573617
 30
0.0
 11
10807.60887700763
 21
8183.544264573617
 31
0.0
  0
LINE
  5
1F8B3
330
747D
100
AcDbEntity
  8
部品1
 62
     7
 48
50.0
100
AcDbLine
 10
10783.79637700763
 20
8183.544264573617
 30
0.0
 11
10783.79637700763
 21
8183.544264573617
 31
0.0
  0
LINE
  5
1F8B4
330
747D
100
AcDbEntity
  8
部品1
 62
     7
 48
50.0
100
AcDbLine
 10
10962.39012700763
 20
8207.356764573615
 30
0.0
 11
10962.39012700763
 21
8207.356764573615
 31
0.0
  0
LINE
  5
1F8B5
330
747D
100
AcDbEntity
  8
部品1
 62
     7
 48
50.0
100
AcDbLine
 10
10938.57762700763
 20
8207.356764573615
 30
0.0
 11
10938.57762700763
 21
8207.356764573615
 31
0.0
  0
LINE
  5
1F8B6
330
747D
100
AcDbEntity
  8
部品1
 62
     7
 48
50.0
100
AcDbLine
 10
10914.76512700763
 20
8207.356764573615
 30
0.0
 11
10914.76512700763
 21
8207.356764573615
 31
0.0
  0
LINE
  5
1F8B7
330
747D
100
AcDbEntity
  8
部品1
 62
     7
 48
50.0
100
AcDbLine
 10
10890.95262700763
 20
8207.356764573615
 30
0.0
 11
10890.95262700763
 21
8207.356764573615
 31
0.0
  0
LINE
  5
1F8B8
330
747D
100
AcDbEntity
  8
部品1
 62
     7
 48
50.0
100
AcDbLine
 10
10867.14012700763
 20
8207.356764573615
 30
0.0
 11
10867.14012700763
 21
8207.356764573615
 31
0.0
  0
LINE
  5
1F8B9
330
747D
100
AcDbEntity
  8
部品1
 62
     7
 48
50.0
100
AcDbLine
 10
10843.32762700763
 20
8207.356764573615
 30
0.0
 11
10843.32762700763
 21
8207.356764573615
 31
0.0
  0
LINE
  5
1F8BA
330
747D
100
AcDbEntity
  8
部品1
 62
     7
 48
50.0
100
AcDbLine
 10
10819.51512700763
 20
8207.356764573615
 30
0.0
 11
10819.51512700763
 21
8207.356764573615
 31
0.0
  0
LINE
  5
1F8BB
330
747D
100
AcDbEntity
  8
部品1
 62
     7
 48
50.0
100
AcDbLine
 10
10795.70262700763
 20
8207.356764573615
 30
0.0
 11
10795.70262700763
 21
8207.356764573615
 31
0.0
  0
LINE
  5
1F8BC
330
747D
100
AcDbEntity
  8
部品1
 62
     7
 48
50.0
100
AcDbLine
 10
10950.48387700763
 20
8231.169264573617
 30
0.0
 11
10950.48387700763
 21
8231.169264573617
 31
0.0
  0
LINE
  5
1F8BD
330
747D
100
AcDbEntity
  8
部品1
 62
     7
 48
50.0
100
AcDbLine
 10
10926.67137700763
 20
8231.169264573617
 30
0.0
 11
10926.67137700763
 21
8231.169264573617
 31
0.0
  0
LINE
  5
1F8BE
330
747D
100
AcDbEntity
  8
部品1
 62
     7
 48
50.0
100
AcDbLine
 10
10902.85887700763
 20
8231.169264573617
 30
0.0
 11
10902.85887700763
 21
8231.169264573617
 31
0.0
  0
LINE
  5
1F8BF
330
747D
100
AcDbEntity
  8
部品1
 62
     7
 48
50.0
100
AcDbLine
 10
10879.04637700763
 20
8231.169264573617
 30
0.0
 11
10879.04637700763
 21
8231.169264573617
 31
0.0
  0
LINE
  5
1F8C0
330
747D
100
AcDbEntity
  8
部品1
 62
     7
 48
50.0
100
AcDbLine
 10
10855.23387700763
 20
8231.169264573617
 30
0.0
 11
10855.23387700763
 21
8231.169264573617
 31
0.0
  0
LINE
  5
1F8C1
330
747D
100
AcDbEntity
  8
部品1
 62
     7
 48
50.0
100
AcDbLine
 10
10831.42137700763
 20
8231.169264573617
 30
0.0
 11
10831.42137700763
 21
8231.169264573617
 31
0.0
  0
LINE
  5
1F8C2
330
747D
100
AcDbEntity
  8
部品1
 62
     7
 48
50.0
100
AcDbLine
 10
10807.60887700763
 20
8231.169264573617
 30
0.0
 11
10807.60887700763
 21
8231.169264573617
 31
0.0
  0
LINE
  5
1F8C3
330
747D
100
AcDbEntity
  8
部品1
 62
     7
 48
50.0
100
AcDbLine
 10
10783.79637700763
 20
8231.169264573617
 30
0.0
 11
10783.79637700763
 21
8231.169264573617
 31
0.0
  0
LINE
  5
1F8C4
330
747D
100
AcDbEntity
  8
部品1
 62
     7
 48
50.0
100
AcDbLine
 10
10962.39012700763
 20
8254.981764573617
 30
0.0
 11
10962.39012700763
 21
8254.981764573617
 31
0.0
  0
LINE
  5
1F8C5
330
747D
100
AcDbEntity
  8
部品1
 62
     7
 48
50.0
100
AcDbLine
 10
10938.57762700763
 20
8254.981764573617
 30
0.0
 11
10938.57762700763
 21
8254.981764573617
 31
0.0
  0
LINE
  5
1F8C6
330
747D
100
AcDbEntity
  8
部品1
 62
     7
 48
50.0
100
AcDbLine
 10
10914.76512700763
 20
8254.981764573617
 30
0.0
 11
10914.76512700763
 21
8254.981764573617
 31
0.0
  0
LINE
  5
1F8C7
330
747D
100
AcDbEntity
  8
部品1
 62
     7
 48
50.0
100
AcDbLine
 10
10890.95262700763
 20
8254.981764573617
 30
0.0
 11
10890.95262700763
 21
8254.981764573617
 31
0.0
  0
LINE
  5
1F8C8
330
747D
100
AcDbEntity
  8
部品1
 62
     7
 48
50.0
100
AcDbLine
 10
10867.14012700763
 20
8254.981764573617
 30
0.0
 11
10867.14012700763
 21
8254.981764573617
 31
0.0
  0
LINE
  5
1F8C9
330
747D
100
AcDbEntity
  8
部品1
 62
     7
 48
50.0
100
AcDbLine
 10
10843.32762700763
 20
8254.981764573617
 30
0.0
 11
10843.32762700763
 21
8254.981764573617
 31
0.0
  0
LINE
  5
1F8CA
330
747D
100
AcDbEntity
  8
部品1
 62
     7
 48
50.0
100
AcDbLine
 10
10819.51512700763
 20
8254.981764573617
 30
0.0
 11
10819.51512700763
 21
8254.981764573617
 31
0.0
  0
LINE
  5
1F8CB
330
747D
100
AcDbEntity
  8
部品1
 62
     7
 48
50.0
100
AcDbLine
 10
10795.70262700763
 20
8254.981764573617
 30
0.0
 11
10795.70262700763
 21
8254.981764573617
 31
0.0
  0
LINE
  5
1F8CC
330
747D
100
AcDbEntity
  8
部品1
 62
     7
 48
50.0
100
AcDbLine
 10
10855.23387700763
 20
8421.669264573617
 30
0.0
 11
10855.23387700763
 21
8421.669264573617
 31
0.0
  0
LINE
  5
1F8CD
330
747D
100
AcDbEntity
  8
部品1
 62
     7
 48
50.0
100
AcDbLine
 10
10831.42137700763
 20
8421.669264573617
 30
0.0
 11
10831.42137700763
 21
8421.669264573617
 31
0.0
  0
LINE
  5
1F8CE
330
747D
100
AcDbEntity
  8
部品1
 62
     7
 48
50.0
100
AcDbLine
 10
10807.60887700763
 20
8421.669264573617
 30
0.0
 11
10807.60887700763
 21
8421.669264573617
 31
0.0
  0
LINE
  5
1F8CF
330
747D
100
AcDbEntity
  8
部品1
 62
     7
 48
50.0
100
AcDbLine
 10
10783.79637700763
 20
8421.669264573617
 30
0.0
 11
10783.79637700763
 21
8421.669264573617
 31
0.0
  0
LINE
  5
1F8D0
330
747D
100
AcDbEntity
  8
部品1
 62
     7
 48
50.0
100
AcDbLine
 10
10950.48387700763
 20
8421.669264573617
 30
0.0
 11
10950.48387700763
 21
8421.669264573617
 31
0.0
  0
LINE
  5
1F8D1
330
747D
100
AcDbEntity
  8
部品1
 62
     7
 48
50.0
100
AcDbLine
 10
10926.67137700763
 20
8421.669264573617
 30
0.0
 11
10926.67137700763
 21
8421.669264573617
 31
0.0
  0
LINE
  5
1F8D2
330
747D
100
AcDbEntity
  8
部品1
 62
     7
 48
50.0
100
AcDbLine
 10
10902.85887700763
 20
8421.669264573617
 30
0.0
 11
10902.85887700763
 21
8421.669264573617
 31
0.0
  0
LINE
  5
1F8D3
330
747D
100
AcDbEntity
  8
部品1
 62
     7
 48
50.0
100
AcDbLine
 10
10879.04637700763
 20
8421.669264573617
 30
0.0
 11
10879.04637700763
 21
8421.669264573617
 31
0.0
  0
LINE
  5
1F8D4
330
747D
100
AcDbEntity
  8
部品1
 62
     7
 48
50.0
100
AcDbLine
 10
10867.14012700763
 20
8445.481764573617
 30
0.0
 11
10867.14012700763
 21
8445.481764573617
 31
0.0
  0
LINE
  5
1F8D5
330
747D
100
AcDbEntity
  8
部品1
 62
     7
 48
50.0
100
AcDbLine
 10
10843.32762700763
 20
8445.481764573617
 30
0.0
 11
10843.32762700763
 21
8445.481764573617
 31
0.0
  0
LINE
  5
1F8D6
330
747D
100
AcDbEntity
  8
部品1
 62
     7
 48
50.0
100
AcDbLine
 10
10819.51512700763
 20
8445.481764573617
 30
0.0
 11
10819.51512700763
 21
8445.481764573617
 31
0.0
  0
LINE
  5
1F8D7
330
747D
100
AcDbEntity
  8
部品1
 62
     7
 48
50.0
100
AcDbLine
 10
10795.70262700763
 20
8445.481764573617
 30
0.0
 11
10795.70262700763
 21
8445.481764573617
 31
0.0
  0
LINE
  5
1F8D8
330
747D
100
AcDbEntity
  8
部品1
 62
     7
 48
50.0
100
AcDbLine
 10
10962.39012700763
 20
8445.481764573617
 30
0.0
 11
10962.39012700763
 21
8445.481764573617
 31
0.0
  0
LINE
  5
1F8D9
330
747D
100
AcDbEntity
  8
部品1
 62
     7
 48
50.0
100
AcDbLine
 10
10938.57762700763
 20
8445.481764573617
 30
0.0
 11
10938.57762700763
 21
8445.481764573617
 31
0.0
  0
LINE
  5
1F8DA
330
747D
100
AcDbEntity
  8
部品1
 62
     7
 48
50.0
100
AcDbLine
 10
10914.76512700763
 20
8445.481764573617
 30
0.0
 11
10914.76512700763
 21
8445.481764573617
 31
0.0
  0
LINE
  5
1F8DB
330
747D
100
AcDbEntity
  8
部品1
 62
     7
 48
50.0
100
AcDbLine
 10
10890.95262700763
 20
8445.481764573617
 30
0.0
 11
10890.95262700763
 21
8445.481764573617
 31
0.0
  0
LINE
  5
1F8DC
330
747D
100
AcDbEntity
  8
部品1
 62
     7
 48
50.0
100
AcDbLine
 10
10855.23387700763
 20
8469.294264573617
 30
0.0
 11
10855.23387700763
 21
8469.294264573617
 31
0.0
  0
LINE
  5
1F8DD
330
747D
100
AcDbEntity
  8
部品1
 62
     7
 48
50.0
100
AcDbLine
 10
10831.42137700763
 20
8469.294264573617
 30
0.0
 11
10831.42137700763
 21
8469.294264573617
 31
0.0
  0
LINE
  5
1F8DE
330
747D
100
AcDbEntity
  8
部品1
 62
     7
 48
50.0
100
AcDbLine
 10
10807.60887700763
 20
8469.294264573617
 30
0.0
 11
10807.60887700763
 21
8469.294264573617
 31
0.0
  0
LINE
  5
1F8DF
330
747D
100
AcDbEntity
  8
部品1
 62
     7
 48
50.0
100
AcDbLine
 10
10783.79637700763
 20
8469.294264573617
 30
0.0
 11
10783.79637700763
 21
8469.294264573617
 31
0.0
  0
LINE
  5
1F8E0
330
747D
100
AcDbEntity
  8
部品1
 62
     7
 48
50.0
100
AcDbLine
 10
10950.48387700763
 20
8469.294264573617
 30
0.0
 11
10950.48387700763
 21
8469.294264573617
 31
0.0
  0
LINE
  5
1F8E1
330
747D
100
AcDbEntity
  8
部品1
 62
     7
 48
50.0
100
AcDbLine
 10
10926.67137700763
 20
8469.294264573617
 30
0.0
 11
10926.67137700763
 21
8469.294264573617
 31
0.0
  0
LINE
  5
1F8E2
330
747D
100
AcDbEntity
  8
部品1
 62
     7
 48
50.0
100
AcDbLine
 10
10902.85887700763
 20
8469.294264573617
 30
0.0
 11
10902.85887700763
 21
8469.294264573617
 31
0.0
  0
LINE
  5
1F8E3
330
747D
100
AcDbEntity
  8
部品1
 62
     7
 48
50.0
100
AcDbLine
 10
10879.04637700763
 20
8469.294264573617
 30
0.0
 11
10879.04637700763
 21
8469.294264573617
 31
0.0
  0
LINE
  5
1F8E4
330
747D
100
AcDbEntity
  8
部品1
 62
     7
 48
50.0
100
AcDbLine
 10
10867.14012700763
 20
8493.106764573616
 30
0.0
 11
10867.14012700763
 21
8493.106764573616
 31
0.0
  0
LINE
  5
1F8E5
330
747D
100
AcDbEntity
  8
部品1
 62
     7
 48
50.0
100
AcDbLine
 10
10843.32762700763
 20
8493.106764573616
 30
0.0
 11
10843.32762700763
 21
8493.106764573616
 31
0.0
  0
LINE
  5
1F8E6
330
747D
100
AcDbEntity
  8
部品1
 62
     7
 48
50.0
100
AcDbLine
 10
10819.51512700763
 20
8493.106764573616
 30
0.0
 11
10819.51512700763
 21
8493.106764573616
 31
0.0
  0
LINE
  5
1F8E7
330
747D
100
AcDbEntity
  8
部品1
 62
     7
 48
50.0
100
AcDbLine
 10
10795.70262700763
 20
8493.106764573616
 30
0.0
 11
10795.70262700763
 21
8493.106764573616
 31
0.0
  0
LINE
  5
1F8E8
330
747D
100
AcDbEntity
  8
部品1
 62
     7
 48
50.0
100
AcDbLine
 10
10962.39012700763
 20
8493.106764573616
 30
0.0
 11
10962.39012700763
 21
8493.106764573616
 31
0.0
  0
LINE
  5
1F8E9
330
747D
100
AcDbEntity
  8
部品1
 62
     7
 48
50.0
100
AcDbLine
 10
10938.57762700763
 20
8493.106764573616
 30
0.0
 11
10938.57762700763
 21
8493.106764573616
 31
0.0
  0
LINE
  5
1F8EA
330
747D
100
AcDbEntity
  8
部品1
 62
     7
 48
50.0
100
AcDbLine
 10
10914.76512700763
 20
8493.106764573616
 30
0.0
 11
10914.76512700763
 21
8493.106764573616
 31
0.0
  0
LINE
  5
1F8EB
330
747D
100
AcDbEntity
  8
部品1
 62
     7
 48
50.0
100
AcDbLine
 10
10890.95262700763
 20
8493.106764573616
 30
0.0
 11
10890.95262700763
 21
8493.106764573616
 31
0.0
  0
LINE
  5
1F8EC
330
747D
100
AcDbEntity
  8
部品1
 62
     7
 48
50.0
100
AcDbLine
 10
10855.23387700763
 20
8516.919264573617
 30
0.0
 11
10855.23387700763
 21
8516.919264573617
 31
0.0
  0
LINE
  5
1F8ED
330
747D
100
AcDbEntity
  8
部品1
 62
     7
 48
50.0
100
AcDbLine
 10
10831.42137700763
 20
8516.919264573617
 30
0.0
 11
10831.42137700763
 21
8516.919264573617
 31
0.0
  0
LINE
  5
1F8EE
330
747D
100
AcDbEntity
  8
部品1
 62
     7
 48
50.0
100
AcDbLine
 10
10807.60887700763
 20
8516.919264573617
 30
0.0
 11
10807.60887700763
 21
8516.919264573617
 31
0.0
  0
LINE
  5
1F8EF
330
747D
100
AcDbEntity
  8
部品1
 62
     7
 48
50.0
100
AcDbLine
 10
10783.79637700763
 20
8516.919264573617
 30
0.0
 11
10783.79637700763
 21
8516.919264573617
 31
0.0
  0
LINE
  5
1F8F0
330
747D
100
AcDbEntity
  8
部品1
 62
     7
 48
50.0
100
AcDbLine
 10
10950.48387700763
 20
8516.919264573617
 30
0.0
 11
10950.48387700763
 21
8516.919264573617
 31
0.0
  0
LINE
  5
1F8F1
330
747D
100
AcDbEntity
  8
部品1
 62
     7
 48
50.0
100
AcDbLine
 10
10926.67137700763
 20
8516.919264573617
 30
0.0
 11
10926.67137700763
 21
8516.919264573617
 31
0.0
  0
LINE
  5
1F8F2
330
747D
100
AcDbEntity
  8
部品1
 62
     7
 48
50.0
100
AcDbLine
 10
10902.85887700763
 20
8516.919264573617
 30
0.0
 11
10902.85887700763
 21
8516.919264573617
 31
0.0
  0
LINE
  5
1F8F3
330
747D
100
AcDbEntity
  8
部品1
 62
     7
 48
50.0
100
AcDbLine
 10
10879.04637700763
 20
8516.919264573617
 30
0.0
 11
10879.04637700763
 21
8516.919264573617
 31
0.0
  0
LINE
  5
1F8F4
330
747D
100
AcDbEntity
  8
部品1
 62
     7
 48
50.0
100
AcDbLine
 10
10867.14012700763
 20
8540.731764573617
 30
0.0
 11
10867.14012700763
 21
8540.731764573617
 31
0.0
  0
LINE
  5
1F8F5
330
747D
100
AcDbEntity
  8
部品1
 62
     7
 48
50.0
100
AcDbLine
 10
10843.32762700763
 20
8540.731764573617
 30
0.0
 11
10843.32762700763
 21
8540.731764573617
 31
0.0
  0
LINE
  5
1F8F6
330
747D
100
AcDbEntity
  8
部品1
 62
     7
 48
50.0
100
AcDbLine
 10
10819.51512700763
 20
8540.731764573617
 30
0.0
 11
10819.51512700763
 21
8540.731764573617
 31
0.0
  0
LINE
  5
1F8F7
330
747D
100
AcDbEntity
  8
部品1
 62
     7
 48
50.0
100
AcDbLine
 10
10795.70262700763
 20
8540.731764573617
 30
0.0
 11
10795.70262700763
 21
8540.731764573617
 31
0.0
  0
LINE
  5
1F8F8
330
747D
100
AcDbEntity
  8
部品1
 62
     7
 48
50.0
100
AcDbLine
 10
10962.39012700763
 20
8540.731764573617
 30
0.0
 11
10962.39012700763
 21
8540.731764573617
 31
0.0
  0
LINE
  5
1F8F9
330
747D
100
AcDbEntity
  8
部品1
 62
     7
 48
50.0
100
AcDbLine
 10
10938.57762700763
 20
8540.731764573617
 30
0.0
 11
10938.57762700763
 21
8540.731764573617
 31
0.0
  0
LINE
  5
1F8FA
330
747D
100
AcDbEntity
  8
部品1
 62
     7
 48
50.0
100
AcDbLine
 10
10914.76512700763
 20
8540.731764573617
 30
0.0
 11
10914.76512700763
 21
8540.731764573617
 31
0.0
  0
LINE
  5
1F8FB
330
747D
100
AcDbEntity
  8
部品1
 62
     7
 48
50.0
100
AcDbLine
 10
10890.95262700763
 20
8540.731764573617
 30
0.0
 11
10890.95262700763
 21
8540.731764573617
 31
0.0
  0
LINE
  5
1F8FC
330
747D
100
AcDbEntity
  8
部品1
 62
     7
 48
50.0
100
AcDbLine
 10
9783.671377007641
 20
8564.544264573617
 30
0.0
 11
9783.671377007641
 21
8564.544264573617
 31
0.0
  0
LINE
  5
1F8FD
330
747D
100
AcDbEntity
  8
部品1
 62
     7
 48
50.0
100
AcDbLine
 10
9759.858877007641
 20
8564.544264573617
 30
0.0
 11
9759.858877007641
 21
8564.544264573617
 31
0.0
  0
LINE
  5
1F8FE
330
747D
100
AcDbEntity
  8
部品1
 62
     7
 48
50.0
100
AcDbLine
 10
9736.046377007641
 20
8564.544264573617
 30
0.0
 11
9736.046377007641
 21
8564.544264573617
 31
0.0
  0
LINE
  5
1F8FF
330
747D
100
AcDbEntity
  8
部品1
 62
     7
 48
50.0
100
AcDbLine
 10
9771.76512700764
 20
8588.356764573616
 30
0.0
 11
9771.76512700764
 21
8588.356764573616
 31
0.0
  0
LINE
  5
1F900
330
747D
100
AcDbEntity
  8
部品1
 62
     7
 48
50.0
100
AcDbLine
 10
9747.952627007641
 20
8588.356764573616
 30
0.0
 11
9747.952627007641
 21
8588.356764573616
 31
0.0
  0
LINE
  5
1F901
330
747D
100
AcDbEntity
  8
部品1
 62
     7
 48
50.0
100
AcDbLine
 10
10179.49999999999
 20
8661.955177899423
 30
0.0
 11
10179.49999999999
 21
8861.955177899423
 31
0.0
  0
LINE
  5
1F902
330
747D
100
AcDbEntity
  8
部品1
 62
     7
 48
50.0
100
AcDbLine
 10
10379.49999999999
 20
8861.955177899423
 30
0.0
 11
10379.49999999999
 21
8661.955177899423
 31
0.0
  0
LINE
  5
1F903
330
747D
100
AcDbEntity
  8
部品1
 62
     7
 48
50.0
100
AcDbLine
 10
10379.49999999999
 20
8661.955177899423
 30
0.0
 11
10179.49999999999
 21
8661.955177899423
 31
0.0
  0
LINE
  5
1F904
330
747D
100
AcDbEntity
  8
部品1
 62
     7
 48
50.0
100
AcDbLine
 10
10179.49999999999
 20
8861.955177899423
 30
0.0
 11
10379.49999999999
 21
8861.955177899423
 31
0.0
  0
LINE
  5
1F905
330
747D
100
AcDbEntity
  8
細線
 62
     7
 48
10.0
100
AcDbLine
 10
10773.49999999998
 20
8600.955177899423
 30
0.0
 11
10973.49999999998
 21
8600.955177899423
 31
0.0
  0
LINE
  5
1F906
330
747D
100
AcDbEntity
  8
部品1
 62
     7
 48
50.0
100
AcDbLine
 10
10855.23387700763
 20
8564.544264573617
 30
0.0
 11
10855.23387700763
 21
8564.544264573617
 31
0.0
  0
LINE
  5
1F907
330
747D
100
AcDbEntity
  8
部品1
 62
     7
 48
50.0
100
AcDbLine
 10
10831.42137700763
 20
8564.544264573617
 30
0.0
 11
10831.42137700763
 21
8564.544264573617
 31
0.0
  0
LINE
  5
1F908
330
747D
100
AcDbEntity
  8
部品1
 62
     7
 48
50.0
100
AcDbLine
 10
10807.60887700763
 20
8564.544264573617
 30
0.0
 11
10807.60887700763
 21
8564.544264573617
 31
0.0
  0
LINE
  5
1F909
330
747D
100
AcDbEntity
  8
部品1
 62
     7
 48
50.0
100
AcDbLine
 10
10783.79637700763
 20
8564.544264573617
 30
0.0
 11
10783.79637700763
 21
8564.544264573617
 31
0.0
  0
LINE
  5
1F90A
330
747D
100
AcDbEntity
  8
部品1
 62
     7
 48
50.0
100
AcDbLine
 10
10950.48387700763
 20
8564.544264573617
 30
0.0
 11
10950.48387700763
 21
8564.544264573617
 31
0.0
  0
LINE
  5
1F90B
330
747D
100
AcDbEntity
  8
部品1
 62
     7
 48
50.0
100
AcDbLine
 10
10926.67137700763
 20
8564.544264573617
 30
0.0
 11
10926.67137700763
 21
8564.544264573617
 31
0.0
  0
LINE
  5
1F90C
330
747D
100
AcDbEntity
  8
部品1
 62
     7
 48
50.0
100
AcDbLine
 10
10902.85887700763
 20
8564.544264573617
 30
0.0
 11
10902.85887700763
 21
8564.544264573617
 31
0.0
  0
LINE
  5
1F90D
330
747D
100
AcDbEntity
  8
部品1
 62
     7
 48
50.0
100
AcDbLine
 10
10879.04637700763
 20
8564.544264573617
 30
0.0
 11
10879.04637700763
 21
8564.544264573617
 31
0.0
  0
LINE
  5
1F90E
330
747D
100
AcDbEntity
  8
部品1
 62
     7
 48
50.0
100
AcDbLine
 10
10867.14012700763
 20
8588.356764573616
 30
0.0
 11
10867.14012700763
 21
8588.356764573616
 31
0.0
  0
LINE
  5
1F90F
330
747D
100
AcDbEntity
  8
部品1
 62
     7
 48
50.0
100
AcDbLine
 10
10843.32762700763
 20
8588.356764573616
 30
0.0
 11
10843.32762700763
 21
8588.356764573616
 31
0.0
  0
LINE
  5
1F910
330
747D
100
AcDbEntity
  8
部品1
 62
     7
 48
50.0
100
AcDbLine
 10
10819.51512700763
 20
8588.356764573616
 30
0.0
 11
10819.51512700763
 21
8588.356764573616
 31
0.0
  0
LINE
  5
1F911
330
747D
100
AcDbEntity
  8
部品1
 62
     7
 48
50.0
100
AcDbLine
 10
10795.70262700763
 20
8588.356764573616
 30
0.0
 11
10795.70262700763
 21
8588.356764573616
 31
0.0
  0
LINE
  5
1F912
330
747D
100
AcDbEntity
  8
部品1
 62
     7
 48
50.0
100
AcDbLine
 10
10962.39012700763
 20
8588.356764573616
 30
0.0
 11
10962.39012700763
 21
8588.356764573616
 31
0.0
  0
LINE
  5
1F913
330
747D
100
AcDbEntity
  8
部品1
 62
     7
 48
50.0
100
AcDbLine
 10
10938.57762700763
 20
8588.356764573616
 30
0.0
 11
10938.57762700763
 21
8588.356764573616
 31
0.0
  0
LINE
  5
1F914
330
747D
100
AcDbEntity
  8
部品1
 62
     7
 48
50.0
100
AcDbLine
 10
10914.76512700763
 20
8588.356764573616
 30
0.0
 11
10914.76512700763
 21
8588.356764573616
 31
0.0
  0
LINE
  5
1F915
330
747D
100
AcDbEntity
  8
部品1
 62
     7
 48
50.0
100
AcDbLine
 10
10890.95262700763
 20
8588.356764573616
 30
0.0
 11
10890.95262700763
 21
8588.356764573616
 31
0.0
  0
LINE
  5
1F916
330
747D
100
AcDbEntity
  8
部品1
 62
     7
 48
50.0
100
AcDbLine
 10
11110.49999999998
 20
8661.955177899423
 30
0.0
 11
11110.49999999998
 21
8861.955177899423
 31
0.0
  0
DIMENSION
  5
1F917
330
747D
100
AcDbEntity
  8
寸法
 62
     7
 48
50.0
100
AcDbDimension
  2
*D25
 10
12365.49999999998
 20
8007.955177899424
 30
0.0
 11
12265.49999999998
 21
8434.955177899428
 31
0.0
 70
    32
 71
     5
 42
854.0000000000009
  3
INABA_S50G
100
AcDbAlignedDimension
 13
12497.51782778972
 23
8861.955177899423
 33
0.0
 14
11510.49999999999
 24
8007.955177899424
 34
0.0
 50
90.0
100
AcDbRotatedDimension
  0
LINE
  5
1F918
330
747D
100
AcDbEntity
  8
部品1
 62
     7
 48
50.0
100
AcDbLine
 10
11510.49999999999
 20
7907.955177899423
 30
0.0
 11
11510.49999999999
 21
8107.955177899423
 31
0.0
  0
DIMENSION
  5
1F919
330
747D
100
AcDbEntity
  8
寸法
 62
     7
 48
50.0
100
AcDbDimension
  2
*D26
 10
12715.50000000001
 20
8956.955177899418
 30
0.0
 11
12715.5
 21
9249.658197568384
 31
0.0
 70
   160
  1
(<>)
 71
     5
 42
94.99999999999635
  3
INABA_S50G
100
AcDbAlignedDimension
 13
11655.49999999998
 23
8861.955177899423
 33
0.0
 14
11565.5
 24
8956.955177899422
 34
0.0
 50
90.0
100
AcDbRotatedDimension
  0
LINE
  5
1F91A
330
747D
100
AcDbEntity
  8
点線
 62
     7
 48
10.0
100
AcDbLine
 10
11610.49999999999
 20
8961.955177899424
 30
0.0
 11
11610.49999999999
 21
8761.955177899423
 31
0.0
  0
LINE
  5
1F91B
330
747D
100
AcDbEntity
  8
点線
 62
     7
 48
10.0
100
AcDbLine
 10
11410.49999999999
 20
8961.955177899424
 30
0.0
 11
11410.49999999999
 21
8761.955177899423
 31
0.0
  0
LINE
  5
1F91C
330
747D
100
AcDbEntity
  8
センター
 62
     7
 48
5.0
100
AcDbLine
 10
11510.49999999999
 20
9006.955177899422
 30
0.0
 11
11510.49999999999
 21
8716.955177899423
 31
0.0
  0
LINE
  5
1F91D
330
747D
100
AcDbEntity
  8
部品1
 62
     7
 48
50.0
100
AcDbLine
 10
11510.49999999999
 20
8661.955177899423
 30
0.0
 11
11510.49999999999
 21
8861.955177899423
 31
0.0
  0
LINE
  5
1F91E
330
747D
100
AcDbEntity
  8
点線
 62
     7
 48
10.0
100
AcDbLine
 10
11410.49999999999
 20
8761.955177899423
 30
0.0
 11
11610.49999999999
 21
8761.955177899423
 31
0.0
  0
LINE
  5
1F91F
330
747D
100
AcDbEntity
  8
点線
 62
     7
 48
10.0
100
AcDbLine
 10
11410.49999999999
 20
8961.955177899424
 30
0.0
 11
11610.49999999999
 21
8961.955177899424
 31
0.0
  0
TEXT
  5
1FE31
330
747D
100
AcDbEntity
  8
部品1
 62
     7
100
AcDbText
 10
10293.5807622491
 20
1772.170171482105
 30
0.0
 40
150.0
  1
G.L
  7
STYLE1
100
AcDbText
  0
LINE
  5
1FE32
330
747D
100
AcDbEntity
  8
Ｇ．Ｌ
 62
     7
100
AcDbLine
 10
9249.236229035593
 20
1749.373661269833
 30
0.0
 11
10617.77461316698
 21
1749.373661269833
 31
0.0
  0
LINE
  5
1FE33
330
747D
100
AcDbEntity
  8
部品1
 62
     7
100
AcDbLine
 10
8792.418427824532
 20
600.0
 30
0.0
 11
12792.41842782453
 21
600.0
 31
0.0
  0
LINE
  5
1FE34
330
747D
100
AcDbEntity
  8
部品1
 62
     7
100
AcDbLine
 10
12792.41842782453
 20
3000.0
 30
0.0
 11
8792.418427824532
 21
2999.999999999999
 31
0.0
  0
LINE
  5
1FE35
330
747D
100
AcDbEntity
  8
部品1
 62
     7
100
AcDbLine
 10
8792.418427824532
 20
3299.999999999999
 30
0.0
 11
12792.41842782453
 21
3299.999999999999
 31
0.0
  0
LINE
  5
1FE36
330
747D
100
AcDbEntity
  8
部品1
 62
     7
100
AcDbLine
 10
8792.418427824532
 20
3299.999999999999
 30
0.0
 11
8792.418427824532
 21
600.0
 31
0.0
  0
LINE
  5
1FE37
330
747D
100
AcDbEntity
  8
寸法
 62
     7
 48
50.0
100
AcDbLine
 10
8498.975097264189
 20
800.0000129302206
 30
0.0
 11
4394.414120747471
 21
800.0000129302206
 31
0.0
  0
TEXT
  5
1FE38
330
747D
100
AcDbEntity
  8
文字
 62
     7
 48
50.0
100
AcDbText
 10
4920.38977576022
 20
864.5205740729707
 30
0.0
 40
150.0
  1
重量物を入れる場合（根太部ブロック追加）
  7
STYLE1
100
AcDbText
  0
LINE
  5
1FE39
330
747D
100
AcDbEntity
  8
寸法
 62
     7
 48
50.0
100
AcDbLine
 10
7132.076727602889
 20
1279.625539643202
 30
0.0
 11
4394.414120747471
 21
1279.625539643202
 31
0.0
  0
TEXT
  5
1FE3A
330
747D
100
AcDbEntity
  8
文字
 62
     7
 48
50.0
100
AcDbText
 10
4413.656703010583
 20
1344.146100785952
 30
0.0
 40
150.0
  1
（　）内寸法は屋根の出幅です。
  7
STYLE1
100
AcDbText
  0
LINE
  5
1FE3B
330
747D
100
AcDbEntity
  8
細線
 62
     7
 48
10.0
100
AcDbLine
 10
4454.094974518102
 20
1084.035148905193
 30
0.0
 11
4854.094974518102
 21
1084.035148905193
 31
0.0
  0
LINE
  5
1FE3C
330
747D
100
AcDbEntity
  8
細線
 62
     7
 48
10.0
100
AcDbLine
 10
4454.094974518102
 20
884.0351489051936
 30
0.0
 11
4854.094974518102
 21
884.0351489051936
 31
0.0
  0
LINE
  5
1FE3D
330
747D
100
AcDbEntity
  8
細線
 62
     7
 48
10.0
100
AcDbLine
 10
4454.094974518102
 20
884.0351489051936
 30
0.0
 11
4454.094974518102
 21
1084.035148905193
 31
0.0
  0
LINE
  5
1FE3E
330
747D
100
AcDbEntity
  8
部品1
 62
     7
 48
50.0
100
AcDbLine
 10
4534.664115439055
 20
904.875
 30
0.0
 11
4534.664115439055
 21
904.875
 31
0.0
  0
LINE
  5
1FE3F
330
747D
100
AcDbEntity
  8
部品1
 62
     7
 48
50.0
100
AcDbLine
 10
4510.851615439053
 20
904.875
 30
0.0
 11
4510.851615439053
 21
904.875
 31
0.0
  0
LINE
  5
1FE40
330
747D
100
AcDbEntity
  8
部品1
 62
     7
 48
50.0
100
AcDbLine
 10
4487.039115439052
 20
904.875
 30
0.0
 11
4487.039115439052
 21
904.875
 31
0.0
  0
LINE
  5
1FE41
330
747D
100
AcDbEntity
  8
部品1
 62
     7
 48
50.0
100
AcDbLine
 10
4463.226615439053
 20
904.875
 30
0.0
 11
4463.226615439053
 21
904.875
 31
0.0
  0
LINE
  5
1FE42
330
747D
100
AcDbEntity
  8
部品1
 62
     7
 48
50.0
100
AcDbLine
 10
4546.570365439056
 20
928.6875
 30
0.0
 11
4546.570365439056
 21
928.6875
 31
0.0
  0
LINE
  5
1FE43
330
747D
100
AcDbEntity
  8
部品1
 62
     7
 48
50.0
100
AcDbLine
 10
4522.757865439056
 20
928.6875
 30
0.0
 11
4522.757865439056
 21
928.6875
 31
0.0
  0
LINE
  5
1FE44
330
747D
100
AcDbEntity
  8
部品1
 62
     7
 48
50.0
100
AcDbLine
 10
4498.945365439053
 20
928.6875
 30
0.0
 11
4498.945365439053
 21
928.6875
 31
0.0
  0
LINE
  5
1FE45
330
747D
100
AcDbEntity
  8
部品1
 62
     7
 48
50.0
100
AcDbLine
 10
4475.132865439053
 20
928.6875
 30
0.0
 11
4475.132865439053
 21
928.6875
 31
0.0
  0
LINE
  5
1FE46
330
747D
100
AcDbEntity
  8
部品1
 62
     7
 48
50.0
100
AcDbLine
 10
4534.664115439055
 20
952.5
 30
0.0
 11
4534.664115439055
 21
952.5
 31
0.0
  0
LINE
  5
1FE47
330
747D
100
AcDbEntity
  8
部品1
 62
     7
 48
50.0
100
AcDbLine
 10
4510.851615439053
 20
952.5
 30
0.0
 11
4510.851615439053
 21
952.5
 31
0.0
  0
LINE
  5
1FE48
330
747D
100
AcDbEntity
  8
部品1
 62
     7
 48
50.0
100
AcDbLine
 10
4487.039115439052
 20
952.5
 30
0.0
 11
4487.039115439052
 21
952.5
 31
0.0
  0
LINE
  5
1FE49
330
747D
100
AcDbEntity
  8
部品1
 62
     7
 48
50.0
100
AcDbLine
 10
4463.226615439053
 20
952.5
 30
0.0
 11
4463.226615439053
 21
952.5
 31
0.0
  0
LINE
  5
1FE4A
330
747D
100
AcDbEntity
  8
部品1
 62
     7
 48
50.0
100
AcDbLine
 10
4546.570365439056
 20
976.3125
 30
0.0
 11
4546.570365439056
 21
976.3125
 31
0.0
  0
LINE
  5
1FE4B
330
747D
100
AcDbEntity
  8
部品1
 62
     7
 48
50.0
100
AcDbLine
 10
4522.757865439056
 20
976.3125
 30
0.0
 11
4522.757865439056
 21
976.3125
 31
0.0
  0
LINE
  5
1FE4C
330
747D
100
AcDbEntity
  8
部品1
 62
     7
 48
50.0
100
AcDbLine
 10
4498.945365439053
 20
976.3125
 30
0.0
 11
4498.945365439053
 21
976.3125
 31
0.0
  0
LINE
  5
1FE4D
330
747D
100
AcDbEntity
  8
部品1
 62
     7
 48
50.0
100
AcDbLine
 10
4475.132865439053
 20
976.3125
 30
0.0
 11
4475.132865439053
 21
976.3125
 31
0.0
  0
LINE
  5
1FE4E
330
747D
100
AcDbEntity
  8
部品1
 62
     7
 48
50.0
100
AcDbLine
 10
4534.664115439055
 20
1000.125
 30
0.0
 11
4534.664115439055
 21
1000.125
 31
0.0
  0
LINE
  5
1FE4F
330
747D
100
AcDbEntity
  8
部品1
 62
     7
 48
50.0
100
AcDbLine
 10
4510.851615439053
 20
1000.125
 30
0.0
 11
4510.851615439053
 21
1000.125
 31
0.0
  0
LINE
  5
1FE50
330
747D
100
AcDbEntity
  8
部品1
 62
     7
 48
50.0
100
AcDbLine
 10
4487.039115439052
 20
1000.125
 30
0.0
 11
4487.039115439052
 21
1000.125
 31
0.0
  0
LINE
  5
1FE51
330
747D
100
AcDbEntity
  8
部品1
 62
     7
 48
50.0
100
AcDbLine
 10
4463.226615439053
 20
1000.125
 30
0.0
 11
4463.226615439053
 21
1000.125
 31
0.0
  0
LINE
  5
1FE52
330
747D
100
AcDbEntity
  8
部品1
 62
     7
 48
50.0
100
AcDbLine
 10
4546.570365439056
 20
1023.9375
 30
0.0
 11
4546.570365439056
 21
1023.9375
 31
0.0
  0
LINE
  5
1FE53
330
747D
100
AcDbEntity
  8
部品1
 62
     7
 48
50.0
100
AcDbLine
 10
4522.757865439056
 20
1023.9375
 30
0.0
 11
4522.757865439056
 21
1023.9375
 31
0.0
  0
LINE
  5
1FE54
330
747D
100
AcDbEntity
  8
部品1
 62
     7
 48
50.0
100
AcDbLine
 10
4498.945365439053
 20
1023.9375
 30
0.0
 11
4498.945365439053
 21
1023.9375
 31
0.0
  0
LINE
  5
1FE55
330
747D
100
AcDbEntity
  8
部品1
 62
     7
 48
50.0
100
AcDbLine
 10
4475.132865439053
 20
1023.9375
 30
0.0
 11
4475.132865439053
 21
1023.9375
 31
0.0
  0
LINE
  5
1FE56
330
747D
100
AcDbEntity
  8
部品1
 62
     7
 48
50.0
100
AcDbLine
 10
4748.976615439053
 20
904.875
 30
0.0
 11
4748.976615439053
 21
904.875
 31
0.0
  0
LINE
  5
1FE57
330
747D
100
AcDbEntity
  8
部品1
 62
     7
 48
50.0
100
AcDbLine
 10
4725.164115439056
 20
904.875
 30
0.0
 11
4725.164115439056
 21
904.875
 31
0.0
  0
LINE
  5
1FE58
330
747D
100
AcDbEntity
  8
部品1
 62
     7
 48
50.0
100
AcDbLine
 10
4701.351615439053
 20
904.875
 30
0.0
 11
4701.351615439053
 21
904.875
 31
0.0
  0
LINE
  5
1FE59
330
747D
100
AcDbEntity
  8
部品1
 62
     7
 48
50.0
100
AcDbLine
 10
4677.539115439055
 20
904.875
 30
0.0
 11
4677.539115439055
 21
904.875
 31
0.0
  0
LINE
  5
1FE5A
330
747D
100
AcDbEntity
  8
部品1
 62
     7
 48
50.0
100
AcDbLine
 10
4653.726615439053
 20
904.875
 30
0.0
 11
4653.726615439053
 21
904.875
 31
0.0
  0
LINE
  5
1FE5B
330
747D
100
AcDbEntity
  8
部品1
 62
     7
 48
50.0
100
AcDbLine
 10
4629.914115439055
 20
904.875
 30
0.0
 11
4629.914115439055
 21
904.875
 31
0.0
  0
LINE
  5
1FE5C
330
747D
100
AcDbEntity
  8
部品1
 62
     7
 48
50.0
100
AcDbLine
 10
4606.101615439053
 20
904.875
 30
0.0
 11
4606.101615439053
 21
904.875
 31
0.0
  0
LINE
  5
1FE5D
330
747D
100
AcDbEntity
  8
部品1
 62
     7
 48
50.0
100
AcDbLine
 10
4582.289115439055
 20
904.875
 30
0.0
 11
4582.289115439055
 21
904.875
 31
0.0
  0
LINE
  5
1FE5E
330
747D
100
AcDbEntity
  8
部品1
 62
     7
 48
50.0
100
AcDbLine
 10
4558.476615439053
 20
904.875
 30
0.0
 11
4558.476615439053
 21
904.875
 31
0.0
  0
LINE
  5
1FE5F
330
747D
100
AcDbEntity
  8
部品1
 62
     7
 48
50.0
100
AcDbLine
 10
4737.070365439056
 20
928.6875
 30
0.0
 11
4737.070365439056
 21
928.6875
 31
0.0
  0
LINE
  5
1FE60
330
747D
100
AcDbEntity
  8
部品1
 62
     7
 48
50.0
100
AcDbLine
 10
4713.257865439056
 20
928.6875
 30
0.0
 11
4713.257865439056
 21
928.6875
 31
0.0
  0
LINE
  5
1FE61
330
747D
100
AcDbEntity
  8
部品1
 62
     7
 48
50.0
100
AcDbLine
 10
4689.445365439056
 20
928.6875
 30
0.0
 11
4689.445365439056
 21
928.6875
 31
0.0
  0
LINE
  5
1FE62
330
747D
100
AcDbEntity
  8
部品1
 62
     7
 48
50.0
100
AcDbLine
 10
4665.632865439056
 20
928.6875
 30
0.0
 11
4665.632865439056
 21
928.6875
 31
0.0
  0
LINE
  5
1FE63
330
747D
100
AcDbEntity
  8
部品1
 62
     7
 48
50.0
100
AcDbLine
 10
4641.820365439056
 20
928.6875
 30
0.0
 11
4641.820365439056
 21
928.6875
 31
0.0
  0
LINE
  5
1FE64
330
747D
100
AcDbEntity
  8
部品1
 62
     7
 48
50.0
100
AcDbLine
 10
4618.007865439056
 20
928.6875
 30
0.0
 11
4618.007865439056
 21
928.6875
 31
0.0
  0
LINE
  5
1FE65
330
747D
100
AcDbEntity
  8
部品1
 62
     7
 48
50.0
100
AcDbLine
 10
4594.195365439056
 20
928.6875
 30
0.0
 11
4594.195365439056
 21
928.6875
 31
0.0
  0
LINE
  5
1FE66
330
747D
100
AcDbEntity
  8
部品1
 62
     7
 48
50.0
100
AcDbLine
 10
4570.382865439056
 20
928.6875
 30
0.0
 11
4570.382865439056
 21
928.6875
 31
0.0
  0
LINE
  5
1FE67
330
747D
100
AcDbEntity
  8
部品1
 62
     7
 48
50.0
100
AcDbLine
 10
4748.976615439053
 20
952.5
 30
0.0
 11
4748.976615439053
 21
952.5
 31
0.0
  0
LINE
  5
1FE68
330
747D
100
AcDbEntity
  8
部品1
 62
     7
 48
50.0
100
AcDbLine
 10
4725.164115439056
 20
952.5
 30
0.0
 11
4725.164115439056
 21
952.5
 31
0.0
  0
LINE
  5
1FE69
330
747D
100
AcDbEntity
  8
部品1
 62
     7
 48
50.0
100
AcDbLine
 10
4701.351615439053
 20
952.5
 30
0.0
 11
4701.351615439053
 21
952.5
 31
0.0
  0
LINE
  5
1FE6A
330
747D
100
AcDbEntity
  8
部品1
 62
     7
 48
50.0
100
AcDbLine
 10
4677.539115439055
 20
952.5
 30
0.0
 11
4677.539115439055
 21
952.5
 31
0.0
  0
LINE
  5
1FE6B
330
747D
100
AcDbEntity
  8
部品1
 62
     7
 48
50.0
100
AcDbLine
 10
4653.726615439053
 20
952.5
 30
0.0
 11
4653.726615439053
 21
952.5
 31
0.0
  0
LINE
  5
1FE6C
330
747D
100
AcDbEntity
  8
部品1
 62
     7
 48
50.0
100
AcDbLine
 10
4629.914115439055
 20
952.5
 30
0.0
 11
4629.914115439055
 21
952.5
 31
0.0
  0
LINE
  5
1FE6D
330
747D
100
AcDbEntity
  8
部品1
 62
     7
 48
50.0
100
AcDbLine
 10
4606.101615439053
 20
952.5
 30
0.0
 11
4606.101615439053
 21
952.5
 31
0.0
  0
LINE
  5
1FE6E
330
747D
100
AcDbEntity
  8
部品1
 62
     7
 48
50.0
100
AcDbLine
 10
4582.289115439055
 20
952.5
 30
0.0
 11
4582.289115439055
 21
952.5
 31
0.0
  0
LINE
  5
1FE6F
330
747D
100
AcDbEntity
  8
部品1
 62
     7
 48
50.0
100
AcDbLine
 10
4558.476615439053
 20
952.5
 30
0.0
 11
4558.476615439053
 21
952.5
 31
0.0
  0
LINE
  5
1FE70
330
747D
100
AcDbEntity
  8
部品1
 62
     7
 48
50.0
100
AcDbLine
 10
4737.070365439056
 20
976.3125
 30
0.0
 11
4737.070365439056
 21
976.3125
 31
0.0
  0
LINE
  5
1FE71
330
747D
100
AcDbEntity
  8
部品1
 62
     7
 48
50.0
100
AcDbLine
 10
4713.257865439056
 20
976.3125
 30
0.0
 11
4713.257865439056
 21
976.3125
 31
0.0
  0
LINE
  5
1FE72
330
747D
100
AcDbEntity
  8
部品1
 62
     7
 48
50.0
100
AcDbLine
 10
4689.445365439056
 20
976.3125
 30
0.0
 11
4689.445365439056
 21
976.3125
 31
0.0
  0
LINE
  5
1FE73
330
747D
100
AcDbEntity
  8
部品1
 62
     7
 48
50.0
100
AcDbLine
 10
4665.632865439056
 20
976.3125
 30
0.0
 11
4665.632865439056
 21
976.3125
 31
0.0
  0
LINE
  5
1FE74
330
747D
100
AcDbEntity
  8
部品1
 62
     7
 48
50.0
100
AcDbLine
 10
4641.820365439056
 20
976.3125
 30
0.0
 11
4641.820365439056
 21
976.3125
 31
0.0
  0
LINE
  5
1FE75
330
747D
100
AcDbEntity
  8
部品1
 62
     7
 48
50.0
100
AcDbLine
 10
4618.007865439056
 20
976.3125
 30
0.0
 11
4618.007865439056
 21
976.3125
 31
0.0
  0
LINE
  5
1FE76
330
747D
100
AcDbEntity
  8
部品1
 62
     7
 48
50.0
100
AcDbLine
 10
4594.195365439056
 20
976.3125
 30
0.0
 11
4594.195365439056
 21
976.3125
 31
0.0
  0
LINE
  5
1FE77
330
747D
100
AcDbEntity
  8
部品1
 62
     7
 48
50.0
100
AcDbLine
 10
4570.382865439056
 20
976.3125
 30
0.0
 11
4570.382865439056
 21
976.3125
 31
0.0
  0
LINE
  5
1FE78
330
747D
100
AcDbEntity
  8
部品1
 62
     7
 48
50.0
100
AcDbLine
 10
4748.976615439053
 20
1000.125
 30
0.0
 11
4748.976615439053
 21
1000.125
 31
0.0
  0
LINE
  5
1FE79
330
747D
100
AcDbEntity
  8
部品1
 62
     7
 48
50.0
100
AcDbLine
 10
4725.164115439056
 20
1000.125
 30
0.0
 11
4725.164115439056
 21
1000.125
 31
0.0
  0
LINE
  5
1FE7A
330
747D
100
AcDbEntity
  8
部品1
 62
     7
 48
50.0
100
AcDbLine
 10
4701.351615439053
 20
1000.125
 30
0.0
 11
4701.351615439053
 21
1000.125
 31
0.0
  0
LINE
  5
1FE7B
330
747D
100
AcDbEntity
  8
部品1
 62
     7
 48
50.0
100
AcDbLine
 10
4677.539115439055
 20
1000.125
 30
0.0
 11
4677.539115439055
 21
1000.125
 31
0.0
  0
LINE
  5
1FE7C
330
747D
100
AcDbEntity
  8
部品1
 62
     7
 48
50.0
100
AcDbLine
 10
4653.726615439053
 20
1000.125
 30
0.0
 11
4653.726615439053
 21
1000.125
 31
0.0
  0
LINE
  5
1FE7D
330
747D
100
AcDbEntity
  8
部品1
 62
     7
 48
50.0
100
AcDbLine
 10
4629.914115439055
 20
1000.125
 30
0.0
 11
4629.914115439055
 21
1000.125
 31
0.0
  0
LINE
  5
1FE7E
330
747D
100
AcDbEntity
  8
部品1
 62
     7
 48
50.0
100
AcDbLine
 10
4606.101615439053
 20
1000.125
 30
0.0
 11
4606.101615439053
 21
1000.125
 31
0.0
  0
LINE
  5
1FE7F
330
747D
100
AcDbEntity
  8
部品1
 62
     7
 48
50.0
100
AcDbLine
 10
4582.289115439055
 20
1000.125
 30
0.0
 11
4582.289115439055
 21
1000.125
 31
0.0
  0
LINE
  5
1FE80
330
747D
100
AcDbEntity
  8
部品1
 62
     7
 48
50.0
100
AcDbLine
 10
4558.476615439053
 20
1000.125
 30
0.0
 11
4558.476615439053
 21
1000.125
 31
0.0
  0
LINE
  5
1FE81
330
747D
100
AcDbEntity
  8
部品1
 62
     7
 48
50.0
100
AcDbLine
 10
4737.070365439056
 20
1023.9375
 30
0.0
 11
4737.070365439056
 21
1023.9375
 31
0.0
  0
LINE
  5
1FE82
330
747D
100
AcDbEntity
  8
部品1
 62
     7
 48
50.0
100
AcDbLine
 10
4713.257865439056
 20
1023.9375
 30
0.0
 11
4713.257865439056
 21
1023.9375
 31
0.0
  0
LINE
  5
1FE83
330
747D
100
AcDbEntity
  8
部品1
 62
     7
 48
50.0
100
AcDbLine
 10
4689.445365439056
 20
1023.9375
 30
0.0
 11
4689.445365439056
 21
1023.9375
 31
0.0
  0
LINE
  5
1FE84
330
747D
100
AcDbEntity
  8
部品1
 62
     7
 48
50.0
100
AcDbLine
 10
4665.632865439056
 20
1023.9375
 30
0.0
 11
4665.632865439056
 21
1023.9375
 31
0.0
  0
LINE
  5
1FE85
330
747D
100
AcDbEntity
  8
部品1
 62
     7
 48
50.0
100
AcDbLine
 10
4641.820365439056
 20
1023.9375
 30
0.0
 11
4641.820365439056
 21
1023.9375
 31
0.0
  0
LINE
  5
1FE86
330
747D
100
AcDbEntity
  8
部品1
 62
     7
 48
50.0
100
AcDbLine
 10
4618.007865439056
 20
1023.9375
 30
0.0
 11
4618.007865439056
 21
1023.9375
 31
0.0
  0
LINE
  5
1FE87
330
747D
100
AcDbEntity
  8
部品1
 62
     7
 48
50.0
100
AcDbLine
 10
4594.195365439056
 20
1023.9375
 30
0.0
 11
4594.195365439056
 21
1023.9375
 31
0.0
  0
LINE
  5
1FE88
330
747D
100
AcDbEntity
  8
部品1
 62
     7
 48
50.0
100
AcDbLine
 10
4570.382865439056
 20
1023.9375
 30
0.0
 11
4570.382865439056
 21
1023.9375
 31
0.0
  0
LINE
  5
1FE89
330
747D
100
AcDbEntity
  8
部品1
 62
     7
 48
50.0
100
AcDbLine
 10
4534.664115439055
 20
1047.75
 30
0.0
 11
4534.664115439055
 21
1047.75
 31
0.0
  0
LINE
  5
1FE8A
330
747D
100
AcDbEntity
  8
部品1
 62
     7
 48
50.0
100
AcDbLine
 10
4510.851615439053
 20
1047.75
 30
0.0
 11
4510.851615439053
 21
1047.75
 31
0.0
  0
LINE
  5
1FE8B
330
747D
100
AcDbEntity
  8
部品1
 62
     7
 48
50.0
100
AcDbLine
 10
4487.039115439052
 20
1047.75
 30
0.0
 11
4487.039115439052
 21
1047.75
 31
0.0
  0
LINE
  5
1FE8C
330
747D
100
AcDbEntity
  8
部品1
 62
     7
 48
50.0
100
AcDbLine
 10
4463.226615439053
 20
1047.75
 30
0.0
 11
4463.226615439053
 21
1047.75
 31
0.0
  0
LINE
  5
1FE8D
330
747D
100
AcDbEntity
  8
部品1
 62
     7
 48
50.0
100
AcDbLine
 10
4546.570365439056
 20
1071.5625
 30
0.0
 11
4546.570365439056
 21
1071.5625
 31
0.0
  0
LINE
  5
1FE8E
330
747D
100
AcDbEntity
  8
部品1
 62
     7
 48
50.0
100
AcDbLine
 10
4522.757865439056
 20
1071.5625
 30
0.0
 11
4522.757865439056
 21
1071.5625
 31
0.0
  0
LINE
  5
1FE8F
330
747D
100
AcDbEntity
  8
部品1
 62
     7
 48
50.0
100
AcDbLine
 10
4498.945365439053
 20
1071.5625
 30
0.0
 11
4498.945365439053
 21
1071.5625
 31
0.0
  0
LINE
  5
1FE90
330
747D
100
AcDbEntity
  8
部品1
 62
     7
 48
50.0
100
AcDbLine
 10
4475.132865439053
 20
1071.5625
 30
0.0
 11
4475.132865439053
 21
1071.5625
 31
0.0
  0
LINE
  5
1FE91
330
747D
100
AcDbEntity
  8
部品1
 62
     7
 48
50.0
100
AcDbLine
 10
4748.976615439053
 20
1047.75
 30
0.0
 11
4748.976615439053
 21
1047.75
 31
0.0
  0
LINE
  5
1FE92
330
747D
100
AcDbEntity
  8
部品1
 62
     7
 48
50.0
100
AcDbLine
 10
4725.164115439056
 20
1047.75
 30
0.0
 11
4725.164115439056
 21
1047.75
 31
0.0
  0
LINE
  5
1FE93
330
747D
100
AcDbEntity
  8
部品1
 62
     7
 48
50.0
100
AcDbLine
 10
4701.351615439053
 20
1047.75
 30
0.0
 11
4701.351615439053
 21
1047.75
 31
0.0
  0
LINE
  5
1FE94
330
747D
100
AcDbEntity
  8
部品1
 62
     7
 48
50.0
100
AcDbLine
 10
4677.539115439055
 20
1047.75
 30
0.0
 11
4677.539115439055
 21
1047.75
 31
0.0
  0
LINE
  5
1FE95
330
747D
100
AcDbEntity
  8
部品1
 62
     7
 48
50.0
100
AcDbLine
 10
4653.726615439053
 20
1047.75
 30
0.0
 11
4653.726615439053
 21
1047.75
 31
0.0
  0
LINE
  5
1FE96
330
747D
100
AcDbEntity
  8
部品1
 62
     7
 48
50.0
100
AcDbLine
 10
4629.914115439055
 20
1047.75
 30
0.0
 11
4629.914115439055
 21
1047.75
 31
0.0
  0
LINE
  5
1FE97
330
747D
100
AcDbEntity
  8
部品1
 62
     7
 48
50.0
100
AcDbLine
 10
4606.101615439053
 20
1047.75
 30
0.0
 11
4606.101615439053
 21
1047.75
 31
0.0
  0
LINE
  5
1FE98
330
747D
100
AcDbEntity
  8
部品1
 62
     7
 48
50.0
100
AcDbLine
 10
4582.289115439055
 20
1047.75
 30
0.0
 11
4582.289115439055
 21
1047.75
 31
0.0
  0
LINE
  5
1FE99
330
747D
100
AcDbEntity
  8
部品1
 62
     7
 48
50.0
100
AcDbLine
 10
4558.476615439053
 20
1047.75
 30
0.0
 11
4558.476615439053
 21
1047.75
 31
0.0
  0
LINE
  5
1FE9A
330
747D
100
AcDbEntity
  8
部品1
 62
     7
 48
50.0
100
AcDbLine
 10
4737.070365439056
 20
1071.5625
 30
0.0
 11
4737.070365439056
 21
1071.5625
 31
0.0
  0
LINE
  5
1FE9B
330
747D
100
AcDbEntity
  8
部品1
 62
     7
 48
50.0
100
AcDbLine
 10
4713.257865439056
 20
1071.5625
 30
0.0
 11
4713.257865439056
 21
1071.5625
 31
0.0
  0
LINE
  5
1FE9C
330
747D
100
AcDbEntity
  8
部品1
 62
     7
 48
50.0
100
AcDbLine
 10
4689.445365439056
 20
1071.5625
 30
0.0
 11
4689.445365439056
 21
1071.5625
 31
0.0
  0
LINE
  5
1FE9D
330
747D
100
AcDbEntity
  8
部品1
 62
     7
 48
50.0
100
AcDbLine
 10
4665.632865439056
 20
1071.5625
 30
0.0
 11
4665.632865439056
 21
1071.5625
 31
0.0
  0
LINE
  5
1FE9E
330
747D
100
AcDbEntity
  8
部品1
 62
     7
 48
50.0
100
AcDbLine
 10
4641.820365439056
 20
1071.5625
 30
0.0
 11
4641.820365439056
 21
1071.5625
 31
0.0
  0
LINE
  5
1FE9F
330
747D
100
AcDbEntity
  8
部品1
 62
     7
 48
50.0
100
AcDbLine
 10
4618.007865439056
 20
1071.5625
 30
0.0
 11
4618.007865439056
 21
1071.5625
 31
0.0
  0
LINE
  5
1FEA0
330
747D
100
AcDbEntity
  8
部品1
 62
     7
 48
50.0
100
AcDbLine
 10
4594.195365439056
 20
1071.5625
 30
0.0
 11
4594.195365439056
 21
1071.5625
 31
0.0
  0
LINE
  5
1FEA1
330
747D
100
AcDbEntity
  8
部品1
 62
     7
 48
50.0
100
AcDbLine
 10
4570.382865439056
 20
1071.5625
 30
0.0
 11
4570.382865439056
 21
1071.5625
 31
0.0
  0
LINE
  5
1FEA2
330
747D
100
AcDbEntity
  8
細線
 62
     7
 48
10.0
100
AcDbLine
 10
4854.094974518102
 20
1084.035148905193
 30
0.0
 11
4854.094974518102
 21
884.0351489051936
 31
0.0
  0
LINE
  5
1FEA3
330
747D
100
AcDbEntity
  8
部品1
 62
     7
 48
50.0
100
AcDbLine
 10
4844.226615439056
 20
904.875
 30
0.0
 11
4844.226615439056
 21
904.875
 31
0.0
  0
LINE
  5
1FEA4
330
747D
100
AcDbEntity
  8
部品1
 62
     7
 48
50.0
100
AcDbLine
 10
4820.414115439056
 20
904.875
 30
0.0
 11
4820.414115439056
 21
904.875
 31
0.0
  0
LINE
  5
1FEA5
330
747D
100
AcDbEntity
  8
部品1
 62
     7
 48
50.0
100
AcDbLine
 10
4796.601615439053
 20
904.875
 30
0.0
 11
4796.601615439053
 21
904.875
 31
0.0
  0
LINE
  5
1FEA6
330
747D
100
AcDbEntity
  8
部品1
 62
     7
 48
50.0
100
AcDbLine
 10
4772.789115439056
 20
904.875
 30
0.0
 11
4772.789115439056
 21
904.875
 31
0.0
  0
LINE
  5
1FEA7
330
747D
100
AcDbEntity
  8
部品1
 62
     7
 48
50.0
100
AcDbLine
 10
4832.320365439056
 20
928.6875
 30
0.0
 11
4832.320365439056
 21
928.6875
 31
0.0
  0
LINE
  5
1FEA8
330
747D
100
AcDbEntity
  8
部品1
 62
     7
 48
50.0
100
AcDbLine
 10
4808.507865439053
 20
928.6875
 30
0.0
 11
4808.507865439053
 21
928.6875
 31
0.0
  0
LINE
  5
1FEA9
330
747D
100
AcDbEntity
  8
部品1
 62
     7
 48
50.0
100
AcDbLine
 10
4784.695365439056
 20
928.6875
 30
0.0
 11
4784.695365439056
 21
928.6875
 31
0.0
  0
LINE
  5
1FEAA
330
747D
100
AcDbEntity
  8
部品1
 62
     7
 48
50.0
100
AcDbLine
 10
4760.882865439053
 20
928.6875
 30
0.0
 11
4760.882865439053
 21
928.6875
 31
0.0
  0
LINE
  5
1FEAB
330
747D
100
AcDbEntity
  8
部品1
 62
     7
 48
50.0
100
AcDbLine
 10
4844.226615439056
 20
952.5
 30
0.0
 11
4844.226615439056
 21
952.5
 31
0.0
  0
LINE
  5
1FEAC
330
747D
100
AcDbEntity
  8
部品1
 62
     7
 48
50.0
100
AcDbLine
 10
4820.414115439056
 20
952.5
 30
0.0
 11
4820.414115439056
 21
952.5
 31
0.0
  0
LINE
  5
1FEAD
330
747D
100
AcDbEntity
  8
部品1
 62
     7
 48
50.0
100
AcDbLine
 10
4796.601615439053
 20
952.5
 30
0.0
 11
4796.601615439053
 21
952.5
 31
0.0
  0
LINE
  5
1FEAE
330
747D
100
AcDbEntity
  8
部品1
 62
     7
 48
50.0
100
AcDbLine
 10
4772.789115439056
 20
952.5
 30
0.0
 11
4772.789115439056
 21
952.5
 31
0.0
  0
LINE
  5
1FEAF
330
747D
100
AcDbEntity
  8
部品1
 62
     7
 48
50.0
100
AcDbLine
 10
4832.320365439056
 20
976.3125
 30
0.0
 11
4832.320365439056
 21
976.3125
 31
0.0
  0
LINE
  5
1FEB0
330
747D
100
AcDbEntity
  8
部品1
 62
     7
 48
50.0
100
AcDbLine
 10
4808.507865439053
 20
976.3125
 30
0.0
 11
4808.507865439053
 21
976.3125
 31
0.0
  0
LINE
  5
1FEB1
330
747D
100
AcDbEntity
  8
部品1
 62
     7
 48
50.0
100
AcDbLine
 10
4784.695365439056
 20
976.3125
 30
0.0
 11
4784.695365439056
 21
976.3125
 31
0.0
  0
LINE
  5
1FEB2
330
747D
100
AcDbEntity
  8
部品1
 62
     7
 48
50.0
100
AcDbLine
 10
4760.882865439053
 20
976.3125
 30
0.0
 11
4760.882865439053
 21
976.3125
 31
0.0
  0
LINE
  5
1FEB3
330
747D
100
AcDbEntity
  8
部品1
 62
     7
 48
50.0
100
AcDbLine
 10
4844.226615439056
 20
1000.125
 30
0.0
 11
4844.226615439056
 21
1000.125
 31
0.0
  0
LINE
  5
1FEB4
330
747D
100
AcDbEntity
  8
部品1
 62
     7
 48
50.0
100
AcDbLine
 10
4820.414115439056
 20
1000.125
 30
0.0
 11
4820.414115439056
 21
1000.125
 31
0.0
  0
LINE
  5
1FEB5
330
747D
100
AcDbEntity
  8
部品1
 62
     7
 48
50.0
100
AcDbLine
 10
4796.601615439053
 20
1000.125
 30
0.0
 11
4796.601615439053
 21
1000.125
 31
0.0
  0
LINE
  5
1FEB6
330
747D
100
AcDbEntity
  8
部品1
 62
     7
 48
50.0
100
AcDbLine
 10
4772.789115439056
 20
1000.125
 30
0.0
 11
4772.789115439056
 21
1000.125
 31
0.0
  0
LINE
  5
1FEB7
330
747D
100
AcDbEntity
  8
部品1
 62
     7
 48
50.0
100
AcDbLine
 10
4832.320365439056
 20
1023.9375
 30
0.0
 11
4832.320365439056
 21
1023.9375
 31
0.0
  0
LINE
  5
1FEB8
330
747D
100
AcDbEntity
  8
部品1
 62
     7
 48
50.0
100
AcDbLine
 10
4808.507865439053
 20
1023.9375
 30
0.0
 11
4808.507865439053
 21
1023.9375
 31
0.0
  0
LINE
  5
1FEB9
330
747D
100
AcDbEntity
  8
部品1
 62
     7
 48
50.0
100
AcDbLine
 10
4784.695365439056
 20
1023.9375
 30
0.0
 11
4784.695365439056
 21
1023.9375
 31
0.0
  0
LINE
  5
1FEBA
330
747D
100
AcDbEntity
  8
部品1
 62
     7
 48
50.0
100
AcDbLine
 10
4760.882865439053
 20
1023.9375
 30
0.0
 11
4760.882865439053
 21
1023.9375
 31
0.0
  0
LINE
  5
1FEBB
330
747D
100
AcDbEntity
  8
部品1
 62
     7
 48
50.0
100
AcDbLine
 10
4844.226615439056
 20
1047.75
 30
0.0
 11
4844.226615439056
 21
1047.75
 31
0.0
  0
LINE
  5
1FEBC
330
747D
100
AcDbEntity
  8
部品1
 62
     7
 48
50.0
100
AcDbLine
 10
4820.414115439056
 20
1047.75
 30
0.0
 11
4820.414115439056
 21
1047.75
 31
0.0
  0
LINE
  5
1FEBD
330
747D
100
AcDbEntity
  8
部品1
 62
     7
 48
50.0
100
AcDbLine
 10
4796.601615439053
 20
1047.75
 30
0.0
 11
4796.601615439053
 21
1047.75
 31
0.0
  0
LINE
  5
1FEBE
330
747D
100
AcDbEntity
  8
部品1
 62
     7
 48
50.0
100
AcDbLine
 10
4772.789115439056
 20
1047.75
 30
0.0
 11
4772.789115439056
 21
1047.75
 31
0.0
  0
LINE
  5
1FEBF
330
747D
100
AcDbEntity
  8
部品1
 62
     7
 48
50.0
100
AcDbLine
 10
4832.320365439056
 20
1071.5625
 30
0.0
 11
4832.320365439056
 21
1071.5625
 31
0.0
  0
LINE
  5
1FEC0
330
747D
100
AcDbEntity
  8
部品1
 62
     7
 48
50.0
100
AcDbLine
 10
4808.507865439053
 20
1071.5625
 30
0.0
 11
4808.507865439053
 21
1071.5625
 31
0.0
  0
LINE
  5
1FEC1
330
747D
100
AcDbEntity
  8
部品1
 62
     7
 48
50.0
100
AcDbLine
 10
4784.695365439056
 20
1071.5625
 30
0.0
 11
4784.695365439056
 21
1071.5625
 31
0.0
  0
LINE
  5
1FEC2
330
747D
100
AcDbEntity
  8
部品1
 62
     7
 48
50.0
100
AcDbLine
 10
4760.882865439053
 20
1071.5625
 30
0.0
 11
4760.882865439053
 21
1071.5625
 31
0.0
  0
LINE
  5
1FEC3
330
747D
100
AcDbEntity
  8
部品1
 62
     7
100
AcDbLine
 10
10049.23622903559
 20
1749.373661269833
 30
0.0
 11
10049.23622903559
 21
1449.373661269832
 31
0.0
  0
LINE
  5
1FEC4
330
747D
100
AcDbEntity
  8
細線
 62
     7
100
AcDbLine
 10
9876.031148278705
 20
1649.373661269833
 30
0.0
 11
9862.633688657147
 21
1599.373661269833
 31
0.0
  0
LINE
  5
1FEC5
330
747D
100
AcDbEntity
  8
細線
 62
     7
100
AcDbLine
 10
9976.031148278709
 20
1649.373661269833
 30
0.0
 11
9962.633688657149
 21
1599.373661269833
 31
0.0
  0
LINE
  5
1FEC6
330
747D
100
AcDbEntity
  8
細線
 62
     7
100
AcDbLine
 10
9676.031148278706
 20
1649.373661269833
 30
0.0
 11
9662.633688657148
 21
1599.373661269833
 31
0.0
  0
LINE
  5
1FEC7
330
747D
100
AcDbEntity
  8
細線
 62
     7
100
AcDbLine
 10
9776.031148278704
 20
1649.373661269833
 30
0.0
 11
9762.63368865715
 21
1599.373661269833
 31
0.0
  0
LINE
  5
1FEC8
330
747D
100
AcDbEntity
  8
細線
 62
     7
100
AcDbLine
 10
9649.236229035594
 20
1649.373661269833
 30
0.0
 11
9702.826067521819
 21
1449.37366126983
 31
0.0
  0
LINE
  5
1FEC9
330
747D
100
AcDbEntity
  8
細線
 62
     7
100
AcDbLine
 10
9749.236229035593
 20
1649.373661269833
 30
0.0
 11
9802.82606752182
 21
1449.37366126983
 31
0.0
  0
LINE
  5
1FECA
330
747D
100
AcDbEntity
  8
細線
 62
     7
100
AcDbLine
 10
9849.236229035597
 20
1649.373661269833
 30
0.0
 11
9902.826067521814
 21
1449.37366126983
 31
0.0
  0
LINE
  5
1FECB
330
747D
100
AcDbEntity
  8
細線
 62
     7
100
AcDbLine
 10
9949.236229035593
 20
1649.373661269833
 30
0.0
 11
10002.82606752181
 21
1449.373661269832
 31
0.0
  0
LINE
  5
1FECC
330
747D
100
AcDbEntity
  8
細線
 62
     7
100
AcDbLine
 10
9476.031148278705
 20
1649.37366126983
 30
0.0
 11
9462.633688657152
 21
1599.373661269829
 31
0.0
  0
LINE
  5
1FECD
330
747D
100
AcDbEntity
  8
細線
 62
     7
100
AcDbLine
 10
9576.031148278705
 20
1649.37366126983
 30
0.0
 11
9562.633688657149
 21
1599.373661269829
 31
0.0
  0
LINE
  5
1FECE
330
747D
100
AcDbEntity
  8
細線
 62
     7
100
AcDbLine
 10
9449.236229035593
 20
1649.37366126983
 30
0.0
 11
9502.826067521818
 21
1449.373661269826
 31
0.0
  0
LINE
  5
1FECF
330
747D
100
AcDbEntity
  8
部品1
 62
     7
100
AcDbLine
 10
9449.236229035593
 20
1449.37366126983
 30
0.0
 11
9449.236229035593
 21
1749.373661269833
 31
0.0
  0
LINE
  5
1FED0
330
747D
100
AcDbEntity
  8
細線
 62
     7
100
AcDbLine
 10
9549.236229035594
 20
1649.37366126983
 30
0.0
 11
9602.826067521817
 21
1449.373661269826
 31
0.0
  0
LINE
  5
1FED1
330
747D
100
AcDbEntity
  8
細線
 62
     7
100
AcDbLine
 10
9689.428607900261
 20
1499.373661269833
 30
0.0
 11
9676.031148278706
 21
1449.373661269832
 31
0.0
  0
LINE
  5
1FED2
330
747D
100
AcDbEntity
  8
部品1
 62
     7
100
AcDbLine
 10
9449.236229035593
 20
1449.37366126983
 30
0.0
 11
10049.23622903559
 21
1449.373661269832
 31
0.0
  0
LINE
  5
1FED3
330
747D
100
AcDbEntity
  8
細線
 62
     7
100
AcDbLine
 10
9489.42860790026
 20
1499.37366126983
 30
0.0
 11
9476.031148278705
 21
1449.37366126983
 31
0.0
  0
LINE
  5
1FED4
330
747D
100
AcDbEntity
  8
細線
 62
     7
100
AcDbLine
 10
9589.428607900259
 20
1499.37366126983
 30
0.0
 11
9576.031148278705
 21
1449.37366126983
 31
0.0
  0
LINE
  5
1FED5
330
747D
100
AcDbEntity
  8
細線
 62
     7
100
AcDbLine
 10
9889.428607900264
 20
1499.373661269833
 30
0.0
 11
9876.031148278705
 21
1449.373661269832
 31
0.0
  0
LINE
  5
1FED6
330
747D
100
AcDbEntity
  8
細線
 62
     7
100
AcDbLine
 10
9789.42860790026
 20
1499.373661269833
 30
0.0
 11
9776.031148278704
 21
1449.373661269832
 31
0.0
  0
LINE
  5
1FED7
330
747D
100
AcDbEntity
  8
細線
 62
     7
100
AcDbLine
 10
9989.42860790026
 20
1499.373661269833
 30
0.0
 11
9976.031148278709
 21
1449.373661269832
 31
0.0
  0
LINE
  5
1FED8
330
747D
100
AcDbEntity
  8
部品1
 62
     7
100
AcDbLine
 10
9549.236229035594
 20
1949.373661269833
 30
0.0
 11
9949.236229035593
 21
1949.373661269833
 31
0.0
  0
LINE
  5
1FED9
330
747D
100
AcDbEntity
  8
細線
 62
     7
100
AcDbLine
 10
9711.430673766246
 20
1749.373661269833
 30
0.0
 11
9549.236229035592
 21
1911.568106000485
 31
0.0
  0
LINE
  5
1FEDA
330
747D
100
AcDbEntity
  8
部品1
 62
     7
100
AcDbLine
 10
9449.236229035593
 20
1649.37366126983
 30
0.0
 11
10049.23622903559
 21
1649.373661269833
 31
0.0
  0
LINE
  5
1FEDB
330
747D
100
AcDbEntity
  8
部品1
 62
     7
100
AcDbLine
 10
9549.236229035594
 20
1749.373661269833
 30
0.0
 11
9549.236229035594
 21
1949.373661269833
 31
0.0
  0
LINE
  5
1FEDC
330
747D
100
AcDbEntity
  8
細線
 62
     7
100
AcDbLine
 10
9519.848987496159
 20
1649.37366126983
 30
0.0
 11
9619.848987496158
 21
1749.373661269833
 31
0.0
  0
LINE
  5
1FEDD
330
747D
100
AcDbEntity
  8
細線
 62
     7
100
AcDbLine
 10
9576.417529991084
 20
1649.373661269831
 30
0.0
 11
9676.417529991082
 21
1749.373661269833
 31
0.0
  0
LINE
  5
1FEDE
330
747D
100
AcDbEntity
  8
細線
 62
     7
100
AcDbLine
 10
9548.133258743623
 20
1649.373661269833
 30
0.0
 11
9648.133258743621
 21
1749.373661269833
 31
0.0
  0
LINE
  5
1FEDF
330
747D
100
AcDbEntity
  8
細線
 62
     7
100
AcDbLine
 10
9669.004266895056
 20
1749.373661269833
 30
0.0
 11
9549.236229035594
 21
1869.141699129293
 31
0.0
  0
MTEXT
  5
1FEE0
102
{ACAD_REACTORS
330
1FEE1
102
}
330
747D
100
AcDbEntity
  8
寸法
 62
     7
 48
50.0
100
AcDbMText
 10
9978.158987327649
 20
2270.806562121256
 30
0.0
 40
150.0
 41
1.0
 71
     4
 72
     1
  1
\A1;C.B
  7
STYLE1
 73
     1
 44
1.0
  0
LEADER
  5
1FEE1
330
747D
100
AcDbEntity
  8
寸法
 62
     7
 48
50.0
100
AcDbLeader
  3
INABA_S50G
 73
     0
 74
     0
 75
     1
 40
150.0
 41
231.9898538650463
 76
     3
 10
9749.236229035595
 20
1949.373661269833
 30
0.0
 10
9828.158987327649
 20
2170.806562121256
 30
0.0
 10
9953.158987327649
 20
2170.806562121256
 30
0.0
340
1FEE0
1001
ACAD
1000
DSTYLE
1002
{
1070
    40
1040
1.0
1002
}
  0
LINE
  5
1FEE2
330
747D
100
AcDbEntity
  8
細線
 62
     7
100
AcDbLine
 10
9937.704843745946
 20
1749.373661269833
 30
0.0
 11
9737.704843745945
 21
1949.373661269833
 31
0.0
  0
LINE
  5
1FEE3
330
747D
100
AcDbEntity
  8
細線
 62
     7
100
AcDbLine
 10
9895.278436874749
 20
1749.373661269833
 30
0.0
 11
9695.278436874753
 21
1949.373661269833
 31
0.0
  0
LINE
  5
1FEE4
330
747D
100
AcDbEntity
  8
部品1
 62
     7
100
AcDbLine
 10
9949.236229035593
 20
1949.373661269833
 30
0.0
 11
9949.236229035593
 21
1749.373661269833
 31
0.0
  0
LINE
  5
1FEE5
330
747D
100
AcDbEntity
  8
細線
 62
     7
100
AcDbLine
 10
9876.41752999108
 20
1649.373661269832
 30
0.0
 11
9976.417529991081
 21
1749.373661269833
 31
0.0
  0
LINE
  5
1FEE6
330
747D
100
AcDbEntity
  8
細線
 62
     7
100
AcDbLine
 10
9848.133258743622
 20
1649.373661269833
 30
0.0
 11
9948.133258743617
 21
1749.373661269833
 31
0.0
  0
LINE
  5
1FEE7
330
747D
100
AcDbEntity
  8
細線
 62
     7
100
AcDbLine
 10
9819.848987496159
 20
1649.373661269832
 30
0.0
 11
9919.848987496159
 21
1749.373661269833
 31
0.0
  0
LINE
  5
1FEE8
330
747D
100
AcDbEntity
  8
文字
 62
     7
 48
50.0
100
AcDbLine
 10
10125.11696430538
 20
1878.360952452848
 30
0.0
 11
10199.04748849817
 21
1750.309528320742
 31
0.0
  0
LINE
  5
1FEE9
330
747D
100
AcDbEntity
  8
文字
 62
     7
 48
50.0
100
AcDbLine
 10
10199.04748849817
 20
1750.309528320741
 30
0.0
 11
10272.97801269095
 21
1878.360952452848
 31
0.0
  0
LINE
  5
1FEEA
330
747D
100
AcDbEntity
  8
文字
 62
     7
 48
50.0
100
AcDbLine
 10
10272.97801269095
 20
1878.360952452848
 30
0.0
 11
10125.11696430538
 21
1878.360952452848
 31
0.0
  0
TEXT
  5
1FEEB
330
747D
100
AcDbEntity
  8
部品1
 62
     7
100
AcDbText
 10
9374.418454080537
 20
3075.560085060715
 30
0.0
 40
150.0
  1
基礎詳細
  7
STYLE2
100
AcDbText
  0
LINE
  5
1FEEC
330
747D
100
AcDbEntity
  8
部品1
 62
     7
100
AcDbLine
 10
12792.41842782453
 20
600.0
 30
0.0
 11
12792.41842782453
 21
3299.999999999999
 31
0.0
  0
LINE
  5
1FEED
330
747D
100
AcDbEntity
  8
部品1
 62
     7
100
AcDbLine
 10
10792.41842782453
 20
3299.999999999999
 30
0.0
 11
10792.41842782453
 21
600.0
 31
0.0
  0
LINE
  5
1FEEE
330
747D
100
AcDbEntity
  8
部品1
 62
     7
 48
10.0
100
AcDbLine
 10
12159.39291868346
 20
1475.373661269834
 30
0.0
 11
12115.39291868346
 21
1475.373661269834
 31
0.0
  0
LINE
  5
1FEEF
330
747D
100
AcDbEntity
  8
部品1
 62
     7
 48
10.0
100
AcDbLine
 10
12159.39291868346
 20
1459.373661269833
 30
0.0
 11
12115.39291868346
 21
1459.373661269833
 31
0.0
  0
LINE
  5
1FEF0
330
747D
100
AcDbEntity
  8
細線
  6
HIDDEN
 62
     7
 48
10.0
100
AcDbLine
 10
12123.76726058689
 20
1349.373661269835
 30
0.0
 11
12371.39291868346
 21
1596.999319366418
 31
0.0
  0
LINE
  5
1FEF1
330
747D
100
AcDbEntity
  8
Ｇ．Ｌ
 62
     7
100
AcDbLine
 10
11802.01519945007
 20
1749.373661269833
 30
0.0
 11
12159.39291868346
 21
1749.373661269833
 31
0.0
  0
LINE
  5
1FEF2
330
747D
100
AcDbEntity
  8
細線
  6
HIDDEN
 62
     7
 48
10.0
100
AcDbLine
 10
11971.39291868346
 20
1349.373661269834
 30
0.0
 11
12371.39291868346
 21
1349.373661269834
 31
0.0
  0
LINE
  5
1FEF3
330
747D
100
AcDbEntity
  8
細線
  6
HIDDEN
 62
     7
 48
10.0
100
AcDbLine
 10
12095.48298933942
 20
1349.373661269834
 30
0.0
 11
12371.39291868346
 21
1625.283590613878
 31
0.0
  0
DIMENSION
  5
1FEF4
330
747D
100
AcDbEntity
  8
寸法
 62
     7
 48
50.0
100
AcDbDimension
  2
*D32
 10
11971.39291868346
 20
1022.89069578453
 30
0.0
 11
12171.39291868346
 21
1122.905459564057
 31
0.0
 70
    32
  1
200
 71
     5
 42
400.0
  3
INABA_S50G
100
AcDbAlignedDimension
 13
12371.39291868346
 23
1349.373661269834
 33
0.0
 14
11971.39291868346
 24
1349.373661269834
 34
0.0
100
AcDbRotatedDimension
  0
DIMENSION
  5
1FEF5
330
747D
100
AcDbEntity
  8
寸法
 62
     7
 48
50.0
100
AcDbDimension
  2
*D33
 10
11778.67290371428
 20
1459.373661269833
 30
0.0
 11
11678.65813993475
 21
1744.373661269835
 31
0.0
 70
    32
  1
285
 71
     5
 42
570.0000000000009
  3
INABA_S50G
100
AcDbAlignedDimension
 13
12159.39291868346
 23
2029.373661269834
 33
0.0
 14
12115.39291868346
 24
1459.373661269833
 34
0.0
 50
90.0
100
AcDbRotatedDimension
  0
LINE
  5
1FEF6
330
747D
100
AcDbEntity
  8
細線
  6
HIDDEN
 62
     7
 48
10.0
100
AcDbLine
 10
11971.39291868346
 20
1349.373661269834
 30
0.0
 11
11971.39291868346
 21
1749.373661269833
 31
0.0
  0
LINE
  5
1FEF7
330
747D
100
AcDbEntity
  8
細線
  6
HIDDEN
 62
     7
 48
10.0
100
AcDbLine
 10
11971.39291868346
 20
1595.373436971778
 30
0.0
 11
12125.3931429815
 21
1749.373661269833
 31
0.0
  0
LINE
  5
1FEF8
330
747D
100
AcDbEntity
  8
細線
  6
HIDDEN
 62
     7
 48
10.0
100
AcDbLine
 10
11971.39291868346
 20
1623.657708219241
 30
0.0
 11
12097.10887173405
 21
1749.373661269833
 31
0.0
  0
DIMENSION
  5
1FEF9
330
747D
100
AcDbEntity
  8
寸法
 62
     7
 48
50.0
100
AcDbDimension
  2
*D34
 10
11496.26221710674
 20
1349.373661269834
 30
0.0
 11
11496.26221710674
 21
1549.373661269835
 31
0.0
 70
   160
  1
200
 71
     5
 42
399.9999999999989
  3
INABA_S50G
100
AcDbAlignedDimension
 13
11561.22057962788
 23
1749.373661269833
 33
0.0
 14
11971.39291868346
 24
1349.373661269834
 34
0.0
 50
90.0
100
AcDbRotatedDimension
1001
ACAD
1000
DSTYLE
1002
{
1070
    40
1040
1.0
1002
}
  0
LINE
  5
1FEFA
330
747D
100
AcDbEntity
  8
部品1
 62
     7
 48
10.0
100
AcDbLine
 10
12115.39291868346
 20
1459.373661269833
 30
0.0
 11
12115.39291868346
 21
1475.373661269834
 31
0.0
  0
LINE
  5
1FEFB
330
747D
100
AcDbEntity
  8
Ｇ．Ｌ
 62
     7
100
AcDbLine
 10
10862.63196514754
 20
1749.373661269833
 30
0.0
 11
11561.22057962788
 21
1749.373661269833
 31
0.0
  0
LINE
  5
1FEFC
330
747D
100
AcDbEntity
  8
文字
 62
     7
 48
50.0
100
AcDbLine
 10
11042.8002371624
 20
1877.425085401941
 30
0.0
 11
10894.93918877682
 21
1877.425085401941
 31
0.0
  0
LINE
  5
1FEFD
330
747D
100
AcDbEntity
  8
文字
 62
     7
 48
50.0
100
AcDbLine
 10
10894.93918877682
 20
1877.425085401941
 30
0.0
 11
10968.86971296961
 21
1749.373661269833
 31
0.0
  0
TEXT
  5
1FEFE
330
747D
100
AcDbEntity
  8
部品1
 62
     7
100
AcDbText
 10
11063.40298672054
 20
1771.234304431198
 30
0.0
 40
150.0
  1
G.L
  7
STYLE1
100
AcDbText
  0
LINE
  5
1FEFF
330
747D
100
AcDbEntity
  8
文字
 62
     7
 48
50.0
100
AcDbLine
 10
10968.86971296961
 20
1749.373661269833
 30
0.0
 11
11042.8002371624
 21
1877.425085401941
 31
0.0
  0
DIMENSION
  5
1FF00
330
747D
100
AcDbEntity
  8
寸法
 62
     7
 48
50.0
100
AcDbDimension
  2
*D35
 10
11496.91093653513
 20
1749.373661269833
 30
0.0
 11
11496.91093653513
 21
2236.337243947
 31
0.0
 70
   160
  1
100
 71
     5
 42
200.0000000000011
  3
INABA_S50G
100
AcDbAlignedDimension
 13
11778.67290371428
 23
1949.373661269834
 33
0.0
 14
11561.22057962788
 24
1749.373661269833
 34
0.0
 50
90.0
100
AcDbRotatedDimension
  0
LINE
  5
1FF01
330
747D
100
AcDbEntity
  8
細線
  6
HIDDEN
 62
     7
 48
10.0
100
AcDbLine
 10
11971.39291868346
 20
1651.941979466702
 30
0.0
 11
12068.82460048659
 21
1749.373661269833
 31
0.0
  0
LINE
  5
1FF02
330
747D
100
AcDbEntity
  8
寸法
 62
     7
 48
50.0
100
AcDbLine
 10
11795.42058817862
 20
1949.373661269834
 30
0.0
 11
12136.21794591976
 21
1949.373661269834
 31
0.0
  0
LINE
  5
1FF03
330
747D
100
AcDbEntity
  8
細線
  6
HIDDEN
 62
     7
 48
10.0
100
AcDbLine
 10
12371.39291868346
 20
1349.373661269834
 30
0.0
 11
12371.39291868346
 21
1749.373661269833
 31
0.0
  0
LINE
  5
1FF04
330
747D
100
AcDbEntity
  8
部品1
 62
     7
 48
10.0
100
AcDbLine
 10
12159.39291868346
 20
2029.373661269834
 30
0.0
 11
12159.39291868346
 21
1475.373661269834
 31
0.0
  0
LINE
  5
1FF05
330
747D
100
AcDbEntity
  8
部品1
 62
     7
 48
10.0
100
AcDbLine
 10
12175.39291868346
 20
1475.373661269834
 30
0.0
 11
12175.39291868346
 21
2029.373661269834
 31
0.0
  0
LINE
  5
1FF06
330
747D
100
AcDbEntity
  8
細線
  6
HIDDEN
 62
     7
 48
10.0
100
AcDbLine
 10
12152.05153183435
 20
1349.373661269835
 30
0.0
 11
12371.39291868346
 21
1568.715048118956
 31
0.0
  0
ARC
  5
1FF07
330
747D
100
AcDbEntity
  8
部品1
 62
     7
 48
10.0
100
AcDbCircle
 10
12159.39291868346
 20
1475.373661269834
 30
0.0
 40
16.0
100
AcDbArc
 50
270.0
 51
0.0
  0
LINE
  5
1FF08
330
747D
100
AcDbEntity
  8
部品1
 62
     7
 48
10.0
100
AcDbLine
 10
12175.39291868346
 20
1949.373661269834
 30
0.0
 11
12175.39291868346
 21
2683.152017438573
 31
0.0
  0
LINE
  5
1FF09
330
747D
100
AcDbEntity
  8
部品1
 62
     7
 48
10.0
100
AcDbLine
 10
12303.39291868346
 20
1949.373661269834
 30
0.0
 11
12303.39291868346
 21
2683.152017438573
 31
0.0
  0
LINE
  5
1FF0A
330
747D
100
AcDbEntity
  8
部品1
 62
     7
 48
10.0
100
AcDbLine
 10
12319.39291868346
 20
2047.373661269833
 30
0.0
 11
12319.39291868346
 21
2683.152017438573
 31
0.0
  0
LINE
  5
1FF0B
330
747D
100
AcDbEntity
  8
部品1
 62
     7
 48
10.0
100
AcDbLine
 10
12335.39291868346
 20
2063.373661269833
 30
0.0
 11
12335.39291868346
 21
2683.152017438573
 31
0.0
  0
LINE
  5
1FF0C
330
747D
100
AcDbEntity
  8
Ｇ．Ｌ
 62
     7
100
AcDbLine
 10
12175.39291868346
 20
1749.373661269833
 30
0.0
 11
12689.16290152045
 21
1749.373661269833
 31
0.0
  0
LINE
  5
1FF0D
330
747D
100
AcDbEntity
  8
細線
 62
     7
100
AcDbLine
 10
12563.86153339381
 20
1749.373661269834
 30
0.0
 11
12363.86153339381
 21
1949.373661269834
 31
0.0
  0
LINE
  5
1FF0E
330
747D
100
AcDbEntity
  8
部品1
 62
     7
 48
10.0
100
AcDbLine
 10
12175.39291868346
 20
1949.373661269834
 30
0.0
 11
12575.39291868346
 21
1949.373661269834
 31
0.0
  0
LINE
  5
1FF0F
330
747D
100
AcDbEntity
  8
部品1
 62
     7
 48
10.0
100
AcDbLine
 10
12175.39291868346
 20
1949.373661269834
 30
0.0
 11
12690.73056603674
 21
1949.373661269834
 31
0.0
  0
LINE
  5
1FF10
330
747D
100
AcDbEntity
  8
部品1
 62
     7
 48
10.0
100
AcDbLine
 10
12319.39291868346
 20
2063.373661269833
 30
0.0
 11
12690.73056603674
 21
2063.373661269833
 31
0.0
  0
LINE
  5
1FF11
330
747D
100
AcDbEntity
  8
部品1
 62
     7
 48
10.0
100
AcDbLine
 10
12303.39291868346
 20
2047.373661269833
 30
0.0
 11
12690.73056603674
 21
2047.373661269833
 31
0.0
  0
LINE
  5
1FF12
330
747D
100
AcDbEntity
  8
部品1
 62
     7
 48
10.0
100
AcDbLine
 10
12175.39291868346
 20
1749.373661269833
 30
0.0
 11
12175.39291868346
 21
1949.373661269834
 31
0.0
  0
LINE
  5
1FF13
330
747D
100
AcDbEntity
  8
細線
 62
     7
100
AcDbLine
 10
12521.43512652261
 20
1749.373661269833
 30
0.0
 11
12321.43512652261
 21
1949.373661269834
 31
0.0
  0
LINE
  5
1FF14
330
747D
100
AcDbEntity
  8
細線
 62
     7
100
AcDbLine
 10
12295.16095654292
 20
1749.373661269833
 30
0.0
 11
12175.39291868346
 21
1869.141699129294
 31
0.0
  0
LINE
  5
1FF15
330
747D
100
AcDbEntity
  8
細線
 62
     7
100
AcDbLine
 10
12337.58736341411
 20
1749.373661269833
 30
0.0
 11
12175.39291868346
 21
1911.568106000486
 31
0.0
  0
CIRCLE
  5
1FF16
330
747D
100
AcDbEntity
  8
細線
 62
     7
100
AcDbCircle
 10
12235.39291868346
 20
1999.373661269833
 30
0.0
 40
16.0
  0
LINE
  5
1FF17
330
747D
100
AcDbEntity
  8
部品1
 62
     7
 48
10.0
100
AcDbLine
 10
12175.39291868346
 20
2029.373661269834
 30
0.0
 11
12159.39291868346
 21
2029.373661269834
 31
0.0
  0
LINE
  5
1FF18
330
747D
100
AcDbEntity
  8
細線
 62
     7
100
AcDbLine
 10
12145.39291868346
 20
1992.373661269834
 30
0.0
 11
12145.39291868346
 21
2006.373661269833
 31
0.0
  0
LINE
  5
1FF19
330
747D
100
AcDbEntity
  8
細線
 62
     7
100
AcDbLine
 10
12153.39291868346
 20
2013.373661269834
 30
0.0
 11
12152.39291868346
 21
2013.373661269834
 31
0.0
  0
LINE
  5
1FF1A
330
747D
100
AcDbEntity
  8
細線
 62
     7
100
AcDbLine
 10
12153.39291868346
 20
1985.373661269834
 30
0.0
 11
12152.39291868346
 21
1985.373661269834
 31
0.0
  0
ARC
  5
1FF1B
330
747D
100
AcDbEntity
  8
細線
 62
     7
100
AcDbCircle
 10
12152.39291868346
 20
2006.373661269833
 30
0.0
 40
7.0
100
AcDbArc
 50
90.0
 51
180.0
  0
ARC
  5
1FF1C
330
747D
100
AcDbEntity
  8
細線
 62
     7
100
AcDbCircle
 10
12152.39291868346
 20
1992.373661269834
 30
0.0
 40
7.0
100
AcDbArc
 50
180.0
 51
270.0
  0
LINE
  5
1FF1D
330
747D
100
AcDbEntity
  8
細線
 62
     7
100
AcDbLine
 10
12159.39291868346
 20
2015.373661269833
 30
0.0
 11
12153.39291868346
 21
2015.373661269833
 31
0.0
  0
LINE
  5
1FF1E
330
747D
100
AcDbEntity
  8
細線
 62
     7
100
AcDbLine
 10
12159.39291868346
 20
1983.373661269834
 30
0.0
 11
12153.39291868346
 21
1983.373661269834
 31
0.0
  0
LINE
  5
1FF1F
330
747D
100
AcDbEntity
  8
細線
 62
     7
100
AcDbLine
 10
12159.39291868346
 20
1983.373661269834
 30
0.0
 11
12159.39291868346
 21
2015.373661269833
 31
0.0
  0
LINE
  5
1FF20
330
747D
100
AcDbEntity
  8
細線
 62
     7
100
AcDbLine
 10
12153.39291868346
 20
1983.373661269834
 30
0.0
 11
12153.39291868346
 21
2015.373661269833
 31
0.0
  0
CIRCLE
  5
1FF21
330
747D
100
AcDbEntity
  8
細線
 62
     7
100
AcDbCircle
 10
12281.39291868346
 20
1999.373661269833
 30
0.0
 40
16.0
  0
LINE
  5
1FF22
330
747D
100
AcDbEntity
  8
部品1
 62
     7
 48
10.0
100
AcDbLine
 10
12575.39291868346
 20
1949.373661269834
 30
0.0
 11
12575.39291868346
 21
1749.373661269833
 31
0.0
  0
TEXT
  5
1FF23
330
747D
100
AcDbEntity
  8
部品1
 62
     7
100
AcDbText
 10
11028.92355353962
 20
3076.227094002039
 30
0.0
 40
150.0
  1
アンカー部詳細
  7
STYLE2
100
AcDbText
  0
ENDSEC
  0
SECTION
  2
OBJECTS
  0
DICTIONARY
  5
7471
330
0
100
AcDbDictionary
281
     1
  3
ACAD_COLOR
350
1FD04
  3
ACAD_GROUP
350
7472
  3
ACAD_LAYOUT
350
1A1FB
  3
ACAD_MATERIAL
350
1FD03
  3
ACAD_MLINESTYLE
350
7473
  3
ACAD_PLOTSETTINGS
350
1A1FC
  3
ACAD_PLOTSTYLENAME
350
1A1F9
  3
ACDBVARIABLEDICTIONARY
350
1152B
  3
CONTENTDICTIONARY
350
E71C
  3
DRAWINGVARIABLESDICT
350
F3B9
  0
DICTIONARY
  5
1FD04
102
{ACAD_REACTORS
330
7471
102
}
330
7471
100
AcDbDictionary
281
     1
  0
DICTIONARY
  5
7472
102
{ACAD_REACTORS
330
7471
102
}
330
7471
100
AcDbDictionary
281
     1
  0
DICTIONARY
  5
1A1FB
102
{ACAD_REACTORS
330
7471
102
}
330
7471
100
AcDbDictionary
281
     1
  3
Model
350
1A1FD
  3
ﾚｲｱｳﾄ1
350
1A1FE
  0
DICTIONARY
  5
1FD03
102
{ACAD_REACTORS
330
7471
102
}
330
7471
100
AcDbDictionary
281
     1
  0
DICTIONARY
  5
7473
102
{ACAD_REACTORS
330
7471
102
}
330
7471
100
AcDbDictionary
281
     1
  3
STANDARD
350
7480
  0
DICTIONARY
  5
1A1FC
102
{ACAD_REACTORS
330
7471
102
}
330
7471
100
AcDbDictionary
281
     1
  0
ACDBDICTIONARYWDFLT
  5
1A1F9
102
{ACAD_REACTORS
330
7471
102
}
330
7471
100
AcDbDictionary
281
     1
  3
Normal
350
1A1FA
100
AcDbDictionaryWithDefault
340
1A1FA
  0
DICTIONARY
  5
1152B
102
{ACAD_REACTORS
330
7471
102
}
330
7471
100
AcDbDictionary
281
     1
  3
SORTENTS
350
1152C
  0
DICTIONARY
  5
E71C
102
{ACAD_REACTORS
330
7471
102
}
330
7471
100
AcDbDictionary
281
     1
  0
DICTIONARY
  5
F3B9
102
{ACAD_REACTORS
330
7471
102
}
330
7471
100
AcDbDictionary
281
     1
1001
DRAWINGVARIABLESXDATA
1000
POLARMODE
1000
1
  0
LAYOUT
  5
1A1FD
102
{ACAD_REACTORS
330
1A1FB
102
}
330
1A1FB
100
AcDbPlotSettings
  1

  2
\\NKZ-SERVER\EPSON LP-9000
  4

  6

 40
0.0
 41
0.0
 42
0.0
 43
0.0
 44
0.0
 45
0.0
 46
0.0
 47
0.0
 48
0.0
 49
0.0
140
0.0
141
0.0
142
1.0
143
1.0
 70
  1712
 72
     0
 73
     0
 74
     0
  7

 75
     0
147
1.0
 76
     0
 77
     2
 78
   300
148
0.0
149
0.0
100
AcDbLayout
  1
Model
 70
     1
 71
     0
 10
0.0
 20
0.0
 11
12.0
 21
9.0
 12
0.0
 22
0.0
 32
0.0
 14
0.0
 24
0.0
 34
0.0
 15
0.0
 25
0.0
 35
0.0
146
0.0
 13
0.0
 23
0.0
 33
0.0
 16
1.0
 26
0.0
 36
0.0
 17
0.0
 27
1.0
 37
0.0
 76
     0
330
747D
  0
LAYOUT
  5
1A1FE
102
{ACAD_REACTORS
330
1A1FB
102
}
330
1A1FB
100
AcDbPlotSettings
  1

  2
\\NKZ-SERVER\EPSON LP-9000
  4

  6

 40
0.0
 41
0.0
 42
0.0
 43
0.0
 44
0.0
 45
0.0
 46
0.0
 47
0.0
 48
0.0
 49
0.0
140
0.0
141
0.0
142
1.0
143
1.0
 70
   688
 72
     0
 73
     0
 74
     5
  7

 75
    16
147
1.0
 76
     0
 77
     2
 78
   300
148
0.0
149
0.0
100
AcDbLayout
  1
ﾚｲｱｳﾄ1
 70
     0
 71
     1
 10
0.0
 20
0.0
 11
420.0
 21
297.0
 12
0.0
 22
0.0
 32
0.0
 14
1.000000000000000E+20
 24
1.000000000000000E+20
 34
1.000000000000000E+20
 15
-1.000000000000000E+20
 25
-1.000000000000000E+20
 35
-1.000000000000000E+20
146
0.0
 13
0.0
 23
0.0
 33
0.0
 16
1.0
 26
0.0
 36
0.0
 17
0.0
 27
1.0
 37
0.0
 76
     0
330
747A
  0
MLINESTYLE
  5
7480
102
{ACAD_REACTORS
330
7473
102
}
330
7473
100
AcDbMlineStyle
  2
STANDARD
 70
     0
  3

 62
     0
 51
90.0
 52
90.0
 71
     2
 49
0.5
 62
   256
  6
BYLAYER
 49
-0.5
 62
   256
  6
BYLAYER
  0
ACDBPLACEHOLDER
  5
1A1FA
102
{ACAD_REACTORS
330
1A1F9
102
}
330
1A1F9
  0
DICTIONARYVAR
  5
1152C
102
{ACAD_REACTORS
330
1152B
102
}
330
1152B
100
DictionaryVariables
280
     0
  1
96
  0
ENDSEC
  0
EOF
