  0
SECTION
  2
HEADER
  9
$ACADVER
  1
AC1015
  9
$ACADMAINTVER
 70
    20
  9
$DWGCODEPAGE
  3
ANSI_932
  9
$INSBASE
 10
0.0
 20
0.0
 30
0.0
  9
$EXTMIN
 10
174.9999999999993
 20
-0.0000000000001137
 30
0.0
  9
$EXTMAX
 10
20384.0
 20
14262.0
 30
0.0
  9
$LIMMIN
 10
0.0
 20
0.0
  9
$LIMMAX
 10
21000.0
 20
14850.0
  9
$ORTHOMODE
 70
     0
  9
$REGENMODE
 70
     1
  9
$FILLMODE
 70
     1
  9
$QTEXTMODE
 70
     0
  9
$MIRRTEXT
 70
     1
  9
$LTSCALE
 40
20.0
  9
$ATTMODE
 70
     1
  9
$TEXTSIZE
 40
150.0
  9
$TRACEWID
 40
1.0
  9
$TEXTSTYLE
  7
STYLE1
  9
$CLAYER
  8
寸法
  9
$CELTYPE
  6
BYLAYER
  9
$CECOLOR
 62
   256
  9
$CELTSCALE
 40
50.0
  9
$DISPSILH
 70
     0
  9
$DIMSCALE
 40
1.0
  9
$DIMASZ
 40
125.0
  9
$DIMEXO
 40
25.0
  9
$DIMDLI
 40
7.0
  9
$DIMRND
 40
0.0
  9
$DIMDLE
 40
0.0
  9
$DIMEXE
 40
75.0
  9
$DIMTP
 40
0.0
  9
$DIMTM
 40
0.0
  9
$DIMTXT
 40
150.0
  9
$DIMCEN
 40
0.0
  9
$DIMTSZ
 40
0.0
  9
$DIMTOL
 70
     0
  9
$DIMLIM
 70
     0
  9
$DIMTIH
 70
     0
  9
$DIMTOH
 70
     0
  9
$DIMSE1
 70
     0
  9
$DIMSE2
 70
     0
  9
$DIMTAD
 70
     3
  9
$DIMZIN
 70
     8
  9
$DIMBLK
  1

  9
$DIMASO
 70
     1
  9
$DIMSHO
 70
     1
  9
$DIMPOST
  1

  9
$DIMAPOST
  1

  9
$DIMALT
 70
     0
  9
$DIMALTD
 70
     2
  9
$DIMALTF
 40
0.0394
  9
$DIMLFAC
 40
1.0
  9
$DIMTOFL
 70
     1
  9
$DIMTVP
 40
0.0
  9
$DIMTIX
 70
     1
  9
$DIMSOXD
 70
     0
  9
$DIMSAH
 70
     1
  9
$DIMBLK1
  1
DOTSMALL
  9
$DIMBLK2
  1
DOTSMALL
  9
$DIMSTYLE
  2
INABA_S50G
  9
$DIMCLRD
 70
     0
  9
$DIMCLRE
 70
     0
  9
$DIMCLRT
 70
     7
  9
$DIMTFAC
 40
1.0
  9
$DIMGAP
 40
25.0
  9
$DIMJUST
 70
     0
  9
$DIMSD1
 70
     0
  9
$DIMSD2
 70
     0
  9
$DIMTOLJ
 70
     1
  9
$DIMTZIN
 70
     0
  9
$DIMALTZ
 70
     0
  9
$DIMALTTZ
 70
     0
  9
$DIMUPT
 70
     0
  9
$DIMDEC
 70
     1
  9
$DIMTDEC
 70
     4
  9
$DIMALTU
 70
     2
  9
$DIMALTTD
 70
     2
  9
$DIMTXSTY
  7
STYLE1
  9
$DIMAUNIT
 70
     0
  9
$DIMADEC
 70
     0
  9
$DIMALTRND
 40
0.0
  9
$DIMAZIN
 70
     0
  9
$DIMDSEP
 70
    46
  9
$DIMATFIT
 70
     3
  9
$DIMFRAC
 70
     0
  9
$DIMLDRBLK
  1

  9
$DIMLUNIT
 70
     2
  9
$DIMLWD
 70
    -2
  9
$DIMLWE
 70
    -2
  9
$DIMTMOVE
 70
     0
  9
$LUNITS
 70
     2
  9
$LUPREC
 70
     1
  9
$SKETCHINC
 40
1.0
  9
$FILLETRAD
 40
0.0
  9
$AUNITS
 70
     0
  9
$AUPREC
 70
     0
  9
$MENU
  1
acad
  9
$ELEVATION
 40
0.0
  9
$PELEVATION
 40
0.0
  9
$THICKNESS
 40
0.0
  9
$LIMCHECK
 70
     0
  9
$CHAMFERA
 40
0.0
  9
$CHAMFERB
 40
0.0
  9
$CHAMFERC
 40
0.0
  9
$CHAMFERD
 40
0.0
  9
$SKPOLY
 70
     0
  9
$TDCREATE
 40
2450927.380327778
  9
$TDUCREATE
 40
2450927.005327778
  9
$TDUPDATE
 40
2455827.766018299
  9
$TDUUPDATE
 40
2455827.391018298
  9
$TDINDWG
 40
2.0804495718
  9
$TDUSRTIMER
 40
2.0804495718
  9
$USRTIMER
 70
     1
  9
$ANGBASE
 50
0.0
  9
$ANGDIR
 70
     0
  9
$PDMODE
 70
     3
  9
$PDSIZE
 40
2.0
  9
$PLINEWID
 40
0.0
  9
$SPLFRAME
 70
     0
  9
$SPLINETYPE
 70
     6
  9
$SPLINESEGS
 70
     8
  9
$HANDSEED
  5
1F144
  9
$SURFTAB1
 70
     6
  9
$SURFTAB2
 70
     6
  9
$SURFTYPE
 70
     6
  9
$SURFU
 70
     6
  9
$SURFV
 70
     6
  9
$UCSBASE
  2

  9
$UCSNAME
  2

  9
$UCSORG
 10
0.0
 20
0.0
 30
0.0
  9
$UCSXDIR
 10
1.0
 20
0.0
 30
0.0
  9
$UCSYDIR
 10
0.0
 20
1.0
 30
0.0
  9
$UCSORTHOREF
  2

  9
$UCSORTHOVIEW
 70
     0
  9
$UCSORGTOP
 10
0.0
 20
0.0
 30
0.0
  9
$UCSORGBOTTOM
 10
0.0
 20
0.0
 30
0.0
  9
$UCSORGLEFT
 10
0.0
 20
0.0
 30
0.0
  9
$UCSORGRIGHT
 10
0.0
 20
0.0
 30
0.0
  9
$UCSORGFRONT
 10
0.0
 20
0.0
 30
0.0
  9
$UCSORGBACK
 10
0.0
 20
0.0
 30
0.0
  9
$PUCSBASE
  2

  9
$PUCSNAME
  2

  9
$PUCSORG
 10
0.0
 20
0.0
 30
0.0
  9
$PUCSXDIR
 10
1.0
 20
0.0
 30
0.0
  9
$PUCSYDIR
 10
0.0
 20
1.0
 30
0.0
  9
$PUCSORTHOREF
  2

  9
$PUCSORTHOVIEW
 70
     0
  9
$PUCSORGTOP
 10
0.0
 20
0.0
 30
0.0
  9
$PUCSORGBOTTOM
 10
0.0
 20
0.0
 30
0.0
  9
$PUCSORGLEFT
 10
0.0
 20
0.0
 30
0.0
  9
$PUCSORGRIGHT
 10
0.0
 20
0.0
 30
0.0
  9
$PUCSORGFRONT
 10
0.0
 20
0.0
 30
0.0
  9
$PUCSORGBACK
 10
0.0
 20
0.0
 30
0.0
  9
$USERI1
 70
     0
  9
$USERI2
 70
     0
  9
$USERI3
 70
     0
  9
$USERI4
 70
     0
  9
$USERI5
 70
     0
  9
$USERR1
 40
0.0
  9
$USERR2
 40
0.0
  9
$USERR3
 40
0.0
  9
$USERR4
 40
0.0
  9
$USERR5
 40
0.0
  9
$WORLDVIEW
 70
     1
  9
$SHADEDGE
 70
     3
  9
$SHADEDIF
 70
    70
  9
$TILEMODE
 70
     1
  9
$MAXACTVP
 70
    16
  9
$PINSBASE
 10
0.0
 20
0.0
 30
0.0
  9
$PLIMCHECK
 70
     0
  9
$PEXTMIN
 10
1.000000000000000E+20
 20
1.000000000000000E+20
 30
1.000000000000000E+20
  9
$PEXTMAX
 10
-1.000000000000000E+20
 20
-1.000000000000000E+20
 30
-1.000000000000000E+20
  9
$PLIMMIN
 10
0.0
 20
0.0
  9
$PLIMMAX
 10
420.0
 20
297.0
  9
$UNITMODE
 70
     0
  9
$VISRETAIN
 70
     0
  9
$PLINEGEN
 70
     0
  9
$PSLTSCALE
 70
     0
  9
$TREEDEPTH
 70
  3020
  9
$CMLSTYLE
  2
STANDARD
  9
$CMLJUST
 70
     0
  9
$CMLSCALE
 40
1.0
  9
$PROXYGRAPHICS
 70
     1
  9
$MEASUREMENT
 70
     1
  9
$CELWEIGHT
370
    -1
  9
$ENDCAPS
280
     0
  9
$JOINSTYLE
280
     0
  9
$LWDISPLAY
290
     0
  9
$INSUNITS
 70
     0
  9
$HYPERLINKBASE
  1

  9
$STYLESHEET
  1
inaba.ctb
  9
$XEDIT
290
     1
  9
$CEPSNTYPE
380
     0
  9
$PSTYLEMODE
290
     1
  9
$FINGERPRINTGUID
  2
{94D27637-AB05-4F4B-9DE7-C45394AF36DE}
  9
$VERSIONGUID
  2
{42DA904A-B5F0-4168-9564-B71C0C6D2621}
  9
$EXTNAMES
290
     1
  9
$PSVPSCALE
 40
0.0
  9
$OLESTARTUP
290
     0
  0
ENDSEC
  0
SECTION
  2
CLASSES
  0
CLASS
  1
DICTIONARYVAR
  2
AcDbDictionaryVar
  3
ObjectDBX Classes
 90
        0
280
     0
281
     0
  0
CLASS
  1
ACDBDICTIONARYWDFLT
  2
AcDbDictionaryWithDefault
  3
ObjectDBX Classes
 90
        0
280
     0
281
     0
  0
CLASS
  1
ACDBPLACEHOLDER
  2
AcDbPlaceHolder
  3
ObjectDBX Classes
 90
        0
280
     0
281
     0
  0
CLASS
  1
LAYOUT
  2
AcDbLayout
  3
ObjectDBX Classes
 90
        0
280
     0
281
     0
  0
ENDSEC
  0
SECTION
  2
TABLES
  0
TABLE
  2
VPORT
  5
746D
330
0
100
AcDbSymbolTable
 70
     2
  0
VPORT
  5
1F13C
330
746D
100
AcDbSymbolTableRecord
100
AcDbViewportTableRecord
  2
*Active
 70
     0
 10
0.0
 20
0.0
 11
1.0
 21
1.0
 12
10279.70128154813
 22
7130.973296249577
 13
0.0
 23
0.0
 14
10.0
 24
10.0
 15
10.0
 25
10.0
 16
0.0
 26
0.0
 36
1.0
 17
0.0
 27
0.0
 37
0.0
 40
14371.8536305302
 41
1.522222222222222
 42
50.0
 43
0.0
 44
0.0
 50
0.0
 51
0.0
 71
     0
 72
     0
 73
     1
 74
     0
 75
     0
 76
     0
 77
     0
 78
     0
281
     0
 65
     1
110
0.0
120
0.0
130
0.0
111
1.0
121
0.0
131
0.0
112
0.0
122
1.0
132
0.0
 79
     0
146
0.0
  0
ENDTAB
  0
TABLE
  2
LTYPE
  5
746A
330
0
100
AcDbSymbolTable
 70
     4
  0
LTYPE
  5
7477
330
746A
100
AcDbSymbolTableRecord
100
AcDbLinetypeTableRecord
  2
BYBLOCK
 70
     0
  3

 72
    65
 73
     0
 40
0.0
  0
LTYPE
  5
7478
330
746A
100
AcDbSymbolTableRecord
100
AcDbLinetypeTableRecord
  2
BYLAYER
 70
     0
  3

 72
    65
 73
     0
 40
0.0
  0
LTYPE
  5
7479
330
746A
100
AcDbSymbolTableRecord
100
AcDbLinetypeTableRecord
  2
CONTINUOUS
 70
     0
  3
Solid line
 72
    65
 73
     0
 40
0.0
  0
LTYPE
  5
7816
330
746A
100
AcDbSymbolTableRecord
100
AcDbLinetypeTableRecord
  2
CENTER
 70
     0
  3
____ _ ____ _ ____ _ ____ _ ____ _ ____ _ ____ 
 72
    65
 73
     4
 40
2.0
 49
1.25
 74
     0
 49
-0.25
 74
     0
 49
0.25
 74
     0
 49
-0.25
 74
     0
  0
LTYPE
  5
781B
330
746A
100
AcDbSymbolTableRecord
100
AcDbLinetypeTableRecord
  2
PHANTOM
 70
     0
  3
______  __  __  ______  __  __  ______  __  __ 
 72
    65
 73
     6
 40
2.5
 49
1.25
 74
     0
 49
-0.25
 74
     0
 49
0.25
 74
     0
 49
-0.25
 74
     0
 49
0.25
 74
     0
 49
-0.25
 74
     0
  0
LTYPE
  5
13F72
330
746A
100
AcDbSymbolTableRecord
100
AcDbLinetypeTableRecord
  2
HIDDEN
 70
     0
  3
__ __ __ __ __ __ __ __ __ __ __ __ __ __ __ __
 72
    65
 73
     2
 40
0.375
 49
0.25
 74
     0
 49
-0.125
 74
     0
  0
ENDTAB
  0
TABLE
  2
LAYER
  5
7467
102
{ACAD_XDICTIONARY
360
1E730
102
}
330
0
100
AcDbSymbolTable
 70
    12
  0
LAYER
  5
7474
330
7467
100
AcDbSymbolTableRecord
100
AcDbLayerTableRecord
  2
0
 70
     0
 62
     7
  6
CONTINUOUS
370
    -3
390
1D6B2
  0
LAYER
  5
DEB2
330
7467
100
AcDbSymbolTableRecord
100
AcDbLayerTableRecord
  2
センター
 70
     0
 62
     3
  6
CENTER
370
    -3
390
1D6B2
  0
LAYER
  5
DEB3
330
7467
100
AcDbSymbolTableRecord
100
AcDbLayerTableRecord
  2
寸法
 70
     0
 62
     4
  6
CONTINUOUS
370
    -3
390
1D6B2
  0
LAYER
  5
DEB4
330
7467
100
AcDbSymbolTableRecord
100
AcDbLayerTableRecord
  2
部品1
 70
     0
 62
     7
  6
CONTINUOUS
370
    -3
390
1D6B2
  0
LAYER
  5
DEB5
330
7467
100
AcDbSymbolTableRecord
100
AcDbLayerTableRecord
  2
補助
 70
     0
 62
    -1
  6
CONTINUOUS
370
    -3
390
1D6B2
  0
LAYER
  5
DEB6
330
7467
100
AcDbSymbolTableRecord
100
AcDbLayerTableRecord
  2
文字
 70
     0
 62
     7
  6
CONTINUOUS
370
    -3
390
1D6B2
  0
LAYER
  5
F255
330
7467
100
AcDbSymbolTableRecord
100
AcDbLayerTableRecord
  2
DEFPOINTS
 70
     0
 62
     7
  6
CONTINUOUS
290
     0
370
    -3
390
1D6B2
  0
LAYER
  5
10B54
330
7467
100
AcDbSymbolTableRecord
100
AcDbLayerTableRecord
  2
仕様書枠
 70
     0
 62
   230
  6
CONTINUOUS
370
    -3
390
1D6B2
  0
LAYER
  5
13F73
330
7467
100
AcDbSymbolTableRecord
100
AcDbLayerTableRecord
  2
細線
 70
     0
 62
     5
  6
CONTINUOUS
370
    -3
390
1D6B2
  0
LAYER
  5
13F74
330
7467
100
AcDbSymbolTableRecord
100
AcDbLayerTableRecord
  2
点線
 70
     0
 62
     2
  6
HIDDEN
370
    -3
390
1D6B2
  0
LAYER
  5
1643F
330
7467
100
AcDbSymbolTableRecord
100
AcDbLayerTableRecord
  2
想像線
 70
     0
 62
     6
  6
PHANTOM
370
    -3
390
1D6B2
  0
LAYER
  5
1825D
330
7467
100
AcDbSymbolTableRecord
100
AcDbLayerTableRecord
  2
Ｇ．Ｌ
 70
     0
 62
    30
  6
CONTINUOUS
370
    -3
390
1D6B2
  0
ENDTAB
  0
TABLE
  2
STYLE
  5
7468
330
0
100
AcDbSymbolTable
 70
     3
  0
STYLE
  5
7475
330
7468
100
AcDbSymbolTableRecord
100
AcDbTextStyleTableRecord
  2
STANDARD
 70
     0
 40
0.0
 41
1.0
 50
0.0
 71
     0
 42
4.0
  3
txt
  4
C:\AutoCAD LT\bigfont.shx
  0
STYLE
  5
F706
330
7468
100
AcDbSymbolTableRecord
100
AcDbTextStyleTableRecord
  2
STYLE1
 70
     0
 40
0.0
 41
1.0
 50
0.0
 71
     0
 42
150.0
  3
isocp.shx
  4
bigfont.shx
  0
STYLE
  5
103BF
330
7468
100
AcDbSymbolTableRecord
100
AcDbTextStyleTableRecord
  2
STYLE2
 70
     0
 40
0.0
 41
1.0
 50
0.0
 71
     0
 42
100.0
  3
MS PGothic.ttf
  4

1001
ACAD
1000
MS PGothic
1071
    32818
  0
ENDTAB
  0
TABLE
  2
VIEW
  5
746B
330
0
100
AcDbSymbolTable
 70
     0
  0
ENDTAB
  0
TABLE
  2
UCS
  5
746C
330
0
100
AcDbSymbolTable
 70
     0
  0
ENDTAB
  0
TABLE
  2
APPID
  5
746E
330
0
100
AcDbSymbolTable
 70
     6
  0
APPID
  5
7476
330
746E
100
AcDbSymbolTableRecord
100
AcDbRegAppTableRecord
  2
ACAD
 70
     0
  0
APPID
  5
DEA9
330
746E
100
AcDbSymbolTableRecord
100
AcDbRegAppTableRecord
  2
CONTENTBLOCKICON
 70
     0
  0
APPID
  5
DEAA
330
746E
100
AcDbSymbolTableRecord
100
AcDbRegAppTableRecord
  2
CONTENTBLOCKDESCRIPTION
 70
     0
  0
APPID
  5
E71D
330
746E
100
AcDbSymbolTableRecord
100
AcDbRegAppTableRecord
  2
CONTENTTABDATA
 70
     0
  0
APPID
  5
E71E
330
746E
100
AcDbSymbolTableRecord
100
AcDbRegAppTableRecord
  2
CONTENTCURRENTTAB
 70
     0
  0
APPID
  5
F3BA
330
746E
100
AcDbSymbolTableRecord
100
AcDbRegAppTableRecord
  2
DRAWINGVARIABLESXDATA
 70
     0
  0
ENDTAB
  0
TABLE
  2
DIMSTYLE
  5
746F
330
0
100
AcDbSymbolTable
 70
     3
100
AcDbDimStyleTable
 71
     1
340
F71F
  0
DIMSTYLE
105
7484
330
746F
100
AcDbSymbolTableRecord
100
AcDbDimStyleTableRecord
  2
JIS
 70
     0
 41
2.5
 42
1.0
 43
7.0
 44
1.0
 73
     0
 74
     0
 77
     1
 78
     8
140
2.5
141
0.0
143
0.0394
147
0.0
172
     1
174
     1
175
     1
340
7475
  0
DIMSTYLE
105
F71F
102
{ACAD_REACTORS
330
1DBE4
330
1DBE6
330
1DBE7
330
1DBEA
330
1DBF4
330
1DBF5
330
1DBF6
330
1DBFF
330
1DC06
330
1DC07
330
1DC08
330
1DC0C
330
1DC16
330
1DC3B
330
1DC48
330
1DC49
330
1DC4E
330
1DC4F
330
1DC51
330
1DC52
330
1DC61
330
1DC62
330
1E0B9
330
1E67C
330
1E6AA
330
1E0F1
102
}
330
746F
100
AcDbSymbolTableRecord
100
AcDbDimStyleTableRecord
  2
INABA_S50G
 70
     0
 41
125.0
 42
25.0
 43
7.0
 44
75.0
 73
     0
 74
     0
 77
     3
 78
     8
140
150.0
141
0.0
143
0.0394
147
25.0
172
     1
173
     1
174
     1
178
     7
271
     1
340
F706
341
F770
343
F770
344
F770
  0
DIMSTYLE
105
1E72F
102
{ACAD_REACTORS
330
1EE6D
330
1EE7C
330
1EE7D
330
1EE85
330
1EE95
330
1EE9A
330
1EE9C
102
}
330
746F
100
AcDbSymbolTableRecord
100
AcDbDimStyleTableRecord
  2
INABA_S50GUP
 70
     0
 41
125.0
 42
25.0
 43
7.0
 44
75.0
 73
     0
 74
     0
 77
     3
 78
     8
140
150.0
141
0.0
143
0.0394
147
25.0
172
     1
173
     1
174
     1
178
     7
271
     1
340
F706
341
F770
343
F770
344
F770
  0
ENDTAB
  0
TABLE
  2
BLOCK_RECORD
  5
7466
330
0
100
AcDbSymbolTable
 70
    34
  0
BLOCK_RECORD
  5
747D
330
7466
100
AcDbSymbolTableRecord
100
AcDbBlockTableRecord
  2
*MODEL_SPACE
340
1D6B7
  0
BLOCK_RECORD
  5
747A
330
7466
100
AcDbSymbolTableRecord
100
AcDbBlockTableRecord
  2
*PAPER_SPACE
340
1D6B8
  0
BLOCK_RECORD
  5
F770
330
7466
100
AcDbSymbolTableRecord
100
AcDbBlockTableRecord
  2
_DOTSMALL
340
0
102
{BLKREFS
331
1DFF1
331
1DFF2
331
1DFFA
331
1DFFB
331
1E016
331
1E017
331
1E01F
331
1E020
331
1E028
331
1E029
331
1E04D
331
1E04E
331
1E055
331
1E056
331
1E05E
331
1E05F
331
1E067
331
1E068
331
1E07B
331
1E07C
331
1E085
331
1E086
331
1E09F
331
1E0A0
331
1E0A9
331
1E0AA
331
1E0B3
331
1E0B4
331
1E0EB
331
1E0EC
331
1E117
331
1E118
331
1E5EF
331
1E5F0
331
1E5F7
331
1E5F8
331
1E601
331
1E602
331
1E60B
331
1E60C
331
1E615
331
1E616
331
1E61F
331
1E620
331
1E69A
331
1E69B
331
1E6A4
331
1E6A5
331
1E6C8
331
1E6C9
331
1EBF0
331
1EBF1
331
1F0B2
331
1F0B3
331
1F0BC
331
1F0BD
331
1F0C5
331
1F0C6
331
1F0CE
331
1F0CF
331
1F0D7
331
1F0D8
331
1F0E0
331
1F0E1
331
1F0E9
331
1F0EA
102
}
  0
BLOCK_RECORD
  5
1DD36
330
7466
100
AcDbSymbolTableRecord
100
AcDbBlockTableRecord
  2
*D1
340
0
  0
BLOCK_RECORD
  5
1DD42
330
7466
100
AcDbSymbolTableRecord
100
AcDbBlockTableRecord
  2
*D2
340
0
  0
BLOCK_RECORD
  5
1DD4D
330
7466
100
AcDbSymbolTableRecord
100
AcDbBlockTableRecord
  2
*D3
340
0
  0
BLOCK_RECORD
  5
1DD59
330
7466
100
AcDbSymbolTableRecord
100
AcDbBlockTableRecord
  2
*D4
340
0
  0
BLOCK_RECORD
  5
1DD65
330
7466
100
AcDbSymbolTableRecord
100
AcDbBlockTableRecord
  2
*D5
340
0
  0
BLOCK_RECORD
  5
1DD71
330
7466
100
AcDbSymbolTableRecord
100
AcDbBlockTableRecord
  2
*D6
340
0
  0
BLOCK_RECORD
  5
1DD7D
330
7466
100
AcDbSymbolTableRecord
100
AcDbBlockTableRecord
  2
*D7
340
0
  0
BLOCK_RECORD
  5
1DD89
330
7466
100
AcDbSymbolTableRecord
100
AcDbBlockTableRecord
  2
*D8
340
0
  0
BLOCK_RECORD
  5
1DD97
330
7466
100
AcDbSymbolTableRecord
100
AcDbBlockTableRecord
  2
*D9
340
0
  0
BLOCK_RECORD
  5
1DDA2
330
7466
100
AcDbSymbolTableRecord
100
AcDbBlockTableRecord
  2
*D10
340
0
  0
BLOCK_RECORD
  5
1DDAF
330
7466
100
AcDbSymbolTableRecord
100
AcDbBlockTableRecord
  2
*D11
340
0
  0
BLOCK_RECORD
  5
1DDBC
330
7466
100
AcDbSymbolTableRecord
100
AcDbBlockTableRecord
  2
*D12
340
0
  0
BLOCK_RECORD
  5
1DDC8
330
7466
100
AcDbSymbolTableRecord
100
AcDbBlockTableRecord
  2
*D13
340
0
  0
BLOCK_RECORD
  5
1DDD3
330
7466
100
AcDbSymbolTableRecord
100
AcDbBlockTableRecord
  2
*D14
340
0
  0
BLOCK_RECORD
  5
1DDDF
330
7466
100
AcDbSymbolTableRecord
100
AcDbBlockTableRecord
  2
*D15
340
0
  0
BLOCK_RECORD
  5
1DDEA
330
7466
100
AcDbSymbolTableRecord
100
AcDbBlockTableRecord
  2
*D16
340
0
  0
BLOCK_RECORD
  5
1DDF6
330
7466
100
AcDbSymbolTableRecord
100
AcDbBlockTableRecord
  2
*D17
340
0
  0
BLOCK_RECORD
  5
1DE03
330
7466
100
AcDbSymbolTableRecord
100
AcDbBlockTableRecord
  2
*D18
340
0
  0
BLOCK_RECORD
  5
1DE10
330
7466
100
AcDbSymbolTableRecord
100
AcDbBlockTableRecord
  2
*D19
340
0
  0
BLOCK_RECORD
  5
1DE1D
330
7466
100
AcDbSymbolTableRecord
100
AcDbBlockTableRecord
  2
*D20
340
0
  0
BLOCK_RECORD
  5
1DE2A
330
7466
100
AcDbSymbolTableRecord
100
AcDbBlockTableRecord
  2
*D21
340
0
  0
BLOCK_RECORD
  5
1DE37
330
7466
100
AcDbSymbolTableRecord
100
AcDbBlockTableRecord
  2
*D22
340
0
  0
BLOCK_RECORD
  5
1E0BA
330
7466
100
AcDbSymbolTableRecord
100
AcDbBlockTableRecord
  2
*D23
340
0
  0
BLOCK_RECORD
  5
1E0F2
330
7466
100
AcDbSymbolTableRecord
100
AcDbBlockTableRecord
  2
*D24
340
0
  0
BLOCK_RECORD
  5
1E67D
330
7466
100
AcDbSymbolTableRecord
100
AcDbBlockTableRecord
  2
*D25
340
0
  0
BLOCK_RECORD
  5
1E6AB
330
7466
100
AcDbSymbolTableRecord
100
AcDbBlockTableRecord
  2
*D26
340
0
  0
BLOCK_RECORD
  5
1F058
330
7466
100
AcDbSymbolTableRecord
100
AcDbBlockTableRecord
  2
*D27
340
0
  0
BLOCK_RECORD
  5
1F065
330
7466
100
AcDbSymbolTableRecord
100
AcDbBlockTableRecord
  2
*D28
340
0
  0
BLOCK_RECORD
  5
1F072
330
7466
100
AcDbSymbolTableRecord
100
AcDbBlockTableRecord
  2
*D29
340
0
  0
BLOCK_RECORD
  5
1F07E
330
7466
100
AcDbSymbolTableRecord
100
AcDbBlockTableRecord
  2
*D30
340
0
  0
BLOCK_RECORD
  5
1F08A
330
7466
100
AcDbSymbolTableRecord
100
AcDbBlockTableRecord
  2
*D31
340
0
  0
BLOCK_RECORD
  5
1F096
330
7466
100
AcDbSymbolTableRecord
100
AcDbBlockTableRecord
  2
*D32
340
0
  0
BLOCK_RECORD
  5
1F0A2
330
7466
100
AcDbSymbolTableRecord
100
AcDbBlockTableRecord
  2
*D33
340
0
  0
ENDTAB
  0
ENDSEC
  0
SECTION
  2
BLOCKS
  0
BLOCK
  5
7489
330
747D
100
AcDbEntity
  8
0
100
AcDbBlockBegin
  2
*MODEL_SPACE
 70
     0
 10
0.0
 20
0.0
 30
0.0
  3
*MODEL_SPACE
  1

  0
ENDBLK
  5
748A
330
747D
100
AcDbEntity
  8
0
100
AcDbBlockEnd
  0
BLOCK
  5
7487
330
747A
100
AcDbEntity
 67
     1
  8
0
100
AcDbBlockBegin
  2
*PAPER_SPACE
 70
     0
 10
0.0
 20
0.0
 30
0.0
  3
*PAPER_SPACE
  1

  0
ENDBLK
  5
7488
330
747A
100
AcDbEntity
 67
     1
  8
0
100
AcDbBlockEnd
  0
BLOCK
  5
F771
330
F770
100
AcDbEntity
  8
0
 48
50.0
100
AcDbBlockBegin
  2
_DOTSMALL
 70
     0
 10
0.0
 20
0.0
 30
0.0
  3
_DOTSMALL
  1

  0
LWPOLYLINE
  5
F772
330
F770
100
AcDbEntity
  8
0
  6
ByBlock
 62
     0
 48
50.0
100
AcDbPolyline
 90
        2
 70
     1
 43
0.5
 10
-0.0625
 20
0.0
 42
1.0
 10
0.0625
 20
0.0
 42
1.0
  0
ENDBLK
  5
F776
330
F770
100
AcDbEntity
  8
0
 48
50.0
100
AcDbBlockEnd
  0
BLOCK
  5
1DD40
330
1DD36
100
AcDbEntity
  8
0
 48
50.0
100
AcDbBlockBegin
  2
*D1
 70
     1
 10
0.0
 20
0.0
 30
0.0
  3
*D1
  1

  0
LINE
  5
1E064
330
1DD36
100
AcDbEntity
  8
寸法
 62
     0
 48
50.0
370
    -2
100
AcDbLine
 10
10354.99166227189
 20
9007.310710222283
 30
0.0
 11
10354.99166227189
 21
10489.57385995246
 31
0.0
  0
LINE
  5
1E065
330
1DD36
100
AcDbEntity
  8
寸法
 62
     0
 48
50.0
370
    -2
100
AcDbLine
 10
11879.99166227189
 20
9807.310710222282
 30
0.0
 11
11879.99166227189
 21
10489.57385995246
 31
0.0
  0
LINE
  5
1E066
330
1DD36
100
AcDbEntity
  8
寸法
 62
     0
 48
50.0
370
    -2
100
AcDbLine
 10
10354.99166227189
 20
10414.57385995246
 30
0.0
 11
11879.99166227189
 21
10414.57385995246
 31
0.0
  0
INSERT
  5
1E067
330
1DD36
100
AcDbEntity
  8
寸法
 62
     0
 48
50.0
370
    -2
100
AcDbBlockReference
  2
_DOTSMALL
 10
10354.99166227189
 20
10414.57385995246
 30
0.0
 41
125.0
 42
125.0
 43
125.0
 50
180.0
  0
INSERT
  5
1E068
330
1DD36
100
AcDbEntity
  8
寸法
 62
     0
 48
50.0
370
    -2
100
AcDbBlockReference
  2
_DOTSMALL
 10
11879.99166227189
 20
10414.57385995246
 30
0.0
 41
125.0
 42
125.0
 43
125.0
  0
MTEXT
  5
1E069
330
1DD36
100
AcDbEntity
  8
寸法
 62
     7
 48
50.0
100
AcDbMText
 10
11117.49166227189
 20
10514.58862373198
 30
0.0
 40
150.0
 41
0.0
 71
     5
 72
     1
  1
\A1;1525
  7
STYLE1
 73
     1
 44
1.0
1001
ACAD
1000
MTEXTBEGIN
1070
    73
1070
     1
1070
    44
1040
1.0
1070
    74
1070
     0
1000
MTEXTEND
  0
POINT
  5
1E06A
330
1DD36
100
AcDbEntity
  8
DEFPOINTS
 62
     0
 48
50.0
100
AcDbPoint
 10
10354.99166227189
 20
8982.310710222282
 30
0.0
  0
POINT
  5
1E06B
330
1DD36
100
AcDbEntity
  8
DEFPOINTS
 62
     0
 48
50.0
100
AcDbPoint
 10
11879.99166227189
 20
9782.310710222283
 30
0.0
  0
POINT
  5
1E06C
330
1DD36
100
AcDbEntity
  8
DEFPOINTS
 62
     0
 48
50.0
100
AcDbPoint
 10
11879.99166227189
 20
10414.57385995246
 30
0.0
  0
ENDBLK
  5
1DD41
330
1DD36
100
AcDbEntity
  8
0
 48
50.0
100
AcDbBlockEnd
  0
BLOCK
  5
1DD4B
330
1DD42
100
AcDbEntity
  8
0
 48
50.0
100
AcDbBlockBegin
  2
*D2
 70
     1
 10
0.0
 20
0.0
 30
0.0
  3
*D2
  1

  0
LINE
  5
1E5F5
330
1DD42
100
AcDbEntity
  8
寸法
 62
     0
 48
50.0
370
    -2
100
AcDbLine
 10
11814.99166227189
 20
7787.310710222282
 30
0.0
 11
11814.99166227189
 21
6497.843653977354
 31
0.0
  0
LINE
  5
1E5F6
330
1DD42
100
AcDbEntity
  8
寸法
 62
     0
 48
50.0
370
    -2
100
AcDbLine
 10
8894.991662271889
 20
6572.843653977354
 30
0.0
 11
11814.99166227189
 21
6572.843653977354
 31
0.0
  0
INSERT
  5
1E5F7
330
1DD42
100
AcDbEntity
  8
寸法
 62
     0
 48
50.0
370
    -2
100
AcDbBlockReference
  2
_DOTSMALL
 10
8894.991662271889
 20
6572.843653977354
 30
0.0
 41
125.0
 42
125.0
 43
125.0
 50
180.0
  0
INSERT
  5
1E5F8
330
1DD42
100
AcDbEntity
  8
寸法
 62
     0
 48
50.0
370
    -2
100
AcDbBlockReference
  2
_DOTSMALL
 10
11814.99166227189
 20
6572.843653977354
 30
0.0
 41
125.0
 42
125.0
 43
125.0
  0
MTEXT
  5
1E5F9
330
1DD42
100
AcDbEntity
  8
寸法
 62
     7
 48
50.0
100
AcDbMText
 10
10354.99166227189
 20
6672.894669683358
 30
0.0
 40
150.0
 41
0.0
 71
     5
 72
     1
  1
\A1;2920
  7
STYLE1
 73
     1
 44
1.0
1001
ACAD
1000
MTEXTBEGIN
1070
    73
1070
     1
1070
    44
1040
1.0
1070
    74
1070
     0
1000
MTEXTEND
  0
POINT
  5
1E5FA
330
1DD42
100
AcDbEntity
  8
DEFPOINTS
 62
     0
 48
50.0
100
AcDbPoint
 10
8894.991662271889
 20
7812.310710222281
 30
0.0
  0
POINT
  5
1E5FB
330
1DD42
100
AcDbEntity
  8
DEFPOINTS
 62
     0
 48
50.0
100
AcDbPoint
 10
11814.99166227189
 20
7812.310710222281
 30
0.0
  0
POINT
  5
1E5FC
330
1DD42
100
AcDbEntity
  8
DEFPOINTS
 62
     0
 48
50.0
100
AcDbPoint
 10
11814.99166227189
 20
6572.843653977354
 30
0.0
  0
ENDBLK
  5
1DD4C
330
1DD42
100
AcDbEntity
  8
0
 48
50.0
100
AcDbBlockEnd
  0
BLOCK
  5
1DD57
330
1DD4D
100
AcDbEntity
  8
0
 48
50.0
100
AcDbBlockBegin
  2
*D3
 70
     1
 10
0.0
 20
0.0
 30
0.0
  3
*D3
  1

  0
LINE
  5
1E5EC
330
1DD4D
100
AcDbEntity
  8
寸法
 62
     0
 48
50.0
370
    -2
100
AcDbLine
 10
8829.991662271888
 20
7867.310710222283
 30
0.0
 11
8829.991662271888
 21
6186.310710222282
 31
0.0
  0
LINE
  5
1E5ED
330
1DD4D
100
AcDbEntity
  8
寸法
 62
     0
 48
50.0
370
    -2
100
AcDbLine
 10
11879.99166227189
 20
7867.310710222279
 30
0.0
 11
11879.99166227189
 21
6186.310710222282
 31
0.0
  0
LINE
  5
1E5EE
330
1DD4D
100
AcDbEntity
  8
寸法
 62
     0
 48
50.0
370
    -2
100
AcDbLine
 10
8829.991662271888
 20
6261.310710222282
 30
0.0
 11
11879.99166227189
 21
6261.310710222282
 31
0.0
  0
INSERT
  5
1E5EF
330
1DD4D
100
AcDbEntity
  8
寸法
 62
     0
 48
50.0
370
    -2
100
AcDbBlockReference
  2
_DOTSMALL
 10
8829.991662271888
 20
6261.310710222282
 30
0.0
 41
125.0
 42
125.0
 43
125.0
 50
180.0
  0
INSERT
  5
1E5F0
330
1DD4D
100
AcDbEntity
  8
寸法
 62
     0
 48
50.0
370
    -2
100
AcDbBlockReference
  2
_DOTSMALL
 10
11879.99166227189
 20
6261.310710222282
 30
0.0
 41
125.0
 42
125.0
 43
125.0
  0
MTEXT
  5
1E5F1
330
1DD4D
100
AcDbEntity
  8
寸法
 62
     7
 48
50.0
100
AcDbMText
 10
10354.99166227189
 20
6361.310710222282
 30
0.0
 40
150.0
 41
0.0
 71
     5
 72
     1
  1
\A1;3050
  7
STYLE1
 73
     1
 44
1.0
1001
ACAD
1000
MTEXTBEGIN
1070
    73
1070
     1
1070
    44
1040
1.0
1070
    74
1070
     0
1000
MTEXTEND
  0
POINT
  5
1E5F2
330
1DD4D
100
AcDbEntity
  8
DEFPOINTS
 62
     0
 48
50.0
100
AcDbPoint
 10
8829.991662271888
 20
7892.310710222282
 30
0.0
  0
POINT
  5
1E5F3
330
1DD4D
100
AcDbEntity
  8
DEFPOINTS
 62
     0
 48
50.0
100
AcDbPoint
 10
11879.99166227189
 20
7892.310710222279
 30
0.0
  0
POINT
  5
1E5F4
330
1DD4D
100
AcDbEntity
  8
DEFPOINTS
 62
     0
 48
50.0
100
AcDbPoint
 10
11879.99166227189
 20
6261.310710222282
 30
0.0
  0
ENDBLK
  5
1DD58
330
1DD4D
100
AcDbEntity
  8
0
 48
50.0
100
AcDbBlockEnd
  0
BLOCK
  5
1DD63
330
1DD59
100
AcDbEntity
  8
0
 48
50.0
100
AcDbBlockBegin
  2
*D4
 70
     1
 10
0.0
 20
0.0
 30
0.0
  3
*D4
  1

  0
LINE
  5
1E114
330
1DD59
100
AcDbEntity
  8
寸法
 62
     0
 48
50.0
370
    -2
100
AcDbLine
 10
8843.160120802169
 20
7871.060023176065
 30
0.0
 11
9074.850791223909
 21
7497.167671437278
 31
0.0
  0
LINE
  5
1E115
330
1DD59
100
AcDbEntity
  8
寸法
 62
     0
 48
50.0
370
    -2
100
AcDbLine
 10
11893.16012080217
 20
9761.060023176064
 30
0.0
 11
12124.85079122391
 21
9387.167671437277
 31
0.0
  0
LINE
  5
1E116
330
1DD59
100
AcDbEntity
  8
寸法
 62
     0
 48
50.0
370
    -2
100
AcDbLine
 10
9035.345415633072
 20
7560.919732575932
 30
0.0
 11
12085.34541563307
 21
9450.919732575931
 31
0.0
  0
INSERT
  5
1E117
330
1DD59
100
AcDbEntity
  8
寸法
 62
     0
 48
50.0
370
    -2
100
AcDbBlockReference
  2
_DOTSMALL
 10
9035.345415633072
 20
7560.919732575932
 30
0.0
 41
125.0
 42
125.0
 43
125.0
 50
211.7853414143646
  0
INSERT
  5
1E118
330
1DD59
100
AcDbEntity
  8
寸法
 62
     0
 48
50.0
370
    -2
100
AcDbBlockReference
  2
_DOTSMALL
 10
12085.34541563307
 20
9450.919732575931
 30
0.0
 41
125.0
 42
125.0
 43
125.0
 50
31.78534141436463
  0
MTEXT
  5
1E119
330
1DD59
100
AcDbEntity
  8
寸法
 62
     7
 48
50.0
100
AcDbMText
 10
10532.31696846514
 20
8606.194540217042
 30
0.0
 40
150.0
 41
0.0
 71
     5
 72
     1
  1
\A1;3588.1
  7
STYLE1
 11
0.8500274818487307
 21
0.5267383412111803
 31
0.0
 73
     1
 44
1.0
1001
ACAD
1000
MTEXTBEGIN
1070
    73
1070
     1
1070
    44
1040
1.0
1070
    74
1070
     0
1000
MTEXTEND
  0
POINT
  5
1E11A
330
1DD59
100
AcDbEntity
  8
DEFPOINTS
 62
     0
 48
50.0
100
AcDbPoint
 10
8829.99166227189
 20
7892.310710222282
 30
0.0
  0
POINT
  5
1E11B
330
1DD59
100
AcDbEntity
  8
DEFPOINTS
 62
     0
 48
50.0
100
AcDbPoint
 10
11879.99166227189
 20
9782.310710222283
 30
0.0
  0
POINT
  5
1E11C
330
1DD59
100
AcDbEntity
  8
DEFPOINTS
 62
     0
 48
50.0
100
AcDbPoint
 10
12085.34541563307
 20
9450.919732575931
 30
0.0
  0
ENDBLK
  5
1DD64
330
1DD59
100
AcDbEntity
  8
0
 48
50.0
100
AcDbBlockEnd
  0
BLOCK
  5
1DD6F
330
1DD65
100
AcDbEntity
  8
0
 48
50.0
100
AcDbBlockBegin
  2
*D5
 70
     1
 10
0.0
 20
0.0
 30
0.0
  3
*D5
  1

  0
LINE
  5
1E05B
330
1DD65
100
AcDbEntity
  8
寸法
 62
     0
 48
50.0
370
    -2
100
AcDbLine
 10
10229.99166227189
 20
9782.310710222283
 30
0.0
 11
10054.42093890865
 21
9782.310710222283
 31
0.0
  0
LINE
  5
1E05C
330
1DD65
100
AcDbEntity
  8
寸法
 62
     0
 48
50.0
370
    -2
100
AcDbLine
 10
10184.99166227189
 20
8837.310710222281
 30
0.0
 11
10054.42093890865
 21
8837.310710222281
 31
0.0
  0
LINE
  5
1E05D
330
1DD65
100
AcDbEntity
  8
寸法
 62
     0
 48
50.0
370
    -2
100
AcDbLine
 10
10129.42093890865
 20
9782.310710222283
 30
0.0
 11
10129.42093890865
 21
8837.310710222281
 31
0.0
  0
INSERT
  5
1E05E
330
1DD65
100
AcDbEntity
  8
寸法
 62
     0
 48
50.0
370
    -2
100
AcDbBlockReference
  2
_DOTSMALL
 10
10129.42093890865
 20
9782.310710222283
 30
0.0
 41
125.0
 42
125.0
 43
125.0
 50
90.0
  0
INSERT
  5
1E05F
330
1DD65
100
AcDbEntity
  8
寸法
 62
     0
 48
50.0
370
    -2
100
AcDbBlockReference
  2
_DOTSMALL
 10
10129.42093890865
 20
8837.310710222281
 30
0.0
 41
125.0
 42
125.0
 43
125.0
 50
270.0
  0
MTEXT
  5
1E060
330
1DD65
100
AcDbEntity
  8
寸法
 62
     7
 48
50.0
100
AcDbMText
 10
10029.42093890865
 20
9309.810710222285
 30
0.0
 40
150.0
 41
0.0
 71
     5
 72
     1
  1
\A1;945
  7
STYLE1
 11
0.0000000000000001
 21
1.0
 31
0.0
 73
     1
 44
1.0
1001
ACAD
1000
MTEXTBEGIN
1070
    73
1070
     1
1070
    44
1040
1.0
1070
    74
1070
     0
1000
MTEXTEND
  0
POINT
  5
1E061
330
1DD65
100
AcDbEntity
  8
DEFPOINTS
 62
     0
 48
50.0
100
AcDbPoint
 10
10254.99166227189
 20
9782.310710222283
 30
0.0
  0
POINT
  5
1E062
330
1DD65
100
AcDbEntity
  8
DEFPOINTS
 62
     0
 48
50.0
100
AcDbPoint
 10
10209.99166227189
 20
8837.310710222281
 30
0.0
  0
POINT
  5
1E063
330
1DD65
100
AcDbEntity
  8
DEFPOINTS
 62
     0
 48
50.0
100
AcDbPoint
 10
10129.42093890865
 20
8837.310710222281
 30
0.0
  0
ENDBLK
  5
1DD70
330
1DD65
100
AcDbEntity
  8
0
 48
50.0
100
AcDbBlockEnd
  0
BLOCK
  5
1DD7B
330
1DD71
100
AcDbEntity
  8
0
 48
50.0
100
AcDbBlockBegin
  2
*D6
 70
     1
 10
0.0
 20
0.0
 30
0.0
  3
*D6
  1

  0
LINE
  5
1E025
330
1DD71
100
AcDbEntity
  8
寸法
 62
     0
 48
50.0
370
    -2
100
AcDbLine
 10
9445.991662271891
 20
9272.310710222283
 30
0.0
 11
8003.991662271889
 21
9272.310710222283
 31
0.0
  0
LINE
  5
1E026
330
1DD71
100
AcDbEntity
  8
寸法
 62
     0
 48
50.0
370
    -2
100
AcDbLine
 10
9445.991662271891
 20
8837.310710222281
 30
0.0
 11
8003.991662271889
 21
8837.310710222281
 31
0.0
  0
LINE
  5
1E027
330
1DD71
100
AcDbEntity
  8
寸法
 62
     0
 48
50.0
370
    -2
100
AcDbLine
 10
8078.991662271889
 20
9272.310710222283
 30
0.0
 11
8078.991662271889
 21
8837.310710222281
 31
0.0
  0
INSERT
  5
1E028
330
1DD71
100
AcDbEntity
  8
寸法
 62
     0
 48
50.0
370
    -2
100
AcDbBlockReference
  2
_DOTSMALL
 10
8078.991662271889
 20
9272.310710222283
 30
0.0
 41
125.0
 42
125.0
 43
125.0
 50
90.0
  0
INSERT
  5
1E029
330
1DD71
100
AcDbEntity
  8
寸法
 62
     0
 48
50.0
370
    -2
100
AcDbBlockReference
  2
_DOTSMALL
 10
8078.991662271889
 20
8837.310710222281
 30
0.0
 41
125.0
 42
125.0
 43
125.0
 50
270.0
  0
MTEXT
  5
1E02A
330
1DD71
100
AcDbEntity
  8
寸法
 62
     7
 48
50.0
100
AcDbMText
 10
7978.991662271887
 20
9054.810710222284
 30
0.0
 40
150.0
 41
0.0
 71
     5
 72
     1
  1
\A1;435
  7
STYLE1
 11
0.0000000000000001
 21
1.0
 31
0.0
 73
     1
 44
1.0
1001
ACAD
1000
MTEXTBEGIN
1070
    73
1070
     1
1070
    44
1040
1.0
1070
    74
1070
     0
1000
MTEXTEND
  0
POINT
  5
1E02B
330
1DD71
100
AcDbEntity
  8
DEFPOINTS
 62
     0
 48
50.0
100
AcDbPoint
 10
9470.99166227189
 20
9272.310710222283
 30
0.0
  0
POINT
  5
1E02C
330
1DD71
100
AcDbEntity
  8
DEFPOINTS
 62
     0
 48
50.0
100
AcDbPoint
 10
9470.99166227189
 20
8837.310710222281
 30
0.0
  0
POINT
  5
1E02D
330
1DD71
100
AcDbEntity
  8
DEFPOINTS
 62
     0
 48
50.0
100
AcDbPoint
 10
8078.991662271889
 20
8837.310710222281
 30
0.0
  0
ENDBLK
  5
1DD7C
330
1DD71
100
AcDbEntity
  8
0
 48
50.0
100
AcDbBlockEnd
  0
BLOCK
  5
1DD87
330
1DD7D
100
AcDbEntity
  8
0
 48
50.0
100
AcDbBlockBegin
  2
*D7
 70
     1
 10
0.0
 20
0.0
 30
0.0
  3
*D7
  1

  0
LINE
  5
1E01C
330
1DD7D
100
AcDbEntity
  8
寸法
 62
     0
 48
50.0
370
    -2
100
AcDbLine
 10
8829.991662271888
 20
9807.310710222282
 30
0.0
 11
8829.991662271888
 21
10489.57385995246
 31
0.0
  0
LINE
  5
1E01D
330
1DD7D
100
AcDbEntity
  8
寸法
 62
     0
 48
50.0
370
    -2
100
AcDbLine
 10
10354.99166227189
 20
9007.310710222283
 30
0.0
 11
10354.99166227189
 21
10489.57385995246
 31
0.0
  0
LINE
  5
1E01E
330
1DD7D
100
AcDbEntity
  8
寸法
 62
     0
 48
50.0
370
    -2
100
AcDbLine
 10
8829.991662271888
 20
10414.57385995246
 30
0.0
 11
10354.99166227189
 21
10414.57385995246
 31
0.0
  0
INSERT
  5
1E01F
330
1DD7D
100
AcDbEntity
  8
寸法
 62
     0
 48
50.0
370
    -2
100
AcDbBlockReference
  2
_DOTSMALL
 10
8829.991662271888
 20
10414.57385995246
 30
0.0
 41
125.0
 42
125.0
 43
125.0
 50
180.0
  0
INSERT
  5
1E020
330
1DD7D
100
AcDbEntity
  8
寸法
 62
     0
 48
50.0
370
    -2
100
AcDbBlockReference
  2
_DOTSMALL
 10
10354.99166227189
 20
10414.57385995246
 30
0.0
 41
125.0
 42
125.0
 43
125.0
  0
MTEXT
  5
1E021
330
1DD7D
100
AcDbEntity
  8
寸法
 62
     7
 48
50.0
100
AcDbMText
 10
9592.491662271887
 20
10514.58862373198
 30
0.0
 40
150.0
 41
0.0
 71
     5
 72
     1
  1
\A1;1525
  7
STYLE1
 73
     1
 44
1.0
1001
ACAD
1000
MTEXTBEGIN
1070
    73
1070
     1
1070
    44
1040
1.0
1070
    74
1070
     0
1000
MTEXTEND
  0
POINT
  5
1E022
330
1DD7D
100
AcDbEntity
  8
DEFPOINTS
 62
     0
 48
50.0
100
AcDbPoint
 10
8829.991662271888
 20
9782.310710222283
 30
0.0
  0
POINT
  5
1E023
330
1DD7D
100
AcDbEntity
  8
DEFPOINTS
 62
     0
 48
50.0
100
AcDbPoint
 10
10354.99166227189
 20
8982.310710222282
 30
0.0
  0
POINT
  5
1E024
330
1DD7D
100
AcDbEntity
  8
DEFPOINTS
 62
     0
 48
50.0
100
AcDbPoint
 10
10354.99166227189
 20
10414.57385995246
 30
0.0
  0
ENDBLK
  5
1DD88
330
1DD7D
100
AcDbEntity
  8
0
 48
50.0
100
AcDbBlockEnd
  0
BLOCK
  5
1DD95
330
1DD89
100
AcDbEntity
  8
0
 48
50.0
100
AcDbBlockBegin
  2
*D8
 70
     1
 10
0.0
 20
0.0
 30
0.0
  3
*D8
  1

  0
LINE
  5
1E607
330
1DD89
100
AcDbEntity
  8
寸法
 62
     0
 48
50.0
370
    -2
100
AcDbLine
 10
8779.991662271887
 20
6547.843653977354
 30
0.0
 11
8779.991662271887
 21
6186.310710222282
 31
0.0
  0
LINE
  5
1E608
330
1DD89
100
AcDbEntity
  8
寸法
 62
     0
 48
50.0
370
    -2
100
AcDbLine
 10
8829.991662271888
 20
7867.310710222283
 30
0.0
 11
8829.991662271888
 21
6186.310710222282
 31
0.0
  0
LINE
  5
1E609
330
1DD89
100
AcDbEntity
  8
寸法
 62
     0
 48
50.0
370
    -2
100
AcDbLine
 10
8829.991662271888
 20
6261.310710222282
 30
0.0
 11
8779.991662271887
 21
6261.310710222282
 31
0.0
  0
LINE
  5
1E60A
330
1DD89
100
AcDbEntity
  8
寸法
 62
     0
 48
50.0
370
    -2
100
AcDbLine
 10
8779.991662271887
 20
6261.310710222282
 30
0.0
 11
8195.109772508109
 21
6261.310710222282
 31
0.0
  0
INSERT
  5
1E60B
330
1DD89
100
AcDbEntity
  8
寸法
 62
     0
 48
50.0
370
    -2
100
AcDbBlockReference
  2
_DOTSMALL
 10
8829.991662271888
 20
6261.310710222282
 30
0.0
 41
125.0
 42
125.0
 43
125.0
  0
INSERT
  5
1E60C
330
1DD89
100
AcDbEntity
  8
寸法
 62
     0
 48
50.0
370
    -2
100
AcDbBlockReference
  2
_DOTSMALL
 10
8779.991662271887
 20
6261.310710222282
 30
0.0
 41
125.0
 42
125.0
 43
125.0
 50
180.0
  0
MTEXT
  5
1E60D
330
1DD89
100
AcDbEntity
  8
寸法
 62
     7
 48
50.0
100
AcDbMText
 10
8362.550717389998
 20
6368.810710222282
 30
0.0
 40
150.0
 41
0.0
 71
     5
 72
     1
  1
\A1;(50)
  7
STYLE1
 73
     1
 44
1.0
1001
ACAD
1000
MTEXTBEGIN
1070
    73
1070
     1
1070
    44
1040
1.0
1070
    74
1070
     0
1000
MTEXTEND
  0
POINT
  5
1E60E
330
1DD89
100
AcDbEntity
  8
DEFPOINTS
 62
     0
 48
50.0
100
AcDbPoint
 10
8779.991662271887
 20
6572.843653977354
 30
0.0
  0
POINT
  5
1E60F
330
1DD89
100
AcDbEntity
  8
DEFPOINTS
 62
     0
 48
50.0
100
AcDbPoint
 10
8829.991662271888
 20
7892.310710222282
 30
0.0
  0
POINT
  5
1E610
330
1DD89
100
AcDbEntity
  8
DEFPOINTS
 62
     0
 48
50.0
100
AcDbPoint
 10
8829.991662271888
 20
6261.310710222282
 30
0.0
  0
ENDBLK
  5
1DD96
330
1DD89
100
AcDbEntity
  8
0
 48
50.0
100
AcDbBlockEnd
  0
BLOCK
  5
1DDA0
330
1DD97
100
AcDbEntity
  8
0
 48
50.0
100
AcDbBlockBegin
  2
*D9
 70
     1
 10
0.0
 20
0.0
 30
0.0
  3
*D9
  1

  0
LINE
  5
1E014
330
1DD97
100
AcDbEntity
  8
寸法
 62
     0
 48
50.0
370
    -2
100
AcDbLine
 10
8804.991662271888
 20
7892.310710222282
 30
0.0
 11
8003.991662271889
 21
7892.310710222282
 31
0.0
  0
LINE
  5
1E015
330
1DD97
100
AcDbEntity
  8
寸法
 62
     0
 48
50.0
370
    -2
100
AcDbLine
 10
8078.991662271889
 20
8402.310710222282
 30
0.0
 11
8078.991662271889
 21
7892.310710222282
 31
0.0
  0
INSERT
  5
1E016
330
1DD97
100
AcDbEntity
  8
寸法
 62
     0
 48
50.0
370
    -2
100
AcDbBlockReference
  2
_DOTSMALL
 10
8078.991662271889
 20
8402.310710222282
 30
0.0
 41
125.0
 42
125.0
 43
125.0
 50
90.0
  0
INSERT
  5
1E017
330
1DD97
100
AcDbEntity
  8
寸法
 62
     0
 48
50.0
370
    -2
100
AcDbBlockReference
  2
_DOTSMALL
 10
8078.991662271889
 20
7892.310710222282
 30
0.0
 41
125.0
 42
125.0
 43
125.0
 50
270.0
  0
MTEXT
  5
1E018
330
1DD97
100
AcDbEntity
  8
寸法
 62
     7
 48
50.0
100
AcDbMText
 10
7978.991662271887
 20
8147.310710222283
 30
0.0
 40
150.0
 41
0.0
 71
     5
 72
     1
  1
\A1;510
  7
STYLE1
 11
0.0000000000000001
 21
1.0
 31
0.0
 73
     1
 44
1.0
1001
ACAD
1000
MTEXTBEGIN
1070
    73
1070
     1
1070
    44
1040
1.0
1070
    74
1070
     0
1000
MTEXTEND
  0
POINT
  5
1E019
330
1DD97
100
AcDbEntity
  8
DEFPOINTS
 62
     0
 48
50.0
100
AcDbPoint
 10
9470.99166227189
 20
8402.310710222282
 30
0.0
  0
POINT
  5
1E01A
330
1DD97
100
AcDbEntity
  8
DEFPOINTS
 62
     0
 48
50.0
100
AcDbPoint
 10
8829.991662271888
 20
7892.310710222282
 30
0.0
  0
POINT
  5
1E01B
330
1DD97
100
AcDbEntity
  8
DEFPOINTS
 62
     0
 48
50.0
100
AcDbPoint
 10
8078.991662271889
 20
7892.310710222282
 30
0.0
  0
ENDBLK
  5
1DDA1
330
1DD97
100
AcDbEntity
  8
0
 48
50.0
100
AcDbBlockEnd
  0
BLOCK
  5
1DDAD
330
1DDA2
100
AcDbEntity
  8
0
 48
50.0
100
AcDbBlockBegin
  2
*D10
 70
     1
 10
0.0
 20
0.0
 30
0.0
  3
*D10
  1

  0
LINE
  5
1E5FD
330
1DDA2
100
AcDbEntity
  8
寸法
 62
     0
 48
50.0
370
    -2
100
AcDbLine
 10
8829.991662271888
 20
7867.310710222283
 30
0.0
 11
8829.991662271888
 21
6497.843653977354
 31
0.0
  0
LINE
  5
1E5FE
330
1DDA2
100
AcDbEntity
  8
寸法
 62
     0
 48
50.0
370
    -2
100
AcDbLine
 10
8894.991662271889
 20
7787.310710222282
 30
0.0
 11
8894.991662271889
 21
6497.843653977354
 31
0.0
  0
LINE
  5
1E5FF
330
1DDA2
100
AcDbEntity
  8
寸法
 62
     0
 48
50.0
370
    -2
100
AcDbLine
 10
8894.991662271889
 20
6572.843653977354
 30
0.0
 11
8829.991662271888
 21
6572.843653977354
 31
0.0
  0
LINE
  5
1E600
330
1DDA2
100
AcDbEntity
  8
寸法
 62
     0
 48
50.0
370
    -2
100
AcDbLine
 10
8829.991662271888
 20
6572.843653977354
 30
0.0
 11
8474.802080883534
 21
6572.843653977354
 31
0.0
  0
INSERT
  5
1E601
330
1DDA2
100
AcDbEntity
  8
寸法
 62
     0
 48
50.0
370
    -2
100
AcDbBlockReference
  2
_DOTSMALL
 10
8894.991662271889
 20
6572.843653977354
 30
0.0
 41
125.0
 42
125.0
 43
125.0
  0
INSERT
  5
1E602
330
1DDA2
100
AcDbEntity
  8
寸法
 62
     0
 48
50.0
370
    -2
100
AcDbBlockReference
  2
_DOTSMALL
 10
8829.991662271888
 20
6572.843653977354
 30
0.0
 41
125.0
 42
125.0
 43
125.0
 50
180.0
  0
MTEXT
  5
1E603
330
1DDA2
100
AcDbEntity
  8
寸法
 62
     7
 48
50.0
100
AcDbMText
 10
8589.896871577712
 20
6672.843653977354
 30
0.0
 40
150.0
 41
0.0
 71
     5
 72
     1
  1
\A1;65
  7
STYLE1
 73
     1
 44
1.0
1001
ACAD
1000
MTEXTBEGIN
1070
    73
1070
     1
1070
    44
1040
1.0
1070
    74
1070
     0
1000
MTEXTEND
  0
POINT
  5
1E604
330
1DDA2
100
AcDbEntity
  8
DEFPOINTS
 62
     0
 48
50.0
100
AcDbPoint
 10
8829.991662271888
 20
7892.310710222282
 30
0.0
  0
POINT
  5
1E605
330
1DDA2
100
AcDbEntity
  8
DEFPOINTS
 62
     0
 48
50.0
100
AcDbPoint
 10
8894.991662271889
 20
7812.310710222281
 30
0.0
  0
POINT
  5
1E606
330
1DDA2
100
AcDbEntity
  8
DEFPOINTS
 62
     0
 48
50.0
100
AcDbPoint
 10
8894.991662271889
 20
6572.843653977354
 30
0.0
  0
ENDBLK
  5
1DDAE
330
1DDA2
100
AcDbEntity
  8
0
 48
50.0
100
AcDbBlockEnd
  0
BLOCK
  5
1DDBA
330
1DDAF
100
AcDbEntity
  8
0
 48
50.0
100
AcDbBlockBegin
  2
*D11
 70
     1
 10
0.0
 20
0.0
 30
0.0
  3
*D11
  1

  0
LINE
  5
1E6A0
330
1DDAF
100
AcDbEntity
  8
寸法
 62
     0
 48
50.0
370
    -2
100
AcDbLine
 10
10675.99166227189
 20
7892.310710222282
 30
0.0
 11
10982.80318780591
 21
7892.310710222282
 31
0.0
  0
LINE
  5
1E6A1
330
1DDAF
100
AcDbEntity
  8
寸法
 62
     0
 48
50.0
370
    -2
100
AcDbLine
 10
10675.99166227189
 20
7827.310710222282
 30
0.0
 11
10982.80318780591
 21
7827.310710222282
 31
0.0
  0
LINE
  5
1E6A2
330
1DDAF
100
AcDbEntity
  8
寸法
 62
     0
 48
50.0
370
    -2
100
AcDbLine
 10
10907.80318780591
 20
7892.310710222282
 30
0.0
 11
10907.80318780591
 21
7827.310710222282
 31
0.0
  0
LINE
  5
1E6A3
330
1DDAF
100
AcDbEntity
  8
寸法
 62
     0
 48
50.0
370
    -2
100
AcDbLine
 10
10907.80318780591
 20
7827.310710222282
 30
0.0
 11
10907.80318780591
 21
6815.308560365071
 31
0.0
  0
INSERT
  5
1E6A4
330
1DDAF
100
AcDbEntity
  8
寸法
 62
     0
 48
50.0
370
    -2
100
AcDbBlockReference
  2
_DOTSMALL
 10
10907.80318780591
 20
7892.310710222282
 30
0.0
 41
125.0
 42
125.0
 43
125.0
 50
90.0
  0
INSERT
  5
1E6A5
330
1DDAF
100
AcDbEntity
  8
寸法
 62
     0
 48
50.0
370
    -2
100
AcDbBlockReference
  2
_DOTSMALL
 10
10907.80318780591
 20
7827.310710222282
 30
0.0
 41
125.0
 42
125.0
 43
125.0
 50
270.0
  0
MTEXT
  5
1E6A6
330
1DDAF
100
AcDbEntity
  8
寸法
 62
     7
 48
50.0
100
AcDbMText
 10
10807.80318780591
 20
7207.16516208287
 30
0.0
 40
150.0
 41
0.0
 71
     5
 72
     1
  1
\A1;扉の出65
  7
STYLE1
 11
0.0000000000000001
 21
1.0
 31
0.0
 73
     1
 44
1.0
1001
ACAD
1000
MTEXTBEGIN
1070
    73
1070
     1
1070
    44
1040
1.0
1070
    74
1070
     0
1000
MTEXTEND
  0
POINT
  5
1E6A7
330
1DDAF
100
AcDbEntity
  8
DEFPOINTS
 62
     0
 48
50.0
100
AcDbPoint
 10
10650.99166227189
 20
7892.310710222282
 30
0.0
  0
POINT
  5
1E6A8
330
1DDAF
100
AcDbEntity
  8
DEFPOINTS
 62
     0
 48
50.0
100
AcDbPoint
 10
10650.99166227189
 20
7827.310710222282
 30
0.0
  0
POINT
  5
1E6A9
330
1DDAF
100
AcDbEntity
  8
DEFPOINTS
 62
     0
 48
50.0
100
AcDbPoint
 10
10907.80318780591
 20
7827.310710222282
 30
0.0
  0
ENDBLK
  5
1DDBB
330
1DDAF
100
AcDbEntity
  8
0
 48
50.0
100
AcDbBlockEnd
  0
BLOCK
  5
1DDC6
330
1DDBC
100
AcDbEntity
  8
0
 48
50.0
100
AcDbBlockBegin
  2
*D12
 70
     1
 10
0.0
 20
0.0
 30
0.0
  3
*D12
  1

  0
LINE
  5
1DFF7
330
1DDBC
100
AcDbEntity
  8
寸法
 62
     0
 48
50.0
370
    -2
100
AcDbLine
 10
9445.991662271891
 20
8837.310710222281
 30
0.0
 11
8003.991662271889
 21
8837.310710222281
 31
0.0
  0
LINE
  5
1DFF8
330
1DDBC
100
AcDbEntity
  8
寸法
 62
     0
 48
50.0
370
    -2
100
AcDbLine
 10
9445.991662271891
 20
8402.310710222282
 30
0.0
 11
8003.991662271889
 21
8402.310710222282
 31
0.0
  0
LINE
  5
1DFF9
330
1DDBC
100
AcDbEntity
  8
寸法
 62
     0
 48
50.0
370
    -2
100
AcDbLine
 10
8078.991662271889
 20
8837.310710222281
 30
0.0
 11
8078.991662271889
 21
8402.310710222282
 31
0.0
  0
INSERT
  5
1DFFA
330
1DDBC
100
AcDbEntity
  8
寸法
 62
     0
 48
50.0
370
    -2
100
AcDbBlockReference
  2
_DOTSMALL
 10
8078.991662271889
 20
8837.310710222281
 30
0.0
 41
125.0
 42
125.0
 43
125.0
 50
90.0
  0
INSERT
  5
1DFFB
330
1DDBC
100
AcDbEntity
  8
寸法
 62
     0
 48
50.0
370
    -2
100
AcDbBlockReference
  2
_DOTSMALL
 10
8078.991662271889
 20
8402.310710222282
 30
0.0
 41
125.0
 42
125.0
 43
125.0
 50
270.0
  0
MTEXT
  5
1DFFC
330
1DDBC
100
AcDbEntity
  8
寸法
 62
     7
 48
50.0
100
AcDbMText
 10
7978.991662271887
 20
8619.810710222283
 30
0.0
 40
150.0
 41
0.0
 71
     5
 72
     1
  1
\A1;435
  7
STYLE1
 11
0.0000000000000001
 21
1.0
 31
0.0
 73
     1
 44
1.0
1001
ACAD
1000
MTEXTBEGIN
1070
    73
1070
     1
1070
    44
1040
1.0
1070
    74
1070
     0
1000
MTEXTEND
  0
POINT
  5
1DFFD
330
1DDBC
100
AcDbEntity
  8
DEFPOINTS
 62
     0
 48
50.0
100
AcDbPoint
 10
9470.99166227189
 20
8837.310710222281
 30
0.0
  0
POINT
  5
1DFFE
330
1DDBC
100
AcDbEntity
  8
DEFPOINTS
 62
     0
 48
50.0
100
AcDbPoint
 10
9470.99166227189
 20
8402.310710222282
 30
0.0
  0
POINT
  5
1DFFF
330
1DDBC
100
AcDbEntity
  8
DEFPOINTS
 62
     0
 48
50.0
100
AcDbPoint
 10
8078.991662271889
 20
8402.310710222282
 30
0.0
  0
ENDBLK
  5
1DDC7
330
1DDBC
100
AcDbEntity
  8
0
 48
50.0
100
AcDbBlockEnd
  0
BLOCK
  5
1DDD1
330
1DDC8
100
AcDbEntity
  8
0
 48
50.0
100
AcDbBlockBegin
  2
*D13
 70
     1
 10
0.0
 20
0.0
 30
0.0
  3
*D13
  1

  0
LINE
  5
1E09D
330
1DDC8
100
AcDbEntity
  8
寸法
 62
     0
 48
50.0
370
    -2
100
AcDbLine
 10
10104.42093890865
 20
7892.310710222282
 30
0.0
 11
10054.42093890865
 21
7892.310710222282
 31
0.0
  0
LINE
  5
1E09E
330
1DDC8
100
AcDbEntity
  8
寸法
 62
     0
 48
50.0
370
    -2
100
AcDbLine
 10
10129.42093890865
 20
8837.310710222281
 30
0.0
 11
10129.42093890865
 21
7892.310710222282
 31
0.0
  0
INSERT
  5
1E09F
330
1DDC8
100
AcDbEntity
  8
寸法
 62
     0
 48
50.0
370
    -2
100
AcDbBlockReference
  2
_DOTSMALL
 10
10129.42093890865
 20
8837.310710222281
 30
0.0
 41
125.0
 42
125.0
 43
125.0
 50
90.0
  0
INSERT
  5
1E0A0
330
1DDC8
100
AcDbEntity
  8
寸法
 62
     0
 48
50.0
370
    -2
100
AcDbBlockReference
  2
_DOTSMALL
 10
10129.42093890865
 20
7892.310710222282
 30
0.0
 41
125.0
 42
125.0
 43
125.0
 50
270.0
  0
MTEXT
  5
1E0A1
330
1DDC8
100
AcDbEntity
  8
寸法
 62
     7
 48
50.0
100
AcDbMText
 10
10029.42093890865
 20
8364.810710222284
 30
0.0
 40
150.0
 41
0.0
 71
     5
 72
     1
  1
\A1;945
  7
STYLE1
 11
0.0000000000000001
 21
1.0
 31
0.0
 73
     1
 44
1.0
1001
ACAD
1000
MTEXTBEGIN
1070
    73
1070
     1
1070
    44
1040
1.0
1070
    74
1070
     0
1000
MTEXTEND
  0
POINT
  5
1E0A2
330
1DDC8
100
AcDbEntity
  8
DEFPOINTS
 62
     0
 48
50.0
100
AcDbPoint
 10
10209.99166227189
 20
8837.310710222281
 30
0.0
  0
POINT
  5
1E0A3
330
1DDC8
100
AcDbEntity
  8
DEFPOINTS
 62
     0
 48
50.0
100
AcDbPoint
 10
10129.42093890865
 20
7892.310710222282
 30
0.0
  0
POINT
  5
1E0A4
330
1DDC8
100
AcDbEntity
  8
DEFPOINTS
 62
     0
 48
50.0
100
AcDbPoint
 10
10129.42093890865
 20
7892.310710222282
 30
0.0
  0
ENDBLK
  5
1DDD2
330
1DDC8
100
AcDbEntity
  8
0
 48
50.0
100
AcDbBlockEnd
  0
BLOCK
  5
1DDDD
330
1DDD3
100
AcDbEntity
  8
0
 48
50.0
100
AcDbBlockBegin
  2
*D14
 70
     1
 10
0.0
 20
0.0
 30
0.0
  3
*D14
  1

  0
LINE
  5
1DFEE
330
1DDD3
100
AcDbEntity
  8
寸法
 62
     0
 48
50.0
370
    -2
100
AcDbLine
 10
8804.991662271888
 20
9782.310710222283
 30
0.0
 11
8003.991662271889
 21
9782.310710222283
 31
0.0
  0
LINE
  5
1DFEF
330
1DDD3
100
AcDbEntity
  8
寸法
 62
     0
 48
50.0
370
    -2
100
AcDbLine
 10
9445.991662271891
 20
9272.310710222283
 30
0.0
 11
8003.991662271889
 21
9272.310710222283
 31
0.0
  0
LINE
  5
1DFF0
330
1DDD3
100
AcDbEntity
  8
寸法
 62
     0
 48
50.0
370
    -2
100
AcDbLine
 10
8078.991662271889
 20
9782.310710222283
 30
0.0
 11
8078.991662271889
 21
9272.310710222283
 31
0.0
  0
INSERT
  5
1DFF1
330
1DDD3
100
AcDbEntity
  8
寸法
 62
     0
 48
50.0
370
    -2
100
AcDbBlockReference
  2
_DOTSMALL
 10
8078.991662271889
 20
9782.310710222283
 30
0.0
 41
125.0
 42
125.0
 43
125.0
 50
90.0
  0
INSERT
  5
1DFF2
330
1DDD3
100
AcDbEntity
  8
寸法
 62
     0
 48
50.0
370
    -2
100
AcDbBlockReference
  2
_DOTSMALL
 10
8078.991662271889
 20
9272.310710222283
 30
0.0
 41
125.0
 42
125.0
 43
125.0
 50
270.0
  0
MTEXT
  5
1DFF3
330
1DDD3
100
AcDbEntity
  8
寸法
 62
     7
 48
50.0
100
AcDbMText
 10
7978.991662271887
 20
9527.310710222284
 30
0.0
 40
150.0
 41
0.0
 71
     5
 72
     1
  1
\A1;510
  7
STYLE1
 11
0.0000000000000001
 21
1.0
 31
0.0
 73
     1
 44
1.0
1001
ACAD
1000
MTEXTBEGIN
1070
    73
1070
     1
1070
    44
1040
1.0
1070
    74
1070
     0
1000
MTEXTEND
  0
POINT
  5
1DFF4
330
1DDD3
100
AcDbEntity
  8
DEFPOINTS
 62
     0
 48
50.0
100
AcDbPoint
 10
8829.991662271888
 20
9782.310710222283
 30
0.0
  0
POINT
  5
1DFF5
330
1DDD3
100
AcDbEntity
  8
DEFPOINTS
 62
     0
 48
50.0
100
AcDbPoint
 10
9470.99166227189
 20
9272.310710222283
 30
0.0
  0
POINT
  5
1DFF6
330
1DDD3
100
AcDbEntity
  8
DEFPOINTS
 62
     0
 48
50.0
100
AcDbPoint
 10
8078.991662271889
 20
9272.310710222283
 30
0.0
  0
ENDBLK
  5
1DDDE
330
1DDD3
100
AcDbEntity
  8
0
 48
50.0
100
AcDbBlockEnd
  0
BLOCK
  5
1DDE8
330
1DDDF
100
AcDbEntity
  8
0
 48
50.0
100
AcDbBlockBegin
  2
*D15
 70
     1
 10
0.0
 20
0.0
 30
0.0
  3
*D15
  1

  0
LINE
  5
1E053
330
1DDDF
100
AcDbEntity
  8
寸法
 62
     0
 48
50.0
370
    -2
100
AcDbLine
 10
11984.99166227189
 20
7957.310710222282
 30
0.0
 11
12485.05988643595
 21
7957.310710222282
 31
0.0
  0
LINE
  5
1E054
330
1DDDF
100
AcDbEntity
  8
寸法
 62
     0
 48
50.0
370
    -2
100
AcDbLine
 10
12410.05988643596
 20
9717.31071022228
 30
0.0
 11
12410.05988643596
 21
7957.310710222282
 31
0.0
  0
INSERT
  5
1E055
330
1DDDF
100
AcDbEntity
  8
寸法
 62
     0
 48
50.0
370
    -2
100
AcDbBlockReference
  2
_DOTSMALL
 10
12410.05988643596
 20
9717.31071022228
 30
0.0
 41
125.0
 42
125.0
 43
125.0
 50
90.0
  0
INSERT
  5
1E056
330
1DDDF
100
AcDbEntity
  8
寸法
 62
     0
 48
50.0
370
    -2
100
AcDbBlockReference
  2
_DOTSMALL
 10
12410.05988643596
 20
7957.310710222282
 30
0.0
 41
125.0
 42
125.0
 43
125.0
 50
270.0
  0
MTEXT
  5
1E057
330
1DDDF
100
AcDbEntity
  8
寸法
 62
     7
 48
50.0
100
AcDbMText
 10
12310.05988643595
 20
8837.310710222284
 30
0.0
 40
150.0
 41
0.0
 71
     5
 72
     1
  1
\A1;1760
  7
STYLE1
 11
0.0000000000000001
 21
1.0
 31
0.0
 73
     1
 44
1.0
1001
ACAD
1000
MTEXTBEGIN
1070
    73
1070
     1
1070
    44
1040
1.0
1070
    74
1070
     0
1000
MTEXTEND
  0
POINT
  5
1E058
330
1DDDF
100
AcDbEntity
  8
DEFPOINTS
 62
     0
 48
50.0
100
AcDbPoint
 10
11959.99166227189
 20
9717.310710222283
 30
0.0
  0
POINT
  5
1E059
330
1DDDF
100
AcDbEntity
  8
DEFPOINTS
 62
     0
 48
50.0
100
AcDbPoint
 10
11959.99166227189
 20
7957.310710222282
 30
0.0
  0
POINT
  5
1E05A
330
1DDDF
100
AcDbEntity
  8
DEFPOINTS
 62
     0
 48
50.0
100
AcDbPoint
 10
12410.05988643596
 20
7957.310710222282
 30
0.0
  0
ENDBLK
  5
1DDE9
330
1DDDF
100
AcDbEntity
  8
0
 48
50.0
100
AcDbBlockEnd
  0
BLOCK
  5
1DDF4
330
1DDEA
100
AcDbEntity
  8
0
 48
50.0
100
AcDbBlockBegin
  2
*D16
 70
     1
 10
0.0
 20
0.0
 30
0.0
  3
*D16
  1

  0
LINE
  5
1E04A
330
1DDEA
100
AcDbEntity
  8
寸法
 62
     0
 48
50.0
370
    -2
100
AcDbLine
 10
11904.99166227189
 20
7892.310710222282
 30
0.0
 11
12805.99166227189
 21
7892.310710222282
 31
0.0
  0
LINE
  5
1E04B
330
1DDEA
100
AcDbEntity
  8
寸法
 62
     0
 48
50.0
370
    -2
100
AcDbLine
 10
11904.99166227189
 20
9782.310710222283
 30
0.0
 11
12805.99166227189
 21
9782.310710222281
 31
0.0
  0
LINE
  5
1E04C
330
1DDEA
100
AcDbEntity
  8
寸法
 62
     0
 48
50.0
370
    -2
100
AcDbLine
 10
12730.99166227189
 20
7892.310710222282
 30
0.0
 11
12730.99166227189
 21
9782.310710222281
 31
0.0
  0
INSERT
  5
1E04D
330
1DDEA
100
AcDbEntity
  8
寸法
 62
     0
 48
50.0
370
    -2
100
AcDbBlockReference
  2
_DOTSMALL
 10
12730.99166227189
 20
7892.310710222282
 30
0.0
 41
125.0
 42
125.0
 43
125.0
 50
270.0
  0
INSERT
  5
1E04E
330
1DDEA
100
AcDbEntity
  8
寸法
 62
     0
 48
50.0
370
    -2
100
AcDbBlockReference
  2
_DOTSMALL
 10
12730.99166227189
 20
9782.310710222281
 30
0.0
 41
125.0
 42
125.0
 43
125.0
 50
90.0
  0
MTEXT
  5
1E04F
330
1DDEA
100
AcDbEntity
  8
寸法
 62
     7
 48
50.0
100
AcDbMText
 10
12630.99166227188
 20
8837.310710222284
 30
0.0
 40
150.0
 41
0.0
 71
     5
 72
     1
  1
\A1;1890
  7
STYLE1
 11
0.0000000000000001
 21
1.0
 31
0.0
 73
     1
 44
1.0
1001
ACAD
1000
MTEXTBEGIN
1070
    73
1070
     1
1070
    44
1040
1.0
1070
    74
1070
     0
1000
MTEXTEND
  0
POINT
  5
1E050
330
1DDEA
100
AcDbEntity
  8
DEFPOINTS
 62
     0
 48
50.0
100
AcDbPoint
 10
11879.99166227189
 20
7892.310710222282
 30
0.0
  0
POINT
  5
1E051
330
1DDEA
100
AcDbEntity
  8
DEFPOINTS
 62
     0
 48
50.0
100
AcDbPoint
 10
11879.99166227189
 20
9782.310710222283
 30
0.0
  0
POINT
  5
1E052
330
1DDEA
100
AcDbEntity
  8
DEFPOINTS
 62
     0
 48
50.0
100
AcDbPoint
 10
12730.99166227189
 20
9782.310710222281
 30
0.0
  0
ENDBLK
  5
1DDF5
330
1DDEA
100
AcDbEntity
  8
0
 48
50.0
100
AcDbBlockEnd
  0
BLOCK
  5
1DE01
330
1DDF6
100
AcDbEntity
  8
0
 48
50.0
100
AcDbBlockBegin
  2
*D17
 70
     1
 10
0.0
 20
0.0
 30
0.0
  3
*D17
  1

  0
LINE
  5
1E61B
330
1DDF6
100
AcDbEntity
  8
寸法
 62
     0
 48
50.0
370
    -2
100
AcDbLine
 10
11879.99166227189
 20
7867.310710222279
 30
0.0
 11
11879.99166227189
 21
6186.310710222282
 31
0.0
  0
LINE
  5
1E61C
330
1DDF6
100
AcDbEntity
  8
寸法
 62
     0
 48
50.0
370
    -2
100
AcDbLine
 10
11929.99166227189
 20
6547.843653977354
 30
0.0
 11
11929.99166227189
 21
6186.310710222282
 31
0.0
  0
LINE
  5
1E61D
330
1DDF6
100
AcDbEntity
  8
寸法
 62
     0
 48
50.0
370
    -2
100
AcDbLine
 10
11879.99166227189
 20
6261.310710222282
 30
0.0
 11
11929.99166227189
 21
6261.310710222282
 31
0.0
  0
LINE
  5
1E61E
330
1DDF6
100
AcDbEntity
  8
寸法
 62
     0
 48
50.0
370
    -2
100
AcDbLine
 10
11929.99166227189
 20
6261.310710222282
 30
0.0
 11
12389.87355203567
 21
6261.310710222282
 31
0.0
  0
INSERT
  5
1E61F
330
1DDF6
100
AcDbEntity
  8
寸法
 62
     0
 48
50.0
370
    -2
100
AcDbBlockReference
  2
_DOTSMALL
 10
11879.99166227189
 20
6261.310710222282
 30
0.0
 41
125.0
 42
125.0
 43
125.0
 50
180.0
  0
INSERT
  5
1E620
330
1DDF6
100
AcDbEntity
  8
寸法
 62
     0
 48
50.0
370
    -2
100
AcDbBlockReference
  2
_DOTSMALL
 10
11929.99166227189
 20
6261.310710222282
 30
0.0
 41
125.0
 42
125.0
 43
125.0
  0
MTEXT
  5
1E621
330
1DDF6
100
AcDbEntity
  8
寸法
 62
     7
 48
50.0
100
AcDbMText
 10
12222.43260715378
 20
6368.810710222282
 30
0.0
 40
150.0
 41
0.0
 71
     5
 72
     1
  1
\A1;(50)
  7
STYLE1
 73
     1
 44
1.0
1001
ACAD
1000
MTEXTBEGIN
1070
    73
1070
     1
1070
    44
1040
1.0
1070
    74
1070
     0
1000
MTEXTEND
  0
POINT
  5
1E622
330
1DDF6
100
AcDbEntity
  8
DEFPOINTS
 62
     0
 48
50.0
100
AcDbPoint
 10
11879.99166227189
 20
7892.310710222279
 30
0.0
  0
POINT
  5
1E623
330
1DDF6
100
AcDbEntity
  8
DEFPOINTS
 62
     0
 48
50.0
100
AcDbPoint
 10
11929.99166227189
 20
6572.843653977354
 30
0.0
  0
POINT
  5
1E624
330
1DDF6
100
AcDbEntity
  8
DEFPOINTS
 62
     0
 48
50.0
100
AcDbPoint
 10
11929.99166227189
 20
6261.310710222282
 30
0.0
  0
ENDBLK
  5
1DE02
330
1DDF6
100
AcDbEntity
  8
0
 48
50.0
100
AcDbBlockEnd
  0
BLOCK
  5
1DE0E
330
1DE03
100
AcDbEntity
  8
0
 48
50.0
100
AcDbBlockBegin
  2
*D18
 70
     1
 10
0.0
 20
0.0
 30
0.0
  3
*D18
  1

  0
LINE
  5
1E081
330
1DE03
100
AcDbEntity
  8
寸法
 62
     0
 48
50.0
370
    -2
100
AcDbLine
 10
11904.99166227189
 20
7892.310710222282
 30
0.0
 11
12805.99166227189
 21
7892.310710222282
 31
0.0
  0
LINE
  5
1E082
330
1DE03
100
AcDbEntity
  8
寸法
 62
     0
 48
50.0
370
    -2
100
AcDbLine
 10
12435.05988643595
 20
7762.310710222282
 30
0.0
 11
12805.99166227189
 21
7762.310710222282
 31
0.0
  0
LINE
  5
1E083
330
1DE03
100
AcDbEntity
  8
寸法
 62
     0
 48
50.0
370
    -2
100
AcDbLine
 10
12730.99166227189
 20
7892.310710222282
 30
0.0
 11
12730.99166227189
 21
7762.310710222282
 31
0.0
  0
LINE
  5
1E084
330
1DE03
100
AcDbEntity
  8
寸法
 62
     0
 48
50.0
370
    -2
100
AcDbLine
 10
12730.99166227189
 20
7762.310710222282
 30
0.0
 11
12730.99166227189
 21
7226.428820458503
 31
0.0
  0
INSERT
  5
1E085
330
1DE03
100
AcDbEntity
  8
寸法
 62
     0
 48
50.0
370
    -2
100
AcDbBlockReference
  2
_DOTSMALL
 10
12730.99166227189
 20
7892.310710222282
 30
0.0
 41
125.0
 42
125.0
 43
125.0
 50
90.0
  0
INSERT
  5
1E086
330
1DE03
100
AcDbEntity
  8
寸法
 62
     0
 48
50.0
370
    -2
100
AcDbBlockReference
  2
_DOTSMALL
 10
12730.99166227189
 20
7762.310710222282
 30
0.0
 41
125.0
 42
125.0
 43
125.0
 50
270.0
  0
MTEXT
  5
1E087
330
1DE03
100
AcDbEntity
  8
寸法
 62
     7
 48
50.0
100
AcDbMText
 10
12623.49166227189
 20
7431.369765340395
 30
0.0
 40
150.0
 41
0.0
 71
     5
 72
     1
  1
\A1;(130)
  7
STYLE1
 11
0.0000000000000001
 21
1.0
 31
0.0
 73
     1
 44
1.0
1001
ACAD
1000
MTEXTBEGIN
1070
    73
1070
     1
1070
    44
1040
1.0
1070
    74
1070
     0
1000
MTEXTEND
  0
POINT
  5
1E088
330
1DE03
100
AcDbEntity
  8
DEFPOINTS
 62
     0
 48
50.0
100
AcDbPoint
 10
11879.99166227189
 20
7892.310710222282
 30
0.0
  0
POINT
  5
1E089
330
1DE03
100
AcDbEntity
  8
DEFPOINTS
 62
     0
 48
50.0
100
AcDbPoint
 10
12410.05988643596
 20
7762.310710222282
 30
0.0
  0
POINT
  5
1E08A
330
1DE03
100
AcDbEntity
  8
DEFPOINTS
 62
     0
 48
50.0
100
AcDbPoint
 10
12730.99166227189
 20
7762.310710222282
 30
0.0
  0
ENDBLK
  5
1DE0F
330
1DE03
100
AcDbEntity
  8
0
 48
50.0
100
AcDbBlockEnd
  0
BLOCK
  5
1DE1B
330
1DE10
100
AcDbEntity
  8
0
 48
50.0
100
AcDbBlockBegin
  2
*D19
 70
     1
 10
0.0
 20
0.0
 30
0.0
  3
*D19
  1

  0
LINE
  5
1E077
330
1DE10
100
AcDbEntity
  8
寸法
 62
     0
 48
50.0
370
    -2
100
AcDbLine
 10
11984.99166227189
 20
7957.310710222282
 30
0.0
 11
12485.05988643596
 21
7957.310710222282
 31
0.0
  0
LINE
  5
1E078
330
1DE10
100
AcDbEntity
  8
寸法
 62
     0
 48
50.0
370
    -2
100
AcDbLine
 10
11904.99166227189
 20
7892.310710222282
 30
0.0
 11
12485.05988643596
 21
7892.310710222282
 31
0.0
  0
LINE
  5
1E079
330
1DE10
100
AcDbEntity
  8
寸法
 62
     0
 48
50.0
370
    -2
100
AcDbLine
 10
12410.05988643596
 20
7957.310710222282
 30
0.0
 11
12410.05988643596
 21
7892.310710222282
 31
0.0
  0
LINE
  5
1E07A
330
1DE10
100
AcDbEntity
  8
寸法
 62
     0
 48
50.0
370
    -2
100
AcDbLine
 10
12410.05988643596
 20
7892.310710222282
 30
0.0
 11
12410.05988643596
 21
7537.121128833927
 31
0.0
  0
INSERT
  5
1E07B
330
1DE10
100
AcDbEntity
  8
寸法
 62
     0
 48
50.0
370
    -2
100
AcDbBlockReference
  2
_DOTSMALL
 10
12410.05988643596
 20
7957.310710222282
 30
0.0
 41
125.0
 42
125.0
 43
125.0
 50
90.0
  0
INSERT
  5
1E07C
330
1DE10
100
AcDbEntity
  8
寸法
 62
     0
 48
50.0
370
    -2
100
AcDbBlockReference
  2
_DOTSMALL
 10
12410.05988643596
 20
7892.310710222282
 30
0.0
 41
125.0
 42
125.0
 43
125.0
 50
270.0
  0
MTEXT
  5
1E07D
330
1DE10
100
AcDbEntity
  8
寸法
 62
     7
 48
50.0
100
AcDbMText
 10
12310.05988643596
 20
7652.215919528103
 30
0.0
 40
150.0
 41
0.0
 71
     5
 72
     1
  1
\A1;65
  7
STYLE1
 11
0.0000000000000001
 21
1.0
 31
0.0
 73
     1
 44
1.0
1001
ACAD
1000
MTEXTBEGIN
1070
    73
1070
     1
1070
    44
1040
1.0
1070
    74
1070
     0
1000
MTEXTEND
  0
POINT
  5
1E07E
330
1DE10
100
AcDbEntity
  8
DEFPOINTS
 62
     0
 48
50.0
100
AcDbPoint
 10
11959.99166227189
 20
7957.310710222282
 30
0.0
  0
POINT
  5
1E07F
330
1DE10
100
AcDbEntity
  8
DEFPOINTS
 62
     0
 48
50.0
100
AcDbPoint
 10
11879.99166227189
 20
7892.310710222282
 30
0.0
  0
POINT
  5
1E080
330
1DE10
100
AcDbEntity
  8
DEFPOINTS
 62
     0
 48
50.0
100
AcDbPoint
 10
12410.05988643596
 20
7892.310710222282
 30
0.0
  0
ENDBLK
  5
1DE1C
330
1DE10
100
AcDbEntity
  8
0
 48
50.0
100
AcDbBlockEnd
  0
BLOCK
  5
1DE28
330
1DE1D
100
AcDbEntity
  8
0
 48
50.0
100
AcDbBlockBegin
  2
*D20
 70
     1
 10
0.0
 20
0.0
 30
0.0
  3
*D20
  1

  0
LINE
  5
1E611
330
1DE1D
100
AcDbEntity
  8
寸法
 62
     0
 48
50.0
370
    -2
100
AcDbLine
 10
11814.99166227189
 20
7787.310710222282
 30
0.0
 11
11814.99166227189
 21
6497.843653977354
 31
0.0
  0
LINE
  5
1E612
330
1DE1D
100
AcDbEntity
  8
寸法
 62
     0
 48
50.0
370
    -2
100
AcDbLine
 10
11879.99166227189
 20
7867.310710222283
 30
0.0
 11
11879.99166227189
 21
6497.843653977354
 31
0.0
  0
LINE
  5
1E613
330
1DE1D
100
AcDbEntity
  8
寸法
 62
     0
 48
50.0
370
    -2
100
AcDbLine
 10
11814.99166227189
 20
6572.843653977354
 30
0.0
 11
11879.99166227189
 21
6572.843653977354
 31
0.0
  0
LINE
  5
1E614
330
1DE1D
100
AcDbEntity
  8
寸法
 62
     0
 48
50.0
370
    -2
100
AcDbLine
 10
11879.99166227189
 20
6572.843653977354
 30
0.0
 11
12235.18124366024
 21
6572.843653977354
 31
0.0
  0
INSERT
  5
1E615
330
1DE1D
100
AcDbEntity
  8
寸法
 62
     0
 48
50.0
370
    -2
100
AcDbBlockReference
  2
_DOTSMALL
 10
11814.99166227189
 20
6572.843653977354
 30
0.0
 41
125.0
 42
125.0
 43
125.0
 50
180.0
  0
INSERT
  5
1E616
330
1DE1D
100
AcDbEntity
  8
寸法
 62
     0
 48
50.0
370
    -2
100
AcDbBlockReference
  2
_DOTSMALL
 10
11879.99166227189
 20
6572.843653977354
 30
0.0
 41
125.0
 42
125.0
 43
125.0
  0
MTEXT
  5
1E617
330
1DE1D
100
AcDbEntity
  8
寸法
 62
     7
 48
50.0
100
AcDbMText
 10
12120.08645296606
 20
6672.843653977354
 30
0.0
 40
150.0
 41
0.0
 71
     5
 72
     1
  1
\A1;65
  7
STYLE1
 73
     1
 44
1.0
1001
ACAD
1000
MTEXTBEGIN
1070
    73
1070
     1
1070
    44
1040
1.0
1070
    74
1070
     0
1000
MTEXTEND
  0
POINT
  5
1E618
330
1DE1D
100
AcDbEntity
  8
DEFPOINTS
 62
     0
 48
50.0
100
AcDbPoint
 10
11814.99166227189
 20
7812.310710222281
 30
0.0
  0
POINT
  5
1E619
330
1DE1D
100
AcDbEntity
  8
DEFPOINTS
 62
     0
 48
50.0
100
AcDbPoint
 10
11879.99166227189
 20
7892.310710222282
 30
0.0
  0
POINT
  5
1E61A
330
1DE1D
100
AcDbEntity
  8
DEFPOINTS
 62
     0
 48
50.0
100
AcDbPoint
 10
11879.99166227189
 20
6572.843653977354
 30
0.0
  0
ENDBLK
  5
1DE29
330
1DE1D
100
AcDbEntity
  8
0
 48
50.0
100
AcDbBlockEnd
  0
BLOCK
  5
1DE35
330
1DE2A
100
AcDbEntity
  8
0
 48
50.0
100
AcDbBlockBegin
  2
*D21
 70
     1
 10
0.0
 20
0.0
 30
0.0
  3
*D21
  1

  0
LINE
  5
1E0AF
330
1DE2A
100
AcDbEntity
  8
寸法
 62
     0
 48
50.0
370
    -2
100
AcDbLine
 10
11904.99166227189
 20
9782.310710222283
 30
0.0
 11
12805.99166227189
 21
9782.310710222281
 31
0.0
  0
LINE
  5
1E0B0
330
1DE2A
100
AcDbEntity
  8
寸法
 62
     0
 48
50.0
370
    -2
100
AcDbLine
 10
12435.05988643595
 20
9872.310710222279
 30
0.0
 11
12805.99166227189
 21
9872.310710222279
 31
0.0
  0
LINE
  5
1E0B1
330
1DE2A
100
AcDbEntity
  8
寸法
 62
     0
 48
50.0
370
    -2
100
AcDbLine
 10
12730.99166227189
 20
9782.310710222281
 30
0.0
 11
12730.99166227189
 21
9872.310710222279
 31
0.0
  0
LINE
  5
1E0B2
330
1DE2A
100
AcDbEntity
  8
寸法
 62
     0
 48
50.0
370
    -2
100
AcDbLine
 10
12730.99166227189
 20
9872.310710222279
 30
0.0
 11
12730.99166227189
 21
10333.7167495602
 31
0.0
  0
INSERT
  5
1E0B3
330
1DE2A
100
AcDbEntity
  8
寸法
 62
     0
 48
50.0
370
    -2
100
AcDbBlockReference
  2
_DOTSMALL
 10
12730.99166227189
 20
9782.310710222281
 30
0.0
 41
125.0
 42
125.0
 43
125.0
 50
270.0
  0
INSERT
  5
1E0B4
330
1DE2A
100
AcDbEntity
  8
寸法
 62
     0
 48
50.0
370
    -2
100
AcDbBlockReference
  2
_DOTSMALL
 10
12730.99166227189
 20
9872.310710222279
 30
0.0
 41
125.0
 42
125.0
 43
125.0
 50
90.0
  0
MTEXT
  5
1E0B5
330
1DE2A
100
AcDbEntity
  8
寸法
 62
     7
 48
50.0
100
AcDbMText
 10
12623.45541034541
 20
10166.01372989124
 30
0.0
 40
150.0
 41
0.0
 71
     5
 72
     1
  1
\A1;(90)
  7
STYLE1
 11
0.0000000000000001
 21
1.0
 31
0.0
 73
     1
 44
1.0
1001
ACAD
1000
MTEXTBEGIN
1070
    73
1070
     1
1070
    44
1040
1.0
1070
    74
1070
     0
1000
MTEXTEND
  0
POINT
  5
1E0B6
330
1DE2A
100
AcDbEntity
  8
DEFPOINTS
 62
     0
 48
50.0
100
AcDbPoint
 10
11879.99166227189
 20
9782.310710222283
 30
0.0
  0
POINT
  5
1E0B7
330
1DE2A
100
AcDbEntity
  8
DEFPOINTS
 62
     0
 48
50.0
100
AcDbPoint
 10
12410.05988643596
 20
9872.310710222279
 30
0.0
  0
POINT
  5
1E0B8
330
1DE2A
100
AcDbEntity
  8
DEFPOINTS
 62
     0
 48
50.0
100
AcDbPoint
 10
12730.99166227189
 20
9872.310710222279
 30
0.0
  0
ENDBLK
  5
1DE36
330
1DE2A
100
AcDbEntity
  8
0
 48
50.0
100
AcDbBlockEnd
  0
BLOCK
  5
1DE42
330
1DE37
100
AcDbEntity
  8
0
 48
50.0
100
AcDbBlockBegin
  2
*D22
 70
     1
 10
0.0
 20
0.0
 30
0.0
  3
*D22
  1

  0
LINE
  5
1E0A5
330
1DE37
100
AcDbEntity
  8
寸法
 62
     0
 48
50.0
370
    -2
100
AcDbLine
 10
11904.99166227189
 20
9782.310710222283
 30
0.0
 11
12485.05988643596
 21
9782.310710222281
 31
0.0
  0
LINE
  5
1E0A6
330
1DE37
100
AcDbEntity
  8
寸法
 62
     0
 48
50.0
370
    -2
100
AcDbLine
 10
11984.99166227189
 20
9717.310710222283
 30
0.0
 11
12485.05988643596
 21
9717.31071022228
 31
0.0
  0
LINE
  5
1E0A7
330
1DE37
100
AcDbEntity
  8
寸法
 62
     0
 48
50.0
370
    -2
100
AcDbLine
 10
12410.05988643596
 20
9717.31071022228
 30
0.0
 11
12410.05988643596
 21
9782.310710222281
 31
0.0
  0
LINE
  5
1E0A8
330
1DE37
100
AcDbEntity
  8
寸法
 62
     0
 48
50.0
370
    -2
100
AcDbLine
 10
12410.05988643596
 20
9782.310710222281
 30
0.0
 11
12410.05988643596
 21
10137.50029161063
 31
0.0
  0
INSERT
  5
1E0A9
330
1DE37
100
AcDbEntity
  8
寸法
 62
     0
 48
50.0
370
    -2
100
AcDbBlockReference
  2
_DOTSMALL
 10
12410.05988643596
 20
9717.31071022228
 30
0.0
 41
125.0
 42
125.0
 43
125.0
 50
270.0
  0
INSERT
  5
1E0AA
330
1DE37
100
AcDbEntity
  8
寸法
 62
     0
 48
50.0
370
    -2
100
AcDbBlockReference
  2
_DOTSMALL
 10
12410.05988643596
 20
9782.310710222281
 30
0.0
 41
125.0
 42
125.0
 43
125.0
 50
90.0
  0
MTEXT
  5
1E0AB
330
1DE37
100
AcDbEntity
  8
寸法
 62
     7
 48
50.0
100
AcDbMText
 10
12310.05988643596
 20
10022.40550091646
 30
0.0
 40
150.0
 41
0.0
 71
     5
 72
     1
  1
\A1;65
  7
STYLE1
 11
0.0000000000000001
 21
1.0
 31
0.0
 73
     1
 44
1.0
1001
ACAD
1000
MTEXTBEGIN
1070
    73
1070
     1
1070
    44
1040
1.0
1070
    74
1070
     0
1000
MTEXTEND
  0
POINT
  5
1E0AC
330
1DE37
100
AcDbEntity
  8
DEFPOINTS
 62
     0
 48
50.0
100
AcDbPoint
 10
11879.99166227189
 20
9782.310710222283
 30
0.0
  0
POINT
  5
1E0AD
330
1DE37
100
AcDbEntity
  8
DEFPOINTS
 62
     0
 48
50.0
100
AcDbPoint
 10
11959.99166227189
 20
9717.310710222283
 30
0.0
  0
POINT
  5
1E0AE
330
1DE37
100
AcDbEntity
  8
DEFPOINTS
 62
     0
 48
50.0
100
AcDbPoint
 10
12410.05988643596
 20
9717.31071022228
 30
0.0
  0
ENDBLK
  5
1DE43
330
1DE37
100
AcDbEntity
  8
0
 48
50.0
100
AcDbBlockEnd
  0
BLOCK
  5
1E0C6
330
1E0BA
100
AcDbEntity
  8
0
 48
50.0
100
AcDbBlockBegin
  2
*D23
 70
     1
 10
0.0
 20
0.0
 30
0.0
  3
*D23
  1

  0
LINE
  5
1E0E7
330
1E0BA
100
AcDbEntity
  8
寸法
 62
     0
 48
50.0
370
    -2
100
AcDbLine
 10
11879.99166227189
 20
8585.359196831445
 30
0.0
 11
11879.99166227189
 21
8322.787417405601
 31
0.0
  0
LINE
  5
1E0E8
330
1E0BA
100
AcDbEntity
  8
寸法
 62
     0
 48
50.0
370
    -2
100
AcDbLine
 10
11759.99166227189
 20
8585.359196831449
 30
0.0
 11
11759.99166227189
 21
8322.787417405601
 31
0.0
  0
LINE
  5
1E0E9
330
1E0BA
100
AcDbEntity
  8
寸法
 62
     0
 48
50.0
370
    -2
100
AcDbLine
 10
11879.99166227189
 20
8397.7874174056
 30
0.0
 11
11759.99166227189
 21
8397.7874174056
 31
0.0
  0
LINE
  5
1E0EA
330
1E0BA
100
AcDbEntity
  8
寸法
 62
     0
 48
50.0
370
    -2
100
AcDbLine
 10
11759.99166227189
 20
8397.7874174056
 30
0.0
 11
11344.87355203567
 21
8397.7874174056
 31
0.0
  0
INSERT
  5
1E0EB
330
1E0BA
100
AcDbEntity
  8
寸法
 62
     0
 48
50.0
370
    -2
100
AcDbBlockReference
  2
_DOTSMALL
 10
11879.99166227189
 20
8397.7874174056
 30
0.0
 41
125.0
 42
125.0
 43
125.0
  0
INSERT
  5
1E0EC
330
1E0BA
100
AcDbEntity
  8
寸法
 62
     0
 48
50.0
370
    -2
100
AcDbBlockReference
  2
_DOTSMALL
 10
11759.99166227189
 20
8397.7874174056
 30
0.0
 41
125.0
 42
125.0
 43
125.0
 50
180.0
  0
MTEXT
  5
1E0ED
330
1E0BA
100
AcDbEntity
  8
寸法
 62
     7
 48
50.0
100
AcDbMText
 10
11489.93260715378
 20
8497.802181185129
 30
0.0
 40
150.0
 41
0.0
 71
     5
 72
     1
  1
\A1;120
  7
STYLE1
 73
     1
 44
1.0
1001
ACAD
1000
MTEXTBEGIN
1070
    73
1070
     1
1070
    44
1040
1.0
1070
    74
1070
     0
1000
MTEXTEND
  0
POINT
  5
1E0EE
330
1E0BA
100
AcDbEntity
  8
DEFPOINTS
 62
     0
 48
50.0
100
AcDbPoint
 10
11879.99166227189
 20
8610.359196831444
 30
0.0
  0
POINT
  5
1E0EF
330
1E0BA
100
AcDbEntity
  8
DEFPOINTS
 62
     0
 48
50.0
100
AcDbPoint
 10
11759.99166227189
 20
8610.359196831449
 30
0.0
  0
POINT
  5
1E0F0
330
1E0BA
100
AcDbEntity
  8
DEFPOINTS
 62
     0
 48
50.0
100
AcDbPoint
 10
11759.99166227189
 20
8397.7874174056
 30
0.0
  0
ENDBLK
  5
1E0C7
330
1E0BA
100
AcDbEntity
  8
0
 48
50.0
100
AcDbBlockEnd
  0
BLOCK
  5
1E0FC
330
1E0F2
100
AcDbEntity
  8
0
 48
50.0
100
AcDbBlockBegin
  2
*D24
 70
     1
 10
0.0
 20
0.0
 30
0.0
  3
*D24
  1

  0
LINE
  5
1EBED
330
1E0F2
100
AcDbEntity
  8
寸法
 62
     0
 48
50.0
370
    -2
100
AcDbLine
 10
8829.991662271888
 20
7802.310710222283
 30
0.0
 11
8829.991662271888
 21
7215.168565841814
 31
0.0
  0
LINE
  5
1EBEE
330
1E0F2
100
AcDbEntity
  8
寸法
 62
     0
 48
50.0
370
    -2
100
AcDbLine
 10
10650.99166227189
 20
7802.310710222283
 30
0.0
 11
10650.99166227189
 21
7215.168565841814
 31
0.0
  0
LINE
  5
1EBEF
330
1E0F2
100
AcDbEntity
  8
寸法
 62
     0
 48
50.0
370
    -2
100
AcDbLine
 10
8829.991662271888
 20
7290.168565841814
 30
0.0
 11
10650.99166227189
 21
7290.168565841814
 31
0.0
  0
INSERT
  5
1EBF0
330
1E0F2
100
AcDbEntity
  8
寸法
 62
     0
 48
50.0
370
    -2
100
AcDbBlockReference
  2
_DOTSMALL
 10
8829.991662271888
 20
7290.168565841814
 30
0.0
 41
125.0
 42
125.0
 43
125.0
 50
180.0
  0
INSERT
  5
1EBF1
330
1E0F2
100
AcDbEntity
  8
寸法
 62
     0
 48
50.0
370
    -2
100
AcDbBlockReference
  2
_DOTSMALL
 10
10650.99166227189
 20
7290.168565841814
 30
0.0
 41
125.0
 42
125.0
 43
125.0
  0
MTEXT
  5
1EBF2
330
1E0F2
100
AcDbEntity
  8
寸法
 62
     7
 48
50.0
100
AcDbMText
 10
9799.611184847643
 20
7390.183329621341
 30
0.0
 40
150.0
 41
0.0
 71
     5
 72
     1
  1
\A1;1821
  7
STYLE1
 73
     1
 44
1.0
1001
ACAD
1000
MTEXTBEGIN
1070
    73
1070
     1
1070
    44
1040
1.0
1070
    74
1070
     0
1000
MTEXTEND
  0
POINT
  5
1EBF3
330
1E0F2
100
AcDbEntity
  8
DEFPOINTS
 62
     0
 48
50.0
100
AcDbPoint
 10
8829.991662271888
 20
7827.310710222282
 30
0.0
  0
POINT
  5
1EBF4
330
1E0F2
100
AcDbEntity
  8
DEFPOINTS
 62
     0
 48
50.0
100
AcDbPoint
 10
10650.99166227189
 20
7827.310710222282
 30
0.0
  0
POINT
  5
1EBF5
330
1E0F2
100
AcDbEntity
  8
DEFPOINTS
 62
     0
 48
50.0
100
AcDbPoint
 10
10650.99166227189
 20
7290.168565841814
 30
0.0
  0
ENDBLK
  5
1E0FD
330
1E0F2
100
AcDbEntity
  8
0
 48
50.0
100
AcDbBlockEnd
  0
BLOCK
  5
1E689
330
1E67D
100
AcDbEntity
  8
0
 48
50.0
100
AcDbBlockBegin
  2
*D25
 70
     1
 10
0.0
 20
0.0
 30
0.0
  3
*D25
  1

  0
LINE
  5
1E696
330
1E67D
100
AcDbEntity
  8
寸法
 62
     0
 48
50.0
370
    -2
100
AcDbLine
 10
10675.99166227189
 20
7892.310710222282
 30
0.0
 11
10982.80318780591
 21
7892.310710222282
 31
0.0
  0
LINE
  5
1E697
330
1E67D
100
AcDbEntity
  8
寸法
 62
     0
 48
50.0
370
    -2
100
AcDbLine
 10
10675.99166227188
 20
8012.31071022228
 30
0.0
 11
10982.80318780591
 21
8012.31071022228
 31
0.0
  0
LINE
  5
1E698
330
1E67D
100
AcDbEntity
  8
寸法
 62
     0
 48
50.0
370
    -2
100
AcDbLine
 10
10907.80318780591
 20
7892.310710222282
 30
0.0
 11
10907.80318780591
 21
8012.31071022228
 31
0.0
  0
LINE
  5
1E699
330
1E67D
100
AcDbEntity
  8
寸法
 62
     0
 48
50.0
370
    -2
100
AcDbLine
 10
10907.80318780591
 20
8012.31071022228
 30
0.0
 11
10907.80318780591
 21
8427.4288204585
 31
0.0
  0
INSERT
  5
1E69A
330
1E67D
100
AcDbEntity
  8
寸法
 62
     0
 48
50.0
370
    -2
100
AcDbBlockReference
  2
_DOTSMALL
 10
10907.80318780591
 20
7892.310710222282
 30
0.0
 41
125.0
 42
125.0
 43
125.0
 50
270.0
  0
INSERT
  5
1E69B
330
1E67D
100
AcDbEntity
  8
寸法
 62
     0
 48
50.0
370
    -2
100
AcDbBlockReference
  2
_DOTSMALL
 10
10907.80318780591
 20
8012.31071022228
 30
0.0
 41
125.0
 42
125.0
 43
125.0
 50
90.0
  0
MTEXT
  5
1E69C
330
1E67D
100
AcDbEntity
  8
寸法
 62
     7
 48
50.0
100
AcDbMText
 10
10807.78842402638
 20
8282.369765340392
 30
0.0
 40
150.0
 41
0.0
 71
     5
 72
     1
  1
\A1;120
  7
STYLE1
 11
0.0000000000000001
 21
1.0
 31
0.0
 73
     1
 44
1.0
1001
ACAD
1000
MTEXTBEGIN
1070
    73
1070
     1
1070
    44
1040
1.0
1070
    74
1070
     0
1000
MTEXTEND
  0
POINT
  5
1E69D
330
1E67D
100
AcDbEntity
  8
DEFPOINTS
 62
     0
 48
50.0
100
AcDbPoint
 10
10650.99166227189
 20
7892.310710222282
 30
0.0
  0
POINT
  5
1E69E
330
1E67D
100
AcDbEntity
  8
DEFPOINTS
 62
     0
 48
50.0
100
AcDbPoint
 10
10650.99166227188
 20
8012.31071022228
 30
0.0
  0
POINT
  5
1E69F
330
1E67D
100
AcDbEntity
  8
DEFPOINTS
 62
     0
 48
50.0
100
AcDbPoint
 10
10907.80318780591
 20
8012.31071022228
 30
0.0
  0
ENDBLK
  5
1E68A
330
1E67D
100
AcDbEntity
  8
0
 48
50.0
100
AcDbBlockEnd
  0
BLOCK
  5
1E6B7
330
1E6AB
100
AcDbEntity
  8
0
 48
50.0
100
AcDbBlockBegin
  2
*D26
 70
     1
 10
0.0
 20
0.0
 30
0.0
  3
*D26
  1

  0
LINE
  5
1E6C4
330
1E6AB
100
AcDbEntity
  8
寸法
 62
     0
 48
50.0
370
    -2
100
AcDbLine
 10
10675.99166227188
 20
8012.31071022228
 30
0.0
 11
11286.08370647741
 21
8012.31071022228
 31
0.0
  0
LINE
  5
1E6C5
330
1E6AB
100
AcDbEntity
  8
寸法
 62
     0
 48
50.0
370
    -2
100
AcDbLine
 10
10675.99166227188
 20
7827.310710222282
 30
0.0
 11
11286.08370647741
 21
7827.310710222282
 31
0.0
  0
LINE
  5
1E6C6
330
1E6AB
100
AcDbEntity
  8
寸法
 62
     0
 48
50.0
370
    -2
100
AcDbLine
 10
11211.08370647741
 20
8012.31071022228
 30
0.0
 11
11211.08370647741
 21
7827.310710222282
 31
0.0
  0
LINE
  5
1E6C7
330
1E6AB
100
AcDbEntity
  8
寸法
 62
     0
 48
50.0
370
    -2
100
AcDbLine
 10
11211.08370647741
 20
7827.310710222282
 30
0.0
 11
11211.08370647741
 21
7406.097506786686
 31
0.0
  0
INSERT
  5
1E6C8
330
1E6AB
100
AcDbEntity
  8
寸法
 62
     0
 48
50.0
370
    -2
100
AcDbBlockReference
  2
_DOTSMALL
 10
11211.08370647741
 20
8012.31071022228
 30
0.0
 41
125.0
 42
125.0
 43
125.0
 50
90.0
  0
INSERT
  5
1E6C9
330
1E6AB
100
AcDbEntity
  8
寸法
 62
     0
 48
50.0
370
    -2
100
AcDbBlockReference
  2
_DOTSMALL
 10
11211.08370647741
 20
7827.310710222282
 30
0.0
 41
125.0
 42
125.0
 43
125.0
 50
270.0
  0
MTEXT
  5
1E6CA
330
1E6AB
100
AcDbEntity
  8
寸法
 62
     7
 48
50.0
100
AcDbMText
 10
11111.08370647741
 20
7554.204108504485
 30
0.0
 40
150.0
 41
0.0
 71
     5
 72
     1
  1
\A1;185
  7
STYLE1
 11
0.0000000000000001
 21
1.0
 31
0.0
 73
     1
 44
1.0
1001
ACAD
1000
MTEXTBEGIN
1070
    73
1070
     1
1070
    44
1040
1.0
1070
    74
1070
     0
1000
MTEXTEND
  0
POINT
  5
1E6CB
330
1E6AB
100
AcDbEntity
  8
DEFPOINTS
 62
     0
 48
50.0
100
AcDbPoint
 10
10650.99166227188
 20
8012.31071022228
 30
0.0
  0
POINT
  5
1E6CC
330
1E6AB
100
AcDbEntity
  8
DEFPOINTS
 62
     0
 48
50.0
100
AcDbPoint
 10
10650.99166227188
 20
7827.310710222282
 30
0.0
  0
POINT
  5
1E6CD
330
1E6AB
100
AcDbEntity
  8
DEFPOINTS
 62
     0
 48
50.0
100
AcDbPoint
 10
11211.08370647741
 20
7827.310710222282
 30
0.0
  0
ENDBLK
  5
1E6B8
330
1E6AB
100
AcDbEntity
  8
0
 48
50.0
100
AcDbBlockEnd
  0
BLOCK
  5
1F063
330
1F058
100
AcDbEntity
  8
0
 48
50.0
100
AcDbBlockBegin
  2
*D27
 70
     1
 10
0.0
 20
0.0
 30
0.0
  3
*D27
  1

  0
LINE
  5
1F0AE
330
1F058
100
AcDbEntity
  8
寸法
 62
     0
 48
50.0
370
    -2
100
AcDbLine
 10
9551.689341890714
 20
2528.81135759427
 30
0.0
 11
9551.689341890714
 21
2822.544699492217
 31
0.0
  0
LINE
  5
1F0AF
330
1F058
100
AcDbEntity
  8
寸法
 62
     0
 48
50.0
370
    -2
100
AcDbLine
 10
9695.189341890715
 20
2589.119049901962
 30
0.0
 11
9695.189341890715
 21
2822.544699492217
 31
0.0
  0
LINE
  5
1F0B0
330
1F058
100
AcDbEntity
  8
寸法
 62
     0
 48
50.0
370
    -2
100
AcDbLine
 10
9695.189341890715
 20
2747.544699492217
 30
0.0
 11
9551.689341890714
 21
2747.544699492217
 31
0.0
  0
LINE
  5
1F0B1
330
1F058
100
AcDbEntity
  8
寸法
 62
     0
 48
50.0
370
    -2
100
AcDbLine
 10
9551.689341890714
 20
2747.544699492217
 30
0.0
 11
9256.56295429848
 21
2747.544699492217
 31
0.0
  0
INSERT
  5
1F0B2
330
1F058
100
AcDbEntity
  8
寸法
 62
     0
 48
50.0
370
    -2
100
AcDbBlockReference
  2
_DOTSMALL
 10
9695.189341890715
 20
2747.544699492217
 30
0.0
 41
125.0
 42
125.0
 43
125.0
  0
INSERT
  5
1F0B3
330
1F058
100
AcDbEntity
  8
寸法
 62
     0
 48
50.0
370
    -2
100
AcDbBlockReference
  2
_DOTSMALL
 10
9551.689341890714
 20
2747.544699492217
 30
0.0
 41
125.0
 42
125.0
 43
125.0
 50
180.0
  0
MTEXT
  5
1F0B4
330
1F058
100
AcDbEntity
  8
寸法
 62
     7
 48
50.0
100
AcDbMText
 10
9341.626148094597
 20
2822.544699492217
 30
0.0
 40
100.0
 41
0.0
 71
     5
 72
     1
  1
\A1;65
  7
STYLE1
 73
     1
 44
1.0
1001
ACAD
1000
MTEXTBEGIN
1070
    73
1070
     1
1070
    44
1040
1.0
1070
    74
1070
     0
1000
MTEXTEND
  0
POINT
  5
1F0B5
330
1F058
100
AcDbEntity
  8
DEFPOINTS
 62
     0
 48
50.0
100
AcDbPoint
 10
9551.689341890714
 20
2503.81135759427
 30
0.0
  0
POINT
  5
1F0B6
330
1F058
100
AcDbEntity
  8
DEFPOINTS
 62
     0
 48
50.0
100
AcDbPoint
 10
9695.189341890715
 20
2564.119049901961
 30
0.0
  0
POINT
  5
1F0B7
330
1F058
100
AcDbEntity
  8
DEFPOINTS
 62
     0
 48
50.0
100
AcDbPoint
 10
9695.189341890715
 20
2747.544699492217
 30
0.0
  0
ENDBLK
  5
1F064
330
1F058
100
AcDbEntity
  8
0
 48
50.0
100
AcDbBlockEnd
  0
BLOCK
  5
1F070
330
1F065
100
AcDbEntity
  8
0
 48
50.0
100
AcDbBlockBegin
  2
*D28
 70
     1
 10
0.0
 20
0.0
 30
0.0
  3
*D28
  1

  0
LINE
  5
1F0B8
330
1F065
100
AcDbEntity
  8
寸法
 62
     0
 48
50.0
370
    -2
100
AcDbLine
 10
9656.689341890711
 20
2564.119049901961
 30
0.0
 11
8935.304043970043
 21
2564.119049901962
 31
0.0
  0
LINE
  5
1F0B9
330
1F065
100
AcDbEntity
  8
寸法
 62
     0
 48
50.0
370
    -2
100
AcDbLine
 10
9526.689341890714
 20
2503.81135759427
 30
0.0
 11
8935.304043970043
 21
2503.81135759427
 31
0.0
  0
LINE
  5
1F0BA
330
1F065
100
AcDbEntity
  8
寸法
 62
     0
 48
50.0
370
    -2
100
AcDbLine
 10
9010.304043970043
 20
2503.81135759427
 30
0.0
 11
9010.304043970043
 21
2564.119049901962
 31
0.0
  0
LINE
  5
1F0BB
330
1F065
100
AcDbEntity
  8
寸法
 62
     0
 48
50.0
370
    -2
100
AcDbLine
 10
9010.304043970043
 20
2564.119049901962
 30
0.0
 11
9010.304043970043
 21
2977.531123392777
 31
0.0
  0
INSERT
  5
1F0BC
330
1F065
100
AcDbEntity
  8
寸法
 62
     0
 48
50.0
370
    -2
100
AcDbBlockReference
  2
_DOTSMALL
 10
9010.304043970043
 20
2503.81135759427
 30
0.0
 41
125.0
 42
125.0
 43
125.0
 50
270.0
  0
INSERT
  5
1F0BD
330
1F065
100
AcDbEntity
  8
寸法
 62
     0
 48
50.0
370
    -2
100
AcDbBlockReference
  2
_DOTSMALL
 10
9010.304043970043
 20
2564.119049901962
 30
0.0
 41
125.0
 42
125.0
 43
125.0
 50
90.0
  0
MTEXT
  5
1F0BE
330
1F065
100
AcDbEntity
  8
寸法
 62
     7
 48
50.0
100
AcDbMText
 10
8935.304043970043
 20
2833.325086647371
 30
0.0
 40
100.0
 41
0.0
 71
     5
 72
     1
  1
\A1;出30
  7
STYLE1
 11
0.0000000000000001
 21
1.0
 31
0.0
 73
     1
 44
1.0
1001
ACAD
1000
MTEXTBEGIN
1070
    73
1070
     1
1070
    44
1040
1.0
1070
    74
1070
     0
1000
MTEXTEND
  0
POINT
  5
1F0BF
330
1F065
100
AcDbEntity
  8
DEFPOINTS
 62
     0
 48
50.0
100
AcDbPoint
 10
9681.689341890711
 20
2564.119049901961
 30
0.0
  0
POINT
  5
1F0C0
330
1F065
100
AcDbEntity
  8
DEFPOINTS
 62
     0
 48
50.0
100
AcDbPoint
 10
9551.689341890714
 20
2503.81135759427
 30
0.0
  0
POINT
  5
1F0C1
330
1F065
100
AcDbEntity
  8
DEFPOINTS
 62
     0
 48
50.0
100
AcDbPoint
 10
9010.304043970043
 20
2503.81135759427
 30
0.0
  0
ENDBLK
  5
1F071
330
1F065
100
AcDbEntity
  8
0
 48
50.0
100
AcDbBlockEnd
  0
BLOCK
  5
1F07C
330
1F072
100
AcDbEntity
  8
0
 48
50.0
100
AcDbBlockBegin
  2
*D29
 70
     1
 10
0.0
 20
0.0
 30
0.0
  3
*D29
  1

  0
LINE
  5
1F0C2
330
1F072
100
AcDbEntity
  8
寸法
 62
     0
 48
50.0
370
    -2
100
AcDbLine
 10
9562.458572659945
 20
2634.349819132731
 30
0.0
 11
9562.458572659945
 21
3044.123617544192
 31
0.0
  0
LINE
  5
1F0C3
330
1F072
100
AcDbEntity
  8
寸法
 62
     0
 48
50.0
370
    -2
100
AcDbLine
 10
9753.073957275331
 20
2635.426742209654
 30
0.0
 11
9753.073957275331
 21
3044.123617544192
 31
0.0
  0
LINE
  5
1F0C4
330
1F072
100
AcDbEntity
  8
寸法
 62
     0
 48
50.0
370
    -2
100
AcDbLine
 10
9562.458572659945
 20
2969.123617544192
 30
0.0
 11
9753.073957275331
 21
2969.123617544192
 31
0.0
  0
INSERT
  5
1F0C5
330
1F072
100
AcDbEntity
  8
寸法
 62
     0
 48
50.0
370
    -2
100
AcDbBlockReference
  2
_DOTSMALL
 10
9562.458572659945
 20
2969.123617544192
 30
0.0
 41
125.0
 42
125.0
 43
125.0
 50
180.0
  0
INSERT
  5
1F0C6
330
1F072
100
AcDbEntity
  8
寸法
 62
     0
 48
50.0
370
    -2
100
AcDbBlockReference
  2
_DOTSMALL
 10
9753.073957275331
 20
2969.123617544192
 30
0.0
 41
125.0
 42
125.0
 43
125.0
  0
MTEXT
  5
1F0C7
330
1F072
100
AcDbEntity
  8
寸法
 62
     7
 48
50.0
100
AcDbMText
 10
9657.766264967639
 20
3044.123617544192
 30
0.0
 40
100.0
 41
0.0
 71
     5
 72
     1
  1
\A1;88.5
  7
STYLE1
 73
     1
 44
1.0
1001
ACAD
1000
MTEXTBEGIN
1070
    73
1070
     1
1070
    44
1040
1.0
1070
    74
1070
     0
1000
MTEXTEND
  0
POINT
  5
1F0C8
330
1F072
100
AcDbEntity
  8
DEFPOINTS
 62
     0
 48
50.0
100
AcDbPoint
 10
9562.458572659945
 20
2609.349819132731
 30
0.0
  0
POINT
  5
1F0C9
330
1F072
100
AcDbEntity
  8
DEFPOINTS
 62
     0
 48
50.0
100
AcDbPoint
 10
9753.073957275331
 20
2610.426742209654
 30
0.0
  0
POINT
  5
1F0CA
330
1F072
100
AcDbEntity
  8
DEFPOINTS
 62
     0
 48
50.0
100
AcDbPoint
 10
9753.073957275331
 20
2969.123617544192
 30
0.0
  0
ENDBLK
  5
1F07D
330
1F072
100
AcDbEntity
  8
0
 48
50.0
100
AcDbBlockEnd
  0
BLOCK
  5
1F088
330
1F07E
100
AcDbEntity
  8
0
 48
50.0
100
AcDbBlockBegin
  2
*D30
 70
     1
 10
0.0
 20
0.0
 30
0.0
  3
*D30
  1

  0
LINE
  5
1F0CB
330
1F07E
100
AcDbEntity
  8
寸法
 62
     0
 48
50.0
370
    -2
100
AcDbLine
 10
6744.265438366305
 20
2453.281637829481
 30
0.0
 11
6744.265438366305
 21
2903.281637829481
 31
0.0
  0
LINE
  5
1F0CC
330
1F07E
100
AcDbEntity
  8
寸法
 62
     0
 48
50.0
370
    -2
100
AcDbLine
 10
6504.265438366305
 20
2453.281637829481
 30
0.0
 11
6504.265438366305
 21
2903.281637829481
 31
0.0
  0
LINE
  5
1F0CD
330
1F07E
100
AcDbEntity
  8
寸法
 62
     0
 48
50.0
370
    -2
100
AcDbLine
 10
6744.265438366305
 20
2828.281637829481
 30
0.0
 11
6504.265438366305
 21
2828.281637829481
 31
0.0
  0
INSERT
  5
1F0CE
330
1F07E
100
AcDbEntity
  8
寸法
 62
     0
 48
50.0
370
    -2
100
AcDbBlockReference
  2
_DOTSMALL
 10
6744.265438366305
 20
2828.281637829481
 30
0.0
 41
125.0
 42
125.0
 43
125.0
  0
INSERT
  5
1F0CF
330
1F07E
100
AcDbEntity
  8
寸法
 62
     0
 48
50.0
370
    -2
100
AcDbBlockReference
  2
_DOTSMALL
 10
6504.265438366305
 20
2828.281637829481
 30
0.0
 41
125.0
 42
125.0
 43
125.0
 50
180.0
  0
MTEXT
  5
1F0D0
330
1F07E
100
AcDbEntity
  8
寸法
 62
     7
 48
50.0
100
AcDbMText
 10
6624.265438366305
 20
2986.624813682499
 30
0.0
 40
100.0
 41
0.0
 71
     5
 72
     1
  1
\A1;120\P185
  7
STYLE1
 73
     1
 44
1.0
1001
ACAD
1000
MTEXTBEGIN
1070
    73
1070
     1
1070
    44
1040
1.0
1070
    74
1070
     0
1000
MTEXTEND
  0
POINT
  5
1F0D1
330
1F07E
100
AcDbEntity
  8
DEFPOINTS
 62
     0
 48
50.0
100
AcDbPoint
 10
6744.265438366305
 20
2428.281637829481
 30
0.0
  0
POINT
  5
1F0D2
330
1F07E
100
AcDbEntity
  8
DEFPOINTS
 62
     0
 48
50.0
100
AcDbPoint
 10
6504.265438366305
 20
2428.281637829481
 30
0.0
  0
POINT
  5
1F0D3
330
1F07E
100
AcDbEntity
  8
DEFPOINTS
 62
     0
 48
50.0
100
AcDbPoint
 10
6504.265438366305
 20
2828.281637829481
 30
0.0
  0
ENDBLK
  5
1F089
330
1F07E
100
AcDbEntity
  8
0
 48
50.0
100
AcDbBlockEnd
  0
BLOCK
  5
1F094
330
1F08A
100
AcDbEntity
  8
0
 48
50.0
100
AcDbBlockBegin
  2
*D31
 70
     1
 10
0.0
 20
0.0
 30
0.0
  3
*D31
  1

  0
LINE
  5
1F0D4
330
1F08A
100
AcDbEntity
  8
寸法
 62
     0
 48
50.0
370
    -2
100
AcDbLine
 10
6479.265438366304
 20
2428.281637829481
 30
0.0
 11
5574.79607056715
 21
2428.281637829481
 31
0.0
  0
LINE
  5
1F0D5
330
1F08A
100
AcDbEntity
  8
寸法
 62
     0
 48
50.0
370
    -2
100
AcDbLine
 10
6219.265438366306
 20
1348.281637829481
 30
0.0
 11
5574.796070567149
 21
1348.281637829481
 31
0.0
  0
LINE
  5
1F0D6
330
1F08A
100
AcDbEntity
  8
寸法
 62
     0
 48
50.0
370
    -2
100
AcDbLine
 10
5649.79607056715
 20
2428.281637829481
 30
0.0
 11
5649.796070567149
 21
1348.281637829481
 31
0.0
  0
INSERT
  5
1F0D7
330
1F08A
100
AcDbEntity
  8
寸法
 62
     0
 48
50.0
370
    -2
100
AcDbBlockReference
  2
_DOTSMALL
 10
5649.79607056715
 20
2428.281637829481
 30
0.0
 41
125.0
 42
125.0
 43
125.0
 50
90.0
  0
INSERT
  5
1F0D8
330
1F08A
100
AcDbEntity
  8
寸法
 62
     0
 48
50.0
370
    -2
100
AcDbBlockReference
  2
_DOTSMALL
 10
5649.796070567149
 20
1348.281637829481
 30
0.0
 41
125.0
 42
125.0
 43
125.0
 50
270.0
  0
MTEXT
  5
1F0D9
330
1F08A
100
AcDbEntity
  8
寸法
 62
     7
 48
50.0
100
AcDbMText
 10
5574.796070567149
 20
1925.076574427191
 30
0.0
 40
100.0
 41
0.0
 71
     5
 72
     1
  1
\A1;540
  7
STYLE1
 11
0.0000000000000001
 21
1.0
 31
0.0
 73
     1
 44
1.0
1001
ACAD
1000
MTEXTBEGIN
1070
    73
1070
     1
1070
    44
1040
1.0
1070
    74
1070
     0
1000
MTEXTEND
  0
POINT
  5
1F0DA
330
1F08A
100
AcDbEntity
  8
DEFPOINTS
 62
     0
 48
50.0
100
AcDbPoint
 10
6504.265438366305
 20
2428.281637829481
 30
0.0
  0
POINT
  5
1F0DB
330
1F08A
100
AcDbEntity
  8
DEFPOINTS
 62
     0
 48
50.0
100
AcDbPoint
 10
6244.265438366306
 20
1348.281637829481
 30
0.0
  0
POINT
  5
1F0DC
330
1F08A
100
AcDbEntity
  8
DEFPOINTS
 62
     0
 48
50.0
100
AcDbPoint
 10
5649.796070567149
 20
1348.281637829481
 30
0.0
  0
ENDBLK
  5
1F095
330
1F08A
100
AcDbEntity
  8
0
 48
50.0
100
AcDbBlockEnd
  0
BLOCK
  5
1F0A0
330
1F096
100
AcDbEntity
  8
0
 48
50.0
100
AcDbBlockBegin
  2
*D32
 70
     1
 10
0.0
 20
0.0
 30
0.0
  3
*D32
  1

  0
LINE
  5
1F0DD
330
1F096
100
AcDbEntity
  8
寸法
 62
     0
 48
50.0
370
    -2
100
AcDbLine
 10
6324.265438366305
 20
1163.281637829481
 30
0.0
 11
6324.265438366305
 21
814.3295313735471
 31
0.0
  0
LINE
  5
1F0DE
330
1F096
100
AcDbEntity
  8
寸法
 62
     0
 48
50.0
370
    -2
100
AcDbLine
 10
6924.265438366305
 20
1163.281637829481
 30
0.0
 11
6924.265438366305
 21
814.3295313735471
 31
0.0
  0
LINE
  5
1F0DF
330
1F096
100
AcDbEntity
  8
寸法
 62
     0
 48
50.0
370
    -2
100
AcDbLine
 10
6324.265438366305
 20
889.3295313735471
 30
0.0
 11
6924.265438366305
 21
889.3295313735471
 31
0.0
  0
INSERT
  5
1F0E0
330
1F096
100
AcDbEntity
  8
寸法
 62
     0
 48
50.0
370
    -2
100
AcDbBlockReference
  2
_DOTSMALL
 10
6324.265438366305
 20
889.3295313735471
 30
0.0
 41
125.0
 42
125.0
 43
125.0
 50
180.0
  0
INSERT
  5
1F0E1
330
1F096
100
AcDbEntity
  8
寸法
 62
     0
 48
50.0
370
    -2
100
AcDbBlockReference
  2
_DOTSMALL
 10
6924.265438366305
 20
889.3295313735471
 30
0.0
 41
125.0
 42
125.0
 43
125.0
  0
MTEXT
  5
1F0E2
330
1F096
100
AcDbEntity
  8
寸法
 62
     7
 48
50.0
100
AcDbMText
 10
6624.265438366305
 20
964.3295313735471
 30
0.0
 40
100.0
 41
0.0
 71
     5
 72
     1
  1
\A1;300
  7
STYLE1
 73
     1
 44
1.0
1001
ACAD
1000
MTEXTBEGIN
1070
    73
1070
     1
1070
    44
1040
1.0
1070
    74
1070
     0
1000
MTEXTEND
  0
POINT
  5
1F0E3
330
1F096
100
AcDbEntity
  8
DEFPOINTS
 62
     0
 48
50.0
100
AcDbPoint
 10
6324.265438366305
 20
1188.281637829481
 30
0.0
  0
POINT
  5
1F0E4
330
1F096
100
AcDbEntity
  8
DEFPOINTS
 62
     0
 48
50.0
100
AcDbPoint
 10
6924.265438366305
 20
1188.281637829481
 30
0.0
  0
POINT
  5
1F0E5
330
1F096
100
AcDbEntity
  8
DEFPOINTS
 62
     0
 48
50.0
100
AcDbPoint
 10
6924.265438366305
 20
889.3295313735471
 30
0.0
  0
ENDBLK
  5
1F0A1
330
1F096
100
AcDbEntity
  8
0
 48
50.0
100
AcDbBlockEnd
  0
BLOCK
  5
1F0AC
330
1F0A2
100
AcDbEntity
  8
0
 48
50.0
100
AcDbBlockBegin
  2
*D33
 70
     1
 10
0.0
 20
0.0
 30
0.0
  3
*D33
  1

  0
LINE
  5
1F0E6
330
1F0A2
100
AcDbEntity
  8
寸法
 62
     0
 48
50.0
370
    -2
100
AcDbLine
 10
6319.265438366304
 20
1648.281637829481
 30
0.0
 11
5805.995094034696
 21
1648.281637829481
 31
0.0
  0
LINE
  5
1F0E7
330
1F0A2
100
AcDbEntity
  8
寸法
 62
     0
 48
50.0
370
    -2
100
AcDbLine
 10
6219.265438366306
 20
1348.281637829481
 30
0.0
 11
5805.995094034696
 21
1348.281637829481
 31
0.0
  0
LINE
  5
1F0E8
330
1F0A2
100
AcDbEntity
  8
寸法
 62
     0
 48
50.0
370
    -2
100
AcDbLine
 10
5880.995094034696
 20
1648.281637829481
 30
0.0
 11
5880.995094034696
 21
1348.281637829481
 31
0.0
  0
INSERT
  5
1F0E9
330
1F0A2
100
AcDbEntity
  8
寸法
 62
     0
 48
50.0
370
    -2
100
AcDbBlockReference
  2
_DOTSMALL
 10
5880.995094034696
 20
1648.281637829481
 30
0.0
 41
125.0
 42
125.0
 43
125.0
 50
90.0
  0
INSERT
  5
1F0EA
330
1F0A2
100
AcDbEntity
  8
寸法
 62
     0
 48
50.0
370
    -2
100
AcDbBlockReference
  2
_DOTSMALL
 10
5880.995094034696
 20
1348.281637829481
 30
0.0
 41
125.0
 42
125.0
 43
125.0
 50
270.0
  0
MTEXT
  5
1F0EB
330
1F0A2
100
AcDbEntity
  8
寸法
 62
     7
 48
50.0
100
AcDbMText
 10
5805.995094034696
 20
1522.608232221624
 30
0.0
 40
100.0
 41
0.0
 71
     5
 72
     1
  1
\A1;150
  7
STYLE1
 11
0.0000000000000001
 21
1.0
 31
0.0
 73
     1
 44
1.0
1001
ACAD
1000
MTEXTBEGIN
1070
    73
1070
     1
1070
    44
1040
1.0
1070
    74
1070
     0
1000
MTEXTEND
  0
POINT
  5
1F0EC
330
1F0A2
100
AcDbEntity
  8
DEFPOINTS
 62
     0
 48
50.0
100
AcDbPoint
 10
6344.265438366305
 20
1648.281637829481
 30
0.0
  0
POINT
  5
1F0ED
330
1F0A2
100
AcDbEntity
  8
DEFPOINTS
 62
     0
 48
50.0
100
AcDbPoint
 10
6244.265438366306
 20
1348.281637829481
 30
0.0
  0
POINT
  5
1F0EE
330
1F0A2
100
AcDbEntity
  8
DEFPOINTS
 62
     0
 48
50.0
100
AcDbPoint
 10
5880.995094034696
 20
1348.281637829481
 30
0.0
  0
ENDBLK
  5
1F0AD
330
1F0A2
100
AcDbEntity
  8
0
 48
50.0
100
AcDbBlockEnd
  0
ENDSEC
  0
SECTION
  2
ENTITIES
  0
LINE
  5
10B56
330
747D
100
AcDbEntity
  8
補助
  6
PHANTOM
 62
   230
 48
50.0
100
AcDbLine
 10
175.0
 20
0.0
 30
0.0
 11
174.9999999999993
 21
14262.0
 31
0.0
  0
LINE
  5
10B57
330
747D
100
AcDbEntity
  8
補助
  6
PHANTOM
 62
   230
 48
50.0
100
AcDbLine
 10
174.9999999999993
 20
14262.0
 30
0.0
 11
20384.0
 21
14262.0
 31
0.0
  0
LINE
  5
10B5D
330
747D
100
AcDbEntity
  8
仕様書枠
 48
50.0
100
AcDbLine
 10
175.0
 20
0.0
 30
0.0
 11
20384.0
 21
-0.0000000000001137
 31
0.0
  0
LINE
  5
10B5E
330
747D
100
AcDbEntity
  8
補助
  6
PHANTOM
 62
   230
 48
50.0
100
AcDbLine
 10
20384.0
 20
14262.0
 30
0.0
 11
20384.0
 21
1500.0
 31
0.0
  0
TEXT
  5
19F39
330
747D
100
AcDbEntity
  8
文字
 62
     7
 48
50.0
100
AcDbText
 10
10719.53930777835
 20
3558.63304310548
 30
0.0
 40
150.0
  1
（　）内寸法は屋根の出幅です。
  7
STYLE1
100
AcDbText
  0
LINE
  5
19F3A
330
747D
100
AcDbEntity
  8
部品1
100
AcDbLine
 10
13437.95933237066
 20
3494.11248196273
 30
0.0
 11
10700.29672551524
 21
3494.11248196273
 31
0.0
  0
TEXT
  5
1D522
330
747D
100
AcDbEntity
  8
文字
 62
     7
 48
50.0
100
AcDbText
 10
16501.79587498052
 20
596.5925826289065
 30
0.0
 40
200.0
  1
機種名
  7
STYLE2
100
AcDbText
  0
TEXT
  5
1D523
330
747D
100
AcDbEntity
  8
文字
 62
     7
 48
50.0
100
AcDbText
 10
16511.75668531126
 20
99.75789086487919
 30
0.0
 40
100.0
  1
※布基礎には換気口を設けてください。
  7
STYLE2
100
AcDbText
  0
TEXT
  5
1D524
330
747D
100
AcDbEntity
  8
文字
 62
     7
 48
50.0
100
AcDbText
 10
16511.75668531126
 20
270.5931184260625
 30
0.0
 40
100.0
  1
※寒冷地等は、地域の実情に合わせた基礎にしてください。
  7
STYLE2
100
AcDbText
  0
LINE
  5
1D525
330
747D
100
AcDbEntity
  8
仕様書枠
 48
50.0
100
AcDbLine
 10
16384.0
 20
999.9999999999998
 30
0.0
 11
17814.0
 21
999.9999999999998
 31
0.0
  0
TEXT
  5
1D526
330
747D
100
AcDbEntity
  8
仕様書枠
 62
     7
 48
50.0
100
AcDbText
 10
16453.72382072112
 20
1118.863259287425
 30
0.0
 40
250.0
  1
基 礎 図
  7
STYLE2
100
AcDbText
  0
LINE
  5
1D527
330
747D
100
AcDbEntity
  8
仕様書枠
 62
     7
 48
50.0
100
AcDbLine
 10
16484.0
 20
499.9999999999999
 30
0.0
 11
20284.0
 21
499.9999999999999
 31
0.0
  0
LINE
  5
1D528
330
747D
100
AcDbEntity
  8
仕様書枠
 48
50.0
100
AcDbLine
 10
16384.0
 20
1500.0
 30
0.0
 11
20384.0
 21
1500.0
 31
0.0
  0
LINE
  5
1D578
330
747D
100
AcDbEntity
  8
仕様書枠
  6
Continuous
 48
50.0
100
AcDbLine
 10
16384.0
 20
1500.0
 30
0.0
 11
16384.0
 21
-0.0000000000001137
 31
0.0
  0
TEXT
  5
1D57A
330
747D
100
AcDbEntity
  8
仕様書枠
 62
     7
 48
50.0
100
AcDbText
 10
18108.75008258934
 20
604.8708912389265
 30
0.0
 40
200.0
  1
ＳＭＫ-５８Ｓ・H
  7
STYLE2
100
AcDbText
  0
LINE
  5
1D57B
330
747D
100
AcDbEntity
  8
仕様書枠
  6
Continuous
 48
50.0
100
AcDbLine
 10
17814.0
 20
1500.0
 30
0.0
 11
17814.0
 21
999.9999999999998
 31
0.0
  0
TEXT
  5
1D57C
330
747D
100
AcDbEntity
  8
文字
 62
     7
 48
50.0
100
AcDbText
 10
19055.23044944207
 20
1289.447132864036
 30
0.0
 40
125.0
  1
<縮尺> S=1/50
  7
STYLE2
100
AcDbText
  0
LINE
  5
1D57D
330
747D
100
AcDbEntity
  8
仕様書枠
 48
50.0
100
AcDbLine
 10
20384.0
 20
1500.0
 30
0.0
 11
20384.0
 21
-0.0000000000001137
 31
0.0
  0
LEADER
  5
1DBDF
330
747D
100
AcDbEntity
  8
寸法
 48
50.0
100
AcDbLeader
  3
INABA_S50G
 73
     0
 74
     0
 75
     1
 40
150.0
 41
840.0
 76
     3
 10
10473.85049645894
 20
9872.310710222279
 30
0.0
 10
10679.80925839019
 20
10093.92670645115
 30
0.0
 10
10804.80925839019
 20
10093.92670645115
 30
0.0
340
1DBE0
1001
ACAD
1000
DSTYLE
1002
{
1070
   341
1005
0
1070
    40
1040
1.0
1070
   343
1005
0
1070
   344
1005
0
1002
}
  0
MTEXT
  5
1DBE0
102
{ACAD_REACTORS
330
1DBDF
102
}
330
747D
100
AcDbEntity
  8
部品1
 62
     7
 48
50.0
100
AcDbMText
 10
11669.80925839019
 20
10193.92670645115
 30
0.0
 40
150.0
 41
0.0
 71
     6
 72
     1
  1
\A1;屋根の外寸
  7
STYLE1
 73
     1
 44
1.0
1001
ACAD
1000
MTEXTBEGIN
1070
    73
1070
     1
1070
    44
1040
1.0
1070
    74
1070
     0
1000
MTEXTEND
  0
LINE
  5
1DBE1
330
747D
100
AcDbEntity
  8
部品1
 48
50.0
100
AcDbLine
 10
11759.99166227189
 20
9662.310710222286
 30
0.0
 11
8949.991662271887
 21
9662.310710222286
 31
0.0
  0
LINE
  5
1DBE2
330
747D
100
AcDbEntity
  8
想像線
 48
20.0
100
AcDbLine
 10
11929.99166227189
 20
9872.310710222279
 30
0.0
 11
8779.991662271887
 21
9872.310710222283
 31
0.0
  0
LINE
  5
1DBE3
330
747D
100
AcDbEntity
  8
部品1
 48
50.0
100
AcDbLine
 10
11879.99166227189
 20
9782.310710222283
 30
0.0
 11
8829.991662271888
 21
9782.310710222283
 31
0.0
  0
DIMENSION
  5
1DBE4
330
747D
100
AcDbEntity
  8
寸法
 48
50.0
100
AcDbDimension
  2
*D1
 10
11879.99166227189
 20
10414.57385995246
 30
0.0
 11
11117.49166227189
 21
10514.58862373198
 31
0.0
 70
    32
 71
     5
 42
1525.0
  3
INABA_S50G
100
AcDbAlignedDimension
 13
10354.99166227189
 23
8982.310710222282
 33
0.0
 14
11879.99166227189
 24
9782.310710222283
 34
0.0
100
AcDbRotatedDimension
  0
LINE
  5
1DBE5
330
747D
100
AcDbEntity
  8
部品1
 48
50.0
100
AcDbLine
 10
10650.99166227189
 20
7892.310710222282
 30
0.0
 11
11879.99166227189
 21
7892.310710222282
 31
0.0
  0
DIMENSION
  5
1DBE6
330
747D
100
AcDbEntity
  8
寸法
 48
50.0
100
AcDbDimension
  2
*D2
 10
11814.99166227189
 20
6572.843653977354
 30
0.0
 11
10354.99166227189
 21
6672.894669683358
 31
0.0
 70
    32
 71
     5
 42
2920.0
  3
INABA_S50G
100
AcDbAlignedDimension
 13
8894.991662271889
 23
7812.310710222281
 33
0.0
 14
11814.99166227189
 24
7812.310710222281
 34
0.0
100
AcDbRotatedDimension
1001
ACAD
1000
DSTYLE
1002
{
1070
    75
1070
     1
1070
   279
1070
     1
1002
}
  0
DIMENSION
  5
1DBE7
330
747D
100
AcDbEntity
  8
寸法
 48
50.0
100
AcDbDimension
  2
*D3
 10
11879.99166227189
 20
6261.310710222282
 30
0.0
 11
10354.99166227189
 21
6361.310710222282
 31
0.0
 70
    32
 71
     5
 42
3050.0
  3
INABA_S50G
100
AcDbAlignedDimension
 13
8829.991662271888
 23
7892.310710222282
 33
0.0
 14
11879.99166227189
 24
7892.310710222279
 34
0.0
100
AcDbRotatedDimension
  0
LINE
  5
1DBE8
330
747D
100
AcDbEntity
  8
部品1
 48
50.0
100
AcDbLine
 10
8949.991662271889
 20
8012.310710222282
 30
0.0
 11
11759.99166227189
 21
8012.31071022228
 31
0.0
  0
LINE
  5
1DBE9
330
747D
100
AcDbEntity
  8
想像線
 48
20.0
100
AcDbLine
 10
8779.991662271887
 20
7762.310710222282
 30
0.0
 11
11929.99166227189
 21
7762.310710222282
 31
0.0
  0
DIMENSION
  5
1DBEA
330
747D
100
AcDbEntity
  8
寸法
 48
50.0
100
AcDbDimension
  2
*D4
 10
12085.34541563307
 20
9450.919732575931
 30
0.0
 11
10584.99080258626
 21
8521.191792032167
 31
0.0
 70
   161
 71
     5
 42
3588.119284527758
  3
INABA_S50G
100
AcDbAlignedDimension
 13
8829.991662271888
 23
7892.310710222282
 33
0.0
 14
11879.99166227189
 24
9782.310710222283
 34
0.0
  0
LINE
  5
1DBEB
330
747D
100
AcDbEntity
  8
部品1
 48
50.0
100
AcDbLine
 10
10993.99166227188
 20
9472.310710222282
 30
0.0
 11
11193.99166227188
 21
9472.310710222282
 31
0.0
  0
LINE
  5
1DBEC
330
747D
100
AcDbEntity
  8
センター
 48
5.0
100
AcDbLine
 10
11238.99166227188
 20
9272.310710222283
 30
0.0
 11
10948.99166227188
 21
9272.310710222283
 31
0.0
  0
LINE
  5
1DBED
330
747D
100
AcDbEntity
  8
部品1
 48
50.0
100
AcDbLine
 10
11193.99166227188
 20
9072.310710222282
 30
0.0
 11
10993.99166227188
 21
9072.310710222282
 31
0.0
  0
LINE
  5
1DBEE
330
747D
100
AcDbEntity
  8
センター
 48
5.0
100
AcDbLine
 10
10948.99166227188
 20
8837.310710222281
 30
0.0
 11
11238.99166227188
 21
8837.310710222281
 31
0.0
  0
LINE
  5
1DBEF
330
747D
100
AcDbEntity
  8
部品1
 48
50.0
100
AcDbLine
 10
11193.99166227188
 20
8937.310710222282
 30
0.0
 11
10993.99166227188
 21
8937.310710222282
 31
0.0
  0
LINE
  5
1DBF0
330
747D
100
AcDbEntity
  8
部品1
 48
50.0
100
AcDbLine
 10
11193.99166227188
 20
8602.310710222281
 30
0.0
 11
10993.99166227188
 21
8602.310710222281
 31
0.0
  0
LINE
  5
1DBF1
330
747D
100
AcDbEntity
  8
部品1
 48
50.0
100
AcDbLine
 10
10993.99166227188
 20
8737.310710222281
 30
0.0
 11
11193.99166227188
 21
8737.310710222281
 31
0.0
  0
LINE
  5
1DBF2
330
747D
100
AcDbEntity
  8
部品1
 48
50.0
100
AcDbLine
 10
10993.99166227188
 20
8202.310710222283
 30
0.0
 11
11193.99166227188
 21
8202.310710222283
 31
0.0
  0
LINE
  5
1DBF3
330
747D
100
AcDbEntity
  8
センター
 48
5.0
100
AcDbLine
 10
11238.99166227188
 20
8402.310710222282
 30
0.0
 11
10948.99166227188
 21
8402.310710222282
 31
0.0
  0
DIMENSION
  5
1DBF4
330
747D
100
AcDbEntity
  8
寸法
 48
50.0
100
AcDbDimension
  2
*D5
 10
10129.42093890865
 20
8837.310710222281
 30
0.0
 11
10029.42093890865
 21
9309.810710222285
 31
0.0
 70
    32
 71
     5
 42
945.0
  3
INABA_S50G
100
AcDbAlignedDimension
 13
10254.99166227189
 23
9782.310710222283
 33
0.0
 14
10209.99166227189
 24
8837.310710222281
 34
0.0
 50
90.0
100
AcDbRotatedDimension
  0
DIMENSION
  5
1DBF5
330
747D
100
AcDbEntity
  8
寸法
 48
50.0
100
AcDbDimension
  2
*D6
 10
8078.991662271889
 20
8837.310710222281
 30
0.0
 11
7978.991662271887
 21
9054.810710222284
 31
0.0
 70
    32
 71
     5
 42
435.0
  3
INABA_S50G
100
AcDbAlignedDimension
 13
9470.99166227189
 23
9272.310710222283
 33
0.0
 14
9470.99166227189
 24
8837.310710222281
 34
0.0
 50
90.0
100
AcDbRotatedDimension
  0
DIMENSION
  5
1DBF6
330
747D
100
AcDbEntity
  8
寸法
 48
50.0
100
AcDbDimension
  2
*D7
 10
10354.99166227189
 20
10414.57385995246
 30
0.0
 11
9592.491662271887
 21
10514.58862373198
 31
0.0
 70
    32
 71
     5
 42
1525.0
  3
INABA_S50G
100
AcDbAlignedDimension
 13
8829.991662271888
 23
9782.310710222283
 33
0.0
 14
10354.99166227189
 24
8982.310710222282
 34
0.0
100
AcDbRotatedDimension
  0
LINE
  5
1DBF7
330
747D
100
AcDbEntity
  8
部品1
 48
50.0
100
AcDbLine
 10
8949.991662271887
 20
9662.310710222286
 30
0.0
 11
8949.991662271889
 21
8012.310710222282
 31
0.0
  0
LINE
  5
1DBF8
330
747D
100
AcDbEntity
  8
想像線
 48
20.0
100
AcDbLine
 10
8779.991662271887
 20
9872.310710222283
 30
0.0
 11
8779.991662271887
 21
7762.310710222282
 31
0.0
  0
LINE
  5
1DBF9
330
747D
100
AcDbEntity
  8
部品1
 48
50.0
100
AcDbLine
 10
8829.991662271888
 20
9782.310710222283
 30
0.0
 11
8829.991662271888
 21
7827.310710222282
 31
0.0
  0
LINE
  5
1DBFA
330
747D
100
AcDbEntity
  8
センター
 48
5.0
100
AcDbLine
 10
11093.99166227188
 20
9127.310710222282
 30
0.0
 11
11093.99166227188
 21
9417.310710222283
 31
0.0
  0
LINE
  5
1DBFB
330
747D
100
AcDbEntity
  8
部品1
 48
50.0
100
AcDbLine
 10
10993.99166227188
 20
9072.310710222282
 30
0.0
 11
10993.99166227188
 21
9472.310710222282
 31
0.0
  0
LINE
  5
1DBFC
330
747D
100
AcDbEntity
  8
部品1
 48
50.0
100
AcDbLine
 10
9715.991662271891
 20
9072.310710222282
 30
0.0
 11
9715.991662271891
 21
9472.310710222282
 31
0.0
  0
LINE
  5
1DBFD
330
747D
100
AcDbEntity
  8
センター
 48
5.0
100
AcDbLine
 10
9615.991662271891
 20
9127.310710222282
 30
0.0
 11
9615.991662271891
 21
9417.310710222283
 31
0.0
  0
LINE
  5
1DBFE
330
747D
100
AcDbEntity
  8
部品1
 48
50.0
100
AcDbLine
 10
9515.991662271892
 20
9472.310710222282
 30
0.0
 11
9515.991662271892
 21
9072.310710222282
 31
0.0
  0
DIMENSION
  5
1DBFF
330
747D
100
AcDbEntity
  8
寸法
 48
50.0
100
AcDbDimension
  2
*D8
 10
8829.991662271888
 20
6261.310710222282
 30
0.0
 11
8362.550717389998
 21
6261.310710222282
 31
0.0
 70
   160
  1
(<>)
 71
     5
 42
50.0
  3
INABA_S50G
100
AcDbAlignedDimension
 13
8779.991662271887
 23
6572.843653977354
 33
0.0
 14
8829.991662271888
 24
7892.310710222282
 34
0.0
100
AcDbRotatedDimension
  0
LINE
  5
1DC01
330
747D
100
AcDbEntity
  8
想像線
 48
4.0
100
AcDbLine
 10
10454.99166227188
 20
7892.310710222282
 30
0.0
 11
10650.99166227189
 21
7892.310710222282
 31
0.0
  0
LINE
  5
1DC02
330
747D
100
AcDbEntity
  8
部品1
 48
50.0
100
AcDbLine
 10
8829.991662271888
 20
7827.310710222282
 30
0.0
 11
10650.99166227189
 21
7827.310710222282
 31
0.0
  0
LINE
  5
1DC03
330
747D
100
AcDbEntity
  8
センター
 48
5.0
100
AcDbLine
 10
9760.991662271891
 20
8837.310710222281
 30
0.0
 11
9470.99166227189
 21
8837.310710222281
 31
0.0
  0
LINE
  5
1DC04
330
747D
100
AcDbEntity
  8
センター
 48
5.0
100
AcDbLine
 10
9470.99166227189
 20
8402.310710222282
 30
0.0
 11
9760.991662271891
 21
8402.310710222282
 31
0.0
  0
LINE
  5
1DC05
330
747D
100
AcDbEntity
  8
センター
 48
5.0
100
AcDbLine
 10
8894.991662271889
 20
7812.310710222281
 30
0.0
 11
8894.991662271889
 21
8102.310710222281
 31
0.0
  0
DIMENSION
  5
1DC06
330
747D
100
AcDbEntity
  8
寸法
 48
50.0
100
AcDbDimension
  2
*D9
 10
8078.991662271889
 20
7892.310710222282
 30
0.0
 11
7978.991662271887
 21
8147.310710222283
 31
0.0
 70
    32
 71
     5
 42
510.0
  3
INABA_S50G
100
AcDbAlignedDimension
 13
9470.99166227189
 23
8402.310710222282
 33
0.0
 14
8829.991662271888
 24
7892.310710222282
 34
0.0
 50
90.0
100
AcDbRotatedDimension
1001
ACAD
1000
DSTYLE
1002
{
1070
    75
1070
     1
1070
   279
1070
     1
1002
}
  0
DIMENSION
  5
1DC07
330
747D
100
AcDbEntity
  8
寸法
 48
50.0
100
AcDbDimension
  2
*D10
 10
8894.991662271889
 20
6572.843653977354
 30
0.0
 11
8589.896871577712
 21
6572.843653977354
 31
0.0
 70
   160
 71
     5
 42
65.0
  3
INABA_S50G
100
AcDbAlignedDimension
 13
8829.991662271888
 23
7892.310710222282
 33
0.0
 14
8894.991662271889
 24
7812.310710222281
 34
0.0
100
AcDbRotatedDimension
  0
DIMENSION
  5
1DC08
330
747D
100
AcDbEntity
  8
寸法
 48
50.0
100
AcDbDimension
  2
*D11
 10
10907.80318780591
 20
7827.310710222282
 30
0.0
 11
10907.80318780591
 21
7207.16516208287
 31
0.0
 70
   160
  1
扉の出<>
 71
     5
 42
65.00000000000091
  3
INABA_S50G
100
AcDbAlignedDimension
 13
10650.99166227189
 23
7892.310710222282
 33
0.0
 14
10650.99166227189
 24
7827.310710222282
 34
0.0
 50
90.0
100
AcDbRotatedDimension
  0
LINE
  5
1DC0A
330
747D
100
AcDbEntity
  8
センター
 48
5.0
100
AcDbLine
 10
9039.991662271889
 20
7957.310710222282
 30
0.0
 11
8749.991662271888
 21
7957.310710222282
 31
0.0
  0
DIMENSION
  5
1DC0C
330
747D
100
AcDbEntity
  8
寸法
 48
50.0
100
AcDbDimension
  2
*D12
 10
8078.991662271889
 20
8402.310710222282
 30
0.0
 11
7978.991662271887
 21
8619.810710222283
 31
0.0
 70
    32
 71
     5
 42
435.0
  3
INABA_S50G
100
AcDbAlignedDimension
 13
9470.99166227189
 23
8837.310710222281
 33
0.0
 14
9470.99166227189
 24
8402.310710222282
 34
0.0
 50
90.0
100
AcDbRotatedDimension
  0
LINE
  5
1DC0D
330
747D
100
AcDbEntity
  8
細線
 48
50.0
100
AcDbLine
 10
8829.99166227189
 20
8866.999699646623
 30
0.0
 11
8900.302672847553
 21
8937.310710222282
 31
0.0
  0
LINE
  5
1DC0E
330
747D
100
AcDbEntity
  8
細線
 48
50.0
100
AcDbLine
 10
8829.991662271892
 20
8911.900980251965
 30
0.0
 11
8855.401392242209
 21
8937.310710222286
 31
0.0
  0
LINE
  5
1DC0F
330
747D
100
AcDbEntity
  8
細線
 48
50.0
100
AcDbLine
 10
8829.991662271888
 20
8822.098419041271
 30
0.0
 11
8945.203953452899
 21
8937.310710222282
 31
0.0
  0
LINE
  5
1DC10
330
747D
100
AcDbEntity
  8
細線
 48
50.0
100
AcDbLine
 10
8829.991662271892
 20
8777.197138435928
 30
0.0
 11
8949.991662271889
 21
8897.197138435929
 31
0.0
  0
LINE
  5
1DC11
330
747D
100
AcDbEntity
  8
部品1
 48
50.0
100
AcDbLine
 10
8949.991662271889
 20
8737.310710222285
 30
0.0
 11
8829.991662271888
 21
8737.310710222281
 31
0.0
  0
LINE
  5
1DC12
330
747D
100
AcDbEntity
  8
細線
 48
50.0
100
AcDbLine
 10
8835.006514663589
 20
8737.310710222281
 30
0.0
 11
8949.991662271889
 21
8852.295857830581
 31
0.0
  0
LINE
  5
1DC13
330
747D
100
AcDbEntity
  8
細線
 48
50.0
100
AcDbLine
 10
8924.809075874282
 20
8737.310710222281
 30
0.0
 11
8949.991662271889
 21
8762.493296619899
 31
0.0
  0
LINE
  5
1DC14
330
747D
100
AcDbEntity
  8
細線
 48
50.0
100
AcDbLine
 10
8879.907795268938
 20
8737.310710222281
 30
0.0
 11
8949.991662271889
 21
8807.394577225235
 31
0.0
  0
LINE
  5
1DC15
330
747D
100
AcDbEntity
  8
部品1
 48
50.0
100
AcDbLine
 10
8949.991662271889
 20
8937.310710222282
 30
0.0
 11
8829.991662271888
 21
8937.310710222282
 31
0.0
  0
DIMENSION
  5
1DC16
330
747D
100
AcDbEntity
  8
寸法
 48
50.0
100
AcDbDimension
  2
*D13
 10
10129.42093890865
 20
7892.310710222282
 30
0.0
 11
10029.42093890865
 21
8364.810710222284
 31
0.0
 70
    32
 71
     5
 42
945.0
  3
INABA_S50G
100
AcDbAlignedDimension
 13
10209.99166227189
 23
8837.310710222281
 33
0.0
 14
10129.42093890865
 24
7892.310710222282
 34
0.0
 50
90.0
100
AcDbRotatedDimension
1001
ACAD
1000
DSTYLE
1002
{
1070
    75
1070
     1
1070
   279
1070
     1
1002
}
  0
LINE
  5
1DC17
330
747D
100
AcDbEntity
  8
細線
 48
50.0
100
AcDbLine
 10
10254.99166227189
 20
7944.136837201651
 30
0.0
 11
10323.16553529252
 21
8012.31071022228
 31
0.0
  0
LINE
  5
1DC18
330
747D
100
AcDbEntity
  8
細線
 48
50.0
100
AcDbLine
 10
10254.99166227189
 20
7899.235556596313
 30
0.0
 11
10368.06681589786
 21
8012.31071022228
 31
0.0
  0
LINE
  5
1DC19
330
747D
100
AcDbEntity
  8
細線
 48
50.0
100
AcDbLine
 10
10254.99166227189
 20
7854.334275990964
 30
0.0
 11
10412.96809650321
 21
8012.31071022228
 31
0.0
  0
LINE
  5
1DC1A
330
747D
100
AcDbEntity
  8
部品1
 48
50.0
100
AcDbLine
 10
10650.99166227189
 20
7827.310710222282
 30
0.0
 11
10650.99166227189
 21
7892.310710222282
 31
0.0
  0
LINE
  5
1DC1B
330
747D
100
AcDbEntity
  8
細線
 48
50.0
100
AcDbLine
 10
10254.99166227189
 20
7989.038117807002
 30
0.0
 11
10278.26425468719
 21
8012.310710222282
 31
0.0
  0
LINE
  5
1DC1C
330
747D
100
AcDbEntity
  8
部品1
 48
50.0
100
AcDbLine
 10
10254.99166227189
 20
7827.310710222281
 30
0.0
 11
10254.99166227189
 21
8012.310710222278
 31
0.0
  0
LINE
  5
1DC1D
330
747D
100
AcDbEntity
  8
細線
 48
50.0
100
AcDbLine
 10
10272.86937710855
 20
7827.310710222281
 30
0.0
 11
10454.99166227189
 21
8009.432995385621
 31
0.0
  0
LINE
  5
1DC1E
330
747D
100
AcDbEntity
  8
細線
 48
50.0
100
AcDbLine
 10
10317.7706577139
 20
7827.310710222282
 30
0.0
 11
10454.99166227189
 21
7964.531714780271
 31
0.0
  0
LINE
  5
1DC1F
330
747D
100
AcDbEntity
  8
細線
 48
50.0
100
AcDbLine
 10
10362.67193831925
 20
7827.310710222282
 30
0.0
 11
10454.99166227189
 21
7919.630434174926
 31
0.0
  0
LINE
  5
1DC20
330
747D
100
AcDbEntity
  8
部品1
 48
50.0
100
AcDbLine
 10
10454.99166227189
 20
7827.310710222281
 30
0.0
 11
10454.99166227189
 21
8012.310710222278
 31
0.0
  0
LINE
  5
1DC21
330
747D
100
AcDbEntity
  8
センター
 48
5.0
100
AcDbLine
 10
10499.99166227189
 20
8837.310710222281
 30
0.0
 11
10209.99166227189
 21
8837.310710222281
 31
0.0
  0
LINE
  5
1DC22
330
747D
100
AcDbEntity
  8
部品1
 48
50.0
100
AcDbLine
 10
10254.99166227189
 20
8937.310710222282
 30
0.0
 11
10454.99166227189
 21
8937.310710222282
 31
0.0
  0
LINE
  5
1DC23
330
747D
100
AcDbEntity
  8
部品1
 48
50.0
100
AcDbLine
 10
10454.99166227189
 20
8737.310710222281
 30
0.0
 11
10254.99166227189
 21
8737.310710222281
 31
0.0
  0
LINE
  5
1DC24
330
747D
100
AcDbEntity
  8
部品1
 48
50.0
100
AcDbLine
 10
9515.991662271892
 20
8202.310710222283
 30
0.0
 11
9515.991662271892
 21
8602.310710222281
 31
0.0
  0
LINE
  5
1DC25
330
747D
100
AcDbEntity
  8
センター
 48
5.0
100
AcDbLine
 10
9615.991662271891
 20
8547.310710222282
 30
0.0
 11
9615.991662271891
 21
8257.310710222283
 31
0.0
  0
LINE
  5
1DC26
330
747D
100
AcDbEntity
  8
部品1
 48
50.0
100
AcDbLine
 10
9715.991662271891
 20
8602.310710222281
 30
0.0
 11
9715.991662271891
 21
8202.310710222283
 31
0.0
  0
LINE
  5
1DC27
330
747D
100
AcDbEntity
  8
部品1
 48
50.0
100
AcDbLine
 10
9715.991662271891
 20
8202.310710222283
 30
0.0
 11
9515.991662271892
 21
8202.310710222283
 31
0.0
  0
LINE
  5
1DC28
330
747D
100
AcDbEntity
  8
部品1
 48
50.0
100
AcDbLine
 10
9515.991662271892
 20
8602.310710222281
 30
0.0
 11
9715.991662271891
 21
8602.310710222281
 31
0.0
  0
LINE
  5
1DC29
330
747D
100
AcDbEntity
  8
部品1
 48
50.0
100
AcDbLine
 10
9515.991662271892
 20
8737.310710222281
 30
0.0
 11
9515.991662271892
 21
8937.310710222282
 31
0.0
  0
LINE
  5
1DC2A
330
747D
100
AcDbEntity
  8
センター
 48
5.0
100
AcDbLine
 10
9615.991662271891
 20
8982.310710222282
 30
0.0
 11
9615.991662271891
 21
8692.310710222283
 31
0.0
  0
LINE
  5
1DC2B
330
747D
100
AcDbEntity
  8
部品1
 48
50.0
100
AcDbLine
 10
9715.991662271891
 20
8937.310710222282
 30
0.0
 11
9715.991662271891
 21
8737.310710222281
 31
0.0
  0
LINE
  5
1DC2C
330
747D
100
AcDbEntity
  8
部品1
 48
50.0
100
AcDbLine
 10
9715.991662271891
 20
8737.310710222281
 30
0.0
 11
9515.991662271892
 21
8737.310710222281
 31
0.0
  0
LINE
  5
1DC2D
330
747D
100
AcDbEntity
  8
部品1
 48
50.0
100
AcDbLine
 10
9515.991662271892
 20
9072.310710222282
 30
0.0
 11
9715.991662271891
 21
9072.310710222282
 31
0.0
  0
LINE
  5
1DC2E
330
747D
100
AcDbEntity
  8
部品1
 48
50.0
100
AcDbLine
 10
9515.991662271892
 20
8937.310710222282
 30
0.0
 11
9715.991662271891
 21
8937.310710222282
 31
0.0
  0
LINE
  5
1DC2F
330
747D
100
AcDbEntity
  8
部品1
 48
50.0
100
AcDbLine
 10
10254.99166227189
 20
8737.310710222281
 30
0.0
 11
10254.99166227189
 21
8937.310710222282
 31
0.0
  0
LINE
  5
1DC30
330
747D
100
AcDbEntity
  8
部品1
 48
50.0
100
AcDbLine
 10
10993.99166227188
 20
8602.310710222281
 30
0.0
 11
10993.99166227188
 21
8202.310710222283
 31
0.0
  0
LINE
  5
1DC31
330
747D
100
AcDbEntity
  8
センター
 48
5.0
100
AcDbLine
 10
11093.99166227188
 20
8547.310710222282
 30
0.0
 11
11093.99166227188
 21
8257.310710222283
 31
0.0
  0
LEADER
  5
1DC32
330
747D
100
AcDbEntity
  8
寸法
 48
50.0
100
AcDbLeader
  3
INABA_S50G
 71
     0
 73
     0
 74
     0
 75
     1
 40
150.0
 41
231.9898538650463
 76
     3
 10
10391.84997951401
 20
8886.077998472472
 30
0.0
 10
10420.9013158895
 20
9006.977445121981
 30
0.0
 10
10545.9013158895
 20
9006.977445121981
 30
0.0
340
1DC33
  0
MTEXT
  5
1DC33
102
{ACAD_REACTORS
330
1DC32
102
}
330
747D
100
AcDbEntity
  8
細線
 62
     7
 48
50.0
100
AcDbMText
 10
10570.9013158895
 20
9106.97744512198
 30
0.0
 40
150.0
 41
0.0
 71
     4
 72
     1
  1
\A1;C.B
  7
STYLE1
 73
     1
 44
1.0
1001
ACAD
1000
MTEXTBEGIN
1070
    73
1070
     1
1070
    44
1040
1.0
1070
    74
1070
     0
1000
MTEXTEND
  0
LINE
  5
1DC34
330
747D
100
AcDbEntity
  8
センター
 48
5.0
100
AcDbLine
 10
10354.99166227189
 20
8982.310710222282
 30
0.0
 11
10354.99166227189
 21
8692.310710222283
 31
0.0
  0
LINE
  5
1DC35
330
747D
100
AcDbEntity
  8
部品1
 48
50.0
100
AcDbLine
 10
10454.99166227189
 20
8937.310710222282
 30
0.0
 11
10454.99166227189
 21
8737.310710222281
 31
0.0
  0
LINE
  5
1DC36
330
747D
100
AcDbEntity
  8
部品1
 48
50.0
100
AcDbLine
 10
10993.99166227188
 20
8937.310710222282
 30
0.0
 11
10993.99166227188
 21
8737.310710222281
 31
0.0
  0
LINE
  5
1DC37
330
747D
100
AcDbEntity
  8
センター
 48
5.0
100
AcDbLine
 10
11093.99166227188
 20
8982.310710222282
 30
0.0
 11
11093.99166227188
 21
8692.310710222283
 31
0.0
  0
LEADER
  5
1DC38
330
747D
100
AcDbEntity
  8
寸法
 48
50.0
100
AcDbLeader
  3
INABA_S50G
 73
     0
 75
     1
 40
150.0
 41
900.0000000000001
 76
     3
 10
10320.42101713238
 20
9782.310710222283
 30
0.0
 10
10172.2302904312
 20
10059.83145996102
 30
0.0
 10
10047.2302904312
 20
10059.83145996102
 30
0.0
340
1DC39
1001
ACAD
1000
DSTYLE
1002
{
1070
   341
1005
0
1070
    40
1040
1.0
1070
   343
1005
0
1070
   344
1005
0
1002
}
  0
MTEXT
  5
1DC39
102
{ACAD_REACTORS
330
1DC38
102
}
330
747D
100
AcDbEntity
  8
部品1
 62
     7
 48
50.0
100
AcDbMText
 10
10022.2302904312
 20
10159.83145996102
 30
0.0
 40
150.0
 41
0.0
 71
     6
 72
     1
  1
\A1;床下換気口
  7
STYLE1
 73
     1
 44
1.0
1001
ACAD
1000
MTEXTBEGIN
1070
    73
1070
     1
1070
    44
1040
1.0
1070
    74
1070
     0
1000
MTEXTEND
  0
LINE
  5
1DC3A
330
747D
100
AcDbEntity
  8
センター
 48
5.0
100
AcDbLine
 10
9470.99166227189
 20
9272.310710222283
 30
0.0
 11
9760.991662271891
 21
9272.310710222283
 31
0.0
  0
DIMENSION
  5
1DC3B
330
747D
100
AcDbEntity
  8
寸法
 48
50.0
100
AcDbDimension
  2
*D14
 10
8078.991662271889
 20
9272.310710222283
 30
0.0
 11
7978.991662271887
 21
9527.310710222284
 31
0.0
 70
    32
 71
     5
 42
510.0
  3
INABA_S50G
100
AcDbAlignedDimension
 13
8829.991662271888
 23
9782.310710222283
 33
0.0
 14
9470.99166227189
 24
9272.310710222283
 34
0.0
 50
90.0
100
AcDbRotatedDimension
  0
LINE
  5
1DC3C
330
747D
100
AcDbEntity
  8
センター
 48
5.0
100
AcDbLine
 10
8894.991662271889
 20
9862.310710222281
 30
0.0
 11
8894.991662271889
 21
9572.310710222282
 31
0.0
  0
LINE
  5
1DC3D
330
747D
100
AcDbEntity
  8
センター
 48
5.0
100
AcDbLine
 10
9039.991662271889
 20
9717.310710222283
 30
0.0
 11
8749.991662271888
 21
9717.310710222283
 31
0.0
  0
LINE
  5
1DC3E
330
747D
100
AcDbEntity
  8
細線
 48
50.0
100
AcDbLine
 10
10272.96809650321
 20
9662.310710222286
 30
0.0
 11
10392.9680965032
 21
9782.310710222279
 31
0.0
  0
LINE
  5
1DC3F
330
747D
100
AcDbEntity
  8
細線
 48
50.0
100
AcDbLine
 10
10254.99166227189
 20
9689.235556596312
 30
0.0
 11
10348.06681589786
 21
9782.310710222283
 31
0.0
  0
LINE
  5
1DC40
330
747D
100
AcDbEntity
  8
細線
 48
50.0
100
AcDbLine
 10
10254.99166227189
 20
9734.136837201653
 30
0.0
 11
10303.16553529251
 21
9782.310710222279
 31
0.0
  0
LINE
  5
1DC41
330
747D
100
AcDbEntity
  8
部品1
 48
50.0
100
AcDbLine
 10
9715.991662271891
 20
9472.310710222282
 30
0.0
 11
9515.991662271892
 21
9472.310710222282
 31
0.0
  0
LINE
  5
1DC42
330
747D
100
AcDbEntity
  8
細線
 48
50.0
100
AcDbLine
 10
10254.99166227189
 20
9779.038117807003
 30
0.0
 11
10258.26425468717
 21
9782.310710222279
 31
0.0
  0
LINE
  5
1DC43
330
747D
100
AcDbEntity
  8
部品1
 48
50.0
100
AcDbLine
 10
10254.99166227189
 20
9662.310710222286
 30
0.0
 11
10254.99166227189
 21
9782.310710222283
 31
0.0
  0
LINE
  5
1DC44
330
747D
100
AcDbEntity
  8
細線
 48
50.0
100
AcDbLine
 10
10407.67193831925
 20
9662.310710222286
 30
0.0
 11
10454.99166227189
 21
9709.630434174927
 31
0.0
  0
LINE
  5
1DC45
330
747D
100
AcDbEntity
  8
部品1
 48
50.0
100
AcDbLine
 10
10454.99166227189
 20
9662.310710222286
 30
0.0
 11
10454.99166227189
 21
9782.310710222283
 31
0.0
  0
LINE
  5
1DC46
330
747D
100
AcDbEntity
  8
細線
 48
50.0
100
AcDbLine
 10
10362.7706577139
 20
9662.310710222286
 30
0.0
 11
10454.99166227189
 21
9754.53171478027
 31
0.0
  0
LINE
  5
1DC47
330
747D
100
AcDbEntity
  8
細線
 48
50.0
100
AcDbLine
 10
10317.86937710856
 20
9662.310710222286
 30
0.0
 11
10437.86937710855
 21
9782.310710222283
 31
0.0
  0
DIMENSION
  5
1DC48
330
747D
100
AcDbEntity
  8
寸法
 48
50.0
100
AcDbDimension
  2
*D15
 10
12410.05988643596
 20
7957.310710222282
 30
0.0
 11
12310.05988643595
 21
8837.310710222284
 31
0.0
 70
    32
 71
     5
 42
1759.999999999999
  3
INABA_S50G
100
AcDbAlignedDimension
 13
11959.99166227189
 23
9717.310710222283
 33
0.0
 14
11959.99166227189
 24
7957.310710222282
 34
0.0
 50
90.0
100
AcDbRotatedDimension
1001
ACAD
1000
DSTYLE
1002
{
1070
    75
1070
     1
1070
   279
1070
     1
1002
}
  0
DIMENSION
  5
1DC49
330
747D
100
AcDbEntity
  8
寸法
 48
50.0
100
AcDbDimension
  2
*D16
 10
12730.99166227189
 20
9782.310710222281
 30
0.0
 11
12630.99166227188
 21
8837.310710222284
 31
0.0
 70
    32
 71
     5
 42
1889.999999999999
  3
INABA_S50G
100
AcDbAlignedDimension
 13
11879.99166227189
 23
7892.310710222282
 33
0.0
 14
11879.99166227189
 24
9782.310710222283
 34
0.0
 50
90.0
100
AcDbRotatedDimension
  0
LINE
  5
1DC4A
330
747D
100
AcDbEntity
  8
部品1
 48
50.0
100
AcDbLine
 10
11759.99166227189
 20
8012.31071022228
 30
0.0
 11
11759.99166227189
 21
9662.310710222286
 31
0.0
  0
LINE
  5
1DC4B
330
747D
100
AcDbEntity
  8
想像線
 48
20.0
100
AcDbLine
 10
11929.99166227189
 20
7762.310710222282
 30
0.0
 11
11929.99166227189
 21
9872.310710222279
 31
0.0
  0
LINE
  5
1DC4C
330
747D
100
AcDbEntity
  8
部品1
 48
50.0
100
AcDbLine
 10
11879.99166227189
 20
7892.310710222279
 30
0.0
 11
11879.99166227189
 21
9782.310710222283
 31
0.0
  0
LINE
  5
1DC4D
330
747D
100
AcDbEntity
  8
部品1
 48
50.0
100
AcDbLine
 10
11193.99166227188
 20
9472.310710222282
 30
0.0
 11
11193.99166227188
 21
9072.310710222282
 31
0.0
  0
DIMENSION
  5
1DC4E
330
747D
100
AcDbEntity
  8
寸法
 48
50.0
100
AcDbDimension
  2
*D17
 10
11929.99166227189
 20
6261.310710222282
 30
0.0
 11
12222.43260715378
 21
6261.310710222282
 31
0.0
 70
   160
  1
(<>)
 71
     5
 42
50.0
  3
INABA_S50G
100
AcDbAlignedDimension
 13
11879.99166227189
 23
7892.310710222279
 33
0.0
 14
11929.99166227189
 24
6572.843653977354
 34
0.0
100
AcDbRotatedDimension
  0
DIMENSION
  5
1DC4F
330
747D
100
AcDbEntity
  8
寸法
 48
50.0
100
AcDbDimension
  2
*D18
 10
12730.99166227189
 20
7762.310710222282
 30
0.0
 11
12730.99166227189
 21
7431.369765340395
 31
0.0
 70
   160
  1
(<>)
 71
     5
 42
130.0
  3
INABA_S50G
100
AcDbAlignedDimension
 13
11879.99166227189
 23
7892.310710222282
 33
0.0
 14
12410.05988643596
 24
7762.310710222282
 34
0.0
 50
90.0
100
AcDbRotatedDimension
  0
LINE
  5
1DC50
330
747D
100
AcDbEntity
  8
センター
 48
5.0
100
AcDbLine
 10
11814.99166227189
 20
7812.310710222281
 30
0.0
 11
11814.99166227189
 21
8102.310710222281
 31
0.0
  0
DIMENSION
  5
1DC51
330
747D
100
AcDbEntity
  8
寸法
 48
50.0
100
AcDbDimension
  2
*D19
 10
12410.05988643596
 20
7892.310710222282
 30
0.0
 11
12410.05988643596
 21
7652.215919528103
 31
0.0
 70
   160
 71
     5
 42
65.0
  3
INABA_S50G
100
AcDbAlignedDimension
 13
11959.99166227189
 23
7957.310710222282
 33
0.0
 14
11879.99166227189
 24
7892.310710222282
 34
0.0
 50
90.0
100
AcDbRotatedDimension
1001
ACAD
1000
DSTYLE
1002
{
1002
}
  0
DIMENSION
  5
1DC52
330
747D
100
AcDbEntity
  8
寸法
 48
50.0
100
AcDbDimension
  2
*D20
 10
11879.99166227189
 20
6572.843653977354
 30
0.0
 11
12120.08645296606
 21
6572.843653977354
 31
0.0
 70
   160
 71
     5
 42
65.0
  3
INABA_S50G
100
AcDbAlignedDimension
 13
11814.99166227189
 23
7812.310710222281
 33
0.0
 14
11879.99166227189
 24
7892.310710222282
 34
0.0
100
AcDbRotatedDimension
1001
ACAD
1000
DSTYLE
1002
{
1002
}
  0
LINE
  5
1DC53
330
747D
100
AcDbEntity
  8
センター
 48
5.0
100
AcDbLine
 10
11669.99166227189
 20
7957.310710222282
 30
0.0
 11
11959.99166227189
 21
7957.310710222282
 31
0.0
  0
LINE
  5
1DC54
330
747D
100
AcDbEntity
  8
部品1
 48
50.0
100
AcDbLine
 10
11193.99166227188
 20
8202.310710222283
 30
0.0
 11
11193.99166227188
 21
8602.310710222281
 31
0.0
  0
LINE
  5
1DC55
330
747D
100
AcDbEntity
  8
部品1
 48
50.0
100
AcDbLine
 10
11193.99166227188
 20
8737.310710222281
 30
0.0
 11
11193.99166227188
 21
8937.310710222282
 31
0.0
  0
LINE
  5
1DC56
330
747D
100
AcDbEntity
  8
細線
 48
50.0
100
AcDbLine
 10
11759.99166227189
 20
8891.900980251961
 30
0.0
 11
11805.40139224221
 21
8937.310710222286
 31
0.0
  0
LINE
  5
1DC57
330
747D
100
AcDbEntity
  8
細線
 48
50.0
100
AcDbLine
 10
11759.99166227189
 20
8846.99969964662
 30
0.0
 11
11850.30267284755
 21
8937.310710222282
 31
0.0
  0
LINE
  5
1DC58
330
747D
100
AcDbEntity
  8
細線
 48
50.0
100
AcDbLine
 10
11759.99166227189
 20
8802.09841904127
 30
0.0
 11
11879.99166227189
 21
8922.098419041271
 31
0.0
  0
LINE
  5
1DC59
330
747D
100
AcDbEntity
  8
細線
 48
50.0
100
AcDbLine
 10
11759.99166227189
 20
8757.197138435925
 30
0.0
 11
11879.99166227189
 21
8877.197138435928
 31
0.0
  0
LINE
  5
1DC5A
330
747D
100
AcDbEntity
  8
細線
 48
50.0
100
AcDbLine
 10
11874.80907587428
 20
8737.310710222281
 30
0.0
 11
11879.99166227189
 21
8742.49329661989
 31
0.0
  0
LINE
  5
1DC5B
330
747D
100
AcDbEntity
  8
部品1
 48
50.0
100
AcDbLine
 10
11879.99166227189
 20
8737.310710222281
 30
0.0
 11
11759.99166227189
 21
8737.310710222281
 31
0.0
  0
LINE
  5
1DC5C
330
747D
100
AcDbEntity
  8
細線
 48
50.0
100
AcDbLine
 10
11829.90779526893
 20
8737.310710222281
 30
0.0
 11
11879.99166227189
 21
8787.394577225233
 31
0.0
  0
LINE
  5
1DC5D
330
747D
100
AcDbEntity
  8
細線
 48
50.0
100
AcDbLine
 10
11785.00651466359
 20
8737.310710222281
 30
0.0
 11
11879.99166227189
 21
8832.29585783058
 31
0.0
  0
LINE
  5
1DC5E
330
747D
100
AcDbEntity
  8
部品1
 48
50.0
100
AcDbLine
 10
11879.99166227189
 20
8937.310710222282
 30
0.0
 11
11759.99166227189
 21
8937.310710222282
 31
0.0
  0
LEADER
  5
1DC5F
330
747D
100
AcDbEntity
  8
寸法
 48
50.0
100
AcDbLeader
  3
INABA_S50G
 71
     0
 73
     0
 74
     0
 75
     1
 40
150.0
 41
1417.499999999999
 76
     3
 10
11814.99166227189
 20
9717.310710222283
 30
0.0
 10
12106.94810963336
 20
10466.81594660197
 30
0.0
 10
12231.94810963336
 20
10466.81594660197
 30
0.0
340
1DC60
  0
MTEXT
  5
1DC60
102
{ACAD_REACTORS
330
1DC5F
102
}
330
747D
100
AcDbEntity
  8
細線
 62
     7
 48
50.0
100
AcDbMText
 10
12256.94810963336
 20
10566.81594660197
 30
0.0
 40
150.0
 41
0.0
 71
     4
 72
     1
  1
\A1;アンカーボルト芯
  7
STYLE1
 73
     1
 44
1.0
1001
ACAD
1000
MTEXTBEGIN
1070
    73
1070
     1
1070
    44
1040
1.0
1070
    74
1070
     0
1000
MTEXTEND
  0
DIMENSION
  5
1DC61
330
747D
100
AcDbEntity
  8
寸法
 48
50.0
100
AcDbDimension
  2
*D21
 10
12730.99166227189
 20
9872.310710222279
 30
0.0
 11
12730.99166227189
 21
10166.01372989124
 31
0.0
 70
   160
  1
(<>)
 71
     5
 42
89.99999999999818
  3
INABA_S50G
100
AcDbAlignedDimension
 13
11879.99166227189
 23
9782.310710222283
 33
0.0
 14
12410.05988643596
 24
9872.310710222279
 34
0.0
 50
90.0
100
AcDbRotatedDimension
  0
DIMENSION
  5
1DC62
330
747D
100
AcDbEntity
  8
寸法
 48
50.0
100
AcDbDimension
  2
*D22
 10
12410.05988643596
 20
9717.31071022228
 30
0.0
 11
12410.05988643596
 21
10022.40550091646
 31
0.0
 70
   160
 71
     5
 42
65.0
  3
INABA_S50G
100
AcDbAlignedDimension
 13
11879.99166227189
 23
9782.310710222283
 33
0.0
 14
11959.99166227189
 24
9717.310710222283
 34
0.0
 50
90.0
100
AcDbRotatedDimension
  0
LINE
  5
1DC63
330
747D
100
AcDbEntity
  8
センター
 48
5.0
100
AcDbLine
 10
11669.99166227189
 20
9717.310710222283
 30
0.0
 11
11959.99166227189
 21
9717.310710222283
 31
0.0
  0
LINE
  5
1DC64
330
747D
100
AcDbEntity
  8
センター
 48
5.0
100
AcDbLine
 10
11814.99166227189
 20
9862.310710222281
 30
0.0
 11
11814.99166227189
 21
9572.310710222282
 31
0.0
  0
DIMENSION
  5
1E0B9
330
747D
100
AcDbEntity
  8
寸法
 48
50.0
100
AcDbDimension
  2
*D23
 10
11759.99166227189
 20
8397.7874174056
 30
0.0
 11
11489.93260715378
 21
8397.7874174056
 31
0.0
 70
   160
 71
     5
 42
120.0
  3
INABA_S50G
100
AcDbAlignedDimension
 13
11879.99166227189
 23
8610.359196831444
 33
0.0
 14
11759.99166227189
 24
8610.359196831449
 34
0.0
100
AcDbRotatedDimension
1001
ACAD
1000
DSTYLE
1002
{
1070
   341
1005
0
1002
}
  0
DIMENSION
  5
1E0F1
330
747D
100
AcDbEntity
  8
寸法
 48
50.0
100
AcDbDimension
  2
*D24
 10
10650.99166227189
 20
7290.168565841814
 30
0.0
 11
9799.611184847643
 21
7290.168565841814
 31
0.0
 70
   160
 71
     5
 42
1821.000000000002
  3
INABA_S50G
100
AcDbAlignedDimension
 13
8829.991662271888
 23
7827.310710222282
 33
0.0
 14
10650.99166227189
 24
7827.310710222282
 34
0.0
100
AcDbRotatedDimension
1001
ACAD
1000
DSTYLE
1002
{
1070
   341
1005
0
1002
}
  0
LINE
  5
1E536
330
747D
100
AcDbEntity
  8
細線
 48
50.0
100
AcDbLine
 10
10407.57321892459
 20
7827.310710222281
 30
0.0
 11
10454.99166227189
 21
7874.729153569584
 31
0.0
  0
DIMENSION
  5
1E67C
330
747D
100
AcDbEntity
  8
寸法
 48
50.0
100
AcDbDimension
  2
*D25
 10
10907.80318780591
 20
8012.31071022228
 30
0.0
 11
10907.80318780591
 21
8282.369765340392
 31
0.0
 70
   160
 71
     5
 42
119.9999999999972
  3
INABA_S50G
100
AcDbAlignedDimension
 13
10650.99166227189
 23
7892.310710222282
 33
0.0
 14
10650.99166227188
 24
8012.31071022228
 34
0.0
 50
90.0
100
AcDbRotatedDimension
1001
ACAD
1000
DSTYLE
1002
{
1070
   341
1005
0
1002
}
  0
DIMENSION
  5
1E6AA
330
747D
100
AcDbEntity
  8
寸法
 48
50.0
100
AcDbDimension
  2
*D26
 10
11211.08370647741
 20
7827.310710222282
 30
0.0
 11
11211.08370647741
 21
7554.204108504485
 31
0.0
 70
   160
 71
     5
 42
184.9999999999982
  3
INABA_S50G
100
AcDbAlignedDimension
 13
10650.99166227188
 23
8012.31071022228
 33
0.0
 14
10650.99166227188
 24
7827.310710222282
 34
0.0
 50
90.0
100
AcDbRotatedDimension
1001
ACAD
1000
DSTYLE
1002
{
1070
   341
1005
0
1002
}
  0
LINE
  5
1E6CF
330
747D
100
AcDbEntity
  8
想像線
 48
4.0
100
AcDbLine
 10
8829.991662271888
 20
7892.31071022228
 30
0.0
 11
10254.99166227189
 21
7892.310710222282
 31
0.0
  0
LINE
  5
1EE5D
330
747D
100
AcDbEntity
  8
細線
 48
50.0
100
AcDbLine
 10
9914.732435059004
 20
3222.497321331612
 30
0.0
 11
9065.44285651107
 21
3222.497321331612
 31
0.0
  0
TEXT
  5
1EE5E
330
747D
100
AcDbEntity
  8
部品1
 48
50.0
100
AcDbText
 10
9086.191931442746
 20
3287.584103144678
 30
0.0
 40
112.0
  1
基礎詳細図
  7
STYLE2
100
AcDbText
  0
LINE
  5
1EE5F
330
747D
100
AcDbEntity
  8
細線
 48
50.0
100
AcDbLine
 10
9914.732435059004
 20
3462.497321331612
 30
0.0
 11
9065.44285651107
 21
3462.497321331612
 31
0.0
  0
LINE
  5
1EE60
330
747D
100
AcDbEntity
  8
部品1
100
AcDbLine
 10
9648.920111121483
 20
2651.349819132731
 30
0.0
 11
9681.227803429178
 21
2651.349819132731
 31
0.0
  0
LINE
  5
1EE61
330
747D
100
AcDbEntity
  8
細線
 48
50.0
100
AcDbLine
 10
9677.689341890717
 20
2535.190846671685
 30
0.0
 11
9698.340030109092
 21
2529.657511440424
 31
0.0
  0
ARC
  5
1EE62
330
747D
100
AcDbEntity
  8
部品1
100
AcDbCircle
 10
9676.881649583023
 20
2521.371444298646
 30
0.0
 40
7.3858052918609
100
AcDbArc
 50
43.19325636896477
 51
136.8067436310352
  0
LINE
  5
1EE63
330
747D
100
AcDbEntity
  8
細線
 48
50.0
100
AcDbLine
 10
9677.689341890717
 20
2559.190846671685
 30
0.0
 11
9712.889341890715
 21
2549.75903509811
 31
0.0
  0
LINE
  5
1EE64
330
747D
100
AcDbEntity
  8
部品1
100
AcDbLine
 10
9667.189341890718
 20
2508.119049901961
 30
0.0
 11
9723.189341890716
 21
2508.119049901961
 31
0.0
  0
LINE
  5
1EE65
330
747D
100
AcDbEntity
  8
部品1
100
AcDbLine
 10
9674.727803429178
 20
2529.657511440424
 30
0.0
 11
9715.650880352256
 21
2529.657511440424
 31
0.0
  0
LINE
  5
1EE66
330
747D
100
AcDbEntity
  8
部品1
100
AcDbLine
 10
9671.497034198404
 20
2526.426742209657
 30
0.0
 11
9718.881649583025
 21
2526.426742209653
 31
0.0
  0
LINE
  5
1EE67
330
747D
100
AcDbEntity
  8
細線
 48
50.0
100
AcDbLine
 10
9677.689341890717
 20
2547.190846671689
 30
0.0
 11
9712.889341890715
 21
2537.759035098112
 31
0.0
  0
LINE
  5
1EE68
330
747D
100
AcDbEntity
  8
細線
100
AcDbLine
 10
9666.266194443492
 20
2470.163306607174
 30
0.0
 11
9721.996183081927
 21
2471.801051304563
 31
0.0
  0
LINE
  5
1EE69
330
747D
100
AcDbEntity
  8
部品1
100
AcDbLine
 10
9582.920111121483
 20
2508.119049901961
 30
0.0
 11
9749.843188044561
 21
2508.119049901961
 31
0.0
  0
CIRCLE
  5
1EE6A
330
747D
100
AcDbEntity
  8
部品1
 48
50.0
100
AcDbCircle
 10
9671.689341890717
 20
2329.129394337076
 30
0.0
 40
10.0
  0
ARC
  5
1EE6B
330
747D
100
AcDbEntity
  8
部品1
 48
50.0
100
AcDbCircle
 10
9671.689341890717
 20
2329.129394337076
 30
0.0
 40
30.0
100
AcDbArc
 50
70.52877936552764
 51
180.0
  0
LINE
  5
1EE6C
330
747D
100
AcDbEntity
  8
部品1
 48
50.0
100
AcDbLine
 10
9551.689341890718
 20
2503.81135759427
 30
0.0
 11
9791.689341890716
 21
2503.81135759427
 31
0.0
  0
DIMENSION
  5
1EE6D
330
747D
100
AcDbEntity
  8
寸法
 48
50.0
100
AcDbDimension
  2
*D27
 10
9695.189341890715
 20
2747.544699492217
 30
0.0
 11
9341.626148094597
 21
2747.544699492217
 31
0.0
 70
   160
  1
65
 71
     5
 42
143.5
  3
INABA_S50GUP
100
AcDbAlignedDimension
 13
9551.689341890714
 23
2503.81135759427
 33
0.0
 14
9695.189341890715
 24
2564.119049901961
 34
0.0
100
AcDbRotatedDimension
1001
ACAD
1000
DSTYLE
1002
{
1070
   140
1040
100.0
1002
}
  0
ARC
  5
1EE6E
330
747D
100
AcDbEntity
  8
部品1
 48
50.0
100
AcDbCircle
 10
9671.689341890717
 20
2253.81135759427
 30
0.0
 40
10.0
100
AcDbArc
 50
270.0
 51
0.0
  0
LINE
  5
1EE6F
330
747D
100
AcDbEntity
  8
細線
 48
50.0
100
AcDbLine
 10
9661.689341890721
 20
2261.777473429058
 30
0.0
 11
9681.689341890717
 21
2281.777473429058
 31
0.0
  0
ARC
  5
1EE70
330
747D
100
AcDbEntity
  8
部品1
 48
50.0
100
AcDbCircle
 10
9671.689341890717
 20
2253.81135759427
 30
0.0
 40
37.0
100
AcDbArc
 50
270.0
 51
0.0
  0
LINE
  5
1EE71
330
747D
100
AcDbEntity
  8
細線
 48
50.0
100
AcDbLine
 10
9551.689341890718
 20
1849.721710705002
 30
0.0
 11
9681.689341890717
 21
1979.721710705003
 31
0.0
  0
LINE
  5
1EE72
330
747D
100
AcDbEntity
  8
細線
 48
50.0
100
AcDbLine
 10
9551.689341890718
 20
1816.045750250992
 30
0.0
 11
9681.68934189072
 21
1946.045750250991
 31
0.0
  0
LINE
  5
1EE73
330
747D
100
AcDbEntity
  8
細線
 48
50.0
100
AcDbLine
 10
9551.689341890718
 20
1782.369789796983
 30
0.0
 11
9681.689341890724
 21
1912.369789796985
 31
0.0
  0
LINE
  5
1EE74
330
747D
100
AcDbEntity
  8
細線
 48
50.0
100
AcDbLine
 10
9661.689341890717
 20
2295.453433883067
 30
0.0
 11
9681.689341890717
 21
2315.453433883067
 31
0.0
  0
LINE
  5
1EE75
330
747D
100
AcDbEntity
  8
細線
 48
50.0
100
AcDbLine
 10
9651.521651237477
 20
1646.470375965673
 30
0.0
 11
9681.689341890724
 21
1676.63806661892
 31
0.0
  0
LINE
  5
1EE76
330
747D
100
AcDbEntity
  8
細線
 48
50.0
100
AcDbLine
 10
9661.689341890721
 20
1622.962106164909
 30
0.0
 11
9681.689341890724
 21
1642.96210616491
 31
0.0
  0
CIRCLE
  5
1EE77
330
747D
100
AcDbEntity
  8
部品1
 48
50.0
100
AcDbCircle
 10
9671.689341890717
 20
1573.811357594269
 30
0.0
 40
10.0
  0
LINE
  5
1EE78
330
747D
100
AcDbEntity
  8
細線
 48
50.0
100
AcDbLine
 10
9664.594356044133
 20
1423.81135759427
 30
0.0
 11
9784.594356044134
 21
1543.81135759427
 31
0.0
  0
LINE
  5
1EE79
330
747D
100
AcDbEntity
  8
細線
 48
50.0
100
AcDbLine
 10
9535.186672412059
 20
1563.81135759427
 30
0.0
 11
9681.689341890717
 21
1710.314027072929
 31
0.0
  0
LINE
  5
1EE7A
330
747D
100
AcDbEntity
  8
部品1
 48
50.0
100
AcDbLine
 10
9441.689341890716
 20
1563.81135759427
 30
0.0
 11
9901.689341890717
 21
1563.81135759427
 31
0.0
  0
LINE
  5
1EE7B
330
747D
100
AcDbEntity
  8
部品1
 48
50.0
100
AcDbLine
 10
9441.689341890716
 20
1543.81135759427
 30
0.0
 11
9901.689341890717
 21
1543.81135759427
 31
0.0
  0
DIMENSION
  5
1EE7C
330
747D
100
AcDbEntity
  8
寸法
 48
50.0
100
AcDbDimension
  2
*D28
 10
9010.304043970043
 20
2503.81135759427
 30
0.0
 11
9010.304043970043
 21
2833.325086647371
 31
0.0
 70
   160
  1
出30
 71
     5
 42
60.30769230769147
  3
INABA_S50GUP
100
AcDbAlignedDimension
 13
9681.689341890711
 23
2564.119049901961
 33
0.0
 14
9551.689341890714
 24
2503.81135759427
 34
0.0
 50
90.0
100
AcDbRotatedDimension
1001
ACAD
1000
DSTYLE
1002
{
1070
   140
1040
100.0
1002
}
  0
DIMENSION
  5
1EE7D
330
747D
100
AcDbEntity
  8
寸法
 48
50.0
100
AcDbDimension
  2
*D29
 10
9753.073957275331
 20
2969.123617544192
 30
0.0
 11
9657.766264967639
 21
2969.123617544192
 31
0.0
 70
   160
  1
88.5
 71
     5
 42
190.6153846153847
  3
INABA_S50GUP
100
AcDbAlignedDimension
 13
9562.458572659945
 23
2609.349819132731
 33
0.0
 14
9753.073957275331
 24
2610.426742209654
 34
0.0
100
AcDbRotatedDimension
1001
ACAD
1000
DSTYLE
1002
{
1070
   140
1040
100.0
1002
}
  0
LINE
  5
1EE7E
330
747D
100
AcDbEntity
  8
細線
 48
50.0
100
AcDbLine
 10
5428.79930713854
 20
436.8356480908532
 30
0.0
 11
13551.37598443153
 21
436.8356480908546
 31
0.0
  0
TEXT
  5
1EE7F
330
747D
100
AcDbEntity
  8
部品1
 48
50.0
100
AcDbText
 10
9137.132571115937
 20
610.3958849235914
 30
0.0
 40
96.0
  1
アンカー部詳細
  7
STYLE2
100
AcDbText
  0
LINE
  5
1EE80
330
747D
100
AcDbEntity
  8
部品1
 48
50.0
100
AcDbLine
 10
10116.29990815593
 20
576.4035931910948
 30
0.0
 11
9075.530135977697
 21
576.4035931910948
 31
0.0
  0
LINE
  5
1EE81
330
747D
100
AcDbEntity
  8
部品1
 48
50.0
100
AcDbLine
 10
10116.29990815593
 20
736.4035931910948
 30
0.0
 11
9075.530135977697
 21
736.4035931910948
 31
0.0
  0
LINE
  5
1EE82
330
747D
100
AcDbEntity
  8
部品1
 48
50.0
100
AcDbLine
 10
10071.68934189071
 20
1423.81135759427
 30
0.0
 11
9271.689341890716
 21
1423.81135759427
 31
0.0
  0
LINE
  5
1EE83
330
747D
100
AcDbEntity
  8
部品1
 48
50.0
100
AcDbLine
 10
10071.68934189071
 20
1263.81135759427
 30
0.0
 11
9271.689341890716
 21
1263.81135759427
 31
0.0
  0
LINE
  5
1EE84
330
747D
100
AcDbEntity
  8
細線
 48
50.0
100
AcDbLine
 10
5428.79930713854
 20
3342.497321331612
 30
0.0
 11
5428.79930713854
 21
436.8356480908528
 31
0.0
  0
DIMENSION
  5
1EE85
330
747D
100
AcDbEntity
  8
寸法
 48
50.0
100
AcDbDimension
  2
*D30
 10
6504.265438366305
 20
2828.281637829481
 30
0.0
 11
6624.265438366305
 21
2828.281637829481
 31
0.0
 70
   160
  1
120\P185
 71
     5
 42
240.0
  3
INABA_S50GUP
100
AcDbAlignedDimension
 13
6744.265438366305
 23
2428.281637829481
 33
0.0
 14
6504.265438366305
 24
2428.281637829481
 34
0.0
100
AcDbRotatedDimension
1001
ACAD
1000
DSTYLE
1002
{
1070
   140
1040
100.0
1002
}
  0
LINE
  5
1EE86
330
747D
100
AcDbEntity
  8
Ｇ．Ｌ
 48
50.0
100
AcDbLine
 10
5986.590561075107
 20
2028.281637829481
 30
0.0
 11
6504.265438366303
 21
2028.281637829481
 31
0.0
  0
LEADER
  5
1EE87
330
747D
100
AcDbEntity
  8
寸法
 48
50.0
100
AcDbLeader
  3
INABA_S50G
 71
     0
 73
     0
 40
101.39087296526
 41
174.1421356237309
 76
     2
 10
6624.265438366305
 20
2253.599674572288
 30
0.0
 10
6389.682843962626
 20
2197.257216697109
 30
0.0
340
1EE88
  0
MTEXT
  5
1EE88
102
{ACAD_REACTORS
330
1EE87
102
}
330
747D
100
AcDbEntity
  8
寸法
 62
     7
 48
50.0
100
AcDbMText
 10
6364.682843962626
 20
2272.952653179738
 30
0.0
 40
100.0
 41
0.0
 71
     6
 72
     1
  1
D13
  7
STYLE1
 73
     1
 44
1.0
1001
ACAD
1000
MTEXTBEGIN
1070
    73
1070
     1
1070
    44
1040
1.0
1070
    74
1070
     0
1000
MTEXTEND
  0
MTEXT
  5
1EE89
102
{ACAD_REACTORS
330
1EE8A
102
}
330
747D
100
AcDbEntity
  8
寸法
 62
     7
 48
50.0
100
AcDbMText
 10
6421.878181969312
 20
2693.926912832034
 30
0.0
 40
100.0
 41
0.0
 71
     6
 72
     1
  1
\A1;金コテ押エ
  7
STYLE1
 73
     1
 44
1.0
1001
ACAD
1000
MTEXTBEGIN
1070
    73
1070
     1
1070
    44
1040
1.0
1070
    74
1070
     0
1000
MTEXTEND
  0
LEADER
  5
1EE8A
330
747D
100
AcDbEntity
  8
寸法
 48
50.0
100
AcDbLeader
  3
INABA_S50G
 71
     0
 73
     0
 75
     1
 40
100.0
 41
585.0000000000001
 76
     3
 10
6604.265438366304
 20
2428.281637829481
 30
0.0
 10
6571.878181969312
 20
2618.926912832034
 30
0.0
 10
6446.878181969312
 20
2618.926912832034
 30
0.0
340
1EE89
  0
LEADER
  5
1EE8B
330
747D
100
AcDbEntity
  8
寸法
 48
50.0
100
AcDbLeader
  3
INABA_S50G
 71
     0
 73
     0
 75
     1
 40
132.9441738241594
 41
490.0787401574802
 76
     3
 10
6642.823233904313
 20
2125.940656200885
 30
0.0
 10
6419.5526034043
 20
1854.723603668412
 30
0.0
 10
6294.5526034043
 20
1854.723603668412
 30
0.0
340
1EE8C
213
-20.50276907354419
223
30.78492082892717
233
0.0
  0
MTEXT
  5
1EE8C
102
{ACAD_REACTORS
330
1EE8B
102
}
330
747D
100
AcDbEntity
  8
寸法
 62
     7
 48
50.0
100
AcDbMText
 10
6290.055372477844
 20
1915.410769751565
 30
0.0
 40
100.0
 41
0.0
 71
     6
 72
     1
  1
\A1;D10@300
  7
STYLE1
 73
     1
 44
1.0
1001
ACAD
1000
MTEXTBEGIN
1070
    73
1070
     1
1070
    44
1040
1.0
1070
    74
1070
     0
1000
MTEXTEND
  0
LINE
  5
1EE8D
330
747D
100
AcDbEntity
  8
細線
 48
50.0
100
AcDbLine
 10
6324.265438366303
 20
1560.516030486206
 30
0.0
 11
6412.031045709584
 21
1648.281637829481
 31
0.0
  0
LINE
  5
1EE8E
330
747D
100
AcDbEntity
  8
細線
 48
50.0
100
AcDbLine
 10
6324.265438366307
 20
1526.840070032195
 30
0.0
 11
6445.707006163591
 21
1648.281637829481
 31
0.0
  0
LINE
  5
1EE8F
330
747D
100
AcDbEntity
  8
部品1
 48
50.0
100
AcDbLine
 10
6324.265438366303
 20
1648.281637829481
 30
0.0
 11
6504.265438366303
 21
1648.281637829481
 31
0.0
  0
LINE
  5
1EE90
330
747D
100
AcDbEntity
  8
細線
 48
50.0
100
AcDbLine
 10
6356.30322426675
 20
1188.281637829481
 30
0.0
 11
6399.175095055732
 21
1348.281637829481
 31
0.0
  0
LINE
  5
1EE91
330
747D
100
AcDbEntity
  8
細線
 48
50.0
100
AcDbLine
 10
6347.762768887646
 20
1348.281637829481
 30
0.0
 11
6467.762768887645
 21
1468.281637829481
 31
0.0
  0
LINE
  5
1EE92
330
747D
100
AcDbEntity
  8
細線
 48
50.0
100
AcDbLine
 10
6381.438729341659
 20
1348.281637829481
 30
0.0
 11
6501.438729341659
 21
1468.281637829481
 31
0.0
  0
LEADER
  5
1EE93
330
747D
100
AcDbEntity
  8
寸法
 48
50.0
100
AcDbLeader
  3
INABA_S50G
 71
     0
 73
     0
 75
     1
 40
101.39087296526
 41
170.0787401574803
 76
     3
 10
6464.011062513741
 20
1498.281637829481
 30
0.0
 10
6227.114776837594
 20
1153.307948042715
 30
0.0
 10
6102.114776837594
 20
1153.307948042715
 30
0.0
340
1EE94
  0
MTEXT
  5
1EE94
102
{ACAD_REACTORS
330
1EE93
102
}
330
747D
100
AcDbEntity
  8
寸法
 62
     7
 48
50.0
100
AcDbMText
 10
6077.114776837594
 20
1229.003384525345
 30
0.0
 40
100.0
 41
0.0
 71
     6
 72
     1
  1
D10
  7
STYLE1
 73
     1
 44
1.0
1001
ACAD
1000
MTEXTBEGIN
1070
    73
1070
     1
1070
    44
1040
1.0
1070
    74
1070
     0
1000
MTEXTEND
  0
DIMENSION
  5
1EE95
330
747D
100
AcDbEntity
  8
寸法
 48
50.0
100
AcDbDimension
  2
*D31
 10
5649.796070567149
 20
1348.281637829481
 30
0.0
 11
5649.796070567149
 21
1925.076574427191
 31
0.0
 70
   160
  1
540
 71
     5
 42
1080.0
  3
INABA_S50GUP
100
AcDbAlignedDimension
 13
6504.265438366305
 23
2428.281637829481
 33
0.0
 14
6244.265438366306
 24
1348.281637829481
 34
0.0
 50
90.0
100
AcDbRotatedDimension
1001
ACAD
1000
DSTYLE
1002
{
1070
   140
1040
100.0
1002
}
  0
LINE
  5
1EE96
330
747D
100
AcDbEntity
  8
部品1
 48
50.0
100
AcDbLine
 10
6394.265438366304
 20
1468.281637829481
 30
0.0
 11
6854.265438366303
 21
1468.281637829481
 31
0.0
  0
LINE
  5
1EE97
330
747D
100
AcDbEntity
  8
部品1
 48
50.0
100
AcDbLine
 10
6394.265438366304
 20
1488.281637829481
 30
0.0
 11
6854.265438366303
 21
1488.281637829481
 31
0.0
  0
LINE
  5
1EE98
330
747D
100
AcDbEntity
  8
部品1
 48
50.0
100
AcDbLine
 10
7024.265438366303
 20
1188.281637829481
 30
0.0
 11
6224.265438366303
 21
1188.281637829481
 31
0.0
  0
LINE
  5
1EE99
330
747D
100
AcDbEntity
  8
部品1
 48
50.0
100
AcDbLine
 10
7024.265438366303
 20
1348.281637829481
 30
0.0
 11
6224.265438366303
 21
1348.281637829481
 31
0.0
  0
DIMENSION
  5
1EE9A
330
747D
100
AcDbEntity
  8
寸法
 48
50.0
100
AcDbDimension
  2
*D32
 10
6924.265438366305
 20
889.3295313735471
 30
0.0
 11
6624.265438366305
 21
889.3295313735471
 31
0.0
 70
   160
  1
300
 71
     5
 42
600.0
  3
INABA_S50GUP
100
AcDbAlignedDimension
 13
6324.265438366305
 23
1188.281637829481
 33
0.0
 14
6924.265438366305
 24
1188.281637829481
 34
0.0
100
AcDbRotatedDimension
1001
ACAD
1000
DSTYLE
1002
{
1070
   140
1040
100.0
1002
}
  0
LINE
  5
1EE9B
330
747D
100
AcDbEntity
  8
部品1
 48
50.0
100
AcDbLine
 10
6324.265438366303
 20
1348.281637829481
 30
0.0
 11
6324.265438366303
 21
1648.281637829481
 31
0.0
  0
DIMENSION
  5
1EE9C
330
747D
100
AcDbEntity
  8
寸法
 48
50.0
100
AcDbDimension
  2
*D33
 10
5880.995094034696
 20
1348.281637829481
 30
0.0
 11
5880.995094034696
 21
1522.608232221624
 31
0.0
 70
   160
  1
150
 71
     5
 42
300.0
  3
INABA_S50GUP
100
AcDbAlignedDimension
 13
6344.265438366305
 23
1648.281637829481
 33
0.0
 14
6244.265438366306
 24
1348.281637829481
 34
0.0
 50
90.0
100
AcDbRotatedDimension
1001
ACAD
1000
DSTYLE
1002
{
1070
   140
1040
100.0
1002
}
  0
LINE
  5
1EE9D
330
747D
100
AcDbEntity
  8
部品1
 48
50.0
100
AcDbLine
 10
6224.265438366303
 20
1188.281637829481
 30
0.0
 11
6224.265438366303
 21
1348.281637829481
 31
0.0
  0
LINE
  5
1EE9E
330
747D
100
AcDbEntity
  8
細線
 48
50.0
100
AcDbLine
 10
6257.693168082689
 20
1188.281637829481
 30
0.0
 11
6300.565038871671
 21
1348.281637829481
 31
0.0
  0
LINE
  5
1EE9F
330
747D
100
AcDbEntity
  8
細線
 48
50.0
100
AcDbLine
 10
6364.341700039688
 20
1218.281637829481
 30
0.0
 11
6372.380175812621
 21
1188.281637829481
 31
0.0
  0
LINE
  5
1EEA0
330
747D
100
AcDbEntity
  8
細線
 48
50.0
100
AcDbLine
 10
6265.731643855627
 20
1218.281637829481
 30
0.0
 11
6273.77011962856
 21
1188.281637829481
 31
0.0
  0
LINE
  5
1EEA1
330
747D
100
AcDbEntity
  8
部品1
 48
50.0
100
AcDbLine
 10
6394.265438366304
 20
1468.281637829481
 30
0.0
 11
6394.265438366304
 21
1488.281637829481
 31
0.0
  0
LINE
  5
1EEA2
330
747D
100
AcDbEntity
  8
細線
 48
50.0
100
AcDbLine
 10
6391.136619282799
 20
1318.281637829481
 30
0.0
 11
6383.098143509865
 21
1348.281637829481
 31
0.0
  0
LINE
  5
1EEA3
330
747D
100
AcDbEntity
  8
細線
 48
50.0
100
AcDbLine
 10
6292.526563098738
 20
1318.281637829481
 30
0.0
 11
6284.488087325804
 21
1348.281637829481
 31
0.0
  0
LINE
  5
1EEA4
330
747D
100
AcDbEntity
  8
細線
 48
50.0
100
AcDbLine
 10
6324.265438366303
 20
1594.191990940216
 30
0.0
 11
6378.355085255571
 21
1648.281637829481
 31
0.0
  0
TEXT
  5
1EEA5
330
747D
100
AcDbEntity
  8
部品1
 48
50.0
100
AcDbText
 10
6134.938827649483
 20
2037.647464732192
 30
0.0
 40
100.0
  1
G.L
  7
STYLE1
100
AcDbText
  0
LINE
  5
1EEA6
330
747D
100
AcDbEntity
  8
部品1
 48
50.0
100
AcDbLine
 10
6132.847472279485
 20
2111.751762677904
 30
0.0
 11
6084.655973228957
 21
2028.281637829481
 31
0.0
  0
LINE
  5
1EEA7
330
747D
100
AcDbEntity
  8
部品1
 48
50.0
100
AcDbLine
 10
6036.464474178429
 20
2111.751762677904
 30
0.0
 11
6084.655973228957
 21
2028.281637829481
 31
0.0
  0
LINE
  5
1EEA8
330
747D
100
AcDbEntity
  8
部品1
 48
50.0
100
AcDbLine
 10
6036.464474178429
 20
2111.751762677904
 30
0.0
 11
6132.847472279485
 21
2111.751762677904
 31
0.0
  0
LINE
  5
1EEA9
330
747D
100
AcDbEntity
  8
細線
 48
50.0
100
AcDbLine
 10
8034.700839845802
 20
1848.281637829482
 30
0.0
 11
8042.739315618735
 21
1818.281637829482
 31
0.0
  0
LINE
  5
1EEAA
330
747D
100
AcDbEntity
  8
細線
 48
50.0
100
AcDbLine
 10
8026.662364072867
 20
1818.281637829482
 30
0.0
 11
8069.534234861851
 21
1978.281637829482
 31
0.0
  0
LINE
  5
1EEAB
330
747D
100
AcDbEntity
  8
細線
100
AcDbLine
 10
7930.946651885536
 20
2128.281637829482
 30
0.0
 11
8230.946651885533
 21
2428.281637829481
 31
0.0
  0
LINE
  5
1EEAC
330
747D
100
AcDbEntity
  8
細線
100
AcDbLine
 10
7970.946651885535
 20
2128.281637829482
 30
0.0
 11
8270.946651885534
 21
2428.281637829481
 31
0.0
  0
LINE
  5
1EEAD
330
747D
100
AcDbEntity
  8
部品1
 48
50.0
100
AcDbLine
 10
8346.134057564107
 20
2428.281637829481
 30
0.0
 11
7566.134057564108
 21
2428.281637829481
 31
0.0
  0
LINE
  5
1EEAE
330
747D
100
AcDbEntity
  8
部品1
100
AcDbLine
 10
7320.434111245278
 20
1978.281637829482
 30
0.0
 11
8591.834003882937
 21
1978.281637829482
 31
0.0
  0
LINE
  5
1EEAF
330
747D
100
AcDbEntity
  8
部品1
100
AcDbLine
 10
7320.434111245278
 20
1818.281637829485
 30
0.0
 11
8591.834003882937
 21
1818.281637829485
 31
0.0
  0
LINE
  5
1EEB0
330
747D
100
AcDbEntity
  8
Ｇ．Ｌ
 48
50.0
100
AcDbLine
 10
6744.265438366302
 20
2128.281637829481
 30
0.0
 11
8772.374397978376
 21
2128.281637829482
 31
0.0
  0
LEADER
  5
1EEB1
330
747D
100
AcDbEntity
  8
寸法
 48
50.0
100
AcDbLeader
  3
INABA_S50G
 71
     0
 73
     0
 74
     0
 75
     1
 40
100.0
 41
154.6599025766975
 76
     3
 10
8008.953019475121
 20
2363.589368415881
 30
0.0
 10
8063.234569959242
 20
2587.629256525616
 30
0.0
 10
8188.234569959242
 20
2587.629256525616
 30
0.0
340
1EEB2
  0
MTEXT
  5
1EEB2
102
{ACAD_REACTORS
330
1EEB1
102
}
330
747D
100
AcDbEntity
  8
寸法
 62
     7
 48
50.0
100
AcDbMText
 10
8213.234569959242
 20
2662.629256525617
 30
0.0
 40
100.0
 41
0.0
 71
     4
 72
     1
  1
C.B
  7
STYLE1
 73
     1
 44
1.0
1001
ACAD
1000
MTEXTBEGIN
1070
    73
1070
     1
1070
    44
1040
1.0
1070
    74
1070
     0
1000
MTEXTEND
  0
LINE
  5
1EEB3
330
747D
100
AcDbEntity
  8
細線
 48
50.0
100
AcDbLine
 10
6757.170452519716
 20
1488.281637829481
 30
0.0
 11
6917.170452519724
 21
1648.281637829481
 31
0.0
  0
LINE
  5
1EEB4
330
747D
100
AcDbEntity
  8
細線
 48
50.0
100
AcDbLine
 10
6790.846412973732
 20
1488.281637829481
 30
0.0
 11
6924.265438366304
 21
1621.700663222054
 31
0.0
  0
LINE
  5
1EEB5
330
747D
100
AcDbEntity
  8
部品1
 48
50.0
100
AcDbLine
 10
6924.265438366304
 20
1648.281637829481
 30
0.0
 11
6924.265438366304
 21
1348.281637829481
 31
0.0
  0
LEADER
  5
1EEB6
330
747D
100
AcDbEntity
  8
寸法
 48
50.0
100
AcDbLeader
  3
INABA_S50G
 71
     0
 73
     0
 74
     0
 75
     1
 40
101.39087296526
 41
170.0787401574803
 76
     3
 10
6784.265438366303
 20
1498.281637829481
 30
0.0
 10
6838.546988850423
 20
1721.626089456586
 30
0.0
 10
6963.546988850423
 20
1721.626089456586
 30
0.0
340
1EEB7
  0
MTEXT
  5
1EEB7
102
{ACAD_REACTORS
330
1EEB6
102
}
330
747D
100
AcDbEntity
  8
寸法
 62
     7
 48
50.0
100
AcDbMText
 10
6988.546988850423
 20
1797.321525939216
 30
0.0
 40
100.0
 41
0.0
 71
     4
 72
     1
  1
D10
  7
STYLE1
 73
     1
 44
1.0
1001
ACAD
1000
MTEXTBEGIN
1070
    73
1070
     1
1070
    44
1040
1.0
1070
    74
1070
     0
1000
MTEXTEND
  0
LINE
  5
1EEB8
330
747D
100
AcDbEntity
  8
細線
 48
50.0
100
AcDbLine
 10
6604.097747713062
 20
1570.940656200884
 30
0.0
 11
6634.26543836631
 21
1601.108346854131
 31
0.0
  0
LINE
  5
1EEB9
330
747D
100
AcDbEntity
  8
細線
 48
50.0
100
AcDbLine
 10
6487.762768887646
 20
1488.281637829481
 30
0.0
 11
6634.265438366303
 21
1634.78430730814
 31
0.0
  0
LINE
  5
1EEBA
330
747D
100
AcDbEntity
  8
部品1
 48
50.0
100
AcDbLine
 10
6654.26543836631
 20
1498.281637829481
 30
0.0
 11
6654.265438366303
 21
2253.599674572288
 31
0.0
  0
LINE
  5
1EEBB
330
747D
100
AcDbEntity
  8
部品1
 48
50.0
100
AcDbLine
 10
6634.26543836631
 20
1498.281637829481
 30
0.0
 11
6634.265438366303
 21
2253.599674572288
 31
0.0
  0
LINE
  5
1EEBC
330
747D
100
AcDbEntity
  8
細線
 48
50.0
100
AcDbLine
 10
6654.26543836631
 20
1587.432386400122
 30
0.0
 11
6744.265438366302
 21
1677.432386400118
 31
0.0
  0
LINE
  5
1EEBD
330
747D
100
AcDbEntity
  8
部品1
 48
50.0
100
AcDbLine
 10
7391.211018219557
 20
576.4035931910948
 30
0.0
 11
6751.211018219557
 21
576.4035931910948
 31
0.0
  0
LINE
  5
1EEBE
330
747D
100
AcDbEntity
  8
部品1
 48
50.0
100
AcDbLine
 10
7391.211018219557
 20
736.4035931910948
 30
0.0
 11
6751.211018219557
 21
736.4035931910948
 31
0.0
  0
TEXT
  5
1EEBF
330
747D
100
AcDbEntity
  8
部品1
 48
50.0
100
AcDbText
 10
6793.401519563772
 20
607.6113793957666
 30
0.0
 40
96.0
  1
基礎断面
  7
STYLE2
100
AcDbText
  0
MTEXT
  5
1EEC0
102
{ACAD_REACTORS
330
1EEC1
102
}
330
747D
100
AcDbEntity
  8
寸法
 62
     7
 48
50.0
100
AcDbMText
 10
7132.252404525381
 20
1334.673498362193
 30
0.0
 40
100.0
 41
0.0
 71
     4
 72
     1
  1
\A1;D10@300
  7
STYLE1
 73
     1
 44
1.0
1001
ACAD
1000
MTEXTBEGIN
1070
    73
1070
     1
1070
    44
1040
1.0
1070
    74
1070
     0
1000
MTEXTEND
  0
LEADER
  5
1EEC1
330
747D
100
AcDbEntity
  8
寸法
 48
50.0
100
AcDbLeader
  3
INABA_S50G
 71
     0
 73
     0
 74
     0
 75
     1
 40
132.9441738241594
 41
490.0787401574802
 76
     3
 10
6828.259369518804
 20
1479.567245059574
 30
0.0
 10
6982.252404525381
 20
1243.201411450114
 30
0.0
 10
7107.252404525381
 20
1243.201411450114
 30
0.0
340
1EEC0
  0
MTEXT
  5
1EEC2
102
{ACAD_REACTORS
330
1EEC3
102
}
330
747D
100
AcDbEntity
  8
寸法
 62
     7
 48
50.0
100
AcDbMText
 10
7057.668778722604
 20
1106.073248431712
 30
0.0
 40
100.0
 41
0.0
 71
     4
 72
     1
  1
D13
  7
STYLE1
 73
     1
 44
1.0
1001
ACAD
1000
MTEXTBEGIN
1070
    73
1070
     1
1070
    44
1040
1.0
1070
    74
1070
     0
1000
MTEXTEND
  0
LEADER
  5
1EEC3
330
747D
100
AcDbEntity
  8
寸法
 48
50.0
100
AcDbLeader
  3
INABA_S50G
 71
     0
 73
     0
 74
     0
 75
     1
 40
101.39087296526
 41
174.1421356237309
 76
     3
 10
6624.265438366305
 20
1498.281637829481
 30
0.0
 10
6907.668778722603
 20
1030.377811949082
 30
0.0
 10
7032.668778722603
 20
1030.377811949082
 30
0.0
340
1EEC2
  0
LINE
  5
1EEC4
330
747D
100
AcDbEntity
  8
部品1
 48
50.0
100
AcDbLine
 10
6751.211018219557
 20
736.4035931910948
 30
0.0
 11
6751.211018219557
 21
576.4035931910948
 31
0.0
  0
LINE
  5
1EEC5
330
747D
100
AcDbEntity
  8
細線
 48
50.0
100
AcDbLine
 10
6750.743449002995
 20
1188.281637829481
 30
0.0
 11
6793.615319791974
 21
1348.281637829481
 31
0.0
  0
LINE
  5
1EEC6
330
747D
100
AcDbEntity
  8
細線
 48
50.0
100
AcDbLine
 10
6553.523336634873
 20
1188.281637829481
 30
0.0
 11
6596.395207423852
 21
1348.281637829481
 31
0.0
  0
LINE
  5
1EEC7
330
747D
100
AcDbEntity
  8
細線
 48
50.0
100
AcDbLine
 10
6454.913280450812
 20
1188.281637829481
 30
0.0
 11
6497.785151239793
 21
1348.281637829481
 31
0.0
  0
LINE
  5
1EEC8
330
747D
100
AcDbEntity
  8
細線
 48
50.0
100
AcDbLine
 10
6652.133392818935
 20
1188.281637829481
 30
0.0
 11
6695.005263607912
 21
1348.281637829481
 31
0.0
  0
LINE
  5
1EEC9
330
747D
100
AcDbEntity
  8
細線
 48
50.0
100
AcDbLine
 10
6561.561812407809
 20
1218.281637829481
 30
0.0
 11
6569.600288180743
 21
1188.281637829481
 31
0.0
  0
LINE
  5
1EECA
330
747D
100
AcDbEntity
  8
細線
 48
50.0
100
AcDbLine
 10
6462.951756223749
 20
1218.281637829481
 30
0.0
 11
6470.990231996683
 21
1188.281637829481
 31
0.0
  0
LINE
  5
1EECB
330
747D
100
AcDbEntity
  8
細線
 48
50.0
100
AcDbLine
 10
6758.781924775928
 20
1218.281637829481
 30
0.0
 11
6766.820400548862
 21
1188.281637829481
 31
0.0
  0
LINE
  5
1EECC
330
747D
100
AcDbEntity
  8
細線
 48
50.0
100
AcDbLine
 10
6660.171868591868
 20
1218.281637829481
 30
0.0
 11
6668.210344364801
 21
1188.281637829481
 31
0.0
  0
LINE
  5
1EECD
330
747D
100
AcDbEntity
  8
部品1
 48
50.0
100
AcDbLine
 10
6614.265438366302
 20
1570.940656200884
 30
0.0
 11
6594.265438366303
 21
1570.940656200884
 31
0.0
  0
ARC
  5
1EECE
330
747D
100
AcDbEntity
  8
部品1
 48
50.0
100
AcDbCircle
 10
6624.265438366304
 20
1498.281637829481
 30
0.0
 40
30.0
100
AcDbArc
 50
180.0
 51
199.4712206344989
  0
LINE
  5
1EECF
330
747D
100
AcDbEntity
  8
細線
 48
50.0
100
AcDbLine
 10
6521.438729341659
 20
1488.281637829481
 30
0.0
 11
6594.265438366303
 21
1561.108346854129
 31
0.0
  0
LINE
  5
1EED0
330
747D
100
AcDbEntity
  8
部品1
 48
50.0
100
AcDbLine
 10
6594.265438366303
 20
1570.940656200884
 30
0.0
 11
6594.265438366303
 21
1498.281637829481
 31
0.0
  0
LINE
  5
1EED1
330
747D
100
AcDbEntity
  8
細線
 48
50.0
100
AcDbLine
 10
6555.114689795664
 20
1488.281637829481
 30
0.0
 11
6594.265438366303
 21
1527.432386400118
 31
0.0
  0
CIRCLE
  5
1EED2
330
747D
100
AcDbEntity
  8
部品1
 48
50.0
100
AcDbCircle
 10
6464.265438366303
 20
1498.281637829481
 30
0.0
 40
10.0
  0
LINE
  5
1EED3
330
747D
100
AcDbEntity
  8
細線
 48
50.0
100
AcDbLine
 10
6588.356731650922
 20
1318.281637829481
 30
0.0
 11
6580.318255877988
 21
1348.281637829481
 31
0.0
  0
LINE
  5
1EED4
330
747D
100
AcDbEntity
  8
細線
 48
50.0
100
AcDbLine
 10
6489.74667546686
 20
1318.281637829481
 30
0.0
 11
6481.708199693926
 21
1348.281637829481
 31
0.0
  0
LINE
  5
1EED5
330
747D
100
AcDbEntity
  8
細線
 48
50.0
100
AcDbLine
 10
6415.114689795664
 20
1348.281637829481
 30
0.0
 11
6535.114689795664
 21
1468.281637829481
 31
0.0
  0
CIRCLE
  5
1EED6
330
747D
100
AcDbEntity
  8
部品1
 48
50.0
100
AcDbCircle
 10
6784.265438366303
 20
1498.281637829481
 30
0.0
 40
10.0
  0
LINE
  5
1EED7
330
747D
100
AcDbEntity
  8
細線
 48
50.0
100
AcDbLine
 10
6785.576844019044
 20
1318.281637829481
 30
0.0
 11
6777.538368246111
 21
1348.281637829481
 31
0.0
  0
LINE
  5
1EED8
330
747D
100
AcDbEntity
  8
細線
 48
50.0
100
AcDbLine
 10
6614.265438366307
 20
1547.43238640012
 30
0.0
 11
6634.26543836631
 21
1567.432386400122
 31
0.0
  0
ARC
  5
1EED9
330
747D
100
AcDbEntity
  8
部品1
 48
50.0
100
AcDbCircle
 10
6624.265438366304
 20
1498.281637829481
 30
0.0
 40
30.0
100
AcDbArc
 50
340.528779365501
 51
0.0
  0
LINE
  5
1EEDA
330
747D
100
AcDbEntity
  8
部品1
 48
50.0
100
AcDbLine
 10
6614.265438366302
 20
1570.940656200884
 30
0.0
 11
6614.265438366302
 21
1498.281637829481
 31
0.0
  0
CIRCLE
  5
1EEDB
330
747D
100
AcDbEntity
  8
部品1
 48
50.0
100
AcDbCircle
 10
6624.265438366304
 20
1498.281637829481
 30
0.0
 40
10.0
  0
LINE
  5
1EEDC
330
747D
100
AcDbEntity
  8
細線
 48
50.0
100
AcDbLine
 10
6686.966787834982
 20
1318.281637829481
 30
0.0
 11
6678.928312062049
 21
1348.281637829481
 31
0.0
  0
LINE
  5
1EEDD
330
747D
100
AcDbEntity
  8
細線
 48
50.0
100
AcDbLine
 10
6684.522373427738
 20
1348.281637829481
 30
0.0
 11
6804.523483234167
 21
1468.282747635905
 31
0.0
  0
LINE
  5
1EEDE
330
747D
100
AcDbEntity
  8
細線
 48
50.0
100
AcDbLine
 10
6617.17045251972
 20
1348.281637829481
 30
0.0
 11
6737.17045251972
 21
1468.281637829481
 31
0.0
  0
LINE
  5
1EEDF
330
747D
100
AcDbEntity
  8
細線
 48
50.0
100
AcDbLine
 10
6650.846412973733
 20
1348.281637829481
 30
0.0
 11
6770.846412973734
 21
1468.281637829481
 31
0.0
  0
LINE
  5
1EEE0
330
747D
100
AcDbEntity
  8
細線
 48
50.0
100
AcDbLine
 10
6947.963561371118
 20
1188.281637829481
 30
0.0
 11
6990.835432160096
 21
1348.281637829481
 31
0.0
  0
LINE
  5
1EEE1
330
747D
100
AcDbEntity
  8
部品1
 48
50.0
100
AcDbLine
 10
7024.265438366303
 20
1188.281637829481
 30
0.0
 11
7024.265438366303
 21
1348.281637829481
 31
0.0
  0
LINE
  5
1EEE2
330
747D
100
AcDbEntity
  8
細線
 48
50.0
100
AcDbLine
 10
6849.353505187057
 20
1188.281637829481
 30
0.0
 11
6892.225375976035
 21
1348.281637829481
 31
0.0
  0
LINE
  5
1EEE3
330
747D
100
AcDbEntity
  8
細線
 48
50.0
100
AcDbLine
 10
6956.002037144052
 20
1218.281637829481
 30
0.0
 11
6964.040512916985
 21
1188.281637829481
 31
0.0
  0
LINE
  5
1EEE4
330
747D
100
AcDbEntity
  8
細線
 48
50.0
100
AcDbLine
 10
6857.39198095999
 20
1218.281637829481
 30
0.0
 11
6865.430456732923
 21
1188.281637829481
 31
0.0
  0
LINE
  5
1EEE5
330
747D
100
AcDbEntity
  8
部品1
 48
50.0
100
AcDbLine
 10
6854.265438366303
 20
1468.281637829481
 30
0.0
 11
6854.265438366303
 21
1488.281637829481
 31
0.0
  0
LINE
  5
1EEE6
330
747D
100
AcDbEntity
  8
細線
 48
50.0
100
AcDbLine
 10
6824.522373427743
 20
1488.281637829481
 30
0.0
 11
6924.265438366304
 21
1588.024702768042
 31
0.0
  0
LINE
  5
1EEE7
330
747D
100
AcDbEntity
  8
細線
 48
50.0
100
AcDbLine
 10
6982.796956387166
 20
1318.281637829481
 30
0.0
 11
6974.758480614233
 21
1348.281637829481
 31
0.0
  0
LINE
  5
1EEE8
330
747D
100
AcDbEntity
  8
細線
 48
50.0
100
AcDbLine
 10
6920.254096605808
 20
1348.281637829481
 30
0.0
 11
6924.265438366304
 21
1352.292979589978
 31
0.0
  0
LINE
  5
1EEE9
330
747D
100
AcDbEntity
  8
細線
 48
50.0
100
AcDbLine
 10
6884.186900203106
 20
1318.281637829481
 30
0.0
 11
6876.148424430173
 21
1348.281637829481
 31
0.0
  0
LINE
  5
1EEEA
330
747D
100
AcDbEntity
  8
細線
 48
50.0
100
AcDbLine
 10
6886.578136151794
 20
1348.281637829481
 30
0.0
 11
6924.265438366304
 21
1385.968940043986
 31
0.0
  0
LINE
  5
1EEEB
330
747D
100
AcDbEntity
  8
部品1
 48
50.0
100
AcDbLine
 10
7391.211018219557
 20
736.4035931910948
 30
0.0
 11
7391.211018219557
 21
576.4035931910948
 31
0.0
  0
LINE
  5
1EEEC
330
747D
100
AcDbEntity
  8
部品1
 48
50.0
100
AcDbLine
 10
6744.265438366302
 20
2428.281637829481
 30
0.0
 11
6744.265438366302
 21
1648.281637829481
 31
0.0
  0
LINE
  5
1EEED
330
747D
100
AcDbEntity
  8
細線
 48
50.0
100
AcDbLine
 10
6504.265438366303
 20
2076.247753664269
 30
0.0
 11
6608.958340902922
 21
2180.940656200885
 31
0.0
  0
LINE
  5
1EEEE
330
747D
100
AcDbEntity
  8
細線
 48
50.0
100
AcDbLine
 10
6504.265438366303
 20
2143.599674572288
 30
0.0
 11
6594.265438366303
 21
2233.599674572288
 31
0.0
  0
LINE
  5
1EEEF
330
747D
100
AcDbEntity
  8
細線
 48
50.0
100
AcDbLine
 10
6504.265438366303
 20
2109.923714118278
 30
0.0
 11
6594.265438366303
 21
2199.923714118279
 31
0.0
  0
LINE
  5
1EEF0
330
747D
100
AcDbEntity
  8
部品1
 48
50.0
100
AcDbLine
 10
6504.265438366303
 20
1648.281637829481
 30
0.0
 11
6504.265438366303
 21
2428.281637829481
 31
0.0
  0
LINE
  5
1EEF1
330
747D
100
AcDbEntity
  8
部品1
 48
50.0
100
AcDbLine
 10
6744.265438366302
 20
1648.281637829481
 30
0.0
 11
6924.265438366304
 21
1648.281637829481
 31
0.0
  0
LINE
  5
1EEF2
330
747D
100
AcDbEntity
  8
細線
 48
50.0
100
AcDbLine
 10
6504.265438366303
 20
1774.191990940213
 30
0.0
 11
6634.265438366303
 21
1904.191990940214
 31
0.0
  0
LINE
  5
1EEF3
330
747D
100
AcDbEntity
  8
細線
 48
50.0
100
AcDbLine
 10
6654.26543836631
 20
1856.840070032196
 30
0.0
 11
6744.265438366302
 21
1946.840070032192
 31
0.0
  0
LINE
  5
1EEF4
330
747D
100
AcDbEntity
  8
細線
 48
50.0
100
AcDbLine
 10
6504.265438366303
 20
1740.516030486204
 30
0.0
 11
6634.265438366307
 21
1870.516030486202
 31
0.0
  0
LINE
  5
1EEF5
330
747D
100
AcDbEntity
  8
細線
 48
50.0
100
AcDbLine
 10
6504.265438366303
 20
1706.840070032194
 30
0.0
 11
6634.26543836631
 21
1836.840070032196
 31
0.0
  0
LINE
  5
1EEF6
330
747D
100
AcDbEntity
  8
細線
 48
50.0
100
AcDbLine
 10
6654.26543836631
 20
1654.784307308142
 30
0.0
 11
6744.265438366302
 21
1744.784307308137
 31
0.0
  0
LINE
  5
1EEF7
330
747D
100
AcDbEntity
  8
細線
 48
50.0
100
AcDbLine
 10
6654.26543836631
 20
1621.108346854133
 30
0.0
 11
6744.265438366302
 21
1711.108346854127
 31
0.0
  0
LINE
  5
1EEF8
330
747D
100
AcDbEntity
  8
細線
 48
50.0
100
AcDbLine
 10
6654.265438366306
 20
1924.191990940216
 30
0.0
 11
6744.265438366302
 21
2014.191990940215
 31
0.0
  0
LINE
  5
1EEF9
330
747D
100
AcDbEntity
  8
細線
 48
50.0
100
AcDbLine
 10
6654.265438366306
 20
1890.516030486204
 30
0.0
 11
6744.265438366302
 21
1980.5160304862
 31
0.0
  0
LINE
  5
1EEFA
330
747D
100
AcDbEntity
  8
細線
100
AcDbLine
 10
6577.864336619765
 20
2388.082778343769
 30
0.0
 11
6618.842290919078
 21
2394.633586842385
 31
0.0
  0
ARC
  5
1EEFB
330
747D
100
AcDbEntity
  8
部品1
 48
50.0
100
AcDbCircle
 10
6624.265438366304
 20
2253.599674572288
 30
0.0
 40
30.0
100
AcDbArc
 50
0.0
 51
180.0
  0
LINE
  5
1EEFC
330
747D
100
AcDbEntity
  8
部品1
 48
50.0
100
AcDbLine
 10
6614.265438366302
 20
2180.940656200885
 30
0.0
 11
6594.265438366303
 21
2180.940656200887
 31
0.0
  0
LINE
  5
1EEFD
330
747D
100
AcDbEntity
  8
部品1
 48
50.0
100
AcDbLine
 10
6504.265438366303
 20
2428.281637829481
 30
0.0
 11
6744.265438366302
 21
2428.281637829481
 31
0.0
  0
LINE
  5
1EEFE
330
747D
100
AcDbEntity
  8
細線
100
AcDbLine
 10
6541.803761872332
 20
2388.082778343769
 30
0.0
 11
6577.864336619765
 21
2388.082778343769
 31
0.0
  0
LINE
  5
1EEFF
330
747D
100
AcDbEntity
  8
細線
100
AcDbLine
 10
6504.265438366303
 20
2397.90901947352
 30
0.0
 11
6541.803761872332
 21
2388.082778343769
 31
0.0
  0
LINE
  5
1EF00
330
747D
100
AcDbEntity
  8
細線
 48
50.0
100
AcDbLine
 10
6504.265438366303
 20
2379.331397750353
 30
0.0
 11
6518.988951177613
 21
2394.054910561659
 31
0.0
  0
LINE
  5
1EF01
330
747D
100
AcDbEntity
  8
細線
 48
50.0
100
AcDbLine
 10
6504.265438366303
 20
2345.655437296344
 30
0.0
 11
6546.692779413731
 21
2388.082778343769
 31
0.0
  0
LINE
  5
1EF02
330
747D
100
AcDbEntity
  8
部品1
 48
50.0
100
AcDbLine
 10
6594.265438366303
 20
2180.940656200887
 30
0.0
 11
6594.265438366303
 21
2253.59967457229
 31
0.0
  0
LINE
  5
1EF03
330
747D
100
AcDbEntity
  8
細線
100
AcDbLine
 10
6704.076348235739
 20
2394.633586842385
 30
0.0
 11
6744.265438366302
 21
2386.445033646381
 31
0.0
  0
LINE
  5
1EF04
330
747D
100
AcDbEntity
  8
細線
100
AcDbLine
 10
6618.842290919078
 20
2394.633586842385
 30
0.0
 11
6674.572279557513
 21
2396.271331539774
 31
0.0
  0
CIRCLE
  5
1EF05
330
747D
100
AcDbEntity
  8
部品1
 48
50.0
100
AcDbCircle
 10
6624.265438366304
 20
2253.599674572288
 30
0.0
 40
10.0
  0
LINE
  5
1EF06
330
747D
100
AcDbEntity
  8
部品1
 48
50.0
100
AcDbLine
 10
6614.265438366302
 20
2180.940656200885
 30
0.0
 11
6614.265438366302
 21
2253.599674572288
 31
0.0
  0
LINE
  5
1EF07
330
747D
100
AcDbEntity
  8
細線
 48
50.0
100
AcDbLine
 10
6614.265438366302
 20
2219.923714118278
 30
0.0
 11
6634.265438366303
 21
2239.923714118278
 31
0.0
  0
LINE
  5
1EF08
330
747D
100
AcDbEntity
  8
細線
 48
50.0
100
AcDbLine
 10
6614.265438366307
 20
2186.247753664269
 30
0.0
 11
6634.265438366303
 21
2206.247753664269
 31
0.0
  0
LINE
  5
1EF09
330
747D
100
AcDbEntity
  8
細線
 48
50.0
100
AcDbLine
 10
6653.706322448787
 20
2259.364598200757
 30
0.0
 11
6744.265438366302
 21
2349.923714118279
 31
0.0
  0
LINE
  5
1EF0A
330
747D
100
AcDbEntity
  8
細線
 48
50.0
100
AcDbLine
 10
6639.880966494398
 20
2279.215202700376
 30
0.0
 11
6744.265438366302
 21
2383.599674572288
 31
0.0
  0
LINE
  5
1EF0B
330
747D
100
AcDbEntity
  8
細線
 48
50.0
100
AcDbLine
 10
6654.265438366303
 20
2226.247753664269
 30
0.0
 11
6744.265438366302
 21
2316.247753664269
 31
0.0
  0
LINE
  5
1EF0C
330
747D
100
AcDbEntity
  8
細線
100
AcDbLine
 10
6674.572279557513
 20
2396.271331539774
 30
0.0
 11
6704.076348235739
 21
2394.633586842385
 31
0.0
  0
LINE
  5
1EF0D
330
747D
100
AcDbEntity
  8
細線
100
AcDbLine
 10
7610.946651885534
 20
2128.281637829481
 30
0.0
 11
7910.946651885534
 21
2428.281637829481
 31
0.0
  0
LINE
  5
1EF0E
330
747D
100
AcDbEntity
  8
部品1
 48
50.0
100
AcDbLine
 10
7566.134057564108
 20
2428.281637829481
 30
0.0
 11
7566.134057564108
 21
2128.281637829482
 31
0.0
  0
LINE
  5
1EF0F
330
747D
100
AcDbEntity
  8
細線
100
AcDbLine
 10
7650.946651885535
 20
2128.281637829482
 30
0.0
 11
7950.946651885534
 21
2428.281637829481
 31
0.0
  0
LINE
  5
1EF10
330
747D
100
AcDbEntity
  8
細線
100
AcDbLine
 10
7672.874782032948
 20
1978.281637829482
 30
0.0
 11
7522.874782032937
 21
2128.281637829481
 31
0.0
  0
LINE
  5
1EF11
330
747D
100
AcDbEntity
  8
細線
100
AcDbLine
 10
7632.874782032941
 20
1978.281637829482
 30
0.0
 11
7482.874782032943
 21
2128.281637829482
 31
0.0
  0
LINE
  5
1EF12
330
747D
100
AcDbEntity
  8
細線
 48
50.0
100
AcDbLine
 10
7533.612083152569
 20
1818.281637829482
 30
0.0
 11
7576.483953941547
 21
1978.281637829482
 31
0.0
  0
LINE
  5
1EF13
330
747D
100
AcDbEntity
  8
細線
 48
50.0
100
AcDbLine
 10
7336.391970784447
 20
1818.281637829482
 30
0.0
 11
7379.263841573425
 21
1978.281637829482
 31
0.0
  0
LINE
  5
1EF14
330
747D
100
AcDbEntity
  8
部品1
100
AcDbLine
 10
7320.434111245278
 20
1978.281637829482
 30
0.0
 11
7320.434111245278
 21
1818.281637829485
 31
0.0
  0
LINE
  5
1EF15
330
747D
100
AcDbEntity
  8
細線
 48
50.0
100
AcDbLine
 10
7435.002026968504
 20
1818.281637829482
 30
0.0
 11
7477.873897757483
 21
1978.281637829482
 31
0.0
  0
LINE
  5
1EF16
330
747D
100
AcDbEntity
  8
細線
 48
50.0
100
AcDbLine
 10
7344.430446557381
 20
1848.281637829482
 30
0.0
 11
7352.468922330314
 21
1818.281637829482
 31
0.0
  0
LINE
  5
1EF17
330
747D
100
AcDbEntity
  8
細線
 48
50.0
100
AcDbLine
 10
7541.650558925503
 20
1848.281637829482
 30
0.0
 11
7549.689034698437
 21
1818.281637829482
 31
0.0
  0
LINE
  5
1EF18
330
747D
100
AcDbEntity
  8
細線
 48
50.0
100
AcDbLine
 10
7443.040502741438
 20
1848.281637829482
 30
0.0
 11
7451.078978514371
 21
1818.281637829482
 31
0.0
  0
LINE
  5
1EF19
330
747D
100
AcDbEntity
  8
細線
 48
50.0
100
AcDbLine
 10
7371.225365800492
 20
1948.281637829482
 30
0.0
 11
7363.186890027559
 21
1978.281637829482
 31
0.0
  0
LINE
  5
1EF1A
330
747D
100
AcDbEntity
  8
部品1
100
AcDbLine
 10
7420.434111245278
 20
2128.281637829482
 30
0.0
 11
7420.434111245281
 21
1978.281637829482
 31
0.0
  0
LINE
  5
1EF1B
330
747D
100
AcDbEntity
  8
細線
 48
50.0
100
AcDbLine
 10
7568.445478168614
 20
1948.281637829482
 30
0.0
 11
7560.407002395681
 21
1978.281637829482
 31
0.0
  0
LINE
  5
1EF1C
330
747D
100
AcDbEntity
  8
細線
 48
50.0
100
AcDbLine
 10
7469.83542198455
 20
1948.281637829482
 30
0.0
 11
7461.796946211617
 21
1978.281637829482
 31
0.0
  0
LINE
  5
1EF1D
330
747D
100
AcDbEntity
  8
細線
100
AcDbLine
 10
7592.87478203293
 20
1978.281637829482
 30
0.0
 11
7442.874782032923
 21
2128.281637829482
 31
0.0
  0
LINE
  5
1EF1E
330
747D
100
AcDbEntity
  8
細線
 48
50.0
100
AcDbLine
 10
7928.052307888808
 20
1818.281637829482
 30
0.0
 11
7970.924178677785
 21
1978.281637829482
 31
0.0
  0
LINE
  5
1EF1F
330
747D
100
AcDbEntity
  8
細線
 48
50.0
100
AcDbLine
 10
7829.442251704749
 20
1818.281637829482
 30
0.0
 11
7872.314122493728
 21
1978.281637829482
 31
0.0
  0
LINE
  5
1EF20
330
747D
100
AcDbEntity
  8
細線
 48
50.0
100
AcDbLine
 10
7730.832195520689
 20
1818.281637829482
 30
0.0
 11
7773.704066309671
 21
1978.281637829482
 31
0.0
  0
LINE
  5
1EF21
330
747D
100
AcDbEntity
  8
細線
 48
50.0
100
AcDbLine
 10
7632.222139336628
 20
1818.281637829482
 30
0.0
 11
7675.094010125609
 21
1978.281637829482
 31
0.0
  0
LINE
  5
1EF22
330
747D
100
AcDbEntity
  8
細線
 48
50.0
100
AcDbLine
 10
7738.870671293625
 20
1848.281637829482
 30
0.0
 11
7746.909147066559
 21
1818.281637829482
 31
0.0
  0
LINE
  5
1EF23
330
747D
100
AcDbEntity
  8
細線
 48
50.0
100
AcDbLine
 10
7640.260615109561
 20
1848.281637829482
 30
0.0
 11
7648.299090882495
 21
1818.281637829482
 31
0.0
  0
LINE
  5
1EF24
330
747D
100
AcDbEntity
  8
細線
 48
50.0
100
AcDbLine
 10
7936.090783661741
 20
1848.281637829482
 30
0.0
 11
7944.129259434674
 21
1818.281637829482
 31
0.0
  0
LINE
  5
1EF25
330
747D
100
AcDbEntity
  8
細線
 48
50.0
100
AcDbLine
 10
7837.480727477682
 20
1848.281637829482
 30
0.0
 11
7845.519203250616
 21
1818.281637829482
 31
0.0
  0
LINE
  5
1EF26
330
747D
100
AcDbEntity
  8
細線
100
AcDbLine
 10
7912.874782032929
 20
1978.281637829482
 30
0.0
 11
7762.87478203293
 21
2128.281637829482
 31
0.0
  0
LINE
  5
1EF27
330
747D
100
AcDbEntity
  8
細線
100
AcDbLine
 10
7952.874782032944
 20
1978.281637829482
 30
0.0
 11
7802.87478203293
 21
2128.281637829482
 31
0.0
  0
LINE
  5
1EF28
330
747D
100
AcDbEntity
  8
細線
 48
50.0
100
AcDbLine
 10
7765.665590536737
 20
1948.281637829482
 30
0.0
 11
7757.627114763804
 21
1978.281637829482
 31
0.0
  0
LINE
  5
1EF29
330
747D
100
AcDbEntity
  8
細線
 48
50.0
100
AcDbLine
 10
7667.055534352673
 20
1948.281637829482
 30
0.0
 11
7659.017058579739
 21
1978.281637829482
 31
0.0
  0
LINE
  5
1EF2A
330
747D
100
AcDbEntity
  8
細線
 48
50.0
100
AcDbLine
 10
7962.885702904852
 20
1948.281637829482
 30
0.0
 11
7954.847227131918
 21
1978.281637829482
 31
0.0
  0
LINE
  5
1EF2B
330
747D
100
AcDbEntity
  8
細線
 48
50.0
100
AcDbLine
 10
7864.275646720795
 20
1948.281637829482
 30
0.0
 11
7856.237170947861
 21
1978.281637829482
 31
0.0
  0
LINE
  5
1EF2C
330
747D
100
AcDbEntity
  8
細線
100
AcDbLine
 10
7992.874782032946
 20
1978.281637829482
 30
0.0
 11
7842.874782032933
 21
2128.281637829482
 31
0.0
  0
LINE
  5
1EF2D
330
747D
100
AcDbEntity
  8
細線
100
AcDbLine
 10
7566.134057564108
 20
2363.469043508057
 30
0.0
 11
7630.946651885533
 21
2428.281637829481
 31
0.0
  0
LINE
  5
1EF2E
330
747D
100
AcDbEntity
  8
細線
100
AcDbLine
 10
7566.134057564108
 20
2403.469043508057
 30
0.0
 11
7590.946651885534
 21
2428.281637829481
 31
0.0
  0
LINE
  5
1EF2F
330
747D
100
AcDbEntity
  8
部品1
 48
50.0
100
AcDbLine
 10
9661.689341890717
 20
1646.470375965673
 30
0.0
 11
9661.689341890717
 21
1573.811357594269
 31
0.0
  0
LINE
  5
1EF30
330
747D
100
AcDbEntity
  8
部品1
 48
50.0
100
AcDbLine
 10
9641.689341890717
 20
1646.470375965673
 30
0.0
 11
9641.689341890717
 21
1573.811357594269
 31
0.0
  0
LINE
  5
1EF31
330
747D
100
AcDbEntity
  8
細線
 48
50.0
100
AcDbLine
 10
9568.862632866071
 20
1563.81135759427
 30
0.0
 11
9641.689341890717
 21
1636.638066618918
 31
0.0
  0
LINE
  5
1EF32
330
747D
100
AcDbEntity
  8
細線
 48
50.0
100
AcDbLine
 10
9602.538593320078
 20
1563.81135759427
 30
0.0
 11
9641.689341890717
 21
1602.962106164907
 31
0.0
  0
LINE
  5
1EF33
330
747D
100
AcDbEntity
  8
部品1
 48
50.0
100
AcDbLine
 10
9371.689341890716
 20
1423.81135759427
 30
0.0
 11
9371.689341890716
 21
1723.81135759427
 31
0.0
  0
LINE
  5
1EF34
330
747D
100
AcDbEntity
  8
部品1
 48
50.0
100
AcDbLine
 10
9075.530135977697
 20
736.4035931910948
 30
0.0
 11
9075.530135977697
 21
576.4035931910948
 31
0.0
  0
LINE
  5
1EF35
330
747D
100
AcDbEntity
  8
細線
 48
50.0
100
AcDbLine
 10
9600.947240159287
 20
1263.81135759427
 30
0.0
 11
9643.819110948266
 21
1423.81135759427
 31
0.0
  0
LINE
  5
1EF36
330
747D
100
AcDbEntity
  8
細線
 48
50.0
100
AcDbLine
 10
9403.727127791164
 20
1263.81135759427
 30
0.0
 11
9446.598998580146
 21
1423.81135759427
 31
0.0
  0
LINE
  5
1EF37
330
747D
100
AcDbEntity
  8
細線
 48
50.0
100
AcDbLine
 10
9502.337183975226
 20
1263.81135759427
 30
0.0
 11
9545.209054764207
 21
1423.81135759427
 31
0.0
  0
LINE
  5
1EF38
330
747D
100
AcDbEntity
  8
細線
 48
50.0
100
AcDbLine
 10
9305.117071607103
 20
1263.81135759427
 30
0.0
 11
9347.988942396085
 21
1423.81135759427
 31
0.0
  0
LINE
  5
1EF39
330
747D
100
AcDbEntity
  8
部品1
 48
50.0
100
AcDbLine
 10
9271.689341890716
 20
1263.81135759427
 30
0.0
 11
9271.689341890716
 21
1423.81135759427
 31
0.0
  0
LINE
  5
1EF3A
330
747D
100
AcDbEntity
  8
細線
 48
50.0
100
AcDbLine
 10
9411.765603564102
 20
1293.81135759427
 30
0.0
 11
9419.804079337035
 21
1263.81135759427
 31
0.0
  0
LINE
  5
1EF3B
330
747D
100
AcDbEntity
  8
細線
 48
50.0
100
AcDbLine
 10
9313.15554738004
 20
1293.81135759427
 30
0.0
 11
9321.194023152974
 21
1263.81135759427
 31
0.0
  0
LINE
  5
1EF3C
330
747D
100
AcDbEntity
  8
細線
 48
50.0
100
AcDbLine
 10
9608.985715932224
 20
1293.81135759427
 30
0.0
 11
9617.024191705157
 21
1263.81135759427
 31
0.0
  0
LINE
  5
1EF3D
330
747D
100
AcDbEntity
  8
細線
 48
50.0
100
AcDbLine
 10
9510.375659748161
 20
1293.81135759427
 30
0.0
 11
9518.414135521096
 21
1263.81135759427
 31
0.0
  0
LINE
  5
1EF3E
330
747D
100
AcDbEntity
  8
細線
 48
50.0
100
AcDbLine
 10
9395.186672412059
 20
1423.81135759427
 30
0.0
 11
9515.18667241206
 21
1543.81135759427
 31
0.0
  0
LINE
  5
1EF3F
330
747D
100
AcDbEntity
  8
細線
 48
50.0
100
AcDbLine
 10
9428.862632866072
 20
1423.81135759427
 30
0.0
 11
9548.862632866073
 21
1543.81135759427
 31
0.0
  0
LINE
  5
1EF40
330
747D
100
AcDbEntity
  8
細線
 48
50.0
100
AcDbLine
 10
9462.538593320077
 20
1423.81135759427
 30
0.0
 11
9582.538593320078
 21
1543.81135759427
 31
0.0
  0
LINE
  5
1EF41
330
747D
100
AcDbEntity
  8
部品1
 48
50.0
100
AcDbLine
 10
9441.689341890716
 20
1543.81135759427
 30
0.0
 11
9441.689341890716
 21
1563.81135759427
 31
0.0
  0
LINE
  5
1EF42
330
747D
100
AcDbEntity
  8
細線
 48
50.0
100
AcDbLine
 10
9438.560522807213
 20
1393.81135759427
 30
0.0
 11
9430.522047034278
 21
1423.81135759427
 31
0.0
  0
LINE
  5
1EF43
330
747D
100
AcDbEntity
  8
細線
 48
50.0
100
AcDbLine
 10
9339.950466623152
 20
1393.81135759427
 30
0.0
 11
9331.911990850219
 21
1423.81135759427
 31
0.0
  0
ARC
  5
1EF44
330
747D
100
AcDbEntity
  8
部品1
 48
50.0
100
AcDbCircle
 10
9671.689341890717
 20
1573.811357594269
 30
0.0
 40
30.0
100
AcDbArc
 50
180.0
 51
199.4712206344989
  0
LINE
  5
1EF45
330
747D
100
AcDbEntity
  8
細線
 48
50.0
100
AcDbLine
 10
9635.780635175336
 20
1393.81135759427
 30
0.0
 11
9627.742159402401
 21
1423.81135759427
 31
0.0
  0
CIRCLE
  5
1EF46
330
747D
100
AcDbEntity
  8
部品1
 48
50.0
100
AcDbCircle
 10
9511.689341890717
 20
1573.811357594269
 30
0.0
 40
10.0
  0
LINE
  5
1EF47
330
747D
100
AcDbEntity
  8
細線
 48
50.0
100
AcDbLine
 10
9537.170578991274
 20
1393.81135759427
 30
0.0
 11
9529.132103218341
 21
1423.81135759427
 31
0.0
  0
LINE
  5
1EF48
330
747D
100
AcDbEntity
  8
部品1
 48
50.0
100
AcDbLine
 10
8346.134057564107
 20
2128.281637829482
 30
0.0
 11
8346.134057564107
 21
2428.281637829481
 31
0.0
  0
LINE
  5
1EF49
330
747D
100
AcDbEntity
  8
細線
100
AcDbLine
 10
8250.946651885534
 20
2128.281637829482
 30
0.0
 11
8346.134057564107
 21
2223.469043508054
 31
0.0
  0
LINE
  5
1EF4A
330
747D
100
AcDbEntity
  8
細線
100
AcDbLine
 10
8290.946651885533
 20
2128.281637829482
 30
0.0
 11
8346.134057564107
 21
2183.469043508059
 31
0.0
  0
LINE
  5
1EF4B
330
747D
100
AcDbEntity
  8
細線
100
AcDbLine
 10
8491.83400388294
 20
2039.322415979469
 30
0.0
 11
8402.874782032935
 21
2128.281637829482
 31
0.0
  0
LINE
  5
1EF4C
330
747D
100
AcDbEntity
  8
細線
100
AcDbLine
 10
8491.834003882937
 20
2079.322415979479
 30
0.0
 11
8442.874782032932
 21
2128.281637829482
 31
0.0
  0
LINE
  5
1EF4D
330
747D
100
AcDbEntity
  8
細線
 48
50.0
100
AcDbLine
 10
8455.935983825158
 20
1948.281637829482
 30
0.0
 11
8447.897508052225
 21
1978.281637829482
 31
0.0
  0
LINE
  5
1EF4E
330
747D
100
AcDbEntity
  8
細線
 48
50.0
100
AcDbLine
 10
8421.102588809111
 20
1818.281637829482
 30
0.0
 11
8463.974459598089
 21
1978.281637829482
 31
0.0
  0
LINE
  5
1EF4F
330
747D
100
AcDbEntity
  8
細線
 48
50.0
100
AcDbLine
 10
8223.882476440987
 20
1818.281637829482
 30
0.0
 11
8266.754347229966
 21
1978.281637829482
 31
0.0
  0
LINE
  5
1EF50
330
747D
100
AcDbEntity
  8
細線
 48
50.0
100
AcDbLine
 10
8125.27242025693
 20
1818.281637829482
 30
0.0
 11
8168.144291045909
 21
1978.281637829482
 31
0.0
  0
LINE
  5
1EF51
330
747D
100
AcDbEntity
  8
細線
 48
50.0
100
AcDbLine
 10
8322.492532625048
 20
1818.281637829482
 30
0.0
 11
8365.364403414027
 21
1978.281637829482
 31
0.0
  0
LINE
  5
1EF52
330
747D
100
AcDbEntity
  8
細線
 48
50.0
100
AcDbLine
 10
8231.920952213924
 20
1848.281637829482
 30
0.0
 11
8239.959427986859
 21
1818.281637829482
 31
0.0
  0
LINE
  5
1EF53
330
747D
100
AcDbEntity
  8
細線
 48
50.0
100
AcDbLine
 10
8133.310896029863
 20
1848.281637829482
 30
0.0
 11
8141.349371802796
 21
1818.281637829482
 31
0.0
  0
LINE
  5
1EF54
330
747D
100
AcDbEntity
  8
細線
 48
50.0
100
AcDbLine
 10
8429.141064582044
 20
1848.281637829482
 30
0.0
 11
8437.179540354977
 21
1818.281637829482
 31
0.0
  0
LINE
  5
1EF55
330
747D
100
AcDbEntity
  8
細線
 48
50.0
100
AcDbLine
 10
8330.531008397981
 20
1848.281637829482
 30
0.0
 11
8338.569484170916
 21
1818.281637829482
 31
0.0
  0
LINE
  5
1EF56
330
747D
100
AcDbEntity
  8
細線
100
AcDbLine
 10
8312.87478203294
 20
1978.281637829482
 30
0.0
 11
8162.874782032947
 21
2128.281637829482
 31
0.0
  0
LINE
  5
1EF57
330
747D
100
AcDbEntity
  8
細線
100
AcDbLine
 10
8272.874782032939
 20
1978.281637829482
 30
0.0
 11
8122.874782032933
 21
2128.281637829482
 31
0.0
  0
LINE
  5
1EF58
330
747D
100
AcDbEntity
  8
細線
 48
50.0
100
AcDbLine
 10
8160.105815272975
 20
1948.281637829482
 30
0.0
 11
8152.067339500041
 21
1978.281637829482
 31
0.0
  0
LINE
  5
1EF59
330
747D
100
AcDbEntity
  8
細線
 48
50.0
100
AcDbLine
 10
8061.495759088913
 20
1948.281637829482
 30
0.0
 11
8053.45728331598
 21
1978.281637829482
 31
0.0
  0
LINE
  5
1EF5A
330
747D
100
AcDbEntity
  8
細線
100
AcDbLine
 10
8232.874782032924
 20
1978.281637829482
 30
0.0
 11
8082.874782032936
 21
2128.281637829482
 31
0.0
  0
LINE
  5
1EF5B
330
747D
100
AcDbEntity
  8
細線
 48
50.0
100
AcDbLine
 10
8357.325927641097
 20
1948.281637829482
 30
0.0
 11
8349.287451868164
 21
1978.281637829482
 31
0.0
  0
LINE
  5
1EF5C
330
747D
100
AcDbEntity
  8
細線
 48
50.0
100
AcDbLine
 10
8258.715871457036
 20
1948.281637829482
 30
0.0
 11
8250.677395684103
 21
1978.281637829482
 31
0.0
  0
LINE
  5
1EF5D
330
747D
100
AcDbEntity
  8
部品1
100
AcDbLine
 10
8591.834003882937
 20
1978.281637829482
 30
0.0
 11
8591.834003882937
 21
1818.281637829485
 31
0.0
  0
LINE
  5
1EF5E
330
747D
100
AcDbEntity
  8
細線
 48
50.0
100
AcDbLine
 10
8519.712644993171
 20
1818.281637829482
 30
0.0
 11
8562.584515782154
 21
1978.281637829482
 31
0.0
  0
LINE
  5
1EF5F
330
747D
100
AcDbEntity
  8
細線
 48
50.0
100
AcDbLine
 10
8527.751120766104
 20
1848.281637829482
 30
0.0
 11
8535.789596539038
 21
1818.281637829482
 31
0.0
  0
LINE
  5
1EF60
330
747D
100
AcDbEntity
  8
細線
100
AcDbLine
 10
8491.834003882937
 20
2119.322415979489
 30
0.0
 11
8482.874782032943
 21
2128.281637829482
 31
0.0
  0
LINE
  5
1EF61
330
747D
100
AcDbEntity
  8
細線
 48
50.0
100
AcDbLine
 10
8554.546040009219
 20
1948.281637829482
 30
0.0
 11
8546.507564236286
 21
1978.281637829482
 31
0.0
  0
LINE
  5
1EF62
330
747D
100
AcDbEntity
  8
部品1
100
AcDbLine
 10
8491.834003882937
 20
2128.281637829482
 30
0.0
 11
8491.834003882937
 21
1978.281637829482
 31
0.0
  0
LINE
  5
1EF63
330
747D
100
AcDbEntity
  8
細線
 48
50.0
100
AcDbLine
 10
9551.689341890718
 20
2151.777473429058
 30
0.0
 11
9621.689341890716
 21
2221.777473429058
 31
0.0
  0
LINE
  5
1EF64
330
747D
100
AcDbEntity
  8
部品1
 48
50.0
100
AcDbLine
 10
9551.689341890718
 20
1723.81135759427
 30
0.0
 11
9551.689341890718
 21
2503.81135759427
 31
0.0
  0
TEXT
  5
1EF65
330
747D
100
AcDbEntity
  8
部品1
 48
50.0
100
AcDbText
 10
9193.860244000738
 20
2037.013291634899
 30
0.0
 40
100.0
  1
G.L
  7
STYLE1
100
AcDbText
  0
LINE
  5
1EF66
330
747D
100
AcDbEntity
  8
Ｇ．Ｌ
 48
50.0
100
AcDbLine
 10
9034.01446459952
 20
2027.647464732192
 30
0.0
 11
9551.689341890718
 21
2027.647464732192
 31
0.0
  0
LINE
  5
1EF67
330
747D
100
AcDbEntity
  8
部品1
 48
50.0
100
AcDbLine
 10
9095.385890529684
 20
2111.117589580612
 30
0.0
 11
9143.577389580213
 21
2027.647464732188
 31
0.0
  0
LINE
  5
1EF68
330
747D
100
AcDbEntity
  8
部品1
 48
50.0
100
AcDbLine
 10
9191.76888863074
 20
2111.117589580612
 30
0.0
 11
9143.577389580213
 21
2027.647464732188
 31
0.0
  0
LINE
  5
1EF69
330
747D
100
AcDbEntity
  8
部品1
 48
50.0
100
AcDbLine
 10
9095.385890529684
 20
2111.117589580612
 30
0.0
 11
9191.76888863074
 21
2111.117589580612
 31
0.0
  0
LINE
  5
1EF6A
330
747D
100
AcDbEntity
  8
細線
 48
50.0
100
AcDbLine
 10
9371.68934189072
 20
1602.369789796984
 30
0.0
 11
9493.130909688003
 21
1723.81135759427
 31
0.0
  0
LINE
  5
1EF6B
330
747D
100
AcDbEntity
  8
部品1
 48
50.0
100
AcDbLine
 10
9371.689341890716
 20
1723.81135759427
 30
0.0
 11
9551.689341890718
 21
1723.81135759427
 31
0.0
  0
LINE
  5
1EF6C
330
747D
100
AcDbEntity
  8
細線
 48
50.0
100
AcDbLine
 10
9371.689341890716
 20
1636.045750250994
 30
0.0
 11
9459.454949233998
 21
1723.81135759427
 31
0.0
  0
LINE
  5
1EF6D
330
747D
100
AcDbEntity
  8
細線
 48
50.0
100
AcDbLine
 10
9371.689341890716
 20
1669.721710705005
 30
0.0
 11
9425.778988779985
 21
1723.81135759427
 31
0.0
  0
LINE
  5
1EF6E
330
747D
100
AcDbEntity
  8
部品1
 48
50.0
100
AcDbLine
 10
9661.689341890717
 20
1646.470375965673
 30
0.0
 11
9641.689341890717
 21
1646.470375965673
 31
0.0
  0
LINE
  5
1EF6F
330
747D
100
AcDbEntity
  8
細線
100
AcDbLine
 10
9625.288240144179
 20
2463.612498108558
 30
0.0
 11
9666.266194443492
 21
2470.163306607174
 31
0.0
  0
LINE
  5
1EF70
330
747D
100
AcDbEntity
  8
細線
100
AcDbLine
 10
9551.689341890718
 20
2473.438739238309
 30
0.0
 11
9589.227665396746
 21
2463.612498108558
 31
0.0
  0
LINE
  5
1EF71
330
747D
100
AcDbEntity
  8
細線
 48
50.0
100
AcDbLine
 10
9551.689341890718
 20
2454.861117515142
 30
0.0
 11
9566.412854702027
 21
2469.584630326448
 31
0.0
  0
LINE
  5
1EF72
330
747D
100
AcDbEntity
  8
細線
100
AcDbLine
 10
9589.227665396746
 20
2463.612498108558
 30
0.0
 11
9625.288240144179
 21
2463.612498108558
 31
0.0
  0
LINE
  5
1EF73
330
747D
100
AcDbEntity
  8
細線
 48
50.0
100
AcDbLine
 10
9551.689341890718
 20
2421.185157061133
 30
0.0
 11
9594.116682938144
 21
2463.612498108558
 31
0.0
  0
LINE
  5
1EF74
330
747D
100
AcDbEntity
  8
部品1
 48
50.0
100
AcDbLine
 10
9661.689341890717
 20
2256.470375965673
 30
0.0
 11
9641.689341890717
 21
2256.470375965675
 31
0.0
  0
LINE
  5
1EF75
330
747D
100
AcDbEntity
  8
細線
 48
50.0
100
AcDbLine
 10
9643.723226055932
 20
2243.81135759427
 30
0.0
 11
9656.382244427335
 21
2256.470375965673
 31
0.0
  0
LINE
  5
1EF76
330
747D
100
AcDbEntity
  8
部品1
 48
50.0
100
AcDbLine
 10
9621.689341890716
 20
2216.81135759427
 30
0.0
 11
9621.689341890716
 21
2243.81135759427
 31
0.0
  0
LINE
  5
1EF77
330
747D
100
AcDbEntity
  8
部品1
 48
50.0
100
AcDbLine
 10
9671.689341890717
 20
2243.81135759427
 30
0.0
 11
9621.689341890716
 21
2243.81135759427
 31
0.0
  0
LINE
  5
1EF78
330
747D
100
AcDbEntity
  8
部品1
 48
50.0
100
AcDbLine
 10
9671.689341890717
 20
2216.81135759427
 30
0.0
 11
9621.689341890716
 21
2216.81135759427
 31
0.0
  0
LINE
  5
1EF79
330
747D
100
AcDbEntity
  8
細線
 48
50.0
100
AcDbLine
 10
9551.689341890718
 20
2185.453433883067
 30
0.0
 11
9641.689341890717
 21
2275.453433883067
 31
0.0
  0
LINE
  5
1EF7A
330
747D
100
AcDbEntity
  8
部品1
 48
50.0
100
AcDbLine
 10
9641.689341890717
 20
2256.470375965675
 30
0.0
 11
9641.689341890717
 21
2329.129394337078
 31
0.0
  0
LINE
  5
1EF7B
330
747D
100
AcDbEntity
  8
部品1
 48
50.0
100
AcDbLine
 10
9661.689341890717
 20
2256.470375965673
 30
0.0
 11
9661.689341890717
 21
2329.129394337076
 31
0.0
  0
LINE
  5
1EF7C
330
747D
100
AcDbEntity
  8
細線
 48
50.0
100
AcDbLine
 10
9551.689341890718
 20
2219.129394337077
 30
0.0
 11
9641.689341890717
 21
2309.129394337077
 31
0.0
  0
LINE
  5
1EF7D
330
747D
100
AcDbEntity
  8
部品1
100
AcDbLine
 10
9648.920111121483
 20
2625.503665286578
 30
0.0
 11
9648.920111121483
 21
2651.349819132731
 31
0.0
  0
LINE
  5
1EF7E
330
747D
100
AcDbEntity
  8
部品1
100
AcDbLine
 10
9575.381649583022
 20
2612.5805883635
 30
0.0
 11
9575.381649583022
 21
2625.503665286578
 31
0.0
  0
LINE
  5
1EF7F
330
747D
100
AcDbEntity
  8
部品1
100
AcDbLine
 10
9575.381649583022
 20
2625.503665286578
 30
0.0
 11
9648.920111121483
 21
2625.503665286578
 31
0.0
  0
LINE
  5
1EF80
330
747D
100
AcDbEntity
  8
部品1
100
AcDbLine
 10
9671.497034198404
 20
2526.426742209654
 30
0.0
 11
9671.497034198404
 21
2508.119049901961
 31
0.0
  0
LINE
  5
1EF81
330
747D
100
AcDbEntity
  8
部品1
100
AcDbLine
 10
9671.497034198404
 20
2526.426742209654
 30
0.0
 11
9674.727803429178
 21
2529.657511440424
 31
0.0
  0
LINE
  5
1EF82
330
747D
100
AcDbEntity
  8
部品1
100
AcDbLine
 10
9667.189341890718
 20
2508.119049901961
 30
0.0
 11
9667.189341890718
 21
2503.81135759427
 31
0.0
  0
LINE
  5
1EF83
330
747D
100
AcDbEntity
  8
部品1
100
AcDbLine
 10
9582.920111121483
 20
2511.349819132731
 30
0.0
 11
9582.920111121483
 21
2508.119049901961
 31
0.0
  0
LINE
  5
1EF84
330
747D
100
AcDbEntity
  8
部品1
100
AcDbLine
 10
9565.689341890717
 20
2511.349819132731
 30
0.0
 11
9565.689341890717
 21
2530.562495910033
 31
0.0
  0
LINE
  5
1EF85
330
747D
100
AcDbEntity
  8
部品1
100
AcDbLine
 10
9582.920111121483
 20
2511.349819132731
 30
0.0
 11
9565.689341890717
 21
2511.349819132731
 31
0.0
  0
LINE
  5
1EF86
330
747D
100
AcDbEntity
  8
部品1
100
AcDbLine
 10
9562.458572659943
 20
2507.04212682504
 30
0.0
 11
9562.458572659943
 21
2609.349819132731
 31
0.0
  0
LINE
  5
1EF87
330
747D
100
AcDbEntity
  8
部品1
100
AcDbLine
 10
9562.458572659943
 20
2609.349819132731
 30
0.0
 11
9575.381649583022
 21
2612.5805883635
 31
0.0
  0
LINE
  5
1EF88
330
747D
100
AcDbEntity
  8
部品1
100
AcDbLine
 10
9579.689341890718
 20
2507.04212682504
 30
0.0
 11
9562.458572659943
 21
2507.04212682504
 31
0.0
  0
LINE
  5
1EF89
330
747D
100
AcDbEntity
  8
細線
 48
50.0
100
AcDbLine
 10
5428.79930713854
 20
3342.497321331612
 30
0.0
 11
8985.44285651107
 21
3342.497321331612
 31
0.0
  0
LINE
  5
1EF8A
330
747D
100
AcDbEntity
  8
細線
 48
50.0
100
AcDbLine
 10
8985.44285651107
 20
3302.497321331612
 30
0.0
 11
8985.44285651107
 21
3382.497321331611
 31
0.0
  0
ARC
  5
1EF8B
330
747D
100
AcDbEntity
  8
細線
 48
50.0
100
AcDbCircle
 10
9065.44285651107
 20
3302.497321331612
 30
0.0
 40
80.0
100
AcDbArc
 50
180.0
 51
270.0
  0
ARC
  5
1EF8C
330
747D
100
AcDbEntity
  8
細線
 48
50.0
100
AcDbCircle
 10
9065.44285651107
 20
3382.497321331611
 30
0.0
 40
80.0
100
AcDbArc
 50
90.0
 51
180.0
  0
LINE
  5
1EF8D
330
747D
100
AcDbEntity
  8
細線
 48
50.0
100
AcDbLine
 10
13551.37598443153
 20
3342.497321331612
 30
0.0
 11
13551.37598443153
 21
436.8356480908546
 31
0.0
  0
MTEXT
  5
1EF8E
102
{ACAD_REACTORS
330
1EF8F
102
}
330
747D
100
AcDbEntity
  8
寸法
 62
     7
 48
50.0
100
AcDbMText
 10
12872.42950368587
 20
1999.042838323814
 30
0.0
 40
100.0
 41
0.0
 71
     4
 72
     1
  1
防湿シート
  7
STYLE1
 73
     1
 44
1.0
1001
ACAD
1000
MTEXTBEGIN
1070
    73
1070
     1
1070
    44
1040
1.0
1070
    74
1070
     0
1000
MTEXTEND
  0
LEADER
  5
1EF8F
330
747D
100
AcDbEntity
  8
寸法
 48
50.0
100
AcDbLeader
  3
INABA_S50G
 71
     0
 73
     0
 74
     0
 75
     1
 40
100.0
 41
581.9577020040977
 76
     3
 10
12574.72933822125
 20
2080.606550553959
 30
0.0
 10
12722.42950368587
 20
1924.042838323814
 30
0.0
 10
12847.42950368587
 20
1924.042838323814
 30
0.0
340
1EF8E
  0
TEXT
  5
1EF90
330
747D
100
AcDbEntity
  8
部品1
 48
50.0
100
AcDbText
 10
11292.52284197154
 20
2037.013291634901
 30
0.0
 40
100.0
  1
G.L
  7
STYLE1
100
AcDbText
  0
LINE
  5
1EF91
330
747D
100
AcDbEntity
  8
Ｇ．Ｌ
 48
50.0
100
AcDbLine
 10
11132.67706257032
 20
2027.647464732193
 30
0.0
 11
11650.35193986152
 21
2027.647464732193
 31
0.0
  0
LINE
  5
1EF92
330
747D
100
AcDbEntity
  8
細線
 48
50.0
100
AcDbLine
 10
9838.270316498146
 20
1563.81135759427
 30
0.0
 11
9971.689341890716
 21
1697.230382986843
 31
0.0
  0
LINE
  5
1EF93
330
747D
100
AcDbEntity
  8
細線
 48
50.0
100
AcDbLine
 10
9871.946276952156
 20
1563.81135759427
 30
0.0
 11
9971.689341890716
 21
1663.554422532831
 31
0.0
  0
LINE
  5
1EF94
330
747D
100
AcDbEntity
  8
細線
 48
50.0
100
AcDbLine
 10
9804.59435604413
 20
1563.81135759427
 30
0.0
 11
9964.594356044138
 21
1723.81135759427
 31
0.0
  0
LINE
  5
1EF95
330
747D
100
AcDbEntity
  8
部品1
 48
50.0
100
AcDbLine
 10
9971.689341890716
 20
1723.81135759427
 30
0.0
 11
9971.689341890716
 21
1423.81135759427
 31
0.0
  0
LINE
  5
1EF96
330
747D
100
AcDbEntity
  8
部品1
 48
50.0
100
AcDbLine
 10
9681.689341890724
 20
1573.811357594269
 30
0.0
 11
9681.689341890717
 21
2218.188331333156
 31
0.0
  0
LINE
  5
1EF97
330
747D
100
AcDbEntity
  8
部品1
 48
50.0
100
AcDbLine
 10
9701.689341890725
 20
1573.811357594269
 30
0.0
 11
9701.689341890718
 21
2232.154949766561
 31
0.0
  0
LINE
  5
1EF98
330
747D
100
AcDbEntity
  8
部品1
 48
50.0
100
AcDbLine
 10
10116.29990815593
 20
736.4035931910948
 30
0.0
 11
10116.29990815593
 21
576.4035931910948
 31
0.0
  0
LINE
  5
1EF99
330
747D
100
AcDbEntity
  8
部品1
 48
50.0
100
AcDbLine
 10
10071.68934189071
 20
1263.81135759427
 30
0.0
 11
10071.68934189071
 21
1423.81135759427
 31
0.0
  0
LINE
  5
1EF9A
330
747D
100
AcDbEntity
  8
細線
 48
50.0
100
AcDbLine
 10
9995.387464895532
 20
1263.81135759427
 30
0.0
 11
10038.25933568451
 21
1423.81135759427
 31
0.0
  0
LINE
  5
1EF9B
330
747D
100
AcDbEntity
  8
細線
 48
50.0
100
AcDbLine
 10
9798.167352527409
 20
1263.81135759427
 30
0.0
 11
9841.039223316387
 21
1423.81135759427
 31
0.0
  0
LINE
  5
1EF9C
330
747D
100
AcDbEntity
  8
細線
 48
50.0
100
AcDbLine
 10
9896.777408711471
 20
1263.81135759427
 30
0.0
 11
9939.64927950045
 21
1423.81135759427
 31
0.0
  0
LINE
  5
1EF9D
330
747D
100
AcDbEntity
  8
細線
 48
50.0
100
AcDbLine
 10
9699.557296343348
 20
1263.81135759427
 30
0.0
 11
9742.429167132327
 21
1423.81135759427
 31
0.0
  0
LINE
  5
1EF9E
330
747D
100
AcDbEntity
  8
細線
 48
50.0
100
AcDbLine
 10
9806.205828300342
 20
1293.81135759427
 30
0.0
 11
9814.244304073277
 21
1263.81135759427
 31
0.0
  0
LINE
  5
1EF9F
330
747D
100
AcDbEntity
  8
細線
 48
50.0
100
AcDbLine
 10
9707.595772116281
 20
1293.81135759427
 30
0.0
 11
9715.634247889216
 21
1263.81135759427
 31
0.0
  0
LINE
  5
1EFA0
330
747D
100
AcDbEntity
  8
細線
 48
50.0
100
AcDbLine
 10
10003.42594066846
 20
1293.81135759427
 30
0.0
 11
10011.4644164414
 21
1263.81135759427
 31
0.0
  0
LINE
  5
1EFA1
330
747D
100
AcDbEntity
  8
細線
 48
50.0
100
AcDbLine
 10
9904.815884484404
 20
1293.81135759427
 30
0.0
 11
9912.854360257338
 21
1263.81135759427
 31
0.0
  0
CIRCLE
  5
1EFA2
330
747D
100
AcDbEntity
  8
部品1
 48
50.0
100
AcDbCircle
 10
9831.689341890717
 20
1573.811357594269
 30
0.0
 40
10.0
  0
ARC
  5
1EFA3
330
747D
100
AcDbEntity
  8
部品1
 48
50.0
100
AcDbCircle
 10
9671.689341890717
 20
1573.811357594269
 30
0.0
 40
30.0
100
AcDbArc
 50
340.528779365501
 51
0.0
  0
LINE
  5
1EFA4
330
747D
100
AcDbEntity
  8
細線
 48
50.0
100
AcDbLine
 10
9833.000747543458
 20
1393.81135759427
 30
0.0
 11
9824.962271770525
 21
1423.81135759427
 31
0.0
  0
LINE
  5
1EFA5
330
747D
100
AcDbEntity
  8
細線
 48
50.0
100
AcDbLine
 10
9734.390691359397
 20
1393.81135759427
 30
0.0
 11
9726.352215586464
 21
1423.81135759427
 31
0.0
  0
LINE
  5
1EFA6
330
747D
100
AcDbEntity
  8
細線
 48
50.0
100
AcDbLine
 10
9698.270316498147
 20
1423.81135759427
 30
0.0
 11
9818.270316498148
 21
1543.81135759427
 31
0.0
  0
LINE
  5
1EFA7
330
747D
100
AcDbEntity
  8
細線
 48
50.0
100
AcDbLine
 10
9731.946276952152
 20
1423.81135759427
 30
0.0
 11
9851.947386758581
 21
1543.812467400694
 31
0.0
  0
LINE
  5
1EFA8
330
747D
100
AcDbEntity
  8
細線
 48
50.0
100
AcDbLine
 10
10030.22085991158
 20
1393.81135759427
 30
0.0
 11
10022.18238413864
 21
1423.81135759427
 31
0.0
  0
LINE
  5
1EFA9
330
747D
100
AcDbEntity
  8
部品1
 48
50.0
100
AcDbLine
 10
9901.689341890717
 20
1543.81135759427
 30
0.0
 11
9901.689341890717
 21
1563.81135759427
 31
0.0
  0
LINE
  5
1EFAA
330
747D
100
AcDbEntity
  8
細線
 48
50.0
100
AcDbLine
 10
9967.678000130222
 20
1423.81135759427
 30
0.0
 11
9971.689341890716
 21
1427.822699354767
 31
0.0
  0
LINE
  5
1EFAB
330
747D
100
AcDbEntity
  8
細線
 48
50.0
100
AcDbLine
 10
9931.610803727519
 20
1393.81135759427
 30
0.0
 11
9923.572327954586
 21
1423.81135759427
 31
0.0
  0
LINE
  5
1EFAC
330
747D
100
AcDbEntity
  8
細線
 48
50.0
100
AcDbLine
 10
9934.002039676208
 20
1423.81135759427
 30
0.0
 11
9971.689341890716
 21
1461.498659808775
 31
0.0
  0
TEXT
  5
1EFAD
330
747D
100
AcDbEntity
  8
部品1
 48
50.0
100
AcDbText
 10
9995.880631598312
 20
2121.805882166922
 30
0.0
 40
100.0
  1
M12×200(市販品)
  7
STYLE1
100
AcDbText
  0
MTEXT
  5
1EFAE
102
{ACAD_REACTORS
330
1EFAF
102
}
330
747D
100
AcDbEntity
  8
寸法
 62
     7
 48
50.0
100
AcDbMText
 10
10006.38950735533
 20
2322.247645364125
 30
0.0
 40
100.0
 41
0.0
 71
     4
 72
     1
  1
アンカーボルト
  7
STYLE1
 73
     1
 44
1.0
1001
ACAD
1000
MTEXTBEGIN
1070
    73
1070
     1
1070
    44
1040
1.0
1070
    74
1070
     0
1000
MTEXTEND
  0
LEADER
  5
1EFAF
330
747D
100
AcDbEntity
  8
寸法
 48
50.0
100
AcDbLeader
  3
INABA_S50G
 71
     0
 73
     0
 74
     0
 75
     1
 40
100.0
 41
828.6243686707642
 76
     3
 10
9708.689341890716
 20
2403.81135759427
 30
0.0
 10
9856.389507355336
 20
2247.247645364125
 30
0.0
 10
9981.389507355336
 20
2247.247645364125
 30
0.0
340
1EFAE
  0
LINE
  5
1EFB0
330
747D
100
AcDbEntity
  8
部品1
 48
50.0
100
AcDbLine
 10
9791.689341890716
 20
2503.81135759427
 30
0.0
 11
9791.689341890716
 21
1723.81135759427
 31
0.0
  0
LINE
  5
1EFB1
330
747D
100
AcDbEntity
  8
Ｇ．Ｌ
 48
50.0
100
AcDbLine
 10
9791.689341890716
 20
2027.647464732192
 30
0.0
 11
10309.36421918191
 21
2027.647464732192
 31
0.0
  0
LINE
  5
1EFB2
330
747D
100
AcDbEntity
  8
部品1
 48
50.0
100
AcDbLine
 10
9791.689341890716
 20
1723.81135759427
 30
0.0
 11
9971.689341890716
 21
1723.81135759427
 31
0.0
  0
LINE
  5
1EFB3
330
747D
100
AcDbEntity
  8
細線
 48
50.0
100
AcDbLine
 10
9701.689341890725
 20
1730.314027072931
 30
0.0
 11
9791.689341890716
 21
1820.314027072925
 31
0.0
  0
LINE
  5
1EFB4
330
747D
100
AcDbEntity
  8
細線
 48
50.0
100
AcDbLine
 10
9701.689341890725
 20
1696.638066618922
 30
0.0
 11
9791.689341890716
 21
1786.638066618916
 31
0.0
  0
LINE
  5
1EFB5
330
747D
100
AcDbEntity
  8
細線
 48
50.0
100
AcDbLine
 10
9701.689341890725
 20
1662.96210616491
 30
0.0
 11
9791.689341890716
 21
1752.962106164907
 31
0.0
  0
LINE
  5
1EFB6
330
747D
100
AcDbEntity
  8
細線
 48
50.0
100
AcDbLine
 10
9701.68934189072
 20
1966.045750250992
 30
0.0
 11
9791.689341890716
 21
2056.045750250989
 31
0.0
  0
LINE
  5
1EFB7
330
747D
100
AcDbEntity
  8
細線
 48
50.0
100
AcDbLine
 10
9701.68934189072
 20
1999.721710705005
 30
0.0
 11
9791.689341890716
 21
2089.721710705004
 31
0.0
  0
LINE
  5
1EFB8
330
747D
100
AcDbEntity
  8
細線
 48
50.0
100
AcDbLine
 10
9701.689341890725
 20
1932.369789796985
 30
0.0
 11
9791.689341890716
 21
2022.369789796981
 31
0.0
  0
LINE
  5
1EFB9
330
747D
100
AcDbEntity
  8
細線
100
AcDbLine
 10
9751.500251760154
 20
2470.163306607174
 30
0.0
 11
9791.689341890716
 21
2461.97475341117
 31
0.0
  0
LINE
  5
1EFBA
330
747D
100
AcDbEntity
  8
部品1
 48
50.0
100
AcDbLine
 10
9708.689341890718
 20
2253.81135759427
 30
0.0
 11
9708.689341890714
 21
2503.81135759427
 31
0.0
  0
LINE
  5
1EFBB
330
747D
100
AcDbEntity
  8
部品1
 48
50.0
100
AcDbLine
 10
9681.689341890717
 20
2253.81135759427
 30
0.0
 11
9681.689341890717
 21
2503.81135759427
 31
0.0
  0
LINE
  5
1EFBC
330
747D
100
AcDbEntity
  8
細線
 48
50.0
100
AcDbLine
 10
9708.689341890716
 20
2308.777473429058
 30
0.0
 11
9791.689341890716
 21
2391.777473429058
 31
0.0
  0
LINE
  5
1EFBD
330
747D
100
AcDbEntity
  8
細線
 48
50.0
100
AcDbLine
 10
9708.689341890716
 20
2376.129394337072
 30
0.0
 11
9791.689341890716
 21
2459.129394337077
 31
0.0
  0
LINE
  5
1EFBE
330
747D
100
AcDbEntity
  8
細線
 48
50.0
100
AcDbLine
 10
9708.689341890718
 20
2342.453433883061
 30
0.0
 11
9791.689341890716
 21
2425.453433883067
 31
0.0
  0
LINE
  5
1EFBF
330
747D
100
AcDbEntity
  8
部品1
 48
50.0
100
AcDbLine
 10
9681.689341890717
 20
2253.81135759427
 30
0.0
 11
9681.689341890717
 21
2329.129394337076
 31
0.0
  0
LINE
  5
1EFC0
330
747D
100
AcDbEntity
  8
部品1
 48
50.0
100
AcDbLine
 10
9681.689341890717
 20
2253.81135759427
 30
0.0
 11
9681.689341890717
 21
2329.129394337076
 31
0.0
  0
LINE
  5
1EFC1
330
747D
100
AcDbEntity
  8
部品1
100
AcDbLine
 10
9681.227803429178
 20
2651.349819132731
 30
0.0
 11
9681.227803429178
 21
2625.503665286578
 31
0.0
  0
LINE
  5
1EFC2
330
747D
100
AcDbEntity
  8
部品1
100
AcDbLine
 10
9711.381649583023
 20
2610.426742209654
 30
0.0
 11
9753.073957275331
 21
2610.426742209654
 31
0.0
  0
LINE
  5
1EFC3
330
747D
100
AcDbEntity
  8
部品1
100
AcDbLine
 10
9711.381649583023
 20
2625.503665286578
 30
0.0
 11
9711.381649583023
 21
2610.426742209654
 31
0.0
  0
LINE
  5
1EFC4
330
747D
100
AcDbEntity
  8
部品1
100
AcDbLine
 10
9681.227803429178
 20
2625.503665286578
 30
0.0
 11
9711.381649583023
 21
2625.503665286578
 31
0.0
  0
ARC
  5
1EFC5
330
747D
100
AcDbEntity
  8
部品1
100
AcDbCircle
 10
9713.497034198404
 20
2521.371444298646
 30
0.0
 40
7.3858052918609
100
AcDbArc
 50
43.19325636896477
 51
136.8067436310352
  0
LINE
  5
1EFC6
330
747D
100
AcDbEntity
  8
部品1
100
AcDbLine
 10
9708.112418813788
 20
2526.426742209654
 30
0.0
 11
9708.112418813788
 21
2508.119049901961
 31
0.0
  0
LINE
  5
1EFC7
330
747D
100
AcDbEntity
  8
部品1
100
AcDbLine
 10
9718.881649583023
 20
2526.426742209657
 30
0.0
 11
9718.881649583023
 21
2508.119049901961
 31
0.0
  0
LINE
  5
1EFC8
330
747D
100
AcDbEntity
  8
部品1
100
AcDbLine
 10
9715.650880352256
 20
2529.657511440424
 30
0.0
 11
9718.881649583023
 21
2526.426742209657
 31
0.0
  0
LINE
  5
1EFC9
330
747D
100
AcDbEntity
  8
部品1
100
AcDbLine
 10
9723.189341890716
 20
2508.119049901961
 30
0.0
 11
9723.189341890716
 21
2503.81135759427
 31
0.0
  0
LINE
  5
1EFCA
330
747D
100
AcDbEntity
  8
部品1
100
AcDbLine
 10
9749.843188044561
 20
2530.562495910033
 30
0.0
 11
9749.843188044561
 21
2508.119049901961
 31
0.0
  0
LINE
  5
1EFCB
330
747D
100
AcDbEntity
  8
部品1
 48
50.0
100
AcDbLine
 10
9708.689341890714
 20
2529.657511440424
 30
0.0
 11
9708.689341890714
 21
2564.119049901961
 31
0.0
  0
LINE
  5
1EFCC
330
747D
100
AcDbEntity
  8
細線
100
AcDbLine
 10
9721.996183081927
 20
2471.801051304563
 30
0.0
 11
9751.500251760154
 21
2470.163306607174
 31
0.0
  0
LINE
  5
1EFCD
330
747D
100
AcDbEntity
  8
部品1
100
AcDbLine
 10
9682.266264967639
 20
2526.426742209657
 30
0.0
 11
9682.266264967639
 21
2508.119049901961
 31
0.0
  0
LINE
  5
1EFCE
330
747D
100
AcDbEntity
  8
部品1
 48
50.0
100
AcDbLine
 10
9681.689341890713
 20
2529.657511440424
 30
0.0
 11
9681.689341890709
 21
2564.119049901961
 31
0.0
  0
LINE
  5
1EFCF
330
747D
100
AcDbEntity
  8
部品1
 48
50.0
100
AcDbLine
 10
9708.689341890718
 20
2564.119049901961
 30
0.0
 11
9681.689341890717
 21
2564.119049901961
 31
0.0
  0
ARC
  5
1EFD0
330
747D
100
AcDbEntity
  8
部品1
100
AcDbCircle
 10
9695.189341890717
 20
2493.808601892377
 30
0.0
 40
35.0848827120379
100
AcDbArc
 50
68.38687878208858
 51
111.6131212179114
  0
LINE
  5
1EFD1
330
747D
100
AcDbEntity
  8
部品1
100
AcDbLine
 10
9753.073957275331
 20
2507.04212682504
 30
0.0
 11
9770.3047265061
 21
2507.04212682504
 31
0.0
  0
LINE
  5
1EFD2
330
747D
100
AcDbEntity
  8
部品1
100
AcDbLine
 10
9753.073957275331
 20
2610.426742209654
 30
0.0
 11
9753.073957275331
 21
2507.04212682504
 31
0.0
  0
LINE
  5
1EFD3
330
747D
100
AcDbEntity
  8
部品1
 48
50.0
100
AcDbLine
 10
11290.43148660154
 20
2111.117589580613
 30
0.0
 11
11242.23998755101
 21
2027.64746473219
 31
0.0
  0
LINE
  5
1EFD4
330
747D
100
AcDbEntity
  8
部品1
 48
50.0
100
AcDbLine
 10
11194.04848850048
 20
2111.117589580613
 30
0.0
 11
11242.23998755101
 21
2027.64746473219
 31
0.0
  0
LINE
  5
1EFD5
330
747D
100
AcDbEntity
  8
部品1
 48
50.0
100
AcDbLine
 10
11194.04848850048
 20
2111.117589580613
 30
0.0
 11
11290.43148660154
 21
2111.117589580613
 31
0.0
  0
LINE
  5
1EFD6
330
747D
100
AcDbEntity
  8
部品1
 48
50.0
100
AcDbLine
 10
12070.35193986152
 20
1723.811357594271
 30
0.0
 11
12070.35193986152
 21
1423.811357594271
 31
0.0
  0
LINE
  5
1EFD7
330
747D
100
AcDbEntity
  8
細線
 48
50.0
100
AcDbLine
 10
11701.20119129088
 20
1563.811357594271
 30
0.0
 11
11740.35193986152
 21
1602.962106164907
 31
0.0
  0
LINE
  5
1EFD8
330
747D
100
AcDbEntity
  8
細線
 48
50.0
100
AcDbLine
 10
11633.84927038286
 20
1563.811357594271
 30
0.0
 11
11780.35193986152
 21
1710.31402707293
 31
0.0
  0
LINE
  5
1EFD9
330
747D
100
AcDbEntity
  8
細線
 48
50.0
100
AcDbLine
 10
11667.52523083687
 20
1563.811357594271
 30
0.0
 11
11740.35193986152
 21
1636.638066618919
 31
0.0
  0
LINE
  5
1EFDA
330
747D
100
AcDbEntity
  8
部品1
 48
50.0
100
AcDbLine
 10
11760.35193986152
 20
1646.470375965674
 30
0.0
 11
11760.35193986152
 21
1573.81135759427
 31
0.0
  0
LINE
  5
1EFDB
330
747D
100
AcDbEntity
  8
部品1
 48
50.0
100
AcDbLine
 10
11740.35193986152
 20
1646.470375965674
 30
0.0
 11
11740.35193986152
 21
1573.81135759427
 31
0.0
  0
LINE
  5
1EFDC
330
747D
100
AcDbEntity
  8
細線
 48
50.0
100
AcDbLine
 10
11903.25695401493
 20
1563.811357594271
 30
0.0
 11
12063.25695401494
 21
1723.811357594271
 31
0.0
  0
LINE
  5
1EFDD
330
747D
100
AcDbEntity
  8
細線
 48
50.0
100
AcDbLine
 10
11970.60887492296
 20
1563.811357594271
 30
0.0
 11
12070.35193986152
 21
1663.554422532832
 31
0.0
  0
LINE
  5
1EFDE
330
747D
100
AcDbEntity
  8
細線
 48
50.0
100
AcDbLine
 10
11936.93291446895
 20
1563.811357594271
 30
0.0
 11
12070.35193986152
 21
1697.230382986844
 31
0.0
  0
LINE
  5
1EFDF
330
747D
100
AcDbEntity
  8
部品1
 48
50.0
100
AcDbLine
 10
11800.35193986153
 20
1573.81135759427
 30
0.0
 11
11800.35193986152
 21
2329.129394337078
 31
0.0
  0
LINE
  5
1EFE0
330
747D
100
AcDbEntity
  8
部品1
 48
50.0
100
AcDbLine
 10
11780.35193986153
 20
1573.81135759427
 30
0.0
 11
11780.35193986152
 21
2329.129394337078
 31
0.0
  0
LINE
  5
1EFE1
330
747D
100
AcDbEntity
  8
部品1
 48
50.0
100
AcDbLine
 10
11470.35193986152
 20
1423.811357594271
 30
0.0
 11
11470.35193986152
 21
1723.811357594271
 31
0.0
  0
TEXT
  5
1EFE2
330
747D
100
AcDbEntity
  8
部品1
 48
50.0
100
AcDbText
 10
11396.16236663769
 20
613.6469322049479
 30
0.0
 40
96.0
  1
床下湿気防止用基礎
  7
STYLE2
100
AcDbText
  0
LINE
  5
1EFE3
330
747D
100
AcDbEntity
  8
部品1
 48
50.0
100
AcDbLine
 10
12727.32956408713
 20
576.4035931910948
 30
0.0
 11
11336.01629508952
 21
576.4035931910948
 31
0.0
  0
LINE
  5
1EFE4
330
747D
100
AcDbEntity
  8
部品1
 48
50.0
100
AcDbLine
 10
12727.32956408713
 20
736.4035931910948
 30
0.0
 11
11336.01629508952
 21
736.4035931910948
 31
0.0
  0
LINE
  5
1EFE5
330
747D
100
AcDbEntity
  8
部品1
 48
50.0
100
AcDbLine
 10
12170.35193986152
 20
1263.811357594271
 30
0.0
 11
11370.35193986152
 21
1263.811357594271
 31
0.0
  0
LINE
  5
1EFE6
330
747D
100
AcDbEntity
  8
部品1
 48
50.0
100
AcDbLine
 10
12170.35193986152
 20
1423.811357594271
 30
0.0
 11
11370.35193986152
 21
1423.811357594271
 31
0.0
  0
LINE
  5
1EFE7
330
747D
100
AcDbEntity
  8
部品1
 48
50.0
100
AcDbLine
 10
11336.01629508952
 20
736.4035931910948
 30
0.0
 11
11336.01629508952
 21
576.4035931910948
 31
0.0
  0
LINE
  5
1EFE8
330
747D
100
AcDbEntity
  8
細線
 48
50.0
100
AcDbLine
 10
11734.44323314614
 20
1393.811357594271
 30
0.0
 11
11726.4047573732
 21
1423.811357594271
 31
0.0
  0
LINE
  5
1EFE9
330
747D
100
AcDbEntity
  8
細線
 48
50.0
100
AcDbLine
 10
11699.60983813009
 20
1263.811357594271
 30
0.0
 11
11742.48170891907
 21
1423.811357594271
 31
0.0
  0
LINE
  5
1EFEA
330
747D
100
AcDbEntity
  8
部品1
 48
50.0
100
AcDbLine
 10
11540.35193986152
 20
1543.811357594271
 30
0.0
 11
12000.35193986152
 21
1543.811357594271
 31
0.0
  0
LINE
  5
1EFEB
330
747D
100
AcDbEntity
  8
部品1
 48
50.0
100
AcDbLine
 10
11540.35193986152
 20
1563.811357594271
 30
0.0
 11
12000.35193986152
 21
1563.811357594271
 31
0.0
  0
LINE
  5
1EFEC
330
747D
100
AcDbEntity
  8
細線
 48
50.0
100
AcDbLine
 10
11502.38972576197
 20
1263.811357594271
 30
0.0
 11
11545.26159655095
 21
1423.811357594271
 31
0.0
  0
LINE
  5
1EFED
330
747D
100
AcDbEntity
  8
部品1
 48
50.0
100
AcDbLine
 10
11370.35193986152
 20
1263.811357594271
 30
0.0
 11
11370.35193986152
 21
1423.811357594271
 31
0.0
  0
LINE
  5
1EFEE
330
747D
100
AcDbEntity
  8
細線
 48
50.0
100
AcDbLine
 10
11403.7796695779
 20
1263.811357594271
 30
0.0
 11
11446.65154036689
 21
1423.811357594271
 31
0.0
  0
LINE
  5
1EFEF
330
747D
100
AcDbEntity
  8
細線
 48
50.0
100
AcDbLine
 10
11600.99978194603
 20
1263.811357594271
 30
0.0
 11
11643.87165273501
 21
1423.811357594271
 31
0.0
  0
LINE
  5
1EFF0
330
747D
100
AcDbEntity
  8
細線
 48
50.0
100
AcDbLine
 10
11510.4282015349
 20
1293.811357594271
 30
0.0
 11
11518.46667730784
 21
1263.811357594271
 31
0.0
  0
LINE
  5
1EFF1
330
747D
100
AcDbEntity
  8
細線
 48
50.0
100
AcDbLine
 10
11411.81814535084
 20
1293.811357594271
 30
0.0
 11
11419.85662112378
 21
1263.811357594271
 31
0.0
  0
LINE
  5
1EFF2
330
747D
100
AcDbEntity
  8
細線
 48
50.0
100
AcDbLine
 10
11707.64831390302
 20
1293.811357594271
 30
0.0
 11
11715.68678967596
 21
1263.811357594271
 31
0.0
  0
LINE
  5
1EFF3
330
747D
100
AcDbEntity
  8
細線
 48
50.0
100
AcDbLine
 10
11609.03825771896
 20
1293.811357594271
 30
0.0
 11
11617.0767334919
 21
1263.811357594271
 31
0.0
  0
LINE
  5
1EFF4
330
747D
100
AcDbEntity
  8
細線
 48
50.0
100
AcDbLine
 10
11493.84927038286
 20
1423.811357594271
 30
0.0
 11
11613.84927038286
 21
1543.811357594271
 31
0.0
  0
LINE
  5
1EFF5
330
747D
100
AcDbEntity
  8
細線
 48
50.0
100
AcDbLine
 10
11438.61306459395
 20
1393.811357594271
 30
0.0
 11
11430.57458882102
 21
1423.811357594271
 31
0.0
  0
LINE
  5
1EFF6
330
747D
100
AcDbEntity
  8
細線
 48
50.0
100
AcDbLine
 10
11635.83317696208
 20
1393.811357594271
 30
0.0
 11
11627.79470118914
 21
1423.811357594271
 31
0.0
  0
LINE
  5
1EFF7
330
747D
100
AcDbEntity
  8
部品1
 48
50.0
100
AcDbLine
 10
11540.35193986152
 20
1543.811357594271
 30
0.0
 11
11540.35193986152
 21
1563.811357594271
 31
0.0
  0
LINE
  5
1EFF8
330
747D
100
AcDbEntity
  8
細線
 48
50.0
100
AcDbLine
 10
11537.22312077801
 20
1393.811357594271
 30
0.0
 11
11529.18464500508
 21
1423.811357594271
 31
0.0
  0
LINE
  5
1EFF9
330
747D
100
AcDbEntity
  8
細線
 48
50.0
100
AcDbLine
 10
11527.52523083687
 20
1423.811357594271
 30
0.0
 11
11647.52523083687
 21
1543.811357594271
 31
0.0
  0
LINE
  5
1EFFA
330
747D
100
AcDbEntity
  8
細線
 48
50.0
100
AcDbLine
 10
11561.20119129088
 20
1423.811357594271
 30
0.0
 11
11681.20119129088
 21
1543.811357594271
 31
0.0
  0
CIRCLE
  5
1EFFB
330
747D
100
AcDbEntity
  8
部品1
 48
50.0
100
AcDbCircle
 10
11610.35193986152
 20
1573.81135759427
 30
0.0
 40
10.0
  0
LINE
  5
1EFFC
330
747D
100
AcDbEntity
  8
細線
 48
50.0
100
AcDbLine
 10
12094.05006286633
 20
1263.811357594271
 30
0.0
 11
12136.92193365531
 21
1423.811357594271
 31
0.0
  0
LINE
  5
1EFFD
330
747D
100
AcDbEntity
  8
細線
 48
50.0
100
AcDbLine
 10
11896.82995049821
 20
1263.811357594271
 30
0.0
 11
11939.70182128719
 21
1423.811357594271
 31
0.0
  0
LINE
  5
1EFFE
330
747D
100
AcDbEntity
  8
細線
 48
50.0
100
AcDbLine
 10
11798.21989431415
 20
1263.811357594271
 30
0.0
 11
11841.09176510313
 21
1423.811357594271
 31
0.0
  0
LINE
  5
1EFFF
330
747D
100
AcDbEntity
  8
細線
 48
50.0
100
AcDbLine
 10
11995.44000668227
 20
1263.811357594271
 30
0.0
 11
12038.31187747125
 21
1423.811357594271
 31
0.0
  0
LINE
  5
1F000
330
747D
100
AcDbEntity
  8
細線
 48
50.0
100
AcDbLine
 10
11904.86842627114
 20
1293.811357594271
 30
0.0
 11
11912.90690204408
 21
1263.811357594271
 31
0.0
  0
LINE
  5
1F001
330
747D
100
AcDbEntity
  8
細線
 48
50.0
100
AcDbLine
 10
11806.25837008708
 20
1293.811357594271
 30
0.0
 11
11814.29684586002
 21
1263.811357594271
 31
0.0
  0
LINE
  5
1F002
330
747D
100
AcDbEntity
  8
細線
 48
50.0
100
AcDbLine
 10
12102.08853863927
 20
1293.811357594271
 30
0.0
 11
12110.1270144122
 21
1263.811357594271
 31
0.0
  0
LINE
  5
1F003
330
747D
100
AcDbEntity
  8
細線
 48
50.0
100
AcDbLine
 10
12003.4784824552
 20
1293.811357594271
 30
0.0
 11
12011.51695822814
 21
1263.811357594271
 31
0.0
  0
CIRCLE
  5
1F004
330
747D
100
AcDbEntity
  8
部品1
 48
50.0
100
AcDbCircle
 10
11930.35193986152
 20
1573.81135759427
 30
0.0
 40
10.0
  0
LINE
  5
1F005
330
747D
100
AcDbEntity
  8
細線
 48
50.0
100
AcDbLine
 10
11830.60887492295
 20
1423.811357594271
 30
0.0
 11
11950.60998472938
 21
1543.812467400695
 31
0.0
  0
ARC
  5
1F006
330
747D
100
AcDbEntity
  8
部品1
 48
50.0
100
AcDbCircle
 10
11770.35193986152
 20
1573.81135759427
 30
0.0
 40
30.0
100
AcDbArc
 50
340.528779365501
 51
0.0
  0
CIRCLE
  5
1F007
330
747D
100
AcDbEntity
  8
部品1
 48
50.0
100
AcDbCircle
 10
11770.35193986152
 20
1573.81135759427
 30
0.0
 40
10.0
  0
ARC
  5
1F008
330
747D
100
AcDbEntity
  8
部品1
 48
50.0
100
AcDbCircle
 10
11770.35193986152
 20
1573.81135759427
 30
0.0
 40
30.0
100
AcDbArc
 50
180.0
 51
199.4712206344989
  0
LINE
  5
1F009
330
747D
100
AcDbEntity
  8
細線
 48
50.0
100
AcDbLine
 10
11931.66334551426
 20
1393.811357594271
 30
0.0
 11
11923.62486974133
 21
1423.811357594271
 31
0.0
  0
LINE
  5
1F00A
330
747D
100
AcDbEntity
  8
細線
 48
50.0
100
AcDbLine
 10
11833.0532893302
 20
1393.811357594271
 30
0.0
 11
11825.01481355727
 21
1423.811357594271
 31
0.0
  0
LINE
  5
1F00B
330
747D
100
AcDbEntity
  8
細線
 48
50.0
100
AcDbLine
 10
11796.93291446895
 20
1423.811357594271
 30
0.0
 11
11916.93291446895
 21
1543.811357594271
 31
0.0
  0
LINE
  5
1F00C
330
747D
100
AcDbEntity
  8
細線
 48
50.0
100
AcDbLine
 10
11763.25695401494
 20
1423.811357594271
 30
0.0
 11
11883.25695401494
 21
1543.811357594271
 31
0.0
  0
LINE
  5
1F00D
330
747D
100
AcDbEntity
  8
細線
 48
50.0
100
AcDbLine
 10
12128.88345788238
 20
1393.811357594271
 30
0.0
 11
12120.84498210945
 21
1423.811357594271
 31
0.0
  0
LINE
  5
1F00E
330
747D
100
AcDbEntity
  8
細線
 48
50.0
100
AcDbLine
 10
12066.34059810102
 20
1423.811357594271
 30
0.0
 11
12070.35193986152
 21
1427.822699354767
 31
0.0
  0
LINE
  5
1F00F
330
747D
100
AcDbEntity
  8
細線
 48
50.0
100
AcDbLine
 10
12032.66463764701
 20
1423.811357594271
 30
0.0
 11
12070.35193986152
 21
1461.498659808776
 31
0.0
  0
LINE
  5
1F010
330
747D
100
AcDbEntity
  8
部品1
 48
50.0
100
AcDbLine
 10
12000.35193986152
 20
1543.811357594271
 30
0.0
 11
12000.35193986152
 21
1563.811357594271
 31
0.0
  0
LINE
  5
1F011
330
747D
100
AcDbEntity
  8
細線
 48
50.0
100
AcDbLine
 10
12030.27340169832
 20
1393.811357594271
 30
0.0
 11
12022.23492592539
 21
1423.811357594271
 31
0.0
  0
LINE
  5
1F012
330
747D
100
AcDbEntity
  8
部品1
 48
50.0
100
AcDbLine
 10
12727.32956408713
 20
736.4035931910948
 30
0.0
 11
12727.32956408713
 21
576.4035931910948
 31
0.0
  0
LINE
  5
1F013
330
747D
100
AcDbEntity
  8
部品1
 48
50.0
100
AcDbLine
 10
12170.35193986152
 20
1263.811357594271
 30
0.0
 11
12170.35193986152
 21
1423.811357594271
 31
0.0
  0
LINE
  5
1F014
330
747D
100
AcDbEntity
  8
細線
 48
50.0
100
AcDbLine
 10
12120.99978194603
 20
1847.647464732193
 30
0.0
 11
12163.87165273501
 21
2007.647464732193
 31
0.0
  0
HATCH
  5
1F015
330
747D
100
AcDbEntity
  8
寸法
 62
     5
 48
50.0
100
AcDbHatch
 10
0.0
 20
0.0
 30
0.0
210
0.0
220
0.0
230
1.0
  2
PLAST
 70
     0
 71
     0
 91
        1
 92
        7
 72
     0
 73
     1
 93
        4
 10
12408.02681715271
 20
2277.647464732192
 10
11890.35193986152
 20
2277.647464732193
 10
11890.35193986152
 20
2047.647464732193
 10
12408.02681715271
 20
2047.647464732194
 97
        0
 75
     0
 76
     1
 52
315.0
 41
25.0
 77
     0
 78
     3
 53
315.0
 43
-1097.015023889096
 44
-3314.979632745137
 45
112.2532015133644
 46
112.2532015133644
 79
     0
 53
315.0
 43
-1082.983373699926
 44
-3300.947982555967
 45
112.2532015133644
 46
112.2532015133644
 79
     0
 53
315.0
 43
-1068.951723510755
 44
-3286.916332366796
 45
112.2532015133644
 46
112.2532015133644
 79
     0
 47
1.387886003246494
 98
        1
 10
12118.90247068748
 20
2214.333051769565
  0
LINE
  5
1F016
330
747D
100
AcDbEntity
  8
部品1
 48
50.0
100
AcDbLine
 10
11891.43677020482
 20
1847.647464732193
 30
0.0
 11
12408.02681715271
 21
1847.647464732193
 31
0.0
  0
LINE
  5
1F017
330
747D
100
AcDbEntity
  8
部品1
 48
50.0
100
AcDbLine
 10
11890.35193986152
 20
2007.647464732193
 30
0.0
 11
12408.02681715271
 21
2007.647464732193
 31
0.0
  0
LINE
  5
1F018
330
747D
100
AcDbEntity
  8
部品1
 48
50.0
100
AcDbLine
 10
11890.35193986152
 20
2047.647464732193
 30
0.0
 11
12408.02681715271
 21
2047.647464732193
 31
0.0
  0
LINE
  5
1F019
330
747D
100
AcDbEntity
  8
部品1
 48
50.0
100
AcDbLine
 10
11890.35193986152
 20
2027.647464732193
 30
0.0
 11
12408.02681715271
 21
2027.647464732193
 31
0.0
  0
LINE
  5
1F01A
330
747D
100
AcDbEntity
  8
部品1
 48
50.0
100
AcDbLine
 10
11890.35193986152
 20
2277.647464732193
 30
0.0
 11
12408.02681715271
 21
2277.647464732193
 31
0.0
  0
LWPOLYLINE
  5
1F01B
330
747D
100
AcDbEntity
  8
部品1
 48
50.0
100
AcDbPolyline
 90
        4
 70
     0
 43
15.0
 10
11890.35193986152
 20
2027.647464732193
 10
12408.02681715271
 20
2027.647464732193
 42
0.1559987191059798
 10
12574.72933822125
 20
2080.606550553959
 42
-0.1900569176366468
 10
12773.65115345976
 20
2111.587733997905
  0
LINE
  5
1F01C
330
747D
100
AcDbEntity
  8
細線
 48
50.0
100
AcDbLine
 10
11650.35193986152
 20
2151.777473429059
 30
0.0
 11
11755.04484239814
 21
2256.470375965674
 31
0.0
  0
LINE
  5
1F01D
330
747D
100
AcDbEntity
  8
部品1
 48
50.0
100
AcDbLine
 10
11650.35193986152
 20
1723.811357594271
 30
0.0
 11
11650.35193986152
 21
2503.811357594271
 31
0.0
  0
LINE
  5
1F01E
330
747D
100
AcDbEntity
  8
部品1
 48
50.0
100
AcDbLine
 10
11890.35193986152
 20
2503.811357594271
 30
0.0
 11
11890.35193986152
 21
1723.811357594271
 31
0.0
  0
LINE
  5
1F01F
330
747D
100
AcDbEntity
  8
細線
 48
50.0
100
AcDbLine
 10
11650.35193986152
 20
1782.369789796984
 30
0.0
 11
11780.35193986153
 21
1912.369789796986
 31
0.0
  0
LINE
  5
1F020
330
747D
100
AcDbEntity
  8
細線
 48
50.0
100
AcDbLine
 10
11650.35193986152
 20
1816.045750250993
 30
0.0
 11
11780.35193986152
 21
1946.045750250991
 31
0.0
  0
LINE
  5
1F021
330
747D
100
AcDbEntity
  8
細線
 48
50.0
100
AcDbLine
 10
11650.35193986152
 20
1849.721710705003
 30
0.0
 11
11780.35193986152
 21
1979.721710705003
 31
0.0
  0
LINE
  5
1F022
330
747D
100
AcDbEntity
  8
細線
 48
50.0
100
AcDbLine
 10
11470.35193986152
 20
1602.369789796985
 30
0.0
 11
11591.7935076588
 21
1723.811357594271
 31
0.0
  0
LINE
  5
1F023
330
747D
100
AcDbEntity
  8
細線
 48
50.0
100
AcDbLine
 10
11470.35193986152
 20
1636.045750250995
 30
0.0
 11
11558.1175472048
 21
1723.811357594271
 31
0.0
  0
LINE
  5
1F024
330
747D
100
AcDbEntity
  8
部品1
 48
50.0
100
AcDbLine
 10
11470.35193986152
 20
1723.811357594271
 30
0.0
 11
11650.35193986152
 21
1723.811357594271
 31
0.0
  0
LINE
  5
1F025
330
747D
100
AcDbEntity
  8
細線
 48
50.0
100
AcDbLine
 10
11470.35193986152
 20
1669.721710705005
 30
0.0
 11
11524.44158675079
 21
1723.811357594271
 31
0.0
  0
LINE
  5
1F026
330
747D
100
AcDbEntity
  8
細線
 48
50.0
100
AcDbLine
 10
11923.7796695779
 20
1847.647464732193
 30
0.0
 11
11966.65154036689
 21
2007.647464732193
 31
0.0
  0
LINE
  5
1F027
330
747D
100
AcDbEntity
  8
細線
 48
50.0
100
AcDbLine
 10
12022.38972576197
 20
1847.647464732193
 30
0.0
 11
12065.26159655095
 21
2007.647464732193
 31
0.0
  0
LINE
  5
1F028
330
747D
100
AcDbEntity
  8
細線
 48
50.0
100
AcDbLine
 10
11931.81814535084
 20
1877.647464732193
 30
0.0
 11
11939.85662112378
 21
1847.647464732193
 31
0.0
  0
LINE
  5
1F029
330
747D
100
AcDbEntity
  8
部品1
 48
50.0
100
AcDbLine
 10
11890.35193986152
 20
1723.811357594271
 30
0.0
 11
12070.35193986152
 21
1723.811357594271
 31
0.0
  0
LINE
  5
1F02A
330
747D
100
AcDbEntity
  8
細線
 48
50.0
100
AcDbLine
 10
11800.35193986153
 20
1730.314027072932
 30
0.0
 11
11890.35193986152
 21
1820.314027072926
 31
0.0
  0
LINE
  5
1F02B
330
747D
100
AcDbEntity
  8
細線
 48
50.0
100
AcDbLine
 10
11760.35193986152
 20
1622.962106164909
 30
0.0
 11
11780.35193986153
 21
1642.962106164911
 31
0.0
  0
LINE
  5
1F02C
330
747D
100
AcDbEntity
  8
細線
 48
50.0
100
AcDbLine
 10
11750.18424920828
 20
1646.470375965674
 30
0.0
 11
11780.35193986153
 21
1676.63806661892
 31
0.0
  0
LINE
  5
1F02D
330
747D
100
AcDbEntity
  8
部品1
 48
50.0
100
AcDbLine
 10
11760.35193986152
 20
1646.470375965674
 30
0.0
 11
11740.35193986152
 21
1646.470375965674
 31
0.0
  0
LINE
  5
1F02E
330
747D
100
AcDbEntity
  8
細線
 48
50.0
100
AcDbLine
 10
11800.35193986153
 20
1696.638066618922
 30
0.0
 11
11890.35193986152
 21
1786.638066618917
 31
0.0
  0
LINE
  5
1F02F
330
747D
100
AcDbEntity
  8
細線
 48
50.0
100
AcDbLine
 10
11800.35193986153
 20
1662.962106164911
 30
0.0
 11
11890.35193986152
 21
1752.962106164908
 31
0.0
  0
LINE
  5
1F030
330
747D
100
AcDbEntity
  8
細線
 48
50.0
100
AcDbLine
 10
12129.03825771896
 20
1877.647464732193
 30
0.0
 11
12137.0767334919
 21
1847.647464732193
 31
0.0
  0
LINE
  5
1F031
330
747D
100
AcDbEntity
  8
細線
 48
50.0
100
AcDbLine
 10
12030.4282015349
 20
1877.647464732193
 30
0.0
 11
12038.46667730784
 21
1847.647464732193
 31
0.0
  0
LINE
  5
1F032
330
747D
100
AcDbEntity
  8
細線
 48
50.0
100
AcDbLine
 10
11800.35193986152
 20
1966.045750250993
 30
0.0
 11
11890.35193986152
 21
2056.04575025099
 31
0.0
  0
LINE
  5
1F033
330
747D
100
AcDbEntity
  8
細線
 48
50.0
100
AcDbLine
 10
11800.35193986152
 20
1999.721710705005
 30
0.0
 11
11890.35193986152
 21
2089.721710705005
 31
0.0
  0
LINE
  5
1F034
330
747D
100
AcDbEntity
  8
細線
 48
50.0
100
AcDbLine
 10
11800.35193986153
 20
1932.369789796986
 30
0.0
 11
11890.35193986152
 21
2022.369789796982
 31
0.0
  0
LINE
  5
1F035
330
747D
100
AcDbEntity
  8
細線
 48
50.0
100
AcDbLine
 10
12057.22312077802
 20
1977.647464732193
 30
0.0
 11
12049.18464500508
 21
2007.647464732193
 31
0.0
  0
LINE
  5
1F036
330
747D
100
AcDbEntity
  8
細線
 48
50.0
100
AcDbLine
 10
11958.61306459395
 20
1977.647464732193
 30
0.0
 11
11950.57458882102
 21
2007.647464732193
 31
0.0
  0
LINE
  5
1F037
330
747D
100
AcDbEntity
  8
細線
100
AcDbLine
 10
11723.95083811498
 20
2463.612498108559
 30
0.0
 11
11764.92879241429
 21
2470.163306607175
 31
0.0
  0
LINE
  5
1F038
330
747D
100
AcDbEntity
  8
部品1
 48
50.0
100
AcDbLine
 10
11650.35193986152
 20
2503.811357594271
 30
0.0
 11
11890.35193986152
 21
2503.811357594271
 31
0.0
  0
LINE
  5
1F039
330
747D
100
AcDbEntity
  8
細線
 48
50.0
100
AcDbLine
 10
11650.35193986152
 20
2185.453433883068
 30
0.0
 11
11740.35193986152
 21
2275.453433883068
 31
0.0
  0
LINE
  5
1F03A
330
747D
100
AcDbEntity
  8
細線
 48
50.0
100
AcDbLine
 10
11650.35193986152
 20
2219.129394337077
 30
0.0
 11
11740.35193986152
 21
2309.129394337078
 31
0.0
  0
LINE
  5
1F03B
330
747D
100
AcDbEntity
  8
細線
 48
50.0
100
AcDbLine
 10
11650.35193986152
 20
2454.861117515143
 30
0.0
 11
11665.07545267283
 21
2469.584630326449
 31
0.0
  0
LINE
  5
1F03C
330
747D
100
AcDbEntity
  8
細線
100
AcDbLine
 10
11650.35193986152
 20
2473.43873923831
 30
0.0
 11
11687.89026336755
 21
2463.612498108559
 31
0.0
  0
LINE
  5
1F03D
330
747D
100
AcDbEntity
  8
細線
100
AcDbLine
 10
11687.89026336755
 20
2463.612498108559
 30
0.0
 11
11723.95083811498
 21
2463.612498108559
 31
0.0
  0
LINE
  5
1F03E
330
747D
100
AcDbEntity
  8
細線
 48
50.0
100
AcDbLine
 10
11650.35193986152
 20
2421.185157061133
 30
0.0
 11
11692.77928090895
 21
2463.612498108559
 31
0.0
  0
LINE
  5
1F03F
330
747D
100
AcDbEntity
  8
細線
100
AcDbLine
 10
11850.16284973096
 20
2470.163306607175
 30
0.0
 11
11890.35193986152
 21
2461.974753411171
 31
0.0
  0
ARC
  5
1F040
330
747D
100
AcDbEntity
  8
部品1
 48
50.0
100
AcDbCircle
 10
11770.35193986152
 20
2329.129394337078
 30
0.0
 40
30.0
100
AcDbArc
 50
0.0
 51
180.0
  0
CIRCLE
  5
1F041
330
747D
100
AcDbEntity
  8
部品1
 48
50.0
100
AcDbCircle
 10
11770.35193986152
 20
2329.129394337078
 30
0.0
 40
10.0
  0
LINE
  5
1F042
330
747D
100
AcDbEntity
  8
細線
 48
50.0
100
AcDbLine
 10
11799.792823944
 20
2334.894317965546
 30
0.0
 11
11890.35193986152
 21
2425.453433883068
 31
0.0
  0
LINE
  5
1F043
330
747D
100
AcDbEntity
  8
細線
 48
50.0
100
AcDbLine
 10
11785.96746798961
 20
2354.744922465165
 30
0.0
 11
11890.35193986152
 21
2459.129394337078
 31
0.0
  0
LINE
  5
1F044
330
747D
100
AcDbEntity
  8
細線
 48
50.0
100
AcDbLine
 10
11760.35193986152
 20
2261.777473429059
 30
0.0
 11
11780.35193986152
 21
2281.777473429059
 31
0.0
  0
LINE
  5
1F045
330
747D
100
AcDbEntity
  8
部品1
 48
50.0
100
AcDbLine
 10
11760.35193986152
 20
2256.470375965674
 30
0.0
 11
11740.35193986152
 21
2256.470375965676
 31
0.0
  0
LINE
  5
1F046
330
747D
100
AcDbEntity
  8
細線
 48
50.0
100
AcDbLine
 10
11800.35193986152
 20
2301.777473429059
 30
0.0
 11
11890.35193986152
 21
2391.777473429059
 31
0.0
  0
LINE
  5
1F047
330
747D
100
AcDbEntity
  8
部品1
 48
50.0
100
AcDbLine
 10
11760.35193986152
 20
2256.470375965674
 30
0.0
 11
11760.35193986152
 21
2329.129394337078
 31
0.0
  0
LINE
  5
1F048
330
747D
100
AcDbEntity
  8
細線
 48
50.0
100
AcDbLine
 10
11760.35193986152
 20
2295.453433883068
 30
0.0
 11
11780.35193986152
 21
2315.453433883068
 31
0.0
  0
LINE
  5
1F049
330
747D
100
AcDbEntity
  8
部品1
 48
50.0
100
AcDbLine
 10
11740.35193986152
 20
2256.470375965676
 30
0.0
 11
11740.35193986152
 21
2329.129394337079
 31
0.0
  0
LINE
  5
1F04A
330
747D
100
AcDbEntity
  8
細線
100
AcDbLine
 10
11764.92879241429
 20
2470.163306607175
 30
0.0
 11
11820.65878105273
 21
2471.801051304564
 31
0.0
  0
LINE
  5
1F04B
330
747D
100
AcDbEntity
  8
細線
100
AcDbLine
 10
11820.65878105273
 20
2471.801051304564
 30
0.0
 11
11850.16284973096
 21
2470.163306607175
 31
0.0
  0
LINE
  5
1F04C
330
747D
100
AcDbEntity
  8
細線
 48
50.0
100
AcDbLine
 10
12318.21989431415
 20
1847.647464732193
 30
0.0
 11
12361.09176510313
 21
2007.647464732193
 31
0.0
  0
LINE
  5
1F04D
330
747D
100
AcDbEntity
  8
細線
 48
50.0
100
AcDbLine
 10
12219.60983813009
 20
1847.647464732193
 30
0.0
 11
12262.48170891907
 21
2007.647464732193
 31
0.0
  0
LINE
  5
1F04E
330
747D
100
AcDbEntity
  8
細線
 48
50.0
100
AcDbLine
 10
12326.25837008708
 20
1877.647464732193
 30
0.0
 11
12334.29684586002
 21
1847.647464732193
 31
0.0
  0
LINE
  5
1F04F
330
747D
100
AcDbEntity
  8
細線
 48
50.0
100
AcDbLine
 10
12227.64831390303
 20
1877.647464732193
 30
0.0
 11
12235.68678967596
 21
1847.647464732193
 31
0.0
  0
LINE
  5
1F050
330
747D
100
AcDbEntity
  8
細線
 48
50.0
100
AcDbLine
 10
12353.0532893302
 20
1977.647464732193
 30
0.0
 11
12345.01481355726
 21
2007.647464732193
 31
0.0
  0
LINE
  5
1F051
330
747D
100
AcDbEntity
  8
細線
 48
50.0
100
AcDbLine
 10
12254.44323314614
 20
1977.647464732193
 30
0.0
 11
12246.4047573732
 21
2007.647464732193
 31
0.0
  0
LINE
  5
1F052
330
747D
100
AcDbEntity
  8
細線
 48
50.0
100
AcDbLine
 10
12155.83317696208
 20
1977.647464732193
 30
0.0
 11
12147.79470118914
 21
2007.647464732193
 31
0.0
  0
LINE
  5
1F053
330
747D
100
AcDbEntity
  8
細線
 48
50.0
100
AcDbLine
 10
9994.732435059006
 20
3342.497321331611
 30
0.0
 11
13551.37598443153
 21
3342.497321331612
 31
0.0
  0
LINE
  5
1F054
330
747D
100
AcDbEntity
  8
細線
 48
50.0
100
AcDbLine
 10
9994.732435059006
 20
3382.497321331611
 30
0.0
 11
9994.732435059006
 21
3302.497321331612
 31
0.0
  0
LINE
  5
1F055
330
747D
100
AcDbEntity
  8
細線
 48
50.0
100
AcDbLine
 10
9994.732435059006
 20
3302.497321331612
 30
0.0
 11
9994.732435059006
 21
3302.497321331612
 31
0.0
  0
ARC
  5
1F056
330
747D
100
AcDbEntity
  8
細線
 48
50.0
100
AcDbCircle
 10
9914.732435059004
 20
3302.497321331612
 30
0.0
 40
80.0
100
AcDbArc
 50
270.0
 51
0.0
  0
ARC
  5
1F057
330
747D
100
AcDbEntity
  8
細線
 48
50.0
100
AcDbCircle
 10
9914.732435059004
 20
3382.497321331611
 30
0.0
 40
80.0
100
AcDbArc
 50
0.0
 51
90.0
  0
HATCH
  5
1F119
330
747D
100
AcDbEntity
  8
寸法
 48
50.0
100
AcDbHatch
 10
0.0
 20
0.0
 30
0.0
210
0.0
220
0.0
230
1.0
  2
DOTS
 70
     0
 71
     0
 91
        2
 92
        7
 72
     0
 73
     1
 93
        4
 10
10254.99166227189
 20
7892.310710222282
 10
8894.991662271888
 20
7892.31071022228
 10
8894.991662271888
 20
7827.310710222284
 10
10254.99166227189
 20
7827.310710222281
 97
        0
 92
        7
 72
     0
 73
     1
 93
        4
 10
10650.99166227188
 20
7892.310710222282
 10
10454.99166227189
 20
7892.310710222282
 10
10454.99166227189
 20
7827.310710222282
 10
10650.99166227189
 20
7827.310710222282
 97
        0
 75
     0
 76
     1
 52
0.0
 41
9.0
 77
     0
 78
     1
 53
0.0
 43
0.0
 44
0.0
 45
7.143749999999999
 46
14.2875
 79
     2
 49
0.0
 49
-14.2875
 47
4.225136148804365
 98
        2
 10
9974.927769061601
 20
7870.168723277337
 10
10515.97407409399
 20
7870.168723277337
  0
TEXT
  5
1F128
330
747D
100
AcDbEntity
  8
寸法
 48
50.0
100
AcDbText
 10
9645.987231914324
 20
7575.446989764232
 30
0.0
 40
120.0
  1
扉面
  7
STYLE1
100
AcDbText
  0
ENDSEC
  0
SECTION
  2
OBJECTS
  0
DICTIONARY
  5
7471
330
0
100
AcDbDictionary
281
     1
  3
ACAD_COLOR
350
1D6B4
  3
ACAD_GROUP
350
7472
  3
ACAD_LAYOUT
350
1D6B5
  3
ACAD_MATERIAL
350
1D6B3
  3
ACAD_MLINESTYLE
350
7473
  3
ACAD_PLOTSETTINGS
350
1D6B6
  3
ACAD_PLOTSTYLENAME
350
1D6B1
  3
ACDBHEADERROUNDTRIPXREC
350
1F13D
  3
ACDBVARIABLEDICTIONARY
350
1152B
  3
CONTENTDICTIONARY
350
E71C
  3
DRAWINGVARIABLESDICT
350
F3B9
  0
DICTIONARY
  5
1E730
330
7467
100
AcDbDictionary
280
     1
281
     1
  3
ACAD_LAYERSTATES
360
1E731
  0
DICTIONARY
  5
1D6B4
102
{ACAD_REACTORS
330
7471
102
}
330
7471
100
AcDbDictionary
281
     1
  0
DICTIONARY
  5
7472
102
{ACAD_REACTORS
330
7471
102
}
330
7471
100
AcDbDictionary
281
     1
  0
DICTIONARY
  5
1D6B5
102
{ACAD_REACTORS
330
7471
102
}
330
7471
100
AcDbDictionary
281
     1
  3
Model
350
1D6B7
  3
レイアウト1
350
1D6B8
  0
DICTIONARY
  5
1D6B3
102
{ACAD_REACTORS
330
7471
102
}
330
7471
100
AcDbDictionary
281
     1
  0
DICTIONARY
  5
7473
102
{ACAD_REACTORS
330
7471
102
}
330
7471
100
AcDbDictionary
281
     1
  3
STANDARD
350
7480
  0
DICTIONARY
  5
1D6B6
102
{ACAD_REACTORS
330
7471
102
}
330
7471
100
AcDbDictionary
281
     1
  0
ACDBDICTIONARYWDFLT
  5
1D6B1
102
{ACAD_REACTORS
330
7471
102
}
330
7471
100
AcDbDictionary
281
     1
  3
Normal
350
1D6B2
100
AcDbDictionaryWithDefault
340
1D6B2
  0
DICTIONARY
  5
1F13D
102
{ACAD_REACTORS
330
7471
102
}
330
7471
100
AcDbDictionary
281
     1
  3
COLORDICT
350
1F13F
  3
MATERIALDICT
350
1F13E
  0
DICTIONARY
  5
1152B
102
{ACAD_REACTORS
330
7471
102
}
330
7471
100
AcDbDictionary
281
     1
  3
DIMASSOC
350
1E139
  3
PROJECTNAME
350
1E13A
  3
SORTENTS
350
1152C
  0
DICTIONARY
  5
E71C
102
{ACAD_REACTORS
330
7471
102
}
330
7471
100
AcDbDictionary
281
     1
  0
DICTIONARY
  5
F3B9
102
{ACAD_REACTORS
330
7471
102
}
330
7471
100
AcDbDictionary
281
     1
1001
DRAWINGVARIABLESXDATA
1000
POLARMODE
1000
1
  0
DICTIONARY
  5
1E731
102
{ACAD_REACTORS
330
1E730
102
}
330
1E730
100
AcDbDictionary
281
     1
  0
LAYOUT
  5
1D6B7
102
{ACAD_XDICTIONARY
360
1F140
102
}
102
{ACAD_REACTORS
330
1D6B5
102
}
330
1D6B5
100
AcDbPlotSettings
  1

  2
クセロPDF
  4
A3
  6

 40
3.174999952316284
 41
3.174999952316284
 42
3.17498779296875
 43
3.17498779296875
 44
419.9466552734374
 45
296.9259948730469
 46
0.0
 47
0.0
 48
0.0
 49
0.0
140
0.0
141
0.0
142
1.0
143
50.0
 70
 11952
 72
     1
 73
     0
 74
     2
  7
inaba.ctb
 75
    25
147
0.02
148
0.0
149
0.0
100
AcDbLayout
  1
Model
 70
     1
 71
     0
 10
0.0
 20
0.0
 11
12.0
 21
9.0
 12
0.0
 22
0.0
 32
0.0
 14
0.0
 24
0.0
 34
0.0
 15
0.0
 25
0.0
 35
0.0
146
0.0
 13
0.0
 23
0.0
 33
0.0
 16
1.0
 26
0.0
 36
0.0
 17
0.0
 27
1.0
 37
0.0
 76
     0
330
747D
  0
LAYOUT
  5
1D6B8
102
{ACAD_XDICTIONARY
360
1F142
102
}
102
{ACAD_REACTORS
330
1D6B5
102
}
330
1D6B5
100
AcDbPlotSettings
  1

  2
EPSON LP-8300
  4

  6

 40
0.0
 41
0.0
 42
0.0
 43
0.0
 44
0.0
 45
0.0
 46
0.0
 47
0.0
 48
0.0
 49
0.0
140
0.0
141
0.0
142
1.0
143
1.0
 70
   688
 72
     0
 73
     0
 74
     5
  7
inaba.ctb
 75
    16
147
1.0
148
0.0
149
0.0
100
AcDbLayout
  1
レイアウト1
 70
     0
 71
     1
 10
0.0
 20
0.0
 11
420.0
 21
297.0
 12
0.0
 22
0.0
 32
0.0
 14
1.000000000000000E+20
 24
1.000000000000000E+20
 34
1.000000000000000E+20
 15
-1.000000000000000E+20
 25
-1.000000000000000E+20
 35
-1.000000000000000E+20
146
0.0
 13
0.0
 23
0.0
 33
0.0
 16
1.0
 26
0.0
 36
0.0
 17
0.0
 27
1.0
 37
0.0
 76
     0
330
747A
  0
MLINESTYLE
  5
7480
102
{ACAD_REACTORS
330
7473
102
}
330
7473
100
AcDbMlineStyle
  2
STANDARD
 70
     0
  3

 62
     0
 51
90.0
 52
90.0
 71
     2
 49
0.5
 62
   256
  6
BYLAYER
 49
-0.5
 62
   256
  6
BYLAYER
  0
ACDBPLACEHOLDER
  5
1D6B2
102
{ACAD_REACTORS
330
1D6B1
102
}
330
1D6B1
  0
XRECORD
  5
1F13F
102
{ACAD_REACTORS
330
1F13D
102
}
330
1F13D
100
AcDbXrecord
280
     1
340
1D6B4
  0
XRECORD
  5
1F13E
102
{ACAD_REACTORS
330
1F13D
102
}
330
1F13D
100
AcDbXrecord
280
     1
340
1D6B3
  0
DICTIONARYVAR
  5
1E139
102
{ACAD_REACTORS
330
1152B
102
}
330
1152B
100
DictionaryVariables
280
     0
  1
1
  0
DICTIONARYVAR
  5
1E13A
102
{ACAD_REACTORS
330
1152B
102
}
330
1152B
100
DictionaryVariables
280
     0
  1

  0
DICTIONARYVAR
  5
1152C
102
{ACAD_REACTORS
330
1152B
102
}
330
1152B
100
DictionaryVariables
280
     0
  1
96
  0
DICTIONARY
  5
1F140
330
1D6B7
100
AcDbDictionary
280
     1
281
     1
  3
ACAD_XREC_ROUNDTRIP
360
1F141
  0
DICTIONARY
  5
1F142
330
1D6B8
100
AcDbDictionary
280
     1
281
     1
  3
ACAD_XREC_ROUNDTRIP
360
1F143
  0
XRECORD
  5
1F141
102
{ACAD_REACTORS
330
1F140
102
}
330
1F140
100
AcDbXrecord
280
     1
102
SHADEPLOT
 70
     0
102
SHADEPLOTRESLEVEL
 70
     2
102
SHADEPLOTCUSTOMDPI
 70
   150
  0
XRECORD
  5
1F143
102
{ACAD_REACTORS
330
1F142
102
}
330
1F142
100
AcDbXrecord
280
     1
102
SHADEPLOT
 70
     0
102
SHADEPLOTRESLEVEL
 70
     2
102
SHADEPLOTCUSTOMDPI
 70
   300
  0
ENDSEC
  0
EOF
