  0
SECTION
  2
HEADER
  9
$ACADVER
  1
AC1018
  9
$ACADMAINTVER
 70
     0
  9
$DWGCODEPAGE
  3
ANSI_932
  9
$INSBASE
 10
0.0
 20
0.0
 30
0.0
  9
$EXTMIN
 10
173.9960207766853
 20
-0.4531514603331744
 30
-0.0015258207003583
  9
$EXTMAX
 10
20385.40654231959
 20
14262.44433931126
 30
0.0000000349246037
  9
$LIMMIN
 10
0.0
 20
0.0
  9
$LIMMAX
 10
21000.0
 20
14850.0
  9
$ORTHOMODE
 70
     0
  9
$REGENMODE
 70
     1
  9
$FILLMODE
 70
     1
  9
$QTEXTMODE
 70
     0
  9
$MIRRTEXT
 70
     1
  9
$LTSCALE
 40
20.0
  9
$ATTMODE
 70
     1
  9
$TEXTSIZE
 40
150.0
  9
$TRACEWID
 40
1.0
  9
$TEXTSTYLE
  7
STYLE1
  9
$CLAYER
  8
寸法
  9
$CELTYPE
  6
BYLAYER
  9
$CECOLOR
 62
   256
  9
$CELTSCALE
 40
50.0
  9
$DISPSILH
 70
     0
  9
$DIMSCALE
 40
1.0
  9
$DIMASZ
 40
125.0
  9
$DIMEXO
 40
25.0
  9
$DIMDLI
 40
7.0
  9
$DIMRND
 40
0.0
  9
$DIMDLE
 40
0.0
  9
$DIMEXE
 40
75.0
  9
$DIMTP
 40
0.0
  9
$DIMTM
 40
0.0
  9
$DIMTXT
 40
150.0
  9
$DIMCEN
 40
0.0
  9
$DIMTSZ
 40
0.0
  9
$DIMTOL
 70
     0
  9
$DIMLIM
 70
     0
  9
$DIMTIH
 70
     0
  9
$DIMTOH
 70
     0
  9
$DIMSE1
 70
     0
  9
$DIMSE2
 70
     0
  9
$DIMTAD
 70
     3
  9
$DIMZIN
 70
     8
  9
$DIMBLK
  1

  9
$DIMASO
 70
     1
  9
$DIMSHO
 70
     1
  9
$DIMPOST
  1

  9
$DIMAPOST
  1

  9
$DIMALT
 70
     0
  9
$DIMALTD
 70
     2
  9
$DIMALTF
 40
0.0394
  9
$DIMLFAC
 40
1.0
  9
$DIMTOFL
 70
     1
  9
$DIMTVP
 40
0.0
  9
$DIMTIX
 70
     1
  9
$DIMSOXD
 70
     1
  9
$DIMSAH
 70
     1
  9
$DIMBLK1
  1
DOTSMALL
  9
$DIMBLK2
  1
DOTSMALL
  9
$DIMSTYLE
  2
INABA_S50G
  9
$DIMCLRD
 70
     0
  9
$DIMCLRE
 70
     0
  9
$DIMCLRT
 70
     7
  9
$DIMTFAC
 40
1.0
  9
$DIMGAP
 40
25.0
  9
$DIMJUST
 70
     0
  9
$DIMSD1
 70
     0
  9
$DIMSD2
 70
     0
  9
$DIMTOLJ
 70
     1
  9
$DIMTZIN
 70
     0
  9
$DIMALTZ
 70
     0
  9
$DIMALTTZ
 70
     0
  9
$DIMUPT
 70
     0
  9
$DIMDEC
 70
     1
  9
$DIMTDEC
 70
     4
  9
$DIMALTU
 70
     2
  9
$DIMALTTD
 70
     2
  9
$DIMTXSTY
  7
STYLE1
  9
$DIMAUNIT
 70
     0
  9
$DIMADEC
 70
     0
  9
$DIMALTRND
 40
0.0
  9
$DIMAZIN
 70
     0
  9
$DIMDSEP
 70
    46
  9
$DIMATFIT
 70
     3
  9
$DIMFRAC
 70
     0
  9
$DIMLDRBLK
  1
DOTSMALL
  9
$DIMLUNIT
 70
     2
  9
$DIMLWD
 70
    -2
  9
$DIMLWE
 70
    -2
  9
$DIMTMOVE
 70
     0
  9
$LUNITS
 70
     2
  9
$LUPREC
 70
     1
  9
$SKETCHINC
 40
1.0
  9
$FILLETRAD
 40
200.0
  9
$AUNITS
 70
     0
  9
$AUPREC
 70
     0
  9
$MENU
  1
acad
  9
$ELEVATION
 40
0.0
  9
$PELEVATION
 40
0.0
  9
$THICKNESS
 40
0.0
  9
$LIMCHECK
 70
     0
  9
$CHAMFERA
 40
0.0
  9
$CHAMFERB
 40
0.0
  9
$CHAMFERC
 40
30.0
  9
$CHAMFERD
 40
0.7853981633974483
  9
$SKPOLY
 70
     0
  9
$TDCREATE
 40
2450927.380327778
  9
$TDUCREATE
 40
2450927.005327778
  9
$TDUPDATE
 40
2454882.480071065
  9
$TDUUPDATE
 40
2454882.105071065
  9
$TDINDWG
 40
1.9883234375
  9
$TDUSRTIMER
 40
1.9883225347
  9
$USRTIMER
 70
     1
  9
$ANGBASE
 50
0.0
  9
$ANGDIR
 70
     0
  9
$PDMODE
 70
     3
  9
$PDSIZE
 40
2.0
  9
$PLINEWID
 40
0.0
  9
$SPLFRAME
 70
     0
  9
$SPLINETYPE
 70
     6
  9
$SPLINESEGS
 70
     8
  9
$HANDSEED
  5
1F2D5
  9
$SURFTAB1
 70
     6
  9
$SURFTAB2
 70
     6
  9
$SURFTYPE
 70
     6
  9
$SURFU
 70
     6
  9
$SURFV
 70
     6
  9
$UCSBASE
  2

  9
$UCSNAME
  2

  9
$UCSORG
 10
0.0
 20
0.0
 30
0.0
  9
$UCSXDIR
 10
1.0
 20
0.0
 30
0.0
  9
$UCSYDIR
 10
0.0
 20
1.0
 30
0.0
  9
$UCSORTHOREF
  2

  9
$UCSORTHOVIEW
 70
     0
  9
$UCSORGTOP
 10
0.0
 20
0.0
 30
0.0
  9
$UCSORGBOTTOM
 10
0.0
 20
0.0
 30
0.0
  9
$UCSORGLEFT
 10
0.0
 20
0.0
 30
0.0
  9
$UCSORGRIGHT
 10
0.0
 20
0.0
 30
0.0
  9
$UCSORGFRONT
 10
0.0
 20
0.0
 30
0.0
  9
$UCSORGBACK
 10
0.0
 20
0.0
 30
0.0
  9
$PUCSBASE
  2

  9
$PUCSNAME
  2

  9
$PUCSORG
 10
0.0
 20
0.0
 30
0.0
  9
$PUCSXDIR
 10
1.0
 20
0.0
 30
0.0
  9
$PUCSYDIR
 10
0.0
 20
1.0
 30
0.0
  9
$PUCSORTHOREF
  2

  9
$PUCSORTHOVIEW
 70
     0
  9
$PUCSORGTOP
 10
0.0
 20
0.0
 30
0.0
  9
$PUCSORGBOTTOM
 10
0.0
 20
0.0
 30
0.0
  9
$PUCSORGLEFT
 10
0.0
 20
0.0
 30
0.0
  9
$PUCSORGRIGHT
 10
0.0
 20
0.0
 30
0.0
  9
$PUCSORGFRONT
 10
0.0
 20
0.0
 30
0.0
  9
$PUCSORGBACK
 10
0.0
 20
0.0
 30
0.0
  9
$USERI1
 70
     0
  9
$USERI2
 70
     0
  9
$USERI3
 70
     0
  9
$USERI4
 70
     0
  9
$USERI5
 70
     0
  9
$USERR1
 40
0.0
  9
$USERR2
 40
0.0
  9
$USERR3
 40
0.0
  9
$USERR4
 40
0.0
  9
$USERR5
 40
0.0
  9
$WORLDVIEW
 70
     1
  9
$SHADEDGE
 70
     3
  9
$SHADEDIF
 70
    70
  9
$TILEMODE
 70
     1
  9
$MAXACTVP
 70
    16
  9
$PINSBASE
 10
0.0
 20
0.0
 30
0.0
  9
$PLIMCHECK
 70
     0
  9
$PEXTMIN
 10
1.000000000000000E+20
 20
1.000000000000000E+20
 30
1.000000000000000E+20
  9
$PEXTMAX
 10
-1.000000000000000E+20
 20
-1.000000000000000E+20
 30
-1.000000000000000E+20
  9
$PLIMMIN
 10
0.0
 20
0.0
  9
$PLIMMAX
 10
420.0
 20
297.0
  9
$UNITMODE
 70
     0
  9
$VISRETAIN
 70
     0
  9
$PLINEGEN
 70
     0
  9
$PSLTSCALE
 70
     0
  9
$TREEDEPTH
 70
  3020
  9
$CMLSTYLE
  2
STANDARD
  9
$CMLJUST
 70
     0
  9
$CMLSCALE
 40
1.0
  9
$PROXYGRAPHICS
 70
     1
  9
$MEASUREMENT
 70
     1
  9
$CELWEIGHT
370
    -1
  9
$ENDCAPS
280
     0
  9
$JOINSTYLE
280
     0
  9
$LWDISPLAY
290
     0
  9
$INSUNITS
 70
     0
  9
$HYPERLINKBASE
  1

  9
$STYLESHEET
  1

  9
$XEDIT
290
     1
  9
$CEPSNTYPE
380
     0
  9
$PSTYLEMODE
290
     1
  9
$FINGERPRINTGUID
  2
{3A4AED84-7EBA-410B-8392-E919531848B6}
  9
$VERSIONGUID
  2
{59DDFF0A-4CED-4810-ABE3-90F2B90FC8CB}
  9
$EXTNAMES
290
     1
  9
$PSVPSCALE
 40
0.0
  9
$OLESTARTUP
290
     0
  9
$SORTENTS
280
    96
  9
$INDEXCTL
280
     0
  9
$HIDETEXT
280
     0
  9
$XCLIPFRAME
290
     0
  9
$HALOGAP
280
     0
  9
$OBSCOLOR
 70
   257
  9
$OBSLTYPE
280
     0
  9
$INTERSECTIONDISPLAY
280
     0
  9
$INTERSECTIONCOLOR
 70
   257
  9
$DIMASSOC
280
     1
  9
$PROJECTNAME
  1

  0
ENDSEC
  0
SECTION
  2
CLASSES
  0
CLASS
  1
DICTIONARYVAR
  2
AcDbDictionaryVar
  3
ObjectDBX Classes
 90
        0
 91
        1
280
     0
281
     0
  0
CLASS
  1
ACDBDICTIONARYWDFLT
  2
AcDbDictionaryWithDefault
  3
ObjectDBX Classes
 90
        0
 91
        1
280
     0
281
     0
  0
ENDSEC
  0
SECTION
  2
TABLES
  0
TABLE
  2
VPORT
  5
746D
330
0
100
AcDbSymbolTable
 70
     2
  0
VPORT
  5
1F2D4
330
746D
100
AcDbSymbolTableRecord
100
AcDbViewportTableRecord
  2
*Active
 70
     0
 10
0.0
 20
0.0
 11
1.0
 21
1.0
 12
10279.70128154813
 22
7130.995593925466
 13
0.0
 23
0.0
 14
10.0
 24
10.0
 15
10.0
 25
10.0
 16
0.0
 26
0.0
 36
1.0
 17
0.0
 27
0.0
 37
0.0
 40
17694.81119003843
 41
1.149397590361445
 42
50.0
 43
0.0
 44
0.0
 50
0.0
 51
0.0
 71
     0
 72
     0
 73
     1
 74
     0
 75
     0
 76
     0
 77
     0
 78
     0
281
     0
 65
     1
110
0.0
120
0.0
130
0.0
111
1.0
121
0.0
131
0.0
112
0.0
122
1.0
132
0.0
 79
     0
146
0.0
  0
ENDTAB
  0
TABLE
  2
LTYPE
  5
746A
330
0
100
AcDbSymbolTable
 70
     4
  0
LTYPE
  5
7477
330
746A
100
AcDbSymbolTableRecord
100
AcDbLinetypeTableRecord
  2
BYBLOCK
 70
     0
  3

 72
    65
 73
     0
 40
0.0
  0
LTYPE
  5
7478
330
746A
100
AcDbSymbolTableRecord
100
AcDbLinetypeTableRecord
  2
BYLAYER
 70
     0
  3

 72
    65
 73
     0
 40
0.0
  0
LTYPE
  5
7479
330
746A
100
AcDbSymbolTableRecord
100
AcDbLinetypeTableRecord
  2
CONTINUOUS
 70
     0
  3
Solid line
 72
    65
 73
     0
 40
0.0
  0
LTYPE
  5
7816
330
746A
100
AcDbSymbolTableRecord
100
AcDbLinetypeTableRecord
  2
CENTER
 70
     0
  3
____ _ ____ _ ____ _ ____ _ ____ _ ____ _ ____ 
 72
    65
 73
     4
 40
2.0
 49
1.25
 74
     0
 49
-0.25
 74
     0
 49
0.25
 74
     0
 49
-0.25
 74
     0
  0
LTYPE
  5
781B
330
746A
100
AcDbSymbolTableRecord
100
AcDbLinetypeTableRecord
  2
PHANTOM
 70
     0
  3
______  __  __  ______  __  __  ______  __  __ 
 72
    65
 73
     6
 40
2.5
 49
1.25
 74
     0
 49
-0.25
 74
     0
 49
0.25
 74
     0
 49
-0.25
 74
     0
 49
0.25
 74
     0
 49
-0.25
 74
     0
  0
LTYPE
  5
13F72
330
746A
100
AcDbSymbolTableRecord
100
AcDbLinetypeTableRecord
  2
HIDDEN
 70
     0
  3
__ __ __ __ __ __ __ __ __ __ __ __ __ __ __ __
 72
    65
 73
     2
 40
0.375
 49
0.25
 74
     0
 49
-0.125
 74
     0
  0
ENDTAB
  0
TABLE
  2
LAYER
  5
7467
330
0
100
AcDbSymbolTable
 70
    12
  0
LAYER
  5
7474
330
7467
100
AcDbSymbolTableRecord
100
AcDbLayerTableRecord
  2
0
 70
     0
 62
     7
  6
CONTINUOUS
370
    -3
390
1A1FA
  0
LAYER
  5
DEB2
330
7467
100
AcDbSymbolTableRecord
100
AcDbLayerTableRecord
  2
センター
 70
     0
 62
     3
  6
CENTER
370
    -3
390
1A1FA
  0
LAYER
  5
DEB3
330
7467
100
AcDbSymbolTableRecord
100
AcDbLayerTableRecord
  2
寸法
 70
     0
 62
     4
  6
CONTINUOUS
370
    -3
390
1A1FA
  0
LAYER
  5
DEB4
330
7467
100
AcDbSymbolTableRecord
100
AcDbLayerTableRecord
  2
部品1
 70
     0
 62
     7
  6
CONTINUOUS
370
    -3
390
1A1FA
  0
LAYER
  5
DEB5
330
7467
100
AcDbSymbolTableRecord
100
AcDbLayerTableRecord
  2
補助
 70
     0
 62
    -1
  6
CONTINUOUS
370
    -3
390
1A1FA
  0
LAYER
  5
DEB6
330
7467
100
AcDbSymbolTableRecord
100
AcDbLayerTableRecord
  2
文字
 70
     0
 62
     7
  6
CONTINUOUS
370
    -3
390
1A1FA
  0
LAYER
  5
F255
330
7467
100
AcDbSymbolTableRecord
100
AcDbLayerTableRecord
  2
DEFPOINTS
 70
     0
 62
     7
  6
CONTINUOUS
290
     0
370
    -3
390
1A1FA
  0
LAYER
  5
10B54
330
7467
100
AcDbSymbolTableRecord
100
AcDbLayerTableRecord
  2
仕様書枠
 70
     0
 62
   230
  6
CONTINUOUS
370
    -3
390
1A1FA
  0
LAYER
  5
13F73
330
7467
100
AcDbSymbolTableRecord
100
AcDbLayerTableRecord
  2
細線
 70
     0
 62
     5
  6
CONTINUOUS
370
    -3
390
1A1FA
  0
LAYER
  5
13F74
330
7467
100
AcDbSymbolTableRecord
100
AcDbLayerTableRecord
  2
点線
 70
     0
 62
     2
  6
HIDDEN
370
    -3
390
1A1FA
  0
LAYER
  5
1643F
330
7467
100
AcDbSymbolTableRecord
100
AcDbLayerTableRecord
  2
想像線
 70
     0
 62
     6
  6
PHANTOM
370
    -3
390
1A1FA
  0
LAYER
  5
18753
330
7467
100
AcDbSymbolTableRecord
100
AcDbLayerTableRecord
  2
Ｇ．Ｌ
 70
     0
 62
    30
  6
CONTINUOUS
370
    -3
390
1A1FA
  0
ENDTAB
  0
TABLE
  2
STYLE
  5
7468
330
0
100
AcDbSymbolTable
 70
     3
  0
STYLE
  5
7475
330
7468
100
AcDbSymbolTableRecord
100
AcDbTextStyleTableRecord
  2
STANDARD
 70
     0
 40
0.0
 41
1.0
 50
0.0
 71
     0
 42
4.0
  3
txt
  4
C:\AutoCAD LT\bigfont.shx
  0
STYLE
  5
F706
330
7468
100
AcDbSymbolTableRecord
100
AcDbTextStyleTableRecord
  2
STYLE1
 70
     0
 40
0.0
 41
1.0
 50
0.0
 71
     0
 42
150.0
  3
isocp.shx
  4
bigfont.shx
  0
STYLE
  5
103BF
330
7468
100
AcDbSymbolTableRecord
100
AcDbTextStyleTableRecord
  2
STYLE2
 70
     0
 40
0.0
 41
1.0
 50
0.0
 71
     0
 42
100.0
  3
MS PGothic.ttf
  4

1001
ACAD
1000
MS PGothic
1071
    32818
  0
ENDTAB
  0
TABLE
  2
VIEW
  5
746B
330
0
100
AcDbSymbolTable
 70
     0
  0
ENDTAB
  0
TABLE
  2
UCS
  5
746C
330
0
100
AcDbSymbolTable
 70
     0
  0
ENDTAB
  0
TABLE
  2
APPID
  5
746E
330
0
100
AcDbSymbolTable
 70
     6
  0
APPID
  5
7476
330
746E
100
AcDbSymbolTableRecord
100
AcDbRegAppTableRecord
  2
ACAD
 70
     0
  0
APPID
  5
DEA9
330
746E
100
AcDbSymbolTableRecord
100
AcDbRegAppTableRecord
  2
CONTENTBLOCKICON
 70
     0
  0
APPID
  5
DEAA
330
746E
100
AcDbSymbolTableRecord
100
AcDbRegAppTableRecord
  2
CONTENTBLOCKDESCRIPTION
 70
     0
  0
APPID
  5
E71D
330
746E
100
AcDbSymbolTableRecord
100
AcDbRegAppTableRecord
  2
CONTENTTABDATA
 70
     0
  0
APPID
  5
E71E
330
746E
100
AcDbSymbolTableRecord
100
AcDbRegAppTableRecord
  2
CONTENTCURRENTTAB
 70
     0
  0
APPID
  5
F3BA
330
746E
100
AcDbSymbolTableRecord
100
AcDbRegAppTableRecord
  2
DRAWINGVARIABLESXDATA
 70
     0
  0
ENDTAB
  0
TABLE
  2
DIMSTYLE
  5
746F
330
0
100
AcDbSymbolTable
 70
     2
100
AcDbDimStyleTable
 71
     0
  0
DIMSTYLE
105
7484
330
746F
100
AcDbSymbolTableRecord
100
AcDbDimStyleTableRecord
  2
JIS
 70
     0
 41
2.5
 42
1.0
 43
7.0
 44
1.0
 73
     0
 74
     0
 77
     1
 78
     8
140
2.5
141
0.0
143
0.0394
147
0.0
172
     1
174
     1
175
     1
340
7475
  0
DIMSTYLE
105
F71F
102
{ACAD_REACTORS
330
1E9D7
330
1E9DA
330
1E9DC
330
1E9E1
330
1E9E3
330
1E9E4
330
1E9E6
330
1E9E7
330
1E9F7
330
1E9F8
330
1EA12
330
1EA15
330
1EA16
330
1EAFE
330
1EAFF
330
1ED00
330
1ED02
330
1F24C
330
1F24D
330
1F250
330
1F25A
102
}
330
746F
100
AcDbSymbolTableRecord
100
AcDbDimStyleTableRecord
  2
INABA_S50G
 70
     0
 41
125.0
 42
25.0
 43
7.0
 44
75.0
 73
     0
 74
     0
 77
     3
 78
     8
140
150.0
141
0.0
143
0.0394
147
25.0
172
     1
173
     1
174
     1
175
     1
178
     7
271
     1
340
F706
341
F770
343
F770
344
F770
  0
ENDTAB
  0
TABLE
  2
BLOCK_RECORD
  5
7466
330
0
100
AcDbSymbolTable
 70
    33
  0
BLOCK_RECORD
  5
747D
330
7466
100
AcDbSymbolTableRecord
100
AcDbBlockTableRecord
  2
*MODEL_SPACE
340
1A1FD
  0
BLOCK_RECORD
  5
747A
330
7466
100
AcDbSymbolTableRecord
100
AcDbBlockTableRecord
  2
*PAPER_SPACE
340
1A1FE
  0
BLOCK_RECORD
  5
F770
330
7466
100
AcDbSymbolTableRecord
100
AcDbBlockTableRecord
  2
_DOTSMALL
340
0
102
{BLKREFS
331
1EF8C
331
1EF8D
331
1EF95
331
1EF96
331
1EF9E
331
1EF9F
331
1EFA7
331
1EFA8
331
1EFAF
331
1EFB0
331
1EFB7
331
1EFB8
331
1EFC0
331
1EFC1
331
1EFCA
331
1EFCB
331
1EFD4
331
1EFD5
331
1EFDE
331
1EFDF
331
1EFE7
331
1EFE8
331
1EFF1
331
1EFF2
331
1EFF9
331
1EFFA
331
1F002
331
1F003
331
1F00B
331
1F00C
331
1F013
331
1F014
331
1F01B
331
1F01C
331
1F024
331
1F025
331
1F02D
331
1F02E
331
1F036
331
1F037
331
1F040
331
1F041
331
1F049
331
1F04A
331
1F052
331
1F053
331
1F068
331
1F069
331
1F08D
331
1F08E
331
1F074
331
1F075
331
1F081
331
1F082
331
1F2B2
331
1F2B3
331
1F2BB
331
1F2BC
331
1F2C4
331
1F2C5
331
1F2CE
331
1F2CF
102
}
  0
BLOCK_RECORD
  5
18892
330
7466
100
AcDbSymbolTableRecord
100
AcDbBlockTableRecord
  2
*D1
340
0
  0
BLOCK_RECORD
  5
1889E
330
7466
100
AcDbSymbolTableRecord
100
AcDbBlockTableRecord
  2
*D2
340
0
  0
BLOCK_RECORD
  5
188AA
330
7466
100
AcDbSymbolTableRecord
100
AcDbBlockTableRecord
  2
*D3
340
0
  0
BLOCK_RECORD
  5
188B7
330
7466
100
AcDbSymbolTableRecord
100
AcDbBlockTableRecord
  2
*D4
340
0
  0
BLOCK_RECORD
  5
188C3
330
7466
100
AcDbSymbolTableRecord
100
AcDbBlockTableRecord
  2
*D5
340
0
  0
BLOCK_RECORD
  5
188CF
330
7466
100
AcDbSymbolTableRecord
100
AcDbBlockTableRecord
  2
*D6
340
0
  0
BLOCK_RECORD
  5
1ED09
330
7466
100
AcDbSymbolTableRecord
100
AcDbBlockTableRecord
  2
*D7
340
0
  0
BLOCK_RECORD
  5
1ED14
330
7466
100
AcDbSymbolTableRecord
100
AcDbBlockTableRecord
  2
*D8
340
0
  0
BLOCK_RECORD
  5
1ED1F
330
7466
100
AcDbSymbolTableRecord
100
AcDbBlockTableRecord
  2
*D9
340
0
  0
BLOCK_RECORD
  5
1ED2B
330
7466
100
AcDbSymbolTableRecord
100
AcDbBlockTableRecord
  2
*D10
340
0
  0
BLOCK_RECORD
  5
1ED37
330
7466
100
AcDbSymbolTableRecord
100
AcDbBlockTableRecord
  2
*D11
340
0
  0
BLOCK_RECORD
  5
1ED42
330
7466
100
AcDbSymbolTableRecord
100
AcDbBlockTableRecord
  2
*D12
340
0
  0
BLOCK_RECORD
  5
1ED4F
330
7466
100
AcDbSymbolTableRecord
100
AcDbBlockTableRecord
  2
*D13
340
0
  0
BLOCK_RECORD
  5
1ED5B
330
7466
100
AcDbSymbolTableRecord
100
AcDbBlockTableRecord
  2
*D14
340
0
  0
BLOCK_RECORD
  5
1ED68
330
7466
100
AcDbSymbolTableRecord
100
AcDbBlockTableRecord
  2
*D15
340
0
  0
BLOCK_RECORD
  5
1ED75
330
7466
100
AcDbSymbolTableRecord
100
AcDbBlockTableRecord
  2
*D16
340
0
  0
BLOCK_RECORD
  5
1ED82
330
7466
100
AcDbSymbolTableRecord
100
AcDbBlockTableRecord
  2
*D17
340
0
  0
BLOCK_RECORD
  5
1ED8E
330
7466
100
AcDbSymbolTableRecord
100
AcDbBlockTableRecord
  2
*D18
340
0
  0
BLOCK_RECORD
  5
1ED99
330
7466
100
AcDbSymbolTableRecord
100
AcDbBlockTableRecord
  2
*D19
340
0
  0
BLOCK_RECORD
  5
1EDA4
330
7466
100
AcDbSymbolTableRecord
100
AcDbBlockTableRecord
  2
*D20
340
0
  0
BLOCK_RECORD
  5
1EDB0
330
7466
100
AcDbSymbolTableRecord
100
AcDbBlockTableRecord
  2
*D21
340
0
  0
BLOCK_RECORD
  5
1EDBC
330
7466
100
AcDbSymbolTableRecord
100
AcDbBlockTableRecord
  2
*D22
340
0
  0
BLOCK_RECORD
  5
1EDC8
330
7466
100
AcDbSymbolTableRecord
100
AcDbBlockTableRecord
  2
*D23
340
0
  0
BLOCK_RECORD
  5
1F063
330
7466
100
AcDbSymbolTableRecord
100
AcDbBlockTableRecord
  2
*D24
340
0
  0
BLOCK_RECORD
  5
1F06F
330
7466
100
AcDbSymbolTableRecord
100
AcDbBlockTableRecord
  2
*D25
340
0
  0
BLOCK_RECORD
  5
1F07B
330
7466
100
AcDbSymbolTableRecord
100
AcDbBlockTableRecord
  2
*D26
340
0
  0
BLOCK_RECORD
  5
1F088
330
7466
100
AcDbSymbolTableRecord
100
AcDbBlockTableRecord
  2
*D27
340
0
  0
BLOCK_RECORD
  5
1F27E
330
7466
100
AcDbSymbolTableRecord
100
AcDbBlockTableRecord
  2
*D29
340
0
  0
BLOCK_RECORD
  5
1F28A
330
7466
100
AcDbSymbolTableRecord
100
AcDbBlockTableRecord
  2
*D30
340
0
  0
BLOCK_RECORD
  5
1F296
330
7466
100
AcDbSymbolTableRecord
100
AcDbBlockTableRecord
  2
*D31
340
0
  0
BLOCK_RECORD
  5
1F2A2
330
7466
100
AcDbSymbolTableRecord
100
AcDbBlockTableRecord
  2
*D32
340
0
  0
ENDTAB
  0
ENDSEC
  0
SECTION
  2
BLOCKS
  0
BLOCK
  5
7489
330
747D
100
AcDbEntity
  8
0
100
AcDbBlockBegin
  2
*MODEL_SPACE
 70
     0
 10
0.0
 20
0.0
 30
0.0
  3
*MODEL_SPACE
  1

  0
ENDBLK
  5
748A
330
747D
100
AcDbEntity
  8
0
100
AcDbBlockEnd
  0
BLOCK
  5
7487
330
747A
100
AcDbEntity
 67
     1
  8
0
100
AcDbBlockBegin
  2
*PAPER_SPACE
 70
     0
 10
0.0
 20
0.0
 30
0.0
  3
*PAPER_SPACE
  1

  0
ENDBLK
  5
7488
330
747A
100
AcDbEntity
 67
     1
  8
0
100
AcDbBlockEnd
  0
BLOCK
  5
F771
330
F770
100
AcDbEntity
  8
0
 48
50.0
100
AcDbBlockBegin
  2
_DOTSMALL
 70
     0
 10
0.0
 20
0.0
 30
0.0
  3
_DOTSMALL
  1

  0
LWPOLYLINE
  5
F772
330
F770
100
AcDbEntity
  8
0
  6
ByBlock
 62
     0
 48
50.0
100
AcDbPolyline
 90
        2
 70
     1
 43
0.5
 10
-0.0625
 20
0.0
 42
1.0
 10
0.0625
 20
0.0
 42
1.0
  0
ENDBLK
  5
F776
330
F770
100
AcDbEntity
  8
0
 48
50.0
100
AcDbBlockEnd
  0
BLOCK
  5
188DB
330
18892
100
AcDbEntity
  8
0
 48
50.0
100
AcDbBlockBegin
  2
*D1
 70
     1
 10
0.0
 20
0.0
 30
0.0
  3
*D1
  1

  0
LINE
  5
1F04F
330
18892
100
AcDbEntity
  8
寸法
 62
     0
 48
50.0
370
    -2
100
AcDbLine
 10
10621.47449085893
 20
2029.373661269834
 30
0.0
 11
10190.75447588975
 21
2029.373661269834
 31
0.0
  0
LINE
  5
1F050
330
18892
100
AcDbEntity
  8
寸法
 62
     0
 48
50.0
370
    -2
100
AcDbLine
 10
10577.47449085893
 20
1459.373661269833
 30
0.0
 11
10190.75447588975
 21
1459.373661269833
 31
0.0
  0
LINE
  5
1F051
330
18892
100
AcDbEntity
  8
寸法
 62
     0
 48
50.0
370
    -2
100
AcDbLine
 10
10265.75447588975
 20
2029.373661269834
 30
0.0
 11
10265.75447588975
 21
1459.373661269833
 31
0.0
  0
INSERT
  5
1F052
330
18892
100
AcDbEntity
  8
寸法
 62
     0
 48
50.0
370
    -2
100
AcDbBlockReference
  2
_DOTSMALL
 10
10265.75447588975
 20
2029.373661269834
 30
0.0
 41
125.0
 42
125.0
 43
125.0
 50
90.0
  0
INSERT
  5
1F053
330
18892
100
AcDbEntity
  8
寸法
 62
     0
 48
50.0
370
    -2
100
AcDbBlockReference
  2
_DOTSMALL
 10
10265.75447588975
 20
1459.373661269833
 30
0.0
 41
125.0
 42
125.0
 43
125.0
 50
270.0
  0
MTEXT
  5
1F054
330
18892
100
AcDbEntity
  8
寸法
 62
     7
 48
50.0
100
AcDbMText
 10
10165.73971211022
 20
1744.373661269835
 30
0.0
 40
150.0
 41
0.0
 71
     5
 72
     1
  1
\A1;285
  7
STYLE1
 11
0.0000000000000001
 21
1.0
 31
0.0
 73
     1
 44
1.0
  0
POINT
  5
1F055
330
18892
100
AcDbEntity
  8
DEFPOINTS
 62
     0
 48
50.0
100
AcDbPoint
 10
10646.47449085893
 20
2029.373661269834
 30
0.0
  0
POINT
  5
1F056
330
18892
100
AcDbEntity
  8
DEFPOINTS
 62
     0
 48
50.0
100
AcDbPoint
 10
10602.47449085893
 20
1459.373661269833
 30
0.0
  0
POINT
  5
1F057
330
18892
100
AcDbEntity
  8
DEFPOINTS
 62
     0
 48
50.0
100
AcDbPoint
 10
10265.75447588975
 20
1459.373661269833
 30
0.0
  0
ENDBLK
  5
188E5
330
18892
100
AcDbEntity
  8
0
 48
50.0
100
AcDbBlockEnd
  0
BLOCK
  5
188E6
330
1889E
100
AcDbEntity
  8
0
 48
50.0
100
AcDbBlockBegin
  2
*D2
 70
     1
 10
0.0
 20
0.0
 30
0.0
  3
*D2
  1

  0
LINE
  5
1F046
330
1889E
100
AcDbEntity
  8
寸法
 62
     0
 48
50.0
370
    -2
100
AcDbLine
 10
10023.30215180335
 20
1749.373661269833
 30
0.0
 11
9908.343789282213
 21
1749.373661269833
 31
0.0
  0
LINE
  5
1F047
330
1889E
100
AcDbEntity
  8
寸法
 62
     0
 48
50.0
370
    -2
100
AcDbLine
 10
10433.47449085893
 20
1349.373661269834
 30
0.0
 11
9908.343789282213
 21
1349.373661269834
 31
0.0
  0
LINE
  5
1F048
330
1889E
100
AcDbEntity
  8
寸法
 62
     0
 48
50.0
370
    -2
100
AcDbLine
 10
9983.343789282216
 20
1749.373661269833
 30
0.0
 11
9983.343789282216
 21
1349.373661269834
 31
0.0
  0
INSERT
  5
1F049
330
1889E
100
AcDbEntity
  8
寸法
 62
     0
 48
50.0
370
    -2
100
AcDbBlockReference
  2
_DOTSMALL
 10
9983.343789282216
 20
1749.373661269833
 30
0.0
 41
125.0
 42
125.0
 43
125.0
 50
90.0
  0
INSERT
  5
1F04A
330
1889E
100
AcDbEntity
  8
寸法
 62
     0
 48
50.0
370
    -2
100
AcDbBlockReference
  2
_DOTSMALL
 10
9983.343789282216
 20
1349.373661269834
 30
0.0
 41
125.0
 42
125.0
 43
125.0
 50
270.0
  0
MTEXT
  5
1F04B
330
1889E
100
AcDbEntity
  8
寸法
 62
     7
 48
50.0
100
AcDbMText
 10
9883.329025502689
 20
1549.373661269835
 30
0.0
 40
150.0
 41
0.0
 71
     5
 72
     1
  1
\A1;200
  7
STYLE1
 11
0.0000000000000001
 21
1.0
 31
0.0
 73
     1
 44
1.0
  0
POINT
  5
1F04C
330
1889E
100
AcDbEntity
  8
DEFPOINTS
 62
     0
 48
50.0
100
AcDbPoint
 10
10048.30215180335
 20
1749.373661269833
 30
0.0
  0
POINT
  5
1F04D
330
1889E
100
AcDbEntity
  8
DEFPOINTS
 62
     0
 48
50.0
100
AcDbPoint
 10
10458.47449085893
 20
1349.373661269834
 30
0.0
  0
POINT
  5
1F04E
330
1889E
100
AcDbEntity
  8
DEFPOINTS
 62
     0
 48
50.0
100
AcDbPoint
 10
9983.343789282216
 20
1349.373661269834
 30
0.0
  0
ENDBLK
  5
188F0
330
1889E
100
AcDbEntity
  8
0
 48
50.0
100
AcDbBlockEnd
  0
BLOCK
  5
188F1
330
188AA
100
AcDbEntity
  8
0
 48
50.0
100
AcDbBlockBegin
  2
*D3
 70
     1
 10
0.0
 20
0.0
 30
0.0
  3
*D3
  1

  0
LINE
  5
1F03C
330
188AA
100
AcDbEntity
  8
寸法
 62
     0
 48
50.0
370
    -2
100
AcDbLine
 10
10240.75447588975
 20
1949.373661269834
 30
0.0
 11
9908.992508710598
 21
1949.373661269834
 31
0.0
  0
LINE
  5
1F03D
330
188AA
100
AcDbEntity
  8
寸法
 62
     0
 48
50.0
370
    -2
100
AcDbLine
 10
10023.30215180335
 20
1749.373661269833
 30
0.0
 11
9908.992508710598
 21
1749.373661269833
 31
0.0
  0
LINE
  5
1F03E
330
188AA
100
AcDbEntity
  8
寸法
 62
     0
 48
50.0
370
    -2
100
AcDbLine
 10
9983.992508710601
 20
1749.373661269833
 30
0.0
 11
9983.992508710601
 21
1949.373661269834
 31
0.0
  0
LINE
  5
1F03F
330
188AA
100
AcDbEntity
  8
寸法
 62
     0
 48
50.0
370
    -2
100
AcDbLine
 10
9983.992508710601
 20
1949.373661269834
 30
0.0
 11
9983.992508710601
 21
2381.396299065108
 31
0.0
  0
INSERT
  5
1F040
330
188AA
100
AcDbEntity
  8
寸法
 62
     0
 48
50.0
370
    -2
100
AcDbBlockReference
  2
_DOTSMALL
 10
9983.992508710601
 20
1749.373661269833
 30
0.0
 41
125.0
 42
125.0
 43
125.0
 50
270.0
  0
INSERT
  5
1F041
330
188AA
100
AcDbEntity
  8
寸法
 62
     0
 48
50.0
370
    -2
100
AcDbBlockReference
  2
_DOTSMALL
 10
9983.992508710601
 20
1949.373661269834
 30
0.0
 41
125.0
 42
125.0
 43
125.0
 50
90.0
  0
MTEXT
  5
1F042
330
188AA
100
AcDbEntity
  8
寸法
 62
     7
 48
50.0
100
AcDbMText
 10
9883.992508710598
 20
2236.337243947
 30
0.0
 40
150.0
 41
0.0
 71
     5
 72
     1
  1
\A1;100
  7
STYLE1
 11
0.0000000000000001
 21
1.0
 31
0.0
 73
     1
 44
1.0
  0
POINT
  5
1F043
330
188AA
100
AcDbEntity
  8
DEFPOINTS
 62
     0
 48
50.0
100
AcDbPoint
 10
10265.75447588975
 20
1949.373661269834
 30
0.0
  0
POINT
  5
1F044
330
188AA
100
AcDbEntity
  8
DEFPOINTS
 62
     0
 48
50.0
100
AcDbPoint
 10
10048.30215180335
 20
1749.373661269833
 30
0.0
  0
POINT
  5
1F045
330
188AA
100
AcDbEntity
  8
DEFPOINTS
 62
     0
 48
50.0
100
AcDbPoint
 10
9983.992508710601
 20
1749.373661269833
 30
0.0
  0
ENDBLK
  5
188FC
330
188AA
100
AcDbEntity
  8
0
 48
50.0
100
AcDbBlockEnd
  0
BLOCK
  5
188FD
330
188B7
100
AcDbEntity
  8
0
 48
50.0
100
AcDbBlockBegin
  2
*D4
 70
     1
 10
0.0
 20
0.0
 30
0.0
  3
*D4
  1

  0
LINE
  5
1F033
330
188B7
100
AcDbEntity
  8
寸法
 62
     0
 48
50.0
370
    -2
100
AcDbLine
 10
12489.69235086196
 20
1324.373661269834
 30
0.0
 11
12489.69235086196
 21
947.8906957845302
 31
0.0
  0
LINE
  5
1F034
330
188B7
100
AcDbEntity
  8
寸法
 62
     0
 48
50.0
370
    -2
100
AcDbLine
 10
12089.69235086196
 20
1324.373661269834
 30
0.0
 11
12089.69235086196
 21
947.8906957845302
 31
0.0
  0
LINE
  5
1F035
330
188B7
100
AcDbEntity
  8
寸法
 62
     0
 48
50.0
370
    -2
100
AcDbLine
 10
12489.69235086196
 20
1022.89069578453
 30
0.0
 11
12089.69235086196
 21
1022.89069578453
 31
0.0
  0
INSERT
  5
1F036
330
188B7
100
AcDbEntity
  8
寸法
 62
     0
 48
50.0
370
    -2
100
AcDbBlockReference
  2
_DOTSMALL
 10
12489.69235086196
 20
1022.89069578453
 30
0.0
 41
125.0
 42
125.0
 43
125.0
  0
INSERT
  5
1F037
330
188B7
100
AcDbEntity
  8
寸法
 62
     0
 48
50.0
370
    -2
100
AcDbBlockReference
  2
_DOTSMALL
 10
12089.69235086196
 20
1022.89069578453
 30
0.0
 41
125.0
 42
125.0
 43
125.0
 50
180.0
  0
MTEXT
  5
1F038
330
188B7
100
AcDbEntity
  8
寸法
 62
     7
 48
50.0
100
AcDbMText
 10
12289.69235086196
 20
1122.905459564057
 30
0.0
 40
150.0
 41
0.0
 71
     5
 72
     1
  1
\A1;200
  7
STYLE1
 73
     1
 44
1.0
  0
POINT
  5
1F039
330
188B7
100
AcDbEntity
  8
DEFPOINTS
 62
     0
 48
50.0
100
AcDbPoint
 10
12489.69235086196
 20
1349.373661269834
 30
0.0
  0
POINT
  5
1F03A
330
188B7
100
AcDbEntity
  8
DEFPOINTS
 62
     0
 48
50.0
100
AcDbPoint
 10
12089.69235086196
 20
1349.373661269834
 30
0.0
  0
POINT
  5
1F03B
330
188B7
100
AcDbEntity
  8
DEFPOINTS
 62
     0
 48
50.0
100
AcDbPoint
 10
12089.69235086196
 20
1022.89069578453
 30
0.0
  0
ENDBLK
  5
18907
330
188B7
100
AcDbEntity
  8
0
 48
50.0
100
AcDbBlockEnd
  0
BLOCK
  5
18908
330
188C3
100
AcDbEntity
  8
0
 48
50.0
100
AcDbBlockBegin
  2
*D5
 70
     1
 10
0.0
 20
0.0
 30
0.0
  3
*D5
  1

  0
LINE
  5
1F02A
330
188C3
100
AcDbEntity
  8
寸法
 62
     0
 48
50.0
370
    -2
100
AcDbLine
 10
10858.47449085893
 20
1324.373661269834
 30
0.0
 11
10858.47449085893
 21
947.8906957845302
 31
0.0
  0
LINE
  5
1F02B
330
188C3
100
AcDbEntity
  8
寸法
 62
     0
 48
50.0
370
    -2
100
AcDbLine
 10
10458.47449085893
 20
1324.373661269834
 30
0.0
 11
10458.47449085893
 21
947.8906957845302
 31
0.0
  0
LINE
  5
1F02C
330
188C3
100
AcDbEntity
  8
寸法
 62
     0
 48
50.0
370
    -2
100
AcDbLine
 10
10858.47449085893
 20
1022.89069578453
 30
0.0
 11
10458.47449085893
 21
1022.89069578453
 31
0.0
  0
INSERT
  5
1F02D
330
188C3
100
AcDbEntity
  8
寸法
 62
     0
 48
50.0
370
    -2
100
AcDbBlockReference
  2
_DOTSMALL
 10
10858.47449085893
 20
1022.89069578453
 30
0.0
 41
125.0
 42
125.0
 43
125.0
  0
INSERT
  5
1F02E
330
188C3
100
AcDbEntity
  8
寸法
 62
     0
 48
50.0
370
    -2
100
AcDbBlockReference
  2
_DOTSMALL
 10
10458.47449085893
 20
1022.89069578453
 30
0.0
 41
125.0
 42
125.0
 43
125.0
 50
180.0
  0
MTEXT
  5
1F02F
330
188C3
100
AcDbEntity
  8
寸法
 62
     7
 48
50.0
100
AcDbMText
 10
10658.47449085893
 20
1122.905459564057
 30
0.0
 40
150.0
 41
0.0
 71
     5
 72
     1
  1
\A1;200
  7
STYLE1
 73
     1
 44
1.0
  0
POINT
  5
1F030
330
188C3
100
AcDbEntity
  8
DEFPOINTS
 62
     0
 48
50.0
100
AcDbPoint
 10
10858.47449085893
 20
1349.373661269834
 30
0.0
  0
POINT
  5
1F031
330
188C3
100
AcDbEntity
  8
DEFPOINTS
 62
     0
 48
50.0
100
AcDbPoint
 10
10458.47449085893
 20
1349.373661269834
 30
0.0
  0
POINT
  5
1F032
330
188C3
100
AcDbEntity
  8
DEFPOINTS
 62
     0
 48
50.0
100
AcDbPoint
 10
10458.47449085893
 20
1022.89069578453
 30
0.0
  0
ENDBLK
  5
18912
330
188C3
100
AcDbEntity
  8
0
 48
50.0
100
AcDbBlockEnd
  0
BLOCK
  5
18913
330
188CF
100
AcDbEntity
  8
0
 48
50.0
100
AcDbBlockBegin
  2
*D6
 70
     1
 10
0.0
 20
0.0
 30
0.0
  3
*D6
  1

  0
LINE
  5
1F021
330
188CF
100
AcDbEntity
  8
寸法
 62
     0
 48
50.0
370
    -2
100
AcDbLine
 10
11654.52001180637
 20
1749.373661269833
 30
0.0
 11
11539.56164928524
 21
1749.373661269833
 31
0.0
  0
LINE
  5
1F022
330
188CF
100
AcDbEntity
  8
寸法
 62
     0
 48
50.0
370
    -2
100
AcDbLine
 10
12064.69235086196
 20
1349.373661269834
 30
0.0
 11
11539.56164928524
 21
1349.373661269834
 31
0.0
  0
LINE
  5
1F023
330
188CF
100
AcDbEntity
  8
寸法
 62
     0
 48
50.0
370
    -2
100
AcDbLine
 10
11614.56164928524
 20
1749.373661269833
 30
0.0
 11
11614.56164928524
 21
1349.373661269834
 31
0.0
  0
INSERT
  5
1F024
330
188CF
100
AcDbEntity
  8
寸法
 62
     0
 48
50.0
370
    -2
100
AcDbBlockReference
  2
_DOTSMALL
 10
11614.56164928524
 20
1749.373661269833
 30
0.0
 41
125.0
 42
125.0
 43
125.0
 50
90.0
  0
INSERT
  5
1F025
330
188CF
100
AcDbEntity
  8
寸法
 62
     0
 48
50.0
370
    -2
100
AcDbBlockReference
  2
_DOTSMALL
 10
11614.56164928524
 20
1349.373661269834
 30
0.0
 41
125.0
 42
125.0
 43
125.0
 50
270.0
  0
MTEXT
  5
1F026
330
188CF
100
AcDbEntity
  8
寸法
 62
     7
 48
50.0
100
AcDbMText
 10
11514.54688550571
 20
1549.373661269835
 30
0.0
 40
150.0
 41
0.0
 71
     5
 72
     1
  1
\A1;200
  7
STYLE1
 11
0.0000000000000001
 21
1.0
 31
0.0
 73
     1
 44
1.0
  0
POINT
  5
1F027
330
188CF
100
AcDbEntity
  8
DEFPOINTS
 62
     0
 48
50.0
100
AcDbPoint
 10
11679.52001180637
 20
1749.373661269833
 30
0.0
  0
POINT
  5
1F028
330
188CF
100
AcDbEntity
  8
DEFPOINTS
 62
     0
 48
50.0
100
AcDbPoint
 10
12089.69235086196
 20
1349.373661269834
 30
0.0
  0
POINT
  5
1F029
330
188CF
100
AcDbEntity
  8
DEFPOINTS
 62
     0
 48
50.0
100
AcDbPoint
 10
11614.56164928524
 20
1349.373661269834
 30
0.0
  0
ENDBLK
  5
1891D
330
188CF
100
AcDbEntity
  8
0
 48
50.0
100
AcDbBlockEnd
  0
BLOCK
  5
1ED12
330
1ED09
100
AcDbEntity
  8
0
 48
50.0
100
AcDbBlockBegin
  2
*D7
 70
     1
 10
0.0
 20
0.0
 30
0.0
  3
*D7
  1

  0
LINE
  5
1F019
330
1ED09
100
AcDbEntity
  8
寸法
 62
     0
 48
50.0
370
    -2
100
AcDbLine
 10
8878.500000000011
 20
6399.955177899421
 30
0.0
 11
8218.499999999991
 21
6399.955177899421
 31
0.0
  0
LINE
  5
1F01A
330
1ED09
100
AcDbEntity
  8
寸法
 62
     0
 48
50.0
370
    -2
100
AcDbLine
 10
8293.499999999992
 20
6905.955177899421
 30
0.0
 11
8293.499999999992
 21
6399.955177899421
 31
0.0
  0
INSERT
  5
1F01B
330
1ED09
100
AcDbEntity
  8
寸法
 62
     0
 48
50.0
370
    -2
100
AcDbBlockReference
  2
_DOTSMALL
 10
8293.499999999992
 20
6905.955177899421
 30
0.0
 41
125.0
 42
125.0
 43
125.0
 50
90.0
  0
INSERT
  5
1F01C
330
1ED09
100
AcDbEntity
  8
寸法
 62
     0
 48
50.0
370
    -2
100
AcDbBlockReference
  2
_DOTSMALL
 10
8293.499999999992
 20
6399.955177899421
 30
0.0
 41
125.0
 42
125.0
 43
125.0
 50
270.0
  0
MTEXT
  5
1F01D
330
1ED09
100
AcDbEntity
  8
寸法
 62
     7
 48
50.0
100
AcDbMText
 10
8193.499999999989
 20
6652.955177899423
 30
0.0
 40
150.0
 41
0.0
 71
     5
 72
     1
  1
\A1;506
  7
STYLE1
 11
0.0000000000000001
 21
1.0
 31
0.0
 73
     1
 44
1.0
  0
POINT
  5
1F01E
330
1ED09
100
AcDbEntity
  8
DEFPOINTS
 62
     0
 48
50.0
100
AcDbPoint
 10
9540.500000000013
 20
6905.955177899421
 30
0.0
  0
POINT
  5
1F01F
330
1ED09
100
AcDbEntity
  8
DEFPOINTS
 62
     0
 48
50.0
100
AcDbPoint
 10
8903.500000000011
 20
6399.955177899421
 30
0.0
  0
POINT
  5
1F020
330
1ED09
100
AcDbEntity
  8
DEFPOINTS
 62
     0
 48
50.0
100
AcDbPoint
 10
8293.499999999992
 20
6399.955177899421
 30
0.0
  0
ENDBLK
  5
1ED13
330
1ED09
100
AcDbEntity
  8
0
 48
50.0
100
AcDbBlockEnd
  0
BLOCK
  5
1ED1D
330
1ED14
100
AcDbEntity
  8
0
 48
50.0
100
AcDbBlockBegin
  2
*D8
 70
     1
 10
0.0
 20
0.0
 30
0.0
  3
*D8
  1

  0
LINE
  5
1F011
330
1ED14
100
AcDbEntity
  8
寸法
 62
     0
 48
50.0
370
    -2
100
AcDbLine
 10
11680.49999999999
 20
6399.955177899421
 30
0.0
 11
12440.49999999999
 21
6399.955177899421
 31
0.0
  0
LINE
  5
1F012
330
1ED14
100
AcDbEntity
  8
寸法
 62
     0
 48
50.0
370
    -2
100
AcDbLine
 10
12365.49999999999
 20
7340.955177899424
 30
0.0
 11
12365.49999999999
 21
6399.955177899421
 31
0.0
  0
INSERT
  5
1F013
330
1ED14
100
AcDbEntity
  8
寸法
 62
     0
 48
50.0
370
    -2
100
AcDbBlockReference
  2
_DOTSMALL
 10
12365.49999999999
 20
7340.955177899424
 30
0.0
 41
125.0
 42
125.0
 43
125.0
 50
90.0
  0
INSERT
  5
1F014
330
1ED14
100
AcDbEntity
  8
寸法
 62
     0
 48
50.0
370
    -2
100
AcDbBlockReference
  2
_DOTSMALL
 10
12365.49999999999
 20
6399.955177899421
 30
0.0
 41
125.0
 42
125.0
 43
125.0
 50
270.0
  0
MTEXT
  5
1F015
330
1ED14
100
AcDbEntity
  8
寸法
 62
     7
 48
50.0
100
AcDbMText
 10
12265.49999999998
 20
6870.455177899424
 30
0.0
 40
150.0
 41
0.0
 71
     5
 72
     1
  1
\A1;941
  7
STYLE1
 11
0.0000000000000001
 21
1.0
 31
0.0
 73
     1
 44
1.0
  0
POINT
  5
1F016
330
1ED14
100
AcDbEntity
  8
DEFPOINTS
 62
     0
 48
50.0
100
AcDbPoint
 10
11510.49999999999
 20
7340.955177899424
 30
0.0
  0
POINT
  5
1F017
330
1ED14
100
AcDbEntity
  8
DEFPOINTS
 62
     0
 48
50.0
100
AcDbPoint
 10
11655.49999999999
 20
6399.955177899421
 30
0.0
  0
POINT
  5
1F018
330
1ED14
100
AcDbEntity
  8
DEFPOINTS
 62
     0
 48
50.0
100
AcDbPoint
 10
12365.49999999999
 20
6399.955177899421
 30
0.0
  0
ENDBLK
  5
1ED1E
330
1ED14
100
AcDbEntity
  8
0
 48
50.0
100
AcDbBlockEnd
  0
BLOCK
  5
1ED29
330
1ED1F
100
AcDbEntity
  8
0
 48
50.0
100
AcDbBlockBegin
  2
*D9
 70
     1
 10
0.0
 20
0.0
 30
0.0
  3
*D9
  1

  0
LINE
  5
1F008
330
1ED1F
100
AcDbEntity
  8
寸法
 62
     0
 48
50.0
370
    -2
100
AcDbLine
 10
11680.49999999999
 20
6399.955177899421
 30
0.0
 11
12790.5
 21
6399.955177899421
 31
0.0
  0
LINE
  5
1F009
330
1ED1F
100
AcDbEntity
  8
寸法
 62
     0
 48
50.0
370
    -2
100
AcDbLine
 10
11680.49999999999
 20
8281.955177899423
 30
0.0
 11
12790.5
 21
8281.955177899421
 31
0.0
  0
LINE
  5
1F00A
330
1ED1F
100
AcDbEntity
  8
寸法
 62
     0
 48
50.0
370
    -2
100
AcDbLine
 10
12715.50000000001
 20
6399.955177899421
 30
0.0
 11
12715.50000000001
 21
8281.955177899421
 31
0.0
  0
INSERT
  5
1F00B
330
1ED1F
100
AcDbEntity
  8
寸法
 62
     0
 48
50.0
370
    -2
100
AcDbBlockReference
  2
_DOTSMALL
 10
12715.50000000001
 20
6399.955177899421
 30
0.0
 41
125.0
 42
125.0
 43
125.0
 50
270.0
  0
INSERT
  5
1F00C
330
1ED1F
100
AcDbEntity
  8
寸法
 62
     0
 48
50.0
370
    -2
100
AcDbBlockReference
  2
_DOTSMALL
 10
12715.50000000001
 20
8281.955177899421
 30
0.0
 41
125.0
 42
125.0
 43
125.0
 50
90.0
  0
MTEXT
  5
1F00D
330
1ED1F
100
AcDbEntity
  8
寸法
 62
     7
 48
50.0
100
AcDbMText
 10
12615.48523622048
 20
7340.955177899424
 30
0.0
 40
150.0
 41
0.0
 71
     5
 72
     1
  1
\A1;1882
  7
STYLE1
 11
0.0000000000000001
 21
1.0
 31
0.0
 73
     1
 44
1.0
  0
POINT
  5
1F00E
330
1ED1F
100
AcDbEntity
  8
DEFPOINTS
 62
     0
 48
50.0
100
AcDbPoint
 10
11655.49999999999
 20
6399.955177899421
 30
0.0
  0
POINT
  5
1F00F
330
1ED1F
100
AcDbEntity
  8
DEFPOINTS
 62
     0
 48
50.0
100
AcDbPoint
 10
11655.49999999999
 20
8281.955177899423
 30
0.0
  0
POINT
  5
1F010
330
1ED1F
100
AcDbEntity
  8
DEFPOINTS
 62
     0
 48
50.0
100
AcDbPoint
 10
12715.50000000001
 20
8281.955177899421
 30
0.0
  0
ENDBLK
  5
1ED2A
330
1ED1F
100
AcDbEntity
  8
0
 48
50.0
100
AcDbBlockEnd
  0
BLOCK
  5
1ED35
330
1ED2B
100
AcDbEntity
  8
0
 48
50.0
100
AcDbBlockBegin
  2
*D10
 70
     1
 10
0.0
 20
0.0
 30
0.0
  3
*D10
  1

  0
LINE
  5
1EFFF
330
1ED2B
100
AcDbEntity
  8
寸法
 62
     0
 48
50.0
370
    -2
100
AcDbLine
 10
9048.499999999991
 20
6229.955177899423
 30
0.0
 11
9048.499999999991
 21
5389.955177899423
 31
0.0
  0
LINE
  5
1F000
330
1ED2B
100
AcDbEntity
  8
寸法
 62
     0
 48
50.0
370
    -2
100
AcDbLine
 10
11510.49999999999
 20
6229.955177899423
 30
0.0
 11
11510.49999999999
 21
5389.955177899423
 31
0.0
  0
LINE
  5
1F001
330
1ED2B
100
AcDbEntity
  8
寸法
 62
     0
 48
50.0
370
    -2
100
AcDbLine
 10
9048.499999999991
 20
5464.955177899422
 30
0.0
 11
11510.49999999999
 21
5464.955177899422
 31
0.0
  0
INSERT
  5
1F002
330
1ED2B
100
AcDbEntity
  8
寸法
 62
     0
 48
50.0
370
    -2
100
AcDbBlockReference
  2
_DOTSMALL
 10
9048.499999999991
 20
5464.955177899422
 30
0.0
 41
125.0
 42
125.0
 43
125.0
 50
180.0
  0
INSERT
  5
1F003
330
1ED2B
100
AcDbEntity
  8
寸法
 62
     0
 48
50.0
370
    -2
100
AcDbBlockReference
  2
_DOTSMALL
 10
11510.49999999999
 20
5464.955177899422
 30
0.0
 41
125.0
 42
125.0
 43
125.0
  0
MTEXT
  5
1F004
330
1ED2B
100
AcDbEntity
  8
寸法
 62
     7
 48
50.0
100
AcDbMText
 10
10279.49999999999
 20
5564.96994167895
 30
0.0
 40
150.0
 41
0.0
 71
     5
 72
     1
  1
\A1;2462
  7
STYLE1
 73
     1
 44
1.0
  0
POINT
  5
1F005
330
1ED2B
100
AcDbEntity
  8
DEFPOINTS
 62
     0
 48
50.0
100
AcDbPoint
 10
9048.499999999991
 20
6254.955177899423
 30
0.0
  0
POINT
  5
1F006
330
1ED2B
100
AcDbEntity
  8
DEFPOINTS
 62
     0
 48
50.0
100
AcDbPoint
 10
11510.49999999999
 20
6254.955177899423
 30
0.0
  0
POINT
  5
1F007
330
1ED2B
100
AcDbEntity
  8
DEFPOINTS
 62
     0
 48
50.0
100
AcDbPoint
 10
11510.49999999999
 20
5464.955177899422
 30
0.0
  0
ENDBLK
  5
1ED36
330
1ED2B
100
AcDbEntity
  8
0
 48
50.0
100
AcDbBlockEnd
  0
BLOCK
  5
1ED40
330
1ED37
100
AcDbEntity
  8
0
 48
50.0
100
AcDbBlockBegin
  2
*D11
 70
     1
 10
0.0
 20
0.0
 30
0.0
  3
*D11
  1

  0
LINE
  5
1EFF7
330
1ED37
100
AcDbEntity
  8
寸法
 62
     0
 48
50.0
370
    -2
100
AcDbLine
 10
11510.49999999999
 20
6229.955177899423
 30
0.0
 11
11510.49999999999
 21
5789.955177899423
 31
0.0
  0
LINE
  5
1EFF8
330
1ED37
100
AcDbEntity
  8
寸法
 62
     0
 48
50.0
370
    -2
100
AcDbLine
 10
10279.49999999999
 20
5864.955177899423
 30
0.0
 11
11510.49999999999
 21
5864.955177899423
 31
0.0
  0
INSERT
  5
1EFF9
330
1ED37
100
AcDbEntity
  8
寸法
 62
     0
 48
50.0
370
    -2
100
AcDbBlockReference
  2
_DOTSMALL
 10
10279.49999999999
 20
5864.955177899423
 30
0.0
 41
125.0
 42
125.0
 43
125.0
 50
180.0
  0
INSERT
  5
1EFFA
330
1ED37
100
AcDbEntity
  8
寸法
 62
     0
 48
50.0
370
    -2
100
AcDbBlockReference
  2
_DOTSMALL
 10
11510.49999999999
 20
5864.955177899423
 30
0.0
 41
125.0
 42
125.0
 43
125.0
  0
MTEXT
  5
1EFFB
330
1ED37
100
AcDbEntity
  8
寸法
 62
     7
 48
50.0
100
AcDbMText
 10
10894.99999999999
 20
5964.96994167895
 30
0.0
 40
150.0
 41
0.0
 71
     5
 72
     1
  1
\A1;1231
  7
STYLE1
 73
     1
 44
1.0
  0
POINT
  5
1EFFC
330
1ED37
100
AcDbEntity
  8
DEFPOINTS
 62
     0
 48
50.0
100
AcDbPoint
 10
10279.49999999999
 20
6334.955177899423
 30
0.0
  0
POINT
  5
1EFFD
330
1ED37
100
AcDbEntity
  8
DEFPOINTS
 62
     0
 48
50.0
100
AcDbPoint
 10
11510.49999999999
 20
6254.955177899423
 30
0.0
  0
POINT
  5
1EFFE
330
1ED37
100
AcDbEntity
  8
DEFPOINTS
 62
     0
 48
50.0
100
AcDbPoint
 10
11510.49999999999
 20
5864.955177899423
 30
0.0
  0
ENDBLK
  5
1ED41
330
1ED37
100
AcDbEntity
  8
0
 48
50.0
100
AcDbBlockEnd
  0
BLOCK
  5
1ED4D
330
1ED42
100
AcDbEntity
  8
0
 48
50.0
100
AcDbBlockBegin
  2
*D12
 70
     1
 10
0.0
 20
0.0
 30
0.0
  3
*D12
  1

  0
LINE
  5
1EFED
330
1ED42
100
AcDbEntity
  8
寸法
 62
     0
 48
50.0
370
    -2
100
AcDbLine
 10
8878.500000000011
 20
6399.955177899421
 30
0.0
 11
8218.499999999993
 21
6399.955177899421
 31
0.0
  0
LINE
  5
1EFEE
330
1ED42
100
AcDbEntity
  8
寸法
 62
     0
 48
50.0
370
    -2
100
AcDbLine
 10
9954.499999999992
 20
6334.955177899423
 30
0.0
 11
8218.499999999993
 21
6334.955177899423
 31
0.0
  0
LINE
  5
1EFEF
330
1ED42
100
AcDbEntity
  8
寸法
 62
     0
 48
50.0
370
    -2
100
AcDbLine
 10
8293.499999999992
 20
6399.955177899421
 30
0.0
 11
8293.499999999992
 21
6334.955177899423
 31
0.0
  0
LINE
  5
1EFF0
330
1ED42
100
AcDbEntity
  8
寸法
 62
     0
 48
50.0
370
    -2
100
AcDbLine
 10
8293.499999999992
 20
6334.955177899423
 30
0.0
 11
8293.499999999992
 21
5426.241974463827
 31
0.0
  0
INSERT
  5
1EFF1
330
1ED42
100
AcDbEntity
  8
寸法
 62
     0
 48
50.0
370
    -2
100
AcDbBlockReference
  2
_DOTSMALL
 10
8293.499999999992
 20
6399.955177899421
 30
0.0
 41
125.0
 42
125.0
 43
125.0
 50
90.0
  0
INSERT
  5
1EFF2
330
1ED42
100
AcDbEntity
  8
寸法
 62
     0
 48
50.0
370
    -2
100
AcDbBlockReference
  2
_DOTSMALL
 10
8293.499999999992
 20
6334.955177899423
 30
0.0
 41
125.0
 42
125.0
 43
125.0
 50
270.0
  0
MTEXT
  5
1EFF3
330
1ED42
100
AcDbEntity
  8
寸法
 62
     7
 48
50.0
100
AcDbMText
 10
8193.499999999991
 20
5818.098576181625
 30
0.0
 40
150.0
 41
0.0
 71
     5
 72
     1
  1
\A1;扉の出65
  7
STYLE1
 11
0.0000000000000001
 21
1.0
 31
0.0
 73
     1
 44
1.0
  0
POINT
  5
1EFF4
330
1ED42
100
AcDbEntity
  8
DEFPOINTS
 62
     0
 48
50.0
100
AcDbPoint
 10
8903.500000000011
 20
6399.955177899421
 30
0.0
  0
POINT
  5
1EFF5
330
1ED42
100
AcDbEntity
  8
DEFPOINTS
 62
     0
 48
50.0
100
AcDbPoint
 10
9979.499999999992
 20
6334.955177899423
 30
0.0
  0
POINT
  5
1EFF6
330
1ED42
100
AcDbEntity
  8
DEFPOINTS
 62
     0
 48
50.0
100
AcDbPoint
 10
8293.499999999992
 20
6334.955177899423
 30
0.0
  0
ENDBLK
  5
1ED4E
330
1ED42
100
AcDbEntity
  8
0
 48
50.0
100
AcDbBlockEnd
  0
BLOCK
  5
1ED59
330
1ED4F
100
AcDbEntity
  8
0
 48
50.0
100
AcDbBlockBegin
  2
*D13
 70
     1
 10
0.0
 20
0.0
 30
0.0
  3
*D13
  1

  0
LINE
  5
1EFE4
330
1ED4F
100
AcDbEntity
  8
寸法
 62
     0
 48
50.0
370
    -2
100
AcDbLine
 10
9048.499999999991
 20
6229.955177899423
 30
0.0
 11
9048.499999999991
 21
5789.955177899423
 31
0.0
  0
LINE
  5
1EFE5
330
1ED4F
100
AcDbEntity
  8
寸法
 62
     0
 48
50.0
370
    -2
100
AcDbLine
 10
10279.49999999999
 20
6309.955177899424
 30
0.0
 11
10279.49999999999
 21
5789.955177899423
 31
0.0
  0
LINE
  5
1EFE6
330
1ED4F
100
AcDbEntity
  8
寸法
 62
     0
 48
50.0
370
    -2
100
AcDbLine
 10
9048.499999999991
 20
5864.955177899423
 30
0.0
 11
10279.49999999999
 21
5864.955177899423
 31
0.0
  0
INSERT
  5
1EFE7
330
1ED4F
100
AcDbEntity
  8
寸法
 62
     0
 48
50.0
370
    -2
100
AcDbBlockReference
  2
_DOTSMALL
 10
9048.499999999991
 20
5864.955177899423
 30
0.0
 41
125.0
 42
125.0
 43
125.0
 50
180.0
  0
INSERT
  5
1EFE8
330
1ED4F
100
AcDbEntity
  8
寸法
 62
     0
 48
50.0
370
    -2
100
AcDbBlockReference
  2
_DOTSMALL
 10
10279.49999999999
 20
5864.955177899423
 30
0.0
 41
125.0
 42
125.0
 43
125.0
  0
MTEXT
  5
1EFE9
330
1ED4F
100
AcDbEntity
  8
寸法
 62
     7
 48
50.0
100
AcDbMText
 10
9663.999999999992
 20
5964.96994167895
 30
0.0
 40
150.0
 41
0.0
 71
     5
 72
     1
  1
\A1;1231
  7
STYLE1
 73
     1
 44
1.0
  0
POINT
  5
1EFEA
330
1ED4F
100
AcDbEntity
  8
DEFPOINTS
 62
     0
 48
50.0
100
AcDbPoint
 10
9048.499999999991
 20
6254.955177899423
 30
0.0
  0
POINT
  5
1EFEB
330
1ED4F
100
AcDbEntity
  8
DEFPOINTS
 62
     0
 48
50.0
100
AcDbPoint
 10
10279.49999999999
 20
6334.955177899423
 30
0.0
  0
POINT
  5
1EFEC
330
1ED4F
100
AcDbEntity
  8
DEFPOINTS
 62
     0
 48
50.0
100
AcDbPoint
 10
10279.49999999999
 20
5864.955177899423
 30
0.0
  0
ENDBLK
  5
1ED5A
330
1ED4F
100
AcDbEntity
  8
0
 48
50.0
100
AcDbBlockEnd
  0
BLOCK
  5
1ED66
330
1ED5B
100
AcDbEntity
  8
0
 48
50.0
100
AcDbBlockBegin
  2
*D14
 70
     1
 10
0.0
 20
0.0
 30
0.0
  3
*D14
  1

  0
LINE
  5
1EFDA
330
1ED5B
100
AcDbEntity
  8
寸法
 62
     0
 48
50.0
370
    -2
100
AcDbLine
 10
8993.499999999992
 20
6239.955177899423
 30
0.0
 11
8993.499999999992
 21
5389.955177899423
 31
0.0
  0
LINE
  5
1EFDB
330
1ED5B
100
AcDbEntity
  8
寸法
 62
     0
 48
50.0
370
    -2
100
AcDbLine
 10
9048.499999999991
 20
6229.955177899423
 30
0.0
 11
9048.499999999991
 21
5389.955177899423
 31
0.0
  0
LINE
  5
1EFDC
330
1ED5B
100
AcDbEntity
  8
寸法
 62
     0
 48
50.0
370
    -2
100
AcDbLine
 10
9048.499999999991
 20
5464.955177899422
 30
0.0
 11
8993.499999999992
 21
5464.955177899422
 31
0.0
  0
LINE
  5
1EFDD
330
1ED5B
100
AcDbEntity
  8
寸法
 62
     0
 48
50.0
370
    -2
100
AcDbLine
 10
8993.499999999992
 20
5464.955177899422
 30
0.0
 11
8533.618110236211
 21
5464.955177899422
 31
0.0
  0
INSERT
  5
1EFDE
330
1ED5B
100
AcDbEntity
  8
寸法
 62
     0
 48
50.0
370
    -2
100
AcDbBlockReference
  2
_DOTSMALL
 10
9048.499999999991
 20
5464.955177899422
 30
0.0
 41
125.0
 42
125.0
 43
125.0
  0
INSERT
  5
1EFDF
330
1ED5B
100
AcDbEntity
  8
寸法
 62
     0
 48
50.0
370
    -2
100
AcDbBlockReference
  2
_DOTSMALL
 10
8993.499999999992
 20
5464.955177899422
 30
0.0
 41
125.0
 42
125.0
 43
125.0
 50
180.0
  0
MTEXT
  5
1EFE0
330
1ED5B
100
AcDbEntity
  8
寸法
 62
     7
 48
50.0
100
AcDbMText
 10
8701.059055118101
 20
5572.455177899422
 30
0.0
 40
150.0
 41
0.0
 71
     5
 72
     1
  1
\A1;(55)
  7
STYLE1
 73
     1
 44
1.0
  0
POINT
  5
1EFE1
330
1ED5B
100
AcDbEntity
  8
DEFPOINTS
 62
     0
 48
50.0
100
AcDbPoint
 10
8993.499999999992
 20
6264.955177899423
 30
0.0
  0
POINT
  5
1EFE2
330
1ED5B
100
AcDbEntity
  8
DEFPOINTS
 62
     0
 48
50.0
100
AcDbPoint
 10
9048.499999999991
 20
6254.955177899423
 30
0.0
  0
POINT
  5
1EFE3
330
1ED5B
100
AcDbEntity
  8
DEFPOINTS
 62
     0
 48
50.0
100
AcDbPoint
 10
9048.499999999991
 20
5464.955177899422
 30
0.0
  0
ENDBLK
  5
1ED67
330
1ED5B
100
AcDbEntity
  8
0
 48
50.0
100
AcDbBlockEnd
  0
BLOCK
  5
1ED73
330
1ED68
100
AcDbEntity
  8
0
 48
50.0
100
AcDbBlockBegin
  2
*D15
 70
     1
 10
0.0
 20
0.0
 30
0.0
  3
*D15
  1

  0
LINE
  5
1EFD0
330
1ED68
100
AcDbEntity
  8
寸法
 62
     0
 48
50.0
370
    -2
100
AcDbLine
 10
11510.49999999999
 20
6229.955177899423
 30
0.0
 11
11510.49999999999
 21
5389.955177899423
 31
0.0
  0
LINE
  5
1EFD1
330
1ED68
100
AcDbEntity
  8
寸法
 62
     0
 48
50.0
370
    -2
100
AcDbLine
 10
11565.5
 20
6239.955177899423
 30
0.0
 11
11565.5
 21
5389.955177899423
 31
0.0
  0
LINE
  5
1EFD2
330
1ED68
100
AcDbEntity
  8
寸法
 62
     0
 48
50.0
370
    -2
100
AcDbLine
 10
11510.49999999999
 20
5464.955177899422
 30
0.0
 11
11565.5
 21
5464.955177899422
 31
0.0
  0
LINE
  5
1EFD3
330
1ED68
100
AcDbEntity
  8
寸法
 62
     0
 48
50.0
370
    -2
100
AcDbLine
 10
11565.5
 20
5464.955177899422
 30
0.0
 11
12025.38188976379
 21
5464.955177899422
 31
0.0
  0
INSERT
  5
1EFD4
330
1ED68
100
AcDbEntity
  8
寸法
 62
     0
 48
50.0
370
    -2
100
AcDbBlockReference
  2
_DOTSMALL
 10
11510.49999999999
 20
5464.955177899422
 30
0.0
 41
125.0
 42
125.0
 43
125.0
 50
180.0
  0
INSERT
  5
1EFD5
330
1ED68
100
AcDbEntity
  8
寸法
 62
     0
 48
50.0
370
    -2
100
AcDbBlockReference
  2
_DOTSMALL
 10
11565.5
 20
5464.955177899422
 30
0.0
 41
125.0
 42
125.0
 43
125.0
  0
MTEXT
  5
1EFD6
330
1ED68
100
AcDbEntity
  8
寸法
 62
     7
 48
50.0
100
AcDbMText
 10
11857.9409448819
 20
5572.455177899422
 30
0.0
 40
150.0
 41
0.0
 71
     5
 72
     1
  1
\A1;(55)
  7
STYLE1
 73
     1
 44
1.0
  0
POINT
  5
1EFD7
330
1ED68
100
AcDbEntity
  8
DEFPOINTS
 62
     0
 48
50.0
100
AcDbPoint
 10
11510.49999999999
 20
6254.955177899423
 30
0.0
  0
POINT
  5
1EFD8
330
1ED68
100
AcDbEntity
  8
DEFPOINTS
 62
     0
 48
50.0
100
AcDbPoint
 10
11565.5
 20
6264.955177899423
 30
0.0
  0
POINT
  5
1EFD9
330
1ED68
100
AcDbEntity
  8
DEFPOINTS
 62
     0
 48
50.0
100
AcDbPoint
 10
11565.5
 20
5464.955177899422
 30
0.0
  0
ENDBLK
  5
1ED74
330
1ED68
100
AcDbEntity
  8
0
 48
50.0
100
AcDbBlockEnd
  0
BLOCK
  5
1ED80
330
1ED75
100
AcDbEntity
  8
0
 48
50.0
100
AcDbBlockBegin
  2
*D16
 70
     1
 10
0.0
 20
0.0
 30
0.0
  3
*D16
  1

  0
LINE
  5
1EFC6
330
1ED75
100
AcDbEntity
  8
寸法
 62
     0
 48
50.0
370
    -2
100
AcDbLine
 10
11680.49999999999
 20
6399.955177899421
 30
0.0
 11
12790.50000000001
 21
6399.955177899421
 31
0.0
  0
LINE
  5
1EFC7
330
1ED75
100
AcDbEntity
  8
寸法
 62
     0
 48
50.0
370
    -2
100
AcDbLine
 10
11590.50000000001
 20
6264.955177899423
 30
0.0
 11
12790.50000000001
 21
6264.955177899423
 31
0.0
  0
LINE
  5
1EFC8
330
1ED75
100
AcDbEntity
  8
寸法
 62
     0
 48
50.0
370
    -2
100
AcDbLine
 10
12715.50000000001
 20
6399.955177899421
 30
0.0
 11
12715.50000000001
 21
6264.955177899423
 31
0.0
  0
LINE
  5
1EFC9
330
1ED75
100
AcDbEntity
  8
寸法
 62
     0
 48
50.0
370
    -2
100
AcDbLine
 10
12715.50000000001
 20
6264.955177899423
 30
0.0
 11
12715.50000000001
 21
5730.073288135642
 31
0.0
  0
INSERT
  5
1EFCA
330
1ED75
100
AcDbEntity
  8
寸法
 62
     0
 48
50.0
370
    -2
100
AcDbBlockReference
  2
_DOTSMALL
 10
12715.50000000001
 20
6399.955177899421
 30
0.0
 41
125.0
 42
125.0
 43
125.0
 50
90.0
  0
INSERT
  5
1EFCB
330
1ED75
100
AcDbEntity
  8
寸法
 62
     0
 48
50.0
370
    -2
100
AcDbBlockReference
  2
_DOTSMALL
 10
12715.50000000001
 20
6264.955177899423
 30
0.0
 41
125.0
 42
125.0
 43
125.0
 50
270.0
  0
MTEXT
  5
1EFCC
330
1ED75
100
AcDbEntity
  8
寸法
 62
     7
 48
50.0
100
AcDbMText
 10
12608.00000000001
 20
5935.014233017533
 30
0.0
 40
150.0
 41
0.0
 71
     5
 72
     1
  1
\A1;(135)
  7
STYLE1
 11
0.0000000000000001
 21
1.0
 31
0.0
 73
     1
 44
1.0
  0
POINT
  5
1EFCD
330
1ED75
100
AcDbEntity
  8
DEFPOINTS
 62
     0
 48
50.0
100
AcDbPoint
 10
11655.49999999999
 20
6399.955177899421
 30
0.0
  0
POINT
  5
1EFCE
330
1ED75
100
AcDbEntity
  8
DEFPOINTS
 62
     0
 48
50.0
100
AcDbPoint
 10
11565.5
 20
6264.955177899423
 30
0.0
  0
POINT
  5
1EFCF
330
1ED75
100
AcDbEntity
  8
DEFPOINTS
 62
     0
 48
50.0
100
AcDbPoint
 10
12715.50000000001
 20
6264.955177899423
 30
0.0
  0
ENDBLK
  5
1ED81
330
1ED75
100
AcDbEntity
  8
0
 48
50.0
100
AcDbBlockEnd
  0
BLOCK
  5
1ED8C
330
1ED82
100
AcDbEntity
  8
0
 48
50.0
100
AcDbBlockBegin
  2
*D17
 70
     1
 10
0.0
 20
0.0
 30
0.0
  3
*D17
  1

  0
LINE
  5
1EFBD
330
1ED82
100
AcDbEntity
  8
寸法
 62
     0
 48
50.0
370
    -2
100
AcDbLine
 10
8493.47047244095
 20
8281.955177899423
 30
0.0
 11
8218.499999999991
 21
8281.955177899423
 31
0.0
  0
LINE
  5
1EFBE
330
1ED82
100
AcDbEntity
  8
寸法
 62
     0
 48
50.0
370
    -2
100
AcDbLine
 10
9515.500000000013
 20
7775.955177899421
 30
0.0
 11
8218.499999999991
 21
7775.955177899421
 31
0.0
  0
LINE
  5
1EFBF
330
1ED82
100
AcDbEntity
  8
寸法
 62
     0
 48
50.0
370
    -2
100
AcDbLine
 10
8293.499999999992
 20
8281.955177899423
 30
0.0
 11
8293.499999999992
 21
7775.955177899421
 31
0.0
  0
INSERT
  5
1EFC0
330
1ED82
100
AcDbEntity
  8
寸法
 62
     0
 48
50.0
370
    -2
100
AcDbBlockReference
  2
_DOTSMALL
 10
8293.499999999992
 20
8281.955177899423
 30
0.0
 41
125.0
 42
125.0
 43
125.0
 50
90.0
  0
INSERT
  5
1EFC1
330
1ED82
100
AcDbEntity
  8
寸法
 62
     0
 48
50.0
370
    -2
100
AcDbBlockReference
  2
_DOTSMALL
 10
8293.499999999992
 20
7775.955177899421
 30
0.0
 41
125.0
 42
125.0
 43
125.0
 50
270.0
  0
MTEXT
  5
1EFC2
330
1ED82
100
AcDbEntity
  8
寸法
 62
     7
 48
50.0
100
AcDbMText
 10
8193.499999999989
 20
8028.955177899423
 30
0.0
 40
150.0
 41
0.0
 71
     5
 72
     1
  1
\A1;506
  7
STYLE1
 11
0.0000000000000001
 21
1.0
 31
0.0
 73
     1
 44
1.0
  0
POINT
  5
1EFC3
330
1ED82
100
AcDbEntity
  8
DEFPOINTS
 62
     0
 48
50.0
100
AcDbPoint
 10
8518.470472440951
 20
8281.955177899423
 30
0.0
  0
POINT
  5
1EFC4
330
1ED82
100
AcDbEntity
  8
DEFPOINTS
 62
     0
 48
50.0
100
AcDbPoint
 10
9540.500000000013
 20
7775.955177899421
 30
0.0
  0
POINT
  5
1EFC5
330
1ED82
100
AcDbEntity
  8
DEFPOINTS
 62
     0
 48
50.0
100
AcDbPoint
 10
8293.499999999992
 20
7775.955177899421
 30
0.0
  0
ENDBLK
  5
1ED8D
330
1ED82
100
AcDbEntity
  8
0
 48
50.0
100
AcDbBlockEnd
  0
BLOCK
  5
1ED97
330
1ED8E
100
AcDbEntity
  8
0
 48
50.0
100
AcDbBlockBegin
  2
*D18
 70
     1
 10
0.0
 20
0.0
 30
0.0
  3
*D18
  1

  0
LINE
  5
1EFB5
330
1ED8E
100
AcDbEntity
  8
寸法
 62
     0
 48
50.0
370
    -2
100
AcDbLine
 10
9515.500000000013
 20
6905.955177899421
 30
0.0
 11
8218.499999999991
 21
6905.955177899421
 31
0.0
  0
LINE
  5
1EFB6
330
1ED8E
100
AcDbEntity
  8
寸法
 62
     0
 48
50.0
370
    -2
100
AcDbLine
 10
8293.499999999992
 20
7340.955177899424
 30
0.0
 11
8293.499999999992
 21
6905.955177899421
 31
0.0
  0
INSERT
  5
1EFB7
330
1ED8E
100
AcDbEntity
  8
寸法
 62
     0
 48
50.0
370
    -2
100
AcDbBlockReference
  2
_DOTSMALL
 10
8293.499999999992
 20
7340.955177899424
 30
0.0
 41
125.0
 42
125.0
 43
125.0
 50
90.0
  0
INSERT
  5
1EFB8
330
1ED8E
100
AcDbEntity
  8
寸法
 62
     0
 48
50.0
370
    -2
100
AcDbBlockReference
  2
_DOTSMALL
 10
8293.499999999992
 20
6905.955177899421
 30
0.0
 41
125.0
 42
125.0
 43
125.0
 50
270.0
  0
MTEXT
  5
1EFB9
330
1ED8E
100
AcDbEntity
  8
寸法
 62
     7
 48
50.0
100
AcDbMText
 10
8193.499999999989
 20
7123.455177899424
 30
0.0
 40
150.0
 41
0.0
 71
     5
 72
     1
  1
\A1;435
  7
STYLE1
 11
0.0000000000000001
 21
1.0
 31
0.0
 73
     1
 44
1.0
  0
POINT
  5
1EFBA
330
1ED8E
100
AcDbEntity
  8
DEFPOINTS
 62
     0
 48
50.0
100
AcDbPoint
 10
9048.499999999991
 20
7340.955177899424
 30
0.0
  0
POINT
  5
1EFBB
330
1ED8E
100
AcDbEntity
  8
DEFPOINTS
 62
     0
 48
50.0
100
AcDbPoint
 10
9540.500000000013
 20
6905.955177899421
 30
0.0
  0
POINT
  5
1EFBC
330
1ED8E
100
AcDbEntity
  8
DEFPOINTS
 62
     0
 48
50.0
100
AcDbPoint
 10
8293.499999999992
 20
6905.955177899421
 30
0.0
  0
ENDBLK
  5
1ED98
330
1ED8E
100
AcDbEntity
  8
0
 48
50.0
100
AcDbBlockEnd
  0
BLOCK
  5
1EDA2
330
1ED99
100
AcDbEntity
  8
0
 48
50.0
100
AcDbBlockBegin
  2
*D19
 70
     1
 10
0.0
 20
0.0
 30
0.0
  3
*D19
  1

  0
LINE
  5
1EFAD
330
1ED99
100
AcDbEntity
  8
寸法
 62
     0
 48
50.0
370
    -2
100
AcDbLine
 10
9023.499999999991
 20
7340.955177899424
 30
0.0
 11
8218.499999999991
 21
7340.955177899424
 31
0.0
  0
LINE
  5
1EFAE
330
1ED99
100
AcDbEntity
  8
寸法
 62
     0
 48
50.0
370
    -2
100
AcDbLine
 10
8293.499999999992
 20
7775.955177899421
 30
0.0
 11
8293.499999999992
 21
7340.955177899424
 31
0.0
  0
INSERT
  5
1EFAF
330
1ED99
100
AcDbEntity
  8
寸法
 62
     0
 48
50.0
370
    -2
100
AcDbBlockReference
  2
_DOTSMALL
 10
8293.499999999992
 20
7775.955177899421
 30
0.0
 41
125.0
 42
125.0
 43
125.0
 50
90.0
  0
INSERT
  5
1EFB0
330
1ED99
100
AcDbEntity
  8
寸法
 62
     0
 48
50.0
370
    -2
100
AcDbBlockReference
  2
_DOTSMALL
 10
8293.499999999992
 20
7340.955177899424
 30
0.0
 41
125.0
 42
125.0
 43
125.0
 50
270.0
  0
MTEXT
  5
1EFB1
330
1ED99
100
AcDbEntity
  8
寸法
 62
     7
 48
50.0
100
AcDbMText
 10
8193.499999999989
 20
7558.455177899424
 30
0.0
 40
150.0
 41
0.0
 71
     5
 72
     1
  1
\A1;435
  7
STYLE1
 11
0.0000000000000001
 21
1.0
 31
0.0
 73
     1
 44
1.0
  0
POINT
  5
1EFB2
330
1ED99
100
AcDbEntity
  8
DEFPOINTS
 62
     0
 48
50.0
100
AcDbPoint
 10
9540.500000000013
 20
7775.955177899421
 30
0.0
  0
POINT
  5
1EFB3
330
1ED99
100
AcDbEntity
  8
DEFPOINTS
 62
     0
 48
50.0
100
AcDbPoint
 10
9048.499999999991
 20
7340.955177899424
 30
0.0
  0
POINT
  5
1EFB4
330
1ED99
100
AcDbEntity
  8
DEFPOINTS
 62
     0
 48
50.0
100
AcDbPoint
 10
8293.499999999992
 20
7340.955177899424
 30
0.0
  0
ENDBLK
  5
1EDA3
330
1ED99
100
AcDbEntity
  8
0
 48
50.0
100
AcDbBlockEnd
  0
BLOCK
  5
1EDAE
330
1EDA4
100
AcDbEntity
  8
0
 48
50.0
100
AcDbBlockBegin
  2
*D20
 70
     1
 10
0.0
 20
0.0
 30
0.0
  3
*D20
  1

  0
LINE
  5
1EFA4
330
1EDA4
100
AcDbEntity
  8
寸法
 62
     0
 48
50.0
370
    -2
100
AcDbLine
 10
8923.499999999991
 20
8381.955177899421
 30
0.0
 11
8618.499999999993
 21
8381.955177899421
 31
0.0
  0
LINE
  5
1EFA5
330
1EDA4
100
AcDbEntity
  8
寸法
 62
     0
 48
50.0
370
    -2
100
AcDbLine
 10
8923.499999999991
 20
8181.955177899423
 30
0.0
 11
8618.499999999993
 21
8181.955177899423
 31
0.0
  0
LINE
  5
1EFA6
330
1EDA4
100
AcDbEntity
  8
寸法
 62
     0
 48
50.0
370
    -2
100
AcDbLine
 10
8693.499999999993
 20
8381.955177899421
 30
0.0
 11
8693.499999999993
 21
8181.955177899423
 31
0.0
  0
INSERT
  5
1EFA7
330
1EDA4
100
AcDbEntity
  8
寸法
 62
     0
 48
50.0
370
    -2
100
AcDbBlockReference
  2
_DOTSMALL
 10
8693.499999999993
 20
8381.955177899421
 30
0.0
 41
125.0
 42
125.0
 43
125.0
 50
90.0
  0
INSERT
  5
1EFA8
330
1EDA4
100
AcDbEntity
  8
寸法
 62
     0
 48
50.0
370
    -2
100
AcDbBlockReference
  2
_DOTSMALL
 10
8693.499999999993
 20
8181.955177899423
 30
0.0
 41
125.0
 42
125.0
 43
125.0
 50
270.0
  0
MTEXT
  5
1EFA9
330
1EDA4
100
AcDbEntity
  8
寸法
 62
     7
 48
50.0
100
AcDbMText
 10
8593.485236220464
 20
8281.955177899424
 30
0.0
 40
150.0
 41
0.0
 71
     5
 72
     1
  1
\A1;200
  7
STYLE1
 11
0.0000000000000001
 21
1.0
 31
0.0
 73
     1
 44
1.0
  0
POINT
  5
1EFAA
330
1EDA4
100
AcDbEntity
  8
DEFPOINTS
 62
     0
 48
50.0
100
AcDbPoint
 10
8948.499999999992
 20
8381.955177899421
 30
0.0
  0
POINT
  5
1EFAB
330
1EDA4
100
AcDbEntity
  8
DEFPOINTS
 62
     0
 48
50.0
100
AcDbPoint
 10
8948.499999999992
 20
8181.955177899423
 30
0.0
  0
POINT
  5
1EFAC
330
1EDA4
100
AcDbEntity
  8
DEFPOINTS
 62
     0
 48
50.0
100
AcDbPoint
 10
8693.499999999993
 20
8181.955177899423
 30
0.0
  0
ENDBLK
  5
1EDAF
330
1EDA4
100
AcDbEntity
  8
0
 48
50.0
100
AcDbBlockEnd
  0
BLOCK
  5
1EDBA
330
1EDB0
100
AcDbEntity
  8
0
 48
50.0
100
AcDbBlockBegin
  2
*D21
 70
     1
 10
0.0
 20
0.0
 30
0.0
  3
*D21
  1

  0
LINE
  5
1EF9B
330
1EDB0
100
AcDbEntity
  8
寸法
 62
     0
 48
50.0
370
    -2
100
AcDbLine
 10
9148.50000000001
 20
8406.955177899421
 30
0.0
 11
9148.50000000001
 21
8751.955177899423
 31
0.0
  0
LINE
  5
1EF9C
330
1EDB0
100
AcDbEntity
  8
寸法
 62
     0
 48
50.0
370
    -2
100
AcDbLine
 10
8948.499999999992
 20
8406.955177899424
 30
0.0
 11
8948.499999999992
 21
8751.955177899423
 31
0.0
  0
LINE
  5
1EF9D
330
1EDB0
100
AcDbEntity
  8
寸法
 62
     0
 48
50.0
370
    -2
100
AcDbLine
 10
9148.50000000001
 20
8676.955177899424
 30
0.0
 11
8948.499999999992
 21
8676.955177899424
 31
0.0
  0
INSERT
  5
1EF9E
330
1EDB0
100
AcDbEntity
  8
寸法
 62
     0
 48
50.0
370
    -2
100
AcDbBlockReference
  2
_DOTSMALL
 10
9148.50000000001
 20
8676.955177899424
 30
0.0
 41
125.0
 42
125.0
 43
125.0
  0
INSERT
  5
1EF9F
330
1EDB0
100
AcDbEntity
  8
寸法
 62
     0
 48
50.0
370
    -2
100
AcDbBlockReference
  2
_DOTSMALL
 10
8948.499999999992
 20
8676.955177899424
 30
0.0
 41
125.0
 42
125.0
 43
125.0
 50
180.0
  0
MTEXT
  5
1EFA0
330
1EDB0
100
AcDbEntity
  8
寸法
 62
     7
 48
50.0
100
AcDbMText
 10
9048.5
 20
8776.969941678952
 30
0.0
 40
150.0
 41
0.0
 71
     5
 72
     1
  1
\A1;200
  7
STYLE1
 73
     1
 44
1.0
  0
POINT
  5
1EFA1
330
1EDB0
100
AcDbEntity
  8
DEFPOINTS
 62
     0
 48
50.0
100
AcDbPoint
 10
9148.50000000001
 20
8381.955177899421
 30
0.0
  0
POINT
  5
1EFA2
330
1EDB0
100
AcDbEntity
  8
DEFPOINTS
 62
     0
 48
50.0
100
AcDbPoint
 10
8948.499999999992
 20
8381.955177899426
 30
0.0
  0
POINT
  5
1EFA3
330
1EDB0
100
AcDbEntity
  8
DEFPOINTS
 62
     0
 48
50.0
100
AcDbPoint
 10
8948.499999999992
 20
8676.955177899424
 30
0.0
  0
ENDBLK
  5
1EDBB
330
1EDB0
100
AcDbEntity
  8
0
 48
50.0
100
AcDbBlockEnd
  0
BLOCK
  5
1EDC6
330
1EDBC
100
AcDbEntity
  8
0
 48
50.0
100
AcDbBlockBegin
  2
*D22
 70
     1
 10
0.0
 20
0.0
 30
0.0
  3
*D22
  1

  0
LINE
  5
1EF92
330
1EDBC
100
AcDbEntity
  8
寸法
 62
     0
 48
50.0
370
    -2
100
AcDbLine
 10
11680.49999999999
 20
8281.955177899423
 30
0.0
 11
12440.49999999999
 21
8281.955177899421
 31
0.0
  0
LINE
  5
1EF93
330
1EDBC
100
AcDbEntity
  8
寸法
 62
     0
 48
50.0
370
    -2
100
AcDbLine
 10
11535.49999999999
 20
7340.955177899424
 30
0.0
 11
12440.49999999999
 21
7340.955177899424
 31
0.0
  0
LINE
  5
1EF94
330
1EDBC
100
AcDbEntity
  8
寸法
 62
     0
 48
50.0
370
    -2
100
AcDbLine
 10
12365.49999999999
 20
8281.955177899421
 30
0.0
 11
12365.49999999999
 21
7340.955177899424
 31
0.0
  0
INSERT
  5
1EF95
330
1EDBC
100
AcDbEntity
  8
寸法
 62
     0
 48
50.0
370
    -2
100
AcDbBlockReference
  2
_DOTSMALL
 10
12365.49999999999
 20
8281.955177899421
 30
0.0
 41
125.0
 42
125.0
 43
125.0
 50
90.0
  0
INSERT
  5
1EF96
330
1EDBC
100
AcDbEntity
  8
寸法
 62
     0
 48
50.0
370
    -2
100
AcDbBlockReference
  2
_DOTSMALL
 10
12365.49999999999
 20
7340.955177899424
 30
0.0
 41
125.0
 42
125.0
 43
125.0
 50
270.0
  0
MTEXT
  5
1EF97
330
1EDBC
100
AcDbEntity
  8
寸法
 62
     7
 48
50.0
100
AcDbMText
 10
12265.49999999998
 20
7811.455177899425
 30
0.0
 40
150.0
 41
0.0
 71
     5
 72
     1
  1
\A1;941
  7
STYLE1
 11
0.0000000000000001
 21
1.0
 31
0.0
 73
     1
 44
1.0
  0
POINT
  5
1EF98
330
1EDBC
100
AcDbEntity
  8
DEFPOINTS
 62
     0
 48
50.0
100
AcDbPoint
 10
11655.49999999999
 20
8281.955177899423
 30
0.0
  0
POINT
  5
1EF99
330
1EDBC
100
AcDbEntity
  8
DEFPOINTS
 62
     0
 48
50.0
100
AcDbPoint
 10
11510.49999999999
 20
7340.955177899424
 30
0.0
  0
POINT
  5
1EF9A
330
1EDBC
100
AcDbEntity
  8
DEFPOINTS
 62
     0
 48
50.0
100
AcDbPoint
 10
12365.49999999999
 20
7340.955177899424
 30
0.0
  0
ENDBLK
  5
1EDC7
330
1EDBC
100
AcDbEntity
  8
0
 48
50.0
100
AcDbBlockEnd
  0
BLOCK
  5
1EDD3
330
1EDC8
100
AcDbEntity
  8
0
 48
50.0
100
AcDbBlockBegin
  2
*D23
 70
     1
 10
0.0
 20
0.0
 30
0.0
  3
*D23
  1

  0
LINE
  5
1EF88
330
1EDC8
100
AcDbEntity
  8
寸法
 62
     0
 48
50.0
370
    -2
100
AcDbLine
 10
11680.49999999999
 20
8281.955177899423
 30
0.0
 11
12790.50000000001
 21
8281.955177899421
 31
0.0
  0
LINE
  5
1EF89
330
1EDC8
100
AcDbEntity
  8
寸法
 62
     0
 48
50.0
370
    -2
100
AcDbLine
 10
11590.50000000001
 20
8376.955177899423
 30
0.0
 11
12790.50000000001
 21
8376.955177899422
 31
0.0
  0
LINE
  5
1EF8A
330
1EDC8
100
AcDbEntity
  8
寸法
 62
     0
 48
50.0
370
    -2
100
AcDbLine
 10
12715.50000000001
 20
8281.955177899421
 30
0.0
 11
12715.50000000001
 21
8376.955177899422
 31
0.0
  0
LINE
  5
1EF8B
330
1EDC8
100
AcDbEntity
  8
寸法
 62
     0
 48
50.0
370
    -2
100
AcDbLine
 10
12715.50000000001
 20
8376.955177899422
 30
0.0
 11
12715.50000000001
 21
8837.36121723734
 31
0.0
  0
INSERT
  5
1EF8C
330
1EDC8
100
AcDbEntity
  8
寸法
 62
     0
 48
50.0
370
    -2
100
AcDbBlockReference
  2
_DOTSMALL
 10
12715.50000000001
 20
8281.955177899421
 30
0.0
 41
125.0
 42
125.0
 43
125.0
 50
270.0
  0
INSERT
  5
1EF8D
330
1EDC8
100
AcDbEntity
  8
寸法
 62
     0
 48
50.0
370
    -2
100
AcDbBlockReference
  2
_DOTSMALL
 10
12715.50000000001
 20
8376.955177899422
 30
0.0
 41
125.0
 42
125.0
 43
125.0
 50
90.0
  0
MTEXT
  5
1EF8E
330
1EDC8
100
AcDbEntity
  8
寸法
 62
     7
 48
50.0
100
AcDbMText
 10
12607.96374807353
 20
8669.658197568384
 30
0.0
 40
150.0
 41
0.0
 71
     5
 72
     1
  1
\A1;(95)
  7
STYLE1
 11
0.0000000000000001
 21
1.0
 31
0.0
 73
     1
 44
1.0
  0
POINT
  5
1EF8F
330
1EDC8
100
AcDbEntity
  8
DEFPOINTS
 62
     0
 48
50.0
100
AcDbPoint
 10
11655.49999999999
 20
8281.955177899423
 30
0.0
  0
POINT
  5
1EF90
330
1EDC8
100
AcDbEntity
  8
DEFPOINTS
 62
     0
 48
50.0
100
AcDbPoint
 10
11565.5
 20
8376.955177899423
 30
0.0
  0
POINT
  5
1EF91
330
1EDC8
100
AcDbEntity
  8
DEFPOINTS
 62
     0
 48
50.0
100
AcDbPoint
 10
12715.50000000001
 20
8376.955177899422
 30
0.0
  0
ENDBLK
  5
1EDD4
330
1EDC8
100
AcDbEntity
  8
0
 48
50.0
100
AcDbBlockEnd
  0
BLOCK
  5
1F064
330
1F063
100
AcDbEntity
  8
0
 48
50.0
100
AcDbBlockBegin
  2
*D24
 70
     1
 10
0.0
 20
0.0
 30
0.0
  3
*D24
  1

  0
LINE
  5
1F065
330
1F063
100
AcDbEntity
  8
寸法
 62
     0
 48
50.0
370
    -2
100
AcDbLine
 10
12134.39291868346
 20
2029.373661269834
 30
0.0
 11
11703.67290371428
 21
2029.373661269834
 31
0.0
  0
LINE
  5
1F066
330
1F063
100
AcDbEntity
  8
寸法
 62
     0
 48
50.0
370
    -2
100
AcDbLine
 10
12090.39291868346
 20
1459.373661269833
 30
0.0
 11
11703.67290371428
 21
1459.373661269833
 31
0.0
  0
LINE
  5
1F067
330
1F063
100
AcDbEntity
  8
寸法
 62
     0
 48
50.0
370
    -2
100
AcDbLine
 10
11778.67290371428
 20
2029.373661269834
 30
0.0
 11
11778.67290371428
 21
1459.373661269833
 31
0.0
  0
INSERT
  5
1F068
330
1F063
100
AcDbEntity
  8
寸法
 62
     0
 48
50.0
370
    -2
100
AcDbBlockReference
  2
_DOTSMALL
 10
11778.67290371428
 20
2029.373661269834
 30
0.0
 41
125.0
 42
125.0
 43
125.0
 50
90.0
  0
INSERT
  5
1F069
330
1F063
100
AcDbEntity
  8
寸法
 62
     0
 48
50.0
370
    -2
100
AcDbBlockReference
  2
_DOTSMALL
 10
11778.67290371428
 20
1459.373661269833
 30
0.0
 41
125.0
 42
125.0
 43
125.0
 50
270.0
  0
MTEXT
  5
1F06A
330
1F063
100
AcDbEntity
  8
寸法
 62
     7
 48
50.0
100
AcDbMText
 10
11678.65813993475
 20
1744.373661269835
 30
0.0
 40
150.0
 41
0.0
 71
     5
 72
     1
  1
\A1;285
  7
STYLE1
 11
0.0000000000000001
 21
1.0
 31
0.0
 73
     1
 44
1.0
  0
POINT
  5
1F06B
330
1F063
100
AcDbEntity
  8
DEFPOINTS
 62
     0
 48
50.0
100
AcDbPoint
 10
12159.39291868346
 20
2029.373661269834
 30
0.0
  0
POINT
  5
1F06C
330
1F063
100
AcDbEntity
  8
DEFPOINTS
 62
     0
 48
50.0
100
AcDbPoint
 10
12115.39291868346
 20
1459.373661269833
 30
0.0
  0
POINT
  5
1F06D
330
1F063
100
AcDbEntity
  8
DEFPOINTS
 62
     0
 48
50.0
100
AcDbPoint
 10
11778.67290371428
 20
1459.373661269833
 30
0.0
  0
ENDBLK
  5
1F06E
330
1F063
100
AcDbEntity
  8
0
 48
50.0
100
AcDbBlockEnd
  0
BLOCK
  5
1F070
330
1F06F
100
AcDbEntity
  8
0
 48
50.0
100
AcDbBlockBegin
  2
*D25
 70
     1
 10
0.0
 20
0.0
 30
0.0
  3
*D25
  1

  0
LINE
  5
1F071
330
1F06F
100
AcDbEntity
  8
寸法
 62
     0
 48
50.0
370
    -2
100
AcDbLine
 10
11536.22057962788
 20
1749.373661269833
 30
0.0
 11
11421.26221710674
 21
1749.373661269833
 31
0.0
  0
LINE
  5
1F072
330
1F06F
100
AcDbEntity
  8
寸法
 62
     0
 48
50.0
370
    -2
100
AcDbLine
 10
11946.39291868346
 20
1349.373661269834
 30
0.0
 11
11421.26221710674
 21
1349.373661269834
 31
0.0
  0
LINE
  5
1F073
330
1F06F
100
AcDbEntity
  8
寸法
 62
     0
 48
50.0
370
    -2
100
AcDbLine
 10
11496.26221710674
 20
1749.373661269833
 30
0.0
 11
11496.26221710674
 21
1349.373661269834
 31
0.0
  0
INSERT
  5
1F074
330
1F06F
100
AcDbEntity
  8
寸法
 62
     0
 48
50.0
370
    -2
100
AcDbBlockReference
  2
_DOTSMALL
 10
11496.26221710674
 20
1749.373661269833
 30
0.0
 41
125.0
 42
125.0
 43
125.0
 50
90.0
  0
INSERT
  5
1F075
330
1F06F
100
AcDbEntity
  8
寸法
 62
     0
 48
50.0
370
    -2
100
AcDbBlockReference
  2
_DOTSMALL
 10
11496.26221710674
 20
1349.373661269834
 30
0.0
 41
125.0
 42
125.0
 43
125.0
 50
270.0
  0
MTEXT
  5
1F076
330
1F06F
100
AcDbEntity
  8
寸法
 62
     7
 48
50.0
100
AcDbMText
 10
11396.24745332722
 20
1549.373661269835
 30
0.0
 40
150.0
 41
0.0
 71
     5
 72
     1
  1
\A1;200
  7
STYLE1
 11
0.0000000000000001
 21
1.0
 31
0.0
 73
     1
 44
1.0
  0
POINT
  5
1F077
330
1F06F
100
AcDbEntity
  8
DEFPOINTS
 62
     0
 48
50.0
100
AcDbPoint
 10
11561.22057962788
 20
1749.373661269833
 30
0.0
  0
POINT
  5
1F078
330
1F06F
100
AcDbEntity
  8
DEFPOINTS
 62
     0
 48
50.0
100
AcDbPoint
 10
11971.39291868346
 20
1349.373661269834
 30
0.0
  0
POINT
  5
1F079
330
1F06F
100
AcDbEntity
  8
DEFPOINTS
 62
     0
 48
50.0
100
AcDbPoint
 10
11496.26221710674
 20
1349.373661269834
 30
0.0
  0
ENDBLK
  5
1F07A
330
1F06F
100
AcDbEntity
  8
0
 48
50.0
100
AcDbBlockEnd
  0
BLOCK
  5
1F07C
330
1F07B
100
AcDbEntity
  8
0
 48
50.0
100
AcDbBlockBegin
  2
*D26
 70
     1
 10
0.0
 20
0.0
 30
0.0
  3
*D26
  1

  0
LINE
  5
1F07D
330
1F07B
100
AcDbEntity
  8
寸法
 62
     0
 48
50.0
370
    -2
100
AcDbLine
 10
11753.67290371428
 20
1949.373661269834
 30
0.0
 11
11421.91093653513
 21
1949.373661269834
 31
0.0
  0
LINE
  5
1F07E
330
1F07B
100
AcDbEntity
  8
寸法
 62
     0
 48
50.0
370
    -2
100
AcDbLine
 10
11536.22057962788
 20
1749.373661269833
 30
0.0
 11
11421.91093653513
 21
1749.373661269833
 31
0.0
  0
LINE
  5
1F07F
330
1F07B
100
AcDbEntity
  8
寸法
 62
     0
 48
50.0
370
    -2
100
AcDbLine
 10
11496.91093653513
 20
1749.373661269833
 30
0.0
 11
11496.91093653513
 21
1949.373661269834
 31
0.0
  0
LINE
  5
1F080
330
1F07B
100
AcDbEntity
  8
寸法
 62
     0
 48
50.0
370
    -2
100
AcDbLine
 10
11496.91093653513
 20
1949.373661269834
 30
0.0
 11
11496.91093653513
 21
2381.396299065108
 31
0.0
  0
INSERT
  5
1F081
330
1F07B
100
AcDbEntity
  8
寸法
 62
     0
 48
50.0
370
    -2
100
AcDbBlockReference
  2
_DOTSMALL
 10
11496.91093653513
 20
1749.373661269833
 30
0.0
 41
125.0
 42
125.0
 43
125.0
 50
270.0
  0
INSERT
  5
1F082
330
1F07B
100
AcDbEntity
  8
寸法
 62
     0
 48
50.0
370
    -2
100
AcDbBlockReference
  2
_DOTSMALL
 10
11496.91093653513
 20
1949.373661269834
 30
0.0
 41
125.0
 42
125.0
 43
125.0
 50
90.0
  0
MTEXT
  5
1F083
330
1F07B
100
AcDbEntity
  8
寸法
 62
     7
 48
50.0
100
AcDbMText
 10
11396.91093653513
 20
2236.337243947
 30
0.0
 40
150.0
 41
0.0
 71
     5
 72
     1
  1
\A1;100
  7
STYLE1
 11
0.0000000000000001
 21
1.0
 31
0.0
 73
     1
 44
1.0
  0
POINT
  5
1F084
330
1F07B
100
AcDbEntity
  8
DEFPOINTS
 62
     0
 48
50.0
100
AcDbPoint
 10
11778.67290371428
 20
1949.373661269834
 30
0.0
  0
POINT
  5
1F085
330
1F07B
100
AcDbEntity
  8
DEFPOINTS
 62
     0
 48
50.0
100
AcDbPoint
 10
11561.22057962788
 20
1749.373661269833
 30
0.0
  0
POINT
  5
1F086
330
1F07B
100
AcDbEntity
  8
DEFPOINTS
 62
     0
 48
50.0
100
AcDbPoint
 10
11496.91093653513
 20
1749.373661269833
 30
0.0
  0
ENDBLK
  5
1F087
330
1F07B
100
AcDbEntity
  8
0
 48
50.0
100
AcDbBlockEnd
  0
BLOCK
  5
1F089
330
1F088
100
AcDbEntity
  8
0
 48
50.0
100
AcDbBlockBegin
  2
*D27
 70
     1
 10
0.0
 20
0.0
 30
0.0
  3
*D27
  1

  0
LINE
  5
1F08A
330
1F088
100
AcDbEntity
  8
寸法
 62
     0
 48
50.0
370
    -2
100
AcDbLine
 10
12371.39291868346
 20
1324.373661269834
 30
0.0
 11
12371.39291868346
 21
947.89069578453
 31
0.0
  0
LINE
  5
1F08B
330
1F088
100
AcDbEntity
  8
寸法
 62
     0
 48
50.0
370
    -2
100
AcDbLine
 10
11971.39291868346
 20
1324.373661269834
 30
0.0
 11
11971.39291868346
 21
947.89069578453
 31
0.0
  0
LINE
  5
1F08C
330
1F088
100
AcDbEntity
  8
寸法
 62
     0
 48
50.0
370
    -2
100
AcDbLine
 10
12371.39291868346
 20
1022.89069578453
 30
0.0
 11
11971.39291868346
 21
1022.89069578453
 31
0.0
  0
INSERT
  5
1F08D
330
1F088
100
AcDbEntity
  8
寸法
 62
     0
 48
50.0
370
    -2
100
AcDbBlockReference
  2
_DOTSMALL
 10
12371.39291868346
 20
1022.89069578453
 30
0.0
 41
125.0
 42
125.0
 43
125.0
  0
INSERT
  5
1F08E
330
1F088
100
AcDbEntity
  8
寸法
 62
     0
 48
50.0
370
    -2
100
AcDbBlockReference
  2
_DOTSMALL
 10
11971.39291868346
 20
1022.89069578453
 30
0.0
 41
125.0
 42
125.0
 43
125.0
 50
180.0
  0
MTEXT
  5
1F08F
330
1F088
100
AcDbEntity
  8
寸法
 62
     7
 48
50.0
100
AcDbMText
 10
12171.39291868346
 20
1122.905459564057
 30
0.0
 40
150.0
 41
0.0
 71
     5
 72
     1
  1
\A1;200
  7
STYLE1
 73
     1
 44
1.0
  0
POINT
  5
1F090
330
1F088
100
AcDbEntity
  8
DEFPOINTS
 62
     0
 48
50.0
100
AcDbPoint
 10
12371.39291868346
 20
1349.373661269834
 30
0.0
  0
POINT
  5
1F091
330
1F088
100
AcDbEntity
  8
DEFPOINTS
 62
     0
 48
50.0
100
AcDbPoint
 10
11971.39291868346
 20
1349.373661269834
 30
0.0
  0
POINT
  5
1F092
330
1F088
100
AcDbEntity
  8
DEFPOINTS
 62
     0
 48
50.0
100
AcDbPoint
 10
11971.39291868346
 20
1022.89069578453
 30
0.0
  0
ENDBLK
  5
1F093
330
1F088
100
AcDbEntity
  8
0
 48
50.0
100
AcDbBlockEnd
  0
BLOCK
  5
1F288
330
1F27E
100
AcDbEntity
  8
0
 48
50.0
100
AcDbBlockBegin
  2
*D29
 70
     1
 10
0.0
 20
0.0
 30
0.0
  3
*D29
  1

  0
LINE
  5
1F2AF
330
1F27E
100
AcDbEntity
  8
寸法
 62
     0
 48
50.0
370
    -2
100
AcDbLine
 10
12134.39291868346
 20
2029.373661269834
 30
0.0
 11
11703.67290371428
 21
2029.373661269834
 31
0.0
  0
LINE
  5
1F2B0
330
1F27E
100
AcDbEntity
  8
寸法
 62
     0
 48
50.0
370
    -2
100
AcDbLine
 10
12090.39291868346
 20
1459.373661269833
 30
0.0
 11
11703.67290371428
 21
1459.373661269833
 31
0.0
  0
LINE
  5
1F2B1
330
1F27E
100
AcDbEntity
  8
寸法
 62
     0
 48
50.0
370
    -2
100
AcDbLine
 10
11778.67290371428
 20
2029.373661269834
 30
0.0
 11
11778.67290371428
 21
1459.373661269833
 31
0.0
  0
INSERT
  5
1F2B2
330
1F27E
100
AcDbEntity
  8
寸法
 62
     0
 48
50.0
370
    -2
100
AcDbBlockReference
  2
_DOTSMALL
 10
11778.67290371428
 20
2029.373661269834
 30
0.0
 41
125.0
 42
125.0
 43
125.0
 50
90.0
  0
INSERT
  5
1F2B3
330
1F27E
100
AcDbEntity
  8
寸法
 62
     0
 48
50.0
370
    -2
100
AcDbBlockReference
  2
_DOTSMALL
 10
11778.67290371428
 20
1459.373661269833
 30
0.0
 41
125.0
 42
125.0
 43
125.0
 50
270.0
  0
MTEXT
  5
1F2B4
330
1F27E
100
AcDbEntity
  8
寸法
 62
     7
 48
50.0
100
AcDbMText
 10
11678.65813993475
 20
1744.373661269835
 30
0.0
 40
150.0
 41
0.0
 71
     5
 72
     1
  1
\A1;285
  7
STYLE1
 11
0.0000000000000001
 21
1.0
 31
0.0
 73
     1
 44
1.0
  0
POINT
  5
1F2B5
330
1F27E
100
AcDbEntity
  8
DEFPOINTS
 62
     0
 48
50.0
100
AcDbPoint
 10
12159.39291868346
 20
2029.373661269834
 30
0.0
  0
POINT
  5
1F2B6
330
1F27E
100
AcDbEntity
  8
DEFPOINTS
 62
     0
 48
50.0
100
AcDbPoint
 10
12115.39291868346
 20
1459.373661269833
 30
0.0
  0
POINT
  5
1F2B7
330
1F27E
100
AcDbEntity
  8
DEFPOINTS
 62
     0
 48
50.0
100
AcDbPoint
 10
11778.67290371428
 20
1459.373661269833
 30
0.0
  0
ENDBLK
  5
1F289
330
1F27E
100
AcDbEntity
  8
0
 48
50.0
100
AcDbBlockEnd
  0
BLOCK
  5
1F294
330
1F28A
100
AcDbEntity
  8
0
 48
50.0
100
AcDbBlockBegin
  2
*D30
 70
     1
 10
0.0
 20
0.0
 30
0.0
  3
*D30
  1

  0
LINE
  5
1F2B8
330
1F28A
100
AcDbEntity
  8
寸法
 62
     0
 48
50.0
370
    -2
100
AcDbLine
 10
12371.39291868346
 20
1324.373661269834
 30
0.0
 11
12371.39291868346
 21
947.89069578453
 31
0.0
  0
LINE
  5
1F2B9
330
1F28A
100
AcDbEntity
  8
寸法
 62
     0
 48
50.0
370
    -2
100
AcDbLine
 10
11971.39291868346
 20
1324.373661269834
 30
0.0
 11
11971.39291868346
 21
947.89069578453
 31
0.0
  0
LINE
  5
1F2BA
330
1F28A
100
AcDbEntity
  8
寸法
 62
     0
 48
50.0
370
    -2
100
AcDbLine
 10
12371.39291868346
 20
1022.89069578453
 30
0.0
 11
11971.39291868346
 21
1022.89069578453
 31
0.0
  0
INSERT
  5
1F2BB
330
1F28A
100
AcDbEntity
  8
寸法
 62
     0
 48
50.0
370
    -2
100
AcDbBlockReference
  2
_DOTSMALL
 10
12371.39291868346
 20
1022.89069578453
 30
0.0
 41
125.0
 42
125.0
 43
125.0
  0
INSERT
  5
1F2BC
330
1F28A
100
AcDbEntity
  8
寸法
 62
     0
 48
50.0
370
    -2
100
AcDbBlockReference
  2
_DOTSMALL
 10
11971.39291868346
 20
1022.89069578453
 30
0.0
 41
125.0
 42
125.0
 43
125.0
 50
180.0
  0
MTEXT
  5
1F2BD
330
1F28A
100
AcDbEntity
  8
寸法
 62
     7
 48
50.0
100
AcDbMText
 10
12171.39291868346
 20
1122.905459564057
 30
0.0
 40
150.0
 41
0.0
 71
     5
 72
     1
  1
\A1;200
  7
STYLE1
 73
     1
 44
1.0
  0
POINT
  5
1F2BE
330
1F28A
100
AcDbEntity
  8
DEFPOINTS
 62
     0
 48
50.0
100
AcDbPoint
 10
12371.39291868346
 20
1349.373661269834
 30
0.0
  0
POINT
  5
1F2BF
330
1F28A
100
AcDbEntity
  8
DEFPOINTS
 62
     0
 48
50.0
100
AcDbPoint
 10
11971.39291868346
 20
1349.373661269834
 30
0.0
  0
POINT
  5
1F2C0
330
1F28A
100
AcDbEntity
  8
DEFPOINTS
 62
     0
 48
50.0
100
AcDbPoint
 10
11971.39291868346
 20
1022.89069578453
 30
0.0
  0
ENDBLK
  5
1F295
330
1F28A
100
AcDbEntity
  8
0
 48
50.0
100
AcDbBlockEnd
  0
BLOCK
  5
1F2A0
330
1F296
100
AcDbEntity
  8
0
 48
50.0
100
AcDbBlockBegin
  2
*D31
 70
     1
 10
0.0
 20
0.0
 30
0.0
  3
*D31
  1

  0
LINE
  5
1F2C1
330
1F296
100
AcDbEntity
  8
寸法
 62
     0
 48
50.0
370
    -2
100
AcDbLine
 10
11536.22057962788
 20
1749.373661269833
 30
0.0
 11
11421.26221710674
 21
1749.373661269833
 31
0.0
  0
LINE
  5
1F2C2
330
1F296
100
AcDbEntity
  8
寸法
 62
     0
 48
50.0
370
    -2
100
AcDbLine
 10
11946.39291868346
 20
1349.373661269834
 30
0.0
 11
11421.26221710674
 21
1349.373661269834
 31
0.0
  0
LINE
  5
1F2C3
330
1F296
100
AcDbEntity
  8
寸法
 62
     0
 48
50.0
370
    -2
100
AcDbLine
 10
11496.26221710674
 20
1749.373661269833
 30
0.0
 11
11496.26221710674
 21
1349.373661269834
 31
0.0
  0
INSERT
  5
1F2C4
330
1F296
100
AcDbEntity
  8
寸法
 62
     0
 48
50.0
370
    -2
100
AcDbBlockReference
  2
_DOTSMALL
 10
11496.26221710674
 20
1749.373661269833
 30
0.0
 41
125.0
 42
125.0
 43
125.0
 50
90.0
  0
INSERT
  5
1F2C5
330
1F296
100
AcDbEntity
  8
寸法
 62
     0
 48
50.0
370
    -2
100
AcDbBlockReference
  2
_DOTSMALL
 10
11496.26221710674
 20
1349.373661269834
 30
0.0
 41
125.0
 42
125.0
 43
125.0
 50
270.0
  0
MTEXT
  5
1F2C6
330
1F296
100
AcDbEntity
  8
寸法
 62
     7
 48
50.0
100
AcDbMText
 10
11396.24745332722
 20
1549.373661269835
 30
0.0
 40
150.0
 41
0.0
 71
     5
 72
     1
  1
\A1;200
  7
STYLE1
 11
0.0000000000000001
 21
1.0
 31
0.0
 73
     1
 44
1.0
  0
POINT
  5
1F2C7
330
1F296
100
AcDbEntity
  8
DEFPOINTS
 62
     0
 48
50.0
100
AcDbPoint
 10
11561.22057962788
 20
1749.373661269833
 30
0.0
  0
POINT
  5
1F2C8
330
1F296
100
AcDbEntity
  8
DEFPOINTS
 62
     0
 48
50.0
100
AcDbPoint
 10
11971.39291868346
 20
1349.373661269834
 30
0.0
  0
POINT
  5
1F2C9
330
1F296
100
AcDbEntity
  8
DEFPOINTS
 62
     0
 48
50.0
100
AcDbPoint
 10
11496.26221710674
 20
1349.373661269834
 30
0.0
  0
ENDBLK
  5
1F2A1
330
1F296
100
AcDbEntity
  8
0
 48
50.0
100
AcDbBlockEnd
  0
BLOCK
  5
1F2AD
330
1F2A2
100
AcDbEntity
  8
0
 48
50.0
100
AcDbBlockBegin
  2
*D32
 70
     1
 10
0.0
 20
0.0
 30
0.0
  3
*D32
  1

  0
LINE
  5
1F2CA
330
1F2A2
100
AcDbEntity
  8
寸法
 62
     0
 48
50.0
370
    -2
100
AcDbLine
 10
11753.67290371428
 20
1949.373661269834
 30
0.0
 11
11421.91093653513
 21
1949.373661269834
 31
0.0
  0
LINE
  5
1F2CB
330
1F2A2
100
AcDbEntity
  8
寸法
 62
     0
 48
50.0
370
    -2
100
AcDbLine
 10
11536.22057962788
 20
1749.373661269833
 30
0.0
 11
11421.91093653513
 21
1749.373661269833
 31
0.0
  0
LINE
  5
1F2CC
330
1F2A2
100
AcDbEntity
  8
寸法
 62
     0
 48
50.0
370
    -2
100
AcDbLine
 10
11496.91093653513
 20
1749.373661269833
 30
0.0
 11
11496.91093653513
 21
1949.373661269834
 31
0.0
  0
LINE
  5
1F2CD
330
1F2A2
100
AcDbEntity
  8
寸法
 62
     0
 48
50.0
370
    -2
100
AcDbLine
 10
11496.91093653513
 20
1949.373661269834
 30
0.0
 11
11496.91093653513
 21
2381.396299065108
 31
0.0
  0
INSERT
  5
1F2CE
330
1F2A2
100
AcDbEntity
  8
寸法
 62
     0
 48
50.0
370
    -2
100
AcDbBlockReference
  2
_DOTSMALL
 10
11496.91093653513
 20
1749.373661269833
 30
0.0
 41
125.0
 42
125.0
 43
125.0
 50
270.0
  0
INSERT
  5
1F2CF
330
1F2A2
100
AcDbEntity
  8
寸法
 62
     0
 48
50.0
370
    -2
100
AcDbBlockReference
  2
_DOTSMALL
 10
11496.91093653513
 20
1949.373661269834
 30
0.0
 41
125.0
 42
125.0
 43
125.0
 50
90.0
  0
MTEXT
  5
1F2D0
330
1F2A2
100
AcDbEntity
  8
寸法
 62
     7
 48
50.0
100
AcDbMText
 10
11396.91093653513
 20
2236.337243947
 30
0.0
 40
150.0
 41
0.0
 71
     5
 72
     1
  1
\A1;100
  7
STYLE1
 11
0.0000000000000001
 21
1.0
 31
0.0
 73
     1
 44
1.0
  0
POINT
  5
1F2D1
330
1F2A2
100
AcDbEntity
  8
DEFPOINTS
 62
     0
 48
50.0
100
AcDbPoint
 10
11778.67290371428
 20
1949.373661269834
 30
0.0
  0
POINT
  5
1F2D2
330
1F2A2
100
AcDbEntity
  8
DEFPOINTS
 62
     0
 48
50.0
100
AcDbPoint
 10
11561.22057962788
 20
1749.373661269833
 30
0.0
  0
POINT
  5
1F2D3
330
1F2A2
100
AcDbEntity
  8
DEFPOINTS
 62
     0
 48
50.0
100
AcDbPoint
 10
11496.91093653513
 20
1749.373661269833
 30
0.0
  0
ENDBLK
  5
1F2AE
330
1F2A2
100
AcDbEntity
  8
0
 48
50.0
100
AcDbBlockEnd
  0
ENDSEC
  0
SECTION
  2
ENTITIES
  0
LINE
  5
10B56
330
747D
100
AcDbEntity
  8
補助
  6
PHANTOM
 62
     7
 48
50.0
100
AcDbLine
 10
175.0
 20
0.0
 30
0.0
 11
174.9999999999993
 21
14262.0
 31
0.0
  0
LINE
  5
10B57
330
747D
100
AcDbEntity
  8
補助
  6
PHANTOM
 62
     7
 48
50.0
100
AcDbLine
 10
174.9999999999993
 20
14262.0
 30
0.0
 11
20384.0
 21
14262.0
 31
0.0
  0
LINE
  5
10B59
330
747D
100
AcDbEntity
  8
仕様書枠
  6
Continuous
 62
     7
 48
50.0
100
AcDbLine
 10
16384.0
 20
1500.0
 30
0.0
 11
16384.0
 21
-0.0000000000000912
 31
0.0
  0
LINE
  5
10B5C
330
747D
100
AcDbEntity
  8
仕様書枠
 62
     7
 48
50.0
100
AcDbLine
 10
20384.0
 20
1500.0
 30
0.0
 11
20384.0
 21
-0.0000000000001137
 31
0.0
  0
LINE
  5
10B5D
330
747D
100
AcDbEntity
  8
仕様書枠
 62
     7
 48
50.0
100
AcDbLine
 10
175.0
 20
0.0
 30
0.0
 11
20384.0
 21
-0.0000000000001137
 31
0.0
  0
LINE
  5
10B5E
330
747D
100
AcDbEntity
  8
補助
  6
PHANTOM
 62
     7
 48
50.0
100
AcDbLine
 10
20384.0
 20
14262.0
 30
0.0
 11
20384.0
 21
1500.0
 31
0.0
  0
LINE
  5
10B6C
330
747D
100
AcDbEntity
  8
仕様書枠
 62
     7
 48
50.0
100
AcDbLine
 10
16384.0
 20
1500.0
 30
0.0
 11
20384.0
 21
1500.0
 31
0.0
  0
TEXT
  5
10B73
330
747D
100
AcDbEntity
  8
仕様書枠
 62
     7
 48
50.0
100
AcDbText
 10
16453.72382072112
 20
1118.863259287425
 30
0.0
 40
250.0
  1
基 礎 図
  7
STYLE2
100
AcDbText
  0
LINE
  5
10B7B
330
747D
100
AcDbEntity
  8
仕様書枠
 62
     7
 48
50.0
100
AcDbLine
 10
16384.0
 20
1000.0
 30
0.0
 11
17814.0
 21
1000.0
 31
0.0
  0
LINE
  5
10B88
330
747D
100
AcDbEntity
  8
仕様書枠
  6
Continuous
 62
     7
 48
50.0
100
AcDbLine
 10
17814.0
 20
1500.0
 30
0.0
 11
17814.0
 21
1000.0
 31
0.0
  0
TEXT
  5
1893F
330
747D
100
AcDbEntity
  8
文字
 62
     7
 48
50.0
100
AcDbText
 10
16511.7566802715
 20
202.8024588414045
 30
0.0
 40
100.0
  1
※寒冷地等は、地域の実情に合わせた基礎にしてください。
  7
STYLE2
100
AcDbText
  0
LINE
  5
18940
330
747D
100
AcDbEntity
  8
仕様書枠
 62
     7
 48
50.0
100
AcDbLine
 10
16484.0
 20
500.0
 30
0.0
 11
20284.0
 21
500.0
 31
0.0
  0
TEXT
  5
1A1F2
330
747D
100
AcDbEntity
  8
文字
 62
     7
 48
50.0
100
AcDbText
 10
18851.17639418858
 20
1289.447132864035
 30
0.0
 40
125.0
  1
<縮尺> S=1/50
  7
STYLE2
100
AcDbText
  0
TEXT
  5
1A1F3
330
747D
100
AcDbEntity
  8
文字
 62
     7
 48
50.0
100
AcDbText
 10
17947.84348957211
 20
604.8708912389265
 30
0.0
 40
225.0
  1
ＳＭＫ－４７Ｓ・Ｈ
  7
STYLE2
100
AcDbText
  0
TEXT
  5
1A1F4
330
747D
100
AcDbEntity
  8
文字
 62
     7
 48
50.0
100
AcDbText
 10
16501.79587498051
 20
596.5925826289065
 30
0.0
 40
200.0
  1
機種名
  7
STYLE2
100
AcDbText
  0
DIMENSION
  5
1E9D7
330
747D
100
AcDbEntity
  8
寸法
 62
     7
 48
50.0
100
AcDbDimension
  2
*D7
 10
8293.499999999992
 20
6399.955177899421
 30
0.0
 11
8193.499999999989
 21
6652.955177899423
 31
0.0
 70
    32
 71
     5
 42
506.0
  3
INABA_S50G
100
AcDbAlignedDimension
 13
9540.500000000013
 23
6905.955177899421
 33
0.0
 14
8903.500000000011
 24
6399.955177899421
 34
0.0
 50
90.0
100
AcDbRotatedDimension
1001
ACAD
1000
DSTYLE
1002
{
1070
   287
1070
     4
1070
    75
1070
     1
1070
   279
1070
     1
1002
}
  0
LEADER
  5
1E9D8
330
747D
100
AcDbEntity
  8
寸法
 62
     7
 48
50.0
100
AcDbLeader
  3
INABA_S50G
 71
     0
 73
     0
 74
     0
 75
     1
 40
150.0
 41
231.9898538650462
 76
     3
 10
10044.04477645658
 20
6534.955177899423
 30
0.0
 10
10129.42919352823
 20
6742.569075062613
 30
0.0
 10
10254.42919352823
 20
6742.569075062613
 30
0.0
340
1E9D9
1001
ACAD
1000
DSTYLE
1002
{
1070
     6
1000
DOTSMALL
1002
}
1000
LEANOF
1010
0.0
1020
0.0
1030
0.0
  0
MTEXT
  5
1E9D9
102
{ACAD_REACTORS
330
1E9D8
102
}
330
747D
100
AcDbEntity
  8
細線
 62
     7
 48
50.0
100
AcDbMText
 10
10279.42919352823
 20
6842.569075062613
 30
0.0
 40
150.0
 41
0.0
 71
     4
 72
     5
  1
\A1;C.B
  7
STYLE1
 73
     1
 44
1.0
1001
ACAD
1000
MTEXTBEGIN
1070
    73
1070
     1
1070
    44
1040
1.0
1070
    74
1070
     0
1000
MTEXTEND
  0
DIMENSION
  5
1E9DA
330
747D
100
AcDbEntity
  8
寸法
 62
     7
 48
50.0
100
AcDbDimension
  2
*D8
 10
12365.49999999999
 20
6399.955177899421
 30
0.0
 11
12265.49999999998
 21
6870.455177899424
 31
0.0
 70
    32
 71
     5
 42
941.0000000000017
  3
INABA_S50G
100
AcDbAlignedDimension
 13
11510.49999999999
 23
7340.955177899424
 33
0.0
 14
11655.49999999999
 24
6399.955177899421
 34
0.0
 50
90.0
100
AcDbRotatedDimension
1001
ACAD
1000
DSTYLE
1002
{
1070
   287
1070
     4
1070
    75
1070
     1
1070
   279
1070
     1
1002
}
  0
LINE
  5
1E9DB
330
747D
100
AcDbEntity
  8
想像線
 62
     7
 48
20.0
100
AcDbLine
 10
8993.499999999992
 20
8376.955177899423
 30
0.0
 11
8993.499999999992
 21
6264.955177899423
 31
0.0
  0
DIMENSION
  5
1E9DC
330
747D
100
AcDbEntity
  8
寸法
 62
     7
 48
50.0
100
AcDbDimension
  2
*D9
 10
12715.50000000001
 20
8281.955177899421
 30
0.0
 11
12615.48523622048
 21
7340.955177899424
 31
0.0
 70
    32
 71
     5
 42
1882.0
  3
INABA_S50G
100
AcDbAlignedDimension
 13
11655.49999999999
 23
6399.955177899421
 33
0.0
 14
11655.49999999999
 24
8281.955177899423
 34
0.0
 50
90.0
100
AcDbRotatedDimension
  0
LINE
  5
1E9DD
330
747D
100
AcDbEntity
  8
想像線
 62
     7
 48
20.0
100
AcDbLine
 10
11565.5
 20
6264.955177899423
 30
0.0
 11
11565.5
 21
8376.955177899423
 31
0.0
  0
LINE
  5
1E9DE
330
747D
100
AcDbEntity
  8
センター
 62
     7
 48
5.0
100
AcDbLine
 10
11655.49999999999
 20
6399.955177899421
 30
0.0
 11
11365.50000000001
 21
6399.955177899421
 31
0.0
  0
LINE
  5
1E9DF
330
747D
100
AcDbEntity
  8
部品1
 62
     7
 48
50.0
100
AcDbLine
 10
11110.49999999999
 20
6599.955177899421
 30
0.0
 11
11510.49999999999
 21
6599.955177899421
 31
0.0
  0
LINE
  5
1E9E0
330
747D
100
AcDbEntity
  8
部品1
 62
     7
 48
50.0
100
AcDbLine
 10
11110.49999999999
 20
6399.955177899421
 30
0.0
 11
11510.49999999999
 21
6399.955177899421
 31
0.0
  0
DIMENSION
  5
1E9E1
330
747D
100
AcDbEntity
  8
寸法
 62
     7
 48
50.0
100
AcDbDimension
  2
*D10
 10
11510.49999999999
 20
5464.955177899422
 30
0.0
 11
10279.49999999999
 21
5564.96994167895
 31
0.0
 70
    32
 71
     5
 42
2462.0
  3
INABA_S50G
100
AcDbAlignedDimension
 13
9048.499999999991
 23
6254.955177899423
 33
0.0
 14
11510.49999999999
 24
6254.955177899423
 34
0.0
100
AcDbRotatedDimension
  0
LINE
  5
1E9E2
330
747D
100
AcDbEntity
  8
想像線
 62
     7
 48
20.0
100
AcDbLine
 10
8993.499999999992
 20
6264.955177899423
 30
0.0
 11
11565.5
 21
6264.955177899423
 31
0.0
  0
DIMENSION
  5
1E9E3
330
747D
100
AcDbEntity
  8
寸法
 62
     7
 48
50.0
100
AcDbDimension
  2
*D11
 10
11510.49999999999
 20
5864.955177899423
 30
0.0
 11
10894.99999999999
 21
5964.96994167895
 31
0.0
 70
    32
 71
     5
 42
1231.0
  3
INABA_S50G
100
AcDbAlignedDimension
 13
10279.49999999999
 23
6334.955177899423
 33
0.0
 14
11510.49999999999
 24
6254.955177899423
 34
0.0
100
AcDbRotatedDimension
1001
ACAD
1000
DSTYLE
1002
{
1070
   287
1070
     4
1070
    75
1070
     1
1070
   279
1070
     1
1002
}
  0
DIMENSION
  5
1E9E4
330
747D
100
AcDbEntity
  8
寸法
 62
     7
 48
50.0
100
AcDbDimension
  2
*D12
 10
8293.499999999992
 20
6334.955177899423
 30
0.0
 11
8293.499999999992
 21
5818.098576181625
 31
0.0
 70
   160
  1
扉の出<>
 71
     5
 42
64.99999999999818
  3
INABA_S50G
100
AcDbAlignedDimension
 13
8903.500000000011
 23
6399.955177899421
 33
0.0
 14
9979.499999999992
 24
6334.955177899423
 34
0.0
 50
90.0
100
AcDbRotatedDimension
  0
DIMENSION
  5
1E9E6
330
747D
100
AcDbEntity
  8
寸法
 62
     7
 48
50.0
100
AcDbDimension
  2
*D13
 10
10279.49999999999
 20
5864.955177899423
 30
0.0
 11
9663.999999999992
 21
5964.96994167895
 31
0.0
 70
    32
 71
     5
 42
1231.0
  3
INABA_S50G
100
AcDbAlignedDimension
 13
9048.499999999991
 23
6254.955177899423
 33
0.0
 14
10279.49999999999
 24
6334.955177899423
 34
0.0
100
AcDbRotatedDimension
  0
DIMENSION
  5
1E9E7
330
747D
100
AcDbEntity
  8
寸法
 62
     7
 48
50.0
100
AcDbDimension
  2
*D14
 10
9048.499999999991
 20
5464.955177899422
 30
0.0
 11
8701.059055118101
 21
5464.955177899422
 31
0.0
 70
   160
  1
(<>)
 71
     5
 42
55.0
  3
INABA_S50G
100
AcDbAlignedDimension
 13
8993.499999999992
 23
6264.955177899423
 33
0.0
 14
9048.499999999991
 24
6254.955177899423
 34
0.0
100
AcDbRotatedDimension
  0
LINE
  5
1E9E8
330
747D
100
AcDbEntity
  8
センター
 62
     7
 48
5.0
100
AcDbLine
 10
9193.499999999991
 20
6399.955177899421
 30
0.0
 11
8903.500000000011
 21
6399.955177899421
 31
0.0
  0
LINE
  5
1E9E9
330
747D
100
AcDbEntity
  8
部品1
 62
     7
 48
50.0
100
AcDbLine
 10
9048.499999999991
 20
6399.955177899421
 30
0.0
 11
9448.500000000013
 21
6399.955177899421
 31
0.0
  0
LINE
  5
1E9EA
330
747D
100
AcDbEntity
  8
部品1
 62
     7
 48
50.0
100
AcDbLine
 10
9048.499999999991
 20
6599.955177899421
 30
0.0
 11
9448.500000000013
 21
6599.955177899421
 31
0.0
  0
LINE
  5
1E9EB
330
747D
100
AcDbEntity
  8
センター
 62
     7
 48
5.0
100
AcDbLine
 10
9048.499999999991
 20
6544.955177899423
 30
0.0
 11
9048.499999999991
 21
6254.955177899423
 31
0.0
  0
LINE
  5
1E9EC
330
747D
100
AcDbEntity
  8
点線
 62
     7
 48
10.0
100
AcDbLine
 10
9148.50000000001
 20
6299.95517789942
 30
0.0
 11
9148.50000000001
 21
6499.955177899419
 31
0.0
  0
LINE
  5
1E9ED
330
747D
100
AcDbEntity
  8
点線
 62
     7
 48
10.0
100
AcDbLine
 10
8948.499999999992
 20
6299.95517789942
 30
0.0
 11
8948.499999999992
 21
6499.955177899419
 31
0.0
  0
LINE
  5
1E9EE
330
747D
100
AcDbEntity
  8
部品1
 62
     7
 48
50.0
100
AcDbLine
 10
9048.499999999991
 20
6599.955177899421
 30
0.0
 11
9048.499999999991
 21
6399.955177899421
 31
0.0
  0
LINE
  5
1E9EF
330
747D
100
AcDbEntity
  8
点線
 62
     7
 48
10.0
100
AcDbLine
 10
9148.50000000001
 20
6299.95517789942
 30
0.0
 11
8948.499999999992
 21
6299.95517789942
 31
0.0
  0
LINE
  5
1E9F0
330
747D
100
AcDbEntity
  8
点線
 62
     7
 48
10.0
100
AcDbLine
 10
9148.50000000001
 20
6499.955177899419
 30
0.0
 11
8948.499999999992
 21
6499.955177899419
 31
0.0
  0
LINE
  5
1E9F1
330
747D
100
AcDbEntity
  8
部品1
 62
     7
 48
50.0
100
AcDbLine
 10
9448.500000000013
 20
6599.955177899421
 30
0.0
 11
9448.500000000013
 21
6399.955177899421
 31
0.0
  0
LINE
  5
1E9F2
330
747D
100
AcDbEntity
  8
部品1
 62
     7
 48
50.0
100
AcDbLine
 10
9979.499999999992
 20
6534.955177899423
 30
0.0
 11
10379.49999999999
 21
6534.955177899423
 31
0.0
  0
LINE
  5
1E9F3
330
747D
100
AcDbEntity
  8
部品1
 62
     7
 48
50.0
100
AcDbLine
 10
9979.499999999992
 20
6334.955177899423
 30
0.0
 11
10379.49999999999
 21
6334.955177899423
 31
0.0
  0
LINE
  5
1E9F4
330
747D
100
AcDbEntity
  8
部品1
 62
     7
 48
50.0
100
AcDbLine
 10
9979.499999999992
 20
6334.955177899423
 30
0.0
 11
9979.499999999992
 21
6534.955177899423
 31
0.0
  0
LINE
  5
1E9F5
330
747D
100
AcDbEntity
  8
部品1
 62
     7
 48
50.0
100
AcDbLine
 10
10379.49999999999
 20
6334.955177899423
 30
0.0
 11
10379.49999999999
 21
6534.955177899423
 31
0.0
  0
LINE
  5
1E9F6
330
747D
100
AcDbEntity
  8
部品1
 62
     7
 48
50.0
100
AcDbLine
 10
11110.49999999999
 20
6399.955177899421
 30
0.0
 11
11110.49999999999
 21
6599.955177899421
 31
0.0
  0
DIMENSION
  5
1E9F7
330
747D
100
AcDbEntity
  8
寸法
 62
     7
 48
50.0
100
AcDbDimension
  2
*D15
 10
11565.5
 20
5464.955177899422
 30
0.0
 11
11857.9409448819
 21
5464.955177899422
 31
0.0
 70
   160
  1
(<>)
 71
     5
 42
55.00000000001818
  3
INABA_S50G
100
AcDbAlignedDimension
 13
11510.49999999999
 23
6254.955177899423
 33
0.0
 14
11565.5
 24
6264.955177899423
 34
0.0
100
AcDbRotatedDimension
  0
DIMENSION
  5
1E9F8
330
747D
100
AcDbEntity
  8
寸法
 62
     7
 48
50.0
100
AcDbDimension
  2
*D16
 10
12715.50000000001
 20
6264.955177899423
 30
0.0
 11
12715.50000000001
 21
5935.014233017533
 31
0.0
 70
   160
  1
(<>)
 71
     5
 42
134.999999999999
  3
INABA_S50G
100
AcDbAlignedDimension
 13
11655.49999999999
 23
6399.955177899421
 33
0.0
 14
11565.5
 24
6264.955177899423
 34
0.0
 50
90.0
100
AcDbRotatedDimension
  0
LINE
  5
1E9F9
330
747D
100
AcDbEntity
  8
センター
 62
     7
 48
5.0
100
AcDbLine
 10
11510.49999999999
 20
6544.955177899423
 30
0.0
 11
11510.49999999999
 21
6254.955177899423
 31
0.0
  0
LINE
  5
1E9FA
330
747D
100
AcDbEntity
  8
点線
 62
     7
 48
10.0
100
AcDbLine
 10
11610.49999999999
 20
6299.95517789942
 30
0.0
 11
11610.49999999999
 21
6499.955177899419
 31
0.0
  0
LINE
  5
1E9FB
330
747D
100
AcDbEntity
  8
部品1
 62
     7
 48
50.0
100
AcDbLine
 10
11510.49999999999
 20
6399.955177899421
 30
0.0
 11
11510.49999999999
 21
6599.955177899421
 31
0.0
  0
LINE
  5
1E9FC
330
747D
100
AcDbEntity
  8
点線
 62
     7
 48
10.0
100
AcDbLine
 10
11410.49999999999
 20
6299.95517789942
 30
0.0
 11
11410.49999999999
 21
6499.955177899419
 31
0.0
  0
LINE
  5
1E9FD
330
747D
100
AcDbEntity
  8
点線
 62
     7
 48
10.0
100
AcDbLine
 10
11410.49999999999
 20
6299.95517789942
 30
0.0
 11
11610.49999999999
 21
6299.95517789942
 31
0.0
  0
LINE
  5
1E9FE
330
747D
100
AcDbEntity
  8
点線
 62
     7
 48
10.0
100
AcDbLine
 10
11410.49999999999
 20
6499.955177899419
 30
0.0
 11
11610.49999999999
 21
6499.955177899419
 31
0.0
  0
MTEXT
  5
1E9FF
102
{ACAD_REACTORS
330
1EA00
102
}
330
747D
100
AcDbEntity
  8
部品1
 62
     7
 48
50.0
100
AcDbMText
 10
11484.15206936182
 20
8678.728998074658
 30
0.0
 40
150.0
 41
0.0
 71
     6
 72
     5
  1
\A1;屋根の外寸
  7
STYLE1
 73
     1
 44
1.0
1001
ACAD
1000
MTEXTBEGIN
1070
    73
1070
     1
1070
    44
1040
1.0
1070
    74
1070
     0
1000
MTEXTEND
  0
LEADER
  5
1EA00
330
747D
100
AcDbEntity
  8
寸法
 62
     7
 48
50.0
100
AcDbLeader
  3
INABA_S50G
 73
     0
 74
     0
 75
     1
 40
150.0
 41
840.0
 76
     3
 10
10279.49999999999
 20
8376.955177899423
 30
0.0
 10
10494.15206936182
 20
8578.728998074661
 30
0.0
 10
10619.15206936182
 20
8578.728998074661
 30
0.0
340
1E9FF
1001
ACAD
1000
DSTYLE
1002
{
1070
     6
1000

1070
    40
1040
1.0
1070
   341
1005
0
1070
   343
1005
0
1070
   344
1005
0
1002
}
1000
LEANOF
1010
0.0
1020
0.0
1030
0.0
  0
LINE
  5
1EA01
330
747D
100
AcDbEntity
  8
部品1
 62
     7
 48
50.0
100
AcDbLine
 10
11310.49999999999
 20
7240.955177899422
 30
0.0
 11
11510.49999999999
 21
7240.955177899422
 31
0.0
  0
LINE
  5
1EA02
330
747D
100
AcDbEntity
  8
部品1
 62
     7
 48
50.0
100
AcDbLine
 10
11510.49999999999
 20
7440.955177899422
 30
0.0
 11
11310.49999999999
 21
7440.955177899422
 31
0.0
  0
LINE
  5
1EA03
330
747D
100
AcDbEntity
  8
センター
 62
     7
 48
5.0
100
AcDbLine
 10
11655.49999999999
 20
8281.955177899423
 30
0.0
 11
11365.50000000001
 21
8281.955177899423
 31
0.0
  0
LINE
  5
1EA04
330
747D
100
AcDbEntity
  8
部品1
 62
     7
 48
50.0
100
AcDbLine
 10
11510.49999999999
 20
8281.955177899423
 30
0.0
 11
11110.49999999999
 21
8281.955177899423
 31
0.0
  0
LINE
  5
1EA05
330
747D
100
AcDbEntity
  8
部品1
 62
     7
 48
50.0
100
AcDbLine
 10
11510.49999999999
 20
8081.955177899422
 30
0.0
 11
11110.49999999999
 21
8081.955177899422
 31
0.0
  0
LINE
  5
1EA06
330
747D
100
AcDbEntity
  8
想像線
 62
     7
 48
20.0
100
AcDbLine
 10
11565.5
 20
8376.955177899423
 30
0.0
 11
8993.499999999992
 21
8376.955177899423
 31
0.0
  0
MTEXT
  5
1EA07
102
{ACAD_REACTORS
330
1EA08
102
}
330
747D
100
AcDbEntity
  8
細線
 62
     7
 48
50.0
100
AcDbMText
 10
9678.057947897002
 20
9103.481252862234
 30
0.0
 40
150.0
 41
0.0
 71
     4
 72
     5
  1
\A1;組立後\P現場打コンクリート
  7
STYLE1
 73
     1
 44
1.0
1001
ACAD
1000
MTEXTBEGIN
1070
    73
1070
     1
1070
    44
1040
1.0
1070
    74
1070
     0
1000
MTEXTEND
  0
LEADER
  5
1EA08
330
747D
100
AcDbEntity
  8
寸法
 62
     7
 48
50.0
100
AcDbLeader
  3
INABA_S50G
 71
     0
 73
     0
 74
     0
 75
     1
 40
400.0
 41
1602.936553006147
 76
     3
 10
9098.554223318741
 20
8331.966894634232
 30
0.0
 10
9528.057947897002
 20
8878.481252862234
 30
0.0
 10
9653.057947897002
 20
8878.481252862234
 30
0.0
340
1EA07
1001
ACAD
1000
DSTYLE
1002
{
1070
     6
1000
DOTSMALL
1002
}
1000
LEANOF
1010
0.0
1020
0.0
1030
0.0
  0
LINE
  5
1EA09
330
747D
100
AcDbEntity
  8
細線
 62
     7
 48
10.0
100
AcDbLine
 10
9585.500000000013
 20
7575.955177899423
 30
0.0
 11
9785.500000000013
 21
7575.955177899423
 31
0.0
  0
LINE
  5
1EA0A
330
747D
100
AcDbEntity
  8
細線
 62
     7
 48
10.0
100
AcDbLine
 10
9785.500000000013
 20
7975.955177899425
 30
0.0
 11
9585.500000000013
 21
7975.955177899425
 31
0.0
  0
LINE
  5
1EA0B
330
747D
100
AcDbEntity
  8
センター
 62
     7
 48
5.0
100
AcDbLine
 10
9540.500000000013
 20
7775.955177899421
 30
0.0
 11
9830.500000000014
 21
7775.955177899421
 31
0.0
  0
LINE
  5
1EA0C
330
747D
100
AcDbEntity
  8
細線
 62
     7
 48
10.0
100
AcDbLine
 10
9585.500000000013
 20
7440.955177899422
 30
0.0
 11
9785.500000000013
 21
7440.955177899422
 31
0.0
  0
LINE
  5
1EA0D
330
747D
100
AcDbEntity
  8
細線
 62
     7
 48
10.0
100
AcDbLine
 10
9785.500000000013
 20
7240.955177899422
 30
0.0
 11
9585.500000000013
 21
7240.955177899422
 31
0.0
  0
LINE
  5
1EA0E
330
747D
100
AcDbEntity
  8
センター
 62
     7
 48
5.0
100
AcDbLine
 10
9830.500000000014
 20
7340.955177899424
 30
0.0
 11
9540.500000000013
 21
7340.955177899424
 31
0.0
  0
LINE
  5
1EA0F
330
747D
100
AcDbEntity
  8
細線
 62
     7
 48
10.0
100
AcDbLine
 10
9585.500000000013
 20
7105.955177899423
 30
0.0
 11
9785.500000000013
 21
7105.955177899423
 31
0.0
  0
LINE
  5
1EA10
330
747D
100
AcDbEntity
  8
センター
 62
     7
 48
5.0
100
AcDbLine
 10
9540.500000000013
 20
6905.955177899421
 30
0.0
 11
9830.500000000014
 21
6905.955177899421
 31
0.0
  0
LINE
  5
1EA11
330
747D
100
AcDbEntity
  8
細線
 62
     7
 48
10.0
100
AcDbLine
 10
9785.500000000013
 20
6705.955177899423
 30
0.0
 11
9585.500000000013
 21
6705.955177899423
 31
0.0
  0
DIMENSION
  5
1EA12
330
747D
100
AcDbEntity
  8
寸法
 62
     7
 48
50.0
100
AcDbDimension
  2
*D17
 10
8293.499999999992
 20
7775.955177899421
 30
0.0
 11
8193.499999999989
 21
8028.955177899423
 31
0.0
 70
    32
 71
     5
 42
506.0000000000018
  3
INABA_S50G
100
AcDbAlignedDimension
 13
8518.470472440951
 23
8281.955177899423
 33
0.0
 14
9540.500000000013
 24
7775.955177899421
 34
0.0
 50
90.0
100
AcDbRotatedDimension
  0
LINE
  5
1EA13
330
747D
100
AcDbEntity
  8
センター
 62
     7
 48
5.0
100
AcDbLine
 10
9685.500000000013
 20
7630.955177899423
 30
0.0
 11
9685.500000000013
 21
7920.955177899426
 31
0.0
  0
LINE
  5
1EA14
330
747D
100
AcDbEntity
  8
細線
 62
     7
 48
10.0
100
AcDbLine
 10
9585.500000000013
 20
7975.955177899425
 30
0.0
 11
9585.500000000013
 21
7575.955177899423
 31
0.0
  0
DIMENSION
  5
1EA15
330
747D
100
AcDbEntity
  8
寸法
 62
     7
 48
50.0
100
AcDbDimension
  2
*D18
 10
8293.499999999992
 20
6905.955177899421
 30
0.0
 11
8193.499999999989
 21
7123.455177899424
 31
0.0
 70
    32
 71
     5
 42
435.0000000000018
  3
INABA_S50G
100
AcDbAlignedDimension
 13
9048.499999999991
 23
7340.955177899424
 33
0.0
 14
9540.500000000013
 24
6905.955177899421
 34
0.0
 50
90.0
100
AcDbRotatedDimension
1001
ACAD
1000
DSTYLE
1002
{
1070
   287
1070
     4
1070
    75
1070
     1
1070
   279
1070
     1
1002
}
  0
DIMENSION
  5
1EA16
330
747D
100
AcDbEntity
  8
寸法
 62
     7
 48
50.0
100
AcDbDimension
  2
*D19
 10
8293.499999999992
 20
7340.955177899424
 30
0.0
 11
8193.499999999989
 21
7558.455177899424
 31
0.0
 70
    32
 71
     5
 42
434.9999999999972
  3
INABA_S50G
100
AcDbAlignedDimension
 13
9540.500000000013
 23
7775.955177899421
 33
0.0
 14
9048.499999999991
 24
7340.955177899424
 34
0.0
 50
90.0
100
AcDbRotatedDimension
1001
ACAD
1000
DSTYLE
1002
{
1070
   287
1070
     4
1070
    75
1070
     1
1070
   279
1070
     1
1002
}
  0
LINE
  5
1EA17
330
747D
100
AcDbEntity
  8
細線
 62
     7
 48
10.0
100
AcDbLine
 10
9585.500000000013
 20
7240.955177899422
 30
0.0
 11
9585.500000000013
 21
7440.955177899422
 31
0.0
  0
LINE
  5
1EA18
330
747D
100
AcDbEntity
  8
センター
 62
     7
 48
5.0
100
AcDbLine
 10
9685.500000000013
 20
7485.955177899421
 30
0.0
 11
9685.500000000013
 21
7195.955177899422
 31
0.0
  0
LINE
  5
1EA19
330
747D
100
AcDbEntity
  8
部品1
 62
     7
 48
50.0
100
AcDbLine
 10
9048.499999999991
 20
7240.955177899422
 30
0.0
 11
9048.499999999991
 21
7440.955177899422
 31
0.0
  0
LINE
  5
1EA1A
330
747D
100
AcDbEntity
  8
部品1
 62
     7
 48
50.0
100
AcDbLine
 10
9248.500000000012
 20
7440.955177899422
 30
0.0
 11
9248.500000000012
 21
7240.955177899422
 31
0.0
  0
LINE
  5
1EA1B
330
747D
100
AcDbEntity
  8
部品1
 62
     7
 48
50.0
100
AcDbLine
 10
9248.500000000012
 20
7240.955177899422
 30
0.0
 11
9048.499999999991
 21
7240.955177899422
 31
0.0
  0
LINE
  5
1EA1C
330
747D
100
AcDbEntity
  8
細線
 62
     7
 48
10.0
100
AcDbLine
 10
9585.500000000013
 20
6705.955177899423
 30
0.0
 11
9585.500000000013
 21
7105.955177899423
 31
0.0
  0
LINE
  5
1EA1D
330
747D
100
AcDbEntity
  8
センター
 62
     7
 48
5.0
100
AcDbLine
 10
9685.500000000013
 20
7050.955177899424
 30
0.0
 11
9685.500000000013
 21
6760.955177899423
 31
0.0
  0
LINE
  5
1EA1E
330
747D
100
AcDbEntity
  8
部品1
 62
     7
 48
50.0
100
AcDbLine
 10
9724.140127007641
 20
6724.543435009573
 30
0.0
 11
9724.140127007641
 21
6724.543435009573
 31
0.0
  0
LINE
  5
1EA1F
330
747D
100
AcDbEntity
  8
部品1
 62
     7
 48
50.0
100
AcDbLine
 10
9700.327627007641
 20
6724.543435009573
 30
0.0
 11
9700.327627007641
 21
6724.543435009573
 31
0.0
  0
LINE
  5
1EA20
330
747D
100
AcDbEntity
  8
部品1
 62
     7
 48
50.0
100
AcDbLine
 10
9676.51512700764
 20
6724.543435009573
 30
0.0
 11
9676.51512700764
 21
6724.543435009573
 31
0.0
  0
LINE
  5
1EA21
330
747D
100
AcDbEntity
  8
部品1
 62
     7
 48
50.0
100
AcDbLine
 10
9652.702627007641
 20
6724.543435009573
 30
0.0
 11
9652.702627007641
 21
6724.543435009573
 31
0.0
  0
LINE
  5
1EA22
330
747D
100
AcDbEntity
  8
部品1
 62
     7
 48
50.0
100
AcDbLine
 10
9628.890127007641
 20
6724.543435009573
 30
0.0
 11
9628.890127007641
 21
6724.543435009573
 31
0.0
  0
LINE
  5
1EA23
330
747D
100
AcDbEntity
  8
部品1
 62
     7
 48
50.0
100
AcDbLine
 10
9605.077627007641
 20
6724.543435009573
 30
0.0
 11
9605.077627007641
 21
6724.543435009573
 31
0.0
  0
LINE
  5
1EA24
330
747D
100
AcDbEntity
  8
部品1
 62
     7
 48
50.0
100
AcDbLine
 10
9712.233877007641
 20
6748.355935009573
 30
0.0
 11
9712.233877007641
 21
6748.355935009573
 31
0.0
  0
LINE
  5
1EA25
330
747D
100
AcDbEntity
  8
部品1
 62
     7
 48
50.0
100
AcDbLine
 10
9688.421377007641
 20
6748.355935009573
 30
0.0
 11
9688.421377007641
 21
6748.355935009573
 31
0.0
  0
LINE
  5
1EA26
330
747D
100
AcDbEntity
  8
部品1
 62
     7
 48
50.0
100
AcDbLine
 10
9664.608877007641
 20
6748.355935009573
 30
0.0
 11
9664.608877007641
 21
6748.355935009573
 31
0.0
  0
LINE
  5
1EA27
330
747D
100
AcDbEntity
  8
部品1
 62
     7
 48
50.0
100
AcDbLine
 10
9640.796377007641
 20
6748.355935009573
 30
0.0
 11
9640.796377007641
 21
6748.355935009573
 31
0.0
  0
LINE
  5
1EA28
330
747D
100
AcDbEntity
  8
部品1
 62
     7
 48
50.0
100
AcDbLine
 10
9616.983877007641
 20
6748.355935009573
 30
0.0
 11
9616.983877007641
 21
6748.355935009573
 31
0.0
  0
LINE
  5
1EA29
330
747D
100
AcDbEntity
  8
部品1
 62
     7
 48
50.0
100
AcDbLine
 10
9593.17137700764
 20
6748.355935009573
 30
0.0
 11
9593.17137700764
 21
6748.355935009573
 31
0.0
  0
LINE
  5
1EA2A
330
747D
100
AcDbEntity
  8
部品1
 62
     7
 48
50.0
100
AcDbLine
 10
9724.140127007641
 20
6772.168435009572
 30
0.0
 11
9724.140127007641
 21
6772.168435009572
 31
0.0
  0
LINE
  5
1EA2B
330
747D
100
AcDbEntity
  8
部品1
 62
     7
 48
50.0
100
AcDbLine
 10
9700.327627007641
 20
6772.168435009572
 30
0.0
 11
9700.327627007641
 21
6772.168435009572
 31
0.0
  0
LINE
  5
1EA2C
330
747D
100
AcDbEntity
  8
部品1
 62
     7
 48
50.0
100
AcDbLine
 10
9676.51512700764
 20
6772.168435009572
 30
0.0
 11
9676.51512700764
 21
6772.168435009572
 31
0.0
  0
LINE
  5
1EA2D
330
747D
100
AcDbEntity
  8
部品1
 62
     7
 48
50.0
100
AcDbLine
 10
9652.702627007641
 20
6772.168435009572
 30
0.0
 11
9652.702627007641
 21
6772.168435009572
 31
0.0
  0
LINE
  5
1EA2E
330
747D
100
AcDbEntity
  8
部品1
 62
     7
 48
50.0
100
AcDbLine
 10
9628.890127007641
 20
6772.168435009572
 30
0.0
 11
9628.890127007641
 21
6772.168435009572
 31
0.0
  0
LINE
  5
1EA2F
330
747D
100
AcDbEntity
  8
部品1
 62
     7
 48
50.0
100
AcDbLine
 10
9605.077627007641
 20
6772.168435009572
 30
0.0
 11
9605.077627007641
 21
6772.168435009572
 31
0.0
  0
LINE
  5
1EA30
330
747D
100
AcDbEntity
  8
部品1
 62
     7
 48
50.0
100
AcDbLine
 10
9712.233877007641
 20
6795.980935009573
 30
0.0
 11
9712.233877007641
 21
6795.980935009573
 31
0.0
  0
LINE
  5
1EA31
330
747D
100
AcDbEntity
  8
部品1
 62
     7
 48
50.0
100
AcDbLine
 10
9688.421377007641
 20
6795.980935009573
 30
0.0
 11
9688.421377007641
 21
6795.980935009573
 31
0.0
  0
LINE
  5
1EA32
330
747D
100
AcDbEntity
  8
部品1
 62
     7
 48
50.0
100
AcDbLine
 10
9664.608877007641
 20
6795.980935009573
 30
0.0
 11
9664.608877007641
 21
6795.980935009573
 31
0.0
  0
LINE
  5
1EA33
330
747D
100
AcDbEntity
  8
部品1
 62
     7
 48
50.0
100
AcDbLine
 10
9640.796377007641
 20
6795.980935009573
 30
0.0
 11
9640.796377007641
 21
6795.980935009573
 31
0.0
  0
LINE
  5
1EA34
330
747D
100
AcDbEntity
  8
部品1
 62
     7
 48
50.0
100
AcDbLine
 10
9616.983877007641
 20
6795.980935009573
 30
0.0
 11
9616.983877007641
 21
6795.980935009573
 31
0.0
  0
LINE
  5
1EA35
330
747D
100
AcDbEntity
  8
部品1
 62
     7
 48
50.0
100
AcDbLine
 10
9593.17137700764
 20
6795.980935009573
 30
0.0
 11
9593.17137700764
 21
6795.980935009573
 31
0.0
  0
LINE
  5
1EA36
330
747D
100
AcDbEntity
  8
部品1
 62
     7
 48
50.0
100
AcDbLine
 10
9724.140127007641
 20
6819.793435009573
 30
0.0
 11
9724.140127007641
 21
6819.793435009573
 31
0.0
  0
LINE
  5
1EA37
330
747D
100
AcDbEntity
  8
部品1
 62
     7
 48
50.0
100
AcDbLine
 10
9700.327627007641
 20
6819.793435009573
 30
0.0
 11
9700.327627007641
 21
6819.793435009573
 31
0.0
  0
LINE
  5
1EA38
330
747D
100
AcDbEntity
  8
部品1
 62
     7
 48
50.0
100
AcDbLine
 10
9676.51512700764
 20
6819.793435009573
 30
0.0
 11
9676.51512700764
 21
6819.793435009573
 31
0.0
  0
LINE
  5
1EA39
330
747D
100
AcDbEntity
  8
部品1
 62
     7
 48
50.0
100
AcDbLine
 10
9652.702627007641
 20
6819.793435009573
 30
0.0
 11
9652.702627007641
 21
6819.793435009573
 31
0.0
  0
LINE
  5
1EA3A
330
747D
100
AcDbEntity
  8
部品1
 62
     7
 48
50.0
100
AcDbLine
 10
9628.890127007641
 20
6819.793435009573
 30
0.0
 11
9628.890127007641
 21
6819.793435009573
 31
0.0
  0
LINE
  5
1EA3B
330
747D
100
AcDbEntity
  8
部品1
 62
     7
 48
50.0
100
AcDbLine
 10
9605.077627007641
 20
6819.793435009573
 30
0.0
 11
9605.077627007641
 21
6819.793435009573
 31
0.0
  0
LINE
  5
1EA3C
330
747D
100
AcDbEntity
  8
部品1
 62
     7
 48
50.0
100
AcDbLine
 10
9712.233877007641
 20
6843.605935009573
 30
0.0
 11
9712.233877007641
 21
6843.605935009573
 31
0.0
  0
LINE
  5
1EA3D
330
747D
100
AcDbEntity
  8
部品1
 62
     7
 48
50.0
100
AcDbLine
 10
9688.421377007641
 20
6843.605935009573
 30
0.0
 11
9688.421377007641
 21
6843.605935009573
 31
0.0
  0
LINE
  5
1EA3E
330
747D
100
AcDbEntity
  8
部品1
 62
     7
 48
50.0
100
AcDbLine
 10
9664.608877007641
 20
6843.605935009573
 30
0.0
 11
9664.608877007641
 21
6843.605935009573
 31
0.0
  0
LINE
  5
1EA3F
330
747D
100
AcDbEntity
  8
部品1
 62
     7
 48
50.0
100
AcDbLine
 10
9640.796377007641
 20
6843.605935009573
 30
0.0
 11
9640.796377007641
 21
6843.605935009573
 31
0.0
  0
LINE
  5
1EA40
330
747D
100
AcDbEntity
  8
部品1
 62
     7
 48
50.0
100
AcDbLine
 10
9616.983877007641
 20
6843.605935009573
 30
0.0
 11
9616.983877007641
 21
6843.605935009573
 31
0.0
  0
LINE
  5
1EA41
330
747D
100
AcDbEntity
  8
部品1
 62
     7
 48
50.0
100
AcDbLine
 10
9593.17137700764
 20
6843.605935009573
 30
0.0
 11
9593.17137700764
 21
6843.605935009573
 31
0.0
  0
LINE
  5
1EA42
330
747D
100
AcDbEntity
  8
部品1
 62
     7
 48
50.0
100
AcDbLine
 10
9724.140127007641
 20
6867.418435009573
 30
0.0
 11
9724.140127007641
 21
6867.418435009573
 31
0.0
  0
LINE
  5
1EA43
330
747D
100
AcDbEntity
  8
部品1
 62
     7
 48
50.0
100
AcDbLine
 10
9700.327627007641
 20
6867.418435009573
 30
0.0
 11
9700.327627007641
 21
6867.418435009573
 31
0.0
  0
LINE
  5
1EA44
330
747D
100
AcDbEntity
  8
部品1
 62
     7
 48
50.0
100
AcDbLine
 10
9676.51512700764
 20
6867.418435009573
 30
0.0
 11
9676.51512700764
 21
6867.418435009573
 31
0.0
  0
LINE
  5
1EA45
330
747D
100
AcDbEntity
  8
部品1
 62
     7
 48
50.0
100
AcDbLine
 10
9652.702627007641
 20
6867.418435009573
 30
0.0
 11
9652.702627007641
 21
6867.418435009573
 31
0.0
  0
LINE
  5
1EA46
330
747D
100
AcDbEntity
  8
部品1
 62
     7
 48
50.0
100
AcDbLine
 10
9628.890127007641
 20
6867.418435009573
 30
0.0
 11
9628.890127007641
 21
6867.418435009573
 31
0.0
  0
LINE
  5
1EA47
330
747D
100
AcDbEntity
  8
部品1
 62
     7
 48
50.0
100
AcDbLine
 10
9605.077627007641
 20
6867.418435009573
 30
0.0
 11
9605.077627007641
 21
6867.418435009573
 31
0.0
  0
LINE
  5
1EA48
330
747D
100
AcDbEntity
  8
部品1
 62
     7
 48
50.0
100
AcDbLine
 10
9712.233877007641
 20
6891.230935009573
 30
0.0
 11
9712.233877007641
 21
6891.230935009573
 31
0.0
  0
LINE
  5
1EA49
330
747D
100
AcDbEntity
  8
部品1
 62
     7
 48
50.0
100
AcDbLine
 10
9688.421377007641
 20
6891.230935009573
 30
0.0
 11
9688.421377007641
 21
6891.230935009573
 31
0.0
  0
LINE
  5
1EA4A
330
747D
100
AcDbEntity
  8
部品1
 62
     7
 48
50.0
100
AcDbLine
 10
9664.608877007641
 20
6891.230935009573
 30
0.0
 11
9664.608877007641
 21
6891.230935009573
 31
0.0
  0
LINE
  5
1EA4B
330
747D
100
AcDbEntity
  8
部品1
 62
     7
 48
50.0
100
AcDbLine
 10
9640.796377007641
 20
6891.230935009573
 30
0.0
 11
9640.796377007641
 21
6891.230935009573
 31
0.0
  0
LINE
  5
1EA4C
330
747D
100
AcDbEntity
  8
部品1
 62
     7
 48
50.0
100
AcDbLine
 10
9616.983877007641
 20
6891.230935009573
 30
0.0
 11
9616.983877007641
 21
6891.230935009573
 31
0.0
  0
LINE
  5
1EA4D
330
747D
100
AcDbEntity
  8
部品1
 62
     7
 48
50.0
100
AcDbLine
 10
9593.17137700764
 20
6891.230935009573
 30
0.0
 11
9593.17137700764
 21
6891.230935009573
 31
0.0
  0
LINE
  5
1EA4E
330
747D
100
AcDbEntity
  8
部品1
 62
     7
 48
50.0
100
AcDbLine
 10
9724.140127007641
 20
6915.043435009573
 30
0.0
 11
9724.140127007641
 21
6915.043435009573
 31
0.0
  0
LINE
  5
1EA4F
330
747D
100
AcDbEntity
  8
部品1
 62
     7
 48
50.0
100
AcDbLine
 10
9700.327627007641
 20
6915.043435009573
 30
0.0
 11
9700.327627007641
 21
6915.043435009573
 31
0.0
  0
LINE
  5
1EA50
330
747D
100
AcDbEntity
  8
部品1
 62
     7
 48
50.0
100
AcDbLine
 10
9676.51512700764
 20
6915.043435009573
 30
0.0
 11
9676.51512700764
 21
6915.043435009573
 31
0.0
  0
LINE
  5
1EA51
330
747D
100
AcDbEntity
  8
部品1
 62
     7
 48
50.0
100
AcDbLine
 10
9652.702627007641
 20
6915.043435009573
 30
0.0
 11
9652.702627007641
 21
6915.043435009573
 31
0.0
  0
LINE
  5
1EA52
330
747D
100
AcDbEntity
  8
部品1
 62
     7
 48
50.0
100
AcDbLine
 10
9628.890127007641
 20
6915.043435009573
 30
0.0
 11
9628.890127007641
 21
6915.043435009573
 31
0.0
  0
LINE
  5
1EA53
330
747D
100
AcDbEntity
  8
部品1
 62
     7
 48
50.0
100
AcDbLine
 10
9605.077627007641
 20
6915.043435009573
 30
0.0
 11
9605.077627007641
 21
6915.043435009573
 31
0.0
  0
LINE
  5
1EA54
330
747D
100
AcDbEntity
  8
部品1
 62
     7
 48
50.0
100
AcDbLine
 10
9712.233877007641
 20
6938.855935009573
 30
0.0
 11
9712.233877007641
 21
6938.855935009573
 31
0.0
  0
LINE
  5
1EA55
330
747D
100
AcDbEntity
  8
部品1
 62
     7
 48
50.0
100
AcDbLine
 10
9688.421377007641
 20
6938.855935009573
 30
0.0
 11
9688.421377007641
 21
6938.855935009573
 31
0.0
  0
LINE
  5
1EA56
330
747D
100
AcDbEntity
  8
部品1
 62
     7
 48
50.0
100
AcDbLine
 10
9664.608877007641
 20
6938.855935009573
 30
0.0
 11
9664.608877007641
 21
6938.855935009573
 31
0.0
  0
LINE
  5
1EA57
330
747D
100
AcDbEntity
  8
部品1
 62
     7
 48
50.0
100
AcDbLine
 10
9640.796377007641
 20
6938.855935009573
 30
0.0
 11
9640.796377007641
 21
6938.855935009573
 31
0.0
  0
LINE
  5
1EA58
330
747D
100
AcDbEntity
  8
部品1
 62
     7
 48
50.0
100
AcDbLine
 10
9616.983877007641
 20
6938.855935009573
 30
0.0
 11
9616.983877007641
 21
6938.855935009573
 31
0.0
  0
LINE
  5
1EA59
330
747D
100
AcDbEntity
  8
部品1
 62
     7
 48
50.0
100
AcDbLine
 10
9593.17137700764
 20
6938.855935009573
 30
0.0
 11
9593.17137700764
 21
6938.855935009573
 31
0.0
  0
LINE
  5
1EA5A
330
747D
100
AcDbEntity
  8
部品1
 62
     7
 48
50.0
100
AcDbLine
 10
9724.140127007641
 20
6962.668435009574
 30
0.0
 11
9724.140127007641
 21
6962.668435009574
 31
0.0
  0
LINE
  5
1EA5B
330
747D
100
AcDbEntity
  8
部品1
 62
     7
 48
50.0
100
AcDbLine
 10
9700.327627007641
 20
6962.668435009574
 30
0.0
 11
9700.327627007641
 21
6962.668435009574
 31
0.0
  0
LINE
  5
1EA5C
330
747D
100
AcDbEntity
  8
部品1
 62
     7
 48
50.0
100
AcDbLine
 10
9676.51512700764
 20
6962.668435009574
 30
0.0
 11
9676.51512700764
 21
6962.668435009574
 31
0.0
  0
LINE
  5
1EA5D
330
747D
100
AcDbEntity
  8
部品1
 62
     7
 48
50.0
100
AcDbLine
 10
9652.702627007641
 20
6962.668435009574
 30
0.0
 11
9652.702627007641
 21
6962.668435009574
 31
0.0
  0
LINE
  5
1EA5E
330
747D
100
AcDbEntity
  8
部品1
 62
     7
 48
50.0
100
AcDbLine
 10
9628.890127007641
 20
6962.668435009574
 30
0.0
 11
9628.890127007641
 21
6962.668435009574
 31
0.0
  0
LINE
  5
1EA5F
330
747D
100
AcDbEntity
  8
部品1
 62
     7
 48
50.0
100
AcDbLine
 10
9605.077627007641
 20
6962.668435009574
 30
0.0
 11
9605.077627007641
 21
6962.668435009574
 31
0.0
  0
LINE
  5
1EA60
330
747D
100
AcDbEntity
  8
部品1
 62
     7
 48
50.0
100
AcDbLine
 10
9712.233877007641
 20
6986.480935009574
 30
0.0
 11
9712.233877007641
 21
6986.480935009574
 31
0.0
  0
LINE
  5
1EA61
330
747D
100
AcDbEntity
  8
部品1
 62
     7
 48
50.0
100
AcDbLine
 10
9688.421377007641
 20
6986.480935009574
 30
0.0
 11
9688.421377007641
 21
6986.480935009574
 31
0.0
  0
LINE
  5
1EA62
330
747D
100
AcDbEntity
  8
部品1
 62
     7
 48
50.0
100
AcDbLine
 10
9664.608877007641
 20
6986.480935009574
 30
0.0
 11
9664.608877007641
 21
6986.480935009574
 31
0.0
  0
LINE
  5
1EA63
330
747D
100
AcDbEntity
  8
部品1
 62
     7
 48
50.0
100
AcDbLine
 10
9640.796377007641
 20
6986.480935009574
 30
0.0
 11
9640.796377007641
 21
6986.480935009574
 31
0.0
  0
LINE
  5
1EA64
330
747D
100
AcDbEntity
  8
部品1
 62
     7
 48
50.0
100
AcDbLine
 10
9616.983877007641
 20
6986.480935009574
 30
0.0
 11
9616.983877007641
 21
6986.480935009574
 31
0.0
  0
LINE
  5
1EA65
330
747D
100
AcDbEntity
  8
部品1
 62
     7
 48
50.0
100
AcDbLine
 10
9593.17137700764
 20
6986.480935009574
 30
0.0
 11
9593.17137700764
 21
6986.480935009574
 31
0.0
  0
LINE
  5
1EA66
330
747D
100
AcDbEntity
  8
部品1
 62
     7
 48
50.0
100
AcDbLine
 10
9724.140127007641
 20
7010.293435009574
 30
0.0
 11
9724.140127007641
 21
7010.293435009574
 31
0.0
  0
LINE
  5
1EA67
330
747D
100
AcDbEntity
  8
部品1
 62
     7
 48
50.0
100
AcDbLine
 10
9700.327627007641
 20
7010.293435009574
 30
0.0
 11
9700.327627007641
 21
7010.293435009574
 31
0.0
  0
LINE
  5
1EA68
330
747D
100
AcDbEntity
  8
部品1
 62
     7
 48
50.0
100
AcDbLine
 10
9676.51512700764
 20
7010.293435009574
 30
0.0
 11
9676.51512700764
 21
7010.293435009574
 31
0.0
  0
LINE
  5
1EA69
330
747D
100
AcDbEntity
  8
部品1
 62
     7
 48
50.0
100
AcDbLine
 10
9652.702627007641
 20
7010.293435009574
 30
0.0
 11
9652.702627007641
 21
7010.293435009574
 31
0.0
  0
LINE
  5
1EA6A
330
747D
100
AcDbEntity
  8
部品1
 62
     7
 48
50.0
100
AcDbLine
 10
9628.890127007641
 20
7010.293435009574
 30
0.0
 11
9628.890127007641
 21
7010.293435009574
 31
0.0
  0
LINE
  5
1EA6B
330
747D
100
AcDbEntity
  8
部品1
 62
     7
 48
50.0
100
AcDbLine
 10
9605.077627007641
 20
7010.293435009574
 30
0.0
 11
9605.077627007641
 21
7010.293435009574
 31
0.0
  0
LINE
  5
1EA6C
330
747D
100
AcDbEntity
  8
部品1
 62
     7
 48
50.0
100
AcDbLine
 10
9712.233877007641
 20
7034.105935009574
 30
0.0
 11
9712.233877007641
 21
7034.105935009574
 31
0.0
  0
LINE
  5
1EA6D
330
747D
100
AcDbEntity
  8
部品1
 62
     7
 48
50.0
100
AcDbLine
 10
9688.421377007641
 20
7034.105935009574
 30
0.0
 11
9688.421377007641
 21
7034.105935009574
 31
0.0
  0
LINE
  5
1EA6E
330
747D
100
AcDbEntity
  8
部品1
 62
     7
 48
50.0
100
AcDbLine
 10
9664.608877007641
 20
7034.105935009574
 30
0.0
 11
9664.608877007641
 21
7034.105935009574
 31
0.0
  0
LINE
  5
1EA6F
330
747D
100
AcDbEntity
  8
部品1
 62
     7
 48
50.0
100
AcDbLine
 10
9640.796377007641
 20
7034.105935009574
 30
0.0
 11
9640.796377007641
 21
7034.105935009574
 31
0.0
  0
LINE
  5
1EA70
330
747D
100
AcDbEntity
  8
部品1
 62
     7
 48
50.0
100
AcDbLine
 10
9616.983877007641
 20
7034.105935009574
 30
0.0
 11
9616.983877007641
 21
7034.105935009574
 31
0.0
  0
LINE
  5
1EA71
330
747D
100
AcDbEntity
  8
部品1
 62
     7
 48
50.0
100
AcDbLine
 10
9593.17137700764
 20
7034.105935009574
 30
0.0
 11
9593.17137700764
 21
7034.105935009574
 31
0.0
  0
LINE
  5
1EA72
330
747D
100
AcDbEntity
  8
部品1
 62
     7
 48
50.0
100
AcDbLine
 10
9724.140127007641
 20
7057.918435009574
 30
0.0
 11
9724.140127007641
 21
7057.918435009574
 31
0.0
  0
LINE
  5
1EA73
330
747D
100
AcDbEntity
  8
部品1
 62
     7
 48
50.0
100
AcDbLine
 10
9700.327627007641
 20
7057.918435009574
 30
0.0
 11
9700.327627007641
 21
7057.918435009574
 31
0.0
  0
LINE
  5
1EA74
330
747D
100
AcDbEntity
  8
部品1
 62
     7
 48
50.0
100
AcDbLine
 10
9676.51512700764
 20
7057.918435009574
 30
0.0
 11
9676.51512700764
 21
7057.918435009574
 31
0.0
  0
LINE
  5
1EA75
330
747D
100
AcDbEntity
  8
部品1
 62
     7
 48
50.0
100
AcDbLine
 10
9652.702627007641
 20
7057.918435009574
 30
0.0
 11
9652.702627007641
 21
7057.918435009574
 31
0.0
  0
LINE
  5
1EA76
330
747D
100
AcDbEntity
  8
部品1
 62
     7
 48
50.0
100
AcDbLine
 10
9628.890127007641
 20
7057.918435009574
 30
0.0
 11
9628.890127007641
 21
7057.918435009574
 31
0.0
  0
LINE
  5
1EA77
330
747D
100
AcDbEntity
  8
部品1
 62
     7
 48
50.0
100
AcDbLine
 10
9605.077627007641
 20
7057.918435009574
 30
0.0
 11
9605.077627007641
 21
7057.918435009574
 31
0.0
  0
LINE
  5
1EA78
330
747D
100
AcDbEntity
  8
部品1
 62
     7
 48
50.0
100
AcDbLine
 10
9712.233877007641
 20
7081.730935009574
 30
0.0
 11
9712.233877007641
 21
7081.730935009574
 31
0.0
  0
LINE
  5
1EA79
330
747D
100
AcDbEntity
  8
部品1
 62
     7
 48
50.0
100
AcDbLine
 10
9688.421377007641
 20
7081.730935009574
 30
0.0
 11
9688.421377007641
 21
7081.730935009574
 31
0.0
  0
LINE
  5
1EA7A
330
747D
100
AcDbEntity
  8
部品1
 62
     7
 48
50.0
100
AcDbLine
 10
9664.608877007641
 20
7081.730935009574
 30
0.0
 11
9664.608877007641
 21
7081.730935009574
 31
0.0
  0
LINE
  5
1EA7B
330
747D
100
AcDbEntity
  8
部品1
 62
     7
 48
50.0
100
AcDbLine
 10
9640.796377007641
 20
7081.730935009574
 30
0.0
 11
9640.796377007641
 21
7081.730935009574
 31
0.0
  0
LINE
  5
1EA7C
330
747D
100
AcDbEntity
  8
部品1
 62
     7
 48
50.0
100
AcDbLine
 10
9616.983877007641
 20
7081.730935009574
 30
0.0
 11
9616.983877007641
 21
7081.730935009574
 31
0.0
  0
LINE
  5
1EA7D
330
747D
100
AcDbEntity
  8
部品1
 62
     7
 48
50.0
100
AcDbLine
 10
9593.17137700764
 20
7081.730935009574
 30
0.0
 11
9593.17137700764
 21
7081.730935009574
 31
0.0
  0
LINE
  5
1EA7E
330
747D
100
AcDbEntity
  8
部品1
 62
     7
 48
50.0
100
AcDbLine
 10
9724.140127007641
 20
7105.543435009574
 30
0.0
 11
9724.140127007641
 21
7105.543435009574
 31
0.0
  0
LINE
  5
1EA7F
330
747D
100
AcDbEntity
  8
部品1
 62
     7
 48
50.0
100
AcDbLine
 10
9700.327627007641
 20
7105.543435009574
 30
0.0
 11
9700.327627007641
 21
7105.543435009574
 31
0.0
  0
LINE
  5
1EA80
330
747D
100
AcDbEntity
  8
部品1
 62
     7
 48
50.0
100
AcDbLine
 10
9676.51512700764
 20
7105.543435009574
 30
0.0
 11
9676.51512700764
 21
7105.543435009574
 31
0.0
  0
LINE
  5
1EA81
330
747D
100
AcDbEntity
  8
部品1
 62
     7
 48
50.0
100
AcDbLine
 10
9652.702627007641
 20
7105.543435009574
 30
0.0
 11
9652.702627007641
 21
7105.543435009574
 31
0.0
  0
LINE
  5
1EA82
330
747D
100
AcDbEntity
  8
部品1
 62
     7
 48
50.0
100
AcDbLine
 10
9628.890127007641
 20
7105.543435009574
 30
0.0
 11
9628.890127007641
 21
7105.543435009574
 31
0.0
  0
LINE
  5
1EA83
330
747D
100
AcDbEntity
  8
部品1
 62
     7
 48
50.0
100
AcDbLine
 10
9605.077627007641
 20
7105.543435009574
 30
0.0
 11
9605.077627007641
 21
7105.543435009574
 31
0.0
  0
LINE
  5
1EA84
330
747D
100
AcDbEntity
  8
部品1
 62
     7
 48
50.0
100
AcDbLine
 10
9724.140127007641
 20
7248.418435009575
 30
0.0
 11
9724.140127007641
 21
7248.418435009575
 31
0.0
  0
LINE
  5
1EA85
330
747D
100
AcDbEntity
  8
部品1
 62
     7
 48
50.0
100
AcDbLine
 10
9700.327627007641
 20
7248.418435009575
 30
0.0
 11
9700.327627007641
 21
7248.418435009575
 31
0.0
  0
LINE
  5
1EA86
330
747D
100
AcDbEntity
  8
部品1
 62
     7
 48
50.0
100
AcDbLine
 10
9676.51512700764
 20
7248.418435009575
 30
0.0
 11
9676.51512700764
 21
7248.418435009575
 31
0.0
  0
LINE
  5
1EA87
330
747D
100
AcDbEntity
  8
部品1
 62
     7
 48
50.0
100
AcDbLine
 10
9652.702627007641
 20
7248.418435009575
 30
0.0
 11
9652.702627007641
 21
7248.418435009575
 31
0.0
  0
LINE
  5
1EA88
330
747D
100
AcDbEntity
  8
部品1
 62
     7
 48
50.0
100
AcDbLine
 10
9628.890127007641
 20
7248.418435009575
 30
0.0
 11
9628.890127007641
 21
7248.418435009575
 31
0.0
  0
LINE
  5
1EA89
330
747D
100
AcDbEntity
  8
部品1
 62
     7
 48
50.0
100
AcDbLine
 10
9605.077627007641
 20
7248.418435009575
 30
0.0
 11
9605.077627007641
 21
7248.418435009575
 31
0.0
  0
LINE
  5
1EA8A
330
747D
100
AcDbEntity
  8
部品1
 62
     7
 48
50.0
100
AcDbLine
 10
9712.233877007641
 20
7272.230935009573
 30
0.0
 11
9712.233877007641
 21
7272.230935009573
 31
0.0
  0
LINE
  5
1EA8B
330
747D
100
AcDbEntity
  8
部品1
 62
     7
 48
50.0
100
AcDbLine
 10
9688.421377007641
 20
7272.230935009573
 30
0.0
 11
9688.421377007641
 21
7272.230935009573
 31
0.0
  0
LINE
  5
1EA8C
330
747D
100
AcDbEntity
  8
部品1
 62
     7
 48
50.0
100
AcDbLine
 10
9664.608877007641
 20
7272.230935009573
 30
0.0
 11
9664.608877007641
 21
7272.230935009573
 31
0.0
  0
LINE
  5
1EA8D
330
747D
100
AcDbEntity
  8
部品1
 62
     7
 48
50.0
100
AcDbLine
 10
9640.796377007641
 20
7272.230935009573
 30
0.0
 11
9640.796377007641
 21
7272.230935009573
 31
0.0
  0
LINE
  5
1EA8E
330
747D
100
AcDbEntity
  8
部品1
 62
     7
 48
50.0
100
AcDbLine
 10
9616.983877007641
 20
7272.230935009573
 30
0.0
 11
9616.983877007641
 21
7272.230935009573
 31
0.0
  0
LINE
  5
1EA8F
330
747D
100
AcDbEntity
  8
部品1
 62
     7
 48
50.0
100
AcDbLine
 10
9593.17137700764
 20
7272.230935009573
 30
0.0
 11
9593.17137700764
 21
7272.230935009573
 31
0.0
  0
LINE
  5
1EA90
330
747D
100
AcDbEntity
  8
部品1
 62
     7
 48
50.0
100
AcDbLine
 10
9048.499999999991
 20
7440.955177899422
 30
0.0
 11
9248.500000000012
 21
7440.955177899422
 31
0.0
  0
LINE
  5
1EA91
330
747D
100
AcDbEntity
  8
部品1
 62
     7
 48
50.0
100
AcDbLine
 10
9724.140127007641
 20
7296.043435009574
 30
0.0
 11
9724.140127007641
 21
7296.043435009574
 31
0.0
  0
LINE
  5
1EA92
330
747D
100
AcDbEntity
  8
部品1
 62
     7
 48
50.0
100
AcDbLine
 10
9700.327627007641
 20
7296.043435009574
 30
0.0
 11
9700.327627007641
 21
7296.043435009574
 31
0.0
  0
LINE
  5
1EA93
330
747D
100
AcDbEntity
  8
部品1
 62
     7
 48
50.0
100
AcDbLine
 10
9676.51512700764
 20
7296.043435009574
 30
0.0
 11
9676.51512700764
 21
7296.043435009574
 31
0.0
  0
LINE
  5
1EA94
330
747D
100
AcDbEntity
  8
部品1
 62
     7
 48
50.0
100
AcDbLine
 10
9652.702627007641
 20
7296.043435009574
 30
0.0
 11
9652.702627007641
 21
7296.043435009574
 31
0.0
  0
LINE
  5
1EA95
330
747D
100
AcDbEntity
  8
部品1
 62
     7
 48
50.0
100
AcDbLine
 10
9628.890127007641
 20
7296.043435009574
 30
0.0
 11
9628.890127007641
 21
7296.043435009574
 31
0.0
  0
LINE
  5
1EA96
330
747D
100
AcDbEntity
  8
部品1
 62
     7
 48
50.0
100
AcDbLine
 10
9605.077627007641
 20
7296.043435009574
 30
0.0
 11
9605.077627007641
 21
7296.043435009574
 31
0.0
  0
LINE
  5
1EA97
330
747D
100
AcDbEntity
  8
部品1
 62
     7
 48
50.0
100
AcDbLine
 10
9712.233877007641
 20
7319.85593500957
 30
0.0
 11
9712.233877007641
 21
7319.85593500957
 31
0.0
  0
LINE
  5
1EA98
330
747D
100
AcDbEntity
  8
部品1
 62
     7
 48
50.0
100
AcDbLine
 10
9688.421377007641
 20
7319.85593500957
 30
0.0
 11
9688.421377007641
 21
7319.85593500957
 31
0.0
  0
LINE
  5
1EA99
330
747D
100
AcDbEntity
  8
部品1
 62
     7
 48
50.0
100
AcDbLine
 10
9664.608877007641
 20
7319.85593500957
 30
0.0
 11
9664.608877007641
 21
7319.85593500957
 31
0.0
  0
LINE
  5
1EA9A
330
747D
100
AcDbEntity
  8
部品1
 62
     7
 48
50.0
100
AcDbLine
 10
9640.796377007641
 20
7319.85593500957
 30
0.0
 11
9640.796377007641
 21
7319.85593500957
 31
0.0
  0
LINE
  5
1EA9B
330
747D
100
AcDbEntity
  8
部品1
 62
     7
 48
50.0
100
AcDbLine
 10
9616.983877007641
 20
7319.85593500957
 30
0.0
 11
9616.983877007641
 21
7319.85593500957
 31
0.0
  0
LINE
  5
1EA9C
330
747D
100
AcDbEntity
  8
部品1
 62
     7
 48
50.0
100
AcDbLine
 10
9593.17137700764
 20
7319.85593500957
 30
0.0
 11
9593.17137700764
 21
7319.85593500957
 31
0.0
  0
LINE
  5
1EA9D
330
747D
100
AcDbEntity
  8
部品1
 62
     7
 48
50.0
100
AcDbLine
 10
9724.140127007641
 20
7343.668435009572
 30
0.0
 11
9724.140127007641
 21
7343.668435009572
 31
0.0
  0
LINE
  5
1EA9E
330
747D
100
AcDbEntity
  8
部品1
 62
     7
 48
50.0
100
AcDbLine
 10
9700.327627007641
 20
7343.668435009572
 30
0.0
 11
9700.327627007641
 21
7343.668435009572
 31
0.0
  0
LINE
  5
1EA9F
330
747D
100
AcDbEntity
  8
部品1
 62
     7
 48
50.0
100
AcDbLine
 10
9676.51512700764
 20
7343.668435009572
 30
0.0
 11
9676.51512700764
 21
7343.668435009572
 31
0.0
  0
LINE
  5
1EAA0
330
747D
100
AcDbEntity
  8
部品1
 62
     7
 48
50.0
100
AcDbLine
 10
9652.702627007641
 20
7343.668435009572
 30
0.0
 11
9652.702627007641
 21
7343.668435009572
 31
0.0
  0
LINE
  5
1EAA1
330
747D
100
AcDbEntity
  8
部品1
 62
     7
 48
50.0
100
AcDbLine
 10
9628.890127007641
 20
7343.668435009572
 30
0.0
 11
9628.890127007641
 21
7343.668435009572
 31
0.0
  0
LINE
  5
1EAA2
330
747D
100
AcDbEntity
  8
部品1
 62
     7
 48
50.0
100
AcDbLine
 10
9605.077627007641
 20
7343.668435009572
 30
0.0
 11
9605.077627007641
 21
7343.668435009572
 31
0.0
  0
LINE
  5
1EAA3
330
747D
100
AcDbEntity
  8
部品1
 62
     7
 48
50.0
100
AcDbLine
 10
9712.233877007641
 20
7367.480935009574
 30
0.0
 11
9712.233877007641
 21
7367.480935009574
 31
0.0
  0
LINE
  5
1EAA4
330
747D
100
AcDbEntity
  8
部品1
 62
     7
 48
50.0
100
AcDbLine
 10
9688.421377007641
 20
7367.480935009574
 30
0.0
 11
9688.421377007641
 21
7367.480935009574
 31
0.0
  0
LINE
  5
1EAA5
330
747D
100
AcDbEntity
  8
部品1
 62
     7
 48
50.0
100
AcDbLine
 10
9664.608877007641
 20
7367.480935009574
 30
0.0
 11
9664.608877007641
 21
7367.480935009574
 31
0.0
  0
LINE
  5
1EAA6
330
747D
100
AcDbEntity
  8
部品1
 62
     7
 48
50.0
100
AcDbLine
 10
9640.796377007641
 20
7367.480935009574
 30
0.0
 11
9640.796377007641
 21
7367.480935009574
 31
0.0
  0
LINE
  5
1EAA7
330
747D
100
AcDbEntity
  8
部品1
 62
     7
 48
50.0
100
AcDbLine
 10
9616.983877007641
 20
7367.480935009574
 30
0.0
 11
9616.983877007641
 21
7367.480935009574
 31
0.0
  0
LINE
  5
1EAA8
330
747D
100
AcDbEntity
  8
部品1
 62
     7
 48
50.0
100
AcDbLine
 10
9593.17137700764
 20
7367.480935009574
 30
0.0
 11
9593.17137700764
 21
7367.480935009574
 31
0.0
  0
LINE
  5
1EAA9
330
747D
100
AcDbEntity
  8
部品1
 62
     7
 48
50.0
100
AcDbLine
 10
9724.140127007641
 20
7391.293435009574
 30
0.0
 11
9724.140127007641
 21
7391.293435009574
 31
0.0
  0
LINE
  5
1EAAA
330
747D
100
AcDbEntity
  8
部品1
 62
     7
 48
50.0
100
AcDbLine
 10
9700.327627007641
 20
7391.293435009574
 30
0.0
 11
9700.327627007641
 21
7391.293435009574
 31
0.0
  0
LINE
  5
1EAAB
330
747D
100
AcDbEntity
  8
部品1
 62
     7
 48
50.0
100
AcDbLine
 10
9676.51512700764
 20
7391.293435009574
 30
0.0
 11
9676.51512700764
 21
7391.293435009574
 31
0.0
  0
LINE
  5
1EAAC
330
747D
100
AcDbEntity
  8
部品1
 62
     7
 48
50.0
100
AcDbLine
 10
9652.702627007641
 20
7391.293435009574
 30
0.0
 11
9652.702627007641
 21
7391.293435009574
 31
0.0
  0
LINE
  5
1EAAD
330
747D
100
AcDbEntity
  8
部品1
 62
     7
 48
50.0
100
AcDbLine
 10
9628.890127007641
 20
7391.293435009574
 30
0.0
 11
9628.890127007641
 21
7391.293435009574
 31
0.0
  0
LINE
  5
1EAAE
330
747D
100
AcDbEntity
  8
部品1
 62
     7
 48
50.0
100
AcDbLine
 10
9605.077627007641
 20
7391.293435009574
 30
0.0
 11
9605.077627007641
 21
7391.293435009574
 31
0.0
  0
LINE
  5
1EAAF
330
747D
100
AcDbEntity
  8
部品1
 62
     7
 48
50.0
100
AcDbLine
 10
9712.233877007641
 20
7415.10593500957
 30
0.0
 11
9712.233877007641
 21
7415.10593500957
 31
0.0
  0
LINE
  5
1EAB0
330
747D
100
AcDbEntity
  8
部品1
 62
     7
 48
50.0
100
AcDbLine
 10
9688.421377007641
 20
7415.10593500957
 30
0.0
 11
9688.421377007641
 21
7415.10593500957
 31
0.0
  0
LINE
  5
1EAB1
330
747D
100
AcDbEntity
  8
部品1
 62
     7
 48
50.0
100
AcDbLine
 10
9664.608877007641
 20
7415.10593500957
 30
0.0
 11
9664.608877007641
 21
7415.10593500957
 31
0.0
  0
LINE
  5
1EAB2
330
747D
100
AcDbEntity
  8
部品1
 62
     7
 48
50.0
100
AcDbLine
 10
9640.796377007641
 20
7415.10593500957
 30
0.0
 11
9640.796377007641
 21
7415.10593500957
 31
0.0
  0
LINE
  5
1EAB3
330
747D
100
AcDbEntity
  8
部品1
 62
     7
 48
50.0
100
AcDbLine
 10
9616.983877007641
 20
7415.10593500957
 30
0.0
 11
9616.983877007641
 21
7415.10593500957
 31
0.0
  0
LINE
  5
1EAB4
330
747D
100
AcDbEntity
  8
部品1
 62
     7
 48
50.0
100
AcDbLine
 10
9593.17137700764
 20
7415.10593500957
 30
0.0
 11
9593.17137700764
 21
7415.10593500957
 31
0.0
  0
LINE
  5
1EAB5
330
747D
100
AcDbEntity
  8
部品1
 62
     7
 48
50.0
100
AcDbLine
 10
9724.140127007641
 20
7581.793435009577
 30
0.0
 11
9724.140127007641
 21
7581.793435009577
 31
0.0
  0
LINE
  5
1EAB6
330
747D
100
AcDbEntity
  8
部品1
 62
     7
 48
50.0
100
AcDbLine
 10
9700.327627007641
 20
7581.793435009577
 30
0.0
 11
9700.327627007641
 21
7581.793435009577
 31
0.0
  0
LINE
  5
1EAB7
330
747D
100
AcDbEntity
  8
部品1
 62
     7
 48
50.0
100
AcDbLine
 10
9676.51512700764
 20
7581.793435009577
 30
0.0
 11
9676.51512700764
 21
7581.793435009577
 31
0.0
  0
LINE
  5
1EAB8
330
747D
100
AcDbEntity
  8
部品1
 62
     7
 48
50.0
100
AcDbLine
 10
9652.702627007641
 20
7581.793435009577
 30
0.0
 11
9652.702627007641
 21
7581.793435009577
 31
0.0
  0
LINE
  5
1EAB9
330
747D
100
AcDbEntity
  8
部品1
 62
     7
 48
50.0
100
AcDbLine
 10
9628.890127007641
 20
7581.793435009577
 30
0.0
 11
9628.890127007641
 21
7581.793435009577
 31
0.0
  0
LINE
  5
1EABA
330
747D
100
AcDbEntity
  8
部品1
 62
     7
 48
50.0
100
AcDbLine
 10
9605.077627007641
 20
7581.793435009577
 30
0.0
 11
9605.077627007641
 21
7581.793435009577
 31
0.0
  0
LINE
  5
1EABB
330
747D
100
AcDbEntity
  8
部品1
 62
     7
 48
50.0
100
AcDbLine
 10
9712.233877007641
 20
7605.60593500957
 30
0.0
 11
9712.233877007641
 21
7605.60593500957
 31
0.0
  0
LINE
  5
1EABC
330
747D
100
AcDbEntity
  8
部品1
 62
     7
 48
50.0
100
AcDbLine
 10
9688.421377007641
 20
7605.60593500957
 30
0.0
 11
9688.421377007641
 21
7605.60593500957
 31
0.0
  0
LINE
  5
1EABD
330
747D
100
AcDbEntity
  8
部品1
 62
     7
 48
50.0
100
AcDbLine
 10
9664.608877007641
 20
7605.60593500957
 30
0.0
 11
9664.608877007641
 21
7605.60593500957
 31
0.0
  0
LINE
  5
1EABE
330
747D
100
AcDbEntity
  8
部品1
 62
     7
 48
50.0
100
AcDbLine
 10
9640.796377007641
 20
7605.60593500957
 30
0.0
 11
9640.796377007641
 21
7605.60593500957
 31
0.0
  0
LINE
  5
1EABF
330
747D
100
AcDbEntity
  8
部品1
 62
     7
 48
50.0
100
AcDbLine
 10
9616.983877007641
 20
7605.60593500957
 30
0.0
 11
9616.983877007641
 21
7605.60593500957
 31
0.0
  0
LINE
  5
1EAC0
330
747D
100
AcDbEntity
  8
部品1
 62
     7
 48
50.0
100
AcDbLine
 10
9593.17137700764
 20
7605.60593500957
 30
0.0
 11
9593.17137700764
 21
7605.60593500957
 31
0.0
  0
LINE
  5
1EAC1
330
747D
100
AcDbEntity
  8
部品1
 62
     7
 48
50.0
100
AcDbLine
 10
9724.140127007641
 20
7629.418435009572
 30
0.0
 11
9724.140127007641
 21
7629.418435009572
 31
0.0
  0
LINE
  5
1EAC2
330
747D
100
AcDbEntity
  8
部品1
 62
     7
 48
50.0
100
AcDbLine
 10
9700.327627007641
 20
7629.418435009572
 30
0.0
 11
9700.327627007641
 21
7629.418435009572
 31
0.0
  0
LINE
  5
1EAC3
330
747D
100
AcDbEntity
  8
部品1
 62
     7
 48
50.0
100
AcDbLine
 10
9676.51512700764
 20
7629.418435009572
 30
0.0
 11
9676.51512700764
 21
7629.418435009572
 31
0.0
  0
LINE
  5
1EAC4
330
747D
100
AcDbEntity
  8
部品1
 62
     7
 48
50.0
100
AcDbLine
 10
9652.702627007641
 20
7629.418435009572
 30
0.0
 11
9652.702627007641
 21
7629.418435009572
 31
0.0
  0
LINE
  5
1EAC5
330
747D
100
AcDbEntity
  8
部品1
 62
     7
 48
50.0
100
AcDbLine
 10
9628.890127007641
 20
7629.418435009572
 30
0.0
 11
9628.890127007641
 21
7629.418435009572
 31
0.0
  0
LINE
  5
1EAC6
330
747D
100
AcDbEntity
  8
部品1
 62
     7
 48
50.0
100
AcDbLine
 10
9605.077627007641
 20
7629.418435009572
 30
0.0
 11
9605.077627007641
 21
7629.418435009572
 31
0.0
  0
LINE
  5
1EAC7
330
747D
100
AcDbEntity
  8
部品1
 62
     7
 48
50.0
100
AcDbLine
 10
9712.233877007641
 20
7653.230935009573
 30
0.0
 11
9712.233877007641
 21
7653.230935009573
 31
0.0
  0
LINE
  5
1EAC8
330
747D
100
AcDbEntity
  8
部品1
 62
     7
 48
50.0
100
AcDbLine
 10
9688.421377007641
 20
7653.230935009573
 30
0.0
 11
9688.421377007641
 21
7653.230935009573
 31
0.0
  0
LINE
  5
1EAC9
330
747D
100
AcDbEntity
  8
部品1
 62
     7
 48
50.0
100
AcDbLine
 10
9664.608877007641
 20
7653.230935009573
 30
0.0
 11
9664.608877007641
 21
7653.230935009573
 31
0.0
  0
LINE
  5
1EACA
330
747D
100
AcDbEntity
  8
部品1
 62
     7
 48
50.0
100
AcDbLine
 10
9640.796377007641
 20
7653.230935009573
 30
0.0
 11
9640.796377007641
 21
7653.230935009573
 31
0.0
  0
LINE
  5
1EACB
330
747D
100
AcDbEntity
  8
部品1
 62
     7
 48
50.0
100
AcDbLine
 10
9616.983877007641
 20
7653.230935009573
 30
0.0
 11
9616.983877007641
 21
7653.230935009573
 31
0.0
  0
LINE
  5
1EACC
330
747D
100
AcDbEntity
  8
部品1
 62
     7
 48
50.0
100
AcDbLine
 10
9593.17137700764
 20
7653.230935009573
 30
0.0
 11
9593.17137700764
 21
7653.230935009573
 31
0.0
  0
LINE
  5
1EACD
330
747D
100
AcDbEntity
  8
部品1
 62
     7
 48
50.0
100
AcDbLine
 10
9724.140127007641
 20
7677.043435009577
 30
0.0
 11
9724.140127007641
 21
7677.043435009577
 31
0.0
  0
LINE
  5
1EACE
330
747D
100
AcDbEntity
  8
部品1
 62
     7
 48
50.0
100
AcDbLine
 10
9700.327627007641
 20
7677.043435009577
 30
0.0
 11
9700.327627007641
 21
7677.043435009577
 31
0.0
  0
LINE
  5
1EACF
330
747D
100
AcDbEntity
  8
部品1
 62
     7
 48
50.0
100
AcDbLine
 10
9676.51512700764
 20
7677.043435009577
 30
0.0
 11
9676.51512700764
 21
7677.043435009577
 31
0.0
  0
LINE
  5
1EAD0
330
747D
100
AcDbEntity
  8
部品1
 62
     7
 48
50.0
100
AcDbLine
 10
9652.702627007641
 20
7677.043435009577
 30
0.0
 11
9652.702627007641
 21
7677.043435009577
 31
0.0
  0
LINE
  5
1EAD1
330
747D
100
AcDbEntity
  8
部品1
 62
     7
 48
50.0
100
AcDbLine
 10
9628.890127007641
 20
7677.043435009577
 30
0.0
 11
9628.890127007641
 21
7677.043435009577
 31
0.0
  0
LINE
  5
1EAD2
330
747D
100
AcDbEntity
  8
部品1
 62
     7
 48
50.0
100
AcDbLine
 10
9605.077627007641
 20
7677.043435009577
 30
0.0
 11
9605.077627007641
 21
7677.043435009577
 31
0.0
  0
LINE
  5
1EAD3
330
747D
100
AcDbEntity
  8
部品1
 62
     7
 48
50.0
100
AcDbLine
 10
9712.233877007641
 20
7700.85593500957
 30
0.0
 11
9712.233877007641
 21
7700.85593500957
 31
0.0
  0
LINE
  5
1EAD4
330
747D
100
AcDbEntity
  8
部品1
 62
     7
 48
50.0
100
AcDbLine
 10
9688.421377007641
 20
7700.85593500957
 30
0.0
 11
9688.421377007641
 21
7700.85593500957
 31
0.0
  0
LINE
  5
1EAD5
330
747D
100
AcDbEntity
  8
部品1
 62
     7
 48
50.0
100
AcDbLine
 10
9664.608877007641
 20
7700.85593500957
 30
0.0
 11
9664.608877007641
 21
7700.85593500957
 31
0.0
  0
LINE
  5
1EAD6
330
747D
100
AcDbEntity
  8
部品1
 62
     7
 48
50.0
100
AcDbLine
 10
9640.796377007641
 20
7700.85593500957
 30
0.0
 11
9640.796377007641
 21
7700.85593500957
 31
0.0
  0
LINE
  5
1EAD7
330
747D
100
AcDbEntity
  8
部品1
 62
     7
 48
50.0
100
AcDbLine
 10
9616.983877007641
 20
7700.85593500957
 30
0.0
 11
9616.983877007641
 21
7700.85593500957
 31
0.0
  0
LINE
  5
1EAD8
330
747D
100
AcDbEntity
  8
部品1
 62
     7
 48
50.0
100
AcDbLine
 10
9593.17137700764
 20
7700.85593500957
 30
0.0
 11
9593.17137700764
 21
7700.85593500957
 31
0.0
  0
LINE
  5
1EAD9
330
747D
100
AcDbEntity
  8
部品1
 62
     7
 48
50.0
100
AcDbLine
 10
9724.140127007641
 20
7724.668435009572
 30
0.0
 11
9724.140127007641
 21
7724.668435009572
 31
0.0
  0
LINE
  5
1EADA
330
747D
100
AcDbEntity
  8
部品1
 62
     7
 48
50.0
100
AcDbLine
 10
9700.327627007641
 20
7724.668435009572
 30
0.0
 11
9700.327627007641
 21
7724.668435009572
 31
0.0
  0
LINE
  5
1EADB
330
747D
100
AcDbEntity
  8
部品1
 62
     7
 48
50.0
100
AcDbLine
 10
9676.51512700764
 20
7724.668435009572
 30
0.0
 11
9676.51512700764
 21
7724.668435009572
 31
0.0
  0
LINE
  5
1EADC
330
747D
100
AcDbEntity
  8
部品1
 62
     7
 48
50.0
100
AcDbLine
 10
9652.702627007641
 20
7724.668435009572
 30
0.0
 11
9652.702627007641
 21
7724.668435009572
 31
0.0
  0
LINE
  5
1EADD
330
747D
100
AcDbEntity
  8
部品1
 62
     7
 48
50.0
100
AcDbLine
 10
9628.890127007641
 20
7724.668435009572
 30
0.0
 11
9628.890127007641
 21
7724.668435009572
 31
0.0
  0
LINE
  5
1EADE
330
747D
100
AcDbEntity
  8
部品1
 62
     7
 48
50.0
100
AcDbLine
 10
9605.077627007641
 20
7724.668435009572
 30
0.0
 11
9605.077627007641
 21
7724.668435009572
 31
0.0
  0
LINE
  5
1EADF
330
747D
100
AcDbEntity
  8
部品1
 62
     7
 48
50.0
100
AcDbLine
 10
9712.233877007641
 20
7748.480935009574
 30
0.0
 11
9712.233877007641
 21
7748.480935009574
 31
0.0
  0
LINE
  5
1EAE0
330
747D
100
AcDbEntity
  8
部品1
 62
     7
 48
50.0
100
AcDbLine
 10
9688.421377007641
 20
7748.480935009574
 30
0.0
 11
9688.421377007641
 21
7748.480935009574
 31
0.0
  0
LINE
  5
1EAE1
330
747D
100
AcDbEntity
  8
部品1
 62
     7
 48
50.0
100
AcDbLine
 10
9664.608877007641
 20
7748.480935009574
 30
0.0
 11
9664.608877007641
 21
7748.480935009574
 31
0.0
  0
LINE
  5
1EAE2
330
747D
100
AcDbEntity
  8
部品1
 62
     7
 48
50.0
100
AcDbLine
 10
9640.796377007641
 20
7748.480935009574
 30
0.0
 11
9640.796377007641
 21
7748.480935009574
 31
0.0
  0
LINE
  5
1EAE3
330
747D
100
AcDbEntity
  8
部品1
 62
     7
 48
50.0
100
AcDbLine
 10
9616.983877007641
 20
7748.480935009574
 30
0.0
 11
9616.983877007641
 21
7748.480935009574
 31
0.0
  0
LINE
  5
1EAE4
330
747D
100
AcDbEntity
  8
部品1
 62
     7
 48
50.0
100
AcDbLine
 10
9593.17137700764
 20
7748.480935009574
 30
0.0
 11
9593.17137700764
 21
7748.480935009574
 31
0.0
  0
LINE
  5
1EAE5
330
747D
100
AcDbEntity
  8
部品1
 62
     7
 48
50.0
100
AcDbLine
 10
9724.140127007641
 20
7772.293435009577
 30
0.0
 11
9724.140127007641
 21
7772.293435009577
 31
0.0
  0
LINE
  5
1EAE6
330
747D
100
AcDbEntity
  8
部品1
 62
     7
 48
50.0
100
AcDbLine
 10
9700.327627007641
 20
7772.293435009577
 30
0.0
 11
9700.327627007641
 21
7772.293435009577
 31
0.0
  0
LINE
  5
1EAE7
330
747D
100
AcDbEntity
  8
部品1
 62
     7
 48
50.0
100
AcDbLine
 10
9676.51512700764
 20
7772.293435009577
 30
0.0
 11
9676.51512700764
 21
7772.293435009577
 31
0.0
  0
LINE
  5
1EAE8
330
747D
100
AcDbEntity
  8
部品1
 62
     7
 48
50.0
100
AcDbLine
 10
9652.702627007641
 20
7772.293435009577
 30
0.0
 11
9652.702627007641
 21
7772.293435009577
 31
0.0
  0
LINE
  5
1EAE9
330
747D
100
AcDbEntity
  8
部品1
 62
     7
 48
50.0
100
AcDbLine
 10
9628.890127007641
 20
7772.293435009577
 30
0.0
 11
9628.890127007641
 21
7772.293435009577
 31
0.0
  0
LINE
  5
1EAEA
330
747D
100
AcDbEntity
  8
部品1
 62
     7
 48
50.0
100
AcDbLine
 10
9605.077627007641
 20
7772.293435009577
 30
0.0
 11
9605.077627007641
 21
7772.293435009577
 31
0.0
  0
LINE
  5
1EAEB
330
747D
100
AcDbEntity
  8
部品1
 62
     7
 48
50.0
100
AcDbLine
 10
9712.233877007641
 20
7796.10593500957
 30
0.0
 11
9712.233877007641
 21
7796.10593500957
 31
0.0
  0
LINE
  5
1EAEC
330
747D
100
AcDbEntity
  8
部品1
 62
     7
 48
50.0
100
AcDbLine
 10
9688.421377007641
 20
7796.10593500957
 30
0.0
 11
9688.421377007641
 21
7796.10593500957
 31
0.0
  0
LINE
  5
1EAED
330
747D
100
AcDbEntity
  8
部品1
 62
     7
 48
50.0
100
AcDbLine
 10
9664.608877007641
 20
7796.10593500957
 30
0.0
 11
9664.608877007641
 21
7796.10593500957
 31
0.0
  0
LINE
  5
1EAEE
330
747D
100
AcDbEntity
  8
部品1
 62
     7
 48
50.0
100
AcDbLine
 10
9640.796377007641
 20
7796.10593500957
 30
0.0
 11
9640.796377007641
 21
7796.10593500957
 31
0.0
  0
LINE
  5
1EAEF
330
747D
100
AcDbEntity
  8
部品1
 62
     7
 48
50.0
100
AcDbLine
 10
9616.983877007641
 20
7796.10593500957
 30
0.0
 11
9616.983877007641
 21
7796.10593500957
 31
0.0
  0
LINE
  5
1EAF0
330
747D
100
AcDbEntity
  8
部品1
 62
     7
 48
50.0
100
AcDbLine
 10
9593.17137700764
 20
7796.10593500957
 30
0.0
 11
9593.17137700764
 21
7796.10593500957
 31
0.0
  0
LINE
  5
1EAF1
330
747D
100
AcDbEntity
  8
部品1
 62
     7
 48
50.0
100
AcDbLine
 10
9724.140127007641
 20
7819.91843500957
 30
0.0
 11
9724.140127007641
 21
7819.91843500957
 31
0.0
  0
LINE
  5
1EAF2
330
747D
100
AcDbEntity
  8
部品1
 62
     7
 48
50.0
100
AcDbLine
 10
9700.327627007641
 20
7819.91843500957
 30
0.0
 11
9700.327627007641
 21
7819.91843500957
 31
0.0
  0
LINE
  5
1EAF3
330
747D
100
AcDbEntity
  8
部品1
 62
     7
 48
50.0
100
AcDbLine
 10
9676.51512700764
 20
7819.91843500957
 30
0.0
 11
9676.51512700764
 21
7819.91843500957
 31
0.0
  0
LINE
  5
1EAF4
330
747D
100
AcDbEntity
  8
部品1
 62
     7
 48
50.0
100
AcDbLine
 10
9652.702627007641
 20
7819.91843500957
 30
0.0
 11
9652.702627007641
 21
7819.91843500957
 31
0.0
  0
LINE
  5
1EAF5
330
747D
100
AcDbEntity
  8
部品1
 62
     7
 48
50.0
100
AcDbLine
 10
9628.890127007641
 20
7819.91843500957
 30
0.0
 11
9628.890127007641
 21
7819.91843500957
 31
0.0
  0
LINE
  5
1EAF6
330
747D
100
AcDbEntity
  8
部品1
 62
     7
 48
50.0
100
AcDbLine
 10
9605.077627007641
 20
7819.91843500957
 30
0.0
 11
9605.077627007641
 21
7819.91843500957
 31
0.0
  0
LINE
  5
1EAF7
330
747D
100
AcDbEntity
  8
部品1
 62
     7
 48
50.0
100
AcDbLine
 10
9712.233877007641
 20
7843.730935009574
 30
0.0
 11
9712.233877007641
 21
7843.730935009574
 31
0.0
  0
LINE
  5
1EAF8
330
747D
100
AcDbEntity
  8
部品1
 62
     7
 48
50.0
100
AcDbLine
 10
9688.421377007641
 20
7843.730935009574
 30
0.0
 11
9688.421377007641
 21
7843.730935009574
 31
0.0
  0
LINE
  5
1EAF9
330
747D
100
AcDbEntity
  8
部品1
 62
     7
 48
50.0
100
AcDbLine
 10
9664.608877007641
 20
7843.730935009574
 30
0.0
 11
9664.608877007641
 21
7843.730935009574
 31
0.0
  0
LINE
  5
1EAFA
330
747D
100
AcDbEntity
  8
部品1
 62
     7
 48
50.0
100
AcDbLine
 10
9640.796377007641
 20
7843.730935009574
 30
0.0
 11
9640.796377007641
 21
7843.730935009574
 31
0.0
  0
LINE
  5
1EAFB
330
747D
100
AcDbEntity
  8
部品1
 62
     7
 48
50.0
100
AcDbLine
 10
9616.983877007641
 20
7843.730935009574
 30
0.0
 11
9616.983877007641
 21
7843.730935009574
 31
0.0
  0
LINE
  5
1EAFC
330
747D
100
AcDbEntity
  8
部品1
 62
     7
 48
50.0
100
AcDbLine
 10
9593.17137700764
 20
7843.730935009574
 30
0.0
 11
9593.17137700764
 21
7843.730935009574
 31
0.0
  0
LINE
  5
1EAFD
330
747D
100
AcDbEntity
  8
センター
 62
     7
 48
5.0
100
AcDbLine
 10
9193.499999999991
 20
8281.955177899423
 30
0.0
 11
8903.500000000011
 21
8281.955177899423
 31
0.0
  0
DIMENSION
  5
1EAFE
330
747D
100
AcDbEntity
  8
寸法
 62
     7
 48
50.0
100
AcDbDimension
  2
*D20
 10
8693.499999999993
 20
8181.955177899423
 30
0.0
 11
8693.499999999991
 21
8281.955177899424
 31
0.0
 70
   160
 71
     5
 42
199.9999999999981
  3
INABA_S50G
100
AcDbAlignedDimension
 13
8948.499999999992
 23
8381.955177899421
 33
0.0
 14
8948.499999999992
 24
8181.955177899423
 34
0.0
 50
90.0
100
AcDbRotatedDimension
  0
DIMENSION
  5
1EAFF
330
747D
100
AcDbEntity
  8
寸法
 62
     7
 48
50.0
100
AcDbDimension
  2
*D21
 10
8948.499999999992
 20
8676.955177899424
 30
0.0
 11
9048.5
 21
8676.955177899424
 31
0.0
 70
   160
 71
     5
 42
200.00000000002
  3
INABA_S50G
100
AcDbAlignedDimension
 13
9148.50000000001
 23
8381.955177899421
 33
0.0
 14
8948.499999999992
 24
8381.955177899426
 34
0.0
100
AcDbRotatedDimension
  0
LINE
  5
1EB00
330
747D
100
AcDbEntity
  8
部品1
 62
     7
 48
50.0
100
AcDbLine
 10
9448.500000000013
 20
8281.955177899423
 30
0.0
 11
9048.499999999991
 21
8281.955177899423
 31
0.0
  0
LINE
  5
1EB01
330
747D
100
AcDbEntity
  8
部品1
 62
     7
 48
50.0
100
AcDbLine
 10
9448.500000000013
 20
8081.955177899422
 30
0.0
 11
9048.499999999991
 21
8081.955177899422
 31
0.0
  0
LINE
  5
1EB02
330
747D
100
AcDbEntity
  8
センター
 62
     7
 48
5.0
100
AcDbLine
 10
9048.499999999991
 20
8426.955177899424
 30
0.0
 11
9048.499999999991
 21
8136.955177899423
 31
0.0
  0
LINE
  5
1EB03
330
747D
100
AcDbEntity
  8
部品1
 62
     7
 48
50.0
100
AcDbLine
 10
9048.499999999991
 20
8281.955177899423
 30
0.0
 11
9048.499999999991
 21
8081.955177899422
 31
0.0
  0
LINE
  5
1EB04
330
747D
100
AcDbEntity
  8
点線
 62
     7
 48
10.0
100
AcDbLine
 10
9148.50000000001
 20
8181.955177899423
 30
0.0
 11
8948.499999999992
 21
8181.955177899423
 31
0.0
  0
LINE
  5
1EB05
330
747D
100
AcDbEntity
  8
点線
 62
     7
 48
10.0
100
AcDbLine
 10
9148.50000000001
 20
8381.955177899421
 30
0.0
 11
8948.499999999992
 21
8381.955177899421
 31
0.0
  0
LINE
  5
1EB06
330
747D
100
AcDbEntity
  8
点線
 62
     7
 48
10.0
100
AcDbLine
 10
8948.499999999992
 20
8381.955177899421
 30
0.0
 11
8948.499999999992
 21
8181.955177899423
 31
0.0
  0
LINE
  5
1EB07
330
747D
100
AcDbEntity
  8
点線
 62
     7
 48
10.0
100
AcDbLine
 10
9148.50000000001
 20
8381.955177899421
 30
0.0
 11
9148.50000000001
 21
8181.955177899423
 31
0.0
  0
LINE
  5
1EB08
330
747D
100
AcDbEntity
  8
部品1
 62
     7
 48
50.0
100
AcDbLine
 10
9448.500000000013
 20
8281.955177899423
 30
0.0
 11
9448.500000000013
 21
8081.955177899422
 31
0.0
  0
LINE
  5
1EB09
330
747D
100
AcDbEntity
  8
部品1
 62
     7
 48
50.0
100
AcDbLine
 10
9724.140127007641
 20
7867.543435009577
 30
0.0
 11
9724.140127007641
 21
7867.543435009577
 31
0.0
  0
LINE
  5
1EB0A
330
747D
100
AcDbEntity
  8
部品1
 62
     7
 48
50.0
100
AcDbLine
 10
9700.327627007641
 20
7867.543435009577
 30
0.0
 11
9700.327627007641
 21
7867.543435009577
 31
0.0
  0
LINE
  5
1EB0B
330
747D
100
AcDbEntity
  8
部品1
 62
     7
 48
50.0
100
AcDbLine
 10
9676.51512700764
 20
7867.543435009577
 30
0.0
 11
9676.51512700764
 21
7867.543435009577
 31
0.0
  0
LINE
  5
1EB0C
330
747D
100
AcDbEntity
  8
部品1
 62
     7
 48
50.0
100
AcDbLine
 10
9652.702627007641
 20
7867.543435009577
 30
0.0
 11
9652.702627007641
 21
7867.543435009577
 31
0.0
  0
LINE
  5
1EB0D
330
747D
100
AcDbEntity
  8
部品1
 62
     7
 48
50.0
100
AcDbLine
 10
9628.890127007641
 20
7867.543435009577
 30
0.0
 11
9628.890127007641
 21
7867.543435009577
 31
0.0
  0
LINE
  5
1EB0E
330
747D
100
AcDbEntity
  8
部品1
 62
     7
 48
50.0
100
AcDbLine
 10
9605.077627007641
 20
7867.543435009577
 30
0.0
 11
9605.077627007641
 21
7867.543435009577
 31
0.0
  0
LINE
  5
1EB0F
330
747D
100
AcDbEntity
  8
部品1
 62
     7
 48
50.0
100
AcDbLine
 10
9712.233877007641
 20
7891.35593500957
 30
0.0
 11
9712.233877007641
 21
7891.35593500957
 31
0.0
  0
LINE
  5
1EB10
330
747D
100
AcDbEntity
  8
部品1
 62
     7
 48
50.0
100
AcDbLine
 10
9688.421377007641
 20
7891.35593500957
 30
0.0
 11
9688.421377007641
 21
7891.35593500957
 31
0.0
  0
LINE
  5
1EB11
330
747D
100
AcDbEntity
  8
部品1
 62
     7
 48
50.0
100
AcDbLine
 10
9664.608877007641
 20
7891.35593500957
 30
0.0
 11
9664.608877007641
 21
7891.35593500957
 31
0.0
  0
LINE
  5
1EB12
330
747D
100
AcDbEntity
  8
部品1
 62
     7
 48
50.0
100
AcDbLine
 10
9640.796377007641
 20
7891.35593500957
 30
0.0
 11
9640.796377007641
 21
7891.35593500957
 31
0.0
  0
LINE
  5
1EB13
330
747D
100
AcDbEntity
  8
部品1
 62
     7
 48
50.0
100
AcDbLine
 10
9616.983877007641
 20
7891.35593500957
 30
0.0
 11
9616.983877007641
 21
7891.35593500957
 31
0.0
  0
LINE
  5
1EB14
330
747D
100
AcDbEntity
  8
部品1
 62
     7
 48
50.0
100
AcDbLine
 10
9593.17137700764
 20
7891.35593500957
 30
0.0
 11
9593.17137700764
 21
7891.35593500957
 31
0.0
  0
LINE
  5
1EB15
330
747D
100
AcDbEntity
  8
部品1
 62
     7
 48
50.0
100
AcDbLine
 10
9724.140127007641
 20
7915.168435009571
 30
0.0
 11
9724.140127007641
 21
7915.168435009571
 31
0.0
  0
LINE
  5
1EB16
330
747D
100
AcDbEntity
  8
部品1
 62
     7
 48
50.0
100
AcDbLine
 10
9700.327627007641
 20
7915.168435009571
 30
0.0
 11
9700.327627007641
 21
7915.168435009571
 31
0.0
  0
LINE
  5
1EB17
330
747D
100
AcDbEntity
  8
部品1
 62
     7
 48
50.0
100
AcDbLine
 10
9676.51512700764
 20
7915.168435009571
 30
0.0
 11
9676.51512700764
 21
7915.168435009571
 31
0.0
  0
LINE
  5
1EB18
330
747D
100
AcDbEntity
  8
部品1
 62
     7
 48
50.0
100
AcDbLine
 10
9652.702627007641
 20
7915.168435009571
 30
0.0
 11
9652.702627007641
 21
7915.168435009571
 31
0.0
  0
LINE
  5
1EB19
330
747D
100
AcDbEntity
  8
部品1
 62
     7
 48
50.0
100
AcDbLine
 10
9628.890127007641
 20
7915.168435009571
 30
0.0
 11
9628.890127007641
 21
7915.168435009571
 31
0.0
  0
LINE
  5
1EB1A
330
747D
100
AcDbEntity
  8
部品1
 62
     7
 48
50.0
100
AcDbLine
 10
9605.077627007641
 20
7915.168435009571
 30
0.0
 11
9605.077627007641
 21
7915.168435009571
 31
0.0
  0
LINE
  5
1EB1B
330
747D
100
AcDbEntity
  8
部品1
 62
     7
 48
50.0
100
AcDbLine
 10
9712.233877007641
 20
7938.980935009571
 30
0.0
 11
9712.233877007641
 21
7938.980935009571
 31
0.0
  0
LINE
  5
1EB1C
330
747D
100
AcDbEntity
  8
部品1
 62
     7
 48
50.0
100
AcDbLine
 10
9688.421377007641
 20
7938.980935009571
 30
0.0
 11
9688.421377007641
 21
7938.980935009571
 31
0.0
  0
LINE
  5
1EB1D
330
747D
100
AcDbEntity
  8
部品1
 62
     7
 48
50.0
100
AcDbLine
 10
9664.608877007641
 20
7938.980935009571
 30
0.0
 11
9664.608877007641
 21
7938.980935009571
 31
0.0
  0
LINE
  5
1EB1E
330
747D
100
AcDbEntity
  8
部品1
 62
     7
 48
50.0
100
AcDbLine
 10
9640.796377007641
 20
7938.980935009571
 30
0.0
 11
9640.796377007641
 21
7938.980935009571
 31
0.0
  0
LINE
  5
1EB1F
330
747D
100
AcDbEntity
  8
部品1
 62
     7
 48
50.0
100
AcDbLine
 10
9616.983877007641
 20
7938.980935009571
 30
0.0
 11
9616.983877007641
 21
7938.980935009571
 31
0.0
  0
LINE
  5
1EB20
330
747D
100
AcDbEntity
  8
部品1
 62
     7
 48
50.0
100
AcDbLine
 10
9593.17137700764
 20
7938.980935009571
 30
0.0
 11
9593.17137700764
 21
7938.980935009571
 31
0.0
  0
LINE
  5
1EB21
330
747D
100
AcDbEntity
  8
部品1
 62
     7
 48
50.0
100
AcDbLine
 10
9724.140127007641
 20
7962.793435009574
 30
0.0
 11
9724.140127007641
 21
7962.793435009574
 31
0.0
  0
LINE
  5
1EB22
330
747D
100
AcDbEntity
  8
部品1
 62
     7
 48
50.0
100
AcDbLine
 10
9700.327627007641
 20
7962.793435009574
 30
0.0
 11
9700.327627007641
 21
7962.793435009574
 31
0.0
  0
LINE
  5
1EB23
330
747D
100
AcDbEntity
  8
部品1
 62
     7
 48
50.0
100
AcDbLine
 10
9676.51512700764
 20
7962.793435009574
 30
0.0
 11
9676.51512700764
 21
7962.793435009574
 31
0.0
  0
LINE
  5
1EB24
330
747D
100
AcDbEntity
  8
部品1
 62
     7
 48
50.0
100
AcDbLine
 10
9652.702627007641
 20
7962.793435009574
 30
0.0
 11
9652.702627007641
 21
7962.793435009574
 31
0.0
  0
LINE
  5
1EB25
330
747D
100
AcDbEntity
  8
部品1
 62
     7
 48
50.0
100
AcDbLine
 10
9628.890127007641
 20
7962.793435009574
 30
0.0
 11
9628.890127007641
 21
7962.793435009574
 31
0.0
  0
LINE
  5
1EB26
330
747D
100
AcDbEntity
  8
部品1
 62
     7
 48
50.0
100
AcDbLine
 10
9605.077627007641
 20
7962.793435009574
 30
0.0
 11
9605.077627007641
 21
7962.793435009574
 31
0.0
  0
LINE
  5
1EB27
330
747D
100
AcDbEntity
  8
細線
 62
     7
 48
10.0
100
AcDbLine
 10
10973.49999999999
 20
7975.955177899425
 30
0.0
 11
10973.49999999999
 21
7575.955177899423
 31
0.0
  0
LINE
  5
1EB28
330
747D
100
AcDbEntity
  8
センター
 62
     7
 48
5.0
100
AcDbLine
 10
10873.49999999999
 20
7630.955177899423
 30
0.0
 11
10873.49999999999
 21
7920.955177899426
 31
0.0
  0
LINE
  5
1EB29
330
747D
100
AcDbEntity
  8
細線
 62
     7
 48
10.0
100
AcDbLine
 10
10773.49999999999
 20
7575.955177899423
 30
0.0
 11
10773.49999999999
 21
7975.955177899425
 31
0.0
  0
LINE
  5
1EB2A
330
747D
100
AcDbEntity
  8
細線
 62
     7
 48
10.0
100
AcDbLine
 10
9785.500000000013
 20
7575.955177899423
 30
0.0
 11
9785.500000000013
 21
7975.955177899425
 31
0.0
  0
LINE
  5
1EB2B
330
747D
100
AcDbEntity
  8
細線
 62
     7
 48
10.0
100
AcDbLine
 10
9785.500000000013
 20
7440.955177899422
 30
0.0
 11
9785.500000000013
 21
7240.955177899422
 31
0.0
  0
LINE
  5
1EB2C
330
747D
100
AcDbEntity
  8
センター
 62
     7
 48
5.0
100
AcDbLine
 10
10279.49999999999
 20
7485.955177899421
 30
0.0
 11
10279.49999999999
 21
7195.955177899422
 31
0.0
  0
LINE
  5
1EB2D
330
747D
100
AcDbEntity
  8
部品1
 62
     7
 48
50.0
100
AcDbLine
 10
10179.49999999999
 20
7240.955177899422
 30
0.0
 11
10179.49999999999
 21
7440.955177899422
 31
0.0
  0
LINE
  5
1EB2E
330
747D
100
AcDbEntity
  8
部品1
 62
     7
 48
50.0
100
AcDbLine
 10
10379.49999999999
 20
7440.955177899422
 30
0.0
 11
10379.49999999999
 21
7240.955177899422
 31
0.0
  0
LINE
  5
1EB2F
330
747D
100
AcDbEntity
  8
細線
 62
     7
 48
10.0
100
AcDbLine
 10
9785.500000000013
 20
7105.955177899423
 30
0.0
 11
9785.500000000013
 21
6705.955177899423
 31
0.0
  0
LINE
  5
1EB30
330
747D
100
AcDbEntity
  8
部品1
 62
     7
 48
50.0
100
AcDbLine
 10
9771.76512700764
 20
6724.543435009573
 30
0.0
 11
9771.76512700764
 21
6724.543435009573
 31
0.0
  0
LINE
  5
1EB31
330
747D
100
AcDbEntity
  8
部品1
 62
     7
 48
50.0
100
AcDbLine
 10
9747.952627007641
 20
6724.543435009573
 30
0.0
 11
9747.952627007641
 21
6724.543435009573
 31
0.0
  0
LINE
  5
1EB32
330
747D
100
AcDbEntity
  8
部品1
 62
     7
 48
50.0
100
AcDbLine
 10
9783.671377007641
 20
6748.355935009573
 30
0.0
 11
9783.671377007641
 21
6748.355935009573
 31
0.0
  0
LINE
  5
1EB33
330
747D
100
AcDbEntity
  8
部品1
 62
     7
 48
50.0
100
AcDbLine
 10
9759.858877007641
 20
6748.355935009573
 30
0.0
 11
9759.858877007641
 21
6748.355935009573
 31
0.0
  0
LINE
  5
1EB34
330
747D
100
AcDbEntity
  8
部品1
 62
     7
 48
50.0
100
AcDbLine
 10
9736.046377007641
 20
6748.355935009573
 30
0.0
 11
9736.046377007641
 21
6748.355935009573
 31
0.0
  0
LINE
  5
1EB35
330
747D
100
AcDbEntity
  8
部品1
 62
     7
 48
50.0
100
AcDbLine
 10
9771.76512700764
 20
6772.168435009572
 30
0.0
 11
9771.76512700764
 21
6772.168435009572
 31
0.0
  0
LINE
  5
1EB36
330
747D
100
AcDbEntity
  8
部品1
 62
     7
 48
50.0
100
AcDbLine
 10
9747.952627007641
 20
6772.168435009572
 30
0.0
 11
9747.952627007641
 21
6772.168435009572
 31
0.0
  0
LINE
  5
1EB37
330
747D
100
AcDbEntity
  8
部品1
 62
     7
 48
50.0
100
AcDbLine
 10
9783.671377007641
 20
6795.980935009573
 30
0.0
 11
9783.671377007641
 21
6795.980935009573
 31
0.0
  0
LINE
  5
1EB38
330
747D
100
AcDbEntity
  8
部品1
 62
     7
 48
50.0
100
AcDbLine
 10
9759.858877007641
 20
6795.980935009573
 30
0.0
 11
9759.858877007641
 21
6795.980935009573
 31
0.0
  0
LINE
  5
1EB39
330
747D
100
AcDbEntity
  8
部品1
 62
     7
 48
50.0
100
AcDbLine
 10
9736.046377007641
 20
6795.980935009573
 30
0.0
 11
9736.046377007641
 21
6795.980935009573
 31
0.0
  0
LINE
  5
1EB3A
330
747D
100
AcDbEntity
  8
部品1
 62
     7
 48
50.0
100
AcDbLine
 10
9771.76512700764
 20
6819.793435009573
 30
0.0
 11
9771.76512700764
 21
6819.793435009573
 31
0.0
  0
LINE
  5
1EB3B
330
747D
100
AcDbEntity
  8
部品1
 62
     7
 48
50.0
100
AcDbLine
 10
9747.952627007641
 20
6819.793435009573
 30
0.0
 11
9747.952627007641
 21
6819.793435009573
 31
0.0
  0
LINE
  5
1EB3C
330
747D
100
AcDbEntity
  8
部品1
 62
     7
 48
50.0
100
AcDbLine
 10
9783.671377007641
 20
6843.605935009573
 30
0.0
 11
9783.671377007641
 21
6843.605935009573
 31
0.0
  0
LINE
  5
1EB3D
330
747D
100
AcDbEntity
  8
部品1
 62
     7
 48
50.0
100
AcDbLine
 10
9759.858877007641
 20
6843.605935009573
 30
0.0
 11
9759.858877007641
 21
6843.605935009573
 31
0.0
  0
LINE
  5
1EB3E
330
747D
100
AcDbEntity
  8
部品1
 62
     7
 48
50.0
100
AcDbLine
 10
9736.046377007641
 20
6843.605935009573
 30
0.0
 11
9736.046377007641
 21
6843.605935009573
 31
0.0
  0
LINE
  5
1EB3F
330
747D
100
AcDbEntity
  8
部品1
 62
     7
 48
50.0
100
AcDbLine
 10
9771.76512700764
 20
6867.418435009573
 30
0.0
 11
9771.76512700764
 21
6867.418435009573
 31
0.0
  0
LINE
  5
1EB40
330
747D
100
AcDbEntity
  8
部品1
 62
     7
 48
50.0
100
AcDbLine
 10
9747.952627007641
 20
6867.418435009573
 30
0.0
 11
9747.952627007641
 21
6867.418435009573
 31
0.0
  0
LINE
  5
1EB41
330
747D
100
AcDbEntity
  8
部品1
 62
     7
 48
50.0
100
AcDbLine
 10
9783.671377007641
 20
6891.230935009573
 30
0.0
 11
9783.671377007641
 21
6891.230935009573
 31
0.0
  0
LINE
  5
1EB42
330
747D
100
AcDbEntity
  8
部品1
 62
     7
 48
50.0
100
AcDbLine
 10
9759.858877007641
 20
6891.230935009573
 30
0.0
 11
9759.858877007641
 21
6891.230935009573
 31
0.0
  0
LINE
  5
1EB43
330
747D
100
AcDbEntity
  8
部品1
 62
     7
 48
50.0
100
AcDbLine
 10
9736.046377007641
 20
6891.230935009573
 30
0.0
 11
9736.046377007641
 21
6891.230935009573
 31
0.0
  0
LINE
  5
1EB44
330
747D
100
AcDbEntity
  8
部品1
 62
     7
 48
50.0
100
AcDbLine
 10
9771.76512700764
 20
6915.043435009573
 30
0.0
 11
9771.76512700764
 21
6915.043435009573
 31
0.0
  0
LINE
  5
1EB45
330
747D
100
AcDbEntity
  8
部品1
 62
     7
 48
50.0
100
AcDbLine
 10
9747.952627007641
 20
6915.043435009573
 30
0.0
 11
9747.952627007641
 21
6915.043435009573
 31
0.0
  0
LINE
  5
1EB46
330
747D
100
AcDbEntity
  8
部品1
 62
     7
 48
50.0
100
AcDbLine
 10
9783.671377007641
 20
6938.855935009573
 30
0.0
 11
9783.671377007641
 21
6938.855935009573
 31
0.0
  0
LINE
  5
1EB47
330
747D
100
AcDbEntity
  8
部品1
 62
     7
 48
50.0
100
AcDbLine
 10
9759.858877007641
 20
6938.855935009573
 30
0.0
 11
9759.858877007641
 21
6938.855935009573
 31
0.0
  0
LINE
  5
1EB48
330
747D
100
AcDbEntity
  8
部品1
 62
     7
 48
50.0
100
AcDbLine
 10
9736.046377007641
 20
6938.855935009573
 30
0.0
 11
9736.046377007641
 21
6938.855935009573
 31
0.0
  0
LINE
  5
1EB49
330
747D
100
AcDbEntity
  8
部品1
 62
     7
 48
50.0
100
AcDbLine
 10
9771.76512700764
 20
6962.668435009574
 30
0.0
 11
9771.76512700764
 21
6962.668435009574
 31
0.0
  0
LINE
  5
1EB4A
330
747D
100
AcDbEntity
  8
部品1
 62
     7
 48
50.0
100
AcDbLine
 10
9747.952627007641
 20
6962.668435009574
 30
0.0
 11
9747.952627007641
 21
6962.668435009574
 31
0.0
  0
LINE
  5
1EB4B
330
747D
100
AcDbEntity
  8
部品1
 62
     7
 48
50.0
100
AcDbLine
 10
9783.671377007641
 20
6986.480935009574
 30
0.0
 11
9783.671377007641
 21
6986.480935009574
 31
0.0
  0
LINE
  5
1EB4C
330
747D
100
AcDbEntity
  8
部品1
 62
     7
 48
50.0
100
AcDbLine
 10
9759.858877007641
 20
6986.480935009574
 30
0.0
 11
9759.858877007641
 21
6986.480935009574
 31
0.0
  0
LINE
  5
1EB4D
330
747D
100
AcDbEntity
  8
部品1
 62
     7
 48
50.0
100
AcDbLine
 10
9736.046377007641
 20
6986.480935009574
 30
0.0
 11
9736.046377007641
 21
6986.480935009574
 31
0.0
  0
LINE
  5
1EB4E
330
747D
100
AcDbEntity
  8
部品1
 62
     7
 48
50.0
100
AcDbLine
 10
9771.76512700764
 20
7010.293435009574
 30
0.0
 11
9771.76512700764
 21
7010.293435009574
 31
0.0
  0
LINE
  5
1EB4F
330
747D
100
AcDbEntity
  8
部品1
 62
     7
 48
50.0
100
AcDbLine
 10
9747.952627007641
 20
7010.293435009574
 30
0.0
 11
9747.952627007641
 21
7010.293435009574
 31
0.0
  0
LINE
  5
1EB50
330
747D
100
AcDbEntity
  8
部品1
 62
     7
 48
50.0
100
AcDbLine
 10
9783.671377007641
 20
7034.105935009574
 30
0.0
 11
9783.671377007641
 21
7034.105935009574
 31
0.0
  0
LINE
  5
1EB51
330
747D
100
AcDbEntity
  8
部品1
 62
     7
 48
50.0
100
AcDbLine
 10
9759.858877007641
 20
7034.105935009574
 30
0.0
 11
9759.858877007641
 21
7034.105935009574
 31
0.0
  0
LINE
  5
1EB52
330
747D
100
AcDbEntity
  8
部品1
 62
     7
 48
50.0
100
AcDbLine
 10
9736.046377007641
 20
7034.105935009574
 30
0.0
 11
9736.046377007641
 21
7034.105935009574
 31
0.0
  0
LINE
  5
1EB53
330
747D
100
AcDbEntity
  8
部品1
 62
     7
 48
50.0
100
AcDbLine
 10
9771.76512700764
 20
7057.918435009574
 30
0.0
 11
9771.76512700764
 21
7057.918435009574
 31
0.0
  0
LINE
  5
1EB54
330
747D
100
AcDbEntity
  8
部品1
 62
     7
 48
50.0
100
AcDbLine
 10
9747.952627007641
 20
7057.918435009574
 30
0.0
 11
9747.952627007641
 21
7057.918435009574
 31
0.0
  0
LINE
  5
1EB55
330
747D
100
AcDbEntity
  8
部品1
 62
     7
 48
50.0
100
AcDbLine
 10
9783.671377007641
 20
7081.730935009574
 30
0.0
 11
9783.671377007641
 21
7081.730935009574
 31
0.0
  0
LINE
  5
1EB56
330
747D
100
AcDbEntity
  8
部品1
 62
     7
 48
50.0
100
AcDbLine
 10
9759.858877007641
 20
7081.730935009574
 30
0.0
 11
9759.858877007641
 21
7081.730935009574
 31
0.0
  0
LINE
  5
1EB57
330
747D
100
AcDbEntity
  8
部品1
 62
     7
 48
50.0
100
AcDbLine
 10
9736.046377007641
 20
7081.730935009574
 30
0.0
 11
9736.046377007641
 21
7081.730935009574
 31
0.0
  0
LINE
  5
1EB58
330
747D
100
AcDbEntity
  8
部品1
 62
     7
 48
50.0
100
AcDbLine
 10
9771.76512700764
 20
7105.543435009574
 30
0.0
 11
9771.76512700764
 21
7105.543435009574
 31
0.0
  0
LINE
  5
1EB59
330
747D
100
AcDbEntity
  8
部品1
 62
     7
 48
50.0
100
AcDbLine
 10
9747.952627007641
 20
7105.543435009574
 30
0.0
 11
9747.952627007641
 21
7105.543435009574
 31
0.0
  0
LINE
  5
1EB5A
330
747D
100
AcDbEntity
  8
部品1
 62
     7
 48
50.0
100
AcDbLine
 10
9771.76512700764
 20
7248.418435009575
 30
0.0
 11
9771.76512700764
 21
7248.418435009575
 31
0.0
  0
LINE
  5
1EB5B
330
747D
100
AcDbEntity
  8
部品1
 62
     7
 48
50.0
100
AcDbLine
 10
9747.952627007641
 20
7248.418435009575
 30
0.0
 11
9747.952627007641
 21
7248.418435009575
 31
0.0
  0
LINE
  5
1EB5C
330
747D
100
AcDbEntity
  8
部品1
 62
     7
 48
50.0
100
AcDbLine
 10
9783.671377007641
 20
7272.230935009573
 30
0.0
 11
9783.671377007641
 21
7272.230935009573
 31
0.0
  0
LINE
  5
1EB5D
330
747D
100
AcDbEntity
  8
部品1
 62
     7
 48
50.0
100
AcDbLine
 10
9759.858877007641
 20
7272.230935009573
 30
0.0
 11
9759.858877007641
 21
7272.230935009573
 31
0.0
  0
LINE
  5
1EB5E
330
747D
100
AcDbEntity
  8
部品1
 62
     7
 48
50.0
100
AcDbLine
 10
9736.046377007641
 20
7272.230935009573
 30
0.0
 11
9736.046377007641
 21
7272.230935009573
 31
0.0
  0
LINE
  5
1EB5F
330
747D
100
AcDbEntity
  8
部品1
 62
     7
 48
50.0
100
AcDbLine
 10
10379.49999999999
 20
7240.955177899422
 30
0.0
 11
10179.49999999999
 21
7240.955177899422
 31
0.0
  0
LINE
  5
1EB60
330
747D
100
AcDbEntity
  8
センター
 62
     7
 48
5.0
100
AcDbLine
 10
10424.49999999999
 20
7340.955177899424
 30
0.0
 11
10134.50000000001
 21
7340.955177899424
 31
0.0
  0
LINE
  5
1EB61
330
747D
100
AcDbEntity
  8
部品1
 62
     7
 48
50.0
100
AcDbLine
 10
9771.76512700764
 20
7296.043435009574
 30
0.0
 11
9771.76512700764
 21
7296.043435009574
 31
0.0
  0
LINE
  5
1EB62
330
747D
100
AcDbEntity
  8
部品1
 62
     7
 48
50.0
100
AcDbLine
 10
9747.952627007641
 20
7296.043435009574
 30
0.0
 11
9747.952627007641
 21
7296.043435009574
 31
0.0
  0
LINE
  5
1EB63
330
747D
100
AcDbEntity
  8
部品1
 62
     7
 48
50.0
100
AcDbLine
 10
9783.671377007641
 20
7319.85593500957
 30
0.0
 11
9783.671377007641
 21
7319.85593500957
 31
0.0
  0
LINE
  5
1EB64
330
747D
100
AcDbEntity
  8
部品1
 62
     7
 48
50.0
100
AcDbLine
 10
9759.858877007641
 20
7319.85593500957
 30
0.0
 11
9759.858877007641
 21
7319.85593500957
 31
0.0
  0
LINE
  5
1EB65
330
747D
100
AcDbEntity
  8
部品1
 62
     7
 48
50.0
100
AcDbLine
 10
9736.046377007641
 20
7319.85593500957
 30
0.0
 11
9736.046377007641
 21
7319.85593500957
 31
0.0
  0
LINE
  5
1EB66
330
747D
100
AcDbEntity
  8
部品1
 62
     7
 48
50.0
100
AcDbLine
 10
9771.76512700764
 20
7343.668435009572
 30
0.0
 11
9771.76512700764
 21
7343.668435009572
 31
0.0
  0
LINE
  5
1EB67
330
747D
100
AcDbEntity
  8
部品1
 62
     7
 48
50.0
100
AcDbLine
 10
9747.952627007641
 20
7343.668435009572
 30
0.0
 11
9747.952627007641
 21
7343.668435009572
 31
0.0
  0
LINE
  5
1EB68
330
747D
100
AcDbEntity
  8
部品1
 62
     7
 48
50.0
100
AcDbLine
 10
9783.671377007641
 20
7367.480935009574
 30
0.0
 11
9783.671377007641
 21
7367.480935009574
 31
0.0
  0
LINE
  5
1EB69
330
747D
100
AcDbEntity
  8
部品1
 62
     7
 48
50.0
100
AcDbLine
 10
9759.858877007641
 20
7367.480935009574
 30
0.0
 11
9759.858877007641
 21
7367.480935009574
 31
0.0
  0
LINE
  5
1EB6A
330
747D
100
AcDbEntity
  8
部品1
 62
     7
 48
50.0
100
AcDbLine
 10
9736.046377007641
 20
7367.480935009574
 30
0.0
 11
9736.046377007641
 21
7367.480935009574
 31
0.0
  0
LINE
  5
1EB6B
330
747D
100
AcDbEntity
  8
部品1
 62
     7
 48
50.0
100
AcDbLine
 10
9771.76512700764
 20
7391.293435009574
 30
0.0
 11
9771.76512700764
 21
7391.293435009574
 31
0.0
  0
LINE
  5
1EB6C
330
747D
100
AcDbEntity
  8
部品1
 62
     7
 48
50.0
100
AcDbLine
 10
9747.952627007641
 20
7391.293435009574
 30
0.0
 11
9747.952627007641
 21
7391.293435009574
 31
0.0
  0
LINE
  5
1EB6D
330
747D
100
AcDbEntity
  8
部品1
 62
     7
 48
50.0
100
AcDbLine
 10
9783.671377007641
 20
7415.10593500957
 30
0.0
 11
9783.671377007641
 21
7415.10593500957
 31
0.0
  0
LINE
  5
1EB6E
330
747D
100
AcDbEntity
  8
部品1
 62
     7
 48
50.0
100
AcDbLine
 10
9759.858877007641
 20
7415.10593500957
 30
0.0
 11
9759.858877007641
 21
7415.10593500957
 31
0.0
  0
LINE
  5
1EB6F
330
747D
100
AcDbEntity
  8
部品1
 62
     7
 48
50.0
100
AcDbLine
 10
9736.046377007641
 20
7415.10593500957
 30
0.0
 11
9736.046377007641
 21
7415.10593500957
 31
0.0
  0
LINE
  5
1EB70
330
747D
100
AcDbEntity
  8
部品1
 62
     7
 48
50.0
100
AcDbLine
 10
9771.76512700764
 20
7581.793435009577
 30
0.0
 11
9771.76512700764
 21
7581.793435009577
 31
0.0
  0
LINE
  5
1EB71
330
747D
100
AcDbEntity
  8
部品1
 62
     7
 48
50.0
100
AcDbLine
 10
9747.952627007641
 20
7581.793435009577
 30
0.0
 11
9747.952627007641
 21
7581.793435009577
 31
0.0
  0
LINE
  5
1EB72
330
747D
100
AcDbEntity
  8
部品1
 62
     7
 48
50.0
100
AcDbLine
 10
9783.671377007641
 20
7605.60593500957
 30
0.0
 11
9783.671377007641
 21
7605.60593500957
 31
0.0
  0
LINE
  5
1EB73
330
747D
100
AcDbEntity
  8
部品1
 62
     7
 48
50.0
100
AcDbLine
 10
9759.858877007641
 20
7605.60593500957
 30
0.0
 11
9759.858877007641
 21
7605.60593500957
 31
0.0
  0
LINE
  5
1EB74
330
747D
100
AcDbEntity
  8
部品1
 62
     7
 48
50.0
100
AcDbLine
 10
9736.046377007641
 20
7605.60593500957
 30
0.0
 11
9736.046377007641
 21
7605.60593500957
 31
0.0
  0
LINE
  5
1EB75
330
747D
100
AcDbEntity
  8
部品1
 62
     7
 48
50.0
100
AcDbLine
 10
9771.76512700764
 20
7629.418435009572
 30
0.0
 11
9771.76512700764
 21
7629.418435009572
 31
0.0
  0
LINE
  5
1EB76
330
747D
100
AcDbEntity
  8
部品1
 62
     7
 48
50.0
100
AcDbLine
 10
9747.952627007641
 20
7629.418435009572
 30
0.0
 11
9747.952627007641
 21
7629.418435009572
 31
0.0
  0
LINE
  5
1EB77
330
747D
100
AcDbEntity
  8
部品1
 62
     7
 48
50.0
100
AcDbLine
 10
9783.671377007641
 20
7653.230935009573
 30
0.0
 11
9783.671377007641
 21
7653.230935009573
 31
0.0
  0
LINE
  5
1EB78
330
747D
100
AcDbEntity
  8
部品1
 62
     7
 48
50.0
100
AcDbLine
 10
9759.858877007641
 20
7653.230935009573
 30
0.0
 11
9759.858877007641
 21
7653.230935009573
 31
0.0
  0
LINE
  5
1EB79
330
747D
100
AcDbEntity
  8
部品1
 62
     7
 48
50.0
100
AcDbLine
 10
9736.046377007641
 20
7653.230935009573
 30
0.0
 11
9736.046377007641
 21
7653.230935009573
 31
0.0
  0
LINE
  5
1EB7A
330
747D
100
AcDbEntity
  8
部品1
 62
     7
 48
50.0
100
AcDbLine
 10
9771.76512700764
 20
7677.043435009577
 30
0.0
 11
9771.76512700764
 21
7677.043435009577
 31
0.0
  0
LINE
  5
1EB7B
330
747D
100
AcDbEntity
  8
部品1
 62
     7
 48
50.0
100
AcDbLine
 10
9747.952627007641
 20
7677.043435009577
 30
0.0
 11
9747.952627007641
 21
7677.043435009577
 31
0.0
  0
LINE
  5
1EB7C
330
747D
100
AcDbEntity
  8
部品1
 62
     7
 48
50.0
100
AcDbLine
 10
9783.671377007641
 20
7700.85593500957
 30
0.0
 11
9783.671377007641
 21
7700.85593500957
 31
0.0
  0
LINE
  5
1EB7D
330
747D
100
AcDbEntity
  8
部品1
 62
     7
 48
50.0
100
AcDbLine
 10
9759.858877007641
 20
7700.85593500957
 30
0.0
 11
9759.858877007641
 21
7700.85593500957
 31
0.0
  0
LINE
  5
1EB7E
330
747D
100
AcDbEntity
  8
部品1
 62
     7
 48
50.0
100
AcDbLine
 10
9736.046377007641
 20
7700.85593500957
 30
0.0
 11
9736.046377007641
 21
7700.85593500957
 31
0.0
  0
LINE
  5
1EB7F
330
747D
100
AcDbEntity
  8
部品1
 62
     7
 48
50.0
100
AcDbLine
 10
9771.76512700764
 20
7724.668435009572
 30
0.0
 11
9771.76512700764
 21
7724.668435009572
 31
0.0
  0
LINE
  5
1EB80
330
747D
100
AcDbEntity
  8
部品1
 62
     7
 48
50.0
100
AcDbLine
 10
9747.952627007641
 20
7724.668435009572
 30
0.0
 11
9747.952627007641
 21
7724.668435009572
 31
0.0
  0
LINE
  5
1EB81
330
747D
100
AcDbEntity
  8
部品1
 62
     7
 48
50.0
100
AcDbLine
 10
9783.671377007641
 20
7748.480935009574
 30
0.0
 11
9783.671377007641
 21
7748.480935009574
 31
0.0
  0
LINE
  5
1EB82
330
747D
100
AcDbEntity
  8
部品1
 62
     7
 48
50.0
100
AcDbLine
 10
9759.858877007641
 20
7748.480935009574
 30
0.0
 11
9759.858877007641
 21
7748.480935009574
 31
0.0
  0
LINE
  5
1EB83
330
747D
100
AcDbEntity
  8
部品1
 62
     7
 48
50.0
100
AcDbLine
 10
9736.046377007641
 20
7748.480935009574
 30
0.0
 11
9736.046377007641
 21
7748.480935009574
 31
0.0
  0
LINE
  5
1EB84
330
747D
100
AcDbEntity
  8
部品1
 62
     7
 48
50.0
100
AcDbLine
 10
9771.76512700764
 20
7772.293435009577
 30
0.0
 11
9771.76512700764
 21
7772.293435009577
 31
0.0
  0
LINE
  5
1EB85
330
747D
100
AcDbEntity
  8
部品1
 62
     7
 48
50.0
100
AcDbLine
 10
9747.952627007641
 20
7772.293435009577
 30
0.0
 11
9747.952627007641
 21
7772.293435009577
 31
0.0
  0
LINE
  5
1EB86
330
747D
100
AcDbEntity
  8
部品1
 62
     7
 48
50.0
100
AcDbLine
 10
9783.671377007641
 20
7796.10593500957
 30
0.0
 11
9783.671377007641
 21
7796.10593500957
 31
0.0
  0
LINE
  5
1EB87
330
747D
100
AcDbEntity
  8
部品1
 62
     7
 48
50.0
100
AcDbLine
 10
9759.858877007641
 20
7796.10593500957
 30
0.0
 11
9759.858877007641
 21
7796.10593500957
 31
0.0
  0
LINE
  5
1EB88
330
747D
100
AcDbEntity
  8
部品1
 62
     7
 48
50.0
100
AcDbLine
 10
9736.046377007641
 20
7796.10593500957
 30
0.0
 11
9736.046377007641
 21
7796.10593500957
 31
0.0
  0
LINE
  5
1EB89
330
747D
100
AcDbEntity
  8
部品1
 62
     7
 48
50.0
100
AcDbLine
 10
9771.76512700764
 20
7819.91843500957
 30
0.0
 11
9771.76512700764
 21
7819.91843500957
 31
0.0
  0
LINE
  5
1EB8A
330
747D
100
AcDbEntity
  8
部品1
 62
     7
 48
50.0
100
AcDbLine
 10
9747.952627007641
 20
7819.91843500957
 30
0.0
 11
9747.952627007641
 21
7819.91843500957
 31
0.0
  0
LINE
  5
1EB8B
330
747D
100
AcDbEntity
  8
部品1
 62
     7
 48
50.0
100
AcDbLine
 10
9783.671377007641
 20
7843.730935009574
 30
0.0
 11
9783.671377007641
 21
7843.730935009574
 31
0.0
  0
LINE
  5
1EB8C
330
747D
100
AcDbEntity
  8
部品1
 62
     7
 48
50.0
100
AcDbLine
 10
9759.858877007641
 20
7843.730935009574
 30
0.0
 11
9759.858877007641
 21
7843.730935009574
 31
0.0
  0
LINE
  5
1EB8D
330
747D
100
AcDbEntity
  8
部品1
 62
     7
 48
50.0
100
AcDbLine
 10
9736.046377007641
 20
7843.730935009574
 30
0.0
 11
9736.046377007641
 21
7843.730935009574
 31
0.0
  0
LINE
  5
1EB8E
330
747D
100
AcDbEntity
  8
部品1
 62
     7
 48
50.0
100
AcDbLine
 10
10179.49999999999
 20
7440.955177899422
 30
0.0
 11
10379.49999999999
 21
7440.955177899422
 31
0.0
  0
LINE
  5
1EB8F
330
747D
100
AcDbEntity
  8
細線
 62
     7
 48
10.0
100
AcDbLine
 10
10773.49999999999
 20
7440.955177899422
 30
0.0
 11
10773.49999999999
 21
7240.955177899422
 31
0.0
  0
LINE
  5
1EB90
330
747D
100
AcDbEntity
  8
センター
 62
     7
 48
5.0
100
AcDbLine
 10
10873.49999999999
 20
7485.955177899421
 30
0.0
 11
10873.49999999999
 21
7195.955177899422
 31
0.0
  0
LINE
  5
1EB91
330
747D
100
AcDbEntity
  8
細線
 62
     7
 48
10.0
100
AcDbLine
 10
10973.49999999999
 20
7240.955177899422
 30
0.0
 11
10973.49999999999
 21
7440.955177899422
 31
0.0
  0
LINE
  5
1EB92
330
747D
100
AcDbEntity
  8
部品1
 62
     7
 48
50.0
100
AcDbLine
 10
11310.49999999999
 20
7440.955177899422
 30
0.0
 11
11310.49999999999
 21
7240.955177899422
 31
0.0
  0
LINE
  5
1EB93
330
747D
100
AcDbEntity
  8
細線
 62
     7
 48
10.0
100
AcDbLine
 10
10973.49999999999
 20
7105.955177899423
 30
0.0
 11
10773.49999999999
 21
7105.955177899423
 31
0.0
  0
LINE
  5
1EB94
330
747D
100
AcDbEntity
  8
細線
 62
     7
 48
10.0
100
AcDbLine
 10
10773.49999999999
 20
7240.955177899422
 30
0.0
 11
10973.49999999999
 21
7240.955177899422
 31
0.0
  0
LINE
  5
1EB95
330
747D
100
AcDbEntity
  8
細線
 62
     7
 48
10.0
100
AcDbLine
 10
10773.49999999999
 20
6705.955177899423
 30
0.0
 11
10973.49999999999
 21
6705.955177899423
 31
0.0
  0
LINE
  5
1EB96
330
747D
100
AcDbEntity
  8
センター
 62
     7
 48
5.0
100
AcDbLine
 10
11018.49999999999
 20
6905.955177899421
 30
0.0
 11
10728.49999999999
 21
6905.955177899421
 31
0.0
  0
LINE
  5
1EB97
330
747D
100
AcDbEntity
  8
細線
 62
     7
 48
10.0
100
AcDbLine
 10
10773.49999999999
 20
7105.955177899423
 30
0.0
 11
10773.49999999999
 21
6705.955177899423
 31
0.0
  0
LINE
  5
1EB98
330
747D
100
AcDbEntity
  8
センター
 62
     7
 48
5.0
100
AcDbLine
 10
10873.49999999999
 20
7050.955177899424
 30
0.0
 11
10873.49999999999
 21
6760.955177899423
 31
0.0
  0
LINE
  5
1EB99
330
747D
100
AcDbEntity
  8
部品1
 62
     7
 48
50.0
100
AcDbLine
 10
10962.39012700764
 20
6724.543435009573
 30
0.0
 11
10962.39012700764
 21
6724.543435009573
 31
0.0
  0
LINE
  5
1EB9A
330
747D
100
AcDbEntity
  8
部品1
 62
     7
 48
50.0
100
AcDbLine
 10
10938.57762700764
 20
6724.543435009573
 30
0.0
 11
10938.57762700764
 21
6724.543435009573
 31
0.0
  0
LINE
  5
1EB9B
330
747D
100
AcDbEntity
  8
部品1
 62
     7
 48
50.0
100
AcDbLine
 10
10914.76512700764
 20
6724.543435009573
 30
0.0
 11
10914.76512700764
 21
6724.543435009573
 31
0.0
  0
LINE
  5
1EB9C
330
747D
100
AcDbEntity
  8
部品1
 62
     7
 48
50.0
100
AcDbLine
 10
10890.95262700764
 20
6724.543435009573
 30
0.0
 11
10890.95262700764
 21
6724.543435009573
 31
0.0
  0
LINE
  5
1EB9D
330
747D
100
AcDbEntity
  8
部品1
 62
     7
 48
50.0
100
AcDbLine
 10
10867.14012700764
 20
6724.543435009573
 30
0.0
 11
10867.14012700764
 21
6724.543435009573
 31
0.0
  0
LINE
  5
1EB9E
330
747D
100
AcDbEntity
  8
部品1
 62
     7
 48
50.0
100
AcDbLine
 10
10843.32762700764
 20
6724.543435009573
 30
0.0
 11
10843.32762700764
 21
6724.543435009573
 31
0.0
  0
LINE
  5
1EB9F
330
747D
100
AcDbEntity
  8
部品1
 62
     7
 48
50.0
100
AcDbLine
 10
10819.51512700764
 20
6724.543435009573
 30
0.0
 11
10819.51512700764
 21
6724.543435009573
 31
0.0
  0
LINE
  5
1EBA0
330
747D
100
AcDbEntity
  8
部品1
 62
     7
 48
50.0
100
AcDbLine
 10
10795.70262700764
 20
6724.543435009573
 30
0.0
 11
10795.70262700764
 21
6724.543435009573
 31
0.0
  0
LINE
  5
1EBA1
330
747D
100
AcDbEntity
  8
部品1
 62
     7
 48
50.0
100
AcDbLine
 10
10950.48387700764
 20
6748.355935009573
 30
0.0
 11
10950.48387700764
 21
6748.355935009573
 31
0.0
  0
LINE
  5
1EBA2
330
747D
100
AcDbEntity
  8
部品1
 62
     7
 48
50.0
100
AcDbLine
 10
10926.67137700764
 20
6748.355935009573
 30
0.0
 11
10926.67137700764
 21
6748.355935009573
 31
0.0
  0
LINE
  5
1EBA3
330
747D
100
AcDbEntity
  8
部品1
 62
     7
 48
50.0
100
AcDbLine
 10
10902.85887700764
 20
6748.355935009573
 30
0.0
 11
10902.85887700764
 21
6748.355935009573
 31
0.0
  0
LINE
  5
1EBA4
330
747D
100
AcDbEntity
  8
部品1
 62
     7
 48
50.0
100
AcDbLine
 10
10879.04637700764
 20
6748.355935009573
 30
0.0
 11
10879.04637700764
 21
6748.355935009573
 31
0.0
  0
LINE
  5
1EBA5
330
747D
100
AcDbEntity
  8
部品1
 62
     7
 48
50.0
100
AcDbLine
 10
10855.23387700764
 20
6748.355935009573
 30
0.0
 11
10855.23387700764
 21
6748.355935009573
 31
0.0
  0
LINE
  5
1EBA6
330
747D
100
AcDbEntity
  8
部品1
 62
     7
 48
50.0
100
AcDbLine
 10
10831.42137700764
 20
6748.355935009573
 30
0.0
 11
10831.42137700764
 21
6748.355935009573
 31
0.0
  0
LINE
  5
1EBA7
330
747D
100
AcDbEntity
  8
部品1
 62
     7
 48
50.0
100
AcDbLine
 10
10807.60887700764
 20
6748.355935009573
 30
0.0
 11
10807.60887700764
 21
6748.355935009573
 31
0.0
  0
LINE
  5
1EBA8
330
747D
100
AcDbEntity
  8
部品1
 62
     7
 48
50.0
100
AcDbLine
 10
10783.79637700764
 20
6748.355935009573
 30
0.0
 11
10783.79637700764
 21
6748.355935009573
 31
0.0
  0
LINE
  5
1EBA9
330
747D
100
AcDbEntity
  8
部品1
 62
     7
 48
50.0
100
AcDbLine
 10
10962.39012700764
 20
6772.168435009572
 30
0.0
 11
10962.39012700764
 21
6772.168435009572
 31
0.0
  0
LINE
  5
1EBAA
330
747D
100
AcDbEntity
  8
部品1
 62
     7
 48
50.0
100
AcDbLine
 10
10938.57762700764
 20
6772.168435009572
 30
0.0
 11
10938.57762700764
 21
6772.168435009572
 31
0.0
  0
LINE
  5
1EBAB
330
747D
100
AcDbEntity
  8
部品1
 62
     7
 48
50.0
100
AcDbLine
 10
10914.76512700764
 20
6772.168435009572
 30
0.0
 11
10914.76512700764
 21
6772.168435009572
 31
0.0
  0
LINE
  5
1EBAC
330
747D
100
AcDbEntity
  8
部品1
 62
     7
 48
50.0
100
AcDbLine
 10
10890.95262700764
 20
6772.168435009572
 30
0.0
 11
10890.95262700764
 21
6772.168435009572
 31
0.0
  0
LINE
  5
1EBAD
330
747D
100
AcDbEntity
  8
部品1
 62
     7
 48
50.0
100
AcDbLine
 10
10867.14012700764
 20
6772.168435009572
 30
0.0
 11
10867.14012700764
 21
6772.168435009572
 31
0.0
  0
LINE
  5
1EBAE
330
747D
100
AcDbEntity
  8
部品1
 62
     7
 48
50.0
100
AcDbLine
 10
10843.32762700764
 20
6772.168435009572
 30
0.0
 11
10843.32762700764
 21
6772.168435009572
 31
0.0
  0
LINE
  5
1EBAF
330
747D
100
AcDbEntity
  8
部品1
 62
     7
 48
50.0
100
AcDbLine
 10
10819.51512700764
 20
6772.168435009572
 30
0.0
 11
10819.51512700764
 21
6772.168435009572
 31
0.0
  0
LINE
  5
1EBB0
330
747D
100
AcDbEntity
  8
部品1
 62
     7
 48
50.0
100
AcDbLine
 10
10795.70262700764
 20
6772.168435009572
 30
0.0
 11
10795.70262700764
 21
6772.168435009572
 31
0.0
  0
LINE
  5
1EBB1
330
747D
100
AcDbEntity
  8
部品1
 62
     7
 48
50.0
100
AcDbLine
 10
10950.48387700764
 20
6795.980935009573
 30
0.0
 11
10950.48387700764
 21
6795.980935009573
 31
0.0
  0
LINE
  5
1EBB2
330
747D
100
AcDbEntity
  8
部品1
 62
     7
 48
50.0
100
AcDbLine
 10
10926.67137700764
 20
6795.980935009573
 30
0.0
 11
10926.67137700764
 21
6795.980935009573
 31
0.0
  0
LINE
  5
1EBB3
330
747D
100
AcDbEntity
  8
部品1
 62
     7
 48
50.0
100
AcDbLine
 10
10902.85887700764
 20
6795.980935009573
 30
0.0
 11
10902.85887700764
 21
6795.980935009573
 31
0.0
  0
LINE
  5
1EBB4
330
747D
100
AcDbEntity
  8
部品1
 62
     7
 48
50.0
100
AcDbLine
 10
10879.04637700764
 20
6795.980935009573
 30
0.0
 11
10879.04637700764
 21
6795.980935009573
 31
0.0
  0
LINE
  5
1EBB5
330
747D
100
AcDbEntity
  8
部品1
 62
     7
 48
50.0
100
AcDbLine
 10
10855.23387700764
 20
6795.980935009573
 30
0.0
 11
10855.23387700764
 21
6795.980935009573
 31
0.0
  0
LINE
  5
1EBB6
330
747D
100
AcDbEntity
  8
部品1
 62
     7
 48
50.0
100
AcDbLine
 10
10831.42137700764
 20
6795.980935009573
 30
0.0
 11
10831.42137700764
 21
6795.980935009573
 31
0.0
  0
LINE
  5
1EBB7
330
747D
100
AcDbEntity
  8
部品1
 62
     7
 48
50.0
100
AcDbLine
 10
10807.60887700764
 20
6795.980935009573
 30
0.0
 11
10807.60887700764
 21
6795.980935009573
 31
0.0
  0
LINE
  5
1EBB8
330
747D
100
AcDbEntity
  8
部品1
 62
     7
 48
50.0
100
AcDbLine
 10
10783.79637700764
 20
6795.980935009573
 30
0.0
 11
10783.79637700764
 21
6795.980935009573
 31
0.0
  0
LINE
  5
1EBB9
330
747D
100
AcDbEntity
  8
部品1
 62
     7
 48
50.0
100
AcDbLine
 10
10962.39012700764
 20
6819.793435009573
 30
0.0
 11
10962.39012700764
 21
6819.793435009573
 31
0.0
  0
LINE
  5
1EBBA
330
747D
100
AcDbEntity
  8
部品1
 62
     7
 48
50.0
100
AcDbLine
 10
10938.57762700764
 20
6819.793435009573
 30
0.0
 11
10938.57762700764
 21
6819.793435009573
 31
0.0
  0
LINE
  5
1EBBB
330
747D
100
AcDbEntity
  8
部品1
 62
     7
 48
50.0
100
AcDbLine
 10
10914.76512700764
 20
6819.793435009573
 30
0.0
 11
10914.76512700764
 21
6819.793435009573
 31
0.0
  0
LINE
  5
1EBBC
330
747D
100
AcDbEntity
  8
部品1
 62
     7
 48
50.0
100
AcDbLine
 10
10890.95262700764
 20
6819.793435009573
 30
0.0
 11
10890.95262700764
 21
6819.793435009573
 31
0.0
  0
LINE
  5
1EBBD
330
747D
100
AcDbEntity
  8
部品1
 62
     7
 48
50.0
100
AcDbLine
 10
10867.14012700764
 20
6819.793435009573
 30
0.0
 11
10867.14012700764
 21
6819.793435009573
 31
0.0
  0
LINE
  5
1EBBE
330
747D
100
AcDbEntity
  8
部品1
 62
     7
 48
50.0
100
AcDbLine
 10
10843.32762700764
 20
6819.793435009573
 30
0.0
 11
10843.32762700764
 21
6819.793435009573
 31
0.0
  0
LINE
  5
1EBBF
330
747D
100
AcDbEntity
  8
部品1
 62
     7
 48
50.0
100
AcDbLine
 10
10819.51512700764
 20
6819.793435009573
 30
0.0
 11
10819.51512700764
 21
6819.793435009573
 31
0.0
  0
LINE
  5
1EBC0
330
747D
100
AcDbEntity
  8
部品1
 62
     7
 48
50.0
100
AcDbLine
 10
10795.70262700764
 20
6819.793435009573
 30
0.0
 11
10795.70262700764
 21
6819.793435009573
 31
0.0
  0
LINE
  5
1EBC1
330
747D
100
AcDbEntity
  8
部品1
 62
     7
 48
50.0
100
AcDbLine
 10
10950.48387700764
 20
6843.605935009573
 30
0.0
 11
10950.48387700764
 21
6843.605935009573
 31
0.0
  0
LINE
  5
1EBC2
330
747D
100
AcDbEntity
  8
部品1
 62
     7
 48
50.0
100
AcDbLine
 10
10926.67137700764
 20
6843.605935009573
 30
0.0
 11
10926.67137700764
 21
6843.605935009573
 31
0.0
  0
LINE
  5
1EBC3
330
747D
100
AcDbEntity
  8
部品1
 62
     7
 48
50.0
100
AcDbLine
 10
10902.85887700764
 20
6843.605935009573
 30
0.0
 11
10902.85887700764
 21
6843.605935009573
 31
0.0
  0
LINE
  5
1EBC4
330
747D
100
AcDbEntity
  8
部品1
 62
     7
 48
50.0
100
AcDbLine
 10
10879.04637700764
 20
6843.605935009573
 30
0.0
 11
10879.04637700764
 21
6843.605935009573
 31
0.0
  0
LINE
  5
1EBC5
330
747D
100
AcDbEntity
  8
部品1
 62
     7
 48
50.0
100
AcDbLine
 10
10855.23387700764
 20
6843.605935009573
 30
0.0
 11
10855.23387700764
 21
6843.605935009573
 31
0.0
  0
LINE
  5
1EBC6
330
747D
100
AcDbEntity
  8
部品1
 62
     7
 48
50.0
100
AcDbLine
 10
10831.42137700764
 20
6843.605935009573
 30
0.0
 11
10831.42137700764
 21
6843.605935009573
 31
0.0
  0
LINE
  5
1EBC7
330
747D
100
AcDbEntity
  8
部品1
 62
     7
 48
50.0
100
AcDbLine
 10
10807.60887700764
 20
6843.605935009573
 30
0.0
 11
10807.60887700764
 21
6843.605935009573
 31
0.0
  0
LINE
  5
1EBC8
330
747D
100
AcDbEntity
  8
部品1
 62
     7
 48
50.0
100
AcDbLine
 10
10783.79637700764
 20
6843.605935009573
 30
0.0
 11
10783.79637700764
 21
6843.605935009573
 31
0.0
  0
LINE
  5
1EBC9
330
747D
100
AcDbEntity
  8
部品1
 62
     7
 48
50.0
100
AcDbLine
 10
10962.39012700764
 20
6867.418435009573
 30
0.0
 11
10962.39012700764
 21
6867.418435009573
 31
0.0
  0
LINE
  5
1EBCA
330
747D
100
AcDbEntity
  8
部品1
 62
     7
 48
50.0
100
AcDbLine
 10
10938.57762700764
 20
6867.418435009573
 30
0.0
 11
10938.57762700764
 21
6867.418435009573
 31
0.0
  0
LINE
  5
1EBCB
330
747D
100
AcDbEntity
  8
部品1
 62
     7
 48
50.0
100
AcDbLine
 10
10914.76512700764
 20
6867.418435009573
 30
0.0
 11
10914.76512700764
 21
6867.418435009573
 31
0.0
  0
LINE
  5
1EBCC
330
747D
100
AcDbEntity
  8
部品1
 62
     7
 48
50.0
100
AcDbLine
 10
10890.95262700764
 20
6867.418435009573
 30
0.0
 11
10890.95262700764
 21
6867.418435009573
 31
0.0
  0
LINE
  5
1EBCD
330
747D
100
AcDbEntity
  8
部品1
 62
     7
 48
50.0
100
AcDbLine
 10
10867.14012700764
 20
6867.418435009573
 30
0.0
 11
10867.14012700764
 21
6867.418435009573
 31
0.0
  0
LINE
  5
1EBCE
330
747D
100
AcDbEntity
  8
部品1
 62
     7
 48
50.0
100
AcDbLine
 10
10843.32762700764
 20
6867.418435009573
 30
0.0
 11
10843.32762700764
 21
6867.418435009573
 31
0.0
  0
LINE
  5
1EBCF
330
747D
100
AcDbEntity
  8
部品1
 62
     7
 48
50.0
100
AcDbLine
 10
10819.51512700764
 20
6867.418435009573
 30
0.0
 11
10819.51512700764
 21
6867.418435009573
 31
0.0
  0
LINE
  5
1EBD0
330
747D
100
AcDbEntity
  8
部品1
 62
     7
 48
50.0
100
AcDbLine
 10
10795.70262700764
 20
6867.418435009573
 30
0.0
 11
10795.70262700764
 21
6867.418435009573
 31
0.0
  0
LINE
  5
1EBD1
330
747D
100
AcDbEntity
  8
部品1
 62
     7
 48
50.0
100
AcDbLine
 10
10950.48387700764
 20
6891.230935009573
 30
0.0
 11
10950.48387700764
 21
6891.230935009573
 31
0.0
  0
LINE
  5
1EBD2
330
747D
100
AcDbEntity
  8
部品1
 62
     7
 48
50.0
100
AcDbLine
 10
10926.67137700764
 20
6891.230935009573
 30
0.0
 11
10926.67137700764
 21
6891.230935009573
 31
0.0
  0
LINE
  5
1EBD3
330
747D
100
AcDbEntity
  8
部品1
 62
     7
 48
50.0
100
AcDbLine
 10
10902.85887700764
 20
6891.230935009573
 30
0.0
 11
10902.85887700764
 21
6891.230935009573
 31
0.0
  0
LINE
  5
1EBD4
330
747D
100
AcDbEntity
  8
部品1
 62
     7
 48
50.0
100
AcDbLine
 10
10879.04637700764
 20
6891.230935009573
 30
0.0
 11
10879.04637700764
 21
6891.230935009573
 31
0.0
  0
LINE
  5
1EBD5
330
747D
100
AcDbEntity
  8
部品1
 62
     7
 48
50.0
100
AcDbLine
 10
10855.23387700764
 20
6891.230935009573
 30
0.0
 11
10855.23387700764
 21
6891.230935009573
 31
0.0
  0
LINE
  5
1EBD6
330
747D
100
AcDbEntity
  8
部品1
 62
     7
 48
50.0
100
AcDbLine
 10
10831.42137700764
 20
6891.230935009573
 30
0.0
 11
10831.42137700764
 21
6891.230935009573
 31
0.0
  0
LINE
  5
1EBD7
330
747D
100
AcDbEntity
  8
部品1
 62
     7
 48
50.0
100
AcDbLine
 10
10807.60887700764
 20
6891.230935009573
 30
0.0
 11
10807.60887700764
 21
6891.230935009573
 31
0.0
  0
LINE
  5
1EBD8
330
747D
100
AcDbEntity
  8
部品1
 62
     7
 48
50.0
100
AcDbLine
 10
10783.79637700764
 20
6891.230935009573
 30
0.0
 11
10783.79637700764
 21
6891.230935009573
 31
0.0
  0
LINE
  5
1EBD9
330
747D
100
AcDbEntity
  8
部品1
 62
     7
 48
50.0
100
AcDbLine
 10
10962.39012700764
 20
6915.043435009573
 30
0.0
 11
10962.39012700764
 21
6915.043435009573
 31
0.0
  0
LINE
  5
1EBDA
330
747D
100
AcDbEntity
  8
部品1
 62
     7
 48
50.0
100
AcDbLine
 10
10938.57762700764
 20
6915.043435009573
 30
0.0
 11
10938.57762700764
 21
6915.043435009573
 31
0.0
  0
LINE
  5
1EBDB
330
747D
100
AcDbEntity
  8
部品1
 62
     7
 48
50.0
100
AcDbLine
 10
10914.76512700764
 20
6915.043435009573
 30
0.0
 11
10914.76512700764
 21
6915.043435009573
 31
0.0
  0
LINE
  5
1EBDC
330
747D
100
AcDbEntity
  8
部品1
 62
     7
 48
50.0
100
AcDbLine
 10
10890.95262700764
 20
6915.043435009573
 30
0.0
 11
10890.95262700764
 21
6915.043435009573
 31
0.0
  0
LINE
  5
1EBDD
330
747D
100
AcDbEntity
  8
部品1
 62
     7
 48
50.0
100
AcDbLine
 10
10867.14012700764
 20
6915.043435009573
 30
0.0
 11
10867.14012700764
 21
6915.043435009573
 31
0.0
  0
LINE
  5
1EBDE
330
747D
100
AcDbEntity
  8
部品1
 62
     7
 48
50.0
100
AcDbLine
 10
10843.32762700764
 20
6915.043435009573
 30
0.0
 11
10843.32762700764
 21
6915.043435009573
 31
0.0
  0
LINE
  5
1EBDF
330
747D
100
AcDbEntity
  8
部品1
 62
     7
 48
50.0
100
AcDbLine
 10
10819.51512700764
 20
6915.043435009573
 30
0.0
 11
10819.51512700764
 21
6915.043435009573
 31
0.0
  0
LINE
  5
1EBE0
330
747D
100
AcDbEntity
  8
部品1
 62
     7
 48
50.0
100
AcDbLine
 10
10795.70262700764
 20
6915.043435009573
 30
0.0
 11
10795.70262700764
 21
6915.043435009573
 31
0.0
  0
LINE
  5
1EBE1
330
747D
100
AcDbEntity
  8
部品1
 62
     7
 48
50.0
100
AcDbLine
 10
10950.48387700764
 20
6938.855935009573
 30
0.0
 11
10950.48387700764
 21
6938.855935009573
 31
0.0
  0
LINE
  5
1EBE2
330
747D
100
AcDbEntity
  8
部品1
 62
     7
 48
50.0
100
AcDbLine
 10
10926.67137700764
 20
6938.855935009573
 30
0.0
 11
10926.67137700764
 21
6938.855935009573
 31
0.0
  0
LINE
  5
1EBE3
330
747D
100
AcDbEntity
  8
部品1
 62
     7
 48
50.0
100
AcDbLine
 10
10902.85887700764
 20
6938.855935009573
 30
0.0
 11
10902.85887700764
 21
6938.855935009573
 31
0.0
  0
LINE
  5
1EBE4
330
747D
100
AcDbEntity
  8
部品1
 62
     7
 48
50.0
100
AcDbLine
 10
10879.04637700764
 20
6938.855935009573
 30
0.0
 11
10879.04637700764
 21
6938.855935009573
 31
0.0
  0
LINE
  5
1EBE5
330
747D
100
AcDbEntity
  8
部品1
 62
     7
 48
50.0
100
AcDbLine
 10
10855.23387700764
 20
6938.855935009573
 30
0.0
 11
10855.23387700764
 21
6938.855935009573
 31
0.0
  0
LINE
  5
1EBE6
330
747D
100
AcDbEntity
  8
部品1
 62
     7
 48
50.0
100
AcDbLine
 10
10831.42137700764
 20
6938.855935009573
 30
0.0
 11
10831.42137700764
 21
6938.855935009573
 31
0.0
  0
LINE
  5
1EBE7
330
747D
100
AcDbEntity
  8
部品1
 62
     7
 48
50.0
100
AcDbLine
 10
10807.60887700764
 20
6938.855935009573
 30
0.0
 11
10807.60887700764
 21
6938.855935009573
 31
0.0
  0
LINE
  5
1EBE8
330
747D
100
AcDbEntity
  8
部品1
 62
     7
 48
50.0
100
AcDbLine
 10
10783.79637700764
 20
6938.855935009573
 30
0.0
 11
10783.79637700764
 21
6938.855935009573
 31
0.0
  0
LINE
  5
1EBE9
330
747D
100
AcDbEntity
  8
部品1
 62
     7
 48
50.0
100
AcDbLine
 10
10962.39012700764
 20
6962.668435009574
 30
0.0
 11
10962.39012700764
 21
6962.668435009574
 31
0.0
  0
LINE
  5
1EBEA
330
747D
100
AcDbEntity
  8
部品1
 62
     7
 48
50.0
100
AcDbLine
 10
10938.57762700764
 20
6962.668435009574
 30
0.0
 11
10938.57762700764
 21
6962.668435009574
 31
0.0
  0
LINE
  5
1EBEB
330
747D
100
AcDbEntity
  8
部品1
 62
     7
 48
50.0
100
AcDbLine
 10
10914.76512700764
 20
6962.668435009574
 30
0.0
 11
10914.76512700764
 21
6962.668435009574
 31
0.0
  0
LINE
  5
1EBEC
330
747D
100
AcDbEntity
  8
部品1
 62
     7
 48
50.0
100
AcDbLine
 10
10890.95262700764
 20
6962.668435009574
 30
0.0
 11
10890.95262700764
 21
6962.668435009574
 31
0.0
  0
LINE
  5
1EBED
330
747D
100
AcDbEntity
  8
部品1
 62
     7
 48
50.0
100
AcDbLine
 10
10867.14012700764
 20
6962.668435009574
 30
0.0
 11
10867.14012700764
 21
6962.668435009574
 31
0.0
  0
LINE
  5
1EBEE
330
747D
100
AcDbEntity
  8
部品1
 62
     7
 48
50.0
100
AcDbLine
 10
10843.32762700764
 20
6962.668435009574
 30
0.0
 11
10843.32762700764
 21
6962.668435009574
 31
0.0
  0
LINE
  5
1EBEF
330
747D
100
AcDbEntity
  8
部品1
 62
     7
 48
50.0
100
AcDbLine
 10
10819.51512700764
 20
6962.668435009574
 30
0.0
 11
10819.51512700764
 21
6962.668435009574
 31
0.0
  0
LINE
  5
1EBF0
330
747D
100
AcDbEntity
  8
部品1
 62
     7
 48
50.0
100
AcDbLine
 10
10795.70262700764
 20
6962.668435009574
 30
0.0
 11
10795.70262700764
 21
6962.668435009574
 31
0.0
  0
LINE
  5
1EBF1
330
747D
100
AcDbEntity
  8
部品1
 62
     7
 48
50.0
100
AcDbLine
 10
10950.48387700764
 20
6986.480935009574
 30
0.0
 11
10950.48387700764
 21
6986.480935009574
 31
0.0
  0
LINE
  5
1EBF2
330
747D
100
AcDbEntity
  8
部品1
 62
     7
 48
50.0
100
AcDbLine
 10
10926.67137700764
 20
6986.480935009574
 30
0.0
 11
10926.67137700764
 21
6986.480935009574
 31
0.0
  0
LINE
  5
1EBF3
330
747D
100
AcDbEntity
  8
部品1
 62
     7
 48
50.0
100
AcDbLine
 10
10902.85887700764
 20
6986.480935009574
 30
0.0
 11
10902.85887700764
 21
6986.480935009574
 31
0.0
  0
LINE
  5
1EBF4
330
747D
100
AcDbEntity
  8
部品1
 62
     7
 48
50.0
100
AcDbLine
 10
10879.04637700764
 20
6986.480935009574
 30
0.0
 11
10879.04637700764
 21
6986.480935009574
 31
0.0
  0
LINE
  5
1EBF5
330
747D
100
AcDbEntity
  8
部品1
 62
     7
 48
50.0
100
AcDbLine
 10
10855.23387700764
 20
6986.480935009574
 30
0.0
 11
10855.23387700764
 21
6986.480935009574
 31
0.0
  0
LINE
  5
1EBF6
330
747D
100
AcDbEntity
  8
部品1
 62
     7
 48
50.0
100
AcDbLine
 10
10831.42137700764
 20
6986.480935009574
 30
0.0
 11
10831.42137700764
 21
6986.480935009574
 31
0.0
  0
LINE
  5
1EBF7
330
747D
100
AcDbEntity
  8
部品1
 62
     7
 48
50.0
100
AcDbLine
 10
10807.60887700764
 20
6986.480935009574
 30
0.0
 11
10807.60887700764
 21
6986.480935009574
 31
0.0
  0
LINE
  5
1EBF8
330
747D
100
AcDbEntity
  8
部品1
 62
     7
 48
50.0
100
AcDbLine
 10
10783.79637700764
 20
6986.480935009574
 30
0.0
 11
10783.79637700764
 21
6986.480935009574
 31
0.0
  0
LINE
  5
1EBF9
330
747D
100
AcDbEntity
  8
部品1
 62
     7
 48
50.0
100
AcDbLine
 10
10962.39012700764
 20
7010.293435009574
 30
0.0
 11
10962.39012700764
 21
7010.293435009574
 31
0.0
  0
LINE
  5
1EBFA
330
747D
100
AcDbEntity
  8
部品1
 62
     7
 48
50.0
100
AcDbLine
 10
10938.57762700764
 20
7010.293435009574
 30
0.0
 11
10938.57762700764
 21
7010.293435009574
 31
0.0
  0
LINE
  5
1EBFB
330
747D
100
AcDbEntity
  8
部品1
 62
     7
 48
50.0
100
AcDbLine
 10
10914.76512700764
 20
7010.293435009574
 30
0.0
 11
10914.76512700764
 21
7010.293435009574
 31
0.0
  0
LINE
  5
1EBFC
330
747D
100
AcDbEntity
  8
部品1
 62
     7
 48
50.0
100
AcDbLine
 10
10890.95262700764
 20
7010.293435009574
 30
0.0
 11
10890.95262700764
 21
7010.293435009574
 31
0.0
  0
LINE
  5
1EBFD
330
747D
100
AcDbEntity
  8
部品1
 62
     7
 48
50.0
100
AcDbLine
 10
10867.14012700764
 20
7010.293435009574
 30
0.0
 11
10867.14012700764
 21
7010.293435009574
 31
0.0
  0
LINE
  5
1EBFE
330
747D
100
AcDbEntity
  8
部品1
 62
     7
 48
50.0
100
AcDbLine
 10
10843.32762700764
 20
7010.293435009574
 30
0.0
 11
10843.32762700764
 21
7010.293435009574
 31
0.0
  0
LINE
  5
1EBFF
330
747D
100
AcDbEntity
  8
部品1
 62
     7
 48
50.0
100
AcDbLine
 10
10819.51512700764
 20
7010.293435009574
 30
0.0
 11
10819.51512700764
 21
7010.293435009574
 31
0.0
  0
LINE
  5
1EC00
330
747D
100
AcDbEntity
  8
部品1
 62
     7
 48
50.0
100
AcDbLine
 10
10795.70262700764
 20
7010.293435009574
 30
0.0
 11
10795.70262700764
 21
7010.293435009574
 31
0.0
  0
LINE
  5
1EC01
330
747D
100
AcDbEntity
  8
部品1
 62
     7
 48
50.0
100
AcDbLine
 10
10950.48387700764
 20
7034.105935009574
 30
0.0
 11
10950.48387700764
 21
7034.105935009574
 31
0.0
  0
LINE
  5
1EC02
330
747D
100
AcDbEntity
  8
部品1
 62
     7
 48
50.0
100
AcDbLine
 10
10926.67137700764
 20
7034.105935009574
 30
0.0
 11
10926.67137700764
 21
7034.105935009574
 31
0.0
  0
LINE
  5
1EC03
330
747D
100
AcDbEntity
  8
部品1
 62
     7
 48
50.0
100
AcDbLine
 10
10902.85887700764
 20
7034.105935009574
 30
0.0
 11
10902.85887700764
 21
7034.105935009574
 31
0.0
  0
LINE
  5
1EC04
330
747D
100
AcDbEntity
  8
部品1
 62
     7
 48
50.0
100
AcDbLine
 10
10879.04637700764
 20
7034.105935009574
 30
0.0
 11
10879.04637700764
 21
7034.105935009574
 31
0.0
  0
LINE
  5
1EC05
330
747D
100
AcDbEntity
  8
部品1
 62
     7
 48
50.0
100
AcDbLine
 10
10855.23387700764
 20
7034.105935009574
 30
0.0
 11
10855.23387700764
 21
7034.105935009574
 31
0.0
  0
LINE
  5
1EC06
330
747D
100
AcDbEntity
  8
部品1
 62
     7
 48
50.0
100
AcDbLine
 10
10831.42137700764
 20
7034.105935009574
 30
0.0
 11
10831.42137700764
 21
7034.105935009574
 31
0.0
  0
LINE
  5
1EC07
330
747D
100
AcDbEntity
  8
部品1
 62
     7
 48
50.0
100
AcDbLine
 10
10807.60887700764
 20
7034.105935009574
 30
0.0
 11
10807.60887700764
 21
7034.105935009574
 31
0.0
  0
LINE
  5
1EC08
330
747D
100
AcDbEntity
  8
部品1
 62
     7
 48
50.0
100
AcDbLine
 10
10783.79637700764
 20
7034.105935009574
 30
0.0
 11
10783.79637700764
 21
7034.105935009574
 31
0.0
  0
LINE
  5
1EC09
330
747D
100
AcDbEntity
  8
部品1
 62
     7
 48
50.0
100
AcDbLine
 10
10962.39012700764
 20
7057.918435009574
 30
0.0
 11
10962.39012700764
 21
7057.918435009574
 31
0.0
  0
LINE
  5
1EC0A
330
747D
100
AcDbEntity
  8
部品1
 62
     7
 48
50.0
100
AcDbLine
 10
10938.57762700764
 20
7057.918435009574
 30
0.0
 11
10938.57762700764
 21
7057.918435009574
 31
0.0
  0
LINE
  5
1EC0B
330
747D
100
AcDbEntity
  8
部品1
 62
     7
 48
50.0
100
AcDbLine
 10
10914.76512700764
 20
7057.918435009574
 30
0.0
 11
10914.76512700764
 21
7057.918435009574
 31
0.0
  0
LINE
  5
1EC0C
330
747D
100
AcDbEntity
  8
部品1
 62
     7
 48
50.0
100
AcDbLine
 10
10890.95262700764
 20
7057.918435009574
 30
0.0
 11
10890.95262700764
 21
7057.918435009574
 31
0.0
  0
LINE
  5
1EC0D
330
747D
100
AcDbEntity
  8
部品1
 62
     7
 48
50.0
100
AcDbLine
 10
10867.14012700764
 20
7057.918435009574
 30
0.0
 11
10867.14012700764
 21
7057.918435009574
 31
0.0
  0
LINE
  5
1EC0E
330
747D
100
AcDbEntity
  8
部品1
 62
     7
 48
50.0
100
AcDbLine
 10
10843.32762700764
 20
7057.918435009574
 30
0.0
 11
10843.32762700764
 21
7057.918435009574
 31
0.0
  0
LINE
  5
1EC0F
330
747D
100
AcDbEntity
  8
部品1
 62
     7
 48
50.0
100
AcDbLine
 10
10819.51512700764
 20
7057.918435009574
 30
0.0
 11
10819.51512700764
 21
7057.918435009574
 31
0.0
  0
LINE
  5
1EC10
330
747D
100
AcDbEntity
  8
部品1
 62
     7
 48
50.0
100
AcDbLine
 10
10795.70262700764
 20
7057.918435009574
 30
0.0
 11
10795.70262700764
 21
7057.918435009574
 31
0.0
  0
LINE
  5
1EC11
330
747D
100
AcDbEntity
  8
部品1
 62
     7
 48
50.0
100
AcDbLine
 10
10950.48387700764
 20
7081.730935009574
 30
0.0
 11
10950.48387700764
 21
7081.730935009574
 31
0.0
  0
LINE
  5
1EC12
330
747D
100
AcDbEntity
  8
部品1
 62
     7
 48
50.0
100
AcDbLine
 10
10926.67137700764
 20
7081.730935009574
 30
0.0
 11
10926.67137700764
 21
7081.730935009574
 31
0.0
  0
LINE
  5
1EC13
330
747D
100
AcDbEntity
  8
部品1
 62
     7
 48
50.0
100
AcDbLine
 10
10902.85887700764
 20
7081.730935009574
 30
0.0
 11
10902.85887700764
 21
7081.730935009574
 31
0.0
  0
LINE
  5
1EC14
330
747D
100
AcDbEntity
  8
部品1
 62
     7
 48
50.0
100
AcDbLine
 10
10879.04637700764
 20
7081.730935009574
 30
0.0
 11
10879.04637700764
 21
7081.730935009574
 31
0.0
  0
LINE
  5
1EC15
330
747D
100
AcDbEntity
  8
部品1
 62
     7
 48
50.0
100
AcDbLine
 10
10855.23387700764
 20
7081.730935009574
 30
0.0
 11
10855.23387700764
 21
7081.730935009574
 31
0.0
  0
LINE
  5
1EC16
330
747D
100
AcDbEntity
  8
部品1
 62
     7
 48
50.0
100
AcDbLine
 10
10831.42137700764
 20
7081.730935009574
 30
0.0
 11
10831.42137700764
 21
7081.730935009574
 31
0.0
  0
LINE
  5
1EC17
330
747D
100
AcDbEntity
  8
部品1
 62
     7
 48
50.0
100
AcDbLine
 10
10807.60887700764
 20
7081.730935009574
 30
0.0
 11
10807.60887700764
 21
7081.730935009574
 31
0.0
  0
LINE
  5
1EC18
330
747D
100
AcDbEntity
  8
部品1
 62
     7
 48
50.0
100
AcDbLine
 10
10783.79637700764
 20
7081.730935009574
 30
0.0
 11
10783.79637700764
 21
7081.730935009574
 31
0.0
  0
LINE
  5
1EC19
330
747D
100
AcDbEntity
  8
部品1
 62
     7
 48
50.0
100
AcDbLine
 10
10962.39012700764
 20
7105.543435009574
 30
0.0
 11
10962.39012700764
 21
7105.543435009574
 31
0.0
  0
LINE
  5
1EC1A
330
747D
100
AcDbEntity
  8
部品1
 62
     7
 48
50.0
100
AcDbLine
 10
10938.57762700764
 20
7105.543435009574
 30
0.0
 11
10938.57762700764
 21
7105.543435009574
 31
0.0
  0
LINE
  5
1EC1B
330
747D
100
AcDbEntity
  8
部品1
 62
     7
 48
50.0
100
AcDbLine
 10
10914.76512700764
 20
7105.543435009574
 30
0.0
 11
10914.76512700764
 21
7105.543435009574
 31
0.0
  0
LINE
  5
1EC1C
330
747D
100
AcDbEntity
  8
部品1
 62
     7
 48
50.0
100
AcDbLine
 10
10890.95262700764
 20
7105.543435009574
 30
0.0
 11
10890.95262700764
 21
7105.543435009574
 31
0.0
  0
LINE
  5
1EC1D
330
747D
100
AcDbEntity
  8
部品1
 62
     7
 48
50.0
100
AcDbLine
 10
10867.14012700764
 20
7105.543435009574
 30
0.0
 11
10867.14012700764
 21
7105.543435009574
 31
0.0
  0
LINE
  5
1EC1E
330
747D
100
AcDbEntity
  8
部品1
 62
     7
 48
50.0
100
AcDbLine
 10
10843.32762700764
 20
7105.543435009574
 30
0.0
 11
10843.32762700764
 21
7105.543435009574
 31
0.0
  0
LINE
  5
1EC1F
330
747D
100
AcDbEntity
  8
部品1
 62
     7
 48
50.0
100
AcDbLine
 10
10819.51512700764
 20
7105.543435009574
 30
0.0
 11
10819.51512700764
 21
7105.543435009574
 31
0.0
  0
LINE
  5
1EC20
330
747D
100
AcDbEntity
  8
部品1
 62
     7
 48
50.0
100
AcDbLine
 10
10795.70262700764
 20
7105.543435009574
 30
0.0
 11
10795.70262700764
 21
7105.543435009574
 31
0.0
  0
LINE
  5
1EC21
330
747D
100
AcDbEntity
  8
部品1
 62
     7
 48
50.0
100
AcDbLine
 10
10867.14012700764
 20
7248.418435009575
 30
0.0
 11
10867.14012700764
 21
7248.418435009575
 31
0.0
  0
LINE
  5
1EC22
330
747D
100
AcDbEntity
  8
部品1
 62
     7
 48
50.0
100
AcDbLine
 10
10843.32762700764
 20
7248.418435009575
 30
0.0
 11
10843.32762700764
 21
7248.418435009575
 31
0.0
  0
LINE
  5
1EC23
330
747D
100
AcDbEntity
  8
部品1
 62
     7
 48
50.0
100
AcDbLine
 10
10819.51512700764
 20
7248.418435009575
 30
0.0
 11
10819.51512700764
 21
7248.418435009575
 31
0.0
  0
LINE
  5
1EC24
330
747D
100
AcDbEntity
  8
部品1
 62
     7
 48
50.0
100
AcDbLine
 10
10795.70262700764
 20
7248.418435009575
 30
0.0
 11
10795.70262700764
 21
7248.418435009575
 31
0.0
  0
LINE
  5
1EC25
330
747D
100
AcDbEntity
  8
部品1
 62
     7
 48
50.0
100
AcDbLine
 10
10962.39012700764
 20
7248.418435009575
 30
0.0
 11
10962.39012700764
 21
7248.418435009575
 31
0.0
  0
LINE
  5
1EC26
330
747D
100
AcDbEntity
  8
部品1
 62
     7
 48
50.0
100
AcDbLine
 10
10938.57762700764
 20
7248.418435009575
 30
0.0
 11
10938.57762700764
 21
7248.418435009575
 31
0.0
  0
LINE
  5
1EC27
330
747D
100
AcDbEntity
  8
部品1
 62
     7
 48
50.0
100
AcDbLine
 10
10914.76512700764
 20
7248.418435009575
 30
0.0
 11
10914.76512700764
 21
7248.418435009575
 31
0.0
  0
LINE
  5
1EC28
330
747D
100
AcDbEntity
  8
部品1
 62
     7
 48
50.0
100
AcDbLine
 10
10890.95262700764
 20
7248.418435009575
 30
0.0
 11
10890.95262700764
 21
7248.418435009575
 31
0.0
  0
LINE
  5
1EC29
330
747D
100
AcDbEntity
  8
部品1
 62
     7
 48
50.0
100
AcDbLine
 10
10855.23387700764
 20
7272.230935009573
 30
0.0
 11
10855.23387700764
 21
7272.230935009573
 31
0.0
  0
LINE
  5
1EC2A
330
747D
100
AcDbEntity
  8
部品1
 62
     7
 48
50.0
100
AcDbLine
 10
10831.42137700764
 20
7272.230935009573
 30
0.0
 11
10831.42137700764
 21
7272.230935009573
 31
0.0
  0
LINE
  5
1EC2B
330
747D
100
AcDbEntity
  8
部品1
 62
     7
 48
50.0
100
AcDbLine
 10
10807.60887700764
 20
7272.230935009573
 30
0.0
 11
10807.60887700764
 21
7272.230935009573
 31
0.0
  0
LINE
  5
1EC2C
330
747D
100
AcDbEntity
  8
部品1
 62
     7
 48
50.0
100
AcDbLine
 10
10783.79637700764
 20
7272.230935009573
 30
0.0
 11
10783.79637700764
 21
7272.230935009573
 31
0.0
  0
LINE
  5
1EC2D
330
747D
100
AcDbEntity
  8
部品1
 62
     7
 48
50.0
100
AcDbLine
 10
10950.48387700764
 20
7272.230935009573
 30
0.0
 11
10950.48387700764
 21
7272.230935009573
 31
0.0
  0
LINE
  5
1EC2E
330
747D
100
AcDbEntity
  8
部品1
 62
     7
 48
50.0
100
AcDbLine
 10
10926.67137700764
 20
7272.230935009573
 30
0.0
 11
10926.67137700764
 21
7272.230935009573
 31
0.0
  0
LINE
  5
1EC2F
330
747D
100
AcDbEntity
  8
部品1
 62
     7
 48
50.0
100
AcDbLine
 10
10902.85887700764
 20
7272.230935009573
 30
0.0
 11
10902.85887700764
 21
7272.230935009573
 31
0.0
  0
LINE
  5
1EC30
330
747D
100
AcDbEntity
  8
部品1
 62
     7
 48
50.0
100
AcDbLine
 10
10879.04637700764
 20
7272.230935009573
 30
0.0
 11
10879.04637700764
 21
7272.230935009573
 31
0.0
  0
LINE
  5
1EC31
330
747D
100
AcDbEntity
  8
細線
 62
     7
 48
10.0
100
AcDbLine
 10
10973.49999999999
 20
6705.955177899423
 30
0.0
 11
10973.49999999999
 21
7105.955177899423
 31
0.0
  0
LINE
  5
1EC32
330
747D
100
AcDbEntity
  8
センター
 62
     7
 48
5.0
100
AcDbLine
 10
11018.49999999999
 20
7775.955177899421
 30
0.0
 11
10728.49999999999
 21
7775.955177899421
 31
0.0
  0
LINE
  5
1EC33
330
747D
100
AcDbEntity
  8
細線
 62
     7
 48
10.0
100
AcDbLine
 10
10973.49999999999
 20
7575.955177899423
 30
0.0
 11
10773.49999999999
 21
7575.955177899423
 31
0.0
  0
LINE
  5
1EC34
330
747D
100
AcDbEntity
  8
センター
 62
     7
 48
5.0
100
AcDbLine
 10
10728.49999999999
 20
7340.955177899424
 30
0.0
 11
11018.49999999999
 21
7340.955177899424
 31
0.0
  0
LINE
  5
1EC35
330
747D
100
AcDbEntity
  8
細線
 62
     7
 48
10.0
100
AcDbLine
 10
10973.49999999999
 20
7440.955177899422
 30
0.0
 11
10773.49999999999
 21
7440.955177899422
 31
0.0
  0
LINE
  5
1EC36
330
747D
100
AcDbEntity
  8
部品1
 62
     7
 48
50.0
100
AcDbLine
 10
10867.14012700764
 20
7296.043435009574
 30
0.0
 11
10867.14012700764
 21
7296.043435009574
 31
0.0
  0
LINE
  5
1EC37
330
747D
100
AcDbEntity
  8
部品1
 62
     7
 48
50.0
100
AcDbLine
 10
10843.32762700764
 20
7296.043435009574
 30
0.0
 11
10843.32762700764
 21
7296.043435009574
 31
0.0
  0
LINE
  5
1EC38
330
747D
100
AcDbEntity
  8
部品1
 62
     7
 48
50.0
100
AcDbLine
 10
10819.51512700764
 20
7296.043435009574
 30
0.0
 11
10819.51512700764
 21
7296.043435009574
 31
0.0
  0
LINE
  5
1EC39
330
747D
100
AcDbEntity
  8
部品1
 62
     7
 48
50.0
100
AcDbLine
 10
10795.70262700764
 20
7296.043435009574
 30
0.0
 11
10795.70262700764
 21
7296.043435009574
 31
0.0
  0
LINE
  5
1EC3A
330
747D
100
AcDbEntity
  8
部品1
 62
     7
 48
50.0
100
AcDbLine
 10
10962.39012700764
 20
7296.043435009574
 30
0.0
 11
10962.39012700764
 21
7296.043435009574
 31
0.0
  0
LINE
  5
1EC3B
330
747D
100
AcDbEntity
  8
部品1
 62
     7
 48
50.0
100
AcDbLine
 10
10938.57762700764
 20
7296.043435009574
 30
0.0
 11
10938.57762700764
 21
7296.043435009574
 31
0.0
  0
LINE
  5
1EC3C
330
747D
100
AcDbEntity
  8
部品1
 62
     7
 48
50.0
100
AcDbLine
 10
10914.76512700764
 20
7296.043435009574
 30
0.0
 11
10914.76512700764
 21
7296.043435009574
 31
0.0
  0
LINE
  5
1EC3D
330
747D
100
AcDbEntity
  8
部品1
 62
     7
 48
50.0
100
AcDbLine
 10
10890.95262700764
 20
7296.043435009574
 30
0.0
 11
10890.95262700764
 21
7296.043435009574
 31
0.0
  0
LINE
  5
1EC3E
330
747D
100
AcDbEntity
  8
部品1
 62
     7
 48
50.0
100
AcDbLine
 10
10855.23387700764
 20
7319.85593500957
 30
0.0
 11
10855.23387700764
 21
7319.85593500957
 31
0.0
  0
LINE
  5
1EC3F
330
747D
100
AcDbEntity
  8
部品1
 62
     7
 48
50.0
100
AcDbLine
 10
10831.42137700764
 20
7319.85593500957
 30
0.0
 11
10831.42137700764
 21
7319.85593500957
 31
0.0
  0
LINE
  5
1EC40
330
747D
100
AcDbEntity
  8
部品1
 62
     7
 48
50.0
100
AcDbLine
 10
10807.60887700764
 20
7319.85593500957
 30
0.0
 11
10807.60887700764
 21
7319.85593500957
 31
0.0
  0
LINE
  5
1EC41
330
747D
100
AcDbEntity
  8
部品1
 62
     7
 48
50.0
100
AcDbLine
 10
10783.79637700764
 20
7319.85593500957
 30
0.0
 11
10783.79637700764
 21
7319.85593500957
 31
0.0
  0
LINE
  5
1EC42
330
747D
100
AcDbEntity
  8
部品1
 62
     7
 48
50.0
100
AcDbLine
 10
10950.48387700764
 20
7319.85593500957
 30
0.0
 11
10950.48387700764
 21
7319.85593500957
 31
0.0
  0
LINE
  5
1EC43
330
747D
100
AcDbEntity
  8
部品1
 62
     7
 48
50.0
100
AcDbLine
 10
10926.67137700764
 20
7319.85593500957
 30
0.0
 11
10926.67137700764
 21
7319.85593500957
 31
0.0
  0
LINE
  5
1EC44
330
747D
100
AcDbEntity
  8
部品1
 62
     7
 48
50.0
100
AcDbLine
 10
10902.85887700764
 20
7319.85593500957
 30
0.0
 11
10902.85887700764
 21
7319.85593500957
 31
0.0
  0
LINE
  5
1EC45
330
747D
100
AcDbEntity
  8
部品1
 62
     7
 48
50.0
100
AcDbLine
 10
10879.04637700764
 20
7319.85593500957
 30
0.0
 11
10879.04637700764
 21
7319.85593500957
 31
0.0
  0
LINE
  5
1EC46
330
747D
100
AcDbEntity
  8
部品1
 62
     7
 48
50.0
100
AcDbLine
 10
10867.14012700764
 20
7343.668435009572
 30
0.0
 11
10867.14012700764
 21
7343.668435009572
 31
0.0
  0
LINE
  5
1EC47
330
747D
100
AcDbEntity
  8
部品1
 62
     7
 48
50.0
100
AcDbLine
 10
10843.32762700764
 20
7343.668435009572
 30
0.0
 11
10843.32762700764
 21
7343.668435009572
 31
0.0
  0
LINE
  5
1EC48
330
747D
100
AcDbEntity
  8
部品1
 62
     7
 48
50.0
100
AcDbLine
 10
10819.51512700764
 20
7343.668435009572
 30
0.0
 11
10819.51512700764
 21
7343.668435009572
 31
0.0
  0
LINE
  5
1EC49
330
747D
100
AcDbEntity
  8
部品1
 62
     7
 48
50.0
100
AcDbLine
 10
10795.70262700764
 20
7343.668435009572
 30
0.0
 11
10795.70262700764
 21
7343.668435009572
 31
0.0
  0
LINE
  5
1EC4A
330
747D
100
AcDbEntity
  8
部品1
 62
     7
 48
50.0
100
AcDbLine
 10
10962.39012700764
 20
7343.668435009572
 30
0.0
 11
10962.39012700764
 21
7343.668435009572
 31
0.0
  0
LINE
  5
1EC4B
330
747D
100
AcDbEntity
  8
部品1
 62
     7
 48
50.0
100
AcDbLine
 10
10938.57762700764
 20
7343.668435009572
 30
0.0
 11
10938.57762700764
 21
7343.668435009572
 31
0.0
  0
LINE
  5
1EC4C
330
747D
100
AcDbEntity
  8
部品1
 62
     7
 48
50.0
100
AcDbLine
 10
10914.76512700764
 20
7343.668435009572
 30
0.0
 11
10914.76512700764
 21
7343.668435009572
 31
0.0
  0
LINE
  5
1EC4D
330
747D
100
AcDbEntity
  8
部品1
 62
     7
 48
50.0
100
AcDbLine
 10
10890.95262700764
 20
7343.668435009572
 30
0.0
 11
10890.95262700764
 21
7343.668435009572
 31
0.0
  0
LINE
  5
1EC4E
330
747D
100
AcDbEntity
  8
部品1
 62
     7
 48
50.0
100
AcDbLine
 10
10855.23387700764
 20
7367.480935009574
 30
0.0
 11
10855.23387700764
 21
7367.480935009574
 31
0.0
  0
LINE
  5
1EC4F
330
747D
100
AcDbEntity
  8
部品1
 62
     7
 48
50.0
100
AcDbLine
 10
10831.42137700764
 20
7367.480935009574
 30
0.0
 11
10831.42137700764
 21
7367.480935009574
 31
0.0
  0
LINE
  5
1EC50
330
747D
100
AcDbEntity
  8
部品1
 62
     7
 48
50.0
100
AcDbLine
 10
10807.60887700764
 20
7367.480935009574
 30
0.0
 11
10807.60887700764
 21
7367.480935009574
 31
0.0
  0
LINE
  5
1EC51
330
747D
100
AcDbEntity
  8
部品1
 62
     7
 48
50.0
100
AcDbLine
 10
10783.79637700764
 20
7367.480935009574
 30
0.0
 11
10783.79637700764
 21
7367.480935009574
 31
0.0
  0
LINE
  5
1EC52
330
747D
100
AcDbEntity
  8
部品1
 62
     7
 48
50.0
100
AcDbLine
 10
10950.48387700764
 20
7367.480935009574
 30
0.0
 11
10950.48387700764
 21
7367.480935009574
 31
0.0
  0
LINE
  5
1EC53
330
747D
100
AcDbEntity
  8
部品1
 62
     7
 48
50.0
100
AcDbLine
 10
10926.67137700764
 20
7367.480935009574
 30
0.0
 11
10926.67137700764
 21
7367.480935009574
 31
0.0
  0
LINE
  5
1EC54
330
747D
100
AcDbEntity
  8
部品1
 62
     7
 48
50.0
100
AcDbLine
 10
10902.85887700764
 20
7367.480935009574
 30
0.0
 11
10902.85887700764
 21
7367.480935009574
 31
0.0
  0
LINE
  5
1EC55
330
747D
100
AcDbEntity
  8
部品1
 62
     7
 48
50.0
100
AcDbLine
 10
10879.04637700764
 20
7367.480935009574
 30
0.0
 11
10879.04637700764
 21
7367.480935009574
 31
0.0
  0
LINE
  5
1EC56
330
747D
100
AcDbEntity
  8
部品1
 62
     7
 48
50.0
100
AcDbLine
 10
10867.14012700764
 20
7391.293435009574
 30
0.0
 11
10867.14012700764
 21
7391.293435009574
 31
0.0
  0
LINE
  5
1EC57
330
747D
100
AcDbEntity
  8
部品1
 62
     7
 48
50.0
100
AcDbLine
 10
10843.32762700764
 20
7391.293435009574
 30
0.0
 11
10843.32762700764
 21
7391.293435009574
 31
0.0
  0
LINE
  5
1EC58
330
747D
100
AcDbEntity
  8
部品1
 62
     7
 48
50.0
100
AcDbLine
 10
10819.51512700764
 20
7391.293435009574
 30
0.0
 11
10819.51512700764
 21
7391.293435009574
 31
0.0
  0
LINE
  5
1EC59
330
747D
100
AcDbEntity
  8
部品1
 62
     7
 48
50.0
100
AcDbLine
 10
10795.70262700764
 20
7391.293435009574
 30
0.0
 11
10795.70262700764
 21
7391.293435009574
 31
0.0
  0
LINE
  5
1EC5A
330
747D
100
AcDbEntity
  8
部品1
 62
     7
 48
50.0
100
AcDbLine
 10
10962.39012700764
 20
7391.293435009574
 30
0.0
 11
10962.39012700764
 21
7391.293435009574
 31
0.0
  0
LINE
  5
1EC5B
330
747D
100
AcDbEntity
  8
部品1
 62
     7
 48
50.0
100
AcDbLine
 10
10938.57762700764
 20
7391.293435009574
 30
0.0
 11
10938.57762700764
 21
7391.293435009574
 31
0.0
  0
LINE
  5
1EC5C
330
747D
100
AcDbEntity
  8
部品1
 62
     7
 48
50.0
100
AcDbLine
 10
10914.76512700764
 20
7391.293435009574
 30
0.0
 11
10914.76512700764
 21
7391.293435009574
 31
0.0
  0
LINE
  5
1EC5D
330
747D
100
AcDbEntity
  8
部品1
 62
     7
 48
50.0
100
AcDbLine
 10
10890.95262700764
 20
7391.293435009574
 30
0.0
 11
10890.95262700764
 21
7391.293435009574
 31
0.0
  0
LINE
  5
1EC5E
330
747D
100
AcDbEntity
  8
部品1
 62
     7
 48
50.0
100
AcDbLine
 10
10855.23387700764
 20
7415.10593500957
 30
0.0
 11
10855.23387700764
 21
7415.10593500957
 31
0.0
  0
LINE
  5
1EC5F
330
747D
100
AcDbEntity
  8
部品1
 62
     7
 48
50.0
100
AcDbLine
 10
10831.42137700764
 20
7415.10593500957
 30
0.0
 11
10831.42137700764
 21
7415.10593500957
 31
0.0
  0
LINE
  5
1EC60
330
747D
100
AcDbEntity
  8
部品1
 62
     7
 48
50.0
100
AcDbLine
 10
10807.60887700764
 20
7415.10593500957
 30
0.0
 11
10807.60887700764
 21
7415.10593500957
 31
0.0
  0
LINE
  5
1EC61
330
747D
100
AcDbEntity
  8
部品1
 62
     7
 48
50.0
100
AcDbLine
 10
10783.79637700764
 20
7415.10593500957
 30
0.0
 11
10783.79637700764
 21
7415.10593500957
 31
0.0
  0
LINE
  5
1EC62
330
747D
100
AcDbEntity
  8
部品1
 62
     7
 48
50.0
100
AcDbLine
 10
10950.48387700764
 20
7415.10593500957
 30
0.0
 11
10950.48387700764
 21
7415.10593500957
 31
0.0
  0
LINE
  5
1EC63
330
747D
100
AcDbEntity
  8
部品1
 62
     7
 48
50.0
100
AcDbLine
 10
10926.67137700764
 20
7415.10593500957
 30
0.0
 11
10926.67137700764
 21
7415.10593500957
 31
0.0
  0
LINE
  5
1EC64
330
747D
100
AcDbEntity
  8
部品1
 62
     7
 48
50.0
100
AcDbLine
 10
10902.85887700764
 20
7415.10593500957
 30
0.0
 11
10902.85887700764
 21
7415.10593500957
 31
0.0
  0
LINE
  5
1EC65
330
747D
100
AcDbEntity
  8
部品1
 62
     7
 48
50.0
100
AcDbLine
 10
10879.04637700764
 20
7415.10593500957
 30
0.0
 11
10879.04637700764
 21
7415.10593500957
 31
0.0
  0
LINE
  5
1EC66
330
747D
100
AcDbEntity
  8
部品1
 62
     7
 48
50.0
100
AcDbLine
 10
10962.39012700764
 20
7581.793435009577
 30
0.0
 11
10962.39012700764
 21
7581.793435009577
 31
0.0
  0
LINE
  5
1EC67
330
747D
100
AcDbEntity
  8
部品1
 62
     7
 48
50.0
100
AcDbLine
 10
10938.57762700764
 20
7581.793435009577
 30
0.0
 11
10938.57762700764
 21
7581.793435009577
 31
0.0
  0
LINE
  5
1EC68
330
747D
100
AcDbEntity
  8
部品1
 62
     7
 48
50.0
100
AcDbLine
 10
10914.76512700764
 20
7581.793435009577
 30
0.0
 11
10914.76512700764
 21
7581.793435009577
 31
0.0
  0
LINE
  5
1EC69
330
747D
100
AcDbEntity
  8
部品1
 62
     7
 48
50.0
100
AcDbLine
 10
10890.95262700764
 20
7581.793435009577
 30
0.0
 11
10890.95262700764
 21
7581.793435009577
 31
0.0
  0
LINE
  5
1EC6A
330
747D
100
AcDbEntity
  8
部品1
 62
     7
 48
50.0
100
AcDbLine
 10
10867.14012700764
 20
7581.793435009577
 30
0.0
 11
10867.14012700764
 21
7581.793435009577
 31
0.0
  0
LINE
  5
1EC6B
330
747D
100
AcDbEntity
  8
部品1
 62
     7
 48
50.0
100
AcDbLine
 10
10843.32762700764
 20
7581.793435009577
 30
0.0
 11
10843.32762700764
 21
7581.793435009577
 31
0.0
  0
LINE
  5
1EC6C
330
747D
100
AcDbEntity
  8
部品1
 62
     7
 48
50.0
100
AcDbLine
 10
10819.51512700764
 20
7581.793435009577
 30
0.0
 11
10819.51512700764
 21
7581.793435009577
 31
0.0
  0
LINE
  5
1EC6D
330
747D
100
AcDbEntity
  8
部品1
 62
     7
 48
50.0
100
AcDbLine
 10
10795.70262700764
 20
7581.793435009577
 30
0.0
 11
10795.70262700764
 21
7581.793435009577
 31
0.0
  0
LINE
  5
1EC6E
330
747D
100
AcDbEntity
  8
部品1
 62
     7
 48
50.0
100
AcDbLine
 10
10950.48387700764
 20
7605.60593500957
 30
0.0
 11
10950.48387700764
 21
7605.60593500957
 31
0.0
  0
LINE
  5
1EC6F
330
747D
100
AcDbEntity
  8
部品1
 62
     7
 48
50.0
100
AcDbLine
 10
10926.67137700764
 20
7605.60593500957
 30
0.0
 11
10926.67137700764
 21
7605.60593500957
 31
0.0
  0
LINE
  5
1EC70
330
747D
100
AcDbEntity
  8
部品1
 62
     7
 48
50.0
100
AcDbLine
 10
10902.85887700764
 20
7605.60593500957
 30
0.0
 11
10902.85887700764
 21
7605.60593500957
 31
0.0
  0
LINE
  5
1EC71
330
747D
100
AcDbEntity
  8
部品1
 62
     7
 48
50.0
100
AcDbLine
 10
10879.04637700764
 20
7605.60593500957
 30
0.0
 11
10879.04637700764
 21
7605.60593500957
 31
0.0
  0
LINE
  5
1EC72
330
747D
100
AcDbEntity
  8
部品1
 62
     7
 48
50.0
100
AcDbLine
 10
10855.23387700764
 20
7605.60593500957
 30
0.0
 11
10855.23387700764
 21
7605.60593500957
 31
0.0
  0
LINE
  5
1EC73
330
747D
100
AcDbEntity
  8
部品1
 62
     7
 48
50.0
100
AcDbLine
 10
10831.42137700764
 20
7605.60593500957
 30
0.0
 11
10831.42137700764
 21
7605.60593500957
 31
0.0
  0
LINE
  5
1EC74
330
747D
100
AcDbEntity
  8
部品1
 62
     7
 48
50.0
100
AcDbLine
 10
10807.60887700764
 20
7605.60593500957
 30
0.0
 11
10807.60887700764
 21
7605.60593500957
 31
0.0
  0
LINE
  5
1EC75
330
747D
100
AcDbEntity
  8
部品1
 62
     7
 48
50.0
100
AcDbLine
 10
10783.79637700764
 20
7605.60593500957
 30
0.0
 11
10783.79637700764
 21
7605.60593500957
 31
0.0
  0
LINE
  5
1EC76
330
747D
100
AcDbEntity
  8
部品1
 62
     7
 48
50.0
100
AcDbLine
 10
10962.39012700764
 20
7629.418435009572
 30
0.0
 11
10962.39012700764
 21
7629.418435009572
 31
0.0
  0
LINE
  5
1EC77
330
747D
100
AcDbEntity
  8
部品1
 62
     7
 48
50.0
100
AcDbLine
 10
10938.57762700764
 20
7629.418435009572
 30
0.0
 11
10938.57762700764
 21
7629.418435009572
 31
0.0
  0
LINE
  5
1EC78
330
747D
100
AcDbEntity
  8
部品1
 62
     7
 48
50.0
100
AcDbLine
 10
10914.76512700764
 20
7629.418435009572
 30
0.0
 11
10914.76512700764
 21
7629.418435009572
 31
0.0
  0
LINE
  5
1EC79
330
747D
100
AcDbEntity
  8
部品1
 62
     7
 48
50.0
100
AcDbLine
 10
10890.95262700764
 20
7629.418435009572
 30
0.0
 11
10890.95262700764
 21
7629.418435009572
 31
0.0
  0
LINE
  5
1EC7A
330
747D
100
AcDbEntity
  8
部品1
 62
     7
 48
50.0
100
AcDbLine
 10
10867.14012700764
 20
7629.418435009572
 30
0.0
 11
10867.14012700764
 21
7629.418435009572
 31
0.0
  0
LINE
  5
1EC7B
330
747D
100
AcDbEntity
  8
部品1
 62
     7
 48
50.0
100
AcDbLine
 10
10843.32762700764
 20
7629.418435009572
 30
0.0
 11
10843.32762700764
 21
7629.418435009572
 31
0.0
  0
LINE
  5
1EC7C
330
747D
100
AcDbEntity
  8
部品1
 62
     7
 48
50.0
100
AcDbLine
 10
10819.51512700764
 20
7629.418435009572
 30
0.0
 11
10819.51512700764
 21
7629.418435009572
 31
0.0
  0
LINE
  5
1EC7D
330
747D
100
AcDbEntity
  8
部品1
 62
     7
 48
50.0
100
AcDbLine
 10
10795.70262700764
 20
7629.418435009572
 30
0.0
 11
10795.70262700764
 21
7629.418435009572
 31
0.0
  0
LINE
  5
1EC7E
330
747D
100
AcDbEntity
  8
部品1
 62
     7
 48
50.0
100
AcDbLine
 10
10950.48387700764
 20
7653.230935009573
 30
0.0
 11
10950.48387700764
 21
7653.230935009573
 31
0.0
  0
LINE
  5
1EC7F
330
747D
100
AcDbEntity
  8
部品1
 62
     7
 48
50.0
100
AcDbLine
 10
10926.67137700764
 20
7653.230935009573
 30
0.0
 11
10926.67137700764
 21
7653.230935009573
 31
0.0
  0
LINE
  5
1EC80
330
747D
100
AcDbEntity
  8
部品1
 62
     7
 48
50.0
100
AcDbLine
 10
10902.85887700764
 20
7653.230935009573
 30
0.0
 11
10902.85887700764
 21
7653.230935009573
 31
0.0
  0
LINE
  5
1EC81
330
747D
100
AcDbEntity
  8
部品1
 62
     7
 48
50.0
100
AcDbLine
 10
10879.04637700764
 20
7653.230935009573
 30
0.0
 11
10879.04637700764
 21
7653.230935009573
 31
0.0
  0
LINE
  5
1EC82
330
747D
100
AcDbEntity
  8
部品1
 62
     7
 48
50.0
100
AcDbLine
 10
10855.23387700764
 20
7653.230935009573
 30
0.0
 11
10855.23387700764
 21
7653.230935009573
 31
0.0
  0
LINE
  5
1EC83
330
747D
100
AcDbEntity
  8
部品1
 62
     7
 48
50.0
100
AcDbLine
 10
10831.42137700764
 20
7653.230935009573
 30
0.0
 11
10831.42137700764
 21
7653.230935009573
 31
0.0
  0
LINE
  5
1EC84
330
747D
100
AcDbEntity
  8
部品1
 62
     7
 48
50.0
100
AcDbLine
 10
10807.60887700764
 20
7653.230935009573
 30
0.0
 11
10807.60887700764
 21
7653.230935009573
 31
0.0
  0
LINE
  5
1EC85
330
747D
100
AcDbEntity
  8
部品1
 62
     7
 48
50.0
100
AcDbLine
 10
10783.79637700764
 20
7653.230935009573
 30
0.0
 11
10783.79637700764
 21
7653.230935009573
 31
0.0
  0
LINE
  5
1EC86
330
747D
100
AcDbEntity
  8
部品1
 62
     7
 48
50.0
100
AcDbLine
 10
10962.39012700764
 20
7677.043435009577
 30
0.0
 11
10962.39012700764
 21
7677.043435009577
 31
0.0
  0
LINE
  5
1EC87
330
747D
100
AcDbEntity
  8
部品1
 62
     7
 48
50.0
100
AcDbLine
 10
10938.57762700764
 20
7677.043435009577
 30
0.0
 11
10938.57762700764
 21
7677.043435009577
 31
0.0
  0
LINE
  5
1EC88
330
747D
100
AcDbEntity
  8
部品1
 62
     7
 48
50.0
100
AcDbLine
 10
10914.76512700764
 20
7677.043435009577
 30
0.0
 11
10914.76512700764
 21
7677.043435009577
 31
0.0
  0
LINE
  5
1EC89
330
747D
100
AcDbEntity
  8
部品1
 62
     7
 48
50.0
100
AcDbLine
 10
10890.95262700764
 20
7677.043435009577
 30
0.0
 11
10890.95262700764
 21
7677.043435009577
 31
0.0
  0
LINE
  5
1EC8A
330
747D
100
AcDbEntity
  8
部品1
 62
     7
 48
50.0
100
AcDbLine
 10
10867.14012700764
 20
7677.043435009577
 30
0.0
 11
10867.14012700764
 21
7677.043435009577
 31
0.0
  0
LINE
  5
1EC8B
330
747D
100
AcDbEntity
  8
部品1
 62
     7
 48
50.0
100
AcDbLine
 10
10843.32762700764
 20
7677.043435009577
 30
0.0
 11
10843.32762700764
 21
7677.043435009577
 31
0.0
  0
LINE
  5
1EC8C
330
747D
100
AcDbEntity
  8
部品1
 62
     7
 48
50.0
100
AcDbLine
 10
10819.51512700764
 20
7677.043435009577
 30
0.0
 11
10819.51512700764
 21
7677.043435009577
 31
0.0
  0
LINE
  5
1EC8D
330
747D
100
AcDbEntity
  8
部品1
 62
     7
 48
50.0
100
AcDbLine
 10
10795.70262700764
 20
7677.043435009577
 30
0.0
 11
10795.70262700764
 21
7677.043435009577
 31
0.0
  0
LINE
  5
1EC8E
330
747D
100
AcDbEntity
  8
部品1
 62
     7
 48
50.0
100
AcDbLine
 10
10950.48387700764
 20
7700.85593500957
 30
0.0
 11
10950.48387700764
 21
7700.85593500957
 31
0.0
  0
LINE
  5
1EC8F
330
747D
100
AcDbEntity
  8
部品1
 62
     7
 48
50.0
100
AcDbLine
 10
10926.67137700764
 20
7700.85593500957
 30
0.0
 11
10926.67137700764
 21
7700.85593500957
 31
0.0
  0
LINE
  5
1EC90
330
747D
100
AcDbEntity
  8
部品1
 62
     7
 48
50.0
100
AcDbLine
 10
10902.85887700764
 20
7700.85593500957
 30
0.0
 11
10902.85887700764
 21
7700.85593500957
 31
0.0
  0
LINE
  5
1EC91
330
747D
100
AcDbEntity
  8
部品1
 62
     7
 48
50.0
100
AcDbLine
 10
10879.04637700764
 20
7700.85593500957
 30
0.0
 11
10879.04637700764
 21
7700.85593500957
 31
0.0
  0
LINE
  5
1EC92
330
747D
100
AcDbEntity
  8
部品1
 62
     7
 48
50.0
100
AcDbLine
 10
10855.23387700764
 20
7700.85593500957
 30
0.0
 11
10855.23387700764
 21
7700.85593500957
 31
0.0
  0
LINE
  5
1EC93
330
747D
100
AcDbEntity
  8
部品1
 62
     7
 48
50.0
100
AcDbLine
 10
10831.42137700764
 20
7700.85593500957
 30
0.0
 11
10831.42137700764
 21
7700.85593500957
 31
0.0
  0
LINE
  5
1EC94
330
747D
100
AcDbEntity
  8
部品1
 62
     7
 48
50.0
100
AcDbLine
 10
10807.60887700764
 20
7700.85593500957
 30
0.0
 11
10807.60887700764
 21
7700.85593500957
 31
0.0
  0
LINE
  5
1EC95
330
747D
100
AcDbEntity
  8
部品1
 62
     7
 48
50.0
100
AcDbLine
 10
10783.79637700764
 20
7700.85593500957
 30
0.0
 11
10783.79637700764
 21
7700.85593500957
 31
0.0
  0
LINE
  5
1EC96
330
747D
100
AcDbEntity
  8
部品1
 62
     7
 48
50.0
100
AcDbLine
 10
10962.39012700764
 20
7724.668435009572
 30
0.0
 11
10962.39012700764
 21
7724.668435009572
 31
0.0
  0
LINE
  5
1EC97
330
747D
100
AcDbEntity
  8
部品1
 62
     7
 48
50.0
100
AcDbLine
 10
10938.57762700764
 20
7724.668435009572
 30
0.0
 11
10938.57762700764
 21
7724.668435009572
 31
0.0
  0
LINE
  5
1EC98
330
747D
100
AcDbEntity
  8
部品1
 62
     7
 48
50.0
100
AcDbLine
 10
10914.76512700764
 20
7724.668435009572
 30
0.0
 11
10914.76512700764
 21
7724.668435009572
 31
0.0
  0
LINE
  5
1EC99
330
747D
100
AcDbEntity
  8
部品1
 62
     7
 48
50.0
100
AcDbLine
 10
10890.95262700764
 20
7724.668435009572
 30
0.0
 11
10890.95262700764
 21
7724.668435009572
 31
0.0
  0
LINE
  5
1EC9A
330
747D
100
AcDbEntity
  8
部品1
 62
     7
 48
50.0
100
AcDbLine
 10
10867.14012700764
 20
7724.668435009572
 30
0.0
 11
10867.14012700764
 21
7724.668435009572
 31
0.0
  0
LINE
  5
1EC9B
330
747D
100
AcDbEntity
  8
部品1
 62
     7
 48
50.0
100
AcDbLine
 10
10843.32762700764
 20
7724.668435009572
 30
0.0
 11
10843.32762700764
 21
7724.668435009572
 31
0.0
  0
LINE
  5
1EC9C
330
747D
100
AcDbEntity
  8
部品1
 62
     7
 48
50.0
100
AcDbLine
 10
10819.51512700764
 20
7724.668435009572
 30
0.0
 11
10819.51512700764
 21
7724.668435009572
 31
0.0
  0
LINE
  5
1EC9D
330
747D
100
AcDbEntity
  8
部品1
 62
     7
 48
50.0
100
AcDbLine
 10
10795.70262700764
 20
7724.668435009572
 30
0.0
 11
10795.70262700764
 21
7724.668435009572
 31
0.0
  0
LINE
  5
1EC9E
330
747D
100
AcDbEntity
  8
部品1
 62
     7
 48
50.0
100
AcDbLine
 10
10950.48387700764
 20
7748.480935009574
 30
0.0
 11
10950.48387700764
 21
7748.480935009574
 31
0.0
  0
LINE
  5
1EC9F
330
747D
100
AcDbEntity
  8
部品1
 62
     7
 48
50.0
100
AcDbLine
 10
10926.67137700764
 20
7748.480935009574
 30
0.0
 11
10926.67137700764
 21
7748.480935009574
 31
0.0
  0
LINE
  5
1ECA0
330
747D
100
AcDbEntity
  8
部品1
 62
     7
 48
50.0
100
AcDbLine
 10
10902.85887700764
 20
7748.480935009574
 30
0.0
 11
10902.85887700764
 21
7748.480935009574
 31
0.0
  0
LINE
  5
1ECA1
330
747D
100
AcDbEntity
  8
部品1
 62
     7
 48
50.0
100
AcDbLine
 10
10879.04637700764
 20
7748.480935009574
 30
0.0
 11
10879.04637700764
 21
7748.480935009574
 31
0.0
  0
LINE
  5
1ECA2
330
747D
100
AcDbEntity
  8
部品1
 62
     7
 48
50.0
100
AcDbLine
 10
10855.23387700764
 20
7748.480935009574
 30
0.0
 11
10855.23387700764
 21
7748.480935009574
 31
0.0
  0
LINE
  5
1ECA3
330
747D
100
AcDbEntity
  8
部品1
 62
     7
 48
50.0
100
AcDbLine
 10
10831.42137700764
 20
7748.480935009574
 30
0.0
 11
10831.42137700764
 21
7748.480935009574
 31
0.0
  0
LINE
  5
1ECA4
330
747D
100
AcDbEntity
  8
部品1
 62
     7
 48
50.0
100
AcDbLine
 10
10807.60887700764
 20
7748.480935009574
 30
0.0
 11
10807.60887700764
 21
7748.480935009574
 31
0.0
  0
LINE
  5
1ECA5
330
747D
100
AcDbEntity
  8
部品1
 62
     7
 48
50.0
100
AcDbLine
 10
10783.79637700764
 20
7748.480935009574
 30
0.0
 11
10783.79637700764
 21
7748.480935009574
 31
0.0
  0
LINE
  5
1ECA6
330
747D
100
AcDbEntity
  8
部品1
 62
     7
 48
50.0
100
AcDbLine
 10
10962.39012700764
 20
7772.293435009577
 30
0.0
 11
10962.39012700764
 21
7772.293435009577
 31
0.0
  0
LINE
  5
1ECA7
330
747D
100
AcDbEntity
  8
部品1
 62
     7
 48
50.0
100
AcDbLine
 10
10938.57762700764
 20
7772.293435009577
 30
0.0
 11
10938.57762700764
 21
7772.293435009577
 31
0.0
  0
LINE
  5
1ECA8
330
747D
100
AcDbEntity
  8
部品1
 62
     7
 48
50.0
100
AcDbLine
 10
10914.76512700764
 20
7772.293435009577
 30
0.0
 11
10914.76512700764
 21
7772.293435009577
 31
0.0
  0
LINE
  5
1ECA9
330
747D
100
AcDbEntity
  8
部品1
 62
     7
 48
50.0
100
AcDbLine
 10
10890.95262700764
 20
7772.293435009577
 30
0.0
 11
10890.95262700764
 21
7772.293435009577
 31
0.0
  0
LINE
  5
1ECAA
330
747D
100
AcDbEntity
  8
部品1
 62
     7
 48
50.0
100
AcDbLine
 10
10867.14012700764
 20
7772.293435009577
 30
0.0
 11
10867.14012700764
 21
7772.293435009577
 31
0.0
  0
LINE
  5
1ECAB
330
747D
100
AcDbEntity
  8
部品1
 62
     7
 48
50.0
100
AcDbLine
 10
10843.32762700764
 20
7772.293435009577
 30
0.0
 11
10843.32762700764
 21
7772.293435009577
 31
0.0
  0
LINE
  5
1ECAC
330
747D
100
AcDbEntity
  8
部品1
 62
     7
 48
50.0
100
AcDbLine
 10
10819.51512700764
 20
7772.293435009577
 30
0.0
 11
10819.51512700764
 21
7772.293435009577
 31
0.0
  0
LINE
  5
1ECAD
330
747D
100
AcDbEntity
  8
部品1
 62
     7
 48
50.0
100
AcDbLine
 10
10795.70262700764
 20
7772.293435009577
 30
0.0
 11
10795.70262700764
 21
7772.293435009577
 31
0.0
  0
LINE
  5
1ECAE
330
747D
100
AcDbEntity
  8
部品1
 62
     7
 48
50.0
100
AcDbLine
 10
10950.48387700764
 20
7796.10593500957
 30
0.0
 11
10950.48387700764
 21
7796.10593500957
 31
0.0
  0
LINE
  5
1ECAF
330
747D
100
AcDbEntity
  8
部品1
 62
     7
 48
50.0
100
AcDbLine
 10
10926.67137700764
 20
7796.10593500957
 30
0.0
 11
10926.67137700764
 21
7796.10593500957
 31
0.0
  0
LINE
  5
1ECB0
330
747D
100
AcDbEntity
  8
部品1
 62
     7
 48
50.0
100
AcDbLine
 10
10902.85887700764
 20
7796.10593500957
 30
0.0
 11
10902.85887700764
 21
7796.10593500957
 31
0.0
  0
LINE
  5
1ECB1
330
747D
100
AcDbEntity
  8
部品1
 62
     7
 48
50.0
100
AcDbLine
 10
10879.04637700764
 20
7796.10593500957
 30
0.0
 11
10879.04637700764
 21
7796.10593500957
 31
0.0
  0
LINE
  5
1ECB2
330
747D
100
AcDbEntity
  8
部品1
 62
     7
 48
50.0
100
AcDbLine
 10
10855.23387700764
 20
7796.10593500957
 30
0.0
 11
10855.23387700764
 21
7796.10593500957
 31
0.0
  0
LINE
  5
1ECB3
330
747D
100
AcDbEntity
  8
部品1
 62
     7
 48
50.0
100
AcDbLine
 10
10831.42137700764
 20
7796.10593500957
 30
0.0
 11
10831.42137700764
 21
7796.10593500957
 31
0.0
  0
LINE
  5
1ECB4
330
747D
100
AcDbEntity
  8
部品1
 62
     7
 48
50.0
100
AcDbLine
 10
10807.60887700764
 20
7796.10593500957
 30
0.0
 11
10807.60887700764
 21
7796.10593500957
 31
0.0
  0
LINE
  5
1ECB5
330
747D
100
AcDbEntity
  8
部品1
 62
     7
 48
50.0
100
AcDbLine
 10
10783.79637700764
 20
7796.10593500957
 30
0.0
 11
10783.79637700764
 21
7796.10593500957
 31
0.0
  0
LINE
  5
1ECB6
330
747D
100
AcDbEntity
  8
部品1
 62
     7
 48
50.0
100
AcDbLine
 10
10962.39012700764
 20
7819.91843500957
 30
0.0
 11
10962.39012700764
 21
7819.91843500957
 31
0.0
  0
LINE
  5
1ECB7
330
747D
100
AcDbEntity
  8
部品1
 62
     7
 48
50.0
100
AcDbLine
 10
10938.57762700764
 20
7819.91843500957
 30
0.0
 11
10938.57762700764
 21
7819.91843500957
 31
0.0
  0
LINE
  5
1ECB8
330
747D
100
AcDbEntity
  8
部品1
 62
     7
 48
50.0
100
AcDbLine
 10
10914.76512700764
 20
7819.91843500957
 30
0.0
 11
10914.76512700764
 21
7819.91843500957
 31
0.0
  0
LINE
  5
1ECB9
330
747D
100
AcDbEntity
  8
部品1
 62
     7
 48
50.0
100
AcDbLine
 10
10890.95262700764
 20
7819.91843500957
 30
0.0
 11
10890.95262700764
 21
7819.91843500957
 31
0.0
  0
LINE
  5
1ECBA
330
747D
100
AcDbEntity
  8
部品1
 62
     7
 48
50.0
100
AcDbLine
 10
10867.14012700764
 20
7819.91843500957
 30
0.0
 11
10867.14012700764
 21
7819.91843500957
 31
0.0
  0
LINE
  5
1ECBB
330
747D
100
AcDbEntity
  8
部品1
 62
     7
 48
50.0
100
AcDbLine
 10
10843.32762700764
 20
7819.91843500957
 30
0.0
 11
10843.32762700764
 21
7819.91843500957
 31
0.0
  0
LINE
  5
1ECBC
330
747D
100
AcDbEntity
  8
部品1
 62
     7
 48
50.0
100
AcDbLine
 10
10819.51512700764
 20
7819.91843500957
 30
0.0
 11
10819.51512700764
 21
7819.91843500957
 31
0.0
  0
LINE
  5
1ECBD
330
747D
100
AcDbEntity
  8
部品1
 62
     7
 48
50.0
100
AcDbLine
 10
10795.70262700764
 20
7819.91843500957
 30
0.0
 11
10795.70262700764
 21
7819.91843500957
 31
0.0
  0
LINE
  5
1ECBE
330
747D
100
AcDbEntity
  8
部品1
 62
     7
 48
50.0
100
AcDbLine
 10
10950.48387700764
 20
7843.730935009574
 30
0.0
 11
10950.48387700764
 21
7843.730935009574
 31
0.0
  0
LINE
  5
1ECBF
330
747D
100
AcDbEntity
  8
部品1
 62
     7
 48
50.0
100
AcDbLine
 10
10926.67137700764
 20
7843.730935009574
 30
0.0
 11
10926.67137700764
 21
7843.730935009574
 31
0.0
  0
LINE
  5
1ECC0
330
747D
100
AcDbEntity
  8
部品1
 62
     7
 48
50.0
100
AcDbLine
 10
10902.85887700764
 20
7843.730935009574
 30
0.0
 11
10902.85887700764
 21
7843.730935009574
 31
0.0
  0
LINE
  5
1ECC1
330
747D
100
AcDbEntity
  8
部品1
 62
     7
 48
50.0
100
AcDbLine
 10
10879.04637700764
 20
7843.730935009574
 30
0.0
 11
10879.04637700764
 21
7843.730935009574
 31
0.0
  0
LINE
  5
1ECC2
330
747D
100
AcDbEntity
  8
部品1
 62
     7
 48
50.0
100
AcDbLine
 10
10855.23387700764
 20
7843.730935009574
 30
0.0
 11
10855.23387700764
 21
7843.730935009574
 31
0.0
  0
LINE
  5
1ECC3
330
747D
100
AcDbEntity
  8
部品1
 62
     7
 48
50.0
100
AcDbLine
 10
10831.42137700764
 20
7843.730935009574
 30
0.0
 11
10831.42137700764
 21
7843.730935009574
 31
0.0
  0
LINE
  5
1ECC4
330
747D
100
AcDbEntity
  8
部品1
 62
     7
 48
50.0
100
AcDbLine
 10
10807.60887700764
 20
7843.730935009574
 30
0.0
 11
10807.60887700764
 21
7843.730935009574
 31
0.0
  0
LINE
  5
1ECC5
330
747D
100
AcDbEntity
  8
部品1
 62
     7
 48
50.0
100
AcDbLine
 10
10783.79637700764
 20
7843.730935009574
 30
0.0
 11
10783.79637700764
 21
7843.730935009574
 31
0.0
  0
LINE
  5
1ECC6
330
747D
100
AcDbEntity
  8
部品1
 62
     7
 48
50.0
100
AcDbLine
 10
9771.76512700764
 20
7867.543435009577
 30
0.0
 11
9771.76512700764
 21
7867.543435009577
 31
0.0
  0
LINE
  5
1ECC7
330
747D
100
AcDbEntity
  8
部品1
 62
     7
 48
50.0
100
AcDbLine
 10
9747.952627007641
 20
7867.543435009577
 30
0.0
 11
9747.952627007641
 21
7867.543435009577
 31
0.0
  0
LINE
  5
1ECC8
330
747D
100
AcDbEntity
  8
部品1
 62
     7
 48
50.0
100
AcDbLine
 10
9783.671377007641
 20
7891.35593500957
 30
0.0
 11
9783.671377007641
 21
7891.35593500957
 31
0.0
  0
LINE
  5
1ECC9
330
747D
100
AcDbEntity
  8
部品1
 62
     7
 48
50.0
100
AcDbLine
 10
9759.858877007641
 20
7891.35593500957
 30
0.0
 11
9759.858877007641
 21
7891.35593500957
 31
0.0
  0
LINE
  5
1ECCA
330
747D
100
AcDbEntity
  8
部品1
 62
     7
 48
50.0
100
AcDbLine
 10
9736.046377007641
 20
7891.35593500957
 30
0.0
 11
9736.046377007641
 21
7891.35593500957
 31
0.0
  0
LINE
  5
1ECCB
330
747D
100
AcDbEntity
  8
部品1
 62
     7
 48
50.0
100
AcDbLine
 10
9771.76512700764
 20
7915.168435009571
 30
0.0
 11
9771.76512700764
 21
7915.168435009571
 31
0.0
  0
LINE
  5
1ECCC
330
747D
100
AcDbEntity
  8
部品1
 62
     7
 48
50.0
100
AcDbLine
 10
9747.952627007641
 20
7915.168435009571
 30
0.0
 11
9747.952627007641
 21
7915.168435009571
 31
0.0
  0
LINE
  5
1ECCD
330
747D
100
AcDbEntity
  8
部品1
 62
     7
 48
50.0
100
AcDbLine
 10
9783.671377007641
 20
7938.980935009571
 30
0.0
 11
9783.671377007641
 21
7938.980935009571
 31
0.0
  0
LINE
  5
1ECCE
330
747D
100
AcDbEntity
  8
部品1
 62
     7
 48
50.0
100
AcDbLine
 10
9759.858877007641
 20
7938.980935009571
 30
0.0
 11
9759.858877007641
 21
7938.980935009571
 31
0.0
  0
LINE
  5
1ECCF
330
747D
100
AcDbEntity
  8
部品1
 62
     7
 48
50.0
100
AcDbLine
 10
9736.046377007641
 20
7938.980935009571
 30
0.0
 11
9736.046377007641
 21
7938.980935009571
 31
0.0
  0
LINE
  5
1ECD0
330
747D
100
AcDbEntity
  8
部品1
 62
     7
 48
50.0
100
AcDbLine
 10
9771.76512700764
 20
7962.793435009574
 30
0.0
 11
9771.76512700764
 21
7962.793435009574
 31
0.0
  0
LINE
  5
1ECD1
330
747D
100
AcDbEntity
  8
部品1
 62
     7
 48
50.0
100
AcDbLine
 10
9747.952627007641
 20
7962.793435009574
 30
0.0
 11
9747.952627007641
 21
7962.793435009574
 31
0.0
  0
LINE
  5
1ECD2
330
747D
100
AcDbEntity
  8
部品1
 62
     7
 48
50.0
100
AcDbLine
 10
10379.49999999999
 20
8281.955177899423
 30
0.0
 11
10379.49999999999
 21
8081.955177899422
 31
0.0
  0
LINE
  5
1ECD3
330
747D
100
AcDbEntity
  8
部品1
 62
     7
 48
50.0
100
AcDbLine
 10
10179.49999999999
 20
8081.955177899422
 30
0.0
 11
10179.49999999999
 21
8281.955177899423
 31
0.0
  0
LINE
  5
1ECD4
330
747D
100
AcDbEntity
  8
部品1
 62
     7
 48
50.0
100
AcDbLine
 10
10379.49999999999
 20
8081.955177899422
 30
0.0
 11
10179.49999999999
 21
8081.955177899422
 31
0.0
  0
LINE
  5
1ECD5
330
747D
100
AcDbEntity
  8
部品1
 62
     7
 48
50.0
100
AcDbLine
 10
10179.49999999999
 20
8281.955177899423
 30
0.0
 11
10379.49999999999
 21
8281.955177899423
 31
0.0
  0
LINE
  5
1ECD6
330
747D
100
AcDbEntity
  8
細線
 62
     7
 48
10.0
100
AcDbLine
 10
10773.49999999999
 20
7975.955177899425
 30
0.0
 11
10973.49999999999
 21
7975.955177899425
 31
0.0
  0
LINE
  5
1ECD7
330
747D
100
AcDbEntity
  8
部品1
 62
     7
 48
50.0
100
AcDbLine
 10
10962.39012700764
 20
7867.543435009577
 30
0.0
 11
10962.39012700764
 21
7867.543435009577
 31
0.0
  0
LINE
  5
1ECD8
330
747D
100
AcDbEntity
  8
部品1
 62
     7
 48
50.0
100
AcDbLine
 10
10938.57762700764
 20
7867.543435009577
 30
0.0
 11
10938.57762700764
 21
7867.543435009577
 31
0.0
  0
LINE
  5
1ECD9
330
747D
100
AcDbEntity
  8
部品1
 62
     7
 48
50.0
100
AcDbLine
 10
10914.76512700764
 20
7867.543435009577
 30
0.0
 11
10914.76512700764
 21
7867.543435009577
 31
0.0
  0
LINE
  5
1ECDA
330
747D
100
AcDbEntity
  8
部品1
 62
     7
 48
50.0
100
AcDbLine
 10
10890.95262700764
 20
7867.543435009577
 30
0.0
 11
10890.95262700764
 21
7867.543435009577
 31
0.0
  0
LINE
  5
1ECDB
330
747D
100
AcDbEntity
  8
部品1
 62
     7
 48
50.0
100
AcDbLine
 10
10867.14012700764
 20
7867.543435009577
 30
0.0
 11
10867.14012700764
 21
7867.543435009577
 31
0.0
  0
LINE
  5
1ECDC
330
747D
100
AcDbEntity
  8
部品1
 62
     7
 48
50.0
100
AcDbLine
 10
10843.32762700764
 20
7867.543435009577
 30
0.0
 11
10843.32762700764
 21
7867.543435009577
 31
0.0
  0
LINE
  5
1ECDD
330
747D
100
AcDbEntity
  8
部品1
 62
     7
 48
50.0
100
AcDbLine
 10
10819.51512700764
 20
7867.543435009577
 30
0.0
 11
10819.51512700764
 21
7867.543435009577
 31
0.0
  0
LINE
  5
1ECDE
330
747D
100
AcDbEntity
  8
部品1
 62
     7
 48
50.0
100
AcDbLine
 10
10795.70262700764
 20
7867.543435009577
 30
0.0
 11
10795.70262700764
 21
7867.543435009577
 31
0.0
  0
LINE
  5
1ECDF
330
747D
100
AcDbEntity
  8
部品1
 62
     7
 48
50.0
100
AcDbLine
 10
10950.48387700764
 20
7891.35593500957
 30
0.0
 11
10950.48387700764
 21
7891.35593500957
 31
0.0
  0
LINE
  5
1ECE0
330
747D
100
AcDbEntity
  8
部品1
 62
     7
 48
50.0
100
AcDbLine
 10
10926.67137700764
 20
7891.35593500957
 30
0.0
 11
10926.67137700764
 21
7891.35593500957
 31
0.0
  0
LINE
  5
1ECE1
330
747D
100
AcDbEntity
  8
部品1
 62
     7
 48
50.0
100
AcDbLine
 10
10902.85887700764
 20
7891.35593500957
 30
0.0
 11
10902.85887700764
 21
7891.35593500957
 31
0.0
  0
LINE
  5
1ECE2
330
747D
100
AcDbEntity
  8
部品1
 62
     7
 48
50.0
100
AcDbLine
 10
10879.04637700764
 20
7891.35593500957
 30
0.0
 11
10879.04637700764
 21
7891.35593500957
 31
0.0
  0
LINE
  5
1ECE3
330
747D
100
AcDbEntity
  8
部品1
 62
     7
 48
50.0
100
AcDbLine
 10
10855.23387700764
 20
7891.35593500957
 30
0.0
 11
10855.23387700764
 21
7891.35593500957
 31
0.0
  0
LINE
  5
1ECE4
330
747D
100
AcDbEntity
  8
部品1
 62
     7
 48
50.0
100
AcDbLine
 10
10831.42137700764
 20
7891.35593500957
 30
0.0
 11
10831.42137700764
 21
7891.35593500957
 31
0.0
  0
LINE
  5
1ECE5
330
747D
100
AcDbEntity
  8
部品1
 62
     7
 48
50.0
100
AcDbLine
 10
10807.60887700764
 20
7891.35593500957
 30
0.0
 11
10807.60887700764
 21
7891.35593500957
 31
0.0
  0
LINE
  5
1ECE6
330
747D
100
AcDbEntity
  8
部品1
 62
     7
 48
50.0
100
AcDbLine
 10
10783.79637700764
 20
7891.35593500957
 30
0.0
 11
10783.79637700764
 21
7891.35593500957
 31
0.0
  0
LINE
  5
1ECE7
330
747D
100
AcDbEntity
  8
部品1
 62
     7
 48
50.0
100
AcDbLine
 10
10962.39012700764
 20
7915.168435009571
 30
0.0
 11
10962.39012700764
 21
7915.168435009571
 31
0.0
  0
LINE
  5
1ECE8
330
747D
100
AcDbEntity
  8
部品1
 62
     7
 48
50.0
100
AcDbLine
 10
10938.57762700764
 20
7915.168435009571
 30
0.0
 11
10938.57762700764
 21
7915.168435009571
 31
0.0
  0
LINE
  5
1ECE9
330
747D
100
AcDbEntity
  8
部品1
 62
     7
 48
50.0
100
AcDbLine
 10
10914.76512700764
 20
7915.168435009571
 30
0.0
 11
10914.76512700764
 21
7915.168435009571
 31
0.0
  0
LINE
  5
1ECEA
330
747D
100
AcDbEntity
  8
部品1
 62
     7
 48
50.0
100
AcDbLine
 10
10890.95262700764
 20
7915.168435009571
 30
0.0
 11
10890.95262700764
 21
7915.168435009571
 31
0.0
  0
LINE
  5
1ECEB
330
747D
100
AcDbEntity
  8
部品1
 62
     7
 48
50.0
100
AcDbLine
 10
10867.14012700764
 20
7915.168435009571
 30
0.0
 11
10867.14012700764
 21
7915.168435009571
 31
0.0
  0
LINE
  5
1ECEC
330
747D
100
AcDbEntity
  8
部品1
 62
     7
 48
50.0
100
AcDbLine
 10
10843.32762700764
 20
7915.168435009571
 30
0.0
 11
10843.32762700764
 21
7915.168435009571
 31
0.0
  0
LINE
  5
1ECED
330
747D
100
AcDbEntity
  8
部品1
 62
     7
 48
50.0
100
AcDbLine
 10
10819.51512700764
 20
7915.168435009571
 30
0.0
 11
10819.51512700764
 21
7915.168435009571
 31
0.0
  0
LINE
  5
1ECEE
330
747D
100
AcDbEntity
  8
部品1
 62
     7
 48
50.0
100
AcDbLine
 10
10795.70262700764
 20
7915.168435009571
 30
0.0
 11
10795.70262700764
 21
7915.168435009571
 31
0.0
  0
LINE
  5
1ECEF
330
747D
100
AcDbEntity
  8
部品1
 62
     7
 48
50.0
100
AcDbLine
 10
10950.48387700764
 20
7938.980935009571
 30
0.0
 11
10950.48387700764
 21
7938.980935009571
 31
0.0
  0
LINE
  5
1ECF0
330
747D
100
AcDbEntity
  8
部品1
 62
     7
 48
50.0
100
AcDbLine
 10
10926.67137700764
 20
7938.980935009571
 30
0.0
 11
10926.67137700764
 21
7938.980935009571
 31
0.0
  0
LINE
  5
1ECF1
330
747D
100
AcDbEntity
  8
部品1
 62
     7
 48
50.0
100
AcDbLine
 10
10902.85887700764
 20
7938.980935009571
 30
0.0
 11
10902.85887700764
 21
7938.980935009571
 31
0.0
  0
LINE
  5
1ECF2
330
747D
100
AcDbEntity
  8
部品1
 62
     7
 48
50.0
100
AcDbLine
 10
10879.04637700764
 20
7938.980935009571
 30
0.0
 11
10879.04637700764
 21
7938.980935009571
 31
0.0
  0
LINE
  5
1ECF3
330
747D
100
AcDbEntity
  8
部品1
 62
     7
 48
50.0
100
AcDbLine
 10
10855.23387700764
 20
7938.980935009571
 30
0.0
 11
10855.23387700764
 21
7938.980935009571
 31
0.0
  0
LINE
  5
1ECF4
330
747D
100
AcDbEntity
  8
部品1
 62
     7
 48
50.0
100
AcDbLine
 10
10831.42137700764
 20
7938.980935009571
 30
0.0
 11
10831.42137700764
 21
7938.980935009571
 31
0.0
  0
LINE
  5
1ECF5
330
747D
100
AcDbEntity
  8
部品1
 62
     7
 48
50.0
100
AcDbLine
 10
10807.60887700764
 20
7938.980935009571
 30
0.0
 11
10807.60887700764
 21
7938.980935009571
 31
0.0
  0
LINE
  5
1ECF6
330
747D
100
AcDbEntity
  8
部品1
 62
     7
 48
50.0
100
AcDbLine
 10
10783.79637700764
 20
7938.980935009571
 30
0.0
 11
10783.79637700764
 21
7938.980935009571
 31
0.0
  0
LINE
  5
1ECF7
330
747D
100
AcDbEntity
  8
部品1
 62
     7
 48
50.0
100
AcDbLine
 10
10962.39012700764
 20
7962.793435009574
 30
0.0
 11
10962.39012700764
 21
7962.793435009574
 31
0.0
  0
LINE
  5
1ECF8
330
747D
100
AcDbEntity
  8
部品1
 62
     7
 48
50.0
100
AcDbLine
 10
10938.57762700764
 20
7962.793435009574
 30
0.0
 11
10938.57762700764
 21
7962.793435009574
 31
0.0
  0
LINE
  5
1ECF9
330
747D
100
AcDbEntity
  8
部品1
 62
     7
 48
50.0
100
AcDbLine
 10
10914.76512700764
 20
7962.793435009574
 30
0.0
 11
10914.76512700764
 21
7962.793435009574
 31
0.0
  0
LINE
  5
1ECFA
330
747D
100
AcDbEntity
  8
部品1
 62
     7
 48
50.0
100
AcDbLine
 10
10890.95262700764
 20
7962.793435009574
 30
0.0
 11
10890.95262700764
 21
7962.793435009574
 31
0.0
  0
LINE
  5
1ECFB
330
747D
100
AcDbEntity
  8
部品1
 62
     7
 48
50.0
100
AcDbLine
 10
10867.14012700764
 20
7962.793435009574
 30
0.0
 11
10867.14012700764
 21
7962.793435009574
 31
0.0
  0
LINE
  5
1ECFC
330
747D
100
AcDbEntity
  8
部品1
 62
     7
 48
50.0
100
AcDbLine
 10
10843.32762700764
 20
7962.793435009574
 30
0.0
 11
10843.32762700764
 21
7962.793435009574
 31
0.0
  0
LINE
  5
1ECFD
330
747D
100
AcDbEntity
  8
部品1
 62
     7
 48
50.0
100
AcDbLine
 10
10819.51512700764
 20
7962.793435009574
 30
0.0
 11
10819.51512700764
 21
7962.793435009574
 31
0.0
  0
LINE
  5
1ECFE
330
747D
100
AcDbEntity
  8
部品1
 62
     7
 48
50.0
100
AcDbLine
 10
10795.70262700764
 20
7962.793435009574
 30
0.0
 11
10795.70262700764
 21
7962.793435009574
 31
0.0
  0
LINE
  5
1ECFF
330
747D
100
AcDbEntity
  8
部品1
 62
     7
 48
50.0
100
AcDbLine
 10
11110.49999999999
 20
8081.955177899422
 30
0.0
 11
11110.49999999999
 21
8281.955177899423
 31
0.0
  0
DIMENSION
  5
1ED00
330
747D
100
AcDbEntity
  8
寸法
 62
     7
 48
50.0
100
AcDbDimension
  2
*D22
 10
12365.49999999999
 20
7340.955177899424
 30
0.0
 11
12265.49999999998
 21
7811.455177899425
 31
0.0
 70
    32
 71
     5
 42
940.9999999999982
  3
INABA_S50G
100
AcDbAlignedDimension
 13
11655.49999999999
 23
8281.955177899423
 33
0.0
 14
11510.49999999999
 24
7340.955177899424
 34
0.0
 50
90.0
100
AcDbRotatedDimension
  0
LINE
  5
1ED01
330
747D
100
AcDbEntity
  8
部品1
 62
     7
 48
50.0
100
AcDbLine
 10
11510.49999999999
 20
7240.955177899422
 30
0.0
 11
11510.49999999999
 21
7440.955177899422
 31
0.0
  0
DIMENSION
  5
1ED02
330
747D
100
AcDbEntity
  8
寸法
 62
     7
 48
50.0
100
AcDbDimension
  2
*D23
 10
12715.50000000001
 20
8376.955177899422
 30
0.0
 11
12715.50000000001
 21
8669.658197568384
 31
0.0
 70
   160
  1
(<>)
 71
     5
 42
94.99999999999818
  3
INABA_S50G
100
AcDbAlignedDimension
 13
11655.49999999999
 23
8281.955177899423
 33
0.0
 14
11565.5
 24
8376.955177899423
 34
0.0
 50
90.0
100
AcDbRotatedDimension
  0
LINE
  5
1ED03
330
747D
100
AcDbEntity
  8
センター
 62
     7
 48
5.0
100
AcDbLine
 10
11510.49999999999
 20
8426.955177899424
 30
0.0
 11
11510.49999999999
 21
8136.955177899423
 31
0.0
  0
LINE
  5
1ED04
330
747D
100
AcDbEntity
  8
部品1
 62
     7
 48
50.0
100
AcDbLine
 10
11510.49999999999
 20
8081.955177899422
 30
0.0
 11
11510.49999999999
 21
8281.955177899423
 31
0.0
  0
LINE
  5
1ED05
330
747D
100
AcDbEntity
  8
点線
 62
     7
 48
10.0
100
AcDbLine
 10
11410.49999999999
 20
8381.955177899421
 30
0.0
 11
11610.49999999999
 21
8381.955177899421
 31
0.0
  0
LINE
  5
1ED06
330
747D
100
AcDbEntity
  8
点線
 62
     7
 48
10.0
100
AcDbLine
 10
11410.49999999999
 20
8181.955177899423
 30
0.0
 11
11610.49999999999
 21
8181.955177899423
 31
0.0
  0
LINE
  5
1ED07
330
747D
100
AcDbEntity
  8
点線
 62
     7
 48
10.0
100
AcDbLine
 10
11410.49999999999
 20
8381.955177899421
 30
0.0
 11
11410.49999999999
 21
8181.955177899423
 31
0.0
  0
LINE
  5
1ED08
330
747D
100
AcDbEntity
  8
点線
 62
     7
 48
10.0
100
AcDbLine
 10
11610.49999999999
 20
8381.955177899421
 30
0.0
 11
11610.49999999999
 21
8181.955177899423
 31
0.0
  0
LINE
  5
1F18B
330
747D
100
AcDbEntity
  8
Ｇ．Ｌ
 62
     7
100
AcDbLine
 10
9249.236229035593
 20
1749.373661269833
 30
0.0
 11
10617.77461316698
 21
1749.373661269833
 31
0.0
  0
TEXT
  5
1F18C
330
747D
100
AcDbEntity
  8
部品1
 62
     7
100
AcDbText
 10
10293.5807622491
 20
1772.170171482105
 30
0.0
 40
150.0
  1
G.L
  7
STYLE1
100
AcDbText
  0
LINE
  5
1F18D
330
747D
100
AcDbEntity
  8
部品1
 62
     7
100
AcDbLine
 10
8792.418427824532
 20
3299.999999999999
 30
0.0
 11
12792.41842782453
 21
3299.999999999999
 31
0.0
  0
LINE
  5
1F18E
330
747D
100
AcDbEntity
  8
部品1
 62
     7
100
AcDbLine
 10
12792.41842782453
 20
3000.0
 30
0.0
 11
8792.418427824532
 21
2999.999999999999
 31
0.0
  0
LINE
  5
1F18F
330
747D
100
AcDbEntity
  8
部品1
 62
     7
100
AcDbLine
 10
8792.418427824532
 20
600.0
 30
0.0
 11
12792.41842782453
 21
600.0
 31
0.0
  0
LINE
  5
1F190
330
747D
100
AcDbEntity
  8
部品1
 62
     7
100
AcDbLine
 10
8792.418427824532
 20
3299.999999999999
 30
0.0
 11
8792.418427824532
 21
600.0
 31
0.0
  0
TEXT
  5
1F191
330
747D
100
AcDbEntity
  8
文字
 62
     7
 48
50.0
100
AcDbText
 10
4920.38977576022
 20
864.5205740729707
 30
0.0
 40
150.0
  1
重量物を入れる場合（根太部ブロック追加）
  7
STYLE1
100
AcDbText
  0
LINE
  5
1F192
330
747D
100
AcDbEntity
  8
寸法
 62
     7
 48
50.0
100
AcDbLine
 10
8498.975097264189
 20
800.0000129302206
 30
0.0
 11
4394.414120747471
 21
800.0000129302206
 31
0.0
  0
TEXT
  5
1F193
330
747D
100
AcDbEntity
  8
文字
 62
     7
 48
50.0
100
AcDbText
 10
4413.656703010583
 20
1344.146100785952
 30
0.0
 40
150.0
  1
（　）内寸法は屋根の出幅です。
  7
STYLE1
100
AcDbText
  0
LINE
  5
1F194
330
747D
100
AcDbEntity
  8
寸法
 62
     7
 48
50.0
100
AcDbLine
 10
7132.076727602889
 20
1279.625539643202
 30
0.0
 11
4394.414120747471
 21
1279.625539643202
 31
0.0
  0
LINE
  5
1F195
330
747D
100
AcDbEntity
  8
細線
 62
     7
 48
10.0
100
AcDbLine
 10
4454.094974518101
 20
884.0351489051936
 30
0.0
 11
4854.094974518101
 21
884.0351489051936
 31
0.0
  0
LINE
  5
1F196
330
747D
100
AcDbEntity
  8
細線
 62
     7
 48
10.0
100
AcDbLine
 10
4454.094974518101
 20
1084.035148905193
 30
0.0
 11
4854.094974518101
 21
1084.035148905193
 31
0.0
  0
LINE
  5
1F197
330
747D
100
AcDbEntity
  8
細線
 62
     7
 48
10.0
100
AcDbLine
 10
4454.094974518101
 20
884.0351489051936
 30
0.0
 11
4454.094974518101
 21
1084.035148905193
 31
0.0
  0
LINE
  5
1F198
330
747D
100
AcDbEntity
  8
部品1
 62
     7
 48
50.0
100
AcDbLine
 10
4475.132865439054
 20
1023.9375
 30
0.0
 11
4475.132865439054
 21
1023.9375
 31
0.0
  0
LINE
  5
1F199
330
747D
100
AcDbEntity
  8
部品1
 62
     7
 48
50.0
100
AcDbLine
 10
4498.945365439054
 20
1023.9375
 30
0.0
 11
4498.945365439054
 21
1023.9375
 31
0.0
  0
LINE
  5
1F19A
330
747D
100
AcDbEntity
  8
部品1
 62
     7
 48
50.0
100
AcDbLine
 10
4522.757865439055
 20
1023.9375
 30
0.0
 11
4522.757865439055
 21
1023.9375
 31
0.0
  0
LINE
  5
1F19B
330
747D
100
AcDbEntity
  8
部品1
 62
     7
 48
50.0
100
AcDbLine
 10
4546.570365439055
 20
1023.9375
 30
0.0
 11
4546.570365439055
 21
1023.9375
 31
0.0
  0
LINE
  5
1F19C
330
747D
100
AcDbEntity
  8
部品1
 62
     7
 48
50.0
100
AcDbLine
 10
4463.226615439054
 20
1000.125
 30
0.0
 11
4463.226615439054
 21
1000.125
 31
0.0
  0
LINE
  5
1F19D
330
747D
100
AcDbEntity
  8
部品1
 62
     7
 48
50.0
100
AcDbLine
 10
4487.039115439054
 20
1000.125
 30
0.0
 11
4487.039115439054
 21
1000.125
 31
0.0
  0
LINE
  5
1F19E
330
747D
100
AcDbEntity
  8
部品1
 62
     7
 48
50.0
100
AcDbLine
 10
4510.851615439054
 20
1000.125
 30
0.0
 11
4510.851615439054
 21
1000.125
 31
0.0
  0
LINE
  5
1F19F
330
747D
100
AcDbEntity
  8
部品1
 62
     7
 48
50.0
100
AcDbLine
 10
4534.664115439055
 20
1000.125
 30
0.0
 11
4534.664115439055
 21
1000.125
 31
0.0
  0
LINE
  5
1F1A0
330
747D
100
AcDbEntity
  8
部品1
 62
     7
 48
50.0
100
AcDbLine
 10
4475.132865439054
 20
976.3125
 30
0.0
 11
4475.132865439054
 21
976.3125
 31
0.0
  0
LINE
  5
1F1A1
330
747D
100
AcDbEntity
  8
部品1
 62
     7
 48
50.0
100
AcDbLine
 10
4498.945365439054
 20
976.3125
 30
0.0
 11
4498.945365439054
 21
976.3125
 31
0.0
  0
LINE
  5
1F1A2
330
747D
100
AcDbEntity
  8
部品1
 62
     7
 48
50.0
100
AcDbLine
 10
4522.757865439055
 20
976.3125
 30
0.0
 11
4522.757865439055
 21
976.3125
 31
0.0
  0
LINE
  5
1F1A3
330
747D
100
AcDbEntity
  8
部品1
 62
     7
 48
50.0
100
AcDbLine
 10
4546.570365439055
 20
976.3125
 30
0.0
 11
4546.570365439055
 21
976.3125
 31
0.0
  0
LINE
  5
1F1A4
330
747D
100
AcDbEntity
  8
部品1
 62
     7
 48
50.0
100
AcDbLine
 10
4463.226615439054
 20
952.5
 30
0.0
 11
4463.226615439054
 21
952.5
 31
0.0
  0
LINE
  5
1F1A5
330
747D
100
AcDbEntity
  8
部品1
 62
     7
 48
50.0
100
AcDbLine
 10
4487.039115439054
 20
952.5
 30
0.0
 11
4487.039115439054
 21
952.5
 31
0.0
  0
LINE
  5
1F1A6
330
747D
100
AcDbEntity
  8
部品1
 62
     7
 48
50.0
100
AcDbLine
 10
4510.851615439054
 20
952.5
 30
0.0
 11
4510.851615439054
 21
952.5
 31
0.0
  0
LINE
  5
1F1A7
330
747D
100
AcDbEntity
  8
部品1
 62
     7
 48
50.0
100
AcDbLine
 10
4534.664115439055
 20
952.5
 30
0.0
 11
4534.664115439055
 21
952.5
 31
0.0
  0
LINE
  5
1F1A8
330
747D
100
AcDbEntity
  8
部品1
 62
     7
 48
50.0
100
AcDbLine
 10
4475.132865439054
 20
928.6875
 30
0.0
 11
4475.132865439054
 21
928.6875
 31
0.0
  0
LINE
  5
1F1A9
330
747D
100
AcDbEntity
  8
部品1
 62
     7
 48
50.0
100
AcDbLine
 10
4498.945365439054
 20
928.6875
 30
0.0
 11
4498.945365439054
 21
928.6875
 31
0.0
  0
LINE
  5
1F1AA
330
747D
100
AcDbEntity
  8
部品1
 62
     7
 48
50.0
100
AcDbLine
 10
4522.757865439055
 20
928.6875
 30
0.0
 11
4522.757865439055
 21
928.6875
 31
0.0
  0
LINE
  5
1F1AB
330
747D
100
AcDbEntity
  8
部品1
 62
     7
 48
50.0
100
AcDbLine
 10
4546.570365439055
 20
928.6875
 30
0.0
 11
4546.570365439055
 21
928.6875
 31
0.0
  0
LINE
  5
1F1AC
330
747D
100
AcDbEntity
  8
部品1
 62
     7
 48
50.0
100
AcDbLine
 10
4463.226615439054
 20
904.875
 30
0.0
 11
4463.226615439054
 21
904.875
 31
0.0
  0
LINE
  5
1F1AD
330
747D
100
AcDbEntity
  8
部品1
 62
     7
 48
50.0
100
AcDbLine
 10
4487.039115439054
 20
904.875
 30
0.0
 11
4487.039115439054
 21
904.875
 31
0.0
  0
LINE
  5
1F1AE
330
747D
100
AcDbEntity
  8
部品1
 62
     7
 48
50.0
100
AcDbLine
 10
4510.851615439054
 20
904.875
 30
0.0
 11
4510.851615439054
 21
904.875
 31
0.0
  0
LINE
  5
1F1AF
330
747D
100
AcDbEntity
  8
部品1
 62
     7
 48
50.0
100
AcDbLine
 10
4534.664115439055
 20
904.875
 30
0.0
 11
4534.664115439055
 21
904.875
 31
0.0
  0
LINE
  5
1F1B0
330
747D
100
AcDbEntity
  8
部品1
 62
     7
 48
50.0
100
AcDbLine
 10
4641.820365439055
 20
1023.9375
 30
0.0
 11
4641.820365439055
 21
1023.9375
 31
0.0
  0
LINE
  5
1F1B1
330
747D
100
AcDbEntity
  8
部品1
 62
     7
 48
50.0
100
AcDbLine
 10
4665.632865439055
 20
1023.9375
 30
0.0
 11
4665.632865439055
 21
1023.9375
 31
0.0
  0
LINE
  5
1F1B2
330
747D
100
AcDbEntity
  8
部品1
 62
     7
 48
50.0
100
AcDbLine
 10
4689.445365439055
 20
1023.9375
 30
0.0
 11
4689.445365439055
 21
1023.9375
 31
0.0
  0
LINE
  5
1F1B3
330
747D
100
AcDbEntity
  8
部品1
 62
     7
 48
50.0
100
AcDbLine
 10
4713.257865439055
 20
1023.9375
 30
0.0
 11
4713.257865439055
 21
1023.9375
 31
0.0
  0
LINE
  5
1F1B4
330
747D
100
AcDbEntity
  8
部品1
 62
     7
 48
50.0
100
AcDbLine
 10
4737.070365439055
 20
1023.9375
 30
0.0
 11
4737.070365439055
 21
1023.9375
 31
0.0
  0
LINE
  5
1F1B5
330
747D
100
AcDbEntity
  8
部品1
 62
     7
 48
50.0
100
AcDbLine
 10
4653.726615439054
 20
1000.125
 30
0.0
 11
4653.726615439054
 21
1000.125
 31
0.0
  0
LINE
  5
1F1B6
330
747D
100
AcDbEntity
  8
部品1
 62
     7
 48
50.0
100
AcDbLine
 10
4677.539115439055
 20
1000.125
 30
0.0
 11
4677.539115439055
 21
1000.125
 31
0.0
  0
LINE
  5
1F1B7
330
747D
100
AcDbEntity
  8
部品1
 62
     7
 48
50.0
100
AcDbLine
 10
4701.351615439054
 20
1000.125
 30
0.0
 11
4701.351615439054
 21
1000.125
 31
0.0
  0
LINE
  5
1F1B8
330
747D
100
AcDbEntity
  8
部品1
 62
     7
 48
50.0
100
AcDbLine
 10
4725.164115439055
 20
1000.125
 30
0.0
 11
4725.164115439055
 21
1000.125
 31
0.0
  0
LINE
  5
1F1B9
330
747D
100
AcDbEntity
  8
部品1
 62
     7
 48
50.0
100
AcDbLine
 10
4748.976615439054
 20
1000.125
 30
0.0
 11
4748.976615439054
 21
1000.125
 31
0.0
  0
LINE
  5
1F1BA
330
747D
100
AcDbEntity
  8
部品1
 62
     7
 48
50.0
100
AcDbLine
 10
4641.820365439055
 20
976.3125
 30
0.0
 11
4641.820365439055
 21
976.3125
 31
0.0
  0
LINE
  5
1F1BB
330
747D
100
AcDbEntity
  8
部品1
 62
     7
 48
50.0
100
AcDbLine
 10
4665.632865439055
 20
976.3125
 30
0.0
 11
4665.632865439055
 21
976.3125
 31
0.0
  0
LINE
  5
1F1BC
330
747D
100
AcDbEntity
  8
部品1
 62
     7
 48
50.0
100
AcDbLine
 10
4689.445365439055
 20
976.3125
 30
0.0
 11
4689.445365439055
 21
976.3125
 31
0.0
  0
LINE
  5
1F1BD
330
747D
100
AcDbEntity
  8
部品1
 62
     7
 48
50.0
100
AcDbLine
 10
4713.257865439055
 20
976.3125
 30
0.0
 11
4713.257865439055
 21
976.3125
 31
0.0
  0
LINE
  5
1F1BE
330
747D
100
AcDbEntity
  8
部品1
 62
     7
 48
50.0
100
AcDbLine
 10
4737.070365439055
 20
976.3125
 30
0.0
 11
4737.070365439055
 21
976.3125
 31
0.0
  0
LINE
  5
1F1BF
330
747D
100
AcDbEntity
  8
部品1
 62
     7
 48
50.0
100
AcDbLine
 10
4653.726615439054
 20
952.5
 30
0.0
 11
4653.726615439054
 21
952.5
 31
0.0
  0
LINE
  5
1F1C0
330
747D
100
AcDbEntity
  8
部品1
 62
     7
 48
50.0
100
AcDbLine
 10
4677.539115439055
 20
952.5
 30
0.0
 11
4677.539115439055
 21
952.5
 31
0.0
  0
LINE
  5
1F1C1
330
747D
100
AcDbEntity
  8
部品1
 62
     7
 48
50.0
100
AcDbLine
 10
4701.351615439054
 20
952.5
 30
0.0
 11
4701.351615439054
 21
952.5
 31
0.0
  0
LINE
  5
1F1C2
330
747D
100
AcDbEntity
  8
部品1
 62
     7
 48
50.0
100
AcDbLine
 10
4725.164115439055
 20
952.5
 30
0.0
 11
4725.164115439055
 21
952.5
 31
0.0
  0
LINE
  5
1F1C3
330
747D
100
AcDbEntity
  8
部品1
 62
     7
 48
50.0
100
AcDbLine
 10
4748.976615439054
 20
952.5
 30
0.0
 11
4748.976615439054
 21
952.5
 31
0.0
  0
LINE
  5
1F1C4
330
747D
100
AcDbEntity
  8
部品1
 62
     7
 48
50.0
100
AcDbLine
 10
4641.820365439055
 20
928.6875
 30
0.0
 11
4641.820365439055
 21
928.6875
 31
0.0
  0
LINE
  5
1F1C5
330
747D
100
AcDbEntity
  8
部品1
 62
     7
 48
50.0
100
AcDbLine
 10
4665.632865439055
 20
928.6875
 30
0.0
 11
4665.632865439055
 21
928.6875
 31
0.0
  0
LINE
  5
1F1C6
330
747D
100
AcDbEntity
  8
部品1
 62
     7
 48
50.0
100
AcDbLine
 10
4689.445365439055
 20
928.6875
 30
0.0
 11
4689.445365439055
 21
928.6875
 31
0.0
  0
LINE
  5
1F1C7
330
747D
100
AcDbEntity
  8
部品1
 62
     7
 48
50.0
100
AcDbLine
 10
4713.257865439055
 20
928.6875
 30
0.0
 11
4713.257865439055
 21
928.6875
 31
0.0
  0
LINE
  5
1F1C8
330
747D
100
AcDbEntity
  8
部品1
 62
     7
 48
50.0
100
AcDbLine
 10
4737.070365439055
 20
928.6875
 30
0.0
 11
4737.070365439055
 21
928.6875
 31
0.0
  0
LINE
  5
1F1C9
330
747D
100
AcDbEntity
  8
部品1
 62
     7
 48
50.0
100
AcDbLine
 10
4653.726615439054
 20
904.875
 30
0.0
 11
4653.726615439054
 21
904.875
 31
0.0
  0
LINE
  5
1F1CA
330
747D
100
AcDbEntity
  8
部品1
 62
     7
 48
50.0
100
AcDbLine
 10
4677.539115439055
 20
904.875
 30
0.0
 11
4677.539115439055
 21
904.875
 31
0.0
  0
LINE
  5
1F1CB
330
747D
100
AcDbEntity
  8
部品1
 62
     7
 48
50.0
100
AcDbLine
 10
4701.351615439054
 20
904.875
 30
0.0
 11
4701.351615439054
 21
904.875
 31
0.0
  0
LINE
  5
1F1CC
330
747D
100
AcDbEntity
  8
部品1
 62
     7
 48
50.0
100
AcDbLine
 10
4725.164115439055
 20
904.875
 30
0.0
 11
4725.164115439055
 21
904.875
 31
0.0
  0
LINE
  5
1F1CD
330
747D
100
AcDbEntity
  8
部品1
 62
     7
 48
50.0
100
AcDbLine
 10
4748.976615439054
 20
904.875
 30
0.0
 11
4748.976615439054
 21
904.875
 31
0.0
  0
LINE
  5
1F1CE
330
747D
100
AcDbEntity
  8
部品1
 62
     7
 48
50.0
100
AcDbLine
 10
4570.382865439055
 20
1023.9375
 30
0.0
 11
4570.382865439055
 21
1023.9375
 31
0.0
  0
LINE
  5
1F1CF
330
747D
100
AcDbEntity
  8
部品1
 62
     7
 48
50.0
100
AcDbLine
 10
4594.195365439055
 20
1023.9375
 30
0.0
 11
4594.195365439055
 21
1023.9375
 31
0.0
  0
LINE
  5
1F1D0
330
747D
100
AcDbEntity
  8
部品1
 62
     7
 48
50.0
100
AcDbLine
 10
4618.007865439055
 20
1023.9375
 30
0.0
 11
4618.007865439055
 21
1023.9375
 31
0.0
  0
LINE
  5
1F1D1
330
747D
100
AcDbEntity
  8
部品1
 62
     7
 48
50.0
100
AcDbLine
 10
4558.476615439054
 20
1000.125
 30
0.0
 11
4558.476615439054
 21
1000.125
 31
0.0
  0
LINE
  5
1F1D2
330
747D
100
AcDbEntity
  8
部品1
 62
     7
 48
50.0
100
AcDbLine
 10
4582.289115439055
 20
1000.125
 30
0.0
 11
4582.289115439055
 21
1000.125
 31
0.0
  0
LINE
  5
1F1D3
330
747D
100
AcDbEntity
  8
部品1
 62
     7
 48
50.0
100
AcDbLine
 10
4606.101615439054
 20
1000.125
 30
0.0
 11
4606.101615439054
 21
1000.125
 31
0.0
  0
LINE
  5
1F1D4
330
747D
100
AcDbEntity
  8
部品1
 62
     7
 48
50.0
100
AcDbLine
 10
4629.914115439055
 20
1000.125
 30
0.0
 11
4629.914115439055
 21
1000.125
 31
0.0
  0
LINE
  5
1F1D5
330
747D
100
AcDbEntity
  8
部品1
 62
     7
 48
50.0
100
AcDbLine
 10
4570.382865439055
 20
976.3125
 30
0.0
 11
4570.382865439055
 21
976.3125
 31
0.0
  0
LINE
  5
1F1D6
330
747D
100
AcDbEntity
  8
部品1
 62
     7
 48
50.0
100
AcDbLine
 10
4594.195365439055
 20
976.3125
 30
0.0
 11
4594.195365439055
 21
976.3125
 31
0.0
  0
LINE
  5
1F1D7
330
747D
100
AcDbEntity
  8
部品1
 62
     7
 48
50.0
100
AcDbLine
 10
4618.007865439055
 20
976.3125
 30
0.0
 11
4618.007865439055
 21
976.3125
 31
0.0
  0
LINE
  5
1F1D8
330
747D
100
AcDbEntity
  8
部品1
 62
     7
 48
50.0
100
AcDbLine
 10
4558.476615439054
 20
952.5
 30
0.0
 11
4558.476615439054
 21
952.5
 31
0.0
  0
LINE
  5
1F1D9
330
747D
100
AcDbEntity
  8
部品1
 62
     7
 48
50.0
100
AcDbLine
 10
4582.289115439055
 20
952.5
 30
0.0
 11
4582.289115439055
 21
952.5
 31
0.0
  0
LINE
  5
1F1DA
330
747D
100
AcDbEntity
  8
部品1
 62
     7
 48
50.0
100
AcDbLine
 10
4606.101615439054
 20
952.5
 30
0.0
 11
4606.101615439054
 21
952.5
 31
0.0
  0
LINE
  5
1F1DB
330
747D
100
AcDbEntity
  8
部品1
 62
     7
 48
50.0
100
AcDbLine
 10
4629.914115439055
 20
952.5
 30
0.0
 11
4629.914115439055
 21
952.5
 31
0.0
  0
LINE
  5
1F1DC
330
747D
100
AcDbEntity
  8
部品1
 62
     7
 48
50.0
100
AcDbLine
 10
4570.382865439055
 20
928.6875
 30
0.0
 11
4570.382865439055
 21
928.6875
 31
0.0
  0
LINE
  5
1F1DD
330
747D
100
AcDbEntity
  8
部品1
 62
     7
 48
50.0
100
AcDbLine
 10
4594.195365439055
 20
928.6875
 30
0.0
 11
4594.195365439055
 21
928.6875
 31
0.0
  0
LINE
  5
1F1DE
330
747D
100
AcDbEntity
  8
部品1
 62
     7
 48
50.0
100
AcDbLine
 10
4618.007865439055
 20
928.6875
 30
0.0
 11
4618.007865439055
 21
928.6875
 31
0.0
  0
LINE
  5
1F1DF
330
747D
100
AcDbEntity
  8
部品1
 62
     7
 48
50.0
100
AcDbLine
 10
4558.476615439054
 20
904.875
 30
0.0
 11
4558.476615439054
 21
904.875
 31
0.0
  0
LINE
  5
1F1E0
330
747D
100
AcDbEntity
  8
部品1
 62
     7
 48
50.0
100
AcDbLine
 10
4582.289115439055
 20
904.875
 30
0.0
 11
4582.289115439055
 21
904.875
 31
0.0
  0
LINE
  5
1F1E1
330
747D
100
AcDbEntity
  8
部品1
 62
     7
 48
50.0
100
AcDbLine
 10
4606.101615439054
 20
904.875
 30
0.0
 11
4606.101615439054
 21
904.875
 31
0.0
  0
LINE
  5
1F1E2
330
747D
100
AcDbEntity
  8
部品1
 62
     7
 48
50.0
100
AcDbLine
 10
4629.914115439055
 20
904.875
 30
0.0
 11
4629.914115439055
 21
904.875
 31
0.0
  0
LINE
  5
1F1E3
330
747D
100
AcDbEntity
  8
部品1
 62
     7
 48
50.0
100
AcDbLine
 10
4475.132865439054
 20
1071.5625
 30
0.0
 11
4475.132865439054
 21
1071.5625
 31
0.0
  0
LINE
  5
1F1E4
330
747D
100
AcDbEntity
  8
部品1
 62
     7
 48
50.0
100
AcDbLine
 10
4498.945365439054
 20
1071.5625
 30
0.0
 11
4498.945365439054
 21
1071.5625
 31
0.0
  0
LINE
  5
1F1E5
330
747D
100
AcDbEntity
  8
部品1
 62
     7
 48
50.0
100
AcDbLine
 10
4522.757865439055
 20
1071.5625
 30
0.0
 11
4522.757865439055
 21
1071.5625
 31
0.0
  0
LINE
  5
1F1E6
330
747D
100
AcDbEntity
  8
部品1
 62
     7
 48
50.0
100
AcDbLine
 10
4546.570365439055
 20
1071.5625
 30
0.0
 11
4546.570365439055
 21
1071.5625
 31
0.0
  0
LINE
  5
1F1E7
330
747D
100
AcDbEntity
  8
部品1
 62
     7
 48
50.0
100
AcDbLine
 10
4463.226615439054
 20
1047.75
 30
0.0
 11
4463.226615439054
 21
1047.75
 31
0.0
  0
LINE
  5
1F1E8
330
747D
100
AcDbEntity
  8
部品1
 62
     7
 48
50.0
100
AcDbLine
 10
4487.039115439054
 20
1047.75
 30
0.0
 11
4487.039115439054
 21
1047.75
 31
0.0
  0
LINE
  5
1F1E9
330
747D
100
AcDbEntity
  8
部品1
 62
     7
 48
50.0
100
AcDbLine
 10
4510.851615439054
 20
1047.75
 30
0.0
 11
4510.851615439054
 21
1047.75
 31
0.0
  0
LINE
  5
1F1EA
330
747D
100
AcDbEntity
  8
部品1
 62
     7
 48
50.0
100
AcDbLine
 10
4534.664115439055
 20
1047.75
 30
0.0
 11
4534.664115439055
 21
1047.75
 31
0.0
  0
LINE
  5
1F1EB
330
747D
100
AcDbEntity
  8
部品1
 62
     7
 48
50.0
100
AcDbLine
 10
4641.820365439055
 20
1071.5625
 30
0.0
 11
4641.820365439055
 21
1071.5625
 31
0.0
  0
LINE
  5
1F1EC
330
747D
100
AcDbEntity
  8
部品1
 62
     7
 48
50.0
100
AcDbLine
 10
4665.632865439055
 20
1071.5625
 30
0.0
 11
4665.632865439055
 21
1071.5625
 31
0.0
  0
LINE
  5
1F1ED
330
747D
100
AcDbEntity
  8
部品1
 62
     7
 48
50.0
100
AcDbLine
 10
4689.445365439055
 20
1071.5625
 30
0.0
 11
4689.445365439055
 21
1071.5625
 31
0.0
  0
LINE
  5
1F1EE
330
747D
100
AcDbEntity
  8
部品1
 62
     7
 48
50.0
100
AcDbLine
 10
4713.257865439055
 20
1071.5625
 30
0.0
 11
4713.257865439055
 21
1071.5625
 31
0.0
  0
LINE
  5
1F1EF
330
747D
100
AcDbEntity
  8
部品1
 62
     7
 48
50.0
100
AcDbLine
 10
4737.070365439055
 20
1071.5625
 30
0.0
 11
4737.070365439055
 21
1071.5625
 31
0.0
  0
LINE
  5
1F1F0
330
747D
100
AcDbEntity
  8
部品1
 62
     7
 48
50.0
100
AcDbLine
 10
4653.726615439054
 20
1047.75
 30
0.0
 11
4653.726615439054
 21
1047.75
 31
0.0
  0
LINE
  5
1F1F1
330
747D
100
AcDbEntity
  8
部品1
 62
     7
 48
50.0
100
AcDbLine
 10
4677.539115439055
 20
1047.75
 30
0.0
 11
4677.539115439055
 21
1047.75
 31
0.0
  0
LINE
  5
1F1F2
330
747D
100
AcDbEntity
  8
部品1
 62
     7
 48
50.0
100
AcDbLine
 10
4701.351615439054
 20
1047.75
 30
0.0
 11
4701.351615439054
 21
1047.75
 31
0.0
  0
LINE
  5
1F1F3
330
747D
100
AcDbEntity
  8
部品1
 62
     7
 48
50.0
100
AcDbLine
 10
4725.164115439055
 20
1047.75
 30
0.0
 11
4725.164115439055
 21
1047.75
 31
0.0
  0
LINE
  5
1F1F4
330
747D
100
AcDbEntity
  8
部品1
 62
     7
 48
50.0
100
AcDbLine
 10
4748.976615439054
 20
1047.75
 30
0.0
 11
4748.976615439054
 21
1047.75
 31
0.0
  0
LINE
  5
1F1F5
330
747D
100
AcDbEntity
  8
部品1
 62
     7
 48
50.0
100
AcDbLine
 10
4570.382865439055
 20
1071.5625
 30
0.0
 11
4570.382865439055
 21
1071.5625
 31
0.0
  0
LINE
  5
1F1F6
330
747D
100
AcDbEntity
  8
部品1
 62
     7
 48
50.0
100
AcDbLine
 10
4594.195365439055
 20
1071.5625
 30
0.0
 11
4594.195365439055
 21
1071.5625
 31
0.0
  0
LINE
  5
1F1F7
330
747D
100
AcDbEntity
  8
部品1
 62
     7
 48
50.0
100
AcDbLine
 10
4618.007865439055
 20
1071.5625
 30
0.0
 11
4618.007865439055
 21
1071.5625
 31
0.0
  0
LINE
  5
1F1F8
330
747D
100
AcDbEntity
  8
部品1
 62
     7
 48
50.0
100
AcDbLine
 10
4558.476615439054
 20
1047.75
 30
0.0
 11
4558.476615439054
 21
1047.75
 31
0.0
  0
LINE
  5
1F1F9
330
747D
100
AcDbEntity
  8
部品1
 62
     7
 48
50.0
100
AcDbLine
 10
4582.289115439055
 20
1047.75
 30
0.0
 11
4582.289115439055
 21
1047.75
 31
0.0
  0
LINE
  5
1F1FA
330
747D
100
AcDbEntity
  8
部品1
 62
     7
 48
50.0
100
AcDbLine
 10
4606.101615439054
 20
1047.75
 30
0.0
 11
4606.101615439054
 21
1047.75
 31
0.0
  0
LINE
  5
1F1FB
330
747D
100
AcDbEntity
  8
部品1
 62
     7
 48
50.0
100
AcDbLine
 10
4629.914115439055
 20
1047.75
 30
0.0
 11
4629.914115439055
 21
1047.75
 31
0.0
  0
LINE
  5
1F1FC
330
747D
100
AcDbEntity
  8
細線
 62
     7
 48
10.0
100
AcDbLine
 10
4854.094974518101
 20
1084.035148905193
 30
0.0
 11
4854.094974518101
 21
884.0351489051936
 31
0.0
  0
LINE
  5
1F1FD
330
747D
100
AcDbEntity
  8
部品1
 62
     7
 48
50.0
100
AcDbLine
 10
4844.226615439055
 20
1000.125
 30
0.0
 11
4844.226615439055
 21
1000.125
 31
0.0
  0
LINE
  5
1F1FE
330
747D
100
AcDbEntity
  8
部品1
 62
     7
 48
50.0
100
AcDbLine
 10
4844.226615439055
 20
952.5
 30
0.0
 11
4844.226615439055
 21
952.5
 31
0.0
  0
LINE
  5
1F1FF
330
747D
100
AcDbEntity
  8
部品1
 62
     7
 48
50.0
100
AcDbLine
 10
4844.226615439055
 20
904.875
 30
0.0
 11
4844.226615439055
 21
904.875
 31
0.0
  0
LINE
  5
1F200
330
747D
100
AcDbEntity
  8
部品1
 62
     7
 48
50.0
100
AcDbLine
 10
4760.882865439054
 20
1023.9375
 30
0.0
 11
4760.882865439054
 21
1023.9375
 31
0.0
  0
LINE
  5
1F201
330
747D
100
AcDbEntity
  8
部品1
 62
     7
 48
50.0
100
AcDbLine
 10
4784.695365439055
 20
1023.9375
 30
0.0
 11
4784.695365439055
 21
1023.9375
 31
0.0
  0
LINE
  5
1F202
330
747D
100
AcDbEntity
  8
部品1
 62
     7
 48
50.0
100
AcDbLine
 10
4808.507865439054
 20
1023.9375
 30
0.0
 11
4808.507865439054
 21
1023.9375
 31
0.0
  0
LINE
  5
1F203
330
747D
100
AcDbEntity
  8
部品1
 62
     7
 48
50.0
100
AcDbLine
 10
4832.320365439055
 20
1023.9375
 30
0.0
 11
4832.320365439055
 21
1023.9375
 31
0.0
  0
LINE
  5
1F204
330
747D
100
AcDbEntity
  8
部品1
 62
     7
 48
50.0
100
AcDbLine
 10
4772.789115439055
 20
1000.125
 30
0.0
 11
4772.789115439055
 21
1000.125
 31
0.0
  0
LINE
  5
1F205
330
747D
100
AcDbEntity
  8
部品1
 62
     7
 48
50.0
100
AcDbLine
 10
4796.601615439054
 20
1000.125
 30
0.0
 11
4796.601615439054
 21
1000.125
 31
0.0
  0
LINE
  5
1F206
330
747D
100
AcDbEntity
  8
部品1
 62
     7
 48
50.0
100
AcDbLine
 10
4820.414115439055
 20
1000.125
 30
0.0
 11
4820.414115439055
 21
1000.125
 31
0.0
  0
LINE
  5
1F207
330
747D
100
AcDbEntity
  8
部品1
 62
     7
 48
50.0
100
AcDbLine
 10
4760.882865439054
 20
976.3125
 30
0.0
 11
4760.882865439054
 21
976.3125
 31
0.0
  0
LINE
  5
1F208
330
747D
100
AcDbEntity
  8
部品1
 62
     7
 48
50.0
100
AcDbLine
 10
4784.695365439055
 20
976.3125
 30
0.0
 11
4784.695365439055
 21
976.3125
 31
0.0
  0
LINE
  5
1F209
330
747D
100
AcDbEntity
  8
部品1
 62
     7
 48
50.0
100
AcDbLine
 10
4808.507865439054
 20
976.3125
 30
0.0
 11
4808.507865439054
 21
976.3125
 31
0.0
  0
LINE
  5
1F20A
330
747D
100
AcDbEntity
  8
部品1
 62
     7
 48
50.0
100
AcDbLine
 10
4832.320365439055
 20
976.3125
 30
0.0
 11
4832.320365439055
 21
976.3125
 31
0.0
  0
LINE
  5
1F20B
330
747D
100
AcDbEntity
  8
部品1
 62
     7
 48
50.0
100
AcDbLine
 10
4772.789115439055
 20
952.5
 30
0.0
 11
4772.789115439055
 21
952.5
 31
0.0
  0
LINE
  5
1F20C
330
747D
100
AcDbEntity
  8
部品1
 62
     7
 48
50.0
100
AcDbLine
 10
4796.601615439054
 20
952.5
 30
0.0
 11
4796.601615439054
 21
952.5
 31
0.0
  0
LINE
  5
1F20D
330
747D
100
AcDbEntity
  8
部品1
 62
     7
 48
50.0
100
AcDbLine
 10
4820.414115439055
 20
952.5
 30
0.0
 11
4820.414115439055
 21
952.5
 31
0.0
  0
LINE
  5
1F20E
330
747D
100
AcDbEntity
  8
部品1
 62
     7
 48
50.0
100
AcDbLine
 10
4760.882865439054
 20
928.6875
 30
0.0
 11
4760.882865439054
 21
928.6875
 31
0.0
  0
LINE
  5
1F20F
330
747D
100
AcDbEntity
  8
部品1
 62
     7
 48
50.0
100
AcDbLine
 10
4784.695365439055
 20
928.6875
 30
0.0
 11
4784.695365439055
 21
928.6875
 31
0.0
  0
LINE
  5
1F210
330
747D
100
AcDbEntity
  8
部品1
 62
     7
 48
50.0
100
AcDbLine
 10
4808.507865439054
 20
928.6875
 30
0.0
 11
4808.507865439054
 21
928.6875
 31
0.0
  0
LINE
  5
1F211
330
747D
100
AcDbEntity
  8
部品1
 62
     7
 48
50.0
100
AcDbLine
 10
4832.320365439055
 20
928.6875
 30
0.0
 11
4832.320365439055
 21
928.6875
 31
0.0
  0
LINE
  5
1F212
330
747D
100
AcDbEntity
  8
部品1
 62
     7
 48
50.0
100
AcDbLine
 10
4772.789115439055
 20
904.875
 30
0.0
 11
4772.789115439055
 21
904.875
 31
0.0
  0
LINE
  5
1F213
330
747D
100
AcDbEntity
  8
部品1
 62
     7
 48
50.0
100
AcDbLine
 10
4796.601615439054
 20
904.875
 30
0.0
 11
4796.601615439054
 21
904.875
 31
0.0
  0
LINE
  5
1F214
330
747D
100
AcDbEntity
  8
部品1
 62
     7
 48
50.0
100
AcDbLine
 10
4820.414115439055
 20
904.875
 30
0.0
 11
4820.414115439055
 21
904.875
 31
0.0
  0
LINE
  5
1F215
330
747D
100
AcDbEntity
  8
部品1
 62
     7
 48
50.0
100
AcDbLine
 10
4844.226615439055
 20
1047.75
 30
0.0
 11
4844.226615439055
 21
1047.75
 31
0.0
  0
LINE
  5
1F216
330
747D
100
AcDbEntity
  8
部品1
 62
     7
 48
50.0
100
AcDbLine
 10
4760.882865439054
 20
1071.5625
 30
0.0
 11
4760.882865439054
 21
1071.5625
 31
0.0
  0
LINE
  5
1F217
330
747D
100
AcDbEntity
  8
部品1
 62
     7
 48
50.0
100
AcDbLine
 10
4784.695365439055
 20
1071.5625
 30
0.0
 11
4784.695365439055
 21
1071.5625
 31
0.0
  0
LINE
  5
1F218
330
747D
100
AcDbEntity
  8
部品1
 62
     7
 48
50.0
100
AcDbLine
 10
4808.507865439054
 20
1071.5625
 30
0.0
 11
4808.507865439054
 21
1071.5625
 31
0.0
  0
LINE
  5
1F219
330
747D
100
AcDbEntity
  8
部品1
 62
     7
 48
50.0
100
AcDbLine
 10
4832.320365439055
 20
1071.5625
 30
0.0
 11
4832.320365439055
 21
1071.5625
 31
0.0
  0
LINE
  5
1F21A
330
747D
100
AcDbEntity
  8
部品1
 62
     7
 48
50.0
100
AcDbLine
 10
4772.789115439055
 20
1047.75
 30
0.0
 11
4772.789115439055
 21
1047.75
 31
0.0
  0
LINE
  5
1F21B
330
747D
100
AcDbEntity
  8
部品1
 62
     7
 48
50.0
100
AcDbLine
 10
4796.601615439054
 20
1047.75
 30
0.0
 11
4796.601615439054
 21
1047.75
 31
0.0
  0
LINE
  5
1F21C
330
747D
100
AcDbEntity
  8
部品1
 62
     7
 48
50.0
100
AcDbLine
 10
4820.414115439055
 20
1047.75
 30
0.0
 11
4820.414115439055
 21
1047.75
 31
0.0
  0
LINE
  5
1F21D
330
747D
100
AcDbEntity
  8
細線
 62
     7
100
AcDbLine
 10
9549.236229035594
 20
1649.37366126983
 30
0.0
 11
9602.826067521816
 21
1449.373661269826
 31
0.0
  0
LINE
  5
1F21E
330
747D
100
AcDbEntity
  8
部品1
 62
     7
100
AcDbLine
 10
9449.236229035593
 20
1449.37366126983
 30
0.0
 11
9449.236229035593
 21
1749.373661269833
 31
0.0
  0
LINE
  5
1F21F
330
747D
100
AcDbEntity
  8
細線
 62
     7
100
AcDbLine
 10
9449.236229035593
 20
1649.37366126983
 30
0.0
 11
9502.826067521818
 21
1449.373661269826
 31
0.0
  0
LINE
  5
1F220
330
747D
100
AcDbEntity
  8
細線
 62
     7
100
AcDbLine
 10
9576.031148278705
 20
1649.37366126983
 30
0.0
 11
9562.633688657149
 21
1599.373661269829
 31
0.0
  0
LINE
  5
1F221
330
747D
100
AcDbEntity
  8
細線
 62
     7
100
AcDbLine
 10
9476.031148278705
 20
1649.37366126983
 30
0.0
 11
9462.633688657152
 21
1599.373661269829
 31
0.0
  0
LINE
  5
1F222
330
747D
100
AcDbEntity
  8
細線
 62
     7
100
AcDbLine
 10
9949.236229035593
 20
1649.373661269833
 30
0.0
 11
10002.82606752181
 21
1449.373661269832
 31
0.0
  0
LINE
  5
1F223
330
747D
100
AcDbEntity
  8
細線
 62
     7
100
AcDbLine
 10
9849.236229035597
 20
1649.373661269833
 30
0.0
 11
9902.826067521814
 21
1449.37366126983
 31
0.0
  0
LINE
  5
1F224
330
747D
100
AcDbEntity
  8
細線
 62
     7
100
AcDbLine
 10
9749.236229035593
 20
1649.373661269833
 30
0.0
 11
9802.82606752182
 21
1449.37366126983
 31
0.0
  0
LINE
  5
1F225
330
747D
100
AcDbEntity
  8
細線
 62
     7
100
AcDbLine
 10
9649.236229035594
 20
1649.373661269833
 30
0.0
 11
9702.826067521815
 21
1449.37366126983
 31
0.0
  0
LINE
  5
1F226
330
747D
100
AcDbEntity
  8
細線
 62
     7
100
AcDbLine
 10
9776.031148278704
 20
1649.373661269833
 30
0.0
 11
9762.63368865715
 21
1599.373661269833
 31
0.0
  0
LINE
  5
1F227
330
747D
100
AcDbEntity
  8
細線
 62
     7
100
AcDbLine
 10
9676.031148278706
 20
1649.373661269833
 30
0.0
 11
9662.633688657148
 21
1599.373661269833
 31
0.0
  0
LINE
  5
1F228
330
747D
100
AcDbEntity
  8
細線
 62
     7
100
AcDbLine
 10
9976.031148278707
 20
1649.373661269833
 30
0.0
 11
9962.633688657149
 21
1599.373661269833
 31
0.0
  0
LINE
  5
1F229
330
747D
100
AcDbEntity
  8
細線
 62
     7
100
AcDbLine
 10
9876.031148278705
 20
1649.373661269833
 30
0.0
 11
9862.633688657147
 21
1599.373661269833
 31
0.0
  0
LINE
  5
1F22A
330
747D
100
AcDbEntity
  8
部品1
 62
     7
100
AcDbLine
 10
10049.23622903559
 20
1749.373661269833
 30
0.0
 11
10049.23622903559
 21
1449.373661269832
 31
0.0
  0
LINE
  5
1F22B
330
747D
100
AcDbEntity
  8
細線
 62
     7
100
AcDbLine
 10
9689.428607900261
 20
1499.373661269833
 30
0.0
 11
9676.031148278706
 21
1449.373661269832
 31
0.0
  0
LINE
  5
1F22C
330
747D
100
AcDbEntity
  8
部品1
 62
     7
100
AcDbLine
 10
9449.236229035593
 20
1449.37366126983
 30
0.0
 11
10049.23622903559
 21
1449.373661269832
 31
0.0
  0
LINE
  5
1F22D
330
747D
100
AcDbEntity
  8
細線
 62
     7
100
AcDbLine
 10
9589.428607900259
 20
1499.37366126983
 30
0.0
 11
9576.031148278705
 21
1449.37366126983
 31
0.0
  0
LINE
  5
1F22E
330
747D
100
AcDbEntity
  8
細線
 62
     7
100
AcDbLine
 10
9489.42860790026
 20
1499.37366126983
 30
0.0
 11
9476.031148278705
 21
1449.37366126983
 31
0.0
  0
LINE
  5
1F22F
330
747D
100
AcDbEntity
  8
細線
 62
     7
100
AcDbLine
 10
9889.428607900262
 20
1499.373661269833
 30
0.0
 11
9876.031148278705
 21
1449.373661269832
 31
0.0
  0
LINE
  5
1F230
330
747D
100
AcDbEntity
  8
細線
 62
     7
100
AcDbLine
 10
9789.42860790026
 20
1499.373661269833
 30
0.0
 11
9776.031148278704
 21
1449.373661269832
 31
0.0
  0
LINE
  5
1F231
330
747D
100
AcDbEntity
  8
細線
 62
     7
100
AcDbLine
 10
9989.42860790026
 20
1499.373661269833
 30
0.0
 11
9976.031148278707
 21
1449.373661269832
 31
0.0
  0
LINE
  5
1F232
330
747D
100
AcDbEntity
  8
部品1
 62
     7
100
AcDbLine
 10
9449.236229035593
 20
1649.37366126983
 30
0.0
 11
10049.23622903559
 21
1649.373661269833
 31
0.0
  0
LINE
  5
1F233
330
747D
100
AcDbEntity
  8
細線
 62
     7
100
AcDbLine
 10
9711.430673766246
 20
1749.373661269833
 30
0.0
 11
9549.236229035592
 21
1911.568106000485
 31
0.0
  0
LINE
  5
1F234
330
747D
100
AcDbEntity
  8
部品1
 62
     7
100
AcDbLine
 10
9549.236229035594
 20
1949.373661269833
 30
0.0
 11
9949.236229035593
 21
1949.373661269833
 31
0.0
  0
LINE
  5
1F235
330
747D
100
AcDbEntity
  8
部品1
 62
     7
100
AcDbLine
 10
9549.236229035594
 20
1749.373661269833
 30
0.0
 11
9549.236229035594
 21
1949.373661269833
 31
0.0
  0
LINE
  5
1F236
330
747D
100
AcDbEntity
  8
細線
 62
     7
100
AcDbLine
 10
9576.417529991084
 20
1649.373661269831
 30
0.0
 11
9676.417529991082
 21
1749.373661269833
 31
0.0
  0
LINE
  5
1F237
330
747D
100
AcDbEntity
  8
細線
 62
     7
100
AcDbLine
 10
9669.004266895056
 20
1749.373661269833
 30
0.0
 11
9549.236229035594
 21
1869.141699129293
 31
0.0
  0
LINE
  5
1F238
330
747D
100
AcDbEntity
  8
細線
 62
     7
100
AcDbLine
 10
9548.133258743623
 20
1649.373661269833
 30
0.0
 11
9648.133258743619
 21
1749.373661269833
 31
0.0
  0
LINE
  5
1F239
330
747D
100
AcDbEntity
  8
細線
 62
     7
100
AcDbLine
 10
9519.848987496159
 20
1649.37366126983
 30
0.0
 11
9619.848987496158
 21
1749.373661269833
 31
0.0
  0
MTEXT
  5
1F23A
102
{ACAD_REACTORS
330
1F23B
102
}
330
747D
100
AcDbEntity
  8
寸法
 62
     7
 48
50.0
100
AcDbMText
 10
9978.158987327649
 20
2270.806562121256
 30
0.0
 40
150.0
 41
1.0
 71
     4
 72
     1
  1
\A1;C.B
  7
STYLE1
 73
     1
 44
1.0
  0
LEADER
  5
1F23B
330
747D
100
AcDbEntity
  8
寸法
 62
     7
 48
50.0
100
AcDbLeader
  3
INABA_S50G
 73
     0
 74
     0
 75
     1
 40
150.0
 41
231.9898538650463
 76
     3
 10
9749.236229035595
 20
1949.373661269833
 30
0.0
 10
9828.158987327649
 20
2170.806562121256
 30
0.0
 10
9953.158987327649
 20
2170.806562121256
 30
0.0
340
1F23A
1001
ACAD
1000
DSTYLE
1002
{
1070
    40
1040
1.0
1002
}
  0
LINE
  5
1F23C
330
747D
100
AcDbEntity
  8
部品1
 62
     7
100
AcDbLine
 10
9949.236229035593
 20
1949.373661269833
 30
0.0
 11
9949.236229035593
 21
1749.373661269833
 31
0.0
  0
LINE
  5
1F23D
330
747D
100
AcDbEntity
  8
細線
 62
     7
100
AcDbLine
 10
9895.278436874749
 20
1749.373661269833
 30
0.0
 11
9695.278436874751
 21
1949.373661269833
 31
0.0
  0
LINE
  5
1F23E
330
747D
100
AcDbEntity
  8
細線
 62
     7
100
AcDbLine
 10
9937.704843745946
 20
1749.373661269833
 30
0.0
 11
9737.704843745945
 21
1949.373661269833
 31
0.0
  0
LINE
  5
1F23F
330
747D
100
AcDbEntity
  8
細線
 62
     7
100
AcDbLine
 10
9819.848987496159
 20
1649.373661269832
 30
0.0
 11
9919.848987496159
 21
1749.373661269833
 31
0.0
  0
LINE
  5
1F240
330
747D
100
AcDbEntity
  8
細線
 62
     7
100
AcDbLine
 10
9848.133258743622
 20
1649.373661269833
 30
0.0
 11
9948.133258743617
 21
1749.373661269833
 31
0.0
  0
LINE
  5
1F241
330
747D
100
AcDbEntity
  8
細線
 62
     7
100
AcDbLine
 10
9876.41752999108
 20
1649.373661269832
 30
0.0
 11
9976.417529991081
 21
1749.373661269833
 31
0.0
  0
LINE
  5
1F242
330
747D
100
AcDbEntity
  8
文字
 62
     7
 48
50.0
100
AcDbLine
 10
10199.04748849817
 20
1750.309528320741
 30
0.0
 11
10272.97801269095
 21
1878.360952452848
 31
0.0
  0
LINE
  5
1F243
330
747D
100
AcDbEntity
  8
文字
 62
     7
 48
50.0
100
AcDbLine
 10
10272.97801269095
 20
1878.360952452848
 30
0.0
 11
10125.11696430538
 21
1878.360952452848
 31
0.0
  0
LINE
  5
1F244
330
747D
100
AcDbEntity
  8
文字
 62
     7
 48
50.0
100
AcDbLine
 10
10125.11696430538
 20
1878.360952452848
 30
0.0
 11
10199.04748849817
 21
1750.309528320742
 31
0.0
  0
TEXT
  5
1F245
330
747D
100
AcDbEntity
  8
部品1
 62
     7
100
AcDbText
 10
9374.418454080537
 20
3075.560085060715
 30
0.0
 40
150.0
  1
基礎詳細
  7
STYLE2
100
AcDbText
  0
LINE
  5
1F246
330
747D
100
AcDbEntity
  8
部品1
 62
     7
100
AcDbLine
 10
12792.41842782453
 20
600.0
 30
0.0
 11
12792.41842782453
 21
3299.999999999999
 31
0.0
  0
LINE
  5
1F247
330
747D
100
AcDbEntity
  8
部品1
 62
     7
100
AcDbLine
 10
10792.41842782453
 20
3299.999999999999
 30
0.0
 11
10792.41842782453
 21
600.0
 31
0.0
  0
LINE
  5
1F248
330
747D
100
AcDbEntity
  8
部品1
 62
     7
 48
10.0
100
AcDbLine
 10
12159.39291868346
 20
1459.373661269833
 30
0.0
 11
12115.39291868346
 21
1459.373661269833
 31
0.0
  0
LINE
  5
1F249
330
747D
100
AcDbEntity
  8
部品1
 62
     7
 48
10.0
100
AcDbLine
 10
12159.39291868346
 20
1475.373661269834
 30
0.0
 11
12115.39291868346
 21
1475.373661269834
 31
0.0
  0
LINE
  5
1F24A
330
747D
100
AcDbEntity
  8
細線
  6
HIDDEN
 62
     7
 48
10.0
100
AcDbLine
 10
12123.76726058689
 20
1349.373661269835
 30
0.0
 11
12371.39291868346
 21
1596.999319366418
 31
0.0
  0
LINE
  5
1F24B
330
747D
100
AcDbEntity
  8
細線
  6
HIDDEN
 62
     7
 48
10.0
100
AcDbLine
 10
12095.48298933942
 20
1349.373661269834
 30
0.0
 11
12371.39291868346
 21
1625.283590613878
 31
0.0
  0
DIMENSION
  5
1F24C
330
747D
100
AcDbEntity
  8
寸法
 62
     7
 48
50.0
100
AcDbDimension
  2
*D29
 10
11778.67290371428
 20
1459.373661269833
 30
0.0
 11
11678.65813993475
 21
1744.373661269835
 31
0.0
 70
    32
  1
285
 71
     5
 42
570.0000000000009
  3
INABA_S50G
100
AcDbAlignedDimension
 13
12159.39291868346
 23
2029.373661269834
 33
0.0
 14
12115.39291868346
 24
1459.373661269833
 34
0.0
 50
90.0
100
AcDbRotatedDimension
  0
DIMENSION
  5
1F24D
330
747D
100
AcDbEntity
  8
寸法
 62
     7
 48
50.0
100
AcDbDimension
  2
*D30
 10
11971.39291868346
 20
1022.89069578453
 30
0.0
 11
12171.39291868346
 21
1122.905459564057
 31
0.0
 70
    32
  1
200
 71
     5
 42
400.0
  3
INABA_S50G
100
AcDbAlignedDimension
 13
12371.39291868346
 23
1349.373661269834
 33
0.0
 14
11971.39291868346
 24
1349.373661269834
 34
0.0
100
AcDbRotatedDimension
  0
LINE
  5
1F24E
330
747D
100
AcDbEntity
  8
細線
  6
HIDDEN
 62
     7
 48
10.0
100
AcDbLine
 10
11971.39291868346
 20
1349.373661269834
 30
0.0
 11
12371.39291868346
 21
1349.373661269834
 31
0.0
  0
LINE
  5
1F24F
330
747D
100
AcDbEntity
  8
Ｇ．Ｌ
 62
     7
100
AcDbLine
 10
11802.01519945007
 20
1749.373661269833
 30
0.0
 11
12159.39291868346
 21
1749.373661269833
 31
0.0
  0
DIMENSION
  5
1F250
330
747D
100
AcDbEntity
  8
寸法
 62
     7
 48
50.0
100
AcDbDimension
  2
*D31
 10
11496.26221710674
 20
1349.373661269834
 30
0.0
 11
11496.26221710674
 21
1549.373661269835
 31
0.0
 70
   160
  1
200
 71
     5
 42
399.9999999999989
  3
INABA_S50G
100
AcDbAlignedDimension
 13
11561.22057962788
 23
1749.373661269833
 33
0.0
 14
11971.39291868346
 24
1349.373661269834
 34
0.0
 50
90.0
100
AcDbRotatedDimension
1001
ACAD
1000
DSTYLE
1002
{
1070
    40
1040
1.0
1002
}
  0
LINE
  5
1F251
330
747D
100
AcDbEntity
  8
細線
  6
HIDDEN
 62
     7
 48
10.0
100
AcDbLine
 10
11971.39291868346
 20
1349.373661269834
 30
0.0
 11
11971.39291868346
 21
1749.373661269833
 31
0.0
  0
LINE
  5
1F252
330
747D
100
AcDbEntity
  8
細線
  6
HIDDEN
 62
     7
 48
10.0
100
AcDbLine
 10
11971.39291868346
 20
1623.657708219241
 30
0.0
 11
12097.10887173405
 21
1749.373661269833
 31
0.0
  0
LINE
  5
1F253
330
747D
100
AcDbEntity
  8
細線
  6
HIDDEN
 62
     7
 48
10.0
100
AcDbLine
 10
11971.39291868346
 20
1595.373436971778
 30
0.0
 11
12125.3931429815
 21
1749.373661269833
 31
0.0
  0
LINE
  5
1F254
330
747D
100
AcDbEntity
  8
部品1
 62
     7
 48
10.0
100
AcDbLine
 10
12115.39291868346
 20
1459.373661269833
 30
0.0
 11
12115.39291868346
 21
1475.373661269834
 31
0.0
  0
LINE
  5
1F255
330
747D
100
AcDbEntity
  8
Ｇ．Ｌ
 62
     7
100
AcDbLine
 10
10862.63196514754
 20
1749.373661269833
 30
0.0
 11
11561.22057962788
 21
1749.373661269833
 31
0.0
  0
LINE
  5
1F256
330
747D
100
AcDbEntity
  8
文字
 62
     7
 48
50.0
100
AcDbLine
 10
10894.93918877682
 20
1877.425085401941
 30
0.0
 11
10968.86971296961
 21
1749.373661269833
 31
0.0
  0
LINE
  5
1F257
330
747D
100
AcDbEntity
  8
文字
 62
     7
 48
50.0
100
AcDbLine
 10
11042.8002371624
 20
1877.425085401941
 30
0.0
 11
10894.93918877682
 21
1877.425085401941
 31
0.0
  0
TEXT
  5
1F258
330
747D
100
AcDbEntity
  8
部品1
 62
     7
100
AcDbText
 10
11063.40298672054
 20
1771.234304431198
 30
0.0
 40
150.0
  1
G.L
  7
STYLE1
100
AcDbText
  0
LINE
  5
1F259
330
747D
100
AcDbEntity
  8
文字
 62
     7
 48
50.0
100
AcDbLine
 10
10968.86971296961
 20
1749.373661269833
 30
0.0
 11
11042.8002371624
 21
1877.425085401941
 31
0.0
  0
DIMENSION
  5
1F25A
330
747D
100
AcDbEntity
  8
寸法
 62
     7
 48
50.0
100
AcDbDimension
  2
*D32
 10
11496.91093653513
 20
1749.373661269833
 30
0.0
 11
11496.91093653513
 21
2236.337243947
 31
0.0
 70
   160
  1
100
 71
     5
 42
200.0000000000011
  3
INABA_S50G
100
AcDbAlignedDimension
 13
11778.67290371428
 23
1949.373661269834
 33
0.0
 14
11561.22057962788
 24
1749.373661269833
 34
0.0
 50
90.0
100
AcDbRotatedDimension
  0
LINE
  5
1F25B
330
747D
100
AcDbEntity
  8
細線
  6
HIDDEN
 62
     7
 48
10.0
100
AcDbLine
 10
11971.39291868346
 20
1651.941979466702
 30
0.0
 11
12068.82460048659
 21
1749.373661269833
 31
0.0
  0
LINE
  5
1F25C
330
747D
100
AcDbEntity
  8
寸法
 62
     7
 48
50.0
100
AcDbLine
 10
11795.42058817862
 20
1949.373661269834
 30
0.0
 11
12136.21794591976
 21
1949.373661269834
 31
0.0
  0
LINE
  5
1F25D
330
747D
100
AcDbEntity
  8
部品1
 62
     7
 48
10.0
100
AcDbLine
 10
12175.39291868346
 20
1475.373661269834
 30
0.0
 11
12175.39291868346
 21
2029.373661269834
 31
0.0
  0
LINE
  5
1F25E
330
747D
100
AcDbEntity
  8
部品1
 62
     7
 48
10.0
100
AcDbLine
 10
12159.39291868346
 20
2029.373661269834
 30
0.0
 11
12159.39291868346
 21
1475.373661269834
 31
0.0
  0
LINE
  5
1F25F
330
747D
100
AcDbEntity
  8
細線
  6
HIDDEN
 62
     7
 48
10.0
100
AcDbLine
 10
12371.39291868346
 20
1349.373661269834
 30
0.0
 11
12371.39291868346
 21
1749.373661269833
 31
0.0
  0
LINE
  5
1F260
330
747D
100
AcDbEntity
  8
細線
  6
HIDDEN
 62
     7
 48
10.0
100
AcDbLine
 10
12152.05153183435
 20
1349.373661269835
 30
0.0
 11
12371.39291868346
 21
1568.715048118956
 31
0.0
  0
ARC
  5
1F261
330
747D
100
AcDbEntity
  8
部品1
 62
     7
 48
10.0
100
AcDbCircle
 10
12159.39291868346
 20
1475.373661269834
 30
0.0
 40
16.0
100
AcDbArc
 50
270.0
 51
0.0
  0
LINE
  5
1F262
330
747D
100
AcDbEntity
  8
部品1
 62
     7
 48
10.0
100
AcDbLine
 10
12335.39291868346
 20
2063.373661269833
 30
0.0
 11
12335.39291868346
 21
2683.152017438573
 31
0.0
  0
LINE
  5
1F263
330
747D
100
AcDbEntity
  8
部品1
 62
     7
 48
10.0
100
AcDbLine
 10
12319.39291868346
 20
2047.373661269833
 30
0.0
 11
12319.39291868346
 21
2683.152017438573
 31
0.0
  0
LINE
  5
1F264
330
747D
100
AcDbEntity
  8
部品1
 62
     7
 48
10.0
100
AcDbLine
 10
12303.39291868346
 20
1949.373661269834
 30
0.0
 11
12303.39291868346
 21
2683.152017438573
 31
0.0
  0
LINE
  5
1F265
330
747D
100
AcDbEntity
  8
部品1
 62
     7
 48
10.0
100
AcDbLine
 10
12175.39291868346
 20
1949.373661269834
 30
0.0
 11
12175.39291868346
 21
2683.152017438573
 31
0.0
  0
LINE
  5
1F266
330
747D
100
AcDbEntity
  8
部品1
 62
     7
 48
10.0
100
AcDbLine
 10
12303.39291868346
 20
2047.373661269833
 30
0.0
 11
12690.73056603674
 21
2047.373661269833
 31
0.0
  0
LINE
  5
1F267
330
747D
100
AcDbEntity
  8
部品1
 62
     7
 48
10.0
100
AcDbLine
 10
12319.39291868346
 20
2063.373661269833
 30
0.0
 11
12690.73056603674
 21
2063.373661269833
 31
0.0
  0
LINE
  5
1F268
330
747D
100
AcDbEntity
  8
部品1
 62
     7
 48
10.0
100
AcDbLine
 10
12175.39291868346
 20
1949.373661269834
 30
0.0
 11
12690.73056603674
 21
1949.373661269834
 31
0.0
  0
LINE
  5
1F269
330
747D
100
AcDbEntity
  8
部品1
 62
     7
 48
10.0
100
AcDbLine
 10
12175.39291868346
 20
1949.373661269834
 30
0.0
 11
12575.39291868346
 21
1949.373661269834
 31
0.0
  0
LINE
  5
1F26A
330
747D
100
AcDbEntity
  8
細線
 62
     7
100
AcDbLine
 10
12563.86153339381
 20
1749.373661269834
 30
0.0
 11
12363.86153339381
 21
1949.373661269834
 31
0.0
  0
LINE
  5
1F26B
330
747D
100
AcDbEntity
  8
Ｇ．Ｌ
 62
     7
100
AcDbLine
 10
12175.39291868346
 20
1749.373661269833
 30
0.0
 11
12689.16290152045
 21
1749.373661269833
 31
0.0
  0
LINE
  5
1F26C
330
747D
100
AcDbEntity
  8
部品1
 62
     7
 48
10.0
100
AcDbLine
 10
12175.39291868346
 20
1749.373661269833
 30
0.0
 11
12175.39291868346
 21
1949.373661269834
 31
0.0
  0
LINE
  5
1F26D
330
747D
100
AcDbEntity
  8
細線
 62
     7
100
AcDbLine
 10
12521.43512652261
 20
1749.373661269833
 30
0.0
 11
12321.43512652261
 21
1949.373661269834
 31
0.0
  0
LINE
  5
1F26E
330
747D
100
AcDbEntity
  8
細線
 62
     7
100
AcDbLine
 10
12337.58736341411
 20
1749.373661269833
 30
0.0
 11
12175.39291868346
 21
1911.568106000486
 31
0.0
  0
LINE
  5
1F26F
330
747D
100
AcDbEntity
  8
細線
 62
     7
100
AcDbLine
 10
12295.16095654292
 20
1749.373661269833
 30
0.0
 11
12175.39291868346
 21
1869.141699129294
 31
0.0
  0
CIRCLE
  5
1F270
330
747D
100
AcDbEntity
  8
細線
 62
     7
100
AcDbCircle
 10
12281.39291868346
 20
1999.373661269833
 30
0.0
 40
16.0
  0
CIRCLE
  5
1F271
330
747D
100
AcDbEntity
  8
細線
 62
     7
100
AcDbCircle
 10
12235.39291868346
 20
1999.373661269833
 30
0.0
 40
16.0
  0
LINE
  5
1F272
330
747D
100
AcDbEntity
  8
細線
 62
     7
100
AcDbLine
 10
12153.39291868346
 20
1983.373661269834
 30
0.0
 11
12153.39291868346
 21
2015.373661269833
 31
0.0
  0
LINE
  5
1F273
330
747D
100
AcDbEntity
  8
細線
 62
     7
100
AcDbLine
 10
12159.39291868346
 20
1983.373661269834
 30
0.0
 11
12159.39291868346
 21
2015.373661269833
 31
0.0
  0
LINE
  5
1F274
330
747D
100
AcDbEntity
  8
細線
 62
     7
100
AcDbLine
 10
12159.39291868346
 20
1983.373661269834
 30
0.0
 11
12153.39291868346
 21
1983.373661269834
 31
0.0
  0
LINE
  5
1F275
330
747D
100
AcDbEntity
  8
細線
 62
     7
100
AcDbLine
 10
12159.39291868346
 20
2015.373661269833
 30
0.0
 11
12153.39291868346
 21
2015.373661269833
 31
0.0
  0
ARC
  5
1F276
330
747D
100
AcDbEntity
  8
細線
 62
     7
100
AcDbCircle
 10
12152.39291868346
 20
1992.373661269834
 30
0.0
 40
7.0
100
AcDbArc
 50
180.0
 51
270.0
  0
ARC
  5
1F277
330
747D
100
AcDbEntity
  8
細線
 62
     7
100
AcDbCircle
 10
12152.39291868346
 20
2006.373661269833
 30
0.0
 40
7.0
100
AcDbArc
 50
90.0
 51
180.0
  0
LINE
  5
1F278
330
747D
100
AcDbEntity
  8
細線
 62
     7
100
AcDbLine
 10
12153.39291868346
 20
1985.373661269834
 30
0.0
 11
12152.39291868346
 21
1985.373661269834
 31
0.0
  0
LINE
  5
1F279
330
747D
100
AcDbEntity
  8
細線
 62
     7
100
AcDbLine
 10
12153.39291868346
 20
2013.373661269834
 30
0.0
 11
12152.39291868346
 21
2013.373661269834
 31
0.0
  0
LINE
  5
1F27A
330
747D
100
AcDbEntity
  8
細線
 62
     7
100
AcDbLine
 10
12145.39291868346
 20
1992.373661269834
 30
0.0
 11
12145.39291868346
 21
2006.373661269833
 31
0.0
  0
LINE
  5
1F27B
330
747D
100
AcDbEntity
  8
部品1
 62
     7
 48
10.0
100
AcDbLine
 10
12175.39291868346
 20
2029.373661269834
 30
0.0
 11
12159.39291868346
 21
2029.373661269834
 31
0.0
  0
LINE
  5
1F27C
330
747D
100
AcDbEntity
  8
部品1
 62
     7
 48
10.0
100
AcDbLine
 10
12575.39291868346
 20
1949.373661269834
 30
0.0
 11
12575.39291868346
 21
1749.373661269833
 31
0.0
  0
TEXT
  5
1F27D
330
747D
100
AcDbEntity
  8
部品1
 62
     7
100
AcDbText
 10
11028.92355353962
 20
3076.227094002039
 30
0.0
 40
150.0
  1
アンカー部詳細
  7
STYLE2
100
AcDbText
  0
ENDSEC
  0
SECTION
  2
OBJECTS
  0
DICTIONARY
  5
7471
330
0
100
AcDbDictionary
281
     1
  3
ACAD_COLOR
350
1F05F
  3
ACAD_GROUP
350
7472
  3
ACAD_LAYOUT
350
1A1FB
  3
ACAD_MATERIAL
350
1F05E
  3
ACAD_MLINESTYLE
350
7473
  3
ACAD_PLOTSETTINGS
350
1A1FC
  3
ACAD_PLOTSTYLENAME
350
1A1F9
  3
ACDBVARIABLEDICTIONARY
350
1152B
  3
CONTENTDICTIONARY
350
E71C
  3
DRAWINGVARIABLESDICT
350
F3B9
  0
DICTIONARY
  5
1F05F
102
{ACAD_REACTORS
330
7471
102
}
330
7471
100
AcDbDictionary
281
     1
  0
DICTIONARY
  5
7472
102
{ACAD_REACTORS
330
7471
102
}
330
7471
100
AcDbDictionary
281
     1
  0
DICTIONARY
  5
1A1FB
102
{ACAD_REACTORS
330
7471
102
}
330
7471
100
AcDbDictionary
281
     1
  3
Model
350
1A1FD
  3
ﾚｲｱｳﾄ1
350
1A1FE
  0
DICTIONARY
  5
1F05E
102
{ACAD_REACTORS
330
7471
102
}
330
7471
100
AcDbDictionary
281
     1
  0
DICTIONARY
  5
7473
102
{ACAD_REACTORS
330
7471
102
}
330
7471
100
AcDbDictionary
281
     1
  3
STANDARD
350
7480
  0
DICTIONARY
  5
1A1FC
102
{ACAD_REACTORS
330
7471
102
}
330
7471
100
AcDbDictionary
281
     1
  0
ACDBDICTIONARYWDFLT
  5
1A1F9
102
{ACAD_REACTORS
330
7471
102
}
330
7471
100
AcDbDictionary
281
     1
  3
Normal
350
1A1FA
100
AcDbDictionaryWithDefault
340
1A1FA
  0
DICTIONARY
  5
1152B
102
{ACAD_REACTORS
330
7471
102
}
330
7471
100
AcDbDictionary
281
     1
  3
SORTENTS
350
1152C
  0
DICTIONARY
  5
E71C
102
{ACAD_REACTORS
330
7471
102
}
330
7471
100
AcDbDictionary
281
     1
  0
DICTIONARY
  5
F3B9
102
{ACAD_REACTORS
330
7471
102
}
330
7471
100
AcDbDictionary
281
     1
1001
DRAWINGVARIABLESXDATA
1000
POLARMODE
1000
1
  0
LAYOUT
  5
1A1FD
102
{ACAD_REACTORS
330
1A1FB
102
}
330
1A1FB
100
AcDbPlotSettings
  1

  2
\\NKZ-SERVER\EPSON LP-9000
  4

  6

 40
0.0
 41
0.0
 42
0.0
 43
0.0
 44
0.0
 45
0.0
 46
0.0
 47
0.0
 48
0.0
 49
0.0
140
0.0
141
0.0
142
1.0
143
1.0
 70
  1712
 72
     0
 73
     0
 74
     0
  7

 75
     0
147
1.0
 76
     0
 77
     2
 78
   300
148
0.0
149
0.0
100
AcDbLayout
  1
Model
 70
     1
 71
     0
 10
0.0
 20
0.0
 11
12.0
 21
9.0
 12
0.0
 22
0.0
 32
0.0
 14
0.0
 24
0.0
 34
0.0
 15
0.0
 25
0.0
 35
0.0
146
0.0
 13
0.0
 23
0.0
 33
0.0
 16
1.0
 26
0.0
 36
0.0
 17
0.0
 27
1.0
 37
0.0
 76
     0
330
747D
  0
LAYOUT
  5
1A1FE
102
{ACAD_REACTORS
330
1A1FB
102
}
330
1A1FB
100
AcDbPlotSettings
  1

  2
\\NKZ-SERVER\EPSON LP-9000
  4

  6

 40
0.0
 41
0.0
 42
0.0
 43
0.0
 44
0.0
 45
0.0
 46
0.0
 47
0.0
 48
0.0
 49
0.0
140
0.0
141
0.0
142
1.0
143
1.0
 70
   688
 72
     0
 73
     0
 74
     5
  7

 75
    16
147
1.0
 76
     0
 77
     2
 78
   300
148
0.0
149
0.0
100
AcDbLayout
  1
ﾚｲｱｳﾄ1
 70
     0
 71
     1
 10
0.0
 20
0.0
 11
420.0
 21
297.0
 12
0.0
 22
0.0
 32
0.0
 14
1.000000000000000E+20
 24
1.000000000000000E+20
 34
1.000000000000000E+20
 15
-1.000000000000000E+20
 25
-1.000000000000000E+20
 35
-1.000000000000000E+20
146
0.0
 13
0.0
 23
0.0
 33
0.0
 16
1.0
 26
0.0
 36
0.0
 17
0.0
 27
1.0
 37
0.0
 76
     0
330
747A
  0
MLINESTYLE
  5
7480
102
{ACAD_REACTORS
330
7473
102
}
330
7473
100
AcDbMlineStyle
  2
STANDARD
 70
     0
  3

 62
     0
 51
90.0
 52
90.0
 71
     2
 49
0.5
 62
   256
  6
BYLAYER
 49
-0.5
 62
   256
  6
BYLAYER
  0
ACDBPLACEHOLDER
  5
1A1FA
102
{ACAD_REACTORS
330
1A1F9
102
}
330
1A1F9
  0
DICTIONARYVAR
  5
1152C
102
{ACAD_REACTORS
330
1152B
102
}
330
1152B
100
DictionaryVariables
280
     0
  1
96
  0
ENDSEC
  0
EOF
