  0
SECTION
  2
HEADER
  9
$ACADVER
  1
AC1015
  9
$ACADMAINTVER
 70
    20
  9
$DWGCODEPAGE
  3
ANSI_932
  9
$INSBASE
 10
0.0
 20
0.0
 30
0.0
  9
$EXTMIN
 10
174.9999999999993
 20
-0.570605785936452
 30
0.0
  9
$EXTMAX
 10
20385.39675833159
 20
14262.0
 30
0.0
  9
$LIMMIN
 10
0.0
 20
0.0
  9
$LIMMAX
 10
21000.0
 20
14850.0
  9
$ORTHOMODE
 70
     0
  9
$REGENMODE
 70
     1
  9
$FILLMODE
 70
     1
  9
$QTEXTMODE
 70
     0
  9
$MIRRTEXT
 70
     1
  9
$LTSCALE
 40
20.0
  9
$ATTMODE
 70
     1
  9
$TEXTSIZE
 40
150.0
  9
$TRACEWID
 40
1.0
  9
$TEXTSTYLE
  7
STYLE1
  9
$CLAYER
  8
寸法
  9
$CELTYPE
  6
BYLAYER
  9
$CECOLOR
 62
   256
  9
$CELTSCALE
 40
50.0
  9
$DISPSILH
 70
     0
  9
$DIMSCALE
 40
1.0
  9
$DIMASZ
 40
125.0
  9
$DIMEXO
 40
25.0
  9
$DIMDLI
 40
7.0
  9
$DIMRND
 40
0.0
  9
$DIMDLE
 40
0.0
  9
$DIMEXE
 40
75.0
  9
$DIMTP
 40
0.0
  9
$DIMTM
 40
0.0
  9
$DIMTXT
 40
150.0
  9
$DIMCEN
 40
0.0
  9
$DIMTSZ
 40
0.0
  9
$DIMTOL
 70
     0
  9
$DIMLIM
 70
     0
  9
$DIMTIH
 70
     0
  9
$DIMTOH
 70
     0
  9
$DIMSE1
 70
     0
  9
$DIMSE2
 70
     0
  9
$DIMTAD
 70
     3
  9
$DIMZIN
 70
     8
  9
$DIMBLK
  1

  9
$DIMASO
 70
     1
  9
$DIMSHO
 70
     1
  9
$DIMPOST
  1

  9
$DIMAPOST
  1

  9
$DIMALT
 70
     0
  9
$DIMALTD
 70
     2
  9
$DIMALTF
 40
0.0394
  9
$DIMLFAC
 40
1.0
  9
$DIMTOFL
 70
     1
  9
$DIMTVP
 40
0.0
  9
$DIMTIX
 70
     1
  9
$DIMSOXD
 70
     0
  9
$DIMSAH
 70
     1
  9
$DIMBLK1
  1
DOTSMALL
  9
$DIMBLK2
  1
DOTSMALL
  9
$DIMSTYLE
  2
INABA_S50G
  9
$DIMCLRD
 70
     0
  9
$DIMCLRE
 70
     0
  9
$DIMCLRT
 70
     7
  9
$DIMTFAC
 40
1.0
  9
$DIMGAP
 40
25.0
  9
$DIMJUST
 70
     0
  9
$DIMSD1
 70
     0
  9
$DIMSD2
 70
     0
  9
$DIMTOLJ
 70
     1
  9
$DIMTZIN
 70
     0
  9
$DIMALTZ
 70
     0
  9
$DIMALTTZ
 70
     0
  9
$DIMUPT
 70
     0
  9
$DIMDEC
 70
     1
  9
$DIMTDEC
 70
     4
  9
$DIMALTU
 70
     2
  9
$DIMALTTD
 70
     2
  9
$DIMTXSTY
  7
STYLE1
  9
$DIMAUNIT
 70
     0
  9
$DIMADEC
 70
     0
  9
$DIMALTRND
 40
0.0
  9
$DIMAZIN
 70
     0
  9
$DIMDSEP
 70
    46
  9
$DIMATFIT
 70
     3
  9
$DIMFRAC
 70
     0
  9
$DIMLDRBLK
  1

  9
$DIMLUNIT
 70
     2
  9
$DIMLWD
 70
    -2
  9
$DIMLWE
 70
    -2
  9
$DIMTMOVE
 70
     0
  9
$LUNITS
 70
     2
  9
$LUPREC
 70
     1
  9
$SKETCHINC
 40
1.0
  9
$FILLETRAD
 40
0.0
  9
$AUNITS
 70
     0
  9
$AUPREC
 70
     0
  9
$MENU
  1
acad
  9
$ELEVATION
 40
0.0
  9
$PELEVATION
 40
0.0
  9
$THICKNESS
 40
0.0
  9
$LIMCHECK
 70
     0
  9
$CHAMFERA
 40
0.0
  9
$CHAMFERB
 40
0.0
  9
$CHAMFERC
 40
0.0
  9
$CHAMFERD
 40
0.0
  9
$SKPOLY
 70
     0
  9
$TDCREATE
 40
2450927.380327778
  9
$TDUCREATE
 40
2450927.005327778
  9
$TDUPDATE
 40
2455827.765987546
  9
$TDUUPDATE
 40
2455827.390987546
  9
$TDINDWG
 40
2.1456007755
  9
$TDUSRTIMER
 40
2.1456007755
  9
$USRTIMER
 70
     1
  9
$ANGBASE
 50
0.0
  9
$ANGDIR
 70
     0
  9
$PDMODE
 70
     3
  9
$PDSIZE
 40
2.0
  9
$PLINEWID
 40
0.0
  9
$SPLFRAME
 70
     0
  9
$SPLINETYPE
 70
     6
  9
$SPLINESEGS
 70
     8
  9
$HANDSEED
  5
1F459
  9
$SURFTAB1
 70
     6
  9
$SURFTAB2
 70
     6
  9
$SURFTYPE
 70
     6
  9
$SURFU
 70
     6
  9
$SURFV
 70
     6
  9
$UCSBASE
  2

  9
$UCSNAME
  2

  9
$UCSORG
 10
0.0
 20
0.0
 30
0.0
  9
$UCSXDIR
 10
1.0
 20
0.0
 30
0.0
  9
$UCSYDIR
 10
0.0
 20
1.0
 30
0.0
  9
$UCSORTHOREF
  2

  9
$UCSORTHOVIEW
 70
     0
  9
$UCSORGTOP
 10
0.0
 20
0.0
 30
0.0
  9
$UCSORGBOTTOM
 10
0.0
 20
0.0
 30
0.0
  9
$UCSORGLEFT
 10
0.0
 20
0.0
 30
0.0
  9
$UCSORGRIGHT
 10
0.0
 20
0.0
 30
0.0
  9
$UCSORGFRONT
 10
0.0
 20
0.0
 30
0.0
  9
$UCSORGBACK
 10
0.0
 20
0.0
 30
0.0
  9
$PUCSBASE
  2

  9
$PUCSNAME
  2

  9
$PUCSORG
 10
0.0
 20
0.0
 30
0.0
  9
$PUCSXDIR
 10
1.0
 20
0.0
 30
0.0
  9
$PUCSYDIR
 10
0.0
 20
1.0
 30
0.0
  9
$PUCSORTHOREF
  2

  9
$PUCSORTHOVIEW
 70
     0
  9
$PUCSORGTOP
 10
0.0
 20
0.0
 30
0.0
  9
$PUCSORGBOTTOM
 10
0.0
 20
0.0
 30
0.0
  9
$PUCSORGLEFT
 10
0.0
 20
0.0
 30
0.0
  9
$PUCSORGRIGHT
 10
0.0
 20
0.0
 30
0.0
  9
$PUCSORGFRONT
 10
0.0
 20
0.0
 30
0.0
  9
$PUCSORGBACK
 10
0.0
 20
0.0
 30
0.0
  9
$USERI1
 70
     0
  9
$USERI2
 70
     0
  9
$USERI3
 70
     0
  9
$USERI4
 70
     0
  9
$USERI5
 70
     0
  9
$USERR1
 40
0.0
  9
$USERR2
 40
0.0
  9
$USERR3
 40
0.0
  9
$USERR4
 40
0.0
  9
$USERR5
 40
0.0
  9
$WORLDVIEW
 70
     1
  9
$SHADEDGE
 70
     3
  9
$SHADEDIF
 70
    70
  9
$TILEMODE
 70
     1
  9
$MAXACTVP
 70
    16
  9
$PINSBASE
 10
0.0
 20
0.0
 30
0.0
  9
$PLIMCHECK
 70
     0
  9
$PEXTMIN
 10
1.000000000000000E+20
 20
1.000000000000000E+20
 30
1.000000000000000E+20
  9
$PEXTMAX
 10
-1.000000000000000E+20
 20
-1.000000000000000E+20
 30
-1.000000000000000E+20
  9
$PLIMMIN
 10
0.0
 20
0.0
  9
$PLIMMAX
 10
420.0
 20
297.0
  9
$UNITMODE
 70
     0
  9
$VISRETAIN
 70
     0
  9
$PLINEGEN
 70
     0
  9
$PSLTSCALE
 70
     0
  9
$TREEDEPTH
 70
  3020
  9
$CMLSTYLE
  2
STANDARD
  9
$CMLJUST
 70
     0
  9
$CMLSCALE
 40
1.0
  9
$PROXYGRAPHICS
 70
     1
  9
$MEASUREMENT
 70
     1
  9
$CELWEIGHT
370
    -1
  9
$ENDCAPS
280
     0
  9
$JOINSTYLE
280
     0
  9
$LWDISPLAY
290
     0
  9
$INSUNITS
 70
     0
  9
$HYPERLINKBASE
  1

  9
$STYLESHEET
  1
inaba.ctb
  9
$XEDIT
290
     1
  9
$CEPSNTYPE
380
     0
  9
$PSTYLEMODE
290
     1
  9
$FINGERPRINTGUID
  2
{94D27637-AB05-4F4B-9DE7-C45394AF36DE}
  9
$VERSIONGUID
  2
{E661FAC9-2058-4C40-99B7-F230641C0590}
  9
$EXTNAMES
290
     1
  9
$PSVPSCALE
 40
0.0
  9
$OLESTARTUP
290
     0
  0
ENDSEC
  0
SECTION
  2
CLASSES
  0
CLASS
  1
DICTIONARYVAR
  2
AcDbDictionaryVar
  3
ObjectDBX Classes
 90
        0
280
     0
281
     0
  0
CLASS
  1
ACDBDICTIONARYWDFLT
  2
AcDbDictionaryWithDefault
  3
ObjectDBX Classes
 90
        0
280
     0
281
     0
  0
CLASS
  1
ACDBPLACEHOLDER
  2
AcDbPlaceHolder
  3
ObjectDBX Classes
 90
        0
280
     0
281
     0
  0
CLASS
  1
LAYOUT
  2
AcDbLayout
  3
ObjectDBX Classes
 90
        0
280
     0
281
     0
  0
ENDSEC
  0
SECTION
  2
TABLES
  0
TABLE
  2
VPORT
  5
746D
330
0
100
AcDbSymbolTable
 70
     2
  0
VPORT
  5
1F451
330
746D
100
AcDbSymbolTableRecord
100
AcDbViewportTableRecord
  2
*Active
 70
     0
 10
0.0
 20
0.0
 11
1.0
 21
1.0
 12
10279.70128154813
 22
7130.406770492378
 13
0.0
 23
0.0
 14
10.0
 24
10.0
 15
10.0
 25
10.0
 16
0.0
 26
0.0
 36
1.0
 17
0.0
 27
0.0
 37
0.0
 40
14372.48257492358
 41
1.522222222222221
 42
50.0
 43
0.0
 44
0.0
 50
0.0
 51
0.0
 71
     0
 72
     0
 73
     1
 74
     0
 75
     0
 76
     0
 77
     0
 78
     0
281
     0
 65
     1
110
0.0
120
0.0
130
0.0
111
1.0
121
0.0
131
0.0
112
0.0
122
1.0
132
0.0
 79
     0
146
0.0
  0
ENDTAB
  0
TABLE
  2
LTYPE
  5
746A
330
0
100
AcDbSymbolTable
 70
     4
  0
LTYPE
  5
7477
330
746A
100
AcDbSymbolTableRecord
100
AcDbLinetypeTableRecord
  2
BYBLOCK
 70
     0
  3

 72
    65
 73
     0
 40
0.0
  0
LTYPE
  5
7478
330
746A
100
AcDbSymbolTableRecord
100
AcDbLinetypeTableRecord
  2
BYLAYER
 70
     0
  3

 72
    65
 73
     0
 40
0.0
  0
LTYPE
  5
7479
330
746A
100
AcDbSymbolTableRecord
100
AcDbLinetypeTableRecord
  2
CONTINUOUS
 70
     0
  3
Solid line
 72
    65
 73
     0
 40
0.0
  0
LTYPE
  5
7816
330
746A
100
AcDbSymbolTableRecord
100
AcDbLinetypeTableRecord
  2
CENTER
 70
     0
  3
____ _ ____ _ ____ _ ____ _ ____ _ ____ _ ____ 
 72
    65
 73
     4
 40
2.0
 49
1.25
 74
     0
 49
-0.25
 74
     0
 49
0.25
 74
     0
 49
-0.25
 74
     0
  0
LTYPE
  5
781B
330
746A
100
AcDbSymbolTableRecord
100
AcDbLinetypeTableRecord
  2
PHANTOM
 70
     0
  3
______  __  __  ______  __  __  ______  __  __ 
 72
    65
 73
     6
 40
2.5
 49
1.25
 74
     0
 49
-0.25
 74
     0
 49
0.25
 74
     0
 49
-0.25
 74
     0
 49
0.25
 74
     0
 49
-0.25
 74
     0
  0
LTYPE
  5
13F72
330
746A
100
AcDbSymbolTableRecord
100
AcDbLinetypeTableRecord
  2
HIDDEN
 70
     0
  3
__ __ __ __ __ __ __ __ __ __ __ __ __ __ __ __
 72
    65
 73
     2
 40
0.375
 49
0.25
 74
     0
 49
-0.125
 74
     0
  0
ENDTAB
  0
TABLE
  2
LAYER
  5
7467
102
{ACAD_XDICTIONARY
360
1E730
102
}
330
0
100
AcDbSymbolTable
 70
    12
  0
LAYER
  5
7474
330
7467
100
AcDbSymbolTableRecord
100
AcDbLayerTableRecord
  2
0
 70
     0
 62
     7
  6
CONTINUOUS
370
    -3
390
1D6B2
  0
LAYER
  5
DEB2
330
7467
100
AcDbSymbolTableRecord
100
AcDbLayerTableRecord
  2
センター
 70
     0
 62
     3
  6
CENTER
370
    -3
390
1D6B2
  0
LAYER
  5
DEB3
330
7467
100
AcDbSymbolTableRecord
100
AcDbLayerTableRecord
  2
寸法
 70
     0
 62
     4
  6
CONTINUOUS
370
    -3
390
1D6B2
  0
LAYER
  5
DEB4
330
7467
100
AcDbSymbolTableRecord
100
AcDbLayerTableRecord
  2
部品1
 70
     0
 62
     7
  6
CONTINUOUS
370
    -3
390
1D6B2
  0
LAYER
  5
DEB5
330
7467
100
AcDbSymbolTableRecord
100
AcDbLayerTableRecord
  2
補助
 70
     0
 62
    -1
  6
CONTINUOUS
370
    -3
390
1D6B2
  0
LAYER
  5
DEB6
330
7467
100
AcDbSymbolTableRecord
100
AcDbLayerTableRecord
  2
文字
 70
     0
 62
     7
  6
CONTINUOUS
370
    -3
390
1D6B2
  0
LAYER
  5
F255
330
7467
100
AcDbSymbolTableRecord
100
AcDbLayerTableRecord
  2
DEFPOINTS
 70
     0
 62
     7
  6
CONTINUOUS
290
     0
370
    -3
390
1D6B2
  0
LAYER
  5
10B54
330
7467
100
AcDbSymbolTableRecord
100
AcDbLayerTableRecord
  2
仕様書枠
 70
     0
 62
   230
  6
CONTINUOUS
370
    -3
390
1D6B2
  0
LAYER
  5
13F73
330
7467
100
AcDbSymbolTableRecord
100
AcDbLayerTableRecord
  2
細線
 70
     0
 62
     5
  6
CONTINUOUS
370
    -3
390
1D6B2
  0
LAYER
  5
13F74
330
7467
100
AcDbSymbolTableRecord
100
AcDbLayerTableRecord
  2
点線
 70
     0
 62
     2
  6
HIDDEN
370
    -3
390
1D6B2
  0
LAYER
  5
1643F
330
7467
100
AcDbSymbolTableRecord
100
AcDbLayerTableRecord
  2
想像線
 70
     0
 62
     6
  6
PHANTOM
370
    -3
390
1D6B2
  0
LAYER
  5
1825D
330
7467
100
AcDbSymbolTableRecord
100
AcDbLayerTableRecord
  2
Ｇ．Ｌ
 70
     0
 62
    30
  6
CONTINUOUS
370
    -3
390
1D6B2
  0
ENDTAB
  0
TABLE
  2
STYLE
  5
7468
330
0
100
AcDbSymbolTable
 70
     4
  0
STYLE
  5
7475
330
7468
100
AcDbSymbolTableRecord
100
AcDbTextStyleTableRecord
  2
STANDARD
 70
     0
 40
0.0
 41
1.0
 50
0.0
 71
     0
 42
4.0
  3
txt
  4
C:\AutoCAD LT\bigfont.shx
  0
STYLE
  5
F706
330
7468
100
AcDbSymbolTableRecord
100
AcDbTextStyleTableRecord
  2
STYLE1
 70
     0
 40
0.0
 41
1.0
 50
0.0
 71
     0
 42
150.0
  3
isocp.shx
  4
bigfont.shx
  0
STYLE
  5
103BF
330
7468
100
AcDbSymbolTableRecord
100
AcDbTextStyleTableRecord
  2
STYLE2
 70
     0
 40
0.0
 41
1.0
 50
0.0
 71
     0
 42
100.0
  3
MS PGothic.ttf
  4

1001
ACAD
1000
MS PGothic
1071
    32818
  0
STYLE
  5
1EBEE
330
7468
100
AcDbSymbolTableRecord
100
AcDbTextStyleTableRecord
  2
STYLE3
 70
     0
 40
0.0
 41
1.0
 50
0.0
 71
     0
 42
100.0
  3
DFPGothic-EB.ttf
  4

1001
ACAD
1000
DFPGothic-EB
1071
    32818
  0
ENDTAB
  0
TABLE
  2
VIEW
  5
746B
330
0
100
AcDbSymbolTable
 70
     0
  0
ENDTAB
  0
TABLE
  2
UCS
  5
746C
330
0
100
AcDbSymbolTable
 70
     0
  0
ENDTAB
  0
TABLE
  2
APPID
  5
746E
330
0
100
AcDbSymbolTable
 70
     6
  0
APPID
  5
7476
330
746E
100
AcDbSymbolTableRecord
100
AcDbRegAppTableRecord
  2
ACAD
 70
     0
  0
APPID
  5
DEA9
330
746E
100
AcDbSymbolTableRecord
100
AcDbRegAppTableRecord
  2
CONTENTBLOCKICON
 70
     0
  0
APPID
  5
DEAA
330
746E
100
AcDbSymbolTableRecord
100
AcDbRegAppTableRecord
  2
CONTENTBLOCKDESCRIPTION
 70
     0
  0
APPID
  5
E71D
330
746E
100
AcDbSymbolTableRecord
100
AcDbRegAppTableRecord
  2
CONTENTTABDATA
 70
     0
  0
APPID
  5
E71E
330
746E
100
AcDbSymbolTableRecord
100
AcDbRegAppTableRecord
  2
CONTENTCURRENTTAB
 70
     0
  0
APPID
  5
F3BA
330
746E
100
AcDbSymbolTableRecord
100
AcDbRegAppTableRecord
  2
DRAWINGVARIABLESXDATA
 70
     0
  0
ENDTAB
  0
TABLE
  2
DIMSTYLE
  5
746F
330
0
100
AcDbSymbolTable
 70
     3
100
AcDbDimStyleTable
 71
     1
340
F71F
  0
DIMSTYLE
105
7484
330
746F
100
AcDbSymbolTableRecord
100
AcDbDimStyleTableRecord
  2
JIS
 70
     0
 41
2.5
 42
1.0
 43
7.0
 44
1.0
 73
     0
 74
     0
 77
     1
 78
     8
140
2.5
141
0.0
143
0.0394
147
0.0
172
     1
174
     1
175
     1
340
7475
  0
DIMSTYLE
105
F71F
102
{ACAD_REACTORS
330
1DBE4
330
1DBE6
330
1DBE7
330
1DBEA
330
1DBF4
330
1DBF5
330
1DBF6
330
1DBFF
330
1DC06
330
1DC07
330
1DC0C
330
1DC16
330
1DC3B
330
1DC48
330
1DC49
330
1DC4E
330
1DC4F
330
1DC51
330
1DC52
330
1DC61
330
1DC62
330
1E0B9
330
1E67C
330
1EE56
102
}
330
746F
100
AcDbSymbolTableRecord
100
AcDbDimStyleTableRecord
  2
INABA_S50G
 70
     0
 41
125.0
 42
25.0
 43
7.0
 44
75.0
 73
     0
 74
     0
 77
     3
 78
     8
140
150.0
141
0.0
143
0.0394
147
25.0
172
     1
173
     1
174
     1
178
     7
271
     1
340
F706
341
F770
343
F770
344
F770
  0
DIMSTYLE
105
1E72F
102
{ACAD_REACTORS
330
1F1AF
330
1F1BE
330
1F1BF
330
1F1C7
330
1F1D7
330
1F1DC
330
1F1DE
102
}
330
746F
100
AcDbSymbolTableRecord
100
AcDbDimStyleTableRecord
  2
INABA_S50GUP
 70
     0
 41
125.0
 42
25.0
 43
7.0
 44
75.0
 73
     0
 74
     0
 77
     3
 78
     8
140
150.0
141
0.0
143
0.0394
147
25.0
172
     1
173
     1
174
     1
178
     7
271
     1
340
F706
341
F770
343
F770
344
F770
  0
ENDTAB
  0
TABLE
  2
BLOCK_RECORD
  5
7466
330
0
100
AcDbSymbolTable
 70
    35
  0
BLOCK_RECORD
  5
747D
330
7466
100
AcDbSymbolTableRecord
100
AcDbBlockTableRecord
  2
*MODEL_SPACE
340
1D6B7
  0
BLOCK_RECORD
  5
747A
330
7466
100
AcDbSymbolTableRecord
100
AcDbBlockTableRecord
  2
*PAPER_SPACE
340
1D6B8
  0
BLOCK_RECORD
  5
F770
330
7466
100
AcDbSymbolTableRecord
100
AcDbBlockTableRecord
  2
_DOTSMALL
340
0
102
{BLKREFS
331
1E05E
331
1E05F
331
1E09F
331
1E0A0
331
1EC81
331
1EC82
331
1EC8A
331
1EC8B
331
1EC93
331
1EC94
331
1EC9B
331
1EC9C
331
1ECA4
331
1ECA5
331
1ED4B
331
1ED4C
331
1ED5F
331
1ED60
331
1ED73
331
1ED74
331
1ED7C
331
1ED7D
331
1ED86
331
1ED87
331
1ED8E
331
1ED8F
331
1EDA2
331
1EDA3
331
1EDB6
331
1EDB7
331
1EDC7
331
1EDC8
331
1EDE5
331
1EDE6
331
1EDEF
331
1EDF0
331
1EE68
331
1EE69
331
1EE72
331
1EE73
331
1EE7C
331
1EE7D
331
1EE86
331
1EE87
331
1EE91
331
1EE92
331
1EF0A
331
1EF0B
331
1EF43
331
1EF44
331
1F3F4
331
1F3F5
331
1F3FE
331
1F3FF
331
1F407
331
1F408
331
1F410
331
1F411
331
1F419
331
1F41A
331
1F422
331
1F423
331
1F42B
331
1F42C
102
}
  0
BLOCK_RECORD
  5
1DD36
330
7466
100
AcDbSymbolTableRecord
100
AcDbBlockTableRecord
  2
*D1
340
0
  0
BLOCK_RECORD
  5
1DD42
330
7466
100
AcDbSymbolTableRecord
100
AcDbBlockTableRecord
  2
*D2
340
0
  0
BLOCK_RECORD
  5
1DD4D
330
7466
100
AcDbSymbolTableRecord
100
AcDbBlockTableRecord
  2
*D3
340
0
  0
BLOCK_RECORD
  5
1DD59
330
7466
100
AcDbSymbolTableRecord
100
AcDbBlockTableRecord
  2
*D4
340
0
  0
BLOCK_RECORD
  5
1DD65
330
7466
100
AcDbSymbolTableRecord
100
AcDbBlockTableRecord
  2
*D5
340
0
  0
BLOCK_RECORD
  5
1DD71
330
7466
100
AcDbSymbolTableRecord
100
AcDbBlockTableRecord
  2
*D6
340
0
  0
BLOCK_RECORD
  5
1DD7D
330
7466
100
AcDbSymbolTableRecord
100
AcDbBlockTableRecord
  2
*D7
340
0
  0
BLOCK_RECORD
  5
1DD89
330
7466
100
AcDbSymbolTableRecord
100
AcDbBlockTableRecord
  2
*D8
340
0
  0
BLOCK_RECORD
  5
1DD97
330
7466
100
AcDbSymbolTableRecord
100
AcDbBlockTableRecord
  2
*D9
340
0
  0
BLOCK_RECORD
  5
1DDA2
330
7466
100
AcDbSymbolTableRecord
100
AcDbBlockTableRecord
  2
*D10
340
0
  0
BLOCK_RECORD
  5
1DDBC
330
7466
100
AcDbSymbolTableRecord
100
AcDbBlockTableRecord
  2
*D11
340
0
  0
BLOCK_RECORD
  5
1DDC8
330
7466
100
AcDbSymbolTableRecord
100
AcDbBlockTableRecord
  2
*D12
340
0
  0
BLOCK_RECORD
  5
1DDD3
330
7466
100
AcDbSymbolTableRecord
100
AcDbBlockTableRecord
  2
*D13
340
0
  0
BLOCK_RECORD
  5
1DDDF
330
7466
100
AcDbSymbolTableRecord
100
AcDbBlockTableRecord
  2
*D14
340
0
  0
BLOCK_RECORD
  5
1DDEA
330
7466
100
AcDbSymbolTableRecord
100
AcDbBlockTableRecord
  2
*D15
340
0
  0
BLOCK_RECORD
  5
1DDF6
330
7466
100
AcDbSymbolTableRecord
100
AcDbBlockTableRecord
  2
*D16
340
0
  0
BLOCK_RECORD
  5
1DE03
330
7466
100
AcDbSymbolTableRecord
100
AcDbBlockTableRecord
  2
*D17
340
0
  0
BLOCK_RECORD
  5
1DE10
330
7466
100
AcDbSymbolTableRecord
100
AcDbBlockTableRecord
  2
*D18
340
0
  0
BLOCK_RECORD
  5
1DE1D
330
7466
100
AcDbSymbolTableRecord
100
AcDbBlockTableRecord
  2
*D19
340
0
  0
BLOCK_RECORD
  5
1DE2A
330
7466
100
AcDbSymbolTableRecord
100
AcDbBlockTableRecord
  2
*D20
340
0
  0
BLOCK_RECORD
  5
1DE37
330
7466
100
AcDbSymbolTableRecord
100
AcDbBlockTableRecord
  2
*D21
340
0
  0
BLOCK_RECORD
  5
1E0BA
330
7466
100
AcDbSymbolTableRecord
100
AcDbBlockTableRecord
  2
*D22
340
0
  0
BLOCK_RECORD
  5
1E67D
330
7466
100
AcDbSymbolTableRecord
100
AcDbBlockTableRecord
  2
*D23
340
0
  0
BLOCK_RECORD
  5
1EE39
330
7466
100
AcDbSymbolTableRecord
100
AcDbBlockTableRecord
  2
A$C4CA21720
340
0
  0
BLOCK_RECORD
  5
1EE59
330
7466
100
AcDbSymbolTableRecord
100
AcDbBlockTableRecord
  2
*D25
340
0
  0
BLOCK_RECORD
  5
1EE8C
330
7466
100
AcDbSymbolTableRecord
100
AcDbBlockTableRecord
  2
*D26
340
0
  0
BLOCK_RECORD
  5
1EE98
330
7466
100
AcDbSymbolTableRecord
100
AcDbBlockTableRecord
  2
A$C5AF22E4D
340
0
  0
BLOCK_RECORD
  5
1F39A
330
7466
100
AcDbSymbolTableRecord
100
AcDbBlockTableRecord
  2
*D28
340
0
  0
BLOCK_RECORD
  5
1F3A7
330
7466
100
AcDbSymbolTableRecord
100
AcDbBlockTableRecord
  2
*D29
340
0
  0
BLOCK_RECORD
  5
1F3B4
330
7466
100
AcDbSymbolTableRecord
100
AcDbBlockTableRecord
  2
*D30
340
0
  0
BLOCK_RECORD
  5
1F3C0
330
7466
100
AcDbSymbolTableRecord
100
AcDbBlockTableRecord
  2
*D31
340
0
  0
BLOCK_RECORD
  5
1F3CC
330
7466
100
AcDbSymbolTableRecord
100
AcDbBlockTableRecord
  2
*D32
340
0
  0
BLOCK_RECORD
  5
1F3D8
330
7466
100
AcDbSymbolTableRecord
100
AcDbBlockTableRecord
  2
*D33
340
0
  0
BLOCK_RECORD
  5
1F3E4
330
7466
100
AcDbSymbolTableRecord
100
AcDbBlockTableRecord
  2
*D34
340
0
  0
ENDTAB
  0
ENDSEC
  0
SECTION
  2
BLOCKS
  0
BLOCK
  5
7489
330
747D
100
AcDbEntity
  8
0
100
AcDbBlockBegin
  2
*MODEL_SPACE
 70
     0
 10
0.0
 20
0.0
 30
0.0
  3
*MODEL_SPACE
  1

  0
ENDBLK
  5
748A
330
747D
100
AcDbEntity
  8
0
100
AcDbBlockEnd
  0
BLOCK
  5
7487
330
747A
100
AcDbEntity
 67
     1
  8
0
100
AcDbBlockBegin
  2
*PAPER_SPACE
 70
     0
 10
0.0
 20
0.0
 30
0.0
  3
*PAPER_SPACE
  1

  0
ENDBLK
  5
7488
330
747A
100
AcDbEntity
 67
     1
  8
0
100
AcDbBlockEnd
  0
BLOCK
  5
F771
330
F770
100
AcDbEntity
  8
0
 48
50.0
100
AcDbBlockBegin
  2
_DOTSMALL
 70
     0
 10
0.0
 20
0.0
 30
0.0
  3
_DOTSMALL
  1

  0
LWPOLYLINE
  5
F772
330
F770
100
AcDbEntity
  8
0
  6
ByBlock
 62
     0
 48
50.0
100
AcDbPolyline
 90
        2
 70
     1
 43
0.5
 10
-0.0625
 20
0.0
 42
1.0
 10
0.0625
 20
0.0
 42
1.0
  0
ENDBLK
  5
F776
330
F770
100
AcDbEntity
  8
0
 48
50.0
100
AcDbBlockEnd
  0
BLOCK
  5
1DD40
330
1DD36
100
AcDbEntity
  8
0
 48
50.0
100
AcDbBlockBegin
  2
*D1
 70
     1
 10
0.0
 20
0.0
 30
0.0
  3
*D1
  1

  0
LINE
  5
1ED48
330
1DD36
100
AcDbEntity
  8
寸法
 62
     0
 48
50.0
370
    -2
100
AcDbLine
 10
10354.99166227189
 20
9007.310710222283
 30
0.0
 11
10354.99166227189
 21
10489.57385995246
 31
0.0
  0
LINE
  5
1ED49
330
1DD36
100
AcDbEntity
  8
寸法
 62
     0
 48
50.0
370
    -2
100
AcDbLine
 10
11589.99166227189
 20
9807.310710222282
 30
0.0
 11
11589.99166227189
 21
10489.57385995246
 31
0.0
  0
LINE
  5
1ED4A
330
1DD36
100
AcDbEntity
  8
寸法
 62
     0
 48
50.0
370
    -2
100
AcDbLine
 10
10354.99166227189
 20
10414.57385995246
 30
0.0
 11
11589.99166227189
 21
10414.57385995246
 31
0.0
  0
INSERT
  5
1ED4B
330
1DD36
100
AcDbEntity
  8
寸法
 62
     0
 48
50.0
370
    -2
100
AcDbBlockReference
  2
_DOTSMALL
 10
10354.99166227189
 20
10414.57385995246
 30
0.0
 41
125.0
 42
125.0
 43
125.0
 50
180.0
  0
INSERT
  5
1ED4C
330
1DD36
100
AcDbEntity
  8
寸法
 62
     0
 48
50.0
370
    -2
100
AcDbBlockReference
  2
_DOTSMALL
 10
11589.99166227189
 20
10414.57385995246
 30
0.0
 41
125.0
 42
125.0
 43
125.0
  0
MTEXT
  5
1ED4D
330
1DD36
100
AcDbEntity
  8
寸法
 62
     7
 48
50.0
100
AcDbMText
 10
10972.49166227189
 20
10514.58862373198
 30
0.0
 40
150.0
 41
0.0
 71
     5
 72
     1
  1
\A1;1235
  7
STYLE1
 73
     1
 44
1.0
1001
ACAD
1000
MTEXTBEGIN
1070
    73
1070
     1
1070
    44
1040
1.0
1070
    74
1070
     0
1000
MTEXTEND
  0
POINT
  5
1ED4E
330
1DD36
100
AcDbEntity
  8
DEFPOINTS
 62
     0
 48
50.0
100
AcDbPoint
 10
10354.99166227189
 20
8982.310710222282
 30
0.0
  0
POINT
  5
1ED4F
330
1DD36
100
AcDbEntity
  8
DEFPOINTS
 62
     0
 48
50.0
100
AcDbPoint
 10
11589.99166227189
 20
9782.310710222283
 30
0.0
  0
POINT
  5
1ED50
330
1DD36
100
AcDbEntity
  8
DEFPOINTS
 62
     0
 48
50.0
100
AcDbPoint
 10
11589.99166227189
 20
10414.57385995246
 30
0.0
  0
ENDBLK
  5
1DD41
330
1DD36
100
AcDbEntity
  8
0
 48
50.0
100
AcDbBlockEnd
  0
BLOCK
  5
1DD4B
330
1DD42
100
AcDbEntity
  8
0
 48
50.0
100
AcDbBlockBegin
  2
*D2
 70
     1
 10
0.0
 20
0.0
 30
0.0
  3
*D2
  1

  0
LINE
  5
1EDC5
330
1DD42
100
AcDbEntity
  8
寸法
 62
     0
 48
50.0
370
    -2
100
AcDbLine
 10
11524.99166227189
 20
7787.310710222282
 30
0.0
 11
11524.99166227189
 21
7217.614313849175
 31
0.0
  0
LINE
  5
1EDC6
330
1DD42
100
AcDbEntity
  8
寸法
 62
     0
 48
50.0
370
    -2
100
AcDbLine
 10
9184.991662271889
 20
7292.614313849175
 30
0.0
 11
11524.99166227189
 21
7292.614313849175
 31
0.0
  0
INSERT
  5
1EDC7
330
1DD42
100
AcDbEntity
  8
寸法
 62
     0
 48
50.0
370
    -2
100
AcDbBlockReference
  2
_DOTSMALL
 10
9184.991662271889
 20
7292.614313849175
 30
0.0
 41
125.0
 42
125.0
 43
125.0
 50
180.0
  0
INSERT
  5
1EDC8
330
1DD42
100
AcDbEntity
  8
寸法
 62
     0
 48
50.0
370
    -2
100
AcDbBlockReference
  2
_DOTSMALL
 10
11524.99166227189
 20
7292.614313849175
 30
0.0
 41
125.0
 42
125.0
 43
125.0
  0
MTEXT
  5
1EDC9
330
1DD42
100
AcDbEntity
  8
寸法
 62
     7
 48
50.0
100
AcDbMText
 10
10354.99166227189
 20
7392.629077628702
 30
0.0
 40
150.0
 41
0.0
 71
     5
 72
     1
  1
\A1;2340
  7
STYLE1
 73
     1
 44
1.0
1001
ACAD
1000
MTEXTBEGIN
1070
    73
1070
     1
1070
    44
1040
1.0
1070
    74
1070
     0
1000
MTEXTEND
  0
POINT
  5
1EDCA
330
1DD42
100
AcDbEntity
  8
DEFPOINTS
 62
     0
 48
50.0
100
AcDbPoint
 10
9184.991662271889
 20
7812.310710222281
 30
0.0
  0
POINT
  5
1EDCB
330
1DD42
100
AcDbEntity
  8
DEFPOINTS
 62
     0
 48
50.0
100
AcDbPoint
 10
11524.99166227189
 20
7812.310710222281
 30
0.0
  0
POINT
  5
1EDCC
330
1DD42
100
AcDbEntity
  8
DEFPOINTS
 62
     0
 48
50.0
100
AcDbPoint
 10
11524.99166227189
 20
7292.614313849175
 30
0.0
  0
ENDBLK
  5
1DD4C
330
1DD42
100
AcDbEntity
  8
0
 48
50.0
100
AcDbBlockEnd
  0
BLOCK
  5
1DD57
330
1DD4D
100
AcDbEntity
  8
0
 48
50.0
100
AcDbBlockBegin
  2
*D3
 70
     1
 10
0.0
 20
0.0
 30
0.0
  3
*D3
  1

  0
LINE
  5
1EE6F
330
1DD4D
100
AcDbEntity
  8
寸法
 62
     0
 48
50.0
370
    -2
100
AcDbLine
 10
9119.991662271889
 20
7802.310710222285
 30
0.0
 11
9119.991662271889
 21
6906.081370094104
 31
0.0
  0
LINE
  5
1EE70
330
1DD4D
100
AcDbEntity
  8
寸法
 62
     0
 48
50.0
370
    -2
100
AcDbLine
 10
11589.99166227189
 20
7867.310710222279
 30
0.0
 11
11589.99166227189
 21
6906.081370094104
 31
0.0
  0
LINE
  5
1EE71
330
1DD4D
100
AcDbEntity
  8
寸法
 62
     0
 48
50.0
370
    -2
100
AcDbLine
 10
9119.991662271889
 20
6981.081370094104
 30
0.0
 11
11589.99166227189
 21
6981.081370094104
 31
0.0
  0
INSERT
  5
1EE72
330
1DD4D
100
AcDbEntity
  8
寸法
 62
     0
 48
50.0
370
    -2
100
AcDbBlockReference
  2
_DOTSMALL
 10
9119.991662271889
 20
6981.081370094104
 30
0.0
 41
125.0
 42
125.0
 43
125.0
 50
180.0
  0
INSERT
  5
1EE73
330
1DD4D
100
AcDbEntity
  8
寸法
 62
     0
 48
50.0
370
    -2
100
AcDbBlockReference
  2
_DOTSMALL
 10
11589.99166227189
 20
6981.081370094104
 30
0.0
 41
125.0
 42
125.0
 43
125.0
  0
MTEXT
  5
1EE74
330
1DD4D
100
AcDbEntity
  8
寸法
 62
     7
 48
50.0
100
AcDbMText
 10
10354.99166227189
 20
7081.09613387363
 30
0.0
 40
150.0
 41
0.0
 71
     5
 72
     1
  1
\A1;2470
  7
STYLE1
 73
     1
 44
1.0
1001
ACAD
1000
MTEXTBEGIN
1070
    73
1070
     1
1070
    44
1040
1.0
1070
    74
1070
     0
1000
MTEXTEND
  0
POINT
  5
1EE75
330
1DD4D
100
AcDbEntity
  8
DEFPOINTS
 62
     0
 48
50.0
100
AcDbPoint
 10
9119.991662271889
 20
7827.310710222285
 30
0.0
  0
POINT
  5
1EE76
330
1DD4D
100
AcDbEntity
  8
DEFPOINTS
 62
     0
 48
50.0
100
AcDbPoint
 10
11589.99166227189
 20
7892.310710222279
 30
0.0
  0
POINT
  5
1EE77
330
1DD4D
100
AcDbEntity
  8
DEFPOINTS
 62
     0
 48
50.0
100
AcDbPoint
 10
11589.99166227189
 20
6981.081370094104
 30
0.0
  0
ENDBLK
  5
1DD58
330
1DD4D
100
AcDbEntity
  8
0
 48
50.0
100
AcDbBlockEnd
  0
BLOCK
  5
1DD63
330
1DD59
100
AcDbEntity
  8
0
 48
50.0
100
AcDbBlockBegin
  2
*D4
 70
     1
 10
0.0
 20
0.0
 30
0.0
  3
*D4
  1

  0
LINE
  5
1EF40
330
1DD59
100
AcDbEntity
  8
寸法
 62
     0
 48
50.0
370
    -2
100
AcDbLine
 10
9104.799443037146
 20
9762.456328471055
 30
0.0
 11
9006.787793085186
 21
9634.36702932749
 31
0.0
  0
LINE
  5
1EF41
330
1DD59
100
AcDbEntity
  8
寸法
 62
     0
 48
50.0
370
    -2
100
AcDbLine
 10
11574.79944303714
 20
7872.456328471057
 30
0.0
 11
11476.78779308519
 21
7744.367029327491
 31
0.0
  0
LINE
  5
1EF42
330
1DD59
100
AcDbEntity
  8
寸法
 62
     0
 48
50.0
370
    -2
100
AcDbLine
 10
9052.36445078942
 20
9693.930174581172
 30
0.0
 11
11522.36445078942
 21
7803.930174581171
 31
0.0
  0
INSERT
  5
1EF43
330
1DD59
100
AcDbEntity
  8
寸法
 62
     0
 48
50.0
370
    -2
100
AcDbBlockReference
  2
_DOTSMALL
 10
9052.36445078942
 20
9693.930174581172
 30
0.0
 41
125.0
 42
125.0
 43
125.0
 50
142.5774270892078
  0
INSERT
  5
1EF44
330
1DD59
100
AcDbEntity
  8
寸法
 62
     0
 48
50.0
370
    -2
100
AcDbBlockReference
  2
_DOTSMALL
 10
11522.36445078942
 20
7803.930174581171
 30
0.0
 41
125.0
 42
125.0
 43
125.0
 50
322.5774270892078
  0
MTEXT
  5
1EF45
330
1DD59
100
AcDbEntity
  8
寸法
 62
     7
 48
50.0
100
AcDbMText
 10
10645.75967952524
 20
8600.609319037079
 30
0.0
 40
150.0
 41
0.0
 71
     5
 72
     1
  1
\A1;3110.1
  7
STYLE1
 11
0.7941752700490812
 21
-0.6076887693897831
 31
0.0
 73
     1
 44
1.0
1001
ACAD
1000
MTEXTBEGIN
1070
    73
1070
     1
1070
    44
1040
1.0
1070
    74
1070
     0
1000
MTEXTEND
  0
POINT
  5
1EF46
330
1DD59
100
AcDbEntity
  8
DEFPOINTS
 62
     0
 48
50.0
100
AcDbPoint
 10
9119.991662271891
 20
9782.310710222283
 30
0.0
  0
POINT
  5
1EF47
330
1DD59
100
AcDbEntity
  8
DEFPOINTS
 62
     0
 48
50.0
100
AcDbPoint
 10
11589.99166227189
 20
7892.310710222284
 30
0.0
  0
POINT
  5
1EF48
330
1DD59
100
AcDbEntity
  8
DEFPOINTS
 62
     0
 48
50.0
100
AcDbPoint
 10
11522.36445078942
 20
7803.930174581171
 30
0.0
  0
ENDBLK
  5
1DD64
330
1DD59
100
AcDbEntity
  8
0
 48
50.0
100
AcDbBlockEnd
  0
BLOCK
  5
1DD6F
330
1DD65
100
AcDbEntity
  8
0
 48
50.0
100
AcDbBlockBegin
  2
*D5
 70
     1
 10
0.0
 20
0.0
 30
0.0
  3
*D5
  1

  0
LINE
  5
1E05B
330
1DD65
100
AcDbEntity
  8
寸法
 62
     0
 48
50.0
370
    -2
100
AcDbLine
 10
10229.99166227189
 20
9782.310710222283
 30
0.0
 11
10054.42093890865
 21
9782.310710222283
 31
0.0
  0
LINE
  5
1E05C
330
1DD65
100
AcDbEntity
  8
寸法
 62
     0
 48
50.0
370
    -2
100
AcDbLine
 10
10184.99166227189
 20
8837.310710222281
 30
0.0
 11
10054.42093890865
 21
8837.310710222281
 31
0.0
  0
LINE
  5
1E05D
330
1DD65
100
AcDbEntity
  8
寸法
 62
     0
 48
50.0
370
    -2
100
AcDbLine
 10
10129.42093890865
 20
9782.310710222283
 30
0.0
 11
10129.42093890865
 21
8837.310710222281
 31
0.0
  0
INSERT
  5
1E05E
330
1DD65
100
AcDbEntity
  8
寸法
 62
     0
 48
50.0
370
    -2
100
AcDbBlockReference
  2
_DOTSMALL
 10
10129.42093890865
 20
9782.310710222283
 30
0.0
 41
125.0
 42
125.0
 43
125.0
 50
90.0
  0
INSERT
  5
1E05F
330
1DD65
100
AcDbEntity
  8
寸法
 62
     0
 48
50.0
370
    -2
100
AcDbBlockReference
  2
_DOTSMALL
 10
10129.42093890865
 20
8837.310710222281
 30
0.0
 41
125.0
 42
125.0
 43
125.0
 50
270.0
  0
MTEXT
  5
1E060
330
1DD65
100
AcDbEntity
  8
寸法
 62
     7
 48
50.0
100
AcDbMText
 10
10029.42093890865
 20
9309.810710222285
 30
0.0
 40
150.0
 41
0.0
 71
     5
 72
     1
  1
\A1;945
  7
STYLE1
 11
0.0000000000000001
 21
1.0
 31
0.0
 73
     1
 44
1.0
1001
ACAD
1000
MTEXTBEGIN
1070
    73
1070
     1
1070
    44
1040
1.0
1070
    74
1070
     0
1000
MTEXTEND
  0
POINT
  5
1E061
330
1DD65
100
AcDbEntity
  8
DEFPOINTS
 62
     0
 48
50.0
100
AcDbPoint
 10
10254.99166227189
 20
9782.310710222283
 30
0.0
  0
POINT
  5
1E062
330
1DD65
100
AcDbEntity
  8
DEFPOINTS
 62
     0
 48
50.0
100
AcDbPoint
 10
10209.99166227189
 20
8837.310710222281
 30
0.0
  0
POINT
  5
1E063
330
1DD65
100
AcDbEntity
  8
DEFPOINTS
 62
     0
 48
50.0
100
AcDbPoint
 10
10129.42093890865
 20
8837.310710222281
 30
0.0
  0
ENDBLK
  5
1DD70
330
1DD65
100
AcDbEntity
  8
0
 48
50.0
100
AcDbBlockEnd
  0
BLOCK
  5
1DD7B
330
1DD71
100
AcDbEntity
  8
0
 48
50.0
100
AcDbBlockBegin
  2
*D6
 70
     1
 10
0.0
 20
0.0
 30
0.0
  3
*D6
  1

  0
LINE
  5
1ECA1
330
1DD71
100
AcDbEntity
  8
寸法
 62
     0
 48
50.0
370
    -2
100
AcDbLine
 10
9590.991662271891
 20
9272.310710222283
 30
0.0
 11
8293.991662271888
 21
9272.310710222283
 31
0.0
  0
LINE
  5
1ECA2
330
1DD71
100
AcDbEntity
  8
寸法
 62
     0
 48
50.0
370
    -2
100
AcDbLine
 10
9590.991662271891
 20
8837.310710222281
 30
0.0
 11
8293.991662271888
 21
8837.310710222281
 31
0.0
  0
LINE
  5
1ECA3
330
1DD71
100
AcDbEntity
  8
寸法
 62
     0
 48
50.0
370
    -2
100
AcDbLine
 10
8368.991662271888
 20
9272.310710222283
 30
0.0
 11
8368.991662271888
 21
8837.310710222281
 31
0.0
  0
INSERT
  5
1ECA4
330
1DD71
100
AcDbEntity
  8
寸法
 62
     0
 48
50.0
370
    -2
100
AcDbBlockReference
  2
_DOTSMALL
 10
8368.991662271888
 20
9272.310710222283
 30
0.0
 41
125.0
 42
125.0
 43
125.0
 50
90.0
  0
INSERT
  5
1ECA5
330
1DD71
100
AcDbEntity
  8
寸法
 62
     0
 48
50.0
370
    -2
100
AcDbBlockReference
  2
_DOTSMALL
 10
8368.991662271888
 20
8837.310710222281
 30
0.0
 41
125.0
 42
125.0
 43
125.0
 50
270.0
  0
MTEXT
  5
1ECA6
330
1DD71
100
AcDbEntity
  8
寸法
 62
     7
 48
50.0
100
AcDbMText
 10
8268.991662271886
 20
9054.810710222284
 30
0.0
 40
150.0
 41
0.0
 71
     5
 72
     1
  1
\A1;435
  7
STYLE1
 11
0.0000000000000001
 21
1.0
 31
0.0
 73
     1
 44
1.0
1001
ACAD
1000
MTEXTBEGIN
1070
    73
1070
     1
1070
    44
1040
1.0
1070
    74
1070
     0
1000
MTEXTEND
  0
POINT
  5
1ECA7
330
1DD71
100
AcDbEntity
  8
DEFPOINTS
 62
     0
 48
50.0
100
AcDbPoint
 10
9615.991662271891
 20
9272.310710222283
 30
0.0
  0
POINT
  5
1ECA8
330
1DD71
100
AcDbEntity
  8
DEFPOINTS
 62
     0
 48
50.0
100
AcDbPoint
 10
9615.991662271891
 20
8837.310710222281
 30
0.0
  0
POINT
  5
1ECA9
330
1DD71
100
AcDbEntity
  8
DEFPOINTS
 62
     0
 48
50.0
100
AcDbPoint
 10
8368.991662271888
 20
8837.310710222281
 30
0.0
  0
ENDBLK
  5
1DD7C
330
1DD71
100
AcDbEntity
  8
0
 48
50.0
100
AcDbBlockEnd
  0
BLOCK
  5
1DD87
330
1DD7D
100
AcDbEntity
  8
0
 48
50.0
100
AcDbBlockBegin
  2
*D7
 70
     1
 10
0.0
 20
0.0
 30
0.0
  3
*D7
  1

  0
LINE
  5
1EC87
330
1DD7D
100
AcDbEntity
  8
寸法
 62
     0
 48
50.0
370
    -2
100
AcDbLine
 10
9119.991662271889
 20
9807.310710222282
 30
0.0
 11
9119.991662271889
 21
10489.57385995246
 31
0.0
  0
LINE
  5
1EC88
330
1DD7D
100
AcDbEntity
  8
寸法
 62
     0
 48
50.0
370
    -2
100
AcDbLine
 10
10354.99166227189
 20
9007.310710222283
 30
0.0
 11
10354.99166227189
 21
10489.57385995246
 31
0.0
  0
LINE
  5
1EC89
330
1DD7D
100
AcDbEntity
  8
寸法
 62
     0
 48
50.0
370
    -2
100
AcDbLine
 10
9119.991662271889
 20
10414.57385995246
 30
0.0
 11
10354.99166227189
 21
10414.57385995246
 31
0.0
  0
INSERT
  5
1EC8A
330
1DD7D
100
AcDbEntity
  8
寸法
 62
     0
 48
50.0
370
    -2
100
AcDbBlockReference
  2
_DOTSMALL
 10
9119.991662271889
 20
10414.57385995246
 30
0.0
 41
125.0
 42
125.0
 43
125.0
 50
180.0
  0
INSERT
  5
1EC8B
330
1DD7D
100
AcDbEntity
  8
寸法
 62
     0
 48
50.0
370
    -2
100
AcDbBlockReference
  2
_DOTSMALL
 10
10354.99166227189
 20
10414.57385995246
 30
0.0
 41
125.0
 42
125.0
 43
125.0
  0
MTEXT
  5
1EC8C
330
1DD7D
100
AcDbEntity
  8
寸法
 62
     7
 48
50.0
100
AcDbMText
 10
9737.491662271889
 20
10514.58862373198
 30
0.0
 40
150.0
 41
0.0
 71
     5
 72
     1
  1
\A1;1235
  7
STYLE1
 73
     1
 44
1.0
1001
ACAD
1000
MTEXTBEGIN
1070
    73
1070
     1
1070
    44
1040
1.0
1070
    74
1070
     0
1000
MTEXTEND
  0
POINT
  5
1EC8D
330
1DD7D
100
AcDbEntity
  8
DEFPOINTS
 62
     0
 48
50.0
100
AcDbPoint
 10
9119.991662271889
 20
9782.310710222283
 30
0.0
  0
POINT
  5
1EC8E
330
1DD7D
100
AcDbEntity
  8
DEFPOINTS
 62
     0
 48
50.0
100
AcDbPoint
 10
10354.99166227189
 20
8982.310710222282
 30
0.0
  0
POINT
  5
1EC8F
330
1DD7D
100
AcDbEntity
  8
DEFPOINTS
 62
     0
 48
50.0
100
AcDbPoint
 10
10354.99166227189
 20
10414.57385995246
 30
0.0
  0
ENDBLK
  5
1DD88
330
1DD7D
100
AcDbEntity
  8
0
 48
50.0
100
AcDbBlockEnd
  0
BLOCK
  5
1DD95
330
1DD89
100
AcDbEntity
  8
0
 48
50.0
100
AcDbBlockBegin
  2
*D8
 70
     1
 10
0.0
 20
0.0
 30
0.0
  3
*D8
  1

  0
LINE
  5
1EE82
330
1DD89
100
AcDbEntity
  8
寸法
 62
     0
 48
50.0
370
    -2
100
AcDbLine
 10
9069.991662271888
 20
7267.614313849175
 30
0.0
 11
9069.991662271888
 21
6906.081370094104
 31
0.0
  0
LINE
  5
1EE83
330
1DD89
100
AcDbEntity
  8
寸法
 62
     0
 48
50.0
370
    -2
100
AcDbLine
 10
9119.991662271889
 20
7802.310710222285
 30
0.0
 11
9119.991662271889
 21
6906.081370094104
 31
0.0
  0
LINE
  5
1EE84
330
1DD89
100
AcDbEntity
  8
寸法
 62
     0
 48
50.0
370
    -2
100
AcDbLine
 10
9119.991662271889
 20
6981.081370094104
 30
0.0
 11
9069.991662271888
 21
6981.081370094104
 31
0.0
  0
LINE
  5
1EE85
330
1DD89
100
AcDbEntity
  8
寸法
 62
     0
 48
50.0
370
    -2
100
AcDbLine
 10
9069.991662271888
 20
6981.081370094104
 30
0.0
 11
8485.109772508108
 21
6981.081370094104
 31
0.0
  0
INSERT
  5
1EE86
330
1DD89
100
AcDbEntity
  8
寸法
 62
     0
 48
50.0
370
    -2
100
AcDbBlockReference
  2
_DOTSMALL
 10
9119.991662271889
 20
6981.081370094104
 30
0.0
 41
125.0
 42
125.0
 43
125.0
  0
INSERT
  5
1EE87
330
1DD89
100
AcDbEntity
  8
寸法
 62
     0
 48
50.0
370
    -2
100
AcDbBlockReference
  2
_DOTSMALL
 10
9069.991662271888
 20
6981.081370094104
 30
0.0
 41
125.0
 42
125.0
 43
125.0
 50
180.0
  0
MTEXT
  5
1EE88
330
1DD89
100
AcDbEntity
  8
寸法
 62
     7
 48
50.0
100
AcDbMText
 10
8652.550717389997
 20
7088.581370094104
 30
0.0
 40
150.0
 41
0.0
 71
     5
 72
     1
  1
\A1;(50)
  7
STYLE1
 73
     1
 44
1.0
1001
ACAD
1000
MTEXTBEGIN
1070
    73
1070
     1
1070
    44
1040
1.0
1070
    74
1070
     0
1000
MTEXTEND
  0
POINT
  5
1EE89
330
1DD89
100
AcDbEntity
  8
DEFPOINTS
 62
     0
 48
50.0
100
AcDbPoint
 10
9069.991662271888
 20
7292.614313849175
 30
0.0
  0
POINT
  5
1EE8A
330
1DD89
100
AcDbEntity
  8
DEFPOINTS
 62
     0
 48
50.0
100
AcDbPoint
 10
9119.991662271889
 20
7827.310710222285
 30
0.0
  0
POINT
  5
1EE8B
330
1DD89
100
AcDbEntity
  8
DEFPOINTS
 62
     0
 48
50.0
100
AcDbPoint
 10
9119.991662271889
 20
6981.081370094104
 30
0.0
  0
ENDBLK
  5
1DD96
330
1DD89
100
AcDbEntity
  8
0
 48
50.0
100
AcDbBlockEnd
  0
BLOCK
  5
1DDA0
330
1DD97
100
AcDbEntity
  8
0
 48
50.0
100
AcDbBlockBegin
  2
*D9
 70
     1
 10
0.0
 20
0.0
 30
0.0
  3
*D9
  1

  0
LINE
  5
1EC99
330
1DD97
100
AcDbEntity
  8
寸法
 62
     0
 48
50.0
370
    -2
100
AcDbLine
 10
9094.991662271889
 20
7892.310710222282
 30
0.0
 11
8293.991662271888
 21
7892.310710222282
 31
0.0
  0
LINE
  5
1EC9A
330
1DD97
100
AcDbEntity
  8
寸法
 62
     0
 48
50.0
370
    -2
100
AcDbLine
 10
8368.991662271888
 20
8402.310710222282
 30
0.0
 11
8368.991662271888
 21
7892.310710222282
 31
0.0
  0
INSERT
  5
1EC9B
330
1DD97
100
AcDbEntity
  8
寸法
 62
     0
 48
50.0
370
    -2
100
AcDbBlockReference
  2
_DOTSMALL
 10
8368.991662271888
 20
8402.310710222282
 30
0.0
 41
125.0
 42
125.0
 43
125.0
 50
90.0
  0
INSERT
  5
1EC9C
330
1DD97
100
AcDbEntity
  8
寸法
 62
     0
 48
50.0
370
    -2
100
AcDbBlockReference
  2
_DOTSMALL
 10
8368.991662271888
 20
7892.310710222282
 30
0.0
 41
125.0
 42
125.0
 43
125.0
 50
270.0
  0
MTEXT
  5
1EC9D
330
1DD97
100
AcDbEntity
  8
寸法
 62
     7
 48
50.0
100
AcDbMText
 10
8268.991662271886
 20
8147.310710222283
 30
0.0
 40
150.0
 41
0.0
 71
     5
 72
     1
  1
\A1;510
  7
STYLE1
 11
0.0000000000000001
 21
1.0
 31
0.0
 73
     1
 44
1.0
1001
ACAD
1000
MTEXTBEGIN
1070
    73
1070
     1
1070
    44
1040
1.0
1070
    74
1070
     0
1000
MTEXTEND
  0
POINT
  5
1EC9E
330
1DD97
100
AcDbEntity
  8
DEFPOINTS
 62
     0
 48
50.0
100
AcDbPoint
 10
9615.991662271891
 20
8402.310710222282
 30
0.0
  0
POINT
  5
1EC9F
330
1DD97
100
AcDbEntity
  8
DEFPOINTS
 62
     0
 48
50.0
100
AcDbPoint
 10
9119.991662271889
 20
7892.310710222282
 30
0.0
  0
POINT
  5
1ECA0
330
1DD97
100
AcDbEntity
  8
DEFPOINTS
 62
     0
 48
50.0
100
AcDbPoint
 10
8368.991662271888
 20
7892.310710222282
 30
0.0
  0
ENDBLK
  5
1DDA1
330
1DD97
100
AcDbEntity
  8
0
 48
50.0
100
AcDbBlockEnd
  0
BLOCK
  5
1DDAD
330
1DDA2
100
AcDbEntity
  8
0
 48
50.0
100
AcDbBlockBegin
  2
*D10
 70
     1
 10
0.0
 20
0.0
 30
0.0
  3
*D10
  1

  0
LINE
  5
1EE78
330
1DDA2
100
AcDbEntity
  8
寸法
 62
     0
 48
50.0
370
    -2
100
AcDbLine
 10
9119.991662271889
 20
7802.310710222285
 30
0.0
 11
9119.991662271889
 21
7217.614313849175
 31
0.0
  0
LINE
  5
1EE79
330
1DDA2
100
AcDbEntity
  8
寸法
 62
     0
 48
50.0
370
    -2
100
AcDbLine
 10
9184.991662271889
 20
7787.310710222282
 30
0.0
 11
9184.991662271889
 21
7217.614313849175
 31
0.0
  0
LINE
  5
1EE7A
330
1DDA2
100
AcDbEntity
  8
寸法
 62
     0
 48
50.0
370
    -2
100
AcDbLine
 10
9184.991662271889
 20
7292.614313849175
 30
0.0
 11
9119.991662271889
 21
7292.614313849175
 31
0.0
  0
LINE
  5
1EE7B
330
1DDA2
100
AcDbEntity
  8
寸法
 62
     0
 48
50.0
370
    -2
100
AcDbLine
 10
9119.991662271889
 20
7292.614313849175
 30
0.0
 11
8764.802080883535
 21
7292.614313849175
 31
0.0
  0
INSERT
  5
1EE7C
330
1DDA2
100
AcDbEntity
  8
寸法
 62
     0
 48
50.0
370
    -2
100
AcDbBlockReference
  2
_DOTSMALL
 10
9184.991662271889
 20
7292.614313849175
 30
0.0
 41
125.0
 42
125.0
 43
125.0
  0
INSERT
  5
1EE7D
330
1DDA2
100
AcDbEntity
  8
寸法
 62
     0
 48
50.0
370
    -2
100
AcDbBlockReference
  2
_DOTSMALL
 10
9119.991662271889
 20
7292.614313849175
 30
0.0
 41
125.0
 42
125.0
 43
125.0
 50
180.0
  0
MTEXT
  5
1EE7E
330
1DDA2
100
AcDbEntity
  8
寸法
 62
     7
 48
50.0
100
AcDbMText
 10
8879.896871577711
 20
7392.614313849175
 30
0.0
 40
150.0
 41
0.0
 71
     5
 72
     1
  1
\A1;65
  7
STYLE1
 73
     1
 44
1.0
1001
ACAD
1000
MTEXTBEGIN
1070
    73
1070
     1
1070
    44
1040
1.0
1070
    74
1070
     0
1000
MTEXTEND
  0
POINT
  5
1EE7F
330
1DDA2
100
AcDbEntity
  8
DEFPOINTS
 62
     0
 48
50.0
100
AcDbPoint
 10
9119.991662271889
 20
7827.310710222285
 30
0.0
  0
POINT
  5
1EE80
330
1DDA2
100
AcDbEntity
  8
DEFPOINTS
 62
     0
 48
50.0
100
AcDbPoint
 10
9184.991662271889
 20
7812.310710222281
 30
0.0
  0
POINT
  5
1EE81
330
1DDA2
100
AcDbEntity
  8
DEFPOINTS
 62
     0
 48
50.0
100
AcDbPoint
 10
9184.991662271889
 20
7292.614313849175
 30
0.0
  0
ENDBLK
  5
1DDAE
330
1DDA2
100
AcDbEntity
  8
0
 48
50.0
100
AcDbBlockEnd
  0
BLOCK
  5
1DDC6
330
1DDBC
100
AcDbEntity
  8
0
 48
50.0
100
AcDbBlockBegin
  2
*D11
 70
     1
 10
0.0
 20
0.0
 30
0.0
  3
*D11
  1

  0
LINE
  5
1EC90
330
1DDBC
100
AcDbEntity
  8
寸法
 62
     0
 48
50.0
370
    -2
100
AcDbLine
 10
9590.991662271891
 20
8837.310710222281
 30
0.0
 11
8293.991662271888
 21
8837.310710222281
 31
0.0
  0
LINE
  5
1EC91
330
1DDBC
100
AcDbEntity
  8
寸法
 62
     0
 48
50.0
370
    -2
100
AcDbLine
 10
9590.991662271891
 20
8402.310710222282
 30
0.0
 11
8293.991662271888
 21
8402.310710222282
 31
0.0
  0
LINE
  5
1EC92
330
1DDBC
100
AcDbEntity
  8
寸法
 62
     0
 48
50.0
370
    -2
100
AcDbLine
 10
8368.991662271888
 20
8837.310710222281
 30
0.0
 11
8368.991662271888
 21
8402.310710222282
 31
0.0
  0
INSERT
  5
1EC93
330
1DDBC
100
AcDbEntity
  8
寸法
 62
     0
 48
50.0
370
    -2
100
AcDbBlockReference
  2
_DOTSMALL
 10
8368.991662271888
 20
8837.310710222281
 30
0.0
 41
125.0
 42
125.0
 43
125.0
 50
90.0
  0
INSERT
  5
1EC94
330
1DDBC
100
AcDbEntity
  8
寸法
 62
     0
 48
50.0
370
    -2
100
AcDbBlockReference
  2
_DOTSMALL
 10
8368.991662271888
 20
8402.310710222282
 30
0.0
 41
125.0
 42
125.0
 43
125.0
 50
270.0
  0
MTEXT
  5
1EC95
330
1DDBC
100
AcDbEntity
  8
寸法
 62
     7
 48
50.0
100
AcDbMText
 10
8268.991662271886
 20
8619.810710222283
 30
0.0
 40
150.0
 41
0.0
 71
     5
 72
     1
  1
\A1;435
  7
STYLE1
 11
0.0000000000000001
 21
1.0
 31
0.0
 73
     1
 44
1.0
1001
ACAD
1000
MTEXTBEGIN
1070
    73
1070
     1
1070
    44
1040
1.0
1070
    74
1070
     0
1000
MTEXTEND
  0
POINT
  5
1EC96
330
1DDBC
100
AcDbEntity
  8
DEFPOINTS
 62
     0
 48
50.0
100
AcDbPoint
 10
9615.991662271891
 20
8837.310710222281
 30
0.0
  0
POINT
  5
1EC97
330
1DDBC
100
AcDbEntity
  8
DEFPOINTS
 62
     0
 48
50.0
100
AcDbPoint
 10
9615.991662271891
 20
8402.310710222282
 30
0.0
  0
POINT
  5
1EC98
330
1DDBC
100
AcDbEntity
  8
DEFPOINTS
 62
     0
 48
50.0
100
AcDbPoint
 10
8368.991662271888
 20
8402.310710222282
 30
0.0
  0
ENDBLK
  5
1DDC7
330
1DDBC
100
AcDbEntity
  8
0
 48
50.0
100
AcDbBlockEnd
  0
BLOCK
  5
1DDD1
330
1DDC8
100
AcDbEntity
  8
0
 48
50.0
100
AcDbBlockBegin
  2
*D12
 70
     1
 10
0.0
 20
0.0
 30
0.0
  3
*D12
  1

  0
LINE
  5
1E09D
330
1DDC8
100
AcDbEntity
  8
寸法
 62
     0
 48
50.0
370
    -2
100
AcDbLine
 10
10104.42093890865
 20
7892.310710222282
 30
0.0
 11
10054.42093890865
 21
7892.310710222282
 31
0.0
  0
LINE
  5
1E09E
330
1DDC8
100
AcDbEntity
  8
寸法
 62
     0
 48
50.0
370
    -2
100
AcDbLine
 10
10129.42093890865
 20
8837.310710222281
 30
0.0
 11
10129.42093890865
 21
7892.310710222282
 31
0.0
  0
INSERT
  5
1E09F
330
1DDC8
100
AcDbEntity
  8
寸法
 62
     0
 48
50.0
370
    -2
100
AcDbBlockReference
  2
_DOTSMALL
 10
10129.42093890865
 20
8837.310710222281
 30
0.0
 41
125.0
 42
125.0
 43
125.0
 50
90.0
  0
INSERT
  5
1E0A0
330
1DDC8
100
AcDbEntity
  8
寸法
 62
     0
 48
50.0
370
    -2
100
AcDbBlockReference
  2
_DOTSMALL
 10
10129.42093890865
 20
7892.310710222282
 30
0.0
 41
125.0
 42
125.0
 43
125.0
 50
270.0
  0
MTEXT
  5
1E0A1
330
1DDC8
100
AcDbEntity
  8
寸法
 62
     7
 48
50.0
100
AcDbMText
 10
10029.42093890865
 20
8364.810710222284
 30
0.0
 40
150.0
 41
0.0
 71
     5
 72
     1
  1
\A1;945
  7
STYLE1
 11
0.0000000000000001
 21
1.0
 31
0.0
 73
     1
 44
1.0
1001
ACAD
1000
MTEXTBEGIN
1070
    73
1070
     1
1070
    44
1040
1.0
1070
    74
1070
     0
1000
MTEXTEND
  0
POINT
  5
1E0A2
330
1DDC8
100
AcDbEntity
  8
DEFPOINTS
 62
     0
 48
50.0
100
AcDbPoint
 10
10209.99166227189
 20
8837.310710222281
 30
0.0
  0
POINT
  5
1E0A3
330
1DDC8
100
AcDbEntity
  8
DEFPOINTS
 62
     0
 48
50.0
100
AcDbPoint
 10
10129.42093890865
 20
7892.310710222282
 30
0.0
  0
POINT
  5
1E0A4
330
1DDC8
100
AcDbEntity
  8
DEFPOINTS
 62
     0
 48
50.0
100
AcDbPoint
 10
10129.42093890865
 20
7892.310710222282
 30
0.0
  0
ENDBLK
  5
1DDD2
330
1DDC8
100
AcDbEntity
  8
0
 48
50.0
100
AcDbBlockEnd
  0
BLOCK
  5
1DDDD
330
1DDD3
100
AcDbEntity
  8
0
 48
50.0
100
AcDbBlockBegin
  2
*D13
 70
     1
 10
0.0
 20
0.0
 30
0.0
  3
*D13
  1

  0
LINE
  5
1EC7E
330
1DDD3
100
AcDbEntity
  8
寸法
 62
     0
 48
50.0
370
    -2
100
AcDbLine
 10
9094.991662271889
 20
9782.310710222283
 30
0.0
 11
8293.991662271888
 21
9782.310710222283
 31
0.0
  0
LINE
  5
1EC7F
330
1DDD3
100
AcDbEntity
  8
寸法
 62
     0
 48
50.0
370
    -2
100
AcDbLine
 10
9590.991662271891
 20
9272.310710222283
 30
0.0
 11
8293.991662271888
 21
9272.310710222283
 31
0.0
  0
LINE
  5
1EC80
330
1DDD3
100
AcDbEntity
  8
寸法
 62
     0
 48
50.0
370
    -2
100
AcDbLine
 10
8368.991662271888
 20
9782.310710222283
 30
0.0
 11
8368.991662271888
 21
9272.310710222283
 31
0.0
  0
INSERT
  5
1EC81
330
1DDD3
100
AcDbEntity
  8
寸法
 62
     0
 48
50.0
370
    -2
100
AcDbBlockReference
  2
_DOTSMALL
 10
8368.991662271888
 20
9782.310710222283
 30
0.0
 41
125.0
 42
125.0
 43
125.0
 50
90.0
  0
INSERT
  5
1EC82
330
1DDD3
100
AcDbEntity
  8
寸法
 62
     0
 48
50.0
370
    -2
100
AcDbBlockReference
  2
_DOTSMALL
 10
8368.991662271888
 20
9272.310710222283
 30
0.0
 41
125.0
 42
125.0
 43
125.0
 50
270.0
  0
MTEXT
  5
1EC83
330
1DDD3
100
AcDbEntity
  8
寸法
 62
     7
 48
50.0
100
AcDbMText
 10
8268.991662271886
 20
9527.310710222284
 30
0.0
 40
150.0
 41
0.0
 71
     5
 72
     1
  1
\A1;510
  7
STYLE1
 11
0.0000000000000001
 21
1.0
 31
0.0
 73
     1
 44
1.0
1001
ACAD
1000
MTEXTBEGIN
1070
    73
1070
     1
1070
    44
1040
1.0
1070
    74
1070
     0
1000
MTEXTEND
  0
POINT
  5
1EC84
330
1DDD3
100
AcDbEntity
  8
DEFPOINTS
 62
     0
 48
50.0
100
AcDbPoint
 10
9119.991662271889
 20
9782.310710222283
 30
0.0
  0
POINT
  5
1EC85
330
1DDD3
100
AcDbEntity
  8
DEFPOINTS
 62
     0
 48
50.0
100
AcDbPoint
 10
9615.991662271891
 20
9272.310710222283
 30
0.0
  0
POINT
  5
1EC86
330
1DDD3
100
AcDbEntity
  8
DEFPOINTS
 62
     0
 48
50.0
100
AcDbPoint
 10
8368.991662271888
 20
9272.310710222283
 30
0.0
  0
ENDBLK
  5
1DDDE
330
1DDD3
100
AcDbEntity
  8
0
 48
50.0
100
AcDbBlockEnd
  0
BLOCK
  5
1DDE8
330
1DDDF
100
AcDbEntity
  8
0
 48
50.0
100
AcDbBlockBegin
  2
*D14
 70
     1
 10
0.0
 20
0.0
 30
0.0
  3
*D14
  1

  0
LINE
  5
1ED8C
330
1DDDF
100
AcDbEntity
  8
寸法
 62
     0
 48
50.0
370
    -2
100
AcDbLine
 10
11694.99166227189
 20
7957.310710222282
 30
0.0
 11
12195.05988643595
 21
7957.310710222282
 31
0.0
  0
LINE
  5
1ED8D
330
1DDDF
100
AcDbEntity
  8
寸法
 62
     0
 48
50.0
370
    -2
100
AcDbLine
 10
12120.05988643595
 20
9717.310710222283
 30
0.0
 11
12120.05988643595
 21
7957.310710222282
 31
0.0
  0
INSERT
  5
1ED8E
330
1DDDF
100
AcDbEntity
  8
寸法
 62
     0
 48
50.0
370
    -2
100
AcDbBlockReference
  2
_DOTSMALL
 10
12120.05988643595
 20
9717.310710222283
 30
0.0
 41
125.0
 42
125.0
 43
125.0
 50
90.0
  0
INSERT
  5
1ED8F
330
1DDDF
100
AcDbEntity
  8
寸法
 62
     0
 48
50.0
370
    -2
100
AcDbBlockReference
  2
_DOTSMALL
 10
12120.05988643595
 20
7957.310710222282
 30
0.0
 41
125.0
 42
125.0
 43
125.0
 50
270.0
  0
MTEXT
  5
1ED90
330
1DDDF
100
AcDbEntity
  8
寸法
 62
     7
 48
50.0
100
AcDbMText
 10
12020.05988643595
 20
8837.310710222284
 30
0.0
 40
150.0
 41
0.0
 71
     5
 72
     1
  1
\A1;1760
  7
STYLE1
 11
0.0000000000000001
 21
1.0
 31
0.0
 73
     1
 44
1.0
1001
ACAD
1000
MTEXTBEGIN
1070
    73
1070
     1
1070
    44
1040
1.0
1070
    74
1070
     0
1000
MTEXTEND
  0
POINT
  5
1ED91
330
1DDDF
100
AcDbEntity
  8
DEFPOINTS
 62
     0
 48
50.0
100
AcDbPoint
 10
11669.99166227189
 20
9717.310710222283
 30
0.0
  0
POINT
  5
1ED92
330
1DDDF
100
AcDbEntity
  8
DEFPOINTS
 62
     0
 48
50.0
100
AcDbPoint
 10
11669.99166227189
 20
7957.310710222282
 30
0.0
  0
POINT
  5
1ED93
330
1DDDF
100
AcDbEntity
  8
DEFPOINTS
 62
     0
 48
50.0
100
AcDbPoint
 10
12120.05988643595
 20
7957.310710222282
 30
0.0
  0
ENDBLK
  5
1DDE9
330
1DDDF
100
AcDbEntity
  8
0
 48
50.0
100
AcDbBlockEnd
  0
BLOCK
  5
1DDF4
330
1DDEA
100
AcDbEntity
  8
0
 48
50.0
100
AcDbBlockBegin
  2
*D15
 70
     1
 10
0.0
 20
0.0
 30
0.0
  3
*D15
  1

  0
LINE
  5
1ED79
330
1DDEA
100
AcDbEntity
  8
寸法
 62
     0
 48
50.0
370
    -2
100
AcDbLine
 10
11614.99166227189
 20
7892.310710222282
 30
0.0
 11
12515.99166227189
 21
7892.310710222282
 31
0.0
  0
LINE
  5
1ED7A
330
1DDEA
100
AcDbEntity
  8
寸法
 62
     0
 48
50.0
370
    -2
100
AcDbLine
 10
11614.99166227189
 20
9782.310710222283
 30
0.0
 11
12515.99166227189
 21
9782.310710222281
 31
0.0
  0
LINE
  5
1ED7B
330
1DDEA
100
AcDbEntity
  8
寸法
 62
     0
 48
50.0
370
    -2
100
AcDbLine
 10
12440.99166227189
 20
7892.310710222282
 30
0.0
 11
12440.99166227189
 21
9782.310710222281
 31
0.0
  0
INSERT
  5
1ED7C
330
1DDEA
100
AcDbEntity
  8
寸法
 62
     0
 48
50.0
370
    -2
100
AcDbBlockReference
  2
_DOTSMALL
 10
12440.99166227189
 20
7892.310710222282
 30
0.0
 41
125.0
 42
125.0
 43
125.0
 50
270.0
  0
INSERT
  5
1ED7D
330
1DDEA
100
AcDbEntity
  8
寸法
 62
     0
 48
50.0
370
    -2
100
AcDbBlockReference
  2
_DOTSMALL
 10
12440.99166227189
 20
9782.310710222281
 30
0.0
 41
125.0
 42
125.0
 43
125.0
 50
90.0
  0
MTEXT
  5
1ED7E
330
1DDEA
100
AcDbEntity
  8
寸法
 62
     7
 48
50.0
100
AcDbMText
 10
12340.99166227188
 20
8837.310710222284
 30
0.0
 40
150.0
 41
0.0
 71
     5
 72
     1
  1
\A1;1890
  7
STYLE1
 11
0.0000000000000001
 21
1.0
 31
0.0
 73
     1
 44
1.0
1001
ACAD
1000
MTEXTBEGIN
1070
    73
1070
     1
1070
    44
1040
1.0
1070
    74
1070
     0
1000
MTEXTEND
  0
POINT
  5
1ED7F
330
1DDEA
100
AcDbEntity
  8
DEFPOINTS
 62
     0
 48
50.0
100
AcDbPoint
 10
11589.99166227189
 20
7892.310710222282
 30
0.0
  0
POINT
  5
1ED80
330
1DDEA
100
AcDbEntity
  8
DEFPOINTS
 62
     0
 48
50.0
100
AcDbPoint
 10
11589.99166227189
 20
9782.310710222283
 30
0.0
  0
POINT
  5
1ED81
330
1DDEA
100
AcDbEntity
  8
DEFPOINTS
 62
     0
 48
50.0
100
AcDbPoint
 10
12440.99166227189
 20
9782.310710222281
 30
0.0
  0
ENDBLK
  5
1DDF5
330
1DDEA
100
AcDbEntity
  8
0
 48
50.0
100
AcDbBlockEnd
  0
BLOCK
  5
1DE01
330
1DDF6
100
AcDbEntity
  8
0
 48
50.0
100
AcDbBlockBegin
  2
*D16
 70
     1
 10
0.0
 20
0.0
 30
0.0
  3
*D16
  1

  0
LINE
  5
1EDEB
330
1DDF6
100
AcDbEntity
  8
寸法
 62
     0
 48
50.0
370
    -2
100
AcDbLine
 10
11589.99166227189
 20
7867.310710222279
 30
0.0
 11
11589.99166227189
 21
6906.081370094104
 31
0.0
  0
LINE
  5
1EDEC
330
1DDF6
100
AcDbEntity
  8
寸法
 62
     0
 48
50.0
370
    -2
100
AcDbLine
 10
11639.99166227189
 20
7267.614313849175
 30
0.0
 11
11639.99166227189
 21
6906.081370094104
 31
0.0
  0
LINE
  5
1EDED
330
1DDF6
100
AcDbEntity
  8
寸法
 62
     0
 48
50.0
370
    -2
100
AcDbLine
 10
11589.99166227189
 20
6981.081370094104
 30
0.0
 11
11639.99166227189
 21
6981.081370094104
 31
0.0
  0
LINE
  5
1EDEE
330
1DDF6
100
AcDbEntity
  8
寸法
 62
     0
 48
50.0
370
    -2
100
AcDbLine
 10
11639.99166227189
 20
6981.081370094104
 30
0.0
 11
12099.87355203567
 21
6981.081370094104
 31
0.0
  0
INSERT
  5
1EDEF
330
1DDF6
100
AcDbEntity
  8
寸法
 62
     0
 48
50.0
370
    -2
100
AcDbBlockReference
  2
_DOTSMALL
 10
11589.99166227189
 20
6981.081370094104
 30
0.0
 41
125.0
 42
125.0
 43
125.0
 50
180.0
  0
INSERT
  5
1EDF0
330
1DDF6
100
AcDbEntity
  8
寸法
 62
     0
 48
50.0
370
    -2
100
AcDbBlockReference
  2
_DOTSMALL
 10
11639.99166227189
 20
6981.081370094104
 30
0.0
 41
125.0
 42
125.0
 43
125.0
  0
MTEXT
  5
1EDF1
330
1DDF6
100
AcDbEntity
  8
寸法
 62
     7
 48
50.0
100
AcDbMText
 10
11932.43260715378
 20
7088.581370094104
 30
0.0
 40
150.0
 41
0.0
 71
     5
 72
     1
  1
\A1;(50)
  7
STYLE1
 73
     1
 44
1.0
1001
ACAD
1000
MTEXTBEGIN
1070
    73
1070
     1
1070
    44
1040
1.0
1070
    74
1070
     0
1000
MTEXTEND
  0
POINT
  5
1EDF2
330
1DDF6
100
AcDbEntity
  8
DEFPOINTS
 62
     0
 48
50.0
100
AcDbPoint
 10
11589.99166227189
 20
7892.310710222279
 30
0.0
  0
POINT
  5
1EDF3
330
1DDF6
100
AcDbEntity
  8
DEFPOINTS
 62
     0
 48
50.0
100
AcDbPoint
 10
11639.99166227189
 20
7292.614313849175
 30
0.0
  0
POINT
  5
1EDF4
330
1DDF6
100
AcDbEntity
  8
DEFPOINTS
 62
     0
 48
50.0
100
AcDbPoint
 10
11639.99166227189
 20
6981.081370094104
 30
0.0
  0
ENDBLK
  5
1DE02
330
1DDF6
100
AcDbEntity
  8
0
 48
50.0
100
AcDbBlockEnd
  0
BLOCK
  5
1DE0E
330
1DE03
100
AcDbEntity
  8
0
 48
50.0
100
AcDbBlockBegin
  2
*D17
 70
     1
 10
0.0
 20
0.0
 30
0.0
  3
*D17
  1

  0
LINE
  5
1ED5B
330
1DE03
100
AcDbEntity
  8
寸法
 62
     0
 48
50.0
370
    -2
100
AcDbLine
 10
11614.99166227189
 20
7892.310710222282
 30
0.0
 11
12515.99166227189
 21
7892.310710222282
 31
0.0
  0
LINE
  5
1ED5C
330
1DE03
100
AcDbEntity
  8
寸法
 62
     0
 48
50.0
370
    -2
100
AcDbLine
 10
12145.05988643595
 20
7762.310710222282
 30
0.0
 11
12515.99166227189
 21
7762.310710222282
 31
0.0
  0
LINE
  5
1ED5D
330
1DE03
100
AcDbEntity
  8
寸法
 62
     0
 48
50.0
370
    -2
100
AcDbLine
 10
12440.99166227189
 20
7892.310710222282
 30
0.0
 11
12440.99166227189
 21
7762.310710222282
 31
0.0
  0
LINE
  5
1ED5E
330
1DE03
100
AcDbEntity
  8
寸法
 62
     0
 48
50.0
370
    -2
100
AcDbLine
 10
12440.99166227189
 20
7762.310710222282
 30
0.0
 11
12440.99166227189
 21
7226.428820458503
 31
0.0
  0
INSERT
  5
1ED5F
330
1DE03
100
AcDbEntity
  8
寸法
 62
     0
 48
50.0
370
    -2
100
AcDbBlockReference
  2
_DOTSMALL
 10
12440.99166227189
 20
7892.310710222282
 30
0.0
 41
125.0
 42
125.0
 43
125.0
 50
90.0
  0
INSERT
  5
1ED60
330
1DE03
100
AcDbEntity
  8
寸法
 62
     0
 48
50.0
370
    -2
100
AcDbBlockReference
  2
_DOTSMALL
 10
12440.99166227189
 20
7762.310710222282
 30
0.0
 41
125.0
 42
125.0
 43
125.0
 50
270.0
  0
MTEXT
  5
1ED61
330
1DE03
100
AcDbEntity
  8
寸法
 62
     7
 48
50.0
100
AcDbMText
 10
12333.49166227189
 20
7431.369765340395
 30
0.0
 40
150.0
 41
0.0
 71
     5
 72
     1
  1
\A1;(130)
  7
STYLE1
 11
0.0000000000000001
 21
1.0
 31
0.0
 73
     1
 44
1.0
1001
ACAD
1000
MTEXTBEGIN
1070
    73
1070
     1
1070
    44
1040
1.0
1070
    74
1070
     0
1000
MTEXTEND
  0
POINT
  5
1ED62
330
1DE03
100
AcDbEntity
  8
DEFPOINTS
 62
     0
 48
50.0
100
AcDbPoint
 10
11589.99166227189
 20
7892.310710222282
 30
0.0
  0
POINT
  5
1ED63
330
1DE03
100
AcDbEntity
  8
DEFPOINTS
 62
     0
 48
50.0
100
AcDbPoint
 10
12120.05988643595
 20
7762.310710222282
 30
0.0
  0
POINT
  5
1ED64
330
1DE03
100
AcDbEntity
  8
DEFPOINTS
 62
     0
 48
50.0
100
AcDbPoint
 10
12440.99166227189
 20
7762.310710222282
 30
0.0
  0
ENDBLK
  5
1DE0F
330
1DE03
100
AcDbEntity
  8
0
 48
50.0
100
AcDbBlockEnd
  0
BLOCK
  5
1DE1B
330
1DE10
100
AcDbEntity
  8
0
 48
50.0
100
AcDbBlockBegin
  2
*D18
 70
     1
 10
0.0
 20
0.0
 30
0.0
  3
*D18
  1

  0
LINE
  5
1ED82
330
1DE10
100
AcDbEntity
  8
寸法
 62
     0
 48
50.0
370
    -2
100
AcDbLine
 10
11694.99166227189
 20
7957.310710222282
 30
0.0
 11
12195.05988643596
 21
7957.310710222282
 31
0.0
  0
LINE
  5
1ED83
330
1DE10
100
AcDbEntity
  8
寸法
 62
     0
 48
50.0
370
    -2
100
AcDbLine
 10
11614.99166227189
 20
7892.310710222282
 30
0.0
 11
12195.05988643596
 21
7892.310710222282
 31
0.0
  0
LINE
  5
1ED84
330
1DE10
100
AcDbEntity
  8
寸法
 62
     0
 48
50.0
370
    -2
100
AcDbLine
 10
12120.05988643596
 20
7957.310710222282
 30
0.0
 11
12120.05988643596
 21
7892.310710222282
 31
0.0
  0
LINE
  5
1ED85
330
1DE10
100
AcDbEntity
  8
寸法
 62
     0
 48
50.0
370
    -2
100
AcDbLine
 10
12120.05988643596
 20
7892.310710222282
 30
0.0
 11
12120.05988643596
 21
7537.121128833927
 31
0.0
  0
INSERT
  5
1ED86
330
1DE10
100
AcDbEntity
  8
寸法
 62
     0
 48
50.0
370
    -2
100
AcDbBlockReference
  2
_DOTSMALL
 10
12120.05988643596
 20
7957.310710222282
 30
0.0
 41
125.0
 42
125.0
 43
125.0
 50
90.0
  0
INSERT
  5
1ED87
330
1DE10
100
AcDbEntity
  8
寸法
 62
     0
 48
50.0
370
    -2
100
AcDbBlockReference
  2
_DOTSMALL
 10
12120.05988643596
 20
7892.310710222282
 30
0.0
 41
125.0
 42
125.0
 43
125.0
 50
270.0
  0
MTEXT
  5
1ED88
330
1DE10
100
AcDbEntity
  8
寸法
 62
     7
 48
50.0
100
AcDbMText
 10
12020.05988643595
 20
7652.215919528103
 30
0.0
 40
150.0
 41
0.0
 71
     5
 72
     1
  1
\A1;65
  7
STYLE1
 11
0.0000000000000001
 21
1.0
 31
0.0
 73
     1
 44
1.0
1001
ACAD
1000
MTEXTBEGIN
1070
    73
1070
     1
1070
    44
1040
1.0
1070
    74
1070
     0
1000
MTEXTEND
  0
POINT
  5
1ED89
330
1DE10
100
AcDbEntity
  8
DEFPOINTS
 62
     0
 48
50.0
100
AcDbPoint
 10
11669.99166227189
 20
7957.310710222282
 30
0.0
  0
POINT
  5
1ED8A
330
1DE10
100
AcDbEntity
  8
DEFPOINTS
 62
     0
 48
50.0
100
AcDbPoint
 10
11589.99166227189
 20
7892.310710222282
 30
0.0
  0
POINT
  5
1ED8B
330
1DE10
100
AcDbEntity
  8
DEFPOINTS
 62
     0
 48
50.0
100
AcDbPoint
 10
12120.05988643596
 20
7892.310710222282
 30
0.0
  0
ENDBLK
  5
1DE1C
330
1DE10
100
AcDbEntity
  8
0
 48
50.0
100
AcDbBlockEnd
  0
BLOCK
  5
1DE28
330
1DE1D
100
AcDbEntity
  8
0
 48
50.0
100
AcDbBlockBegin
  2
*D19
 70
     1
 10
0.0
 20
0.0
 30
0.0
  3
*D19
  1

  0
LINE
  5
1EDE1
330
1DE1D
100
AcDbEntity
  8
寸法
 62
     0
 48
50.0
370
    -2
100
AcDbLine
 10
11524.99166227189
 20
7787.310710222282
 30
0.0
 11
11524.99166227189
 21
7217.614313849175
 31
0.0
  0
LINE
  5
1EDE2
330
1DE1D
100
AcDbEntity
  8
寸法
 62
     0
 48
50.0
370
    -2
100
AcDbLine
 10
11589.99166227189
 20
7867.310710222283
 30
0.0
 11
11589.99166227189
 21
7217.614313849175
 31
0.0
  0
LINE
  5
1EDE3
330
1DE1D
100
AcDbEntity
  8
寸法
 62
     0
 48
50.0
370
    -2
100
AcDbLine
 10
11524.99166227189
 20
7292.614313849175
 30
0.0
 11
11589.99166227189
 21
7292.614313849175
 31
0.0
  0
LINE
  5
1EDE4
330
1DE1D
100
AcDbEntity
  8
寸法
 62
     0
 48
50.0
370
    -2
100
AcDbLine
 10
11589.99166227189
 20
7292.614313849175
 30
0.0
 11
11945.18124366024
 21
7292.614313849175
 31
0.0
  0
INSERT
  5
1EDE5
330
1DE1D
100
AcDbEntity
  8
寸法
 62
     0
 48
50.0
370
    -2
100
AcDbBlockReference
  2
_DOTSMALL
 10
11524.99166227189
 20
7292.614313849175
 30
0.0
 41
125.0
 42
125.0
 43
125.0
 50
180.0
  0
INSERT
  5
1EDE6
330
1DE1D
100
AcDbEntity
  8
寸法
 62
     0
 48
50.0
370
    -2
100
AcDbBlockReference
  2
_DOTSMALL
 10
11589.99166227189
 20
7292.614313849175
 30
0.0
 41
125.0
 42
125.0
 43
125.0
  0
MTEXT
  5
1EDE7
330
1DE1D
100
AcDbEntity
  8
寸法
 62
     7
 48
50.0
100
AcDbMText
 10
11830.08645296606
 20
7392.614313849175
 30
0.0
 40
150.0
 41
0.0
 71
     5
 72
     1
  1
\A1;65
  7
STYLE1
 73
     1
 44
1.0
1001
ACAD
1000
MTEXTBEGIN
1070
    73
1070
     1
1070
    44
1040
1.0
1070
    74
1070
     0
1000
MTEXTEND
  0
POINT
  5
1EDE8
330
1DE1D
100
AcDbEntity
  8
DEFPOINTS
 62
     0
 48
50.0
100
AcDbPoint
 10
11524.99166227189
 20
7812.310710222281
 30
0.0
  0
POINT
  5
1EDE9
330
1DE1D
100
AcDbEntity
  8
DEFPOINTS
 62
     0
 48
50.0
100
AcDbPoint
 10
11589.99166227189
 20
7892.310710222282
 30
0.0
  0
POINT
  5
1EDEA
330
1DE1D
100
AcDbEntity
  8
DEFPOINTS
 62
     0
 48
50.0
100
AcDbPoint
 10
11589.99166227189
 20
7292.614313849175
 30
0.0
  0
ENDBLK
  5
1DE29
330
1DE1D
100
AcDbEntity
  8
0
 48
50.0
100
AcDbBlockEnd
  0
BLOCK
  5
1DE35
330
1DE2A
100
AcDbEntity
  8
0
 48
50.0
100
AcDbBlockBegin
  2
*D20
 70
     1
 10
0.0
 20
0.0
 30
0.0
  3
*D20
  1

  0
LINE
  5
1ED9E
330
1DE2A
100
AcDbEntity
  8
寸法
 62
     0
 48
50.0
370
    -2
100
AcDbLine
 10
11614.99166227189
 20
9782.310710222283
 30
0.0
 11
12515.99166227189
 21
9782.310710222281
 31
0.0
  0
LINE
  5
1ED9F
330
1DE2A
100
AcDbEntity
  8
寸法
 62
     0
 48
50.0
370
    -2
100
AcDbLine
 10
12145.05988643595
 20
9872.310710222279
 30
0.0
 11
12515.99166227189
 21
9872.310710222278
 31
0.0
  0
LINE
  5
1EDA0
330
1DE2A
100
AcDbEntity
  8
寸法
 62
     0
 48
50.0
370
    -2
100
AcDbLine
 10
12440.99166227189
 20
9782.310710222281
 30
0.0
 11
12440.99166227189
 21
9872.310710222278
 31
0.0
  0
LINE
  5
1EDA1
330
1DE2A
100
AcDbEntity
  8
寸法
 62
     0
 48
50.0
370
    -2
100
AcDbLine
 10
12440.99166227189
 20
9872.310710222278
 30
0.0
 11
12440.99166227189
 21
10333.7167495602
 31
0.0
  0
INSERT
  5
1EDA2
330
1DE2A
100
AcDbEntity
  8
寸法
 62
     0
 48
50.0
370
    -2
100
AcDbBlockReference
  2
_DOTSMALL
 10
12440.99166227189
 20
9782.310710222281
 30
0.0
 41
125.0
 42
125.0
 43
125.0
 50
270.0
  0
INSERT
  5
1EDA3
330
1DE2A
100
AcDbEntity
  8
寸法
 62
     0
 48
50.0
370
    -2
100
AcDbBlockReference
  2
_DOTSMALL
 10
12440.99166227189
 20
9872.310710222278
 30
0.0
 41
125.0
 42
125.0
 43
125.0
 50
90.0
  0
MTEXT
  5
1EDA4
330
1DE2A
100
AcDbEntity
  8
寸法
 62
     7
 48
50.0
100
AcDbMText
 10
12333.45541034541
 20
10166.01372989124
 30
0.0
 40
150.0
 41
0.0
 71
     5
 72
     1
  1
\A1;(90)
  7
STYLE1
 11
0.0000000000000001
 21
1.0
 31
0.0
 73
     1
 44
1.0
1001
ACAD
1000
MTEXTBEGIN
1070
    73
1070
     1
1070
    44
1040
1.0
1070
    74
1070
     0
1000
MTEXTEND
  0
POINT
  5
1EDA5
330
1DE2A
100
AcDbEntity
  8
DEFPOINTS
 62
     0
 48
50.0
100
AcDbPoint
 10
11589.99166227189
 20
9782.310710222283
 30
0.0
  0
POINT
  5
1EDA6
330
1DE2A
100
AcDbEntity
  8
DEFPOINTS
 62
     0
 48
50.0
100
AcDbPoint
 10
12120.05988643595
 20
9872.310710222279
 30
0.0
  0
POINT
  5
1EDA7
330
1DE2A
100
AcDbEntity
  8
DEFPOINTS
 62
     0
 48
50.0
100
AcDbPoint
 10
12440.99166227189
 20
9872.310710222278
 30
0.0
  0
ENDBLK
  5
1DE36
330
1DE2A
100
AcDbEntity
  8
0
 48
50.0
100
AcDbBlockEnd
  0
BLOCK
  5
1DE42
330
1DE37
100
AcDbEntity
  8
0
 48
50.0
100
AcDbBlockBegin
  2
*D21
 70
     1
 10
0.0
 20
0.0
 30
0.0
  3
*D21
  1

  0
LINE
  5
1ED6F
330
1DE37
100
AcDbEntity
  8
寸法
 62
     0
 48
50.0
370
    -2
100
AcDbLine
 10
11614.99166227189
 20
9782.310710222283
 30
0.0
 11
12195.05988643596
 21
9782.310710222283
 31
0.0
  0
LINE
  5
1ED70
330
1DE37
100
AcDbEntity
  8
寸法
 62
     0
 48
50.0
370
    -2
100
AcDbLine
 10
11694.99166227189
 20
9717.310710222283
 30
0.0
 11
12195.05988643596
 21
9717.310710222283
 31
0.0
  0
LINE
  5
1ED71
330
1DE37
100
AcDbEntity
  8
寸法
 62
     0
 48
50.0
370
    -2
100
AcDbLine
 10
12120.05988643596
 20
9717.310710222283
 30
0.0
 11
12120.05988643596
 21
9782.310710222283
 31
0.0
  0
LINE
  5
1ED72
330
1DE37
100
AcDbEntity
  8
寸法
 62
     0
 48
50.0
370
    -2
100
AcDbLine
 10
12120.05988643596
 20
9782.310710222283
 30
0.0
 11
12120.05988643596
 21
10137.50029161063
 31
0.0
  0
INSERT
  5
1ED73
330
1DE37
100
AcDbEntity
  8
寸法
 62
     0
 48
50.0
370
    -2
100
AcDbBlockReference
  2
_DOTSMALL
 10
12120.05988643596
 20
9717.310710222283
 30
0.0
 41
125.0
 42
125.0
 43
125.0
 50
270.0
  0
INSERT
  5
1ED74
330
1DE37
100
AcDbEntity
  8
寸法
 62
     0
 48
50.0
370
    -2
100
AcDbBlockReference
  2
_DOTSMALL
 10
12120.05988643596
 20
9782.310710222283
 30
0.0
 41
125.0
 42
125.0
 43
125.0
 50
90.0
  0
MTEXT
  5
1ED75
330
1DE37
100
AcDbEntity
  8
寸法
 62
     7
 48
50.0
100
AcDbMText
 10
12020.05988643595
 20
10022.40550091646
 30
0.0
 40
150.0
 41
0.0
 71
     5
 72
     1
  1
\A1;65
  7
STYLE1
 11
0.0000000000000001
 21
1.0
 31
0.0
 73
     1
 44
1.0
1001
ACAD
1000
MTEXTBEGIN
1070
    73
1070
     1
1070
    44
1040
1.0
1070
    74
1070
     0
1000
MTEXTEND
  0
POINT
  5
1ED76
330
1DE37
100
AcDbEntity
  8
DEFPOINTS
 62
     0
 48
50.0
100
AcDbPoint
 10
11589.99166227189
 20
9782.310710222283
 30
0.0
  0
POINT
  5
1ED77
330
1DE37
100
AcDbEntity
  8
DEFPOINTS
 62
     0
 48
50.0
100
AcDbPoint
 10
11669.99166227189
 20
9717.310710222283
 30
0.0
  0
POINT
  5
1ED78
330
1DE37
100
AcDbEntity
  8
DEFPOINTS
 62
     0
 48
50.0
100
AcDbPoint
 10
12120.05988643596
 20
9717.310710222283
 30
0.0
  0
ENDBLK
  5
1DE43
330
1DE37
100
AcDbEntity
  8
0
 48
50.0
100
AcDbBlockEnd
  0
BLOCK
  5
1E0C6
330
1E0BA
100
AcDbEntity
  8
0
 48
50.0
100
AcDbBlockBegin
  2
*D22
 70
     1
 10
0.0
 20
0.0
 30
0.0
  3
*D22
  1

  0
LINE
  5
1EDB2
330
1E0BA
100
AcDbEntity
  8
寸法
 62
     0
 48
50.0
370
    -2
100
AcDbLine
 10
11589.99166227189
 20
8585.359196831445
 30
0.0
 11
11589.99166227189
 21
8531.801536029126
 31
0.0
  0
LINE
  5
1EDB3
330
1E0BA
100
AcDbEntity
  8
寸法
 62
     0
 48
50.0
370
    -2
100
AcDbLine
 10
11469.99166227189
 20
8585.359196831449
 30
0.0
 11
11469.99166227189
 21
8531.801536029126
 31
0.0
  0
LINE
  5
1EDB4
330
1E0BA
100
AcDbEntity
  8
寸法
 62
     0
 48
50.0
370
    -2
100
AcDbLine
 10
11589.99166227189
 20
8606.801536029125
 30
0.0
 11
11469.99166227189
 21
8606.801536029125
 31
0.0
  0
LINE
  5
1EDB5
330
1E0BA
100
AcDbEntity
  8
寸法
 62
     0
 48
50.0
370
    -2
100
AcDbLine
 10
11469.99166227189
 20
8606.801536029125
 30
0.0
 11
11054.87355203567
 21
8606.801536029125
 31
0.0
  0
INSERT
  5
1EDB6
330
1E0BA
100
AcDbEntity
  8
寸法
 62
     0
 48
50.0
370
    -2
100
AcDbBlockReference
  2
_DOTSMALL
 10
11589.99166227189
 20
8606.801536029125
 30
0.0
 41
125.0
 42
125.0
 43
125.0
  0
INSERT
  5
1EDB7
330
1E0BA
100
AcDbEntity
  8
寸法
 62
     0
 48
50.0
370
    -2
100
AcDbBlockReference
  2
_DOTSMALL
 10
11469.99166227189
 20
8606.801536029125
 30
0.0
 41
125.0
 42
125.0
 43
125.0
 50
180.0
  0
MTEXT
  5
1EDB8
330
1E0BA
100
AcDbEntity
  8
寸法
 62
     7
 48
50.0
100
AcDbMText
 10
11199.93260715377
 20
8706.816299808652
 30
0.0
 40
150.0
 41
0.0
 71
     5
 72
     1
  1
\A1;120
  7
STYLE1
 73
     1
 44
1.0
1001
ACAD
1000
MTEXTBEGIN
1070
    73
1070
     1
1070
    44
1040
1.0
1070
    74
1070
     0
1000
MTEXTEND
  0
POINT
  5
1EDB9
330
1E0BA
100
AcDbEntity
  8
DEFPOINTS
 62
     0
 48
50.0
100
AcDbPoint
 10
11589.99166227189
 20
8610.359196831444
 30
0.0
  0
POINT
  5
1EDBA
330
1E0BA
100
AcDbEntity
  8
DEFPOINTS
 62
     0
 48
50.0
100
AcDbPoint
 10
11469.99166227189
 20
8610.359196831449
 30
0.0
  0
POINT
  5
1EDBB
330
1E0BA
100
AcDbEntity
  8
DEFPOINTS
 62
     0
 48
50.0
100
AcDbPoint
 10
11469.99166227189
 20
8606.801536029125
 30
0.0
  0
ENDBLK
  5
1E0C7
330
1E0BA
100
AcDbEntity
  8
0
 48
50.0
100
AcDbBlockEnd
  0
BLOCK
  5
1E689
330
1E67D
100
AcDbEntity
  8
0
 48
50.0
100
AcDbBlockBegin
  2
*D23
 70
     1
 10
0.0
 20
0.0
 30
0.0
  3
*D23
  1

  0
LINE
  5
1EF06
330
1E67D
100
AcDbEntity
  8
寸法
 62
     0
 48
50.0
370
    -2
100
AcDbLine
 10
10630.83019732232
 20
7827.310710222285
 30
0.0
 11
10499.86181753623
 21
7827.310710222285
 31
0.0
  0
LINE
  5
1EF07
330
1E67D
100
AcDbEntity
  8
寸法
 62
     0
 48
50.0
370
    -2
100
AcDbLine
 10
10625.99166227188
 20
8012.31071022228
 30
0.0
 11
10499.86181753623
 21
8012.31071022228
 31
0.0
  0
LINE
  5
1EF08
330
1E67D
100
AcDbEntity
  8
寸法
 62
     0
 48
50.0
370
    -2
100
AcDbLine
 10
10574.86181753623
 20
7827.310710222285
 30
0.0
 11
10574.86181753623
 21
8012.31071022228
 31
0.0
  0
LINE
  5
1EF09
330
1E67D
100
AcDbEntity
  8
寸法
 62
     0
 48
50.0
370
    -2
100
AcDbLine
 10
10574.86181753623
 20
8012.31071022228
 30
0.0
 11
10574.86181753623
 21
8433.523913657877
 31
0.0
  0
INSERT
  5
1EF0A
330
1E67D
100
AcDbEntity
  8
寸法
 62
     0
 48
50.0
370
    -2
100
AcDbBlockReference
  2
_DOTSMALL
 10
10574.86181753623
 20
7827.310710222285
 30
0.0
 41
125.0
 42
125.0
 43
125.0
 50
270.0
  0
INSERT
  5
1EF0B
330
1E67D
100
AcDbEntity
  8
寸法
 62
     0
 48
50.0
370
    -2
100
AcDbBlockReference
  2
_DOTSMALL
 10
10574.86181753623
 20
8012.31071022228
 30
0.0
 41
125.0
 42
125.0
 43
125.0
 50
90.0
  0
MTEXT
  5
1EF0C
330
1E67D
100
AcDbEntity
  8
寸法
 62
     7
 48
50.0
100
AcDbMText
 10
10474.86181753623
 20
8285.417311940079
 30
0.0
 40
150.0
 41
0.0
 71
     5
 72
     1
  1
\A1;185
  7
STYLE1
 11
0.0000000000000001
 21
1.0
 31
0.0
 73
     1
 44
1.0
1001
ACAD
1000
MTEXTBEGIN
1070
    73
1070
     1
1070
    44
1040
1.0
1070
    74
1070
     0
1000
MTEXTEND
  0
POINT
  5
1EF0D
330
1E67D
100
AcDbEntity
  8
DEFPOINTS
 62
     0
 48
50.0
100
AcDbPoint
 10
10655.83019732233
 20
7827.310710222285
 30
0.0
  0
POINT
  5
1EF0E
330
1E67D
100
AcDbEntity
  8
DEFPOINTS
 62
     0
 48
50.0
100
AcDbPoint
 10
10650.99166227188
 20
8012.31071022228
 30
0.0
  0
POINT
  5
1EF0F
330
1E67D
100
AcDbEntity
  8
DEFPOINTS
 62
     0
 48
50.0
100
AcDbPoint
 10
10574.86181753623
 20
8012.31071022228
 30
0.0
  0
ENDBLK
  5
1E68A
330
1E67D
100
AcDbEntity
  8
0
 48
50.0
100
AcDbBlockEnd
  0
BLOCK
  5
1EE3B
330
1EE39
100
AcDbEntity
  8
0
 48
50.0
100
AcDbBlockBegin
  2
A$C4CA21720
 70
     0
 10
0.0
 20
0.0
 30
0.0
  3
A$C4CA21720
  1

  0
LINE
  5
1EE3A
330
1EE39
100
AcDbEntity
  8
想像線
 48
4.0
100
AcDbLine
 10
0.000000000001819
 20
0.0
 30
0.0
 11
1821.000000000003
 21
0.0000000000045475
 31
0.0
  0
ENDBLK
  5
1EE3C
330
1EE39
100
AcDbEntity
  8
0
 48
50.0
100
AcDbBlockEnd
  0
BLOCK
  5
1EE63
330
1EE59
100
AcDbEntity
  8
0
 48
50.0
100
AcDbBlockBegin
  2
*D25
 70
     1
 10
0.0
 20
0.0
 30
0.0
  3
*D25
  1

  0
LINE
  5
1EE65
330
1EE59
100
AcDbEntity
  8
寸法
 62
     0
 48
50.0
370
    -2
100
AcDbLine
 10
9119.991662271889
 20
7802.310710222283
 30
0.0
 11
9119.991662271889
 21
7418.025597712004
 31
0.0
  0
LINE
  5
1EE66
330
1EE59
100
AcDbEntity
  8
寸法
 62
     0
 48
50.0
370
    -2
100
AcDbLine
 10
10940.99166227189
 20
7802.310710222283
 30
0.0
 11
10940.99166227189
 21
7418.025597712004
 31
0.0
  0
LINE
  5
1EE67
330
1EE59
100
AcDbEntity
  8
寸法
 62
     0
 48
50.0
370
    -2
100
AcDbLine
 10
9119.991662271889
 20
7493.025597712004
 30
0.0
 11
10940.99166227189
 21
7493.025597712004
 31
0.0
  0
INSERT
  5
1EE68
330
1EE59
100
AcDbEntity
  8
寸法
 62
     0
 48
50.0
370
    -2
100
AcDbBlockReference
  2
_DOTSMALL
 10
9119.991662271889
 20
7493.025597712004
 30
0.0
 41
125.0
 42
125.0
 43
125.0
 50
180.0
  0
INSERT
  5
1EE69
330
1EE59
100
AcDbEntity
  8
寸法
 62
     0
 48
50.0
370
    -2
100
AcDbBlockReference
  2
_DOTSMALL
 10
10940.99166227189
 20
7493.025597712004
 30
0.0
 41
125.0
 42
125.0
 43
125.0
  0
MTEXT
  5
1EE6A
330
1EE59
100
AcDbEntity
  8
寸法
 62
     7
 48
50.0
100
AcDbMText
 10
10030.49166227189
 20
7593.040361491531
 30
0.0
 40
150.0
 41
0.0
 71
     5
 72
     1
  1
\A1;1821
  7
STYLE1
 73
     1
 44
1.0
1001
ACAD
1000
MTEXTBEGIN
1070
    73
1070
     1
1070
    44
1040
1.0
1070
    74
1070
     0
1000
MTEXTEND
  0
POINT
  5
1EE6B
330
1EE59
100
AcDbEntity
  8
DEFPOINTS
 62
     0
 48
50.0
100
AcDbPoint
 10
9119.991662271889
 20
7827.310710222284
 30
0.0
  0
POINT
  5
1EE6C
330
1EE59
100
AcDbEntity
  8
DEFPOINTS
 62
     0
 48
50.0
100
AcDbPoint
 10
10940.99166227189
 20
7827.310710222282
 30
0.0
  0
POINT
  5
1EE6D
330
1EE59
100
AcDbEntity
  8
DEFPOINTS
 62
     0
 48
50.0
100
AcDbPoint
 10
10940.99166227189
 20
7493.025597712004
 30
0.0
  0
ENDBLK
  5
1EE64
330
1EE59
100
AcDbEntity
  8
0
 48
50.0
100
AcDbBlockEnd
  0
BLOCK
  5
1EE8D
330
1EE8C
100
AcDbEntity
  8
0
 48
50.0
100
AcDbBlockBegin
  2
*D26
 70
     1
 10
0.0
 20
0.0
 30
0.0
  3
*D26
  1

  0
LINE
  5
1EE8E
330
1EE8C
100
AcDbEntity
  8
寸法
 62
     0
 48
50.0
370
    -2
100
AcDbLine
 10
8404.708761280692
 20
7128.724443161437
 30
0.0
 11
8404.708761280692
 21
6744.439330651156
 31
0.0
  0
LINE
  5
1EE8F
330
1EE8C
100
AcDbEntity
  8
寸法
 62
     0
 48
50.0
370
    -2
100
AcDbLine
 10
10225.70876128069
 20
7128.724443161434
 30
0.0
 11
10225.70876128069
 21
6744.439330651156
 31
0.0
  0
LINE
  5
1EE90
330
1EE8C
100
AcDbEntity
  8
寸法
 62
     0
 48
50.0
370
    -2
100
AcDbLine
 10
8404.708761280692
 20
6819.439330651156
 30
0.0
 11
10225.70876128069
 21
6819.439330651156
 31
0.0
  0
INSERT
  5
1EE91
330
1EE8C
100
AcDbEntity
  8
寸法
 62
     0
 48
50.0
370
    -2
100
AcDbBlockReference
  2
_DOTSMALL
 10
8404.708761280692
 20
6819.439330651156
 30
0.0
 41
125.0
 42
125.0
 43
125.0
 50
180.0
  0
INSERT
  5
1EE92
330
1EE8C
100
AcDbEntity
  8
寸法
 62
     0
 48
50.0
370
    -2
100
AcDbBlockReference
  2
_DOTSMALL
 10
10225.70876128069
 20
6819.439330651156
 30
0.0
 41
125.0
 42
125.0
 43
125.0
  0
MTEXT
  5
1EE93
330
1EE8C
100
AcDbEntity
  8
寸法
 62
     7
 48
50.0
100
AcDbMText
 10
9315.208761280693
 20
6919.454094430682
 30
0.0
 40
150.0
 41
0.0
 71
     5
 72
     1
  1
\A1;1821
  7
STYLE1
 73
     1
 44
1.0
1001
ACAD
1000
MTEXTBEGIN
1070
    73
1070
     1
1070
    44
1040
1.0
1070
    74
1070
     0
1000
MTEXTEND
  0
POINT
  5
1EE94
330
1EE8C
100
AcDbEntity
  8
DEFPOINTS
 62
     0
 48
50.0
100
AcDbPoint
 10
8404.708761280692
 20
7153.724443161436
 30
0.0
  0
POINT
  5
1EE95
330
1EE8C
100
AcDbEntity
  8
DEFPOINTS
 62
     0
 48
50.0
100
AcDbPoint
 10
10225.70876128069
 20
7153.724443161434
 30
0.0
  0
POINT
  5
1EE96
330
1EE8C
100
AcDbEntity
  8
DEFPOINTS
 62
     0
 48
50.0
100
AcDbPoint
 10
10225.70876128069
 20
6819.439330651156
 30
0.0
  0
ENDBLK
  5
1EE97
330
1EE8C
100
AcDbEntity
  8
0
 48
50.0
100
AcDbBlockEnd
  0
BLOCK
  5
1EE9F
330
1EE98
100
AcDbEntity
  8
0
 48
50.0
100
AcDbBlockBegin
  2
A$C5AF22E4D
 70
     0
 10
0.0
 20
0.0
 30
0.0
  3
A$C5AF22E4D
  1

  0
HATCH
  5
1EE99
330
1EE98
100
AcDbEntity
  8
寸法
 48
50.0
100
AcDbHatch
 10
0.0
 20
0.0
 30
0.0
210
0.0
220
0.0
230
1.0
  2
DOTS
 70
     0
 71
     0
 91
        2
 92
        7
 72
     0
 73
     1
 93
        4
 10
486.0
 20
0.0
 10
-0.000000000001819
 20
0.0
 10
-0.000000000001819
 20
-64.99999999999818
 10
486.0000000000018
 20
-64.99999999999818
 97
        0
 92
        7
 72
     0
 73
     1
 93
        4
 10
1821.0
 20
0.000000000001819
 10
686.0000000000036
 20
0.000000000001819
 10
686.0000000000018
 20
-65.0
 10
1821.000000000002
 20
-65.0
 97
        0
 75
     0
 76
     1
 52
0.0
 41
5.0
 77
     0
 78
     1
 53
0.0
 43
-8404.708761280692
 44
-7218.724443161434
 45
3.96875
 46
7.9375
 79
     2
 49
0.0
 49
-7.9375
 47
1.671868251657061
 98
        2
 10
263.9725589587324
 20
-0.9020546984356769
 10
740.642807264885
 20
-34.33942789758658
  0
LINE
  5
1EE9A
330
1EE98
100
AcDbEntity
  8
部品1
 48
50.0
100
AcDbLine
 10
0.0
 20
0.0
 30
0.0
 11
0.0
 21
-65.0
 31
0.0
  0
LINE
  5
1EE9B
330
1EE98
100
AcDbEntity
  8
想像線
 48
4.0
100
AcDbLine
 10
0.0
 20
0.0
 30
0.0
 11
1821.000000000002
 21
0.0000000000045475
 31
0.0
  0
DIMENSION
  5
1EE9C
330
1EE98
100
AcDbEntity
  8
寸法
 48
50.0
100
AcDbDimension
  2
*D26
 10
1821.000000000002
 20
-399.2851125102788
 30
0.0
 11
910.5
 21
-299.2703487307517
 31
0.0
 12
-8404.708761280692
 22
-7218.724443161434
 32
0.0
 71
     5
 42
1821.000000000002
  3
INABA_S50G
100
AcDbAlignedDimension
 13
0.0
 23
-64.99999999999818
 33
0.0
 14
1821.000000000002
 24
-65.0
 34
0.0
100
AcDbRotatedDimension
1001
ACAD
1000
DSTYLE
1002
{
1070
   341
1005
0
1002
}
  0
LINE
  5
1EE9D
330
1EE98
100
AcDbEntity
  8
想像線
 48
20.0
100
AcDbLine
 10
-698.9999999999981
 20
-130.0
 30
0.0
 11
1871.000000000002
 21
-130.0
 31
0.0
  0
TEXT
  5
1EE9E
330
1EE98
100
AcDbEntity
  8
寸法
 48
50.0
100
AcDbText
 10
319.4639394580518
 20
-289.8309356058944
 30
0.0
 40
120.0
  1
扉面
  7
STYLE1
100
AcDbText
  0
ENDBLK
  5
1EEA0
330
1EE98
100
AcDbEntity
  8
0
 48
50.0
100
AcDbBlockEnd
  0
BLOCK
  5
1F3A5
330
1F39A
100
AcDbEntity
  8
0
 48
50.0
100
AcDbBlockBegin
  2
*D28
 70
     1
 10
0.0
 20
0.0
 30
0.0
  3
*D28
  1

  0
LINE
  5
1F3F0
330
1F39A
100
AcDbEntity
  8
寸法
 62
     0
 48
50.0
370
    -2
100
AcDbLine
 10
10475.87538882277
 20
2345.92212924262
 30
0.0
 11
10475.87538882277
 21
2639.655471140566
 31
0.0
  0
LINE
  5
1F3F1
330
1F39A
100
AcDbEntity
  8
寸法
 62
     0
 48
50.0
370
    -2
100
AcDbLine
 10
10619.37538882277
 20
2406.229821550311
 30
0.0
 11
10619.37538882277
 21
2639.655471140566
 31
0.0
  0
LINE
  5
1F3F2
330
1F39A
100
AcDbEntity
  8
寸法
 62
     0
 48
50.0
370
    -2
100
AcDbLine
 10
10619.37538882277
 20
2564.655471140566
 30
0.0
 11
10475.87538882277
 21
2564.655471140566
 31
0.0
  0
LINE
  5
1F3F3
330
1F39A
100
AcDbEntity
  8
寸法
 62
     0
 48
50.0
370
    -2
100
AcDbLine
 10
10475.87538882277
 20
2564.655471140566
 30
0.0
 11
10180.74900123054
 21
2564.655471140566
 31
0.0
  0
INSERT
  5
1F3F4
330
1F39A
100
AcDbEntity
  8
寸法
 62
     0
 48
50.0
370
    -2
100
AcDbBlockReference
  2
_DOTSMALL
 10
10619.37538882277
 20
2564.655471140566
 30
0.0
 41
125.0
 42
125.0
 43
125.0
  0
INSERT
  5
1F3F5
330
1F39A
100
AcDbEntity
  8
寸法
 62
     0
 48
50.0
370
    -2
100
AcDbBlockReference
  2
_DOTSMALL
 10
10475.87538882277
 20
2564.655471140566
 30
0.0
 41
125.0
 42
125.0
 43
125.0
 50
180.0
  0
MTEXT
  5
1F3F6
330
1F39A
100
AcDbEntity
  8
寸法
 62
     7
 48
50.0
100
AcDbMText
 10
10265.81219502666
 20
2639.655471140566
 30
0.0
 40
100.0
 41
0.0
 71
     5
 72
     1
  1
\A1;65
  7
STYLE1
 73
     1
 44
1.0
1001
ACAD
1000
MTEXTBEGIN
1070
    73
1070
     1
1070
    44
1040
1.0
1070
    74
1070
     0
1000
MTEXTEND
  0
POINT
  5
1F3F7
330
1F39A
100
AcDbEntity
  8
DEFPOINTS
 62
     0
 48
50.0
100
AcDbPoint
 10
10475.87538882277
 20
2320.922129242619
 30
0.0
  0
POINT
  5
1F3F8
330
1F39A
100
AcDbEntity
  8
DEFPOINTS
 62
     0
 48
50.0
100
AcDbPoint
 10
10619.37538882277
 20
2381.229821550311
 30
0.0
  0
POINT
  5
1F3F9
330
1F39A
100
AcDbEntity
  8
DEFPOINTS
 62
     0
 48
50.0
100
AcDbPoint
 10
10619.37538882277
 20
2564.655471140566
 30
0.0
  0
ENDBLK
  5
1F3A6
330
1F39A
100
AcDbEntity
  8
0
 48
50.0
100
AcDbBlockEnd
  0
BLOCK
  5
1F3B2
330
1F3A7
100
AcDbEntity
  8
0
 48
50.0
100
AcDbBlockBegin
  2
*D29
 70
     1
 10
0.0
 20
0.0
 30
0.0
  3
*D29
  1

  0
LINE
  5
1F3FA
330
1F3A7
100
AcDbEntity
  8
寸法
 62
     0
 48
50.0
370
    -2
100
AcDbLine
 10
10580.87538882277
 20
2381.229821550311
 30
0.0
 11
9859.490090902104
 21
2381.229821550311
 31
0.0
  0
LINE
  5
1F3FB
330
1F3A7
100
AcDbEntity
  8
寸法
 62
     0
 48
50.0
370
    -2
100
AcDbLine
 10
10450.87538882277
 20
2320.922129242619
 30
0.0
 11
9859.490090902104
 21
2320.922129242619
 31
0.0
  0
LINE
  5
1F3FC
330
1F3A7
100
AcDbEntity
  8
寸法
 62
     0
 48
50.0
370
    -2
100
AcDbLine
 10
9934.490090902103
 20
2320.922129242619
 30
0.0
 11
9934.490090902103
 21
2381.229821550311
 31
0.0
  0
LINE
  5
1F3FD
330
1F3A7
100
AcDbEntity
  8
寸法
 62
     0
 48
50.0
370
    -2
100
AcDbLine
 10
9934.490090902103
 20
2381.229821550311
 30
0.0
 11
9934.490090902103
 21
2794.641895041126
 31
0.0
  0
INSERT
  5
1F3FE
330
1F3A7
100
AcDbEntity
  8
寸法
 62
     0
 48
50.0
370
    -2
100
AcDbBlockReference
  2
_DOTSMALL
 10
9934.490090902103
 20
2320.922129242619
 30
0.0
 41
125.0
 42
125.0
 43
125.0
 50
270.0
  0
INSERT
  5
1F3FF
330
1F3A7
100
AcDbEntity
  8
寸法
 62
     0
 48
50.0
370
    -2
100
AcDbBlockReference
  2
_DOTSMALL
 10
9934.490090902103
 20
2381.229821550311
 30
0.0
 41
125.0
 42
125.0
 43
125.0
 50
90.0
  0
MTEXT
  5
1F400
330
1F3A7
100
AcDbEntity
  8
寸法
 62
     7
 48
50.0
100
AcDbMText
 10
9859.490090902104
 20
2650.435858295721
 30
0.0
 40
100.0
 41
0.0
 71
     5
 72
     1
  1
\A1;出30
  7
STYLE1
 11
0.0000000000000001
 21
1.0
 31
0.0
 73
     1
 44
1.0
1001
ACAD
1000
MTEXTBEGIN
1070
    73
1070
     1
1070
    44
1040
1.0
1070
    74
1070
     0
1000
MTEXTEND
  0
POINT
  5
1F401
330
1F3A7
100
AcDbEntity
  8
DEFPOINTS
 62
     0
 48
50.0
100
AcDbPoint
 10
10605.87538882277
 20
2381.229821550311
 30
0.0
  0
POINT
  5
1F402
330
1F3A7
100
AcDbEntity
  8
DEFPOINTS
 62
     0
 48
50.0
100
AcDbPoint
 10
10475.87538882277
 20
2320.922129242619
 30
0.0
  0
POINT
  5
1F403
330
1F3A7
100
AcDbEntity
  8
DEFPOINTS
 62
     0
 48
50.0
100
AcDbPoint
 10
9934.490090902103
 20
2320.922129242619
 30
0.0
  0
ENDBLK
  5
1F3B3
330
1F3A7
100
AcDbEntity
  8
0
 48
50.0
100
AcDbBlockEnd
  0
BLOCK
  5
1F3BE
330
1F3B4
100
AcDbEntity
  8
0
 48
50.0
100
AcDbBlockBegin
  2
*D30
 70
     1
 10
0.0
 20
0.0
 30
0.0
  3
*D30
  1

  0
LINE
  5
1F404
330
1F3B4
100
AcDbEntity
  8
寸法
 62
     0
 48
50.0
370
    -2
100
AcDbLine
 10
10486.644619592
 20
2451.46059078108
 30
0.0
 11
10486.644619592
 21
2861.234389192541
 31
0.0
  0
LINE
  5
1F405
330
1F3B4
100
AcDbEntity
  8
寸法
 62
     0
 48
50.0
370
    -2
100
AcDbLine
 10
10677.26000420739
 20
2452.537513858004
 30
0.0
 11
10677.26000420739
 21
2861.234389192541
 31
0.0
  0
LINE
  5
1F406
330
1F3B4
100
AcDbEntity
  8
寸法
 62
     0
 48
50.0
370
    -2
100
AcDbLine
 10
10486.644619592
 20
2786.234389192542
 30
0.0
 11
10677.26000420739
 21
2786.234389192542
 31
0.0
  0
INSERT
  5
1F407
330
1F3B4
100
AcDbEntity
  8
寸法
 62
     0
 48
50.0
370
    -2
100
AcDbBlockReference
  2
_DOTSMALL
 10
10486.644619592
 20
2786.234389192542
 30
0.0
 41
125.0
 42
125.0
 43
125.0
 50
180.0
  0
INSERT
  5
1F408
330
1F3B4
100
AcDbEntity
  8
寸法
 62
     0
 48
50.0
370
    -2
100
AcDbBlockReference
  2
_DOTSMALL
 10
10677.26000420739
 20
2786.234389192542
 30
0.0
 41
125.0
 42
125.0
 43
125.0
  0
MTEXT
  5
1F409
330
1F3B4
100
AcDbEntity
  8
寸法
 62
     7
 48
50.0
100
AcDbMText
 10
10581.9523118997
 20
2861.234389192541
 30
0.0
 40
100.0
 41
0.0
 71
     5
 72
     1
  1
\A1;88.5
  7
STYLE1
 73
     1
 44
1.0
1001
ACAD
1000
MTEXTBEGIN
1070
    73
1070
     1
1070
    44
1040
1.0
1070
    74
1070
     0
1000
MTEXTEND
  0
POINT
  5
1F40A
330
1F3B4
100
AcDbEntity
  8
DEFPOINTS
 62
     0
 48
50.0
100
AcDbPoint
 10
10486.644619592
 20
2426.46059078108
 30
0.0
  0
POINT
  5
1F40B
330
1F3B4
100
AcDbEntity
  8
DEFPOINTS
 62
     0
 48
50.0
100
AcDbPoint
 10
10677.26000420739
 20
2427.537513858004
 30
0.0
  0
POINT
  5
1F40C
330
1F3B4
100
AcDbEntity
  8
DEFPOINTS
 62
     0
 48
50.0
100
AcDbPoint
 10
10677.26000420739
 20
2786.234389192542
 30
0.0
  0
ENDBLK
  5
1F3BF
330
1F3B4
100
AcDbEntity
  8
0
 48
50.0
100
AcDbBlockEnd
  0
BLOCK
  5
1F3CA
330
1F3C0
100
AcDbEntity
  8
0
 48
50.0
100
AcDbBlockBegin
  2
*D31
 70
     1
 10
0.0
 20
0.0
 30
0.0
  3
*D31
  1

  0
LINE
  5
1F40D
330
1F3C0
100
AcDbEntity
  8
寸法
 62
     0
 48
50.0
370
    -2
100
AcDbLine
 10
7668.451485298366
 20
2270.39240947783
 30
0.0
 11
7668.451485298366
 21
2720.392409477831
 31
0.0
  0
LINE
  5
1F40E
330
1F3C0
100
AcDbEntity
  8
寸法
 62
     0
 48
50.0
370
    -2
100
AcDbLine
 10
7428.451485298364
 20
2270.39240947783
 30
0.0
 11
7428.451485298364
 21
2720.392409477831
 31
0.0
  0
LINE
  5
1F40F
330
1F3C0
100
AcDbEntity
  8
寸法
 62
     0
 48
50.0
370
    -2
100
AcDbLine
 10
7668.451485298366
 20
2645.39240947783
 30
0.0
 11
7428.451485298364
 21
2645.39240947783
 31
0.0
  0
INSERT
  5
1F410
330
1F3C0
100
AcDbEntity
  8
寸法
 62
     0
 48
50.0
370
    -2
100
AcDbBlockReference
  2
_DOTSMALL
 10
7668.451485298366
 20
2645.39240947783
 30
0.0
 41
125.0
 42
125.0
 43
125.0
  0
INSERT
  5
1F411
330
1F3C0
100
AcDbEntity
  8
寸法
 62
     0
 48
50.0
370
    -2
100
AcDbBlockReference
  2
_DOTSMALL
 10
7428.451485298364
 20
2645.39240947783
 30
0.0
 41
125.0
 42
125.0
 43
125.0
 50
180.0
  0
MTEXT
  5
1F412
330
1F3C0
100
AcDbEntity
  8
寸法
 62
     7
 48
50.0
100
AcDbMText
 10
7548.451485298365
 20
2803.735585330849
 30
0.0
 40
100.0
 41
0.0
 71
     5
 72
     1
  1
\A1;120\P185
  7
STYLE1
 73
     1
 44
1.0
1001
ACAD
1000
MTEXTBEGIN
1070
    73
1070
     1
1070
    44
1040
1.0
1070
    74
1070
     0
1000
MTEXTEND
  0
POINT
  5
1F413
330
1F3C0
100
AcDbEntity
  8
DEFPOINTS
 62
     0
 48
50.0
100
AcDbPoint
 10
7668.451485298366
 20
2245.392409477831
 30
0.0
  0
POINT
  5
1F414
330
1F3C0
100
AcDbEntity
  8
DEFPOINTS
 62
     0
 48
50.0
100
AcDbPoint
 10
7428.451485298364
 20
2245.392409477831
 30
0.0
  0
POINT
  5
1F415
330
1F3C0
100
AcDbEntity
  8
DEFPOINTS
 62
     0
 48
50.0
100
AcDbPoint
 10
7428.451485298364
 20
2645.39240947783
 30
0.0
  0
ENDBLK
  5
1F3CB
330
1F3C0
100
AcDbEntity
  8
0
 48
50.0
100
AcDbBlockEnd
  0
BLOCK
  5
1F3D6
330
1F3CC
100
AcDbEntity
  8
0
 48
50.0
100
AcDbBlockBegin
  2
*D32
 70
     1
 10
0.0
 20
0.0
 30
0.0
  3
*D32
  1

  0
LINE
  5
1F416
330
1F3CC
100
AcDbEntity
  8
寸法
 62
     0
 48
50.0
370
    -2
100
AcDbLine
 10
7403.451485298365
 20
2245.392409477831
 30
0.0
 11
6498.98211749921
 21
2245.392409477831
 31
0.0
  0
LINE
  5
1F417
330
1F3CC
100
AcDbEntity
  8
寸法
 62
     0
 48
50.0
370
    -2
100
AcDbLine
 10
7143.451485298365
 20
1165.39240947783
 30
0.0
 11
6498.98211749921
 21
1165.39240947783
 31
0.0
  0
LINE
  5
1F418
330
1F3CC
100
AcDbEntity
  8
寸法
 62
     0
 48
50.0
370
    -2
100
AcDbLine
 10
6573.98211749921
 20
2245.392409477831
 30
0.0
 11
6573.98211749921
 21
1165.39240947783
 31
0.0
  0
INSERT
  5
1F419
330
1F3CC
100
AcDbEntity
  8
寸法
 62
     0
 48
50.0
370
    -2
100
AcDbBlockReference
  2
_DOTSMALL
 10
6573.98211749921
 20
2245.392409477831
 30
0.0
 41
125.0
 42
125.0
 43
125.0
 50
90.0
  0
INSERT
  5
1F41A
330
1F3CC
100
AcDbEntity
  8
寸法
 62
     0
 48
50.0
370
    -2
100
AcDbBlockReference
  2
_DOTSMALL
 10
6573.98211749921
 20
1165.39240947783
 30
0.0
 41
125.0
 42
125.0
 43
125.0
 50
270.0
  0
MTEXT
  5
1F41B
330
1F3CC
100
AcDbEntity
  8
寸法
 62
     7
 48
50.0
100
AcDbMText
 10
6498.98211749921
 20
1742.187346075541
 30
0.0
 40
100.0
 41
0.0
 71
     5
 72
     1
  1
\A1;540
  7
STYLE1
 11
0.0000000000000001
 21
1.0
 31
0.0
 73
     1
 44
1.0
1001
ACAD
1000
MTEXTBEGIN
1070
    73
1070
     1
1070
    44
1040
1.0
1070
    74
1070
     0
1000
MTEXTEND
  0
POINT
  5
1F41C
330
1F3CC
100
AcDbEntity
  8
DEFPOINTS
 62
     0
 48
50.0
100
AcDbPoint
 10
7428.451485298364
 20
2245.392409477831
 30
0.0
  0
POINT
  5
1F41D
330
1F3CC
100
AcDbEntity
  8
DEFPOINTS
 62
     0
 48
50.0
100
AcDbPoint
 10
7168.451485298366
 20
1165.39240947783
 30
0.0
  0
POINT
  5
1F41E
330
1F3CC
100
AcDbEntity
  8
DEFPOINTS
 62
     0
 48
50.0
100
AcDbPoint
 10
6573.98211749921
 20
1165.39240947783
 30
0.0
  0
ENDBLK
  5
1F3D7
330
1F3CC
100
AcDbEntity
  8
0
 48
50.0
100
AcDbBlockEnd
  0
BLOCK
  5
1F3E2
330
1F3D8
100
AcDbEntity
  8
0
 48
50.0
100
AcDbBlockBegin
  2
*D33
 70
     1
 10
0.0
 20
0.0
 30
0.0
  3
*D33
  1

  0
LINE
  5
1F41F
330
1F3D8
100
AcDbEntity
  8
寸法
 62
     0
 48
50.0
370
    -2
100
AcDbLine
 10
7248.451485298365
 20
980.3924094778304
 30
0.0
 11
7248.451485298365
 21
631.4403030218963
 31
0.0
  0
LINE
  5
1F420
330
1F3D8
100
AcDbEntity
  8
寸法
 62
     0
 48
50.0
370
    -2
100
AcDbLine
 10
7848.451485298365
 20
980.3924094778304
 30
0.0
 11
7848.451485298365
 21
631.4403030218963
 31
0.0
  0
LINE
  5
1F421
330
1F3D8
100
AcDbEntity
  8
寸法
 62
     0
 48
50.0
370
    -2
100
AcDbLine
 10
7248.451485298365
 20
706.4403030218963
 30
0.0
 11
7848.451485298365
 21
706.4403030218963
 31
0.0
  0
INSERT
  5
1F422
330
1F3D8
100
AcDbEntity
  8
寸法
 62
     0
 48
50.0
370
    -2
100
AcDbBlockReference
  2
_DOTSMALL
 10
7248.451485298365
 20
706.4403030218963
 30
0.0
 41
125.0
 42
125.0
 43
125.0
 50
180.0
  0
INSERT
  5
1F423
330
1F3D8
100
AcDbEntity
  8
寸法
 62
     0
 48
50.0
370
    -2
100
AcDbBlockReference
  2
_DOTSMALL
 10
7848.451485298365
 20
706.4403030218963
 30
0.0
 41
125.0
 42
125.0
 43
125.0
  0
MTEXT
  5
1F424
330
1F3D8
100
AcDbEntity
  8
寸法
 62
     7
 48
50.0
100
AcDbMText
 10
7548.451485298365
 20
781.4403030218963
 30
0.0
 40
100.0
 41
0.0
 71
     5
 72
     1
  1
\A1;300
  7
STYLE1
 73
     1
 44
1.0
1001
ACAD
1000
MTEXTBEGIN
1070
    73
1070
     1
1070
    44
1040
1.0
1070
    74
1070
     0
1000
MTEXTEND
  0
POINT
  5
1F425
330
1F3D8
100
AcDbEntity
  8
DEFPOINTS
 62
     0
 48
50.0
100
AcDbPoint
 10
7248.451485298365
 20
1005.39240947783
 30
0.0
  0
POINT
  5
1F426
330
1F3D8
100
AcDbEntity
  8
DEFPOINTS
 62
     0
 48
50.0
100
AcDbPoint
 10
7848.451485298365
 20
1005.39240947783
 30
0.0
  0
POINT
  5
1F427
330
1F3D8
100
AcDbEntity
  8
DEFPOINTS
 62
     0
 48
50.0
100
AcDbPoint
 10
7848.451485298365
 20
706.4403030218963
 30
0.0
  0
ENDBLK
  5
1F3E3
330
1F3D8
100
AcDbEntity
  8
0
 48
50.0
100
AcDbBlockEnd
  0
BLOCK
  5
1F3EE
330
1F3E4
100
AcDbEntity
  8
0
 48
50.0
100
AcDbBlockBegin
  2
*D34
 70
     1
 10
0.0
 20
0.0
 30
0.0
  3
*D34
  1

  0
LINE
  5
1F428
330
1F3E4
100
AcDbEntity
  8
寸法
 62
     0
 48
50.0
370
    -2
100
AcDbLine
 10
7243.451485298365
 20
1465.39240947783
 30
0.0
 11
6730.181140966756
 21
1465.39240947783
 31
0.0
  0
LINE
  5
1F429
330
1F3E4
100
AcDbEntity
  8
寸法
 62
     0
 48
50.0
370
    -2
100
AcDbLine
 10
7143.451485298365
 20
1165.39240947783
 30
0.0
 11
6730.181140966756
 21
1165.39240947783
 31
0.0
  0
LINE
  5
1F42A
330
1F3E4
100
AcDbEntity
  8
寸法
 62
     0
 48
50.0
370
    -2
100
AcDbLine
 10
6805.181140966756
 20
1465.39240947783
 30
0.0
 11
6805.181140966756
 21
1165.39240947783
 31
0.0
  0
INSERT
  5
1F42B
330
1F3E4
100
AcDbEntity
  8
寸法
 62
     0
 48
50.0
370
    -2
100
AcDbBlockReference
  2
_DOTSMALL
 10
6805.181140966756
 20
1465.39240947783
 30
0.0
 41
125.0
 42
125.0
 43
125.0
 50
90.0
  0
INSERT
  5
1F42C
330
1F3E4
100
AcDbEntity
  8
寸法
 62
     0
 48
50.0
370
    -2
100
AcDbBlockReference
  2
_DOTSMALL
 10
6805.181140966756
 20
1165.39240947783
 30
0.0
 41
125.0
 42
125.0
 43
125.0
 50
270.0
  0
MTEXT
  5
1F42D
330
1F3E4
100
AcDbEntity
  8
寸法
 62
     7
 48
50.0
100
AcDbMText
 10
6730.181140966756
 20
1339.719003869974
 30
0.0
 40
100.0
 41
0.0
 71
     5
 72
     1
  1
\A1;150
  7
STYLE1
 11
0.0000000000000001
 21
1.0
 31
0.0
 73
     1
 44
1.0
1001
ACAD
1000
MTEXTBEGIN
1070
    73
1070
     1
1070
    44
1040
1.0
1070
    74
1070
     0
1000
MTEXTEND
  0
POINT
  5
1F42E
330
1F3E4
100
AcDbEntity
  8
DEFPOINTS
 62
     0
 48
50.0
100
AcDbPoint
 10
7268.451485298365
 20
1465.39240947783
 30
0.0
  0
POINT
  5
1F42F
330
1F3E4
100
AcDbEntity
  8
DEFPOINTS
 62
     0
 48
50.0
100
AcDbPoint
 10
7168.451485298366
 20
1165.39240947783
 30
0.0
  0
POINT
  5
1F430
330
1F3E4
100
AcDbEntity
  8
DEFPOINTS
 62
     0
 48
50.0
100
AcDbPoint
 10
6805.181140966756
 20
1165.39240947783
 30
0.0
  0
ENDBLK
  5
1F3EF
330
1F3E4
100
AcDbEntity
  8
0
 48
50.0
100
AcDbBlockEnd
  0
ENDSEC
  0
SECTION
  2
ENTITIES
  0
LINE
  5
10B56
330
747D
100
AcDbEntity
  8
補助
  6
PHANTOM
 62
   230
 48
50.0
100
AcDbLine
 10
175.0
 20
0.0
 30
0.0
 11
174.9999999999993
 21
14262.0
 31
0.0
  0
LINE
  5
10B57
330
747D
100
AcDbEntity
  8
補助
  6
PHANTOM
 62
   230
 48
50.0
100
AcDbLine
 10
174.9999999999993
 20
14262.0
 30
0.0
 11
20384.0
 21
14262.0
 31
0.0
  0
LINE
  5
10B5D
330
747D
100
AcDbEntity
  8
仕様書枠
 48
50.0
100
AcDbLine
 10
175.0
 20
0.0
 30
0.0
 11
20384.0
 21
-0.0000000000001137
 31
0.0
  0
LINE
  5
10B5E
330
747D
100
AcDbEntity
  8
補助
  6
PHANTOM
 62
   230
 48
50.0
100
AcDbLine
 10
20384.0
 20
14262.0
 30
0.0
 11
20384.0
 21
1500.0
 31
0.0
  0
TEXT
  5
19F39
330
747D
100
AcDbEntity
  8
文字
 62
     7
 48
50.0
100
AcDbText
 10
11003.49825877673
 20
3558.63304310548
 30
0.0
 40
150.0
  1
（　）内寸法は屋根の出幅です。
  7
STYLE1
100
AcDbText
  0
LINE
  5
19F3A
330
747D
100
AcDbEntity
  8
部品1
100
AcDbLine
 10
13721.91828336903
 20
3494.11248196273
 30
0.0
 11
10984.25567651361
 21
3494.11248196273
 31
0.0
  0
TEXT
  5
1D522
330
747D
100
AcDbEntity
  8
文字
 62
     7
 48
50.0
100
AcDbText
 10
16501.79587498052
 20
596.5925826289065
 30
0.0
 40
200.0
  1
機種名
  7
STYLE2
100
AcDbText
  0
TEXT
  5
1D523
330
747D
100
AcDbEntity
  8
文字
 62
     7
 48
50.0
100
AcDbText
 10
16511.75668531126
 20
99.75789086487919
 30
0.0
 40
100.0
  1
※布基礎には換気口を設けてください。
  7
STYLE2
100
AcDbText
  0
TEXT
  5
1D524
330
747D
100
AcDbEntity
  8
文字
 62
     7
 48
50.0
100
AcDbText
 10
16511.75668531126
 20
270.5931184260625
 30
0.0
 40
100.0
  1
※寒冷地等は、地域の実情に合わせた基礎にしてください。
  7
STYLE2
100
AcDbText
  0
LINE
  5
1D525
330
747D
100
AcDbEntity
  8
仕様書枠
 48
50.0
100
AcDbLine
 10
16384.0
 20
999.9999999999998
 30
0.0
 11
17814.0
 21
999.9999999999998
 31
0.0
  0
TEXT
  5
1D526
330
747D
100
AcDbEntity
  8
仕様書枠
 62
     7
 48
50.0
100
AcDbText
 10
16453.72382072112
 20
1118.863259287425
 30
0.0
 40
250.0
  1
基 礎 図
  7
STYLE2
100
AcDbText
  0
LINE
  5
1D527
330
747D
100
AcDbEntity
  8
仕様書枠
 62
     7
 48
50.0
100
AcDbLine
 10
16484.0
 20
499.9999999999999
 30
0.0
 11
20284.0
 21
499.9999999999999
 31
0.0
  0
LINE
  5
1D528
330
747D
100
AcDbEntity
  8
仕様書枠
 48
50.0
100
AcDbLine
 10
16384.0
 20
1500.0
 30
0.0
 11
20384.0
 21
1500.0
 31
0.0
  0
LINE
  5
1D578
330
747D
100
AcDbEntity
  8
仕様書枠
  6
Continuous
 48
50.0
100
AcDbLine
 10
16384.0
 20
1500.0
 30
0.0
 11
16384.0
 21
-0.0000000000001137
 31
0.0
  0
TEXT
  5
1D57A
330
747D
100
AcDbEntity
  8
仕様書枠
 62
     7
 48
50.0
100
AcDbText
 10
18108.75008258934
 20
604.8708912389265
 30
0.0
 40
200.0
  1
ＳＭＫ-４７Ｓ・H
  7
STYLE2
100
AcDbText
  0
LINE
  5
1D57B
330
747D
100
AcDbEntity
  8
仕様書枠
  6
Continuous
 48
50.0
100
AcDbLine
 10
17814.0
 20
1500.0
 30
0.0
 11
17814.0
 21
999.9999999999998
 31
0.0
  0
TEXT
  5
1D57C
330
747D
100
AcDbEntity
  8
文字
 62
     7
 48
50.0
100
AcDbText
 10
19055.23044944207
 20
1289.447132864036
 30
0.0
 40
125.0
  1
<縮尺> S=1/50
  7
STYLE2
100
AcDbText
  0
LINE
  5
1D57D
330
747D
100
AcDbEntity
  8
仕様書枠
 48
50.0
100
AcDbLine
 10
20384.0
 20
1500.0
 30
0.0
 11
20384.0
 21
-0.0000000000001137
 31
0.0
  0
LEADER
  5
1DBDF
330
747D
100
AcDbEntity
  8
寸法
 48
50.0
100
AcDbLeader
  3
INABA_S50G
 73
     0
 74
     0
 75
     1
 40
150.0
 41
840.0
 76
     3
 10
10473.85049645894
 20
9872.310710222279
 30
0.0
 10
10389.80925839019
 20
10093.92670645115
 30
0.0
 10
10514.80925839019
 20
10093.92670645115
 30
0.0
340
1DBE0
1001
ACAD
1000
DSTYLE
1002
{
1070
   341
1005
0
1070
    40
1040
1.0
1070
   343
1005
0
1070
   344
1005
0
1002
}
  0
MTEXT
  5
1DBE0
102
{ACAD_REACTORS
330
1DBDF
102
}
330
747D
100
AcDbEntity
  8
部品1
 62
     7
 48
50.0
100
AcDbMText
 10
11379.80925839019
 20
10193.92670645115
 30
0.0
 40
150.0
 41
0.0
 71
     6
 72
     1
  1
\A1;屋根の外寸
  7
STYLE1
 73
     1
 44
1.0
1001
ACAD
1000
MTEXTBEGIN
1070
    73
1070
     1
1070
    44
1040
1.0
1070
    74
1070
     0
1000
MTEXTEND
  0
LINE
  5
1DBE1
330
747D
100
AcDbEntity
  8
部品1
 48
50.0
100
AcDbLine
 10
11469.99166227189
 20
9662.310710222286
 30
0.0
 11
9239.991662271886
 21
9662.310710222286
 31
0.0
  0
LINE
  5
1DBE2
330
747D
100
AcDbEntity
  8
想像線
 48
20.0
100
AcDbLine
 10
11639.99166227189
 20
9872.310710222279
 30
0.0
 11
9069.991662271888
 21
9872.310710222283
 31
0.0
  0
LINE
  5
1DBE3
330
747D
100
AcDbEntity
  8
部品1
 48
50.0
100
AcDbLine
 10
11589.99166227189
 20
9782.310710222283
 30
0.0
 11
9119.991662271889
 21
9782.310710222283
 31
0.0
  0
DIMENSION
  5
1DBE4
330
747D
100
AcDbEntity
  8
寸法
 48
50.0
100
AcDbDimension
  2
*D1
 10
11589.99166227189
 20
10414.57385995246
 30
0.0
 11
10972.49166227189
 21
10514.58862373198
 31
0.0
 70
    32
 71
     5
 42
1235.0
  3
INABA_S50G
100
AcDbAlignedDimension
 13
10354.99166227189
 23
8982.310710222282
 33
0.0
 14
11589.99166227189
 24
9782.310710222283
 34
0.0
100
AcDbRotatedDimension
  0
DIMENSION
  5
1DBE6
330
747D
100
AcDbEntity
  8
寸法
 48
50.0
100
AcDbDimension
  2
*D2
 10
11524.99166227189
 20
7292.614313849175
 30
0.0
 11
10354.99166227189
 21
7392.629077628702
 31
0.0
 70
    32
 71
     5
 42
2340.0
  3
INABA_S50G
100
AcDbAlignedDimension
 13
9184.991662271889
 23
7812.310710222281
 33
0.0
 14
11524.99166227189
 24
7812.310710222281
 34
0.0
100
AcDbRotatedDimension
1001
ACAD
1000
DSTYLE
1002
{
1070
    75
1070
     1
1070
   279
1070
     1
1002
}
  0
DIMENSION
  5
1DBE7
330
747D
100
AcDbEntity
  8
寸法
 48
50.0
100
AcDbDimension
  2
*D3
 10
11589.99166227189
 20
6981.081370094104
 30
0.0
 11
10354.99166227189
 21
7081.09613387363
 31
0.0
 70
    32
 71
     5
 42
2470.0
  3
INABA_S50G
100
AcDbAlignedDimension
 13
9119.991662271889
 23
7827.310710222285
 33
0.0
 14
11589.99166227189
 24
7892.310710222279
 34
0.0
100
AcDbRotatedDimension
  0
LINE
  5
1DBE8
330
747D
100
AcDbEntity
  8
部品1
 48
50.0
100
AcDbLine
 10
9239.99166227189
 20
8012.310710222282
 30
0.0
 11
11469.99166227189
 21
8012.31071022228
 31
0.0
  0
LINE
  5
1DBE9
330
747D
100
AcDbEntity
  8
想像線
 48
20.0
100
AcDbLine
 10
9069.991662271888
 20
7762.310710222282
 30
0.0
 11
11639.99166227189
 21
7762.310710222282
 31
0.0
  0
DIMENSION
  5
1DBEA
330
747D
100
AcDbEntity
  8
寸法
 48
50.0
100
AcDbDimension
  2
*D4
 10
11522.36445078942
 20
7803.930174581171
 30
0.0
 11
10584.99080258626
 21
8521.191792032173
 31
0.0
 70
   161
 71
     5
 42
3110.14469116792
  3
INABA_S50G
100
AcDbAlignedDimension
 13
9119.991662271889
 23
9782.310710222283
 33
0.0
 14
11589.99166227189
 24
7892.310710222282
 34
0.0
  0
LINE
  5
1DBEC
330
747D
100
AcDbEntity
  8
センター
 48
5.0
100
AcDbLine
 10
11093.99166227188
 20
9272.310710222283
 30
0.0
 11
10803.99166227189
 21
9272.310710222283
 31
0.0
  0
LINE
  5
1DBEE
330
747D
100
AcDbEntity
  8
センター
 48
5.0
100
AcDbLine
 10
10803.99166227189
 20
8837.310710222281
 30
0.0
 11
11093.99166227188
 21
8837.310710222281
 31
0.0
  0
LINE
  5
1DBF3
330
747D
100
AcDbEntity
  8
センター
 48
5.0
100
AcDbLine
 10
11093.99166227188
 20
8402.310710222282
 30
0.0
 11
10803.99166227189
 21
8402.310710222282
 31
0.0
  0
DIMENSION
  5
1DBF4
330
747D
100
AcDbEntity
  8
寸法
 48
50.0
100
AcDbDimension
  2
*D5
 10
10129.42093890865
 20
8837.310710222281
 30
0.0
 11
10029.42093890865
 21
9309.810710222285
 31
0.0
 70
    32
 71
     5
 42
945.0
  3
INABA_S50G
100
AcDbAlignedDimension
 13
10254.99166227189
 23
9782.310710222283
 33
0.0
 14
10209.99166227189
 24
8837.310710222281
 34
0.0
 50
90.0
100
AcDbRotatedDimension
  0
DIMENSION
  5
1DBF5
330
747D
100
AcDbEntity
  8
寸法
 48
50.0
100
AcDbDimension
  2
*D6
 10
8368.991662271888
 20
8837.310710222281
 30
0.0
 11
8268.991662271886
 21
9054.810710222284
 31
0.0
 70
    32
 71
     5
 42
435.0
  3
INABA_S50G
100
AcDbAlignedDimension
 13
9615.991662271891
 23
9272.310710222283
 33
0.0
 14
9615.991662271891
 24
8837.310710222281
 34
0.0
 50
90.0
100
AcDbRotatedDimension
  0
DIMENSION
  5
1DBF6
330
747D
100
AcDbEntity
  8
寸法
 48
50.0
100
AcDbDimension
  2
*D7
 10
10354.99166227189
 20
10414.57385995246
 30
0.0
 11
9737.491662271889
 21
10514.58862373198
 31
0.0
 70
    32
 71
     5
 42
1235.0
  3
INABA_S50G
100
AcDbAlignedDimension
 13
9119.991662271889
 23
9782.310710222283
 33
0.0
 14
10354.99166227189
 24
8982.310710222282
 34
0.0
100
AcDbRotatedDimension
  0
LINE
  5
1DBF7
330
747D
100
AcDbEntity
  8
部品1
 48
50.0
100
AcDbLine
 10
9239.991662271886
 20
9662.310710222286
 30
0.0
 11
9239.99166227189
 21
8012.310710222282
 31
0.0
  0
LINE
  5
1DBF8
330
747D
100
AcDbEntity
  8
想像線
 48
20.0
100
AcDbLine
 10
9069.991662271888
 20
9872.310710222283
 30
0.0
 11
9069.991662271888
 21
7762.310710222282
 31
0.0
  0
LINE
  5
1DBF9
330
747D
100
AcDbEntity
  8
部品1
 48
50.0
100
AcDbLine
 10
9119.991662271889
 20
9782.310710222283
 30
0.0
 11
9119.991662271889
 21
7892.310710222284
 31
0.0
  0
LINE
  5
1DBFA
330
747D
100
AcDbEntity
  8
センター
 48
5.0
100
AcDbLine
 10
10948.99166227188
 20
9127.310710222282
 30
0.0
 11
10948.99166227188
 21
9417.310710222283
 31
0.0
  0
LINE
  5
1DBFD
330
747D
100
AcDbEntity
  8
センター
 48
5.0
100
AcDbLine
 10
9760.991662271891
 20
9127.310710222282
 30
0.0
 11
9760.991662271891
 21
9417.310710222283
 31
0.0
  0
DIMENSION
  5
1DBFF
330
747D
100
AcDbEntity
  8
寸法
 48
50.0
100
AcDbDimension
  2
*D8
 10
9119.991662271889
 20
6981.081370094104
 30
0.0
 11
8652.550717389997
 21
6981.081370094104
 31
0.0
 70
   160
  1
(<>)
 71
     5
 42
50.0
  3
INABA_S50G
100
AcDbAlignedDimension
 13
9069.991662271888
 23
7292.614313849175
 33
0.0
 14
9119.991662271889
 24
7827.310710222285
 34
0.0
100
AcDbRotatedDimension
  0
LINE
  5
1DC03
330
747D
100
AcDbEntity
  8
センター
 48
5.0
100
AcDbLine
 10
9905.99166227189
 20
8837.310710222281
 30
0.0
 11
9615.991662271891
 21
8837.310710222281
 31
0.0
  0
LINE
  5
1DC04
330
747D
100
AcDbEntity
  8
センター
 48
5.0
100
AcDbLine
 10
9615.991662271891
 20
8402.310710222282
 30
0.0
 11
9905.99166227189
 21
8402.310710222282
 31
0.0
  0
LINE
  5
1DC05
330
747D
100
AcDbEntity
  8
センター
 48
5.0
100
AcDbLine
 10
9184.991662271889
 20
7812.310710222281
 30
0.0
 11
9184.991662271889
 21
8102.310710222281
 31
0.0
  0
DIMENSION
  5
1DC06
330
747D
100
AcDbEntity
  8
寸法
 48
50.0
100
AcDbDimension
  2
*D9
 10
8368.991662271888
 20
7892.310710222282
 30
0.0
 11
8268.991662271886
 21
8147.310710222283
 31
0.0
 70
    32
 71
     5
 42
510.0
  3
INABA_S50G
100
AcDbAlignedDimension
 13
9615.991662271891
 23
8402.310710222282
 33
0.0
 14
9119.991662271889
 24
7892.310710222282
 34
0.0
 50
90.0
100
AcDbRotatedDimension
1001
ACAD
1000
DSTYLE
1002
{
1070
    75
1070
     1
1070
   279
1070
     1
1002
}
  0
DIMENSION
  5
1DC07
330
747D
100
AcDbEntity
  8
寸法
 48
50.0
100
AcDbDimension
  2
*D10
 10
9184.991662271889
 20
7292.614313849175
 30
0.0
 11
8879.896871577711
 21
7292.614313849175
 31
0.0
 70
   160
 71
     5
 42
65.0
  3
INABA_S50G
100
AcDbAlignedDimension
 13
9119.991662271889
 23
7827.310710222285
 33
0.0
 14
9184.991662271889
 24
7812.310710222281
 34
0.0
100
AcDbRotatedDimension
  0
LINE
  5
1DC0A
330
747D
100
AcDbEntity
  8
センター
 48
5.0
100
AcDbLine
 10
9329.991662271888
 20
7957.310710222282
 30
0.0
 11
9039.991662271889
 21
7957.310710222282
 31
0.0
  0
DIMENSION
  5
1DC0C
330
747D
100
AcDbEntity
  8
寸法
 48
50.0
100
AcDbDimension
  2
*D11
 10
8368.991662271888
 20
8402.310710222282
 30
0.0
 11
8268.991662271886
 21
8619.810710222283
 31
0.0
 70
    32
 71
     5
 42
435.0
  3
INABA_S50G
100
AcDbAlignedDimension
 13
9615.991662271891
 23
8837.310710222281
 33
0.0
 14
9615.991662271891
 24
8402.310710222282
 34
0.0
 50
90.0
100
AcDbRotatedDimension
  0
LINE
  5
1DC0D
330
747D
100
AcDbEntity
  8
細線
 48
50.0
100
AcDbLine
 10
9119.991662271891
 20
8866.999699646623
 30
0.0
 11
9190.302672847552
 21
8937.310710222282
 31
0.0
  0
LINE
  5
1DC0E
330
747D
100
AcDbEntity
  8
細線
 48
50.0
100
AcDbLine
 10
9119.991662271891
 20
8911.900980251965
 30
0.0
 11
9145.401392242209
 21
8937.310710222286
 31
0.0
  0
LINE
  5
1DC0F
330
747D
100
AcDbEntity
  8
細線
 48
50.0
100
AcDbLine
 10
9119.991662271889
 20
8822.098419041271
 30
0.0
 11
9235.2039534529
 21
8937.310710222282
 31
0.0
  0
LINE
  5
1DC10
330
747D
100
AcDbEntity
  8
細線
 48
50.0
100
AcDbLine
 10
9119.991662271891
 20
8777.197138435928
 30
0.0
 11
9239.991662271888
 21
8897.197138435929
 31
0.0
  0
LINE
  5
1DC11
330
747D
100
AcDbEntity
  8
部品1
 48
50.0
100
AcDbLine
 10
9239.99166227189
 20
8737.310710222285
 30
0.0
 11
9119.991662271889
 21
8737.310710222281
 31
0.0
  0
LINE
  5
1DC12
330
747D
100
AcDbEntity
  8
細線
 48
50.0
100
AcDbLine
 10
9125.00651466359
 20
8737.310710222281
 30
0.0
 11
9239.991662271888
 21
8852.295857830581
 31
0.0
  0
LINE
  5
1DC13
330
747D
100
AcDbEntity
  8
細線
 48
50.0
100
AcDbLine
 10
9214.809075874283
 20
8737.310710222281
 30
0.0
 11
9239.99166227189
 21
8762.493296619899
 31
0.0
  0
LINE
  5
1DC14
330
747D
100
AcDbEntity
  8
細線
 48
50.0
100
AcDbLine
 10
9169.907795268937
 20
8737.310710222281
 30
0.0
 11
9239.991662271888
 21
8807.394577225235
 31
0.0
  0
LINE
  5
1DC15
330
747D
100
AcDbEntity
  8
部品1
 48
50.0
100
AcDbLine
 10
9239.991662271888
 20
8937.310710222282
 30
0.0
 11
9119.991662271889
 21
8937.310710222282
 31
0.0
  0
DIMENSION
  5
1DC16
330
747D
100
AcDbEntity
  8
寸法
 48
50.0
100
AcDbDimension
  2
*D12
 10
10129.42093890865
 20
7892.310710222282
 30
0.0
 11
10029.42093890865
 21
8364.810710222284
 31
0.0
 70
    32
 71
     5
 42
945.0
  3
INABA_S50G
100
AcDbAlignedDimension
 13
10209.99166227189
 23
8837.310710222281
 33
0.0
 14
10129.42093890865
 24
7892.310710222282
 34
0.0
 50
90.0
100
AcDbRotatedDimension
1001
ACAD
1000
DSTYLE
1002
{
1070
    75
1070
     1
1070
   279
1070
     1
1002
}
  0
LINE
  5
1DC17
330
747D
100
AcDbEntity
  8
細線
 48
50.0
100
AcDbLine
 10
10254.99166227189
 20
7944.136837201651
 30
0.0
 11
10323.16553529252
 21
8012.31071022228
 31
0.0
  0
LINE
  5
1DC18
330
747D
100
AcDbEntity
  8
細線
 48
50.0
100
AcDbLine
 10
10254.99166227189
 20
7899.235556596313
 30
0.0
 11
10368.06681589786
 21
8012.31071022228
 31
0.0
  0
LINE
  5
1DC19
330
747D
100
AcDbEntity
  8
細線
 48
50.0
100
AcDbLine
 10
10254.99166227188
 20
7854.334275990959
 30
0.0
 11
10412.96809650321
 21
8012.31071022228
 31
0.0
  0
LINE
  5
1DC1B
330
747D
100
AcDbEntity
  8
細線
 48
50.0
100
AcDbLine
 10
10254.99166227189
 20
7989.038117807002
 30
0.0
 11
10278.26425468719
 21
8012.310710222282
 31
0.0
  0
LINE
  5
1DC1C
330
747D
100
AcDbEntity
  8
部品1
 48
50.0
100
AcDbLine
 10
10254.99166227188
 20
7827.310710222284
 30
0.0
 11
10254.99166227189
 21
8012.310710222278
 31
0.0
  0
LINE
  5
1DC1D
330
747D
100
AcDbEntity
  8
細線
 48
50.0
100
AcDbLine
 10
10272.86937710856
 20
7827.310710222284
 30
0.0
 11
10454.99166227189
 21
8009.432995385621
 31
0.0
  0
LINE
  5
1DC1E
330
747D
100
AcDbEntity
  8
細線
 48
50.0
100
AcDbLine
 10
10317.7706577139
 20
7827.310710222284
 30
0.0
 11
10454.99166227189
 21
7964.531714780271
 31
0.0
  0
LINE
  5
1DC1F
330
747D
100
AcDbEntity
  8
細線
 48
50.0
100
AcDbLine
 10
10362.67193831926
 20
7827.310710222285
 30
0.0
 11
10454.99166227189
 21
7919.630434174926
 31
0.0
  0
LINE
  5
1DC20
330
747D
100
AcDbEntity
  8
部品1
 48
50.0
100
AcDbLine
 10
10454.99166227189
 20
7827.310710222284
 30
0.0
 11
10454.99166227189
 21
8012.310710222278
 31
0.0
  0
LINE
  5
1DC21
330
747D
100
AcDbEntity
  8
センター
 48
5.0
100
AcDbLine
 10
10499.99166227189
 20
8837.310710222281
 30
0.0
 11
10209.99166227189
 21
8837.310710222281
 31
0.0
  0
LINE
  5
1DC25
330
747D
100
AcDbEntity
  8
センター
 48
5.0
100
AcDbLine
 10
9760.991662271891
 20
8547.310710222282
 30
0.0
 11
9760.991662271891
 21
8257.310710222283
 31
0.0
  0
LINE
  5
1DC27
330
747D
100
AcDbEntity
  8
部品1
 48
50.0
100
AcDbLine
 10
9810.99166227189
 20
8202.310710222283
 30
0.0
 11
9710.99166227189
 21
8202.310710222283
 31
0.0
  0
LINE
  5
1DC2A
330
747D
100
AcDbEntity
  8
センター
 48
5.0
100
AcDbLine
 10
9760.991662271891
 20
8982.310710222282
 30
0.0
 11
9760.991662271891
 21
8692.310710222283
 31
0.0
  0
LINE
  5
1DC31
330
747D
100
AcDbEntity
  8
センター
 48
5.0
100
AcDbLine
 10
10948.99166227188
 20
8547.310710222282
 30
0.0
 11
10948.99166227188
 21
8257.310710222283
 31
0.0
  0
LEADER
  5
1DC32
330
747D
100
AcDbEntity
  8
寸法
 48
50.0
100
AcDbLeader
  3
INABA_S50G
 71
     0
 73
     0
 74
     0
 75
     1
 40
150.0
 41
231.9898538650463
 76
     3
 10
10391.84997951401
 20
8886.077998472472
 30
0.0
 10
10420.9013158895
 20
9006.977445121981
 30
0.0
 10
10545.9013158895
 20
9006.977445121981
 30
0.0
340
1DC33
  0
MTEXT
  5
1DC33
102
{ACAD_REACTORS
330
1DC32
102
}
330
747D
100
AcDbEntity
  8
細線
 62
     7
 48
50.0
100
AcDbMText
 10
10570.9013158895
 20
9106.97744512198
 30
0.0
 40
150.0
 41
0.0
 71
     4
 72
     1
  1
\A1;C.B
  7
STYLE1
 73
     1
 44
1.0
1001
ACAD
1000
MTEXTBEGIN
1070
    73
1070
     1
1070
    44
1040
1.0
1070
    74
1070
     0
1000
MTEXTEND
  0
LINE
  5
1DC34
330
747D
100
AcDbEntity
  8
センター
 48
5.0
100
AcDbLine
 10
10354.99166227189
 20
8982.310710222282
 30
0.0
 11
10354.99166227189
 21
8692.310710222283
 31
0.0
  0
LINE
  5
1DC37
330
747D
100
AcDbEntity
  8
センター
 48
5.0
100
AcDbLine
 10
10948.99166227188
 20
8982.310710222282
 30
0.0
 11
10948.99166227188
 21
8692.310710222283
 31
0.0
  0
LEADER
  5
1DC38
330
747D
100
AcDbEntity
  8
寸法
 48
50.0
100
AcDbLeader
  3
INABA_S50G
 71
     0
 73
     0
 75
     1
 40
150.0
 41
900.0000000000001
 76
     3
 10
10320.42101713238
 20
9782.310710222283
 30
0.0
 10
10269.28979618041
 20
10059.83145996102
 30
0.0
 10
10144.28979618041
 20
10059.83145996102
 30
0.0
340
1DC39
1001
ACAD
1000
DSTYLE
1002
{
1070
   341
1005
0
1070
    40
1040
1.0
1070
   343
1005
0
1070
   344
1005
0
1002
}
  0
MTEXT
  5
1DC39
102
{ACAD_REACTORS
330
1DC38
102
}
330
747D
100
AcDbEntity
  8
部品1
 62
     7
 48
50.0
100
AcDbMText
 10
10119.28979618041
 20
10159.83145996102
 30
0.0
 40
150.0
 41
0.0
 71
     6
 72
     1
  1
\A1;床下換気口
  7
STYLE1
 73
     1
 44
1.0
1001
ACAD
1000
MTEXTBEGIN
1070
    73
1070
     1
1070
    44
1040
1.0
1070
    74
1070
     0
1000
MTEXTEND
  0
LINE
  5
1DC3A
330
747D
100
AcDbEntity
  8
センター
 48
5.0
100
AcDbLine
 10
9615.991662271891
 20
9272.310710222283
 30
0.0
 11
9905.99166227189
 21
9272.310710222283
 31
0.0
  0
DIMENSION
  5
1DC3B
330
747D
100
AcDbEntity
  8
寸法
 48
50.0
100
AcDbDimension
  2
*D13
 10
8368.991662271888
 20
9272.310710222283
 30
0.0
 11
8268.991662271886
 21
9527.310710222284
 31
0.0
 70
    32
 71
     5
 42
510.0
  3
INABA_S50G
100
AcDbAlignedDimension
 13
9119.991662271889
 23
9782.310710222283
 33
0.0
 14
9615.991662271891
 24
9272.310710222283
 34
0.0
 50
90.0
100
AcDbRotatedDimension
  0
LINE
  5
1DC3C
330
747D
100
AcDbEntity
  8
センター
 48
5.0
100
AcDbLine
 10
9184.991662271889
 20
9862.310710222281
 30
0.0
 11
9184.991662271889
 21
9572.310710222282
 31
0.0
  0
LINE
  5
1DC3D
330
747D
100
AcDbEntity
  8
センター
 48
5.0
100
AcDbLine
 10
9329.991662271888
 20
9717.310710222283
 30
0.0
 11
9039.991662271889
 21
9717.310710222283
 31
0.0
  0
LINE
  5
1DC3E
330
747D
100
AcDbEntity
  8
細線
 48
50.0
100
AcDbLine
 10
10272.96809650321
 20
9662.310710222286
 30
0.0
 11
10392.9680965032
 21
9782.310710222279
 31
0.0
  0
LINE
  5
1DC3F
330
747D
100
AcDbEntity
  8
細線
 48
50.0
100
AcDbLine
 10
10254.99166227189
 20
9689.235556596312
 30
0.0
 11
10348.06681589786
 21
9782.310710222283
 31
0.0
  0
LINE
  5
1DC40
330
747D
100
AcDbEntity
  8
細線
 48
50.0
100
AcDbLine
 10
10254.99166227189
 20
9734.136837201653
 30
0.0
 11
10303.16553529251
 21
9782.310710222279
 31
0.0
  0
LINE
  5
1DC42
330
747D
100
AcDbEntity
  8
細線
 48
50.0
100
AcDbLine
 10
10254.99166227189
 20
9779.038117807003
 30
0.0
 11
10258.26425468717
 21
9782.310710222279
 31
0.0
  0
LINE
  5
1DC43
330
747D
100
AcDbEntity
  8
部品1
 48
50.0
100
AcDbLine
 10
10254.99166227189
 20
9662.310710222286
 30
0.0
 11
10254.99166227189
 21
9782.310710222283
 31
0.0
  0
LINE
  5
1DC44
330
747D
100
AcDbEntity
  8
細線
 48
50.0
100
AcDbLine
 10
10407.67193831925
 20
9662.310710222286
 30
0.0
 11
10454.99166227189
 21
9709.630434174927
 31
0.0
  0
LINE
  5
1DC45
330
747D
100
AcDbEntity
  8
部品1
 48
50.0
100
AcDbLine
 10
10454.99166227189
 20
9662.310710222286
 30
0.0
 11
10454.99166227189
 21
9782.310710222283
 31
0.0
  0
LINE
  5
1DC46
330
747D
100
AcDbEntity
  8
細線
 48
50.0
100
AcDbLine
 10
10362.7706577139
 20
9662.310710222286
 30
0.0
 11
10454.99166227189
 21
9754.53171478027
 31
0.0
  0
LINE
  5
1DC47
330
747D
100
AcDbEntity
  8
細線
 48
50.0
100
AcDbLine
 10
10317.86937710856
 20
9662.310710222286
 30
0.0
 11
10437.86937710855
 21
9782.310710222283
 31
0.0
  0
DIMENSION
  5
1DC48
330
747D
100
AcDbEntity
  8
寸法
 48
50.0
100
AcDbDimension
  2
*D14
 10
12120.05988643595
 20
7957.310710222282
 30
0.0
 11
12020.05988643595
 21
8837.310710222284
 31
0.0
 70
    32
 71
     5
 42
1759.999999999999
  3
INABA_S50G
100
AcDbAlignedDimension
 13
11669.99166227189
 23
9717.310710222283
 33
0.0
 14
11669.99166227189
 24
7957.310710222282
 34
0.0
 50
90.0
100
AcDbRotatedDimension
1001
ACAD
1000
DSTYLE
1002
{
1070
    75
1070
     1
1070
   279
1070
     1
1002
}
  0
DIMENSION
  5
1DC49
330
747D
100
AcDbEntity
  8
寸法
 48
50.0
100
AcDbDimension
  2
*D15
 10
12440.99166227189
 20
9782.310710222281
 30
0.0
 11
12340.99166227188
 21
8837.310710222284
 31
0.0
 70
    32
 71
     5
 42
1889.999999999999
  3
INABA_S50G
100
AcDbAlignedDimension
 13
11589.99166227189
 23
7892.310710222282
 33
0.0
 14
11589.99166227189
 24
9782.310710222283
 34
0.0
 50
90.0
100
AcDbRotatedDimension
  0
LINE
  5
1DC4A
330
747D
100
AcDbEntity
  8
部品1
 48
50.0
100
AcDbLine
 10
11469.99166227189
 20
8012.31071022228
 30
0.0
 11
11469.99166227189
 21
9662.310710222286
 31
0.0
  0
LINE
  5
1DC4B
330
747D
100
AcDbEntity
  8
想像線
 48
20.0
100
AcDbLine
 10
11639.99166227189
 20
7762.310710222282
 30
0.0
 11
11639.99166227189
 21
9872.310710222279
 31
0.0
  0
LINE
  5
1DC4C
330
747D
100
AcDbEntity
  8
部品1
 48
50.0
100
AcDbLine
 10
11589.99166227189
 20
7892.310710222279
 30
0.0
 11
11589.99166227189
 21
9782.310710222283
 31
0.0
  0
DIMENSION
  5
1DC4E
330
747D
100
AcDbEntity
  8
寸法
 48
50.0
100
AcDbDimension
  2
*D16
 10
11639.99166227189
 20
6981.081370094104
 30
0.0
 11
11932.43260715378
 21
6981.081370094104
 31
0.0
 70
   160
  1
(<>)
 71
     5
 42
50.0
  3
INABA_S50G
100
AcDbAlignedDimension
 13
11589.99166227189
 23
7892.310710222279
 33
0.0
 14
11639.99166227189
 24
7292.614313849175
 34
0.0
100
AcDbRotatedDimension
  0
DIMENSION
  5
1DC4F
330
747D
100
AcDbEntity
  8
寸法
 48
50.0
100
AcDbDimension
  2
*D17
 10
12440.99166227189
 20
7762.310710222282
 30
0.0
 11
12440.99166227189
 21
7431.369765340395
 31
0.0
 70
   160
  1
(<>)
 71
     5
 42
130.0
  3
INABA_S50G
100
AcDbAlignedDimension
 13
11589.99166227189
 23
7892.310710222282
 33
0.0
 14
12120.05988643595
 24
7762.310710222282
 34
0.0
 50
90.0
100
AcDbRotatedDimension
  0
LINE
  5
1DC50
330
747D
100
AcDbEntity
  8
センター
 48
5.0
100
AcDbLine
 10
11524.99166227189
 20
7812.310710222281
 30
0.0
 11
11524.99166227189
 21
8102.310710222281
 31
0.0
  0
DIMENSION
  5
1DC51
330
747D
100
AcDbEntity
  8
寸法
 48
50.0
100
AcDbDimension
  2
*D18
 10
12120.05988643596
 20
7892.310710222282
 30
0.0
 11
12120.05988643595
 21
7652.215919528103
 31
0.0
 70
   160
 71
     5
 42
65.0
  3
INABA_S50G
100
AcDbAlignedDimension
 13
11669.99166227189
 23
7957.310710222282
 33
0.0
 14
11589.99166227189
 24
7892.310710222282
 34
0.0
 50
90.0
100
AcDbRotatedDimension
1001
ACAD
1000
DSTYLE
1002
{
1002
}
  0
DIMENSION
  5
1DC52
330
747D
100
AcDbEntity
  8
寸法
 48
50.0
100
AcDbDimension
  2
*D19
 10
11589.99166227189
 20
7292.614313849175
 30
0.0
 11
11830.08645296606
 21
7292.614313849175
 31
0.0
 70
   160
 71
     5
 42
65.0
  3
INABA_S50G
100
AcDbAlignedDimension
 13
11524.99166227189
 23
7812.310710222281
 33
0.0
 14
11589.99166227189
 24
7892.310710222282
 34
0.0
100
AcDbRotatedDimension
1001
ACAD
1000
DSTYLE
1002
{
1002
}
  0
LINE
  5
1DC53
330
747D
100
AcDbEntity
  8
センター
 48
5.0
100
AcDbLine
 10
11379.99166227189
 20
7957.310710222282
 30
0.0
 11
11669.99166227189
 21
7957.310710222282
 31
0.0
  0
LINE
  5
1DC56
330
747D
100
AcDbEntity
  8
細線
 48
50.0
100
AcDbLine
 10
11469.99166227189
 20
8891.900980251961
 30
0.0
 11
11515.40139224221
 21
8937.310710222286
 31
0.0
  0
LINE
  5
1DC57
330
747D
100
AcDbEntity
  8
細線
 48
50.0
100
AcDbLine
 10
11469.99166227189
 20
8846.99969964662
 30
0.0
 11
11560.30267284755
 21
8937.310710222282
 31
0.0
  0
LINE
  5
1DC58
330
747D
100
AcDbEntity
  8
細線
 48
50.0
100
AcDbLine
 10
11469.99166227189
 20
8802.09841904127
 30
0.0
 11
11589.99166227189
 21
8922.098419041271
 31
0.0
  0
LINE
  5
1DC59
330
747D
100
AcDbEntity
  8
細線
 48
50.0
100
AcDbLine
 10
11469.99166227189
 20
8757.197138435925
 30
0.0
 11
11589.99166227189
 21
8877.197138435928
 31
0.0
  0
LINE
  5
1DC5A
330
747D
100
AcDbEntity
  8
細線
 48
50.0
100
AcDbLine
 10
11584.80907587428
 20
8737.310710222281
 30
0.0
 11
11589.99166227189
 21
8742.49329661989
 31
0.0
  0
LINE
  5
1DC5B
330
747D
100
AcDbEntity
  8
部品1
 48
50.0
100
AcDbLine
 10
11589.99166227189
 20
8737.310710222281
 30
0.0
 11
11469.99166227189
 21
8737.310710222281
 31
0.0
  0
LINE
  5
1DC5C
330
747D
100
AcDbEntity
  8
細線
 48
50.0
100
AcDbLine
 10
11539.90779526893
 20
8737.310710222281
 30
0.0
 11
11589.99166227189
 21
8787.394577225233
 31
0.0
  0
LINE
  5
1DC5D
330
747D
100
AcDbEntity
  8
細線
 48
50.0
100
AcDbLine
 10
11495.00651466359
 20
8737.310710222281
 30
0.0
 11
11589.99166227189
 21
8832.29585783058
 31
0.0
  0
LINE
  5
1DC5E
330
747D
100
AcDbEntity
  8
部品1
 48
50.0
100
AcDbLine
 10
11589.99166227189
 20
8937.310710222282
 30
0.0
 11
11469.99166227189
 21
8937.310710222282
 31
0.0
  0
LEADER
  5
1DC5F
330
747D
100
AcDbEntity
  8
寸法
 48
50.0
100
AcDbLeader
  3
INABA_S50G
 71
     0
 73
     0
 74
     0
 75
     1
 40
150.0
 41
1417.499999999999
 76
     3
 10
11524.99166227189
 20
9717.310710222283
 30
0.0
 10
11816.94810963336
 20
10466.81594660197
 30
0.0
 10
11941.94810963336
 20
10466.81594660197
 30
0.0
340
1DC60
  0
MTEXT
  5
1DC60
102
{ACAD_REACTORS
330
1DC5F
102
}
330
747D
100
AcDbEntity
  8
細線
 62
     7
 48
50.0
100
AcDbMText
 10
11966.94810963336
 20
10566.81594660197
 30
0.0
 40
150.0
 41
0.0
 71
     4
 72
     1
  1
\A1;アンカーボルト芯
  7
STYLE1
 73
     1
 44
1.0
1001
ACAD
1000
MTEXTBEGIN
1070
    73
1070
     1
1070
    44
1040
1.0
1070
    74
1070
     0
1000
MTEXTEND
  0
DIMENSION
  5
1DC61
330
747D
100
AcDbEntity
  8
寸法
 48
50.0
100
AcDbDimension
  2
*D20
 10
12440.99166227189
 20
9872.310710222278
 30
0.0
 11
12440.99166227189
 21
10166.01372989124
 31
0.0
 70
   160
  1
(<>)
 71
     5
 42
89.99999999999635
  3
INABA_S50G
100
AcDbAlignedDimension
 13
11589.99166227189
 23
9782.310710222283
 33
0.0
 14
12120.05988643595
 24
9872.310710222279
 34
0.0
 50
90.0
100
AcDbRotatedDimension
  0
DIMENSION
  5
1DC62
330
747D
100
AcDbEntity
  8
寸法
 48
50.0
100
AcDbDimension
  2
*D21
 10
12120.05988643596
 20
9717.310710222283
 30
0.0
 11
12120.05988643595
 21
10022.40550091646
 31
0.0
 70
   160
 71
     5
 42
65.0
  3
INABA_S50G
100
AcDbAlignedDimension
 13
11589.99166227189
 23
9782.310710222283
 33
0.0
 14
11669.99166227189
 24
9717.310710222283
 34
0.0
 50
90.0
100
AcDbRotatedDimension
  0
LINE
  5
1DC63
330
747D
100
AcDbEntity
  8
センター
 48
5.0
100
AcDbLine
 10
11379.99166227189
 20
9717.310710222283
 30
0.0
 11
11669.99166227189
 21
9717.310710222283
 31
0.0
  0
LINE
  5
1DC64
330
747D
100
AcDbEntity
  8
センター
 48
5.0
100
AcDbLine
 10
11524.99166227189
 20
9862.310710222281
 30
0.0
 11
11524.99166227189
 21
9572.310710222282
 31
0.0
  0
DIMENSION
  5
1E0B9
330
747D
100
AcDbEntity
  8
寸法
 48
50.0
100
AcDbDimension
  2
*D22
 10
11469.99166227189
 20
8606.801536029125
 30
0.0
 11
11199.93260715377
 21
8606.801536029125
 31
0.0
 70
   160
 71
     5
 42
120.0
  3
INABA_S50G
100
AcDbAlignedDimension
 13
11589.99166227189
 23
8610.359196831444
 33
0.0
 14
11469.99166227189
 24
8610.359196831449
 34
0.0
100
AcDbRotatedDimension
1001
ACAD
1000
DSTYLE
1002
{
1070
   341
1005
0
1002
}
  0
DIMENSION
  5
1E67C
330
747D
100
AcDbEntity
  8
寸法
 48
50.0
100
AcDbDimension
  2
*D23
 10
10574.86181753623
 20
8012.31071022228
 30
0.0
 11
10574.86181753623
 21
8285.417311940079
 31
0.0
 70
   160
 71
     5
 42
184.9999999999945
  3
INABA_S50G
100
AcDbAlignedDimension
 13
10655.83019732233
 23
7827.310710222285
 33
0.0
 14
10650.99166227188
 24
8012.31071022228
 34
0.0
 50
90.0
100
AcDbRotatedDimension
1001
ACAD
1000
DSTYLE
1002
{
1070
   341
1005
0
1002
}
  0
TEXT
  5
1EBF5
330
747D
100
AcDbEntity
  8
文字
 62
     7
 48
50.0
100
AcDbText
 10
20384.03312196795
 20
-0.3660603313909974
 30
0.0
 40
1.0
  1
sy
  7
STYLE2
100
AcDbText
  0
TEXT
  5
1EE00
330
747D
100
AcDbEntity
  8
文字
 62
     7
 48
50.0
100
AcDbText
 10
10182.76697500863
 20
4073.305230745922
 30
0.0
 40
150.0
  1
重量物を入れる場合（根太部ブロック追加）
  7
STYLE1
100
AcDbText
  0
LINE
  5
1EE01
330
747D
100
AcDbEntity
  8
部品1
100
AcDbLine
 10
13761.3522965126
 20
4008.784669603172
 30
0.0
 11
9656.791319995884
 21
4008.784669603172
 31
0.0
  0
LINE
  5
1EE03
102
{ACAD_REACTORS
330
1EE25
102
}
330
747D
100
AcDbEntity
  8
細線
 48
10.0
100
AcDbLine
 10
9716.472173766511
 20
4292.819805578145
 30
0.0
 11
10116.47217376651
 21
4292.819805578145
 31
0.0
  0
LINE
  5
1EE04
102
{ACAD_REACTORS
330
1EE25
102
}
330
747D
100
AcDbEntity
  8
細線
 48
10.0
100
AcDbLine
 10
9716.472173766511
 20
4092.819805578145
 30
0.0
 11
10116.47217376651
 21
4092.819805578145
 31
0.0
  0
LINE
  5
1EE05
102
{ACAD_REACTORS
330
1EE25
102
}
330
747D
100
AcDbEntity
  8
細線
 48
10.0
100
AcDbLine
 10
9716.472173766511
 20
4092.819805578145
 30
0.0
 11
9716.472173766511
 21
4292.819805578145
 31
0.0
  0
LINE
  5
1EE06
102
{ACAD_REACTORS
330
1EE25
102
}
330
747D
100
AcDbEntity
  8
細線
 48
10.0
100
AcDbLine
 10
10116.47217376651
 20
4292.819805578145
 30
0.0
 11
10116.47217376651
 21
4092.819805578145
 31
0.0
  0
HATCH
  5
1EE25
330
747D
100
AcDbEntity
  8
部品1
100
AcDbHatch
 10
0.0
 20
0.0
 30
0.0
210
0.0
220
0.0
230
1.0
  2
DOTS
 70
     0
 71
     1
 91
        1
 92
        7
 72
     0
 73
     1
 93
        4
 10
9716.472173766511
 20
4292.819805578145
 10
9716.472173766511
 20
4092.819805578145
 10
10116.47217376651
 20
4092.819805578145
 10
10116.47217376651
 20
4292.819805578145
 97
        4
330
1EE03
330
1EE05
330
1EE04
330
1EE06
 75
     0
 76
     1
 52
0.0
 41
10.0
 77
     0
 78
     1
 53
0.0
 43
0.0
 44
0.0
 45
7.9375
 46
15.875
 79
     2
 49
0.0
 49
-15.875
 47
7.869631346746647
 98
        1
 10
9915.712137247865
 20
4209.723072845299
  0
LINE
  5
1EE54
330
747D
100
AcDbEntity
  8
部品1
 48
50.0
100
AcDbLine
 10
9119.991662271889
 20
7892.310710222282
 30
0.0
 11
9119.991662271889
 21
7827.310710222282
 31
0.0
  0
LINE
  5
1EE55
330
747D
100
AcDbEntity
  8
想像線
 48
4.0
100
AcDbLine
 10
9119.991662271889
 20
7892.310710222282
 30
0.0
 11
10940.99166227189
 21
7892.310710222287
 31
0.0
  0
DIMENSION
  5
1EE56
330
747D
100
AcDbEntity
  8
寸法
 48
50.0
100
AcDbDimension
  2
*D25
 10
10940.99166227189
 20
7493.025597712004
 30
0.0
 11
10030.49166227189
 21
7593.040361491531
 31
0.0
 70
    32
 71
     5
 42
1821.000000000002
  3
INABA_S50G
100
AcDbAlignedDimension
 13
9119.991662271889
 23
7827.310710222284
 33
0.0
 14
10940.99166227189
 24
7827.310710222282
 34
0.0
100
AcDbRotatedDimension
1001
ACAD
1000
DSTYLE
1002
{
1070
   341
1005
0
1002
}
  0
LINE
  5
1EE57
330
747D
100
AcDbEntity
  8
想像線
 48
20.0
100
AcDbLine
 10
8420.991662271891
 20
7762.310710222282
 30
0.0
 11
10990.99166227189
 21
7762.310710222282
 31
0.0
  0
TEXT
  5
1EE58
330
747D
100
AcDbEntity
  8
寸法
 48
50.0
100
AcDbText
 10
9439.455601729941
 20
7602.479774616388
 30
0.0
 40
120.0
  1
扉面
  7
STYLE1
100
AcDbText
  0
LINE
  5
1EE6E
330
747D
100
AcDbEntity
  8
部品1
 48
50.0
100
AcDbLine
 10
9119.991662271889
 20
7827.310710222285
 30
0.0
 11
10940.99166227189
 21
7827.310710222285
 31
0.0
  0
LINE
  5
1EEA1
330
747D
100
AcDbEntity
  8
部品1
 48
50.0
100
AcDbLine
 10
10940.99166227189
 20
7892.310710222287
 30
0.0
 11
10940.99166227189
 21
7827.310710222286
 31
0.0
  0
LINE
  5
1EEA2
330
747D
100
AcDbEntity
  8
細線
 48
50.0
100
AcDbLine
 10
10452.47449952996
 20
7827.310710222285
 30
0.0
 11
10454.99166227189
 21
7829.827872964211
 31
0.0
  0
LINE
  5
1EEA3
330
747D
100
AcDbEntity
  8
細線
 48
50.0
100
AcDbLine
 10
10407.5732189246
 20
7827.310710222285
 30
0.0
 11
10454.99166227188
 21
7874.729153569567
 31
0.0
  0
LINE
  5
1EEB4
330
747D
100
AcDbEntity
  8
部品1
 48
50.0
100
AcDbLine
 10
10940.99166227189
 20
7892.310710222282
 30
0.0
 11
11589.99166227189
 21
7892.310710222279
 31
0.0
  0
HATCH
  5
1EEE9
330
747D
100
AcDbEntity
  8
寸法
 48
50.0
100
AcDbHatch
 10
0.0
 20
0.0
 30
0.0
210
0.0
220
0.0
230
1.0
  2
DOTS
 70
     0
 71
     0
 91
        3
 92
        7
 72
     0
 73
     1
 93
        4
 10
10940.99166227189
 20
7892.310710222287
 10
10454.99166227188
 20
7892.310710222282
 10
10454.99166227189
 20
7827.310710222285
 10
10940.99166227189
 20
7827.310710222285
 97
        0
 92
        7
 72
     0
 73
     1
 93
        4
 10
10254.99166227188
 20
7892.310710222282
 10
9184.991662271887
 20
7892.310710222282
 10
9184.991662271887
 20
7827.310710222284
 10
10254.99166227188
 20
7827.310710222285
 97
        0
 92
        7
 72
     0
 73
     1
 93
        4
 10
9184.991662271889
 20
7892.310710222282
 10
9119.991662271889
 20
7892.310710222282
 10
9119.991662271889
 20
7827.310710222285
 10
9184.991662271887
 20
7827.310710222285
 97
        0
 75
     0
 76
     1
 52
0.0
 41
9.0
 77
     0
 78
     1
 53
0.0
 43
0.0
 44
0.0
 45
7.143749999999999
 46
14.2875
 79
     2
 49
0.0
 49
-14.2875
 47
4.019985836706059
 98
        3
 10
10572.07638768133
 20
7867.85236791801
 10
9594.834981916079
 20
7847.752413208112
 10
9152.462316626355
 20
7879.912333593125
  0
LWPOLYLINE
  5
1EF34
330
747D
100
AcDbEntity
  8
細線
 48
50.0
100
AcDbPolyline
 90
        4
 70
     1
 43
0.0
 10
9660.991662271889
 20
9072.310710222282
 10
9860.99166227189
 20
9072.310710222282
 10
9860.99166227189
 20
9472.310710222282
 10
9660.991662271889
 20
9472.310710222282
  0
LWPOLYLINE
  5
1EF35
330
747D
100
AcDbEntity
  8
細線
 48
50.0
100
AcDbPolyline
 90
        4
 70
     1
 43
0.0
 10
9660.991662271889
 20
8202.310710222283
 10
9860.99166227189
 20
8202.310710222283
 10
9860.99166227189
 20
8602.310710222281
 10
9660.991662271889
 20
8602.310710222281
  0
LWPOLYLINE
  5
1EF36
330
747D
100
AcDbEntity
  8
細線
 48
50.0
100
AcDbPolyline
 90
        4
 70
     1
 43
0.0
 10
10848.99166227188
 20
8202.310710222283
 10
11048.99166227188
 20
8202.310710222283
 10
11048.99166227188
 20
8602.310710222281
 10
10848.99166227188
 20
8602.310710222281
  0
LWPOLYLINE
  5
1EF37
330
747D
100
AcDbEntity
  8
細線
 48
50.0
100
AcDbPolyline
 90
        4
 70
     1
 43
0.0
 10
10848.99166227188
 20
9072.310710222282
 10
11048.99166227188
 20
9072.310710222282
 10
11048.99166227188
 20
9472.310710222282
 10
10848.99166227188
 20
9472.310710222282
  0
LWPOLYLINE
  5
1EF38
330
747D
100
AcDbEntity
  8
細線
 48
50.0
100
AcDbPolyline
 90
        4
 70
     1
 43
0.0
 10
9660.991662271889
 20
8737.310710222281
 10
9860.99166227189
 20
8737.310710222281
 10
9860.99166227189
 20
8937.310710222282
 10
9660.991662271889
 20
8937.310710222282
  0
LWPOLYLINE
  5
1EF39
330
747D
100
AcDbEntity
  8
細線
 48
50.0
100
AcDbPolyline
 90
        4
 70
     1
 43
0.0
 10
10848.99166227188
 20
8737.310710222281
 10
11048.99166227188
 20
8737.310710222281
 10
11048.99166227188
 20
8937.310710222282
 10
10848.99166227188
 20
8937.310710222282
  0
HATCH
  5
1EF3A
330
747D
100
AcDbEntity
  8
部品1
 48
50.0
100
AcDbHatch
 10
0.0
 20
0.0
 30
0.0
210
0.0
220
0.0
230
1.0
  2
DOTS
 70
     0
 71
     0
 91
        1
 92
        1
 93
        4
 72
     1
 10
9660.991662271889
 20
9072.310710222282
 11
9860.99166227189
 21
9072.310710222282
 72
     1
 10
9860.99166227189
 20
9072.310710222282
 11
9860.99166227189
 21
9472.310710222282
 72
     1
 10
9860.99166227189
 20
9472.310710222282
 11
9660.991662271889
 21
9472.310710222282
 72
     1
 10
9660.991662271889
 20
9472.310710222282
 11
9660.991662271889
 21
9072.310710222282
 97
        0
 75
     0
 76
     1
 52
0.0
 41
10.0
 77
     0
 78
     1
 53
0.0
 43
0.0
 44
0.0
 45
7.9375
 46
15.875
 79
     2
 49
0.0
 49
-15.875
 98
        1
 10
0.0
 20
0.0
  0
HATCH
  5
1EF3B
330
747D
100
AcDbEntity
  8
部品1
 48
50.0
100
AcDbHatch
 10
0.0
 20
0.0
 30
0.0
210
0.0
220
0.0
230
1.0
  2
DOTS
 70
     0
 71
     0
 91
        1
 92
        1
 93
        4
 72
     1
 10
9660.991662271889
 20
8737.310710222281
 11
9860.99166227189
 21
8737.310710222281
 72
     1
 10
9860.99166227189
 20
8737.310710222281
 11
9860.99166227189
 21
8937.310710222282
 72
     1
 10
9860.99166227189
 20
8937.310710222282
 11
9660.991662271889
 21
8937.310710222282
 72
     1
 10
9660.991662271889
 20
8937.310710222282
 11
9660.991662271889
 21
8737.310710222281
 97
        0
 75
     0
 76
     1
 52
0.0
 41
10.0
 77
     0
 78
     1
 53
0.0
 43
0.0
 44
0.0
 45
7.9375
 46
15.875
 79
     2
 49
0.0
 49
-15.875
 98
        1
 10
0.0
 20
0.0
  0
HATCH
  5
1EF3C
330
747D
100
AcDbEntity
  8
部品1
 48
50.0
100
AcDbHatch
 10
0.0
 20
0.0
 30
0.0
210
0.0
220
0.0
230
1.0
  2
DOTS
 70
     0
 71
     0
 91
        1
 92
        1
 93
        4
 72
     1
 10
9660.991662271889
 20
8202.310710222283
 11
9860.99166227189
 21
8202.310710222283
 72
     1
 10
9860.99166227189
 20
8202.310710222283
 11
9860.99166227189
 21
8602.310710222281
 72
     1
 10
9860.99166227189
 20
8602.310710222281
 11
9660.991662271889
 21
8602.310710222281
 72
     1
 10
9660.991662271889
 20
8602.310710222281
 11
9660.991662271889
 21
8202.310710222283
 97
        0
 75
     0
 76
     1
 52
0.0
 41
10.0
 77
     0
 78
     1
 53
0.0
 43
0.0
 44
0.0
 45
7.9375
 46
15.875
 79
     2
 49
0.0
 49
-15.875
 98
        1
 10
0.0
 20
0.0
  0
HATCH
  5
1EF3D
330
747D
100
AcDbEntity
  8
部品1
 48
50.0
100
AcDbHatch
 10
0.0
 20
0.0
 30
0.0
210
0.0
220
0.0
230
1.0
  2
DOTS
 70
     0
 71
     0
 91
        1
 92
        1
 93
        4
 72
     1
 10
10848.99166227188
 20
8202.310710222283
 11
11048.99166227188
 21
8202.310710222283
 72
     1
 10
11048.99166227188
 20
8202.310710222283
 11
11048.99166227188
 21
8602.310710222281
 72
     1
 10
11048.99166227188
 20
8602.310710222281
 11
10848.99166227188
 21
8602.310710222281
 72
     1
 10
10848.99166227188
 20
8602.310710222281
 11
10848.99166227188
 21
8202.310710222283
 97
        0
 75
     0
 76
     1
 52
0.0
 41
10.0
 77
     0
 78
     1
 53
0.0
 43
0.0
 44
0.0
 45
7.9375
 46
15.875
 79
     2
 49
0.0
 49
-15.875
 98
        1
 10
0.0
 20
0.0
  0
HATCH
  5
1EF3E
330
747D
100
AcDbEntity
  8
部品1
 48
50.0
100
AcDbHatch
 10
0.0
 20
0.0
 30
0.0
210
0.0
220
0.0
230
1.0
  2
DOTS
 70
     0
 71
     0
 91
        1
 92
        1
 93
        4
 72
     1
 10
10848.99166227188
 20
8737.310710222281
 11
11048.99166227188
 21
8737.310710222281
 72
     1
 10
11048.99166227188
 20
8737.310710222281
 11
11048.99166227188
 21
8937.310710222282
 72
     1
 10
11048.99166227188
 20
8937.310710222282
 11
10848.99166227188
 21
8937.310710222282
 72
     1
 10
10848.99166227188
 20
8937.310710222282
 11
10848.99166227188
 21
8737.310710222281
 97
        0
 75
     0
 76
     1
 52
0.0
 41
10.0
 77
     0
 78
     1
 53
0.0
 43
0.0
 44
0.0
 45
7.9375
 46
15.875
 79
     2
 49
0.0
 49
-15.875
 98
        1
 10
0.0
 20
0.0
  0
HATCH
  5
1EF3F
330
747D
100
AcDbEntity
  8
部品1
 48
50.0
100
AcDbHatch
 10
0.0
 20
0.0
 30
0.0
210
0.0
220
0.0
230
1.0
  2
DOTS
 70
     0
 71
     0
 91
        1
 92
        1
 93
        4
 72
     1
 10
10848.99166227188
 20
9072.310710222282
 11
11048.99166227188
 21
9072.310710222282
 72
     1
 10
11048.99166227188
 20
9072.310710222282
 11
11048.99166227188
 21
9472.310710222282
 72
     1
 10
11048.99166227188
 20
9472.310710222282
 11
10848.99166227188
 21
9472.310710222282
 72
     1
 10
10848.99166227188
 20
9472.310710222282
 11
10848.99166227188
 21
9072.310710222282
 97
        0
 75
     0
 76
     1
 52
0.0
 41
10.0
 77
     0
 78
     1
 53
0.0
 43
0.0
 44
0.0
 45
7.9375
 46
15.875
 79
     2
 49
0.0
 49
-15.875
 98
        1
 10
0.0
 20
0.0
  0
LWPOLYLINE
  5
1EF49
330
747D
100
AcDbEntity
  8
部品1
 48
50.0
100
AcDbPolyline
 90
        4
 70
     1
 43
0.0
 10
10254.99166227189
 20
8737.310710222281
 10
10454.99166227189
 20
8737.310710222281
 10
10454.99166227189
 20
8937.310710222282
 10
10254.99166227189
 20
8937.310710222282
  0
LINE
  5
1F19F
330
747D
100
AcDbEntity
  8
細線
 48
50.0
100
AcDbLine
 10
10838.91848199106
 20
3039.608092979961
 30
0.0
 11
9989.628903443131
 21
3039.608092979961
 31
0.0
  0
TEXT
  5
1F1A0
330
747D
100
AcDbEntity
  8
部品1
 48
50.0
100
AcDbText
 10
10010.3779783748
 20
3104.694874793028
 30
0.0
 40
112.0
  1
基礎詳細図
  7
STYLE2
100
AcDbText
  0
LINE
  5
1F1A1
330
747D
100
AcDbEntity
  8
細線
 48
50.0
100
AcDbLine
 10
10838.91848199106
 20
3279.608092979961
 30
0.0
 11
9989.628903443131
 21
3279.608092979961
 31
0.0
  0
LINE
  5
1F1A2
330
747D
100
AcDbEntity
  8
部品1
100
AcDbLine
 10
10573.10615805354
 20
2468.46059078108
 30
0.0
 11
10605.41385036124
 21
2468.46059078108
 31
0.0
  0
LINE
  5
1F1A3
330
747D
100
AcDbEntity
  8
細線
 48
50.0
100
AcDbLine
 10
10601.87538882277
 20
2352.301618320034
 30
0.0
 11
10622.52607704115
 21
2346.768283088774
 31
0.0
  0
ARC
  5
1F1A4
330
747D
100
AcDbEntity
  8
部品1
100
AcDbCircle
 10
10601.06769651508
 20
2338.482215946995
 30
0.0
 40
7.3858052918609
100
AcDbArc
 50
43.19325636896477
 51
136.8067436310352
  0
LINE
  5
1F1A5
330
747D
100
AcDbEntity
  8
細線
 48
50.0
100
AcDbLine
 10
10601.87538882277
 20
2376.301618320034
 30
0.0
 11
10637.07538882277
 21
2366.869806746459
 31
0.0
  0
LINE
  5
1F1A6
330
747D
100
AcDbEntity
  8
部品1
100
AcDbLine
 10
10591.37538882277
 20
2325.229821550311
 30
0.0
 11
10647.37538882277
 21
2325.229821550311
 31
0.0
  0
LINE
  5
1F1A7
330
747D
100
AcDbEntity
  8
部品1
100
AcDbLine
 10
10598.91385036124
 20
2346.768283088774
 30
0.0
 11
10639.83692728431
 21
2346.768283088774
 31
0.0
  0
LINE
  5
1F1A8
330
747D
100
AcDbEntity
  8
部品1
100
AcDbLine
 10
10595.68308113046
 20
2343.537513858006
 30
0.0
 11
10643.06769651508
 21
2343.537513858002
 31
0.0
  0
LINE
  5
1F1A9
330
747D
100
AcDbEntity
  8
細線
 48
50.0
100
AcDbLine
 10
10601.87538882277
 20
2364.301618320038
 30
0.0
 11
10637.07538882277
 21
2354.869806746461
 31
0.0
  0
LINE
  5
1F1AA
330
747D
100
AcDbEntity
  8
細線
100
AcDbLine
 10
10590.45224137555
 20
2287.274078255523
 30
0.0
 11
10646.18223001398
 21
2288.911822952912
 31
0.0
  0
LINE
  5
1F1AB
330
747D
100
AcDbEntity
  8
部品1
100
AcDbLine
 10
10507.10615805354
 20
2325.229821550311
 30
0.0
 11
10674.02923497662
 21
2325.229821550311
 31
0.0
  0
CIRCLE
  5
1F1AC
330
747D
100
AcDbEntity
  8
部品1
 48
50.0
100
AcDbCircle
 10
10595.87538882277
 20
2146.240165985426
 30
0.0
 40
10.0
  0
ARC
  5
1F1AD
330
747D
100
AcDbEntity
  8
部品1
 48
50.0
100
AcDbCircle
 10
10595.87538882277
 20
2146.240165985426
 30
0.0
 40
30.0
100
AcDbArc
 50
70.52877936552764
 51
180.0
  0
LINE
  5
1F1AE
330
747D
100
AcDbEntity
  8
部品1
 48
50.0
100
AcDbLine
 10
10475.87538882277
 20
2320.922129242619
 30
0.0
 11
10715.87538882277
 21
2320.922129242619
 31
0.0
  0
DIMENSION
  5
1F1AF
330
747D
100
AcDbEntity
  8
寸法
 48
50.0
100
AcDbDimension
  2
*D28
 10
10619.37538882277
 20
2564.655471140566
 30
0.0
 11
10265.81219502666
 21
2564.655471140566
 31
0.0
 70
   160
  1
65
 71
     5
 42
143.5
  3
INABA_S50GUP
100
AcDbAlignedDimension
 13
10475.87538882277
 23
2320.922129242619
 33
0.0
 14
10619.37538882277
 24
2381.229821550311
 34
0.0
100
AcDbRotatedDimension
1001
ACAD
1000
DSTYLE
1002
{
1070
   140
1040
100.0
1002
}
  0
ARC
  5
1F1B0
330
747D
100
AcDbEntity
  8
部品1
 48
50.0
100
AcDbCircle
 10
10595.87538882277
 20
2070.922129242619
 30
0.0
 40
10.0
100
AcDbArc
 50
270.0
 51
0.0
  0
LINE
  5
1F1B1
330
747D
100
AcDbEntity
  8
細線
 48
50.0
100
AcDbLine
 10
10585.87538882278
 20
2078.888245077407
 30
0.0
 11
10605.87538882277
 21
2098.888245077407
 31
0.0
  0
ARC
  5
1F1B2
330
747D
100
AcDbEntity
  8
部品1
 48
50.0
100
AcDbCircle
 10
10595.87538882277
 20
2070.922129242619
 30
0.0
 40
37.0
100
AcDbArc
 50
270.0
 51
0.0
  0
LINE
  5
1F1B3
330
747D
100
AcDbEntity
  8
細線
 48
50.0
100
AcDbLine
 10
10475.87538882277
 20
1666.832482353351
 30
0.0
 11
10605.87538882277
 21
1796.832482353352
 31
0.0
  0
LINE
  5
1F1B4
330
747D
100
AcDbEntity
  8
細線
 48
50.0
100
AcDbLine
 10
10475.87538882277
 20
1633.156521899342
 30
0.0
 11
10605.87538882278
 21
1763.15652189934
 31
0.0
  0
LINE
  5
1F1B5
330
747D
100
AcDbEntity
  8
細線
 48
50.0
100
AcDbLine
 10
10475.87538882277
 20
1599.480561445332
 30
0.0
 11
10605.87538882278
 21
1729.480561445334
 31
0.0
  0
LINE
  5
1F1B6
330
747D
100
AcDbEntity
  8
細線
 48
50.0
100
AcDbLine
 10
10585.87538882277
 20
2112.564205531417
 30
0.0
 11
10605.87538882277
 21
2132.564205531417
 31
0.0
  0
LINE
  5
1F1B7
330
747D
100
AcDbEntity
  8
細線
 48
50.0
100
AcDbLine
 10
10575.70769816953
 20
1463.581147614022
 30
0.0
 11
10605.87538882278
 21
1493.748838267269
 31
0.0
  0
LINE
  5
1F1B8
330
747D
100
AcDbEntity
  8
細線
 48
50.0
100
AcDbLine
 10
10585.87538882278
 20
1440.072877813258
 30
0.0
 11
10605.87538882278
 21
1460.07287781326
 31
0.0
  0
CIRCLE
  5
1F1B9
330
747D
100
AcDbEntity
  8
部品1
 48
50.0
100
AcDbCircle
 10
10595.87538882277
 20
1390.922129242619
 30
0.0
 40
10.0
  0
LINE
  5
1F1BA
330
747D
100
AcDbEntity
  8
細線
 48
50.0
100
AcDbLine
 10
10588.78040297619
 20
1240.922129242619
 30
0.0
 11
10708.78040297619
 21
1360.922129242619
 31
0.0
  0
LINE
  5
1F1BB
330
747D
100
AcDbEntity
  8
細線
 48
50.0
100
AcDbLine
 10
10459.37271934412
 20
1380.922129242619
 30
0.0
 11
10605.87538882277
 21
1527.424798721278
 31
0.0
  0
LINE
  5
1F1BC
330
747D
100
AcDbEntity
  8
部品1
 48
50.0
100
AcDbLine
 10
10365.87538882277
 20
1380.922129242619
 30
0.0
 11
10825.87538882277
 21
1380.922129242619
 31
0.0
  0
LINE
  5
1F1BD
330
747D
100
AcDbEntity
  8
部品1
 48
50.0
100
AcDbLine
 10
10365.87538882277
 20
1360.922129242619
 30
0.0
 11
10825.87538882277
 21
1360.922129242619
 31
0.0
  0
DIMENSION
  5
1F1BE
330
747D
100
AcDbEntity
  8
寸法
 48
50.0
100
AcDbDimension
  2
*D29
 10
9934.490090902103
 20
2320.922129242619
 30
0.0
 11
9934.490090902103
 21
2650.435858295721
 31
0.0
 70
   160
  1
出30
 71
     5
 42
60.30769230769147
  3
INABA_S50GUP
100
AcDbAlignedDimension
 13
10605.87538882277
 23
2381.229821550311
 33
0.0
 14
10475.87538882277
 24
2320.922129242619
 34
0.0
 50
90.0
100
AcDbRotatedDimension
1001
ACAD
1000
DSTYLE
1002
{
1070
   140
1040
100.0
1002
}
  0
DIMENSION
  5
1F1BF
330
747D
100
AcDbEntity
  8
寸法
 48
50.0
100
AcDbDimension
  2
*D30
 10
10677.26000420739
 20
2786.234389192542
 30
0.0
 11
10581.9523118997
 21
2786.234389192542
 31
0.0
 70
   160
  1
88.5
 71
     5
 42
190.6153846153847
  3
INABA_S50GUP
100
AcDbAlignedDimension
 13
10486.644619592
 23
2426.46059078108
 33
0.0
 14
10677.26000420739
 24
2427.537513858004
 34
0.0
100
AcDbRotatedDimension
1001
ACAD
1000
DSTYLE
1002
{
1070
   140
1040
100.0
1002
}
  0
LINE
  5
1F1C0
330
747D
100
AcDbEntity
  8
細線
 48
50.0
100
AcDbLine
 10
6352.985354070599
 20
253.9464197392026
 30
0.0
 11
14475.56203136359
 21
253.946419739204
 31
0.0
  0
TEXT
  5
1F1C1
330
747D
100
AcDbEntity
  8
部品1
 48
50.0
100
AcDbText
 10
10061.318618048
 20
427.5066565719408
 30
0.0
 40
96.0
  1
アンカー部詳細
  7
STYLE2
100
AcDbText
  0
LINE
  5
1F1C2
330
747D
100
AcDbEntity
  8
部品1
 48
50.0
100
AcDbLine
 10
11040.48595508799
 20
393.5143648394442
 30
0.0
 11
9999.716182909757
 21
393.5143648394442
 31
0.0
  0
LINE
  5
1F1C3
330
747D
100
AcDbEntity
  8
部品1
 48
50.0
100
AcDbLine
 10
11040.48595508799
 20
553.5143648394441
 30
0.0
 11
9999.716182909757
 21
553.5143648394441
 31
0.0
  0
LINE
  5
1F1C4
330
747D
100
AcDbEntity
  8
部品1
 48
50.0
100
AcDbLine
 10
10995.87538882278
 20
1240.922129242619
 30
0.0
 11
10195.87538882277
 21
1240.922129242619
 31
0.0
  0
LINE
  5
1F1C5
330
747D
100
AcDbEntity
  8
部品1
 48
50.0
100
AcDbLine
 10
10995.87538882278
 20
1080.922129242619
 30
0.0
 11
10195.87538882277
 21
1080.922129242619
 31
0.0
  0
LINE
  5
1F1C6
330
747D
100
AcDbEntity
  8
細線
 48
50.0
100
AcDbLine
 10
6352.985354070599
 20
3159.608092979961
 30
0.0
 11
6352.985354070599
 21
253.9464197392022
 31
0.0
  0
DIMENSION
  5
1F1C7
330
747D
100
AcDbEntity
  8
寸法
 48
50.0
100
AcDbDimension
  2
*D31
 10
7428.451485298364
 20
2645.39240947783
 30
0.0
 11
7548.451485298365
 21
2645.39240947783
 31
0.0
 70
   160
  1
120\P185
 71
     5
 42
240.0
  3
INABA_S50GUP
100
AcDbAlignedDimension
 13
7668.451485298366
 23
2245.392409477831
 33
0.0
 14
7428.451485298364
 24
2245.392409477831
 34
0.0
100
AcDbRotatedDimension
1001
ACAD
1000
DSTYLE
1002
{
1070
   140
1040
100.0
1002
}
  0
LINE
  5
1F1C8
330
747D
100
AcDbEntity
  8
Ｇ．Ｌ
 48
50.0
100
AcDbLine
 10
6910.776608007167
 20
1845.39240947783
 30
0.0
 11
7428.451485298364
 21
1845.39240947783
 31
0.0
  0
LEADER
  5
1F1C9
330
747D
100
AcDbEntity
  8
寸法
 48
50.0
100
AcDbLeader
  3
INABA_S50G
 71
     0
 73
     0
 40
101.39087296526
 41
174.1421356237309
 76
     2
 10
7548.451485298365
 20
2070.710446220637
 30
0.0
 10
7313.868890894686
 20
2014.367988345458
 30
0.0
340
1F1CA
  0
MTEXT
  5
1F1CA
102
{ACAD_REACTORS
330
1F1C9
102
}
330
747D
100
AcDbEntity
  8
寸法
 62
     7
 48
50.0
100
AcDbMText
 10
7288.868890894686
 20
2090.063424828088
 30
0.0
 40
100.0
 41
0.0
 71
     6
 72
     1
  1
D13
  7
STYLE1
 73
     1
 44
1.0
1001
ACAD
1000
MTEXTBEGIN
1070
    73
1070
     1
1070
    44
1040
1.0
1070
    74
1070
     0
1000
MTEXTEND
  0
MTEXT
  5
1F1CB
102
{ACAD_REACTORS
330
1F1CC
102
}
330
747D
100
AcDbEntity
  8
寸法
 62
     7
 48
50.0
100
AcDbMText
 10
7346.064228901372
 20
2511.037684480383
 30
0.0
 40
100.0
 41
0.0
 71
     6
 72
     1
  1
\A1;金コテ押エ
  7
STYLE1
 73
     1
 44
1.0
1001
ACAD
1000
MTEXTBEGIN
1070
    73
1070
     1
1070
    44
1040
1.0
1070
    74
1070
     0
1000
MTEXTEND
  0
LEADER
  5
1F1CC
330
747D
100
AcDbEntity
  8
寸法
 48
50.0
100
AcDbLeader
  3
INABA_S50G
 71
     0
 73
     0
 75
     1
 40
100.0
 41
585.0000000000001
 76
     3
 10
7528.451485298365
 20
2245.392409477831
 30
0.0
 10
7496.064228901372
 20
2436.037684480383
 30
0.0
 10
7371.064228901372
 20
2436.037684480383
 30
0.0
340
1F1CB
  0
LEADER
  5
1F1CD
330
747D
100
AcDbEntity
  8
寸法
 48
50.0
100
AcDbLeader
  3
INABA_S50G
 71
     0
 73
     0
 75
     1
 40
132.9441738241594
 41
490.0787401574802
 76
     3
 10
7567.009280836373
 20
1943.051427849234
 30
0.0
 10
7343.738650336359
 20
1671.834375316761
 30
0.0
 10
7218.738650336359
 20
1671.834375316761
 30
0.0
340
1F1CE
213
-20.50276907354419
223
30.78492082892717
233
0.0
  0
MTEXT
  5
1F1CE
102
{ACAD_REACTORS
330
1F1CD
102
}
330
747D
100
AcDbEntity
  8
寸法
 62
     7
 48
50.0
100
AcDbMText
 10
7214.241419409903
 20
1732.521541399914
 30
0.0
 40
100.0
 41
0.0
 71
     6
 72
     1
  1
\A1;D10@300
  7
STYLE1
 73
     1
 44
1.0
1001
ACAD
1000
MTEXTBEGIN
1070
    73
1070
     1
1070
    44
1040
1.0
1070
    74
1070
     0
1000
MTEXTEND
  0
LINE
  5
1F1CF
330
747D
100
AcDbEntity
  8
細線
 48
50.0
100
AcDbLine
 10
7248.451485298364
 20
1377.626802134555
 30
0.0
 11
7336.217092641644
 21
1465.39240947783
 31
0.0
  0
LINE
  5
1F1D0
330
747D
100
AcDbEntity
  8
細線
 48
50.0
100
AcDbLine
 10
7248.451485298367
 20
1343.950841680545
 30
0.0
 11
7369.89305309565
 21
1465.39240947783
 31
0.0
  0
LINE
  5
1F1D1
330
747D
100
AcDbEntity
  8
部品1
 48
50.0
100
AcDbLine
 10
7248.451485298364
 20
1465.39240947783
 30
0.0
 11
7428.451485298364
 21
1465.39240947783
 31
0.0
  0
LINE
  5
1F1D2
330
747D
100
AcDbEntity
  8
細線
 48
50.0
100
AcDbLine
 10
7280.48927119881
 20
1005.39240947783
 30
0.0
 11
7323.361141987793
 21
1165.39240947783
 31
0.0
  0
LINE
  5
1F1D3
330
747D
100
AcDbEntity
  8
細線
 48
50.0
100
AcDbLine
 10
7271.948815819705
 20
1165.39240947783
 30
0.0
 11
7391.948815819706
 21
1285.39240947783
 31
0.0
  0
LINE
  5
1F1D4
330
747D
100
AcDbEntity
  8
細線
 48
50.0
100
AcDbLine
 10
7305.624776273718
 20
1165.39240947783
 30
0.0
 11
7425.624776273719
 21
1285.39240947783
 31
0.0
  0
LEADER
  5
1F1D5
330
747D
100
AcDbEntity
  8
寸法
 48
50.0
100
AcDbLeader
  3
INABA_S50G
 71
     0
 73
     0
 75
     1
 40
101.39087296526
 41
170.0787401574803
 76
     3
 10
7388.197109445801
 20
1315.39240947783
 30
0.0
 10
7151.300823769654
 20
970.4187196910648
 30
0.0
 10
7026.300823769654
 20
970.4187196910648
 30
0.0
340
1F1D6
  0
MTEXT
  5
1F1D6
102
{ACAD_REACTORS
330
1F1D5
102
}
330
747D
100
AcDbEntity
  8
寸法
 62
     7
 48
50.0
100
AcDbMText
 10
7001.300823769653
 20
1046.114156173695
 30
0.0
 40
100.0
 41
0.0
 71
     6
 72
     1
  1
D10
  7
STYLE1
 73
     1
 44
1.0
1001
ACAD
1000
MTEXTBEGIN
1070
    73
1070
     1
1070
    44
1040
1.0
1070
    74
1070
     0
1000
MTEXTEND
  0
DIMENSION
  5
1F1D7
330
747D
100
AcDbEntity
  8
寸法
 48
50.0
100
AcDbDimension
  2
*D32
 10
6573.98211749921
 20
1165.39240947783
 30
0.0
 11
6573.98211749921
 21
1742.187346075541
 31
0.0
 70
   160
  1
540
 71
     5
 42
1080.0
  3
INABA_S50GUP
100
AcDbAlignedDimension
 13
7428.451485298364
 23
2245.392409477831
 33
0.0
 14
7168.451485298366
 24
1165.39240947783
 34
0.0
 50
90.0
100
AcDbRotatedDimension
1001
ACAD
1000
DSTYLE
1002
{
1070
   140
1040
100.0
1002
}
  0
LINE
  5
1F1D8
330
747D
100
AcDbEntity
  8
部品1
 48
50.0
100
AcDbLine
 10
7318.451485298362
 20
1285.39240947783
 30
0.0
 11
7778.451485298363
 21
1285.39240947783
 31
0.0
  0
LINE
  5
1F1D9
330
747D
100
AcDbEntity
  8
部品1
 48
50.0
100
AcDbLine
 10
7318.451485298362
 20
1305.39240947783
 30
0.0
 11
7778.451485298363
 21
1305.39240947783
 31
0.0
  0
LINE
  5
1F1DA
330
747D
100
AcDbEntity
  8
部品1
 48
50.0
100
AcDbLine
 10
7948.451485298363
 20
1005.39240947783
 30
0.0
 11
7148.451485298363
 21
1005.39240947783
 31
0.0
  0
LINE
  5
1F1DB
330
747D
100
AcDbEntity
  8
部品1
 48
50.0
100
AcDbLine
 10
7948.451485298363
 20
1165.39240947783
 30
0.0
 11
7148.451485298363
 21
1165.39240947783
 31
0.0
  0
DIMENSION
  5
1F1DC
330
747D
100
AcDbEntity
  8
寸法
 48
50.0
100
AcDbDimension
  2
*D33
 10
7848.451485298365
 20
706.4403030218963
 30
0.0
 11
7548.451485298365
 21
706.4403030218963
 31
0.0
 70
   160
  1
300
 71
     5
 42
600.0
  3
INABA_S50GUP
100
AcDbAlignedDimension
 13
7248.451485298365
 23
1005.39240947783
 33
0.0
 14
7848.451485298365
 24
1005.39240947783
 34
0.0
100
AcDbRotatedDimension
1001
ACAD
1000
DSTYLE
1002
{
1070
   140
1040
100.0
1002
}
  0
LINE
  5
1F1DD
330
747D
100
AcDbEntity
  8
部品1
 48
50.0
100
AcDbLine
 10
7248.451485298364
 20
1165.39240947783
 30
0.0
 11
7248.451485298364
 21
1465.39240947783
 31
0.0
  0
DIMENSION
  5
1F1DE
330
747D
100
AcDbEntity
  8
寸法
 48
50.0
100
AcDbDimension
  2
*D34
 10
6805.181140966756
 20
1165.39240947783
 30
0.0
 11
6805.181140966756
 21
1339.719003869974
 31
0.0
 70
   160
  1
150
 71
     5
 42
300.0
  3
INABA_S50GUP
100
AcDbAlignedDimension
 13
7268.451485298365
 23
1465.39240947783
 33
0.0
 14
7168.451485298366
 24
1165.39240947783
 34
0.0
 50
90.0
100
AcDbRotatedDimension
1001
ACAD
1000
DSTYLE
1002
{
1070
   140
1040
100.0
1002
}
  0
LINE
  5
1F1DF
330
747D
100
AcDbEntity
  8
部品1
 48
50.0
100
AcDbLine
 10
7148.451485298363
 20
1005.39240947783
 30
0.0
 11
7148.451485298363
 21
1165.39240947783
 31
0.0
  0
LINE
  5
1F1E0
330
747D
100
AcDbEntity
  8
細線
 48
50.0
100
AcDbLine
 10
7181.879215014749
 20
1005.39240947783
 30
0.0
 11
7224.751085803731
 21
1165.39240947783
 31
0.0
  0
LINE
  5
1F1E1
330
747D
100
AcDbEntity
  8
細線
 48
50.0
100
AcDbLine
 10
7288.527746971748
 20
1035.39240947783
 30
0.0
 11
7296.566222744681
 21
1005.39240947783
 31
0.0
  0
LINE
  5
1F1E2
330
747D
100
AcDbEntity
  8
細線
 48
50.0
100
AcDbLine
 10
7189.917690787686
 20
1035.39240947783
 30
0.0
 11
7197.956166560619
 21
1005.39240947783
 31
0.0
  0
LINE
  5
1F1E3
330
747D
100
AcDbEntity
  8
部品1
 48
50.0
100
AcDbLine
 10
7318.451485298362
 20
1285.39240947783
 30
0.0
 11
7318.451485298362
 21
1305.39240947783
 31
0.0
  0
LINE
  5
1F1E4
330
747D
100
AcDbEntity
  8
細線
 48
50.0
100
AcDbLine
 10
7315.32266621486
 20
1135.39240947783
 30
0.0
 11
7307.284190441926
 21
1165.39240947783
 31
0.0
  0
LINE
  5
1F1E5
330
747D
100
AcDbEntity
  8
細線
 48
50.0
100
AcDbLine
 10
7216.712610030798
 20
1135.39240947783
 30
0.0
 11
7208.674134257865
 21
1165.39240947783
 31
0.0
  0
LINE
  5
1F1E6
330
747D
100
AcDbEntity
  8
細線
 48
50.0
100
AcDbLine
 10
7248.451485298364
 20
1411.302762588565
 30
0.0
 11
7302.541132187631
 21
1465.39240947783
 31
0.0
  0
TEXT
  5
1F1E7
330
747D
100
AcDbEntity
  8
部品1
 48
50.0
100
AcDbText
 10
7059.124874581543
 20
1854.758236380541
 30
0.0
 40
100.0
  1
G.L
  7
STYLE1
100
AcDbText
  0
LINE
  5
1F1E8
330
747D
100
AcDbEntity
  8
部品1
 48
50.0
100
AcDbLine
 10
7057.033519211545
 20
1928.862534326254
 30
0.0
 11
7008.842020161018
 21
1845.39240947783
 31
0.0
  0
LINE
  5
1F1E9
330
747D
100
AcDbEntity
  8
部品1
 48
50.0
100
AcDbLine
 10
6960.650521110489
 20
1928.862534326254
 30
0.0
 11
7008.842020161018
 21
1845.39240947783
 31
0.0
  0
LINE
  5
1F1EA
330
747D
100
AcDbEntity
  8
部品1
 48
50.0
100
AcDbLine
 10
6960.650521110489
 20
1928.862534326254
 30
0.0
 11
7057.033519211545
 21
1928.862534326254
 31
0.0
  0
LINE
  5
1F1EB
330
747D
100
AcDbEntity
  8
細線
 48
50.0
100
AcDbLine
 10
8958.886886777861
 20
1665.392409477831
 30
0.0
 11
8966.925362550794
 21
1635.392409477831
 31
0.0
  0
LINE
  5
1F1EC
330
747D
100
AcDbEntity
  8
細線
 48
50.0
100
AcDbLine
 10
8950.848411004928
 20
1635.392409477831
 30
0.0
 11
8993.72028179391
 21
1795.392409477831
 31
0.0
  0
LINE
  5
1F1ED
330
747D
100
AcDbEntity
  8
細線
100
AcDbLine
 10
8855.132698817596
 20
1945.392409477831
 30
0.0
 11
9155.132698817594
 21
2245.392409477831
 31
0.0
  0
LINE
  5
1F1EE
330
747D
100
AcDbEntity
  8
細線
100
AcDbLine
 10
8895.132698817596
 20
1945.392409477831
 30
0.0
 11
9195.132698817593
 21
2245.392409477831
 31
0.0
  0
LINE
  5
1F1EF
330
747D
100
AcDbEntity
  8
部品1
 48
50.0
100
AcDbLine
 10
9270.320104496169
 20
2245.392409477831
 30
0.0
 11
8490.320104496168
 21
2245.392409477831
 31
0.0
  0
LINE
  5
1F1F0
330
747D
100
AcDbEntity
  8
部品1
100
AcDbLine
 10
8244.620158177339
 20
1795.392409477831
 30
0.0
 11
9516.020050814997
 21
1795.392409477831
 31
0.0
  0
LINE
  5
1F1F1
330
747D
100
AcDbEntity
  8
部品1
100
AcDbLine
 10
8244.620158177339
 20
1635.392409477835
 30
0.0
 11
9516.020050814997
 21
1635.392409477835
 31
0.0
  0
LINE
  5
1F1F2
330
747D
100
AcDbEntity
  8
Ｇ．Ｌ
 48
50.0
100
AcDbLine
 10
7668.451485298362
 20
1945.39240947783
 30
0.0
 11
9696.560444910437
 21
1945.392409477831
 31
0.0
  0
LEADER
  5
1F1F3
330
747D
100
AcDbEntity
  8
寸法
 48
50.0
100
AcDbLeader
  3
INABA_S50G
 71
     0
 73
     0
 74
     0
 75
     1
 40
100.0
 41
154.6599025766975
 76
     3
 10
8933.139066407182
 20
2180.70014006423
 30
0.0
 10
8987.420616891302
 20
2404.740028173966
 30
0.0
 10
9112.420616891302
 20
2404.740028173966
 30
0.0
340
1F1F4
  0
MTEXT
  5
1F1F4
102
{ACAD_REACTORS
330
1F1F3
102
}
330
747D
100
AcDbEntity
  8
寸法
 62
     7
 48
50.0
100
AcDbMText
 10
9137.420616891303
 20
2479.740028173966
 30
0.0
 40
100.0
 41
0.0
 71
     4
 72
     1
  1
C.B
  7
STYLE1
 73
     1
 44
1.0
1001
ACAD
1000
MTEXTBEGIN
1070
    73
1070
     1
1070
    44
1040
1.0
1070
    74
1070
     0
1000
MTEXTEND
  0
LINE
  5
1F1F5
330
747D
100
AcDbEntity
  8
細線
 48
50.0
100
AcDbLine
 10
7681.356499451776
 20
1305.39240947783
 30
0.0
 11
7841.356499451784
 21
1465.39240947783
 31
0.0
  0
LINE
  5
1F1F6
330
747D
100
AcDbEntity
  8
細線
 48
50.0
100
AcDbLine
 10
7715.032459905794
 20
1305.39240947783
 30
0.0
 11
7848.451485298364
 21
1438.811434870404
 31
0.0
  0
LINE
  5
1F1F7
330
747D
100
AcDbEntity
  8
部品1
 48
50.0
100
AcDbLine
 10
7848.451485298364
 20
1465.39240947783
 30
0.0
 11
7848.451485298364
 21
1165.39240947783
 31
0.0
  0
LEADER
  5
1F1F8
330
747D
100
AcDbEntity
  8
寸法
 48
50.0
100
AcDbLeader
  3
INABA_S50G
 71
     0
 73
     0
 74
     0
 75
     1
 40
101.39087296526
 41
170.0787401574803
 76
     3
 10
7708.451485298363
 20
1315.39240947783
 30
0.0
 10
7762.733035782483
 20
1538.736861104935
 30
0.0
 10
7887.733035782483
 20
1538.736861104935
 30
0.0
340
1F1F9
  0
MTEXT
  5
1F1F9
102
{ACAD_REACTORS
330
1F1F8
102
}
330
747D
100
AcDbEntity
  8
寸法
 62
     7
 48
50.0
100
AcDbMText
 10
7912.733035782483
 20
1614.432297587566
 30
0.0
 40
100.0
 41
0.0
 71
     4
 72
     1
  1
D10
  7
STYLE1
 73
     1
 44
1.0
1001
ACAD
1000
MTEXTBEGIN
1070
    73
1070
     1
1070
    44
1040
1.0
1070
    74
1070
     0
1000
MTEXTEND
  0
LINE
  5
1F1FA
330
747D
100
AcDbEntity
  8
細線
 48
50.0
100
AcDbLine
 10
7528.283794645123
 20
1388.051427849234
 30
0.0
 11
7558.45148529837
 21
1418.21911850248
 31
0.0
  0
LINE
  5
1F1FB
330
747D
100
AcDbEntity
  8
細線
 48
50.0
100
AcDbLine
 10
7411.948815819705
 20
1305.39240947783
 30
0.0
 11
7558.451485298363
 21
1451.895078956489
 31
0.0
  0
LINE
  5
1F1FC
330
747D
100
AcDbEntity
  8
部品1
 48
50.0
100
AcDbLine
 10
7578.45148529837
 20
1315.39240947783
 30
0.0
 11
7578.451485298363
 21
2070.710446220637
 31
0.0
  0
LINE
  5
1F1FD
330
747D
100
AcDbEntity
  8
部品1
 48
50.0
100
AcDbLine
 10
7558.45148529837
 20
1315.39240947783
 30
0.0
 11
7558.451485298363
 21
2070.710446220637
 31
0.0
  0
LINE
  5
1F1FE
330
747D
100
AcDbEntity
  8
細線
 48
50.0
100
AcDbLine
 10
7578.45148529837
 20
1404.543158048471
 30
0.0
 11
7668.451485298362
 21
1494.543158048467
 31
0.0
  0
LINE
  5
1F1FF
330
747D
100
AcDbEntity
  8
部品1
 48
50.0
100
AcDbLine
 10
8315.397065151618
 20
393.5143648394442
 30
0.0
 11
7675.397065151617
 21
393.5143648394442
 31
0.0
  0
LINE
  5
1F200
330
747D
100
AcDbEntity
  8
部品1
 48
50.0
100
AcDbLine
 10
8315.397065151618
 20
553.5143648394441
 30
0.0
 11
7675.397065151617
 21
553.5143648394441
 31
0.0
  0
TEXT
  5
1F201
330
747D
100
AcDbEntity
  8
部品1
 48
50.0
100
AcDbText
 10
7717.587566495833
 20
424.7221510441159
 30
0.0
 40
96.0
  1
基礎断面
  7
STYLE2
100
AcDbText
  0
MTEXT
  5
1F202
102
{ACAD_REACTORS
330
1F203
102
}
330
747D
100
AcDbEntity
  8
寸法
 62
     7
 48
50.0
100
AcDbMText
 10
8056.438451457442
 20
1151.784270010543
 30
0.0
 40
100.0
 41
0.0
 71
     4
 72
     1
  1
\A1;D10@300
  7
STYLE1
 73
     1
 44
1.0
1001
ACAD
1000
MTEXTBEGIN
1070
    73
1070
     1
1070
    44
1040
1.0
1070
    74
1070
     0
1000
MTEXTEND
  0
LEADER
  5
1F203
330
747D
100
AcDbEntity
  8
寸法
 48
50.0
100
AcDbLeader
  3
INABA_S50G
 71
     0
 73
     0
 74
     0
 75
     1
 40
132.9441738241594
 41
490.0787401574802
 76
     3
 10
7752.445416450864
 20
1296.678016707923
 30
0.0
 10
7906.438451457441
 20
1060.312183098463
 30
0.0
 10
8031.438451457441
 20
1060.312183098463
 30
0.0
340
1F202
  0
MTEXT
  5
1F204
102
{ACAD_REACTORS
330
1F205
102
}
330
747D
100
AcDbEntity
  8
寸法
 62
     7
 48
50.0
100
AcDbMText
 10
7981.854825654663
 20
923.1840200800617
 30
0.0
 40
100.0
 41
0.0
 71
     4
 72
     1
  1
D13
  7
STYLE1
 73
     1
 44
1.0
1001
ACAD
1000
MTEXTBEGIN
1070
    73
1070
     1
1070
    44
1040
1.0
1070
    74
1070
     0
1000
MTEXTEND
  0
LEADER
  5
1F205
330
747D
100
AcDbEntity
  8
寸法
 48
50.0
100
AcDbLeader
  3
INABA_S50G
 71
     0
 73
     0
 74
     0
 75
     1
 40
101.39087296526
 41
174.1421356237309
 76
     3
 10
7548.451485298365
 20
1315.39240947783
 30
0.0
 10
7831.854825654663
 20
847.4885835974315
 30
0.0
 10
7956.854825654663
 20
847.4885835974315
 30
0.0
340
1F204
  0
LINE
  5
1F206
330
747D
100
AcDbEntity
  8
部品1
 48
50.0
100
AcDbLine
 10
7675.397065151617
 20
553.5143648394441
 30
0.0
 11
7675.397065151617
 21
393.5143648394442
 31
0.0
  0
LINE
  5
1F207
330
747D
100
AcDbEntity
  8
細線
 48
50.0
100
AcDbLine
 10
7674.929495935055
 20
1005.39240947783
 30
0.0
 11
7717.801366724033
 21
1165.39240947783
 31
0.0
  0
LINE
  5
1F208
330
747D
100
AcDbEntity
  8
細線
 48
50.0
100
AcDbLine
 10
7477.709383566933
 20
1005.39240947783
 30
0.0
 11
7520.581254355912
 21
1165.39240947783
 31
0.0
  0
LINE
  5
1F209
330
747D
100
AcDbEntity
  8
細線
 48
50.0
100
AcDbLine
 10
7379.099327382871
 20
1005.39240947783
 30
0.0
 11
7421.971198171853
 21
1165.39240947783
 31
0.0
  0
LINE
  5
1F20A
330
747D
100
AcDbEntity
  8
細線
 48
50.0
100
AcDbLine
 10
7576.319439750995
 20
1005.39240947783
 30
0.0
 11
7619.191310539974
 21
1165.39240947783
 31
0.0
  0
LINE
  5
1F20B
330
747D
100
AcDbEntity
  8
細線
 48
50.0
100
AcDbLine
 10
7485.74785933987
 20
1035.39240947783
 30
0.0
 11
7493.786335112803
 21
1005.39240947783
 31
0.0
  0
LINE
  5
1F20C
330
747D
100
AcDbEntity
  8
細線
 48
50.0
100
AcDbLine
 10
7387.137803155809
 20
1035.39240947783
 30
0.0
 11
7395.176278928743
 21
1005.39240947783
 31
0.0
  0
LINE
  5
1F20D
330
747D
100
AcDbEntity
  8
細線
 48
50.0
100
AcDbLine
 10
7682.967971707988
 20
1035.39240947783
 30
0.0
 11
7691.006447480923
 21
1005.39240947783
 31
0.0
  0
LINE
  5
1F20E
330
747D
100
AcDbEntity
  8
細線
 48
50.0
100
AcDbLine
 10
7584.357915523928
 20
1035.39240947783
 30
0.0
 11
7592.396391296862
 21
1005.39240947783
 31
0.0
  0
LINE
  5
1F20F
330
747D
100
AcDbEntity
  8
部品1
 48
50.0
100
AcDbLine
 10
7538.451485298363
 20
1388.051427849234
 30
0.0
 11
7518.451485298363
 21
1388.051427849234
 31
0.0
  0
ARC
  5
1F210
330
747D
100
AcDbEntity
  8
部品1
 48
50.0
100
AcDbCircle
 10
7548.451485298364
 20
1315.39240947783
 30
0.0
 40
30.0
100
AcDbArc
 50
180.0
 51
199.4712206344973
  0
LINE
  5
1F211
330
747D
100
AcDbEntity
  8
細線
 48
50.0
100
AcDbLine
 10
7445.624776273719
 20
1305.39240947783
 30
0.0
 11
7518.451485298363
 21
1378.219118502478
 31
0.0
  0
LINE
  5
1F212
330
747D
100
AcDbEntity
  8
部品1
 48
50.0
100
AcDbLine
 10
7518.451485298363
 20
1388.051427849234
 30
0.0
 11
7518.451485298363
 21
1315.39240947783
 31
0.0
  0
LINE
  5
1F213
330
747D
100
AcDbEntity
  8
細線
 48
50.0
100
AcDbLine
 10
7479.300736727724
 20
1305.39240947783
 30
0.0
 11
7518.451485298363
 21
1344.543158048467
 31
0.0
  0
CIRCLE
  5
1F214
330
747D
100
AcDbEntity
  8
部品1
 48
50.0
100
AcDbCircle
 10
7388.451485298363
 20
1315.39240947783
 30
0.0
 40
10.0
  0
LINE
  5
1F215
330
747D
100
AcDbEntity
  8
細線
 48
50.0
100
AcDbLine
 10
7512.542778582981
 20
1135.39240947783
 30
0.0
 11
7504.504302810047
 21
1165.39240947783
 31
0.0
  0
LINE
  5
1F216
330
747D
100
AcDbEntity
  8
細線
 48
50.0
100
AcDbLine
 10
7413.93272239892
 20
1135.39240947783
 30
0.0
 11
7405.894246625987
 21
1165.39240947783
 31
0.0
  0
LINE
  5
1F217
330
747D
100
AcDbEntity
  8
細線
 48
50.0
100
AcDbLine
 10
7339.300736727725
 20
1165.39240947783
 30
0.0
 11
7459.300736727723
 21
1285.39240947783
 31
0.0
  0
CIRCLE
  5
1F218
330
747D
100
AcDbEntity
  8
部品1
 48
50.0
100
AcDbCircle
 10
7708.451485298363
 20
1315.39240947783
 30
0.0
 40
10.0
  0
LINE
  5
1F219
330
747D
100
AcDbEntity
  8
細線
 48
50.0
100
AcDbLine
 10
7709.762890951104
 20
1135.39240947783
 30
0.0
 11
7701.724415178171
 21
1165.39240947783
 31
0.0
  0
LINE
  5
1F21A
330
747D
100
AcDbEntity
  8
細線
 48
50.0
100
AcDbLine
 10
7538.451485298367
 20
1364.543158048469
 30
0.0
 11
7558.45148529837
 21
1384.543158048471
 31
0.0
  0
ARC
  5
1F21B
330
747D
100
AcDbEntity
  8
部品1
 48
50.0
100
AcDbCircle
 10
7548.451485298364
 20
1315.39240947783
 30
0.0
 40
30.0
100
AcDbArc
 50
340.5287793655026
 51
0.0
  0
LINE
  5
1F21C
330
747D
100
AcDbEntity
  8
部品1
 48
50.0
100
AcDbLine
 10
7538.451485298363
 20
1388.051427849234
 30
0.0
 11
7538.451485298363
 21
1315.39240947783
 31
0.0
  0
CIRCLE
  5
1F21D
330
747D
100
AcDbEntity
  8
部品1
 48
50.0
100
AcDbCircle
 10
7548.451485298364
 20
1315.39240947783
 30
0.0
 40
10.0
  0
LINE
  5
1F21E
330
747D
100
AcDbEntity
  8
細線
 48
50.0
100
AcDbLine
 10
7611.152834767043
 20
1135.39240947783
 30
0.0
 11
7603.114358994109
 21
1165.39240947783
 31
0.0
  0
LINE
  5
1F21F
330
747D
100
AcDbEntity
  8
細線
 48
50.0
100
AcDbLine
 10
7608.7084203598
 20
1165.39240947783
 30
0.0
 11
7728.709530166226
 21
1285.393519284254
 31
0.0
  0
LINE
  5
1F220
330
747D
100
AcDbEntity
  8
細線
 48
50.0
100
AcDbLine
 10
7541.356499451779
 20
1165.39240947783
 30
0.0
 11
7661.35649945178
 21
1285.39240947783
 31
0.0
  0
LINE
  5
1F221
330
747D
100
AcDbEntity
  8
細線
 48
50.0
100
AcDbLine
 10
7575.032459905793
 20
1165.39240947783
 30
0.0
 11
7695.032459905793
 21
1285.39240947783
 31
0.0
  0
LINE
  5
1F222
330
747D
100
AcDbEntity
  8
細線
 48
50.0
100
AcDbLine
 10
7872.149608303178
 20
1005.39240947783
 30
0.0
 11
7915.021479092157
 21
1165.39240947783
 31
0.0
  0
LINE
  5
1F223
330
747D
100
AcDbEntity
  8
部品1
 48
50.0
100
AcDbLine
 10
7948.451485298363
 20
1005.39240947783
 30
0.0
 11
7948.451485298363
 21
1165.39240947783
 31
0.0
  0
LINE
  5
1F224
330
747D
100
AcDbEntity
  8
細線
 48
50.0
100
AcDbLine
 10
7773.539552119117
 20
1005.39240947783
 30
0.0
 11
7816.411422908095
 21
1165.39240947783
 31
0.0
  0
LINE
  5
1F225
330
747D
100
AcDbEntity
  8
細線
 48
50.0
100
AcDbLine
 10
7880.188084076111
 20
1035.39240947783
 30
0.0
 11
7888.226559849044
 21
1005.39240947783
 31
0.0
  0
LINE
  5
1F226
330
747D
100
AcDbEntity
  8
細線
 48
50.0
100
AcDbLine
 10
7781.57802789205
 20
1035.39240947783
 30
0.0
 11
7789.616503664984
 21
1005.39240947783
 31
0.0
  0
LINE
  5
1F227
330
747D
100
AcDbEntity
  8
部品1
 48
50.0
100
AcDbLine
 10
7778.451485298363
 20
1285.39240947783
 30
0.0
 11
7778.451485298363
 21
1305.39240947783
 31
0.0
  0
LINE
  5
1F228
330
747D
100
AcDbEntity
  8
細線
 48
50.0
100
AcDbLine
 10
7748.708420359803
 20
1305.39240947783
 30
0.0
 11
7848.451485298364
 21
1405.135474416392
 31
0.0
  0
LINE
  5
1F229
330
747D
100
AcDbEntity
  8
細線
 48
50.0
100
AcDbLine
 10
7906.983003319226
 20
1135.39240947783
 30
0.0
 11
7898.944527546293
 21
1165.39240947783
 31
0.0
  0
LINE
  5
1F22A
330
747D
100
AcDbEntity
  8
細線
 48
50.0
100
AcDbLine
 10
7844.440143537868
 20
1165.39240947783
 30
0.0
 11
7848.451485298364
 21
1169.403751238327
 31
0.0
  0
LINE
  5
1F22B
330
747D
100
AcDbEntity
  8
細線
 48
50.0
100
AcDbLine
 10
7808.372947135166
 20
1135.39240947783
 30
0.0
 11
7800.334471362233
 21
1165.39240947783
 31
0.0
  0
LINE
  5
1F22C
330
747D
100
AcDbEntity
  8
細線
 48
50.0
100
AcDbLine
 10
7810.764183083854
 20
1165.39240947783
 30
0.0
 11
7848.451485298364
 21
1203.079711692336
 31
0.0
  0
LINE
  5
1F22D
330
747D
100
AcDbEntity
  8
部品1
 48
50.0
100
AcDbLine
 10
8315.397065151618
 20
553.5143648394441
 30
0.0
 11
8315.397065151618
 21
393.5143648394442
 31
0.0
  0
LINE
  5
1F22E
330
747D
100
AcDbEntity
  8
部品1
 48
50.0
100
AcDbLine
 10
7668.451485298362
 20
2245.392409477831
 30
0.0
 11
7668.451485298362
 21
1465.39240947783
 31
0.0
  0
LINE
  5
1F22F
330
747D
100
AcDbEntity
  8
細線
 48
50.0
100
AcDbLine
 10
7428.451485298364
 20
1893.358525312618
 30
0.0
 11
7533.144387834981
 21
1998.051427849233
 31
0.0
  0
LINE
  5
1F230
330
747D
100
AcDbEntity
  8
細線
 48
50.0
100
AcDbLine
 10
7428.451485298364
 20
1960.710446220637
 30
0.0
 11
7518.451485298363
 21
2050.710446220637
 31
0.0
  0
LINE
  5
1F231
330
747D
100
AcDbEntity
  8
細線
 48
50.0
100
AcDbLine
 10
7428.451485298364
 20
1927.034485766627
 30
0.0
 11
7518.451485298363
 21
2017.034485766628
 31
0.0
  0
LINE
  5
1F232
330
747D
100
AcDbEntity
  8
部品1
 48
50.0
100
AcDbLine
 10
7428.451485298364
 20
1465.39240947783
 30
0.0
 11
7428.451485298364
 21
2245.392409477831
 31
0.0
  0
LINE
  5
1F233
330
747D
100
AcDbEntity
  8
部品1
 48
50.0
100
AcDbLine
 10
7668.451485298362
 20
1465.39240947783
 30
0.0
 11
7848.451485298364
 21
1465.39240947783
 31
0.0
  0
LINE
  5
1F234
330
747D
100
AcDbEntity
  8
細線
 48
50.0
100
AcDbLine
 10
7428.451485298364
 20
1591.302762588562
 30
0.0
 11
7558.451485298363
 21
1721.302762588563
 31
0.0
  0
LINE
  5
1F235
330
747D
100
AcDbEntity
  8
細線
 48
50.0
100
AcDbLine
 10
7578.45148529837
 20
1673.950841680546
 30
0.0
 11
7668.451485298362
 21
1763.950841680542
 31
0.0
  0
LINE
  5
1F236
330
747D
100
AcDbEntity
  8
細線
 48
50.0
100
AcDbLine
 10
7428.451485298364
 20
1557.626802134553
 30
0.0
 11
7558.451485298367
 21
1687.626802134551
 31
0.0
  0
LINE
  5
1F237
330
747D
100
AcDbEntity
  8
細線
 48
50.0
100
AcDbLine
 10
7428.451485298364
 20
1523.950841680544
 30
0.0
 11
7558.45148529837
 21
1653.950841680545
 31
0.0
  0
LINE
  5
1F238
330
747D
100
AcDbEntity
  8
細線
 48
50.0
100
AcDbLine
 10
7578.45148529837
 20
1471.895078956491
 30
0.0
 11
7668.451485298362
 21
1561.895078956486
 31
0.0
  0
LINE
  5
1F239
330
747D
100
AcDbEntity
  8
細線
 48
50.0
100
AcDbLine
 10
7578.45148529837
 20
1438.219118502482
 30
0.0
 11
7668.451485298362
 21
1528.219118502477
 31
0.0
  0
LINE
  5
1F23A
330
747D
100
AcDbEntity
  8
細線
 48
50.0
100
AcDbLine
 10
7578.451485298366
 20
1741.302762588565
 30
0.0
 11
7668.451485298362
 21
1831.302762588564
 31
0.0
  0
LINE
  5
1F23B
330
747D
100
AcDbEntity
  8
細線
 48
50.0
100
AcDbLine
 10
7578.451485298366
 20
1707.626802134553
 30
0.0
 11
7668.451485298362
 21
1797.62680213455
 31
0.0
  0
LINE
  5
1F23C
330
747D
100
AcDbEntity
  8
細線
100
AcDbLine
 10
7502.050383551825
 20
2205.193549992118
 30
0.0
 11
7543.028337851137
 21
2211.744358490734
 31
0.0
  0
ARC
  5
1F23D
330
747D
100
AcDbEntity
  8
部品1
 48
50.0
100
AcDbCircle
 10
7548.451485298364
 20
2070.710446220637
 30
0.0
 40
30.0
100
AcDbArc
 50
0.0
 51
180.0
  0
LINE
  5
1F23E
330
747D
100
AcDbEntity
  8
部品1
 48
50.0
100
AcDbLine
 10
7538.451485298363
 20
1998.051427849233
 30
0.0
 11
7518.451485298363
 21
1998.051427849236
 31
0.0
  0
LINE
  5
1F23F
330
747D
100
AcDbEntity
  8
部品1
 48
50.0
100
AcDbLine
 10
7428.451485298364
 20
2245.392409477831
 30
0.0
 11
7668.451485298362
 21
2245.392409477831
 31
0.0
  0
LINE
  5
1F240
330
747D
100
AcDbEntity
  8
細線
100
AcDbLine
 10
7465.989808804391
 20
2205.193549992118
 30
0.0
 11
7502.050383551825
 21
2205.193549992118
 31
0.0
  0
LINE
  5
1F241
330
747D
100
AcDbEntity
  8
細線
100
AcDbLine
 10
7428.451485298364
 20
2215.01979112187
 30
0.0
 11
7465.989808804391
 21
2205.193549992118
 31
0.0
  0
LINE
  5
1F242
330
747D
100
AcDbEntity
  8
細線
 48
50.0
100
AcDbLine
 10
7428.451485298364
 20
2196.442169398702
 30
0.0
 11
7443.174998109673
 21
2211.165682210008
 31
0.0
  0
LINE
  5
1F243
330
747D
100
AcDbEntity
  8
細線
 48
50.0
100
AcDbLine
 10
7428.451485298364
 20
2162.766208944693
 30
0.0
 11
7470.87882634579
 21
2205.193549992118
 31
0.0
  0
LINE
  5
1F244
330
747D
100
AcDbEntity
  8
部品1
 48
50.0
100
AcDbLine
 10
7518.451485298363
 20
1998.051427849236
 30
0.0
 11
7518.451485298363
 21
2070.710446220639
 31
0.0
  0
LINE
  5
1F245
330
747D
100
AcDbEntity
  8
細線
100
AcDbLine
 10
7628.262395167801
 20
2211.744358490734
 30
0.0
 11
7668.451485298362
 21
2203.555805294731
 31
0.0
  0
LINE
  5
1F246
330
747D
100
AcDbEntity
  8
細線
100
AcDbLine
 10
7543.028337851137
 20
2211.744358490734
 30
0.0
 11
7598.758326489573
 21
2213.382103188124
 31
0.0
  0
CIRCLE
  5
1F247
330
747D
100
AcDbEntity
  8
部品1
 48
50.0
100
AcDbCircle
 10
7548.451485298364
 20
2070.710446220637
 30
0.0
 40
10.0
  0
LINE
  5
1F248
330
747D
100
AcDbEntity
  8
部品1
 48
50.0
100
AcDbLine
 10
7538.451485298363
 20
1998.051427849233
 30
0.0
 11
7538.451485298363
 21
2070.710446220637
 31
0.0
  0
LINE
  5
1F249
330
747D
100
AcDbEntity
  8
細線
 48
50.0
100
AcDbLine
 10
7538.451485298363
 20
2037.034485766628
 30
0.0
 11
7558.451485298363
 21
2057.034485766628
 31
0.0
  0
LINE
  5
1F24A
330
747D
100
AcDbEntity
  8
細線
 48
50.0
100
AcDbLine
 10
7538.451485298367
 20
2003.358525312618
 30
0.0
 11
7558.451485298363
 21
2023.358525312619
 31
0.0
  0
LINE
  5
1F24B
330
747D
100
AcDbEntity
  8
細線
 48
50.0
100
AcDbLine
 10
7577.892369380847
 20
2076.475369849106
 30
0.0
 11
7668.451485298362
 21
2167.034485766628
 31
0.0
  0
LINE
  5
1F24C
330
747D
100
AcDbEntity
  8
細線
 48
50.0
100
AcDbLine
 10
7564.067013426458
 20
2096.325974348725
 30
0.0
 11
7668.451485298362
 21
2200.710446220637
 31
0.0
  0
LINE
  5
1F24D
330
747D
100
AcDbEntity
  8
細線
 48
50.0
100
AcDbLine
 10
7578.451485298363
 20
2043.358525312619
 30
0.0
 11
7668.451485298362
 21
2133.358525312619
 31
0.0
  0
LINE
  5
1F24E
330
747D
100
AcDbEntity
  8
細線
100
AcDbLine
 10
7598.758326489573
 20
2213.382103188124
 30
0.0
 11
7628.262395167801
 21
2211.744358490734
 31
0.0
  0
LINE
  5
1F24F
330
747D
100
AcDbEntity
  8
細線
100
AcDbLine
 10
8535.132698817594
 20
1945.39240947783
 30
0.0
 11
8835.132698817593
 21
2245.392409477831
 31
0.0
  0
LINE
  5
1F250
330
747D
100
AcDbEntity
  8
部品1
 48
50.0
100
AcDbLine
 10
8490.320104496168
 20
2245.392409477831
 30
0.0
 11
8490.320104496168
 21
1945.392409477831
 31
0.0
  0
LINE
  5
1F251
330
747D
100
AcDbEntity
  8
細線
100
AcDbLine
 10
8575.132698817595
 20
1945.392409477831
 30
0.0
 11
8875.132698817592
 21
2245.392409477831
 31
0.0
  0
LINE
  5
1F252
330
747D
100
AcDbEntity
  8
細線
100
AcDbLine
 10
8597.060828965009
 20
1795.392409477831
 30
0.0
 11
8447.060828964998
 21
1945.39240947783
 31
0.0
  0
LINE
  5
1F253
330
747D
100
AcDbEntity
  8
細線
100
AcDbLine
 10
8557.060828965001
 20
1795.392409477831
 30
0.0
 11
8407.060828965002
 21
1945.392409477831
 31
0.0
  0
LINE
  5
1F254
330
747D
100
AcDbEntity
  8
細線
 48
50.0
100
AcDbLine
 10
8457.798130084631
 20
1635.392409477831
 30
0.0
 11
8500.670000873608
 21
1795.392409477831
 31
0.0
  0
LINE
  5
1F255
330
747D
100
AcDbEntity
  8
細線
 48
50.0
100
AcDbLine
 10
8260.578017716508
 20
1635.392409477831
 30
0.0
 11
8303.449888505486
 21
1795.392409477831
 31
0.0
  0
LINE
  5
1F256
330
747D
100
AcDbEntity
  8
部品1
100
AcDbLine
 10
8244.620158177339
 20
1795.392409477831
 30
0.0
 11
8244.620158177339
 21
1635.392409477835
 31
0.0
  0
LINE
  5
1F257
330
747D
100
AcDbEntity
  8
細線
 48
50.0
100
AcDbLine
 10
8359.188073900565
 20
1635.392409477831
 30
0.0
 11
8402.059944689543
 21
1795.392409477831
 31
0.0
  0
LINE
  5
1F258
330
747D
100
AcDbEntity
  8
細線
 48
50.0
100
AcDbLine
 10
8268.616493489441
 20
1665.392409477831
 30
0.0
 11
8276.654969262374
 21
1635.392409477831
 31
0.0
  0
LINE
  5
1F259
330
747D
100
AcDbEntity
  8
細線
 48
50.0
100
AcDbLine
 10
8465.836605857564
 20
1665.392409477831
 30
0.0
 11
8473.875081630497
 21
1635.392409477831
 31
0.0
  0
LINE
  5
1F25A
330
747D
100
AcDbEntity
  8
細線
 48
50.0
100
AcDbLine
 10
8367.226549673498
 20
1665.392409477831
 30
0.0
 11
8375.265025446431
 21
1635.392409477831
 31
0.0
  0
LINE
  5
1F25B
330
747D
100
AcDbEntity
  8
細線
 48
50.0
100
AcDbLine
 10
8295.411412732553
 20
1765.392409477831
 30
0.0
 11
8287.372936959618
 21
1795.392409477831
 31
0.0
  0
LINE
  5
1F25C
330
747D
100
AcDbEntity
  8
部品1
100
AcDbLine
 10
8344.620158177338
 20
1945.392409477831
 30
0.0
 11
8344.62015817734
 21
1795.392409477831
 31
0.0
  0
LINE
  5
1F25D
330
747D
100
AcDbEntity
  8
細線
 48
50.0
100
AcDbLine
 10
8492.631525100675
 20
1765.392409477831
 30
0.0
 11
8484.59304932774
 21
1795.392409477831
 31
0.0
  0
LINE
  5
1F25E
330
747D
100
AcDbEntity
  8
細線
 48
50.0
100
AcDbLine
 10
8394.02146891661
 20
1765.392409477831
 30
0.0
 11
8385.982993143676
 21
1795.392409477831
 31
0.0
  0
LINE
  5
1F25F
330
747D
100
AcDbEntity
  8
細線
100
AcDbLine
 10
8517.060828964991
 20
1795.392409477831
 30
0.0
 11
8367.060828964984
 21
1945.392409477831
 31
0.0
  0
LINE
  5
1F260
330
747D
100
AcDbEntity
  8
細線
 48
50.0
100
AcDbLine
 10
8852.238354820867
 20
1635.392409477831
 30
0.0
 11
8895.110225609846
 21
1795.392409477831
 31
0.0
  0
LINE
  5
1F261
330
747D
100
AcDbEntity
  8
細線
 48
50.0
100
AcDbLine
 10
8753.62829863681
 20
1635.392409477831
 30
0.0
 11
8796.500169425788
 21
1795.392409477831
 31
0.0
  0
LINE
  5
1F262
330
747D
100
AcDbEntity
  8
細線
 48
50.0
100
AcDbLine
 10
8655.018242452749
 20
1635.392409477831
 30
0.0
 11
8697.890113241731
 21
1795.392409477831
 31
0.0
  0
LINE
  5
1F263
330
747D
100
AcDbEntity
  8
細線
 48
50.0
100
AcDbLine
 10
8556.408186268688
 20
1635.392409477831
 30
0.0
 11
8599.280057057669
 21
1795.392409477831
 31
0.0
  0
LINE
  5
1F264
330
747D
100
AcDbEntity
  8
細線
 48
50.0
100
AcDbLine
 10
8663.056718225686
 20
1665.392409477831
 30
0.0
 11
8671.095193998619
 21
1635.392409477831
 31
0.0
  0
LINE
  5
1F265
330
747D
100
AcDbEntity
  8
細線
 48
50.0
100
AcDbLine
 10
8564.446662041621
 20
1665.392409477831
 30
0.0
 11
8572.485137814554
 21
1635.392409477831
 31
0.0
  0
LINE
  5
1F266
330
747D
100
AcDbEntity
  8
細線
 48
50.0
100
AcDbLine
 10
8860.276830593802
 20
1665.392409477831
 30
0.0
 11
8868.315306366735
 21
1635.392409477831
 31
0.0
  0
LINE
  5
1F267
330
747D
100
AcDbEntity
  8
細線
 48
50.0
100
AcDbLine
 10
8761.666774409743
 20
1665.392409477831
 30
0.0
 11
8769.705250182676
 21
1635.392409477831
 31
0.0
  0
LINE
  5
1F268
330
747D
100
AcDbEntity
  8
細線
100
AcDbLine
 10
8837.06082896499
 20
1795.392409477831
 30
0.0
 11
8687.060828964989
 21
1945.392409477831
 31
0.0
  0
LINE
  5
1F269
330
747D
100
AcDbEntity
  8
細線
100
AcDbLine
 10
8877.060828965005
 20
1795.392409477831
 30
0.0
 11
8727.06082896499
 21
1945.392409477831
 31
0.0
  0
LINE
  5
1F26A
330
747D
100
AcDbEntity
  8
細線
 48
50.0
100
AcDbLine
 10
8689.851637468796
 20
1765.392409477831
 30
0.0
 11
8681.813161695863
 21
1795.392409477831
 31
0.0
  0
LINE
  5
1F26B
330
747D
100
AcDbEntity
  8
細線
 48
50.0
100
AcDbLine
 10
8591.241581284732
 20
1765.392409477831
 30
0.0
 11
8583.203105511799
 21
1795.392409477831
 31
0.0
  0
LINE
  5
1F26C
330
747D
100
AcDbEntity
  8
細線
 48
50.0
100
AcDbLine
 10
8887.071749836911
 20
1765.392409477831
 30
0.0
 11
8879.033274063978
 21
1795.392409477831
 31
0.0
  0
LINE
  5
1F26D
330
747D
100
AcDbEntity
  8
細線
 48
50.0
100
AcDbLine
 10
8788.461693652854
 20
1765.392409477831
 30
0.0
 11
8780.423217879921
 21
1795.392409477831
 31
0.0
  0
LINE
  5
1F26E
330
747D
100
AcDbEntity
  8
細線
100
AcDbLine
 10
8917.060828965006
 20
1795.392409477831
 30
0.0
 11
8767.060828964993
 21
1945.392409477831
 31
0.0
  0
LINE
  5
1F26F
330
747D
100
AcDbEntity
  8
細線
100
AcDbLine
 10
8490.320104496168
 20
2180.579815156407
 30
0.0
 11
8555.132698817592
 21
2245.392409477831
 31
0.0
  0
LINE
  5
1F270
330
747D
100
AcDbEntity
  8
細線
100
AcDbLine
 10
8490.320104496168
 20
2220.579815156407
 30
0.0
 11
8515.132698817593
 21
2245.392409477831
 31
0.0
  0
LINE
  5
1F271
330
747D
100
AcDbEntity
  8
部品1
 48
50.0
100
AcDbLine
 10
10585.87538882277
 20
1463.581147614022
 30
0.0
 11
10585.87538882277
 21
1390.922129242619
 31
0.0
  0
LINE
  5
1F272
330
747D
100
AcDbEntity
  8
部品1
 48
50.0
100
AcDbLine
 10
10565.87538882277
 20
1463.581147614022
 30
0.0
 11
10565.87538882277
 21
1390.922129242619
 31
0.0
  0
LINE
  5
1F273
330
747D
100
AcDbEntity
  8
細線
 48
50.0
100
AcDbLine
 10
10493.04867979813
 20
1380.922129242619
 30
0.0
 11
10565.87538882277
 21
1453.748838267267
 31
0.0
  0
LINE
  5
1F274
330
747D
100
AcDbEntity
  8
細線
 48
50.0
100
AcDbLine
 10
10526.72464025214
 20
1380.922129242619
 30
0.0
 11
10565.87538882277
 21
1420.072877813256
 31
0.0
  0
LINE
  5
1F275
330
747D
100
AcDbEntity
  8
部品1
 48
50.0
100
AcDbLine
 10
10295.87538882277
 20
1240.922129242619
 30
0.0
 11
10295.87538882277
 21
1540.922129242619
 31
0.0
  0
LINE
  5
1F276
330
747D
100
AcDbEntity
  8
部品1
 48
50.0
100
AcDbLine
 10
9999.716182909757
 20
553.5143648394441
 30
0.0
 11
9999.716182909757
 21
393.5143648394442
 31
0.0
  0
LINE
  5
1F277
330
747D
100
AcDbEntity
  8
細線
 48
50.0
100
AcDbLine
 10
10525.13328709134
 20
1080.922129242619
 30
0.0
 11
10568.00515788032
 21
1240.922129242619
 31
0.0
  0
LINE
  5
1F278
330
747D
100
AcDbEntity
  8
細線
 48
50.0
100
AcDbLine
 10
10327.91317472322
 20
1080.922129242619
 30
0.0
 11
10370.7850455122
 21
1240.922129242619
 31
0.0
  0
LINE
  5
1F279
330
747D
100
AcDbEntity
  8
細線
 48
50.0
100
AcDbLine
 10
10426.52323090728
 20
1080.922129242619
 30
0.0
 11
10469.39510169627
 21
1240.922129242619
 31
0.0
  0
LINE
  5
1F27A
330
747D
100
AcDbEntity
  8
細線
 48
50.0
100
AcDbLine
 10
10229.30311853916
 20
1080.922129242619
 30
0.0
 11
10272.17498932814
 21
1240.922129242619
 31
0.0
  0
LINE
  5
1F27B
330
747D
100
AcDbEntity
  8
部品1
 48
50.0
100
AcDbLine
 10
10195.87538882277
 20
1080.922129242619
 30
0.0
 11
10195.87538882277
 21
1240.922129242619
 31
0.0
  0
LINE
  5
1F27C
330
747D
100
AcDbEntity
  8
細線
 48
50.0
100
AcDbLine
 10
10335.95165049616
 20
1110.922129242619
 30
0.0
 11
10343.99012626909
 21
1080.922129242619
 31
0.0
  0
LINE
  5
1F27D
330
747D
100
AcDbEntity
  8
細線
 48
50.0
100
AcDbLine
 10
10237.3415943121
 20
1110.922129242619
 30
0.0
 11
10245.38007008503
 21
1080.922129242619
 31
0.0
  0
LINE
  5
1F27E
330
747D
100
AcDbEntity
  8
細線
 48
50.0
100
AcDbLine
 10
10533.17176286428
 20
1110.922129242619
 30
0.0
 11
10541.21023863721
 21
1080.922129242619
 31
0.0
  0
LINE
  5
1F27F
330
747D
100
AcDbEntity
  8
細線
 48
50.0
100
AcDbLine
 10
10434.56170668022
 20
1110.922129242619
 30
0.0
 11
10442.60018245315
 21
1080.922129242619
 31
0.0
  0
LINE
  5
1F280
330
747D
100
AcDbEntity
  8
細線
 48
50.0
100
AcDbLine
 10
10319.37271934412
 20
1240.922129242619
 30
0.0
 11
10439.37271934412
 21
1360.922129242619
 31
0.0
  0
LINE
  5
1F281
330
747D
100
AcDbEntity
  8
細線
 48
50.0
100
AcDbLine
 10
10353.04867979813
 20
1240.922129242619
 30
0.0
 11
10473.04867979813
 21
1360.922129242619
 31
0.0
  0
LINE
  5
1F282
330
747D
100
AcDbEntity
  8
細線
 48
50.0
100
AcDbLine
 10
10386.72464025214
 20
1240.922129242619
 30
0.0
 11
10506.72464025214
 21
1360.922129242619
 31
0.0
  0
LINE
  5
1F283
330
747D
100
AcDbEntity
  8
部品1
 48
50.0
100
AcDbLine
 10
10365.87538882277
 20
1360.922129242619
 30
0.0
 11
10365.87538882277
 21
1380.922129242619
 31
0.0
  0
LINE
  5
1F284
330
747D
100
AcDbEntity
  8
細線
 48
50.0
100
AcDbLine
 10
10362.74656973927
 20
1210.922129242619
 30
0.0
 11
10354.70809396634
 21
1240.922129242619
 31
0.0
  0
LINE
  5
1F285
330
747D
100
AcDbEntity
  8
細線
 48
50.0
100
AcDbLine
 10
10264.13651355521
 20
1210.922129242619
 30
0.0
 11
10256.09803778227
 21
1240.922129242619
 31
0.0
  0
ARC
  5
1F286
330
747D
100
AcDbEntity
  8
部品1
 48
50.0
100
AcDbCircle
 10
10595.87538882277
 20
1390.922129242619
 30
0.0
 40
30.0
100
AcDbArc
 50
180.0
 51
199.4712206344973
  0
LINE
  5
1F287
330
747D
100
AcDbEntity
  8
細線
 48
50.0
100
AcDbLine
 10
10559.96668210739
 20
1210.922129242619
 30
0.0
 11
10551.92820633446
 21
1240.922129242619
 31
0.0
  0
CIRCLE
  5
1F288
330
747D
100
AcDbEntity
  8
部品1
 48
50.0
100
AcDbCircle
 10
10435.87538882277
 20
1390.922129242619
 30
0.0
 40
10.0
  0
LINE
  5
1F289
330
747D
100
AcDbEntity
  8
細線
 48
50.0
100
AcDbLine
 10
10461.35662592333
 20
1210.922129242619
 30
0.0
 11
10453.3181501504
 21
1240.922129242619
 31
0.0
  0
LINE
  5
1F28A
330
747D
100
AcDbEntity
  8
部品1
 48
50.0
100
AcDbLine
 10
9270.320104496169
 20
1945.392409477831
 30
0.0
 11
9270.320104496169
 21
2245.392409477831
 31
0.0
  0
LINE
  5
1F28B
330
747D
100
AcDbEntity
  8
細線
100
AcDbLine
 10
9175.132698817595
 20
1945.392409477831
 30
0.0
 11
9270.320104496169
 21
2040.579815156403
 31
0.0
  0
LINE
  5
1F28C
330
747D
100
AcDbEntity
  8
細線
100
AcDbLine
 10
9215.132698817594
 20
1945.392409477831
 30
0.0
 11
9270.320104496169
 21
2000.579815156409
 31
0.0
  0
LINE
  5
1F28D
330
747D
100
AcDbEntity
  8
細線
100
AcDbLine
 10
9416.020050814999
 20
1856.433187627818
 30
0.0
 11
9327.060828964993
 21
1945.392409477831
 31
0.0
  0
LINE
  5
1F28E
330
747D
100
AcDbEntity
  8
細線
100
AcDbLine
 10
9416.020050814998
 20
1896.433187627828
 30
0.0
 11
9367.060828964993
 21
1945.392409477831
 31
0.0
  0
LINE
  5
1F28F
330
747D
100
AcDbEntity
  8
細線
 48
50.0
100
AcDbLine
 10
9380.122030757219
 20
1765.392409477831
 30
0.0
 11
9372.083554984284
 21
1795.392409477831
 31
0.0
  0
LINE
  5
1F290
330
747D
100
AcDbEntity
  8
細線
 48
50.0
100
AcDbLine
 10
9345.288635741169
 20
1635.392409477831
 30
0.0
 11
9388.160506530148
 21
1795.392409477831
 31
0.0
  0
LINE
  5
1F291
330
747D
100
AcDbEntity
  8
細線
 48
50.0
100
AcDbLine
 10
9148.068523373046
 20
1635.392409477831
 30
0.0
 11
9190.940394162025
 21
1795.392409477831
 31
0.0
  0
LINE
  5
1F292
330
747D
100
AcDbEntity
  8
細線
 48
50.0
100
AcDbLine
 10
9049.458467188989
 20
1635.392409477831
 30
0.0
 11
9092.330337977967
 21
1795.392409477831
 31
0.0
  0
LINE
  5
1F293
330
747D
100
AcDbEntity
  8
細線
 48
50.0
100
AcDbLine
 10
9246.678579557109
 20
1635.392409477831
 30
0.0
 11
9289.550450346087
 21
1795.392409477831
 31
0.0
  0
LINE
  5
1F294
330
747D
100
AcDbEntity
  8
細線
 48
50.0
100
AcDbLine
 10
9156.106999145984
 20
1665.392409477831
 30
0.0
 11
9164.145474918917
 21
1635.392409477831
 31
0.0
  0
LINE
  5
1F295
330
747D
100
AcDbEntity
  8
細線
 48
50.0
100
AcDbLine
 10
9057.496942961924
 20
1665.392409477831
 30
0.0
 11
9065.535418734857
 21
1635.392409477831
 31
0.0
  0
LINE
  5
1F296
330
747D
100
AcDbEntity
  8
細線
 48
50.0
100
AcDbLine
 10
9353.327111514103
 20
1665.392409477831
 30
0.0
 11
9361.365587287037
 21
1635.392409477831
 31
0.0
  0
LINE
  5
1F297
330
747D
100
AcDbEntity
  8
細線
 48
50.0
100
AcDbLine
 10
9254.717055330042
 20
1665.392409477831
 30
0.0
 11
9262.755531102975
 21
1635.392409477831
 31
0.0
  0
LINE
  5
1F298
330
747D
100
AcDbEntity
  8
細線
100
AcDbLine
 10
9237.060828965001
 20
1795.392409477831
 30
0.0
 11
9087.060828965006
 21
1945.392409477831
 31
0.0
  0
LINE
  5
1F299
330
747D
100
AcDbEntity
  8
細線
100
AcDbLine
 10
9197.060828964998
 20
1795.392409477831
 30
0.0
 11
9047.060828964992
 21
1945.392409477831
 31
0.0
  0
LINE
  5
1F29A
330
747D
100
AcDbEntity
  8
細線
 48
50.0
100
AcDbLine
 10
9084.291862205034
 20
1765.392409477831
 30
0.0
 11
9076.253386432101
 21
1795.392409477831
 31
0.0
  0
LINE
  5
1F29B
330
747D
100
AcDbEntity
  8
細線
 48
50.0
100
AcDbLine
 10
8985.681806020973
 20
1765.392409477831
 30
0.0
 11
8977.64333024804
 21
1795.392409477831
 31
0.0
  0
LINE
  5
1F29C
330
747D
100
AcDbEntity
  8
細線
100
AcDbLine
 10
9157.060828964985
 20
1795.392409477831
 30
0.0
 11
9007.060828964995
 21
1945.392409477831
 31
0.0
  0
LINE
  5
1F29D
330
747D
100
AcDbEntity
  8
細線
 48
50.0
100
AcDbLine
 10
9281.511974573158
 20
1765.392409477831
 30
0.0
 11
9273.473498800225
 21
1795.392409477831
 31
0.0
  0
LINE
  5
1F29E
330
747D
100
AcDbEntity
  8
細線
 48
50.0
100
AcDbLine
 10
9182.901918389097
 20
1765.392409477831
 30
0.0
 11
9174.863442616162
 21
1795.392409477831
 31
0.0
  0
LINE
  5
1F29F
330
747D
100
AcDbEntity
  8
部品1
100
AcDbLine
 10
9516.020050814997
 20
1795.392409477831
 30
0.0
 11
9516.020050814997
 21
1635.392409477835
 31
0.0
  0
LINE
  5
1F2A0
330
747D
100
AcDbEntity
  8
細線
 48
50.0
100
AcDbLine
 10
9443.898691925232
 20
1635.392409477831
 30
0.0
 11
9486.770562714212
 21
1795.392409477831
 31
0.0
  0
LINE
  5
1F2A1
330
747D
100
AcDbEntity
  8
細線
 48
50.0
100
AcDbLine
 10
9451.937167698165
 20
1665.392409477831
 30
0.0
 11
9459.975643471098
 21
1635.392409477831
 31
0.0
  0
LINE
  5
1F2A2
330
747D
100
AcDbEntity
  8
細線
100
AcDbLine
 10
9416.020050814998
 20
1936.433187627838
 30
0.0
 11
9407.060828965006
 21
1945.392409477831
 31
0.0
  0
LINE
  5
1F2A3
330
747D
100
AcDbEntity
  8
細線
 48
50.0
100
AcDbLine
 10
9478.732086941279
 20
1765.392409477831
 30
0.0
 11
9470.693611168346
 21
1795.392409477831
 31
0.0
  0
LINE
  5
1F2A4
330
747D
100
AcDbEntity
  8
部品1
100
AcDbLine
 10
9416.020050814998
 20
1945.392409477831
 30
0.0
 11
9416.020050814998
 21
1795.392409477831
 31
0.0
  0
LINE
  5
1F2A5
330
747D
100
AcDbEntity
  8
細線
 48
50.0
100
AcDbLine
 10
10475.87538882277
 20
1968.888245077407
 30
0.0
 11
10545.87538882277
 21
2038.888245077407
 31
0.0
  0
LINE
  5
1F2A6
330
747D
100
AcDbEntity
  8
部品1
 48
50.0
100
AcDbLine
 10
10475.87538882277
 20
1540.922129242619
 30
0.0
 11
10475.87538882277
 21
2320.922129242619
 31
0.0
  0
TEXT
  5
1F2A7
330
747D
100
AcDbEntity
  8
部品1
 48
50.0
100
AcDbText
 10
10118.0462909328
 20
1854.124063283249
 30
0.0
 40
100.0
  1
G.L
  7
STYLE1
100
AcDbText
  0
LINE
  5
1F2A8
330
747D
100
AcDbEntity
  8
Ｇ．Ｌ
 48
50.0
100
AcDbLine
 10
9958.200511531581
 20
1844.758236380541
 30
0.0
 11
10475.87538882277
 21
1844.758236380541
 31
0.0
  0
LINE
  5
1F2A9
330
747D
100
AcDbEntity
  8
部品1
 48
50.0
100
AcDbLine
 10
10019.57193746174
 20
1928.228361228961
 30
0.0
 11
10067.76343651227
 21
1844.758236380538
 31
0.0
  0
LINE
  5
1F2AA
330
747D
100
AcDbEntity
  8
部品1
 48
50.0
100
AcDbLine
 10
10115.9549355628
 20
1928.228361228961
 30
0.0
 11
10067.76343651227
 21
1844.758236380538
 31
0.0
  0
LINE
  5
1F2AB
330
747D
100
AcDbEntity
  8
部品1
 48
50.0
100
AcDbLine
 10
10019.57193746174
 20
1928.228361228961
 30
0.0
 11
10115.9549355628
 21
1928.228361228961
 31
0.0
  0
LINE
  5
1F2AC
330
747D
100
AcDbEntity
  8
細線
 48
50.0
100
AcDbLine
 10
10295.87538882278
 20
1419.480561445333
 30
0.0
 11
10417.31695662006
 21
1540.922129242619
 31
0.0
  0
LINE
  5
1F2AD
330
747D
100
AcDbEntity
  8
部品1
 48
50.0
100
AcDbLine
 10
10295.87538882277
 20
1540.922129242619
 30
0.0
 11
10475.87538882277
 21
1540.922129242619
 31
0.0
  0
LINE
  5
1F2AE
330
747D
100
AcDbEntity
  8
細線
 48
50.0
100
AcDbLine
 10
10295.87538882277
 20
1453.156521899344
 30
0.0
 11
10383.64099616605
 21
1540.922129242619
 31
0.0
  0
LINE
  5
1F2AF
330
747D
100
AcDbEntity
  8
細線
 48
50.0
100
AcDbLine
 10
10295.87538882277
 20
1486.832482353354
 30
0.0
 11
10349.96503571204
 21
1540.922129242619
 31
0.0
  0
LINE
  5
1F2B0
330
747D
100
AcDbEntity
  8
部品1
 48
50.0
100
AcDbLine
 10
10585.87538882277
 20
1463.581147614022
 30
0.0
 11
10565.87538882277
 21
1463.581147614022
 31
0.0
  0
LINE
  5
1F2B1
330
747D
100
AcDbEntity
  8
細線
100
AcDbLine
 10
10549.47428707624
 20
2280.723269756907
 30
0.0
 11
10590.45224137555
 21
2287.274078255523
 31
0.0
  0
LINE
  5
1F2B2
330
747D
100
AcDbEntity
  8
細線
100
AcDbLine
 10
10475.87538882277
 20
2290.549510886658
 30
0.0
 11
10513.4137123288
 21
2280.723269756907
 31
0.0
  0
LINE
  5
1F2B3
330
747D
100
AcDbEntity
  8
細線
 48
50.0
100
AcDbLine
 10
10475.87538882277
 20
2271.971889163491
 30
0.0
 11
10490.59890163408
 21
2286.695401974797
 31
0.0
  0
LINE
  5
1F2B4
330
747D
100
AcDbEntity
  8
細線
100
AcDbLine
 10
10513.4137123288
 20
2280.723269756907
 30
0.0
 11
10549.47428707624
 21
2280.723269756907
 31
0.0
  0
LINE
  5
1F2B5
330
747D
100
AcDbEntity
  8
細線
 48
50.0
100
AcDbLine
 10
10475.87538882277
 20
2238.295928709482
 30
0.0
 11
10518.3027298702
 21
2280.723269756907
 31
0.0
  0
LINE
  5
1F2B6
330
747D
100
AcDbEntity
  8
部品1
 48
50.0
100
AcDbLine
 10
10585.87538882277
 20
2073.581147614023
 30
0.0
 11
10565.87538882277
 21
2073.581147614024
 31
0.0
  0
LINE
  5
1F2B7
330
747D
100
AcDbEntity
  8
細線
 48
50.0
100
AcDbLine
 10
10567.90927298799
 20
2060.922129242619
 30
0.0
 11
10580.56829135939
 21
2073.581147614023
 31
0.0
  0
LINE
  5
1F2B8
330
747D
100
AcDbEntity
  8
部品1
 48
50.0
100
AcDbLine
 10
10545.87538882277
 20
2033.922129242619
 30
0.0
 11
10545.87538882277
 21
2060.922129242619
 31
0.0
  0
LINE
  5
1F2B9
330
747D
100
AcDbEntity
  8
部品1
 48
50.0
100
AcDbLine
 10
10595.87538882277
 20
2060.922129242619
 30
0.0
 11
10545.87538882277
 21
2060.922129242619
 31
0.0
  0
LINE
  5
1F2BA
330
747D
100
AcDbEntity
  8
部品1
 48
50.0
100
AcDbLine
 10
10595.87538882277
 20
2033.922129242619
 30
0.0
 11
10545.87538882277
 21
2033.922129242619
 31
0.0
  0
LINE
  5
1F2BB
330
747D
100
AcDbEntity
  8
細線
 48
50.0
100
AcDbLine
 10
10475.87538882277
 20
2002.564205531417
 30
0.0
 11
10565.87538882277
 21
2092.564205531417
 31
0.0
  0
LINE
  5
1F2BC
330
747D
100
AcDbEntity
  8
部品1
 48
50.0
100
AcDbLine
 10
10565.87538882277
 20
2073.581147614024
 30
0.0
 11
10565.87538882277
 21
2146.240165985428
 31
0.0
  0
LINE
  5
1F2BD
330
747D
100
AcDbEntity
  8
部品1
 48
50.0
100
AcDbLine
 10
10585.87538882277
 20
2073.581147614023
 30
0.0
 11
10585.87538882277
 21
2146.240165985426
 31
0.0
  0
LINE
  5
1F2BE
330
747D
100
AcDbEntity
  8
細線
 48
50.0
100
AcDbLine
 10
10475.87538882277
 20
2036.240165985426
 30
0.0
 11
10565.87538882277
 21
2126.240165985426
 31
0.0
  0
LINE
  5
1F2BF
330
747D
100
AcDbEntity
  8
部品1
100
AcDbLine
 10
10573.10615805354
 20
2442.614436934928
 30
0.0
 11
10573.10615805354
 21
2468.46059078108
 31
0.0
  0
LINE
  5
1F2C0
330
747D
100
AcDbEntity
  8
部品1
100
AcDbLine
 10
10499.56769651508
 20
2429.69136001185
 30
0.0
 11
10499.56769651508
 21
2442.614436934928
 31
0.0
  0
LINE
  5
1F2C1
330
747D
100
AcDbEntity
  8
部品1
100
AcDbLine
 10
10499.56769651508
 20
2442.614436934928
 30
0.0
 11
10573.10615805354
 21
2442.614436934928
 31
0.0
  0
LINE
  5
1F2C2
330
747D
100
AcDbEntity
  8
部品1
100
AcDbLine
 10
10595.68308113046
 20
2343.537513858004
 30
0.0
 11
10595.68308113046
 21
2325.229821550311
 31
0.0
  0
LINE
  5
1F2C3
330
747D
100
AcDbEntity
  8
部品1
100
AcDbLine
 10
10595.68308113046
 20
2343.537513858004
 30
0.0
 11
10598.91385036124
 21
2346.768283088774
 31
0.0
  0
LINE
  5
1F2C4
330
747D
100
AcDbEntity
  8
部品1
100
AcDbLine
 10
10591.37538882277
 20
2325.229821550311
 30
0.0
 11
10591.37538882277
 21
2320.922129242619
 31
0.0
  0
LINE
  5
1F2C5
330
747D
100
AcDbEntity
  8
部品1
100
AcDbLine
 10
10507.10615805354
 20
2328.46059078108
 30
0.0
 11
10507.10615805354
 21
2325.229821550311
 31
0.0
  0
LINE
  5
1F2C6
330
747D
100
AcDbEntity
  8
部品1
100
AcDbLine
 10
10489.87538882278
 20
2328.46059078108
 30
0.0
 11
10489.87538882278
 21
2347.673267558382
 31
0.0
  0
LINE
  5
1F2C7
330
747D
100
AcDbEntity
  8
部品1
100
AcDbLine
 10
10507.10615805354
 20
2328.46059078108
 30
0.0
 11
10489.87538882278
 21
2328.46059078108
 31
0.0
  0
LINE
  5
1F2C8
330
747D
100
AcDbEntity
  8
部品1
100
AcDbLine
 10
10486.644619592
 20
2324.152898473389
 30
0.0
 11
10486.644619592
 21
2426.46059078108
 31
0.0
  0
LINE
  5
1F2C9
330
747D
100
AcDbEntity
  8
部品1
100
AcDbLine
 10
10486.644619592
 20
2426.46059078108
 30
0.0
 11
10499.56769651508
 21
2429.69136001185
 31
0.0
  0
LINE
  5
1F2CA
330
747D
100
AcDbEntity
  8
部品1
100
AcDbLine
 10
10503.87538882277
 20
2324.152898473389
 30
0.0
 11
10486.644619592
 21
2324.152898473389
 31
0.0
  0
LINE
  5
1F2CB
330
747D
100
AcDbEntity
  8
細線
 48
50.0
100
AcDbLine
 10
6352.985354070599
 20
3159.608092979961
 30
0.0
 11
9909.628903443131
 21
3159.608092979961
 31
0.0
  0
LINE
  5
1F2CC
330
747D
100
AcDbEntity
  8
細線
 48
50.0
100
AcDbLine
 10
9909.628903443131
 20
3119.608092979961
 30
0.0
 11
9909.628903443131
 21
3199.608092979961
 31
0.0
  0
ARC
  5
1F2CD
330
747D
100
AcDbEntity
  8
細線
 48
50.0
100
AcDbCircle
 10
9989.628903443131
 20
3119.608092979961
 30
0.0
 40
80.0
100
AcDbArc
 50
180.0
 51
270.0
  0
ARC
  5
1F2CE
330
747D
100
AcDbEntity
  8
細線
 48
50.0
100
AcDbCircle
 10
9989.628903443131
 20
3199.608092979961
 30
0.0
 40
80.0
100
AcDbArc
 50
90.0
 51
180.0
  0
LINE
  5
1F2CF
330
747D
100
AcDbEntity
  8
細線
 48
50.0
100
AcDbLine
 10
14475.56203136359
 20
3159.608092979961
 30
0.0
 11
14475.56203136359
 21
253.946419739204
 31
0.0
  0
MTEXT
  5
1F2D0
102
{ACAD_REACTORS
330
1F2D1
102
}
330
747D
100
AcDbEntity
  8
寸法
 62
     7
 48
50.0
100
AcDbMText
 10
13796.61555061793
 20
1816.153609972163
 30
0.0
 40
100.0
 41
0.0
 71
     4
 72
     1
  1
防湿シート
  7
STYLE1
 73
     1
 44
1.0
1001
ACAD
1000
MTEXTBEGIN
1070
    73
1070
     1
1070
    44
1040
1.0
1070
    74
1070
     0
1000
MTEXTEND
  0
LEADER
  5
1F2D1
330
747D
100
AcDbEntity
  8
寸法
 48
50.0
100
AcDbLeader
  3
INABA_S50G
 71
     0
 73
     0
 74
     0
 75
     1
 40
100.0
 41
581.9577020040977
 76
     3
 10
13498.91538515331
 20
1897.717322202308
 30
0.0
 10
13646.61555061793
 20
1741.153609972163
 30
0.0
 10
13771.61555061793
 20
1741.153609972163
 30
0.0
340
1F2D0
  0
TEXT
  5
1F2D2
330
747D
100
AcDbEntity
  8
部品1
 48
50.0
100
AcDbText
 10
12216.7088889036
 20
1854.12406328325
 30
0.0
 40
100.0
  1
G.L
  7
STYLE1
100
AcDbText
  0
LINE
  5
1F2D3
330
747D
100
AcDbEntity
  8
Ｇ．Ｌ
 48
50.0
100
AcDbLine
 10
12056.86310950238
 20
1844.758236380542
 30
0.0
 11
12574.53798679358
 21
1844.758236380542
 31
0.0
  0
LINE
  5
1F2D4
330
747D
100
AcDbEntity
  8
細線
 48
50.0
100
AcDbLine
 10
10762.4563634302
 20
1380.922129242619
 30
0.0
 11
10895.87538882278
 21
1514.341154635193
 31
0.0
  0
LINE
  5
1F2D5
330
747D
100
AcDbEntity
  8
細線
 48
50.0
100
AcDbLine
 10
10796.13232388421
 20
1380.922129242619
 30
0.0
 11
10895.87538882278
 21
1480.66519418118
 31
0.0
  0
LINE
  5
1F2D6
330
747D
100
AcDbEntity
  8
細線
 48
50.0
100
AcDbLine
 10
10728.78040297619
 20
1380.922129242619
 30
0.0
 11
10888.78040297619
 21
1540.922129242619
 31
0.0
  0
LINE
  5
1F2D7
330
747D
100
AcDbEntity
  8
部品1
 48
50.0
100
AcDbLine
 10
10895.87538882278
 20
1540.922129242619
 30
0.0
 11
10895.87538882278
 21
1240.922129242619
 31
0.0
  0
LINE
  5
1F2D8
330
747D
100
AcDbEntity
  8
部品1
 48
50.0
100
AcDbLine
 10
10605.87538882278
 20
1390.922129242619
 30
0.0
 11
10605.87538882277
 21
2035.299102981506
 31
0.0
  0
LINE
  5
1F2D9
330
747D
100
AcDbEntity
  8
部品1
 48
50.0
100
AcDbLine
 10
10625.87538882278
 20
1390.922129242619
 30
0.0
 11
10625.87538882277
 21
2049.265721414911
 31
0.0
  0
LINE
  5
1F2DA
330
747D
100
AcDbEntity
  8
部品1
 48
50.0
100
AcDbLine
 10
11040.48595508799
 20
553.5143648394441
 30
0.0
 11
11040.48595508799
 21
393.5143648394442
 31
0.0
  0
LINE
  5
1F2DB
330
747D
100
AcDbEntity
  8
部品1
 48
50.0
100
AcDbLine
 10
10995.87538882278
 20
1080.922129242619
 30
0.0
 11
10995.87538882278
 21
1240.922129242619
 31
0.0
  0
LINE
  5
1F2DC
330
747D
100
AcDbEntity
  8
細線
 48
50.0
100
AcDbLine
 10
10919.57351182759
 20
1080.922129242619
 30
0.0
 11
10962.44538261657
 21
1240.922129242619
 31
0.0
  0
LINE
  5
1F2DD
330
747D
100
AcDbEntity
  8
細線
 48
50.0
100
AcDbLine
 10
10722.35339945947
 20
1080.922129242619
 30
0.0
 11
10765.22527024845
 21
1240.922129242619
 31
0.0
  0
LINE
  5
1F2DE
330
747D
100
AcDbEntity
  8
細線
 48
50.0
100
AcDbLine
 10
10820.96345564353
 20
1080.922129242619
 30
0.0
 11
10863.83532643251
 21
1240.922129242619
 31
0.0
  0
LINE
  5
1F2DF
330
747D
100
AcDbEntity
  8
細線
 48
50.0
100
AcDbLine
 10
10623.74334327541
 20
1080.922129242619
 30
0.0
 11
10666.61521406438
 21
1240.922129242619
 31
0.0
  0
LINE
  5
1F2E0
330
747D
100
AcDbEntity
  8
細線
 48
50.0
100
AcDbLine
 10
10730.3918752324
 20
1110.922129242619
 30
0.0
 11
10738.43035100533
 21
1080.922129242619
 31
0.0
  0
LINE
  5
1F2E1
330
747D
100
AcDbEntity
  8
細線
 48
50.0
100
AcDbLine
 10
10631.78181904834
 20
1110.922129242619
 30
0.0
 11
10639.82029482127
 21
1080.922129242619
 31
0.0
  0
LINE
  5
1F2E2
330
747D
100
AcDbEntity
  8
細線
 48
50.0
100
AcDbLine
 10
10927.61198760052
 20
1110.922129242619
 30
0.0
 11
10935.65046337346
 21
1080.922129242619
 31
0.0
  0
LINE
  5
1F2E3
330
747D
100
AcDbEntity
  8
細線
 48
50.0
100
AcDbLine
 10
10829.00193141646
 20
1110.922129242619
 30
0.0
 11
10837.0404071894
 21
1080.922129242619
 31
0.0
  0
CIRCLE
  5
1F2E4
330
747D
100
AcDbEntity
  8
部品1
 48
50.0
100
AcDbCircle
 10
10755.87538882277
 20
1390.922129242619
 30
0.0
 40
10.0
  0
ARC
  5
1F2E5
330
747D
100
AcDbEntity
  8
部品1
 48
50.0
100
AcDbCircle
 10
10595.87538882277
 20
1390.922129242619
 30
0.0
 40
30.0
100
AcDbArc
 50
340.5287793655026
 51
0.0
  0
LINE
  5
1F2E6
330
747D
100
AcDbEntity
  8
細線
 48
50.0
100
AcDbLine
 10
10757.18679447551
 20
1210.922129242619
 30
0.0
 11
10749.14831870258
 21
1240.922129242619
 31
0.0
  0
LINE
  5
1F2E7
330
747D
100
AcDbEntity
  8
細線
 48
50.0
100
AcDbLine
 10
10658.57673829145
 20
1210.922129242619
 30
0.0
 11
10650.53826251852
 21
1240.922129242619
 31
0.0
  0
LINE
  5
1F2E8
330
747D
100
AcDbEntity
  8
細線
 48
50.0
100
AcDbLine
 10
10622.45636343021
 20
1240.922129242619
 30
0.0
 11
10742.4563634302
 21
1360.922129242619
 31
0.0
  0
LINE
  5
1F2E9
330
747D
100
AcDbEntity
  8
細線
 48
50.0
100
AcDbLine
 10
10656.13232388421
 20
1240.922129242619
 30
0.0
 11
10776.13343369064
 21
1360.923239049043
 31
0.0
  0
LINE
  5
1F2EA
330
747D
100
AcDbEntity
  8
細線
 48
50.0
100
AcDbLine
 10
10954.40690684364
 20
1210.922129242619
 30
0.0
 11
10946.3684310707
 21
1240.922129242619
 31
0.0
  0
LINE
  5
1F2EB
330
747D
100
AcDbEntity
  8
部品1
 48
50.0
100
AcDbLine
 10
10825.87538882277
 20
1360.922129242619
 30
0.0
 11
10825.87538882277
 21
1380.922129242619
 31
0.0
  0
LINE
  5
1F2EC
330
747D
100
AcDbEntity
  8
細線
 48
50.0
100
AcDbLine
 10
10891.86404706228
 20
1240.922129242619
 30
0.0
 11
10895.87538882278
 21
1244.933471003116
 31
0.0
  0
LINE
  5
1F2ED
330
747D
100
AcDbEntity
  8
細線
 48
50.0
100
AcDbLine
 10
10855.79685065958
 20
1210.922129242619
 30
0.0
 11
10847.75837488664
 21
1240.922129242619
 31
0.0
  0
LINE
  5
1F2EE
330
747D
100
AcDbEntity
  8
細線
 48
50.0
100
AcDbLine
 10
10858.18808660827
 20
1240.922129242619
 30
0.0
 11
10895.87538882278
 21
1278.609431457124
 31
0.0
  0
TEXT
  5
1F2EF
330
747D
100
AcDbEntity
  8
部品1
 48
50.0
100
AcDbText
 10
10920.06667853037
 20
1938.916653815271
 30
0.0
 40
100.0
  1
M12×200(市販品)
  7
STYLE1
100
AcDbText
  0
MTEXT
  5
1F2F0
102
{ACAD_REACTORS
330
1F2F1
102
}
330
747D
100
AcDbEntity
  8
寸法
 62
     7
 48
50.0
100
AcDbMText
 10
10930.57555428739
 20
2139.358417012474
 30
0.0
 40
100.0
 41
0.0
 71
     4
 72
     1
  1
アンカーボルト
  7
STYLE1
 73
     1
 44
1.0
1001
ACAD
1000
MTEXTBEGIN
1070
    73
1070
     1
1070
    44
1040
1.0
1070
    74
1070
     0
1000
MTEXTEND
  0
LEADER
  5
1F2F1
330
747D
100
AcDbEntity
  8
寸法
 48
50.0
100
AcDbLeader
  3
INABA_S50G
 71
     0
 73
     0
 74
     0
 75
     1
 40
100.0
 41
828.6243686707642
 76
     3
 10
10632.87538882277
 20
2220.92212924262
 30
0.0
 10
10780.57555428739
 20
2064.358417012474
 30
0.0
 10
10905.57555428739
 20
2064.358417012474
 30
0.0
340
1F2F0
  0
LINE
  5
1F2F2
330
747D
100
AcDbEntity
  8
部品1
 48
50.0
100
AcDbLine
 10
10715.87538882277
 20
2320.922129242619
 30
0.0
 11
10715.87538882277
 21
1540.922129242619
 31
0.0
  0
LINE
  5
1F2F3
330
747D
100
AcDbEntity
  8
Ｇ．Ｌ
 48
50.0
100
AcDbLine
 10
10715.87538882277
 20
1844.758236380541
 30
0.0
 11
11233.55026611397
 21
1844.758236380541
 31
0.0
  0
LINE
  5
1F2F4
330
747D
100
AcDbEntity
  8
部品1
 48
50.0
100
AcDbLine
 10
10715.87538882277
 20
1540.922129242619
 30
0.0
 11
10895.87538882278
 21
1540.922129242619
 31
0.0
  0
LINE
  5
1F2F5
330
747D
100
AcDbEntity
  8
細線
 48
50.0
100
AcDbLine
 10
10625.87538882278
 20
1547.42479872128
 30
0.0
 11
10715.87538882277
 21
1637.424798721275
 31
0.0
  0
LINE
  5
1F2F6
330
747D
100
AcDbEntity
  8
細線
 48
50.0
100
AcDbLine
 10
10625.87538882278
 20
1513.748838267271
 30
0.0
 11
10715.87538882277
 21
1603.748838267265
 31
0.0
  0
LINE
  5
1F2F7
330
747D
100
AcDbEntity
  8
細線
 48
50.0
100
AcDbLine
 10
10625.87538882278
 20
1480.07287781326
 30
0.0
 11
10715.87538882277
 21
1570.072877813256
 31
0.0
  0
LINE
  5
1F2F8
330
747D
100
AcDbEntity
  8
細線
 48
50.0
100
AcDbLine
 10
10625.87538882278
 20
1783.156521899342
 30
0.0
 11
10715.87538882277
 21
1873.156521899338
 31
0.0
  0
LINE
  5
1F2F9
330
747D
100
AcDbEntity
  8
細線
 48
50.0
100
AcDbLine
 10
10625.87538882278
 20
1816.832482353354
 30
0.0
 11
10715.87538882277
 21
1906.832482353353
 31
0.0
  0
LINE
  5
1F2FA
330
747D
100
AcDbEntity
  8
細線
 48
50.0
100
AcDbLine
 10
10625.87538882278
 20
1749.480561445334
 30
0.0
 11
10715.87538882277
 21
1839.480561445331
 31
0.0
  0
LINE
  5
1F2FB
330
747D
100
AcDbEntity
  8
細線
100
AcDbLine
 10
10675.68629869221
 20
2287.274078255523
 30
0.0
 11
10715.87538882277
 21
2279.08552505952
 31
0.0
  0
LINE
  5
1F2FC
330
747D
100
AcDbEntity
  8
部品1
 48
50.0
100
AcDbLine
 10
10632.87538882278
 20
2070.922129242619
 30
0.0
 11
10632.87538882277
 21
2320.922129242619
 31
0.0
  0
LINE
  5
1F2FD
330
747D
100
AcDbEntity
  8
部品1
 48
50.0
100
AcDbLine
 10
10605.87538882277
 20
2070.922129242619
 30
0.0
 11
10605.87538882277
 21
2320.922129242619
 31
0.0
  0
LINE
  5
1F2FE
330
747D
100
AcDbEntity
  8
細線
 48
50.0
100
AcDbLine
 10
10632.87538882277
 20
2125.888245077407
 30
0.0
 11
10715.87538882277
 21
2208.888245077407
 31
0.0
  0
LINE
  5
1F2FF
330
747D
100
AcDbEntity
  8
細線
 48
50.0
100
AcDbLine
 10
10632.87538882277
 20
2193.240165985422
 30
0.0
 11
10715.87538882277
 21
2276.240165985426
 31
0.0
  0
LINE
  5
1F300
330
747D
100
AcDbEntity
  8
細線
 48
50.0
100
AcDbLine
 10
10632.87538882278
 20
2159.56420553141
 30
0.0
 11
10715.87538882277
 21
2242.564205531417
 31
0.0
  0
LINE
  5
1F301
330
747D
100
AcDbEntity
  8
部品1
 48
50.0
100
AcDbLine
 10
10605.87538882277
 20
2070.922129242619
 30
0.0
 11
10605.87538882277
 21
2146.240165985426
 31
0.0
  0
LINE
  5
1F302
330
747D
100
AcDbEntity
  8
部品1
 48
50.0
100
AcDbLine
 10
10605.87538882277
 20
2070.922129242619
 30
0.0
 11
10605.87538882277
 21
2146.240165985426
 31
0.0
  0
LINE
  5
1F303
330
747D
100
AcDbEntity
  8
部品1
100
AcDbLine
 10
10605.41385036124
 20
2468.46059078108
 30
0.0
 11
10605.41385036124
 21
2442.614436934928
 31
0.0
  0
LINE
  5
1F304
330
747D
100
AcDbEntity
  8
部品1
100
AcDbLine
 10
10635.56769651508
 20
2427.537513858004
 30
0.0
 11
10677.26000420739
 21
2427.537513858004
 31
0.0
  0
LINE
  5
1F305
330
747D
100
AcDbEntity
  8
部品1
100
AcDbLine
 10
10635.56769651508
 20
2442.614436934928
 30
0.0
 11
10635.56769651508
 21
2427.537513858004
 31
0.0
  0
LINE
  5
1F306
330
747D
100
AcDbEntity
  8
部品1
100
AcDbLine
 10
10605.41385036124
 20
2442.614436934928
 30
0.0
 11
10635.56769651508
 21
2442.614436934928
 31
0.0
  0
ARC
  5
1F307
330
747D
100
AcDbEntity
  8
部品1
100
AcDbCircle
 10
10637.68308113046
 20
2338.482215946995
 30
0.0
 40
7.3858052918609
100
AcDbArc
 50
43.19325636896477
 51
136.8067436310352
  0
LINE
  5
1F308
330
747D
100
AcDbEntity
  8
部品1
100
AcDbLine
 10
10632.29846574585
 20
2343.537513858004
 30
0.0
 11
10632.29846574585
 21
2325.229821550311
 31
0.0
  0
LINE
  5
1F309
330
747D
100
AcDbEntity
  8
部品1
100
AcDbLine
 10
10643.06769651508
 20
2343.537513858006
 30
0.0
 11
10643.06769651508
 21
2325.229821550311
 31
0.0
  0
LINE
  5
1F30A
330
747D
100
AcDbEntity
  8
部品1
100
AcDbLine
 10
10639.83692728431
 20
2346.768283088774
 30
0.0
 11
10643.06769651508
 21
2343.537513858006
 31
0.0
  0
LINE
  5
1F30B
330
747D
100
AcDbEntity
  8
部品1
100
AcDbLine
 10
10647.37538882277
 20
2325.229821550311
 30
0.0
 11
10647.37538882277
 21
2320.922129242619
 31
0.0
  0
LINE
  5
1F30C
330
747D
100
AcDbEntity
  8
部品1
100
AcDbLine
 10
10674.02923497662
 20
2347.673267558382
 30
0.0
 11
10674.02923497662
 21
2325.229821550311
 31
0.0
  0
LINE
  5
1F30D
330
747D
100
AcDbEntity
  8
部品1
 48
50.0
100
AcDbLine
 10
10632.87538882277
 20
2346.768283088774
 30
0.0
 11
10632.87538882277
 21
2381.229821550311
 31
0.0
  0
LINE
  5
1F30E
330
747D
100
AcDbEntity
  8
細線
100
AcDbLine
 10
10646.18223001398
 20
2288.911822952912
 30
0.0
 11
10675.68629869221
 21
2287.274078255523
 31
0.0
  0
LINE
  5
1F30F
330
747D
100
AcDbEntity
  8
部品1
100
AcDbLine
 10
10606.4523118997
 20
2343.537513858006
 30
0.0
 11
10606.4523118997
 21
2325.229821550311
 31
0.0
  0
LINE
  5
1F310
330
747D
100
AcDbEntity
  8
部品1
 48
50.0
100
AcDbLine
 10
10605.87538882277
 20
2346.768283088774
 30
0.0
 11
10605.87538882277
 21
2381.229821550311
 31
0.0
  0
LINE
  5
1F311
330
747D
100
AcDbEntity
  8
部品1
 48
50.0
100
AcDbLine
 10
10632.87538882278
 20
2381.229821550311
 30
0.0
 11
10605.87538882277
 21
2381.229821550311
 31
0.0
  0
ARC
  5
1F312
330
747D
100
AcDbEntity
  8
部品1
100
AcDbCircle
 10
10619.37538882277
 20
2310.919373540726
 30
0.0
 40
35.0848827120379
100
AcDbArc
 50
68.38687878208858
 51
111.6131212179114
  0
LINE
  5
1F313
330
747D
100
AcDbEntity
  8
部品1
100
AcDbLine
 10
10677.26000420739
 20
2324.152898473389
 30
0.0
 11
10694.49077343816
 21
2324.152898473389
 31
0.0
  0
LINE
  5
1F314
330
747D
100
AcDbEntity
  8
部品1
100
AcDbLine
 10
10677.26000420739
 20
2427.537513858004
 30
0.0
 11
10677.26000420739
 21
2324.152898473389
 31
0.0
  0
LINE
  5
1F315
330
747D
100
AcDbEntity
  8
部品1
 48
50.0
100
AcDbLine
 10
12214.6175335336
 20
1928.228361228962
 30
0.0
 11
12166.42603448307
 21
1844.758236380538
 31
0.0
  0
LINE
  5
1F316
330
747D
100
AcDbEntity
  8
部品1
 48
50.0
100
AcDbLine
 10
12118.23453543255
 20
1928.228361228962
 30
0.0
 11
12166.42603448307
 21
1844.758236380538
 31
0.0
  0
LINE
  5
1F317
330
747D
100
AcDbEntity
  8
部品1
 48
50.0
100
AcDbLine
 10
12118.23453543255
 20
1928.228361228962
 30
0.0
 11
12214.6175335336
 21
1928.228361228962
 31
0.0
  0
LINE
  5
1F318
330
747D
100
AcDbEntity
  8
部品1
 48
50.0
100
AcDbLine
 10
12994.53798679358
 20
1540.92212924262
 30
0.0
 11
12994.53798679358
 21
1240.92212924262
 31
0.0
  0
LINE
  5
1F319
330
747D
100
AcDbEntity
  8
細線
 48
50.0
100
AcDbLine
 10
12625.38723822294
 20
1380.92212924262
 30
0.0
 11
12664.53798679358
 21
1420.072877813257
 31
0.0
  0
LINE
  5
1F31A
330
747D
100
AcDbEntity
  8
細線
 48
50.0
100
AcDbLine
 10
12558.03531731492
 20
1380.92212924262
 30
0.0
 11
12704.53798679358
 21
1527.424798721279
 31
0.0
  0
LINE
  5
1F31B
330
747D
100
AcDbEntity
  8
細線
 48
50.0
100
AcDbLine
 10
12591.71127776893
 20
1380.92212924262
 30
0.0
 11
12664.53798679358
 21
1453.748838267268
 31
0.0
  0
LINE
  5
1F31C
330
747D
100
AcDbEntity
  8
部品1
 48
50.0
100
AcDbLine
 10
12684.53798679358
 20
1463.581147614023
 30
0.0
 11
12684.53798679358
 21
1390.92212924262
 31
0.0
  0
LINE
  5
1F31D
330
747D
100
AcDbEntity
  8
部品1
 48
50.0
100
AcDbLine
 10
12664.53798679358
 20
1463.581147614023
 30
0.0
 11
12664.53798679358
 21
1390.92212924262
 31
0.0
  0
LINE
  5
1F31E
330
747D
100
AcDbEntity
  8
細線
 48
50.0
100
AcDbLine
 10
12827.44300094699
 20
1380.92212924262
 30
0.0
 11
12987.443000947
 21
1540.92212924262
 31
0.0
  0
LINE
  5
1F31F
330
747D
100
AcDbEntity
  8
細線
 48
50.0
100
AcDbLine
 10
12894.79492185502
 20
1380.92212924262
 30
0.0
 11
12994.53798679358
 21
1480.665194181181
 31
0.0
  0
LINE
  5
1F320
330
747D
100
AcDbEntity
  8
細線
 48
50.0
100
AcDbLine
 10
12861.11896140101
 20
1380.92212924262
 30
0.0
 11
12994.53798679358
 21
1514.341154635193
 31
0.0
  0
LINE
  5
1F321
330
747D
100
AcDbEntity
  8
部品1
 48
50.0
100
AcDbLine
 10
12724.53798679359
 20
1390.92212924262
 30
0.0
 11
12724.53798679358
 21
2146.240165985427
 31
0.0
  0
LINE
  5
1F322
330
747D
100
AcDbEntity
  8
部品1
 48
50.0
100
AcDbLine
 10
12704.53798679359
 20
1390.92212924262
 30
0.0
 11
12704.53798679358
 21
2146.240165985427
 31
0.0
  0
LINE
  5
1F323
330
747D
100
AcDbEntity
  8
部品1
 48
50.0
100
AcDbLine
 10
12394.53798679358
 20
1240.92212924262
 30
0.0
 11
12394.53798679358
 21
1540.92212924262
 31
0.0
  0
TEXT
  5
1F324
330
747D
100
AcDbEntity
  8
部品1
 48
50.0
100
AcDbText
 10
12320.34841356975
 20
430.7577038532972
 30
0.0
 40
96.0
  1
床下湿気防止用基礎
  7
STYLE2
100
AcDbText
  0
LINE
  5
1F325
330
747D
100
AcDbEntity
  8
部品1
 48
50.0
100
AcDbLine
 10
13651.5156110192
 20
393.5143648394442
 30
0.0
 11
12260.20234202158
 21
393.5143648394442
 31
0.0
  0
LINE
  5
1F326
330
747D
100
AcDbEntity
  8
部品1
 48
50.0
100
AcDbLine
 10
13651.5156110192
 20
553.5143648394441
 30
0.0
 11
12260.20234202158
 21
553.5143648394441
 31
0.0
  0
LINE
  5
1F327
330
747D
100
AcDbEntity
  8
部品1
 48
50.0
100
AcDbLine
 10
13094.53798679358
 20
1080.92212924262
 30
0.0
 11
12294.53798679358
 21
1080.92212924262
 31
0.0
  0
LINE
  5
1F328
330
747D
100
AcDbEntity
  8
部品1
 48
50.0
100
AcDbLine
 10
13094.53798679358
 20
1240.92212924262
 30
0.0
 11
12294.53798679358
 21
1240.92212924262
 31
0.0
  0
LINE
  5
1F329
330
747D
100
AcDbEntity
  8
部品1
 48
50.0
100
AcDbLine
 10
12260.20234202158
 20
553.5143648394441
 30
0.0
 11
12260.20234202158
 21
393.5143648394442
 31
0.0
  0
LINE
  5
1F32A
330
747D
100
AcDbEntity
  8
細線
 48
50.0
100
AcDbLine
 10
12658.6292800782
 20
1210.92212924262
 30
0.0
 11
12650.59080430526
 21
1240.92212924262
 31
0.0
  0
LINE
  5
1F32B
330
747D
100
AcDbEntity
  8
細線
 48
50.0
100
AcDbLine
 10
12623.79588506215
 20
1080.92212924262
 30
0.0
 11
12666.66775585113
 21
1240.92212924262
 31
0.0
  0
LINE
  5
1F32C
330
747D
100
AcDbEntity
  8
部品1
 48
50.0
100
AcDbLine
 10
12464.53798679358
 20
1360.92212924262
 30
0.0
 11
12924.53798679358
 21
1360.92212924262
 31
0.0
  0
LINE
  5
1F32D
330
747D
100
AcDbEntity
  8
部品1
 48
50.0
100
AcDbLine
 10
12464.53798679358
 20
1380.92212924262
 30
0.0
 11
12924.53798679358
 21
1380.92212924262
 31
0.0
  0
LINE
  5
1F32E
330
747D
100
AcDbEntity
  8
細線
 48
50.0
100
AcDbLine
 10
12426.57577269403
 20
1080.92212924262
 30
0.0
 11
12469.44764348301
 21
1240.92212924262
 31
0.0
  0
LINE
  5
1F32F
330
747D
100
AcDbEntity
  8
部品1
 48
50.0
100
AcDbLine
 10
12294.53798679358
 20
1080.92212924262
 30
0.0
 11
12294.53798679358
 21
1240.92212924262
 31
0.0
  0
LINE
  5
1F330
330
747D
100
AcDbEntity
  8
細線
 48
50.0
100
AcDbLine
 10
12327.96571650996
 20
1080.92212924262
 30
0.0
 11
12370.83758729895
 21
1240.92212924262
 31
0.0
  0
LINE
  5
1F331
330
747D
100
AcDbEntity
  8
細線
 48
50.0
100
AcDbLine
 10
12525.18582887809
 20
1080.92212924262
 30
0.0
 11
12568.05769966707
 21
1240.92212924262
 31
0.0
  0
LINE
  5
1F332
330
747D
100
AcDbEntity
  8
細線
 48
50.0
100
AcDbLine
 10
12434.61424846696
 20
1110.92212924262
 30
0.0
 11
12442.6527242399
 21
1080.92212924262
 31
0.0
  0
LINE
  5
1F333
330
747D
100
AcDbEntity
  8
細線
 48
50.0
100
AcDbLine
 10
12336.0041922829
 20
1110.92212924262
 30
0.0
 11
12344.04266805584
 21
1080.92212924262
 31
0.0
  0
LINE
  5
1F334
330
747D
100
AcDbEntity
  8
細線
 48
50.0
100
AcDbLine
 10
12631.83436083509
 20
1110.92212924262
 30
0.0
 11
12639.87283660802
 21
1080.92212924262
 31
0.0
  0
LINE
  5
1F335
330
747D
100
AcDbEntity
  8
細線
 48
50.0
100
AcDbLine
 10
12533.22430465102
 20
1110.92212924262
 30
0.0
 11
12541.26278042396
 21
1080.92212924262
 31
0.0
  0
LINE
  5
1F336
330
747D
100
AcDbEntity
  8
細線
 48
50.0
100
AcDbLine
 10
12418.03531731492
 20
1240.92212924262
 30
0.0
 11
12538.03531731492
 21
1360.92212924262
 31
0.0
  0
LINE
  5
1F337
330
747D
100
AcDbEntity
  8
細線
 48
50.0
100
AcDbLine
 10
12362.79911152601
 20
1210.92212924262
 30
0.0
 11
12354.76063575308
 21
1240.92212924262
 31
0.0
  0
LINE
  5
1F338
330
747D
100
AcDbEntity
  8
細線
 48
50.0
100
AcDbLine
 10
12560.01922389414
 20
1210.92212924262
 30
0.0
 11
12551.9807481212
 21
1240.92212924262
 31
0.0
  0
LINE
  5
1F339
330
747D
100
AcDbEntity
  8
部品1
 48
50.0
100
AcDbLine
 10
12464.53798679358
 20
1360.92212924262
 30
0.0
 11
12464.53798679358
 21
1380.92212924262
 31
0.0
  0
LINE
  5
1F33A
330
747D
100
AcDbEntity
  8
細線
 48
50.0
100
AcDbLine
 10
12461.40916771008
 20
1210.92212924262
 30
0.0
 11
12453.37069193714
 21
1240.92212924262
 31
0.0
  0
LINE
  5
1F33B
330
747D
100
AcDbEntity
  8
細線
 48
50.0
100
AcDbLine
 10
12451.71127776893
 20
1240.92212924262
 30
0.0
 11
12571.71127776893
 21
1360.92212924262
 31
0.0
  0
LINE
  5
1F33C
330
747D
100
AcDbEntity
  8
細線
 48
50.0
100
AcDbLine
 10
12485.38723822294
 20
1240.92212924262
 30
0.0
 11
12605.38723822294
 21
1360.92212924262
 31
0.0
  0
CIRCLE
  5
1F33D
330
747D
100
AcDbEntity
  8
部品1
 48
50.0
100
AcDbCircle
 10
12534.53798679358
 20
1390.92212924262
 30
0.0
 40
10.0
  0
LINE
  5
1F33E
330
747D
100
AcDbEntity
  8
細線
 48
50.0
100
AcDbLine
 10
13018.23610979839
 20
1080.92212924262
 30
0.0
 11
13061.10798058737
 21
1240.92212924262
 31
0.0
  0
LINE
  5
1F33F
330
747D
100
AcDbEntity
  8
細線
 48
50.0
100
AcDbLine
 10
12821.01599743027
 20
1080.92212924262
 30
0.0
 11
12863.88786821925
 21
1240.92212924262
 31
0.0
  0
LINE
  5
1F340
330
747D
100
AcDbEntity
  8
細線
 48
50.0
100
AcDbLine
 10
12722.40594124621
 20
1080.92212924262
 30
0.0
 11
12765.27781203519
 21
1240.92212924262
 31
0.0
  0
LINE
  5
1F341
330
747D
100
AcDbEntity
  8
細線
 48
50.0
100
AcDbLine
 10
12919.62605361433
 20
1080.92212924262
 30
0.0
 11
12962.49792440331
 21
1240.92212924262
 31
0.0
  0
LINE
  5
1F342
330
747D
100
AcDbEntity
  8
細線
 48
50.0
100
AcDbLine
 10
12829.0544732032
 20
1110.92212924262
 30
0.0
 11
12837.09294897614
 21
1080.92212924262
 31
0.0
  0
LINE
  5
1F343
330
747D
100
AcDbEntity
  8
細線
 48
50.0
100
AcDbLine
 10
12730.44441701914
 20
1110.92212924262
 30
0.0
 11
12738.48289279208
 21
1080.92212924262
 31
0.0
  0
LINE
  5
1F344
330
747D
100
AcDbEntity
  8
細線
 48
50.0
100
AcDbLine
 10
13026.27458557133
 20
1110.92212924262
 30
0.0
 11
13034.31306134426
 21
1080.92212924262
 31
0.0
  0
LINE
  5
1F345
330
747D
100
AcDbEntity
  8
細線
 48
50.0
100
AcDbLine
 10
12927.66452938727
 20
1110.92212924262
 30
0.0
 11
12935.7030051602
 21
1080.92212924262
 31
0.0
  0
CIRCLE
  5
1F346
330
747D
100
AcDbEntity
  8
部品1
 48
50.0
100
AcDbCircle
 10
12854.53798679358
 20
1390.92212924262
 30
0.0
 40
10.0
  0
LINE
  5
1F347
330
747D
100
AcDbEntity
  8
細線
 48
50.0
100
AcDbLine
 10
12754.79492185501
 20
1240.92212924262
 30
0.0
 11
12874.79603166144
 21
1360.923239049044
 31
0.0
  0
ARC
  5
1F348
330
747D
100
AcDbEntity
  8
部品1
 48
50.0
100
AcDbCircle
 10
12694.53798679358
 20
1390.92212924262
 30
0.0
 40
30.0
100
AcDbArc
 50
340.5287793655026
 51
0.0
  0
CIRCLE
  5
1F349
330
747D
100
AcDbEntity
  8
部品1
 48
50.0
100
AcDbCircle
 10
12694.53798679358
 20
1390.92212924262
 30
0.0
 40
10.0
  0
ARC
  5
1F34A
330
747D
100
AcDbEntity
  8
部品1
 48
50.0
100
AcDbCircle
 10
12694.53798679358
 20
1390.92212924262
 30
0.0
 40
30.0
100
AcDbArc
 50
180.0
 51
199.4712206344973
  0
LINE
  5
1F34B
330
747D
100
AcDbEntity
  8
細線
 48
50.0
100
AcDbLine
 10
12855.84939244632
 20
1210.92212924262
 30
0.0
 11
12847.81091667339
 21
1240.92212924262
 31
0.0
  0
LINE
  5
1F34C
330
747D
100
AcDbEntity
  8
細線
 48
50.0
100
AcDbLine
 10
12757.23933626226
 20
1210.92212924262
 30
0.0
 11
12749.20086048932
 21
1240.92212924262
 31
0.0
  0
LINE
  5
1F34D
330
747D
100
AcDbEntity
  8
細線
 48
50.0
100
AcDbLine
 10
12721.11896140101
 20
1240.92212924262
 30
0.0
 11
12841.11896140101
 21
1360.92212924262
 31
0.0
  0
LINE
  5
1F34E
330
747D
100
AcDbEntity
  8
細線
 48
50.0
100
AcDbLine
 10
12687.443000947
 20
1240.92212924262
 30
0.0
 11
12807.443000947
 21
1360.92212924262
 31
0.0
  0
LINE
  5
1F34F
330
747D
100
AcDbEntity
  8
細線
 48
50.0
100
AcDbLine
 10
13053.06950481444
 20
1210.92212924262
 30
0.0
 11
13045.03102904151
 21
1240.92212924262
 31
0.0
  0
LINE
  5
1F350
330
747D
100
AcDbEntity
  8
細線
 48
50.0
100
AcDbLine
 10
12990.52664503308
 20
1240.92212924262
 30
0.0
 11
12994.53798679358
 21
1244.933471003117
 31
0.0
  0
LINE
  5
1F351
330
747D
100
AcDbEntity
  8
細線
 48
50.0
100
AcDbLine
 10
12956.85068457907
 20
1240.92212924262
 30
0.0
 11
12994.53798679358
 21
1278.609431457125
 31
0.0
  0
LINE
  5
1F352
330
747D
100
AcDbEntity
  8
部品1
 48
50.0
100
AcDbLine
 10
12924.53798679358
 20
1360.92212924262
 30
0.0
 11
12924.53798679358
 21
1380.92212924262
 31
0.0
  0
LINE
  5
1F353
330
747D
100
AcDbEntity
  8
細線
 48
50.0
100
AcDbLine
 10
12954.45944863038
 20
1210.92212924262
 30
0.0
 11
12946.42097285745
 21
1240.92212924262
 31
0.0
  0
LINE
  5
1F354
330
747D
100
AcDbEntity
  8
部品1
 48
50.0
100
AcDbLine
 10
13651.5156110192
 20
553.5143648394441
 30
0.0
 11
13651.5156110192
 21
393.5143648394442
 31
0.0
  0
LINE
  5
1F355
330
747D
100
AcDbEntity
  8
部品1
 48
50.0
100
AcDbLine
 10
13094.53798679358
 20
1080.92212924262
 30
0.0
 11
13094.53798679358
 21
1240.92212924262
 31
0.0
  0
LINE
  5
1F356
330
747D
100
AcDbEntity
  8
細線
 48
50.0
100
AcDbLine
 10
13045.18582887809
 20
1664.758236380542
 30
0.0
 11
13088.05769966707
 21
1824.758236380542
 31
0.0
  0
HATCH
  5
1F357
330
747D
100
AcDbEntity
  8
寸法
 62
     5
 48
50.0
100
AcDbHatch
 10
0.0
 20
0.0
 30
0.0
210
0.0
220
0.0
230
1.0
  2
PLAST
 70
     0
 71
     0
 91
        1
 92
        7
 72
     0
 73
     1
 93
        4
 10
13332.21286408478
 20
2094.758236380541
 10
12814.53798679358
 20
2094.758236380542
 10
12814.53798679358
 20
1864.758236380542
 10
13332.21286408478
 20
1864.758236380543
 97
        0
 75
     0
 76
     1
 52
315.0
 41
25.0
 77
     0
 78
     3
 53
315.0
 43
-172.8289769570365
 44
-3497.868861096787
 45
112.2532015133644
 46
112.2532015133644
 79
     0
 53
315.0
 43
-158.7973267678662
 44
-3483.837210907618
 45
112.2532015133644
 46
112.2532015133644
 79
     0
 53
315.0
 43
-144.7656765786951
 44
-3469.805560718447
 45
112.2532015133644
 46
112.2532015133644
 79
     0
 47
1.387886003246494
 98
        1
 10
13043.08851761954
 20
2031.443823417914
  0
LINE
  5
1F358
330
747D
100
AcDbEntity
  8
部品1
 48
50.0
100
AcDbLine
 10
12815.62281713688
 20
1664.758236380542
 30
0.0
 11
13332.21286408478
 21
1664.758236380542
 31
0.0
  0
LINE
  5
1F359
330
747D
100
AcDbEntity
  8
部品1
 48
50.0
100
AcDbLine
 10
12814.53798679358
 20
1824.758236380542
 30
0.0
 11
13332.21286408478
 21
1824.758236380542
 31
0.0
  0
LINE
  5
1F35A
330
747D
100
AcDbEntity
  8
部品1
 48
50.0
100
AcDbLine
 10
12814.53798679358
 20
1864.758236380542
 30
0.0
 11
13332.21286408478
 21
1864.758236380542
 31
0.0
  0
LINE
  5
1F35B
330
747D
100
AcDbEntity
  8
部品1
 48
50.0
100
AcDbLine
 10
12814.53798679358
 20
1844.758236380542
 30
0.0
 11
13332.21286408478
 21
1844.758236380542
 31
0.0
  0
LINE
  5
1F35C
330
747D
100
AcDbEntity
  8
部品1
 48
50.0
100
AcDbLine
 10
12814.53798679358
 20
2094.758236380542
 30
0.0
 11
13332.21286408478
 21
2094.758236380542
 31
0.0
  0
LWPOLYLINE
  5
1F35D
330
747D
100
AcDbEntity
  8
部品1
 48
50.0
100
AcDbPolyline
 90
        4
 70
     0
 43
15.0
 10
12814.53798679358
 20
1844.758236380542
 10
13332.21286408478
 20
1844.758236380542
 42
0.1559987191059798
 10
13498.91538515331
 20
1897.717322202308
 42
-0.1900569176366468
 10
13697.83720039182
 20
1928.698505646254
  0
LINE
  5
1F35E
330
747D
100
AcDbEntity
  8
細線
 48
50.0
100
AcDbLine
 10
12574.53798679358
 20
1968.888245077408
 30
0.0
 11
12679.2308893302
 21
2073.581147614024
 31
0.0
  0
LINE
  5
1F35F
330
747D
100
AcDbEntity
  8
部品1
 48
50.0
100
AcDbLine
 10
12574.53798679358
 20
1540.92212924262
 30
0.0
 11
12574.53798679358
 21
2320.92212924262
 31
0.0
  0
LINE
  5
1F360
330
747D
100
AcDbEntity
  8
部品1
 48
50.0
100
AcDbLine
 10
12814.53798679358
 20
2320.92212924262
 30
0.0
 11
12814.53798679358
 21
1540.92212924262
 31
0.0
  0
LINE
  5
1F361
330
747D
100
AcDbEntity
  8
細線
 48
50.0
100
AcDbLine
 10
12574.53798679358
 20
1599.480561445333
 30
0.0
 11
12704.53798679359
 21
1729.480561445335
 31
0.0
  0
LINE
  5
1F362
330
747D
100
AcDbEntity
  8
細線
 48
50.0
100
AcDbLine
 10
12574.53798679358
 20
1633.156521899343
 30
0.0
 11
12704.53798679358
 21
1763.156521899341
 31
0.0
  0
LINE
  5
1F363
330
747D
100
AcDbEntity
  8
細線
 48
50.0
100
AcDbLine
 10
12574.53798679358
 20
1666.832482353352
 30
0.0
 11
12704.53798679358
 21
1796.832482353353
 31
0.0
  0
LINE
  5
1F364
330
747D
100
AcDbEntity
  8
細線
 48
50.0
100
AcDbLine
 10
12394.53798679358
 20
1419.480561445334
 30
0.0
 11
12515.97955459087
 21
1540.92212924262
 31
0.0
  0
LINE
  5
1F365
330
747D
100
AcDbEntity
  8
細線
 48
50.0
100
AcDbLine
 10
12394.53798679358
 20
1453.156521899344
 30
0.0
 11
12482.30359413686
 21
1540.92212924262
 31
0.0
  0
LINE
  5
1F366
330
747D
100
AcDbEntity
  8
部品1
 48
50.0
100
AcDbLine
 10
12394.53798679358
 20
1540.92212924262
 30
0.0
 11
12574.53798679358
 21
1540.92212924262
 31
0.0
  0
LINE
  5
1F367
330
747D
100
AcDbEntity
  8
細線
 48
50.0
100
AcDbLine
 10
12394.53798679358
 20
1486.832482353355
 30
0.0
 11
12448.62763368285
 21
1540.92212924262
 31
0.0
  0
LINE
  5
1F368
330
747D
100
AcDbEntity
  8
細線
 48
50.0
100
AcDbLine
 10
12847.96571650997
 20
1664.758236380542
 30
0.0
 11
12890.83758729895
 21
1824.758236380542
 31
0.0
  0
LINE
  5
1F369
330
747D
100
AcDbEntity
  8
細線
 48
50.0
100
AcDbLine
 10
12946.57577269403
 20
1664.758236380542
 30
0.0
 11
12989.44764348301
 21
1824.758236380542
 31
0.0
  0
LINE
  5
1F36A
330
747D
100
AcDbEntity
  8
細線
 48
50.0
100
AcDbLine
 10
12856.0041922829
 20
1694.758236380542
 30
0.0
 11
12864.04266805583
 21
1664.758236380542
 31
0.0
  0
LINE
  5
1F36B
330
747D
100
AcDbEntity
  8
部品1
 48
50.0
100
AcDbLine
 10
12814.53798679358
 20
1540.92212924262
 30
0.0
 11
12994.53798679358
 21
1540.92212924262
 31
0.0
  0
LINE
  5
1F36C
330
747D
100
AcDbEntity
  8
細線
 48
50.0
100
AcDbLine
 10
12724.53798679359
 20
1547.424798721281
 30
0.0
 11
12814.53798679358
 21
1637.424798721276
 31
0.0
  0
LINE
  5
1F36D
330
747D
100
AcDbEntity
  8
細線
 48
50.0
100
AcDbLine
 10
12684.53798679358
 20
1440.072877813259
 30
0.0
 11
12704.53798679359
 21
1460.072877813261
 31
0.0
  0
LINE
  5
1F36E
330
747D
100
AcDbEntity
  8
細線
 48
50.0
100
AcDbLine
 10
12674.37029614034
 20
1463.581147614023
 30
0.0
 11
12704.53798679359
 21
1493.74883826727
 31
0.0
  0
LINE
  5
1F36F
330
747D
100
AcDbEntity
  8
部品1
 48
50.0
100
AcDbLine
 10
12684.53798679358
 20
1463.581147614023
 30
0.0
 11
12664.53798679358
 21
1463.581147614023
 31
0.0
  0
LINE
  5
1F370
330
747D
100
AcDbEntity
  8
細線
 48
50.0
100
AcDbLine
 10
12724.53798679359
 20
1513.748838267272
 30
0.0
 11
12814.53798679358
 21
1603.748838267266
 31
0.0
  0
LINE
  5
1F371
330
747D
100
AcDbEntity
  8
細線
 48
50.0
100
AcDbLine
 10
12724.53798679359
 20
1480.072877813261
 30
0.0
 11
12814.53798679358
 21
1570.072877813257
 31
0.0
  0
LINE
  5
1F372
330
747D
100
AcDbEntity
  8
細線
 48
50.0
100
AcDbLine
 10
13053.22430465102
 20
1694.758236380542
 30
0.0
 11
13061.26278042396
 21
1664.758236380542
 31
0.0
  0
LINE
  5
1F373
330
747D
100
AcDbEntity
  8
細線
 48
50.0
100
AcDbLine
 10
12954.61424846696
 20
1694.758236380542
 30
0.0
 11
12962.6527242399
 21
1664.758236380542
 31
0.0
  0
LINE
  5
1F374
330
747D
100
AcDbEntity
  8
細線
 48
50.0
100
AcDbLine
 10
12724.53798679358
 20
1783.156521899343
 30
0.0
 11
12814.53798679358
 21
1873.156521899339
 31
0.0
  0
LINE
  5
1F375
330
747D
100
AcDbEntity
  8
細線
 48
50.0
100
AcDbLine
 10
12724.53798679358
 20
1816.832482353355
 30
0.0
 11
12814.53798679358
 21
1906.832482353354
 31
0.0
  0
LINE
  5
1F376
330
747D
100
AcDbEntity
  8
細線
 48
50.0
100
AcDbLine
 10
12724.53798679359
 20
1749.480561445335
 30
0.0
 11
12814.53798679358
 21
1839.480561445332
 31
0.0
  0
LINE
  5
1F377
330
747D
100
AcDbEntity
  8
細線
 48
50.0
100
AcDbLine
 10
12981.40916771008
 20
1794.758236380542
 30
0.0
 11
12973.37069193714
 21
1824.758236380542
 31
0.0
  0
LINE
  5
1F378
330
747D
100
AcDbEntity
  8
細線
 48
50.0
100
AcDbLine
 10
12882.79911152601
 20
1794.758236380542
 30
0.0
 11
12874.76063575308
 21
1824.758236380542
 31
0.0
  0
LINE
  5
1F379
330
747D
100
AcDbEntity
  8
細線
100
AcDbLine
 10
12648.13688504704
 20
2280.723269756908
 30
0.0
 11
12689.11483934635
 21
2287.274078255524
 31
0.0
  0
LINE
  5
1F37A
330
747D
100
AcDbEntity
  8
部品1
 48
50.0
100
AcDbLine
 10
12574.53798679358
 20
2320.92212924262
 30
0.0
 11
12814.53798679358
 21
2320.92212924262
 31
0.0
  0
LINE
  5
1F37B
330
747D
100
AcDbEntity
  8
細線
 48
50.0
100
AcDbLine
 10
12574.53798679358
 20
2002.564205531418
 30
0.0
 11
12664.53798679358
 21
2092.564205531417
 31
0.0
  0
LINE
  5
1F37C
330
747D
100
AcDbEntity
  8
細線
 48
50.0
100
AcDbLine
 10
12574.53798679358
 20
2036.240165985427
 30
0.0
 11
12664.53798679358
 21
2126.240165985427
 31
0.0
  0
LINE
  5
1F37D
330
747D
100
AcDbEntity
  8
細線
 48
50.0
100
AcDbLine
 10
12574.53798679358
 20
2271.971889163492
 30
0.0
 11
12589.26149960489
 21
2286.695401974798
 31
0.0
  0
LINE
  5
1F37E
330
747D
100
AcDbEntity
  8
細線
100
AcDbLine
 10
12574.53798679358
 20
2290.549510886659
 30
0.0
 11
12612.07631029961
 21
2280.723269756908
 31
0.0
  0
LINE
  5
1F37F
330
747D
100
AcDbEntity
  8
細線
100
AcDbLine
 10
12612.07631029961
 20
2280.723269756908
 30
0.0
 11
12648.13688504704
 21
2280.723269756908
 31
0.0
  0
LINE
  5
1F380
330
747D
100
AcDbEntity
  8
細線
 48
50.0
100
AcDbLine
 10
12574.53798679358
 20
2238.295928709483
 30
0.0
 11
12616.965327841
 21
2280.723269756908
 31
0.0
  0
LINE
  5
1F381
330
747D
100
AcDbEntity
  8
細線
100
AcDbLine
 10
12774.34889666302
 20
2287.274078255524
 30
0.0
 11
12814.53798679358
 21
2279.085525059521
 31
0.0
  0
ARC
  5
1F382
330
747D
100
AcDbEntity
  8
部品1
 48
50.0
100
AcDbCircle
 10
12694.53798679358
 20
2146.240165985427
 30
0.0
 40
30.0
100
AcDbArc
 50
0.0
 51
180.0
  0
CIRCLE
  5
1F383
330
747D
100
AcDbEntity
  8
部品1
 48
50.0
100
AcDbCircle
 10
12694.53798679358
 20
2146.240165985427
 30
0.0
 40
10.0
  0
LINE
  5
1F384
330
747D
100
AcDbEntity
  8
細線
 48
50.0
100
AcDbLine
 10
12723.97887087606
 20
2152.005089613895
 30
0.0
 11
12814.53798679358
 21
2242.564205531417
 31
0.0
  0
LINE
  5
1F385
330
747D
100
AcDbEntity
  8
細線
 48
50.0
100
AcDbLine
 10
12710.15351492167
 20
2171.855694113515
 30
0.0
 11
12814.53798679358
 21
2276.240165985427
 31
0.0
  0
LINE
  5
1F386
330
747D
100
AcDbEntity
  8
細線
 48
50.0
100
AcDbLine
 10
12684.53798679358
 20
2078.888245077408
 30
0.0
 11
12704.53798679358
 21
2098.888245077408
 31
0.0
  0
LINE
  5
1F387
330
747D
100
AcDbEntity
  8
部品1
 48
50.0
100
AcDbLine
 10
12684.53798679358
 20
2073.581147614024
 30
0.0
 11
12664.53798679358
 21
2073.581147614025
 31
0.0
  0
LINE
  5
1F388
330
747D
100
AcDbEntity
  8
細線
 48
50.0
100
AcDbLine
 10
12724.53798679358
 20
2118.888245077408
 30
0.0
 11
12814.53798679358
 21
2208.888245077408
 31
0.0
  0
LINE
  5
1F389
330
747D
100
AcDbEntity
  8
部品1
 48
50.0
100
AcDbLine
 10
12684.53798679358
 20
2073.581147614024
 30
0.0
 11
12684.53798679358
 21
2146.240165985427
 31
0.0
  0
LINE
  5
1F38A
330
747D
100
AcDbEntity
  8
細線
 48
50.0
100
AcDbLine
 10
12684.53798679358
 20
2112.564205531417
 30
0.0
 11
12704.53798679358
 21
2132.564205531418
 31
0.0
  0
LINE
  5
1F38B
330
747D
100
AcDbEntity
  8
部品1
 48
50.0
100
AcDbLine
 10
12664.53798679358
 20
2073.581147614025
 30
0.0
 11
12664.53798679358
 21
2146.240165985429
 31
0.0
  0
LINE
  5
1F38C
330
747D
100
AcDbEntity
  8
細線
100
AcDbLine
 10
12689.11483934635
 20
2287.274078255524
 30
0.0
 11
12744.84482798479
 21
2288.911822952913
 31
0.0
  0
LINE
  5
1F38D
330
747D
100
AcDbEntity
  8
細線
100
AcDbLine
 10
12744.84482798479
 20
2288.911822952913
 30
0.0
 11
12774.34889666302
 21
2287.274078255524
 31
0.0
  0
LINE
  5
1F38E
330
747D
100
AcDbEntity
  8
細線
 48
50.0
100
AcDbLine
 10
13242.40594124621
 20
1664.758236380542
 30
0.0
 11
13285.27781203519
 21
1824.758236380542
 31
0.0
  0
LINE
  5
1F38F
330
747D
100
AcDbEntity
  8
細線
 48
50.0
100
AcDbLine
 10
13143.79588506215
 20
1664.758236380542
 30
0.0
 11
13186.66775585113
 21
1824.758236380542
 31
0.0
  0
LINE
  5
1F390
330
747D
100
AcDbEntity
  8
細線
 48
50.0
100
AcDbLine
 10
13250.44441701914
 20
1694.758236380542
 30
0.0
 11
13258.48289279208
 21
1664.758236380542
 31
0.0
  0
LINE
  5
1F391
330
747D
100
AcDbEntity
  8
細線
 48
50.0
100
AcDbLine
 10
13151.83436083509
 20
1694.758236380542
 30
0.0
 11
13159.87283660802
 21
1664.758236380542
 31
0.0
  0
LINE
  5
1F392
330
747D
100
AcDbEntity
  8
細線
 48
50.0
100
AcDbLine
 10
13277.23933626226
 20
1794.758236380542
 30
0.0
 11
13269.20086048932
 21
1824.758236380542
 31
0.0
  0
LINE
  5
1F393
330
747D
100
AcDbEntity
  8
細線
 48
50.0
100
AcDbLine
 10
13178.6292800782
 20
1794.758236380542
 30
0.0
 11
13170.59080430526
 21
1824.758236380542
 31
0.0
  0
LINE
  5
1F394
330
747D
100
AcDbEntity
  8
細線
 48
50.0
100
AcDbLine
 10
13080.01922389414
 20
1794.758236380542
 30
0.0
 11
13071.9807481212
 21
1824.758236380542
 31
0.0
  0
LINE
  5
1F395
330
747D
100
AcDbEntity
  8
細線
 48
50.0
100
AcDbLine
 10
10918.91848199106
 20
3159.60809297996
 30
0.0
 11
14475.56203136359
 21
3159.608092979961
 31
0.0
  0
LINE
  5
1F396
330
747D
100
AcDbEntity
  8
細線
 48
50.0
100
AcDbLine
 10
10918.91848199106
 20
3199.608092979961
 30
0.0
 11
10918.91848199106
 21
3119.608092979961
 31
0.0
  0
LINE
  5
1F397
330
747D
100
AcDbEntity
  8
細線
 48
50.0
100
AcDbLine
 10
10918.91848199106
 20
3119.608092979961
 30
0.0
 11
10918.91848199106
 21
3119.608092979961
 31
0.0
  0
ARC
  5
1F398
330
747D
100
AcDbEntity
  8
細線
 48
50.0
100
AcDbCircle
 10
10838.91848199106
 20
3119.608092979961
 30
0.0
 40
80.0
100
AcDbArc
 50
270.0
 51
0.0
  0
ARC
  5
1F399
330
747D
100
AcDbEntity
  8
細線
 48
50.0
100
AcDbCircle
 10
10838.91848199106
 20
3199.608092979961
 30
0.0
 40
80.0
100
AcDbArc
 50
0.0
 51
90.0
  0
ENDSEC
  0
SECTION
  2
OBJECTS
  0
DICTIONARY
  5
7471
330
0
100
AcDbDictionary
281
     1
  3
ACAD_COLOR
350
1D6B4
  3
ACAD_GROUP
350
7472
  3
ACAD_LAYOUT
350
1D6B5
  3
ACAD_MATERIAL
350
1D6B3
  3
ACAD_MLINESTYLE
350
7473
  3
ACAD_PLOTSETTINGS
350
1D6B6
  3
ACAD_PLOTSTYLENAME
350
1D6B1
  3
ACDBHEADERROUNDTRIPXREC
350
1F452
  3
ACDBVARIABLEDICTIONARY
350
1152B
  3
CONTENTDICTIONARY
350
E71C
  3
DRAWINGVARIABLESDICT
350
F3B9
  0
DICTIONARY
  5
1E730
330
7467
100
AcDbDictionary
280
     1
281
     1
  3
ACAD_LAYERSTATES
360
1E731
  0
DICTIONARY
  5
1D6B4
102
{ACAD_REACTORS
330
7471
102
}
330
7471
100
AcDbDictionary
281
     1
  0
DICTIONARY
  5
7472
102
{ACAD_REACTORS
330
7471
102
}
330
7471
100
AcDbDictionary
281
     1
  0
DICTIONARY
  5
1D6B5
102
{ACAD_REACTORS
330
7471
102
}
330
7471
100
AcDbDictionary
281
     1
  3
Model
350
1D6B7
  3
レイアウト1
350
1D6B8
  0
DICTIONARY
  5
1D6B3
102
{ACAD_REACTORS
330
7471
102
}
330
7471
100
AcDbDictionary
281
     1
  0
DICTIONARY
  5
7473
102
{ACAD_REACTORS
330
7471
102
}
330
7471
100
AcDbDictionary
281
     1
  3
STANDARD
350
7480
  0
DICTIONARY
  5
1D6B6
102
{ACAD_REACTORS
330
7471
102
}
330
7471
100
AcDbDictionary
281
     1
  0
ACDBDICTIONARYWDFLT
  5
1D6B1
102
{ACAD_REACTORS
330
7471
102
}
330
7471
100
AcDbDictionary
281
     1
  3
Normal
350
1D6B2
100
AcDbDictionaryWithDefault
340
1D6B2
  0
DICTIONARY
  5
1F452
102
{ACAD_REACTORS
330
7471
102
}
330
7471
100
AcDbDictionary
281
     1
  3
COLORDICT
350
1F454
  3
MATERIALDICT
350
1F453
  0
DICTIONARY
  5
1152B
102
{ACAD_REACTORS
330
7471
102
}
330
7471
100
AcDbDictionary
281
     1
  3
DIMASSOC
350
1E139
  3
PROJECTNAME
350
1E13A
  3
SORTENTS
350
1152C
  0
DICTIONARY
  5
E71C
102
{ACAD_REACTORS
330
7471
102
}
330
7471
100
AcDbDictionary
281
     1
  0
DICTIONARY
  5
F3B9
102
{ACAD_REACTORS
330
7471
102
}
330
7471
100
AcDbDictionary
281
     1
1001
DRAWINGVARIABLESXDATA
1000
POLARMODE
1000
1
  0
DICTIONARY
  5
1E731
102
{ACAD_REACTORS
330
1E730
102
}
330
1E730
100
AcDbDictionary
281
     1
  0
LAYOUT
  5
1D6B7
102
{ACAD_XDICTIONARY
360
1F455
102
}
102
{ACAD_REACTORS
330
1D6B5
102
}
330
1D6B5
100
AcDbPlotSettings
  1

  2
クセロPDF
  4
A3
  6

 40
3.174999952316284
 41
3.174999952316284
 42
3.17498779296875
 43
3.17498779296875
 44
419.9466552734374
 45
296.9259948730469
 46
0.0
 47
0.0
 48
0.0
 49
0.0
140
0.0
141
0.0
142
1.0
143
49.08865545519121
 70
 11952
 72
     1
 73
     0
 74
     1
  7
inaba.ctb
 75
     0
147
0.0203713055639264
148
-173.9960207766853
149
1.585978227565647
100
AcDbLayout
  1
Model
 70
     1
 71
     0
 10
0.0
 20
0.0
 11
12.0
 21
9.0
 12
0.0
 22
0.0
 32
0.0
 14
0.0
 24
0.0
 34
0.0
 15
0.0
 25
0.0
 35
0.0
146
0.0
 13
0.0
 23
0.0
 33
0.0
 16
1.0
 26
0.0
 36
0.0
 17
0.0
 27
1.0
 37
0.0
 76
     0
330
747D
  0
LAYOUT
  5
1D6B8
102
{ACAD_XDICTIONARY
360
1F457
102
}
102
{ACAD_REACTORS
330
1D6B5
102
}
330
1D6B5
100
AcDbPlotSettings
  1

  2
EPSON LP-8300
  4

  6

 40
0.0
 41
0.0
 42
0.0
 43
0.0
 44
0.0
 45
0.0
 46
0.0
 47
0.0
 48
0.0
 49
0.0
140
0.0
141
0.0
142
1.0
143
1.0
 70
   688
 72
     0
 73
     0
 74
     5
  7
inaba.ctb
 75
    16
147
1.0
148
0.0
149
0.0
100
AcDbLayout
  1
レイアウト1
 70
     0
 71
     1
 10
0.0
 20
0.0
 11
420.0
 21
297.0
 12
0.0
 22
0.0
 32
0.0
 14
1.000000000000000E+20
 24
1.000000000000000E+20
 34
1.000000000000000E+20
 15
-1.000000000000000E+20
 25
-1.000000000000000E+20
 35
-1.000000000000000E+20
146
0.0
 13
0.0
 23
0.0
 33
0.0
 16
1.0
 26
0.0
 36
0.0
 17
0.0
 27
1.0
 37
0.0
 76
     0
330
747A
  0
MLINESTYLE
  5
7480
102
{ACAD_REACTORS
330
7473
102
}
330
7473
100
AcDbMlineStyle
  2
STANDARD
 70
     0
  3

 62
     0
 51
90.0
 52
90.0
 71
     2
 49
0.5
 62
   256
  6
BYLAYER
 49
-0.5
 62
   256
  6
BYLAYER
  0
ACDBPLACEHOLDER
  5
1D6B2
102
{ACAD_REACTORS
330
1D6B1
102
}
330
1D6B1
  0
XRECORD
  5
1F454
102
{ACAD_REACTORS
330
1F452
102
}
330
1F452
100
AcDbXrecord
280
     1
340
1D6B4
  0
XRECORD
  5
1F453
102
{ACAD_REACTORS
330
1F452
102
}
330
1F452
100
AcDbXrecord
280
     1
340
1D6B3
  0
DICTIONARYVAR
  5
1E139
102
{ACAD_REACTORS
330
1152B
102
}
330
1152B
100
DictionaryVariables
280
     0
  1
1
  0
DICTIONARYVAR
  5
1E13A
102
{ACAD_REACTORS
330
1152B
102
}
330
1152B
100
DictionaryVariables
280
     0
  1

  0
DICTIONARYVAR
  5
1152C
102
{ACAD_REACTORS
330
1152B
102
}
330
1152B
100
DictionaryVariables
280
     0
  1
96
  0
DICTIONARY
  5
1F455
330
1D6B7
100
AcDbDictionary
280
     1
281
     1
  3
ACAD_XREC_ROUNDTRIP
360
1F456
  0
DICTIONARY
  5
1F457
330
1D6B8
100
AcDbDictionary
280
     1
281
     1
  3
ACAD_XREC_ROUNDTRIP
360
1F458
  0
XRECORD
  5
1F456
102
{ACAD_REACTORS
330
1F455
102
}
330
1F455
100
AcDbXrecord
280
     1
102
SHADEPLOT
 70
     1
102
SHADEPLOTRESLEVEL
 70
     2
102
SHADEPLOTCUSTOMDPI
 70
   300
  0
XRECORD
  5
1F458
102
{ACAD_REACTORS
330
1F457
102
}
330
1F457
100
AcDbXrecord
280
     1
102
SHADEPLOT
 70
     0
102
SHADEPLOTRESLEVEL
 70
     2
102
SHADEPLOTCUSTOMDPI
 70
   300
  0
ENDSEC
  0
EOF
