  0
SECTION
  2
HEADER
  9
$ACADVER
  1
AC1015
  9
$ACADMAINTVER
 70
    20
  9
$DWGCODEPAGE
  3
ANSI_932
  9
$INSBASE
 10
0.0
 20
0.0
 30
0.0
  9
$EXTMIN
 10
173.9960207766853
 20
-0.2182869019998179
 30
-0.0000000000000053
  9
$EXTMAX
 10
20385.40654231959
 20
14262.40880340496
 30
0.0000000000000099
  9
$LIMMIN
 10
0.0
 20
0.0
  9
$LIMMAX
 10
21000.0
 20
14850.0
  9
$ORTHOMODE
 70
     0
  9
$REGENMODE
 70
     1
  9
$FILLMODE
 70
     1
  9
$QTEXTMODE
 70
     0
  9
$MIRRTEXT
 70
     1
  9
$LTSCALE
 40
20.0
  9
$ATTMODE
 70
     1
  9
$TEXTSIZE
 40
100.0
  9
$TRACEWID
 40
1.0
  9
$TEXTSTYLE
  7
STYLE2
  9
$CLAYER
  8
寸法
  9
$CELTYPE
  6
BYLAYER
  9
$CECOLOR
 62
   256
  9
$CELTSCALE
 40
50.0
  9
$DISPSILH
 70
     0
  9
$DIMSCALE
 40
1.0
  9
$DIMASZ
 40
125.0
  9
$DIMEXO
 40
25.0
  9
$DIMDLI
 40
7.0
  9
$DIMRND
 40
0.0
  9
$DIMDLE
 40
0.0
  9
$DIMEXE
 40
75.0
  9
$DIMTP
 40
0.0
  9
$DIMTM
 40
0.0
  9
$DIMTXT
 40
150.0
  9
$DIMCEN
 40
0.0
  9
$DIMTSZ
 40
0.0
  9
$DIMTOL
 70
     0
  9
$DIMLIM
 70
     0
  9
$DIMTIH
 70
     0
  9
$DIMTOH
 70
     0
  9
$DIMSE1
 70
     0
  9
$DIMSE2
 70
     0
  9
$DIMTAD
 70
     3
  9
$DIMZIN
 70
     8
  9
$DIMBLK
  1

  9
$DIMASO
 70
     1
  9
$DIMSHO
 70
     1
  9
$DIMPOST
  1

  9
$DIMAPOST
  1

  9
$DIMALT
 70
     0
  9
$DIMALTD
 70
     2
  9
$DIMALTF
 40
0.0394
  9
$DIMLFAC
 40
1.0
  9
$DIMTOFL
 70
     1
  9
$DIMTVP
 40
0.0
  9
$DIMTIX
 70
     1
  9
$DIMSOXD
 70
     1
  9
$DIMSAH
 70
     1
  9
$DIMBLK1
  1
DOTSMALL
  9
$DIMBLK2
  1
DOTSMALL
  9
$DIMSTYLE
  2
INABA_S50G
  9
$DIMCLRD
 70
     0
  9
$DIMCLRE
 70
     0
  9
$DIMCLRT
 70
     7
  9
$DIMTFAC
 40
1.0
  9
$DIMGAP
 40
25.0
  9
$DIMJUST
 70
     0
  9
$DIMSD1
 70
     0
  9
$DIMSD2
 70
     0
  9
$DIMTOLJ
 70
     1
  9
$DIMTZIN
 70
     0
  9
$DIMALTZ
 70
     0
  9
$DIMALTTZ
 70
     0
  9
$DIMUPT
 70
     0
  9
$DIMDEC
 70
     1
  9
$DIMTDEC
 70
     4
  9
$DIMALTU
 70
     2
  9
$DIMALTTD
 70
     2
  9
$DIMTXSTY
  7
STYLE1
  9
$DIMAUNIT
 70
     0
  9
$DIMADEC
 70
     0
  9
$DIMALTRND
 40
0.0
  9
$DIMAZIN
 70
     0
  9
$DIMDSEP
 70
    46
  9
$DIMATFIT
 70
     3
  9
$DIMFRAC
 70
     0
  9
$DIMLDRBLK
  1

  9
$DIMLUNIT
 70
     2
  9
$DIMLWD
 70
    -2
  9
$DIMLWE
 70
    -2
  9
$DIMTMOVE
 70
     0
  9
$LUNITS
 70
     2
  9
$LUPREC
 70
     1
  9
$SKETCHINC
 40
1.0
  9
$FILLETRAD
 40
16.0
  9
$AUNITS
 70
     0
  9
$AUPREC
 70
     0
  9
$MENU
  1
acad
  9
$ELEVATION
 40
0.0
  9
$PELEVATION
 40
0.0
  9
$THICKNESS
 40
0.0
  9
$LIMCHECK
 70
     0
  9
$CHAMFERA
 40
0.0
  9
$CHAMFERB
 40
0.0
  9
$CHAMFERC
 40
30.0
  9
$CHAMFERD
 40
0.7853981633974483
  9
$SKPOLY
 70
     0
  9
$TDCREATE
 40
2450927.380327778
  9
$TDUCREATE
 40
2450927.005327778
  9
$TDUPDATE
 40
2456315.416235995
  9
$TDUUPDATE
 40
2456315.041235995
  9
$TDINDWG
 40
2.0905172685
  9
$TDUSRTIMER
 40
2.0905172685
  9
$USRTIMER
 70
     1
  9
$ANGBASE
 50
0.0
  9
$ANGDIR
 70
     0
  9
$PDMODE
 70
     3
  9
$PDSIZE
 40
2.0
  9
$PLINEWID
 40
0.0
  9
$SPLFRAME
 70
     0
  9
$SPLINETYPE
 70
     6
  9
$SPLINESEGS
 70
     8
  9
$HANDSEED
  5
1AA8F
  9
$SURFTAB1
 70
     6
  9
$SURFTAB2
 70
     6
  9
$SURFTYPE
 70
     6
  9
$SURFU
 70
     6
  9
$SURFV
 70
     6
  9
$UCSBASE
  2

  9
$UCSNAME
  2

  9
$UCSORG
 10
0.0
 20
0.0
 30
0.0
  9
$UCSXDIR
 10
1.0
 20
0.0
 30
0.0
  9
$UCSYDIR
 10
0.0
 20
1.0
 30
0.0
  9
$UCSORTHOREF
  2

  9
$UCSORTHOVIEW
 70
     0
  9
$UCSORGTOP
 10
0.0
 20
0.0
 30
0.0
  9
$UCSORGBOTTOM
 10
0.0
 20
0.0
 30
0.0
  9
$UCSORGLEFT
 10
0.0
 20
0.0
 30
0.0
  9
$UCSORGRIGHT
 10
0.0
 20
0.0
 30
0.0
  9
$UCSORGFRONT
 10
0.0
 20
0.0
 30
0.0
  9
$UCSORGBACK
 10
0.0
 20
0.0
 30
0.0
  9
$PUCSBASE
  2

  9
$PUCSNAME
  2

  9
$PUCSORG
 10
0.0
 20
0.0
 30
0.0
  9
$PUCSXDIR
 10
1.0
 20
0.0
 30
0.0
  9
$PUCSYDIR
 10
0.0
 20
1.0
 30
0.0
  9
$PUCSORTHOREF
  2

  9
$PUCSORTHOVIEW
 70
     0
  9
$PUCSORGTOP
 10
0.0
 20
0.0
 30
0.0
  9
$PUCSORGBOTTOM
 10
0.0
 20
0.0
 30
0.0
  9
$PUCSORGLEFT
 10
0.0
 20
0.0
 30
0.0
  9
$PUCSORGRIGHT
 10
0.0
 20
0.0
 30
0.0
  9
$PUCSORGFRONT
 10
0.0
 20
0.0
 30
0.0
  9
$PUCSORGBACK
 10
0.0
 20
0.0
 30
0.0
  9
$USERI1
 70
     0
  9
$USERI2
 70
     0
  9
$USERI3
 70
     0
  9
$USERI4
 70
     0
  9
$USERI5
 70
     0
  9
$USERR1
 40
0.0
  9
$USERR2
 40
0.0
  9
$USERR3
 40
0.0
  9
$USERR4
 40
0.0
  9
$USERR5
 40
0.0
  9
$WORLDVIEW
 70
     1
  9
$SHADEDGE
 70
     3
  9
$SHADEDIF
 70
    70
  9
$TILEMODE
 70
     1
  9
$MAXACTVP
 70
    16
  9
$PINSBASE
 10
0.0
 20
0.0
 30
0.0
  9
$PLIMCHECK
 70
     0
  9
$PEXTMIN
 10
1.000000000000000E+20
 20
1.000000000000000E+20
 30
1.000000000000000E+20
  9
$PEXTMAX
 10
-1.000000000000000E+20
 20
-1.000000000000000E+20
 30
-1.000000000000000E+20
  9
$PLIMMIN
 10
0.0
 20
0.0
  9
$PLIMMAX
 10
420.0
 20
297.0
  9
$UNITMODE
 70
     0
  9
$VISRETAIN
 70
     0
  9
$PLINEGEN
 70
     0
  9
$PSLTSCALE
 70
     0
  9
$TREEDEPTH
 70
  3020
  9
$CMLSTYLE
  2
STANDARD
  9
$CMLJUST
 70
     0
  9
$CMLSCALE
 40
1.0
  9
$PROXYGRAPHICS
 70
     1
  9
$MEASUREMENT
 70
     1
  9
$CELWEIGHT
370
    -1
  9
$ENDCAPS
280
     0
  9
$JOINSTYLE
280
     0
  9
$LWDISPLAY
290
     0
  9
$INSUNITS
 70
     0
  9
$HYPERLINKBASE
  1

  9
$STYLESHEET
  1

  9
$XEDIT
290
     1
  9
$CEPSNTYPE
380
     0
  9
$PSTYLEMODE
290
     1
  9
$FINGERPRINTGUID
  2
{801EEB3C-4BA9-4B94-A94B-084C0B239E9E}
  9
$VERSIONGUID
  2
{94EE6BC8-FDAA-4C04-9185-89CE8FDAD7FC}
  9
$EXTNAMES
290
     1
  9
$PSVPSCALE
 40
0.0
  9
$OLESTARTUP
290
     0
  0
ENDSEC
  0
SECTION
  2
CLASSES
  0
CLASS
  1
DICTIONARYVAR
  2
AcDbDictionaryVar
  3
ObjectDBX Classes
 90
        0
280
     0
281
     0
  0
CLASS
  1
ACDBDICTIONARYWDFLT
  2
AcDbDictionaryWithDefault
  3
ObjectDBX Classes
 90
        0
280
     0
281
     0
  0
CLASS
  1
ACDBPLACEHOLDER
  2
AcDbPlaceHolder
  3
ObjectDBX Classes
 90
        0
280
     0
281
     0
  0
CLASS
  1
LAYOUT
  2
AcDbLayout
  3
ObjectDBX Classes
 90
        0
280
     0
281
     0
  0
ENDSEC
  0
SECTION
  2
TABLES
  0
TABLE
  2
VPORT
  5
746D
330
0
100
AcDbSymbolTable
 70
     2
  0
VPORT
  5
1AA87
330
746D
100
AcDbSymbolTableRecord
100
AcDbViewportTableRecord
  2
*Active
 70
     0
 10
0.0
 20
0.0
 11
1.0
 21
1.0
 12
10500.0
 22
7424.890856549
 13
0.0
 23
0.0
 14
10.0
 24
10.0
 15
10.0
 25
10.0
 16
0.0
 26
0.0
 36
1.0
 17
0.0
 27
0.0
 37
0.0
 40
14963.57873184018
 41
1.602547770700637
 42
50.0
 43
0.0
 44
0.0
 50
0.0
 51
0.0
 71
     0
 72
     0
 73
     1
 74
     0
 75
     0
 76
     0
 77
     0
 78
     0
281
     0
 65
     1
110
0.0
120
0.0
130
0.0
111
1.0
121
0.0
131
0.0
112
0.0
122
1.0
132
0.0
 79
     0
146
0.0
  0
ENDTAB
  0
TABLE
  2
LTYPE
  5
746A
330
0
100
AcDbSymbolTable
 70
     4
  0
LTYPE
  5
7477
330
746A
100
AcDbSymbolTableRecord
100
AcDbLinetypeTableRecord
  2
BYBLOCK
 70
     0
  3

 72
    65
 73
     0
 40
0.0
  0
LTYPE
  5
7478
330
746A
100
AcDbSymbolTableRecord
100
AcDbLinetypeTableRecord
  2
BYLAYER
 70
     0
  3

 72
    65
 73
     0
 40
0.0
  0
LTYPE
  5
7479
330
746A
100
AcDbSymbolTableRecord
100
AcDbLinetypeTableRecord
  2
CONTINUOUS
 70
     0
  3
Solid line
 72
    65
 73
     0
 40
0.0
  0
LTYPE
  5
7816
330
746A
100
AcDbSymbolTableRecord
100
AcDbLinetypeTableRecord
  2
CENTER
 70
     0
  3
____ _ ____ _ ____ _ ____ _ ____ _ ____ _ ____ 
 72
    65
 73
     4
 40
2.0
 49
1.25
 74
     0
 49
-0.25
 74
     0
 49
0.25
 74
     0
 49
-0.25
 74
     0
  0
LTYPE
  5
781B
330
746A
100
AcDbSymbolTableRecord
100
AcDbLinetypeTableRecord
  2
PHANTOM
 70
     0
  3
______  __  __  ______  __  __  ______  __  __ 
 72
    65
 73
     6
 40
2.5
 49
1.25
 74
     0
 49
-0.25
 74
     0
 49
0.25
 74
     0
 49
-0.25
 74
     0
 49
0.25
 74
     0
 49
-0.25
 74
     0
  0
LTYPE
  5
13F72
330
746A
100
AcDbSymbolTableRecord
100
AcDbLinetypeTableRecord
  2
HIDDEN
 70
     0
  3
__ __ __ __ __ __ __ __ __ __ __ __ __ __ __ __
 72
    65
 73
     2
 40
0.375
 49
0.25
 74
     0
 49
-0.125
 74
     0
  0
ENDTAB
  0
TABLE
  2
LAYER
  5
7467
330
0
100
AcDbSymbolTable
 70
    12
  0
LAYER
  5
7474
330
7467
100
AcDbSymbolTableRecord
100
AcDbLayerTableRecord
  2
0
 70
     0
 62
     7
  6
CONTINUOUS
370
    -3
390
197BC
  0
LAYER
  5
DEB2
330
7467
100
AcDbSymbolTableRecord
100
AcDbLayerTableRecord
  2
センター
 70
     0
 62
     3
  6
CENTER
370
    -3
390
197BC
  0
LAYER
  5
DEB3
330
7467
100
AcDbSymbolTableRecord
100
AcDbLayerTableRecord
  2
寸法
 70
     0
 62
     4
  6
CONTINUOUS
370
    -3
390
197BC
  0
LAYER
  5
DEB4
330
7467
100
AcDbSymbolTableRecord
100
AcDbLayerTableRecord
  2
部品1
 70
     0
 62
     7
  6
CONTINUOUS
370
    -3
390
197BC
  0
LAYER
  5
DEB5
330
7467
100
AcDbSymbolTableRecord
100
AcDbLayerTableRecord
  2
補助
 70
     0
 62
    -1
  6
CONTINUOUS
370
    -3
390
197BC
  0
LAYER
  5
DEB6
330
7467
100
AcDbSymbolTableRecord
100
AcDbLayerTableRecord
  2
文字
 70
     0
 62
     7
  6
CONTINUOUS
370
    -3
390
197BC
  0
LAYER
  5
F255
330
7467
100
AcDbSymbolTableRecord
100
AcDbLayerTableRecord
  2
DEFPOINTS
 70
     0
 62
     7
  6
CONTINUOUS
290
     0
370
    -3
390
197BC
  0
LAYER
  5
10B54
330
7467
100
AcDbSymbolTableRecord
100
AcDbLayerTableRecord
  2
仕様書枠
 70
     0
 62
   230
  6
CONTINUOUS
370
    -3
390
197BC
  0
LAYER
  5
13F73
330
7467
100
AcDbSymbolTableRecord
100
AcDbLayerTableRecord
  2
細線
 70
     0
 62
     5
  6
CONTINUOUS
370
    -3
390
197BC
  0
LAYER
  5
13F74
330
7467
100
AcDbSymbolTableRecord
100
AcDbLayerTableRecord
  2
点線
 70
     0
 62
     2
  6
HIDDEN
370
    -3
390
197BC
  0
LAYER
  5
1643F
330
7467
100
AcDbSymbolTableRecord
100
AcDbLayerTableRecord
  2
想像線
 70
     0
 62
     6
  6
PHANTOM
370
    -3
390
197BC
  0
LAYER
  5
17A5A
330
7467
100
AcDbSymbolTableRecord
100
AcDbLayerTableRecord
  2
Ｇ．Ｌ
 70
     0
 62
    30
  6
CONTINUOUS
370
    -3
390
197BC
  0
ENDTAB
  0
TABLE
  2
STYLE
  5
7468
330
0
100
AcDbSymbolTable
 70
     3
  0
STYLE
  5
7475
330
7468
100
AcDbSymbolTableRecord
100
AcDbTextStyleTableRecord
  2
STANDARD
 70
     0
 40
0.0
 41
1.0
 50
0.0
 71
     0
 42
4.0
  3
txt
  4
C:\AutoCAD LT\bigfont.shx
  0
STYLE
  5
F706
330
7468
100
AcDbSymbolTableRecord
100
AcDbTextStyleTableRecord
  2
STYLE1
 70
     0
 40
0.0
 41
1.0
 50
0.0
 71
     0
 42
150.0
  3
isocp.shx
  4
bigfont.shx
  0
STYLE
  5
103BF
330
7468
100
AcDbSymbolTableRecord
100
AcDbTextStyleTableRecord
  2
STYLE2
 70
     0
 40
0.0
 41
1.0
 50
0.0
 71
     0
 42
100.0
  3
MS PGothic.ttf
  4

1001
ACAD
1000
MS PGothic
1071
    32818
  0
ENDTAB
  0
TABLE
  2
VIEW
  5
746B
330
0
100
AcDbSymbolTable
 70
     0
  0
ENDTAB
  0
TABLE
  2
UCS
  5
746C
330
0
100
AcDbSymbolTable
 70
     0
  0
ENDTAB
  0
TABLE
  2
APPID
  5
746E
330
0
100
AcDbSymbolTable
 70
     6
  0
APPID
  5
7476
330
746E
100
AcDbSymbolTableRecord
100
AcDbRegAppTableRecord
  2
ACAD
 70
     0
  0
APPID
  5
DEA9
330
746E
100
AcDbSymbolTableRecord
100
AcDbRegAppTableRecord
  2
CONTENTBLOCKICON
 70
     0
  0
APPID
  5
DEAA
330
746E
100
AcDbSymbolTableRecord
100
AcDbRegAppTableRecord
  2
CONTENTBLOCKDESCRIPTION
 70
     0
  0
APPID
  5
E71D
330
746E
100
AcDbSymbolTableRecord
100
AcDbRegAppTableRecord
  2
CONTENTTABDATA
 70
     0
  0
APPID
  5
E71E
330
746E
100
AcDbSymbolTableRecord
100
AcDbRegAppTableRecord
  2
CONTENTCURRENTTAB
 70
     0
  0
APPID
  5
F3BA
330
746E
100
AcDbSymbolTableRecord
100
AcDbRegAppTableRecord
  2
DRAWINGVARIABLESXDATA
 70
     0
  0
ENDTAB
  0
TABLE
  2
DIMSTYLE
  5
746F
330
0
100
AcDbSymbolTable
 70
     2
100
AcDbDimStyleTable
 71
     0
  0
DIMSTYLE
105
7484
330
746F
100
AcDbSymbolTableRecord
100
AcDbDimStyleTableRecord
  2
JIS
 70
     0
 41
2.5
 42
1.0
 43
7.0
 44
1.0
 73
     0
 74
     0
 77
     1
 78
     8
140
2.5
141
0.0
143
0.0394
147
0.0
172
     1
174
     1
175
     1
340
7475
  0
DIMSTYLE
105
F71F
102
{ACAD_REACTORS
330
18448
330
18444
330
18465
330
1846F
330
1A00C
330
1A8C0
330
1A8C1
330
1A8C2
330
1A8C5
330
1A8C6
330
1A8D1
330
1A8D2
330
1A8E4
330
1A8EC
330
1A8ED
330
1A8F5
102
}
330
746F
100
AcDbSymbolTableRecord
100
AcDbDimStyleTableRecord
  2
INABA_S50G
 70
     0
 41
125.0
 42
25.0
 43
7.0
 44
75.0
 73
     0
 74
     0
 77
     3
 78
     8
140
150.0
141
0.0
143
0.0394
147
25.0
172
     1
173
     1
174
     1
175
     1
178
     7
271
     1
340
F706
341
F770
343
F770
344
F770
  0
ENDTAB
  0
TABLE
  2
BLOCK_RECORD
  5
7466
330
0
100
AcDbSymbolTable
 70
    42
  0
BLOCK_RECORD
  5
747D
330
7466
100
AcDbSymbolTableRecord
100
AcDbBlockTableRecord
  2
*MODEL_SPACE
340
197C1
  0
BLOCK_RECORD
  5
747A
330
7466
100
AcDbSymbolTableRecord
100
AcDbBlockTableRecord
  2
*PAPER_SPACE
340
197C2
  0
BLOCK_RECORD
  5
F770
330
7466
100
AcDbSymbolTableRecord
100
AcDbBlockTableRecord
  2
_DOTSMALL
340
0
102
{BLKREFS
331
1A736
331
1A737
331
1A740
331
1A741
331
1A749
331
1A74A
331
1A752
331
1A753
331
1A75C
331
1A75D
331
1A765
331
1A766
331
1A76D
331
1A76E
331
1A777
331
1A778
331
1A780
331
1A781
331
1A789
331
1A78A
331
1A792
331
1A793
331
1A79B
331
1A79C
331
1A7A5
331
1A7A6
331
1A7AF
331
1A7B0
331
1A7B7
331
1A7B8
331
1A7C1
331
1A7C2
331
1A7EF
331
1A7F0
331
1A809
331
1A80A
331
1A7FC
331
1A7FD
331
1A821
331
1A822
331
1A846
331
1A847
331
1A82D
331
1A82E
331
1A83A
331
1A83B
331
1A7D7
331
1A7D8
331
1A7E2
331
1A7E3
331
1A85D
331
1A85E
331
1A815
331
1A816
331
1A852
331
1A853
331
1AA13
331
1AA14
331
1AA1B
331
1AA1C
331
1AA23
331
1AA24
331
1AA2C
331
1AA2D
331
1AA36
331
1AA37
331
1AA3F
331
1AA40
331
1AA48
331
1AA49
331
1AA51
331
1AA52
331
1AA5A
331
1AA5B
331
1AA64
331
1AA65
331
1AA6E
331
1AA6F
331
1AA78
331
1AA79
102
}
  0
BLOCK_RECORD
  5
18493
330
7466
100
AcDbSymbolTableRecord
100
AcDbBlockTableRecord
  2
*D1
340
0
  0
BLOCK_RECORD
  5
1849F
330
7466
100
AcDbSymbolTableRecord
100
AcDbBlockTableRecord
  2
*D2
340
0
  0
BLOCK_RECORD
  5
184AC
330
7466
100
AcDbSymbolTableRecord
100
AcDbBlockTableRecord
  2
*D3
340
0
  0
BLOCK_RECORD
  5
184B8
330
7466
100
AcDbSymbolTableRecord
100
AcDbBlockTableRecord
  2
*D4
340
0
  0
BLOCK_RECORD
  5
1A07D
330
7466
100
AcDbSymbolTableRecord
100
AcDbBlockTableRecord
  2
*D9
340
0
  0
BLOCK_RECORD
  5
1A7D2
330
7466
100
AcDbSymbolTableRecord
100
AcDbBlockTableRecord
  2
*D17
340
0
  0
BLOCK_RECORD
  5
1A7DE
330
7466
100
AcDbSymbolTableRecord
100
AcDbBlockTableRecord
  2
*D18
340
0
  0
BLOCK_RECORD
  5
1A7E9
330
7466
100
AcDbSymbolTableRecord
100
AcDbBlockTableRecord
  2
*D19
340
0
  0
BLOCK_RECORD
  5
1A7F6
330
7466
100
AcDbSymbolTableRecord
100
AcDbBlockTableRecord
  2
*D20
340
0
  0
BLOCK_RECORD
  5
1A803
330
7466
100
AcDbSymbolTableRecord
100
AcDbBlockTableRecord
  2
*D21
340
0
  0
BLOCK_RECORD
  5
1A810
330
7466
100
AcDbSymbolTableRecord
100
AcDbBlockTableRecord
  2
*D22
340
0
  0
BLOCK_RECORD
  5
1A81C
330
7466
100
AcDbSymbolTableRecord
100
AcDbBlockTableRecord
  2
*D23
340
0
  0
BLOCK_RECORD
  5
1A828
330
7466
100
AcDbSymbolTableRecord
100
AcDbBlockTableRecord
  2
*D24
340
0
  0
BLOCK_RECORD
  5
1A834
330
7466
100
AcDbSymbolTableRecord
100
AcDbBlockTableRecord
  2
*D25
340
0
  0
BLOCK_RECORD
  5
1A841
330
7466
100
AcDbSymbolTableRecord
100
AcDbBlockTableRecord
  2
*D26
340
0
  0
BLOCK_RECORD
  5
1A84D
330
7466
100
AcDbSymbolTableRecord
100
AcDbBlockTableRecord
  2
*D27
340
0
  0
BLOCK_RECORD
  5
1A859
330
7466
100
AcDbSymbolTableRecord
100
AcDbBlockTableRecord
  2
*D28
340
0
  0
BLOCK_RECORD
  5
1A864
330
7466
100
AcDbSymbolTableRecord
100
AcDbBlockTableRecord
  2
A$C39E84A00
340
0
  0
BLOCK_RECORD
  5
1A910
330
7466
100
AcDbSymbolTableRecord
100
AcDbBlockTableRecord
  2
*D30
340
0
  0
BLOCK_RECORD
  5
1A91C
330
7466
100
AcDbSymbolTableRecord
100
AcDbBlockTableRecord
  2
*D31
340
0
  0
BLOCK_RECORD
  5
1A927
330
7466
100
AcDbSymbolTableRecord
100
AcDbBlockTableRecord
  2
*D32
340
0
  0
BLOCK_RECORD
  5
1A93E
330
7466
100
AcDbSymbolTableRecord
100
AcDbBlockTableRecord
  2
*D34
340
0
  0
BLOCK_RECORD
  5
1A94A
330
7466
100
AcDbSymbolTableRecord
100
AcDbBlockTableRecord
  2
*D35
340
0
  0
BLOCK_RECORD
  5
1A957
330
7466
100
AcDbSymbolTableRecord
100
AcDbBlockTableRecord
  2
*D36
340
0
  0
BLOCK_RECORD
  5
1A964
330
7466
100
AcDbSymbolTableRecord
100
AcDbBlockTableRecord
  2
*D37
340
0
  0
BLOCK_RECORD
  5
1A971
330
7466
100
AcDbSymbolTableRecord
100
AcDbBlockTableRecord
  2
*D38
340
0
  0
BLOCK_RECORD
  5
1A97D
330
7466
100
AcDbSymbolTableRecord
100
AcDbBlockTableRecord
  2
*D39
340
0
  0
BLOCK_RECORD
  5
1A989
330
7466
100
AcDbSymbolTableRecord
100
AcDbBlockTableRecord
  2
*D40
340
0
  0
BLOCK_RECORD
  5
1A995
330
7466
100
AcDbSymbolTableRecord
100
AcDbBlockTableRecord
  2
*D41
340
0
  0
ENDTAB
  0
ENDSEC
  0
SECTION
  2
BLOCKS
  0
BLOCK
  5
7489
330
747D
100
AcDbEntity
  8
0
100
AcDbBlockBegin
  2
*MODEL_SPACE
 70
     0
 10
0.0
 20
0.0
 30
0.0
  3
*MODEL_SPACE
  1

  0
ENDBLK
  5
748A
330
747D
100
AcDbEntity
  8
0
100
AcDbBlockEnd
  0
BLOCK
  5
7487
330
747A
100
AcDbEntity
 67
     1
  8
0
100
AcDbBlockBegin
  2
*PAPER_SPACE
 70
     0
 10
0.0
 20
0.0
 30
0.0
  3
*PAPER_SPACE
  1

  0
ENDBLK
  5
7488
330
747A
100
AcDbEntity
 67
     1
  8
0
100
AcDbBlockEnd
  0
BLOCK
  5
F771
330
F770
100
AcDbEntity
  8
0
 48
50.0
100
AcDbBlockBegin
  2
_DOTSMALL
 70
     0
 10
0.0
 20
0.0
 30
0.0
  3
_DOTSMALL
  1

  0
LWPOLYLINE
  5
F772
330
F770
100
AcDbEntity
  8
0
  6
ByBlock
 62
     0
 48
50.0
100
AcDbPolyline
 90
        2
 70
     1
 43
0.5
 10
-0.0625
 20
0.0
 42
1.0
 10
0.0625
 20
0.0
 42
1.0
  0
ENDBLK
  5
F776
330
F770
100
AcDbEntity
  8
0
 48
50.0
100
AcDbBlockEnd
  0
BLOCK
  5
18494
330
18493
100
AcDbEntity
  8
0
 48
50.0
100
AcDbBlockBegin
  2
*D1
 70
     1
 10
0.0
 20
0.0
 30
0.0
  3
*D1
  1

  0
LINE
  5
1A733
330
18493
100
AcDbEntity
  8
寸法
 62
     0
 48
50.0
370
    -2
100
AcDbLine
 10
11266.94243205222
 20
1749.373661269834
 30
0.0
 11
11151.98406953108
 21
1749.373661269834
 31
0.0
  0
LINE
  5
1A734
330
18493
100
AcDbEntity
  8
寸法
 62
     0
 48
50.0
370
    -2
100
AcDbLine
 10
11677.1147711078
 20
1349.373661269834
 30
0.0
 11
11151.98406953108
 21
1349.373661269834
 31
0.0
  0
LINE
  5
1A735
330
18493
100
AcDbEntity
  8
寸法
 62
     0
 48
50.0
370
    -2
100
AcDbLine
 10
11226.98406953108
 20
1749.373661269834
 30
0.0
 11
11226.98406953108
 21
1349.373661269834
 31
0.0
  0
INSERT
  5
1A736
330
18493
100
AcDbEntity
  8
寸法
 62
     0
 48
50.0
370
    -2
100
AcDbBlockReference
  2
_DOTSMALL
 10
11226.98406953108
 20
1749.373661269834
 30
0.0
 41
125.0
 42
125.0
 43
125.0
 50
90.0
  0
INSERT
  5
1A737
330
18493
100
AcDbEntity
  8
寸法
 62
     0
 48
50.0
370
    -2
100
AcDbBlockReference
  2
_DOTSMALL
 10
11226.98406953108
 20
1349.373661269834
 30
0.0
 41
125.0
 42
125.0
 43
125.0
 50
270.0
  0
MTEXT
  5
1A738
330
18493
100
AcDbEntity
  8
寸法
 62
     7
 48
50.0
100
AcDbMText
 10
11126.96930575155
 20
1549.373661269835
 30
0.0
 40
150.0
 41
0.0
 71
     5
 72
     1
  1
\A1;200
  7
STYLE1
 11
0.0000000000000001
 21
1.0
 31
0.0
 73
     1
 44
1.0
1001
ACAD
1000
MTEXTBEGIN
1070
    73
1070
     1
1070
    44
1040
1.0
1070
    74
1070
     0
1000
MTEXTEND
  0
POINT
  5
1A739
330
18493
100
AcDbEntity
  8
DEFPOINTS
 62
     0
 48
50.0
100
AcDbPoint
 10
11291.94243205221
 20
1749.373661269834
 30
0.0
  0
POINT
  5
1A73A
330
18493
100
AcDbEntity
  8
DEFPOINTS
 62
     0
 48
50.0
100
AcDbPoint
 10
11702.1147711078
 20
1349.373661269834
 30
0.0
  0
POINT
  5
1A73B
330
18493
100
AcDbEntity
  8
DEFPOINTS
 62
     0
 48
50.0
100
AcDbPoint
 10
11226.98406953108
 20
1349.373661269834
 30
0.0
  0
ENDBLK
  5
1849E
330
18493
100
AcDbEntity
  8
0
 48
50.0
100
AcDbBlockEnd
  0
BLOCK
  5
184A0
330
1849F
100
AcDbEntity
  8
0
 48
50.0
100
AcDbBlockBegin
  2
*D2
 70
     1
 10
0.0
 20
0.0
 30
0.0
  3
*D2
  1

  0
LINE
  5
1A73C
330
1849F
100
AcDbEntity
  8
寸法
 62
     0
 48
50.0
370
    -2
100
AcDbLine
 10
11484.39475613862
 20
1949.373661269835
 30
0.0
 11
11152.63278895946
 21
1949.373661269835
 31
0.0
  0
LINE
  5
1A73D
330
1849F
100
AcDbEntity
  8
寸法
 62
     0
 48
50.0
370
    -2
100
AcDbLine
 10
11266.94243205222
 20
1749.373661269834
 30
0.0
 11
11152.63278895946
 21
1749.373661269834
 31
0.0
  0
LINE
  5
1A73E
330
1849F
100
AcDbEntity
  8
寸法
 62
     0
 48
50.0
370
    -2
100
AcDbLine
 10
11227.63278895946
 20
1749.373661269834
 30
0.0
 11
11227.63278895946
 21
1949.373661269835
 31
0.0
  0
LINE
  5
1A73F
330
1849F
100
AcDbEntity
  8
寸法
 62
     0
 48
50.0
370
    -2
100
AcDbLine
 10
11227.63278895946
 20
1949.373661269835
 30
0.0
 11
11227.63278895946
 21
2381.396299065109
 31
0.0
  0
INSERT
  5
1A740
330
1849F
100
AcDbEntity
  8
寸法
 62
     0
 48
50.0
370
    -2
100
AcDbBlockReference
  2
_DOTSMALL
 10
11227.63278895946
 20
1749.373661269834
 30
0.0
 41
125.0
 42
125.0
 43
125.0
 50
270.0
  0
INSERT
  5
1A741
330
1849F
100
AcDbEntity
  8
寸法
 62
     0
 48
50.0
370
    -2
100
AcDbBlockReference
  2
_DOTSMALL
 10
11227.63278895946
 20
1949.373661269835
 30
0.0
 41
125.0
 42
125.0
 43
125.0
 50
90.0
  0
MTEXT
  5
1A742
330
1849F
100
AcDbEntity
  8
寸法
 62
     7
 48
50.0
100
AcDbMText
 10
11127.63278895946
 20
2236.337243947001
 30
0.0
 40
150.0
 41
0.0
 71
     5
 72
     1
  1
\A1;100
  7
STYLE1
 11
0.0000000000000001
 21
1.0
 31
0.0
 73
     1
 44
1.0
1001
ACAD
1000
MTEXTBEGIN
1070
    73
1070
     1
1070
    44
1040
1.0
1070
    74
1070
     0
1000
MTEXTEND
  0
POINT
  5
1A743
330
1849F
100
AcDbEntity
  8
DEFPOINTS
 62
     0
 48
50.0
100
AcDbPoint
 10
11509.39475613862
 20
1949.373661269835
 30
0.0
  0
POINT
  5
1A744
330
1849F
100
AcDbEntity
  8
DEFPOINTS
 62
     0
 48
50.0
100
AcDbPoint
 10
11291.94243205221
 20
1749.373661269834
 30
0.0
  0
POINT
  5
1A745
330
1849F
100
AcDbEntity
  8
DEFPOINTS
 62
     0
 48
50.0
100
AcDbPoint
 10
11227.63278895946
 20
1749.373661269834
 30
0.0
  0
ENDBLK
  5
184AB
330
1849F
100
AcDbEntity
  8
0
 48
50.0
100
AcDbBlockEnd
  0
BLOCK
  5
184AD
330
184AC
100
AcDbEntity
  8
0
 48
50.0
100
AcDbBlockBegin
  2
*D3
 70
     1
 10
0.0
 20
0.0
 30
0.0
  3
*D3
  1

  0
LINE
  5
1A746
330
184AC
100
AcDbEntity
  8
寸法
 62
     0
 48
50.0
370
    -2
100
AcDbLine
 10
11865.1147711078
 20
2029.373661269834
 30
0.0
 11
11434.39475613861
 21
2029.373661269834
 31
0.0
  0
LINE
  5
1A747
330
184AC
100
AcDbEntity
  8
寸法
 62
     0
 48
50.0
370
    -2
100
AcDbLine
 10
11821.1147711078
 20
1459.373661269834
 30
0.0
 11
11434.39475613861
 21
1459.373661269834
 31
0.0
  0
LINE
  5
1A748
330
184AC
100
AcDbEntity
  8
寸法
 62
     0
 48
50.0
370
    -2
100
AcDbLine
 10
11509.39475613862
 20
2029.373661269834
 30
0.0
 11
11509.39475613862
 21
1459.373661269834
 31
0.0
  0
INSERT
  5
1A749
330
184AC
100
AcDbEntity
  8
寸法
 62
     0
 48
50.0
370
    -2
100
AcDbBlockReference
  2
_DOTSMALL
 10
11509.39475613862
 20
2029.373661269834
 30
0.0
 41
125.0
 42
125.0
 43
125.0
 50
90.0
  0
INSERT
  5
1A74A
330
184AC
100
AcDbEntity
  8
寸法
 62
     0
 48
50.0
370
    -2
100
AcDbBlockReference
  2
_DOTSMALL
 10
11509.39475613862
 20
1459.373661269834
 30
0.0
 41
125.0
 42
125.0
 43
125.0
 50
270.0
  0
MTEXT
  5
1A74B
330
184AC
100
AcDbEntity
  8
寸法
 62
     7
 48
50.0
100
AcDbMText
 10
11409.37999235909
 20
1744.373661269836
 30
0.0
 40
150.0
 41
0.0
 71
     5
 72
     1
  1
\A1;285
  7
STYLE1
 11
0.0000000000000001
 21
1.0
 31
0.0
 73
     1
 44
1.0
1001
ACAD
1000
MTEXTBEGIN
1070
    73
1070
     1
1070
    44
1040
1.0
1070
    74
1070
     0
1000
MTEXTEND
  0
POINT
  5
1A74C
330
184AC
100
AcDbEntity
  8
DEFPOINTS
 62
     0
 48
50.0
100
AcDbPoint
 10
11890.1147711078
 20
2029.373661269834
 30
0.0
  0
POINT
  5
1A74D
330
184AC
100
AcDbEntity
  8
DEFPOINTS
 62
     0
 48
50.0
100
AcDbPoint
 10
11846.1147711078
 20
1459.373661269834
 30
0.0
  0
POINT
  5
1A74E
330
184AC
100
AcDbEntity
  8
DEFPOINTS
 62
     0
 48
50.0
100
AcDbPoint
 10
11509.39475613862
 20
1459.373661269834
 30
0.0
  0
ENDBLK
  5
184B7
330
184AC
100
AcDbEntity
  8
0
 48
50.0
100
AcDbBlockEnd
  0
BLOCK
  5
184B9
330
184B8
100
AcDbEntity
  8
0
 48
50.0
100
AcDbBlockBegin
  2
*D4
 70
     1
 10
0.0
 20
0.0
 30
0.0
  3
*D4
  1

  0
LINE
  5
1A74F
330
184B8
100
AcDbEntity
  8
寸法
 62
     0
 48
50.0
370
    -2
100
AcDbLine
 10
12102.1147711078
 20
1324.373661269834
 30
0.0
 11
12102.1147711078
 21
947.8906957845302
 31
0.0
  0
LINE
  5
1A750
330
184B8
100
AcDbEntity
  8
寸法
 62
     0
 48
50.0
370
    -2
100
AcDbLine
 10
11702.1147711078
 20
1324.373661269834
 30
0.0
 11
11702.1147711078
 21
947.8906957845302
 31
0.0
  0
LINE
  5
1A751
330
184B8
100
AcDbEntity
  8
寸法
 62
     0
 48
50.0
370
    -2
100
AcDbLine
 10
12102.1147711078
 20
1022.89069578453
 30
0.0
 11
11702.1147711078
 21
1022.89069578453
 31
0.0
  0
INSERT
  5
1A752
330
184B8
100
AcDbEntity
  8
寸法
 62
     0
 48
50.0
370
    -2
100
AcDbBlockReference
  2
_DOTSMALL
 10
12102.1147711078
 20
1022.89069578453
 30
0.0
 41
125.0
 42
125.0
 43
125.0
  0
INSERT
  5
1A753
330
184B8
100
AcDbEntity
  8
寸法
 62
     0
 48
50.0
370
    -2
100
AcDbBlockReference
  2
_DOTSMALL
 10
11702.1147711078
 20
1022.89069578453
 30
0.0
 41
125.0
 42
125.0
 43
125.0
 50
180.0
  0
MTEXT
  5
1A754
330
184B8
100
AcDbEntity
  8
寸法
 62
     7
 48
50.0
100
AcDbMText
 10
11902.1147711078
 20
1122.905459564058
 30
0.0
 40
150.0
 41
0.0
 71
     5
 72
     1
  1
\A1;200
  7
STYLE1
 73
     1
 44
1.0
1001
ACAD
1000
MTEXTBEGIN
1070
    73
1070
     1
1070
    44
1040
1.0
1070
    74
1070
     0
1000
MTEXTEND
  0
POINT
  5
1A755
330
184B8
100
AcDbEntity
  8
DEFPOINTS
 62
     0
 48
50.0
100
AcDbPoint
 10
12102.1147711078
 20
1349.373661269834
 30
0.0
  0
POINT
  5
1A756
330
184B8
100
AcDbEntity
  8
DEFPOINTS
 62
     0
 48
50.0
100
AcDbPoint
 10
11702.1147711078
 20
1349.373661269834
 30
0.0
  0
POINT
  5
1A757
330
184B8
100
AcDbEntity
  8
DEFPOINTS
 62
     0
 48
50.0
100
AcDbPoint
 10
11702.1147711078
 20
1022.89069578453
 30
0.0
  0
ENDBLK
  5
184C3
330
184B8
100
AcDbEntity
  8
0
 48
50.0
100
AcDbBlockEnd
  0
BLOCK
  5
1A087
330
1A07D
100
AcDbEntity
  8
0
 48
50.0
100
AcDbBlockBegin
  2
*D9
 70
     1
 10
0.0
 20
0.0
 30
0.0
  3
*D9
  1

  0
LINE
  5
1A759
330
1A07D
100
AcDbEntity
  8
寸法
 62
     0
 48
50.0
370
    -2
100
AcDbLine
 10
9338.500000000001
 20
6745.974495452941
 30
0.0
 11
9338.500000000001
 21
5905.974495452941
 31
0.0
  0
LINE
  5
1A75A
330
1A07D
100
AcDbEntity
  8
寸法
 62
     0
 48
50.0
370
    -2
100
AcDbLine
 10
11220.5
 20
6745.974495452941
 30
0.0
 11
11220.5
 21
5905.974495452941
 31
0.0
  0
LINE
  5
1A75B
330
1A07D
100
AcDbEntity
  8
寸法
 62
     0
 48
50.0
370
    -2
100
AcDbLine
 10
9338.500000000001
 20
5980.974495452941
 30
0.0
 11
11220.5
 21
5980.974495452941
 31
0.0
  0
INSERT
  5
1A75C
330
1A07D
100
AcDbEntity
  8
寸法
 62
     0
 48
50.0
370
    -2
100
AcDbBlockReference
  2
_DOTSMALL
 10
9338.500000000001
 20
5980.974495452941
 30
0.0
 41
125.0
 42
125.0
 43
125.0
 50
180.0
  0
INSERT
  5
1A75D
330
1A07D
100
AcDbEntity
  8
寸法
 62
     0
 48
50.0
370
    -2
100
AcDbBlockReference
  2
_DOTSMALL
 10
11220.5
 20
5980.974495452941
 30
0.0
 41
125.0
 42
125.0
 43
125.0
  0
MTEXT
  5
1A75E
330
1A07D
100
AcDbEntity
  8
寸法
 62
     7
 48
50.0
100
AcDbMText
 10
10279.5
 20
6080.989259232469
 30
0.0
 40
150.0
 41
0.0
 71
     5
 72
     1
  1
\A1;1882
  7
STYLE1
 73
     1
 44
1.0
1001
ACAD
1000
MTEXTBEGIN
1070
    73
1070
     1
1070
    44
1040
1.0
1070
    74
1070
     0
1000
MTEXTEND
  0
POINT
  5
1A75F
330
1A07D
100
AcDbEntity
  8
DEFPOINTS
 62
     0
 48
50.0
100
AcDbPoint
 10
9338.500000000001
 20
6770.974495452941
 30
0.0
  0
POINT
  5
1A760
330
1A07D
100
AcDbEntity
  8
DEFPOINTS
 62
     0
 48
50.0
100
AcDbPoint
 10
11220.5
 20
6770.974495452941
 30
0.0
  0
POINT
  5
1A761
330
1A07D
100
AcDbEntity
  8
DEFPOINTS
 62
     0
 48
50.0
100
AcDbPoint
 10
11220.5
 20
5980.974495452941
 30
0.0
  0
ENDBLK
  5
1A088
330
1A07D
100
AcDbEntity
  8
0
 48
50.0
100
AcDbBlockEnd
  0
BLOCK
  5
1A7D3
330
1A7D2
100
AcDbEntity
  8
0
 48
50.0
100
AcDbBlockBegin
  2
*D17
 70
     1
 10
0.0
 20
0.0
 30
0.0
  3
*D17
  1

  0
LINE
  5
1A7D4
330
1A7D2
100
AcDbEntity
  8
0
  6
ByBlock
 62
     0
 48
50.0
100
AcDbLine
 10
8493.555166257166
 20
4861.41567573512
 30
0.0
 11
9253.555166257168
 21
4861.41567573512
 31
0.0
  0
LINE
  5
1A7D5
330
1A7D2
100
AcDbEntity
  8
0
  6
ByBlock
 62
     0
 48
50.0
100
AcDbLine
 10
8493.555166257166
 20
6743.415675735119
 30
0.0
 11
9253.555166257168
 21
6743.415675735119
 31
0.0
  0
LINE
  5
1A7D6
330
1A7D2
100
AcDbEntity
  8
0
  6
ByBlock
 62
     0
 48
50.0
100
AcDbLine
 10
9178.555166257167
 20
4861.41567573512
 30
0.0
 11
9178.555166257167
 21
6743.415675735119
 31
0.0
  0
INSERT
  5
1A7D7
330
1A7D2
100
AcDbEntity
  8
0
  6
ByBlock
 62
     0
 48
50.0
100
AcDbBlockReference
  2
_DOTSMALL
 10
9178.555166257167
 20
4861.41567573512
 30
0.0
 41
125.0
 42
125.0
 43
125.0
 50
270.0
  0
INSERT
  5
1A7D8
330
1A7D2
100
AcDbEntity
  8
0
  6
ByBlock
 62
     0
 48
50.0
100
AcDbBlockReference
  2
_DOTSMALL
 10
9178.555166257167
 20
6743.415675735119
 30
0.0
 41
125.0
 42
125.0
 43
125.0
 50
90.0
  0
MTEXT
  5
1A7D9
330
1A7D2
100
AcDbEntity
  8
0
  6
ByBlock
 62
     7
 48
50.0
100
AcDbMText
 10
9078.54040247764
 20
5802.415675735119
 30
0.0
 40
150.0
 41
0.0
 71
     5
 72
     1
  1
\A1;1882
  7
STYLE1
 11
0.0000000000000001
 21
1.0
 31
0.0
 73
     1
 44
1.0
1001
ACAD
1000
MTEXTBEGIN
1070
    73
1070
     1
1070
    44
1040
1.0
1070
    74
1070
     0
1000
MTEXTEND
  0
POINT
  5
1A7DA
330
1A7D2
100
AcDbEntity
  8
DEFPOINTS
  6
ByBlock
 62
     0
 48
50.0
100
AcDbPoint
 10
8468.555166257166
 20
4861.41567573512
 30
0.0
  0
POINT
  5
1A7DB
330
1A7D2
100
AcDbEntity
  8
DEFPOINTS
  6
ByBlock
 62
     0
 48
50.0
100
AcDbPoint
 10
8468.555166257166
 20
6743.415675735119
 30
0.0
  0
POINT
  5
1A7DC
330
1A7D2
100
AcDbEntity
  8
DEFPOINTS
  6
ByBlock
 62
     0
 48
50.0
100
AcDbPoint
 10
9178.555166257167
 20
6743.415675735119
 30
0.0
  0
ENDBLK
  5
1A7DD
330
1A7D2
100
AcDbEntity
  8
0
 48
50.0
100
AcDbBlockEnd
  0
BLOCK
  5
1A7DF
330
1A7DE
100
AcDbEntity
  8
0
 48
50.0
100
AcDbBlockBegin
  2
*D18
 70
     1
 10
0.0
 20
0.0
 30
0.0
  3
*D18
  1

  0
LINE
  5
1A7E0
330
1A7DE
100
AcDbEntity
  8
0
  6
ByBlock
 62
     0
 48
50.0
100
AcDbLine
 10
6271.555166257167
 20
4861.41567573512
 30
0.0
 11
5611.555166257167
 21
4861.41567573512
 31
0.0
  0
LINE
  5
1A7E1
330
1A7DE
100
AcDbEntity
  8
0
  6
ByBlock
 62
     0
 48
50.0
100
AcDbLine
 10
5686.555166257167
 20
5802.415675735119
 30
0.0
 11
5686.555166257167
 21
4861.41567573512
 31
0.0
  0
INSERT
  5
1A7E2
330
1A7DE
100
AcDbEntity
  8
0
  6
ByBlock
 62
     0
 48
50.0
100
AcDbBlockReference
  2
_DOTSMALL
 10
5686.555166257167
 20
5802.415675735119
 30
0.0
 41
125.0
 42
125.0
 43
125.0
 50
90.0
  0
INSERT
  5
1A7E3
330
1A7DE
100
AcDbEntity
  8
0
  6
ByBlock
 62
     0
 48
50.0
100
AcDbBlockReference
  2
_DOTSMALL
 10
5686.555166257167
 20
4861.41567573512
 30
0.0
 41
125.0
 42
125.0
 43
125.0
 50
270.0
  0
MTEXT
  5
1A7E4
330
1A7DE
100
AcDbEntity
  8
0
  6
ByBlock
 62
     7
 48
50.0
100
AcDbMText
 10
5586.555166257166
 20
5331.915675735119
 30
0.0
 40
150.0
 41
0.0
 71
     5
 72
     1
  1
\A1;941
  7
STYLE1
 11
0.0000000000000001
 21
1.0
 31
0.0
 73
     1
 44
1.0
1001
ACAD
1000
MTEXTBEGIN
1070
    73
1070
     1
1070
    44
1040
1.0
1070
    74
1070
     0
1000
MTEXTEND
  0
POINT
  5
1A7E5
330
1A7DE
100
AcDbEntity
  8
DEFPOINTS
  6
ByBlock
 62
     0
 48
50.0
100
AcDbPoint
 10
7237.555166257166
 20
5802.415675735119
 30
0.0
  0
POINT
  5
1A7E6
330
1A7DE
100
AcDbEntity
  8
DEFPOINTS
  6
ByBlock
 62
     0
 48
50.0
100
AcDbPoint
 10
6296.555166257167
 20
4861.41567573512
 30
0.0
  0
POINT
  5
1A7E7
330
1A7DE
100
AcDbEntity
  8
DEFPOINTS
  6
ByBlock
 62
     0
 48
50.0
100
AcDbPoint
 10
5686.555166257167
 20
4861.41567573512
 30
0.0
  0
ENDBLK
  5
1A7E8
330
1A7DE
100
AcDbEntity
  8
0
 48
50.0
100
AcDbBlockEnd
  0
BLOCK
  5
1A7EA
330
1A7E9
100
AcDbEntity
  8
0
 48
50.0
100
AcDbBlockBegin
  2
*D19
 70
     1
 10
0.0
 20
0.0
 30
0.0
  3
*D19
  1

  0
LINE
  5
1A7EB
330
1A7E9
100
AcDbEntity
  8
0
  6
ByBlock
 62
     0
 48
50.0
100
AcDbLine
 10
6386.555166257167
 20
11467.33748603213
 30
0.0
 11
6386.555166257167
 21
10617.33748603213
 31
0.0
  0
LINE
  5
1A7EC
330
1A7E9
100
AcDbEntity
  8
0
  6
ByBlock
 62
     0
 48
50.0
100
AcDbLine
 10
6441.555166257167
 20
11457.33748603213
 30
0.0
 11
6441.555166257167
 21
10617.33748603213
 31
0.0
  0
LINE
  5
1A7ED
330
1A7E9
100
AcDbEntity
  8
0
  6
ByBlock
 62
     0
 48
50.0
100
AcDbLine
 10
6441.555166257167
 20
10692.33748603213
 30
0.0
 11
6386.555166257167
 21
10692.33748603213
 31
0.0
  0
LINE
  5
1A7EE
330
1A7E9
100
AcDbEntity
  8
0
  6
ByBlock
 62
     0
 48
50.0
100
AcDbLine
 10
6386.555166257167
 20
10692.33748603213
 30
0.0
 11
5926.673276493388
 21
10692.33748603213
 31
0.0
  0
INSERT
  5
1A7EF
330
1A7E9
100
AcDbEntity
  8
0
  6
ByBlock
 62
     0
 48
50.0
100
AcDbBlockReference
  2
_DOTSMALL
 10
6441.555166257167
 20
10692.33748603213
 30
0.0
 41
125.0
 42
125.0
 43
125.0
  0
INSERT
  5
1A7F0
330
1A7E9
100
AcDbEntity
  8
0
  6
ByBlock
 62
     0
 48
50.0
100
AcDbBlockReference
  2
_DOTSMALL
 10
6386.555166257167
 20
10692.33748603213
 30
0.0
 41
125.0
 42
125.0
 43
125.0
 50
180.0
  0
MTEXT
  5
1A7F1
330
1A7E9
100
AcDbEntity
  8
0
  6
ByBlock
 62
     7
 48
50.0
100
AcDbMText
 10
6094.114221375278
 20
10799.83748603213
 30
0.0
 40
150.0
 41
0.0
 71
     5
 72
     1
  1
\A1;(55)
  7
STYLE1
 73
     1
 44
1.0
1001
ACAD
1000
MTEXTBEGIN
1070
    73
1070
     1
1070
    44
1040
1.0
1070
    74
1070
     0
1000
MTEXTEND
  0
POINT
  5
1A7F2
330
1A7E9
100
AcDbEntity
  8
DEFPOINTS
  6
ByBlock
 62
     0
 48
50.0
100
AcDbPoint
 10
6386.555166257167
 20
11492.33748603213
 30
0.0
  0
POINT
  5
1A7F3
330
1A7E9
100
AcDbEntity
  8
DEFPOINTS
  6
ByBlock
 62
     0
 48
50.0
100
AcDbPoint
 10
6441.555166257167
 20
11482.33748603213
 30
0.0
  0
POINT
  5
1A7F4
330
1A7E9
100
AcDbEntity
  8
DEFPOINTS
  6
ByBlock
 62
     0
 48
50.0
100
AcDbPoint
 10
6441.555166257167
 20
10692.33748603213
 30
0.0
  0
ENDBLK
  5
1A7F5
330
1A7E9
100
AcDbEntity
  8
0
 48
50.0
100
AcDbBlockEnd
  0
BLOCK
  5
1A7F7
330
1A7F6
100
AcDbEntity
  8
0
 48
50.0
100
AcDbBlockBegin
  2
*D20
 70
     1
 10
0.0
 20
0.0
 30
0.0
  3
*D20
  1

  0
LINE
  5
1A7F8
330
1A7F6
100
AcDbEntity
  8
0
  6
ByBlock
 62
     0
 48
50.0
100
AcDbLine
 10
8323.555166257166
 20
11457.33748603213
 30
0.0
 11
8323.555166257166
 21
10617.33748603213
 31
0.0
  0
LINE
  5
1A7F9
330
1A7F6
100
AcDbEntity
  8
0
  6
ByBlock
 62
     0
 48
50.0
100
AcDbLine
 10
8378.555166257168
 20
11467.33748603213
 30
0.0
 11
8378.555166257168
 21
10617.33748603213
 31
0.0
  0
LINE
  5
1A7FA
330
1A7F6
100
AcDbEntity
  8
0
  6
ByBlock
 62
     0
 48
50.0
100
AcDbLine
 10
8323.555166257166
 20
10692.33748603213
 30
0.0
 11
8378.555166257168
 21
10692.33748603213
 31
0.0
  0
LINE
  5
1A7FB
330
1A7F6
100
AcDbEntity
  8
0
  6
ByBlock
 62
     0
 48
50.0
100
AcDbLine
 10
8378.555166257168
 20
10692.33748603213
 30
0.0
 11
8838.437056020946
 21
10692.33748603213
 31
0.0
  0
INSERT
  5
1A7FC
330
1A7F6
100
AcDbEntity
  8
0
  6
ByBlock
 62
     0
 48
50.0
100
AcDbBlockReference
  2
_DOTSMALL
 10
8323.555166257166
 20
10692.33748603213
 30
0.0
 41
125.0
 42
125.0
 43
125.0
 50
180.0
  0
INSERT
  5
1A7FD
330
1A7F6
100
AcDbEntity
  8
0
  6
ByBlock
 62
     0
 48
50.0
100
AcDbBlockReference
  2
_DOTSMALL
 10
8378.555166257168
 20
10692.33748603213
 30
0.0
 41
125.0
 42
125.0
 43
125.0
  0
MTEXT
  5
1A7FE
330
1A7F6
100
AcDbEntity
  8
0
  6
ByBlock
 62
     7
 48
50.0
100
AcDbMText
 10
8670.996111139057
 20
10799.83748603213
 30
0.0
 40
150.0
 41
0.0
 71
     5
 72
     1
  1
\A1;(55)
  7
STYLE1
 73
     1
 44
1.0
1001
ACAD
1000
MTEXTBEGIN
1070
    73
1070
     1
1070
    44
1040
1.0
1070
    74
1070
     0
1000
MTEXTEND
  0
POINT
  5
1A7FF
330
1A7F6
100
AcDbEntity
  8
DEFPOINTS
  6
ByBlock
 62
     0
 48
50.0
100
AcDbPoint
 10
8323.555166257166
 20
11482.33748603213
 30
0.0
  0
POINT
  5
1A800
330
1A7F6
100
AcDbEntity
  8
DEFPOINTS
  6
ByBlock
 62
     0
 48
50.0
100
AcDbPoint
 10
8378.555166257168
 20
11492.33748603213
 30
0.0
  0
POINT
  5
1A801
330
1A7F6
100
AcDbEntity
  8
DEFPOINTS
  6
ByBlock
 62
     0
 48
50.0
100
AcDbPoint
 10
8378.555166257168
 20
10692.33748603213
 30
0.0
  0
ENDBLK
  5
1A802
330
1A7F6
100
AcDbEntity
  8
0
 48
50.0
100
AcDbBlockEnd
  0
BLOCK
  5
1A804
330
1A803
100
AcDbEntity
  8
0
 48
50.0
100
AcDbBlockBegin
  2
*D21
 70
     1
 10
0.0
 20
0.0
 30
0.0
  3
*D21
  1

  0
LINE
  5
1A805
330
1A803
100
AcDbEntity
  8
0
  6
ByBlock
 62
     0
 48
50.0
100
AcDbLine
 10
8493.555166257166
 20
11627.33748603213
 30
0.0
 11
9253.555166257168
 21
11627.33748603213
 31
0.0
  0
LINE
  5
1A806
330
1A803
100
AcDbEntity
  8
0
  6
ByBlock
 62
     0
 48
50.0
100
AcDbLine
 10
8403.555166257168
 20
11492.33748603213
 30
0.0
 11
9253.555166257168
 21
11492.33748603213
 31
0.0
  0
LINE
  5
1A807
330
1A803
100
AcDbEntity
  8
0
  6
ByBlock
 62
     0
 48
50.0
100
AcDbLine
 10
9178.555166257167
 20
11627.33748603213
 30
0.0
 11
9178.555166257167
 21
11492.33748603213
 31
0.0
  0
LINE
  5
1A808
330
1A803
100
AcDbEntity
  8
0
  6
ByBlock
 62
     0
 48
50.0
100
AcDbLine
 10
9178.555166257167
 20
11492.33748603213
 30
0.0
 11
9178.555166257167
 21
10957.45559626835
 31
0.0
  0
INSERT
  5
1A809
330
1A803
100
AcDbEntity
  8
0
  6
ByBlock
 62
     0
 48
50.0
100
AcDbBlockReference
  2
_DOTSMALL
 10
9178.555166257167
 20
11627.33748603213
 30
0.0
 41
125.0
 42
125.0
 43
125.0
 50
90.0
  0
INSERT
  5
1A80A
330
1A803
100
AcDbEntity
  8
0
  6
ByBlock
 62
     0
 48
50.0
100
AcDbBlockReference
  2
_DOTSMALL
 10
9178.555166257167
 20
11492.33748603213
 30
0.0
 41
125.0
 42
125.0
 43
125.0
 50
270.0
  0
MTEXT
  5
1A80B
330
1A803
100
AcDbEntity
  8
0
  6
ByBlock
 62
     7
 48
50.0
100
AcDbMText
 10
9071.055166257167
 20
11162.39654115024
 30
0.0
 40
150.0
 41
0.0
 71
     5
 72
     1
  1
\A1;(135)
  7
STYLE1
 11
0.0000000000000001
 21
1.0
 31
0.0
 73
     1
 44
1.0
1001
ACAD
1000
MTEXTBEGIN
1070
    73
1070
     1
1070
    44
1040
1.0
1070
    74
1070
     0
1000
MTEXTEND
  0
POINT
  5
1A80C
330
1A803
100
AcDbEntity
  8
DEFPOINTS
  6
ByBlock
 62
     0
 48
50.0
100
AcDbPoint
 10
8468.555166257166
 20
11627.33748603213
 30
0.0
  0
POINT
  5
1A80D
330
1A803
100
AcDbEntity
  8
DEFPOINTS
  6
ByBlock
 62
     0
 48
50.0
100
AcDbPoint
 10
8378.555166257168
 20
11492.33748603213
 30
0.0
  0
POINT
  5
1A80E
330
1A803
100
AcDbEntity
  8
DEFPOINTS
  6
ByBlock
 62
     0
 48
50.0
100
AcDbPoint
 10
9178.555166257167
 20
11492.33748603213
 30
0.0
  0
ENDBLK
  5
1A80F
330
1A803
100
AcDbEntity
  8
0
 48
50.0
100
AcDbBlockEnd
  0
BLOCK
  5
1A811
330
1A810
100
AcDbEntity
  8
0
 48
50.0
100
AcDbBlockBegin
  2
*D22
 70
     1
 10
0.0
 20
0.0
 30
0.0
  3
*D22
  1

  0
LINE
  5
1A812
330
1A810
100
AcDbEntity
  8
0
  6
ByBlock
 62
     0
 48
50.0
100
AcDbLine
 10
6441.555166257167
 20
11457.33748603213
 30
0.0
 11
6441.555166257167
 21
10617.33748603213
 31
0.0
  0
LINE
  5
1A813
330
1A810
100
AcDbEntity
  8
0
  6
ByBlock
 62
     0
 48
50.0
100
AcDbLine
 10
8323.555166257166
 20
11457.33748603213
 30
0.0
 11
8323.555166257166
 21
10617.33748603213
 31
0.0
  0
LINE
  5
1A814
330
1A810
100
AcDbEntity
  8
0
  6
ByBlock
 62
     0
 48
50.0
100
AcDbLine
 10
6441.555166257167
 20
10692.33748603213
 30
0.0
 11
8323.555166257166
 21
10692.33748603213
 31
0.0
  0
INSERT
  5
1A815
330
1A810
100
AcDbEntity
  8
0
  6
ByBlock
 62
     0
 48
50.0
100
AcDbBlockReference
  2
_DOTSMALL
 10
6441.555166257167
 20
10692.33748603213
 30
0.0
 41
125.0
 42
125.0
 43
125.0
 50
180.0
  0
INSERT
  5
1A816
330
1A810
100
AcDbEntity
  8
0
  6
ByBlock
 62
     0
 48
50.0
100
AcDbBlockReference
  2
_DOTSMALL
 10
8323.555166257166
 20
10692.33748603213
 30
0.0
 41
125.0
 42
125.0
 43
125.0
  0
MTEXT
  5
1A817
330
1A810
100
AcDbEntity
  8
0
  6
ByBlock
 62
     7
 48
50.0
100
AcDbMText
 10
7382.555166257167
 20
10792.35224981166
 30
0.0
 40
150.0
 41
0.0
 71
     5
 72
     1
  1
\A1;1882
  7
STYLE1
 73
     1
 44
1.0
1001
ACAD
1000
MTEXTBEGIN
1070
    73
1070
     1
1070
    44
1040
1.0
1070
    74
1070
     0
1000
MTEXTEND
  0
POINT
  5
1A818
330
1A810
100
AcDbEntity
  8
DEFPOINTS
  6
ByBlock
 62
     0
 48
50.0
100
AcDbPoint
 10
6441.555166257167
 20
11482.33748603213
 30
0.0
  0
POINT
  5
1A819
330
1A810
100
AcDbEntity
  8
DEFPOINTS
  6
ByBlock
 62
     0
 48
50.0
100
AcDbPoint
 10
8323.555166257166
 20
11482.33748603213
 30
0.0
  0
POINT
  5
1A81A
330
1A810
100
AcDbEntity
  8
DEFPOINTS
  6
ByBlock
 62
     0
 48
50.0
100
AcDbPoint
 10
8323.555166257166
 20
10692.33748603213
 30
0.0
  0
ENDBLK
  5
1A81B
330
1A810
100
AcDbEntity
  8
0
 48
50.0
100
AcDbBlockEnd
  0
BLOCK
  5
1A81D
330
1A81C
100
AcDbEntity
  8
0
 48
50.0
100
AcDbBlockBegin
  2
*D23
 70
     1
 10
0.0
 20
0.0
 30
0.0
  3
*D23
  1

  0
LINE
  5
1A81E
330
1A81C
100
AcDbEntity
  8
0
  6
ByBlock
 62
     0
 48
50.0
100
AcDbLine
 10
5911.555166257167
 20
9010.72424288985
 30
0.0
 11
5611.555166257167
 21
9010.72424288985
 31
0.0
  0
LINE
  5
1A81F
330
1A81C
100
AcDbEntity
  8
0
  6
ByBlock
 62
     0
 48
50.0
100
AcDbLine
 10
6416.555166257167
 20
8069.724242889851
 30
0.0
 11
5611.555166257167
 21
8069.724242889851
 31
0.0
  0
LINE
  5
1A820
330
1A81C
100
AcDbEntity
  8
0
  6
ByBlock
 62
     0
 48
50.0
100
AcDbLine
 10
5686.555166257167
 20
9010.72424288985
 30
0.0
 11
5686.555166257167
 21
8069.724242889851
 31
0.0
  0
INSERT
  5
1A821
330
1A81C
100
AcDbEntity
  8
0
  6
ByBlock
 62
     0
 48
50.0
100
AcDbBlockReference
  2
_DOTSMALL
 10
5686.555166257167
 20
9010.72424288985
 30
0.0
 41
125.0
 42
125.0
 43
125.0
 50
90.0
  0
INSERT
  5
1A822
330
1A81C
100
AcDbEntity
  8
0
  6
ByBlock
 62
     0
 48
50.0
100
AcDbBlockReference
  2
_DOTSMALL
 10
5686.555166257167
 20
8069.724242889851
 30
0.0
 41
125.0
 42
125.0
 43
125.0
 50
270.0
  0
MTEXT
  5
1A823
330
1A81C
100
AcDbEntity
  8
0
  6
ByBlock
 62
     7
 48
50.0
100
AcDbMText
 10
5586.555166257166
 20
8540.22424288985
 30
0.0
 40
150.0
 41
0.0
 71
     5
 72
     1
  1
\A1;941
  7
STYLE1
 11
0.0000000000000001
 21
1.0
 31
0.0
 73
     1
 44
1.0
1001
ACAD
1000
MTEXTBEGIN
1070
    73
1070
     1
1070
    44
1040
1.0
1070
    74
1070
     0
1000
MTEXTEND
  0
POINT
  5
1A824
330
1A81C
100
AcDbEntity
  8
DEFPOINTS
  6
ByBlock
 62
     0
 48
50.0
100
AcDbPoint
 10
5936.555166257167
 20
9010.72424288985
 30
0.0
  0
POINT
  5
1A825
330
1A81C
100
AcDbEntity
  8
DEFPOINTS
  6
ByBlock
 62
     0
 48
50.0
100
AcDbPoint
 10
6441.555166257167
 20
8069.724242889851
 30
0.0
  0
POINT
  5
1A826
330
1A81C
100
AcDbEntity
  8
DEFPOINTS
  6
ByBlock
 62
     0
 48
50.0
100
AcDbPoint
 10
5686.555166257167
 20
8069.724242889851
 30
0.0
  0
ENDBLK
  5
1A827
330
1A81C
100
AcDbEntity
  8
0
 48
50.0
100
AcDbBlockEnd
  0
BLOCK
  5
1A829
330
1A828
100
AcDbEntity
  8
0
 48
50.0
100
AcDbBlockBegin
  2
*D24
 70
     1
 10
0.0
 20
0.0
 30
0.0
  3
*D24
  1

  0
LINE
  5
1A82A
330
1A828
100
AcDbEntity
  8
0
  6
ByBlock
 62
     0
 48
50.0
100
AcDbLine
 10
6316.555166257167
 20
13029.33748603213
 30
0.0
 11
6011.555166257167
 21
13029.33748603213
 31
0.0
  0
LINE
  5
1A82B
330
1A828
100
AcDbEntity
  8
0
  6
ByBlock
 62
     0
 48
50.0
100
AcDbLine
 10
6316.555166257167
 20
12829.33748603213
 30
0.0
 11
6011.555166257167
 21
12829.33748603213
 31
0.0
  0
LINE
  5
1A82C
330
1A828
100
AcDbEntity
  8
0
  6
ByBlock
 62
     0
 48
50.0
100
AcDbLine
 10
6086.555166257166
 20
13029.33748603213
 30
0.0
 11
6086.555166257166
 21
12829.33748603213
 31
0.0
  0
INSERT
  5
1A82D
330
1A828
100
AcDbEntity
  8
0
  6
ByBlock
 62
     0
 48
50.0
100
AcDbBlockReference
  2
_DOTSMALL
 10
6086.555166257166
 20
13029.33748603213
 30
0.0
 41
125.0
 42
125.0
 43
125.0
 50
90.0
  0
INSERT
  5
1A82E
330
1A828
100
AcDbEntity
  8
0
  6
ByBlock
 62
     0
 48
50.0
100
AcDbBlockReference
  2
_DOTSMALL
 10
6086.555166257166
 20
12829.33748603213
 30
0.0
 41
125.0
 42
125.0
 43
125.0
 50
270.0
  0
MTEXT
  5
1A82F
330
1A828
100
AcDbEntity
  8
0
  6
ByBlock
 62
     7
 48
50.0
100
AcDbMText
 10
5986.54040247764
 20
12929.33748603213
 30
0.0
 40
150.0
 41
0.0
 71
     5
 72
     1
  1
\A1;200
  7
STYLE1
 11
0.0000000000000001
 21
1.0
 31
0.0
 73
     1
 44
1.0
1001
ACAD
1000
MTEXTBEGIN
1070
    73
1070
     1
1070
    44
1040
1.0
1070
    74
1070
     0
1000
MTEXTEND
  0
POINT
  5
1A830
330
1A828
100
AcDbEntity
  8
DEFPOINTS
  6
ByBlock
 62
     0
 48
50.0
100
AcDbPoint
 10
6341.555166257167
 20
13029.33748603213
 30
0.0
  0
POINT
  5
1A831
330
1A828
100
AcDbEntity
  8
DEFPOINTS
  6
ByBlock
 62
     0
 48
50.0
100
AcDbPoint
 10
6341.555166257167
 20
12829.33748603213
 30
0.0
  0
POINT
  5
1A832
330
1A828
100
AcDbEntity
  8
DEFPOINTS
  6
ByBlock
 62
     0
 48
50.0
100
AcDbPoint
 10
6086.555166257166
 20
12829.33748603213
 30
0.0
  0
ENDBLK
  5
1A833
330
1A828
100
AcDbEntity
  8
0
 48
50.0
100
AcDbBlockEnd
  0
BLOCK
  5
1A835
330
1A834
100
AcDbEntity
  8
0
 48
50.0
100
AcDbBlockBegin
  2
*D25
 70
     1
 10
0.0
 20
0.0
 30
0.0
  3
*D25
  1

  0
LINE
  5
1A836
330
1A834
100
AcDbEntity
  8
0
  6
ByBlock
 62
     0
 48
50.0
100
AcDbLine
 10
8493.555166257166
 20
12929.33748603213
 30
0.0
 11
9253.555166257168
 21
12929.33748603213
 31
0.0
  0
LINE
  5
1A837
330
1A834
100
AcDbEntity
  8
0
  6
ByBlock
 62
     0
 48
50.0
100
AcDbLine
 10
8403.555166257168
 20
13024.33748603213
 30
0.0
 11
9253.555166257168
 21
13024.33748603213
 31
0.0
  0
LINE
  5
1A838
330
1A834
100
AcDbEntity
  8
0
  6
ByBlock
 62
     0
 48
50.0
100
AcDbLine
 10
9178.555166257167
 20
12929.33748603213
 30
0.0
 11
9178.555166257167
 21
13024.33748603213
 31
0.0
  0
LINE
  5
1A839
330
1A834
100
AcDbEntity
  8
0
  6
ByBlock
 62
     0
 48
50.0
100
AcDbLine
 10
9178.555166257167
 20
13024.33748603213
 30
0.0
 11
9178.555166257167
 21
13484.74352537005
 31
0.0
  0
INSERT
  5
1A83A
330
1A834
100
AcDbEntity
  8
0
  6
ByBlock
 62
     0
 48
50.0
100
AcDbBlockReference
  2
_DOTSMALL
 10
9178.555166257167
 20
12929.33748603213
 30
0.0
 41
125.0
 42
125.0
 43
125.0
 50
270.0
  0
INSERT
  5
1A83B
330
1A834
100
AcDbEntity
  8
0
  6
ByBlock
 62
     0
 48
50.0
100
AcDbBlockReference
  2
_DOTSMALL
 10
9178.555166257167
 20
13024.33748603213
 30
0.0
 41
125.0
 42
125.0
 43
125.0
 50
90.0
  0
MTEXT
  5
1A83C
330
1A834
100
AcDbEntity
  8
0
  6
ByBlock
 62
     7
 48
50.0
100
AcDbMText
 10
9071.018914330691
 20
13317.04050570109
 30
0.0
 40
150.0
 41
0.0
 71
     5
 72
     1
  1
\A1;(95)
  7
STYLE1
 11
0.0000000000000001
 21
1.0
 31
0.0
 73
     1
 44
1.0
1001
ACAD
1000
MTEXTBEGIN
1070
    73
1070
     1
1070
    44
1040
1.0
1070
    74
1070
     0
1000
MTEXTEND
  0
POINT
  5
1A83D
330
1A834
100
AcDbEntity
  8
DEFPOINTS
  6
ByBlock
 62
     0
 48
50.0
100
AcDbPoint
 10
8468.555166257166
 20
12929.33748603213
 30
0.0
  0
POINT
  5
1A83E
330
1A834
100
AcDbEntity
  8
DEFPOINTS
  6
ByBlock
 62
     0
 48
50.0
100
AcDbPoint
 10
8378.555166257168
 20
13024.33748603213
 30
0.0
  0
POINT
  5
1A83F
330
1A834
100
AcDbEntity
  8
DEFPOINTS
  6
ByBlock
 62
     0
 48
50.0
100
AcDbPoint
 10
9178.555166257167
 20
13024.33748603213
 30
0.0
  0
ENDBLK
  5
1A840
330
1A834
100
AcDbEntity
  8
0
 48
50.0
100
AcDbBlockEnd
  0
BLOCK
  5
1A842
330
1A841
100
AcDbEntity
  8
0
 48
50.0
100
AcDbBlockBegin
  2
*D26
 70
     1
 10
0.0
 20
0.0
 30
0.0
  3
*D26
  1

  0
LINE
  5
1A843
330
1A841
100
AcDbEntity
  8
0
  6
ByBlock
 62
     0
 48
50.0
100
AcDbLine
 10
6541.555166257167
 20
13054.33748603213
 30
0.0
 11
6541.555166257167
 21
13399.33748603213
 31
0.0
  0
LINE
  5
1A844
330
1A841
100
AcDbEntity
  8
0
  6
ByBlock
 62
     0
 48
50.0
100
AcDbLine
 10
6341.555166257167
 20
13054.33748603213
 30
0.0
 11
6341.555166257167
 21
13399.33748603213
 31
0.0
  0
LINE
  5
1A845
330
1A841
100
AcDbEntity
  8
0
  6
ByBlock
 62
     0
 48
50.0
100
AcDbLine
 10
6541.555166257167
 20
13324.33748603213
 30
0.0
 11
6341.555166257167
 21
13324.33748603213
 31
0.0
  0
INSERT
  5
1A846
330
1A841
100
AcDbEntity
  8
0
  6
ByBlock
 62
     0
 48
50.0
100
AcDbBlockReference
  2
_DOTSMALL
 10
6541.555166257167
 20
13324.33748603213
 30
0.0
 41
125.0
 42
125.0
 43
125.0
  0
INSERT
  5
1A847
330
1A841
100
AcDbEntity
  8
0
  6
ByBlock
 62
     0
 48
50.0
100
AcDbBlockReference
  2
_DOTSMALL
 10
6341.555166257167
 20
13324.33748603213
 30
0.0
 41
125.0
 42
125.0
 43
125.0
 50
180.0
  0
MTEXT
  5
1A848
330
1A841
100
AcDbEntity
  8
0
  6
ByBlock
 62
     7
 48
50.0
100
AcDbMText
 10
6441.555166257167
 20
13424.35224981166
 30
0.0
 40
150.0
 41
0.0
 71
     5
 72
     1
  1
\A1;200
  7
STYLE1
 73
     1
 44
1.0
1001
ACAD
1000
MTEXTBEGIN
1070
    73
1070
     1
1070
    44
1040
1.0
1070
    74
1070
     0
1000
MTEXTEND
  0
POINT
  5
1A849
330
1A841
100
AcDbEntity
  8
DEFPOINTS
  6
ByBlock
 62
     0
 48
50.0
100
AcDbPoint
 10
6541.555166257167
 20
13029.33748603213
 30
0.0
  0
POINT
  5
1A84A
330
1A841
100
AcDbEntity
  8
DEFPOINTS
  6
ByBlock
 62
     0
 48
50.0
100
AcDbPoint
 10
6341.555166257167
 20
13029.33748603213
 30
0.0
  0
POINT
  5
1A84B
330
1A841
100
AcDbEntity
  8
DEFPOINTS
  6
ByBlock
 62
     0
 48
50.0
100
AcDbPoint
 10
6341.555166257167
 20
13324.33748603213
 30
0.0
  0
ENDBLK
  5
1A84C
330
1A841
100
AcDbEntity
  8
0
 48
50.0
100
AcDbBlockEnd
  0
BLOCK
  5
1A84E
330
1A84D
100
AcDbEntity
  8
0
 48
50.0
100
AcDbBlockBegin
  2
*D27
 70
     1
 10
0.0
 20
0.0
 30
0.0
  3
*D27
  1

  0
LINE
  5
1A84F
330
1A84D
100
AcDbEntity
  8
寸法
 62
     0
 48
50.0
370
    -2
100
AcDbLine
 10
6441.555166257167
 20
6958.72424288985
 30
0.0
 11
6441.555166257167
 21
6518.72424288985
 31
0.0
  0
LINE
  5
1A850
330
1A84D
100
AcDbEntity
  8
寸法
 62
     0
 48
50.0
370
    -2
100
AcDbLine
 10
7382.555166257166
 20
7103.72424288985
 30
0.0
 11
7382.555166257166
 21
6518.72424288985
 31
0.0
  0
LINE
  5
1A851
330
1A84D
100
AcDbEntity
  8
寸法
 62
     0
 48
50.0
370
    -2
100
AcDbLine
 10
6441.555166257167
 20
6593.72424288985
 30
0.0
 11
7382.555166257166
 21
6593.72424288985
 31
0.0
  0
INSERT
  5
1A852
330
1A84D
100
AcDbEntity
  8
寸法
 62
     0
 48
50.0
370
    -2
100
AcDbBlockReference
  2
_DOTSMALL
 10
6441.555166257167
 20
6593.72424288985
 30
0.0
 41
125.0
 42
125.0
 43
125.0
 50
180.0
  0
INSERT
  5
1A853
330
1A84D
100
AcDbEntity
  8
寸法
 62
     0
 48
50.0
370
    -2
100
AcDbBlockReference
  2
_DOTSMALL
 10
7382.555166257166
 20
6593.72424288985
 30
0.0
 41
125.0
 42
125.0
 43
125.0
  0
MTEXT
  5
1A854
330
1A84D
100
AcDbEntity
  8
寸法
 62
     7
 48
50.0
100
AcDbMText
 10
6912.055166257165
 20
6693.72424288985
 30
0.0
 40
150.0
 41
0.0
 71
     5
 72
     1
  1
\A1;941
  7
STYLE1
 73
     1
 44
1.0
1001
ACAD
1000
MTEXTBEGIN
1070
    73
1070
     1
1070
    44
1040
1.0
1070
    74
1070
     0
1000
MTEXTEND
  0
POINT
  5
1A855
330
1A84D
100
AcDbEntity
  8
DEFPOINTS
 62
     0
 48
50.0
100
AcDbPoint
 10
6441.555166257167
 20
6983.72424288985
 30
0.0
  0
POINT
  5
1A856
330
1A84D
100
AcDbEntity
  8
DEFPOINTS
 62
     0
 48
50.0
100
AcDbPoint
 10
7382.555166257166
 20
7128.724242889849
 30
0.0
  0
POINT
  5
1A857
330
1A84D
100
AcDbEntity
  8
DEFPOINTS
 62
     0
 48
50.0
100
AcDbPoint
 10
7382.555166257166
 20
6593.72424288985
 30
0.0
  0
ENDBLK
  5
1A858
330
1A84D
100
AcDbEntity
  8
0
 48
50.0
100
AcDbBlockEnd
  0
BLOCK
  5
1A85A
330
1A859
100
AcDbEntity
  8
0
 48
50.0
100
AcDbBlockBegin
  2
*D28
 70
     1
 10
0.0
 20
0.0
 30
0.0
  3
*D28
  1

  0
LINE
  5
1A85B
330
1A859
100
AcDbEntity
  8
0
  6
ByBlock
 62
     0
 48
50.0
100
AcDbLine
 10
8323.555166257166
 20
4691.415675735119
 30
0.0
 11
8323.555166257166
 21
4251.41567573512
 31
0.0
  0
LINE
  5
1A85C
330
1A859
100
AcDbEntity
  8
0
  6
ByBlock
 62
     0
 48
50.0
100
AcDbLine
 10
7382.555166257167
 20
4326.415675735119
 30
0.0
 11
8323.555166257166
 21
4326.415675735119
 31
0.0
  0
INSERT
  5
1A85D
330
1A859
100
AcDbEntity
  8
0
  6
ByBlock
 62
     0
 48
50.0
100
AcDbBlockReference
  2
_DOTSMALL
 10
7382.555166257167
 20
4326.415675735119
 30
0.0
 41
125.0
 42
125.0
 43
125.0
 50
180.0
  0
INSERT
  5
1A85E
330
1A859
100
AcDbEntity
  8
0
  6
ByBlock
 62
     0
 48
50.0
100
AcDbBlockReference
  2
_DOTSMALL
 10
8323.555166257166
 20
4326.415675735119
 30
0.0
 41
125.0
 42
125.0
 43
125.0
  0
MTEXT
  5
1A85F
330
1A859
100
AcDbEntity
  8
0
  6
ByBlock
 62
     7
 48
50.0
100
AcDbMText
 10
7853.055166257167
 20
4426.415675735119
 30
0.0
 40
150.0
 41
0.0
 71
     5
 72
     1
  1
\A1;941
  7
STYLE1
 73
     1
 44
1.0
1001
ACAD
1000
MTEXTBEGIN
1070
    73
1070
     1
1070
    44
1040
1.0
1070
    74
1070
     0
1000
MTEXTEND
  0
POINT
  5
1A860
330
1A859
100
AcDbEntity
  8
DEFPOINTS
  6
ByBlock
 62
     0
 48
50.0
100
AcDbPoint
 10
7382.555166257167
 20
5657.415675735119
 30
0.0
  0
POINT
  5
1A861
330
1A859
100
AcDbEntity
  8
DEFPOINTS
  6
ByBlock
 62
     0
 48
50.0
100
AcDbPoint
 10
8323.555166257166
 20
4716.415675735119
 30
0.0
  0
POINT
  5
1A862
330
1A859
100
AcDbEntity
  8
DEFPOINTS
  6
ByBlock
 62
     0
 48
50.0
100
AcDbPoint
 10
8323.555166257166
 20
4326.415675735119
 30
0.0
  0
ENDBLK
  5
1A863
330
1A859
100
AcDbEntity
  8
0
 48
50.0
100
AcDbBlockEnd
  0
BLOCK
  5
1A8B9
330
1A864
100
AcDbEntity
  8
0
 48
50.0
100
AcDbBlockBegin
  2
A$C39E84A00
 70
     0
 10
0.0
 20
0.0
 30
0.0
  3
A$C39E84A00
  1

  0
LEADER
  5
1A865
330
1A864
100
AcDbEntity
  8
寸法
 48
50.0
100
AcDbLeader
  3
INABA_S50G
 71
     0
 73
     0
 74
     0
 75
     1
 40
150.0
 41
231.9898538650463
 76
     3
 10
1863.5725143898
 20
1210.000008031964
 30
0.0
 10
2003.326008907408
 20
1417.613905195154
 30
0.0
 10
2128.326008907408
 20
1417.613905195154
 30
0.0
340
1A866
  0
MTEXT
  5
1A866
102
{ACAD_REACTORS
330
1A865
102
}
330
1A864
100
AcDbEntity
  8
細線
 62
     7
 48
50.0
100
AcDbMText
 10
2153.326008907408
 20
1517.613905195154
 30
0.0
 40
150.0
 41
0.0
 71
     4
 72
     1
  1
\A1;C.B
  7
STYLE1
 73
     1
 44
1.0
1001
ACAD
1000
MTEXTBEGIN
1070
    73
1070
     1
1070
    44
1040
1.0
1070
    74
1070
     0
1000
MTEXTEND
  0
LINE
  5
1A867
330
1A864
100
AcDbEntity
  8
想像線
 48
20.0
100
AcDbLine
 10
867.5725143898016
 20
2987.000008031966
 30
0.0
 11
867.5725143898016
 21
875.000008031966
 31
0.0
  0
LINE
  5
1A868
330
1A864
100
AcDbEntity
  8
想像線
 48
20.0
100
AcDbLine
 10
2859.572514389802
 20
875.000008031966
 30
0.0
 11
2859.572514389802
 21
2987.000008031964
 31
0.0
  0
DIMENSION
  5
1A869
330
1A864
100
AcDbEntity
  8
寸法
 48
50.0
100
AcDbDimension
  2
*D17
 10
3659.572514389802
 20
2892.000008031966
 30
0.0
 11
3559.557750610275
 21
1951.000008031966
 31
0.0
 12
-5518.982651867365
 22
-3851.415667703154
 32
0.0
 71
     5
 42
-1.0
  3
INABA_S50G
100
AcDbAlignedDimension
 13
2949.572514389802
 23
1010.000008031966
 33
0.0
 14
2949.572514389802
 24
2892.000008031966
 34
0.0
 50
90.0
100
AcDbRotatedDimension
  0
DIMENSION
  5
1A86A
330
1A864
100
AcDbEntity
  8
寸法
 48
50.0
100
AcDbDimension
  2
*D18
 10
167.5725143898016
 20
1010.000008031966
 30
0.0
 11
67.57251438980166
 21
1480.500008031966
 31
0.0
 12
-5518.982651867365
 22
-3851.415667703154
 32
0.0
 71
     5
 42
-1.0
  3
INABA_S50G
100
AcDbAlignedDimension
 13
1718.572514389801
 23
1951.000008031966
 33
0.0
 14
777.5725143898016
 24
1010.000008031966
 34
0.0
 50
90.0
100
AcDbRotatedDimension
1001
ACAD
1000
DSTYLE
1002
{
1070
    75
1070
     1
1070
   279
1070
     1
1002
}
  0
DIMENSION
  5
1A86B
330
1A864
100
AcDbEntity
  8
寸法
 48
50.0
100
AcDbDimension
  2
*D28
 10
2804.572514389802
 20
475.000008031966
 30
0.0
 11
2334.072514389802
 21
575.000008031966
 31
0.0
 12
-5518.982651867365
 22
-3851.415667703154
 32
0.0
 71
     5
 42
-1.0
  3
INABA_S50G
100
AcDbAlignedDimension
 13
1863.572514389801
 23
1806.000008031966
 33
0.0
 14
2804.572514389802
 24
865.000008031966
 34
0.0
100
AcDbRotatedDimension
1001
ACAD
1000
DSTYLE
1002
{
1070
    75
1070
     1
1070
   279
1070
     1
1002
}
  0
LINE
  5
1A86C
330
1A864
100
AcDbEntity
  8
想像線
 48
20.0
100
AcDbLine
 10
867.5725143898016
 20
875.000008031966
 30
0.0
 11
2859.572514389802
 21
875.000008031966
 31
0.0
  0
DIMENSION
  5
1A86D
330
1A864
100
AcDbEntity
  8
寸法
 48
50.0
100
AcDbDimension
  2
*D22
 10
2804.572514389802
 20
75.00000803196599
 30
0.0
 11
1863.572514389802
 21
465.0147718114931
 31
0.0
 12
-5518.982651867365
 22
-10617.33747800016
 32
0.0
 71
     5
 42
-1.0
  3
INABA_S50G
100
AcDbAlignedDimension
 13
922.5725143898015
 23
865.000008031966
 33
0.0
 14
2804.572514389802
 24
865.000008031966
 34
0.0
100
AcDbRotatedDimension
  0
DIMENSION
  5
1A86E
330
1A864
100
AcDbEntity
  8
寸法
 48
50.0
100
AcDbDimension
  2
*D27
 10
1863.5725143898
 20
475.000008031966
 30
0.0
 11
1393.072514389801
 21
575.000008031966
 31
0.0
 12
-5518.982651867365
 22
-6118.724234857884
 32
0.0
 71
     5
 42
940.9999999999982
  3
INABA_S50G
100
AcDbAlignedDimension
 13
922.5725143898015
 23
865.000008031966
 33
0.0
 14
1863.5725143898
 24
1010.000008031966
 34
0.0
100
AcDbRotatedDimension
  0
DIMENSION
  5
1A86F
330
1A864
100
AcDbEntity
  8
寸法
 48
50.0
100
AcDbDimension
  2
*D19
 10
922.5725143898015
 20
75.00000803196599
 30
0.0
 11
575.131569507912
 21
75.00000803196599
 31
0.0
 12
-5518.982651867365
 22
-10617.33747800016
 32
0.0
 70
   128
  1
(<>)
 71
     5
 42
-1.0
  3
INABA_S50G
100
AcDbAlignedDimension
 13
867.5725143898016
 23
875.000008031966
 33
0.0
 14
922.5725143898015
 24
865.000008031966
 34
0.0
100
AcDbRotatedDimension
  0
LINE
  5
1A870
330
1A864
100
AcDbEntity
  8
センター
 48
5.0
100
AcDbLine
 10
1067.572514389802
 20
1010.000008031966
 30
0.0
 11
777.5725143898016
 21
1010.000008031966
 31
0.0
  0
LINE
  5
1A871
330
1A864
100
AcDbEntity
  8
点線
 48
10.0
100
AcDbLine
 10
1022.572514389801
 20
1110.000008031964
 30
0.0
 11
822.5725143898015
 21
1110.000008031964
 31
0.0
  0
LINE
  5
1A872
330
1A864
100
AcDbEntity
  8
点線
 48
10.0
100
AcDbLine
 10
1022.572514389801
 20
910.0000080319642
 30
0.0
 11
822.5725143898015
 21
910.0000080319642
 31
0.0
  0
LINE
  5
1A873
330
1A864
100
AcDbEntity
  8
点線
 48
10.0
100
AcDbLine
 10
822.5725143898015
 20
910.0000080319642
 30
0.0
 11
822.5725143898015
 21
1110.000008031964
 31
0.0
  0
LINE
  5
1A874
330
1A864
100
AcDbEntity
  8
部品1
 48
50.0
100
AcDbLine
 10
922.5725143898015
 20
1210.000008031966
 30
0.0
 11
1322.572514389802
 21
1210.000008031966
 31
0.0
  0
LINE
  5
1A875
330
1A864
100
AcDbEntity
  8
部品1
 48
50.0
100
AcDbLine
 10
922.5725143898015
 20
1010.000008031966
 30
0.0
 11
1322.572514389802
 21
1010.000008031966
 31
0.0
  0
LINE
  5
1A876
330
1A864
100
AcDbEntity
  8
点線
 48
10.0
100
AcDbLine
 10
1022.572514389801
 20
910.0000080319642
 30
0.0
 11
1022.572514389801
 21
1110.000008031964
 31
0.0
  0
LINE
  5
1A877
330
1A864
100
AcDbEntity
  8
部品1
 48
50.0
100
AcDbLine
 10
922.5725143898015
 20
1210.000008031966
 30
0.0
 11
922.5725143898015
 21
1010.000008031966
 31
0.0
  0
LINE
  5
1A878
330
1A864
100
AcDbEntity
  8
センター
 48
5.0
100
AcDbLine
 10
922.5725143898015
 20
1155.000008031966
 30
0.0
 11
922.5725143898015
 21
865.000008031966
 31
0.0
  0
LINE
  5
1A879
330
1A864
100
AcDbEntity
  8
部品1
 48
50.0
100
AcDbLine
 10
1322.572514389802
 20
1210.000008031966
 30
0.0
 11
1322.572514389802
 21
1010.000008031966
 31
0.0
  0
DIMENSION
  5
1A87A
330
1A864
100
AcDbEntity
  8
寸法
 48
50.0
100
AcDbDimension
  2
*D21
 10
3659.572514389802
 20
875.000008031966
 30
0.0
 11
3659.572514389802
 21
545.0590631500763
 31
0.0
 12
-5518.982651867365
 22
-10617.33747800016
 32
0.0
 70
   128
  1
(<>)
 71
     5
 42
-1.0
  3
INABA_S50G
100
AcDbAlignedDimension
 13
2949.572514389802
 23
1010.000008031966
 33
0.0
 14
2859.572514389802
 24
875.000008031966
 34
0.0
 50
90.0
100
AcDbRotatedDimension
  0
DIMENSION
  5
1A87B
330
1A864
100
AcDbEntity
  8
寸法
 48
50.0
100
AcDbDimension
  2
*D20
 10
2859.572514389802
 20
75.00000803196599
 30
0.0
 11
3152.013459271691
 21
75.00000803196599
 31
0.0
 12
-5518.982651867365
 22
-10617.33747800016
 32
0.0
 70
   128
  1
(<>)
 71
     5
 42
-1.0
  3
INABA_S50G
100
AcDbAlignedDimension
 13
2804.572514389802
 23
865.000008031966
 33
0.0
 14
2859.572514389802
 24
875.000008031966
 34
0.0
100
AcDbRotatedDimension
  0
LINE
  5
1A87C
330
1A864
100
AcDbEntity
  8
部品1
 48
50.0
100
AcDbLine
 10
2404.572514389802
 20
1010.000008031966
 30
0.0
 11
2804.572514389802
 21
1010.000008031966
 31
0.0
  0
LINE
  5
1A87D
330
1A864
100
AcDbEntity
  8
部品1
 48
50.0
100
AcDbLine
 10
2404.572514389802
 20
1210.000008031966
 30
0.0
 11
2804.572514389802
 21
1210.000008031966
 31
0.0
  0
LINE
  5
1A87E
330
1A864
100
AcDbEntity
  8
部品1
 48
50.0
100
AcDbLine
 10
1963.572514389801
 20
1010.000008031966
 30
0.0
 11
1963.572514389801
 21
1210.000008031966
 31
0.0
  0
LINE
  5
1A87F
330
1A864
100
AcDbEntity
  8
部品1
 48
50.0
100
AcDbLine
 10
1763.572514389801
 20
1010.000008031966
 30
0.0
 11
1763.572514389801
 21
1210.000008031966
 31
0.0
  0
LINE
  5
1A880
330
1A864
100
AcDbEntity
  8
部品1
 48
50.0
100
AcDbLine
 10
1763.572514389801
 20
1010.000008031966
 30
0.0
 11
1963.572514389801
 21
1010.000008031966
 31
0.0
  0
LINE
  5
1A881
330
1A864
100
AcDbEntity
  8
部品1
 48
50.0
100
AcDbLine
 10
1763.572514389801
 20
1210.000008031966
 30
0.0
 11
1963.572514389801
 21
1210.000008031966
 31
0.0
  0
LINE
  5
1A882
330
1A864
100
AcDbEntity
  8
部品1
 48
50.0
100
AcDbLine
 10
2404.572514389802
 20
1010.000008031966
 30
0.0
 11
2404.572514389802
 21
1210.000008031966
 31
0.0
  0
LINE
  5
1A883
330
1A864
100
AcDbEntity
  8
センター
 48
5.0
100
AcDbLine
 10
2949.572514389802
 20
1010.000008031966
 30
0.0
 11
2659.572514389802
 21
1010.000008031966
 31
0.0
  0
LINE
  5
1A884
330
1A864
100
AcDbEntity
  8
点線
 48
10.0
100
AcDbLine
 10
2904.572514389802
 20
910.0000080319642
 30
0.0
 11
2904.572514389802
 21
1110.000008031964
 31
0.0
  0
LINE
  5
1A885
330
1A864
100
AcDbEntity
  8
部品1
 48
50.0
100
AcDbLine
 10
2804.572514389802
 20
1010.000008031966
 30
0.0
 11
2804.572514389802
 21
1210.000008031966
 31
0.0
  0
LINE
  5
1A886
330
1A864
100
AcDbEntity
  8
センター
 48
5.0
100
AcDbLine
 10
2804.572514389802
 20
1155.000008031966
 30
0.0
 11
2804.572514389802
 21
865.000008031966
 31
0.0
  0
LINE
  5
1A887
330
1A864
100
AcDbEntity
  8
点線
 48
10.0
100
AcDbLine
 10
2704.572514389802
 20
910.0000080319642
 30
0.0
 11
2704.572514389802
 21
1110.000008031964
 31
0.0
  0
LINE
  5
1A888
330
1A864
100
AcDbEntity
  8
点線
 48
10.0
100
AcDbLine
 10
2704.572514389802
 20
910.0000080319642
 30
0.0
 11
2904.572514389802
 21
910.0000080319642
 31
0.0
  0
LINE
  5
1A889
330
1A864
100
AcDbEntity
  8
点線
 48
10.0
100
AcDbLine
 10
2704.572514389802
 20
1110.000008031964
 30
0.0
 11
2904.572514389802
 21
1110.000008031964
 31
0.0
  0
LINE
  5
1A88A
330
1A864
100
AcDbEntity
  8
想像線
 48
20.0
100
AcDbLine
 10
2859.572514389802
 20
2987.000008031964
 30
0.0
 11
867.5725143898016
 21
2987.000008031966
 31
0.0
  0
MTEXT
  5
1A88B
102
{ACAD_REACTORS
330
1A88C
102
}
330
1A864
100
AcDbEntity
  8
細線
 62
     7
 48
50.0
100
AcDbMText
 10
1552.130462286793
 20
3713.526082994777
 30
0.0
 40
150.0
 41
0.0
 71
     4
 72
     1
  1
\A1;組立後\P現場打コンクリート
  7
STYLE1
 73
     1
 44
1.0
1001
ACAD
1000
MTEXTBEGIN
1070
    73
1070
     1
1070
    44
1040
1.0
1070
    74
1070
     0
1000
MTEXTEND
  0
LEADER
  5
1A88C
330
1A864
100
AcDbEntity
  8
寸法
 48
50.0
100
AcDbLeader
  3
INABA_S50G
 71
     0
 73
     0
 74
     0
 75
     1
 40
400.0
 41
1602.936553006147
 76
     3
 10
972.6267377085459
 20
2942.011724766777
 30
0.0
 10
1402.130462286793
 20
3488.526082994777
 30
0.0
 10
1527.130462286793
 20
3488.526082994777
 30
0.0
340
1A88B
  0
DIMENSION
  5
1A88D
330
1A864
100
AcDbEntity
  8
寸法
 48
50.0
100
AcDbDimension
  2
*D23
 10
167.5725143898016
 20
1951.000008031966
 30
0.0
 11
67.57251438980166
 21
2421.500008031966
 31
0.0
 12
-5518.982651867365
 22
-6118.724234857884
 32
0.0
 71
     5
 42
-1.0
  3
INABA_S50G
100
AcDbAlignedDimension
 13
417.5725143898016
 23
2892.000008031966
 33
0.0
 14
922.5725143898015
 24
1951.000008031966
 34
0.0
 50
90.0
100
AcDbRotatedDimension
  0
LINE
  5
1A88E
330
1A864
100
AcDbEntity
  8
部品1
 48
50.0
100
AcDbLine
 10
1122.572514389801
 20
2051.000008031966
 30
0.0
 11
1122.572514389801
 21
1851.000008031966
 31
0.0
  0
LINE
  5
1A88F
330
1A864
100
AcDbEntity
  8
部品1
 48
50.0
100
AcDbLine
 10
922.5725143898015
 20
1851.000008031966
 30
0.0
 11
922.5725143898015
 21
2051.000008031966
 31
0.0
  0
LINE
  5
1A890
330
1A864
100
AcDbEntity
  8
部品1
 48
50.0
100
AcDbLine
 10
1122.572514389801
 20
1851.000008031966
 30
0.0
 11
922.5725143898015
 21
1851.000008031966
 31
0.0
  0
LINE
  5
1A891
330
1A864
100
AcDbEntity
  8
部品1
 48
50.0
100
AcDbLine
 10
922.5725143898015
 20
2051.000008031966
 30
0.0
 11
1122.572514389801
 21
2051.000008031966
 31
0.0
  0
LINE
  5
1A892
330
1A864
100
AcDbEntity
  8
点線
 48
10.0
100
AcDbLine
 10
1022.572514389801
 20
2992.000008031966
 30
0.0
 11
822.5725143898015
 21
2992.000008031966
 31
0.0
  0
LINE
  5
1A893
330
1A864
100
AcDbEntity
  8
センター
 48
5.0
100
AcDbLine
 10
1067.572514389802
 20
2892.000008031966
 30
0.0
 11
777.5725143898016
 21
2892.000008031966
 31
0.0
  0
LINE
  5
1A894
330
1A864
100
AcDbEntity
  8
点線
 48
10.0
100
AcDbLine
 10
1022.572514389801
 20
2792.000008031966
 30
0.0
 11
822.5725143898015
 21
2792.000008031966
 31
0.0
  0
DIMENSION
  5
1A895
330
1A864
100
AcDbEntity
  8
寸法
 48
50.0
100
AcDbDimension
  2
*D26
 10
822.5725143898015
 20
3287.000008031967
 30
0.0
 11
922.5725143898015
 21
3287.000008031967
 31
0.0
 12
-5518.982651867365
 22
-10037.33747800016
 32
0.0
 70
   128
 71
     5
 42
-1.0
  3
INABA_S50G
100
AcDbAlignedDimension
 13
1022.572514389801
 23
2992.000008031966
 33
0.0
 14
822.5725143898015
 24
2992.000008031968
 34
0.0
100
AcDbRotatedDimension
  0
DIMENSION
  5
1A896
330
1A864
100
AcDbEntity
  8
寸法
 48
50.0
100
AcDbDimension
  2
*D24
 10
567.5725143898016
 20
2792.000008031966
 30
0.0
 11
567.5725143898016
 21
2892.000008031966
 31
0.0
 12
-5518.982651867365
 22
-10037.33747800016
 32
0.0
 70
   128
 71
     5
 42
-1.0
  3
INABA_S50G
100
AcDbAlignedDimension
 13
822.5725143898015
 23
2992.000008031966
 33
0.0
 14
822.5725143898015
 24
2792.000008031966
 34
0.0
 50
90.0
100
AcDbRotatedDimension
  0
LINE
  5
1A897
330
1A864
100
AcDbEntity
  8
点線
 48
10.0
100
AcDbLine
 10
822.5725143898015
 20
2992.000008031966
 30
0.0
 11
822.5725143898015
 21
2792.000008031966
 31
0.0
  0
LINE
  5
1A898
330
1A864
100
AcDbEntity
  8
部品1
 48
50.0
100
AcDbLine
 10
1322.572514389802
 20
2892.000008031966
 30
0.0
 11
922.5725143898015
 21
2892.000008031966
 31
0.0
  0
LINE
  5
1A899
330
1A864
100
AcDbEntity
  8
部品1
 48
50.0
100
AcDbLine
 10
1322.572514389802
 20
2692.000008031966
 30
0.0
 11
922.5725143898015
 21
2692.000008031966
 31
0.0
  0
LINE
  5
1A89A
330
1A864
100
AcDbEntity
  8
部品1
 48
50.0
100
AcDbLine
 10
922.5725143898015
 20
2892.000008031966
 30
0.0
 11
922.5725143898015
 21
2692.000008031966
 31
0.0
  0
LINE
  5
1A89B
330
1A864
100
AcDbEntity
  8
センター
 48
5.0
100
AcDbLine
 10
922.5725143898015
 20
3037.000008031966
 30
0.0
 11
922.5725143898015
 21
2747.000008031966
 31
0.0
  0
LINE
  5
1A89C
330
1A864
100
AcDbEntity
  8
点線
 48
10.0
100
AcDbLine
 10
1022.572514389801
 20
2992.000008031966
 30
0.0
 11
1022.572514389801
 21
2792.000008031966
 31
0.0
  0
LINE
  5
1A89D
330
1A864
100
AcDbEntity
  8
部品1
 48
50.0
100
AcDbLine
 10
1322.572514389802
 20
2892.000008031966
 30
0.0
 11
1322.572514389802
 21
2692.000008031966
 31
0.0
  0
DIMENSION
  5
1A89E
330
1A864
100
AcDbEntity
  8
寸法
 48
50.0
100
AcDbDimension
  2
*D25
 10
3659.572514389802
 20
2987.000008031964
 30
0.0
 11
3659.572514389802
 21
3279.703027700926
 31
0.0
 12
-5518.982651867365
 22
-10037.33747800016
 32
0.0
 70
   128
  1
(<>)
 71
     5
 42
-1.0
  3
INABA_S50G
100
AcDbAlignedDimension
 13
2949.572514389802
 23
2892.000008031966
 33
0.0
 14
2859.572514389802
 24
2987.000008031964
 34
0.0
 50
90.0
100
AcDbRotatedDimension
  0
LINE
  5
1A89F
330
1A864
100
AcDbEntity
  8
部品1
 48
50.0
100
AcDbLine
 10
1963.572514389801
 20
2051.000008031966
 30
0.0
 11
1963.572514389801
 21
1851.000008031966
 31
0.0
  0
LINE
  5
1A8A0
330
1A864
100
AcDbEntity
  8
センター
 48
5.0
100
AcDbLine
 10
1863.572514389801
 20
2096.000008031966
 30
0.0
 11
1863.572514389801
 21
1806.000008031966
 31
0.0
  0
LINE
  5
1A8A1
330
1A864
100
AcDbEntity
  8
部品1
 48
50.0
100
AcDbLine
 10
1763.572514389801
 20
1851.000008031966
 30
0.0
 11
1763.572514389801
 21
2051.000008031966
 31
0.0
  0
LINE
  5
1A8A2
330
1A864
100
AcDbEntity
  8
部品1
 48
50.0
100
AcDbLine
 10
1963.572514389801
 20
1851.000008031966
 30
0.0
 11
1763.572514389801
 21
1851.000008031966
 31
0.0
  0
LINE
  5
1A8A3
330
1A864
100
AcDbEntity
  8
センター
 48
5.0
100
AcDbLine
 10
2008.572514389801
 20
1951.000008031966
 30
0.0
 11
1718.572514389801
 21
1951.000008031966
 31
0.0
  0
LINE
  5
1A8A4
330
1A864
100
AcDbEntity
  8
部品1
 48
50.0
100
AcDbLine
 10
1763.572514389801
 20
2051.000008031966
 30
0.0
 11
1963.572514389801
 21
2051.000008031966
 31
0.0
  0
LINE
  5
1A8A5
330
1A864
100
AcDbEntity
  8
部品1
 48
50.0
100
AcDbLine
 10
2804.572514389802
 20
1851.000008031966
 30
0.0
 11
2804.572514389802
 21
2051.000008031966
 31
0.0
  0
LINE
  5
1A8A6
330
1A864
100
AcDbEntity
  8
部品1
 48
50.0
100
AcDbLine
 10
2604.572514389802
 20
2051.000008031966
 30
0.0
 11
2604.572514389802
 21
1851.000008031966
 31
0.0
  0
LINE
  5
1A8A7
330
1A864
100
AcDbEntity
  8
部品1
 48
50.0
100
AcDbLine
 10
2604.572514389802
 20
1851.000008031966
 30
0.0
 11
2804.572514389802
 21
1851.000008031966
 31
0.0
  0
LINE
  5
1A8A8
330
1A864
100
AcDbEntity
  8
部品1
 48
50.0
100
AcDbLine
 10
2804.572514389802
 20
2051.000008031966
 30
0.0
 11
2604.572514389802
 21
2051.000008031966
 31
0.0
  0
LINE
  5
1A8A9
330
1A864
100
AcDbEntity
  8
部品1
 48
50.0
100
AcDbLine
 10
2804.572514389802
 20
2692.000008031966
 30
0.0
 11
2404.572514389802
 21
2692.000008031966
 31
0.0
  0
LINE
  5
1A8AA
330
1A864
100
AcDbEntity
  8
部品1
 48
50.0
100
AcDbLine
 10
2804.572514389802
 20
2892.000008031966
 30
0.0
 11
2404.572514389802
 21
2892.000008031966
 31
0.0
  0
MTEXT
  5
1A8AB
102
{ACAD_REACTORS
330
1A8AC
102
}
330
1A864
100
AcDbEntity
  8
部品1
 62
     7
 48
50.0
100
AcDbMText
 10
3068.224583751624
 20
3288.773828207206
 30
0.0
 40
150.0
 41
0.0
 71
     6
 72
     1
  1
\A1;屋根の外寸
  7
STYLE1
 73
     1
 44
1.0
1001
ACAD
1000
MTEXTBEGIN
1070
    73
1070
     1
1070
    44
1040
1.0
1070
    74
1070
     0
1000
MTEXTEND
  0
LEADER
  5
1A8AC
330
1A864
100
AcDbEntity
  8
寸法
 48
50.0
100
AcDbLeader
  3
INABA_S50G
 73
     0
 74
     0
 75
     1
 40
150.0
 41
854.1421356237311
 76
     3
 10
1863.572514389802
 20
2987.000008031966
 30
0.0
 10
2064.082448127892
 20
3188.773828207206
 30
0.0
 10
2189.082448127892
 20
3188.773828207206
 30
0.0
340
1A8AB
1001
ACAD
1000
DSTYLE
1002
{
1070
   341
1005
0
1070
    40
1040
1.0
1070
   343
1005
0
1070
   344
1005
0
1002
}
  0
LINE
  5
1A8AD
330
1A864
100
AcDbEntity
  8
部品1
 48
50.0
100
AcDbLine
 10
1963.572514389801
 20
2892.000008031966
 30
0.0
 11
1963.572514389801
 21
2692.000008031966
 31
0.0
  0
LINE
  5
1A8AE
330
1A864
100
AcDbEntity
  8
部品1
 48
50.0
100
AcDbLine
 10
1763.572514389801
 20
2692.000008031966
 30
0.0
 11
1763.572514389801
 21
2892.000008031966
 31
0.0
  0
LINE
  5
1A8AF
330
1A864
100
AcDbEntity
  8
部品1
 48
50.0
100
AcDbLine
 10
1963.572514389801
 20
2692.000008031966
 30
0.0
 11
1763.572514389801
 21
2692.000008031966
 31
0.0
  0
LINE
  5
1A8B0
330
1A864
100
AcDbEntity
  8
部品1
 48
50.0
100
AcDbLine
 10
1763.572514389801
 20
2892.000008031966
 30
0.0
 11
1963.572514389801
 21
2892.000008031966
 31
0.0
  0
LINE
  5
1A8B1
330
1A864
100
AcDbEntity
  8
部品1
 48
50.0
100
AcDbLine
 10
2404.572514389802
 20
2692.000008031966
 30
0.0
 11
2404.572514389802
 21
2892.000008031966
 31
0.0
  0
LINE
  5
1A8B2
330
1A864
100
AcDbEntity
  8
センター
 48
5.0
100
AcDbLine
 10
2949.572514389802
 20
2892.000008031966
 30
0.0
 11
2659.572514389802
 21
2892.000008031966
 31
0.0
  0
LINE
  5
1A8B3
330
1A864
100
AcDbEntity
  8
部品1
 48
50.0
100
AcDbLine
 10
2804.572514389802
 20
2692.000008031966
 30
0.0
 11
2804.572514389802
 21
2892.000008031966
 31
0.0
  0
LINE
  5
1A8B4
330
1A864
100
AcDbEntity
  8
センター
 48
5.0
100
AcDbLine
 10
2804.572514389802
 20
3037.000008031966
 30
0.0
 11
2804.572514389802
 21
2747.000008031966
 31
0.0
  0
LINE
  5
1A8B5
330
1A864
100
AcDbEntity
  8
点線
 48
10.0
100
AcDbLine
 10
2704.572514389802
 20
2792.000008031966
 30
0.0
 11
2904.572514389802
 21
2792.000008031966
 31
0.0
  0
LINE
  5
1A8B6
330
1A864
100
AcDbEntity
  8
点線
 48
10.0
100
AcDbLine
 10
2704.572514389802
 20
2992.000008031966
 30
0.0
 11
2904.572514389802
 21
2992.000008031966
 31
0.0
  0
LINE
  5
1A8B7
330
1A864
100
AcDbEntity
  8
点線
 48
10.0
100
AcDbLine
 10
2704.572514389802
 20
2992.000008031966
 30
0.0
 11
2704.572514389802
 21
2792.000008031966
 31
0.0
  0
LINE
  5
1A8B8
330
1A864
100
AcDbEntity
  8
点線
 48
10.0
100
AcDbLine
 10
2904.572514389802
 20
2992.000008031966
 30
0.0
 11
2904.572514389802
 21
2792.000008031966
 31
0.0
  0
ENDBLK
  5
1A8BA
330
1A864
100
AcDbEntity
  8
0
 48
50.0
100
AcDbBlockEnd
  0
BLOCK
  5
1A91A
330
1A910
100
AcDbEntity
  8
0
 48
50.0
100
AcDbBlockBegin
  2
*D30
 70
     1
 10
0.0
 20
0.0
 30
0.0
  3
*D30
  1

  0
LINE
  5
1AA57
330
1A910
100
AcDbEntity
  8
寸法
 62
     0
 48
50.0
370
    -2
100
AcDbLine
 10
11390.5
 20
6915.974495452942
 30
0.0
 11
12150.5
 21
6915.974495452942
 31
0.0
  0
LINE
  5
1AA58
330
1A910
100
AcDbEntity
  8
寸法
 62
     0
 48
50.0
370
    -2
100
AcDbLine
 10
11390.5
 20
8797.974495452942
 30
0.0
 11
12150.5
 21
8797.974495452942
 31
0.0
  0
LINE
  5
1AA59
330
1A910
100
AcDbEntity
  8
寸法
 62
     0
 48
50.0
370
    -2
100
AcDbLine
 10
12075.5
 20
6915.974495452942
 30
0.0
 11
12075.5
 21
8797.974495452942
 31
0.0
  0
INSERT
  5
1AA5A
330
1A910
100
AcDbEntity
  8
寸法
 62
     0
 48
50.0
370
    -2
100
AcDbBlockReference
  2
_DOTSMALL
 10
12075.5
 20
6915.974495452942
 30
0.0
 41
125.0
 42
125.0
 43
125.0
 50
270.0
  0
INSERT
  5
1AA5B
330
1A910
100
AcDbEntity
  8
寸法
 62
     0
 48
50.0
370
    -2
100
AcDbBlockReference
  2
_DOTSMALL
 10
12075.5
 20
8797.974495452942
 30
0.0
 41
125.0
 42
125.0
 43
125.0
 50
90.0
  0
MTEXT
  5
1AA5C
330
1A910
100
AcDbEntity
  8
寸法
 62
     7
 48
50.0
100
AcDbMText
 10
11975.48523622047
 20
7856.974495452942
 30
0.0
 40
150.0
 41
0.0
 71
     5
 72
     1
  1
\A1;1882
  7
STYLE1
 11
0.0000000000000001
 21
1.0
 31
0.0
 73
     1
 44
1.0
1001
ACAD
1000
MTEXTBEGIN
1070
    73
1070
     1
1070
    44
1040
1.0
1070
    74
1070
     0
1000
MTEXTEND
  0
POINT
  5
1AA5D
330
1A910
100
AcDbEntity
  8
DEFPOINTS
 62
     0
 48
50.0
100
AcDbPoint
 10
11365.5
 20
6915.974495452942
 30
0.0
  0
POINT
  5
1AA5E
330
1A910
100
AcDbEntity
  8
DEFPOINTS
 62
     0
 48
50.0
100
AcDbPoint
 10
11365.5
 20
8797.974495452942
 30
0.0
  0
POINT
  5
1AA5F
330
1A910
100
AcDbEntity
  8
DEFPOINTS
 62
     0
 48
50.0
100
AcDbPoint
 10
12075.5
 20
8797.974495452942
 30
0.0
  0
ENDBLK
  5
1A91B
330
1A910
100
AcDbEntity
  8
0
 48
50.0
100
AcDbBlockEnd
  0
BLOCK
  5
1A925
330
1A91C
100
AcDbEntity
  8
0
 48
50.0
100
AcDbBlockBegin
  2
*D31
 70
     1
 10
0.0
 20
0.0
 30
0.0
  3
*D31
  1

  0
LINE
  5
1AA21
330
1A91C
100
AcDbEntity
  8
寸法
 62
     0
 48
50.0
370
    -2
100
AcDbLine
 10
9168.499999999999
 20
6915.974495452942
 30
0.0
 11
8508.500000000001
 21
6915.974495452942
 31
0.0
  0
LINE
  5
1AA22
330
1A91C
100
AcDbEntity
  8
寸法
 62
     0
 48
50.0
370
    -2
100
AcDbLine
 10
8583.5
 20
7856.974495452941
 30
0.0
 11
8583.5
 21
6915.974495452942
 31
0.0
  0
INSERT
  5
1AA23
330
1A91C
100
AcDbEntity
  8
寸法
 62
     0
 48
50.0
370
    -2
100
AcDbBlockReference
  2
_DOTSMALL
 10
8583.5
 20
7856.974495452941
 30
0.0
 41
125.0
 42
125.0
 43
125.0
 50
90.0
  0
INSERT
  5
1AA24
330
1A91C
100
AcDbEntity
  8
寸法
 62
     0
 48
50.0
370
    -2
100
AcDbBlockReference
  2
_DOTSMALL
 10
8583.5
 20
6915.974495452942
 30
0.0
 41
125.0
 42
125.0
 43
125.0
 50
270.0
  0
MTEXT
  5
1AA25
330
1A91C
100
AcDbEntity
  8
寸法
 62
     7
 48
50.0
100
AcDbMText
 10
8483.499999999997
 20
7386.474495452943
 30
0.0
 40
150.0
 41
0.0
 71
     5
 72
     1
  1
\A1;941
  7
STYLE1
 11
0.0000000000000001
 21
1.0
 31
0.0
 73
     1
 44
1.0
1001
ACAD
1000
MTEXTBEGIN
1070
    73
1070
     1
1070
    44
1040
1.0
1070
    74
1070
     0
1000
MTEXTEND
  0
POINT
  5
1AA26
330
1A91C
100
AcDbEntity
  8
DEFPOINTS
 62
     0
 48
50.0
100
AcDbPoint
 10
10134.5
 20
7856.974495452941
 30
0.0
  0
POINT
  5
1AA27
330
1A91C
100
AcDbEntity
  8
DEFPOINTS
 62
     0
 48
50.0
100
AcDbPoint
 10
9193.5
 20
6915.974495452942
 30
0.0
  0
POINT
  5
1AA28
330
1A91C
100
AcDbEntity
  8
DEFPOINTS
 62
     0
 48
50.0
100
AcDbPoint
 10
8583.5
 20
6915.974495452942
 30
0.0
  0
ENDBLK
  5
1A926
330
1A91C
100
AcDbEntity
  8
0
 48
50.0
100
AcDbBlockEnd
  0
BLOCK
  5
1A930
330
1A927
100
AcDbEntity
  8
0
 48
50.0
100
AcDbBlockBegin
  2
*D32
 70
     1
 10
0.0
 20
0.0
 30
0.0
  3
*D32
  1

  0
LINE
  5
1AA19
330
1A927
100
AcDbEntity
  8
寸法
 62
     0
 48
50.0
370
    -2
100
AcDbLine
 10
11220.5
 20
6745.974495452941
 30
0.0
 11
11220.5
 21
6305.974495452941
 31
0.0
  0
LINE
  5
1AA1A
330
1A927
100
AcDbEntity
  8
寸法
 62
     0
 48
50.0
370
    -2
100
AcDbLine
 10
10279.5
 20
6380.974495452941
 30
0.0
 11
11220.5
 21
6380.974495452941
 31
0.0
  0
INSERT
  5
1AA1B
330
1A927
100
AcDbEntity
  8
寸法
 62
     0
 48
50.0
370
    -2
100
AcDbBlockReference
  2
_DOTSMALL
 10
10279.5
 20
6380.974495452941
 30
0.0
 41
125.0
 42
125.0
 43
125.0
 50
180.0
  0
INSERT
  5
1AA1C
330
1A927
100
AcDbEntity
  8
寸法
 62
     0
 48
50.0
370
    -2
100
AcDbBlockReference
  2
_DOTSMALL
 10
11220.5
 20
6380.974495452941
 30
0.0
 41
125.0
 42
125.0
 43
125.0
  0
MTEXT
  5
1AA1D
330
1A927
100
AcDbEntity
  8
寸法
 62
     7
 48
50.0
100
AcDbMText
 10
10750.0
 20
6480.974495452942
 30
0.0
 40
150.0
 41
0.0
 71
     5
 72
     1
  1
\A1;941
  7
STYLE1
 73
     1
 44
1.0
1001
ACAD
1000
MTEXTBEGIN
1070
    73
1070
     1
1070
    44
1040
1.0
1070
    74
1070
     0
1000
MTEXTEND
  0
POINT
  5
1AA1E
330
1A927
100
AcDbEntity
  8
DEFPOINTS
 62
     0
 48
50.0
100
AcDbPoint
 10
10279.5
 20
7711.974495452942
 30
0.0
  0
POINT
  5
1AA1F
330
1A927
100
AcDbEntity
  8
DEFPOINTS
 62
     0
 48
50.0
100
AcDbPoint
 10
11220.5
 20
6770.974495452941
 30
0.0
  0
POINT
  5
1AA20
330
1A927
100
AcDbEntity
  8
DEFPOINTS
 62
     0
 48
50.0
100
AcDbPoint
 10
11220.5
 20
6380.974495452941
 30
0.0
  0
ENDBLK
  5
1A931
330
1A927
100
AcDbEntity
  8
0
 48
50.0
100
AcDbBlockEnd
  0
BLOCK
  5
1A948
330
1A93E
100
AcDbEntity
  8
0
 48
50.0
100
AcDbBlockBegin
  2
*D34
 70
     1
 10
0.0
 20
0.0
 30
0.0
  3
*D34
  1

  0
LINE
  5
1AA29
330
1A93E
100
AcDbEntity
  8
寸法
 62
     0
 48
50.0
370
    -2
100
AcDbLine
 10
9338.500000000001
 20
6745.974495452941
 30
0.0
 11
9338.500000000001
 21
6305.974495452941
 31
0.0
  0
LINE
  5
1AA2A
330
1A93E
100
AcDbEntity
  8
寸法
 62
     0
 48
50.0
370
    -2
100
AcDbLine
 10
10279.5
 20
6890.974495452941
 30
0.0
 11
10279.5
 21
6305.974495452941
 31
0.0
  0
LINE
  5
1AA2B
330
1A93E
100
AcDbEntity
  8
寸法
 62
     0
 48
50.0
370
    -2
100
AcDbLine
 10
9338.500000000001
 20
6380.974495452941
 30
0.0
 11
10279.5
 21
6380.974495452941
 31
0.0
  0
INSERT
  5
1AA2C
330
1A93E
100
AcDbEntity
  8
寸法
 62
     0
 48
50.0
370
    -2
100
AcDbBlockReference
  2
_DOTSMALL
 10
9338.500000000001
 20
6380.974495452941
 30
0.0
 41
125.0
 42
125.0
 43
125.0
 50
180.0
  0
INSERT
  5
1AA2D
330
1A93E
100
AcDbEntity
  8
寸法
 62
     0
 48
50.0
370
    -2
100
AcDbBlockReference
  2
_DOTSMALL
 10
10279.5
 20
6380.974495452941
 30
0.0
 41
125.0
 42
125.0
 43
125.0
  0
MTEXT
  5
1AA2E
330
1A93E
100
AcDbEntity
  8
寸法
 62
     7
 48
50.0
100
AcDbMText
 10
9809.0
 20
6480.974495452942
 30
0.0
 40
150.0
 41
0.0
 71
     5
 72
     1
  1
\A1;941
  7
STYLE1
 73
     1
 44
1.0
1001
ACAD
1000
MTEXTBEGIN
1070
    73
1070
     1
1070
    44
1040
1.0
1070
    74
1070
     0
1000
MTEXTEND
  0
POINT
  5
1AA2F
330
1A93E
100
AcDbEntity
  8
DEFPOINTS
 62
     0
 48
50.0
100
AcDbPoint
 10
9338.500000000001
 20
6770.974495452941
 30
0.0
  0
POINT
  5
1AA30
330
1A93E
100
AcDbEntity
  8
DEFPOINTS
 62
     0
 48
50.0
100
AcDbPoint
 10
10279.5
 20
6915.974495452942
 30
0.0
  0
POINT
  5
1AA31
330
1A93E
100
AcDbEntity
  8
DEFPOINTS
 62
     0
 48
50.0
100
AcDbPoint
 10
10279.5
 20
6380.974495452941
 30
0.0
  0
ENDBLK
  5
1A949
330
1A93E
100
AcDbEntity
  8
0
 48
50.0
100
AcDbBlockEnd
  0
BLOCK
  5
1A955
330
1A94A
100
AcDbEntity
  8
0
 48
50.0
100
AcDbBlockBegin
  2
*D35
 70
     1
 10
0.0
 20
0.0
 30
0.0
  3
*D35
  1

  0
LINE
  5
1AA32
330
1A94A
100
AcDbEntity
  8
寸法
 62
     0
 48
50.0
370
    -2
100
AcDbLine
 10
9283.500000000001
 20
6755.974495452942
 30
0.0
 11
9283.500000000001
 21
5905.974495452941
 31
0.0
  0
LINE
  5
1AA33
330
1A94A
100
AcDbEntity
  8
寸法
 62
     0
 48
50.0
370
    -2
100
AcDbLine
 10
9338.500000000001
 20
6745.974495452941
 30
0.0
 11
9338.500000000001
 21
5905.974495452941
 31
0.0
  0
LINE
  5
1AA34
330
1A94A
100
AcDbEntity
  8
寸法
 62
     0
 48
50.0
370
    -2
100
AcDbLine
 10
9338.500000000001
 20
5980.974495452941
 30
0.0
 11
9283.500000000001
 21
5980.974495452941
 31
0.0
  0
LINE
  5
1AA35
330
1A94A
100
AcDbEntity
  8
寸法
 62
     0
 48
50.0
370
    -2
100
AcDbLine
 10
9283.500000000001
 20
5980.974495452941
 30
0.0
 11
8823.618110236221
 21
5980.974495452941
 31
0.0
  0
INSERT
  5
1AA36
330
1A94A
100
AcDbEntity
  8
寸法
 62
     0
 48
50.0
370
    -2
100
AcDbBlockReference
  2
_DOTSMALL
 10
9338.500000000001
 20
5980.974495452941
 30
0.0
 41
125.0
 42
125.0
 43
125.0
  0
INSERT
  5
1AA37
330
1A94A
100
AcDbEntity
  8
寸法
 62
     0
 48
50.0
370
    -2
100
AcDbBlockReference
  2
_DOTSMALL
 10
9283.500000000001
 20
5980.974495452941
 30
0.0
 41
125.0
 42
125.0
 43
125.0
 50
180.0
  0
MTEXT
  5
1AA38
330
1A94A
100
AcDbEntity
  8
寸法
 62
     7
 48
50.0
100
AcDbMText
 10
8991.05905511811
 20
6088.474495452942
 30
0.0
 40
150.0
 41
0.0
 71
     5
 72
     1
  1
\A1;(55)
  7
STYLE1
 73
     1
 44
1.0
1001
ACAD
1000
MTEXTBEGIN
1070
    73
1070
     1
1070
    44
1040
1.0
1070
    74
1070
     0
1000
MTEXTEND
  0
POINT
  5
1AA39
330
1A94A
100
AcDbEntity
  8
DEFPOINTS
 62
     0
 48
50.0
100
AcDbPoint
 10
9283.500000000001
 20
6780.974495452942
 30
0.0
  0
POINT
  5
1AA3A
330
1A94A
100
AcDbEntity
  8
DEFPOINTS
 62
     0
 48
50.0
100
AcDbPoint
 10
9338.500000000001
 20
6770.974495452941
 30
0.0
  0
POINT
  5
1AA3B
330
1A94A
100
AcDbEntity
  8
DEFPOINTS
 62
     0
 48
50.0
100
AcDbPoint
 10
9338.500000000001
 20
5980.974495452941
 30
0.0
  0
ENDBLK
  5
1A956
330
1A94A
100
AcDbEntity
  8
0
 48
50.0
100
AcDbBlockEnd
  0
BLOCK
  5
1A962
330
1A957
100
AcDbEntity
  8
0
 48
50.0
100
AcDbBlockBegin
  2
*D36
 70
     1
 10
0.0
 20
0.0
 30
0.0
  3
*D36
  1

  0
LINE
  5
1AA6A
330
1A957
100
AcDbEntity
  8
寸法
 62
     0
 48
50.0
370
    -2
100
AcDbLine
 10
11390.5
 20
6915.974495452942
 30
0.0
 11
12150.5
 21
6915.974495452942
 31
0.0
  0
LINE
  5
1AA6B
330
1A957
100
AcDbEntity
  8
寸法
 62
     0
 48
50.0
370
    -2
100
AcDbLine
 10
11300.5
 20
6780.974495452942
 30
0.0
 11
12150.5
 21
6780.974495452942
 31
0.0
  0
LINE
  5
1AA6C
330
1A957
100
AcDbEntity
  8
寸法
 62
     0
 48
50.0
370
    -2
100
AcDbLine
 10
12075.5
 20
6915.974495452942
 30
0.0
 11
12075.5
 21
6780.974495452942
 31
0.0
  0
LINE
  5
1AA6D
330
1A957
100
AcDbEntity
  8
寸法
 62
     0
 48
50.0
370
    -2
100
AcDbLine
 10
12075.5
 20
6780.974495452942
 30
0.0
 11
12075.5
 21
6246.09260568916
 31
0.0
  0
INSERT
  5
1AA6E
330
1A957
100
AcDbEntity
  8
寸法
 62
     0
 48
50.0
370
    -2
100
AcDbBlockReference
  2
_DOTSMALL
 10
12075.5
 20
6915.974495452942
 30
0.0
 41
125.0
 42
125.0
 43
125.0
 50
90.0
  0
INSERT
  5
1AA6F
330
1A957
100
AcDbEntity
  8
寸法
 62
     0
 48
50.0
370
    -2
100
AcDbBlockReference
  2
_DOTSMALL
 10
12075.5
 20
6780.974495452942
 30
0.0
 41
125.0
 42
125.0
 43
125.0
 50
270.0
  0
MTEXT
  5
1AA70
330
1A957
100
AcDbEntity
  8
寸法
 62
     7
 48
50.0
100
AcDbMText
 10
11968.0
 20
6451.033550571051
 30
0.0
 40
150.0
 41
0.0
 71
     5
 72
     1
  1
\A1;(135)
  7
STYLE1
 11
0.0000000000000001
 21
1.0
 31
0.0
 73
     1
 44
1.0
1001
ACAD
1000
MTEXTBEGIN
1070
    73
1070
     1
1070
    44
1040
1.0
1070
    74
1070
     0
1000
MTEXTEND
  0
POINT
  5
1AA71
330
1A957
100
AcDbEntity
  8
DEFPOINTS
 62
     0
 48
50.0
100
AcDbPoint
 10
11365.5
 20
6915.974495452942
 30
0.0
  0
POINT
  5
1AA72
330
1A957
100
AcDbEntity
  8
DEFPOINTS
 62
     0
 48
50.0
100
AcDbPoint
 10
11275.5
 20
6780.974495452942
 30
0.0
  0
POINT
  5
1AA73
330
1A957
100
AcDbEntity
  8
DEFPOINTS
 62
     0
 48
50.0
100
AcDbPoint
 10
12075.5
 20
6780.974495452942
 30
0.0
  0
ENDBLK
  5
1A963
330
1A957
100
AcDbEntity
  8
0
 48
50.0
100
AcDbBlockEnd
  0
BLOCK
  5
1A96F
330
1A964
100
AcDbEntity
  8
0
 48
50.0
100
AcDbBlockBegin
  2
*D37
 70
     1
 10
0.0
 20
0.0
 30
0.0
  3
*D37
  1

  0
LINE
  5
1AA60
330
1A964
100
AcDbEntity
  8
寸法
 62
     0
 48
50.0
370
    -2
100
AcDbLine
 10
11220.5
 20
6745.974495452941
 30
0.0
 11
11220.5
 21
5905.974495452941
 31
0.0
  0
LINE
  5
1AA61
330
1A964
100
AcDbEntity
  8
寸法
 62
     0
 48
50.0
370
    -2
100
AcDbLine
 10
11275.5
 20
6755.974495452942
 30
0.0
 11
11275.5
 21
5905.974495452941
 31
0.0
  0
LINE
  5
1AA62
330
1A964
100
AcDbEntity
  8
寸法
 62
     0
 48
50.0
370
    -2
100
AcDbLine
 10
11220.5
 20
5980.974495452941
 30
0.0
 11
11275.5
 21
5980.974495452941
 31
0.0
  0
LINE
  5
1AA63
330
1A964
100
AcDbEntity
  8
寸法
 62
     0
 48
50.0
370
    -2
100
AcDbLine
 10
11275.5
 20
5980.974495452941
 30
0.0
 11
11735.38188976378
 21
5980.974495452941
 31
0.0
  0
INSERT
  5
1AA64
330
1A964
100
AcDbEntity
  8
寸法
 62
     0
 48
50.0
370
    -2
100
AcDbBlockReference
  2
_DOTSMALL
 10
11220.5
 20
5980.974495452941
 30
0.0
 41
125.0
 42
125.0
 43
125.0
 50
180.0
  0
INSERT
  5
1AA65
330
1A964
100
AcDbEntity
  8
寸法
 62
     0
 48
50.0
370
    -2
100
AcDbBlockReference
  2
_DOTSMALL
 10
11275.5
 20
5980.974495452941
 30
0.0
 41
125.0
 42
125.0
 43
125.0
  0
MTEXT
  5
1AA66
330
1A964
100
AcDbEntity
  8
寸法
 62
     7
 48
50.0
100
AcDbMText
 10
11567.94094488189
 20
6088.474495452942
 30
0.0
 40
150.0
 41
0.0
 71
     5
 72
     1
  1
\A1;(55)
  7
STYLE1
 73
     1
 44
1.0
1001
ACAD
1000
MTEXTBEGIN
1070
    73
1070
     1
1070
    44
1040
1.0
1070
    74
1070
     0
1000
MTEXTEND
  0
POINT
  5
1AA67
330
1A964
100
AcDbEntity
  8
DEFPOINTS
 62
     0
 48
50.0
100
AcDbPoint
 10
11220.5
 20
6770.974495452941
 30
0.0
  0
POINT
  5
1AA68
330
1A964
100
AcDbEntity
  8
DEFPOINTS
 62
     0
 48
50.0
100
AcDbPoint
 10
11275.5
 20
6780.974495452942
 30
0.0
  0
POINT
  5
1AA69
330
1A964
100
AcDbEntity
  8
DEFPOINTS
 62
     0
 48
50.0
100
AcDbPoint
 10
11275.5
 20
5980.974495452941
 30
0.0
  0
ENDBLK
  5
1A970
330
1A964
100
AcDbEntity
  8
0
 48
50.0
100
AcDbBlockEnd
  0
BLOCK
  5
1A97B
330
1A971
100
AcDbEntity
  8
0
 48
50.0
100
AcDbBlockBegin
  2
*D38
 70
     1
 10
0.0
 20
0.0
 30
0.0
  3
*D38
  1

  0
LINE
  5
1AA3C
330
1A971
100
AcDbEntity
  8
寸法
 62
     0
 48
50.0
370
    -2
100
AcDbLine
 10
8808.5
 20
8797.974495452942
 30
0.0
 11
8508.500000000001
 21
8797.974495452942
 31
0.0
  0
LINE
  5
1AA3D
330
1A971
100
AcDbEntity
  8
寸法
 62
     0
 48
50.0
370
    -2
100
AcDbLine
 10
9313.500000000001
 20
7856.974495452941
 30
0.0
 11
8508.500000000001
 21
7856.974495452941
 31
0.0
  0
LINE
  5
1AA3E
330
1A971
100
AcDbEntity
  8
寸法
 62
     0
 48
50.0
370
    -2
100
AcDbLine
 10
8583.5
 20
8797.974495452942
 30
0.0
 11
8583.5
 21
7856.974495452941
 31
0.0
  0
INSERT
  5
1AA3F
330
1A971
100
AcDbEntity
  8
寸法
 62
     0
 48
50.0
370
    -2
100
AcDbBlockReference
  2
_DOTSMALL
 10
8583.5
 20
8797.974495452942
 30
0.0
 41
125.0
 42
125.0
 43
125.0
 50
90.0
  0
INSERT
  5
1AA40
330
1A971
100
AcDbEntity
  8
寸法
 62
     0
 48
50.0
370
    -2
100
AcDbBlockReference
  2
_DOTSMALL
 10
8583.5
 20
7856.974495452941
 30
0.0
 41
125.0
 42
125.0
 43
125.0
 50
270.0
  0
MTEXT
  5
1AA41
330
1A971
100
AcDbEntity
  8
寸法
 62
     7
 48
50.0
100
AcDbMText
 10
8483.499999999997
 20
8327.474495452944
 30
0.0
 40
150.0
 41
0.0
 71
     5
 72
     1
  1
\A1;941
  7
STYLE1
 11
0.0000000000000001
 21
1.0
 31
0.0
 73
     1
 44
1.0
1001
ACAD
1000
MTEXTBEGIN
1070
    73
1070
     1
1070
    44
1040
1.0
1070
    74
1070
     0
1000
MTEXTEND
  0
POINT
  5
1AA42
330
1A971
100
AcDbEntity
  8
DEFPOINTS
 62
     0
 48
50.0
100
AcDbPoint
 10
8833.5
 20
8797.974495452942
 30
0.0
  0
POINT
  5
1AA43
330
1A971
100
AcDbEntity
  8
DEFPOINTS
 62
     0
 48
50.0
100
AcDbPoint
 10
9338.500000000001
 20
7856.974495452941
 30
0.0
  0
POINT
  5
1AA44
330
1A971
100
AcDbEntity
  8
DEFPOINTS
 62
     0
 48
50.0
100
AcDbPoint
 10
8583.5
 20
7856.974495452941
 30
0.0
  0
ENDBLK
  5
1A97C
330
1A971
100
AcDbEntity
  8
0
 48
50.0
100
AcDbBlockEnd
  0
BLOCK
  5
1A987
330
1A97D
100
AcDbEntity
  8
0
 48
50.0
100
AcDbBlockBegin
  2
*D39
 70
     1
 10
0.0
 20
0.0
 30
0.0
  3
*D39
  1

  0
LINE
  5
1AA45
330
1A97D
100
AcDbEntity
  8
寸法
 62
     0
 48
50.0
370
    -2
100
AcDbLine
 10
9438.500000000001
 20
8922.974495452942
 30
0.0
 11
9438.500000000001
 21
9267.974495452941
 31
0.0
  0
LINE
  5
1AA46
330
1A97D
100
AcDbEntity
  8
寸法
 62
     0
 48
50.0
370
    -2
100
AcDbLine
 10
9238.5
 20
8922.974495452944
 30
0.0
 11
9238.5
 21
9267.974495452941
 31
0.0
  0
LINE
  5
1AA47
330
1A97D
100
AcDbEntity
  8
寸法
 62
     0
 48
50.0
370
    -2
100
AcDbLine
 10
9438.500000000001
 20
9192.974495452942
 30
0.0
 11
9238.5
 21
9192.974495452942
 31
0.0
  0
INSERT
  5
1AA48
330
1A97D
100
AcDbEntity
  8
寸法
 62
     0
 48
50.0
370
    -2
100
AcDbBlockReference
  2
_DOTSMALL
 10
9438.500000000001
 20
9192.974495452942
 30
0.0
 41
125.0
 42
125.0
 43
125.0
  0
INSERT
  5
1AA49
330
1A97D
100
AcDbEntity
  8
寸法
 62
     0
 48
50.0
370
    -2
100
AcDbBlockReference
  2
_DOTSMALL
 10
9238.5
 20
9192.974495452942
 30
0.0
 41
125.0
 42
125.0
 43
125.0
 50
180.0
  0
MTEXT
  5
1AA4A
330
1A97D
100
AcDbEntity
  8
寸法
 62
     7
 48
50.0
100
AcDbMText
 10
9338.500000000001
 20
9292.989259232468
 30
0.0
 40
150.0
 41
0.0
 71
     5
 72
     1
  1
\A1;200
  7
STYLE1
 73
     1
 44
1.0
1001
ACAD
1000
MTEXTBEGIN
1070
    73
1070
     1
1070
    44
1040
1.0
1070
    74
1070
     0
1000
MTEXTEND
  0
POINT
  5
1AA4B
330
1A97D
100
AcDbEntity
  8
DEFPOINTS
 62
     0
 48
50.0
100
AcDbPoint
 10
9438.500000000001
 20
8897.974495452942
 30
0.0
  0
POINT
  5
1AA4C
330
1A97D
100
AcDbEntity
  8
DEFPOINTS
 62
     0
 48
50.0
100
AcDbPoint
 10
9238.5
 20
8897.974495452944
 30
0.0
  0
POINT
  5
1AA4D
330
1A97D
100
AcDbEntity
  8
DEFPOINTS
 62
     0
 48
50.0
100
AcDbPoint
 10
9238.5
 20
9192.974495452942
 30
0.0
  0
ENDBLK
  5
1A988
330
1A97D
100
AcDbEntity
  8
0
 48
50.0
100
AcDbBlockEnd
  0
BLOCK
  5
1A993
330
1A989
100
AcDbEntity
  8
0
 48
50.0
100
AcDbBlockBegin
  2
*D40
 70
     1
 10
0.0
 20
0.0
 30
0.0
  3
*D40
  1

  0
LINE
  5
1AA4E
330
1A989
100
AcDbEntity
  8
寸法
 62
     0
 48
50.0
370
    -2
100
AcDbLine
 10
9213.500000000001
 20
8897.974495452942
 30
0.0
 11
8908.500000000001
 21
8897.974495452942
 31
0.0
  0
LINE
  5
1AA4F
330
1A989
100
AcDbEntity
  8
寸法
 62
     0
 48
50.0
370
    -2
100
AcDbLine
 10
9213.500000000001
 20
8697.974495452942
 30
0.0
 11
8908.500000000001
 21
8697.974495452942
 31
0.0
  0
LINE
  5
1AA50
330
1A989
100
AcDbEntity
  8
寸法
 62
     0
 48
50.0
370
    -2
100
AcDbLine
 10
8983.500000000002
 20
8897.974495452942
 30
0.0
 11
8983.500000000002
 21
8697.974495452942
 31
0.0
  0
INSERT
  5
1AA51
330
1A989
100
AcDbEntity
  8
寸法
 62
     0
 48
50.0
370
    -2
100
AcDbBlockReference
  2
_DOTSMALL
 10
8983.500000000002
 20
8897.974495452942
 30
0.0
 41
125.0
 42
125.0
 43
125.0
 50
90.0
  0
INSERT
  5
1AA52
330
1A989
100
AcDbEntity
  8
寸法
 62
     0
 48
50.0
370
    -2
100
AcDbBlockReference
  2
_DOTSMALL
 10
8983.500000000002
 20
8697.974495452942
 30
0.0
 41
125.0
 42
125.0
 43
125.0
 50
270.0
  0
MTEXT
  5
1AA53
330
1A989
100
AcDbEntity
  8
寸法
 62
     7
 48
50.0
100
AcDbMText
 10
8883.485236220472
 20
8797.974495452944
 30
0.0
 40
150.0
 41
0.0
 71
     5
 72
     1
  1
\A1;200
  7
STYLE1
 11
0.0000000000000001
 21
1.0
 31
0.0
 73
     1
 44
1.0
1001
ACAD
1000
MTEXTBEGIN
1070
    73
1070
     1
1070
    44
1040
1.0
1070
    74
1070
     0
1000
MTEXTEND
  0
POINT
  5
1AA54
330
1A989
100
AcDbEntity
  8
DEFPOINTS
 62
     0
 48
50.0
100
AcDbPoint
 10
9238.5
 20
8897.974495452942
 30
0.0
  0
POINT
  5
1AA55
330
1A989
100
AcDbEntity
  8
DEFPOINTS
 62
     0
 48
50.0
100
AcDbPoint
 10
9238.5
 20
8697.974495452942
 30
0.0
  0
POINT
  5
1AA56
330
1A989
100
AcDbEntity
  8
DEFPOINTS
 62
     0
 48
50.0
100
AcDbPoint
 10
8983.500000000002
 20
8697.974495452942
 30
0.0
  0
ENDBLK
  5
1A994
330
1A989
100
AcDbEntity
  8
0
 48
50.0
100
AcDbBlockEnd
  0
BLOCK
  5
1A9A0
330
1A995
100
AcDbEntity
  8
0
 48
50.0
100
AcDbBlockBegin
  2
*D41
 70
     1
 10
0.0
 20
0.0
 30
0.0
  3
*D41
  1

  0
LINE
  5
1AA74
330
1A995
100
AcDbEntity
  8
寸法
 62
     0
 48
50.0
370
    -2
100
AcDbLine
 10
11390.5
 20
8797.974495452942
 30
0.0
 11
12150.5
 21
8797.974495452942
 31
0.0
  0
LINE
  5
1AA75
330
1A995
100
AcDbEntity
  8
寸法
 62
     0
 48
50.0
370
    -2
100
AcDbLine
 10
11300.5
 20
8892.974495452939
 30
0.0
 11
12150.5
 21
8892.974495452939
 31
0.0
  0
LINE
  5
1AA76
330
1A995
100
AcDbEntity
  8
寸法
 62
     0
 48
50.0
370
    -2
100
AcDbLine
 10
12075.5
 20
8797.974495452942
 30
0.0
 11
12075.5
 21
8892.974495452939
 31
0.0
  0
LINE
  5
1AA77
330
1A995
100
AcDbEntity
  8
寸法
 62
     0
 48
50.0
370
    -2
100
AcDbLine
 10
12075.5
 20
8892.974495452939
 30
0.0
 11
12075.5
 21
9353.38053479086
 31
0.0
  0
INSERT
  5
1AA78
330
1A995
100
AcDbEntity
  8
寸法
 62
     0
 48
50.0
370
    -2
100
AcDbBlockReference
  2
_DOTSMALL
 10
12075.5
 20
8797.974495452942
 30
0.0
 41
125.0
 42
125.0
 43
125.0
 50
270.0
  0
INSERT
  5
1AA79
330
1A995
100
AcDbEntity
  8
寸法
 62
     0
 48
50.0
370
    -2
100
AcDbBlockReference
  2
_DOTSMALL
 10
12075.5
 20
8892.974495452939
 30
0.0
 41
125.0
 42
125.0
 43
125.0
 50
90.0
  0
MTEXT
  5
1AA7A
330
1A995
100
AcDbEntity
  8
寸法
 62
     7
 48
50.0
100
AcDbMText
 10
11967.96374807352
 20
9185.677515121902
 30
0.0
 40
150.0
 41
0.0
 71
     5
 72
     1
  1
\A1;(95)
  7
STYLE1
 11
0.0000000000000001
 21
1.0
 31
0.0
 73
     1
 44
1.0
1001
ACAD
1000
MTEXTBEGIN
1070
    73
1070
     1
1070
    44
1040
1.0
1070
    74
1070
     0
1000
MTEXTEND
  0
POINT
  5
1AA7B
330
1A995
100
AcDbEntity
  8
DEFPOINTS
 62
     0
 48
50.0
100
AcDbPoint
 10
11365.5
 20
8797.974495452942
 30
0.0
  0
POINT
  5
1AA7C
330
1A995
100
AcDbEntity
  8
DEFPOINTS
 62
     0
 48
50.0
100
AcDbPoint
 10
11275.5
 20
8892.974495452939
 30
0.0
  0
POINT
  5
1AA7D
330
1A995
100
AcDbEntity
  8
DEFPOINTS
 62
     0
 48
50.0
100
AcDbPoint
 10
12075.5
 20
8892.974495452939
 30
0.0
  0
ENDBLK
  5
1A9A1
330
1A995
100
AcDbEntity
  8
0
 48
50.0
100
AcDbBlockEnd
  0
ENDSEC
  0
SECTION
  2
ENTITIES
  0
LINE
  5
10B56
330
747D
100
AcDbEntity
  8
補助
  6
PHANTOM
 62
   230
 48
50.0
100
AcDbLine
 10
175.0
 20
0.0
 30
0.0
 11
174.9999999999993
 21
14262.0
 31
0.0
  0
LINE
  5
10B57
330
747D
100
AcDbEntity
  8
補助
  6
PHANTOM
 62
   230
 48
50.0
100
AcDbLine
 10
174.9999999999993
 20
14262.0
 30
0.0
 11
20384.0
 21
14262.0
 31
0.0
  0
LINE
  5
10B59
330
747D
100
AcDbEntity
  8
仕様書枠
  6
Continuous
 48
50.0
100
AcDbLine
 10
16384.0
 20
1500.0
 30
0.0
 11
16384.0
 21
-0.0000000000000912
 31
0.0
  0
LINE
  5
10B5C
330
747D
100
AcDbEntity
  8
仕様書枠
 48
50.0
100
AcDbLine
 10
20384.0
 20
1500.0
 30
0.0
 11
20384.0
 21
-0.0000000000001137
 31
0.0
  0
LINE
  5
10B5D
330
747D
100
AcDbEntity
  8
仕様書枠
 48
50.0
100
AcDbLine
 10
175.0
 20
0.0
 30
0.0
 11
20384.0
 21
-0.0000000000001137
 31
0.0
  0
LINE
  5
10B5E
330
747D
100
AcDbEntity
  8
補助
  6
PHANTOM
 62
   230
 48
50.0
100
AcDbLine
 10
20384.0
 20
14262.0
 30
0.0
 11
20384.0
 21
1500.0
 31
0.0
  0
LINE
  5
10B6C
330
747D
100
AcDbEntity
  8
仕様書枠
 48
50.0
100
AcDbLine
 10
16384.0
 20
1500.0
 30
0.0
 11
20384.0
 21
1500.0
 31
0.0
  0
LINE
  5
10B72
330
747D
100
AcDbEntity
  8
仕様書枠
 62
     7
 48
50.0
100
AcDbLine
 10
16484.0
 20
500.0
 30
0.0
 11
20284.0
 21
500.0
 31
0.0
  0
TEXT
  5
10B73
330
747D
100
AcDbEntity
  8
仕様書枠
 62
     7
 48
50.0
100
AcDbText
 10
16453.72382072112
 20
1118.863259287425
 30
0.0
 40
250.0
  1
基 礎 図
  7
STYLE2
100
AcDbText
  0
LINE
  5
10B7B
330
747D
100
AcDbEntity
  8
仕様書枠
 48
50.0
100
AcDbLine
 10
16384.0
 20
1000.0
 30
0.0
 11
17814.0
 21
1000.0
 31
0.0
  0
LINE
  5
10B88
330
747D
100
AcDbEntity
  8
仕様書枠
  6
Continuous
 48
50.0
100
AcDbLine
 10
17814.0
 20
1500.0
 30
0.0
 11
17814.0
 21
1000.0
 31
0.0
  0
TEXT
  5
17A34
330
747D
100
AcDbEntity
  8
文字
 62
     7
 48
50.0
100
AcDbText
 10
16511.7566802715
 20
202.8024588414046
 30
0.0
 40
100.0
  1
※寒冷地等は、地域の実情に合わせた基礎にしてください。
  7
STYLE2
100
AcDbText
  0
TEXT
  5
1842D
330
747D
100
AcDbEntity
  8
部品1
100
AcDbText
 10
9105.140306504869
 20
3075.560085060716
 30
0.0
 40
150.0
  1
基礎詳細
  7
STYLE2
100
AcDbText
  0
LINE
  5
1842E
330
747D
100
AcDbEntity
  8
部品1
100
AcDbLine
 10
9179.958081459927
 20
1449.37366126983
 30
0.0
 11
9779.958081459929
 21
1449.373661269833
 31
0.0
  0
LINE
  5
1842F
330
747D
100
AcDbEntity
  8
部品1
100
AcDbLine
 10
9179.958081459927
 20
1649.373661269831
 30
0.0
 11
9779.958081459929
 21
1649.373661269834
 31
0.0
  0
LINE
  5
18430
330
747D
100
AcDbEntity
  8
部品1
100
AcDbLine
 10
9279.958081459929
 20
1949.373661269834
 30
0.0
 11
9679.958081459927
 21
1949.373661269834
 31
0.0
  0
LINE
  5
18431
330
747D
100
AcDbEntity
  8
Ｇ．Ｌ
100
AcDbLine
 10
8979.958081459928
 20
1749.373661269834
 30
0.0
 11
10348.49646559132
 21
1749.373661269834
 31
0.0
  0
LINE
  5
18432
330
747D
100
AcDbEntity
  8
細線
100
AcDbLine
 10
9626.000289299085
 20
1749.373661269834
 30
0.0
 11
9426.000289299086
 21
1949.373661269834
 31
0.0
  0
LINE
  5
18433
330
747D
100
AcDbEntity
  8
部品1
100
AcDbLine
 10
8523.140280248865
 20
600.0
 30
0.0
 11
8523.140280248865
 21
3300.0
 31
0.0
  0
LINE
  5
18434
330
747D
100
AcDbEntity
  8
細線
100
AcDbLine
 10
9420.150460324594
 20
1499.373661269834
 30
0.0
 11
9406.753000703039
 21
1449.373661269833
 31
0.0
  0
LINE
  5
18435
330
747D
100
AcDbEntity
  8
細線
100
AcDbLine
 10
9320.150460324596
 20
1499.373661269831
 30
0.0
 11
9306.753000703038
 21
1449.37366126983
 31
0.0
  0
LINE
  5
18436
330
747D
100
AcDbEntity
  8
細線
100
AcDbLine
 10
9379.958081459927
 20
1649.373661269834
 30
0.0
 11
9433.54791994615
 21
1449.37366126983
 31
0.0
  0
LINE
  5
18437
330
747D
100
AcDbEntity
  8
細線
100
AcDbLine
 10
9279.958081459929
 20
1649.373661269831
 30
0.0
 11
9333.54791994615
 21
1449.373661269827
 31
0.0
  0
LINE
  5
18438
330
747D
100
AcDbEntity
  8
細線
100
AcDbLine
 10
9220.150460324594
 20
1499.373661269831
 30
0.0
 11
9206.753000703038
 21
1449.37366126983
 31
0.0
  0
LINE
  5
18439
330
747D
100
AcDbEntity
  8
細線
100
AcDbLine
 10
9179.958081459927
 20
1649.373661269831
 30
0.0
 11
9233.547919946152
 21
1449.373661269827
 31
0.0
  0
LINE
  5
1843A
330
747D
100
AcDbEntity
  8
部品1
100
AcDbLine
 10
9179.958081459927
 20
1449.37366126983
 30
0.0
 11
9179.958081459927
 21
1749.373661269834
 31
0.0
  0
LINE
  5
1843B
330
747D
100
AcDbEntity
  8
細線
100
AcDbLine
 10
9206.753000703038
 20
1649.373661269831
 30
0.0
 11
9193.355541081485
 21
1599.37366126983
 31
0.0
  0
LINE
  5
1843C
330
747D
100
AcDbEntity
  8
細線
100
AcDbLine
 10
9442.15252619058
 20
1749.373661269834
 30
0.0
 11
9279.958081459929
 21
1911.568106000487
 31
0.0
  0
LINE
  5
1843D
330
747D
100
AcDbEntity
  8
部品1
100
AcDbLine
 10
9279.958081459929
 20
1749.373661269834
 30
0.0
 11
9279.958081459929
 21
1949.373661269834
 31
0.0
  0
LINE
  5
1843E
330
747D
100
AcDbEntity
  8
細線
100
AcDbLine
 10
9399.726119319387
 20
1749.373661269834
 30
0.0
 11
9279.958081459929
 21
1869.141699129295
 31
0.0
  0
LINE
  5
1843F
330
747D
100
AcDbEntity
  8
細線
100
AcDbLine
 10
9406.753000703039
 20
1649.373661269834
 30
0.0
 11
9393.355541081483
 21
1599.373661269834
 31
0.0
  0
LINE
  5
18440
330
747D
100
AcDbEntity
  8
細線
100
AcDbLine
 10
9306.753000703038
 20
1649.373661269831
 30
0.0
 11
9293.355541081483
 21
1599.37366126983
 31
0.0
  0
LINE
  5
18441
330
747D
100
AcDbEntity
  8
細線
100
AcDbLine
 10
9278.855111167956
 20
1649.373661269834
 30
0.0
 11
9378.855111167954
 21
1749.373661269834
 31
0.0
  0
LINE
  5
18442
330
747D
100
AcDbEntity
  8
細線
100
AcDbLine
 10
9307.139382415419
 20
1649.373661269832
 30
0.0
 11
9407.139382415413
 21
1749.373661269834
 31
0.0
  0
LINE
  5
18443
330
747D
100
AcDbEntity
  8
細線
100
AcDbLine
 10
9250.570839920492
 20
1649.373661269831
 30
0.0
 11
9350.570839920491
 21
1749.373661269834
 31
0.0
  0
DIMENSION
  5
18444
330
747D
100
AcDbEntity
  8
寸法
 48
50.0
100
AcDbDimension
  2
*D2
 10
11227.63278895946
 20
1749.373661269834
 30
0.0
 11
11227.63278895946
 21
2236.337243947
 31
0.0
 70
   160
  1
100
 71
     5
 42
200.0000000000004
  3
INABA_S50G
100
AcDbAlignedDimension
 13
11509.39475613862
 23
1949.373661269835
 33
0.0
 14
11291.94243205221
 24
1749.373661269834
 34
0.0
 50
90.0
100
AcDbRotatedDimension
  0
LINE
  5
18445
330
747D
100
AcDbEntity
  8
部品1
100
AcDbLine
 10
12523.14028024887
 20
3000.0
 30
0.0
 11
8523.140280248865
 21
3000.0
 31
0.0
  0
LINE
  5
18446
330
747D
100
AcDbEntity
  8
部品1
100
AcDbLine
 10
8523.140280248865
 20
600.0
 30
0.0
 11
12523.14028024887
 21
600.0
 31
0.0
  0
LINE
  5
18447
330
747D
100
AcDbEntity
  8
Ｇ．Ｌ
100
AcDbLine
 10
10593.35381757188
 20
1749.373661269834
 30
0.0
 11
11291.94243205221
 21
1749.373661269834
 31
0.0
  0
DIMENSION
  5
18448
330
747D
100
AcDbEntity
  8
寸法
 48
50.0
100
AcDbDimension
  2
*D1
 10
11226.98406953108
 20
1349.373661269834
 30
0.0
 11
11226.98406953108
 21
1549.373661269835
 31
0.0
 70
   160
  1
200
 71
     5
 42
400.0
  3
INABA_S50G
100
AcDbAlignedDimension
 13
11291.94243205221
 23
1749.373661269834
 33
0.0
 14
11702.1147711078
 24
1349.373661269834
 34
0.0
 50
90.0
100
AcDbRotatedDimension
1001
ACAD
1000
DSTYLE
1002
{
1070
    40
1040
1.0
1002
}
  0
TEXT
  5
18449
330
747D
100
AcDbEntity
  8
部品1
100
AcDbText
 10
10782.72008497629
 20
3067.579768253418
 30
0.0
 40
150.0
  1
アンカー部詳細
  7
STYLE2
100
AcDbText
  0
LINE
  5
1844A
330
747D
100
AcDbEntity
  8
部品1
100
AcDbLine
 10
10523.14028024887
 20
3300.0
 30
0.0
 11
10523.14028024887
 21
600.0
 31
0.0
  0
LEADER
  5
1844B
330
747D
100
AcDbEntity
  8
寸法
 48
50.0
100
AcDbLeader
  3
INABA_S50G
 73
     0
 74
     0
 75
     1
 40
150.0
 41
231.9898538650463
 76
     3
 10
9479.958081459928
 20
1949.373661269834
 30
0.0
 10
9558.880839751983
 20
2170.806562121257
 30
0.0
 10
9683.880839751983
 20
2170.806562121257
 30
0.0
340
18463
1001
ACAD
1000
DSTYLE
1002
{
1070
    40
1040
1.0
1002
}
  0
LINE
  5
1844C
330
747D
100
AcDbEntity
  8
文字
 48
50.0
100
AcDbLine
 10
9855.838816729717
 20
1878.360952452849
 30
0.0
 11
9929.769340922504
 21
1750.309528320743
 31
0.0
  0
LINE
  5
1844D
330
747D
100
AcDbEntity
  8
文字
 48
50.0
100
AcDbLine
 10
10003.69986511529
 20
1878.360952452849
 30
0.0
 11
9855.838816729717
 21
1878.360952452849
 31
0.0
  0
LINE
  5
1844E
330
747D
100
AcDbEntity
  8
細線
100
AcDbLine
 10
9720.150460324594
 20
1499.373661269834
 30
0.0
 11
9706.75300070304
 21
1449.373661269833
 31
0.0
  0
LINE
  5
1844F
330
747D
100
AcDbEntity
  8
細線
100
AcDbLine
 10
9679.958081459927
 20
1649.373661269834
 30
0.0
 11
9733.54791994615
 21
1449.373661269833
 31
0.0
  0
LINE
  5
18450
330
747D
100
AcDbEntity
  8
細線
100
AcDbLine
 10
9620.150460324596
 20
1499.373661269834
 30
0.0
 11
9606.753000703038
 21
1449.373661269833
 31
0.0
  0
LINE
  5
18451
330
747D
100
AcDbEntity
  8
細線
100
AcDbLine
 10
9520.150460324593
 20
1499.373661269834
 30
0.0
 11
9506.753000703039
 21
1449.373661269833
 31
0.0
  0
LINE
  5
18452
330
747D
100
AcDbEntity
  8
細線
100
AcDbLine
 10
9579.958081459928
 20
1649.373661269834
 30
0.0
 11
9633.547919946151
 21
1449.37366126983
 31
0.0
  0
LINE
  5
18453
330
747D
100
AcDbEntity
  8
細線
100
AcDbLine
 10
9479.958081459926
 20
1649.373661269834
 30
0.0
 11
9533.547919946151
 21
1449.37366126983
 31
0.0
  0
LINE
  5
18454
330
747D
100
AcDbEntity
  8
部品1
100
AcDbLine
 10
9779.958081459929
 20
1749.373661269834
 30
0.0
 11
9779.958081459929
 21
1449.373661269833
 31
0.0
  0
LINE
  5
18455
330
747D
100
AcDbEntity
  8
細線
100
AcDbLine
 10
9578.855111167957
 20
1649.373661269834
 30
0.0
 11
9678.855111167955
 21
1749.373661269834
 31
0.0
  0
LINE
  5
18456
330
747D
100
AcDbEntity
  8
細線
100
AcDbLine
 10
9607.139382415418
 20
1649.373661269833
 30
0.0
 11
9707.139382415414
 21
1749.373661269834
 31
0.0
  0
LINE
  5
18457
330
747D
100
AcDbEntity
  8
細線
100
AcDbLine
 10
9668.426696170278
 20
1749.373661269835
 30
0.0
 11
9468.426696170277
 21
1949.373661269834
 31
0.0
  0
LINE
  5
18458
330
747D
100
AcDbEntity
  8
細線
100
AcDbLine
 10
9606.753000703038
 20
1649.373661269834
 30
0.0
 11
9593.355541081484
 21
1599.373661269834
 31
0.0
  0
LINE
  5
18459
330
747D
100
AcDbEntity
  8
細線
100
AcDbLine
 10
9506.753000703039
 20
1649.373661269834
 30
0.0
 11
9493.355541081484
 21
1599.373661269834
 31
0.0
  0
LINE
  5
1845A
330
747D
100
AcDbEntity
  8
細線
100
AcDbLine
 10
9550.570839920494
 20
1649.373661269833
 30
0.0
 11
9650.570839920492
 21
1749.373661269834
 31
0.0
  0
LINE
  5
1845B
330
747D
100
AcDbEntity
  8
部品1
100
AcDbLine
 10
9679.958081459927
 20
1949.373661269834
 30
0.0
 11
9679.958081459927
 21
1749.373661269834
 31
0.0
  0
LINE
  5
1845C
330
747D
100
AcDbEntity
  8
細線
100
AcDbLine
 10
9706.75300070304
 20
1649.373661269834
 30
0.0
 11
9693.355541081484
 21
1599.373661269834
 31
0.0
  0
TEXT
  5
1845D
330
747D
100
AcDbEntity
  8
部品1
100
AcDbText
 10
10024.30261467343
 20
1772.170171482107
 30
0.0
 40
150.0
  1
G.L
  7
STYLE1
100
AcDbText
  0
LINE
  5
1845E
330
747D
100
AcDbEntity
  8
文字
 48
50.0
100
AcDbLine
 10
9929.769340922504
 20
1750.309528320742
 30
0.0
 11
10003.69986511529
 21
1878.360952452849
 31
0.0
  0
TEXT
  5
1845F
330
747D
100
AcDbEntity
  8
部品1
100
AcDbText
 10
10794.12483914488
 20
1771.234304431199
 30
0.0
 40
150.0
  1
G.L
  7
STYLE1
100
AcDbText
  0
LINE
  5
18460
330
747D
100
AcDbEntity
  8
文字
 48
50.0
100
AcDbLine
 10
10773.52208958673
 20
1877.425085401941
 30
0.0
 11
10625.66104120116
 21
1877.425085401941
 31
0.0
  0
LINE
  5
18461
330
747D
100
AcDbEntity
  8
文字
 48
50.0
100
AcDbLine
 10
10625.66104120116
 20
1877.425085401941
 30
0.0
 11
10699.59156539394
 21
1749.373661269834
 31
0.0
  0
LINE
  5
18462
330
747D
100
AcDbEntity
  8
文字
 48
50.0
100
AcDbLine
 10
10699.59156539394
 20
1749.373661269834
 30
0.0
 11
10773.52208958673
 21
1877.425085401941
 31
0.0
  0
MTEXT
  5
18463
102
{ACAD_REACTORS
330
1844B
102
}
330
747D
100
AcDbEntity
  8
寸法
 62
     7
 48
50.0
100
AcDbMText
 10
9708.880839751984
 20
2270.806562121257
 30
0.0
 40
150.0
 41
1.0
 71
     4
 72
     1
  1
\A1;C.B
  7
STYLE1
 73
     1
 44
1.0
1001
ACAD
1000
MTEXTBEGIN
1070
    73
1070
     1
1070
    44
1040
1.0
1070
    74
1070
     0
1000
MTEXTEND
  0
LINE
  5
18464
330
747D
100
AcDbEntity
  8
部品1
 48
10.0
100
AcDbLine
 10
11890.1147711078
 20
2029.373661269834
 30
0.0
 11
11890.1147711078
 21
1475.373661269834
 31
0.0
  0
DIMENSION
  5
18465
330
747D
100
AcDbEntity
  8
寸法
 48
50.0
100
AcDbDimension
  2
*D3
 10
11509.39475613862
 20
1459.373661269834
 30
0.0
 11
11409.37999235909
 21
1744.373661269836
 31
0.0
 70
    32
  1
285
 71
     5
 42
570.0
  3
INABA_S50G
100
AcDbAlignedDimension
 13
11890.1147711078
 23
2029.373661269834
 33
0.0
 14
11846.1147711078
 24
1459.373661269834
 34
0.0
 50
90.0
100
AcDbRotatedDimension
  0
LINE
  5
18466
330
747D
100
AcDbEntity
  8
部品1
100
AcDbLine
 10
12523.14028024887
 20
600.0
 30
0.0
 11
12523.14028024887
 21
3300.000000000001
 31
0.0
  0
LINE
  5
18467
330
747D
100
AcDbEntity
  8
部品1
 48
10.0
100
AcDbLine
 10
11906.1147711078
 20
1949.373661269834
 30
0.0
 11
11906.1147711078
 21
2683.152017438574
 31
0.0
  0
LINE
  5
18468
330
747D
100
AcDbEntity
  8
部品1
 48
10.0
100
AcDbLine
 10
12034.1147711078
 20
1949.373661269834
 30
0.0
 11
12034.1147711078
 21
2683.152017438574
 31
0.0
  0
LINE
  5
18469
330
747D
100
AcDbEntity
  8
部品1
 48
10.0
100
AcDbLine
 10
11906.1147711078
 20
1475.373661269834
 30
0.0
 11
11906.1147711078
 21
2029.373661269834
 31
0.0
  0
LINE
  5
1846A
330
747D
100
AcDbEntity
  8
Ｇ．Ｌ
100
AcDbLine
 10
11906.1147711078
 20
1749.373661269834
 30
0.0
 11
12419.88475394479
 21
1749.373661269834
 31
0.0
  0
LINE
  5
1846B
330
747D
100
AcDbEntity
  8
細線
100
AcDbLine
 10
12252.15697894695
 20
1749.373661269834
 30
0.0
 11
12052.15697894695
 21
1949.373661269834
 31
0.0
  0
LINE
  5
1846C
330
747D
100
AcDbEntity
  8
細線
100
AcDbLine
 10
12294.58338581815
 20
1749.373661269835
 30
0.0
 11
12094.58338581815
 21
1949.373661269834
 31
0.0
  0
LINE
  5
1846D
330
747D
100
AcDbEntity
  8
部品1
 48
10.0
100
AcDbLine
 10
11906.1147711078
 20
1949.373661269834
 30
0.0
 11
12306.1147711078
 21
1949.373661269834
 31
0.0
  0
LINE
  5
1846E
330
747D
100
AcDbEntity
  8
部品1
 48
10.0
100
AcDbLine
 10
11906.1147711078
 20
1949.373661269834
 30
0.0
 11
12421.45241846108
 21
1949.373661269834
 31
0.0
  0
DIMENSION
  5
1846F
330
747D
100
AcDbEntity
  8
寸法
 48
50.0
100
AcDbDimension
  2
*D4
 10
11702.1147711078
 20
1022.89069578453
 30
0.0
 11
11902.1147711078
 21
1122.905459564058
 31
0.0
 70
    32
  1
200
 71
     5
 42
400.0
  3
INABA_S50G
100
AcDbAlignedDimension
 13
12102.1147711078
 23
1349.373661269834
 33
0.0
 14
11702.1147711078
 24
1349.373661269834
 34
0.0
100
AcDbRotatedDimension
  0
LINE
  5
18470
330
747D
100
AcDbEntity
  8
Ｇ．Ｌ
100
AcDbLine
 10
11532.73705187441
 20
1749.373661269834
 30
0.0
 11
11890.1147711078
 21
1749.373661269834
 31
0.0
  0
LINE
  5
18471
330
747D
100
AcDbEntity
  8
寸法
 48
50.0
100
AcDbLine
 10
11526.14244060296
 20
1949.373661269835
 30
0.0
 11
11866.9397983441
 21
1949.373661269835
 31
0.0
  0
LINE
  5
18472
330
747D
100
AcDbEntity
  8
細線
  6
HIDDEN
 48
10.0
100
AcDbLine
 10
11702.1147711078
 20
1595.373436971779
 30
0.0
 11
11856.11499540584
 21
1749.373661269834
 31
0.0
  0
LINE
  5
18473
330
747D
100
AcDbEntity
  8
細線
  6
HIDDEN
 48
10.0
100
AcDbLine
 10
11702.1147711078
 20
1623.657708219241
 30
0.0
 11
11827.83072415838
 21
1749.373661269834
 31
0.0
  0
LINE
  5
18474
330
747D
100
AcDbEntity
  8
細線
  6
HIDDEN
 48
10.0
100
AcDbLine
 10
11702.1147711078
 20
1651.941979466702
 30
0.0
 11
11799.54645291093
 21
1749.373661269834
 31
0.0
  0
LINE
  5
18475
330
747D
100
AcDbEntity
  8
細線
  6
HIDDEN
 48
10.0
100
AcDbLine
 10
11702.1147711078
 20
1349.373661269834
 30
0.0
 11
12102.1147711078
 21
1349.373661269834
 31
0.0
  0
LINE
  5
18476
330
747D
100
AcDbEntity
  8
細線
  6
HIDDEN
 48
10.0
100
AcDbLine
 10
11702.1147711078
 20
1349.373661269834
 30
0.0
 11
11702.1147711078
 21
1749.373661269834
 31
0.0
  0
LINE
  5
18477
330
747D
100
AcDbEntity
  8
細線
  6
HIDDEN
 48
10.0
100
AcDbLine
 10
11882.77338425868
 20
1349.373661269835
 30
0.0
 11
12102.1147711078
 21
1568.715048118956
 31
0.0
  0
LINE
  5
18478
330
747D
100
AcDbEntity
  8
細線
  6
HIDDEN
 48
10.0
100
AcDbLine
 10
11826.20484176376
 20
1349.373661269834
 30
0.0
 11
12102.1147711078
 21
1625.283590613879
 31
0.0
  0
LINE
  5
18479
330
747D
100
AcDbEntity
  8
細線
  6
HIDDEN
 48
10.0
100
AcDbLine
 10
11854.48911301122
 20
1349.373661269836
 30
0.0
 11
12102.1147711078
 21
1596.999319366418
 31
0.0
  0
LINE
  5
1847A
330
747D
100
AcDbEntity
  8
細線
  6
HIDDEN
 48
10.0
100
AcDbLine
 10
12102.1147711078
 20
1349.373661269834
 30
0.0
 11
12102.1147711078
 21
1749.373661269834
 31
0.0
  0
ARC
  5
1847B
330
747D
100
AcDbEntity
  8
部品1
 48
10.0
100
AcDbCircle
 10
11890.1147711078
 20
1475.373661269834
 30
0.0
 40
16.0
100
AcDbArc
 50
270.0
 51
0.0
  0
LINE
  5
1847C
330
747D
100
AcDbEntity
  8
部品1
 48
10.0
100
AcDbLine
 10
11846.1147711078
 20
1459.373661269834
 30
0.0
 11
11846.1147711078
 21
1475.373661269834
 31
0.0
  0
LINE
  5
1847D
330
747D
100
AcDbEntity
  8
部品1
 48
10.0
100
AcDbLine
 10
11890.1147711078
 20
1475.373661269833
 30
0.0
 11
11846.1147711078
 21
1475.373661269834
 31
0.0
  0
LINE
  5
1847E
330
747D
100
AcDbEntity
  8
部品1
 48
10.0
100
AcDbLine
 10
11890.1147711078
 20
1459.373661269834
 30
0.0
 11
11846.1147711078
 21
1459.373661269834
 31
0.0
  0
LINE
  5
1847F
330
747D
100
AcDbEntity
  8
細線
100
AcDbLine
 10
12025.88280896726
 20
1749.373661269834
 30
0.0
 11
11906.1147711078
 21
1869.141699129295
 31
0.0
  0
LINE
  5
18480
330
747D
100
AcDbEntity
  8
細線
100
AcDbLine
 10
12068.30921583845
 20
1749.373661269834
 30
0.0
 11
11906.1147711078
 21
1911.568106000487
 31
0.0
  0
LINE
  5
18481
330
747D
100
AcDbEntity
  8
部品1
 48
10.0
100
AcDbLine
 10
11906.1147711078
 20
1749.373661269834
 30
0.0
 11
11906.1147711078
 21
1949.373661269834
 31
0.0
  0
LINE
  5
18482
330
747D
100
AcDbEntity
  8
部品1
 48
10.0
100
AcDbLine
 10
12306.1147711078
 20
1949.373661269834
 30
0.0
 11
12306.1147711078
 21
1749.373661269834
 31
0.0
  0
LINE
  5
18483
330
747D
100
AcDbEntity
  8
部品1
 48
10.0
100
AcDbLine
 10
12050.1147711078
 20
2063.373661269835
 30
0.0
 11
12421.45241846108
 21
2063.373661269835
 31
0.0
  0
LINE
  5
18484
330
747D
100
AcDbEntity
  8
部品1
 48
10.0
100
AcDbLine
 10
12034.1147711078
 20
2047.373661269835
 30
0.0
 11
12421.45241846108
 21
2047.373661269835
 31
0.0
  0
LINE
  5
18485
330
747D
100
AcDbEntity
  8
部品1
 48
10.0
100
AcDbLine
 10
12050.1147711078
 20
2047.373661269835
 30
0.0
 11
12050.1147711078
 21
2683.152017438574
 31
0.0
  0
LINE
  5
18486
330
747D
100
AcDbEntity
  8
部品1
 48
10.0
100
AcDbLine
 10
12066.1147711078
 20
2063.373661269835
 30
0.0
 11
12066.1147711078
 21
2683.152017438574
 31
0.0
  0
CIRCLE
  5
18487
330
747D
100
AcDbEntity
  8
細線
100
AcDbCircle
 10
11966.1147711078
 20
1999.373661269834
 30
0.0
 40
16.0
  0
LINE
  5
18488
330
747D
100
AcDbEntity
  8
部品1
 48
10.0
100
AcDbLine
 10
11906.1147711078
 20
2029.373661269834
 30
0.0
 11
11890.1147711078
 21
2029.373661269834
 31
0.0
  0
LINE
  5
18489
330
747D
100
AcDbEntity
  8
細線
100
AcDbLine
 10
11876.1147711078
 20
1992.373661269834
 30
0.0
 11
11876.1147711078
 21
2006.373661269835
 31
0.0
  0
LINE
  5
1848A
330
747D
100
AcDbEntity
  8
細線
100
AcDbLine
 10
11884.1147711078
 20
2013.373661269834
 30
0.0
 11
11883.1147711078
 21
2013.373661269834
 31
0.0
  0
LINE
  5
1848B
330
747D
100
AcDbEntity
  8
細線
100
AcDbLine
 10
11884.1147711078
 20
1985.373661269834
 30
0.0
 11
11883.1147711078
 21
1985.373661269834
 31
0.0
  0
ARC
  5
1848C
330
747D
100
AcDbEntity
  8
細線
100
AcDbCircle
 10
11883.1147711078
 20
2006.373661269835
 30
0.0
 40
7.0
100
AcDbArc
 50
90.00000000000095
 51
180.0
  0
ARC
  5
1848D
330
747D
100
AcDbEntity
  8
細線
100
AcDbCircle
 10
11883.1147711078
 20
1992.373661269834
 30
0.0
 40
7.0
100
AcDbArc
 50
180.0
 51
270.0
  0
LINE
  5
1848E
330
747D
100
AcDbEntity
  8
細線
100
AcDbLine
 10
11890.1147711078
 20
2015.373661269835
 30
0.0
 11
11884.1147711078
 21
2015.373661269835
 31
0.0
  0
LINE
  5
1848F
330
747D
100
AcDbEntity
  8
細線
100
AcDbLine
 10
11890.1147711078
 20
1983.373661269834
 30
0.0
 11
11884.1147711078
 21
1983.373661269834
 31
0.0
  0
LINE
  5
18490
330
747D
100
AcDbEntity
  8
細線
100
AcDbLine
 10
11890.1147711078
 20
1983.373661269834
 30
0.0
 11
11890.1147711078
 21
2015.373661269835
 31
0.0
  0
LINE
  5
18491
330
747D
100
AcDbEntity
  8
細線
100
AcDbLine
 10
11884.1147711078
 20
1983.373661269834
 30
0.0
 11
11884.1147711078
 21
2015.373661269835
 31
0.0
  0
CIRCLE
  5
18492
330
747D
100
AcDbEntity
  8
細線
100
AcDbCircle
 10
12012.1147711078
 20
1999.373661269834
 30
0.0
 40
16.0
  0
TEXT
  5
19791
330
747D
100
AcDbEntity
  8
文字
 62
     7
 48
50.0
100
AcDbText
 10
4924.437694335153
 20
1008.846525267093
 30
0.0
 40
150.0
  1
（　）内寸法は屋根の出幅です。
  7
STYLE1
100
AcDbText
  0
LINE
  5
19792
330
747D
100
AcDbEntity
  8
寸法
 48
50.0
100
AcDbLine
 10
7642.857718927459
 20
944.3259641243431
 30
0.0
 11
4905.19511207204
 21
944.3259641243431
 31
0.0
  0
LINE
  5
197B0
330
747D
100
AcDbEntity
  8
部品1
100
AcDbLine
 10
8523.140280248865
 20
3300.000000000001
 30
0.0
 11
12523.14028024887
 21
3300.000000000001
 31
0.0
  0
TEXT
  5
199F7
330
747D
100
AcDbEntity
  8
文字
 62
     7
 48
50.0
100
AcDbText
 10
16501.79587498052
 20
596.5925826289066
 30
0.0
 40
200.0
  1
機種名
  7
STYLE2
100
AcDbText
  0
TEXT
  5
19A03
330
747D
100
AcDbEntity
  8
仕様書枠
 62
     7
 48
50.0
100
AcDbText
 10
18115.03136767309
 20
604.8708912389265
 30
0.0
 40
200.0
  1
SMK-３６SGM
  7
STYLE2
100
AcDbText
  0
TEXT
  5
19A04
330
747D
100
AcDbEntity
  8
文字
 62
     7
 48
50.0
100
AcDbText
 10
18906.06354163449
 20
1289.447132864036
 30
0.0
 40
125.0
  1
<縮尺> S=1/50
  7
STYLE2
100
AcDbText
  0
DIMENSION
  5
1A00C
330
747D
100
AcDbEntity
  8
寸法
 48
50.0
100
AcDbDimension
  2
*D9
 10
11220.5
 20
5980.974495452941
 30
0.0
 11
10279.5
 21
6080.989259232469
 31
0.0
 70
    32
 71
     5
 42
1882.0
  3
INABA_S50G
100
AcDbAlignedDimension
 13
9338.500000000001
 23
6770.974495452941
 33
0.0
 14
11220.5
 24
6770.974495452941
 34
0.0
100
AcDbRotatedDimension
  0
TEXT
  5
1A2D4
330
747D
100
AcDbEntity
  8
文字
 62
     7
 48
50.0
100
AcDbText
 10
18386.04187925633
 20
1047.815908841148
 30
0.0
 40
125.0
  1
～一般型･多雪地型～
  7
STYLE2
100
AcDbText
  0
LEADER
  5
1A8BC
330
747D
100
AcDbEntity
  8
寸法
 48
50.0
100
AcDbLeader
  3
INABA_S50G
 71
     0
 73
     0
 74
     0
 75
     1
 40
150.0
 41
231.9898538650463
 76
     3
 10
10279.5
 20
7115.97449545294
 30
0.0
 10
10419.2534945176
 20
7323.588392616129
 30
0.0
 10
10544.25349451761
 20
7323.588392616129
 30
0.0
340
1A8BD
  0
MTEXT
  5
1A8BD
102
{ACAD_REACTORS
330
1A8BC
102
}
330
747D
100
AcDbEntity
  8
細線
 62
     7
 48
50.0
100
AcDbMText
 10
10569.2534945176
 20
7423.588392616129
 30
0.0
 40
150.0
 41
0.0
 71
     4
 72
     1
  1
\A1;C.B
  7
STYLE1
 73
     1
 44
1.0
1001
ACAD
1000
MTEXTBEGIN
1070
    73
1070
     1
1070
    44
1040
1.0
1070
    74
1070
     0
1000
MTEXTEND
  0
LINE
  5
1A8BE
330
747D
100
AcDbEntity
  8
想像線
 48
20.0
100
AcDbLine
 10
9283.500000000001
 20
8892.974495452941
 30
0.0
 11
9283.500000000001
 21
6780.974495452942
 31
0.0
  0
LINE
  5
1A8BF
330
747D
100
AcDbEntity
  8
想像線
 48
20.0
100
AcDbLine
 10
11275.5
 20
6780.974495452942
 30
0.0
 11
11275.5
 21
8892.974495452939
 31
0.0
  0
DIMENSION
  5
1A8C0
330
747D
100
AcDbEntity
  8
寸法
 48
50.0
100
AcDbDimension
  2
*D30
 10
12075.5
 20
8797.974495452942
 30
0.0
 11
11975.48523622047
 21
7856.974495452942
 31
0.0
 70
    32
 71
     5
 42
1881.999999999999
  3
INABA_S50G
100
AcDbAlignedDimension
 13
11365.5
 23
6915.974495452942
 33
0.0
 14
11365.5
 24
8797.974495452942
 34
0.0
 50
90.0
100
AcDbRotatedDimension
  0
DIMENSION
  5
1A8C1
330
747D
100
AcDbEntity
  8
寸法
 48
50.0
100
AcDbDimension
  2
*D31
 10
8583.5
 20
6915.974495452942
 30
0.0
 11
8483.499999999997
 21
7386.474495452943
 31
0.0
 70
    32
 71
     5
 42
941.0
  3
INABA_S50G
100
AcDbAlignedDimension
 13
10134.5
 23
7856.974495452941
 33
0.0
 14
9193.5
 24
6915.974495452942
 34
0.0
 50
90.0
100
AcDbRotatedDimension
1001
ACAD
1000
DSTYLE
1002
{
1070
    75
1070
     1
1070
   279
1070
     1
1002
}
  0
DIMENSION
  5
1A8C2
330
747D
100
AcDbEntity
  8
寸法
 48
50.0
100
AcDbDimension
  2
*D32
 10
11220.5
 20
6380.974495452941
 30
0.0
 11
10750.0
 21
6480.974495452942
 31
0.0
 70
    32
 71
     5
 42
941.0
  3
INABA_S50G
100
AcDbAlignedDimension
 13
10279.5
 23
7711.974495452942
 33
0.0
 14
11220.5
 24
6770.974495452941
 34
0.0
100
AcDbRotatedDimension
1001
ACAD
1000
DSTYLE
1002
{
1070
    75
1070
     1
1070
   279
1070
     1
1002
}
  0
LINE
  5
1A8C3
330
747D
100
AcDbEntity
  8
想像線
 48
20.0
100
AcDbLine
 10
9283.500000000001
 20
6780.974495452942
 30
0.0
 11
11275.5
 21
6780.974495452942
 31
0.0
  0
DIMENSION
  5
1A8C5
330
747D
100
AcDbEntity
  8
寸法
 48
50.0
100
AcDbDimension
  2
*D34
 10
10279.5
 20
6380.974495452941
 30
0.0
 11
9809.0
 21
6480.974495452942
 31
0.0
 70
    32
 71
     5
 42
940.9999999999982
  3
INABA_S50G
100
AcDbAlignedDimension
 13
9338.500000000001
 23
6770.974495452941
 33
0.0
 14
10279.5
 24
6915.974495452942
 34
0.0
100
AcDbRotatedDimension
  0
DIMENSION
  5
1A8C6
330
747D
100
AcDbEntity
  8
寸法
 48
50.0
100
AcDbDimension
  2
*D35
 10
9338.500000000001
 20
5980.974495452941
 30
0.0
 11
8991.05905511811
 21
5980.974495452941
 31
0.0
 70
   160
  1
(<>)
 71
     5
 42
55.0
  3
INABA_S50G
100
AcDbAlignedDimension
 13
9283.500000000001
 23
6780.974495452942
 33
0.0
 14
9338.500000000001
 24
6770.974495452941
 34
0.0
100
AcDbRotatedDimension
  0
LINE
  5
1A8C7
330
747D
100
AcDbEntity
  8
センター
 48
5.0
100
AcDbLine
 10
9483.500000000001
 20
6915.974495452942
 30
0.0
 11
9193.5
 21
6915.974495452942
 31
0.0
  0
LINE
  5
1A8C8
330
747D
100
AcDbEntity
  8
点線
 48
10.0
100
AcDbLine
 10
9438.500000000001
 20
7015.97449545294
 30
0.0
 11
9238.5
 21
7015.97449545294
 31
0.0
  0
LINE
  5
1A8C9
330
747D
100
AcDbEntity
  8
点線
 48
10.0
100
AcDbLine
 10
9438.500000000001
 20
6815.97449545294
 30
0.0
 11
9238.5
 21
6815.97449545294
 31
0.0
  0
LINE
  5
1A8CA
330
747D
100
AcDbEntity
  8
点線
 48
10.0
100
AcDbLine
 10
9238.5
 20
6815.97449545294
 30
0.0
 11
9238.5
 21
7015.97449545294
 31
0.0
  0
LINE
  5
1A8CB
330
747D
100
AcDbEntity
  8
部品1
 48
50.0
100
AcDbLine
 10
9338.500000000001
 20
7115.974495452942
 30
0.0
 11
9738.500000000001
 21
7115.974495452942
 31
0.0
  0
LINE
  5
1A8CC
330
747D
100
AcDbEntity
  8
部品1
 48
50.0
100
AcDbLine
 10
9338.500000000001
 20
6915.974495452942
 30
0.0
 11
9738.500000000001
 21
6915.974495452942
 31
0.0
  0
LINE
  5
1A8CD
330
747D
100
AcDbEntity
  8
点線
 48
10.0
100
AcDbLine
 10
9438.500000000001
 20
6815.97449545294
 30
0.0
 11
9438.500000000001
 21
7015.97449545294
 31
0.0
  0
LINE
  5
1A8CE
330
747D
100
AcDbEntity
  8
部品1
 48
50.0
100
AcDbLine
 10
9338.500000000001
 20
7115.974495452942
 30
0.0
 11
9338.500000000001
 21
6915.974495452942
 31
0.0
  0
LINE
  5
1A8CF
330
747D
100
AcDbEntity
  8
センター
 48
5.0
100
AcDbLine
 10
9338.500000000001
 20
7060.974495452942
 30
0.0
 11
9338.500000000001
 21
6770.974495452941
 31
0.0
  0
LINE
  5
1A8D0
330
747D
100
AcDbEntity
  8
部品1
 48
50.0
100
AcDbLine
 10
9738.500000000001
 20
7115.974495452942
 30
0.0
 11
9738.500000000001
 21
6915.974495452942
 31
0.0
  0
DIMENSION
  5
1A8D1
330
747D
100
AcDbEntity
  8
寸法
 48
50.0
100
AcDbDimension
  2
*D36
 10
12075.5
 20
6780.974495452942
 30
0.0
 11
12075.5
 21
6451.033550571051
 31
0.0
 70
   160
  1
(<>)
 71
     5
 42
135.0
  3
INABA_S50G
100
AcDbAlignedDimension
 13
11365.5
 23
6915.974495452942
 33
0.0
 14
11275.5
 24
6780.974495452942
 34
0.0
 50
90.0
100
AcDbRotatedDimension
  0
DIMENSION
  5
1A8D2
330
747D
100
AcDbEntity
  8
寸法
 48
50.0
100
AcDbDimension
  2
*D37
 10
11275.5
 20
5980.974495452941
 30
0.0
 11
11567.94094488189
 21
5980.974495452941
 31
0.0
 70
   160
  1
(<>)
 71
     5
 42
55.0
  3
INABA_S50G
100
AcDbAlignedDimension
 13
11220.5
 23
6770.974495452941
 33
0.0
 14
11275.5
 24
6780.974495452942
 34
0.0
100
AcDbRotatedDimension
  0
LINE
  5
1A8D3
330
747D
100
AcDbEntity
  8
部品1
 48
50.0
100
AcDbLine
 10
10820.5
 20
6915.974495452942
 30
0.0
 11
11220.5
 21
6915.974495452942
 31
0.0
  0
LINE
  5
1A8D4
330
747D
100
AcDbEntity
  8
部品1
 48
50.0
100
AcDbLine
 10
10820.5
 20
7115.974495452942
 30
0.0
 11
11220.5
 21
7115.974495452942
 31
0.0
  0
LINE
  5
1A8D5
330
747D
100
AcDbEntity
  8
部品1
 48
50.0
100
AcDbLine
 10
10379.5
 20
6915.974495452942
 30
0.0
 11
10379.5
 21
7115.974495452942
 31
0.0
  0
LINE
  5
1A8D6
330
747D
100
AcDbEntity
  8
部品1
 48
50.0
100
AcDbLine
 10
10179.5
 20
6915.974495452942
 30
0.0
 11
10179.5
 21
7115.974495452942
 31
0.0
  0
LINE
  5
1A8D7
330
747D
100
AcDbEntity
  8
部品1
 48
50.0
100
AcDbLine
 10
10179.5
 20
6915.974495452942
 30
0.0
 11
10379.5
 21
6915.974495452942
 31
0.0
  0
LINE
  5
1A8D8
330
747D
100
AcDbEntity
  8
部品1
 48
50.0
100
AcDbLine
 10
10179.5
 20
7115.974495452942
 30
0.0
 11
10379.5
 21
7115.974495452942
 31
0.0
  0
LINE
  5
1A8D9
330
747D
100
AcDbEntity
  8
部品1
 48
50.0
100
AcDbLine
 10
10820.5
 20
6915.974495452942
 30
0.0
 11
10820.5
 21
7115.974495452942
 31
0.0
  0
LINE
  5
1A8DA
330
747D
100
AcDbEntity
  8
センター
 48
5.0
100
AcDbLine
 10
11365.5
 20
6915.974495452942
 30
0.0
 11
11075.5
 21
6915.974495452942
 31
0.0
  0
LINE
  5
1A8DB
330
747D
100
AcDbEntity
  8
点線
 48
10.0
100
AcDbLine
 10
11320.5
 20
6815.97449545294
 30
0.0
 11
11320.5
 21
7015.97449545294
 31
0.0
  0
LINE
  5
1A8DC
330
747D
100
AcDbEntity
  8
部品1
 48
50.0
100
AcDbLine
 10
11220.5
 20
6915.974495452942
 30
0.0
 11
11220.5
 21
7115.974495452942
 31
0.0
  0
LINE
  5
1A8DD
330
747D
100
AcDbEntity
  8
センター
 48
5.0
100
AcDbLine
 10
11220.5
 20
7060.974495452942
 30
0.0
 11
11220.5
 21
6770.974495452941
 31
0.0
  0
LINE
  5
1A8DE
330
747D
100
AcDbEntity
  8
点線
 48
10.0
100
AcDbLine
 10
11120.5
 20
6815.97449545294
 30
0.0
 11
11120.5
 21
7015.97449545294
 31
0.0
  0
LINE
  5
1A8DF
330
747D
100
AcDbEntity
  8
点線
 48
10.0
100
AcDbLine
 10
11120.5
 20
6815.97449545294
 30
0.0
 11
11320.5
 21
6815.97449545294
 31
0.0
  0
LINE
  5
1A8E0
330
747D
100
AcDbEntity
  8
点線
 48
10.0
100
AcDbLine
 10
11120.5
 20
7015.97449545294
 30
0.0
 11
11320.5
 21
7015.97449545294
 31
0.0
  0
LINE
  5
1A8E1
330
747D
100
AcDbEntity
  8
想像線
 48
20.0
100
AcDbLine
 10
11275.5
 20
8892.974495452939
 30
0.0
 11
9283.500000000001
 21
8892.974495452941
 31
0.0
  0
MTEXT
  5
1A8E2
102
{ACAD_REACTORS
330
1A8E3
102
}
330
747D
100
AcDbEntity
  8
細線
 62
     7
 48
50.0
100
AcDbMText
 10
9968.057947896992
 20
9619.500570415752
 30
0.0
 40
150.0
 41
0.0
 71
     4
 72
     1
  1
\A1;組立後\P現場打コンクリート
  7
STYLE1
 73
     1
 44
1.0
1001
ACAD
1000
MTEXTBEGIN
1070
    73
1070
     1
1070
    44
1040
1.0
1070
    74
1070
     0
1000
MTEXTEND
  0
LEADER
  5
1A8E3
330
747D
100
AcDbEntity
  8
寸法
 48
50.0
100
AcDbLeader
  3
INABA_S50G
 71
     0
 73
     0
 74
     0
 75
     1
 40
400.0
 41
1602.936553006147
 76
     3
 10
9388.554223318745
 20
8847.986212187754
 30
0.0
 10
9818.057947896992
 20
9394.500570415752
 30
0.0
 10
9943.057947896992
 20
9394.500570415752
 30
0.0
340
1A8E2
  0
DIMENSION
  5
1A8E4
330
747D
100
AcDbEntity
  8
寸法
 48
50.0
100
AcDbDimension
  2
*D38
 10
8583.5
 20
7856.974495452941
 30
0.0
 11
8483.499999999997
 21
8327.474495452944
 31
0.0
 70
    32
 71
     5
 42
941.0
  3
INABA_S50G
100
AcDbAlignedDimension
 13
8833.5
 23
8797.974495452942
 33
0.0
 14
9338.500000000001
 24
7856.974495452941
 34
0.0
 50
90.0
100
AcDbRotatedDimension
  0
LINE
  5
1A8E5
330
747D
100
AcDbEntity
  8
部品1
 48
50.0
100
AcDbLine
 10
9538.5
 20
7956.974495452941
 30
0.0
 11
9538.5
 21
7756.974495452941
 31
0.0
  0
LINE
  5
1A8E6
330
747D
100
AcDbEntity
  8
部品1
 48
50.0
100
AcDbLine
 10
9338.500000000001
 20
7756.974495452941
 30
0.0
 11
9338.500000000001
 21
7956.974495452941
 31
0.0
  0
LINE
  5
1A8E7
330
747D
100
AcDbEntity
  8
部品1
 48
50.0
100
AcDbLine
 10
9538.5
 20
7756.974495452941
 30
0.0
 11
9338.500000000001
 21
7756.974495452941
 31
0.0
  0
LINE
  5
1A8E8
330
747D
100
AcDbEntity
  8
部品1
 48
50.0
100
AcDbLine
 10
9338.500000000001
 20
7956.974495452941
 30
0.0
 11
9538.5
 21
7956.974495452941
 31
0.0
  0
LINE
  5
1A8E9
330
747D
100
AcDbEntity
  8
点線
 48
10.0
100
AcDbLine
 10
9438.500000000001
 20
8897.974495452942
 30
0.0
 11
9238.5
 21
8897.974495452942
 31
0.0
  0
LINE
  5
1A8EA
330
747D
100
AcDbEntity
  8
センター
 48
5.0
100
AcDbLine
 10
9483.500000000001
 20
8797.974495452942
 30
0.0
 11
9193.5
 21
8797.974495452942
 31
0.0
  0
LINE
  5
1A8EB
330
747D
100
AcDbEntity
  8
点線
 48
10.0
100
AcDbLine
 10
9438.500000000001
 20
8697.974495452942
 30
0.0
 11
9238.5
 21
8697.974495452942
 31
0.0
  0
DIMENSION
  5
1A8EC
330
747D
100
AcDbEntity
  8
寸法
 48
50.0
100
AcDbDimension
  2
*D39
 10
9238.5
 20
9192.974495452942
 30
0.0
 11
9338.500000000001
 21
9192.974495452942
 31
0.0
 70
   160
 71
     5
 42
200.0
  3
INABA_S50G
100
AcDbAlignedDimension
 13
9438.500000000001
 23
8897.974495452942
 33
0.0
 14
9238.5
 24
8897.974495452944
 34
0.0
100
AcDbRotatedDimension
  0
DIMENSION
  5
1A8ED
330
747D
100
AcDbEntity
  8
寸法
 48
50.0
100
AcDbDimension
  2
*D40
 10
8983.500000000002
 20
8697.974495452942
 30
0.0
 11
8983.500000000001
 21
8797.974495452944
 31
0.0
 70
   160
 71
     5
 42
200.0
  3
INABA_S50G
100
AcDbAlignedDimension
 13
9238.5
 23
8897.974495452942
 33
0.0
 14
9238.5
 24
8697.974495452942
 34
0.0
 50
90.0
100
AcDbRotatedDimension
  0
LINE
  5
1A8EE
330
747D
100
AcDbEntity
  8
点線
 48
10.0
100
AcDbLine
 10
9238.5
 20
8897.974495452942
 30
0.0
 11
9238.5
 21
8697.974495452942
 31
0.0
  0
LINE
  5
1A8EF
330
747D
100
AcDbEntity
  8
部品1
 48
50.0
100
AcDbLine
 10
9738.500000000001
 20
8797.974495452942
 30
0.0
 11
9338.500000000001
 21
8797.974495452942
 31
0.0
  0
LINE
  5
1A8F0
330
747D
100
AcDbEntity
  8
部品1
 48
50.0
100
AcDbLine
 10
9738.500000000001
 20
8597.974495452943
 30
0.0
 11
9338.500000000001
 21
8597.974495452943
 31
0.0
  0
LINE
  5
1A8F1
330
747D
100
AcDbEntity
  8
部品1
 48
50.0
100
AcDbLine
 10
9338.500000000001
 20
8797.974495452942
 30
0.0
 11
9338.500000000001
 21
8597.974495452943
 31
0.0
  0
LINE
  5
1A8F2
330
747D
100
AcDbEntity
  8
センター
 48
5.0
100
AcDbLine
 10
9338.500000000001
 20
8942.974495452942
 30
0.0
 11
9338.500000000001
 21
8652.974495452943
 31
0.0
  0
LINE
  5
1A8F3
330
747D
100
AcDbEntity
  8
点線
 48
10.0
100
AcDbLine
 10
9438.500000000001
 20
8897.974495452942
 30
0.0
 11
9438.500000000001
 21
8697.974495452942
 31
0.0
  0
LINE
  5
1A8F4
330
747D
100
AcDbEntity
  8
部品1
 48
50.0
100
AcDbLine
 10
9738.500000000001
 20
8797.974495452942
 30
0.0
 11
9738.500000000001
 21
8597.974495452943
 31
0.0
  0
DIMENSION
  5
1A8F5
330
747D
100
AcDbEntity
  8
寸法
 48
50.0
100
AcDbDimension
  2
*D41
 10
12075.5
 20
8892.974495452939
 30
0.0
 11
12075.5
 21
9185.677515121902
 31
0.0
 70
   160
  1
(<>)
 71
     5
 42
94.99999999999818
  3
INABA_S50G
100
AcDbAlignedDimension
 13
11365.5
 23
8797.974495452942
 33
0.0
 14
11275.5
 24
8892.974495452939
 34
0.0
 50
90.0
100
AcDbRotatedDimension
  0
LINE
  5
1A8F6
330
747D
100
AcDbEntity
  8
部品1
 48
50.0
100
AcDbLine
 10
10379.5
 20
7956.974495452941
 30
0.0
 11
10379.5
 21
7756.974495452941
 31
0.0
  0
LINE
  5
1A8F7
330
747D
100
AcDbEntity
  8
センター
 48
5.0
100
AcDbLine
 10
10279.5
 20
8001.974495452941
 30
0.0
 11
10279.5
 21
7711.974495452942
 31
0.0
  0
LINE
  5
1A8F8
330
747D
100
AcDbEntity
  8
部品1
 48
50.0
100
AcDbLine
 10
10179.5
 20
7756.974495452941
 30
0.0
 11
10179.5
 21
7956.974495452941
 31
0.0
  0
LINE
  5
1A8F9
330
747D
100
AcDbEntity
  8
部品1
 48
50.0
100
AcDbLine
 10
10379.5
 20
7756.974495452941
 30
0.0
 11
10179.5
 21
7756.974495452941
 31
0.0
  0
LINE
  5
1A8FA
330
747D
100
AcDbEntity
  8
センター
 48
5.0
100
AcDbLine
 10
10424.5
 20
7856.974495452941
 30
0.0
 11
10134.5
 21
7856.974495452941
 31
0.0
  0
LINE
  5
1A8FB
330
747D
100
AcDbEntity
  8
部品1
 48
50.0
100
AcDbLine
 10
10179.5
 20
7956.974495452941
 30
0.0
 11
10379.5
 21
7956.974495452941
 31
0.0
  0
LINE
  5
1A8FC
330
747D
100
AcDbEntity
  8
部品1
 48
50.0
100
AcDbLine
 10
11220.5
 20
7756.974495452941
 30
0.0
 11
11220.5
 21
7956.974495452941
 31
0.0
  0
LINE
  5
1A8FD
330
747D
100
AcDbEntity
  8
部品1
 48
50.0
100
AcDbLine
 10
11020.5
 20
7956.974495452941
 30
0.0
 11
11020.5
 21
7756.974495452941
 31
0.0
  0
LINE
  5
1A8FE
330
747D
100
AcDbEntity
  8
部品1
 48
50.0
100
AcDbLine
 10
11020.5
 20
7756.974495452941
 30
0.0
 11
11220.5
 21
7756.974495452941
 31
0.0
  0
LINE
  5
1A8FF
330
747D
100
AcDbEntity
  8
部品1
 48
50.0
100
AcDbLine
 10
11220.5
 20
7956.974495452941
 30
0.0
 11
11020.5
 21
7956.974495452941
 31
0.0
  0
LINE
  5
1A900
330
747D
100
AcDbEntity
  8
部品1
 48
50.0
100
AcDbLine
 10
11220.5
 20
8597.974495452943
 30
0.0
 11
10820.5
 21
8597.974495452943
 31
0.0
  0
LINE
  5
1A901
330
747D
100
AcDbEntity
  8
部品1
 48
50.0
100
AcDbLine
 10
11220.5
 20
8797.974495452942
 30
0.0
 11
10820.5
 21
8797.974495452942
 31
0.0
  0
MTEXT
  5
1A902
102
{ACAD_REACTORS
330
1A903
102
}
330
747D
100
AcDbEntity
  8
部品1
 62
     7
 48
50.0
100
AcDbMText
 10
11484.15206936182
 20
9194.748315628181
 30
0.0
 40
150.0
 41
0.0
 71
     6
 72
     1
  1
\A1;屋根の外寸
  7
STYLE1
 73
     1
 44
1.0
1001
ACAD
1000
MTEXTBEGIN
1070
    73
1070
     1
1070
    44
1040
1.0
1070
    74
1070
     0
1000
MTEXTEND
  0
LEADER
  5
1A903
330
747D
100
AcDbEntity
  8
寸法
 48
50.0
100
AcDbLeader
  3
INABA_S50G
 73
     0
 74
     0
 75
     1
 40
150.0
 41
840.0
 76
     3
 10
10279.5
 20
8892.974495452941
 30
0.0
 10
10494.15206936182
 20
9094.748315628182
 30
0.0
 10
10619.15206936182
 20
9094.748315628182
 30
0.0
340
1A902
1001
ACAD
1000
DSTYLE
1002
{
1070
   341
1005
0
1070
    40
1040
1.0
1070
   343
1005
0
1070
   344
1005
0
1002
}
  0
LINE
  5
1A904
330
747D
100
AcDbEntity
  8
部品1
 48
50.0
100
AcDbLine
 10
10379.5
 20
8797.974495452942
 30
0.0
 11
10379.5
 21
8597.974495452943
 31
0.0
  0
LINE
  5
1A905
330
747D
100
AcDbEntity
  8
部品1
 48
50.0
100
AcDbLine
 10
10179.5
 20
8597.974495452943
 30
0.0
 11
10179.5
 21
8797.974495452942
 31
0.0
  0
LINE
  5
1A906
330
747D
100
AcDbEntity
  8
部品1
 48
50.0
100
AcDbLine
 10
10379.5
 20
8597.974495452943
 30
0.0
 11
10179.5
 21
8597.974495452943
 31
0.0
  0
LINE
  5
1A907
330
747D
100
AcDbEntity
  8
部品1
 48
50.0
100
AcDbLine
 10
10179.5
 20
8797.974495452942
 30
0.0
 11
10379.5
 21
8797.974495452942
 31
0.0
  0
LINE
  5
1A908
330
747D
100
AcDbEntity
  8
部品1
 48
50.0
100
AcDbLine
 10
10820.5
 20
8597.974495452943
 30
0.0
 11
10820.5
 21
8797.974495452942
 31
0.0
  0
LINE
  5
1A909
330
747D
100
AcDbEntity
  8
センター
 48
5.0
100
AcDbLine
 10
11365.5
 20
8797.974495452942
 30
0.0
 11
11075.5
 21
8797.974495452942
 31
0.0
  0
LINE
  5
1A90A
330
747D
100
AcDbEntity
  8
部品1
 48
50.0
100
AcDbLine
 10
11220.5
 20
8597.974495452943
 30
0.0
 11
11220.5
 21
8797.974495452942
 31
0.0
  0
LINE
  5
1A90B
330
747D
100
AcDbEntity
  8
センター
 48
5.0
100
AcDbLine
 10
11220.5
 20
8942.974495452942
 30
0.0
 11
11220.5
 21
8652.974495452943
 31
0.0
  0
LINE
  5
1A90C
330
747D
100
AcDbEntity
  8
点線
 48
10.0
100
AcDbLine
 10
11120.5
 20
8697.974495452942
 30
0.0
 11
11320.5
 21
8697.974495452942
 31
0.0
  0
LINE
  5
1A90D
330
747D
100
AcDbEntity
  8
点線
 48
10.0
100
AcDbLine
 10
11120.5
 20
8897.974495452942
 30
0.0
 11
11320.5
 21
8897.974495452942
 31
0.0
  0
LINE
  5
1A90E
330
747D
100
AcDbEntity
  8
点線
 48
10.0
100
AcDbLine
 10
11120.5
 20
8897.974495452942
 30
0.0
 11
11120.5
 21
8697.974495452942
 31
0.0
  0
LINE
  5
1A90F
330
747D
100
AcDbEntity
  8
点線
 48
10.0
100
AcDbLine
 10
11320.5
 20
8897.974495452942
 30
0.0
 11
11320.5
 21
8697.974495452942
 31
0.0
  0
ENDSEC
  0
SECTION
  2
OBJECTS
  0
DICTIONARY
  5
7471
330
0
100
AcDbDictionary
281
     1
  3
ACAD_COLOR
350
197BE
  3
ACAD_GROUP
350
7472
  3
ACAD_LAYOUT
350
197BF
  3
ACAD_MATERIAL
350
197BD
  3
ACAD_MLINESTYLE
350
7473
  3
ACAD_PLOTSETTINGS
350
197C0
  3
ACAD_PLOTSTYLENAME
350
197BB
  3
ACDBHEADERROUNDTRIPXREC
350
1AA88
  3
ACDBVARIABLEDICTIONARY
350
1152B
  3
CONTENTDICTIONARY
350
E71C
  3
DRAWINGVARIABLESDICT
350
F3B9
  0
DICTIONARY
  5
197BE
102
{ACAD_REACTORS
330
7471
102
}
330
7471
100
AcDbDictionary
281
     1
  0
DICTIONARY
  5
7472
102
{ACAD_REACTORS
330
7471
102
}
330
7471
100
AcDbDictionary
281
     1
  3
*A1
350
1A548
  3
*A2
350
1A6FB
  0
DICTIONARY
  5
197BF
102
{ACAD_REACTORS
330
7471
102
}
330
7471
100
AcDbDictionary
281
     1
  3
Model
350
197C1
  3
レイアウト1
350
197C2
  0
DICTIONARY
  5
197BD
102
{ACAD_REACTORS
330
7471
102
}
330
7471
100
AcDbDictionary
281
     1
  0
DICTIONARY
  5
7473
102
{ACAD_REACTORS
330
7471
102
}
330
7471
100
AcDbDictionary
281
     1
  3
STANDARD
350
7480
  0
DICTIONARY
  5
197C0
102
{ACAD_REACTORS
330
7471
102
}
330
7471
100
AcDbDictionary
281
     1
  0
ACDBDICTIONARYWDFLT
  5
197BB
102
{ACAD_REACTORS
330
7471
102
}
330
7471
100
AcDbDictionary
281
     1
  3
Normal
350
197BC
100
AcDbDictionaryWithDefault
340
197BC
  0
DICTIONARY
  5
1AA88
102
{ACAD_REACTORS
330
7471
102
}
330
7471
100
AcDbDictionary
281
     1
  3
COLORDICT
350
1AA8A
  3
MATERIALDICT
350
1AA89
  0
DICTIONARY
  5
1152B
102
{ACAD_REACTORS
330
7471
102
}
330
7471
100
AcDbDictionary
281
     1
  3
DIMASSOC
350
1A7C7
  3
PROJECTNAME
350
1A7C8
  3
SORTENTS
350
1152C
  0
DICTIONARY
  5
E71C
102
{ACAD_REACTORS
330
7471
102
}
330
7471
100
AcDbDictionary
281
     1
  0
DICTIONARY
  5
F3B9
102
{ACAD_REACTORS
330
7471
102
}
330
7471
100
AcDbDictionary
281
     1
1001
DRAWINGVARIABLESXDATA
1000
POLARMODE
1000
1
  0
GROUP
  5
1A548
102
{ACAD_REACTORS
330
7472
102
}
330
7472
100
AcDbGroup
300

 70
     1
 71
     1
  0
GROUP
  5
1A6FB
102
{ACAD_REACTORS
330
7472
102
}
330
7472
100
AcDbGroup
300

 70
     1
 71
     1
  0
LAYOUT
  5
197C1
102
{ACAD_XDICTIONARY
360
1AA8B
102
}
102
{ACAD_REACTORS
330
197BF
102
}
330
197BF
100
AcDbPlotSettings
  1

  2
Microsoft Office Document Image Writer
  4
A4
  6

 40
3.174999952316284
 41
3.174999952316284
 42
3.175003051757812
 43
3.17498779296875
 44
209.9733276367187
 45
297.0106506347656
 46
0.0
 47
0.0
 48
0.0
 49
0.0
140
0.0
141
0.0
142
1.0
143
1.0
 70
 11952
 72
     1
 73
     1
 74
     0
  7

 75
     0
147
1.0
148
-3017.868111842157
149
57.58095898115607
100
AcDbLayout
  1
Model
 70
     1
 71
     0
 10
0.0
 20
0.0
 11
12.0
 21
9.0
 12
0.0
 22
0.0
 32
0.0
 14
0.0
 24
0.0
 34
0.0
 15
0.0
 25
0.0
 35
0.0
146
0.0
 13
0.0
 23
0.0
 33
0.0
 16
1.0
 26
0.0
 36
0.0
 17
0.0
 27
1.0
 37
0.0
 76
     0
330
747D
  0
LAYOUT
  5
197C2
102
{ACAD_XDICTIONARY
360
1AA8D
102
}
102
{ACAD_REACTORS
330
197BF
102
}
330
197BF
100
AcDbPlotSettings
  1

  2
Microsoft Office Document Image Writer
  4

  6

 40
0.0
 41
0.0
 42
0.0
 43
0.0
 44
0.0
 45
0.0
 46
0.0
 47
0.0
 48
0.0
 49
0.0
140
0.0
141
0.0
142
1.0
143
1.0
 70
   688
 72
     0
 73
     0
 74
     5
  7

 75
    16
147
1.0
148
0.0
149
0.0
100
AcDbLayout
  1
レイアウト1
 70
     0
 71
     1
 10
0.0
 20
0.0
 11
420.0
 21
297.0
 12
0.0
 22
0.0
 32
0.0
 14
1.000000000000000E+20
 24
1.000000000000000E+20
 34
1.000000000000000E+20
 15
-1.000000000000000E+20
 25
-1.000000000000000E+20
 35
-1.000000000000000E+20
146
0.0
 13
0.0
 23
0.0
 33
0.0
 16
1.0
 26
0.0
 36
0.0
 17
0.0
 27
1.0
 37
0.0
 76
     0
330
747A
  0
MLINESTYLE
  5
7480
102
{ACAD_REACTORS
330
7473
102
}
330
7473
100
AcDbMlineStyle
  2
STANDARD
 70
     0
  3

 62
     0
 51
90.0
 52
90.0
 71
     2
 49
0.5
 62
   256
  6
BYLAYER
 49
-0.5
 62
   256
  6
BYLAYER
  0
ACDBPLACEHOLDER
  5
197BC
102
{ACAD_REACTORS
330
197BB
102
}
330
197BB
  0
XRECORD
  5
1AA8A
102
{ACAD_REACTORS
330
1AA88
102
}
330
1AA88
100
AcDbXrecord
280
     1
340
197BE
  0
XRECORD
  5
1AA89
102
{ACAD_REACTORS
330
1AA88
102
}
330
1AA88
100
AcDbXrecord
280
     1
340
197BD
  0
DICTIONARYVAR
  5
1A7C7
102
{ACAD_REACTORS
330
1152B
102
}
330
1152B
100
DictionaryVariables
280
     0
  1
1
  0
DICTIONARYVAR
  5
1A7C8
102
{ACAD_REACTORS
330
1152B
102
}
330
1152B
100
DictionaryVariables
280
     0
  1

  0
DICTIONARYVAR
  5
1152C
102
{ACAD_REACTORS
330
1152B
102
}
330
1152B
100
DictionaryVariables
280
     0
  1
96
  0
DICTIONARY
  5
1AA8B
330
197C1
100
AcDbDictionary
280
     1
281
     1
  3
ACAD_XREC_ROUNDTRIP
360
1AA8C
  0
DICTIONARY
  5
1AA8D
330
197C2
100
AcDbDictionary
280
     1
281
     1
  3
ACAD_XREC_ROUNDTRIP
360
1AA8E
  0
XRECORD
  5
1AA8C
102
{ACAD_REACTORS
330
1AA8B
102
}
330
1AA8B
100
AcDbXrecord
280
     1
102
SHADEPLOT
 70
     0
102
SHADEPLOTRESLEVEL
 70
     2
102
SHADEPLOTCUSTOMDPI
 70
   300
  0
XRECORD
  5
1AA8E
102
{ACAD_REACTORS
330
1AA8D
102
}
330
1AA8D
100
AcDbXrecord
280
     1
102
SHADEPLOT
 70
     0
102
SHADEPLOTRESLEVEL
 70
     2
102
SHADEPLOTCUSTOMDPI
 70
   300
  0
ENDSEC
  0
EOF
