  0
SECTION
  2
HEADER
  9
$ACADVER
  1
AC1015
  9
$ACADMAINTVER
 70
    20
  9
$DWGCODEPAGE
  3
ANSI_932
  9
$INSBASE
 10
0.0
 20
0.0
 30
0.0
  9
$EXTMIN
 10
174.9999999999993
 20
-0.570605785936452
 30
0.0
  9
$EXTMAX
 10
20385.39675833159
 20
14262.0
 30
0.0
  9
$LIMMIN
 10
0.0
 20
0.0
  9
$LIMMAX
 10
21000.0
 20
14850.0
  9
$ORTHOMODE
 70
     0
  9
$REGENMODE
 70
     1
  9
$FILLMODE
 70
     1
  9
$QTEXTMODE
 70
     0
  9
$MIRRTEXT
 70
     1
  9
$LTSCALE
 40
20.0
  9
$ATTMODE
 70
     1
  9
$TEXTSIZE
 40
150.0
  9
$TRACEWID
 40
1.0
  9
$TEXTSTYLE
  7
STYLE1
  9
$CLAYER
  8
細線
  9
$CELTYPE
  6
BYLAYER
  9
$CECOLOR
 62
   256
  9
$CELTSCALE
 40
50.0
  9
$DISPSILH
 70
     0
  9
$DIMSCALE
 40
1.0
  9
$DIMASZ
 40
125.0
  9
$DIMEXO
 40
25.0
  9
$DIMDLI
 40
7.0
  9
$DIMRND
 40
0.0
  9
$DIMDLE
 40
0.0
  9
$DIMEXE
 40
75.0
  9
$DIMTP
 40
0.0
  9
$DIMTM
 40
0.0
  9
$DIMTXT
 40
150.0
  9
$DIMCEN
 40
0.0
  9
$DIMTSZ
 40
0.0
  9
$DIMTOL
 70
     0
  9
$DIMLIM
 70
     0
  9
$DIMTIH
 70
     0
  9
$DIMTOH
 70
     0
  9
$DIMSE1
 70
     0
  9
$DIMSE2
 70
     0
  9
$DIMTAD
 70
     3
  9
$DIMZIN
 70
     8
  9
$DIMBLK
  1

  9
$DIMASO
 70
     1
  9
$DIMSHO
 70
     1
  9
$DIMPOST
  1

  9
$DIMAPOST
  1

  9
$DIMALT
 70
     0
  9
$DIMALTD
 70
     2
  9
$DIMALTF
 40
0.0394
  9
$DIMLFAC
 40
1.0
  9
$DIMTOFL
 70
     1
  9
$DIMTVP
 40
0.0
  9
$DIMTIX
 70
     1
  9
$DIMSOXD
 70
     0
  9
$DIMSAH
 70
     1
  9
$DIMBLK1
  1
DOTSMALL
  9
$DIMBLK2
  1
DOTSMALL
  9
$DIMSTYLE
  2
INABA_S50G
  9
$DIMCLRD
 70
     0
  9
$DIMCLRE
 70
     0
  9
$DIMCLRT
 70
     7
  9
$DIMTFAC
 40
1.0
  9
$DIMGAP
 40
25.0
  9
$DIMJUST
 70
     0
  9
$DIMSD1
 70
     0
  9
$DIMSD2
 70
     0
  9
$DIMTOLJ
 70
     1
  9
$DIMTZIN
 70
     0
  9
$DIMALTZ
 70
     0
  9
$DIMALTTZ
 70
     0
  9
$DIMUPT
 70
     0
  9
$DIMDEC
 70
     1
  9
$DIMTDEC
 70
     4
  9
$DIMALTU
 70
     2
  9
$DIMALTTD
 70
     2
  9
$DIMTXSTY
  7
STYLE1
  9
$DIMAUNIT
 70
     0
  9
$DIMADEC
 70
     0
  9
$DIMALTRND
 40
0.0
  9
$DIMAZIN
 70
     0
  9
$DIMDSEP
 70
    46
  9
$DIMATFIT
 70
     3
  9
$DIMFRAC
 70
     0
  9
$DIMLDRBLK
  1

  9
$DIMLUNIT
 70
     2
  9
$DIMLWD
 70
    -2
  9
$DIMLWE
 70
    -2
  9
$DIMTMOVE
 70
     0
  9
$LUNITS
 70
     2
  9
$LUPREC
 70
     1
  9
$SKETCHINC
 40
1.0
  9
$FILLETRAD
 40
0.0
  9
$AUNITS
 70
     0
  9
$AUPREC
 70
     0
  9
$MENU
  1
acad
  9
$ELEVATION
 40
0.0
  9
$PELEVATION
 40
0.0
  9
$THICKNESS
 40
0.0
  9
$LIMCHECK
 70
     0
  9
$CHAMFERA
 40
0.0
  9
$CHAMFERB
 40
0.0
  9
$CHAMFERC
 40
0.0
  9
$CHAMFERD
 40
0.0
  9
$SKPOLY
 70
     0
  9
$TDCREATE
 40
2450927.380327778
  9
$TDUCREATE
 40
2450927.005327778
  9
$TDUPDATE
 40
2455827.765925880
  9
$TDUUPDATE
 40
2455827.390925879
  9
$TDINDWG
 40
2.1472621875
  9
$TDUSRTIMER
 40
2.1472621875
  9
$USRTIMER
 70
     1
  9
$ANGBASE
 50
0.0
  9
$ANGDIR
 70
     0
  9
$PDMODE
 70
     3
  9
$PDSIZE
 40
2.0
  9
$PLINEWID
 40
0.0
  9
$SPLFRAME
 70
     0
  9
$SPLINETYPE
 70
     6
  9
$SPLINESEGS
 70
     8
  9
$HANDSEED
  5
20E15
  9
$SURFTAB1
 70
     6
  9
$SURFTAB2
 70
     6
  9
$SURFTYPE
 70
     6
  9
$SURFU
 70
     6
  9
$SURFV
 70
     6
  9
$UCSBASE
  2

  9
$UCSNAME
  2

  9
$UCSORG
 10
0.0
 20
0.0
 30
0.0
  9
$UCSXDIR
 10
1.0
 20
0.0
 30
0.0
  9
$UCSYDIR
 10
0.0
 20
1.0
 30
0.0
  9
$UCSORTHOREF
  2

  9
$UCSORTHOVIEW
 70
     0
  9
$UCSORGTOP
 10
0.0
 20
0.0
 30
0.0
  9
$UCSORGBOTTOM
 10
0.0
 20
0.0
 30
0.0
  9
$UCSORGLEFT
 10
0.0
 20
0.0
 30
0.0
  9
$UCSORGRIGHT
 10
0.0
 20
0.0
 30
0.0
  9
$UCSORGFRONT
 10
0.0
 20
0.0
 30
0.0
  9
$UCSORGBACK
 10
0.0
 20
0.0
 30
0.0
  9
$PUCSBASE
  2

  9
$PUCSNAME
  2

  9
$PUCSORG
 10
0.0
 20
0.0
 30
0.0
  9
$PUCSXDIR
 10
1.0
 20
0.0
 30
0.0
  9
$PUCSYDIR
 10
0.0
 20
1.0
 30
0.0
  9
$PUCSORTHOREF
  2

  9
$PUCSORTHOVIEW
 70
     0
  9
$PUCSORGTOP
 10
0.0
 20
0.0
 30
0.0
  9
$PUCSORGBOTTOM
 10
0.0
 20
0.0
 30
0.0
  9
$PUCSORGLEFT
 10
0.0
 20
0.0
 30
0.0
  9
$PUCSORGRIGHT
 10
0.0
 20
0.0
 30
0.0
  9
$PUCSORGFRONT
 10
0.0
 20
0.0
 30
0.0
  9
$PUCSORGBACK
 10
0.0
 20
0.0
 30
0.0
  9
$USERI1
 70
     0
  9
$USERI2
 70
     0
  9
$USERI3
 70
     0
  9
$USERI4
 70
     0
  9
$USERI5
 70
     0
  9
$USERR1
 40
0.0
  9
$USERR2
 40
0.0
  9
$USERR3
 40
0.0
  9
$USERR4
 40
0.0
  9
$USERR5
 40
0.0
  9
$WORLDVIEW
 70
     1
  9
$SHADEDGE
 70
     3
  9
$SHADEDIF
 70
    70
  9
$TILEMODE
 70
     1
  9
$MAXACTVP
 70
    16
  9
$PINSBASE
 10
0.0
 20
0.0
 30
0.0
  9
$PLIMCHECK
 70
     0
  9
$PEXTMIN
 10
1.000000000000000E+20
 20
1.000000000000000E+20
 30
1.000000000000000E+20
  9
$PEXTMAX
 10
-1.000000000000000E+20
 20
-1.000000000000000E+20
 30
-1.000000000000000E+20
  9
$PLIMMIN
 10
0.0
 20
0.0
  9
$PLIMMAX
 10
420.0
 20
297.0
  9
$UNITMODE
 70
     0
  9
$VISRETAIN
 70
     0
  9
$PLINEGEN
 70
     0
  9
$PSLTSCALE
 70
     0
  9
$TREEDEPTH
 70
  3020
  9
$CMLSTYLE
  2
STANDARD
  9
$CMLJUST
 70
     0
  9
$CMLSCALE
 40
1.0
  9
$PROXYGRAPHICS
 70
     1
  9
$MEASUREMENT
 70
     1
  9
$CELWEIGHT
370
    -1
  9
$ENDCAPS
280
     0
  9
$JOINSTYLE
280
     0
  9
$LWDISPLAY
290
     0
  9
$INSUNITS
 70
     0
  9
$HYPERLINKBASE
  1

  9
$STYLESHEET
  1
inaba.ctb
  9
$XEDIT
290
     1
  9
$CEPSNTYPE
380
     0
  9
$PSTYLEMODE
290
     1
  9
$FINGERPRINTGUID
  2
{94D27637-AB05-4F4B-9DE7-C45394AF36DE}
  9
$VERSIONGUID
  2
{B88237C4-4FD2-4EFD-8097-1644067527D8}
  9
$EXTNAMES
290
     1
  9
$PSVPSCALE
 40
0.0
  9
$OLESTARTUP
290
     0
  0
ENDSEC
  0
SECTION
  2
CLASSES
  0
CLASS
  1
DICTIONARYVAR
  2
AcDbDictionaryVar
  3
ObjectDBX Classes
 90
        0
280
     0
281
     0
  0
CLASS
  1
ACDBDICTIONARYWDFLT
  2
AcDbDictionaryWithDefault
  3
ObjectDBX Classes
 90
        0
280
     0
281
     0
  0
CLASS
  1
ACDBPLACEHOLDER
  2
AcDbPlaceHolder
  3
ObjectDBX Classes
 90
        0
280
     0
281
     0
  0
CLASS
  1
LAYOUT
  2
AcDbLayout
  3
ObjectDBX Classes
 90
        0
280
     0
281
     0
  0
ENDSEC
  0
SECTION
  2
TABLES
  0
TABLE
  2
VPORT
  5
746D
330
0
100
AcDbSymbolTable
 70
     2
  0
VPORT
  5
20E0D
330
746D
100
AcDbSymbolTableRecord
100
AcDbViewportTableRecord
  2
*Active
 70
     0
 10
0.0
 20
0.0
 11
1.0
 21
1.0
 12
10279.70128154813
 22
7130.855581544657
 13
0.0
 23
0.0
 14
10.0
 24
10.0
 15
10.0
 25
10.0
 16
0.0
 26
0.0
 36
1.0
 17
0.0
 27
0.0
 37
0.0
 40
14370.65321059807
 41
1.522222222222222
 42
50.0
 43
0.0
 44
0.0
 50
0.0
 51
0.0
 71
     0
 72
     0
 73
     1
 74
     0
 75
     0
 76
     0
 77
     0
 78
     0
281
     0
 65
     1
110
0.0
120
0.0
130
0.0
111
1.0
121
0.0
131
0.0
112
0.0
122
1.0
132
0.0
 79
     0
146
0.0
  0
ENDTAB
  0
TABLE
  2
LTYPE
  5
746A
330
0
100
AcDbSymbolTable
 70
     4
  0
LTYPE
  5
7477
330
746A
100
AcDbSymbolTableRecord
100
AcDbLinetypeTableRecord
  2
BYBLOCK
 70
     0
  3

 72
    65
 73
     0
 40
0.0
  0
LTYPE
  5
7478
330
746A
100
AcDbSymbolTableRecord
100
AcDbLinetypeTableRecord
  2
BYLAYER
 70
     0
  3

 72
    65
 73
     0
 40
0.0
  0
LTYPE
  5
7479
330
746A
100
AcDbSymbolTableRecord
100
AcDbLinetypeTableRecord
  2
CONTINUOUS
 70
     0
  3
Solid line
 72
    65
 73
     0
 40
0.0
  0
LTYPE
  5
7816
330
746A
100
AcDbSymbolTableRecord
100
AcDbLinetypeTableRecord
  2
CENTER
 70
     0
  3
____ _ ____ _ ____ _ ____ _ ____ _ ____ _ ____ 
 72
    65
 73
     4
 40
2.0
 49
1.25
 74
     0
 49
-0.25
 74
     0
 49
0.25
 74
     0
 49
-0.25
 74
     0
  0
LTYPE
  5
781B
330
746A
100
AcDbSymbolTableRecord
100
AcDbLinetypeTableRecord
  2
PHANTOM
 70
     0
  3
______  __  __  ______  __  __  ______  __  __ 
 72
    65
 73
     6
 40
2.5
 49
1.25
 74
     0
 49
-0.25
 74
     0
 49
0.25
 74
     0
 49
-0.25
 74
     0
 49
0.25
 74
     0
 49
-0.25
 74
     0
  0
LTYPE
  5
13F72
330
746A
100
AcDbSymbolTableRecord
100
AcDbLinetypeTableRecord
  2
HIDDEN
 70
     0
  3
__ __ __ __ __ __ __ __ __ __ __ __ __ __ __ __
 72
    65
 73
     2
 40
0.375
 49
0.25
 74
     0
 49
-0.125
 74
     0
  0
ENDTAB
  0
TABLE
  2
LAYER
  5
7467
102
{ACAD_XDICTIONARY
360
1E730
102
}
330
0
100
AcDbSymbolTable
 70
    12
  0
LAYER
  5
7474
330
7467
100
AcDbSymbolTableRecord
100
AcDbLayerTableRecord
  2
0
 70
     0
 62
     7
  6
CONTINUOUS
370
    -3
390
1D6B2
  0
LAYER
  5
DEB2
330
7467
100
AcDbSymbolTableRecord
100
AcDbLayerTableRecord
  2
センター
 70
     0
 62
     3
  6
CENTER
370
    -3
390
1D6B2
  0
LAYER
  5
DEB3
330
7467
100
AcDbSymbolTableRecord
100
AcDbLayerTableRecord
  2
寸法
 70
     0
 62
     4
  6
CONTINUOUS
370
    -3
390
1D6B2
  0
LAYER
  5
DEB4
330
7467
100
AcDbSymbolTableRecord
100
AcDbLayerTableRecord
  2
部品1
 70
     0
 62
     7
  6
CONTINUOUS
370
    -3
390
1D6B2
  0
LAYER
  5
DEB5
330
7467
100
AcDbSymbolTableRecord
100
AcDbLayerTableRecord
  2
補助
 70
     0
 62
    -1
  6
CONTINUOUS
370
    -3
390
1D6B2
  0
LAYER
  5
DEB6
330
7467
100
AcDbSymbolTableRecord
100
AcDbLayerTableRecord
  2
文字
 70
     0
 62
     7
  6
CONTINUOUS
370
    -3
390
1D6B2
  0
LAYER
  5
F255
330
7467
100
AcDbSymbolTableRecord
100
AcDbLayerTableRecord
  2
DEFPOINTS
 70
     0
 62
     7
  6
CONTINUOUS
290
     0
370
    -3
390
1D6B2
  0
LAYER
  5
10B54
330
7467
100
AcDbSymbolTableRecord
100
AcDbLayerTableRecord
  2
仕様書枠
 70
     0
 62
   230
  6
CONTINUOUS
370
    -3
390
1D6B2
  0
LAYER
  5
13F73
330
7467
100
AcDbSymbolTableRecord
100
AcDbLayerTableRecord
  2
細線
 70
     0
 62
     5
  6
CONTINUOUS
370
    -3
390
1D6B2
  0
LAYER
  5
13F74
330
7467
100
AcDbSymbolTableRecord
100
AcDbLayerTableRecord
  2
点線
 70
     0
 62
     2
  6
HIDDEN
370
    -3
390
1D6B2
  0
LAYER
  5
1643F
330
7467
100
AcDbSymbolTableRecord
100
AcDbLayerTableRecord
  2
想像線
 70
     0
 62
     6
  6
PHANTOM
370
    -3
390
1D6B2
  0
LAYER
  5
1825D
330
7467
100
AcDbSymbolTableRecord
100
AcDbLayerTableRecord
  2
Ｇ．Ｌ
 70
     0
 62
    30
  6
CONTINUOUS
370
    -3
390
1D6B2
  0
ENDTAB
  0
TABLE
  2
STYLE
  5
7468
330
0
100
AcDbSymbolTable
 70
     4
  0
STYLE
  5
7475
330
7468
100
AcDbSymbolTableRecord
100
AcDbTextStyleTableRecord
  2
STANDARD
 70
     0
 40
0.0
 41
1.0
 50
0.0
 71
     0
 42
4.0
  3
txt
  4
C:\AutoCAD LT\bigfont.shx
  0
STYLE
  5
F706
330
7468
100
AcDbSymbolTableRecord
100
AcDbTextStyleTableRecord
  2
STYLE1
 70
     0
 40
0.0
 41
1.0
 50
0.0
 71
     0
 42
150.0
  3
isocp.shx
  4
bigfont.shx
  0
STYLE
  5
103BF
330
7468
100
AcDbSymbolTableRecord
100
AcDbTextStyleTableRecord
  2
STYLE2
 70
     0
 40
0.0
 41
1.0
 50
0.0
 71
     0
 42
100.0
  3
MS PGothic.ttf
  4

1001
ACAD
1000
MS PGothic
1071
    32818
  0
STYLE
  5
1EBEE
330
7468
100
AcDbSymbolTableRecord
100
AcDbTextStyleTableRecord
  2
STYLE3
 70
     0
 40
0.0
 41
1.0
 50
0.0
 71
     0
 42
100.0
  3
DFPGothic-EB.ttf
  4

1001
ACAD
1000
DFPGothic-EB
1071
    32818
  0
ENDTAB
  0
TABLE
  2
VIEW
  5
746B
330
0
100
AcDbSymbolTable
 70
     0
  0
ENDTAB
  0
TABLE
  2
UCS
  5
746C
330
0
100
AcDbSymbolTable
 70
     0
  0
ENDTAB
  0
TABLE
  2
APPID
  5
746E
330
0
100
AcDbSymbolTable
 70
     6
  0
APPID
  5
7476
330
746E
100
AcDbSymbolTableRecord
100
AcDbRegAppTableRecord
  2
ACAD
 70
     0
  0
APPID
  5
DEA9
330
746E
100
AcDbSymbolTableRecord
100
AcDbRegAppTableRecord
  2
CONTENTBLOCKICON
 70
     0
  0
APPID
  5
DEAA
330
746E
100
AcDbSymbolTableRecord
100
AcDbRegAppTableRecord
  2
CONTENTBLOCKDESCRIPTION
 70
     0
  0
APPID
  5
E71D
330
746E
100
AcDbSymbolTableRecord
100
AcDbRegAppTableRecord
  2
CONTENTTABDATA
 70
     0
  0
APPID
  5
E71E
330
746E
100
AcDbSymbolTableRecord
100
AcDbRegAppTableRecord
  2
CONTENTCURRENTTAB
 70
     0
  0
APPID
  5
F3BA
330
746E
100
AcDbSymbolTableRecord
100
AcDbRegAppTableRecord
  2
DRAWINGVARIABLESXDATA
 70
     0
  0
ENDTAB
  0
TABLE
  2
DIMSTYLE
  5
746F
330
0
100
AcDbSymbolTable
 70
     4
100
AcDbDimStyleTable
 71
     1
340
F71F
  0
DIMSTYLE
105
7484
330
746F
100
AcDbSymbolTableRecord
100
AcDbDimStyleTableRecord
  2
JIS
 70
     0
 41
2.5
 42
1.0
 43
7.0
 44
1.0
 73
     0
 74
     0
 77
     1
 78
     8
140
2.5
141
0.0
143
0.0394
147
0.0
172
     1
174
     1
175
     1
340
7475
  0
DIMSTYLE
105
F71F
102
{ACAD_REACTORS
330
1DBE4
330
1DBE6
330
1DBE7
330
1DBEA
330
1DBF4
330
1DBF6
330
1DBFF
330
1DC06
330
1DC07
330
1DC0C
330
1DC16
330
1DC48
330
1DC49
330
1DC4E
330
1DC4F
330
1DC51
330
1DC52
330
1DC61
330
1DC62
330
1E0B9
330
1DC3B
330
20322
330
20311
102
}
330
746F
100
AcDbSymbolTableRecord
100
AcDbDimStyleTableRecord
  2
INABA_S50G
 70
     0
 41
125.0
 42
25.0
 43
7.0
 44
75.0
 73
     0
 74
     0
 77
     3
 78
     8
140
150.0
141
0.0
143
0.0394
147
25.0
172
     1
173
     1
174
     1
178
     7
271
     1
340
F706
341
F770
343
F770
344
F770
  0
DIMSTYLE
105
1E72F
102
{ACAD_REACTORS
330
20A8F
330
20A98
330
20A9F
330
20AD6
330
20B7C
330
20B7D
330
20B9F
102
}
330
746F
100
AcDbSymbolTableRecord
100
AcDbDimStyleTableRecord
  2
INABA_S50GUP
 70
     0
 41
125.0
 42
25.0
 43
7.0
 44
75.0
 73
     0
 74
     0
 77
     3
 78
     8
140
150.0
141
0.0
143
0.0394
147
25.0
172
     1
173
     1
174
     1
178
     7
271
     1
340
F706
341
F770
343
F770
344
F770
  0
DIMSTYLE
105
203D9
330
746F
100
AcDbSymbolTableRecord
100
AcDbDimStyleTableRecord
  2
INABA_S40G
 70
     0
 40
40.0
 41
2.5
 42
0.5
 43
7.0
 44
1.5
 73
     0
 74
     0
 77
     3
 78
     8
140
3.0
141
0.0
143
0.0394
147
1.0
172
     1
173
     1
174
     1
178
     7
271
     1
340
F706
341
F770
343
F770
344
F770
  0
ENDTAB
  0
TABLE
  2
BLOCK_RECORD
  5
7466
330
0
100
AcDbSymbolTable
 70
    34
  0
BLOCK_RECORD
  5
747D
330
7466
100
AcDbSymbolTableRecord
100
AcDbBlockTableRecord
  2
*MODEL_SPACE
340
1D6B7
  0
BLOCK_RECORD
  5
747A
330
7466
100
AcDbSymbolTableRecord
100
AcDbBlockTableRecord
  2
*PAPER_SPACE
340
1D6B8
  0
BLOCK_RECORD
  5
F770
330
7466
100
AcDbSymbolTableRecord
100
AcDbBlockTableRecord
  2
_DOTSMALL
340
0
102
{BLKREFS
331
1EC93
331
1EC94
331
1EC9B
331
1EC9C
331
1ED5F
331
1ED60
331
1ED86
331
1ED87
331
1EE91
331
1EE92
331
1F5F5
331
1F5F6
331
1F5FE
331
1F5FF
331
1F606
331
1F607
331
1F610
331
1F611
331
1F619
331
1F61A
331
1F637
331
1F638
331
1F63F
331
1F640
331
1F648
331
1F649
331
1F651
331
1F652
331
1F65A
331
1F65B
331
202C9
331
202CA
331
202D1
331
202D2
331
202DB
331
202DC
331
202E5
331
202E6
331
202EF
331
202F0
331
202F9
331
202FA
331
2035C
331
2035D
331
20D4D
331
20D4E
331
20D57
331
20D58
331
20D60
331
20D61
331
20D72
331
20D73
331
20D7B
331
20D7C
331
20D84
331
20D85
331
20D8D
331
20D8E
331
20DE8
331
20DE9
331
20DF1
331
20DF2
102
}
  0
BLOCK_RECORD
  5
1DD36
330
7466
100
AcDbSymbolTableRecord
100
AcDbBlockTableRecord
  2
*D1
340
0
  0
BLOCK_RECORD
  5
1DD42
330
7466
100
AcDbSymbolTableRecord
100
AcDbBlockTableRecord
  2
*D2
340
0
  0
BLOCK_RECORD
  5
1DD4D
330
7466
100
AcDbSymbolTableRecord
100
AcDbBlockTableRecord
  2
*D3
340
0
  0
BLOCK_RECORD
  5
1DD59
330
7466
100
AcDbSymbolTableRecord
100
AcDbBlockTableRecord
  2
*D4
340
0
  0
BLOCK_RECORD
  5
1DD65
330
7466
100
AcDbSymbolTableRecord
100
AcDbBlockTableRecord
  2
*D5
340
0
  0
BLOCK_RECORD
  5
1DD7D
330
7466
100
AcDbSymbolTableRecord
100
AcDbBlockTableRecord
  2
*D6
340
0
  0
BLOCK_RECORD
  5
1DD89
330
7466
100
AcDbSymbolTableRecord
100
AcDbBlockTableRecord
  2
*D7
340
0
  0
BLOCK_RECORD
  5
1DD97
330
7466
100
AcDbSymbolTableRecord
100
AcDbBlockTableRecord
  2
*D8
340
0
  0
BLOCK_RECORD
  5
1DDA2
330
7466
100
AcDbSymbolTableRecord
100
AcDbBlockTableRecord
  2
*D9
340
0
  0
BLOCK_RECORD
  5
1DDBC
330
7466
100
AcDbSymbolTableRecord
100
AcDbBlockTableRecord
  2
*D10
340
0
  0
BLOCK_RECORD
  5
1DDC8
330
7466
100
AcDbSymbolTableRecord
100
AcDbBlockTableRecord
  2
*D11
340
0
  0
BLOCK_RECORD
  5
1DDD3
330
7466
100
AcDbSymbolTableRecord
100
AcDbBlockTableRecord
  2
*D12
340
0
  0
BLOCK_RECORD
  5
1DDDF
330
7466
100
AcDbSymbolTableRecord
100
AcDbBlockTableRecord
  2
*D13
340
0
  0
BLOCK_RECORD
  5
1DDEA
330
7466
100
AcDbSymbolTableRecord
100
AcDbBlockTableRecord
  2
*D14
340
0
  0
BLOCK_RECORD
  5
1DDF6
330
7466
100
AcDbSymbolTableRecord
100
AcDbBlockTableRecord
  2
*D15
340
0
  0
BLOCK_RECORD
  5
1DE03
330
7466
100
AcDbSymbolTableRecord
100
AcDbBlockTableRecord
  2
*D16
340
0
  0
BLOCK_RECORD
  5
1DE10
330
7466
100
AcDbSymbolTableRecord
100
AcDbBlockTableRecord
  2
*D17
340
0
  0
BLOCK_RECORD
  5
1DE1D
330
7466
100
AcDbSymbolTableRecord
100
AcDbBlockTableRecord
  2
*D18
340
0
  0
BLOCK_RECORD
  5
1DE2A
330
7466
100
AcDbSymbolTableRecord
100
AcDbBlockTableRecord
  2
*D19
340
0
  0
BLOCK_RECORD
  5
1DE37
330
7466
100
AcDbSymbolTableRecord
100
AcDbBlockTableRecord
  2
*D20
340
0
  0
BLOCK_RECORD
  5
1E0BA
330
7466
100
AcDbSymbolTableRecord
100
AcDbBlockTableRecord
  2
*D21
340
0
  0
BLOCK_RECORD
  5
1EE39
330
7466
100
AcDbSymbolTableRecord
100
AcDbBlockTableRecord
  2
A$C4CA21720
340
0
  0
BLOCK_RECORD
  5
1EE8C
330
7466
100
AcDbSymbolTableRecord
100
AcDbBlockTableRecord
  2
*D23
340
0
  0
BLOCK_RECORD
  5
1EE98
330
7466
100
AcDbSymbolTableRecord
100
AcDbBlockTableRecord
  2
A$C5AF22E4D
340
0
  0
BLOCK_RECORD
  5
20323
330
7466
100
AcDbSymbolTableRecord
100
AcDbBlockTableRecord
  2
*D25
340
0
  0
BLOCK_RECORD
  5
2032F
330
7466
100
AcDbSymbolTableRecord
100
AcDbBlockTableRecord
  2
*D26
340
0
  0
BLOCK_RECORD
  5
20C59
330
7466
100
AcDbSymbolTableRecord
100
AcDbBlockTableRecord
  2
*D27
340
0
  0
BLOCK_RECORD
  5
20C65
330
7466
100
AcDbSymbolTableRecord
100
AcDbBlockTableRecord
  2
*D28
340
0
  0
BLOCK_RECORD
  5
20C71
330
7466
100
AcDbSymbolTableRecord
100
AcDbBlockTableRecord
  2
*D29
340
0
  0
BLOCK_RECORD
  5
20C7D
330
7466
100
AcDbSymbolTableRecord
100
AcDbBlockTableRecord
  2
*D30
340
0
  0
BLOCK_RECORD
  5
20C89
330
7466
100
AcDbSymbolTableRecord
100
AcDbBlockTableRecord
  2
*D31
340
0
  0
BLOCK_RECORD
  5
20C96
330
7466
100
AcDbSymbolTableRecord
100
AcDbBlockTableRecord
  2
*D32
340
0
  0
BLOCK_RECORD
  5
20CA2
330
7466
100
AcDbSymbolTableRecord
100
AcDbBlockTableRecord
  2
*D33
340
0
  0
ENDTAB
  0
ENDSEC
  0
SECTION
  2
BLOCKS
  0
BLOCK
  5
7489
330
747D
100
AcDbEntity
  8
0
100
AcDbBlockBegin
  2
*MODEL_SPACE
 70
     0
 10
0.0
 20
0.0
 30
0.0
  3
*MODEL_SPACE
  1

  0
ENDBLK
  5
748A
330
747D
100
AcDbEntity
  8
0
100
AcDbBlockEnd
  0
BLOCK
  5
7487
330
747A
100
AcDbEntity
 67
     1
  8
0
100
AcDbBlockBegin
  2
*PAPER_SPACE
 70
     0
 10
0.0
 20
0.0
 30
0.0
  3
*PAPER_SPACE
  1

  0
ENDBLK
  5
7488
330
747A
100
AcDbEntity
 67
     1
  8
0
100
AcDbBlockEnd
  0
BLOCK
  5
F771
330
F770
100
AcDbEntity
  8
0
 48
50.0
100
AcDbBlockBegin
  2
_DOTSMALL
 70
     0
 10
0.0
 20
0.0
 30
0.0
  3
_DOTSMALL
  1

  0
LWPOLYLINE
  5
F772
330
F770
100
AcDbEntity
  8
0
  6
ByBlock
 62
     0
 48
50.0
100
AcDbPolyline
 90
        2
 70
     1
 43
0.5
 10
-0.0625
 20
0.0
 42
1.0
 10
0.0625
 20
0.0
 42
1.0
  0
ENDBLK
  5
F776
330
F770
100
AcDbEntity
  8
0
 48
50.0
100
AcDbBlockEnd
  0
BLOCK
  5
1DD40
330
1DD36
100
AcDbEntity
  8
0
 48
50.0
100
AcDbBlockBegin
  2
*D1
 70
     1
 10
0.0
 20
0.0
 30
0.0
  3
*D1
  1

  0
LINE
  5
1F64E
330
1DD36
100
AcDbEntity
  8
寸法
 62
     0
 48
50.0
370
    -2
100
AcDbLine
 10
10354.99166227189
 20
8717.310710222283
 30
0.0
 11
10354.99166227189
 21
9909.573859952459
 31
0.0
  0
LINE
  5
1F64F
330
1DD36
100
AcDbEntity
  8
寸法
 62
     0
 48
50.0
370
    -2
100
AcDbLine
 10
11589.99166227189
 20
9227.310710222281
 30
0.0
 11
11589.99166227189
 21
9909.573859952459
 31
0.0
  0
LINE
  5
1F650
330
1DD36
100
AcDbEntity
  8
寸法
 62
     0
 48
50.0
370
    -2
100
AcDbLine
 10
10354.99166227189
 20
9834.57385995246
 30
0.0
 11
11589.99166227189
 21
9834.57385995246
 31
0.0
  0
INSERT
  5
1F651
330
1DD36
100
AcDbEntity
  8
寸法
 62
     0
 48
50.0
370
    -2
100
AcDbBlockReference
  2
_DOTSMALL
 10
10354.99166227189
 20
9834.57385995246
 30
0.0
 41
125.0
 42
125.0
 43
125.0
 50
180.0
  0
INSERT
  5
1F652
330
1DD36
100
AcDbEntity
  8
寸法
 62
     0
 48
50.0
370
    -2
100
AcDbBlockReference
  2
_DOTSMALL
 10
11589.99166227189
 20
9834.57385995246
 30
0.0
 41
125.0
 42
125.0
 43
125.0
  0
MTEXT
  5
1F653
330
1DD36
100
AcDbEntity
  8
寸法
 62
     7
 48
50.0
100
AcDbMText
 10
10972.49166227189
 20
9934.588623731986
 30
0.0
 40
150.0
 41
0.0
 71
     5
 72
     1
  1
\A1;1235
  7
STYLE1
 73
     1
 44
1.0
1001
ACAD
1000
MTEXTBEGIN
1070
    73
1070
     1
1070
    44
1040
1.0
1070
    74
1070
     0
1000
MTEXTEND
  0
POINT
  5
1F654
330
1DD36
100
AcDbEntity
  8
DEFPOINTS
 62
     0
 48
50.0
100
AcDbPoint
 10
10354.99166227189
 20
8692.310710222283
 30
0.0
  0
POINT
  5
1F655
330
1DD36
100
AcDbEntity
  8
DEFPOINTS
 62
     0
 48
50.0
100
AcDbPoint
 10
11589.99166227189
 20
9202.310710222283
 30
0.0
  0
POINT
  5
1F656
330
1DD36
100
AcDbEntity
  8
DEFPOINTS
 62
     0
 48
50.0
100
AcDbPoint
 10
11589.99166227189
 20
9834.57385995246
 30
0.0
  0
ENDBLK
  5
1DD41
330
1DD36
100
AcDbEntity
  8
0
 48
50.0
100
AcDbBlockEnd
  0
BLOCK
  5
1DD4B
330
1DD42
100
AcDbEntity
  8
0
 48
50.0
100
AcDbBlockBegin
  2
*D2
 70
     1
 10
0.0
 20
0.0
 30
0.0
  3
*D2
  1

  0
LINE
  5
202CF
330
1DD42
100
AcDbEntity
  8
寸法
 62
     0
 48
50.0
370
    -2
100
AcDbLine
 10
11524.99166227189
 20
7787.310710222282
 30
0.0
 11
11524.99166227189
 21
6833.051675918127
 31
0.0
  0
LINE
  5
202D0
330
1DD42
100
AcDbEntity
  8
寸法
 62
     0
 48
50.0
370
    -2
100
AcDbLine
 10
9184.991662271889
 20
6908.051675918127
 30
0.0
 11
11524.99166227189
 21
6908.051675918127
 31
0.0
  0
INSERT
  5
202D1
330
1DD42
100
AcDbEntity
  8
寸法
 62
     0
 48
50.0
370
    -2
100
AcDbBlockReference
  2
_DOTSMALL
 10
9184.991662271889
 20
6908.051675918127
 30
0.0
 41
125.0
 42
125.0
 43
125.0
 50
180.0
  0
INSERT
  5
202D2
330
1DD42
100
AcDbEntity
  8
寸法
 62
     0
 48
50.0
370
    -2
100
AcDbBlockReference
  2
_DOTSMALL
 10
11524.99166227189
 20
6908.051675918127
 30
0.0
 41
125.0
 42
125.0
 43
125.0
  0
MTEXT
  5
202D3
330
1DD42
100
AcDbEntity
  8
寸法
 62
     7
 48
50.0
100
AcDbMText
 10
10354.99166227189
 20
7008.066439697653
 30
0.0
 40
150.0
 41
0.0
 71
     5
 72
     1
  1
\A1;2340
  7
STYLE1
 73
     1
 44
1.0
1001
ACAD
1000
MTEXTBEGIN
1070
    73
1070
     1
1070
    44
1040
1.0
1070
    74
1070
     0
1000
MTEXTEND
  0
POINT
  5
202D4
330
1DD42
100
AcDbEntity
  8
DEFPOINTS
 62
     0
 48
50.0
100
AcDbPoint
 10
9184.991662271889
 20
7812.310710222281
 30
0.0
  0
POINT
  5
202D5
330
1DD42
100
AcDbEntity
  8
DEFPOINTS
 62
     0
 48
50.0
100
AcDbPoint
 10
11524.99166227189
 20
7812.310710222281
 30
0.0
  0
POINT
  5
202D6
330
1DD42
100
AcDbEntity
  8
DEFPOINTS
 62
     0
 48
50.0
100
AcDbPoint
 10
11524.99166227189
 20
6908.051675918127
 30
0.0
  0
ENDBLK
  5
1DD4C
330
1DD42
100
AcDbEntity
  8
0
 48
50.0
100
AcDbBlockEnd
  0
BLOCK
  5
1DD57
330
1DD4D
100
AcDbEntity
  8
0
 48
50.0
100
AcDbBlockBegin
  2
*D3
 70
     1
 10
0.0
 20
0.0
 30
0.0
  3
*D3
  1

  0
LINE
  5
202C6
330
1DD4D
100
AcDbEntity
  8
寸法
 62
     0
 48
50.0
370
    -2
100
AcDbLine
 10
9119.991662271889
 20
7867.310710222283
 30
0.0
 11
9119.991662271889
 21
6521.518732163055
 31
0.0
  0
LINE
  5
202C7
330
1DD4D
100
AcDbEntity
  8
寸法
 62
     0
 48
50.0
370
    -2
100
AcDbLine
 10
11589.99166227189
 20
7867.310710222279
 30
0.0
 11
11589.99166227189
 21
6521.518732163055
 31
0.0
  0
LINE
  5
202C8
330
1DD4D
100
AcDbEntity
  8
寸法
 62
     0
 48
50.0
370
    -2
100
AcDbLine
 10
9119.991662271889
 20
6596.518732163055
 30
0.0
 11
11589.99166227189
 21
6596.518732163055
 31
0.0
  0
INSERT
  5
202C9
330
1DD4D
100
AcDbEntity
  8
寸法
 62
     0
 48
50.0
370
    -2
100
AcDbBlockReference
  2
_DOTSMALL
 10
9119.991662271889
 20
6596.518732163055
 30
0.0
 41
125.0
 42
125.0
 43
125.0
 50
180.0
  0
INSERT
  5
202CA
330
1DD4D
100
AcDbEntity
  8
寸法
 62
     0
 48
50.0
370
    -2
100
AcDbBlockReference
  2
_DOTSMALL
 10
11589.99166227189
 20
6596.518732163055
 30
0.0
 41
125.0
 42
125.0
 43
125.0
  0
MTEXT
  5
202CB
330
1DD4D
100
AcDbEntity
  8
寸法
 62
     7
 48
50.0
100
AcDbMText
 10
10354.99166227189
 20
6696.533495942581
 30
0.0
 40
150.0
 41
0.0
 71
     5
 72
     1
  1
\A1;2470
  7
STYLE1
 73
     1
 44
1.0
1001
ACAD
1000
MTEXTBEGIN
1070
    73
1070
     1
1070
    44
1040
1.0
1070
    74
1070
     0
1000
MTEXTEND
  0
POINT
  5
202CC
330
1DD4D
100
AcDbEntity
  8
DEFPOINTS
 62
     0
 48
50.0
100
AcDbPoint
 10
9119.991662271889
 20
7892.310710222282
 30
0.0
  0
POINT
  5
202CD
330
1DD4D
100
AcDbEntity
  8
DEFPOINTS
 62
     0
 48
50.0
100
AcDbPoint
 10
11589.99166227189
 20
7892.310710222279
 30
0.0
  0
POINT
  5
202CE
330
1DD4D
100
AcDbEntity
  8
DEFPOINTS
 62
     0
 48
50.0
100
AcDbPoint
 10
11589.99166227189
 20
6596.518732163055
 30
0.0
  0
ENDBLK
  5
1DD58
330
1DD4D
100
AcDbEntity
  8
0
 48
50.0
100
AcDbBlockEnd
  0
BLOCK
  5
1DD63
330
1DD59
100
AcDbEntity
  8
0
 48
50.0
100
AcDbBlockBegin
  2
*D4
 70
     1
 10
0.0
 20
0.0
 30
0.0
  3
*D4
  1

  0
LINE
  5
20DE5
330
1DD59
100
AcDbEntity
  8
寸法
 62
     0
 48
50.0
370
    -2
100
AcDbLine
 10
9108.278039107615
 20
9180.224718454525
 30
0.0
 11
8952.540773682889
 21
8886.582698913253
 31
0.0
  0
LINE
  5
20DE6
330
1DD59
100
AcDbEntity
  8
寸法
 62
     0
 48
50.0
370
    -2
100
AcDbLine
 10
11578.27803910761
 20
7870.224718454527
 30
0.0
 11
11422.54077368289
 21
7576.582698913255
 31
0.0
  0
LINE
  5
20DE7
330
1DD59
100
AcDbEntity
  8
寸法
 62
     0
 48
50.0
370
    -2
100
AcDbLine
 10
8987.681643175715
 20
8952.840674216519
 30
0.0
 11
11457.68164317571
 21
7642.840674216521
 31
0.0
  0
INSERT
  5
20DE8
330
1DD59
100
AcDbEntity
  8
寸法
 62
     0
 48
50.0
370
    -2
100
AcDbBlockReference
  2
_DOTSMALL
 10
8987.681643175715
 20
8952.840674216519
 30
0.0
 41
125.0
 42
125.0
 43
125.0
 50
152.0601140423526
  0
INSERT
  5
20DE9
330
1DD59
100
AcDbEntity
  8
寸法
 62
     0
 48
50.0
370
    -2
100
AcDbBlockReference
  2
_DOTSMALL
 10
11457.68164317571
 20
7642.840674216521
 30
0.0
 41
125.0
 42
125.0
 43
125.0
 50
332.0601140423526
  0
MTEXT
  5
20DEA
330
1DD59
100
AcDbEntity
  8
寸法
 62
     7
 48
50.0
100
AcDbMText
 10
10569.59397363058
 20
8227.061366140217
 30
0.0
 40
150.0
 41
0.0
 71
     5
 72
     1
  1
\A1;2795.9
  7
STYLE1
 11
0.8834396707102145
 21
-0.4685449265710041
 31
0.0
 73
     1
 44
1.0
1001
ACAD
1000
MTEXTBEGIN
1070
    73
1070
     1
1070
    44
1040
1.0
1070
    74
1070
     0
1000
MTEXTEND
  0
POINT
  5
20DEB
330
1DD59
100
AcDbEntity
  8
DEFPOINTS
 62
     0
 48
50.0
100
AcDbPoint
 10
9119.991662271889
 20
9202.310710222281
 30
0.0
  0
POINT
  5
20DEC
330
1DD59
100
AcDbEntity
  8
DEFPOINTS
 62
     0
 48
50.0
100
AcDbPoint
 10
11589.99166227189
 20
7892.310710222282
 30
0.0
  0
POINT
  5
20DED
330
1DD59
100
AcDbEntity
  8
DEFPOINTS
 62
     0
 48
50.0
100
AcDbPoint
 10
11457.68164317571
 20
7642.840674216521
 30
0.0
  0
ENDBLK
  5
1DD64
330
1DD59
100
AcDbEntity
  8
0
 48
50.0
100
AcDbBlockEnd
  0
BLOCK
  5
1DD6F
330
1DD65
100
AcDbEntity
  8
0
 48
50.0
100
AcDbBlockBegin
  2
*D5
 70
     1
 10
0.0
 20
0.0
 30
0.0
  3
*D5
  1

  0
LINE
  5
1F645
330
1DD65
100
AcDbEntity
  8
寸法
 62
     0
 48
50.0
370
    -2
100
AcDbLine
 10
10229.99166227189
 20
9202.310710222283
 30
0.0
 11
10054.42093890865
 21
9202.310710222283
 31
0.0
  0
LINE
  5
1F646
330
1DD65
100
AcDbEntity
  8
寸法
 62
     0
 48
50.0
370
    -2
100
AcDbLine
 10
10184.99166227189
 20
8547.310710222282
 30
0.0
 11
10054.42093890865
 21
8547.310710222282
 31
0.0
  0
LINE
  5
1F647
330
1DD65
100
AcDbEntity
  8
寸法
 62
     0
 48
50.0
370
    -2
100
AcDbLine
 10
10129.42093890865
 20
9202.310710222283
 30
0.0
 11
10129.42093890865
 21
8547.310710222282
 31
0.0
  0
INSERT
  5
1F648
330
1DD65
100
AcDbEntity
  8
寸法
 62
     0
 48
50.0
370
    -2
100
AcDbBlockReference
  2
_DOTSMALL
 10
10129.42093890865
 20
9202.310710222283
 30
0.0
 41
125.0
 42
125.0
 43
125.0
 50
90.0
  0
INSERT
  5
1F649
330
1DD65
100
AcDbEntity
  8
寸法
 62
     0
 48
50.0
370
    -2
100
AcDbBlockReference
  2
_DOTSMALL
 10
10129.42093890865
 20
8547.310710222282
 30
0.0
 41
125.0
 42
125.0
 43
125.0
 50
270.0
  0
MTEXT
  5
1F64A
330
1DD65
100
AcDbEntity
  8
寸法
 62
     7
 48
50.0
100
AcDbMText
 10
10029.42093890865
 20
8874.810710222284
 30
0.0
 40
150.0
 41
0.0
 71
     5
 72
     1
  1
\A1;655
  7
STYLE1
 11
0.0000000000000001
 21
1.0
 31
0.0
 73
     1
 44
1.0
1001
ACAD
1000
MTEXTBEGIN
1070
    73
1070
     1
1070
    44
1040
1.0
1070
    74
1070
     0
1000
MTEXTEND
  0
POINT
  5
1F64B
330
1DD65
100
AcDbEntity
  8
DEFPOINTS
 62
     0
 48
50.0
100
AcDbPoint
 10
10254.99166227189
 20
9202.310710222283
 30
0.0
  0
POINT
  5
1F64C
330
1DD65
100
AcDbEntity
  8
DEFPOINTS
 62
     0
 48
50.0
100
AcDbPoint
 10
10209.99166227189
 20
8547.310710222282
 30
0.0
  0
POINT
  5
1F64D
330
1DD65
100
AcDbEntity
  8
DEFPOINTS
 62
     0
 48
50.0
100
AcDbPoint
 10
10129.42093890865
 20
8547.310710222282
 30
0.0
  0
ENDBLK
  5
1DD70
330
1DD65
100
AcDbEntity
  8
0
 48
50.0
100
AcDbBlockEnd
  0
BLOCK
  5
1DD87
330
1DD7D
100
AcDbEntity
  8
0
 48
50.0
100
AcDbBlockBegin
  2
*D6
 70
     1
 10
0.0
 20
0.0
 30
0.0
  3
*D6
  1

  0
LINE
  5
1F657
330
1DD7D
100
AcDbEntity
  8
寸法
 62
     0
 48
50.0
370
    -2
100
AcDbLine
 10
9119.991662271889
 20
9227.310710222281
 30
0.0
 11
9119.991662271889
 21
9909.573859952459
 31
0.0
  0
LINE
  5
1F658
330
1DD7D
100
AcDbEntity
  8
寸法
 62
     0
 48
50.0
370
    -2
100
AcDbLine
 10
10354.99166227189
 20
8717.310710222283
 30
0.0
 11
10354.99166227189
 21
9909.573859952459
 31
0.0
  0
LINE
  5
1F659
330
1DD7D
100
AcDbEntity
  8
寸法
 62
     0
 48
50.0
370
    -2
100
AcDbLine
 10
9119.991662271889
 20
9834.57385995246
 30
0.0
 11
10354.99166227189
 21
9834.57385995246
 31
0.0
  0
INSERT
  5
1F65A
330
1DD7D
100
AcDbEntity
  8
寸法
 62
     0
 48
50.0
370
    -2
100
AcDbBlockReference
  2
_DOTSMALL
 10
9119.991662271889
 20
9834.57385995246
 30
0.0
 41
125.0
 42
125.0
 43
125.0
 50
180.0
  0
INSERT
  5
1F65B
330
1DD7D
100
AcDbEntity
  8
寸法
 62
     0
 48
50.0
370
    -2
100
AcDbBlockReference
  2
_DOTSMALL
 10
10354.99166227189
 20
9834.57385995246
 30
0.0
 41
125.0
 42
125.0
 43
125.0
  0
MTEXT
  5
1F65C
330
1DD7D
100
AcDbEntity
  8
寸法
 62
     7
 48
50.0
100
AcDbMText
 10
9737.491662271889
 20
9934.588623731986
 30
0.0
 40
150.0
 41
0.0
 71
     5
 72
     1
  1
\A1;1235
  7
STYLE1
 73
     1
 44
1.0
1001
ACAD
1000
MTEXTBEGIN
1070
    73
1070
     1
1070
    44
1040
1.0
1070
    74
1070
     0
1000
MTEXTEND
  0
POINT
  5
1F65D
330
1DD7D
100
AcDbEntity
  8
DEFPOINTS
 62
     0
 48
50.0
100
AcDbPoint
 10
9119.991662271889
 20
9202.310710222283
 30
0.0
  0
POINT
  5
1F65E
330
1DD7D
100
AcDbEntity
  8
DEFPOINTS
 62
     0
 48
50.0
100
AcDbPoint
 10
10354.99166227189
 20
8692.310710222283
 30
0.0
  0
POINT
  5
1F65F
330
1DD7D
100
AcDbEntity
  8
DEFPOINTS
 62
     0
 48
50.0
100
AcDbPoint
 10
10354.99166227189
 20
9834.57385995246
 30
0.0
  0
ENDBLK
  5
1DD88
330
1DD7D
100
AcDbEntity
  8
0
 48
50.0
100
AcDbBlockEnd
  0
BLOCK
  5
1DD95
330
1DD89
100
AcDbEntity
  8
0
 48
50.0
100
AcDbBlockBegin
  2
*D7
 70
     1
 10
0.0
 20
0.0
 30
0.0
  3
*D7
  1

  0
LINE
  5
202E1
330
1DD89
100
AcDbEntity
  8
寸法
 62
     0
 48
50.0
370
    -2
100
AcDbLine
 10
9069.991662271888
 20
6883.051675918126
 30
0.0
 11
9069.991662271888
 21
6521.518732163055
 31
0.0
  0
LINE
  5
202E2
330
1DD89
100
AcDbEntity
  8
寸法
 62
     0
 48
50.0
370
    -2
100
AcDbLine
 10
9119.991662271889
 20
7802.310710222285
 30
0.0
 11
9119.991662271889
 21
6521.518732163055
 31
0.0
  0
LINE
  5
202E3
330
1DD89
100
AcDbEntity
  8
寸法
 62
     0
 48
50.0
370
    -2
100
AcDbLine
 10
9119.991662271889
 20
6596.518732163055
 30
0.0
 11
9069.991662271888
 21
6596.518732163055
 31
0.0
  0
LINE
  5
202E4
330
1DD89
100
AcDbEntity
  8
寸法
 62
     0
 48
50.0
370
    -2
100
AcDbLine
 10
9069.991662271888
 20
6596.518732163055
 30
0.0
 11
8485.109772508108
 21
6596.518732163055
 31
0.0
  0
INSERT
  5
202E5
330
1DD89
100
AcDbEntity
  8
寸法
 62
     0
 48
50.0
370
    -2
100
AcDbBlockReference
  2
_DOTSMALL
 10
9119.991662271889
 20
6596.518732163055
 30
0.0
 41
125.0
 42
125.0
 43
125.0
  0
INSERT
  5
202E6
330
1DD89
100
AcDbEntity
  8
寸法
 62
     0
 48
50.0
370
    -2
100
AcDbBlockReference
  2
_DOTSMALL
 10
9069.991662271888
 20
6596.518732163055
 30
0.0
 41
125.0
 42
125.0
 43
125.0
 50
180.0
  0
MTEXT
  5
202E7
330
1DD89
100
AcDbEntity
  8
寸法
 62
     7
 48
50.0
100
AcDbMText
 10
8652.550717389997
 20
6704.018732163055
 30
0.0
 40
150.0
 41
0.0
 71
     5
 72
     1
  1
\A1;(50)
  7
STYLE1
 73
     1
 44
1.0
1001
ACAD
1000
MTEXTBEGIN
1070
    73
1070
     1
1070
    44
1040
1.0
1070
    74
1070
     0
1000
MTEXTEND
  0
POINT
  5
202E8
330
1DD89
100
AcDbEntity
  8
DEFPOINTS
 62
     0
 48
50.0
100
AcDbPoint
 10
9069.991662271888
 20
6908.051675918127
 30
0.0
  0
POINT
  5
202E9
330
1DD89
100
AcDbEntity
  8
DEFPOINTS
 62
     0
 48
50.0
100
AcDbPoint
 10
9119.991662271889
 20
7827.310710222285
 30
0.0
  0
POINT
  5
202EA
330
1DD89
100
AcDbEntity
  8
DEFPOINTS
 62
     0
 48
50.0
100
AcDbPoint
 10
9119.991662271889
 20
6596.518732163055
 30
0.0
  0
ENDBLK
  5
1DD96
330
1DD89
100
AcDbEntity
  8
0
 48
50.0
100
AcDbBlockEnd
  0
BLOCK
  5
1DDA0
330
1DD97
100
AcDbEntity
  8
0
 48
50.0
100
AcDbBlockBegin
  2
*D8
 70
     1
 10
0.0
 20
0.0
 30
0.0
  3
*D8
  1

  0
LINE
  5
1EC99
330
1DD97
100
AcDbEntity
  8
寸法
 62
     0
 48
50.0
370
    -2
100
AcDbLine
 10
9094.991662271889
 20
7892.310710222282
 30
0.0
 11
8293.991662271888
 21
7892.310710222282
 31
0.0
  0
LINE
  5
1EC9A
330
1DD97
100
AcDbEntity
  8
寸法
 62
     0
 48
50.0
370
    -2
100
AcDbLine
 10
8368.991662271888
 20
8402.310710222282
 30
0.0
 11
8368.991662271888
 21
7892.310710222282
 31
0.0
  0
INSERT
  5
1EC9B
330
1DD97
100
AcDbEntity
  8
寸法
 62
     0
 48
50.0
370
    -2
100
AcDbBlockReference
  2
_DOTSMALL
 10
8368.991662271888
 20
8402.310710222282
 30
0.0
 41
125.0
 42
125.0
 43
125.0
 50
90.0
  0
INSERT
  5
1EC9C
330
1DD97
100
AcDbEntity
  8
寸法
 62
     0
 48
50.0
370
    -2
100
AcDbBlockReference
  2
_DOTSMALL
 10
8368.991662271888
 20
7892.310710222282
 30
0.0
 41
125.0
 42
125.0
 43
125.0
 50
270.0
  0
MTEXT
  5
1EC9D
330
1DD97
100
AcDbEntity
  8
寸法
 62
     7
 48
50.0
100
AcDbMText
 10
8268.991662271886
 20
8147.310710222283
 30
0.0
 40
150.0
 41
0.0
 71
     5
 72
     1
  1
\A1;510
  7
STYLE1
 11
0.0000000000000001
 21
1.0
 31
0.0
 73
     1
 44
1.0
1001
ACAD
1000
MTEXTBEGIN
1070
    73
1070
     1
1070
    44
1040
1.0
1070
    74
1070
     0
1000
MTEXTEND
  0
POINT
  5
1EC9E
330
1DD97
100
AcDbEntity
  8
DEFPOINTS
 62
     0
 48
50.0
100
AcDbPoint
 10
9615.991662271891
 20
8402.310710222282
 30
0.0
  0
POINT
  5
1EC9F
330
1DD97
100
AcDbEntity
  8
DEFPOINTS
 62
     0
 48
50.0
100
AcDbPoint
 10
9119.991662271889
 20
7892.310710222282
 30
0.0
  0
POINT
  5
1ECA0
330
1DD97
100
AcDbEntity
  8
DEFPOINTS
 62
     0
 48
50.0
100
AcDbPoint
 10
8368.991662271888
 20
7892.310710222282
 30
0.0
  0
ENDBLK
  5
1DDA1
330
1DD97
100
AcDbEntity
  8
0
 48
50.0
100
AcDbBlockEnd
  0
BLOCK
  5
1DDAD
330
1DDA2
100
AcDbEntity
  8
0
 48
50.0
100
AcDbBlockBegin
  2
*D9
 70
     1
 10
0.0
 20
0.0
 30
0.0
  3
*D9
  1

  0
LINE
  5
202D7
330
1DDA2
100
AcDbEntity
  8
寸法
 62
     0
 48
50.0
370
    -2
100
AcDbLine
 10
9119.991662271889
 20
7802.310710222285
 30
0.0
 11
9119.991662271889
 21
6833.051675918127
 31
0.0
  0
LINE
  5
202D8
330
1DDA2
100
AcDbEntity
  8
寸法
 62
     0
 48
50.0
370
    -2
100
AcDbLine
 10
9184.991662271889
 20
7787.310710222282
 30
0.0
 11
9184.991662271889
 21
6833.051675918127
 31
0.0
  0
LINE
  5
202D9
330
1DDA2
100
AcDbEntity
  8
寸法
 62
     0
 48
50.0
370
    -2
100
AcDbLine
 10
9184.991662271889
 20
6908.051675918127
 30
0.0
 11
9119.991662271889
 21
6908.051675918127
 31
0.0
  0
LINE
  5
202DA
330
1DDA2
100
AcDbEntity
  8
寸法
 62
     0
 48
50.0
370
    -2
100
AcDbLine
 10
9119.991662271889
 20
6908.051675918127
 30
0.0
 11
8764.802080883535
 21
6908.051675918127
 31
0.0
  0
INSERT
  5
202DB
330
1DDA2
100
AcDbEntity
  8
寸法
 62
     0
 48
50.0
370
    -2
100
AcDbBlockReference
  2
_DOTSMALL
 10
9184.991662271889
 20
6908.051675918127
 30
0.0
 41
125.0
 42
125.0
 43
125.0
  0
INSERT
  5
202DC
330
1DDA2
100
AcDbEntity
  8
寸法
 62
     0
 48
50.0
370
    -2
100
AcDbBlockReference
  2
_DOTSMALL
 10
9119.991662271889
 20
6908.051675918127
 30
0.0
 41
125.0
 42
125.0
 43
125.0
 50
180.0
  0
MTEXT
  5
202DD
330
1DDA2
100
AcDbEntity
  8
寸法
 62
     7
 48
50.0
100
AcDbMText
 10
8879.896871577711
 20
7008.051675918126
 30
0.0
 40
150.0
 41
0.0
 71
     5
 72
     1
  1
\A1;65
  7
STYLE1
 73
     1
 44
1.0
1001
ACAD
1000
MTEXTBEGIN
1070
    73
1070
     1
1070
    44
1040
1.0
1070
    74
1070
     0
1000
MTEXTEND
  0
POINT
  5
202DE
330
1DDA2
100
AcDbEntity
  8
DEFPOINTS
 62
     0
 48
50.0
100
AcDbPoint
 10
9119.991662271889
 20
7827.310710222285
 30
0.0
  0
POINT
  5
202DF
330
1DDA2
100
AcDbEntity
  8
DEFPOINTS
 62
     0
 48
50.0
100
AcDbPoint
 10
9184.991662271889
 20
7812.310710222281
 30
0.0
  0
POINT
  5
202E0
330
1DDA2
100
AcDbEntity
  8
DEFPOINTS
 62
     0
 48
50.0
100
AcDbPoint
 10
9184.991662271889
 20
6908.051675918127
 30
0.0
  0
ENDBLK
  5
1DDAE
330
1DDA2
100
AcDbEntity
  8
0
 48
50.0
100
AcDbBlockEnd
  0
BLOCK
  5
1DDC6
330
1DDBC
100
AcDbEntity
  8
0
 48
50.0
100
AcDbBlockBegin
  2
*D10
 70
     1
 10
0.0
 20
0.0
 30
0.0
  3
*D10
  1

  0
LINE
  5
1EC90
330
1DDBC
100
AcDbEntity
  8
寸法
 62
     0
 48
50.0
370
    -2
100
AcDbLine
 10
9590.991662271891
 20
8837.310710222281
 30
0.0
 11
8293.991662271888
 21
8837.310710222281
 31
0.0
  0
LINE
  5
1EC91
330
1DDBC
100
AcDbEntity
  8
寸法
 62
     0
 48
50.0
370
    -2
100
AcDbLine
 10
9590.991662271891
 20
8402.310710222282
 30
0.0
 11
8293.991662271888
 21
8402.310710222282
 31
0.0
  0
LINE
  5
1EC92
330
1DDBC
100
AcDbEntity
  8
寸法
 62
     0
 48
50.0
370
    -2
100
AcDbLine
 10
8368.991662271888
 20
8837.310710222281
 30
0.0
 11
8368.991662271888
 21
8402.310710222282
 31
0.0
  0
INSERT
  5
1EC93
330
1DDBC
100
AcDbEntity
  8
寸法
 62
     0
 48
50.0
370
    -2
100
AcDbBlockReference
  2
_DOTSMALL
 10
8368.991662271888
 20
8837.310710222281
 30
0.0
 41
125.0
 42
125.0
 43
125.0
 50
90.0
  0
INSERT
  5
1EC94
330
1DDBC
100
AcDbEntity
  8
寸法
 62
     0
 48
50.0
370
    -2
100
AcDbBlockReference
  2
_DOTSMALL
 10
8368.991662271888
 20
8402.310710222282
 30
0.0
 41
125.0
 42
125.0
 43
125.0
 50
270.0
  0
MTEXT
  5
1EC95
330
1DDBC
100
AcDbEntity
  8
寸法
 62
     7
 48
50.0
100
AcDbMText
 10
8268.991662271886
 20
8619.810710222283
 30
0.0
 40
150.0
 41
0.0
 71
     5
 72
     1
  1
\A1;435
  7
STYLE1
 11
0.0000000000000001
 21
1.0
 31
0.0
 73
     1
 44
1.0
1001
ACAD
1000
MTEXTBEGIN
1070
    73
1070
     1
1070
    44
1040
1.0
1070
    74
1070
     0
1000
MTEXTEND
  0
POINT
  5
1EC96
330
1DDBC
100
AcDbEntity
  8
DEFPOINTS
 62
     0
 48
50.0
100
AcDbPoint
 10
9615.991662271891
 20
8837.310710222281
 30
0.0
  0
POINT
  5
1EC97
330
1DDBC
100
AcDbEntity
  8
DEFPOINTS
 62
     0
 48
50.0
100
AcDbPoint
 10
9615.991662271891
 20
8402.310710222282
 30
0.0
  0
POINT
  5
1EC98
330
1DDBC
100
AcDbEntity
  8
DEFPOINTS
 62
     0
 48
50.0
100
AcDbPoint
 10
8368.991662271888
 20
8402.310710222282
 30
0.0
  0
ENDBLK
  5
1DDC7
330
1DDBC
100
AcDbEntity
  8
0
 48
50.0
100
AcDbBlockEnd
  0
BLOCK
  5
1DDD1
330
1DDC8
100
AcDbEntity
  8
0
 48
50.0
100
AcDbBlockBegin
  2
*D11
 70
     1
 10
0.0
 20
0.0
 30
0.0
  3
*D11
  1

  0
LINE
  5
1F63D
330
1DDC8
100
AcDbEntity
  8
寸法
 62
     0
 48
50.0
370
    -2
100
AcDbLine
 10
10104.42093890865
 20
7892.310710222282
 30
0.0
 11
10054.42093890865
 21
7892.310710222282
 31
0.0
  0
LINE
  5
1F63E
330
1DDC8
100
AcDbEntity
  8
寸法
 62
     0
 48
50.0
370
    -2
100
AcDbLine
 10
10129.42093890865
 20
8547.310710222282
 30
0.0
 11
10129.42093890865
 21
7892.310710222282
 31
0.0
  0
INSERT
  5
1F63F
330
1DDC8
100
AcDbEntity
  8
寸法
 62
     0
 48
50.0
370
    -2
100
AcDbBlockReference
  2
_DOTSMALL
 10
10129.42093890865
 20
8547.310710222282
 30
0.0
 41
125.0
 42
125.0
 43
125.0
 50
90.0
  0
INSERT
  5
1F640
330
1DDC8
100
AcDbEntity
  8
寸法
 62
     0
 48
50.0
370
    -2
100
AcDbBlockReference
  2
_DOTSMALL
 10
10129.42093890865
 20
7892.310710222282
 30
0.0
 41
125.0
 42
125.0
 43
125.0
 50
270.0
  0
MTEXT
  5
1F641
330
1DDC8
100
AcDbEntity
  8
寸法
 62
     7
 48
50.0
100
AcDbMText
 10
10029.42093890865
 20
8219.810710222283
 30
0.0
 40
150.0
 41
0.0
 71
     5
 72
     1
  1
\A1;655
  7
STYLE1
 11
0.0000000000000001
 21
1.0
 31
0.0
 73
     1
 44
1.0
1001
ACAD
1000
MTEXTBEGIN
1070
    73
1070
     1
1070
    44
1040
1.0
1070
    74
1070
     0
1000
MTEXTEND
  0
POINT
  5
1F642
330
1DDC8
100
AcDbEntity
  8
DEFPOINTS
 62
     0
 48
50.0
100
AcDbPoint
 10
10209.99166227189
 20
8547.310710222282
 30
0.0
  0
POINT
  5
1F643
330
1DDC8
100
AcDbEntity
  8
DEFPOINTS
 62
     0
 48
50.0
100
AcDbPoint
 10
10129.42093890865
 20
7892.310710222282
 30
0.0
  0
POINT
  5
1F644
330
1DDC8
100
AcDbEntity
  8
DEFPOINTS
 62
     0
 48
50.0
100
AcDbPoint
 10
10129.42093890865
 20
7892.310710222282
 30
0.0
  0
ENDBLK
  5
1DDD2
330
1DDC8
100
AcDbEntity
  8
0
 48
50.0
100
AcDbBlockEnd
  0
BLOCK
  5
1DDDD
330
1DDD3
100
AcDbEntity
  8
0
 48
50.0
100
AcDbBlockBegin
  2
*D12
 70
     1
 10
0.0
 20
0.0
 30
0.0
  3
*D12
  1

  0
LINE
  5
1F616
330
1DDD3
100
AcDbEntity
  8
寸法
 62
     0
 48
50.0
370
    -2
100
AcDbLine
 10
9094.991662271889
 20
9202.310710222283
 30
0.0
 11
8293.991662271888
 21
9202.310710222283
 31
0.0
  0
LINE
  5
1F617
330
1DDD3
100
AcDbEntity
  8
寸法
 62
     0
 48
50.0
370
    -2
100
AcDbLine
 10
9590.991662271891
 20
8837.310710222281
 30
0.0
 11
8293.991662271888
 21
8837.310710222281
 31
0.0
  0
LINE
  5
1F618
330
1DDD3
100
AcDbEntity
  8
寸法
 62
     0
 48
50.0
370
    -2
100
AcDbLine
 10
8368.991662271888
 20
9202.310710222283
 30
0.0
 11
8368.991662271888
 21
8837.310710222281
 31
0.0
  0
INSERT
  5
1F619
330
1DDD3
100
AcDbEntity
  8
寸法
 62
     0
 48
50.0
370
    -2
100
AcDbBlockReference
  2
_DOTSMALL
 10
8368.991662271888
 20
9202.310710222283
 30
0.0
 41
125.0
 42
125.0
 43
125.0
 50
90.0
  0
INSERT
  5
1F61A
330
1DDD3
100
AcDbEntity
  8
寸法
 62
     0
 48
50.0
370
    -2
100
AcDbBlockReference
  2
_DOTSMALL
 10
8368.991662271888
 20
8837.310710222281
 30
0.0
 41
125.0
 42
125.0
 43
125.0
 50
270.0
  0
MTEXT
  5
1F61B
330
1DDD3
100
AcDbEntity
  8
寸法
 62
     7
 48
50.0
100
AcDbMText
 10
8268.991662271886
 20
9019.810710222284
 30
0.0
 40
150.0
 41
0.0
 71
     5
 72
     1
  1
\A1;365
  7
STYLE1
 11
0.0000000000000001
 21
1.0
 31
0.0
 73
     1
 44
1.0
1001
ACAD
1000
MTEXTBEGIN
1070
    73
1070
     1
1070
    44
1040
1.0
1070
    74
1070
     0
1000
MTEXTEND
  0
POINT
  5
1F61C
330
1DDD3
100
AcDbEntity
  8
DEFPOINTS
 62
     0
 48
50.0
100
AcDbPoint
 10
9119.991662271889
 20
9202.310710222283
 30
0.0
  0
POINT
  5
1F61D
330
1DDD3
100
AcDbEntity
  8
DEFPOINTS
 62
     0
 48
50.0
100
AcDbPoint
 10
9615.991662271891
 20
8837.310710222281
 30
0.0
  0
POINT
  5
1F61E
330
1DDD3
100
AcDbEntity
  8
DEFPOINTS
 62
     0
 48
50.0
100
AcDbPoint
 10
8368.991662271888
 20
8837.310710222281
 30
0.0
  0
ENDBLK
  5
1DDDE
330
1DDD3
100
AcDbEntity
  8
0
 48
50.0
100
AcDbBlockEnd
  0
BLOCK
  5
1DDE8
330
1DDDF
100
AcDbEntity
  8
0
 48
50.0
100
AcDbBlockBegin
  2
*D13
 70
     1
 10
0.0
 20
0.0
 30
0.0
  3
*D13
  1

  0
LINE
  5
1F604
330
1DDDF
100
AcDbEntity
  8
寸法
 62
     0
 48
50.0
370
    -2
100
AcDbLine
 10
11694.99166227189
 20
7957.310710222282
 30
0.0
 11
12195.05988643595
 21
7957.310710222282
 31
0.0
  0
LINE
  5
1F605
330
1DDDF
100
AcDbEntity
  8
寸法
 62
     0
 48
50.0
370
    -2
100
AcDbLine
 10
12120.05988643595
 20
9137.310710222282
 30
0.0
 11
12120.05988643595
 21
7957.310710222282
 31
0.0
  0
INSERT
  5
1F606
330
1DDDF
100
AcDbEntity
  8
寸法
 62
     0
 48
50.0
370
    -2
100
AcDbBlockReference
  2
_DOTSMALL
 10
12120.05988643595
 20
9137.310710222282
 30
0.0
 41
125.0
 42
125.0
 43
125.0
 50
90.0
  0
INSERT
  5
1F607
330
1DDDF
100
AcDbEntity
  8
寸法
 62
     0
 48
50.0
370
    -2
100
AcDbBlockReference
  2
_DOTSMALL
 10
12120.05988643595
 20
7957.310710222282
 30
0.0
 41
125.0
 42
125.0
 43
125.0
 50
270.0
  0
MTEXT
  5
1F608
330
1DDDF
100
AcDbEntity
  8
寸法
 62
     7
 48
50.0
100
AcDbMText
 10
12020.05988643595
 20
8547.310710222284
 30
0.0
 40
150.0
 41
0.0
 71
     5
 72
     1
  1
\A1;1180
  7
STYLE1
 11
0.0000000000000001
 21
1.0
 31
0.0
 73
     1
 44
1.0
1001
ACAD
1000
MTEXTBEGIN
1070
    73
1070
     1
1070
    44
1040
1.0
1070
    74
1070
     0
1000
MTEXTEND
  0
POINT
  5
1F609
330
1DDDF
100
AcDbEntity
  8
DEFPOINTS
 62
     0
 48
50.0
100
AcDbPoint
 10
11669.99166227189
 20
9137.310710222282
 30
0.0
  0
POINT
  5
1F60A
330
1DDDF
100
AcDbEntity
  8
DEFPOINTS
 62
     0
 48
50.0
100
AcDbPoint
 10
11669.99166227189
 20
7957.310710222282
 30
0.0
  0
POINT
  5
1F60B
330
1DDDF
100
AcDbEntity
  8
DEFPOINTS
 62
     0
 48
50.0
100
AcDbPoint
 10
12120.05988643595
 20
7957.310710222282
 30
0.0
  0
ENDBLK
  5
1DDE9
330
1DDDF
100
AcDbEntity
  8
0
 48
50.0
100
AcDbBlockEnd
  0
BLOCK
  5
1DDF4
330
1DDEA
100
AcDbEntity
  8
0
 48
50.0
100
AcDbBlockBegin
  2
*D14
 70
     1
 10
0.0
 20
0.0
 30
0.0
  3
*D14
  1

  0
LINE
  5
1F5FB
330
1DDEA
100
AcDbEntity
  8
寸法
 62
     0
 48
50.0
370
    -2
100
AcDbLine
 10
11614.99166227189
 20
7892.310710222282
 30
0.0
 11
12515.99166227189
 21
7892.310710222282
 31
0.0
  0
LINE
  5
1F5FC
330
1DDEA
100
AcDbEntity
  8
寸法
 62
     0
 48
50.0
370
    -2
100
AcDbLine
 10
11614.99166227189
 20
9202.310710222283
 30
0.0
 11
12515.99166227189
 21
9202.310710222281
 31
0.0
  0
LINE
  5
1F5FD
330
1DDEA
100
AcDbEntity
  8
寸法
 62
     0
 48
50.0
370
    -2
100
AcDbLine
 10
12440.99166227189
 20
7892.310710222282
 30
0.0
 11
12440.99166227189
 21
9202.310710222281
 31
0.0
  0
INSERT
  5
1F5FE
330
1DDEA
100
AcDbEntity
  8
寸法
 62
     0
 48
50.0
370
    -2
100
AcDbBlockReference
  2
_DOTSMALL
 10
12440.99166227189
 20
7892.310710222282
 30
0.0
 41
125.0
 42
125.0
 43
125.0
 50
270.0
  0
INSERT
  5
1F5FF
330
1DDEA
100
AcDbEntity
  8
寸法
 62
     0
 48
50.0
370
    -2
100
AcDbBlockReference
  2
_DOTSMALL
 10
12440.99166227189
 20
9202.310710222281
 30
0.0
 41
125.0
 42
125.0
 43
125.0
 50
90.0
  0
MTEXT
  5
1F600
330
1DDEA
100
AcDbEntity
  8
寸法
 62
     7
 48
50.0
100
AcDbMText
 10
12340.99166227188
 20
8547.310710222284
 30
0.0
 40
150.0
 41
0.0
 71
     5
 72
     1
  1
\A1;1310
  7
STYLE1
 11
0.0000000000000001
 21
1.0
 31
0.0
 73
     1
 44
1.0
1001
ACAD
1000
MTEXTBEGIN
1070
    73
1070
     1
1070
    44
1040
1.0
1070
    74
1070
     0
1000
MTEXTEND
  0
POINT
  5
1F601
330
1DDEA
100
AcDbEntity
  8
DEFPOINTS
 62
     0
 48
50.0
100
AcDbPoint
 10
11589.99166227189
 20
7892.310710222282
 30
0.0
  0
POINT
  5
1F602
330
1DDEA
100
AcDbEntity
  8
DEFPOINTS
 62
     0
 48
50.0
100
AcDbPoint
 10
11589.99166227189
 20
9202.310710222283
 30
0.0
  0
POINT
  5
1F603
330
1DDEA
100
AcDbEntity
  8
DEFPOINTS
 62
     0
 48
50.0
100
AcDbPoint
 10
12440.99166227189
 20
9202.310710222281
 30
0.0
  0
ENDBLK
  5
1DDF5
330
1DDEA
100
AcDbEntity
  8
0
 48
50.0
100
AcDbBlockEnd
  0
BLOCK
  5
1DE01
330
1DDF6
100
AcDbEntity
  8
0
 48
50.0
100
AcDbBlockBegin
  2
*D15
 70
     1
 10
0.0
 20
0.0
 30
0.0
  3
*D15
  1

  0
LINE
  5
202F5
330
1DDF6
100
AcDbEntity
  8
寸法
 62
     0
 48
50.0
370
    -2
100
AcDbLine
 10
11589.99166227189
 20
7867.310710222279
 30
0.0
 11
11589.99166227189
 21
6521.518732163055
 31
0.0
  0
LINE
  5
202F6
330
1DDF6
100
AcDbEntity
  8
寸法
 62
     0
 48
50.0
370
    -2
100
AcDbLine
 10
11639.99166227189
 20
6883.051675918126
 30
0.0
 11
11639.99166227189
 21
6521.518732163055
 31
0.0
  0
LINE
  5
202F7
330
1DDF6
100
AcDbEntity
  8
寸法
 62
     0
 48
50.0
370
    -2
100
AcDbLine
 10
11589.99166227189
 20
6596.518732163055
 30
0.0
 11
11639.99166227189
 21
6596.518732163055
 31
0.0
  0
LINE
  5
202F8
330
1DDF6
100
AcDbEntity
  8
寸法
 62
     0
 48
50.0
370
    -2
100
AcDbLine
 10
11639.99166227189
 20
6596.518732163055
 30
0.0
 11
12099.87355203567
 21
6596.518732163055
 31
0.0
  0
INSERT
  5
202F9
330
1DDF6
100
AcDbEntity
  8
寸法
 62
     0
 48
50.0
370
    -2
100
AcDbBlockReference
  2
_DOTSMALL
 10
11589.99166227189
 20
6596.518732163055
 30
0.0
 41
125.0
 42
125.0
 43
125.0
 50
180.0
  0
INSERT
  5
202FA
330
1DDF6
100
AcDbEntity
  8
寸法
 62
     0
 48
50.0
370
    -2
100
AcDbBlockReference
  2
_DOTSMALL
 10
11639.99166227189
 20
6596.518732163055
 30
0.0
 41
125.0
 42
125.0
 43
125.0
  0
MTEXT
  5
202FB
330
1DDF6
100
AcDbEntity
  8
寸法
 62
     7
 48
50.0
100
AcDbMText
 10
11932.43260715378
 20
6704.018732163055
 30
0.0
 40
150.0
 41
0.0
 71
     5
 72
     1
  1
\A1;(50)
  7
STYLE1
 73
     1
 44
1.0
1001
ACAD
1000
MTEXTBEGIN
1070
    73
1070
     1
1070
    44
1040
1.0
1070
    74
1070
     0
1000
MTEXTEND
  0
POINT
  5
202FC
330
1DDF6
100
AcDbEntity
  8
DEFPOINTS
 62
     0
 48
50.0
100
AcDbPoint
 10
11589.99166227189
 20
7892.310710222279
 30
0.0
  0
POINT
  5
202FD
330
1DDF6
100
AcDbEntity
  8
DEFPOINTS
 62
     0
 48
50.0
100
AcDbPoint
 10
11639.99166227189
 20
6908.051675918127
 30
0.0
  0
POINT
  5
202FE
330
1DDF6
100
AcDbEntity
  8
DEFPOINTS
 62
     0
 48
50.0
100
AcDbPoint
 10
11639.99166227189
 20
6596.518732163055
 30
0.0
  0
ENDBLK
  5
1DE02
330
1DDF6
100
AcDbEntity
  8
0
 48
50.0
100
AcDbBlockEnd
  0
BLOCK
  5
1DE0E
330
1DE03
100
AcDbEntity
  8
0
 48
50.0
100
AcDbBlockBegin
  2
*D16
 70
     1
 10
0.0
 20
0.0
 30
0.0
  3
*D16
  1

  0
LINE
  5
1ED5B
330
1DE03
100
AcDbEntity
  8
寸法
 62
     0
 48
50.0
370
    -2
100
AcDbLine
 10
11614.99166227189
 20
7892.310710222282
 30
0.0
 11
12515.99166227189
 21
7892.310710222282
 31
0.0
  0
LINE
  5
1ED5C
330
1DE03
100
AcDbEntity
  8
寸法
 62
     0
 48
50.0
370
    -2
100
AcDbLine
 10
12145.05988643595
 20
7762.310710222282
 30
0.0
 11
12515.99166227189
 21
7762.310710222282
 31
0.0
  0
LINE
  5
1ED5D
330
1DE03
100
AcDbEntity
  8
寸法
 62
     0
 48
50.0
370
    -2
100
AcDbLine
 10
12440.99166227189
 20
7892.310710222282
 30
0.0
 11
12440.99166227189
 21
7762.310710222282
 31
0.0
  0
LINE
  5
1ED5E
330
1DE03
100
AcDbEntity
  8
寸法
 62
     0
 48
50.0
370
    -2
100
AcDbLine
 10
12440.99166227189
 20
7762.310710222282
 30
0.0
 11
12440.99166227189
 21
7226.428820458503
 31
0.0
  0
INSERT
  5
1ED5F
330
1DE03
100
AcDbEntity
  8
寸法
 62
     0
 48
50.0
370
    -2
100
AcDbBlockReference
  2
_DOTSMALL
 10
12440.99166227189
 20
7892.310710222282
 30
0.0
 41
125.0
 42
125.0
 43
125.0
 50
90.0
  0
INSERT
  5
1ED60
330
1DE03
100
AcDbEntity
  8
寸法
 62
     0
 48
50.0
370
    -2
100
AcDbBlockReference
  2
_DOTSMALL
 10
12440.99166227189
 20
7762.310710222282
 30
0.0
 41
125.0
 42
125.0
 43
125.0
 50
270.0
  0
MTEXT
  5
1ED61
330
1DE03
100
AcDbEntity
  8
寸法
 62
     7
 48
50.0
100
AcDbMText
 10
12333.49166227189
 20
7431.369765340395
 30
0.0
 40
150.0
 41
0.0
 71
     5
 72
     1
  1
\A1;(130)
  7
STYLE1
 11
0.0000000000000001
 21
1.0
 31
0.0
 73
     1
 44
1.0
1001
ACAD
1000
MTEXTBEGIN
1070
    73
1070
     1
1070
    44
1040
1.0
1070
    74
1070
     0
1000
MTEXTEND
  0
POINT
  5
1ED62
330
1DE03
100
AcDbEntity
  8
DEFPOINTS
 62
     0
 48
50.0
100
AcDbPoint
 10
11589.99166227189
 20
7892.310710222282
 30
0.0
  0
POINT
  5
1ED63
330
1DE03
100
AcDbEntity
  8
DEFPOINTS
 62
     0
 48
50.0
100
AcDbPoint
 10
12120.05988643595
 20
7762.310710222282
 30
0.0
  0
POINT
  5
1ED64
330
1DE03
100
AcDbEntity
  8
DEFPOINTS
 62
     0
 48
50.0
100
AcDbPoint
 10
12440.99166227189
 20
7762.310710222282
 30
0.0
  0
ENDBLK
  5
1DE0F
330
1DE03
100
AcDbEntity
  8
0
 48
50.0
100
AcDbBlockEnd
  0
BLOCK
  5
1DE1B
330
1DE10
100
AcDbEntity
  8
0
 48
50.0
100
AcDbBlockBegin
  2
*D17
 70
     1
 10
0.0
 20
0.0
 30
0.0
  3
*D17
  1

  0
LINE
  5
1ED82
330
1DE10
100
AcDbEntity
  8
寸法
 62
     0
 48
50.0
370
    -2
100
AcDbLine
 10
11694.99166227189
 20
7957.310710222282
 30
0.0
 11
12195.05988643596
 21
7957.310710222282
 31
0.0
  0
LINE
  5
1ED83
330
1DE10
100
AcDbEntity
  8
寸法
 62
     0
 48
50.0
370
    -2
100
AcDbLine
 10
11614.99166227189
 20
7892.310710222282
 30
0.0
 11
12195.05988643596
 21
7892.310710222282
 31
0.0
  0
LINE
  5
1ED84
330
1DE10
100
AcDbEntity
  8
寸法
 62
     0
 48
50.0
370
    -2
100
AcDbLine
 10
12120.05988643596
 20
7957.310710222282
 30
0.0
 11
12120.05988643596
 21
7892.310710222282
 31
0.0
  0
LINE
  5
1ED85
330
1DE10
100
AcDbEntity
  8
寸法
 62
     0
 48
50.0
370
    -2
100
AcDbLine
 10
12120.05988643596
 20
7892.310710222282
 30
0.0
 11
12120.05988643596
 21
7537.121128833927
 31
0.0
  0
INSERT
  5
1ED86
330
1DE10
100
AcDbEntity
  8
寸法
 62
     0
 48
50.0
370
    -2
100
AcDbBlockReference
  2
_DOTSMALL
 10
12120.05988643596
 20
7957.310710222282
 30
0.0
 41
125.0
 42
125.0
 43
125.0
 50
90.0
  0
INSERT
  5
1ED87
330
1DE10
100
AcDbEntity
  8
寸法
 62
     0
 48
50.0
370
    -2
100
AcDbBlockReference
  2
_DOTSMALL
 10
12120.05988643596
 20
7892.310710222282
 30
0.0
 41
125.0
 42
125.0
 43
125.0
 50
270.0
  0
MTEXT
  5
1ED88
330
1DE10
100
AcDbEntity
  8
寸法
 62
     7
 48
50.0
100
AcDbMText
 10
12020.05988643595
 20
7652.215919528103
 30
0.0
 40
150.0
 41
0.0
 71
     5
 72
     1
  1
\A1;65
  7
STYLE1
 11
0.0000000000000001
 21
1.0
 31
0.0
 73
     1
 44
1.0
1001
ACAD
1000
MTEXTBEGIN
1070
    73
1070
     1
1070
    44
1040
1.0
1070
    74
1070
     0
1000
MTEXTEND
  0
POINT
  5
1ED89
330
1DE10
100
AcDbEntity
  8
DEFPOINTS
 62
     0
 48
50.0
100
AcDbPoint
 10
11669.99166227189
 20
7957.310710222282
 30
0.0
  0
POINT
  5
1ED8A
330
1DE10
100
AcDbEntity
  8
DEFPOINTS
 62
     0
 48
50.0
100
AcDbPoint
 10
11589.99166227189
 20
7892.310710222282
 30
0.0
  0
POINT
  5
1ED8B
330
1DE10
100
AcDbEntity
  8
DEFPOINTS
 62
     0
 48
50.0
100
AcDbPoint
 10
12120.05988643596
 20
7892.310710222282
 30
0.0
  0
ENDBLK
  5
1DE1C
330
1DE10
100
AcDbEntity
  8
0
 48
50.0
100
AcDbBlockEnd
  0
BLOCK
  5
1DE28
330
1DE1D
100
AcDbEntity
  8
0
 48
50.0
100
AcDbBlockBegin
  2
*D18
 70
     1
 10
0.0
 20
0.0
 30
0.0
  3
*D18
  1

  0
LINE
  5
202EB
330
1DE1D
100
AcDbEntity
  8
寸法
 62
     0
 48
50.0
370
    -2
100
AcDbLine
 10
11524.99166227189
 20
7787.310710222282
 30
0.0
 11
11524.99166227189
 21
6833.051675918127
 31
0.0
  0
LINE
  5
202EC
330
1DE1D
100
AcDbEntity
  8
寸法
 62
     0
 48
50.0
370
    -2
100
AcDbLine
 10
11589.99166227189
 20
7867.310710222283
 30
0.0
 11
11589.99166227189
 21
6833.051675918127
 31
0.0
  0
LINE
  5
202ED
330
1DE1D
100
AcDbEntity
  8
寸法
 62
     0
 48
50.0
370
    -2
100
AcDbLine
 10
11524.99166227189
 20
6908.051675918127
 30
0.0
 11
11589.99166227189
 21
6908.051675918127
 31
0.0
  0
LINE
  5
202EE
330
1DE1D
100
AcDbEntity
  8
寸法
 62
     0
 48
50.0
370
    -2
100
AcDbLine
 10
11589.99166227189
 20
6908.051675918127
 30
0.0
 11
11945.18124366024
 21
6908.051675918127
 31
0.0
  0
INSERT
  5
202EF
330
1DE1D
100
AcDbEntity
  8
寸法
 62
     0
 48
50.0
370
    -2
100
AcDbBlockReference
  2
_DOTSMALL
 10
11524.99166227189
 20
6908.051675918127
 30
0.0
 41
125.0
 42
125.0
 43
125.0
 50
180.0
  0
INSERT
  5
202F0
330
1DE1D
100
AcDbEntity
  8
寸法
 62
     0
 48
50.0
370
    -2
100
AcDbBlockReference
  2
_DOTSMALL
 10
11589.99166227189
 20
6908.051675918127
 30
0.0
 41
125.0
 42
125.0
 43
125.0
  0
MTEXT
  5
202F1
330
1DE1D
100
AcDbEntity
  8
寸法
 62
     7
 48
50.0
100
AcDbMText
 10
11830.08645296606
 20
7008.051675918126
 30
0.0
 40
150.0
 41
0.0
 71
     5
 72
     1
  1
\A1;65
  7
STYLE1
 73
     1
 44
1.0
1001
ACAD
1000
MTEXTBEGIN
1070
    73
1070
     1
1070
    44
1040
1.0
1070
    74
1070
     0
1000
MTEXTEND
  0
POINT
  5
202F2
330
1DE1D
100
AcDbEntity
  8
DEFPOINTS
 62
     0
 48
50.0
100
AcDbPoint
 10
11524.99166227189
 20
7812.310710222281
 30
0.0
  0
POINT
  5
202F3
330
1DE1D
100
AcDbEntity
  8
DEFPOINTS
 62
     0
 48
50.0
100
AcDbPoint
 10
11589.99166227189
 20
7892.310710222282
 30
0.0
  0
POINT
  5
202F4
330
1DE1D
100
AcDbEntity
  8
DEFPOINTS
 62
     0
 48
50.0
100
AcDbPoint
 10
11589.99166227189
 20
6908.051675918127
 30
0.0
  0
ENDBLK
  5
1DE29
330
1DE1D
100
AcDbEntity
  8
0
 48
50.0
100
AcDbBlockEnd
  0
BLOCK
  5
1DE35
330
1DE2A
100
AcDbEntity
  8
0
 48
50.0
100
AcDbBlockBegin
  2
*D19
 70
     1
 10
0.0
 20
0.0
 30
0.0
  3
*D19
  1

  0
LINE
  5
1F60C
330
1DE2A
100
AcDbEntity
  8
寸法
 62
     0
 48
50.0
370
    -2
100
AcDbLine
 10
11614.99166227189
 20
9202.310710222283
 30
0.0
 11
12515.99166227189
 21
9202.310710222281
 31
0.0
  0
LINE
  5
1F60D
330
1DE2A
100
AcDbEntity
  8
寸法
 62
     0
 48
50.0
370
    -2
100
AcDbLine
 10
12145.05988643595
 20
9292.310710222279
 30
0.0
 11
12515.99166227189
 21
9292.310710222277
 31
0.0
  0
LINE
  5
1F60E
330
1DE2A
100
AcDbEntity
  8
寸法
 62
     0
 48
50.0
370
    -2
100
AcDbLine
 10
12440.99166227189
 20
9202.310710222281
 30
0.0
 11
12440.99166227189
 21
9292.310710222277
 31
0.0
  0
LINE
  5
1F60F
330
1DE2A
100
AcDbEntity
  8
寸法
 62
     0
 48
50.0
370
    -2
100
AcDbLine
 10
12440.99166227189
 20
9292.310710222277
 30
0.0
 11
12440.99166227189
 21
9753.716749560197
 31
0.0
  0
INSERT
  5
1F610
330
1DE2A
100
AcDbEntity
  8
寸法
 62
     0
 48
50.0
370
    -2
100
AcDbBlockReference
  2
_DOTSMALL
 10
12440.99166227189
 20
9202.310710222281
 30
0.0
 41
125.0
 42
125.0
 43
125.0
 50
270.0
  0
INSERT
  5
1F611
330
1DE2A
100
AcDbEntity
  8
寸法
 62
     0
 48
50.0
370
    -2
100
AcDbBlockReference
  2
_DOTSMALL
 10
12440.99166227189
 20
9292.310710222277
 30
0.0
 41
125.0
 42
125.0
 43
125.0
 50
90.0
  0
MTEXT
  5
1F612
330
1DE2A
100
AcDbEntity
  8
寸法
 62
     7
 48
50.0
100
AcDbMText
 10
12333.45541034541
 20
9586.013729891242
 30
0.0
 40
150.0
 41
0.0
 71
     5
 72
     1
  1
\A1;(90)
  7
STYLE1
 11
0.0000000000000001
 21
1.0
 31
0.0
 73
     1
 44
1.0
1001
ACAD
1000
MTEXTBEGIN
1070
    73
1070
     1
1070
    44
1040
1.0
1070
    74
1070
     0
1000
MTEXTEND
  0
POINT
  5
1F613
330
1DE2A
100
AcDbEntity
  8
DEFPOINTS
 62
     0
 48
50.0
100
AcDbPoint
 10
11589.99166227189
 20
9202.310710222283
 30
0.0
  0
POINT
  5
1F614
330
1DE2A
100
AcDbEntity
  8
DEFPOINTS
 62
     0
 48
50.0
100
AcDbPoint
 10
12120.05988643595
 20
9292.310710222279
 30
0.0
  0
POINT
  5
1F615
330
1DE2A
100
AcDbEntity
  8
DEFPOINTS
 62
     0
 48
50.0
100
AcDbPoint
 10
12440.99166227189
 20
9292.310710222277
 30
0.0
  0
ENDBLK
  5
1DE36
330
1DE2A
100
AcDbEntity
  8
0
 48
50.0
100
AcDbBlockEnd
  0
BLOCK
  5
1DE42
330
1DE37
100
AcDbEntity
  8
0
 48
50.0
100
AcDbBlockBegin
  2
*D20
 70
     1
 10
0.0
 20
0.0
 30
0.0
  3
*D20
  1

  0
LINE
  5
1F5F1
330
1DE37
100
AcDbEntity
  8
寸法
 62
     0
 48
50.0
370
    -2
100
AcDbLine
 10
11614.99166227189
 20
9202.310710222283
 30
0.0
 11
12195.05988643596
 21
9202.310710222283
 31
0.0
  0
LINE
  5
1F5F2
330
1DE37
100
AcDbEntity
  8
寸法
 62
     0
 48
50.0
370
    -2
100
AcDbLine
 10
11694.99166227189
 20
9137.310710222282
 30
0.0
 11
12195.05988643596
 21
9137.310710222282
 31
0.0
  0
LINE
  5
1F5F3
330
1DE37
100
AcDbEntity
  8
寸法
 62
     0
 48
50.0
370
    -2
100
AcDbLine
 10
12120.05988643596
 20
9137.310710222282
 30
0.0
 11
12120.05988643596
 21
9202.310710222283
 31
0.0
  0
LINE
  5
1F5F4
330
1DE37
100
AcDbEntity
  8
寸法
 62
     0
 48
50.0
370
    -2
100
AcDbLine
 10
12120.05988643596
 20
9202.310710222283
 30
0.0
 11
12120.05988643596
 21
9557.500291610635
 31
0.0
  0
INSERT
  5
1F5F5
330
1DE37
100
AcDbEntity
  8
寸法
 62
     0
 48
50.0
370
    -2
100
AcDbBlockReference
  2
_DOTSMALL
 10
12120.05988643596
 20
9137.310710222282
 30
0.0
 41
125.0
 42
125.0
 43
125.0
 50
270.0
  0
INSERT
  5
1F5F6
330
1DE37
100
AcDbEntity
  8
寸法
 62
     0
 48
50.0
370
    -2
100
AcDbBlockReference
  2
_DOTSMALL
 10
12120.05988643596
 20
9202.310710222283
 30
0.0
 41
125.0
 42
125.0
 43
125.0
 50
90.0
  0
MTEXT
  5
1F5F7
330
1DE37
100
AcDbEntity
  8
寸法
 62
     7
 48
50.0
100
AcDbMText
 10
12020.05988643595
 20
9442.405500916461
 30
0.0
 40
150.0
 41
0.0
 71
     5
 72
     1
  1
\A1;65
  7
STYLE1
 11
0.0000000000000001
 21
1.0
 31
0.0
 73
     1
 44
1.0
1001
ACAD
1000
MTEXTBEGIN
1070
    73
1070
     1
1070
    44
1040
1.0
1070
    74
1070
     0
1000
MTEXTEND
  0
POINT
  5
1F5F8
330
1DE37
100
AcDbEntity
  8
DEFPOINTS
 62
     0
 48
50.0
100
AcDbPoint
 10
11589.99166227189
 20
9202.310710222283
 30
0.0
  0
POINT
  5
1F5F9
330
1DE37
100
AcDbEntity
  8
DEFPOINTS
 62
     0
 48
50.0
100
AcDbPoint
 10
11669.99166227189
 20
9137.310710222282
 30
0.0
  0
POINT
  5
1F5FA
330
1DE37
100
AcDbEntity
  8
DEFPOINTS
 62
     0
 48
50.0
100
AcDbPoint
 10
12120.05988643596
 20
9137.310710222282
 30
0.0
  0
ENDBLK
  5
1DE43
330
1DE37
100
AcDbEntity
  8
0
 48
50.0
100
AcDbBlockEnd
  0
BLOCK
  5
1E0C6
330
1E0BA
100
AcDbEntity
  8
0
 48
50.0
100
AcDbBlockBegin
  2
*D21
 70
     1
 10
0.0
 20
0.0
 30
0.0
  3
*D21
  1

  0
LINE
  5
1F633
330
1E0BA
100
AcDbEntity
  8
寸法
 62
     0
 48
50.0
370
    -2
100
AcDbLine
 10
11589.99166227189
 20
8635.359196831444
 30
0.0
 11
11589.99166227189
 21
8863.852412842167
 31
0.0
  0
LINE
  5
1F634
330
1E0BA
100
AcDbEntity
  8
寸法
 62
     0
 48
50.0
370
    -2
100
AcDbLine
 10
11469.99166227189
 20
8813.852412842166
 30
0.0
 11
11469.99166227189
 21
8863.852412842167
 31
0.0
  0
LINE
  5
1F635
330
1E0BA
100
AcDbEntity
  8
寸法
 62
     0
 48
50.0
370
    -2
100
AcDbLine
 10
11589.99166227189
 20
8788.852412842166
 30
0.0
 11
11469.99166227189
 21
8788.852412842166
 31
0.0
  0
LINE
  5
1F636
330
1E0BA
100
AcDbEntity
  8
寸法
 62
     0
 48
50.0
370
    -2
100
AcDbLine
 10
11469.99166227189
 20
8788.852412842166
 30
0.0
 11
11054.87355203567
 21
8788.852412842166
 31
0.0
  0
INSERT
  5
1F637
330
1E0BA
100
AcDbEntity
  8
寸法
 62
     0
 48
50.0
370
    -2
100
AcDbBlockReference
  2
_DOTSMALL
 10
11589.99166227189
 20
8788.852412842166
 30
0.0
 41
125.0
 42
125.0
 43
125.0
  0
INSERT
  5
1F638
330
1E0BA
100
AcDbEntity
  8
寸法
 62
     0
 48
50.0
370
    -2
100
AcDbBlockReference
  2
_DOTSMALL
 10
11469.99166227189
 20
8788.852412842166
 30
0.0
 41
125.0
 42
125.0
 43
125.0
 50
180.0
  0
MTEXT
  5
1F639
330
1E0BA
100
AcDbEntity
  8
寸法
 62
     7
 48
50.0
100
AcDbMText
 10
11199.93260715377
 20
8888.867176621694
 30
0.0
 40
150.0
 41
0.0
 71
     5
 72
     1
  1
\A1;120
  7
STYLE1
 73
     1
 44
1.0
1001
ACAD
1000
MTEXTBEGIN
1070
    73
1070
     1
1070
    44
1040
1.0
1070
    74
1070
     0
1000
MTEXTEND
  0
POINT
  5
1F63A
330
1E0BA
100
AcDbEntity
  8
DEFPOINTS
 62
     0
 48
50.0
100
AcDbPoint
 10
11589.99166227189
 20
8610.359196831444
 30
0.0
  0
POINT
  5
1F63B
330
1E0BA
100
AcDbEntity
  8
DEFPOINTS
 62
     0
 48
50.0
100
AcDbPoint
 10
11469.99166227189
 20
8788.852412842166
 30
0.0
  0
POINT
  5
1F63C
330
1E0BA
100
AcDbEntity
  8
DEFPOINTS
 62
     0
 48
50.0
100
AcDbPoint
 10
11469.99166227189
 20
8788.852412842166
 30
0.0
  0
ENDBLK
  5
1E0C7
330
1E0BA
100
AcDbEntity
  8
0
 48
50.0
100
AcDbBlockEnd
  0
BLOCK
  5
1EE3B
330
1EE39
100
AcDbEntity
  8
0
 48
50.0
100
AcDbBlockBegin
  2
A$C4CA21720
 70
     0
 10
0.0
 20
0.0
 30
0.0
  3
A$C4CA21720
  1

  0
LINE
  5
1EE3A
330
1EE39
100
AcDbEntity
  8
想像線
 48
4.0
100
AcDbLine
 10
0.000000000001819
 20
0.0
 30
0.0
 11
1821.000000000003
 21
0.0000000000045475
 31
0.0
  0
ENDBLK
  5
1EE3C
330
1EE39
100
AcDbEntity
  8
0
 48
50.0
100
AcDbBlockEnd
  0
BLOCK
  5
1EE8D
330
1EE8C
100
AcDbEntity
  8
0
 48
50.0
100
AcDbBlockBegin
  2
*D23
 70
     1
 10
0.0
 20
0.0
 30
0.0
  3
*D23
  1

  0
LINE
  5
1EE8E
330
1EE8C
100
AcDbEntity
  8
寸法
 62
     0
 48
50.0
370
    -2
100
AcDbLine
 10
8404.708761280692
 20
7128.724443161437
 30
0.0
 11
8404.708761280692
 21
6744.439330651156
 31
0.0
  0
LINE
  5
1EE8F
330
1EE8C
100
AcDbEntity
  8
寸法
 62
     0
 48
50.0
370
    -2
100
AcDbLine
 10
10225.70876128069
 20
7128.724443161434
 30
0.0
 11
10225.70876128069
 21
6744.439330651156
 31
0.0
  0
LINE
  5
1EE90
330
1EE8C
100
AcDbEntity
  8
寸法
 62
     0
 48
50.0
370
    -2
100
AcDbLine
 10
8404.708761280692
 20
6819.439330651156
 30
0.0
 11
10225.70876128069
 21
6819.439330651156
 31
0.0
  0
INSERT
  5
1EE91
330
1EE8C
100
AcDbEntity
  8
寸法
 62
     0
 48
50.0
370
    -2
100
AcDbBlockReference
  2
_DOTSMALL
 10
8404.708761280692
 20
6819.439330651156
 30
0.0
 41
125.0
 42
125.0
 43
125.0
 50
180.0
  0
INSERT
  5
1EE92
330
1EE8C
100
AcDbEntity
  8
寸法
 62
     0
 48
50.0
370
    -2
100
AcDbBlockReference
  2
_DOTSMALL
 10
10225.70876128069
 20
6819.439330651156
 30
0.0
 41
125.0
 42
125.0
 43
125.0
  0
MTEXT
  5
1EE93
330
1EE8C
100
AcDbEntity
  8
寸法
 62
     7
 48
50.0
100
AcDbMText
 10
9315.208761280693
 20
6919.454094430682
 30
0.0
 40
150.0
 41
0.0
 71
     5
 72
     1
  1
\A1;1821
  7
STYLE1
 73
     1
 44
1.0
1001
ACAD
1000
MTEXTBEGIN
1070
    73
1070
     1
1070
    44
1040
1.0
1070
    74
1070
     0
1000
MTEXTEND
  0
POINT
  5
1EE94
330
1EE8C
100
AcDbEntity
  8
DEFPOINTS
 62
     0
 48
50.0
100
AcDbPoint
 10
8404.708761280692
 20
7153.724443161436
 30
0.0
  0
POINT
  5
1EE95
330
1EE8C
100
AcDbEntity
  8
DEFPOINTS
 62
     0
 48
50.0
100
AcDbPoint
 10
10225.70876128069
 20
7153.724443161434
 30
0.0
  0
POINT
  5
1EE96
330
1EE8C
100
AcDbEntity
  8
DEFPOINTS
 62
     0
 48
50.0
100
AcDbPoint
 10
10225.70876128069
 20
6819.439330651156
 30
0.0
  0
ENDBLK
  5
1EE97
330
1EE8C
100
AcDbEntity
  8
0
 48
50.0
100
AcDbBlockEnd
  0
BLOCK
  5
1EE9F
330
1EE98
100
AcDbEntity
  8
0
 48
50.0
100
AcDbBlockBegin
  2
A$C5AF22E4D
 70
     0
 10
0.0
 20
0.0
 30
0.0
  3
A$C5AF22E4D
  1

  0
HATCH
  5
1EE99
330
1EE98
100
AcDbEntity
  8
寸法
 48
50.0
100
AcDbHatch
 10
0.0
 20
0.0
 30
0.0
210
0.0
220
0.0
230
1.0
  2
DOTS
 70
     0
 71
     0
 91
        2
 92
        7
 72
     0
 73
     1
 93
        4
 10
486.0
 20
0.0
 10
-0.000000000001819
 20
0.0
 10
-0.000000000001819
 20
-64.99999999999818
 10
486.0000000000018
 20
-64.99999999999818
 97
        0
 92
        7
 72
     0
 73
     1
 93
        4
 10
1821.0
 20
0.000000000001819
 10
686.0000000000036
 20
0.000000000001819
 10
686.0000000000018
 20
-65.0
 10
1821.000000000002
 20
-65.0
 97
        0
 75
     0
 76
     1
 52
0.0
 41
5.0
 77
     0
 78
     1
 53
0.0
 43
-8404.708761280692
 44
-7218.724443161434
 45
3.96875
 46
7.9375
 79
     2
 49
0.0
 49
-7.9375
 47
1.671868251657061
 98
        2
 10
263.9725589587324
 20
-0.9020546984356769
 10
740.642807264885
 20
-34.33942789758658
  0
LINE
  5
1EE9A
330
1EE98
100
AcDbEntity
  8
部品1
 48
50.0
100
AcDbLine
 10
0.0
 20
0.0
 30
0.0
 11
0.0
 21
-65.0
 31
0.0
  0
LINE
  5
1EE9B
330
1EE98
100
AcDbEntity
  8
想像線
 48
4.0
100
AcDbLine
 10
0.0
 20
0.0
 30
0.0
 11
1821.000000000002
 21
0.0000000000045475
 31
0.0
  0
DIMENSION
  5
1EE9C
330
1EE98
100
AcDbEntity
  8
寸法
 48
50.0
100
AcDbDimension
  2
*D23
 10
1821.000000000002
 20
-399.2851125102788
 30
0.0
 11
910.5
 21
-299.2703487307517
 31
0.0
 12
-8404.708761280692
 22
-7218.724443161434
 32
0.0
 71
     5
 42
1821.000000000002
  3
INABA_S50G
100
AcDbAlignedDimension
 13
0.0
 23
-64.99999999999818
 33
0.0
 14
1821.000000000002
 24
-65.0
 34
0.0
100
AcDbRotatedDimension
1001
ACAD
1000
DSTYLE
1002
{
1070
   341
1005
0
1002
}
  0
LINE
  5
1EE9D
330
1EE98
100
AcDbEntity
  8
想像線
 48
20.0
100
AcDbLine
 10
-698.9999999999981
 20
-130.0
 30
0.0
 11
1871.000000000002
 21
-130.0
 31
0.0
  0
TEXT
  5
1EE9E
330
1EE98
100
AcDbEntity
  8
寸法
 48
50.0
100
AcDbText
 10
319.4639394580518
 20
-289.8309356058944
 30
0.0
 40
120.0
  1
扉面
  7
STYLE1
100
AcDbText
  0
ENDBLK
  5
1EEA0
330
1EE98
100
AcDbEntity
  8
0
 48
50.0
100
AcDbBlockEnd
  0
BLOCK
  5
2032D
330
20323
100
AcDbEntity
  8
0
 48
50.0
100
AcDbBlockBegin
  2
*D25
 70
     1
 10
0.0
 20
0.0
 30
0.0
  3
*D25
  1

  0
LINE
  5
20DEE
330
20323
100
AcDbEntity
  8
寸法
 62
     0
 48
50.0
370
    -2
100
AcDbLine
 10
9768.991662271886
 20
7802.310710222276
 30
0.0
 11
9768.991662271886
 21
7160.926398588348
 31
0.0
  0
LINE
  5
20DEF
330
20323
100
AcDbEntity
  8
寸法
 62
     0
 48
50.0
370
    -2
100
AcDbLine
 10
11589.99166227189
 20
7802.310710222275
 30
0.0
 11
11589.99166227189
 21
7160.926398588348
 31
0.0
  0
LINE
  5
20DF0
330
20323
100
AcDbEntity
  8
寸法
 62
     0
 48
50.0
370
    -2
100
AcDbLine
 10
9768.991662271886
 20
7235.926398588349
 30
0.0
 11
11589.99166227189
 21
7235.926398588349
 31
0.0
  0
INSERT
  5
20DF1
330
20323
100
AcDbEntity
  8
寸法
 62
     0
 48
50.0
370
    -2
100
AcDbBlockReference
  2
_DOTSMALL
 10
9768.991662271886
 20
7235.926398588349
 30
0.0
 41
125.0
 42
125.0
 43
125.0
 50
180.0
  0
INSERT
  5
20DF2
330
20323
100
AcDbEntity
  8
寸法
 62
     0
 48
50.0
370
    -2
100
AcDbBlockReference
  2
_DOTSMALL
 10
11589.99166227189
 20
7235.926398588349
 30
0.0
 41
125.0
 42
125.0
 43
125.0
  0
MTEXT
  5
20DF3
330
20323
100
AcDbEntity
  8
寸法
 62
     7
 48
50.0
100
AcDbMText
 10
10679.49166227189
 20
7335.941162367875
 30
0.0
 40
150.0
 41
0.0
 71
     5
 72
     1
  1
\A1;1821
  7
STYLE1
 73
     1
 44
1.0
1001
ACAD
1000
MTEXTBEGIN
1070
    73
1070
     1
1070
    44
1040
1.0
1070
    74
1070
     0
1000
MTEXTEND
  0
POINT
  5
20DF4
330
20323
100
AcDbEntity
  8
DEFPOINTS
 62
     0
 48
50.0
100
AcDbPoint
 10
9768.991662271886
 20
7827.310710222277
 30
0.0
  0
POINT
  5
20DF5
330
20323
100
AcDbEntity
  8
DEFPOINTS
 62
     0
 48
50.0
100
AcDbPoint
 10
11589.99166227189
 20
7827.310710222275
 30
0.0
  0
POINT
  5
20DF6
330
20323
100
AcDbEntity
  8
DEFPOINTS
 62
     0
 48
50.0
100
AcDbPoint
 10
11589.99166227189
 20
7235.926398588349
 30
0.0
  0
ENDBLK
  5
2032E
330
20323
100
AcDbEntity
  8
0
 48
50.0
100
AcDbBlockEnd
  0
BLOCK
  5
2033A
330
2032F
100
AcDbEntity
  8
0
 48
50.0
100
AcDbBlockBegin
  2
*D26
 70
     1
 10
0.0
 20
0.0
 30
0.0
  3
*D26
  1

  0
LINE
  5
20358
330
2032F
100
AcDbEntity
  8
寸法
 62
     0
 48
50.0
370
    -2
100
AcDbLine
 10
9743.991662271888
 20
7827.310710222277
 30
0.0
 11
9542.503884003831
 21
7827.310710222277
 31
0.0
  0
LINE
  5
20359
330
2032F
100
AcDbEntity
  8
寸法
 62
     0
 48
50.0
370
    -2
100
AcDbLine
 10
9736.452333686493
 20
8012.310710222275
 30
0.0
 11
9542.503884003831
 21
8012.310710222275
 31
0.0
  0
LINE
  5
2035A
330
2032F
100
AcDbEntity
  8
寸法
 62
     0
 48
50.0
370
    -2
100
AcDbLine
 10
9617.503884003831
 20
8012.310710222275
 30
0.0
 11
9617.503884003831
 21
7827.310710222277
 31
0.0
  0
LINE
  5
2035B
330
2032F
100
AcDbEntity
  8
寸法
 62
     0
 48
50.0
370
    -2
100
AcDbLine
 10
9617.503884003831
 20
7827.310710222277
 30
0.0
 11
9617.503884003831
 21
7406.097506786678
 31
0.0
  0
INSERT
  5
2035C
330
2032F
100
AcDbEntity
  8
寸法
 62
     0
 48
50.0
370
    -2
100
AcDbBlockReference
  2
_DOTSMALL
 10
9617.503884003831
 20
8012.310710222275
 30
0.0
 41
125.0
 42
125.0
 43
125.0
 50
90.0
  0
INSERT
  5
2035D
330
2032F
100
AcDbEntity
  8
寸法
 62
     0
 48
50.0
370
    -2
100
AcDbBlockReference
  2
_DOTSMALL
 10
9617.503884003831
 20
7827.310710222277
 30
0.0
 41
125.0
 42
125.0
 43
125.0
 50
270.0
  0
MTEXT
  5
2035E
330
2032F
100
AcDbEntity
  8
寸法
 62
     7
 48
50.0
100
AcDbMText
 10
9517.503884003827
 20
7554.204108504477
 30
0.0
 40
150.0
 41
0.0
 71
     5
 72
     1
  1
\A1;185
  7
STYLE1
 11
0.0000000000000001
 21
1.0
 31
0.0
 73
     1
 44
1.0
1001
ACAD
1000
MTEXTBEGIN
1070
    73
1070
     1
1070
    44
1040
1.0
1070
    74
1070
     0
1000
MTEXTEND
  0
POINT
  5
2035F
330
2032F
100
AcDbEntity
  8
DEFPOINTS
 62
     0
 48
50.0
100
AcDbPoint
 10
9768.991662271886
 20
7827.310710222277
 30
0.0
  0
POINT
  5
20360
330
2032F
100
AcDbEntity
  8
DEFPOINTS
 62
     0
 48
50.0
100
AcDbPoint
 10
9761.452333686493
 20
8012.310710222275
 30
0.0
  0
POINT
  5
20361
330
2032F
100
AcDbEntity
  8
DEFPOINTS
 62
     0
 48
50.0
100
AcDbPoint
 10
9617.503884003831
 20
8012.310710222275
 30
0.0
  0
ENDBLK
  5
2033B
330
2032F
100
AcDbEntity
  8
0
 48
50.0
100
AcDbBlockEnd
  0
BLOCK
  5
20C63
330
20C59
100
AcDbEntity
  8
0
 48
50.0
100
AcDbBlockBegin
  2
*D27
 70
     1
 10
0.0
 20
0.0
 30
0.0
  3
*D27
  1

  0
LINE
  5
20D78
330
20C59
100
AcDbEntity
  8
寸法
 62
     0
 48
50.0
370
    -2
100
AcDbLine
 10
6849.092816534526
 20
1058.898936767546
 30
0.0
 11
6849.092816534526
 21
709.9468303116118
 31
0.0
  0
LINE
  5
20D79
330
20C59
100
AcDbEntity
  8
寸法
 62
     0
 48
50.0
370
    -2
100
AcDbLine
 10
7449.092816534527
 20
1058.898936767546
 30
0.0
 11
7449.092816534527
 21
709.9468303116118
 31
0.0
  0
LINE
  5
20D7A
330
20C59
100
AcDbEntity
  8
寸法
 62
     0
 48
50.0
370
    -2
100
AcDbLine
 10
6849.092816534526
 20
784.9468303116118
 30
0.0
 11
7449.092816534527
 21
784.9468303116118
 31
0.0
  0
INSERT
  5
20D7B
330
20C59
100
AcDbEntity
  8
寸法
 62
     0
 48
50.0
370
    -2
100
AcDbBlockReference
  2
_DOTSMALL
 10
6849.092816534526
 20
784.9468303116118
 30
0.0
 41
125.0
 42
125.0
 43
125.0
 50
180.0
  0
INSERT
  5
20D7C
330
20C59
100
AcDbEntity
  8
寸法
 62
     0
 48
50.0
370
    -2
100
AcDbBlockReference
  2
_DOTSMALL
 10
7449.092816534527
 20
784.9468303116118
 30
0.0
 41
125.0
 42
125.0
 43
125.0
  0
MTEXT
  5
20D7D
330
20C59
100
AcDbEntity
  8
寸法
 62
     7
 48
50.0
100
AcDbMText
 10
7149.092816534526
 20
859.9468303116118
 30
0.0
 40
100.0
 41
0.0
 71
     5
 72
     1
  1
\A1;300
  7
STYLE1
 73
     1
 44
1.0
1001
ACAD
1000
MTEXTBEGIN
1070
    73
1070
     1
1070
    44
1040
1.0
1070
    74
1070
     0
1000
MTEXTEND
  0
POINT
  5
20D7E
330
20C59
100
AcDbEntity
  8
DEFPOINTS
 62
     0
 48
50.0
100
AcDbPoint
 10
6849.092816534526
 20
1083.898936767545
 30
0.0
  0
POINT
  5
20D7F
330
20C59
100
AcDbEntity
  8
DEFPOINTS
 62
     0
 48
50.0
100
AcDbPoint
 10
7449.092816534527
 20
1083.898936767545
 30
0.0
  0
POINT
  5
20D80
330
20C59
100
AcDbEntity
  8
DEFPOINTS
 62
     0
 48
50.0
100
AcDbPoint
 10
7449.092816534527
 20
784.9468303116118
 30
0.0
  0
ENDBLK
  5
20C64
330
20C59
100
AcDbEntity
  8
0
 48
50.0
100
AcDbBlockEnd
  0
BLOCK
  5
20C6F
330
20C65
100
AcDbEntity
  8
0
 48
50.0
100
AcDbBlockBegin
  2
*D28
 70
     1
 10
0.0
 20
0.0
 30
0.0
  3
*D28
  1

  0
LINE
  5
20D6F
330
20C65
100
AcDbEntity
  8
寸法
 62
     0
 48
50.0
370
    -2
100
AcDbLine
 10
7004.092816534527
 20
2323.898936767546
 30
0.0
 11
6099.623448735372
 21
2323.898936767546
 31
0.0
  0
LINE
  5
20D70
330
20C65
100
AcDbEntity
  8
寸法
 62
     0
 48
50.0
370
    -2
100
AcDbLine
 10
6744.092816534529
 20
1243.898936767546
 30
0.0
 11
6099.623448735371
 21
1243.898936767546
 31
0.0
  0
LINE
  5
20D71
330
20C65
100
AcDbEntity
  8
寸法
 62
     0
 48
50.0
370
    -2
100
AcDbLine
 10
6174.623448735372
 20
2323.898936767546
 30
0.0
 11
6174.623448735371
 21
1243.898936767546
 31
0.0
  0
INSERT
  5
20D72
330
20C65
100
AcDbEntity
  8
寸法
 62
     0
 48
50.0
370
    -2
100
AcDbBlockReference
  2
_DOTSMALL
 10
6174.623448735372
 20
2323.898936767546
 30
0.0
 41
125.0
 42
125.0
 43
125.0
 50
90.0
  0
INSERT
  5
20D73
330
20C65
100
AcDbEntity
  8
寸法
 62
     0
 48
50.0
370
    -2
100
AcDbBlockReference
  2
_DOTSMALL
 10
6174.623448735371
 20
1243.898936767546
 30
0.0
 41
125.0
 42
125.0
 43
125.0
 50
270.0
  0
MTEXT
  5
20D74
330
20C65
100
AcDbEntity
  8
寸法
 62
     7
 48
50.0
100
AcDbMText
 10
6099.623448735371
 20
1820.693873365256
 30
0.0
 40
100.0
 41
0.0
 71
     5
 72
     1
  1
\A1;540
  7
STYLE1
 11
0.0000000000000001
 21
1.0
 31
0.0
 73
     1
 44
1.0
1001
ACAD
1000
MTEXTBEGIN
1070
    73
1070
     1
1070
    44
1040
1.0
1070
    74
1070
     0
1000
MTEXTEND
  0
POINT
  5
20D75
330
20C65
100
AcDbEntity
  8
DEFPOINTS
 62
     0
 48
50.0
100
AcDbPoint
 10
7029.092816534526
 20
2323.898936767546
 30
0.0
  0
POINT
  5
20D76
330
20C65
100
AcDbEntity
  8
DEFPOINTS
 62
     0
 48
50.0
100
AcDbPoint
 10
6769.092816534528
 20
1243.898936767546
 30
0.0
  0
POINT
  5
20D77
330
20C65
100
AcDbEntity
  8
DEFPOINTS
 62
     0
 48
50.0
100
AcDbPoint
 10
6174.623448735371
 20
1243.898936767546
 30
0.0
  0
ENDBLK
  5
20C70
330
20C65
100
AcDbEntity
  8
0
 48
50.0
100
AcDbBlockEnd
  0
BLOCK
  5
20C7B
330
20C71
100
AcDbEntity
  8
0
 48
50.0
100
AcDbBlockBegin
  2
*D29
 70
     1
 10
0.0
 20
0.0
 30
0.0
  3
*D29
  1

  0
LINE
  5
20D81
330
20C71
100
AcDbEntity
  8
寸法
 62
     0
 48
50.0
370
    -2
100
AcDbLine
 10
6844.092816534526
 20
1543.898936767546
 30
0.0
 11
6330.822472202918
 21
1543.898936767546
 31
0.0
  0
LINE
  5
20D82
330
20C71
100
AcDbEntity
  8
寸法
 62
     0
 48
50.0
370
    -2
100
AcDbLine
 10
6744.092816534529
 20
1243.898936767546
 30
0.0
 11
6330.822472202918
 21
1243.898936767546
 31
0.0
  0
LINE
  5
20D83
330
20C71
100
AcDbEntity
  8
寸法
 62
     0
 48
50.0
370
    -2
100
AcDbLine
 10
6405.822472202918
 20
1543.898936767546
 30
0.0
 11
6405.822472202918
 21
1243.898936767546
 31
0.0
  0
INSERT
  5
20D84
330
20C71
100
AcDbEntity
  8
寸法
 62
     0
 48
50.0
370
    -2
100
AcDbBlockReference
  2
_DOTSMALL
 10
6405.822472202918
 20
1543.898936767546
 30
0.0
 41
125.0
 42
125.0
 43
125.0
 50
90.0
  0
INSERT
  5
20D85
330
20C71
100
AcDbEntity
  8
寸法
 62
     0
 48
50.0
370
    -2
100
AcDbBlockReference
  2
_DOTSMALL
 10
6405.822472202918
 20
1243.898936767546
 30
0.0
 41
125.0
 42
125.0
 43
125.0
 50
270.0
  0
MTEXT
  5
20D86
330
20C71
100
AcDbEntity
  8
寸法
 62
     7
 48
50.0
100
AcDbMText
 10
6330.822472202918
 20
1418.225531159689
 30
0.0
 40
100.0
 41
0.0
 71
     5
 72
     1
  1
\A1;150
  7
STYLE1
 11
0.0000000000000001
 21
1.0
 31
0.0
 73
     1
 44
1.0
1001
ACAD
1000
MTEXTBEGIN
1070
    73
1070
     1
1070
    44
1040
1.0
1070
    74
1070
     0
1000
MTEXTEND
  0
POINT
  5
20D87
330
20C71
100
AcDbEntity
  8
DEFPOINTS
 62
     0
 48
50.0
100
AcDbPoint
 10
6869.092816534527
 20
1543.898936767546
 30
0.0
  0
POINT
  5
20D88
330
20C71
100
AcDbEntity
  8
DEFPOINTS
 62
     0
 48
50.0
100
AcDbPoint
 10
6769.092816534528
 20
1243.898936767546
 30
0.0
  0
POINT
  5
20D89
330
20C71
100
AcDbEntity
  8
DEFPOINTS
 62
     0
 48
50.0
100
AcDbPoint
 10
6405.822472202918
 20
1243.898936767546
 30
0.0
  0
ENDBLK
  5
20C7C
330
20C71
100
AcDbEntity
  8
0
 48
50.0
100
AcDbBlockEnd
  0
BLOCK
  5
20C87
330
20C7D
100
AcDbEntity
  8
0
 48
50.0
100
AcDbBlockBegin
  2
*D30
 70
     1
 10
0.0
 20
0.0
 30
0.0
  3
*D30
  1

  0
LINE
  5
20D8A
330
20C7D
100
AcDbEntity
  8
寸法
 62
     0
 48
50.0
370
    -2
100
AcDbLine
 10
7269.092816534527
 20
2348.898936767546
 30
0.0
 11
7269.092816534527
 21
2798.898936767546
 31
0.0
  0
LINE
  5
20D8B
330
20C7D
100
AcDbEntity
  8
寸法
 62
     0
 48
50.0
370
    -2
100
AcDbLine
 10
7029.092816534526
 20
2348.898936767546
 30
0.0
 11
7029.092816534526
 21
2798.898936767546
 31
0.0
  0
LINE
  5
20D8C
330
20C7D
100
AcDbEntity
  8
寸法
 62
     0
 48
50.0
370
    -2
100
AcDbLine
 10
7269.092816534527
 20
2723.898936767546
 30
0.0
 11
7029.092816534526
 21
2723.898936767546
 31
0.0
  0
INSERT
  5
20D8D
330
20C7D
100
AcDbEntity
  8
寸法
 62
     0
 48
50.0
370
    -2
100
AcDbBlockReference
  2
_DOTSMALL
 10
7269.092816534527
 20
2723.898936767546
 30
0.0
 41
125.0
 42
125.0
 43
125.0
  0
INSERT
  5
20D8E
330
20C7D
100
AcDbEntity
  8
寸法
 62
     0
 48
50.0
370
    -2
100
AcDbBlockReference
  2
_DOTSMALL
 10
7029.092816534526
 20
2723.898936767546
 30
0.0
 41
125.0
 42
125.0
 43
125.0
 50
180.0
  0
MTEXT
  5
20D8F
330
20C7D
100
AcDbEntity
  8
寸法
 62
     7
 48
50.0
100
AcDbMText
 10
7149.092816534526
 20
2882.242112620564
 30
0.0
 40
100.0
 41
0.0
 71
     5
 72
     1
  1
\A1;120\P185
  7
STYLE1
 73
     1
 44
1.0
1001
ACAD
1000
MTEXTBEGIN
1070
    73
1070
     1
1070
    44
1040
1.0
1070
    74
1070
     0
1000
MTEXTEND
  0
POINT
  5
20D90
330
20C7D
100
AcDbEntity
  8
DEFPOINTS
 62
     0
 48
50.0
100
AcDbPoint
 10
7269.092816534527
 20
2323.898936767546
 30
0.0
  0
POINT
  5
20D91
330
20C7D
100
AcDbEntity
  8
DEFPOINTS
 62
     0
 48
50.0
100
AcDbPoint
 10
7029.092816534526
 20
2323.898936767546
 30
0.0
  0
POINT
  5
20D92
330
20C7D
100
AcDbEntity
  8
DEFPOINTS
 62
     0
 48
50.0
100
AcDbPoint
 10
7029.092816534526
 20
2723.898936767546
 30
0.0
  0
ENDBLK
  5
20C88
330
20C7D
100
AcDbEntity
  8
0
 48
50.0
100
AcDbBlockEnd
  0
BLOCK
  5
20C94
330
20C89
100
AcDbEntity
  8
0
 48
50.0
100
AcDbBlockBegin
  2
*D31
 70
     1
 10
0.0
 20
0.0
 30
0.0
  3
*D31
  1

  0
LINE
  5
20D53
330
20C89
100
AcDbEntity
  8
寸法
 62
     0
 48
50.0
370
    -2
100
AcDbLine
 10
10181.51672005893
 20
2459.736348840027
 30
0.0
 11
9460.131422138266
 21
2459.736348840027
 31
0.0
  0
LINE
  5
20D54
330
20C89
100
AcDbEntity
  8
寸法
 62
     0
 48
50.0
370
    -2
100
AcDbLine
 10
10051.51672005893
 20
2399.428656532335
 30
0.0
 11
9460.131422138266
 21
2399.428656532335
 31
0.0
  0
LINE
  5
20D55
330
20C89
100
AcDbEntity
  8
寸法
 62
     0
 48
50.0
370
    -2
100
AcDbLine
 10
9535.131422138265
 20
2399.428656532335
 30
0.0
 11
9535.131422138265
 21
2459.736348840027
 31
0.0
  0
LINE
  5
20D56
330
20C89
100
AcDbEntity
  8
寸法
 62
     0
 48
50.0
370
    -2
100
AcDbLine
 10
9535.131422138265
 20
2459.736348840027
 30
0.0
 11
9535.131422138265
 21
2873.148422330841
 31
0.0
  0
INSERT
  5
20D57
330
20C89
100
AcDbEntity
  8
寸法
 62
     0
 48
50.0
370
    -2
100
AcDbBlockReference
  2
_DOTSMALL
 10
9535.131422138265
 20
2399.428656532335
 30
0.0
 41
125.0
 42
125.0
 43
125.0
 50
270.0
  0
INSERT
  5
20D58
330
20C89
100
AcDbEntity
  8
寸法
 62
     0
 48
50.0
370
    -2
100
AcDbBlockReference
  2
_DOTSMALL
 10
9535.131422138265
 20
2459.736348840027
 30
0.0
 41
125.0
 42
125.0
 43
125.0
 50
90.0
  0
MTEXT
  5
20D59
330
20C89
100
AcDbEntity
  8
寸法
 62
     7
 48
50.0
100
AcDbMText
 10
9460.131422138266
 20
2728.942385585436
 30
0.0
 40
100.0
 41
0.0
 71
     5
 72
     1
  1
\A1;出30
  7
STYLE1
 11
0.0000000000000001
 21
1.0
 31
0.0
 73
     1
 44
1.0
1001
ACAD
1000
MTEXTBEGIN
1070
    73
1070
     1
1070
    44
1040
1.0
1070
    74
1070
     0
1000
MTEXTEND
  0
POINT
  5
20D5A
330
20C89
100
AcDbEntity
  8
DEFPOINTS
 62
     0
 48
50.0
100
AcDbPoint
 10
10206.51672005893
 20
2459.736348840027
 30
0.0
  0
POINT
  5
20D5B
330
20C89
100
AcDbEntity
  8
DEFPOINTS
 62
     0
 48
50.0
100
AcDbPoint
 10
10076.51672005893
 20
2399.428656532335
 30
0.0
  0
POINT
  5
20D5C
330
20C89
100
AcDbEntity
  8
DEFPOINTS
 62
     0
 48
50.0
100
AcDbPoint
 10
9535.131422138265
 20
2399.428656532335
 30
0.0
  0
ENDBLK
  5
20C95
330
20C89
100
AcDbEntity
  8
0
 48
50.0
100
AcDbBlockEnd
  0
BLOCK
  5
20CA0
330
20C96
100
AcDbEntity
  8
0
 48
50.0
100
AcDbBlockBegin
  2
*D32
 70
     1
 10
0.0
 20
0.0
 30
0.0
  3
*D32
  1

  0
LINE
  5
20D5D
330
20C96
100
AcDbEntity
  8
寸法
 62
     0
 48
50.0
370
    -2
100
AcDbLine
 10
10087.28595082817
 20
2529.967118070796
 30
0.0
 11
10087.28595082817
 21
2939.740916482257
 31
0.0
  0
LINE
  5
20D5E
330
20C96
100
AcDbEntity
  8
寸法
 62
     0
 48
50.0
370
    -2
100
AcDbLine
 10
10277.90133544355
 20
2531.044041147719
 30
0.0
 11
10277.90133544355
 21
2939.740916482257
 31
0.0
  0
LINE
  5
20D5F
330
20C96
100
AcDbEntity
  8
寸法
 62
     0
 48
50.0
370
    -2
100
AcDbLine
 10
10087.28595082817
 20
2864.740916482256
 30
0.0
 11
10277.90133544355
 21
2864.740916482256
 31
0.0
  0
INSERT
  5
20D60
330
20C96
100
AcDbEntity
  8
寸法
 62
     0
 48
50.0
370
    -2
100
AcDbBlockReference
  2
_DOTSMALL
 10
10087.28595082817
 20
2864.740916482256
 30
0.0
 41
125.0
 42
125.0
 43
125.0
 50
180.0
  0
INSERT
  5
20D61
330
20C96
100
AcDbEntity
  8
寸法
 62
     0
 48
50.0
370
    -2
100
AcDbBlockReference
  2
_DOTSMALL
 10
10277.90133544355
 20
2864.740916482256
 30
0.0
 41
125.0
 42
125.0
 43
125.0
  0
MTEXT
  5
20D62
330
20C96
100
AcDbEntity
  8
寸法
 62
     7
 48
50.0
100
AcDbMText
 10
10182.59364313586
 20
2939.740916482257
 30
0.0
 40
100.0
 41
0.0
 71
     5
 72
     1
  1
\A1;88.5
  7
STYLE1
 73
     1
 44
1.0
1001
ACAD
1000
MTEXTBEGIN
1070
    73
1070
     1
1070
    44
1040
1.0
1070
    74
1070
     0
1000
MTEXTEND
  0
POINT
  5
20D63
330
20C96
100
AcDbEntity
  8
DEFPOINTS
 62
     0
 48
50.0
100
AcDbPoint
 10
10087.28595082817
 20
2504.967118070796
 30
0.0
  0
POINT
  5
20D64
330
20C96
100
AcDbEntity
  8
DEFPOINTS
 62
     0
 48
50.0
100
AcDbPoint
 10
10277.90133544355
 20
2506.04404114772
 30
0.0
  0
POINT
  5
20D65
330
20C96
100
AcDbEntity
  8
DEFPOINTS
 62
     0
 48
50.0
100
AcDbPoint
 10
10277.90133544355
 20
2864.740916482256
 30
0.0
  0
ENDBLK
  5
20CA1
330
20C96
100
AcDbEntity
  8
0
 48
50.0
100
AcDbBlockEnd
  0
BLOCK
  5
20CAD
330
20CA2
100
AcDbEntity
  8
0
 48
50.0
100
AcDbBlockBegin
  2
*D33
 70
     1
 10
0.0
 20
0.0
 30
0.0
  3
*D33
  1

  0
LINE
  5
20D49
330
20CA2
100
AcDbEntity
  8
寸法
 62
     0
 48
50.0
370
    -2
100
AcDbLine
 10
10076.51672005893
 20
2424.428656532335
 30
0.0
 11
10076.51672005893
 21
2718.161998430282
 31
0.0
  0
LINE
  5
20D4A
330
20CA2
100
AcDbEntity
  8
寸法
 62
     0
 48
50.0
370
    -2
100
AcDbLine
 10
10220.01672005893
 20
2484.736348840026
 30
0.0
 11
10220.01672005893
 21
2718.161998430282
 31
0.0
  0
LINE
  5
20D4B
330
20CA2
100
AcDbEntity
  8
寸法
 62
     0
 48
50.0
370
    -2
100
AcDbLine
 10
10220.01672005893
 20
2643.161998430282
 30
0.0
 11
10076.51672005893
 21
2643.161998430282
 31
0.0
  0
LINE
  5
20D4C
330
20CA2
100
AcDbEntity
  8
寸法
 62
     0
 48
50.0
370
    -2
100
AcDbLine
 10
10076.51672005893
 20
2643.161998430282
 30
0.0
 11
9781.390332466703
 21
2643.161998430282
 31
0.0
  0
INSERT
  5
20D4D
330
20CA2
100
AcDbEntity
  8
寸法
 62
     0
 48
50.0
370
    -2
100
AcDbBlockReference
  2
_DOTSMALL
 10
10220.01672005893
 20
2643.161998430282
 30
0.0
 41
125.0
 42
125.0
 43
125.0
  0
INSERT
  5
20D4E
330
20CA2
100
AcDbEntity
  8
寸法
 62
     0
 48
50.0
370
    -2
100
AcDbBlockReference
  2
_DOTSMALL
 10
10076.51672005893
 20
2643.161998430282
 30
0.0
 41
125.0
 42
125.0
 43
125.0
 50
180.0
  0
MTEXT
  5
20D4F
330
20CA2
100
AcDbEntity
  8
寸法
 62
     7
 48
50.0
100
AcDbMText
 10
9866.453526262819
 20
2718.161998430282
 30
0.0
 40
100.0
 41
0.0
 71
     5
 72
     1
  1
\A1;65
  7
STYLE1
 73
     1
 44
1.0
1001
ACAD
1000
MTEXTBEGIN
1070
    73
1070
     1
1070
    44
1040
1.0
1070
    74
1070
     0
1000
MTEXTEND
  0
POINT
  5
20D50
330
20CA2
100
AcDbEntity
  8
DEFPOINTS
 62
     0
 48
50.0
100
AcDbPoint
 10
10076.51672005893
 20
2399.428656532335
 30
0.0
  0
POINT
  5
20D51
330
20CA2
100
AcDbEntity
  8
DEFPOINTS
 62
     0
 48
50.0
100
AcDbPoint
 10
10220.01672005893
 20
2459.736348840027
 30
0.0
  0
POINT
  5
20D52
330
20CA2
100
AcDbEntity
  8
DEFPOINTS
 62
     0
 48
50.0
100
AcDbPoint
 10
10220.01672005893
 20
2643.161998430282
 30
0.0
  0
ENDBLK
  5
20CAE
330
20CA2
100
AcDbEntity
  8
0
 48
50.0
100
AcDbBlockEnd
  0
ENDSEC
  0
SECTION
  2
ENTITIES
  0
LINE
  5
10B56
330
747D
100
AcDbEntity
  8
補助
  6
PHANTOM
 62
   230
 48
50.0
100
AcDbLine
 10
175.0
 20
0.0
 30
0.0
 11
174.9999999999993
 21
14262.0
 31
0.0
  0
LINE
  5
10B57
330
747D
100
AcDbEntity
  8
補助
  6
PHANTOM
 62
   230
 48
50.0
100
AcDbLine
 10
174.9999999999993
 20
14262.0
 30
0.0
 11
20384.0
 21
14262.0
 31
0.0
  0
LINE
  5
10B5D
330
747D
100
AcDbEntity
  8
仕様書枠
 48
50.0
100
AcDbLine
 10
175.0
 20
0.0
 30
0.0
 11
20384.0
 21
-0.0000000000001137
 31
0.0
  0
LINE
  5
10B5E
330
747D
100
AcDbEntity
  8
補助
  6
PHANTOM
 62
   230
 48
50.0
100
AcDbLine
 10
20384.0
 20
14262.0
 30
0.0
 11
20384.0
 21
1500.0
 31
0.0
  0
TEXT
  5
19F39
330
747D
100
AcDbEntity
  8
文字
 62
     7
 48
50.0
100
AcDbText
 10
11003.49825877673
 20
3930.917180255876
 30
0.0
 40
150.0
  1
（　）内寸法は屋根の出幅です。
  7
STYLE1
100
AcDbText
  0
LINE
  5
19F3A
330
747D
100
AcDbEntity
  8
部品1
100
AcDbLine
 10
13721.91828336903
 20
3866.396619113126
 30
0.0
 11
10984.25567651361
 21
3866.396619113126
 31
0.0
  0
TEXT
  5
1D522
330
747D
100
AcDbEntity
  8
文字
 62
     7
 48
50.0
100
AcDbText
 10
16501.79587498052
 20
596.5925826289065
 30
0.0
 40
200.0
  1
機種名
  7
STYLE2
100
AcDbText
  0
TEXT
  5
1D523
330
747D
100
AcDbEntity
  8
文字
 62
     7
 48
50.0
100
AcDbText
 10
16511.75668531126
 20
99.75789086487919
 30
0.0
 40
100.0
  1
※布基礎には換気口を設けてください。
  7
STYLE2
100
AcDbText
  0
TEXT
  5
1D524
330
747D
100
AcDbEntity
  8
文字
 62
     7
 48
50.0
100
AcDbText
 10
16511.75668531126
 20
270.5931184260625
 30
0.0
 40
100.0
  1
※寒冷地等は、地域の実情に合わせた基礎にしてください。
  7
STYLE2
100
AcDbText
  0
LINE
  5
1D525
330
747D
100
AcDbEntity
  8
仕様書枠
 48
50.0
100
AcDbLine
 10
16384.0
 20
999.9999999999998
 30
0.0
 11
17814.0
 21
999.9999999999998
 31
0.0
  0
TEXT
  5
1D526
330
747D
100
AcDbEntity
  8
仕様書枠
 62
     7
 48
50.0
100
AcDbText
 10
16453.72382072112
 20
1118.863259287425
 30
0.0
 40
250.0
  1
基 礎 図
  7
STYLE2
100
AcDbText
  0
LINE
  5
1D527
330
747D
100
AcDbEntity
  8
仕様書枠
 62
     7
 48
50.0
100
AcDbLine
 10
16484.0
 20
499.9999999999999
 30
0.0
 11
20284.0
 21
499.9999999999999
 31
0.0
  0
LINE
  5
1D528
330
747D
100
AcDbEntity
  8
仕様書枠
 48
50.0
100
AcDbLine
 10
16384.0
 20
1500.0
 30
0.0
 11
20384.0
 21
1500.0
 31
0.0
  0
LINE
  5
1D578
330
747D
100
AcDbEntity
  8
仕様書枠
  6
Continuous
 48
50.0
100
AcDbLine
 10
16384.0
 20
1500.0
 30
0.0
 11
16384.0
 21
-0.0000000000001137
 31
0.0
  0
TEXT
  5
1D57A
330
747D
100
AcDbEntity
  8
仕様書枠
 62
     7
 48
50.0
100
AcDbText
 10
18108.75008258934
 20
604.8708912389265
 30
0.0
 40
200.0
  1
ＳＭＫ-３２Ｓ
  7
STYLE2
100
AcDbText
  0
LINE
  5
1D57B
330
747D
100
AcDbEntity
  8
仕様書枠
  6
Continuous
 48
50.0
100
AcDbLine
 10
17814.0
 20
1500.0
 30
0.0
 11
17814.0
 21
999.9999999999998
 31
0.0
  0
TEXT
  5
1D57C
330
747D
100
AcDbEntity
  8
文字
 62
     7
 48
50.0
100
AcDbText
 10
19055.23044944207
 20
1289.447132864036
 30
0.0
 40
125.0
  1
<縮尺> S=1/50
  7
STYLE2
100
AcDbText
  0
LINE
  5
1D57D
330
747D
100
AcDbEntity
  8
仕様書枠
 48
50.0
100
AcDbLine
 10
20384.0
 20
1500.0
 30
0.0
 11
20384.0
 21
-0.0000000000001137
 31
0.0
  0
LEADER
  5
1DBDF
330
747D
100
AcDbEntity
  8
寸法
 48
50.0
100
AcDbLeader
  3
INABA_S50G
 73
     0
 74
     0
 75
     1
 40
150.0
 41
840.0
 76
     3
 10
10473.85049645894
 20
9292.310710222279
 30
0.0
 10
10389.80925839019
 20
9513.926706451156
 30
0.0
 10
10514.80925839019
 20
9513.926706451156
 30
0.0
340
1DBE0
1001
ACAD
1000
DSTYLE
1002
{
1070
   341
1005
0
1070
    40
1040
1.0
1070
   343
1005
0
1070
   344
1005
0
1002
}
  0
MTEXT
  5
1DBE0
102
{ACAD_REACTORS
330
1DBDF
102
}
330
747D
100
AcDbEntity
  8
部品1
 62
     7
 48
50.0
100
AcDbMText
 10
11379.80925839019
 20
9613.926706451158
 30
0.0
 40
150.0
 41
0.0
 71
     6
 72
     1
  1
\A1;屋根の外寸
  7
STYLE1
 73
     1
 44
1.0
1001
ACAD
1000
MTEXTBEGIN
1070
    73
1070
     1
1070
    44
1040
1.0
1070
    74
1070
     0
1000
MTEXTEND
  0
LINE
  5
1DBE1
330
747D
100
AcDbEntity
  8
部品1
 48
50.0
100
AcDbLine
 10
11469.99166227189
 20
9082.310710222285
 30
0.0
 11
9239.991662271886
 21
9082.310710222285
 31
0.0
  0
LINE
  5
1DBE2
330
747D
100
AcDbEntity
  8
想像線
 48
20.0
100
AcDbLine
 10
11639.99166227189
 20
9292.310710222279
 30
0.0
 11
9069.991662271888
 21
9292.310710222283
 31
0.0
  0
LINE
  5
1DBE3
330
747D
100
AcDbEntity
  8
部品1
 48
50.0
100
AcDbLine
 10
11589.99166227189
 20
9202.310710222283
 30
0.0
 11
9119.991662271889
 21
9202.310710222283
 31
0.0
  0
DIMENSION
  5
1DBE4
330
747D
100
AcDbEntity
  8
寸法
 48
50.0
100
AcDbDimension
  2
*D1
 10
11589.99166227189
 20
9834.57385995246
 30
0.0
 11
10972.49166227189
 21
9934.588623731986
 31
0.0
 70
    32
 71
     5
 42
1235.0
  3
INABA_S50G
100
AcDbAlignedDimension
 13
10354.99166227189
 23
8692.310710222283
 33
0.0
 14
11589.99166227189
 24
9202.310710222283
 34
0.0
100
AcDbRotatedDimension
  0
DIMENSION
  5
1DBE6
330
747D
100
AcDbEntity
  8
寸法
 48
50.0
100
AcDbDimension
  2
*D2
 10
11524.99166227189
 20
6908.051675918127
 30
0.0
 11
10354.99166227189
 21
7008.066439697653
 31
0.0
 70
    32
 71
     5
 42
2340.0
  3
INABA_S50G
100
AcDbAlignedDimension
 13
9184.991662271889
 23
7812.310710222281
 33
0.0
 14
11524.99166227189
 24
7812.310710222281
 34
0.0
100
AcDbRotatedDimension
1001
ACAD
1000
DSTYLE
1002
{
1070
    75
1070
     1
1070
   279
1070
     1
1002
}
  0
DIMENSION
  5
1DBE7
330
747D
100
AcDbEntity
  8
寸法
 48
50.0
100
AcDbDimension
  2
*D3
 10
11589.99166227189
 20
6596.518732163055
 30
0.0
 11
10354.99166227189
 21
6696.533495942581
 31
0.0
 70
    32
 71
     5
 42
2470.0
  3
INABA_S50G
100
AcDbAlignedDimension
 13
9119.991662271889
 23
7892.310710222282
 33
0.0
 14
11589.99166227189
 24
7892.310710222279
 34
0.0
100
AcDbRotatedDimension
  0
LINE
  5
1DBE8
330
747D
100
AcDbEntity
  8
部品1
 48
50.0
100
AcDbLine
 10
9239.99166227189
 20
8012.310710222282
 30
0.0
 11
11469.99166227189
 21
8012.31071022228
 31
0.0
  0
LINE
  5
1DBE9
330
747D
100
AcDbEntity
  8
想像線
 48
20.0
100
AcDbLine
 10
9069.991662271888
 20
7762.310710222282
 30
0.0
 11
11639.99166227189
 21
7762.310710222282
 31
0.0
  0
DIMENSION
  5
1DBEA
330
747D
100
AcDbEntity
  8
寸法
 48
50.0
100
AcDbDimension
  2
*D4
 10
11457.68164317571
 20
7642.840674216521
 30
0.0
 11
10522.73256347949
 21
8138.704356160671
 31
0.0
 70
   161
 71
     5
 42
2795.889840462245
  3
INABA_S50G
100
AcDbAlignedDimension
 13
9119.991662271889
 23
9202.310710222283
 33
0.0
 14
11589.99166227189
 24
7892.310710222282
 34
0.0
  0
LINE
  5
1DBEE
330
747D
100
AcDbEntity
  8
センター
 48
5.0
100
AcDbLine
 10
10803.99166227189
 20
8837.310710222281
 30
0.0
 11
11093.99166227188
 21
8837.310710222281
 31
0.0
  0
LINE
  5
1DBF2
330
747D
100
AcDbEntity
  8
部品1
 48
50.0
100
AcDbLine
 10
10898.99166227188
 20
8202.310710222283
 30
0.0
 11
10998.99166227188
 21
8202.310710222283
 31
0.0
  0
LINE
  5
1DBF3
330
747D
100
AcDbEntity
  8
センター
 48
5.0
100
AcDbLine
 10
11093.99166227188
 20
8402.310710222282
 30
0.0
 11
10803.99166227189
 21
8402.310710222282
 31
0.0
  0
DIMENSION
  5
1DBF4
330
747D
100
AcDbEntity
  8
寸法
 48
50.0
100
AcDbDimension
  2
*D5
 10
10129.42093890865
 20
8547.310710222282
 30
0.0
 11
10029.42093890865
 21
8874.810710222284
 31
0.0
 70
    32
 71
     5
 42
655.0
  3
INABA_S50G
100
AcDbAlignedDimension
 13
10254.99166227189
 23
9202.310710222283
 33
0.0
 14
10209.99166227189
 24
8547.310710222282
 34
0.0
 50
90.0
100
AcDbRotatedDimension
  0
DIMENSION
  5
1DBF6
330
747D
100
AcDbEntity
  8
寸法
 48
50.0
100
AcDbDimension
  2
*D6
 10
10354.99166227189
 20
9834.57385995246
 30
0.0
 11
9737.491662271889
 21
9934.588623731986
 31
0.0
 70
    32
 71
     5
 42
1235.0
  3
INABA_S50G
100
AcDbAlignedDimension
 13
9119.991662271889
 23
9202.310710222283
 33
0.0
 14
10354.99166227189
 24
8692.310710222283
 34
0.0
100
AcDbRotatedDimension
  0
LINE
  5
1DBF7
330
747D
100
AcDbEntity
  8
部品1
 48
50.0
100
AcDbLine
 10
9239.991662271886
 20
9082.310710222285
 30
0.0
 11
9239.99166227189
 21
8012.310710222282
 31
0.0
  0
LINE
  5
1DBF8
330
747D
100
AcDbEntity
  8
想像線
 48
20.0
100
AcDbLine
 10
9069.991662271888
 20
9292.310710222283
 30
0.0
 11
9069.991662271888
 21
7762.310710222282
 31
0.0
  0
LINE
  5
1DBF9
330
747D
100
AcDbEntity
  8
部品1
 48
50.0
100
AcDbLine
 10
9119.991662271889
 20
9202.310710222283
 30
0.0
 11
9119.991662271889
 21
7892.31071022229
 31
0.0
  0
DIMENSION
  5
1DBFF
330
747D
100
AcDbEntity
  8
寸法
 48
50.0
100
AcDbDimension
  2
*D7
 10
9119.991662271889
 20
6596.518732163055
 30
0.0
 11
8652.550717389997
 21
6596.518732163055
 31
0.0
 70
   160
  1
(<>)
 71
     5
 42
50.0
  3
INABA_S50G
100
AcDbAlignedDimension
 13
9069.991662271888
 23
6908.051675918127
 33
0.0
 14
9119.991662271889
 24
7827.310710222285
 34
0.0
100
AcDbRotatedDimension
  0
LINE
  5
1DC03
330
747D
100
AcDbEntity
  8
センター
 48
5.0
100
AcDbLine
 10
9905.99166227189
 20
8837.310710222281
 30
0.0
 11
9615.991662271891
 21
8837.310710222281
 31
0.0
  0
LINE
  5
1DC04
330
747D
100
AcDbEntity
  8
センター
 48
5.0
100
AcDbLine
 10
9615.991662271891
 20
8402.310710222282
 30
0.0
 11
9905.99166227189
 21
8402.310710222282
 31
0.0
  0
LINE
  5
1DC05
330
747D
100
AcDbEntity
  8
センター
 48
5.0
100
AcDbLine
 10
9184.991662271889
 20
7812.310710222281
 30
0.0
 11
9184.991662271889
 21
8102.310710222281
 31
0.0
  0
DIMENSION
  5
1DC06
330
747D
100
AcDbEntity
  8
寸法
 48
50.0
100
AcDbDimension
  2
*D8
 10
8368.991662271888
 20
7892.310710222282
 30
0.0
 11
8268.991662271886
 21
8147.310710222283
 31
0.0
 70
    32
 71
     5
 42
510.0
  3
INABA_S50G
100
AcDbAlignedDimension
 13
9615.991662271891
 23
8402.310710222282
 33
0.0
 14
9119.991662271889
 24
7892.310710222282
 34
0.0
 50
90.0
100
AcDbRotatedDimension
1001
ACAD
1000
DSTYLE
1002
{
1070
    75
1070
     1
1070
   279
1070
     1
1002
}
  0
DIMENSION
  5
1DC07
330
747D
100
AcDbEntity
  8
寸法
 48
50.0
100
AcDbDimension
  2
*D9
 10
9184.991662271889
 20
6908.051675918127
 30
0.0
 11
8879.896871577711
 21
6908.051675918127
 31
0.0
 70
   160
 71
     5
 42
65.0
  3
INABA_S50G
100
AcDbAlignedDimension
 13
9119.991662271889
 23
7827.310710222285
 33
0.0
 14
9184.991662271889
 24
7812.310710222281
 34
0.0
100
AcDbRotatedDimension
  0
LINE
  5
1DC0A
330
747D
100
AcDbEntity
  8
センター
 48
5.0
100
AcDbLine
 10
9329.991662271888
 20
7957.310710222282
 30
0.0
 11
9039.991662271889
 21
7957.310710222282
 31
0.0
  0
DIMENSION
  5
1DC0C
330
747D
100
AcDbEntity
  8
寸法
 48
50.0
100
AcDbDimension
  2
*D10
 10
8368.991662271888
 20
8402.310710222282
 30
0.0
 11
8268.991662271886
 21
8619.810710222283
 31
0.0
 70
    32
 71
     5
 42
435.0
  3
INABA_S50G
100
AcDbAlignedDimension
 13
9615.991662271891
 23
8837.310710222281
 33
0.0
 14
9615.991662271891
 24
8402.310710222282
 34
0.0
 50
90.0
100
AcDbRotatedDimension
  0
LINE
  5
1DC0D
330
747D
100
AcDbEntity
  8
細線
 48
50.0
100
AcDbLine
 10
9119.991662271891
 20
8576.999699646622
 30
0.0
 11
9190.302672847552
 21
8647.310710222283
 31
0.0
  0
LINE
  5
1DC0E
330
747D
100
AcDbEntity
  8
細線
 48
50.0
100
AcDbLine
 10
9119.991662271891
 20
8621.900980251965
 30
0.0
 11
9145.401392242209
 21
8647.310710222285
 31
0.0
  0
LINE
  5
1DC0F
330
747D
100
AcDbEntity
  8
細線
 48
50.0
100
AcDbLine
 10
9119.991662271889
 20
8532.098419041272
 30
0.0
 11
9235.2039534529
 21
8647.310710222283
 31
0.0
  0
LINE
  5
1DC10
330
747D
100
AcDbEntity
  8
細線
 48
50.0
100
AcDbLine
 10
9119.991662271891
 20
8487.197138435929
 30
0.0
 11
9239.991662271888
 21
8607.19713843593
 31
0.0
  0
LINE
  5
1DC11
330
747D
100
AcDbEntity
  8
部品1
 48
50.0
100
AcDbLine
 10
9239.99166227189
 20
8447.310710222284
 30
0.0
 11
9119.991662271889
 21
8447.310710222282
 31
0.0
  0
LINE
  5
1DC12
330
747D
100
AcDbEntity
  8
細線
 48
50.0
100
AcDbLine
 10
9125.00651466359
 20
8447.310710222282
 30
0.0
 11
9239.991662271888
 21
8562.295857830582
 31
0.0
  0
LINE
  5
1DC13
330
747D
100
AcDbEntity
  8
細線
 48
50.0
100
AcDbLine
 10
9214.809075874283
 20
8447.310710222282
 30
0.0
 11
9239.99166227189
 21
8472.4932966199
 31
0.0
  0
LINE
  5
1DC14
330
747D
100
AcDbEntity
  8
細線
 48
50.0
100
AcDbLine
 10
9169.907795268937
 20
8447.310710222282
 30
0.0
 11
9239.991662271888
 21
8517.394577225234
 31
0.0
  0
LINE
  5
1DC15
330
747D
100
AcDbEntity
  8
部品1
 48
50.0
100
AcDbLine
 10
9239.991662271888
 20
8647.310710222283
 30
0.0
 11
9119.991662271889
 21
8647.310710222283
 31
0.0
  0
DIMENSION
  5
1DC16
330
747D
100
AcDbEntity
  8
寸法
 48
50.0
100
AcDbDimension
  2
*D11
 10
10129.42093890865
 20
7892.310710222282
 30
0.0
 11
10029.42093890865
 21
8219.810710222283
 31
0.0
 70
    32
 71
     5
 42
655.0
  3
INABA_S50G
100
AcDbAlignedDimension
 13
10209.99166227189
 23
8547.310710222282
 33
0.0
 14
10129.42093890865
 24
7892.310710222282
 34
0.0
 50
90.0
100
AcDbRotatedDimension
1001
ACAD
1000
DSTYLE
1002
{
1070
    75
1070
     1
1070
   279
1070
     1
1002
}
  0
LINE
  5
1DC21
330
747D
100
AcDbEntity
  8
センター
 48
5.0
100
AcDbLine
 10
10499.99166227189
 20
8547.310710222282
 30
0.0
 11
10209.99166227189
 21
8547.310710222282
 31
0.0
  0
LINE
  5
1DC25
330
747D
100
AcDbEntity
  8
センター
 48
5.0
100
AcDbLine
 10
9760.991662271891
 20
8547.310710222282
 30
0.0
 11
9760.991662271891
 21
8257.310710222283
 31
0.0
  0
LINE
  5
1DC2A
330
747D
100
AcDbEntity
  8
センター
 48
5.0
100
AcDbLine
 10
9760.991662271891
 20
8982.310710222282
 30
0.0
 11
9760.991662271891
 21
8692.310710222283
 31
0.0
  0
LINE
  5
1DC31
330
747D
100
AcDbEntity
  8
センター
 48
5.0
100
AcDbLine
 10
10948.99166227188
 20
8547.310710222282
 30
0.0
 11
10948.99166227188
 21
8257.310710222283
 31
0.0
  0
LEADER
  5
1DC32
330
747D
100
AcDbEntity
  8
寸法
 48
50.0
100
AcDbLeader
  3
INABA_S50G
 71
     0
 73
     0
 74
     0
 75
     1
 40
150.0
 41
231.9898538650463
 76
     3
 10
10391.84997951401
 20
8596.077998472472
 30
0.0
 10
10420.9013158895
 20
8863.66995432755
 30
0.0
 10
10545.9013158895
 20
8863.66995432755
 30
0.0
340
1DC33
  0
MTEXT
  5
1DC33
102
{ACAD_REACTORS
330
1DC32
102
}
330
747D
100
AcDbEntity
  8
細線
 62
     7
 48
50.0
100
AcDbMText
 10
10570.9013158895
 20
8963.669954327549
 30
0.0
 40
150.0
 41
0.0
 71
     4
 72
     1
  1
\A1;C.B
  7
STYLE1
 73
     1
 44
1.0
1001
ACAD
1000
MTEXTBEGIN
1070
    73
1070
     1
1070
    44
1040
1.0
1070
    74
1070
     0
1000
MTEXTEND
  0
LINE
  5
1DC34
330
747D
100
AcDbEntity
  8
センター
 48
5.0
100
AcDbLine
 10
10354.99166227189
 20
8692.310710222283
 30
0.0
 11
10354.99166227189
 21
8402.310710222282
 31
0.0
  0
LINE
  5
1DC37
330
747D
100
AcDbEntity
  8
センター
 48
5.0
100
AcDbLine
 10
10948.99166227188
 20
8982.310710222282
 30
0.0
 11
10948.99166227188
 21
8692.310710222283
 31
0.0
  0
LEADER
  5
1DC38
330
747D
100
AcDbEntity
  8
寸法
 48
50.0
100
AcDbLeader
  3
INABA_S50G
 73
     0
 75
     1
 40
150.0
 41
900.0000000000001
 76
     3
 10
10320.42101713238
 20
9202.310710222283
 30
0.0
 10
10172.2302904312
 20
9479.831459961026
 30
0.0
 10
10047.2302904312
 20
9479.831459961026
 30
0.0
340
1DC39
1001
ACAD
1000
DSTYLE
1002
{
1070
   341
1005
0
1070
    40
1040
1.0
1070
   343
1005
0
1070
   344
1005
0
1002
}
  0
MTEXT
  5
1DC39
102
{ACAD_REACTORS
330
1DC38
102
}
330
747D
100
AcDbEntity
  8
部品1
 62
     7
 48
50.0
100
AcDbMText
 10
10022.2302904312
 20
9579.831459961026
 30
0.0
 40
150.0
 41
0.0
 71
     6
 72
     1
  1
\A1;床下換気口
  7
STYLE1
 73
     1
 44
1.0
1001
ACAD
1000
MTEXTBEGIN
1070
    73
1070
     1
1070
    44
1040
1.0
1070
    74
1070
     0
1000
MTEXTEND
  0
DIMENSION
  5
1DC3B
330
747D
100
AcDbEntity
  8
寸法
 48
50.0
100
AcDbDimension
  2
*D12
 10
8368.991662271888
 20
8837.310710222281
 30
0.0
 11
8268.991662271886
 21
9019.810710222284
 31
0.0
 70
    32
 71
     5
 42
365.0
  3
INABA_S50G
100
AcDbAlignedDimension
 13
9119.991662271889
 23
9202.310710222283
 33
0.0
 14
9615.991662271891
 24
8837.310710222281
 34
0.0
 50
90.0
100
AcDbRotatedDimension
  0
LINE
  5
1DC3C
330
747D
100
AcDbEntity
  8
センター
 48
5.0
100
AcDbLine
 10
9184.991662271889
 20
9282.310710222281
 30
0.0
 11
9184.991662271889
 21
8992.310710222282
 31
0.0
  0
LINE
  5
1DC3D
330
747D
100
AcDbEntity
  8
センター
 48
5.0
100
AcDbLine
 10
9329.991662271888
 20
9137.310710222282
 30
0.0
 11
9039.991662271889
 21
9137.310710222282
 31
0.0
  0
LINE
  5
1DC3E
330
747D
100
AcDbEntity
  8
細線
 48
50.0
100
AcDbLine
 10
10272.96809650321
 20
9082.310710222285
 30
0.0
 11
10392.9680965032
 21
9202.310710222278
 31
0.0
  0
LINE
  5
1DC3F
330
747D
100
AcDbEntity
  8
細線
 48
50.0
100
AcDbLine
 10
10254.99166227189
 20
9109.235556596312
 30
0.0
 11
10348.06681589786
 21
9202.310710222283
 31
0.0
  0
LINE
  5
1DC40
330
747D
100
AcDbEntity
  8
細線
 48
50.0
100
AcDbLine
 10
10254.99166227189
 20
9154.136837201653
 30
0.0
 11
10303.16553529251
 21
9202.310710222278
 31
0.0
  0
LINE
  5
1DC42
330
747D
100
AcDbEntity
  8
細線
 48
50.0
100
AcDbLine
 10
10254.99166227189
 20
9199.038117807003
 30
0.0
 11
10258.26425468717
 21
9202.310710222278
 31
0.0
  0
LINE
  5
1DC43
330
747D
100
AcDbEntity
  8
部品1
 48
50.0
100
AcDbLine
 10
10254.99166227189
 20
9082.310710222285
 30
0.0
 11
10254.99166227189
 21
9202.310710222283
 31
0.0
  0
LINE
  5
1DC44
330
747D
100
AcDbEntity
  8
細線
 48
50.0
100
AcDbLine
 10
10407.67193831925
 20
9082.310710222285
 30
0.0
 11
10454.99166227189
 21
9129.630434174927
 31
0.0
  0
LINE
  5
1DC45
330
747D
100
AcDbEntity
  8
部品1
 48
50.0
100
AcDbLine
 10
10454.99166227189
 20
9082.310710222285
 30
0.0
 11
10454.99166227189
 21
9202.310710222283
 31
0.0
  0
LINE
  5
1DC46
330
747D
100
AcDbEntity
  8
細線
 48
50.0
100
AcDbLine
 10
10362.7706577139
 20
9082.310710222285
 30
0.0
 11
10454.99166227189
 21
9174.53171478027
 31
0.0
  0
LINE
  5
1DC47
330
747D
100
AcDbEntity
  8
細線
 48
50.0
100
AcDbLine
 10
10317.86937710856
 20
9082.310710222285
 30
0.0
 11
10437.86937710855
 21
9202.310710222283
 31
0.0
  0
DIMENSION
  5
1DC48
330
747D
100
AcDbEntity
  8
寸法
 48
50.0
100
AcDbDimension
  2
*D13
 10
12120.05988643595
 20
7957.310710222282
 30
0.0
 11
12020.05988643595
 21
8547.310710222284
 31
0.0
 70
    32
 71
     5
 42
1179.999999999999
  3
INABA_S50G
100
AcDbAlignedDimension
 13
11669.99166227189
 23
9137.310710222282
 33
0.0
 14
11669.99166227189
 24
7957.310710222282
 34
0.0
 50
90.0
100
AcDbRotatedDimension
1001
ACAD
1000
DSTYLE
1002
{
1070
    75
1070
     1
1070
   279
1070
     1
1002
}
  0
DIMENSION
  5
1DC49
330
747D
100
AcDbEntity
  8
寸法
 48
50.0
100
AcDbDimension
  2
*D14
 10
12440.99166227189
 20
9202.310710222281
 30
0.0
 11
12340.99166227188
 21
8547.310710222284
 31
0.0
 70
    32
 71
     5
 42
1309.999999999999
  3
INABA_S50G
100
AcDbAlignedDimension
 13
11589.99166227189
 23
7892.310710222282
 33
0.0
 14
11589.99166227189
 24
9202.310710222283
 34
0.0
 50
90.0
100
AcDbRotatedDimension
  0
LINE
  5
1DC4A
330
747D
100
AcDbEntity
  8
部品1
 48
50.0
100
AcDbLine
 10
11469.99166227189
 20
8012.31071022228
 30
0.0
 11
11469.99166227189
 21
9082.310710222285
 31
0.0
  0
LINE
  5
1DC4B
330
747D
100
AcDbEntity
  8
想像線
 48
20.0
100
AcDbLine
 10
11639.99166227189
 20
7762.310710222282
 30
0.0
 11
11639.99166227189
 21
9292.310710222279
 31
0.0
  0
LINE
  5
1DC4C
330
747D
100
AcDbEntity
  8
部品1
 48
50.0
100
AcDbLine
 10
11589.99166227189
 20
7892.310710222279
 30
0.0
 11
11589.99166227189
 21
9202.310710222283
 31
0.0
  0
DIMENSION
  5
1DC4E
330
747D
100
AcDbEntity
  8
寸法
 48
50.0
100
AcDbDimension
  2
*D15
 10
11639.99166227189
 20
6596.518732163055
 30
0.0
 11
11932.43260715378
 21
6596.518732163055
 31
0.0
 70
   160
  1
(<>)
 71
     5
 42
50.0
  3
INABA_S50G
100
AcDbAlignedDimension
 13
11589.99166227189
 23
7892.310710222279
 33
0.0
 14
11639.99166227189
 24
6908.051675918127
 34
0.0
100
AcDbRotatedDimension
  0
DIMENSION
  5
1DC4F
330
747D
100
AcDbEntity
  8
寸法
 48
50.0
100
AcDbDimension
  2
*D16
 10
12440.99166227189
 20
7762.310710222282
 30
0.0
 11
12440.99166227189
 21
7431.369765340395
 31
0.0
 70
   160
  1
(<>)
 71
     5
 42
130.0
  3
INABA_S50G
100
AcDbAlignedDimension
 13
11589.99166227189
 23
7892.310710222282
 33
0.0
 14
12120.05988643595
 24
7762.310710222282
 34
0.0
 50
90.0
100
AcDbRotatedDimension
  0
LINE
  5
1DC50
330
747D
100
AcDbEntity
  8
センター
 48
5.0
100
AcDbLine
 10
11524.99166227189
 20
7812.310710222281
 30
0.0
 11
11524.99166227189
 21
8102.310710222281
 31
0.0
  0
DIMENSION
  5
1DC51
330
747D
100
AcDbEntity
  8
寸法
 48
50.0
100
AcDbDimension
  2
*D17
 10
12120.05988643596
 20
7892.310710222282
 30
0.0
 11
12120.05988643595
 21
7652.215919528103
 31
0.0
 70
   160
 71
     5
 42
65.0
  3
INABA_S50G
100
AcDbAlignedDimension
 13
11669.99166227189
 23
7957.310710222282
 33
0.0
 14
11589.99166227189
 24
7892.310710222282
 34
0.0
 50
90.0
100
AcDbRotatedDimension
1001
ACAD
1000
DSTYLE
1002
{
1002
}
  0
DIMENSION
  5
1DC52
330
747D
100
AcDbEntity
  8
寸法
 48
50.0
100
AcDbDimension
  2
*D18
 10
11589.99166227189
 20
6908.051675918127
 30
0.0
 11
11830.08645296606
 21
6908.051675918127
 31
0.0
 70
   160
 71
     5
 42
65.0
  3
INABA_S50G
100
AcDbAlignedDimension
 13
11524.99166227189
 23
7812.310710222281
 33
0.0
 14
11589.99166227189
 24
7892.310710222282
 34
0.0
100
AcDbRotatedDimension
1001
ACAD
1000
DSTYLE
1002
{
1002
}
  0
LINE
  5
1DC53
330
747D
100
AcDbEntity
  8
センター
 48
5.0
100
AcDbLine
 10
11379.99166227189
 20
7957.310710222282
 30
0.0
 11
11669.99166227189
 21
7957.310710222282
 31
0.0
  0
LINE
  5
1DC56
330
747D
100
AcDbEntity
  8
細線
 48
50.0
100
AcDbLine
 10
11469.99166227189
 20
8601.900980251961
 30
0.0
 11
11515.40139224221
 21
8647.310710222285
 31
0.0
  0
LINE
  5
1DC57
330
747D
100
AcDbEntity
  8
細線
 48
50.0
100
AcDbLine
 10
11469.99166227189
 20
8556.99969964662
 30
0.0
 11
11560.30267284755
 21
8647.310710222283
 31
0.0
  0
LINE
  5
1DC58
330
747D
100
AcDbEntity
  8
細線
 48
50.0
100
AcDbLine
 10
11469.99166227189
 20
8512.09841904127
 30
0.0
 11
11589.99166227189
 21
8632.098419041271
 31
0.0
  0
LINE
  5
1DC59
330
747D
100
AcDbEntity
  8
細線
 48
50.0
100
AcDbLine
 10
11469.99166227189
 20
8467.197138435924
 30
0.0
 11
11589.99166227189
 21
8587.197138435929
 31
0.0
  0
LINE
  5
1DC5A
330
747D
100
AcDbEntity
  8
細線
 48
50.0
100
AcDbLine
 10
11584.80907587428
 20
8447.310710222282
 30
0.0
 11
11589.99166227189
 21
8452.49329661989
 31
0.0
  0
LINE
  5
1DC5B
330
747D
100
AcDbEntity
  8
部品1
 48
50.0
100
AcDbLine
 10
11589.99166227189
 20
8447.310710222282
 30
0.0
 11
11469.99166227189
 21
8447.310710222282
 31
0.0
  0
LINE
  5
1DC5C
330
747D
100
AcDbEntity
  8
細線
 48
50.0
100
AcDbLine
 10
11539.90779526893
 20
8447.310710222282
 30
0.0
 11
11589.99166227189
 21
8497.394577225234
 31
0.0
  0
LINE
  5
1DC5D
330
747D
100
AcDbEntity
  8
細線
 48
50.0
100
AcDbLine
 10
11495.00651466359
 20
8447.310710222282
 30
0.0
 11
11589.99166227189
 21
8542.29585783058
 31
0.0
  0
LINE
  5
1DC5E
330
747D
100
AcDbEntity
  8
部品1
 48
50.0
100
AcDbLine
 10
11589.99166227189
 20
8647.310710222283
 30
0.0
 11
11469.99166227189
 21
8647.310710222283
 31
0.0
  0
LEADER
  5
1DC5F
330
747D
100
AcDbEntity
  8
寸法
 48
50.0
100
AcDbLeader
  3
INABA_S50G
 71
     0
 73
     0
 74
     0
 75
     1
 40
150.0
 41
1417.499999999999
 76
     3
 10
11524.99166227189
 20
9137.310710222282
 30
0.0
 10
11816.94810963336
 20
9886.815946601975
 30
0.0
 10
11941.94810963336
 20
9886.815946601975
 30
0.0
340
1DC60
  0
MTEXT
  5
1DC60
102
{ACAD_REACTORS
330
1DC5F
102
}
330
747D
100
AcDbEntity
  8
細線
 62
     7
 48
50.0
100
AcDbMText
 10
11966.94810963336
 20
9986.815946601975
 30
0.0
 40
150.0
 41
0.0
 71
     4
 72
     1
  1
\A1;アンカーボルト芯
  7
STYLE1
 73
     1
 44
1.0
1001
ACAD
1000
MTEXTBEGIN
1070
    73
1070
     1
1070
    44
1040
1.0
1070
    74
1070
     0
1000
MTEXTEND
  0
DIMENSION
  5
1DC61
330
747D
100
AcDbEntity
  8
寸法
 48
50.0
100
AcDbDimension
  2
*D19
 10
12440.99166227189
 20
9292.310710222277
 30
0.0
 11
12440.99166227189
 21
9586.013729891242
 31
0.0
 70
   160
  1
(<>)
 71
     5
 42
89.99999999999635
  3
INABA_S50G
100
AcDbAlignedDimension
 13
11589.99166227189
 23
9202.310710222283
 33
0.0
 14
12120.05988643595
 24
9292.310710222279
 34
0.0
 50
90.0
100
AcDbRotatedDimension
  0
DIMENSION
  5
1DC62
330
747D
100
AcDbEntity
  8
寸法
 48
50.0
100
AcDbDimension
  2
*D20
 10
12120.05988643596
 20
9137.310710222282
 30
0.0
 11
12120.05988643595
 21
9442.405500916461
 31
0.0
 70
   160
 71
     5
 42
65.0
  3
INABA_S50G
100
AcDbAlignedDimension
 13
11589.99166227189
 23
9202.310710222283
 33
0.0
 14
11669.99166227189
 24
9137.310710222282
 34
0.0
 50
90.0
100
AcDbRotatedDimension
  0
LINE
  5
1DC63
330
747D
100
AcDbEntity
  8
センター
 48
5.0
100
AcDbLine
 10
11379.99166227189
 20
9137.310710222282
 30
0.0
 11
11669.99166227189
 21
9137.310710222282
 31
0.0
  0
LINE
  5
1DC64
330
747D
100
AcDbEntity
  8
センター
 48
5.0
100
AcDbLine
 10
11524.99166227189
 20
9282.310710222281
 30
0.0
 11
11524.99166227189
 21
8992.310710222282
 31
0.0
  0
DIMENSION
  5
1E0B9
330
747D
100
AcDbEntity
  8
寸法
 48
50.0
100
AcDbDimension
  2
*D21
 10
11469.99166227189
 20
8788.852412842166
 30
0.0
 11
11199.93260715377
 21
8788.852412842166
 31
0.0
 70
   160
 71
     5
 42
120.0
  3
INABA_S50G
100
AcDbAlignedDimension
 13
11589.99166227189
 23
8610.359196831444
 33
0.0
 14
11469.99166227189
 24
8788.852412842166
 34
0.0
100
AcDbRotatedDimension
1001
ACAD
1000
DSTYLE
1002
{
1070
   341
1005
0
1002
}
  0
TEXT
  5
1EBF5
330
747D
100
AcDbEntity
  8
文字
 62
     7
 48
50.0
100
AcDbText
 10
20384.03312196795
 20
-0.3660603313909974
 30
0.0
 40
1.0
  1
sy
  7
STYLE2
100
AcDbText
  0
TEXT
  5
1EE00
330
747D
100
AcDbEntity
  8
文字
 62
     7
 48
50.0
100
AcDbText
 10
10182.76697500863
 20
4445.589367896318
 30
0.0
 40
150.0
  1
重量物を入れる場合（根太部ブロック追加）
  7
STYLE1
100
AcDbText
  0
LINE
  5
1EE01
330
747D
100
AcDbEntity
  8
部品1
100
AcDbLine
 10
13761.3522965126
 20
4381.068806753568
 30
0.0
 11
9656.791319995884
 21
4381.068806753568
 31
0.0
  0
LINE
  5
1EE03
102
{ACAD_REACTORS
330
1EE25
102
}
330
747D
100
AcDbEntity
  8
細線
 48
10.0
100
AcDbLine
 10
9716.472173766511
 20
4665.103942728541
 30
0.0
 11
10116.47217376651
 21
4665.103942728541
 31
0.0
  0
LINE
  5
1EE04
102
{ACAD_REACTORS
330
1EE25
102
}
330
747D
100
AcDbEntity
  8
細線
 48
10.0
100
AcDbLine
 10
9716.472173766511
 20
4465.103942728541
 30
0.0
 11
10116.47217376651
 21
4465.103942728541
 31
0.0
  0
LINE
  5
1EE05
102
{ACAD_REACTORS
330
1EE25
102
}
330
747D
100
AcDbEntity
  8
細線
 48
10.0
100
AcDbLine
 10
9716.472173766511
 20
4465.103942728541
 30
0.0
 11
9716.472173766511
 21
4665.103942728541
 31
0.0
  0
LINE
  5
1EE06
102
{ACAD_REACTORS
330
1EE25
102
}
330
747D
100
AcDbEntity
  8
細線
 48
10.0
100
AcDbLine
 10
10116.47217376651
 20
4665.103942728541
 30
0.0
 11
10116.47217376651
 21
4465.103942728541
 31
0.0
  0
HATCH
  5
1EE25
330
747D
100
AcDbEntity
  8
部品1
100
AcDbHatch
 10
0.0
 20
0.0
 30
0.0
210
0.0
220
0.0
230
1.0
  2
DOTS
 70
     0
 71
     1
 91
        1
 92
        7
 72
     0
 73
     1
 93
        4
 10
9716.472173766511
 20
4665.103942728541
 10
9716.472173766511
 20
4465.103942728542
 10
10116.47217376651
 20
4465.103942728541
 10
10116.47217376651
 20
4665.103942728542
 97
        4
330
1EE03
330
1EE05
330
1EE04
330
1EE06
 75
     0
 76
     1
 52
0.0
 41
10.0
 77
     0
 78
     1
 53
0.0
 43
0.0
 44
372.2841371503964
 45
7.9375
 46
15.875
 79
     2
 49
0.0
 49
-15.875
 47
7.869631346746647
 98
        1
 10
9915.712137247865
 20
4582.007209995696
  0
LINE
  5
1EE57
330
747D
100
AcDbEntity
  8
想像線
 48
20.0
100
AcDbLine
 10
8420.991662271891
 20
7762.310710222282
 30
0.0
 11
10990.99166227189
 21
7762.310710222282
 31
0.0
  0
DIMENSION
  5
20311
330
747D
100
AcDbEntity
  8
寸法
 48
50.0
100
AcDbDimension
  2
*D26
 10
9617.503884003831
 20
8012.310710222275
 30
0.0
 11
9617.503884003829
 21
7554.204108504477
 31
0.0
 70
   160
 71
     5
 42
184.9999999999982
  3
INABA_S50G
100
AcDbAlignedDimension
 13
9768.991662271886
 23
7827.310710222277
 33
0.0
 14
9761.452333686493
 24
8012.310710222275
 34
0.0
 50
90.0
100
AcDbRotatedDimension
1001
ACAD
1000
DSTYLE
1002
{
1070
   341
1005
0
1002
}
  0
LINE
  5
20312
330
747D
100
AcDbEntity
  8
部品1
 48
50.0
100
AcDbLine
 10
9768.991662271886
 20
7827.310710222277
 30
0.0
 11
11589.99166227189
 21
7827.310710222275
 31
0.0
  0
LINE
  5
20313
330
747D
100
AcDbEntity
  8
想像線
 48
4.0
100
AcDbLine
 10
9768.991662271886
 20
7892.310710222274
 30
0.0
 11
11589.99166227189
 21
7892.310710222279
 31
0.0
  0
HATCH
  5
20314
330
747D
100
AcDbEntity
  8
寸法
 48
50.0
100
AcDbHatch
 10
0.0
 20
0.0
 30
0.0
210
0.0
220
0.0
230
1.0
  2
DOTS
 70
     0
 71
     0
 91
        2
 92
        7
 72
     0
 73
     1
 93
        4
 10
10254.99166227188
 20
7892.310710222274
 10
9768.991662271886
 20
7892.310710222274
 10
9768.991662271886
 20
7827.310710222277
 10
10254.99166227189
 20
7827.310710222277
 97
        0
 92
        7
 72
     0
 73
     1
 93
        4
 10
11589.99166227189
 20
7892.310710222277
 10
10454.99166227189
 20
7892.310710222277
 10
10454.99166227189
 20
7827.310710222275
 10
11589.99166227189
 20
7827.310710222275
 97
        0
 75
     0
 76
     1
 52
0.0
 41
9.0
 77
     0
 78
     1
 53
0.0
 43
0.0
 44
0.0
 45
7.143749999999999
 46
14.2875
 79
     2
 49
0.0
 49
-14.2875
 47
1.671868251657061
 98
        2
 10
10032.96422123062
 20
7891.408655523839
 10
10509.63446953677
 20
7857.971282324688
  0
LINE
  5
20315
330
747D
100
AcDbEntity
  8
部品1
 48
50.0
100
AcDbLine
 10
9768.991662271886
 20
7892.310710222274
 30
0.0
 11
9768.991662271886
 21
7827.310710222275
 31
0.0
  0
LINE
  5
20316
330
747D
100
AcDbEntity
  8
細線
 48
50.0
100
AcDbLine
 10
10362.67193831925
 20
7827.310710222275
 30
0.0
 11
10454.99166227189
 21
7919.630434174919
 31
0.0
  0
LINE
  5
20317
330
747D
100
AcDbEntity
  8
細線
 48
50.0
100
AcDbLine
 10
10407.57321892461
 20
7827.310710222275
 30
0.0
 11
10454.99166227189
 21
7874.729153569558
 31
0.0
  0
LINE
  5
20318
330
747D
100
AcDbEntity
  8
部品1
 48
50.0
100
AcDbLine
 10
11589.99166227189
 20
7827.310710222275
 30
0.0
 11
11589.99166227189
 21
7892.310710222274
 31
0.0
  0
LINE
  5
20319
330
747D
100
AcDbEntity
  8
細線
 48
50.0
100
AcDbLine
 10
10254.99166227189
 20
7944.136837201644
 30
0.0
 11
10323.16553529252
 21
8012.310710222273
 31
0.0
  0
LINE
  5
2031A
330
747D
100
AcDbEntity
  8
細線
 48
50.0
100
AcDbLine
 10
10254.99166227189
 20
7899.235556596305
 30
0.0
 11
10368.06681589786
 21
8012.310710222273
 31
0.0
  0
LINE
  5
2031B
330
747D
100
AcDbEntity
  8
細線
 48
50.0
100
AcDbLine
 10
10254.99166227189
 20
7854.334275990954
 30
0.0
 11
10412.9680965032
 21
8012.310710222271
 31
0.0
  0
LINE
  5
2031C
330
747D
100
AcDbEntity
  8
細線
 48
50.0
100
AcDbLine
 10
10272.86937710856
 20
7827.310710222277
 30
0.0
 11
10454.99166227189
 21
8009.432995385612
 31
0.0
  0
LINE
  5
2031D
330
747D
100
AcDbEntity
  8
細線
 48
50.0
100
AcDbLine
 10
10317.7706577139
 20
7827.310710222275
 30
0.0
 11
10454.99166227189
 21
7964.531714780263
 31
0.0
  0
LINE
  5
2031E
330
747D
100
AcDbEntity
  8
細線
 48
50.0
100
AcDbLine
 10
10254.99166227189
 20
7989.038117806995
 30
0.0
 11
10278.26425468719
 21
8012.310710222275
 31
0.0
  0
LINE
  5
2031F
330
747D
100
AcDbEntity
  8
部品1
 48
50.0
100
AcDbLine
 10
10254.99166227189
 20
7827.310710222277
 30
0.0
 11
10254.99166227189
 21
8012.310710222271
 31
0.0
  0
LINE
  5
20320
330
747D
100
AcDbEntity
  8
部品1
 48
50.0
100
AcDbLine
 10
10454.99166227189
 20
7827.310710222277
 30
0.0
 11
10454.99166227189
 21
8012.310710222271
 31
0.0
  0
TEXT
  5
20321
330
747D
100
AcDbEntity
  8
寸法
 48
50.0
100
AcDbText
 10
10504.43791327857
 20
7602.47977461638
 30
0.0
 40
120.0
  1
扉面
  7
STYLE1
100
AcDbText
  0
DIMENSION
  5
20322
330
747D
100
AcDbEntity
  8
寸法
 48
50.0
100
AcDbDimension
  2
*D25
 10
11589.99166227189
 20
7235.926398588349
 30
0.0
 11
10679.49166227189
 21
7335.941162367875
 31
0.0
 70
    32
 71
     5
 42
1821.000000000002
  3
INABA_S50G
100
AcDbAlignedDimension
 13
9768.991662271886
 23
7827.310710222277
 33
0.0
 14
11589.99166227189
 24
7827.310710222275
 34
0.0
100
AcDbRotatedDimension
1001
ACAD
1000
DSTYLE
1002
{
1070
   341
1005
0
1002
}
  0
LINE
  5
20362
330
747D
100
AcDbEntity
  8
部品1
 48
50.0
100
AcDbLine
 10
9119.991662271889
 20
7892.31071022229
 30
0.0
 11
9768.991662271886
 21
7892.310710222274
 31
0.0
  0
LINE
  5
20A7C
330
747D
100
AcDbEntity
  8
細線
 48
50.0
100
AcDbLine
 10
10421.60478687969
 20
1159.428656532334
 30
0.0
 11
10464.47665766867
 21
1319.428656532334
 31
0.0
  0
LINE
  5
20A7D
330
747D
100
AcDbEntity
  8
細線
 48
50.0
100
AcDbLine
 10
10329.42173421235
 20
1459.428656532334
 30
0.0
 11
10489.42173421236
 21
1619.428656532334
 31
0.0
  0
LINE
  5
20A7E
330
747D
100
AcDbEntity
  8
細線
 48
50.0
100
AcDbLine
 10
10396.77365512038
 20
1459.428656532334
 30
0.0
 11
10496.51672005894
 21
1559.171721470896
 31
0.0
  0
LINE
  5
20A7F
330
747D
100
AcDbEntity
  8
細線
 48
50.0
100
AcDbLine
 10
10363.09769466637
 20
1459.428656532334
 30
0.0
 11
10496.51672005894
 21
1592.847681924908
 31
0.0
  0
LINE
  5
20A80
330
747D
100
AcDbEntity
  8
部品1
 48
50.0
100
AcDbLine
 10
10316.51672005894
 20
1619.428656532334
 30
0.0
 11
10496.51672005894
 21
1619.428656532334
 31
0.0
  0
LINE
  5
20A81
330
747D
100
AcDbEntity
  8
部品1
 48
50.0
100
AcDbLine
 10
10596.51672005894
 20
1159.428656532334
 30
0.0
 11
9796.516720058939
 21
1159.428656532334
 31
0.0
  0
LINE
  5
20A82
330
747D
100
AcDbEntity
  8
部品1
 48
50.0
100
AcDbLine
 10
10596.51672005894
 20
1319.428656532334
 30
0.0
 11
9796.516720058939
 21
1319.428656532334
 31
0.0
  0
LINE
  5
20A83
330
747D
100
AcDbEntity
  8
Ｇ．Ｌ
 48
50.0
100
AcDbLine
 10
10316.51672005894
 20
1923.264763670257
 30
0.0
 11
10834.19159735013
 21
1923.264763670257
 31
0.0
  0
LEADER
  5
20A84
330
747D
100
AcDbEntity
  8
寸法
 48
50.0
100
AcDbLeader
  3
INABA_S50G
 71
     0
 73
     0
 74
     0
 75
     1
 40
100.0
 41
828.6243686707642
 76
     3
 10
10233.51672005893
 20
2299.428656532334
 30
0.0
 10
10381.21688552356
 20
2142.86494430219
 30
0.0
 10
10506.21688552356
 20
2142.86494430219
 30
0.0
340
20A85
  0
MTEXT
  5
20A85
102
{ACAD_REACTORS
330
20A84
102
}
330
747D
100
AcDbEntity
  8
寸法
 62
     7
 48
50.0
100
AcDbMText
 10
10531.21688552355
 20
2217.86494430219
 30
0.0
 40
100.0
 41
0.0
 71
     4
 72
     1
  1
アンカーボルト
  7
STYLE1
 73
     1
 44
1.0
1001
ACAD
1000
MTEXTBEGIN
1070
    73
1070
     1
1070
    44
1040
1.0
1070
    74
1070
     0
1000
MTEXTEND
  0
LEADER
  5
20A86
330
747D
100
AcDbEntity
  8
寸法
 48
50.0
100
AcDbLeader
  3
INABA_S50G
 71
     0
 73
     0
 74
     0
 75
     1
 40
101.39087296526
 41
170.0787401574803
 76
     3
 10
7309.092816534525
 20
1393.898936767546
 30
0.0
 10
7363.374367018645
 20
1617.243388394651
 30
0.0
 10
7488.374367018645
 20
1617.243388394651
 30
0.0
340
20A87
  0
MTEXT
  5
20A87
102
{ACAD_REACTORS
330
20A86
102
}
330
747D
100
AcDbEntity
  8
寸法
 62
     7
 48
50.0
100
AcDbMText
 10
7513.374367018645
 20
1692.938824877281
 30
0.0
 40
100.0
 41
0.0
 71
     4
 72
     1
  1
D10
  7
STYLE1
 73
     1
 44
1.0
1001
ACAD
1000
MTEXTBEGIN
1070
    73
1070
     1
1070
    44
1040
1.0
1070
    74
1070
     0
1000
MTEXTEND
  0
LEADER
  5
20A88
330
747D
100
AcDbEntity
  8
寸法
 48
50.0
100
AcDbLeader
  3
INABA_S50G
 71
     0
 73
     0
 74
     0
 75
     1
 40
101.39087296526
 41
174.1421356237309
 76
     3
 10
7149.092816534526
 20
1393.898936767546
 30
0.0
 10
7432.496156890826
 20
925.9951108871469
 30
0.0
 10
7557.496156890826
 20
925.9951108871469
 30
0.0
340
20A89
  0
MTEXT
  5
20A89
102
{ACAD_REACTORS
330
20A88
102
}
330
747D
100
AcDbEntity
  8
寸法
 62
     7
 48
50.0
100
AcDbMText
 10
7582.496156890826
 20
1001.690547369777
 30
0.0
 40
100.0
 41
0.0
 71
     4
 72
     1
  1
D13
  7
STYLE1
 73
     1
 44
1.0
1001
ACAD
1000
MTEXTBEGIN
1070
    73
1070
     1
1070
    44
1040
1.0
1070
    74
1070
     0
1000
MTEXTEND
  0
LINE
  5
20A8A
330
747D
100
AcDbEntity
  8
細線
 48
50.0
100
AcDbLine
 10
7445.081474774029
 20
1243.898936767546
 30
0.0
 11
7449.092816534525
 21
1247.910278528043
 31
0.0
  0
LINE
  5
20A8B
330
747D
100
AcDbEntity
  8
細線
 48
50.0
100
AcDbLine
 10
7349.349751595965
 20
1383.898936767546
 30
0.0
 11
7449.092816534525
 21
1483.642001706107
 31
0.0
  0
LINE
  5
20A8C
330
747D
100
AcDbEntity
  8
細線
 48
50.0
100
AcDbLine
 10
7315.673791141955
 20
1383.898936767546
 30
0.0
 11
7449.092816534525
 21
1517.317962160119
 31
0.0
  0
LINE
  5
20A8D
330
747D
100
AcDbEntity
  8
部品1
 48
50.0
100
AcDbLine
 10
7269.092816534525
 20
1543.898936767546
 30
0.0
 11
7449.092816534525
 21
1543.898936767546
 31
0.0
  0
LINE
  5
20A8E
330
747D
100
AcDbEntity
  8
細線
 48
50.0
100
AcDbLine
 10
7411.405514320016
 20
1243.898936767546
 30
0.0
 11
7449.092816534525
 21
1281.586238982051
 31
0.0
  0
DIMENSION
  5
20A8F
330
747D
100
AcDbEntity
  8
寸法
 48
50.0
100
AcDbDimension
  2
*D27
 10
7449.092816534527
 20
784.9468303116118
 30
0.0
 11
7149.092816534526
 21
784.9468303116118
 31
0.0
 70
   160
  1
300
 71
     5
 42
600.0
  3
INABA_S50GUP
100
AcDbAlignedDimension
 13
6849.092816534526
 23
1083.898936767545
 33
0.0
 14
7449.092816534527
 24
1083.898936767545
 34
0.0
100
AcDbRotatedDimension
1001
ACAD
1000
DSTYLE
1002
{
1070
   140
1040
100.0
1002
}
  0
LINE
  5
20A90
330
747D
100
AcDbEntity
  8
Ｇ．Ｌ
 48
50.0
100
AcDbLine
 10
7269.092816534525
 20
2023.898936767546
 30
0.0
 11
9297.201776146598
 21
2023.898936767547
 31
0.0
  0
LEADER
  5
20A91
330
747D
100
AcDbEntity
  8
寸法
 48
50.0
100
AcDbLeader
  3
INABA_S50G
 71
     0
 73
     0
 74
     0
 75
     1
 40
132.9441738241594
 41
490.0787401574802
 76
     3
 10
7353.086747687027
 20
1375.184543997639
 30
0.0
 10
7507.079782693603
 20
1138.818710388179
 30
0.0
 10
7632.079782693603
 20
1138.818710388179
 30
0.0
340
20A92
  0
MTEXT
  5
20A92
102
{ACAD_REACTORS
330
20A91
102
}
330
747D
100
AcDbEntity
  8
寸法
 62
     7
 48
50.0
100
AcDbMText
 10
7657.079782693603
 20
1230.290797300258
 30
0.0
 40
100.0
 41
0.0
 71
     4
 72
     1
  1
\A1;D10@300
  7
STYLE1
 73
     1
 44
1.0
1001
ACAD
1000
MTEXTBEGIN
1070
    73
1070
     1
1070
    44
1040
1.0
1070
    74
1070
     0
1000
MTEXTEND
  0
LINE
  5
20A93
330
747D
100
AcDbEntity
  8
部品1
 48
50.0
100
AcDbLine
 10
7549.092816534525
 20
1243.898936767546
 30
0.0
 11
6749.092816534525
 21
1243.898936767546
 31
0.0
  0
LINE
  5
20A94
330
747D
100
AcDbEntity
  8
部品1
 48
50.0
100
AcDbLine
 10
7549.092816534525
 20
1083.898936767545
 30
0.0
 11
6749.092816534525
 21
1083.898936767545
 31
0.0
  0
LINE
  5
20A95
330
747D
100
AcDbEntity
  8
細線
 48
50.0
100
AcDbLine
 10
7029.092816534525
 20
1636.133329424269
 30
0.0
 11
7159.092816534529
 21
1766.133329424266
 31
0.0
  0
LINE
  5
20A96
330
747D
100
AcDbEntity
  8
細線
 48
50.0
100
AcDbLine
 10
7029.092816534525
 20
1602.457368970259
 30
0.0
 11
7159.092816534531
 21
1732.457368970261
 31
0.0
  0
LINE
  5
20A97
330
747D
100
AcDbEntity
  8
細線
 48
50.0
100
AcDbLine
 10
7029.092816534525
 20
1669.809289878278
 30
0.0
 11
7159.092816534524
 21
1799.809289878279
 31
0.0
  0
DIMENSION
  5
20A98
330
747D
100
AcDbEntity
  8
寸法
 48
50.0
100
AcDbDimension
  2
*D28
 10
6174.623448735371
 20
1243.898936767546
 30
0.0
 11
6174.623448735371
 21
1820.693873365256
 31
0.0
 70
   160
  1
540
 71
     5
 42
1080.0
  3
INABA_S50GUP
100
AcDbAlignedDimension
 13
7029.092816534526
 23
2323.898936767546
 33
0.0
 14
6769.092816534528
 24
1243.898936767546
 34
0.0
 50
90.0
100
AcDbRotatedDimension
1001
ACAD
1000
DSTYLE
1002
{
1070
   140
1040
100.0
1002
}
  0
LINE
  5
20A99
330
747D
100
AcDbEntity
  8
部品1
 48
50.0
100
AcDbLine
 10
7159.092816534531
 20
1393.898936767546
 30
0.0
 11
7159.092816534524
 21
2149.216973510353
 31
0.0
  0
LINE
  5
20A9A
330
747D
100
AcDbEntity
  8
部品1
 48
50.0
100
AcDbLine
 10
7179.092816534532
 20
1393.898936767546
 30
0.0
 11
7179.092816534525
 21
2149.216973510353
 31
0.0
  0
LINE
  5
20A9B
330
747D
100
AcDbEntity
  8
部品1
 48
50.0
100
AcDbLine
 10
7269.092816534525
 20
2323.898936767546
 30
0.0
 11
7269.092816534525
 21
1543.898936767546
 31
0.0
  0
LINE
  5
20A9C
330
747D
100
AcDbEntity
  8
部品1
 48
50.0
100
AcDbLine
 10
7029.092816534525
 20
1543.898936767546
 30
0.0
 11
7029.092816534525
 21
2323.898936767546
 31
0.0
  0
LEADER
  5
20A9D
330
747D
100
AcDbEntity
  8
寸法
 48
50.0
100
AcDbLeader
  3
INABA_S50G
 71
     0
 73
     0
 75
     1
 40
101.39087296526
 41
170.0787401574803
 76
     3
 10
6988.838440681963
 20
1393.898936767546
 30
0.0
 10
6751.942155005815
 20
1048.92524698078
 30
0.0
 10
6626.942155005815
 20
1048.92524698078
 30
0.0
340
20A9E
  0
MTEXT
  5
20A9E
102
{ACAD_REACTORS
330
20A9D
102
}
330
747D
100
AcDbEntity
  8
寸法
 62
     7
 48
50.0
100
AcDbMText
 10
6601.942155005815
 20
1124.62068346341
 30
0.0
 40
100.0
 41
0.0
 71
     6
 72
     1
  1
D10
  7
STYLE1
 73
     1
 44
1.0
1001
ACAD
1000
MTEXTBEGIN
1070
    73
1070
     1
1070
    44
1040
1.0
1070
    74
1070
     0
1000
MTEXTEND
  0
DIMENSION
  5
20A9F
330
747D
100
AcDbEntity
  8
寸法
 48
50.0
100
AcDbDimension
  2
*D29
 10
6405.822472202918
 20
1243.898936767546
 30
0.0
 11
6405.822472202918
 21
1418.225531159689
 31
0.0
 70
   160
  1
150
 71
     5
 42
300.0
  3
INABA_S50GUP
100
AcDbAlignedDimension
 13
6869.092816534527
 23
1543.898936767546
 33
0.0
 14
6769.092816534528
 24
1243.898936767546
 34
0.0
 50
90.0
100
AcDbRotatedDimension
1001
ACAD
1000
DSTYLE
1002
{
1070
   140
1040
100.0
1002
}
  0
LINE
  5
20AA0
330
747D
100
AcDbEntity
  8
細線
 48
50.0
100
AcDbLine
 10
7283.609302944151
 20
1113.898936767546
 30
0.0
 11
7291.647778717084
 21
1083.898936767545
 31
0.0
  0
LINE
  5
20AA1
330
747D
100
AcDbEntity
  8
細線
 48
50.0
100
AcDbLine
 10
7275.570827171218
 20
1083.898936767545
 30
0.0
 11
7318.442697960197
 21
1243.898936767546
 31
0.0
  0
LINE
  5
20AA2
330
747D
100
AcDbEntity
  8
細線
 48
50.0
100
AcDbLine
 10
7382.219359128213
 20
1113.898936767546
 30
0.0
 11
7390.257834901146
 21
1083.898936767545
 31
0.0
  0
LINE
  5
20AA3
330
747D
100
AcDbEntity
  8
細線
 48
50.0
100
AcDbLine
 10
7086.389190576032
 20
1113.898936767546
 30
0.0
 11
7094.427666348966
 21
1083.898936767545
 31
0.0
  0
LINE
  5
20AA4
330
747D
100
AcDbEntity
  8
細線
 48
50.0
100
AcDbLine
 10
7184.99924676009
 20
1113.898936767546
 30
0.0
 11
7193.037722533023
 21
1083.898936767545
 31
0.0
  0
LINE
  5
20AA5
330
747D
100
AcDbEntity
  8
細線
 48
50.0
100
AcDbLine
 10
7078.350714803095
 20
1083.898936767545
 30
0.0
 11
7121.222585592073
 21
1243.898936767546
 31
0.0
  0
LINE
  5
20AA6
330
747D
100
AcDbEntity
  8
細線
 48
50.0
100
AcDbLine
 10
7176.960770987157
 20
1083.898936767545
 30
0.0
 11
7219.832641776135
 21
1243.898936767546
 31
0.0
  0
LINE
  5
20AA7
330
747D
100
AcDbEntity
  8
細線
 48
50.0
100
AcDbLine
 10
6889.16907820791
 20
1113.898936767546
 30
0.0
 11
6897.207553980843
 21
1083.898936767545
 31
0.0
  0
LINE
  5
20AA8
330
747D
100
AcDbEntity
  8
細線
 48
50.0
100
AcDbLine
 10
6987.779134391971
 20
1113.898936767546
 30
0.0
 11
6995.817610164904
 21
1083.898936767545
 31
0.0
  0
LINE
  5
20AA9
330
747D
100
AcDbEntity
  8
細線
 48
50.0
100
AcDbLine
 10
6881.130602434971
 20
1083.898936767545
 30
0.0
 11
6924.002473223954
 21
1243.898936767546
 31
0.0
  0
LINE
  5
20AAA
330
747D
100
AcDbEntity
  8
部品1
 48
50.0
100
AcDbLine
 10
6749.092816534525
 20
1083.898936767545
 30
0.0
 11
6749.092816534525
 21
1243.898936767546
 31
0.0
  0
LINE
  5
20AAB
330
747D
100
AcDbEntity
  8
細線
 48
50.0
100
AcDbLine
 10
6782.520546250911
 20
1083.898936767545
 30
0.0
 11
6825.392417039893
 21
1243.898936767546
 31
0.0
  0
LINE
  5
20AAC
330
747D
100
AcDbEntity
  8
細線
 48
50.0
100
AcDbLine
 10
6790.559022023848
 20
1113.898936767546
 30
0.0
 11
6798.597497796781
 21
1083.898936767545
 31
0.0
  0
LINE
  5
20AAD
330
747D
100
AcDbEntity
  8
細線
 48
50.0
100
AcDbLine
 10
6979.740658619033
 20
1083.898936767545
 30
0.0
 11
7022.612529408016
 21
1243.898936767546
 31
0.0
  0
LINE
  5
20AAE
330
747D
100
AcDbEntity
  8
細線
 48
50.0
100
AcDbLine
 10
7374.180883355278
 20
1083.898936767545
 30
0.0
 11
7417.052754144257
 21
1243.898936767546
 31
0.0
  0
LINE
  5
20AAF
330
747D
100
AcDbEntity
  8
細線
 48
50.0
100
AcDbLine
 10
7012.590147055867
 20
1383.898936767546
 30
0.0
 11
7159.092816534524
 21
1530.401606246205
 31
0.0
  0
LINE
  5
20AB0
330
747D
100
AcDbEntity
  8
細線
 48
50.0
100
AcDbLine
 10
6939.942067963887
 20
1243.898936767546
 30
0.0
 11
7059.942067963887
 21
1363.898936767546
 31
0.0
  0
LINE
  5
20AB1
330
747D
100
AcDbEntity
  8
部品1
 48
50.0
100
AcDbLine
 10
6919.092816534526
 20
1383.898936767546
 30
0.0
 11
7379.092816534525
 21
1383.898936767546
 31
0.0
  0
LINE
  5
20AB2
330
747D
100
AcDbEntity
  8
部品1
 48
50.0
100
AcDbLine
 10
6919.092816534526
 20
1363.898936767546
 30
0.0
 11
7379.092816534525
 21
1363.898936767546
 31
0.0
  0
CIRCLE
  5
20AB3
330
747D
100
AcDbEntity
  8
部品1
 48
50.0
100
AcDbCircle
 10
6989.092816534524
 20
1393.898936767546
 30
0.0
 40
10.0
  0
LINE
  5
20AB4
330
747D
100
AcDbEntity
  8
部品1
 48
50.0
100
AcDbLine
 10
6849.092816534525
 20
1243.898936767546
 30
0.0
 11
6849.092816534525
 21
1543.898936767546
 31
0.0
  0
LINE
  5
20AB5
330
747D
100
AcDbEntity
  8
細線
 48
50.0
100
AcDbLine
 10
6817.35394126696
 20
1213.898936767546
 30
0.0
 11
6809.315465494027
 21
1243.898936767546
 31
0.0
  0
LINE
  5
20AB6
330
747D
100
AcDbEntity
  8
細線
 48
50.0
100
AcDbLine
 10
7014.574053635083
 20
1213.898936767546
 30
0.0
 11
7006.535577862149
 21
1243.898936767546
 31
0.0
  0
LINE
  5
20AB7
330
747D
100
AcDbEntity
  8
部品1
 48
50.0
100
AcDbLine
 10
6919.092816534526
 20
1363.898936767546
 30
0.0
 11
6919.092816534526
 21
1383.898936767546
 31
0.0
  0
LINE
  5
20AB8
330
747D
100
AcDbEntity
  8
細線
 48
50.0
100
AcDbLine
 10
6915.963997451021
 20
1213.898936767546
 30
0.0
 11
6907.925521678087
 21
1243.898936767546
 31
0.0
  0
LINE
  5
20AB9
330
747D
100
AcDbEntity
  8
細線
 48
50.0
100
AcDbLine
 10
6906.26610750988
 20
1243.898936767546
 30
0.0
 11
7026.26610750988
 21
1363.898936767546
 31
0.0
  0
LINE
  5
20ABA
330
747D
100
AcDbEntity
  8
細線
 48
50.0
100
AcDbLine
 10
6872.590147055868
 20
1243.898936767546
 30
0.0
 11
6992.590147055867
 21
1363.898936767546
 31
0.0
  0
LINE
  5
20ABB
330
747D
100
AcDbEntity
  8
部品1
 48
50.0
100
AcDbLine
 10
6849.092816534525
 20
1543.898936767546
 30
0.0
 11
7029.092816534525
 21
1543.898936767546
 31
0.0
  0
LINE
  5
20ABC
330
747D
100
AcDbEntity
  8
細線
 48
50.0
100
AcDbLine
 10
6849.092816534528
 20
1422.45736897026
 30
0.0
 11
6970.534384331812
 21
1543.898936767546
 31
0.0
  0
LINE
  5
20ABD
330
747D
100
AcDbEntity
  8
細線
 48
50.0
100
AcDbLine
 10
6849.092816534525
 20
1456.13332942427
 30
0.0
 11
6936.858423877805
 21
1543.898936767546
 31
0.0
  0
LINE
  5
20ABE
330
747D
100
AcDbEntity
  8
細線
 48
50.0
100
AcDbLine
 10
6849.092816534525
 20
1489.80928987828
 30
0.0
 11
6903.182463423793
 21
1543.898936767546
 31
0.0
  0
CIRCLE
  5
20ABF
330
747D
100
AcDbEntity
  8
部品1
 48
50.0
100
AcDbCircle
 10
7309.092816534525
 20
1393.898936767546
 30
0.0
 40
10.0
  0
LINE
  5
20AC0
330
747D
100
AcDbEntity
  8
細線
 48
50.0
100
AcDbLine
 10
7281.997830687939
 20
1383.898936767546
 30
0.0
 11
7441.997830687945
 21
1543.898936767546
 31
0.0
  0
CIRCLE
  5
20AC1
330
747D
100
AcDbEntity
  8
部品1
 48
50.0
100
AcDbCircle
 10
7149.092816534525
 20
1393.898936767546
 30
0.0
 40
10.0
  0
LINE
  5
20AC2
330
747D
100
AcDbEntity
  8
細線
 48
50.0
100
AcDbLine
 10
7079.942067963886
 20
1383.898936767546
 30
0.0
 11
7119.092816534525
 21
1423.049685338183
 31
0.0
  0
LINE
  5
20AC3
330
747D
100
AcDbEntity
  8
部品1
 48
50.0
100
AcDbLine
 10
7119.092816534525
 20
1466.557955138949
 30
0.0
 11
7119.092816534525
 21
1393.898936767546
 31
0.0
  0
LINE
  5
20AC4
330
747D
100
AcDbEntity
  8
部品1
 48
50.0
100
AcDbLine
 10
7139.092816534525
 20
1466.557955138949
 30
0.0
 11
7139.092816534525
 21
1393.898936767546
 31
0.0
  0
LINE
  5
20AC5
330
747D
100
AcDbEntity
  8
細線
 48
50.0
100
AcDbLine
 10
7046.266107509881
 20
1383.898936767546
 30
0.0
 11
7119.092816534525
 21
1456.725645792194
 31
0.0
  0
LINE
  5
20AC6
330
747D
100
AcDbEntity
  8
細線
 48
50.0
100
AcDbLine
 10
7175.673791141955
 20
1243.898936767546
 30
0.0
 11
7295.673791141955
 21
1363.898936767546
 31
0.0
  0
LINE
  5
20AC7
330
747D
100
AcDbEntity
  8
細線
 48
50.0
100
AcDbLine
 10
7141.997830687943
 20
1243.898936767546
 30
0.0
 11
7261.997830687942
 21
1363.898936767546
 31
0.0
  0
LINE
  5
20AC8
330
747D
100
AcDbEntity
  8
細線
 48
50.0
100
AcDbLine
 10
7209.349751595961
 20
1243.898936767546
 30
0.0
 11
7329.350861402389
 21
1363.90004657397
 31
0.0
  0
ARC
  5
20AC9
330
747D
100
AcDbEntity
  8
部品1
 48
50.0
100
AcDbCircle
 10
7149.092816534525
 20
1393.898936767546
 30
0.0
 40
30.0
100
AcDbArc
 50
180.0
 51
199.4712206345204
  0
ARC
  5
20ACA
330
747D
100
AcDbEntity
  8
部品1
 48
50.0
100
AcDbCircle
 10
7149.092816534525
 20
1393.898936767546
 30
0.0
 40
30.0
100
AcDbArc
 50
340.5287793654796
 51
0.0
  0
LINE
  5
20ACB
330
747D
100
AcDbEntity
  8
細線
 48
50.0
100
AcDbLine
 10
7113.184109819143
 20
1213.898936767546
 30
0.0
 11
7105.145634046209
 21
1243.898936767546
 31
0.0
  0
LINE
  5
20ACC
330
747D
100
AcDbEntity
  8
細線
 48
50.0
100
AcDbLine
 10
7211.794166003205
 20
1213.898936767546
 30
0.0
 11
7203.755690230271
 21
1243.898936767546
 31
0.0
  0
LINE
  5
20ACD
330
747D
100
AcDbEntity
  8
部品1
 48
50.0
100
AcDbLine
 10
7379.092816534525
 20
1363.898936767546
 30
0.0
 11
7379.092816534525
 21
1383.898936767546
 31
0.0
  0
LINE
  5
20ACE
330
747D
100
AcDbEntity
  8
細線
 48
50.0
100
AcDbLine
 10
7310.404222187266
 20
1213.898936767546
 30
0.0
 11
7302.365746414333
 21
1243.898936767546
 31
0.0
  0
LINE
  5
20ACF
330
747D
100
AcDbEntity
  8
細線
 48
50.0
100
AcDbLine
 10
7409.014278371327
 20
1213.898936767546
 30
0.0
 11
7400.975802598394
 21
1243.898936767546
 31
0.0
  0
LINE
  5
20AD0
330
747D
100
AcDbEntity
  8
細線
 48
50.0
100
AcDbLine
 10
7179.092816534532
 20
1516.725645792197
 30
0.0
 11
7269.092816534525
 21
1606.725645792192
 31
0.0
  0
LINE
  5
20AD1
330
747D
100
AcDbEntity
  8
細線
 48
50.0
100
AcDbLine
 10
7179.092816534532
 20
1483.049685338186
 30
0.0
 11
7269.092816534525
 21
1573.049685338182
 31
0.0
  0
LINE
  5
20AD2
330
747D
100
AcDbEntity
  8
細線
 48
50.0
100
AcDbLine
 10
7179.092816534532
 20
1550.401606246207
 30
0.0
 11
7269.092816534525
 21
1640.401606246201
 31
0.0
  0
LINE
  5
20AD3
330
747D
100
AcDbEntity
  8
細線
 48
50.0
100
AcDbLine
 10
7128.925125881284
 20
1466.557955138949
 30
0.0
 11
7159.092816534531
 21
1496.725645792196
 31
0.0
  0
LINE
  5
20AD4
330
747D
100
AcDbEntity
  8
部品1
 48
50.0
100
AcDbLine
 10
7139.092816534525
 20
1466.557955138949
 30
0.0
 11
7119.092816534525
 21
1466.557955138949
 31
0.0
  0
LINE
  5
20AD5
330
747D
100
AcDbEntity
  8
細線
 48
50.0
100
AcDbLine
 10
7139.092816534528
 20
1443.049685338184
 30
0.0
 11
7159.092816534531
 21
1463.049685338186
 31
0.0
  0
DIMENSION
  5
20AD6
330
747D
100
AcDbEntity
  8
寸法
 48
50.0
100
AcDbDimension
  2
*D30
 10
7029.092816534526
 20
2723.898936767546
 30
0.0
 11
7149.092816534526
 21
2723.898936767546
 31
0.0
 70
   160
  1
120\P185
 71
     5
 42
240.0
  3
INABA_S50GUP
100
AcDbAlignedDimension
 13
7269.092816534527
 23
2323.898936767546
 33
0.0
 14
7029.092816534526
 24
2323.898936767546
 34
0.0
100
AcDbRotatedDimension
1001
ACAD
1000
DSTYLE
1002
{
1070
   140
1040
100.0
1002
}
  0
MTEXT
  5
20AD7
102
{ACAD_REACTORS
330
20ADD
102
}
330
747D
100
AcDbEntity
  8
寸法
 62
     7
 48
50.0
100
AcDbMText
 10
6814.882750646066
 20
1811.028068689629
 30
0.0
 40
100.0
 41
0.0
 71
     6
 72
     1
  1
\A1;D10@300
  7
STYLE1
 73
     1
 44
1.0
1001
ACAD
1000
MTEXTBEGIN
1070
    73
1070
     1
1070
    44
1040
1.0
1070
    74
1070
     0
1000
MTEXTEND
  0
LINE
  5
20AD8
330
747D
100
AcDbEntity
  8
部品1
 48
50.0
100
AcDbLine
 10
6657.674850447708
 20
2007.369061615969
 30
0.0
 11
6609.483351397179
 21
1923.898936767546
 31
0.0
  0
LINE
  5
20AD9
330
747D
100
AcDbEntity
  8
部品1
 48
50.0
100
AcDbLine
 10
6561.29185234665
 20
2007.369061615969
 30
0.0
 11
6657.674850447708
 21
2007.369061615969
 31
0.0
  0
LINE
  5
20ADA
330
747D
100
AcDbEntity
  8
Ｇ．Ｌ
 48
50.0
100
AcDbLine
 10
6511.417939243329
 20
1923.898936767546
 30
0.0
 11
7029.092816534525
 21
1923.898936767546
 31
0.0
  0
LEADER
  5
20ADB
330
747D
100
AcDbEntity
  8
寸法
 48
50.0
100
AcDbLeader
  3
INABA_S50G
 71
     0
 73
     0
 75
     1
 40
100.0
 41
585.0000000000001
 76
     3
 10
7129.092816534527
 20
2323.898936767546
 30
0.0
 10
7096.705560137535
 20
2514.544211770099
 30
0.0
 10
6971.705560137535
 20
2514.544211770099
 30
0.0
340
20ADC
  0
MTEXT
  5
20ADC
102
{ACAD_REACTORS
330
20ADB
102
}
330
747D
100
AcDbEntity
  8
寸法
 62
     7
 48
50.0
100
AcDbMText
 10
6946.705560137535
 20
2589.544211770099
 30
0.0
 40
100.0
 41
0.0
 71
     6
 72
     1
  1
\A1;金コテ押エ
  7
STYLE1
 73
     1
 44
1.0
1001
ACAD
1000
MTEXTBEGIN
1070
    73
1070
     1
1070
    44
1040
1.0
1070
    74
1070
     0
1000
MTEXTEND
  0
LEADER
  5
20ADD
330
747D
100
AcDbEntity
  8
寸法
 48
50.0
100
AcDbLeader
  3
INABA_S50G
 71
     0
 73
     0
 75
     1
 40
132.9441738241594
 41
490.0787401574802
 76
     3
 10
7167.650612072534
 20
2021.557955138949
 30
0.0
 10
6944.379981572521
 20
1750.340902606477
 30
0.0
 10
6819.379981572521
 20
1750.340902606477
 30
0.0
340
20AD7
213
-20.50276907354419
223
30.78492082892717
233
0.0
  0
LINE
  5
20ADE
330
747D
100
AcDbEntity
  8
部品1
 48
50.0
100
AcDbLine
 10
6561.29185234665
 20
2007.369061615969
 30
0.0
 11
6609.483351397179
 21
1923.898936767546
 31
0.0
  0
LINE
  5
20ADF
330
747D
100
AcDbEntity
  8
細線
 48
50.0
100
AcDbLine
 10
7029.092816534525
 20
2241.272736234408
 30
0.0
 11
7071.520157581952
 21
2283.700077281834
 31
0.0
  0
LINE
  5
20AE0
330
747D
100
AcDbEntity
  8
細線
 48
50.0
100
AcDbLine
 10
7164.70834466262
 20
2174.832501638441
 30
0.0
 11
7269.092816534525
 21
2279.216973510353
 31
0.0
  0
LEADER
  5
20AE1
330
747D
100
AcDbEntity
  8
寸法
 48
50.0
100
AcDbLeader
  3
INABA_S50G
 71
     0
 73
     0
 40
101.39087296526
 41
174.1421356237309
 76
     2
 10
7149.092816534526
 20
2149.216973510353
 30
0.0
 10
6914.510222130847
 20
2092.874515635173
 30
0.0
340
20AE2
  0
MTEXT
  5
20AE2
102
{ACAD_REACTORS
330
20AE1
102
}
330
747D
100
AcDbEntity
  8
寸法
 62
     7
 48
50.0
100
AcDbMText
 10
6889.510222130848
 20
2168.569952117803
 30
0.0
 40
100.0
 41
0.0
 71
     6
 72
     1
  1
D13
  7
STYLE1
 73
     1
 44
1.0
1001
ACAD
1000
MTEXTBEGIN
1070
    73
1070
     1
1070
    44
1040
1.0
1070
    74
1070
     0
1000
MTEXTEND
  0
LINE
  5
20AE3
330
747D
100
AcDbEntity
  8
細線
 48
50.0
100
AcDbLine
 10
7029.092816534525
 20
2005.541013056344
 30
0.0
 11
7119.092816534525
 21
2095.541013056343
 31
0.0
  0
LINE
  5
20AE4
330
747D
100
AcDbEntity
  8
細線
 48
50.0
100
AcDbLine
 10
7029.092816534525
 20
1971.865052602334
 30
0.0
 11
7133.785719071145
 21
2076.557955138949
 31
0.0
  0
LINE
  5
20AE5
330
747D
100
AcDbEntity
  8
細線
 48
50.0
100
AcDbLine
 10
7029.092816534525
 20
2039.216973510352
 30
0.0
 11
7119.092816534525
 21
2129.216973510352
 31
0.0
  0
TEXT
  5
20AE6
330
747D
100
AcDbEntity
  8
部品1
 48
50.0
100
AcDbText
 10
6659.766205817705
 20
1933.264763670257
 30
0.0
 40
100.0
  1
G.L
  7
STYLE1
100
AcDbText
  0
LINE
  5
20AE7
330
747D
100
AcDbEntity
  8
細線
 48
50.0
100
AcDbLine
 10
7179.092816534529
 20
1786.133329424268
 30
0.0
 11
7269.092816534525
 21
1876.133329424265
 31
0.0
  0
LINE
  5
20AE8
330
747D
100
AcDbEntity
  8
細線
 48
50.0
100
AcDbLine
 10
7179.092816534529
 20
1819.80928987828
 30
0.0
 11
7269.092816534525
 21
1909.80928987828
 31
0.0
  0
LINE
  5
20AE9
330
747D
100
AcDbEntity
  8
細線
 48
50.0
100
AcDbLine
 10
7179.092816534532
 20
1752.457368970261
 30
0.0
 11
7269.092816534525
 21
1842.457368970258
 31
0.0
  0
LINE
  5
20AEA
330
747D
100
AcDbEntity
  8
細線
 48
50.0
100
AcDbLine
 10
7179.092816534525
 20
2121.865052602334
 30
0.0
 11
7269.092816534525
 21
2211.865052602334
 31
0.0
  0
LINE
  5
20AEB
330
747D
100
AcDbEntity
  8
細線
 48
50.0
100
AcDbLine
 10
7178.533700617008
 20
2154.981897138821
 30
0.0
 11
7269.092816534525
 21
2245.541013056343
 31
0.0
  0
LINE
  5
20AEC
330
747D
100
AcDbEntity
  8
細線
 48
50.0
100
AcDbLine
 10
7139.092816534528
 20
2081.865052602334
 30
0.0
 11
7159.092816534524
 21
2101.865052602334
 31
0.0
  0
LINE
  5
20AED
330
747D
100
AcDbEntity
  8
部品1
 48
50.0
100
AcDbLine
 10
7139.092816534525
 20
2076.557955138949
 30
0.0
 11
7119.092816534525
 21
2076.557955138951
 31
0.0
  0
LINE
  5
20AEE
330
747D
100
AcDbEntity
  8
部品1
 48
50.0
100
AcDbLine
 10
7119.092816534525
 20
2076.557955138951
 30
0.0
 11
7119.092816534525
 21
2149.216973510355
 31
0.0
  0
LINE
  5
20AEF
330
747D
100
AcDbEntity
  8
細線
 48
50.0
100
AcDbLine
 10
7139.092816534525
 20
2115.541013056343
 30
0.0
 11
7159.092816534524
 21
2135.541013056343
 31
0.0
  0
LINE
  5
20AF0
330
747D
100
AcDbEntity
  8
部品1
 48
50.0
100
AcDbLine
 10
7139.092816534525
 20
2076.557955138949
 30
0.0
 11
7139.092816534525
 21
2149.216973510353
 31
0.0
  0
ARC
  5
20AF1
330
747D
100
AcDbEntity
  8
部品1
 48
50.0
100
AcDbCircle
 10
7149.092816534525
 20
2149.216973510353
 30
0.0
 40
30.0
100
AcDbArc
 50
0.0
 51
180.0
  0
CIRCLE
  5
20AF2
330
747D
100
AcDbEntity
  8
部品1
 48
50.0
100
AcDbCircle
 10
7149.092816534525
 20
2149.216973510353
 30
0.0
 40
10.0
  0
LINE
  5
20AF3
330
747D
100
AcDbEntity
  8
細線
 48
50.0
100
AcDbLine
 10
7029.092816534525
 20
2274.948696688418
 30
0.0
 11
7043.816329345834
 21
2289.672209499724
 31
0.0
  0
LINE
  5
20AF4
330
747D
100
AcDbEntity
  8
細線
100
AcDbLine
 10
7029.092816534525
 20
2293.526318411585
 30
0.0
 11
7066.631140040555
 21
2283.700077281834
 31
0.0
  0
LINE
  5
20AF5
330
747D
100
AcDbEntity
  8
部品1
 48
50.0
100
AcDbLine
 10
7029.092816534525
 20
2323.898936767546
 30
0.0
 11
7269.092816534525
 21
2323.898936767546
 31
0.0
  0
LINE
  5
20AF6
330
747D
100
AcDbEntity
  8
細線
100
AcDbLine
 10
7228.903726403962
 20
2290.25088578045
 30
0.0
 11
7269.092816534525
 21
2282.062332584446
 31
0.0
  0
LINE
  5
20AF7
330
747D
100
AcDbEntity
  8
細線
100
AcDbLine
 10
7102.691714787987
 20
2283.700077281834
 30
0.0
 11
7143.669669087299
 21
2290.25088578045
 31
0.0
  0
LINE
  5
20AF8
330
747D
100
AcDbEntity
  8
細線
100
AcDbLine
 10
7199.399657725734
 20
2291.888630477839
 30
0.0
 11
7228.903726403962
 21
2290.25088578045
 31
0.0
  0
LINE
  5
20AF9
330
747D
100
AcDbEntity
  8
細線
100
AcDbLine
 10
7143.669669087299
 20
2290.25088578045
 30
0.0
 11
7199.399657725734
 21
2291.888630477839
 31
0.0
  0
LINE
  5
20AFA
330
747D
100
AcDbEntity
  8
細線
100
AcDbLine
 10
7066.631140040555
 20
2283.700077281834
 30
0.0
 11
7102.691714787987
 21
2283.700077281834
 31
0.0
  0
LINE
  5
20AFB
330
747D
100
AcDbEntity
  8
部品1
 48
50.0
100
AcDbLine
 10
10226.51672005894
 20
1469.428656532334
 30
0.0
 11
10226.51672005894
 21
2127.772248704626
 31
0.0
  0
LINE
  5
20AFC
330
747D
100
AcDbEntity
  8
部品1
 48
50.0
100
AcDbLine
 10
10206.51672005894
 20
1469.428656532334
 30
0.0
 11
10206.51672005894
 21
2113.805630271221
 31
0.0
  0
LINE
  5
20AFD
330
747D
100
AcDbEntity
  8
部品1
 48
50.0
100
AcDbLine
 10
10076.51672005894
 20
1619.428656532334
 30
0.0
 11
10076.51672005894
 21
2399.428656532335
 31
0.0
  0
LINE
  5
20AFE
330
747D
100
AcDbEntity
  8
部品1
 48
50.0
100
AcDbLine
 10
10316.51672005894
 20
2399.428656532335
 30
0.0
 11
10316.51672005894
 21
1619.428656532334
 31
0.0
  0
LINE
  5
20AFF
330
747D
100
AcDbEntity
  8
細線
 48
50.0
100
AcDbLine
 10
10076.51672005894
 20
1677.987088735048
 30
0.0
 11
10206.51672005894
 21
1807.98708873505
 31
0.0
  0
LINE
  5
20B00
330
747D
100
AcDbEntity
  8
細線
 48
50.0
100
AcDbLine
 10
10226.51672005894
 20
1625.931326010995
 30
0.0
 11
10316.51672005894
 21
1715.93132601099
 31
0.0
  0
LINE
  5
20B01
330
747D
100
AcDbEntity
  8
細線
 48
50.0
100
AcDbLine
 10
7480.829415312273
 20
1113.898936767546
 30
0.0
 11
7488.867891085206
 21
1083.898936767545
 31
0.0
  0
LINE
  5
20B02
330
747D
100
AcDbEntity
  8
細線
 48
50.0
100
AcDbLine
 10
7472.79093953934
 20
1083.898936767545
 30
0.0
 11
7515.662810328318
 21
1243.898936767546
 31
0.0
  0
LINE
  5
20B03
330
747D
100
AcDbEntity
  8
部品1
 48
50.0
100
AcDbLine
 10
7549.092816534525
 20
1083.898936767545
 30
0.0
 11
7549.092816534525
 21
1243.898936767546
 31
0.0
  0
LINE
  5
20B04
330
747D
100
AcDbEntity
  8
部品1
 48
50.0
100
AcDbLine
 10
7449.092816534525
 20
1543.898936767546
 30
0.0
 11
7449.092816534525
 21
1243.898936767546
 31
0.0
  0
LINE
  5
20B05
330
747D
100
AcDbEntity
  8
細線
 48
50.0
100
AcDbLine
 10
7507.624334555389
 20
1213.898936767546
 30
0.0
 11
7499.585858782456
 21
1243.898936767546
 31
0.0
  0
LINE
  5
20B06
330
747D
100
AcDbEntity
  8
部品1
 48
50.0
100
AcDbLine
 10
9896.51672005894
 20
1619.428656532334
 30
0.0
 11
10076.51672005894
 21
1619.428656532334
 31
0.0
  0
LINE
  5
20B07
330
747D
100
AcDbEntity
  8
細線
 48
50.0
100
AcDbLine
 10
9953.690011034295
 20
1319.428656532334
 30
0.0
 11
10073.69001103429
 21
1439.428656532334
 31
0.0
  0
LINE
  5
20B08
330
747D
100
AcDbEntity
  8
細線
 48
50.0
100
AcDbLine
 10
9920.014050580281
 20
1319.428656532334
 30
0.0
 11
10040.01405058028
 21
1439.428656532334
 31
0.0
  0
LINE
  5
20B09
330
747D
100
AcDbEntity
  8
部品1
 48
50.0
100
AcDbLine
 10
9966.51672005894
 20
1439.428656532334
 30
0.0
 11
10426.51672005894
 21
1439.428656532334
 31
0.0
  0
LINE
  5
20B0A
330
747D
100
AcDbEntity
  8
部品1
 48
50.0
100
AcDbLine
 10
9966.51672005894
 20
1459.428656532334
 30
0.0
 11
10426.51672005894
 21
1459.428656532334
 31
0.0
  0
LINE
  5
20B0B
330
747D
100
AcDbEntity
  8
細線
 48
50.0
100
AcDbLine
 10
9987.365971488301
 20
1319.428656532334
 30
0.0
 11
10107.3659714883
 21
1439.428656532334
 31
0.0
  0
LINE
  5
20B0C
330
747D
100
AcDbEntity
  8
部品1
 48
50.0
100
AcDbLine
 10
9896.51672005894
 20
1319.428656532334
 30
0.0
 11
9896.51672005894
 21
1619.428656532334
 31
0.0
  0
LINE
  5
20B0D
330
747D
100
AcDbEntity
  8
部品1
 48
50.0
100
AcDbLine
 10
9796.516720058939
 20
1159.428656532334
 30
0.0
 11
9796.516720058939
 21
1319.428656532334
 31
0.0
  0
LINE
  5
20B0E
330
747D
100
AcDbEntity
  8
細線
 48
50.0
100
AcDbLine
 10
9928.554505959386
 20
1159.428656532334
 30
0.0
 11
9971.426376748368
 21
1319.428656532334
 31
0.0
  0
LINE
  5
20B0F
330
747D
100
AcDbEntity
  8
細線
 48
50.0
100
AcDbLine
 10
9829.944449775325
 20
1159.428656532334
 30
0.0
 11
9872.816320564307
 21
1319.428656532334
 31
0.0
  0
LINE
  5
20B10
330
747D
100
AcDbEntity
  8
細線
 48
50.0
100
AcDbLine
 10
9936.592981732324
 20
1189.428656532334
 30
0.0
 11
9944.631457505257
 21
1159.428656532334
 31
0.0
  0
LINE
  5
20B11
330
747D
100
AcDbEntity
  8
細線
 48
50.0
100
AcDbLine
 10
9837.982925548262
 20
1189.428656532334
 30
0.0
 11
9846.021401321195
 21
1159.428656532334
 31
0.0
  0
LINE
  5
20B12
330
747D
100
AcDbEntity
  8
細線
 48
50.0
100
AcDbLine
 10
9963.387900975435
 20
1289.428656532334
 30
0.0
 11
9955.349425202502
 21
1319.428656532334
 31
0.0
  0
LINE
  5
20B13
330
747D
100
AcDbEntity
  8
細線
 48
50.0
100
AcDbLine
 10
9864.777844791374
 20
1289.428656532334
 30
0.0
 11
9856.739369018441
 21
1319.428656532334
 31
0.0
  0
LINE
  5
20B14
330
747D
100
AcDbEntity
  8
部品1
 48
50.0
100
AcDbLine
 10
9966.51672005894
 20
1439.428656532334
 30
0.0
 11
9966.51672005894
 21
1459.428656532334
 31
0.0
  0
LINE
  5
20B15
330
747D
100
AcDbEntity
  8
細線
 48
50.0
100
AcDbLine
 10
9896.51672005894
 20
1565.339009643069
 30
0.0
 11
9950.606366948207
 21
1619.428656532334
 31
0.0
  0
LINE
  5
20B16
330
747D
100
AcDbEntity
  8
細線
 48
50.0
100
AcDbLine
 10
9896.51672005894
 20
1531.663049189059
 30
0.0
 11
9984.282327402219
 21
1619.428656532334
 31
0.0
  0
LINE
  5
20B17
330
747D
100
AcDbEntity
  8
細線
 48
50.0
100
AcDbLine
 10
9896.516720058942
 20
1497.987088735049
 30
0.0
 11
10017.95828785622
 21
1619.428656532334
 31
0.0
  0
LINE
  5
20B18
330
747D
100
AcDbEntity
  8
細線
 48
50.0
100
AcDbLine
 10
10189.42173421235
 20
1319.428656532334
 30
0.0
 11
10309.42173421235
 21
1439.428656532334
 31
0.0
  0
LINE
  5
20B19
330
747D
100
AcDbEntity
  8
細線
 48
50.0
100
AcDbLine
 10
10223.09769466637
 20
1319.428656532334
 30
0.0
 11
10343.09769466637
 21
1439.428656532334
 31
0.0
  0
LINE
  5
20B1A
330
747D
100
AcDbEntity
  8
細線
 48
50.0
100
AcDbLine
 10
10256.77365512037
 20
1319.428656532334
 30
0.0
 11
10376.7747649268
 21
1439.429766338759
 31
0.0
  0
LINE
  5
20B1B
330
747D
100
AcDbEntity
  8
細線
 48
50.0
100
AcDbLine
 10
10224.38467451157
 20
1159.428656532334
 30
0.0
 11
10267.25654530055
 21
1319.428656532334
 31
0.0
  0
LINE
  5
20B1C
330
747D
100
AcDbEntity
  8
細線
 48
50.0
100
AcDbLine
 10
10125.77461832751
 20
1159.428656532334
 30
0.0
 11
10168.64648911649
 21
1319.428656532334
 31
0.0
  0
LINE
  5
20B1D
330
747D
100
AcDbEntity
  8
細線
 48
50.0
100
AcDbLine
 10
10027.16456214344
 20
1159.428656532334
 30
0.0
 11
10070.03643293243
 21
1319.428656532334
 31
0.0
  0
LINE
  5
20B1E
330
747D
100
AcDbEntity
  8
細線
 48
50.0
100
AcDbLine
 10
10133.81309410044
 20
1189.428656532334
 30
0.0
 11
10141.85156987338
 21
1159.428656532334
 31
0.0
  0
LINE
  5
20B1F
330
747D
100
AcDbEntity
  8
細線
 48
50.0
100
AcDbLine
 10
10035.20303791638
 20
1189.428656532334
 30
0.0
 11
10043.24151368932
 21
1159.428656532334
 31
0.0
  0
LINE
  5
20B20
330
747D
100
AcDbEntity
  8
細線
 48
50.0
100
AcDbLine
 10
10160.60801334355
 20
1289.428656532334
 30
0.0
 11
10152.56953757062
 21
1319.428656532334
 31
0.0
  0
LINE
  5
20B21
330
747D
100
AcDbEntity
  8
細線
 48
50.0
100
AcDbLine
 10
10061.99795715949
 20
1289.428656532334
 30
0.0
 11
10053.95948138656
 21
1319.428656532334
 31
0.0
  0
LINE
  5
20B22
330
747D
100
AcDbEntity
  8
細線
 48
50.0
100
AcDbLine
 10
10322.99473069563
 20
1159.428656532334
 30
0.0
 11
10365.86660148461
 21
1319.428656532334
 31
0.0
  0
LINE
  5
20B23
330
747D
100
AcDbEntity
  8
細線
 48
50.0
100
AcDbLine
 10
10331.03320646856
 20
1189.428656532334
 30
0.0
 11
10339.0716822415
 21
1159.428656532334
 31
0.0
  0
LINE
  5
20B24
330
747D
100
AcDbEntity
  8
細線
 48
50.0
100
AcDbLine
 10
10232.4231502845
 20
1189.428656532334
 30
0.0
 11
10240.46162605743
 21
1159.428656532334
 31
0.0
  0
LINE
  5
20B25
330
747D
100
AcDbEntity
  8
細線
 48
50.0
100
AcDbLine
 10
10357.82812571168
 20
1289.428656532334
 30
0.0
 11
10349.78964993874
 21
1319.428656532334
 31
0.0
  0
LINE
  5
20B26
330
747D
100
AcDbEntity
  8
細線
 48
50.0
100
AcDbLine
 10
10259.21806952762
 20
1289.428656532334
 30
0.0
 11
10251.17959375468
 21
1319.428656532334
 31
0.0
  0
LINE
  5
20B27
330
747D
100
AcDbEntity
  8
部品1
 48
50.0
100
AcDbLine
 10
10166.51672005894
 20
1542.087674903738
 30
0.0
 11
10166.51672005894
 21
1469.428656532334
 31
0.0
  0
LINE
  5
20B28
330
747D
100
AcDbEntity
  8
部品1
 48
50.0
100
AcDbLine
 10
10186.51672005894
 20
1542.087674903738
 30
0.0
 11
10186.51672005894
 21
1469.428656532334
 31
0.0
  0
LINE
  5
20B29
330
747D
100
AcDbEntity
  8
細線
 48
50.0
100
AcDbLine
 10
10093.69001103429
 20
1459.428656532334
 30
0.0
 11
10166.51672005894
 21
1532.255365556983
 31
0.0
  0
LINE
  5
20B2A
330
747D
100
AcDbEntity
  8
細線
 48
50.0
100
AcDbLine
 10
10127.3659714883
 20
1459.428656532334
 30
0.0
 11
10166.51672005894
 21
1498.579405102971
 31
0.0
  0
CIRCLE
  5
20B2B
330
747D
100
AcDbEntity
  8
部品1
 48
50.0
100
AcDbCircle
 10
10036.51672005894
 20
1469.428656532334
 30
0.0
 40
10.0
  0
ARC
  5
20B2C
330
747D
100
AcDbEntity
  8
部品1
 48
50.0
100
AcDbCircle
 10
10196.51672005894
 20
1469.428656532334
 30
0.0
 40
30.0
100
AcDbArc
 50
180.0
 51
199.4712206345204
  0
LINE
  5
20B2D
330
747D
100
AcDbEntity
  8
部品1
 48
50.0
100
AcDbLine
 10
10186.51672005894
 20
1542.087674903738
 30
0.0
 11
10166.51672005894
 21
1542.087674903738
 31
0.0
  0
CIRCLE
  5
20B2E
330
747D
100
AcDbEntity
  8
部品1
 48
50.0
100
AcDbCircle
 10
10196.51672005894
 20
1469.428656532334
 30
0.0
 40
10.0
  0
LINE
  5
20B2F
330
747D
100
AcDbEntity
  8
細線
 48
50.0
100
AcDbLine
 10
10060.01405058028
 20
1459.428656532334
 30
0.0
 11
10206.51672005894
 21
1605.931326010994
 31
0.0
  0
LINE
  5
20B30
330
747D
100
AcDbEntity
  8
細線
 48
50.0
100
AcDbLine
 10
10186.51672005894
 20
1518.579405102973
 30
0.0
 11
10206.51672005894
 21
1538.579405102975
 31
0.0
  0
LINE
  5
20B31
330
747D
100
AcDbEntity
  8
細線
 48
50.0
100
AcDbLine
 10
10176.3490294057
 20
1542.087674903738
 30
0.0
 11
10206.51672005894
 21
1572.255365556984
 31
0.0
  0
LINE
  5
20B32
330
747D
100
AcDbEntity
  8
部品1
 48
50.0
100
AcDbLine
 10
10426.51672005894
 20
1439.428656532334
 30
0.0
 11
10426.51672005894
 21
1459.428656532334
 31
0.0
  0
CIRCLE
  5
20B33
330
747D
100
AcDbEntity
  8
部品1
 48
50.0
100
AcDbCircle
 10
10356.51672005894
 20
1469.428656532334
 30
0.0
 40
10.0
  0
ARC
  5
20B34
330
747D
100
AcDbEntity
  8
部品1
 48
50.0
100
AcDbCircle
 10
10196.51672005894
 20
1469.428656532334
 30
0.0
 40
30.0
100
AcDbArc
 50
340.5287793654796
 51
0.0
  0
LINE
  5
20B35
330
747D
100
AcDbEntity
  8
細線
 48
50.0
100
AcDbLine
 10
10226.51672005894
 20
1592.255365556986
 30
0.0
 11
10316.51672005894
 21
1682.255365556981
 31
0.0
  0
LINE
  5
20B36
330
747D
100
AcDbEntity
  8
細線
 48
50.0
100
AcDbLine
 10
10226.51672005894
 20
1558.579405102975
 30
0.0
 11
10316.51672005894
 21
1648.579405102972
 31
0.0
  0
LINE
  5
20B37
330
747D
100
AcDbEntity
  8
部品1
100
AcDbLine
 10
7845.261489413501
 20
1713.89893676755
 30
0.0
 11
9116.661382051161
 21
1713.89893676755
 31
0.0
  0
LINE
  5
20B38
330
747D
100
AcDbEntity
  8
部品1
100
AcDbLine
 10
7845.261489413501
 20
1873.898936767547
 30
0.0
 11
9116.661382051161
 21
1873.898936767547
 31
0.0
  0
LINE
  5
20B39
330
747D
100
AcDbEntity
  8
細線
 48
50.0
100
AcDbLine
 10
9044.540023161394
 20
1713.898936767547
 30
0.0
 11
9087.411893950376
 21
1873.898936767547
 31
0.0
  0
LINE
  5
20B3A
330
747D
100
AcDbEntity
  8
部品1
 48
50.0
100
AcDbLine
 10
8870.961435732331
 20
2323.898936767546
 30
0.0
 11
8090.96143573233
 21
2323.898936767546
 31
0.0
  0
LINE
  5
20B3B
330
747D
100
AcDbEntity
  8
細線
 48
50.0
100
AcDbLine
 10
8255.659573688911
 20
1713.898936767547
 30
0.0
 11
8298.531444477893
 21
1873.898936767547
 31
0.0
  0
LINE
  5
20B3C
330
747D
100
AcDbEntity
  8
細線
 48
50.0
100
AcDbLine
 10
8263.698049461847
 20
1743.898936767546
 30
0.0
 11
8271.73652523478
 21
1713.898936767547
 31
0.0
  0
LINE
  5
20B3D
330
747D
100
AcDbEntity
  8
細線
100
AcDbLine
 10
8175.774030053757
 20
2023.898936767547
 30
0.0
 11
8475.774030053754
 21
2323.898936767546
 31
0.0
  0
LINE
  5
20B3E
330
747D
100
AcDbEntity
  8
細線
100
AcDbLine
 10
8135.774030053756
 20
2023.898936767546
 30
0.0
 11
8435.774030053755
 21
2323.898936767546
 31
0.0
  0
LINE
  5
20B3F
330
747D
100
AcDbEntity
  8
部品1
 48
50.0
100
AcDbLine
 10
8090.96143573233
 20
2323.898936767546
 30
0.0
 11
8090.96143573233
 21
2023.898936767547
 31
0.0
  0
LINE
  5
20B40
330
747D
100
AcDbEntity
  8
細線
100
AcDbLine
 10
8090.96143573233
 20
2259.086342446122
 30
0.0
 11
8155.774030053756
 21
2323.898936767546
 31
0.0
  0
LINE
  5
20B41
330
747D
100
AcDbEntity
  8
部品1
100
AcDbLine
 10
7845.261489413501
 20
1873.898936767547
 30
0.0
 11
7845.261489413501
 21
1713.89893676755
 31
0.0
  0
LINE
  5
20B42
330
747D
100
AcDbEntity
  8
部品1
100
AcDbLine
 10
7945.261489413501
 20
2023.898936767547
 30
0.0
 11
7945.261489413502
 21
1873.898936767547
 31
0.0
  0
LINE
  5
20B43
330
747D
100
AcDbEntity
  8
細線
100
AcDbLine
 10
8157.702160201163
 20
1873.898936767547
 30
0.0
 11
8007.702160201164
 21
2023.898936767547
 31
0.0
  0
LINE
  5
20B44
330
747D
100
AcDbEntity
  8
細線
100
AcDbLine
 10
8197.702160201171
 20
1873.898936767547
 30
0.0
 11
8047.70216020116
 21
2023.898936767546
 31
0.0
  0
LINE
  5
20B45
330
747D
100
AcDbEntity
  8
細線
100
AcDbLine
 10
8117.702160201153
 20
1873.898936767547
 30
0.0
 11
7967.702160201145
 21
2023.898936767547
 31
0.0
  0
LINE
  5
20B46
330
747D
100
AcDbEntity
  8
細線
 48
50.0
100
AcDbLine
 10
8058.439461320793
 20
1713.898936767547
 30
0.0
 11
8101.311332109771
 21
1873.898936767547
 31
0.0
  0
LINE
  5
20B47
330
747D
100
AcDbEntity
  8
細線
 48
50.0
100
AcDbLine
 10
7994.662800152771
 20
1843.898936767547
 30
0.0
 11
7986.624324379838
 21
1873.898936767547
 31
0.0
  0
LINE
  5
20B48
330
747D
100
AcDbEntity
  8
細線
 48
50.0
100
AcDbLine
 10
7967.867880909659
 20
1743.898936767546
 30
0.0
 11
7975.906356682592
 21
1713.898936767547
 31
0.0
  0
LINE
  5
20B49
330
747D
100
AcDbEntity
  8
細線
 48
50.0
100
AcDbLine
 10
7959.829405136726
 20
1713.898936767547
 30
0.0
 11
8002.701275925705
 21
1873.898936767547
 31
0.0
  0
LINE
  5
20B4A
330
747D
100
AcDbEntity
  8
細線
 48
50.0
100
AcDbLine
 10
7896.052743968714
 20
1843.898936767547
 30
0.0
 11
7888.014268195781
 21
1873.898936767547
 31
0.0
  0
LINE
  5
20B4B
330
747D
100
AcDbEntity
  8
細線
 48
50.0
100
AcDbLine
 10
7869.257824725602
 20
1743.898936767546
 30
0.0
 11
7877.296300498535
 21
1713.898936767547
 31
0.0
  0
LINE
  5
20B4C
330
747D
100
AcDbEntity
  8
細線
 48
50.0
100
AcDbLine
 10
7861.219348952669
 20
1713.898936767547
 30
0.0
 11
7904.091219741648
 21
1873.898936767547
 31
0.0
  0
LINE
  5
20B4D
330
747D
100
AcDbEntity
  8
細線
 48
50.0
100
AcDbLine
 10
8157.04951750485
 20
1713.898936767547
 30
0.0
 11
8199.92138829383
 21
1873.898936767547
 31
0.0
  0
LINE
  5
20B4E
330
747D
100
AcDbEntity
  8
細線
 48
50.0
100
AcDbLine
 10
8165.087993277783
 20
1743.898936767546
 30
0.0
 11
8173.126469050716
 21
1713.898936767547
 31
0.0
  0
LINE
  5
20B4F
330
747D
100
AcDbEntity
  8
細線
 48
50.0
100
AcDbLine
 10
8191.882912520894
 20
1843.898936767547
 30
0.0
 11
8183.844436747961
 21
1873.898936767547
 31
0.0
  0
LINE
  5
20B50
330
747D
100
AcDbEntity
  8
細線
 48
50.0
100
AcDbLine
 10
8066.477937093726
 20
1743.898936767546
 30
0.0
 11
8074.516412866659
 21
1713.898936767547
 31
0.0
  0
LINE
  5
20B51
330
747D
100
AcDbEntity
  8
細線
 48
50.0
100
AcDbLine
 10
8093.272856336836
 20
1843.898936767547
 30
0.0
 11
8085.234380563903
 21
1873.898936767547
 31
0.0
  0
LINE
  5
20B52
330
747D
100
AcDbEntity
  8
細線
100
AcDbLine
 10
8090.96143573233
 20
2299.086342446122
 30
0.0
 11
8115.774030053755
 21
2323.898936767546
 31
0.0
  0
LEADER
  5
20B53
330
747D
100
AcDbEntity
  8
寸法
 48
50.0
100
AcDbLeader
  3
INABA_S50G
 71
     0
 73
     0
 74
     0
 75
     1
 40
100.0
 41
154.6599025766975
 76
     3
 10
8533.780397643345
 20
2259.206667353946
 30
0.0
 10
8588.061948127466
 20
2483.246555463682
 30
0.0
 10
8713.061948127466
 20
2483.246555463682
 30
0.0
340
20B54
  0
MTEXT
  5
20B54
102
{ACAD_REACTORS
330
20B53
102
}
330
747D
100
AcDbEntity
  8
寸法
 62
     7
 48
50.0
100
AcDbMText
 10
8738.061948127464
 20
2558.246555463681
 30
0.0
 40
100.0
 41
0.0
 71
     4
 72
     1
  1
C.B
  7
STYLE1
 73
     1
 44
1.0
1001
ACAD
1000
MTEXTBEGIN
1070
    73
1070
     1
1070
    44
1040
1.0
1070
    74
1070
     0
1000
MTEXTEND
  0
LINE
  5
20B55
330
747D
100
AcDbEntity
  8
部品1
 48
50.0
100
AcDbLine
 10
8870.961435732331
 20
2023.898936767547
 30
0.0
 11
8870.961435732331
 21
2323.898936767546
 31
0.0
  0
LINE
  5
20B56
330
747D
100
AcDbEntity
  8
細線
100
AcDbLine
 10
8495.774030053757
 20
2023.898936767547
 30
0.0
 11
8795.774030053754
 21
2323.898936767546
 31
0.0
  0
LINE
  5
20B57
330
747D
100
AcDbEntity
  8
細線
100
AcDbLine
 10
8455.774030053758
 20
2023.898936767547
 30
0.0
 11
8755.774030053755
 21
2323.898936767546
 31
0.0
  0
LINE
  5
20B58
330
747D
100
AcDbEntity
  8
細線
100
AcDbLine
 10
8757.702160201146
 20
1873.898936767547
 30
0.0
 11
8607.702160201156
 21
2023.898936767547
 31
0.0
  0
LINE
  5
20B59
330
747D
100
AcDbEntity
  8
細線
100
AcDbLine
 10
8797.702160201161
 20
1873.898936767547
 30
0.0
 11
8647.702160201156
 21
2023.898936767547
 31
0.0
  0
LINE
  5
20B5A
330
747D
100
AcDbEntity
  8
細線
 48
50.0
100
AcDbLine
 10
8650.09979842515
 20
1713.898936767547
 30
0.0
 11
8692.971669214129
 21
1873.898936767547
 31
0.0
  0
LINE
  5
20B5B
330
747D
100
AcDbEntity
  8
細線
 48
50.0
100
AcDbLine
 10
8684.933193441196
 20
1843.898936767547
 30
0.0
 11
8676.894717668263
 21
1873.898936767547
 31
0.0
  0
LINE
  5
20B5C
330
747D
100
AcDbEntity
  8
細線
100
AcDbLine
 10
8517.702160201167
 20
1873.898936767547
 30
0.0
 11
8367.702160201154
 21
2023.898936767547
 31
0.0
  0
LINE
  5
20B5D
330
747D
100
AcDbEntity
  8
細線
100
AcDbLine
 10
8437.702160201153
 20
1873.898936767547
 30
0.0
 11
8287.702160201153
 21
2023.898936767547
 31
0.0
  0
LINE
  5
20B5E
330
747D
100
AcDbEntity
  8
細線
100
AcDbLine
 10
8477.702160201166
 20
1873.898936767547
 30
0.0
 11
8327.702160201152
 21
2023.898936767547
 31
0.0
  0
LINE
  5
20B5F
330
747D
100
AcDbEntity
  8
細線
 48
50.0
100
AcDbLine
 10
8452.879686057029
 20
1713.898936767547
 30
0.0
 11
8495.751556846007
 21
1873.898936767547
 31
0.0
  0
LINE
  5
20B60
330
747D
100
AcDbEntity
  8
細線
 48
50.0
100
AcDbLine
 10
8354.269629872971
 20
1713.898936767547
 30
0.0
 11
8397.14150066195
 21
1873.898936767547
 31
0.0
  0
LINE
  5
20B61
330
747D
100
AcDbEntity
  8
細線
 48
50.0
100
AcDbLine
 10
8362.308105645906
 20
1743.898936767546
 30
0.0
 11
8370.346581418839
 21
1713.898936767547
 31
0.0
  0
LINE
  5
20B62
330
747D
100
AcDbEntity
  8
細線
 48
50.0
100
AcDbLine
 10
8389.103024889015
 20
1843.898936767547
 30
0.0
 11
8381.064549116082
 21
1873.898936767547
 31
0.0
  0
LINE
  5
20B63
330
747D
100
AcDbEntity
  8
細線
 48
50.0
100
AcDbLine
 10
8290.492968704958
 20
1843.898936767547
 30
0.0
 11
8282.454492932025
 21
1873.898936767547
 31
0.0
  0
LINE
  5
20B64
330
747D
100
AcDbEntity
  8
細線
 48
50.0
100
AcDbLine
 10
8460.918161829964
 20
1743.898936767546
 30
0.0
 11
8468.956637602897
 21
1713.898936767547
 31
0.0
  0
LINE
  5
20B65
330
747D
100
AcDbEntity
  8
細線
 48
50.0
100
AcDbLine
 10
8551.489742241091
 20
1713.898936767547
 30
0.0
 11
8594.361613030072
 21
1873.898936767547
 31
0.0
  0
LINE
  5
20B66
330
747D
100
AcDbEntity
  8
細線
 48
50.0
100
AcDbLine
 10
8559.528218014024
 20
1743.898936767546
 30
0.0
 11
8567.566693786957
 21
1713.898936767547
 31
0.0
  0
LINE
  5
20B67
330
747D
100
AcDbEntity
  8
細線
 48
50.0
100
AcDbLine
 10
8658.138274198085
 20
1743.898936767546
 30
0.0
 11
8666.17674997102
 21
1713.898936767547
 31
0.0
  0
LINE
  5
20B68
330
747D
100
AcDbEntity
  8
細線
 48
50.0
100
AcDbLine
 10
8586.323137257135
 20
1843.898936767547
 30
0.0
 11
8578.284661484202
 21
1873.898936767547
 31
0.0
  0
LINE
  5
20B69
330
747D
100
AcDbEntity
  8
細線
 48
50.0
100
AcDbLine
 10
8487.713081073074
 20
1843.898936767547
 30
0.0
 11
8479.674605300141
 21
1873.898936767547
 31
0.0
  0
LINE
  5
20B6A
330
747D
100
AcDbEntity
  8
細線
100
AcDbLine
 10
9016.661382051161
 20
1934.939714917534
 30
0.0
 11
8927.702160201155
 21
2023.898936767547
 31
0.0
  0
LINE
  5
20B6B
330
747D
100
AcDbEntity
  8
細線
100
AcDbLine
 10
8837.702160201162
 20
1873.898936767547
 30
0.0
 11
8687.702160201167
 21
2023.898936767547
 31
0.0
  0
LINE
  5
20B6C
330
747D
100
AcDbEntity
  8
部品1
100
AcDbLine
 10
9016.661382051159
 20
2023.898936767547
 30
0.0
 11
9016.661382051159
 21
1873.898936767547
 31
0.0
  0
LINE
  5
20B6D
330
747D
100
AcDbEntity
  8
細線
 48
50.0
100
AcDbLine
 10
8847.31991079327
 20
1713.898936767547
 30
0.0
 11
8890.191781582249
 21
1873.898936767547
 31
0.0
  0
LINE
  5
20B6E
330
747D
100
AcDbEntity
  8
細線
 48
50.0
100
AcDbLine
 10
8882.153305809319
 20
1843.898936767547
 30
0.0
 11
8874.114830036386
 21
1873.898936767547
 31
0.0
  0
LINE
  5
20B6F
330
747D
100
AcDbEntity
  8
細線
 48
50.0
100
AcDbLine
 10
8748.709854609209
 20
1713.898936767547
 30
0.0
 11
8791.581725398188
 21
1873.898936767547
 31
0.0
  0
LINE
  5
20B70
330
747D
100
AcDbEntity
  8
細線
 48
50.0
100
AcDbLine
 10
8756.748330382146
 20
1743.898936767546
 30
0.0
 11
8764.786806155079
 21
1713.898936767547
 31
0.0
  0
LINE
  5
20B71
330
747D
100
AcDbEntity
  8
細線
 48
50.0
100
AcDbLine
 10
8855.358386566205
 20
1743.898936767546
 30
0.0
 11
8863.396862339138
 21
1713.898936767547
 31
0.0
  0
LINE
  5
20B72
330
747D
100
AcDbEntity
  8
細線
 48
50.0
100
AcDbLine
 10
8783.543249625259
 20
1843.898936767547
 30
0.0
 11
8775.504773852324
 21
1873.898936767547
 31
0.0
  0
LINE
  5
20B73
330
747D
100
AcDbEntity
  8
細線
 48
50.0
100
AcDbLine
 10
8945.929966977331
 20
1713.898936767547
 30
0.0
 11
8988.80183776631
 21
1873.898936767547
 31
0.0
  0
LINE
  5
20B74
330
747D
100
AcDbEntity
  8
細線
 48
50.0
100
AcDbLine
 10
8953.968442750264
 20
1743.898936767546
 30
0.0
 11
8962.006918523199
 21
1713.898936767547
 31
0.0
  0
LINE
  5
20B75
330
747D
100
AcDbEntity
  8
細線
 48
50.0
100
AcDbLine
 10
9052.578498934327
 20
1743.898936767546
 30
0.0
 11
9060.61697470726
 21
1713.898936767547
 31
0.0
  0
LINE
  5
20B76
330
747D
100
AcDbEntity
  8
細線
 48
50.0
100
AcDbLine
 10
8980.76336199338
 20
1843.898936767547
 30
0.0
 11
8972.724886220447
 21
1873.898936767547
 31
0.0
  0
LINE
  5
20B77
330
747D
100
AcDbEntity
  8
細線
 48
50.0
100
AcDbLine
 10
9079.373418177441
 20
1843.898936767547
 30
0.0
 11
9071.334942404508
 21
1873.898936767547
 31
0.0
  0
LINE
  5
20B78
330
747D
100
AcDbEntity
  8
細線
100
AcDbLine
 10
8815.774030053756
 20
2023.898936767547
 30
0.0
 11
8870.961435732331
 21
2079.086342446124
 31
0.0
  0
LINE
  5
20B79
330
747D
100
AcDbEntity
  8
細線
100
AcDbLine
 10
8775.774030053758
 20
2023.898936767547
 30
0.0
 11
8870.961435732331
 21
2119.086342446118
 31
0.0
  0
LINE
  5
20B7A
330
747D
100
AcDbEntity
  8
細線
100
AcDbLine
 10
9016.661382051159
 20
2014.939714917554
 30
0.0
 11
9007.702160201167
 21
2023.898936767547
 31
0.0
  0
LINE
  5
20B7B
330
747D
100
AcDbEntity
  8
細線
100
AcDbLine
 10
9016.661382051159
 20
1974.939714917544
 30
0.0
 11
8967.702160201154
 21
2023.898936767547
 31
0.0
  0
DIMENSION
  5
20B7C
330
747D
100
AcDbEntity
  8
寸法
 48
50.0
100
AcDbDimension
  2
*D31
 10
9535.131422138265
 20
2399.428656532335
 30
0.0
 11
9535.131422138265
 21
2728.942385585436
 31
0.0
 70
   160
  1
出30
 71
     5
 42
60.30769230769147
  3
INABA_S50GUP
100
AcDbAlignedDimension
 13
10206.51672005893
 23
2459.736348840027
 33
0.0
 14
10076.51672005893
 24
2399.428656532335
 34
0.0
 50
90.0
100
AcDbRotatedDimension
1001
ACAD
1000
DSTYLE
1002
{
1070
   140
1040
100.0
1002
}
  0
DIMENSION
  5
20B7D
330
747D
100
AcDbEntity
  8
寸法
 48
50.0
100
AcDbDimension
  2
*D32
 10
10277.90133544355
 20
2864.740916482256
 30
0.0
 11
10182.59364313586
 21
2864.740916482256
 31
0.0
 70
   160
  1
88.5
 71
     5
 42
190.6153846153847
  3
INABA_S50GUP
100
AcDbAlignedDimension
 13
10087.28595082817
 23
2504.967118070796
 33
0.0
 14
10277.90133544355
 24
2506.04404114772
 34
0.0
100
AcDbRotatedDimension
1001
ACAD
1000
DSTYLE
1002
{
1070
   140
1040
100.0
1002
}
  0
LINE
  5
20B7E
330
747D
100
AcDbEntity
  8
Ｇ．Ｌ
 48
50.0
100
AcDbLine
 10
9558.841842767742
 20
1923.264763670257
 30
0.0
 11
10076.51672005894
 21
1923.264763670257
 31
0.0
  0
LINE
  5
20B7F
330
747D
100
AcDbEntity
  8
部品1
100
AcDbLine
 10
9116.661382051161
 20
1873.898936767547
 30
0.0
 11
9116.661382051161
 21
1713.89893676755
 31
0.0
  0
LINE
  5
20B80
330
747D
100
AcDbEntity
  8
細線
 48
50.0
100
AcDbLine
 10
10233.51672005894
 20
2238.070732821126
 30
0.0
 11
10316.51672005894
 21
2321.070732821132
 31
0.0
  0
LINE
  5
20B81
330
747D
100
AcDbEntity
  8
細線
 48
50.0
100
AcDbLine
 10
10233.51672005893
 20
2204.394772367123
 30
0.0
 11
10316.51672005894
 21
2287.394772367123
 31
0.0
  0
LINE
  5
20B82
330
747D
100
AcDbEntity
  8
部品1
 48
50.0
100
AcDbLine
 10
10206.51672005894
 20
2149.428656532335
 30
0.0
 11
10206.51672005894
 21
2399.428656532335
 31
0.0
  0
LINE
  5
20B83
330
747D
100
AcDbEntity
  8
部品1
 48
50.0
100
AcDbLine
 10
10233.51672005894
 20
2149.428656532335
 30
0.0
 11
10233.51672005893
 21
2399.428656532335
 31
0.0
  0
LINE
  5
20B84
330
747D
100
AcDbEntity
  8
部品1
 48
50.0
100
AcDbLine
 10
9716.596266798964
 20
2006.734888518677
 30
0.0
 11
9668.404767748434
 21
1923.264763670253
 31
0.0
  0
LINE
  5
20B85
330
747D
100
AcDbEntity
  8
部品1
 48
50.0
100
AcDbLine
 10
9620.213268697906
 20
2006.734888518677
 30
0.0
 11
9668.404767748434
 21
1923.264763670253
 31
0.0
  0
TEXT
  5
20B86
330
747D
100
AcDbEntity
  8
部品1
 48
50.0
100
AcDbText
 10
9718.68762216896
 20
1932.630590572964
 30
0.0
 40
100.0
  1
G.L
  7
STYLE1
100
AcDbText
  0
LINE
  5
20B87
330
747D
100
AcDbEntity
  8
部品1
 48
50.0
100
AcDbLine
 10
9620.213268697906
 20
2006.734888518677
 30
0.0
 11
9716.596266798964
 21
2006.734888518677
 31
0.0
  0
LINE
  5
20B88
330
747D
100
AcDbEntity
  8
細線
 48
50.0
100
AcDbLine
 10
10226.51672005894
 20
1895.339009643069
 30
0.0
 11
10316.51672005894
 21
1985.339009643069
 31
0.0
  0
LINE
  5
20B89
330
747D
100
AcDbEntity
  8
細線
 48
50.0
100
AcDbLine
 10
10076.51672005894
 20
1711.663049189057
 30
0.0
 11
10206.51672005894
 21
1841.663049189055
 31
0.0
  0
LINE
  5
20B8A
330
747D
100
AcDbEntity
  8
細線
 48
50.0
100
AcDbLine
 10
10076.51672005894
 20
1745.339009643067
 30
0.0
 11
10206.51672005894
 21
1875.339009643067
 31
0.0
  0
LINE
  5
20B8B
330
747D
100
AcDbEntity
  8
細線
 48
50.0
100
AcDbLine
 10
10226.51672005894
 20
1861.663049189057
 30
0.0
 11
10316.51672005894
 21
1951.663049189054
 31
0.0
  0
LINE
  5
20B8C
330
747D
100
AcDbEntity
  8
細線
 48
50.0
100
AcDbLine
 10
10226.51672005894
 20
1827.987088735049
 30
0.0
 11
10316.51672005894
 21
1917.987088735046
 31
0.0
  0
ARC
  5
20B8D
330
747D
100
AcDbEntity
  8
部品1
 48
50.0
100
AcDbCircle
 10
10196.51672005894
 20
2149.428656532335
 30
0.0
 40
37.0
100
AcDbArc
 50
270.0
 51
0.0
  0
LINE
  5
20B8E
330
747D
100
AcDbEntity
  8
細線
 48
50.0
100
AcDbLine
 10
10168.55060422415
 20
2139.428656532334
 30
0.0
 11
10181.20962259555
 21
2152.087674903738
 31
0.0
  0
ARC
  5
20B8F
330
747D
100
AcDbEntity
  8
部品1
 48
50.0
100
AcDbCircle
 10
10196.51672005894
 20
2224.746693275141
 30
0.0
 40
30.0
100
AcDbArc
 50
70.52877936552873
 51
180.0
  0
LINE
  5
20B90
330
747D
100
AcDbEntity
  8
部品1
 48
50.0
100
AcDbLine
 10
10206.51672005894
 20
2149.428656532335
 30
0.0
 11
10206.51672005894
 21
2224.746693275141
 31
0.0
  0
LINE
  5
20B91
330
747D
100
AcDbEntity
  8
細線
 48
50.0
100
AcDbLine
 10
10076.51672005894
 20
2047.394772367123
 30
0.0
 11
10146.51672005894
 21
2117.394772367123
 31
0.0
  0
LINE
  5
20B92
330
747D
100
AcDbEntity
  8
部品1
 48
50.0
100
AcDbLine
 10
10186.51672005894
 20
2152.087674903738
 30
0.0
 11
10166.51672005894
 21
2152.08767490374
 31
0.0
  0
LINE
  5
20B93
330
747D
100
AcDbEntity
  8
部品1
 48
50.0
100
AcDbLine
 10
10186.51672005894
 20
2152.087674903738
 30
0.0
 11
10186.51672005894
 21
2224.746693275141
 31
0.0
  0
LINE
  5
20B94
330
747D
100
AcDbEntity
  8
部品1
 48
50.0
100
AcDbLine
 10
10166.51672005894
 20
2152.08767490374
 30
0.0
 11
10166.51672005894
 21
2224.746693275143
 31
0.0
  0
LINE
  5
20B95
330
747D
100
AcDbEntity
  8
細線
 48
50.0
100
AcDbLine
 10
10076.51672005894
 20
2081.070732821132
 30
0.0
 11
10166.51672005894
 21
2171.070732821132
 31
0.0
  0
LINE
  5
20B96
330
747D
100
AcDbEntity
  8
細線
 48
50.0
100
AcDbLine
 10
10076.51672005894
 20
2114.746693275141
 30
0.0
 11
10166.51672005894
 21
2204.746693275141
 31
0.0
  0
CIRCLE
  5
20B97
330
747D
100
AcDbEntity
  8
部品1
 48
50.0
100
AcDbCircle
 10
10196.51672005894
 20
2224.746693275141
 30
0.0
 40
10.0
  0
LINE
  5
20B98
330
747D
100
AcDbEntity
  8
細線
 48
50.0
100
AcDbLine
 10
10186.51672005894
 20
2157.394772367123
 30
0.0
 11
10206.51672005894
 21
2177.394772367123
 31
0.0
  0
LINE
  5
20B99
330
747D
100
AcDbEntity
  8
細線
 48
50.0
100
AcDbLine
 10
10186.51672005894
 20
2191.070732821132
 30
0.0
 11
10206.51672005894
 21
2211.070732821132
 31
0.0
  0
ARC
  5
20B9A
330
747D
100
AcDbEntity
  8
部品1
 48
50.0
100
AcDbCircle
 10
10196.51672005894
 20
2149.428656532335
 30
0.0
 40
10.0
100
AcDbArc
 50
270.0
 51
0.0
  0
LINE
  5
20B9B
330
747D
100
AcDbEntity
  8
部品1
 48
50.0
100
AcDbLine
 10
10146.51672005894
 20
2112.428656532335
 30
0.0
 11
10146.51672005894
 21
2139.428656532334
 31
0.0
  0
LINE
  5
20B9C
330
747D
100
AcDbEntity
  8
部品1
 48
50.0
100
AcDbLine
 10
10196.51672005894
 20
2112.428656532335
 30
0.0
 11
10146.51672005894
 21
2112.428656532335
 31
0.0
  0
LINE
  5
20B9D
330
747D
100
AcDbEntity
  8
部品1
 48
50.0
100
AcDbLine
 10
10196.51672005894
 20
2139.428656532334
 30
0.0
 11
10146.51672005894
 21
2139.428656532334
 31
0.0
  0
LINE
  5
20B9E
330
747D
100
AcDbEntity
  8
部品1
 48
50.0
100
AcDbLine
 10
10206.51672005894
 20
2149.428656532335
 30
0.0
 11
10206.51672005894
 21
2224.746693275141
 31
0.0
  0
DIMENSION
  5
20B9F
330
747D
100
AcDbEntity
  8
寸法
 48
50.0
100
AcDbDimension
  2
*D33
 10
10220.01672005893
 20
2643.161998430282
 30
0.0
 11
9866.453526262819
 21
2643.161998430282
 31
0.0
 70
   160
  1
65
 71
     5
 42
143.5
  3
INABA_S50GUP
100
AcDbAlignedDimension
 13
10076.51672005893
 23
2399.428656532335
 33
0.0
 14
10220.01672005893
 24
2459.736348840027
 34
0.0
100
AcDbRotatedDimension
1001
ACAD
1000
DSTYLE
1002
{
1070
   140
1040
100.0
1002
}
  0
LINE
  5
20BA0
330
747D
100
AcDbEntity
  8
細線
100
AcDbLine
 10
10191.09357261171
 20
2365.780605545238
 30
0.0
 11
10246.82356125015
 21
2367.418350242628
 31
0.0
  0
LINE
  5
20BA1
330
747D
100
AcDbEntity
  8
細線
 48
50.0
100
AcDbLine
 10
10202.51672005894
 20
2442.808145609753
 30
0.0
 11
10237.71672005893
 21
2433.376334036177
 31
0.0
  0
ARC
  5
20BA2
330
747D
100
AcDbEntity
  8
部品1
100
AcDbCircle
 10
10220.01672005894
 20
2389.425900830442
 30
0.0
 40
35.0848827120379
100
AcDbArc
 50
68.38687878208499
 51
111.613121217915
  0
LINE
  5
20BA3
330
747D
100
AcDbEntity
  8
部品1
100
AcDbLine
 10
10196.32441236662
 20
2422.044041147721
 30
0.0
 11
10243.70902775124
 21
2422.044041147718
 31
0.0
  0
LINE
  5
20BA4
330
747D
100
AcDbEntity
  8
部品1
100
AcDbLine
 10
10199.5551815974
 20
2425.274810378489
 30
0.0
 11
10240.47825852048
 21
2425.274810378489
 31
0.0
  0
LINE
  5
20BA5
330
747D
100
AcDbEntity
  8
部品1
100
AcDbLine
 10
10192.01672005894
 20
2403.736348840026
 30
0.0
 11
10248.01672005894
 21
2403.736348840026
 31
0.0
  0
LINE
  5
20BA6
330
747D
100
AcDbEntity
  8
部品1
 48
50.0
100
AcDbLine
 10
10076.51672005894
 20
2399.428656532335
 30
0.0
 11
10316.51672005894
 21
2399.428656532335
 31
0.0
  0
LINE
  5
20BA7
330
747D
100
AcDbEntity
  8
部品1
100
AcDbLine
 10
10107.7474892897
 20
2403.736348840026
 30
0.0
 11
10274.67056621278
 21
2403.736348840026
 31
0.0
  0
LINE
  5
20BA8
330
747D
100
AcDbEntity
  8
細線
 48
50.0
100
AcDbLine
 10
10202.51672005894
 20
2454.80814560975
 30
0.0
 11
10237.71672005893
 21
2445.376334036175
 31
0.0
  0
LINE
  5
20BA9
330
747D
100
AcDbEntity
  8
部品1
 48
50.0
100
AcDbLine
 10
10233.51672005894
 20
2459.736348840027
 30
0.0
 11
10206.51672005894
 21
2459.736348840027
 31
0.0
  0
LINE
  5
20BAA
330
747D
100
AcDbEntity
  8
部品1
100
AcDbLine
 10
10206.0551815974
 20
2521.120964224643
 30
0.0
 11
10236.20902775124
 21
2521.120964224643
 31
0.0
  0
LINE
  5
20BAB
330
747D
100
AcDbEntity
  8
細線
 48
50.0
100
AcDbLine
 10
10076.51672005894
 20
2316.802455999197
 30
0.0
 11
10118.94406110636
 21
2359.229797046623
 31
0.0
  0
LINE
  5
20BAC
330
747D
100
AcDbEntity
  8
細線
100
AcDbLine
 10
10114.05504356497
 20
2359.229797046623
 30
0.0
 11
10150.1156183124
 21
2359.229797046623
 31
0.0
  0
LINE
  5
20BAD
330
747D
100
AcDbEntity
  8
細線
100
AcDbLine
 10
10150.1156183124
 20
2359.229797046623
 30
0.0
 11
10191.09357261171
 21
2365.780605545238
 31
0.0
  0
LINE
  5
20BAE
330
747D
100
AcDbEntity
  8
細線
100
AcDbLine
 10
10076.51672005894
 20
2369.056038176374
 30
0.0
 11
10114.05504356497
 21
2359.229797046623
 31
0.0
  0
LINE
  5
20BAF
330
747D
100
AcDbEntity
  8
細線
 48
50.0
100
AcDbLine
 10
10076.51672005894
 20
2350.478416453206
 30
0.0
 11
10091.24023287025
 21
2365.201929264513
 31
0.0
  0
LINE
  5
20BB0
330
747D
100
AcDbEntity
  8
部品1
100
AcDbLine
 10
10087.28595082816
 20
2402.659425763105
 30
0.0
 11
10087.28595082816
 21
2504.967118070796
 31
0.0
  0
LINE
  5
20BB1
330
747D
100
AcDbEntity
  8
部品1
 48
50.0
100
AcDbLine
 10
10206.51672005893
 20
2425.274810378489
 30
0.0
 11
10206.51672005893
 21
2459.736348840027
 31
0.0
  0
LINE
  5
20BB2
330
747D
100
AcDbEntity
  8
部品1
100
AcDbLine
 10
10192.01672005894
 20
2403.736348840026
 30
0.0
 11
10192.01672005894
 21
2399.428656532335
 31
0.0
  0
LINE
  5
20BB3
330
747D
100
AcDbEntity
  8
部品1
100
AcDbLine
 10
10104.51672005894
 20
2402.659425763105
 30
0.0
 11
10087.28595082816
 21
2402.659425763105
 31
0.0
  0
LINE
  5
20BB4
330
747D
100
AcDbEntity
  8
部品1
100
AcDbLine
 10
10107.7474892897
 20
2406.967118070796
 30
0.0
 11
10090.51672005894
 21
2406.967118070796
 31
0.0
  0
LINE
  5
20BB5
330
747D
100
AcDbEntity
  8
部品1
100
AcDbLine
 10
10090.51672005894
 20
2406.967118070796
 30
0.0
 11
10090.51672005894
 21
2426.179794848098
 31
0.0
  0
LINE
  5
20BB6
330
747D
100
AcDbEntity
  8
部品1
100
AcDbLine
 10
10207.09364313586
 20
2422.044041147721
 30
0.0
 11
10207.09364313586
 21
2403.736348840026
 31
0.0
  0
LINE
  5
20BB7
330
747D
100
AcDbEntity
  8
部品1
100
AcDbLine
 10
10196.32441236662
 20
2422.044041147719
 30
0.0
 11
10199.5551815974
 21
2425.274810378489
 31
0.0
  0
LINE
  5
20BB8
330
747D
100
AcDbEntity
  8
部品1
100
AcDbLine
 10
10196.32441236662
 20
2422.044041147719
 30
0.0
 11
10196.32441236662
 21
2403.736348840026
 31
0.0
  0
LINE
  5
20BB9
330
747D
100
AcDbEntity
  8
部品1
100
AcDbLine
 10
10107.7474892897
 20
2406.967118070796
 30
0.0
 11
10107.7474892897
 21
2403.736348840026
 31
0.0
  0
ARC
  5
20BBA
330
747D
100
AcDbEntity
  8
部品1
100
AcDbCircle
 10
10201.70902775124
 20
2416.988743236711
 30
0.0
 40
7.3858052918609
100
AcDbArc
 50
43.19325636896715
 51
136.8067436310328
  0
LINE
  5
20BBB
330
747D
100
AcDbEntity
  8
部品1
100
AcDbLine
 10
10173.7474892897
 20
2546.967118070796
 30
0.0
 11
10206.0551815974
 21
2546.967118070796
 31
0.0
  0
LINE
  5
20BBC
330
747D
100
AcDbEntity
  8
部品1
100
AcDbLine
 10
10087.28595082816
 20
2504.967118070796
 30
0.0
 11
10100.20902775124
 21
2508.197887301565
 31
0.0
  0
LINE
  5
20BBD
330
747D
100
AcDbEntity
  8
部品1
100
AcDbLine
 10
10100.20902775124
 20
2521.120964224643
 30
0.0
 11
10173.7474892897
 21
2521.120964224643
 31
0.0
  0
LINE
  5
20BBE
330
747D
100
AcDbEntity
  8
部品1
100
AcDbLine
 10
10100.20902775124
 20
2508.197887301565
 30
0.0
 11
10100.20902775124
 21
2521.120964224643
 31
0.0
  0
LINE
  5
20BBF
330
747D
100
AcDbEntity
  8
部品1
100
AcDbLine
 10
10206.0551815974
 20
2546.967118070796
 30
0.0
 11
10206.0551815974
 21
2521.120964224643
 31
0.0
  0
LINE
  5
20BC0
330
747D
100
AcDbEntity
  8
部品1
100
AcDbLine
 10
10173.7474892897
 20
2521.120964224643
 30
0.0
 11
10173.7474892897
 21
2546.967118070796
 31
0.0
  0
LINE
  5
20BC1
330
747D
100
AcDbEntity
  8
細線
 48
50.0
100
AcDbLine
 10
10202.51672005894
 20
2430.80814560975
 30
0.0
 11
10223.16740827731
 21
2425.274810378489
 31
0.0
  0
LINE
  5
20BC2
330
747D
100
AcDbEntity
  8
細線
100
AcDbLine
 10
10246.82356125015
 20
2367.418350242628
 30
0.0
 11
10276.32762992837
 21
2365.780605545238
 31
0.0
  0
LINE
  5
20BC3
330
747D
100
AcDbEntity
  8
細線
100
AcDbLine
 10
10276.32762992837
 20
2365.780605545238
 30
0.0
 11
10316.51672005894
 21
2357.592052349235
 31
0.0
  0
LINE
  5
20BC4
330
747D
100
AcDbEntity
  8
細線
 48
50.0
100
AcDbLine
 10
10233.51672005893
 20
2271.746693275137
 30
0.0
 11
10316.51672005894
 21
2354.746693275141
 31
0.0
  0
LINE
  5
20BC5
330
747D
100
AcDbEntity
  8
部品1
100
AcDbLine
 10
10277.90133544355
 20
2506.04404114772
 30
0.0
 11
10277.90133544355
 21
2402.659425763105
 31
0.0
  0
LINE
  5
20BC6
330
747D
100
AcDbEntity
  8
部品1
 48
50.0
100
AcDbLine
 10
10233.51672005893
 20
2425.274810378489
 30
0.0
 11
10233.51672005893
 21
2459.736348840027
 31
0.0
  0
LINE
  5
20BC7
330
747D
100
AcDbEntity
  8
部品1
100
AcDbLine
 10
10277.90133544355
 20
2402.659425763105
 30
0.0
 11
10295.13210467432
 21
2402.659425763105
 31
0.0
  0
LINE
  5
20BC8
330
747D
100
AcDbEntity
  8
部品1
100
AcDbLine
 10
10274.67056621278
 20
2426.179794848098
 30
0.0
 11
10274.67056621278
 21
2403.736348840026
 31
0.0
  0
LINE
  5
20BC9
330
747D
100
AcDbEntity
  8
部品1
100
AcDbLine
 10
10248.01672005894
 20
2403.736348840026
 30
0.0
 11
10248.01672005894
 21
2399.428656532335
 31
0.0
  0
LINE
  5
20BCA
330
747D
100
AcDbEntity
  8
部品1
100
AcDbLine
 10
10240.47825852048
 20
2425.274810378489
 30
0.0
 11
10243.70902775124
 21
2422.044041147721
 31
0.0
  0
LINE
  5
20BCB
330
747D
100
AcDbEntity
  8
部品1
100
AcDbLine
 10
10243.70902775124
 20
2422.044041147721
 30
0.0
 11
10243.70902775124
 21
2403.736348840026
 31
0.0
  0
LINE
  5
20BCC
330
747D
100
AcDbEntity
  8
部品1
100
AcDbLine
 10
10232.93979698201
 20
2422.044041147719
 30
0.0
 11
10232.93979698201
 21
2403.736348840026
 31
0.0
  0
ARC
  5
20BCD
330
747D
100
AcDbEntity
  8
部品1
100
AcDbCircle
 10
10238.32441236662
 20
2416.988743236711
 30
0.0
 40
7.3858052918609
100
AcDbArc
 50
43.19325636896715
 51
136.8067436310328
  0
LINE
  5
20BCE
330
747D
100
AcDbEntity
  8
部品1
100
AcDbLine
 10
10236.20902775124
 20
2521.120964224643
 30
0.0
 11
10236.20902775124
 21
2506.04404114772
 31
0.0
  0
LINE
  5
20BCF
330
747D
100
AcDbEntity
  8
部品1
100
AcDbLine
 10
10236.20902775124
 20
2506.04404114772
 30
0.0
 11
10277.90133544355
 21
2506.04404114772
 31
0.0
  0
LEADER
  5
20BD0
330
747D
100
AcDbEntity
  8
寸法
 48
50.0
100
AcDbLeader
  3
INABA_S50G
 71
     0
 73
     0
 74
     0
 75
     1
 40
100.0
 41
581.9577020040977
 76
     3
 10
13099.55671638947
 20
1976.223849492024
 30
0.0
 10
13247.25688185409
 20
1819.660137261879
 30
0.0
 10
13372.25688185409
 20
1819.660137261879
 30
0.0
340
20BD1
  0
MTEXT
  5
20BD1
102
{ACAD_REACTORS
330
20BD0
102
}
330
747D
100
AcDbEntity
  8
寸法
 62
     7
 48
50.0
100
AcDbMText
 10
13397.25688185409
 20
1894.660137261879
 30
0.0
 40
100.0
 41
0.0
 71
     4
 72
     1
  1
防湿シート
  7
STYLE1
 73
     1
 44
1.0
1001
ACAD
1000
MTEXTBEGIN
1070
    73
1070
     1
1070
    44
1040
1.0
1070
    74
1070
     0
1000
MTEXTEND
  0
LWPOLYLINE
  5
20BD2
330
747D
100
AcDbEntity
  8
部品1
 48
50.0
100
AcDbPolyline
 90
        4
 70
     0
 43
15.0
 10
12415.17931802974
 20
1923.264763670258
 10
12932.85419532094
 20
1923.264763670258
 42
0.1559987191059798
 10
13099.55671638947
 20
1976.223849492024
 42
-0.1900569176366468
 10
13298.47853162798
 20
2007.20503293597
  0
LINE
  5
20BD3
330
747D
100
AcDbEntity
  8
細線
 48
50.0
100
AcDbLine
 10
12325.17931802975
 20
1625.931326010996
 30
0.0
 11
12415.17931802974
 21
1715.931326010991
 31
0.0
  0
LINE
  5
20BD4
330
747D
100
AcDbEntity
  8
部品1
 48
50.0
100
AcDbLine
 10
12325.17931802975
 20
1469.428656532335
 30
0.0
 11
12325.17931802974
 21
2224.746693275142
 31
0.0
  0
LINE
  5
20BD5
330
747D
100
AcDbEntity
  8
部品1
 48
50.0
100
AcDbLine
 10
12305.17931802975
 20
1469.428656532335
 30
0.0
 11
12305.17931802974
 21
2224.746693275142
 31
0.0
  0
LINE
  5
20BD6
330
747D
100
AcDbEntity
  8
部品1
 48
50.0
100
AcDbLine
 10
12175.17931802974
 20
1619.428656532335
 30
0.0
 11
12175.17931802974
 21
2399.428656532336
 31
0.0
  0
LINE
  5
20BD7
330
747D
100
AcDbEntity
  8
部品1
 48
50.0
100
AcDbLine
 10
12415.17931802974
 20
2399.428656532336
 30
0.0
 11
12415.17931802974
 21
1619.428656532335
 31
0.0
  0
LINE
  5
20BD8
330
747D
100
AcDbEntity
  8
細線
 48
50.0
100
AcDbLine
 10
12175.17931802974
 20
1677.987088735049
 30
0.0
 11
12305.17931802975
 21
1807.987088735051
 31
0.0
  0
LINE
  5
20BD9
330
747D
100
AcDbEntity
  8
部品1
 48
50.0
100
AcDbLine
 10
10496.51672005894
 20
1619.428656532334
 30
0.0
 11
10496.51672005894
 21
1319.428656532334
 31
0.0
  0
LINE
  5
20BDA
330
747D
100
AcDbEntity
  8
細線
 48
50.0
100
AcDbLine
 10
10520.21484306375
 20
1159.428656532334
 30
0.0
 11
10563.08671385273
 21
1319.428656532334
 31
0.0
  0
LINE
  5
20BDB
330
747D
100
AcDbEntity
  8
部品1
 48
50.0
100
AcDbLine
 10
10596.51672005894
 20
1159.428656532334
 30
0.0
 11
10596.51672005894
 21
1319.428656532334
 31
0.0
  0
LINE
  5
20BDC
330
747D
100
AcDbEntity
  8
細線
 48
50.0
100
AcDbLine
 10
10528.25331883668
 20
1189.428656532334
 30
0.0
 11
10536.29179460962
 21
1159.428656532334
 31
0.0
  0
LINE
  5
20BDD
330
747D
100
AcDbEntity
  8
細線
 48
50.0
100
AcDbLine
 10
10429.64326265262
 20
1189.428656532334
 30
0.0
 11
10437.68173842556
 21
1159.428656532334
 31
0.0
  0
LINE
  5
20BDE
330
747D
100
AcDbEntity
  8
細線
 48
50.0
100
AcDbLine
 10
10555.0482380798
 20
1289.428656532334
 30
0.0
 11
10547.00976230687
 21
1319.428656532334
 31
0.0
  0
LINE
  5
20BDF
330
747D
100
AcDbEntity
  8
細線
 48
50.0
100
AcDbLine
 10
10456.43818189574
 20
1289.428656532334
 30
0.0
 11
10448.39970612281
 21
1319.428656532334
 31
0.0
  0
LINE
  5
20BE0
330
747D
100
AcDbEntity
  8
細線
 48
50.0
100
AcDbLine
 10
10492.50537829844
 20
1319.428656532334
 30
0.0
 11
10496.51672005894
 21
1323.439998292831
 31
0.0
  0
LINE
  5
20BE1
330
747D
100
AcDbEntity
  8
細線
 48
50.0
100
AcDbLine
 10
10458.82941784443
 20
1319.428656532334
 30
0.0
 11
10496.51672005894
 21
1357.11595874684
 31
0.0
  0
LINE
  5
20BE2
330
747D
100
AcDbEntity
  8
細線
 48
50.0
100
AcDbLine
 10
12325.17931802975
 20
1592.255365556987
 30
0.0
 11
12415.17931802974
 21
1682.255365556982
 31
0.0
  0
LINE
  5
20BE3
330
747D
100
AcDbEntity
  8
細線
 48
50.0
100
AcDbLine
 10
12325.17931802975
 20
1558.579405102976
 30
0.0
 11
12415.17931802974
 21
1648.579405102972
 31
0.0
  0
LINE
  5
20BE4
330
747D
100
AcDbEntity
  8
細線
 48
50.0
100
AcDbLine
 10
12321.76029263717
 20
1319.428656532335
 30
0.0
 11
12441.76029263717
 21
1439.428656532335
 31
0.0
  0
LINE
  5
20BE5
330
747D
100
AcDbEntity
  8
細線
 48
50.0
100
AcDbLine
 10
12288.08433218316
 20
1319.428656532335
 30
0.0
 11
12408.08433218316
 21
1439.428656532335
 31
0.0
  0
LINE
  5
20BE6
330
747D
100
AcDbEntity
  8
細線
 48
50.0
100
AcDbLine
 10
12355.43625309118
 20
1319.428656532335
 30
0.0
 11
12475.43736289761
 21
1439.42976633876
 31
0.0
  0
LINE
  5
20BE7
330
747D
100
AcDbEntity
  8
部品1
 48
50.0
100
AcDbLine
 10
12065.17931802974
 20
1439.428656532335
 30
0.0
 11
12525.17931802974
 21
1439.428656532335
 31
0.0
  0
LINE
  5
20BE8
330
747D
100
AcDbEntity
  8
部品1
 48
50.0
100
AcDbLine
 10
12065.17931802974
 20
1459.428656532335
 30
0.0
 11
12525.17931802974
 21
1459.428656532335
 31
0.0
  0
LINE
  5
20BE9
330
747D
100
AcDbEntity
  8
部品1
 48
50.0
100
AcDbLine
 10
12695.17931802974
 20
1159.428656532335
 30
0.0
 11
11895.17931802974
 21
1159.428656532335
 31
0.0
  0
LINE
  5
20BEA
330
747D
100
AcDbEntity
  8
部品1
 48
50.0
100
AcDbLine
 10
12695.17931802974
 20
1319.428656532335
 30
0.0
 11
11895.17931802974
 21
1319.428656532335
 31
0.0
  0
LINE
  5
20BEB
330
747D
100
AcDbEntity
  8
細線
 48
50.0
100
AcDbLine
 10
11963.44044276218
 20
1289.428656532335
 30
0.0
 11
11955.40196698924
 21
1319.428656532335
 31
0.0
  0
LINE
  5
20BEC
330
747D
100
AcDbEntity
  8
細線
 48
50.0
100
AcDbLine
 10
11928.60704774613
 20
1159.428656532335
 30
0.0
 11
11971.47891853511
 21
1319.428656532335
 31
0.0
  0
LINE
  5
20BED
330
747D
100
AcDbEntity
  8
部品1
 48
50.0
100
AcDbLine
 10
11895.17931802974
 20
1159.428656532335
 30
0.0
 11
11895.17931802974
 21
1319.428656532335
 31
0.0
  0
LINE
  5
20BEE
330
747D
100
AcDbEntity
  8
細線
 48
50.0
100
AcDbLine
 10
11936.64552351906
 20
1189.428656532335
 30
0.0
 11
11944.683999292
 21
1159.428656532335
 31
0.0
  0
LINE
  5
20BEF
330
747D
100
AcDbEntity
  8
細線
 48
50.0
100
AcDbLine
 10
12052.3526090051
 20
1319.428656532335
 30
0.0
 11
12172.3526090051
 21
1439.428656532335
 31
0.0
  0
LINE
  5
20BF0
330
747D
100
AcDbEntity
  8
細線
 48
50.0
100
AcDbLine
 10
12018.67664855108
 20
1319.428656532335
 30
0.0
 11
12138.67664855108
 21
1439.428656532335
 31
0.0
  0
LINE
  5
20BF1
330
747D
100
AcDbEntity
  8
部品1
 48
50.0
100
AcDbLine
 10
11995.17931802974
 20
1319.428656532335
 30
0.0
 11
11995.17931802974
 21
1619.428656532335
 31
0.0
  0
LINE
  5
20BF2
330
747D
100
AcDbEntity
  8
細線
 48
50.0
100
AcDbLine
 10
12086.0285694591
 20
1319.428656532335
 30
0.0
 11
12206.0285694591
 21
1439.428656532335
 31
0.0
  0
LINE
  5
20BF3
330
747D
100
AcDbEntity
  8
細線
 48
50.0
100
AcDbLine
 10
12062.05049894624
 20
1289.428656532335
 30
0.0
 11
12054.0120231733
 21
1319.428656532335
 31
0.0
  0
LINE
  5
20BF4
330
747D
100
AcDbEntity
  8
細線
 48
50.0
100
AcDbLine
 10
12160.6605551303
 20
1289.428656532335
 30
0.0
 11
12152.62207935736
 21
1319.428656532335
 31
0.0
  0
LINE
  5
20BF5
330
747D
100
AcDbEntity
  8
細線
 48
50.0
100
AcDbLine
 10
12027.21710393019
 20
1159.428656532335
 30
0.0
 11
12070.08897471917
 21
1319.428656532335
 31
0.0
  0
LINE
  5
20BF6
330
747D
100
AcDbEntity
  8
細線
 48
50.0
100
AcDbLine
 10
12035.25557970313
 20
1189.428656532335
 30
0.0
 11
12043.29405547606
 21
1159.428656532335
 31
0.0
  0
LINE
  5
20BF7
330
747D
100
AcDbEntity
  8
細線
 48
50.0
100
AcDbLine
 10
12125.82716011425
 20
1159.428656532335
 30
0.0
 11
12168.69903090323
 21
1319.428656532335
 31
0.0
  0
LINE
  5
20BF8
330
747D
100
AcDbEntity
  8
細線
 48
50.0
100
AcDbLine
 10
12133.86563588719
 20
1189.428656532335
 30
0.0
 11
12141.90411166012
 21
1159.428656532335
 31
0.0
  0
LINE
  5
20BF9
330
747D
100
AcDbEntity
  8
細線
 48
50.0
100
AcDbLine
 10
12259.27061131436
 20
1289.428656532335
 30
0.0
 11
12251.23213554142
 21
1319.428656532335
 31
0.0
  0
LINE
  5
20BFA
330
747D
100
AcDbEntity
  8
細線
 48
50.0
100
AcDbLine
 10
12357.88066749842
 20
1289.428656532335
 30
0.0
 11
12349.84219172549
 21
1319.428656532335
 31
0.0
  0
LINE
  5
20BFB
330
747D
100
AcDbEntity
  8
細線
 48
50.0
100
AcDbLine
 10
12224.43721629831
 20
1159.428656532335
 30
0.0
 11
12267.30908708729
 21
1319.428656532335
 31
0.0
  0
LINE
  5
20BFC
330
747D
100
AcDbEntity
  8
細線
 48
50.0
100
AcDbLine
 10
12323.04727248237
 20
1159.428656532335
 30
0.0
 11
12365.91914327135
 21
1319.428656532335
 31
0.0
  0
LINE
  5
20BFD
330
747D
100
AcDbEntity
  8
細線
 48
50.0
100
AcDbLine
 10
12232.47569207125
 20
1189.428656532335
 30
0.0
 11
12240.51416784418
 21
1159.428656532335
 31
0.0
  0
LINE
  5
20BFE
330
747D
100
AcDbEntity
  8
細線
 48
50.0
100
AcDbLine
 10
12331.08574825531
 20
1189.428656532335
 30
0.0
 11
12339.12422402824
 21
1159.428656532335
 31
0.0
  0
LINE
  5
20BFF
330
747D
100
AcDbEntity
  8
細線
 48
50.0
100
AcDbLine
 10
12158.67664855108
 20
1459.428656532335
 30
0.0
 11
12305.17931802974
 21
1605.931326010995
 31
0.0
  0
LINE
  5
20C00
330
747D
100
AcDbEntity
  8
細線
 48
50.0
100
AcDbLine
 10
11995.17931802974
 20
1497.98708873505
 30
0.0
 11
12116.62088582703
 21
1619.428656532335
 31
0.0
  0
LINE
  5
20C01
330
747D
100
AcDbEntity
  8
部品1
 48
50.0
100
AcDbLine
 10
11995.17931802974
 20
1619.428656532335
 30
0.0
 11
12175.17931802974
 21
1619.428656532335
 31
0.0
  0
LINE
  5
20C02
330
747D
100
AcDbEntity
  8
細線
 48
50.0
100
AcDbLine
 10
11995.17931802974
 20
1565.33900964307
 30
0.0
 11
12049.26896491901
 21
1619.428656532335
 31
0.0
  0
LINE
  5
20C03
330
747D
100
AcDbEntity
  8
細線
 48
50.0
100
AcDbLine
 10
11995.17931802974
 20
1531.66304918906
 30
0.0
 11
12082.94492537302
 21
1619.428656532335
 31
0.0
  0
LINE
  5
20C04
330
747D
100
AcDbEntity
  8
部品1
 48
50.0
100
AcDbLine
 10
12065.17931802974
 20
1439.428656532335
 30
0.0
 11
12065.17931802974
 21
1459.428656532335
 31
0.0
  0
CIRCLE
  5
20C05
330
747D
100
AcDbEntity
  8
部品1
 48
50.0
100
AcDbCircle
 10
12135.17931802974
 20
1469.428656532335
 30
0.0
 40
10.0
  0
LINE
  5
20C06
330
747D
100
AcDbEntity
  8
細線
 48
50.0
100
AcDbLine
 10
12285.17931802974
 20
1518.579405102974
 30
0.0
 11
12305.17931802975
 21
1538.579405102976
 31
0.0
  0
LINE
  5
20C07
330
747D
100
AcDbEntity
  8
細線
 48
50.0
100
AcDbLine
 10
12275.0116273765
 20
1542.087674903739
 30
0.0
 11
12305.17931802975
 21
1572.255365556985
 31
0.0
  0
LINE
  5
20C08
330
747D
100
AcDbEntity
  8
部品1
 48
50.0
100
AcDbLine
 10
12285.17931802974
 20
1542.087674903739
 30
0.0
 11
12265.17931802974
 21
1542.087674903739
 31
0.0
  0
ARC
  5
20C09
330
747D
100
AcDbEntity
  8
部品1
 48
50.0
100
AcDbCircle
 10
12295.17931802974
 20
1469.428656532335
 30
0.0
 40
30.0
100
AcDbArc
 50
180.0
 51
199.4712206345204
  0
ARC
  5
20C0A
330
747D
100
AcDbEntity
  8
部品1
 48
50.0
100
AcDbCircle
 10
12295.17931802974
 20
1469.428656532335
 30
0.0
 40
30.0
100
AcDbArc
 50
340.5287793654796
 51
0.0
  0
LINE
  5
20C0B
330
747D
100
AcDbEntity
  8
部品1
 48
50.0
100
AcDbLine
 10
12265.17931802974
 20
1542.087674903739
 30
0.0
 11
12265.17931802974
 21
1469.428656532335
 31
0.0
  0
LINE
  5
20C0C
330
747D
100
AcDbEntity
  8
部品1
 48
50.0
100
AcDbLine
 10
12285.17931802974
 20
1542.087674903739
 30
0.0
 11
12285.17931802974
 21
1469.428656532335
 31
0.0
  0
LINE
  5
20C0D
330
747D
100
AcDbEntity
  8
細線
 48
50.0
100
AcDbLine
 10
12192.3526090051
 20
1459.428656532335
 30
0.0
 11
12265.17931802974
 21
1532.255365556983
 31
0.0
  0
CIRCLE
  5
20C0E
330
747D
100
AcDbEntity
  8
部品1
 48
50.0
100
AcDbCircle
 10
12295.17931802974
 20
1469.428656532335
 30
0.0
 40
10.0
  0
LINE
  5
20C0F
330
747D
100
AcDbEntity
  8
細線
 48
50.0
100
AcDbLine
 10
12226.0285694591
 20
1459.428656532335
 30
0.0
 11
12265.17931802974
 21
1498.579405102972
 31
0.0
  0
LINE
  5
20C10
330
747D
100
AcDbEntity
  8
部品1
 48
50.0
100
AcDbLine
 10
12595.17931802974
 20
1619.428656532335
 30
0.0
 11
12595.17931802974
 21
1319.428656532335
 31
0.0
  0
LINE
  5
20C11
330
747D
100
AcDbEntity
  8
細線
 48
50.0
100
AcDbLine
 10
12591.16797626925
 20
1319.428656532335
 30
0.0
 11
12595.17931802974
 21
1323.439998292832
 31
0.0
  0
LINE
  5
20C12
330
747D
100
AcDbEntity
  8
細線
 48
50.0
100
AcDbLine
 10
12557.49201581523
 20
1319.428656532335
 30
0.0
 11
12595.17931802974
 21
1357.115958746841
 31
0.0
  0
LINE
  5
20C13
330
747D
100
AcDbEntity
  8
細線
 48
50.0
100
AcDbLine
 10
12456.49072368248
 20
1289.428656532335
 30
0.0
 11
12448.45224790955
 21
1319.428656532335
 31
0.0
  0
LINE
  5
20C14
330
747D
100
AcDbEntity
  8
細線
 48
50.0
100
AcDbLine
 10
12555.10077986654
 20
1289.428656532335
 30
0.0
 11
12547.06230409361
 21
1319.428656532335
 31
0.0
  0
LINE
  5
20C15
330
747D
100
AcDbEntity
  8
細線
 48
50.0
100
AcDbLine
 10
12528.30586062343
 20
1189.428656532335
 30
0.0
 11
12536.34433639636
 21
1159.428656532335
 31
0.0
  0
LINE
  5
20C16
330
747D
100
AcDbEntity
  8
細線
 48
50.0
100
AcDbLine
 10
12520.26738485049
 20
1159.428656532335
 30
0.0
 11
12563.13925563947
 21
1319.428656532335
 31
0.0
  0
LINE
  5
20C17
330
747D
100
AcDbEntity
  8
細線
 48
50.0
100
AcDbLine
 10
12421.65732866643
 20
1159.428656532335
 30
0.0
 11
12464.52919945541
 21
1319.428656532335
 31
0.0
  0
LINE
  5
20C18
330
747D
100
AcDbEntity
  8
細線
 48
50.0
100
AcDbLine
 10
12429.69580443937
 20
1189.428656532335
 30
0.0
 11
12437.7342802123
 21
1159.428656532335
 31
0.0
  0
LINE
  5
20C19
330
747D
100
AcDbEntity
  8
細線
 48
50.0
100
AcDbLine
 10
12653.7108360506
 20
1289.428656532335
 30
0.0
 11
12645.67236027767
 21
1319.428656532335
 31
0.0
  0
LINE
  5
20C1A
330
747D
100
AcDbEntity
  8
細線
 48
50.0
100
AcDbLine
 10
12618.87744103455
 20
1159.428656532335
 30
0.0
 11
12661.74931182353
 21
1319.428656532335
 31
0.0
  0
LINE
  5
20C1B
330
747D
100
AcDbEntity
  8
部品1
 48
50.0
100
AcDbLine
 10
12695.17931802974
 20
1159.428656532335
 30
0.0
 11
12695.17931802974
 21
1319.428656532335
 31
0.0
  0
LINE
  5
20C1C
330
747D
100
AcDbEntity
  8
細線
 48
50.0
100
AcDbLine
 10
12626.91591680749
 20
1189.428656532335
 30
0.0
 11
12634.95439258042
 21
1159.428656532335
 31
0.0
  0
LINE
  5
20C1D
330
747D
100
AcDbEntity
  8
細線
 48
50.0
100
AcDbLine
 10
12495.43625309118
 20
1459.428656532335
 30
0.0
 11
12595.17931802974
 21
1559.171721470897
 31
0.0
  0
LINE
  5
20C1E
330
747D
100
AcDbEntity
  8
細線
 48
50.0
100
AcDbLine
 10
12461.76029263717
 20
1459.428656532335
 30
0.0
 11
12595.17931802974
 21
1592.847681924909
 31
0.0
  0
LINE
  5
20C1F
330
747D
100
AcDbEntity
  8
部品1
 48
50.0
100
AcDbLine
 10
12415.17931802974
 20
1619.428656532335
 30
0.0
 11
12595.17931802974
 21
1619.428656532335
 31
0.0
  0
LINE
  5
20C20
330
747D
100
AcDbEntity
  8
部品1
 48
50.0
100
AcDbLine
 10
12525.17931802974
 20
1439.428656532335
 30
0.0
 11
12525.17931802974
 21
1459.428656532335
 31
0.0
  0
LINE
  5
20C21
330
747D
100
AcDbEntity
  8
細線
 48
50.0
100
AcDbLine
 10
12428.08433218315
 20
1459.428656532335
 30
0.0
 11
12588.08433218316
 21
1619.428656532335
 31
0.0
  0
CIRCLE
  5
20C22
330
747D
100
AcDbEntity
  8
部品1
 48
50.0
100
AcDbCircle
 10
12455.17931802974
 20
1469.428656532335
 30
0.0
 40
10.0
  0
TEXT
  5
20C23
330
747D
100
AcDbEntity
  8
部品1
 48
50.0
100
AcDbText
 10
10520.70800976653
 20
2017.423181104987
 30
0.0
 40
100.0
  1
M12×200(市販品)
  7
STYLE1
100
AcDbText
  0
LINE
  5
20C24
330
747D
100
AcDbEntity
  8
細線
100
AcDbLine
 10
12374.99022789918
 20
2365.780605545239
 30
0.0
 11
12415.17931802974
 21
2357.592052349236
 31
0.0
  0
LINE
  5
20C25
330
747D
100
AcDbEntity
  8
部品1
 48
50.0
100
AcDbLine
 10
12175.17931802974
 20
2399.428656532336
 30
0.0
 11
12415.17931802974
 21
2399.428656532336
 31
0.0
  0
LINE
  5
20C26
330
747D
100
AcDbEntity
  8
細線
 48
50.0
100
AcDbLine
 10
12324.62020211222
 20
2230.511616903611
 30
0.0
 11
12415.17931802974
 21
2321.070732821133
 31
0.0
  0
LINE
  5
20C27
330
747D
100
AcDbEntity
  8
細線
 48
50.0
100
AcDbLine
 10
12325.17931802974
 20
2197.394772367124
 30
0.0
 11
12415.17931802974
 21
2287.394772367123
 31
0.0
  0
LINE
  5
20C28
330
747D
100
AcDbEntity
  8
細線
 48
50.0
100
AcDbLine
 10
12325.17931802974
 20
1861.663049189058
 30
0.0
 11
12415.17931802974
 21
1951.663049189054
 31
0.0
  0
LINE
  5
20C29
330
747D
100
AcDbEntity
  8
細線
 48
50.0
100
AcDbLine
 10
12325.17931802974
 20
1895.33900964307
 30
0.0
 11
12415.17931802974
 21
1985.339009643069
 31
0.0
  0
LINE
  5
20C2A
330
747D
100
AcDbEntity
  8
細線
 48
50.0
100
AcDbLine
 10
12325.17931802975
 20
1827.987088735051
 30
0.0
 11
12415.17931802974
 21
1917.987088735047
 31
0.0
  0
LINE
  5
20C2B
330
747D
100
AcDbEntity
  8
細線
 48
50.0
100
AcDbLine
 10
12310.79484615783
 20
2250.36222140323
 30
0.0
 11
12415.17931802974
 21
2354.746693275142
 31
0.0
  0
TEXT
  5
20C2C
330
747D
100
AcDbEntity
  8
部品1
 48
50.0
100
AcDbText
 10
11817.35022013976
 20
1932.630590572965
 30
0.0
 40
100.0
  1
G.L
  7
STYLE1
100
AcDbText
  0
LINE
  5
20C2D
330
747D
100
AcDbEntity
  8
Ｇ．Ｌ
 48
50.0
100
AcDbLine
 10
11657.50444073854
 20
1923.264763670258
 30
0.0
 11
12175.17931802974
 21
1923.264763670258
 31
0.0
  0
LINE
  5
20C2E
330
747D
100
AcDbEntity
  8
部品1
 48
50.0
100
AcDbLine
 10
11815.25886476976
 20
2006.734888518677
 30
0.0
 11
11767.06736571924
 21
1923.264763670254
 31
0.0
  0
LINE
  5
20C2F
330
747D
100
AcDbEntity
  8
部品1
 48
50.0
100
AcDbLine
 10
11718.87586666871
 20
2006.734888518677
 30
0.0
 11
11767.06736571924
 21
1923.264763670254
 31
0.0
  0
LINE
  5
20C30
330
747D
100
AcDbEntity
  8
部品1
 48
50.0
100
AcDbLine
 10
11718.87586666871
 20
2006.734888518677
 30
0.0
 11
11815.25886476976
 21
2006.734888518677
 31
0.0
  0
LINE
  5
20C31
330
747D
100
AcDbEntity
  8
細線
 48
50.0
100
AcDbLine
 10
12175.17931802974
 20
1711.663049189058
 30
0.0
 11
12305.17931802974
 21
1841.663049189056
 31
0.0
  0
LINE
  5
20C32
330
747D
100
AcDbEntity
  8
細線
 48
50.0
100
AcDbLine
 10
12175.17931802974
 20
1745.339009643068
 30
0.0
 11
12305.17931802974
 21
1875.339009643068
 31
0.0
  0
LINE
  5
20C33
330
747D
100
AcDbEntity
  8
細線
 48
50.0
100
AcDbLine
 10
12175.17931802974
 20
2047.394772367124
 30
0.0
 11
12279.87222056636
 21
2152.087674903739
 31
0.0
  0
LINE
  5
20C34
330
747D
100
AcDbEntity
  8
細線
 48
50.0
100
AcDbLine
 10
12175.17931802974
 20
2081.070732821133
 30
0.0
 11
12265.17931802974
 21
2171.070732821133
 31
0.0
  0
LINE
  5
20C35
330
747D
100
AcDbEntity
  8
細線
 48
50.0
100
AcDbLine
 10
12175.17931802974
 20
2114.746693275142
 30
0.0
 11
12265.17931802974
 21
2204.746693275142
 31
0.0
  0
CIRCLE
  5
20C36
330
747D
100
AcDbEntity
  8
部品1
 48
50.0
100
AcDbCircle
 10
12295.17931802974
 20
2224.746693275142
 30
0.0
 40
10.0
  0
ARC
  5
20C37
330
747D
100
AcDbEntity
  8
部品1
 48
50.0
100
AcDbCircle
 10
12295.17931802974
 20
2224.746693275142
 30
0.0
 40
30.0
100
AcDbArc
 50
0.0
 51
180.0
  0
LINE
  5
20C38
330
747D
100
AcDbEntity
  8
部品1
 48
50.0
100
AcDbLine
 10
12285.17931802974
 20
2152.087674903739
 30
0.0
 11
12265.17931802974
 21
2152.087674903741
 31
0.0
  0
LINE
  5
20C39
330
747D
100
AcDbEntity
  8
細線
 48
50.0
100
AcDbLine
 10
12285.17931802974
 20
2157.394772367124
 30
0.0
 11
12305.17931802974
 21
2177.394772367124
 31
0.0
  0
LINE
  5
20C3A
330
747D
100
AcDbEntity
  8
部品1
 48
50.0
100
AcDbLine
 10
12285.17931802974
 20
2152.087674903739
 30
0.0
 11
12285.17931802974
 21
2224.746693275142
 31
0.0
  0
LINE
  5
20C3B
330
747D
100
AcDbEntity
  8
細線
 48
50.0
100
AcDbLine
 10
12285.17931802974
 20
2191.070732821133
 30
0.0
 11
12305.17931802974
 21
2211.070732821133
 31
0.0
  0
LINE
  5
20C3C
330
747D
100
AcDbEntity
  8
部品1
 48
50.0
100
AcDbLine
 10
12265.17931802974
 20
2152.087674903741
 30
0.0
 11
12265.17931802974
 21
2224.746693275144
 31
0.0
  0
LINE
  5
20C3D
330
747D
100
AcDbEntity
  8
細線
100
AcDbLine
 10
12175.17931802974
 20
2369.056038176375
 30
0.0
 11
12212.71764153577
 21
2359.229797046623
 31
0.0
  0
LINE
  5
20C3E
330
747D
100
AcDbEntity
  8
細線
 48
50.0
100
AcDbLine
 10
12175.17931802974
 20
2350.478416453208
 30
0.0
 11
12189.90283084105
 21
2365.201929264514
 31
0.0
  0
LINE
  5
20C3F
330
747D
100
AcDbEntity
  8
細線
 48
50.0
100
AcDbLine
 10
12175.17931802974
 20
2316.802455999198
 30
0.0
 11
12217.60665907717
 21
2359.229797046623
 31
0.0
  0
LINE
  5
20C40
330
747D
100
AcDbEntity
  8
細線
100
AcDbLine
 10
12289.75617058251
 20
2365.780605545239
 30
0.0
 11
12345.48615922095
 21
2367.418350242628
 31
0.0
  0
LINE
  5
20C41
330
747D
100
AcDbEntity
  8
細線
100
AcDbLine
 10
12212.71764153577
 20
2359.229797046623
 30
0.0
 11
12248.7782162832
 21
2359.229797046623
 31
0.0
  0
LINE
  5
20C42
330
747D
100
AcDbEntity
  8
細線
100
AcDbLine
 10
12248.7782162832
 20
2359.229797046623
 30
0.0
 11
12289.75617058251
 21
2365.780605545239
 31
0.0
  0
LINE
  5
20C43
330
747D
100
AcDbEntity
  8
細線
100
AcDbLine
 10
12345.48615922095
 20
2367.418350242628
 30
0.0
 11
12374.99022789918
 21
2365.780605545239
 31
0.0
  0
HATCH
  5
20C44
330
747D
100
AcDbEntity
  8
寸法
 62
     5
 48
50.0
100
AcDbHatch
 10
0.0
 20
0.0
 30
0.0
210
0.0
220
0.0
230
1.0
  2
PLAST
 70
     0
 71
     0
 91
        1
 92
        7
 72
     0
 73
     1
 93
        4
 10
12932.85419532094
 20
2173.264763670257
 10
12415.17931802974
 20
2173.264763670258
 10
12415.17931802974
 20
1943.264763670257
 10
12932.85419532094
 20
1943.264763670258
 97
        0
 75
     0
 76
     1
 52
315.0
 41
25.0
 77
     0
 78
     3
 53
315.0
 43
-572.1876457208745
 44
-3419.362333807072
 45
112.2532015133644
 46
112.2532015133644
 79
     0
 53
315.0
 43
-558.1559955317043
 44
-3405.330683617902
 45
112.2532015133644
 46
112.2532015133644
 79
     0
 53
315.0
 43
-544.1243453425331
 44
-3391.299033428731
 45
112.2532015133644
 46
112.2532015133644
 79
     0
 47
1.387886003246494
 98
        1
 10
12643.7298488557
 20
2109.95035070763
  0
LINE
  5
20C45
330
747D
100
AcDbEntity
  8
部品1
 48
50.0
100
AcDbLine
 10
12416.26414837304
 20
1743.264763670257
 30
0.0
 11
12932.85419532094
 21
1743.264763670257
 31
0.0
  0
LINE
  5
20C46
330
747D
100
AcDbEntity
  8
部品1
 48
50.0
100
AcDbLine
 10
12415.17931802974
 20
1903.264763670257
 30
0.0
 11
12932.85419532094
 21
1903.264763670257
 31
0.0
  0
LINE
  5
20C47
330
747D
100
AcDbEntity
  8
部品1
 48
50.0
100
AcDbLine
 10
12415.17931802974
 20
1943.264763670257
 30
0.0
 11
12932.85419532094
 21
1943.264763670257
 31
0.0
  0
LINE
  5
20C48
330
747D
100
AcDbEntity
  8
部品1
 48
50.0
100
AcDbLine
 10
12415.17931802974
 20
2173.264763670258
 30
0.0
 11
12932.85419532094
 21
2173.264763670258
 31
0.0
  0
LINE
  5
20C49
330
747D
100
AcDbEntity
  8
部品1
 48
50.0
100
AcDbLine
 10
12415.17931802974
 20
1923.264763670258
 30
0.0
 11
12932.85419532094
 21
1923.264763670258
 31
0.0
  0
LINE
  5
20C4A
330
747D
100
AcDbEntity
  8
細線
 48
50.0
100
AcDbLine
 10
12582.05049894624
 20
1873.264763670258
 30
0.0
 11
12574.0120231733
 21
1903.264763670257
 31
0.0
  0
LINE
  5
20C4B
330
747D
100
AcDbEntity
  8
細線
 48
50.0
100
AcDbLine
 10
12555.25557970313
 20
1773.264763670258
 30
0.0
 11
12563.29405547606
 21
1743.264763670257
 31
0.0
  0
LINE
  5
20C4C
330
747D
100
AcDbEntity
  8
細線
 48
50.0
100
AcDbLine
 10
12547.21710393019
 20
1743.264763670257
 30
0.0
 11
12590.08897471917
 21
1903.264763670257
 31
0.0
  0
LINE
  5
20C4D
330
747D
100
AcDbEntity
  8
細線
 48
50.0
100
AcDbLine
 10
12483.44044276218
 20
1873.264763670258
 30
0.0
 11
12475.40196698924
 21
1903.264763670257
 31
0.0
  0
LINE
  5
20C4E
330
747D
100
AcDbEntity
  8
細線
 48
50.0
100
AcDbLine
 10
12456.64552351906
 20
1773.264763670258
 30
0.0
 11
12464.683999292
 21
1743.264763670257
 31
0.0
  0
LINE
  5
20C4F
330
747D
100
AcDbEntity
  8
細線
 48
50.0
100
AcDbLine
 10
12448.60704774613
 20
1743.264763670257
 30
0.0
 11
12491.47891853511
 21
1903.264763670257
 31
0.0
  0
LINE
  5
20C50
330
747D
100
AcDbEntity
  8
細線
 48
50.0
100
AcDbLine
 10
12779.27061131436
 20
1873.264763670258
 30
0.0
 11
12771.23213554143
 21
1903.264763670257
 31
0.0
  0
LINE
  5
20C51
330
747D
100
AcDbEntity
  8
細線
 48
50.0
100
AcDbLine
 10
12752.47569207125
 20
1773.264763670258
 30
0.0
 11
12760.51416784418
 21
1743.264763670257
 31
0.0
  0
LINE
  5
20C52
330
747D
100
AcDbEntity
  8
細線
 48
50.0
100
AcDbLine
 10
12744.43721629831
 20
1743.264763670257
 30
0.0
 11
12787.30908708729
 21
1903.264763670257
 31
0.0
  0
LINE
  5
20C53
330
747D
100
AcDbEntity
  8
細線
 48
50.0
100
AcDbLine
 10
12680.6605551303
 20
1873.264763670258
 30
0.0
 11
12672.62207935736
 21
1903.264763670257
 31
0.0
  0
LINE
  5
20C54
330
747D
100
AcDbEntity
  8
細線
 48
50.0
100
AcDbLine
 10
12653.86563588719
 20
1773.264763670258
 30
0.0
 11
12661.90411166012
 21
1743.264763670257
 31
0.0
  0
LINE
  5
20C55
330
747D
100
AcDbEntity
  8
細線
 48
50.0
100
AcDbLine
 10
12645.82716011425
 20
1743.264763670257
 30
0.0
 11
12688.69903090323
 21
1903.264763670257
 31
0.0
  0
LINE
  5
20C56
330
747D
100
AcDbEntity
  8
細線
 48
50.0
100
AcDbLine
 10
12877.88066749842
 20
1873.264763670258
 30
0.0
 11
12869.84219172549
 21
1903.264763670257
 31
0.0
  0
LINE
  5
20C57
330
747D
100
AcDbEntity
  8
細線
 48
50.0
100
AcDbLine
 10
12851.08574825531
 20
1773.264763670258
 30
0.0
 11
12859.12422402824
 21
1743.264763670257
 31
0.0
  0
LINE
  5
20C58
330
747D
100
AcDbEntity
  8
細線
 48
50.0
100
AcDbLine
 10
12843.04727248237
 20
1743.264763670257
 30
0.0
 11
12885.91914327135
 21
1903.264763670257
 31
0.0
  0
ARC
  5
20D2A
330
747D
100
AcDbEntity
  8
細線
 48
50.0
100
AcDbCircle
 10
10439.55981322722
 20
3278.114620269677
 30
0.0
 40
80.0
100
AcDbArc
 50
0.0
 51
90.0
  0
ARC
  5
20D2B
330
747D
100
AcDbEntity
  8
細線
 48
50.0
100
AcDbCircle
 10
10439.55981322722
 20
3198.114620269676
 30
0.0
 40
80.0
100
AcDbArc
 50
270.0
 51
0.0
  0
ARC
  5
20D2C
330
747D
100
AcDbEntity
  8
細線
 48
50.0
100
AcDbCircle
 10
9590.270234679293
 20
3198.114620269676
 30
0.0
 40
80.0
100
AcDbArc
 50
180.0
 51
270.0
  0
LINE
  5
20D2D
330
747D
100
AcDbEntity
  8
細線
 48
50.0
100
AcDbLine
 10
10439.55981322722
 20
3118.114620269677
 30
0.0
 11
9590.270234679293
 21
3118.114620269677
 31
0.0
  0
TEXT
  5
20D2E
330
747D
100
AcDbEntity
  8
部品1
 48
50.0
100
AcDbText
 10
9611.019309610966
 20
3183.201402082743
 30
0.0
 40
112.0
  1
基礎詳細図
  7
STYLE2
100
AcDbText
  0
LINE
  5
20D2F
330
747D
100
AcDbEntity
  8
細線
 48
50.0
100
AcDbLine
 10
10439.55981322722
 20
3358.114620269676
 30
0.0
 11
9590.270234679293
 21
3358.114620269676
 31
0.0
  0
ARC
  5
20D30
330
747D
100
AcDbEntity
  8
細線
 48
50.0
100
AcDbCircle
 10
9590.270234679293
 20
3278.114620269677
 30
0.0
 40
80.0
100
AcDbArc
 50
90.0
 51
180.0
  0
LINE
  5
20D31
330
747D
100
AcDbEntity
  8
細線
 48
50.0
100
AcDbLine
 10
9510.270234679293
 20
3198.114620269676
 30
0.0
 11
9510.270234679293
 21
3278.114620269677
 31
0.0
  0
LINE
  5
20D32
330
747D
100
AcDbEntity
  8
細線
 48
50.0
100
AcDbLine
 10
10519.55981322722
 20
3278.114620269677
 30
0.0
 11
10519.55981322722
 21
3198.114620269676
 31
0.0
  0
LINE
  5
20D33
330
747D
100
AcDbEntity
  8
細線
 48
50.0
100
AcDbLine
 10
10519.55981322722
 20
3198.114620269676
 30
0.0
 11
10519.55981322722
 21
3198.114620269676
 31
0.0
  0
LINE
  5
20D34
330
747D
100
AcDbEntity
  8
細線
 48
50.0
100
AcDbLine
 10
10519.55981322722
 20
3238.114620269676
 30
0.0
 11
14076.20336259975
 21
3238.114620269676
 31
0.0
  0
LINE
  5
20D35
330
747D
100
AcDbEntity
  8
細線
 48
50.0
100
AcDbLine
 10
5953.626685306761
 20
3238.114620269676
 30
0.0
 11
9510.270234679293
 21
3238.114620269676
 31
0.0
  0
LINE
  5
20D36
330
747D
100
AcDbEntity
  8
細線
 48
50.0
100
AcDbLine
 10
5953.626685306761
 20
3238.114620269676
 30
0.0
 11
5953.626685306761
 21
332.4529470289176
 31
0.0
  0
LINE
  5
20D37
330
747D
100
AcDbEntity
  8
細線
 48
50.0
100
AcDbLine
 10
14076.20336259975
 20
3238.114620269676
 30
0.0
 11
14076.20336259975
 21
332.4529470289194
 31
0.0
  0
LINE
  5
20D38
330
747D
100
AcDbEntity
  8
細線
 48
50.0
100
AcDbLine
 10
5953.626685306761
 20
332.452947028918
 30
0.0
 11
14076.20336259976
 21
332.4529470289194
 31
0.0
  0
TEXT
  5
20D3A
330
747D
100
AcDbEntity
  8
部品1
 48
50.0
100
AcDbText
 10
7318.228897731995
 20
503.2286783338313
 30
0.0
 40
96.0
  1
基礎断面
  7
STYLE2
100
AcDbText
  0
LINE
  5
20D3B
330
747D
100
AcDbEntity
  8
部品1
 48
50.0
100
AcDbLine
 10
7916.038396387779
 20
632.0208921291595
 30
0.0
 11
7276.03839638778
 21
632.0208921291595
 31
0.0
  0
LINE
  5
20D3C
330
747D
100
AcDbEntity
  8
部品1
 48
50.0
100
AcDbLine
 10
7916.038396387779
 20
472.0208921291596
 30
0.0
 11
7276.03839638778
 21
472.0208921291596
 31
0.0
  0
LINE
  5
20D3D
330
747D
100
AcDbEntity
  8
部品1
 48
50.0
100
AcDbLine
 10
7276.03839638778
 20
632.0208921291595
 30
0.0
 11
7276.03839638778
 21
472.0208921291596
 31
0.0
  0
LINE
  5
20D3E
330
747D
100
AcDbEntity
  8
部品1
 48
50.0
100
AcDbLine
 10
7916.038396387779
 20
632.0208921291595
 30
0.0
 11
7916.038396387779
 21
472.0208921291596
 31
0.0
  0
TEXT
  5
20D3F
330
747D
100
AcDbEntity
  8
部品1
 48
50.0
100
AcDbText
 10
9661.95994928416
 20
506.0131838616562
 30
0.0
 40
96.0
  1
アンカー部詳細
  7
STYLE2
100
AcDbText
  0
LINE
  5
20D40
330
747D
100
AcDbEntity
  8
部品1
 48
50.0
100
AcDbLine
 10
10641.12728632415
 20
472.0208921291596
 30
0.0
 11
9600.357514145919
 21
472.0208921291596
 31
0.0
  0
LINE
  5
20D41
330
747D
100
AcDbEntity
  8
部品1
 48
50.0
100
AcDbLine
 10
10641.12728632415
 20
632.0208921291595
 30
0.0
 11
9600.357514145919
 21
632.0208921291595
 31
0.0
  0
LINE
  5
20D42
330
747D
100
AcDbEntity
  8
部品1
 48
50.0
100
AcDbLine
 10
9600.357514145919
 20
632.0208921291595
 30
0.0
 11
9600.357514145919
 21
472.0208921291596
 31
0.0
  0
LINE
  5
20D43
330
747D
100
AcDbEntity
  8
部品1
 48
50.0
100
AcDbLine
 10
10641.12728632415
 20
632.0208921291595
 30
0.0
 11
10641.12728632415
 21
472.0208921291596
 31
0.0
  0
TEXT
  5
20D44
330
747D
100
AcDbEntity
  8
部品1
 48
50.0
100
AcDbText
 10
11920.98974480591
 20
509.2642311430126
 30
0.0
 40
96.0
  1
床下湿気防止用基礎
  7
STYLE2
100
AcDbText
  0
LINE
  5
20D45
330
747D
100
AcDbEntity
  8
部品1
 48
50.0
100
AcDbLine
 10
13252.15694225536
 20
472.0208921291596
 30
0.0
 11
11860.84367325774
 21
472.0208921291596
 31
0.0
  0
LINE
  5
20D46
330
747D
100
AcDbEntity
  8
部品1
 48
50.0
100
AcDbLine
 10
13252.15694225536
 20
632.0208921291595
 30
0.0
 11
11860.84367325774
 21
632.0208921291595
 31
0.0
  0
LINE
  5
20D47
330
747D
100
AcDbEntity
  8
部品1
 48
50.0
100
AcDbLine
 10
11860.84367325774
 20
632.0208921291595
 30
0.0
 11
11860.84367325774
 21
472.0208921291596
 31
0.0
  0
LINE
  5
20D48
330
747D
100
AcDbEntity
  8
部品1
 48
50.0
100
AcDbLine
 10
13252.15694225536
 20
632.0208921291595
 30
0.0
 11
13252.15694225536
 21
472.0208921291596
 31
0.0
  0
LWPOLYLINE
  5
20D97
330
747D
100
AcDbEntity
  8
細線
 48
50.0
100
AcDbPolyline
 90
        4
 70
     1
 43
0.0
 10
9660.991662271889
 20
8202.310710222283
 10
9860.99166227189
 20
8202.310710222283
 10
9860.99166227189
 20
8602.310710222281
 10
9660.991662271889
 20
8602.310710222281
  0
LWPOLYLINE
  5
20D98
330
747D
100
AcDbEntity
  8
細線
 48
50.0
100
AcDbPolyline
 90
        4
 70
     1
 43
0.0
 10
10848.99166227188
 20
8202.310710222283
 10
11048.99166227188
 20
8202.310710222283
 10
11048.99166227188
 20
8602.310710222281
 10
10848.99166227188
 20
8602.310710222281
  0
LWPOLYLINE
  5
20D99
330
747D
100
AcDbEntity
  8
細線
 48
50.0
100
AcDbPolyline
 90
        4
 70
     1
 43
0.0
 10
10848.99166227188
 20
8737.310710222281
 10
11048.99166227188
 20
8737.310710222281
 10
11048.99166227188
 20
8937.310710222282
 10
10848.99166227188
 20
8937.310710222282
  0
LWPOLYLINE
  5
20D9A
330
747D
100
AcDbEntity
  8
部品1
 48
50.0
100
AcDbPolyline
 90
        4
 70
     1
 43
0.0
 10
10254.99166227189
 20
8447.310710222282
 10
10454.99166227189
 20
8447.310710222282
 10
10454.99166227189
 20
8647.310710222283
 10
10254.99166227189
 20
8647.310710222283
  0
LWPOLYLINE
  5
20D9B
330
747D
100
AcDbEntity
  8
細線
 48
50.0
100
AcDbPolyline
 90
        4
 70
     1
 43
0.0
 10
9660.991662271889
 20
8737.310710222281
 10
9860.99166227189
 20
8737.310710222281
 10
9860.99166227189
 20
8937.310710222282
 10
9660.991662271889
 20
8937.310710222282
  0
HATCH
  5
20DC2
330
747D
100
AcDbEntity
  8
部品1
 48
50.0
100
AcDbHatch
 10
0.0
 20
0.0
 30
0.0
210
0.0
220
0.0
230
1.0
  2
DOTS
 70
     0
 71
     0
 91
        4
 92
        7
 72
     0
 73
     1
 93
        4
 10
11048.99166227188
 20
8937.310710222282
 10
10948.99166227188
 20
8937.310710222282
 10
10948.99166227188
 20
8837.310710222281
 10
11048.99166227188
 20
8837.310710222281
 97
        0
 92
        7
 72
     0
 73
     1
 93
        4
 10
11048.99166227188
 20
8837.310710222281
 10
10948.99166227188
 20
8837.310710222281
 10
10948.99166227188
 20
8737.310710222281
 10
11048.99166227189
 20
8737.310710222281
 97
        0
 92
        7
 72
     0
 73
     1
 93
        4
 10
10948.99166227188
 20
8837.310710222281
 10
10848.99166227188
 20
8837.310710222281
 10
10848.99166227189
 20
8737.310710222281
 10
10948.99166227188
 20
8737.310710222281
 97
        0
 92
        7
 72
     0
 73
     1
 93
        4
 10
10948.99166227189
 20
8937.310710222282
 10
10848.99166227188
 20
8937.310710222282
 10
10848.99166227188
 20
8837.310710222281
 10
10948.99166227188
 20
8837.310710222281
 97
        0
 75
     0
 76
     1
 52
0.0
 41
10.0
 77
     0
 78
     1
 53
0.0
 43
0.0
 44
0.0
 45
7.9375
 46
15.875
 79
     2
 49
0.0
 49
-15.875
 47
2.459148893481854
 98
        4
 10
10997.41475491543
 20
8878.19597587107
 10
11007.25555357994
 20
8784.748309441198
 10
10876.86546903549
 20
8787.207452379716
 10
10903.92755049513
 20
8883.114261748097
  0
HATCH
  5
20DC3
330
747D
100
AcDbEntity
  8
部品1
 48
50.0
100
AcDbHatch
 10
0.0
 20
0.0
 30
0.0
210
0.0
220
0.0
230
1.0
  2
DOTS
 70
     0
 71
     0
 91
        1
 92
        1
 93
        4
 72
     1
 10
10848.99166227188
 20
8202.310710222283
 11
11048.99166227188
 21
8202.310710222283
 72
     1
 10
11048.99166227188
 20
8202.310710222283
 11
11048.99166227188
 21
8602.310710222281
 72
     1
 10
11048.99166227188
 20
8602.310710222281
 11
10848.99166227188
 21
8602.310710222281
 72
     1
 10
10848.99166227188
 20
8602.310710222281
 11
10848.99166227188
 21
8202.310710222283
 97
        0
 75
     0
 76
     1
 52
0.0
 41
10.0
 77
     0
 78
     1
 53
0.0
 43
0.0
 44
0.0
 45
7.9375
 46
15.875
 79
     2
 49
0.0
 49
-15.875
 98
        1
 10
0.0
 20
0.0
  0
HATCH
  5
20DC4
330
747D
100
AcDbEntity
  8
部品1
 48
50.0
100
AcDbHatch
 10
0.0
 20
0.0
 30
0.0
210
0.0
220
0.0
230
1.0
  2
DOTS
 70
     0
 71
     0
 91
        1
 92
        1
 93
        4
 72
     1
 10
9660.991662271889
 20
8737.310710222281
 11
9860.99166227189
 21
8737.310710222281
 72
     1
 10
9860.99166227189
 20
8737.310710222281
 11
9860.99166227189
 21
8937.310710222282
 72
     1
 10
9860.99166227189
 20
8937.310710222282
 11
9660.991662271889
 21
8937.310710222282
 72
     1
 10
9660.991662271889
 20
8937.310710222282
 11
9660.991662271889
 21
8737.310710222281
 97
        0
 75
     0
 76
     1
 52
0.0
 41
10.0
 77
     0
 78
     1
 53
0.0
 43
0.0
 44
0.0
 45
7.9375
 46
15.875
 79
     2
 49
0.0
 49
-15.875
 98
        1
 10
0.0
 20
0.0
  0
HATCH
  5
20DC5
330
747D
100
AcDbEntity
  8
部品1
 48
50.0
100
AcDbHatch
 10
0.0
 20
0.0
 30
0.0
210
0.0
220
0.0
230
1.0
  2
DOTS
 70
     0
 71
     0
 91
        1
 92
        1
 93
        4
 72
     1
 10
9660.991662271889
 20
8202.310710222283
 11
9860.99166227189
 21
8202.310710222283
 72
     1
 10
9860.99166227189
 20
8202.310710222283
 11
9860.99166227189
 21
8602.310710222281
 72
     1
 10
9860.99166227189
 20
8602.310710222281
 11
9660.991662271889
 21
8602.310710222281
 72
     1
 10
9660.991662271889
 20
8602.310710222281
 11
9660.991662271889
 21
8202.310710222283
 97
        0
 75
     0
 76
     1
 52
0.0
 41
10.0
 77
     0
 78
     1
 53
0.0
 43
0.0
 44
0.0
 45
7.9375
 46
15.875
 79
     2
 49
0.0
 49
-15.875
 98
        1
 10
0.0
 20
0.0
  0
ENDSEC
  0
SECTION
  2
OBJECTS
  0
DICTIONARY
  5
7471
330
0
100
AcDbDictionary
281
     1
  3
ACAD_COLOR
350
1D6B4
  3
ACAD_GROUP
350
7472
  3
ACAD_LAYOUT
350
1D6B5
  3
ACAD_MATERIAL
350
1D6B3
  3
ACAD_MLINESTYLE
350
7473
  3
ACAD_PLOTSETTINGS
350
1D6B6
  3
ACAD_PLOTSTYLENAME
350
1D6B1
  3
ACDBHEADERROUNDTRIPXREC
350
20E0E
  3
ACDBVARIABLEDICTIONARY
350
1152B
  3
CONTENTDICTIONARY
350
E71C
  3
DRAWINGVARIABLESDICT
350
F3B9
  0
DICTIONARY
  5
1E730
330
7467
100
AcDbDictionary
280
     1
281
     1
  3
ACAD_LAYERSTATES
360
1E731
  0
DICTIONARY
  5
1D6B4
102
{ACAD_REACTORS
330
7471
102
}
330
7471
100
AcDbDictionary
281
     1
  0
DICTIONARY
  5
7472
102
{ACAD_REACTORS
330
7471
102
}
330
7471
100
AcDbDictionary
281
     1
  0
DICTIONARY
  5
1D6B5
102
{ACAD_REACTORS
330
7471
102
}
330
7471
100
AcDbDictionary
281
     1
  3
Model
350
1D6B7
  3
レイアウト1
350
1D6B8
  0
DICTIONARY
  5
1D6B3
102
{ACAD_REACTORS
330
7471
102
}
330
7471
100
AcDbDictionary
281
     1
  0
DICTIONARY
  5
7473
102
{ACAD_REACTORS
330
7471
102
}
330
7471
100
AcDbDictionary
281
     1
  3
STANDARD
350
7480
  0
DICTIONARY
  5
1D6B6
102
{ACAD_REACTORS
330
7471
102
}
330
7471
100
AcDbDictionary
281
     1
  0
ACDBDICTIONARYWDFLT
  5
1D6B1
102
{ACAD_REACTORS
330
7471
102
}
330
7471
100
AcDbDictionary
281
     1
  3
Normal
350
1D6B2
100
AcDbDictionaryWithDefault
340
1D6B2
  0
DICTIONARY
  5
20E0E
102
{ACAD_REACTORS
330
7471
102
}
330
7471
100
AcDbDictionary
281
     1
  3
COLORDICT
350
20E10
  3
MATERIALDICT
350
20E0F
  0
DICTIONARY
  5
1152B
102
{ACAD_REACTORS
330
7471
102
}
330
7471
100
AcDbDictionary
281
     1
  3
DIMASSOC
350
1E139
  3
PROJECTNAME
350
1E13A
  3
SORTENTS
350
1152C
  0
DICTIONARY
  5
E71C
102
{ACAD_REACTORS
330
7471
102
}
330
7471
100
AcDbDictionary
281
     1
  0
DICTIONARY
  5
F3B9
102
{ACAD_REACTORS
330
7471
102
}
330
7471
100
AcDbDictionary
281
     1
1001
DRAWINGVARIABLESXDATA
1000
POLARMODE
1000
1
  0
DICTIONARY
  5
1E731
102
{ACAD_REACTORS
330
1E730
102
}
330
1E730
100
AcDbDictionary
281
     1
  0
LAYOUT
  5
1D6B7
102
{ACAD_XDICTIONARY
360
20E11
102
}
102
{ACAD_REACTORS
330
1D6B5
102
}
330
1D6B5
100
AcDbPlotSettings
  1

  2
クセロPDF
  4
A3
  6

 40
3.174999952316284
 41
3.174999952316284
 42
3.17498779296875
 43
3.17498779296875
 44
419.9466552734374
 45
296.9259948730469
 46
0.0
 47
0.0
 48
0.0
 49
0.0
140
0.0
141
0.0
142
1.0
143
50.0
 70
 11952
 72
     1
 73
     0
 74
     2
  7
inaba.ctb
 75
    25
147
0.02
148
0.0
149
0.0
100
AcDbLayout
  1
Model
 70
     1
 71
     0
 10
0.0
 20
0.0
 11
12.0
 21
9.0
 12
0.0
 22
0.0
 32
0.0
 14
0.0
 24
0.0
 34
0.0
 15
0.0
 25
0.0
 35
0.0
146
0.0
 13
0.0
 23
0.0
 33
0.0
 16
1.0
 26
0.0
 36
0.0
 17
0.0
 27
1.0
 37
0.0
 76
     0
330
747D
  0
LAYOUT
  5
1D6B8
102
{ACAD_XDICTIONARY
360
20E13
102
}
102
{ACAD_REACTORS
330
1D6B5
102
}
330
1D6B5
100
AcDbPlotSettings
  1

  2
EPSON LP-8300
  4

  6

 40
0.0
 41
0.0
 42
0.0
 43
0.0
 44
0.0
 45
0.0
 46
0.0
 47
0.0
 48
0.0
 49
0.0
140
0.0
141
0.0
142
1.0
143
1.0
 70
   688
 72
     0
 73
     0
 74
     5
  7
inaba.ctb
 75
    16
147
1.0
148
0.0
149
0.0
100
AcDbLayout
  1
レイアウト1
 70
     0
 71
     1
 10
0.0
 20
0.0
 11
420.0
 21
297.0
 12
0.0
 22
0.0
 32
0.0
 14
1.000000000000000E+20
 24
1.000000000000000E+20
 34
1.000000000000000E+20
 15
-1.000000000000000E+20
 25
-1.000000000000000E+20
 35
-1.000000000000000E+20
146
0.0
 13
0.0
 23
0.0
 33
0.0
 16
1.0
 26
0.0
 36
0.0
 17
0.0
 27
1.0
 37
0.0
 76
     0
330
747A
  0
MLINESTYLE
  5
7480
102
{ACAD_REACTORS
330
7473
102
}
330
7473
100
AcDbMlineStyle
  2
STANDARD
 70
     0
  3

 62
     0
 51
90.0
 52
90.0
 71
     2
 49
0.5
 62
   256
  6
BYLAYER
 49
-0.5
 62
   256
  6
BYLAYER
  0
ACDBPLACEHOLDER
  5
1D6B2
102
{ACAD_REACTORS
330
1D6B1
102
}
330
1D6B1
  0
XRECORD
  5
20E10
102
{ACAD_REACTORS
330
20E0E
102
}
330
20E0E
100
AcDbXrecord
280
     1
340
1D6B4
  0
XRECORD
  5
20E0F
102
{ACAD_REACTORS
330
20E0E
102
}
330
20E0E
100
AcDbXrecord
280
     1
340
1D6B3
  0
DICTIONARYVAR
  5
1E139
102
{ACAD_REACTORS
330
1152B
102
}
330
1152B
100
DictionaryVariables
280
     0
  1
1
  0
DICTIONARYVAR
  5
1E13A
102
{ACAD_REACTORS
330
1152B
102
}
330
1152B
100
DictionaryVariables
280
     0
  1

  0
DICTIONARYVAR
  5
1152C
102
{ACAD_REACTORS
330
1152B
102
}
330
1152B
100
DictionaryVariables
280
     0
  1
96
  0
DICTIONARY
  5
20E11
330
1D6B7
100
AcDbDictionary
280
     1
281
     1
  3
ACAD_XREC_ROUNDTRIP
360
20E12
  0
DICTIONARY
  5
20E13
330
1D6B8
100
AcDbDictionary
280
     1
281
     1
  3
ACAD_XREC_ROUNDTRIP
360
20E14
  0
XRECORD
  5
20E12
102
{ACAD_REACTORS
330
20E11
102
}
330
20E11
100
AcDbXrecord
280
     1
102
SHADEPLOT
 70
     0
102
SHADEPLOTRESLEVEL
 70
     2
102
SHADEPLOTCUSTOMDPI
 70
   150
  0
XRECORD
  5
20E14
102
{ACAD_REACTORS
330
20E13
102
}
330
20E13
100
AcDbXrecord
280
     1
102
SHADEPLOT
 70
     0
102
SHADEPLOTRESLEVEL
 70
     2
102
SHADEPLOTCUSTOMDPI
 70
   300
  0
ENDSEC
  0
EOF
