  0
SECTION
  2
HEADER
  9
$ACADVER
  1
AC1015
  9
$ACADMAINTVER
 70
    20
  9
$DWGCODEPAGE
  3
ANSI_932
  9
$INSBASE
 10
0.0
 20
0.0
 30
0.0
  9
$EXTMIN
 10
174.9999999999993
 20
-0.2045454545455682
 30
0.0
  9
$EXTMAX
 10
20385.73863636364
 20
14262.0
 30
0.0
  9
$LIMMIN
 10
0.0
 20
0.0
  9
$LIMMAX
 10
21000.0
 20
14850.0
  9
$ORTHOMODE
 70
     0
  9
$REGENMODE
 70
     1
  9
$FILLMODE
 70
     1
  9
$QTEXTMODE
 70
     0
  9
$MIRRTEXT
 70
     1
  9
$LTSCALE
 40
20.0
  9
$ATTMODE
 70
     1
  9
$TEXTSIZE
 40
100.0
  9
$TRACEWID
 40
1.0
  9
$TEXTSTYLE
  7
STYLE2
  9
$CLAYER
  8
寸法
  9
$CELTYPE
  6
BYLAYER
  9
$CECOLOR
 62
   256
  9
$CELTSCALE
 40
50.0
  9
$DISPSILH
 70
     0
  9
$DIMSCALE
 40
1.0
  9
$DIMASZ
 40
125.0
  9
$DIMEXO
 40
25.0
  9
$DIMDLI
 40
7.0
  9
$DIMRND
 40
0.0
  9
$DIMDLE
 40
0.0
  9
$DIMEXE
 40
75.0
  9
$DIMTP
 40
0.0
  9
$DIMTM
 40
0.0
  9
$DIMTXT
 40
150.0
  9
$DIMCEN
 40
0.0
  9
$DIMTSZ
 40
0.0
  9
$DIMTOL
 70
     0
  9
$DIMLIM
 70
     0
  9
$DIMTIH
 70
     0
  9
$DIMTOH
 70
     0
  9
$DIMSE1
 70
     0
  9
$DIMSE2
 70
     0
  9
$DIMTAD
 70
     3
  9
$DIMZIN
 70
     8
  9
$DIMBLK
  1

  9
$DIMASO
 70
     1
  9
$DIMSHO
 70
     1
  9
$DIMPOST
  1

  9
$DIMAPOST
  1

  9
$DIMALT
 70
     0
  9
$DIMALTD
 70
     2
  9
$DIMALTF
 40
0.0394
  9
$DIMLFAC
 40
1.0
  9
$DIMTOFL
 70
     1
  9
$DIMTVP
 40
0.0
  9
$DIMTIX
 70
     1
  9
$DIMSOXD
 70
     0
  9
$DIMSAH
 70
     1
  9
$DIMBLK1
  1
DOTSMALL
  9
$DIMBLK2
  1
DOTSMALL
  9
$DIMSTYLE
  2
INABA_S50G
  9
$DIMCLRD
 70
     0
  9
$DIMCLRE
 70
     0
  9
$DIMCLRT
 70
     7
  9
$DIMTFAC
 40
1.0
  9
$DIMGAP
 40
25.0
  9
$DIMJUST
 70
     0
  9
$DIMSD1
 70
     0
  9
$DIMSD2
 70
     0
  9
$DIMTOLJ
 70
     1
  9
$DIMTZIN
 70
     0
  9
$DIMALTZ
 70
     0
  9
$DIMALTTZ
 70
     0
  9
$DIMUPT
 70
     0
  9
$DIMDEC
 70
     1
  9
$DIMTDEC
 70
     4
  9
$DIMALTU
 70
     2
  9
$DIMALTTD
 70
     2
  9
$DIMTXSTY
  7
STYLE1
  9
$DIMAUNIT
 70
     0
  9
$DIMADEC
 70
     0
  9
$DIMALTRND
 40
0.0
  9
$DIMAZIN
 70
     0
  9
$DIMDSEP
 70
    46
  9
$DIMATFIT
 70
     3
  9
$DIMFRAC
 70
     0
  9
$DIMLDRBLK
  1

  9
$DIMLUNIT
 70
     2
  9
$DIMLWD
 70
    -2
  9
$DIMLWE
 70
    -2
  9
$DIMTMOVE
 70
     0
  9
$LUNITS
 70
     2
  9
$LUPREC
 70
     1
  9
$SKETCHINC
 40
1.0
  9
$FILLETRAD
 40
16.0
  9
$AUNITS
 70
     0
  9
$AUPREC
 70
     0
  9
$MENU
  1
acad
  9
$ELEVATION
 40
0.0
  9
$PELEVATION
 40
0.0
  9
$THICKNESS
 40
0.0
  9
$LIMCHECK
 70
     0
  9
$CHAMFERA
 40
0.0
  9
$CHAMFERB
 40
0.0
  9
$CHAMFERC
 40
0.0
  9
$CHAMFERD
 40
0.0
  9
$SKPOLY
 70
     0
  9
$TDCREATE
 40
2450927.380327778
  9
$TDUCREATE
 40
2450927.005327778
  9
$TDUPDATE
 40
2455827.765894954
  9
$TDUUPDATE
 40
2455827.390894953
  9
$TDINDWG
 40
2.4406352894
  9
$TDUSRTIMER
 40
2.4406352894
  9
$USRTIMER
 70
     1
  9
$ANGBASE
 50
0.0
  9
$ANGDIR
 70
     0
  9
$PDMODE
 70
     3
  9
$PDSIZE
 40
2.0
  9
$PLINEWID
 40
0.0
  9
$SPLFRAME
 70
     0
  9
$SPLINETYPE
 70
     6
  9
$SPLINESEGS
 70
     8
  9
$HANDSEED
  5
1ECCF
  9
$SURFTAB1
 70
     6
  9
$SURFTAB2
 70
     6
  9
$SURFTYPE
 70
     6
  9
$SURFU
 70
     6
  9
$SURFV
 70
     6
  9
$UCSBASE
  2

  9
$UCSNAME
  2

  9
$UCSORG
 10
0.0
 20
0.0
 30
0.0
  9
$UCSXDIR
 10
1.0
 20
0.0
 30
0.0
  9
$UCSYDIR
 10
0.0
 20
1.0
 30
0.0
  9
$UCSORTHOREF
  2

  9
$UCSORTHOVIEW
 70
     0
  9
$UCSORGTOP
 10
0.0
 20
0.0
 30
0.0
  9
$UCSORGBOTTOM
 10
0.0
 20
0.0
 30
0.0
  9
$UCSORGLEFT
 10
0.0
 20
0.0
 30
0.0
  9
$UCSORGRIGHT
 10
0.0
 20
0.0
 30
0.0
  9
$UCSORGFRONT
 10
0.0
 20
0.0
 30
0.0
  9
$UCSORGBACK
 10
0.0
 20
0.0
 30
0.0
  9
$PUCSBASE
  2

  9
$PUCSNAME
  2

  9
$PUCSORG
 10
0.0
 20
0.0
 30
0.0
  9
$PUCSXDIR
 10
1.0
 20
0.0
 30
0.0
  9
$PUCSYDIR
 10
0.0
 20
1.0
 30
0.0
  9
$PUCSORTHOREF
  2

  9
$PUCSORTHOVIEW
 70
     0
  9
$PUCSORGTOP
 10
0.0
 20
0.0
 30
0.0
  9
$PUCSORGBOTTOM
 10
0.0
 20
0.0
 30
0.0
  9
$PUCSORGLEFT
 10
0.0
 20
0.0
 30
0.0
  9
$PUCSORGRIGHT
 10
0.0
 20
0.0
 30
0.0
  9
$PUCSORGFRONT
 10
0.0
 20
0.0
 30
0.0
  9
$PUCSORGBACK
 10
0.0
 20
0.0
 30
0.0
  9
$USERI1
 70
     0
  9
$USERI2
 70
     0
  9
$USERI3
 70
     0
  9
$USERI4
 70
     0
  9
$USERI5
 70
     0
  9
$USERR1
 40
0.0
  9
$USERR2
 40
0.0
  9
$USERR3
 40
0.0
  9
$USERR4
 40
0.0
  9
$USERR5
 40
0.0
  9
$WORLDVIEW
 70
     1
  9
$SHADEDGE
 70
     3
  9
$SHADEDIF
 70
    70
  9
$TILEMODE
 70
     1
  9
$MAXACTVP
 70
    16
  9
$PINSBASE
 10
0.0
 20
0.0
 30
0.0
  9
$PLIMCHECK
 70
     0
  9
$PEXTMIN
 10
1.000000000000000E+20
 20
1.000000000000000E+20
 30
1.000000000000000E+20
  9
$PEXTMAX
 10
-1.000000000000000E+20
 20
-1.000000000000000E+20
 30
-1.000000000000000E+20
  9
$PLIMMIN
 10
0.0
 20
0.0
  9
$PLIMMAX
 10
420.0
 20
297.0
  9
$UNITMODE
 70
     0
  9
$VISRETAIN
 70
     0
  9
$PLINEGEN
 70
     0
  9
$PSLTSCALE
 70
     0
  9
$TREEDEPTH
 70
  3020
  9
$CMLSTYLE
  2
STANDARD
  9
$CMLJUST
 70
     0
  9
$CMLSCALE
 40
1.0
  9
$PROXYGRAPHICS
 70
     1
  9
$MEASUREMENT
 70
     1
  9
$CELWEIGHT
370
    -1
  9
$ENDCAPS
280
     0
  9
$JOINSTYLE
280
     0
  9
$LWDISPLAY
290
     0
  9
$INSUNITS
 70
     0
  9
$HYPERLINKBASE
  1

  9
$STYLESHEET
  1
inaba.ctb
  9
$XEDIT
290
     1
  9
$CEPSNTYPE
380
     0
  9
$PSTYLEMODE
290
     1
  9
$FINGERPRINTGUID
  2
{286F451B-49D6-4BB6-827D-4AA92722FF04}
  9
$VERSIONGUID
  2
{B6053EEA-F058-4277-BBDF-A84771EF4DB1}
  9
$EXTNAMES
290
     1
  9
$PSVPSCALE
 40
0.0
  9
$OLESTARTUP
290
     0
  0
ENDSEC
  0
SECTION
  2
CLASSES
  0
CLASS
  1
DICTIONARYVAR
  2
AcDbDictionaryVar
  3
ObjectDBX Classes
 90
        0
280
     0
281
     0
  0
CLASS
  1
ACDBDICTIONARYWDFLT
  2
AcDbDictionaryWithDefault
  3
ObjectDBX Classes
 90
        0
280
     0
281
     0
  0
CLASS
  1
ACDBPLACEHOLDER
  2
AcDbPlaceHolder
  3
ObjectDBX Classes
 90
        0
280
     0
281
     0
  0
CLASS
  1
LAYOUT
  2
AcDbLayout
  3
ObjectDBX Classes
 90
        0
280
     0
281
     0
  0
ENDSEC
  0
SECTION
  2
TABLES
  0
TABLE
  2
VPORT
  5
746D
330
0
100
AcDbSymbolTable
 70
     2
  0
VPORT
  5
1ECC7
330
746D
100
AcDbSymbolTableRecord
100
AcDbViewportTableRecord
  2
*Active
 70
     0
 10
0.0
 20
0.0
 11
1.0
 21
1.0
 12
10280.50236797484
 22
7130.942626588224
 13
0.0
 23
0.0
 14
10.0
 24
10.0
 15
10.0
 25
10.0
 16
0.0
 26
0.0
 36
1.0
 17
0.0
 27
0.0
 37
0.0
 40
14368.43002178787
 41
1.522222222222222
 42
50.0
 43
0.0
 44
0.0
 50
0.0
 51
0.0
 71
     0
 72
     0
 73
     1
 74
     0
 75
     0
 76
     0
 77
     0
 78
     0
281
     0
 65
     1
110
0.0
120
0.0
130
0.0
111
1.0
121
0.0
131
0.0
112
0.0
122
1.0
132
0.0
 79
     0
146
0.0
  0
ENDTAB
  0
TABLE
  2
LTYPE
  5
746A
330
0
100
AcDbSymbolTable
 70
     3
  0
LTYPE
  5
7477
330
746A
100
AcDbSymbolTableRecord
100
AcDbLinetypeTableRecord
  2
BYBLOCK
 70
     0
  3

 72
    65
 73
     0
 40
0.0
  0
LTYPE
  5
7478
330
746A
100
AcDbSymbolTableRecord
100
AcDbLinetypeTableRecord
  2
BYLAYER
 70
     0
  3

 72
    65
 73
     0
 40
0.0
  0
LTYPE
  5
7479
330
746A
100
AcDbSymbolTableRecord
100
AcDbLinetypeTableRecord
  2
CONTINUOUS
 70
     0
  3
Solid line
 72
    65
 73
     0
 40
0.0
  0
LTYPE
  5
7816
330
746A
100
AcDbSymbolTableRecord
100
AcDbLinetypeTableRecord
  2
CENTER
 70
     0
  3
____ _ ____ _ ____ _ ____ _ ____ _ ____ _ ____ 
 72
    65
 73
     4
 40
2.0
 49
1.25
 74
     0
 49
-0.25
 74
     0
 49
0.25
 74
     0
 49
-0.25
 74
     0
  0
LTYPE
  5
781B
330
746A
100
AcDbSymbolTableRecord
100
AcDbLinetypeTableRecord
  2
PHANTOM
 70
     0
  3
______  __  __  ______  __  __  ______  __  __ 
 72
    65
 73
     6
 40
2.5
 49
1.25
 74
     0
 49
-0.25
 74
     0
 49
0.25
 74
     0
 49
-0.25
 74
     0
 49
0.25
 74
     0
 49
-0.25
 74
     0
  0
ENDTAB
  0
TABLE
  2
LAYER
  5
7467
102
{ACAD_XDICTIONARY
360
1DF82
102
}
330
0
100
AcDbSymbolTable
 70
    11
  0
LAYER
  5
7474
330
7467
100
AcDbSymbolTableRecord
100
AcDbLayerTableRecord
  2
0
 70
     0
 62
     7
  6
CONTINUOUS
370
    -3
390
1C4CE
  0
LAYER
  5
DEB2
330
7467
100
AcDbSymbolTableRecord
100
AcDbLayerTableRecord
  2
センター
 70
     0
 62
     3
  6
CENTER
370
    -3
390
1C4CE
  0
LAYER
  5
DEB3
330
7467
100
AcDbSymbolTableRecord
100
AcDbLayerTableRecord
  2
寸法
 70
     0
 62
     4
  6
CONTINUOUS
370
    -3
390
1C4CE
  0
LAYER
  5
DEB4
330
7467
100
AcDbSymbolTableRecord
100
AcDbLayerTableRecord
  2
部品1
 70
     0
 62
     7
  6
CONTINUOUS
370
    -3
390
1C4CE
  0
LAYER
  5
DEB5
330
7467
100
AcDbSymbolTableRecord
100
AcDbLayerTableRecord
  2
補助
 70
     0
 62
    -1
  6
CONTINUOUS
370
    -3
390
1C4CE
  0
LAYER
  5
DEB6
330
7467
100
AcDbSymbolTableRecord
100
AcDbLayerTableRecord
  2
文字
 70
     0
 62
     7
  6
CONTINUOUS
370
    -3
390
1C4CE
  0
LAYER
  5
F255
330
7467
100
AcDbSymbolTableRecord
100
AcDbLayerTableRecord
  2
DEFPOINTS
 70
     0
 62
     7
  6
CONTINUOUS
290
     0
370
    -3
390
1C4CE
  0
LAYER
  5
10B54
330
7467
100
AcDbSymbolTableRecord
100
AcDbLayerTableRecord
  2
仕様書枠
 70
     0
 62
   230
  6
CONTINUOUS
370
    -3
390
1C4CE
  0
LAYER
  5
13F73
330
7467
100
AcDbSymbolTableRecord
100
AcDbLayerTableRecord
  2
細線
 70
     0
 62
     5
  6
CONTINUOUS
370
    -3
390
1C4CE
  0
LAYER
  5
1643F
330
7467
100
AcDbSymbolTableRecord
100
AcDbLayerTableRecord
  2
想像線
 70
     0
 62
     6
  6
PHANTOM
370
    -3
390
1C4CE
  0
LAYER
  5
17A5A
330
7467
100
AcDbSymbolTableRecord
100
AcDbLayerTableRecord
  2
Ｇ．Ｌ
 70
     0
 62
    30
  6
CONTINUOUS
370
    -3
390
1C4CE
  0
ENDTAB
  0
TABLE
  2
STYLE
  5
7468
330
0
100
AcDbSymbolTable
 70
     5
  0
STYLE
  5
7475
330
7468
100
AcDbSymbolTableRecord
100
AcDbTextStyleTableRecord
  2
STANDARD
 70
     0
 40
0.0
 41
1.0
 50
0.0
 71
     0
 42
4.0
  3
txt
  4
C:\AutoCAD LT\bigfont.shx
  0
STYLE
  5
763C
330
7468
100
AcDbSymbolTableRecord
100
AcDbTextStyleTableRecord
  2
MSMINCHO
 70
     0
 40
0.0
 41
1.0
 50
0.0
 71
     0
 42
1.199999999999999
  3
C:\AutoCAD LT\msminch2.TTF
  4

  0
STYLE
  5
F706
330
7468
100
AcDbSymbolTableRecord
100
AcDbTextStyleTableRecord
  2
STYLE1
 70
     0
 40
0.0
 41
1.0
 50
0.0
 71
     0
 42
150.0
  3
isocp.shx
  4
bigfont.shx
  0
STYLE
  5
103BF
330
7468
100
AcDbSymbolTableRecord
100
AcDbTextStyleTableRecord
  2
STYLE2
 70
     0
 40
0.0
 41
1.0
 50
0.0
 71
     0
 42
100.0
  3
MS PGothic.ttf
  4

1001
ACAD
1000
MS PGothic
1071
    32818
  0
STYLE
  5
1E221
330
7468
100
AcDbSymbolTableRecord
100
AcDbTextStyleTableRecord
  2
STYLE3
 70
     0
 40
0.0
 41
1.0
 50
0.0
 71
     0
 42
100.0
  3
DFPGothic-EB.ttf
  4

1001
ACAD
1000
DFPGothic-EB
1071
    32818
  0
ENDTAB
  0
TABLE
  2
VIEW
  5
746B
330
0
100
AcDbSymbolTable
 70
     0
  0
ENDTAB
  0
TABLE
  2
UCS
  5
746C
330
0
100
AcDbSymbolTable
 70
     0
  0
ENDTAB
  0
TABLE
  2
APPID
  5
746E
330
0
100
AcDbSymbolTable
 70
     6
  0
APPID
  5
7476
330
746E
100
AcDbSymbolTableRecord
100
AcDbRegAppTableRecord
  2
ACAD
 70
     0
  0
APPID
  5
DEA9
330
746E
100
AcDbSymbolTableRecord
100
AcDbRegAppTableRecord
  2
CONTENTBLOCKICON
 70
     0
  0
APPID
  5
DEAA
330
746E
100
AcDbSymbolTableRecord
100
AcDbRegAppTableRecord
  2
CONTENTBLOCKDESCRIPTION
 70
     0
  0
APPID
  5
E71D
330
746E
100
AcDbSymbolTableRecord
100
AcDbRegAppTableRecord
  2
CONTENTTABDATA
 70
     0
  0
APPID
  5
E71E
330
746E
100
AcDbSymbolTableRecord
100
AcDbRegAppTableRecord
  2
CONTENTCURRENTTAB
 70
     0
  0
APPID
  5
F3BA
330
746E
100
AcDbSymbolTableRecord
100
AcDbRegAppTableRecord
  2
DRAWINGVARIABLESXDATA
 70
     0
  0
ENDTAB
  0
TABLE
  2
DIMSTYLE
  5
746F
330
0
100
AcDbSymbolTable
 70
     3
100
AcDbDimStyleTable
 71
     1
340
F71F
  0
DIMSTYLE
105
F71F
102
{ACAD_REACTORS
330
1D266
330
1D268
330
1D26E
330
1D26F
330
1D271
330
1D272
330
1D273
330
1D274
330
1D385
330
1D386
330
1D387
330
1D388
330
1D391
330
1D392
330
1D393
330
1D39C
330
1D39D
330
1DF68
330
1DF75
330
1E03A
330
1E127
102
}
330
746F
100
AcDbSymbolTableRecord
100
AcDbDimStyleTableRecord
  2
INABA_S50G
 70
     0
 41
125.0
 42
25.0
 43
7.0
 44
75.0
 73
     0
 74
     0
 77
     3
 78
     8
140
150.0
141
0.0
143
0.0394
147
25.0
172
     1
173
     1
174
     1
178
     7
271
     1
340
F706
341
F770
343
F770
344
F770
  0
DIMSTYLE
105
1DA5D
102
{ACAD_REACTORS
330
1E9A5
330
1E9A7
330
1E9A8
330
1E9BA
330
1E9C3
330
1E9C4
330
1EAD0
102
}
330
746F
100
AcDbSymbolTableRecord
100
AcDbDimStyleTableRecord
  2
INABA_S50GUP
 70
     0
 41
125.0
 42
25.0
 43
7.0
 44
75.0
 73
     0
 74
     0
 77
     3
 78
     8
140
150.0
141
0.0
143
0.0394
147
25.0
172
     1
173
     1
174
     1
178
     7
271
     1
340
F706
341
F770
343
F770
344
F770
  0
DIMSTYLE
105
1E222
330
746F
100
AcDbSymbolTableRecord
100
AcDbDimStyleTableRecord
  2
INABA_S40G
 70
     0
 40
40.0
 41
2.5
 42
0.5
 43
7.0
 44
1.5
 73
     0
 74
     0
 77
     3
 78
     8
140
3.0
141
0.0
143
0.0394
147
1.0
172
     1
173
     1
174
     1
178
     7
271
     1
340
F706
341
F770
343
F770
344
F770
  0
ENDTAB
  0
TABLE
  2
BLOCK_RECORD
  5
7466
330
0
100
AcDbSymbolTable
 70
    29
  0
BLOCK_RECORD
  5
747D
330
7466
100
AcDbSymbolTableRecord
100
AcDbBlockTableRecord
  2
*MODEL_SPACE
340
1C4D3
  0
BLOCK_RECORD
  5
747A
330
7466
100
AcDbSymbolTableRecord
100
AcDbBlockTableRecord
  2
*PAPER_SPACE
340
1C4D4
  0
BLOCK_RECORD
  5
F770
330
7466
100
AcDbSymbolTableRecord
100
AcDbBlockTableRecord
  2
_DOTSMALL
340
0
102
{BLKREFS
331
1DDFF
331
1DE00
331
1DE08
331
1DE09
331
1DE12
331
1DE13
331
1DE1C
331
1DE1D
331
1DE26
331
1DE27
331
1DE30
331
1DE31
331
1DE3A
331
1DE3B
331
1DE43
331
1DE44
331
1DE4D
331
1DE4E
331
1DE57
331
1DE58
331
1DE5F
331
1DE60
331
1DE70
331
1DE71
331
1DF62
331
1DF63
331
1E0DF
331
1E0E0
331
1E104
331
1E105
331
1E116
331
1E117
331
1E120
331
1E121
331
1E143
331
1E144
331
1E14C
331
1E14D
331
1E1BA
331
1E1BB
331
1EC47
331
1EC48
331
1EC51
331
1EC52
331
1EC5A
331
1EC5B
331
1EC63
331
1EC64
331
1EC6C
331
1EC6D
331
1EC75
331
1EC76
331
1EC7E
331
1EC7F
331
1ECB3
331
1ECB4
102
}
  0
BLOCK_RECORD
  5
1D3A5
330
7466
100
AcDbSymbolTableRecord
100
AcDbBlockTableRecord
  2
*D1
340
0
  0
BLOCK_RECORD
  5
1D3C0
330
7466
100
AcDbSymbolTableRecord
100
AcDbBlockTableRecord
  2
*D2
340
0
  0
BLOCK_RECORD
  5
1D3CC
330
7466
100
AcDbSymbolTableRecord
100
AcDbBlockTableRecord
  2
*D3
340
0
  0
BLOCK_RECORD
  5
1D3D8
330
7466
100
AcDbSymbolTableRecord
100
AcDbBlockTableRecord
  2
*D4
340
0
  0
BLOCK_RECORD
  5
1D3E3
330
7466
100
AcDbSymbolTableRecord
100
AcDbBlockTableRecord
  2
*D5
340
0
  0
BLOCK_RECORD
  5
1D3EF
330
7466
100
AcDbSymbolTableRecord
100
AcDbBlockTableRecord
  2
*D6
340
0
  0
BLOCK_RECORD
  5
1D3FC
330
7466
100
AcDbSymbolTableRecord
100
AcDbBlockTableRecord
  2
*D7
340
0
  0
BLOCK_RECORD
  5
1D409
330
7466
100
AcDbSymbolTableRecord
100
AcDbBlockTableRecord
  2
*D8
340
0
  0
BLOCK_RECORD
  5
1D446
330
7466
100
AcDbSymbolTableRecord
100
AcDbBlockTableRecord
  2
*D9
340
0
  0
BLOCK_RECORD
  5
1D453
330
7466
100
AcDbSymbolTableRecord
100
AcDbBlockTableRecord
  2
*D10
340
0
  0
BLOCK_RECORD
  5
1D460
330
7466
100
AcDbSymbolTableRecord
100
AcDbBlockTableRecord
  2
*D11
340
0
  0
BLOCK_RECORD
  5
1D46D
330
7466
100
AcDbSymbolTableRecord
100
AcDbBlockTableRecord
  2
*D12
340
0
  0
BLOCK_RECORD
  5
1D47A
330
7466
100
AcDbSymbolTableRecord
100
AcDbBlockTableRecord
  2
*D13
340
0
  0
BLOCK_RECORD
  5
1D486
330
7466
100
AcDbSymbolTableRecord
100
AcDbBlockTableRecord
  2
*D14
340
0
  0
BLOCK_RECORD
  5
1D491
330
7466
100
AcDbSymbolTableRecord
100
AcDbBlockTableRecord
  2
*D15
340
0
  0
BLOCK_RECORD
  5
1D49E
330
7466
100
AcDbSymbolTableRecord
100
AcDbBlockTableRecord
  2
*D16
340
0
  0
BLOCK_RECORD
  5
1D4AB
330
7466
100
AcDbSymbolTableRecord
100
AcDbBlockTableRecord
  2
*D17
340
0
  0
BLOCK_RECORD
  5
1DF69
330
7466
100
AcDbSymbolTableRecord
100
AcDbBlockTableRecord
  2
*D18
340
0
  0
BLOCK_RECORD
  5
1DF76
330
7466
100
AcDbSymbolTableRecord
100
AcDbBlockTableRecord
  2
*D19
340
0
  0
BLOCK_RECORD
  5
1E03B
330
7466
100
AcDbSymbolTableRecord
100
AcDbBlockTableRecord
  2
*D20
340
0
  0
BLOCK_RECORD
  5
1E128
330
7466
100
AcDbSymbolTableRecord
100
AcDbBlockTableRecord
  2
*D21
340
0
  0
BLOCK_RECORD
  5
1EB95
330
7466
100
AcDbSymbolTableRecord
100
AcDbBlockTableRecord
  2
*D22
340
0
  0
BLOCK_RECORD
  5
1EBA1
330
7466
100
AcDbSymbolTableRecord
100
AcDbBlockTableRecord
  2
*D23
340
0
  0
BLOCK_RECORD
  5
1EBAD
330
7466
100
AcDbSymbolTableRecord
100
AcDbBlockTableRecord
  2
*D24
340
0
  0
BLOCK_RECORD
  5
1EBBA
330
7466
100
AcDbSymbolTableRecord
100
AcDbBlockTableRecord
  2
*D25
340
0
  0
BLOCK_RECORD
  5
1EBC6
330
7466
100
AcDbSymbolTableRecord
100
AcDbBlockTableRecord
  2
*D26
340
0
  0
BLOCK_RECORD
  5
1EBD2
330
7466
100
AcDbSymbolTableRecord
100
AcDbBlockTableRecord
  2
*D27
340
0
  0
BLOCK_RECORD
  5
1EBDE
330
7466
100
AcDbSymbolTableRecord
100
AcDbBlockTableRecord
  2
*D28
340
0
  0
ENDTAB
  0
ENDSEC
  0
SECTION
  2
BLOCKS
  0
BLOCK
  5
7489
330
747D
100
AcDbEntity
  8
0
100
AcDbBlockBegin
  2
*MODEL_SPACE
 70
     0
 10
0.0
 20
0.0
 30
0.0
  3
*MODEL_SPACE
  1

  0
ENDBLK
  5
748A
330
747D
100
AcDbEntity
  8
0
100
AcDbBlockEnd
  0
BLOCK
  5
7487
330
747A
100
AcDbEntity
 67
     1
  8
0
100
AcDbBlockBegin
  2
*PAPER_SPACE
 70
     0
 10
0.0
 20
0.0
 30
0.0
  3
*PAPER_SPACE
  1

  0
ENDBLK
  5
7488
330
747A
100
AcDbEntity
 67
     1
  8
0
100
AcDbBlockEnd
  0
BLOCK
  5
F771
330
F770
100
AcDbEntity
  8
0
 48
50.0
100
AcDbBlockBegin
  2
_DOTSMALL
 70
     0
 10
0.0
 20
0.0
 30
0.0
  3
_DOTSMALL
  1

  0
LWPOLYLINE
  5
F772
330
F770
100
AcDbEntity
  8
0
  6
ByBlock
 62
     0
 48
50.0
100
AcDbPolyline
 90
        2
 70
     1
 43
0.5
 10
-0.0625
 20
0.0
 42
1.0
 10
0.0625
 20
0.0
 42
1.0
  0
ENDBLK
  5
F776
330
F770
100
AcDbEntity
  8
0
 48
50.0
100
AcDbBlockEnd
  0
BLOCK
  5
1D3B0
330
1D3A5
100
AcDbEntity
  8
0
 48
50.0
100
AcDbBlockBegin
  2
*D1
 70
     1
 10
0.0
 20
0.0
 30
0.0
  3
*D1
  1

  0
LINE
  5
1DE49
330
1D3A5
100
AcDbEntity
  8
寸法
 62
     0
 48
50.0
370
    -2
100
AcDbLine
 10
10977.89549299051
 20
9221.481654622103
 30
0.0
 11
10839.78522911094
 21
9221.481654622103
 31
0.0
  0
LINE
  5
1DE4A
330
1D3A5
100
AcDbEntity
  8
寸法
 62
     0
 48
50.0
370
    -2
100
AcDbLine
 10
10977.89549299051
 20
9341.481654622098
 30
0.0
 11
10839.78522911094
 21
9341.481654622098
 31
0.0
  0
LINE
  5
1DE4B
330
1D3A5
100
AcDbEntity
  8
寸法
 62
     0
 48
50.0
370
    -2
100
AcDbLine
 10
10914.78522911094
 20
9221.481654622103
 30
0.0
 11
10914.78522911094
 21
9341.481654622098
 31
0.0
  0
LINE
  5
1DE4C
330
1D3A5
100
AcDbEntity
  8
寸法
 62
     0
 48
50.0
370
    -2
100
AcDbLine
 10
10914.78522911094
 20
9341.481654622098
 30
0.0
 11
10914.78522911094
 21
9756.599764858318
 31
0.0
  0
INSERT
  5
1DE4D
330
1D3A5
100
AcDbEntity
  8
寸法
 62
     0
 48
50.0
370
    -2
100
AcDbBlockReference
  2
_DOTSMALL
 10
10914.78522911094
 20
9221.481654622103
 30
0.0
 41
125.0
 42
125.0
 43
125.0
 50
270.0
  0
INSERT
  5
1DE4E
330
1D3A5
100
AcDbEntity
  8
寸法
 62
     0
 48
50.0
370
    -2
100
AcDbBlockReference
  2
_DOTSMALL
 10
10914.78522911094
 20
9341.481654622098
 30
0.0
 41
125.0
 42
125.0
 43
125.0
 50
90.0
  0
MTEXT
  5
1DE4F
330
1D3A5
100
AcDbEntity
  8
寸法
 62
     7
 48
50.0
100
AcDbMText
 10
10814.77046533141
 20
9611.540709740211
 30
0.0
 40
150.0
 41
0.0
 71
     5
 72
     1
  1
\A1;120
  7
STYLE1
 11
0.0000000000000001
 21
1.0
 31
0.0
 73
     1
 44
1.0
1001
ACAD
1000
MTEXTBEGIN
1070
    73
1070
     1
1070
    44
1040
1.0
1070
    74
1070
     0
1000
MTEXTEND
  0
POINT
  5
1DE50
330
1D3A5
100
AcDbEntity
  8
DEFPOINTS
 62
     0
 48
50.0
100
AcDbPoint
 10
11002.89549299051
 20
9221.481654622103
 30
0.0
  0
POINT
  5
1DE51
330
1D3A5
100
AcDbEntity
  8
DEFPOINTS
 62
     0
 48
50.0
100
AcDbPoint
 10
11002.89549299051
 20
9341.481654622098
 30
0.0
  0
POINT
  5
1DE52
330
1D3A5
100
AcDbEntity
  8
DEFPOINTS
 62
     0
 48
50.0
100
AcDbPoint
 10
10914.78522911094
 20
9341.481654622098
 30
0.0
  0
ENDBLK
  5
1D3B1
330
1D3A5
100
AcDbEntity
  8
0
 48
50.0
100
AcDbBlockEnd
  0
BLOCK
  5
1D3CA
330
1D3C0
100
AcDbEntity
  8
0
 48
50.0
100
AcDbBlockBegin
  2
*D2
 70
     1
 10
0.0
 20
0.0
 30
0.0
  3
*D2
  1

  0
LINE
  5
1DE40
330
1D3C0
100
AcDbEntity
  8
寸法
 62
     0
 48
50.0
370
    -2
100
AcDbLine
 10
10357.89549299051
 20
9146.481654622098
 30
0.0
 11
10357.89549299051
 21
10048.74480435227
 31
0.0
  0
LINE
  5
1DE41
330
1D3C0
100
AcDbEntity
  8
寸法
 62
     0
 48
50.0
370
    -2
100
AcDbLine
 10
11302.89549299051
 20
9366.481654622097
 30
0.0
 11
11302.89549299051
 21
10048.74480435227
 31
0.0
  0
LINE
  5
1DE42
330
1D3C0
100
AcDbEntity
  8
寸法
 62
     0
 48
50.0
370
    -2
100
AcDbLine
 10
10357.89549299051
 20
9973.744804352275
 30
0.0
 11
11302.89549299051
 21
9973.744804352275
 31
0.0
  0
INSERT
  5
1DE43
330
1D3C0
100
AcDbEntity
  8
寸法
 62
     0
 48
50.0
370
    -2
100
AcDbBlockReference
  2
_DOTSMALL
 10
10357.89549299051
 20
9973.744804352275
 30
0.0
 41
125.0
 42
125.0
 43
125.0
 50
180.0
  0
INSERT
  5
1DE44
330
1D3C0
100
AcDbEntity
  8
寸法
 62
     0
 48
50.0
370
    -2
100
AcDbBlockReference
  2
_DOTSMALL
 10
11302.89549299051
 20
9973.744804352275
 30
0.0
 41
125.0
 42
125.0
 43
125.0
  0
MTEXT
  5
1DE45
330
1D3C0
100
AcDbEntity
  8
寸法
 62
     7
 48
50.0
100
AcDbMText
 10
10830.39549299051
 20
10073.74480435227
 30
0.0
 40
150.0
 41
0.0
 71
     5
 72
     1
  1
\A1;945
  7
STYLE1
 73
     1
 44
1.0
1001
ACAD
1000
MTEXTBEGIN
1070
    73
1070
     1
1070
    44
1040
1.0
1070
    74
1070
     0
1000
MTEXTEND
  0
POINT
  5
1DE46
330
1D3C0
100
AcDbEntity
  8
DEFPOINTS
 62
     0
 48
50.0
100
AcDbPoint
 10
10357.89549299051
 20
9121.481654622098
 30
0.0
  0
POINT
  5
1DE47
330
1D3C0
100
AcDbEntity
  8
DEFPOINTS
 62
     0
 48
50.0
100
AcDbPoint
 10
11302.89549299051
 20
9341.481654622098
 30
0.0
  0
POINT
  5
1DE48
330
1D3C0
100
AcDbEntity
  8
DEFPOINTS
 62
     0
 48
50.0
100
AcDbPoint
 10
11302.89549299051
 20
9973.744804352275
 30
0.0
  0
ENDBLK
  5
1D3CB
330
1D3C0
100
AcDbEntity
  8
0
 48
50.0
100
AcDbBlockEnd
  0
BLOCK
  5
1D3D6
330
1D3CC
100
AcDbEntity
  8
0
 48
50.0
100
AcDbBlockBegin
  2
*D3
 70
     1
 10
0.0
 20
0.0
 30
0.0
  3
*D3
  1

  0
LINE
  5
1E113
330
1D3CC
100
AcDbEntity
  8
寸法
 62
     0
 48
50.0
370
    -2
100
AcDbLine
 10
9412.895492990509
 20
7941.481654622098
 30
0.0
 11
9412.895492990509
 21
7025.481654622097
 31
0.0
  0
LINE
  5
1E114
330
1D3CC
100
AcDbEntity
  8
寸法
 62
     0
 48
50.0
370
    -2
100
AcDbLine
 10
11302.89549299051
 20
8006.481654622094
 30
0.0
 11
11302.89549299051
 21
7025.481654622097
 31
0.0
  0
LINE
  5
1E115
330
1D3CC
100
AcDbEntity
  8
寸法
 62
     0
 48
50.0
370
    -2
100
AcDbLine
 10
9412.895492990509
 20
7100.481654622098
 30
0.0
 11
11302.89549299051
 21
7100.481654622098
 31
0.0
  0
INSERT
  5
1E116
330
1D3CC
100
AcDbEntity
  8
寸法
 62
     0
 48
50.0
370
    -2
100
AcDbBlockReference
  2
_DOTSMALL
 10
9412.895492990509
 20
7100.481654622098
 30
0.0
 41
125.0
 42
125.0
 43
125.0
 50
180.0
  0
INSERT
  5
1E117
330
1D3CC
100
AcDbEntity
  8
寸法
 62
     0
 48
50.0
370
    -2
100
AcDbBlockReference
  2
_DOTSMALL
 10
11302.89549299051
 20
7100.481654622098
 30
0.0
 41
125.0
 42
125.0
 43
125.0
  0
MTEXT
  5
1E118
330
1D3CC
100
AcDbEntity
  8
寸法
 62
     7
 48
50.0
100
AcDbMText
 10
10357.89549299051
 20
7200.481654622098
 30
0.0
 40
150.0
 41
0.0
 71
     5
 72
     1
  1
\A1;1890
  7
STYLE1
 73
     1
 44
1.0
1001
ACAD
1000
MTEXTBEGIN
1070
    73
1070
     1
1070
    44
1040
1.0
1070
    74
1070
     0
1000
MTEXTEND
  0
POINT
  5
1E119
330
1D3CC
100
AcDbEntity
  8
DEFPOINTS
 62
     0
 48
50.0
100
AcDbPoint
 10
9412.895492990509
 20
7966.481654622097
 30
0.0
  0
POINT
  5
1E11A
330
1D3CC
100
AcDbEntity
  8
DEFPOINTS
 62
     0
 48
50.0
100
AcDbPoint
 10
11302.89549299051
 20
8031.481654622094
 30
0.0
  0
POINT
  5
1E11B
330
1D3CC
100
AcDbEntity
  8
DEFPOINTS
 62
     0
 48
50.0
100
AcDbPoint
 10
11302.89549299051
 20
7100.481654622098
 30
0.0
  0
ENDBLK
  5
1D3D7
330
1D3CC
100
AcDbEntity
  8
0
 48
50.0
100
AcDbBlockEnd
  0
BLOCK
  5
1D3E1
330
1D3D8
100
AcDbEntity
  8
0
 48
50.0
100
AcDbBlockBegin
  2
*D4
 70
     1
 10
0.0
 20
0.0
 30
0.0
  3
*D4
  1

  0
LINE
  5
1DE6E
330
1D3D8
100
AcDbEntity
  8
寸法
 62
     0
 48
50.0
370
    -2
100
AcDbLine
 10
11237.89549299051
 20
7926.481654622097
 30
0.0
 11
11237.89549299051
 21
7337.014598377169
 31
0.0
  0
LINE
  5
1DE6F
330
1D3D8
100
AcDbEntity
  8
寸法
 62
     0
 48
50.0
370
    -2
100
AcDbLine
 10
9477.895492990509
 20
7412.014598377169
 30
0.0
 11
11237.89549299051
 21
7412.014598377169
 31
0.0
  0
INSERT
  5
1DE70
330
1D3D8
100
AcDbEntity
  8
寸法
 62
     0
 48
50.0
370
    -2
100
AcDbBlockReference
  2
_DOTSMALL
 10
9477.895492990509
 20
7412.014598377169
 30
0.0
 41
125.0
 42
125.0
 43
125.0
 50
180.0
  0
INSERT
  5
1DE71
330
1D3D8
100
AcDbEntity
  8
寸法
 62
     0
 48
50.0
370
    -2
100
AcDbBlockReference
  2
_DOTSMALL
 10
11237.89549299051
 20
7412.014598377169
 30
0.0
 41
125.0
 42
125.0
 43
125.0
  0
MTEXT
  5
1DE72
330
1D3D8
100
AcDbEntity
  8
寸法
 62
     7
 48
50.0
100
AcDbMText
 10
10357.89549299051
 20
7512.014598377169
 30
0.0
 40
150.0
 41
0.0
 71
     5
 72
     1
  1
\A1;1760
  7
STYLE1
 73
     1
 44
1.0
1001
ACAD
1000
MTEXTBEGIN
1070
    73
1070
     1
1070
    44
1040
1.0
1070
    74
1070
     0
1000
MTEXTEND
  0
POINT
  5
1DE73
330
1D3D8
100
AcDbEntity
  8
DEFPOINTS
 62
     0
 48
50.0
100
AcDbPoint
 10
9477.895492990509
 20
7951.481654622097
 30
0.0
  0
POINT
  5
1DE74
330
1D3D8
100
AcDbEntity
  8
DEFPOINTS
 62
     0
 48
50.0
100
AcDbPoint
 10
11237.89549299051
 20
7951.481654622097
 30
0.0
  0
POINT
  5
1DE75
330
1D3D8
100
AcDbEntity
  8
DEFPOINTS
 62
     0
 48
50.0
100
AcDbPoint
 10
11237.89549299051
 20
7412.014598377169
 30
0.0
  0
ENDBLK
  5
1D3E2
330
1D3D8
100
AcDbEntity
  8
0
 48
50.0
100
AcDbBlockEnd
  0
BLOCK
  5
1D3ED
330
1D3E3
100
AcDbEntity
  8
0
 48
50.0
100
AcDbBlockBegin
  2
*D5
 70
     1
 10
0.0
 20
0.0
 30
0.0
  3
*D5
  1

  0
LINE
  5
1ECB0
330
1D3E3
100
AcDbEntity
  8
寸法
 62
     0
 48
50.0
370
    -2
100
AcDbLine
 10
9427.602965244508
 20
7946.265565487505
 30
0.0
 11
9698.668559630077
 21
7573.673584841161
 31
0.0
  0
LINE
  5
1ECB1
330
1D3E3
100
AcDbEntity
  8
寸法
 62
     0
 48
50.0
370
    -2
100
AcDbLine
 10
11317.60296524451
 20
9321.265565487506
 30
0.0
 11
11588.66855963007
 21
8948.673584841163
 31
0.0
  0
LINE
  5
1ECB2
330
1D3E3
100
AcDbEntity
  8
寸法
 62
     0
 48
50.0
370
    -2
100
AcDbLine
 10
9654.546142868071
 20
7634.321852244937
 30
0.0
 11
11544.54614286807
 21
9009.321852244939
 31
0.0
  0
INSERT
  5
1ECB3
330
1D3E3
100
AcDbEntity
  8
寸法
 62
     0
 48
50.0
370
    -2
100
AcDbBlockReference
  2
_DOTSMALL
 10
9654.546142868071
 20
7634.321852244937
 30
0.0
 41
125.0
 42
125.0
 43
125.0
 50
216.0363849892308
  0
INSERT
  5
1ECB4
330
1D3E3
100
AcDbEntity
  8
寸法
 62
     0
 48
50.0
370
    -2
100
AcDbBlockReference
  2
_DOTSMALL
 10
11544.54614286807
 20
9009.321852244939
 30
0.0
 41
125.0
 42
125.0
 43
125.0
 50
36.03638498923079
  0
MTEXT
  5
1ECB5
330
1D3E3
100
AcDbEntity
  8
寸法
 62
     7
 48
50.0
100
AcDbMText
 10
10802.26483641082
 20
8592.984519694585
 30
0.0
 40
150.0
 41
0.0
 71
     5
 72
     1
  1
\A1;2337.2
  7
STYLE1
 11
0.8086435653836732
 21
0.5882988901600797
 31
0.0
 73
     1
 44
1.0
1001
ACAD
1000
MTEXTBEGIN
1070
    73
1070
     1
1070
    44
1040
1.0
1070
    74
1070
     0
1000
MTEXTEND
  0
POINT
  5
1ECB6
330
1D3E3
100
AcDbEntity
  8
DEFPOINTS
 62
     0
 48
50.0
100
AcDbPoint
 10
9412.895492990505
 20
7966.481654622096
 30
0.0
  0
POINT
  5
1ECB7
330
1D3E3
100
AcDbEntity
  8
DEFPOINTS
 62
     0
 48
50.0
100
AcDbPoint
 10
11302.89549299051
 20
9341.481654622098
 30
0.0
  0
POINT
  5
1ECB8
330
1D3E3
100
AcDbEntity
  8
DEFPOINTS
 62
     0
 48
50.0
100
AcDbPoint
 10
11544.54614286807
 20
9009.321852244939
 30
0.0
  0
ENDBLK
  5
1D3EE
330
1D3E3
100
AcDbEntity
  8
0
 48
50.0
100
AcDbBlockEnd
  0
BLOCK
  5
1D3FA
330
1D3EF
100
AcDbEntity
  8
0
 48
50.0
100
AcDbBlockBegin
  2
*D6
 70
     1
 10
0.0
 20
0.0
 30
0.0
  3
*D6
  1

  0
LINE
  5
1E11C
330
1D3EF
100
AcDbEntity
  8
寸法
 62
     0
 48
50.0
370
    -2
100
AcDbLine
 10
9412.895492990509
 20
7941.481654622098
 30
0.0
 11
9412.895492990509
 21
7337.014598377169
 31
0.0
  0
LINE
  5
1E11D
330
1D3EF
100
AcDbEntity
  8
寸法
 62
     0
 48
50.0
370
    -2
100
AcDbLine
 10
9477.895492990509
 20
7926.481654622097
 30
0.0
 11
9477.895492990509
 21
7337.014598377169
 31
0.0
  0
LINE
  5
1E11E
330
1D3EF
100
AcDbEntity
  8
寸法
 62
     0
 48
50.0
370
    -2
100
AcDbLine
 10
9477.895492990509
 20
7412.014598377169
 30
0.0
 11
9412.895492990509
 21
7412.014598377169
 31
0.0
  0
LINE
  5
1E11F
330
1D3EF
100
AcDbEntity
  8
寸法
 62
     0
 48
50.0
370
    -2
100
AcDbLine
 10
9412.895492990509
 20
7412.014598377169
 30
0.0
 11
9024.694100578534
 21
7412.014598377169
 31
0.0
  0
INSERT
  5
1E120
330
1D3EF
100
AcDbEntity
  8
寸法
 62
     0
 48
50.0
370
    -2
100
AcDbBlockReference
  2
_DOTSMALL
 10
9477.895492990509
 20
7412.014598377169
 30
0.0
 41
125.0
 42
125.0
 43
125.0
  0
INSERT
  5
1E121
330
1D3EF
100
AcDbEntity
  8
寸法
 62
     0
 48
50.0
370
    -2
100
AcDbBlockReference
  2
_DOTSMALL
 10
9412.895492990509
 20
7412.014598377169
 30
0.0
 41
125.0
 42
125.0
 43
125.0
 50
180.0
  0
MTEXT
  5
1E122
330
1D3EF
100
AcDbEntity
  8
寸法
 62
     7
 48
50.0
100
AcDbMText
 10
9139.788891272711
 20
7512.014598377169
 30
0.0
 40
150.0
 41
0.0
 71
     5
 72
     1
  1
\A1;65
  7
STYLE1
 73
     1
 44
1.0
1001
ACAD
1000
MTEXTBEGIN
1070
    73
1070
     1
1070
    44
1040
1.0
1070
    74
1070
     0
1000
MTEXTEND
  0
POINT
  5
1E123
330
1D3EF
100
AcDbEntity
  8
DEFPOINTS
 62
     0
 48
50.0
100
AcDbPoint
 10
9412.895492990509
 20
7966.481654622097
 30
0.0
  0
POINT
  5
1E124
330
1D3EF
100
AcDbEntity
  8
DEFPOINTS
 62
     0
 48
50.0
100
AcDbPoint
 10
9477.895492990509
 20
7951.481654622097
 30
0.0
  0
POINT
  5
1E125
330
1D3EF
100
AcDbEntity
  8
DEFPOINTS
 62
     0
 48
50.0
100
AcDbPoint
 10
9477.895492990509
 20
7412.014598377169
 30
0.0
  0
ENDBLK
  5
1D3FB
330
1D3EF
100
AcDbEntity
  8
0
 48
50.0
100
AcDbBlockEnd
  0
BLOCK
  5
1D407
330
1D3FC
100
AcDbEntity
  8
0
 48
50.0
100
AcDbBlockBegin
  2
*D7
 70
     1
 10
0.0
 20
0.0
 30
0.0
  3
*D7
  1

  0
LINE
  5
1E100
330
1D3FC
100
AcDbEntity
  8
寸法
 62
     0
 48
50.0
370
    -2
100
AcDbLine
 10
9362.895492990508
 20
7387.014598377169
 30
0.0
 11
9362.895492990508
 21
7025.481654622097
 31
0.0
  0
LINE
  5
1E101
330
1D3FC
100
AcDbEntity
  8
寸法
 62
     0
 48
50.0
370
    -2
100
AcDbLine
 10
9412.895492990509
 20
7941.481654622098
 30
0.0
 11
9412.895492990509
 21
7025.481654622097
 31
0.0
  0
LINE
  5
1E102
330
1D3FC
100
AcDbEntity
  8
寸法
 62
     0
 48
50.0
370
    -2
100
AcDbLine
 10
9412.895492990509
 20
7100.481654622098
 30
0.0
 11
9362.895492990508
 21
7100.481654622098
 31
0.0
  0
LINE
  5
1E103
330
1D3FC
100
AcDbEntity
  8
寸法
 62
     0
 48
50.0
370
    -2
100
AcDbLine
 10
9362.895492990508
 20
7100.481654622098
 30
0.0
 11
8902.013603226729
 21
7100.481654622098
 31
0.0
  0
INSERT
  5
1E104
330
1D3FC
100
AcDbEntity
  8
寸法
 62
     0
 48
50.0
370
    -2
100
AcDbBlockReference
  2
_DOTSMALL
 10
9412.895492990509
 20
7100.481654622098
 30
0.0
 41
125.0
 42
125.0
 43
125.0
  0
INSERT
  5
1E105
330
1D3FC
100
AcDbEntity
  8
寸法
 62
     0
 48
50.0
370
    -2
100
AcDbBlockReference
  2
_DOTSMALL
 10
9362.895492990508
 20
7100.481654622098
 30
0.0
 41
125.0
 42
125.0
 43
125.0
 50
180.0
  0
MTEXT
  5
1E106
330
1D3FC
100
AcDbEntity
  8
寸法
 62
     7
 48
50.0
100
AcDbMText
 10
9069.45454810862
 20
7207.981654622097
 30
0.0
 40
150.0
 41
0.0
 71
     5
 72
     1
  1
\A1;(50)
  7
STYLE1
 73
     1
 44
1.0
1001
ACAD
1000
MTEXTBEGIN
1070
    73
1070
     1
1070
    44
1040
1.0
1070
    74
1070
     0
1000
MTEXTEND
  0
POINT
  5
1E107
330
1D3FC
100
AcDbEntity
  8
DEFPOINTS
 62
     0
 48
50.0
100
AcDbPoint
 10
9362.895492990508
 20
7412.014598377169
 30
0.0
  0
POINT
  5
1E108
330
1D3FC
100
AcDbEntity
  8
DEFPOINTS
 62
     0
 48
50.0
100
AcDbPoint
 10
9412.895492990509
 20
7966.481654622097
 30
0.0
  0
POINT
  5
1E109
330
1D3FC
100
AcDbEntity
  8
DEFPOINTS
 62
     0
 48
50.0
100
AcDbPoint
 10
9412.895492990509
 20
7100.481654622098
 30
0.0
  0
ENDBLK
  5
1D408
330
1D3FC
100
AcDbEntity
  8
0
 48
50.0
100
AcDbBlockEnd
  0
BLOCK
  5
1D413
330
1D409
100
AcDbEntity
  8
0
 48
50.0
100
AcDbBlockBegin
  2
*D8
 70
     1
 10
0.0
 20
0.0
 30
0.0
  3
*D8
  1

  0
LINE
  5
1DF5F
330
1D409
100
AcDbEntity
  8
寸法
 62
     0
 48
50.0
370
    -2
100
AcDbLine
 10
9412.895492990509
 20
9366.481654622097
 30
0.0
 11
9412.895492990509
 21
10048.74480435227
 31
0.0
  0
LINE
  5
1DF60
330
1D409
100
AcDbEntity
  8
寸法
 62
     0
 48
50.0
370
    -2
100
AcDbLine
 10
10357.89549299051
 20
8856.481654622097
 30
0.0
 11
10357.89549299051
 21
10048.74480435227
 31
0.0
  0
LINE
  5
1DF61
330
1D409
100
AcDbEntity
  8
寸法
 62
     0
 48
50.0
370
    -2
100
AcDbLine
 10
9412.895492990509
 20
9973.744804352275
 30
0.0
 11
10357.89549299051
 21
9973.744804352275
 31
0.0
  0
INSERT
  5
1DF62
330
1D409
100
AcDbEntity
  8
寸法
 62
     0
 48
50.0
370
    -2
100
AcDbBlockReference
  2
_DOTSMALL
 10
9412.895492990509
 20
9973.744804352275
 30
0.0
 41
125.0
 42
125.0
 43
125.0
 50
180.0
  0
INSERT
  5
1DF63
330
1D409
100
AcDbEntity
  8
寸法
 62
     0
 48
50.0
370
    -2
100
AcDbBlockReference
  2
_DOTSMALL
 10
10357.89549299051
 20
9973.744804352275
 30
0.0
 41
125.0
 42
125.0
 43
125.0
  0
MTEXT
  5
1DF64
330
1D409
100
AcDbEntity
  8
寸法
 62
     7
 48
50.0
100
AcDbMText
 10
9885.395492990509
 20
10073.74480435227
 30
0.0
 40
150.0
 41
0.0
 71
     5
 72
     1
  1
\A1;945
  7
STYLE1
 73
     1
 44
1.0
1001
ACAD
1000
MTEXTBEGIN
1070
    73
1070
     1
1070
    44
1040
1.0
1070
    74
1070
     0
1000
MTEXTEND
  0
POINT
  5
1DF65
330
1D409
100
AcDbEntity
  8
DEFPOINTS
 62
     0
 48
50.0
100
AcDbPoint
 10
9412.895492990509
 20
9341.481654622098
 30
0.0
  0
POINT
  5
1DF66
330
1D409
100
AcDbEntity
  8
DEFPOINTS
 62
     0
 48
50.0
100
AcDbPoint
 10
10357.89549299051
 20
8831.481654622097
 30
0.0
  0
POINT
  5
1DF67
330
1D409
100
AcDbEntity
  8
DEFPOINTS
 62
     0
 48
50.0
100
AcDbPoint
 10
10357.89549299051
 20
9973.744804352275
 30
0.0
  0
ENDBLK
  5
1D414
330
1D409
100
AcDbEntity
  8
0
 48
50.0
100
AcDbBlockEnd
  0
BLOCK
  5
1D451
330
1D446
100
AcDbEntity
  8
0
 48
50.0
100
AcDbBlockBegin
  2
*D9
 70
     1
 10
0.0
 20
0.0
 30
0.0
  3
*D9
  1

  0
LINE
  5
1DE22
330
1D446
100
AcDbEntity
  8
寸法
 62
     0
 48
50.0
370
    -2
100
AcDbLine
 10
11237.89549299051
 20
7926.481654622097
 30
0.0
 11
11237.89549299051
 21
7337.014598377169
 31
0.0
  0
LINE
  5
1DE23
330
1D446
100
AcDbEntity
  8
寸法
 62
     0
 48
50.0
370
    -2
100
AcDbLine
 10
11302.89549299051
 20
8006.481654622097
 30
0.0
 11
11302.89549299051
 21
7337.014598377169
 31
0.0
  0
LINE
  5
1DE24
330
1D446
100
AcDbEntity
  8
寸法
 62
     0
 48
50.0
370
    -2
100
AcDbLine
 10
11237.89549299051
 20
7412.014598377169
 30
0.0
 11
11302.89549299051
 21
7412.014598377169
 31
0.0
  0
LINE
  5
1DE25
330
1D446
100
AcDbEntity
  8
寸法
 62
     0
 48
50.0
370
    -2
100
AcDbLine
 10
11302.89549299051
 20
7412.014598377169
 30
0.0
 11
11691.09688540248
 21
7412.014598377169
 31
0.0
  0
INSERT
  5
1DE26
330
1D446
100
AcDbEntity
  8
寸法
 62
     0
 48
50.0
370
    -2
100
AcDbBlockReference
  2
_DOTSMALL
 10
11237.89549299051
 20
7412.014598377169
 30
0.0
 41
125.0
 42
125.0
 43
125.0
 50
180.0
  0
INSERT
  5
1DE27
330
1D446
100
AcDbEntity
  8
寸法
 62
     0
 48
50.0
370
    -2
100
AcDbBlockReference
  2
_DOTSMALL
 10
11302.89549299051
 20
7412.014598377169
 30
0.0
 41
125.0
 42
125.0
 43
125.0
  0
MTEXT
  5
1DE28
330
1D446
100
AcDbEntity
  8
寸法
 62
     7
 48
50.0
100
AcDbMText
 10
11576.0020947083
 20
7512.014598377169
 30
0.0
 40
150.0
 41
0.0
 71
     5
 72
     1
  1
\A1;65
  7
STYLE1
 73
     1
 44
1.0
1001
ACAD
1000
MTEXTBEGIN
1070
    73
1070
     1
1070
    44
1040
1.0
1070
    74
1070
     0
1000
MTEXTEND
  0
POINT
  5
1DE29
330
1D446
100
AcDbEntity
  8
DEFPOINTS
 62
     0
 48
50.0
100
AcDbPoint
 10
11237.89549299051
 20
7951.481654622097
 30
0.0
  0
POINT
  5
1DE2A
330
1D446
100
AcDbEntity
  8
DEFPOINTS
 62
     0
 48
50.0
100
AcDbPoint
 10
11302.89549299051
 20
8031.481654622096
 30
0.0
  0
POINT
  5
1DE2B
330
1D446
100
AcDbEntity
  8
DEFPOINTS
 62
     0
 48
50.0
100
AcDbPoint
 10
11302.89549299051
 20
7412.014598377169
 30
0.0
  0
ENDBLK
  5
1D452
330
1D446
100
AcDbEntity
  8
0
 48
50.0
100
AcDbBlockEnd
  0
BLOCK
  5
1D45E
330
1D453
100
AcDbEntity
  8
0
 48
50.0
100
AcDbBlockBegin
  2
*D10
 70
     1
 10
0.0
 20
0.0
 30
0.0
  3
*D10
  1

  0
LINE
  5
1DE0E
330
1D453
100
AcDbEntity
  8
寸法
 62
     0
 48
50.0
370
    -2
100
AcDbLine
 10
11327.89549299051
 20
8031.481654622096
 30
0.0
 11
12228.89549299051
 21
8031.481654622096
 31
0.0
  0
LINE
  5
1DE0F
330
1D453
100
AcDbEntity
  8
寸法
 62
     0
 48
50.0
370
    -2
100
AcDbLine
 10
11857.96371715457
 20
7901.481654622097
 30
0.0
 11
12228.89549299051
 21
7901.481654622097
 31
0.0
  0
LINE
  5
1DE10
330
1D453
100
AcDbEntity
  8
寸法
 62
     0
 48
50.0
370
    -2
100
AcDbLine
 10
12153.89549299051
 20
8031.481654622096
 30
0.0
 11
12153.89549299051
 21
7901.481654622097
 31
0.0
  0
LINE
  5
1DE11
330
1D453
100
AcDbEntity
  8
寸法
 62
     0
 48
50.0
370
    -2
100
AcDbLine
 10
12153.89549299051
 20
7901.481654622097
 30
0.0
 11
12153.89549299051
 21
7365.599764858318
 31
0.0
  0
INSERT
  5
1DE12
330
1D453
100
AcDbEntity
  8
寸法
 62
     0
 48
50.0
370
    -2
100
AcDbBlockReference
  2
_DOTSMALL
 10
12153.89549299051
 20
8031.481654622096
 30
0.0
 41
125.0
 42
125.0
 43
125.0
 50
90.0
  0
INSERT
  5
1DE13
330
1D453
100
AcDbEntity
  8
寸法
 62
     0
 48
50.0
370
    -2
100
AcDbBlockReference
  2
_DOTSMALL
 10
12153.89549299051
 20
7901.481654622097
 30
0.0
 41
125.0
 42
125.0
 43
125.0
 50
270.0
  0
MTEXT
  5
1DE14
330
1D453
100
AcDbEntity
  8
寸法
 62
     7
 48
50.0
100
AcDbMText
 10
12046.39549299051
 20
7570.54070974021
 30
0.0
 40
150.0
 41
0.0
 71
     5
 72
     1
  1
\A1;(130)
  7
STYLE1
 11
0.0000000000000001
 21
1.0
 31
0.0
 73
     1
 44
1.0
1001
ACAD
1000
MTEXTBEGIN
1070
    73
1070
     1
1070
    44
1040
1.0
1070
    74
1070
     0
1000
MTEXTEND
  0
POINT
  5
1DE15
330
1D453
100
AcDbEntity
  8
DEFPOINTS
 62
     0
 48
50.0
100
AcDbPoint
 10
11302.89549299051
 20
8031.481654622096
 30
0.0
  0
POINT
  5
1DE16
330
1D453
100
AcDbEntity
  8
DEFPOINTS
 62
     0
 48
50.0
100
AcDbPoint
 10
11832.96371715457
 20
7901.481654622097
 30
0.0
  0
POINT
  5
1DE17
330
1D453
100
AcDbEntity
  8
DEFPOINTS
 62
     0
 48
50.0
100
AcDbPoint
 10
12153.89549299051
 20
7901.481654622097
 30
0.0
  0
ENDBLK
  5
1D45F
330
1D453
100
AcDbEntity
  8
0
 48
50.0
100
AcDbBlockEnd
  0
BLOCK
  5
1D46B
330
1D460
100
AcDbEntity
  8
0
 48
50.0
100
AcDbBlockBegin
  2
*D11
 70
     1
 10
0.0
 20
0.0
 30
0.0
  3
*D11
  1

  0
LINE
  5
1DE18
330
1D460
100
AcDbEntity
  8
寸法
 62
     0
 48
50.0
370
    -2
100
AcDbLine
 10
11302.89549299051
 20
8006.481654622094
 30
0.0
 11
11302.89549299051
 21
7025.481654622097
 31
0.0
  0
LINE
  5
1DE19
330
1D460
100
AcDbEntity
  8
寸法
 62
     0
 48
50.0
370
    -2
100
AcDbLine
 10
11352.89549299051
 20
7387.014598377169
 30
0.0
 11
11352.89549299051
 21
7025.481654622097
 31
0.0
  0
LINE
  5
1DE1A
330
1D460
100
AcDbEntity
  8
寸法
 62
     0
 48
50.0
370
    -2
100
AcDbLine
 10
11302.89549299051
 20
7100.481654622098
 30
0.0
 11
11352.89549299051
 21
7100.481654622098
 31
0.0
  0
LINE
  5
1DE1B
330
1D460
100
AcDbEntity
  8
寸法
 62
     0
 48
50.0
370
    -2
100
AcDbLine
 10
11352.89549299051
 20
7100.481654622098
 30
0.0
 11
11812.77738275429
 21
7100.481654622098
 31
0.0
  0
INSERT
  5
1DE1C
330
1D460
100
AcDbEntity
  8
寸法
 62
     0
 48
50.0
370
    -2
100
AcDbBlockReference
  2
_DOTSMALL
 10
11302.89549299051
 20
7100.481654622098
 30
0.0
 41
125.0
 42
125.0
 43
125.0
 50
180.0
  0
INSERT
  5
1DE1D
330
1D460
100
AcDbEntity
  8
寸法
 62
     0
 48
50.0
370
    -2
100
AcDbBlockReference
  2
_DOTSMALL
 10
11352.89549299051
 20
7100.481654622098
 30
0.0
 41
125.0
 42
125.0
 43
125.0
  0
MTEXT
  5
1DE1E
330
1D460
100
AcDbEntity
  8
寸法
 62
     7
 48
50.0
100
AcDbMText
 10
11645.3364378724
 20
7207.981654622097
 30
0.0
 40
150.0
 41
0.0
 71
     5
 72
     1
  1
\A1;(50)
  7
STYLE1
 73
     1
 44
1.0
1001
ACAD
1000
MTEXTBEGIN
1070
    73
1070
     1
1070
    44
1040
1.0
1070
    74
1070
     0
1000
MTEXTEND
  0
POINT
  5
1DE1F
330
1D460
100
AcDbEntity
  8
DEFPOINTS
 62
     0
 48
50.0
100
AcDbPoint
 10
11302.89549299051
 20
8031.481654622094
 30
0.0
  0
POINT
  5
1DE20
330
1D460
100
AcDbEntity
  8
DEFPOINTS
 62
     0
 48
50.0
100
AcDbPoint
 10
11352.89549299051
 20
7412.014598377169
 30
0.0
  0
POINT
  5
1DE21
330
1D460
100
AcDbEntity
  8
DEFPOINTS
 62
     0
 48
50.0
100
AcDbPoint
 10
11352.89549299051
 20
7100.481654622098
 30
0.0
  0
ENDBLK
  5
1D46C
330
1D460
100
AcDbEntity
  8
0
 48
50.0
100
AcDbBlockEnd
  0
BLOCK
  5
1D478
330
1D46D
100
AcDbEntity
  8
0
 48
50.0
100
AcDbBlockBegin
  2
*D12
 70
     1
 10
0.0
 20
0.0
 30
0.0
  3
*D12
  1

  0
LINE
  5
1DE2C
330
1D46D
100
AcDbEntity
  8
寸法
 62
     0
 48
50.0
370
    -2
100
AcDbLine
 10
11327.89549299051
 20
9341.481654622098
 30
0.0
 11
12228.89549299051
 21
9341.481654622098
 31
0.0
  0
LINE
  5
1DE2D
330
1D46D
100
AcDbEntity
  8
寸法
 62
     0
 48
50.0
370
    -2
100
AcDbLine
 10
11857.96371715457
 20
9431.481654622094
 30
0.0
 11
12228.89549299051
 21
9431.481654622094
 31
0.0
  0
LINE
  5
1DE2E
330
1D46D
100
AcDbEntity
  8
寸法
 62
     0
 48
50.0
370
    -2
100
AcDbLine
 10
12153.89549299051
 20
9341.481654622098
 30
0.0
 11
12153.89549299051
 21
9431.481654622094
 31
0.0
  0
LINE
  5
1DE2F
330
1D46D
100
AcDbEntity
  8
寸法
 62
     0
 48
50.0
370
    -2
100
AcDbLine
 10
12153.89549299051
 20
9431.481654622094
 30
0.0
 11
12153.89549299051
 21
9892.887693960014
 31
0.0
  0
INSERT
  5
1DE30
330
1D46D
100
AcDbEntity
  8
寸法
 62
     0
 48
50.0
370
    -2
100
AcDbBlockReference
  2
_DOTSMALL
 10
12153.89549299051
 20
9341.481654622098
 30
0.0
 41
125.0
 42
125.0
 43
125.0
 50
270.0
  0
INSERT
  5
1DE31
330
1D46D
100
AcDbEntity
  8
寸法
 62
     0
 48
50.0
370
    -2
100
AcDbBlockReference
  2
_DOTSMALL
 10
12153.89549299051
 20
9431.481654622094
 30
0.0
 41
125.0
 42
125.0
 43
125.0
 50
90.0
  0
MTEXT
  5
1DE32
330
1D46D
100
AcDbEntity
  8
寸法
 62
     7
 48
50.0
100
AcDbMText
 10
12046.35924106403
 20
9725.184674291057
 30
0.0
 40
150.0
 41
0.0
 71
     5
 72
     1
  1
\A1;(90)
  7
STYLE1
 11
0.0000000000000001
 21
1.0
 31
0.0
 73
     1
 44
1.0
1001
ACAD
1000
MTEXTBEGIN
1070
    73
1070
     1
1070
    44
1040
1.0
1070
    74
1070
     0
1000
MTEXTEND
  0
POINT
  5
1DE33
330
1D46D
100
AcDbEntity
  8
DEFPOINTS
 62
     0
 48
50.0
100
AcDbPoint
 10
11302.89549299051
 20
9341.481654622098
 30
0.0
  0
POINT
  5
1DE34
330
1D46D
100
AcDbEntity
  8
DEFPOINTS
 62
     0
 48
50.0
100
AcDbPoint
 10
11832.96371715457
 20
9431.481654622094
 30
0.0
  0
POINT
  5
1DE35
330
1D46D
100
AcDbEntity
  8
DEFPOINTS
 62
     0
 48
50.0
100
AcDbPoint
 10
12153.89549299051
 20
9431.481654622094
 30
0.0
  0
ENDBLK
  5
1D479
330
1D46D
100
AcDbEntity
  8
0
 48
50.0
100
AcDbBlockEnd
  0
BLOCK
  5
1D484
330
1D47A
100
AcDbEntity
  8
0
 48
50.0
100
AcDbBlockBegin
  2
*D13
 70
     1
 10
0.0
 20
0.0
 30
0.0
  3
*D13
  1

  0
LINE
  5
1DE05
330
1D47A
100
AcDbEntity
  8
寸法
 62
     0
 48
50.0
370
    -2
100
AcDbLine
 10
11327.89549299051
 20
8031.481654622096
 30
0.0
 11
12228.89549299051
 21
8031.481654622096
 31
0.0
  0
LINE
  5
1DE06
330
1D47A
100
AcDbEntity
  8
寸法
 62
     0
 48
50.0
370
    -2
100
AcDbLine
 10
11327.89549299051
 20
9341.481654622098
 30
0.0
 11
12228.89549299051
 21
9341.481654622098
 31
0.0
  0
LINE
  5
1DE07
330
1D47A
100
AcDbEntity
  8
寸法
 62
     0
 48
50.0
370
    -2
100
AcDbLine
 10
12153.89549299051
 20
8031.481654622096
 30
0.0
 11
12153.89549299051
 21
9341.481654622098
 31
0.0
  0
INSERT
  5
1DE08
330
1D47A
100
AcDbEntity
  8
寸法
 62
     0
 48
50.0
370
    -2
100
AcDbBlockReference
  2
_DOTSMALL
 10
12153.89549299051
 20
8031.481654622096
 30
0.0
 41
125.0
 42
125.0
 43
125.0
 50
270.0
  0
INSERT
  5
1DE09
330
1D47A
100
AcDbEntity
  8
寸法
 62
     0
 48
50.0
370
    -2
100
AcDbBlockReference
  2
_DOTSMALL
 10
12153.89549299051
 20
9341.481654622098
 30
0.0
 41
125.0
 42
125.0
 43
125.0
 50
90.0
  0
MTEXT
  5
1DE0A
330
1D47A
100
AcDbEntity
  8
寸法
 62
     7
 48
50.0
100
AcDbMText
 10
12053.8954929905
 20
8686.481654622099
 30
0.0
 40
150.0
 41
0.0
 71
     5
 72
     1
  1
\A1;1310
  7
STYLE1
 11
0.0000000000000001
 21
1.0
 31
0.0
 73
     1
 44
1.0
1001
ACAD
1000
MTEXTBEGIN
1070
    73
1070
     1
1070
    44
1040
1.0
1070
    74
1070
     0
1000
MTEXTEND
  0
POINT
  5
1DE0B
330
1D47A
100
AcDbEntity
  8
DEFPOINTS
 62
     0
 48
50.0
100
AcDbPoint
 10
11302.89549299051
 20
8031.481654622096
 30
0.0
  0
POINT
  5
1DE0C
330
1D47A
100
AcDbEntity
  8
DEFPOINTS
 62
     0
 48
50.0
100
AcDbPoint
 10
11302.89549299051
 20
9341.481654622098
 30
0.0
  0
POINT
  5
1DE0D
330
1D47A
100
AcDbEntity
  8
DEFPOINTS
 62
     0
 48
50.0
100
AcDbPoint
 10
12153.89549299051
 20
9341.481654622098
 30
0.0
  0
ENDBLK
  5
1D485
330
1D47A
100
AcDbEntity
  8
0
 48
50.0
100
AcDbBlockEnd
  0
BLOCK
  5
1D48F
330
1D486
100
AcDbEntity
  8
0
 48
50.0
100
AcDbBlockBegin
  2
*D14
 70
     1
 10
0.0
 20
0.0
 30
0.0
  3
*D14
  1

  0
LINE
  5
1DE5D
330
1D486
100
AcDbEntity
  8
寸法
 62
     0
 48
50.0
370
    -2
100
AcDbLine
 10
11407.89549299051
 20
8096.481654622097
 30
0.0
 11
11907.96371715457
 21
8096.481654622097
 31
0.0
  0
LINE
  5
1DE5E
330
1D486
100
AcDbEntity
  8
寸法
 62
     0
 48
50.0
370
    -2
100
AcDbLine
 10
11832.96371715457
 20
9276.481654622097
 30
0.0
 11
11832.96371715457
 21
8096.481654622097
 31
0.0
  0
INSERT
  5
1DE5F
330
1D486
100
AcDbEntity
  8
寸法
 62
     0
 48
50.0
370
    -2
100
AcDbBlockReference
  2
_DOTSMALL
 10
11832.96371715457
 20
9276.481654622097
 30
0.0
 41
125.0
 42
125.0
 43
125.0
 50
90.0
  0
INSERT
  5
1DE60
330
1D486
100
AcDbEntity
  8
寸法
 62
     0
 48
50.0
370
    -2
100
AcDbBlockReference
  2
_DOTSMALL
 10
11832.96371715457
 20
8096.481654622097
 30
0.0
 41
125.0
 42
125.0
 43
125.0
 50
270.0
  0
MTEXT
  5
1DE61
330
1D486
100
AcDbEntity
  8
寸法
 62
     7
 48
50.0
100
AcDbMText
 10
11732.96371715457
 20
8686.481654622099
 30
0.0
 40
150.0
 41
0.0
 71
     5
 72
     1
  1
\A1;1180
  7
STYLE1
 11
0.0000000000000001
 21
1.0
 31
0.0
 73
     1
 44
1.0
1001
ACAD
1000
MTEXTBEGIN
1070
    73
1070
     1
1070
    44
1040
1.0
1070
    74
1070
     0
1000
MTEXTEND
  0
POINT
  5
1DE62
330
1D486
100
AcDbEntity
  8
DEFPOINTS
 62
     0
 48
50.0
100
AcDbPoint
 10
11382.89549299051
 20
9276.481654622097
 30
0.0
  0
POINT
  5
1DE63
330
1D486
100
AcDbEntity
  8
DEFPOINTS
 62
     0
 48
50.0
100
AcDbPoint
 10
11382.89549299051
 20
8096.481654622097
 30
0.0
  0
POINT
  5
1DE64
330
1D486
100
AcDbEntity
  8
DEFPOINTS
 62
     0
 48
50.0
100
AcDbPoint
 10
11832.96371715457
 20
8096.481654622097
 30
0.0
  0
ENDBLK
  5
1D490
330
1D486
100
AcDbEntity
  8
0
 48
50.0
100
AcDbBlockEnd
  0
BLOCK
  5
1D49C
330
1D491
100
AcDbEntity
  8
0
 48
50.0
100
AcDbBlockBegin
  2
*D15
 70
     1
 10
0.0
 20
0.0
 30
0.0
  3
*D15
  1

  0
LINE
  5
1DDFB
330
1D491
100
AcDbEntity
  8
寸法
 62
     0
 48
50.0
370
    -2
100
AcDbLine
 10
11407.89549299051
 20
8096.481654622097
 30
0.0
 11
11907.96371715458
 21
8096.481654622097
 31
0.0
  0
LINE
  5
1DDFC
330
1D491
100
AcDbEntity
  8
寸法
 62
     0
 48
50.0
370
    -2
100
AcDbLine
 10
11327.89549299051
 20
8031.481654622096
 30
0.0
 11
11907.96371715458
 21
8031.481654622096
 31
0.0
  0
LINE
  5
1DDFD
330
1D491
100
AcDbEntity
  8
寸法
 62
     0
 48
50.0
370
    -2
100
AcDbLine
 10
11832.96371715458
 20
8096.481654622097
 30
0.0
 11
11832.96371715458
 21
8031.481654622096
 31
0.0
  0
LINE
  5
1DDFE
330
1D491
100
AcDbEntity
  8
寸法
 62
     0
 48
50.0
370
    -2
100
AcDbLine
 10
11832.96371715458
 20
8031.481654622096
 30
0.0
 11
11832.96371715458
 21
7643.280262210122
 31
0.0
  0
INSERT
  5
1DDFF
330
1D491
100
AcDbEntity
  8
寸法
 62
     0
 48
50.0
370
    -2
100
AcDbBlockReference
  2
_DOTSMALL
 10
11832.96371715458
 20
8096.481654622097
 30
0.0
 41
125.0
 42
125.0
 43
125.0
 50
90.0
  0
INSERT
  5
1DE00
330
1D491
100
AcDbEntity
  8
寸法
 62
     0
 48
50.0
370
    -2
100
AcDbBlockReference
  2
_DOTSMALL
 10
11832.96371715458
 20
8031.481654622096
 30
0.0
 41
125.0
 42
125.0
 43
125.0
 50
270.0
  0
MTEXT
  5
1DE01
330
1D491
100
AcDbEntity
  8
寸法
 62
     7
 48
50.0
100
AcDbMText
 10
11732.96371715457
 20
7758.375052904298
 30
0.0
 40
150.0
 41
0.0
 71
     5
 72
     1
  1
\A1;65
  7
STYLE1
 11
0.0000000000000001
 21
1.0
 31
0.0
 73
     1
 44
1.0
1001
ACAD
1000
MTEXTBEGIN
1070
    73
1070
     1
1070
    44
1040
1.0
1070
    74
1070
     0
1000
MTEXTEND
  0
POINT
  5
1DE02
330
1D491
100
AcDbEntity
  8
DEFPOINTS
 62
     0
 48
50.0
100
AcDbPoint
 10
11382.89549299051
 20
8096.481654622097
 30
0.0
  0
POINT
  5
1DE03
330
1D491
100
AcDbEntity
  8
DEFPOINTS
 62
     0
 48
50.0
100
AcDbPoint
 10
11302.89549299051
 20
8031.481654622096
 30
0.0
  0
POINT
  5
1DE04
330
1D491
100
AcDbEntity
  8
DEFPOINTS
 62
     0
 48
50.0
100
AcDbPoint
 10
11832.96371715458
 20
8031.481654622096
 30
0.0
  0
ENDBLK
  5
1D49D
330
1D491
100
AcDbEntity
  8
0
 48
50.0
100
AcDbBlockEnd
  0
BLOCK
  5
1D4A9
330
1D49E
100
AcDbEntity
  8
0
 48
50.0
100
AcDbBlockBegin
  2
*D16
 70
     1
 10
0.0
 20
0.0
 30
0.0
  3
*D16
  1

  0
LINE
  5
1DE53
330
1D49E
100
AcDbEntity
  8
寸法
 62
     0
 48
50.0
370
    -2
100
AcDbLine
 10
11182.89549299051
 20
8418.339312661741
 30
0.0
 11
11182.89549299051
 21
8176.109564797771
 31
0.0
  0
LINE
  5
1DE54
330
1D49E
100
AcDbEntity
  8
寸法
 62
     0
 48
50.0
370
    -2
100
AcDbLine
 10
11302.89549299051
 20
8418.339312661741
 30
0.0
 11
11302.89549299051
 21
8176.109564797771
 31
0.0
  0
LINE
  5
1DE55
330
1D49E
100
AcDbEntity
  8
寸法
 62
     0
 48
50.0
370
    -2
100
AcDbLine
 10
11182.89549299051
 20
8251.10956479777
 30
0.0
 11
11302.89549299051
 21
8251.10956479777
 31
0.0
  0
LINE
  5
1DE56
330
1D49E
100
AcDbEntity
  8
寸法
 62
     0
 48
50.0
370
    -2
100
AcDbLine
 10
11302.89549299051
 20
8251.10956479777
 30
0.0
 11
11718.01360322673
 21
8251.10956479777
 31
0.0
  0
INSERT
  5
1DE57
330
1D49E
100
AcDbEntity
  8
寸法
 62
     0
 48
50.0
370
    -2
100
AcDbBlockReference
  2
_DOTSMALL
 10
11182.89549299051
 20
8251.10956479777
 30
0.0
 41
125.0
 42
125.0
 43
125.0
 50
180.0
  0
INSERT
  5
1DE58
330
1D49E
100
AcDbEntity
  8
寸法
 62
     0
 48
50.0
370
    -2
100
AcDbBlockReference
  2
_DOTSMALL
 10
11302.89549299051
 20
8251.10956479777
 30
0.0
 41
125.0
 42
125.0
 43
125.0
  0
MTEXT
  5
1DE59
330
1D49E
100
AcDbEntity
  8
寸法
 62
     7
 48
50.0
100
AcDbMText
 10
11572.95454810862
 20
8351.124328577297
 30
0.0
 40
150.0
 41
0.0
 71
     5
 72
     1
  1
\A1;120
  7
STYLE1
 73
     1
 44
1.0
1001
ACAD
1000
MTEXTBEGIN
1070
    73
1070
     1
1070
    44
1040
1.0
1070
    74
1070
     0
1000
MTEXTEND
  0
POINT
  5
1DE5A
330
1D49E
100
AcDbEntity
  8
DEFPOINTS
 62
     0
 48
50.0
100
AcDbPoint
 10
11182.89549299051
 20
8443.339312661741
 30
0.0
  0
POINT
  5
1DE5B
330
1D49E
100
AcDbEntity
  8
DEFPOINTS
 62
     0
 48
50.0
100
AcDbPoint
 10
11302.89549299051
 20
8443.339312661741
 30
0.0
  0
POINT
  5
1DE5C
330
1D49E
100
AcDbEntity
  8
DEFPOINTS
 62
     0
 48
50.0
100
AcDbPoint
 10
11302.89549299051
 20
8251.10956479777
 30
0.0
  0
ENDBLK
  5
1D4AA
330
1D49E
100
AcDbEntity
  8
0
 48
50.0
100
AcDbBlockEnd
  0
BLOCK
  5
1D4B6
330
1D4AB
100
AcDbEntity
  8
0
 48
50.0
100
AcDbBlockBegin
  2
*D17
 70
     1
 10
0.0
 20
0.0
 30
0.0
  3
*D17
  1

  0
LINE
  5
1DE36
330
1D4AB
100
AcDbEntity
  8
寸法
 62
     0
 48
50.0
370
    -2
100
AcDbLine
 10
11327.89549299051
 20
9341.481654622098
 30
0.0
 11
11907.96371715458
 21
9341.481654622098
 31
0.0
  0
LINE
  5
1DE37
330
1D4AB
100
AcDbEntity
  8
寸法
 62
     0
 48
50.0
370
    -2
100
AcDbLine
 10
11407.89549299051
 20
9276.481654622097
 30
0.0
 11
11907.96371715458
 21
9276.481654622097
 31
0.0
  0
LINE
  5
1DE38
330
1D4AB
100
AcDbEntity
  8
寸法
 62
     0
 48
50.0
370
    -2
100
AcDbLine
 10
11832.96371715458
 20
9276.481654622097
 30
0.0
 11
11832.96371715458
 21
9341.481654622098
 31
0.0
  0
LINE
  5
1DE39
330
1D4AB
100
AcDbEntity
  8
寸法
 62
     0
 48
50.0
370
    -2
100
AcDbLine
 10
11832.96371715458
 20
9341.481654622098
 30
0.0
 11
11832.96371715458
 21
9729.683047034072
 31
0.0
  0
INSERT
  5
1DE3A
330
1D4AB
100
AcDbEntity
  8
寸法
 62
     0
 48
50.0
370
    -2
100
AcDbBlockReference
  2
_DOTSMALL
 10
11832.96371715458
 20
9276.481654622097
 30
0.0
 41
125.0
 42
125.0
 43
125.0
 50
270.0
  0
INSERT
  5
1DE3B
330
1D4AB
100
AcDbEntity
  8
寸法
 62
     0
 48
50.0
370
    -2
100
AcDbBlockReference
  2
_DOTSMALL
 10
11832.96371715458
 20
9341.481654622098
 30
0.0
 41
125.0
 42
125.0
 43
125.0
 50
90.0
  0
MTEXT
  5
1DE3C
330
1D4AB
100
AcDbEntity
  8
寸法
 62
     7
 48
50.0
100
AcDbMText
 10
11732.96371715457
 20
9614.588256339898
 30
0.0
 40
150.0
 41
0.0
 71
     5
 72
     1
  1
\A1;65
  7
STYLE1
 11
0.0000000000000001
 21
1.0
 31
0.0
 73
     1
 44
1.0
1001
ACAD
1000
MTEXTBEGIN
1070
    73
1070
     1
1070
    44
1040
1.0
1070
    74
1070
     0
1000
MTEXTEND
  0
POINT
  5
1DE3D
330
1D4AB
100
AcDbEntity
  8
DEFPOINTS
 62
     0
 48
50.0
100
AcDbPoint
 10
11302.89549299051
 20
9341.481654622098
 30
0.0
  0
POINT
  5
1DE3E
330
1D4AB
100
AcDbEntity
  8
DEFPOINTS
 62
     0
 48
50.0
100
AcDbPoint
 10
11382.89549299051
 20
9276.481654622097
 30
0.0
  0
POINT
  5
1DE3F
330
1D4AB
100
AcDbEntity
  8
DEFPOINTS
 62
     0
 48
50.0
100
AcDbPoint
 10
11832.96371715458
 20
9276.481654622097
 30
0.0
  0
ENDBLK
  5
1D4B7
330
1D4AB
100
AcDbEntity
  8
0
 48
50.0
100
AcDbBlockEnd
  0
BLOCK
  5
1DF73
330
1DF69
100
AcDbEntity
  8
0
 48
50.0
100
AcDbBlockBegin
  2
*D18
 70
     1
 10
0.0
 20
0.0
 30
0.0
  3
*D18
  1

  0
LINE
  5
1E140
330
1DF69
100
AcDbEntity
  8
寸法
 62
     0
 48
50.0
370
    -2
100
AcDbLine
 10
9387.895492990509
 20
9341.481654622098
 30
0.0
 11
8578.11796605141
 21
9341.481654622098
 31
0.0
  0
LINE
  5
1E141
330
1DF69
100
AcDbEntity
  8
寸法
 62
     0
 48
50.0
370
    -2
100
AcDbLine
 10
10187.89549299051
 20
8686.481654622097
 30
0.0
 11
8578.11796605141
 21
8686.481654622097
 31
0.0
  0
LINE
  5
1E142
330
1DF69
100
AcDbEntity
  8
寸法
 62
     0
 48
50.0
370
    -2
100
AcDbLine
 10
8653.117966051409
 20
9341.481654622098
 30
0.0
 11
8653.117966051409
 21
8686.481654622097
 31
0.0
  0
INSERT
  5
1E143
330
1DF69
100
AcDbEntity
  8
寸法
 62
     0
 48
50.0
370
    -2
100
AcDbBlockReference
  2
_DOTSMALL
 10
8653.117966051409
 20
9341.481654622098
 30
0.0
 41
125.0
 42
125.0
 43
125.0
 50
90.0
  0
INSERT
  5
1E144
330
1DF69
100
AcDbEntity
  8
寸法
 62
     0
 48
50.0
370
    -2
100
AcDbBlockReference
  2
_DOTSMALL
 10
8653.117966051409
 20
8686.481654622097
 30
0.0
 41
125.0
 42
125.0
 43
125.0
 50
270.0
  0
MTEXT
  5
1E145
330
1DF69
100
AcDbEntity
  8
寸法
 62
     7
 48
50.0
100
AcDbMText
 10
8553.117966051408
 20
9013.981654622099
 30
0.0
 40
150.0
 41
0.0
 71
     5
 72
     1
  1
\A1;655
  7
STYLE1
 11
0.0000000000000001
 21
1.0
 31
0.0
 73
     1
 44
1.0
1001
ACAD
1000
MTEXTBEGIN
1070
    73
1070
     1
1070
    44
1040
1.0
1070
    74
1070
     0
1000
MTEXTEND
  0
POINT
  5
1E146
330
1DF69
100
AcDbEntity
  8
DEFPOINTS
 62
     0
 48
50.0
100
AcDbPoint
 10
9412.895492990509
 20
9341.481654622098
 30
0.0
  0
POINT
  5
1E147
330
1DF69
100
AcDbEntity
  8
DEFPOINTS
 62
     0
 48
50.0
100
AcDbPoint
 10
10212.89549299051
 20
8686.481654622097
 30
0.0
  0
POINT
  5
1E148
330
1DF69
100
AcDbEntity
  8
DEFPOINTS
 62
     0
 48
50.0
100
AcDbPoint
 10
8653.117966051409
 20
8686.481654622097
 30
0.0
  0
ENDBLK
  5
1DF74
330
1DF69
100
AcDbEntity
  8
0
 48
50.0
100
AcDbBlockEnd
  0
BLOCK
  5
1DF80
330
1DF76
100
AcDbEntity
  8
0
 48
50.0
100
AcDbBlockBegin
  2
*D19
 70
     1
 10
0.0
 20
0.0
 30
0.0
  3
*D19
  1

  0
LINE
  5
1E149
330
1DF76
100
AcDbEntity
  8
寸法
 62
     0
 48
50.0
370
    -2
100
AcDbLine
 10
10187.89549299051
 20
8686.481654622097
 30
0.0
 11
8578.11796605141
 21
8686.481654622097
 31
0.0
  0
LINE
  5
1E14A
330
1DF76
100
AcDbEntity
  8
寸法
 62
     0
 48
50.0
370
    -2
100
AcDbLine
 10
9387.895492990509
 20
8031.481654622096
 30
0.0
 11
8578.11796605141
 21
8031.481654622096
 31
0.0
  0
LINE
  5
1E14B
330
1DF76
100
AcDbEntity
  8
寸法
 62
     0
 48
50.0
370
    -2
100
AcDbLine
 10
8653.117966051409
 20
8686.481654622097
 30
0.0
 11
8653.117966051409
 21
8031.481654622096
 31
0.0
  0
INSERT
  5
1E14C
330
1DF76
100
AcDbEntity
  8
寸法
 62
     0
 48
50.0
370
    -2
100
AcDbBlockReference
  2
_DOTSMALL
 10
8653.117966051409
 20
8686.481654622097
 30
0.0
 41
125.0
 42
125.0
 43
125.0
 50
90.0
  0
INSERT
  5
1E14D
330
1DF76
100
AcDbEntity
  8
寸法
 62
     0
 48
50.0
370
    -2
100
AcDbBlockReference
  2
_DOTSMALL
 10
8653.117966051409
 20
8031.481654622096
 30
0.0
 41
125.0
 42
125.0
 43
125.0
 50
270.0
  0
MTEXT
  5
1E14E
330
1DF76
100
AcDbEntity
  8
寸法
 62
     7
 48
50.0
100
AcDbMText
 10
8553.117966051408
 20
8358.981654622098
 30
0.0
 40
150.0
 41
0.0
 71
     5
 72
     1
  1
\A1;655
  7
STYLE1
 11
0.0000000000000001
 21
1.0
 31
0.0
 73
     1
 44
1.0
1001
ACAD
1000
MTEXTBEGIN
1070
    73
1070
     1
1070
    44
1040
1.0
1070
    74
1070
     0
1000
MTEXTEND
  0
POINT
  5
1E14F
330
1DF76
100
AcDbEntity
  8
DEFPOINTS
 62
     0
 48
50.0
100
AcDbPoint
 10
10212.89549299051
 20
8686.481654622097
 30
0.0
  0
POINT
  5
1E150
330
1DF76
100
AcDbEntity
  8
DEFPOINTS
 62
     0
 48
50.0
100
AcDbPoint
 10
9412.895492990509
 20
8031.481654622096
 30
0.0
  0
POINT
  5
1E151
330
1DF76
100
AcDbEntity
  8
DEFPOINTS
 62
     0
 48
50.0
100
AcDbPoint
 10
8653.117966051409
 20
8031.481654622096
 30
0.0
  0
ENDBLK
  5
1DF81
330
1DF76
100
AcDbEntity
  8
0
 48
50.0
100
AcDbBlockEnd
  0
BLOCK
  5
1E047
330
1E03B
100
AcDbEntity
  8
0
 48
50.0
100
AcDbBlockBegin
  2
*D20
 70
     1
 10
0.0
 20
0.0
 30
0.0
  3
*D20
  1

  0
LINE
  5
1E0DB
330
1E03B
100
AcDbEntity
  8
寸法
 62
     0
 48
50.0
370
    -2
100
AcDbLine
 10
9744.548446251442
 20
8151.481654622097
 30
0.0
 11
10009.26862611881
 21
8151.481654622097
 31
0.0
  0
LINE
  5
1E0DC
330
1E03B
100
AcDbEntity
  8
寸法
 62
     0
 48
50.0
370
    -2
100
AcDbLine
 10
9744.548446251442
 20
7966.481654622097
 30
0.0
 11
10009.26862611881
 21
7966.481654622097
 31
0.0
  0
LINE
  5
1E0DD
330
1E03B
100
AcDbEntity
  8
寸法
 62
     0
 48
50.0
370
    -2
100
AcDbLine
 10
9934.268626118814
 20
7966.481654622097
 30
0.0
 11
9934.268626118814
 21
8151.481654622097
 31
0.0
  0
LINE
  5
1E0DE
330
1E03B
100
AcDbEntity
  8
寸法
 62
     0
 48
50.0
370
    -2
100
AcDbLine
 10
9934.268626118814
 20
8151.481654622097
 30
0.0
 11
9934.268626118814
 21
8572.694858057694
 31
0.0
  0
INSERT
  5
1E0DF
330
1E03B
100
AcDbEntity
  8
寸法
 62
     0
 48
50.0
370
    -2
100
AcDbBlockReference
  2
_DOTSMALL
 10
9934.268626118814
 20
7966.481654622097
 30
0.0
 41
125.0
 42
125.0
 43
125.0
 50
270.0
  0
INSERT
  5
1E0E0
330
1E03B
100
AcDbEntity
  8
寸法
 62
     0
 48
50.0
370
    -2
100
AcDbBlockReference
  2
_DOTSMALL
 10
9934.268626118814
 20
8151.481654622097
 30
0.0
 41
125.0
 42
125.0
 43
125.0
 50
90.0
  0
MTEXT
  5
1E0E1
330
1E03B
100
AcDbEntity
  8
寸法
 62
     7
 48
50.0
100
AcDbMText
 10
9834.268626118813
 20
8424.588256339898
 30
0.0
 40
150.0
 41
0.0
 71
     5
 72
     1
  1
\A1;185
  7
STYLE1
 11
0.0000000000000001
 21
1.0
 31
0.0
 73
     1
 44
1.0
1001
ACAD
1000
MTEXTBEGIN
1070
    73
1070
     1
1070
    44
1040
1.0
1070
    74
1070
     0
1000
MTEXTEND
  0
POINT
  5
1E0E2
330
1E03B
100
AcDbEntity
  8
DEFPOINTS
 62
     0
 48
50.0
100
AcDbPoint
 10
9719.548446251442
 20
8151.481654622097
 30
0.0
  0
POINT
  5
1E0E3
330
1E03B
100
AcDbEntity
  8
DEFPOINTS
 62
     0
 48
50.0
100
AcDbPoint
 10
9719.548446251442
 20
7966.481654622097
 30
0.0
  0
POINT
  5
1E0E4
330
1E03B
100
AcDbEntity
  8
DEFPOINTS
 62
     0
 48
50.0
100
AcDbPoint
 10
9934.268626118814
 20
7966.481654622097
 30
0.0
  0
ENDBLK
  5
1E048
330
1E03B
100
AcDbEntity
  8
0
 48
50.0
100
AcDbBlockEnd
  0
BLOCK
  5
1E134
330
1E128
100
AcDbEntity
  8
0
 48
50.0
100
AcDbBlockBegin
  2
*D21
 70
     1
 10
0.0
 20
0.0
 30
0.0
  3
*D21
  1

  0
LINE
  5
1E1B6
330
1E128
100
AcDbEntity
  8
寸法
 62
     0
 48
50.0
370
    -2
100
AcDbLine
 10
9387.895476620375
 20
8031.481669434111
 30
0.0
 11
8578.10465490955
 21
8031.481669434111
 31
0.0
  0
LINE
  5
1E1B7
330
1E128
100
AcDbEntity
  8
寸法
 62
     0
 48
50.0
370
    -2
100
AcDbLine
 10
9387.895492990509
 20
7966.481654622097
 30
0.0
 11
8578.10465490955
 21
7966.481654622097
 31
0.0
  0
LINE
  5
1E1B8
330
1E128
100
AcDbEntity
  8
寸法
 62
     0
 48
50.0
370
    -2
100
AcDbLine
 10
8653.104654909551
 20
8031.481669434111
 30
0.0
 11
8653.104654909551
 21
7966.481654622097
 31
0.0
  0
LINE
  5
1E1B9
330
1E128
100
AcDbEntity
  8
寸法
 62
     0
 48
50.0
370
    -2
100
AcDbLine
 10
8653.104654909551
 20
7966.481654622097
 30
0.0
 11
8653.104654909551
 21
7057.312590017808
 31
0.0
  0
INSERT
  5
1E1BA
330
1E128
100
AcDbEntity
  8
寸法
 62
     0
 48
50.0
370
    -2
100
AcDbBlockReference
  2
_DOTSMALL
 10
8653.104654909551
 20
8031.481669434111
 30
0.0
 41
125.0
 42
125.0
 43
125.0
 50
90.0
  0
INSERT
  5
1E1BB
330
1E128
100
AcDbEntity
  8
寸法
 62
     0
 48
50.0
370
    -2
100
AcDbBlockReference
  2
_DOTSMALL
 10
8653.104654909551
 20
7966.481654622097
 30
0.0
 41
125.0
 42
125.0
 43
125.0
 50
270.0
  0
MTEXT
  5
1E1BC
330
1E128
100
AcDbEntity
  8
寸法
 62
     7
 48
50.0
100
AcDbMText
 10
8553.104654909548
 20
7449.169191735608
 30
0.0
 40
150.0
 41
0.0
 71
     5
 72
     1
  1
\A1;扉の出65
  7
STYLE1
 11
0.0000000000000001
 21
1.0
 31
0.0
 73
     1
 44
1.0
1001
ACAD
1000
MTEXTBEGIN
1070
    73
1070
     1
1070
    44
1040
1.0
1070
    74
1070
     0
1000
MTEXTEND
  0
POINT
  5
1E1BD
330
1E128
100
AcDbEntity
  8
DEFPOINTS
 62
     0
 48
50.0
100
AcDbPoint
 10
9412.895476620375
 20
8031.481669434111
 30
0.0
  0
POINT
  5
1E1BE
330
1E128
100
AcDbEntity
  8
DEFPOINTS
 62
     0
 48
50.0
100
AcDbPoint
 10
9412.895492990509
 20
7966.481654622097
 30
0.0
  0
POINT
  5
1E1BF
330
1E128
100
AcDbEntity
  8
DEFPOINTS
 62
     0
 48
50.0
100
AcDbPoint
 10
8653.104654909551
 20
7966.481654622097
 30
0.0
  0
ENDBLK
  5
1E135
330
1E128
100
AcDbEntity
  8
0
 48
50.0
100
AcDbBlockEnd
  0
BLOCK
  5
1EB9F
330
1EB95
100
AcDbEntity
  8
0
 48
50.0
100
AcDbBlockBegin
  2
*D22
 70
     1
 10
0.0
 20
0.0
 30
0.0
  3
*D22
  1

  0
LINE
  5
1EC60
330
1EB95
100
AcDbEntity
  8
寸法
 62
     0
 48
50.0
370
    -2
100
AcDbLine
 10
7564.125198068325
 20
2814.712156520047
 30
0.0
 11
7564.125198068325
 21
3264.712156520047
 31
0.0
  0
LINE
  5
1EC61
330
1EB95
100
AcDbEntity
  8
寸法
 62
     0
 48
50.0
370
    -2
100
AcDbLine
 10
7324.125198068324
 20
2814.712156520047
 30
0.0
 11
7324.125198068324
 21
3264.712156520047
 31
0.0
  0
LINE
  5
1EC62
330
1EB95
100
AcDbEntity
  8
寸法
 62
     0
 48
50.0
370
    -2
100
AcDbLine
 10
7564.125198068325
 20
3189.712156520047
 30
0.0
 11
7324.125198068324
 21
3189.712156520047
 31
0.0
  0
INSERT
  5
1EC63
330
1EB95
100
AcDbEntity
  8
寸法
 62
     0
 48
50.0
370
    -2
100
AcDbBlockReference
  2
_DOTSMALL
 10
7564.125198068325
 20
3189.712156520047
 30
0.0
 41
125.0
 42
125.0
 43
125.0
  0
INSERT
  5
1EC64
330
1EB95
100
AcDbEntity
  8
寸法
 62
     0
 48
50.0
370
    -2
100
AcDbBlockReference
  2
_DOTSMALL
 10
7324.125198068324
 20
3189.712156520047
 30
0.0
 41
125.0
 42
125.0
 43
125.0
 50
180.0
  0
MTEXT
  5
1EC65
330
1EB95
100
AcDbEntity
  8
寸法
 62
     7
 48
50.0
100
AcDbMText
 10
7444.125198068324
 20
3348.055332373065
 30
0.0
 40
100.0
 41
0.0
 71
     5
 72
     1
  1
\A1;120\P185
  7
STYLE1
 73
     1
 44
1.0
1001
ACAD
1000
MTEXTBEGIN
1070
    73
1070
     1
1070
    44
1040
1.0
1070
    74
1070
     0
1000
MTEXTEND
  0
POINT
  5
1EC66
330
1EB95
100
AcDbEntity
  8
DEFPOINTS
 62
     0
 48
50.0
100
AcDbPoint
 10
7564.125198068325
 20
2789.712156520047
 30
0.0
  0
POINT
  5
1EC67
330
1EB95
100
AcDbEntity
  8
DEFPOINTS
 62
     0
 48
50.0
100
AcDbPoint
 10
7324.125198068324
 20
2789.712156520047
 30
0.0
  0
POINT
  5
1EC68
330
1EB95
100
AcDbEntity
  8
DEFPOINTS
 62
     0
 48
50.0
100
AcDbPoint
 10
7324.125198068324
 20
3189.712156520047
 30
0.0
  0
ENDBLK
  5
1EBA0
330
1EB95
100
AcDbEntity
  8
0
 48
50.0
100
AcDbBlockEnd
  0
BLOCK
  5
1EBAB
330
1EBA1
100
AcDbEntity
  8
0
 48
50.0
100
AcDbBlockBegin
  2
*D23
 70
     1
 10
0.0
 20
0.0
 30
0.0
  3
*D23
  1

  0
LINE
  5
1EC57
330
1EBA1
100
AcDbEntity
  8
寸法
 62
     0
 48
50.0
370
    -2
100
AcDbLine
 10
10382.31833236196
 20
2995.780337823297
 30
0.0
 11
10382.31833236196
 21
3405.554136234758
 31
0.0
  0
LINE
  5
1EC58
330
1EBA1
100
AcDbEntity
  8
寸法
 62
     0
 48
50.0
370
    -2
100
AcDbLine
 10
10572.93371697735
 20
2996.857260900221
 30
0.0
 11
10572.93371697735
 21
3405.554136234758
 31
0.0
  0
LINE
  5
1EC59
330
1EBA1
100
AcDbEntity
  8
寸法
 62
     0
 48
50.0
370
    -2
100
AcDbLine
 10
10382.31833236196
 20
3330.554136234758
 30
0.0
 11
10572.93371697735
 21
3330.554136234758
 31
0.0
  0
INSERT
  5
1EC5A
330
1EBA1
100
AcDbEntity
  8
寸法
 62
     0
 48
50.0
370
    -2
100
AcDbBlockReference
  2
_DOTSMALL
 10
10382.31833236196
 20
3330.554136234758
 30
0.0
 41
125.0
 42
125.0
 43
125.0
 50
180.0
  0
INSERT
  5
1EC5B
330
1EBA1
100
AcDbEntity
  8
寸法
 62
     0
 48
50.0
370
    -2
100
AcDbBlockReference
  2
_DOTSMALL
 10
10572.93371697735
 20
3330.554136234758
 30
0.0
 41
125.0
 42
125.0
 43
125.0
  0
MTEXT
  5
1EC5C
330
1EBA1
100
AcDbEntity
  8
寸法
 62
     7
 48
50.0
100
AcDbMText
 10
10477.62602466966
 20
3405.554136234758
 30
0.0
 40
100.0
 41
0.0
 71
     5
 72
     1
  1
\A1;88.5
  7
STYLE1
 73
     1
 44
1.0
1001
ACAD
1000
MTEXTBEGIN
1070
    73
1070
     1
1070
    44
1040
1.0
1070
    74
1070
     0
1000
MTEXTEND
  0
POINT
  5
1EC5D
330
1EBA1
100
AcDbEntity
  8
DEFPOINTS
 62
     0
 48
50.0
100
AcDbPoint
 10
10382.31833236196
 20
2970.780337823297
 30
0.0
  0
POINT
  5
1EC5E
330
1EBA1
100
AcDbEntity
  8
DEFPOINTS
 62
     0
 48
50.0
100
AcDbPoint
 10
10572.93371697735
 20
2971.85726090022
 30
0.0
  0
POINT
  5
1EC5F
330
1EBA1
100
AcDbEntity
  8
DEFPOINTS
 62
     0
 48
50.0
100
AcDbPoint
 10
10572.93371697735
 20
3330.554136234758
 30
0.0
  0
ENDBLK
  5
1EBAC
330
1EBA1
100
AcDbEntity
  8
0
 48
50.0
100
AcDbBlockEnd
  0
BLOCK
  5
1EBB8
330
1EBAD
100
AcDbEntity
  8
0
 48
50.0
100
AcDbBlockBegin
  2
*D24
 70
     1
 10
0.0
 20
0.0
 30
0.0
  3
*D24
  1

  0
LINE
  5
1EC4D
330
1EBAD
100
AcDbEntity
  8
寸法
 62
     0
 48
50.0
370
    -2
100
AcDbLine
 10
10476.54910159273
 20
2925.549568592527
 30
0.0
 11
9755.163803672063
 21
2925.549568592527
 31
0.0
  0
LINE
  5
1EC4E
330
1EBAD
100
AcDbEntity
  8
寸法
 62
     0
 48
50.0
370
    -2
100
AcDbLine
 10
10346.54910159273
 20
2865.241876284836
 30
0.0
 11
9755.163803672063
 21
2865.241876284836
 31
0.0
  0
LINE
  5
1EC4F
330
1EBAD
100
AcDbEntity
  8
寸法
 62
     0
 48
50.0
370
    -2
100
AcDbLine
 10
9830.163803672064
 20
2865.241876284836
 30
0.0
 11
9830.163803672064
 21
2925.549568592527
 31
0.0
  0
LINE
  5
1EC50
330
1EBAD
100
AcDbEntity
  8
寸法
 62
     0
 48
50.0
370
    -2
100
AcDbLine
 10
9830.163803672064
 20
2925.549568592527
 30
0.0
 11
9830.163803672064
 21
3338.961642083342
 31
0.0
  0
INSERT
  5
1EC51
330
1EBAD
100
AcDbEntity
  8
寸法
 62
     0
 48
50.0
370
    -2
100
AcDbBlockReference
  2
_DOTSMALL
 10
9830.163803672064
 20
2865.241876284836
 30
0.0
 41
125.0
 42
125.0
 43
125.0
 50
270.0
  0
INSERT
  5
1EC52
330
1EBAD
100
AcDbEntity
  8
寸法
 62
     0
 48
50.0
370
    -2
100
AcDbBlockReference
  2
_DOTSMALL
 10
9830.163803672064
 20
2925.549568592527
 30
0.0
 41
125.0
 42
125.0
 43
125.0
 50
90.0
  0
MTEXT
  5
1EC53
330
1EBAD
100
AcDbEntity
  8
寸法
 62
     7
 48
50.0
100
AcDbMText
 10
9755.163803672063
 20
3194.755605337937
 30
0.0
 40
100.0
 41
0.0
 71
     5
 72
     1
  1
\A1;出30
  7
STYLE1
 11
0.0000000000000001
 21
1.0
 31
0.0
 73
     1
 44
1.0
1001
ACAD
1000
MTEXTBEGIN
1070
    73
1070
     1
1070
    44
1040
1.0
1070
    74
1070
     0
1000
MTEXTEND
  0
POINT
  5
1EC54
330
1EBAD
100
AcDbEntity
  8
DEFPOINTS
 62
     0
 48
50.0
100
AcDbPoint
 10
10501.54910159273
 20
2925.549568592527
 30
0.0
  0
POINT
  5
1EC55
330
1EBAD
100
AcDbEntity
  8
DEFPOINTS
 62
     0
 48
50.0
100
AcDbPoint
 10
10371.54910159273
 20
2865.241876284836
 30
0.0
  0
POINT
  5
1EC56
330
1EBAD
100
AcDbEntity
  8
DEFPOINTS
 62
     0
 48
50.0
100
AcDbPoint
 10
9830.163803672064
 20
2865.241876284836
 30
0.0
  0
ENDBLK
  5
1EBB9
330
1EBAD
100
AcDbEntity
  8
0
 48
50.0
100
AcDbBlockEnd
  0
BLOCK
  5
1EBC4
330
1EBBA
100
AcDbEntity
  8
0
 48
50.0
100
AcDbBlockBegin
  2
*D25
 70
     1
 10
0.0
 20
0.0
 30
0.0
  3
*D25
  1

  0
LINE
  5
1EC72
330
1EBBA
100
AcDbEntity
  8
寸法
 62
     0
 48
50.0
370
    -2
100
AcDbLine
 10
7144.125198068325
 20
1524.712156520047
 30
0.0
 11
7144.125198068325
 21
1175.760050064113
 31
0.0
  0
LINE
  5
1EC73
330
1EBBA
100
AcDbEntity
  8
寸法
 62
     0
 48
50.0
370
    -2
100
AcDbLine
 10
7744.125198068324
 20
1524.712156520047
 30
0.0
 11
7744.125198068324
 21
1175.760050064113
 31
0.0
  0
LINE
  5
1EC74
330
1EBBA
100
AcDbEntity
  8
寸法
 62
     0
 48
50.0
370
    -2
100
AcDbLine
 10
7144.125198068325
 20
1250.760050064113
 30
0.0
 11
7744.125198068324
 21
1250.760050064113
 31
0.0
  0
INSERT
  5
1EC75
330
1EBBA
100
AcDbEntity
  8
寸法
 62
     0
 48
50.0
370
    -2
100
AcDbBlockReference
  2
_DOTSMALL
 10
7144.125198068325
 20
1250.760050064113
 30
0.0
 41
125.0
 42
125.0
 43
125.0
 50
180.0
  0
INSERT
  5
1EC76
330
1EBBA
100
AcDbEntity
  8
寸法
 62
     0
 48
50.0
370
    -2
100
AcDbBlockReference
  2
_DOTSMALL
 10
7744.125198068324
 20
1250.760050064113
 30
0.0
 41
125.0
 42
125.0
 43
125.0
  0
MTEXT
  5
1EC77
330
1EBBA
100
AcDbEntity
  8
寸法
 62
     7
 48
50.0
100
AcDbMText
 10
7444.125198068324
 20
1325.760050064113
 30
0.0
 40
100.0
 41
0.0
 71
     5
 72
     1
  1
\A1;300
  7
STYLE1
 73
     1
 44
1.0
1001
ACAD
1000
MTEXTBEGIN
1070
    73
1070
     1
1070
    44
1040
1.0
1070
    74
1070
     0
1000
MTEXTEND
  0
POINT
  5
1EC78
330
1EBBA
100
AcDbEntity
  8
DEFPOINTS
 62
     0
 48
50.0
100
AcDbPoint
 10
7144.125198068325
 20
1549.712156520047
 30
0.0
  0
POINT
  5
1EC79
330
1EBBA
100
AcDbEntity
  8
DEFPOINTS
 62
     0
 48
50.0
100
AcDbPoint
 10
7744.125198068324
 20
1549.712156520047
 30
0.0
  0
POINT
  5
1EC7A
330
1EBBA
100
AcDbEntity
  8
DEFPOINTS
 62
     0
 48
50.0
100
AcDbPoint
 10
7744.125198068324
 20
1250.760050064113
 30
0.0
  0
ENDBLK
  5
1EBC5
330
1EBBA
100
AcDbEntity
  8
0
 48
50.0
100
AcDbBlockEnd
  0
BLOCK
  5
1EBD0
330
1EBC6
100
AcDbEntity
  8
0
 48
50.0
100
AcDbBlockBegin
  2
*D26
 70
     1
 10
0.0
 20
0.0
 30
0.0
  3
*D26
  1

  0
LINE
  5
1EC69
330
1EBC6
100
AcDbEntity
  8
寸法
 62
     0
 48
50.0
370
    -2
100
AcDbLine
 10
7299.125198068324
 20
2789.712156520047
 30
0.0
 11
6394.65583026917
 21
2789.712156520048
 31
0.0
  0
LINE
  5
1EC6A
330
1EBC6
100
AcDbEntity
  8
寸法
 62
     0
 48
50.0
370
    -2
100
AcDbLine
 10
7039.125198068325
 20
1709.712156520047
 30
0.0
 11
6394.655830269169
 21
1709.712156520047
 31
0.0
  0
LINE
  5
1EC6B
330
1EBC6
100
AcDbEntity
  8
寸法
 62
     0
 48
50.0
370
    -2
100
AcDbLine
 10
6469.65583026917
 20
2789.712156520048
 30
0.0
 11
6469.65583026917
 21
1709.712156520047
 31
0.0
  0
INSERT
  5
1EC6C
330
1EBC6
100
AcDbEntity
  8
寸法
 62
     0
 48
50.0
370
    -2
100
AcDbBlockReference
  2
_DOTSMALL
 10
6469.65583026917
 20
2789.712156520048
 30
0.0
 41
125.0
 42
125.0
 43
125.0
 50
90.0
  0
INSERT
  5
1EC6D
330
1EBC6
100
AcDbEntity
  8
寸法
 62
     0
 48
50.0
370
    -2
100
AcDbBlockReference
  2
_DOTSMALL
 10
6469.65583026917
 20
1709.712156520047
 30
0.0
 41
125.0
 42
125.0
 43
125.0
 50
270.0
  0
MTEXT
  5
1EC6E
330
1EBC6
100
AcDbEntity
  8
寸法
 62
     7
 48
50.0
100
AcDbMText
 10
6394.655830269169
 20
2286.507093117757
 30
0.0
 40
100.0
 41
0.0
 71
     5
 72
     1
  1
\A1;540
  7
STYLE1
 11
0.0000000000000001
 21
1.0
 31
0.0
 73
     1
 44
1.0
1001
ACAD
1000
MTEXTBEGIN
1070
    73
1070
     1
1070
    44
1040
1.0
1070
    74
1070
     0
1000
MTEXTEND
  0
POINT
  5
1EC6F
330
1EBC6
100
AcDbEntity
  8
DEFPOINTS
 62
     0
 48
50.0
100
AcDbPoint
 10
7324.125198068324
 20
2789.712156520047
 30
0.0
  0
POINT
  5
1EC70
330
1EBC6
100
AcDbEntity
  8
DEFPOINTS
 62
     0
 48
50.0
100
AcDbPoint
 10
7064.125198068325
 20
1709.712156520047
 30
0.0
  0
POINT
  5
1EC71
330
1EBC6
100
AcDbEntity
  8
DEFPOINTS
 62
     0
 48
50.0
100
AcDbPoint
 10
6469.65583026917
 20
1709.712156520047
 30
0.0
  0
ENDBLK
  5
1EBD1
330
1EBC6
100
AcDbEntity
  8
0
 48
50.0
100
AcDbBlockEnd
  0
BLOCK
  5
1EBDC
330
1EBD2
100
AcDbEntity
  8
0
 48
50.0
100
AcDbBlockBegin
  2
*D27
 70
     1
 10
0.0
 20
0.0
 30
0.0
  3
*D27
  1

  0
LINE
  5
1EC7B
330
1EBD2
100
AcDbEntity
  8
寸法
 62
     0
 48
50.0
370
    -2
100
AcDbLine
 10
7139.125198068325
 20
2009.712156520047
 30
0.0
 11
6625.854853736716
 21
2009.712156520047
 31
0.0
  0
LINE
  5
1EC7C
330
1EBD2
100
AcDbEntity
  8
寸法
 62
     0
 48
50.0
370
    -2
100
AcDbLine
 10
7039.125198068325
 20
1709.712156520047
 30
0.0
 11
6625.854853736716
 21
1709.712156520047
 31
0.0
  0
LINE
  5
1EC7D
330
1EBD2
100
AcDbEntity
  8
寸法
 62
     0
 48
50.0
370
    -2
100
AcDbLine
 10
6700.854853736716
 20
2009.712156520047
 30
0.0
 11
6700.854853736716
 21
1709.712156520047
 31
0.0
  0
INSERT
  5
1EC7E
330
1EBD2
100
AcDbEntity
  8
寸法
 62
     0
 48
50.0
370
    -2
100
AcDbBlockReference
  2
_DOTSMALL
 10
6700.854853736716
 20
2009.712156520047
 30
0.0
 41
125.0
 42
125.0
 43
125.0
 50
90.0
  0
INSERT
  5
1EC7F
330
1EBD2
100
AcDbEntity
  8
寸法
 62
     0
 48
50.0
370
    -2
100
AcDbBlockReference
  2
_DOTSMALL
 10
6700.854853736716
 20
1709.712156520047
 30
0.0
 41
125.0
 42
125.0
 43
125.0
 50
270.0
  0
MTEXT
  5
1EC80
330
1EBD2
100
AcDbEntity
  8
寸法
 62
     7
 48
50.0
100
AcDbMText
 10
6625.854853736716
 20
1884.03875091219
 30
0.0
 40
100.0
 41
0.0
 71
     5
 72
     1
  1
\A1;150
  7
STYLE1
 11
0.0000000000000001
 21
1.0
 31
0.0
 73
     1
 44
1.0
1001
ACAD
1000
MTEXTBEGIN
1070
    73
1070
     1
1070
    44
1040
1.0
1070
    74
1070
     0
1000
MTEXTEND
  0
POINT
  5
1EC81
330
1EBD2
100
AcDbEntity
  8
DEFPOINTS
 62
     0
 48
50.0
100
AcDbPoint
 10
7164.125198068325
 20
2009.712156520047
 30
0.0
  0
POINT
  5
1EC82
330
1EBD2
100
AcDbEntity
  8
DEFPOINTS
 62
     0
 48
50.0
100
AcDbPoint
 10
7064.125198068325
 20
1709.712156520047
 30
0.0
  0
POINT
  5
1EC83
330
1EBD2
100
AcDbEntity
  8
DEFPOINTS
 62
     0
 48
50.0
100
AcDbPoint
 10
6700.854853736716
 20
1709.712156520047
 30
0.0
  0
ENDBLK
  5
1EBDD
330
1EBD2
100
AcDbEntity
  8
0
 48
50.0
100
AcDbBlockEnd
  0
BLOCK
  5
1EBE9
330
1EBDE
100
AcDbEntity
  8
0
 48
50.0
100
AcDbBlockBegin
  2
*D28
 70
     1
 10
0.0
 20
0.0
 30
0.0
  3
*D28
  1

  0
LINE
  5
1EC43
330
1EBDE
100
AcDbEntity
  8
寸法
 62
     0
 48
50.0
370
    -2
100
AcDbLine
 10
10371.54910159273
 20
2890.241876284836
 30
0.0
 11
10371.54910159273
 21
3183.975218182783
 31
0.0
  0
LINE
  5
1EC44
330
1EBDE
100
AcDbEntity
  8
寸法
 62
     0
 48
50.0
370
    -2
100
AcDbLine
 10
10515.04910159273
 20
2950.549568592527
 30
0.0
 11
10515.04910159273
 21
3183.975218182783
 31
0.0
  0
LINE
  5
1EC45
330
1EBDE
100
AcDbEntity
  8
寸法
 62
     0
 48
50.0
370
    -2
100
AcDbLine
 10
10515.04910159273
 20
3108.975218182783
 30
0.0
 11
10371.54910159273
 21
3108.975218182783
 31
0.0
  0
LINE
  5
1EC46
330
1EBDE
100
AcDbEntity
  8
寸法
 62
     0
 48
50.0
370
    -2
100
AcDbLine
 10
10371.54910159273
 20
3108.975218182783
 30
0.0
 11
10076.4227140005
 21
3108.975218182783
 31
0.0
  0
INSERT
  5
1EC47
330
1EBDE
100
AcDbEntity
  8
寸法
 62
     0
 48
50.0
370
    -2
100
AcDbBlockReference
  2
_DOTSMALL
 10
10515.04910159273
 20
3108.975218182783
 30
0.0
 41
125.0
 42
125.0
 43
125.0
  0
INSERT
  5
1EC48
330
1EBDE
100
AcDbEntity
  8
寸法
 62
     0
 48
50.0
370
    -2
100
AcDbBlockReference
  2
_DOTSMALL
 10
10371.54910159273
 20
3108.975218182783
 30
0.0
 41
125.0
 42
125.0
 43
125.0
 50
180.0
  0
MTEXT
  5
1EC49
330
1EBDE
100
AcDbEntity
  8
寸法
 62
     7
 48
50.0
100
AcDbMText
 10
10161.48590779662
 20
3183.975218182783
 30
0.0
 40
100.0
 41
0.0
 71
     5
 72
     1
  1
\A1;65
  7
STYLE1
 73
     1
 44
1.0
1001
ACAD
1000
MTEXTBEGIN
1070
    73
1070
     1
1070
    44
1040
1.0
1070
    74
1070
     0
1000
MTEXTEND
  0
POINT
  5
1EC4A
330
1EBDE
100
AcDbEntity
  8
DEFPOINTS
 62
     0
 48
50.0
100
AcDbPoint
 10
10371.54910159273
 20
2865.241876284836
 30
0.0
  0
POINT
  5
1EC4B
330
1EBDE
100
AcDbEntity
  8
DEFPOINTS
 62
     0
 48
50.0
100
AcDbPoint
 10
10515.04910159273
 20
2925.549568592527
 30
0.0
  0
POINT
  5
1EC4C
330
1EBDE
100
AcDbEntity
  8
DEFPOINTS
 62
     0
 48
50.0
100
AcDbPoint
 10
10515.04910159273
 20
3108.975218182783
 30
0.0
  0
ENDBLK
  5
1EBEA
330
1EBDE
100
AcDbEntity
  8
0
 48
50.0
100
AcDbBlockEnd
  0
ENDSEC
  0
SECTION
  2
ENTITIES
  0
MTEXT
  5
763F
330
747D
100
AcDbEntity
  8
0
100
AcDbMText
 10
302.846345836809
 20
280.1983726409901
 30
0.0
 40
3.5
 41
5.323721266742722
 71
     1
 72
     5
  1

  7
MSMINCHO
 73
     1
 44
1.0
1001
ACAD
1000
MTEXTBEGIN
1070
    73
1070
     1
1070
    44
1040
1.0
1070
    74
1070
     0
1000
MTEXTEND
  0
LINE
  5
10B56
330
747D
100
AcDbEntity
  8
補助
  6
PHANTOM
 62
   230
 48
50.0
100
AcDbLine
 10
175.0
 20
0.0
 30
0.0
 11
174.9999999999993
 21
14262.0
 31
0.0
  0
LINE
  5
10B57
330
747D
100
AcDbEntity
  8
補助
  6
PHANTOM
 62
   230
 48
50.0
100
AcDbLine
 10
174.9999999999993
 20
14262.0
 30
0.0
 11
20384.0
 21
14262.0
 31
0.0
  0
LINE
  5
10B5D
330
747D
100
AcDbEntity
  8
仕様書枠
 48
50.0
100
AcDbLine
 10
175.0
 20
0.0
 30
0.0
 11
20384.0
 21
-0.0000000000001137
 31
0.0
  0
LINE
  5
10B5E
330
747D
100
AcDbEntity
  8
補助
  6
PHANTOM
 62
   230
 48
50.0
100
AcDbLine
 10
20384.0
 20
14262.0
 30
0.0
 11
20384.0
 21
1500.0
 31
0.0
  0
TEXT
  5
19791
330
747D
100
AcDbEntity
  8
文字
 62
     7
 48
50.0
100
AcDbText
 10
11546.38590425657
 20
4082.453213633587
 30
0.0
 40
150.0
  1
（　）内寸法は屋根の出幅です。
  7
STYLE1
100
AcDbText
  0
LINE
  5
19792
330
747D
100
AcDbEntity
  8
部品1
100
AcDbLine
 10
14264.80592884888
 20
4017.932652490837
 30
0.0
 11
11527.14332199346
 21
4017.932652490837
 31
0.0
  0
DIMENSION
  5
1D266
330
747D
100
AcDbEntity
  8
寸法
 48
50.0
100
AcDbDimension
  2
*D1
 10
10914.78522911094
 20
9341.481654622098
 30
0.0
 11
10914.78522911094
 21
9611.540709740211
 31
0.0
 70
   160
 71
     5
 42
119.9999999999945
  3
INABA_S50G
100
AcDbAlignedDimension
 13
11002.89549299051
 23
9221.481654622103
 33
0.0
 14
11002.89549299051
 24
9341.481654622098
 34
0.0
 50
90.0
100
AcDbRotatedDimension
  0
DIMENSION
  5
1D268
330
747D
100
AcDbEntity
  8
寸法
 48
50.0
100
AcDbDimension
  2
*D2
 10
11302.89549299051
 20
9973.744804352275
 30
0.0
 11
10830.39549299051
 21
10073.74480435227
 31
0.0
 70
    32
 71
     5
 42
944.9999999999981
  3
INABA_S50G
100
AcDbAlignedDimension
 13
10357.89549299051
 23
9121.481654622098
 33
0.0
 14
11302.89549299051
 24
9341.481654622098
 34
0.0
100
AcDbRotatedDimension
  0
LINE
  5
1D269
330
747D
100
AcDbEntity
  8
部品1
 48
50.0
100
AcDbLine
 10
11302.89549299051
 20
9341.481654622098
 30
0.0
 11
9412.895492990509
 21
9341.481654622098
 31
0.0
  0
LINE
  5
1D26A
330
747D
100
AcDbEntity
  8
想像線
 48
20.0
100
AcDbLine
 10
11352.89549299051
 20
9431.481654622094
 30
0.0
 11
9362.895492990508
 21
9431.481654622096
 31
0.0
  0
LINE
  5
1D26B
330
747D
100
AcDbEntity
  8
部品1
 48
50.0
100
AcDbLine
 10
11182.89549299051
 20
9221.481654622103
 30
0.0
 11
9532.895492990506
 21
9221.481654622101
 31
0.0
  0
LINE
  5
1D26C
330
747D
100
AcDbEntity
  8
想像線
 48
20.0
100
AcDbLine
 10
9362.895492990508
 20
7901.481654622097
 30
0.0
 11
11352.89549299051
 21
7901.481654622097
 31
0.0
  0
LINE
  5
1D26D
102
{ACAD_REACTORS
330
1E033
102
}
330
747D
100
AcDbEntity
  8
部品1
 48
50.0
100
AcDbLine
 10
9532.895492990512
 20
8151.481654622099
 30
0.0
 11
11182.89549299051
 21
8151.481654622095
 31
0.0
  0
DIMENSION
  5
1D26E
330
747D
100
AcDbEntity
  8
寸法
 48
50.0
100
AcDbDimension
  2
*D3
 10
11302.89549299051
 20
7100.481654622098
 30
0.0
 11
10357.89549299051
 21
7200.481654622098
 31
0.0
 70
    32
 71
     5
 42
1890.0
  3
INABA_S50G
100
AcDbAlignedDimension
 13
9412.895492990509
 23
7966.481654622097
 33
0.0
 14
11302.89549299051
 24
8031.481654622094
 34
0.0
100
AcDbRotatedDimension
  0
DIMENSION
  5
1D26F
330
747D
100
AcDbEntity
  8
寸法
 48
50.0
100
AcDbDimension
  2
*D4
 10
11237.89549299051
 20
7412.014598377169
 30
0.0
 11
10357.89549299051
 21
7512.014598377169
 31
0.0
 70
    32
 71
     5
 42
1760.0
  3
INABA_S50G
100
AcDbAlignedDimension
 13
9477.895492990509
 23
7951.481654622097
 33
0.0
 14
11237.89549299051
 24
7951.481654622097
 34
0.0
100
AcDbRotatedDimension
1001
ACAD
1000
DSTYLE
1002
{
1070
    75
1070
     1
1070
   279
1070
     1
1002
}
  0
LINE
  5
1D270
102
{ACAD_REACTORS
330
1E033
102
}
330
747D
100
AcDbEntity
  8
部品1
 48
50.0
100
AcDbLine
 10
9412.895492990509
 20
7966.481654622097
 30
0.0
 11
11302.89549299051
 21
7966.481654622097
 31
0.0
  0
DIMENSION
  5
1D271
330
747D
100
AcDbEntity
  8
寸法
 48
50.0
100
AcDbDimension
  2
*D5
 10
11544.54614286807
 20
9009.321852244939
 30
0.0
 11
10861.10341094194
 21
8512.108224520899
 31
0.0
 70
   161
 71
     5
 42
2337.247312545253
  3
INABA_S50G
100
AcDbAlignedDimension
 13
9412.895492990509
 23
7966.481654622097
 33
0.0
 14
11302.89549299051
 24
9341.481654622098
 34
0.0
  0
DIMENSION
  5
1D272
330
747D
100
AcDbEntity
  8
寸法
 48
50.0
100
AcDbDimension
  2
*D6
 10
9477.895492990509
 20
7412.014598377169
 30
0.0
 11
9139.788891272711
 21
7412.014598377169
 31
0.0
 70
   160
 71
     5
 42
65.0
  3
INABA_S50G
100
AcDbAlignedDimension
 13
9412.895492990509
 23
7966.481654622097
 33
0.0
 14
9477.895492990509
 24
7951.481654622097
 34
0.0
100
AcDbRotatedDimension
  0
DIMENSION
  5
1D273
330
747D
100
AcDbEntity
  8
寸法
 48
50.0
100
AcDbDimension
  2
*D7
 10
9412.895492990509
 20
7100.481654622098
 30
0.0
 11
9069.45454810862
 21
7100.481654622098
 31
0.0
 70
   160
  1
(<>)
 71
     5
 42
50.0
  3
INABA_S50G
100
AcDbAlignedDimension
 13
9362.895492990508
 23
7412.014598377169
 33
0.0
 14
9412.895492990509
 24
7966.481654622097
 34
0.0
100
AcDbRotatedDimension
  0
DIMENSION
  5
1D274
330
747D
100
AcDbEntity
  8
寸法
 48
50.0
100
AcDbDimension
  2
*D8
 10
10357.89549299051
 20
9973.744804352275
 30
0.0
 11
9885.395492990509
 21
10073.74480435227
 31
0.0
 70
    32
 71
     5
 42
945.0
  3
INABA_S50G
100
AcDbAlignedDimension
 13
9412.895492990509
 23
9341.481654622098
 33
0.0
 14
10357.89549299051
 24
8831.481654622097
 34
0.0
100
AcDbRotatedDimension
  0
MTEXT
  5
1D275
102
{ACAD_REACTORS
330
1D276
102
}
330
747D
100
AcDbEntity
  8
細線
 62
     7
 48
50.0
100
AcDbMText
 10
8848.521928621995
 20
9727.150510284518
 30
0.0
 40
150.0
 41
0.0
 71
     6
 72
     1
  1
\A1;アンカーボルト芯
  7
STYLE1
 73
     1
 44
1.0
1001
ACAD
1000
MTEXTBEGIN
1070
    73
1070
     1
1070
    44
1040
1.0
1070
    74
1070
     0
1000
MTEXTEND
  0
LEADER
  5
1D276
330
747D
100
AcDbEntity
  8
寸法
 48
50.0
100
AcDbLeader
  3
INABA_S50G
 71
     0
 73
     0
 75
     1
 40
150.0
 41
1417.499999999999
 76
     3
 10
9477.895492990509
 20
9276.481654622097
 30
0.0
 10
8998.521928621995
 20
9627.150510284518
 30
0.0
 10
8873.521928621995
 20
9627.150510284518
 30
0.0
340
1D275
  0
LINE
  5
1D278
330
747D
100
AcDbEntity
  8
細線
 48
50.0
100
AcDbLine
 10
9412.895492990513
 20
8626.368082835744
 30
0.0
 11
9532.895492990512
 21
8746.368082835747
 31
0.0
  0
LINE
  5
1D279
330
747D
100
AcDbEntity
  8
細線
 48
50.0
100
AcDbLine
 10
9412.895492990509
 20
8671.269363441087
 30
0.0
 11
9528.107784171517
 21
8786.481654622095
 31
0.0
  0
LINE
  5
1D27A
330
747D
100
AcDbEntity
  8
細線
 48
50.0
100
AcDbLine
 10
9412.895492990511
 20
8716.170644046437
 30
0.0
 11
9483.206503566172
 21
8786.481654622098
 31
0.0
  0
LINE
  5
1D27B
330
747D
100
AcDbEntity
  8
部品1
 48
50.0
100
AcDbLine
 10
9412.895492990509
 20
9341.481654622098
 30
0.0
 11
9412.895492990509
 21
7966.481654622097
 31
0.0
  0
LINE
  5
1D27C
330
747D
100
AcDbEntity
  8
想像線
 48
20.0
100
AcDbLine
 10
9362.895492990508
 20
9431.481654622096
 30
0.0
 11
9362.895492990508
 21
7901.481654622097
 31
0.0
  0
LINE
  5
1D27D
330
747D
100
AcDbEntity
  8
部品1
 48
50.0
100
AcDbLine
 10
9532.895492990506
 20
9221.481654622101
 30
0.0
 11
9532.895492990512
 21
8151.481654622099
 31
0.0
  0
LINE
  5
1D280
330
747D
100
AcDbEntity
  8
部品1
 48
50.0
100
AcDbLine
 10
9532.89549299051
 20
8586.481654622097
 30
0.0
 11
9412.895492990509
 21
8586.481654622097
 31
0.0
  0
LINE
  5
1D281
330
747D
100
AcDbEntity
  8
細線
 48
50.0
100
AcDbLine
 10
9417.910345382209
 20
8586.481654622097
 30
0.0
 11
9532.895492990508
 21
8701.466802230397
 31
0.0
  0
LINE
  5
1D282
330
747D
100
AcDbEntity
  8
細線
 48
50.0
100
AcDbLine
 10
9462.811625987557
 20
8586.481654622097
 30
0.0
 11
9532.89549299051
 21
8656.565521625051
 31
0.0
  0
LINE
  5
1D28C
102
{ACAD_REACTORS
330
1E033
102
}
330
747D
100
AcDbEntity
  8
部品1
 48
50.0
100
AcDbLine
 10
10257.89549299051
 20
7966.481654622097
 30
0.0
 11
10257.89549299051
 21
8151.481654622097
 31
0.0
  0
LINE
  5
1D28D
102
{ACAD_REACTORS
330
1E033
102
}
330
747D
100
AcDbEntity
  8
部品1
 48
50.0
100
AcDbLine
 10
10457.89549299051
 20
7966.481654622097
 30
0.0
 11
10457.89549299051
 21
8151.481654622095
 31
0.0
  0
LINE
  5
1D293
330
747D
100
AcDbEntity
  8
細線
 48
50.0
100
AcDbLine
 10
9507.712906592903
 20
8586.481654622097
 30
0.0
 11
9532.89549299051
 21
8611.664241019713
 31
0.0
  0
LINE
  5
1D321
330
747D
100
AcDbEntity
  8
部品1
 48
50.0
100
AcDbLine
 10
9532.895492990508
 20
8786.481654622095
 30
0.0
 11
9412.895492990509
 21
8786.481654622098
 31
0.0
  0
MTEXT
  5
1D323
102
{ACAD_REACTORS
330
1D324
102
}
330
747D
100
AcDbEntity
  8
部品1
 62
     7
 48
50.0
100
AcDbMText
 10
10056.58286346635
 20
9668.657844474736
 30
0.0
 40
150.0
 41
0.0
 71
     6
 72
     1
  1
\A1;床下換気口
  7
STYLE1
 73
     1
 44
1.0
1001
ACAD
1000
MTEXTBEGIN
1070
    73
1070
     1
1070
    44
1040
1.0
1070
    74
1070
     0
1000
MTEXTEND
  0
LEADER
  5
1D324
330
747D
100
AcDbEntity
  8
寸法
 48
50.0
100
AcDbLeader
  3
INABA_S50G
 73
     0
 75
     1
 40
150.0
 41
900.0000000000001
 76
     3
 10
10357.89549299051
 20
9341.481654622098
 30
0.0
 10
10206.58286346635
 20
9568.657844474735
 30
0.0
 10
10081.58286346635
 20
9568.657844474735
 30
0.0
340
1D323
1001
ACAD
1000
DSTYLE
1002
{
1070
   341
1005
0
1070
    40
1040
1.0
1070
   343
1005
0
1070
   344
1005
0
1002
}
  0
LINE
  5
1D325
330
747D
100
AcDbEntity
  8
細線
 48
50.0
100
AcDbLine
 10
9412.895492990513
 20
8761.07192465178
 30
0.0
 11
9438.305222960829
 21
8786.4816546221
 31
0.0
  0
LINE
  5
1D326
330
747D
100
AcDbEntity
  8
部品1
 48
50.0
100
AcDbLine
 10
10457.89549299051
 20
9221.481654622103
 30
0.0
 11
10457.89549299051
 21
9341.481654622098
 31
0.0
  0
LINE
  5
1D327
330
747D
100
AcDbEntity
  8
部品1
 48
50.0
100
AcDbLine
 10
10257.89549299051
 20
9221.481654622103
 30
0.0
 11
10257.89549299051
 21
9341.481654622098
 31
0.0
  0
LINE
  5
1D328
330
747D
100
AcDbEntity
  8
細線
 48
50.0
100
AcDbLine
 10
10257.89549299051
 20
9293.307781601468
 30
0.0
 11
10306.06936601113
 21
9341.481654622093
 31
0.0
  0
LINE
  5
1D329
330
747D
100
AcDbEntity
  8
細線
 48
50.0
100
AcDbLine
 10
10257.89549299051
 20
9248.406500996127
 30
0.0
 11
10350.97064661648
 21
9341.481654622098
 31
0.0
  0
LINE
  5
1D32A
330
747D
100
AcDbEntity
  8
細線
 48
50.0
100
AcDbLine
 10
10275.87192722183
 20
9221.481654622103
 30
0.0
 11
10395.87192722182
 21
9341.481654622093
 31
0.0
  0
LINE
  5
1D32B
330
747D
100
AcDbEntity
  8
細線
 48
50.0
100
AcDbLine
 10
10320.77320782718
 20
9221.481654622101
 30
0.0
 11
10440.77320782717
 21
9341.481654622098
 31
0.0
  0
LINE
  5
1D32C
330
747D
100
AcDbEntity
  8
細線
 48
50.0
100
AcDbLine
 10
10365.67448843253
 20
9221.481654622101
 30
0.0
 11
10457.89549299051
 21
9313.702659180085
 31
0.0
  0
LINE
  5
1D37C
330
747D
100
AcDbEntity
  8
細線
 48
50.0
100
AcDbLine
 10
10410.57576903787
 20
9221.481654622101
 30
0.0
 11
10457.89549299051
 21
9268.801378574742
 31
0.0
  0
LINE
  5
1D384
330
747D
100
AcDbEntity
  8
細線
 48
50.0
100
AcDbLine
 10
10257.89549299051
 20
9338.209062206818
 30
0.0
 11
10261.16808540579
 21
9341.481654622093
 31
0.0
  0
DIMENSION
  5
1D385
330
747D
100
AcDbEntity
  8
寸法
 48
50.0
100
AcDbDimension
  2
*D9
 10
11302.89549299051
 20
7412.014598377169
 30
0.0
 11
11576.0020947083
 21
7412.014598377169
 31
0.0
 70
   160
 71
     5
 42
65.0
  3
INABA_S50G
100
AcDbAlignedDimension
 13
11237.89549299051
 23
7951.481654622097
 33
0.0
 14
11302.89549299051
 24
8031.481654622096
 34
0.0
100
AcDbRotatedDimension
1001
ACAD
1000
DSTYLE
1002
{
1002
}
  0
DIMENSION
  5
1D386
330
747D
100
AcDbEntity
  8
寸法
 48
50.0
100
AcDbDimension
  2
*D10
 10
12153.89549299051
 20
7901.481654622097
 30
0.0
 11
12153.89549299051
 21
7570.54070974021
 31
0.0
 70
   160
  1
(<>)
 71
     5
 42
130.0
  3
INABA_S50G
100
AcDbAlignedDimension
 13
11302.89549299051
 23
8031.481654622096
 33
0.0
 14
11832.96371715457
 24
7901.481654622097
 34
0.0
 50
90.0
100
AcDbRotatedDimension
  0
DIMENSION
  5
1D387
330
747D
100
AcDbEntity
  8
寸法
 48
50.0
100
AcDbDimension
  2
*D11
 10
11352.89549299051
 20
7100.481654622098
 30
0.0
 11
11645.3364378724
 21
7100.481654622098
 31
0.0
 70
   160
  1
(<>)
 71
     5
 42
50.0
  3
INABA_S50G
100
AcDbAlignedDimension
 13
11302.89549299051
 23
8031.481654622094
 33
0.0
 14
11352.89549299051
 24
7412.014598377169
 34
0.0
100
AcDbRotatedDimension
  0
DIMENSION
  5
1D388
330
747D
100
AcDbEntity
  8
寸法
 48
50.0
100
AcDbDimension
  2
*D12
 10
12153.89549299051
 20
9431.481654622094
 30
0.0
 11
12153.89549299051
 21
9725.184674291057
 31
0.0
 70
   160
  1
(<>)
 71
     5
 42
89.99999999999635
  3
INABA_S50G
100
AcDbAlignedDimension
 13
11302.89549299051
 23
9341.481654622098
 33
0.0
 14
11832.96371715457
 24
9431.481654622094
 34
0.0
 50
90.0
100
AcDbRotatedDimension
  0
LEADER
  5
1D389
330
747D
100
AcDbEntity
  8
寸法
 48
50.0
100
AcDbLeader
  3
INABA_S50G
 73
     0
 74
     0
 75
     1
 40
150.0
 41
840.0
 76
     3
 10
11212.79453515538
 20
9431.481654622094
 30
0.0
 10
11512.64698611349
 20
9952.227627738942
 30
0.0
 10
11637.64698611349
 20
9952.227627738942
 30
0.0
340
1D38A
1001
ACAD
1000
DSTYLE
1002
{
1070
   341
1005
0
1070
    40
1040
1.0
1070
   343
1005
0
1070
   344
1005
0
1002
}
  0
MTEXT
  5
1D38A
102
{ACAD_REACTORS
330
1D389
102
}
330
747D
100
AcDbEntity
  8
部品1
 62
     7
 48
50.0
100
AcDbMText
 10
12502.64698611349
 20
10052.22762773894
 30
0.0
 40
150.0
 41
0.0
 71
     6
 72
     1
  1
\A1;屋根の外寸
  7
STYLE1
 73
     1
 44
1.0
1001
ACAD
1000
MTEXTBEGIN
1070
    73
1070
     1
1070
    44
1040
1.0
1070
    74
1070
     0
1000
MTEXTEND
  0
LINE
  5
1D38B
330
747D
100
AcDbEntity
  8
細線
 48
50.0
100
AcDbLine
 10
11182.89549299051
 20
8606.368082835738
 30
0.0
 11
11302.89549299051
 21
8726.368082835744
 31
0.0
  0
LINE
  5
1D38C
330
747D
100
AcDbEntity
  8
細線
 48
50.0
100
AcDbLine
 10
11182.89549299051
 20
8651.269363441087
 30
0.0
 11
11302.89549299051
 21
8771.269363441087
 31
0.0
  0
LINE
  5
1D38D
330
747D
100
AcDbEntity
  8
細線
 48
50.0
100
AcDbLine
 10
11182.89549299051
 20
8696.170644046437
 30
0.0
 11
11273.20650356617
 21
8786.481654622098
 31
0.0
  0
LINE
  5
1D38E
330
747D
100
AcDbEntity
  8
部品1
 48
50.0
100
AcDbLine
 10
11302.89549299051
 20
7966.481654622097
 30
0.0
 11
11302.89549299051
 21
9341.481654622098
 31
0.0
  0
LINE
  5
1D38F
330
747D
100
AcDbEntity
  8
想像線
 48
20.0
100
AcDbLine
 10
11352.89549299051
 20
7901.481654622097
 30
0.0
 11
11352.89549299051
 21
9431.481654622094
 31
0.0
  0
LINE
  5
1D390
330
747D
100
AcDbEntity
  8
部品1
 48
50.0
100
AcDbLine
 10
11182.89549299051
 20
8151.481654622095
 30
0.0
 11
11182.89549299051
 21
9221.481654622103
 31
0.0
  0
DIMENSION
  5
1D391
330
747D
100
AcDbEntity
  8
寸法
 48
50.0
100
AcDbDimension
  2
*D13
 10
12153.89549299051
 20
9341.481654622098
 30
0.0
 11
12053.8954929905
 21
8686.481654622099
 31
0.0
 70
    32
 71
     5
 42
1309.999999999999
  3
INABA_S50G
100
AcDbAlignedDimension
 13
11302.89549299051
 23
8031.481654622096
 33
0.0
 14
11302.89549299051
 24
9341.481654622098
 34
0.0
 50
90.0
100
AcDbRotatedDimension
  0
DIMENSION
  5
1D392
330
747D
100
AcDbEntity
  8
寸法
 48
50.0
100
AcDbDimension
  2
*D14
 10
11832.96371715457
 20
8096.481654622097
 30
0.0
 11
11732.96371715457
 21
8686.481654622099
 31
0.0
 70
    32
 71
     5
 42
1179.999999999999
  3
INABA_S50G
100
AcDbAlignedDimension
 13
11382.89549299051
 23
9276.481654622097
 33
0.0
 14
11382.89549299051
 24
8096.481654622097
 34
0.0
 50
90.0
100
AcDbRotatedDimension
1001
ACAD
1000
DSTYLE
1002
{
1070
    75
1070
     1
1070
   279
1070
     1
1002
}
  0
DIMENSION
  5
1D393
330
747D
100
AcDbEntity
  8
寸法
 48
50.0
100
AcDbDimension
  2
*D15
 10
11832.96371715458
 20
8031.481654622096
 30
0.0
 11
11832.96371715457
 21
7758.375052904298
 31
0.0
 70
   160
 71
     5
 42
65.0
  3
INABA_S50G
100
AcDbAlignedDimension
 13
11382.89549299051
 23
8096.481654622097
 33
0.0
 14
11302.89549299051
 24
8031.481654622096
 34
0.0
 50
90.0
100
AcDbRotatedDimension
1001
ACAD
1000
DSTYLE
1002
{
1002
}
  0
LINE
  5
1D396
330
747D
100
AcDbEntity
  8
細線
 48
50.0
100
AcDbLine
 10
11207.91034538221
 20
8586.481654622097
 30
0.0
 11
11302.89549299051
 21
8681.466802230396
 31
0.0
  0
LINE
  5
1D397
330
747D
100
AcDbEntity
  8
部品1
 48
50.0
100
AcDbLine
 10
11302.89549299051
 20
8586.481654622097
 30
0.0
 11
11182.89549299051
 21
8586.481654622097
 31
0.0
  0
LINE
  5
1D398
330
747D
100
AcDbEntity
  8
細線
 48
50.0
100
AcDbLine
 10
11252.81162598755
 20
8586.481654622097
 30
0.0
 11
11302.89549299051
 21
8636.565521625049
 31
0.0
  0
LINE
  5
1D39B
330
747D
100
AcDbEntity
  8
細線
 48
50.0
100
AcDbLine
 10
11297.7129065929
 20
8586.481654622097
 30
0.0
 11
11302.89549299051
 21
8591.664241019705
 31
0.0
  0
DIMENSION
  5
1D39C
330
747D
100
AcDbEntity
  8
寸法
 48
50.0
100
AcDbDimension
  2
*D16
 10
11302.89549299051
 20
8251.10956479777
 30
0.0
 11
11572.95454810862
 21
8251.10956479777
 31
0.0
 70
   160
 71
     5
 42
120.0
  3
INABA_S50G
100
AcDbAlignedDimension
 13
11182.89549299051
 23
8443.339312661741
 33
0.0
 14
11302.89549299051
 24
8443.339312661741
 34
0.0
100
AcDbRotatedDimension
  0
DIMENSION
  5
1D39D
330
747D
100
AcDbEntity
  8
寸法
 48
50.0
100
AcDbDimension
  2
*D17
 10
11832.96371715458
 20
9276.481654622097
 30
0.0
 11
11832.96371715457
 21
9614.588256339898
 31
0.0
 70
   160
 71
     5
 42
65.0
  3
INABA_S50G
100
AcDbAlignedDimension
 13
11302.89549299051
 23
9341.481654622098
 33
0.0
 14
11382.89549299051
 24
9276.481654622097
 34
0.0
 50
90.0
100
AcDbRotatedDimension
  0
LINE
  5
1D3A0
330
747D
100
AcDbEntity
  8
部品1
 48
50.0
100
AcDbLine
 10
11302.89549299051
 20
8786.481654622098
 30
0.0
 11
11182.89549299051
 21
8786.481654622098
 31
0.0
  0
LINE
  5
1D3A2
330
747D
100
AcDbEntity
  8
細線
 48
50.0
100
AcDbLine
 10
11182.89549299051
 20
8741.071924651775
 30
0.0
 11
11228.30522296083
 21
8786.4816546221
 31
0.0
  0
LINE
  5
1D5A2
330
747D
100
AcDbEntity
  8
センター
 48
5.0
100
AcDbLine
 10
9622.895492990508
 20
8096.481654622097
 30
0.0
 11
9332.895492990507
 21
8096.481654622097
 31
0.0
  0
LINE
  5
1D5A3
330
747D
100
AcDbEntity
  8
センター
 48
5.0
100
AcDbLine
 10
9477.895492990509
 20
7951.481654622097
 30
0.0
 11
9477.895492990509
 21
8241.481654622097
 31
0.0
  0
LINE
  5
1D5B6
330
747D
100
AcDbEntity
  8
センター
 48
5.0
100
AcDbLine
 10
11237.89549299051
 20
7951.481654622097
 30
0.0
 11
11237.89549299051
 21
8241.481654622097
 31
0.0
  0
LINE
  5
1D5B7
330
747D
100
AcDbEntity
  8
センター
 48
5.0
100
AcDbLine
 10
11092.89549299051
 20
8096.481654622097
 30
0.0
 11
11382.89549299051
 21
8096.481654622097
 31
0.0
  0
LINE
  5
1D5B8
330
747D
100
AcDbEntity
  8
センター
 48
5.0
100
AcDbLine
 10
9477.895492990509
 20
9421.481654622096
 30
0.0
 11
9477.895492990509
 21
9131.481654622097
 31
0.0
  0
LINE
  5
1D5B9
330
747D
100
AcDbEntity
  8
センター
 48
5.0
100
AcDbLine
 10
9622.895492990508
 20
9276.481654622097
 30
0.0
 11
9332.895492990507
 21
9276.481654622097
 31
0.0
  0
LINE
  5
1D5BA
330
747D
100
AcDbEntity
  8
センター
 48
5.0
100
AcDbLine
 10
11237.89549299051
 20
9421.481654622096
 30
0.0
 11
11237.89549299051
 21
9131.481654622097
 31
0.0
  0
LINE
  5
1D5BB
330
747D
100
AcDbEntity
  8
センター
 48
5.0
100
AcDbLine
 10
11092.89549299051
 20
9276.481654622097
 30
0.0
 11
11382.89549299051
 21
9276.481654622097
 31
0.0
  0
MTEXT
  5
1DF57
102
{ACAD_REACTORS
330
1DF58
102
}
330
747D
100
AcDbEntity
  8
細線
 62
     7
 48
50.0
100
AcDbMText
 10
10121.21268744105
 20
8981.755487668429
 30
0.0
 40
150.0
 41
0.0
 71
     6
 72
     1
  1
\A1;C.B
  7
STYLE1
 73
     1
 44
1.0
1001
ACAD
1000
MTEXTBEGIN
1070
    73
1070
     1
1070
    44
1040
1.0
1070
    74
1070
     0
1000
MTEXTEND
  0
LEADER
  5
1DF58
330
747D
100
AcDbEntity
  8
寸法
 48
50.0
100
AcDbLeader
  3
INABA_S50G
 71
     0
 73
     0
 75
     1
 40
150.0
 41
231.9898538650463
 76
     3
 10
10318.37504248954
 20
8760.856041018923
 30
0.0
 10
10271.21268744105
 20
8881.75548766843
 30
0.0
 10
10146.21268744105
 20
8881.75548766843
 30
0.0
340
1DF57
  0
LINE
  5
1DF59
330
747D
100
AcDbEntity
  8
部品1
 48
50.0
100
AcDbLine
 10
10257.89549299051
 20
8586.481654622097
 30
0.0
 11
10257.89549299051
 21
8786.481654622098
 31
0.0
  0
LINE
  5
1DF5A
330
747D
100
AcDbEntity
  8
部品1
 48
50.0
100
AcDbLine
 10
10457.89549299051
 20
8786.481654622098
 30
0.0
 11
10457.89549299051
 21
8586.481654622097
 31
0.0
  0
LINE
  5
1DF5B
330
747D
100
AcDbEntity
  8
センター
 48
5.0
100
AcDbLine
 10
10357.89549299051
 20
8831.481654622097
 30
0.0
 11
10357.89549299051
 21
8541.481654622097
 31
0.0
  0
LINE
  5
1DF5C
330
747D
100
AcDbEntity
  8
部品1
 48
50.0
100
AcDbLine
 10
10457.89549299051
 20
8586.481654622097
 30
0.0
 11
10257.89549299051
 21
8586.481654622097
 31
0.0
  0
LINE
  5
1DF5D
330
747D
100
AcDbEntity
  8
部品1
 48
50.0
100
AcDbLine
 10
10257.89549299051
 20
8786.481654622098
 30
0.0
 11
10457.89549299051
 21
8786.481654622098
 31
0.0
  0
LINE
  5
1DF5E
330
747D
100
AcDbEntity
  8
センター
 48
5.0
100
AcDbLine
 10
10502.89549299051
 20
8686.481654622097
 30
0.0
 11
10212.89549299051
 21
8686.481654622097
 31
0.0
  0
DIMENSION
  5
1DF68
330
747D
100
AcDbEntity
  8
寸法
 48
50.0
100
AcDbDimension
  2
*D18
 10
8653.117966051409
 20
8686.481654622097
 30
0.0
 11
8553.117966051408
 21
9013.981654622099
 31
0.0
 70
    32
 71
     5
 42
655.0
  3
INABA_S50G
100
AcDbAlignedDimension
 13
9412.895492990509
 23
9341.481654622098
 33
0.0
 14
10212.89549299051
 24
8686.481654622097
 34
0.0
 50
90.0
100
AcDbRotatedDimension
1001
ACAD
1000
DSTYLE
1002
{
1070
   341
1005
0
1002
}
  0
DIMENSION
  5
1DF75
330
747D
100
AcDbEntity
  8
寸法
 48
50.0
100
AcDbDimension
  2
*D19
 10
8653.117966051409
 20
8031.481654622096
 30
0.0
 11
8553.117966051408
 21
8358.981654622098
 31
0.0
 70
    32
 71
     5
 42
655.0
  3
INABA_S50G
100
AcDbAlignedDimension
 13
10212.89549299051
 23
8686.481654622097
 33
0.0
 14
9412.895492990509
 24
8031.481654622096
 34
0.0
 50
90.0
100
AcDbRotatedDimension
1001
ACAD
1000
DSTYLE
1002
{
1070
   279
1070
     1
1070
   341
1005
0
1002
}
  0
HATCH
  5
1DFF9
330
747D
100
AcDbEntity
  8
寸法
 48
50.0
100
AcDbHatch
 10
0.0
 20
0.0
 30
0.0
210
0.0
220
0.0
230
1.0
  2
DOTS
 70
     0
 71
     0
 91
        1
 92
        7
 72
     0
 73
     1
 93
        4
 10
9477.895492990507
 20
8031.481654622096
 10
9412.895492990509
 20
8031.481654622096
 10
9412.895492990509
 20
7966.481654622097
 10
9477.895492990507
 20
7966.481654622096
 97
        0
 75
     0
 76
     1
 52
0.0
 41
9.0
 77
     0
 78
     1
 53
0.0
 43
0.0
 44
0.0
 45
7.143749999999999
 46
14.2875
 79
     2
 49
0.0
 49
-14.2875
 47
2.443114282112478
 98
        1
 10
9462.826100768623
 20
8002.760610677917
  0
HATCH
  5
1E008
330
747D
100
AcDbEntity
  8
寸法
 48
50.0
100
AcDbHatch
 10
0.0
 20
0.0
 30
0.0
210
0.0
220
0.0
230
1.0
  2
DOTS
 70
     0
 71
     0
 91
        1
 92
        7
 72
     0
 73
     1
 93
        4
 10
11302.89549299051
 20
8031.481654622094
 10
11237.89549299051
 20
8031.481654622096
 10
11237.8954929905
 20
7966.481654622097
 10
11302.89549299051
 20
7966.481654622096
 97
        0
 75
     0
 76
     1
 52
0.0
 41
5.0
 77
     0
 78
     1
 53
0.0
 43
0.0
 44
0.0
 45
3.96875
 46
7.9375
 79
     2
 49
0.0
 49
-7.9375
 47
1.20236699780817
 98
        1
 10
11266.34036195047
 20
7998.897120131103
  0
HATCH
  5
1E014
330
747D
100
AcDbEntity
  8
寸法
 48
50.0
100
AcDbHatch
 10
0.0
 20
0.0
 30
0.0
210
0.0
220
0.0
230
1.0
  2
DOTS
 70
     0
 71
     0
 91
        1
 92
        7
 72
     0
 73
     1
 93
        4
 10
10257.8954929905
 20
8031.481654622096
 10
9477.895492990509
 20
8031.481654622096
 10
9477.895492990509
 20
7966.481654622097
 10
10257.89549299051
 20
7966.481654622099
 97
        0
 75
     0
 76
     1
 52
0.0
 41
9.0
 77
     0
 78
     1
 53
0.0
 43
0.0
 44
0.0
 45
7.143749999999999
 46
14.2875
 79
     2
 49
0.0
 49
-14.2875
 47
1.053203687330713
 98
        1
 10
9856.999279724675
 20
8006.421388397063
  0
HATCH
  5
1E024
330
747D
100
AcDbEntity
  8
寸法
 48
50.0
100
AcDbHatch
 10
0.0
 20
0.0
 30
0.0
210
0.0
220
0.0
230
1.0
  2
DOTS
 70
     0
 71
     0
 91
        1
 92
        7
 72
     0
 73
     1
 93
        4
 10
11237.89549299051
 20
8031.481654622096
 10
10457.89549299051
 20
8031.481654622096
 10
10457.89549299051
 20
7966.481654622096
 10
11237.8954929905
 20
7966.481654622096
 97
        0
 75
     0
 76
     1
 52
0.0
 41
9.0
 77
     0
 78
     1
 53
0.0
 43
0.0
 44
0.0
 45
7.143749999999999
 46
14.2875
 79
     2
 49
0.0
 49
-14.2875
 47
1.053203687330713
 98
        1
 10
10838.65049156194
 20
8006.399898050903
  0
HATCH
  5
1E033
330
747D
100
AcDbEntity
  8
細線
 48
50.0
100
AcDbHatch
 10
0.0
 20
0.0
 30
0.0
210
0.0
220
0.0
230
1.0
  2
LINE
 70
     0
 71
     1
 91
        1
 92
        7
 72
     0
 73
     1
 93
        4
 10
10257.89549299051
 20
8151.481654622097
 10
10257.89549299051
 20
7966.481654622096
 10
10457.89549299051
 20
7966.481654622096
 10
10457.89549299051
 20
8151.481654622097
 97
        4
330
1D26D
330
1D28C
330
1D270
330
1D28D
 75
     0
 76
     1
 52
45.0
 41
10.0
 77
     0
 78
     1
 53
45.0
 43
0.0
 44
0.0
 45
-22.45064030267288
 46
22.45064030267288
 79
     0
 47
1.171830202920021
 98
        1
 10
10345.8157926633
 20
8084.321524770054
  0
LINE
  5
1E039
330
747D
100
AcDbEntity
  8
想像線
  6
PHANTOM
 48
4.0
100
AcDbLine
 10
9412.895476620375
 20
8031.481669434111
 30
0.0
 11
11302.89547662037
 21
8031.481669434105
 31
0.0
  0
DIMENSION
  5
1E03A
330
747D
100
AcDbEntity
  8
寸法
 48
50.0
100
AcDbDimension
  2
*D20
 10
9934.268626118814
 20
7966.481654622097
 30
0.0
 11
9934.268626118813
 21
8424.588256339898
 31
0.0
 70
   160
 71
     5
 42
185.0
  3
INABA_S50G
100
AcDbAlignedDimension
 13
9719.548446251442
 23
8151.481654622097
 33
0.0
 14
9719.548446251442
 24
7966.481654622097
 34
0.0
 50
90.0
100
AcDbRotatedDimension
1001
ACAD
1000
DSTYLE
1002
{
1070
   341
1005
0
1002
}
  0
TEXT
  5
1E08D
330
747D
100
AcDbEntity
  8
寸法
 48
50.0
100
AcDbText
 10
10245.97691068203
 20
7726.637582305935
 30
0.0
 40
120.0
  1
扉面
  7
STYLE1
100
AcDbText
  0
DIMENSION
  5
1E127
330
747D
100
AcDbEntity
  8
寸法
 48
50.0
100
AcDbDimension
  2
*D21
 10
8653.104654909551
 20
7966.481654622097
 30
0.0
 11
8653.104654909547
 21
7449.169191735608
 31
0.0
 70
   160
  1
扉の出65
 71
     5
 42
65.00001481201252
  3
INABA_S50G
100
AcDbAlignedDimension
 13
9412.895476620375
 23
8031.481669434111
 33
0.0
 14
9412.895492990509
 24
7966.481654622097
 34
0.0
 50
90.0
100
AcDbRotatedDimension
1001
ACAD
1000
DSTYLE
1002
{
1070
   341
1005
0
1002
}
  0
LEADER
  5
1E99A
330
747D
100
AcDbEntity
  8
寸法
 48
50.0
100
AcDbLeader
  3
INABA_S50G
 71
     0
 73
     0
 74
     0
 75
     1
 40
100.0
 41
828.6243686707642
 76
     3
 10
10528.54910159273
 20
2765.241876284836
 30
0.0
 10
10676.24926705735
 20
2608.678164054691
 30
0.0
 10
10801.24926705735
 20
2608.678164054691
 30
0.0
340
1E99B
  0
MTEXT
  5
1E99B
102
{ACAD_REACTORS
330
1E99A
102
}
330
747D
100
AcDbEntity
  8
寸法
 62
     7
 48
50.0
100
AcDbMText
 10
10826.24926705735
 20
2683.678164054691
 30
0.0
 40
100.0
 41
0.0
 71
     4
 72
     1
  1
アンカーボルト
  7
STYLE1
 73
     1
 44
1.0
1001
ACAD
1000
MTEXTBEGIN
1070
    73
1070
     1
1070
    44
1040
1.0
1070
    74
1070
     0
1000
MTEXTEND
  0
ARC
  5
1E99C
330
747D
100
AcDbEntity
  8
細線
 48
50.0
100
AcDbCircle
 10
10734.59219476102
 20
3743.927840022177
 30
0.0
 40
80.0
100
AcDbArc
 50
0.0
 51
90.0
  0
ARC
  5
1E99D
330
747D
100
AcDbEntity
  8
細線
 48
50.0
100
AcDbCircle
 10
10734.59219476102
 20
3663.927840022178
 30
0.0
 40
80.0
100
AcDbArc
 50
270.0
 51
0.0
  0
LINE
  5
1E99E
330
747D
100
AcDbEntity
  8
Ｇ．Ｌ
 48
50.0
100
AcDbLine
 10
10611.54910159273
 20
2389.077983422758
 30
0.0
 11
11129.22397888393
 21
2389.077983422758
 31
0.0
  0
LINE
  5
1E99F
330
747D
100
AcDbEntity
  8
部品1
 48
50.0
100
AcDbLine
 10
10891.54910159273
 20
1625.241876284835
 30
0.0
 11
10091.54910159273
 21
1625.241876284835
 31
0.0
  0
LINE
  5
1E9A0
330
747D
100
AcDbEntity
  8
部品1
 48
50.0
100
AcDbLine
 10
10891.54910159273
 20
1785.241876284835
 30
0.0
 11
10091.54910159273
 21
1785.241876284835
 31
0.0
  0
LINE
  5
1E9A1
330
747D
100
AcDbEntity
  8
部品1
 48
50.0
100
AcDbLine
 10
10936.15966785795
 20
1097.834111881661
 30
0.0
 11
9895.389895679716
 21
1097.834111881661
 31
0.0
  0
LINE
  5
1E9A2
330
747D
100
AcDbEntity
  8
部品1
 48
50.0
100
AcDbLine
 10
10936.15966785795
 20
937.8341118816607
 30
0.0
 11
9895.389895679716
 21
937.8341118816607
 31
0.0
  0
TEXT
  5
1E9A3
330
747D
100
AcDbEntity
  8
部品1
 48
50.0
100
AcDbText
 10
9956.992330817957
 20
971.8264036141572
 30
0.0
 40
96.0
  1
アンカー部詳細
  7
STYLE2
100
AcDbText
  0
LINE
  5
1E9A4
330
747D
100
AcDbEntity
  8
細線
 48
50.0
100
AcDbLine
 10
6248.659066840559
 20
798.266166781419
 30
0.0
 11
14371.23574413355
 21
798.2661667814205
 31
0.0
  0
DIMENSION
  5
1E9A5
330
747D
100
AcDbEntity
  8
寸法
 48
50.0
100
AcDbDimension
  2
*D22
 10
7324.125198068324
 20
3189.712156520047
 30
0.0
 11
7444.125198068324
 21
3189.712156520047
 31
0.0
 70
   160
  1
120\P185
 71
     5
 42
240.0
  3
INABA_S50GUP
100
AcDbAlignedDimension
 13
7564.125198068325
 23
2789.712156520047
 33
0.0
 14
7324.125198068324
 24
2789.712156520047
 34
0.0
100
AcDbRotatedDimension
1001
ACAD
1000
DSTYLE
1002
{
1070
   140
1040
100.0
1002
}
  0
LINE
  5
1E9A6
330
747D
100
AcDbEntity
  8
細線
 48
50.0
100
AcDbLine
 10
6248.659066840559
 20
3703.927840022178
 30
0.0
 11
6248.659066840559
 21
798.2661667814186
 31
0.0
  0
DIMENSION
  5
1E9A7
330
747D
100
AcDbEntity
  8
寸法
 48
50.0
100
AcDbDimension
  2
*D23
 10
10572.93371697735
 20
3330.554136234758
 30
0.0
 11
10477.62602466966
 21
3330.554136234758
 31
0.0
 70
   160
  1
88.5
 71
     5
 42
190.6153846153847
  3
INABA_S50GUP
100
AcDbAlignedDimension
 13
10382.31833236196
 23
2970.780337823297
 33
0.0
 14
10572.93371697735
 24
2971.85726090022
 34
0.0
100
AcDbRotatedDimension
1001
ACAD
1000
DSTYLE
1002
{
1070
   140
1040
100.0
1002
}
  0
DIMENSION
  5
1E9A8
330
747D
100
AcDbEntity
  8
寸法
 48
50.0
100
AcDbDimension
  2
*D24
 10
9830.163803672064
 20
2865.241876284836
 30
0.0
 11
9830.163803672064
 21
3194.755605337937
 31
0.0
 70
   160
  1
出30
 71
     5
 42
60.30769230769147
  3
INABA_S50GUP
100
AcDbAlignedDimension
 13
10501.54910159273
 23
2925.549568592527
 33
0.0
 14
10371.54910159273
 24
2865.241876284836
 34
0.0
 50
90.0
100
AcDbRotatedDimension
1001
ACAD
1000
DSTYLE
1002
{
1070
   140
1040
100.0
1002
}
  0
LEADER
  5
1E9A9
330
747D
100
AcDbEntity
  8
寸法
 48
50.0
100
AcDbLeader
  3
INABA_S50G
 71
     0
 73
     0
 74
     0
 75
     1
 40
101.39087296526
 41
174.1421356237309
 76
     3
 10
7444.125198068324
 20
1859.712156520046
 30
0.0
 10
7727.528538424623
 20
1391.808330639648
 30
0.0
 10
7852.528538424623
 20
1391.808330639648
 30
0.0
340
1E9AA
  0
MTEXT
  5
1E9AA
102
{ACAD_REACTORS
330
1E9A9
102
}
330
747D
100
AcDbEntity
  8
寸法
 62
     7
 48
50.0
100
AcDbMText
 10
7877.528538424623
 20
1467.503767122278
 30
0.0
 40
100.0
 41
0.0
 71
     4
 72
     1
  1
D13
  7
STYLE1
 73
     1
 44
1.0
1001
ACAD
1000
MTEXTBEGIN
1070
    73
1070
     1
1070
    44
1040
1.0
1070
    74
1070
     0
1000
MTEXTEND
  0
LINE
  5
1E9AB
330
747D
100
AcDbEntity
  8
細線
100
AcDbLine
 10
7494.432039259533
 20
2757.70185023034
 30
0.0
 11
7523.93610793776
 21
2756.064105532951
 31
0.0
  0
LINE
  5
1E9AC
330
747D
100
AcDbEntity
  8
部品1
 48
50.0
100
AcDbLine
 10
7324.125198068323
 20
2789.712156520047
 30
0.0
 11
7564.125198068324
 21
2789.712156520047
 31
0.0
  0
LINE
  5
1E9AD
330
747D
100
AcDbEntity
  8
細線
 48
50.0
100
AcDbLine
 10
7474.125198068323
 20
2587.678272354835
 30
0.0
 11
7564.125198068324
 21
2677.678272354835
 31
0.0
  0
LINE
  5
1E9AE
330
747D
100
AcDbEntity
  8
細線
 48
50.0
100
AcDbLine
 10
7459.740726196418
 20
2640.645721390942
 30
0.0
 11
7564.125198068324
 21
2745.030193262854
 31
0.0
  0
LINE
  5
1E9AF
330
747D
100
AcDbEntity
  8
細線
 48
50.0
100
AcDbLine
 10
7473.566082150806
 20
2620.795116891323
 30
0.0
 11
7564.125198068324
 21
2711.354232808844
 31
0.0
  0
LINE
  5
1E9B0
330
747D
100
AcDbEntity
  8
細線
 48
50.0
100
AcDbLine
 10
7474.125198068326
 20
2251.94654917677
 30
0.0
 11
7564.125198068324
 21
2341.946549176766
 31
0.0
  0
LINE
  5
1E9B1
330
747D
100
AcDbEntity
  8
細線
 48
50.0
100
AcDbLine
 10
7474.125198068326
 20
2285.622509630782
 30
0.0
 11
7564.125198068324
 21
2375.622509630781
 31
0.0
  0
LINE
  5
1E9B2
330
747D
100
AcDbEntity
  8
細線
 48
50.0
100
AcDbLine
 10
7474.12519806833
 20
2218.270588722762
 30
0.0
 11
7564.125198068324
 21
2308.270588722759
 31
0.0
  0
LINE
  5
1E9B3
330
747D
100
AcDbEntity
  8
細線
 48
50.0
100
AcDbLine
 10
7474.12519806833
 20
1982.538865544698
 30
0.0
 11
7564.125198068324
 21
2072.538865544693
 31
0.0
  0
LINE
  5
1E9B4
330
747D
100
AcDbEntity
  8
細線
 48
50.0
100
AcDbLine
 10
7474.12519806833
 20
1948.862905090688
 30
0.0
 11
7564.125198068324
 21
2038.862905090684
 31
0.0
  0
LINE
  5
1E9B5
330
747D
100
AcDbEntity
  8
細線
 48
50.0
100
AcDbLine
 10
7474.12519806833
 20
2016.214825998708
 30
0.0
 11
7564.125198068324
 21
2106.214825998703
 31
0.0
  0
LINE
  5
1E9B6
330
747D
100
AcDbEntity
  8
細線
 48
50.0
100
AcDbLine
 10
7471.993152520955
 20
1549.712156520047
 30
0.0
 11
7514.865023309933
 21
1709.712156520047
 31
0.0
  0
LINE
  5
1E9B7
330
747D
100
AcDbEntity
  8
細線
 48
50.0
100
AcDbLine
 10
7470.706172675753
 20
1709.712156520047
 30
0.0
 11
7590.706172675753
 21
1829.712156520047
 31
0.0
  0
LINE
  5
1E9B8
330
747D
100
AcDbEntity
  8
細線
 48
50.0
100
AcDbLine
 10
7437.030212221739
 20
1709.712156520047
 30
0.0
 11
7557.030212221739
 21
1829.712156520047
 31
0.0
  0
LINE
  5
1E9B9
330
747D
100
AcDbEntity
  8
細線
 48
50.0
100
AcDbLine
 10
7504.382133129759
 20
1709.712156520047
 30
0.0
 11
7624.383242936186
 21
1829.713266326471
 31
0.0
  0
DIMENSION
  5
1E9BA
330
747D
100
AcDbEntity
  8
寸法
 48
50.0
100
AcDbDimension
  2
*D25
 10
7744.125198068324
 20
1250.760050064113
 30
0.0
 11
7444.125198068324
 21
1250.760050064113
 31
0.0
 70
   160
  1
300
 71
     5
 42
600.0
  3
INABA_S50GUP
100
AcDbAlignedDimension
 13
7144.125198068325
 23
1549.712156520047
 33
0.0
 14
7744.125198068324
 24
1549.712156520047
 34
0.0
100
AcDbRotatedDimension
1001
ACAD
1000
DSTYLE
1002
{
1070
   140
1040
100.0
1002
}
  0
LINE
  5
1E9BB
330
747D
100
AcDbEntity
  8
部品1
 48
50.0
100
AcDbLine
 10
7844.125198068323
 20
1709.712156520047
 30
0.0
 11
7044.125198068323
 21
1709.712156520047
 31
0.0
  0
LINE
  5
1E9BC
330
747D
100
AcDbEntity
  8
部品1
 48
50.0
100
AcDbLine
 10
7844.125198068323
 20
1549.712156520047
 30
0.0
 11
7044.125198068323
 21
1549.712156520047
 31
0.0
  0
LINE
  5
1E9BD
330
747D
100
AcDbEntity
  8
部品1
 48
50.0
100
AcDbLine
 10
7214.125198068323
 20
1849.712156520047
 30
0.0
 11
7674.125198068323
 21
1849.712156520047
 31
0.0
  0
LINE
  5
1E9BE
330
747D
100
AcDbEntity
  8
部品1
 48
50.0
100
AcDbLine
 10
7214.125198068323
 20
1829.712156520047
 30
0.0
 11
7674.125198068323
 21
1829.712156520047
 31
0.0
  0
LINE
  5
1E9BF
330
747D
100
AcDbEntity
  8
細線
 48
50.0
100
AcDbLine
 10
7324.125198068323
 20
2068.27058872276
 30
0.0
 11
7454.12519806833
 21
2198.270588722762
 31
0.0
  0
LINE
  5
1E9C0
330
747D
100
AcDbEntity
  8
部品1
 48
50.0
100
AcDbLine
 10
7454.12519806833
 20
1859.712156520046
 30
0.0
 11
7454.125198068322
 21
2615.030193262854
 31
0.0
  0
LINE
  5
1E9C1
330
747D
100
AcDbEntity
  8
部品1
 48
50.0
100
AcDbLine
 10
7474.12519806833
 20
1859.712156520046
 30
0.0
 11
7474.125198068323
 21
2615.030193262854
 31
0.0
  0
LINE
  5
1E9C2
330
747D
100
AcDbEntity
  8
部品1
 48
50.0
100
AcDbLine
 10
7324.125198068323
 20
2009.712156520047
 30
0.0
 11
7324.125198068323
 21
2789.712156520047
 31
0.0
  0
DIMENSION
  5
1E9C3
330
747D
100
AcDbEntity
  8
寸法
 48
50.0
100
AcDbDimension
  2
*D26
 10
6469.65583026917
 20
1709.712156520047
 30
0.0
 11
6469.65583026917
 21
2286.507093117757
 31
0.0
 70
   160
  1
540
 71
     5
 42
1080.0
  3
INABA_S50GUP
100
AcDbAlignedDimension
 13
7324.125198068324
 23
2789.712156520047
 33
0.0
 14
7064.125198068325
 24
1709.712156520047
 34
0.0
 50
90.0
100
AcDbRotatedDimension
1001
ACAD
1000
DSTYLE
1002
{
1070
   140
1040
100.0
1002
}
  0
DIMENSION
  5
1E9C4
330
747D
100
AcDbEntity
  8
寸法
 48
50.0
100
AcDbDimension
  2
*D27
 10
6700.854853736716
 20
1709.712156520047
 30
0.0
 11
6700.854853736716
 21
1884.03875091219
 31
0.0
 70
   160
  1
150
 71
     5
 42
300.0
  3
INABA_S50GUP
100
AcDbAlignedDimension
 13
7164.125198068325
 23
2009.712156520047
 33
0.0
 14
7064.125198068325
 24
1709.712156520047
 34
0.0
 50
90.0
100
AcDbRotatedDimension
1001
ACAD
1000
DSTYLE
1002
{
1070
   140
1040
100.0
1002
}
  0
LEADER
  5
1E9C5
330
747D
100
AcDbEntity
  8
寸法
 48
50.0
100
AcDbLeader
  3
INABA_S50G
 71
     0
 73
     0
 75
     1
 40
101.39087296526
 41
170.0787401574803
 76
     3
 10
7283.87082221576
 20
1859.712156520046
 30
0.0
 10
7046.974536539614
 20
1514.738466733281
 30
0.0
 10
6921.974536539614
 20
1514.738466733281
 30
0.0
340
1E9C6
  0
MTEXT
  5
1E9C6
102
{ACAD_REACTORS
330
1E9C5
102
}
330
747D
100
AcDbEntity
  8
寸法
 62
     7
 48
50.0
100
AcDbMText
 10
6896.974536539613
 20
1590.433903215911
 30
0.0
 40
100.0
 41
0.0
 71
     6
 72
     1
  1
D10
  7
STYLE1
 73
     1
 44
1.0
1001
ACAD
1000
MTEXTBEGIN
1070
    73
1070
     1
1070
    44
1040
1.0
1070
    74
1070
     0
1000
MTEXTEND
  0
LINE
  5
1E9C7
330
747D
100
AcDbEntity
  8
細線
 48
50.0
100
AcDbLine
 10
7077.55292778471
 20
1549.712156520047
 30
0.0
 11
7120.424798573691
 21
1709.712156520047
 31
0.0
  0
LINE
  5
1E9C8
330
747D
100
AcDbEntity
  8
部品1
 48
50.0
100
AcDbLine
 10
7044.125198068323
 20
1549.712156520047
 30
0.0
 11
7044.125198068323
 21
1709.712156520047
 31
0.0
  0
LINE
  5
1E9C9
330
747D
100
AcDbEntity
  8
細線
 48
50.0
100
AcDbLine
 10
7085.591403557646
 20
1579.712156520047
 30
0.0
 11
7093.629879330579
 21
1549.712156520047
 31
0.0
  0
LINE
  5
1E9CA
330
747D
100
AcDbEntity
  8
細線
 48
50.0
100
AcDbLine
 10
7234.974449497684
 20
1709.712156520047
 30
0.0
 11
7354.974449497683
 21
1829.712156520047
 31
0.0
  0
LINE
  5
1E9CB
330
747D
100
AcDbEntity
  8
部品1
 48
50.0
100
AcDbLine
 10
7144.125198068323
 20
1709.712156520047
 30
0.0
 11
7144.125198068323
 21
2009.712156520047
 31
0.0
  0
LINE
  5
1E9CC
330
747D
100
AcDbEntity
  8
細線
 48
50.0
100
AcDbLine
 10
7201.298489043678
 20
1709.712156520047
 30
0.0
 11
7321.298489043678
 21
1829.712156520047
 31
0.0
  0
LINE
  5
1E9CD
330
747D
100
AcDbEntity
  8
細線
 48
50.0
100
AcDbLine
 10
7167.622528589665
 20
1709.712156520047
 30
0.0
 11
7287.622528589665
 21
1829.712156520047
 31
0.0
  0
LINE
  5
1E9CE
330
747D
100
AcDbEntity
  8
細線
 48
50.0
100
AcDbLine
 10
7274.773040152831
 20
1549.712156520047
 30
0.0
 11
7317.644910941814
 21
1709.712156520047
 31
0.0
  0
LINE
  5
1E9CF
330
747D
100
AcDbEntity
  8
細線
 48
50.0
100
AcDbLine
 10
7309.60643516888
 20
1679.712156520047
 30
0.0
 11
7301.567959395946
 21
1709.712156520047
 31
0.0
  0
LINE
  5
1E9D0
330
747D
100
AcDbEntity
  8
細線
 48
50.0
100
AcDbLine
 10
7282.811515925769
 20
1579.712156520047
 30
0.0
 11
7290.849991698703
 21
1549.712156520047
 31
0.0
  0
LINE
  5
1E9D1
330
747D
100
AcDbEntity
  8
細線
 48
50.0
100
AcDbLine
 10
7184.201459741707
 20
1579.712156520047
 30
0.0
 11
7192.239935514641
 21
1549.712156520047
 31
0.0
  0
LINE
  5
1E9D2
330
747D
100
AcDbEntity
  8
細線
 48
50.0
100
AcDbLine
 10
7112.386322800758
 20
1679.712156520047
 30
0.0
 11
7104.347847027824
 21
1709.712156520047
 31
0.0
  0
LINE
  5
1E9D3
330
747D
100
AcDbEntity
  8
細線
 48
50.0
100
AcDbLine
 10
7210.99637898482
 20
1679.712156520047
 30
0.0
 11
7202.957903211886
 21
1709.712156520047
 31
0.0
  0
LINE
  5
1E9D4
330
747D
100
AcDbEntity
  8
細線
 48
50.0
100
AcDbLine
 10
7176.16298396877
 20
1549.712156520047
 30
0.0
 11
7219.034854757753
 21
1709.712156520047
 31
0.0
  0
LINE
  5
1E9D5
330
747D
100
AcDbEntity
  8
細線
 48
50.0
100
AcDbLine
 10
7480.031628293888
 20
1579.712156520047
 30
0.0
 11
7488.070104066821
 21
1549.712156520047
 31
0.0
  0
LINE
  5
1E9D6
330
747D
100
AcDbEntity
  8
細線
 48
50.0
100
AcDbLine
 10
7506.826547537002
 20
1679.712156520047
 30
0.0
 11
7498.788071764069
 21
1709.712156520047
 31
0.0
  0
LINE
  5
1E9D7
330
747D
100
AcDbEntity
  8
細線
 48
50.0
100
AcDbLine
 10
7381.421572109831
 20
1579.712156520047
 30
0.0
 11
7389.460047882764
 21
1549.712156520047
 31
0.0
  0
LINE
  5
1E9D8
330
747D
100
AcDbEntity
  8
細線
 48
50.0
100
AcDbLine
 10
7373.383096336893
 20
1549.712156520047
 30
0.0
 11
7416.254967125872
 21
1709.712156520047
 31
0.0
  0
LINE
  5
1E9D9
330
747D
100
AcDbEntity
  8
細線
 48
50.0
100
AcDbLine
 10
7408.216491352941
 20
1679.712156520047
 30
0.0
 11
7400.178015580007
 21
1709.712156520047
 31
0.0
  0
LINE
  5
1E9DA
330
747D
100
AcDbEntity
  8
細線
 48
50.0
100
AcDbLine
 10
7307.622528589665
 20
1849.712156520047
 30
0.0
 11
7454.125198068322
 21
1996.214825998706
 31
0.0
  0
LINE
  5
1E9DB
330
747D
100
AcDbEntity
  8
部品1
 48
50.0
100
AcDbLine
 10
7144.125198068323
 20
2009.712156520047
 30
0.0
 11
7324.125198068323
 21
2009.712156520047
 31
0.0
  0
CIRCLE
  5
1E9DC
330
747D
100
AcDbEntity
  8
部品1
 48
50.0
100
AcDbCircle
 10
7284.125198068323
 20
1859.712156520046
 30
0.0
 40
10.0
  0
LINE
  5
1E9DD
330
747D
100
AcDbEntity
  8
細線
 48
50.0
100
AcDbLine
 10
7144.125198068323
 20
1955.622509630781
 30
0.0
 11
7198.21484495759
 21
2009.712156520047
 31
0.0
  0
LINE
  5
1E9DE
330
747D
100
AcDbEntity
  8
部品1
 48
50.0
100
AcDbLine
 10
7214.125198068323
 20
1829.712156520047
 30
0.0
 11
7214.125198068323
 21
1849.712156520047
 31
0.0
  0
LINE
  5
1E9DF
330
747D
100
AcDbEntity
  8
細線
 48
50.0
100
AcDbLine
 10
7144.125198068326
 20
1888.270588722761
 30
0.0
 11
7265.56676586561
 21
2009.712156520047
 31
0.0
  0
LINE
  5
1E9E0
330
747D
100
AcDbEntity
  8
細線
 48
50.0
100
AcDbLine
 10
7144.125198068323
 20
1921.946549176771
 30
0.0
 11
7231.890805411604
 21
2009.712156520047
 31
0.0
  0
CIRCLE
  5
1E9E1
330
747D
100
AcDbEntity
  8
部品1
 48
50.0
100
AcDbCircle
 10
7444.125198068324
 20
1859.712156520046
 30
0.0
 40
10.0
  0
LINE
  5
1E9E2
330
747D
100
AcDbEntity
  8
部品1
 48
50.0
100
AcDbLine
 10
7434.125198068322
 20
1932.37117489145
 30
0.0
 11
7434.125198068322
 21
1859.712156520046
 31
0.0
  0
ARC
  5
1E9E3
330
747D
100
AcDbEntity
  8
部品1
 48
50.0
100
AcDbCircle
 10
7444.125198068324
 20
1859.712156520046
 30
0.0
 40
30.0
100
AcDbArc
 50
340.5287793654919
 51
0.0
  0
LINE
  5
1E9E4
330
747D
100
AcDbEntity
  8
細線
 48
50.0
100
AcDbLine
 10
7423.957507415082
 20
1932.37117489145
 30
0.0
 11
7454.12519806833
 21
1962.538865544697
 31
0.0
  0
LINE
  5
1E9E5
330
747D
100
AcDbEntity
  8
細線
 48
50.0
100
AcDbLine
 10
7434.125198068326
 20
1908.862905090686
 30
0.0
 11
7454.12519806833
 21
1928.862905090687
 31
0.0
  0
LINE
  5
1E9E6
330
747D
100
AcDbEntity
  8
細線
 48
50.0
100
AcDbLine
 10
7374.974449497684
 20
1849.712156520047
 30
0.0
 11
7414.125198068323
 21
1888.862905090684
 31
0.0
  0
LINE
  5
1E9E7
330
747D
100
AcDbEntity
  8
部品1
 48
50.0
100
AcDbLine
 10
7414.125198068323
 20
1932.37117489145
 30
0.0
 11
7414.125198068323
 21
1859.712156520046
 31
0.0
  0
LINE
  5
1E9E8
330
747D
100
AcDbEntity
  8
細線
 48
50.0
100
AcDbLine
 10
7341.298489043679
 20
1849.712156520047
 30
0.0
 11
7414.125198068323
 21
1922.538865544695
 31
0.0
  0
ARC
  5
1E9E9
330
747D
100
AcDbEntity
  8
部品1
 48
50.0
100
AcDbCircle
 10
7444.125198068324
 20
1859.712156520046
 30
0.0
 40
30.0
100
AcDbArc
 50
180.0
 51
199.4712206345081
  0
LINE
  5
1E9EA
330
747D
100
AcDbEntity
  8
部品1
 48
50.0
100
AcDbLine
 10
7434.125198068322
 20
1932.37117489145
 30
0.0
 11
7414.125198068323
 21
1932.37117489145
 31
0.0
  0
LEADER
  5
1E9EB
330
747D
100
AcDbEntity
  8
寸法
 48
50.0
100
AcDbLeader
  3
INABA_S50G
 71
     0
 73
     0
 75
     1
 40
132.9441738241594
 41
490.0787401574802
 76
     3
 10
7462.682993606333
 20
2487.37117489145
 30
0.0
 10
7239.412363106319
 20
2216.154122358978
 30
0.0
 10
7114.412363106319
 20
2216.154122358978
 30
0.0
340
1E9EC
213
-20.50276907354419
223
30.78492082892717
233
0.0
  0
MTEXT
  5
1E9EC
102
{ACAD_REACTORS
330
1E9EB
102
}
330
747D
100
AcDbEntity
  8
寸法
 62
     7
 48
50.0
100
AcDbMText
 10
7109.915132179864
 20
2276.841288442131
 30
0.0
 40
100.0
 41
0.0
 71
     6
 72
     1
  1
\A1;D10@300
  7
STYLE1
 73
     1
 44
1.0
1001
ACAD
1000
MTEXTBEGIN
1070
    73
1070
     1
1070
    44
1040
1.0
1070
    74
1070
     0
1000
MTEXTEND
  0
LEADER
  5
1E9ED
330
747D
100
AcDbEntity
  8
寸法
 48
50.0
100
AcDbLeader
  3
INABA_S50G
 71
     0
 73
     0
 75
     1
 40
100.0
 41
585.0000000000001
 76
     3
 10
7424.125198068324
 20
2789.712156520047
 30
0.0
 10
7391.737941671332
 20
2980.3574315226
 30
0.0
 10
7266.737941671332
 20
2980.3574315226
 30
0.0
340
1E9EE
  0
MTEXT
  5
1E9EE
102
{ACAD_REACTORS
330
1E9ED
102
}
330
747D
100
AcDbEntity
  8
寸法
 62
     7
 48
50.0
100
AcDbMText
 10
7241.737941671331
 20
3055.3574315226
 30
0.0
 40
100.0
 41
0.0
 71
     6
 72
     1
  1
\A1;金コテ押エ
  7
STYLE1
 73
     1
 44
1.0
1001
ACAD
1000
MTEXTBEGIN
1070
    73
1070
     1
1070
    44
1040
1.0
1070
    74
1070
     0
1000
MTEXTEND
  0
MTEXT
  5
1E9EF
102
{ACAD_REACTORS
330
1E9F0
102
}
330
747D
100
AcDbEntity
  8
寸法
 62
     7
 48
50.0
100
AcDbMText
 10
7184.542603664645
 20
2634.383171870304
 30
0.0
 40
100.0
 41
0.0
 71
     6
 72
     1
  1
D13
  7
STYLE1
 73
     1
 44
1.0
1001
ACAD
1000
MTEXTBEGIN
1070
    73
1070
     1
1070
    44
1040
1.0
1070
    74
1070
     0
1000
MTEXTEND
  0
LEADER
  5
1E9F0
330
747D
100
AcDbEntity
  8
寸法
 48
50.0
100
AcDbLeader
  3
INABA_S50G
 71
     0
 73
     0
 40
101.39087296526
 41
174.1421356237309
 76
     2
 10
7444.125198068324
 20
2615.030193262854
 30
0.0
 10
7209.542603664646
 20
2558.687735387675
 30
0.0
340
1E9EF
  0
TEXT
  5
1E9F1
330
747D
100
AcDbEntity
  8
部品1
 48
50.0
100
AcDbText
 10
6954.798587351503
 20
2399.077983422758
 30
0.0
 40
100.0
  1
G.L
  7
STYLE1
100
AcDbText
  0
LINE
  5
1E9F2
330
747D
100
AcDbEntity
  8
Ｇ．Ｌ
 48
50.0
100
AcDbLine
 10
6806.450320777127
 20
2389.712156520047
 30
0.0
 11
7324.125198068323
 21
2389.712156520047
 31
0.0
  0
LINE
  5
1E9F3
330
747D
100
AcDbEntity
  8
部品1
 48
50.0
100
AcDbLine
 10
6856.324233880449
 20
2473.182281368471
 30
0.0
 11
6952.707231981505
 21
2473.182281368471
 31
0.0
  0
LINE
  5
1E9F4
330
747D
100
AcDbEntity
  8
部品1
 48
50.0
100
AcDbLine
 10
6856.324233880449
 20
2473.182281368471
 30
0.0
 11
6904.515732930978
 21
2389.712156520047
 31
0.0
  0
LINE
  5
1E9F5
330
747D
100
AcDbEntity
  8
部品1
 48
50.0
100
AcDbLine
 10
6952.707231981505
 20
2473.182281368471
 30
0.0
 11
6904.515732930978
 21
2389.712156520047
 31
0.0
  0
LINE
  5
1E9F6
330
747D
100
AcDbEntity
  8
細線
 48
50.0
100
AcDbLine
 10
7324.125198068323
 20
2135.622509630779
 30
0.0
 11
7454.125198068322
 21
2265.62250963078
 31
0.0
  0
LINE
  5
1E9F7
330
747D
100
AcDbEntity
  8
細線
 48
50.0
100
AcDbLine
 10
7324.125198068323
 20
2101.94654917677
 30
0.0
 11
7454.125198068327
 21
2231.946549176768
 31
0.0
  0
LINE
  5
1E9F8
330
747D
100
AcDbEntity
  8
細線
 48
50.0
100
AcDbLine
 10
7434.125198068326
 20
2547.678272354835
 30
0.0
 11
7454.125198068322
 21
2567.678272354835
 31
0.0
  0
LINE
  5
1E9F9
330
747D
100
AcDbEntity
  8
細線
 48
50.0
100
AcDbLine
 10
7434.125198068322
 20
2581.354232808844
 30
0.0
 11
7454.125198068322
 21
2601.354232808845
 31
0.0
  0
LINE
  5
1E9FA
330
747D
100
AcDbEntity
  8
部品1
 48
50.0
100
AcDbLine
 10
7434.125198068322
 20
2542.37117489145
 30
0.0
 11
7434.125198068322
 21
2615.030193262854
 31
0.0
  0
CIRCLE
  5
1E9FB
330
747D
100
AcDbEntity
  8
部品1
 48
50.0
100
AcDbCircle
 10
7444.125198068324
 20
2615.030193262854
 30
0.0
 40
10.0
  0
LINE
  5
1E9FC
330
747D
100
AcDbEntity
  8
細線
 48
50.0
100
AcDbLine
 10
7324.125198068323
 20
2471.354232808844
 30
0.0
 11
7414.125198068323
 21
2561.354232808844
 31
0.0
  0
LINE
  5
1E9FD
330
747D
100
AcDbEntity
  8
細線
 48
50.0
100
AcDbLine
 10
7324.125198068323
 20
2505.030193262854
 30
0.0
 11
7414.125198068323
 21
2595.030193262854
 31
0.0
  0
LINE
  5
1E9FE
330
747D
100
AcDbEntity
  8
部品1
 48
50.0
100
AcDbLine
 10
7414.125198068323
 20
2542.371174891452
 30
0.0
 11
7414.125198068323
 21
2615.030193262855
 31
0.0
  0
LINE
  5
1E9FF
330
747D
100
AcDbEntity
  8
細線
 48
50.0
100
AcDbLine
 10
7324.125198068323
 20
2437.678272354835
 30
0.0
 11
7428.818100604941
 21
2542.37117489145
 31
0.0
  0
LINE
  5
1EA00
330
747D
100
AcDbEntity
  8
部品1
 48
50.0
100
AcDbLine
 10
7434.125198068322
 20
2542.37117489145
 30
0.0
 11
7414.125198068323
 21
2542.371174891452
 31
0.0
  0
ARC
  5
1EA01
330
747D
100
AcDbEntity
  8
部品1
 48
50.0
100
AcDbCircle
 10
7444.125198068324
 20
2615.030193262854
 30
0.0
 40
30.0
100
AcDbArc
 50
0.0
 51
180.0
  0
LINE
  5
1EA02
330
747D
100
AcDbEntity
  8
細線
100
AcDbLine
 10
7438.702050621097
 20
2756.064105532951
 30
0.0
 11
7494.432039259533
 21
2757.70185023034
 31
0.0
  0
LINE
  5
1EA03
330
747D
100
AcDbEntity
  8
細線
 48
50.0
100
AcDbLine
 10
7324.125198068323
 20
2707.08595598691
 30
0.0
 11
7366.55253911575
 21
2749.513297034335
 31
0.0
  0
LINE
  5
1EA04
330
747D
100
AcDbEntity
  8
細線
 48
50.0
100
AcDbLine
 10
7324.125198068323
 20
2740.761916440919
 30
0.0
 11
7338.848710879632
 21
2755.485429252225
 31
0.0
  0
LINE
  5
1EA05
330
747D
100
AcDbEntity
  8
細線
100
AcDbLine
 10
7324.125198068323
 20
2759.339538164086
 30
0.0
 11
7361.663521574351
 21
2749.513297034335
 31
0.0
  0
LINE
  5
1EA06
330
747D
100
AcDbEntity
  8
細線
100
AcDbLine
 10
7361.663521574351
 20
2749.513297034335
 30
0.0
 11
7397.724096321785
 21
2749.513297034335
 31
0.0
  0
LINE
  5
1EA07
330
747D
100
AcDbEntity
  8
細線
100
AcDbLine
 10
7397.724096321785
 20
2749.513297034335
 30
0.0
 11
7438.702050621097
 21
2756.064105532951
 31
0.0
  0
LEADER
  5
1EA08
330
747D
100
AcDbEntity
  8
寸法
 48
50.0
100
AcDbLeader
  3
INABA_S50G
 71
     0
 73
     0
 74
     0
 75
     1
 40
100.0
 41
154.6599025766975
 76
     3
 10
8828.812779177143
 20
2725.019887106447
 30
0.0
 10
8883.094329661263
 20
2949.059775216182
 30
0.0
 10
9008.094329661263
 20
2949.059775216182
 30
0.0
340
1EA09
  0
MTEXT
  5
1EA09
102
{ACAD_REACTORS
330
1EA08
102
}
330
747D
100
AcDbEntity
  8
寸法
 62
     7
 48
50.0
100
AcDbMText
 10
9033.094329661263
 20
3024.059775216182
 30
0.0
 40
100.0
 41
0.0
 71
     4
 72
     1
  1
C.B
  7
STYLE1
 73
     1
 44
1.0
1001
ACAD
1000
MTEXTBEGIN
1070
    73
1070
     1
1070
    44
1040
1.0
1070
    74
1070
     0
1000
MTEXTEND
  0
LINE
  5
1EA0A
330
747D
100
AcDbEntity
  8
細線
100
AcDbLine
 10
9110.806411587553
 20
2489.712156520048
 30
0.0
 11
9165.993817266128
 21
2544.899562198625
 31
0.0
  0
LINE
  5
1EA0B
330
747D
100
AcDbEntity
  8
細線
100
AcDbLine
 10
9070.806411587556
 20
2489.712156520048
 30
0.0
 11
9165.993817266128
 21
2584.89956219862
 31
0.0
  0
LINE
  5
1EA0C
330
747D
100
AcDbEntity
  8
細線
 48
50.0
100
AcDbLine
 10
9142.352292327068
 20
2179.712156520048
 30
0.0
 11
9185.224163116046
 21
2339.712156520048
 31
0.0
  0
LINE
  5
1EA0D
330
747D
100
AcDbEntity
  8
細線
 48
50.0
100
AcDbLine
 10
9150.390768100001
 20
2209.712156520048
 30
0.0
 11
9158.429243872935
 21
2179.712156520048
 31
0.0
  0
LINE
  5
1EA0E
330
747D
100
AcDbEntity
  8
Ｇ．Ｌ
 48
50.0
100
AcDbLine
 10
7564.125198068324
 20
2489.712156520047
 30
0.0
 11
9592.234157680396
 21
2489.712156520048
 31
0.0
  0
LINE
  5
1EA0F
330
747D
100
AcDbEntity
  8
部品1
100
AcDbLine
 10
8140.293870947299
 20
2179.712156520051
 30
0.0
 11
9411.693763584956
 21
2179.712156520051
 31
0.0
  0
LINE
  5
1EA10
330
747D
100
AcDbEntity
  8
部品1
100
AcDbLine
 10
8140.293870947299
 20
2339.712156520048
 30
0.0
 11
9411.693763584956
 21
2339.712156520048
 31
0.0
  0
LINE
  5
1EA11
330
747D
100
AcDbEntity
  8
部品1
 48
50.0
100
AcDbLine
 10
9165.993817266128
 20
2789.712156520047
 30
0.0
 11
8385.993817266127
 21
2789.712156520047
 31
0.0
  0
LINE
  5
1EA12
330
747D
100
AcDbEntity
  8
部品1
 48
50.0
100
AcDbLine
 10
7564.125198068324
 20
2789.712156520047
 30
0.0
 11
7564.125198068324
 21
2009.712156520047
 31
0.0
  0
LEADER
  5
1EA13
330
747D
100
AcDbEntity
  8
寸法
 48
50.0
100
AcDbLeader
  3
INABA_S50G
 71
     0
 73
     0
 74
     0
 75
     1
 40
132.9441738241594
 41
490.0787401574802
 76
     3
 10
7648.119129220823
 20
1840.99776375014
 30
0.0
 10
7802.112164227401
 20
1604.631930140679
 30
0.0
 10
7927.112164227401
 20
1604.631930140679
 30
0.0
340
1EA14
  0
MTEXT
  5
1EA14
102
{ACAD_REACTORS
330
1EA13
102
}
330
747D
100
AcDbEntity
  8
寸法
 62
     7
 48
50.0
100
AcDbMText
 10
7952.112164227401
 20
1696.104017052759
 30
0.0
 40
100.0
 41
0.0
 71
     4
 72
     1
  1
\A1;D10@300
  7
STYLE1
 73
     1
 44
1.0
1001
ACAD
1000
MTEXTBEGIN
1070
    73
1070
     1
1070
    44
1040
1.0
1070
    74
1070
     0
1000
MTEXTEND
  0
TEXT
  5
1EA15
330
747D
100
AcDbEntity
  8
部品1
 48
50.0
100
AcDbText
 10
7613.261279265792
 20
969.0418980863324
 30
0.0
 40
96.0
  1
基礎断面
  7
STYLE2
100
AcDbText
  0
LINE
  5
1EA16
330
747D
100
AcDbEntity
  8
部品1
 48
50.0
100
AcDbLine
 10
8211.070777921577
 20
1097.834111881661
 30
0.0
 11
7571.070777921578
 21
1097.834111881661
 31
0.0
  0
LINE
  5
1EA17
330
747D
100
AcDbEntity
  8
部品1
 48
50.0
100
AcDbLine
 10
8211.070777921577
 20
937.8341118816607
 30
0.0
 11
7571.070777921578
 21
937.8341118816607
 31
0.0
  0
LINE
  5
1EA18
330
747D
100
AcDbEntity
  8
部品1
 48
50.0
100
AcDbLine
 10
7571.070777921578
 20
1097.834111881661
 30
0.0
 11
7571.070777921578
 21
937.8341118816607
 31
0.0
  0
LINE
  5
1EA19
330
747D
100
AcDbEntity
  8
部品1
 48
50.0
100
AcDbLine
 10
8211.070777921577
 20
1097.834111881661
 30
0.0
 11
8211.070777921577
 21
937.8341118816607
 31
0.0
  0
LEADER
  5
1EA1A
330
747D
100
AcDbEntity
  8
寸法
 48
50.0
100
AcDbLeader
  3
INABA_S50G
 71
     0
 73
     0
 74
     0
 75
     1
 40
101.39087296526
 41
170.0787401574803
 76
     3
 10
7604.125198068323
 20
1859.712156520046
 30
0.0
 10
7658.406748552443
 20
2083.056608147153
 30
0.0
 10
7783.406748552443
 20
2083.056608147153
 30
0.0
340
1EA1B
  0
MTEXT
  5
1EA1B
102
{ACAD_REACTORS
330
1EA1A
102
}
330
747D
100
AcDbEntity
  8
寸法
 62
     7
 48
50.0
100
AcDbMText
 10
7808.406748552442
 20
2158.752044629782
 30
0.0
 40
100.0
 41
0.0
 71
     4
 72
     1
  1
D10
  7
STYLE1
 73
     1
 44
1.0
1001
ACAD
1000
MTEXTBEGIN
1070
    73
1070
     1
1070
    44
1040
1.0
1070
    74
1070
     0
1000
MTEXTEND
  0
LINE
  5
1EA1C
330
747D
100
AcDbEntity
  8
部品1
 48
50.0
100
AcDbLine
 10
7744.125198068323
 20
2009.712156520047
 30
0.0
 11
7744.125198068323
 21
1709.712156520047
 31
0.0
  0
LINE
  5
1EA1D
330
747D
100
AcDbEntity
  8
細線
 48
50.0
100
AcDbLine
 10
7706.437895853814
 20
1709.712156520047
 30
0.0
 11
7744.125198068323
 21
1747.399458734552
 31
0.0
  0
LINE
  5
1EA1E
330
747D
100
AcDbEntity
  8
細線
 48
50.0
100
AcDbLine
 10
7677.251740662009
 20
1579.712156520047
 30
0.0
 11
7685.290216434943
 21
1549.712156520047
 31
0.0
  0
LINE
  5
1EA1F
330
747D
100
AcDbEntity
  8
細線
 48
50.0
100
AcDbLine
 10
7669.213264889076
 20
1549.712156520047
 30
0.0
 11
7712.085135678055
 21
1709.712156520047
 31
0.0
  0
LINE
  5
1EA20
330
747D
100
AcDbEntity
  8
細線
 48
50.0
100
AcDbLine
 10
7704.046659905126
 20
1679.712156520047
 30
0.0
 11
7696.008184132193
 21
1709.712156520047
 31
0.0
  0
LINE
  5
1EA21
330
747D
100
AcDbEntity
  8
細線
 48
50.0
100
AcDbLine
 10
7578.64168447795
 20
1579.712156520047
 30
0.0
 11
7586.680160250883
 21
1549.712156520047
 31
0.0
  0
LINE
  5
1EA22
330
747D
100
AcDbEntity
  8
細線
 48
50.0
100
AcDbLine
 10
7570.603208705016
 20
1549.712156520047
 30
0.0
 11
7613.475079493993
 21
1709.712156520047
 31
0.0
  0
LINE
  5
1EA23
330
747D
100
AcDbEntity
  8
細線
 48
50.0
100
AcDbLine
 10
7605.436603721064
 20
1679.712156520047
 30
0.0
 11
7597.398127948131
 21
1709.712156520047
 31
0.0
  0
LINE
  5
1EA24
330
747D
100
AcDbEntity
  8
部品1
 48
50.0
100
AcDbLine
 10
7844.125198068323
 20
1549.712156520047
 30
0.0
 11
7844.125198068323
 21
1709.712156520047
 31
0.0
  0
LINE
  5
1EA25
330
747D
100
AcDbEntity
  8
細線
 48
50.0
100
AcDbLine
 10
7740.113856307828
 20
1709.712156520047
 30
0.0
 11
7744.125198068323
 21
1713.723498280543
 31
0.0
  0
LINE
  5
1EA26
330
747D
100
AcDbEntity
  8
細線
 48
50.0
100
AcDbLine
 10
7775.861796846071
 20
1579.712156520047
 30
0.0
 11
7783.900272619004
 21
1549.712156520047
 31
0.0
  0
LINE
  5
1EA27
330
747D
100
AcDbEntity
  8
細線
 48
50.0
100
AcDbLine
 10
7767.823321073137
 20
1549.712156520047
 30
0.0
 11
7810.695191862116
 21
1709.712156520047
 31
0.0
  0
LINE
  5
1EA28
330
747D
100
AcDbEntity
  8
細線
 48
50.0
100
AcDbLine
 10
7802.656716089187
 20
1679.712156520047
 30
0.0
 11
7794.618240316252
 21
1709.712156520047
 31
0.0
  0
LINE
  5
1EA29
330
747D
100
AcDbEntity
  8
細線
 48
50.0
100
AcDbLine
 10
7644.382133129763
 20
1849.712156520047
 30
0.0
 11
7744.125198068323
 21
1949.455221458608
 31
0.0
  0
LINE
  5
1EA2A
330
747D
100
AcDbEntity
  8
細線
 48
50.0
100
AcDbLine
 10
7610.706172675754
 20
1849.712156520047
 30
0.0
 11
7744.125198068323
 21
1983.13118191262
 31
0.0
  0
LINE
  5
1EA2B
330
747D
100
AcDbEntity
  8
部品1
 48
50.0
100
AcDbLine
 10
7564.125198068324
 20
2009.712156520047
 30
0.0
 11
7744.125198068323
 21
2009.712156520047
 31
0.0
  0
LINE
  5
1EA2C
330
747D
100
AcDbEntity
  8
細線
 48
50.0
100
AcDbLine
 10
7577.030212221735
 20
1849.712156520047
 30
0.0
 11
7737.030212221744
 21
2009.712156520047
 31
0.0
  0
CIRCLE
  5
1EA2D
330
747D
100
AcDbEntity
  8
部品1
 48
50.0
100
AcDbCircle
 10
7604.125198068323
 20
1859.712156520046
 30
0.0
 40
10.0
  0
LINE
  5
1EA2E
330
747D
100
AcDbEntity
  8
部品1
 48
50.0
100
AcDbLine
 10
7674.125198068323
 20
1829.712156520047
 30
0.0
 11
7674.125198068323
 21
1849.712156520047
 31
0.0
  0
LINE
  5
1EA2F
330
747D
100
AcDbEntity
  8
細線
100
AcDbLine
 10
8452.73454173496
 20
2339.712156520048
 30
0.0
 11
8302.734541734961
 21
2489.712156520048
 31
0.0
  0
LINE
  5
1EA30
330
747D
100
AcDbEntity
  8
細線
100
AcDbLine
 10
8412.73454173495
 20
2339.712156520048
 30
0.0
 11
8262.734541734943
 21
2489.712156520048
 31
0.0
  0
LINE
  5
1EA31
330
747D
100
AcDbEntity
  8
部品1
100
AcDbLine
 10
8240.293870947299
 20
2489.712156520048
 30
0.0
 11
8240.293870947301
 21
2339.712156520048
 31
0.0
  0
LINE
  5
1EA32
330
747D
100
AcDbEntity
  8
細線
 48
50.0
100
AcDbLine
 10
8289.695181686569
 20
2309.712156520048
 30
0.0
 11
8281.656705913636
 21
2339.712156520048
 31
0.0
  0
LINE
  5
1EA33
330
747D
100
AcDbEntity
  8
細線
 48
50.0
100
AcDbLine
 10
8262.900262443457
 20
2209.712156520048
 30
0.0
 11
8270.938738216392
 21
2179.712156520048
 31
0.0
  0
LINE
  5
1EA34
330
747D
100
AcDbEntity
  8
細線
 48
50.0
100
AcDbLine
 10
8254.861786670524
 20
2179.712156520048
 30
0.0
 11
8297.733657459502
 21
2339.712156520048
 31
0.0
  0
LINE
  5
1EA35
330
747D
100
AcDbEntity
  8
部品1
100
AcDbLine
 10
8140.293870947299
 20
2339.712156520048
 30
0.0
 11
8140.293870947299
 21
2179.712156520051
 31
0.0
  0
LINE
  5
1EA36
330
747D
100
AcDbEntity
  8
細線
 48
50.0
100
AcDbLine
 10
8191.085125502512
 20
2309.712156520048
 30
0.0
 11
8183.046649729579
 21
2339.712156520048
 31
0.0
  0
LINE
  5
1EA37
330
747D
100
AcDbEntity
  8
細線
 48
50.0
100
AcDbLine
 10
8164.2902062594
 20
2209.712156520048
 30
0.0
 11
8172.328682032334
 21
2179.712156520048
 31
0.0
  0
LINE
  5
1EA38
330
747D
100
AcDbEntity
  8
細線
 48
50.0
100
AcDbLine
 10
8156.251730486467
 20
2179.712156520048
 30
0.0
 11
8199.123601275445
 21
2339.712156520048
 31
0.0
  0
LINE
  5
1EA39
330
747D
100
AcDbEntity
  8
細線
100
AcDbLine
 10
7523.93610793776
 20
2756.064105532951
 30
0.0
 11
7564.125198068324
 21
2747.875552336947
 31
0.0
  0
LINE
  5
1EA3A
330
747D
100
AcDbEntity
  8
細線
100
AcDbLine
 10
8470.806411587556
 20
2489.712156520048
 30
0.0
 11
8770.806411587553
 21
2789.712156520047
 31
0.0
  0
LINE
  5
1EA3B
330
747D
100
AcDbEntity
  8
部品1
 48
50.0
100
AcDbLine
 10
8385.993817266127
 20
2789.712156520047
 30
0.0
 11
8385.993817266127
 21
2489.712156520048
 31
0.0
  0
LINE
  5
1EA3C
330
747D
100
AcDbEntity
  8
細線
100
AcDbLine
 10
8430.806411587553
 20
2489.712156520047
 30
0.0
 11
8730.806411587554
 21
2789.712156520047
 31
0.0
  0
LINE
  5
1EA3D
330
747D
100
AcDbEntity
  8
細線
100
AcDbLine
 10
8790.806411587555
 20
2489.712156520048
 30
0.0
 11
9090.806411587553
 21
2789.712156520047
 31
0.0
  0
LINE
  5
1EA3E
330
747D
100
AcDbEntity
  8
細線
100
AcDbLine
 10
8750.806411587555
 20
2489.712156520048
 30
0.0
 11
9050.806411587553
 21
2789.712156520047
 31
0.0
  0
LINE
  5
1EA3F
330
747D
100
AcDbEntity
  8
細線
100
AcDbLine
 10
8812.734541734966
 20
2339.712156520048
 30
0.0
 11
8662.734541734954
 21
2489.712156520048
 31
0.0
  0
LINE
  5
1EA40
330
747D
100
AcDbEntity
  8
細線
100
AcDbLine
 10
8772.734541734964
 20
2339.712156520048
 30
0.0
 11
8622.734541734949
 21
2489.712156520048
 31
0.0
  0
LINE
  5
1EA41
330
747D
100
AcDbEntity
  8
細線
100
AcDbLine
 10
8492.734541734968
 20
2339.712156520048
 30
0.0
 11
8342.734541734957
 21
2489.712156520047
 31
0.0
  0
LINE
  5
1EA42
330
747D
100
AcDbEntity
  8
細線
100
AcDbLine
 10
8732.73454173495
 20
2339.712156520048
 30
0.0
 11
8582.73454173495
 21
2489.712156520048
 31
0.0
  0
LINE
  5
1EA43
330
747D
100
AcDbEntity
  8
細線
 48
50.0
100
AcDbLine
 10
8452.081899038647
 20
2179.712156520048
 30
0.0
 11
8494.953769827629
 21
2339.712156520048
 31
0.0
  0
LINE
  5
1EA44
330
747D
100
AcDbEntity
  8
細線
 48
50.0
100
AcDbLine
 10
8460.12037481158
 20
2209.712156520048
 30
0.0
 11
8468.158850584513
 21
2179.712156520048
 31
0.0
  0
LINE
  5
1EA45
330
747D
100
AcDbEntity
  8
細線
 48
50.0
100
AcDbLine
 10
8486.915294054693
 20
2309.712156520048
 30
0.0
 11
8478.87681828176
 21
2339.712156520048
 31
0.0
  0
LINE
  5
1EA46
330
747D
100
AcDbEntity
  8
細線
 48
50.0
100
AcDbLine
 10
8353.47184285459
 20
2179.712156520048
 30
0.0
 11
8396.343713643567
 21
2339.712156520048
 31
0.0
  0
LINE
  5
1EA47
330
747D
100
AcDbEntity
  8
細線
 48
50.0
100
AcDbLine
 10
8361.510318627523
 20
2209.712156520048
 30
0.0
 11
8369.548794400456
 21
2179.712156520048
 31
0.0
  0
LINE
  5
1EA48
330
747D
100
AcDbEntity
  8
細線
 48
50.0
100
AcDbLine
 10
8388.305237870634
 20
2309.712156520048
 30
0.0
 11
8380.266762097701
 21
2339.712156520048
 31
0.0
  0
LINE
  5
1EA49
330
747D
100
AcDbEntity
  8
細線
 48
50.0
100
AcDbLine
 10
8657.340487179702
 20
2209.712156520048
 30
0.0
 11
8665.378962952637
 21
2179.712156520048
 31
0.0
  0
LINE
  5
1EA4A
330
747D
100
AcDbEntity
  8
細線
 48
50.0
100
AcDbLine
 10
8684.135406422814
 20
2309.712156520048
 30
0.0
 11
8676.096930649881
 21
2339.712156520048
 31
0.0
  0
LINE
  5
1EA4B
330
747D
100
AcDbEntity
  8
細線
 48
50.0
100
AcDbLine
 10
8550.691955222708
 20
2179.712156520048
 30
0.0
 11
8593.56382601169
 21
2339.712156520048
 31
0.0
  0
LINE
  5
1EA4C
330
747D
100
AcDbEntity
  8
細線
 48
50.0
100
AcDbLine
 10
8558.730430995645
 20
2209.712156520048
 30
0.0
 11
8566.768906768578
 21
2179.712156520048
 31
0.0
  0
LINE
  5
1EA4D
330
747D
100
AcDbEntity
  8
細線
 48
50.0
100
AcDbLine
 10
8585.525350238757
 20
2309.712156520048
 30
0.0
 11
8577.486874465824
 21
2339.712156520048
 31
0.0
  0
LINE
  5
1EA4E
330
747D
100
AcDbEntity
  8
細線
 48
50.0
100
AcDbLine
 10
8649.302011406769
 20
2179.712156520048
 30
0.0
 11
8692.173882195747
 21
2339.712156520048
 31
0.0
  0
LINE
  5
1EA4F
330
747D
100
AcDbEntity
  8
細線
100
AcDbLine
 10
9052.734541734945
 20
2339.712156520048
 30
0.0
 11
8902.734541734956
 21
2489.712156520048
 31
0.0
  0
LINE
  5
1EA50
330
747D
100
AcDbEntity
  8
細線
100
AcDbLine
 10
9092.734541734959
 20
2339.712156520048
 30
0.0
 11
8942.734541734955
 21
2489.712156520048
 31
0.0
  0
LINE
  5
1EA51
330
747D
100
AcDbEntity
  8
細線
100
AcDbLine
 10
9132.73454173496
 20
2339.712156520048
 30
0.0
 11
8982.734541734966
 21
2489.712156520048
 31
0.0
  0
LINE
  5
1EA52
330
747D
100
AcDbEntity
  8
細線
 48
50.0
100
AcDbLine
 10
8945.13217995895
 20
2179.712156520048
 30
0.0
 11
8988.004050747928
 21
2339.712156520048
 31
0.0
  0
LINE
  5
1EA53
330
747D
100
AcDbEntity
  8
細線
 48
50.0
100
AcDbLine
 10
8881.355518790932
 20
2309.712156520048
 30
0.0
 11
8873.317043017999
 21
2339.712156520048
 31
0.0
  0
LINE
  5
1EA54
330
747D
100
AcDbEntity
  8
細線
 48
50.0
100
AcDbLine
 10
8747.912067590828
 20
2179.712156520048
 30
0.0
 11
8790.783938379806
 21
2339.712156520048
 31
0.0
  0
LINE
  5
1EA55
330
747D
100
AcDbEntity
  8
細線
 48
50.0
100
AcDbLine
 10
8755.950543363761
 20
2209.712156520048
 30
0.0
 11
8763.989019136694
 21
2179.712156520048
 31
0.0
  0
LINE
  5
1EA56
330
747D
100
AcDbEntity
  8
細線
 48
50.0
100
AcDbLine
 10
8782.745462606873
 20
2309.712156520048
 30
0.0
 11
8774.706986833939
 21
2339.712156520048
 31
0.0
  0
LINE
  5
1EA57
330
747D
100
AcDbEntity
  8
細線
 48
50.0
100
AcDbLine
 10
8846.522123774887
 20
2179.712156520048
 30
0.0
 11
8889.393994563871
 21
2339.712156520048
 31
0.0
  0
LINE
  5
1EA58
330
747D
100
AcDbEntity
  8
細線
 48
50.0
100
AcDbLine
 10
8854.560599547822
 20
2209.712156520048
 30
0.0
 11
8862.599075320757
 21
2179.712156520048
 31
0.0
  0
LINE
  5
1EA59
330
747D
100
AcDbEntity
  8
細線
 48
50.0
100
AcDbLine
 10
9078.575631159056
 20
2309.712156520048
 30
0.0
 11
9070.537155386123
 21
2339.712156520048
 31
0.0
  0
LINE
  5
1EA5A
330
747D
100
AcDbEntity
  8
細線
 48
50.0
100
AcDbLine
 10
8979.965574974995
 20
2309.712156520048
 30
0.0
 11
8971.92709920206
 21
2339.712156520048
 31
0.0
  0
LINE
  5
1EA5B
330
747D
100
AcDbEntity
  8
細線
 48
50.0
100
AcDbLine
 10
8953.170655731883
 20
2209.712156520048
 30
0.0
 11
8961.209131504816
 21
2179.712156520048
 31
0.0
  0
LINE
  5
1EA5C
330
747D
100
AcDbEntity
  8
細線
 48
50.0
100
AcDbLine
 10
9051.780711915943
 20
2209.712156520048
 30
0.0
 11
9059.819187688878
 21
2179.712156520048
 31
0.0
  0
LINE
  5
1EA5D
330
747D
100
AcDbEntity
  8
細線
 48
50.0
100
AcDbLine
 10
9043.742236143009
 20
2179.712156520048
 30
0.0
 11
9086.614106931985
 21
2339.712156520048
 31
0.0
  0
LINE
  5
1EA5E
330
747D
100
AcDbEntity
  8
細線
100
AcDbLine
 10
8385.993817266127
 20
2764.899562198623
 30
0.0
 11
8410.806411587554
 21
2789.712156520047
 31
0.0
  0
LINE
  5
1EA5F
330
747D
100
AcDbEntity
  8
細線
100
AcDbLine
 10
8385.993817266127
 20
2724.899562198623
 30
0.0
 11
8450.806411587553
 21
2789.712156520047
 31
0.0
  0
LINE
  5
1EA60
330
747D
100
AcDbEntity
  8
細線
 48
50.0
100
AcDbLine
 10
10521.54910159274
 20
2024.392624855476
 30
0.0
 11
10611.54910159273
 21
2114.392624855473
 31
0.0
  0
LINE
  5
1EA61
330
747D
100
AcDbEntity
  8
細線
 48
50.0
100
AcDbLine
 10
10521.54910159274
 20
2058.068585309487
 30
0.0
 11
10611.54910159273
 21
2148.068585309482
 31
0.0
  0
LINE
  5
1EA62
330
747D
100
AcDbEntity
  8
部品1
 48
50.0
100
AcDbLine
 10
10521.54910159274
 20
1935.241876284835
 30
0.0
 11
10521.54910159273
 21
2593.585468457127
 31
0.0
  0
LINE
  5
1EA63
330
747D
100
AcDbEntity
  8
部品1
 48
50.0
100
AcDbLine
 10
10501.54910159274
 20
1935.241876284835
 30
0.0
 11
10501.54910159273
 21
2579.618850023722
 31
0.0
  0
LINE
  5
1EA64
330
747D
100
AcDbEntity
  8
部品1
 48
50.0
100
AcDbLine
 10
10611.54910159273
 20
2865.241876284836
 30
0.0
 11
10611.54910159273
 21
2085.241876284836
 31
0.0
  0
LINE
  5
1EA65
330
747D
100
AcDbEntity
  8
部品1
 48
50.0
100
AcDbLine
 10
10371.54910159273
 20
2085.241876284836
 30
0.0
 11
10371.54910159273
 21
2865.241876284836
 31
0.0
  0
LINE
  5
1EA66
330
747D
100
AcDbEntity
  8
部品1
 48
50.0
100
AcDbLine
 10
9895.389895679716
 20
1097.834111881661
 30
0.0
 11
9895.389895679716
 21
937.8341118816607
 31
0.0
  0
LINE
  5
1EA67
330
747D
100
AcDbEntity
  8
細線
 48
50.0
100
AcDbLine
 10
10282.39835302209
 20
1785.241876284835
 30
0.0
 11
10402.39835302209
 21
1905.241876284836
 31
0.0
  0
LINE
  5
1EA68
330
747D
100
AcDbEntity
  8
部品1
 48
50.0
100
AcDbLine
 10
10261.54910159273
 20
1905.241876284836
 30
0.0
 11
10721.54910159273
 21
1905.241876284836
 31
0.0
  0
LINE
  5
1EA69
330
747D
100
AcDbEntity
  8
部品1
 48
50.0
100
AcDbLine
 10
10261.54910159273
 20
1925.241876284836
 30
0.0
 11
10721.54910159273
 21
1925.241876284836
 31
0.0
  0
LINE
  5
1EA6A
330
747D
100
AcDbEntity
  8
細線
 48
50.0
100
AcDbLine
 10
10355.04643211408
 20
1925.241876284836
 30
0.0
 11
10501.54910159273
 21
2071.744545763495
 31
0.0
  0
LINE
  5
1EA6B
330
747D
100
AcDbEntity
  8
細線
 48
50.0
100
AcDbLine
 10
10248.72239256809
 20
1785.241876284835
 30
0.0
 11
10368.72239256809
 21
1905.241876284836
 31
0.0
  0
LINE
  5
1EA6C
330
747D
100
AcDbEntity
  8
細線
 48
50.0
100
AcDbLine
 10
10215.04643211408
 20
1785.241876284835
 30
0.0
 11
10335.04643211408
 21
1905.241876284836
 31
0.0
  0
LINE
  5
1EA6D
330
747D
100
AcDbEntity
  8
部品1
 48
50.0
100
AcDbLine
 10
10191.54910159273
 20
1785.241876284835
 30
0.0
 11
10191.54910159273
 21
2085.241876284836
 31
0.0
  0
LINE
  5
1EA6E
330
747D
100
AcDbEntity
  8
部品1
 48
50.0
100
AcDbLine
 10
10091.54910159273
 20
1625.241876284835
 30
0.0
 11
10091.54910159273
 21
1785.241876284835
 31
0.0
  0
LINE
  5
1EA6F
330
747D
100
AcDbEntity
  8
細線
 48
50.0
100
AcDbLine
 10
10124.97683130912
 20
1625.241876284835
 30
0.0
 11
10167.8487020981
 21
1785.241876284835
 31
0.0
  0
LINE
  5
1EA70
330
747D
100
AcDbEntity
  8
細線
 48
50.0
100
AcDbLine
 10
10133.01530708206
 20
1655.241876284835
 30
0.0
 11
10141.05378285499
 21
1625.241876284835
 31
0.0
  0
LINE
  5
1EA71
330
747D
100
AcDbEntity
  8
細線
 48
50.0
100
AcDbLine
 10
10159.81022632517
 20
1755.241876284836
 30
0.0
 11
10151.77175055224
 21
1785.241876284835
 31
0.0
  0
LINE
  5
1EA72
330
747D
100
AcDbEntity
  8
細線
 48
50.0
100
AcDbLine
 10
10322.19694367724
 20
1625.241876284835
 30
0.0
 11
10365.06881446622
 21
1785.241876284835
 31
0.0
  0
LINE
  5
1EA73
330
747D
100
AcDbEntity
  8
細線
 48
50.0
100
AcDbLine
 10
10330.23541945018
 20
1655.241876284835
 30
0.0
 11
10338.27389522311
 21
1625.241876284835
 31
0.0
  0
LINE
  5
1EA74
330
747D
100
AcDbEntity
  8
細線
 48
50.0
100
AcDbLine
 10
10357.03033869329
 20
1755.241876284836
 30
0.0
 11
10348.99186292036
 21
1785.241876284835
 31
0.0
  0
LINE
  5
1EA75
330
747D
100
AcDbEntity
  8
細線
 48
50.0
100
AcDbLine
 10
10223.58688749318
 20
1625.241876284835
 30
0.0
 11
10266.45875828216
 21
1785.241876284835
 31
0.0
  0
LINE
  5
1EA76
330
747D
100
AcDbEntity
  8
細線
 48
50.0
100
AcDbLine
 10
10231.62536326612
 20
1655.241876284835
 30
0.0
 11
10239.66383903905
 21
1625.241876284835
 31
0.0
  0
LINE
  5
1EA77
330
747D
100
AcDbEntity
  8
細線
 48
50.0
100
AcDbLine
 10
10258.42028250923
 20
1755.241876284836
 30
0.0
 11
10250.3818067363
 21
1785.241876284835
 31
0.0
  0
CIRCLE
  5
1EA78
330
747D
100
AcDbEntity
  8
部品1
 48
50.0
100
AcDbCircle
 10
10331.54910159273
 20
1935.241876284835
 30
0.0
 40
10.0
  0
LINE
  5
1EA79
330
747D
100
AcDbEntity
  8
細線
 48
50.0
100
AcDbLine
 10
10191.54910159273
 20
2031.152229395571
 30
0.0
 11
10245.638748482
 21
2085.241876284836
 31
0.0
  0
LINE
  5
1EA7A
330
747D
100
AcDbEntity
  8
細線
 48
50.0
100
AcDbLine
 10
10191.54910159273
 20
1997.47626894156
 30
0.0
 11
10279.31470893602
 21
2085.241876284836
 31
0.0
  0
LINE
  5
1EA7B
330
747D
100
AcDbEntity
  8
部品1
 48
50.0
100
AcDbLine
 10
10261.54910159273
 20
1905.241876284836
 30
0.0
 11
10261.54910159273
 21
1925.241876284836
 31
0.0
  0
LINE
  5
1EA7C
330
747D
100
AcDbEntity
  8
部品1
 48
50.0
100
AcDbLine
 10
10191.54910159273
 20
2085.241876284836
 30
0.0
 11
10371.54910159273
 21
2085.241876284836
 31
0.0
  0
LINE
  5
1EA7D
330
747D
100
AcDbEntity
  8
細線
 48
50.0
100
AcDbLine
 10
10191.54910159274
 20
1963.80030848755
 30
0.0
 11
10312.99066939002
 21
2085.241876284836
 31
0.0
  0
LINE
  5
1EA7E
330
747D
100
AcDbEntity
  8
細線
 48
50.0
100
AcDbLine
 10
10753.86179937823
 20
1785.241876284835
 30
0.0
 11
10791.54910159273
 21
1822.929178499341
 31
0.0
  0
LINE
  5
1EA7F
330
747D
100
AcDbEntity
  8
細線
 48
50.0
100
AcDbLine
 10
10551.80603665417
 20
1785.241876284835
 30
0.0
 11
10671.8071464606
 21
1905.24298609126
 31
0.0
  0
LINE
  5
1EA80
330
747D
100
AcDbEntity
  8
細線
 48
50.0
100
AcDbLine
 10
10518.13007620016
 20
1785.241876284835
 30
0.0
 11
10638.13007620016
 21
1905.241876284836
 31
0.0
  0
LINE
  5
1EA81
330
747D
100
AcDbEntity
  8
部品1
 48
50.0
100
AcDbLine
 10
10791.54910159273
 20
2085.241876284836
 30
0.0
 11
10791.54910159273
 21
1785.241876284835
 31
0.0
  0
LINE
  5
1EA82
330
747D
100
AcDbEntity
  8
細線
 48
50.0
100
AcDbLine
 10
10484.45411574615
 20
1785.241876284835
 30
0.0
 11
10604.45411574615
 21
1905.241876284836
 31
0.0
  0
LINE
  5
1EA83
330
747D
100
AcDbEntity
  8
細線
 48
50.0
100
AcDbLine
 10
10519.41705604537
 20
1625.241876284835
 30
0.0
 11
10562.28892683434
 21
1785.241876284835
 31
0.0
  0
LINE
  5
1EA84
330
747D
100
AcDbEntity
  8
細線
 48
50.0
100
AcDbLine
 10
10527.4555318183
 20
1655.241876284835
 30
0.0
 11
10535.49400759123
 21
1625.241876284835
 31
0.0
  0
LINE
  5
1EA85
330
747D
100
AcDbEntity
  8
細線
 48
50.0
100
AcDbLine
 10
10554.25045106141
 20
1755.241876284836
 30
0.0
 11
10546.21197528848
 21
1785.241876284835
 31
0.0
  0
LINE
  5
1EA86
330
747D
100
AcDbEntity
  8
細線
 48
50.0
100
AcDbLine
 10
10420.8069998613
 20
1625.241876284835
 30
0.0
 11
10463.67887065028
 21
1785.241876284835
 31
0.0
  0
LINE
  5
1EA87
330
747D
100
AcDbEntity
  8
細線
 48
50.0
100
AcDbLine
 10
10428.84547563424
 20
1655.241876284835
 30
0.0
 11
10436.88395140717
 21
1625.241876284835
 31
0.0
  0
LINE
  5
1EA88
330
747D
100
AcDbEntity
  8
細線
 48
50.0
100
AcDbLine
 10
10455.64039487735
 20
1755.241876284836
 30
0.0
 11
10447.60191910442
 21
1785.241876284835
 31
0.0
  0
LINE
  5
1EA89
330
747D
100
AcDbEntity
  8
細線
 48
50.0
100
AcDbLine
 10
10716.63716841349
 20
1625.241876284835
 30
0.0
 11
10759.50903920247
 21
1785.241876284835
 31
0.0
  0
LINE
  5
1EA8A
330
747D
100
AcDbEntity
  8
細線
 48
50.0
100
AcDbLine
 10
10724.67564418642
 20
1655.241876284835
 30
0.0
 11
10732.71411995935
 21
1625.241876284835
 31
0.0
  0
LINE
  5
1EA8B
330
747D
100
AcDbEntity
  8
細線
 48
50.0
100
AcDbLine
 10
10751.47056342954
 20
1755.241876284836
 30
0.0
 11
10743.4320876566
 21
1785.241876284835
 31
0.0
  0
LINE
  5
1EA8C
330
747D
100
AcDbEntity
  8
細線
 48
50.0
100
AcDbLine
 10
10787.53775983224
 20
1785.241876284835
 30
0.0
 11
10791.54910159273
 21
1789.253218045332
 31
0.0
  0
LINE
  5
1EA8D
330
747D
100
AcDbEntity
  8
細線
 48
50.0
100
AcDbLine
 10
10618.02711222943
 20
1625.241876284835
 30
0.0
 11
10660.8989830184
 21
1785.241876284835
 31
0.0
  0
LINE
  5
1EA8E
330
747D
100
AcDbEntity
  8
細線
 48
50.0
100
AcDbLine
 10
10652.86050724548
 20
1755.241876284836
 30
0.0
 11
10644.82203147254
 21
1785.241876284835
 31
0.0
  0
LINE
  5
1EA8F
330
747D
100
AcDbEntity
  8
細線
 48
50.0
100
AcDbLine
 10
10626.06558800236
 20
1655.241876284835
 30
0.0
 11
10634.10406377529
 21
1625.241876284835
 31
0.0
  0
ARC
  5
1EA90
330
747D
100
AcDbEntity
  8
部品1
 48
50.0
100
AcDbCircle
 10
10491.54910159273
 20
1935.241876284835
 30
0.0
 40
30.0
100
AcDbArc
 50
340.5287793654919
 51
0.0
  0
LINE
  5
1EA91
330
747D
100
AcDbEntity
  8
細線
 48
50.0
100
AcDbLine
 10
10422.39835302209
 20
1925.241876284836
 30
0.0
 11
10461.54910159273
 21
1964.392624855473
 31
0.0
  0
LINE
  5
1EA92
330
747D
100
AcDbEntity
  8
細線
 48
50.0
100
AcDbLine
 10
10388.72239256809
 20
1925.241876284836
 30
0.0
 11
10461.54910159273
 21
1998.068585309484
 31
0.0
  0
LINE
  5
1EA93
330
747D
100
AcDbEntity
  8
部品1
 48
50.0
100
AcDbLine
 10
10461.54910159273
 20
2007.900894656239
 30
0.0
 11
10461.54910159273
 21
1935.241876284835
 31
0.0
  0
LINE
  5
1EA94
330
747D
100
AcDbEntity
  8
部品1
 48
50.0
100
AcDbLine
 10
10481.54910159273
 20
2007.900894656239
 30
0.0
 11
10481.54910159273
 21
1935.241876284835
 31
0.0
  0
ARC
  5
1EA95
330
747D
100
AcDbEntity
  8
部品1
 48
50.0
100
AcDbCircle
 10
10491.54910159273
 20
1935.241876284835
 30
0.0
 40
30.0
100
AcDbArc
 50
180.0
 51
199.4712206345081
  0
LINE
  5
1EA96
330
747D
100
AcDbEntity
  8
部品1
 48
50.0
100
AcDbLine
 10
10481.54910159273
 20
2007.900894656239
 30
0.0
 11
10461.54910159273
 21
2007.900894656239
 31
0.0
  0
CIRCLE
  5
1EA97
330
747D
100
AcDbEntity
  8
部品1
 48
50.0
100
AcDbCircle
 10
10491.54910159273
 20
1935.241876284835
 30
0.0
 40
10.0
  0
LINE
  5
1EA98
330
747D
100
AcDbEntity
  8
細線
 48
50.0
100
AcDbLine
 10
10481.54910159274
 20
1984.392624855474
 30
0.0
 11
10501.54910159274
 21
2004.392624855476
 31
0.0
  0
LINE
  5
1EA99
330
747D
100
AcDbEntity
  8
細線
 48
50.0
100
AcDbLine
 10
10471.38141093949
 20
2007.900894656239
 30
0.0
 11
10501.54910159274
 21
2038.068585309486
 31
0.0
  0
LINE
  5
1EA9A
330
747D
100
AcDbEntity
  8
部品1
 48
50.0
100
AcDbLine
 10
10721.54910159273
 20
1905.241876284836
 30
0.0
 11
10721.54910159273
 21
1925.241876284836
 31
0.0
  0
CIRCLE
  5
1EA9B
330
747D
100
AcDbEntity
  8
部品1
 48
50.0
100
AcDbCircle
 10
10651.54910159273
 20
1935.241876284835
 30
0.0
 40
10.0
  0
LINE
  5
1EA9C
330
747D
100
AcDbEntity
  8
細線
 48
50.0
100
AcDbLine
 10
10624.45411574615
 20
1925.241876284836
 30
0.0
 11
10784.45411574616
 21
2085.241876284836
 31
0.0
  0
LINE
  5
1EA9D
330
747D
100
AcDbEntity
  8
部品1
 48
50.0
100
AcDbLine
 10
10611.54910159273
 20
2085.241876284836
 30
0.0
 11
10791.54910159273
 21
2085.241876284836
 31
0.0
  0
LINE
  5
1EA9E
330
747D
100
AcDbEntity
  8
細線
 48
50.0
100
AcDbLine
 10
10691.80603665417
 20
1925.241876284836
 30
0.0
 11
10791.54910159273
 21
2024.984941223397
 31
0.0
  0
LINE
  5
1EA9F
330
747D
100
AcDbEntity
  8
細線
 48
50.0
100
AcDbLine
 10
10658.13007620016
 20
1925.241876284836
 30
0.0
 11
10791.54910159273
 21
2058.660901677409
 31
0.0
  0
LINE
  5
1EAA0
330
747D
100
AcDbEntity
  8
部品1
 48
50.0
100
AcDbLine
 10
9915.245650231703
 20
2472.548108271178
 30
0.0
 11
10011.62864833276
 21
2472.548108271178
 31
0.0
  0
LINE
  5
1EAA1
330
747D
100
AcDbEntity
  8
Ｇ．Ｌ
 48
50.0
100
AcDbLine
 10
9853.874224301542
 20
2389.077983422758
 30
0.0
 11
10371.54910159273
 21
2389.077983422758
 31
0.0
  0
LINE
  5
1EAA2
330
747D
100
AcDbEntity
  8
部品1
 48
50.0
100
AcDbLine
 10
10011.62864833276
 20
2472.548108271178
 30
0.0
 11
9963.437149282233
 21
2389.077983422754
 31
0.0
  0
LINE
  5
1EAA3
330
747D
100
AcDbEntity
  8
部品1
 48
50.0
100
AcDbLine
 10
9165.993817266128
 20
2489.712156520048
 30
0.0
 11
9165.993817266128
 21
2789.712156520047
 31
0.0
  0
LINE
  5
1EAA4
330
747D
100
AcDbEntity
  8
部品1
100
AcDbLine
 10
9311.693763584957
 20
2489.712156520048
 30
0.0
 11
9311.693763584957
 21
2339.712156520048
 31
0.0
  0
LINE
  5
1EAA5
330
747D
100
AcDbEntity
  8
細線
 48
50.0
100
AcDbLine
 10
9339.572404695191
 20
2179.712156520048
 30
0.0
 11
9382.444275484173
 21
2339.712156520048
 31
0.0
  0
LINE
  5
1EAA6
330
747D
100
AcDbEntity
  8
細線
 48
50.0
100
AcDbLine
 10
9347.610880468124
 20
2209.712156520048
 30
0.0
 11
9355.649356241057
 21
2179.712156520048
 31
0.0
  0
LINE
  5
1EAA7
330
747D
100
AcDbEntity
  8
細線
 48
50.0
100
AcDbLine
 10
9177.185687343117
 20
2309.712156520048
 30
0.0
 11
9169.147211570184
 21
2339.712156520048
 31
0.0
  0
LINE
  5
1EAA8
330
747D
100
AcDbEntity
  8
細線
 48
50.0
100
AcDbLine
 10
9249.000824284063
 20
2209.712156520048
 30
0.0
 11
9257.039300056996
 21
2179.712156520048
 31
0.0
  0
LINE
  5
1EAA9
330
747D
100
AcDbEntity
  8
細線
 48
50.0
100
AcDbLine
 10
9240.96234851113
 20
2179.712156520048
 30
0.0
 11
9283.834219300109
 21
2339.712156520048
 31
0.0
  0
LINE
  5
1EAAA
330
747D
100
AcDbEntity
  8
細線
 48
50.0
100
AcDbLine
 10
9275.795743527179
 20
2309.712156520048
 30
0.0
 11
9267.757267754245
 21
2339.712156520048
 31
0.0
  0
LINE
  5
1EAAB
330
747D
100
AcDbEntity
  8
細線
 48
50.0
100
AcDbLine
 10
9374.405799711238
 20
2309.712156520048
 30
0.0
 11
9366.367323938305
 21
2339.712156520048
 31
0.0
  0
LINE
  5
1EAAC
330
747D
100
AcDbEntity
  8
部品1
100
AcDbLine
 10
9411.693763584956
 20
2339.712156520048
 30
0.0
 11
9411.693763584956
 21
2179.712156520051
 31
0.0
  0
LINE
  5
1EAAD
330
747D
100
AcDbEntity
  8
細線
100
AcDbLine
 10
9311.693763584957
 20
2480.752934670055
 30
0.0
 11
9302.734541734965
 21
2489.712156520048
 31
0.0
  0
LINE
  5
1EAAE
330
747D
100
AcDbEntity
  8
細線
100
AcDbLine
 10
9311.693763584957
 20
2440.752934670045
 30
0.0
 11
9262.734541734952
 21
2489.712156520048
 31
0.0
  0
LINE
  5
1EAAF
330
747D
100
AcDbEntity
  8
細線
100
AcDbLine
 10
9311.69376358496
 20
2400.752934670035
 30
0.0
 11
9222.734541734954
 21
2489.712156520048
 31
0.0
  0
LINE
  5
1EAB0
330
747D
100
AcDbEntity
  8
部品1
 48
50.0
100
AcDbLine
 10
9915.245650231703
 20
2472.548108271178
 30
0.0
 11
9963.437149282233
 21
2389.077983422754
 31
0.0
  0
LINE
  5
1EAB1
330
747D
100
AcDbEntity
  8
部品1
 48
50.0
100
AcDbLine
 10
10501.54910159273
 20
2615.241876284836
 30
0.0
 11
10501.54910159273
 21
2690.559913027643
 31
0.0
  0
LINE
  5
1EAB2
330
747D
100
AcDbEntity
  8
部品1
 48
50.0
100
AcDbLine
 10
10501.54910159273
 20
2615.241876284836
 30
0.0
 11
10501.54910159273
 21
2690.559913027643
 31
0.0
  0
LINE
  5
1EAB3
330
747D
100
AcDbEntity
  8
部品1
 48
50.0
100
AcDbLine
 10
10501.54910159273
 20
2615.241876284836
 30
0.0
 11
10501.54910159273
 21
2865.241876284836
 31
0.0
  0
LINE
  5
1EAB4
330
747D
100
AcDbEntity
  8
部品1
 48
50.0
100
AcDbLine
 10
10528.54910159273
 20
2615.241876284836
 30
0.0
 11
10528.54910159273
 21
2865.241876284836
 31
0.0
  0
LINE
  5
1EAB5
330
747D
100
AcDbEntity
  8
細線
 48
50.0
100
AcDbLine
 10
10371.54910159273
 20
2580.559913027642
 30
0.0
 11
10461.54910159273
 21
2670.559913027643
 31
0.0
  0
LINE
  5
1EAB6
330
747D
100
AcDbEntity
  8
部品1
 48
50.0
100
AcDbLine
 10
10481.54910159273
 20
2617.900894656239
 30
0.0
 11
10481.54910159273
 21
2690.559913027643
 31
0.0
  0
LINE
  5
1EAB7
330
747D
100
AcDbEntity
  8
部品1
 48
50.0
100
AcDbLine
 10
10461.54910159273
 20
2617.900894656241
 30
0.0
 11
10461.54910159273
 21
2690.559913027644
 31
0.0
  0
LINE
  5
1EAB8
330
747D
100
AcDbEntity
  8
細線
 48
50.0
100
AcDbLine
 10
10481.54910159273
 20
2656.883952573633
 30
0.0
 11
10501.54910159273
 21
2676.883952573633
 31
0.0
  0
LINE
  5
1EAB9
330
747D
100
AcDbEntity
  8
細線
 48
50.0
100
AcDbLine
 10
10371.54910159273
 20
2546.883952573633
 30
0.0
 11
10461.54910159273
 21
2636.883952573633
 31
0.0
  0
LINE
  5
1EABA
330
747D
100
AcDbEntity
  8
細線
 48
50.0
100
AcDbLine
 10
10371.54910159273
 20
2513.207992119624
 30
0.0
 11
10441.54910159273
 21
2583.207992119624
 31
0.0
  0
LINE
  5
1EABB
330
747D
100
AcDbEntity
  8
細線
 48
50.0
100
AcDbLine
 10
10371.54910159273
 20
2143.800308487549
 30
0.0
 11
10501.54910159274
 21
2273.800308487551
 31
0.0
  0
LINE
  5
1EABC
330
747D
100
AcDbEntity
  8
細線
 48
50.0
100
AcDbLine
 10
10371.54910159273
 20
2177.476268941559
 30
0.0
 11
10501.54910159274
 21
2307.476268941556
 31
0.0
  0
LINE
  5
1EABD
330
747D
100
AcDbEntity
  8
細線
 48
50.0
100
AcDbLine
 10
10371.54910159273
 20
2211.152229395568
 30
0.0
 11
10501.54910159273
 21
2341.152229395569
 31
0.0
  0
TEXT
  5
1EABE
330
747D
100
AcDbEntity
  8
部品1
 48
50.0
100
AcDbText
 10
10013.72000370275
 20
2398.443810325465
 30
0.0
 40
100.0
  1
G.L
  7
STYLE1
100
AcDbText
  0
LINE
  5
1EABF
330
747D
100
AcDbEntity
  8
細線
 48
50.0
100
AcDbLine
 10
10521.54910159274
 20
2293.800308487551
 30
0.0
 11
10611.54910159273
 21
2383.800308487547
 31
0.0
  0
LINE
  5
1EAC0
330
747D
100
AcDbEntity
  8
細線
 48
50.0
100
AcDbLine
 10
10521.54910159274
 20
2361.152229395571
 30
0.0
 11
10611.54910159273
 21
2451.15222939557
 31
0.0
  0
LINE
  5
1EAC1
330
747D
100
AcDbEntity
  8
細線
 48
50.0
100
AcDbLine
 10
10521.54910159274
 20
2327.476268941559
 30
0.0
 11
10611.54910159273
 21
2417.476268941555
 31
0.0
  0
LINE
  5
1EAC2
330
747D
100
AcDbEntity
  8
細線
 48
50.0
100
AcDbLine
 10
10521.54910159274
 20
2091.744545763497
 30
0.0
 11
10611.54910159273
 21
2181.744545763491
 31
0.0
  0
LINE
  5
1EAC3
330
747D
100
AcDbEntity
  8
部品1
 48
50.0
100
AcDbLine
 10
10491.54910159273
 20
2578.241876284836
 30
0.0
 11
10441.54910159273
 21
2578.241876284836
 31
0.0
  0
LINE
  5
1EAC4
330
747D
100
AcDbEntity
  8
部品1
 48
50.0
100
AcDbLine
 10
10491.54910159273
 20
2605.241876284836
 30
0.0
 11
10441.54910159273
 21
2605.241876284836
 31
0.0
  0
LINE
  5
1EAC5
330
747D
100
AcDbEntity
  8
部品1
 48
50.0
100
AcDbLine
 10
10441.54910159273
 20
2578.241876284836
 30
0.0
 11
10441.54910159273
 21
2605.241876284836
 31
0.0
  0
LINE
  5
1EAC6
330
747D
100
AcDbEntity
  8
細線
 48
50.0
100
AcDbLine
 10
10463.58298575795
 20
2605.241876284836
 30
0.0
 11
10476.24200412935
 21
2617.900894656239
 31
0.0
  0
LINE
  5
1EAC7
330
747D
100
AcDbEntity
  8
部品1
 48
50.0
100
AcDbLine
 10
10481.54910159273
 20
2617.900894656239
 30
0.0
 11
10461.54910159273
 21
2617.900894656241
 31
0.0
  0
ARC
  5
1EAC8
330
747D
100
AcDbEntity
  8
部品1
 48
50.0
100
AcDbCircle
 10
10491.54910159273
 20
2615.241876284836
 30
0.0
 40
37.0
100
AcDbArc
 50
270.0
 51
0.0
  0
LINE
  5
1EAC9
330
747D
100
AcDbEntity
  8
細線
 48
50.0
100
AcDbLine
 10
10481.54910159274
 20
2623.207992119624
 30
0.0
 11
10501.54910159273
 21
2643.207992119624
 31
0.0
  0
ARC
  5
1EACA
330
747D
100
AcDbEntity
  8
部品1
 48
50.0
100
AcDbCircle
 10
10491.54910159273
 20
2615.241876284836
 30
0.0
 40
10.0
100
AcDbArc
 50
270.0
 51
0.0
  0
LINE
  5
1EACB
330
747D
100
AcDbEntity
  8
細線
 48
50.0
100
AcDbLine
 10
10371.54910159273
 20
2816.291636205708
 30
0.0
 11
10386.27261440404
 21
2831.015149017014
 31
0.0
  0
LINE
  5
1EACC
330
747D
100
AcDbEntity
  8
部品1
100
AcDbLine
 10
10399.54910159273
 20
2868.472645515605
 30
0.0
 11
10382.31833236196
 21
2868.472645515605
 31
0.0
  0
LINE
  5
1EACD
330
747D
100
AcDbEntity
  8
部品1
100
AcDbLine
 10
10382.31833236196
 20
2970.780337823297
 30
0.0
 11
10395.24140928504
 21
2974.011107054066
 31
0.0
  0
LINE
  5
1EACE
330
747D
100
AcDbEntity
  8
細線
 48
50.0
100
AcDbLine
 10
10371.54910159273
 20
2782.615675751698
 30
0.0
 11
10413.97644264016
 21
2825.043016799124
 31
0.0
  0
LINE
  5
1EACF
330
747D
100
AcDbEntity
  8
細線
100
AcDbLine
 10
10371.54910159273
 20
2834.869257928875
 30
0.0
 11
10409.08742509876
 21
2825.043016799124
 31
0.0
  0
DIMENSION
  5
1EAD0
330
747D
100
AcDbEntity
  8
寸法
 48
50.0
100
AcDbDimension
  2
*D28
 10
10515.04910159273
 20
3108.975218182783
 30
0.0
 11
10161.48590779662
 21
3108.975218182783
 31
0.0
 70
   160
  1
65
 71
     5
 42
143.5
  3
INABA_S50GUP
100
AcDbAlignedDimension
 13
10371.54910159273
 23
2865.241876284836
 33
0.0
 14
10515.04910159273
 24
2925.549568592527
 34
0.0
100
AcDbRotatedDimension
1001
ACAD
1000
DSTYLE
1002
{
1070
   140
1040
100.0
1002
}
  0
LINE
  5
1EAD1
330
747D
100
AcDbEntity
  8
部品1
 48
50.0
100
AcDbLine
 10
10371.54910159273
 20
2865.241876284836
 30
0.0
 11
10611.54910159273
 21
2865.241876284836
 31
0.0
  0
LINE
  5
1EAD2
330
747D
100
AcDbEntity
  8
部品1
100
AcDbLine
 10
10382.31833236196
 20
2868.472645515605
 30
0.0
 11
10382.31833236196
 21
2970.780337823297
 31
0.0
  0
LINE
  5
1EAD3
330
747D
100
AcDbEntity
  8
部品1
100
AcDbLine
 10
10572.93371697735
 20
2971.85726090022
 30
0.0
 11
10572.93371697735
 21
2868.472645515605
 31
0.0
  0
LINE
  5
1EAD4
330
747D
100
AcDbEntity
  8
部品1
100
AcDbLine
 10
10572.93371697735
 20
2868.472645515605
 30
0.0
 11
10590.16448620812
 21
2868.472645515605
 31
0.0
  0
LINE
  5
1EAD5
330
747D
100
AcDbEntity
  8
細線
 48
50.0
100
AcDbLine
 10
10528.54910159273
 20
2703.883952573627
 30
0.0
 11
10611.54910159273
 21
2786.883952573633
 31
0.0
  0
LINE
  5
1EAD6
330
747D
100
AcDbEntity
  8
細線
100
AcDbLine
 10
10571.36001146217
 20
2831.593825297739
 30
0.0
 11
10611.54910159273
 21
2823.405272101736
 31
0.0
  0
LINE
  5
1EAD7
330
747D
100
AcDbEntity
  8
細線
 48
50.0
100
AcDbLine
 10
10528.54910159273
 20
2737.559913027638
 30
0.0
 11
10611.54910159273
 21
2820.559913027643
 31
0.0
  0
LINE
  5
1EAD8
330
747D
100
AcDbEntity
  8
細線
 48
50.0
100
AcDbLine
 10
10528.54910159273
 20
2670.207992119624
 30
0.0
 11
10611.54910159273
 21
2753.207992119624
 31
0.0
  0
ARC
  5
1EAD9
330
747D
100
AcDbEntity
  8
部品1
100
AcDbCircle
 10
10515.04910159273
 20
2855.239120582943
 30
0.0
 40
35.0848827120379
100
AcDbArc
 50
68.38687878208858
 51
111.6131212179114
  0
LINE
  5
1EADA
330
747D
100
AcDbEntity
  8
部品1
 48
50.0
100
AcDbLine
 10
10528.54910159273
 20
2925.549568592527
 30
0.0
 11
10501.54910159273
 21
2925.549568592527
 31
0.0
  0
LINE
  5
1EADB
330
747D
100
AcDbEntity
  8
部品1
 48
50.0
100
AcDbLine
 10
10501.54910159273
 20
2891.08803013099
 30
0.0
 11
10501.54910159273
 21
2925.549568592527
 31
0.0
  0
LINE
  5
1EADC
330
747D
100
AcDbEntity
  8
部品1
100
AcDbLine
 10
10502.12602466966
 20
2887.857260900223
 30
0.0
 11
10502.12602466966
 21
2869.549568592527
 31
0.0
  0
LINE
  5
1EADD
330
747D
100
AcDbEntity
  8
細線
100
AcDbLine
 10
10541.85594278394
 20
2833.231569995129
 30
0.0
 11
10571.36001146217
 21
2831.593825297739
 31
0.0
  0
LINE
  5
1EADE
330
747D
100
AcDbEntity
  8
部品1
 48
50.0
100
AcDbLine
 10
10528.54910159273
 20
2891.08803013099
 30
0.0
 11
10528.54910159273
 21
2925.549568592527
 31
0.0
  0
LINE
  5
1EADF
330
747D
100
AcDbEntity
  8
部品1
100
AcDbLine
 10
10569.70294774658
 20
2891.993014600599
 30
0.0
 11
10569.70294774658
 21
2869.549568592527
 31
0.0
  0
LINE
  5
1EAE0
330
747D
100
AcDbEntity
  8
部品1
100
AcDbLine
 10
10543.04910159273
 20
2869.549568592527
 30
0.0
 11
10543.04910159273
 21
2865.241876284836
 31
0.0
  0
LINE
  5
1EAE1
330
747D
100
AcDbEntity
  8
部品1
100
AcDbLine
 10
10535.51064005427
 20
2891.08803013099
 30
0.0
 11
10538.74140928504
 21
2887.857260900223
 31
0.0
  0
LINE
  5
1EAE2
330
747D
100
AcDbEntity
  8
部品1
100
AcDbLine
 10
10538.74140928504
 20
2887.857260900223
 30
0.0
 11
10538.74140928504
 21
2869.549568592527
 31
0.0
  0
LINE
  5
1EAE3
330
747D
100
AcDbEntity
  8
部品1
100
AcDbLine
 10
10527.9721785158
 20
2887.857260900221
 30
0.0
 11
10527.9721785158
 21
2869.549568592527
 31
0.0
  0
ARC
  5
1EAE4
330
747D
100
AcDbEntity
  8
部品1
100
AcDbCircle
 10
10533.35679390042
 20
2882.801962989212
 30
0.0
 40
7.3858052918609
100
AcDbArc
 50
43.19325636896477
 51
136.8067436310352
  0
LINE
  5
1EAE5
330
747D
100
AcDbEntity
  8
細線
100
AcDbLine
 10
10409.08742509876
 20
2825.043016799124
 30
0.0
 11
10445.1479998462
 21
2825.043016799124
 31
0.0
  0
LINE
  5
1EAE6
330
747D
100
AcDbEntity
  8
部品1
100
AcDbLine
 10
10402.7798708235
 20
2872.780337823297
 30
0.0
 11
10385.54910159273
 21
2872.780337823297
 31
0.0
  0
LINE
  5
1EAE7
330
747D
100
AcDbEntity
  8
部品1
100
AcDbLine
 10
10385.54910159273
 20
2872.780337823297
 30
0.0
 11
10385.54910159273
 21
2891.993014600599
 31
0.0
  0
LINE
  5
1EAE8
330
747D
100
AcDbEntity
  8
部品1
100
AcDbLine
 10
10402.7798708235
 20
2872.780337823297
 30
0.0
 11
10402.7798708235
 21
2869.549568592527
 31
0.0
  0
LINE
  5
1EAE9
330
747D
100
AcDbEntity
  8
細線
100
AcDbLine
 10
10445.1479998462
 20
2825.043016799124
 30
0.0
 11
10486.12595414551
 21
2831.593825297739
 31
0.0
  0
LINE
  5
1EAEA
330
747D
100
AcDbEntity
  8
部品1
100
AcDbLine
 10
10487.04910159273
 20
2869.549568592527
 30
0.0
 11
10487.04910159273
 21
2865.241876284836
 31
0.0
  0
LINE
  5
1EAEB
330
747D
100
AcDbEntity
  8
部品1
100
AcDbLine
 10
10491.35679390042
 20
2887.857260900221
 30
0.0
 11
10494.58756313119
 21
2891.08803013099
 31
0.0
  0
LINE
  5
1EAEC
330
747D
100
AcDbEntity
  8
部品1
100
AcDbLine
 10
10491.35679390042
 20
2887.857260900221
 30
0.0
 11
10491.35679390042
 21
2869.549568592527
 31
0.0
  0
ARC
  5
1EAED
330
747D
100
AcDbEntity
  8
部品1
 48
50.0
100
AcDbCircle
 10
10491.54910159273
 20
2690.559913027643
 30
0.0
 40
30.0
100
AcDbArc
 50
70.52877936552764
 51
180.0
  0
CIRCLE
  5
1EAEE
330
747D
100
AcDbEntity
  8
部品1
 48
50.0
100
AcDbCircle
 10
10491.54910159273
 20
2690.559913027643
 30
0.0
 40
10.0
  0
LINE
  5
1EAEF
330
747D
100
AcDbEntity
  8
部品1
100
AcDbLine
 10
10402.7798708235
 20
2869.549568592527
 30
0.0
 11
10569.70294774658
 21
2869.549568592527
 31
0.0
  0
LINE
  5
1EAF0
330
747D
100
AcDbEntity
  8
細線
100
AcDbLine
 10
10486.12595414551
 20
2831.593825297739
 30
0.0
 11
10541.85594278394
 21
2833.231569995129
 31
0.0
  0
LINE
  5
1EAF1
330
747D
100
AcDbEntity
  8
細線
 48
50.0
100
AcDbLine
 10
10497.54910159274
 20
2908.621365362254
 30
0.0
 11
10532.74910159273
 21
2899.189553788678
 31
0.0
  0
LINE
  5
1EAF2
330
747D
100
AcDbEntity
  8
部品1
100
AcDbLine
 10
10491.35679390042
 20
2887.857260900223
 30
0.0
 11
10538.74140928504
 21
2887.857260900219
 31
0.0
  0
LINE
  5
1EAF3
330
747D
100
AcDbEntity
  8
部品1
100
AcDbLine
 10
10494.58756313119
 20
2891.08803013099
 30
0.0
 11
10535.51064005427
 21
2891.08803013099
 31
0.0
  0
LINE
  5
1EAF4
330
747D
100
AcDbEntity
  8
部品1
100
AcDbLine
 10
10487.04910159273
 20
2869.549568592527
 30
0.0
 11
10543.04910159273
 21
2869.549568592527
 31
0.0
  0
LINE
  5
1EAF5
330
747D
100
AcDbEntity
  8
細線
 48
50.0
100
AcDbLine
 10
10497.54910159274
 20
2920.621365362251
 30
0.0
 11
10532.74910159273
 21
2911.189553788676
 31
0.0
  0
ARC
  5
1EAF6
330
747D
100
AcDbEntity
  8
部品1
100
AcDbCircle
 10
10496.74140928504
 20
2882.801962989212
 30
0.0
 40
7.3858052918609
100
AcDbArc
 50
43.19325636896477
 51
136.8067436310352
  0
LINE
  5
1EAF7
330
747D
100
AcDbEntity
  8
細線
 48
50.0
100
AcDbLine
 10
10497.54910159274
 20
2896.621365362251
 30
0.0
 11
10518.19978981111
 21
2891.08803013099
 31
0.0
  0
LINE
  5
1EAF8
330
747D
100
AcDbEntity
  8
部品1
100
AcDbLine
 10
10501.08756313119
 20
2986.934183977144
 30
0.0
 11
10531.24140928504
 21
2986.934183977144
 31
0.0
  0
LINE
  5
1EAF9
330
747D
100
AcDbEntity
  8
部品1
100
AcDbLine
 10
10531.24140928504
 20
2986.934183977144
 30
0.0
 11
10531.24140928504
 21
2971.85726090022
 31
0.0
  0
LINE
  5
1EAFA
330
747D
100
AcDbEntity
  8
部品1
100
AcDbLine
 10
10531.24140928504
 20
2971.85726090022
 30
0.0
 11
10572.93371697735
 21
2971.85726090022
 31
0.0
  0
LINE
  5
1EAFB
330
747D
100
AcDbEntity
  8
部品1
100
AcDbLine
 10
10501.08756313119
 20
3012.780337823297
 30
0.0
 11
10501.08756313119
 21
2986.934183977144
 31
0.0
  0
LINE
  5
1EAFC
330
747D
100
AcDbEntity
  8
部品1
100
AcDbLine
 10
10395.24140928504
 20
2986.934183977144
 30
0.0
 11
10468.7798708235
 21
2986.934183977144
 31
0.0
  0
LINE
  5
1EAFD
330
747D
100
AcDbEntity
  8
部品1
100
AcDbLine
 10
10395.24140928504
 20
2974.011107054066
 30
0.0
 11
10395.24140928504
 21
2986.934183977144
 31
0.0
  0
LINE
  5
1EAFE
330
747D
100
AcDbEntity
  8
部品1
100
AcDbLine
 10
10468.7798708235
 20
2986.934183977144
 30
0.0
 11
10468.7798708235
 21
3012.780337823297
 31
0.0
  0
LINE
  5
1EAFF
330
747D
100
AcDbEntity
  8
部品1
100
AcDbLine
 10
10468.7798708235
 20
3012.780337823297
 30
0.0
 11
10501.08756313119
 21
3012.780337823297
 31
0.0
  0
LINE
  5
1EB00
330
747D
100
AcDbEntity
  8
細線
 48
50.0
100
AcDbLine
 10
6248.659066840559
 20
3703.927840022178
 30
0.0
 11
9805.30261621309
 21
3703.927840022178
 31
0.0
  0
LINE
  5
1EB01
330
747D
100
AcDbEntity
  8
細線
 48
50.0
100
AcDbLine
 10
10734.59219476102
 20
3823.927840022178
 30
0.0
 11
9885.30261621309
 21
3823.927840022178
 31
0.0
  0
TEXT
  5
1EB02
330
747D
100
AcDbEntity
  8
部品1
 48
50.0
100
AcDbText
 10
9906.051691144766
 20
3649.014621835244
 30
0.0
 40
112.0
  1
基礎詳細図
  7
STYLE2
100
AcDbText
  0
LINE
  5
1EB03
330
747D
100
AcDbEntity
  8
細線
 48
50.0
100
AcDbLine
 10
10734.59219476102
 20
3583.927840022177
 30
0.0
 11
9885.30261621309
 21
3583.927840022177
 31
0.0
  0
ARC
  5
1EB04
330
747D
100
AcDbEntity
  8
細線
 48
50.0
100
AcDbCircle
 10
9885.30261621309
 20
3743.927840022177
 30
0.0
 40
80.0
100
AcDbArc
 50
90.0
 51
180.0
  0
LINE
  5
1EB05
330
747D
100
AcDbEntity
  8
細線
 48
50.0
100
AcDbLine
 10
9805.30261621309
 20
3663.927840022178
 30
0.0
 11
9805.30261621309
 21
3743.927840022177
 31
0.0
  0
ARC
  5
1EB06
330
747D
100
AcDbEntity
  8
細線
 48
50.0
100
AcDbCircle
 10
9885.30261621309
 20
3663.927840022178
 30
0.0
 40
80.0
100
AcDbArc
 50
180.0
 51
270.0
  0
LINE
  5
1EB07
330
747D
100
AcDbEntity
  8
細線
 48
50.0
100
AcDbLine
 10
14371.23574413355
 20
3703.927840022178
 30
0.0
 11
14371.23574413355
 21
798.2661667814205
 31
0.0
  0
LEADER
  5
1EB08
330
747D
100
AcDbEntity
  8
寸法
 48
50.0
100
AcDbLeader
  3
INABA_S50G
 71
     0
 73
     0
 74
     0
 75
     1
 40
100.0
 41
581.9577020040977
 76
     3
 10
13394.58909792327
 20
2442.037069244525
 30
0.0
 10
13542.28926338789
 20
2285.47335701438
 30
0.0
 10
13667.28926338789
 20
2285.47335701438
 30
0.0
340
1EB09
  0
MTEXT
  5
1EB09
102
{ACAD_REACTORS
330
1EB08
102
}
330
747D
100
AcDbEntity
  8
寸法
 62
     7
 48
50.0
100
AcDbMText
 10
13692.28926338789
 20
2360.47335701438
 30
0.0
 40
100.0
 41
0.0
 71
     4
 72
     1
  1
防湿シート
  7
STYLE1
 73
     1
 44
1.0
1001
ACAD
1000
MTEXTBEGIN
1070
    73
1070
     1
1070
    44
1040
1.0
1070
    74
1070
     0
1000
MTEXTEND
  0
CIRCLE
  5
1EB0A
330
747D
100
AcDbEntity
  8
部品1
 48
50.0
100
AcDbCircle
 10
12430.21169956354
 20
1935.241876284836
 30
0.0
 40
10.0
  0
LINE
  5
1EB0B
330
747D
100
AcDbEntity
  8
部品1
 48
50.0
100
AcDbLine
 10
12290.21169956354
 20
2085.241876284837
 30
0.0
 11
12470.21169956354
 21
2085.241876284837
 31
0.0
  0
LINE
  5
1EB0C
330
747D
100
AcDbEntity
  8
部品1
 48
50.0
100
AcDbLine
 10
12360.21169956354
 20
1925.241876284836
 30
0.0
 11
12820.21169956354
 21
1925.241876284836
 31
0.0
  0
LINE
  5
1EB0D
330
747D
100
AcDbEntity
  8
部品1
 48
50.0
100
AcDbLine
 10
12360.21169956354
 20
1905.241876284836
 30
0.0
 11
12820.21169956354
 21
1905.241876284836
 31
0.0
  0
LINE
  5
1EB0E
330
747D
100
AcDbEntity
  8
細線
 48
50.0
100
AcDbLine
 10
12428.89801742098
 20
1655.241876284836
 30
0.0
 11
12436.93649319392
 21
1625.241876284836
 31
0.0
  0
LINE
  5
1EB0F
330
747D
100
AcDbEntity
  8
細線
 48
50.0
100
AcDbLine
 10
12420.85954164805
 20
1625.241876284836
 30
0.0
 11
12463.73141243703
 21
1785.241876284836
 31
0.0
  0
LINE
  5
1EB10
330
747D
100
AcDbEntity
  8
部品1
 48
50.0
100
AcDbLine
 10
12990.21169956354
 20
1785.241876284836
 30
0.0
 11
12190.21169956354
 21
1785.241876284836
 31
0.0
  0
LINE
  5
1EB11
330
747D
100
AcDbEntity
  8
部品1
 48
50.0
100
AcDbLine
 10
12990.21169956354
 20
1625.241876284836
 30
0.0
 11
12190.21169956354
 21
1625.241876284836
 31
0.0
  0
LINE
  5
1EB12
330
747D
100
AcDbEntity
  8
部品1
 48
50.0
100
AcDbLine
 10
13547.18932378915
 20
1097.834111881661
 30
0.0
 11
12155.87605479154
 21
1097.834111881661
 31
0.0
  0
LINE
  5
1EB13
330
747D
100
AcDbEntity
  8
部品1
 48
50.0
100
AcDbLine
 10
13547.18932378915
 20
937.8341118816607
 30
0.0
 11
12155.87605479154
 21
937.8341118816607
 31
0.0
  0
TEXT
  5
1EB14
330
747D
100
AcDbEntity
  8
部品1
 48
50.0
100
AcDbText
 10
12216.02212633971
 20
975.0774508955137
 30
0.0
 40
96.0
  1
床下湿気防止用基礎
  7
STYLE2
100
AcDbText
  0
LINE
  5
1EB15
330
747D
100
AcDbEntity
  8
細線
 48
50.0
100
AcDbLine
 10
12381.0609509929
 20
1785.241876284836
 30
0.0
 11
12501.0609509929
 21
1905.241876284836
 31
0.0
  0
LINE
  5
1EB16
330
747D
100
AcDbEntity
  8
細線
 48
50.0
100
AcDbLine
 10
12347.38499053889
 20
1785.241876284836
 30
0.0
 11
12467.38499053889
 21
1905.241876284836
 31
0.0
  0
LINE
  5
1EB17
330
747D
100
AcDbEntity
  8
Ｇ．Ｌ
 48
50.0
100
AcDbLine
 10
11952.53682227234
 20
2389.077983422759
 30
0.0
 11
12470.21169956354
 21
2389.077983422759
 31
0.0
  0
LINE
  5
1EB18
330
747D
100
AcDbEntity
  8
部品1
 48
50.0
100
AcDbLine
 10
10936.15966785795
 20
1097.834111881661
 30
0.0
 11
10936.15966785795
 21
937.8341118816607
 31
0.0
  0
LINE
  5
1EB19
330
747D
100
AcDbEntity
  8
細線
 48
50.0
100
AcDbLine
 10
10815.24722459755
 20
1625.241876284835
 30
0.0
 11
10858.11909538653
 21
1785.241876284835
 31
0.0
  0
LINE
  5
1EB1A
330
747D
100
AcDbEntity
  8
細線
 48
50.0
100
AcDbLine
 10
10823.28570037048
 20
1655.241876284835
 30
0.0
 11
10831.32417614342
 21
1625.241876284835
 31
0.0
  0
LINE
  5
1EB1B
330
747D
100
AcDbEntity
  8
細線
 48
50.0
100
AcDbLine
 10
10850.0806196136
 20
1755.241876284836
 30
0.0
 11
10842.04214384066
 21
1785.241876284835
 31
0.0
  0
LINE
  5
1EB1C
330
747D
100
AcDbEntity
  8
部品1
 48
50.0
100
AcDbLine
 10
10891.54910159273
 20
1625.241876284835
 30
0.0
 11
10891.54910159273
 21
1785.241876284835
 31
0.0
  0
LINE
  5
1EB1D
330
747D
100
AcDbEntity
  8
部品1
 48
50.0
100
AcDbLine
 10
12155.87605479154
 20
1097.834111881661
 30
0.0
 11
12155.87605479154
 21
937.8341118816607
 31
0.0
  0
LINE
  5
1EB1E
330
747D
100
AcDbEntity
  8
部品1
 48
50.0
100
AcDbLine
 10
12290.21169956354
 20
1785.241876284836
 30
0.0
 11
12290.21169956354
 21
2085.241876284837
 31
0.0
  0
LINE
  5
1EB1F
330
747D
100
AcDbEntity
  8
細線
 48
50.0
100
AcDbLine
 10
12313.70903008488
 20
1785.241876284836
 30
0.0
 11
12433.70903008488
 21
1905.241876284836
 31
0.0
  0
LINE
  5
1EB20
330
747D
100
AcDbEntity
  8
細線
 48
50.0
100
AcDbLine
 10
12223.63942927992
 20
1625.241876284836
 30
0.0
 11
12266.51130006891
 21
1785.241876284836
 31
0.0
  0
LINE
  5
1EB21
330
747D
100
AcDbEntity
  8
部品1
 48
50.0
100
AcDbLine
 10
12190.21169956354
 20
1625.241876284836
 30
0.0
 11
12190.21169956354
 21
1785.241876284836
 31
0.0
  0
LINE
  5
1EB22
330
747D
100
AcDbEntity
  8
細線
 48
50.0
100
AcDbLine
 10
12357.08288048003
 20
1755.241876284836
 30
0.0
 11
12349.0444047071
 21
1785.241876284836
 31
0.0
  0
LINE
  5
1EB23
330
747D
100
AcDbEntity
  8
細線
 48
50.0
100
AcDbLine
 10
12231.67790505286
 20
1655.241876284836
 30
0.0
 11
12239.7163808258
 21
1625.241876284836
 31
0.0
  0
LINE
  5
1EB24
330
747D
100
AcDbEntity
  8
細線
 48
50.0
100
AcDbLine
 10
12258.47282429597
 20
1755.241876284836
 30
0.0
 11
12250.43434852304
 21
1785.241876284836
 31
0.0
  0
LINE
  5
1EB25
330
747D
100
AcDbEntity
  8
細線
 48
50.0
100
AcDbLine
 10
12330.28796123692
 20
1655.241876284836
 30
0.0
 11
12338.32643700986
 21
1625.241876284836
 31
0.0
  0
LINE
  5
1EB26
330
747D
100
AcDbEntity
  8
細線
 48
50.0
100
AcDbLine
 10
12322.24948546399
 20
1625.241876284836
 30
0.0
 11
12365.12135625297
 21
1785.241876284836
 31
0.0
  0
LINE
  5
1EB27
330
747D
100
AcDbEntity
  8
部品1
 48
50.0
100
AcDbLine
 10
12360.21169956354
 20
1905.241876284836
 30
0.0
 11
12360.21169956354
 21
1925.241876284836
 31
0.0
  0
LINE
  5
1EB28
330
747D
100
AcDbEntity
  8
細線
 48
50.0
100
AcDbLine
 10
12290.21169956354
 20
2031.152229395571
 30
0.0
 11
12344.30134645281
 21
2085.241876284837
 31
0.0
  0
LINE
  5
1EB29
330
747D
100
AcDbEntity
  8
細線
 48
50.0
100
AcDbLine
 10
12290.21169956354
 20
1997.476268941561
 30
0.0
 11
12377.97730690682
 21
2085.241876284837
 31
0.0
  0
LINE
  5
1EB2A
330
747D
100
AcDbEntity
  8
細線
 48
50.0
100
AcDbLine
 10
12290.21169956354
 20
1963.800308487551
 30
0.0
 11
12411.65326736082
 21
2085.241876284837
 31
0.0
  0
TEXT
  5
1EB2B
330
747D
100
AcDbEntity
  8
部品1
 48
50.0
100
AcDbText
 10
10815.74039130033
 20
2483.236400857488
 30
0.0
 40
100.0
  1
M12×200(市販品)
  7
STYLE1
100
AcDbText
  0
LINE
  5
1EB2C
330
747D
100
AcDbEntity
  8
部品1
 48
50.0
100
AcDbLine
 10
12013.90824820251
 20
2472.548108271178
 30
0.0
 11
12110.29124630356
 21
2472.548108271178
 31
0.0
  0
LINE
  5
1EB2D
330
747D
100
AcDbEntity
  8
部品1
 48
50.0
100
AcDbLine
 10
12013.90824820251
 20
2472.548108271178
 30
0.0
 11
12062.09974725303
 21
2389.077983422755
 31
0.0
  0
TEXT
  5
1EB2E
330
747D
100
AcDbEntity
  8
部品1
 48
50.0
100
AcDbText
 10
12112.38260167356
 20
2398.443810325466
 30
0.0
 40
100.0
  1
G.L
  7
STYLE1
100
AcDbText
  0
LINE
  5
1EB2F
330
747D
100
AcDbEntity
  8
部品1
 48
50.0
100
AcDbLine
 10
12110.29124630356
 20
2472.548108271178
 30
0.0
 11
12062.09974725303
 21
2389.077983422755
 31
0.0
  0
LINE
  5
1EB30
330
747D
100
AcDbEntity
  8
細線
 48
50.0
100
AcDbLine
 10
12620.21169956355
 20
2024.392624855477
 30
0.0
 11
12710.21169956354
 21
2114.392624855474
 31
0.0
  0
LINE
  5
1EB31
330
747D
100
AcDbEntity
  8
細線
 48
50.0
100
AcDbLine
 10
12620.21169956355
 20
2058.068585309488
 30
0.0
 11
12710.21169956354
 21
2148.068585309483
 31
0.0
  0
LINE
  5
1EB32
330
747D
100
AcDbEntity
  8
部品1
 48
50.0
100
AcDbLine
 10
12710.21169956354
 20
2865.241876284837
 30
0.0
 11
12710.21169956354
 21
2085.241876284837
 31
0.0
  0
LINE
  5
1EB33
330
747D
100
AcDbEntity
  8
部品1
 48
50.0
100
AcDbLine
 10
12470.21169956354
 20
2085.241876284837
 30
0.0
 11
12470.21169956354
 21
2865.241876284837
 31
0.0
  0
LINE
  5
1EB34
330
747D
100
AcDbEntity
  8
部品1
 48
50.0
100
AcDbLine
 10
12600.21169956355
 20
1935.241876284836
 30
0.0
 11
12600.21169956354
 21
2690.559913027643
 31
0.0
  0
LINE
  5
1EB35
330
747D
100
AcDbEntity
  8
部品1
 48
50.0
100
AcDbLine
 10
12620.21169956355
 20
1935.241876284836
 30
0.0
 11
12620.21169956354
 21
2690.559913027643
 31
0.0
  0
LINE
  5
1EB36
330
747D
100
AcDbEntity
  8
細線
 48
50.0
100
AcDbLine
 10
12756.79267417097
 20
1925.241876284836
 30
0.0
 11
12890.21169956354
 21
2058.66090167741
 31
0.0
  0
LINE
  5
1EB37
330
747D
100
AcDbEntity
  8
細線
 48
50.0
100
AcDbLine
 10
12790.46863462498
 20
1925.241876284836
 30
0.0
 11
12890.21169956354
 21
2024.984941223398
 31
0.0
  0
LINE
  5
1EB38
330
747D
100
AcDbEntity
  8
細線
 48
50.0
100
AcDbLine
 10
12723.11671371695
 20
1925.241876284836
 30
0.0
 11
12883.11671371696
 21
2085.241876284837
 31
0.0
  0
LINE
  5
1EB39
330
747D
100
AcDbEntity
  8
部品1
 48
50.0
100
AcDbLine
 10
12710.21169956354
 20
2085.241876284837
 30
0.0
 11
12890.21169956354
 21
2085.241876284837
 31
0.0
  0
LINE
  5
1EB3A
330
747D
100
AcDbEntity
  8
細線
 48
50.0
100
AcDbLine
 10
12815.29976638429
 20
1625.241876284836
 30
0.0
 11
12858.17163717327
 21
1785.241876284836
 31
0.0
  0
LINE
  5
1EB3B
330
747D
100
AcDbEntity
  8
細線
 48
50.0
100
AcDbLine
 10
12850.13316140034
 20
1755.241876284836
 30
0.0
 11
12842.09468562741
 21
1785.241876284836
 31
0.0
  0
LINE
  5
1EB3C
330
747D
100
AcDbEntity
  8
細線
 48
50.0
100
AcDbLine
 10
12650.46863462497
 20
1785.241876284836
 30
0.0
 11
12770.4697444314
 21
1905.242986091261
 31
0.0
  0
LINE
  5
1EB3D
330
747D
100
AcDbEntity
  8
細線
 48
50.0
100
AcDbLine
 10
12583.11671371695
 20
1785.241876284836
 30
0.0
 11
12703.11671371695
 21
1905.241876284836
 31
0.0
  0
LINE
  5
1EB3E
330
747D
100
AcDbEntity
  8
細線
 48
50.0
100
AcDbLine
 10
12616.79267417097
 20
1785.241876284836
 30
0.0
 11
12736.79267417097
 21
1905.241876284836
 31
0.0
  0
LINE
  5
1EB3F
330
747D
100
AcDbEntity
  8
細線
 48
50.0
100
AcDbLine
 10
12618.07965401617
 20
1625.241876284836
 30
0.0
 11
12660.95152480515
 21
1785.241876284836
 31
0.0
  0
LINE
  5
1EB40
330
747D
100
AcDbEntity
  8
細線
 48
50.0
100
AcDbLine
 10
12626.1181297891
 20
1655.241876284836
 30
0.0
 11
12634.15660556204
 21
1625.241876284836
 31
0.0
  0
LINE
  5
1EB41
330
747D
100
AcDbEntity
  8
細線
 48
50.0
100
AcDbLine
 10
12455.6929366641
 20
1755.241876284836
 30
0.0
 11
12447.65446089116
 21
1785.241876284836
 31
0.0
  0
LINE
  5
1EB42
330
747D
100
AcDbEntity
  8
細線
 48
50.0
100
AcDbLine
 10
12527.50807360505
 20
1655.241876284836
 30
0.0
 11
12535.54654937798
 21
1625.241876284836
 31
0.0
  0
LINE
  5
1EB43
330
747D
100
AcDbEntity
  8
細線
 48
50.0
100
AcDbLine
 10
12519.46959783211
 20
1625.241876284836
 30
0.0
 11
12562.34146862109
 21
1785.241876284836
 31
0.0
  0
LINE
  5
1EB44
330
747D
100
AcDbEntity
  8
細線
 48
50.0
100
AcDbLine
 10
12554.30299284816
 20
1755.241876284836
 30
0.0
 11
12546.26451707522
 21
1785.241876284836
 31
0.0
  0
LINE
  5
1EB45
330
747D
100
AcDbEntity
  8
細線
 48
50.0
100
AcDbLine
 10
12823.33824215723
 20
1655.241876284836
 30
0.0
 11
12831.37671793016
 21
1625.241876284836
 31
0.0
  0
LINE
  5
1EB46
330
747D
100
AcDbEntity
  8
細線
 48
50.0
100
AcDbLine
 10
12652.91304903222
 20
1755.241876284836
 30
0.0
 11
12644.87457325929
 21
1785.241876284836
 31
0.0
  0
LINE
  5
1EB47
330
747D
100
AcDbEntity
  8
細線
 48
50.0
100
AcDbLine
 10
12724.72818597316
 20
1655.241876284836
 30
0.0
 11
12732.7666617461
 21
1625.241876284836
 31
0.0
  0
LINE
  5
1EB48
330
747D
100
AcDbEntity
  8
細線
 48
50.0
100
AcDbLine
 10
12751.52310521628
 20
1755.241876284836
 30
0.0
 11
12743.48462944335
 21
1785.241876284836
 31
0.0
  0
LINE
  5
1EB49
330
747D
100
AcDbEntity
  8
細線
 48
50.0
100
AcDbLine
 10
12716.68971020023
 20
1625.241876284836
 30
0.0
 11
12759.56158098921
 21
1785.241876284836
 31
0.0
  0
LINE
  5
1EB4A
330
747D
100
AcDbEntity
  8
部品1
 48
50.0
100
AcDbLine
 10
12580.21169956354
 20
2007.90089465624
 30
0.0
 11
12560.21169956354
 21
2007.90089465624
 31
0.0
  0
LINE
  5
1EB4B
330
747D
100
AcDbEntity
  8
細線
 48
50.0
100
AcDbLine
 10
12570.0440089103
 20
2007.90089465624
 30
0.0
 11
12600.21169956355
 21
2038.068585309487
 31
0.0
  0
LINE
  5
1EB4C
330
747D
100
AcDbEntity
  8
部品1
 48
50.0
100
AcDbLine
 10
12560.21169956354
 20
2007.90089465624
 30
0.0
 11
12560.21169956354
 21
1935.241876284836
 31
0.0
  0
ARC
  5
1EB4D
330
747D
100
AcDbEntity
  8
部品1
 48
50.0
100
AcDbCircle
 10
12590.21169956354
 20
1935.241876284836
 30
0.0
 40
30.0
100
AcDbArc
 50
180.0
 51
199.4712206345081
  0
CIRCLE
  5
1EB4E
330
747D
100
AcDbEntity
  8
部品1
 48
50.0
100
AcDbCircle
 10
12590.21169956354
 20
1935.241876284836
 30
0.0
 40
10.0
  0
LINE
  5
1EB4F
330
747D
100
AcDbEntity
  8
部品1
 48
50.0
100
AcDbLine
 10
12580.21169956354
 20
2007.90089465624
 30
0.0
 11
12580.21169956354
 21
1935.241876284836
 31
0.0
  0
ARC
  5
1EB50
330
747D
100
AcDbEntity
  8
部品1
 48
50.0
100
AcDbCircle
 10
12590.21169956354
 20
1935.241876284836
 30
0.0
 40
30.0
100
AcDbArc
 50
340.5287793654919
 51
0.0
  0
LINE
  5
1EB51
330
747D
100
AcDbEntity
  8
細線
 48
50.0
100
AcDbLine
 10
12580.21169956354
 20
1984.392624855475
 30
0.0
 11
12600.21169956355
 21
2004.392624855477
 31
0.0
  0
LINE
  5
1EB52
330
747D
100
AcDbEntity
  8
細線
 48
50.0
100
AcDbLine
 10
12487.38499053889
 20
1925.241876284836
 30
0.0
 11
12560.21169956354
 21
1998.068585309485
 31
0.0
  0
LINE
  5
1EB53
330
747D
100
AcDbEntity
  8
細線
 48
50.0
100
AcDbLine
 10
12453.70903008488
 20
1925.241876284836
 30
0.0
 11
12600.21169956354
 21
2071.744545763496
 31
0.0
  0
LINE
  5
1EB54
330
747D
100
AcDbEntity
  8
細線
 48
50.0
100
AcDbLine
 10
12521.0609509929
 20
1925.241876284836
 30
0.0
 11
12560.21169956354
 21
1964.392624855473
 31
0.0
  0
LINE
  5
1EB55
330
747D
100
AcDbEntity
  8
部品1
 48
50.0
100
AcDbLine
 10
12820.21169956354
 20
1905.241876284836
 30
0.0
 11
12820.21169956354
 21
1925.241876284836
 31
0.0
  0
CIRCLE
  5
1EB56
330
747D
100
AcDbEntity
  8
部品1
 48
50.0
100
AcDbCircle
 10
12750.21169956354
 20
1935.241876284836
 30
0.0
 40
10.0
  0
LINE
  5
1EB57
330
747D
100
AcDbEntity
  8
細線
 48
50.0
100
AcDbLine
 10
12852.52439734903
 20
1785.241876284836
 30
0.0
 11
12890.21169956354
 21
1822.929178499342
 31
0.0
  0
LINE
  5
1EB58
330
747D
100
AcDbEntity
  8
部品1
 48
50.0
100
AcDbLine
 10
12890.21169956354
 20
2085.241876284837
 30
0.0
 11
12890.21169956354
 21
1785.241876284836
 31
0.0
  0
LINE
  5
1EB59
330
747D
100
AcDbEntity
  8
部品1
 48
50.0
100
AcDbLine
 10
12990.21169956354
 20
1625.241876284836
 30
0.0
 11
12990.21169956354
 21
1785.241876284836
 31
0.0
  0
LINE
  5
1EB5A
330
747D
100
AcDbEntity
  8
細線
 48
50.0
100
AcDbLine
 10
12886.20035780304
 20
1785.241876284836
 30
0.0
 11
12890.21169956354
 21
1789.253218045334
 31
0.0
  0
LINE
  5
1EB5B
330
747D
100
AcDbEntity
  8
細線
 48
50.0
100
AcDbLine
 10
12921.94829834129
 20
1655.241876284836
 30
0.0
 11
12929.98677411422
 21
1625.241876284836
 31
0.0
  0
LINE
  5
1EB5C
330
747D
100
AcDbEntity
  8
細線
 48
50.0
100
AcDbLine
 10
12913.90982256835
 20
1625.241876284836
 30
0.0
 11
12956.78169335733
 21
1785.241876284836
 31
0.0
  0
LINE
  5
1EB5D
330
747D
100
AcDbEntity
  8
細線
 48
50.0
100
AcDbLine
 10
12948.7432175844
 20
1755.241876284836
 30
0.0
 11
12940.70474181147
 21
1785.241876284836
 31
0.0
  0
LINE
  5
1EB5E
330
747D
100
AcDbEntity
  8
部品1
 48
50.0
100
AcDbLine
 10
13547.18932378915
 20
1097.834111881661
 30
0.0
 11
13547.18932378915
 21
937.8341118816607
 31
0.0
  0
LWPOLYLINE
  5
1EB5F
330
747D
100
AcDbEntity
  8
部品1
 48
50.0
100
AcDbPolyline
 90
        4
 70
     0
 43
15.0
 10
12710.21169956354
 20
2389.077983422759
 10
13227.88657685473
 20
2389.077983422759
 42
0.1559987191059798
 10
13394.58909792327
 20
2442.037069244525
 42
-0.1900569176366468
 10
13593.51091316178
 20
2473.018252688471
  0
LINE
  5
1EB60
330
747D
100
AcDbEntity
  8
部品1
 48
50.0
100
AcDbLine
 10
12560.21169956354
 20
2617.900894656242
 30
0.0
 11
12560.21169956354
 21
2690.559913027645
 31
0.0
  0
LINE
  5
1EB61
330
747D
100
AcDbEntity
  8
細線
 48
50.0
100
AcDbLine
 10
12580.21169956354
 20
2656.883952573634
 30
0.0
 11
12600.21169956354
 21
2676.883952573634
 31
0.0
  0
LINE
  5
1EB62
330
747D
100
AcDbEntity
  8
部品1
 48
50.0
100
AcDbLine
 10
12580.21169956354
 20
2617.90089465624
 30
0.0
 11
12580.21169956354
 21
2690.559913027643
 31
0.0
  0
LINE
  5
1EB63
330
747D
100
AcDbEntity
  8
細線
 48
50.0
100
AcDbLine
 10
12620.21169956354
 20
2663.207992119625
 30
0.0
 11
12710.21169956354
 21
2753.207992119625
 31
0.0
  0
LINE
  5
1EB64
330
747D
100
AcDbEntity
  8
細線
 48
50.0
100
AcDbLine
 10
12470.21169956354
 20
2580.559913027644
 30
0.0
 11
12560.21169956354
 21
2670.559913027644
 31
0.0
  0
LINE
  5
1EB65
330
747D
100
AcDbEntity
  8
細線
 48
50.0
100
AcDbLine
 10
12842.24948546399
 20
2209.077983422758
 30
0.0
 11
12885.12135625297
 21
2369.077983422759
 31
0.0
  0
LINE
  5
1EB66
330
747D
100
AcDbEntity
  8
部品1
 48
50.0
100
AcDbLine
 10
12710.21169956354
 20
2639.077983422759
 30
0.0
 11
13227.88657685473
 21
2639.077983422759
 31
0.0
  0
LINE
  5
1EB67
330
747D
100
AcDbEntity
  8
部品1
 48
50.0
100
AcDbLine
 10
12710.21169956354
 20
2389.077983422759
 30
0.0
 11
13227.88657685473
 21
2389.077983422759
 31
0.0
  0
LINE
  5
1EB68
330
747D
100
AcDbEntity
  8
部品1
 48
50.0
100
AcDbLine
 10
12710.21169956354
 20
2409.077983422759
 30
0.0
 11
13227.88657685473
 21
2409.077983422759
 31
0.0
  0
LINE
  5
1EB69
330
747D
100
AcDbEntity
  8
部品1
 48
50.0
100
AcDbLine
 10
12710.21169956354
 20
2369.077983422759
 30
0.0
 11
13227.88657685473
 21
2369.077983422759
 31
0.0
  0
LINE
  5
1EB6A
330
747D
100
AcDbEntity
  8
部品1
 48
50.0
100
AcDbLine
 10
12711.29652990684
 20
2209.077983422758
 30
0.0
 11
13227.88657685473
 21
2209.077983422758
 31
0.0
  0
HATCH
  5
1EB6B
330
747D
100
AcDbEntity
  8
寸法
 62
     5
 48
50.0
100
AcDbHatch
 10
0.0
 20
0.0
 30
0.0
210
0.0
220
0.0
230
1.0
  2
PLAST
 70
     0
 71
     0
 91
        1
 92
        7
 72
     0
 73
     1
 93
        4
 10
13227.88657685473
 20
2639.077983422758
 10
12710.21169956354
 20
2639.077983422759
 10
12710.21169956354
 20
2409.077983422759
 10
13227.88657685473
 20
2409.07798342276
 97
        0
 75
     0
 76
     1
 52
315.0
 41
25.0
 77
     0
 78
     3
 53
315.0
 43
-277.1552641870767
 44
-2953.549114054571
 45
112.2532015133644
 46
112.2532015133644
 79
     0
 53
315.0
 43
-263.1236139979064
 44
-2939.517463865401
 45
112.2532015133644
 46
112.2532015133644
 79
     0
 53
315.0
 43
-249.0919638087353
 44
-2925.48581367623
 45
112.2532015133644
 46
112.2532015133644
 79
     0
 47
1.387886003246494
 98
        1
 10
12938.7622303895
 20
2575.763570460131
  0
LINE
  5
1EB6C
330
747D
100
AcDbEntity
  8
細線
 48
50.0
100
AcDbLine
 10
12620.21169956355
 20
2293.800308487552
 30
0.0
 11
12710.21169956354
 21
2383.800308487548
 31
0.0
  0
LINE
  5
1EB6D
330
747D
100
AcDbEntity
  8
細線
 48
50.0
100
AcDbLine
 10
12620.21169956354
 20
2361.152229395571
 30
0.0
 11
12710.21169956354
 21
2451.15222939557
 31
0.0
  0
LINE
  5
1EB6E
330
747D
100
AcDbEntity
  8
細線
 48
50.0
100
AcDbLine
 10
12620.21169956354
 20
2327.476268941559
 30
0.0
 11
12710.21169956354
 21
2417.476268941556
 31
0.0
  0
LINE
  5
1EB6F
330
747D
100
AcDbEntity
  8
細線
 48
50.0
100
AcDbLine
 10
12620.21169956355
 20
2091.744545763498
 30
0.0
 11
12710.21169956354
 21
2181.744545763492
 31
0.0
  0
LINE
  5
1EB70
330
747D
100
AcDbEntity
  8
細線
 48
50.0
100
AcDbLine
 10
12470.21169956354
 20
2211.152229395569
 30
0.0
 11
12600.21169956354
 21
2341.15222939557
 31
0.0
  0
LINE
  5
1EB71
330
747D
100
AcDbEntity
  8
細線
 48
50.0
100
AcDbLine
 10
12470.21169956354
 20
2177.476268941559
 30
0.0
 11
12600.21169956354
 21
2307.476268941558
 31
0.0
  0
LINE
  5
1EB72
330
747D
100
AcDbEntity
  8
細線
 48
50.0
100
AcDbLine
 10
12470.21169956354
 20
2143.80030848755
 30
0.0
 11
12600.21169956355
 21
2273.800308487552
 31
0.0
  0
LINE
  5
1EB73
330
747D
100
AcDbEntity
  8
細線
 48
50.0
100
AcDbLine
 10
12778.47282429597
 20
2339.077983422759
 30
0.0
 11
12770.43434852304
 21
2369.077983422759
 31
0.0
  0
LINE
  5
1EB74
330
747D
100
AcDbEntity
  8
細線
 48
50.0
100
AcDbLine
 10
12743.63942927992
 20
2209.077983422758
 30
0.0
 11
12786.51130006891
 21
2369.077983422759
 31
0.0
  0
LINE
  5
1EB75
330
747D
100
AcDbEntity
  8
細線
 48
50.0
100
AcDbLine
 10
12751.67790505286
 20
2239.077983422759
 30
0.0
 11
12759.7163808258
 21
2209.077983422758
 31
0.0
  0
LINE
  5
1EB76
330
747D
100
AcDbEntity
  8
部品1
 48
50.0
100
AcDbLine
 10
12580.21169956354
 20
2617.90089465624
 30
0.0
 11
12560.21169956354
 21
2617.900894656242
 31
0.0
  0
LINE
  5
1EB77
330
747D
100
AcDbEntity
  8
細線
 48
50.0
100
AcDbLine
 10
12580.21169956354
 20
2623.207992119624
 30
0.0
 11
12600.21169956354
 21
2643.207992119625
 31
0.0
  0
LINE
  5
1EB78
330
747D
100
AcDbEntity
  8
細線
 48
50.0
100
AcDbLine
 10
12470.21169956354
 20
2513.207992119625
 30
0.0
 11
12574.90460210016
 21
2617.90089465624
 31
0.0
  0
LINE
  5
1EB79
330
747D
100
AcDbEntity
  8
細線
 48
50.0
100
AcDbLine
 10
12470.21169956354
 20
2546.883952573634
 30
0.0
 11
12560.21169956354
 21
2636.883952573634
 31
0.0
  0
LINE
  5
1EB7A
330
747D
100
AcDbEntity
  8
細線
 48
50.0
100
AcDbLine
 10
13047.50807360504
 20
2239.077983422759
 30
0.0
 11
13055.54654937798
 21
2209.077983422758
 31
0.0
  0
LINE
  5
1EB7B
330
747D
100
AcDbEntity
  8
細線
 48
50.0
100
AcDbLine
 10
13039.46959783211
 20
2209.077983422758
 30
0.0
 11
13082.34146862109
 21
2369.077983422759
 31
0.0
  0
LINE
  5
1EB7C
330
747D
100
AcDbEntity
  8
細線
 48
50.0
100
AcDbLine
 10
12975.6929366641
 20
2339.077983422759
 30
0.0
 11
12967.65446089116
 21
2369.077983422759
 31
0.0
  0
LINE
  5
1EB7D
330
747D
100
AcDbEntity
  8
細線
 48
50.0
100
AcDbLine
 10
12877.08288048003
 20
2339.077983422759
 30
0.0
 11
12869.0444047071
 21
2369.077983422759
 31
0.0
  0
LINE
  5
1EB7E
330
747D
100
AcDbEntity
  8
細線
 48
50.0
100
AcDbLine
 10
12850.28796123692
 20
2239.077983422759
 30
0.0
 11
12858.32643700986
 21
2209.077983422758
 31
0.0
  0
LINE
  5
1EB7F
330
747D
100
AcDbEntity
  8
細線
 48
50.0
100
AcDbLine
 10
12948.89801742098
 20
2239.077983422759
 30
0.0
 11
12956.93649319392
 21
2209.077983422758
 31
0.0
  0
LINE
  5
1EB80
330
747D
100
AcDbEntity
  8
細線
 48
50.0
100
AcDbLine
 10
12940.85954164805
 20
2209.077983422758
 30
0.0
 11
12983.73141243703
 21
2369.077983422759
 31
0.0
  0
LINE
  5
1EB81
330
747D
100
AcDbEntity
  8
細線
 48
50.0
100
AcDbLine
 10
13074.30299284816
 20
2339.077983422759
 30
0.0
 11
13066.26451707522
 21
2369.077983422759
 31
0.0
  0
LINE
  5
1EB82
330
747D
100
AcDbEntity
  8
細線
 48
50.0
100
AcDbLine
 10
13146.1181297891
 20
2239.077983422759
 30
0.0
 11
13154.15660556204
 21
2209.077983422758
 31
0.0
  0
LINE
  5
1EB83
330
747D
100
AcDbEntity
  8
細線
 48
50.0
100
AcDbLine
 10
13138.07965401617
 20
2209.077983422758
 30
0.0
 11
13180.95152480515
 21
2369.077983422759
 31
0.0
  0
LINE
  5
1EB84
330
747D
100
AcDbEntity
  8
細線
 48
50.0
100
AcDbLine
 10
13172.91304903222
 20
2339.077983422759
 30
0.0
 11
13164.87457325929
 21
2369.077983422759
 31
0.0
  0
LINE
  5
1EB85
330
747D
100
AcDbEntity
  8
細線
 48
50.0
100
AcDbLine
 10
12605.82722769163
 20
2716.175441155732
 30
0.0
 11
12710.21169956354
 21
2820.559913027643
 31
0.0
  0
LINE
  5
1EB86
330
747D
100
AcDbEntity
  8
細線
100
AcDbLine
 10
12640.51854075475
 20
2833.23156999513
 30
0.0
 11
12670.02260943298
 21
2831.593825297741
 31
0.0
  0
LINE
  5
1EB87
330
747D
100
AcDbEntity
  8
細線
 48
50.0
100
AcDbLine
 10
12619.65258364602
 20
2696.324836656112
 30
0.0
 11
12710.21169956354
 21
2786.883952573634
 31
0.0
  0
LINE
  5
1EB88
330
747D
100
AcDbEntity
  8
部品1
 48
50.0
100
AcDbLine
 10
12470.21169956354
 20
2865.241876284837
 30
0.0
 11
12710.21169956354
 21
2865.241876284837
 31
0.0
  0
LINE
  5
1EB89
330
747D
100
AcDbEntity
  8
細線
100
AcDbLine
 10
12584.78855211631
 20
2831.593825297741
 30
0.0
 11
12640.51854075475
 21
2833.23156999513
 31
0.0
  0
CIRCLE
  5
1EB8A
330
747D
100
AcDbEntity
  8
部品1
 48
50.0
100
AcDbCircle
 10
12590.21169956354
 20
2690.559913027643
 30
0.0
 40
10.0
  0
ARC
  5
1EB8B
330
747D
100
AcDbEntity
  8
部品1
 48
50.0
100
AcDbCircle
 10
12590.21169956354
 20
2690.559913027643
 30
0.0
 40
30.0
100
AcDbArc
 50
0.0
 51
180.0
  0
LINE
  5
1EB8C
330
747D
100
AcDbEntity
  8
細線
 48
50.0
100
AcDbLine
 10
12470.21169956354
 20
2782.6156757517
 30
0.0
 11
12512.63904061097
 21
2825.043016799125
 31
0.0
  0
LINE
  5
1EB8D
330
747D
100
AcDbEntity
  8
細線
100
AcDbLine
 10
12470.21169956354
 20
2834.869257928876
 30
0.0
 11
12507.75002306957
 21
2825.043016799125
 31
0.0
  0
LINE
  5
1EB8E
330
747D
100
AcDbEntity
  8
細線
 48
50.0
100
AcDbLine
 10
12470.21169956354
 20
2816.291636205709
 30
0.0
 11
12484.93521237485
 21
2831.015149017014
 31
0.0
  0
LINE
  5
1EB8F
330
747D
100
AcDbEntity
  8
細線
100
AcDbLine
 10
12507.75002306957
 20
2825.043016799125
 30
0.0
 11
12543.810597817
 21
2825.043016799125
 31
0.0
  0
LINE
  5
1EB90
330
747D
100
AcDbEntity
  8
細線
100
AcDbLine
 10
12543.810597817
 20
2825.043016799125
 30
0.0
 11
12584.78855211631
 21
2831.593825297741
 31
0.0
  0
LINE
  5
1EB91
330
747D
100
AcDbEntity
  8
細線
100
AcDbLine
 10
12670.02260943298
 20
2831.593825297741
 30
0.0
 11
12710.21169956354
 21
2823.405272101737
 31
0.0
  0
LINE
  5
1EB92
330
747D
100
AcDbEntity
  8
細線
 48
50.0
100
AcDbLine
 10
10814.59219476102
 20
3703.927840022177
 30
0.0
 11
14371.23574413355
 21
3703.927840022178
 31
0.0
  0
LINE
  5
1EB93
330
747D
100
AcDbEntity
  8
細線
 48
50.0
100
AcDbLine
 10
10814.59219476102
 20
3663.927840022178
 30
0.0
 11
10814.59219476102
 21
3663.927840022178
 31
0.0
  0
LINE
  5
1EB94
330
747D
100
AcDbEntity
  8
細線
 48
50.0
100
AcDbLine
 10
10814.59219476102
 20
3743.927840022177
 30
0.0
 11
10814.59219476102
 21
3663.927840022178
 31
0.0
  0
TEXT
  5
1ECA2
330
747D
100
AcDbEntity
  8
文字
 62
     7
 48
50.0
100
AcDbText
 10
20384.0
 20
-0.0000000000001137
 30
0.0
 40
1.0
  1
KK
  7
STYLE2
100
AcDbText
  0
TEXT
  5
1ECA4
330
747D
100
AcDbEntity
  8
文字
 62
     7
 48
50.0
100
AcDbText
 10
17278.23669998441
 20
477.2740661031251
 30
0.0
 40
160.0
  1
機種名
  7
STYLE2
100
AcDbText
  0
TEXT
  5
1ECA5
330
747D
100
AcDbEntity
  8
文字
 62
     7
 48
50.0
100
AcDbText
 10
17286.20534824901
 20
79.8063126919036
 30
0.0
 40
80.0
  1
※布基礎には換気口を設けてください。
  7
STYLE2
100
AcDbText
  0
TEXT
  5
1ECA6
330
747D
100
AcDbEntity
  8
文字
 62
     7
 48
50.0
100
AcDbText
 10
17286.20534824901
 20
216.4744947408502
 30
0.0
 40
80.0
  1
※寒冷地等は、地域の実情に合わせた基礎にしてください。
  7
STYLE2
100
AcDbText
  0
LINE
  5
1ECA7
330
747D
100
AcDbEntity
  8
仕様書枠
 48
50.0
100
AcDbLine
 10
17184.0
 20
799.9999999999999
 30
0.0
 11
18328.0
 21
799.9999999999999
 31
0.0
  0
TEXT
  5
1ECA8
330
747D
100
AcDbEntity
  8
仕様書枠
 62
     7
 48
50.0
100
AcDbText
 10
17239.77905657689
 20
895.0906074299403
 30
0.0
 40
200.0
  1
基 礎 図
  7
STYLE2
100
AcDbText
  0
LINE
  5
1ECA9
330
747D
100
AcDbEntity
  8
仕様書枠
 62
     7
 48
50.0
100
AcDbLine
 10
17264.0
 20
399.9999999999999
 30
0.0
 11
20304.0
 21
399.9999999999999
 31
0.0
  0
LINE
  5
1ECAA
330
747D
100
AcDbEntity
  8
仕様書枠
 48
50.0
100
AcDbLine
 10
17184.0
 20
1200.0
 30
0.0
 11
20384.0
 21
1200.0
 31
0.0
  0
LINE
  5
1ECAB
330
747D
100
AcDbEntity
  8
仕様書枠
  6
Continuous
 48
50.0
100
AcDbLine
 10
17184.0
 20
1200.0
 30
0.0
 11
17184.0
 21
-0.0000000000001137
 31
0.0
  0
TEXT
  5
1ECAC
330
747D
100
AcDbEntity
  8
仕様書枠
 62
     7
 48
50.0
100
AcDbText
 10
18563.80006607147
 20
483.896712991141
 30
0.0
 40
160.0
  1
ＳＭＫ-２５Ｓ
  7
STYLE2
100
AcDbText
  0
LINE
  5
1ECAD
330
747D
100
AcDbEntity
  8
仕様書枠
  6
Continuous
 48
50.0
100
AcDbLine
 10
18328.0
 20
1200.0
 30
0.0
 11
18328.0
 21
799.9999999999999
 31
0.0
  0
TEXT
  5
1ECAE
330
747D
100
AcDbEntity
  8
文字
 62
     7
 48
50.0
100
AcDbText
 10
19242.7381962197
 20
1031.557706291228
 30
0.0
 40
100.0
  1
<縮尺> S=1/50
  7
STYLE2
100
AcDbText
  0
LINE
  5
1ECAF
330
747D
100
AcDbEntity
  8
仕様書枠
 48
50.0
100
AcDbLine
 10
20384.0
 20
1200.0
 30
0.0
 11
20384.0
 21
-0.0000000000001137
 31
0.0
  0
ENDSEC
  0
SECTION
  2
OBJECTS
  0
DICTIONARY
  5
7471
330
0
100
AcDbDictionary
281
     1
  3
ACAD_COLOR
350
1C4D0
  3
ACAD_GROUP
350
7472
  3
ACAD_LAYOUT
350
1C4D1
  3
ACAD_MATERIAL
350
1C4CF
  3
ACAD_MLINESTYLE
350
7473
  3
ACAD_PLOTSETTINGS
350
1C4D2
  3
ACAD_PLOTSTYLENAME
350
1C4CD
  3
ACDBHEADERROUNDTRIPXREC
350
1ECC8
  3
ACDBVARIABLEDICTIONARY
350
1152B
  3
CONTENTDICTIONARY
350
E71C
  3
DRAWINGVARIABLESDICT
350
F3B9
  0
DICTIONARY
  5
1DF82
330
7467
100
AcDbDictionary
280
     1
281
     1
  3
ACAD_LAYERSTATES
360
1DF83
  0
DICTIONARY
  5
1C4D0
102
{ACAD_REACTORS
330
7471
102
}
330
7471
100
AcDbDictionary
281
     1
  0
DICTIONARY
  5
7472
102
{ACAD_REACTORS
330
7471
102
}
330
7471
100
AcDbDictionary
281
     1
  0
DICTIONARY
  5
1C4D1
102
{ACAD_REACTORS
330
7471
102
}
330
7471
100
AcDbDictionary
281
     1
  3
Model
350
1C4D3
  3
レイアウト1
350
1C4D4
  0
DICTIONARY
  5
1C4CF
102
{ACAD_REACTORS
330
7471
102
}
330
7471
100
AcDbDictionary
281
     1
  0
DICTIONARY
  5
7473
102
{ACAD_REACTORS
330
7471
102
}
330
7471
100
AcDbDictionary
281
     1
  3
STANDARD
350
7480
  0
DICTIONARY
  5
1C4D2
102
{ACAD_REACTORS
330
7471
102
}
330
7471
100
AcDbDictionary
281
     1
  0
ACDBDICTIONARYWDFLT
  5
1C4CD
102
{ACAD_REACTORS
330
7471
102
}
330
7471
100
AcDbDictionary
281
     1
  3
Normal
350
1C4CE
100
AcDbDictionaryWithDefault
340
1C4CE
  0
DICTIONARY
  5
1ECC8
102
{ACAD_REACTORS
330
7471
102
}
330
7471
100
AcDbDictionary
281
     1
  3
COLORDICT
350
1ECCA
  3
MATERIALDICT
350
1ECC9
  0
DICTIONARY
  5
1152B
102
{ACAD_REACTORS
330
7471
102
}
330
7471
100
AcDbDictionary
281
     1
  3
DIMASSOC
350
1ECC5
  3
PROJECTNAME
350
1ECC6
  3
SORTENTS
350
1152C
  0
DICTIONARY
  5
E71C
102
{ACAD_REACTORS
330
7471
102
}
330
7471
100
AcDbDictionary
281
     1
  0
DICTIONARY
  5
F3B9
102
{ACAD_REACTORS
330
7471
102
}
330
7471
100
AcDbDictionary
281
     1
1001
DRAWINGVARIABLESXDATA
1000
POLARMODE
1000
1
  0
DICTIONARY
  5
1DF83
102
{ACAD_REACTORS
330
1DF82
102
}
330
1DF82
100
AcDbDictionary
281
     1
  0
LAYOUT
  5
1C4D3
102
{ACAD_XDICTIONARY
360
1ECCB
102
}
102
{ACAD_REACTORS
330
1C4D1
102
}
330
1C4D1
100
AcDbPlotSettings
  1

  2
クセロPDF
  4
A3
  6

 40
3.174999952316284
 41
3.174999952316284
 42
3.17498779296875
 43
3.17498779296875
 44
419.9466552734374
 45
296.9259948730469
 46
0.0
 47
0.0
 48
0.0
 49
0.0
140
0.0
141
0.0
142
1.0
143
50.0
 70
 11952
 72
     1
 73
     0
 74
     2
  7
inaba.ctb
 75
    25
147
0.02
148
0.0
149
0.0
100
AcDbLayout
  1
Model
 70
     1
 71
     0
 10
0.0
 20
0.0
 11
12.0
 21
9.0
 12
0.0
 22
0.0
 32
0.0
 14
0.0
 24
0.0
 34
0.0
 15
0.0
 25
0.0
 35
0.0
146
0.0
 13
0.0
 23
0.0
 33
0.0
 16
1.0
 26
0.0
 36
0.0
 17
0.0
 27
1.0
 37
0.0
 76
     0
330
747D
  0
LAYOUT
  5
1C4D4
102
{ACAD_XDICTIONARY
360
1ECCD
102
}
102
{ACAD_REACTORS
330
1C4D1
102
}
330
1C4D1
100
AcDbPlotSettings
  1

  2
EPSON LP-8300
  4

  6

 40
0.0
 41
0.0
 42
0.0
 43
0.0
 44
0.0
 45
0.0
 46
0.0
 47
0.0
 48
0.0
 49
0.0
140
0.0
141
0.0
142
1.0
143
1.0
 70
   688
 72
     0
 73
     0
 74
     5
  7
inaba.ctb
 75
    16
147
1.0
148
0.0
149
0.0
100
AcDbLayout
  1
レイアウト1
 70
     0
 71
     1
 10
0.0
 20
0.0
 11
420.0
 21
297.0
 12
0.0
 22
0.0
 32
0.0
 14
1.000000000000000E+20
 24
1.000000000000000E+20
 34
1.000000000000000E+20
 15
-1.000000000000000E+20
 25
-1.000000000000000E+20
 35
-1.000000000000000E+20
146
0.0
 13
0.0
 23
0.0
 33
0.0
 16
1.0
 26
0.0
 36
0.0
 17
0.0
 27
1.0
 37
0.0
 76
     0
330
747A
  0
MLINESTYLE
  5
7480
102
{ACAD_REACTORS
330
7473
102
}
330
7473
100
AcDbMlineStyle
  2
STANDARD
 70
     0
  3

 62
     0
 51
90.0
 52
90.0
 71
     2
 49
0.5
 62
   256
  6
BYLAYER
 49
-0.5
 62
   256
  6
BYLAYER
  0
ACDBPLACEHOLDER
  5
1C4CE
102
{ACAD_REACTORS
330
1C4CD
102
}
330
1C4CD
  0
XRECORD
  5
1ECCA
102
{ACAD_REACTORS
330
1ECC8
102
}
330
1ECC8
100
AcDbXrecord
280
     1
340
1C4D0
  0
XRECORD
  5
1ECC9
102
{ACAD_REACTORS
330
1ECC8
102
}
330
1ECC8
100
AcDbXrecord
280
     1
340
1C4CF
  0
DICTIONARYVAR
  5
1ECC5
102
{ACAD_REACTORS
330
1152B
102
}
330
1152B
100
DictionaryVariables
280
     0
  1
1
  0
DICTIONARYVAR
  5
1ECC6
102
{ACAD_REACTORS
330
1152B
102
}
330
1152B
100
DictionaryVariables
280
     0
  1

  0
DICTIONARYVAR
  5
1152C
102
{ACAD_REACTORS
330
1152B
102
}
330
1152B
100
DictionaryVariables
280
     0
  1
96
  0
DICTIONARY
  5
1ECCB
330
1C4D3
100
AcDbDictionary
280
     1
281
     1
  3
ACAD_XREC_ROUNDTRIP
360
1ECCC
  0
DICTIONARY
  5
1ECCD
330
1C4D4
100
AcDbDictionary
280
     1
281
     1
  3
ACAD_XREC_ROUNDTRIP
360
1ECCE
  0
XRECORD
  5
1ECCC
102
{ACAD_REACTORS
330
1ECCB
102
}
330
1ECCB
100
AcDbXrecord
280
     1
102
SHADEPLOT
 70
     0
102
SHADEPLOTRESLEVEL
 70
     2
102
SHADEPLOTCUSTOMDPI
 70
   150
  0
XRECORD
  5
1ECCE
102
{ACAD_REACTORS
330
1ECCD
102
}
330
1ECCD
100
AcDbXrecord
280
     1
102
SHADEPLOT
 70
     0
102
SHADEPLOTRESLEVEL
 70
     2
102
SHADEPLOTCUSTOMDPI
 70
   300
  0
ENDSEC
  0
EOF
