  0
SECTION
  2
HEADER
  9
$ACADVER
  1
AC1015
  9
$ACADMAINTVER
 70
    20
  9
$DWGCODEPAGE
  3
ANSI_932
  9
$INSBASE
 10
0.0
 20
0.0
 30
0.0
  9
$EXTMIN
 10
173.9960207766853
 20
-0.2182869019998179
 30
-0.0000000000000053
  9
$EXTMAX
 10
20385.40654231959
 20
14262.40880340496
 30
0.0000000000000099
  9
$LIMMIN
 10
0.0
 20
0.0
  9
$LIMMAX
 10
21000.0
 20
14850.0
  9
$ORTHOMODE
 70
     0
  9
$REGENMODE
 70
     1
  9
$FILLMODE
 70
     1
  9
$QTEXTMODE
 70
     0
  9
$MIRRTEXT
 70
     1
  9
$LTSCALE
 40
20.0
  9
$ATTMODE
 70
     1
  9
$TEXTSIZE
 40
100.0
  9
$TRACEWID
 40
1.0
  9
$TEXTSTYLE
  7
STYLE2
  9
$CLAYER
  8
寸法
  9
$CELTYPE
  6
BYLAYER
  9
$CECOLOR
 62
   256
  9
$CELTSCALE
 40
50.0
  9
$DISPSILH
 70
     0
  9
$DIMSCALE
 40
1.0
  9
$DIMASZ
 40
125.0
  9
$DIMEXO
 40
25.0
  9
$DIMDLI
 40
7.0
  9
$DIMRND
 40
0.0
  9
$DIMDLE
 40
0.0
  9
$DIMEXE
 40
75.0
  9
$DIMTP
 40
0.0
  9
$DIMTM
 40
0.0
  9
$DIMTXT
 40
150.0
  9
$DIMCEN
 40
0.0
  9
$DIMTSZ
 40
0.0
  9
$DIMTOL
 70
     0
  9
$DIMLIM
 70
     0
  9
$DIMTIH
 70
     0
  9
$DIMTOH
 70
     0
  9
$DIMSE1
 70
     0
  9
$DIMSE2
 70
     0
  9
$DIMTAD
 70
     3
  9
$DIMZIN
 70
     8
  9
$DIMBLK
  1

  9
$DIMASO
 70
     1
  9
$DIMSHO
 70
     1
  9
$DIMPOST
  1

  9
$DIMAPOST
  1

  9
$DIMALT
 70
     0
  9
$DIMALTD
 70
     2
  9
$DIMALTF
 40
0.0394
  9
$DIMLFAC
 40
1.0
  9
$DIMTOFL
 70
     1
  9
$DIMTVP
 40
0.0
  9
$DIMTIX
 70
     1
  9
$DIMSOXD
 70
     1
  9
$DIMSAH
 70
     1
  9
$DIMBLK1
  1
DOTSMALL
  9
$DIMBLK2
  1
DOTSMALL
  9
$DIMSTYLE
  2
INABA_S50G
  9
$DIMCLRD
 70
     0
  9
$DIMCLRE
 70
     0
  9
$DIMCLRT
 70
     7
  9
$DIMTFAC
 40
1.0
  9
$DIMGAP
 40
25.0
  9
$DIMJUST
 70
     0
  9
$DIMSD1
 70
     0
  9
$DIMSD2
 70
     0
  9
$DIMTOLJ
 70
     1
  9
$DIMTZIN
 70
     0
  9
$DIMALTZ
 70
     0
  9
$DIMALTTZ
 70
     0
  9
$DIMUPT
 70
     0
  9
$DIMDEC
 70
     1
  9
$DIMTDEC
 70
     4
  9
$DIMALTU
 70
     2
  9
$DIMALTTD
 70
     2
  9
$DIMTXSTY
  7
STYLE1
  9
$DIMAUNIT
 70
     0
  9
$DIMADEC
 70
     0
  9
$DIMALTRND
 40
0.0
  9
$DIMAZIN
 70
     0
  9
$DIMDSEP
 70
    46
  9
$DIMATFIT
 70
     3
  9
$DIMFRAC
 70
     0
  9
$DIMLDRBLK
  1

  9
$DIMLUNIT
 70
     2
  9
$DIMLWD
 70
    -2
  9
$DIMLWE
 70
    -2
  9
$DIMTMOVE
 70
     0
  9
$LUNITS
 70
     2
  9
$LUPREC
 70
     1
  9
$SKETCHINC
 40
1.0
  9
$FILLETRAD
 40
16.0
  9
$AUNITS
 70
     0
  9
$AUPREC
 70
     0
  9
$MENU
  1
acad
  9
$ELEVATION
 40
0.0
  9
$PELEVATION
 40
0.0
  9
$THICKNESS
 40
0.0
  9
$LIMCHECK
 70
     0
  9
$CHAMFERA
 40
0.0
  9
$CHAMFERB
 40
0.0
  9
$CHAMFERC
 40
30.0
  9
$CHAMFERD
 40
0.7853981633974483
  9
$SKPOLY
 70
     0
  9
$TDCREATE
 40
2450927.380327778
  9
$TDUCREATE
 40
2450927.005327778
  9
$TDUPDATE
 40
2456315.415844132
  9
$TDUUPDATE
 40
2456315.040844132
  9
$TDINDWG
 40
2.0894508218
  9
$TDUSRTIMER
 40
2.0894508218
  9
$USRTIMER
 70
     1
  9
$ANGBASE
 50
0.0
  9
$ANGDIR
 70
     0
  9
$PDMODE
 70
     3
  9
$PDSIZE
 40
2.0
  9
$PLINEWID
 40
0.0
  9
$SPLFRAME
 70
     0
  9
$SPLINETYPE
 70
     6
  9
$SPLINESEGS
 70
     8
  9
$HANDSEED
  5
1A7E3
  9
$SURFTAB1
 70
     6
  9
$SURFTAB2
 70
     6
  9
$SURFTYPE
 70
     6
  9
$SURFU
 70
     6
  9
$SURFV
 70
     6
  9
$UCSBASE
  2

  9
$UCSNAME
  2

  9
$UCSORG
 10
0.0
 20
0.0
 30
0.0
  9
$UCSXDIR
 10
1.0
 20
0.0
 30
0.0
  9
$UCSYDIR
 10
0.0
 20
1.0
 30
0.0
  9
$UCSORTHOREF
  2

  9
$UCSORTHOVIEW
 70
     0
  9
$UCSORGTOP
 10
0.0
 20
0.0
 30
0.0
  9
$UCSORGBOTTOM
 10
0.0
 20
0.0
 30
0.0
  9
$UCSORGLEFT
 10
0.0
 20
0.0
 30
0.0
  9
$UCSORGRIGHT
 10
0.0
 20
0.0
 30
0.0
  9
$UCSORGFRONT
 10
0.0
 20
0.0
 30
0.0
  9
$UCSORGBACK
 10
0.0
 20
0.0
 30
0.0
  9
$PUCSBASE
  2

  9
$PUCSNAME
  2

  9
$PUCSORG
 10
0.0
 20
0.0
 30
0.0
  9
$PUCSXDIR
 10
1.0
 20
0.0
 30
0.0
  9
$PUCSYDIR
 10
0.0
 20
1.0
 30
0.0
  9
$PUCSORTHOREF
  2

  9
$PUCSORTHOVIEW
 70
     0
  9
$PUCSORGTOP
 10
0.0
 20
0.0
 30
0.0
  9
$PUCSORGBOTTOM
 10
0.0
 20
0.0
 30
0.0
  9
$PUCSORGLEFT
 10
0.0
 20
0.0
 30
0.0
  9
$PUCSORGRIGHT
 10
0.0
 20
0.0
 30
0.0
  9
$PUCSORGFRONT
 10
0.0
 20
0.0
 30
0.0
  9
$PUCSORGBACK
 10
0.0
 20
0.0
 30
0.0
  9
$USERI1
 70
     0
  9
$USERI2
 70
     0
  9
$USERI3
 70
     0
  9
$USERI4
 70
     0
  9
$USERI5
 70
     0
  9
$USERR1
 40
0.0
  9
$USERR2
 40
0.0
  9
$USERR3
 40
0.0
  9
$USERR4
 40
0.0
  9
$USERR5
 40
0.0
  9
$WORLDVIEW
 70
     1
  9
$SHADEDGE
 70
     3
  9
$SHADEDIF
 70
    70
  9
$TILEMODE
 70
     1
  9
$MAXACTVP
 70
    16
  9
$PINSBASE
 10
0.0
 20
0.0
 30
0.0
  9
$PLIMCHECK
 70
     0
  9
$PEXTMIN
 10
1.000000000000000E+20
 20
1.000000000000000E+20
 30
1.000000000000000E+20
  9
$PEXTMAX
 10
-1.000000000000000E+20
 20
-1.000000000000000E+20
 30
-1.000000000000000E+20
  9
$PLIMMIN
 10
0.0
 20
0.0
  9
$PLIMMAX
 10
420.0
 20
297.0
  9
$UNITMODE
 70
     0
  9
$VISRETAIN
 70
     0
  9
$PLINEGEN
 70
     0
  9
$PSLTSCALE
 70
     0
  9
$TREEDEPTH
 70
  3020
  9
$CMLSTYLE
  2
STANDARD
  9
$CMLJUST
 70
     0
  9
$CMLSCALE
 40
1.0
  9
$PROXYGRAPHICS
 70
     1
  9
$MEASUREMENT
 70
     1
  9
$CELWEIGHT
370
    -1
  9
$ENDCAPS
280
     0
  9
$JOINSTYLE
280
     0
  9
$LWDISPLAY
290
     0
  9
$INSUNITS
 70
     0
  9
$HYPERLINKBASE
  1

  9
$STYLESHEET
  1

  9
$XEDIT
290
     1
  9
$CEPSNTYPE
380
     0
  9
$PSTYLEMODE
290
     1
  9
$FINGERPRINTGUID
  2
{801EEB3C-4BA9-4B94-A94B-084C0B239E9E}
  9
$VERSIONGUID
  2
{7E627ED0-8EFC-47B4-9F3C-0C3AF376571C}
  9
$EXTNAMES
290
     1
  9
$PSVPSCALE
 40
0.0
  9
$OLESTARTUP
290
     0
  0
ENDSEC
  0
SECTION
  2
CLASSES
  0
CLASS
  1
DICTIONARYVAR
  2
AcDbDictionaryVar
  3
ObjectDBX Classes
 90
        0
280
     0
281
     0
  0
CLASS
  1
ACDBDICTIONARYWDFLT
  2
AcDbDictionaryWithDefault
  3
ObjectDBX Classes
 90
        0
280
     0
281
     0
  0
CLASS
  1
ACDBPLACEHOLDER
  2
AcDbPlaceHolder
  3
ObjectDBX Classes
 90
        0
280
     0
281
     0
  0
CLASS
  1
LAYOUT
  2
AcDbLayout
  3
ObjectDBX Classes
 90
        0
280
     0
281
     0
  0
ENDSEC
  0
SECTION
  2
TABLES
  0
TABLE
  2
VPORT
  5
746D
330
0
100
AcDbSymbolTable
 70
     3
  0
VPORT
  5
1A7DB
330
746D
100
AcDbSymbolTableRecord
100
AcDbViewportTableRecord
  2
*Active
 70
     0
 10
0.0
 20
0.0
 11
1.0
 21
1.0
 12
10500.0
 22
7424.890856549
 13
0.0
 23
0.0
 14
10.0
 24
10.0
 15
10.0
 25
10.0
 16
0.0
 26
0.0
 36
1.0
 17
0.0
 27
0.0
 37
0.0
 40
14963.57873184018
 41
1.602547770700637
 42
50.0
 43
0.0
 44
0.0
 50
0.0
 51
0.0
 71
     0
 72
     0
 73
     1
 74
     0
 75
     0
 76
     0
 77
     0
 78
     0
281
     0
 65
     1
110
0.0
120
0.0
130
0.0
111
1.0
121
0.0
131
0.0
112
0.0
122
1.0
132
0.0
 79
     0
146
0.0
  0
ENDTAB
  0
TABLE
  2
LTYPE
  5
746A
330
0
100
AcDbSymbolTable
 70
     4
  0
LTYPE
  5
7477
330
746A
100
AcDbSymbolTableRecord
100
AcDbLinetypeTableRecord
  2
BYBLOCK
 70
     0
  3

 72
    65
 73
     0
 40
0.0
  0
LTYPE
  5
7478
330
746A
100
AcDbSymbolTableRecord
100
AcDbLinetypeTableRecord
  2
BYLAYER
 70
     0
  3

 72
    65
 73
     0
 40
0.0
  0
LTYPE
  5
7479
330
746A
100
AcDbSymbolTableRecord
100
AcDbLinetypeTableRecord
  2
CONTINUOUS
 70
     0
  3
Solid line
 72
    65
 73
     0
 40
0.0
  0
LTYPE
  5
7816
330
746A
100
AcDbSymbolTableRecord
100
AcDbLinetypeTableRecord
  2
CENTER
 70
     0
  3
____ _ ____ _ ____ _ ____ _ ____ _ ____ _ ____ 
 72
    65
 73
     4
 40
2.0
 49
1.25
 74
     0
 49
-0.25
 74
     0
 49
0.25
 74
     0
 49
-0.25
 74
     0
  0
LTYPE
  5
781B
330
746A
100
AcDbSymbolTableRecord
100
AcDbLinetypeTableRecord
  2
PHANTOM
 70
     0
  3
______  __  __  ______  __  __  ______  __  __ 
 72
    65
 73
     6
 40
2.5
 49
1.25
 74
     0
 49
-0.25
 74
     0
 49
0.25
 74
     0
 49
-0.25
 74
     0
 49
0.25
 74
     0
 49
-0.25
 74
     0
  0
LTYPE
  5
13F72
330
746A
100
AcDbSymbolTableRecord
100
AcDbLinetypeTableRecord
  2
HIDDEN
 70
     0
  3
__ __ __ __ __ __ __ __ __ __ __ __ __ __ __ __
 72
    65
 73
     2
 40
0.375
 49
0.25
 74
     0
 49
-0.125
 74
     0
  0
ENDTAB
  0
TABLE
  2
LAYER
  5
7467
330
0
100
AcDbSymbolTable
 70
    12
  0
LAYER
  5
7474
330
7467
100
AcDbSymbolTableRecord
100
AcDbLayerTableRecord
  2
0
 70
     0
 62
     7
  6
CONTINUOUS
370
    -3
390
197BC
  0
LAYER
  5
DEB2
330
7467
100
AcDbSymbolTableRecord
100
AcDbLayerTableRecord
  2
センター
 70
     0
 62
     3
  6
CENTER
370
    -3
390
197BC
  0
LAYER
  5
DEB3
330
7467
100
AcDbSymbolTableRecord
100
AcDbLayerTableRecord
  2
寸法
 70
     0
 62
     4
  6
CONTINUOUS
370
    -3
390
197BC
  0
LAYER
  5
DEB4
330
7467
100
AcDbSymbolTableRecord
100
AcDbLayerTableRecord
  2
部品1
 70
     0
 62
     7
  6
CONTINUOUS
370
    -3
390
197BC
  0
LAYER
  5
DEB5
330
7467
100
AcDbSymbolTableRecord
100
AcDbLayerTableRecord
  2
補助
 70
     0
 62
    -1
  6
CONTINUOUS
370
    -3
390
197BC
  0
LAYER
  5
DEB6
330
7467
100
AcDbSymbolTableRecord
100
AcDbLayerTableRecord
  2
文字
 70
     0
 62
     7
  6
CONTINUOUS
370
    -3
390
197BC
  0
LAYER
  5
F255
330
7467
100
AcDbSymbolTableRecord
100
AcDbLayerTableRecord
  2
DEFPOINTS
 70
     0
 62
     7
  6
CONTINUOUS
290
     0
370
    -3
390
197BC
  0
LAYER
  5
10B54
330
7467
100
AcDbSymbolTableRecord
100
AcDbLayerTableRecord
  2
仕様書枠
 70
     0
 62
   230
  6
CONTINUOUS
370
    -3
390
197BC
  0
LAYER
  5
13F73
330
7467
100
AcDbSymbolTableRecord
100
AcDbLayerTableRecord
  2
細線
 70
     0
 62
     5
  6
CONTINUOUS
370
    -3
390
197BC
  0
LAYER
  5
13F74
330
7467
100
AcDbSymbolTableRecord
100
AcDbLayerTableRecord
  2
点線
 70
     0
 62
     2
  6
HIDDEN
370
    -3
390
197BC
  0
LAYER
  5
1643F
330
7467
100
AcDbSymbolTableRecord
100
AcDbLayerTableRecord
  2
想像線
 70
     0
 62
     6
  6
PHANTOM
370
    -3
390
197BC
  0
LAYER
  5
17A5A
330
7467
100
AcDbSymbolTableRecord
100
AcDbLayerTableRecord
  2
Ｇ．Ｌ
 70
     0
 62
    30
  6
CONTINUOUS
370
    -3
390
197BC
  0
ENDTAB
  0
TABLE
  2
STYLE
  5
7468
330
0
100
AcDbSymbolTable
 70
     3
  0
STYLE
  5
7475
330
7468
100
AcDbSymbolTableRecord
100
AcDbTextStyleTableRecord
  2
STANDARD
 70
     0
 40
0.0
 41
1.0
 50
0.0
 71
     0
 42
4.0
  3
txt
  4
C:\AutoCAD LT\bigfont.shx
  0
STYLE
  5
F706
330
7468
100
AcDbSymbolTableRecord
100
AcDbTextStyleTableRecord
  2
STYLE1
 70
     0
 40
0.0
 41
1.0
 50
0.0
 71
     0
 42
150.0
  3
isocp.shx
  4
bigfont.shx
  0
STYLE
  5
103BF
330
7468
100
AcDbSymbolTableRecord
100
AcDbTextStyleTableRecord
  2
STYLE2
 70
     0
 40
0.0
 41
1.0
 50
0.0
 71
     0
 42
100.0
  3
MS PGothic.ttf
  4

1001
ACAD
1000
MS PGothic
1071
    32818
  0
ENDTAB
  0
TABLE
  2
VIEW
  5
746B
330
0
100
AcDbSymbolTable
 70
     0
  0
ENDTAB
  0
TABLE
  2
UCS
  5
746C
330
0
100
AcDbSymbolTable
 70
     0
  0
ENDTAB
  0
TABLE
  2
APPID
  5
746E
330
0
100
AcDbSymbolTable
 70
     6
  0
APPID
  5
7476
330
746E
100
AcDbSymbolTableRecord
100
AcDbRegAppTableRecord
  2
ACAD
 70
     0
  0
APPID
  5
DEA9
330
746E
100
AcDbSymbolTableRecord
100
AcDbRegAppTableRecord
  2
CONTENTBLOCKICON
 70
     0
  0
APPID
  5
DEAA
330
746E
100
AcDbSymbolTableRecord
100
AcDbRegAppTableRecord
  2
CONTENTBLOCKDESCRIPTION
 70
     0
  0
APPID
  5
E71D
330
746E
100
AcDbSymbolTableRecord
100
AcDbRegAppTableRecord
  2
CONTENTTABDATA
 70
     0
  0
APPID
  5
E71E
330
746E
100
AcDbSymbolTableRecord
100
AcDbRegAppTableRecord
  2
CONTENTCURRENTTAB
 70
     0
  0
APPID
  5
F3BA
330
746E
100
AcDbSymbolTableRecord
100
AcDbRegAppTableRecord
  2
DRAWINGVARIABLESXDATA
 70
     0
  0
ENDTAB
  0
TABLE
  2
DIMSTYLE
  5
746F
330
0
100
AcDbSymbolTable
 70
     2
100
AcDbDimStyleTable
 71
     0
  0
DIMSTYLE
105
7484
330
746F
100
AcDbSymbolTableRecord
100
AcDbDimStyleTableRecord
  2
JIS
 70
     0
 41
2.5
 42
1.0
 43
7.0
 44
1.0
 73
     0
 74
     0
 77
     1
 78
     8
140
2.5
141
0.0
143
0.0394
147
0.0
172
     1
174
     1
175
     1
340
7475
  0
DIMSTYLE
105
F71F
102
{ACAD_REACTORS
330
18448
330
18444
330
18465
330
1846F
330
1A002
330
1A005
330
1A006
330
1A008
330
1A00C
330
1A00E
330
1A01A
330
1A01B
330
1A02A
330
1A02C
330
1A030
330
1A038
102
}
330
746F
100
AcDbSymbolTableRecord
100
AcDbDimStyleTableRecord
  2
INABA_S50G
 70
     0
 41
125.0
 42
25.0
 43
7.0
 44
75.0
 73
     0
 74
     0
 77
     3
 78
     8
140
150.0
141
0.0
143
0.0394
147
25.0
172
     1
173
     1
174
     1
175
     1
178
     7
271
     1
340
F706
341
F770
343
F770
344
F770
  0
ENDTAB
  0
TABLE
  2
BLOCK_RECORD
  5
7466
330
0
100
AcDbSymbolTable
 70
    17
  0
BLOCK_RECORD
  5
747D
330
7466
100
AcDbSymbolTableRecord
100
AcDbBlockTableRecord
  2
*MODEL_SPACE
340
197C1
  0
BLOCK_RECORD
  5
747A
330
7466
100
AcDbSymbolTableRecord
100
AcDbBlockTableRecord
  2
*PAPER_SPACE
340
197C2
  0
BLOCK_RECORD
  5
F770
330
7466
100
AcDbSymbolTableRecord
100
AcDbBlockTableRecord
  2
_DOTSMALL
340
0
102
{BLKREFS
331
1A736
331
1A737
331
1A740
331
1A741
331
1A749
331
1A74A
331
1A752
331
1A753
331
1A75C
331
1A75D
331
1A765
331
1A766
331
1A76D
331
1A76E
331
1A777
331
1A778
331
1A780
331
1A781
331
1A789
331
1A78A
331
1A792
331
1A793
331
1A79B
331
1A79C
331
1A7A5
331
1A7A6
331
1A7AF
331
1A7B0
331
1A7B7
331
1A7B8
331
1A7C1
331
1A7C2
102
}
  0
BLOCK_RECORD
  5
18493
330
7466
100
AcDbSymbolTableRecord
100
AcDbBlockTableRecord
  2
*D1
340
0
  0
BLOCK_RECORD
  5
1849F
330
7466
100
AcDbSymbolTableRecord
100
AcDbBlockTableRecord
  2
*D2
340
0
  0
BLOCK_RECORD
  5
184AC
330
7466
100
AcDbSymbolTableRecord
100
AcDbBlockTableRecord
  2
*D3
340
0
  0
BLOCK_RECORD
  5
184B8
330
7466
100
AcDbSymbolTableRecord
100
AcDbBlockTableRecord
  2
*D4
340
0
  0
BLOCK_RECORD
  5
1A04F
330
7466
100
AcDbSymbolTableRecord
100
AcDbBlockTableRecord
  2
*D5
340
0
  0
BLOCK_RECORD
  5
1A05A
330
7466
100
AcDbSymbolTableRecord
100
AcDbBlockTableRecord
  2
*D6
340
0
  0
BLOCK_RECORD
  5
1A065
330
7466
100
AcDbSymbolTableRecord
100
AcDbBlockTableRecord
  2
*D7
340
0
  0
BLOCK_RECORD
  5
1A071
330
7466
100
AcDbSymbolTableRecord
100
AcDbBlockTableRecord
  2
*D8
340
0
  0
BLOCK_RECORD
  5
1A07D
330
7466
100
AcDbSymbolTableRecord
100
AcDbBlockTableRecord
  2
*D9
340
0
  0
BLOCK_RECORD
  5
1A096
330
7466
100
AcDbSymbolTableRecord
100
AcDbBlockTableRecord
  2
*D10
340
0
  0
BLOCK_RECORD
  5
1A0A3
330
7466
100
AcDbSymbolTableRecord
100
AcDbBlockTableRecord
  2
*D11
340
0
  0
BLOCK_RECORD
  5
1A0B0
330
7466
100
AcDbSymbolTableRecord
100
AcDbBlockTableRecord
  2
*D12
340
0
  0
BLOCK_RECORD
  5
1A0BD
330
7466
100
AcDbSymbolTableRecord
100
AcDbBlockTableRecord
  2
*D13
340
0
  0
BLOCK_RECORD
  5
1A0C9
330
7466
100
AcDbSymbolTableRecord
100
AcDbBlockTableRecord
  2
*D14
340
0
  0
BLOCK_RECORD
  5
1A0D5
330
7466
100
AcDbSymbolTableRecord
100
AcDbBlockTableRecord
  2
*D15
340
0
  0
BLOCK_RECORD
  5
1A0E1
330
7466
100
AcDbSymbolTableRecord
100
AcDbBlockTableRecord
  2
*D16
340
0
  0
ENDTAB
  0
ENDSEC
  0
SECTION
  2
BLOCKS
  0
BLOCK
  5
7489
330
747D
100
AcDbEntity
  8
0
100
AcDbBlockBegin
  2
*MODEL_SPACE
 70
     0
 10
0.0
 20
0.0
 30
0.0
  3
*MODEL_SPACE
  1

  0
ENDBLK
  5
748A
330
747D
100
AcDbEntity
  8
0
100
AcDbBlockEnd
  0
BLOCK
  5
7487
330
747A
100
AcDbEntity
 67
     1
  8
0
100
AcDbBlockBegin
  2
*PAPER_SPACE
 70
     0
 10
0.0
 20
0.0
 30
0.0
  3
*PAPER_SPACE
  1

  0
ENDBLK
  5
7488
330
747A
100
AcDbEntity
 67
     1
  8
0
100
AcDbBlockEnd
  0
BLOCK
  5
F771
330
F770
100
AcDbEntity
  8
0
 48
50.0
100
AcDbBlockBegin
  2
_DOTSMALL
 70
     0
 10
0.0
 20
0.0
 30
0.0
  3
_DOTSMALL
  1

  0
LWPOLYLINE
  5
F772
330
F770
100
AcDbEntity
  8
0
  6
ByBlock
 62
     0
 48
50.0
100
AcDbPolyline
 90
        2
 70
     1
 43
0.5
 10
-0.0625
 20
0.0
 42
1.0
 10
0.0625
 20
0.0
 42
1.0
  0
ENDBLK
  5
F776
330
F770
100
AcDbEntity
  8
0
 48
50.0
100
AcDbBlockEnd
  0
BLOCK
  5
18494
330
18493
100
AcDbEntity
  8
0
 48
50.0
100
AcDbBlockBegin
  2
*D1
 70
     1
 10
0.0
 20
0.0
 30
0.0
  3
*D1
  1

  0
LINE
  5
1A733
330
18493
100
AcDbEntity
  8
寸法
 62
     0
 48
50.0
370
    -2
100
AcDbLine
 10
11266.94243205222
 20
1749.373661269834
 30
0.0
 11
11151.98406953108
 21
1749.373661269834
 31
0.0
  0
LINE
  5
1A734
330
18493
100
AcDbEntity
  8
寸法
 62
     0
 48
50.0
370
    -2
100
AcDbLine
 10
11677.1147711078
 20
1349.373661269834
 30
0.0
 11
11151.98406953108
 21
1349.373661269834
 31
0.0
  0
LINE
  5
1A735
330
18493
100
AcDbEntity
  8
寸法
 62
     0
 48
50.0
370
    -2
100
AcDbLine
 10
11226.98406953108
 20
1749.373661269834
 30
0.0
 11
11226.98406953108
 21
1349.373661269834
 31
0.0
  0
INSERT
  5
1A736
330
18493
100
AcDbEntity
  8
寸法
 62
     0
 48
50.0
370
    -2
100
AcDbBlockReference
  2
_DOTSMALL
 10
11226.98406953108
 20
1749.373661269834
 30
0.0
 41
125.0
 42
125.0
 43
125.0
 50
90.0
  0
INSERT
  5
1A737
330
18493
100
AcDbEntity
  8
寸法
 62
     0
 48
50.0
370
    -2
100
AcDbBlockReference
  2
_DOTSMALL
 10
11226.98406953108
 20
1349.373661269834
 30
0.0
 41
125.0
 42
125.0
 43
125.0
 50
270.0
  0
MTEXT
  5
1A738
330
18493
100
AcDbEntity
  8
寸法
 62
     7
 48
50.0
100
AcDbMText
 10
11126.96930575155
 20
1549.373661269835
 30
0.0
 40
150.0
 41
0.0
 71
     5
 72
     1
  1
\A1;200
  7
STYLE1
 11
0.0000000000000001
 21
1.0
 31
0.0
 73
     1
 44
1.0
1001
ACAD
1000
MTEXTBEGIN
1070
    73
1070
     1
1070
    44
1040
1.0
1070
    74
1070
     0
1000
MTEXTEND
  0
POINT
  5
1A739
330
18493
100
AcDbEntity
  8
DEFPOINTS
 62
     0
 48
50.0
100
AcDbPoint
 10
11291.94243205221
 20
1749.373661269834
 30
0.0
  0
POINT
  5
1A73A
330
18493
100
AcDbEntity
  8
DEFPOINTS
 62
     0
 48
50.0
100
AcDbPoint
 10
11702.1147711078
 20
1349.373661269834
 30
0.0
  0
POINT
  5
1A73B
330
18493
100
AcDbEntity
  8
DEFPOINTS
 62
     0
 48
50.0
100
AcDbPoint
 10
11226.98406953108
 20
1349.373661269834
 30
0.0
  0
ENDBLK
  5
1849E
330
18493
100
AcDbEntity
  8
0
 48
50.0
100
AcDbBlockEnd
  0
BLOCK
  5
184A0
330
1849F
100
AcDbEntity
  8
0
 48
50.0
100
AcDbBlockBegin
  2
*D2
 70
     1
 10
0.0
 20
0.0
 30
0.0
  3
*D2
  1

  0
LINE
  5
1A73C
330
1849F
100
AcDbEntity
  8
寸法
 62
     0
 48
50.0
370
    -2
100
AcDbLine
 10
11484.39475613862
 20
1949.373661269835
 30
0.0
 11
11152.63278895946
 21
1949.373661269835
 31
0.0
  0
LINE
  5
1A73D
330
1849F
100
AcDbEntity
  8
寸法
 62
     0
 48
50.0
370
    -2
100
AcDbLine
 10
11266.94243205222
 20
1749.373661269834
 30
0.0
 11
11152.63278895946
 21
1749.373661269834
 31
0.0
  0
LINE
  5
1A73E
330
1849F
100
AcDbEntity
  8
寸法
 62
     0
 48
50.0
370
    -2
100
AcDbLine
 10
11227.63278895946
 20
1749.373661269834
 30
0.0
 11
11227.63278895946
 21
1949.373661269835
 31
0.0
  0
LINE
  5
1A73F
330
1849F
100
AcDbEntity
  8
寸法
 62
     0
 48
50.0
370
    -2
100
AcDbLine
 10
11227.63278895946
 20
1949.373661269835
 30
0.0
 11
11227.63278895946
 21
2381.396299065109
 31
0.0
  0
INSERT
  5
1A740
330
1849F
100
AcDbEntity
  8
寸法
 62
     0
 48
50.0
370
    -2
100
AcDbBlockReference
  2
_DOTSMALL
 10
11227.63278895946
 20
1749.373661269834
 30
0.0
 41
125.0
 42
125.0
 43
125.0
 50
270.0
  0
INSERT
  5
1A741
330
1849F
100
AcDbEntity
  8
寸法
 62
     0
 48
50.0
370
    -2
100
AcDbBlockReference
  2
_DOTSMALL
 10
11227.63278895946
 20
1949.373661269835
 30
0.0
 41
125.0
 42
125.0
 43
125.0
 50
90.0
  0
MTEXT
  5
1A742
330
1849F
100
AcDbEntity
  8
寸法
 62
     7
 48
50.0
100
AcDbMText
 10
11127.63278895946
 20
2236.337243947001
 30
0.0
 40
150.0
 41
0.0
 71
     5
 72
     1
  1
\A1;100
  7
STYLE1
 11
0.0000000000000001
 21
1.0
 31
0.0
 73
     1
 44
1.0
1001
ACAD
1000
MTEXTBEGIN
1070
    73
1070
     1
1070
    44
1040
1.0
1070
    74
1070
     0
1000
MTEXTEND
  0
POINT
  5
1A743
330
1849F
100
AcDbEntity
  8
DEFPOINTS
 62
     0
 48
50.0
100
AcDbPoint
 10
11509.39475613862
 20
1949.373661269835
 30
0.0
  0
POINT
  5
1A744
330
1849F
100
AcDbEntity
  8
DEFPOINTS
 62
     0
 48
50.0
100
AcDbPoint
 10
11291.94243205221
 20
1749.373661269834
 30
0.0
  0
POINT
  5
1A745
330
1849F
100
AcDbEntity
  8
DEFPOINTS
 62
     0
 48
50.0
100
AcDbPoint
 10
11227.63278895946
 20
1749.373661269834
 30
0.0
  0
ENDBLK
  5
184AB
330
1849F
100
AcDbEntity
  8
0
 48
50.0
100
AcDbBlockEnd
  0
BLOCK
  5
184AD
330
184AC
100
AcDbEntity
  8
0
 48
50.0
100
AcDbBlockBegin
  2
*D3
 70
     1
 10
0.0
 20
0.0
 30
0.0
  3
*D3
  1

  0
LINE
  5
1A746
330
184AC
100
AcDbEntity
  8
寸法
 62
     0
 48
50.0
370
    -2
100
AcDbLine
 10
11865.1147711078
 20
2029.373661269834
 30
0.0
 11
11434.39475613861
 21
2029.373661269834
 31
0.0
  0
LINE
  5
1A747
330
184AC
100
AcDbEntity
  8
寸法
 62
     0
 48
50.0
370
    -2
100
AcDbLine
 10
11821.1147711078
 20
1459.373661269834
 30
0.0
 11
11434.39475613861
 21
1459.373661269834
 31
0.0
  0
LINE
  5
1A748
330
184AC
100
AcDbEntity
  8
寸法
 62
     0
 48
50.0
370
    -2
100
AcDbLine
 10
11509.39475613862
 20
2029.373661269834
 30
0.0
 11
11509.39475613862
 21
1459.373661269834
 31
0.0
  0
INSERT
  5
1A749
330
184AC
100
AcDbEntity
  8
寸法
 62
     0
 48
50.0
370
    -2
100
AcDbBlockReference
  2
_DOTSMALL
 10
11509.39475613862
 20
2029.373661269834
 30
0.0
 41
125.0
 42
125.0
 43
125.0
 50
90.0
  0
INSERT
  5
1A74A
330
184AC
100
AcDbEntity
  8
寸法
 62
     0
 48
50.0
370
    -2
100
AcDbBlockReference
  2
_DOTSMALL
 10
11509.39475613862
 20
1459.373661269834
 30
0.0
 41
125.0
 42
125.0
 43
125.0
 50
270.0
  0
MTEXT
  5
1A74B
330
184AC
100
AcDbEntity
  8
寸法
 62
     7
 48
50.0
100
AcDbMText
 10
11409.37999235909
 20
1744.373661269836
 30
0.0
 40
150.0
 41
0.0
 71
     5
 72
     1
  1
\A1;285
  7
STYLE1
 11
0.0000000000000001
 21
1.0
 31
0.0
 73
     1
 44
1.0
1001
ACAD
1000
MTEXTBEGIN
1070
    73
1070
     1
1070
    44
1040
1.0
1070
    74
1070
     0
1000
MTEXTEND
  0
POINT
  5
1A74C
330
184AC
100
AcDbEntity
  8
DEFPOINTS
 62
     0
 48
50.0
100
AcDbPoint
 10
11890.1147711078
 20
2029.373661269834
 30
0.0
  0
POINT
  5
1A74D
330
184AC
100
AcDbEntity
  8
DEFPOINTS
 62
     0
 48
50.0
100
AcDbPoint
 10
11846.1147711078
 20
1459.373661269834
 30
0.0
  0
POINT
  5
1A74E
330
184AC
100
AcDbEntity
  8
DEFPOINTS
 62
     0
 48
50.0
100
AcDbPoint
 10
11509.39475613862
 20
1459.373661269834
 30
0.0
  0
ENDBLK
  5
184B7
330
184AC
100
AcDbEntity
  8
0
 48
50.0
100
AcDbBlockEnd
  0
BLOCK
  5
184B9
330
184B8
100
AcDbEntity
  8
0
 48
50.0
100
AcDbBlockBegin
  2
*D4
 70
     1
 10
0.0
 20
0.0
 30
0.0
  3
*D4
  1

  0
LINE
  5
1A74F
330
184B8
100
AcDbEntity
  8
寸法
 62
     0
 48
50.0
370
    -2
100
AcDbLine
 10
12102.1147711078
 20
1324.373661269834
 30
0.0
 11
12102.1147711078
 21
947.8906957845302
 31
0.0
  0
LINE
  5
1A750
330
184B8
100
AcDbEntity
  8
寸法
 62
     0
 48
50.0
370
    -2
100
AcDbLine
 10
11702.1147711078
 20
1324.373661269834
 30
0.0
 11
11702.1147711078
 21
947.8906957845302
 31
0.0
  0
LINE
  5
1A751
330
184B8
100
AcDbEntity
  8
寸法
 62
     0
 48
50.0
370
    -2
100
AcDbLine
 10
12102.1147711078
 20
1022.89069578453
 30
0.0
 11
11702.1147711078
 21
1022.89069578453
 31
0.0
  0
INSERT
  5
1A752
330
184B8
100
AcDbEntity
  8
寸法
 62
     0
 48
50.0
370
    -2
100
AcDbBlockReference
  2
_DOTSMALL
 10
12102.1147711078
 20
1022.89069578453
 30
0.0
 41
125.0
 42
125.0
 43
125.0
  0
INSERT
  5
1A753
330
184B8
100
AcDbEntity
  8
寸法
 62
     0
 48
50.0
370
    -2
100
AcDbBlockReference
  2
_DOTSMALL
 10
11702.1147711078
 20
1022.89069578453
 30
0.0
 41
125.0
 42
125.0
 43
125.0
 50
180.0
  0
MTEXT
  5
1A754
330
184B8
100
AcDbEntity
  8
寸法
 62
     7
 48
50.0
100
AcDbMText
 10
11902.1147711078
 20
1122.905459564058
 30
0.0
 40
150.0
 41
0.0
 71
     5
 72
     1
  1
\A1;200
  7
STYLE1
 73
     1
 44
1.0
1001
ACAD
1000
MTEXTBEGIN
1070
    73
1070
     1
1070
    44
1040
1.0
1070
    74
1070
     0
1000
MTEXTEND
  0
POINT
  5
1A755
330
184B8
100
AcDbEntity
  8
DEFPOINTS
 62
     0
 48
50.0
100
AcDbPoint
 10
12102.1147711078
 20
1349.373661269834
 30
0.0
  0
POINT
  5
1A756
330
184B8
100
AcDbEntity
  8
DEFPOINTS
 62
     0
 48
50.0
100
AcDbPoint
 10
11702.1147711078
 20
1349.373661269834
 30
0.0
  0
POINT
  5
1A757
330
184B8
100
AcDbEntity
  8
DEFPOINTS
 62
     0
 48
50.0
100
AcDbPoint
 10
11702.1147711078
 20
1022.89069578453
 30
0.0
  0
ENDBLK
  5
184C3
330
184B8
100
AcDbEntity
  8
0
 48
50.0
100
AcDbBlockEnd
  0
BLOCK
  5
1A058
330
1A04F
100
AcDbEntity
  8
0
 48
50.0
100
AcDbBlockBegin
  2
*D5
 70
     1
 10
0.0
 20
0.0
 30
0.0
  3
*D5
  1

  0
LINE
  5
1A7B5
330
1A04F
100
AcDbEntity
  8
寸法
 62
     0
 48
50.0
370
    -2
100
AcDbLine
 10
11220.5
 20
6745.974495452941
 30
0.0
 11
11220.5
 21
6305.974495452941
 31
0.0
  0
LINE
  5
1A7B6
330
1A04F
100
AcDbEntity
  8
寸法
 62
     0
 48
50.0
370
    -2
100
AcDbLine
 10
10279.5
 20
6380.974495452941
 30
0.0
 11
11220.5
 21
6380.974495452941
 31
0.0
  0
INSERT
  5
1A7B7
330
1A04F
100
AcDbEntity
  8
寸法
 62
     0
 48
50.0
370
    -2
100
AcDbBlockReference
  2
_DOTSMALL
 10
10279.5
 20
6380.974495452941
 30
0.0
 41
125.0
 42
125.0
 43
125.0
 50
180.0
  0
INSERT
  5
1A7B8
330
1A04F
100
AcDbEntity
  8
寸法
 62
     0
 48
50.0
370
    -2
100
AcDbBlockReference
  2
_DOTSMALL
 10
11220.5
 20
6380.974495452941
 30
0.0
 41
125.0
 42
125.0
 43
125.0
  0
MTEXT
  5
1A7B9
330
1A04F
100
AcDbEntity
  8
寸法
 62
     7
 48
50.0
100
AcDbMText
 10
10750.0
 20
6480.974495452942
 30
0.0
 40
150.0
 41
0.0
 71
     5
 72
     1
  1
\A1;941
  7
STYLE1
 73
     1
 44
1.0
1001
ACAD
1000
MTEXTBEGIN
1070
    73
1070
     1
1070
    44
1040
1.0
1070
    74
1070
     0
1000
MTEXTEND
  0
POINT
  5
1A7BA
330
1A04F
100
AcDbEntity
  8
DEFPOINTS
 62
     0
 48
50.0
100
AcDbPoint
 10
10279.5
 20
7421.974495452942
 30
0.0
  0
POINT
  5
1A7BB
330
1A04F
100
AcDbEntity
  8
DEFPOINTS
 62
     0
 48
50.0
100
AcDbPoint
 10
11220.5
 20
6770.974495452941
 30
0.0
  0
POINT
  5
1A7BC
330
1A04F
100
AcDbEntity
  8
DEFPOINTS
 62
     0
 48
50.0
100
AcDbPoint
 10
11220.5
 20
6380.974495452941
 30
0.0
  0
ENDBLK
  5
1A059
330
1A04F
100
AcDbEntity
  8
0
 48
50.0
100
AcDbBlockEnd
  0
BLOCK
  5
1A063
330
1A05A
100
AcDbEntity
  8
0
 48
50.0
100
AcDbBlockBegin
  2
*D6
 70
     1
 10
0.0
 20
0.0
 30
0.0
  3
*D6
  1

  0
LINE
  5
1A76B
330
1A05A
100
AcDbEntity
  8
寸法
 62
     0
 48
50.0
370
    -2
100
AcDbLine
 10
9168.499999999999
 20
6915.974495452942
 30
0.0
 11
8508.500000000001
 21
6915.974495452942
 31
0.0
  0
LINE
  5
1A76C
330
1A05A
100
AcDbEntity
  8
寸法
 62
     0
 48
50.0
370
    -2
100
AcDbLine
 10
8583.5
 20
7566.974495452942
 30
0.0
 11
8583.5
 21
6915.974495452942
 31
0.0
  0
INSERT
  5
1A76D
330
1A05A
100
AcDbEntity
  8
寸法
 62
     0
 48
50.0
370
    -2
100
AcDbBlockReference
  2
_DOTSMALL
 10
8583.5
 20
7566.974495452942
 30
0.0
 41
125.0
 42
125.0
 43
125.0
 50
90.0
  0
INSERT
  5
1A76E
330
1A05A
100
AcDbEntity
  8
寸法
 62
     0
 48
50.0
370
    -2
100
AcDbBlockReference
  2
_DOTSMALL
 10
8583.5
 20
6915.974495452942
 30
0.0
 41
125.0
 42
125.0
 43
125.0
 50
270.0
  0
MTEXT
  5
1A76F
330
1A05A
100
AcDbEntity
  8
寸法
 62
     7
 48
50.0
100
AcDbMText
 10
8483.499999999997
 20
7241.474495452942
 30
0.0
 40
150.0
 41
0.0
 71
     5
 72
     1
  1
\A1;651
  7
STYLE1
 11
0.0000000000000001
 21
1.0
 31
0.0
 73
     1
 44
1.0
1001
ACAD
1000
MTEXTBEGIN
1070
    73
1070
     1
1070
    44
1040
1.0
1070
    74
1070
     0
1000
MTEXTEND
  0
POINT
  5
1A770
330
1A05A
100
AcDbEntity
  8
DEFPOINTS
 62
     0
 48
50.0
100
AcDbPoint
 10
10134.5
 20
7566.974495452942
 30
0.0
  0
POINT
  5
1A771
330
1A05A
100
AcDbEntity
  8
DEFPOINTS
 62
     0
 48
50.0
100
AcDbPoint
 10
9193.5
 20
6915.974495452942
 30
0.0
  0
POINT
  5
1A772
330
1A05A
100
AcDbEntity
  8
DEFPOINTS
 62
     0
 48
50.0
100
AcDbPoint
 10
8583.5
 20
6915.974495452942
 30
0.0
  0
ENDBLK
  5
1A064
330
1A05A
100
AcDbEntity
  8
0
 48
50.0
100
AcDbBlockEnd
  0
BLOCK
  5
1A06F
330
1A065
100
AcDbEntity
  8
0
 48
50.0
100
AcDbBlockBegin
  2
*D7
 70
     1
 10
0.0
 20
0.0
 30
0.0
  3
*D7
  1

  0
LINE
  5
1A798
330
1A065
100
AcDbEntity
  8
寸法
 62
     0
 48
50.0
370
    -2
100
AcDbLine
 10
11390.5
 20
6915.974495452942
 30
0.0
 11
12150.5
 21
6915.974495452942
 31
0.0
  0
LINE
  5
1A799
330
1A065
100
AcDbEntity
  8
寸法
 62
     0
 48
50.0
370
    -2
100
AcDbLine
 10
11390.5
 20
8217.97449545294
 30
0.0
 11
12150.5
 21
8217.97449545294
 31
0.0
  0
LINE
  5
1A79A
330
1A065
100
AcDbEntity
  8
寸法
 62
     0
 48
50.0
370
    -2
100
AcDbLine
 10
12075.5
 20
6915.974495452942
 30
0.0
 11
12075.5
 21
8217.97449545294
 31
0.0
  0
INSERT
  5
1A79B
330
1A065
100
AcDbEntity
  8
寸法
 62
     0
 48
50.0
370
    -2
100
AcDbBlockReference
  2
_DOTSMALL
 10
12075.5
 20
6915.974495452942
 30
0.0
 41
125.0
 42
125.0
 43
125.0
 50
270.0
  0
INSERT
  5
1A79C
330
1A065
100
AcDbEntity
  8
寸法
 62
     0
 48
50.0
370
    -2
100
AcDbBlockReference
  2
_DOTSMALL
 10
12075.5
 20
8217.97449545294
 30
0.0
 41
125.0
 42
125.0
 43
125.0
 50
90.0
  0
MTEXT
  5
1A79D
330
1A065
100
AcDbEntity
  8
寸法
 62
     7
 48
50.0
100
AcDbMText
 10
11975.48523622047
 20
7566.974495452942
 30
0.0
 40
150.0
 41
0.0
 71
     5
 72
     1
  1
\A1;1302
  7
STYLE1
 11
0.0000000000000001
 21
1.0
 31
0.0
 73
     1
 44
1.0
1001
ACAD
1000
MTEXTBEGIN
1070
    73
1070
     1
1070
    44
1040
1.0
1070
    74
1070
     0
1000
MTEXTEND
  0
POINT
  5
1A79E
330
1A065
100
AcDbEntity
  8
DEFPOINTS
 62
     0
 48
50.0
100
AcDbPoint
 10
11365.5
 20
6915.974495452942
 30
0.0
  0
POINT
  5
1A79F
330
1A065
100
AcDbEntity
  8
DEFPOINTS
 62
     0
 48
50.0
100
AcDbPoint
 10
11365.5
 20
8217.97449545294
 30
0.0
  0
POINT
  5
1A7A0
330
1A065
100
AcDbEntity
  8
DEFPOINTS
 62
     0
 48
50.0
100
AcDbPoint
 10
12075.5
 20
8217.97449545294
 30
0.0
  0
ENDBLK
  5
1A070
330
1A065
100
AcDbEntity
  8
0
 48
50.0
100
AcDbBlockEnd
  0
BLOCK
  5
1A07B
330
1A071
100
AcDbEntity
  8
0
 48
50.0
100
AcDbBlockBegin
  2
*D8
 70
     1
 10
0.0
 20
0.0
 30
0.0
  3
*D8
  1

  0
LINE
  5
1A762
330
1A071
100
AcDbEntity
  8
寸法
 62
     0
 48
50.0
370
    -2
100
AcDbLine
 10
9338.500000000001
 20
6745.974495452941
 30
0.0
 11
9338.500000000001
 21
6305.974495452941
 31
0.0
  0
LINE
  5
1A763
330
1A071
100
AcDbEntity
  8
寸法
 62
     0
 48
50.0
370
    -2
100
AcDbLine
 10
10279.5
 20
6890.974495452943
 30
0.0
 11
10279.5
 21
6305.974495452941
 31
0.0
  0
LINE
  5
1A764
330
1A071
100
AcDbEntity
  8
寸法
 62
     0
 48
50.0
370
    -2
100
AcDbLine
 10
9338.500000000001
 20
6380.974495452941
 30
0.0
 11
10279.5
 21
6380.974495452941
 31
0.0
  0
INSERT
  5
1A765
330
1A071
100
AcDbEntity
  8
寸法
 62
     0
 48
50.0
370
    -2
100
AcDbBlockReference
  2
_DOTSMALL
 10
9338.500000000001
 20
6380.974495452941
 30
0.0
 41
125.0
 42
125.0
 43
125.0
 50
180.0
  0
INSERT
  5
1A766
330
1A071
100
AcDbEntity
  8
寸法
 62
     0
 48
50.0
370
    -2
100
AcDbBlockReference
  2
_DOTSMALL
 10
10279.5
 20
6380.974495452941
 30
0.0
 41
125.0
 42
125.0
 43
125.0
  0
MTEXT
  5
1A767
330
1A071
100
AcDbEntity
  8
寸法
 62
     7
 48
50.0
100
AcDbMText
 10
9809.0
 20
6480.974495452942
 30
0.0
 40
150.0
 41
0.0
 71
     5
 72
     1
  1
\A1;941
  7
STYLE1
 73
     1
 44
1.0
1001
ACAD
1000
MTEXTBEGIN
1070
    73
1070
     1
1070
    44
1040
1.0
1070
    74
1070
     0
1000
MTEXTEND
  0
POINT
  5
1A768
330
1A071
100
AcDbEntity
  8
DEFPOINTS
 62
     0
 48
50.0
100
AcDbPoint
 10
9338.500000000001
 20
6770.974495452941
 30
0.0
  0
POINT
  5
1A769
330
1A071
100
AcDbEntity
  8
DEFPOINTS
 62
     0
 48
50.0
100
AcDbPoint
 10
10279.5
 20
6915.974495452942
 30
0.0
  0
POINT
  5
1A76A
330
1A071
100
AcDbEntity
  8
DEFPOINTS
 62
     0
 48
50.0
100
AcDbPoint
 10
10279.5
 20
6380.974495452941
 30
0.0
  0
ENDBLK
  5
1A07C
330
1A071
100
AcDbEntity
  8
0
 48
50.0
100
AcDbBlockEnd
  0
BLOCK
  5
1A087
330
1A07D
100
AcDbEntity
  8
0
 48
50.0
100
AcDbBlockBegin
  2
*D9
 70
     1
 10
0.0
 20
0.0
 30
0.0
  3
*D9
  1

  0
LINE
  5
1A759
330
1A07D
100
AcDbEntity
  8
寸法
 62
     0
 48
50.0
370
    -2
100
AcDbLine
 10
9338.500000000001
 20
6745.974495452941
 30
0.0
 11
9338.500000000001
 21
5905.974495452941
 31
0.0
  0
LINE
  5
1A75A
330
1A07D
100
AcDbEntity
  8
寸法
 62
     0
 48
50.0
370
    -2
100
AcDbLine
 10
11220.5
 20
6745.974495452941
 30
0.0
 11
11220.5
 21
5905.974495452941
 31
0.0
  0
LINE
  5
1A75B
330
1A07D
100
AcDbEntity
  8
寸法
 62
     0
 48
50.0
370
    -2
100
AcDbLine
 10
9338.500000000001
 20
5980.974495452941
 30
0.0
 11
11220.5
 21
5980.974495452941
 31
0.0
  0
INSERT
  5
1A75C
330
1A07D
100
AcDbEntity
  8
寸法
 62
     0
 48
50.0
370
    -2
100
AcDbBlockReference
  2
_DOTSMALL
 10
9338.500000000001
 20
5980.974495452941
 30
0.0
 41
125.0
 42
125.0
 43
125.0
 50
180.0
  0
INSERT
  5
1A75D
330
1A07D
100
AcDbEntity
  8
寸法
 62
     0
 48
50.0
370
    -2
100
AcDbBlockReference
  2
_DOTSMALL
 10
11220.5
 20
5980.974495452941
 30
0.0
 41
125.0
 42
125.0
 43
125.0
  0
MTEXT
  5
1A75E
330
1A07D
100
AcDbEntity
  8
寸法
 62
     7
 48
50.0
100
AcDbMText
 10
10279.5
 20
6080.989259232469
 30
0.0
 40
150.0
 41
0.0
 71
     5
 72
     1
  1
\A1;1882
  7
STYLE1
 73
     1
 44
1.0
1001
ACAD
1000
MTEXTBEGIN
1070
    73
1070
     1
1070
    44
1040
1.0
1070
    74
1070
     0
1000
MTEXTEND
  0
POINT
  5
1A75F
330
1A07D
100
AcDbEntity
  8
DEFPOINTS
 62
     0
 48
50.0
100
AcDbPoint
 10
9338.500000000001
 20
6770.974495452941
 30
0.0
  0
POINT
  5
1A760
330
1A07D
100
AcDbEntity
  8
DEFPOINTS
 62
     0
 48
50.0
100
AcDbPoint
 10
11220.5
 20
6770.974495452941
 30
0.0
  0
POINT
  5
1A761
330
1A07D
100
AcDbEntity
  8
DEFPOINTS
 62
     0
 48
50.0
100
AcDbPoint
 10
11220.5
 20
5980.974495452941
 30
0.0
  0
ENDBLK
  5
1A088
330
1A07D
100
AcDbEntity
  8
0
 48
50.0
100
AcDbBlockEnd
  0
BLOCK
  5
1A0A1
330
1A096
100
AcDbEntity
  8
0
 48
50.0
100
AcDbBlockBegin
  2
*D10
 70
     1
 10
0.0
 20
0.0
 30
0.0
  3
*D10
  1

  0
LINE
  5
1A773
330
1A096
100
AcDbEntity
  8
寸法
 62
     0
 48
50.0
370
    -2
100
AcDbLine
 10
9283.500000000001
 20
6755.974495452942
 30
0.0
 11
9283.500000000001
 21
5905.974495452941
 31
0.0
  0
LINE
  5
1A774
330
1A096
100
AcDbEntity
  8
寸法
 62
     0
 48
50.0
370
    -2
100
AcDbLine
 10
9338.500000000001
 20
6745.974495452941
 30
0.0
 11
9338.500000000001
 21
5905.974495452941
 31
0.0
  0
LINE
  5
1A775
330
1A096
100
AcDbEntity
  8
寸法
 62
     0
 48
50.0
370
    -2
100
AcDbLine
 10
9338.500000000001
 20
5980.974495452941
 30
0.0
 11
9283.500000000001
 21
5980.974495452941
 31
0.0
  0
LINE
  5
1A776
330
1A096
100
AcDbEntity
  8
寸法
 62
     0
 48
50.0
370
    -2
100
AcDbLine
 10
9283.500000000001
 20
5980.974495452941
 30
0.0
 11
8823.618110236221
 21
5980.974495452941
 31
0.0
  0
INSERT
  5
1A777
330
1A096
100
AcDbEntity
  8
寸法
 62
     0
 48
50.0
370
    -2
100
AcDbBlockReference
  2
_DOTSMALL
 10
9338.500000000001
 20
5980.974495452941
 30
0.0
 41
125.0
 42
125.0
 43
125.0
  0
INSERT
  5
1A778
330
1A096
100
AcDbEntity
  8
寸法
 62
     0
 48
50.0
370
    -2
100
AcDbBlockReference
  2
_DOTSMALL
 10
9283.500000000001
 20
5980.974495452941
 30
0.0
 41
125.0
 42
125.0
 43
125.0
 50
180.0
  0
MTEXT
  5
1A779
330
1A096
100
AcDbEntity
  8
寸法
 62
     7
 48
50.0
100
AcDbMText
 10
8991.05905511811
 20
6088.474495452942
 30
0.0
 40
150.0
 41
0.0
 71
     5
 72
     1
  1
\A1;(55)
  7
STYLE1
 73
     1
 44
1.0
1001
ACAD
1000
MTEXTBEGIN
1070
    73
1070
     1
1070
    44
1040
1.0
1070
    74
1070
     0
1000
MTEXTEND
  0
POINT
  5
1A77A
330
1A096
100
AcDbEntity
  8
DEFPOINTS
 62
     0
 48
50.0
100
AcDbPoint
 10
9283.500000000001
 20
6780.974495452942
 30
0.0
  0
POINT
  5
1A77B
330
1A096
100
AcDbEntity
  8
DEFPOINTS
 62
     0
 48
50.0
100
AcDbPoint
 10
9338.500000000001
 20
6770.974495452941
 30
0.0
  0
POINT
  5
1A77C
330
1A096
100
AcDbEntity
  8
DEFPOINTS
 62
     0
 48
50.0
100
AcDbPoint
 10
9338.500000000001
 20
5980.974495452941
 30
0.0
  0
ENDBLK
  5
1A0A2
330
1A096
100
AcDbEntity
  8
0
 48
50.0
100
AcDbBlockEnd
  0
BLOCK
  5
1A0AE
330
1A0A3
100
AcDbEntity
  8
0
 48
50.0
100
AcDbBlockBegin
  2
*D11
 70
     1
 10
0.0
 20
0.0
 30
0.0
  3
*D11
  1

  0
LINE
  5
1A7A1
330
1A0A3
100
AcDbEntity
  8
寸法
 62
     0
 48
50.0
370
    -2
100
AcDbLine
 10
11390.5
 20
6915.974495452942
 30
0.0
 11
12150.5
 21
6915.974495452942
 31
0.0
  0
LINE
  5
1A7A2
330
1A0A3
100
AcDbEntity
  8
寸法
 62
     0
 48
50.0
370
    -2
100
AcDbLine
 10
11300.5
 20
6780.974495452942
 30
0.0
 11
12150.5
 21
6780.974495452942
 31
0.0
  0
LINE
  5
1A7A3
330
1A0A3
100
AcDbEntity
  8
寸法
 62
     0
 48
50.0
370
    -2
100
AcDbLine
 10
12075.5
 20
6915.974495452942
 30
0.0
 11
12075.5
 21
6780.974495452942
 31
0.0
  0
LINE
  5
1A7A4
330
1A0A3
100
AcDbEntity
  8
寸法
 62
     0
 48
50.0
370
    -2
100
AcDbLine
 10
12075.5
 20
6780.974495452942
 30
0.0
 11
12075.5
 21
6246.09260568916
 31
0.0
  0
INSERT
  5
1A7A5
330
1A0A3
100
AcDbEntity
  8
寸法
 62
     0
 48
50.0
370
    -2
100
AcDbBlockReference
  2
_DOTSMALL
 10
12075.5
 20
6915.974495452942
 30
0.0
 41
125.0
 42
125.0
 43
125.0
 50
90.0
  0
INSERT
  5
1A7A6
330
1A0A3
100
AcDbEntity
  8
寸法
 62
     0
 48
50.0
370
    -2
100
AcDbBlockReference
  2
_DOTSMALL
 10
12075.5
 20
6780.974495452942
 30
0.0
 41
125.0
 42
125.0
 43
125.0
 50
270.0
  0
MTEXT
  5
1A7A7
330
1A0A3
100
AcDbEntity
  8
寸法
 62
     7
 48
50.0
100
AcDbMText
 10
11968.0
 20
6451.033550571051
 30
0.0
 40
150.0
 41
0.0
 71
     5
 72
     1
  1
\A1;(135)
  7
STYLE1
 11
0.0000000000000001
 21
1.0
 31
0.0
 73
     1
 44
1.0
1001
ACAD
1000
MTEXTBEGIN
1070
    73
1070
     1
1070
    44
1040
1.0
1070
    74
1070
     0
1000
MTEXTEND
  0
POINT
  5
1A7A8
330
1A0A3
100
AcDbEntity
  8
DEFPOINTS
 62
     0
 48
50.0
100
AcDbPoint
 10
11365.5
 20
6915.974495452942
 30
0.0
  0
POINT
  5
1A7A9
330
1A0A3
100
AcDbEntity
  8
DEFPOINTS
 62
     0
 48
50.0
100
AcDbPoint
 10
11275.5
 20
6780.974495452942
 30
0.0
  0
POINT
  5
1A7AA
330
1A0A3
100
AcDbEntity
  8
DEFPOINTS
 62
     0
 48
50.0
100
AcDbPoint
 10
12075.5
 20
6780.974495452942
 30
0.0
  0
ENDBLK
  5
1A0AF
330
1A0A3
100
AcDbEntity
  8
0
 48
50.0
100
AcDbBlockEnd
  0
BLOCK
  5
1A0BB
330
1A0B0
100
AcDbEntity
  8
0
 48
50.0
100
AcDbBlockBegin
  2
*D12
 70
     1
 10
0.0
 20
0.0
 30
0.0
  3
*D12
  1

  0
LINE
  5
1A7AB
330
1A0B0
100
AcDbEntity
  8
寸法
 62
     0
 48
50.0
370
    -2
100
AcDbLine
 10
11220.5
 20
6745.974495452941
 30
0.0
 11
11220.5
 21
5905.974495452941
 31
0.0
  0
LINE
  5
1A7AC
330
1A0B0
100
AcDbEntity
  8
寸法
 62
     0
 48
50.0
370
    -2
100
AcDbLine
 10
11275.5
 20
6755.974495452942
 30
0.0
 11
11275.5
 21
5905.974495452941
 31
0.0
  0
LINE
  5
1A7AD
330
1A0B0
100
AcDbEntity
  8
寸法
 62
     0
 48
50.0
370
    -2
100
AcDbLine
 10
11220.5
 20
5980.974495452941
 30
0.0
 11
11275.5
 21
5980.974495452941
 31
0.0
  0
LINE
  5
1A7AE
330
1A0B0
100
AcDbEntity
  8
寸法
 62
     0
 48
50.0
370
    -2
100
AcDbLine
 10
11275.5
 20
5980.974495452941
 30
0.0
 11
11735.38188976378
 21
5980.974495452941
 31
0.0
  0
INSERT
  5
1A7AF
330
1A0B0
100
AcDbEntity
  8
寸法
 62
     0
 48
50.0
370
    -2
100
AcDbBlockReference
  2
_DOTSMALL
 10
11220.5
 20
5980.974495452941
 30
0.0
 41
125.0
 42
125.0
 43
125.0
 50
180.0
  0
INSERT
  5
1A7B0
330
1A0B0
100
AcDbEntity
  8
寸法
 62
     0
 48
50.0
370
    -2
100
AcDbBlockReference
  2
_DOTSMALL
 10
11275.5
 20
5980.974495452941
 30
0.0
 41
125.0
 42
125.0
 43
125.0
  0
MTEXT
  5
1A7B1
330
1A0B0
100
AcDbEntity
  8
寸法
 62
     7
 48
50.0
100
AcDbMText
 10
11567.94094488189
 20
6088.474495452942
 30
0.0
 40
150.0
 41
0.0
 71
     5
 72
     1
  1
\A1;(55)
  7
STYLE1
 73
     1
 44
1.0
1001
ACAD
1000
MTEXTBEGIN
1070
    73
1070
     1
1070
    44
1040
1.0
1070
    74
1070
     0
1000
MTEXTEND
  0
POINT
  5
1A7B2
330
1A0B0
100
AcDbEntity
  8
DEFPOINTS
 62
     0
 48
50.0
100
AcDbPoint
 10
11220.5
 20
6770.974495452941
 30
0.0
  0
POINT
  5
1A7B3
330
1A0B0
100
AcDbEntity
  8
DEFPOINTS
 62
     0
 48
50.0
100
AcDbPoint
 10
11275.5
 20
6780.974495452942
 30
0.0
  0
POINT
  5
1A7B4
330
1A0B0
100
AcDbEntity
  8
DEFPOINTS
 62
     0
 48
50.0
100
AcDbPoint
 10
11275.5
 20
5980.974495452941
 30
0.0
  0
ENDBLK
  5
1A0BC
330
1A0B0
100
AcDbEntity
  8
0
 48
50.0
100
AcDbBlockEnd
  0
BLOCK
  5
1A0C7
330
1A0BD
100
AcDbEntity
  8
0
 48
50.0
100
AcDbBlockBegin
  2
*D13
 70
     1
 10
0.0
 20
0.0
 30
0.0
  3
*D13
  1

  0
LINE
  5
1A77D
330
1A0BD
100
AcDbEntity
  8
寸法
 62
     0
 48
50.0
370
    -2
100
AcDbLine
 10
8808.5
 20
8217.97449545294
 30
0.0
 11
8508.500000000001
 21
8217.97449545294
 31
0.0
  0
LINE
  5
1A77E
330
1A0BD
100
AcDbEntity
  8
寸法
 62
     0
 48
50.0
370
    -2
100
AcDbLine
 10
10109.5
 20
7566.974495452942
 30
0.0
 11
8508.500000000001
 21
7566.974495452942
 31
0.0
  0
LINE
  5
1A77F
330
1A0BD
100
AcDbEntity
  8
寸法
 62
     0
 48
50.0
370
    -2
100
AcDbLine
 10
8583.5
 20
8217.97449545294
 30
0.0
 11
8583.5
 21
7566.974495452942
 31
0.0
  0
INSERT
  5
1A780
330
1A0BD
100
AcDbEntity
  8
寸法
 62
     0
 48
50.0
370
    -2
100
AcDbBlockReference
  2
_DOTSMALL
 10
8583.5
 20
8217.97449545294
 30
0.0
 41
125.0
 42
125.0
 43
125.0
 50
90.0
  0
INSERT
  5
1A781
330
1A0BD
100
AcDbEntity
  8
寸法
 62
     0
 48
50.0
370
    -2
100
AcDbBlockReference
  2
_DOTSMALL
 10
8583.5
 20
7566.974495452942
 30
0.0
 41
125.0
 42
125.0
 43
125.0
 50
270.0
  0
MTEXT
  5
1A782
330
1A0BD
100
AcDbEntity
  8
寸法
 62
     7
 48
50.0
100
AcDbMText
 10
8483.499999999997
 20
7892.474495452943
 30
0.0
 40
150.0
 41
0.0
 71
     5
 72
     1
  1
\A1;651
  7
STYLE1
 11
0.0000000000000001
 21
1.0
 31
0.0
 73
     1
 44
1.0
1001
ACAD
1000
MTEXTBEGIN
1070
    73
1070
     1
1070
    44
1040
1.0
1070
    74
1070
     0
1000
MTEXTEND
  0
POINT
  5
1A783
330
1A0BD
100
AcDbEntity
  8
DEFPOINTS
 62
     0
 48
50.0
100
AcDbPoint
 10
8833.5
 20
8217.97449545294
 30
0.0
  0
POINT
  5
1A784
330
1A0BD
100
AcDbEntity
  8
DEFPOINTS
 62
     0
 48
50.0
100
AcDbPoint
 10
10134.5
 20
7566.974495452942
 30
0.0
  0
POINT
  5
1A785
330
1A0BD
100
AcDbEntity
  8
DEFPOINTS
 62
     0
 48
50.0
100
AcDbPoint
 10
8583.5
 20
7566.974495452942
 30
0.0
  0
ENDBLK
  5
1A0C8
330
1A0BD
100
AcDbEntity
  8
0
 48
50.0
100
AcDbBlockEnd
  0
BLOCK
  5
1A0D3
330
1A0C9
100
AcDbEntity
  8
0
 48
50.0
100
AcDbBlockBegin
  2
*D14
 70
     1
 10
0.0
 20
0.0
 30
0.0
  3
*D14
  1

  0
LINE
  5
1A786
330
1A0C9
100
AcDbEntity
  8
寸法
 62
     0
 48
50.0
370
    -2
100
AcDbLine
 10
9438.500000000001
 20
8342.97449545294
 30
0.0
 11
9438.500000000001
 21
8687.974495452941
 31
0.0
  0
LINE
  5
1A787
330
1A0C9
100
AcDbEntity
  8
寸法
 62
     0
 48
50.0
370
    -2
100
AcDbLine
 10
9238.5
 20
8342.974495452944
 30
0.0
 11
9238.5
 21
8687.974495452941
 31
0.0
  0
LINE
  5
1A788
330
1A0C9
100
AcDbEntity
  8
寸法
 62
     0
 48
50.0
370
    -2
100
AcDbLine
 10
9438.500000000001
 20
8612.974495452942
 30
0.0
 11
9238.5
 21
8612.974495452942
 31
0.0
  0
INSERT
  5
1A789
330
1A0C9
100
AcDbEntity
  8
寸法
 62
     0
 48
50.0
370
    -2
100
AcDbBlockReference
  2
_DOTSMALL
 10
9438.500000000001
 20
8612.974495452942
 30
0.0
 41
125.0
 42
125.0
 43
125.0
  0
INSERT
  5
1A78A
330
1A0C9
100
AcDbEntity
  8
寸法
 62
     0
 48
50.0
370
    -2
100
AcDbBlockReference
  2
_DOTSMALL
 10
9238.5
 20
8612.974495452942
 30
0.0
 41
125.0
 42
125.0
 43
125.0
 50
180.0
  0
MTEXT
  5
1A78B
330
1A0C9
100
AcDbEntity
  8
寸法
 62
     7
 48
50.0
100
AcDbMText
 10
9338.500000000001
 20
8712.98925923247
 30
0.0
 40
150.0
 41
0.0
 71
     5
 72
     1
  1
\A1;200
  7
STYLE1
 73
     1
 44
1.0
1001
ACAD
1000
MTEXTBEGIN
1070
    73
1070
     1
1070
    44
1040
1.0
1070
    74
1070
     0
1000
MTEXTEND
  0
POINT
  5
1A78C
330
1A0C9
100
AcDbEntity
  8
DEFPOINTS
 62
     0
 48
50.0
100
AcDbPoint
 10
9438.500000000001
 20
8317.974495452942
 30
0.0
  0
POINT
  5
1A78D
330
1A0C9
100
AcDbEntity
  8
DEFPOINTS
 62
     0
 48
50.0
100
AcDbPoint
 10
9238.5
 20
8317.974495452943
 30
0.0
  0
POINT
  5
1A78E
330
1A0C9
100
AcDbEntity
  8
DEFPOINTS
 62
     0
 48
50.0
100
AcDbPoint
 10
9238.5
 20
8612.974495452942
 30
0.0
  0
ENDBLK
  5
1A0D4
330
1A0C9
100
AcDbEntity
  8
0
 48
50.0
100
AcDbBlockEnd
  0
BLOCK
  5
1A0DF
330
1A0D5
100
AcDbEntity
  8
0
 48
50.0
100
AcDbBlockBegin
  2
*D15
 70
     1
 10
0.0
 20
0.0
 30
0.0
  3
*D15
  1

  0
LINE
  5
1A78F
330
1A0D5
100
AcDbEntity
  8
寸法
 62
     0
 48
50.0
370
    -2
100
AcDbLine
 10
9213.500000000001
 20
8317.974495452942
 30
0.0
 11
8908.500000000001
 21
8317.974495452942
 31
0.0
  0
LINE
  5
1A790
330
1A0D5
100
AcDbEntity
  8
寸法
 62
     0
 48
50.0
370
    -2
100
AcDbLine
 10
9213.500000000001
 20
8117.974495452941
 30
0.0
 11
8908.500000000001
 21
8117.974495452941
 31
0.0
  0
LINE
  5
1A791
330
1A0D5
100
AcDbEntity
  8
寸法
 62
     0
 48
50.0
370
    -2
100
AcDbLine
 10
8983.500000000002
 20
8317.974495452942
 30
0.0
 11
8983.500000000002
 21
8117.974495452941
 31
0.0
  0
INSERT
  5
1A792
330
1A0D5
100
AcDbEntity
  8
寸法
 62
     0
 48
50.0
370
    -2
100
AcDbBlockReference
  2
_DOTSMALL
 10
8983.500000000002
 20
8317.974495452942
 30
0.0
 41
125.0
 42
125.0
 43
125.0
 50
90.0
  0
INSERT
  5
1A793
330
1A0D5
100
AcDbEntity
  8
寸法
 62
     0
 48
50.0
370
    -2
100
AcDbBlockReference
  2
_DOTSMALL
 10
8983.500000000002
 20
8117.974495452941
 30
0.0
 41
125.0
 42
125.0
 43
125.0
 50
270.0
  0
MTEXT
  5
1A794
330
1A0D5
100
AcDbEntity
  8
寸法
 62
     7
 48
50.0
100
AcDbMText
 10
8883.485236220472
 20
8217.974495452944
 30
0.0
 40
150.0
 41
0.0
 71
     5
 72
     1
  1
\A1;200
  7
STYLE1
 11
0.0000000000000001
 21
1.0
 31
0.0
 73
     1
 44
1.0
1001
ACAD
1000
MTEXTBEGIN
1070
    73
1070
     1
1070
    44
1040
1.0
1070
    74
1070
     0
1000
MTEXTEND
  0
POINT
  5
1A795
330
1A0D5
100
AcDbEntity
  8
DEFPOINTS
 62
     0
 48
50.0
100
AcDbPoint
 10
9238.5
 20
8317.974495452942
 30
0.0
  0
POINT
  5
1A796
330
1A0D5
100
AcDbEntity
  8
DEFPOINTS
 62
     0
 48
50.0
100
AcDbPoint
 10
9238.5
 20
8117.974495452941
 30
0.0
  0
POINT
  5
1A797
330
1A0D5
100
AcDbEntity
  8
DEFPOINTS
 62
     0
 48
50.0
100
AcDbPoint
 10
8983.500000000002
 20
8117.974495452941
 30
0.0
  0
ENDBLK
  5
1A0E0
330
1A0D5
100
AcDbEntity
  8
0
 48
50.0
100
AcDbBlockEnd
  0
BLOCK
  5
1A0EC
330
1A0E1
100
AcDbEntity
  8
0
 48
50.0
100
AcDbBlockBegin
  2
*D16
 70
     1
 10
0.0
 20
0.0
 30
0.0
  3
*D16
  1

  0
LINE
  5
1A7BD
330
1A0E1
100
AcDbEntity
  8
寸法
 62
     0
 48
50.0
370
    -2
100
AcDbLine
 10
11390.5
 20
8217.97449545294
 30
0.0
 11
12150.5
 21
8217.97449545294
 31
0.0
  0
LINE
  5
1A7BE
330
1A0E1
100
AcDbEntity
  8
寸法
 62
     0
 48
50.0
370
    -2
100
AcDbLine
 10
11300.5
 20
8312.974495452939
 30
0.0
 11
12150.5
 21
8312.974495452939
 31
0.0
  0
LINE
  5
1A7BF
330
1A0E1
100
AcDbEntity
  8
寸法
 62
     0
 48
50.0
370
    -2
100
AcDbLine
 10
12075.5
 20
8217.97449545294
 30
0.0
 11
12075.5
 21
8312.974495452939
 31
0.0
  0
LINE
  5
1A7C0
330
1A0E1
100
AcDbEntity
  8
寸法
 62
     0
 48
50.0
370
    -2
100
AcDbLine
 10
12075.5
 20
8312.974495452939
 30
0.0
 11
12075.5
 21
8773.380534790859
 31
0.0
  0
INSERT
  5
1A7C1
330
1A0E1
100
AcDbEntity
  8
寸法
 62
     0
 48
50.0
370
    -2
100
AcDbBlockReference
  2
_DOTSMALL
 10
12075.5
 20
8217.97449545294
 30
0.0
 41
125.0
 42
125.0
 43
125.0
 50
270.0
  0
INSERT
  5
1A7C2
330
1A0E1
100
AcDbEntity
  8
寸法
 62
     0
 48
50.0
370
    -2
100
AcDbBlockReference
  2
_DOTSMALL
 10
12075.5
 20
8312.974495452939
 30
0.0
 41
125.0
 42
125.0
 43
125.0
 50
90.0
  0
MTEXT
  5
1A7C3
330
1A0E1
100
AcDbEntity
  8
寸法
 62
     7
 48
50.0
100
AcDbMText
 10
11967.96374807352
 20
8605.677515121902
 30
0.0
 40
150.0
 41
0.0
 71
     5
 72
     1
  1
\A1;(95)
  7
STYLE1
 11
0.0000000000000001
 21
1.0
 31
0.0
 73
     1
 44
1.0
1001
ACAD
1000
MTEXTBEGIN
1070
    73
1070
     1
1070
    44
1040
1.0
1070
    74
1070
     0
1000
MTEXTEND
  0
POINT
  5
1A7C4
330
1A0E1
100
AcDbEntity
  8
DEFPOINTS
 62
     0
 48
50.0
100
AcDbPoint
 10
11365.5
 20
8217.97449545294
 30
0.0
  0
POINT
  5
1A7C5
330
1A0E1
100
AcDbEntity
  8
DEFPOINTS
 62
     0
 48
50.0
100
AcDbPoint
 10
11275.5
 20
8312.974495452939
 30
0.0
  0
POINT
  5
1A7C6
330
1A0E1
100
AcDbEntity
  8
DEFPOINTS
 62
     0
 48
50.0
100
AcDbPoint
 10
12075.5
 20
8312.974495452939
 30
0.0
  0
ENDBLK
  5
1A0ED
330
1A0E1
100
AcDbEntity
  8
0
 48
50.0
100
AcDbBlockEnd
  0
ENDSEC
  0
SECTION
  2
ENTITIES
  0
LINE
  5
10B56
330
747D
100
AcDbEntity
  8
補助
  6
PHANTOM
 62
   230
 48
50.0
100
AcDbLine
 10
175.0
 20
0.0
 30
0.0
 11
174.9999999999993
 21
14262.0
 31
0.0
  0
LINE
  5
10B57
330
747D
100
AcDbEntity
  8
補助
  6
PHANTOM
 62
   230
 48
50.0
100
AcDbLine
 10
174.9999999999993
 20
14262.0
 30
0.0
 11
20384.0
 21
14262.0
 31
0.0
  0
LINE
  5
10B59
330
747D
100
AcDbEntity
  8
仕様書枠
  6
Continuous
 48
50.0
100
AcDbLine
 10
16384.0
 20
1500.0
 30
0.0
 11
16384.0
 21
-0.0000000000000912
 31
0.0
  0
LINE
  5
10B5C
330
747D
100
AcDbEntity
  8
仕様書枠
 48
50.0
100
AcDbLine
 10
20384.0
 20
1500.0
 30
0.0
 11
20384.0
 21
-0.0000000000001137
 31
0.0
  0
LINE
  5
10B5D
330
747D
100
AcDbEntity
  8
仕様書枠
 48
50.0
100
AcDbLine
 10
175.0
 20
0.0
 30
0.0
 11
20384.0
 21
-0.0000000000001137
 31
0.0
  0
LINE
  5
10B5E
330
747D
100
AcDbEntity
  8
補助
  6
PHANTOM
 62
   230
 48
50.0
100
AcDbLine
 10
20384.0
 20
14262.0
 30
0.0
 11
20384.0
 21
1500.0
 31
0.0
  0
LINE
  5
10B6C
330
747D
100
AcDbEntity
  8
仕様書枠
 48
50.0
100
AcDbLine
 10
16384.0
 20
1500.0
 30
0.0
 11
20384.0
 21
1500.0
 31
0.0
  0
LINE
  5
10B72
330
747D
100
AcDbEntity
  8
仕様書枠
 62
     7
 48
50.0
100
AcDbLine
 10
16484.0
 20
500.0
 30
0.0
 11
20284.0
 21
500.0
 31
0.0
  0
TEXT
  5
10B73
330
747D
100
AcDbEntity
  8
仕様書枠
 62
     7
 48
50.0
100
AcDbText
 10
16453.72382072112
 20
1118.863259287425
 30
0.0
 40
250.0
  1
基 礎 図
  7
STYLE2
100
AcDbText
  0
LINE
  5
10B7B
330
747D
100
AcDbEntity
  8
仕様書枠
 48
50.0
100
AcDbLine
 10
16384.0
 20
1000.0
 30
0.0
 11
17814.0
 21
1000.0
 31
0.0
  0
LINE
  5
10B88
330
747D
100
AcDbEntity
  8
仕様書枠
  6
Continuous
 48
50.0
100
AcDbLine
 10
17814.0
 20
1500.0
 30
0.0
 11
17814.0
 21
1000.0
 31
0.0
  0
TEXT
  5
17A34
330
747D
100
AcDbEntity
  8
文字
 62
     7
 48
50.0
100
AcDbText
 10
16511.7566802715
 20
202.8024588414046
 30
0.0
 40
100.0
  1
※寒冷地等は、地域の実情に合わせた基礎にしてください。
  7
STYLE2
100
AcDbText
  0
TEXT
  5
1842D
330
747D
100
AcDbEntity
  8
部品1
100
AcDbText
 10
9105.140306504869
 20
3075.560085060716
 30
0.0
 40
150.0
  1
基礎詳細
  7
STYLE2
100
AcDbText
  0
LINE
  5
1842E
330
747D
100
AcDbEntity
  8
部品1
100
AcDbLine
 10
9179.958081459927
 20
1449.37366126983
 30
0.0
 11
9779.958081459929
 21
1449.373661269833
 31
0.0
  0
LINE
  5
1842F
330
747D
100
AcDbEntity
  8
部品1
100
AcDbLine
 10
9179.958081459927
 20
1649.373661269831
 30
0.0
 11
9779.958081459929
 21
1649.373661269834
 31
0.0
  0
LINE
  5
18430
330
747D
100
AcDbEntity
  8
部品1
100
AcDbLine
 10
9279.958081459929
 20
1949.373661269834
 30
0.0
 11
9679.958081459927
 21
1949.373661269834
 31
0.0
  0
LINE
  5
18431
330
747D
100
AcDbEntity
  8
Ｇ．Ｌ
100
AcDbLine
 10
8979.958081459928
 20
1749.373661269834
 30
0.0
 11
10348.49646559132
 21
1749.373661269834
 31
0.0
  0
LINE
  5
18432
330
747D
100
AcDbEntity
  8
細線
100
AcDbLine
 10
9626.000289299085
 20
1749.373661269834
 30
0.0
 11
9426.000289299086
 21
1949.373661269834
 31
0.0
  0
LINE
  5
18433
330
747D
100
AcDbEntity
  8
部品1
100
AcDbLine
 10
8523.140280248865
 20
600.0
 30
0.0
 11
8523.140280248865
 21
3300.0
 31
0.0
  0
LINE
  5
18434
330
747D
100
AcDbEntity
  8
細線
100
AcDbLine
 10
9420.150460324594
 20
1499.373661269834
 30
0.0
 11
9406.753000703039
 21
1449.373661269833
 31
0.0
  0
LINE
  5
18435
330
747D
100
AcDbEntity
  8
細線
100
AcDbLine
 10
9320.150460324596
 20
1499.373661269831
 30
0.0
 11
9306.753000703038
 21
1449.37366126983
 31
0.0
  0
LINE
  5
18436
330
747D
100
AcDbEntity
  8
細線
100
AcDbLine
 10
9379.958081459927
 20
1649.373661269834
 30
0.0
 11
9433.54791994615
 21
1449.37366126983
 31
0.0
  0
LINE
  5
18437
330
747D
100
AcDbEntity
  8
細線
100
AcDbLine
 10
9279.958081459929
 20
1649.373661269831
 30
0.0
 11
9333.54791994615
 21
1449.373661269827
 31
0.0
  0
LINE
  5
18438
330
747D
100
AcDbEntity
  8
細線
100
AcDbLine
 10
9220.150460324594
 20
1499.373661269831
 30
0.0
 11
9206.753000703038
 21
1449.37366126983
 31
0.0
  0
LINE
  5
18439
330
747D
100
AcDbEntity
  8
細線
100
AcDbLine
 10
9179.958081459927
 20
1649.373661269831
 30
0.0
 11
9233.547919946152
 21
1449.373661269827
 31
0.0
  0
LINE
  5
1843A
330
747D
100
AcDbEntity
  8
部品1
100
AcDbLine
 10
9179.958081459927
 20
1449.37366126983
 30
0.0
 11
9179.958081459927
 21
1749.373661269834
 31
0.0
  0
LINE
  5
1843B
330
747D
100
AcDbEntity
  8
細線
100
AcDbLine
 10
9206.753000703038
 20
1649.373661269831
 30
0.0
 11
9193.355541081485
 21
1599.37366126983
 31
0.0
  0
LINE
  5
1843C
330
747D
100
AcDbEntity
  8
細線
100
AcDbLine
 10
9442.15252619058
 20
1749.373661269834
 30
0.0
 11
9279.958081459929
 21
1911.568106000487
 31
0.0
  0
LINE
  5
1843D
330
747D
100
AcDbEntity
  8
部品1
100
AcDbLine
 10
9279.958081459929
 20
1749.373661269834
 30
0.0
 11
9279.958081459929
 21
1949.373661269834
 31
0.0
  0
LINE
  5
1843E
330
747D
100
AcDbEntity
  8
細線
100
AcDbLine
 10
9399.726119319387
 20
1749.373661269834
 30
0.0
 11
9279.958081459929
 21
1869.141699129295
 31
0.0
  0
LINE
  5
1843F
330
747D
100
AcDbEntity
  8
細線
100
AcDbLine
 10
9406.753000703039
 20
1649.373661269834
 30
0.0
 11
9393.355541081483
 21
1599.373661269834
 31
0.0
  0
LINE
  5
18440
330
747D
100
AcDbEntity
  8
細線
100
AcDbLine
 10
9306.753000703038
 20
1649.373661269831
 30
0.0
 11
9293.355541081483
 21
1599.37366126983
 31
0.0
  0
LINE
  5
18441
330
747D
100
AcDbEntity
  8
細線
100
AcDbLine
 10
9278.855111167956
 20
1649.373661269834
 30
0.0
 11
9378.855111167954
 21
1749.373661269834
 31
0.0
  0
LINE
  5
18442
330
747D
100
AcDbEntity
  8
細線
100
AcDbLine
 10
9307.139382415419
 20
1649.373661269832
 30
0.0
 11
9407.139382415413
 21
1749.373661269834
 31
0.0
  0
LINE
  5
18443
330
747D
100
AcDbEntity
  8
細線
100
AcDbLine
 10
9250.570839920492
 20
1649.373661269831
 30
0.0
 11
9350.570839920491
 21
1749.373661269834
 31
0.0
  0
DIMENSION
  5
18444
330
747D
100
AcDbEntity
  8
寸法
 48
50.0
100
AcDbDimension
  2
*D2
 10
11227.63278895946
 20
1749.373661269834
 30
0.0
 11
11227.63278895946
 21
2236.337243947
 31
0.0
 70
   160
  1
100
 71
     5
 42
200.0000000000004
  3
INABA_S50G
100
AcDbAlignedDimension
 13
11509.39475613862
 23
1949.373661269835
 33
0.0
 14
11291.94243205221
 24
1749.373661269834
 34
0.0
 50
90.0
100
AcDbRotatedDimension
  0
LINE
  5
18445
330
747D
100
AcDbEntity
  8
部品1
100
AcDbLine
 10
12523.14028024887
 20
3000.0
 30
0.0
 11
8523.140280248865
 21
3000.0
 31
0.0
  0
LINE
  5
18446
330
747D
100
AcDbEntity
  8
部品1
100
AcDbLine
 10
8523.140280248865
 20
600.0
 30
0.0
 11
12523.14028024887
 21
600.0
 31
0.0
  0
LINE
  5
18447
330
747D
100
AcDbEntity
  8
Ｇ．Ｌ
100
AcDbLine
 10
10593.35381757188
 20
1749.373661269834
 30
0.0
 11
11291.94243205221
 21
1749.373661269834
 31
0.0
  0
DIMENSION
  5
18448
330
747D
100
AcDbEntity
  8
寸法
 48
50.0
100
AcDbDimension
  2
*D1
 10
11226.98406953108
 20
1349.373661269834
 30
0.0
 11
11226.98406953108
 21
1549.373661269835
 31
0.0
 70
   160
  1
200
 71
     5
 42
400.0
  3
INABA_S50G
100
AcDbAlignedDimension
 13
11291.94243205221
 23
1749.373661269834
 33
0.0
 14
11702.1147711078
 24
1349.373661269834
 34
0.0
 50
90.0
100
AcDbRotatedDimension
1001
ACAD
1000
DSTYLE
1002
{
1070
    40
1040
1.0
1002
}
  0
TEXT
  5
18449
330
747D
100
AcDbEntity
  8
部品1
100
AcDbText
 10
10782.72008497629
 20
3067.579768253418
 30
0.0
 40
150.0
  1
アンカー部詳細
  7
STYLE2
100
AcDbText
  0
LINE
  5
1844A
330
747D
100
AcDbEntity
  8
部品1
100
AcDbLine
 10
10523.14028024887
 20
3300.0
 30
0.0
 11
10523.14028024887
 21
600.0
 31
0.0
  0
LEADER
  5
1844B
330
747D
100
AcDbEntity
  8
寸法
 48
50.0
100
AcDbLeader
  3
INABA_S50G
 73
     0
 74
     0
 75
     1
 40
150.0
 41
231.9898538650463
 76
     3
 10
9479.958081459928
 20
1949.373661269834
 30
0.0
 10
9558.880839751983
 20
2170.806562121257
 30
0.0
 10
9683.880839751983
 20
2170.806562121257
 30
0.0
340
18463
1001
ACAD
1000
DSTYLE
1002
{
1070
    40
1040
1.0
1002
}
  0
LINE
  5
1844C
330
747D
100
AcDbEntity
  8
文字
 48
50.0
100
AcDbLine
 10
9855.838816729717
 20
1878.360952452849
 30
0.0
 11
9929.769340922504
 21
1750.309528320743
 31
0.0
  0
LINE
  5
1844D
330
747D
100
AcDbEntity
  8
文字
 48
50.0
100
AcDbLine
 10
10003.69986511529
 20
1878.360952452849
 30
0.0
 11
9855.838816729717
 21
1878.360952452849
 31
0.0
  0
LINE
  5
1844E
330
747D
100
AcDbEntity
  8
細線
100
AcDbLine
 10
9720.150460324594
 20
1499.373661269834
 30
0.0
 11
9706.75300070304
 21
1449.373661269833
 31
0.0
  0
LINE
  5
1844F
330
747D
100
AcDbEntity
  8
細線
100
AcDbLine
 10
9679.958081459927
 20
1649.373661269834
 30
0.0
 11
9733.54791994615
 21
1449.373661269833
 31
0.0
  0
LINE
  5
18450
330
747D
100
AcDbEntity
  8
細線
100
AcDbLine
 10
9620.150460324596
 20
1499.373661269834
 30
0.0
 11
9606.753000703038
 21
1449.373661269833
 31
0.0
  0
LINE
  5
18451
330
747D
100
AcDbEntity
  8
細線
100
AcDbLine
 10
9520.150460324593
 20
1499.373661269834
 30
0.0
 11
9506.753000703039
 21
1449.373661269833
 31
0.0
  0
LINE
  5
18452
330
747D
100
AcDbEntity
  8
細線
100
AcDbLine
 10
9579.958081459928
 20
1649.373661269834
 30
0.0
 11
9633.547919946151
 21
1449.37366126983
 31
0.0
  0
LINE
  5
18453
330
747D
100
AcDbEntity
  8
細線
100
AcDbLine
 10
9479.958081459926
 20
1649.373661269834
 30
0.0
 11
9533.547919946151
 21
1449.37366126983
 31
0.0
  0
LINE
  5
18454
330
747D
100
AcDbEntity
  8
部品1
100
AcDbLine
 10
9779.958081459929
 20
1749.373661269834
 30
0.0
 11
9779.958081459929
 21
1449.373661269833
 31
0.0
  0
LINE
  5
18455
330
747D
100
AcDbEntity
  8
細線
100
AcDbLine
 10
9578.855111167957
 20
1649.373661269834
 30
0.0
 11
9678.855111167955
 21
1749.373661269834
 31
0.0
  0
LINE
  5
18456
330
747D
100
AcDbEntity
  8
細線
100
AcDbLine
 10
9607.139382415418
 20
1649.373661269833
 30
0.0
 11
9707.139382415414
 21
1749.373661269834
 31
0.0
  0
LINE
  5
18457
330
747D
100
AcDbEntity
  8
細線
100
AcDbLine
 10
9668.426696170278
 20
1749.373661269835
 30
0.0
 11
9468.426696170277
 21
1949.373661269834
 31
0.0
  0
LINE
  5
18458
330
747D
100
AcDbEntity
  8
細線
100
AcDbLine
 10
9606.753000703038
 20
1649.373661269834
 30
0.0
 11
9593.355541081484
 21
1599.373661269834
 31
0.0
  0
LINE
  5
18459
330
747D
100
AcDbEntity
  8
細線
100
AcDbLine
 10
9506.753000703039
 20
1649.373661269834
 30
0.0
 11
9493.355541081484
 21
1599.373661269834
 31
0.0
  0
LINE
  5
1845A
330
747D
100
AcDbEntity
  8
細線
100
AcDbLine
 10
9550.570839920494
 20
1649.373661269833
 30
0.0
 11
9650.570839920492
 21
1749.373661269834
 31
0.0
  0
LINE
  5
1845B
330
747D
100
AcDbEntity
  8
部品1
100
AcDbLine
 10
9679.958081459927
 20
1949.373661269834
 30
0.0
 11
9679.958081459927
 21
1749.373661269834
 31
0.0
  0
LINE
  5
1845C
330
747D
100
AcDbEntity
  8
細線
100
AcDbLine
 10
9706.75300070304
 20
1649.373661269834
 30
0.0
 11
9693.355541081484
 21
1599.373661269834
 31
0.0
  0
TEXT
  5
1845D
330
747D
100
AcDbEntity
  8
部品1
100
AcDbText
 10
10024.30261467343
 20
1772.170171482107
 30
0.0
 40
150.0
  1
G.L
  7
STYLE1
100
AcDbText
  0
LINE
  5
1845E
330
747D
100
AcDbEntity
  8
文字
 48
50.0
100
AcDbLine
 10
9929.769340922504
 20
1750.309528320742
 30
0.0
 11
10003.69986511529
 21
1878.360952452849
 31
0.0
  0
TEXT
  5
1845F
330
747D
100
AcDbEntity
  8
部品1
100
AcDbText
 10
10794.12483914488
 20
1771.234304431199
 30
0.0
 40
150.0
  1
G.L
  7
STYLE1
100
AcDbText
  0
LINE
  5
18460
330
747D
100
AcDbEntity
  8
文字
 48
50.0
100
AcDbLine
 10
10773.52208958673
 20
1877.425085401941
 30
0.0
 11
10625.66104120116
 21
1877.425085401941
 31
0.0
  0
LINE
  5
18461
330
747D
100
AcDbEntity
  8
文字
 48
50.0
100
AcDbLine
 10
10625.66104120116
 20
1877.425085401941
 30
0.0
 11
10699.59156539394
 21
1749.373661269834
 31
0.0
  0
LINE
  5
18462
330
747D
100
AcDbEntity
  8
文字
 48
50.0
100
AcDbLine
 10
10699.59156539394
 20
1749.373661269834
 30
0.0
 11
10773.52208958673
 21
1877.425085401941
 31
0.0
  0
MTEXT
  5
18463
102
{ACAD_REACTORS
330
1844B
102
}
330
747D
100
AcDbEntity
  8
寸法
 62
     7
 48
50.0
100
AcDbMText
 10
9708.880839751984
 20
2270.806562121257
 30
0.0
 40
150.0
 41
1.0
 71
     4
 72
     1
  1
\A1;C.B
  7
STYLE1
 73
     1
 44
1.0
1001
ACAD
1000
MTEXTBEGIN
1070
    73
1070
     1
1070
    44
1040
1.0
1070
    74
1070
     0
1000
MTEXTEND
  0
LINE
  5
18464
330
747D
100
AcDbEntity
  8
部品1
 48
10.0
100
AcDbLine
 10
11890.1147711078
 20
2029.373661269834
 30
0.0
 11
11890.1147711078
 21
1475.373661269834
 31
0.0
  0
DIMENSION
  5
18465
330
747D
100
AcDbEntity
  8
寸法
 48
50.0
100
AcDbDimension
  2
*D3
 10
11509.39475613862
 20
1459.373661269834
 30
0.0
 11
11409.37999235909
 21
1744.373661269836
 31
0.0
 70
    32
  1
285
 71
     5
 42
570.0
  3
INABA_S50G
100
AcDbAlignedDimension
 13
11890.1147711078
 23
2029.373661269834
 33
0.0
 14
11846.1147711078
 24
1459.373661269834
 34
0.0
 50
90.0
100
AcDbRotatedDimension
  0
LINE
  5
18466
330
747D
100
AcDbEntity
  8
部品1
100
AcDbLine
 10
12523.14028024887
 20
600.0
 30
0.0
 11
12523.14028024887
 21
3300.000000000001
 31
0.0
  0
LINE
  5
18467
330
747D
100
AcDbEntity
  8
部品1
 48
10.0
100
AcDbLine
 10
11906.1147711078
 20
1949.373661269834
 30
0.0
 11
11906.1147711078
 21
2683.152017438574
 31
0.0
  0
LINE
  5
18468
330
747D
100
AcDbEntity
  8
部品1
 48
10.0
100
AcDbLine
 10
12034.1147711078
 20
1949.373661269834
 30
0.0
 11
12034.1147711078
 21
2683.152017438574
 31
0.0
  0
LINE
  5
18469
330
747D
100
AcDbEntity
  8
部品1
 48
10.0
100
AcDbLine
 10
11906.1147711078
 20
1475.373661269834
 30
0.0
 11
11906.1147711078
 21
2029.373661269834
 31
0.0
  0
LINE
  5
1846A
330
747D
100
AcDbEntity
  8
Ｇ．Ｌ
100
AcDbLine
 10
11906.1147711078
 20
1749.373661269834
 30
0.0
 11
12419.88475394479
 21
1749.373661269834
 31
0.0
  0
LINE
  5
1846B
330
747D
100
AcDbEntity
  8
細線
100
AcDbLine
 10
12252.15697894695
 20
1749.373661269834
 30
0.0
 11
12052.15697894695
 21
1949.373661269834
 31
0.0
  0
LINE
  5
1846C
330
747D
100
AcDbEntity
  8
細線
100
AcDbLine
 10
12294.58338581815
 20
1749.373661269835
 30
0.0
 11
12094.58338581815
 21
1949.373661269834
 31
0.0
  0
LINE
  5
1846D
330
747D
100
AcDbEntity
  8
部品1
 48
10.0
100
AcDbLine
 10
11906.1147711078
 20
1949.373661269834
 30
0.0
 11
12306.1147711078
 21
1949.373661269834
 31
0.0
  0
LINE
  5
1846E
330
747D
100
AcDbEntity
  8
部品1
 48
10.0
100
AcDbLine
 10
11906.1147711078
 20
1949.373661269834
 30
0.0
 11
12421.45241846108
 21
1949.373661269834
 31
0.0
  0
DIMENSION
  5
1846F
330
747D
100
AcDbEntity
  8
寸法
 48
50.0
100
AcDbDimension
  2
*D4
 10
11702.1147711078
 20
1022.89069578453
 30
0.0
 11
11902.1147711078
 21
1122.905459564058
 31
0.0
 70
    32
  1
200
 71
     5
 42
400.0
  3
INABA_S50G
100
AcDbAlignedDimension
 13
12102.1147711078
 23
1349.373661269834
 33
0.0
 14
11702.1147711078
 24
1349.373661269834
 34
0.0
100
AcDbRotatedDimension
  0
LINE
  5
18470
330
747D
100
AcDbEntity
  8
Ｇ．Ｌ
100
AcDbLine
 10
11532.73705187441
 20
1749.373661269834
 30
0.0
 11
11890.1147711078
 21
1749.373661269834
 31
0.0
  0
LINE
  5
18471
330
747D
100
AcDbEntity
  8
寸法
 48
50.0
100
AcDbLine
 10
11526.14244060296
 20
1949.373661269835
 30
0.0
 11
11866.9397983441
 21
1949.373661269835
 31
0.0
  0
LINE
  5
18472
330
747D
100
AcDbEntity
  8
細線
  6
HIDDEN
 48
10.0
100
AcDbLine
 10
11702.1147711078
 20
1595.373436971779
 30
0.0
 11
11856.11499540584
 21
1749.373661269834
 31
0.0
  0
LINE
  5
18473
330
747D
100
AcDbEntity
  8
細線
  6
HIDDEN
 48
10.0
100
AcDbLine
 10
11702.1147711078
 20
1623.657708219241
 30
0.0
 11
11827.83072415838
 21
1749.373661269834
 31
0.0
  0
LINE
  5
18474
330
747D
100
AcDbEntity
  8
細線
  6
HIDDEN
 48
10.0
100
AcDbLine
 10
11702.1147711078
 20
1651.941979466702
 30
0.0
 11
11799.54645291093
 21
1749.373661269834
 31
0.0
  0
LINE
  5
18475
330
747D
100
AcDbEntity
  8
細線
  6
HIDDEN
 48
10.0
100
AcDbLine
 10
11702.1147711078
 20
1349.373661269834
 30
0.0
 11
12102.1147711078
 21
1349.373661269834
 31
0.0
  0
LINE
  5
18476
330
747D
100
AcDbEntity
  8
細線
  6
HIDDEN
 48
10.0
100
AcDbLine
 10
11702.1147711078
 20
1349.373661269834
 30
0.0
 11
11702.1147711078
 21
1749.373661269834
 31
0.0
  0
LINE
  5
18477
330
747D
100
AcDbEntity
  8
細線
  6
HIDDEN
 48
10.0
100
AcDbLine
 10
11882.77338425868
 20
1349.373661269835
 30
0.0
 11
12102.1147711078
 21
1568.715048118956
 31
0.0
  0
LINE
  5
18478
330
747D
100
AcDbEntity
  8
細線
  6
HIDDEN
 48
10.0
100
AcDbLine
 10
11826.20484176376
 20
1349.373661269834
 30
0.0
 11
12102.1147711078
 21
1625.283590613879
 31
0.0
  0
LINE
  5
18479
330
747D
100
AcDbEntity
  8
細線
  6
HIDDEN
 48
10.0
100
AcDbLine
 10
11854.48911301122
 20
1349.373661269836
 30
0.0
 11
12102.1147711078
 21
1596.999319366418
 31
0.0
  0
LINE
  5
1847A
330
747D
100
AcDbEntity
  8
細線
  6
HIDDEN
 48
10.0
100
AcDbLine
 10
12102.1147711078
 20
1349.373661269834
 30
0.0
 11
12102.1147711078
 21
1749.373661269834
 31
0.0
  0
ARC
  5
1847B
330
747D
100
AcDbEntity
  8
部品1
 48
10.0
100
AcDbCircle
 10
11890.1147711078
 20
1475.373661269834
 30
0.0
 40
16.0
100
AcDbArc
 50
270.0
 51
0.0
  0
LINE
  5
1847C
330
747D
100
AcDbEntity
  8
部品1
 48
10.0
100
AcDbLine
 10
11846.1147711078
 20
1459.373661269834
 30
0.0
 11
11846.1147711078
 21
1475.373661269834
 31
0.0
  0
LINE
  5
1847D
330
747D
100
AcDbEntity
  8
部品1
 48
10.0
100
AcDbLine
 10
11890.1147711078
 20
1475.373661269833
 30
0.0
 11
11846.1147711078
 21
1475.373661269834
 31
0.0
  0
LINE
  5
1847E
330
747D
100
AcDbEntity
  8
部品1
 48
10.0
100
AcDbLine
 10
11890.1147711078
 20
1459.373661269834
 30
0.0
 11
11846.1147711078
 21
1459.373661269834
 31
0.0
  0
LINE
  5
1847F
330
747D
100
AcDbEntity
  8
細線
100
AcDbLine
 10
12025.88280896726
 20
1749.373661269834
 30
0.0
 11
11906.1147711078
 21
1869.141699129295
 31
0.0
  0
LINE
  5
18480
330
747D
100
AcDbEntity
  8
細線
100
AcDbLine
 10
12068.30921583845
 20
1749.373661269834
 30
0.0
 11
11906.1147711078
 21
1911.568106000487
 31
0.0
  0
LINE
  5
18481
330
747D
100
AcDbEntity
  8
部品1
 48
10.0
100
AcDbLine
 10
11906.1147711078
 20
1749.373661269834
 30
0.0
 11
11906.1147711078
 21
1949.373661269834
 31
0.0
  0
LINE
  5
18482
330
747D
100
AcDbEntity
  8
部品1
 48
10.0
100
AcDbLine
 10
12306.1147711078
 20
1949.373661269834
 30
0.0
 11
12306.1147711078
 21
1749.373661269834
 31
0.0
  0
LINE
  5
18483
330
747D
100
AcDbEntity
  8
部品1
 48
10.0
100
AcDbLine
 10
12050.1147711078
 20
2063.373661269835
 30
0.0
 11
12421.45241846108
 21
2063.373661269835
 31
0.0
  0
LINE
  5
18484
330
747D
100
AcDbEntity
  8
部品1
 48
10.0
100
AcDbLine
 10
12034.1147711078
 20
2047.373661269835
 30
0.0
 11
12421.45241846108
 21
2047.373661269835
 31
0.0
  0
LINE
  5
18485
330
747D
100
AcDbEntity
  8
部品1
 48
10.0
100
AcDbLine
 10
12050.1147711078
 20
2047.373661269835
 30
0.0
 11
12050.1147711078
 21
2683.152017438574
 31
0.0
  0
LINE
  5
18486
330
747D
100
AcDbEntity
  8
部品1
 48
10.0
100
AcDbLine
 10
12066.1147711078
 20
2063.373661269835
 30
0.0
 11
12066.1147711078
 21
2683.152017438574
 31
0.0
  0
CIRCLE
  5
18487
330
747D
100
AcDbEntity
  8
細線
100
AcDbCircle
 10
11966.1147711078
 20
1999.373661269834
 30
0.0
 40
16.0
  0
LINE
  5
18488
330
747D
100
AcDbEntity
  8
部品1
 48
10.0
100
AcDbLine
 10
11906.1147711078
 20
2029.373661269834
 30
0.0
 11
11890.1147711078
 21
2029.373661269834
 31
0.0
  0
LINE
  5
18489
330
747D
100
AcDbEntity
  8
細線
100
AcDbLine
 10
11876.1147711078
 20
1992.373661269834
 30
0.0
 11
11876.1147711078
 21
2006.373661269835
 31
0.0
  0
LINE
  5
1848A
330
747D
100
AcDbEntity
  8
細線
100
AcDbLine
 10
11884.1147711078
 20
2013.373661269834
 30
0.0
 11
11883.1147711078
 21
2013.373661269834
 31
0.0
  0
LINE
  5
1848B
330
747D
100
AcDbEntity
  8
細線
100
AcDbLine
 10
11884.1147711078
 20
1985.373661269834
 30
0.0
 11
11883.1147711078
 21
1985.373661269834
 31
0.0
  0
ARC
  5
1848C
330
747D
100
AcDbEntity
  8
細線
100
AcDbCircle
 10
11883.1147711078
 20
2006.373661269835
 30
0.0
 40
7.0
100
AcDbArc
 50
90.00000000000095
 51
180.0
  0
ARC
  5
1848D
330
747D
100
AcDbEntity
  8
細線
100
AcDbCircle
 10
11883.1147711078
 20
1992.373661269834
 30
0.0
 40
7.0
100
AcDbArc
 50
180.0
 51
270.0
  0
LINE
  5
1848E
330
747D
100
AcDbEntity
  8
細線
100
AcDbLine
 10
11890.1147711078
 20
2015.373661269835
 30
0.0
 11
11884.1147711078
 21
2015.373661269835
 31
0.0
  0
LINE
  5
1848F
330
747D
100
AcDbEntity
  8
細線
100
AcDbLine
 10
11890.1147711078
 20
1983.373661269834
 30
0.0
 11
11884.1147711078
 21
1983.373661269834
 31
0.0
  0
LINE
  5
18490
330
747D
100
AcDbEntity
  8
細線
100
AcDbLine
 10
11890.1147711078
 20
1983.373661269834
 30
0.0
 11
11890.1147711078
 21
2015.373661269835
 31
0.0
  0
LINE
  5
18491
330
747D
100
AcDbEntity
  8
細線
100
AcDbLine
 10
11884.1147711078
 20
1983.373661269834
 30
0.0
 11
11884.1147711078
 21
2015.373661269835
 31
0.0
  0
CIRCLE
  5
18492
330
747D
100
AcDbEntity
  8
細線
100
AcDbCircle
 10
12012.1147711078
 20
1999.373661269834
 30
0.0
 40
16.0
  0
TEXT
  5
19791
330
747D
100
AcDbEntity
  8
文字
 62
     7
 48
50.0
100
AcDbText
 10
4924.437694335153
 20
1008.846525267093
 30
0.0
 40
150.0
  1
（　）内寸法は屋根の出幅です。
  7
STYLE1
100
AcDbText
  0
LINE
  5
19792
330
747D
100
AcDbEntity
  8
寸法
 48
50.0
100
AcDbLine
 10
7642.857718927459
 20
944.3259641243431
 30
0.0
 11
4905.19511207204
 21
944.3259641243431
 31
0.0
  0
LINE
  5
197B0
330
747D
100
AcDbEntity
  8
部品1
100
AcDbLine
 10
8523.140280248865
 20
3300.000000000001
 30
0.0
 11
12523.14028024887
 21
3300.000000000001
 31
0.0
  0
TEXT
  5
199F7
330
747D
100
AcDbEntity
  8
文字
 62
     7
 48
50.0
100
AcDbText
 10
16501.79587498052
 20
596.5925826289066
 30
0.0
 40
200.0
  1
機種名
  7
STYLE2
100
AcDbText
  0
TEXT
  5
19A03
330
747D
100
AcDbEntity
  8
仕様書枠
 62
     7
 48
50.0
100
AcDbText
 10
18115.03136767309
 20
604.8708912389265
 30
0.0
 40
200.0
  1
SMK-２５SGM
  7
STYLE2
100
AcDbText
  0
TEXT
  5
19A04
330
747D
100
AcDbEntity
  8
文字
 62
     7
 48
50.0
100
AcDbText
 10
18906.06354163449
 20
1289.447132864036
 30
0.0
 40
125.0
  1
<縮尺> S=1/50
  7
STYLE2
100
AcDbText
  0
DIMENSION
  5
1A002
330
747D
100
AcDbEntity
  8
寸法
 48
50.0
100
AcDbDimension
  2
*D5
 10
11220.5
 20
6380.974495452941
 30
0.0
 11
10750.0
 21
6480.974495452942
 31
0.0
 70
    32
 71
     5
 42
941.0
  3
INABA_S50G
100
AcDbAlignedDimension
 13
10279.5
 23
7421.974495452942
 33
0.0
 14
11220.5
 24
6770.974495452941
 34
0.0
100
AcDbRotatedDimension
1001
ACAD
1000
DSTYLE
1002
{
1070
    75
1070
     1
1070
   279
1070
     1
1002
}
  0
LINE
  5
1A003
330
747D
100
AcDbEntity
  8
想像線
 48
20.0
100
AcDbLine
 10
9283.500000000001
 20
8312.974495452941
 30
0.0
 11
9283.500000000001
 21
6780.974495452942
 31
0.0
  0
LINE
  5
1A004
330
747D
100
AcDbEntity
  8
想像線
 48
20.0
100
AcDbLine
 10
11275.5
 20
6780.974495452942
 30
0.0
 11
11275.5
 21
8312.974495452939
 31
0.0
  0
DIMENSION
  5
1A005
330
747D
100
AcDbEntity
  8
寸法
 48
50.0
100
AcDbDimension
  2
*D6
 10
8583.5
 20
6915.974495452942
 30
0.0
 11
8483.499999999997
 21
7241.474495452942
 31
0.0
 70
    32
 71
     5
 42
651.0
  3
INABA_S50G
100
AcDbAlignedDimension
 13
10134.5
 23
7566.974495452942
 33
0.0
 14
9193.5
 24
6915.974495452942
 34
0.0
 50
90.0
100
AcDbRotatedDimension
1001
ACAD
1000
DSTYLE
1002
{
1070
    75
1070
     1
1070
   279
1070
     1
1002
}
  0
DIMENSION
  5
1A006
330
747D
100
AcDbEntity
  8
寸法
 48
50.0
100
AcDbDimension
  2
*D7
 10
12075.5
 20
8217.97449545294
 30
0.0
 11
11975.48523622047
 21
7566.974495452942
 31
0.0
 70
    32
 71
     5
 42
1301.999999999999
  3
INABA_S50G
100
AcDbAlignedDimension
 13
11365.5
 23
6915.974495452942
 33
0.0
 14
11365.5
 24
8217.97449545294
 34
0.0
 50
90.0
100
AcDbRotatedDimension
  0
MTEXT
  5
1A007
102
{ACAD_REACTORS
330
1A01E
102
}
330
747D
100
AcDbEntity
  8
細線
 62
     7
 48
50.0
100
AcDbMText
 10
10569.2534945176
 20
7423.588392616132
 30
0.0
 40
150.0
 41
0.0
 71
     4
 72
     1
  1
\A1;C.B
  7
STYLE1
 73
     1
 44
1.0
1001
ACAD
1000
MTEXTBEGIN
1070
    73
1070
     1
1070
    44
1040
1.0
1070
    74
1070
     0
1000
MTEXTEND
  0
DIMENSION
  5
1A008
330
747D
100
AcDbEntity
  8
寸法
 48
50.0
100
AcDbDimension
  2
*D8
 10
10279.5
 20
6380.974495452941
 30
0.0
 11
9809.0
 21
6480.974495452942
 31
0.0
 70
    32
 71
     5
 42
940.9999999999982
  3
INABA_S50G
100
AcDbAlignedDimension
 13
9338.500000000001
 23
6770.974495452941
 33
0.0
 14
10279.5
 24
6915.974495452942
 34
0.0
100
AcDbRotatedDimension
  0
LINE
  5
1A009
330
747D
100
AcDbEntity
  8
部品1
 48
50.0
100
AcDbLine
 10
10179.5
 20
6915.974495452942
 30
0.0
 11
10379.5
 21
6915.974495452942
 31
0.0
  0
LINE
  5
1A00A
330
747D
100
AcDbEntity
  8
部品1
 48
50.0
100
AcDbLine
 10
10179.5
 20
7115.974495452943
 30
0.0
 11
10379.5
 21
7115.974495452942
 31
0.0
  0
LINE
  5
1A00B
330
747D
100
AcDbEntity
  8
想像線
 48
20.0
100
AcDbLine
 10
9283.500000000001
 20
6780.974495452942
 30
0.0
 11
11275.5
 21
6780.974495452942
 31
0.0
  0
DIMENSION
  5
1A00C
330
747D
100
AcDbEntity
  8
寸法
 48
50.0
100
AcDbDimension
  2
*D9
 10
11220.5
 20
5980.974495452941
 30
0.0
 11
10279.5
 21
6080.989259232469
 31
0.0
 70
    32
 71
     5
 42
1882.0
  3
INABA_S50G
100
AcDbAlignedDimension
 13
9338.500000000001
 23
6770.974495452941
 33
0.0
 14
11220.5
 24
6770.974495452941
 34
0.0
100
AcDbRotatedDimension
  0
DIMENSION
  5
1A00E
330
747D
100
AcDbEntity
  8
寸法
 48
50.0
100
AcDbDimension
  2
*D10
 10
9338.500000000001
 20
5980.974495452941
 30
0.0
 11
8991.05905511811
 21
5980.974495452941
 31
0.0
 70
   160
  1
(<>)
 71
     5
 42
55.0
  3
INABA_S50G
100
AcDbAlignedDimension
 13
9283.500000000001
 23
6780.974495452942
 33
0.0
 14
9338.500000000001
 24
6770.974495452941
 34
0.0
100
AcDbRotatedDimension
  0
LINE
  5
1A00F
330
747D
100
AcDbEntity
  8
点線
 48
10.0
100
AcDbLine
 10
9438.500000000001
 20
6815.97449545294
 30
0.0
 11
9238.5
 21
6815.97449545294
 31
0.0
  0
LINE
  5
1A010
330
747D
100
AcDbEntity
  8
点線
 48
10.0
100
AcDbLine
 10
9438.500000000001
 20
7015.97449545294
 30
0.0
 11
9238.5
 21
7015.97449545294
 31
0.0
  0
LINE
  5
1A011
330
747D
100
AcDbEntity
  8
センター
 48
5.0
100
AcDbLine
 10
9483.500000000001
 20
6915.974495452942
 30
0.0
 11
9193.5
 21
6915.974495452942
 31
0.0
  0
LINE
  5
1A012
330
747D
100
AcDbEntity
  8
点線
 48
10.0
100
AcDbLine
 10
9238.5
 20
6815.97449545294
 30
0.0
 11
9238.5
 21
7015.97449545294
 31
0.0
  0
LINE
  5
1A013
330
747D
100
AcDbEntity
  8
センター
 48
5.0
100
AcDbLine
 10
9338.500000000001
 20
7060.974495452942
 30
0.0
 11
9338.500000000001
 21
6770.974495452941
 31
0.0
  0
LINE
  5
1A014
330
747D
100
AcDbEntity
  8
部品1
 48
50.0
100
AcDbLine
 10
9338.500000000001
 20
6915.974495452942
 30
0.0
 11
9738.500000000001
 21
6915.974495452942
 31
0.0
  0
LINE
  5
1A015
330
747D
100
AcDbEntity
  8
部品1
 48
50.0
100
AcDbLine
 10
9338.500000000001
 20
7115.974495452942
 30
0.0
 11
9738.500000000001
 21
7115.974495452942
 31
0.0
  0
LINE
  5
1A016
330
747D
100
AcDbEntity
  8
部品1
 48
50.0
100
AcDbLine
 10
9338.500000000001
 20
7115.974495452942
 30
0.0
 11
9338.500000000001
 21
6915.974495452942
 31
0.0
  0
LINE
  5
1A017
330
747D
100
AcDbEntity
  8
点線
 48
10.0
100
AcDbLine
 10
9438.500000000001
 20
6815.97449545294
 30
0.0
 11
9438.500000000001
 21
7015.97449545294
 31
0.0
  0
LINE
  5
1A018
330
747D
100
AcDbEntity
  8
部品1
 48
50.0
100
AcDbLine
 10
9738.500000000001
 20
7115.974495452942
 30
0.0
 11
9738.500000000001
 21
6915.974495452942
 31
0.0
  0
LINE
  5
1A019
330
747D
100
AcDbEntity
  8
部品1
 48
50.0
100
AcDbLine
 10
10179.5
 20
6915.974495452942
 30
0.0
 11
10179.5
 21
7115.974495452942
 31
0.0
  0
DIMENSION
  5
1A01A
330
747D
100
AcDbEntity
  8
寸法
 48
50.0
100
AcDbDimension
  2
*D11
 10
12075.5
 20
6780.974495452942
 30
0.0
 11
12075.5
 21
6451.033550571051
 31
0.0
 70
   160
  1
(<>)
 71
     5
 42
135.0
  3
INABA_S50G
100
AcDbAlignedDimension
 13
11365.5
 23
6915.974495452942
 33
0.0
 14
11275.5
 24
6780.974495452942
 34
0.0
 50
90.0
100
AcDbRotatedDimension
  0
DIMENSION
  5
1A01B
330
747D
100
AcDbEntity
  8
寸法
 48
50.0
100
AcDbDimension
  2
*D12
 10
11275.5
 20
5980.974495452941
 30
0.0
 11
11567.94094488189
 21
5980.974495452941
 31
0.0
 70
   160
  1
(<>)
 71
     5
 42
55.0
  3
INABA_S50G
100
AcDbAlignedDimension
 13
11220.5
 23
6770.974495452941
 33
0.0
 14
11275.5
 24
6780.974495452942
 34
0.0
100
AcDbRotatedDimension
  0
LINE
  5
1A01C
330
747D
100
AcDbEntity
  8
部品1
 48
50.0
100
AcDbLine
 10
10820.5
 20
7115.974495452942
 30
0.0
 11
11220.5
 21
7115.974495452942
 31
0.0
  0
LINE
  5
1A01D
330
747D
100
AcDbEntity
  8
部品1
 48
50.0
100
AcDbLine
 10
10820.5
 20
6915.974495452942
 30
0.0
 11
11220.5
 21
6915.974495452942
 31
0.0
  0
LEADER
  5
1A01E
330
747D
100
AcDbEntity
  8
寸法
 48
50.0
100
AcDbLeader
  3
INABA_S50G
 71
     0
 73
     0
 74
     0
 75
     1
 40
150.0
 41
231.9898538650463
 76
     3
 10
10279.5
 20
7115.974495452942
 30
0.0
 10
10419.2534945176
 20
7323.588392616132
 30
0.0
 10
10544.25349451761
 20
7323.588392616132
 30
0.0
340
1A007
  0
LINE
  5
1A01F
330
747D
100
AcDbEntity
  8
部品1
 48
50.0
100
AcDbLine
 10
10379.5
 20
6915.974495452942
 30
0.0
 11
10379.5
 21
7115.974495452942
 31
0.0
  0
LINE
  5
1A020
330
747D
100
AcDbEntity
  8
部品1
 48
50.0
100
AcDbLine
 10
10820.5
 20
6915.974495452942
 30
0.0
 11
10820.5
 21
7115.974495452942
 31
0.0
  0
LINE
  5
1A021
330
747D
100
AcDbEntity
  8
センター
 48
5.0
100
AcDbLine
 10
11220.5
 20
7060.974495452942
 30
0.0
 11
11220.5
 21
6770.974495452941
 31
0.0
  0
LINE
  5
1A022
330
747D
100
AcDbEntity
  8
センター
 48
5.0
100
AcDbLine
 10
11365.5
 20
6915.974495452942
 30
0.0
 11
11075.5
 21
6915.974495452942
 31
0.0
  0
LINE
  5
1A023
330
747D
100
AcDbEntity
  8
部品1
 48
50.0
100
AcDbLine
 10
11220.5
 20
6915.974495452942
 30
0.0
 11
11220.5
 21
7115.974495452942
 31
0.0
  0
LINE
  5
1A024
330
747D
100
AcDbEntity
  8
点線
 48
10.0
100
AcDbLine
 10
11120.5
 20
7015.97449545294
 30
0.0
 11
11320.5
 21
7015.97449545294
 31
0.0
  0
LINE
  5
1A025
330
747D
100
AcDbEntity
  8
点線
 48
10.0
100
AcDbLine
 10
11120.5
 20
6815.97449545294
 30
0.0
 11
11320.5
 21
6815.97449545294
 31
0.0
  0
LINE
  5
1A026
330
747D
100
AcDbEntity
  8
点線
 48
10.0
100
AcDbLine
 10
11120.5
 20
6815.97449545294
 30
0.0
 11
11120.5
 21
7015.97449545294
 31
0.0
  0
LINE
  5
1A027
330
747D
100
AcDbEntity
  8
点線
 48
10.0
100
AcDbLine
 10
11320.5
 20
6815.97449545294
 30
0.0
 11
11320.5
 21
7015.97449545294
 31
0.0
  0
LINE
  5
1A028
330
747D
100
AcDbEntity
  8
想像線
 48
20.0
100
AcDbLine
 10
11275.5
 20
8312.974495452939
 30
0.0
 11
9283.500000000001
 21
8312.974495452941
 31
0.0
  0
MTEXT
  5
1A029
102
{ACAD_REACTORS
330
1A02B
102
}
330
747D
100
AcDbEntity
  8
細線
 62
     7
 48
50.0
100
AcDbMText
 10
9968.057947896992
 20
9039.500570415752
 30
0.0
 40
150.0
 41
0.0
 71
     4
 72
     1
  1
\A1;組立後\P現場打コンクリート
  7
STYLE1
 73
     1
 44
1.0
1001
ACAD
1000
MTEXTBEGIN
1070
    73
1070
     1
1070
    44
1040
1.0
1070
    74
1070
     0
1000
MTEXTEND
  0
DIMENSION
  5
1A02A
330
747D
100
AcDbEntity
  8
寸法
 48
50.0
100
AcDbDimension
  2
*D13
 10
8583.5
 20
7566.974495452942
 30
0.0
 11
8483.499999999997
 21
7892.474495452943
 31
0.0
 70
    32
 71
     5
 42
651.0
  3
INABA_S50G
100
AcDbAlignedDimension
 13
8833.5
 23
8217.97449545294
 33
0.0
 14
10134.5
 24
7566.974495452942
 34
0.0
 50
90.0
100
AcDbRotatedDimension
  0
LEADER
  5
1A02B
330
747D
100
AcDbEntity
  8
寸法
 48
50.0
100
AcDbLeader
  3
INABA_S50G
 71
     0
 73
     0
 74
     0
 75
     1
 40
400.0
 41
1602.936553006147
 76
     3
 10
9388.554223318745
 20
8267.986212187752
 30
0.0
 10
9818.057947896992
 20
8814.500570415752
 30
0.0
 10
9943.057947896992
 20
8814.500570415752
 30
0.0
340
1A029
  0
DIMENSION
  5
1A02C
330
747D
100
AcDbEntity
  8
寸法
 48
50.0
100
AcDbDimension
  2
*D14
 10
9238.5
 20
8612.974495452942
 30
0.0
 11
9338.500000000001
 21
8612.974495452942
 31
0.0
 70
   160
 71
     5
 42
200.0
  3
INABA_S50G
100
AcDbAlignedDimension
 13
9438.500000000001
 23
8317.974495452942
 33
0.0
 14
9238.5
 24
8317.974495452943
 34
0.0
100
AcDbRotatedDimension
  0
LINE
  5
1A02D
330
747D
100
AcDbEntity
  8
点線
 48
10.0
100
AcDbLine
 10
9438.500000000001
 20
8317.974495452942
 30
0.0
 11
9238.5
 21
8317.974495452942
 31
0.0
  0
LINE
  5
1A02E
330
747D
100
AcDbEntity
  8
点線
 48
10.0
100
AcDbLine
 10
9438.500000000001
 20
8117.974495452941
 30
0.0
 11
9238.5
 21
8117.974495452941
 31
0.0
  0
LINE
  5
1A02F
330
747D
100
AcDbEntity
  8
センター
 48
5.0
100
AcDbLine
 10
9483.500000000001
 20
8217.97449545294
 30
0.0
 11
9193.5
 21
8217.97449545294
 31
0.0
  0
DIMENSION
  5
1A030
330
747D
100
AcDbEntity
  8
寸法
 48
50.0
100
AcDbDimension
  2
*D15
 10
8983.500000000002
 20
8117.974495452941
 30
0.0
 11
8983.500000000001
 21
8217.974495452944
 31
0.0
 70
   160
 71
     5
 42
200.0
  3
INABA_S50G
100
AcDbAlignedDimension
 13
9238.5
 23
8317.974495452942
 33
0.0
 14
9238.5
 24
8117.974495452941
 34
0.0
 50
90.0
100
AcDbRotatedDimension
  0
LINE
  5
1A031
330
747D
100
AcDbEntity
  8
点線
 48
10.0
100
AcDbLine
 10
9238.5
 20
8317.974495452942
 30
0.0
 11
9238.5
 21
8117.974495452941
 31
0.0
  0
LINE
  5
1A032
330
747D
100
AcDbEntity
  8
部品1
 48
50.0
100
AcDbLine
 10
9738.500000000001
 20
8017.974495452941
 30
0.0
 11
9338.500000000001
 21
8017.974495452941
 31
0.0
  0
LINE
  5
1A033
330
747D
100
AcDbEntity
  8
部品1
 48
50.0
100
AcDbLine
 10
9738.500000000001
 20
8217.97449545294
 30
0.0
 11
9338.500000000001
 21
8217.97449545294
 31
0.0
  0
LINE
  5
1A034
330
747D
100
AcDbEntity
  8
センター
 48
5.0
100
AcDbLine
 10
9338.500000000001
 20
8362.974495452942
 30
0.0
 11
9338.500000000001
 21
8072.974495452942
 31
0.0
  0
LINE
  5
1A035
330
747D
100
AcDbEntity
  8
点線
 48
10.0
100
AcDbLine
 10
9438.500000000001
 20
8317.974495452942
 30
0.0
 11
9438.500000000001
 21
8117.974495452941
 31
0.0
  0
LINE
  5
1A036
330
747D
100
AcDbEntity
  8
部品1
 48
50.0
100
AcDbLine
 10
9338.500000000001
 20
8217.97449545294
 30
0.0
 11
9338.500000000001
 21
8017.974495452941
 31
0.0
  0
LINE
  5
1A037
330
747D
100
AcDbEntity
  8
部品1
 48
50.0
100
AcDbLine
 10
9738.500000000001
 20
8217.97449545294
 30
0.0
 11
9738.500000000001
 21
8017.974495452941
 31
0.0
  0
DIMENSION
  5
1A038
330
747D
100
AcDbEntity
  8
寸法
 48
50.0
100
AcDbDimension
  2
*D16
 10
12075.5
 20
8312.974495452939
 30
0.0
 11
12075.5
 21
8605.677515121902
 31
0.0
 70
   160
  1
(<>)
 71
     5
 42
94.99999999999818
  3
INABA_S50G
100
AcDbAlignedDimension
 13
11365.5
 23
8217.97449545294
 33
0.0
 14
11275.5
 24
8312.974495452939
 34
0.0
 50
90.0
100
AcDbRotatedDimension
  0
LEADER
  5
1A039
330
747D
100
AcDbEntity
  8
寸法
 48
50.0
100
AcDbLeader
  3
INABA_S50G
 73
     0
 74
     0
 75
     1
 40
150.0
 41
840.0
 76
     3
 10
10279.5
 20
8312.974495452941
 30
0.0
 10
10494.15206936182
 20
8514.748315628182
 30
0.0
 10
10619.15206936182
 20
8514.748315628182
 30
0.0
340
1A03A
1001
ACAD
1000
DSTYLE
1002
{
1070
   341
1005
0
1070
    40
1040
1.0
1070
   343
1005
0
1070
   344
1005
0
1002
}
  0
MTEXT
  5
1A03A
102
{ACAD_REACTORS
330
1A039
102
}
330
747D
100
AcDbEntity
  8
部品1
 62
     7
 48
50.0
100
AcDbMText
 10
11484.15206936182
 20
8614.748315628181
 30
0.0
 40
150.0
 41
0.0
 71
     6
 72
     1
  1
\A1;屋根の外寸
  7
STYLE1
 73
     1
 44
1.0
1001
ACAD
1000
MTEXTBEGIN
1070
    73
1070
     1
1070
    44
1040
1.0
1070
    74
1070
     0
1000
MTEXTEND
  0
LINE
  5
1A03B
330
747D
100
AcDbEntity
  8
部品1
 48
50.0
100
AcDbLine
 10
11220.5
 20
8217.97449545294
 30
0.0
 11
10820.5
 21
8217.97449545294
 31
0.0
  0
LINE
  5
1A03C
330
747D
100
AcDbEntity
  8
部品1
 48
50.0
100
AcDbLine
 10
11220.5
 20
8017.974495452941
 30
0.0
 11
10820.5
 21
8017.974495452941
 31
0.0
  0
LINE
  5
1A03D
330
747D
100
AcDbEntity
  8
センター
 48
5.0
100
AcDbLine
 10
10279.5
 20
7711.974495452942
 30
0.0
 11
10279.5
 21
7421.974495452942
 31
0.0
  0
LINE
  5
1A03E
330
747D
100
AcDbEntity
  8
部品1
 48
50.0
100
AcDbLine
 10
10379.5
 20
7666.974495452942
 30
0.0
 11
10379.5
 21
7466.974495452942
 31
0.0
  0
LINE
  5
1A03F
330
747D
100
AcDbEntity
  8
部品1
 48
50.0
100
AcDbLine
 10
10179.5
 20
7466.974495452942
 30
0.0
 11
10179.5
 21
7666.974495452942
 31
0.0
  0
LINE
  5
1A040
330
747D
100
AcDbEntity
  8
部品1
 48
50.0
100
AcDbLine
 10
10379.5
 20
7466.974495452942
 30
0.0
 11
10179.5
 21
7466.974495452942
 31
0.0
  0
LINE
  5
1A041
330
747D
100
AcDbEntity
  8
センター
 48
5.0
100
AcDbLine
 10
10424.5
 20
7566.974495452942
 30
0.0
 11
10134.5
 21
7566.974495452942
 31
0.0
  0
LINE
  5
1A042
330
747D
100
AcDbEntity
  8
部品1
 48
50.0
100
AcDbLine
 10
10179.5
 20
7666.974495452942
 30
0.0
 11
10379.5
 21
7666.974495452942
 31
0.0
  0
LINE
  5
1A043
330
747D
100
AcDbEntity
  8
部品1
 48
50.0
100
AcDbLine
 10
10179.5
 20
8217.97449545294
 30
0.0
 11
10379.5
 21
8217.97449545294
 31
0.0
  0
LINE
  5
1A044
330
747D
100
AcDbEntity
  8
部品1
 48
50.0
100
AcDbLine
 10
10379.5
 20
8017.974495452941
 30
0.0
 11
10179.5
 21
8017.974495452941
 31
0.0
  0
LINE
  5
1A045
330
747D
100
AcDbEntity
  8
部品1
 48
50.0
100
AcDbLine
 10
10179.5
 20
8017.974495452941
 30
0.0
 11
10179.5
 21
8217.97449545294
 31
0.0
  0
LINE
  5
1A046
330
747D
100
AcDbEntity
  8
部品1
 48
50.0
100
AcDbLine
 10
10379.5
 20
8217.97449545294
 30
0.0
 11
10379.5
 21
8017.974495452941
 31
0.0
  0
LINE
  5
1A047
330
747D
100
AcDbEntity
  8
部品1
 48
50.0
100
AcDbLine
 10
10820.5
 20
8017.974495452941
 30
0.0
 11
10820.5
 21
8217.97449545294
 31
0.0
  0
LINE
  5
1A048
330
747D
100
AcDbEntity
  8
センター
 48
5.0
100
AcDbLine
 10
11365.5
 20
8217.97449545294
 30
0.0
 11
11075.5
 21
8217.97449545294
 31
0.0
  0
LINE
  5
1A049
330
747D
100
AcDbEntity
  8
センター
 48
5.0
100
AcDbLine
 10
11220.5
 20
8362.974495452942
 30
0.0
 11
11220.5
 21
8072.974495452942
 31
0.0
  0
LINE
  5
1A04A
330
747D
100
AcDbEntity
  8
点線
 48
10.0
100
AcDbLine
 10
11120.5
 20
8317.974495452942
 30
0.0
 11
11120.5
 21
8117.974495452941
 31
0.0
  0
LINE
  5
1A04B
330
747D
100
AcDbEntity
  8
点線
 48
10.0
100
AcDbLine
 10
11320.5
 20
8317.974495452942
 30
0.0
 11
11320.5
 21
8117.974495452941
 31
0.0
  0
LINE
  5
1A04C
330
747D
100
AcDbEntity
  8
点線
 48
10.0
100
AcDbLine
 10
11120.5
 20
8117.974495452941
 30
0.0
 11
11320.5
 21
8117.974495452941
 31
0.0
  0
LINE
  5
1A04D
330
747D
100
AcDbEntity
  8
部品1
 48
50.0
100
AcDbLine
 10
11220.5
 20
8017.974495452941
 30
0.0
 11
11220.5
 21
8217.97449545294
 31
0.0
  0
LINE
  5
1A04E
330
747D
100
AcDbEntity
  8
点線
 48
10.0
100
AcDbLine
 10
11120.5
 20
8317.974495452942
 30
0.0
 11
11320.5
 21
8317.974495452942
 31
0.0
  0
TEXT
  5
1A2D4
330
747D
100
AcDbEntity
  8
文字
 62
     7
 48
50.0
100
AcDbText
 10
18386.04187925633
 20
1047.815908841148
 30
0.0
 40
125.0
  1
～一般型･多雪地型～
  7
STYLE2
100
AcDbText
  0
ENDSEC
  0
SECTION
  2
OBJECTS
  0
DICTIONARY
  5
7471
330
0
100
AcDbDictionary
281
     1
  3
ACAD_COLOR
350
197BE
  3
ACAD_GROUP
350
7472
  3
ACAD_LAYOUT
350
197BF
  3
ACAD_MATERIAL
350
197BD
  3
ACAD_MLINESTYLE
350
7473
  3
ACAD_PLOTSETTINGS
350
197C0
  3
ACAD_PLOTSTYLENAME
350
197BB
  3
ACDBHEADERROUNDTRIPXREC
350
1A7DC
  3
ACDBVARIABLEDICTIONARY
350
1152B
  3
CONTENTDICTIONARY
350
E71C
  3
DRAWINGVARIABLESDICT
350
F3B9
  0
DICTIONARY
  5
197BE
102
{ACAD_REACTORS
330
7471
102
}
330
7471
100
AcDbDictionary
281
     1
  0
DICTIONARY
  5
7472
102
{ACAD_REACTORS
330
7471
102
}
330
7471
100
AcDbDictionary
281
     1
  3
*A1
350
1A548
  3
*A2
350
1A6FB
  0
DICTIONARY
  5
197BF
102
{ACAD_REACTORS
330
7471
102
}
330
7471
100
AcDbDictionary
281
     1
  3
Model
350
197C1
  3
レイアウト1
350
197C2
  0
DICTIONARY
  5
197BD
102
{ACAD_REACTORS
330
7471
102
}
330
7471
100
AcDbDictionary
281
     1
  0
DICTIONARY
  5
7473
102
{ACAD_REACTORS
330
7471
102
}
330
7471
100
AcDbDictionary
281
     1
  3
STANDARD
350
7480
  0
DICTIONARY
  5
197C0
102
{ACAD_REACTORS
330
7471
102
}
330
7471
100
AcDbDictionary
281
     1
  0
ACDBDICTIONARYWDFLT
  5
197BB
102
{ACAD_REACTORS
330
7471
102
}
330
7471
100
AcDbDictionary
281
     1
  3
Normal
350
197BC
100
AcDbDictionaryWithDefault
340
197BC
  0
DICTIONARY
  5
1A7DC
102
{ACAD_REACTORS
330
7471
102
}
330
7471
100
AcDbDictionary
281
     1
  3
COLORDICT
350
1A7DE
  3
MATERIALDICT
350
1A7DD
  0
DICTIONARY
  5
1152B
102
{ACAD_REACTORS
330
7471
102
}
330
7471
100
AcDbDictionary
281
     1
  3
DIMASSOC
350
1A7C7
  3
PROJECTNAME
350
1A7C8
  3
SORTENTS
350
1152C
  0
DICTIONARY
  5
E71C
102
{ACAD_REACTORS
330
7471
102
}
330
7471
100
AcDbDictionary
281
     1
  0
DICTIONARY
  5
F3B9
102
{ACAD_REACTORS
330
7471
102
}
330
7471
100
AcDbDictionary
281
     1
1001
DRAWINGVARIABLESXDATA
1000
POLARMODE
1000
1
  0
GROUP
  5
1A548
102
{ACAD_REACTORS
330
7472
102
}
330
7472
100
AcDbGroup
300

 70
     1
 71
     1
  0
GROUP
  5
1A6FB
102
{ACAD_REACTORS
330
7472
102
}
330
7472
100
AcDbGroup
300

 70
     1
 71
     1
  0
LAYOUT
  5
197C1
102
{ACAD_XDICTIONARY
360
1A7DF
102
}
102
{ACAD_REACTORS
330
197BF
102
}
330
197BF
100
AcDbPlotSettings
  1

  2
Microsoft Office Document Image Writer
  4

  6

 40
0.0
 41
0.0
 42
0.0
 43
0.0
 44
0.0
 45
0.0
 46
0.0
 47
0.0
 48
0.0
 49
0.0
140
0.0
141
0.0
142
1.0
143
1.0
 70
  1712
 72
     0
 73
     0
 74
     0
  7

 75
     0
147
1.0
148
0.0
149
0.0
100
AcDbLayout
  1
Model
 70
     1
 71
     0
 10
0.0
 20
0.0
 11
12.0
 21
9.0
 12
0.0
 22
0.0
 32
0.0
 14
0.0
 24
0.0
 34
0.0
 15
0.0
 25
0.0
 35
0.0
146
0.0
 13
0.0
 23
0.0
 33
0.0
 16
1.0
 26
0.0
 36
0.0
 17
0.0
 27
1.0
 37
0.0
 76
     0
330
747D
  0
LAYOUT
  5
197C2
102
{ACAD_XDICTIONARY
360
1A7E1
102
}
102
{ACAD_REACTORS
330
197BF
102
}
330
197BF
100
AcDbPlotSettings
  1

  2
Microsoft Office Document Image Writer
  4

  6

 40
0.0
 41
0.0
 42
0.0
 43
0.0
 44
0.0
 45
0.0
 46
0.0
 47
0.0
 48
0.0
 49
0.0
140
0.0
141
0.0
142
1.0
143
1.0
 70
   688
 72
     0
 73
     0
 74
     5
  7

 75
    16
147
1.0
148
0.0
149
0.0
100
AcDbLayout
  1
レイアウト1
 70
     0
 71
     1
 10
0.0
 20
0.0
 11
420.0
 21
297.0
 12
0.0
 22
0.0
 32
0.0
 14
1.000000000000000E+20
 24
1.000000000000000E+20
 34
1.000000000000000E+20
 15
-1.000000000000000E+20
 25
-1.000000000000000E+20
 35
-1.000000000000000E+20
146
0.0
 13
0.0
 23
0.0
 33
0.0
 16
1.0
 26
0.0
 36
0.0
 17
0.0
 27
1.0
 37
0.0
 76
     0
330
747A
  0
MLINESTYLE
  5
7480
102
{ACAD_REACTORS
330
7473
102
}
330
7473
100
AcDbMlineStyle
  2
STANDARD
 70
     0
  3

 62
     0
 51
90.0
 52
90.0
 71
     2
 49
0.5
 62
   256
  6
BYLAYER
 49
-0.5
 62
   256
  6
BYLAYER
  0
ACDBPLACEHOLDER
  5
197BC
102
{ACAD_REACTORS
330
197BB
102
}
330
197BB
  0
XRECORD
  5
1A7DE
102
{ACAD_REACTORS
330
1A7DC
102
}
330
1A7DC
100
AcDbXrecord
280
     1
340
197BE
  0
XRECORD
  5
1A7DD
102
{ACAD_REACTORS
330
1A7DC
102
}
330
1A7DC
100
AcDbXrecord
280
     1
340
197BD
  0
DICTIONARYVAR
  5
1A7C7
102
{ACAD_REACTORS
330
1152B
102
}
330
1152B
100
DictionaryVariables
280
     0
  1
1
  0
DICTIONARYVAR
  5
1A7C8
102
{ACAD_REACTORS
330
1152B
102
}
330
1152B
100
DictionaryVariables
280
     0
  1

  0
DICTIONARYVAR
  5
1152C
102
{ACAD_REACTORS
330
1152B
102
}
330
1152B
100
DictionaryVariables
280
     0
  1
96
  0
DICTIONARY
  5
1A7DF
330
197C1
100
AcDbDictionary
280
     1
281
     1
  3
ACAD_XREC_ROUNDTRIP
360
1A7E0
  0
DICTIONARY
  5
1A7E1
330
197C2
100
AcDbDictionary
280
     1
281
     1
  3
ACAD_XREC_ROUNDTRIP
360
1A7E2
  0
XRECORD
  5
1A7E0
102
{ACAD_REACTORS
330
1A7DF
102
}
330
1A7DF
100
AcDbXrecord
280
     1
102
SHADEPLOT
 70
     0
102
SHADEPLOTRESLEVEL
 70
     2
102
SHADEPLOTCUSTOMDPI
 70
   300
  0
XRECORD
  5
1A7E2
102
{ACAD_REACTORS
330
1A7E1
102
}
330
1A7E1
100
AcDbXrecord
280
     1
102
SHADEPLOT
 70
     0
102
SHADEPLOTRESLEVEL
 70
     2
102
SHADEPLOTCUSTOMDPI
 70
   300
  0
ENDSEC
  0
EOF
