  0
SECTION
  2
HEADER
  9
$ACADVER
  1
AC1018
  9
$ACADMAINTVER
 70
     0
  9
$DWGCODEPAGE
  3
ANSI_932
  9
$INSBASE
 10
0.0
 20
0.0
 30
0.0
  9
$EXTMIN
 10
173.9960207766853
 20
-0.4531514603331744
 30
-0.0015258207003583
  9
$EXTMAX
 10
20385.40654231959
 20
14262.44433931126
 30
0.0000000349246037
  9
$LIMMIN
 10
0.0
 20
0.0
  9
$LIMMAX
 10
21000.0
 20
14850.0
  9
$ORTHOMODE
 70
     0
  9
$REGENMODE
 70
     1
  9
$FILLMODE
 70
     1
  9
$QTEXTMODE
 70
     0
  9
$MIRRTEXT
 70
     1
  9
$LTSCALE
 40
20.0
  9
$ATTMODE
 70
     1
  9
$TEXTSIZE
 40
150.0
  9
$TRACEWID
 40
1.0
  9
$TEXTSTYLE
  7
STYLE1
  9
$CLAYER
  8
寸法
  9
$CELTYPE
  6
BYLAYER
  9
$CECOLOR
 62
   256
  9
$CELTSCALE
 40
50.0
  9
$DISPSILH
 70
     0
  9
$DIMSCALE
 40
1.0
  9
$DIMASZ
 40
125.0
  9
$DIMEXO
 40
25.0
  9
$DIMDLI
 40
7.0
  9
$DIMRND
 40
0.0
  9
$DIMDLE
 40
0.0
  9
$DIMEXE
 40
75.0
  9
$DIMTP
 40
0.0
  9
$DIMTM
 40
0.0
  9
$DIMTXT
 40
150.0
  9
$DIMCEN
 40
0.0
  9
$DIMTSZ
 40
0.0
  9
$DIMTOL
 70
     0
  9
$DIMLIM
 70
     0
  9
$DIMTIH
 70
     0
  9
$DIMTOH
 70
     0
  9
$DIMSE1
 70
     0
  9
$DIMSE2
 70
     0
  9
$DIMTAD
 70
     3
  9
$DIMZIN
 70
     8
  9
$DIMBLK
  1

  9
$DIMASO
 70
     1
  9
$DIMSHO
 70
     1
  9
$DIMPOST
  1

  9
$DIMAPOST
  1

  9
$DIMALT
 70
     0
  9
$DIMALTD
 70
     2
  9
$DIMALTF
 40
0.0394
  9
$DIMLFAC
 40
1.0
  9
$DIMTOFL
 70
     1
  9
$DIMTVP
 40
0.0
  9
$DIMTIX
 70
     1
  9
$DIMSOXD
 70
     1
  9
$DIMSAH
 70
     1
  9
$DIMBLK1
  1
DOTSMALL
  9
$DIMBLK2
  1
DOTSMALL
  9
$DIMSTYLE
  2
INABA_S50G
  9
$DIMCLRD
 70
     0
  9
$DIMCLRE
 70
     0
  9
$DIMCLRT
 70
     7
  9
$DIMTFAC
 40
1.0
  9
$DIMGAP
 40
25.0
  9
$DIMJUST
 70
     0
  9
$DIMSD1
 70
     0
  9
$DIMSD2
 70
     0
  9
$DIMTOLJ
 70
     1
  9
$DIMTZIN
 70
     0
  9
$DIMALTZ
 70
     0
  9
$DIMALTTZ
 70
     0
  9
$DIMUPT
 70
     0
  9
$DIMDEC
 70
     1
  9
$DIMTDEC
 70
     4
  9
$DIMALTU
 70
     2
  9
$DIMALTTD
 70
     2
  9
$DIMTXSTY
  7
STYLE1
  9
$DIMAUNIT
 70
     0
  9
$DIMADEC
 70
     0
  9
$DIMALTRND
 40
0.0
  9
$DIMAZIN
 70
     0
  9
$DIMDSEP
 70
    46
  9
$DIMATFIT
 70
     3
  9
$DIMFRAC
 70
     0
  9
$DIMLDRBLK
  1
DOTSMALL
  9
$DIMLUNIT
 70
     2
  9
$DIMLWD
 70
    -2
  9
$DIMLWE
 70
    -2
  9
$DIMTMOVE
 70
     0
  9
$LUNITS
 70
     2
  9
$LUPREC
 70
     1
  9
$SKETCHINC
 40
1.0
  9
$FILLETRAD
 40
200.0
  9
$AUNITS
 70
     0
  9
$AUPREC
 70
     0
  9
$MENU
  1
acad
  9
$ELEVATION
 40
0.0
  9
$PELEVATION
 40
0.0
  9
$THICKNESS
 40
0.0
  9
$LIMCHECK
 70
     0
  9
$CHAMFERA
 40
0.0
  9
$CHAMFERB
 40
0.0
  9
$CHAMFERC
 40
30.0
  9
$CHAMFERD
 40
0.7853981633974483
  9
$SKPOLY
 70
     0
  9
$TDCREATE
 40
2450927.380327778
  9
$TDUCREATE
 40
2450927.005327778
  9
$TDUPDATE
 40
2454882.453957419
  9
$TDUUPDATE
 40
2454882.078957419
  9
$TDINDWG
 40
1.9936596412
  9
$TDUSRTIMER
 40
1.9936585532
  9
$USRTIMER
 70
     1
  9
$ANGBASE
 50
0.0
  9
$ANGDIR
 70
     0
  9
$PDMODE
 70
     3
  9
$PDSIZE
 40
2.0
  9
$PLINEWID
 40
0.0
  9
$SPLFRAME
 70
     0
  9
$SPLINETYPE
 70
     6
  9
$SPLINESEGS
 70
     8
  9
$HANDSEED
  5
1DC32
  9
$SURFTAB1
 70
     6
  9
$SURFTAB2
 70
     6
  9
$SURFTYPE
 70
     6
  9
$SURFU
 70
     6
  9
$SURFV
 70
     6
  9
$UCSBASE
  2

  9
$UCSNAME
  2

  9
$UCSORG
 10
0.0
 20
0.0
 30
0.0
  9
$UCSXDIR
 10
1.0
 20
0.0
 30
0.0
  9
$UCSYDIR
 10
0.0
 20
1.0
 30
0.0
  9
$UCSORTHOREF
  2

  9
$UCSORTHOVIEW
 70
     0
  9
$UCSORGTOP
 10
0.0
 20
0.0
 30
0.0
  9
$UCSORGBOTTOM
 10
0.0
 20
0.0
 30
0.0
  9
$UCSORGLEFT
 10
0.0
 20
0.0
 30
0.0
  9
$UCSORGRIGHT
 10
0.0
 20
0.0
 30
0.0
  9
$UCSORGFRONT
 10
0.0
 20
0.0
 30
0.0
  9
$UCSORGBACK
 10
0.0
 20
0.0
 30
0.0
  9
$PUCSBASE
  2

  9
$PUCSNAME
  2

  9
$PUCSORG
 10
0.0
 20
0.0
 30
0.0
  9
$PUCSXDIR
 10
1.0
 20
0.0
 30
0.0
  9
$PUCSYDIR
 10
0.0
 20
1.0
 30
0.0
  9
$PUCSORTHOREF
  2

  9
$PUCSORTHOVIEW
 70
     0
  9
$PUCSORGTOP
 10
0.0
 20
0.0
 30
0.0
  9
$PUCSORGBOTTOM
 10
0.0
 20
0.0
 30
0.0
  9
$PUCSORGLEFT
 10
0.0
 20
0.0
 30
0.0
  9
$PUCSORGRIGHT
 10
0.0
 20
0.0
 30
0.0
  9
$PUCSORGFRONT
 10
0.0
 20
0.0
 30
0.0
  9
$PUCSORGBACK
 10
0.0
 20
0.0
 30
0.0
  9
$USERI1
 70
     0
  9
$USERI2
 70
     0
  9
$USERI3
 70
     0
  9
$USERI4
 70
     0
  9
$USERI5
 70
     0
  9
$USERR1
 40
0.0
  9
$USERR2
 40
0.0
  9
$USERR3
 40
0.0
  9
$USERR4
 40
0.0
  9
$USERR5
 40
0.0
  9
$WORLDVIEW
 70
     1
  9
$SHADEDGE
 70
     3
  9
$SHADEDIF
 70
    70
  9
$TILEMODE
 70
     1
  9
$MAXACTVP
 70
    16
  9
$PINSBASE
 10
0.0
 20
0.0
 30
0.0
  9
$PLIMCHECK
 70
     0
  9
$PEXTMIN
 10
1.000000000000000E+20
 20
1.000000000000000E+20
 30
1.000000000000000E+20
  9
$PEXTMAX
 10
-1.000000000000000E+20
 20
-1.000000000000000E+20
 30
-1.000000000000000E+20
  9
$PLIMMIN
 10
0.0
 20
0.0
  9
$PLIMMAX
 10
420.0
 20
297.0
  9
$UNITMODE
 70
     0
  9
$VISRETAIN
 70
     0
  9
$PLINEGEN
 70
     0
  9
$PSLTSCALE
 70
     0
  9
$TREEDEPTH
 70
  3020
  9
$CMLSTYLE
  2
STANDARD
  9
$CMLJUST
 70
     0
  9
$CMLSCALE
 40
1.0
  9
$PROXYGRAPHICS
 70
     1
  9
$MEASUREMENT
 70
     1
  9
$CELWEIGHT
370
    -1
  9
$ENDCAPS
280
     0
  9
$JOINSTYLE
280
     0
  9
$LWDISPLAY
290
     0
  9
$INSUNITS
 70
     0
  9
$HYPERLINKBASE
  1

  9
$STYLESHEET
  1

  9
$XEDIT
290
     1
  9
$CEPSNTYPE
380
     0
  9
$PSTYLEMODE
290
     1
  9
$FINGERPRINTGUID
  2
{3A4AED84-7EBA-410B-8392-E919531848B6}
  9
$VERSIONGUID
  2
{CAB90D14-C3BB-4F6D-938C-292609A13CF4}
  9
$EXTNAMES
290
     1
  9
$PSVPSCALE
 40
0.0
  9
$OLESTARTUP
290
     0
  9
$SORTENTS
280
    96
  9
$INDEXCTL
280
     0
  9
$HIDETEXT
280
     0
  9
$XCLIPFRAME
290
     0
  9
$HALOGAP
280
     0
  9
$OBSCOLOR
 70
   257
  9
$OBSLTYPE
280
     0
  9
$INTERSECTIONDISPLAY
280
     0
  9
$INTERSECTIONCOLOR
 70
   257
  9
$DIMASSOC
280
     1
  9
$PROJECTNAME
  1

  0
ENDSEC
  0
SECTION
  2
CLASSES
  0
CLASS
  1
DICTIONARYVAR
  2
AcDbDictionaryVar
  3
ObjectDBX Classes
 90
        0
 91
        1
280
     0
281
     0
  0
CLASS
  1
ACDBDICTIONARYWDFLT
  2
AcDbDictionaryWithDefault
  3
ObjectDBX Classes
 90
        0
 91
        1
280
     0
281
     0
  0
ENDSEC
  0
SECTION
  2
TABLES
  0
TABLE
  2
VPORT
  5
746D
330
0
100
AcDbSymbolTable
 70
     3
  0
VPORT
  5
1DC31
330
746D
100
AcDbSymbolTableRecord
100
AcDbViewportTableRecord
  2
*Active
 70
     0
 10
0.0
 20
0.0
 11
1.0
 21
1.0
 12
10279.70128154813
 22
7130.995593925466
 13
0.0
 23
0.0
 14
10.0
 24
10.0
 15
10.0
 25
10.0
 16
0.0
 26
0.0
 36
1.0
 17
0.0
 27
0.0
 37
0.0
 40
17694.81119003843
 41
1.149397590361445
 42
50.0
 43
0.0
 44
0.0
 50
0.0
 51
0.0
 71
     0
 72
     0
 73
     1
 74
     0
 75
     0
 76
     0
 77
     0
 78
     0
281
     0
 65
     1
110
0.0
120
0.0
130
0.0
111
1.0
121
0.0
131
0.0
112
0.0
122
1.0
132
0.0
 79
     0
146
0.0
  0
ENDTAB
  0
TABLE
  2
LTYPE
  5
746A
330
0
100
AcDbSymbolTable
 70
     4
  0
LTYPE
  5
7477
330
746A
100
AcDbSymbolTableRecord
100
AcDbLinetypeTableRecord
  2
BYBLOCK
 70
     0
  3

 72
    65
 73
     0
 40
0.0
  0
LTYPE
  5
7478
330
746A
100
AcDbSymbolTableRecord
100
AcDbLinetypeTableRecord
  2
BYLAYER
 70
     0
  3

 72
    65
 73
     0
 40
0.0
  0
LTYPE
  5
7479
330
746A
100
AcDbSymbolTableRecord
100
AcDbLinetypeTableRecord
  2
CONTINUOUS
 70
     0
  3
Solid line
 72
    65
 73
     0
 40
0.0
  0
LTYPE
  5
7816
330
746A
100
AcDbSymbolTableRecord
100
AcDbLinetypeTableRecord
  2
CENTER
 70
     0
  3
____ _ ____ _ ____ _ ____ _ ____ _ ____ _ ____ 
 72
    65
 73
     4
 40
2.0
 49
1.25
 74
     0
 49
-0.25
 74
     0
 49
0.25
 74
     0
 49
-0.25
 74
     0
  0
LTYPE
  5
781B
330
746A
100
AcDbSymbolTableRecord
100
AcDbLinetypeTableRecord
  2
PHANTOM
 70
     0
  3
______  __  __  ______  __  __  ______  __  __ 
 72
    65
 73
     6
 40
2.5
 49
1.25
 74
     0
 49
-0.25
 74
     0
 49
0.25
 74
     0
 49
-0.25
 74
     0
 49
0.25
 74
     0
 49
-0.25
 74
     0
  0
LTYPE
  5
13F72
330
746A
100
AcDbSymbolTableRecord
100
AcDbLinetypeTableRecord
  2
HIDDEN
 70
     0
  3
__ __ __ __ __ __ __ __ __ __ __ __ __ __ __ __
 72
    65
 73
     2
 40
0.375
 49
0.25
 74
     0
 49
-0.125
 74
     0
  0
ENDTAB
  0
TABLE
  2
LAYER
  5
7467
330
0
100
AcDbSymbolTable
 70
    12
  0
LAYER
  5
7474
330
7467
100
AcDbSymbolTableRecord
100
AcDbLayerTableRecord
  2
0
 70
     0
 62
     7
  6
CONTINUOUS
370
    -3
390
1A1FA
  0
LAYER
  5
DEB2
330
7467
100
AcDbSymbolTableRecord
100
AcDbLayerTableRecord
  2
センター
 70
     0
 62
     3
  6
CENTER
370
    -3
390
1A1FA
  0
LAYER
  5
DEB3
330
7467
100
AcDbSymbolTableRecord
100
AcDbLayerTableRecord
  2
寸法
 70
     0
 62
     4
  6
CONTINUOUS
370
    -3
390
1A1FA
  0
LAYER
  5
DEB4
330
7467
100
AcDbSymbolTableRecord
100
AcDbLayerTableRecord
  2
部品1
 70
     0
 62
     7
  6
CONTINUOUS
370
    -3
390
1A1FA
  0
LAYER
  5
DEB5
330
7467
100
AcDbSymbolTableRecord
100
AcDbLayerTableRecord
  2
補助
 70
     0
 62
    -1
  6
CONTINUOUS
370
    -3
390
1A1FA
  0
LAYER
  5
DEB6
330
7467
100
AcDbSymbolTableRecord
100
AcDbLayerTableRecord
  2
文字
 70
     0
 62
     7
  6
CONTINUOUS
370
    -3
390
1A1FA
  0
LAYER
  5
F255
330
7467
100
AcDbSymbolTableRecord
100
AcDbLayerTableRecord
  2
DEFPOINTS
 70
     0
 62
     7
  6
CONTINUOUS
290
     0
370
    -3
390
1A1FA
  0
LAYER
  5
10B54
330
7467
100
AcDbSymbolTableRecord
100
AcDbLayerTableRecord
  2
仕様書枠
 70
     0
 62
   230
  6
CONTINUOUS
370
    -3
390
1A1FA
  0
LAYER
  5
13F73
330
7467
100
AcDbSymbolTableRecord
100
AcDbLayerTableRecord
  2
細線
 70
     0
 62
     5
  6
CONTINUOUS
370
    -3
390
1A1FA
  0
LAYER
  5
13F74
330
7467
100
AcDbSymbolTableRecord
100
AcDbLayerTableRecord
  2
点線
 70
     0
 62
     2
  6
HIDDEN
370
    -3
390
1A1FA
  0
LAYER
  5
1643F
330
7467
100
AcDbSymbolTableRecord
100
AcDbLayerTableRecord
  2
想像線
 70
     0
 62
     6
  6
PHANTOM
370
    -3
390
1A1FA
  0
LAYER
  5
18753
330
7467
100
AcDbSymbolTableRecord
100
AcDbLayerTableRecord
  2
Ｇ．Ｌ
 70
     0
 62
    30
  6
CONTINUOUS
370
    -3
390
1A1FA
  0
ENDTAB
  0
TABLE
  2
STYLE
  5
7468
330
0
100
AcDbSymbolTable
 70
     3
  0
STYLE
  5
7475
330
7468
100
AcDbSymbolTableRecord
100
AcDbTextStyleTableRecord
  2
STANDARD
 70
     0
 40
0.0
 41
1.0
 50
0.0
 71
     0
 42
4.0
  3
txt
  4
C:\AutoCAD LT\bigfont.shx
  0
STYLE
  5
F706
330
7468
100
AcDbSymbolTableRecord
100
AcDbTextStyleTableRecord
  2
STYLE1
 70
     0
 40
0.0
 41
1.0
 50
0.0
 71
     0
 42
150.0
  3
isocp.shx
  4
bigfont.shx
  0
STYLE
  5
103BF
330
7468
100
AcDbSymbolTableRecord
100
AcDbTextStyleTableRecord
  2
STYLE2
 70
     0
 40
0.0
 41
1.0
 50
0.0
 71
     0
 42
100.0
  3
MS PGothic.ttf
  4

1001
ACAD
1000
MS PGothic
1071
    32818
  0
ENDTAB
  0
TABLE
  2
VIEW
  5
746B
330
0
100
AcDbSymbolTable
 70
     0
  0
ENDTAB
  0
TABLE
  2
UCS
  5
746C
330
0
100
AcDbSymbolTable
 70
     0
  0
ENDTAB
  0
TABLE
  2
APPID
  5
746E
330
0
100
AcDbSymbolTable
 70
     6
  0
APPID
  5
7476
330
746E
100
AcDbSymbolTableRecord
100
AcDbRegAppTableRecord
  2
ACAD
 70
     0
  0
APPID
  5
DEA9
330
746E
100
AcDbSymbolTableRecord
100
AcDbRegAppTableRecord
  2
CONTENTBLOCKICON
 70
     0
  0
APPID
  5
DEAA
330
746E
100
AcDbSymbolTableRecord
100
AcDbRegAppTableRecord
  2
CONTENTBLOCKDESCRIPTION
 70
     0
  0
APPID
  5
E71D
330
746E
100
AcDbSymbolTableRecord
100
AcDbRegAppTableRecord
  2
CONTENTTABDATA
 70
     0
  0
APPID
  5
E71E
330
746E
100
AcDbSymbolTableRecord
100
AcDbRegAppTableRecord
  2
CONTENTCURRENTTAB
 70
     0
  0
APPID
  5
F3BA
330
746E
100
AcDbSymbolTableRecord
100
AcDbRegAppTableRecord
  2
DRAWINGVARIABLESXDATA
 70
     0
  0
ENDTAB
  0
TABLE
  2
DIMSTYLE
  5
746F
330
0
100
AcDbSymbolTable
 70
     2
100
AcDbDimStyleTable
 71
     0
  0
DIMSTYLE
105
7484
330
746F
100
AcDbSymbolTableRecord
100
AcDbDimStyleTableRecord
  2
JIS
 70
     0
 41
2.5
 42
1.0
 43
7.0
 44
1.0
 73
     0
 74
     0
 77
     1
 78
     8
140
2.5
141
0.0
143
0.0394
147
0.0
172
     1
174
     1
175
     1
340
7475
  0
DIMSTYLE
105
F71F
102
{ACAD_REACTORS
330
187F5
330
187F6
330
187F7
330
1882E
330
1D8F4
330
1D8F7
330
1D8F8
330
1D8FB
330
1D8FF
330
1D900
330
1D901
330
1D90D
330
1D90E
330
1D91D
330
1D91F
330
1D923
330
1D92B
102
}
330
746F
100
AcDbSymbolTableRecord
100
AcDbDimStyleTableRecord
  2
INABA_S50G
 70
     0
 41
125.0
 42
25.0
 43
7.0
 44
75.0
 73
     0
 74
     0
 77
     3
 78
     8
140
150.0
141
0.0
143
0.0394
147
25.0
172
     1
173
     1
174
     1
175
     1
178
     7
271
     1
340
F706
341
F770
343
F770
344
F770
  0
ENDTAB
  0
TABLE
  2
BLOCK_RECORD
  5
7466
330
0
100
AcDbSymbolTable
 70
    20
  0
BLOCK_RECORD
  5
747D
330
7466
100
AcDbSymbolTableRecord
100
AcDbBlockTableRecord
  2
*MODEL_SPACE
340
1A1FD
  0
BLOCK_RECORD
  5
747A
330
7466
100
AcDbSymbolTableRecord
100
AcDbBlockTableRecord
  2
*PAPER_SPACE
340
1A1FE
  0
BLOCK_RECORD
  5
F770
330
7466
100
AcDbSymbolTableRecord
100
AcDbBlockTableRecord
  2
_DOTSMALL
340
0
102
{BLKREFS
331
1DB55
331
1DB56
331
1DB5E
331
1DB5F
331
1DB67
331
1DB68
331
1DB70
331
1DB71
331
1DB7A
331
1DB7B
331
1DB84
331
1DB85
331
1DB8E
331
1DB8F
331
1DB98
331
1DB99
331
1DBA1
331
1DBA2
331
1DBAA
331
1DBAB
331
1DBB3
331
1DBB4
331
1DBBB
331
1DBBC
331
1DBC3
331
1DBC4
331
1DBCC
331
1DBCD
331
1DBDE
331
1DBDF
331
1DC0F
331
1DC10
331
1DC18
331
1DC19
331
1DC21
331
1DC22
331
1DC2B
331
1DC2C
102
}
  0
BLOCK_RECORD
  5
18892
330
7466
100
AcDbSymbolTableRecord
100
AcDbBlockTableRecord
  2
*D1
340
0
  0
BLOCK_RECORD
  5
1889E
330
7466
100
AcDbSymbolTableRecord
100
AcDbBlockTableRecord
  2
*D2
340
0
  0
BLOCK_RECORD
  5
188AA
330
7466
100
AcDbSymbolTableRecord
100
AcDbBlockTableRecord
  2
*D3
340
0
  0
BLOCK_RECORD
  5
188B7
330
7466
100
AcDbSymbolTableRecord
100
AcDbBlockTableRecord
  2
*D4
340
0
  0
BLOCK_RECORD
  5
188C3
330
7466
100
AcDbSymbolTableRecord
100
AcDbBlockTableRecord
  2
*D5
340
0
  0
BLOCK_RECORD
  5
188CF
330
7466
100
AcDbSymbolTableRecord
100
AcDbBlockTableRecord
  2
*D6
340
0
  0
BLOCK_RECORD
  5
1D942
330
7466
100
AcDbSymbolTableRecord
100
AcDbBlockTableRecord
  2
*D7
340
0
  0
BLOCK_RECORD
  5
1D94D
330
7466
100
AcDbSymbolTableRecord
100
AcDbBlockTableRecord
  2
*D8
340
0
  0
BLOCK_RECORD
  5
1D958
330
7466
100
AcDbSymbolTableRecord
100
AcDbBlockTableRecord
  2
*D9
340
0
  0
BLOCK_RECORD
  5
1D964
330
7466
100
AcDbSymbolTableRecord
100
AcDbBlockTableRecord
  2
*D10
340
0
  0
BLOCK_RECORD
  5
1D970
330
7466
100
AcDbSymbolTableRecord
100
AcDbBlockTableRecord
  2
*D11
340
0
  0
BLOCK_RECORD
  5
1D97C
330
7466
100
AcDbSymbolTableRecord
100
AcDbBlockTableRecord
  2
*D12
340
0
  0
BLOCK_RECORD
  5
1D989
330
7466
100
AcDbSymbolTableRecord
100
AcDbBlockTableRecord
  2
*D13
340
0
  0
BLOCK_RECORD
  5
1D996
330
7466
100
AcDbSymbolTableRecord
100
AcDbBlockTableRecord
  2
*D14
340
0
  0
BLOCK_RECORD
  5
1D9A3
330
7466
100
AcDbSymbolTableRecord
100
AcDbBlockTableRecord
  2
*D15
340
0
  0
BLOCK_RECORD
  5
1D9B0
330
7466
100
AcDbSymbolTableRecord
100
AcDbBlockTableRecord
  2
*D16
340
0
  0
BLOCK_RECORD
  5
1D9BC
330
7466
100
AcDbSymbolTableRecord
100
AcDbBlockTableRecord
  2
*D17
340
0
  0
BLOCK_RECORD
  5
1D9C8
330
7466
100
AcDbSymbolTableRecord
100
AcDbBlockTableRecord
  2
*D18
340
0
  0
BLOCK_RECORD
  5
1D9D4
330
7466
100
AcDbSymbolTableRecord
100
AcDbBlockTableRecord
  2
*D19
340
0
  0
ENDTAB
  0
ENDSEC
  0
SECTION
  2
BLOCKS
  0
BLOCK
  5
7489
330
747D
100
AcDbEntity
  8
0
100
AcDbBlockBegin
  2
*MODEL_SPACE
 70
     0
 10
0.0
 20
0.0
 30
0.0
  3
*MODEL_SPACE
  1

  0
ENDBLK
  5
748A
330
747D
100
AcDbEntity
  8
0
100
AcDbBlockEnd
  0
BLOCK
  5
7487
330
747A
100
AcDbEntity
 67
     1
  8
0
100
AcDbBlockBegin
  2
*PAPER_SPACE
 70
     0
 10
0.0
 20
0.0
 30
0.0
  3
*PAPER_SPACE
  1

  0
ENDBLK
  5
7488
330
747A
100
AcDbEntity
 67
     1
  8
0
100
AcDbBlockEnd
  0
BLOCK
  5
F771
330
F770
100
AcDbEntity
  8
0
 48
50.0
100
AcDbBlockBegin
  2
_DOTSMALL
 70
     0
 10
0.0
 20
0.0
 30
0.0
  3
_DOTSMALL
  1

  0
LWPOLYLINE
  5
F772
330
F770
100
AcDbEntity
  8
0
  6
ByBlock
 62
     0
 48
50.0
100
AcDbPolyline
 90
        2
 70
     1
 43
0.5
 10
-0.0625
 20
0.0
 42
1.0
 10
0.0625
 20
0.0
 42
1.0
  0
ENDBLK
  5
F776
330
F770
100
AcDbEntity
  8
0
 48
50.0
100
AcDbBlockEnd
  0
BLOCK
  5
188DB
330
18892
100
AcDbEntity
  8
0
 48
50.0
100
AcDbBlockBegin
  2
*D1
 70
     1
 10
0.0
 20
0.0
 30
0.0
  3
*D1
  1

  0
LINE
  5
1DC15
330
18892
100
AcDbEntity
  8
寸法
 62
     0
 48
50.0
370
    -2
100
AcDbLine
 10
12134.39291868346
 20
2029.373661269834
 30
0.0
 11
11703.67290371428
 21
2029.373661269834
 31
0.0
  0
LINE
  5
1DC16
330
18892
100
AcDbEntity
  8
寸法
 62
     0
 48
50.0
370
    -2
100
AcDbLine
 10
12090.39291868346
 20
1459.373661269833
 30
0.0
 11
11703.67290371428
 21
1459.373661269833
 31
0.0
  0
LINE
  5
1DC17
330
18892
100
AcDbEntity
  8
寸法
 62
     0
 48
50.0
370
    -2
100
AcDbLine
 10
11778.67290371428
 20
2029.373661269834
 30
0.0
 11
11778.67290371428
 21
1459.373661269833
 31
0.0
  0
INSERT
  5
1DC18
330
18892
100
AcDbEntity
  8
寸法
 62
     0
 48
50.0
370
    -2
100
AcDbBlockReference
  2
_DOTSMALL
 10
11778.67290371428
 20
2029.373661269834
 30
0.0
 41
125.0
 42
125.0
 43
125.0
 50
90.0
  0
INSERT
  5
1DC19
330
18892
100
AcDbEntity
  8
寸法
 62
     0
 48
50.0
370
    -2
100
AcDbBlockReference
  2
_DOTSMALL
 10
11778.67290371428
 20
1459.373661269833
 30
0.0
 41
125.0
 42
125.0
 43
125.0
 50
270.0
  0
MTEXT
  5
1DC1A
330
18892
100
AcDbEntity
  8
寸法
 62
     7
 48
50.0
100
AcDbMText
 10
11678.65813993475
 20
1744.373661269835
 30
0.0
 40
150.0
 41
0.0
 71
     5
 72
     1
  1
\A1;285
  7
STYLE1
 11
0.0000000000000001
 21
1.0
 31
0.0
 73
     1
 44
1.0
  0
POINT
  5
1DC1B
330
18892
100
AcDbEntity
  8
DEFPOINTS
 62
     0
 48
50.0
100
AcDbPoint
 10
12159.39291868346
 20
2029.373661269834
 30
0.0
  0
POINT
  5
1DC1C
330
18892
100
AcDbEntity
  8
DEFPOINTS
 62
     0
 48
50.0
100
AcDbPoint
 10
12115.39291868346
 20
1459.373661269833
 30
0.0
  0
POINT
  5
1DC1D
330
18892
100
AcDbEntity
  8
DEFPOINTS
 62
     0
 48
50.0
100
AcDbPoint
 10
11778.67290371428
 20
1459.373661269833
 30
0.0
  0
ENDBLK
  5
188E5
330
18892
100
AcDbEntity
  8
0
 48
50.0
100
AcDbBlockEnd
  0
BLOCK
  5
188E6
330
1889E
100
AcDbEntity
  8
0
 48
50.0
100
AcDbBlockBegin
  2
*D2
 70
     1
 10
0.0
 20
0.0
 30
0.0
  3
*D2
  1

  0
LINE
  5
1DC1E
330
1889E
100
AcDbEntity
  8
寸法
 62
     0
 48
50.0
370
    -2
100
AcDbLine
 10
11536.22057962788
 20
1749.373661269833
 30
0.0
 11
11421.26221710674
 21
1749.373661269833
 31
0.0
  0
LINE
  5
1DC1F
330
1889E
100
AcDbEntity
  8
寸法
 62
     0
 48
50.0
370
    -2
100
AcDbLine
 10
11946.39291868346
 20
1349.373661269834
 30
0.0
 11
11421.26221710674
 21
1349.373661269834
 31
0.0
  0
LINE
  5
1DC20
330
1889E
100
AcDbEntity
  8
寸法
 62
     0
 48
50.0
370
    -2
100
AcDbLine
 10
11496.26221710674
 20
1749.373661269833
 30
0.0
 11
11496.26221710674
 21
1349.373661269834
 31
0.0
  0
INSERT
  5
1DC21
330
1889E
100
AcDbEntity
  8
寸法
 62
     0
 48
50.0
370
    -2
100
AcDbBlockReference
  2
_DOTSMALL
 10
11496.26221710674
 20
1749.373661269833
 30
0.0
 41
125.0
 42
125.0
 43
125.0
 50
90.0
  0
INSERT
  5
1DC22
330
1889E
100
AcDbEntity
  8
寸法
 62
     0
 48
50.0
370
    -2
100
AcDbBlockReference
  2
_DOTSMALL
 10
11496.26221710674
 20
1349.373661269834
 30
0.0
 41
125.0
 42
125.0
 43
125.0
 50
270.0
  0
MTEXT
  5
1DC23
330
1889E
100
AcDbEntity
  8
寸法
 62
     7
 48
50.0
100
AcDbMText
 10
11396.24745332722
 20
1549.373661269835
 30
0.0
 40
150.0
 41
0.0
 71
     5
 72
     1
  1
\A1;200
  7
STYLE1
 11
0.0000000000000001
 21
1.0
 31
0.0
 73
     1
 44
1.0
  0
POINT
  5
1DC24
330
1889E
100
AcDbEntity
  8
DEFPOINTS
 62
     0
 48
50.0
100
AcDbPoint
 10
11561.22057962788
 20
1749.373661269833
 30
0.0
  0
POINT
  5
1DC25
330
1889E
100
AcDbEntity
  8
DEFPOINTS
 62
     0
 48
50.0
100
AcDbPoint
 10
11971.39291868346
 20
1349.373661269834
 30
0.0
  0
POINT
  5
1DC26
330
1889E
100
AcDbEntity
  8
DEFPOINTS
 62
     0
 48
50.0
100
AcDbPoint
 10
11496.26221710674
 20
1349.373661269834
 30
0.0
  0
ENDBLK
  5
188F0
330
1889E
100
AcDbEntity
  8
0
 48
50.0
100
AcDbBlockEnd
  0
BLOCK
  5
188F1
330
188AA
100
AcDbEntity
  8
0
 48
50.0
100
AcDbBlockBegin
  2
*D3
 70
     1
 10
0.0
 20
0.0
 30
0.0
  3
*D3
  1

  0
LINE
  5
1DC27
330
188AA
100
AcDbEntity
  8
寸法
 62
     0
 48
50.0
370
    -2
100
AcDbLine
 10
11753.67290371428
 20
1949.373661269834
 30
0.0
 11
11421.91093653513
 21
1949.373661269834
 31
0.0
  0
LINE
  5
1DC28
330
188AA
100
AcDbEntity
  8
寸法
 62
     0
 48
50.0
370
    -2
100
AcDbLine
 10
11536.22057962788
 20
1749.373661269833
 30
0.0
 11
11421.91093653513
 21
1749.373661269833
 31
0.0
  0
LINE
  5
1DC29
330
188AA
100
AcDbEntity
  8
寸法
 62
     0
 48
50.0
370
    -2
100
AcDbLine
 10
11496.91093653513
 20
1749.373661269833
 30
0.0
 11
11496.91093653513
 21
1949.373661269834
 31
0.0
  0
LINE
  5
1DC2A
330
188AA
100
AcDbEntity
  8
寸法
 62
     0
 48
50.0
370
    -2
100
AcDbLine
 10
11496.91093653513
 20
1949.373661269834
 30
0.0
 11
11496.91093653513
 21
2381.396299065108
 31
0.0
  0
INSERT
  5
1DC2B
330
188AA
100
AcDbEntity
  8
寸法
 62
     0
 48
50.0
370
    -2
100
AcDbBlockReference
  2
_DOTSMALL
 10
11496.91093653513
 20
1749.373661269833
 30
0.0
 41
125.0
 42
125.0
 43
125.0
 50
270.0
  0
INSERT
  5
1DC2C
330
188AA
100
AcDbEntity
  8
寸法
 62
     0
 48
50.0
370
    -2
100
AcDbBlockReference
  2
_DOTSMALL
 10
11496.91093653513
 20
1949.373661269834
 30
0.0
 41
125.0
 42
125.0
 43
125.0
 50
90.0
  0
MTEXT
  5
1DC2D
330
188AA
100
AcDbEntity
  8
寸法
 62
     7
 48
50.0
100
AcDbMText
 10
11396.91093653513
 20
2236.337243947
 30
0.0
 40
150.0
 41
0.0
 71
     5
 72
     1
  1
\A1;100
  7
STYLE1
 11
0.0000000000000001
 21
1.0
 31
0.0
 73
     1
 44
1.0
  0
POINT
  5
1DC2E
330
188AA
100
AcDbEntity
  8
DEFPOINTS
 62
     0
 48
50.0
100
AcDbPoint
 10
11778.67290371428
 20
1949.373661269834
 30
0.0
  0
POINT
  5
1DC2F
330
188AA
100
AcDbEntity
  8
DEFPOINTS
 62
     0
 48
50.0
100
AcDbPoint
 10
11561.22057962788
 20
1749.373661269833
 30
0.0
  0
POINT
  5
1DC30
330
188AA
100
AcDbEntity
  8
DEFPOINTS
 62
     0
 48
50.0
100
AcDbPoint
 10
11496.91093653513
 20
1749.373661269833
 30
0.0
  0
ENDBLK
  5
188FC
330
188AA
100
AcDbEntity
  8
0
 48
50.0
100
AcDbBlockEnd
  0
BLOCK
  5
188FD
330
188B7
100
AcDbEntity
  8
0
 48
50.0
100
AcDbBlockBegin
  2
*D4
 70
     1
 10
0.0
 20
0.0
 30
0.0
  3
*D4
  1

  0
LINE
  5
1DBDB
330
188B7
100
AcDbEntity
  8
寸法
 62
     0
 48
50.0
370
    -2
100
AcDbLine
 10
12489.69235086196
 20
1324.373661269834
 30
0.0
 11
12489.69235086196
 21
947.8906957845302
 31
0.0
  0
LINE
  5
1DBDC
330
188B7
100
AcDbEntity
  8
寸法
 62
     0
 48
50.0
370
    -2
100
AcDbLine
 10
12089.69235086196
 20
1324.373661269834
 30
0.0
 11
12089.69235086196
 21
947.8906957845302
 31
0.0
  0
LINE
  5
1DBDD
330
188B7
100
AcDbEntity
  8
寸法
 62
     0
 48
50.0
370
    -2
100
AcDbLine
 10
12489.69235086196
 20
1022.89069578453
 30
0.0
 11
12089.69235086196
 21
1022.89069578453
 31
0.0
  0
INSERT
  5
1DBDE
330
188B7
100
AcDbEntity
  8
寸法
 62
     0
 48
50.0
370
    -2
100
AcDbBlockReference
  2
_DOTSMALL
 10
12489.69235086196
 20
1022.89069578453
 30
0.0
 41
125.0
 42
125.0
 43
125.0
  0
INSERT
  5
1DBDF
330
188B7
100
AcDbEntity
  8
寸法
 62
     0
 48
50.0
370
    -2
100
AcDbBlockReference
  2
_DOTSMALL
 10
12089.69235086196
 20
1022.89069578453
 30
0.0
 41
125.0
 42
125.0
 43
125.0
 50
180.0
  0
MTEXT
  5
1DBE0
330
188B7
100
AcDbEntity
  8
寸法
 62
     7
 48
50.0
100
AcDbMText
 10
12289.69235086196
 20
1122.905459564057
 30
0.0
 40
150.0
 41
0.0
 71
     5
 72
     1
  1
\A1;200
  7
STYLE1
 73
     1
 44
1.0
  0
POINT
  5
1DBE1
330
188B7
100
AcDbEntity
  8
DEFPOINTS
 62
     0
 48
50.0
100
AcDbPoint
 10
12489.69235086196
 20
1349.373661269834
 30
0.0
  0
POINT
  5
1DBE2
330
188B7
100
AcDbEntity
  8
DEFPOINTS
 62
     0
 48
50.0
100
AcDbPoint
 10
12089.69235086196
 20
1349.373661269834
 30
0.0
  0
POINT
  5
1DBE3
330
188B7
100
AcDbEntity
  8
DEFPOINTS
 62
     0
 48
50.0
100
AcDbPoint
 10
12089.69235086196
 20
1022.89069578453
 30
0.0
  0
ENDBLK
  5
18907
330
188B7
100
AcDbEntity
  8
0
 48
50.0
100
AcDbBlockEnd
  0
BLOCK
  5
18908
330
188C3
100
AcDbEntity
  8
0
 48
50.0
100
AcDbBlockBegin
  2
*D5
 70
     1
 10
0.0
 20
0.0
 30
0.0
  3
*D5
  1

  0
LINE
  5
1DC0C
330
188C3
100
AcDbEntity
  8
寸法
 62
     0
 48
50.0
370
    -2
100
AcDbLine
 10
12371.39291868346
 20
1324.373661269834
 30
0.0
 11
12371.39291868346
 21
947.89069578453
 31
0.0
  0
LINE
  5
1DC0D
330
188C3
100
AcDbEntity
  8
寸法
 62
     0
 48
50.0
370
    -2
100
AcDbLine
 10
11971.39291868346
 20
1324.373661269834
 30
0.0
 11
11971.39291868346
 21
947.89069578453
 31
0.0
  0
LINE
  5
1DC0E
330
188C3
100
AcDbEntity
  8
寸法
 62
     0
 48
50.0
370
    -2
100
AcDbLine
 10
12371.39291868346
 20
1022.89069578453
 30
0.0
 11
11971.39291868346
 21
1022.89069578453
 31
0.0
  0
INSERT
  5
1DC0F
330
188C3
100
AcDbEntity
  8
寸法
 62
     0
 48
50.0
370
    -2
100
AcDbBlockReference
  2
_DOTSMALL
 10
12371.39291868346
 20
1022.89069578453
 30
0.0
 41
125.0
 42
125.0
 43
125.0
  0
INSERT
  5
1DC10
330
188C3
100
AcDbEntity
  8
寸法
 62
     0
 48
50.0
370
    -2
100
AcDbBlockReference
  2
_DOTSMALL
 10
11971.39291868346
 20
1022.89069578453
 30
0.0
 41
125.0
 42
125.0
 43
125.0
 50
180.0
  0
MTEXT
  5
1DC11
330
188C3
100
AcDbEntity
  8
寸法
 62
     7
 48
50.0
100
AcDbMText
 10
12171.39291868346
 20
1122.905459564057
 30
0.0
 40
150.0
 41
0.0
 71
     5
 72
     1
  1
\A1;200
  7
STYLE1
 73
     1
 44
1.0
  0
POINT
  5
1DC12
330
188C3
100
AcDbEntity
  8
DEFPOINTS
 62
     0
 48
50.0
100
AcDbPoint
 10
12371.39291868346
 20
1349.373661269834
 30
0.0
  0
POINT
  5
1DC13
330
188C3
100
AcDbEntity
  8
DEFPOINTS
 62
     0
 48
50.0
100
AcDbPoint
 10
11971.39291868346
 20
1349.373661269834
 30
0.0
  0
POINT
  5
1DC14
330
188C3
100
AcDbEntity
  8
DEFPOINTS
 62
     0
 48
50.0
100
AcDbPoint
 10
11971.39291868346
 20
1022.89069578453
 30
0.0
  0
ENDBLK
  5
18912
330
188C3
100
AcDbEntity
  8
0
 48
50.0
100
AcDbBlockEnd
  0
BLOCK
  5
18913
330
188CF
100
AcDbEntity
  8
0
 48
50.0
100
AcDbBlockBegin
  2
*D6
 70
     1
 10
0.0
 20
0.0
 30
0.0
  3
*D6
  1

  0
LINE
  5
1DBC9
330
188CF
100
AcDbEntity
  8
寸法
 62
     0
 48
50.0
370
    -2
100
AcDbLine
 10
11654.52001180637
 20
1749.373661269833
 30
0.0
 11
11539.56164928524
 21
1749.373661269833
 31
0.0
  0
LINE
  5
1DBCA
330
188CF
100
AcDbEntity
  8
寸法
 62
     0
 48
50.0
370
    -2
100
AcDbLine
 10
12064.69235086196
 20
1349.373661269834
 30
0.0
 11
11539.56164928524
 21
1349.373661269834
 31
0.0
  0
LINE
  5
1DBCB
330
188CF
100
AcDbEntity
  8
寸法
 62
     0
 48
50.0
370
    -2
100
AcDbLine
 10
11614.56164928524
 20
1749.373661269833
 30
0.0
 11
11614.56164928524
 21
1349.373661269834
 31
0.0
  0
INSERT
  5
1DBCC
330
188CF
100
AcDbEntity
  8
寸法
 62
     0
 48
50.0
370
    -2
100
AcDbBlockReference
  2
_DOTSMALL
 10
11614.56164928524
 20
1749.373661269833
 30
0.0
 41
125.0
 42
125.0
 43
125.0
 50
90.0
  0
INSERT
  5
1DBCD
330
188CF
100
AcDbEntity
  8
寸法
 62
     0
 48
50.0
370
    -2
100
AcDbBlockReference
  2
_DOTSMALL
 10
11614.56164928524
 20
1349.373661269834
 30
0.0
 41
125.0
 42
125.0
 43
125.0
 50
270.0
  0
MTEXT
  5
1DBCE
330
188CF
100
AcDbEntity
  8
寸法
 62
     7
 48
50.0
100
AcDbMText
 10
11514.54688550571
 20
1549.373661269835
 30
0.0
 40
150.0
 41
0.0
 71
     5
 72
     1
  1
\A1;200
  7
STYLE1
 11
0.0000000000000001
 21
1.0
 31
0.0
 73
     1
 44
1.0
  0
POINT
  5
1DBCF
330
188CF
100
AcDbEntity
  8
DEFPOINTS
 62
     0
 48
50.0
100
AcDbPoint
 10
11679.52001180637
 20
1749.373661269833
 30
0.0
  0
POINT
  5
1DBD0
330
188CF
100
AcDbEntity
  8
DEFPOINTS
 62
     0
 48
50.0
100
AcDbPoint
 10
12089.69235086196
 20
1349.373661269834
 30
0.0
  0
POINT
  5
1DBD1
330
188CF
100
AcDbEntity
  8
DEFPOINTS
 62
     0
 48
50.0
100
AcDbPoint
 10
11614.56164928524
 20
1349.373661269834
 30
0.0
  0
ENDBLK
  5
1891D
330
188CF
100
AcDbEntity
  8
0
 48
50.0
100
AcDbBlockEnd
  0
BLOCK
  5
1D94B
330
1D942
100
AcDbEntity
  8
0
 48
50.0
100
AcDbBlockBegin
  2
*D7
 70
     1
 10
0.0
 20
0.0
 30
0.0
  3
*D7
  1

  0
LINE
  5
1DBC1
330
1D942
100
AcDbEntity
  8
寸法
 62
     0
 48
50.0
370
    -2
100
AcDbLine
 10
11220.49999999999
 20
6229.955177899434
 30
0.0
 11
11220.49999999999
 21
5789.955177899423
 31
0.0
  0
LINE
  5
1DBC2
330
1D942
100
AcDbEntity
  8
寸法
 62
     0
 48
50.0
370
    -2
100
AcDbLine
 10
10279.49999999999
 20
5864.955177899423
 30
0.0
 11
11220.49999999999
 21
5864.955177899423
 31
0.0
  0
INSERT
  5
1DBC3
330
1D942
100
AcDbEntity
  8
寸法
 62
     0
 48
50.0
370
    -2
100
AcDbBlockReference
  2
_DOTSMALL
 10
10279.49999999999
 20
5864.955177899423
 30
0.0
 41
125.0
 42
125.0
 43
125.0
 50
180.0
  0
INSERT
  5
1DBC4
330
1D942
100
AcDbEntity
  8
寸法
 62
     0
 48
50.0
370
    -2
100
AcDbBlockReference
  2
_DOTSMALL
 10
11220.49999999999
 20
5864.955177899423
 30
0.0
 41
125.0
 42
125.0
 43
125.0
  0
MTEXT
  5
1DBC5
330
1D942
100
AcDbEntity
  8
寸法
 62
     7
 48
50.0
100
AcDbMText
 10
10749.99999999999
 20
5964.955177899422
 30
0.0
 40
150.0
 41
0.0
 71
     5
 72
     1
  1
\A1;941
  7
STYLE1
 73
     1
 44
1.0
  0
POINT
  5
1DBC6
330
1D942
100
AcDbEntity
  8
DEFPOINTS
 62
     0
 48
50.0
100
AcDbPoint
 10
10279.49999999999
 20
6905.955177899423
 30
0.0
  0
POINT
  5
1DBC7
330
1D942
100
AcDbEntity
  8
DEFPOINTS
 62
     0
 48
50.0
100
AcDbPoint
 10
11220.49999999999
 20
6254.955177899433
 30
0.0
  0
POINT
  5
1DBC8
330
1D942
100
AcDbEntity
  8
DEFPOINTS
 62
     0
 48
50.0
100
AcDbPoint
 10
11220.49999999999
 20
5864.955177899423
 30
0.0
  0
ENDBLK
  5
1D94C
330
1D942
100
AcDbEntity
  8
0
 48
50.0
100
AcDbBlockEnd
  0
BLOCK
  5
1D956
330
1D94D
100
AcDbEntity
  8
0
 48
50.0
100
AcDbBlockBegin
  2
*D8
 70
     1
 10
0.0
 20
0.0
 30
0.0
  3
*D8
  1

  0
LINE
  5
1DBB9
330
1D94D
100
AcDbEntity
  8
寸法
 62
     0
 48
50.0
370
    -2
100
AcDbLine
 10
9168.499999999999
 20
6399.955177899423
 30
0.0
 11
8508.499999999997
 21
6399.955177899423
 31
0.0
  0
LINE
  5
1DBBA
330
1D94D
100
AcDbEntity
  8
寸法
 62
     0
 48
50.0
370
    -2
100
AcDbLine
 10
8583.499999999999
 20
7050.955177899424
 30
0.0
 11
8583.499999999999
 21
6399.955177899423
 31
0.0
  0
INSERT
  5
1DBBB
330
1D94D
100
AcDbEntity
  8
寸法
 62
     0
 48
50.0
370
    -2
100
AcDbBlockReference
  2
_DOTSMALL
 10
8583.499999999999
 20
7050.955177899424
 30
0.0
 41
125.0
 42
125.0
 43
125.0
 50
90.0
  0
INSERT
  5
1DBBC
330
1D94D
100
AcDbEntity
  8
寸法
 62
     0
 48
50.0
370
    -2
100
AcDbBlockReference
  2
_DOTSMALL
 10
8583.499999999999
 20
6399.955177899423
 30
0.0
 41
125.0
 42
125.0
 43
125.0
 50
270.0
  0
MTEXT
  5
1DBBD
330
1D94D
100
AcDbEntity
  8
寸法
 62
     7
 48
50.0
100
AcDbMText
 10
8483.499999999997
 20
6725.455177899424
 30
0.0
 40
150.0
 41
0.0
 71
     5
 72
     1
  1
\A1;651
  7
STYLE1
 11
0.0000000000000001
 21
1.0
 31
0.0
 73
     1
 44
1.0
  0
POINT
  5
1DBBE
330
1D94D
100
AcDbEntity
  8
DEFPOINTS
 62
     0
 48
50.0
100
AcDbPoint
 10
10134.49999999999
 20
7050.955177899424
 30
0.0
  0
POINT
  5
1DBBF
330
1D94D
100
AcDbEntity
  8
DEFPOINTS
 62
     0
 48
50.0
100
AcDbPoint
 10
9193.499999999998
 20
6399.955177899423
 30
0.0
  0
POINT
  5
1DBC0
330
1D94D
100
AcDbEntity
  8
DEFPOINTS
 62
     0
 48
50.0
100
AcDbPoint
 10
8583.499999999999
 20
6399.955177899423
 30
0.0
  0
ENDBLK
  5
1D957
330
1D94D
100
AcDbEntity
  8
0
 48
50.0
100
AcDbBlockEnd
  0
BLOCK
  5
1D962
330
1D958
100
AcDbEntity
  8
0
 48
50.0
100
AcDbBlockBegin
  2
*D9
 70
     1
 10
0.0
 20
0.0
 30
0.0
  3
*D9
  1

  0
LINE
  5
1DBB0
330
1D958
100
AcDbEntity
  8
寸法
 62
     0
 48
50.0
370
    -2
100
AcDbLine
 10
11390.49999999999
 20
6399.955177899423
 30
0.0
 11
12150.49999999999
 21
6399.955177899423
 31
0.0
  0
LINE
  5
1DBB1
330
1D958
100
AcDbEntity
  8
寸法
 62
     0
 48
50.0
370
    -2
100
AcDbLine
 10
11390.49999999999
 20
7701.955177899434
 30
0.0
 11
12150.49999999999
 21
7701.955177899434
 31
0.0
  0
LINE
  5
1DBB2
330
1D958
100
AcDbEntity
  8
寸法
 62
     0
 48
50.0
370
    -2
100
AcDbLine
 10
12075.49999999999
 20
6399.955177899423
 30
0.0
 11
12075.49999999999
 21
7701.955177899434
 31
0.0
  0
INSERT
  5
1DBB3
330
1D958
100
AcDbEntity
  8
寸法
 62
     0
 48
50.0
370
    -2
100
AcDbBlockReference
  2
_DOTSMALL
 10
12075.49999999999
 20
6399.955177899423
 30
0.0
 41
125.0
 42
125.0
 43
125.0
 50
270.0
  0
INSERT
  5
1DBB4
330
1D958
100
AcDbEntity
  8
寸法
 62
     0
 48
50.0
370
    -2
100
AcDbBlockReference
  2
_DOTSMALL
 10
12075.49999999999
 20
7701.955177899434
 30
0.0
 41
125.0
 42
125.0
 43
125.0
 50
90.0
  0
MTEXT
  5
1DBB5
330
1D958
100
AcDbEntity
  8
寸法
 62
     7
 48
50.0
100
AcDbMText
 10
11975.48523622046
 20
7050.955177899431
 30
0.0
 40
150.0
 41
0.0
 71
     5
 72
     1
  1
\A1;1302
  7
STYLE1
 11
0.0000000000000001
 21
1.0
 31
0.0
 73
     1
 44
1.0
  0
POINT
  5
1DBB6
330
1D958
100
AcDbEntity
  8
DEFPOINTS
 62
     0
 48
50.0
100
AcDbPoint
 10
11365.49999999999
 20
6399.955177899423
 30
0.0
  0
POINT
  5
1DBB7
330
1D958
100
AcDbEntity
  8
DEFPOINTS
 62
     0
 48
50.0
100
AcDbPoint
 10
11365.49999999999
 20
7701.955177899434
 30
0.0
  0
POINT
  5
1DBB8
330
1D958
100
AcDbEntity
  8
DEFPOINTS
 62
     0
 48
50.0
100
AcDbPoint
 10
12075.49999999999
 20
7701.955177899434
 30
0.0
  0
ENDBLK
  5
1D963
330
1D958
100
AcDbEntity
  8
0
 48
50.0
100
AcDbBlockEnd
  0
BLOCK
  5
1D96E
330
1D964
100
AcDbEntity
  8
0
 48
50.0
100
AcDbBlockBegin
  2
*D10
 70
     1
 10
0.0
 20
0.0
 30
0.0
  3
*D10
  1

  0
LINE
  5
1DBA7
330
1D964
100
AcDbEntity
  8
寸法
 62
     0
 48
50.0
370
    -2
100
AcDbLine
 10
9338.499999999998
 20
6229.955177899434
 30
0.0
 11
9338.499999999998
 21
5789.955177899423
 31
0.0
  0
LINE
  5
1DBA8
330
1D964
100
AcDbEntity
  8
寸法
 62
     0
 48
50.0
370
    -2
100
AcDbLine
 10
10279.49999999999
 20
6309.955177899434
 30
0.0
 11
10279.49999999999
 21
5789.955177899423
 31
0.0
  0
LINE
  5
1DBA9
330
1D964
100
AcDbEntity
  8
寸法
 62
     0
 48
50.0
370
    -2
100
AcDbLine
 10
9338.499999999998
 20
5864.955177899423
 30
0.0
 11
10279.49999999999
 21
5864.955177899423
 31
0.0
  0
INSERT
  5
1DBAA
330
1D964
100
AcDbEntity
  8
寸法
 62
     0
 48
50.0
370
    -2
100
AcDbBlockReference
  2
_DOTSMALL
 10
9338.499999999998
 20
5864.955177899423
 30
0.0
 41
125.0
 42
125.0
 43
125.0
 50
180.0
  0
INSERT
  5
1DBAB
330
1D964
100
AcDbEntity
  8
寸法
 62
     0
 48
50.0
370
    -2
100
AcDbBlockReference
  2
_DOTSMALL
 10
10279.49999999999
 20
5864.955177899423
 30
0.0
 41
125.0
 42
125.0
 43
125.0
  0
MTEXT
  5
1DBAC
330
1D964
100
AcDbEntity
  8
寸法
 62
     7
 48
50.0
100
AcDbMText
 10
9809.0
 20
5964.955177899422
 30
0.0
 40
150.0
 41
0.0
 71
     5
 72
     1
  1
\A1;941
  7
STYLE1
 73
     1
 44
1.0
  0
POINT
  5
1DBAD
330
1D964
100
AcDbEntity
  8
DEFPOINTS
 62
     0
 48
50.0
100
AcDbPoint
 10
9338.499999999998
 20
6254.955177899433
 30
0.0
  0
POINT
  5
1DBAE
330
1D964
100
AcDbEntity
  8
DEFPOINTS
 62
     0
 48
50.0
100
AcDbPoint
 10
10279.49999999999
 20
6334.955177899434
 30
0.0
  0
POINT
  5
1DBAF
330
1D964
100
AcDbEntity
  8
DEFPOINTS
 62
     0
 48
50.0
100
AcDbPoint
 10
10279.49999999999
 20
5864.955177899423
 30
0.0
  0
ENDBLK
  5
1D96F
330
1D964
100
AcDbEntity
  8
0
 48
50.0
100
AcDbBlockEnd
  0
BLOCK
  5
1D97A
330
1D970
100
AcDbEntity
  8
0
 48
50.0
100
AcDbBlockBegin
  2
*D11
 70
     1
 10
0.0
 20
0.0
 30
0.0
  3
*D11
  1

  0
LINE
  5
1DB9E
330
1D970
100
AcDbEntity
  8
寸法
 62
     0
 48
50.0
370
    -2
100
AcDbLine
 10
9338.499999999998
 20
6229.955177899434
 30
0.0
 11
9338.499999999998
 21
5389.955177899437
 31
0.0
  0
LINE
  5
1DB9F
330
1D970
100
AcDbEntity
  8
寸法
 62
     0
 48
50.0
370
    -2
100
AcDbLine
 10
11220.49999999999
 20
6229.955177899434
 30
0.0
 11
11220.49999999999
 21
5389.955177899437
 31
0.0
  0
LINE
  5
1DBA0
330
1D970
100
AcDbEntity
  8
寸法
 62
     0
 48
50.0
370
    -2
100
AcDbLine
 10
9338.499999999998
 20
5464.955177899437
 30
0.0
 11
11220.49999999999
 21
5464.955177899437
 31
0.0
  0
INSERT
  5
1DBA1
330
1D970
100
AcDbEntity
  8
寸法
 62
     0
 48
50.0
370
    -2
100
AcDbBlockReference
  2
_DOTSMALL
 10
9338.499999999998
 20
5464.955177899437
 30
0.0
 41
125.0
 42
125.0
 43
125.0
 50
180.0
  0
INSERT
  5
1DBA2
330
1D970
100
AcDbEntity
  8
寸法
 62
     0
 48
50.0
370
    -2
100
AcDbBlockReference
  2
_DOTSMALL
 10
11220.49999999999
 20
5464.955177899437
 30
0.0
 41
125.0
 42
125.0
 43
125.0
  0
MTEXT
  5
1DBA3
330
1D970
100
AcDbEntity
  8
寸法
 62
     7
 48
50.0
100
AcDbMText
 10
10279.49999999999
 20
5564.969941678963
 30
0.0
 40
150.0
 41
0.0
 71
     5
 72
     1
  1
\A1;1882
  7
STYLE1
 73
     1
 44
1.0
  0
POINT
  5
1DBA4
330
1D970
100
AcDbEntity
  8
DEFPOINTS
 62
     0
 48
50.0
100
AcDbPoint
 10
9338.499999999998
 20
6254.955177899433
 30
0.0
  0
POINT
  5
1DBA5
330
1D970
100
AcDbEntity
  8
DEFPOINTS
 62
     0
 48
50.0
100
AcDbPoint
 10
11220.49999999999
 20
6254.955177899433
 30
0.0
  0
POINT
  5
1DBA6
330
1D970
100
AcDbEntity
  8
DEFPOINTS
 62
     0
 48
50.0
100
AcDbPoint
 10
11220.49999999999
 20
5464.955177899437
 30
0.0
  0
ENDBLK
  5
1D97B
330
1D970
100
AcDbEntity
  8
0
 48
50.0
100
AcDbBlockEnd
  0
BLOCK
  5
1D987
330
1D97C
100
AcDbEntity
  8
0
 48
50.0
100
AcDbBlockBegin
  2
*D12
 70
     1
 10
0.0
 20
0.0
 30
0.0
  3
*D12
  1

  0
LINE
  5
1DB94
330
1D97C
100
AcDbEntity
  8
寸法
 62
     0
 48
50.0
370
    -2
100
AcDbLine
 10
9168.499999999999
 20
6399.955177899423
 30
0.0
 11
8508.500000000003
 21
6399.955177899423
 31
0.0
  0
LINE
  5
1DB95
330
1D97C
100
AcDbEntity
  8
寸法
 62
     0
 48
50.0
370
    -2
100
AcDbLine
 10
9954.500000000001
 20
6334.955177899434
 30
0.0
 11
8508.500000000003
 21
6334.955177899434
 31
0.0
  0
LINE
  5
1DB96
330
1D97C
100
AcDbEntity
  8
寸法
 62
     0
 48
50.0
370
    -2
100
AcDbLine
 10
8583.5
 20
6399.955177899423
 30
0.0
 11
8583.5
 21
6334.955177899434
 31
0.0
  0
LINE
  5
1DB97
330
1D97C
100
AcDbEntity
  8
寸法
 62
     0
 48
50.0
370
    -2
100
AcDbLine
 10
8583.5
 20
6334.955177899434
 30
0.0
 11
8583.5
 21
5426.241974463827
 31
0.0
  0
INSERT
  5
1DB98
330
1D97C
100
AcDbEntity
  8
寸法
 62
     0
 48
50.0
370
    -2
100
AcDbBlockReference
  2
_DOTSMALL
 10
8583.5
 20
6399.955177899423
 30
0.0
 41
125.0
 42
125.0
 43
125.0
 50
90.0
  0
INSERT
  5
1DB99
330
1D97C
100
AcDbEntity
  8
寸法
 62
     0
 48
50.0
370
    -2
100
AcDbBlockReference
  2
_DOTSMALL
 10
8583.5
 20
6334.955177899434
 30
0.0
 41
125.0
 42
125.0
 43
125.0
 50
270.0
  0
MTEXT
  5
1DB9A
330
1D97C
100
AcDbEntity
  8
寸法
 62
     7
 48
50.0
100
AcDbMText
 10
8483.499999999997
 20
5818.098576181626
 30
0.0
 40
150.0
 41
0.0
 71
     5
 72
     1
  1
\A1;扉の出65
  7
STYLE1
 11
0.0000000000000001
 21
1.0
 31
0.0
 73
     1
 44
1.0
  0
POINT
  5
1DB9B
330
1D97C
100
AcDbEntity
  8
DEFPOINTS
 62
     0
 48
50.0
100
AcDbPoint
 10
9193.499999999998
 20
6399.955177899423
 30
0.0
  0
POINT
  5
1DB9C
330
1D97C
100
AcDbEntity
  8
DEFPOINTS
 62
     0
 48
50.0
100
AcDbPoint
 10
9979.500000000001
 20
6334.955177899434
 30
0.0
  0
POINT
  5
1DB9D
330
1D97C
100
AcDbEntity
  8
DEFPOINTS
 62
     0
 48
50.0
100
AcDbPoint
 10
8583.5
 20
6334.955177899434
 30
0.0
  0
ENDBLK
  5
1D988
330
1D97C
100
AcDbEntity
  8
0
 48
50.0
100
AcDbBlockEnd
  0
BLOCK
  5
1D994
330
1D989
100
AcDbEntity
  8
0
 48
50.0
100
AcDbBlockBegin
  2
*D13
 70
     1
 10
0.0
 20
0.0
 30
0.0
  3
*D13
  1

  0
LINE
  5
1DB8A
330
1D989
100
AcDbEntity
  8
寸法
 62
     0
 48
50.0
370
    -2
100
AcDbLine
 10
9283.499999999998
 20
6239.955177899423
 30
0.0
 11
9283.499999999998
 21
5389.955177899437
 31
0.0
  0
LINE
  5
1DB8B
330
1D989
100
AcDbEntity
  8
寸法
 62
     0
 48
50.0
370
    -2
100
AcDbLine
 10
9338.499999999998
 20
6229.955177899434
 30
0.0
 11
9338.499999999998
 21
5389.955177899437
 31
0.0
  0
LINE
  5
1DB8C
330
1D989
100
AcDbEntity
  8
寸法
 62
     0
 48
50.0
370
    -2
100
AcDbLine
 10
9338.499999999998
 20
5464.955177899437
 30
0.0
 11
9283.499999999998
 21
5464.955177899437
 31
0.0
  0
LINE
  5
1DB8D
330
1D989
100
AcDbEntity
  8
寸法
 62
     0
 48
50.0
370
    -2
100
AcDbLine
 10
9283.499999999998
 20
5464.955177899437
 30
0.0
 11
8823.618110236219
 21
5464.955177899437
 31
0.0
  0
INSERT
  5
1DB8E
330
1D989
100
AcDbEntity
  8
寸法
 62
     0
 48
50.0
370
    -2
100
AcDbBlockReference
  2
_DOTSMALL
 10
9338.499999999998
 20
5464.955177899437
 30
0.0
 41
125.0
 42
125.0
 43
125.0
  0
INSERT
  5
1DB8F
330
1D989
100
AcDbEntity
  8
寸法
 62
     0
 48
50.0
370
    -2
100
AcDbBlockReference
  2
_DOTSMALL
 10
9283.499999999998
 20
5464.955177899437
 30
0.0
 41
125.0
 42
125.0
 43
125.0
 50
180.0
  0
MTEXT
  5
1DB90
330
1D989
100
AcDbEntity
  8
寸法
 62
     7
 48
50.0
100
AcDbMText
 10
8991.059055118109
 20
5572.455177899435
 30
0.0
 40
150.0
 41
0.0
 71
     5
 72
     1
  1
\A1;(55)
  7
STYLE1
 73
     1
 44
1.0
  0
POINT
  5
1DB91
330
1D989
100
AcDbEntity
  8
DEFPOINTS
 62
     0
 48
50.0
100
AcDbPoint
 10
9283.499999999998
 20
6264.955177899423
 30
0.0
  0
POINT
  5
1DB92
330
1D989
100
AcDbEntity
  8
DEFPOINTS
 62
     0
 48
50.0
100
AcDbPoint
 10
9338.499999999998
 20
6254.955177899433
 30
0.0
  0
POINT
  5
1DB93
330
1D989
100
AcDbEntity
  8
DEFPOINTS
 62
     0
 48
50.0
100
AcDbPoint
 10
9338.499999999998
 20
5464.955177899437
 30
0.0
  0
ENDBLK
  5
1D995
330
1D989
100
AcDbEntity
  8
0
 48
50.0
100
AcDbBlockEnd
  0
BLOCK
  5
1D9A1
330
1D996
100
AcDbEntity
  8
0
 48
50.0
100
AcDbBlockBegin
  2
*D14
 70
     1
 10
0.0
 20
0.0
 30
0.0
  3
*D14
  1

  0
LINE
  5
1DB80
330
1D996
100
AcDbEntity
  8
寸法
 62
     0
 48
50.0
370
    -2
100
AcDbLine
 10
11390.49999999999
 20
6399.955177899423
 30
0.0
 11
12150.49999999999
 21
6399.955177899423
 31
0.0
  0
LINE
  5
1DB81
330
1D996
100
AcDbEntity
  8
寸法
 62
     0
 48
50.0
370
    -2
100
AcDbLine
 10
11300.5
 20
6264.955177899423
 30
0.0
 11
12150.49999999999
 21
6264.955177899423
 31
0.0
  0
LINE
  5
1DB82
330
1D996
100
AcDbEntity
  8
寸法
 62
     0
 48
50.0
370
    -2
100
AcDbLine
 10
12075.5
 20
6399.955177899423
 30
0.0
 11
12075.5
 21
6264.955177899423
 31
0.0
  0
LINE
  5
1DB83
330
1D996
100
AcDbEntity
  8
寸法
 62
     0
 48
50.0
370
    -2
100
AcDbLine
 10
12075.5
 20
6264.955177899423
 30
0.0
 11
12075.5
 21
5730.073288135642
 31
0.0
  0
INSERT
  5
1DB84
330
1D996
100
AcDbEntity
  8
寸法
 62
     0
 48
50.0
370
    -2
100
AcDbBlockReference
  2
_DOTSMALL
 10
12075.5
 20
6399.955177899423
 30
0.0
 41
125.0
 42
125.0
 43
125.0
 50
90.0
  0
INSERT
  5
1DB85
330
1D996
100
AcDbEntity
  8
寸法
 62
     0
 48
50.0
370
    -2
100
AcDbBlockReference
  2
_DOTSMALL
 10
12075.5
 20
6264.955177899423
 30
0.0
 41
125.0
 42
125.0
 43
125.0
 50
270.0
  0
MTEXT
  5
1DB86
330
1D996
100
AcDbEntity
  8
寸法
 62
     7
 48
50.0
100
AcDbMText
 10
11967.99999999999
 20
5935.014233017533
 30
0.0
 40
150.0
 41
0.0
 71
     5
 72
     1
  1
\A1;(135)
  7
STYLE1
 11
0.0000000000000001
 21
1.0
 31
0.0
 73
     1
 44
1.0
  0
POINT
  5
1DB87
330
1D996
100
AcDbEntity
  8
DEFPOINTS
 62
     0
 48
50.0
100
AcDbPoint
 10
11365.49999999999
 20
6399.955177899423
 30
0.0
  0
POINT
  5
1DB88
330
1D996
100
AcDbEntity
  8
DEFPOINTS
 62
     0
 48
50.0
100
AcDbPoint
 10
11275.5
 20
6264.955177899423
 30
0.0
  0
POINT
  5
1DB89
330
1D996
100
AcDbEntity
  8
DEFPOINTS
 62
     0
 48
50.0
100
AcDbPoint
 10
12075.5
 20
6264.955177899423
 30
0.0
  0
ENDBLK
  5
1D9A2
330
1D996
100
AcDbEntity
  8
0
 48
50.0
100
AcDbBlockEnd
  0
BLOCK
  5
1D9AE
330
1D9A3
100
AcDbEntity
  8
0
 48
50.0
100
AcDbBlockBegin
  2
*D15
 70
     1
 10
0.0
 20
0.0
 30
0.0
  3
*D15
  1

  0
LINE
  5
1DB76
330
1D9A3
100
AcDbEntity
  8
寸法
 62
     0
 48
50.0
370
    -2
100
AcDbLine
 10
11220.49999999999
 20
6229.955177899434
 30
0.0
 11
11220.49999999999
 21
5389.955177899437
 31
0.0
  0
LINE
  5
1DB77
330
1D9A3
100
AcDbEntity
  8
寸法
 62
     0
 48
50.0
370
    -2
100
AcDbLine
 10
11275.5
 20
6239.955177899423
 30
0.0
 11
11275.5
 21
5389.955177899437
 31
0.0
  0
LINE
  5
1DB78
330
1D9A3
100
AcDbEntity
  8
寸法
 62
     0
 48
50.0
370
    -2
100
AcDbLine
 10
11220.49999999999
 20
5464.955177899437
 30
0.0
 11
11275.5
 21
5464.955177899437
 31
0.0
  0
LINE
  5
1DB79
330
1D9A3
100
AcDbEntity
  8
寸法
 62
     0
 48
50.0
370
    -2
100
AcDbLine
 10
11275.5
 20
5464.955177899437
 30
0.0
 11
11735.38188976378
 21
5464.955177899437
 31
0.0
  0
INSERT
  5
1DB7A
330
1D9A3
100
AcDbEntity
  8
寸法
 62
     0
 48
50.0
370
    -2
100
AcDbBlockReference
  2
_DOTSMALL
 10
11220.49999999999
 20
5464.955177899437
 30
0.0
 41
125.0
 42
125.0
 43
125.0
 50
180.0
  0
INSERT
  5
1DB7B
330
1D9A3
100
AcDbEntity
  8
寸法
 62
     0
 48
50.0
370
    -2
100
AcDbBlockReference
  2
_DOTSMALL
 10
11275.5
 20
5464.955177899437
 30
0.0
 41
125.0
 42
125.0
 43
125.0
  0
MTEXT
  5
1DB7C
330
1D9A3
100
AcDbEntity
  8
寸法
 62
     7
 48
50.0
100
AcDbMText
 10
11567.94094488189
 20
5572.455177899435
 30
0.0
 40
150.0
 41
0.0
 71
     5
 72
     1
  1
\A1;(55)
  7
STYLE1
 73
     1
 44
1.0
  0
POINT
  5
1DB7D
330
1D9A3
100
AcDbEntity
  8
DEFPOINTS
 62
     0
 48
50.0
100
AcDbPoint
 10
11220.49999999999
 20
6254.955177899433
 30
0.0
  0
POINT
  5
1DB7E
330
1D9A3
100
AcDbEntity
  8
DEFPOINTS
 62
     0
 48
50.0
100
AcDbPoint
 10
11275.5
 20
6264.955177899423
 30
0.0
  0
POINT
  5
1DB7F
330
1D9A3
100
AcDbEntity
  8
DEFPOINTS
 62
     0
 48
50.0
100
AcDbPoint
 10
11275.5
 20
5464.955177899437
 30
0.0
  0
ENDBLK
  5
1D9AF
330
1D9A3
100
AcDbEntity
  8
0
 48
50.0
100
AcDbBlockEnd
  0
BLOCK
  5
1D9BA
330
1D9B0
100
AcDbEntity
  8
0
 48
50.0
100
AcDbBlockBegin
  2
*D16
 70
     1
 10
0.0
 20
0.0
 30
0.0
  3
*D16
  1

  0
LINE
  5
1DB6D
330
1D9B0
100
AcDbEntity
  8
寸法
 62
     0
 48
50.0
370
    -2
100
AcDbLine
 10
8808.499999999998
 20
7701.955177899434
 30
0.0
 11
8508.499999999997
 21
7701.955177899434
 31
0.0
  0
LINE
  5
1DB6E
330
1D9B0
100
AcDbEntity
  8
寸法
 62
     0
 48
50.0
370
    -2
100
AcDbLine
 10
10109.49999999999
 20
7050.955177899424
 30
0.0
 11
8508.499999999997
 21
7050.955177899424
 31
0.0
  0
LINE
  5
1DB6F
330
1D9B0
100
AcDbEntity
  8
寸法
 62
     0
 48
50.0
370
    -2
100
AcDbLine
 10
8583.499999999999
 20
7701.955177899434
 30
0.0
 11
8583.499999999999
 21
7050.955177899424
 31
0.0
  0
INSERT
  5
1DB70
330
1D9B0
100
AcDbEntity
  8
寸法
 62
     0
 48
50.0
370
    -2
100
AcDbBlockReference
  2
_DOTSMALL
 10
8583.499999999999
 20
7701.955177899434
 30
0.0
 41
125.0
 42
125.0
 43
125.0
 50
90.0
  0
INSERT
  5
1DB71
330
1D9B0
100
AcDbEntity
  8
寸法
 62
     0
 48
50.0
370
    -2
100
AcDbBlockReference
  2
_DOTSMALL
 10
8583.499999999999
 20
7050.955177899424
 30
0.0
 41
125.0
 42
125.0
 43
125.0
 50
270.0
  0
MTEXT
  5
1DB72
330
1D9B0
100
AcDbEntity
  8
寸法
 62
     7
 48
50.0
100
AcDbMText
 10
8483.499999999997
 20
7376.455177899429
 30
0.0
 40
150.0
 41
0.0
 71
     5
 72
     1
  1
\A1;651
  7
STYLE1
 11
0.0000000000000001
 21
1.0
 31
0.0
 73
     1
 44
1.0
  0
POINT
  5
1DB73
330
1D9B0
100
AcDbEntity
  8
DEFPOINTS
 62
     0
 48
50.0
100
AcDbPoint
 10
8833.499999999999
 20
7701.955177899434
 30
0.0
  0
POINT
  5
1DB74
330
1D9B0
100
AcDbEntity
  8
DEFPOINTS
 62
     0
 48
50.0
100
AcDbPoint
 10
10134.49999999999
 20
7050.955177899424
 30
0.0
  0
POINT
  5
1DB75
330
1D9B0
100
AcDbEntity
  8
DEFPOINTS
 62
     0
 48
50.0
100
AcDbPoint
 10
8583.499999999999
 20
7050.955177899424
 30
0.0
  0
ENDBLK
  5
1D9BB
330
1D9B0
100
AcDbEntity
  8
0
 48
50.0
100
AcDbBlockEnd
  0
BLOCK
  5
1D9C6
330
1D9BC
100
AcDbEntity
  8
0
 48
50.0
100
AcDbBlockBegin
  2
*D17
 70
     1
 10
0.0
 20
0.0
 30
0.0
  3
*D17
  1

  0
LINE
  5
1DB64
330
1D9BC
100
AcDbEntity
  8
寸法
 62
     0
 48
50.0
370
    -2
100
AcDbLine
 10
9438.499999999995
 20
7826.955177899423
 30
0.0
 11
9438.499999999995
 21
8171.955177899423
 31
0.0
  0
LINE
  5
1DB65
330
1D9BC
100
AcDbEntity
  8
寸法
 62
     0
 48
50.0
370
    -2
100
AcDbLine
 10
9238.499999999998
 20
7826.955177899423
 30
0.0
 11
9238.499999999998
 21
8171.955177899423
 31
0.0
  0
LINE
  5
1DB66
330
1D9BC
100
AcDbEntity
  8
寸法
 62
     0
 48
50.0
370
    -2
100
AcDbLine
 10
9438.499999999995
 20
8096.955177899422
 30
0.0
 11
9238.499999999998
 21
8096.955177899422
 31
0.0
  0
INSERT
  5
1DB67
330
1D9BC
100
AcDbEntity
  8
寸法
 62
     0
 48
50.0
370
    -2
100
AcDbBlockReference
  2
_DOTSMALL
 10
9438.499999999995
 20
8096.955177899422
 30
0.0
 41
125.0
 42
125.0
 43
125.0
  0
INSERT
  5
1DB68
330
1D9BC
100
AcDbEntity
  8
寸法
 62
     0
 48
50.0
370
    -2
100
AcDbBlockReference
  2
_DOTSMALL
 10
9238.499999999998
 20
8096.955177899422
 30
0.0
 41
125.0
 42
125.0
 43
125.0
 50
180.0
  0
MTEXT
  5
1DB69
330
1D9BC
100
AcDbEntity
  8
寸法
 62
     7
 48
50.0
100
AcDbMText
 10
9338.499999999998
 20
8196.969941678949
 30
0.0
 40
150.0
 41
0.0
 71
     5
 72
     1
  1
\A1;200
  7
STYLE1
 73
     1
 44
1.0
  0
POINT
  5
1DB6A
330
1D9BC
100
AcDbEntity
  8
DEFPOINTS
 62
     0
 48
50.0
100
AcDbPoint
 10
9438.499999999995
 20
7801.955177899422
 30
0.0
  0
POINT
  5
1DB6B
330
1D9BC
100
AcDbEntity
  8
DEFPOINTS
 62
     0
 48
50.0
100
AcDbPoint
 10
9238.499999999998
 20
7801.955177899422
 30
0.0
  0
POINT
  5
1DB6C
330
1D9BC
100
AcDbEntity
  8
DEFPOINTS
 62
     0
 48
50.0
100
AcDbPoint
 10
9238.499999999998
 20
8096.955177899422
 30
0.0
  0
ENDBLK
  5
1D9C7
330
1D9BC
100
AcDbEntity
  8
0
 48
50.0
100
AcDbBlockEnd
  0
BLOCK
  5
1D9D2
330
1D9C8
100
AcDbEntity
  8
0
 48
50.0
100
AcDbBlockBegin
  2
*D18
 70
     1
 10
0.0
 20
0.0
 30
0.0
  3
*D18
  1

  0
LINE
  5
1DB5B
330
1D9C8
100
AcDbEntity
  8
寸法
 62
     0
 48
50.0
370
    -2
100
AcDbLine
 10
9213.499999999998
 20
7801.955177899422
 30
0.0
 11
8908.499999999998
 21
7801.955177899422
 31
0.0
  0
LINE
  5
1DB5C
330
1D9C8
100
AcDbEntity
  8
寸法
 62
     0
 48
50.0
370
    -2
100
AcDbLine
 10
9213.499999999998
 20
7601.955177899434
 30
0.0
 11
8908.499999999998
 21
7601.955177899434
 31
0.0
  0
LINE
  5
1DB5D
330
1D9C8
100
AcDbEntity
  8
寸法
 62
     0
 48
50.0
370
    -2
100
AcDbLine
 10
8983.499999999997
 20
7801.955177899422
 30
0.0
 11
8983.499999999997
 21
7601.955177899434
 31
0.0
  0
INSERT
  5
1DB5E
330
1D9C8
100
AcDbEntity
  8
寸法
 62
     0
 48
50.0
370
    -2
100
AcDbBlockReference
  2
_DOTSMALL
 10
8983.499999999997
 20
7801.955177899422
 30
0.0
 41
125.0
 42
125.0
 43
125.0
 50
90.0
  0
INSERT
  5
1DB5F
330
1D9C8
100
AcDbEntity
  8
寸法
 62
     0
 48
50.0
370
    -2
100
AcDbBlockReference
  2
_DOTSMALL
 10
8983.499999999997
 20
7601.955177899434
 30
0.0
 41
125.0
 42
125.0
 43
125.0
 50
270.0
  0
MTEXT
  5
1DB60
330
1D9C8
100
AcDbEntity
  8
寸法
 62
     7
 48
50.0
100
AcDbMText
 10
8883.485236220471
 20
7701.95517789943
 30
0.0
 40
150.0
 41
0.0
 71
     5
 72
     1
  1
\A1;200
  7
STYLE1
 11
0.0000000000000001
 21
1.0
 31
0.0
 73
     1
 44
1.0
  0
POINT
  5
1DB61
330
1D9C8
100
AcDbEntity
  8
DEFPOINTS
 62
     0
 48
50.0
100
AcDbPoint
 10
9238.499999999998
 20
7801.955177899422
 30
0.0
  0
POINT
  5
1DB62
330
1D9C8
100
AcDbEntity
  8
DEFPOINTS
 62
     0
 48
50.0
100
AcDbPoint
 10
9238.499999999998
 20
7601.955177899434
 30
0.0
  0
POINT
  5
1DB63
330
1D9C8
100
AcDbEntity
  8
DEFPOINTS
 62
     0
 48
50.0
100
AcDbPoint
 10
8983.499999999997
 20
7601.955177899434
 30
0.0
  0
ENDBLK
  5
1D9D3
330
1D9C8
100
AcDbEntity
  8
0
 48
50.0
100
AcDbBlockEnd
  0
BLOCK
  5
1D9DF
330
1D9D4
100
AcDbEntity
  8
0
 48
50.0
100
AcDbBlockBegin
  2
*D19
 70
     1
 10
0.0
 20
0.0
 30
0.0
  3
*D19
  1

  0
LINE
  5
1DB51
330
1D9D4
100
AcDbEntity
  8
寸法
 62
     0
 48
50.0
370
    -2
100
AcDbLine
 10
11390.49999999999
 20
7701.955177899434
 30
0.0
 11
12150.49999999999
 21
7701.955177899434
 31
0.0
  0
LINE
  5
1DB52
330
1D9D4
100
AcDbEntity
  8
寸法
 62
     0
 48
50.0
370
    -2
100
AcDbLine
 10
11300.5
 20
7796.955177899414
 30
0.0
 11
12150.49999999999
 21
7796.955177899414
 31
0.0
  0
LINE
  5
1DB53
330
1D9D4
100
AcDbEntity
  8
寸法
 62
     0
 48
50.0
370
    -2
100
AcDbLine
 10
12075.5
 20
7701.955177899434
 30
0.0
 11
12075.5
 21
7796.955177899414
 31
0.0
  0
LINE
  5
1DB54
330
1D9D4
100
AcDbEntity
  8
寸法
 62
     0
 48
50.0
370
    -2
100
AcDbLine
 10
12075.5
 20
7796.955177899414
 30
0.0
 11
12075.5
 21
8257.361217237344
 31
0.0
  0
INSERT
  5
1DB55
330
1D9D4
100
AcDbEntity
  8
寸法
 62
     0
 48
50.0
370
    -2
100
AcDbBlockReference
  2
_DOTSMALL
 10
12075.5
 20
7701.955177899434
 30
0.0
 41
125.0
 42
125.0
 43
125.0
 50
270.0
  0
INSERT
  5
1DB56
330
1D9D4
100
AcDbEntity
  8
寸法
 62
     0
 48
50.0
370
    -2
100
AcDbBlockReference
  2
_DOTSMALL
 10
12075.5
 20
7796.955177899414
 30
0.0
 41
125.0
 42
125.0
 43
125.0
 50
90.0
  0
MTEXT
  5
1DB57
330
1D9D4
100
AcDbEntity
  8
寸法
 62
     7
 48
50.0
100
AcDbMText
 10
11967.96374807352
 20
8089.658197568384
 30
0.0
 40
150.0
 41
0.0
 71
     5
 72
     1
  1
\A1;(95)
  7
STYLE1
 11
0.0000000000000001
 21
1.0
 31
0.0
 73
     1
 44
1.0
  0
POINT
  5
1DB58
330
1D9D4
100
AcDbEntity
  8
DEFPOINTS
 62
     0
 48
50.0
100
AcDbPoint
 10
11365.49999999999
 20
7701.955177899434
 30
0.0
  0
POINT
  5
1DB59
330
1D9D4
100
AcDbEntity
  8
DEFPOINTS
 62
     0
 48
50.0
100
AcDbPoint
 10
11275.5
 20
7796.955177899414
 30
0.0
  0
POINT
  5
1DB5A
330
1D9D4
100
AcDbEntity
  8
DEFPOINTS
 62
     0
 48
50.0
100
AcDbPoint
 10
12075.5
 20
7796.955177899414
 30
0.0
  0
ENDBLK
  5
1D9E0
330
1D9D4
100
AcDbEntity
  8
0
 48
50.0
100
AcDbBlockEnd
  0
ENDSEC
  0
SECTION
  2
ENTITIES
  0
LINE
  5
10B56
330
747D
100
AcDbEntity
  8
補助
  6
PHANTOM
 62
     7
 48
50.0
100
AcDbLine
 10
175.0
 20
0.0
 30
0.0
 11
174.9999999999993
 21
14262.0
 31
0.0
  0
LINE
  5
10B57
330
747D
100
AcDbEntity
  8
補助
  6
PHANTOM
 62
     7
 48
50.0
100
AcDbLine
 10
174.9999999999993
 20
14262.0
 30
0.0
 11
20384.0
 21
14262.0
 31
0.0
  0
LINE
  5
10B59
330
747D
100
AcDbEntity
  8
仕様書枠
  6
Continuous
 62
     7
 48
50.0
100
AcDbLine
 10
16384.0
 20
1500.0
 30
0.0
 11
16384.0
 21
-0.0000000000000912
 31
0.0
  0
LINE
  5
10B5C
330
747D
100
AcDbEntity
  8
仕様書枠
 62
     7
 48
50.0
100
AcDbLine
 10
20384.0
 20
1500.0
 30
0.0
 11
20384.0
 21
-0.0000000000001137
 31
0.0
  0
LINE
  5
10B5D
330
747D
100
AcDbEntity
  8
仕様書枠
 62
     7
 48
50.0
100
AcDbLine
 10
175.0
 20
0.0
 30
0.0
 11
20384.0
 21
-0.0000000000001137
 31
0.0
  0
LINE
  5
10B5E
330
747D
100
AcDbEntity
  8
補助
  6
PHANTOM
 62
     7
 48
50.0
100
AcDbLine
 10
20384.0
 20
14262.0
 30
0.0
 11
20384.0
 21
1500.0
 31
0.0
  0
LINE
  5
10B6C
330
747D
100
AcDbEntity
  8
仕様書枠
 62
     7
 48
50.0
100
AcDbLine
 10
16384.0
 20
1500.0
 30
0.0
 11
20384.0
 21
1500.0
 31
0.0
  0
TEXT
  5
10B73
330
747D
100
AcDbEntity
  8
仕様書枠
 62
     7
 48
50.0
100
AcDbText
 10
16453.72382072112
 20
1118.863259287425
 30
0.0
 40
250.0
  1
基 礎 図
  7
STYLE2
100
AcDbText
  0
LINE
  5
10B7B
330
747D
100
AcDbEntity
  8
仕様書枠
 62
     7
 48
50.0
100
AcDbLine
 10
16384.0
 20
1000.0
 30
0.0
 11
17814.0
 21
1000.0
 31
0.0
  0
LINE
  5
10B88
330
747D
100
AcDbEntity
  8
仕様書枠
  6
Continuous
 62
     7
 48
50.0
100
AcDbLine
 10
17814.0
 20
1500.0
 30
0.0
 11
17814.0
 21
1000.0
 31
0.0
  0
DIMENSION
  5
187F5
330
747D
100
AcDbEntity
  8
寸法
 62
     7
 48
50.0
100
AcDbDimension
  2
*D1
 10
11778.67290371428
 20
1459.373661269833
 30
0.0
 11
11678.65813993475
 21
1744.373661269835
 31
0.0
 70
    32
  1
285
 71
     5
 42
570.0000000000009
  3
INABA_S50G
100
AcDbAlignedDimension
 13
12159.39291868346
 23
2029.373661269834
 33
0.0
 14
12115.39291868346
 24
1459.373661269833
 34
0.0
 50
90.0
100
AcDbRotatedDimension
  0
DIMENSION
  5
187F6
330
747D
100
AcDbEntity
  8
寸法
 62
     7
 48
50.0
100
AcDbDimension
  2
*D2
 10
11496.26221710674
 20
1349.373661269834
 30
0.0
 11
11496.26221710674
 21
1549.373661269835
 31
0.0
 70
   160
  1
200
 71
     5
 42
399.9999999999989
  3
INABA_S50G
100
AcDbAlignedDimension
 13
11561.22057962788
 23
1749.373661269833
 33
0.0
 14
11971.39291868346
 24
1349.373661269834
 34
0.0
 50
90.0
100
AcDbRotatedDimension
1001
ACAD
1000
DSTYLE
1002
{
1070
    40
1040
1.0
1002
}
  0
DIMENSION
  5
187F7
330
747D
100
AcDbEntity
  8
寸法
 62
     7
 48
50.0
100
AcDbDimension
  2
*D3
 10
11496.91093653513
 20
1749.373661269833
 30
0.0
 11
11496.91093653513
 21
2236.337243947
 31
0.0
 70
   160
  1
100
 71
     5
 42
200.0000000000011
  3
INABA_S50G
100
AcDbAlignedDimension
 13
11778.67290371428
 23
1949.373661269834
 33
0.0
 14
11561.22057962788
 24
1749.373661269833
 34
0.0
 50
90.0
100
AcDbRotatedDimension
  0
LINE
  5
187F8
330
747D
100
AcDbEntity
  8
部品1
 62
     7
100
AcDbLine
 10
8792.418427824532
 20
3299.999999999999
 30
0.0
 11
12792.41842782453
 21
3299.999999999999
 31
0.0
  0
LINE
  5
187F9
330
747D
100
AcDbEntity
  8
部品1
 62
     7
100
AcDbLine
 10
12792.41842782453
 20
3000.0
 30
0.0
 11
8792.418427824532
 21
2999.999999999999
 31
0.0
  0
LINE
  5
187FA
330
747D
100
AcDbEntity
  8
部品1
 62
     7
100
AcDbLine
 10
8792.418427824532
 20
600.0
 30
0.0
 11
12792.41842782453
 21
600.0
 31
0.0
  0
LINE
  5
187FB
330
747D
100
AcDbEntity
  8
部品1
 62
     7
100
AcDbLine
 10
10792.41842782453
 20
3299.999999999999
 30
0.0
 11
10792.41842782453
 21
600.0
 31
0.0
  0
LINE
  5
187FC
330
747D
100
AcDbEntity
  8
部品1
 62
     7
100
AcDbLine
 10
8792.418427824532
 20
3299.999999999999
 30
0.0
 11
8792.418427824532
 21
600.0
 31
0.0
  0
TEXT
  5
187FD
330
747D
100
AcDbEntity
  8
部品1
 62
     7
100
AcDbText
 10
9374.418454080537
 20
3075.560085060715
 30
0.0
 40
150.0
  1
基礎詳細
  7
STYLE2
100
AcDbText
  0
LINE
  5
187FE
330
747D
100
AcDbEntity
  8
部品1
 62
     7
100
AcDbLine
 10
9449.236229035593
 20
1449.37366126983
 30
0.0
 11
10049.23622903559
 21
1449.373661269832
 31
0.0
  0
LINE
  5
187FF
330
747D
100
AcDbEntity
  8
部品1
 62
     7
100
AcDbLine
 10
9449.236229035593
 20
1649.37366126983
 30
0.0
 11
10049.23622903559
 21
1649.373661269833
 31
0.0
  0
LINE
  5
18800
330
747D
100
AcDbEntity
  8
Ｇ．Ｌ
 62
     7
100
AcDbLine
 10
9249.236229035593
 20
1749.373661269833
 30
0.0
 11
10617.77461316698
 21
1749.373661269833
 31
0.0
  0
MTEXT
  5
18801
102
{ACAD_REACTORS
330
18802
102
}
330
747D
100
AcDbEntity
  8
寸法
 62
     7
 48
50.0
100
AcDbMText
 10
9978.158987327649
 20
2270.806562121256
 30
0.0
 40
150.0
 41
1.0
 71
     4
 72
     1
  1
\A1;C.B
  7
STYLE1
 73
     1
 44
1.0
  0
LEADER
  5
18802
330
747D
100
AcDbEntity
  8
寸法
 62
     7
 48
50.0
100
AcDbLeader
  3
INABA_S50G
 73
     0
 74
     0
 75
     1
 40
150.0
 41
231.9898538650463
 76
     3
 10
9749.236229035595
 20
1949.373661269833
 30
0.0
 10
9828.158987327649
 20
2170.806562121256
 30
0.0
 10
9953.158987327649
 20
2170.806562121256
 30
0.0
340
18801
1001
ACAD
1000
DSTYLE
1002
{
1070
    40
1040
1.0
1002
}
  0
LINE
  5
18803
330
747D
100
AcDbEntity
  8
部品1
 62
     7
100
AcDbLine
 10
9949.236229035593
 20
1949.373661269833
 30
0.0
 11
9949.236229035593
 21
1749.373661269833
 31
0.0
  0
LINE
  5
18804
330
747D
100
AcDbEntity
  8
部品1
 62
     7
100
AcDbLine
 10
9549.236229035594
 20
1749.373661269833
 30
0.0
 11
9549.236229035594
 21
1949.373661269833
 31
0.0
  0
LINE
  5
18805
330
747D
100
AcDbEntity
  8
細線
 62
     7
100
AcDbLine
 10
9711.430673766246
 20
1749.373661269833
 30
0.0
 11
9549.236229035592
 21
1911.568106000485
 31
0.0
  0
LINE
  5
18806
330
747D
100
AcDbEntity
  8
細線
 62
     7
100
AcDbLine
 10
9895.278436874749
 20
1749.373661269833
 30
0.0
 11
9695.278436874751
 21
1949.373661269833
 31
0.0
  0
LINE
  5
18807
330
747D
100
AcDbEntity
  8
細線
 62
     7
100
AcDbLine
 10
9937.704843745946
 20
1749.373661269833
 30
0.0
 11
9737.704843745945
 21
1949.373661269833
 31
0.0
  0
LINE
  5
18808
330
747D
100
AcDbEntity
  8
細線
 62
     7
100
AcDbLine
 10
9669.004266895056
 20
1749.373661269833
 30
0.0
 11
9549.236229035594
 21
1869.141699129293
 31
0.0
  0
LINE
  5
18809
330
747D
100
AcDbEntity
  8
細線
 62
     7
100
AcDbLine
 10
9548.133258743623
 20
1649.373661269833
 30
0.0
 11
9648.133258743619
 21
1749.373661269833
 31
0.0
  0
LINE
  5
1880A
330
747D
100
AcDbEntity
  8
細線
 62
     7
100
AcDbLine
 10
9576.417529991084
 20
1649.373661269831
 30
0.0
 11
9676.417529991082
 21
1749.373661269833
 31
0.0
  0
LINE
  5
1880B
330
747D
100
AcDbEntity
  8
細線
 62
     7
100
AcDbLine
 10
9549.236229035594
 20
1649.37366126983
 30
0.0
 11
9602.826067521816
 21
1449.373661269826
 31
0.0
  0
LINE
  5
1880C
330
747D
100
AcDbEntity
  8
部品1
 62
     7
100
AcDbLine
 10
9449.236229035593
 20
1449.37366126983
 30
0.0
 11
9449.236229035593
 21
1749.373661269833
 31
0.0
  0
LINE
  5
1880D
330
747D
100
AcDbEntity
  8
細線
 62
     7
100
AcDbLine
 10
9449.236229035593
 20
1649.37366126983
 30
0.0
 11
9502.826067521818
 21
1449.373661269826
 31
0.0
  0
LINE
  5
1880E
330
747D
100
AcDbEntity
  8
細線
 62
     7
100
AcDbLine
 10
9589.428607900259
 20
1499.37366126983
 30
0.0
 11
9576.031148278705
 21
1449.37366126983
 31
0.0
  0
LINE
  5
1880F
330
747D
100
AcDbEntity
  8
細線
 62
     7
100
AcDbLine
 10
9489.42860790026
 20
1499.37366126983
 30
0.0
 11
9476.031148278705
 21
1449.37366126983
 31
0.0
  0
LINE
  5
18810
330
747D
100
AcDbEntity
  8
細線
 62
     7
100
AcDbLine
 10
9576.031148278705
 20
1649.37366126983
 30
0.0
 11
9562.633688657149
 21
1599.373661269829
 31
0.0
  0
LINE
  5
18811
330
747D
100
AcDbEntity
  8
細線
 62
     7
100
AcDbLine
 10
9519.848987496159
 20
1649.37366126983
 30
0.0
 11
9619.848987496158
 21
1749.373661269833
 31
0.0
  0
LINE
  5
18812
330
747D
100
AcDbEntity
  8
細線
 62
     7
100
AcDbLine
 10
9476.031148278705
 20
1649.37366126983
 30
0.0
 11
9462.633688657152
 21
1599.373661269829
 31
0.0
  0
LINE
  5
18813
330
747D
100
AcDbEntity
  8
細線
 62
     7
100
AcDbLine
 10
9949.236229035593
 20
1649.373661269833
 30
0.0
 11
10002.82606752181
 21
1449.373661269832
 31
0.0
  0
LINE
  5
18814
330
747D
100
AcDbEntity
  8
細線
 62
     7
100
AcDbLine
 10
9849.236229035597
 20
1649.373661269833
 30
0.0
 11
9902.826067521814
 21
1449.37366126983
 31
0.0
  0
LINE
  5
18815
330
747D
100
AcDbEntity
  8
細線
 62
     7
100
AcDbLine
 10
9749.236229035593
 20
1649.373661269833
 30
0.0
 11
9802.82606752182
 21
1449.37366126983
 31
0.0
  0
LINE
  5
18816
330
747D
100
AcDbEntity
  8
細線
 62
     7
100
AcDbLine
 10
9649.236229035594
 20
1649.373661269833
 30
0.0
 11
9702.826067521815
 21
1449.37366126983
 31
0.0
  0
LINE
  5
18817
330
747D
100
AcDbEntity
  8
細線
 62
     7
100
AcDbLine
 10
9789.42860790026
 20
1499.373661269833
 30
0.0
 11
9776.031148278704
 21
1449.373661269832
 31
0.0
  0
LINE
  5
18818
330
747D
100
AcDbEntity
  8
細線
 62
     7
100
AcDbLine
 10
9689.428607900261
 20
1499.373661269833
 30
0.0
 11
9676.031148278706
 21
1449.373661269832
 31
0.0
  0
LINE
  5
18819
330
747D
100
AcDbEntity
  8
細線
 62
     7
100
AcDbLine
 10
9989.42860790026
 20
1499.373661269833
 30
0.0
 11
9976.031148278707
 21
1449.373661269832
 31
0.0
  0
LINE
  5
1881A
330
747D
100
AcDbEntity
  8
細線
 62
     7
100
AcDbLine
 10
9889.428607900262
 20
1499.373661269833
 30
0.0
 11
9876.031148278705
 21
1449.373661269832
 31
0.0
  0
LINE
  5
1881B
330
747D
100
AcDbEntity
  8
細線
 62
     7
100
AcDbLine
 10
9819.848987496159
 20
1649.373661269832
 30
0.0
 11
9919.848987496159
 21
1749.373661269833
 31
0.0
  0
LINE
  5
1881C
330
747D
100
AcDbEntity
  8
細線
 62
     7
100
AcDbLine
 10
9776.031148278704
 20
1649.373661269833
 30
0.0
 11
9762.63368865715
 21
1599.373661269833
 31
0.0
  0
LINE
  5
1881D
330
747D
100
AcDbEntity
  8
細線
 62
     7
100
AcDbLine
 10
9676.031148278706
 20
1649.373661269833
 30
0.0
 11
9662.633688657148
 21
1599.373661269833
 31
0.0
  0
LINE
  5
1881E
330
747D
100
AcDbEntity
  8
細線
 62
     7
100
AcDbLine
 10
9976.031148278707
 20
1649.373661269833
 30
0.0
 11
9962.633688657149
 21
1599.373661269833
 31
0.0
  0
LINE
  5
1881F
330
747D
100
AcDbEntity
  8
細線
 62
     7
100
AcDbLine
 10
9876.031148278705
 20
1649.373661269833
 30
0.0
 11
9862.633688657147
 21
1599.373661269833
 31
0.0
  0
LINE
  5
18820
330
747D
100
AcDbEntity
  8
細線
 62
     7
100
AcDbLine
 10
9848.133258743622
 20
1649.373661269833
 30
0.0
 11
9948.133258743617
 21
1749.373661269833
 31
0.0
  0
LINE
  5
18821
330
747D
100
AcDbEntity
  8
細線
 62
     7
100
AcDbLine
 10
9876.41752999108
 20
1649.373661269832
 30
0.0
 11
9976.417529991081
 21
1749.373661269833
 31
0.0
  0
LINE
  5
18822
330
747D
100
AcDbEntity
  8
部品1
 62
     7
100
AcDbLine
 10
9549.236229035594
 20
1949.373661269833
 30
0.0
 11
9949.236229035593
 21
1949.373661269833
 31
0.0
  0
LINE
  5
18823
330
747D
100
AcDbEntity
  8
Ｇ．Ｌ
 62
     7
100
AcDbLine
 10
10862.63196514754
 20
1749.373661269833
 30
0.0
 11
11561.22057962788
 21
1749.373661269833
 31
0.0
  0
TEXT
  5
18824
330
747D
100
AcDbEntity
  8
部品1
 62
     7
100
AcDbText
 10
10293.5807622491
 20
1772.170171482105
 30
0.0
 40
150.0
  1
G.L
  7
STYLE1
100
AcDbText
  0
LINE
  5
18825
330
747D
100
AcDbEntity
  8
部品1
 62
     7
100
AcDbLine
 10
10049.23622903559
 20
1749.373661269833
 30
0.0
 11
10049.23622903559
 21
1449.373661269832
 31
0.0
  0
LINE
  5
18826
330
747D
100
AcDbEntity
  8
文字
 62
     7
 48
50.0
100
AcDbLine
 10
10272.97801269095
 20
1878.360952452848
 30
0.0
 11
10125.11696430538
 21
1878.360952452848
 31
0.0
  0
LINE
  5
18827
330
747D
100
AcDbEntity
  8
文字
 62
     7
 48
50.0
100
AcDbLine
 10
10199.04748849817
 20
1750.309528320741
 30
0.0
 11
10272.97801269095
 21
1878.360952452848
 31
0.0
  0
LINE
  5
18828
330
747D
100
AcDbEntity
  8
文字
 62
     7
 48
50.0
100
AcDbLine
 10
10125.11696430538
 20
1878.360952452848
 30
0.0
 11
10199.04748849817
 21
1750.309528320742
 31
0.0
  0
TEXT
  5
18829
330
747D
100
AcDbEntity
  8
部品1
 62
     7
100
AcDbText
 10
11063.40298672054
 20
1771.234304431198
 30
0.0
 40
150.0
  1
G.L
  7
STYLE1
100
AcDbText
  0
LINE
  5
1882A
330
747D
100
AcDbEntity
  8
文字
 62
     7
 48
50.0
100
AcDbLine
 10
10968.86971296961
 20
1749.373661269833
 30
0.0
 11
11042.8002371624
 21
1877.425085401941
 31
0.0
  0
LINE
  5
1882B
330
747D
100
AcDbEntity
  8
文字
 62
     7
 48
50.0
100
AcDbLine
 10
10894.93918877682
 20
1877.425085401941
 30
0.0
 11
10968.86971296961
 21
1749.373661269833
 31
0.0
  0
LINE
  5
1882C
330
747D
100
AcDbEntity
  8
文字
 62
     7
 48
50.0
100
AcDbLine
 10
11042.8002371624
 20
1877.425085401941
 30
0.0
 11
10894.93918877682
 21
1877.425085401941
 31
0.0
  0
DIMENSION
  5
1882E
330
747D
100
AcDbEntity
  8
寸法
 62
     7
 48
50.0
100
AcDbDimension
  2
*D5
 10
11971.39291868346
 20
1022.89069578453
 30
0.0
 11
12171.39291868346
 21
1122.905459564057
 31
0.0
 70
    32
  1
200
 71
     5
 42
400.0
  3
INABA_S50G
100
AcDbAlignedDimension
 13
12371.39291868346
 23
1349.373661269834
 33
0.0
 14
11971.39291868346
 24
1349.373661269834
 34
0.0
100
AcDbRotatedDimension
  0
LINE
  5
1882F
330
747D
100
AcDbEntity
  8
部品1
 62
     7
100
AcDbLine
 10
12792.41842782453
 20
600.0
 30
0.0
 11
12792.41842782453
 21
3299.999999999999
 31
0.0
  0
TEXT
  5
18836
330
747D
100
AcDbEntity
  8
部品1
 62
     7
100
AcDbText
 10
11028.92355353962
 20
3076.227094002039
 30
0.0
 40
150.0
  1
アンカー部詳細
  7
STYLE2
100
AcDbText
  0
LINE
  5
18837
330
747D
100
AcDbEntity
  8
部品1
 62
     7
 48
10.0
100
AcDbLine
 10
12335.39291868346
 20
2063.373661269833
 30
0.0
 11
12335.39291868346
 21
2683.152017438573
 31
0.0
  0
LINE
  5
18838
330
747D
100
AcDbEntity
  8
部品1
 62
     7
 48
10.0
100
AcDbLine
 10
12319.39291868346
 20
2047.373661269833
 30
0.0
 11
12319.39291868346
 21
2683.152017438573
 31
0.0
  0
LINE
  5
18839
330
747D
100
AcDbEntity
  8
部品1
 62
     7
 48
10.0
100
AcDbLine
 10
12303.39291868346
 20
1949.373661269834
 30
0.0
 11
12303.39291868346
 21
2683.152017438573
 31
0.0
  0
LINE
  5
1883A
330
747D
100
AcDbEntity
  8
部品1
 62
     7
 48
10.0
100
AcDbLine
 10
12175.39291868346
 20
1949.373661269834
 30
0.0
 11
12175.39291868346
 21
2683.152017438573
 31
0.0
  0
LINE
  5
1883B
330
747D
100
AcDbEntity
  8
部品1
 62
     7
 48
10.0
100
AcDbLine
 10
12303.39291868346
 20
2047.373661269833
 30
0.0
 11
12690.73056603674
 21
2047.373661269833
 31
0.0
  0
LINE
  5
1883C
330
747D
100
AcDbEntity
  8
部品1
 62
     7
 48
10.0
100
AcDbLine
 10
12319.39291868346
 20
2063.373661269833
 30
0.0
 11
12690.73056603674
 21
2063.373661269833
 31
0.0
  0
LINE
  5
1883D
330
747D
100
AcDbEntity
  8
部品1
 62
     7
 48
10.0
100
AcDbLine
 10
12175.39291868346
 20
1949.373661269834
 30
0.0
 11
12690.73056603674
 21
1949.373661269834
 31
0.0
  0
LINE
  5
1883E
330
747D
100
AcDbEntity
  8
部品1
 62
     7
 48
10.0
100
AcDbLine
 10
12175.39291868346
 20
1949.373661269834
 30
0.0
 11
12575.39291868346
 21
1949.373661269834
 31
0.0
  0
LINE
  5
1883F
330
747D
100
AcDbEntity
  8
細線
 62
     7
100
AcDbLine
 10
12563.86153339381
 20
1749.373661269834
 30
0.0
 11
12363.86153339381
 21
1949.373661269834
 31
0.0
  0
LINE
  5
18840
330
747D
100
AcDbEntity
  8
細線
 62
     7
100
AcDbLine
 10
12521.43512652261
 20
1749.373661269833
 30
0.0
 11
12321.43512652261
 21
1949.373661269834
 31
0.0
  0
LINE
  5
18841
330
747D
100
AcDbEntity
  8
Ｇ．Ｌ
 62
     7
100
AcDbLine
 10
12175.39291868346
 20
1749.373661269833
 30
0.0
 11
12689.16290152045
 21
1749.373661269833
 31
0.0
  0
LINE
  5
18842
330
747D
100
AcDbEntity
  8
部品1
 62
     7
 48
10.0
100
AcDbLine
 10
12175.39291868346
 20
1749.373661269833
 30
0.0
 11
12175.39291868346
 21
1949.373661269834
 31
0.0
  0
LINE
  5
18843
330
747D
100
AcDbEntity
  8
細線
 62
     7
100
AcDbLine
 10
12337.58736341411
 20
1749.373661269833
 30
0.0
 11
12175.39291868346
 21
1911.568106000486
 31
0.0
  0
LINE
  5
18844
330
747D
100
AcDbEntity
  8
部品1
 62
     7
 48
10.0
100
AcDbLine
 10
12175.39291868346
 20
1475.373661269834
 30
0.0
 11
12175.39291868346
 21
2029.373661269834
 31
0.0
  0
LINE
  5
18845
330
747D
100
AcDbEntity
  8
部品1
 62
     7
 48
10.0
100
AcDbLine
 10
12159.39291868346
 20
2029.373661269834
 30
0.0
 11
12159.39291868346
 21
1475.373661269834
 31
0.0
  0
LINE
  5
18846
330
747D
100
AcDbEntity
  8
細線
  6
HIDDEN
 62
     7
 48
10.0
100
AcDbLine
 10
12095.48298933942
 20
1349.373661269834
 30
0.0
 11
12371.39291868346
 21
1625.283590613878
 31
0.0
  0
LINE
  5
18847
330
747D
100
AcDbEntity
  8
細線
  6
HIDDEN
 62
     7
 48
10.0
100
AcDbLine
 10
11971.39291868346
 20
1349.373661269834
 30
0.0
 11
12371.39291868346
 21
1349.373661269834
 31
0.0
  0
LINE
  5
18848
330
747D
100
AcDbEntity
  8
細線
  6
HIDDEN
 62
     7
 48
10.0
100
AcDbLine
 10
11971.39291868346
 20
1623.657708219241
 30
0.0
 11
12097.10887173405
 21
1749.373661269833
 31
0.0
  0
LINE
  5
18849
330
747D
100
AcDbEntity
  8
細線
  6
HIDDEN
 62
     7
 48
10.0
100
AcDbLine
 10
11971.39291868346
 20
1595.373436971778
 30
0.0
 11
12125.3931429815
 21
1749.373661269833
 31
0.0
  0
LINE
  5
1884A
330
747D
100
AcDbEntity
  8
Ｇ．Ｌ
 62
     7
100
AcDbLine
 10
11802.01519945007
 20
1749.373661269833
 30
0.0
 11
12159.39291868346
 21
1749.373661269833
 31
0.0
  0
LINE
  5
1884B
330
747D
100
AcDbEntity
  8
細線
  6
HIDDEN
 62
     7
 48
10.0
100
AcDbLine
 10
11971.39291868346
 20
1349.373661269834
 30
0.0
 11
11971.39291868346
 21
1749.373661269833
 31
0.0
  0
LINE
  5
1884C
330
747D
100
AcDbEntity
  8
細線
  6
HIDDEN
 62
     7
 48
10.0
100
AcDbLine
 10
11971.39291868346
 20
1651.941979466702
 30
0.0
 11
12068.82460048659
 21
1749.373661269833
 31
0.0
  0
LINE
  5
1884D
330
747D
100
AcDbEntity
  8
細線
  6
HIDDEN
 62
     7
 48
10.0
100
AcDbLine
 10
12371.39291868346
 20
1349.373661269834
 30
0.0
 11
12371.39291868346
 21
1749.373661269833
 31
0.0
  0
LINE
  5
1884E
330
747D
100
AcDbEntity
  8
細線
  6
HIDDEN
 62
     7
 48
10.0
100
AcDbLine
 10
12123.76726058689
 20
1349.373661269835
 30
0.0
 11
12371.39291868346
 21
1596.999319366418
 31
0.0
  0
LINE
  5
1884F
330
747D
100
AcDbEntity
  8
細線
  6
HIDDEN
 62
     7
 48
10.0
100
AcDbLine
 10
12152.05153183435
 20
1349.373661269835
 30
0.0
 11
12371.39291868346
 21
1568.715048118956
 31
0.0
  0
LINE
  5
18850
330
747D
100
AcDbEntity
  8
部品1
 62
     7
 48
10.0
100
AcDbLine
 10
12159.39291868346
 20
1459.373661269833
 30
0.0
 11
12115.39291868346
 21
1459.373661269833
 31
0.0
  0
LINE
  5
18851
330
747D
100
AcDbEntity
  8
部品1
 62
     7
 48
10.0
100
AcDbLine
 10
12159.39291868346
 20
1475.373661269834
 30
0.0
 11
12115.39291868346
 21
1475.373661269834
 31
0.0
  0
LINE
  5
18852
330
747D
100
AcDbEntity
  8
部品1
 62
     7
 48
10.0
100
AcDbLine
 10
12115.39291868346
 20
1459.373661269833
 30
0.0
 11
12115.39291868346
 21
1475.373661269834
 31
0.0
  0
ARC
  5
18853
330
747D
100
AcDbEntity
  8
部品1
 62
     7
 48
10.0
100
AcDbCircle
 10
12159.39291868346
 20
1475.373661269834
 30
0.0
 40
16.0
100
AcDbArc
 50
270.0
 51
0.0
  0
LINE
  5
18854
330
747D
100
AcDbEntity
  8
細線
 62
     7
100
AcDbLine
 10
12295.16095654292
 20
1749.373661269833
 30
0.0
 11
12175.39291868346
 21
1869.141699129294
 31
0.0
  0
LINE
  5
18855
330
747D
100
AcDbEntity
  8
寸法
 62
     7
 48
50.0
100
AcDbLine
 10
11795.42058817862
 20
1949.373661269834
 30
0.0
 11
12136.21794591976
 21
1949.373661269834
 31
0.0
  0
CIRCLE
  5
18856
330
747D
100
AcDbEntity
  8
細線
 62
     7
100
AcDbCircle
 10
12281.39291868346
 20
1999.373661269833
 30
0.0
 40
16.0
  0
LINE
  5
18857
330
747D
100
AcDbEntity
  8
細線
 62
     7
100
AcDbLine
 10
12153.39291868346
 20
1983.373661269834
 30
0.0
 11
12153.39291868346
 21
2015.373661269833
 31
0.0
  0
LINE
  5
18858
330
747D
100
AcDbEntity
  8
細線
 62
     7
100
AcDbLine
 10
12159.39291868346
 20
1983.373661269834
 30
0.0
 11
12159.39291868346
 21
2015.373661269833
 31
0.0
  0
LINE
  5
18859
330
747D
100
AcDbEntity
  8
細線
 62
     7
100
AcDbLine
 10
12159.39291868346
 20
1983.373661269834
 30
0.0
 11
12153.39291868346
 21
1983.373661269834
 31
0.0
  0
LINE
  5
1885A
330
747D
100
AcDbEntity
  8
細線
 62
     7
100
AcDbLine
 10
12159.39291868346
 20
2015.373661269833
 30
0.0
 11
12153.39291868346
 21
2015.373661269833
 31
0.0
  0
ARC
  5
1885B
330
747D
100
AcDbEntity
  8
細線
 62
     7
100
AcDbCircle
 10
12152.39291868346
 20
1992.373661269834
 30
0.0
 40
7.0
100
AcDbArc
 50
180.0
 51
270.0
  0
ARC
  5
1885C
330
747D
100
AcDbEntity
  8
細線
 62
     7
100
AcDbCircle
 10
12152.39291868346
 20
2006.373661269833
 30
0.0
 40
7.0
100
AcDbArc
 50
90.00000000000095
 51
180.0
  0
LINE
  5
1885D
330
747D
100
AcDbEntity
  8
細線
 62
     7
100
AcDbLine
 10
12153.39291868346
 20
1985.373661269834
 30
0.0
 11
12152.39291868346
 21
1985.373661269834
 31
0.0
  0
LINE
  5
1885E
330
747D
100
AcDbEntity
  8
細線
 62
     7
100
AcDbLine
 10
12153.39291868346
 20
2013.373661269834
 30
0.0
 11
12152.39291868346
 21
2013.373661269834
 31
0.0
  0
LINE
  5
1885F
330
747D
100
AcDbEntity
  8
細線
 62
     7
100
AcDbLine
 10
12145.39291868346
 20
1992.373661269834
 30
0.0
 11
12145.39291868346
 21
2006.373661269833
 31
0.0
  0
LINE
  5
18860
330
747D
100
AcDbEntity
  8
部品1
 62
     7
 48
10.0
100
AcDbLine
 10
12175.39291868346
 20
2029.373661269834
 30
0.0
 11
12159.39291868346
 21
2029.373661269834
 31
0.0
  0
CIRCLE
  5
18861
330
747D
100
AcDbEntity
  8
細線
 62
     7
100
AcDbCircle
 10
12235.39291868346
 20
1999.373661269833
 30
0.0
 40
16.0
  0
LINE
  5
18862
330
747D
100
AcDbEntity
  8
部品1
 62
     7
 48
10.0
100
AcDbLine
 10
12575.39291868346
 20
1949.373661269834
 30
0.0
 11
12575.39291868346
 21
1749.373661269833
 31
0.0
  0
TEXT
  5
1893F
330
747D
100
AcDbEntity
  8
文字
 62
     7
 48
50.0
100
AcDbText
 10
16511.7566802715
 20
202.8024588414045
 30
0.0
 40
100.0
  1
※寒冷地等は、地域の実情に合わせた基礎にしてください。
  7
STYLE2
100
AcDbText
  0
LINE
  5
18940
330
747D
100
AcDbEntity
  8
仕様書枠
 62
     7
 48
50.0
100
AcDbLine
 10
16484.0
 20
500.0
 30
0.0
 11
20284.0
 21
500.0
 31
0.0
  0
TEXT
  5
18E55
330
747D
100
AcDbEntity
  8
文字
 62
     7
 48
50.0
100
AcDbText
 10
4920.38977576022
 20
864.5205740729707
 30
0.0
 40
150.0
  1
重量物を入れる場合（根太部ブロック追加）
  7
STYLE1
100
AcDbText
  0
LINE
  5
18E56
330
747D
100
AcDbEntity
  8
寸法
 62
     7
 48
50.0
100
AcDbLine
 10
8498.975097264189
 20
800.0000129302206
 30
0.0
 11
4394.414120747471
 21
800.0000129302206
 31
0.0
  0
LINE
  5
18E57
330
747D
100
AcDbEntity
  8
細線
 62
     7
 48
10.0
100
AcDbLine
 10
4854.094974518101
 20
1084.035148905193
 30
0.0
 11
4854.094974518101
 21
884.0351489051936
 31
0.0
  0
LINE
  5
18E58
330
747D
100
AcDbEntity
  8
細線
 62
     7
 48
10.0
100
AcDbLine
 10
4454.094974518101
 20
884.0351489051936
 30
0.0
 11
4454.094974518101
 21
1084.035148905193
 31
0.0
  0
LINE
  5
18E59
330
747D
100
AcDbEntity
  8
細線
 62
     7
 48
10.0
100
AcDbLine
 10
4454.094974518101
 20
884.0351489051936
 30
0.0
 11
4854.094974518101
 21
884.0351489051936
 31
0.0
  0
LINE
  5
18E5A
330
747D
100
AcDbEntity
  8
細線
 62
     7
 48
10.0
100
AcDbLine
 10
4454.094974518101
 20
1084.035148905193
 30
0.0
 11
4854.094974518101
 21
1084.035148905193
 31
0.0
  0
LINE
  5
1A10E
330
747D
100
AcDbEntity
  8
部品1
 62
     7
 48
50.0
100
AcDbLine
 10
4475.132865439054
 20
1071.5625
 30
0.0
 11
4475.132865439054
 21
1071.5625
 31
0.0
  0
LINE
  5
1A10F
330
747D
100
AcDbEntity
  8
部品1
 62
     7
 48
50.0
100
AcDbLine
 10
4498.945365439054
 20
1071.5625
 30
0.0
 11
4498.945365439054
 21
1071.5625
 31
0.0
  0
LINE
  5
1A110
330
747D
100
AcDbEntity
  8
部品1
 62
     7
 48
50.0
100
AcDbLine
 10
4522.757865439055
 20
1071.5625
 30
0.0
 11
4522.757865439055
 21
1071.5625
 31
0.0
  0
LINE
  5
1A111
330
747D
100
AcDbEntity
  8
部品1
 62
     7
 48
50.0
100
AcDbLine
 10
4546.570365439055
 20
1071.5625
 30
0.0
 11
4546.570365439055
 21
1071.5625
 31
0.0
  0
LINE
  5
1A112
330
747D
100
AcDbEntity
  8
部品1
 62
     7
 48
50.0
100
AcDbLine
 10
4570.382865439055
 20
1071.5625
 30
0.0
 11
4570.382865439055
 21
1071.5625
 31
0.0
  0
LINE
  5
1A113
330
747D
100
AcDbEntity
  8
部品1
 62
     7
 48
50.0
100
AcDbLine
 10
4594.195365439055
 20
1071.5625
 30
0.0
 11
4594.195365439055
 21
1071.5625
 31
0.0
  0
LINE
  5
1A114
330
747D
100
AcDbEntity
  8
部品1
 62
     7
 48
50.0
100
AcDbLine
 10
4618.007865439055
 20
1071.5625
 30
0.0
 11
4618.007865439055
 21
1071.5625
 31
0.0
  0
LINE
  5
1A115
330
747D
100
AcDbEntity
  8
部品1
 62
     7
 48
50.0
100
AcDbLine
 10
4641.820365439055
 20
1071.5625
 30
0.0
 11
4641.820365439055
 21
1071.5625
 31
0.0
  0
LINE
  5
1A116
330
747D
100
AcDbEntity
  8
部品1
 62
     7
 48
50.0
100
AcDbLine
 10
4665.632865439055
 20
1071.5625
 30
0.0
 11
4665.632865439055
 21
1071.5625
 31
0.0
  0
LINE
  5
1A117
330
747D
100
AcDbEntity
  8
部品1
 62
     7
 48
50.0
100
AcDbLine
 10
4689.445365439055
 20
1071.5625
 30
0.0
 11
4689.445365439055
 21
1071.5625
 31
0.0
  0
LINE
  5
1A118
330
747D
100
AcDbEntity
  8
部品1
 62
     7
 48
50.0
100
AcDbLine
 10
4713.257865439055
 20
1071.5625
 30
0.0
 11
4713.257865439055
 21
1071.5625
 31
0.0
  0
LINE
  5
1A119
330
747D
100
AcDbEntity
  8
部品1
 62
     7
 48
50.0
100
AcDbLine
 10
4737.070365439055
 20
1071.5625
 30
0.0
 11
4737.070365439055
 21
1071.5625
 31
0.0
  0
LINE
  5
1A11A
330
747D
100
AcDbEntity
  8
部品1
 62
     7
 48
50.0
100
AcDbLine
 10
4760.882865439054
 20
1071.5625
 30
0.0
 11
4760.882865439054
 21
1071.5625
 31
0.0
  0
LINE
  5
1A11B
330
747D
100
AcDbEntity
  8
部品1
 62
     7
 48
50.0
100
AcDbLine
 10
4784.695365439055
 20
1071.5625
 30
0.0
 11
4784.695365439055
 21
1071.5625
 31
0.0
  0
LINE
  5
1A11C
330
747D
100
AcDbEntity
  8
部品1
 62
     7
 48
50.0
100
AcDbLine
 10
4808.507865439054
 20
1071.5625
 30
0.0
 11
4808.507865439054
 21
1071.5625
 31
0.0
  0
LINE
  5
1A11D
330
747D
100
AcDbEntity
  8
部品1
 62
     7
 48
50.0
100
AcDbLine
 10
4832.320365439055
 20
1071.5625
 30
0.0
 11
4832.320365439055
 21
1071.5625
 31
0.0
  0
LINE
  5
1A11E
330
747D
100
AcDbEntity
  8
部品1
 62
     7
 48
50.0
100
AcDbLine
 10
4463.226615439054
 20
1047.75
 30
0.0
 11
4463.226615439054
 21
1047.75
 31
0.0
  0
LINE
  5
1A11F
330
747D
100
AcDbEntity
  8
部品1
 62
     7
 48
50.0
100
AcDbLine
 10
4487.039115439054
 20
1047.75
 30
0.0
 11
4487.039115439054
 21
1047.75
 31
0.0
  0
LINE
  5
1A120
330
747D
100
AcDbEntity
  8
部品1
 62
     7
 48
50.0
100
AcDbLine
 10
4510.851615439054
 20
1047.75
 30
0.0
 11
4510.851615439054
 21
1047.75
 31
0.0
  0
LINE
  5
1A121
330
747D
100
AcDbEntity
  8
部品1
 62
     7
 48
50.0
100
AcDbLine
 10
4534.664115439055
 20
1047.75
 30
0.0
 11
4534.664115439055
 21
1047.75
 31
0.0
  0
LINE
  5
1A122
330
747D
100
AcDbEntity
  8
部品1
 62
     7
 48
50.0
100
AcDbLine
 10
4558.476615439054
 20
1047.75
 30
0.0
 11
4558.476615439054
 21
1047.75
 31
0.0
  0
LINE
  5
1A123
330
747D
100
AcDbEntity
  8
部品1
 62
     7
 48
50.0
100
AcDbLine
 10
4582.289115439055
 20
1047.75
 30
0.0
 11
4582.289115439055
 21
1047.75
 31
0.0
  0
LINE
  5
1A124
330
747D
100
AcDbEntity
  8
部品1
 62
     7
 48
50.0
100
AcDbLine
 10
4606.101615439054
 20
1047.75
 30
0.0
 11
4606.101615439054
 21
1047.75
 31
0.0
  0
LINE
  5
1A125
330
747D
100
AcDbEntity
  8
部品1
 62
     7
 48
50.0
100
AcDbLine
 10
4629.914115439055
 20
1047.75
 30
0.0
 11
4629.914115439055
 21
1047.75
 31
0.0
  0
LINE
  5
1A126
330
747D
100
AcDbEntity
  8
部品1
 62
     7
 48
50.0
100
AcDbLine
 10
4653.726615439054
 20
1047.75
 30
0.0
 11
4653.726615439054
 21
1047.75
 31
0.0
  0
LINE
  5
1A127
330
747D
100
AcDbEntity
  8
部品1
 62
     7
 48
50.0
100
AcDbLine
 10
4677.539115439055
 20
1047.75
 30
0.0
 11
4677.539115439055
 21
1047.75
 31
0.0
  0
LINE
  5
1A128
330
747D
100
AcDbEntity
  8
部品1
 62
     7
 48
50.0
100
AcDbLine
 10
4701.351615439054
 20
1047.75
 30
0.0
 11
4701.351615439054
 21
1047.75
 31
0.0
  0
LINE
  5
1A129
330
747D
100
AcDbEntity
  8
部品1
 62
     7
 48
50.0
100
AcDbLine
 10
4725.164115439055
 20
1047.75
 30
0.0
 11
4725.164115439055
 21
1047.75
 31
0.0
  0
LINE
  5
1A12A
330
747D
100
AcDbEntity
  8
部品1
 62
     7
 48
50.0
100
AcDbLine
 10
4748.976615439054
 20
1047.75
 30
0.0
 11
4748.976615439054
 21
1047.75
 31
0.0
  0
LINE
  5
1A12B
330
747D
100
AcDbEntity
  8
部品1
 62
     7
 48
50.0
100
AcDbLine
 10
4772.789115439055
 20
1047.75
 30
0.0
 11
4772.789115439055
 21
1047.75
 31
0.0
  0
LINE
  5
1A12C
330
747D
100
AcDbEntity
  8
部品1
 62
     7
 48
50.0
100
AcDbLine
 10
4796.601615439054
 20
1047.75
 30
0.0
 11
4796.601615439054
 21
1047.75
 31
0.0
  0
LINE
  5
1A12D
330
747D
100
AcDbEntity
  8
部品1
 62
     7
 48
50.0
100
AcDbLine
 10
4820.414115439055
 20
1047.75
 30
0.0
 11
4820.414115439055
 21
1047.75
 31
0.0
  0
LINE
  5
1A12E
330
747D
100
AcDbEntity
  8
部品1
 62
     7
 48
50.0
100
AcDbLine
 10
4844.226615439055
 20
1047.75
 30
0.0
 11
4844.226615439055
 21
1047.75
 31
0.0
  0
LINE
  5
1A12F
330
747D
100
AcDbEntity
  8
部品1
 62
     7
 48
50.0
100
AcDbLine
 10
4475.132865439054
 20
1023.9375
 30
0.0
 11
4475.132865439054
 21
1023.9375
 31
0.0
  0
LINE
  5
1A130
330
747D
100
AcDbEntity
  8
部品1
 62
     7
 48
50.0
100
AcDbLine
 10
4498.945365439054
 20
1023.9375
 30
0.0
 11
4498.945365439054
 21
1023.9375
 31
0.0
  0
LINE
  5
1A131
330
747D
100
AcDbEntity
  8
部品1
 62
     7
 48
50.0
100
AcDbLine
 10
4522.757865439055
 20
1023.9375
 30
0.0
 11
4522.757865439055
 21
1023.9375
 31
0.0
  0
LINE
  5
1A132
330
747D
100
AcDbEntity
  8
部品1
 62
     7
 48
50.0
100
AcDbLine
 10
4546.570365439055
 20
1023.9375
 30
0.0
 11
4546.570365439055
 21
1023.9375
 31
0.0
  0
LINE
  5
1A133
330
747D
100
AcDbEntity
  8
部品1
 62
     7
 48
50.0
100
AcDbLine
 10
4570.382865439055
 20
1023.9375
 30
0.0
 11
4570.382865439055
 21
1023.9375
 31
0.0
  0
LINE
  5
1A134
330
747D
100
AcDbEntity
  8
部品1
 62
     7
 48
50.0
100
AcDbLine
 10
4594.195365439055
 20
1023.9375
 30
0.0
 11
4594.195365439055
 21
1023.9375
 31
0.0
  0
LINE
  5
1A135
330
747D
100
AcDbEntity
  8
部品1
 62
     7
 48
50.0
100
AcDbLine
 10
4618.007865439055
 20
1023.9375
 30
0.0
 11
4618.007865439055
 21
1023.9375
 31
0.0
  0
LINE
  5
1A136
330
747D
100
AcDbEntity
  8
部品1
 62
     7
 48
50.0
100
AcDbLine
 10
4641.820365439055
 20
1023.9375
 30
0.0
 11
4641.820365439055
 21
1023.9375
 31
0.0
  0
LINE
  5
1A137
330
747D
100
AcDbEntity
  8
部品1
 62
     7
 48
50.0
100
AcDbLine
 10
4665.632865439055
 20
1023.9375
 30
0.0
 11
4665.632865439055
 21
1023.9375
 31
0.0
  0
LINE
  5
1A138
330
747D
100
AcDbEntity
  8
部品1
 62
     7
 48
50.0
100
AcDbLine
 10
4689.445365439055
 20
1023.9375
 30
0.0
 11
4689.445365439055
 21
1023.9375
 31
0.0
  0
LINE
  5
1A139
330
747D
100
AcDbEntity
  8
部品1
 62
     7
 48
50.0
100
AcDbLine
 10
4713.257865439055
 20
1023.9375
 30
0.0
 11
4713.257865439055
 21
1023.9375
 31
0.0
  0
LINE
  5
1A13A
330
747D
100
AcDbEntity
  8
部品1
 62
     7
 48
50.0
100
AcDbLine
 10
4737.070365439055
 20
1023.9375
 30
0.0
 11
4737.070365439055
 21
1023.9375
 31
0.0
  0
LINE
  5
1A13B
330
747D
100
AcDbEntity
  8
部品1
 62
     7
 48
50.0
100
AcDbLine
 10
4760.882865439054
 20
1023.9375
 30
0.0
 11
4760.882865439054
 21
1023.9375
 31
0.0
  0
LINE
  5
1A13C
330
747D
100
AcDbEntity
  8
部品1
 62
     7
 48
50.0
100
AcDbLine
 10
4784.695365439055
 20
1023.9375
 30
0.0
 11
4784.695365439055
 21
1023.9375
 31
0.0
  0
LINE
  5
1A13D
330
747D
100
AcDbEntity
  8
部品1
 62
     7
 48
50.0
100
AcDbLine
 10
4808.507865439054
 20
1023.9375
 30
0.0
 11
4808.507865439054
 21
1023.9375
 31
0.0
  0
LINE
  5
1A13E
330
747D
100
AcDbEntity
  8
部品1
 62
     7
 48
50.0
100
AcDbLine
 10
4832.320365439055
 20
1023.9375
 30
0.0
 11
4832.320365439055
 21
1023.9375
 31
0.0
  0
LINE
  5
1A13F
330
747D
100
AcDbEntity
  8
部品1
 62
     7
 48
50.0
100
AcDbLine
 10
4463.226615439054
 20
1000.125
 30
0.0
 11
4463.226615439054
 21
1000.125
 31
0.0
  0
LINE
  5
1A140
330
747D
100
AcDbEntity
  8
部品1
 62
     7
 48
50.0
100
AcDbLine
 10
4487.039115439054
 20
1000.125
 30
0.0
 11
4487.039115439054
 21
1000.125
 31
0.0
  0
LINE
  5
1A141
330
747D
100
AcDbEntity
  8
部品1
 62
     7
 48
50.0
100
AcDbLine
 10
4510.851615439054
 20
1000.125
 30
0.0
 11
4510.851615439054
 21
1000.125
 31
0.0
  0
LINE
  5
1A142
330
747D
100
AcDbEntity
  8
部品1
 62
     7
 48
50.0
100
AcDbLine
 10
4534.664115439055
 20
1000.125
 30
0.0
 11
4534.664115439055
 21
1000.125
 31
0.0
  0
LINE
  5
1A143
330
747D
100
AcDbEntity
  8
部品1
 62
     7
 48
50.0
100
AcDbLine
 10
4558.476615439054
 20
1000.125
 30
0.0
 11
4558.476615439054
 21
1000.125
 31
0.0
  0
LINE
  5
1A144
330
747D
100
AcDbEntity
  8
部品1
 62
     7
 48
50.0
100
AcDbLine
 10
4582.289115439055
 20
1000.125
 30
0.0
 11
4582.289115439055
 21
1000.125
 31
0.0
  0
LINE
  5
1A145
330
747D
100
AcDbEntity
  8
部品1
 62
     7
 48
50.0
100
AcDbLine
 10
4606.101615439054
 20
1000.125
 30
0.0
 11
4606.101615439054
 21
1000.125
 31
0.0
  0
LINE
  5
1A146
330
747D
100
AcDbEntity
  8
部品1
 62
     7
 48
50.0
100
AcDbLine
 10
4629.914115439055
 20
1000.125
 30
0.0
 11
4629.914115439055
 21
1000.125
 31
0.0
  0
LINE
  5
1A147
330
747D
100
AcDbEntity
  8
部品1
 62
     7
 48
50.0
100
AcDbLine
 10
4653.726615439054
 20
1000.125
 30
0.0
 11
4653.726615439054
 21
1000.125
 31
0.0
  0
LINE
  5
1A148
330
747D
100
AcDbEntity
  8
部品1
 62
     7
 48
50.0
100
AcDbLine
 10
4677.539115439055
 20
1000.125
 30
0.0
 11
4677.539115439055
 21
1000.125
 31
0.0
  0
LINE
  5
1A149
330
747D
100
AcDbEntity
  8
部品1
 62
     7
 48
50.0
100
AcDbLine
 10
4701.351615439054
 20
1000.125
 30
0.0
 11
4701.351615439054
 21
1000.125
 31
0.0
  0
LINE
  5
1A14A
330
747D
100
AcDbEntity
  8
部品1
 62
     7
 48
50.0
100
AcDbLine
 10
4725.164115439055
 20
1000.125
 30
0.0
 11
4725.164115439055
 21
1000.125
 31
0.0
  0
LINE
  5
1A14B
330
747D
100
AcDbEntity
  8
部品1
 62
     7
 48
50.0
100
AcDbLine
 10
4748.976615439054
 20
1000.125
 30
0.0
 11
4748.976615439054
 21
1000.125
 31
0.0
  0
LINE
  5
1A14C
330
747D
100
AcDbEntity
  8
部品1
 62
     7
 48
50.0
100
AcDbLine
 10
4772.789115439055
 20
1000.125
 30
0.0
 11
4772.789115439055
 21
1000.125
 31
0.0
  0
LINE
  5
1A14D
330
747D
100
AcDbEntity
  8
部品1
 62
     7
 48
50.0
100
AcDbLine
 10
4796.601615439054
 20
1000.125
 30
0.0
 11
4796.601615439054
 21
1000.125
 31
0.0
  0
LINE
  5
1A14E
330
747D
100
AcDbEntity
  8
部品1
 62
     7
 48
50.0
100
AcDbLine
 10
4820.414115439055
 20
1000.125
 30
0.0
 11
4820.414115439055
 21
1000.125
 31
0.0
  0
LINE
  5
1A14F
330
747D
100
AcDbEntity
  8
部品1
 62
     7
 48
50.0
100
AcDbLine
 10
4844.226615439055
 20
1000.125
 30
0.0
 11
4844.226615439055
 21
1000.125
 31
0.0
  0
LINE
  5
1A150
330
747D
100
AcDbEntity
  8
部品1
 62
     7
 48
50.0
100
AcDbLine
 10
4475.132865439054
 20
976.3125
 30
0.0
 11
4475.132865439054
 21
976.3125
 31
0.0
  0
LINE
  5
1A151
330
747D
100
AcDbEntity
  8
部品1
 62
     7
 48
50.0
100
AcDbLine
 10
4498.945365439054
 20
976.3125
 30
0.0
 11
4498.945365439054
 21
976.3125
 31
0.0
  0
LINE
  5
1A152
330
747D
100
AcDbEntity
  8
部品1
 62
     7
 48
50.0
100
AcDbLine
 10
4522.757865439055
 20
976.3125
 30
0.0
 11
4522.757865439055
 21
976.3125
 31
0.0
  0
LINE
  5
1A153
330
747D
100
AcDbEntity
  8
部品1
 62
     7
 48
50.0
100
AcDbLine
 10
4546.570365439055
 20
976.3125
 30
0.0
 11
4546.570365439055
 21
976.3125
 31
0.0
  0
LINE
  5
1A154
330
747D
100
AcDbEntity
  8
部品1
 62
     7
 48
50.0
100
AcDbLine
 10
4570.382865439055
 20
976.3125
 30
0.0
 11
4570.382865439055
 21
976.3125
 31
0.0
  0
LINE
  5
1A155
330
747D
100
AcDbEntity
  8
部品1
 62
     7
 48
50.0
100
AcDbLine
 10
4594.195365439055
 20
976.3125
 30
0.0
 11
4594.195365439055
 21
976.3125
 31
0.0
  0
LINE
  5
1A156
330
747D
100
AcDbEntity
  8
部品1
 62
     7
 48
50.0
100
AcDbLine
 10
4618.007865439055
 20
976.3125
 30
0.0
 11
4618.007865439055
 21
976.3125
 31
0.0
  0
LINE
  5
1A157
330
747D
100
AcDbEntity
  8
部品1
 62
     7
 48
50.0
100
AcDbLine
 10
4641.820365439055
 20
976.3125
 30
0.0
 11
4641.820365439055
 21
976.3125
 31
0.0
  0
LINE
  5
1A158
330
747D
100
AcDbEntity
  8
部品1
 62
     7
 48
50.0
100
AcDbLine
 10
4665.632865439055
 20
976.3125
 30
0.0
 11
4665.632865439055
 21
976.3125
 31
0.0
  0
LINE
  5
1A159
330
747D
100
AcDbEntity
  8
部品1
 62
     7
 48
50.0
100
AcDbLine
 10
4689.445365439055
 20
976.3125
 30
0.0
 11
4689.445365439055
 21
976.3125
 31
0.0
  0
LINE
  5
1A15A
330
747D
100
AcDbEntity
  8
部品1
 62
     7
 48
50.0
100
AcDbLine
 10
4713.257865439055
 20
976.3125
 30
0.0
 11
4713.257865439055
 21
976.3125
 31
0.0
  0
LINE
  5
1A15B
330
747D
100
AcDbEntity
  8
部品1
 62
     7
 48
50.0
100
AcDbLine
 10
4737.070365439055
 20
976.3125
 30
0.0
 11
4737.070365439055
 21
976.3125
 31
0.0
  0
LINE
  5
1A15C
330
747D
100
AcDbEntity
  8
部品1
 62
     7
 48
50.0
100
AcDbLine
 10
4760.882865439054
 20
976.3125
 30
0.0
 11
4760.882865439054
 21
976.3125
 31
0.0
  0
LINE
  5
1A15D
330
747D
100
AcDbEntity
  8
部品1
 62
     7
 48
50.0
100
AcDbLine
 10
4784.695365439055
 20
976.3125
 30
0.0
 11
4784.695365439055
 21
976.3125
 31
0.0
  0
LINE
  5
1A15E
330
747D
100
AcDbEntity
  8
部品1
 62
     7
 48
50.0
100
AcDbLine
 10
4808.507865439054
 20
976.3125
 30
0.0
 11
4808.507865439054
 21
976.3125
 31
0.0
  0
LINE
  5
1A15F
330
747D
100
AcDbEntity
  8
部品1
 62
     7
 48
50.0
100
AcDbLine
 10
4832.320365439055
 20
976.3125
 30
0.0
 11
4832.320365439055
 21
976.3125
 31
0.0
  0
LINE
  5
1A160
330
747D
100
AcDbEntity
  8
部品1
 62
     7
 48
50.0
100
AcDbLine
 10
4463.226615439054
 20
952.5
 30
0.0
 11
4463.226615439054
 21
952.5
 31
0.0
  0
LINE
  5
1A161
330
747D
100
AcDbEntity
  8
部品1
 62
     7
 48
50.0
100
AcDbLine
 10
4487.039115439054
 20
952.5
 30
0.0
 11
4487.039115439054
 21
952.5
 31
0.0
  0
LINE
  5
1A162
330
747D
100
AcDbEntity
  8
部品1
 62
     7
 48
50.0
100
AcDbLine
 10
4510.851615439054
 20
952.5
 30
0.0
 11
4510.851615439054
 21
952.5
 31
0.0
  0
LINE
  5
1A163
330
747D
100
AcDbEntity
  8
部品1
 62
     7
 48
50.0
100
AcDbLine
 10
4534.664115439055
 20
952.5
 30
0.0
 11
4534.664115439055
 21
952.5
 31
0.0
  0
LINE
  5
1A164
330
747D
100
AcDbEntity
  8
部品1
 62
     7
 48
50.0
100
AcDbLine
 10
4558.476615439054
 20
952.5
 30
0.0
 11
4558.476615439054
 21
952.5
 31
0.0
  0
LINE
  5
1A165
330
747D
100
AcDbEntity
  8
部品1
 62
     7
 48
50.0
100
AcDbLine
 10
4582.289115439055
 20
952.5
 30
0.0
 11
4582.289115439055
 21
952.5
 31
0.0
  0
LINE
  5
1A166
330
747D
100
AcDbEntity
  8
部品1
 62
     7
 48
50.0
100
AcDbLine
 10
4606.101615439054
 20
952.5
 30
0.0
 11
4606.101615439054
 21
952.5
 31
0.0
  0
LINE
  5
1A167
330
747D
100
AcDbEntity
  8
部品1
 62
     7
 48
50.0
100
AcDbLine
 10
4629.914115439055
 20
952.5
 30
0.0
 11
4629.914115439055
 21
952.5
 31
0.0
  0
LINE
  5
1A168
330
747D
100
AcDbEntity
  8
部品1
 62
     7
 48
50.0
100
AcDbLine
 10
4653.726615439054
 20
952.5
 30
0.0
 11
4653.726615439054
 21
952.5
 31
0.0
  0
LINE
  5
1A169
330
747D
100
AcDbEntity
  8
部品1
 62
     7
 48
50.0
100
AcDbLine
 10
4677.539115439055
 20
952.5
 30
0.0
 11
4677.539115439055
 21
952.5
 31
0.0
  0
LINE
  5
1A16A
330
747D
100
AcDbEntity
  8
部品1
 62
     7
 48
50.0
100
AcDbLine
 10
4701.351615439054
 20
952.5
 30
0.0
 11
4701.351615439054
 21
952.5
 31
0.0
  0
LINE
  5
1A16B
330
747D
100
AcDbEntity
  8
部品1
 62
     7
 48
50.0
100
AcDbLine
 10
4725.164115439055
 20
952.5
 30
0.0
 11
4725.164115439055
 21
952.5
 31
0.0
  0
LINE
  5
1A16C
330
747D
100
AcDbEntity
  8
部品1
 62
     7
 48
50.0
100
AcDbLine
 10
4748.976615439054
 20
952.5
 30
0.0
 11
4748.976615439054
 21
952.5
 31
0.0
  0
LINE
  5
1A16D
330
747D
100
AcDbEntity
  8
部品1
 62
     7
 48
50.0
100
AcDbLine
 10
4772.789115439055
 20
952.5
 30
0.0
 11
4772.789115439055
 21
952.5
 31
0.0
  0
LINE
  5
1A16E
330
747D
100
AcDbEntity
  8
部品1
 62
     7
 48
50.0
100
AcDbLine
 10
4796.601615439054
 20
952.5
 30
0.0
 11
4796.601615439054
 21
952.5
 31
0.0
  0
LINE
  5
1A16F
330
747D
100
AcDbEntity
  8
部品1
 62
     7
 48
50.0
100
AcDbLine
 10
4820.414115439055
 20
952.5
 30
0.0
 11
4820.414115439055
 21
952.5
 31
0.0
  0
LINE
  5
1A170
330
747D
100
AcDbEntity
  8
部品1
 62
     7
 48
50.0
100
AcDbLine
 10
4844.226615439055
 20
952.5
 30
0.0
 11
4844.226615439055
 21
952.5
 31
0.0
  0
LINE
  5
1A171
330
747D
100
AcDbEntity
  8
部品1
 62
     7
 48
50.0
100
AcDbLine
 10
4475.132865439054
 20
928.6875
 30
0.0
 11
4475.132865439054
 21
928.6875
 31
0.0
  0
LINE
  5
1A172
330
747D
100
AcDbEntity
  8
部品1
 62
     7
 48
50.0
100
AcDbLine
 10
4498.945365439054
 20
928.6875
 30
0.0
 11
4498.945365439054
 21
928.6875
 31
0.0
  0
LINE
  5
1A173
330
747D
100
AcDbEntity
  8
部品1
 62
     7
 48
50.0
100
AcDbLine
 10
4522.757865439055
 20
928.6875
 30
0.0
 11
4522.757865439055
 21
928.6875
 31
0.0
  0
LINE
  5
1A174
330
747D
100
AcDbEntity
  8
部品1
 62
     7
 48
50.0
100
AcDbLine
 10
4546.570365439055
 20
928.6875
 30
0.0
 11
4546.570365439055
 21
928.6875
 31
0.0
  0
LINE
  5
1A175
330
747D
100
AcDbEntity
  8
部品1
 62
     7
 48
50.0
100
AcDbLine
 10
4570.382865439055
 20
928.6875
 30
0.0
 11
4570.382865439055
 21
928.6875
 31
0.0
  0
LINE
  5
1A176
330
747D
100
AcDbEntity
  8
部品1
 62
     7
 48
50.0
100
AcDbLine
 10
4594.195365439055
 20
928.6875
 30
0.0
 11
4594.195365439055
 21
928.6875
 31
0.0
  0
LINE
  5
1A177
330
747D
100
AcDbEntity
  8
部品1
 62
     7
 48
50.0
100
AcDbLine
 10
4618.007865439055
 20
928.6875
 30
0.0
 11
4618.007865439055
 21
928.6875
 31
0.0
  0
LINE
  5
1A178
330
747D
100
AcDbEntity
  8
部品1
 62
     7
 48
50.0
100
AcDbLine
 10
4641.820365439055
 20
928.6875
 30
0.0
 11
4641.820365439055
 21
928.6875
 31
0.0
  0
LINE
  5
1A179
330
747D
100
AcDbEntity
  8
部品1
 62
     7
 48
50.0
100
AcDbLine
 10
4665.632865439055
 20
928.6875
 30
0.0
 11
4665.632865439055
 21
928.6875
 31
0.0
  0
LINE
  5
1A17A
330
747D
100
AcDbEntity
  8
部品1
 62
     7
 48
50.0
100
AcDbLine
 10
4689.445365439055
 20
928.6875
 30
0.0
 11
4689.445365439055
 21
928.6875
 31
0.0
  0
LINE
  5
1A17B
330
747D
100
AcDbEntity
  8
部品1
 62
     7
 48
50.0
100
AcDbLine
 10
4713.257865439055
 20
928.6875
 30
0.0
 11
4713.257865439055
 21
928.6875
 31
0.0
  0
LINE
  5
1A17C
330
747D
100
AcDbEntity
  8
部品1
 62
     7
 48
50.0
100
AcDbLine
 10
4737.070365439055
 20
928.6875
 30
0.0
 11
4737.070365439055
 21
928.6875
 31
0.0
  0
LINE
  5
1A17D
330
747D
100
AcDbEntity
  8
部品1
 62
     7
 48
50.0
100
AcDbLine
 10
4760.882865439054
 20
928.6875
 30
0.0
 11
4760.882865439054
 21
928.6875
 31
0.0
  0
LINE
  5
1A17E
330
747D
100
AcDbEntity
  8
部品1
 62
     7
 48
50.0
100
AcDbLine
 10
4784.695365439055
 20
928.6875
 30
0.0
 11
4784.695365439055
 21
928.6875
 31
0.0
  0
LINE
  5
1A17F
330
747D
100
AcDbEntity
  8
部品1
 62
     7
 48
50.0
100
AcDbLine
 10
4808.507865439054
 20
928.6875
 30
0.0
 11
4808.507865439054
 21
928.6875
 31
0.0
  0
LINE
  5
1A180
330
747D
100
AcDbEntity
  8
部品1
 62
     7
 48
50.0
100
AcDbLine
 10
4832.320365439055
 20
928.6875
 30
0.0
 11
4832.320365439055
 21
928.6875
 31
0.0
  0
LINE
  5
1A181
330
747D
100
AcDbEntity
  8
部品1
 62
     7
 48
50.0
100
AcDbLine
 10
4463.226615439054
 20
904.875
 30
0.0
 11
4463.226615439054
 21
904.875
 31
0.0
  0
LINE
  5
1A182
330
747D
100
AcDbEntity
  8
部品1
 62
     7
 48
50.0
100
AcDbLine
 10
4487.039115439054
 20
904.875
 30
0.0
 11
4487.039115439054
 21
904.875
 31
0.0
  0
LINE
  5
1A183
330
747D
100
AcDbEntity
  8
部品1
 62
     7
 48
50.0
100
AcDbLine
 10
4510.851615439054
 20
904.875
 30
0.0
 11
4510.851615439054
 21
904.875
 31
0.0
  0
LINE
  5
1A184
330
747D
100
AcDbEntity
  8
部品1
 62
     7
 48
50.0
100
AcDbLine
 10
4534.664115439055
 20
904.875
 30
0.0
 11
4534.664115439055
 21
904.875
 31
0.0
  0
LINE
  5
1A185
330
747D
100
AcDbEntity
  8
部品1
 62
     7
 48
50.0
100
AcDbLine
 10
4558.476615439054
 20
904.875
 30
0.0
 11
4558.476615439054
 21
904.875
 31
0.0
  0
LINE
  5
1A186
330
747D
100
AcDbEntity
  8
部品1
 62
     7
 48
50.0
100
AcDbLine
 10
4582.289115439055
 20
904.875
 30
0.0
 11
4582.289115439055
 21
904.875
 31
0.0
  0
LINE
  5
1A187
330
747D
100
AcDbEntity
  8
部品1
 62
     7
 48
50.0
100
AcDbLine
 10
4606.101615439054
 20
904.875
 30
0.0
 11
4606.101615439054
 21
904.875
 31
0.0
  0
LINE
  5
1A188
330
747D
100
AcDbEntity
  8
部品1
 62
     7
 48
50.0
100
AcDbLine
 10
4629.914115439055
 20
904.875
 30
0.0
 11
4629.914115439055
 21
904.875
 31
0.0
  0
LINE
  5
1A189
330
747D
100
AcDbEntity
  8
部品1
 62
     7
 48
50.0
100
AcDbLine
 10
4653.726615439054
 20
904.875
 30
0.0
 11
4653.726615439054
 21
904.875
 31
0.0
  0
LINE
  5
1A18A
330
747D
100
AcDbEntity
  8
部品1
 62
     7
 48
50.0
100
AcDbLine
 10
4677.539115439055
 20
904.875
 30
0.0
 11
4677.539115439055
 21
904.875
 31
0.0
  0
LINE
  5
1A18B
330
747D
100
AcDbEntity
  8
部品1
 62
     7
 48
50.0
100
AcDbLine
 10
4701.351615439054
 20
904.875
 30
0.0
 11
4701.351615439054
 21
904.875
 31
0.0
  0
LINE
  5
1A18C
330
747D
100
AcDbEntity
  8
部品1
 62
     7
 48
50.0
100
AcDbLine
 10
4725.164115439055
 20
904.875
 30
0.0
 11
4725.164115439055
 21
904.875
 31
0.0
  0
LINE
  5
1A18D
330
747D
100
AcDbEntity
  8
部品1
 62
     7
 48
50.0
100
AcDbLine
 10
4748.976615439054
 20
904.875
 30
0.0
 11
4748.976615439054
 21
904.875
 31
0.0
  0
LINE
  5
1A18E
330
747D
100
AcDbEntity
  8
部品1
 62
     7
 48
50.0
100
AcDbLine
 10
4772.789115439055
 20
904.875
 30
0.0
 11
4772.789115439055
 21
904.875
 31
0.0
  0
LINE
  5
1A18F
330
747D
100
AcDbEntity
  8
部品1
 62
     7
 48
50.0
100
AcDbLine
 10
4796.601615439054
 20
904.875
 30
0.0
 11
4796.601615439054
 21
904.875
 31
0.0
  0
LINE
  5
1A190
330
747D
100
AcDbEntity
  8
部品1
 62
     7
 48
50.0
100
AcDbLine
 10
4820.414115439055
 20
904.875
 30
0.0
 11
4820.414115439055
 21
904.875
 31
0.0
  0
LINE
  5
1A191
330
747D
100
AcDbEntity
  8
部品1
 62
     7
 48
50.0
100
AcDbLine
 10
4844.226615439055
 20
904.875
 30
0.0
 11
4844.226615439055
 21
904.875
 31
0.0
  0
TEXT
  5
1A1AA
330
747D
100
AcDbEntity
  8
文字
 62
     7
 48
50.0
100
AcDbText
 10
4413.656703010583
 20
1344.146100785952
 30
0.0
 40
150.0
  1
（　）内寸法は屋根の出幅です。
  7
STYLE1
100
AcDbText
  0
LINE
  5
1A1AB
330
747D
100
AcDbEntity
  8
寸法
 62
     7
 48
50.0
100
AcDbLine
 10
7132.076727602889
 20
1279.625539643202
 30
0.0
 11
4394.414120747471
 21
1279.625539643202
 31
0.0
  0
TEXT
  5
1A1F2
330
747D
100
AcDbEntity
  8
文字
 62
     7
 48
50.0
100
AcDbText
 10
18851.17639418858
 20
1289.447132864035
 30
0.0
 40
125.0
  1
<縮尺> S=1/50
  7
STYLE2
100
AcDbText
  0
TEXT
  5
1A1F3
330
747D
100
AcDbEntity
  8
文字
 62
     7
 48
50.0
100
AcDbText
 10
17947.84348957211
 20
604.8708912389265
 30
0.0
 40
225.0
  1
ＳＭＫ－２５Ｓ
  7
STYLE2
100
AcDbText
  0
TEXT
  5
1A1F4
330
747D
100
AcDbEntity
  8
文字
 62
     7
 48
50.0
100
AcDbText
 10
16501.79587498051
 20
596.5925826289065
 30
0.0
 40
200.0
  1
機種名
  7
STYLE2
100
AcDbText
  0
DIMENSION
  5
1D8F4
330
747D
100
AcDbEntity
  8
寸法
 62
     7
 48
50.0
100
AcDbDimension
  2
*D7
 10
11220.49999999999
 20
5864.955177899423
 30
0.0
 11
10749.99999999999
 21
5964.955177899422
 31
0.0
 70
    32
 71
     5
 42
941.0
  3
INABA_S50G
100
AcDbAlignedDimension
 13
10279.49999999999
 23
6905.955177899423
 33
0.0
 14
11220.49999999999
 24
6254.955177899433
 34
0.0
100
AcDbRotatedDimension
1001
ACAD
1000
DSTYLE
1002
{
1070
   287
1070
     4
1070
    75
1070
     1
1070
   279
1070
     1
1002
}
  0
LINE
  5
1D8F5
330
747D
100
AcDbEntity
  8
想像線
 62
     7
 48
20.0
100
AcDbLine
 10
9283.499999999998
 20
7796.955177899423
 30
0.0
 11
9283.499999999998
 21
6264.955177899423
 31
0.0
  0
LINE
  5
1D8F6
330
747D
100
AcDbEntity
  8
想像線
 62
     7
 48
20.0
100
AcDbLine
 10
11275.5
 20
6264.955177899423
 30
0.0
 11
11275.5
 21
7796.955177899414
 31
0.0
  0
DIMENSION
  5
1D8F7
330
747D
100
AcDbEntity
  8
寸法
 62
     7
 48
50.0
100
AcDbDimension
  2
*D8
 10
8583.499999999999
 20
6399.955177899423
 30
0.0
 11
8483.499999999997
 21
6725.455177899424
 31
0.0
 70
    32
 71
     5
 42
651.0
  3
INABA_S50G
100
AcDbAlignedDimension
 13
10134.49999999999
 23
7050.955177899424
 33
0.0
 14
9193.499999999998
 24
6399.955177899423
 34
0.0
 50
90.0
100
AcDbRotatedDimension
1001
ACAD
1000
DSTYLE
1002
{
1070
   287
1070
     4
1070
    75
1070
     1
1070
   279
1070
     1
1002
}
  0
DIMENSION
  5
1D8F8
330
747D
100
AcDbEntity
  8
寸法
 62
     7
 48
50.0
100
AcDbDimension
  2
*D9
 10
12075.49999999999
 20
7701.955177899434
 30
0.0
 11
11975.48523622046
 21
7050.955177899431
 31
0.0
 70
    32
 71
     5
 42
1302.000000000011
  3
INABA_S50G
100
AcDbAlignedDimension
 13
11365.49999999999
 23
6399.955177899423
 33
0.0
 14
11365.49999999999
 24
7701.955177899434
 34
0.0
 50
90.0
100
AcDbRotatedDimension
  0
MTEXT
  5
1D8F9
102
{ACAD_REACTORS
330
1D911
102
}
330
747D
100
AcDbEntity
  8
細線
 62
     7
 48
50.0
100
AcDbMText
 10
10569.2534945176
 20
6842.569075062613
 30
0.0
 40
150.0
 41
0.0
 71
     4
 72
     5
  1
\A1;C.B
  7
STYLE1
 73
     1
 44
1.0
1001
ACAD
1000
MTEXTBEGIN
1070
    73
1070
     1
1070
    44
1040
1.0
1070
    74
1070
     0
1000
MTEXTEND
  0
DIMENSION
  5
1D8FB
330
747D
100
AcDbEntity
  8
寸法
 62
     7
 48
50.0
100
AcDbDimension
  2
*D10
 10
10279.49999999999
 20
5864.955177899423
 30
0.0
 11
9809.0
 21
5964.955177899422
 31
0.0
 70
    32
 71
     5
 42
941.0
  3
INABA_S50G
100
AcDbAlignedDimension
 13
9338.499999999998
 23
6254.955177899433
 33
0.0
 14
10279.49999999999
 24
6334.955177899434
 34
0.0
100
AcDbRotatedDimension
  0
LINE
  5
1D8FC
330
747D
100
AcDbEntity
  8
部品1
 62
     7
 48
50.0
100
AcDbLine
 10
9979.500000000001
 20
6334.955177899434
 30
0.0
 11
10379.49999999999
 21
6334.955177899434
 31
0.0
  0
LINE
  5
1D8FD
330
747D
100
AcDbEntity
  8
部品1
 62
     7
 48
50.0
100
AcDbLine
 10
9979.500000000001
 20
6534.955177899433
 30
0.0
 11
10379.49999999999
 21
6534.955177899433
 31
0.0
  0
LINE
  5
1D8FE
330
747D
100
AcDbEntity
  8
想像線
 62
     7
 48
20.0
100
AcDbLine
 10
9283.499999999998
 20
6264.955177899423
 30
0.0
 11
11275.5
 21
6264.955177899423
 31
0.0
  0
DIMENSION
  5
1D8FF
330
747D
100
AcDbEntity
  8
寸法
 62
     7
 48
50.0
100
AcDbDimension
  2
*D11
 10
11220.49999999999
 20
5464.955177899437
 30
0.0
 11
10279.49999999999
 21
5564.969941678963
 31
0.0
 70
    32
 71
     5
 42
1882.0
  3
INABA_S50G
100
AcDbAlignedDimension
 13
9338.499999999998
 23
6254.955177899433
 33
0.0
 14
11220.49999999999
 24
6254.955177899433
 34
0.0
100
AcDbRotatedDimension
  0
DIMENSION
  5
1D900
330
747D
100
AcDbEntity
  8
寸法
 62
     7
 48
50.0
100
AcDbDimension
  2
*D12
 10
8583.5
 20
6334.955177899434
 30
0.0
 11
8583.499999999999
 21
5818.098576181626
 31
0.0
 70
   160
  1
扉の出<>
 71
     5
 42
64.99999999998909
  3
INABA_S50G
100
AcDbAlignedDimension
 13
9193.499999999998
 23
6399.955177899423
 33
0.0
 14
9979.500000000001
 24
6334.955177899434
 34
0.0
 50
90.0
100
AcDbRotatedDimension
  0
DIMENSION
  5
1D901
330
747D
100
AcDbEntity
  8
寸法
 62
     7
 48
50.0
100
AcDbDimension
  2
*D13
 10
9338.499999999998
 20
5464.955177899437
 30
0.0
 11
8991.059055118109
 21
5464.955177899437
 31
0.0
 70
   160
  1
(<>)
 71
     5
 42
55.0
  3
INABA_S50G
100
AcDbAlignedDimension
 13
9283.499999999998
 23
6264.955177899423
 33
0.0
 14
9338.499999999998
 24
6254.955177899433
 34
0.0
100
AcDbRotatedDimension
  0
LINE
  5
1D902
330
747D
100
AcDbEntity
  8
点線
 62
     7
 48
10.0
100
AcDbLine
 10
9438.499999999995
 20
6299.955177899414
 30
0.0
 11
9238.499999999998
 21
6299.955177899414
 31
0.0
  0
LINE
  5
1D903
330
747D
100
AcDbEntity
  8
点線
 62
     7
 48
10.0
100
AcDbLine
 10
9438.499999999995
 20
6499.955177899413
 30
0.0
 11
9238.499999999998
 21
6499.955177899413
 31
0.0
  0
LINE
  5
1D904
330
747D
100
AcDbEntity
  8
センター
 62
     7
 48
5.0
100
AcDbLine
 10
9483.499999999997
 20
6399.955177899423
 30
0.0
 11
9193.499999999998
 21
6399.955177899423
 31
0.0
  0
LINE
  5
1D905
330
747D
100
AcDbEntity
  8
点線
 62
     7
 48
10.0
100
AcDbLine
 10
9238.499999999998
 20
6299.955177899414
 30
0.0
 11
9238.499999999998
 21
6499.955177899413
 31
0.0
  0
LINE
  5
1D906
330
747D
100
AcDbEntity
  8
センター
 62
     7
 48
5.0
100
AcDbLine
 10
9338.499999999998
 20
6544.955177899423
 30
0.0
 11
9338.499999999998
 21
6254.955177899433
 31
0.0
  0
LINE
  5
1D907
330
747D
100
AcDbEntity
  8
部品1
 62
     7
 48
50.0
100
AcDbLine
 10
9338.499999999998
 20
6399.955177899423
 30
0.0
 11
9738.500000000001
 21
6399.955177899423
 31
0.0
  0
LINE
  5
1D908
330
747D
100
AcDbEntity
  8
部品1
 62
     7
 48
50.0
100
AcDbLine
 10
9338.499999999998
 20
6599.955177899435
 30
0.0
 11
9738.500000000001
 21
6599.955177899435
 31
0.0
  0
LINE
  5
1D909
330
747D
100
AcDbEntity
  8
部品1
 62
     7
 48
50.0
100
AcDbLine
 10
9338.499999999998
 20
6599.955177899435
 30
0.0
 11
9338.499999999998
 21
6399.955177899423
 31
0.0
  0
LINE
  5
1D90A
330
747D
100
AcDbEntity
  8
点線
 62
     7
 48
10.0
100
AcDbLine
 10
9438.499999999995
 20
6299.955177899414
 30
0.0
 11
9438.499999999995
 21
6499.955177899413
 31
0.0
  0
LINE
  5
1D90B
330
747D
100
AcDbEntity
  8
部品1
 62
     7
 48
50.0
100
AcDbLine
 10
9738.500000000001
 20
6599.955177899435
 30
0.0
 11
9738.500000000001
 21
6399.955177899423
 31
0.0
  0
LINE
  5
1D90C
330
747D
100
AcDbEntity
  8
部品1
 62
     7
 48
50.0
100
AcDbLine
 10
9979.500000000001
 20
6334.955177899434
 30
0.0
 11
9979.500000000001
 21
6534.955177899433
 31
0.0
  0
DIMENSION
  5
1D90D
330
747D
100
AcDbEntity
  8
寸法
 62
     7
 48
50.0
100
AcDbDimension
  2
*D14
 10
12075.5
 20
6264.955177899423
 30
0.0
 11
12075.49999999999
 21
5935.014233017533
 31
0.0
 70
   160
  1
(<>)
 71
     5
 42
135.0
  3
INABA_S50G
100
AcDbAlignedDimension
 13
11365.49999999999
 23
6399.955177899423
 33
0.0
 14
11275.5
 24
6264.955177899423
 34
0.0
 50
90.0
100
AcDbRotatedDimension
  0
DIMENSION
  5
1D90E
330
747D
100
AcDbEntity
  8
寸法
 62
     7
 48
50.0
100
AcDbDimension
  2
*D15
 10
11275.5
 20
5464.955177899437
 30
0.0
 11
11567.94094488189
 21
5464.955177899437
 31
0.0
 70
   160
  1
(<>)
 71
     5
 42
55.00000000000365
  3
INABA_S50G
100
AcDbAlignedDimension
 13
11220.49999999999
 23
6254.955177899433
 33
0.0
 14
11275.5
 24
6264.955177899423
 34
0.0
100
AcDbRotatedDimension
  0
LINE
  5
1D90F
330
747D
100
AcDbEntity
  8
部品1
 62
     7
 48
50.0
100
AcDbLine
 10
10820.49999999999
 20
6599.955177899435
 30
0.0
 11
11220.49999999999
 21
6599.955177899435
 31
0.0
  0
LINE
  5
1D910
330
747D
100
AcDbEntity
  8
部品1
 62
     7
 48
50.0
100
AcDbLine
 10
10820.49999999999
 20
6399.955177899423
 30
0.0
 11
11220.49999999999
 21
6399.955177899423
 31
0.0
  0
LEADER
  5
1D911
330
747D
100
AcDbEntity
  8
寸法
 62
     7
 48
50.0
100
AcDbLeader
  3
INABA_S50G
 71
     0
 73
     0
 74
     0
 75
     1
 40
150.0
 41
231.9898538650462
 76
     3
 10
10279.49999999999
 20
6534.955177899433
 30
0.0
 10
10419.2534945176
 20
6742.569075062615
 30
0.0
 10
10544.2534945176
 20
6742.569075062615
 30
0.0
340
1D8F9
1001
ACAD
1000
DSTYLE
1002
{
1070
     6
1000
DOTSMALL
1002
}
1000
LEANOF
1010
0.0
1020
0.0
1030
0.0
  0
LINE
  5
1D912
330
747D
100
AcDbEntity
  8
部品1
 62
     7
 48
50.0
100
AcDbLine
 10
10379.49999999999
 20
6334.955177899434
 30
0.0
 11
10379.49999999999
 21
6534.955177899433
 31
0.0
  0
LINE
  5
1D913
330
747D
100
AcDbEntity
  8
部品1
 62
     7
 48
50.0
100
AcDbLine
 10
10820.49999999999
 20
6399.955177899423
 30
0.0
 11
10820.49999999999
 21
6599.955177899435
 31
0.0
  0
LINE
  5
1D914
330
747D
100
AcDbEntity
  8
センター
 62
     7
 48
5.0
100
AcDbLine
 10
11220.49999999999
 20
6544.955177899423
 30
0.0
 11
11220.49999999999
 21
6254.955177899433
 31
0.0
  0
LINE
  5
1D915
330
747D
100
AcDbEntity
  8
センター
 62
     7
 48
5.0
100
AcDbLine
 10
11365.49999999999
 20
6399.955177899423
 30
0.0
 11
11075.49999999999
 21
6399.955177899423
 31
0.0
  0
LINE
  5
1D916
330
747D
100
AcDbEntity
  8
部品1
 62
     7
 48
50.0
100
AcDbLine
 10
11220.49999999999
 20
6399.955177899423
 30
0.0
 11
11220.49999999999
 21
6599.955177899435
 31
0.0
  0
LINE
  5
1D917
330
747D
100
AcDbEntity
  8
点線
 62
     7
 48
10.0
100
AcDbLine
 10
11120.49999999999
 20
6499.955177899413
 30
0.0
 11
11320.49999999999
 21
6499.955177899413
 31
0.0
  0
LINE
  5
1D918
330
747D
100
AcDbEntity
  8
点線
 62
     7
 48
10.0
100
AcDbLine
 10
11120.49999999999
 20
6299.955177899414
 30
0.0
 11
11320.49999999999
 21
6299.955177899414
 31
0.0
  0
LINE
  5
1D919
330
747D
100
AcDbEntity
  8
点線
 62
     7
 48
10.0
100
AcDbLine
 10
11120.49999999999
 20
6299.955177899414
 30
0.0
 11
11120.49999999999
 21
6499.955177899413
 31
0.0
  0
LINE
  5
1D91A
330
747D
100
AcDbEntity
  8
点線
 62
     7
 48
10.0
100
AcDbLine
 10
11320.49999999999
 20
6299.955177899414
 30
0.0
 11
11320.49999999999
 21
6499.955177899413
 31
0.0
  0
LINE
  5
1D91B
330
747D
100
AcDbEntity
  8
想像線
 62
     7
 48
20.0
100
AcDbLine
 10
11275.5
 20
7796.955177899414
 30
0.0
 11
9283.499999999998
 21
7796.955177899423
 31
0.0
  0
MTEXT
  5
1D91C
102
{ACAD_REACTORS
330
1D91E
102
}
330
747D
100
AcDbEntity
  8
細線
 62
     7
 48
50.0
100
AcDbMText
 10
9968.057947896989
 20
8523.481252862245
 30
0.0
 40
150.0
 41
0.0
 71
     4
 72
     5
  1
\A1;組立後\P現場打コンクリート
  7
STYLE1
 73
     1
 44
1.0
1001
ACAD
1000
MTEXTBEGIN
1070
    73
1070
     1
1070
    44
1040
1.0
1070
    74
1070
     0
1000
MTEXTEND
  0
DIMENSION
  5
1D91D
330
747D
100
AcDbEntity
  8
寸法
 62
     7
 48
50.0
100
AcDbDimension
  2
*D16
 10
8583.499999999999
 20
7050.955177899424
 30
0.0
 11
8483.499999999997
 21
7376.455177899429
 31
0.0
 70
    32
 71
     5
 42
651.0000000000109
  3
INABA_S50G
100
AcDbAlignedDimension
 13
8833.499999999999
 23
7701.955177899434
 33
0.0
 14
10134.49999999999
 24
7050.955177899424
 34
0.0
 50
90.0
100
AcDbRotatedDimension
  0
LEADER
  5
1D91E
330
747D
100
AcDbEntity
  8
寸法
 62
     7
 48
50.0
100
AcDbLeader
  3
INABA_S50G
 71
     0
 73
     0
 74
     0
 75
     1
 40
400.0
 41
1602.936553006147
 76
     3
 10
9388.55422331874
 20
7751.966894634247
 30
0.0
 10
9818.057947896988
 20
8298.481252862243
 30
0.0
 10
9943.057947896988
 20
8298.481252862243
 30
0.0
340
1D91C
1001
ACAD
1000
DSTYLE
1002
{
1070
     6
1000
DOTSMALL
1002
}
1000
LEANOF
1010
0.0
1020
0.0
1030
0.0
  0
DIMENSION
  5
1D91F
330
747D
100
AcDbEntity
  8
寸法
 62
     7
 48
50.0
100
AcDbDimension
  2
*D17
 10
9238.499999999998
 20
8096.955177899422
 30
0.0
 11
9338.499999999998
 21
8096.955177899422
 31
0.0
 70
   160
 71
     5
 42
200.0
  3
INABA_S50G
100
AcDbAlignedDimension
 13
9438.499999999995
 23
7801.955177899422
 33
0.0
 14
9238.499999999998
 24
7801.955177899422
 34
0.0
100
AcDbRotatedDimension
  0
LINE
  5
1D920
330
747D
100
AcDbEntity
  8
点線
 62
     7
 48
10.0
100
AcDbLine
 10
9438.499999999995
 20
7801.955177899422
 30
0.0
 11
9238.499999999998
 21
7801.955177899422
 31
0.0
  0
LINE
  5
1D921
330
747D
100
AcDbEntity
  8
点線
 62
     7
 48
10.0
100
AcDbLine
 10
9438.499999999995
 20
7601.955177899434
 30
0.0
 11
9238.499999999998
 21
7601.955177899434
 31
0.0
  0
LINE
  5
1D922
330
747D
100
AcDbEntity
  8
センター
 62
     7
 48
5.0
100
AcDbLine
 10
9483.499999999997
 20
7701.955177899434
 30
0.0
 11
9193.499999999998
 21
7701.955177899434
 31
0.0
  0
DIMENSION
  5
1D923
330
747D
100
AcDbEntity
  8
寸法
 62
     7
 48
50.0
100
AcDbDimension
  2
*D18
 10
8983.499999999997
 20
7601.955177899434
 30
0.0
 11
8983.499999999997
 21
7701.95517789943
 31
0.0
 70
   160
 71
     5
 42
199.999999999989
  3
INABA_S50G
100
AcDbAlignedDimension
 13
9238.499999999998
 23
7801.955177899422
 33
0.0
 14
9238.499999999998
 24
7601.955177899434
 34
0.0
 50
90.0
100
AcDbRotatedDimension
  0
LINE
  5
1D924
330
747D
100
AcDbEntity
  8
点線
 62
     7
 48
10.0
100
AcDbLine
 10
9238.499999999998
 20
7801.955177899422
 30
0.0
 11
9238.499999999998
 21
7601.955177899434
 31
0.0
  0
LINE
  5
1D925
330
747D
100
AcDbEntity
  8
部品1
 62
     7
 48
50.0
100
AcDbLine
 10
9738.500000000001
 20
7501.955177899434
 30
0.0
 11
9338.499999999998
 21
7501.955177899434
 31
0.0
  0
LINE
  5
1D926
330
747D
100
AcDbEntity
  8
部品1
 62
     7
 48
50.0
100
AcDbLine
 10
9738.500000000001
 20
7701.955177899434
 30
0.0
 11
9338.499999999998
 21
7701.955177899434
 31
0.0
  0
LINE
  5
1D927
330
747D
100
AcDbEntity
  8
センター
 62
     7
 48
5.0
100
AcDbLine
 10
9338.499999999998
 20
7846.955177899435
 30
0.0
 11
9338.499999999998
 21
7556.955177899422
 31
0.0
  0
LINE
  5
1D928
330
747D
100
AcDbEntity
  8
点線
 62
     7
 48
10.0
100
AcDbLine
 10
9438.499999999995
 20
7801.955177899422
 30
0.0
 11
9438.499999999995
 21
7601.955177899434
 31
0.0
  0
LINE
  5
1D929
330
747D
100
AcDbEntity
  8
部品1
 62
     7
 48
50.0
100
AcDbLine
 10
9338.499999999998
 20
7701.955177899434
 30
0.0
 11
9338.499999999998
 21
7501.955177899434
 31
0.0
  0
LINE
  5
1D92A
330
747D
100
AcDbEntity
  8
部品1
 62
     7
 48
50.0
100
AcDbLine
 10
9738.500000000001
 20
7701.955177899434
 30
0.0
 11
9738.500000000001
 21
7501.955177899434
 31
0.0
  0
DIMENSION
  5
1D92B
330
747D
100
AcDbEntity
  8
寸法
 62
     7
 48
50.0
100
AcDbDimension
  2
*D19
 10
12075.5
 20
7796.955177899414
 30
0.0
 11
12075.49999999999
 21
8089.658197568384
 31
0.0
 70
   160
  1
(<>)
 71
     5
 42
94.99999999997999
  3
INABA_S50G
100
AcDbAlignedDimension
 13
11365.49999999999
 23
7701.955177899434
 33
0.0
 14
11275.5
 24
7796.955177899414
 34
0.0
 50
90.0
100
AcDbRotatedDimension
  0
LEADER
  5
1D92C
330
747D
100
AcDbEntity
  8
寸法
 62
     7
 48
50.0
100
AcDbLeader
  3
INABA_S50G
 73
     0
 74
     0
 75
     1
 40
150.0
 41
840.0
 76
     3
 10
10279.49999999999
 20
7796.955177899423
 30
0.0
 10
10494.15206936182
 20
7998.728998074675
 30
0.0
 10
10619.15206936182
 20
7998.728998074675
 30
0.0
340
1D92D
1001
ACAD
1000
DSTYLE
1002
{
1070
     6
1000

1070
    40
1040
1.0
1070
   341
1005
0
1070
   343
1005
0
1070
   344
1005
0
1002
}
1000
LEANOF
1010
0.0
1020
0.0
1030
0.0
  0
MTEXT
  5
1D92D
102
{ACAD_REACTORS
330
1D92C
102
}
330
747D
100
AcDbEntity
  8
部品1
 62
     7
 48
50.0
100
AcDbMText
 10
11484.15206936182
 20
8098.728998074674
 30
0.0
 40
150.0
 41
0.0
 71
     6
 72
     5
  1
\A1;屋根の外寸
  7
STYLE1
 73
     1
 44
1.0
1001
ACAD
1000
MTEXTBEGIN
1070
    73
1070
     1
1070
    44
1040
1.0
1070
    74
1070
     0
1000
MTEXTEND
  0
LINE
  5
1D92E
330
747D
100
AcDbEntity
  8
部品1
 62
     7
 48
50.0
100
AcDbLine
 10
11220.49999999999
 20
7701.955177899434
 30
0.0
 11
10820.49999999999
 21
7701.955177899434
 31
0.0
  0
LINE
  5
1D92F
330
747D
100
AcDbEntity
  8
部品1
 62
     7
 48
50.0
100
AcDbLine
 10
11220.49999999999
 20
7501.955177899434
 30
0.0
 11
10820.49999999999
 21
7501.955177899434
 31
0.0
  0
LINE
  5
1D930
330
747D
100
AcDbEntity
  8
センター
 62
     7
 48
5.0
100
AcDbLine
 10
10279.49999999999
 20
7195.955177899422
 30
0.0
 11
10279.49999999999
 21
6905.955177899423
 31
0.0
  0
LINE
  5
1D931
330
747D
100
AcDbEntity
  8
部品1
 62
     7
 48
50.0
100
AcDbLine
 10
10379.49999999999
 20
7150.955177899423
 30
0.0
 11
10379.49999999999
 21
6950.955177899423
 31
0.0
  0
LINE
  5
1D932
330
747D
100
AcDbEntity
  8
部品1
 62
     7
 48
50.0
100
AcDbLine
 10
10179.49999999999
 20
6950.955177899423
 30
0.0
 11
10179.49999999999
 21
7150.955177899423
 31
0.0
  0
LINE
  5
1D933
330
747D
100
AcDbEntity
  8
部品1
 62
     7
 48
50.0
100
AcDbLine
 10
10379.49999999999
 20
6950.955177899423
 30
0.0
 11
10179.49999999999
 21
6950.955177899423
 31
0.0
  0
LINE
  5
1D934
330
747D
100
AcDbEntity
  8
センター
 62
     7
 48
5.0
100
AcDbLine
 10
10424.49999999999
 20
7050.955177899424
 30
0.0
 11
10134.49999999999
 21
7050.955177899424
 31
0.0
  0
LINE
  5
1D935
330
747D
100
AcDbEntity
  8
部品1
 62
     7
 48
50.0
100
AcDbLine
 10
10179.49999999999
 20
7150.955177899423
 30
0.0
 11
10379.49999999999
 21
7150.955177899423
 31
0.0
  0
LINE
  5
1D936
330
747D
100
AcDbEntity
  8
部品1
 62
     7
 48
50.0
100
AcDbLine
 10
10179.49999999999
 20
7701.955177899434
 30
0.0
 11
10379.49999999999
 21
7701.955177899434
 31
0.0
  0
LINE
  5
1D937
330
747D
100
AcDbEntity
  8
部品1
 62
     7
 48
50.0
100
AcDbLine
 10
10379.49999999999
 20
7501.955177899434
 30
0.0
 11
10179.49999999999
 21
7501.955177899434
 31
0.0
  0
LINE
  5
1D938
330
747D
100
AcDbEntity
  8
部品1
 62
     7
 48
50.0
100
AcDbLine
 10
10179.49999999999
 20
7501.955177899434
 30
0.0
 11
10179.49999999999
 21
7701.955177899434
 31
0.0
  0
LINE
  5
1D939
330
747D
100
AcDbEntity
  8
部品1
 62
     7
 48
50.0
100
AcDbLine
 10
10379.49999999999
 20
7701.955177899434
 30
0.0
 11
10379.49999999999
 21
7501.955177899434
 31
0.0
  0
LINE
  5
1D93A
330
747D
100
AcDbEntity
  8
部品1
 62
     7
 48
50.0
100
AcDbLine
 10
10820.49999999999
 20
7501.955177899434
 30
0.0
 11
10820.49999999999
 21
7701.955177899434
 31
0.0
  0
LINE
  5
1D93B
330
747D
100
AcDbEntity
  8
センター
 62
     7
 48
5.0
100
AcDbLine
 10
11365.49999999999
 20
7701.955177899434
 30
0.0
 11
11075.49999999999
 21
7701.955177899434
 31
0.0
  0
LINE
  5
1D93C
330
747D
100
AcDbEntity
  8
センター
 62
     7
 48
5.0
100
AcDbLine
 10
11220.49999999999
 20
7846.955177899435
 30
0.0
 11
11220.49999999999
 21
7556.955177899422
 31
0.0
  0
LINE
  5
1D93D
330
747D
100
AcDbEntity
  8
点線
 62
     7
 48
10.0
100
AcDbLine
 10
11120.49999999999
 20
7801.955177899422
 30
0.0
 11
11120.49999999999
 21
7601.955177899434
 31
0.0
  0
LINE
  5
1D93E
330
747D
100
AcDbEntity
  8
点線
 62
     7
 48
10.0
100
AcDbLine
 10
11320.49999999999
 20
7801.955177899422
 30
0.0
 11
11320.49999999999
 21
7601.955177899434
 31
0.0
  0
LINE
  5
1D93F
330
747D
100
AcDbEntity
  8
点線
 62
     7
 48
10.0
100
AcDbLine
 10
11120.49999999999
 20
7601.955177899434
 30
0.0
 11
11320.49999999999
 21
7601.955177899434
 31
0.0
  0
LINE
  5
1D940
330
747D
100
AcDbEntity
  8
部品1
 62
     7
 48
50.0
100
AcDbLine
 10
11220.49999999999
 20
7501.955177899434
 30
0.0
 11
11220.49999999999
 21
7701.955177899434
 31
0.0
  0
LINE
  5
1D941
330
747D
100
AcDbEntity
  8
点線
 62
     7
 48
10.0
100
AcDbLine
 10
11120.49999999999
 20
7801.955177899422
 30
0.0
 11
11320.49999999999
 21
7801.955177899422
 31
0.0
  0
ENDSEC
  0
SECTION
  2
OBJECTS
  0
DICTIONARY
  5
7471
330
0
100
AcDbDictionary
281
     1
  3
ACAD_COLOR
350
1DC07
  3
ACAD_GROUP
350
7472
  3
ACAD_LAYOUT
350
1A1FB
  3
ACAD_MATERIAL
350
1DC06
  3
ACAD_MLINESTYLE
350
7473
  3
ACAD_PLOTSETTINGS
350
1A1FC
  3
ACAD_PLOTSTYLENAME
350
1A1F9
  3
ACDBVARIABLEDICTIONARY
350
1152B
  3
CONTENTDICTIONARY
350
E71C
  3
DRAWINGVARIABLESDICT
350
F3B9
  0
DICTIONARY
  5
1DC07
102
{ACAD_REACTORS
330
7471
102
}
330
7471
100
AcDbDictionary
281
     1
  0
DICTIONARY
  5
7472
102
{ACAD_REACTORS
330
7471
102
}
330
7471
100
AcDbDictionary
281
     1
  0
DICTIONARY
  5
1A1FB
102
{ACAD_REACTORS
330
7471
102
}
330
7471
100
AcDbDictionary
281
     1
  3
Model
350
1A1FD
  3
ﾚｲｱｳﾄ1
350
1A1FE
  0
DICTIONARY
  5
1DC06
102
{ACAD_REACTORS
330
7471
102
}
330
7471
100
AcDbDictionary
281
     1
  0
DICTIONARY
  5
7473
102
{ACAD_REACTORS
330
7471
102
}
330
7471
100
AcDbDictionary
281
     1
  3
STANDARD
350
7480
  0
DICTIONARY
  5
1A1FC
102
{ACAD_REACTORS
330
7471
102
}
330
7471
100
AcDbDictionary
281
     1
  0
ACDBDICTIONARYWDFLT
  5
1A1F9
102
{ACAD_REACTORS
330
7471
102
}
330
7471
100
AcDbDictionary
281
     1
  3
Normal
350
1A1FA
100
AcDbDictionaryWithDefault
340
1A1FA
  0
DICTIONARY
  5
1152B
102
{ACAD_REACTORS
330
7471
102
}
330
7471
100
AcDbDictionary
281
     1
  3
SORTENTS
350
1152C
  0
DICTIONARY
  5
E71C
102
{ACAD_REACTORS
330
7471
102
}
330
7471
100
AcDbDictionary
281
     1
  0
DICTIONARY
  5
F3B9
102
{ACAD_REACTORS
330
7471
102
}
330
7471
100
AcDbDictionary
281
     1
1001
DRAWINGVARIABLESXDATA
1000
POLARMODE
1000
1
  0
LAYOUT
  5
1A1FD
102
{ACAD_REACTORS
330
1A1FB
102
}
330
1A1FB
100
AcDbPlotSettings
  1

  2
\\NKZ-SERVER\EPSON LP-9000
  4

  6

 40
0.0
 41
0.0
 42
0.0
 43
0.0
 44
0.0
 45
0.0
 46
0.0
 47
0.0
 48
0.0
 49
0.0
140
0.0
141
0.0
142
1.0
143
1.0
 70
  1712
 72
     0
 73
     0
 74
     0
  7

 75
     0
147
1.0
 76
     0
 77
     2
 78
   300
148
0.0
149
0.0
100
AcDbLayout
  1
Model
 70
     1
 71
     0
 10
0.0
 20
0.0
 11
12.0
 21
9.0
 12
0.0
 22
0.0
 32
0.0
 14
0.0
 24
0.0
 34
0.0
 15
0.0
 25
0.0
 35
0.0
146
0.0
 13
0.0
 23
0.0
 33
0.0
 16
1.0
 26
0.0
 36
0.0
 17
0.0
 27
1.0
 37
0.0
 76
     0
330
747D
  0
LAYOUT
  5
1A1FE
102
{ACAD_REACTORS
330
1A1FB
102
}
330
1A1FB
100
AcDbPlotSettings
  1

  2
\\NKZ-SERVER\EPSON LP-9000
  4

  6

 40
0.0
 41
0.0
 42
0.0
 43
0.0
 44
0.0
 45
0.0
 46
0.0
 47
0.0
 48
0.0
 49
0.0
140
0.0
141
0.0
142
1.0
143
1.0
 70
   688
 72
     0
 73
     0
 74
     5
  7

 75
    16
147
1.0
 76
     0
 77
     2
 78
   300
148
0.0
149
0.0
100
AcDbLayout
  1
ﾚｲｱｳﾄ1
 70
     0
 71
     1
 10
0.0
 20
0.0
 11
420.0
 21
297.0
 12
0.0
 22
0.0
 32
0.0
 14
1.000000000000000E+20
 24
1.000000000000000E+20
 34
1.000000000000000E+20
 15
-1.000000000000000E+20
 25
-1.000000000000000E+20
 35
-1.000000000000000E+20
146
0.0
 13
0.0
 23
0.0
 33
0.0
 16
1.0
 26
0.0
 36
0.0
 17
0.0
 27
1.0
 37
0.0
 76
     0
330
747A
  0
MLINESTYLE
  5
7480
102
{ACAD_REACTORS
330
7473
102
}
330
7473
100
AcDbMlineStyle
  2
STANDARD
 70
     0
  3

 62
     0
 51
90.0
 52
90.0
 71
     2
 49
0.5
 62
   256
  6
BYLAYER
 49
-0.5
 62
   256
  6
BYLAYER
  0
ACDBPLACEHOLDER
  5
1A1FA
102
{ACAD_REACTORS
330
1A1F9
102
}
330
1A1F9
  0
DICTIONARYVAR
  5
1152C
102
{ACAD_REACTORS
330
1152B
102
}
330
1152B
100
DictionaryVariables
280
     0
  1
96
  0
ENDSEC
  0
EOF
