  0
SECTION
  2
HEADER
  9
$ACADVER
  1
AC1015
  9
$ACADMAINTVER
 70
    20
  9
$DWGCODEPAGE
  3
ANSI_932
  9
$INSBASE
 10
0.0
 20
0.0
 30
0.0
  9
$EXTMIN
 10
139.9999999999963
 20
-0.2045454545459093
 30
0.0
  9
$EXTMAX
 10
16308.93863636363
 20
11409.6
 30
0.0
  9
$LIMMIN
 10
0.0
 20
0.0
  9
$LIMMAX
 10
16800.0
 20
11880.0
  9
$ORTHOMODE
 70
     0
  9
$REGENMODE
 70
     1
  9
$FILLMODE
 70
     1
  9
$QTEXTMODE
 70
     0
  9
$MIRRTEXT
 70
     1
  9
$LTSCALE
 40
20.0
  9
$ATTMODE
 70
     1
  9
$TEXTSIZE
 40
100.0
  9
$TRACEWID
 40
1.0
  9
$TEXTSTYLE
  7
STYLE3
  9
$CLAYER
  8
部品1
  9
$CELTYPE
  6
BYLAYER
  9
$CECOLOR
 62
   256
  9
$CELTSCALE
 40
50.0
  9
$DISPSILH
 70
     0
  9
$DIMSCALE
 40
40.0
  9
$DIMASZ
 40
2.5
  9
$DIMEXO
 40
0.5
  9
$DIMDLI
 40
7.0
  9
$DIMRND
 40
0.0
  9
$DIMDLE
 40
0.0
  9
$DIMEXE
 40
1.5
  9
$DIMTP
 40
0.0
  9
$DIMTM
 40
0.0
  9
$DIMTXT
 40
3.0
  9
$DIMCEN
 40
0.0
  9
$DIMTSZ
 40
0.0
  9
$DIMTOL
 70
     0
  9
$DIMLIM
 70
     0
  9
$DIMTIH
 70
     0
  9
$DIMTOH
 70
     0
  9
$DIMSE1
 70
     0
  9
$DIMSE2
 70
     0
  9
$DIMTAD
 70
     3
  9
$DIMZIN
 70
     8
  9
$DIMBLK
  1

  9
$DIMASO
 70
     1
  9
$DIMSHO
 70
     1
  9
$DIMPOST
  1

  9
$DIMAPOST
  1

  9
$DIMALT
 70
     0
  9
$DIMALTD
 70
     2
  9
$DIMALTF
 40
0.0394
  9
$DIMLFAC
 40
1.0
  9
$DIMTOFL
 70
     1
  9
$DIMTVP
 40
0.0
  9
$DIMTIX
 70
     1
  9
$DIMSOXD
 70
     0
  9
$DIMSAH
 70
     1
  9
$DIMBLK1
  1
DOTSMALL
  9
$DIMBLK2
  1
DOTSMALL
  9
$DIMSTYLE
  2
INABA_S40G
  9
$DIMCLRD
 70
     0
  9
$DIMCLRE
 70
     0
  9
$DIMCLRT
 70
     7
  9
$DIMTFAC
 40
1.0
  9
$DIMGAP
 40
1.0
  9
$DIMJUST
 70
     0
  9
$DIMSD1
 70
     0
  9
$DIMSD2
 70
     0
  9
$DIMTOLJ
 70
     1
  9
$DIMTZIN
 70
     0
  9
$DIMALTZ
 70
     0
  9
$DIMALTTZ
 70
     0
  9
$DIMUPT
 70
     0
  9
$DIMDEC
 70
     1
  9
$DIMTDEC
 70
     4
  9
$DIMALTU
 70
     2
  9
$DIMALTTD
 70
     2
  9
$DIMTXSTY
  7
STYLE1
  9
$DIMAUNIT
 70
     0
  9
$DIMADEC
 70
     0
  9
$DIMALTRND
 40
0.0
  9
$DIMAZIN
 70
     0
  9
$DIMDSEP
 70
    46
  9
$DIMATFIT
 70
     3
  9
$DIMFRAC
 70
     0
  9
$DIMLDRBLK
  1

  9
$DIMLUNIT
 70
     2
  9
$DIMLWD
 70
    -2
  9
$DIMLWE
 70
    -2
  9
$DIMTMOVE
 70
     0
  9
$LUNITS
 70
     2
  9
$LUPREC
 70
     1
  9
$SKETCHINC
 40
1.0
  9
$FILLETRAD
 40
0.0
  9
$AUNITS
 70
     0
  9
$AUPREC
 70
     0
  9
$MENU
  1
acad
  9
$ELEVATION
 40
0.0
  9
$PELEVATION
 40
0.0
  9
$THICKNESS
 40
0.0
  9
$LIMCHECK
 70
     0
  9
$CHAMFERA
 40
0.0
  9
$CHAMFERB
 40
0.0
  9
$CHAMFERC
 40
0.0
  9
$CHAMFERD
 40
0.0
  9
$SKPOLY
 70
     0
  9
$TDCREATE
 40
2455610.660784676
  9
$TDUCREATE
 40
2455610.285784676
  9
$TDUPDATE
 40
2455827.765864213
  9
$TDUUPDATE
 40
2455827.390864213
  9
$TDINDWG
 40
0.0138970370
  9
$TDUSRTIMER
 40
0.0138970370
  9
$USRTIMER
 70
     1
  9
$ANGBASE
 50
0.0
  9
$ANGDIR
 70
     0
  9
$PDMODE
 70
     3
  9
$PDSIZE
 40
2.0
  9
$PLINEWID
 40
0.0
  9
$SPLFRAME
 70
     0
  9
$SPLINETYPE
 70
     6
  9
$SPLINESEGS
 70
     8
  9
$HANDSEED
  5
13762
  9
$SURFTAB1
 70
     6
  9
$SURFTAB2
 70
     6
  9
$SURFTYPE
 70
     6
  9
$SURFU
 70
     6
  9
$SURFV
 70
     6
  9
$UCSBASE
  2

  9
$UCSNAME
  2

  9
$UCSORG
 10
0.0
 20
0.0
 30
0.0
  9
$UCSXDIR
 10
1.0
 20
0.0
 30
0.0
  9
$UCSYDIR
 10
0.0
 20
1.0
 30
0.0
  9
$UCSORTHOREF
  2

  9
$UCSORTHOVIEW
 70
     0
  9
$UCSORGTOP
 10
0.0
 20
0.0
 30
0.0
  9
$UCSORGBOTTOM
 10
0.0
 20
0.0
 30
0.0
  9
$UCSORGLEFT
 10
0.0
 20
0.0
 30
0.0
  9
$UCSORGRIGHT
 10
0.0
 20
0.0
 30
0.0
  9
$UCSORGFRONT
 10
0.0
 20
0.0
 30
0.0
  9
$UCSORGBACK
 10
0.0
 20
0.0
 30
0.0
  9
$PUCSBASE
  2

  9
$PUCSNAME
  2

  9
$PUCSORG
 10
0.0
 20
0.0
 30
0.0
  9
$PUCSXDIR
 10
1.0
 20
0.0
 30
0.0
  9
$PUCSYDIR
 10
0.0
 20
1.0
 30
0.0
  9
$PUCSORTHOREF
  2

  9
$PUCSORTHOVIEW
 70
     0
  9
$PUCSORGTOP
 10
0.0
 20
0.0
 30
0.0
  9
$PUCSORGBOTTOM
 10
0.0
 20
0.0
 30
0.0
  9
$PUCSORGLEFT
 10
0.0
 20
0.0
 30
0.0
  9
$PUCSORGRIGHT
 10
0.0
 20
0.0
 30
0.0
  9
$PUCSORGFRONT
 10
0.0
 20
0.0
 30
0.0
  9
$PUCSORGBACK
 10
0.0
 20
0.0
 30
0.0
  9
$USERI1
 70
     0
  9
$USERI2
 70
     0
  9
$USERI3
 70
     0
  9
$USERI4
 70
     0
  9
$USERI5
 70
     0
  9
$USERR1
 40
0.0
  9
$USERR2
 40
0.0
  9
$USERR3
 40
0.0
  9
$USERR4
 40
0.0
  9
$USERR5
 40
0.0
  9
$WORLDVIEW
 70
     1
  9
$SHADEDGE
 70
     3
  9
$SHADEDIF
 70
    70
  9
$TILEMODE
 70
     1
  9
$MAXACTVP
 70
    16
  9
$PINSBASE
 10
0.0
 20
0.0
 30
0.0
  9
$PLIMCHECK
 70
     0
  9
$PEXTMIN
 10
1.000000000000000E+20
 20
1.000000000000000E+20
 30
1.000000000000000E+20
  9
$PEXTMAX
 10
-1.000000000000000E+20
 20
-1.000000000000000E+20
 30
-1.000000000000000E+20
  9
$PLIMMIN
 10
0.0
 20
0.0
  9
$PLIMMAX
 10
420.0
 20
297.0
  9
$UNITMODE
 70
     0
  9
$VISRETAIN
 70
     0
  9
$PLINEGEN
 70
     0
  9
$PSLTSCALE
 70
     0
  9
$TREEDEPTH
 70
  3020
  9
$CMLSTYLE
  2
STANDARD
  9
$CMLJUST
 70
     0
  9
$CMLSCALE
 40
1.0
  9
$PROXYGRAPHICS
 70
     1
  9
$MEASUREMENT
 70
     1
  9
$CELWEIGHT
370
    -1
  9
$ENDCAPS
280
     0
  9
$JOINSTYLE
280
     0
  9
$LWDISPLAY
290
     0
  9
$INSUNITS
 70
     0
  9
$HYPERLINKBASE
  1

  9
$STYLESHEET
  1
inaba.ctb
  9
$XEDIT
290
     1
  9
$CEPSNTYPE
380
     0
  9
$PSTYLEMODE
290
     1
  9
$FINGERPRINTGUID
  2
{98B97EBC-4889-44E3-87A9-F3DEF69DCC76}
  9
$VERSIONGUID
  2
{8DE4CFD6-E066-4E8B-8CB1-C144D6D7AE36}
  9
$EXTNAMES
290
     1
  9
$PSVPSCALE
 40
0.0
  9
$OLESTARTUP
290
     0
  0
ENDSEC
  0
SECTION
  2
CLASSES
  0
CLASS
  1
ACDBDICTIONARYWDFLT
  2
AcDbDictionaryWithDefault
  3
ObjectDBX Classes
 90
        0
280
     0
281
     0
  0
CLASS
  1
DICTIONARYVAR
  2
AcDbDictionaryVar
  3
ObjectDBX Classes
 90
        0
280
     0
281
     0
  0
CLASS
  1
ACDBPLACEHOLDER
  2
AcDbPlaceHolder
  3
ObjectDBX Classes
 90
        0
280
     0
281
     0
  0
CLASS
  1
LAYOUT
  2
AcDbLayout
  3
ObjectDBX Classes
 90
        0
280
     0
281
     0
  0
ENDSEC
  0
SECTION
  2
TABLES
  0
TABLE
  2
VPORT
  5
746D
330
0
100
AcDbSymbolTable
 70
     2
  0
VPORT
  5
1375A
330
746D
100
AcDbSymbolTableRecord
100
AcDbViewportTableRecord
  2
*Active
 70
     0
 10
0.0
 20
0.0
 11
1.0
 21
1.0
 12
8224.401894379873
 22
5704.778636999662
 13
0.0
 23
0.0
 14
10.0
 24
10.0
 15
10.0
 25
10.0
 16
0.0
 26
0.0
 36
1.0
 17
0.0
 27
0.0
 37
0.0
 40
11494.69834606276
 41
1.522222222222221
 42
50.0
 43
0.0
 44
0.0
 50
0.0
 51
0.0
 71
     0
 72
     0
 73
     1
 74
     0
 75
     0
 76
     0
 77
     0
 78
     0
281
     0
 65
     1
110
0.0
120
0.0
130
0.0
111
1.0
121
0.0
131
0.0
112
0.0
122
1.0
132
0.0
 79
     0
146
0.0
  0
ENDTAB
  0
TABLE
  2
LTYPE
  5
746A
330
0
100
AcDbSymbolTable
 70
     4
  0
LTYPE
  5
7477
330
746A
100
AcDbSymbolTableRecord
100
AcDbLinetypeTableRecord
  2
BYBLOCK
 70
     0
  3

 72
    65
 73
     0
 40
0.0
  0
LTYPE
  5
7478
330
746A
100
AcDbSymbolTableRecord
100
AcDbLinetypeTableRecord
  2
BYLAYER
 70
     0
  3

 72
    65
 73
     0
 40
0.0
  0
LTYPE
  5
7479
330
746A
100
AcDbSymbolTableRecord
100
AcDbLinetypeTableRecord
  2
CONTINUOUS
 70
     0
  3
Solid line
 72
    65
 73
     0
 40
0.0
  0
LTYPE
  5
7816
330
746A
100
AcDbSymbolTableRecord
100
AcDbLinetypeTableRecord
  2
CENTER
 70
     0
  3
____ _ ____ _ ____ _ ____ _ ____ _ ____ _ ____ 
 72
    65
 73
     4
 40
2.0
 49
1.25
 74
     0
 49
-0.25
 74
     0
 49
0.25
 74
     0
 49
-0.25
 74
     0
  0
LTYPE
  5
781A
330
746A
100
AcDbSymbolTableRecord
100
AcDbLinetypeTableRecord
  2
HIDDEN
 70
     0
  3
__ __ __ __ __ __ __ __ __ __ __ __ __ __ __ __
 72
    65
 73
     2
 40
0.375
 49
0.25
 74
     0
 49
-0.125
 74
     0
  0
LTYPE
  5
781B
330
746A
100
AcDbSymbolTableRecord
100
AcDbLinetypeTableRecord
  2
PHANTOM
 70
     0
  3
______  __  __  ______  __  __  ______  __  __ 
 72
    65
 73
     6
 40
2.5
 49
1.25
 74
     0
 49
-0.25
 74
     0
 49
0.25
 74
     0
 49
-0.25
 74
     0
 49
0.25
 74
     0
 49
-0.25
 74
     0
  0
ENDTAB
  0
TABLE
  2
LAYER
  5
7467
102
{ACAD_XDICTIONARY
360
118CA
102
}
330
0
100
AcDbSymbolTable
 70
    12
  0
LAYER
  5
7474
330
7467
100
AcDbSymbolTableRecord
100
AcDbLayerTableRecord
  2
0
 70
     0
 62
     7
  6
CONTINUOUS
370
    -3
390
11785
  0
LAYER
  5
DEB2
330
7467
100
AcDbSymbolTableRecord
100
AcDbLayerTableRecord
  2
センター
 70
     0
 62
     3
  6
CENTER
370
    -3
390
11785
  0
LAYER
  5
DEB3
330
7467
100
AcDbSymbolTableRecord
100
AcDbLayerTableRecord
  2
寸法
 70
     0
 62
     4
  6
CONTINUOUS
370
    -3
390
11785
  0
LAYER
  5
DEB4
330
7467
100
AcDbSymbolTableRecord
100
AcDbLayerTableRecord
  2
部品1
 70
     0
 62
     7
  6
CONTINUOUS
370
    -3
390
11785
  0
LAYER
  5
DEB5
330
7467
100
AcDbSymbolTableRecord
100
AcDbLayerTableRecord
  2
補助
 70
     0
 62
    -1
  6
CONTINUOUS
370
    -3
390
11785
  0
LAYER
  5
DEB6
330
7467
100
AcDbSymbolTableRecord
100
AcDbLayerTableRecord
  2
文字
 70
     0
 62
     7
  6
CONTINUOUS
370
    -3
390
11785
  0
LAYER
  5
F255
330
7467
100
AcDbSymbolTableRecord
100
AcDbLayerTableRecord
  2
DEFPOINTS
 70
     0
 62
     7
  6
CONTINUOUS
290
     0
370
    -3
390
11785
  0
LAYER
  5
10B54
330
7467
100
AcDbSymbolTableRecord
100
AcDbLayerTableRecord
  2
仕様書枠
 70
     0
 62
   230
  6
CONTINUOUS
370
    -3
390
11785
  0
LAYER
  5
11729
330
7467
100
AcDbSymbolTableRecord
100
AcDbLayerTableRecord
  2
Ｇ．Ｌ
 70
     0
 62
    30
  6
CONTINUOUS
370
    -3
390
11785
  0
LAYER
  5
1173F
330
7467
100
AcDbSymbolTableRecord
100
AcDbLayerTableRecord
  2
細線
 70
     0
 62
     5
  6
CONTINUOUS
370
    -3
390
11785
  0
LAYER
  5
11740
330
7467
100
AcDbSymbolTableRecord
100
AcDbLayerTableRecord
  2
点線
 70
     0
 62
     2
  6
HIDDEN
370
    -3
390
11785
  0
LAYER
  5
118C7
330
7467
100
AcDbSymbolTableRecord
100
AcDbLayerTableRecord
  2
想像線
 70
     0
 62
     6
  6
PHANTOM
370
    -3
390
11785
  0
ENDTAB
  0
TABLE
  2
STYLE
  5
7468
330
0
100
AcDbSymbolTable
 70
     6
  0
STYLE
  5
7475
330
7468
100
AcDbSymbolTableRecord
100
AcDbTextStyleTableRecord
  2
STANDARD
 70
     0
 40
0.0
 41
1.0
 50
0.0
 71
     0
 42
4.0
  3
txt
  4
C:\AutoCAD LT\bigfont.shx
  0
STYLE
  5
763C
330
7468
100
AcDbSymbolTableRecord
100
AcDbTextStyleTableRecord
  2
MSMINCHO
 70
     0
 40
0.0
 41
1.0
 50
0.0
 71
     0
 42
1.199999999999999
  3
C:\AutoCAD LT\msminch2.TTF
  4

  0
STYLE
  5
F5E9
330
7468
100
AcDbSymbolTableRecord
100
AcDbTextStyleTableRecord
  2

 70
     1
 40
0.0
 41
1.0
 50
0.0
 71
     0
 42
4.0
  3
ltypeshp.shx
  4

  0
STYLE
  5
F706
330
7468
100
AcDbSymbolTableRecord
100
AcDbTextStyleTableRecord
  2
STYLE1
 70
     0
 40
0.0
 41
1.0
 50
0.0
 71
     0
 42
4.0
  3
isocp.shx
  4
bigfont.shx
  0
STYLE
  5
103BF
330
7468
100
AcDbSymbolTableRecord
100
AcDbTextStyleTableRecord
  2
STYLE2
 70
     0
 40
0.0
 41
1.0
 50
0.0
 71
     0
 42
100.0
  3
MS PGothic.ttf
  4

1001
ACAD
1000
MS PGothic
1071
    32818
  0
STYLE
  5
10BAA
330
7468
100
AcDbSymbolTableRecord
100
AcDbTextStyleTableRecord
  2
STYLE3
 70
     0
 40
0.0
 41
1.0
 50
0.0
 71
     0
 42
100.0
  3
DFPGothic-EB.ttf
  4

1001
ACAD
1000
DFPGothic-EB
1071
    32818
  0
ENDTAB
  0
TABLE
  2
VIEW
  5
746B
330
0
100
AcDbSymbolTable
 70
     0
  0
ENDTAB
  0
TABLE
  2
UCS
  5
746C
330
0
100
AcDbSymbolTable
 70
     0
  0
ENDTAB
  0
TABLE
  2
APPID
  5
746E
330
0
100
AcDbSymbolTable
 70
     6
  0
APPID
  5
7476
330
746E
100
AcDbSymbolTableRecord
100
AcDbRegAppTableRecord
  2
ACAD
 70
     0
  0
APPID
  5
DEA9
330
746E
100
AcDbSymbolTableRecord
100
AcDbRegAppTableRecord
  2
CONTENTBLOCKICON
 70
     0
  0
APPID
  5
DEAA
330
746E
100
AcDbSymbolTableRecord
100
AcDbRegAppTableRecord
  2
CONTENTBLOCKDESCRIPTION
 70
     0
  0
APPID
  5
E71D
330
746E
100
AcDbSymbolTableRecord
100
AcDbRegAppTableRecord
  2
CONTENTTABDATA
 70
     0
  0
APPID
  5
E71E
330
746E
100
AcDbSymbolTableRecord
100
AcDbRegAppTableRecord
  2
CONTENTCURRENTTAB
 70
     0
  0
APPID
  5
F3BA
330
746E
100
AcDbSymbolTableRecord
100
AcDbRegAppTableRecord
  2
DRAWINGVARIABLESXDATA
 70
     0
  0
ENDTAB
  0
TABLE
  2
DIMSTYLE
  5
746F
330
0
100
AcDbSymbolTable
 70
     5
100
AcDbDimStyleTable
 71
     1
340
F71F
  0
DIMSTYLE
105
7484
330
746F
100
AcDbSymbolTableRecord
100
AcDbDimStyleTableRecord
  2
JIS
 70
     0
 41
2.5
 42
1.0
 43
7.0
 44
1.0
 73
     0
 74
     0
 77
     1
 78
     8
140
2.5
141
0.0
143
0.0394
147
0.0
172
     1
174
     1
175
     1
340
7475
  0
DIMSTYLE
105
F236
330
746F
100
AcDbSymbolTableRecord
100
AcDbDimStyleTableRecord
  2
INABA_S40
 70
     0
 40
40.0
 41
2.5
 42
0.5
 43
7.0
 44
1.5
 73
     0
 74
     0
 77
     3
 78
     8
140
3.0
141
0.0
143
0.0394
147
1.0
172
     1
173
     1
174
     1
175
     1
178
     7
289
     0
340
7475
341
DEAC
343
DEAC
344
DEAC
  0
DIMSTYLE
105
F71F
102
{ACAD_REACTORS
330
11F1F
330
11F1E
330
11F10
330
11F0F
330
11F0E
330
11E64
330
11D5E
330
11C00
330
11E63
330
11E65
330
11C09
330
11C08
330
11C03
330
11C02
330
11D65
330
11D64
330
11D63
330
11BF9
330
131DA
330
1320B
102
}
330
746F
100
AcDbSymbolTableRecord
100
AcDbDimStyleTableRecord
  2
INABA_S40G
 70
     0
 40
40.0
 41
2.5
 42
0.5
 43
7.0
 44
1.5
 73
     0
 74
     0
 77
     3
 78
     8
140
3.0
141
0.0
143
0.0394
147
1.0
172
     1
173
     1
174
     1
178
     7
271
     1
340
F706
341
F770
343
F770
344
F770
  0
DIMSTYLE
105
118C8
330
746F
100
AcDbSymbolTableRecord
100
AcDbDimStyleTableRecord
  2
INABA_S50G
 70
     0
 41
125.0
 42
25.0
 43
7.0
 44
75.0
 73
     0
 74
     0
 77
     3
 78
     8
140
150.0
141
0.0
143
0.0394
147
25.0
172
     1
173
     1
174
     1
178
     7
271
     1
340
F706
341
F770
343
F770
344
F770
  0
DIMSTYLE
105
118C9
102
{ACAD_REACTORS
330
135CF
330
134A4
330
134A6
330
134A7
330
134B9
330
134C2
330
134C3
102
}
330
746F
100
AcDbSymbolTableRecord
100
AcDbDimStyleTableRecord
  2
INABA_S50GUP
 70
     0
 41
125.0
 42
25.0
 43
7.0
 44
75.0
 73
     0
 74
     0
 77
     3
 78
     8
140
150.0
141
0.0
143
0.0394
147
25.0
172
     1
173
     1
174
     1
178
     7
271
     1
340
F706
341
F770
343
F770
344
F770
  0
ENDTAB
  0
TABLE
  2
BLOCK_RECORD
  5
7466
330
0
100
AcDbSymbolTable
 70
    29
  0
BLOCK_RECORD
  5
747D
330
7466
100
AcDbSymbolTableRecord
100
AcDbBlockTableRecord
  2
*MODEL_SPACE
340
1178A
  0
BLOCK_RECORD
  5
747A
330
7466
100
AcDbSymbolTableRecord
100
AcDbBlockTableRecord
  2
*PAPER_SPACE
340
1178B
  0
BLOCK_RECORD
  5
DEAC
330
7466
100
AcDbSymbolTableRecord
100
AcDbBlockTableRecord
  2
_OPEN
340
0
  0
BLOCK_RECORD
  5
F770
330
7466
100
AcDbSymbolTableRecord
100
AcDbBlockTableRecord
  2
_DOTSMALL
340
0
102
{BLKREFS
331
13122
331
13123
331
1312C
331
1312D
331
13137
331
13138
331
13140
331
13141
331
13149
331
1314A
331
13153
331
13154
331
1315C
331
1315D
331
13165
331
13166
331
13170
331
13171
331
1317B
331
1317C
331
13186
331
13187
331
13191
331
13192
331
1319A
331
1319B
331
131A3
331
131A4
331
131AC
331
131AD
331
131B5
331
131B6
331
131BE
331
131BF
331
131C7
331
131C8
331
13205
331
13206
331
13228
331
13229
331
136EE
331
136EF
331
13700
331
13701
331
1370A
331
1370B
331
13713
331
13714
331
1371C
331
1371D
331
13725
331
13726
331
1372E
331
1372F
102
}
  0
BLOCK_RECORD
  5
11F22
330
7466
100
AcDbSymbolTableRecord
100
AcDbBlockTableRecord
  2
*D2
340
0
  0
BLOCK_RECORD
  5
11F2E
330
7466
100
AcDbSymbolTableRecord
100
AcDbBlockTableRecord
  2
*D3
340
0
  0
BLOCK_RECORD
  5
11F3A
330
7466
100
AcDbSymbolTableRecord
100
AcDbBlockTableRecord
  2
*D4
340
0
  0
BLOCK_RECORD
  5
11F46
330
7466
100
AcDbSymbolTableRecord
100
AcDbBlockTableRecord
  2
*D5
340
0
  0
BLOCK_RECORD
  5
11F51
330
7466
100
AcDbSymbolTableRecord
100
AcDbBlockTableRecord
  2
*D6
340
0
  0
BLOCK_RECORD
  5
11F5E
330
7466
100
AcDbSymbolTableRecord
100
AcDbBlockTableRecord
  2
*D7
340
0
  0
BLOCK_RECORD
  5
11FC1
330
7466
100
AcDbSymbolTableRecord
100
AcDbBlockTableRecord
  2
*D8
340
0
  0
BLOCK_RECORD
  5
11FCD
330
7466
100
AcDbSymbolTableRecord
100
AcDbBlockTableRecord
  2
*D9
340
0
  0
BLOCK_RECORD
  5
11FD9
330
7466
100
AcDbSymbolTableRecord
100
AcDbBlockTableRecord
  2
*D10
340
0
  0
BLOCK_RECORD
  5
11FE4
330
7466
100
AcDbSymbolTableRecord
100
AcDbBlockTableRecord
  2
*D11
340
0
  0
BLOCK_RECORD
  5
11FF0
330
7466
100
AcDbSymbolTableRecord
100
AcDbBlockTableRecord
  2
*D12
340
0
  0
BLOCK_RECORD
  5
11FFD
330
7466
100
AcDbSymbolTableRecord
100
AcDbBlockTableRecord
  2
*D13
340
0
  0
BLOCK_RECORD
  5
1200A
330
7466
100
AcDbSymbolTableRecord
100
AcDbBlockTableRecord
  2
*D14
340
0
  0
BLOCK_RECORD
  5
12017
330
7466
100
AcDbSymbolTableRecord
100
AcDbBlockTableRecord
  2
*D15
340
0
  0
BLOCK_RECORD
  5
12023
330
7466
100
AcDbSymbolTableRecord
100
AcDbBlockTableRecord
  2
*D16
340
0
  0
BLOCK_RECORD
  5
1202E
330
7466
100
AcDbSymbolTableRecord
100
AcDbBlockTableRecord
  2
*D17
340
0
  0
BLOCK_RECORD
  5
1203B
330
7466
100
AcDbSymbolTableRecord
100
AcDbBlockTableRecord
  2
*D18
340
0
  0
BLOCK_RECORD
  5
12048
330
7466
100
AcDbSymbolTableRecord
100
AcDbBlockTableRecord
  2
*D19
340
0
  0
BLOCK_RECORD
  5
131DB
330
7466
100
AcDbSymbolTableRecord
100
AcDbBlockTableRecord
  2
*D20
340
0
  0
BLOCK_RECORD
  5
1320C
330
7466
100
AcDbSymbolTableRecord
100
AcDbBlockTableRecord
  2
*D21
340
0
  0
BLOCK_RECORD
  5
13694
330
7466
100
AcDbSymbolTableRecord
100
AcDbBlockTableRecord
  2
*D22
340
0
  0
BLOCK_RECORD
  5
136A1
330
7466
100
AcDbSymbolTableRecord
100
AcDbBlockTableRecord
  2
*D23
340
0
  0
BLOCK_RECORD
  5
136AD
330
7466
100
AcDbSymbolTableRecord
100
AcDbBlockTableRecord
  2
*D24
340
0
  0
BLOCK_RECORD
  5
136B9
330
7466
100
AcDbSymbolTableRecord
100
AcDbBlockTableRecord
  2
*D25
340
0
  0
BLOCK_RECORD
  5
136C6
330
7466
100
AcDbSymbolTableRecord
100
AcDbBlockTableRecord
  2
*D26
340
0
  0
BLOCK_RECORD
  5
136D2
330
7466
100
AcDbSymbolTableRecord
100
AcDbBlockTableRecord
  2
*D27
340
0
  0
BLOCK_RECORD
  5
136DE
330
7466
100
AcDbSymbolTableRecord
100
AcDbBlockTableRecord
  2
*D28
340
0
  0
ENDTAB
  0
ENDSEC
  0
SECTION
  2
BLOCKS
  0
BLOCK
  5
7489
330
747D
100
AcDbEntity
  8
0
100
AcDbBlockBegin
  2
*MODEL_SPACE
 70
     0
 10
0.0
 20
0.0
 30
0.0
  3
*MODEL_SPACE
  1

  0
ENDBLK
  5
748A
330
747D
100
AcDbEntity
  8
0
100
AcDbBlockEnd
  0
BLOCK
  5
7487
330
747A
100
AcDbEntity
 67
     1
  8
0
100
AcDbBlockBegin
  2
*PAPER_SPACE
 70
     0
 10
0.0
 20
0.0
 30
0.0
  3
*PAPER_SPACE
  1

  0
ENDBLK
  5
7488
330
747A
100
AcDbEntity
 67
     1
  8
0
100
AcDbBlockEnd
  0
BLOCK
  5
DEAD
330
DEAC
100
AcDbEntity
  8
0
100
AcDbBlockBegin
  2
_OPEN
 70
     0
 10
0.0
 20
0.0
 30
0.0
  3
_OPEN
  1

  0
LINE
  5
DEAE
330
DEAC
100
AcDbEntity
  8
0
  6
ByBlock
 62
     0
100
AcDbLine
 10
-1.0
 20
0.1666666666666666
 30
0.0
 11
0.0
 21
0.0
 31
0.0
  0
LINE
  5
DEAF
330
DEAC
100
AcDbEntity
  8
0
  6
ByBlock
 62
     0
100
AcDbLine
 10
0.0
 20
0.0
 30
0.0
 11
-1.0
 21
-0.1666666666666666
 31
0.0
  0
LINE
  5
DEB0
330
DEAC
100
AcDbEntity
  8
0
  6
ByBlock
 62
     0
100
AcDbLine
 10
0.0
 20
0.0
 30
0.0
 11
-1.0
 21
0.0
 31
0.0
  0
ENDBLK
  5
DEB1
330
DEAC
100
AcDbEntity
  8
0
100
AcDbBlockEnd
  0
BLOCK
  5
F771
330
F770
100
AcDbEntity
  8
0
 48
50.0
100
AcDbBlockBegin
  2
_DOTSMALL
 70
     0
 10
0.0
 20
0.0
 30
0.0
  3
_DOTSMALL
  1

  0
LWPOLYLINE
  5
F772
330
F770
100
AcDbEntity
  8
0
  6
ByBlock
 62
     0
 48
50.0
100
AcDbPolyline
 90
        2
 70
     1
 43
0.5
 10
-0.0625
 20
0.0
 42
1.0
 10
0.0625
 20
0.0
 42
1.0
  0
ENDBLK
  5
F776
330
F770
100
AcDbEntity
  8
0
 48
50.0
100
AcDbBlockEnd
  0
BLOCK
  5
11F2C
330
11F22
100
AcDbEntity
  8
0
 48
50.0
100
AcDbBlockBegin
  2
*D2
 70
     1
 10
0.0
 20
0.0
 30
0.0
  3
*D2
  1

  0
LINE
  5
131C4
330
11F22
100
AcDbEntity
  8
寸法
 62
     0
 48
50.0
370
    -2
100
AcDbLine
 10
7329.875412710229
 20
6415.096281584441
 30
0.0
 11
7517.287145786025
 21
6227.684548508646
 31
0.0
  0
LINE
  5
131C5
330
11F22
100
AcDbEntity
  8
寸法
 62
     0
 48
50.0
370
    -2
100
AcDbLine
 10
8639.87541271023
 20
7725.096281584441
 30
0.0
 11
8827.287145786026
 21
7537.684548508646
 31
0.0
  0
LINE
  5
131C6
330
11F22
100
AcDbEntity
  8
寸法
 62
     0
 48
50.0
370
    -2
100
AcDbLine
 10
7474.860738914833
 20
6270.110955379839
 30
0.0
 11
8784.860738914833
 21
7580.110955379838
 31
0.0
  0
INSERT
  5
131C7
330
11F22
100
AcDbEntity
  8
寸法
 62
     0
 48
50.0
370
    -2
100
AcDbBlockReference
  2
_DOTSMALL
 10
7474.860738914833
 20
6270.110955379839
 30
0.0
 41
100.0
 42
100.0
 43
100.0
 50
225.0
  0
INSERT
  5
131C8
330
11F22
100
AcDbEntity
  8
寸法
 62
     0
 48
50.0
370
    -2
100
AcDbBlockReference
  2
_DOTSMALL
 10
8784.860738914833
 20
7580.110955379838
 30
0.0
 41
100.0
 42
100.0
 43
100.0
 50
45.0
  0
MTEXT
  5
131C9
330
11F22
100
AcDbEntity
  8
寸法
 62
     7
 48
50.0
100
AcDbMText
 10
8299.192690695578
 20
7235.880966707684
 30
0.0
 40
120.0
 41
0.0
 71
     5
 72
     1
  1
\A1;1852.6
  7
STYLE1
 11
0.7071067811865476
 21
0.7071067811865475
 31
0.0
 73
     1
 44
1.0
1001
ACAD
1000
MTEXTBEGIN
1070
    73
1070
     1
1070
    44
1040
1.0
1070
    74
1070
     0
1000
MTEXTEND
  0
POINT
  5
131CA
330
11F22
100
AcDbEntity
  8
DEFPOINTS
 62
     0
 48
50.0
100
AcDbPoint
 10
7315.7332770865
 20
6429.238417208172
 30
0.0
  0
POINT
  5
131CB
330
11F22
100
AcDbEntity
  8
DEFPOINTS
 62
     0
 48
50.0
100
AcDbPoint
 10
8625.733277086499
 20
7739.238417208172
 30
0.0
  0
POINT
  5
131CC
330
11F22
100
AcDbEntity
  8
DEFPOINTS
 62
     0
 48
50.0
100
AcDbPoint
 10
8784.860738914833
 20
7580.110955379838
 30
0.0
  0
ENDBLK
  5
11F2D
330
11F22
100
AcDbEntity
  8
0
 48
50.0
100
AcDbBlockEnd
  0
BLOCK
  5
11F38
330
11F2E
100
AcDbEntity
  8
0
 48
50.0
100
AcDbBlockBegin
  2
*D3
 70
     1
 10
0.0
 20
0.0
 30
0.0
  3
*D3
  1

  0
LINE
  5
13162
330
11F2E
100
AcDbEntity
  8
寸法
 62
     0
 48
50.0
370
    -2
100
AcDbLine
 10
7970.733277086499
 20
7539.238417208173
 30
0.0
 11
7970.733277086499
 21
8431.501566938349
 31
0.0
  0
LINE
  5
13163
330
11F2E
100
AcDbEntity
  8
寸法
 62
     0
 48
50.0
370
    -2
100
AcDbLine
 10
8625.733277086499
 20
7759.238417208173
 30
0.0
 11
8625.733277086499
 21
8431.501566938349
 31
0.0
  0
LINE
  5
13164
330
11F2E
100
AcDbEntity
  8
寸法
 62
     0
 48
50.0
370
    -2
100
AcDbLine
 10
7970.733277086499
 20
8371.50156693835
 30
0.0
 11
8625.733277086499
 21
8371.50156693835
 31
0.0
  0
INSERT
  5
13165
330
11F2E
100
AcDbEntity
  8
寸法
 62
     0
 48
50.0
370
    -2
100
AcDbBlockReference
  2
_DOTSMALL
 10
7970.733277086499
 20
8371.50156693835
 30
0.0
 41
100.0
 42
100.0
 43
100.0
 50
180.0
  0
INSERT
  5
13166
330
11F2E
100
AcDbEntity
  8
寸法
 62
     0
 48
50.0
370
    -2
100
AcDbBlockReference
  2
_DOTSMALL
 10
8625.733277086499
 20
8371.50156693835
 30
0.0
 41
100.0
 42
100.0
 43
100.0
  0
MTEXT
  5
13167
330
11F2E
100
AcDbEntity
  8
寸法
 62
     7
 48
50.0
100
AcDbMText
 10
8298.233277086501
 20
8471.50156693835
 30
0.0
 40
120.0
 41
0.0
 71
     5
 72
     1
  1
\A1;655
  7
STYLE1
 73
     1
 44
1.0
1001
ACAD
1000
MTEXTBEGIN
1070
    73
1070
     1
1070
    44
1040
1.0
1070
    74
1070
     0
1000
MTEXTEND
  0
POINT
  5
13168
330
11F2E
100
AcDbEntity
  8
DEFPOINTS
 62
     0
 48
50.0
100
AcDbPoint
 10
7970.733277086499
 20
7519.238417208173
 30
0.0
  0
POINT
  5
13169
330
11F2E
100
AcDbEntity
  8
DEFPOINTS
 62
     0
 48
50.0
100
AcDbPoint
 10
8625.733277086499
 20
7739.238417208174
 30
0.0
  0
POINT
  5
1316A
330
11F2E
100
AcDbEntity
  8
DEFPOINTS
 62
     0
 48
50.0
100
AcDbPoint
 10
8625.733277086499
 20
8371.50156693835
 30
0.0
  0
ENDBLK
  5
11F39
330
11F2E
100
AcDbEntity
  8
0
 48
50.0
100
AcDbBlockEnd
  0
BLOCK
  5
11F44
330
11F3A
100
AcDbEntity
  8
0
 48
50.0
100
AcDbBlockBegin
  2
*D4
 70
     1
 10
0.0
 20
0.0
 30
0.0
  3
*D4
  1

  0
LINE
  5
131A0
330
11F3A
100
AcDbEntity
  8
寸法
 62
     0
 48
50.0
370
    -2
100
AcDbLine
 10
7315.7332770865
 20
6409.238417208173
 30
0.0
 11
7315.7332770865
 21
5438.238417208173
 31
0.0
  0
LINE
  5
131A1
330
11F3A
100
AcDbEntity
  8
寸法
 62
     0
 48
50.0
370
    -2
100
AcDbLine
 10
8625.733277086499
 20
6409.238417208171
 30
0.0
 11
8625.733277086499
 21
5438.238417208173
 31
0.0
  0
LINE
  5
131A2
330
11F3A
100
AcDbEntity
  8
寸法
 62
     0
 48
50.0
370
    -2
100
AcDbLine
 10
7315.7332770865
 20
5498.238417208173
 30
0.0
 11
8625.733277086499
 21
5498.238417208173
 31
0.0
  0
INSERT
  5
131A3
330
11F3A
100
AcDbEntity
  8
寸法
 62
     0
 48
50.0
370
    -2
100
AcDbBlockReference
  2
_DOTSMALL
 10
7315.7332770865
 20
5498.238417208173
 30
0.0
 41
100.0
 42
100.0
 43
100.0
 50
180.0
  0
INSERT
  5
131A4
330
11F3A
100
AcDbEntity
  8
寸法
 62
     0
 48
50.0
370
    -2
100
AcDbBlockReference
  2
_DOTSMALL
 10
8625.733277086499
 20
5498.238417208173
 30
0.0
 41
100.0
 42
100.0
 43
100.0
  0
MTEXT
  5
131A5
330
11F3A
100
AcDbEntity
  8
寸法
 62
     7
 48
50.0
100
AcDbMText
 10
7970.733277086499
 20
5598.238417208173
 30
0.0
 40
120.0
 41
0.0
 71
     5
 72
     1
  1
\A1;1310
  7
STYLE1
 73
     1
 44
1.0
1001
ACAD
1000
MTEXTBEGIN
1070
    73
1070
     1
1070
    44
1040
1.0
1070
    74
1070
     0
1000
MTEXTEND
  0
POINT
  5
131A6
330
11F3A
100
AcDbEntity
  8
DEFPOINTS
 62
     0
 48
50.0
100
AcDbPoint
 10
7315.7332770865
 20
6429.238417208172
 30
0.0
  0
POINT
  5
131A7
330
11F3A
100
AcDbEntity
  8
DEFPOINTS
 62
     0
 48
50.0
100
AcDbPoint
 10
8625.733277086499
 20
6429.238417208171
 30
0.0
  0
POINT
  5
131A8
330
11F3A
100
AcDbEntity
  8
DEFPOINTS
 62
     0
 48
50.0
100
AcDbPoint
 10
8625.733277086499
 20
5498.238417208173
 30
0.0
  0
ENDBLK
  5
11F45
330
11F3A
100
AcDbEntity
  8
0
 48
50.0
100
AcDbBlockEnd
  0
BLOCK
  5
11F4F
330
11F46
100
AcDbEntity
  8
0
 48
50.0
100
AcDbBlockBegin
  2
*D5
 70
     1
 10
0.0
 20
0.0
 30
0.0
  3
*D5
  1

  0
LINE
  5
13197
330
11F46
100
AcDbEntity
  8
寸法
 62
     0
 48
50.0
370
    -2
100
AcDbLine
 10
7380.7332770865
 20
6329.238417208173
 30
0.0
 11
7380.7332770865
 21
5749.771360963245
 31
0.0
  0
LINE
  5
13198
330
11F46
100
AcDbEntity
  8
寸法
 62
     0
 48
50.0
370
    -2
100
AcDbLine
 10
8560.7332770865
 20
6329.238417208173
 30
0.0
 11
8560.7332770865
 21
5749.771360963245
 31
0.0
  0
LINE
  5
13199
330
11F46
100
AcDbEntity
  8
寸法
 62
     0
 48
50.0
370
    -2
100
AcDbLine
 10
7380.7332770865
 20
5809.771360963245
 30
0.0
 11
8560.7332770865
 21
5809.771360963245
 31
0.0
  0
INSERT
  5
1319A
330
11F46
100
AcDbEntity
  8
寸法
 62
     0
 48
50.0
370
    -2
100
AcDbBlockReference
  2
_DOTSMALL
 10
7380.7332770865
 20
5809.771360963245
 30
0.0
 41
100.0
 42
100.0
 43
100.0
 50
180.0
  0
INSERT
  5
1319B
330
11F46
100
AcDbEntity
  8
寸法
 62
     0
 48
50.0
370
    -2
100
AcDbBlockReference
  2
_DOTSMALL
 10
8560.7332770865
 20
5809.771360963245
 30
0.0
 41
100.0
 42
100.0
 43
100.0
  0
MTEXT
  5
1319C
330
11F46
100
AcDbEntity
  8
寸法
 62
     7
 48
50.0
100
AcDbMText
 10
7970.733277086499
 20
5909.771360963245
 30
0.0
 40
120.0
 41
0.0
 71
     5
 72
     1
  1
\A1;1180
  7
STYLE1
 73
     1
 44
1.0
1001
ACAD
1000
MTEXTBEGIN
1070
    73
1070
     1
1070
    44
1040
1.0
1070
    74
1070
     0
1000
MTEXTEND
  0
POINT
  5
1319D
330
11F46
100
AcDbEntity
  8
DEFPOINTS
 62
     0
 48
50.0
100
AcDbPoint
 10
7380.7332770865
 20
6349.238417208173
 30
0.0
  0
POINT
  5
1319E
330
11F46
100
AcDbEntity
  8
DEFPOINTS
 62
     0
 48
50.0
100
AcDbPoint
 10
8560.7332770865
 20
6349.238417208173
 30
0.0
  0
POINT
  5
1319F
330
11F46
100
AcDbEntity
  8
DEFPOINTS
 62
     0
 48
50.0
100
AcDbPoint
 10
8560.7332770865
 20
5809.771360963245
 30
0.0
  0
ENDBLK
  5
11F50
330
11F46
100
AcDbEntity
  8
0
 48
50.0
100
AcDbBlockEnd
  0
BLOCK
  5
11F5C
330
11F51
100
AcDbEntity
  8
0
 48
50.0
100
AcDbBlockBegin
  2
*D6
 70
     1
 10
0.0
 20
0.0
 30
0.0
  3
*D6
  1

  0
LINE
  5
1318C
330
11F51
100
AcDbEntity
  8
寸法
 62
     0
 48
50.0
370
    -2
100
AcDbLine
 10
7315.7332770865
 20
6409.238417208173
 30
0.0
 11
7315.7332770865
 21
5749.771360963245
 31
0.0
  0
LINE
  5
1318D
330
11F51
100
AcDbEntity
  8
寸法
 62
     0
 48
50.0
370
    -2
100
AcDbLine
 10
7380.7332770865
 20
6329.238417208173
 30
0.0
 11
7380.7332770865
 21
5749.771360963245
 31
0.0
  0
LINE
  5
1318E
330
11F51
100
AcDbEntity
  8
寸法
 62
     0
 48
50.0
370
    -2
100
AcDbLine
 10
7380.7332770865
 20
5809.771360963245
 30
0.0
 11
7480.7332770865
 21
5809.771360963245
 31
0.0
  0
LINE
  5
1318F
330
11F51
100
AcDbEntity
  8
寸法
 62
     0
 48
50.0
370
    -2
100
AcDbLine
 10
7315.7332770865
 20
5809.771360963245
 30
0.0
 11
6891.581611975817
 21
5809.771360963245
 31
0.0
  0
LINE
  5
13190
330
11F51
100
AcDbEntity
  8
寸法
 62
     0
 48
50.0
370
    -2
100
AcDbLine
 10
7380.7332770865
 20
5809.771360963245
 30
0.0
 11
7315.7332770865
 21
5809.771360963245
 31
0.0
  0
INSERT
  5
13191
330
11F51
100
AcDbEntity
  8
寸法
 62
     0
 48
50.0
370
    -2
100
AcDbBlockReference
  2
_DOTSMALL
 10
7380.7332770865
 20
5809.771360963245
 30
0.0
 41
100.0
 42
100.0
 43
100.0
 50
180.0
  0
INSERT
  5
13192
330
11F51
100
AcDbEntity
  8
寸法
 62
     0
 48
50.0
370
    -2
100
AcDbBlockReference
  2
_DOTSMALL
 10
7315.7332770865
 20
5809.771360963245
 30
0.0
 41
100.0
 42
100.0
 43
100.0
  0
MTEXT
  5
13193
330
11F51
100
AcDbEntity
  8
寸法
 62
     7
 48
50.0
100
AcDbMText
 10
7003.657444531159
 20
5909.771360963245
 30
0.0
 40
120.0
 41
0.0
 71
     5
 72
     1
  1
\A1;65
  7
STYLE1
 73
     1
 44
1.0
1001
ACAD
1000
MTEXTBEGIN
1070
    73
1070
     1
1070
    44
1040
1.0
1070
    74
1070
     0
1000
MTEXTEND
  0
POINT
  5
13194
330
11F51
100
AcDbEntity
  8
DEFPOINTS
 62
     0
 48
50.0
100
AcDbPoint
 10
7315.7332770865
 20
6429.238417208172
 30
0.0
  0
POINT
  5
13195
330
11F51
100
AcDbEntity
  8
DEFPOINTS
 62
     0
 48
50.0
100
AcDbPoint
 10
7380.7332770865
 20
6349.238417208173
 30
0.0
  0
POINT
  5
13196
330
11F51
100
AcDbEntity
  8
DEFPOINTS
 62
     0
 48
50.0
100
AcDbPoint
 10
7380.7332770865
 20
5809.771360963245
 30
0.0
  0
ENDBLK
  5
11F5D
330
11F51
100
AcDbEntity
  8
0
 48
50.0
100
AcDbBlockEnd
  0
BLOCK
  5
11F69
330
11F5E
100
AcDbEntity
  8
0
 48
50.0
100
AcDbBlockBegin
  2
*D7
 70
     1
 10
0.0
 20
0.0
 30
0.0
  3
*D7
  1

  0
LINE
  5
13181
330
11F5E
100
AcDbEntity
  8
寸法
 62
     0
 48
50.0
370
    -2
100
AcDbLine
 10
7265.7332770865
 20
5789.771360963245
 30
0.0
 11
7265.7332770865
 21
5438.238417208173
 31
0.0
  0
LINE
  5
13182
330
11F5E
100
AcDbEntity
  8
寸法
 62
     0
 48
50.0
370
    -2
100
AcDbLine
 10
7315.7332770865
 20
6409.238417208173
 30
0.0
 11
7315.7332770865
 21
5438.238417208173
 31
0.0
  0
LINE
  5
13183
330
11F5E
100
AcDbEntity
  8
寸法
 62
     0
 48
50.0
370
    -2
100
AcDbLine
 10
7315.7332770865
 20
5498.238417208173
 30
0.0
 11
7415.733277086499
 21
5498.238417208173
 31
0.0
  0
LINE
  5
13184
330
11F5E
100
AcDbEntity
  8
寸法
 62
     0
 48
50.0
370
    -2
100
AcDbLine
 10
7265.7332770865
 20
5498.238417208173
 30
0.0
 11
6757.827765275476
 21
5498.238417208173
 31
0.0
  0
LINE
  5
13185
330
11F5E
100
AcDbEntity
  8
寸法
 62
     0
 48
50.0
370
    -2
100
AcDbLine
 10
7315.7332770865
 20
5498.238417208173
 30
0.0
 11
7265.7332770865
 21
5498.238417208173
 31
0.0
  0
INSERT
  5
13186
330
11F5E
100
AcDbEntity
  8
寸法
 62
     0
 48
50.0
370
    -2
100
AcDbBlockReference
  2
_DOTSMALL
 10
7315.7332770865
 20
5498.238417208173
 30
0.0
 41
100.0
 42
100.0
 43
100.0
 50
180.0
  0
INSERT
  5
13187
330
11F5E
100
AcDbEntity
  8
寸法
 62
     0
 48
50.0
370
    -2
100
AcDbBlockReference
  2
_DOTSMALL
 10
7265.7332770865
 20
5498.238417208173
 30
0.0
 41
100.0
 42
100.0
 43
100.0
  0
MTEXT
  5
13188
330
11F5E
100
AcDbEntity
  8
寸法
 62
     7
 48
50.0
100
AcDbMText
 10
6911.780521180988
 20
5604.238417208173
 30
0.0
 40
120.0
 41
0.0
 71
     5
 72
     1
  1
\A1;(50)
  7
STYLE1
 73
     1
 44
1.0
1001
ACAD
1000
MTEXTBEGIN
1070
    73
1070
     1
1070
    44
1040
1.0
1070
    74
1070
     0
1000
MTEXTEND
  0
POINT
  5
13189
330
11F5E
100
AcDbEntity
  8
DEFPOINTS
 62
     0
 48
50.0
100
AcDbPoint
 10
7265.7332770865
 20
5809.771360963245
 30
0.0
  0
POINT
  5
1318A
330
11F5E
100
AcDbEntity
  8
DEFPOINTS
 62
     0
 48
50.0
100
AcDbPoint
 10
7315.7332770865
 20
6429.238417208172
 30
0.0
  0
POINT
  5
1318B
330
11F5E
100
AcDbEntity
  8
DEFPOINTS
 62
     0
 48
50.0
100
AcDbPoint
 10
7315.7332770865
 20
5498.238417208173
 30
0.0
  0
ENDBLK
  5
11F6A
330
11F5E
100
AcDbEntity
  8
0
 48
50.0
100
AcDbBlockEnd
  0
BLOCK
  5
11FCB
330
11FC1
100
AcDbEntity
  8
0
 48
50.0
100
AcDbBlockBegin
  2
*D8
 70
     1
 10
0.0
 20
0.0
 30
0.0
  3
*D8
  1

  0
LINE
  5
13159
330
11FC1
100
AcDbEntity
  8
寸法
 62
     0
 48
50.0
370
    -2
100
AcDbLine
 10
7315.7332770865
 20
7759.238417208173
 30
0.0
 11
7315.7332770865
 21
8431.501566938349
 31
0.0
  0
LINE
  5
1315A
330
11FC1
100
AcDbEntity
  8
寸法
 62
     0
 48
50.0
370
    -2
100
AcDbLine
 10
7970.733277086499
 20
7539.238417208173
 30
0.0
 11
7970.733277086499
 21
8431.501566938349
 31
0.0
  0
LINE
  5
1315B
330
11FC1
100
AcDbEntity
  8
寸法
 62
     0
 48
50.0
370
    -2
100
AcDbLine
 10
7315.7332770865
 20
8371.50156693835
 30
0.0
 11
7970.733277086499
 21
8371.50156693835
 31
0.0
  0
INSERT
  5
1315C
330
11FC1
100
AcDbEntity
  8
寸法
 62
     0
 48
50.0
370
    -2
100
AcDbBlockReference
  2
_DOTSMALL
 10
7315.7332770865
 20
8371.50156693835
 30
0.0
 41
100.0
 42
100.0
 43
100.0
 50
180.0
  0
INSERT
  5
1315D
330
11FC1
100
AcDbEntity
  8
寸法
 62
     0
 48
50.0
370
    -2
100
AcDbBlockReference
  2
_DOTSMALL
 10
7970.733277086499
 20
8371.50156693835
 30
0.0
 41
100.0
 42
100.0
 43
100.0
  0
MTEXT
  5
1315E
330
11FC1
100
AcDbEntity
  8
寸法
 62
     7
 48
50.0
100
AcDbMText
 10
7643.2332770865
 20
8471.50156693835
 30
0.0
 40
120.0
 41
0.0
 71
     5
 72
     1
  1
\A1;655
  7
STYLE1
 73
     1
 44
1.0
1001
ACAD
1000
MTEXTBEGIN
1070
    73
1070
     1
1070
    44
1040
1.0
1070
    74
1070
     0
1000
MTEXTEND
  0
POINT
  5
1315F
330
11FC1
100
AcDbEntity
  8
DEFPOINTS
 62
     0
 48
50.0
100
AcDbPoint
 10
7315.7332770865
 20
7739.238417208174
 30
0.0
  0
POINT
  5
13160
330
11FC1
100
AcDbEntity
  8
DEFPOINTS
 62
     0
 48
50.0
100
AcDbPoint
 10
7970.733277086499
 20
7519.238417208173
 30
0.0
  0
POINT
  5
13161
330
11FC1
100
AcDbEntity
  8
DEFPOINTS
 62
     0
 48
50.0
100
AcDbPoint
 10
7970.733277086499
 20
8371.50156693835
 30
0.0
  0
ENDBLK
  5
11FCC
330
11FC1
100
AcDbEntity
  8
0
 48
50.0
100
AcDbBlockEnd
  0
BLOCK
  5
11FD7
330
11FCD
100
AcDbEntity
  8
0
 48
50.0
100
AcDbBlockBegin
  2
*D9
 70
     1
 10
0.0
 20
0.0
 30
0.0
  3
*D9
  1

  0
LINE
  5
131BB
330
11FCD
100
AcDbEntity
  8
寸法
 62
     0
 48
50.0
370
    -2
100
AcDbLine
 10
7295.733277086499
 20
7739.238417208174
 30
0.0
 11
6504.7332770865
 21
7739.238417208174
 31
0.0
  0
LINE
  5
131BC
330
11FCD
100
AcDbEntity
  8
寸法
 62
     0
 48
50.0
370
    -2
100
AcDbLine
 10
7805.7332770865
 20
7374.238417208172
 30
0.0
 11
6504.7332770865
 21
7374.238417208172
 31
0.0
  0
LINE
  5
131BD
330
11FCD
100
AcDbEntity
  8
寸法
 62
     0
 48
50.0
370
    -2
100
AcDbLine
 10
6564.733277086499
 20
7739.238417208174
 30
0.0
 11
6564.733277086499
 21
7374.238417208172
 31
0.0
  0
INSERT
  5
131BE
330
11FCD
100
AcDbEntity
  8
寸法
 62
     0
 48
50.0
370
    -2
100
AcDbBlockReference
  2
_DOTSMALL
 10
6564.733277086499
 20
7739.238417208174
 30
0.0
 41
100.0
 42
100.0
 43
100.0
 50
90.0
  0
INSERT
  5
131BF
330
11FCD
100
AcDbEntity
  8
寸法
 62
     0
 48
50.0
370
    -2
100
AcDbBlockReference
  2
_DOTSMALL
 10
6564.733277086499
 20
7374.238417208172
 30
0.0
 41
100.0
 42
100.0
 43
100.0
 50
270.0
  0
MTEXT
  5
131C0
330
11FCD
100
AcDbEntity
  8
寸法
 62
     7
 48
50.0
100
AcDbMText
 10
6464.733277086499
 20
7556.738417208174
 30
0.0
 40
120.0
 41
0.0
 71
     5
 72
     1
  1
\A1;365
  7
STYLE1
 11
0.0000000000000001
 21
1.0
 31
0.0
 73
     1
 44
1.0
1001
ACAD
1000
MTEXTBEGIN
1070
    73
1070
     1
1070
    44
1040
1.0
1070
    74
1070
     0
1000
MTEXTEND
  0
POINT
  5
131C1
330
11FCD
100
AcDbEntity
  8
DEFPOINTS
 62
     0
 48
50.0
100
AcDbPoint
 10
7315.7332770865
 20
7739.238417208174
 30
0.0
  0
POINT
  5
131C2
330
11FCD
100
AcDbEntity
  8
DEFPOINTS
 62
     0
 48
50.0
100
AcDbPoint
 10
7825.733277086499
 20
7374.238417208172
 30
0.0
  0
POINT
  5
131C3
330
11FCD
100
AcDbEntity
  8
DEFPOINTS
 62
     0
 48
50.0
100
AcDbPoint
 10
6564.733277086499
 20
7374.238417208172
 30
0.0
  0
ENDBLK
  5
11FD8
330
11FCD
100
AcDbEntity
  8
0
 48
50.0
100
AcDbBlockEnd
  0
BLOCK
  5
11FE2
330
11FD9
100
AcDbEntity
  8
0
 48
50.0
100
AcDbBlockBegin
  2
*D10
 70
     1
 10
0.0
 20
0.0
 30
0.0
  3
*D10
  1

  0
LINE
  5
131B2
330
11FD9
100
AcDbEntity
  8
寸法
 62
     0
 48
50.0
370
    -2
100
AcDbLine
 10
7805.7332770865
 20
6939.238417208173
 30
0.0
 11
6504.7332770865
 21
6939.238417208173
 31
0.0
  0
LINE
  5
131B3
330
11FD9
100
AcDbEntity
  8
寸法
 62
     0
 48
50.0
370
    -2
100
AcDbLine
 10
7295.733277086499
 20
6429.238417208172
 30
0.0
 11
6504.7332770865
 21
6429.238417208172
 31
0.0
  0
LINE
  5
131B4
330
11FD9
100
AcDbEntity
  8
寸法
 62
     0
 48
50.0
370
    -2
100
AcDbLine
 10
6564.733277086499
 20
6939.238417208173
 30
0.0
 11
6564.733277086499
 21
6429.238417208172
 31
0.0
  0
INSERT
  5
131B5
330
11FD9
100
AcDbEntity
  8
寸法
 62
     0
 48
50.0
370
    -2
100
AcDbBlockReference
  2
_DOTSMALL
 10
6564.733277086499
 20
6939.238417208173
 30
0.0
 41
100.0
 42
100.0
 43
100.0
 50
90.0
  0
INSERT
  5
131B6
330
11FD9
100
AcDbEntity
  8
寸法
 62
     0
 48
50.0
370
    -2
100
AcDbBlockReference
  2
_DOTSMALL
 10
6564.733277086499
 20
6429.238417208172
 30
0.0
 41
100.0
 42
100.0
 43
100.0
 50
270.0
  0
MTEXT
  5
131B7
330
11FD9
100
AcDbEntity
  8
寸法
 62
     7
 48
50.0
100
AcDbMText
 10
6464.733277086498
 20
6684.238417208175
 30
0.0
 40
120.0
 41
0.0
 71
     5
 72
     1
  1
\A1;510
  7
STYLE1
 11
0.0000000000000001
 21
1.0
 31
0.0
 73
     1
 44
1.0
1001
ACAD
1000
MTEXTBEGIN
1070
    73
1070
     1
1070
    44
1040
1.0
1070
    74
1070
     0
1000
MTEXTEND
  0
POINT
  5
131B8
330
11FD9
100
AcDbEntity
  8
DEFPOINTS
 62
     0
 48
50.0
100
AcDbPoint
 10
7825.733277086499
 20
6939.238417208173
 30
0.0
  0
POINT
  5
131B9
330
11FD9
100
AcDbEntity
  8
DEFPOINTS
 62
     0
 48
50.0
100
AcDbPoint
 10
7315.7332770865
 20
6429.238417208172
 30
0.0
  0
POINT
  5
131BA
330
11FD9
100
AcDbEntity
  8
DEFPOINTS
 62
     0
 48
50.0
100
AcDbPoint
 10
6564.733277086499
 20
6429.238417208172
 30
0.0
  0
ENDBLK
  5
11FE3
330
11FD9
100
AcDbEntity
  8
0
 48
50.0
100
AcDbBlockEnd
  0
BLOCK
  5
11FEE
330
11FE4
100
AcDbEntity
  8
0
 48
50.0
100
AcDbBlockBegin
  2
*D11
 70
     1
 10
0.0
 20
0.0
 30
0.0
  3
*D11
  1

  0
LINE
  5
131A9
330
11FE4
100
AcDbEntity
  8
寸法
 62
     0
 48
50.0
370
    -2
100
AcDbLine
 10
7805.7332770865
 20
7374.238417208172
 30
0.0
 11
6504.7332770865
 21
7374.238417208172
 31
0.0
  0
LINE
  5
131AA
330
11FE4
100
AcDbEntity
  8
寸法
 62
     0
 48
50.0
370
    -2
100
AcDbLine
 10
7805.7332770865
 20
6939.238417208173
 30
0.0
 11
6504.7332770865
 21
6939.238417208173
 31
0.0
  0
LINE
  5
131AB
330
11FE4
100
AcDbEntity
  8
寸法
 62
     0
 48
50.0
370
    -2
100
AcDbLine
 10
6564.733277086499
 20
7374.238417208172
 30
0.0
 11
6564.733277086499
 21
6939.238417208173
 31
0.0
  0
INSERT
  5
131AC
330
11FE4
100
AcDbEntity
  8
寸法
 62
     0
 48
50.0
370
    -2
100
AcDbBlockReference
  2
_DOTSMALL
 10
6564.733277086499
 20
7374.238417208172
 30
0.0
 41
100.0
 42
100.0
 43
100.0
 50
90.0
  0
INSERT
  5
131AD
330
11FE4
100
AcDbEntity
  8
寸法
 62
     0
 48
50.0
370
    -2
100
AcDbBlockReference
  2
_DOTSMALL
 10
6564.733277086499
 20
6939.238417208173
 30
0.0
 41
100.0
 42
100.0
 43
100.0
 50
270.0
  0
MTEXT
  5
131AE
330
11FE4
100
AcDbEntity
  8
寸法
 62
     7
 48
50.0
100
AcDbMText
 10
6464.733277086498
 20
7156.738417208174
 30
0.0
 40
120.0
 41
0.0
 71
     5
 72
     1
  1
\A1;435
  7
STYLE1
 11
0.0000000000000001
 21
1.0
 31
0.0
 73
     1
 44
1.0
1001
ACAD
1000
MTEXTBEGIN
1070
    73
1070
     1
1070
    44
1040
1.0
1070
    74
1070
     0
1000
MTEXTEND
  0
POINT
  5
131AF
330
11FE4
100
AcDbEntity
  8
DEFPOINTS
 62
     0
 48
50.0
100
AcDbPoint
 10
7825.733277086499
 20
7374.238417208172
 30
0.0
  0
POINT
  5
131B0
330
11FE4
100
AcDbEntity
  8
DEFPOINTS
 62
     0
 48
50.0
100
AcDbPoint
 10
7825.733277086499
 20
6939.238417208173
 30
0.0
  0
POINT
  5
131B1
330
11FE4
100
AcDbEntity
  8
DEFPOINTS
 62
     0
 48
50.0
100
AcDbPoint
 10
6564.733277086499
 20
6939.238417208173
 30
0.0
  0
ENDBLK
  5
11FEF
330
11FE4
100
AcDbEntity
  8
0
 48
50.0
100
AcDbBlockEnd
  0
BLOCK
  5
11FFB
330
11FF0
100
AcDbEntity
  8
0
 48
50.0
100
AcDbBlockBegin
  2
*D12
 70
     1
 10
0.0
 20
0.0
 30
0.0
  3
*D12
  1

  0
LINE
  5
1316B
330
11FF0
100
AcDbEntity
  8
寸法
 62
     0
 48
50.0
370
    -2
100
AcDbLine
 10
8560.7332770865
 20
6329.238417208173
 30
0.0
 11
8560.7332770865
 21
5749.771360963245
 31
0.0
  0
LINE
  5
1316C
330
11FF0
100
AcDbEntity
  8
寸法
 62
     0
 48
50.0
370
    -2
100
AcDbLine
 10
8625.733277086499
 20
6409.238417208173
 30
0.0
 11
8625.733277086499
 21
5749.771360963245
 31
0.0
  0
LINE
  5
1316D
330
11FF0
100
AcDbEntity
  8
寸法
 62
     0
 48
50.0
370
    -2
100
AcDbLine
 10
8560.7332770865
 20
5809.771360963245
 30
0.0
 11
8460.7332770865
 21
5809.771360963245
 31
0.0
  0
LINE
  5
1316E
330
11FF0
100
AcDbEntity
  8
寸法
 62
     0
 48
50.0
370
    -2
100
AcDbLine
 10
8625.733277086499
 20
5809.771360963245
 30
0.0
 11
9049.884942197181
 21
5809.771360963245
 31
0.0
  0
LINE
  5
1316F
330
11FF0
100
AcDbEntity
  8
寸法
 62
     0
 48
50.0
370
    -2
100
AcDbLine
 10
8560.7332770865
 20
5809.771360963245
 30
0.0
 11
8625.733277086499
 21
5809.771360963245
 31
0.0
  0
INSERT
  5
13170
330
11FF0
100
AcDbEntity
  8
寸法
 62
     0
 48
50.0
370
    -2
100
AcDbBlockReference
  2
_DOTSMALL
 10
8560.7332770865
 20
5809.771360963245
 30
0.0
 41
100.0
 42
100.0
 43
100.0
  0
INSERT
  5
13171
330
11FF0
100
AcDbEntity
  8
寸法
 62
     0
 48
50.0
370
    -2
100
AcDbBlockReference
  2
_DOTSMALL
 10
8625.733277086499
 20
5809.771360963245
 30
0.0
 41
100.0
 42
100.0
 43
100.0
 50
180.0
  0
MTEXT
  5
13172
330
11FF0
100
AcDbEntity
  8
寸法
 62
     7
 48
50.0
100
AcDbMText
 10
8937.809109641841
 20
5909.771360963245
 30
0.0
 40
120.0
 41
0.0
 71
     5
 72
     1
  1
\A1;65
  7
STYLE1
 73
     1
 44
1.0
1001
ACAD
1000
MTEXTBEGIN
1070
    73
1070
     1
1070
    44
1040
1.0
1070
    74
1070
     0
1000
MTEXTEND
  0
POINT
  5
13173
330
11FF0
100
AcDbEntity
  8
DEFPOINTS
 62
     0
 48
50.0
100
AcDbPoint
 10
8560.7332770865
 20
6349.238417208173
 30
0.0
  0
POINT
  5
13174
330
11FF0
100
AcDbEntity
  8
DEFPOINTS
 62
     0
 48
50.0
100
AcDbPoint
 10
8625.733277086499
 20
6429.238417208172
 30
0.0
  0
POINT
  5
13175
330
11FF0
100
AcDbEntity
  8
DEFPOINTS
 62
     0
 48
50.0
100
AcDbPoint
 10
8625.733277086499
 20
5809.771360963245
 30
0.0
  0
ENDBLK
  5
11FFC
330
11FF0
100
AcDbEntity
  8
0
 48
50.0
100
AcDbBlockEnd
  0
BLOCK
  5
12008
330
11FFD
100
AcDbEntity
  8
0
 48
50.0
100
AcDbBlockBegin
  2
*D13
 70
     1
 10
0.0
 20
0.0
 30
0.0
  3
*D13
  1

  0
LINE
  5
1314F
330
11FFD
100
AcDbEntity
  8
寸法
 62
     0
 48
50.0
370
    -2
100
AcDbLine
 10
8645.733277086499
 20
6429.238417208172
 30
0.0
 11
9536.733277086502
 21
6429.238417208172
 31
0.0
  0
LINE
  5
13150
330
11FFD
100
AcDbEntity
  8
寸法
 62
     0
 48
50.0
370
    -2
100
AcDbLine
 10
9175.801501250568
 20
6299.238417208172
 30
0.0
 11
9536.733277086502
 21
6299.238417208172
 31
0.0
  0
LINE
  5
13151
330
11FFD
100
AcDbEntity
  8
寸法
 62
     0
 48
50.0
370
    -2
100
AcDbLine
 10
9476.7332770865
 20
6429.238417208172
 30
0.0
 11
9476.7332770865
 21
6299.238417208172
 31
0.0
  0
LINE
  5
13152
330
11FFD
100
AcDbEntity
  8
寸法
 62
     0
 48
50.0
370
    -2
100
AcDbLine
 10
9476.7332770865
 20
6299.238417208172
 30
0.0
 11
9476.7332770865
 21
5784.344716420771
 31
0.0
  0
INSERT
  5
13153
330
11FFD
100
AcDbEntity
  8
寸法
 62
     0
 48
50.0
370
    -2
100
AcDbBlockReference
  2
_DOTSMALL
 10
9476.7332770865
 20
6429.238417208172
 30
0.0
 41
100.0
 42
100.0
 43
100.0
 50
90.0
  0
INSERT
  5
13154
330
11FFD
100
AcDbEntity
  8
寸法
 62
     0
 48
50.0
370
    -2
100
AcDbBlockReference
  2
_DOTSMALL
 10
9476.7332770865
 20
6299.238417208172
 30
0.0
 41
100.0
 42
100.0
 43
100.0
 50
270.0
  0
MTEXT
  5
13155
330
11FFD
100
AcDbEntity
  8
寸法
 62
     7
 48
50.0
100
AcDbMText
 10
9370.733277086499
 20
5968.297472326283
 30
0.0
 40
120.0
 41
0.0
 71
     5
 72
     1
  1
\A1;(130)
  7
STYLE1
 11
0.0000000000000001
 21
1.0
 31
0.0
 73
     1
 44
1.0
1001
ACAD
1000
MTEXTBEGIN
1070
    73
1070
     1
1070
    44
1040
1.0
1070
    74
1070
     0
1000
MTEXTEND
  0
POINT
  5
13156
330
11FFD
100
AcDbEntity
  8
DEFPOINTS
 62
     0
 48
50.0
100
AcDbPoint
 10
8625.733277086499
 20
6429.238417208172
 30
0.0
  0
POINT
  5
13157
330
11FFD
100
AcDbEntity
  8
DEFPOINTS
 62
     0
 48
50.0
100
AcDbPoint
 10
9155.801501250568
 20
6299.238417208172
 30
0.0
  0
POINT
  5
13158
330
11FFD
100
AcDbEntity
  8
DEFPOINTS
 62
     0
 48
50.0
100
AcDbPoint
 10
9476.7332770865
 20
6299.238417208172
 30
0.0
  0
ENDBLK
  5
12009
330
11FFD
100
AcDbEntity
  8
0
 48
50.0
100
AcDbBlockEnd
  0
BLOCK
  5
12015
330
1200A
100
AcDbEntity
  8
0
 48
50.0
100
AcDbBlockBegin
  2
*D14
 70
     1
 10
0.0
 20
0.0
 30
0.0
  3
*D14
  1

  0
LINE
  5
13176
330
1200A
100
AcDbEntity
  8
寸法
 62
     0
 48
50.0
370
    -2
100
AcDbLine
 10
8625.733277086499
 20
6409.238417208171
 30
0.0
 11
8625.733277086499
 21
5438.238417208173
 31
0.0
  0
LINE
  5
13177
330
1200A
100
AcDbEntity
  8
寸法
 62
     0
 48
50.0
370
    -2
100
AcDbLine
 10
8675.733277086498
 20
5789.771360963245
 30
0.0
 11
8675.733277086498
 21
5438.238417208173
 31
0.0
  0
LINE
  5
13178
330
1200A
100
AcDbEntity
  8
寸法
 62
     0
 48
50.0
370
    -2
100
AcDbLine
 10
8625.733277086499
 20
5498.238417208173
 30
0.0
 11
8525.7332770865
 21
5498.238417208173
 31
0.0
  0
LINE
  5
13179
330
1200A
100
AcDbEntity
  8
寸法
 62
     0
 48
50.0
370
    -2
100
AcDbLine
 10
8675.733277086498
 20
5498.238417208173
 30
0.0
 11
9183.638788897523
 21
5498.238417208173
 31
0.0
  0
LINE
  5
1317A
330
1200A
100
AcDbEntity
  8
寸法
 62
     0
 48
50.0
370
    -2
100
AcDbLine
 10
8625.733277086499
 20
5498.238417208173
 30
0.0
 11
8675.733277086498
 21
5498.238417208173
 31
0.0
  0
INSERT
  5
1317B
330
1200A
100
AcDbEntity
  8
寸法
 62
     0
 48
50.0
370
    -2
100
AcDbBlockReference
  2
_DOTSMALL
 10
8625.733277086499
 20
5498.238417208173
 30
0.0
 41
100.0
 42
100.0
 43
100.0
  0
INSERT
  5
1317C
330
1200A
100
AcDbEntity
  8
寸法
 62
     0
 48
50.0
370
    -2
100
AcDbBlockReference
  2
_DOTSMALL
 10
8675.733277086498
 20
5498.238417208173
 30
0.0
 41
100.0
 42
100.0
 43
100.0
 50
180.0
  0
MTEXT
  5
1317D
330
1200A
100
AcDbEntity
  8
寸法
 62
     7
 48
50.0
100
AcDbMText
 10
9029.68603299201
 20
5604.238417208173
 30
0.0
 40
120.0
 41
0.0
 71
     5
 72
     1
  1
\A1;(50)
  7
STYLE1
 73
     1
 44
1.0
1001
ACAD
1000
MTEXTBEGIN
1070
    73
1070
     1
1070
    44
1040
1.0
1070
    74
1070
     0
1000
MTEXTEND
  0
POINT
  5
1317E
330
1200A
100
AcDbEntity
  8
DEFPOINTS
 62
     0
 48
50.0
100
AcDbPoint
 10
8625.733277086499
 20
6429.238417208171
 30
0.0
  0
POINT
  5
1317F
330
1200A
100
AcDbEntity
  8
DEFPOINTS
 62
     0
 48
50.0
100
AcDbPoint
 10
8675.733277086498
 20
5809.771360963245
 30
0.0
  0
POINT
  5
13180
330
1200A
100
AcDbEntity
  8
DEFPOINTS
 62
     0
 48
50.0
100
AcDbPoint
 10
8675.733277086498
 20
5498.238417208173
 30
0.0
  0
ENDBLK
  5
12016
330
1200A
100
AcDbEntity
  8
0
 48
50.0
100
AcDbBlockEnd
  0
BLOCK
  5
12021
330
12017
100
AcDbEntity
  8
0
 48
50.0
100
AcDbBlockBegin
  2
*D15
 70
     1
 10
0.0
 20
0.0
 30
0.0
  3
*D15
  1

  0
LINE
  5
13146
330
12017
100
AcDbEntity
  8
寸法
 62
     0
 48
50.0
370
    -2
100
AcDbLine
 10
8645.733277086499
 20
6429.238417208172
 30
0.0
 11
9536.733277086499
 21
6429.238417208172
 31
0.0
  0
LINE
  5
13147
330
12017
100
AcDbEntity
  8
寸法
 62
     0
 48
50.0
370
    -2
100
AcDbLine
 10
8645.733277086499
 20
7739.238417208174
 30
0.0
 11
9536.733277086499
 21
7739.238417208174
 31
0.0
  0
LINE
  5
13148
330
12017
100
AcDbEntity
  8
寸法
 62
     0
 48
50.0
370
    -2
100
AcDbLine
 10
9476.7332770865
 20
6429.238417208172
 30
0.0
 11
9476.7332770865
 21
7739.238417208174
 31
0.0
  0
INSERT
  5
13149
330
12017
100
AcDbEntity
  8
寸法
 62
     0
 48
50.0
370
    -2
100
AcDbBlockReference
  2
_DOTSMALL
 10
9476.7332770865
 20
6429.238417208172
 30
0.0
 41
100.0
 42
100.0
 43
100.0
 50
270.0
  0
INSERT
  5
1314A
330
12017
100
AcDbEntity
  8
寸法
 62
     0
 48
50.0
370
    -2
100
AcDbBlockReference
  2
_DOTSMALL
 10
9476.7332770865
 20
7739.238417208174
 30
0.0
 41
100.0
 42
100.0
 43
100.0
 50
90.0
  0
MTEXT
  5
1314B
330
12017
100
AcDbEntity
  8
寸法
 62
     7
 48
50.0
100
AcDbMText
 10
9376.733277086499
 20
7084.238417208173
 30
0.0
 40
120.0
 41
0.0
 71
     5
 72
     1
  1
\A1;1310
  7
STYLE1
 11
0.0000000000000001
 21
1.0
 31
0.0
 73
     1
 44
1.0
1001
ACAD
1000
MTEXTBEGIN
1070
    73
1070
     1
1070
    44
1040
1.0
1070
    74
1070
     0
1000
MTEXTEND
  0
POINT
  5
1314C
330
12017
100
AcDbEntity
  8
DEFPOINTS
 62
     0
 48
50.0
100
AcDbPoint
 10
8625.733277086499
 20
6429.238417208172
 30
0.0
  0
POINT
  5
1314D
330
12017
100
AcDbEntity
  8
DEFPOINTS
 62
     0
 48
50.0
100
AcDbPoint
 10
8625.733277086499
 20
7739.238417208174
 30
0.0
  0
POINT
  5
1314E
330
12017
100
AcDbEntity
  8
DEFPOINTS
 62
     0
 48
50.0
100
AcDbPoint
 10
9476.7332770865
 20
7739.238417208174
 30
0.0
  0
ENDBLK
  5
12022
330
12017
100
AcDbEntity
  8
0
 48
50.0
100
AcDbBlockEnd
  0
BLOCK
  5
1202C
330
12023
100
AcDbEntity
  8
0
 48
50.0
100
AcDbBlockBegin
  2
*D16
 70
     1
 10
0.0
 20
0.0
 30
0.0
  3
*D16
  1

  0
LINE
  5
1313D
330
12023
100
AcDbEntity
  8
寸法
 62
     0
 48
50.0
370
    -2
100
AcDbLine
 10
8725.733277086499
 20
7674.238417208172
 30
0.0
 11
9215.801501250567
 21
7674.238417208172
 31
0.0
  0
LINE
  5
1313E
330
12023
100
AcDbEntity
  8
寸法
 62
     0
 48
50.0
370
    -2
100
AcDbLine
 10
8725.733277086499
 20
6494.238417208173
 30
0.0
 11
9215.801501250567
 21
6494.238417208173
 31
0.0
  0
LINE
  5
1313F
330
12023
100
AcDbEntity
  8
寸法
 62
     0
 48
50.0
370
    -2
100
AcDbLine
 10
9155.801501250568
 20
7674.238417208172
 30
0.0
 11
9155.801501250568
 21
6494.238417208173
 31
0.0
  0
INSERT
  5
13140
330
12023
100
AcDbEntity
  8
寸法
 62
     0
 48
50.0
370
    -2
100
AcDbBlockReference
  2
_DOTSMALL
 10
9155.801501250568
 20
7674.238417208172
 30
0.0
 41
100.0
 42
100.0
 43
100.0
 50
90.0
  0
INSERT
  5
13141
330
12023
100
AcDbEntity
  8
寸法
 62
     0
 48
50.0
370
    -2
100
AcDbBlockReference
  2
_DOTSMALL
 10
9155.801501250568
 20
6494.238417208173
 30
0.0
 41
100.0
 42
100.0
 43
100.0
 50
270.0
  0
MTEXT
  5
13142
330
12023
100
AcDbEntity
  8
寸法
 62
     7
 48
50.0
100
AcDbMText
 10
9055.801501250567
 20
7084.238417208173
 30
0.0
 40
120.0
 41
0.0
 71
     5
 72
     1
  1
\A1;1180
  7
STYLE1
 11
0.0000000000000001
 21
1.0
 31
0.0
 73
     1
 44
1.0
1001
ACAD
1000
MTEXTBEGIN
1070
    73
1070
     1
1070
    44
1040
1.0
1070
    74
1070
     0
1000
MTEXTEND
  0
POINT
  5
13143
330
12023
100
AcDbEntity
  8
DEFPOINTS
 62
     0
 48
50.0
100
AcDbPoint
 10
8705.733277086499
 20
7674.238417208172
 30
0.0
  0
POINT
  5
13144
330
12023
100
AcDbEntity
  8
DEFPOINTS
 62
     0
 48
50.0
100
AcDbPoint
 10
8705.733277086499
 20
6494.238417208173
 30
0.0
  0
POINT
  5
13145
330
12023
100
AcDbEntity
  8
DEFPOINTS
 62
     0
 48
50.0
100
AcDbPoint
 10
9155.801501250568
 20
6494.238417208173
 30
0.0
  0
ENDBLK
  5
1202D
330
12023
100
AcDbEntity
  8
0
 48
50.0
100
AcDbBlockEnd
  0
BLOCK
  5
12039
330
1202E
100
AcDbEntity
  8
0
 48
50.0
100
AcDbBlockBegin
  2
*D17
 70
     1
 10
0.0
 20
0.0
 30
0.0
  3
*D17
  1

  0
LINE
  5
13132
330
1202E
100
AcDbEntity
  8
寸法
 62
     0
 48
50.0
370
    -2
100
AcDbLine
 10
8725.733277086499
 20
6494.238417208173
 30
0.0
 11
9215.80150125057
 21
6494.238417208173
 31
0.0
  0
LINE
  5
13133
330
1202E
100
AcDbEntity
  8
寸法
 62
     0
 48
50.0
370
    -2
100
AcDbLine
 10
8645.733277086499
 20
6429.238417208172
 30
0.0
 11
9215.80150125057
 21
6429.238417208172
 31
0.0
  0
LINE
  5
13134
330
1202E
100
AcDbEntity
  8
寸法
 62
     0
 48
50.0
370
    -2
100
AcDbLine
 10
9155.80150125057
 20
6494.238417208173
 30
0.0
 11
9155.80150125057
 21
6594.238417208173
 31
0.0
  0
LINE
  5
13135
330
1202E
100
AcDbEntity
  8
寸法
 62
     0
 48
50.0
370
    -2
100
AcDbLine
 10
9155.80150125057
 20
6429.238417208172
 30
0.0
 11
9155.80150125057
 21
6005.086752097491
 31
0.0
  0
LINE
  5
13136
330
1202E
100
AcDbEntity
  8
寸法
 62
     0
 48
50.0
370
    -2
100
AcDbLine
 10
9155.80150125057
 20
6494.238417208173
 30
0.0
 11
9155.80150125057
 21
6429.238417208172
 31
0.0
  0
INSERT
  5
13137
330
1202E
100
AcDbEntity
  8
寸法
 62
     0
 48
50.0
370
    -2
100
AcDbBlockReference
  2
_DOTSMALL
 10
9155.80150125057
 20
6494.238417208173
 30
0.0
 41
100.0
 42
100.0
 43
100.0
 50
270.0
  0
INSERT
  5
13138
330
1202E
100
AcDbEntity
  8
寸法
 62
     0
 48
50.0
370
    -2
100
AcDbBlockReference
  2
_DOTSMALL
 10
9155.80150125057
 20
6429.238417208172
 30
0.0
 41
100.0
 42
100.0
 43
100.0
 50
90.0
  0
MTEXT
  5
13139
330
1202E
100
AcDbEntity
  8
寸法
 62
     7
 48
50.0
100
AcDbMText
 10
9055.801501250568
 20
6117.162584652834
 30
0.0
 40
120.0
 41
0.0
 71
     5
 72
     1
  1
\A1;65
  7
STYLE1
 11
0.0000000000000001
 21
1.0
 31
0.0
 73
     1
 44
1.0
1001
ACAD
1000
MTEXTBEGIN
1070
    73
1070
     1
1070
    44
1040
1.0
1070
    74
1070
     0
1000
MTEXTEND
  0
POINT
  5
1313A
330
1202E
100
AcDbEntity
  8
DEFPOINTS
 62
     0
 48
50.0
100
AcDbPoint
 10
8705.733277086499
 20
6494.238417208173
 30
0.0
  0
POINT
  5
1313B
330
1202E
100
AcDbEntity
  8
DEFPOINTS
 62
     0
 48
50.0
100
AcDbPoint
 10
8625.733277086499
 20
6429.238417208172
 30
0.0
  0
POINT
  5
1313C
330
1202E
100
AcDbEntity
  8
DEFPOINTS
 62
     0
 48
50.0
100
AcDbPoint
 10
9155.80150125057
 20
6429.238417208172
 30
0.0
  0
ENDBLK
  5
1203A
330
1202E
100
AcDbEntity
  8
0
 48
50.0
100
AcDbBlockEnd
  0
BLOCK
  5
12046
330
1203B
100
AcDbEntity
  8
0
 48
50.0
100
AcDbBlockBegin
  2
*D18
 70
     1
 10
0.0
 20
0.0
 30
0.0
  3
*D18
  1

  0
LINE
  5
13128
330
1203B
100
AcDbEntity
  8
寸法
 62
     0
 48
50.0
370
    -2
100
AcDbLine
 10
8645.733277086499
 20
7739.238417208174
 30
0.0
 11
9536.733277086502
 21
7739.238417208174
 31
0.0
  0
LINE
  5
13129
330
1203B
100
AcDbEntity
  8
寸法
 62
     0
 48
50.0
370
    -2
100
AcDbLine
 10
9175.801501250568
 20
7829.238417208171
 30
0.0
 11
9536.733277086502
 21
7829.238417208171
 31
0.0
  0
LINE
  5
1312A
330
1203B
100
AcDbEntity
  8
寸法
 62
     0
 48
50.0
370
    -2
100
AcDbLine
 10
9476.7332770865
 20
7739.238417208174
 30
0.0
 11
9476.7332770865
 21
7829.238417208171
 31
0.0
  0
LINE
  5
1312B
330
1203B
100
AcDbEntity
  8
寸法
 62
     0
 48
50.0
370
    -2
100
AcDbLine
 10
9476.7332770865
 20
7829.238417208171
 30
0.0
 11
9476.7332770865
 21
8277.103852612299
 31
0.0
  0
INSERT
  5
1312C
330
1203B
100
AcDbEntity
  8
寸法
 62
     0
 48
50.0
370
    -2
100
AcDbBlockReference
  2
_DOTSMALL
 10
9476.7332770865
 20
7739.238417208174
 30
0.0
 41
100.0
 42
100.0
 43
100.0
 50
270.0
  0
INSERT
  5
1312D
330
1203B
100
AcDbEntity
  8
寸法
 62
     0
 48
50.0
370
    -2
100
AcDbBlockReference
  2
_DOTSMALL
 10
9476.7332770865
 20
7829.238417208171
 30
0.0
 41
100.0
 42
100.0
 43
100.0
 50
90.0
  0
MTEXT
  5
1312E
330
1203B
100
AcDbEntity
  8
寸法
 62
     7
 48
50.0
100
AcDbMText
 10
9370.704275545319
 20
8122.941436877132
 30
0.0
 40
120.0
 41
0.0
 71
     5
 72
     1
  1
\A1;(90)
  7
STYLE1
 11
0.0000000000000001
 21
1.0
 31
0.0
 73
     1
 44
1.0
1001
ACAD
1000
MTEXTBEGIN
1070
    73
1070
     1
1070
    44
1040
1.0
1070
    74
1070
     0
1000
MTEXTEND
  0
POINT
  5
1312F
330
1203B
100
AcDbEntity
  8
DEFPOINTS
 62
     0
 48
50.0
100
AcDbPoint
 10
8625.733277086499
 20
7739.238417208174
 30
0.0
  0
POINT
  5
13130
330
1203B
100
AcDbEntity
  8
DEFPOINTS
 62
     0
 48
50.0
100
AcDbPoint
 10
9155.801501250568
 20
7829.238417208171
 30
0.0
  0
POINT
  5
13131
330
1203B
100
AcDbEntity
  8
DEFPOINTS
 62
     0
 48
50.0
100
AcDbPoint
 10
9476.7332770865
 20
7829.238417208171
 30
0.0
  0
ENDBLK
  5
12047
330
1203B
100
AcDbEntity
  8
0
 48
50.0
100
AcDbBlockEnd
  0
BLOCK
  5
12053
330
12048
100
AcDbEntity
  8
0
 48
50.0
100
AcDbBlockBegin
  2
*D19
 70
     1
 10
0.0
 20
0.0
 30
0.0
  3
*D19
  1

  0
LINE
  5
1311D
330
12048
100
AcDbEntity
  8
寸法
 62
     0
 48
50.0
370
    -2
100
AcDbLine
 10
8645.733277086499
 20
7739.238417208174
 30
0.0
 11
9215.80150125057
 21
7739.238417208174
 31
0.0
  0
LINE
  5
1311E
330
12048
100
AcDbEntity
  8
寸法
 62
     0
 48
50.0
370
    -2
100
AcDbLine
 10
8725.733277086499
 20
7674.238417208172
 30
0.0
 11
9215.80150125057
 21
7674.238417208172
 31
0.0
  0
LINE
  5
1311F
330
12048
100
AcDbEntity
  8
寸法
 62
     0
 48
50.0
370
    -2
100
AcDbLine
 10
9155.80150125057
 20
7674.238417208172
 30
0.0
 11
9155.80150125057
 21
7574.238417208173
 31
0.0
  0
LINE
  5
13120
330
12048
100
AcDbEntity
  8
寸法
 62
     0
 48
50.0
370
    -2
100
AcDbLine
 10
9155.80150125057
 20
7739.238417208174
 30
0.0
 11
9155.80150125057
 21
8163.390082318855
 31
0.0
  0
LINE
  5
13121
330
12048
100
AcDbEntity
  8
寸法
 62
     0
 48
50.0
370
    -2
100
AcDbLine
 10
9155.80150125057
 20
7674.238417208172
 30
0.0
 11
9155.80150125057
 21
7739.238417208174
 31
0.0
  0
INSERT
  5
13122
330
12048
100
AcDbEntity
  8
寸法
 62
     0
 48
50.0
370
    -2
100
AcDbBlockReference
  2
_DOTSMALL
 10
9155.80150125057
 20
7674.238417208172
 30
0.0
 41
100.0
 42
100.0
 43
100.0
 50
90.0
  0
INSERT
  5
13123
330
12048
100
AcDbEntity
  8
寸法
 62
     0
 48
50.0
370
    -2
100
AcDbBlockReference
  2
_DOTSMALL
 10
9155.80150125057
 20
7739.238417208174
 30
0.0
 41
100.0
 42
100.0
 43
100.0
 50
270.0
  0
MTEXT
  5
13124
330
12048
100
AcDbEntity
  8
寸法
 62
     7
 48
50.0
100
AcDbMText
 10
9055.801501250568
 20
8051.314249763514
 30
0.0
 40
120.0
 41
0.0
 71
     5
 72
     1
  1
\A1;65
  7
STYLE1
 11
0.0000000000000001
 21
1.0
 31
0.0
 73
     1
 44
1.0
1001
ACAD
1000
MTEXTBEGIN
1070
    73
1070
     1
1070
    44
1040
1.0
1070
    74
1070
     0
1000
MTEXTEND
  0
POINT
  5
13125
330
12048
100
AcDbEntity
  8
DEFPOINTS
 62
     0
 48
50.0
100
AcDbPoint
 10
8625.733277086499
 20
7739.238417208174
 30
0.0
  0
POINT
  5
13126
330
12048
100
AcDbEntity
  8
DEFPOINTS
 62
     0
 48
50.0
100
AcDbPoint
 10
8705.733277086499
 20
7674.238417208172
 30
0.0
  0
POINT
  5
13127
330
12048
100
AcDbEntity
  8
DEFPOINTS
 62
     0
 48
50.0
100
AcDbPoint
 10
9155.80150125057
 20
7674.238417208172
 30
0.0
  0
ENDBLK
  5
12054
330
12048
100
AcDbEntity
  8
0
 48
50.0
100
AcDbBlockEnd
  0
BLOCK
  5
131E7
330
131DB
100
AcDbEntity
  8
0
 48
50.0
100
AcDbBlockBegin
  2
*D20
 70
     1
 10
0.0
 20
0.0
 30
0.0
  3
*D20
  1

  0
LINE
  5
13201
330
131DB
100
AcDbEntity
  8
寸法
 62
     0
 48
50.0
370
    -2
100
AcDbLine
 10
8505.7332770865
 20
6800.37446921023
 30
0.0
 11
8505.7332770865
 21
6703.953766812915
 31
0.0
  0
LINE
  5
13202
330
131DB
100
AcDbEntity
  8
寸法
 62
     0
 48
50.0
370
    -2
100
AcDbLine
 10
8625.733277086499
 20
6772.64475938872
 30
0.0
 11
8625.733277086499
 21
6703.953766812915
 31
0.0
  0
LINE
  5
13203
330
131DB
100
AcDbEntity
  8
寸法
 62
     0
 48
50.0
370
    -2
100
AcDbLine
 10
8505.7332770865
 20
6763.953766812917
 30
0.0
 11
8625.733277086499
 21
6763.953766812917
 31
0.0
  0
LINE
  5
13204
330
131DB
100
AcDbEntity
  8
寸法
 62
     0
 48
50.0
370
    -2
100
AcDbLine
 10
8625.733277086499
 20
6763.953766812917
 30
0.0
 11
8997.827765275477
 21
6763.953766812917
 31
0.0
  0
INSERT
  5
13205
330
131DB
100
AcDbEntity
  8
寸法
 62
     0
 48
50.0
370
    -2
100
AcDbBlockReference
  2
_DOTSMALL
 10
8505.7332770865
 20
6763.953766812917
 30
0.0
 41
100.0
 42
100.0
 43
100.0
 50
180.0
  0
INSERT
  5
13206
330
131DB
100
AcDbEntity
  8
寸法
 62
     0
 48
50.0
370
    -2
100
AcDbBlockReference
  2
_DOTSMALL
 10
8625.733277086499
 20
6763.953766812917
 30
0.0
 41
100.0
 42
100.0
 43
100.0
  0
MTEXT
  5
13207
330
131DB
100
AcDbEntity
  8
寸法
 62
     7
 48
50.0
100
AcDbMText
 10
8861.780521180987
 20
6863.965577836538
 30
0.0
 40
120.0
 41
0.0
 71
     5
 72
     1
  1
\A1;120
  7
STYLE1
 73
     1
 44
1.0
1001
ACAD
1000
MTEXTBEGIN
1070
    73
1070
     1
1070
    44
1040
1.0
1070
    74
1070
     0
1000
MTEXTEND
  0
POINT
  5
13208
330
131DB
100
AcDbEntity
  8
DEFPOINTS
 62
     0
 48
50.0
100
AcDbPoint
 10
8505.7332770865
 20
6820.37446921023
 30
0.0
  0
POINT
  5
13209
330
131DB
100
AcDbEntity
  8
DEFPOINTS
 62
     0
 48
50.0
100
AcDbPoint
 10
8625.733277086499
 20
6792.64475938872
 30
0.0
  0
POINT
  5
1320A
330
131DB
100
AcDbEntity
  8
DEFPOINTS
 62
     0
 48
50.0
100
AcDbPoint
 10
8625.733277086499
 20
6763.953766812917
 30
0.0
  0
ENDBLK
  5
131E8
330
131DB
100
AcDbEntity
  8
0
 48
50.0
100
AcDbBlockEnd
  0
BLOCK
  5
13218
330
1320C
100
AcDbEntity
  8
0
 48
50.0
100
AcDbBlockBegin
  2
*D21
 70
     1
 10
0.0
 20
0.0
 30
0.0
  3
*D21
  1

  0
LINE
  5
13224
330
1320C
100
AcDbEntity
  8
寸法
 62
     0
 48
50.0
370
    -2
100
AcDbLine
 10
8192.545813794742
 20
7619.238417208174
 30
0.0
 11
8362.181806664668
 21
7619.238417208174
 31
0.0
  0
LINE
  5
13225
330
1320C
100
AcDbEntity
  8
寸法
 62
     0
 48
50.0
370
    -2
100
AcDbLine
 10
8187.86019268669
 20
7739.238417208174
 30
0.0
 11
8362.181806664668
 21
7739.238417208174
 31
0.0
  0
LINE
  5
13226
330
1320C
100
AcDbEntity
  8
寸法
 62
     0
 48
50.0
370
    -2
100
AcDbLine
 10
8302.181806664668
 20
7619.238417208174
 30
0.0
 11
8302.181806664668
 21
7739.238417208174
 31
0.0
  0
LINE
  5
13227
330
1320C
100
AcDbEntity
  8
寸法
 62
     0
 48
50.0
370
    -2
100
AcDbLine
 10
8302.181806664668
 20
7739.238417208174
 30
0.0
 11
8302.181806664668
 21
8111.33290539715
 31
0.0
  0
INSERT
  5
13228
330
1320C
100
AcDbEntity
  8
寸法
 62
     0
 48
50.0
370
    -2
100
AcDbBlockReference
  2
_DOTSMALL
 10
8302.181806664668
 20
7619.238417208174
 30
0.0
 41
100.0
 42
100.0
 43
100.0
 50
270.0
  0
INSERT
  5
13229
330
1320C
100
AcDbEntity
  8
寸法
 62
     0
 48
50.0
370
    -2
100
AcDbBlockReference
  2
_DOTSMALL
 10
8302.181806664668
 20
7739.238417208174
 30
0.0
 41
100.0
 42
100.0
 43
100.0
 50
90.0
  0
MTEXT
  5
1322A
330
1320C
100
AcDbEntity
  8
寸法
 62
     7
 48
50.0
100
AcDbMText
 10
8202.169995641044
 20
7975.285661302662
 30
0.0
 40
120.0
 41
0.0
 71
     5
 72
     1
  1
\A1;120
  7
STYLE1
 11
0.0000000000000001
 21
1.0
 31
0.0
 73
     1
 44
1.0
1001
ACAD
1000
MTEXTBEGIN
1070
    73
1070
     1
1070
    44
1040
1.0
1070
    74
1070
     0
1000
MTEXTEND
  0
POINT
  5
1322B
330
1320C
100
AcDbEntity
  8
DEFPOINTS
 62
     0
 48
50.0
100
AcDbPoint
 10
8172.545813794743
 20
7619.238417208174
 30
0.0
  0
POINT
  5
1322C
330
1320C
100
AcDbEntity
  8
DEFPOINTS
 62
     0
 48
50.0
100
AcDbPoint
 10
8167.86019268669
 20
7739.238417208174
 30
0.0
  0
POINT
  5
1322D
330
1320C
100
AcDbEntity
  8
DEFPOINTS
 62
     0
 48
50.0
100
AcDbPoint
 10
8302.181806664668
 20
7739.238417208174
 30
0.0
  0
ENDBLK
  5
13219
330
1320C
100
AcDbEntity
  8
0
 48
50.0
100
AcDbBlockEnd
  0
BLOCK
  5
1369F
330
13694
100
AcDbEntity
  8
0
 48
50.0
100
AcDbBlockBegin
  2
*D22
 70
     1
 10
0.0
 20
0.0
 30
0.0
  3
*D22
  1

  0
LINE
  5
136EA
330
13694
100
AcDbEntity
  8
寸法
 62
     0
 48
50.0
370
    -2
100
AcDbLine
 10
8122.698246349466
 20
2423.83259801157
 30
0.0
 11
8122.698246349466
 21
2717.565939909517
 31
0.0
  0
LINE
  5
136EB
330
13694
100
AcDbEntity
  8
寸法
 62
     0
 48
50.0
370
    -2
100
AcDbLine
 10
8266.198246349466
 20
2484.140290319261
 30
0.0
 11
8266.198246349466
 21
2717.565939909517
 31
0.0
  0
LINE
  5
136EC
330
13694
100
AcDbEntity
  8
寸法
 62
     0
 48
50.0
370
    -2
100
AcDbLine
 10
8266.198246349466
 20
2642.565939909517
 30
0.0
 11
8122.698246349466
 21
2642.565939909517
 31
0.0
  0
LINE
  5
136ED
330
13694
100
AcDbEntity
  8
寸法
 62
     0
 48
50.0
370
    -2
100
AcDbLine
 10
8122.698246349466
 20
2642.565939909517
 30
0.0
 11
7827.571858757231
 21
2642.565939909517
 31
0.0
  0
INSERT
  5
136EE
330
13694
100
AcDbEntity
  8
寸法
 62
     0
 48
50.0
370
    -2
100
AcDbBlockReference
  2
_DOTSMALL
 10
8266.198246349466
 20
2642.565939909517
 30
0.0
 41
125.0
 42
125.0
 43
125.0
  0
INSERT
  5
136EF
330
13694
100
AcDbEntity
  8
寸法
 62
     0
 48
50.0
370
    -2
100
AcDbBlockReference
  2
_DOTSMALL
 10
8122.698246349466
 20
2642.565939909517
 30
0.0
 41
125.0
 42
125.0
 43
125.0
 50
180.0
  0
MTEXT
  5
136F0
330
13694
100
AcDbEntity
  8
寸法
 62
     7
 48
50.0
100
AcDbMText
 10
7912.635052553349
 20
2717.565939909517
 30
0.0
 40
100.0
 41
0.0
 71
     5
 72
     1
  1
\A1;65
  7
STYLE1
 73
     1
 44
1.0
1001
ACAD
1000
MTEXTBEGIN
1070
    73
1070
     1
1070
    44
1040
1.0
1070
    74
1070
     0
1000
MTEXTEND
  0
POINT
  5
136F1
330
13694
100
AcDbEntity
  8
DEFPOINTS
 62
     0
 48
50.0
100
AcDbPoint
 10
8122.698246349466
 20
2398.83259801157
 30
0.0
  0
POINT
  5
136F2
330
13694
100
AcDbEntity
  8
DEFPOINTS
 62
     0
 48
50.0
100
AcDbPoint
 10
8266.198246349466
 20
2459.140290319262
 30
0.0
  0
POINT
  5
136F3
330
13694
100
AcDbEntity
  8
DEFPOINTS
 62
     0
 48
50.0
100
AcDbPoint
 10
8266.198246349466
 20
2642.565939909517
 30
0.0
  0
ENDBLK
  5
136A0
330
13694
100
AcDbEntity
  8
0
 48
50.0
100
AcDbBlockEnd
  0
BLOCK
  5
136AB
330
136A1
100
AcDbEntity
  8
0
 48
50.0
100
AcDbBlockBegin
  2
*D23
 70
     1
 10
0.0
 20
0.0
 30
0.0
  3
*D23
  1

  0
LINE
  5
1372B
330
136A1
100
AcDbEntity
  8
寸法
 62
     0
 48
50.0
370
    -2
100
AcDbLine
 10
5315.274342825055
 20
2348.302878246781
 30
0.0
 11
5315.274342825055
 21
2798.302878246781
 31
0.0
  0
LINE
  5
1372C
330
136A1
100
AcDbEntity
  8
寸法
 62
     0
 48
50.0
370
    -2
100
AcDbLine
 10
5075.274342825056
 20
2348.302878246781
 30
0.0
 11
5075.274342825056
 21
2798.302878246781
 31
0.0
  0
LINE
  5
1372D
330
136A1
100
AcDbEntity
  8
寸法
 62
     0
 48
50.0
370
    -2
100
AcDbLine
 10
5315.274342825055
 20
2723.302878246781
 30
0.0
 11
5075.274342825056
 21
2723.302878246781
 31
0.0
  0
INSERT
  5
1372E
330
136A1
100
AcDbEntity
  8
寸法
 62
     0
 48
50.0
370
    -2
100
AcDbBlockReference
  2
_DOTSMALL
 10
5315.274342825055
 20
2723.302878246781
 30
0.0
 41
125.0
 42
125.0
 43
125.0
  0
INSERT
  5
1372F
330
136A1
100
AcDbEntity
  8
寸法
 62
     0
 48
50.0
370
    -2
100
AcDbBlockReference
  2
_DOTSMALL
 10
5075.274342825056
 20
2723.302878246781
 30
0.0
 41
125.0
 42
125.0
 43
125.0
 50
180.0
  0
MTEXT
  5
13730
330
136A1
100
AcDbEntity
  8
寸法
 62
     7
 48
50.0
100
AcDbMText
 10
5195.274342825056
 20
2798.312720766466
 30
0.0
 40
100.0
 41
0.0
 71
     5
 72
     1
  1
\A1;120
  7
STYLE1
 73
     1
 44
1.0
1001
ACAD
1000
MTEXTBEGIN
1070
    73
1070
     1
1070
    44
1040
1.0
1070
    74
1070
     0
1000
MTEXTEND
  0
POINT
  5
13731
330
136A1
100
AcDbEntity
  8
DEFPOINTS
 62
     0
 48
50.0
100
AcDbPoint
 10
5315.274342825055
 20
2323.302878246781
 30
0.0
  0
POINT
  5
13732
330
136A1
100
AcDbEntity
  8
DEFPOINTS
 62
     0
 48
50.0
100
AcDbPoint
 10
5075.274342825056
 20
2323.302878246781
 30
0.0
  0
POINT
  5
13733
330
136A1
100
AcDbEntity
  8
DEFPOINTS
 62
     0
 48
50.0
100
AcDbPoint
 10
5075.274342825056
 20
2723.302878246781
 30
0.0
  0
ENDBLK
  5
136AC
330
136A1
100
AcDbEntity
  8
0
 48
50.0
100
AcDbBlockEnd
  0
BLOCK
  5
136B7
330
136AD
100
AcDbEntity
  8
0
 48
50.0
100
AcDbBlockBegin
  2
*D24
 70
     1
 10
0.0
 20
0.0
 30
0.0
  3
*D24
  1

  0
LINE
  5
136FD
330
136AD
100
AcDbEntity
  8
寸法
 62
     0
 48
50.0
370
    -2
100
AcDbLine
 10
8133.467477118697
 20
2529.371059550031
 30
0.0
 11
8133.467477118697
 21
2939.144857961492
 31
0.0
  0
LINE
  5
136FE
330
136AD
100
AcDbEntity
  8
寸法
 62
     0
 48
50.0
370
    -2
100
AcDbLine
 10
8324.082861734082
 20
2530.447982626955
 30
0.0
 11
8324.082861734082
 21
2939.144857961492
 31
0.0
  0
LINE
  5
136FF
330
136AD
100
AcDbEntity
  8
寸法
 62
     0
 48
50.0
370
    -2
100
AcDbLine
 10
8133.467477118697
 20
2864.144857961492
 30
0.0
 11
8324.082861734082
 21
2864.144857961492
 31
0.0
  0
INSERT
  5
13700
330
136AD
100
AcDbEntity
  8
寸法
 62
     0
 48
50.0
370
    -2
100
AcDbBlockReference
  2
_DOTSMALL
 10
8133.467477118697
 20
2864.144857961492
 30
0.0
 41
125.0
 42
125.0
 43
125.0
 50
180.0
  0
INSERT
  5
13701
330
136AD
100
AcDbEntity
  8
寸法
 62
     0
 48
50.0
370
    -2
100
AcDbBlockReference
  2
_DOTSMALL
 10
8324.082861734082
 20
2864.144857961492
 30
0.0
 41
125.0
 42
125.0
 43
125.0
  0
MTEXT
  5
13702
330
136AD
100
AcDbEntity
  8
寸法
 62
     7
 48
50.0
100
AcDbMText
 10
8228.775169426389
 20
2939.144857961492
 30
0.0
 40
100.0
 41
0.0
 71
     5
 72
     1
  1
\A1;88.5
  7
STYLE1
 73
     1
 44
1.0
1001
ACAD
1000
MTEXTBEGIN
1070
    73
1070
     1
1070
    44
1040
1.0
1070
    74
1070
     0
1000
MTEXTEND
  0
POINT
  5
13703
330
136AD
100
AcDbEntity
  8
DEFPOINTS
 62
     0
 48
50.0
100
AcDbPoint
 10
8133.467477118697
 20
2504.371059550031
 30
0.0
  0
POINT
  5
13704
330
136AD
100
AcDbEntity
  8
DEFPOINTS
 62
     0
 48
50.0
100
AcDbPoint
 10
8324.082861734082
 20
2505.447982626955
 30
0.0
  0
POINT
  5
13705
330
136AD
100
AcDbEntity
  8
DEFPOINTS
 62
     0
 48
50.0
100
AcDbPoint
 10
8324.082861734082
 20
2864.144857961492
 30
0.0
  0
ENDBLK
  5
136B8
330
136AD
100
AcDbEntity
  8
0
 48
50.0
100
AcDbBlockEnd
  0
BLOCK
  5
136C4
330
136B9
100
AcDbEntity
  8
0
 48
50.0
100
AcDbBlockBegin
  2
*D25
 70
     1
 10
0.0
 20
0.0
 30
0.0
  3
*D25
  1

  0
LINE
  5
13706
330
136B9
100
AcDbEntity
  8
寸法
 62
     0
 48
50.0
370
    -2
100
AcDbLine
 10
8227.698246349461
 20
2459.140290319262
 30
0.0
 11
7506.312948428796
 21
2459.140290319262
 31
0.0
  0
LINE
  5
13707
330
136B9
100
AcDbEntity
  8
寸法
 62
     0
 48
50.0
370
    -2
100
AcDbLine
 10
8097.698246349466
 20
2398.83259801157
 30
0.0
 11
7506.312948428796
 21
2398.83259801157
 31
0.0
  0
LINE
  5
13708
330
136B9
100
AcDbEntity
  8
寸法
 62
     0
 48
50.0
370
    -2
100
AcDbLine
 10
7581.312948428795
 20
2398.83259801157
 30
0.0
 11
7581.312948428795
 21
2459.140290319262
 31
0.0
  0
LINE
  5
13709
330
136B9
100
AcDbEntity
  8
寸法
 62
     0
 48
50.0
370
    -2
100
AcDbLine
 10
7581.312948428795
 20
2459.140290319262
 30
0.0
 11
7581.312948428795
 21
2872.552363810076
 31
0.0
  0
INSERT
  5
1370A
330
136B9
100
AcDbEntity
  8
寸法
 62
     0
 48
50.0
370
    -2
100
AcDbBlockReference
  2
_DOTSMALL
 10
7581.312948428795
 20
2398.83259801157
 30
0.0
 41
125.0
 42
125.0
 43
125.0
 50
270.0
  0
INSERT
  5
1370B
330
136B9
100
AcDbEntity
  8
寸法
 62
     0
 48
50.0
370
    -2
100
AcDbBlockReference
  2
_DOTSMALL
 10
7581.312948428795
 20
2459.140290319262
 30
0.0
 41
125.0
 42
125.0
 43
125.0
 50
90.0
  0
MTEXT
  5
1370C
330
136B9
100
AcDbEntity
  8
寸法
 62
     7
 48
50.0
100
AcDbMText
 10
7506.312948428796
 20
2728.346327064671
 30
0.0
 40
100.0
 41
0.0
 71
     5
 72
     1
  1
\A1;出30
  7
STYLE1
 11
0.0000000000000001
 21
1.0
 31
0.0
 73
     1
 44
1.0
1001
ACAD
1000
MTEXTBEGIN
1070
    73
1070
     1
1070
    44
1040
1.0
1070
    74
1070
     0
1000
MTEXTEND
  0
POINT
  5
1370D
330
136B9
100
AcDbEntity
  8
DEFPOINTS
 62
     0
 48
50.0
100
AcDbPoint
 10
8252.698246349462
 20
2459.140290319262
 30
0.0
  0
POINT
  5
1370E
330
136B9
100
AcDbEntity
  8
DEFPOINTS
 62
     0
 48
50.0
100
AcDbPoint
 10
8122.698246349466
 20
2398.83259801157
 30
0.0
  0
POINT
  5
1370F
330
136B9
100
AcDbEntity
  8
DEFPOINTS
 62
     0
 48
50.0
100
AcDbPoint
 10
7581.312948428795
 20
2398.83259801157
 30
0.0
  0
ENDBLK
  5
136C5
330
136B9
100
AcDbEntity
  8
0
 48
50.0
100
AcDbBlockEnd
  0
BLOCK
  5
136D0
330
136C6
100
AcDbEntity
  8
0
 48
50.0
100
AcDbBlockBegin
  2
*D26
 70
     1
 10
0.0
 20
0.0
 30
0.0
  3
*D26
  1

  0
LINE
  5
13710
330
136C6
100
AcDbEntity
  8
寸法
 62
     0
 48
50.0
370
    -2
100
AcDbLine
 10
4895.274342825056
 20
1058.302878246781
 30
0.0
 11
4895.274342825056
 21
709.3507717908469
 31
0.0
  0
LINE
  5
13711
330
136C6
100
AcDbEntity
  8
寸法
 62
     0
 48
50.0
370
    -2
100
AcDbLine
 10
5495.274342825056
 20
1058.302878246781
 30
0.0
 11
5495.274342825056
 21
709.3507717908469
 31
0.0
  0
LINE
  5
13712
330
136C6
100
AcDbEntity
  8
寸法
 62
     0
 48
50.0
370
    -2
100
AcDbLine
 10
4895.274342825056
 20
784.3507717908469
 30
0.0
 11
5495.274342825056
 21
784.3507717908469
 31
0.0
  0
INSERT
  5
13713
330
136C6
100
AcDbEntity
  8
寸法
 62
     0
 48
50.0
370
    -2
100
AcDbBlockReference
  2
_DOTSMALL
 10
4895.274342825056
 20
784.3507717908469
 30
0.0
 41
125.0
 42
125.0
 43
125.0
 50
180.0
  0
INSERT
  5
13714
330
136C6
100
AcDbEntity
  8
寸法
 62
     0
 48
50.0
370
    -2
100
AcDbBlockReference
  2
_DOTSMALL
 10
5495.274342825056
 20
784.3507717908469
 30
0.0
 41
125.0
 42
125.0
 43
125.0
  0
MTEXT
  5
13715
330
136C6
100
AcDbEntity
  8
寸法
 62
     7
 48
50.0
100
AcDbMText
 10
5195.274342825056
 20
859.3507717908469
 30
0.0
 40
100.0
 41
0.0
 71
     5
 72
     1
  1
\A1;300
  7
STYLE1
 73
     1
 44
1.0
1001
ACAD
1000
MTEXTBEGIN
1070
    73
1070
     1
1070
    44
1040
1.0
1070
    74
1070
     0
1000
MTEXTEND
  0
POINT
  5
13716
330
136C6
100
AcDbEntity
  8
DEFPOINTS
 62
     0
 48
50.0
100
AcDbPoint
 10
4895.274342825056
 20
1083.302878246781
 30
0.0
  0
POINT
  5
13717
330
136C6
100
AcDbEntity
  8
DEFPOINTS
 62
     0
 48
50.0
100
AcDbPoint
 10
5495.274342825056
 20
1083.302878246781
 30
0.0
  0
POINT
  5
13718
330
136C6
100
AcDbEntity
  8
DEFPOINTS
 62
     0
 48
50.0
100
AcDbPoint
 10
5495.274342825056
 20
784.3507717908469
 30
0.0
  0
ENDBLK
  5
136D1
330
136C6
100
AcDbEntity
  8
0
 48
50.0
100
AcDbBlockEnd
  0
BLOCK
  5
136DC
330
136D2
100
AcDbEntity
  8
0
 48
50.0
100
AcDbBlockBegin
  2
*D27
 70
     1
 10
0.0
 20
0.0
 30
0.0
  3
*D27
  1

  0
LINE
  5
13719
330
136D2
100
AcDbEntity
  8
寸法
 62
     0
 48
50.0
370
    -2
100
AcDbLine
 10
5050.274342825056
 20
2323.302878246781
 30
0.0
 11
4145.804975025901
 21
2323.302878246781
 31
0.0
  0
LINE
  5
1371A
330
136D2
100
AcDbEntity
  8
寸法
 62
     0
 48
50.0
370
    -2
100
AcDbLine
 10
4790.274342825057
 20
1243.302878246781
 30
0.0
 11
4145.8049750259
 21
1243.302878246781
 31
0.0
  0
LINE
  5
1371B
330
136D2
100
AcDbEntity
  8
寸法
 62
     0
 48
50.0
370
    -2
100
AcDbLine
 10
4220.804975025902
 20
2323.302878246781
 30
0.0
 11
4220.804975025901
 21
1243.302878246781
 31
0.0
  0
INSERT
  5
1371C
330
136D2
100
AcDbEntity
  8
寸法
 62
     0
 48
50.0
370
    -2
100
AcDbBlockReference
  2
_DOTSMALL
 10
4220.804975025902
 20
2323.302878246781
 30
0.0
 41
125.0
 42
125.0
 43
125.0
 50
90.0
  0
INSERT
  5
1371D
330
136D2
100
AcDbEntity
  8
寸法
 62
     0
 48
50.0
370
    -2
100
AcDbBlockReference
  2
_DOTSMALL
 10
4220.804975025901
 20
1243.302878246781
 30
0.0
 41
125.0
 42
125.0
 43
125.0
 50
270.0
  0
MTEXT
  5
1371E
330
136D2
100
AcDbEntity
  8
寸法
 62
     7
 48
50.0
100
AcDbMText
 10
4145.8049750259
 20
1820.097814844491
 30
0.0
 40
100.0
 41
0.0
 71
     5
 72
     1
  1
\A1;540
  7
STYLE1
 11
0.0000000000000001
 21
1.0
 31
0.0
 73
     1
 44
1.0
1001
ACAD
1000
MTEXTBEGIN
1070
    73
1070
     1
1070
    44
1040
1.0
1070
    74
1070
     0
1000
MTEXTEND
  0
POINT
  5
1371F
330
136D2
100
AcDbEntity
  8
DEFPOINTS
 62
     0
 48
50.0
100
AcDbPoint
 10
5075.274342825056
 20
2323.302878246781
 30
0.0
  0
POINT
  5
13720
330
136D2
100
AcDbEntity
  8
DEFPOINTS
 62
     0
 48
50.0
100
AcDbPoint
 10
4815.274342825057
 20
1243.302878246781
 30
0.0
  0
POINT
  5
13721
330
136D2
100
AcDbEntity
  8
DEFPOINTS
 62
     0
 48
50.0
100
AcDbPoint
 10
4220.804975025901
 20
1243.302878246781
 30
0.0
  0
ENDBLK
  5
136DD
330
136D2
100
AcDbEntity
  8
0
 48
50.0
100
AcDbBlockEnd
  0
BLOCK
  5
136E8
330
136DE
100
AcDbEntity
  8
0
 48
50.0
100
AcDbBlockBegin
  2
*D28
 70
     1
 10
0.0
 20
0.0
 30
0.0
  3
*D28
  1

  0
LINE
  5
13722
330
136DE
100
AcDbEntity
  8
寸法
 62
     0
 48
50.0
370
    -2
100
AcDbLine
 10
4890.274342825056
 20
1543.302878246781
 30
0.0
 11
4377.003998493448
 21
1543.302878246781
 31
0.0
  0
LINE
  5
13723
330
136DE
100
AcDbEntity
  8
寸法
 62
     0
 48
50.0
370
    -2
100
AcDbLine
 10
4790.274342825057
 20
1243.302878246781
 30
0.0
 11
4377.003998493448
 21
1243.302878246781
 31
0.0
  0
LINE
  5
13724
330
136DE
100
AcDbEntity
  8
寸法
 62
     0
 48
50.0
370
    -2
100
AcDbLine
 10
4452.003998493448
 20
1543.302878246781
 30
0.0
 11
4452.003998493448
 21
1243.302878246781
 31
0.0
  0
INSERT
  5
13725
330
136DE
100
AcDbEntity
  8
寸法
 62
     0
 48
50.0
370
    -2
100
AcDbBlockReference
  2
_DOTSMALL
 10
4452.003998493448
 20
1543.302878246781
 30
0.0
 41
125.0
 42
125.0
 43
125.0
 50
90.0
  0
INSERT
  5
13726
330
136DE
100
AcDbEntity
  8
寸法
 62
     0
 48
50.0
370
    -2
100
AcDbBlockReference
  2
_DOTSMALL
 10
4452.003998493448
 20
1243.302878246781
 30
0.0
 41
125.0
 42
125.0
 43
125.0
 50
270.0
  0
MTEXT
  5
13727
330
136DE
100
AcDbEntity
  8
寸法
 62
     7
 48
50.0
100
AcDbMText
 10
4377.003998493448
 20
1417.629472638924
 30
0.0
 40
100.0
 41
0.0
 71
     5
 72
     1
  1
\A1;150
  7
STYLE1
 11
0.0000000000000001
 21
1.0
 31
0.0
 73
     1
 44
1.0
1001
ACAD
1000
MTEXTBEGIN
1070
    73
1070
     1
1070
    44
1040
1.0
1070
    74
1070
     0
1000
MTEXTEND
  0
POINT
  5
13728
330
136DE
100
AcDbEntity
  8
DEFPOINTS
 62
     0
 48
50.0
100
AcDbPoint
 10
4915.274342825056
 20
1543.302878246781
 30
0.0
  0
POINT
  5
13729
330
136DE
100
AcDbEntity
  8
DEFPOINTS
 62
     0
 48
50.0
100
AcDbPoint
 10
4815.274342825057
 20
1243.302878246781
 30
0.0
  0
POINT
  5
1372A
330
136DE
100
AcDbEntity
  8
DEFPOINTS
 62
     0
 48
50.0
100
AcDbPoint
 10
4452.003998493448
 20
1243.302878246781
 30
0.0
  0
ENDBLK
  5
136E9
330
136DE
100
AcDbEntity
  8
0
 48
50.0
100
AcDbBlockEnd
  0
ENDSEC
  0
SECTION
  2
ENTITIES
  0
LINE
  5
10B56
330
747D
100
AcDbEntity
  8
補助
  6
PHANTOM
 62
   230
 48
50.0
100
AcDbLine
 10
140.0
 20
0.0
 30
0.0
 11
139.9999999999995
 21
11409.6
 31
0.0
  0
LINE
  5
10B57
330
747D
100
AcDbEntity
  8
補助
  6
PHANTOM
 62
   230
 48
50.0
100
AcDbLine
 10
139.9999999999995
 20
11409.6
 30
0.0
 11
16307.2
 21
11409.6
 31
0.0
  0
LINE
  5
10B5E
330
747D
100
AcDbEntity
  8
補助
  6
PHANTOM
 62
   230
 48
50.0
100
AcDbLine
 10
16307.2
 20
11409.6
 30
0.0
 11
16307.2
 21
1200.0
 31
0.0
  0
DIMENSION
  5
11BF9
330
747D
100
AcDbEntity
  8
寸法
 48
50.0
100
AcDbDimension
  2
*D2
 10
8784.860738914833
 20
7580.110955379838
 30
0.0
 11
8369.911720469129
 21
7165.161936934133
 31
0.0
 70
   161
 71
     5
 42
1852.619766708754
  3
INABA_S40G
100
AcDbAlignedDimension
 13
7315.7332770865
 23
6429.238417208172
 33
0.0
 14
8625.733277086499
 24
7739.238417208174
 34
0.0
1001
ACAD
1000
DSTYLE
1002
{
1070
   341
1005
0
1002
}
  0
LINE
  5
11BFA
330
747D
100
AcDbEntity
  8
想像線
 48
20.0
100
AcDbLine
 10
7265.7332770865
 20
6299.238417208172
 30
0.0
 11
8675.733277086498
 21
6299.238417208172
 31
0.0
  0
LINE
  5
11BFB
330
747D
100
AcDbEntity
  8
部品1
 48
50.0
100
AcDbLine
 10
7315.7332770865
 20
6429.238417208172
 30
0.0
 11
8625.733277086499
 21
6429.238417208172
 31
0.0
  0
LINE
  5
11BFD
330
747D
100
AcDbEntity
  8
想像線
 48
20.0
100
AcDbLine
 10
8675.733277086498
 20
7829.238417208171
 30
0.0
 11
7265.7332770865
 21
7829.238417208173
 31
0.0
  0
LINE
  5
11BFE
330
747D
100
AcDbEntity
  8
部品1
 48
50.0
100
AcDbLine
 10
8625.733277086499
 20
7739.238417208174
 30
0.0
 11
7315.7332770865
 21
7739.238417208174
 31
0.0
  0
DIMENSION
  5
11C00
330
747D
100
AcDbEntity
  8
寸法
 48
50.0
100
AcDbDimension
  2
*D3
 10
8625.733277086499
 20
8371.50156693835
 30
0.0
 11
8298.233277086501
 21
8471.50156693835
 31
0.0
 70
    32
 71
     5
 42
655.0
  3
INABA_S40G
100
AcDbAlignedDimension
 13
7970.733277086499
 23
7519.238417208173
 33
0.0
 14
8625.733277086499
 24
7739.238417208174
 34
0.0
100
AcDbRotatedDimension
1001
ACAD
1000
DSTYLE
1002
{
1070
   341
1005
0
1002
}
  0
DIMENSION
  5
11C02
330
747D
100
AcDbEntity
  8
寸法
 48
50.0
100
AcDbDimension
  2
*D4
 10
8625.733277086499
 20
5498.238417208173
 30
0.0
 11
7970.733277086499
 21
5598.238417208173
 31
0.0
 70
    32
 71
     5
 42
1310.0
  3
INABA_S40G
100
AcDbAlignedDimension
 13
7315.7332770865
 23
6429.238417208172
 33
0.0
 14
8625.733277086499
 24
6429.238417208171
 34
0.0
100
AcDbRotatedDimension
1001
ACAD
1000
DSTYLE
1002
{
1070
   341
1005
0
1002
}
  0
DIMENSION
  5
11C03
330
747D
100
AcDbEntity
  8
寸法
 48
50.0
100
AcDbDimension
  2
*D5
 10
8560.7332770865
 20
5809.771360963245
 30
0.0
 11
7970.733277086499
 21
5909.771360963245
 31
0.0
 70
    32
 71
     5
 42
1180.0
  3
INABA_S40G
100
AcDbAlignedDimension
 13
7380.7332770865
 23
6349.238417208173
 33
0.0
 14
8560.7332770865
 24
6349.238417208173
 34
0.0
100
AcDbRotatedDimension
1001
ACAD
1000
DSTYLE
1002
{
1070
   341
1005
0
1002
}
  0
DIMENSION
  5
11C08
330
747D
100
AcDbEntity
  8
寸法
 48
50.0
100
AcDbDimension
  2
*D6
 10
7380.7332770865
 20
5809.771360963245
 30
0.0
 11
7003.657444531159
 21
5809.771360963245
 31
0.0
 70
   160
 71
     5
 42
65.0
  3
INABA_S40G
100
AcDbAlignedDimension
 13
7315.7332770865
 23
6429.238417208172
 33
0.0
 14
7380.7332770865
 24
6349.238417208173
 34
0.0
100
AcDbRotatedDimension
1001
ACAD
1000
DSTYLE
1002
{
1070
   341
1005
0
1002
}
  0
DIMENSION
  5
11C09
330
747D
100
AcDbEntity
  8
寸法
 48
50.0
100
AcDbDimension
  2
*D7
 10
7315.7332770865
 20
5498.238417208173
 30
0.0
 11
6911.780521180988
 21
5498.238417208173
 31
0.0
 70
   160
  1
(<>)
 71
     5
 42
50.0
  3
INABA_S40G
100
AcDbAlignedDimension
 13
7265.7332770865
 23
5809.771360963245
 33
0.0
 14
7315.7332770865
 24
6429.238417208172
 34
0.0
100
AcDbRotatedDimension
1001
ACAD
1000
DSTYLE
1002
{
1070
   341
1005
0
1002
}
  0
DIMENSION
  5
11D5E
330
747D
100
AcDbEntity
  8
寸法
 48
50.0
100
AcDbDimension
  2
*D8
 10
7970.733277086499
 20
8371.50156693835
 30
0.0
 11
7643.2332770865
 21
8471.50156693835
 31
0.0
 70
    32
 71
     5
 42
655.0
  3
INABA_S40G
100
AcDbAlignedDimension
 13
7315.7332770865
 23
7739.238417208174
 33
0.0
 14
7970.733277086499
 24
7519.238417208173
 34
0.0
100
AcDbRotatedDimension
1001
ACAD
1000
DSTYLE
1002
{
1070
   341
1005
0
1002
}
  0
MTEXT
  5
11D5F
102
{ACAD_REACTORS
330
11D60
102
}
330
747D
100
AcDbEntity
  8
部品1
 62
     7
 48
50.0
100
AcDbMText
 10
7172.246399576836
 20
8338.95837522383
 30
0.0
 40
120.0
 41
0.0
 71
     6
 72
     1
  1
\A1;床下換気口
  7
STYLE1
 73
     1
 44
1.0
1001
ACAD
1000
MTEXTBEGIN
1070
    73
1070
     1
1070
    44
1040
1.0
1070
    74
1070
     0
1000
MTEXTEND
  0
LEADER
  5
11D60
330
747D
100
AcDbEntity
  8
寸法
 48
50.0
100
AcDbLeader
  3
INABA_S50G
 73
     0
 75
     1
 40
120.0
 41
720.0000000000001
 76
     3
 10
7963.808430712474
 20
7739.238417208174
 30
0.0
 10
7322.246399576837
 20
8253.958375223829
 30
0.0
 10
7197.246399576837
 20
8253.958375223829
 30
0.0
340
11D5F
1001
ACAD
1000
DSTYLE
1002
{
1070
   341
1005
0
1070
    40
1040
1.0
1070
   343
1005
0
1070
   344
1005
0
1002
}
  0
LEADER
  5
11D61
330
747D
100
AcDbEntity
  8
寸法
 48
50.0
100
AcDbLeader
  3
INABA_S50G
 71
     0
 73
     0
 75
     1
 40
120.0
 41
1134.0
 76
     3
 10
7380.7332770865
 20
7674.238417208172
 30
0.0
 10
7175.816902425748
 20
8013.802730404464
 30
0.0
 10
7050.816902425748
 20
8013.802730404464
 30
0.0
340
11D62
  0
MTEXT
  5
11D62
102
{ACAD_REACTORS
330
11D61
102
}
330
747D
100
AcDbEntity
  8
細線
 62
     7
 48
50.0
100
AcDbMText
 10
7025.816902425749
 20
8098.802730404463
 30
0.0
 40
120.0
 41
0.0
 71
     6
 72
     1
  1
\A1;アンカーボルト芯
  7
STYLE1
 73
     1
 44
1.0
1001
ACAD
1000
MTEXTBEGIN
1070
    73
1070
     1
1070
    44
1040
1.0
1070
    74
1070
     0
1000
MTEXTEND
  0
DIMENSION
  5
11D63
330
747D
100
AcDbEntity
  8
寸法
 48
50.0
100
AcDbDimension
  2
*D9
 10
6564.733277086499
 20
7374.238417208172
 30
0.0
 11
6464.733277086499
 21
7556.738417208174
 31
0.0
 70
    32
 71
     5
 42
365.0
  3
INABA_S40G
100
AcDbAlignedDimension
 13
7315.7332770865
 23
7739.238417208174
 33
0.0
 14
7825.733277086499
 24
7374.238417208172
 34
0.0
 50
90.0
100
AcDbRotatedDimension
1001
ACAD
1000
DSTYLE
1002
{
1070
   341
1005
0
1002
}
  0
DIMENSION
  5
11D64
330
747D
100
AcDbEntity
  8
寸法
 48
50.0
100
AcDbDimension
  2
*D10
 10
6564.733277086499
 20
6429.238417208172
 30
0.0
 11
6464.733277086498
 21
6684.238417208175
 31
0.0
 70
    32
 71
     5
 42
510.0
  3
INABA_S40G
100
AcDbAlignedDimension
 13
7825.733277086499
 23
6939.238417208173
 33
0.0
 14
7315.7332770865
 24
6429.238417208172
 34
0.0
 50
90.0
100
AcDbRotatedDimension
1001
ACAD
1000
DSTYLE
1002
{
1070
   341
1005
0
1002
}
  0
DIMENSION
  5
11D65
330
747D
100
AcDbEntity
  8
寸法
 48
50.0
100
AcDbDimension
  2
*D11
 10
6564.733277086499
 20
6939.238417208173
 30
0.0
 11
6464.733277086498
 21
7156.738417208174
 31
0.0
 70
    32
 71
     5
 42
435.0
  3
INABA_S40G
100
AcDbAlignedDimension
 13
7825.733277086499
 23
7374.238417208172
 33
0.0
 14
7825.733277086499
 24
6939.238417208173
 34
0.0
 50
90.0
100
AcDbRotatedDimension
1001
ACAD
1000
DSTYLE
1002
{
1070
   341
1005
0
1002
}
  0
LINE
  5
11D66
330
747D
100
AcDbEntity
  8
部品1
 48
50.0
100
AcDbLine
 10
7315.7332770865
 20
7739.238417208174
 30
0.0
 11
7315.7332770865
 21
6429.238417208172
 31
0.0
  0
LINE
  5
11D67
330
747D
100
AcDbEntity
  8
想像線
 48
20.0
100
AcDbLine
 10
7265.7332770865
 20
7829.238417208173
 30
0.0
 11
7265.7332770865
 21
6299.238417208172
 31
0.0
  0
MTEXT
  5
11D69
102
{ACAD_REACTORS
330
11D6A
102
}
330
747D
100
AcDbEntity
  8
細線
 62
     7
 48
50.0
100
AcDbMText
 10
7681.106620656781
 20
7192.522138853952
 30
0.0
 40
120.0
 41
0.0
 71
     6
 72
     1
  1
\A1;C.B
  7
STYLE1
 73
     1
 44
1.0
1001
ACAD
1000
MTEXTBEGIN
1070
    73
1070
     1
1070
    44
1040
1.0
1070
    74
1070
     0
1000
MTEXTEND
  0
LEADER
  5
11D6A
330
747D
100
AcDbEntity
  8
寸法
 48
50.0
100
AcDbLeader
  3
INABA_S50G
 71
     0
 73
     0
 75
     1
 40
120.0
 41
185.591883092037
 76
     3
 10
7886.467961091771
 20
6991.622692204444
 30
0.0
 10
7831.106620656782
 20
7107.522138853951
 30
0.0
 10
7706.106620656782
 20
7107.522138853951
 30
0.0
340
11D69
  0
LINE
  5
11D6B
330
747D
100
AcDbEntity
  8
センター
 48
5.0
100
AcDbLine
 10
7525.733277086499
 20
6494.238417208173
 30
0.0
 11
7235.7332770865
 21
6494.238417208173
 31
0.0
  0
LINE
  5
11D6C
330
747D
100
AcDbEntity
  8
センター
 48
5.0
100
AcDbLine
 10
7380.7332770865
 20
6349.238417208173
 30
0.0
 11
7380.7332770865
 21
6639.238417208173
 31
0.0
  0
LINE
  5
11D6D
330
747D
100
AcDbEntity
  8
細線
 48
50.0
100
AcDbLine
 10
7410.550690688889
 20
6984.238417208172
 30
0.0
 11
7435.7332770865
 21
7009.421003605782
 31
0.0
  0
LINE
  5
11D6E
330
747D
100
AcDbEntity
  8
細線
 48
50.0
100
AcDbLine
 10
7315.733277086504
 20
7158.828687237856
 30
0.0
 11
7341.14300705682
 21
7184.238417208175
 31
0.0
  0
LINE
  5
11D6F
330
747D
100
AcDbEntity
  8
部品1
 48
50.0
100
AcDbLine
 10
7435.733277086498
 20
7184.238417208172
 30
0.0
 11
7315.7332770865
 21
7184.238417208174
 31
0.0
  0
LINE
  5
11D70
330
747D
100
AcDbEntity
  8
部品1
 48
50.0
100
AcDbLine
 10
7435.733277086498
 20
6984.238417208172
 30
0.0
 11
7315.7332770865
 21
6984.238417208174
 31
0.0
  0
LINE
  5
11D71
330
747D
100
AcDbEntity
  8
細線
 48
50.0
100
AcDbLine
 10
7315.733277086504
 20
7024.124845421818
 30
0.0
 11
7435.7332770865
 21
7144.124845421818
 31
0.0
  0
LINE
  5
11D72
330
747D
100
AcDbEntity
  8
細線
 48
50.0
100
AcDbLine
 10
7320.748129478201
 20
6984.238417208174
 30
0.0
 11
7435.7332770865
 21
7099.223564816472
 31
0.0
  0
LINE
  5
11D73
330
747D
100
AcDbEntity
  8
細線
 48
50.0
100
AcDbLine
 10
7365.649410083548
 20
6984.238417208174
 30
0.0
 11
7435.733277086498
 21
7054.322284211123
 31
0.0
  0
LINE
  5
11D74
330
747D
100
AcDbEntity
  8
細線
 48
50.0
100
AcDbLine
 10
7315.7332770865
 20
7069.026126027162
 30
0.0
 11
7430.945568267509
 21
7184.23841720817
 31
0.0
  0
LINE
  5
11D75
330
747D
100
AcDbEntity
  8
細線
 48
50.0
100
AcDbLine
 10
7315.733277086504
 20
7113.927406632511
 30
0.0
 11
7386.044287662163
 21
7184.238417208174
 31
0.0
  0
LINE
  5
11D76
330
747D
100
AcDbEntity
  8
細線
 48
50.0
100
AcDbLine
 10
7870.733277086504
 20
6436.163263582201
 30
0.0
 11
7983.808430712471
 21
6549.238417208171
 31
0.0
  0
LINE
  5
11D77
330
747D
100
AcDbEntity
  8
細線
 48
50.0
100
AcDbLine
 10
7870.733277086499
 20
6481.064544187543
 30
0.0
 11
7938.907150107127
 21
6549.238417208171
 31
0.0
  0
LINE
  5
11D78
330
747D
100
AcDbEntity
  8
細線
 48
50.0
100
AcDbLine
 10
7870.733277086499
 20
6525.965824792891
 30
0.0
 11
7894.005869501779
 21
6549.238417208172
 31
0.0
  0
LINE
  5
11D79
330
747D
100
AcDbEntity
  8
部品1
 48
50.0
100
AcDbLine
 10
7870.733277086499
 20
6429.238417208172
 30
0.0
 11
7870.7332770865
 21
6549.238417208172
 31
0.0
  0
LINE
  5
11D7A
330
747D
100
AcDbEntity
  8
細線
 48
50.0
100
AcDbLine
 10
7998.512272528508
 20
6429.238417208171
 30
0.0
 11
8070.7332770865
 21
6501.459421766161
 31
0.0
  0
LINE
  5
11D7B
330
747D
100
AcDbEntity
  8
部品1
 48
50.0
100
AcDbLine
 10
8070.7332770865
 20
6429.238417208172
 30
0.0
 11
8070.733277086501
 21
6549.238417208172
 31
0.0
  0
LINE
  5
11D7C
330
747D
100
AcDbEntity
  8
細線
 48
50.0
100
AcDbLine
 10
8043.413553133854
 20
6429.238417208171
 30
0.0
 11
8070.7332770865
 21
6456.558141160816
 31
0.0
  0
LINE
  5
11D7D
330
747D
100
AcDbEntity
  8
細線
 48
50.0
100
AcDbLine
 10
7953.610991923163
 20
6429.238417208171
 30
0.0
 11
8070.733277086501
 21
6546.36070237151
 31
0.0
  0
LINE
  5
11D7E
330
747D
100
AcDbEntity
  8
細線
 48
50.0
100
AcDbLine
 10
7908.709711317817
 20
6429.238417208171
 30
0.0
 11
8028.709711317818
 21
6549.238417208171
 31
0.0
  0
LINE
  5
11D7F
330
747D
100
AcDbEntity
  8
センター
 48
5.0
100
AcDbLine
 10
7825.733277086499
 20
6939.238417208173
 30
0.0
 11
8115.7332770865
 21
6939.238417208173
 31
0.0
  0
LINE
  5
11D80
330
747D
100
AcDbEntity
  8
細線
 48
10.0
100
AcDbLine
 10
8070.7332770865
 20
6739.238417208174
 30
0.0
 11
7870.733277086499
 21
6739.238417208174
 31
0.0
  0
LINE
  5
11D81
330
747D
100
AcDbEntity
  8
細線
 48
10.0
100
AcDbLine
 10
7870.733277086499
 20
7139.238417208173
 30
0.0
 11
8070.7332770865
 21
7139.238417208173
 31
0.0
  0
LINE
  5
11D82
330
747D
100
AcDbEntity
  8
細線
 48
10.0
100
AcDbLine
 10
7870.733277086499
 20
6739.238417208174
 30
0.0
 11
7870.733277086499
 21
7139.238417208173
 31
0.0
  0
LINE
  5
11D83
330
747D
100
AcDbEntity
  8
部品1
 48
10.0
100
AcDbLine
 10
7876.843695478656
 20
6902.650931176042
 30
0.0
 11
7876.843695478656
 21
6902.650931176042
 31
0.0
  0
LINE
  5
11D84
330
747D
100
AcDbEntity
  8
部品1
 48
10.0
100
AcDbLine
 10
7876.843695478656
 20
6855.025931176043
 30
0.0
 11
7876.843695478656
 21
6855.025931176043
 31
0.0
  0
LINE
  5
11D85
330
747D
100
AcDbEntity
  8
部品1
 48
10.0
100
AcDbLine
 10
7876.843695478656
 20
6807.400931176042
 30
0.0
 11
7876.843695478656
 21
6807.400931176042
 31
0.0
  0
LINE
  5
11D86
330
747D
100
AcDbEntity
  8
部品1
 48
10.0
100
AcDbLine
 10
7876.843695478656
 20
6759.775931176043
 30
0.0
 11
7876.843695478656
 21
6759.775931176043
 31
0.0
  0
LINE
  5
11D87
330
747D
100
AcDbEntity
  8
部品1
 48
10.0
100
AcDbLine
 10
7876.843695478656
 20
6997.900931176042
 30
0.0
 11
7876.843695478656
 21
6997.900931176042
 31
0.0
  0
LINE
  5
11D88
330
747D
100
AcDbEntity
  8
部品1
 48
10.0
100
AcDbLine
 10
7876.843695478656
 20
6950.275931176041
 30
0.0
 11
7876.843695478656
 21
6950.275931176041
 31
0.0
  0
LINE
  5
11D89
330
747D
100
AcDbEntity
  8
部品1
 48
10.0
100
AcDbLine
 10
7876.843695478656
 20
7093.150931176042
 30
0.0
 11
7876.843695478656
 21
7093.150931176042
 31
0.0
  0
LINE
  5
11D8A
330
747D
100
AcDbEntity
  8
部品1
 48
10.0
100
AcDbLine
 10
7876.843695478656
 20
7045.525931176041
 30
0.0
 11
7876.843695478656
 21
7045.525931176041
 31
0.0
  0
LINE
  5
11D8B
330
747D
100
AcDbEntity
  8
細線
 48
10.0
100
AcDbLine
 10
8070.7332770865
 20
7139.238417208173
 30
0.0
 11
8070.7332770865
 21
6739.238417208174
 31
0.0
  0
LINE
  5
11D8C
330
747D
100
AcDbEntity
  8
センター
 48
5.0
100
AcDbLine
 10
7970.733277086499
 20
7084.238417208173
 30
0.0
 11
7970.733277086499
 21
6794.238417208173
 31
0.0
  0
LINE
  5
11D8D
330
747D
100
AcDbEntity
  8
部品1
 48
10.0
100
AcDbLine
 10
7995.906195478656
 20
6902.650931176042
 30
0.0
 11
7995.906195478656
 21
6902.650931176042
 31
0.0
  0
LINE
  5
11D8E
330
747D
100
AcDbEntity
  8
部品1
 48
10.0
100
AcDbLine
 10
8007.812445478656
 20
6878.838431176042
 30
0.0
 11
8007.812445478656
 21
6878.838431176042
 31
0.0
  0
LINE
  5
11D8F
330
747D
100
AcDbEntity
  8
部品1
 48
10.0
100
AcDbLine
 10
7995.906195478656
 20
6855.025931176043
 30
0.0
 11
7995.906195478656
 21
6855.025931176043
 31
0.0
  0
LINE
  5
11D90
330
747D
100
AcDbEntity
  8
部品1
 48
10.0
100
AcDbLine
 10
8007.812445478656
 20
6831.213431176042
 30
0.0
 11
8007.812445478656
 21
6831.213431176042
 31
0.0
  0
LINE
  5
11D91
330
747D
100
AcDbEntity
  8
部品1
 48
10.0
100
AcDbLine
 10
7995.906195478656
 20
6807.400931176042
 30
0.0
 11
7995.906195478656
 21
6807.400931176042
 31
0.0
  0
LINE
  5
11D92
330
747D
100
AcDbEntity
  8
部品1
 48
10.0
100
AcDbLine
 10
8007.812445478656
 20
6783.588431176042
 30
0.0
 11
8007.812445478656
 21
6783.588431176042
 31
0.0
  0
LINE
  5
11D93
330
747D
100
AcDbEntity
  8
部品1
 48
10.0
100
AcDbLine
 10
7995.906195478656
 20
6759.775931176043
 30
0.0
 11
7995.906195478656
 21
6759.775931176043
 31
0.0
  0
LINE
  5
11D94
330
747D
100
AcDbEntity
  8
部品1
 48
10.0
100
AcDbLine
 10
8019.718695478657
 20
6902.650931176042
 30
0.0
 11
8019.718695478657
 21
6902.650931176042
 31
0.0
  0
LINE
  5
11D95
330
747D
100
AcDbEntity
  8
部品1
 48
10.0
100
AcDbLine
 10
8043.531195478655
 20
6902.650931176042
 30
0.0
 11
8043.531195478655
 21
6902.650931176042
 31
0.0
  0
LINE
  5
11D96
330
747D
100
AcDbEntity
  8
部品1
 48
10.0
100
AcDbLine
 10
8031.624945478656
 20
6878.838431176042
 30
0.0
 11
8031.624945478656
 21
6878.838431176042
 31
0.0
  0
LINE
  5
11D97
330
747D
100
AcDbEntity
  8
部品1
 48
10.0
100
AcDbLine
 10
8067.343695478655
 20
6855.025931176043
 30
0.0
 11
8067.343695478655
 21
6855.025931176043
 31
0.0
  0
LINE
  5
11D98
330
747D
100
AcDbEntity
  8
部品1
 48
10.0
100
AcDbLine
 10
8055.437445478656
 20
6831.213431176042
 30
0.0
 11
8055.437445478656
 21
6831.213431176042
 31
0.0
  0
LINE
  5
11D99
330
747D
100
AcDbEntity
  8
部品1
 48
10.0
100
AcDbLine
 10
8067.343695478655
 20
6807.400931176042
 30
0.0
 11
8067.343695478655
 21
6807.400931176042
 31
0.0
  0
LINE
  5
11D9A
330
747D
100
AcDbEntity
  8
部品1
 48
10.0
100
AcDbLine
 10
8055.437445478656
 20
6783.588431176042
 30
0.0
 11
8055.437445478656
 21
6783.588431176042
 31
0.0
  0
LINE
  5
11D9B
330
747D
100
AcDbEntity
  8
部品1
 48
10.0
100
AcDbLine
 10
8067.343695478655
 20
6759.775931176043
 30
0.0
 11
8067.343695478655
 21
6759.775931176043
 31
0.0
  0
LINE
  5
11D9C
330
747D
100
AcDbEntity
  8
部品1
 48
10.0
100
AcDbLine
 10
8019.718695478657
 20
6855.025931176043
 30
0.0
 11
8019.718695478657
 21
6855.025931176043
 31
0.0
  0
LINE
  5
11D9D
330
747D
100
AcDbEntity
  8
部品1
 48
10.0
100
AcDbLine
 10
8043.531195478655
 20
6855.025931176043
 30
0.0
 11
8043.531195478655
 21
6855.025931176043
 31
0.0
  0
LINE
  5
11D9E
330
747D
100
AcDbEntity
  8
部品1
 48
10.0
100
AcDbLine
 10
8031.624945478656
 20
6831.213431176042
 30
0.0
 11
8031.624945478656
 21
6831.213431176042
 31
0.0
  0
LINE
  5
11D9F
330
747D
100
AcDbEntity
  8
部品1
 48
10.0
100
AcDbLine
 10
8019.718695478657
 20
6807.400931176042
 30
0.0
 11
8019.718695478657
 21
6807.400931176042
 31
0.0
  0
LINE
  5
11DA0
330
747D
100
AcDbEntity
  8
部品1
 48
10.0
100
AcDbLine
 10
8043.531195478655
 20
6807.400931176042
 30
0.0
 11
8043.531195478655
 21
6807.400931176042
 31
0.0
  0
LINE
  5
11DA1
330
747D
100
AcDbEntity
  8
部品1
 48
10.0
100
AcDbLine
 10
8031.624945478656
 20
6783.588431176042
 30
0.0
 11
8031.624945478656
 21
6783.588431176042
 31
0.0
  0
LINE
  5
11DA2
330
747D
100
AcDbEntity
  8
部品1
 48
10.0
100
AcDbLine
 10
8019.718695478657
 20
6759.775931176043
 30
0.0
 11
8019.718695478657
 21
6759.775931176043
 31
0.0
  0
LINE
  5
11DA3
330
747D
100
AcDbEntity
  8
部品1
 48
10.0
100
AcDbLine
 10
8043.531195478655
 20
6759.775931176043
 30
0.0
 11
8043.531195478655
 21
6759.775931176043
 31
0.0
  0
LINE
  5
11DA4
330
747D
100
AcDbEntity
  8
部品1
 48
10.0
100
AcDbLine
 10
8067.343695478655
 20
6902.650931176042
 30
0.0
 11
8067.343695478655
 21
6902.650931176042
 31
0.0
  0
LINE
  5
11DA5
330
747D
100
AcDbEntity
  8
部品1
 48
10.0
100
AcDbLine
 10
8055.437445478656
 20
6878.838431176042
 30
0.0
 11
8055.437445478656
 21
6878.838431176042
 31
0.0
  0
LINE
  5
11DA6
330
747D
100
AcDbEntity
  8
部品1
 48
10.0
100
AcDbLine
 10
7900.656195478656
 20
6902.650931176042
 30
0.0
 11
7900.656195478656
 21
6902.650931176042
 31
0.0
  0
LINE
  5
11DA7
330
747D
100
AcDbEntity
  8
部品1
 48
10.0
100
AcDbLine
 10
7924.468695478656
 20
6902.650931176042
 30
0.0
 11
7924.468695478656
 21
6902.650931176042
 31
0.0
  0
LINE
  5
11DA8
330
747D
100
AcDbEntity
  8
部品1
 48
10.0
100
AcDbLine
 10
7948.281195478656
 20
6902.650931176042
 30
0.0
 11
7948.281195478656
 21
6902.650931176042
 31
0.0
  0
LINE
  5
11DA9
330
747D
100
AcDbEntity
  8
部品1
 48
10.0
100
AcDbLine
 10
7972.093695478655
 20
6902.650931176042
 30
0.0
 11
7972.093695478655
 21
6902.650931176042
 31
0.0
  0
LINE
  5
11DAA
330
747D
100
AcDbEntity
  8
部品1
 48
10.0
100
AcDbLine
 10
7888.749945478656
 20
6878.838431176042
 30
0.0
 11
7888.749945478656
 21
6878.838431176042
 31
0.0
  0
LINE
  5
11DAB
330
747D
100
AcDbEntity
  8
部品1
 48
10.0
100
AcDbLine
 10
7912.562445478656
 20
6878.838431176042
 30
0.0
 11
7912.562445478656
 21
6878.838431176042
 31
0.0
  0
LINE
  5
11DAC
330
747D
100
AcDbEntity
  8
部品1
 48
10.0
100
AcDbLine
 10
7936.374945478656
 20
6878.838431176042
 30
0.0
 11
7936.374945478656
 21
6878.838431176042
 31
0.0
  0
LINE
  5
11DAD
330
747D
100
AcDbEntity
  8
部品1
 48
10.0
100
AcDbLine
 10
7960.187445478656
 20
6878.838431176042
 30
0.0
 11
7960.187445478656
 21
6878.838431176042
 31
0.0
  0
LINE
  5
11DAE
330
747D
100
AcDbEntity
  8
部品1
 48
10.0
100
AcDbLine
 10
7983.999945478656
 20
6878.838431176042
 30
0.0
 11
7983.999945478656
 21
6878.838431176042
 31
0.0
  0
LINE
  5
11DAF
330
747D
100
AcDbEntity
  8
部品1
 48
10.0
100
AcDbLine
 10
7900.656195478656
 20
6855.025931176043
 30
0.0
 11
7900.656195478656
 21
6855.025931176043
 31
0.0
  0
LINE
  5
11DB0
330
747D
100
AcDbEntity
  8
部品1
 48
10.0
100
AcDbLine
 10
7924.468695478656
 20
6855.025931176043
 30
0.0
 11
7924.468695478656
 21
6855.025931176043
 31
0.0
  0
LINE
  5
11DB1
330
747D
100
AcDbEntity
  8
部品1
 48
10.0
100
AcDbLine
 10
7948.281195478656
 20
6855.025931176043
 30
0.0
 11
7948.281195478656
 21
6855.025931176043
 31
0.0
  0
LINE
  5
11DB2
330
747D
100
AcDbEntity
  8
部品1
 48
10.0
100
AcDbLine
 10
7972.093695478655
 20
6855.025931176043
 30
0.0
 11
7972.093695478655
 21
6855.025931176043
 31
0.0
  0
LINE
  5
11DB3
330
747D
100
AcDbEntity
  8
部品1
 48
10.0
100
AcDbLine
 10
7888.749945478656
 20
6831.213431176042
 30
0.0
 11
7888.749945478656
 21
6831.213431176042
 31
0.0
  0
LINE
  5
11DB4
330
747D
100
AcDbEntity
  8
部品1
 48
10.0
100
AcDbLine
 10
7912.562445478656
 20
6831.213431176042
 30
0.0
 11
7912.562445478656
 21
6831.213431176042
 31
0.0
  0
LINE
  5
11DB5
330
747D
100
AcDbEntity
  8
部品1
 48
10.0
100
AcDbLine
 10
7936.374945478656
 20
6831.213431176042
 30
0.0
 11
7936.374945478656
 21
6831.213431176042
 31
0.0
  0
LINE
  5
11DB6
330
747D
100
AcDbEntity
  8
部品1
 48
10.0
100
AcDbLine
 10
7960.187445478656
 20
6831.213431176042
 30
0.0
 11
7960.187445478656
 21
6831.213431176042
 31
0.0
  0
LINE
  5
11DB7
330
747D
100
AcDbEntity
  8
部品1
 48
10.0
100
AcDbLine
 10
7983.999945478656
 20
6831.213431176042
 30
0.0
 11
7983.999945478656
 21
6831.213431176042
 31
0.0
  0
LINE
  5
11DB8
330
747D
100
AcDbEntity
  8
部品1
 48
10.0
100
AcDbLine
 10
7900.656195478656
 20
6807.400931176042
 30
0.0
 11
7900.656195478656
 21
6807.400931176042
 31
0.0
  0
LINE
  5
11DB9
330
747D
100
AcDbEntity
  8
部品1
 48
10.0
100
AcDbLine
 10
7924.468695478656
 20
6807.400931176042
 30
0.0
 11
7924.468695478656
 21
6807.400931176042
 31
0.0
  0
LINE
  5
11DBA
330
747D
100
AcDbEntity
  8
部品1
 48
10.0
100
AcDbLine
 10
7948.281195478656
 20
6807.400931176042
 30
0.0
 11
7948.281195478656
 21
6807.400931176042
 31
0.0
  0
LINE
  5
11DBB
330
747D
100
AcDbEntity
  8
部品1
 48
10.0
100
AcDbLine
 10
7972.093695478655
 20
6807.400931176042
 30
0.0
 11
7972.093695478655
 21
6807.400931176042
 31
0.0
  0
LINE
  5
11DBC
330
747D
100
AcDbEntity
  8
部品1
 48
10.0
100
AcDbLine
 10
7888.749945478656
 20
6783.588431176042
 30
0.0
 11
7888.749945478656
 21
6783.588431176042
 31
0.0
  0
LINE
  5
11DBD
330
747D
100
AcDbEntity
  8
部品1
 48
10.0
100
AcDbLine
 10
7912.562445478656
 20
6783.588431176042
 30
0.0
 11
7912.562445478656
 21
6783.588431176042
 31
0.0
  0
LINE
  5
11DBE
330
747D
100
AcDbEntity
  8
部品1
 48
10.0
100
AcDbLine
 10
7936.374945478656
 20
6783.588431176042
 30
0.0
 11
7936.374945478656
 21
6783.588431176042
 31
0.0
  0
LINE
  5
11DBF
330
747D
100
AcDbEntity
  8
部品1
 48
10.0
100
AcDbLine
 10
7960.187445478656
 20
6783.588431176042
 30
0.0
 11
7960.187445478656
 21
6783.588431176042
 31
0.0
  0
LINE
  5
11DC0
330
747D
100
AcDbEntity
  8
部品1
 48
10.0
100
AcDbLine
 10
7983.999945478656
 20
6783.588431176042
 30
0.0
 11
7983.999945478656
 21
6783.588431176042
 31
0.0
  0
LINE
  5
11DC1
330
747D
100
AcDbEntity
  8
部品1
 48
10.0
100
AcDbLine
 10
7900.656195478656
 20
6759.775931176043
 30
0.0
 11
7900.656195478656
 21
6759.775931176043
 31
0.0
  0
LINE
  5
11DC2
330
747D
100
AcDbEntity
  8
部品1
 48
10.0
100
AcDbLine
 10
7924.468695478656
 20
6759.775931176043
 30
0.0
 11
7924.468695478656
 21
6759.775931176043
 31
0.0
  0
LINE
  5
11DC3
330
747D
100
AcDbEntity
  8
部品1
 48
10.0
100
AcDbLine
 10
7948.281195478656
 20
6759.775931176043
 30
0.0
 11
7948.281195478656
 21
6759.775931176043
 31
0.0
  0
LINE
  5
11DC4
330
747D
100
AcDbEntity
  8
部品1
 48
10.0
100
AcDbLine
 10
7972.093695478655
 20
6759.775931176043
 30
0.0
 11
7972.093695478655
 21
6759.775931176043
 31
0.0
  0
LINE
  5
11DC5
330
747D
100
AcDbEntity
  8
部品1
 48
10.0
100
AcDbLine
 10
8007.812445478656
 20
6926.463431176042
 30
0.0
 11
8007.812445478656
 21
6926.463431176042
 31
0.0
  0
LINE
  5
11DC6
330
747D
100
AcDbEntity
  8
部品1
 48
10.0
100
AcDbLine
 10
8031.624945478656
 20
6926.463431176042
 30
0.0
 11
8031.624945478656
 21
6926.463431176042
 31
0.0
  0
LINE
  5
11DC7
330
747D
100
AcDbEntity
  8
部品1
 48
10.0
100
AcDbLine
 10
8055.437445478656
 20
6926.463431176042
 30
0.0
 11
8055.437445478656
 21
6926.463431176042
 31
0.0
  0
LINE
  5
11DC8
330
747D
100
AcDbEntity
  8
部品1
 48
10.0
100
AcDbLine
 10
7995.906195478656
 20
7045.525931176041
 30
0.0
 11
7995.906195478656
 21
7045.525931176041
 31
0.0
  0
LINE
  5
11DC9
330
747D
100
AcDbEntity
  8
部品1
 48
10.0
100
AcDbLine
 10
8007.812445478656
 20
7021.713431176042
 30
0.0
 11
8007.812445478656
 21
7021.713431176042
 31
0.0
  0
LINE
  5
11DCA
330
747D
100
AcDbEntity
  8
部品1
 48
10.0
100
AcDbLine
 10
7995.906195478656
 20
6997.900931176042
 30
0.0
 11
7995.906195478656
 21
6997.900931176042
 31
0.0
  0
LINE
  5
11DCB
330
747D
100
AcDbEntity
  8
部品1
 48
10.0
100
AcDbLine
 10
8007.812445478656
 20
6974.088431176042
 30
0.0
 11
8007.812445478656
 21
6974.088431176042
 31
0.0
  0
LINE
  5
11DCC
330
747D
100
AcDbEntity
  8
部品1
 48
10.0
100
AcDbLine
 10
7995.906195478656
 20
6950.275931176041
 30
0.0
 11
7995.906195478656
 21
6950.275931176041
 31
0.0
  0
LINE
  5
11DCD
330
747D
100
AcDbEntity
  8
部品1
 48
10.0
100
AcDbLine
 10
8007.812445478656
 20
7116.963431176042
 30
0.0
 11
8007.812445478656
 21
7116.963431176042
 31
0.0
  0
LINE
  5
11DCE
330
747D
100
AcDbEntity
  8
部品1
 48
10.0
100
AcDbLine
 10
7995.906195478656
 20
7093.150931176042
 30
0.0
 11
7995.906195478656
 21
7093.150931176042
 31
0.0
  0
LINE
  5
11DCF
330
747D
100
AcDbEntity
  8
部品1
 48
10.0
100
AcDbLine
 10
8007.812445478656
 20
7069.338431176042
 30
0.0
 11
8007.812445478656
 21
7069.338431176042
 31
0.0
  0
LINE
  5
11DD0
330
747D
100
AcDbEntity
  8
部品1
 48
10.0
100
AcDbLine
 10
8019.718695478657
 20
7045.525931176041
 30
0.0
 11
8019.718695478657
 21
7045.525931176041
 31
0.0
  0
LINE
  5
11DD1
330
747D
100
AcDbEntity
  8
部品1
 48
10.0
100
AcDbLine
 10
8043.531195478655
 20
7045.525931176041
 30
0.0
 11
8043.531195478655
 21
7045.525931176041
 31
0.0
  0
LINE
  5
11DD2
330
747D
100
AcDbEntity
  8
部品1
 48
10.0
100
AcDbLine
 10
8031.624945478656
 20
7021.713431176042
 30
0.0
 11
8031.624945478656
 21
7021.713431176042
 31
0.0
  0
LINE
  5
11DD3
330
747D
100
AcDbEntity
  8
部品1
 48
10.0
100
AcDbLine
 10
8019.718695478657
 20
6997.900931176042
 30
0.0
 11
8019.718695478657
 21
6997.900931176042
 31
0.0
  0
LINE
  5
11DD4
330
747D
100
AcDbEntity
  8
部品1
 48
10.0
100
AcDbLine
 10
8043.531195478655
 20
6997.900931176042
 30
0.0
 11
8043.531195478655
 21
6997.900931176042
 31
0.0
  0
LINE
  5
11DD5
330
747D
100
AcDbEntity
  8
部品1
 48
10.0
100
AcDbLine
 10
8031.624945478656
 20
6974.088431176042
 30
0.0
 11
8031.624945478656
 21
6974.088431176042
 31
0.0
  0
LINE
  5
11DD6
330
747D
100
AcDbEntity
  8
部品1
 48
10.0
100
AcDbLine
 10
8019.718695478657
 20
6950.275931176041
 30
0.0
 11
8019.718695478657
 21
6950.275931176041
 31
0.0
  0
LINE
  5
11DD7
330
747D
100
AcDbEntity
  8
部品1
 48
10.0
100
AcDbLine
 10
8043.531195478655
 20
6950.275931176041
 30
0.0
 11
8043.531195478655
 21
6950.275931176041
 31
0.0
  0
LINE
  5
11DD8
330
747D
100
AcDbEntity
  8
部品1
 48
10.0
100
AcDbLine
 10
8055.437445478656
 20
7116.963431176042
 30
0.0
 11
8055.437445478656
 21
7116.963431176042
 31
0.0
  0
LINE
  5
11DD9
330
747D
100
AcDbEntity
  8
部品1
 48
10.0
100
AcDbLine
 10
8067.343695478655
 20
7093.150931176042
 30
0.0
 11
8067.343695478655
 21
7093.150931176042
 31
0.0
  0
LINE
  5
11DDA
330
747D
100
AcDbEntity
  8
部品1
 48
10.0
100
AcDbLine
 10
8055.437445478656
 20
7069.338431176042
 30
0.0
 11
8055.437445478656
 21
7069.338431176042
 31
0.0
  0
LINE
  5
11DDB
330
747D
100
AcDbEntity
  8
部品1
 48
10.0
100
AcDbLine
 10
8067.343695478655
 20
7045.525931176041
 30
0.0
 11
8067.343695478655
 21
7045.525931176041
 31
0.0
  0
LINE
  5
11DDC
330
747D
100
AcDbEntity
  8
部品1
 48
10.0
100
AcDbLine
 10
8055.437445478656
 20
7021.713431176042
 30
0.0
 11
8055.437445478656
 21
7021.713431176042
 31
0.0
  0
LINE
  5
11DDD
330
747D
100
AcDbEntity
  8
部品1
 48
10.0
100
AcDbLine
 10
8067.343695478655
 20
6997.900931176042
 30
0.0
 11
8067.343695478655
 21
6997.900931176042
 31
0.0
  0
LINE
  5
11DDE
330
747D
100
AcDbEntity
  8
部品1
 48
10.0
100
AcDbLine
 10
8055.437445478656
 20
6974.088431176042
 30
0.0
 11
8055.437445478656
 21
6974.088431176042
 31
0.0
  0
LINE
  5
11DDF
330
747D
100
AcDbEntity
  8
部品1
 48
10.0
100
AcDbLine
 10
8067.343695478655
 20
6950.275931176041
 30
0.0
 11
8067.343695478655
 21
6950.275931176041
 31
0.0
  0
LINE
  5
11DE0
330
747D
100
AcDbEntity
  8
部品1
 48
10.0
100
AcDbLine
 10
8031.624945478656
 20
7116.963431176042
 30
0.0
 11
8031.624945478656
 21
7116.963431176042
 31
0.0
  0
LINE
  5
11DE1
330
747D
100
AcDbEntity
  8
部品1
 48
10.0
100
AcDbLine
 10
8019.718695478657
 20
7093.150931176042
 30
0.0
 11
8019.718695478657
 21
7093.150931176042
 31
0.0
  0
LINE
  5
11DE2
330
747D
100
AcDbEntity
  8
部品1
 48
10.0
100
AcDbLine
 10
8043.531195478655
 20
7093.150931176042
 30
0.0
 11
8043.531195478655
 21
7093.150931176042
 31
0.0
  0
LINE
  5
11DE3
330
747D
100
AcDbEntity
  8
部品1
 48
10.0
100
AcDbLine
 10
8031.624945478656
 20
7069.338431176042
 30
0.0
 11
8031.624945478656
 21
7069.338431176042
 31
0.0
  0
LINE
  5
11DE4
330
747D
100
AcDbEntity
  8
部品1
 48
10.0
100
AcDbLine
 10
7888.749945478656
 20
6926.463431176042
 30
0.0
 11
7888.749945478656
 21
6926.463431176042
 31
0.0
  0
LINE
  5
11DE5
330
747D
100
AcDbEntity
  8
部品1
 48
10.0
100
AcDbLine
 10
7912.562445478656
 20
6926.463431176042
 30
0.0
 11
7912.562445478656
 21
6926.463431176042
 31
0.0
  0
LINE
  5
11DE6
330
747D
100
AcDbEntity
  8
部品1
 48
10.0
100
AcDbLine
 10
7936.374945478656
 20
6926.463431176042
 30
0.0
 11
7936.374945478656
 21
6926.463431176042
 31
0.0
  0
LINE
  5
11DE7
330
747D
100
AcDbEntity
  8
部品1
 48
10.0
100
AcDbLine
 10
7960.187445478656
 20
6926.463431176042
 30
0.0
 11
7960.187445478656
 21
6926.463431176042
 31
0.0
  0
LINE
  5
11DE8
330
747D
100
AcDbEntity
  8
部品1
 48
10.0
100
AcDbLine
 10
7983.999945478656
 20
6926.463431176042
 30
0.0
 11
7983.999945478656
 21
6926.463431176042
 31
0.0
  0
LINE
  5
11DE9
330
747D
100
AcDbEntity
  8
部品1
 48
10.0
100
AcDbLine
 10
7972.093695478655
 20
7045.525931176041
 30
0.0
 11
7972.093695478655
 21
7045.525931176041
 31
0.0
  0
LINE
  5
11DEA
330
747D
100
AcDbEntity
  8
部品1
 48
10.0
100
AcDbLine
 10
7888.749945478656
 20
7021.713431176042
 30
0.0
 11
7888.749945478656
 21
7021.713431176042
 31
0.0
  0
LINE
  5
11DEB
330
747D
100
AcDbEntity
  8
部品1
 48
10.0
100
AcDbLine
 10
7912.562445478656
 20
7021.713431176042
 30
0.0
 11
7912.562445478656
 21
7021.713431176042
 31
0.0
  0
LINE
  5
11DEC
330
747D
100
AcDbEntity
  8
部品1
 48
10.0
100
AcDbLine
 10
7936.374945478656
 20
7021.713431176042
 30
0.0
 11
7936.374945478656
 21
7021.713431176042
 31
0.0
  0
LINE
  5
11DED
330
747D
100
AcDbEntity
  8
部品1
 48
10.0
100
AcDbLine
 10
7960.187445478656
 20
7021.713431176042
 30
0.0
 11
7960.187445478656
 21
7021.713431176042
 31
0.0
  0
LINE
  5
11DEE
330
747D
100
AcDbEntity
  8
部品1
 48
10.0
100
AcDbLine
 10
7983.999945478656
 20
7021.713431176042
 30
0.0
 11
7983.999945478656
 21
7021.713431176042
 31
0.0
  0
LINE
  5
11DEF
330
747D
100
AcDbEntity
  8
部品1
 48
10.0
100
AcDbLine
 10
7900.656195478656
 20
6997.900931176042
 30
0.0
 11
7900.656195478656
 21
6997.900931176042
 31
0.0
  0
LINE
  5
11DF0
330
747D
100
AcDbEntity
  8
部品1
 48
10.0
100
AcDbLine
 10
7924.468695478656
 20
6997.900931176042
 30
0.0
 11
7924.468695478656
 21
6997.900931176042
 31
0.0
  0
LINE
  5
11DF1
330
747D
100
AcDbEntity
  8
部品1
 48
10.0
100
AcDbLine
 10
7948.281195478656
 20
6997.900931176042
 30
0.0
 11
7948.281195478656
 21
6997.900931176042
 31
0.0
  0
LINE
  5
11DF2
330
747D
100
AcDbEntity
  8
部品1
 48
10.0
100
AcDbLine
 10
7972.093695478655
 20
6997.900931176042
 30
0.0
 11
7972.093695478655
 21
6997.900931176042
 31
0.0
  0
LINE
  5
11DF3
330
747D
100
AcDbEntity
  8
部品1
 48
10.0
100
AcDbLine
 10
7888.749945478656
 20
6974.088431176042
 30
0.0
 11
7888.749945478656
 21
6974.088431176042
 31
0.0
  0
LINE
  5
11DF4
330
747D
100
AcDbEntity
  8
部品1
 48
10.0
100
AcDbLine
 10
7912.562445478656
 20
6974.088431176042
 30
0.0
 11
7912.562445478656
 21
6974.088431176042
 31
0.0
  0
LINE
  5
11DF5
330
747D
100
AcDbEntity
  8
部品1
 48
10.0
100
AcDbLine
 10
7936.374945478656
 20
6974.088431176042
 30
0.0
 11
7936.374945478656
 21
6974.088431176042
 31
0.0
  0
LINE
  5
11DF6
330
747D
100
AcDbEntity
  8
部品1
 48
10.0
100
AcDbLine
 10
7960.187445478656
 20
6974.088431176042
 30
0.0
 11
7960.187445478656
 21
6974.088431176042
 31
0.0
  0
LINE
  5
11DF7
330
747D
100
AcDbEntity
  8
部品1
 48
10.0
100
AcDbLine
 10
7983.999945478656
 20
6974.088431176042
 30
0.0
 11
7983.999945478656
 21
6974.088431176042
 31
0.0
  0
LINE
  5
11DF8
330
747D
100
AcDbEntity
  8
部品1
 48
10.0
100
AcDbLine
 10
7900.656195478656
 20
6950.275931176041
 30
0.0
 11
7900.656195478656
 21
6950.275931176041
 31
0.0
  0
LINE
  5
11DF9
330
747D
100
AcDbEntity
  8
部品1
 48
10.0
100
AcDbLine
 10
7924.468695478656
 20
6950.275931176041
 30
0.0
 11
7924.468695478656
 21
6950.275931176041
 31
0.0
  0
LINE
  5
11DFA
330
747D
100
AcDbEntity
  8
部品1
 48
10.0
100
AcDbLine
 10
7948.281195478656
 20
6950.275931176041
 30
0.0
 11
7948.281195478656
 21
6950.275931176041
 31
0.0
  0
LINE
  5
11DFB
330
747D
100
AcDbEntity
  8
部品1
 48
10.0
100
AcDbLine
 10
7972.093695478655
 20
6950.275931176041
 30
0.0
 11
7972.093695478655
 21
6950.275931176041
 31
0.0
  0
LINE
  5
11DFC
330
747D
100
AcDbEntity
  8
部品1
 48
10.0
100
AcDbLine
 10
7888.749945478656
 20
7116.963431176042
 30
0.0
 11
7888.749945478656
 21
7116.963431176042
 31
0.0
  0
LINE
  5
11DFD
330
747D
100
AcDbEntity
  8
部品1
 48
10.0
100
AcDbLine
 10
7912.562445478656
 20
7116.963431176042
 30
0.0
 11
7912.562445478656
 21
7116.963431176042
 31
0.0
  0
LINE
  5
11DFE
330
747D
100
AcDbEntity
  8
部品1
 48
10.0
100
AcDbLine
 10
7936.374945478656
 20
7116.963431176042
 30
0.0
 11
7936.374945478656
 21
7116.963431176042
 31
0.0
  0
LINE
  5
11DFF
330
747D
100
AcDbEntity
  8
部品1
 48
10.0
100
AcDbLine
 10
7960.187445478656
 20
7116.963431176042
 30
0.0
 11
7960.187445478656
 21
7116.963431176042
 31
0.0
  0
LINE
  5
11E00
330
747D
100
AcDbEntity
  8
部品1
 48
10.0
100
AcDbLine
 10
7983.999945478656
 20
7116.963431176042
 30
0.0
 11
7983.999945478656
 21
7116.963431176042
 31
0.0
  0
LINE
  5
11E01
330
747D
100
AcDbEntity
  8
部品1
 48
10.0
100
AcDbLine
 10
7900.656195478656
 20
7093.150931176042
 30
0.0
 11
7900.656195478656
 21
7093.150931176042
 31
0.0
  0
LINE
  5
11E02
330
747D
100
AcDbEntity
  8
部品1
 48
10.0
100
AcDbLine
 10
7924.468695478656
 20
7093.150931176042
 30
0.0
 11
7924.468695478656
 21
7093.150931176042
 31
0.0
  0
LINE
  5
11E03
330
747D
100
AcDbEntity
  8
部品1
 48
10.0
100
AcDbLine
 10
7948.281195478656
 20
7093.150931176042
 30
0.0
 11
7948.281195478656
 21
7093.150931176042
 31
0.0
  0
LINE
  5
11E04
330
747D
100
AcDbEntity
  8
部品1
 48
10.0
100
AcDbLine
 10
7972.093695478655
 20
7093.150931176042
 30
0.0
 11
7972.093695478655
 21
7093.150931176042
 31
0.0
  0
LINE
  5
11E05
330
747D
100
AcDbEntity
  8
部品1
 48
10.0
100
AcDbLine
 10
7888.749945478656
 20
7069.338431176042
 30
0.0
 11
7888.749945478656
 21
7069.338431176042
 31
0.0
  0
LINE
  5
11E06
330
747D
100
AcDbEntity
  8
部品1
 48
10.0
100
AcDbLine
 10
7912.562445478656
 20
7069.338431176042
 30
0.0
 11
7912.562445478656
 21
7069.338431176042
 31
0.0
  0
LINE
  5
11E07
330
747D
100
AcDbEntity
  8
部品1
 48
10.0
100
AcDbLine
 10
7936.374945478656
 20
7069.338431176042
 30
0.0
 11
7936.374945478656
 21
7069.338431176042
 31
0.0
  0
LINE
  5
11E08
330
747D
100
AcDbEntity
  8
部品1
 48
10.0
100
AcDbLine
 10
7960.187445478656
 20
7069.338431176042
 30
0.0
 11
7960.187445478656
 21
7069.338431176042
 31
0.0
  0
LINE
  5
11E09
330
747D
100
AcDbEntity
  8
部品1
 48
10.0
100
AcDbLine
 10
7983.999945478656
 20
7069.338431176042
 30
0.0
 11
7983.999945478656
 21
7069.338431176042
 31
0.0
  0
LINE
  5
11E0A
330
747D
100
AcDbEntity
  8
部品1
 48
10.0
100
AcDbLine
 10
7900.656195478656
 20
7045.525931176041
 30
0.0
 11
7900.656195478656
 21
7045.525931176041
 31
0.0
  0
LINE
  5
11E0B
330
747D
100
AcDbEntity
  8
部品1
 48
10.0
100
AcDbLine
 10
7924.468695478656
 20
7045.525931176041
 30
0.0
 11
7924.468695478656
 21
7045.525931176041
 31
0.0
  0
LINE
  5
11E0C
330
747D
100
AcDbEntity
  8
部品1
 48
10.0
100
AcDbLine
 10
7948.281195478656
 20
7045.525931176041
 30
0.0
 11
7948.281195478656
 21
7045.525931176041
 31
0.0
  0
LINE
  5
11E0D
330
747D
100
AcDbEntity
  8
センター
 48
5.0
100
AcDbLine
 10
7525.733277086499
 20
7674.238417208172
 30
0.0
 11
7235.7332770865
 21
7674.238417208172
 31
0.0
  0
LINE
  5
11E0E
330
747D
100
AcDbEntity
  8
センター
 48
5.0
100
AcDbLine
 10
7380.7332770865
 20
7819.238417208173
 30
0.0
 11
7380.7332770865
 21
7529.238417208173
 31
0.0
  0
LINE
  5
11E0F
330
747D
100
AcDbEntity
  8
細線
 48
50.0
100
AcDbLine
 10
7870.733277086499
 20
7691.064544187544
 30
0.0
 11
7918.907150107127
 21
7739.238417208172
 31
0.0
  0
LINE
  5
11E10
330
747D
100
AcDbEntity
  8
細線
 48
50.0
100
AcDbLine
 10
7870.733277086504
 20
7646.163263582202
 30
0.0
 11
7963.808430712474
 21
7739.238417208174
 31
0.0
  0
LINE
  5
11E11
330
747D
100
AcDbEntity
  8
センター
 48
5.0
100
AcDbLine
 10
8115.7332770865
 20
7374.238417208172
 30
0.0
 11
7825.733277086499
 21
7374.238417208172
 31
0.0
  0
LINE
  5
11E12
330
747D
100
AcDbEntity
  8
細線
 48
10.0
100
AcDbLine
 10
7870.733277086499
 20
7474.238417208173
 30
0.0
 11
8070.7332770865
 21
7474.238417208173
 31
0.0
  0
LINE
  5
11E13
330
747D
100
AcDbEntity
  8
細線
 48
10.0
100
AcDbLine
 10
8070.7332770865
 20
7274.238417208173
 30
0.0
 11
7870.733277086499
 21
7274.238417208173
 31
0.0
  0
LINE
  5
11E14
330
747D
100
AcDbEntity
  8
細線
 48
10.0
100
AcDbLine
 10
7870.733277086499
 20
7274.238417208173
 30
0.0
 11
7870.733277086499
 21
7474.238417208173
 31
0.0
  0
LINE
  5
11E15
330
747D
100
AcDbEntity
  8
部品1
 48
10.0
100
AcDbLine
 10
7876.843695478656
 20
7426.525931176041
 30
0.0
 11
7876.843695478656
 21
7426.525931176041
 31
0.0
  0
LINE
  5
11E16
330
747D
100
AcDbEntity
  8
部品1
 48
10.0
100
AcDbLine
 10
7876.843695478656
 20
7378.900931176042
 30
0.0
 11
7876.843695478656
 21
7378.900931176042
 31
0.0
  0
LINE
  5
11E17
330
747D
100
AcDbEntity
  8
部品1
 48
10.0
100
AcDbLine
 10
7876.843695478656
 20
7331.275931176041
 30
0.0
 11
7876.843695478656
 21
7331.275931176041
 31
0.0
  0
LINE
  5
11E18
330
747D
100
AcDbEntity
  8
部品1
 48
10.0
100
AcDbLine
 10
7876.843695478656
 20
7283.650931176042
 30
0.0
 11
7876.843695478656
 21
7283.650931176042
 31
0.0
  0
LINE
  5
11E19
330
747D
100
AcDbEntity
  8
部品1
 48
50.0
100
AcDbLine
 10
7870.733277086499
 20
7619.238417208174
 30
0.0
 11
7870.733277086499
 21
7739.238417208174
 31
0.0
  0
LINE
  5
11E1A
330
747D
100
AcDbEntity
  8
細線
 48
50.0
100
AcDbLine
 10
7870.733277086499
 20
7735.965824792891
 30
0.0
 11
7874.005869501779
 21
7739.238417208172
 31
0.0
  0
LINE
  5
11E1B
330
747D
100
AcDbEntity
  8
センター
 48
5.0
100
AcDbLine
 10
7970.733277086499
 20
7519.238417208173
 30
0.0
 11
7970.733277086499
 21
7229.238417208172
 31
0.0
  0
LINE
  5
11E1C
330
747D
100
AcDbEntity
  8
部品1
 48
10.0
100
AcDbLine
 10
8007.812445478656
 20
7450.338431176042
 30
0.0
 11
8007.812445478656
 21
7450.338431176042
 31
0.0
  0
LINE
  5
11E1D
330
747D
100
AcDbEntity
  8
部品1
 48
10.0
100
AcDbLine
 10
7995.906195478656
 20
7426.525931176041
 30
0.0
 11
7995.906195478656
 21
7426.525931176041
 31
0.0
  0
LINE
  5
11E1E
330
747D
100
AcDbEntity
  8
部品1
 48
10.0
100
AcDbLine
 10
8007.812445478656
 20
7402.713431176042
 30
0.0
 11
8007.812445478656
 21
7402.713431176042
 31
0.0
  0
LINE
  5
11E1F
330
747D
100
AcDbEntity
  8
部品1
 48
10.0
100
AcDbLine
 10
7995.906195478656
 20
7378.900931176042
 30
0.0
 11
7995.906195478656
 21
7378.900931176042
 31
0.0
  0
LINE
  5
11E20
330
747D
100
AcDbEntity
  8
部品1
 48
10.0
100
AcDbLine
 10
8007.812445478656
 20
7355.088431176042
 30
0.0
 11
8007.812445478656
 21
7355.088431176042
 31
0.0
  0
LINE
  5
11E21
330
747D
100
AcDbEntity
  8
部品1
 48
10.0
100
AcDbLine
 10
7995.906195478656
 20
7331.275931176041
 30
0.0
 11
7995.906195478656
 21
7331.275931176041
 31
0.0
  0
LINE
  5
11E22
330
747D
100
AcDbEntity
  8
部品1
 48
10.0
100
AcDbLine
 10
8007.812445478656
 20
7307.463431176042
 30
0.0
 11
8007.812445478656
 21
7307.463431176042
 31
0.0
  0
LINE
  5
11E23
330
747D
100
AcDbEntity
  8
部品1
 48
10.0
100
AcDbLine
 10
7995.906195478656
 20
7283.650931176042
 30
0.0
 11
7995.906195478656
 21
7283.650931176042
 31
0.0
  0
LINE
  5
11E24
330
747D
100
AcDbEntity
  8
細線
 48
10.0
100
AcDbLine
 10
8070.7332770865
 20
7474.238417208173
 30
0.0
 11
8070.7332770865
 21
7274.238417208173
 31
0.0
  0
LINE
  5
11E25
330
747D
100
AcDbEntity
  8
部品1
 48
10.0
100
AcDbLine
 10
8067.343695478655
 20
7474.150931176042
 30
0.0
 11
8067.343695478655
 21
7474.150931176042
 31
0.0
  0
LINE
  5
11E26
330
747D
100
AcDbEntity
  8
部品1
 48
10.0
100
AcDbLine
 10
8055.437445478656
 20
7450.338431176042
 30
0.0
 11
8055.437445478656
 21
7450.338431176042
 31
0.0
  0
LINE
  5
11E27
330
747D
100
AcDbEntity
  8
部品1
 48
10.0
100
AcDbLine
 10
8067.343695478655
 20
7426.525931176041
 30
0.0
 11
8067.343695478655
 21
7426.525931176041
 31
0.0
  0
LINE
  5
11E28
330
747D
100
AcDbEntity
  8
部品1
 48
10.0
100
AcDbLine
 10
8055.437445478656
 20
7402.713431176042
 30
0.0
 11
8055.437445478656
 21
7402.713431176042
 31
0.0
  0
LINE
  5
11E29
330
747D
100
AcDbEntity
  8
部品1
 48
10.0
100
AcDbLine
 10
8067.343695478655
 20
7378.900931176042
 30
0.0
 11
8067.343695478655
 21
7378.900931176042
 31
0.0
  0
LINE
  5
11E2A
330
747D
100
AcDbEntity
  8
部品1
 48
10.0
100
AcDbLine
 10
8055.437445478656
 20
7355.088431176042
 30
0.0
 11
8055.437445478656
 21
7355.088431176042
 31
0.0
  0
LINE
  5
11E2B
330
747D
100
AcDbEntity
  8
部品1
 48
10.0
100
AcDbLine
 10
8067.343695478655
 20
7331.275931176041
 30
0.0
 11
8067.343695478655
 21
7331.275931176041
 31
0.0
  0
LINE
  5
11E2C
330
747D
100
AcDbEntity
  8
部品1
 48
10.0
100
AcDbLine
 10
8055.437445478656
 20
7307.463431176042
 30
0.0
 11
8055.437445478656
 21
7307.463431176042
 31
0.0
  0
LINE
  5
11E2D
330
747D
100
AcDbEntity
  8
部品1
 48
10.0
100
AcDbLine
 10
8067.343695478655
 20
7283.650931176042
 30
0.0
 11
8067.343695478655
 21
7283.650931176042
 31
0.0
  0
LINE
  5
11E2E
330
747D
100
AcDbEntity
  8
部品1
 48
10.0
100
AcDbLine
 10
8031.624945478656
 20
7450.338431176042
 30
0.0
 11
8031.624945478656
 21
7450.338431176042
 31
0.0
  0
LINE
  5
11E2F
330
747D
100
AcDbEntity
  8
部品1
 48
10.0
100
AcDbLine
 10
8019.718695478657
 20
7426.525931176041
 30
0.0
 11
8019.718695478657
 21
7426.525931176041
 31
0.0
  0
LINE
  5
11E30
330
747D
100
AcDbEntity
  8
部品1
 48
10.0
100
AcDbLine
 10
8043.531195478655
 20
7426.525931176041
 30
0.0
 11
8043.531195478655
 21
7426.525931176041
 31
0.0
  0
LINE
  5
11E31
330
747D
100
AcDbEntity
  8
部品1
 48
10.0
100
AcDbLine
 10
8031.624945478656
 20
7402.713431176042
 30
0.0
 11
8031.624945478656
 21
7402.713431176042
 31
0.0
  0
LINE
  5
11E32
330
747D
100
AcDbEntity
  8
部品1
 48
10.0
100
AcDbLine
 10
8019.718695478657
 20
7378.900931176042
 30
0.0
 11
8019.718695478657
 21
7378.900931176042
 31
0.0
  0
LINE
  5
11E33
330
747D
100
AcDbEntity
  8
部品1
 48
10.0
100
AcDbLine
 10
8043.531195478655
 20
7378.900931176042
 30
0.0
 11
8043.531195478655
 21
7378.900931176042
 31
0.0
  0
LINE
  5
11E34
330
747D
100
AcDbEntity
  8
部品1
 48
10.0
100
AcDbLine
 10
8031.624945478656
 20
7355.088431176042
 30
0.0
 11
8031.624945478656
 21
7355.088431176042
 31
0.0
  0
LINE
  5
11E35
330
747D
100
AcDbEntity
  8
部品1
 48
10.0
100
AcDbLine
 10
8019.718695478657
 20
7331.275931176041
 30
0.0
 11
8019.718695478657
 21
7331.275931176041
 31
0.0
  0
LINE
  5
11E36
330
747D
100
AcDbEntity
  8
部品1
 48
10.0
100
AcDbLine
 10
8043.531195478655
 20
7331.275931176041
 30
0.0
 11
8043.531195478655
 21
7331.275931176041
 31
0.0
  0
LINE
  5
11E37
330
747D
100
AcDbEntity
  8
部品1
 48
10.0
100
AcDbLine
 10
8031.624945478656
 20
7307.463431176042
 30
0.0
 11
8031.624945478656
 21
7307.463431176042
 31
0.0
  0
LINE
  5
11E38
330
747D
100
AcDbEntity
  8
部品1
 48
10.0
100
AcDbLine
 10
8019.718695478657
 20
7283.650931176042
 30
0.0
 11
8019.718695478657
 21
7283.650931176042
 31
0.0
  0
LINE
  5
11E39
330
747D
100
AcDbEntity
  8
部品1
 48
10.0
100
AcDbLine
 10
8043.531195478655
 20
7283.650931176042
 30
0.0
 11
8043.531195478655
 21
7283.650931176042
 31
0.0
  0
LINE
  5
11E3A
330
747D
100
AcDbEntity
  8
部品1
 48
10.0
100
AcDbLine
 10
7888.749945478656
 20
7450.338431176042
 30
0.0
 11
7888.749945478656
 21
7450.338431176042
 31
0.0
  0
LINE
  5
11E3B
330
747D
100
AcDbEntity
  8
部品1
 48
10.0
100
AcDbLine
 10
7912.562445478656
 20
7450.338431176042
 30
0.0
 11
7912.562445478656
 21
7450.338431176042
 31
0.0
  0
LINE
  5
11E3C
330
747D
100
AcDbEntity
  8
部品1
 48
10.0
100
AcDbLine
 10
7936.374945478656
 20
7450.338431176042
 30
0.0
 11
7936.374945478656
 21
7450.338431176042
 31
0.0
  0
LINE
  5
11E3D
330
747D
100
AcDbEntity
  8
部品1
 48
10.0
100
AcDbLine
 10
7960.187445478656
 20
7450.338431176042
 30
0.0
 11
7960.187445478656
 21
7450.338431176042
 31
0.0
  0
LINE
  5
11E3E
330
747D
100
AcDbEntity
  8
部品1
 48
10.0
100
AcDbLine
 10
7983.999945478656
 20
7450.338431176042
 30
0.0
 11
7983.999945478656
 21
7450.338431176042
 31
0.0
  0
LINE
  5
11E3F
330
747D
100
AcDbEntity
  8
部品1
 48
10.0
100
AcDbLine
 10
7900.656195478656
 20
7426.525931176041
 30
0.0
 11
7900.656195478656
 21
7426.525931176041
 31
0.0
  0
LINE
  5
11E40
330
747D
100
AcDbEntity
  8
部品1
 48
10.0
100
AcDbLine
 10
7924.468695478656
 20
7426.525931176041
 30
0.0
 11
7924.468695478656
 21
7426.525931176041
 31
0.0
  0
LINE
  5
11E41
330
747D
100
AcDbEntity
  8
部品1
 48
10.0
100
AcDbLine
 10
7948.281195478656
 20
7426.525931176041
 30
0.0
 11
7948.281195478656
 21
7426.525931176041
 31
0.0
  0
LINE
  5
11E42
330
747D
100
AcDbEntity
  8
部品1
 48
10.0
100
AcDbLine
 10
7972.093695478655
 20
7426.525931176041
 30
0.0
 11
7972.093695478655
 21
7426.525931176041
 31
0.0
  0
LINE
  5
11E43
330
747D
100
AcDbEntity
  8
部品1
 48
10.0
100
AcDbLine
 10
7888.749945478656
 20
7402.713431176042
 30
0.0
 11
7888.749945478656
 21
7402.713431176042
 31
0.0
  0
LINE
  5
11E44
330
747D
100
AcDbEntity
  8
部品1
 48
10.0
100
AcDbLine
 10
7912.562445478656
 20
7402.713431176042
 30
0.0
 11
7912.562445478656
 21
7402.713431176042
 31
0.0
  0
LINE
  5
11E45
330
747D
100
AcDbEntity
  8
部品1
 48
10.0
100
AcDbLine
 10
7936.374945478656
 20
7402.713431176042
 30
0.0
 11
7936.374945478656
 21
7402.713431176042
 31
0.0
  0
LINE
  5
11E46
330
747D
100
AcDbEntity
  8
部品1
 48
10.0
100
AcDbLine
 10
7960.187445478656
 20
7402.713431176042
 30
0.0
 11
7960.187445478656
 21
7402.713431176042
 31
0.0
  0
LINE
  5
11E47
330
747D
100
AcDbEntity
  8
部品1
 48
10.0
100
AcDbLine
 10
7983.999945478656
 20
7402.713431176042
 30
0.0
 11
7983.999945478656
 21
7402.713431176042
 31
0.0
  0
LINE
  5
11E48
330
747D
100
AcDbEntity
  8
部品1
 48
10.0
100
AcDbLine
 10
7900.656195478656
 20
7378.900931176042
 30
0.0
 11
7900.656195478656
 21
7378.900931176042
 31
0.0
  0
LINE
  5
11E49
330
747D
100
AcDbEntity
  8
部品1
 48
10.0
100
AcDbLine
 10
7924.468695478656
 20
7378.900931176042
 30
0.0
 11
7924.468695478656
 21
7378.900931176042
 31
0.0
  0
LINE
  5
11E4A
330
747D
100
AcDbEntity
  8
部品1
 48
10.0
100
AcDbLine
 10
7948.281195478656
 20
7378.900931176042
 30
0.0
 11
7948.281195478656
 21
7378.900931176042
 31
0.0
  0
LINE
  5
11E4B
330
747D
100
AcDbEntity
  8
部品1
 48
10.0
100
AcDbLine
 10
7972.093695478655
 20
7378.900931176042
 30
0.0
 11
7972.093695478655
 21
7378.900931176042
 31
0.0
  0
LINE
  5
11E4C
330
747D
100
AcDbEntity
  8
部品1
 48
10.0
100
AcDbLine
 10
7888.749945478656
 20
7355.088431176042
 30
0.0
 11
7888.749945478656
 21
7355.088431176042
 31
0.0
  0
LINE
  5
11E4D
330
747D
100
AcDbEntity
  8
部品1
 48
10.0
100
AcDbLine
 10
7912.562445478656
 20
7355.088431176042
 30
0.0
 11
7912.562445478656
 21
7355.088431176042
 31
0.0
  0
LINE
  5
11E4E
330
747D
100
AcDbEntity
  8
部品1
 48
10.0
100
AcDbLine
 10
7936.374945478656
 20
7355.088431176042
 30
0.0
 11
7936.374945478656
 21
7355.088431176042
 31
0.0
  0
LINE
  5
11E4F
330
747D
100
AcDbEntity
  8
部品1
 48
10.0
100
AcDbLine
 10
7960.187445478656
 20
7355.088431176042
 30
0.0
 11
7960.187445478656
 21
7355.088431176042
 31
0.0
  0
LINE
  5
11E50
330
747D
100
AcDbEntity
  8
部品1
 48
10.0
100
AcDbLine
 10
7983.999945478656
 20
7355.088431176042
 30
0.0
 11
7983.999945478656
 21
7355.088431176042
 31
0.0
  0
LINE
  5
11E51
330
747D
100
AcDbEntity
  8
部品1
 48
10.0
100
AcDbLine
 10
7900.656195478656
 20
7331.275931176041
 30
0.0
 11
7900.656195478656
 21
7331.275931176041
 31
0.0
  0
LINE
  5
11E52
330
747D
100
AcDbEntity
  8
部品1
 48
10.0
100
AcDbLine
 10
7924.468695478656
 20
7331.275931176041
 30
0.0
 11
7924.468695478656
 21
7331.275931176041
 31
0.0
  0
LINE
  5
11E53
330
747D
100
AcDbEntity
  8
部品1
 48
10.0
100
AcDbLine
 10
7948.281195478656
 20
7331.275931176041
 30
0.0
 11
7948.281195478656
 21
7331.275931176041
 31
0.0
  0
LINE
  5
11E54
330
747D
100
AcDbEntity
  8
部品1
 48
10.0
100
AcDbLine
 10
7972.093695478655
 20
7331.275931176041
 30
0.0
 11
7972.093695478655
 21
7331.275931176041
 31
0.0
  0
LINE
  5
11E55
330
747D
100
AcDbEntity
  8
部品1
 48
10.0
100
AcDbLine
 10
7888.749945478656
 20
7307.463431176042
 30
0.0
 11
7888.749945478656
 21
7307.463431176042
 31
0.0
  0
LINE
  5
11E56
330
747D
100
AcDbEntity
  8
部品1
 48
10.0
100
AcDbLine
 10
7912.562445478656
 20
7307.463431176042
 30
0.0
 11
7912.562445478656
 21
7307.463431176042
 31
0.0
  0
LINE
  5
11E57
330
747D
100
AcDbEntity
  8
部品1
 48
10.0
100
AcDbLine
 10
7936.374945478656
 20
7307.463431176042
 30
0.0
 11
7936.374945478656
 21
7307.463431176042
 31
0.0
  0
LINE
  5
11E58
330
747D
100
AcDbEntity
  8
部品1
 48
10.0
100
AcDbLine
 10
7960.187445478656
 20
7307.463431176042
 30
0.0
 11
7960.187445478656
 21
7307.463431176042
 31
0.0
  0
LINE
  5
11E59
330
747D
100
AcDbEntity
  8
部品1
 48
10.0
100
AcDbLine
 10
7983.999945478656
 20
7307.463431176042
 30
0.0
 11
7983.999945478656
 21
7307.463431176042
 31
0.0
  0
LINE
  5
11E5A
330
747D
100
AcDbEntity
  8
部品1
 48
10.0
100
AcDbLine
 10
7900.656195478656
 20
7283.650931176042
 30
0.0
 11
7900.656195478656
 21
7283.650931176042
 31
0.0
  0
LINE
  5
11E5B
330
747D
100
AcDbEntity
  8
部品1
 48
10.0
100
AcDbLine
 10
7924.468695478656
 20
7283.650931176042
 30
0.0
 11
7924.468695478656
 21
7283.650931176042
 31
0.0
  0
LINE
  5
11E5C
330
747D
100
AcDbEntity
  8
部品1
 48
10.0
100
AcDbLine
 10
7948.281195478656
 20
7283.650931176042
 30
0.0
 11
7948.281195478656
 21
7283.650931176042
 31
0.0
  0
LINE
  5
11E5D
330
747D
100
AcDbEntity
  8
部品1
 48
10.0
100
AcDbLine
 10
7972.093695478655
 20
7283.650931176042
 30
0.0
 11
7972.093695478655
 21
7283.650931176042
 31
0.0
  0
LINE
  5
11E5E
330
747D
100
AcDbEntity
  8
細線
 48
50.0
100
AcDbLine
 10
7978.512272528508
 20
7619.238417208174
 30
0.0
 11
8070.7332770865
 21
7711.459421766162
 31
0.0
  0
LINE
  5
11E5F
330
747D
100
AcDbEntity
  8
部品1
 48
50.0
100
AcDbLine
 10
8070.7332770865
 20
7619.238417208174
 30
0.0
 11
8070.7332770865
 21
7739.238417208174
 31
0.0
  0
LINE
  5
11E60
330
747D
100
AcDbEntity
  8
細線
 48
50.0
100
AcDbLine
 10
8023.41355313386
 20
7619.238417208176
 30
0.0
 11
8070.7332770865
 21
7666.558141160816
 31
0.0
  0
LINE
  5
11E61
330
747D
100
AcDbEntity
  8
細線
 48
50.0
100
AcDbLine
 10
7933.610991923167
 20
7619.238417208176
 30
0.0
 11
8053.610991923163
 21
7739.238417208174
 31
0.0
  0
LINE
  5
11E62
330
747D
100
AcDbEntity
  8
細線
 48
50.0
100
AcDbLine
 10
7888.709711317821
 20
7619.238417208174
 30
0.0
 11
8008.709711317818
 21
7739.238417208172
 31
0.0
  0
DIMENSION
  5
11E63
330
747D
100
AcDbEntity
  8
寸法
 48
50.0
100
AcDbDimension
  2
*D12
 10
8625.733277086499
 20
5809.771360963245
 30
0.0
 11
8937.809109641841
 21
5809.771360963245
 31
0.0
 70
   160
 71
     5
 42
65.0
  3
INABA_S40G
100
AcDbAlignedDimension
 13
8560.7332770865
 23
6349.238417208173
 33
0.0
 14
8625.733277086499
 24
6429.238417208172
 34
0.0
100
AcDbRotatedDimension
1001
ACAD
1000
DSTYLE
1002
{
1070
   341
1005
0
1002
}
  0
DIMENSION
  5
11E64
330
747D
100
AcDbEntity
  8
寸法
 48
50.0
100
AcDbDimension
  2
*D13
 10
9476.7332770865
 20
6299.238417208172
 30
0.0
 11
9476.7332770865
 21
5968.297472326283
 31
0.0
 70
   160
  1
(<>)
 71
     5
 42
130.0
  3
INABA_S40G
100
AcDbAlignedDimension
 13
8625.733277086499
 23
6429.238417208172
 33
0.0
 14
9155.801501250568
 24
6299.238417208172
 34
0.0
 50
90.0
100
AcDbRotatedDimension
1001
ACAD
1000
DSTYLE
1002
{
1070
   341
1005
0
1002
}
  0
DIMENSION
  5
11E65
330
747D
100
AcDbEntity
  8
寸法
 48
50.0
100
AcDbDimension
  2
*D14
 10
8675.733277086498
 20
5498.238417208173
 30
0.0
 11
9029.68603299201
 21
5498.238417208173
 31
0.0
 70
   160
  1
(<>)
 71
     5
 42
50.0
  3
INABA_S40G
100
AcDbAlignedDimension
 13
8625.733277086499
 23
6429.238417208171
 33
0.0
 14
8675.733277086498
 24
5809.771360963245
 34
0.0
100
AcDbRotatedDimension
1001
ACAD
1000
DSTYLE
1002
{
1070
   341
1005
0
1002
}
  0
LINE
  5
11F0B
330
747D
100
AcDbEntity
  8
部品1
 48
50.0
100
AcDbLine
 10
8625.733277086499
 20
6429.238417208171
 30
0.0
 11
8625.733277086499
 21
7739.238417208174
 31
0.0
  0
LINE
  5
11F0C
330
747D
100
AcDbEntity
  8
想像線
 48
20.0
100
AcDbLine
 10
8675.733277086498
 20
6299.238417208172
 30
0.0
 11
8675.733277086498
 21
7829.238417208171
 31
0.0
  0
DIMENSION
  5
11F0E
330
747D
100
AcDbEntity
  8
寸法
 48
50.0
100
AcDbDimension
  2
*D15
 10
9476.7332770865
 20
7739.238417208174
 30
0.0
 11
9376.733277086499
 21
7084.238417208173
 31
0.0
 70
    32
 71
     5
 42
1310.0
  3
INABA_S40G
100
AcDbAlignedDimension
 13
8625.733277086499
 23
6429.238417208172
 33
0.0
 14
8625.733277086499
 24
7739.238417208174
 34
0.0
 50
90.0
100
AcDbRotatedDimension
1001
ACAD
1000
DSTYLE
1002
{
1070
   341
1005
0
1002
}
  0
DIMENSION
  5
11F0F
330
747D
100
AcDbEntity
  8
寸法
 48
50.0
100
AcDbDimension
  2
*D16
 10
9155.801501250568
 20
6494.238417208173
 30
0.0
 11
9055.801501250567
 21
7084.238417208173
 31
0.0
 70
    32
 71
     5
 42
1180.0
  3
INABA_S40G
100
AcDbAlignedDimension
 13
8705.733277086499
 23
7674.238417208172
 33
0.0
 14
8705.733277086499
 24
6494.238417208173
 34
0.0
 50
90.0
100
AcDbRotatedDimension
1001
ACAD
1000
DSTYLE
1002
{
1070
   341
1005
0
1002
}
  0
DIMENSION
  5
11F10
330
747D
100
AcDbEntity
  8
寸法
 48
50.0
100
AcDbDimension
  2
*D17
 10
9155.80150125057
 20
6429.238417208172
 30
0.0
 11
9155.801501250568
 21
6117.162584652834
 31
0.0
 70
   160
 71
     5
 42
65.0
  3
INABA_S40G
100
AcDbAlignedDimension
 13
8705.733277086499
 23
6494.238417208173
 33
0.0
 14
8625.733277086499
 24
6429.238417208172
 34
0.0
 50
90.0
100
AcDbRotatedDimension
1001
ACAD
1000
DSTYLE
1002
{
1070
   341
1005
0
1002
}
  0
LINE
  5
11F11
330
747D
100
AcDbEntity
  8
センター
 48
5.0
100
AcDbLine
 10
8560.7332770865
 20
6349.238417208173
 30
0.0
 11
8560.7332770865
 21
6639.238417208173
 31
0.0
  0
LINE
  5
11F12
330
747D
100
AcDbEntity
  8
センター
 48
5.0
100
AcDbLine
 10
8415.7332770865
 20
6494.238417208173
 30
0.0
 11
8705.733277086499
 21
6494.238417208173
 31
0.0
  0
LINE
  5
11F13
330
747D
100
AcDbEntity
  8
細線
 48
50.0
100
AcDbLine
 10
8620.550690688896
 20
6984.238417208174
 30
0.0
 11
8625.733277086499
 21
6989.421003605781
 31
0.0
  0
LINE
  5
11F14
330
747D
100
AcDbEntity
  8
細線
 48
50.0
100
AcDbLine
 10
8505.7332770865
 20
7093.927406632507
 30
0.0
 11
8596.044287662165
 21
7184.238417208174
 31
0.0
  0
LINE
  5
11F15
330
747D
100
AcDbEntity
  8
細線
 48
50.0
100
AcDbLine
 10
8505.733277086502
 20
7138.828687237851
 30
0.0
 11
8551.14300705682
 21
7184.238417208175
 31
0.0
  0
LINE
  5
11F16
330
747D
100
AcDbEntity
  8
部品1
 48
50.0
100
AcDbLine
 10
8625.733277086499
 20
7184.238417208174
 30
0.0
 11
8505.7332770865
 21
7184.238417208172
 31
0.0
  0
LINE
  5
11F17
330
747D
100
AcDbEntity
  8
細線
 48
50.0
100
AcDbLine
 10
8575.649410083547
 20
6984.238417208174
 30
0.0
 11
8625.733277086499
 21
7034.322284211125
 31
0.0
  0
LINE
  5
11F18
330
747D
100
AcDbEntity
  8
細線
 48
50.0
100
AcDbLine
 10
8530.748129478201
 20
6984.238417208174
 30
0.0
 11
8625.733277086499
 21
7079.223564816472
 31
0.0
  0
LINE
  5
11F19
330
747D
100
AcDbEntity
  8
細線
 48
50.0
100
AcDbLine
 10
8505.7332770865
 20
7004.124845421817
 30
0.0
 11
8625.733277086499
 21
7124.124845421817
 31
0.0
  0
LINE
  5
11F1A
330
747D
100
AcDbEntity
  8
部品1
 48
50.0
100
AcDbLine
 10
8625.733277086499
 20
6984.238417208174
 30
0.0
 11
8505.7332770865
 21
6984.238417208172
 31
0.0
  0
LINE
  5
11F1B
330
747D
100
AcDbEntity
  8
細線
 48
50.0
100
AcDbLine
 10
8505.7332770865
 20
7049.026126027162
 30
0.0
 11
8625.733277086499
 21
7169.026126027162
 31
0.0
  0
LEADER
  5
11F1C
330
747D
100
AcDbEntity
  8
寸法
 48
50.0
100
AcDbLeader
  3
INABA_S50G
 73
     0
 74
     0
 75
     1
 40
120.0
 41
672.0
 76
     3
 10
8529.636179531054
 20
7829.238417208171
 30
0.0
 10
8905.799506117519
 20
8376.539891316873
 30
0.0
 10
9030.799506117519
 20
8376.539891316873
 30
0.0
340
11F1D
1001
ACAD
1000
DSTYLE
1002
{
1070
   341
1005
0
1070
    40
1040
1.0
1070
   343
1005
0
1070
   344
1005
0
1002
}
  0
MTEXT
  5
11F1D
102
{ACAD_REACTORS
330
11F1C
102
}
330
747D
100
AcDbEntity
  8
部品1
 62
     7
 48
50.0
100
AcDbMText
 10
9727.79950611752
 20
8461.539891316872
 30
0.0
 40
120.0
 41
0.0
 71
     6
 72
     1
  1
\A1;屋根の外寸
  7
STYLE1
 73
     1
 44
1.0
1001
ACAD
1000
MTEXTBEGIN
1070
    73
1070
     1
1070
    44
1040
1.0
1070
    74
1070
     0
1000
MTEXTEND
  0
DIMENSION
  5
11F1E
330
747D
100
AcDbEntity
  8
寸法
 48
50.0
100
AcDbDimension
  2
*D18
 10
9476.7332770865
 20
7829.238417208171
 30
0.0
 11
9476.7332770865
 21
8122.941436877132
 31
0.0
 70
   160
  1
(<>)
 71
     5
 42
89.99999999999818
  3
INABA_S40G
100
AcDbAlignedDimension
 13
8625.733277086499
 23
7739.238417208174
 33
0.0
 14
9155.801501250568
 24
7829.238417208171
 34
0.0
 50
90.0
100
AcDbRotatedDimension
1001
ACAD
1000
DSTYLE
1002
{
1070
   341
1005
0
1002
}
  0
DIMENSION
  5
11F1F
330
747D
100
AcDbEntity
  8
寸法
 48
50.0
100
AcDbDimension
  2
*D19
 10
9155.80150125057
 20
7674.238417208172
 30
0.0
 11
9155.801501250568
 21
8051.314249763514
 31
0.0
 70
   160
 71
     5
 42
65.0
  3
INABA_S40G
100
AcDbAlignedDimension
 13
8625.733277086499
 23
7739.238417208174
 33
0.0
 14
8705.733277086499
 24
7674.238417208172
 34
0.0
 50
90.0
100
AcDbRotatedDimension
1001
ACAD
1000
DSTYLE
1002
{
1070
   341
1005
0
1002
}
  0
LINE
  5
11F20
330
747D
100
AcDbEntity
  8
センター
 48
5.0
100
AcDbLine
 10
8560.7332770865
 20
7819.238417208173
 30
0.0
 11
8560.7332770865
 21
7529.238417208173
 31
0.0
  0
LINE
  5
11F21
330
747D
100
AcDbEntity
  8
センター
 48
5.0
100
AcDbLine
 10
8415.7332770865
 20
7674.238417208172
 30
0.0
 11
8705.733277086499
 21
7674.238417208172
 31
0.0
  0
LINE
  5
12C33
330
747D
100
AcDbEntity
  8
仕様書枠
 48
50.0
100
AcDbLine
 10
16307.2
 20
1199.999999999999
 30
0.0
 11
16307.2
 21
-0.0000000000004547
 31
0.0
  0
TEXT
  5
12C34
330
747D
100
AcDbEntity
  8
文字
 62
     7
 48
50.0
100
AcDbText
 10
15165.9381962197
 20
1031.557706291228
 30
0.0
 40
100.0
  1
<縮尺> S=1/50
  7
STYLE2
100
AcDbText
  0
LINE
  5
12C35
330
747D
100
AcDbEntity
  8
仕様書枠
  6
Continuous
 48
50.0
100
AcDbLine
 10
14251.2
 20
1199.999999999999
 30
0.0
 11
14251.2
 21
799.9999999999995
 31
0.0
  0
TEXT
  5
12C36
330
747D
100
AcDbEntity
  8
仕様書枠
 62
     7
 48
50.0
100
AcDbText
 10
14487.00006607147
 20
483.8967129911407
 30
0.0
 40
160.0
  1
ＳＭＫ-１７ＳＧＭ
  7
STYLE2
100
AcDbText
  0
LINE
  5
12C3E
330
747D
100
AcDbEntity
  8
仕様書枠
  6
Continuous
 48
50.0
100
AcDbLine
 10
13107.2
 20
1199.999999999999
 30
0.0
 11
13107.2
 21
-0.0000000000004547
 31
0.0
  0
LINE
  5
12CD1
330
747D
100
AcDbEntity
  8
仕様書枠
 48
50.0
100
AcDbLine
 10
13107.2
 20
1199.999999999999
 30
0.0
 11
16307.2
 21
1199.999999999999
 31
0.0
  0
LINE
  5
12CD2
330
747D
100
AcDbEntity
  8
仕様書枠
 62
     7
 48
50.0
100
AcDbLine
 10
13187.2
 20
399.9999999999996
 30
0.0
 11
16227.2
 21
399.9999999999996
 31
0.0
  0
TEXT
  5
12CD3
330
747D
100
AcDbEntity
  8
仕様書枠
 62
     7
 48
50.0
100
AcDbText
 10
13162.9790565769
 20
895.09060742994
 30
0.0
 40
200.0
  1
基 礎 図
  7
STYLE2
100
AcDbText
  0
LINE
  5
12CD4
330
747D
100
AcDbEntity
  8
仕様書枠
 48
50.0
100
AcDbLine
 10
13107.2
 20
799.9999999999995
 30
0.0
 11
14251.2
 21
799.9999999999995
 31
0.0
  0
TEXT
  5
12CD5
330
747D
100
AcDbEntity
  8
文字
 62
     7
 48
50.0
100
AcDbText
 10
13209.40534824901
 20
216.4744947408499
 30
0.0
 40
80.0
  1
※寒冷地等は、地域の実情に合わせた基礎にしてください。
  7
STYLE2
100
AcDbText
  0
TEXT
  5
12CD6
330
747D
100
AcDbEntity
  8
文字
 62
     7
 48
50.0
100
AcDbText
 10
13209.40534824901
 20
79.80631269190325
 30
0.0
 40
80.0
  1
※布基礎には換気口を設けてください。
  7
STYLE2
100
AcDbText
  0
TEXT
  5
12CD7
330
747D
100
AcDbEntity
  8
文字
 62
     7
 48
50.0
100
AcDbText
 10
13201.43669998441
 20
477.2740661031248
 30
0.0
 40
160.0
  1
機種名
  7
STYLE2
100
AcDbText
  0
LINE
  5
12CDF
102
{ACAD_REACTORS
330
12CE1
102
}
330
747D
100
AcDbEntity
  8
細線
 48
10.0
100
AcDbLine
 10
4578.268753178462
 20
3723.926258933749
 30
0.0
 11
4578.268753178462
 21
3563.926258933749
 31
0.0
  0
LINE
  5
12CE0
102
{ACAD_REACTORS
330
12CE1
102
}
330
747D
100
AcDbEntity
  8
細線
 48
10.0
100
AcDbLine
 10
4258.268753178461
 20
3563.926258933749
 30
0.0
 11
4258.268753178461
 21
3723.926258933749
 31
0.0
  0
HATCH
  5
12CE1
330
747D
100
AcDbEntity
  8
部品1
 48
50.0
100
AcDbHatch
 10
0.0
 20
0.0
 30
0.0
210
0.0
220
0.0
230
1.0
  2
DOTS
 70
     0
 71
     1
 91
        1
 92
        7
 72
     0
 73
     1
 93
        4
 10
4258.268753178461
 20
3723.926258933749
 10
4258.268753178461
 20
3563.926258933749
 10
4578.268753178462
 20
3563.926258933749
 10
4578.268753178462
 20
3723.926258933749
 97
        4
330
12CE2
330
12CE0
330
12CE3
330
12CDF
 75
     0
 76
     1
 52
0.0
 41
12.0
 77
     0
 78
     1
 53
0.0
 43
-249.4759298380413
 44
2856.698150153771
 45
9.525
 46
19.05
 79
     2
 49
0.0
 49
-19.05
 47
4.354393451972202
 98
        1
 10
4474.267522247577
 20
3694.467507222686
  0
LINE
  5
12CE2
102
{ACAD_REACTORS
330
12CE1
102
}
330
747D
100
AcDbEntity
  8
細線
 48
10.0
100
AcDbLine
 10
4258.268753178461
 20
3723.926258933749
 30
0.0
 11
4578.268753178462
 21
3723.926258933749
 31
0.0
  0
LINE
  5
12CE3
102
{ACAD_REACTORS
330
12CE1
102
}
330
747D
100
AcDbEntity
  8
細線
 48
10.0
100
AcDbLine
 10
4258.268753178461
 20
3563.926258933749
 30
0.0
 11
4578.268753178462
 21
3563.926258933749
 31
0.0
  0
LINE
  5
12CE4
330
747D
100
AcDbEntity
  8
部品1
100
AcDbLine
 10
6400.654155646295
 20
3880.398571524156
 30
0.0
 11
4210.524070161958
 21
3880.398571524156
 31
0.0
  0
TEXT
  5
12CE5
330
747D
100
AcDbEntity
  8
文字
 62
     7
 48
50.0
100
AcDbText
 10
4225.91813597245
 20
3932.015020438356
 30
0.0
 40
120.0
  1
（　）内寸法は屋根の出幅です。
  7
STYLE1
100
AcDbText
  0
TEXT
  5
12CE6
330
747D
100
AcDbEntity
  8
文字
 62
     7
 48
50.0
100
AcDbText
 10
4631.304594172161
 20
3548.31459906797
 30
0.0
 40
120.0
  1
重量物を入れる場合（根太部ブロック追加）
  7
STYLE1
100
AcDbText
  0
LINE
  5
12CE7
330
747D
100
AcDbEntity
  8
部品1
100
AcDbLine
 10
7494.172851375333
 20
3496.698150153771
 30
0.0
 11
4210.524070161958
 21
3496.698150153771
 31
0.0
  0
LINE
  5
12E28
330
747D
100
AcDbEntity
  8
仕様書枠
 48
50.0
100
AcDbLine
 10
139.9999999999963
 20
-0.0000000000004547
 30
0.0
 11
16307.2
 21
-0.0000000000004547
 31
0.0
  0
TEXT
  5
131CE
330
747D
100
AcDbEntity
  8
文字
 62
     7
 48
50.0
100
AcDbText
 10
16307.2
 20
-0.0000000000004547
 30
0.0
 40
1.0
  1
KK
  7
STYLE2
100
AcDbText
  0
DIMENSION
  5
131DA
330
747D
100
AcDbEntity
  8
寸法
 48
50.0
100
AcDbDimension
  2
*D20
 10
8625.733277086499
 20
6763.953766812917
 30
0.0
 11
8861.780521180987
 21
6763.953766812917
 31
0.0
 70
   160
 71
     5
 42
120.0
  3
INABA_S40G
100
AcDbAlignedDimension
 13
8505.7332770865
 23
6820.37446921023
 33
0.0
 14
8625.733277086499
 24
6792.64475938872
 34
0.0
100
AcDbRotatedDimension
1001
ACAD
1000
DSTYLE
1002
{
1070
   341
1005
0
1002
}
  0
LINE
  5
131F3
330
747D
100
AcDbEntity
  8
部品1
 48
50.0
100
AcDbLine
 10
8505.7332770865
 20
6549.238417208171
 30
0.0
 11
8505.7332770865
 21
7619.238417208174
 31
0.0
  0
LINE
  5
131F4
330
747D
100
AcDbEntity
  8
部品1
 48
50.0
100
AcDbLine
 10
8505.7332770865
 20
7619.238417208174
 30
0.0
 11
7435.7332770865
 21
7619.238417208174
 31
0.0
  0
LINE
  5
131F5
330
747D
100
AcDbEntity
  8
部品1
 48
50.0
100
AcDbLine
 10
7435.7332770865
 20
7619.238417208174
 30
0.0
 11
7435.7332770865
 21
6549.238417208172
 31
0.0
  0
LINE
  5
131F6
330
747D
100
AcDbEntity
  8
部品1
 48
50.0
100
AcDbLine
 10
7435.7332770865
 20
6549.238417208172
 30
0.0
 11
8505.7332770865
 21
6549.238417208171
 31
0.0
  0
DIMENSION
  5
1320B
330
747D
100
AcDbEntity
  8
寸法
 48
50.0
100
AcDbDimension
  2
*D21
 10
8302.181806664668
 20
7739.238417208174
 30
0.0
 11
8302.181806664668
 21
7975.285661302662
 31
0.0
 70
   160
 71
     5
 42
119.9999999999991
  3
INABA_S40G
100
AcDbAlignedDimension
 13
8172.545813794743
 23
7619.238417208174
 33
0.0
 14
8167.86019268669
 24
7739.238417208174
 34
0.0
 50
90.0
100
AcDbRotatedDimension
1001
ACAD
1000
DSTYLE
1002
{
1070
   341
1005
0
1002
}
  0
LEADER
  5
13499
330
747D
100
AcDbEntity
  8
寸法
 48
50.0
100
AcDbLeader
  3
INABA_S50G
 71
     0
 73
     0
 74
     0
 75
     1
 40
100.0
 41
828.6243686707642
 76
     3
 10
8279.698246349466
 20
2298.83259801157
 30
0.0
 10
8427.398411814086
 20
2142.268885781425
 30
0.0
 10
8552.398411814086
 20
2142.268885781425
 30
0.0
340
1349A
  0
MTEXT
  5
1349A
102
{ACAD_REACTORS
330
13499
102
}
330
747D
100
AcDbEntity
  8
寸法
 62
     7
 48
50.0
100
AcDbMText
 10
8577.398411814087
 20
2217.268885781425
 30
0.0
 40
100.0
 41
0.0
 71
     4
 72
     1
  1
アンカーボルト
  7
STYLE1
 73
     1
 44
1.0
1001
ACAD
1000
MTEXTBEGIN
1070
    73
1070
     1
1070
    44
1040
1.0
1070
    74
1070
     0
1000
MTEXTEND
  0
ARC
  5
1349B
330
747D
100
AcDbEntity
  8
細線
 48
50.0
100
AcDbCircle
 10
8485.741339517756
 20
3277.518561748911
 30
0.0
 40
80.0
100
AcDbArc
 50
0.0
 51
90.0
  0
ARC
  5
1349C
330
747D
100
AcDbEntity
  8
細線
 48
50.0
100
AcDbCircle
 10
8485.741339517756
 20
3197.518561748911
 30
0.0
 40
80.0
100
AcDbArc
 50
270.0
 51
0.0
  0
LINE
  5
1349D
330
747D
100
AcDbEntity
  8
Ｇ．Ｌ
 48
50.0
100
AcDbLine
 10
8362.698246349468
 20
1922.668705149492
 30
0.0
 11
8880.373123640664
 21
1922.668705149492
 31
0.0
  0
LINE
  5
1349E
330
747D
100
AcDbEntity
  8
部品1
 48
50.0
100
AcDbLine
 10
8642.698246349468
 20
1158.832598011569
 30
0.0
 11
7842.698246349468
 21
1158.832598011569
 31
0.0
  0
LINE
  5
1349F
330
747D
100
AcDbEntity
  8
部品1
 48
50.0
100
AcDbLine
 10
8642.698246349468
 20
1318.832598011569
 30
0.0
 11
7842.698246349468
 21
1318.832598011569
 31
0.0
  0
LINE
  5
134A0
330
747D
100
AcDbEntity
  8
部品1
 48
50.0
100
AcDbLine
 10
8687.308812614684
 20
631.4248336083947
 30
0.0
 11
7646.539040436448
 21
631.4248336083947
 31
0.0
  0
LINE
  5
134A1
330
747D
100
AcDbEntity
  8
部品1
 48
50.0
100
AcDbLine
 10
8687.308812614684
 20
471.4248336083946
 30
0.0
 11
7646.539040436448
 21
471.4248336083946
 31
0.0
  0
TEXT
  5
134A2
330
747D
100
AcDbEntity
  8
部品1
 48
50.0
100
AcDbText
 10
7708.141475574688
 20
505.4171253408912
 30
0.0
 40
96.0
  1
アンカー部詳細
  7
STYLE2
100
AcDbText
  0
LINE
  5
134A3
330
747D
100
AcDbEntity
  8
細線
 48
50.0
100
AcDbLine
 10
3999.80821159729
 20
331.8568885081532
 30
0.0
 11
12122.38488889029
 21
331.8568885081545
 31
0.0
  0
DIMENSION
  5
134A4
330
747D
100
AcDbEntity
  8
寸法
 48
50.0
100
AcDbDimension
  2
*D23
 10
5075.274342825056
 20
2723.302878246781
 30
0.0
 11
5195.274342825056
 21
2723.302878246781
 31
0.0
 70
   160
  1
120
 71
     5
 42
240.0
  3
INABA_S50GUP
100
AcDbAlignedDimension
 13
5315.274342825055
 23
2323.302878246781
 33
0.0
 14
5075.274342825056
 24
2323.302878246781
 34
0.0
100
AcDbRotatedDimension
1001
ACAD
1000
DSTYLE
1002
{
1070
   140
1040
100.0
1002
}
  0
LINE
  5
134A5
330
747D
100
AcDbEntity
  8
細線
 48
50.0
100
AcDbLine
 10
3999.80821159729
 20
3237.518561748912
 30
0.0
 11
3999.80821159729
 21
331.8568885081527
 31
0.0
  0
DIMENSION
  5
134A6
330
747D
100
AcDbEntity
  8
寸法
 48
50.0
100
AcDbDimension
  2
*D24
 10
8324.082861734082
 20
2864.144857961492
 30
0.0
 11
8228.775169426389
 21
2864.144857961492
 31
0.0
 70
   160
  1
88.5
 71
     5
 42
190.6153846153847
  3
INABA_S50GUP
100
AcDbAlignedDimension
 13
8133.467477118697
 23
2504.371059550031
 33
0.0
 14
8324.082861734082
 24
2505.447982626955
 34
0.0
100
AcDbRotatedDimension
1001
ACAD
1000
DSTYLE
1002
{
1070
   140
1040
100.0
1002
}
  0
DIMENSION
  5
134A7
330
747D
100
AcDbEntity
  8
寸法
 48
50.0
100
AcDbDimension
  2
*D25
 10
7581.312948428795
 20
2398.83259801157
 30
0.0
 11
7581.312948428795
 21
2728.346327064671
 31
0.0
 70
   160
  1
出30
 71
     5
 42
60.30769230769147
  3
INABA_S50GUP
100
AcDbAlignedDimension
 13
8252.698246349462
 23
2459.140290319262
 33
0.0
 14
8122.698246349466
 24
2398.83259801157
 34
0.0
 50
90.0
100
AcDbRotatedDimension
1001
ACAD
1000
DSTYLE
1002
{
1070
   140
1040
100.0
1002
}
  0
LEADER
  5
134A8
330
747D
100
AcDbEntity
  8
寸法
 48
50.0
100
AcDbLeader
  3
INABA_S50G
 71
     0
 73
     0
 74
     0
 75
     1
 40
101.39087296526
 41
174.1421356237309
 76
     3
 10
5195.274342825056
 20
1393.302878246781
 30
0.0
 10
5478.677683181355
 20
925.3990523663819
 30
0.0
 10
5603.677683181355
 20
925.3990523663819
 30
0.0
340
134A9
  0
MTEXT
  5
134A9
102
{ACAD_REACTORS
330
134A8
102
}
330
747D
100
AcDbEntity
  8
寸法
 62
     7
 48
50.0
100
AcDbMText
 10
5628.677683181354
 20
1001.094488849012
 30
0.0
 40
100.0
 41
0.0
 71
     4
 72
     1
  1
D13
  7
STYLE1
 73
     1
 44
1.0
1001
ACAD
1000
MTEXTBEGIN
1070
    73
1070
     1
1070
    44
1040
1.0
1070
    74
1070
     0
1000
MTEXTEND
  0
LINE
  5
134AA
330
747D
100
AcDbEntity
  8
細線
100
AcDbLine
 10
5245.581184016264
 20
2291.292571957074
 30
0.0
 11
5275.085252694491
 21
2289.654827259685
 31
0.0
  0
LINE
  5
134AB
330
747D
100
AcDbEntity
  8
部品1
 48
50.0
100
AcDbLine
 10
5075.274342825053
 20
2323.302878246781
 30
0.0
 11
5315.274342825055
 21
2323.302878246781
 31
0.0
  0
LINE
  5
134AC
330
747D
100
AcDbEntity
  8
細線
 48
50.0
100
AcDbLine
 10
5225.274342825054
 20
2121.268994081569
 30
0.0
 11
5315.274342825055
 21
2211.268994081569
 31
0.0
  0
LINE
  5
134AD
330
747D
100
AcDbEntity
  8
細線
 48
50.0
100
AcDbLine
 10
5210.889870953149
 20
2174.236443117676
 30
0.0
 11
5315.274342825055
 21
2278.620914989588
 31
0.0
  0
LINE
  5
134AE
330
747D
100
AcDbEntity
  8
細線
 48
50.0
100
AcDbLine
 10
5224.715226907537
 20
2154.385838618056
 30
0.0
 11
5315.274342825055
 21
2244.944954535578
 31
0.0
  0
LINE
  5
134AF
330
747D
100
AcDbEntity
  8
細線
 48
50.0
100
AcDbLine
 10
5225.274342825058
 20
1785.537270903503
 30
0.0
 11
5315.274342825055
 21
1875.5372709035
 31
0.0
  0
LINE
  5
134B0
330
747D
100
AcDbEntity
  8
細線
 48
50.0
100
AcDbLine
 10
5225.274342825058
 20
1819.213231357515
 30
0.0
 11
5315.274342825055
 21
1909.213231357515
 31
0.0
  0
LINE
  5
134B1
330
747D
100
AcDbEntity
  8
細線
 48
50.0
100
AcDbLine
 10
5225.274342825062
 20
1751.861310449496
 30
0.0
 11
5315.274342825055
 21
1841.861310449493
 31
0.0
  0
LINE
  5
134B2
330
747D
100
AcDbEntity
  8
細線
 48
50.0
100
AcDbLine
 10
5225.274342825062
 20
1516.129587271432
 30
0.0
 11
5315.274342825055
 21
1606.129587271427
 31
0.0
  0
LINE
  5
134B3
330
747D
100
AcDbEntity
  8
細線
 48
50.0
100
AcDbLine
 10
5225.274342825062
 20
1482.453626817421
 30
0.0
 11
5315.274342825055
 21
1572.453626817418
 31
0.0
  0
LINE
  5
134B4
330
747D
100
AcDbEntity
  8
細線
 48
50.0
100
AcDbLine
 10
5225.274342825062
 20
1549.805547725442
 30
0.0
 11
5315.274342825055
 21
1639.805547725436
 31
0.0
  0
LINE
  5
134B5
330
747D
100
AcDbEntity
  8
細線
 48
50.0
100
AcDbLine
 10
5223.142297277686
 20
1083.302878246781
 30
0.0
 11
5266.014168066664
 21
1243.302878246781
 31
0.0
  0
LINE
  5
134B6
330
747D
100
AcDbEntity
  8
細線
 48
50.0
100
AcDbLine
 10
5221.855317432485
 20
1243.302878246781
 30
0.0
 11
5341.855317432484
 21
1363.302878246781
 31
0.0
  0
LINE
  5
134B7
330
747D
100
AcDbEntity
  8
細線
 48
50.0
100
AcDbLine
 10
5188.179356978471
 20
1243.302878246781
 30
0.0
 11
5308.179356978471
 21
1363.302878246781
 31
0.0
  0
LINE
  5
134B8
330
747D
100
AcDbEntity
  8
細線
 48
50.0
100
AcDbLine
 10
5255.53127788649
 20
1243.302878246781
 30
0.0
 11
5375.532387692918
 21
1363.303988053205
 31
0.0
  0
DIMENSION
  5
134B9
330
747D
100
AcDbEntity
  8
寸法
 48
50.0
100
AcDbDimension
  2
*D26
 10
5495.274342825056
 20
784.3507717908469
 30
0.0
 11
5195.274342825056
 21
784.3507717908469
 31
0.0
 70
   160
  1
300
 71
     5
 42
600.0
  3
INABA_S50GUP
100
AcDbAlignedDimension
 13
4895.274342825056
 23
1083.302878246781
 33
0.0
 14
5495.274342825056
 24
1083.302878246781
 34
0.0
100
AcDbRotatedDimension
1001
ACAD
1000
DSTYLE
1002
{
1070
   140
1040
100.0
1002
}
  0
LINE
  5
134BA
330
747D
100
AcDbEntity
  8
部品1
 48
50.0
100
AcDbLine
 10
5595.274342825054
 20
1243.302878246781
 30
0.0
 11
4795.274342825054
 21
1243.302878246781
 31
0.0
  0
LINE
  5
134BB
330
747D
100
AcDbEntity
  8
部品1
 48
50.0
100
AcDbLine
 10
5595.274342825054
 20
1083.302878246781
 30
0.0
 11
4795.274342825054
 21
1083.302878246781
 31
0.0
  0
LINE
  5
134BC
330
747D
100
AcDbEntity
  8
部品1
 48
50.0
100
AcDbLine
 10
4965.274342825054
 20
1383.302878246781
 30
0.0
 11
5425.274342825054
 21
1383.302878246781
 31
0.0
  0
LINE
  5
134BD
330
747D
100
AcDbEntity
  8
部品1
 48
50.0
100
AcDbLine
 10
4965.274342825054
 20
1363.302878246781
 30
0.0
 11
5425.274342825054
 21
1363.302878246781
 31
0.0
  0
LINE
  5
134BE
330
747D
100
AcDbEntity
  8
細線
 48
50.0
100
AcDbLine
 10
5075.274342825053
 20
1601.861310449494
 30
0.0
 11
5205.274342825061
 21
1731.861310449496
 31
0.0
  0
LINE
  5
134BF
330
747D
100
AcDbEntity
  8
部品1
 48
50.0
100
AcDbLine
 10
5205.274342825061
 20
1393.302878246781
 30
0.0
 11
5205.274342825054
 21
2148.620914989588
 31
0.0
  0
LINE
  5
134C0
330
747D
100
AcDbEntity
  8
部品1
 48
50.0
100
AcDbLine
 10
5225.274342825062
 20
1393.302878246781
 30
0.0
 11
5225.274342825054
 21
2148.620914989588
 31
0.0
  0
LINE
  5
134C1
330
747D
100
AcDbEntity
  8
部品1
 48
50.0
100
AcDbLine
 10
5075.274342825053
 20
1543.302878246781
 30
0.0
 11
5075.274342825053
 21
2323.302878246781
 31
0.0
  0
DIMENSION
  5
134C2
330
747D
100
AcDbEntity
  8
寸法
 48
50.0
100
AcDbDimension
  2
*D27
 10
4220.804975025901
 20
1243.302878246781
 30
0.0
 11
4220.804975025901
 21
1820.097814844491
 31
0.0
 70
   160
  1
540
 71
     5
 42
1080.0
  3
INABA_S50GUP
100
AcDbAlignedDimension
 13
5075.274342825056
 23
2323.302878246781
 33
0.0
 14
4815.274342825057
 24
1243.302878246781
 34
0.0
 50
90.0
100
AcDbRotatedDimension
1001
ACAD
1000
DSTYLE
1002
{
1070
   140
1040
100.0
1002
}
  0
DIMENSION
  5
134C3
330
747D
100
AcDbEntity
  8
寸法
 48
50.0
100
AcDbDimension
  2
*D28
 10
4452.003998493448
 20
1243.302878246781
 30
0.0
 11
4452.003998493448
 21
1417.629472638924
 31
0.0
 70
   160
  1
150
 71
     5
 42
300.0
  3
INABA_S50GUP
100
AcDbAlignedDimension
 13
4915.274342825056
 23
1543.302878246781
 33
0.0
 14
4815.274342825057
 24
1243.302878246781
 34
0.0
 50
90.0
100
AcDbRotatedDimension
1001
ACAD
1000
DSTYLE
1002
{
1070
   140
1040
100.0
1002
}
  0
LEADER
  5
134C4
330
747D
100
AcDbEntity
  8
寸法
 48
50.0
100
AcDbLeader
  3
INABA_S50G
 71
     0
 73
     0
 75
     1
 40
101.39087296526
 41
170.0787401574803
 76
     3
 10
5035.019966972491
 20
1393.302878246781
 30
0.0
 10
4798.123681296345
 20
1048.329188460015
 30
0.0
 10
4673.123681296345
 20
1048.329188460015
 30
0.0
340
134C5
  0
MTEXT
  5
134C5
102
{ACAD_REACTORS
330
134C4
102
}
330
747D
100
AcDbEntity
  8
寸法
 62
     7
 48
50.0
100
AcDbMText
 10
4648.123681296345
 20
1124.024624942645
 30
0.0
 40
100.0
 41
0.0
 71
     6
 72
     1
  1
D10
  7
STYLE1
 73
     1
 44
1.0
1001
ACAD
1000
MTEXTBEGIN
1070
    73
1070
     1
1070
    44
1040
1.0
1070
    74
1070
     0
1000
MTEXTEND
  0
LINE
  5
134C6
330
747D
100
AcDbEntity
  8
細線
 48
50.0
100
AcDbLine
 10
4828.702072541441
 20
1083.302878246781
 30
0.0
 11
4871.573943330423
 21
1243.302878246781
 31
0.0
  0
LINE
  5
134C7
330
747D
100
AcDbEntity
  8
部品1
 48
50.0
100
AcDbLine
 10
4795.274342825054
 20
1083.302878246781
 30
0.0
 11
4795.274342825054
 21
1243.302878246781
 31
0.0
  0
LINE
  5
134C8
330
747D
100
AcDbEntity
  8
細線
 48
50.0
100
AcDbLine
 10
4836.740548314377
 20
1113.302878246781
 30
0.0
 11
4844.779024087311
 21
1083.302878246781
 31
0.0
  0
LINE
  5
134C9
330
747D
100
AcDbEntity
  8
細線
 48
50.0
100
AcDbLine
 10
4986.123594254415
 20
1243.302878246781
 30
0.0
 11
5106.123594254416
 21
1363.302878246781
 31
0.0
  0
LINE
  5
134CA
330
747D
100
AcDbEntity
  8
部品1
 48
50.0
100
AcDbLine
 10
4895.274342825054
 20
1243.302878246781
 30
0.0
 11
4895.274342825054
 21
1543.302878246781
 31
0.0
  0
LINE
  5
134CB
330
747D
100
AcDbEntity
  8
細線
 48
50.0
100
AcDbLine
 10
4952.44763380041
 20
1243.302878246781
 30
0.0
 11
5072.447633800409
 21
1363.302878246781
 31
0.0
  0
LINE
  5
134CC
330
747D
100
AcDbEntity
  8
細線
 48
50.0
100
AcDbLine
 10
4918.771673346396
 20
1243.302878246781
 30
0.0
 11
5038.771673346396
 21
1363.302878246781
 31
0.0
  0
LINE
  5
134CD
330
747D
100
AcDbEntity
  8
細線
 48
50.0
100
AcDbLine
 10
5025.922184909563
 20
1083.302878246781
 30
0.0
 11
5068.794055698545
 21
1243.302878246781
 31
0.0
  0
LINE
  5
134CE
330
747D
100
AcDbEntity
  8
細線
 48
50.0
100
AcDbLine
 10
5060.755579925611
 20
1213.302878246781
 30
0.0
 11
5052.717104152678
 21
1243.302878246781
 31
0.0
  0
LINE
  5
134CF
330
747D
100
AcDbEntity
  8
細線
 48
50.0
100
AcDbLine
 10
5033.9606606825
 20
1113.302878246781
 30
0.0
 11
5041.999136455434
 21
1083.302878246781
 31
0.0
  0
LINE
  5
134D0
330
747D
100
AcDbEntity
  8
細線
 48
50.0
100
AcDbLine
 10
4935.350604498438
 20
1113.302878246781
 30
0.0
 11
4943.389080271373
 21
1083.302878246781
 31
0.0
  0
LINE
  5
134D1
330
747D
100
AcDbEntity
  8
細線
 48
50.0
100
AcDbLine
 10
4863.535467557489
 20
1213.302878246781
 30
0.0
 11
4855.496991784555
 21
1243.302878246781
 31
0.0
  0
LINE
  5
134D2
330
747D
100
AcDbEntity
  8
細線
 48
50.0
100
AcDbLine
 10
4962.145523741551
 20
1213.302878246781
 30
0.0
 11
4954.107047968617
 21
1243.302878246781
 31
0.0
  0
LINE
  5
134D3
330
747D
100
AcDbEntity
  8
細線
 48
50.0
100
AcDbLine
 10
4927.312128725501
 20
1083.302878246781
 30
0.0
 11
4970.183999514484
 21
1243.302878246781
 31
0.0
  0
LINE
  5
134D4
330
747D
100
AcDbEntity
  8
細線
 48
50.0
100
AcDbLine
 10
5231.180773050619
 20
1113.302878246781
 30
0.0
 11
5239.219248823552
 21
1083.302878246781
 31
0.0
  0
LINE
  5
134D5
330
747D
100
AcDbEntity
  8
細線
 48
50.0
100
AcDbLine
 10
5257.975692293734
 20
1213.302878246781
 30
0.0
 11
5249.937216520801
 21
1243.302878246781
 31
0.0
  0
LINE
  5
134D6
330
747D
100
AcDbEntity
  8
細線
 48
50.0
100
AcDbLine
 10
5132.570716866561
 20
1113.302878246781
 30
0.0
 11
5140.609192639495
 21
1083.302878246781
 31
0.0
  0
LINE
  5
134D7
330
747D
100
AcDbEntity
  8
細線
 48
50.0
100
AcDbLine
 10
5124.532241093624
 20
1083.302878246781
 30
0.0
 11
5167.404111882603
 21
1243.302878246781
 31
0.0
  0
LINE
  5
134D8
330
747D
100
AcDbEntity
  8
細線
 48
50.0
100
AcDbLine
 10
5159.365636109672
 20
1213.302878246781
 30
0.0
 11
5151.327160336739
 21
1243.302878246781
 31
0.0
  0
LINE
  5
134D9
330
747D
100
AcDbEntity
  8
細線
 48
50.0
100
AcDbLine
 10
5058.771673346397
 20
1383.302878246781
 30
0.0
 11
5205.274342825054
 21
1529.80554772544
 31
0.0
  0
LINE
  5
134DA
330
747D
100
AcDbEntity
  8
部品1
 48
50.0
100
AcDbLine
 10
4895.274342825054
 20
1543.302878246781
 30
0.0
 11
5075.274342825053
 21
1543.302878246781
 31
0.0
  0
CIRCLE
  5
134DB
330
747D
100
AcDbEntity
  8
部品1
 48
50.0
100
AcDbCircle
 10
5035.274342825054
 20
1393.302878246781
 30
0.0
 40
10.0
  0
LINE
  5
134DC
330
747D
100
AcDbEntity
  8
細線
 48
50.0
100
AcDbLine
 10
4895.274342825054
 20
1489.213231357515
 30
0.0
 11
4949.363989714322
 21
1543.302878246781
 31
0.0
  0
LINE
  5
134DD
330
747D
100
AcDbEntity
  8
部品1
 48
50.0
100
AcDbLine
 10
4965.274342825054
 20
1363.302878246781
 30
0.0
 11
4965.274342825054
 21
1383.302878246781
 31
0.0
  0
LINE
  5
134DE
330
747D
100
AcDbEntity
  8
細線
 48
50.0
100
AcDbLine
 10
4895.274342825057
 20
1421.861310449495
 30
0.0
 11
5016.715910622341
 21
1543.302878246781
 31
0.0
  0
LINE
  5
134DF
330
747D
100
AcDbEntity
  8
細線
 48
50.0
100
AcDbLine
 10
4895.274342825054
 20
1455.537270903505
 30
0.0
 11
4983.039950168335
 21
1543.302878246781
 31
0.0
  0
CIRCLE
  5
134E0
330
747D
100
AcDbEntity
  8
部品1
 48
50.0
100
AcDbCircle
 10
5195.274342825054
 20
1393.302878246781
 30
0.0
 40
10.0
  0
LINE
  5
134E1
330
747D
100
AcDbEntity
  8
部品1
 48
50.0
100
AcDbLine
 10
5185.274342825054
 20
1465.961896618184
 30
0.0
 11
5185.274342825054
 21
1393.302878246781
 31
0.0
  0
ARC
  5
134E2
330
747D
100
AcDbEntity
  8
部品1
 48
50.0
100
AcDbCircle
 10
5195.274342825054
 20
1393.302878246781
 30
0.0
 40
30.0
100
AcDbArc
 50
340.5287793654832
 51
0.0
  0
LINE
  5
134E3
330
747D
100
AcDbEntity
  8
細線
 48
50.0
100
AcDbLine
 10
5175.106652171812
 20
1465.961896618184
 30
0.0
 11
5205.274342825061
 21
1496.129587271431
 31
0.0
  0
LINE
  5
134E4
330
747D
100
AcDbEntity
  8
細線
 48
50.0
100
AcDbLine
 10
5185.274342825057
 20
1442.453626817419
 30
0.0
 11
5205.274342825061
 21
1462.453626817421
 31
0.0
  0
LINE
  5
134E5
330
747D
100
AcDbEntity
  8
細線
 48
50.0
100
AcDbLine
 10
5126.123594254416
 20
1383.302878246781
 30
0.0
 11
5165.274342825054
 21
1422.453626817418
 31
0.0
  0
LINE
  5
134E6
330
747D
100
AcDbEntity
  8
部品1
 48
50.0
100
AcDbLine
 10
5165.274342825054
 20
1465.961896618184
 30
0.0
 11
5165.274342825054
 21
1393.302878246781
 31
0.0
  0
LINE
  5
134E7
330
747D
100
AcDbEntity
  8
細線
 48
50.0
100
AcDbLine
 10
5092.44763380041
 20
1383.302878246781
 30
0.0
 11
5165.274342825054
 21
1456.129587271429
 31
0.0
  0
ARC
  5
134E8
330
747D
100
AcDbEntity
  8
部品1
 48
50.0
100
AcDbCircle
 10
5195.274342825054
 20
1393.302878246781
 30
0.0
 40
30.0
100
AcDbArc
 50
180.0
 51
199.4712206345168
  0
LINE
  5
134E9
330
747D
100
AcDbEntity
  8
部品1
 48
50.0
100
AcDbLine
 10
5185.274342825054
 20
1465.961896618184
 30
0.0
 11
5165.274342825054
 21
1465.961896618184
 31
0.0
  0
LEADER
  5
134EA
330
747D
100
AcDbEntity
  8
寸法
 48
50.0
100
AcDbLeader
  3
INABA_S50G
 71
     0
 73
     0
 75
     1
 40
132.9441738241594
 41
490.0787401574802
 76
     3
 10
5213.832138363065
 20
2020.961896618184
 30
0.0
 10
4990.561507863051
 20
1749.744844085712
 30
0.0
 10
4865.561507863051
 20
1749.744844085712
 30
0.0
340
134EB
213
-20.50276907354419
223
30.78492082892717
233
0.0
  0
MTEXT
  5
134EB
102
{ACAD_REACTORS
330
134EA
102
}
330
747D
100
AcDbEntity
  8
寸法
 62
     7
 48
50.0
100
AcDbMText
 10
4861.064276936595
 20
1810.432010168864
 30
0.0
 40
100.0
 41
0.0
 71
     6
 72
     1
  1
\A1;D10@300
  7
STYLE1
 73
     1
 44
1.0
1001
ACAD
1000
MTEXTBEGIN
1070
    73
1070
     1
1070
    44
1040
1.0
1070
    74
1070
     0
1000
MTEXTEND
  0
LEADER
  5
134EC
330
747D
100
AcDbEntity
  8
寸法
 48
50.0
100
AcDbLeader
  3
INABA_S50G
 71
     0
 73
     0
 75
     1
 40
100.0
 41
585.0000000000001
 76
     3
 10
5175.274342825056
 20
2323.302878246781
 30
0.0
 10
5142.887086428063
 20
2513.948153249334
 30
0.0
 10
5017.887086428063
 20
2513.948153249334
 30
0.0
340
134ED
  0
MTEXT
  5
134ED
102
{ACAD_REACTORS
330
134EC
102
}
330
747D
100
AcDbEntity
  8
寸法
 62
     7
 48
50.0
100
AcDbMText
 10
4992.887086428063
 20
2588.948153249334
 30
0.0
 40
100.0
 41
0.0
 71
     6
 72
     1
  1
\A1;金コテ押エ
  7
STYLE1
 73
     1
 44
1.0
1001
ACAD
1000
MTEXTBEGIN
1070
    73
1070
     1
1070
    44
1040
1.0
1070
    74
1070
     0
1000
MTEXTEND
  0
MTEXT
  5
134EE
102
{ACAD_REACTORS
330
134EF
102
}
330
747D
100
AcDbEntity
  8
寸法
 62
     7
 48
50.0
100
AcDbMText
 10
4935.691748421377
 20
2167.973893597038
 30
0.0
 40
100.0
 41
0.0
 71
     6
 72
     1
  1
D13
  7
STYLE1
 73
     1
 44
1.0
1001
ACAD
1000
MTEXTBEGIN
1070
    73
1070
     1
1070
    44
1040
1.0
1070
    74
1070
     0
1000
MTEXTEND
  0
LEADER
  5
134EF
330
747D
100
AcDbEntity
  8
寸法
 48
50.0
100
AcDbLeader
  3
INABA_S50G
 71
     0
 73
     0
 40
101.39087296526
 41
174.1421356237309
 76
     2
 10
5195.274342825056
 20
2148.620914989588
 30
0.0
 10
4960.691748421377
 20
2092.278457114408
 30
0.0
340
134EE
  0
TEXT
  5
134F0
330
747D
100
AcDbEntity
  8
部品1
 48
50.0
100
AcDbText
 10
4705.947732108234
 20
1932.668705149492
 30
0.0
 40
100.0
  1
G.L
  7
STYLE1
100
AcDbText
  0
LINE
  5
134F1
330
747D
100
AcDbEntity
  8
Ｇ．Ｌ
 48
50.0
100
AcDbLine
 10
4557.599465533858
 20
1923.302878246781
 30
0.0
 11
5075.274342825053
 21
1923.302878246781
 31
0.0
  0
LINE
  5
134F2
330
747D
100
AcDbEntity
  8
部品1
 48
50.0
100
AcDbLine
 10
4607.473378637179
 20
2006.773003095204
 30
0.0
 11
4703.856376738236
 21
2006.773003095204
 31
0.0
  0
LINE
  5
134F3
330
747D
100
AcDbEntity
  8
部品1
 48
50.0
100
AcDbLine
 10
4607.473378637179
 20
2006.773003095204
 30
0.0
 11
4655.664877687708
 21
1923.302878246781
 31
0.0
  0
LINE
  5
134F4
330
747D
100
AcDbEntity
  8
部品1
 48
50.0
100
AcDbLine
 10
4703.856376738236
 20
2006.773003095204
 30
0.0
 11
4655.664877687708
 21
1923.302878246781
 31
0.0
  0
LINE
  5
134F5
330
747D
100
AcDbEntity
  8
細線
 48
50.0
100
AcDbLine
 10
5075.274342825053
 20
1669.213231357513
 30
0.0
 11
5205.274342825054
 21
1799.213231357514
 31
0.0
  0
LINE
  5
134F6
330
747D
100
AcDbEntity
  8
細線
 48
50.0
100
AcDbLine
 10
5075.274342825053
 20
1635.537270903504
 30
0.0
 11
5205.274342825058
 21
1765.537270903501
 31
0.0
  0
LINE
  5
134F7
330
747D
100
AcDbEntity
  8
細線
 48
50.0
100
AcDbLine
 10
5185.274342825057
 20
2081.268994081569
 30
0.0
 11
5205.274342825054
 21
2101.268994081569
 31
0.0
  0
LINE
  5
134F8
330
747D
100
AcDbEntity
  8
細線
 48
50.0
100
AcDbLine
 10
5185.274342825054
 20
2114.944954535578
 30
0.0
 11
5205.274342825054
 21
2134.944954535578
 31
0.0
  0
LINE
  5
134F9
330
747D
100
AcDbEntity
  8
部品1
 48
50.0
100
AcDbLine
 10
5185.274342825054
 20
2075.961896618184
 30
0.0
 11
5185.274342825054
 21
2148.620914989588
 31
0.0
  0
CIRCLE
  5
134FA
330
747D
100
AcDbEntity
  8
部品1
 48
50.0
100
AcDbCircle
 10
5195.274342825054
 20
2148.620914989588
 30
0.0
 40
10.0
  0
LINE
  5
134FB
330
747D
100
AcDbEntity
  8
細線
 48
50.0
100
AcDbLine
 10
5075.274342825053
 20
2004.944954535579
 30
0.0
 11
5165.274342825054
 21
2094.944954535578
 31
0.0
  0
LINE
  5
134FC
330
747D
100
AcDbEntity
  8
細線
 48
50.0
100
AcDbLine
 10
5075.274342825053
 20
2038.620914989587
 30
0.0
 11
5165.274342825054
 21
2128.620914989588
 31
0.0
  0
LINE
  5
134FD
330
747D
100
AcDbEntity
  8
部品1
 48
50.0
100
AcDbLine
 10
5165.274342825054
 20
2075.961896618186
 30
0.0
 11
5165.274342825054
 21
2148.62091498959
 31
0.0
  0
LINE
  5
134FE
330
747D
100
AcDbEntity
  8
細線
 48
50.0
100
AcDbLine
 10
5075.274342825053
 20
1971.268994081569
 30
0.0
 11
5179.967245361673
 21
2075.961896618184
 31
0.0
  0
LINE
  5
134FF
330
747D
100
AcDbEntity
  8
部品1
 48
50.0
100
AcDbLine
 10
5185.274342825054
 20
2075.961896618184
 30
0.0
 11
5165.274342825054
 21
2075.961896618186
 31
0.0
  0
ARC
  5
13500
330
747D
100
AcDbEntity
  8
部品1
 48
50.0
100
AcDbCircle
 10
5195.274342825054
 20
2148.620914989588
 30
0.0
 40
30.0
100
AcDbArc
 50
0.0
 51
180.0
  0
LINE
  5
13501
330
747D
100
AcDbEntity
  8
細線
100
AcDbLine
 10
5189.851195377829
 20
2289.654827259685
 30
0.0
 11
5245.581184016264
 21
2291.292571957074
 31
0.0
  0
LINE
  5
13502
330
747D
100
AcDbEntity
  8
細線
 48
50.0
100
AcDbLine
 10
5075.274342825053
 20
2240.676677713643
 30
0.0
 11
5117.701683872481
 21
2283.104018761069
 31
0.0
  0
LINE
  5
13503
330
747D
100
AcDbEntity
  8
細線
 48
50.0
100
AcDbLine
 10
5075.274342825053
 20
2274.352638167653
 30
0.0
 11
5089.997855636364
 21
2289.076150978959
 31
0.0
  0
LINE
  5
13504
330
747D
100
AcDbEntity
  8
細線
100
AcDbLine
 10
5075.274342825053
 20
2292.93025989082
 30
0.0
 11
5112.812666331083
 21
2283.104018761069
 31
0.0
  0
LINE
  5
13505
330
747D
100
AcDbEntity
  8
細線
100
AcDbLine
 10
5112.812666331083
 20
2283.104018761069
 30
0.0
 11
5148.873241078516
 21
2283.104018761069
 31
0.0
  0
LINE
  5
13506
330
747D
100
AcDbEntity
  8
細線
100
AcDbLine
 10
5148.873241078516
 20
2283.104018761069
 30
0.0
 11
5189.851195377829
 21
2289.654827259685
 31
0.0
  0
LEADER
  5
13507
330
747D
100
AcDbEntity
  8
寸法
 48
50.0
100
AcDbLeader
  3
INABA_S50G
 71
     0
 73
     0
 74
     0
 75
     1
 40
100.0
 41
154.6599025766975
 76
     3
 10
6579.961923933874
 20
2258.610608833181
 30
0.0
 10
6634.243474417994
 20
2482.650496942917
 30
0.0
 10
6759.243474417994
 20
2482.650496942917
 30
0.0
340
13508
  0
MTEXT
  5
13508
102
{ACAD_REACTORS
330
13507
102
}
330
747D
100
AcDbEntity
  8
寸法
 62
     7
 48
50.0
100
AcDbMText
 10
6784.243474417994
 20
2557.650496942916
 30
0.0
 40
100.0
 41
0.0
 71
     4
 72
     1
  1
C.B
  7
STYLE1
 73
     1
 44
1.0
1001
ACAD
1000
MTEXTBEGIN
1070
    73
1070
     1
1070
    44
1040
1.0
1070
    74
1070
     0
1000
MTEXTEND
  0
LINE
  5
13509
330
747D
100
AcDbEntity
  8
細線
100
AcDbLine
 10
6861.955556344284
 20
2023.302878246782
 30
0.0
 11
6917.142962022859
 21
2078.490283925359
 31
0.0
  0
LINE
  5
1350A
330
747D
100
AcDbEntity
  8
細線
100
AcDbLine
 10
6821.955556344287
 20
2023.302878246782
 30
0.0
 11
6917.142962022859
 21
2118.490283925353
 31
0.0
  0
LINE
  5
1350B
330
747D
100
AcDbEntity
  8
細線
 48
50.0
100
AcDbLine
 10
6893.5014370838
 20
1713.302878246782
 30
0.0
 11
6936.373307872779
 21
1873.302878246782
 31
0.0
  0
LINE
  5
1350C
330
747D
100
AcDbEntity
  8
細線
 48
50.0
100
AcDbLine
 10
6901.539912856733
 20
1743.302878246782
 30
0.0
 11
6909.578388629667
 21
1713.302878246782
 31
0.0
  0
LINE
  5
1350D
330
747D
100
AcDbEntity
  8
Ｇ．Ｌ
 48
50.0
100
AcDbLine
 10
5315.274342825055
 20
2023.302878246781
 30
0.0
 11
7343.383302437127
 21
2023.302878246782
 31
0.0
  0
LINE
  5
1350E
330
747D
100
AcDbEntity
  8
部品1
100
AcDbLine
 10
5891.44301570403
 20
1713.302878246785
 30
0.0
 11
7162.842908341689
 21
1713.302878246785
 31
0.0
  0
LINE
  5
1350F
330
747D
100
AcDbEntity
  8
部品1
100
AcDbLine
 10
5891.44301570403
 20
1873.302878246782
 30
0.0
 11
7162.842908341689
 21
1873.302878246782
 31
0.0
  0
LINE
  5
13510
330
747D
100
AcDbEntity
  8
部品1
 48
50.0
100
AcDbLine
 10
6917.142962022859
 20
2323.302878246781
 30
0.0
 11
6137.142962022859
 21
2323.302878246781
 31
0.0
  0
LINE
  5
13511
330
747D
100
AcDbEntity
  8
部品1
 48
50.0
100
AcDbLine
 10
5315.274342825055
 20
2323.302878246781
 30
0.0
 11
5315.274342825055
 21
1543.302878246781
 31
0.0
  0
LEADER
  5
13512
330
747D
100
AcDbEntity
  8
寸法
 48
50.0
100
AcDbLeader
  3
INABA_S50G
 71
     0
 73
     0
 74
     0
 75
     1
 40
132.9441738241594
 41
490.0787401574802
 76
     3
 10
5399.268273977555
 20
1374.588485476874
 30
0.0
 10
5553.261308984133
 20
1138.222651867414
 30
0.0
 10
5678.261308984133
 20
1138.222651867414
 30
0.0
340
13513
  0
MTEXT
  5
13513
102
{ACAD_REACTORS
330
13512
102
}
330
747D
100
AcDbEntity
  8
寸法
 62
     7
 48
50.0
100
AcDbMText
 10
5703.261308984132
 20
1229.694738779493
 30
0.0
 40
100.0
 41
0.0
 71
     4
 72
     1
  1
\A1;D10@300
  7
STYLE1
 73
     1
 44
1.0
1001
ACAD
1000
MTEXTBEGIN
1070
    73
1070
     1
1070
    44
1040
1.0
1070
    74
1070
     0
1000
MTEXTEND
  0
TEXT
  5
13514
330
747D
100
AcDbEntity
  8
部品1
 48
50.0
100
AcDbText
 10
5364.410424022524
 20
502.6326198130663
 30
0.0
 40
96.0
  1
基礎断面
  7
STYLE2
100
AcDbText
  0
LINE
  5
13515
330
747D
100
AcDbEntity
  8
部品1
 48
50.0
100
AcDbLine
 10
5962.219922678309
 20
631.4248336083947
 30
0.0
 11
5322.219922678309
 21
631.4248336083947
 31
0.0
  0
LINE
  5
13516
330
747D
100
AcDbEntity
  8
部品1
 48
50.0
100
AcDbLine
 10
5962.219922678309
 20
471.4248336083946
 30
0.0
 11
5322.219922678309
 21
471.4248336083946
 31
0.0
  0
LINE
  5
13517
330
747D
100
AcDbEntity
  8
部品1
 48
50.0
100
AcDbLine
 10
5322.219922678309
 20
631.4248336083947
 30
0.0
 11
5322.219922678309
 21
471.4248336083946
 31
0.0
  0
LINE
  5
13518
330
747D
100
AcDbEntity
  8
部品1
 48
50.0
100
AcDbLine
 10
5962.219922678309
 20
631.4248336083947
 30
0.0
 11
5962.219922678309
 21
471.4248336083946
 31
0.0
  0
LEADER
  5
13519
330
747D
100
AcDbEntity
  8
寸法
 48
50.0
100
AcDbLeader
  3
INABA_S50G
 71
     0
 73
     0
 74
     0
 75
     1
 40
101.39087296526
 41
170.0787401574803
 76
     3
 10
5355.274342825055
 20
1393.302878246781
 30
0.0
 10
5409.555893309175
 20
1616.647329873886
 30
0.0
 10
5534.555893309175
 20
1616.647329873886
 30
0.0
340
1351A
  0
MTEXT
  5
1351A
102
{ACAD_REACTORS
330
13519
102
}
330
747D
100
AcDbEntity
  8
寸法
 62
     7
 48
50.0
100
AcDbMText
 10
5559.555893309174
 20
1692.342766356516
 30
0.0
 40
100.0
 41
0.0
 71
     4
 72
     1
  1
D10
  7
STYLE1
 73
     1
 44
1.0
1001
ACAD
1000
MTEXTBEGIN
1070
    73
1070
     1
1070
    44
1040
1.0
1070
    74
1070
     0
1000
MTEXTEND
  0
LINE
  5
1351B
330
747D
100
AcDbEntity
  8
部品1
 48
50.0
100
AcDbLine
 10
5495.274342825054
 20
1543.302878246781
 30
0.0
 11
5495.274342825054
 21
1243.302878246781
 31
0.0
  0
LINE
  5
1351C
330
747D
100
AcDbEntity
  8
細線
 48
50.0
100
AcDbLine
 10
5457.587040610546
 20
1243.302878246781
 30
0.0
 11
5495.274342825054
 21
1280.990180461286
 31
0.0
  0
LINE
  5
1351D
330
747D
100
AcDbEntity
  8
細線
 48
50.0
100
AcDbLine
 10
5428.400885418741
 20
1113.302878246781
 30
0.0
 11
5436.439361191674
 21
1083.302878246781
 31
0.0
  0
LINE
  5
1351E
330
747D
100
AcDbEntity
  8
細線
 48
50.0
100
AcDbLine
 10
5420.362409645807
 20
1083.302878246781
 30
0.0
 11
5463.234280434786
 21
1243.302878246781
 31
0.0
  0
LINE
  5
1351F
330
747D
100
AcDbEntity
  8
細線
 48
50.0
100
AcDbLine
 10
5455.195804661856
 20
1213.302878246781
 30
0.0
 11
5447.157328888923
 21
1243.302878246781
 31
0.0
  0
LINE
  5
13520
330
747D
100
AcDbEntity
  8
細線
 48
50.0
100
AcDbLine
 10
5329.79082923468
 20
1113.302878246781
 30
0.0
 11
5337.829305007613
 21
1083.302878246781
 31
0.0
  0
LINE
  5
13521
330
747D
100
AcDbEntity
  8
細線
 48
50.0
100
AcDbLine
 10
5321.752353461747
 20
1083.302878246781
 30
0.0
 11
5364.624224250725
 21
1243.302878246781
 31
0.0
  0
LINE
  5
13522
330
747D
100
AcDbEntity
  8
細線
 48
50.0
100
AcDbLine
 10
5356.585748477795
 20
1213.302878246781
 30
0.0
 11
5348.547272704862
 21
1243.302878246781
 31
0.0
  0
LINE
  5
13523
330
747D
100
AcDbEntity
  8
部品1
 48
50.0
100
AcDbLine
 10
5595.274342825054
 20
1083.302878246781
 30
0.0
 11
5595.274342825054
 21
1243.302878246781
 31
0.0
  0
LINE
  5
13524
330
747D
100
AcDbEntity
  8
細線
 48
50.0
100
AcDbLine
 10
5491.26300106456
 20
1243.302878246781
 30
0.0
 11
5495.274342825054
 21
1247.314220007278
 31
0.0
  0
LINE
  5
13525
330
747D
100
AcDbEntity
  8
細線
 48
50.0
100
AcDbLine
 10
5527.010941602803
 20
1113.302878246781
 30
0.0
 11
5535.049417375736
 21
1083.302878246781
 31
0.0
  0
LINE
  5
13526
330
747D
100
AcDbEntity
  8
細線
 48
50.0
100
AcDbLine
 10
5518.972465829869
 20
1083.302878246781
 30
0.0
 11
5561.844336618848
 21
1243.302878246781
 31
0.0
  0
LINE
  5
13527
330
747D
100
AcDbEntity
  8
細線
 48
50.0
100
AcDbLine
 10
5553.805860845918
 20
1213.302878246781
 30
0.0
 11
5545.767385072984
 21
1243.302878246781
 31
0.0
  0
LINE
  5
13528
330
747D
100
AcDbEntity
  8
細線
 48
50.0
100
AcDbLine
 10
5395.531277886494
 20
1383.302878246781
 30
0.0
 11
5495.274342825054
 21
1483.045943185342
 31
0.0
  0
LINE
  5
13529
330
747D
100
AcDbEntity
  8
細線
 48
50.0
100
AcDbLine
 10
5361.855317432485
 20
1383.302878246781
 30
0.0
 11
5495.274342825054
 21
1516.721903639354
 31
0.0
  0
LINE
  5
1352A
330
747D
100
AcDbEntity
  8
部品1
 48
50.0
100
AcDbLine
 10
5315.274342825055
 20
1543.302878246781
 30
0.0
 11
5495.274342825054
 21
1543.302878246781
 31
0.0
  0
LINE
  5
1352B
330
747D
100
AcDbEntity
  8
細線
 48
50.0
100
AcDbLine
 10
5328.179356978467
 20
1383.302878246781
 30
0.0
 11
5488.179356978474
 21
1543.302878246781
 31
0.0
  0
CIRCLE
  5
1352C
330
747D
100
AcDbEntity
  8
部品1
 48
50.0
100
AcDbCircle
 10
5355.274342825055
 20
1393.302878246781
 30
0.0
 40
10.0
  0
LINE
  5
1352D
330
747D
100
AcDbEntity
  8
部品1
 48
50.0
100
AcDbLine
 10
5425.274342825054
 20
1363.302878246781
 30
0.0
 11
5425.274342825054
 21
1383.302878246781
 31
0.0
  0
LINE
  5
1352E
330
747D
100
AcDbEntity
  8
細線
100
AcDbLine
 10
6203.883686491693
 20
1873.302878246782
 30
0.0
 11
6053.883686491694
 21
2023.302878246782
 31
0.0
  0
LINE
  5
1352F
330
747D
100
AcDbEntity
  8
細線
100
AcDbLine
 10
6163.883686491681
 20
1873.302878246782
 30
0.0
 11
6013.883686491674
 21
2023.302878246782
 31
0.0
  0
LINE
  5
13530
330
747D
100
AcDbEntity
  8
部品1
100
AcDbLine
 10
5991.44301570403
 20
2023.302878246782
 30
0.0
 11
5991.443015704032
 21
1873.302878246782
 31
0.0
  0
LINE
  5
13531
330
747D
100
AcDbEntity
  8
細線
 48
50.0
100
AcDbLine
 10
6040.844326443301
 20
1843.302878246782
 30
0.0
 11
6032.805850670367
 21
1873.302878246782
 31
0.0
  0
LINE
  5
13532
330
747D
100
AcDbEntity
  8
細線
 48
50.0
100
AcDbLine
 10
6014.049407200189
 20
1743.302878246782
 30
0.0
 11
6022.087882973123
 21
1713.302878246782
 31
0.0
  0
LINE
  5
13533
330
747D
100
AcDbEntity
  8
細線
 48
50.0
100
AcDbLine
 10
6006.010931427256
 20
1713.302878246782
 30
0.0
 11
6048.882802216234
 21
1873.302878246782
 31
0.0
  0
LINE
  5
13534
330
747D
100
AcDbEntity
  8
部品1
100
AcDbLine
 10
5891.44301570403
 20
1873.302878246782
 30
0.0
 11
5891.44301570403
 21
1713.302878246785
 31
0.0
  0
LINE
  5
13535
330
747D
100
AcDbEntity
  8
細線
 48
50.0
100
AcDbLine
 10
5942.234270259243
 20
1843.302878246782
 30
0.0
 11
5934.19579448631
 21
1873.302878246782
 31
0.0
  0
LINE
  5
13536
330
747D
100
AcDbEntity
  8
細線
 48
50.0
100
AcDbLine
 10
5915.439351016132
 20
1743.302878246782
 30
0.0
 11
5923.477826789065
 21
1713.302878246782
 31
0.0
  0
LINE
  5
13537
330
747D
100
AcDbEntity
  8
細線
 48
50.0
100
AcDbLine
 10
5907.400875243198
 20
1713.302878246782
 30
0.0
 11
5950.272746032176
 21
1873.302878246782
 31
0.0
  0
LINE
  5
13538
330
747D
100
AcDbEntity
  8
細線
100
AcDbLine
 10
5275.085252694491
 20
2289.654827259685
 30
0.0
 11
5315.274342825055
 21
2281.466274063681
 31
0.0
  0
LINE
  5
13539
330
747D
100
AcDbEntity
  8
細線
100
AcDbLine
 10
6221.955556344287
 20
2023.302878246782
 30
0.0
 11
6521.955556344285
 21
2323.302878246781
 31
0.0
  0
LINE
  5
1353A
330
747D
100
AcDbEntity
  8
部品1
 48
50.0
100
AcDbLine
 10
6137.142962022859
 20
2323.302878246781
 30
0.0
 11
6137.142962022859
 21
2023.302878246782
 31
0.0
  0
LINE
  5
1353B
330
747D
100
AcDbEntity
  8
細線
100
AcDbLine
 10
6181.955556344284
 20
2023.302878246781
 30
0.0
 11
6481.955556344285
 21
2323.302878246781
 31
0.0
  0
LINE
  5
1353C
330
747D
100
AcDbEntity
  8
細線
100
AcDbLine
 10
6541.955556344287
 20
2023.302878246782
 30
0.0
 11
6841.955556344284
 21
2323.302878246781
 31
0.0
  0
LINE
  5
1353D
330
747D
100
AcDbEntity
  8
細線
100
AcDbLine
 10
6501.955556344286
 20
2023.302878246782
 30
0.0
 11
6801.955556344285
 21
2323.302878246781
 31
0.0
  0
LINE
  5
1353E
330
747D
100
AcDbEntity
  8
細線
100
AcDbLine
 10
6563.883686491698
 20
1873.302878246782
 30
0.0
 11
6413.883686491685
 21
2023.302878246782
 31
0.0
  0
LINE
  5
1353F
330
747D
100
AcDbEntity
  8
細線
100
AcDbLine
 10
6523.883686491696
 20
1873.302878246782
 30
0.0
 11
6373.883686491681
 21
2023.302878246782
 31
0.0
  0
LINE
  5
13540
330
747D
100
AcDbEntity
  8
細線
100
AcDbLine
 10
6243.883686491699
 20
1873.302878246782
 30
0.0
 11
6093.883686491689
 21
2023.302878246781
 31
0.0
  0
LINE
  5
13541
330
747D
100
AcDbEntity
  8
細線
100
AcDbLine
 10
6483.883686491681
 20
1873.302878246782
 30
0.0
 11
6333.883686491681
 21
2023.302878246782
 31
0.0
  0
LINE
  5
13542
330
747D
100
AcDbEntity
  8
細線
 48
50.0
100
AcDbLine
 10
6203.231043795378
 20
1713.302878246782
 30
0.0
 11
6246.10291458436
 21
1873.302878246782
 31
0.0
  0
LINE
  5
13543
330
747D
100
AcDbEntity
  8
細線
 48
50.0
100
AcDbLine
 10
6211.269519568311
 20
1743.302878246782
 30
0.0
 11
6219.307995341246
 21
1713.302878246782
 31
0.0
  0
LINE
  5
13544
330
747D
100
AcDbEntity
  8
細線
 48
50.0
100
AcDbLine
 10
6238.064438811424
 20
1843.302878246782
 30
0.0
 11
6230.02596303849
 21
1873.302878246782
 31
0.0
  0
LINE
  5
13545
330
747D
100
AcDbEntity
  8
細線
 48
50.0
100
AcDbLine
 10
6104.620987611321
 20
1713.302878246782
 30
0.0
 11
6147.492858400299
 21
1873.302878246782
 31
0.0
  0
LINE
  5
13546
330
747D
100
AcDbEntity
  8
細線
 48
50.0
100
AcDbLine
 10
6112.659463384254
 20
1743.302878246782
 30
0.0
 11
6120.697939157188
 21
1713.302878246782
 31
0.0
  0
LINE
  5
13547
330
747D
100
AcDbEntity
  8
細線
 48
50.0
100
AcDbLine
 10
6139.454382627366
 20
1843.302878246782
 30
0.0
 11
6131.415906854432
 21
1873.302878246782
 31
0.0
  0
LINE
  5
13548
330
747D
100
AcDbEntity
  8
細線
 48
50.0
100
AcDbLine
 10
6408.489631936435
 20
1743.302878246782
 30
0.0
 11
6416.528107709368
 21
1713.302878246782
 31
0.0
  0
LINE
  5
13549
330
747D
100
AcDbEntity
  8
細線
 48
50.0
100
AcDbLine
 10
6435.284551179546
 20
1843.302878246782
 30
0.0
 11
6427.246075406613
 21
1873.302878246782
 31
0.0
  0
LINE
  5
1354A
330
747D
100
AcDbEntity
  8
細線
 48
50.0
100
AcDbLine
 10
6301.84109997944
 20
1713.302878246782
 30
0.0
 11
6344.712970768422
 21
1873.302878246782
 31
0.0
  0
LINE
  5
1354B
330
747D
100
AcDbEntity
  8
細線
 48
50.0
100
AcDbLine
 10
6309.879575752376
 20
1743.302878246782
 30
0.0
 11
6317.91805152531
 21
1713.302878246782
 31
0.0
  0
LINE
  5
1354C
330
747D
100
AcDbEntity
  8
細線
 48
50.0
100
AcDbLine
 10
6336.674494995488
 20
1843.302878246782
 30
0.0
 11
6328.636019222555
 21
1873.302878246782
 31
0.0
  0
LINE
  5
1354D
330
747D
100
AcDbEntity
  8
細線
 48
50.0
100
AcDbLine
 10
6400.451156163502
 20
1713.302878246782
 30
0.0
 11
6443.32302695248
 21
1873.302878246782
 31
0.0
  0
LINE
  5
1354E
330
747D
100
AcDbEntity
  8
細線
100
AcDbLine
 10
6803.883686491676
 20
1873.302878246782
 30
0.0
 11
6653.883686491687
 21
2023.302878246782
 31
0.0
  0
LINE
  5
1354F
330
747D
100
AcDbEntity
  8
細線
100
AcDbLine
 10
6843.88368649169
 20
1873.302878246782
 30
0.0
 11
6693.883686491685
 21
2023.302878246782
 31
0.0
  0
LINE
  5
13550
330
747D
100
AcDbEntity
  8
細線
100
AcDbLine
 10
6883.883686491692
 20
1873.302878246782
 30
0.0
 11
6733.883686491697
 21
2023.302878246782
 31
0.0
  0
LINE
  5
13551
330
747D
100
AcDbEntity
  8
細線
 48
50.0
100
AcDbLine
 10
6696.281324715681
 20
1713.302878246782
 30
0.0
 11
6739.153195504659
 21
1873.302878246782
 31
0.0
  0
LINE
  5
13552
330
747D
100
AcDbEntity
  8
細線
 48
50.0
100
AcDbLine
 10
6632.504663547665
 20
1843.302878246782
 30
0.0
 11
6624.466187774732
 21
1873.302878246782
 31
0.0
  0
LINE
  5
13553
330
747D
100
AcDbEntity
  8
細線
 48
50.0
100
AcDbLine
 10
6499.061212347559
 20
1713.302878246782
 30
0.0
 11
6541.933083136537
 21
1873.302878246782
 31
0.0
  0
LINE
  5
13554
330
747D
100
AcDbEntity
  8
細線
 48
50.0
100
AcDbLine
 10
6507.099688120492
 20
1743.302878246782
 30
0.0
 11
6515.138163893425
 21
1713.302878246782
 31
0.0
  0
LINE
  5
13555
330
747D
100
AcDbEntity
  8
細線
 48
50.0
100
AcDbLine
 10
6533.894607363603
 20
1843.302878246782
 30
0.0
 11
6525.85613159067
 21
1873.302878246782
 31
0.0
  0
LINE
  5
13556
330
747D
100
AcDbEntity
  8
細線
 48
50.0
100
AcDbLine
 10
6597.67126853162
 20
1713.302878246782
 30
0.0
 11
6640.543139320602
 21
1873.302878246782
 31
0.0
  0
LINE
  5
13557
330
747D
100
AcDbEntity
  8
細線
 48
50.0
100
AcDbLine
 10
6605.709744304554
 20
1743.302878246782
 30
0.0
 11
6613.748220077487
 21
1713.302878246782
 31
0.0
  0
LINE
  5
13558
330
747D
100
AcDbEntity
  8
細線
 48
50.0
100
AcDbLine
 10
6829.724775915787
 20
1843.302878246782
 30
0.0
 11
6821.686300142854
 21
1873.302878246782
 31
0.0
  0
LINE
  5
13559
330
747D
100
AcDbEntity
  8
細線
 48
50.0
100
AcDbLine
 10
6731.114719731725
 20
1843.302878246782
 30
0.0
 11
6723.076243958792
 21
1873.302878246782
 31
0.0
  0
LINE
  5
1355A
330
747D
100
AcDbEntity
  8
細線
 48
50.0
100
AcDbLine
 10
6704.319800488615
 20
1743.302878246782
 30
0.0
 11
6712.358276261548
 21
1713.302878246782
 31
0.0
  0
LINE
  5
1355B
330
747D
100
AcDbEntity
  8
細線
 48
50.0
100
AcDbLine
 10
6802.929856672675
 20
1743.302878246782
 30
0.0
 11
6810.968332445608
 21
1713.302878246782
 31
0.0
  0
LINE
  5
1355C
330
747D
100
AcDbEntity
  8
細線
 48
50.0
100
AcDbLine
 10
6794.891380899739
 20
1713.302878246782
 30
0.0
 11
6837.763251688717
 21
1873.302878246782
 31
0.0
  0
LINE
  5
1355D
330
747D
100
AcDbEntity
  8
細線
100
AcDbLine
 10
6137.142962022859
 20
2298.490283925358
 30
0.0
 11
6161.955556344285
 21
2323.302878246781
 31
0.0
  0
LINE
  5
1355E
330
747D
100
AcDbEntity
  8
細線
100
AcDbLine
 10
6137.142962022859
 20
2258.490283925357
 30
0.0
 11
6201.955556344285
 21
2323.302878246781
 31
0.0
  0
LINE
  5
1355F
330
747D
100
AcDbEntity
  8
細線
 48
50.0
100
AcDbLine
 10
8272.698246349476
 20
1557.98334658221
 30
0.0
 11
8362.698246349468
 21
1647.983346582207
 31
0.0
  0
LINE
  5
13560
330
747D
100
AcDbEntity
  8
細線
 48
50.0
100
AcDbLine
 10
8272.698246349476
 20
1591.659307036221
 30
0.0
 11
8362.698246349468
 21
1681.659307036216
 31
0.0
  0
LINE
  5
13561
330
747D
100
AcDbEntity
  8
部品1
 48
50.0
100
AcDbLine
 10
8272.698246349476
 20
1468.832598011569
 30
0.0
 11
8272.698246349468
 21
2127.176190183861
 31
0.0
  0
LINE
  5
13562
330
747D
100
AcDbEntity
  8
部品1
 48
50.0
100
AcDbLine
 10
8252.698246349474
 20
1468.832598011569
 30
0.0
 11
8252.698246349467
 21
2113.209571750456
 31
0.0
  0
LINE
  5
13563
330
747D
100
AcDbEntity
  8
部品1
 48
50.0
100
AcDbLine
 10
8362.698246349468
 20
2398.83259801157
 30
0.0
 11
8362.698246349468
 21
1618.832598011569
 31
0.0
  0
LINE
  5
13564
330
747D
100
AcDbEntity
  8
部品1
 48
50.0
100
AcDbLine
 10
8122.698246349468
 20
1618.832598011569
 30
0.0
 11
8122.698246349468
 21
2398.83259801157
 31
0.0
  0
LINE
  5
13565
330
747D
100
AcDbEntity
  8
部品1
 48
50.0
100
AcDbLine
 10
7646.539040436448
 20
631.4248336083947
 30
0.0
 11
7646.539040436448
 21
471.4248336083946
 31
0.0
  0
LINE
  5
13566
330
747D
100
AcDbEntity
  8
細線
 48
50.0
100
AcDbLine
 10
8033.54749777883
 20
1318.832598011569
 30
0.0
 11
8153.547497778829
 21
1438.832598011569
 31
0.0
  0
LINE
  5
13567
330
747D
100
AcDbEntity
  8
部品1
 48
50.0
100
AcDbLine
 10
8012.698246349469
 20
1438.832598011569
 30
0.0
 11
8472.698246349468
 21
1438.832598011569
 31
0.0
  0
LINE
  5
13568
330
747D
100
AcDbEntity
  8
部品1
 48
50.0
100
AcDbLine
 10
8012.698246349469
 20
1458.832598011569
 30
0.0
 11
8472.698246349468
 21
1458.832598011569
 31
0.0
  0
LINE
  5
13569
330
747D
100
AcDbEntity
  8
細線
 48
50.0
100
AcDbLine
 10
8106.19557687081
 20
1458.832598011569
 30
0.0
 11
8252.698246349467
 21
1605.335267490229
 31
0.0
  0
LINE
  5
1356A
330
747D
100
AcDbEntity
  8
細線
 48
50.0
100
AcDbLine
 10
7999.871537324823
 20
1318.832598011569
 30
0.0
 11
8119.871537324824
 21
1438.832598011569
 31
0.0
  0
LINE
  5
1356B
330
747D
100
AcDbEntity
  8
細線
 48
50.0
100
AcDbLine
 10
7966.195576870811
 20
1318.832598011569
 30
0.0
 11
8086.19557687081
 21
1438.832598011569
 31
0.0
  0
LINE
  5
1356C
330
747D
100
AcDbEntity
  8
部品1
 48
50.0
100
AcDbLine
 10
7942.698246349468
 20
1318.832598011569
 30
0.0
 11
7942.698246349468
 21
1618.832598011569
 31
0.0
  0
LINE
  5
1356D
330
747D
100
AcDbEntity
  8
部品1
 48
50.0
100
AcDbLine
 10
7842.698246349468
 20
1158.832598011569
 30
0.0
 11
7842.698246349468
 21
1318.832598011569
 31
0.0
  0
LINE
  5
1356E
330
747D
100
AcDbEntity
  8
細線
 48
50.0
100
AcDbLine
 10
7876.125976065854
 20
1158.832598011569
 30
0.0
 11
7918.997846854836
 21
1318.832598011569
 31
0.0
  0
LINE
  5
1356F
330
747D
100
AcDbEntity
  8
細線
 48
50.0
100
AcDbLine
 10
7884.164451838791
 20
1188.832598011569
 30
0.0
 11
7892.202927611724
 21
1158.832598011569
 31
0.0
  0
LINE
  5
13570
330
747D
100
AcDbEntity
  8
細線
 48
50.0
100
AcDbLine
 10
7910.959371081903
 20
1288.83259801157
 30
0.0
 11
7902.92089530897
 21
1318.832598011569
 31
0.0
  0
LINE
  5
13571
330
747D
100
AcDbEntity
  8
細線
 48
50.0
100
AcDbLine
 10
8073.346088433977
 20
1158.832598011569
 30
0.0
 11
8116.217959222959
 21
1318.832598011569
 31
0.0
  0
LINE
  5
13572
330
747D
100
AcDbEntity
  8
細線
 48
50.0
100
AcDbLine
 10
8081.384564206913
 20
1188.832598011569
 30
0.0
 11
8089.423039979847
 21
1158.832598011569
 31
0.0
  0
LINE
  5
13573
330
747D
100
AcDbEntity
  8
細線
 48
50.0
100
AcDbLine
 10
8108.179483450026
 20
1288.83259801157
 30
0.0
 11
8100.141007677093
 21
1318.832598011569
 31
0.0
  0
LINE
  5
13574
330
747D
100
AcDbEntity
  8
細線
 48
50.0
100
AcDbLine
 10
7974.736032249914
 20
1158.832598011569
 30
0.0
 11
8017.607903038898
 21
1318.832598011569
 31
0.0
  0
LINE
  5
13575
330
747D
100
AcDbEntity
  8
細線
 48
50.0
100
AcDbLine
 10
7982.774508022853
 20
1188.832598011569
 30
0.0
 11
7990.812983795786
 21
1158.832598011569
 31
0.0
  0
LINE
  5
13576
330
747D
100
AcDbEntity
  8
細線
 48
50.0
100
AcDbLine
 10
8009.569427265963
 20
1288.83259801157
 30
0.0
 11
8001.53095149303
 21
1318.832598011569
 31
0.0
  0
CIRCLE
  5
13577
330
747D
100
AcDbEntity
  8
部品1
 48
50.0
100
AcDbCircle
 10
8082.698246349467
 20
1468.832598011569
 30
0.0
 40
10.0
  0
LINE
  5
13578
330
747D
100
AcDbEntity
  8
細線
 48
50.0
100
AcDbLine
 10
7942.698246349468
 20
1564.742951122304
 30
0.0
 11
7996.787893238736
 21
1618.832598011569
 31
0.0
  0
LINE
  5
13579
330
747D
100
AcDbEntity
  8
細線
 48
50.0
100
AcDbLine
 10
7942.698246349468
 20
1531.066990668294
 30
0.0
 11
8030.463853692749
 21
1618.832598011569
 31
0.0
  0
LINE
  5
1357A
330
747D
100
AcDbEntity
  8
部品1
 48
50.0
100
AcDbLine
 10
8012.698246349469
 20
1438.832598011569
 30
0.0
 11
8012.698246349469
 21
1458.832598011569
 31
0.0
  0
LINE
  5
1357B
330
747D
100
AcDbEntity
  8
部品1
 48
50.0
100
AcDbLine
 10
7942.698246349468
 20
1618.832598011569
 30
0.0
 11
8122.698246349468
 21
1618.832598011569
 31
0.0
  0
LINE
  5
1357C
330
747D
100
AcDbEntity
  8
細線
 48
50.0
100
AcDbLine
 10
7942.698246349471
 20
1497.391030214284
 30
0.0
 11
8064.139814146754
 21
1618.832598011569
 31
0.0
  0
LINE
  5
1357D
330
747D
100
AcDbEntity
  8
細線
 48
50.0
100
AcDbLine
 10
8505.010944134959
 20
1318.832598011569
 30
0.0
 11
8542.698246349468
 21
1356.519900226075
 31
0.0
  0
LINE
  5
1357E
330
747D
100
AcDbEntity
  8
細線
 48
50.0
100
AcDbLine
 10
8302.955181410904
 20
1318.832598011569
 30
0.0
 11
8422.956291217332
 21
1438.833707817994
 31
0.0
  0
LINE
  5
1357F
330
747D
100
AcDbEntity
  8
細線
 48
50.0
100
AcDbLine
 10
8269.279220956898
 20
1318.832598011569
 30
0.0
 11
8389.279220956899
 21
1438.832598011569
 31
0.0
  0
LINE
  5
13580
330
747D
100
AcDbEntity
  8
部品1
 48
50.0
100
AcDbLine
 10
8542.698246349468
 20
1618.832598011569
 30
0.0
 11
8542.698246349468
 21
1318.832598011569
 31
0.0
  0
LINE
  5
13581
330
747D
100
AcDbEntity
  8
細線
 48
50.0
100
AcDbLine
 10
8235.603260502886
 20
1318.832598011569
 30
0.0
 11
8355.603260502885
 21
1438.832598011569
 31
0.0
  0
LINE
  5
13582
330
747D
100
AcDbEntity
  8
細線
 48
50.0
100
AcDbLine
 10
8270.566200802099
 20
1158.832598011569
 30
0.0
 11
8313.438071591077
 21
1318.832598011569
 31
0.0
  0
LINE
  5
13583
330
747D
100
AcDbEntity
  8
細線
 48
50.0
100
AcDbLine
 10
8278.604676575033
 20
1188.832598011569
 30
0.0
 11
8286.643152347966
 21
1158.832598011569
 31
0.0
  0
LINE
  5
13584
330
747D
100
AcDbEntity
  8
細線
 48
50.0
100
AcDbLine
 10
8305.399595818148
 20
1288.83259801157
 30
0.0
 11
8297.361120045215
 21
1318.832598011569
 31
0.0
  0
LINE
  5
13585
330
747D
100
AcDbEntity
  8
細線
 48
50.0
100
AcDbLine
 10
8171.956144618038
 20
1158.832598011569
 30
0.0
 11
8214.828015407016
 21
1318.832598011569
 31
0.0
  0
LINE
  5
13586
330
747D
100
AcDbEntity
  8
細線
 48
50.0
100
AcDbLine
 10
8179.994620390976
 20
1188.832598011569
 30
0.0
 11
8188.033096163909
 21
1158.832598011569
 31
0.0
  0
LINE
  5
13587
330
747D
100
AcDbEntity
  8
細線
 48
50.0
100
AcDbLine
 10
8206.789539634085
 20
1288.83259801157
 30
0.0
 11
8198.751063861152
 21
1318.832598011569
 31
0.0
  0
LINE
  5
13588
330
747D
100
AcDbEntity
  8
細線
 48
50.0
100
AcDbLine
 10
8467.78631317022
 20
1158.832598011569
 30
0.0
 11
8510.658183959199
 21
1318.832598011569
 31
0.0
  0
LINE
  5
13589
330
747D
100
AcDbEntity
  8
細線
 48
50.0
100
AcDbLine
 10
8475.824788943155
 20
1188.832598011569
 30
0.0
 11
8483.86326471609
 21
1158.832598011569
 31
0.0
  0
LINE
  5
1358A
330
747D
100
AcDbEntity
  8
細線
 48
50.0
100
AcDbLine
 10
8502.619708186271
 20
1288.83259801157
 30
0.0
 11
8494.581232413336
 21
1318.832598011569
 31
0.0
  0
LINE
  5
1358B
330
747D
100
AcDbEntity
  8
細線
 48
50.0
100
AcDbLine
 10
8538.686904588972
 20
1318.832598011569
 30
0.0
 11
8542.698246349468
 21
1322.843939772067
 31
0.0
  0
LINE
  5
1358C
330
747D
100
AcDbEntity
  8
細線
 48
50.0
100
AcDbLine
 10
8369.176256986161
 20
1158.832598011569
 30
0.0
 11
8412.04812777514
 21
1318.832598011569
 31
0.0
  0
LINE
  5
1358D
330
747D
100
AcDbEntity
  8
細線
 48
50.0
100
AcDbLine
 10
8404.009652002208
 20
1288.83259801157
 30
0.0
 11
8395.971176229275
 21
1318.832598011569
 31
0.0
  0
LINE
  5
1358E
330
747D
100
AcDbEntity
  8
細線
 48
50.0
100
AcDbLine
 10
8377.214732759094
 20
1188.832598011569
 30
0.0
 11
8385.253208532027
 21
1158.832598011569
 31
0.0
  0
ARC
  5
1358F
330
747D
100
AcDbEntity
  8
部品1
 48
50.0
100
AcDbCircle
 10
8242.698246349467
 20
1468.832598011569
 30
0.0
 40
30.0
100
AcDbArc
 50
340.5287793654832
 51
0.0
  0
LINE
  5
13590
330
747D
100
AcDbEntity
  8
細線
 48
50.0
100
AcDbLine
 10
8173.547497778828
 20
1458.832598011569
 30
0.0
 11
8212.698246349468
 21
1497.983346582206
 31
0.0
  0
LINE
  5
13591
330
747D
100
AcDbEntity
  8
細線
 48
50.0
100
AcDbLine
 10
8139.871537324824
 20
1458.832598011569
 30
0.0
 11
8212.698246349468
 21
1531.659307036218
 31
0.0
  0
LINE
  5
13592
330
747D
100
AcDbEntity
  8
部品1
 48
50.0
100
AcDbLine
 10
8212.698246349468
 20
1541.491616382973
 30
0.0
 11
8212.698246349468
 21
1468.832598011569
 31
0.0
  0
LINE
  5
13593
330
747D
100
AcDbEntity
  8
部品1
 48
50.0
100
AcDbLine
 10
8232.698246349468
 20
1541.491616382973
 30
0.0
 11
8232.698246349468
 21
1468.832598011569
 31
0.0
  0
ARC
  5
13594
330
747D
100
AcDbEntity
  8
部品1
 48
50.0
100
AcDbCircle
 10
8242.698246349467
 20
1468.832598011569
 30
0.0
 40
30.0
100
AcDbArc
 50
180.0
 51
199.4712206345168
  0
LINE
  5
13595
330
747D
100
AcDbEntity
  8
部品1
 48
50.0
100
AcDbLine
 10
8232.698246349468
 20
1541.491616382973
 30
0.0
 11
8212.698246349468
 21
1541.491616382973
 31
0.0
  0
CIRCLE
  5
13596
330
747D
100
AcDbEntity
  8
部品1
 48
50.0
100
AcDbCircle
 10
8242.698246349467
 20
1468.832598011569
 30
0.0
 40
10.0
  0
LINE
  5
13597
330
747D
100
AcDbEntity
  8
細線
 48
50.0
100
AcDbLine
 10
8232.698246349471
 20
1517.983346582208
 30
0.0
 11
8252.698246349474
 21
1537.98334658221
 31
0.0
  0
LINE
  5
13598
330
747D
100
AcDbEntity
  8
細線
 48
50.0
100
AcDbLine
 10
8222.530555696227
 20
1541.491616382973
 30
0.0
 11
8252.698246349474
 21
1571.659307036219
 31
0.0
  0
LINE
  5
13599
330
747D
100
AcDbEntity
  8
部品1
 48
50.0
100
AcDbLine
 10
8472.698246349468
 20
1438.832598011569
 30
0.0
 11
8472.698246349468
 21
1458.832598011569
 31
0.0
  0
CIRCLE
  5
1359A
330
747D
100
AcDbEntity
  8
部品1
 48
50.0
100
AcDbCircle
 10
8402.698246349467
 20
1468.832598011569
 30
0.0
 40
10.0
  0
LINE
  5
1359B
330
747D
100
AcDbEntity
  8
細線
 48
50.0
100
AcDbLine
 10
8375.603260502883
 20
1458.832598011569
 30
0.0
 11
8535.603260502888
 21
1618.832598011569
 31
0.0
  0
LINE
  5
1359C
330
747D
100
AcDbEntity
  8
部品1
 48
50.0
100
AcDbLine
 10
8362.698246349468
 20
1618.832598011569
 30
0.0
 11
8542.698246349468
 21
1618.832598011569
 31
0.0
  0
LINE
  5
1359D
330
747D
100
AcDbEntity
  8
細線
 48
50.0
100
AcDbLine
 10
8442.955181410907
 20
1458.832598011569
 30
0.0
 11
8542.698246349468
 21
1558.575662950131
 31
0.0
  0
LINE
  5
1359E
330
747D
100
AcDbEntity
  8
細線
 48
50.0
100
AcDbLine
 10
8409.279220956898
 20
1458.832598011569
 30
0.0
 11
8542.698246349468
 21
1592.251623404143
 31
0.0
  0
LINE
  5
1359F
330
747D
100
AcDbEntity
  8
部品1
 48
50.0
100
AcDbLine
 10
7666.394794988434
 20
2006.138829997912
 30
0.0
 11
7762.777793089492
 21
2006.138829997912
 31
0.0
  0
LINE
  5
135A0
330
747D
100
AcDbEntity
  8
Ｇ．Ｌ
 48
50.0
100
AcDbLine
 10
7605.023369058272
 20
1922.668705149492
 30
0.0
 11
8122.698246349468
 21
1922.668705149492
 31
0.0
  0
LINE
  5
135A1
330
747D
100
AcDbEntity
  8
部品1
 48
50.0
100
AcDbLine
 10
7762.777793089492
 20
2006.138829997912
 30
0.0
 11
7714.586294038963
 21
1922.668705149488
 31
0.0
  0
LINE
  5
135A2
330
747D
100
AcDbEntity
  8
部品1
 48
50.0
100
AcDbLine
 10
6917.142962022859
 20
2023.302878246782
 30
0.0
 11
6917.142962022859
 21
2323.302878246781
 31
0.0
  0
LINE
  5
135A3
330
747D
100
AcDbEntity
  8
部品1
100
AcDbLine
 10
7062.842908341689
 20
2023.302878246782
 30
0.0
 11
7062.842908341689
 21
1873.302878246782
 31
0.0
  0
LINE
  5
135A4
330
747D
100
AcDbEntity
  8
細線
 48
50.0
100
AcDbLine
 10
7090.721549451922
 20
1713.302878246782
 30
0.0
 11
7133.593420240905
 21
1873.302878246782
 31
0.0
  0
LINE
  5
135A5
330
747D
100
AcDbEntity
  8
細線
 48
50.0
100
AcDbLine
 10
7098.760025224855
 20
1743.302878246782
 30
0.0
 11
7106.798500997789
 21
1713.302878246782
 31
0.0
  0
LINE
  5
135A6
330
747D
100
AcDbEntity
  8
細線
 48
50.0
100
AcDbLine
 10
6928.334832099849
 20
1843.302878246782
 30
0.0
 11
6920.296356326915
 21
1873.302878246782
 31
0.0
  0
LINE
  5
135A7
330
747D
100
AcDbEntity
  8
細線
 48
50.0
100
AcDbLine
 10
7000.149969040795
 20
1743.302878246782
 30
0.0
 11
7008.188444813729
 21
1713.302878246782
 31
0.0
  0
LINE
  5
135A8
330
747D
100
AcDbEntity
  8
細線
 48
50.0
100
AcDbLine
 10
6992.11149326786
 20
1713.302878246782
 30
0.0
 11
7034.983364056839
 21
1873.302878246782
 31
0.0
  0
LINE
  5
135A9
330
747D
100
AcDbEntity
  8
細線
 48
50.0
100
AcDbLine
 10
7026.94488828391
 20
1843.302878246782
 30
0.0
 11
7018.906412510976
 21
1873.302878246782
 31
0.0
  0
LINE
  5
135AA
330
747D
100
AcDbEntity
  8
細線
 48
50.0
100
AcDbLine
 10
7125.554944467971
 20
1843.302878246782
 30
0.0
 11
7117.516468695038
 21
1873.302878246782
 31
0.0
  0
LINE
  5
135AB
330
747D
100
AcDbEntity
  8
部品1
100
AcDbLine
 10
7162.842908341689
 20
1873.302878246782
 30
0.0
 11
7162.842908341689
 21
1713.302878246785
 31
0.0
  0
LINE
  5
135AC
330
747D
100
AcDbEntity
  8
細線
100
AcDbLine
 10
7062.842908341689
 20
2014.343656396789
 30
0.0
 11
7053.883686491696
 21
2023.302878246782
 31
0.0
  0
LINE
  5
135AD
330
747D
100
AcDbEntity
  8
細線
100
AcDbLine
 10
7062.842908341689
 20
1974.343656396779
 30
0.0
 11
7013.883686491682
 21
2023.302878246782
 31
0.0
  0
LINE
  5
135AE
330
747D
100
AcDbEntity
  8
細線
100
AcDbLine
 10
7062.84290834169
 20
1934.343656396769
 30
0.0
 11
6973.883686491685
 21
2023.302878246782
 31
0.0
  0
LINE
  5
135AF
330
747D
100
AcDbEntity
  8
部品1
 48
50.0
100
AcDbLine
 10
7666.394794988434
 20
2006.138829997912
 30
0.0
 11
7714.586294038963
 21
1922.668705149488
 31
0.0
  0
LINE
  5
135B0
330
747D
100
AcDbEntity
  8
部品1
 48
50.0
100
AcDbLine
 10
8252.698246349467
 20
2148.83259801157
 30
0.0
 11
8252.698246349467
 21
2224.150634754376
 31
0.0
  0
LINE
  5
135B1
330
747D
100
AcDbEntity
  8
部品1
 48
50.0
100
AcDbLine
 10
8252.698246349467
 20
2148.83259801157
 30
0.0
 11
8252.698246349467
 21
2224.150634754376
 31
0.0
  0
LINE
  5
135B2
330
747D
100
AcDbEntity
  8
部品1
 48
50.0
100
AcDbLine
 10
8252.698246349467
 20
2148.83259801157
 30
0.0
 11
8252.698246349467
 21
2398.83259801157
 31
0.0
  0
LINE
  5
135B3
330
747D
100
AcDbEntity
  8
部品1
 48
50.0
100
AcDbLine
 10
8279.698246349468
 20
2148.83259801157
 30
0.0
 11
8279.698246349465
 21
2398.83259801157
 31
0.0
  0
LINE
  5
135B4
330
747D
100
AcDbEntity
  8
細線
 48
50.0
100
AcDbLine
 10
8122.698246349468
 20
2114.150634754377
 30
0.0
 11
8212.698246349468
 21
2204.150634754376
 31
0.0
  0
LINE
  5
135B5
330
747D
100
AcDbEntity
  8
部品1
 48
50.0
100
AcDbLine
 10
8232.698246349468
 20
2151.491616382973
 30
0.0
 11
8232.698246349468
 21
2224.150634754376
 31
0.0
  0
LINE
  5
135B6
330
747D
100
AcDbEntity
  8
部品1
 48
50.0
100
AcDbLine
 10
8212.698246349468
 20
2151.491616382975
 30
0.0
 11
8212.698246349468
 21
2224.150634754378
 31
0.0
  0
LINE
  5
135B7
330
747D
100
AcDbEntity
  8
細線
 48
50.0
100
AcDbLine
 10
8232.698246349468
 20
2190.474674300367
 30
0.0
 11
8252.698246349467
 21
2210.474674300367
 31
0.0
  0
LINE
  5
135B8
330
747D
100
AcDbEntity
  8
細線
 48
50.0
100
AcDbLine
 10
8122.698246349468
 20
2080.474674300367
 30
0.0
 11
8212.698246349468
 21
2170.474674300367
 31
0.0
  0
LINE
  5
135B9
330
747D
100
AcDbEntity
  8
細線
 48
50.0
100
AcDbLine
 10
8122.698246349468
 20
2046.798713846358
 30
0.0
 11
8192.698246349468
 21
2116.798713846358
 31
0.0
  0
LINE
  5
135BA
330
747D
100
AcDbEntity
  8
細線
 48
50.0
100
AcDbLine
 10
8122.698246349468
 20
1677.391030214283
 30
0.0
 11
8252.698246349474
 21
1807.391030214285
 31
0.0
  0
LINE
  5
135BB
330
747D
100
AcDbEntity
  8
細線
 48
50.0
100
AcDbLine
 10
8122.698246349468
 20
1711.066990668292
 30
0.0
 11
8252.698246349472
 21
1841.06699066829
 31
0.0
  0
LINE
  5
135BC
330
747D
100
AcDbEntity
  8
細線
 48
50.0
100
AcDbLine
 10
8122.698246349468
 20
1744.742951122302
 30
0.0
 11
8252.698246349467
 21
1874.742951122303
 31
0.0
  0
TEXT
  5
135BD
330
747D
100
AcDbEntity
  8
部品1
 48
50.0
100
AcDbText
 10
7764.869148459489
 20
1932.034532052199
 30
0.0
 40
100.0
  1
G.L
  7
STYLE1
100
AcDbText
  0
LINE
  5
135BE
330
747D
100
AcDbEntity
  8
細線
 48
50.0
100
AcDbLine
 10
8272.698246349476
 20
1827.391030214285
 30
0.0
 11
8362.698246349468
 21
1917.391030214281
 31
0.0
  0
LINE
  5
135BF
330
747D
100
AcDbEntity
  8
細線
 48
50.0
100
AcDbLine
 10
8272.698246349472
 20
1894.742951122304
 30
0.0
 11
8362.698246349468
 21
1984.742951122304
 31
0.0
  0
LINE
  5
135C0
330
747D
100
AcDbEntity
  8
細線
 48
50.0
100
AcDbLine
 10
8272.698246349472
 20
1861.066990668292
 30
0.0
 11
8362.698246349468
 21
1951.066990668289
 31
0.0
  0
LINE
  5
135C1
330
747D
100
AcDbEntity
  8
細線
 48
50.0
100
AcDbLine
 10
8272.698246349476
 20
1625.335267490231
 30
0.0
 11
8362.698246349468
 21
1715.335267490225
 31
0.0
  0
LINE
  5
135C2
330
747D
100
AcDbEntity
  8
部品1
 48
50.0
100
AcDbLine
 10
8242.698246349467
 20
2111.83259801157
 30
0.0
 11
8192.698246349468
 21
2111.83259801157
 31
0.0
  0
LINE
  5
135C3
330
747D
100
AcDbEntity
  8
部品1
 48
50.0
100
AcDbLine
 10
8242.698246349467
 20
2138.832598011569
 30
0.0
 11
8192.698246349468
 21
2138.832598011569
 31
0.0
  0
LINE
  5
135C4
330
747D
100
AcDbEntity
  8
部品1
 48
50.0
100
AcDbLine
 10
8192.698246349468
 20
2111.83259801157
 30
0.0
 11
8192.698246349468
 21
2138.832598011569
 31
0.0
  0
LINE
  5
135C5
330
747D
100
AcDbEntity
  8
細線
 48
50.0
100
AcDbLine
 10
8214.732130514681
 20
2138.832598011569
 30
0.0
 11
8227.391148886088
 21
2151.491616382973
 31
0.0
  0
LINE
  5
135C6
330
747D
100
AcDbEntity
  8
部品1
 48
50.0
100
AcDbLine
 10
8232.698246349468
 20
2151.491616382973
 30
0.0
 11
8212.698246349468
 21
2151.491616382975
 31
0.0
  0
ARC
  5
135C7
330
747D
100
AcDbEntity
  8
部品1
 48
50.0
100
AcDbCircle
 10
8242.698246349467
 20
2148.83259801157
 30
0.0
 40
37.0
100
AcDbArc
 50
270.0
 51
0.0
  0
LINE
  5
135C8
330
747D
100
AcDbEntity
  8
細線
 48
50.0
100
AcDbLine
 10
8232.698246349471
 20
2156.798713846358
 30
0.0
 11
8252.698246349467
 21
2176.798713846358
 31
0.0
  0
ARC
  5
135C9
330
747D
100
AcDbEntity
  8
部品1
 48
50.0
100
AcDbCircle
 10
8242.698246349467
 20
2148.83259801157
 30
0.0
 40
10.0
100
AcDbArc
 50
270.0
 51
0.0
  0
LINE
  5
135CA
330
747D
100
AcDbEntity
  8
細線
 48
50.0
100
AcDbLine
 10
8122.698246349468
 20
2349.882357932441
 30
0.0
 11
8137.421759160778
 21
2364.605870743748
 31
0.0
  0
LINE
  5
135CB
330
747D
100
AcDbEntity
  8
部品1
100
AcDbLine
 10
8150.698246349469
 20
2402.06336724234
 30
0.0
 11
8133.467477118696
 21
2402.06336724234
 31
0.0
  0
LINE
  5
135CC
330
747D
100
AcDbEntity
  8
部品1
100
AcDbLine
 10
8133.467477118696
 20
2504.371059550031
 30
0.0
 11
8146.390554041772
 21
2507.6018287808
 31
0.0
  0
LINE
  5
135CD
330
747D
100
AcDbEntity
  8
細線
 48
50.0
100
AcDbLine
 10
8122.698246349468
 20
2316.206397478433
 30
0.0
 11
8165.125587396895
 21
2358.633738525858
 31
0.0
  0
LINE
  5
135CE
330
747D
100
AcDbEntity
  8
細線
100
AcDbLine
 10
8122.698246349468
 20
2368.459979655609
 30
0.0
 11
8160.236569855497
 21
2358.633738525858
 31
0.0
  0
DIMENSION
  5
135CF
330
747D
100
AcDbEntity
  8
寸法
 48
50.0
100
AcDbDimension
  2
*D22
 10
8266.198246349466
 20
2642.565939909517
 30
0.0
 11
7912.635052553349
 21
2642.565939909517
 31
0.0
 70
   160
  1
65
 71
     5
 42
143.5
  3
INABA_S50GUP
100
AcDbAlignedDimension
 13
8122.698246349466
 23
2398.83259801157
 33
0.0
 14
8266.198246349466
 24
2459.140290319262
 34
0.0
100
AcDbRotatedDimension
1001
ACAD
1000
DSTYLE
1002
{
1070
   140
1040
100.0
1002
}
  0
LINE
  5
135D0
330
747D
100
AcDbEntity
  8
部品1
 48
50.0
100
AcDbLine
 10
8122.698246349468
 20
2398.83259801157
 30
0.0
 11
8362.698246349468
 21
2398.83259801157
 31
0.0
  0
LINE
  5
135D1
330
747D
100
AcDbEntity
  8
部品1
100
AcDbLine
 10
8133.467477118696
 20
2402.06336724234
 30
0.0
 11
8133.467477118696
 21
2504.371059550031
 31
0.0
  0
LINE
  5
135D2
330
747D
100
AcDbEntity
  8
部品1
100
AcDbLine
 10
8324.082861734082
 20
2505.447982626955
 30
0.0
 11
8324.082861734082
 21
2402.06336724234
 31
0.0
  0
LINE
  5
135D3
330
747D
100
AcDbEntity
  8
部品1
100
AcDbLine
 10
8324.082861734082
 20
2402.06336724234
 30
0.0
 11
8341.313630964851
 21
2402.06336724234
 31
0.0
  0
LINE
  5
135D4
330
747D
100
AcDbEntity
  8
細線
 48
50.0
100
AcDbLine
 10
8279.698246349468
 20
2237.474674300361
 30
0.0
 11
8362.698246349468
 21
2320.474674300367
 31
0.0
  0
LINE
  5
135D5
330
747D
100
AcDbEntity
  8
細線
100
AcDbLine
 10
8322.509156218904
 20
2365.184547024473
 30
0.0
 11
8362.698246349468
 21
2356.99599382847
 31
0.0
  0
LINE
  5
135D6
330
747D
100
AcDbEntity
  8
細線
 48
50.0
100
AcDbLine
 10
8279.698246349466
 20
2271.150634754372
 30
0.0
 11
8362.698246349468
 21
2354.150634754376
 31
0.0
  0
LINE
  5
135D7
330
747D
100
AcDbEntity
  8
細線
 48
50.0
100
AcDbLine
 10
8279.698246349466
 20
2203.798713846358
 30
0.0
 11
8362.698246349468
 21
2286.798713846358
 31
0.0
  0
ARC
  5
135D8
330
747D
100
AcDbEntity
  8
部品1
100
AcDbCircle
 10
8266.198246349468
 20
2388.829842309677
 30
0.0
 40
35.0848827120379
100
AcDbArc
 50
68.38687878208858
 51
111.6131212179114
  0
LINE
  5
135D9
330
747D
100
AcDbEntity
  8
部品1
 48
50.0
100
AcDbLine
 10
8279.698246349468
 20
2459.140290319262
 30
0.0
 11
8252.698246349467
 21
2459.140290319262
 31
0.0
  0
LINE
  5
135DA
330
747D
100
AcDbEntity
  8
部品1
 48
50.0
100
AcDbLine
 10
8252.698246349465
 20
2424.678751857724
 30
0.0
 11
8252.69824634946
 21
2459.140290319262
 31
0.0
  0
LINE
  5
135DB
330
747D
100
AcDbEntity
  8
部品1
100
AcDbLine
 10
8253.275169426389
 20
2421.447982626956
 30
0.0
 11
8253.275169426389
 21
2403.140290319261
 31
0.0
  0
LINE
  5
135DC
330
747D
100
AcDbEntity
  8
細線
100
AcDbLine
 10
8293.005087540677
 20
2366.822291721863
 30
0.0
 11
8322.509156218904
 21
2365.184547024473
 31
0.0
  0
LINE
  5
135DD
330
747D
100
AcDbEntity
  8
部品1
 48
50.0
100
AcDbLine
 10
8279.698246349465
 20
2424.678751857724
 30
0.0
 11
8279.698246349465
 21
2459.140290319262
 31
0.0
  0
LINE
  5
135DE
330
747D
100
AcDbEntity
  8
部品1
100
AcDbLine
 10
8320.852092503312
 20
2425.583736327333
 30
0.0
 11
8320.852092503312
 21
2403.140290319261
 31
0.0
  0
LINE
  5
135DF
330
747D
100
AcDbEntity
  8
部品1
100
AcDbLine
 10
8294.198246349468
 20
2403.140290319261
 30
0.0
 11
8294.198246349468
 21
2398.83259801157
 31
0.0
  0
LINE
  5
135E0
330
747D
100
AcDbEntity
  8
部品1
100
AcDbLine
 10
8286.659784811007
 20
2424.678751857724
 30
0.0
 11
8289.890554041773
 21
2421.447982626956
 31
0.0
  0
LINE
  5
135E1
330
747D
100
AcDbEntity
  8
部品1
100
AcDbLine
 10
8289.890554041773
 20
2421.447982626956
 30
0.0
 11
8289.890554041773
 21
2403.140290319261
 31
0.0
  0
LINE
  5
135E2
330
747D
100
AcDbEntity
  8
部品1
100
AcDbLine
 10
8279.121323272539
 20
2421.447982626955
 30
0.0
 11
8279.121323272539
 21
2403.140290319261
 31
0.0
  0
ARC
  5
135E3
330
747D
100
AcDbEntity
  8
部品1
100
AcDbCircle
 10
8284.505938657156
 20
2416.392684715946
 30
0.0
 40
7.3858052918609
100
AcDbArc
 50
43.19325636896477
 51
136.8067436310352
  0
LINE
  5
135E4
330
747D
100
AcDbEntity
  8
細線
100
AcDbLine
 10
8160.236569855497
 20
2358.633738525858
 30
0.0
 11
8196.29714460293
 21
2358.633738525858
 31
0.0
  0
LINE
  5
135E5
330
747D
100
AcDbEntity
  8
部品1
100
AcDbLine
 10
8153.929015580233
 20
2406.371059550031
 30
0.0
 11
8136.698246349467
 21
2406.371059550031
 31
0.0
  0
LINE
  5
135E6
330
747D
100
AcDbEntity
  8
部品1
100
AcDbLine
 10
8136.698246349467
 20
2406.371059550031
 30
0.0
 11
8136.698246349467
 21
2425.583736327333
 31
0.0
  0
LINE
  5
135E7
330
747D
100
AcDbEntity
  8
部品1
100
AcDbLine
 10
8153.929015580233
 20
2406.371059550031
 30
0.0
 11
8153.929015580233
 21
2403.140290319261
 31
0.0
  0
LINE
  5
135E8
330
747D
100
AcDbEntity
  8
細線
100
AcDbLine
 10
8196.29714460293
 20
2358.633738525858
 30
0.0
 11
8237.275098902243
 21
2365.184547024473
 31
0.0
  0
LINE
  5
135E9
330
747D
100
AcDbEntity
  8
部品1
100
AcDbLine
 10
8238.198246349467
 20
2403.140290319261
 30
0.0
 11
8238.198246349467
 21
2398.83259801157
 31
0.0
  0
LINE
  5
135EA
330
747D
100
AcDbEntity
  8
部品1
100
AcDbLine
 10
8242.505938657156
 20
2421.447982626955
 30
0.0
 11
8245.736707887928
 21
2424.678751857724
 31
0.0
  0
LINE
  5
135EB
330
747D
100
AcDbEntity
  8
部品1
100
AcDbLine
 10
8242.505938657156
 20
2421.447982626955
 30
0.0
 11
8242.505938657156
 21
2403.140290319261
 31
0.0
  0
ARC
  5
135EC
330
747D
100
AcDbEntity
  8
部品1
 48
50.0
100
AcDbCircle
 10
8242.698246349467
 20
2224.150634754376
 30
0.0
 40
30.0
100
AcDbArc
 50
70.52877936552764
 51
180.0
  0
CIRCLE
  5
135ED
330
747D
100
AcDbEntity
  8
部品1
 48
50.0
100
AcDbCircle
 10
8242.698246349467
 20
2224.150634754376
 30
0.0
 40
10.0
  0
LINE
  5
135EE
330
747D
100
AcDbEntity
  8
部品1
100
AcDbLine
 10
8153.929015580233
 20
2403.140290319261
 30
0.0
 11
8320.852092503312
 21
2403.140290319261
 31
0.0
  0
LINE
  5
135EF
330
747D
100
AcDbEntity
  8
細線
100
AcDbLine
 10
8237.275098902243
 20
2365.184547024473
 30
0.0
 11
8293.005087540677
 21
2366.822291721863
 31
0.0
  0
LINE
  5
135F0
330
747D
100
AcDbEntity
  8
細線
 48
50.0
100
AcDbLine
 10
8248.698246349468
 20
2442.212087088988
 30
0.0
 11
8283.898246349464
 21
2432.780275515412
 31
0.0
  0
LINE
  5
135F1
330
747D
100
AcDbEntity
  8
部品1
100
AcDbLine
 10
8242.505938657156
 20
2421.447982626956
 30
0.0
 11
8289.890554041777
 21
2421.447982626953
 31
0.0
  0
LINE
  5
135F2
330
747D
100
AcDbEntity
  8
部品1
100
AcDbLine
 10
8245.736707887928
 20
2424.678751857724
 30
0.0
 11
8286.659784811007
 21
2424.678751857724
 31
0.0
  0
LINE
  5
135F3
330
747D
100
AcDbEntity
  8
部品1
100
AcDbLine
 10
8238.198246349467
 20
2403.140290319261
 30
0.0
 11
8294.198246349468
 21
2403.140290319261
 31
0.0
  0
LINE
  5
135F4
330
747D
100
AcDbEntity
  8
細線
 48
50.0
100
AcDbLine
 10
8248.698246349468
 20
2454.212087088985
 30
0.0
 11
8283.898246349464
 21
2444.78027551541
 31
0.0
  0
ARC
  5
135F5
330
747D
100
AcDbEntity
  8
部品1
100
AcDbCircle
 10
8247.890554041772
 20
2416.392684715946
 30
0.0
 40
7.3858052918609
100
AcDbArc
 50
43.19325636896477
 51
136.8067436310352
  0
LINE
  5
135F6
330
747D
100
AcDbEntity
  8
細線
 48
50.0
100
AcDbLine
 10
8248.698246349468
 20
2430.212087088985
 30
0.0
 11
8269.348934567842
 21
2424.678751857724
 31
0.0
  0
LINE
  5
135F7
330
747D
100
AcDbEntity
  8
部品1
100
AcDbLine
 10
8252.236707887929
 20
2520.524905703878
 30
0.0
 11
8282.390554041773
 21
2520.524905703878
 31
0.0
  0
LINE
  5
135F8
330
747D
100
AcDbEntity
  8
部品1
100
AcDbLine
 10
8282.390554041773
 20
2520.524905703878
 30
0.0
 11
8282.390554041773
 21
2505.447982626955
 31
0.0
  0
LINE
  5
135F9
330
747D
100
AcDbEntity
  8
部品1
100
AcDbLine
 10
8282.390554041773
 20
2505.447982626955
 30
0.0
 11
8324.082861734082
 21
2505.447982626955
 31
0.0
  0
LINE
  5
135FA
330
747D
100
AcDbEntity
  8
部品1
100
AcDbLine
 10
8252.236707887929
 20
2546.371059550031
 30
0.0
 11
8252.236707887929
 21
2520.524905703878
 31
0.0
  0
LINE
  5
135FB
330
747D
100
AcDbEntity
  8
部品1
100
AcDbLine
 10
8146.390554041772
 20
2520.524905703878
 30
0.0
 11
8219.929015580234
 21
2520.524905703878
 31
0.0
  0
LINE
  5
135FC
330
747D
100
AcDbEntity
  8
部品1
100
AcDbLine
 10
8146.390554041772
 20
2507.6018287808
 30
0.0
 11
8146.390554041772
 21
2520.524905703878
 31
0.0
  0
LINE
  5
135FD
330
747D
100
AcDbEntity
  8
部品1
100
AcDbLine
 10
8219.929015580234
 20
2520.524905703878
 30
0.0
 11
8219.929015580234
 21
2546.371059550031
 31
0.0
  0
LINE
  5
135FE
330
747D
100
AcDbEntity
  8
部品1
100
AcDbLine
 10
8219.929015580234
 20
2546.371059550031
 30
0.0
 11
8252.236707887929
 21
2546.371059550031
 31
0.0
  0
LINE
  5
135FF
330
747D
100
AcDbEntity
  8
細線
 48
50.0
100
AcDbLine
 10
3999.80821159729
 20
3237.518561748912
 30
0.0
 11
7556.451760969821
 21
3237.518561748912
 31
0.0
  0
LINE
  5
13600
330
747D
100
AcDbEntity
  8
細線
 48
50.0
100
AcDbLine
 10
8485.741339517756
 20
3357.518561748911
 30
0.0
 11
7636.451760969821
 21
3357.518561748911
 31
0.0
  0
TEXT
  5
13601
330
747D
100
AcDbEntity
  8
部品1
 48
50.0
100
AcDbText
 10
7657.200835901496
 20
3182.605343561978
 30
0.0
 40
112.0
  1
基礎詳細図
  7
STYLE2
100
AcDbText
  0
LINE
  5
13602
330
747D
100
AcDbEntity
  8
細線
 48
50.0
100
AcDbLine
 10
8485.741339517756
 20
3117.518561748912
 30
0.0
 11
7636.451760969821
 21
3117.518561748912
 31
0.0
  0
ARC
  5
13603
330
747D
100
AcDbEntity
  8
細線
 48
50.0
100
AcDbCircle
 10
7636.451760969821
 20
3277.518561748911
 30
0.0
 40
80.0
100
AcDbArc
 50
90.0
 51
180.0
  0
LINE
  5
13604
330
747D
100
AcDbEntity
  8
細線
 48
50.0
100
AcDbLine
 10
7556.451760969821
 20
3197.518561748911
 30
0.0
 11
7556.451760969821
 21
3277.518561748911
 31
0.0
  0
ARC
  5
13605
330
747D
100
AcDbEntity
  8
細線
 48
50.0
100
AcDbCircle
 10
7636.451760969821
 20
3197.518561748911
 30
0.0
 40
80.0
100
AcDbArc
 50
180.0
 51
270.0
  0
LINE
  5
13606
330
747D
100
AcDbEntity
  8
細線
 48
50.0
100
AcDbLine
 10
12122.38488889028
 20
3237.518561748912
 30
0.0
 11
12122.38488889028
 21
331.8568885081545
 31
0.0
  0
LEADER
  5
13607
330
747D
100
AcDbEntity
  8
寸法
 48
50.0
100
AcDbLeader
  3
INABA_S50G
 71
     0
 73
     0
 74
     0
 75
     1
 40
100.0
 41
581.9577020040977
 76
     3
 10
11145.73824268
 20
1975.627790971259
 30
0.0
 10
11293.43840814462
 20
1819.064078741114
 30
0.0
 10
11418.43840814462
 20
1819.064078741114
 30
0.0
340
13608
  0
MTEXT
  5
13608
102
{ACAD_REACTORS
330
13607
102
}
330
747D
100
AcDbEntity
  8
寸法
 62
     7
 48
50.0
100
AcDbMText
 10
11443.43840814462
 20
1894.064078741114
 30
0.0
 40
100.0
 41
0.0
 71
     4
 72
     1
  1
防湿シート
  7
STYLE1
 73
     1
 44
1.0
1001
ACAD
1000
MTEXTBEGIN
1070
    73
1070
     1
1070
    44
1040
1.0
1070
    74
1070
     0
1000
MTEXTEND
  0
CIRCLE
  5
13609
330
747D
100
AcDbEntity
  8
部品1
 48
50.0
100
AcDbCircle
 10
10181.36084432027
 20
1468.832598011571
 30
0.0
 40
10.0
  0
LINE
  5
1360A
330
747D
100
AcDbEntity
  8
部品1
 48
50.0
100
AcDbLine
 10
10041.36084432027
 20
1618.832598011571
 30
0.0
 11
10221.36084432027
 21
1618.832598011571
 31
0.0
  0
LINE
  5
1360B
330
747D
100
AcDbEntity
  8
部品1
 48
50.0
100
AcDbLine
 10
10111.36084432027
 20
1458.83259801157
 30
0.0
 11
10571.36084432027
 21
1458.83259801157
 31
0.0
  0
LINE
  5
1360C
330
747D
100
AcDbEntity
  8
部品1
 48
50.0
100
AcDbLine
 10
10111.36084432027
 20
1438.83259801157
 30
0.0
 11
10571.36084432027
 21
1438.83259801157
 31
0.0
  0
LINE
  5
1360D
330
747D
100
AcDbEntity
  8
細線
 48
50.0
100
AcDbLine
 10
10180.04716217772
 20
1188.83259801157
 30
0.0
 11
10188.08563795065
 21
1158.83259801157
 31
0.0
  0
LINE
  5
1360E
330
747D
100
AcDbEntity
  8
細線
 48
50.0
100
AcDbLine
 10
10172.00868640478
 20
1158.83259801157
 30
0.0
 11
10214.88055719376
 21
1318.83259801157
 31
0.0
  0
LINE
  5
1360F
330
747D
100
AcDbEntity
  8
部品1
 48
50.0
100
AcDbLine
 10
10741.36084432027
 20
1318.83259801157
 30
0.0
 11
9941.360844320271
 21
1318.83259801157
 31
0.0
  0
LINE
  5
13610
330
747D
100
AcDbEntity
  8
部品1
 48
50.0
100
AcDbLine
 10
10741.36084432027
 20
1158.83259801157
 30
0.0
 11
9941.360844320271
 21
1158.83259801157
 31
0.0
  0
LINE
  5
13611
330
747D
100
AcDbEntity
  8
部品1
 48
50.0
100
AcDbLine
 10
11298.33846854588
 20
631.4248336083947
 30
0.0
 11
9907.025199548277
 21
631.4248336083947
 31
0.0
  0
LINE
  5
13612
330
747D
100
AcDbEntity
  8
部品1
 48
50.0
100
AcDbLine
 10
11298.33846854588
 20
471.4248336083946
 30
0.0
 11
9907.025199548277
 21
471.4248336083946
 31
0.0
  0
TEXT
  5
13613
330
747D
100
AcDbEntity
  8
部品1
 48
50.0
100
AcDbText
 10
9967.171271096443
 20
508.6681726222478
 30
0.0
 40
96.0
  1
床下湿気防止用基礎
  7
STYLE2
100
AcDbText
  0
LINE
  5
13614
330
747D
100
AcDbEntity
  8
細線
 48
50.0
100
AcDbLine
 10
10132.21009574963
 20
1318.83259801157
 30
0.0
 11
10252.21009574963
 21
1438.83259801157
 31
0.0
  0
LINE
  5
13615
330
747D
100
AcDbEntity
  8
細線
 48
50.0
100
AcDbLine
 10
10098.53413529562
 20
1318.83259801157
 30
0.0
 11
10218.53413529562
 21
1438.83259801157
 31
0.0
  0
LINE
  5
13616
330
747D
100
AcDbEntity
  8
Ｇ．Ｌ
 48
50.0
100
AcDbLine
 10
9703.685967029077
 20
1922.668705149493
 30
0.0
 11
10221.36084432027
 21
1922.668705149493
 31
0.0
  0
LINE
  5
13617
330
747D
100
AcDbEntity
  8
部品1
 48
50.0
100
AcDbLine
 10
8687.308812614684
 20
631.4248336083947
 30
0.0
 11
8687.308812614684
 21
471.4248336083946
 31
0.0
  0
LINE
  5
13618
330
747D
100
AcDbEntity
  8
細線
 48
50.0
100
AcDbLine
 10
8566.396369354283
 20
1158.832598011569
 30
0.0
 11
8609.268240143261
 21
1318.832598011569
 31
0.0
  0
LINE
  5
13619
330
747D
100
AcDbEntity
  8
細線
 48
50.0
100
AcDbLine
 10
8574.434845127216
 20
1188.832598011569
 30
0.0
 11
8582.473320900149
 21
1158.832598011569
 31
0.0
  0
LINE
  5
1361A
330
747D
100
AcDbEntity
  8
細線
 48
50.0
100
AcDbLine
 10
8601.229764370332
 20
1288.83259801157
 30
0.0
 11
8593.191288597399
 21
1318.832598011569
 31
0.0
  0
LINE
  5
1361B
330
747D
100
AcDbEntity
  8
部品1
 48
50.0
100
AcDbLine
 10
8642.698246349468
 20
1158.832598011569
 30
0.0
 11
8642.698246349468
 21
1318.832598011569
 31
0.0
  0
LINE
  5
1361C
330
747D
100
AcDbEntity
  8
部品1
 48
50.0
100
AcDbLine
 10
9907.025199548277
 20
631.4248336083947
 30
0.0
 11
9907.025199548277
 21
471.4248336083946
 31
0.0
  0
LINE
  5
1361D
330
747D
100
AcDbEntity
  8
部品1
 48
50.0
100
AcDbLine
 10
10041.36084432027
 20
1318.83259801157
 30
0.0
 11
10041.36084432027
 21
1618.832598011571
 31
0.0
  0
LINE
  5
1361E
330
747D
100
AcDbEntity
  8
細線
 48
50.0
100
AcDbLine
 10
10064.85817484161
 20
1318.83259801157
 30
0.0
 11
10184.85817484161
 21
1438.83259801157
 31
0.0
  0
LINE
  5
1361F
330
747D
100
AcDbEntity
  8
細線
 48
50.0
100
AcDbLine
 10
9974.788574036658
 20
1158.83259801157
 30
0.0
 11
10017.66044482564
 21
1318.83259801157
 31
0.0
  0
LINE
  5
13620
330
747D
100
AcDbEntity
  8
部品1
 48
50.0
100
AcDbLine
 10
9941.360844320271
 20
1158.83259801157
 30
0.0
 11
9941.360844320271
 21
1318.83259801157
 31
0.0
  0
LINE
  5
13621
330
747D
100
AcDbEntity
  8
細線
 48
50.0
100
AcDbLine
 10
10108.23202523677
 20
1288.83259801157
 30
0.0
 11
10100.19354946383
 21
1318.83259801157
 31
0.0
  0
LINE
  5
13622
330
747D
100
AcDbEntity
  8
細線
 48
50.0
100
AcDbLine
 10
9982.827049809596
 20
1188.83259801157
 30
0.0
 11
9990.865525582529
 21
1158.83259801157
 31
0.0
  0
LINE
  5
13623
330
747D
100
AcDbEntity
  8
細線
 48
50.0
100
AcDbLine
 10
10009.6219690527
 20
1288.83259801157
 30
0.0
 11
10001.58349327977
 21
1318.83259801157
 31
0.0
  0
LINE
  5
13624
330
747D
100
AcDbEntity
  8
細線
 48
50.0
100
AcDbLine
 10
10081.43710599366
 20
1188.83259801157
 30
0.0
 11
10089.47558176659
 21
1158.83259801157
 31
0.0
  0
LINE
  5
13625
330
747D
100
AcDbEntity
  8
細線
 48
50.0
100
AcDbLine
 10
10073.39863022072
 20
1158.83259801157
 30
0.0
 11
10116.2705010097
 21
1318.83259801157
 31
0.0
  0
LINE
  5
13626
330
747D
100
AcDbEntity
  8
部品1
 48
50.0
100
AcDbLine
 10
10111.36084432027
 20
1438.83259801157
 30
0.0
 11
10111.36084432027
 21
1458.83259801157
 31
0.0
  0
LINE
  5
13627
330
747D
100
AcDbEntity
  8
細線
 48
50.0
100
AcDbLine
 10
10041.36084432027
 20
1564.742951122305
 30
0.0
 11
10095.45049120954
 21
1618.832598011571
 31
0.0
  0
LINE
  5
13628
330
747D
100
AcDbEntity
  8
細線
 48
50.0
100
AcDbLine
 10
10041.36084432027
 20
1531.066990668295
 30
0.0
 11
10129.12645166355
 21
1618.832598011571
 31
0.0
  0
LINE
  5
13629
330
747D
100
AcDbEntity
  8
細線
 48
50.0
100
AcDbLine
 10
10041.36084432027
 20
1497.391030214285
 30
0.0
 11
10162.80241211756
 21
1618.832598011571
 31
0.0
  0
TEXT
  5
1362A
330
747D
100
AcDbEntity
  8
部品1
 48
50.0
100
AcDbText
 10
8566.889536057065
 20
2016.827122584222
 30
0.0
 40
100.0
  1
M12×200(市販品)
  7
STYLE1
100
AcDbText
  0
LINE
  5
1362B
330
747D
100
AcDbEntity
  8
部品1
 48
50.0
100
AcDbLine
 10
9765.05739295924
 20
2006.138829997913
 30
0.0
 11
9861.440391060297
 21
2006.138829997913
 31
0.0
  0
LINE
  5
1362C
330
747D
100
AcDbEntity
  8
部品1
 48
50.0
100
AcDbLine
 10
9765.05739295924
 20
2006.138829997913
 30
0.0
 11
9813.248892009767
 21
1922.668705149489
 31
0.0
  0
TEXT
  5
1362D
330
747D
100
AcDbEntity
  8
部品1
 48
50.0
100
AcDbText
 10
9863.531746430295
 20
1932.0345320522
 30
0.0
 40
100.0
  1
G.L
  7
STYLE1
100
AcDbText
  0
LINE
  5
1362E
330
747D
100
AcDbEntity
  8
部品1
 48
50.0
100
AcDbLine
 10
9861.440391060297
 20
2006.138829997913
 30
0.0
 11
9813.248892009767
 21
1922.668705149489
 31
0.0
  0
LINE
  5
1362F
330
747D
100
AcDbEntity
  8
細線
 48
50.0
100
AcDbLine
 10
10371.36084432028
 20
1557.983346582211
 30
0.0
 11
10461.36084432027
 21
1647.983346582207
 31
0.0
  0
LINE
  5
13630
330
747D
100
AcDbEntity
  8
細線
 48
50.0
100
AcDbLine
 10
10371.36084432028
 20
1591.659307036222
 30
0.0
 11
10461.36084432027
 21
1681.659307036217
 31
0.0
  0
LINE
  5
13631
330
747D
100
AcDbEntity
  8
部品1
 48
50.0
100
AcDbLine
 10
10461.36084432027
 20
2398.832598011571
 30
0.0
 11
10461.36084432027
 21
1618.832598011571
 31
0.0
  0
LINE
  5
13632
330
747D
100
AcDbEntity
  8
部品1
 48
50.0
100
AcDbLine
 10
10221.36084432027
 20
1618.832598011571
 30
0.0
 11
10221.36084432027
 21
2398.832598011571
 31
0.0
  0
LINE
  5
13633
330
747D
100
AcDbEntity
  8
部品1
 48
50.0
100
AcDbLine
 10
10351.36084432028
 20
1468.832598011571
 30
0.0
 11
10351.36084432027
 21
2224.150634754377
 31
0.0
  0
LINE
  5
13634
330
747D
100
AcDbEntity
  8
部品1
 48
50.0
100
AcDbLine
 10
10371.36084432028
 20
1468.832598011571
 30
0.0
 11
10371.36084432027
 21
2224.150634754377
 31
0.0
  0
LINE
  5
13635
330
747D
100
AcDbEntity
  8
細線
 48
50.0
100
AcDbLine
 10
10507.9418189277
 20
1458.83259801157
 30
0.0
 11
10641.36084432027
 21
1592.251623404144
 31
0.0
  0
LINE
  5
13636
330
747D
100
AcDbEntity
  8
細線
 48
50.0
100
AcDbLine
 10
10541.61777938171
 20
1458.83259801157
 30
0.0
 11
10641.36084432027
 21
1558.575662950132
 31
0.0
  0
LINE
  5
13637
330
747D
100
AcDbEntity
  8
細線
 48
50.0
100
AcDbLine
 10
10474.26585847368
 20
1458.83259801157
 30
0.0
 11
10634.26585847369
 21
1618.832598011571
 31
0.0
  0
LINE
  5
13638
330
747D
100
AcDbEntity
  8
部品1
 48
50.0
100
AcDbLine
 10
10461.36084432027
 20
1618.832598011571
 30
0.0
 11
10641.36084432027
 21
1618.832598011571
 31
0.0
  0
LINE
  5
13639
330
747D
100
AcDbEntity
  8
細線
 48
50.0
100
AcDbLine
 10
10566.44891114102
 20
1158.83259801157
 30
0.0
 11
10609.32078193
 21
1318.83259801157
 31
0.0
  0
LINE
  5
1363A
330
747D
100
AcDbEntity
  8
細線
 48
50.0
100
AcDbLine
 10
10601.28230615707
 20
1288.83259801157
 30
0.0
 11
10593.24383038414
 21
1318.83259801157
 31
0.0
  0
LINE
  5
1363B
330
747D
100
AcDbEntity
  8
細線
 48
50.0
100
AcDbLine
 10
10401.61777938171
 20
1318.83259801157
 30
0.0
 11
10521.61888918813
 21
1438.833707817995
 31
0.0
  0
LINE
  5
1363C
330
747D
100
AcDbEntity
  8
細線
 48
50.0
100
AcDbLine
 10
10334.26585847369
 20
1318.83259801157
 30
0.0
 11
10454.26585847369
 21
1438.83259801157
 31
0.0
  0
LINE
  5
1363D
330
747D
100
AcDbEntity
  8
細線
 48
50.0
100
AcDbLine
 10
10367.9418189277
 20
1318.83259801157
 30
0.0
 11
10487.9418189277
 21
1438.83259801157
 31
0.0
  0
LINE
  5
1363E
330
747D
100
AcDbEntity
  8
細線
 48
50.0
100
AcDbLine
 10
10369.2287987729
 20
1158.83259801157
 30
0.0
 11
10412.10066956188
 21
1318.83259801157
 31
0.0
  0
LINE
  5
1363F
330
747D
100
AcDbEntity
  8
細線
 48
50.0
100
AcDbLine
 10
10377.26727454584
 20
1188.83259801157
 30
0.0
 11
10385.30575031877
 21
1158.83259801157
 31
0.0
  0
LINE
  5
13640
330
747D
100
AcDbEntity
  8
細線
 48
50.0
100
AcDbLine
 10
10206.84208142083
 20
1288.83259801157
 30
0.0
 11
10198.80360564789
 21
1318.83259801157
 31
0.0
  0
LINE
  5
13641
330
747D
100
AcDbEntity
  8
細線
 48
50.0
100
AcDbLine
 10
10278.65721836178
 20
1188.83259801157
 30
0.0
 11
10286.69569413471
 21
1158.83259801157
 31
0.0
  0
LINE
  5
13642
330
747D
100
AcDbEntity
  8
細線
 48
50.0
100
AcDbLine
 10
10270.61874258884
 20
1158.83259801157
 30
0.0
 11
10313.49061337782
 21
1318.83259801157
 31
0.0
  0
LINE
  5
13643
330
747D
100
AcDbEntity
  8
細線
 48
50.0
100
AcDbLine
 10
10305.45213760489
 20
1288.83259801157
 30
0.0
 11
10297.41366183196
 21
1318.83259801157
 31
0.0
  0
LINE
  5
13644
330
747D
100
AcDbEntity
  8
細線
 48
50.0
100
AcDbLine
 10
10574.48738691396
 20
1188.83259801157
 30
0.0
 11
10582.52586268689
 21
1158.83259801157
 31
0.0
  0
LINE
  5
13645
330
747D
100
AcDbEntity
  8
細線
 48
50.0
100
AcDbLine
 10
10404.06219378895
 20
1288.83259801157
 30
0.0
 11
10396.02371801602
 21
1318.83259801157
 31
0.0
  0
LINE
  5
13646
330
747D
100
AcDbEntity
  8
細線
 48
50.0
100
AcDbLine
 10
10475.8773307299
 20
1188.83259801157
 30
0.0
 11
10483.91580650283
 21
1158.83259801157
 31
0.0
  0
LINE
  5
13647
330
747D
100
AcDbEntity
  8
細線
 48
50.0
100
AcDbLine
 10
10502.67224997301
 20
1288.83259801157
 30
0.0
 11
10494.63377420008
 21
1318.83259801157
 31
0.0
  0
LINE
  5
13648
330
747D
100
AcDbEntity
  8
細線
 48
50.0
100
AcDbLine
 10
10467.83885495696
 20
1158.83259801157
 30
0.0
 11
10510.71072574594
 21
1318.83259801157
 31
0.0
  0
LINE
  5
13649
330
747D
100
AcDbEntity
  8
部品1
 48
50.0
100
AcDbLine
 10
10331.36084432027
 20
1541.491616382974
 30
0.0
 11
10311.36084432027
 21
1541.491616382974
 31
0.0
  0
LINE
  5
1364A
330
747D
100
AcDbEntity
  8
細線
 48
50.0
100
AcDbLine
 10
10321.19315366703
 20
1541.491616382974
 30
0.0
 11
10351.36084432028
 21
1571.65930703622
 31
0.0
  0
LINE
  5
1364B
330
747D
100
AcDbEntity
  8
部品1
 48
50.0
100
AcDbLine
 10
10311.36084432027
 20
1541.491616382974
 30
0.0
 11
10311.36084432027
 21
1468.832598011571
 31
0.0
  0
ARC
  5
1364C
330
747D
100
AcDbEntity
  8
部品1
 48
50.0
100
AcDbCircle
 10
10341.36084432027
 20
1468.832598011571
 30
0.0
 40
30.0
100
AcDbArc
 50
180.0
 51
199.4712206345168
  0
CIRCLE
  5
1364D
330
747D
100
AcDbEntity
  8
部品1
 48
50.0
100
AcDbCircle
 10
10341.36084432027
 20
1468.832598011571
 30
0.0
 40
10.0
  0
LINE
  5
1364E
330
747D
100
AcDbEntity
  8
部品1
 48
50.0
100
AcDbLine
 10
10331.36084432027
 20
1541.491616382974
 30
0.0
 11
10331.36084432027
 21
1468.832598011571
 31
0.0
  0
ARC
  5
1364F
330
747D
100
AcDbEntity
  8
部品1
 48
50.0
100
AcDbCircle
 10
10341.36084432027
 20
1468.832598011571
 30
0.0
 40
30.0
100
AcDbArc
 50
340.5287793654832
 51
0.0
  0
LINE
  5
13650
330
747D
100
AcDbEntity
  8
細線
 48
50.0
100
AcDbLine
 10
10331.36084432027
 20
1517.983346582209
 30
0.0
 11
10351.36084432028
 21
1537.983346582211
 31
0.0
  0
LINE
  5
13651
330
747D
100
AcDbEntity
  8
細線
 48
50.0
100
AcDbLine
 10
10238.53413529562
 20
1458.83259801157
 30
0.0
 11
10311.36084432027
 21
1531.659307036219
 31
0.0
  0
LINE
  5
13652
330
747D
100
AcDbEntity
  8
細線
 48
50.0
100
AcDbLine
 10
10204.85817484161
 20
1458.83259801157
 30
0.0
 11
10351.36084432027
 21
1605.33526749023
 31
0.0
  0
LINE
  5
13653
330
747D
100
AcDbEntity
  8
細線
 48
50.0
100
AcDbLine
 10
10272.21009574963
 20
1458.83259801157
 30
0.0
 11
10311.36084432027
 21
1497.983346582207
 31
0.0
  0
LINE
  5
13654
330
747D
100
AcDbEntity
  8
部品1
 48
50.0
100
AcDbLine
 10
10571.36084432027
 20
1438.83259801157
 30
0.0
 11
10571.36084432027
 21
1458.83259801157
 31
0.0
  0
CIRCLE
  5
13655
330
747D
100
AcDbEntity
  8
部品1
 48
50.0
100
AcDbCircle
 10
10501.36084432027
 20
1468.832598011571
 30
0.0
 40
10.0
  0
LINE
  5
13656
330
747D
100
AcDbEntity
  8
細線
 48
50.0
100
AcDbLine
 10
10603.67354210576
 20
1318.83259801157
 30
0.0
 11
10641.36084432027
 21
1356.519900226076
 31
0.0
  0
LINE
  5
13657
330
747D
100
AcDbEntity
  8
部品1
 48
50.0
100
AcDbLine
 10
10641.36084432027
 20
1618.832598011571
 30
0.0
 11
10641.36084432027
 21
1318.83259801157
 31
0.0
  0
LINE
  5
13658
330
747D
100
AcDbEntity
  8
部品1
 48
50.0
100
AcDbLine
 10
10741.36084432027
 20
1158.83259801157
 30
0.0
 11
10741.36084432027
 21
1318.83259801157
 31
0.0
  0
LINE
  5
13659
330
747D
100
AcDbEntity
  8
細線
 48
50.0
100
AcDbLine
 10
10637.34950255977
 20
1318.83259801157
 30
0.0
 11
10641.36084432027
 21
1322.843939772068
 31
0.0
  0
LINE
  5
1365A
330
747D
100
AcDbEntity
  8
細線
 48
50.0
100
AcDbLine
 10
10673.09744309802
 20
1188.83259801157
 30
0.0
 11
10681.13591887095
 21
1158.83259801157
 31
0.0
  0
LINE
  5
1365B
330
747D
100
AcDbEntity
  8
細線
 48
50.0
100
AcDbLine
 10
10665.05896732508
 20
1158.83259801157
 30
0.0
 11
10707.93083811406
 21
1318.83259801157
 31
0.0
  0
LINE
  5
1365C
330
747D
100
AcDbEntity
  8
細線
 48
50.0
100
AcDbLine
 10
10699.89236234113
 20
1288.83259801157
 30
0.0
 11
10691.8538865682
 21
1318.83259801157
 31
0.0
  0
LINE
  5
1365D
330
747D
100
AcDbEntity
  8
部品1
 48
50.0
100
AcDbLine
 10
11298.33846854588
 20
631.4248336083947
 30
0.0
 11
11298.33846854588
 21
471.4248336083946
 31
0.0
  0
LWPOLYLINE
  5
1365E
330
747D
100
AcDbEntity
  8
部品1
 48
50.0
100
AcDbPolyline
 90
        4
 70
     0
 43
15.0
 10
10461.36084432027
 20
1922.668705149493
 10
10979.03572161146
 20
1922.668705149493
 42
0.1559987191059798
 10
11145.73824268
 20
1975.627790971259
 42
-0.1900569176366468
 10
11344.66005791851
 20
2006.608974415205
  0
LINE
  5
1365F
330
747D
100
AcDbEntity
  8
部品1
 48
50.0
100
AcDbLine
 10
10311.36084432027
 20
2151.491616382976
 30
0.0
 11
10311.36084432027
 21
2224.150634754379
 31
0.0
  0
LINE
  5
13660
330
747D
100
AcDbEntity
  8
細線
 48
50.0
100
AcDbLine
 10
10331.36084432027
 20
2190.474674300368
 30
0.0
 11
10351.36084432027
 21
2210.474674300368
 31
0.0
  0
LINE
  5
13661
330
747D
100
AcDbEntity
  8
部品1
 48
50.0
100
AcDbLine
 10
10331.36084432027
 20
2151.491616382974
 30
0.0
 11
10331.36084432027
 21
2224.150634754377
 31
0.0
  0
LINE
  5
13662
330
747D
100
AcDbEntity
  8
細線
 48
50.0
100
AcDbLine
 10
10371.36084432027
 20
2196.798713846359
 30
0.0
 11
10461.36084432027
 21
2286.798713846359
 31
0.0
  0
LINE
  5
13663
330
747D
100
AcDbEntity
  8
細線
 48
50.0
100
AcDbLine
 10
10221.36084432027
 20
2114.150634754377
 30
0.0
 11
10311.36084432027
 21
2204.150634754377
 31
0.0
  0
LINE
  5
13664
330
747D
100
AcDbEntity
  8
細線
 48
50.0
100
AcDbLine
 10
10593.39863022072
 20
1742.668705149492
 30
0.0
 11
10636.2705010097
 21
1902.668705149493
 31
0.0
  0
LINE
  5
13665
330
747D
100
AcDbEntity
  8
部品1
 48
50.0
100
AcDbLine
 10
10461.36084432027
 20
2172.668705149493
 30
0.0
 11
10979.03572161146
 21
2172.668705149493
 31
0.0
  0
LINE
  5
13666
330
747D
100
AcDbEntity
  8
部品1
 48
50.0
100
AcDbLine
 10
10461.36084432027
 20
1922.668705149493
 30
0.0
 11
10979.03572161146
 21
1922.668705149493
 31
0.0
  0
LINE
  5
13667
330
747D
100
AcDbEntity
  8
部品1
 48
50.0
100
AcDbLine
 10
10461.36084432027
 20
1942.668705149493
 30
0.0
 11
10979.03572161146
 21
1942.668705149493
 31
0.0
  0
LINE
  5
13668
330
747D
100
AcDbEntity
  8
部品1
 48
50.0
100
AcDbLine
 10
10461.36084432027
 20
1902.668705149493
 30
0.0
 11
10979.03572161146
 21
1902.668705149493
 31
0.0
  0
LINE
  5
13669
330
747D
100
AcDbEntity
  8
部品1
 48
50.0
100
AcDbLine
 10
10462.44567466357
 20
1742.668705149492
 30
0.0
 11
10979.03572161146
 21
1742.668705149492
 31
0.0
  0
HATCH
  5
1366A
330
747D
100
AcDbEntity
  8
寸法
 62
     5
 48
50.0
100
AcDbHatch
 10
0.0
 20
0.0
 30
0.0
210
0.0
220
0.0
230
1.0
  2
PLAST
 70
     0
 71
     0
 91
        1
 92
        7
 72
     0
 73
     1
 93
        4
 10
10979.03572161146
 20
2172.668705149492
 10
10461.36084432027
 20
2172.668705149493
 10
10461.36084432027
 20
1942.668705149493
 10
10979.03572161146
 20
1942.668705149493
 97
        0
 75
     0
 76
     1
 52
315.0
 41
25.0
 77
     0
 78
     3
 53
315.0
 43
-2526.006119430345
 44
-3419.958392327837
 45
112.2532015133644
 46
112.2532015133644
 79
     0
 53
315.0
 43
-2511.974469241175
 44
-3405.926742138666
 45
112.2532015133644
 46
112.2532015133644
 79
     0
 53
315.0
 43
-2497.942819052004
 44
-3391.895091949495
 45
112.2532015133644
 46
112.2532015133644
 79
     0
 47
1.387886003246494
 98
        1
 10
10689.91137514623
 20
2109.354292186865
  0
LINE
  5
1366B
330
747D
100
AcDbEntity
  8
細線
 48
50.0
100
AcDbLine
 10
10371.36084432028
 20
1827.391030214286
 30
0.0
 11
10461.36084432027
 21
1917.391030214282
 31
0.0
  0
LINE
  5
1366C
330
747D
100
AcDbEntity
  8
細線
 48
50.0
100
AcDbLine
 10
10371.36084432027
 20
1894.742951122305
 30
0.0
 11
10461.36084432027
 21
1984.742951122304
 31
0.0
  0
LINE
  5
1366D
330
747D
100
AcDbEntity
  8
細線
 48
50.0
100
AcDbLine
 10
10371.36084432027
 20
1861.066990668293
 30
0.0
 11
10461.36084432027
 21
1951.066990668289
 31
0.0
  0
LINE
  5
1366E
330
747D
100
AcDbEntity
  8
細線
 48
50.0
100
AcDbLine
 10
10371.36084432028
 20
1625.335267490231
 30
0.0
 11
10461.36084432027
 21
1715.335267490226
 31
0.0
  0
LINE
  5
1366F
330
747D
100
AcDbEntity
  8
細線
 48
50.0
100
AcDbLine
 10
10221.36084432027
 20
1744.742951122303
 30
0.0
 11
10351.36084432027
 21
1874.742951122303
 31
0.0
  0
LINE
  5
13670
330
747D
100
AcDbEntity
  8
細線
 48
50.0
100
AcDbLine
 10
10221.36084432027
 20
1711.066990668293
 30
0.0
 11
10351.36084432027
 21
1841.066990668291
 31
0.0
  0
LINE
  5
13671
330
747D
100
AcDbEntity
  8
細線
 48
50.0
100
AcDbLine
 10
10221.36084432027
 20
1677.391030214284
 30
0.0
 11
10351.36084432028
 21
1807.391030214286
 31
0.0
  0
LINE
  5
13672
330
747D
100
AcDbEntity
  8
細線
 48
50.0
100
AcDbLine
 10
10529.6219690527
 20
1872.668705149493
 30
0.0
 11
10521.58349327977
 21
1902.668705149493
 31
0.0
  0
LINE
  5
13673
330
747D
100
AcDbEntity
  8
細線
 48
50.0
100
AcDbLine
 10
10494.78857403666
 20
1742.668705149492
 30
0.0
 11
10537.66044482564
 21
1902.668705149493
 31
0.0
  0
LINE
  5
13674
330
747D
100
AcDbEntity
  8
細線
 48
50.0
100
AcDbLine
 10
10502.82704980959
 20
1772.668705149493
 30
0.0
 11
10510.86552558253
 21
1742.668705149492
 31
0.0
  0
LINE
  5
13675
330
747D
100
AcDbEntity
  8
部品1
 48
50.0
100
AcDbLine
 10
10331.36084432027
 20
2151.491616382974
 30
0.0
 11
10311.36084432027
 21
2151.491616382976
 31
0.0
  0
LINE
  5
13676
330
747D
100
AcDbEntity
  8
細線
 48
50.0
100
AcDbLine
 10
10331.36084432027
 20
2156.798713846359
 30
0.0
 11
10351.36084432027
 21
2176.798713846359
 31
0.0
  0
LINE
  5
13677
330
747D
100
AcDbEntity
  8
細線
 48
50.0
100
AcDbLine
 10
10221.36084432027
 20
2046.798713846359
 30
0.0
 11
10326.05374685689
 21
2151.491616382974
 31
0.0
  0
LINE
  5
13678
330
747D
100
AcDbEntity
  8
細線
 48
50.0
100
AcDbLine
 10
10221.36084432027
 20
2080.474674300368
 30
0.0
 11
10311.36084432027
 21
2170.474674300368
 31
0.0
  0
LINE
  5
13679
330
747D
100
AcDbEntity
  8
細線
 48
50.0
100
AcDbLine
 10
10798.65721836178
 20
1772.668705149493
 30
0.0
 11
10806.69569413471
 21
1742.668705149492
 31
0.0
  0
LINE
  5
1367A
330
747D
100
AcDbEntity
  8
細線
 48
50.0
100
AcDbLine
 10
10790.61874258884
 20
1742.668705149492
 30
0.0
 11
10833.49061337782
 21
1902.668705149493
 31
0.0
  0
LINE
  5
1367B
330
747D
100
AcDbEntity
  8
細線
 48
50.0
100
AcDbLine
 10
10726.84208142083
 20
1872.668705149493
 30
0.0
 11
10718.80360564789
 21
1902.668705149493
 31
0.0
  0
LINE
  5
1367C
330
747D
100
AcDbEntity
  8
細線
 48
50.0
100
AcDbLine
 10
10628.23202523677
 20
1872.668705149493
 30
0.0
 11
10620.19354946383
 21
1902.668705149493
 31
0.0
  0
LINE
  5
1367D
330
747D
100
AcDbEntity
  8
細線
 48
50.0
100
AcDbLine
 10
10601.43710599365
 20
1772.668705149493
 30
0.0
 11
10609.47558176659
 21
1742.668705149492
 31
0.0
  0
LINE
  5
1367E
330
747D
100
AcDbEntity
  8
細線
 48
50.0
100
AcDbLine
 10
10700.04716217772
 20
1772.668705149493
 30
0.0
 11
10708.08563795065
 21
1742.668705149492
 31
0.0
  0
LINE
  5
1367F
330
747D
100
AcDbEntity
  8
細線
 48
50.0
100
AcDbLine
 10
10692.00868640478
 20
1742.668705149492
 30
0.0
 11
10734.88055719376
 21
1902.668705149493
 31
0.0
  0
LINE
  5
13680
330
747D
100
AcDbEntity
  8
細線
 48
50.0
100
AcDbLine
 10
10825.45213760489
 20
1872.668705149493
 30
0.0
 11
10817.41366183196
 21
1902.668705149493
 31
0.0
  0
LINE
  5
13681
330
747D
100
AcDbEntity
  8
細線
 48
50.0
100
AcDbLine
 10
10897.26727454583
 20
1772.668705149493
 30
0.0
 11
10905.30575031877
 21
1742.668705149492
 31
0.0
  0
LINE
  5
13682
330
747D
100
AcDbEntity
  8
細線
 48
50.0
100
AcDbLine
 10
10889.2287987729
 20
1742.668705149492
 30
0.0
 11
10932.10066956188
 21
1902.668705149493
 31
0.0
  0
LINE
  5
13683
330
747D
100
AcDbEntity
  8
細線
 48
50.0
100
AcDbLine
 10
10924.06219378895
 20
1872.668705149493
 30
0.0
 11
10916.02371801602
 21
1902.668705149493
 31
0.0
  0
LINE
  5
13684
330
747D
100
AcDbEntity
  8
細線
 48
50.0
100
AcDbLine
 10
10356.97637244836
 20
2249.766162882465
 30
0.0
 11
10461.36084432027
 21
2354.150634754377
 31
0.0
  0
LINE
  5
13685
330
747D
100
AcDbEntity
  8
細線
100
AcDbLine
 10
10391.66768551148
 20
2366.822291721863
 30
0.0
 11
10421.17175418971
 21
2365.184547024474
 31
0.0
  0
LINE
  5
13686
330
747D
100
AcDbEntity
  8
細線
 48
50.0
100
AcDbLine
 10
10370.80172840275
 20
2229.915558382846
 30
0.0
 11
10461.36084432027
 21
2320.474674300368
 31
0.0
  0
LINE
  5
13687
330
747D
100
AcDbEntity
  8
部品1
 48
50.0
100
AcDbLine
 10
10221.36084432027
 20
2398.832598011571
 30
0.0
 11
10461.36084432027
 21
2398.832598011571
 31
0.0
  0
LINE
  5
13688
330
747D
100
AcDbEntity
  8
細線
100
AcDbLine
 10
10335.93769687304
 20
2365.184547024474
 30
0.0
 11
10391.66768551148
 21
2366.822291721863
 31
0.0
  0
CIRCLE
  5
13689
330
747D
100
AcDbEntity
  8
部品1
 48
50.0
100
AcDbCircle
 10
10341.36084432027
 20
2224.150634754377
 30
0.0
 40
10.0
  0
ARC
  5
1368A
330
747D
100
AcDbEntity
  8
部品1
 48
50.0
100
AcDbCircle
 10
10341.36084432027
 20
2224.150634754377
 30
0.0
 40
30.0
100
AcDbArc
 50
0.0
 51
180.0
  0
LINE
  5
1368B
330
747D
100
AcDbEntity
  8
細線
 48
50.0
100
AcDbLine
 10
10221.36084432027
 20
2316.206397478433
 30
0.0
 11
10263.7881853677
 21
2358.633738525858
 31
0.0
  0
LINE
  5
1368C
330
747D
100
AcDbEntity
  8
細線
100
AcDbLine
 10
10221.36084432027
 20
2368.45997965561
 30
0.0
 11
10258.8991678263
 21
2358.633738525858
 31
0.0
  0
LINE
  5
1368D
330
747D
100
AcDbEntity
  8
細線
 48
50.0
100
AcDbLine
 10
10221.36084432027
 20
2349.882357932443
 30
0.0
 11
10236.08435713158
 21
2364.605870743749
 31
0.0
  0
LINE
  5
1368E
330
747D
100
AcDbEntity
  8
細線
100
AcDbLine
 10
10258.8991678263
 20
2358.633738525858
 30
0.0
 11
10294.95974257373
 21
2358.633738525858
 31
0.0
  0
LINE
  5
1368F
330
747D
100
AcDbEntity
  8
細線
100
AcDbLine
 10
10294.95974257373
 20
2358.633738525858
 30
0.0
 11
10335.93769687304
 21
2365.184547024474
 31
0.0
  0
LINE
  5
13690
330
747D
100
AcDbEntity
  8
細線
100
AcDbLine
 10
10421.17175418971
 20
2365.184547024474
 30
0.0
 11
10461.36084432027
 21
2356.995993828471
 31
0.0
  0
LINE
  5
13691
330
747D
100
AcDbEntity
  8
細線
 48
50.0
100
AcDbLine
 10
8565.741339517755
 20
3237.518561748911
 30
0.0
 11
12122.38488889028
 21
3237.518561748912
 31
0.0
  0
LINE
  5
13692
330
747D
100
AcDbEntity
  8
細線
 48
50.0
100
AcDbLine
 10
8565.741339517755
 20
3197.518561748911
 30
0.0
 11
8565.741339517755
 21
3197.518561748911
 31
0.0
  0
LINE
  5
13693
330
747D
100
AcDbEntity
  8
細線
 48
50.0
100
AcDbLine
 10
8565.741339517755
 20
3277.518561748911
 30
0.0
 11
8565.741339517755
 21
3197.518561748911
 31
0.0
  0
ENDSEC
  0
SECTION
  2
OBJECTS
  0
DICTIONARY
  5
7471
330
0
100
AcDbDictionary
281
     1
  3
ACAD_COLOR
350
11787
  3
ACAD_GROUP
350
7472
  3
ACAD_LAYOUT
350
11788
  3
ACAD_MATERIAL
350
11786
  3
ACAD_MLINESTYLE
350
7473
  3
ACAD_PLOTSETTINGS
350
11789
  3
ACAD_PLOTSTYLENAME
350
11784
  3
ACDBHEADERROUNDTRIPXREC
350
1375B
  3
AcDbVariableDictionary
350
13757
  3
CONTENTDICTIONARY
350
E71C
  3
DRAWINGVARIABLESDICT
350
F3B9
  0
DICTIONARY
  5
118CA
330
7467
100
AcDbDictionary
280
     1
281
     1
  3
ACAD_LAYERSTATES
360
118CB
  0
DICTIONARY
  5
11787
102
{ACAD_REACTORS
330
7471
102
}
330
7471
100
AcDbDictionary
281
     1
  0
DICTIONARY
  5
7472
102
{ACAD_REACTORS
330
7471
102
}
330
7471
100
AcDbDictionary
281
     1
  0
DICTIONARY
  5
11788
102
{ACAD_REACTORS
330
7471
102
}
330
7471
100
AcDbDictionary
281
     1
  3
Model
350
1178A
  3
レイアウト1
350
1178B
  0
DICTIONARY
  5
11786
102
{ACAD_REACTORS
330
7471
102
}
330
7471
100
AcDbDictionary
281
     1
  0
DICTIONARY
  5
7473
102
{ACAD_REACTORS
330
7471
102
}
330
7471
100
AcDbDictionary
281
     1
  3
STANDARD
350
7480
  0
DICTIONARY
  5
11789
102
{ACAD_REACTORS
330
7471
102
}
330
7471
100
AcDbDictionary
281
     1
  0
ACDBDICTIONARYWDFLT
  5
11784
102
{ACAD_REACTORS
330
7471
102
}
330
7471
100
AcDbDictionary
281
     1
  3
Normal
350
11785
100
AcDbDictionaryWithDefault
340
11785
  0
DICTIONARY
  5
1375B
102
{ACAD_REACTORS
330
7471
102
}
330
7471
100
AcDbDictionary
281
     1
  3
COLORDICT
350
1375D
  3
MATERIALDICT
350
1375C
  0
DICTIONARY
  5
13757
102
{ACAD_REACTORS
330
7471
102
}
330
7471
100
AcDbDictionary
281
     1
  3
DIMASSOC
350
13758
  3
PROJECTNAME
350
13759
  0
DICTIONARY
  5
E71C
102
{ACAD_REACTORS
330
7471
102
}
330
7471
100
AcDbDictionary
281
     1
  0
DICTIONARY
  5
F3B9
102
{ACAD_REACTORS
330
7471
102
}
330
7471
100
AcDbDictionary
281
     1
1001
DRAWINGVARIABLESXDATA
1000
POLARMODE
1000
1
  0
DICTIONARY
  5
118CB
102
{ACAD_REACTORS
330
118CA
102
}
330
118CA
100
AcDbDictionary
281
     1
  0
LAYOUT
  5
1178A
102
{ACAD_XDICTIONARY
360
1375E
102
}
102
{ACAD_REACTORS
330
11788
102
}
330
11788
100
AcDbPlotSettings
  1

  2
クセロPDF
  4
A3
  6

 40
3.174999952316284
 41
3.174999952316284
 42
3.17498779296875
 43
3.17498779296875
 44
419.9466552734374
 45
296.9259948730469
 46
0.0
 47
0.0
 48
0.0
 49
0.0
140
0.0
141
0.0
142
1.0
143
39.26972603865121
 70
 11952
 72
     1
 73
     0
 74
     1
  7
inaba.ctb
 75
     0
147
0.0254649089992569
148
-139.196816621341
149
0.9062337598370504
100
AcDbLayout
  1
Model
 70
     1
 71
     0
 10
0.0
 20
0.0
 11
12.0
 21
9.0
 12
0.0
 22
0.0
 32
0.0
 14
0.0
 24
0.0
 34
0.0
 15
0.0
 25
0.0
 35
0.0
146
0.0
 13
0.0
 23
0.0
 33
0.0
 16
1.0
 26
0.0
 36
0.0
 17
0.0
 27
1.0
 37
0.0
 76
     0
330
747D
  0
LAYOUT
  5
1178B
102
{ACAD_XDICTIONARY
360
13760
102
}
102
{ACAD_REACTORS
330
11788
102
}
330
11788
100
AcDbPlotSettings
  1

  2
Microsoft XPS Document Writer
  4

  6

 40
0.0
 41
0.0
 42
0.0
 43
0.0
 44
0.0
 45
0.0
 46
0.0
 47
0.0
 48
0.0
 49
0.0
140
0.0
141
0.0
142
1.0
143
1.0
 70
   688
 72
     0
 73
     0
 74
     5
  7

 75
    16
147
1.0
148
0.0
149
0.0
100
AcDbLayout
  1
レイアウト1
 70
     0
 71
     1
 10
0.0
 20
0.0
 11
420.0
 21
297.0
 12
0.0
 22
0.0
 32
0.0
 14
1.000000000000000E+20
 24
1.000000000000000E+20
 34
1.000000000000000E+20
 15
-1.000000000000000E+20
 25
-1.000000000000000E+20
 35
-1.000000000000000E+20
146
0.0
 13
0.0
 23
0.0
 33
0.0
 16
1.0
 26
0.0
 36
0.0
 17
0.0
 27
1.0
 37
0.0
 76
     0
330
747A
  0
MLINESTYLE
  5
7480
102
{ACAD_REACTORS
330
7473
102
}
330
7473
100
AcDbMlineStyle
  2
STANDARD
 70
     0
  3

 62
     0
 51
90.0
 52
90.0
 71
     2
 49
0.5
 62
   256
  6
BYLAYER
 49
-0.5
 62
   256
  6
BYLAYER
  0
ACDBPLACEHOLDER
  5
11785
102
{ACAD_REACTORS
330
11784
102
}
330
11784
  0
XRECORD
  5
1375D
102
{ACAD_REACTORS
330
1375B
102
}
330
1375B
100
AcDbXrecord
280
     1
340
11787
  0
XRECORD
  5
1375C
102
{ACAD_REACTORS
330
1375B
102
}
330
1375B
100
AcDbXrecord
280
     1
340
11786
  0
DICTIONARYVAR
  5
13758
102
{ACAD_REACTORS
330
13757
102
}
330
13757
100
DictionaryVariables
280
     0
  1
1
  0
DICTIONARYVAR
  5
13759
102
{ACAD_REACTORS
330
13757
102
}
330
13757
100
DictionaryVariables
280
     0
  1

  0
DICTIONARY
  5
1375E
330
1178A
100
AcDbDictionary
280
     1
281
     1
  3
ACAD_XREC_ROUNDTRIP
360
1375F
  0
DICTIONARY
  5
13760
330
1178B
100
AcDbDictionary
280
     1
281
     1
  3
ACAD_XREC_ROUNDTRIP
360
13761
  0
XRECORD
  5
1375F
102
{ACAD_REACTORS
330
1375E
102
}
330
1375E
100
AcDbXrecord
280
     1
102
SHADEPLOT
 70
     1
102
SHADEPLOTRESLEVEL
 70
     2
102
SHADEPLOTCUSTOMDPI
 70
   300
  0
XRECORD
  5
13761
102
{ACAD_REACTORS
330
13760
102
}
330
13760
100
AcDbXrecord
280
     1
102
SHADEPLOT
 70
     0
102
SHADEPLOTRESLEVEL
 70
     2
102
SHADEPLOTCUSTOMDPI
 70
   300
  0
ENDSEC
  0
EOF
