  0
SECTION
  2
HEADER
  9
$ACADVER
  1
AC1018
  9
$ACADMAINTVER
 70
     0
  9
$DWGCODEPAGE
  3
ANSI_932
  9
$INSBASE
 10
0.0
 20
0.0
 30
0.0
  9
$EXTMIN
 10
173.9960207766853
 20
-0.4531514603331744
 30
-0.0015258207003583
  9
$EXTMAX
 10
20385.40654231959
 20
14262.44433931126
 30
0.0000000349246037
  9
$LIMMIN
 10
0.0
 20
0.0
  9
$LIMMAX
 10
21000.0
 20
14850.0
  9
$ORTHOMODE
 70
     0
  9
$REGENMODE
 70
     1
  9
$FILLMODE
 70
     1
  9
$QTEXTMODE
 70
     0
  9
$MIRRTEXT
 70
     1
  9
$LTSCALE
 40
20.0
  9
$ATTMODE
 70
     1
  9
$TEXTSIZE
 40
150.0
  9
$TRACEWID
 40
1.0
  9
$TEXTSTYLE
  7
STYLE1
  9
$CLAYER
  8
寸法
  9
$CELTYPE
  6
BYLAYER
  9
$CECOLOR
 62
   256
  9
$CELTSCALE
 40
50.0
  9
$DISPSILH
 70
     0
  9
$DIMSCALE
 40
1.0
  9
$DIMASZ
 40
125.0
  9
$DIMEXO
 40
25.0
  9
$DIMDLI
 40
7.0
  9
$DIMRND
 40
0.0
  9
$DIMDLE
 40
0.0
  9
$DIMEXE
 40
75.0
  9
$DIMTP
 40
0.0
  9
$DIMTM
 40
0.0
  9
$DIMTXT
 40
150.0
  9
$DIMCEN
 40
0.0
  9
$DIMTSZ
 40
0.0
  9
$DIMTOL
 70
     0
  9
$DIMLIM
 70
     0
  9
$DIMTIH
 70
     0
  9
$DIMTOH
 70
     0
  9
$DIMSE1
 70
     0
  9
$DIMSE2
 70
     0
  9
$DIMTAD
 70
     3
  9
$DIMZIN
 70
     8
  9
$DIMBLK
  1

  9
$DIMASO
 70
     1
  9
$DIMSHO
 70
     1
  9
$DIMPOST
  1

  9
$DIMAPOST
  1

  9
$DIMALT
 70
     0
  9
$DIMALTD
 70
     2
  9
$DIMALTF
 40
0.0394
  9
$DIMLFAC
 40
1.0
  9
$DIMTOFL
 70
     1
  9
$DIMTVP
 40
0.0
  9
$DIMTIX
 70
     1
  9
$DIMSOXD
 70
     1
  9
$DIMSAH
 70
     1
  9
$DIMBLK1
  1
DOTSMALL
  9
$DIMBLK2
  1
DOTSMALL
  9
$DIMSTYLE
  2
INABA_S50G
  9
$DIMCLRD
 70
     0
  9
$DIMCLRE
 70
     0
  9
$DIMCLRT
 70
     7
  9
$DIMTFAC
 40
1.0
  9
$DIMGAP
 40
25.0
  9
$DIMJUST
 70
     0
  9
$DIMSD1
 70
     0
  9
$DIMSD2
 70
     0
  9
$DIMTOLJ
 70
     1
  9
$DIMTZIN
 70
     0
  9
$DIMALTZ
 70
     0
  9
$DIMALTTZ
 70
     0
  9
$DIMUPT
 70
     0
  9
$DIMDEC
 70
     1
  9
$DIMTDEC
 70
     4
  9
$DIMALTU
 70
     2
  9
$DIMALTTD
 70
     2
  9
$DIMTXSTY
  7
STYLE1
  9
$DIMAUNIT
 70
     0
  9
$DIMADEC
 70
     0
  9
$DIMALTRND
 40
0.0
  9
$DIMAZIN
 70
     0
  9
$DIMDSEP
 70
    46
  9
$DIMATFIT
 70
     3
  9
$DIMFRAC
 70
     0
  9
$DIMLDRBLK
  1
DOTSMALL
  9
$DIMLUNIT
 70
     2
  9
$DIMLWD
 70
    -2
  9
$DIMLWE
 70
    -2
  9
$DIMTMOVE
 70
     0
  9
$LUNITS
 70
     2
  9
$LUPREC
 70
     1
  9
$SKETCHINC
 40
1.0
  9
$FILLETRAD
 40
200.0
  9
$AUNITS
 70
     0
  9
$AUPREC
 70
     0
  9
$MENU
  1
acad
  9
$ELEVATION
 40
0.0
  9
$PELEVATION
 40
0.0
  9
$THICKNESS
 40
0.0
  9
$LIMCHECK
 70
     0
  9
$CHAMFERA
 40
0.0
  9
$CHAMFERB
 40
0.0
  9
$CHAMFERC
 40
30.0
  9
$CHAMFERD
 40
0.7853981633974483
  9
$SKPOLY
 70
     0
  9
$TDCREATE
 40
2450927.380327778
  9
$TDUCREATE
 40
2450927.005327778
  9
$TDUPDATE
 40
2454882.551866852
  9
$TDUUPDATE
 40
2454882.176866852
  9
$TDINDWG
 40
1.9787808102
  9
$TDUSRTIMER
 40
1.9787806366
  9
$USRTIMER
 70
     1
  9
$ANGBASE
 50
0.0
  9
$ANGDIR
 70
     0
  9
$PDMODE
 70
     3
  9
$PDSIZE
 40
2.0
  9
$PLINEWID
 40
0.0
  9
$SPLFRAME
 70
     0
  9
$SPLINETYPE
 70
     6
  9
$SPLINESEGS
 70
     8
  9
$HANDSEED
  5
1DB3E
  9
$SURFTAB1
 70
     6
  9
$SURFTAB2
 70
     6
  9
$SURFTYPE
 70
     6
  9
$SURFU
 70
     6
  9
$SURFV
 70
     6
  9
$UCSBASE
  2

  9
$UCSNAME
  2

  9
$UCSORG
 10
0.0
 20
0.0
 30
0.0
  9
$UCSXDIR
 10
1.0
 20
0.0
 30
0.0
  9
$UCSYDIR
 10
0.0
 20
1.0
 30
0.0
  9
$UCSORTHOREF
  2

  9
$UCSORTHOVIEW
 70
     0
  9
$UCSORGTOP
 10
0.0
 20
0.0
 30
0.0
  9
$UCSORGBOTTOM
 10
0.0
 20
0.0
 30
0.0
  9
$UCSORGLEFT
 10
0.0
 20
0.0
 30
0.0
  9
$UCSORGRIGHT
 10
0.0
 20
0.0
 30
0.0
  9
$UCSORGFRONT
 10
0.0
 20
0.0
 30
0.0
  9
$UCSORGBACK
 10
0.0
 20
0.0
 30
0.0
  9
$PUCSBASE
  2

  9
$PUCSNAME
  2

  9
$PUCSORG
 10
0.0
 20
0.0
 30
0.0
  9
$PUCSXDIR
 10
1.0
 20
0.0
 30
0.0
  9
$PUCSYDIR
 10
0.0
 20
1.0
 30
0.0
  9
$PUCSORTHOREF
  2

  9
$PUCSORTHOVIEW
 70
     0
  9
$PUCSORGTOP
 10
0.0
 20
0.0
 30
0.0
  9
$PUCSORGBOTTOM
 10
0.0
 20
0.0
 30
0.0
  9
$PUCSORGLEFT
 10
0.0
 20
0.0
 30
0.0
  9
$PUCSORGRIGHT
 10
0.0
 20
0.0
 30
0.0
  9
$PUCSORGFRONT
 10
0.0
 20
0.0
 30
0.0
  9
$PUCSORGBACK
 10
0.0
 20
0.0
 30
0.0
  9
$USERI1
 70
     0
  9
$USERI2
 70
     0
  9
$USERI3
 70
     0
  9
$USERI4
 70
     0
  9
$USERI5
 70
     0
  9
$USERR1
 40
0.0
  9
$USERR2
 40
0.0
  9
$USERR3
 40
0.0
  9
$USERR4
 40
0.0
  9
$USERR5
 40
0.0
  9
$WORLDVIEW
 70
     1
  9
$SHADEDGE
 70
     3
  9
$SHADEDIF
 70
    70
  9
$TILEMODE
 70
     1
  9
$MAXACTVP
 70
    16
  9
$PINSBASE
 10
0.0
 20
0.0
 30
0.0
  9
$PLIMCHECK
 70
     0
  9
$PEXTMIN
 10
1.000000000000000E+20
 20
1.000000000000000E+20
 30
1.000000000000000E+20
  9
$PEXTMAX
 10
-1.000000000000000E+20
 20
-1.000000000000000E+20
 30
-1.000000000000000E+20
  9
$PLIMMIN
 10
0.0
 20
0.0
  9
$PLIMMAX
 10
420.0
 20
297.0
  9
$UNITMODE
 70
     0
  9
$VISRETAIN
 70
     0
  9
$PLINEGEN
 70
     0
  9
$PSLTSCALE
 70
     0
  9
$TREEDEPTH
 70
  3020
  9
$CMLSTYLE
  2
STANDARD
  9
$CMLJUST
 70
     0
  9
$CMLSCALE
 40
1.0
  9
$PROXYGRAPHICS
 70
     1
  9
$MEASUREMENT
 70
     1
  9
$CELWEIGHT
370
    -1
  9
$ENDCAPS
280
     0
  9
$JOINSTYLE
280
     0
  9
$LWDISPLAY
290
     0
  9
$INSUNITS
 70
     0
  9
$HYPERLINKBASE
  1

  9
$STYLESHEET
  1

  9
$XEDIT
290
     1
  9
$CEPSNTYPE
380
     0
  9
$PSTYLEMODE
290
     1
  9
$FINGERPRINTGUID
  2
{3A4AED84-7EBA-410B-8392-E919531848B6}
  9
$VERSIONGUID
  2
{1DA29AF5-7771-49C0-8CE2-A25FD29DBECF}
  9
$EXTNAMES
290
     1
  9
$PSVPSCALE
 40
0.0
  9
$OLESTARTUP
290
     0
  9
$SORTENTS
280
    96
  9
$INDEXCTL
280
     0
  9
$HIDETEXT
280
     0
  9
$XCLIPFRAME
290
     0
  9
$HALOGAP
280
     0
  9
$OBSCOLOR
 70
   257
  9
$OBSLTYPE
280
     0
  9
$INTERSECTIONDISPLAY
280
     0
  9
$INTERSECTIONCOLOR
 70
   257
  9
$DIMASSOC
280
     1
  9
$PROJECTNAME
  1

  0
ENDSEC
  0
SECTION
  2
CLASSES
  0
CLASS
  1
DICTIONARYVAR
  2
AcDbDictionaryVar
  3
ObjectDBX Classes
 90
        0
 91
        1
280
     0
281
     0
  0
CLASS
  1
ACDBDICTIONARYWDFLT
  2
AcDbDictionaryWithDefault
  3
ObjectDBX Classes
 90
        0
 91
        1
280
     0
281
     0
  0
ENDSEC
  0
SECTION
  2
TABLES
  0
TABLE
  2
VPORT
  5
746D
330
0
100
AcDbSymbolTable
 70
     2
  0
VPORT
  5
1DB3D
330
746D
100
AcDbSymbolTableRecord
100
AcDbViewportTableRecord
  2
*Active
 70
     0
 10
0.0
 20
0.0
 11
1.0
 21
1.0
 12
10279.70128154813
 22
7130.995593925466
 13
0.0
 23
0.0
 14
10.0
 24
10.0
 15
10.0
 25
10.0
 16
0.0
 26
0.0
 36
1.0
 17
0.0
 27
0.0
 37
0.0
 40
17694.81119003843
 41
1.149397590361445
 42
50.0
 43
0.0
 44
0.0
 50
0.0
 51
0.0
 71
     0
 72
     0
 73
     1
 74
     0
 75
     0
 76
     0
 77
     0
 78
     0
281
     0
 65
     1
110
0.0
120
0.0
130
0.0
111
1.0
121
0.0
131
0.0
112
0.0
122
1.0
132
0.0
 79
     0
146
0.0
  0
ENDTAB
  0
TABLE
  2
LTYPE
  5
746A
330
0
100
AcDbSymbolTable
 70
     4
  0
LTYPE
  5
7477
330
746A
100
AcDbSymbolTableRecord
100
AcDbLinetypeTableRecord
  2
BYBLOCK
 70
     0
  3

 72
    65
 73
     0
 40
0.0
  0
LTYPE
  5
7478
330
746A
100
AcDbSymbolTableRecord
100
AcDbLinetypeTableRecord
  2
BYLAYER
 70
     0
  3

 72
    65
 73
     0
 40
0.0
  0
LTYPE
  5
7479
330
746A
100
AcDbSymbolTableRecord
100
AcDbLinetypeTableRecord
  2
CONTINUOUS
 70
     0
  3
Solid line
 72
    65
 73
     0
 40
0.0
  0
LTYPE
  5
7816
330
746A
100
AcDbSymbolTableRecord
100
AcDbLinetypeTableRecord
  2
CENTER
 70
     0
  3
____ _ ____ _ ____ _ ____ _ ____ _ ____ _ ____ 
 72
    65
 73
     4
 40
2.0
 49
1.25
 74
     0
 49
-0.25
 74
     0
 49
0.25
 74
     0
 49
-0.25
 74
     0
  0
LTYPE
  5
781B
330
746A
100
AcDbSymbolTableRecord
100
AcDbLinetypeTableRecord
  2
PHANTOM
 70
     0
  3
______  __  __  ______  __  __  ______  __  __ 
 72
    65
 73
     6
 40
2.5
 49
1.25
 74
     0
 49
-0.25
 74
     0
 49
0.25
 74
     0
 49
-0.25
 74
     0
 49
0.25
 74
     0
 49
-0.25
 74
     0
  0
LTYPE
  5
13F72
330
746A
100
AcDbSymbolTableRecord
100
AcDbLinetypeTableRecord
  2
HIDDEN
 70
     0
  3
__ __ __ __ __ __ __ __ __ __ __ __ __ __ __ __
 72
    65
 73
     2
 40
0.375
 49
0.25
 74
     0
 49
-0.125
 74
     0
  0
ENDTAB
  0
TABLE
  2
LAYER
  5
7467
330
0
100
AcDbSymbolTable
 70
    12
  0
LAYER
  5
7474
330
7467
100
AcDbSymbolTableRecord
100
AcDbLayerTableRecord
  2
0
 70
     0
 62
     7
  6
CONTINUOUS
370
    -3
390
1A1FA
  0
LAYER
  5
DEB2
330
7467
100
AcDbSymbolTableRecord
100
AcDbLayerTableRecord
  2
センター
 70
     0
 62
     3
  6
CENTER
370
    -3
390
1A1FA
  0
LAYER
  5
DEB3
330
7467
100
AcDbSymbolTableRecord
100
AcDbLayerTableRecord
  2
寸法
 70
     0
 62
     4
  6
CONTINUOUS
370
    -3
390
1A1FA
  0
LAYER
  5
DEB4
330
7467
100
AcDbSymbolTableRecord
100
AcDbLayerTableRecord
  2
部品1
 70
     0
 62
     7
  6
CONTINUOUS
370
    -3
390
1A1FA
  0
LAYER
  5
DEB5
330
7467
100
AcDbSymbolTableRecord
100
AcDbLayerTableRecord
  2
補助
 70
     0
 62
    -1
  6
CONTINUOUS
370
    -3
390
1A1FA
  0
LAYER
  5
DEB6
330
7467
100
AcDbSymbolTableRecord
100
AcDbLayerTableRecord
  2
文字
 70
     0
 62
     7
  6
CONTINUOUS
370
    -3
390
1A1FA
  0
LAYER
  5
F255
330
7467
100
AcDbSymbolTableRecord
100
AcDbLayerTableRecord
  2
DEFPOINTS
 70
     0
 62
     7
  6
CONTINUOUS
290
     0
370
    -3
390
1A1FA
  0
LAYER
  5
10B54
330
7467
100
AcDbSymbolTableRecord
100
AcDbLayerTableRecord
  2
仕様書枠
 70
     0
 62
   230
  6
CONTINUOUS
370
    -3
390
1A1FA
  0
LAYER
  5
13F73
330
7467
100
AcDbSymbolTableRecord
100
AcDbLayerTableRecord
  2
細線
 70
     0
 62
     5
  6
CONTINUOUS
370
    -3
390
1A1FA
  0
LAYER
  5
13F74
330
7467
100
AcDbSymbolTableRecord
100
AcDbLayerTableRecord
  2
点線
 70
     0
 62
     2
  6
HIDDEN
370
    -3
390
1A1FA
  0
LAYER
  5
1643F
330
7467
100
AcDbSymbolTableRecord
100
AcDbLayerTableRecord
  2
想像線
 70
     0
 62
     6
  6
PHANTOM
370
    -3
390
1A1FA
  0
LAYER
  5
18753
330
7467
100
AcDbSymbolTableRecord
100
AcDbLayerTableRecord
  2
Ｇ．Ｌ
 70
     0
 62
    30
  6
CONTINUOUS
370
    -3
390
1A1FA
  0
ENDTAB
  0
TABLE
  2
STYLE
  5
7468
330
0
100
AcDbSymbolTable
 70
     3
  0
STYLE
  5
7475
330
7468
100
AcDbSymbolTableRecord
100
AcDbTextStyleTableRecord
  2
STANDARD
 70
     0
 40
0.0
 41
1.0
 50
0.0
 71
     0
 42
4.0
  3
txt
  4
C:\AutoCAD LT\bigfont.shx
  0
STYLE
  5
F706
330
7468
100
AcDbSymbolTableRecord
100
AcDbTextStyleTableRecord
  2
STYLE1
 70
     0
 40
0.0
 41
1.0
 50
0.0
 71
     0
 42
150.0
  3
isocp.shx
  4
bigfont.shx
  0
STYLE
  5
103BF
330
7468
100
AcDbSymbolTableRecord
100
AcDbTextStyleTableRecord
  2
STYLE2
 70
     0
 40
0.0
 41
1.0
 50
0.0
 71
     0
 42
100.0
  3
MS PGothic.ttf
  4

1001
ACAD
1000
MS PGothic
1071
    32818
  0
ENDTAB
  0
TABLE
  2
VIEW
  5
746B
330
0
100
AcDbSymbolTable
 70
     0
  0
ENDTAB
  0
TABLE
  2
UCS
  5
746C
330
0
100
AcDbSymbolTable
 70
     0
  0
ENDTAB
  0
TABLE
  2
APPID
  5
746E
330
0
100
AcDbSymbolTable
 70
     6
  0
APPID
  5
7476
330
746E
100
AcDbSymbolTableRecord
100
AcDbRegAppTableRecord
  2
ACAD
 70
     0
  0
APPID
  5
DEA9
330
746E
100
AcDbSymbolTableRecord
100
AcDbRegAppTableRecord
  2
CONTENTBLOCKICON
 70
     0
  0
APPID
  5
DEAA
330
746E
100
AcDbSymbolTableRecord
100
AcDbRegAppTableRecord
  2
CONTENTBLOCKDESCRIPTION
 70
     0
  0
APPID
  5
E71D
330
746E
100
AcDbSymbolTableRecord
100
AcDbRegAppTableRecord
  2
CONTENTTABDATA
 70
     0
  0
APPID
  5
E71E
330
746E
100
AcDbSymbolTableRecord
100
AcDbRegAppTableRecord
  2
CONTENTCURRENTTAB
 70
     0
  0
APPID
  5
F3BA
330
746E
100
AcDbSymbolTableRecord
100
AcDbRegAppTableRecord
  2
DRAWINGVARIABLESXDATA
 70
     0
  0
ENDTAB
  0
TABLE
  2
DIMSTYLE
  5
746F
330
0
100
AcDbSymbolTable
 70
     2
100
AcDbDimStyleTable
 71
     0
  0
DIMSTYLE
105
7484
330
746F
100
AcDbSymbolTableRecord
100
AcDbDimStyleTableRecord
  2
JIS
 70
     0
 41
2.5
 42
1.0
 43
7.0
 44
1.0
 73
     0
 74
     0
 77
     1
 78
     8
140
2.5
141
0.0
143
0.0394
147
0.0
172
     1
174
     1
175
     1
340
7475
  0
DIMSTYLE
105
F71F
102
{ACAD_REACTORS
330
1D4E6
330
1D4E7
330
1D4E9
330
1D4EC
330
1D493
330
1D494
330
1D495
330
1D496
330
1D49A
330
1D49E
330
1D49F
330
1D4A4
330
1D4AC
330
1DABC
330
1DAC3
330
1DAB3
330
1DAB4
102
}
330
746F
100
AcDbSymbolTableRecord
100
AcDbDimStyleTableRecord
  2
INABA_S50G
 70
     0
 41
125.0
 42
25.0
 43
7.0
 44
75.0
 73
     0
 74
     0
 77
     3
 78
     8
140
150.0
141
0.0
143
0.0394
147
25.0
172
     1
173
     1
174
     1
175
     1
178
     7
271
     1
340
F706
341
F770
343
F770
344
F770
  0
ENDTAB
  0
TABLE
  2
BLOCK_RECORD
  5
7466
330
0
100
AcDbSymbolTable
 70
    29
  0
BLOCK_RECORD
  5
747D
330
7466
100
AcDbSymbolTableRecord
100
AcDbBlockTableRecord
  2
*MODEL_SPACE
340
1A1FD
  0
BLOCK_RECORD
  5
747A
330
7466
100
AcDbSymbolTableRecord
100
AcDbBlockTableRecord
  2
*PAPER_SPACE
340
1A1FE
  0
BLOCK_RECORD
  5
F770
330
7466
100
AcDbSymbolTableRecord
100
AcDbBlockTableRecord
  2
_DOTSMALL
340
0
102
{BLKREFS
331
1D815
331
1D816
331
1D81E
331
1D81F
331
1D827
331
1D828
331
1D830
331
1D831
331
1D838
331
1D839
331
1D842
331
1D843
331
1D84B
331
1D84C
331
1D854
331
1D855
331
1D85C
331
1D85D
331
1D865
331
1D866
331
1D86F
331
1D870
331
1D879
331
1D87A
331
1D883
331
1D884
331
1D88C
331
1D88D
331
1D895
331
1D896
331
1D89E
331
1D89F
331
1D8A8
331
1D8A9
331
1D8B1
331
1D8B2
331
1D8BA
331
1D8BB
331
1D8DD
331
1D8DE
331
1D8D1
331
1D8D2
331
1D8E9
331
1D8EA
331
1D8F6
331
1D8F7
331
1DB1B
331
1DB1C
331
1DB25
331
1DB26
331
1DB2E
331
1DB2F
331
1DB37
331
1DB38
102
}
  0
BLOCK_RECORD
  5
18892
330
7466
100
AcDbSymbolTableRecord
100
AcDbBlockTableRecord
  2
*D1
340
0
  0
BLOCK_RECORD
  5
1889E
330
7466
100
AcDbSymbolTableRecord
100
AcDbBlockTableRecord
  2
*D2
340
0
  0
BLOCK_RECORD
  5
188AA
330
7466
100
AcDbSymbolTableRecord
100
AcDbBlockTableRecord
  2
*D3
340
0
  0
BLOCK_RECORD
  5
188B7
330
7466
100
AcDbSymbolTableRecord
100
AcDbBlockTableRecord
  2
*D4
340
0
  0
BLOCK_RECORD
  5
188C3
330
7466
100
AcDbSymbolTableRecord
100
AcDbBlockTableRecord
  2
*D5
340
0
  0
BLOCK_RECORD
  5
188CF
330
7466
100
AcDbSymbolTableRecord
100
AcDbBlockTableRecord
  2
*D6
340
0
  0
BLOCK_RECORD
  5
1D5AA
330
7466
100
AcDbSymbolTableRecord
100
AcDbBlockTableRecord
  2
*D7
340
0
  0
BLOCK_RECORD
  5
1D5B6
330
7466
100
AcDbSymbolTableRecord
100
AcDbBlockTableRecord
  2
*D8
340
0
  0
BLOCK_RECORD
  5
1D5C2
330
7466
100
AcDbSymbolTableRecord
100
AcDbBlockTableRecord
  2
*D9
340
0
  0
BLOCK_RECORD
  5
1D5CE
330
7466
100
AcDbSymbolTableRecord
100
AcDbBlockTableRecord
  2
*D10
340
0
  0
BLOCK_RECORD
  5
1D5DA
330
7466
100
AcDbSymbolTableRecord
100
AcDbBlockTableRecord
  2
*D11
340
0
  0
BLOCK_RECORD
  5
1D5E7
330
7466
100
AcDbSymbolTableRecord
100
AcDbBlockTableRecord
  2
*D12
340
0
  0
BLOCK_RECORD
  5
1D5F4
330
7466
100
AcDbSymbolTableRecord
100
AcDbBlockTableRecord
  2
*D13
340
0
  0
BLOCK_RECORD
  5
1D601
330
7466
100
AcDbSymbolTableRecord
100
AcDbBlockTableRecord
  2
*D14
340
0
  0
BLOCK_RECORD
  5
1D60D
330
7466
100
AcDbSymbolTableRecord
100
AcDbBlockTableRecord
  2
*D15
340
0
  0
BLOCK_RECORD
  5
1D618
330
7466
100
AcDbSymbolTableRecord
100
AcDbBlockTableRecord
  2
*D16
340
0
  0
BLOCK_RECORD
  5
1D624
330
7466
100
AcDbSymbolTableRecord
100
AcDbBlockTableRecord
  2
*D17
340
0
  0
BLOCK_RECORD
  5
1D630
330
7466
100
AcDbSymbolTableRecord
100
AcDbBlockTableRecord
  2
*D18
340
0
  0
BLOCK_RECORD
  5
1D63D
330
7466
100
AcDbSymbolTableRecord
100
AcDbBlockTableRecord
  2
*D19
340
0
  0
BLOCK_RECORD
  5
1D8CC
330
7466
100
AcDbSymbolTableRecord
100
AcDbBlockTableRecord
  2
*D20
340
0
  0
BLOCK_RECORD
  5
1D8D8
330
7466
100
AcDbSymbolTableRecord
100
AcDbBlockTableRecord
  2
*D21
340
0
  0
BLOCK_RECORD
  5
1D8E4
330
7466
100
AcDbSymbolTableRecord
100
AcDbBlockTableRecord
  2
*D22
340
0
  0
BLOCK_RECORD
  5
1D8F0
330
7466
100
AcDbSymbolTableRecord
100
AcDbBlockTableRecord
  2
*D23
340
0
  0
BLOCK_RECORD
  5
1DAE7
330
7466
100
AcDbSymbolTableRecord
100
AcDbBlockTableRecord
  2
*D25
340
0
  0
BLOCK_RECORD
  5
1DAF3
330
7466
100
AcDbSymbolTableRecord
100
AcDbBlockTableRecord
  2
*D26
340
0
  0
BLOCK_RECORD
  5
1DB00
330
7466
100
AcDbSymbolTableRecord
100
AcDbBlockTableRecord
  2
*D27
340
0
  0
BLOCK_RECORD
  5
1DB0C
330
7466
100
AcDbSymbolTableRecord
100
AcDbBlockTableRecord
  2
*D28
340
0
  0
ENDTAB
  0
ENDSEC
  0
SECTION
  2
BLOCKS
  0
BLOCK
  5
7489
330
747D
100
AcDbEntity
  8
0
100
AcDbBlockBegin
  2
*MODEL_SPACE
 70
     0
 10
0.0
 20
0.0
 30
0.0
  3
*MODEL_SPACE
  1

  0
ENDBLK
  5
748A
330
747D
100
AcDbEntity
  8
0
100
AcDbBlockEnd
  0
BLOCK
  5
7487
330
747A
100
AcDbEntity
 67
     1
  8
0
100
AcDbBlockBegin
  2
*PAPER_SPACE
 70
     0
 10
0.0
 20
0.0
 30
0.0
  3
*PAPER_SPACE
  1

  0
ENDBLK
  5
7488
330
747A
100
AcDbEntity
 67
     1
  8
0
100
AcDbBlockEnd
  0
BLOCK
  5
F771
330
F770
100
AcDbEntity
  8
0
 48
50.0
100
AcDbBlockBegin
  2
_DOTSMALL
 70
     0
 10
0.0
 20
0.0
 30
0.0
  3
_DOTSMALL
  1

  0
LWPOLYLINE
  5
F772
330
F770
100
AcDbEntity
  8
0
  6
ByBlock
 62
     0
 48
50.0
100
AcDbPolyline
 90
        2
 70
     1
 43
0.5
 10
-0.0625
 20
0.0
 42
1.0
 10
0.0625
 20
0.0
 42
1.0
  0
ENDBLK
  5
F776
330
F770
100
AcDbEntity
  8
0
 48
50.0
100
AcDbBlockEnd
  0
BLOCK
  5
188DB
330
18892
100
AcDbEntity
  8
0
 48
50.0
100
AcDbBlockBegin
  2
*D1
 70
     1
 10
0.0
 20
0.0
 30
0.0
  3
*D1
  1

  0
LINE
  5
1D8B7
330
18892
100
AcDbEntity
  8
寸法
 62
     0
 48
50.0
370
    -2
100
AcDbLine
 10
10621.47449085893
 20
2029.373661269834
 30
0.0
 11
10190.75447588975
 21
2029.373661269834
 31
0.0
  0
LINE
  5
1D8B8
330
18892
100
AcDbEntity
  8
寸法
 62
     0
 48
50.0
370
    -2
100
AcDbLine
 10
10577.47449085893
 20
1459.373661269833
 30
0.0
 11
10190.75447588975
 21
1459.373661269833
 31
0.0
  0
LINE
  5
1D8B9
330
18892
100
AcDbEntity
  8
寸法
 62
     0
 48
50.0
370
    -2
100
AcDbLine
 10
10265.75447588975
 20
2029.373661269834
 30
0.0
 11
10265.75447588975
 21
1459.373661269833
 31
0.0
  0
INSERT
  5
1D8BA
330
18892
100
AcDbEntity
  8
寸法
 62
     0
 48
50.0
370
    -2
100
AcDbBlockReference
  2
_DOTSMALL
 10
10265.75447588975
 20
2029.373661269834
 30
0.0
 41
125.0
 42
125.0
 43
125.0
 50
90.0
  0
INSERT
  5
1D8BB
330
18892
100
AcDbEntity
  8
寸法
 62
     0
 48
50.0
370
    -2
100
AcDbBlockReference
  2
_DOTSMALL
 10
10265.75447588975
 20
1459.373661269833
 30
0.0
 41
125.0
 42
125.0
 43
125.0
 50
270.0
  0
MTEXT
  5
1D8BC
330
18892
100
AcDbEntity
  8
寸法
 62
     7
 48
50.0
100
AcDbMText
 10
10165.73971211022
 20
1744.373661269835
 30
0.0
 40
150.0
 41
0.0
 71
     5
 72
     1
  1
\A1;285
  7
STYLE1
 11
0.0000000000000001
 21
1.0
 31
0.0
 73
     1
 44
1.0
  0
POINT
  5
1D8BD
330
18892
100
AcDbEntity
  8
DEFPOINTS
 62
     0
 48
50.0
100
AcDbPoint
 10
10646.47449085893
 20
2029.373661269834
 30
0.0
  0
POINT
  5
1D8BE
330
18892
100
AcDbEntity
  8
DEFPOINTS
 62
     0
 48
50.0
100
AcDbPoint
 10
10602.47449085893
 20
1459.373661269833
 30
0.0
  0
POINT
  5
1D8BF
330
18892
100
AcDbEntity
  8
DEFPOINTS
 62
     0
 48
50.0
100
AcDbPoint
 10
10265.75447588975
 20
1459.373661269833
 30
0.0
  0
ENDBLK
  5
188E5
330
18892
100
AcDbEntity
  8
0
 48
50.0
100
AcDbBlockEnd
  0
BLOCK
  5
188E6
330
1889E
100
AcDbEntity
  8
0
 48
50.0
100
AcDbBlockBegin
  2
*D2
 70
     1
 10
0.0
 20
0.0
 30
0.0
  3
*D2
  1

  0
LINE
  5
1D8AE
330
1889E
100
AcDbEntity
  8
寸法
 62
     0
 48
50.0
370
    -2
100
AcDbLine
 10
10023.30215180335
 20
1749.373661269833
 30
0.0
 11
9908.343789282213
 21
1749.373661269833
 31
0.0
  0
LINE
  5
1D8AF
330
1889E
100
AcDbEntity
  8
寸法
 62
     0
 48
50.0
370
    -2
100
AcDbLine
 10
10433.47449085893
 20
1349.373661269834
 30
0.0
 11
9908.343789282213
 21
1349.373661269834
 31
0.0
  0
LINE
  5
1D8B0
330
1889E
100
AcDbEntity
  8
寸法
 62
     0
 48
50.0
370
    -2
100
AcDbLine
 10
9983.343789282216
 20
1749.373661269833
 30
0.0
 11
9983.343789282216
 21
1349.373661269834
 31
0.0
  0
INSERT
  5
1D8B1
330
1889E
100
AcDbEntity
  8
寸法
 62
     0
 48
50.0
370
    -2
100
AcDbBlockReference
  2
_DOTSMALL
 10
9983.343789282216
 20
1749.373661269833
 30
0.0
 41
125.0
 42
125.0
 43
125.0
 50
90.0
  0
INSERT
  5
1D8B2
330
1889E
100
AcDbEntity
  8
寸法
 62
     0
 48
50.0
370
    -2
100
AcDbBlockReference
  2
_DOTSMALL
 10
9983.343789282216
 20
1349.373661269834
 30
0.0
 41
125.0
 42
125.0
 43
125.0
 50
270.0
  0
MTEXT
  5
1D8B3
330
1889E
100
AcDbEntity
  8
寸法
 62
     7
 48
50.0
100
AcDbMText
 10
9883.329025502689
 20
1549.373661269835
 30
0.0
 40
150.0
 41
0.0
 71
     5
 72
     1
  1
\A1;200
  7
STYLE1
 11
0.0000000000000001
 21
1.0
 31
0.0
 73
     1
 44
1.0
  0
POINT
  5
1D8B4
330
1889E
100
AcDbEntity
  8
DEFPOINTS
 62
     0
 48
50.0
100
AcDbPoint
 10
10048.30215180335
 20
1749.373661269833
 30
0.0
  0
POINT
  5
1D8B5
330
1889E
100
AcDbEntity
  8
DEFPOINTS
 62
     0
 48
50.0
100
AcDbPoint
 10
10458.47449085893
 20
1349.373661269834
 30
0.0
  0
POINT
  5
1D8B6
330
1889E
100
AcDbEntity
  8
DEFPOINTS
 62
     0
 48
50.0
100
AcDbPoint
 10
9983.343789282216
 20
1349.373661269834
 30
0.0
  0
ENDBLK
  5
188F0
330
1889E
100
AcDbEntity
  8
0
 48
50.0
100
AcDbBlockEnd
  0
BLOCK
  5
188F1
330
188AA
100
AcDbEntity
  8
0
 48
50.0
100
AcDbBlockBegin
  2
*D3
 70
     1
 10
0.0
 20
0.0
 30
0.0
  3
*D3
  1

  0
LINE
  5
1D8A4
330
188AA
100
AcDbEntity
  8
寸法
 62
     0
 48
50.0
370
    -2
100
AcDbLine
 10
10240.75447588975
 20
1949.373661269834
 30
0.0
 11
9908.992508710598
 21
1949.373661269834
 31
0.0
  0
LINE
  5
1D8A5
330
188AA
100
AcDbEntity
  8
寸法
 62
     0
 48
50.0
370
    -2
100
AcDbLine
 10
10023.30215180335
 20
1749.373661269833
 30
0.0
 11
9908.992508710598
 21
1749.373661269833
 31
0.0
  0
LINE
  5
1D8A6
330
188AA
100
AcDbEntity
  8
寸法
 62
     0
 48
50.0
370
    -2
100
AcDbLine
 10
9983.992508710601
 20
1749.373661269833
 30
0.0
 11
9983.992508710601
 21
1949.373661269834
 31
0.0
  0
LINE
  5
1D8A7
330
188AA
100
AcDbEntity
  8
寸法
 62
     0
 48
50.0
370
    -2
100
AcDbLine
 10
9983.992508710601
 20
1949.373661269834
 30
0.0
 11
9983.992508710601
 21
2381.396299065108
 31
0.0
  0
INSERT
  5
1D8A8
330
188AA
100
AcDbEntity
  8
寸法
 62
     0
 48
50.0
370
    -2
100
AcDbBlockReference
  2
_DOTSMALL
 10
9983.992508710601
 20
1749.373661269833
 30
0.0
 41
125.0
 42
125.0
 43
125.0
 50
270.0
  0
INSERT
  5
1D8A9
330
188AA
100
AcDbEntity
  8
寸法
 62
     0
 48
50.0
370
    -2
100
AcDbBlockReference
  2
_DOTSMALL
 10
9983.992508710601
 20
1949.373661269834
 30
0.0
 41
125.0
 42
125.0
 43
125.0
 50
90.0
  0
MTEXT
  5
1D8AA
330
188AA
100
AcDbEntity
  8
寸法
 62
     7
 48
50.0
100
AcDbMText
 10
9883.992508710598
 20
2236.337243947
 30
0.0
 40
150.0
 41
0.0
 71
     5
 72
     1
  1
\A1;100
  7
STYLE1
 11
0.0000000000000001
 21
1.0
 31
0.0
 73
     1
 44
1.0
  0
POINT
  5
1D8AB
330
188AA
100
AcDbEntity
  8
DEFPOINTS
 62
     0
 48
50.0
100
AcDbPoint
 10
10265.75447588975
 20
1949.373661269834
 30
0.0
  0
POINT
  5
1D8AC
330
188AA
100
AcDbEntity
  8
DEFPOINTS
 62
     0
 48
50.0
100
AcDbPoint
 10
10048.30215180335
 20
1749.373661269833
 30
0.0
  0
POINT
  5
1D8AD
330
188AA
100
AcDbEntity
  8
DEFPOINTS
 62
     0
 48
50.0
100
AcDbPoint
 10
9983.992508710601
 20
1749.373661269833
 30
0.0
  0
ENDBLK
  5
188FC
330
188AA
100
AcDbEntity
  8
0
 48
50.0
100
AcDbBlockEnd
  0
BLOCK
  5
188FD
330
188B7
100
AcDbEntity
  8
0
 48
50.0
100
AcDbBlockBegin
  2
*D4
 70
     1
 10
0.0
 20
0.0
 30
0.0
  3
*D4
  1

  0
LINE
  5
1D89B
330
188B7
100
AcDbEntity
  8
寸法
 62
     0
 48
50.0
370
    -2
100
AcDbLine
 10
12489.69235086196
 20
1324.373661269834
 30
0.0
 11
12489.69235086196
 21
947.8906957845302
 31
0.0
  0
LINE
  5
1D89C
330
188B7
100
AcDbEntity
  8
寸法
 62
     0
 48
50.0
370
    -2
100
AcDbLine
 10
12089.69235086196
 20
1324.373661269834
 30
0.0
 11
12089.69235086196
 21
947.8906957845302
 31
0.0
  0
LINE
  5
1D89D
330
188B7
100
AcDbEntity
  8
寸法
 62
     0
 48
50.0
370
    -2
100
AcDbLine
 10
12489.69235086196
 20
1022.89069578453
 30
0.0
 11
12089.69235086196
 21
1022.89069578453
 31
0.0
  0
INSERT
  5
1D89E
330
188B7
100
AcDbEntity
  8
寸法
 62
     0
 48
50.0
370
    -2
100
AcDbBlockReference
  2
_DOTSMALL
 10
12489.69235086196
 20
1022.89069578453
 30
0.0
 41
125.0
 42
125.0
 43
125.0
  0
INSERT
  5
1D89F
330
188B7
100
AcDbEntity
  8
寸法
 62
     0
 48
50.0
370
    -2
100
AcDbBlockReference
  2
_DOTSMALL
 10
12089.69235086196
 20
1022.89069578453
 30
0.0
 41
125.0
 42
125.0
 43
125.0
 50
180.0
  0
MTEXT
  5
1D8A0
330
188B7
100
AcDbEntity
  8
寸法
 62
     7
 48
50.0
100
AcDbMText
 10
12289.69235086196
 20
1122.905459564057
 30
0.0
 40
150.0
 41
0.0
 71
     5
 72
     1
  1
\A1;200
  7
STYLE1
 73
     1
 44
1.0
  0
POINT
  5
1D8A1
330
188B7
100
AcDbEntity
  8
DEFPOINTS
 62
     0
 48
50.0
100
AcDbPoint
 10
12489.69235086196
 20
1349.373661269834
 30
0.0
  0
POINT
  5
1D8A2
330
188B7
100
AcDbEntity
  8
DEFPOINTS
 62
     0
 48
50.0
100
AcDbPoint
 10
12089.69235086196
 20
1349.373661269834
 30
0.0
  0
POINT
  5
1D8A3
330
188B7
100
AcDbEntity
  8
DEFPOINTS
 62
     0
 48
50.0
100
AcDbPoint
 10
12089.69235086196
 20
1022.89069578453
 30
0.0
  0
ENDBLK
  5
18907
330
188B7
100
AcDbEntity
  8
0
 48
50.0
100
AcDbBlockEnd
  0
BLOCK
  5
18908
330
188C3
100
AcDbEntity
  8
0
 48
50.0
100
AcDbBlockBegin
  2
*D5
 70
     1
 10
0.0
 20
0.0
 30
0.0
  3
*D5
  1

  0
LINE
  5
1D892
330
188C3
100
AcDbEntity
  8
寸法
 62
     0
 48
50.0
370
    -2
100
AcDbLine
 10
10858.47449085893
 20
1324.373661269834
 30
0.0
 11
10858.47449085893
 21
947.8906957845302
 31
0.0
  0
LINE
  5
1D893
330
188C3
100
AcDbEntity
  8
寸法
 62
     0
 48
50.0
370
    -2
100
AcDbLine
 10
10458.47449085893
 20
1324.373661269834
 30
0.0
 11
10458.47449085893
 21
947.8906957845302
 31
0.0
  0
LINE
  5
1D894
330
188C3
100
AcDbEntity
  8
寸法
 62
     0
 48
50.0
370
    -2
100
AcDbLine
 10
10858.47449085893
 20
1022.89069578453
 30
0.0
 11
10458.47449085893
 21
1022.89069578453
 31
0.0
  0
INSERT
  5
1D895
330
188C3
100
AcDbEntity
  8
寸法
 62
     0
 48
50.0
370
    -2
100
AcDbBlockReference
  2
_DOTSMALL
 10
10858.47449085893
 20
1022.89069578453
 30
0.0
 41
125.0
 42
125.0
 43
125.0
  0
INSERT
  5
1D896
330
188C3
100
AcDbEntity
  8
寸法
 62
     0
 48
50.0
370
    -2
100
AcDbBlockReference
  2
_DOTSMALL
 10
10458.47449085893
 20
1022.89069578453
 30
0.0
 41
125.0
 42
125.0
 43
125.0
 50
180.0
  0
MTEXT
  5
1D897
330
188C3
100
AcDbEntity
  8
寸法
 62
     7
 48
50.0
100
AcDbMText
 10
10658.47449085893
 20
1122.905459564057
 30
0.0
 40
150.0
 41
0.0
 71
     5
 72
     1
  1
\A1;200
  7
STYLE1
 73
     1
 44
1.0
  0
POINT
  5
1D898
330
188C3
100
AcDbEntity
  8
DEFPOINTS
 62
     0
 48
50.0
100
AcDbPoint
 10
10858.47449085893
 20
1349.373661269834
 30
0.0
  0
POINT
  5
1D899
330
188C3
100
AcDbEntity
  8
DEFPOINTS
 62
     0
 48
50.0
100
AcDbPoint
 10
10458.47449085893
 20
1349.373661269834
 30
0.0
  0
POINT
  5
1D89A
330
188C3
100
AcDbEntity
  8
DEFPOINTS
 62
     0
 48
50.0
100
AcDbPoint
 10
10458.47449085893
 20
1022.89069578453
 30
0.0
  0
ENDBLK
  5
18912
330
188C3
100
AcDbEntity
  8
0
 48
50.0
100
AcDbBlockEnd
  0
BLOCK
  5
18913
330
188CF
100
AcDbEntity
  8
0
 48
50.0
100
AcDbBlockBegin
  2
*D6
 70
     1
 10
0.0
 20
0.0
 30
0.0
  3
*D6
  1

  0
LINE
  5
1D889
330
188CF
100
AcDbEntity
  8
寸法
 62
     0
 48
50.0
370
    -2
100
AcDbLine
 10
11654.52001180637
 20
1749.373661269833
 30
0.0
 11
11539.56164928524
 21
1749.373661269833
 31
0.0
  0
LINE
  5
1D88A
330
188CF
100
AcDbEntity
  8
寸法
 62
     0
 48
50.0
370
    -2
100
AcDbLine
 10
12064.69235086196
 20
1349.373661269834
 30
0.0
 11
11539.56164928524
 21
1349.373661269834
 31
0.0
  0
LINE
  5
1D88B
330
188CF
100
AcDbEntity
  8
寸法
 62
     0
 48
50.0
370
    -2
100
AcDbLine
 10
11614.56164928524
 20
1749.373661269833
 30
0.0
 11
11614.56164928524
 21
1349.373661269834
 31
0.0
  0
INSERT
  5
1D88C
330
188CF
100
AcDbEntity
  8
寸法
 62
     0
 48
50.0
370
    -2
100
AcDbBlockReference
  2
_DOTSMALL
 10
11614.56164928524
 20
1749.373661269833
 30
0.0
 41
125.0
 42
125.0
 43
125.0
 50
90.0
  0
INSERT
  5
1D88D
330
188CF
100
AcDbEntity
  8
寸法
 62
     0
 48
50.0
370
    -2
100
AcDbBlockReference
  2
_DOTSMALL
 10
11614.56164928524
 20
1349.373661269834
 30
0.0
 41
125.0
 42
125.0
 43
125.0
 50
270.0
  0
MTEXT
  5
1D88E
330
188CF
100
AcDbEntity
  8
寸法
 62
     7
 48
50.0
100
AcDbMText
 10
11514.54688550571
 20
1549.373661269835
 30
0.0
 40
150.0
 41
0.0
 71
     5
 72
     1
  1
\A1;200
  7
STYLE1
 11
0.0000000000000001
 21
1.0
 31
0.0
 73
     1
 44
1.0
  0
POINT
  5
1D88F
330
188CF
100
AcDbEntity
  8
DEFPOINTS
 62
     0
 48
50.0
100
AcDbPoint
 10
11679.52001180637
 20
1749.373661269833
 30
0.0
  0
POINT
  5
1D890
330
188CF
100
AcDbEntity
  8
DEFPOINTS
 62
     0
 48
50.0
100
AcDbPoint
 10
12089.69235086196
 20
1349.373661269834
 30
0.0
  0
POINT
  5
1D891
330
188CF
100
AcDbEntity
  8
DEFPOINTS
 62
     0
 48
50.0
100
AcDbPoint
 10
11614.56164928524
 20
1349.373661269834
 30
0.0
  0
ENDBLK
  5
1891D
330
188CF
100
AcDbEntity
  8
0
 48
50.0
100
AcDbBlockEnd
  0
BLOCK
  5
1D5B4
330
1D5AA
100
AcDbEntity
  8
0
 48
50.0
100
AcDbBlockBegin
  2
*D7
 70
     1
 10
0.0
 20
0.0
 30
0.0
  3
*D7
  1

  0
LINE
  5
1D82D
330
1D5AA
100
AcDbEntity
  8
寸法
 62
     0
 48
50.0
370
    -2
100
AcDbLine
 10
10109.5
 20
7340.955177899434
 30
0.0
 11
8798.5
 21
7340.955177899434
 31
0.0
  0
LINE
  5
1D82E
330
1D5AA
100
AcDbEntity
  8
寸法
 62
     0
 48
50.0
370
    -2
100
AcDbLine
 10
10109.5
 20
6905.955177899423
 30
0.0
 11
8798.5
 21
6905.955177899423
 31
0.0
  0
LINE
  5
1D82F
330
1D5AA
100
AcDbEntity
  8
寸法
 62
     0
 48
50.0
370
    -2
100
AcDbLine
 10
8873.499999999998
 20
7340.955177899434
 30
0.0
 11
8873.499999999998
 21
6905.955177899423
 31
0.0
  0
INSERT
  5
1D830
330
1D5AA
100
AcDbEntity
  8
寸法
 62
     0
 48
50.0
370
    -2
100
AcDbBlockReference
  2
_DOTSMALL
 10
8873.499999999998
 20
7340.955177899434
 30
0.0
 41
125.0
 42
125.0
 43
125.0
 50
90.0
  0
INSERT
  5
1D831
330
1D5AA
100
AcDbEntity
  8
寸法
 62
     0
 48
50.0
370
    -2
100
AcDbBlockReference
  2
_DOTSMALL
 10
8873.499999999998
 20
6905.955177899423
 30
0.0
 41
125.0
 42
125.0
 43
125.0
 50
270.0
  0
MTEXT
  5
1D832
330
1D5AA
100
AcDbEntity
  8
寸法
 62
     7
 48
50.0
100
AcDbMText
 10
8773.499999999998
 20
7123.455177899429
 30
0.0
 40
150.0
 41
0.0
 71
     5
 72
     1
  1
\A1;435
  7
STYLE1
 11
0.0000000000000001
 21
1.0
 31
0.0
 73
     1
 44
1.0
  0
POINT
  5
1D833
330
1D5AA
100
AcDbEntity
  8
DEFPOINTS
 62
     0
 48
50.0
100
AcDbPoint
 10
10134.49999999999
 20
7340.955177899434
 30
0.0
  0
POINT
  5
1D834
330
1D5AA
100
AcDbEntity
  8
DEFPOINTS
 62
     0
 48
50.0
100
AcDbPoint
 10
10134.49999999999
 20
6905.955177899423
 30
0.0
  0
POINT
  5
1D835
330
1D5AA
100
AcDbEntity
  8
DEFPOINTS
 62
     0
 48
50.0
100
AcDbPoint
 10
8873.499999999998
 20
6905.955177899423
 30
0.0
  0
ENDBLK
  5
1D5B5
330
1D5AA
100
AcDbEntity
  8
0
 48
50.0
100
AcDbBlockEnd
  0
BLOCK
  5
1D5C0
330
1D5B6
100
AcDbEntity
  8
0
 48
50.0
100
AcDbBlockBegin
  2
*D8
 70
     1
 10
0.0
 20
0.0
 30
0.0
  3
*D8
  1

  0
LINE
  5
1D824
330
1D5B6
100
AcDbEntity
  8
寸法
 62
     0
 48
50.0
370
    -2
100
AcDbLine
 10
9098.499999999999
 20
7701.955177899434
 30
0.0
 11
8798.5
 21
7701.955177899434
 31
0.0
  0
LINE
  5
1D825
330
1D5B6
100
AcDbEntity
  8
寸法
 62
     0
 48
50.0
370
    -2
100
AcDbLine
 10
10109.5
 20
7340.955177899434
 30
0.0
 11
8798.5
 21
7340.955177899434
 31
0.0
  0
LINE
  5
1D826
330
1D5B6
100
AcDbEntity
  8
寸法
 62
     0
 48
50.0
370
    -2
100
AcDbLine
 10
8873.499999999998
 20
7701.955177899434
 30
0.0
 11
8873.499999999998
 21
7340.955177899434
 31
0.0
  0
INSERT
  5
1D827
330
1D5B6
100
AcDbEntity
  8
寸法
 62
     0
 48
50.0
370
    -2
100
AcDbBlockReference
  2
_DOTSMALL
 10
8873.499999999998
 20
7701.955177899434
 30
0.0
 41
125.0
 42
125.0
 43
125.0
 50
90.0
  0
INSERT
  5
1D828
330
1D5B6
100
AcDbEntity
  8
寸法
 62
     0
 48
50.0
370
    -2
100
AcDbBlockReference
  2
_DOTSMALL
 10
8873.499999999998
 20
7340.955177899434
 30
0.0
 41
125.0
 42
125.0
 43
125.0
 50
270.0
  0
MTEXT
  5
1D829
330
1D5B6
100
AcDbEntity
  8
寸法
 62
     7
 48
50.0
100
AcDbMText
 10
8773.499999999998
 20
7521.455177899435
 30
0.0
 40
150.0
 41
0.0
 71
     5
 72
     1
  1
\A1;361
  7
STYLE1
 11
0.0000000000000001
 21
1.0
 31
0.0
 73
     1
 44
1.0
  0
POINT
  5
1D82A
330
1D5B6
100
AcDbEntity
  8
DEFPOINTS
 62
     0
 48
50.0
100
AcDbPoint
 10
9123.499999999999
 20
7701.955177899434
 30
0.0
  0
POINT
  5
1D82B
330
1D5B6
100
AcDbEntity
  8
DEFPOINTS
 62
     0
 48
50.0
100
AcDbPoint
 10
10134.49999999999
 20
7340.955177899434
 30
0.0
  0
POINT
  5
1D82C
330
1D5B6
100
AcDbEntity
  8
DEFPOINTS
 62
     0
 48
50.0
100
AcDbPoint
 10
8873.499999999998
 20
7340.955177899434
 30
0.0
  0
ENDBLK
  5
1D5C1
330
1D5B6
100
AcDbEntity
  8
0
 48
50.0
100
AcDbBlockEnd
  0
BLOCK
  5
1D5CC
330
1D5C2
100
AcDbEntity
  8
0
 48
50.0
100
AcDbBlockBegin
  2
*D9
 70
     1
 10
0.0
 20
0.0
 30
0.0
  3
*D9
  1

  0
LINE
  5
1D81B
330
1D5C2
100
AcDbEntity
  8
寸法
 62
     0
 48
50.0
370
    -2
100
AcDbLine
 10
9728.5
 20
7826.955177899423
 30
0.0
 11
9728.5
 21
8171.955177899423
 31
0.0
  0
LINE
  5
1D81C
330
1D5C2
100
AcDbEntity
  8
寸法
 62
     0
 48
50.0
370
    -2
100
AcDbLine
 10
9528.499999999999
 20
7826.955177899423
 30
0.0
 11
9528.499999999999
 21
8171.955177899423
 31
0.0
  0
LINE
  5
1D81D
330
1D5C2
100
AcDbEntity
  8
寸法
 62
     0
 48
50.0
370
    -2
100
AcDbLine
 10
9728.5
 20
8096.955177899422
 30
0.0
 11
9528.499999999999
 21
8096.955177899422
 31
0.0
  0
INSERT
  5
1D81E
330
1D5C2
100
AcDbEntity
  8
寸法
 62
     0
 48
50.0
370
    -2
100
AcDbBlockReference
  2
_DOTSMALL
 10
9728.5
 20
8096.955177899422
 30
0.0
 41
125.0
 42
125.0
 43
125.0
  0
INSERT
  5
1D81F
330
1D5C2
100
AcDbEntity
  8
寸法
 62
     0
 48
50.0
370
    -2
100
AcDbBlockReference
  2
_DOTSMALL
 10
9528.499999999999
 20
8096.955177899422
 30
0.0
 41
125.0
 42
125.0
 43
125.0
 50
180.0
  0
MTEXT
  5
1D820
330
1D5C2
100
AcDbEntity
  8
寸法
 62
     7
 48
50.0
100
AcDbMText
 10
9628.5
 20
8196.969941678949
 30
0.0
 40
150.0
 41
0.0
 71
     5
 72
     1
  1
\A1;200
  7
STYLE1
 73
     1
 44
1.0
  0
POINT
  5
1D821
330
1D5C2
100
AcDbEntity
  8
DEFPOINTS
 62
     0
 48
50.0
100
AcDbPoint
 10
9728.5
 20
7801.955177899422
 30
0.0
  0
POINT
  5
1D822
330
1D5C2
100
AcDbEntity
  8
DEFPOINTS
 62
     0
 48
50.0
100
AcDbPoint
 10
9528.499999999999
 20
7801.955177899422
 30
0.0
  0
POINT
  5
1D823
330
1D5C2
100
AcDbEntity
  8
DEFPOINTS
 62
     0
 48
50.0
100
AcDbPoint
 10
9528.499999999999
 20
8096.955177899422
 30
0.0
  0
ENDBLK
  5
1D5CD
330
1D5C2
100
AcDbEntity
  8
0
 48
50.0
100
AcDbBlockEnd
  0
BLOCK
  5
1D5D8
330
1D5CE
100
AcDbEntity
  8
0
 48
50.0
100
AcDbBlockBegin
  2
*D10
 70
     1
 10
0.0
 20
0.0
 30
0.0
  3
*D10
  1

  0
LINE
  5
1D812
330
1D5CE
100
AcDbEntity
  8
寸法
 62
     0
 48
50.0
370
    -2
100
AcDbLine
 10
9503.5
 20
7801.955177899422
 30
0.0
 11
9198.500000000001
 21
7801.955177899422
 31
0.0
  0
LINE
  5
1D813
330
1D5CE
100
AcDbEntity
  8
寸法
 62
     0
 48
50.0
370
    -2
100
AcDbLine
 10
9503.5
 20
7601.955177899434
 30
0.0
 11
9198.500000000001
 21
7601.955177899434
 31
0.0
  0
LINE
  5
1D814
330
1D5CE
100
AcDbEntity
  8
寸法
 62
     0
 48
50.0
370
    -2
100
AcDbLine
 10
9273.500000000002
 20
7801.955177899422
 30
0.0
 11
9273.500000000002
 21
7601.955177899434
 31
0.0
  0
INSERT
  5
1D815
330
1D5CE
100
AcDbEntity
  8
寸法
 62
     0
 48
50.0
370
    -2
100
AcDbBlockReference
  2
_DOTSMALL
 10
9273.500000000002
 20
7801.955177899422
 30
0.0
 41
125.0
 42
125.0
 43
125.0
 50
90.0
  0
INSERT
  5
1D816
330
1D5CE
100
AcDbEntity
  8
寸法
 62
     0
 48
50.0
370
    -2
100
AcDbBlockReference
  2
_DOTSMALL
 10
9273.500000000002
 20
7601.955177899434
 30
0.0
 41
125.0
 42
125.0
 43
125.0
 50
270.0
  0
MTEXT
  5
1D817
330
1D5CE
100
AcDbEntity
  8
寸法
 62
     7
 48
50.0
100
AcDbMText
 10
9173.485236220473
 20
7701.95517789943
 30
0.0
 40
150.0
 41
0.0
 71
     5
 72
     1
  1
\A1;200
  7
STYLE1
 11
0.0000000000000001
 21
1.0
 31
0.0
 73
     1
 44
1.0
  0
POINT
  5
1D818
330
1D5CE
100
AcDbEntity
  8
DEFPOINTS
 62
     0
 48
50.0
100
AcDbPoint
 10
9528.499999999999
 20
7801.955177899422
 30
0.0
  0
POINT
  5
1D819
330
1D5CE
100
AcDbEntity
  8
DEFPOINTS
 62
     0
 48
50.0
100
AcDbPoint
 10
9528.499999999999
 20
7601.955177899434
 30
0.0
  0
POINT
  5
1D81A
330
1D5CE
100
AcDbEntity
  8
DEFPOINTS
 62
     0
 48
50.0
100
AcDbPoint
 10
9273.500000000002
 20
7601.955177899434
 30
0.0
  0
ENDBLK
  5
1D5D9
330
1D5CE
100
AcDbEntity
  8
0
 48
50.0
100
AcDbBlockEnd
  0
BLOCK
  5
1D5E5
330
1D5DA
100
AcDbEntity
  8
0
 48
50.0
100
AcDbBlockBegin
  2
*D11
 70
     1
 10
0.0
 20
0.0
 30
0.0
  3
*D11
  1

  0
LINE
  5
1D87F
330
1D5DA
100
AcDbEntity
  8
寸法
 62
     0
 48
50.0
370
    -2
100
AcDbLine
 10
10930.5
 20
6229.955177899434
 30
0.0
 11
10930.5
 21
5389.955177899437
 31
0.0
  0
LINE
  5
1D880
330
1D5DA
100
AcDbEntity
  8
寸法
 62
     0
 48
50.0
370
    -2
100
AcDbLine
 10
10985.49999999999
 20
6239.955177899423
 30
0.0
 11
10985.49999999999
 21
5389.955177899437
 31
0.0
  0
LINE
  5
1D881
330
1D5DA
100
AcDbEntity
  8
寸法
 62
     0
 48
50.0
370
    -2
100
AcDbLine
 10
10930.5
 20
5464.955177899437
 30
0.0
 11
10985.49999999999
 21
5464.955177899437
 31
0.0
  0
LINE
  5
1D882
330
1D5DA
100
AcDbEntity
  8
寸法
 62
     0
 48
50.0
370
    -2
100
AcDbLine
 10
10985.49999999999
 20
5464.955177899437
 30
0.0
 11
11445.38188976377
 21
5464.955177899437
 31
0.0
  0
INSERT
  5
1D883
330
1D5DA
100
AcDbEntity
  8
寸法
 62
     0
 48
50.0
370
    -2
100
AcDbBlockReference
  2
_DOTSMALL
 10
10930.5
 20
5464.955177899437
 30
0.0
 41
125.0
 42
125.0
 43
125.0
 50
180.0
  0
INSERT
  5
1D884
330
1D5DA
100
AcDbEntity
  8
寸法
 62
     0
 48
50.0
370
    -2
100
AcDbBlockReference
  2
_DOTSMALL
 10
10985.49999999999
 20
5464.955177899437
 30
0.0
 41
125.0
 42
125.0
 43
125.0
  0
MTEXT
  5
1D885
330
1D5DA
100
AcDbEntity
  8
寸法
 62
     7
 48
50.0
100
AcDbMText
 10
11277.94094488188
 20
5572.455177899435
 30
0.0
 40
150.0
 41
0.0
 71
     5
 72
     1
  1
\A1;(55)
  7
STYLE1
 73
     1
 44
1.0
  0
POINT
  5
1D886
330
1D5DA
100
AcDbEntity
  8
DEFPOINTS
 62
     0
 48
50.0
100
AcDbPoint
 10
10930.5
 20
6254.955177899433
 30
0.0
  0
POINT
  5
1D887
330
1D5DA
100
AcDbEntity
  8
DEFPOINTS
 62
     0
 48
50.0
100
AcDbPoint
 10
10985.49999999999
 20
6264.955177899423
 30
0.0
  0
POINT
  5
1D888
330
1D5DA
100
AcDbEntity
  8
DEFPOINTS
 62
     0
 48
50.0
100
AcDbPoint
 10
10985.49999999999
 20
5464.955177899437
 30
0.0
  0
ENDBLK
  5
1D5E6
330
1D5DA
100
AcDbEntity
  8
0
 48
50.0
100
AcDbBlockEnd
  0
BLOCK
  5
1D5F2
330
1D5E7
100
AcDbEntity
  8
0
 48
50.0
100
AcDbBlockBegin
  2
*D12
 70
     1
 10
0.0
 20
0.0
 30
0.0
  3
*D12
  1

  0
LINE
  5
1D875
330
1D5E7
100
AcDbEntity
  8
寸法
 62
     0
 48
50.0
370
    -2
100
AcDbLine
 10
11100.49999999999
 20
6399.955177899423
 30
0.0
 11
11860.5
 21
6399.955177899423
 31
0.0
  0
LINE
  5
1D876
330
1D5E7
100
AcDbEntity
  8
寸法
 62
     0
 48
50.0
370
    -2
100
AcDbLine
 10
11010.49999999999
 20
6264.955177899423
 30
0.0
 11
11860.5
 21
6264.955177899423
 31
0.0
  0
LINE
  5
1D877
330
1D5E7
100
AcDbEntity
  8
寸法
 62
     0
 48
50.0
370
    -2
100
AcDbLine
 10
11785.5
 20
6399.955177899423
 30
0.0
 11
11785.5
 21
6264.955177899423
 31
0.0
  0
LINE
  5
1D878
330
1D5E7
100
AcDbEntity
  8
寸法
 62
     0
 48
50.0
370
    -2
100
AcDbLine
 10
11785.5
 20
6264.955177899423
 30
0.0
 11
11785.5
 21
5730.073288135642
 31
0.0
  0
INSERT
  5
1D879
330
1D5E7
100
AcDbEntity
  8
寸法
 62
     0
 48
50.0
370
    -2
100
AcDbBlockReference
  2
_DOTSMALL
 10
11785.5
 20
6399.955177899423
 30
0.0
 41
125.0
 42
125.0
 43
125.0
 50
90.0
  0
INSERT
  5
1D87A
330
1D5E7
100
AcDbEntity
  8
寸法
 62
     0
 48
50.0
370
    -2
100
AcDbBlockReference
  2
_DOTSMALL
 10
11785.5
 20
6264.955177899423
 30
0.0
 41
125.0
 42
125.0
 43
125.0
 50
270.0
  0
MTEXT
  5
1D87B
330
1D5E7
100
AcDbEntity
  8
寸法
 62
     7
 48
50.0
100
AcDbMText
 10
11678.0
 20
5935.014233017533
 30
0.0
 40
150.0
 41
0.0
 71
     5
 72
     1
  1
\A1;(135)
  7
STYLE1
 11
0.0000000000000001
 21
1.0
 31
0.0
 73
     1
 44
1.0
  0
POINT
  5
1D87C
330
1D5E7
100
AcDbEntity
  8
DEFPOINTS
 62
     0
 48
50.0
100
AcDbPoint
 10
11075.5
 20
6399.955177899423
 30
0.0
  0
POINT
  5
1D87D
330
1D5E7
100
AcDbEntity
  8
DEFPOINTS
 62
     0
 48
50.0
100
AcDbPoint
 10
10985.49999999999
 20
6264.955177899423
 30
0.0
  0
POINT
  5
1D87E
330
1D5E7
100
AcDbEntity
  8
DEFPOINTS
 62
     0
 48
50.0
100
AcDbPoint
 10
11785.5
 20
6264.955177899423
 30
0.0
  0
ENDBLK
  5
1D5F3
330
1D5E7
100
AcDbEntity
  8
0
 48
50.0
100
AcDbBlockEnd
  0
BLOCK
  5
1D5FF
330
1D5F4
100
AcDbEntity
  8
0
 48
50.0
100
AcDbBlockBegin
  2
*D13
 70
     1
 10
0.0
 20
0.0
 30
0.0
  3
*D13
  1

  0
LINE
  5
1D86B
330
1D5F4
100
AcDbEntity
  8
寸法
 62
     0
 48
50.0
370
    -2
100
AcDbLine
 10
11100.49999999999
 20
7701.955177899434
 30
0.0
 11
11860.5
 21
7701.955177899434
 31
0.0
  0
LINE
  5
1D86C
330
1D5F4
100
AcDbEntity
  8
寸法
 62
     0
 48
50.0
370
    -2
100
AcDbLine
 10
11010.49999999999
 20
7796.955177899414
 30
0.0
 11
11860.5
 21
7796.955177899414
 31
0.0
  0
LINE
  5
1D86D
330
1D5F4
100
AcDbEntity
  8
寸法
 62
     0
 48
50.0
370
    -2
100
AcDbLine
 10
11785.5
 20
7701.955177899434
 30
0.0
 11
11785.5
 21
7796.955177899414
 31
0.0
  0
LINE
  5
1D86E
330
1D5F4
100
AcDbEntity
  8
寸法
 62
     0
 48
50.0
370
    -2
100
AcDbLine
 10
11785.5
 20
7796.955177899414
 30
0.0
 11
11785.5
 21
8257.361217237344
 31
0.0
  0
INSERT
  5
1D86F
330
1D5F4
100
AcDbEntity
  8
寸法
 62
     0
 48
50.0
370
    -2
100
AcDbBlockReference
  2
_DOTSMALL
 10
11785.5
 20
7701.955177899434
 30
0.0
 41
125.0
 42
125.0
 43
125.0
 50
270.0
  0
INSERT
  5
1D870
330
1D5F4
100
AcDbEntity
  8
寸法
 62
     0
 48
50.0
370
    -2
100
AcDbBlockReference
  2
_DOTSMALL
 10
11785.5
 20
7796.955177899414
 30
0.0
 41
125.0
 42
125.0
 43
125.0
 50
90.0
  0
MTEXT
  5
1D871
330
1D5F4
100
AcDbEntity
  8
寸法
 62
     7
 48
50.0
100
AcDbMText
 10
11677.96374807352
 20
8089.658197568384
 30
0.0
 40
150.0
 41
0.0
 71
     5
 72
     1
  1
\A1;(95)
  7
STYLE1
 11
0.0000000000000001
 21
1.0
 31
0.0
 73
     1
 44
1.0
  0
POINT
  5
1D872
330
1D5F4
100
AcDbEntity
  8
DEFPOINTS
 62
     0
 48
50.0
100
AcDbPoint
 10
11075.5
 20
7701.955177899434
 30
0.0
  0
POINT
  5
1D873
330
1D5F4
100
AcDbEntity
  8
DEFPOINTS
 62
     0
 48
50.0
100
AcDbPoint
 10
10985.49999999999
 20
7796.955177899414
 30
0.0
  0
POINT
  5
1D874
330
1D5F4
100
AcDbEntity
  8
DEFPOINTS
 62
     0
 48
50.0
100
AcDbPoint
 10
11785.5
 20
7796.955177899414
 30
0.0
  0
ENDBLK
  5
1D600
330
1D5F4
100
AcDbEntity
  8
0
 48
50.0
100
AcDbBlockEnd
  0
BLOCK
  5
1D60B
330
1D601
100
AcDbEntity
  8
0
 48
50.0
100
AcDbBlockBegin
  2
*D14
 70
     1
 10
0.0
 20
0.0
 30
0.0
  3
*D14
  1

  0
LINE
  5
1D862
330
1D601
100
AcDbEntity
  8
寸法
 62
     0
 48
50.0
370
    -2
100
AcDbLine
 10
11100.49999999999
 20
6399.955177899423
 30
0.0
 11
11860.5
 21
6399.955177899423
 31
0.0
  0
LINE
  5
1D863
330
1D601
100
AcDbEntity
  8
寸法
 62
     0
 48
50.0
370
    -2
100
AcDbLine
 10
11100.49999999999
 20
7701.955177899434
 30
0.0
 11
11860.5
 21
7701.955177899434
 31
0.0
  0
LINE
  5
1D864
330
1D601
100
AcDbEntity
  8
寸法
 62
     0
 48
50.0
370
    -2
100
AcDbLine
 10
11785.49999999999
 20
6399.955177899423
 30
0.0
 11
11785.49999999999
 21
7701.955177899434
 31
0.0
  0
INSERT
  5
1D865
330
1D601
100
AcDbEntity
  8
寸法
 62
     0
 48
50.0
370
    -2
100
AcDbBlockReference
  2
_DOTSMALL
 10
11785.49999999999
 20
6399.955177899423
 30
0.0
 41
125.0
 42
125.0
 43
125.0
 50
270.0
  0
INSERT
  5
1D866
330
1D601
100
AcDbEntity
  8
寸法
 62
     0
 48
50.0
370
    -2
100
AcDbBlockReference
  2
_DOTSMALL
 10
11785.49999999999
 20
7701.955177899434
 30
0.0
 41
125.0
 42
125.0
 43
125.0
 50
90.0
  0
MTEXT
  5
1D867
330
1D601
100
AcDbEntity
  8
寸法
 62
     7
 48
50.0
100
AcDbMText
 10
11685.48523622047
 20
7050.955177899431
 30
0.0
 40
150.0
 41
0.0
 71
     5
 72
     1
  1
\A1;1302
  7
STYLE1
 11
0.0000000000000001
 21
1.0
 31
0.0
 73
     1
 44
1.0
  0
POINT
  5
1D868
330
1D601
100
AcDbEntity
  8
DEFPOINTS
 62
     0
 48
50.0
100
AcDbPoint
 10
11075.5
 20
6399.955177899423
 30
0.0
  0
POINT
  5
1D869
330
1D601
100
AcDbEntity
  8
DEFPOINTS
 62
     0
 48
50.0
100
AcDbPoint
 10
11075.5
 20
7701.955177899434
 30
0.0
  0
POINT
  5
1D86A
330
1D601
100
AcDbEntity
  8
DEFPOINTS
 62
     0
 48
50.0
100
AcDbPoint
 10
11785.49999999999
 20
7701.955177899434
 30
0.0
  0
ENDBLK
  5
1D60C
330
1D601
100
AcDbEntity
  8
0
 48
50.0
100
AcDbBlockEnd
  0
BLOCK
  5
1D616
330
1D60D
100
AcDbEntity
  8
0
 48
50.0
100
AcDbBlockBegin
  2
*D15
 70
     1
 10
0.0
 20
0.0
 30
0.0
  3
*D15
  1

  0
LINE
  5
1D85A
330
1D60D
100
AcDbEntity
  8
寸法
 62
     0
 48
50.0
370
    -2
100
AcDbLine
 10
9458.5
 20
6399.955177899423
 30
0.0
 11
8798.5
 21
6399.955177899423
 31
0.0
  0
LINE
  5
1D85B
330
1D60D
100
AcDbEntity
  8
寸法
 62
     0
 48
50.0
370
    -2
100
AcDbLine
 10
8873.499999999998
 20
6905.955177899423
 30
0.0
 11
8873.499999999998
 21
6399.955177899423
 31
0.0
  0
INSERT
  5
1D85C
330
1D60D
100
AcDbEntity
  8
寸法
 62
     0
 48
50.0
370
    -2
100
AcDbBlockReference
  2
_DOTSMALL
 10
8873.499999999998
 20
6905.955177899423
 30
0.0
 41
125.0
 42
125.0
 43
125.0
 50
90.0
  0
INSERT
  5
1D85D
330
1D60D
100
AcDbEntity
  8
寸法
 62
     0
 48
50.0
370
    -2
100
AcDbBlockReference
  2
_DOTSMALL
 10
8873.499999999998
 20
6399.955177899423
 30
0.0
 41
125.0
 42
125.0
 43
125.0
 50
270.0
  0
MTEXT
  5
1D85E
330
1D60D
100
AcDbEntity
  8
寸法
 62
     7
 48
50.0
100
AcDbMText
 10
8773.499999999998
 20
6652.955177899423
 30
0.0
 40
150.0
 41
0.0
 71
     5
 72
     1
  1
\A1;506
  7
STYLE1
 11
0.0000000000000001
 21
1.0
 31
0.0
 73
     1
 44
1.0
  0
POINT
  5
1D85F
330
1D60D
100
AcDbEntity
  8
DEFPOINTS
 62
     0
 48
50.0
100
AcDbPoint
 10
10134.49999999999
 20
6905.955177899423
 30
0.0
  0
POINT
  5
1D860
330
1D60D
100
AcDbEntity
  8
DEFPOINTS
 62
     0
 48
50.0
100
AcDbPoint
 10
9483.500000000001
 20
6399.955177899423
 30
0.0
  0
POINT
  5
1D861
330
1D60D
100
AcDbEntity
  8
DEFPOINTS
 62
     0
 48
50.0
100
AcDbPoint
 10
8873.499999999998
 20
6399.955177899423
 30
0.0
  0
ENDBLK
  5
1D617
330
1D60D
100
AcDbEntity
  8
0
 48
50.0
100
AcDbBlockEnd
  0
BLOCK
  5
1D622
330
1D618
100
AcDbEntity
  8
0
 48
50.0
100
AcDbBlockBegin
  2
*D16
 70
     1
 10
0.0
 20
0.0
 30
0.0
  3
*D16
  1

  0
LINE
  5
1D851
330
1D618
100
AcDbEntity
  8
寸法
 62
     0
 48
50.0
370
    -2
100
AcDbLine
 10
9628.5
 20
6229.955177899434
 30
0.0
 11
9628.5
 21
5789.955177899423
 31
0.0
  0
LINE
  5
1D852
330
1D618
100
AcDbEntity
  8
寸法
 62
     0
 48
50.0
370
    -2
100
AcDbLine
 10
10279.5
 20
6735.955177899434
 30
0.0
 11
10279.5
 21
5789.955177899423
 31
0.0
  0
LINE
  5
1D853
330
1D618
100
AcDbEntity
  8
寸法
 62
     0
 48
50.0
370
    -2
100
AcDbLine
 10
9628.5
 20
5864.955177899423
 30
0.0
 11
10279.5
 21
5864.955177899423
 31
0.0
  0
INSERT
  5
1D854
330
1D618
100
AcDbEntity
  8
寸法
 62
     0
 48
50.0
370
    -2
100
AcDbBlockReference
  2
_DOTSMALL
 10
9628.5
 20
5864.955177899423
 30
0.0
 41
125.0
 42
125.0
 43
125.0
 50
180.0
  0
INSERT
  5
1D855
330
1D618
100
AcDbEntity
  8
寸法
 62
     0
 48
50.0
370
    -2
100
AcDbBlockReference
  2
_DOTSMALL
 10
10279.5
 20
5864.955177899423
 30
0.0
 41
125.0
 42
125.0
 43
125.0
  0
MTEXT
  5
1D856
330
1D618
100
AcDbEntity
  8
寸法
 62
     7
 48
50.0
100
AcDbMText
 10
9954.0
 20
5964.955177899422
 30
0.0
 40
150.0
 41
0.0
 71
     5
 72
     1
  1
\A1;651
  7
STYLE1
 73
     1
 44
1.0
  0
POINT
  5
1D857
330
1D618
100
AcDbEntity
  8
DEFPOINTS
 62
     0
 48
50.0
100
AcDbPoint
 10
9628.5
 20
6254.955177899433
 30
0.0
  0
POINT
  5
1D858
330
1D618
100
AcDbEntity
  8
DEFPOINTS
 62
     0
 48
50.0
100
AcDbPoint
 10
10279.5
 20
6760.955177899434
 30
0.0
  0
POINT
  5
1D859
330
1D618
100
AcDbEntity
  8
DEFPOINTS
 62
     0
 48
50.0
100
AcDbPoint
 10
10279.5
 20
5864.955177899423
 30
0.0
  0
ENDBLK
  5
1D623
330
1D618
100
AcDbEntity
  8
0
 48
50.0
100
AcDbBlockEnd
  0
BLOCK
  5
1D62E
330
1D624
100
AcDbEntity
  8
0
 48
50.0
100
AcDbBlockBegin
  2
*D17
 70
     1
 10
0.0
 20
0.0
 30
0.0
  3
*D17
  1

  0
LINE
  5
1D848
330
1D624
100
AcDbEntity
  8
寸法
 62
     0
 48
50.0
370
    -2
100
AcDbLine
 10
9628.5
 20
6229.955177899434
 30
0.0
 11
9628.5
 21
5389.955177899437
 31
0.0
  0
LINE
  5
1D849
330
1D624
100
AcDbEntity
  8
寸法
 62
     0
 48
50.0
370
    -2
100
AcDbLine
 10
10930.5
 20
6229.955177899434
 30
0.0
 11
10930.5
 21
5389.955177899437
 31
0.0
  0
LINE
  5
1D84A
330
1D624
100
AcDbEntity
  8
寸法
 62
     0
 48
50.0
370
    -2
100
AcDbLine
 10
9628.5
 20
5464.955177899437
 30
0.0
 11
10930.5
 21
5464.955177899437
 31
0.0
  0
INSERT
  5
1D84B
330
1D624
100
AcDbEntity
  8
寸法
 62
     0
 48
50.0
370
    -2
100
AcDbBlockReference
  2
_DOTSMALL
 10
9628.5
 20
5464.955177899437
 30
0.0
 41
125.0
 42
125.0
 43
125.0
 50
180.0
  0
INSERT
  5
1D84C
330
1D624
100
AcDbEntity
  8
寸法
 62
     0
 48
50.0
370
    -2
100
AcDbBlockReference
  2
_DOTSMALL
 10
10930.5
 20
5464.955177899437
 30
0.0
 41
125.0
 42
125.0
 43
125.0
  0
MTEXT
  5
1D84D
330
1D624
100
AcDbEntity
  8
寸法
 62
     7
 48
50.0
100
AcDbMText
 10
10279.5
 20
5564.969941678963
 30
0.0
 40
150.0
 41
0.0
 71
     5
 72
     1
  1
\A1;1302
  7
STYLE1
 73
     1
 44
1.0
  0
POINT
  5
1D84E
330
1D624
100
AcDbEntity
  8
DEFPOINTS
 62
     0
 48
50.0
100
AcDbPoint
 10
9628.5
 20
6254.955177899433
 30
0.0
  0
POINT
  5
1D84F
330
1D624
100
AcDbEntity
  8
DEFPOINTS
 62
     0
 48
50.0
100
AcDbPoint
 10
10930.5
 20
6254.955177899433
 30
0.0
  0
POINT
  5
1D850
330
1D624
100
AcDbEntity
  8
DEFPOINTS
 62
     0
 48
50.0
100
AcDbPoint
 10
10930.5
 20
5464.955177899437
 30
0.0
  0
ENDBLK
  5
1D62F
330
1D624
100
AcDbEntity
  8
0
 48
50.0
100
AcDbBlockEnd
  0
BLOCK
  5
1D63B
330
1D630
100
AcDbEntity
  8
0
 48
50.0
100
AcDbBlockBegin
  2
*D18
 70
     1
 10
0.0
 20
0.0
 30
0.0
  3
*D18
  1

  0
LINE
  5
1D83E
330
1D630
100
AcDbEntity
  8
寸法
 62
     0
 48
50.0
370
    -2
100
AcDbLine
 10
9573.500000000001
 20
6239.955177899423
 30
0.0
 11
9573.500000000001
 21
5389.955177899437
 31
0.0
  0
LINE
  5
1D83F
330
1D630
100
AcDbEntity
  8
寸法
 62
     0
 48
50.0
370
    -2
100
AcDbLine
 10
9628.5
 20
6229.955177899434
 30
0.0
 11
9628.5
 21
5389.955177899437
 31
0.0
  0
LINE
  5
1D840
330
1D630
100
AcDbEntity
  8
寸法
 62
     0
 48
50.0
370
    -2
100
AcDbLine
 10
9628.5
 20
5464.955177899437
 30
0.0
 11
9573.500000000001
 21
5464.955177899437
 31
0.0
  0
LINE
  5
1D841
330
1D630
100
AcDbEntity
  8
寸法
 62
     0
 48
50.0
370
    -2
100
AcDbLine
 10
9573.500000000001
 20
5464.955177899437
 30
0.0
 11
9113.618110236219
 21
5464.955177899437
 31
0.0
  0
INSERT
  5
1D842
330
1D630
100
AcDbEntity
  8
寸法
 62
     0
 48
50.0
370
    -2
100
AcDbBlockReference
  2
_DOTSMALL
 10
9628.5
 20
5464.955177899437
 30
0.0
 41
125.0
 42
125.0
 43
125.0
  0
INSERT
  5
1D843
330
1D630
100
AcDbEntity
  8
寸法
 62
     0
 48
50.0
370
    -2
100
AcDbBlockReference
  2
_DOTSMALL
 10
9573.500000000001
 20
5464.955177899437
 30
0.0
 41
125.0
 42
125.0
 43
125.0
 50
180.0
  0
MTEXT
  5
1D844
330
1D630
100
AcDbEntity
  8
寸法
 62
     7
 48
50.0
100
AcDbMText
 10
9281.05905511811
 20
5572.455177899435
 30
0.0
 40
150.0
 41
0.0
 71
     5
 72
     1
  1
\A1;(55)
  7
STYLE1
 73
     1
 44
1.0
  0
POINT
  5
1D845
330
1D630
100
AcDbEntity
  8
DEFPOINTS
 62
     0
 48
50.0
100
AcDbPoint
 10
9573.500000000001
 20
6264.955177899423
 30
0.0
  0
POINT
  5
1D846
330
1D630
100
AcDbEntity
  8
DEFPOINTS
 62
     0
 48
50.0
100
AcDbPoint
 10
9628.5
 20
6254.955177899433
 30
0.0
  0
POINT
  5
1D847
330
1D630
100
AcDbEntity
  8
DEFPOINTS
 62
     0
 48
50.0
100
AcDbPoint
 10
9628.5
 20
5464.955177899437
 30
0.0
  0
ENDBLK
  5
1D63C
330
1D630
100
AcDbEntity
  8
0
 48
50.0
100
AcDbBlockEnd
  0
BLOCK
  5
1D646
330
1D63D
100
AcDbEntity
  8
0
 48
50.0
100
AcDbBlockBegin
  2
*D19
 70
     1
 10
0.0
 20
0.0
 30
0.0
  3
*D19
  1

  0
LINE
  5
1D836
330
1D63D
100
AcDbEntity
  8
寸法
 62
     0
 48
50.0
370
    -2
100
AcDbLine
 10
10930.5
 20
6229.955177899434
 30
0.0
 11
10930.5
 21
5789.955177899423
 31
0.0
  0
LINE
  5
1D837
330
1D63D
100
AcDbEntity
  8
寸法
 62
     0
 48
50.0
370
    -2
100
AcDbLine
 10
10279.5
 20
5864.955177899423
 30
0.0
 11
10930.5
 21
5864.955177899423
 31
0.0
  0
INSERT
  5
1D838
330
1D63D
100
AcDbEntity
  8
寸法
 62
     0
 48
50.0
370
    -2
100
AcDbBlockReference
  2
_DOTSMALL
 10
10279.5
 20
5864.955177899423
 30
0.0
 41
125.0
 42
125.0
 43
125.0
 50
180.0
  0
INSERT
  5
1D839
330
1D63D
100
AcDbEntity
  8
寸法
 62
     0
 48
50.0
370
    -2
100
AcDbBlockReference
  2
_DOTSMALL
 10
10930.5
 20
5864.955177899423
 30
0.0
 41
125.0
 42
125.0
 43
125.0
  0
MTEXT
  5
1D83A
330
1D63D
100
AcDbEntity
  8
寸法
 62
     7
 48
50.0
100
AcDbMText
 10
10605.0
 20
5964.955177899422
 30
0.0
 40
150.0
 41
0.0
 71
     5
 72
     1
  1
\A1;651
  7
STYLE1
 73
     1
 44
1.0
  0
POINT
  5
1D83B
330
1D63D
100
AcDbEntity
  8
DEFPOINTS
 62
     0
 48
50.0
100
AcDbPoint
 10
10279.5
 20
6760.955177899434
 30
0.0
  0
POINT
  5
1D83C
330
1D63D
100
AcDbEntity
  8
DEFPOINTS
 62
     0
 48
50.0
100
AcDbPoint
 10
10930.5
 20
6254.955177899433
 30
0.0
  0
POINT
  5
1D83D
330
1D63D
100
AcDbEntity
  8
DEFPOINTS
 62
     0
 48
50.0
100
AcDbPoint
 10
10930.5
 20
5864.955177899423
 30
0.0
  0
ENDBLK
  5
1D647
330
1D63D
100
AcDbEntity
  8
0
 48
50.0
100
AcDbBlockEnd
  0
BLOCK
  5
1D8CD
330
1D8CC
100
AcDbEntity
  8
0
 48
50.0
100
AcDbBlockBegin
  2
*D20
 70
     1
 10
0.0
 20
0.0
 30
0.0
  3
*D20
  1

  0
LINE
  5
1D8CE
330
1D8CC
100
AcDbEntity
  8
寸法
 62
     0
 48
50.0
370
    -2
100
AcDbLine
 10
12134.39291868346
 20
2029.373661269834
 30
0.0
 11
11703.67290371428
 21
2029.373661269834
 31
0.0
  0
LINE
  5
1D8CF
330
1D8CC
100
AcDbEntity
  8
寸法
 62
     0
 48
50.0
370
    -2
100
AcDbLine
 10
12090.39291868346
 20
1459.373661269833
 30
0.0
 11
11703.67290371428
 21
1459.373661269833
 31
0.0
  0
LINE
  5
1D8D0
330
1D8CC
100
AcDbEntity
  8
寸法
 62
     0
 48
50.0
370
    -2
100
AcDbLine
 10
11778.67290371428
 20
2029.373661269834
 30
0.0
 11
11778.67290371428
 21
1459.373661269833
 31
0.0
  0
INSERT
  5
1D8D1
330
1D8CC
100
AcDbEntity
  8
寸法
 62
     0
 48
50.0
370
    -2
100
AcDbBlockReference
  2
_DOTSMALL
 10
11778.67290371428
 20
2029.373661269834
 30
0.0
 41
125.0
 42
125.0
 43
125.0
 50
90.0
  0
INSERT
  5
1D8D2
330
1D8CC
100
AcDbEntity
  8
寸法
 62
     0
 48
50.0
370
    -2
100
AcDbBlockReference
  2
_DOTSMALL
 10
11778.67290371428
 20
1459.373661269833
 30
0.0
 41
125.0
 42
125.0
 43
125.0
 50
270.0
  0
MTEXT
  5
1D8D3
330
1D8CC
100
AcDbEntity
  8
寸法
 62
     7
 48
50.0
100
AcDbMText
 10
11678.65813993475
 20
1744.373661269835
 30
0.0
 40
150.0
 41
0.0
 71
     5
 72
     1
  1
\A1;285
  7
STYLE1
 11
0.0000000000000001
 21
1.0
 31
0.0
 73
     1
 44
1.0
  0
POINT
  5
1D8D4
330
1D8CC
100
AcDbEntity
  8
DEFPOINTS
 62
     0
 48
50.0
100
AcDbPoint
 10
12159.39291868346
 20
2029.373661269834
 30
0.0
  0
POINT
  5
1D8D5
330
1D8CC
100
AcDbEntity
  8
DEFPOINTS
 62
     0
 48
50.0
100
AcDbPoint
 10
12115.39291868346
 20
1459.373661269833
 30
0.0
  0
POINT
  5
1D8D6
330
1D8CC
100
AcDbEntity
  8
DEFPOINTS
 62
     0
 48
50.0
100
AcDbPoint
 10
11778.67290371428
 20
1459.373661269833
 30
0.0
  0
ENDBLK
  5
1D8D7
330
1D8CC
100
AcDbEntity
  8
0
 48
50.0
100
AcDbBlockEnd
  0
BLOCK
  5
1D8D9
330
1D8D8
100
AcDbEntity
  8
0
 48
50.0
100
AcDbBlockBegin
  2
*D21
 70
     1
 10
0.0
 20
0.0
 30
0.0
  3
*D21
  1

  0
LINE
  5
1D8DA
330
1D8D8
100
AcDbEntity
  8
寸法
 62
     0
 48
50.0
370
    -2
100
AcDbLine
 10
12371.39291868346
 20
1324.373661269834
 30
0.0
 11
12371.39291868346
 21
947.89069578453
 31
0.0
  0
LINE
  5
1D8DB
330
1D8D8
100
AcDbEntity
  8
寸法
 62
     0
 48
50.0
370
    -2
100
AcDbLine
 10
11971.39291868346
 20
1324.373661269834
 30
0.0
 11
11971.39291868346
 21
947.89069578453
 31
0.0
  0
LINE
  5
1D8DC
330
1D8D8
100
AcDbEntity
  8
寸法
 62
     0
 48
50.0
370
    -2
100
AcDbLine
 10
12371.39291868346
 20
1022.89069578453
 30
0.0
 11
11971.39291868346
 21
1022.89069578453
 31
0.0
  0
INSERT
  5
1D8DD
330
1D8D8
100
AcDbEntity
  8
寸法
 62
     0
 48
50.0
370
    -2
100
AcDbBlockReference
  2
_DOTSMALL
 10
12371.39291868346
 20
1022.89069578453
 30
0.0
 41
125.0
 42
125.0
 43
125.0
  0
INSERT
  5
1D8DE
330
1D8D8
100
AcDbEntity
  8
寸法
 62
     0
 48
50.0
370
    -2
100
AcDbBlockReference
  2
_DOTSMALL
 10
11971.39291868346
 20
1022.89069578453
 30
0.0
 41
125.0
 42
125.0
 43
125.0
 50
180.0
  0
MTEXT
  5
1D8DF
330
1D8D8
100
AcDbEntity
  8
寸法
 62
     7
 48
50.0
100
AcDbMText
 10
12171.39291868346
 20
1122.905459564057
 30
0.0
 40
150.0
 41
0.0
 71
     5
 72
     1
  1
\A1;200
  7
STYLE1
 73
     1
 44
1.0
  0
POINT
  5
1D8E0
330
1D8D8
100
AcDbEntity
  8
DEFPOINTS
 62
     0
 48
50.0
100
AcDbPoint
 10
12371.39291868346
 20
1349.373661269834
 30
0.0
  0
POINT
  5
1D8E1
330
1D8D8
100
AcDbEntity
  8
DEFPOINTS
 62
     0
 48
50.0
100
AcDbPoint
 10
11971.39291868346
 20
1349.373661269834
 30
0.0
  0
POINT
  5
1D8E2
330
1D8D8
100
AcDbEntity
  8
DEFPOINTS
 62
     0
 48
50.0
100
AcDbPoint
 10
11971.39291868346
 20
1022.89069578453
 30
0.0
  0
ENDBLK
  5
1D8E3
330
1D8D8
100
AcDbEntity
  8
0
 48
50.0
100
AcDbBlockEnd
  0
BLOCK
  5
1D8E5
330
1D8E4
100
AcDbEntity
  8
0
 48
50.0
100
AcDbBlockBegin
  2
*D22
 70
     1
 10
0.0
 20
0.0
 30
0.0
  3
*D22
  1

  0
LINE
  5
1D8E6
330
1D8E4
100
AcDbEntity
  8
寸法
 62
     0
 48
50.0
370
    -2
100
AcDbLine
 10
11536.22057962788
 20
1749.373661269833
 30
0.0
 11
11421.26221710674
 21
1749.373661269833
 31
0.0
  0
LINE
  5
1D8E7
330
1D8E4
100
AcDbEntity
  8
寸法
 62
     0
 48
50.0
370
    -2
100
AcDbLine
 10
11946.39291868346
 20
1349.373661269834
 30
0.0
 11
11421.26221710674
 21
1349.373661269834
 31
0.0
  0
LINE
  5
1D8E8
330
1D8E4
100
AcDbEntity
  8
寸法
 62
     0
 48
50.0
370
    -2
100
AcDbLine
 10
11496.26221710674
 20
1749.373661269833
 30
0.0
 11
11496.26221710674
 21
1349.373661269834
 31
0.0
  0
INSERT
  5
1D8E9
330
1D8E4
100
AcDbEntity
  8
寸法
 62
     0
 48
50.0
370
    -2
100
AcDbBlockReference
  2
_DOTSMALL
 10
11496.26221710674
 20
1749.373661269833
 30
0.0
 41
125.0
 42
125.0
 43
125.0
 50
90.0
  0
INSERT
  5
1D8EA
330
1D8E4
100
AcDbEntity
  8
寸法
 62
     0
 48
50.0
370
    -2
100
AcDbBlockReference
  2
_DOTSMALL
 10
11496.26221710674
 20
1349.373661269834
 30
0.0
 41
125.0
 42
125.0
 43
125.0
 50
270.0
  0
MTEXT
  5
1D8EB
330
1D8E4
100
AcDbEntity
  8
寸法
 62
     7
 48
50.0
100
AcDbMText
 10
11396.24745332722
 20
1549.373661269835
 30
0.0
 40
150.0
 41
0.0
 71
     5
 72
     1
  1
\A1;200
  7
STYLE1
 11
0.0000000000000001
 21
1.0
 31
0.0
 73
     1
 44
1.0
  0
POINT
  5
1D8EC
330
1D8E4
100
AcDbEntity
  8
DEFPOINTS
 62
     0
 48
50.0
100
AcDbPoint
 10
11561.22057962788
 20
1749.373661269833
 30
0.0
  0
POINT
  5
1D8ED
330
1D8E4
100
AcDbEntity
  8
DEFPOINTS
 62
     0
 48
50.0
100
AcDbPoint
 10
11971.39291868346
 20
1349.373661269834
 30
0.0
  0
POINT
  5
1D8EE
330
1D8E4
100
AcDbEntity
  8
DEFPOINTS
 62
     0
 48
50.0
100
AcDbPoint
 10
11496.26221710674
 20
1349.373661269834
 30
0.0
  0
ENDBLK
  5
1D8EF
330
1D8E4
100
AcDbEntity
  8
0
 48
50.0
100
AcDbBlockEnd
  0
BLOCK
  5
1D8F1
330
1D8F0
100
AcDbEntity
  8
0
 48
50.0
100
AcDbBlockBegin
  2
*D23
 70
     1
 10
0.0
 20
0.0
 30
0.0
  3
*D23
  1

  0
LINE
  5
1D8F2
330
1D8F0
100
AcDbEntity
  8
寸法
 62
     0
 48
50.0
370
    -2
100
AcDbLine
 10
11753.67290371428
 20
1949.373661269834
 30
0.0
 11
11421.91093653513
 21
1949.373661269834
 31
0.0
  0
LINE
  5
1D8F3
330
1D8F0
100
AcDbEntity
  8
寸法
 62
     0
 48
50.0
370
    -2
100
AcDbLine
 10
11536.22057962788
 20
1749.373661269833
 30
0.0
 11
11421.91093653513
 21
1749.373661269833
 31
0.0
  0
LINE
  5
1D8F4
330
1D8F0
100
AcDbEntity
  8
寸法
 62
     0
 48
50.0
370
    -2
100
AcDbLine
 10
11496.91093653513
 20
1749.373661269833
 30
0.0
 11
11496.91093653513
 21
1949.373661269834
 31
0.0
  0
LINE
  5
1D8F5
330
1D8F0
100
AcDbEntity
  8
寸法
 62
     0
 48
50.0
370
    -2
100
AcDbLine
 10
11496.91093653513
 20
1949.373661269834
 30
0.0
 11
11496.91093653513
 21
2381.396299065108
 31
0.0
  0
INSERT
  5
1D8F6
330
1D8F0
100
AcDbEntity
  8
寸法
 62
     0
 48
50.0
370
    -2
100
AcDbBlockReference
  2
_DOTSMALL
 10
11496.91093653513
 20
1749.373661269833
 30
0.0
 41
125.0
 42
125.0
 43
125.0
 50
270.0
  0
INSERT
  5
1D8F7
330
1D8F0
100
AcDbEntity
  8
寸法
 62
     0
 48
50.0
370
    -2
100
AcDbBlockReference
  2
_DOTSMALL
 10
11496.91093653513
 20
1949.373661269834
 30
0.0
 41
125.0
 42
125.0
 43
125.0
 50
90.0
  0
MTEXT
  5
1D8F8
330
1D8F0
100
AcDbEntity
  8
寸法
 62
     7
 48
50.0
100
AcDbMText
 10
11396.91093653513
 20
2236.337243947
 30
0.0
 40
150.0
 41
0.0
 71
     5
 72
     1
  1
\A1;100
  7
STYLE1
 11
0.0000000000000001
 21
1.0
 31
0.0
 73
     1
 44
1.0
  0
POINT
  5
1D8F9
330
1D8F0
100
AcDbEntity
  8
DEFPOINTS
 62
     0
 48
50.0
100
AcDbPoint
 10
11778.67290371428
 20
1949.373661269834
 30
0.0
  0
POINT
  5
1D8FA
330
1D8F0
100
AcDbEntity
  8
DEFPOINTS
 62
     0
 48
50.0
100
AcDbPoint
 10
11561.22057962788
 20
1749.373661269833
 30
0.0
  0
POINT
  5
1D8FB
330
1D8F0
100
AcDbEntity
  8
DEFPOINTS
 62
     0
 48
50.0
100
AcDbPoint
 10
11496.91093653513
 20
1749.373661269833
 30
0.0
  0
ENDBLK
  5
1D8FC
330
1D8F0
100
AcDbEntity
  8
0
 48
50.0
100
AcDbBlockEnd
  0
BLOCK
  5
1DAF1
330
1DAE7
100
AcDbEntity
  8
0
 48
50.0
100
AcDbBlockBegin
  2
*D25
 70
     1
 10
0.0
 20
0.0
 30
0.0
  3
*D25
  1

  0
LINE
  5
1DB18
330
1DAE7
100
AcDbEntity
  8
寸法
 62
     0
 48
50.0
370
    -2
100
AcDbLine
 10
11536.22057962788
 20
1749.373661269833
 30
0.0
 11
11421.26221710674
 21
1749.373661269833
 31
0.0
  0
LINE
  5
1DB19
330
1DAE7
100
AcDbEntity
  8
寸法
 62
     0
 48
50.0
370
    -2
100
AcDbLine
 10
11946.39291868346
 20
1349.373661269834
 30
0.0
 11
11421.26221710674
 21
1349.373661269834
 31
0.0
  0
LINE
  5
1DB1A
330
1DAE7
100
AcDbEntity
  8
寸法
 62
     0
 48
50.0
370
    -2
100
AcDbLine
 10
11496.26221710674
 20
1749.373661269833
 30
0.0
 11
11496.26221710674
 21
1349.373661269834
 31
0.0
  0
INSERT
  5
1DB1B
330
1DAE7
100
AcDbEntity
  8
寸法
 62
     0
 48
50.0
370
    -2
100
AcDbBlockReference
  2
_DOTSMALL
 10
11496.26221710674
 20
1749.373661269833
 30
0.0
 41
125.0
 42
125.0
 43
125.0
 50
90.0
  0
INSERT
  5
1DB1C
330
1DAE7
100
AcDbEntity
  8
寸法
 62
     0
 48
50.0
370
    -2
100
AcDbBlockReference
  2
_DOTSMALL
 10
11496.26221710674
 20
1349.373661269834
 30
0.0
 41
125.0
 42
125.0
 43
125.0
 50
270.0
  0
MTEXT
  5
1DB1D
330
1DAE7
100
AcDbEntity
  8
寸法
 62
     7
 48
50.0
100
AcDbMText
 10
11396.24745332721
 20
1549.373661269835
 30
0.0
 40
150.0
 41
0.0
 71
     5
 72
     1
  1
\A1;200
  7
STYLE1
 11
0.0000000000000001
 21
1.0
 31
0.0
 73
     1
 44
1.0
  0
POINT
  5
1DB1E
330
1DAE7
100
AcDbEntity
  8
DEFPOINTS
 62
     0
 48
50.0
100
AcDbPoint
 10
11561.22057962788
 20
1749.373661269833
 30
0.0
  0
POINT
  5
1DB1F
330
1DAE7
100
AcDbEntity
  8
DEFPOINTS
 62
     0
 48
50.0
100
AcDbPoint
 10
11971.39291868346
 20
1349.373661269834
 30
0.0
  0
POINT
  5
1DB20
330
1DAE7
100
AcDbEntity
  8
DEFPOINTS
 62
     0
 48
50.0
100
AcDbPoint
 10
11496.26221710674
 20
1349.373661269834
 30
0.0
  0
ENDBLK
  5
1DAF2
330
1DAE7
100
AcDbEntity
  8
0
 48
50.0
100
AcDbBlockEnd
  0
BLOCK
  5
1DAFE
330
1DAF3
100
AcDbEntity
  8
0
 48
50.0
100
AcDbBlockBegin
  2
*D26
 70
     1
 10
0.0
 20
0.0
 30
0.0
  3
*D26
  1

  0
LINE
  5
1DB21
330
1DAF3
100
AcDbEntity
  8
寸法
 62
     0
 48
50.0
370
    -2
100
AcDbLine
 10
11753.67290371428
 20
1949.373661269834
 30
0.0
 11
11421.91093653513
 21
1949.373661269834
 31
0.0
  0
LINE
  5
1DB22
330
1DAF3
100
AcDbEntity
  8
寸法
 62
     0
 48
50.0
370
    -2
100
AcDbLine
 10
11536.22057962788
 20
1749.373661269833
 30
0.0
 11
11421.91093653513
 21
1749.373661269833
 31
0.0
  0
LINE
  5
1DB23
330
1DAF3
100
AcDbEntity
  8
寸法
 62
     0
 48
50.0
370
    -2
100
AcDbLine
 10
11496.91093653513
 20
1749.373661269833
 30
0.0
 11
11496.91093653513
 21
1949.373661269834
 31
0.0
  0
LINE
  5
1DB24
330
1DAF3
100
AcDbEntity
  8
寸法
 62
     0
 48
50.0
370
    -2
100
AcDbLine
 10
11496.91093653513
 20
1949.373661269834
 30
0.0
 11
11496.91093653513
 21
2381.396299065108
 31
0.0
  0
INSERT
  5
1DB25
330
1DAF3
100
AcDbEntity
  8
寸法
 62
     0
 48
50.0
370
    -2
100
AcDbBlockReference
  2
_DOTSMALL
 10
11496.91093653513
 20
1749.373661269833
 30
0.0
 41
125.0
 42
125.0
 43
125.0
 50
270.0
  0
INSERT
  5
1DB26
330
1DAF3
100
AcDbEntity
  8
寸法
 62
     0
 48
50.0
370
    -2
100
AcDbBlockReference
  2
_DOTSMALL
 10
11496.91093653513
 20
1949.373661269834
 30
0.0
 41
125.0
 42
125.0
 43
125.0
 50
90.0
  0
MTEXT
  5
1DB27
330
1DAF3
100
AcDbEntity
  8
寸法
 62
     7
 48
50.0
100
AcDbMText
 10
11396.91093653513
 20
2236.337243947
 30
0.0
 40
150.0
 41
0.0
 71
     5
 72
     1
  1
\A1;100
  7
STYLE1
 11
0.0000000000000001
 21
1.0
 31
0.0
 73
     1
 44
1.0
  0
POINT
  5
1DB28
330
1DAF3
100
AcDbEntity
  8
DEFPOINTS
 62
     0
 48
50.0
100
AcDbPoint
 10
11778.67290371428
 20
1949.373661269834
 30
0.0
  0
POINT
  5
1DB29
330
1DAF3
100
AcDbEntity
  8
DEFPOINTS
 62
     0
 48
50.0
100
AcDbPoint
 10
11561.22057962788
 20
1749.373661269833
 30
0.0
  0
POINT
  5
1DB2A
330
1DAF3
100
AcDbEntity
  8
DEFPOINTS
 62
     0
 48
50.0
100
AcDbPoint
 10
11496.91093653513
 20
1749.373661269833
 30
0.0
  0
ENDBLK
  5
1DAFF
330
1DAF3
100
AcDbEntity
  8
0
 48
50.0
100
AcDbBlockEnd
  0
BLOCK
  5
1DB0A
330
1DB00
100
AcDbEntity
  8
0
 48
50.0
100
AcDbBlockBegin
  2
*D27
 70
     1
 10
0.0
 20
0.0
 30
0.0
  3
*D27
  1

  0
LINE
  5
1DB2B
330
1DB00
100
AcDbEntity
  8
寸法
 62
     0
 48
50.0
370
    -2
100
AcDbLine
 10
12371.39291868346
 20
1324.373661269834
 30
0.0
 11
12371.39291868346
 21
947.89069578453
 31
0.0
  0
LINE
  5
1DB2C
330
1DB00
100
AcDbEntity
  8
寸法
 62
     0
 48
50.0
370
    -2
100
AcDbLine
 10
11971.39291868346
 20
1324.373661269834
 30
0.0
 11
11971.39291868346
 21
947.89069578453
 31
0.0
  0
LINE
  5
1DB2D
330
1DB00
100
AcDbEntity
  8
寸法
 62
     0
 48
50.0
370
    -2
100
AcDbLine
 10
12371.39291868346
 20
1022.89069578453
 30
0.0
 11
11971.39291868346
 21
1022.89069578453
 31
0.0
  0
INSERT
  5
1DB2E
330
1DB00
100
AcDbEntity
  8
寸法
 62
     0
 48
50.0
370
    -2
100
AcDbBlockReference
  2
_DOTSMALL
 10
12371.39291868346
 20
1022.89069578453
 30
0.0
 41
125.0
 42
125.0
 43
125.0
  0
INSERT
  5
1DB2F
330
1DB00
100
AcDbEntity
  8
寸法
 62
     0
 48
50.0
370
    -2
100
AcDbBlockReference
  2
_DOTSMALL
 10
11971.39291868346
 20
1022.89069578453
 30
0.0
 41
125.0
 42
125.0
 43
125.0
 50
180.0
  0
MTEXT
  5
1DB30
330
1DB00
100
AcDbEntity
  8
寸法
 62
     7
 48
50.0
100
AcDbMText
 10
12171.39291868346
 20
1122.905459564057
 30
0.0
 40
150.0
 41
0.0
 71
     5
 72
     1
  1
\A1;200
  7
STYLE1
 73
     1
 44
1.0
  0
POINT
  5
1DB31
330
1DB00
100
AcDbEntity
  8
DEFPOINTS
 62
     0
 48
50.0
100
AcDbPoint
 10
12371.39291868346
 20
1349.373661269834
 30
0.0
  0
POINT
  5
1DB32
330
1DB00
100
AcDbEntity
  8
DEFPOINTS
 62
     0
 48
50.0
100
AcDbPoint
 10
11971.39291868346
 20
1349.373661269834
 30
0.0
  0
POINT
  5
1DB33
330
1DB00
100
AcDbEntity
  8
DEFPOINTS
 62
     0
 48
50.0
100
AcDbPoint
 10
11971.39291868346
 20
1022.89069578453
 30
0.0
  0
ENDBLK
  5
1DB0B
330
1DB00
100
AcDbEntity
  8
0
 48
50.0
100
AcDbBlockEnd
  0
BLOCK
  5
1DB16
330
1DB0C
100
AcDbEntity
  8
0
 48
50.0
100
AcDbBlockBegin
  2
*D28
 70
     1
 10
0.0
 20
0.0
 30
0.0
  3
*D28
  1

  0
LINE
  5
1DB34
330
1DB0C
100
AcDbEntity
  8
寸法
 62
     0
 48
50.0
370
    -2
100
AcDbLine
 10
12134.39291868346
 20
2029.373661269834
 30
0.0
 11
11703.67290371428
 21
2029.373661269834
 31
0.0
  0
LINE
  5
1DB35
330
1DB0C
100
AcDbEntity
  8
寸法
 62
     0
 48
50.0
370
    -2
100
AcDbLine
 10
12090.39291868346
 20
1459.373661269833
 30
0.0
 11
11703.67290371428
 21
1459.373661269833
 31
0.0
  0
LINE
  5
1DB36
330
1DB0C
100
AcDbEntity
  8
寸法
 62
     0
 48
50.0
370
    -2
100
AcDbLine
 10
11778.67290371428
 20
2029.373661269834
 30
0.0
 11
11778.67290371428
 21
1459.373661269833
 31
0.0
  0
INSERT
  5
1DB37
330
1DB0C
100
AcDbEntity
  8
寸法
 62
     0
 48
50.0
370
    -2
100
AcDbBlockReference
  2
_DOTSMALL
 10
11778.67290371428
 20
2029.373661269834
 30
0.0
 41
125.0
 42
125.0
 43
125.0
 50
90.0
  0
INSERT
  5
1DB38
330
1DB0C
100
AcDbEntity
  8
寸法
 62
     0
 48
50.0
370
    -2
100
AcDbBlockReference
  2
_DOTSMALL
 10
11778.67290371428
 20
1459.373661269833
 30
0.0
 41
125.0
 42
125.0
 43
125.0
 50
270.0
  0
MTEXT
  5
1DB39
330
1DB0C
100
AcDbEntity
  8
寸法
 62
     7
 48
50.0
100
AcDbMText
 10
11678.65813993475
 20
1744.373661269835
 30
0.0
 40
150.0
 41
0.0
 71
     5
 72
     1
  1
\A1;285
  7
STYLE1
 11
0.0000000000000001
 21
1.0
 31
0.0
 73
     1
 44
1.0
  0
POINT
  5
1DB3A
330
1DB0C
100
AcDbEntity
  8
DEFPOINTS
 62
     0
 48
50.0
100
AcDbPoint
 10
12159.39291868346
 20
2029.373661269834
 30
0.0
  0
POINT
  5
1DB3B
330
1DB0C
100
AcDbEntity
  8
DEFPOINTS
 62
     0
 48
50.0
100
AcDbPoint
 10
12115.39291868346
 20
1459.373661269833
 30
0.0
  0
POINT
  5
1DB3C
330
1DB0C
100
AcDbEntity
  8
DEFPOINTS
 62
     0
 48
50.0
100
AcDbPoint
 10
11778.67290371428
 20
1459.373661269833
 30
0.0
  0
ENDBLK
  5
1DB17
330
1DB0C
100
AcDbEntity
  8
0
 48
50.0
100
AcDbBlockEnd
  0
ENDSEC
  0
SECTION
  2
ENTITIES
  0
LINE
  5
10B56
330
747D
100
AcDbEntity
  8
補助
  6
PHANTOM
 62
     7
 48
50.0
100
AcDbLine
 10
175.0
 20
0.0
 30
0.0
 11
174.9999999999993
 21
14262.0
 31
0.0
  0
LINE
  5
10B57
330
747D
100
AcDbEntity
  8
補助
  6
PHANTOM
 62
     7
 48
50.0
100
AcDbLine
 10
174.9999999999993
 20
14262.0
 30
0.0
 11
20384.0
 21
14262.0
 31
0.0
  0
LINE
  5
10B59
330
747D
100
AcDbEntity
  8
仕様書枠
  6
Continuous
 62
     7
 48
50.0
100
AcDbLine
 10
16384.0
 20
1500.0
 30
0.0
 11
16384.0
 21
-0.0000000000000912
 31
0.0
  0
LINE
  5
10B5C
330
747D
100
AcDbEntity
  8
仕様書枠
 62
     7
 48
50.0
100
AcDbLine
 10
20384.0
 20
1500.0
 30
0.0
 11
20384.0
 21
-0.0000000000001137
 31
0.0
  0
LINE
  5
10B5D
330
747D
100
AcDbEntity
  8
仕様書枠
 62
     7
 48
50.0
100
AcDbLine
 10
175.0
 20
0.0
 30
0.0
 11
20384.0
 21
-0.0000000000001137
 31
0.0
  0
LINE
  5
10B5E
330
747D
100
AcDbEntity
  8
補助
  6
PHANTOM
 62
     7
 48
50.0
100
AcDbLine
 10
20384.0
 20
14262.0
 30
0.0
 11
20384.0
 21
1500.0
 31
0.0
  0
LINE
  5
10B6C
330
747D
100
AcDbEntity
  8
仕様書枠
 62
     7
 48
50.0
100
AcDbLine
 10
16384.0
 20
1500.0
 30
0.0
 11
20384.0
 21
1500.0
 31
0.0
  0
TEXT
  5
10B73
330
747D
100
AcDbEntity
  8
仕様書枠
 62
     7
 48
50.0
100
AcDbText
 10
16453.72382072112
 20
1118.863259287425
 30
0.0
 40
250.0
  1
基 礎 図
  7
STYLE2
100
AcDbText
  0
LINE
  5
10B7B
330
747D
100
AcDbEntity
  8
仕様書枠
 62
     7
 48
50.0
100
AcDbLine
 10
16384.0
 20
1000.0
 30
0.0
 11
17814.0
 21
1000.0
 31
0.0
  0
LINE
  5
10B88
330
747D
100
AcDbEntity
  8
仕様書枠
  6
Continuous
 62
     7
 48
50.0
100
AcDbLine
 10
17814.0
 20
1500.0
 30
0.0
 11
17814.0
 21
1000.0
 31
0.0
  0
TEXT
  5
1893F
330
747D
100
AcDbEntity
  8
文字
 62
     7
 48
50.0
100
AcDbText
 10
16511.7566802715
 20
202.8024588414045
 30
0.0
 40
100.0
  1
※寒冷地等は、地域の実情に合わせた基礎にしてください。
  7
STYLE2
100
AcDbText
  0
LINE
  5
18940
330
747D
100
AcDbEntity
  8
仕様書枠
 62
     7
 48
50.0
100
AcDbLine
 10
16484.0
 20
500.0
 30
0.0
 11
20284.0
 21
500.0
 31
0.0
  0
TEXT
  5
1A1F2
330
747D
100
AcDbEntity
  8
文字
 62
     7
 48
50.0
100
AcDbText
 10
18851.17639418858
 20
1289.447132864035
 30
0.0
 40
125.0
  1
<縮尺> S=1/50
  7
STYLE2
100
AcDbText
  0
TEXT
  5
1A1F3
330
747D
100
AcDbEntity
  8
文字
 62
     7
 48
50.0
100
AcDbText
 10
17947.84348957211
 20
604.8708912389265
 30
0.0
 40
225.0
  1
ＳＭＫ－１７Ｓ
  7
STYLE2
100
AcDbText
  0
TEXT
  5
1A1F4
330
747D
100
AcDbEntity
  8
文字
 62
     7
 48
50.0
100
AcDbText
 10
16501.79587498051
 20
596.5925826289065
 30
0.0
 40
200.0
  1
機種名
  7
STYLE2
100
AcDbText
  0
MTEXT
  5
1D491
102
{ACAD_REACTORS
330
1D492
102
}
330
747D
100
AcDbEntity
  8
細線
 62
     7
 48
50.0
100
AcDbMText
 10
10258.05794789699
 20
8523.481252862245
 30
0.0
 40
150.0
 41
0.0
 71
     4
 72
     5
  1
\A1;組立後\P現場打コンクリート
  7
STYLE1
 73
     1
 44
1.0
1001
ACAD
1000
MTEXTBEGIN
1070
    73
1070
     1
1070
    44
1040
1.0
1070
    74
1070
     0
1000
MTEXTEND
  0
LEADER
  5
1D492
330
747D
100
AcDbEntity
  8
寸法
 62
     7
 48
50.0
100
AcDbLeader
  3
INABA_S50G
 71
     0
 73
     0
 74
     0
 75
     1
 40
400.0
 41
1602.936553006147
 76
     3
 10
9678.554223318744
 20
7751.966894634247
 30
0.0
 10
10108.05794789699
 20
8298.481252862243
 30
0.0
 10
10233.05794789699
 20
8298.481252862243
 30
0.0
340
1D491
1001
ACAD
1000
DSTYLE
1002
{
1070
     6
1000
DOTSMALL
1002
}
1000
LEANOF
1010
0.0
1020
0.0
1030
0.0
  0
DIMENSION
  5
1D493
330
747D
100
AcDbEntity
  8
寸法
 62
     7
 48
50.0
100
AcDbDimension
  2
*D11
 10
10985.49999999999
 20
5464.955177899437
 30
0.0
 11
11277.94094488188
 21
5464.955177899437
 31
0.0
 70
   160
  1
(<>)
 71
     5
 42
54.99999999999635
  3
INABA_S50G
100
AcDbAlignedDimension
 13
10930.5
 23
6254.955177899433
 33
0.0
 14
10985.49999999999
 24
6264.955177899423
 34
0.0
100
AcDbRotatedDimension
  0
DIMENSION
  5
1D494
330
747D
100
AcDbEntity
  8
寸法
 62
     7
 48
50.0
100
AcDbDimension
  2
*D12
 10
11785.5
 20
6264.955177899423
 30
0.0
 11
11785.49999999999
 21
5935.014233017533
 31
0.0
 70
   160
  1
(<>)
 71
     5
 42
135.0
  3
INABA_S50G
100
AcDbAlignedDimension
 13
11075.5
 23
6399.955177899423
 33
0.0
 14
10985.49999999999
 24
6264.955177899423
 34
0.0
 50
90.0
100
AcDbRotatedDimension
  0
DIMENSION
  5
1D495
330
747D
100
AcDbEntity
  8
寸法
 62
     7
 48
50.0
100
AcDbDimension
  2
*D13
 10
11785.5
 20
7796.955177899414
 30
0.0
 11
11785.49999999999
 21
8089.658197568384
 31
0.0
 70
   160
  1
(<>)
 71
     5
 42
94.99999999997999
  3
INABA_S50G
100
AcDbAlignedDimension
 13
11075.5
 23
7701.955177899434
 33
0.0
 14
10985.49999999999
 24
7796.955177899414
 34
0.0
 50
90.0
100
AcDbRotatedDimension
  0
DIMENSION
  5
1D496
330
747D
100
AcDbEntity
  8
寸法
 62
     7
 48
50.0
100
AcDbDimension
  2
*D14
 10
11785.49999999999
 20
7701.955177899434
 30
0.0
 11
11685.48523622047
 21
7050.955177899431
 31
0.0
 70
    32
 71
     5
 42
1302.000000000011
  3
INABA_S50G
100
AcDbAlignedDimension
 13
11075.5
 23
6399.955177899423
 33
0.0
 14
11075.5
 24
7701.955177899434
 34
0.0
 50
90.0
100
AcDbRotatedDimension
  0
MTEXT
  5
1D497
102
{ACAD_REACTORS
330
1D4DE
102
}
330
747D
100
AcDbEntity
  8
細線
 62
     7
 48
50.0
100
AcDbMText
 10
11020.2534945176
 20
6907.569075062625
 30
0.0
 40
150.0
 41
0.0
 71
     4
 72
     5
  1
\A1;C.B
  7
STYLE1
 73
     1
 44
1.0
1001
ACAD
1000
MTEXTBEGIN
1070
    73
1070
     1
1070
    44
1040
1.0
1070
    74
1070
     0
1000
MTEXTEND
  0
LINE
  5
1D498
330
747D
100
AcDbEntity
  8
想像線
 62
     7
 48
20.0
100
AcDbLine
 10
10985.49999999999
 20
6264.955177899423
 30
0.0
 11
10985.49999999999
 21
7796.955177899414
 31
0.0
  0
LINE
  5
1D499
330
747D
100
AcDbEntity
  8
想像線
 62
     7
 48
20.0
100
AcDbLine
 10
9573.500000000001
 20
7796.955177899423
 30
0.0
 11
9573.500000000001
 21
6264.955177899423
 31
0.0
  0
DIMENSION
  5
1D49A
330
747D
100
AcDbEntity
  8
寸法
 62
     7
 48
50.0
100
AcDbDimension
  2
*D15
 10
8873.499999999998
 20
6399.955177899423
 30
0.0
 11
8773.499999999998
 21
6652.955177899423
 31
0.0
 70
    32
 71
     5
 42
506.0
  3
INABA_S50G
100
AcDbAlignedDimension
 13
10134.49999999999
 23
6905.955177899423
 33
0.0
 14
9483.500000000001
 24
6399.955177899423
 34
0.0
 50
90.0
100
AcDbRotatedDimension
1001
ACAD
1000
DSTYLE
1002
{
1070
   287
1070
     4
1070
    75
1070
     1
1070
   279
1070
     1
1002
}
  0
LINE
  5
1D49B
330
747D
100
AcDbEntity
  8
細線
 62
     7
 48
10.0
100
AcDbLine
 10
10379.5
 20
7105.955177899423
 30
0.0
 11
10379.5
 21
6705.955177899423
 31
0.0
  0
LINE
  5
1D49C
330
747D
100
AcDbEntity
  8
センター
 62
     7
 48
5.0
100
AcDbLine
 10
10279.5
 20
7050.955177899424
 30
0.0
 11
10279.5
 21
6760.955177899434
 31
0.0
  0
LINE
  5
1D49D
330
747D
100
AcDbEntity
  8
細線
 62
     7
 48
10.0
100
AcDbLine
 10
10179.5
 20
6705.955177899423
 30
0.0
 11
10179.5
 21
7105.955177899423
 31
0.0
  0
DIMENSION
  5
1D49E
330
747D
100
AcDbEntity
  8
寸法
 62
     7
 48
50.0
100
AcDbDimension
  2
*D16
 10
10279.5
 20
5864.955177899423
 30
0.0
 11
9954.0
 21
5964.955177899422
 31
0.0
 70
    32
 71
     5
 42
651.0
  3
INABA_S50G
100
AcDbAlignedDimension
 13
9628.5
 23
6254.955177899433
 33
0.0
 14
10279.5
 24
6760.955177899434
 34
0.0
100
AcDbRotatedDimension
  0
DIMENSION
  5
1D49F
330
747D
100
AcDbEntity
  8
寸法
 62
     7
 48
50.0
100
AcDbDimension
  2
*D17
 10
10930.5
 20
5464.955177899437
 30
0.0
 11
10279.5
 21
5564.969941678963
 31
0.0
 70
    32
 71
     5
 42
1302.0
  3
INABA_S50G
100
AcDbAlignedDimension
 13
9628.5
 23
6254.955177899433
 33
0.0
 14
10930.5
 24
6254.955177899433
 34
0.0
100
AcDbRotatedDimension
  0
LINE
  5
1D4A0
330
747D
100
AcDbEntity
  8
想像線
 62
     7
 48
20.0
100
AcDbLine
 10
9573.500000000001
 20
6264.955177899423
 30
0.0
 11
10985.49999999999
 21
6264.955177899423
 31
0.0
  0
LINE
  5
1D4A1
330
747D
100
AcDbEntity
  8
センター
 62
     7
 48
5.0
100
AcDbLine
 10
9773.5
 20
6399.955177899423
 30
0.0
 11
9483.500000000001
 21
6399.955177899423
 31
0.0
  0
LINE
  5
1D4A2
330
747D
100
AcDbEntity
  8
部品1
 62
     7
 48
50.0
100
AcDbLine
 10
9628.5
 20
6599.955177899435
 30
0.0
 11
10028.5
 21
6599.955177899435
 31
0.0
  0
LINE
  5
1D4A3
330
747D
100
AcDbEntity
  8
部品1
 62
     7
 48
50.0
100
AcDbLine
 10
9628.5
 20
6399.955177899423
 30
0.0
 11
10028.5
 21
6399.955177899423
 31
0.0
  0
DIMENSION
  5
1D4A4
330
747D
100
AcDbEntity
  8
寸法
 62
     7
 48
50.0
100
AcDbDimension
  2
*D18
 10
9628.5
 20
5464.955177899437
 30
0.0
 11
9281.05905511811
 21
5464.955177899437
 31
0.0
 70
   160
  1
(<>)
 71
     5
 42
55.0
  3
INABA_S50G
100
AcDbAlignedDimension
 13
9573.500000000001
 23
6264.955177899423
 33
0.0
 14
9628.5
 24
6254.955177899433
 34
0.0
100
AcDbRotatedDimension
  0
LINE
  5
1D4A5
330
747D
100
AcDbEntity
  8
センター
 62
     7
 48
5.0
100
AcDbLine
 10
9628.5
 20
6544.955177899423
 30
0.0
 11
9628.5
 21
6254.955177899433
 31
0.0
  0
LINE
  5
1D4A6
330
747D
100
AcDbEntity
  8
部品1
 62
     7
 48
50.0
100
AcDbLine
 10
9628.5
 20
6599.955177899435
 30
0.0
 11
9628.5
 21
6399.955177899423
 31
0.0
  0
LINE
  5
1D4A7
330
747D
100
AcDbEntity
  8
点線
 62
     7
 48
10.0
100
AcDbLine
 10
9728.5
 20
6499.955177899413
 30
0.0
 11
9528.499999999999
 21
6499.955177899413
 31
0.0
  0
LINE
  5
1D4A8
330
747D
100
AcDbEntity
  8
点線
 62
     7
 48
10.0
100
AcDbLine
 10
9728.5
 20
6299.955177899414
 30
0.0
 11
9528.499999999999
 21
6299.955177899414
 31
0.0
  0
LINE
  5
1D4A9
330
747D
100
AcDbEntity
  8
点線
 62
     7
 48
10.0
100
AcDbLine
 10
9528.499999999999
 20
6299.955177899414
 30
0.0
 11
9528.499999999999
 21
6499.955177899413
 31
0.0
  0
LINE
  5
1D4AA
330
747D
100
AcDbEntity
  8
点線
 62
     7
 48
10.0
100
AcDbLine
 10
9728.5
 20
6299.955177899414
 30
0.0
 11
9728.5
 21
6499.955177899413
 31
0.0
  0
DIMENSION
  5
1D4AC
330
747D
100
AcDbEntity
  8
寸法
 62
     7
 48
10.0
100
AcDbDimension
  2
*D19
 10
10930.5
 20
5864.955177899423
 30
0.0
 11
10605.0
 21
5964.955177899422
 31
0.0
 70
    32
 71
     5
 42
651.0
  3
INABA_S50G
100
AcDbAlignedDimension
 13
10279.5
 23
6760.955177899434
 33
0.0
 14
10930.5
 24
6254.955177899433
 34
0.0
100
AcDbRotatedDimension
1001
ACAD
1000
DSTYLE
1002
{
1070
   287
1070
     4
1070
    75
1070
     1
1070
   279
1070
     1
1002
}
  0
LINE
  5
1D4AD
330
747D
100
AcDbEntity
  8
部品1
 62
     7
 48
50.0
100
AcDbLine
 10
10530.5
 20
6399.955177899423
 30
0.0
 11
10930.5
 21
6399.955177899423
 31
0.0
  0
LINE
  5
1D4AE
330
747D
100
AcDbEntity
  8
部品1
 62
     7
 48
50.0
100
AcDbLine
 10
10530.5
 20
6599.955177899435
 30
0.0
 11
10930.5
 21
6599.955177899435
 31
0.0
  0
LINE
  5
1D4AF
330
747D
100
AcDbEntity
  8
部品1
 62
     7
 48
50.0
100
AcDbLine
 10
10028.5
 20
6599.955177899435
 30
0.0
 11
10028.5
 21
6399.955177899423
 31
0.0
  0
LINE
  5
1D4B0
330
747D
100
AcDbEntity
  8
部品1
 62
     7
 48
50.0
100
AcDbLine
 10
10530.5
 20
6399.955177899423
 30
0.0
 11
10530.5
 21
6599.955177899435
 31
0.0
  0
LINE
  5
1D4B1
330
747D
100
AcDbEntity
  8
細線
 62
     7
 48
10.0
100
AcDbLine
 10
10379.5
 20
6705.955177899423
 30
0.0
 11
10179.5
 21
6705.955177899423
 31
0.0
  0
LINE
  5
1D4B2
330
747D
100
AcDbEntity
  8
部品1
 62
     7
 48
10.0
100
AcDbLine
 10
10352.29791839215
 20
6726.492691867304
 30
0.0
 11
10352.29791839215
 21
6726.492691867304
 31
0.0
  0
LINE
  5
1D4B3
330
747D
100
AcDbEntity
  8
部品1
 62
     7
 48
10.0
100
AcDbLine
 10
10328.48541839215
 20
6726.492691867304
 30
0.0
 11
10328.48541839215
 21
6726.492691867304
 31
0.0
  0
LINE
  5
1D4B4
330
747D
100
AcDbEntity
  8
部品1
 62
     7
 48
10.0
100
AcDbLine
 10
10304.67291839215
 20
6726.492691867304
 30
0.0
 11
10304.67291839215
 21
6726.492691867304
 31
0.0
  0
LINE
  5
1D4B5
330
747D
100
AcDbEntity
  8
部品1
 62
     7
 48
10.0
100
AcDbLine
 10
10280.86041839215
 20
6726.492691867304
 30
0.0
 11
10280.86041839215
 21
6726.492691867304
 31
0.0
  0
LINE
  5
1D4B6
330
747D
100
AcDbEntity
  8
部品1
 62
     7
 48
10.0
100
AcDbLine
 10
10257.04791839215
 20
6726.492691867304
 30
0.0
 11
10257.04791839215
 21
6726.492691867304
 31
0.0
  0
LINE
  5
1D4B7
330
747D
100
AcDbEntity
  8
部品1
 62
     7
 48
10.0
100
AcDbLine
 10
10233.23541839215
 20
6726.492691867304
 30
0.0
 11
10233.23541839215
 21
6726.492691867304
 31
0.0
  0
LINE
  5
1D4B8
330
747D
100
AcDbEntity
  8
部品1
 62
     7
 48
10.0
100
AcDbLine
 10
10209.42291839215
 20
6726.492691867304
 30
0.0
 11
10209.42291839215
 21
6726.492691867304
 31
0.0
  0
LINE
  5
1D4B9
330
747D
100
AcDbEntity
  8
部品1
 62
     7
 48
10.0
100
AcDbLine
 10
10185.61041839215
 20
6726.492691867304
 30
0.0
 11
10185.61041839215
 21
6726.492691867304
 31
0.0
  0
LINE
  5
1D4BA
330
747D
100
AcDbEntity
  8
部品1
 62
     7
 48
10.0
100
AcDbLine
 10
10340.39166839215
 20
6750.305191867305
 30
0.0
 11
10340.39166839215
 21
6750.305191867305
 31
0.0
  0
LINE
  5
1D4BB
330
747D
100
AcDbEntity
  8
部品1
 62
     7
 48
10.0
100
AcDbLine
 10
10316.57916839215
 20
6750.305191867305
 30
0.0
 11
10316.57916839215
 21
6750.305191867305
 31
0.0
  0
LINE
  5
1D4BC
330
747D
100
AcDbEntity
  8
部品1
 62
     7
 48
10.0
100
AcDbLine
 10
10292.76666839215
 20
6750.305191867305
 30
0.0
 11
10292.76666839215
 21
6750.305191867305
 31
0.0
  0
LINE
  5
1D4BD
330
747D
100
AcDbEntity
  8
部品1
 62
     7
 48
10.0
100
AcDbLine
 10
10268.95416839215
 20
6750.305191867305
 30
0.0
 11
10268.95416839215
 21
6750.305191867305
 31
0.0
  0
LINE
  5
1D4BE
330
747D
100
AcDbEntity
  8
部品1
 62
     7
 48
10.0
100
AcDbLine
 10
10245.14166839215
 20
6750.305191867305
 30
0.0
 11
10245.14166839215
 21
6750.305191867305
 31
0.0
  0
LINE
  5
1D4BF
330
747D
100
AcDbEntity
  8
部品1
 62
     7
 48
10.0
100
AcDbLine
 10
10221.32916839215
 20
6750.305191867305
 30
0.0
 11
10221.32916839215
 21
6750.305191867305
 31
0.0
  0
LINE
  5
1D4C0
330
747D
100
AcDbEntity
  8
部品1
 62
     7
 48
10.0
100
AcDbLine
 10
10197.51666839215
 20
6750.305191867305
 30
0.0
 11
10197.51666839215
 21
6750.305191867305
 31
0.0
  0
LINE
  5
1D4C1
330
747D
100
AcDbEntity
  8
部品1
 62
     7
 48
10.0
100
AcDbLine
 10
10352.29791839215
 20
6774.117691867305
 30
0.0
 11
10352.29791839215
 21
6774.117691867305
 31
0.0
  0
LINE
  5
1D4C2
330
747D
100
AcDbEntity
  8
部品1
 62
     7
 48
10.0
100
AcDbLine
 10
10328.48541839215
 20
6774.117691867305
 30
0.0
 11
10328.48541839215
 21
6774.117691867305
 31
0.0
  0
LINE
  5
1D4C3
330
747D
100
AcDbEntity
  8
部品1
 62
     7
 48
10.0
100
AcDbLine
 10
10304.67291839215
 20
6774.117691867305
 30
0.0
 11
10304.67291839215
 21
6774.117691867305
 31
0.0
  0
LINE
  5
1D4C4
330
747D
100
AcDbEntity
  8
部品1
 62
     7
 48
10.0
100
AcDbLine
 10
10280.86041839215
 20
6774.117691867305
 30
0.0
 11
10280.86041839215
 21
6774.117691867305
 31
0.0
  0
LINE
  5
1D4C5
330
747D
100
AcDbEntity
  8
部品1
 62
     7
 48
10.0
100
AcDbLine
 10
10257.04791839215
 20
6774.117691867305
 30
0.0
 11
10257.04791839215
 21
6774.117691867305
 31
0.0
  0
LINE
  5
1D4C6
330
747D
100
AcDbEntity
  8
部品1
 62
     7
 48
10.0
100
AcDbLine
 10
10233.23541839215
 20
6774.117691867305
 30
0.0
 11
10233.23541839215
 21
6774.117691867305
 31
0.0
  0
LINE
  5
1D4C7
330
747D
100
AcDbEntity
  8
部品1
 62
     7
 48
10.0
100
AcDbLine
 10
10209.42291839215
 20
6774.117691867305
 30
0.0
 11
10209.42291839215
 21
6774.117691867305
 31
0.0
  0
LINE
  5
1D4C8
330
747D
100
AcDbEntity
  8
部品1
 62
     7
 48
10.0
100
AcDbLine
 10
10185.61041839215
 20
6774.117691867305
 30
0.0
 11
10185.61041839215
 21
6774.117691867305
 31
0.0
  0
LINE
  5
1D4C9
330
747D
100
AcDbEntity
  8
部品1
 62
     7
 48
10.0
100
AcDbLine
 10
10340.39166839215
 20
6797.930191867305
 30
0.0
 11
10340.39166839215
 21
6797.930191867305
 31
0.0
  0
LINE
  5
1D4CA
330
747D
100
AcDbEntity
  8
部品1
 62
     7
 48
10.0
100
AcDbLine
 10
10316.57916839215
 20
6797.930191867305
 30
0.0
 11
10316.57916839215
 21
6797.930191867305
 31
0.0
  0
LINE
  5
1D4CB
330
747D
100
AcDbEntity
  8
部品1
 62
     7
 48
10.0
100
AcDbLine
 10
10292.76666839215
 20
6797.930191867305
 30
0.0
 11
10292.76666839215
 21
6797.930191867305
 31
0.0
  0
LINE
  5
1D4CC
330
747D
100
AcDbEntity
  8
部品1
 62
     7
 48
10.0
100
AcDbLine
 10
10268.95416839215
 20
6797.930191867305
 30
0.0
 11
10268.95416839215
 21
6797.930191867305
 31
0.0
  0
LINE
  5
1D4CD
330
747D
100
AcDbEntity
  8
部品1
 62
     7
 48
10.0
100
AcDbLine
 10
10245.14166839215
 20
6797.930191867305
 30
0.0
 11
10245.14166839215
 21
6797.930191867305
 31
0.0
  0
LINE
  5
1D4CE
330
747D
100
AcDbEntity
  8
部品1
 62
     7
 48
10.0
100
AcDbLine
 10
10221.32916839215
 20
6797.930191867305
 30
0.0
 11
10221.32916839215
 21
6797.930191867305
 31
0.0
  0
LINE
  5
1D4CF
330
747D
100
AcDbEntity
  8
部品1
 62
     7
 48
10.0
100
AcDbLine
 10
10197.51666839215
 20
6797.930191867305
 30
0.0
 11
10197.51666839215
 21
6797.930191867305
 31
0.0
  0
LINE
  5
1D4D0
330
747D
100
AcDbEntity
  8
部品1
 62
     7
 48
10.0
100
AcDbLine
 10
10352.29791839215
 20
6821.742691867304
 30
0.0
 11
10352.29791839215
 21
6821.742691867304
 31
0.0
  0
LINE
  5
1D4D1
330
747D
100
AcDbEntity
  8
部品1
 62
     7
 48
10.0
100
AcDbLine
 10
10328.48541839215
 20
6821.742691867304
 30
0.0
 11
10328.48541839215
 21
6821.742691867304
 31
0.0
  0
LINE
  5
1D4D2
330
747D
100
AcDbEntity
  8
部品1
 62
     7
 48
10.0
100
AcDbLine
 10
10304.67291839215
 20
6821.742691867304
 30
0.0
 11
10304.67291839215
 21
6821.742691867304
 31
0.0
  0
LINE
  5
1D4D3
330
747D
100
AcDbEntity
  8
部品1
 62
     7
 48
10.0
100
AcDbLine
 10
10280.86041839215
 20
6821.742691867304
 30
0.0
 11
10280.86041839215
 21
6821.742691867304
 31
0.0
  0
LINE
  5
1D4D4
330
747D
100
AcDbEntity
  8
部品1
 62
     7
 48
10.0
100
AcDbLine
 10
10257.04791839215
 20
6821.742691867304
 30
0.0
 11
10257.04791839215
 21
6821.742691867304
 31
0.0
  0
LINE
  5
1D4D5
330
747D
100
AcDbEntity
  8
部品1
 62
     7
 48
10.0
100
AcDbLine
 10
10233.23541839215
 20
6821.742691867304
 30
0.0
 11
10233.23541839215
 21
6821.742691867304
 31
0.0
  0
LINE
  5
1D4D6
330
747D
100
AcDbEntity
  8
部品1
 62
     7
 48
10.0
100
AcDbLine
 10
10209.42291839215
 20
6821.742691867304
 30
0.0
 11
10209.42291839215
 21
6821.742691867304
 31
0.0
  0
LINE
  5
1D4D7
330
747D
100
AcDbEntity
  8
部品1
 62
     7
 48
10.0
100
AcDbLine
 10
10185.61041839215
 20
6821.742691867304
 30
0.0
 11
10185.61041839215
 21
6821.742691867304
 31
0.0
  0
LINE
  5
1D4D8
330
747D
100
AcDbEntity
  8
部品1
 62
     7
 48
10.0
100
AcDbLine
 10
10376.11041839215
 20
6726.492691867304
 30
0.0
 11
10376.11041839215
 21
6726.492691867304
 31
0.0
  0
LINE
  5
1D4D9
330
747D
100
AcDbEntity
  8
部品1
 62
     7
 48
10.0
100
AcDbLine
 10
10364.20416839215
 20
6750.305191867305
 30
0.0
 11
10364.20416839215
 21
6750.305191867305
 31
0.0
  0
LINE
  5
1D4DA
330
747D
100
AcDbEntity
  8
部品1
 62
     7
 48
10.0
100
AcDbLine
 10
10376.11041839215
 20
6774.117691867305
 30
0.0
 11
10376.11041839215
 21
6774.117691867305
 31
0.0
  0
LINE
  5
1D4DB
330
747D
100
AcDbEntity
  8
部品1
 62
     7
 48
10.0
100
AcDbLine
 10
10364.20416839215
 20
6797.930191867305
 30
0.0
 11
10364.20416839215
 21
6797.930191867305
 31
0.0
  0
LINE
  5
1D4DC
330
747D
100
AcDbEntity
  8
部品1
 62
     7
 48
10.0
100
AcDbLine
 10
10376.11041839215
 20
6821.742691867304
 30
0.0
 11
10376.11041839215
 21
6821.742691867304
 31
0.0
  0
LINE
  5
1D4DD
330
747D
100
AcDbEntity
  8
センター
 62
     7
 48
5.0
100
AcDbLine
 10
10930.5
 20
6544.955177899423
 30
0.0
 11
10930.5
 21
6254.955177899433
 31
0.0
  0
LEADER
  5
1D4DE
330
747D
100
AcDbEntity
  8
寸法
 62
     7
 48
50.0
100
AcDbLeader
  3
INABA_S50G
 71
     0
 73
     0
 74
     0
 75
     1
 40
150.0
 41
231.9898538650462
 76
     3
 10
10730.5
 20
6599.955177899435
 30
0.0
 10
10870.2534945176
 20
6807.569075062623
 30
0.0
 10
10995.2534945176
 20
6807.569075062623
 30
0.0
340
1D497
1001
ACAD
1000
DSTYLE
1002
{
1070
     6
1000
DOTSMALL
1002
}
1000
LEANOF
1010
0.0
1020
0.0
1030
0.0
  0
LINE
  5
1D4DF
330
747D
100
AcDbEntity
  8
点線
 62
     7
 48
10.0
100
AcDbLine
 10
10830.5
 20
6299.955177899414
 30
0.0
 11
11030.5
 21
6299.955177899414
 31
0.0
  0
LINE
  5
1D4E0
330
747D
100
AcDbEntity
  8
点線
 62
     7
 48
10.0
100
AcDbLine
 10
10830.5
 20
6499.955177899413
 30
0.0
 11
11030.5
 21
6499.955177899413
 31
0.0
  0
LINE
  5
1D4E1
330
747D
100
AcDbEntity
  8
センター
 62
     7
 48
5.0
100
AcDbLine
 10
11075.5
 20
6399.955177899423
 30
0.0
 11
10785.5
 21
6399.955177899423
 31
0.0
  0
LINE
  5
1D4E2
330
747D
100
AcDbEntity
  8
部品1
 62
     7
 48
50.0
100
AcDbLine
 10
10930.5
 20
6399.955177899423
 30
0.0
 11
10930.5
 21
6599.955177899435
 31
0.0
  0
LINE
  5
1D4E3
330
747D
100
AcDbEntity
  8
点線
 62
     7
 48
10.0
100
AcDbLine
 10
10830.5
 20
6299.955177899414
 30
0.0
 11
10830.5
 21
6499.955177899413
 31
0.0
  0
LINE
  5
1D4E4
330
747D
100
AcDbEntity
  8
点線
 62
     7
 48
10.0
100
AcDbLine
 10
11030.5
 20
6299.955177899414
 30
0.0
 11
11030.5
 21
6499.955177899413
 31
0.0
  0
LINE
  5
1D4E5
330
747D
100
AcDbEntity
  8
想像線
 62
     7
 48
20.0
100
AcDbLine
 10
10985.49999999999
 20
7796.955177899414
 30
0.0
 11
9573.500000000001
 21
7796.955177899423
 31
0.0
  0
DIMENSION
  5
1D4E6
330
747D
100
AcDbEntity
  8
寸法
 62
     7
 48
50.0
100
AcDbDimension
  2
*D7
 10
8873.499999999998
 20
6905.955177899423
 30
0.0
 11
8773.499999999998
 21
7123.455177899429
 31
0.0
 70
    32
 71
     5
 42
435.0000000000108
  3
INABA_S50G
100
AcDbAlignedDimension
 13
10134.49999999999
 23
7340.955177899434
 33
0.0
 14
10134.49999999999
 24
6905.955177899423
 34
0.0
 50
90.0
100
AcDbRotatedDimension
  0
DIMENSION
  5
1D4E7
330
747D
100
AcDbEntity
  8
寸法
 62
     7
 48
50.0
100
AcDbDimension
  2
*D8
 10
8873.499999999998
 20
7340.955177899434
 30
0.0
 11
8773.499999999998
 21
7521.455177899435
 31
0.0
 70
    32
 71
     5
 42
361.0
  3
INABA_S50G
100
AcDbAlignedDimension
 13
9123.499999999999
 23
7701.955177899434
 33
0.0
 14
10134.49999999999
 24
7340.955177899434
 34
0.0
 50
90.0
100
AcDbRotatedDimension
  0
LINE
  5
1D4E8
330
747D
100
AcDbEntity
  8
センター
 62
     7
 48
5.0
100
AcDbLine
 10
9773.5
 20
7701.955177899434
 30
0.0
 11
9483.500000000001
 21
7701.955177899434
 31
0.0
  0
DIMENSION
  5
1D4E9
330
747D
100
AcDbEntity
  8
寸法
 62
     7
 48
50.0
100
AcDbDimension
  2
*D9
 10
9528.499999999999
 20
8096.955177899422
 30
0.0
 11
9628.5
 21
8096.955177899422
 31
0.0
 70
   160
 71
     5
 42
200.0
  3
INABA_S50G
100
AcDbAlignedDimension
 13
9728.5
 23
7801.955177899422
 33
0.0
 14
9528.499999999999
 24
7801.955177899422
 34
0.0
100
AcDbRotatedDimension
  0
LINE
  5
1D4EA
330
747D
100
AcDbEntity
  8
部品1
 62
     7
 48
50.0
100
AcDbLine
 10
10028.5
 20
7701.955177899434
 30
0.0
 11
9628.5
 21
7701.955177899434
 31
0.0
  0
LINE
  5
1D4EB
330
747D
100
AcDbEntity
  8
部品1
 62
     7
 48
50.0
100
AcDbLine
 10
10028.5
 20
7501.955177899434
 30
0.0
 11
9628.5
 21
7501.955177899434
 31
0.0
  0
DIMENSION
  5
1D4EC
330
747D
100
AcDbEntity
  8
寸法
 62
     7
 48
50.0
100
AcDbDimension
  2
*D10
 10
9273.500000000002
 20
7601.955177899434
 30
0.0
 11
9273.5
 21
7701.95517789943
 31
0.0
 70
   160
 71
     5
 42
199.999999999989
  3
INABA_S50G
100
AcDbAlignedDimension
 13
9528.499999999999
 23
7801.955177899422
 33
0.0
 14
9528.499999999999
 24
7601.955177899434
 34
0.0
 50
90.0
100
AcDbRotatedDimension
  0
LINE
  5
1D4ED
330
747D
100
AcDbEntity
  8
点線
 62
     7
 48
10.0
100
AcDbLine
 10
9728.5
 20
7801.955177899422
 30
0.0
 11
9728.5
 21
7601.955177899434
 31
0.0
  0
LINE
  5
1D4EE
330
747D
100
AcDbEntity
  8
点線
 62
     7
 48
10.0
100
AcDbLine
 10
9528.499999999999
 20
7801.955177899422
 30
0.0
 11
9528.499999999999
 21
7601.955177899434
 31
0.0
  0
LINE
  5
1D4EF
330
747D
100
AcDbEntity
  8
センター
 62
     7
 48
5.0
100
AcDbLine
 10
9628.5
 20
7846.955177899435
 30
0.0
 11
9628.5
 21
7556.955177899422
 31
0.0
  0
LINE
  5
1D4F0
330
747D
100
AcDbEntity
  8
点線
 62
     7
 48
10.0
100
AcDbLine
 10
9728.5
 20
7601.955177899434
 30
0.0
 11
9528.499999999999
 21
7601.955177899434
 31
0.0
  0
LINE
  5
1D4F1
330
747D
100
AcDbEntity
  8
部品1
 62
     7
 48
50.0
100
AcDbLine
 10
9628.5
 20
7701.955177899434
 30
0.0
 11
9628.5
 21
7501.955177899434
 31
0.0
  0
LINE
  5
1D4F2
330
747D
100
AcDbEntity
  8
点線
 62
     7
 48
10.0
100
AcDbLine
 10
9728.5
 20
7801.955177899422
 30
0.0
 11
9528.499999999999
 21
7801.955177899422
 31
0.0
  0
LEADER
  5
1D4F3
330
747D
100
AcDbEntity
  8
寸法
 62
     7
 48
50.0
100
AcDbLeader
  3
INABA_S50G
 73
     0
 74
     0
 75
     1
 40
150.0
 41
840.0
 76
     3
 10
10144.62812408625
 20
7796.955177899414
 30
0.0
 10
10359.28019344808
 20
7998.728998074655
 30
0.0
 10
10484.28019344808
 20
7998.728998074655
 30
0.0
340
1D4F4
1001
ACAD
1000
DSTYLE
1002
{
1070
     6
1000

1070
    40
1040
1.0
1070
   341
1005
0
1070
   343
1005
0
1070
   344
1005
0
1002
}
1000
LEANOF
1010
0.0
1020
0.0
1030
0.0
  0
MTEXT
  5
1D4F4
102
{ACAD_REACTORS
330
1D4F3
102
}
330
747D
100
AcDbEntity
  8
部品1
 62
     7
 48
50.0
100
AcDbMText
 10
11349.28019344808
 20
8098.728998074655
 30
0.0
 40
150.0
 41
0.0
 71
     6
 72
     5
  1
\A1;屋根の外寸
  7
STYLE1
 73
     1
 44
1.0
1001
ACAD
1000
MTEXTBEGIN
1070
    73
1070
     1
1070
    44
1040
1.0
1070
    74
1070
     0
1000
MTEXTEND
  0
LINE
  5
1D4F5
330
747D
100
AcDbEntity
  8
部品1
 62
     7
 48
50.0
100
AcDbLine
 10
10930.5
 20
7501.955177899434
 30
0.0
 11
10530.5
 21
7501.955177899434
 31
0.0
  0
LINE
  5
1D4F6
330
747D
100
AcDbEntity
  8
部品1
 62
     7
 48
50.0
100
AcDbLine
 10
10930.5
 20
7701.955177899434
 30
0.0
 11
10530.5
 21
7701.955177899434
 31
0.0
  0
LINE
  5
1D4F7
330
747D
100
AcDbEntity
  8
細線
 62
     7
 48
10.0
100
AcDbLine
 10
10379.5
 20
7440.955177899434
 30
0.0
 11
10379.5
 21
7240.955177899434
 31
0.0
  0
LINE
  5
1D4F8
330
747D
100
AcDbEntity
  8
細線
 62
     7
 48
10.0
100
AcDbLine
 10
10179.5
 20
7240.955177899434
 30
0.0
 11
10179.5
 21
7440.955177899434
 31
0.0
  0
LINE
  5
1D4F9
330
747D
100
AcDbEntity
  8
センター
 62
     7
 48
5.0
100
AcDbLine
 10
10279.5
 20
7485.955177899434
 30
0.0
 11
10279.5
 21
7195.955177899422
 31
0.0
  0
LINE
  5
1D4FA
330
747D
100
AcDbEntity
  8
センター
 62
     7
 48
5.0
100
AcDbLine
 10
10424.5
 20
7340.955177899434
 30
0.0
 11
10134.49999999999
 21
7340.955177899434
 31
0.0
  0
LINE
  5
1D4FB
330
747D
100
AcDbEntity
  8
センター
 62
     7
 48
5.0
100
AcDbLine
 10
10134.49999999999
 20
6905.955177899423
 30
0.0
 11
10424.5
 21
6905.955177899423
 31
0.0
  0
LINE
  5
1D4FC
330
747D
100
AcDbEntity
  8
細線
 62
     7
 48
10.0
100
AcDbLine
 10
10179.5
 20
7105.955177899423
 30
0.0
 11
10379.5
 21
7105.955177899423
 31
0.0
  0
LINE
  5
1D4FD
330
747D
100
AcDbEntity
  8
部品1
 62
     7
 48
10.0
100
AcDbLine
 10
10340.39166839215
 20
6845.555191867305
 30
0.0
 11
10340.39166839215
 21
6845.555191867305
 31
0.0
  0
LINE
  5
1D4FE
330
747D
100
AcDbEntity
  8
部品1
 62
     7
 48
10.0
100
AcDbLine
 10
10316.57916839215
 20
6845.555191867305
 30
0.0
 11
10316.57916839215
 21
6845.555191867305
 31
0.0
  0
LINE
  5
1D4FF
330
747D
100
AcDbEntity
  8
部品1
 62
     7
 48
10.0
100
AcDbLine
 10
10292.76666839215
 20
6845.555191867305
 30
0.0
 11
10292.76666839215
 21
6845.555191867305
 31
0.0
  0
LINE
  5
1D500
330
747D
100
AcDbEntity
  8
部品1
 62
     7
 48
10.0
100
AcDbLine
 10
10268.95416839215
 20
6845.555191867305
 30
0.0
 11
10268.95416839215
 21
6845.555191867305
 31
0.0
  0
LINE
  5
1D501
330
747D
100
AcDbEntity
  8
部品1
 62
     7
 48
10.0
100
AcDbLine
 10
10245.14166839215
 20
6845.555191867305
 30
0.0
 11
10245.14166839215
 21
6845.555191867305
 31
0.0
  0
LINE
  5
1D502
330
747D
100
AcDbEntity
  8
部品1
 62
     7
 48
10.0
100
AcDbLine
 10
10221.32916839215
 20
6845.555191867305
 30
0.0
 11
10221.32916839215
 21
6845.555191867305
 31
0.0
  0
LINE
  5
1D503
330
747D
100
AcDbEntity
  8
部品1
 62
     7
 48
10.0
100
AcDbLine
 10
10197.51666839215
 20
6845.555191867305
 30
0.0
 11
10197.51666839215
 21
6845.555191867305
 31
0.0
  0
LINE
  5
1D504
330
747D
100
AcDbEntity
  8
部品1
 62
     7
 48
10.0
100
AcDbLine
 10
10352.29791839215
 20
6869.367691867305
 30
0.0
 11
10352.29791839215
 21
6869.367691867305
 31
0.0
  0
LINE
  5
1D505
330
747D
100
AcDbEntity
  8
部品1
 62
     7
 48
10.0
100
AcDbLine
 10
10328.48541839215
 20
6869.367691867305
 30
0.0
 11
10328.48541839215
 21
6869.367691867305
 31
0.0
  0
LINE
  5
1D506
330
747D
100
AcDbEntity
  8
部品1
 62
     7
 48
10.0
100
AcDbLine
 10
10304.67291839215
 20
6869.367691867305
 30
0.0
 11
10304.67291839215
 21
6869.367691867305
 31
0.0
  0
LINE
  5
1D507
330
747D
100
AcDbEntity
  8
部品1
 62
     7
 48
10.0
100
AcDbLine
 10
10280.86041839215
 20
6869.367691867305
 30
0.0
 11
10280.86041839215
 21
6869.367691867305
 31
0.0
  0
LINE
  5
1D508
330
747D
100
AcDbEntity
  8
部品1
 62
     7
 48
10.0
100
AcDbLine
 10
10257.04791839215
 20
6869.367691867305
 30
0.0
 11
10257.04791839215
 21
6869.367691867305
 31
0.0
  0
LINE
  5
1D509
330
747D
100
AcDbEntity
  8
部品1
 62
     7
 48
10.0
100
AcDbLine
 10
10233.23541839215
 20
6869.367691867305
 30
0.0
 11
10233.23541839215
 21
6869.367691867305
 31
0.0
  0
LINE
  5
1D50A
330
747D
100
AcDbEntity
  8
部品1
 62
     7
 48
10.0
100
AcDbLine
 10
10209.42291839215
 20
6869.367691867305
 30
0.0
 11
10209.42291839215
 21
6869.367691867305
 31
0.0
  0
LINE
  5
1D50B
330
747D
100
AcDbEntity
  8
部品1
 62
     7
 48
10.0
100
AcDbLine
 10
10185.61041839215
 20
6869.367691867305
 30
0.0
 11
10185.61041839215
 21
6869.367691867305
 31
0.0
  0
LINE
  5
1D50C
330
747D
100
AcDbEntity
  8
部品1
 62
     7
 48
10.0
100
AcDbLine
 10
10340.39166839215
 20
6893.180191867305
 30
0.0
 11
10340.39166839215
 21
6893.180191867305
 31
0.0
  0
LINE
  5
1D50D
330
747D
100
AcDbEntity
  8
部品1
 62
     7
 48
10.0
100
AcDbLine
 10
10316.57916839215
 20
6893.180191867305
 30
0.0
 11
10316.57916839215
 21
6893.180191867305
 31
0.0
  0
LINE
  5
1D50E
330
747D
100
AcDbEntity
  8
部品1
 62
     7
 48
10.0
100
AcDbLine
 10
10292.76666839215
 20
6893.180191867305
 30
0.0
 11
10292.76666839215
 21
6893.180191867305
 31
0.0
  0
LINE
  5
1D50F
330
747D
100
AcDbEntity
  8
部品1
 62
     7
 48
10.0
100
AcDbLine
 10
10268.95416839215
 20
6893.180191867305
 30
0.0
 11
10268.95416839215
 21
6893.180191867305
 31
0.0
  0
LINE
  5
1D510
330
747D
100
AcDbEntity
  8
部品1
 62
     7
 48
10.0
100
AcDbLine
 10
10245.14166839215
 20
6893.180191867305
 30
0.0
 11
10245.14166839215
 21
6893.180191867305
 31
0.0
  0
LINE
  5
1D511
330
747D
100
AcDbEntity
  8
部品1
 62
     7
 48
10.0
100
AcDbLine
 10
10221.32916839215
 20
6893.180191867305
 30
0.0
 11
10221.32916839215
 21
6893.180191867305
 31
0.0
  0
LINE
  5
1D512
330
747D
100
AcDbEntity
  8
部品1
 62
     7
 48
10.0
100
AcDbLine
 10
10197.51666839215
 20
6893.180191867305
 30
0.0
 11
10197.51666839215
 21
6893.180191867305
 31
0.0
  0
LINE
  5
1D513
330
747D
100
AcDbEntity
  8
部品1
 62
     7
 48
10.0
100
AcDbLine
 10
10352.29791839215
 20
6916.992691867304
 30
0.0
 11
10352.29791839215
 21
6916.992691867304
 31
0.0
  0
LINE
  5
1D514
330
747D
100
AcDbEntity
  8
部品1
 62
     7
 48
10.0
100
AcDbLine
 10
10328.48541839215
 20
6916.992691867304
 30
0.0
 11
10328.48541839215
 21
6916.992691867304
 31
0.0
  0
LINE
  5
1D515
330
747D
100
AcDbEntity
  8
部品1
 62
     7
 48
10.0
100
AcDbLine
 10
10304.67291839215
 20
6916.992691867304
 30
0.0
 11
10304.67291839215
 21
6916.992691867304
 31
0.0
  0
LINE
  5
1D516
330
747D
100
AcDbEntity
  8
部品1
 62
     7
 48
10.0
100
AcDbLine
 10
10280.86041839215
 20
6916.992691867304
 30
0.0
 11
10280.86041839215
 21
6916.992691867304
 31
0.0
  0
LINE
  5
1D517
330
747D
100
AcDbEntity
  8
部品1
 62
     7
 48
10.0
100
AcDbLine
 10
10257.04791839215
 20
6916.992691867304
 30
0.0
 11
10257.04791839215
 21
6916.992691867304
 31
0.0
  0
LINE
  5
1D518
330
747D
100
AcDbEntity
  8
部品1
 62
     7
 48
10.0
100
AcDbLine
 10
10233.23541839215
 20
6916.992691867304
 30
0.0
 11
10233.23541839215
 21
6916.992691867304
 31
0.0
  0
LINE
  5
1D519
330
747D
100
AcDbEntity
  8
部品1
 62
     7
 48
10.0
100
AcDbLine
 10
10209.42291839215
 20
6916.992691867304
 30
0.0
 11
10209.42291839215
 21
6916.992691867304
 31
0.0
  0
LINE
  5
1D51A
330
747D
100
AcDbEntity
  8
部品1
 62
     7
 48
10.0
100
AcDbLine
 10
10185.61041839215
 20
6916.992691867304
 30
0.0
 11
10185.61041839215
 21
6916.992691867304
 31
0.0
  0
LINE
  5
1D51B
330
747D
100
AcDbEntity
  8
部品1
 62
     7
 48
10.0
100
AcDbLine
 10
10340.39166839215
 20
6940.805191867305
 30
0.0
 11
10340.39166839215
 21
6940.805191867305
 31
0.0
  0
LINE
  5
1D51C
330
747D
100
AcDbEntity
  8
部品1
 62
     7
 48
10.0
100
AcDbLine
 10
10316.57916839215
 20
6940.805191867305
 30
0.0
 11
10316.57916839215
 21
6940.805191867305
 31
0.0
  0
LINE
  5
1D51D
330
747D
100
AcDbEntity
  8
部品1
 62
     7
 48
10.0
100
AcDbLine
 10
10292.76666839215
 20
6940.805191867305
 30
0.0
 11
10292.76666839215
 21
6940.805191867305
 31
0.0
  0
LINE
  5
1D51E
330
747D
100
AcDbEntity
  8
部品1
 62
     7
 48
10.0
100
AcDbLine
 10
10268.95416839215
 20
6940.805191867305
 30
0.0
 11
10268.95416839215
 21
6940.805191867305
 31
0.0
  0
LINE
  5
1D51F
330
747D
100
AcDbEntity
  8
部品1
 62
     7
 48
10.0
100
AcDbLine
 10
10245.14166839215
 20
6940.805191867305
 30
0.0
 11
10245.14166839215
 21
6940.805191867305
 31
0.0
  0
LINE
  5
1D520
330
747D
100
AcDbEntity
  8
部品1
 62
     7
 48
10.0
100
AcDbLine
 10
10221.32916839215
 20
6940.805191867305
 30
0.0
 11
10221.32916839215
 21
6940.805191867305
 31
0.0
  0
LINE
  5
1D521
330
747D
100
AcDbEntity
  8
部品1
 62
     7
 48
10.0
100
AcDbLine
 10
10197.51666839215
 20
6940.805191867305
 30
0.0
 11
10197.51666839215
 21
6940.805191867305
 31
0.0
  0
LINE
  5
1D522
330
747D
100
AcDbEntity
  8
部品1
 62
     7
 48
10.0
100
AcDbLine
 10
10352.29791839215
 20
6964.617691867305
 30
0.0
 11
10352.29791839215
 21
6964.617691867305
 31
0.0
  0
LINE
  5
1D523
330
747D
100
AcDbEntity
  8
部品1
 62
     7
 48
10.0
100
AcDbLine
 10
10328.48541839215
 20
6964.617691867305
 30
0.0
 11
10328.48541839215
 21
6964.617691867305
 31
0.0
  0
LINE
  5
1D524
330
747D
100
AcDbEntity
  8
部品1
 62
     7
 48
10.0
100
AcDbLine
 10
10304.67291839215
 20
6964.617691867305
 30
0.0
 11
10304.67291839215
 21
6964.617691867305
 31
0.0
  0
LINE
  5
1D525
330
747D
100
AcDbEntity
  8
部品1
 62
     7
 48
10.0
100
AcDbLine
 10
10280.86041839215
 20
6964.617691867305
 30
0.0
 11
10280.86041839215
 21
6964.617691867305
 31
0.0
  0
LINE
  5
1D526
330
747D
100
AcDbEntity
  8
部品1
 62
     7
 48
10.0
100
AcDbLine
 10
10257.04791839215
 20
6964.617691867305
 30
0.0
 11
10257.04791839215
 21
6964.617691867305
 31
0.0
  0
LINE
  5
1D527
330
747D
100
AcDbEntity
  8
部品1
 62
     7
 48
10.0
100
AcDbLine
 10
10233.23541839215
 20
6964.617691867305
 30
0.0
 11
10233.23541839215
 21
6964.617691867305
 31
0.0
  0
LINE
  5
1D528
330
747D
100
AcDbEntity
  8
部品1
 62
     7
 48
10.0
100
AcDbLine
 10
10209.42291839215
 20
6964.617691867305
 30
0.0
 11
10209.42291839215
 21
6964.617691867305
 31
0.0
  0
LINE
  5
1D529
330
747D
100
AcDbEntity
  8
部品1
 62
     7
 48
10.0
100
AcDbLine
 10
10185.61041839215
 20
6964.617691867305
 30
0.0
 11
10185.61041839215
 21
6964.617691867305
 31
0.0
  0
LINE
  5
1D52A
330
747D
100
AcDbEntity
  8
部品1
 62
     7
 48
10.0
100
AcDbLine
 10
10340.39166839215
 20
6988.430191867305
 30
0.0
 11
10340.39166839215
 21
6988.430191867305
 31
0.0
  0
LINE
  5
1D52B
330
747D
100
AcDbEntity
  8
部品1
 62
     7
 48
10.0
100
AcDbLine
 10
10316.57916839215
 20
6988.430191867305
 30
0.0
 11
10316.57916839215
 21
6988.430191867305
 31
0.0
  0
LINE
  5
1D52C
330
747D
100
AcDbEntity
  8
部品1
 62
     7
 48
10.0
100
AcDbLine
 10
10292.76666839215
 20
6988.430191867305
 30
0.0
 11
10292.76666839215
 21
6988.430191867305
 31
0.0
  0
LINE
  5
1D52D
330
747D
100
AcDbEntity
  8
部品1
 62
     7
 48
10.0
100
AcDbLine
 10
10268.95416839215
 20
6988.430191867305
 30
0.0
 11
10268.95416839215
 21
6988.430191867305
 31
0.0
  0
LINE
  5
1D52E
330
747D
100
AcDbEntity
  8
部品1
 62
     7
 48
10.0
100
AcDbLine
 10
10245.14166839215
 20
6988.430191867305
 30
0.0
 11
10245.14166839215
 21
6988.430191867305
 31
0.0
  0
LINE
  5
1D52F
330
747D
100
AcDbEntity
  8
部品1
 62
     7
 48
10.0
100
AcDbLine
 10
10221.32916839215
 20
6988.430191867305
 30
0.0
 11
10221.32916839215
 21
6988.430191867305
 31
0.0
  0
LINE
  5
1D530
330
747D
100
AcDbEntity
  8
部品1
 62
     7
 48
10.0
100
AcDbLine
 10
10197.51666839215
 20
6988.430191867305
 30
0.0
 11
10197.51666839215
 21
6988.430191867305
 31
0.0
  0
LINE
  5
1D531
330
747D
100
AcDbEntity
  8
部品1
 62
     7
 48
10.0
100
AcDbLine
 10
10352.29791839215
 20
7012.242691867304
 30
0.0
 11
10352.29791839215
 21
7012.242691867304
 31
0.0
  0
LINE
  5
1D532
330
747D
100
AcDbEntity
  8
部品1
 62
     7
 48
10.0
100
AcDbLine
 10
10328.48541839215
 20
7012.242691867304
 30
0.0
 11
10328.48541839215
 21
7012.242691867304
 31
0.0
  0
LINE
  5
1D533
330
747D
100
AcDbEntity
  8
部品1
 62
     7
 48
10.0
100
AcDbLine
 10
10304.67291839215
 20
7012.242691867304
 30
0.0
 11
10304.67291839215
 21
7012.242691867304
 31
0.0
  0
LINE
  5
1D534
330
747D
100
AcDbEntity
  8
部品1
 62
     7
 48
10.0
100
AcDbLine
 10
10280.86041839215
 20
7012.242691867304
 30
0.0
 11
10280.86041839215
 21
7012.242691867304
 31
0.0
  0
LINE
  5
1D535
330
747D
100
AcDbEntity
  8
部品1
 62
     7
 48
10.0
100
AcDbLine
 10
10257.04791839215
 20
7012.242691867304
 30
0.0
 11
10257.04791839215
 21
7012.242691867304
 31
0.0
  0
LINE
  5
1D536
330
747D
100
AcDbEntity
  8
部品1
 62
     7
 48
10.0
100
AcDbLine
 10
10233.23541839215
 20
7012.242691867304
 30
0.0
 11
10233.23541839215
 21
7012.242691867304
 31
0.0
  0
LINE
  5
1D537
330
747D
100
AcDbEntity
  8
部品1
 62
     7
 48
10.0
100
AcDbLine
 10
10209.42291839215
 20
7012.242691867304
 30
0.0
 11
10209.42291839215
 21
7012.242691867304
 31
0.0
  0
LINE
  5
1D538
330
747D
100
AcDbEntity
  8
部品1
 62
     7
 48
10.0
100
AcDbLine
 10
10185.61041839215
 20
7012.242691867304
 30
0.0
 11
10185.61041839215
 21
7012.242691867304
 31
0.0
  0
LINE
  5
1D539
330
747D
100
AcDbEntity
  8
部品1
 62
     7
 48
10.0
100
AcDbLine
 10
10340.39166839215
 20
7036.055191867305
 30
0.0
 11
10340.39166839215
 21
7036.055191867305
 31
0.0
  0
LINE
  5
1D53A
330
747D
100
AcDbEntity
  8
部品1
 62
     7
 48
10.0
100
AcDbLine
 10
10316.57916839215
 20
7036.055191867305
 30
0.0
 11
10316.57916839215
 21
7036.055191867305
 31
0.0
  0
LINE
  5
1D53B
330
747D
100
AcDbEntity
  8
部品1
 62
     7
 48
10.0
100
AcDbLine
 10
10292.76666839215
 20
7036.055191867305
 30
0.0
 11
10292.76666839215
 21
7036.055191867305
 31
0.0
  0
LINE
  5
1D53C
330
747D
100
AcDbEntity
  8
部品1
 62
     7
 48
10.0
100
AcDbLine
 10
10268.95416839215
 20
7036.055191867305
 30
0.0
 11
10268.95416839215
 21
7036.055191867305
 31
0.0
  0
LINE
  5
1D53D
330
747D
100
AcDbEntity
  8
部品1
 62
     7
 48
10.0
100
AcDbLine
 10
10245.14166839215
 20
7036.055191867305
 30
0.0
 11
10245.14166839215
 21
7036.055191867305
 31
0.0
  0
LINE
  5
1D53E
330
747D
100
AcDbEntity
  8
部品1
 62
     7
 48
10.0
100
AcDbLine
 10
10221.32916839215
 20
7036.055191867305
 30
0.0
 11
10221.32916839215
 21
7036.055191867305
 31
0.0
  0
LINE
  5
1D53F
330
747D
100
AcDbEntity
  8
部品1
 62
     7
 48
10.0
100
AcDbLine
 10
10197.51666839215
 20
7036.055191867305
 30
0.0
 11
10197.51666839215
 21
7036.055191867305
 31
0.0
  0
LINE
  5
1D540
330
747D
100
AcDbEntity
  8
部品1
 62
     7
 48
10.0
100
AcDbLine
 10
10352.29791839215
 20
7059.867691867305
 30
0.0
 11
10352.29791839215
 21
7059.867691867305
 31
0.0
  0
LINE
  5
1D541
330
747D
100
AcDbEntity
  8
部品1
 62
     7
 48
10.0
100
AcDbLine
 10
10328.48541839215
 20
7059.867691867305
 30
0.0
 11
10328.48541839215
 21
7059.867691867305
 31
0.0
  0
LINE
  5
1D542
330
747D
100
AcDbEntity
  8
部品1
 62
     7
 48
10.0
100
AcDbLine
 10
10304.67291839215
 20
7059.867691867305
 30
0.0
 11
10304.67291839215
 21
7059.867691867305
 31
0.0
  0
LINE
  5
1D543
330
747D
100
AcDbEntity
  8
部品1
 62
     7
 48
10.0
100
AcDbLine
 10
10280.86041839215
 20
7059.867691867305
 30
0.0
 11
10280.86041839215
 21
7059.867691867305
 31
0.0
  0
LINE
  5
1D544
330
747D
100
AcDbEntity
  8
部品1
 62
     7
 48
10.0
100
AcDbLine
 10
10257.04791839215
 20
7059.867691867305
 30
0.0
 11
10257.04791839215
 21
7059.867691867305
 31
0.0
  0
LINE
  5
1D545
330
747D
100
AcDbEntity
  8
部品1
 62
     7
 48
10.0
100
AcDbLine
 10
10233.23541839215
 20
7059.867691867305
 30
0.0
 11
10233.23541839215
 21
7059.867691867305
 31
0.0
  0
LINE
  5
1D546
330
747D
100
AcDbEntity
  8
部品1
 62
     7
 48
10.0
100
AcDbLine
 10
10209.42291839215
 20
7059.867691867305
 30
0.0
 11
10209.42291839215
 21
7059.867691867305
 31
0.0
  0
LINE
  5
1D547
330
747D
100
AcDbEntity
  8
部品1
 62
     7
 48
10.0
100
AcDbLine
 10
10185.61041839215
 20
7059.867691867305
 30
0.0
 11
10185.61041839215
 21
7059.867691867305
 31
0.0
  0
LINE
  5
1D548
330
747D
100
AcDbEntity
  8
部品1
 62
     7
 48
10.0
100
AcDbLine
 10
10340.39166839215
 20
7083.680191867305
 30
0.0
 11
10340.39166839215
 21
7083.680191867305
 31
0.0
  0
LINE
  5
1D549
330
747D
100
AcDbEntity
  8
部品1
 62
     7
 48
10.0
100
AcDbLine
 10
10316.57916839215
 20
7083.680191867305
 30
0.0
 11
10316.57916839215
 21
7083.680191867305
 31
0.0
  0
LINE
  5
1D54A
330
747D
100
AcDbEntity
  8
部品1
 62
     7
 48
10.0
100
AcDbLine
 10
10292.76666839215
 20
7083.680191867305
 30
0.0
 11
10292.76666839215
 21
7083.680191867305
 31
0.0
  0
LINE
  5
1D54B
330
747D
100
AcDbEntity
  8
部品1
 62
     7
 48
10.0
100
AcDbLine
 10
10268.95416839215
 20
7083.680191867305
 30
0.0
 11
10268.95416839215
 21
7083.680191867305
 31
0.0
  0
LINE
  5
1D54C
330
747D
100
AcDbEntity
  8
部品1
 62
     7
 48
10.0
100
AcDbLine
 10
10245.14166839215
 20
7083.680191867305
 30
0.0
 11
10245.14166839215
 21
7083.680191867305
 31
0.0
  0
LINE
  5
1D54D
330
747D
100
AcDbEntity
  8
部品1
 62
     7
 48
10.0
100
AcDbLine
 10
10221.32916839215
 20
7083.680191867305
 30
0.0
 11
10221.32916839215
 21
7083.680191867305
 31
0.0
  0
LINE
  5
1D54E
330
747D
100
AcDbEntity
  8
部品1
 62
     7
 48
10.0
100
AcDbLine
 10
10197.51666839215
 20
7083.680191867305
 30
0.0
 11
10197.51666839215
 21
7083.680191867305
 31
0.0
  0
LINE
  5
1D54F
330
747D
100
AcDbEntity
  8
部品1
 62
     7
 48
10.0
100
AcDbLine
 10
10364.20416839215
 20
6845.555191867305
 30
0.0
 11
10364.20416839215
 21
6845.555191867305
 31
0.0
  0
LINE
  5
1D550
330
747D
100
AcDbEntity
  8
部品1
 62
     7
 48
10.0
100
AcDbLine
 10
10376.11041839215
 20
6869.367691867305
 30
0.0
 11
10376.11041839215
 21
6869.367691867305
 31
0.0
  0
LINE
  5
1D551
330
747D
100
AcDbEntity
  8
部品1
 62
     7
 48
10.0
100
AcDbLine
 10
10364.20416839215
 20
6893.180191867305
 30
0.0
 11
10364.20416839215
 21
6893.180191867305
 31
0.0
  0
LINE
  5
1D552
330
747D
100
AcDbEntity
  8
部品1
 62
     7
 48
10.0
100
AcDbLine
 10
10376.11041839215
 20
6916.992691867304
 30
0.0
 11
10376.11041839215
 21
6916.992691867304
 31
0.0
  0
LINE
  5
1D553
330
747D
100
AcDbEntity
  8
部品1
 62
     7
 48
10.0
100
AcDbLine
 10
10364.20416839215
 20
6940.805191867305
 30
0.0
 11
10364.20416839215
 21
6940.805191867305
 31
0.0
  0
LINE
  5
1D554
330
747D
100
AcDbEntity
  8
部品1
 62
     7
 48
10.0
100
AcDbLine
 10
10376.11041839215
 20
6964.617691867305
 30
0.0
 11
10376.11041839215
 21
6964.617691867305
 31
0.0
  0
LINE
  5
1D555
330
747D
100
AcDbEntity
  8
部品1
 62
     7
 48
10.0
100
AcDbLine
 10
10364.20416839215
 20
6988.430191867305
 30
0.0
 11
10364.20416839215
 21
6988.430191867305
 31
0.0
  0
LINE
  5
1D556
330
747D
100
AcDbEntity
  8
部品1
 62
     7
 48
10.0
100
AcDbLine
 10
10376.11041839215
 20
7012.242691867304
 30
0.0
 11
10376.11041839215
 21
7012.242691867304
 31
0.0
  0
LINE
  5
1D557
330
747D
100
AcDbEntity
  8
部品1
 62
     7
 48
10.0
100
AcDbLine
 10
10364.20416839215
 20
7036.055191867305
 30
0.0
 11
10364.20416839215
 21
7036.055191867305
 31
0.0
  0
LINE
  5
1D558
330
747D
100
AcDbEntity
  8
部品1
 62
     7
 48
10.0
100
AcDbLine
 10
10376.11041839215
 20
7059.867691867305
 30
0.0
 11
10376.11041839215
 21
7059.867691867305
 31
0.0
  0
LINE
  5
1D559
330
747D
100
AcDbEntity
  8
部品1
 62
     7
 48
10.0
100
AcDbLine
 10
10364.20416839215
 20
7083.680191867305
 30
0.0
 11
10364.20416839215
 21
7083.680191867305
 31
0.0
  0
LINE
  5
1D55A
330
747D
100
AcDbEntity
  8
細線
 62
     7
 48
10.0
100
AcDbLine
 10
10379.5
 20
7240.955177899434
 30
0.0
 11
10179.5
 21
7240.955177899434
 31
0.0
  0
LINE
  5
1D55B
330
747D
100
AcDbEntity
  8
部品1
 62
     7
 48
10.0
100
AcDbLine
 10
10352.29791839215
 20
7250.367691867305
 30
0.0
 11
10352.29791839215
 21
7250.367691867305
 31
0.0
  0
LINE
  5
1D55C
330
747D
100
AcDbEntity
  8
部品1
 62
     7
 48
10.0
100
AcDbLine
 10
10328.48541839215
 20
7250.367691867305
 30
0.0
 11
10328.48541839215
 21
7250.367691867305
 31
0.0
  0
LINE
  5
1D55D
330
747D
100
AcDbEntity
  8
部品1
 62
     7
 48
10.0
100
AcDbLine
 10
10304.67291839215
 20
7250.367691867305
 30
0.0
 11
10304.67291839215
 21
7250.367691867305
 31
0.0
  0
LINE
  5
1D55E
330
747D
100
AcDbEntity
  8
部品1
 62
     7
 48
10.0
100
AcDbLine
 10
10280.86041839215
 20
7250.367691867305
 30
0.0
 11
10280.86041839215
 21
7250.367691867305
 31
0.0
  0
LINE
  5
1D55F
330
747D
100
AcDbEntity
  8
部品1
 62
     7
 48
10.0
100
AcDbLine
 10
10257.04791839215
 20
7250.367691867305
 30
0.0
 11
10257.04791839215
 21
7250.367691867305
 31
0.0
  0
LINE
  5
1D560
330
747D
100
AcDbEntity
  8
部品1
 62
     7
 48
10.0
100
AcDbLine
 10
10233.23541839215
 20
7250.367691867305
 30
0.0
 11
10233.23541839215
 21
7250.367691867305
 31
0.0
  0
LINE
  5
1D561
330
747D
100
AcDbEntity
  8
部品1
 62
     7
 48
10.0
100
AcDbLine
 10
10209.42291839215
 20
7250.367691867305
 30
0.0
 11
10209.42291839215
 21
7250.367691867305
 31
0.0
  0
LINE
  5
1D562
330
747D
100
AcDbEntity
  8
部品1
 62
     7
 48
10.0
100
AcDbLine
 10
10185.61041839215
 20
7250.367691867305
 30
0.0
 11
10185.61041839215
 21
7250.367691867305
 31
0.0
  0
LINE
  5
1D563
330
747D
100
AcDbEntity
  8
部品1
 62
     7
 48
10.0
100
AcDbLine
 10
10340.39166839215
 20
7274.180191867305
 30
0.0
 11
10340.39166839215
 21
7274.180191867305
 31
0.0
  0
LINE
  5
1D564
330
747D
100
AcDbEntity
  8
部品1
 62
     7
 48
10.0
100
AcDbLine
 10
10316.57916839215
 20
7274.180191867305
 30
0.0
 11
10316.57916839215
 21
7274.180191867305
 31
0.0
  0
LINE
  5
1D565
330
747D
100
AcDbEntity
  8
部品1
 62
     7
 48
10.0
100
AcDbLine
 10
10292.76666839215
 20
7274.180191867305
 30
0.0
 11
10292.76666839215
 21
7274.180191867305
 31
0.0
  0
LINE
  5
1D566
330
747D
100
AcDbEntity
  8
部品1
 62
     7
 48
10.0
100
AcDbLine
 10
10268.95416839215
 20
7274.180191867305
 30
0.0
 11
10268.95416839215
 21
7274.180191867305
 31
0.0
  0
LINE
  5
1D567
330
747D
100
AcDbEntity
  8
部品1
 62
     7
 48
10.0
100
AcDbLine
 10
10245.14166839215
 20
7274.180191867305
 30
0.0
 11
10245.14166839215
 21
7274.180191867305
 31
0.0
  0
LINE
  5
1D568
330
747D
100
AcDbEntity
  8
部品1
 62
     7
 48
10.0
100
AcDbLine
 10
10221.32916839215
 20
7274.180191867305
 30
0.0
 11
10221.32916839215
 21
7274.180191867305
 31
0.0
  0
LINE
  5
1D569
330
747D
100
AcDbEntity
  8
部品1
 62
     7
 48
10.0
100
AcDbLine
 10
10197.51666839215
 20
7274.180191867305
 30
0.0
 11
10197.51666839215
 21
7274.180191867305
 31
0.0
  0
LINE
  5
1D56A
330
747D
100
AcDbEntity
  8
部品1
 62
     7
 48
10.0
100
AcDbLine
 10
10352.29791839215
 20
7297.992691867304
 30
0.0
 11
10352.29791839215
 21
7297.992691867304
 31
0.0
  0
LINE
  5
1D56B
330
747D
100
AcDbEntity
  8
部品1
 62
     7
 48
10.0
100
AcDbLine
 10
10328.48541839215
 20
7297.992691867304
 30
0.0
 11
10328.48541839215
 21
7297.992691867304
 31
0.0
  0
LINE
  5
1D56C
330
747D
100
AcDbEntity
  8
部品1
 62
     7
 48
10.0
100
AcDbLine
 10
10304.67291839215
 20
7297.992691867304
 30
0.0
 11
10304.67291839215
 21
7297.992691867304
 31
0.0
  0
LINE
  5
1D56D
330
747D
100
AcDbEntity
  8
部品1
 62
     7
 48
10.0
100
AcDbLine
 10
10280.86041839215
 20
7297.992691867304
 30
0.0
 11
10280.86041839215
 21
7297.992691867304
 31
0.0
  0
LINE
  5
1D56E
330
747D
100
AcDbEntity
  8
部品1
 62
     7
 48
10.0
100
AcDbLine
 10
10257.04791839215
 20
7297.992691867304
 30
0.0
 11
10257.04791839215
 21
7297.992691867304
 31
0.0
  0
LINE
  5
1D56F
330
747D
100
AcDbEntity
  8
部品1
 62
     7
 48
10.0
100
AcDbLine
 10
10233.23541839215
 20
7297.992691867304
 30
0.0
 11
10233.23541839215
 21
7297.992691867304
 31
0.0
  0
LINE
  5
1D570
330
747D
100
AcDbEntity
  8
部品1
 62
     7
 48
10.0
100
AcDbLine
 10
10209.42291839215
 20
7297.992691867304
 30
0.0
 11
10209.42291839215
 21
7297.992691867304
 31
0.0
  0
LINE
  5
1D571
330
747D
100
AcDbEntity
  8
部品1
 62
     7
 48
10.0
100
AcDbLine
 10
10185.61041839215
 20
7297.992691867304
 30
0.0
 11
10185.61041839215
 21
7297.992691867304
 31
0.0
  0
LINE
  5
1D572
330
747D
100
AcDbEntity
  8
部品1
 62
     7
 48
10.0
100
AcDbLine
 10
10340.39166839215
 20
7321.805191867304
 30
0.0
 11
10340.39166839215
 21
7321.805191867304
 31
0.0
  0
LINE
  5
1D573
330
747D
100
AcDbEntity
  8
部品1
 62
     7
 48
10.0
100
AcDbLine
 10
10316.57916839215
 20
7321.805191867304
 30
0.0
 11
10316.57916839215
 21
7321.805191867304
 31
0.0
  0
LINE
  5
1D574
330
747D
100
AcDbEntity
  8
部品1
 62
     7
 48
10.0
100
AcDbLine
 10
10292.76666839215
 20
7321.805191867304
 30
0.0
 11
10292.76666839215
 21
7321.805191867304
 31
0.0
  0
LINE
  5
1D575
330
747D
100
AcDbEntity
  8
部品1
 62
     7
 48
10.0
100
AcDbLine
 10
10268.95416839215
 20
7321.805191867304
 30
0.0
 11
10268.95416839215
 21
7321.805191867304
 31
0.0
  0
LINE
  5
1D576
330
747D
100
AcDbEntity
  8
部品1
 62
     7
 48
10.0
100
AcDbLine
 10
10245.14166839215
 20
7321.805191867304
 30
0.0
 11
10245.14166839215
 21
7321.805191867304
 31
0.0
  0
LINE
  5
1D577
330
747D
100
AcDbEntity
  8
部品1
 62
     7
 48
10.0
100
AcDbLine
 10
10221.32916839215
 20
7321.805191867304
 30
0.0
 11
10221.32916839215
 21
7321.805191867304
 31
0.0
  0
LINE
  5
1D578
330
747D
100
AcDbEntity
  8
部品1
 62
     7
 48
10.0
100
AcDbLine
 10
10197.51666839215
 20
7321.805191867304
 30
0.0
 11
10197.51666839215
 21
7321.805191867304
 31
0.0
  0
LINE
  5
1D579
330
747D
100
AcDbEntity
  8
部品1
 62
     7
 48
10.0
100
AcDbLine
 10
10352.29791839215
 20
7345.617691867305
 30
0.0
 11
10352.29791839215
 21
7345.617691867305
 31
0.0
  0
LINE
  5
1D57A
330
747D
100
AcDbEntity
  8
部品1
 62
     7
 48
10.0
100
AcDbLine
 10
10328.48541839215
 20
7345.617691867305
 30
0.0
 11
10328.48541839215
 21
7345.617691867305
 31
0.0
  0
LINE
  5
1D57B
330
747D
100
AcDbEntity
  8
部品1
 62
     7
 48
10.0
100
AcDbLine
 10
10304.67291839215
 20
7345.617691867305
 30
0.0
 11
10304.67291839215
 21
7345.617691867305
 31
0.0
  0
LINE
  5
1D57C
330
747D
100
AcDbEntity
  8
部品1
 62
     7
 48
10.0
100
AcDbLine
 10
10280.86041839215
 20
7345.617691867305
 30
0.0
 11
10280.86041839215
 21
7345.617691867305
 31
0.0
  0
LINE
  5
1D57D
330
747D
100
AcDbEntity
  8
部品1
 62
     7
 48
10.0
100
AcDbLine
 10
10257.04791839215
 20
7345.617691867305
 30
0.0
 11
10257.04791839215
 21
7345.617691867305
 31
0.0
  0
LINE
  5
1D57E
330
747D
100
AcDbEntity
  8
部品1
 62
     7
 48
10.0
100
AcDbLine
 10
10233.23541839215
 20
7345.617691867305
 30
0.0
 11
10233.23541839215
 21
7345.617691867305
 31
0.0
  0
LINE
  5
1D57F
330
747D
100
AcDbEntity
  8
部品1
 62
     7
 48
10.0
100
AcDbLine
 10
10209.42291839215
 20
7345.617691867305
 30
0.0
 11
10209.42291839215
 21
7345.617691867305
 31
0.0
  0
LINE
  5
1D580
330
747D
100
AcDbEntity
  8
部品1
 62
     7
 48
10.0
100
AcDbLine
 10
10185.61041839215
 20
7345.617691867305
 30
0.0
 11
10185.61041839215
 21
7345.617691867305
 31
0.0
  0
LINE
  5
1D581
330
747D
100
AcDbEntity
  8
部品1
 62
     7
 48
10.0
100
AcDbLine
 10
10340.39166839215
 20
7369.430191867305
 30
0.0
 11
10340.39166839215
 21
7369.430191867305
 31
0.0
  0
LINE
  5
1D582
330
747D
100
AcDbEntity
  8
部品1
 62
     7
 48
10.0
100
AcDbLine
 10
10316.57916839215
 20
7369.430191867305
 30
0.0
 11
10316.57916839215
 21
7369.430191867305
 31
0.0
  0
LINE
  5
1D583
330
747D
100
AcDbEntity
  8
部品1
 62
     7
 48
10.0
100
AcDbLine
 10
10292.76666839215
 20
7369.430191867305
 30
0.0
 11
10292.76666839215
 21
7369.430191867305
 31
0.0
  0
LINE
  5
1D584
330
747D
100
AcDbEntity
  8
部品1
 62
     7
 48
10.0
100
AcDbLine
 10
10268.95416839215
 20
7369.430191867305
 30
0.0
 11
10268.95416839215
 21
7369.430191867305
 31
0.0
  0
LINE
  5
1D585
330
747D
100
AcDbEntity
  8
部品1
 62
     7
 48
10.0
100
AcDbLine
 10
10245.14166839215
 20
7369.430191867305
 30
0.0
 11
10245.14166839215
 21
7369.430191867305
 31
0.0
  0
LINE
  5
1D586
330
747D
100
AcDbEntity
  8
部品1
 62
     7
 48
10.0
100
AcDbLine
 10
10221.32916839215
 20
7369.430191867305
 30
0.0
 11
10221.32916839215
 21
7369.430191867305
 31
0.0
  0
LINE
  5
1D587
330
747D
100
AcDbEntity
  8
部品1
 62
     7
 48
10.0
100
AcDbLine
 10
10197.51666839215
 20
7369.430191867305
 30
0.0
 11
10197.51666839215
 21
7369.430191867305
 31
0.0
  0
LINE
  5
1D588
330
747D
100
AcDbEntity
  8
部品1
 62
     7
 48
10.0
100
AcDbLine
 10
10352.29791839215
 20
7393.242691867304
 30
0.0
 11
10352.29791839215
 21
7393.242691867304
 31
0.0
  0
LINE
  5
1D589
330
747D
100
AcDbEntity
  8
部品1
 62
     7
 48
10.0
100
AcDbLine
 10
10328.48541839215
 20
7393.242691867304
 30
0.0
 11
10328.48541839215
 21
7393.242691867304
 31
0.0
  0
LINE
  5
1D58A
330
747D
100
AcDbEntity
  8
部品1
 62
     7
 48
10.0
100
AcDbLine
 10
10304.67291839215
 20
7393.242691867304
 30
0.0
 11
10304.67291839215
 21
7393.242691867304
 31
0.0
  0
LINE
  5
1D58B
330
747D
100
AcDbEntity
  8
部品1
 62
     7
 48
10.0
100
AcDbLine
 10
10280.86041839215
 20
7393.242691867304
 30
0.0
 11
10280.86041839215
 21
7393.242691867304
 31
0.0
  0
LINE
  5
1D58C
330
747D
100
AcDbEntity
  8
部品1
 62
     7
 48
10.0
100
AcDbLine
 10
10257.04791839215
 20
7393.242691867304
 30
0.0
 11
10257.04791839215
 21
7393.242691867304
 31
0.0
  0
LINE
  5
1D58D
330
747D
100
AcDbEntity
  8
部品1
 62
     7
 48
10.0
100
AcDbLine
 10
10233.23541839215
 20
7393.242691867304
 30
0.0
 11
10233.23541839215
 21
7393.242691867304
 31
0.0
  0
LINE
  5
1D58E
330
747D
100
AcDbEntity
  8
部品1
 62
     7
 48
10.0
100
AcDbLine
 10
10209.42291839215
 20
7393.242691867304
 30
0.0
 11
10209.42291839215
 21
7393.242691867304
 31
0.0
  0
LINE
  5
1D58F
330
747D
100
AcDbEntity
  8
部品1
 62
     7
 48
10.0
100
AcDbLine
 10
10185.61041839215
 20
7393.242691867304
 30
0.0
 11
10185.61041839215
 21
7393.242691867304
 31
0.0
  0
LINE
  5
1D590
330
747D
100
AcDbEntity
  8
部品1
 62
     7
 48
10.0
100
AcDbLine
 10
10340.39166839215
 20
7417.055191867304
 30
0.0
 11
10340.39166839215
 21
7417.055191867304
 31
0.0
  0
LINE
  5
1D591
330
747D
100
AcDbEntity
  8
部品1
 62
     7
 48
10.0
100
AcDbLine
 10
10316.57916839215
 20
7417.055191867304
 30
0.0
 11
10316.57916839215
 21
7417.055191867304
 31
0.0
  0
LINE
  5
1D592
330
747D
100
AcDbEntity
  8
部品1
 62
     7
 48
10.0
100
AcDbLine
 10
10292.76666839215
 20
7417.055191867304
 30
0.0
 11
10292.76666839215
 21
7417.055191867304
 31
0.0
  0
LINE
  5
1D593
330
747D
100
AcDbEntity
  8
部品1
 62
     7
 48
10.0
100
AcDbLine
 10
10268.95416839215
 20
7417.055191867304
 30
0.0
 11
10268.95416839215
 21
7417.055191867304
 31
0.0
  0
LINE
  5
1D594
330
747D
100
AcDbEntity
  8
部品1
 62
     7
 48
10.0
100
AcDbLine
 10
10245.14166839215
 20
7417.055191867304
 30
0.0
 11
10245.14166839215
 21
7417.055191867304
 31
0.0
  0
LINE
  5
1D595
330
747D
100
AcDbEntity
  8
部品1
 62
     7
 48
10.0
100
AcDbLine
 10
10221.32916839215
 20
7417.055191867304
 30
0.0
 11
10221.32916839215
 21
7417.055191867304
 31
0.0
  0
LINE
  5
1D596
330
747D
100
AcDbEntity
  8
部品1
 62
     7
 48
10.0
100
AcDbLine
 10
10197.51666839215
 20
7417.055191867304
 30
0.0
 11
10197.51666839215
 21
7417.055191867304
 31
0.0
  0
LINE
  5
1D597
330
747D
100
AcDbEntity
  8
部品1
 62
     7
 48
10.0
100
AcDbLine
 10
10376.11041839215
 20
7250.367691867305
 30
0.0
 11
10376.11041839215
 21
7250.367691867305
 31
0.0
  0
LINE
  5
1D598
330
747D
100
AcDbEntity
  8
部品1
 62
     7
 48
10.0
100
AcDbLine
 10
10364.20416839215
 20
7274.180191867305
 30
0.0
 11
10364.20416839215
 21
7274.180191867305
 31
0.0
  0
LINE
  5
1D599
330
747D
100
AcDbEntity
  8
部品1
 62
     7
 48
10.0
100
AcDbLine
 10
10376.11041839215
 20
7297.992691867304
 30
0.0
 11
10376.11041839215
 21
7297.992691867304
 31
0.0
  0
LINE
  5
1D59A
330
747D
100
AcDbEntity
  8
部品1
 62
     7
 48
10.0
100
AcDbLine
 10
10364.20416839215
 20
7321.805191867304
 30
0.0
 11
10364.20416839215
 21
7321.805191867304
 31
0.0
  0
LINE
  5
1D59B
330
747D
100
AcDbEntity
  8
部品1
 62
     7
 48
10.0
100
AcDbLine
 10
10376.11041839215
 20
7345.617691867305
 30
0.0
 11
10376.11041839215
 21
7345.617691867305
 31
0.0
  0
LINE
  5
1D59C
330
747D
100
AcDbEntity
  8
部品1
 62
     7
 48
10.0
100
AcDbLine
 10
10364.20416839215
 20
7369.430191867305
 30
0.0
 11
10364.20416839215
 21
7369.430191867305
 31
0.0
  0
LINE
  5
1D59D
330
747D
100
AcDbEntity
  8
部品1
 62
     7
 48
10.0
100
AcDbLine
 10
10376.11041839215
 20
7393.242691867304
 30
0.0
 11
10376.11041839215
 21
7393.242691867304
 31
0.0
  0
LINE
  5
1D59E
330
747D
100
AcDbEntity
  8
部品1
 62
     7
 48
10.0
100
AcDbLine
 10
10364.20416839215
 20
7417.055191867304
 30
0.0
 11
10364.20416839215
 21
7417.055191867304
 31
0.0
  0
LINE
  5
1D59F
330
747D
100
AcDbEntity
  8
部品1
 62
     7
 48
50.0
100
AcDbLine
 10
10028.5
 20
7701.955177899434
 30
0.0
 11
10028.5
 21
7501.955177899434
 31
0.0
  0
LINE
  5
1D5A0
330
747D
100
AcDbEntity
  8
細線
 62
     7
 48
10.0
100
AcDbLine
 10
10179.5
 20
7440.955177899434
 30
0.0
 11
10379.5
 21
7440.955177899434
 31
0.0
  0
LINE
  5
1D5A1
330
747D
100
AcDbEntity
  8
部品1
 62
     7
 48
10.0
100
AcDbLine
 10
10376.11041839215
 20
7440.867691867305
 30
0.0
 11
10376.11041839215
 21
7440.867691867305
 31
0.0
  0
LINE
  5
1D5A2
330
747D
100
AcDbEntity
  8
部品1
 62
     7
 48
50.0
100
AcDbLine
 10
10530.5
 20
7501.955177899434
 30
0.0
 11
10530.5
 21
7701.955177899434
 31
0.0
  0
LINE
  5
1D5A3
330
747D
100
AcDbEntity
  8
点線
 62
     7
 48
10.0
100
AcDbLine
 10
10830.5
 20
7801.955177899422
 30
0.0
 11
11030.5
 21
7801.955177899422
 31
0.0
  0
LINE
  5
1D5A4
330
747D
100
AcDbEntity
  8
点線
 62
     7
 48
10.0
100
AcDbLine
 10
10830.5
 20
7601.955177899434
 30
0.0
 11
11030.5
 21
7601.955177899434
 31
0.0
  0
LINE
  5
1D5A5
330
747D
100
AcDbEntity
  8
センター
 62
     7
 48
5.0
100
AcDbLine
 10
11075.5
 20
7701.955177899434
 30
0.0
 11
10785.5
 21
7701.955177899434
 31
0.0
  0
LINE
  5
1D5A6
330
747D
100
AcDbEntity
  8
点線
 62
     7
 48
10.0
100
AcDbLine
 10
10830.5
 20
7801.955177899422
 30
0.0
 11
10830.5
 21
7601.955177899434
 31
0.0
  0
LINE
  5
1D5A7
330
747D
100
AcDbEntity
  8
センター
 62
     7
 48
5.0
100
AcDbLine
 10
10930.5
 20
7846.955177899435
 30
0.0
 11
10930.5
 21
7556.955177899422
 31
0.0
  0
LINE
  5
1D5A8
330
747D
100
AcDbEntity
  8
部品1
 62
     7
 48
50.0
100
AcDbLine
 10
10930.5
 20
7501.955177899434
 30
0.0
 11
10930.5
 21
7701.955177899434
 31
0.0
  0
LINE
  5
1D5A9
330
747D
100
AcDbEntity
  8
点線
 62
     7
 48
10.0
100
AcDbLine
 10
11030.5
 20
7801.955177899422
 30
0.0
 11
11030.5
 21
7601.955177899434
 31
0.0
  0
LINE
  5
1D9F4
330
747D
100
AcDbEntity
  8
部品1
 62
     7
100
AcDbLine
 10
8792.418427824532
 20
600.0
 30
0.0
 11
12792.41842782453
 21
600.0
 31
0.0
  0
LINE
  5
1D9F5
330
747D
100
AcDbEntity
  8
部品1
 62
     7
100
AcDbLine
 10
12792.41842782453
 20
3000.0
 30
0.0
 11
8792.418427824532
 21
2999.999999999999
 31
0.0
  0
LINE
  5
1D9F6
330
747D
100
AcDbEntity
  8
部品1
 62
     7
100
AcDbLine
 10
8792.418427824532
 20
3299.999999999999
 30
0.0
 11
12792.41842782453
 21
3299.999999999999
 31
0.0
  0
TEXT
  5
1D9F7
330
747D
100
AcDbEntity
  8
部品1
 62
     7
100
AcDbText
 10
10293.5807622491
 20
1772.170171482105
 30
0.0
 40
150.0
  1
G.L
  7
STYLE1
100
AcDbText
  0
LINE
  5
1D9F8
330
747D
100
AcDbEntity
  8
Ｇ．Ｌ
 62
     7
100
AcDbLine
 10
9249.236229035593
 20
1749.373661269833
 30
0.0
 11
10617.77461316698
 21
1749.373661269833
 31
0.0
  0
LINE
  5
1D9F9
330
747D
100
AcDbEntity
  8
部品1
 62
     7
100
AcDbLine
 10
8792.418427824532
 20
3299.999999999999
 30
0.0
 11
8792.418427824532
 21
600.0
 31
0.0
  0
LINE
  5
1D9FA
330
747D
100
AcDbEntity
  8
寸法
 62
     7
 48
50.0
100
AcDbLine
 10
8498.975097264189
 20
800.0000129302206
 30
0.0
 11
4394.414120747471
 21
800.0000129302206
 31
0.0
  0
TEXT
  5
1D9FB
330
747D
100
AcDbEntity
  8
文字
 62
     7
 48
50.0
100
AcDbText
 10
4920.38977576022
 20
864.5205740729707
 30
0.0
 40
150.0
  1
重量物を入れる場合（根太部ブロック追加）
  7
STYLE1
100
AcDbText
  0
LINE
  5
1D9FC
330
747D
100
AcDbEntity
  8
寸法
 62
     7
 48
50.0
100
AcDbLine
 10
7132.076727602889
 20
1279.625539643202
 30
0.0
 11
4394.414120747471
 21
1279.625539643202
 31
0.0
  0
TEXT
  5
1D9FD
330
747D
100
AcDbEntity
  8
文字
 62
     7
 48
50.0
100
AcDbText
 10
4413.656703010583
 20
1344.146100785952
 30
0.0
 40
150.0
  1
（　）内寸法は屋根の出幅です。
  7
STYLE1
100
AcDbText
  0
LINE
  5
1D9FE
330
747D
100
AcDbEntity
  8
細線
 62
     7
 48
10.0
100
AcDbLine
 10
4454.094974518102
 20
1084.035148905193
 30
0.0
 11
4854.094974518102
 21
1084.035148905193
 31
0.0
  0
LINE
  5
1D9FF
330
747D
100
AcDbEntity
  8
細線
 62
     7
 48
10.0
100
AcDbLine
 10
4454.094974518102
 20
884.0351489051936
 30
0.0
 11
4854.094974518102
 21
884.0351489051936
 31
0.0
  0
LINE
  5
1DA00
330
747D
100
AcDbEntity
  8
細線
 62
     7
 48
10.0
100
AcDbLine
 10
4454.094974518102
 20
884.0351489051936
 30
0.0
 11
4454.094974518102
 21
1084.035148905193
 31
0.0
  0
LINE
  5
1DA01
330
747D
100
AcDbEntity
  8
部品1
 62
     7
 48
50.0
100
AcDbLine
 10
4534.664115439055
 20
904.875
 30
0.0
 11
4534.664115439055
 21
904.875
 31
0.0
  0
LINE
  5
1DA02
330
747D
100
AcDbEntity
  8
部品1
 62
     7
 48
50.0
100
AcDbLine
 10
4510.851615439053
 20
904.875
 30
0.0
 11
4510.851615439053
 21
904.875
 31
0.0
  0
LINE
  5
1DA03
330
747D
100
AcDbEntity
  8
部品1
 62
     7
 48
50.0
100
AcDbLine
 10
4487.039115439052
 20
904.875
 30
0.0
 11
4487.039115439052
 21
904.875
 31
0.0
  0
LINE
  5
1DA04
330
747D
100
AcDbEntity
  8
部品1
 62
     7
 48
50.0
100
AcDbLine
 10
4463.226615439053
 20
904.875
 30
0.0
 11
4463.226615439053
 21
904.875
 31
0.0
  0
LINE
  5
1DA05
330
747D
100
AcDbEntity
  8
部品1
 62
     7
 48
50.0
100
AcDbLine
 10
4546.570365439056
 20
928.6875
 30
0.0
 11
4546.570365439056
 21
928.6875
 31
0.0
  0
LINE
  5
1DA06
330
747D
100
AcDbEntity
  8
部品1
 62
     7
 48
50.0
100
AcDbLine
 10
4522.757865439056
 20
928.6875
 30
0.0
 11
4522.757865439056
 21
928.6875
 31
0.0
  0
LINE
  5
1DA07
330
747D
100
AcDbEntity
  8
部品1
 62
     7
 48
50.0
100
AcDbLine
 10
4498.945365439053
 20
928.6875
 30
0.0
 11
4498.945365439053
 21
928.6875
 31
0.0
  0
LINE
  5
1DA08
330
747D
100
AcDbEntity
  8
部品1
 62
     7
 48
50.0
100
AcDbLine
 10
4475.132865439053
 20
928.6875
 30
0.0
 11
4475.132865439053
 21
928.6875
 31
0.0
  0
LINE
  5
1DA09
330
747D
100
AcDbEntity
  8
部品1
 62
     7
 48
50.0
100
AcDbLine
 10
4534.664115439055
 20
952.5
 30
0.0
 11
4534.664115439055
 21
952.5
 31
0.0
  0
LINE
  5
1DA0A
330
747D
100
AcDbEntity
  8
部品1
 62
     7
 48
50.0
100
AcDbLine
 10
4510.851615439053
 20
952.5
 30
0.0
 11
4510.851615439053
 21
952.5
 31
0.0
  0
LINE
  5
1DA0B
330
747D
100
AcDbEntity
  8
部品1
 62
     7
 48
50.0
100
AcDbLine
 10
4487.039115439052
 20
952.5
 30
0.0
 11
4487.039115439052
 21
952.5
 31
0.0
  0
LINE
  5
1DA0C
330
747D
100
AcDbEntity
  8
部品1
 62
     7
 48
50.0
100
AcDbLine
 10
4463.226615439053
 20
952.5
 30
0.0
 11
4463.226615439053
 21
952.5
 31
0.0
  0
LINE
  5
1DA0D
330
747D
100
AcDbEntity
  8
部品1
 62
     7
 48
50.0
100
AcDbLine
 10
4546.570365439056
 20
976.3125
 30
0.0
 11
4546.570365439056
 21
976.3125
 31
0.0
  0
LINE
  5
1DA0E
330
747D
100
AcDbEntity
  8
部品1
 62
     7
 48
50.0
100
AcDbLine
 10
4522.757865439056
 20
976.3125
 30
0.0
 11
4522.757865439056
 21
976.3125
 31
0.0
  0
LINE
  5
1DA0F
330
747D
100
AcDbEntity
  8
部品1
 62
     7
 48
50.0
100
AcDbLine
 10
4498.945365439053
 20
976.3125
 30
0.0
 11
4498.945365439053
 21
976.3125
 31
0.0
  0
LINE
  5
1DA10
330
747D
100
AcDbEntity
  8
部品1
 62
     7
 48
50.0
100
AcDbLine
 10
4475.132865439053
 20
976.3125
 30
0.0
 11
4475.132865439053
 21
976.3125
 31
0.0
  0
LINE
  5
1DA11
330
747D
100
AcDbEntity
  8
部品1
 62
     7
 48
50.0
100
AcDbLine
 10
4534.664115439055
 20
1000.125
 30
0.0
 11
4534.664115439055
 21
1000.125
 31
0.0
  0
LINE
  5
1DA12
330
747D
100
AcDbEntity
  8
部品1
 62
     7
 48
50.0
100
AcDbLine
 10
4510.851615439053
 20
1000.125
 30
0.0
 11
4510.851615439053
 21
1000.125
 31
0.0
  0
LINE
  5
1DA13
330
747D
100
AcDbEntity
  8
部品1
 62
     7
 48
50.0
100
AcDbLine
 10
4487.039115439052
 20
1000.125
 30
0.0
 11
4487.039115439052
 21
1000.125
 31
0.0
  0
LINE
  5
1DA14
330
747D
100
AcDbEntity
  8
部品1
 62
     7
 48
50.0
100
AcDbLine
 10
4463.226615439053
 20
1000.125
 30
0.0
 11
4463.226615439053
 21
1000.125
 31
0.0
  0
LINE
  5
1DA15
330
747D
100
AcDbEntity
  8
部品1
 62
     7
 48
50.0
100
AcDbLine
 10
4546.570365439056
 20
1023.9375
 30
0.0
 11
4546.570365439056
 21
1023.9375
 31
0.0
  0
LINE
  5
1DA16
330
747D
100
AcDbEntity
  8
部品1
 62
     7
 48
50.0
100
AcDbLine
 10
4522.757865439056
 20
1023.9375
 30
0.0
 11
4522.757865439056
 21
1023.9375
 31
0.0
  0
LINE
  5
1DA17
330
747D
100
AcDbEntity
  8
部品1
 62
     7
 48
50.0
100
AcDbLine
 10
4498.945365439053
 20
1023.9375
 30
0.0
 11
4498.945365439053
 21
1023.9375
 31
0.0
  0
LINE
  5
1DA18
330
747D
100
AcDbEntity
  8
部品1
 62
     7
 48
50.0
100
AcDbLine
 10
4475.132865439053
 20
1023.9375
 30
0.0
 11
4475.132865439053
 21
1023.9375
 31
0.0
  0
LINE
  5
1DA19
330
747D
100
AcDbEntity
  8
部品1
 62
     7
 48
50.0
100
AcDbLine
 10
4629.914115439055
 20
904.875
 30
0.0
 11
4629.914115439055
 21
904.875
 31
0.0
  0
LINE
  5
1DA1A
330
747D
100
AcDbEntity
  8
部品1
 62
     7
 48
50.0
100
AcDbLine
 10
4606.101615439053
 20
904.875
 30
0.0
 11
4606.101615439053
 21
904.875
 31
0.0
  0
LINE
  5
1DA1B
330
747D
100
AcDbEntity
  8
部品1
 62
     7
 48
50.0
100
AcDbLine
 10
4582.289115439055
 20
904.875
 30
0.0
 11
4582.289115439055
 21
904.875
 31
0.0
  0
LINE
  5
1DA1C
330
747D
100
AcDbEntity
  8
部品1
 62
     7
 48
50.0
100
AcDbLine
 10
4558.476615439053
 20
904.875
 30
0.0
 11
4558.476615439053
 21
904.875
 31
0.0
  0
LINE
  5
1DA1D
330
747D
100
AcDbEntity
  8
部品1
 62
     7
 48
50.0
100
AcDbLine
 10
4618.007865439056
 20
928.6875
 30
0.0
 11
4618.007865439056
 21
928.6875
 31
0.0
  0
LINE
  5
1DA1E
330
747D
100
AcDbEntity
  8
部品1
 62
     7
 48
50.0
100
AcDbLine
 10
4594.195365439056
 20
928.6875
 30
0.0
 11
4594.195365439056
 21
928.6875
 31
0.0
  0
LINE
  5
1DA1F
330
747D
100
AcDbEntity
  8
部品1
 62
     7
 48
50.0
100
AcDbLine
 10
4570.382865439056
 20
928.6875
 30
0.0
 11
4570.382865439056
 21
928.6875
 31
0.0
  0
LINE
  5
1DA20
330
747D
100
AcDbEntity
  8
部品1
 62
     7
 48
50.0
100
AcDbLine
 10
4629.914115439055
 20
952.5
 30
0.0
 11
4629.914115439055
 21
952.5
 31
0.0
  0
LINE
  5
1DA21
330
747D
100
AcDbEntity
  8
部品1
 62
     7
 48
50.0
100
AcDbLine
 10
4606.101615439053
 20
952.5
 30
0.0
 11
4606.101615439053
 21
952.5
 31
0.0
  0
LINE
  5
1DA22
330
747D
100
AcDbEntity
  8
部品1
 62
     7
 48
50.0
100
AcDbLine
 10
4582.289115439055
 20
952.5
 30
0.0
 11
4582.289115439055
 21
952.5
 31
0.0
  0
LINE
  5
1DA23
330
747D
100
AcDbEntity
  8
部品1
 62
     7
 48
50.0
100
AcDbLine
 10
4558.476615439053
 20
952.5
 30
0.0
 11
4558.476615439053
 21
952.5
 31
0.0
  0
LINE
  5
1DA24
330
747D
100
AcDbEntity
  8
部品1
 62
     7
 48
50.0
100
AcDbLine
 10
4618.007865439056
 20
976.3125
 30
0.0
 11
4618.007865439056
 21
976.3125
 31
0.0
  0
LINE
  5
1DA25
330
747D
100
AcDbEntity
  8
部品1
 62
     7
 48
50.0
100
AcDbLine
 10
4594.195365439056
 20
976.3125
 30
0.0
 11
4594.195365439056
 21
976.3125
 31
0.0
  0
LINE
  5
1DA26
330
747D
100
AcDbEntity
  8
部品1
 62
     7
 48
50.0
100
AcDbLine
 10
4570.382865439056
 20
976.3125
 30
0.0
 11
4570.382865439056
 21
976.3125
 31
0.0
  0
LINE
  5
1DA27
330
747D
100
AcDbEntity
  8
部品1
 62
     7
 48
50.0
100
AcDbLine
 10
4629.914115439055
 20
1000.125
 30
0.0
 11
4629.914115439055
 21
1000.125
 31
0.0
  0
LINE
  5
1DA28
330
747D
100
AcDbEntity
  8
部品1
 62
     7
 48
50.0
100
AcDbLine
 10
4606.101615439053
 20
1000.125
 30
0.0
 11
4606.101615439053
 21
1000.125
 31
0.0
  0
LINE
  5
1DA29
330
747D
100
AcDbEntity
  8
部品1
 62
     7
 48
50.0
100
AcDbLine
 10
4582.289115439055
 20
1000.125
 30
0.0
 11
4582.289115439055
 21
1000.125
 31
0.0
  0
LINE
  5
1DA2A
330
747D
100
AcDbEntity
  8
部品1
 62
     7
 48
50.0
100
AcDbLine
 10
4558.476615439053
 20
1000.125
 30
0.0
 11
4558.476615439053
 21
1000.125
 31
0.0
  0
LINE
  5
1DA2B
330
747D
100
AcDbEntity
  8
部品1
 62
     7
 48
50.0
100
AcDbLine
 10
4618.007865439056
 20
1023.9375
 30
0.0
 11
4618.007865439056
 21
1023.9375
 31
0.0
  0
LINE
  5
1DA2C
330
747D
100
AcDbEntity
  8
部品1
 62
     7
 48
50.0
100
AcDbLine
 10
4594.195365439056
 20
1023.9375
 30
0.0
 11
4594.195365439056
 21
1023.9375
 31
0.0
  0
LINE
  5
1DA2D
330
747D
100
AcDbEntity
  8
部品1
 62
     7
 48
50.0
100
AcDbLine
 10
4570.382865439056
 20
1023.9375
 30
0.0
 11
4570.382865439056
 21
1023.9375
 31
0.0
  0
LINE
  5
1DA2E
330
747D
100
AcDbEntity
  8
部品1
 62
     7
 48
50.0
100
AcDbLine
 10
4748.976615439053
 20
904.875
 30
0.0
 11
4748.976615439053
 21
904.875
 31
0.0
  0
LINE
  5
1DA2F
330
747D
100
AcDbEntity
  8
部品1
 62
     7
 48
50.0
100
AcDbLine
 10
4725.164115439056
 20
904.875
 30
0.0
 11
4725.164115439056
 21
904.875
 31
0.0
  0
LINE
  5
1DA30
330
747D
100
AcDbEntity
  8
部品1
 62
     7
 48
50.0
100
AcDbLine
 10
4701.351615439053
 20
904.875
 30
0.0
 11
4701.351615439053
 21
904.875
 31
0.0
  0
LINE
  5
1DA31
330
747D
100
AcDbEntity
  8
部品1
 62
     7
 48
50.0
100
AcDbLine
 10
4677.539115439055
 20
904.875
 30
0.0
 11
4677.539115439055
 21
904.875
 31
0.0
  0
LINE
  5
1DA32
330
747D
100
AcDbEntity
  8
部品1
 62
     7
 48
50.0
100
AcDbLine
 10
4653.726615439053
 20
904.875
 30
0.0
 11
4653.726615439053
 21
904.875
 31
0.0
  0
LINE
  5
1DA33
330
747D
100
AcDbEntity
  8
部品1
 62
     7
 48
50.0
100
AcDbLine
 10
4737.070365439056
 20
928.6875
 30
0.0
 11
4737.070365439056
 21
928.6875
 31
0.0
  0
LINE
  5
1DA34
330
747D
100
AcDbEntity
  8
部品1
 62
     7
 48
50.0
100
AcDbLine
 10
4713.257865439056
 20
928.6875
 30
0.0
 11
4713.257865439056
 21
928.6875
 31
0.0
  0
LINE
  5
1DA35
330
747D
100
AcDbEntity
  8
部品1
 62
     7
 48
50.0
100
AcDbLine
 10
4689.445365439056
 20
928.6875
 30
0.0
 11
4689.445365439056
 21
928.6875
 31
0.0
  0
LINE
  5
1DA36
330
747D
100
AcDbEntity
  8
部品1
 62
     7
 48
50.0
100
AcDbLine
 10
4665.632865439056
 20
928.6875
 30
0.0
 11
4665.632865439056
 21
928.6875
 31
0.0
  0
LINE
  5
1DA37
330
747D
100
AcDbEntity
  8
部品1
 62
     7
 48
50.0
100
AcDbLine
 10
4641.820365439056
 20
928.6875
 30
0.0
 11
4641.820365439056
 21
928.6875
 31
0.0
  0
LINE
  5
1DA38
330
747D
100
AcDbEntity
  8
部品1
 62
     7
 48
50.0
100
AcDbLine
 10
4748.976615439053
 20
952.5
 30
0.0
 11
4748.976615439053
 21
952.5
 31
0.0
  0
LINE
  5
1DA39
330
747D
100
AcDbEntity
  8
部品1
 62
     7
 48
50.0
100
AcDbLine
 10
4725.164115439056
 20
952.5
 30
0.0
 11
4725.164115439056
 21
952.5
 31
0.0
  0
LINE
  5
1DA3A
330
747D
100
AcDbEntity
  8
部品1
 62
     7
 48
50.0
100
AcDbLine
 10
4701.351615439053
 20
952.5
 30
0.0
 11
4701.351615439053
 21
952.5
 31
0.0
  0
LINE
  5
1DA3B
330
747D
100
AcDbEntity
  8
部品1
 62
     7
 48
50.0
100
AcDbLine
 10
4677.539115439055
 20
952.5
 30
0.0
 11
4677.539115439055
 21
952.5
 31
0.0
  0
LINE
  5
1DA3C
330
747D
100
AcDbEntity
  8
部品1
 62
     7
 48
50.0
100
AcDbLine
 10
4653.726615439053
 20
952.5
 30
0.0
 11
4653.726615439053
 21
952.5
 31
0.0
  0
LINE
  5
1DA3D
330
747D
100
AcDbEntity
  8
部品1
 62
     7
 48
50.0
100
AcDbLine
 10
4737.070365439056
 20
976.3125
 30
0.0
 11
4737.070365439056
 21
976.3125
 31
0.0
  0
LINE
  5
1DA3E
330
747D
100
AcDbEntity
  8
部品1
 62
     7
 48
50.0
100
AcDbLine
 10
4713.257865439056
 20
976.3125
 30
0.0
 11
4713.257865439056
 21
976.3125
 31
0.0
  0
LINE
  5
1DA3F
330
747D
100
AcDbEntity
  8
部品1
 62
     7
 48
50.0
100
AcDbLine
 10
4689.445365439056
 20
976.3125
 30
0.0
 11
4689.445365439056
 21
976.3125
 31
0.0
  0
LINE
  5
1DA40
330
747D
100
AcDbEntity
  8
部品1
 62
     7
 48
50.0
100
AcDbLine
 10
4665.632865439056
 20
976.3125
 30
0.0
 11
4665.632865439056
 21
976.3125
 31
0.0
  0
LINE
  5
1DA41
330
747D
100
AcDbEntity
  8
部品1
 62
     7
 48
50.0
100
AcDbLine
 10
4641.820365439056
 20
976.3125
 30
0.0
 11
4641.820365439056
 21
976.3125
 31
0.0
  0
LINE
  5
1DA42
330
747D
100
AcDbEntity
  8
部品1
 62
     7
 48
50.0
100
AcDbLine
 10
4748.976615439053
 20
1000.125
 30
0.0
 11
4748.976615439053
 21
1000.125
 31
0.0
  0
LINE
  5
1DA43
330
747D
100
AcDbEntity
  8
部品1
 62
     7
 48
50.0
100
AcDbLine
 10
4725.164115439056
 20
1000.125
 30
0.0
 11
4725.164115439056
 21
1000.125
 31
0.0
  0
LINE
  5
1DA44
330
747D
100
AcDbEntity
  8
部品1
 62
     7
 48
50.0
100
AcDbLine
 10
4701.351615439053
 20
1000.125
 30
0.0
 11
4701.351615439053
 21
1000.125
 31
0.0
  0
LINE
  5
1DA45
330
747D
100
AcDbEntity
  8
部品1
 62
     7
 48
50.0
100
AcDbLine
 10
4677.539115439055
 20
1000.125
 30
0.0
 11
4677.539115439055
 21
1000.125
 31
0.0
  0
LINE
  5
1DA46
330
747D
100
AcDbEntity
  8
部品1
 62
     7
 48
50.0
100
AcDbLine
 10
4653.726615439053
 20
1000.125
 30
0.0
 11
4653.726615439053
 21
1000.125
 31
0.0
  0
LINE
  5
1DA47
330
747D
100
AcDbEntity
  8
部品1
 62
     7
 48
50.0
100
AcDbLine
 10
4737.070365439056
 20
1023.9375
 30
0.0
 11
4737.070365439056
 21
1023.9375
 31
0.0
  0
LINE
  5
1DA48
330
747D
100
AcDbEntity
  8
部品1
 62
     7
 48
50.0
100
AcDbLine
 10
4713.257865439056
 20
1023.9375
 30
0.0
 11
4713.257865439056
 21
1023.9375
 31
0.0
  0
LINE
  5
1DA49
330
747D
100
AcDbEntity
  8
部品1
 62
     7
 48
50.0
100
AcDbLine
 10
4689.445365439056
 20
1023.9375
 30
0.0
 11
4689.445365439056
 21
1023.9375
 31
0.0
  0
LINE
  5
1DA4A
330
747D
100
AcDbEntity
  8
部品1
 62
     7
 48
50.0
100
AcDbLine
 10
4665.632865439056
 20
1023.9375
 30
0.0
 11
4665.632865439056
 21
1023.9375
 31
0.0
  0
LINE
  5
1DA4B
330
747D
100
AcDbEntity
  8
部品1
 62
     7
 48
50.0
100
AcDbLine
 10
4641.820365439056
 20
1023.9375
 30
0.0
 11
4641.820365439056
 21
1023.9375
 31
0.0
  0
LINE
  5
1DA4C
330
747D
100
AcDbEntity
  8
部品1
 62
     7
 48
50.0
100
AcDbLine
 10
4534.664115439055
 20
1047.75
 30
0.0
 11
4534.664115439055
 21
1047.75
 31
0.0
  0
LINE
  5
1DA4D
330
747D
100
AcDbEntity
  8
部品1
 62
     7
 48
50.0
100
AcDbLine
 10
4510.851615439053
 20
1047.75
 30
0.0
 11
4510.851615439053
 21
1047.75
 31
0.0
  0
LINE
  5
1DA4E
330
747D
100
AcDbEntity
  8
部品1
 62
     7
 48
50.0
100
AcDbLine
 10
4487.039115439052
 20
1047.75
 30
0.0
 11
4487.039115439052
 21
1047.75
 31
0.0
  0
LINE
  5
1DA4F
330
747D
100
AcDbEntity
  8
部品1
 62
     7
 48
50.0
100
AcDbLine
 10
4463.226615439053
 20
1047.75
 30
0.0
 11
4463.226615439053
 21
1047.75
 31
0.0
  0
LINE
  5
1DA50
330
747D
100
AcDbEntity
  8
部品1
 62
     7
 48
50.0
100
AcDbLine
 10
4546.570365439056
 20
1071.5625
 30
0.0
 11
4546.570365439056
 21
1071.5625
 31
0.0
  0
LINE
  5
1DA51
330
747D
100
AcDbEntity
  8
部品1
 62
     7
 48
50.0
100
AcDbLine
 10
4522.757865439056
 20
1071.5625
 30
0.0
 11
4522.757865439056
 21
1071.5625
 31
0.0
  0
LINE
  5
1DA52
330
747D
100
AcDbEntity
  8
部品1
 62
     7
 48
50.0
100
AcDbLine
 10
4498.945365439053
 20
1071.5625
 30
0.0
 11
4498.945365439053
 21
1071.5625
 31
0.0
  0
LINE
  5
1DA53
330
747D
100
AcDbEntity
  8
部品1
 62
     7
 48
50.0
100
AcDbLine
 10
4475.132865439053
 20
1071.5625
 30
0.0
 11
4475.132865439053
 21
1071.5625
 31
0.0
  0
LINE
  5
1DA54
330
747D
100
AcDbEntity
  8
部品1
 62
     7
 48
50.0
100
AcDbLine
 10
4629.914115439055
 20
1047.75
 30
0.0
 11
4629.914115439055
 21
1047.75
 31
0.0
  0
LINE
  5
1DA55
330
747D
100
AcDbEntity
  8
部品1
 62
     7
 48
50.0
100
AcDbLine
 10
4606.101615439053
 20
1047.75
 30
0.0
 11
4606.101615439053
 21
1047.75
 31
0.0
  0
LINE
  5
1DA56
330
747D
100
AcDbEntity
  8
部品1
 62
     7
 48
50.0
100
AcDbLine
 10
4582.289115439055
 20
1047.75
 30
0.0
 11
4582.289115439055
 21
1047.75
 31
0.0
  0
LINE
  5
1DA57
330
747D
100
AcDbEntity
  8
部品1
 62
     7
 48
50.0
100
AcDbLine
 10
4558.476615439053
 20
1047.75
 30
0.0
 11
4558.476615439053
 21
1047.75
 31
0.0
  0
LINE
  5
1DA58
330
747D
100
AcDbEntity
  8
部品1
 62
     7
 48
50.0
100
AcDbLine
 10
4618.007865439056
 20
1071.5625
 30
0.0
 11
4618.007865439056
 21
1071.5625
 31
0.0
  0
LINE
  5
1DA59
330
747D
100
AcDbEntity
  8
部品1
 62
     7
 48
50.0
100
AcDbLine
 10
4594.195365439056
 20
1071.5625
 30
0.0
 11
4594.195365439056
 21
1071.5625
 31
0.0
  0
LINE
  5
1DA5A
330
747D
100
AcDbEntity
  8
部品1
 62
     7
 48
50.0
100
AcDbLine
 10
4570.382865439056
 20
1071.5625
 30
0.0
 11
4570.382865439056
 21
1071.5625
 31
0.0
  0
LINE
  5
1DA5B
330
747D
100
AcDbEntity
  8
部品1
 62
     7
 48
50.0
100
AcDbLine
 10
4748.976615439053
 20
1047.75
 30
0.0
 11
4748.976615439053
 21
1047.75
 31
0.0
  0
LINE
  5
1DA5C
330
747D
100
AcDbEntity
  8
部品1
 62
     7
 48
50.0
100
AcDbLine
 10
4725.164115439056
 20
1047.75
 30
0.0
 11
4725.164115439056
 21
1047.75
 31
0.0
  0
LINE
  5
1DA5D
330
747D
100
AcDbEntity
  8
部品1
 62
     7
 48
50.0
100
AcDbLine
 10
4701.351615439053
 20
1047.75
 30
0.0
 11
4701.351615439053
 21
1047.75
 31
0.0
  0
LINE
  5
1DA5E
330
747D
100
AcDbEntity
  8
部品1
 62
     7
 48
50.0
100
AcDbLine
 10
4677.539115439055
 20
1047.75
 30
0.0
 11
4677.539115439055
 21
1047.75
 31
0.0
  0
LINE
  5
1DA5F
330
747D
100
AcDbEntity
  8
部品1
 62
     7
 48
50.0
100
AcDbLine
 10
4653.726615439053
 20
1047.75
 30
0.0
 11
4653.726615439053
 21
1047.75
 31
0.0
  0
LINE
  5
1DA60
330
747D
100
AcDbEntity
  8
部品1
 62
     7
 48
50.0
100
AcDbLine
 10
4737.070365439056
 20
1071.5625
 30
0.0
 11
4737.070365439056
 21
1071.5625
 31
0.0
  0
LINE
  5
1DA61
330
747D
100
AcDbEntity
  8
部品1
 62
     7
 48
50.0
100
AcDbLine
 10
4713.257865439056
 20
1071.5625
 30
0.0
 11
4713.257865439056
 21
1071.5625
 31
0.0
  0
LINE
  5
1DA62
330
747D
100
AcDbEntity
  8
部品1
 62
     7
 48
50.0
100
AcDbLine
 10
4689.445365439056
 20
1071.5625
 30
0.0
 11
4689.445365439056
 21
1071.5625
 31
0.0
  0
LINE
  5
1DA63
330
747D
100
AcDbEntity
  8
部品1
 62
     7
 48
50.0
100
AcDbLine
 10
4665.632865439056
 20
1071.5625
 30
0.0
 11
4665.632865439056
 21
1071.5625
 31
0.0
  0
LINE
  5
1DA64
330
747D
100
AcDbEntity
  8
部品1
 62
     7
 48
50.0
100
AcDbLine
 10
4641.820365439056
 20
1071.5625
 30
0.0
 11
4641.820365439056
 21
1071.5625
 31
0.0
  0
LINE
  5
1DA65
330
747D
100
AcDbEntity
  8
細線
 62
     7
 48
10.0
100
AcDbLine
 10
4854.094974518102
 20
1084.035148905193
 30
0.0
 11
4854.094974518102
 21
884.0351489051936
 31
0.0
  0
LINE
  5
1DA66
330
747D
100
AcDbEntity
  8
部品1
 62
     7
 48
50.0
100
AcDbLine
 10
4820.414115439056
 20
904.875
 30
0.0
 11
4820.414115439056
 21
904.875
 31
0.0
  0
LINE
  5
1DA67
330
747D
100
AcDbEntity
  8
部品1
 62
     7
 48
50.0
100
AcDbLine
 10
4796.601615439053
 20
904.875
 30
0.0
 11
4796.601615439053
 21
904.875
 31
0.0
  0
LINE
  5
1DA68
330
747D
100
AcDbEntity
  8
部品1
 62
     7
 48
50.0
100
AcDbLine
 10
4772.789115439056
 20
904.875
 30
0.0
 11
4772.789115439056
 21
904.875
 31
0.0
  0
LINE
  5
1DA69
330
747D
100
AcDbEntity
  8
部品1
 62
     7
 48
50.0
100
AcDbLine
 10
4832.320365439056
 20
928.6875
 30
0.0
 11
4832.320365439056
 21
928.6875
 31
0.0
  0
LINE
  5
1DA6A
330
747D
100
AcDbEntity
  8
部品1
 62
     7
 48
50.0
100
AcDbLine
 10
4808.507865439053
 20
928.6875
 30
0.0
 11
4808.507865439053
 21
928.6875
 31
0.0
  0
LINE
  5
1DA6B
330
747D
100
AcDbEntity
  8
部品1
 62
     7
 48
50.0
100
AcDbLine
 10
4784.695365439056
 20
928.6875
 30
0.0
 11
4784.695365439056
 21
928.6875
 31
0.0
  0
LINE
  5
1DA6C
330
747D
100
AcDbEntity
  8
部品1
 62
     7
 48
50.0
100
AcDbLine
 10
4760.882865439053
 20
928.6875
 30
0.0
 11
4760.882865439053
 21
928.6875
 31
0.0
  0
LINE
  5
1DA6D
330
747D
100
AcDbEntity
  8
部品1
 62
     7
 48
50.0
100
AcDbLine
 10
4820.414115439056
 20
952.5
 30
0.0
 11
4820.414115439056
 21
952.5
 31
0.0
  0
LINE
  5
1DA6E
330
747D
100
AcDbEntity
  8
部品1
 62
     7
 48
50.0
100
AcDbLine
 10
4796.601615439053
 20
952.5
 30
0.0
 11
4796.601615439053
 21
952.5
 31
0.0
  0
LINE
  5
1DA6F
330
747D
100
AcDbEntity
  8
部品1
 62
     7
 48
50.0
100
AcDbLine
 10
4772.789115439056
 20
952.5
 30
0.0
 11
4772.789115439056
 21
952.5
 31
0.0
  0
LINE
  5
1DA70
330
747D
100
AcDbEntity
  8
部品1
 62
     7
 48
50.0
100
AcDbLine
 10
4832.320365439056
 20
976.3125
 30
0.0
 11
4832.320365439056
 21
976.3125
 31
0.0
  0
LINE
  5
1DA71
330
747D
100
AcDbEntity
  8
部品1
 62
     7
 48
50.0
100
AcDbLine
 10
4808.507865439053
 20
976.3125
 30
0.0
 11
4808.507865439053
 21
976.3125
 31
0.0
  0
LINE
  5
1DA72
330
747D
100
AcDbEntity
  8
部品1
 62
     7
 48
50.0
100
AcDbLine
 10
4784.695365439056
 20
976.3125
 30
0.0
 11
4784.695365439056
 21
976.3125
 31
0.0
  0
LINE
  5
1DA73
330
747D
100
AcDbEntity
  8
部品1
 62
     7
 48
50.0
100
AcDbLine
 10
4760.882865439053
 20
976.3125
 30
0.0
 11
4760.882865439053
 21
976.3125
 31
0.0
  0
LINE
  5
1DA74
330
747D
100
AcDbEntity
  8
部品1
 62
     7
 48
50.0
100
AcDbLine
 10
4820.414115439056
 20
1000.125
 30
0.0
 11
4820.414115439056
 21
1000.125
 31
0.0
  0
LINE
  5
1DA75
330
747D
100
AcDbEntity
  8
部品1
 62
     7
 48
50.0
100
AcDbLine
 10
4796.601615439053
 20
1000.125
 30
0.0
 11
4796.601615439053
 21
1000.125
 31
0.0
  0
LINE
  5
1DA76
330
747D
100
AcDbEntity
  8
部品1
 62
     7
 48
50.0
100
AcDbLine
 10
4772.789115439056
 20
1000.125
 30
0.0
 11
4772.789115439056
 21
1000.125
 31
0.0
  0
LINE
  5
1DA77
330
747D
100
AcDbEntity
  8
部品1
 62
     7
 48
50.0
100
AcDbLine
 10
4832.320365439056
 20
1023.9375
 30
0.0
 11
4832.320365439056
 21
1023.9375
 31
0.0
  0
LINE
  5
1DA78
330
747D
100
AcDbEntity
  8
部品1
 62
     7
 48
50.0
100
AcDbLine
 10
4808.507865439053
 20
1023.9375
 30
0.0
 11
4808.507865439053
 21
1023.9375
 31
0.0
  0
LINE
  5
1DA79
330
747D
100
AcDbEntity
  8
部品1
 62
     7
 48
50.0
100
AcDbLine
 10
4784.695365439056
 20
1023.9375
 30
0.0
 11
4784.695365439056
 21
1023.9375
 31
0.0
  0
LINE
  5
1DA7A
330
747D
100
AcDbEntity
  8
部品1
 62
     7
 48
50.0
100
AcDbLine
 10
4760.882865439053
 20
1023.9375
 30
0.0
 11
4760.882865439053
 21
1023.9375
 31
0.0
  0
LINE
  5
1DA7B
330
747D
100
AcDbEntity
  8
部品1
 62
     7
 48
50.0
100
AcDbLine
 10
4844.226615439056
 20
904.875
 30
0.0
 11
4844.226615439056
 21
904.875
 31
0.0
  0
LINE
  5
1DA7C
330
747D
100
AcDbEntity
  8
部品1
 62
     7
 48
50.0
100
AcDbLine
 10
4844.226615439056
 20
952.5
 30
0.0
 11
4844.226615439056
 21
952.5
 31
0.0
  0
LINE
  5
1DA7D
330
747D
100
AcDbEntity
  8
部品1
 62
     7
 48
50.0
100
AcDbLine
 10
4844.226615439056
 20
1000.125
 30
0.0
 11
4844.226615439056
 21
1000.125
 31
0.0
  0
LINE
  5
1DA7E
330
747D
100
AcDbEntity
  8
部品1
 62
     7
 48
50.0
100
AcDbLine
 10
4820.414115439056
 20
1047.75
 30
0.0
 11
4820.414115439056
 21
1047.75
 31
0.0
  0
LINE
  5
1DA7F
330
747D
100
AcDbEntity
  8
部品1
 62
     7
 48
50.0
100
AcDbLine
 10
4796.601615439053
 20
1047.75
 30
0.0
 11
4796.601615439053
 21
1047.75
 31
0.0
  0
LINE
  5
1DA80
330
747D
100
AcDbEntity
  8
部品1
 62
     7
 48
50.0
100
AcDbLine
 10
4772.789115439056
 20
1047.75
 30
0.0
 11
4772.789115439056
 21
1047.75
 31
0.0
  0
LINE
  5
1DA81
330
747D
100
AcDbEntity
  8
部品1
 62
     7
 48
50.0
100
AcDbLine
 10
4832.320365439056
 20
1071.5625
 30
0.0
 11
4832.320365439056
 21
1071.5625
 31
0.0
  0
LINE
  5
1DA82
330
747D
100
AcDbEntity
  8
部品1
 62
     7
 48
50.0
100
AcDbLine
 10
4808.507865439053
 20
1071.5625
 30
0.0
 11
4808.507865439053
 21
1071.5625
 31
0.0
  0
LINE
  5
1DA83
330
747D
100
AcDbEntity
  8
部品1
 62
     7
 48
50.0
100
AcDbLine
 10
4784.695365439056
 20
1071.5625
 30
0.0
 11
4784.695365439056
 21
1071.5625
 31
0.0
  0
LINE
  5
1DA84
330
747D
100
AcDbEntity
  8
部品1
 62
     7
 48
50.0
100
AcDbLine
 10
4760.882865439053
 20
1071.5625
 30
0.0
 11
4760.882865439053
 21
1071.5625
 31
0.0
  0
LINE
  5
1DA85
330
747D
100
AcDbEntity
  8
部品1
 62
     7
 48
50.0
100
AcDbLine
 10
4844.226615439056
 20
1047.75
 30
0.0
 11
4844.226615439056
 21
1047.75
 31
0.0
  0
LINE
  5
1DA86
330
747D
100
AcDbEntity
  8
部品1
 62
     7
100
AcDbLine
 10
10049.23622903559
 20
1749.373661269833
 30
0.0
 11
10049.23622903559
 21
1449.373661269832
 31
0.0
  0
LINE
  5
1DA87
330
747D
100
AcDbEntity
  8
細線
 62
     7
100
AcDbLine
 10
9876.031148278705
 20
1649.373661269833
 30
0.0
 11
9862.633688657147
 21
1599.373661269833
 31
0.0
  0
LINE
  5
1DA88
330
747D
100
AcDbEntity
  8
細線
 62
     7
100
AcDbLine
 10
9976.031148278709
 20
1649.373661269833
 30
0.0
 11
9962.633688657149
 21
1599.373661269833
 31
0.0
  0
LINE
  5
1DA89
330
747D
100
AcDbEntity
  8
細線
 62
     7
100
AcDbLine
 10
9676.031148278706
 20
1649.373661269833
 30
0.0
 11
9662.633688657148
 21
1599.373661269833
 31
0.0
  0
LINE
  5
1DA8A
330
747D
100
AcDbEntity
  8
細線
 62
     7
100
AcDbLine
 10
9776.031148278704
 20
1649.373661269833
 30
0.0
 11
9762.63368865715
 21
1599.373661269833
 31
0.0
  0
LINE
  5
1DA8B
330
747D
100
AcDbEntity
  8
細線
 62
     7
100
AcDbLine
 10
9649.236229035594
 20
1649.373661269833
 30
0.0
 11
9702.826067521819
 21
1449.37366126983
 31
0.0
  0
LINE
  5
1DA8C
330
747D
100
AcDbEntity
  8
細線
 62
     7
100
AcDbLine
 10
9749.236229035593
 20
1649.373661269833
 30
0.0
 11
9802.82606752182
 21
1449.37366126983
 31
0.0
  0
LINE
  5
1DA8D
330
747D
100
AcDbEntity
  8
細線
 62
     7
100
AcDbLine
 10
9849.236229035597
 20
1649.373661269833
 30
0.0
 11
9902.826067521814
 21
1449.37366126983
 31
0.0
  0
LINE
  5
1DA8E
330
747D
100
AcDbEntity
  8
細線
 62
     7
100
AcDbLine
 10
9949.236229035593
 20
1649.373661269833
 30
0.0
 11
10002.82606752181
 21
1449.373661269832
 31
0.0
  0
LINE
  5
1DA8F
330
747D
100
AcDbEntity
  8
細線
 62
     7
100
AcDbLine
 10
9476.031148278705
 20
1649.37366126983
 30
0.0
 11
9462.633688657152
 21
1599.373661269829
 31
0.0
  0
LINE
  5
1DA90
330
747D
100
AcDbEntity
  8
細線
 62
     7
100
AcDbLine
 10
9576.031148278705
 20
1649.37366126983
 30
0.0
 11
9562.633688657149
 21
1599.373661269829
 31
0.0
  0
LINE
  5
1DA91
330
747D
100
AcDbEntity
  8
細線
 62
     7
100
AcDbLine
 10
9449.236229035593
 20
1649.37366126983
 30
0.0
 11
9502.826067521818
 21
1449.373661269826
 31
0.0
  0
LINE
  5
1DA92
330
747D
100
AcDbEntity
  8
部品1
 62
     7
100
AcDbLine
 10
9449.236229035593
 20
1449.37366126983
 30
0.0
 11
9449.236229035593
 21
1749.373661269833
 31
0.0
  0
LINE
  5
1DA93
330
747D
100
AcDbEntity
  8
細線
 62
     7
100
AcDbLine
 10
9549.236229035594
 20
1649.37366126983
 30
0.0
 11
9602.826067521817
 21
1449.373661269826
 31
0.0
  0
LINE
  5
1DA94
330
747D
100
AcDbEntity
  8
部品1
 62
     7
100
AcDbLine
 10
9449.236229035593
 20
1449.37366126983
 30
0.0
 11
10049.23622903559
 21
1449.373661269832
 31
0.0
  0
LINE
  5
1DA95
330
747D
100
AcDbEntity
  8
細線
 62
     7
100
AcDbLine
 10
9689.428607900261
 20
1499.373661269833
 30
0.0
 11
9676.031148278706
 21
1449.373661269832
 31
0.0
  0
LINE
  5
1DA96
330
747D
100
AcDbEntity
  8
細線
 62
     7
100
AcDbLine
 10
9489.42860790026
 20
1499.37366126983
 30
0.0
 11
9476.031148278705
 21
1449.37366126983
 31
0.0
  0
LINE
  5
1DA97
330
747D
100
AcDbEntity
  8
細線
 62
     7
100
AcDbLine
 10
9589.428607900259
 20
1499.37366126983
 30
0.0
 11
9576.031148278705
 21
1449.37366126983
 31
0.0
  0
LINE
  5
1DA98
330
747D
100
AcDbEntity
  8
細線
 62
     7
100
AcDbLine
 10
9889.428607900264
 20
1499.373661269833
 30
0.0
 11
9876.031148278705
 21
1449.373661269832
 31
0.0
  0
LINE
  5
1DA99
330
747D
100
AcDbEntity
  8
細線
 62
     7
100
AcDbLine
 10
9789.42860790026
 20
1499.373661269833
 30
0.0
 11
9776.031148278704
 21
1449.373661269832
 31
0.0
  0
LINE
  5
1DA9A
330
747D
100
AcDbEntity
  8
細線
 62
     7
100
AcDbLine
 10
9989.42860790026
 20
1499.373661269833
 30
0.0
 11
9976.031148278709
 21
1449.373661269832
 31
0.0
  0
LINE
  5
1DA9B
330
747D
100
AcDbEntity
  8
部品1
 62
     7
100
AcDbLine
 10
9549.236229035594
 20
1949.373661269833
 30
0.0
 11
9949.236229035593
 21
1949.373661269833
 31
0.0
  0
LINE
  5
1DA9C
330
747D
100
AcDbEntity
  8
細線
 62
     7
100
AcDbLine
 10
9711.430673766246
 20
1749.373661269833
 30
0.0
 11
9549.236229035592
 21
1911.568106000485
 31
0.0
  0
LINE
  5
1DA9D
330
747D
100
AcDbEntity
  8
部品1
 62
     7
100
AcDbLine
 10
9449.236229035593
 20
1649.37366126983
 30
0.0
 11
10049.23622903559
 21
1649.373661269833
 31
0.0
  0
LINE
  5
1DA9E
330
747D
100
AcDbEntity
  8
部品1
 62
     7
100
AcDbLine
 10
9549.236229035594
 20
1749.373661269833
 30
0.0
 11
9549.236229035594
 21
1949.373661269833
 31
0.0
  0
LINE
  5
1DA9F
330
747D
100
AcDbEntity
  8
細線
 62
     7
100
AcDbLine
 10
9519.848987496159
 20
1649.37366126983
 30
0.0
 11
9619.848987496158
 21
1749.373661269833
 31
0.0
  0
LINE
  5
1DAA0
330
747D
100
AcDbEntity
  8
細線
 62
     7
100
AcDbLine
 10
9548.133258743623
 20
1649.373661269833
 30
0.0
 11
9648.133258743621
 21
1749.373661269833
 31
0.0
  0
LINE
  5
1DAA1
330
747D
100
AcDbEntity
  8
細線
 62
     7
100
AcDbLine
 10
9669.004266895056
 20
1749.373661269833
 30
0.0
 11
9549.236229035594
 21
1869.141699129293
 31
0.0
  0
LINE
  5
1DAA2
330
747D
100
AcDbEntity
  8
細線
 62
     7
100
AcDbLine
 10
9576.417529991084
 20
1649.373661269831
 30
0.0
 11
9676.417529991082
 21
1749.373661269833
 31
0.0
  0
MTEXT
  5
1DAA3
102
{ACAD_REACTORS
330
1DAA4
102
}
330
747D
100
AcDbEntity
  8
寸法
 62
     7
 48
50.0
100
AcDbMText
 10
9978.158987327649
 20
2270.806562121256
 30
0.0
 40
150.0
 41
1.0
 71
     4
 72
     1
  1
\A1;C.B
  7
STYLE1
 73
     1
 44
1.0
  0
LEADER
  5
1DAA4
330
747D
100
AcDbEntity
  8
寸法
 62
     7
 48
50.0
100
AcDbLeader
  3
INABA_S50G
 73
     0
 74
     0
 75
     1
 40
150.0
 41
231.9898538650463
 76
     3
 10
9749.236229035595
 20
1949.373661269833
 30
0.0
 10
9828.158987327649
 20
2170.806562121256
 30
0.0
 10
9953.158987327649
 20
2170.806562121256
 30
0.0
340
1DAA3
1001
ACAD
1000
DSTYLE
1002
{
1070
    40
1040
1.0
1002
}
  0
LINE
  5
1DAA5
330
747D
100
AcDbEntity
  8
細線
 62
     7
100
AcDbLine
 10
9937.704843745946
 20
1749.373661269833
 30
0.0
 11
9737.704843745945
 21
1949.373661269833
 31
0.0
  0
LINE
  5
1DAA6
330
747D
100
AcDbEntity
  8
細線
 62
     7
100
AcDbLine
 10
9895.278436874749
 20
1749.373661269833
 30
0.0
 11
9695.278436874753
 21
1949.373661269833
 31
0.0
  0
LINE
  5
1DAA7
330
747D
100
AcDbEntity
  8
部品1
 62
     7
100
AcDbLine
 10
9949.236229035593
 20
1949.373661269833
 30
0.0
 11
9949.236229035593
 21
1749.373661269833
 31
0.0
  0
LINE
  5
1DAA8
330
747D
100
AcDbEntity
  8
細線
 62
     7
100
AcDbLine
 10
9876.41752999108
 20
1649.373661269832
 30
0.0
 11
9976.417529991081
 21
1749.373661269833
 31
0.0
  0
LINE
  5
1DAA9
330
747D
100
AcDbEntity
  8
細線
 62
     7
100
AcDbLine
 10
9848.133258743622
 20
1649.373661269833
 30
0.0
 11
9948.133258743617
 21
1749.373661269833
 31
0.0
  0
LINE
  5
1DAAA
330
747D
100
AcDbEntity
  8
細線
 62
     7
100
AcDbLine
 10
9819.848987496159
 20
1649.373661269832
 30
0.0
 11
9919.848987496159
 21
1749.373661269833
 31
0.0
  0
LINE
  5
1DAAB
330
747D
100
AcDbEntity
  8
文字
 62
     7
 48
50.0
100
AcDbLine
 10
10125.11696430538
 20
1878.360952452848
 30
0.0
 11
10199.04748849817
 21
1750.309528320742
 31
0.0
  0
LINE
  5
1DAAC
330
747D
100
AcDbEntity
  8
文字
 62
     7
 48
50.0
100
AcDbLine
 10
10272.97801269095
 20
1878.360952452848
 30
0.0
 11
10125.11696430538
 21
1878.360952452848
 31
0.0
  0
LINE
  5
1DAAD
330
747D
100
AcDbEntity
  8
文字
 62
     7
 48
50.0
100
AcDbLine
 10
10199.04748849817
 20
1750.309528320741
 30
0.0
 11
10272.97801269095
 21
1878.360952452848
 31
0.0
  0
TEXT
  5
1DAAE
330
747D
100
AcDbEntity
  8
部品1
 62
     7
100
AcDbText
 10
9374.418454080537
 20
3075.560085060715
 30
0.0
 40
150.0
  1
基礎詳細
  7
STYLE2
100
AcDbText
  0
LINE
  5
1DAAF
330
747D
100
AcDbEntity
  8
部品1
 62
     7
100
AcDbLine
 10
10792.41842782453
 20
3299.999999999999
 30
0.0
 11
10792.41842782453
 21
600.0
 31
0.0
  0
LINE
  5
1DAB0
330
747D
100
AcDbEntity
  8
部品1
 62
     7
100
AcDbLine
 10
12792.41842782453
 20
600.0
 30
0.0
 11
12792.41842782453
 21
3299.999999999999
 31
0.0
  0
LINE
  5
1DAB1
330
747D
100
AcDbEntity
  8
Ｇ．Ｌ
 62
     7
100
AcDbLine
 10
11802.01519945007
 20
1749.373661269833
 30
0.0
 11
12159.39291868346
 21
1749.373661269833
 31
0.0
  0
LINE
  5
1DAB2
330
747D
100
AcDbEntity
  8
細線
  6
HIDDEN
 62
     7
 48
10.0
100
AcDbLine
 10
11971.39291868346
 20
1349.373661269834
 30
0.0
 11
12371.39291868346
 21
1349.373661269834
 31
0.0
  0
DIMENSION
  5
1DAB3
330
747D
100
AcDbEntity
  8
寸法
 62
     7
 48
50.0
100
AcDbDimension
  2
*D27
 10
11971.39291868346
 20
1022.89069578453
 30
0.0
 11
12171.39291868346
 21
1122.905459564057
 31
0.0
 70
    32
  1
200
 71
     5
 42
400.0
  3
INABA_S50G
100
AcDbAlignedDimension
 13
12371.39291868346
 23
1349.373661269834
 33
0.0
 14
11971.39291868346
 24
1349.373661269834
 34
0.0
100
AcDbRotatedDimension
  0
DIMENSION
  5
1DAB4
330
747D
100
AcDbEntity
  8
寸法
 62
     7
 48
50.0
100
AcDbDimension
  2
*D28
 10
11778.67290371428
 20
1459.373661269833
 30
0.0
 11
11678.65813993475
 21
1744.373661269835
 31
0.0
 70
    32
  1
285
 71
     5
 42
570.0000000000009
  3
INABA_S50G
100
AcDbAlignedDimension
 13
12159.39291868346
 23
2029.373661269834
 33
0.0
 14
12115.39291868346
 24
1459.373661269833
 34
0.0
 50
90.0
100
AcDbRotatedDimension
  0
LINE
  5
1DAB5
330
747D
100
AcDbEntity
  8
細線
  6
HIDDEN
 62
     7
 48
10.0
100
AcDbLine
 10
12095.48298933942
 20
1349.373661269834
 30
0.0
 11
12371.39291868346
 21
1625.283590613878
 31
0.0
  0
LINE
  5
1DAB6
330
747D
100
AcDbEntity
  8
細線
  6
HIDDEN
 62
     7
 48
10.0
100
AcDbLine
 10
12123.76726058689
 20
1349.373661269835
 30
0.0
 11
12371.39291868346
 21
1596.999319366418
 31
0.0
  0
LINE
  5
1DAB7
330
747D
100
AcDbEntity
  8
部品1
 62
     7
 48
10.0
100
AcDbLine
 10
12159.39291868346
 20
1475.373661269834
 30
0.0
 11
12115.39291868346
 21
1475.373661269834
 31
0.0
  0
LINE
  5
1DAB8
330
747D
100
AcDbEntity
  8
部品1
 62
     7
 48
10.0
100
AcDbLine
 10
12159.39291868346
 20
1459.373661269833
 30
0.0
 11
12115.39291868346
 21
1459.373661269833
 31
0.0
  0
LINE
  5
1DAB9
330
747D
100
AcDbEntity
  8
細線
  6
HIDDEN
 62
     7
 48
10.0
100
AcDbLine
 10
11971.39291868346
 20
1595.373436971778
 30
0.0
 11
12125.3931429815
 21
1749.373661269833
 31
0.0
  0
LINE
  5
1DABA
330
747D
100
AcDbEntity
  8
細線
  6
HIDDEN
 62
     7
 48
10.0
100
AcDbLine
 10
11971.39291868346
 20
1623.657708219241
 30
0.0
 11
12097.10887173405
 21
1749.373661269833
 31
0.0
  0
LINE
  5
1DABB
330
747D
100
AcDbEntity
  8
細線
  6
HIDDEN
 62
     7
 48
10.0
100
AcDbLine
 10
11971.39291868346
 20
1349.373661269834
 30
0.0
 11
11971.39291868346
 21
1749.373661269833
 31
0.0
  0
DIMENSION
  5
1DABC
330
747D
100
AcDbEntity
  8
寸法
 62
     7
 48
50.0
100
AcDbDimension
  2
*D25
 10
11496.26221710674
 20
1349.373661269834
 30
0.0
 11
11496.26221710674
 21
1549.373661269835
 31
0.0
 70
   160
  1
200
 71
     5
 42
399.9999999999989
  3
INABA_S50G
100
AcDbAlignedDimension
 13
11561.22057962788
 23
1749.373661269833
 33
0.0
 14
11971.39291868346
 24
1349.373661269834
 34
0.0
 50
90.0
100
AcDbRotatedDimension
1001
ACAD
1000
DSTYLE
1002
{
1070
    40
1040
1.0
1002
}
  0
LINE
  5
1DABD
330
747D
100
AcDbEntity
  8
部品1
 62
     7
 48
10.0
100
AcDbLine
 10
12115.39291868346
 20
1459.373661269833
 30
0.0
 11
12115.39291868346
 21
1475.373661269834
 31
0.0
  0
LINE
  5
1DABE
330
747D
100
AcDbEntity
  8
Ｇ．Ｌ
 62
     7
100
AcDbLine
 10
10862.63196514754
 20
1749.373661269833
 30
0.0
 11
11561.22057962788
 21
1749.373661269833
 31
0.0
  0
LINE
  5
1DABF
330
747D
100
AcDbEntity
  8
文字
 62
     7
 48
50.0
100
AcDbLine
 10
11042.8002371624
 20
1877.425085401941
 30
0.0
 11
10894.93918877682
 21
1877.425085401941
 31
0.0
  0
LINE
  5
1DAC0
330
747D
100
AcDbEntity
  8
文字
 62
     7
 48
50.0
100
AcDbLine
 10
10894.93918877682
 20
1877.425085401941
 30
0.0
 11
10968.86971296961
 21
1749.373661269833
 31
0.0
  0
TEXT
  5
1DAC1
330
747D
100
AcDbEntity
  8
部品1
 62
     7
100
AcDbText
 10
11063.40298672054
 20
1771.234304431198
 30
0.0
 40
150.0
  1
G.L
  7
STYLE1
100
AcDbText
  0
LINE
  5
1DAC2
330
747D
100
AcDbEntity
  8
文字
 62
     7
 48
50.0
100
AcDbLine
 10
10968.86971296961
 20
1749.373661269833
 30
0.0
 11
11042.8002371624
 21
1877.425085401941
 31
0.0
  0
DIMENSION
  5
1DAC3
330
747D
100
AcDbEntity
  8
寸法
 62
     7
 48
50.0
100
AcDbDimension
  2
*D26
 10
11496.91093653513
 20
1749.373661269833
 30
0.0
 11
11496.91093653513
 21
2236.337243947
 31
0.0
 70
   160
  1
100
 71
     5
 42
200.0000000000011
  3
INABA_S50G
100
AcDbAlignedDimension
 13
11778.67290371428
 23
1949.373661269834
 33
0.0
 14
11561.22057962788
 24
1749.373661269833
 34
0.0
 50
90.0
100
AcDbRotatedDimension
  0
LINE
  5
1DAC4
330
747D
100
AcDbEntity
  8
細線
  6
HIDDEN
 62
     7
 48
10.0
100
AcDbLine
 10
11971.39291868346
 20
1651.941979466702
 30
0.0
 11
12068.82460048659
 21
1749.373661269833
 31
0.0
  0
LINE
  5
1DAC5
330
747D
100
AcDbEntity
  8
寸法
 62
     7
 48
50.0
100
AcDbLine
 10
11795.42058817862
 20
1949.373661269834
 30
0.0
 11
12136.21794591976
 21
1949.373661269834
 31
0.0
  0
LINE
  5
1DAC6
330
747D
100
AcDbEntity
  8
細線
  6
HIDDEN
 62
     7
 48
10.0
100
AcDbLine
 10
12371.39291868346
 20
1349.373661269834
 30
0.0
 11
12371.39291868346
 21
1749.373661269833
 31
0.0
  0
LINE
  5
1DAC7
330
747D
100
AcDbEntity
  8
部品1
 62
     7
 48
10.0
100
AcDbLine
 10
12159.39291868346
 20
2029.373661269834
 30
0.0
 11
12159.39291868346
 21
1475.373661269834
 31
0.0
  0
LINE
  5
1DAC8
330
747D
100
AcDbEntity
  8
部品1
 62
     7
 48
10.0
100
AcDbLine
 10
12175.39291868346
 20
1475.373661269834
 30
0.0
 11
12175.39291868346
 21
2029.373661269834
 31
0.0
  0
LINE
  5
1DAC9
330
747D
100
AcDbEntity
  8
細線
  6
HIDDEN
 62
     7
 48
10.0
100
AcDbLine
 10
12152.05153183435
 20
1349.373661269835
 30
0.0
 11
12371.39291868346
 21
1568.715048118956
 31
0.0
  0
ARC
  5
1DACA
330
747D
100
AcDbEntity
  8
部品1
 62
     7
 48
10.0
100
AcDbCircle
 10
12159.39291868346
 20
1475.373661269834
 30
0.0
 40
16.0
100
AcDbArc
 50
270.0
 51
0.0
  0
LINE
  5
1DACB
330
747D
100
AcDbEntity
  8
部品1
 62
     7
 48
10.0
100
AcDbLine
 10
12175.39291868346
 20
1949.373661269834
 30
0.0
 11
12175.39291868346
 21
2683.152017438573
 31
0.0
  0
LINE
  5
1DACC
330
747D
100
AcDbEntity
  8
部品1
 62
     7
 48
10.0
100
AcDbLine
 10
12303.39291868346
 20
1949.373661269834
 30
0.0
 11
12303.39291868346
 21
2683.152017438573
 31
0.0
  0
LINE
  5
1DACD
330
747D
100
AcDbEntity
  8
部品1
 62
     7
 48
10.0
100
AcDbLine
 10
12319.39291868346
 20
2047.373661269833
 30
0.0
 11
12319.39291868346
 21
2683.152017438573
 31
0.0
  0
LINE
  5
1DACE
330
747D
100
AcDbEntity
  8
部品1
 62
     7
 48
10.0
100
AcDbLine
 10
12335.39291868346
 20
2063.373661269833
 30
0.0
 11
12335.39291868346
 21
2683.152017438573
 31
0.0
  0
LINE
  5
1DACF
330
747D
100
AcDbEntity
  8
Ｇ．Ｌ
 62
     7
100
AcDbLine
 10
12175.39291868346
 20
1749.373661269833
 30
0.0
 11
12689.16290152045
 21
1749.373661269833
 31
0.0
  0
LINE
  5
1DAD0
330
747D
100
AcDbEntity
  8
細線
 62
     7
100
AcDbLine
 10
12563.86153339381
 20
1749.373661269834
 30
0.0
 11
12363.86153339381
 21
1949.373661269834
 31
0.0
  0
LINE
  5
1DAD1
330
747D
100
AcDbEntity
  8
部品1
 62
     7
 48
10.0
100
AcDbLine
 10
12175.39291868346
 20
1949.373661269834
 30
0.0
 11
12575.39291868346
 21
1949.373661269834
 31
0.0
  0
LINE
  5
1DAD2
330
747D
100
AcDbEntity
  8
部品1
 62
     7
 48
10.0
100
AcDbLine
 10
12175.39291868346
 20
1949.373661269834
 30
0.0
 11
12690.73056603674
 21
1949.373661269834
 31
0.0
  0
LINE
  5
1DAD3
330
747D
100
AcDbEntity
  8
部品1
 62
     7
 48
10.0
100
AcDbLine
 10
12319.39291868346
 20
2063.373661269833
 30
0.0
 11
12690.73056603674
 21
2063.373661269833
 31
0.0
  0
LINE
  5
1DAD4
330
747D
100
AcDbEntity
  8
部品1
 62
     7
 48
10.0
100
AcDbLine
 10
12303.39291868346
 20
2047.373661269833
 30
0.0
 11
12690.73056603674
 21
2047.373661269833
 31
0.0
  0
LINE
  5
1DAD5
330
747D
100
AcDbEntity
  8
細線
 62
     7
100
AcDbLine
 10
12521.43512652261
 20
1749.373661269833
 30
0.0
 11
12321.43512652261
 21
1949.373661269834
 31
0.0
  0
LINE
  5
1DAD6
330
747D
100
AcDbEntity
  8
部品1
 62
     7
 48
10.0
100
AcDbLine
 10
12175.39291868346
 20
1749.373661269833
 30
0.0
 11
12175.39291868346
 21
1949.373661269834
 31
0.0
  0
LINE
  5
1DAD7
330
747D
100
AcDbEntity
  8
細線
 62
     7
100
AcDbLine
 10
12295.16095654292
 20
1749.373661269833
 30
0.0
 11
12175.39291868346
 21
1869.141699129294
 31
0.0
  0
LINE
  5
1DAD8
330
747D
100
AcDbEntity
  8
細線
 62
     7
100
AcDbLine
 10
12337.58736341411
 20
1749.373661269833
 30
0.0
 11
12175.39291868346
 21
1911.568106000486
 31
0.0
  0
LINE
  5
1DAD9
330
747D
100
AcDbEntity
  8
部品1
 62
     7
 48
10.0
100
AcDbLine
 10
12175.39291868346
 20
2029.373661269834
 30
0.0
 11
12159.39291868346
 21
2029.373661269834
 31
0.0
  0
LINE
  5
1DADA
330
747D
100
AcDbEntity
  8
細線
 62
     7
100
AcDbLine
 10
12145.39291868346
 20
1992.373661269834
 30
0.0
 11
12145.39291868346
 21
2006.373661269833
 31
0.0
  0
LINE
  5
1DADB
330
747D
100
AcDbEntity
  8
細線
 62
     7
100
AcDbLine
 10
12153.39291868346
 20
2013.373661269834
 30
0.0
 11
12152.39291868346
 21
2013.373661269834
 31
0.0
  0
LINE
  5
1DADC
330
747D
100
AcDbEntity
  8
細線
 62
     7
100
AcDbLine
 10
12153.39291868346
 20
1985.373661269834
 30
0.0
 11
12152.39291868346
 21
1985.373661269834
 31
0.0
  0
ARC
  5
1DADD
330
747D
100
AcDbEntity
  8
細線
 62
     7
100
AcDbCircle
 10
12152.39291868346
 20
2006.373661269833
 30
0.0
 40
7.0
100
AcDbArc
 50
90.0
 51
180.0
  0
ARC
  5
1DADE
330
747D
100
AcDbEntity
  8
細線
 62
     7
100
AcDbCircle
 10
12152.39291868346
 20
1992.373661269834
 30
0.0
 40
7.0
100
AcDbArc
 50
180.0
 51
270.0
  0
LINE
  5
1DADF
330
747D
100
AcDbEntity
  8
細線
 62
     7
100
AcDbLine
 10
12159.39291868346
 20
2015.373661269833
 30
0.0
 11
12153.39291868346
 21
2015.373661269833
 31
0.0
  0
LINE
  5
1DAE0
330
747D
100
AcDbEntity
  8
細線
 62
     7
100
AcDbLine
 10
12159.39291868346
 20
1983.373661269834
 30
0.0
 11
12153.39291868346
 21
1983.373661269834
 31
0.0
  0
LINE
  5
1DAE1
330
747D
100
AcDbEntity
  8
細線
 62
     7
100
AcDbLine
 10
12159.39291868346
 20
1983.373661269834
 30
0.0
 11
12159.39291868346
 21
2015.373661269833
 31
0.0
  0
LINE
  5
1DAE2
330
747D
100
AcDbEntity
  8
細線
 62
     7
100
AcDbLine
 10
12153.39291868346
 20
1983.373661269834
 30
0.0
 11
12153.39291868346
 21
2015.373661269833
 31
0.0
  0
CIRCLE
  5
1DAE3
330
747D
100
AcDbEntity
  8
細線
 62
     7
100
AcDbCircle
 10
12235.39291868346
 20
1999.373661269833
 30
0.0
 40
16.0
  0
CIRCLE
  5
1DAE4
330
747D
100
AcDbEntity
  8
細線
 62
     7
100
AcDbCircle
 10
12281.39291868346
 20
1999.373661269833
 30
0.0
 40
16.0
  0
LINE
  5
1DAE5
330
747D
100
AcDbEntity
  8
部品1
 62
     7
 48
10.0
100
AcDbLine
 10
12575.39291868346
 20
1949.373661269834
 30
0.0
 11
12575.39291868346
 21
1749.373661269833
 31
0.0
  0
TEXT
  5
1DAE6
330
747D
100
AcDbEntity
  8
部品1
 62
     7
100
AcDbText
 10
11028.92355353962
 20
3076.227094002039
 30
0.0
 40
150.0
  1
アンカー部詳細
  7
STYLE2
100
AcDbText
  0
ENDSEC
  0
SECTION
  2
OBJECTS
  0
DICTIONARY
  5
7471
330
0
100
AcDbDictionary
281
     1
  3
ACAD_COLOR
350
1D8C7
  3
ACAD_GROUP
350
7472
  3
ACAD_LAYOUT
350
1A1FB
  3
ACAD_MATERIAL
350
1D8C6
  3
ACAD_MLINESTYLE
350
7473
  3
ACAD_PLOTSETTINGS
350
1A1FC
  3
ACAD_PLOTSTYLENAME
350
1A1F9
  3
ACDBVARIABLEDICTIONARY
350
1152B
  3
CONTENTDICTIONARY
350
E71C
  3
DRAWINGVARIABLESDICT
350
F3B9
  0
DICTIONARY
  5
1D8C7
102
{ACAD_REACTORS
330
7471
102
}
330
7471
100
AcDbDictionary
281
     1
  0
DICTIONARY
  5
7472
102
{ACAD_REACTORS
330
7471
102
}
330
7471
100
AcDbDictionary
281
     1
  0
DICTIONARY
  5
1A1FB
102
{ACAD_REACTORS
330
7471
102
}
330
7471
100
AcDbDictionary
281
     1
  3
Model
350
1A1FD
  3
ﾚｲｱｳﾄ1
350
1A1FE
  0
DICTIONARY
  5
1D8C6
102
{ACAD_REACTORS
330
7471
102
}
330
7471
100
AcDbDictionary
281
     1
  0
DICTIONARY
  5
7473
102
{ACAD_REACTORS
330
7471
102
}
330
7471
100
AcDbDictionary
281
     1
  3
STANDARD
350
7480
  0
DICTIONARY
  5
1A1FC
102
{ACAD_REACTORS
330
7471
102
}
330
7471
100
AcDbDictionary
281
     1
  0
ACDBDICTIONARYWDFLT
  5
1A1F9
102
{ACAD_REACTORS
330
7471
102
}
330
7471
100
AcDbDictionary
281
     1
  3
Normal
350
1A1FA
100
AcDbDictionaryWithDefault
340
1A1FA
  0
DICTIONARY
  5
1152B
102
{ACAD_REACTORS
330
7471
102
}
330
7471
100
AcDbDictionary
281
     1
  3
SORTENTS
350
1152C
  0
DICTIONARY
  5
E71C
102
{ACAD_REACTORS
330
7471
102
}
330
7471
100
AcDbDictionary
281
     1
  0
DICTIONARY
  5
F3B9
102
{ACAD_REACTORS
330
7471
102
}
330
7471
100
AcDbDictionary
281
     1
1001
DRAWINGVARIABLESXDATA
1000
POLARMODE
1000
1
  0
LAYOUT
  5
1A1FD
102
{ACAD_REACTORS
330
1A1FB
102
}
330
1A1FB
100
AcDbPlotSettings
  1

  2
\\NKZ-SERVER\EPSON LP-9000
  4

  6

 40
0.0
 41
0.0
 42
0.0
 43
0.0
 44
0.0
 45
0.0
 46
0.0
 47
0.0
 48
0.0
 49
0.0
140
0.0
141
0.0
142
1.0
143
1.0
 70
  1712
 72
     0
 73
     0
 74
     0
  7

 75
     0
147
1.0
 76
     0
 77
     2
 78
   300
148
0.0
149
0.0
100
AcDbLayout
  1
Model
 70
     1
 71
     0
 10
0.0
 20
0.0
 11
12.0
 21
9.0
 12
0.0
 22
0.0
 32
0.0
 14
0.0
 24
0.0
 34
0.0
 15
0.0
 25
0.0
 35
0.0
146
0.0
 13
0.0
 23
0.0
 33
0.0
 16
1.0
 26
0.0
 36
0.0
 17
0.0
 27
1.0
 37
0.0
 76
     0
330
747D
  0
LAYOUT
  5
1A1FE
102
{ACAD_REACTORS
330
1A1FB
102
}
330
1A1FB
100
AcDbPlotSettings
  1

  2
\\NKZ-SERVER\EPSON LP-9000
  4

  6

 40
0.0
 41
0.0
 42
0.0
 43
0.0
 44
0.0
 45
0.0
 46
0.0
 47
0.0
 48
0.0
 49
0.0
140
0.0
141
0.0
142
1.0
143
1.0
 70
   688
 72
     0
 73
     0
 74
     5
  7

 75
    16
147
1.0
 76
     0
 77
     2
 78
   300
148
0.0
149
0.0
100
AcDbLayout
  1
ﾚｲｱｳﾄ1
 70
     0
 71
     1
 10
0.0
 20
0.0
 11
420.0
 21
297.0
 12
0.0
 22
0.0
 32
0.0
 14
1.000000000000000E+20
 24
1.000000000000000E+20
 34
1.000000000000000E+20
 15
-1.000000000000000E+20
 25
-1.000000000000000E+20
 35
-1.000000000000000E+20
146
0.0
 13
0.0
 23
0.0
 33
0.0
 16
1.0
 26
0.0
 36
0.0
 17
0.0
 27
1.0
 37
0.0
 76
     0
330
747A
  0
MLINESTYLE
  5
7480
102
{ACAD_REACTORS
330
7473
102
}
330
7473
100
AcDbMlineStyle
  2
STANDARD
 70
     0
  3

 62
     0
 51
90.0
 52
90.0
 71
     2
 49
0.5
 62
   256
  6
BYLAYER
 49
-0.5
 62
   256
  6
BYLAYER
  0
ACDBPLACEHOLDER
  5
1A1FA
102
{ACAD_REACTORS
330
1A1F9
102
}
330
1A1F9
  0
DICTIONARYVAR
  5
1152C
102
{ACAD_REACTORS
330
1152B
102
}
330
1152B
100
DictionaryVariables
280
     0
  1
96
  0
ENDSEC
  0
EOF
