  0
SECTION
  2
HEADER
  9
$ACADVER
  1
AC1015
  9
$ACADMAINTVER
 70
     6
  9
$DWGCODEPAGE
  3
ANSI_932
  9
$INSBASE
 10
0.0
 20
0.0
 30
0.0
  9
$EXTMIN
 10
174.9999999999993
 20
-0.0000000000001137
 30
0.0
  9
$EXTMAX
 10
20384.0
 20
14262.0
 30
0.0
  9
$LIMMIN
 10
0.0
 20
0.0
  9
$LIMMAX
 10
21000.0
 20
14850.0
  9
$ORTHOMODE
 70
     0
  9
$REGENMODE
 70
     1
  9
$FILLMODE
 70
     1
  9
$QTEXTMODE
 70
     0
  9
$MIRRTEXT
 70
     1
  9
$LTSCALE
 40
20.0
  9
$ATTMODE
 70
     1
  9
$TEXTSIZE
 40
4.0
  9
$TRACEWID
 40
1.0
  9
$TEXTSTYLE
  7
STYLE1
  9
$CLAYER
  8
寸法
  9
$CELTYPE
  6
BYLAYER
  9
$CECOLOR
 62
   256
  9
$CELTSCALE
 40
50.0
  9
$DISPSILH
 70
     0
  9
$DIMSCALE
 40
1.0
  9
$DIMASZ
 40
125.0
  9
$DIMEXO
 40
25.0
  9
$DIMDLI
 40
7.0
  9
$DIMRND
 40
0.0
  9
$DIMDLE
 40
0.0
  9
$DIMEXE
 40
75.0
  9
$DIMTP
 40
0.0
  9
$DIMTM
 40
0.0
  9
$DIMTXT
 40
150.0
  9
$DIMCEN
 40
0.0
  9
$DIMTSZ
 40
0.0
  9
$DIMTOL
 70
     0
  9
$DIMLIM
 70
     0
  9
$DIMTIH
 70
     0
  9
$DIMTOH
 70
     0
  9
$DIMSE1
 70
     0
  9
$DIMSE2
 70
     0
  9
$DIMTAD
 70
     3
  9
$DIMZIN
 70
     8
  9
$DIMBLK
  1

  9
$DIMASO
 70
     1
  9
$DIMSHO
 70
     1
  9
$DIMPOST
  1

  9
$DIMAPOST
  1

  9
$DIMALT
 70
     0
  9
$DIMALTD
 70
     2
  9
$DIMALTF
 40
0.0394
  9
$DIMLFAC
 40
1.0
  9
$DIMTOFL
 70
     1
  9
$DIMTVP
 40
0.0
  9
$DIMTIX
 70
     1
  9
$DIMSOXD
 70
     0
  9
$DIMSAH
 70
     1
  9
$DIMBLK1
  1
DOTSMALL
  9
$DIMBLK2
  1
DOTSMALL
  9
$DIMSTYLE
  2
INABA_S50G
  9
$DIMCLRD
 70
     0
  9
$DIMCLRE
 70
     0
  9
$DIMCLRT
 70
     7
  9
$DIMTFAC
 40
1.0
  9
$DIMGAP
 40
25.0
  9
$DIMJUST
 70
     0
  9
$DIMSD1
 70
     0
  9
$DIMSD2
 70
     0
  9
$DIMTOLJ
 70
     1
  9
$DIMTZIN
 70
     0
  9
$DIMALTZ
 70
     0
  9
$DIMALTTZ
 70
     0
  9
$DIMUPT
 70
     0
  9
$DIMDEC
 70
     1
  9
$DIMTDEC
 70
     4
  9
$DIMALTU
 70
     2
  9
$DIMALTTD
 70
     2
  9
$DIMTXSTY
  7
STYLE1
  9
$DIMAUNIT
 70
     0
  9
$DIMADEC
 70
     0
  9
$DIMALTRND
 40
0.0
  9
$DIMAZIN
 70
     0
  9
$DIMDSEP
 70
    46
  9
$DIMATFIT
 70
     3
  9
$DIMFRAC
 70
     0
  9
$DIMLDRBLK
  1
DOTSMALL
  9
$DIMLUNIT
 70
     2
  9
$DIMLWD
 70
    -2
  9
$DIMLWE
 70
    -2
  9
$DIMTMOVE
 70
     0
  9
$LUNITS
 70
     2
  9
$LUPREC
 70
     1
  9
$SKETCHINC
 40
1.0
  9
$FILLETRAD
 40
3.0
  9
$AUNITS
 70
     0
  9
$AUPREC
 70
     0
  9
$MENU
  1
acad
  9
$ELEVATION
 40
0.0
  9
$PELEVATION
 40
0.0
  9
$THICKNESS
 40
0.0
  9
$LIMCHECK
 70
     0
  9
$CHAMFERA
 40
0.0
  9
$CHAMFERB
 40
0.0
  9
$CHAMFERC
 40
0.0
  9
$CHAMFERD
 40
0.0
  9
$SKPOLY
 70
     0
  9
$TDCREATE
 40
2452335.452219212
  9
$TDUCREATE
 40
2452335.077219213
  9
$TDUPDATE
 40
2452595.500060300
  9
$TDUUPDATE
 40
2452595.125060300
  9
$TDINDWG
 40
1.2513501157
  9
$TDUSRTIMER
 40
1.2513501157
  9
$USRTIMER
 70
     1
  9
$ANGBASE
 50
0.0
  9
$ANGDIR
 70
     0
  9
$PDMODE
 70
     3
  9
$PDSIZE
 40
2.0
  9
$PLINEWID
 40
0.0
  9
$SPLFRAME
 70
     0
  9
$SPLINETYPE
 70
     6
  9
$SPLINESEGS
 70
     8
  9
$HANDSEED
  5
1AEE8
  9
$SURFTAB1
 70
     6
  9
$SURFTAB2
 70
     6
  9
$SURFTYPE
 70
     6
  9
$SURFU
 70
     6
  9
$SURFV
 70
     6
  9
$UCSBASE
  2

  9
$UCSNAME
  2

  9
$UCSORG
 10
0.0
 20
0.0
 30
0.0
  9
$UCSXDIR
 10
1.0
 20
0.0
 30
0.0
  9
$UCSYDIR
 10
0.0
 20
1.0
 30
0.0
  9
$UCSORTHOREF
  2

  9
$UCSORTHOVIEW
 70
     0
  9
$UCSORGTOP
 10
0.0
 20
0.0
 30
0.0
  9
$UCSORGBOTTOM
 10
0.0
 20
0.0
 30
0.0
  9
$UCSORGLEFT
 10
0.0
 20
0.0
 30
0.0
  9
$UCSORGRIGHT
 10
0.0
 20
0.0
 30
0.0
  9
$UCSORGFRONT
 10
0.0
 20
0.0
 30
0.0
  9
$UCSORGBACK
 10
0.0
 20
0.0
 30
0.0
  9
$PUCSBASE
  2

  9
$PUCSNAME
  2

  9
$PUCSORG
 10
0.0
 20
0.0
 30
0.0
  9
$PUCSXDIR
 10
1.0
 20
0.0
 30
0.0
  9
$PUCSYDIR
 10
0.0
 20
1.0
 30
0.0
  9
$PUCSORTHOREF
  2

  9
$PUCSORTHOVIEW
 70
     0
  9
$PUCSORGTOP
 10
0.0
 20
0.0
 30
0.0
  9
$PUCSORGBOTTOM
 10
0.0
 20
0.0
 30
0.0
  9
$PUCSORGLEFT
 10
0.0
 20
0.0
 30
0.0
  9
$PUCSORGRIGHT
 10
0.0
 20
0.0
 30
0.0
  9
$PUCSORGFRONT
 10
0.0
 20
0.0
 30
0.0
  9
$PUCSORGBACK
 10
0.0
 20
0.0
 30
0.0
  9
$USERI1
 70
     0
  9
$USERI2
 70
     0
  9
$USERI3
 70
     0
  9
$USERI4
 70
     0
  9
$USERI5
 70
     0
  9
$USERR1
 40
0.0
  9
$USERR2
 40
0.0
  9
$USERR3
 40
0.0
  9
$USERR4
 40
0.0
  9
$USERR5
 40
0.0
  9
$WORLDVIEW
 70
     1
  9
$SHADEDGE
 70
     3
  9
$SHADEDIF
 70
    70
  9
$TILEMODE
 70
     1
  9
$MAXACTVP
 70
    16
  9
$PINSBASE
 10
0.0
 20
0.0
 30
0.0
  9
$PLIMCHECK
 70
     0
  9
$PEXTMIN
 10
1.000000000000000E+20
 20
1.000000000000000E+20
 30
1.000000000000000E+20
  9
$PEXTMAX
 10
-1.000000000000000E+20
 20
-1.000000000000000E+20
 30
-1.000000000000000E+20
  9
$PLIMMIN
 10
0.0
 20
0.0
  9
$PLIMMAX
 10
420.0
 20
297.0
  9
$UNITMODE
 70
     0
  9
$VISRETAIN
 70
     0
  9
$PLINEGEN
 70
     0
  9
$PSLTSCALE
 70
     0
  9
$TREEDEPTH
 70
  3020
  9
$CMLSTYLE
  2
STANDARD
  9
$CMLJUST
 70
     0
  9
$CMLSCALE
 40
1.0
  9
$PROXYGRAPHICS
 70
     1
  9
$MEASUREMENT
 70
     1
  9
$CELWEIGHT
370
    -1
  9
$ENDCAPS
280
     0
  9
$JOINSTYLE
280
     0
  9
$LWDISPLAY
290
     0
  9
$INSUNITS
 70
     0
  9
$HYPERLINKBASE
  1

  9
$STYLESHEET
  1

  9
$XEDIT
290
     1
  9
$CEPSNTYPE
380
     0
  9
$PSTYLEMODE
290
     1
  9
$FINGERPRINTGUID
  2
{697DFE22-F946-11D6-AF94-00909916878D}
  9
$VERSIONGUID
  2
{697DFE24-F946-11D6-AF94-00909916878D}
  9
$EXTNAMES
290
     1
  9
$PSVPSCALE
 40
0.0
  9
$OLESTARTUP
290
     0
  0
ENDSEC
  0
SECTION
  2
CLASSES
  0
CLASS
  1
OLE2FRAME
  2
AcDbOle2Frame
  3
AutoCAD 2000
 90
    32768
280
     0
281
     1
  0
CLASS
  1
LWPOLYLINE
  2
AcDbPolyline
  3
AutoCAD 2000
 90
    32768
280
     0
281
     1
  0
CLASS
  1
HATCH
  2
AcDbHatch
  3
AutoCAD 2000
 90
    32768
280
     0
281
     1
  0
CLASS
  1
DICTIONARYVAR
  2
AcDbDictionaryVar
  3
AutoCAD 2000
 90
        0
280
     0
281
     0
  0
CLASS
  1
ACDBDICTIONARYWDFLT
  2
AcDbDictionaryWithDefault
  3
AutoCAD 2000
 90
        0
280
     0
281
     0
  0
CLASS
  1
ACDBPLACEHOLDER
  2
AcDbPlaceHolder
  3
AutoCAD 2000
 90
        0
280
     0
281
     0
  0
CLASS
  1
LAYOUT
  2
AcDbLayout
  3
AutoCAD 2000
 90
        0
280
     0
281
     0
  0
CLASS
  1
LONG_TRANSACTION
  2
AcDbLongTransaction
  3
AutoCAD 2000
 90
    32768
280
     0
281
     0
  0
CLASS
  1
LWPOLYLINE
  2
AcDbPolyline
  3
AutoCAD 2000
 90
    32768
280
     0
281
     1
  0
CLASS
  1
HATCH
  2
AcDbHatch
  3
AutoCAD 2000
 90
    32768
280
     0
281
     1
  0
CLASS
  1
XRECORD
  2
AcDbXrecord
  3
AutoCAD 2000
 90
    32768
280
     0
281
     0
  0
ENDSEC
  0
SECTION
  2
TABLES
  0
TABLE
  2
VPORT
  5
746D
330
0
100
AcDbSymbolTable
 70
     2
  0
VPORT
  5
1AEC6
330
746D
100
AcDbSymbolTableRecord
100
AcDbViewportTableRecord
  2
*Active
 70
     0
 10
0.0
 20
0.0
 11
1.0
 21
1.0
 12
10500.0
 22
7424.773424269833
 13
0.0
 23
0.0
 14
10.0
 24
10.0
 15
10.0
 25
10.0
 16
0.0
 26
0.0
 36
1.0
 17
0.0
 27
0.0
 37
0.0
 40
15025.50760904139
 41
2.12007874015748
 42
50.0
 43
0.0
 44
0.0
 50
0.0
 51
0.0
 71
     0
 72
     0
 73
     1
 74
     0
 75
     0
 76
     0
 77
     0
 78
     0
281
     0
 65
     1
110
0.0
120
0.0
130
0.0
111
1.0
121
0.0
131
0.0
112
0.0
122
1.0
132
0.0
 79
     0
146
0.0
  0
ENDTAB
  0
TABLE
  2
LTYPE
  5
746A
330
0
100
AcDbSymbolTable
 70
     4
  0
LTYPE
  5
7477
330
746A
100
AcDbSymbolTableRecord
100
AcDbLinetypeTableRecord
  2
BYBLOCK
 70
     0
  3

 72
    65
 73
     0
 40
0.0
  0
LTYPE
  5
7478
330
746A
100
AcDbSymbolTableRecord
100
AcDbLinetypeTableRecord
  2
BYLAYER
 70
     0
  3

 72
    65
 73
     0
 40
0.0
  0
LTYPE
  5
7479
330
746A
100
AcDbSymbolTableRecord
100
AcDbLinetypeTableRecord
  2
CONTINUOUS
 70
     0
  3
Solid line
 72
    65
 73
     0
 40
0.0
  0
LTYPE
  5
7816
330
746A
100
AcDbSymbolTableRecord
100
AcDbLinetypeTableRecord
  2
CENTER
 70
     0
  3
____ _ ____ _ ____ _ ____ _ ____ _ ____ _ ____ 
 72
    65
 73
     4
 40
2.0
 49
1.25
 74
     0
 49
-0.25
 74
     0
 49
0.25
 74
     0
 49
-0.25
 74
     0
  0
LTYPE
  5
781A
330
746A
100
AcDbSymbolTableRecord
100
AcDbLinetypeTableRecord
  2
HIDDEN
 70
     0
  3
__ __ __ __ __ __ __ __ __ __ __ __ __ __ __ __
 72
    65
 73
     2
 40
0.375
 49
0.25
 74
     0
 49
-0.125
 74
     0
  0
LTYPE
  5
781B
330
746A
100
AcDbSymbolTableRecord
100
AcDbLinetypeTableRecord
  2
PHANTOM
 70
     0
  3
______  __  __  ______  __  __  ______  __  __ 
 72
    65
 73
     6
 40
2.5
 49
1.25
 74
     0
 49
-0.25
 74
     0
 49
0.25
 74
     0
 49
-0.25
 74
     0
 49
0.25
 74
     0
 49
-0.25
 74
     0
  0
ENDTAB
  0
TABLE
  2
LAYER
  5
7467
330
0
100
AcDbSymbolTable
 70
    12
  0
LAYER
  5
7474
330
7467
100
AcDbSymbolTableRecord
100
AcDbLayerTableRecord
  2
0
 70
     0
 62
     7
  6
CONTINUOUS
370
    -3
390
1AE4D
  0
LAYER
  5
DEB2
330
7467
100
AcDbSymbolTableRecord
100
AcDbLayerTableRecord
  2
センター
 70
     0
 62
     3
  6
CENTER
370
    -3
390
1AE4D
  0
LAYER
  5
DEB3
330
7467
100
AcDbSymbolTableRecord
100
AcDbLayerTableRecord
  2
寸法
 70
     0
 62
     4
  6
CONTINUOUS
370
    -3
390
1AE4D
  0
LAYER
  5
DEB4
330
7467
100
AcDbSymbolTableRecord
100
AcDbLayerTableRecord
  2
部品1
 70
     0
 62
     7
  6
CONTINUOUS
370
    -3
390
1AE4D
  0
LAYER
  5
DEB5
330
7467
100
AcDbSymbolTableRecord
100
AcDbLayerTableRecord
  2
補助
 70
     0
 62
    -1
  6
CONTINUOUS
370
    -3
390
1AE4D
  0
LAYER
  5
DEB6
330
7467
100
AcDbSymbolTableRecord
100
AcDbLayerTableRecord
  2
文字
 70
     0
 62
     7
  6
CONTINUOUS
370
    -3
390
1AE4D
  0
LAYER
  5
F255
330
7467
100
AcDbSymbolTableRecord
100
AcDbLayerTableRecord
  2
DEFPOINTS
 70
     0
 62
     7
  6
CONTINUOUS
290
     0
370
    -3
390
1AE4D
  0
LAYER
  5
10B54
330
7467
100
AcDbSymbolTableRecord
100
AcDbLayerTableRecord
  2
仕様書枠
 70
     0
 62
   230
  6
CONTINUOUS
370
    -3
390
1AE4D
  0
LAYER
  5
11729
330
7467
100
AcDbSymbolTableRecord
100
AcDbLayerTableRecord
  2
Ｇ．Ｌ
 70
     0
 62
    30
  6
CONTINUOUS
370
    -3
390
1AE4D
  0
LAYER
  5
1173F
330
7467
100
AcDbSymbolTableRecord
100
AcDbLayerTableRecord
  2
細線
 70
     0
 62
     5
  6
CONTINUOUS
370
    -3
390
1AE4D
  0
LAYER
  5
15A90
330
7467
100
AcDbSymbolTableRecord
100
AcDbLayerTableRecord
  2
想像線
 70
     0
 62
     6
  6
PHANTOM
370
    -3
390
1AE4D
  0
LAYER
  5
188E2
330
7467
100
AcDbSymbolTableRecord
100
AcDbLayerTableRecord
  2
破線
 70
     0
 62
     2
  6
HIDDEN
370
    -3
390
1AE4D
  0
ENDTAB
  0
TABLE
  2
STYLE
  5
7468
330
0
100
AcDbSymbolTable
 70
     3
  0
STYLE
  5
7475
330
7468
100
AcDbSymbolTableRecord
100
AcDbTextStyleTableRecord
  2
STANDARD
 70
     0
 40
0.0
 41
1.0
 50
0.0
 71
     0
 42
4.0
  3
txt
  4
C:\AutoCAD LT\bigfont.shx
  0
STYLE
  5
F706
330
7468
100
AcDbSymbolTableRecord
100
AcDbTextStyleTableRecord
  2
STYLE1
 70
     0
 40
0.0
 41
1.0
 50
0.0
 71
     0
 42
4.0
  3
isocp.shx
  4
bigfont.shx
  0
STYLE
  5
103BF
330
7468
100
AcDbSymbolTableRecord
100
AcDbTextStyleTableRecord
  2
STYLE2
 70
     0
 40
0.0
 41
1.0
 50
0.0
 71
     0
 42
100.0
  3
MS PGothic.ttf
  4

1001
ACAD
1000
MS PGothic
1071
    32818
  0
ENDTAB
  0
TABLE
  2
VIEW
  5
746B
330
0
100
AcDbSymbolTable
 70
     0
  0
ENDTAB
  0
TABLE
  2
UCS
  5
746C
330
0
100
AcDbSymbolTable
 70
     0
  0
ENDTAB
  0
TABLE
  2
APPID
  5
746E
330
0
100
AcDbSymbolTable
 70
     6
  0
APPID
  5
7476
330
746E
100
AcDbSymbolTableRecord
100
AcDbRegAppTableRecord
  2
ACAD
 70
     0
  0
APPID
  5
DEA9
330
746E
100
AcDbSymbolTableRecord
100
AcDbRegAppTableRecord
  2
CONTENTBLOCKICON
 70
     0
  0
APPID
  5
DEAA
330
746E
100
AcDbSymbolTableRecord
100
AcDbRegAppTableRecord
  2
CONTENTBLOCKDESCRIPTION
 70
     0
  0
APPID
  5
E71D
330
746E
100
AcDbSymbolTableRecord
100
AcDbRegAppTableRecord
  2
CONTENTTABDATA
 70
     0
  0
APPID
  5
E71E
330
746E
100
AcDbSymbolTableRecord
100
AcDbRegAppTableRecord
  2
CONTENTCURRENTTAB
 70
     0
  0
APPID
  5
F3BA
330
746E
100
AcDbSymbolTableRecord
100
AcDbRegAppTableRecord
  2
DRAWINGVARIABLESXDATA
 70
     0
  0
ENDTAB
  0
TABLE
  2
DIMSTYLE
  5
746F
330
0
100
AcDbSymbolTable
 70
     2
100
AcDbDimStyleTable
 71
     0
  0
DIMSTYLE
105
7484
330
746F
100
AcDbSymbolTableRecord
100
AcDbDimStyleTableRecord
  2
JIS
 70
     0
 41
2.5
 42
1.0
 43
7.0
 44
1.0
 73
     0
 74
     0
 77
     1
 78
     8
140
2.5
141
0.0
143
0.0394
147
0.0
172
     1
174
     1
175
     1
340
7475
  0
DIMSTYLE
105
F71F
102
{ACAD_REACTORS
330
16C9C
330
16CB5
330
16CC3
330
16CDA
330
16D30
330
16D3C
330
1852D
330
1852B
330
1852F
330
1852C
330
1852E
330
185AE
330
185B1
330
185B4
330
185AD
330
185AF
330
185B3
330
1868C
330
186AF
330
18778
330
1A2E5
330
1852A
330
1A66D
330
1A66E
330
1A679
330
1A67A
330
1A67D
330
1A67E
330
1A681
330
1A683
330
1A693
330
1A694
330
1A6A6
330
1A6E2
330
1AC24
330
1AC25
330
1AC26
330
1AC27
330
1AC28
330
1AC29
330
1AC34
330
1AC3E
330
1AC96
330
1ACCC
330
1910F
102
}
330
746F
100
AcDbSymbolTableRecord
100
AcDbDimStyleTableRecord
  2
INABA_S50G
 70
     0
 41
125.0
 42
25.0
 43
7.0
 44
75.0
 73
     0
 74
     0
 77
     3
 78
     8
140
150.0
141
0.0
143
0.0394
147
25.0
172
     1
173
     1
174
     1
178
     7
271
     1
340
F706
341
F770
343
F770
344
F770
  0
ENDTAB
  0
TABLE
  2
BLOCK_RECORD
  5
7466
330
0
100
AcDbSymbolTable
 70
    46
  0
BLOCK_RECORD
  5
747D
102
{ACAD_XDICTIONARY
360
1AE7E
102
}
330
7466
100
AcDbSymbolTableRecord
100
AcDbBlockTableRecord
  2
*MODEL_SPACE
340
1AE50
  0
BLOCK_RECORD
  5
747A
102
{ACAD_XDICTIONARY
360
1AE7C
102
}
330
7466
100
AcDbSymbolTableRecord
100
AcDbBlockTableRecord
  2
*PAPER_SPACE
340
1AE51
  0
BLOCK_RECORD
  5
F770
330
7466
100
AcDbSymbolTableRecord
100
AcDbBlockTableRecord
  2
_DOTSMALL
340
0
102
{BLKREFS
331
18E54
331
18E55
331
1AE86
331
1AE87
331
18E3E
331
18E3F
331
1A964
331
1A965
331
187F9
331
187FA
331
1AE8E
331
1AE8F
331
18581
331
18582
331
1A868
331
1A869
331
18599
331
1859A
331
1A4EB
331
1A4EC
331
1A873
331
1A874
331
1A4D4
331
1A4D5
331
18629
331
1862A
331
1AE9E
331
1AE9F
331
1865B
331
1865C
331
1861D
331
1861E
331
1AE96
331
1AE97
331
1864F
331
18650
331
1A99E
331
1A99F
331
1A85D
331
1A85E
331
1A498
331
1A499
331
19282
331
19283
331
1A8A7
331
1A8A8
331
1A7C9
331
1A7CA
331
1A7D5
331
1A7D6
331
1A7E0
331
1A7E1
331
1AEA6
331
1AEA7
331
1A7F5
331
1A7F6
331
1AEAE
331
1AEAF
331
1A80A
331
1A80B
331
1A816
331
1A817
331
1A90E
331
1A90F
331
1AA34
331
1AA35
331
1A839
331
1A83A
331
1A8E2
331
1A8E3
331
1ADD5
331
1ADD6
331
1ADE0
331
1ADE1
331
1ADEC
331
1ADED
331
1ADF8
331
1ADF9
331
1AEB6
331
1AEB7
331
1AE0D
331
1AE0E
331
1AE18
331
1AE19
331
1AE24
331
1AE25
331
1AE30
331
1AE31
331
1AE3B
331
1AE3C
102
}
  0
BLOCK_RECORD
  5
16C8E
330
7466
100
AcDbSymbolTableRecord
100
AcDbBlockTableRecord
  2
*D1
340
0
  0
BLOCK_RECORD
  5
16CAA
330
7466
100
AcDbSymbolTableRecord
100
AcDbBlockTableRecord
  2
*D2
340
0
  0
BLOCK_RECORD
  5
16CB6
330
7466
100
AcDbSymbolTableRecord
100
AcDbBlockTableRecord
  2
*D3
340
0
  0
BLOCK_RECORD
  5
16CCE
330
7466
100
AcDbSymbolTableRecord
100
AcDbBlockTableRecord
  2
*D4
340
0
  0
BLOCK_RECORD
  5
16D22
330
7466
100
AcDbSymbolTableRecord
100
AcDbBlockTableRecord
  2
*D5
340
0
  0
BLOCK_RECORD
  5
16D31
330
7466
100
AcDbSymbolTableRecord
100
AcDbBlockTableRecord
  2
*D6
340
0
  0
BLOCK_RECORD
  5
18530
330
7466
100
AcDbSymbolTableRecord
100
AcDbBlockTableRecord
  2
*D7
340
0
  0
BLOCK_RECORD
  5
1853D
330
7466
100
AcDbSymbolTableRecord
100
AcDbBlockTableRecord
  2
*D8
340
0
  0
BLOCK_RECORD
  5
18549
330
7466
100
AcDbSymbolTableRecord
100
AcDbBlockTableRecord
  2
*D9
340
0
  0
BLOCK_RECORD
  5
18556
330
7466
100
AcDbSymbolTableRecord
100
AcDbBlockTableRecord
  2
*D10
340
0
  0
BLOCK_RECORD
  5
18563
330
7466
100
AcDbSymbolTableRecord
100
AcDbBlockTableRecord
  2
*D11
340
0
  0
BLOCK_RECORD
  5
1856F
330
7466
100
AcDbSymbolTableRecord
100
AcDbBlockTableRecord
  2
*D12
340
0
  0
BLOCK_RECORD
  5
185B5
330
7466
100
AcDbSymbolTableRecord
100
AcDbBlockTableRecord
  2
*D13
340
0
  0
BLOCK_RECORD
  5
185C2
330
7466
100
AcDbSymbolTableRecord
100
AcDbBlockTableRecord
  2
*D14
340
0
  0
BLOCK_RECORD
  5
185E5
330
7466
100
AcDbSymbolTableRecord
100
AcDbBlockTableRecord
  2
*D15
340
0
  0
BLOCK_RECORD
  5
185F2
330
7466
100
AcDbSymbolTableRecord
100
AcDbBlockTableRecord
  2
*D16
340
0
  0
BLOCK_RECORD
  5
185FF
330
7466
100
AcDbSymbolTableRecord
100
AcDbBlockTableRecord
  2
*D17
340
0
  0
BLOCK_RECORD
  5
1860A
330
7466
100
AcDbSymbolTableRecord
100
AcDbBlockTableRecord
  2
*D18
340
0
  0
BLOCK_RECORD
  5
1868D
330
7466
100
AcDbSymbolTableRecord
100
AcDbBlockTableRecord
  2
*D19
340
0
  0
BLOCK_RECORD
  5
186B0
330
7466
100
AcDbSymbolTableRecord
100
AcDbBlockTableRecord
  2
*D20
340
0
  0
BLOCK_RECORD
  5
1876C
330
7466
100
AcDbSymbolTableRecord
100
AcDbBlockTableRecord
  2
*D21
340
0
  0
BLOCK_RECORD
  5
19113
330
7466
100
AcDbSymbolTableRecord
100
AcDbBlockTableRecord
  2
*D22
340
0
  0
BLOCK_RECORD
  5
1A2D7
330
7466
100
AcDbSymbolTableRecord
100
AcDbBlockTableRecord
  2
*D23
340
0
  0
BLOCK_RECORD
  5
1A730
330
7466
100
AcDbSymbolTableRecord
100
AcDbBlockTableRecord
  2
*D24
340
0
  0
BLOCK_RECORD
  5
1A73D
330
7466
100
AcDbSymbolTableRecord
100
AcDbBlockTableRecord
  2
*D25
340
0
  0
BLOCK_RECORD
  5
1A74A
330
7466
100
AcDbSymbolTableRecord
100
AcDbBlockTableRecord
  2
*D26
340
0
  0
BLOCK_RECORD
  5
1A756
330
7466
100
AcDbSymbolTableRecord
100
AcDbBlockTableRecord
  2
*D27
340
0
  0
BLOCK_RECORD
  5
1A761
330
7466
100
AcDbSymbolTableRecord
100
AcDbBlockTableRecord
  2
*D28
340
0
  0
BLOCK_RECORD
  5
1A76D
330
7466
100
AcDbSymbolTableRecord
100
AcDbBlockTableRecord
  2
*D29
340
0
  0
BLOCK_RECORD
  5
1A778
330
7466
100
AcDbSymbolTableRecord
100
AcDbBlockTableRecord
  2
*D30
340
0
  0
BLOCK_RECORD
  5
1A784
330
7466
100
AcDbSymbolTableRecord
100
AcDbBlockTableRecord
  2
*D31
340
0
  0
BLOCK_RECORD
  5
1A791
330
7466
100
AcDbSymbolTableRecord
100
AcDbBlockTableRecord
  2
*D32
340
0
  0
BLOCK_RECORD
  5
1A79E
330
7466
100
AcDbSymbolTableRecord
100
AcDbBlockTableRecord
  2
*D33
340
0
  0
BLOCK_RECORD
  5
1A7AB
330
7466
100
AcDbSymbolTableRecord
100
AcDbBlockTableRecord
  2
*D34
340
0
  0
BLOCK_RECORD
  5
1A7B7
330
7466
100
AcDbSymbolTableRecord
100
AcDbBlockTableRecord
  2
*D35
340
0
  0
BLOCK_RECORD
  5
1AD56
330
7466
100
AcDbSymbolTableRecord
100
AcDbBlockTableRecord
  2
*D36
340
0
  0
BLOCK_RECORD
  5
1AD62
330
7466
100
AcDbSymbolTableRecord
100
AcDbBlockTableRecord
  2
*D37
340
0
  0
BLOCK_RECORD
  5
1AD6E
330
7466
100
AcDbSymbolTableRecord
100
AcDbBlockTableRecord
  2
*D38
340
0
  0
BLOCK_RECORD
  5
1AD7B
330
7466
100
AcDbSymbolTableRecord
100
AcDbBlockTableRecord
  2
*D39
340
0
  0
BLOCK_RECORD
  5
1AD88
330
7466
100
AcDbSymbolTableRecord
100
AcDbBlockTableRecord
  2
*D40
340
0
  0
BLOCK_RECORD
  5
1AD93
330
7466
100
AcDbSymbolTableRecord
100
AcDbBlockTableRecord
  2
*D41
340
0
  0
BLOCK_RECORD
  5
1AD9F
330
7466
100
AcDbSymbolTableRecord
100
AcDbBlockTableRecord
  2
*D42
340
0
  0
BLOCK_RECORD
  5
1ADAB
330
7466
100
AcDbSymbolTableRecord
100
AcDbBlockTableRecord
  2
*D43
340
0
  0
BLOCK_RECORD
  5
1ADB8
330
7466
100
AcDbSymbolTableRecord
100
AcDbBlockTableRecord
  2
*D44
340
0
  0
BLOCK_RECORD
  5
1ADC5
330
7466
100
AcDbSymbolTableRecord
100
AcDbBlockTableRecord
  2
*D45
340
0
  0
ENDTAB
  0
ENDSEC
  0
SECTION
  2
BLOCKS
  0
BLOCK
  5
7489
330
747D
100
AcDbEntity
  8
0
100
AcDbBlockBegin
  2
*MODEL_SPACE
 70
     0
 10
0.0
 20
0.0
 30
0.0
  3
*MODEL_SPACE
  1

  0
ENDBLK
  5
748A
330
747D
100
AcDbEntity
  8
0
100
AcDbBlockEnd
  0
BLOCK
  5
7487
330
747A
100
AcDbEntity
 67
     1
  8
0
100
AcDbBlockBegin
  2
*PAPER_SPACE
 70
     0
 10
0.0
 20
0.0
 30
0.0
  3
*PAPER_SPACE
  1

  0
ENDBLK
  5
7488
330
747A
100
AcDbEntity
 67
     1
  8
0
100
AcDbBlockEnd
  0
BLOCK
  5
F771
330
F770
100
AcDbEntity
  8
0
 48
50.0
100
AcDbBlockBegin
  2
_DOTSMALL
 70
     0
 10
0.0
 20
0.0
 30
0.0
  3
_DOTSMALL
  1

  0
LWPOLYLINE
  5
F772
330
F770
100
AcDbEntity
  8
0
  6
ByBlock
 62
     0
 48
50.0
100
AcDbPolyline
 90
        2
 70
     1
 43
0.5
 10
-0.0625
 20
0.0
 42
1.0
 10
0.0625
 20
0.0
 42
1.0
  0
ENDBLK
  5
F776
330
F770
100
AcDbEntity
  8
0
 48
50.0
100
AcDbBlockEnd
  0
BLOCK
  5
18E4F
330
16C8E
100
AcDbEntity
  8
0
 48
50.0
100
AcDbBlockBegin
  2
*D1
 70
     1
 10
0.0
 20
0.0
 30
0.0
  3
*D1
  1

  0
LINE
  5
18E50
330
16C8E
100
AcDbEntity
  8
0
  6
ByBlock
 62
     0
 48
50.0
100
AcDbLine
 10
4137.829577048345
 20
5364.000002624809
 30
0.0
 11
4137.829577048345
 21
6143.281130716521
 31
0.0
  0
LINE
  5
18E51
330
16C8E
100
AcDbEntity
  8
0
  6
ByBlock
 62
     0
 48
50.0
100
AcDbLine
 10
4192.829581418172
 20
5400.000000008468
 30
0.0
 11
4192.829581418172
 21
6143.281130716521
 31
0.0
  0
LINE
  5
18E52
330
16C8E
100
AcDbEntity
  8
0
  6
ByBlock
 62
     0
 48
50.0
100
AcDbLine
 10
4192.829581418172
 20
6068.28113071652
 30
0.0
 11
4137.829577048345
 21
6068.28113071652
 31
0.0
  0
LINE
  5
18E53
330
16C8E
100
AcDbEntity
  8
0
  6
ByBlock
 62
     0
 48
50.0
100
AcDbLine
 10
4137.829577048345
 20
6068.28113071652
 30
0.0
 11
3702.163924582261
 21
6068.28113071652
 31
0.0
  0
INSERT
  5
18E54
330
16C8E
100
AcDbEntity
  8
0
  6
ByBlock
 62
     0
 48
50.0
100
AcDbBlockReference
  2
_DOTSMALL
 10
4192.829581418172
 20
6068.28113071652
 30
0.0
 41
125.0
 42
125.0
 43
125.0
  0
INSERT
  5
18E55
330
16C8E
100
AcDbEntity
  8
0
  6
ByBlock
 62
     0
 48
50.0
100
AcDbBlockReference
  2
_DOTSMALL
 10
4137.829577048345
 20
6068.28113071652
 30
0.0
 41
125.0
 42
125.0
 43
125.0
 50
180.0
  0
MTEXT
  5
18E56
330
16C8E
100
AcDbEntity
  8
0
  6
ByBlock
 62
     7
 48
50.0
100
AcDbMText
 10
3812.770526300059
 20
6168.281130716521
 30
0.0
 40
150.0
 41
0.0
 71
     5
 72
     1
  1
\A1;55
  7
STYLE1
 73
     1
 44
1.0
  0
POINT
  5
18E57
330
16C8E
100
AcDbEntity
  8
DEFPOINTS
  6
ByBlock
 62
     0
 48
50.0
100
AcDbPoint
 10
4137.829577048345
 20
5339.000002624809
 30
0.0
  0
POINT
  5
18E58
330
16C8E
100
AcDbEntity
  8
DEFPOINTS
  6
ByBlock
 62
     0
 48
50.0
100
AcDbPoint
 10
4192.829581418172
 20
5375.000000008467
 30
0.0
  0
POINT
  5
18E59
330
16C8E
100
AcDbEntity
  8
DEFPOINTS
  6
ByBlock
 62
     0
 48
50.0
100
AcDbPoint
 10
4192.829581418172
 20
6068.28113071652
 30
0.0
  0
ENDBLK
  5
18E5A
330
16C8E
100
AcDbEntity
  8
0
 48
50.0
100
AcDbBlockEnd
  0
BLOCK
  5
1A96B
330
16CAA
100
AcDbEntity
  8
0
 48
50.0
100
AcDbBlockBegin
  2
*D2
 70
     1
 10
0.0
 20
0.0
 30
0.0
  3
*D2
  1

  0
LINE
  5
1AE84
330
16CAA
100
AcDbEntity
  8
寸法
 62
     0
 48
50.0
100
AcDbLine
 10
8752.829581418172
 20
5740.000000008446
 30
0.0
 11
8752.829581418172
 21
6483.281130716521
 31
0.0
  0
LINE
  5
1AE85
330
16CAA
100
AcDbEntity
  8
寸法
 62
     0
 48
50.0
100
AcDbLine
 10
5712.829581418173
 20
6408.281130716521
 30
0.0
 11
8752.829581418172
 21
6408.281130716521
 31
0.0
  0
INSERT
  5
1AE86
330
16CAA
100
AcDbEntity
  8
寸法
 62
     0
 48
50.0
100
AcDbBlockReference
  2
_DOTSMALL
 10
5712.829581418173
 20
6408.281130716521
 30
0.0
 41
125.0
 42
125.0
 43
125.0
 50
180.0
  0
INSERT
  5
1AE87
330
16CAA
100
AcDbEntity
  8
寸法
 62
     0
 48
50.0
100
AcDbBlockReference
  2
_DOTSMALL
 10
8752.829581418172
 20
6408.281130716521
 30
0.0
 41
125.0
 42
125.0
 43
125.0
  0
MTEXT
  5
1AE88
330
16CAA
100
AcDbEntity
  8
寸法
 62
     7
 48
50.0
100
AcDbMText
 10
7232.829581418172
 20
6508.281130716522
 30
0.0
 40
150.0
 41
0.0
 71
     5
 72
     1
  1
\A1;柱外寸法 3040
  7
STYLE1
 73
     1
 44
1.0
  0
POINT
  5
1AE89
330
16CAA
100
AcDbEntity
  8
DEFPOINTS
 62
     0
 48
50.0
100
AcDbPoint
 10
5712.829581418173
 20
5715.000000008467
 30
0.0
  0
POINT
  5
1AE8A
330
16CAA
100
AcDbEntity
  8
DEFPOINTS
 62
     0
 48
50.0
100
AcDbPoint
 10
8752.829581418172
 20
5715.000000008447
 30
0.0
  0
POINT
  5
1AE8B
330
16CAA
100
AcDbEntity
  8
DEFPOINTS
 62
     0
 48
50.0
100
AcDbPoint
 10
8752.829581418172
 20
6408.281130716521
 30
0.0
  0
ENDBLK
  5
1A974
330
16CAA
100
AcDbEntity
  8
0
 48
50.0
100
AcDbBlockEnd
  0
BLOCK
  5
18E39
330
16CB6
100
AcDbEntity
  8
0
 48
50.0
100
AcDbBlockBegin
  2
*D3
 70
     1
 10
0.0
 20
0.0
 30
0.0
  3
*D3
  1

  0
LINE
  5
18E3A
330
16CB6
100
AcDbEntity
  8
0
  6
ByBlock
 62
     0
 48
50.0
100
AcDbLine
 10
9112.829581418171
 20
5400.000000008446
 30
0.0
 11
9112.829581418171
 21
6143.281130716521
 31
0.0
  0
LINE
  5
18E3B
330
16CB6
100
AcDbEntity
  8
0
  6
ByBlock
 62
     0
 48
50.0
100
AcDbLine
 10
9167.829581418175
 20
5364.000002624809
 30
0.0
 11
9167.829581418175
 21
6143.281130716521
 31
0.0
  0
LINE
  5
18E3C
330
16CB6
100
AcDbEntity
  8
0
  6
ByBlock
 62
     0
 48
50.0
100
AcDbLine
 10
9112.829581418171
 20
6068.28113071652
 30
0.0
 11
9167.829581418175
 21
6068.28113071652
 31
0.0
  0
LINE
  5
18E3D
330
16CB6
100
AcDbEntity
  8
0
  6
ByBlock
 62
     0
 48
50.0
100
AcDbLine
 10
9167.829581418175
 20
6068.28113071652
 30
0.0
 11
9593.495238254083
 21
6068.28113071652
 31
0.0
  0
INSERT
  5
18E3E
330
16CB6
100
AcDbEntity
  8
0
  6
ByBlock
 62
     0
 48
50.0
100
AcDbBlockReference
  2
_DOTSMALL
 10
9112.829581418171
 20
6068.28113071652
 30
0.0
 41
125.0
 42
125.0
 43
125.0
 50
180.0
  0
INSERT
  5
18E3F
330
16CB6
100
AcDbEntity
  8
0
  6
ByBlock
 62
     0
 48
50.0
100
AcDbBlockReference
  2
_DOTSMALL
 10
9167.829581418175
 20
6068.28113071652
 30
0.0
 41
125.0
 42
125.0
 43
125.0
  0
MTEXT
  5
18E40
330
16CB6
100
AcDbEntity
  8
0
  6
ByBlock
 62
     7
 48
50.0
100
AcDbMText
 10
9482.888636536285
 20
6168.281130716521
 30
0.0
 40
150.0
 41
0.0
 71
     5
 72
     1
  1
\A1;55
  7
STYLE1
 73
     1
 44
1.0
  0
POINT
  5
18E41
330
16CB6
100
AcDbEntity
  8
DEFPOINTS
  6
ByBlock
 62
     0
 48
50.0
100
AcDbPoint
 10
9112.829581418171
 20
5375.000000008445
 30
0.0
  0
POINT
  5
18E42
330
16CB6
100
AcDbEntity
  8
DEFPOINTS
  6
ByBlock
 62
     0
 48
50.0
100
AcDbPoint
 10
9167.829581418175
 20
5339.000002624809
 30
0.0
  0
POINT
  5
18E43
330
16CB6
100
AcDbEntity
  8
DEFPOINTS
  6
ByBlock
 62
     0
 48
50.0
100
AcDbPoint
 10
9167.829581418175
 20
6068.28113071652
 30
0.0
  0
ENDBLK
  5
18E44
330
16CB6
100
AcDbEntity
  8
0
 48
50.0
100
AcDbBlockEnd
  0
BLOCK
  5
1A960
330
16CCE
100
AcDbEntity
  8
0
 48
50.0
100
AcDbBlockBegin
  2
*D4
 70
     1
 10
0.0
 20
0.0
 30
0.0
  3
*D4
  1

  0
LINE
  5
1A961
330
16CCE
100
AcDbEntity
  8
0
  6
ByBlock
 62
     0
 48
50.0
100
AcDbLine
 10
4787.829577048345
 20
5704.000002624809
 30
0.0
 11
4787.829577048345
 21
6751.068854554545
 31
0.0
  0
LINE
  5
1A962
330
16CCE
100
AcDbEntity
  8
0
  6
ByBlock
 62
     0
 48
50.0
100
AcDbLine
 10
7937.829581418175
 20
5704.000002624809
 30
0.0
 11
7937.829581418175
 21
6751.068854554545
 31
0.0
  0
LINE
  5
1A963
330
16CCE
100
AcDbEntity
  8
0
  6
ByBlock
 62
     0
 48
50.0
100
AcDbLine
 10
4787.829577048345
 20
6676.068854554545
 30
0.0
 11
7937.829581418175
 21
6676.068854554545
 31
0.0
  0
INSERT
  5
1A964
330
16CCE
100
AcDbEntity
  8
0
  6
ByBlock
 62
     0
 48
50.0
100
AcDbBlockReference
  2
_DOTSMALL
 10
4787.829577048345
 20
6676.068854554545
 30
0.0
 41
125.0
 42
125.0
 43
125.0
 50
180.0
  0
INSERT
  5
1A965
330
16CCE
100
AcDbEntity
  8
0
  6
ByBlock
 62
     0
 48
50.0
100
AcDbBlockReference
  2
_DOTSMALL
 10
7937.829581418175
 20
6676.068854554545
 30
0.0
 41
125.0
 42
125.0
 43
125.0
  0
MTEXT
  5
1A966
330
16CCE
100
AcDbEntity
  8
0
  6
ByBlock
 62
     7
 48
50.0
100
AcDbMText
 10
6362.82957923326
 20
6776.068854554544
 30
0.0
 40
150.0
 41
0.0
 71
     5
 72
     1
  1
\A1;3150
  7
STYLE1
 73
     1
 44
1.0
  0
POINT
  5
1A967
330
16CCE
100
AcDbEntity
  8
DEFPOINTS
  6
ByBlock
 62
     0
 48
50.0
100
AcDbPoint
 10
4787.829577048345
 20
5679.000002624809
 30
0.0
  0
POINT
  5
1A968
330
16CCE
100
AcDbEntity
  8
DEFPOINTS
  6
ByBlock
 62
     0
 48
50.0
100
AcDbPoint
 10
7937.829581418175
 20
5679.000002624809
 30
0.0
  0
POINT
  5
1A969
330
16CCE
100
AcDbEntity
  8
DEFPOINTS
  6
ByBlock
 62
     0
 48
50.0
100
AcDbPoint
 10
7937.829581418175
 20
6676.068854554545
 30
0.0
  0
ENDBLK
  5
1A96A
330
16CCE
100
AcDbEntity
  8
0
 48
50.0
100
AcDbBlockEnd
  0
BLOCK
  5
187F4
330
16D22
100
AcDbEntity
  8
0
 48
50.0
100
AcDbBlockBegin
  2
*D5
 70
     1
 10
0.0
 20
0.0
 30
0.0
  3
*D5
  1

  0
LINE
  5
187F5
330
16D22
100
AcDbEntity
  8
0
  6
ByBlock
 62
     0
 48
50.0
100
AcDbLine
 10
9137.829581418172
 20
2935.0
 30
0.0
 11
9843.934533249726
 21
2935.0
 31
0.0
  0
LINE
  5
187F6
330
16D22
100
AcDbEntity
  8
0
  6
ByBlock
 62
     0
 48
50.0
100
AcDbLine
 10
9137.829581418172
 20
3002.0
 30
0.0
 11
9843.934533249726
 21
3002.0
 31
0.0
  0
LINE
  5
187F7
330
16D22
100
AcDbEntity
  8
0
  6
ByBlock
 62
     0
 48
50.0
100
AcDbLine
 10
9768.934533249726
 20
3002.0
 30
0.0
 11
9768.934533249726
 21
2935.0
 31
0.0
  0
LINE
  5
187F8
330
16D22
100
AcDbEntity
  8
0
  6
ByBlock
 62
     0
 48
50.0
100
AcDbLine
 10
9768.934533249726
 20
2935.0
 30
0.0
 11
9768.934533249726
 21
2526.709408511117
 31
0.0
  0
INSERT
  5
187F9
330
16D22
100
AcDbEntity
  8
0
  6
ByBlock
 62
     0
 48
50.0
100
AcDbBlockReference
  2
_DOTSMALL
 10
9768.934533249726
 20
3002.0
 30
0.0
 41
125.0
 42
125.0
 43
125.0
 50
90.0
  0
INSERT
  5
187FA
330
16D22
100
AcDbEntity
  8
0
  6
ByBlock
 62
     0
 48
50.0
100
AcDbBlockReference
  2
_DOTSMALL
 10
9768.934533249726
 20
2935.0
 30
0.0
 41
125.0
 42
125.0
 43
125.0
 50
270.0
  0
MTEXT
  5
187FB
330
16D22
100
AcDbEntity
  8
0
  6
ByBlock
 62
     7
 48
50.0
100
AcDbMText
 10
9668.934533249725
 20
2638.697597487495
 30
0.0
 40
150.0
 41
0.0
 71
     5
 72
     1
  1
\A1;67
  7
STYLE1
 11
0.0000000000000001
 21
1.0
 31
0.0
 73
     1
 44
1.0
  0
POINT
  5
187FC
330
16D22
100
AcDbEntity
  8
DEFPOINTS
  6
ByBlock
 62
     0
 48
50.0
100
AcDbPoint
 10
9112.829581418173
 20
2935.0
 30
0.0
  0
POINT
  5
187FD
330
16D22
100
AcDbEntity
  8
DEFPOINTS
  6
ByBlock
 62
     0
 48
50.0
100
AcDbPoint
 10
9112.829581418173
 20
3002.0
 30
0.0
  0
POINT
  5
187FE
330
16D22
100
AcDbEntity
  8
DEFPOINTS
  6
ByBlock
 62
     0
 48
50.0
100
AcDbPoint
 10
9768.934533249726
 20
3002.0
 30
0.0
  0
ENDBLK
  5
187FF
330
16D22
100
AcDbEntity
  8
0
 48
50.0
100
AcDbBlockEnd
  0
BLOCK
  5
1AA43
330
16D31
100
AcDbEntity
  8
0
 48
50.0
100
AcDbBlockBegin
  2
*D6
 70
     1
 10
0.0
 20
0.0
 30
0.0
  3
*D6
  1

  0
LINE
  5
1AE8C
330
16D31
100
AcDbEntity
  8
寸法
 62
     0
 48
50.0
100
AcDbLine
 10
8777.829581418172
 20
5472.0
 30
0.0
 11
9483.934533249724
 21
5472.0
 31
0.0
  0
LINE
  5
1AE8D
330
16D31
100
AcDbEntity
  8
寸法
 62
     0
 48
50.0
100
AcDbLine
 10
9408.934533249723
 20
3341.999999999999
 30
0.0
 11
9408.934533249725
 21
5472.0
 31
0.0
  0
INSERT
  5
1AE8E
330
16D31
100
AcDbEntity
  8
寸法
 62
     0
 48
50.0
100
AcDbBlockReference
  2
_DOTSMALL
 10
9408.934533249723
 20
3341.999999999999
 30
0.0
 41
125.0
 42
125.0
 43
125.0
 50
270.0
  0
INSERT
  5
1AE8F
330
16D31
100
AcDbEntity
  8
寸法
 62
     0
 48
50.0
100
AcDbBlockReference
  2
_DOTSMALL
 10
9408.934533249725
 20
5472.0
 30
0.0
 41
125.0
 42
125.0
 43
125.0
 50
90.0
  0
MTEXT
  5
1AE90
330
16D31
100
AcDbEntity
  8
寸法
 62
     7
 48
50.0
100
AcDbMText
 10
9308.919769470197
 20
4407.0
 30
0.0
 40
150.0
 41
0.0
 71
     5
 72
     1
  1
\A1;内高 2130
  7
STYLE1
 11
0.0000000000000001
 21
1.0
 31
0.0
 73
     1
 44
1.0
  0
POINT
  5
1AE91
330
16D31
100
AcDbEntity
  8
DEFPOINTS
 62
     0
 48
50.0
100
AcDbPoint
 10
8752.829581418174
 20
3342.0
 30
0.0
  0
POINT
  5
1AE92
330
16D31
100
AcDbEntity
  8
DEFPOINTS
 62
     0
 48
50.0
100
AcDbPoint
 10
8752.829581418172
 20
5472.0
 30
0.0
  0
POINT
  5
1AE93
330
16D31
100
AcDbEntity
  8
DEFPOINTS
 62
     0
 48
50.0
100
AcDbPoint
 10
9408.934533249725
 20
5472.0
 30
0.0
  0
ENDBLK
  5
1AA4C
330
16D31
100
AcDbEntity
  8
0
 48
50.0
100
AcDbBlockEnd
  0
BLOCK
  5
1857C
330
18530
100
AcDbEntity
  8
0
 48
50.0
100
AcDbBlockBegin
  2
*D7
 70
     1
 10
0.0
 20
0.0
 30
0.0
  3
*D7
  1

  0
LINE
  5
1857D
330
18530
100
AcDbEntity
  8
0
  6
ByBlock
 62
     0
 48
50.0
100
AcDbLine
 10
16722.46242649134
 20
9602.681515694126
 30
0.0
 11
17593.79817887432
 21
9602.681515694126
 31
0.0
  0
LINE
  5
1857E
330
18530
100
AcDbEntity
  8
0
  6
ByBlock
 62
     0
 48
50.0
100
AcDbLine
 10
16732.46242649134
 20
9672.681515694129
 30
0.0
 11
17593.79817887432
 21
9672.681515694129
 31
0.0
  0
LINE
  5
1857F
330
18530
100
AcDbEntity
  8
0
  6
ByBlock
 62
     0
 48
50.0
100
AcDbLine
 10
17518.79817887432
 20
9672.681515694129
 30
0.0
 11
17518.79817887432
 21
9602.681515694126
 31
0.0
  0
LINE
  5
18580
330
18530
100
AcDbEntity
  8
0
  6
ByBlock
 62
     0
 48
50.0
100
AcDbLine
 10
17518.79817887432
 20
9602.681515694126
 30
0.0
 11
17518.79817887432
 21
9262.563405457903
 31
0.0
  0
INSERT
  5
18581
330
18530
100
AcDbEntity
  8
0
  6
ByBlock
 62
     0
 48
50.0
100
AcDbBlockReference
  2
_DOTSMALL
 10
17518.79817887432
 20
9672.681515694129
 30
0.0
 41
125.0
 42
125.0
 43
125.0
 50
90.0
  0
INSERT
  5
18582
330
18530
100
AcDbEntity
  8
0
  6
ByBlock
 62
     0
 48
50.0
100
AcDbBlockReference
  2
_DOTSMALL
 10
17518.79817887432
 20
9602.681515694126
 30
0.0
 41
125.0
 42
125.0
 43
125.0
 50
270.0
  0
MTEXT
  5
18583
330
18530
100
AcDbEntity
  8
0
  6
ByBlock
 62
     7
 48
50.0
100
AcDbMText
 10
17418.79817887432
 20
9370.122460576014
 30
0.0
 40
150.0
 41
0.0
 71
     5
 72
     1
  1
\A1;70
  7
STYLE1
 11
0.0000000000000001
 21
1.0
 31
0.0
 73
     1
 44
1.0
  0
POINT
  5
18584
330
18530
100
AcDbEntity
  8
DEFPOINTS
  6
ByBlock
 62
     0
 48
50.0
100
AcDbPoint
 10
16697.46242649134
 20
9602.681515694126
 30
0.0
  0
POINT
  5
18585
330
18530
100
AcDbEntity
  8
DEFPOINTS
  6
ByBlock
 62
     0
 48
50.0
100
AcDbPoint
 10
16707.46242649134
 20
9672.681515694129
 30
0.0
  0
POINT
  5
18586
330
18530
100
AcDbEntity
  8
DEFPOINTS
  6
ByBlock
 62
     0
 48
50.0
100
AcDbPoint
 10
17518.79817887432
 20
9672.681515694129
 30
0.0
  0
ENDBLK
  5
18587
330
18530
100
AcDbEntity
  8
0
 48
50.0
100
AcDbBlockEnd
  0
BLOCK
  5
1A864
330
1853D
100
AcDbEntity
  8
0
 48
50.0
100
AcDbBlockBegin
  2
*D8
 70
     1
 10
0.0
 20
0.0
 30
0.0
  3
*D8
  1

  0
LINE
  5
1A865
330
1853D
100
AcDbEntity
  8
0
  6
ByBlock
 62
     0
 48
50.0
100
AcDbLine
 10
8487.829581418177
 20
9298.736797361975
 30
0.0
 11
9349.165333801144
 21
9298.736797361975
 31
0.0
  0
LINE
  5
1A866
330
1853D
100
AcDbEntity
  8
0
  6
ByBlock
 62
     0
 48
50.0
100
AcDbLine
 10
8487.829581418177
 20
11618.73679736197
 30
0.0
 11
9349.165333801144
 21
11618.73679736197
 31
0.0
  0
LINE
  5
1A867
330
1853D
100
AcDbEntity
  8
0
  6
ByBlock
 62
     0
 48
50.0
100
AcDbLine
 10
9274.165333801144
 20
9298.736797361975
 30
0.0
 11
9274.165333801144
 21
11618.73679736197
 31
0.0
  0
INSERT
  5
1A868
330
1853D
100
AcDbEntity
  8
0
  6
ByBlock
 62
     0
 48
50.0
100
AcDbBlockReference
  2
_DOTSMALL
 10
9274.165333801144
 20
9298.736797361975
 30
0.0
 41
125.0
 42
125.0
 43
125.0
 50
270.0
  0
INSERT
  5
1A869
330
1853D
100
AcDbEntity
  8
0
  6
ByBlock
 62
     0
 48
50.0
100
AcDbBlockReference
  2
_DOTSMALL
 10
9274.165333801144
 20
11618.73679736197
 30
0.0
 41
125.0
 42
125.0
 43
125.0
 50
90.0
  0
MTEXT
  5
1A86A
330
1853D
100
AcDbEntity
  8
0
  6
ByBlock
 62
     7
 48
50.0
100
AcDbMText
 10
9174.150570021616
 20
10458.73679736197
 30
0.0
 40
150.0
 41
0.0
 71
     5
 72
     1
  1
\A1;4x580=2320
  7
STYLE1
 11
0.0000000000000001
 21
1.0
 31
0.0
 73
     1
 44
1.0
  0
POINT
  5
1A86B
330
1853D
100
AcDbEntity
  8
DEFPOINTS
  6
ByBlock
 62
     0
 48
50.0
100
AcDbPoint
 10
8462.829581418176
 20
9298.736797361975
 30
0.0
  0
POINT
  5
1A86C
330
1853D
100
AcDbEntity
  8
DEFPOINTS
  6
ByBlock
 62
     0
 48
50.0
100
AcDbPoint
 10
8462.829581418176
 20
11618.73679736197
 30
0.0
  0
POINT
  5
1A86D
330
1853D
100
AcDbEntity
  8
DEFPOINTS
  6
ByBlock
 62
     0
 48
50.0
100
AcDbPoint
 10
9274.165333801144
 20
11618.73679736197
 30
0.0
  0
ENDBLK
  5
1A86E
330
1853D
100
AcDbEntity
  8
0
 48
50.0
100
AcDbBlockEnd
  0
BLOCK
  5
18594
330
18549
100
AcDbEntity
  8
0
 48
50.0
100
AcDbBlockBegin
  2
*D9
 70
     1
 10
0.0
 20
0.0
 30
0.0
  3
*D9
  1

  0
LINE
  5
18595
330
18549
100
AcDbEntity
  8
0
  6
ByBlock
 62
     0
 48
50.0
100
AcDbLine
 10
16732.46242649134
 20
12572.68151569412
 30
0.0
 11
17593.79817887431
 21
12572.68151569412
 31
0.0
  0
LINE
  5
18596
330
18549
100
AcDbEntity
  8
0
  6
ByBlock
 62
     0
 48
50.0
100
AcDbLine
 10
16722.46242649134
 20
12642.68151569412
 30
0.0
 11
17593.79817887431
 21
12642.68151569412
 31
0.0
  0
LINE
  5
18597
330
18549
100
AcDbEntity
  8
0
  6
ByBlock
 62
     0
 48
50.0
100
AcDbLine
 10
17518.79817887431
 20
12572.68151569412
 30
0.0
 11
17518.79817887431
 21
12642.68151569412
 31
0.0
  0
LINE
  5
18598
330
18549
100
AcDbEntity
  8
0
  6
ByBlock
 62
     0
 48
50.0
100
AcDbLine
 10
17518.79817887431
 20
12642.68151569412
 30
0.0
 11
17518.79817887431
 21
12982.79962593034
 31
0.0
  0
INSERT
  5
18599
330
18549
100
AcDbEntity
  8
0
  6
ByBlock
 62
     0
 48
50.0
100
AcDbBlockReference
  2
_DOTSMALL
 10
17518.79817887431
 20
12572.68151569412
 30
0.0
 41
125.0
 42
125.0
 43
125.0
 50
270.0
  0
INSERT
  5
1859A
330
18549
100
AcDbEntity
  8
0
  6
ByBlock
 62
     0
 48
50.0
100
AcDbBlockReference
  2
_DOTSMALL
 10
17518.79817887431
 20
12642.68151569412
 30
0.0
 41
125.0
 42
125.0
 43
125.0
 50
90.0
  0
MTEXT
  5
1859B
330
18549
100
AcDbEntity
  8
0
  6
ByBlock
 62
     7
 48
50.0
100
AcDbMText
 10
17418.79817887431
 20
12875.24057081223
 30
0.0
 40
150.0
 41
0.0
 71
     5
 72
     1
  1
\A1;70
  7
STYLE1
 11
0.0000000000000001
 21
1.0
 31
0.0
 73
     1
 44
1.0
  0
POINT
  5
1859C
330
18549
100
AcDbEntity
  8
DEFPOINTS
  6
ByBlock
 62
     0
 48
50.0
100
AcDbPoint
 10
16707.46242649134
 20
12572.68151569412
 30
0.0
  0
POINT
  5
1859D
330
18549
100
AcDbEntity
  8
DEFPOINTS
  6
ByBlock
 62
     0
 48
50.0
100
AcDbPoint
 10
16697.46242649134
 20
12642.68151569412
 30
0.0
  0
POINT
  5
1859E
330
18549
100
AcDbEntity
  8
DEFPOINTS
  6
ByBlock
 62
     0
 48
50.0
100
AcDbPoint
 10
17518.79817887431
 20
12642.68151569412
 30
0.0
  0
ENDBLK
  5
1859F
330
18549
100
AcDbEntity
  8
0
 48
50.0
100
AcDbBlockEnd
  0
BLOCK
  5
1A4E6
330
18556
100
AcDbEntity
  8
0
 48
50.0
100
AcDbBlockBegin
  2
*D10
 70
     1
 10
0.0
 20
0.0
 30
0.0
  3
*D10
  1

  0
LINE
  5
1A4E7
330
18556
100
AcDbEntity
  8
0
  6
ByBlock
 62
     0
 48
50.0
100
AcDbLine
 10
8477.829581418175
 20
9228.736797361971
 30
0.0
 11
9651.969337719759
 21
9228.736797361971
 31
0.0
  0
LINE
  5
1A4E8
330
18556
100
AcDbEntity
  8
0
  6
ByBlock
 62
     0
 48
50.0
100
AcDbLine
 10
9299.165333801147
 20
9278.736797361975
 30
0.0
 11
9651.969337719759
 21
9278.736797361975
 31
0.0
  0
LINE
  5
1A4E9
330
18556
100
AcDbEntity
  8
0
  6
ByBlock
 62
     0
 48
50.0
100
AcDbLine
 10
9576.969337719758
 20
9278.736797361975
 30
0.0
 11
9576.969337719758
 21
9228.736797361971
 31
0.0
  0
LINE
  5
1A4EA
330
18556
100
AcDbEntity
  8
0
  6
ByBlock
 62
     0
 48
50.0
100
AcDbLine
 10
9576.969337719758
 20
9228.736797361971
 30
0.0
 11
9576.969337719758
 21
8884.130498149373
 31
0.0
  0
INSERT
  5
1A4EB
330
18556
100
AcDbEntity
  8
0
  6
ByBlock
 62
     0
 48
50.0
100
AcDbBlockReference
  2
_DOTSMALL
 10
9576.969337719758
 20
9278.736797361975
 30
0.0
 41
125.0
 42
125.0
 43
125.0
 50
90.0
  0
INSERT
  5
1A4EC
330
18556
100
AcDbEntity
  8
0
  6
ByBlock
 62
     0
 48
50.0
100
AcDbBlockReference
  2
_DOTSMALL
 10
9576.969337719758
 20
9228.736797361971
 30
0.0
 41
125.0
 42
125.0
 43
125.0
 50
270.0
  0
MTEXT
  5
1A4ED
330
18556
100
AcDbEntity
  8
0
  6
ByBlock
 62
     7
 48
50.0
100
AcDbMText
 10
9476.969337719758
 20
8991.689553267482
 30
0.0
 40
150.0
 41
0.0
 71
     5
 72
     1
  1
\A1;50
  7
STYLE1
 11
0.0000000000000001
 21
1.0
 31
0.0
 73
     1
 44
1.0
  0
POINT
  5
1A4EE
330
18556
100
AcDbEntity
  8
DEFPOINTS
  6
ByBlock
 62
     0
 48
50.0
100
AcDbPoint
 10
8452.829581418177
 20
9228.736797361971
 30
0.0
  0
POINT
  5
1A4EF
330
18556
100
AcDbEntity
  8
DEFPOINTS
  6
ByBlock
 62
     0
 48
50.0
100
AcDbPoint
 10
9274.165333801148
 20
9278.736797361975
 30
0.0
  0
POINT
  5
1A4F0
330
18556
100
AcDbEntity
  8
DEFPOINTS
  6
ByBlock
 62
     0
 48
50.0
100
AcDbPoint
 10
9576.969337719758
 20
9278.736797361975
 30
0.0
  0
ENDBLK
  5
1A4F1
330
18556
100
AcDbEntity
  8
0
 48
50.0
100
AcDbBlockEnd
  0
BLOCK
  5
1A86F
330
18563
100
AcDbEntity
  8
0
 48
50.0
100
AcDbBlockBegin
  2
*D11
 70
     1
 10
0.0
 20
0.0
 30
0.0
  3
*D11
  1

  0
LINE
  5
1A870
330
18563
100
AcDbEntity
  8
0
  6
ByBlock
 62
     0
 48
50.0
100
AcDbLine
 10
9299.165333801147
 20
9278.736797361975
 30
0.0
 11
9651.969337719753
 21
9278.736797361975
 31
0.0
  0
LINE
  5
1A871
330
18563
100
AcDbEntity
  8
0
  6
ByBlock
 62
     0
 48
50.0
100
AcDbLine
 10
9299.165333801145
 20
11638.73679736197
 30
0.0
 11
9651.969337719753
 21
11638.73679736197
 31
0.0
  0
LINE
  5
1A872
330
18563
100
AcDbEntity
  8
0
  6
ByBlock
 62
     0
 48
50.0
100
AcDbLine
 10
9576.969337719752
 20
9278.736797361975
 30
0.0
 11
9576.969337719752
 21
11638.73679736197
 31
0.0
  0
INSERT
  5
1A873
330
18563
100
AcDbEntity
  8
0
  6
ByBlock
 62
     0
 48
50.0
100
AcDbBlockReference
  2
_DOTSMALL
 10
9576.969337719752
 20
9278.736797361975
 30
0.0
 41
125.0
 42
125.0
 43
125.0
 50
270.0
  0
INSERT
  5
1A874
330
18563
100
AcDbEntity
  8
0
  6
ByBlock
 62
     0
 48
50.0
100
AcDbBlockReference
  2
_DOTSMALL
 10
9576.969337719752
 20
11638.73679736197
 30
0.0
 41
125.0
 42
125.0
 43
125.0
 50
90.0
  0
MTEXT
  5
1A875
330
18563
100
AcDbEntity
  8
0
  6
ByBlock
 62
     7
 48
50.0
100
AcDbMText
 10
9476.954573940226
 20
10458.73679736197
 30
0.0
 40
150.0
 41
0.0
 71
     5
 72
     1
  1
\A1;内部寸法 2360
  7
STYLE1
 11
0.0000000000000001
 21
1.0
 31
0.0
 73
     1
 44
1.0
  0
POINT
  5
1A876
330
18563
100
AcDbEntity
  8
DEFPOINTS
  6
ByBlock
 62
     0
 48
50.0
100
AcDbPoint
 10
9274.165333801148
 20
9278.736797361975
 30
0.0
  0
POINT
  5
1A877
330
18563
100
AcDbEntity
  8
DEFPOINTS
  6
ByBlock
 62
     0
 48
50.0
100
AcDbPoint
 10
9274.165333801144
 20
11638.73679736197
 30
0.0
  0
POINT
  5
1A878
330
18563
100
AcDbEntity
  8
DEFPOINTS
  6
ByBlock
 62
     0
 48
50.0
100
AcDbPoint
 10
9576.969337719752
 20
11638.73679736197
 30
0.0
  0
ENDBLK
  5
1A879
330
18563
100
AcDbEntity
  8
0
 48
50.0
100
AcDbBlockEnd
  0
BLOCK
  5
1A4CE
330
1856F
100
AcDbEntity
  8
0
 48
50.0
100
AcDbBlockBegin
  2
*D12
 70
     1
 10
0.0
 20
0.0
 30
0.0
  3
*D12
  1

  0
LINE
  5
1A4CF
330
1856F
100
AcDbEntity
  8
0
  6
ByBlock
 62
     0
 48
50.0
100
AcDbLine
 10
9299.165333801145
 20
12218.73679736197
 30
0.0
 11
9651.969337719755
 21
12218.73679736197
 31
0.0
  0
LINE
  5
1A4D0
330
1856F
100
AcDbEntity
  8
0
  6
ByBlock
 62
     0
 48
50.0
100
AcDbLine
 10
8477.829581418173
 20
12268.73679736197
 30
0.0
 11
9651.969337719755
 21
12268.73679736197
 31
0.0
  0
LINE
  5
1A4D1
330
1856F
100
AcDbEntity
  8
0
  6
ByBlock
 62
     0
 48
50.0
100
AcDbLine
 10
9576.969337719754
 20
12218.73679736197
 30
0.0
 11
9576.969337719754
 21
12093.73679736197
 31
0.0
  0
LINE
  5
1A4D2
330
1856F
100
AcDbEntity
  8
0
  6
ByBlock
 62
     0
 48
50.0
100
AcDbLine
 10
9576.969337719754
 20
12268.73679736197
 30
0.0
 11
9576.969337719754
 21
12733.85490759819
 31
0.0
  0
LINE
  5
1A4D3
330
1856F
100
AcDbEntity
  8
0
  6
ByBlock
 62
     0
 48
50.0
100
AcDbLine
 10
9576.969337719754
 20
12218.73679736197
 30
0.0
 11
9576.969337719754
 21
12268.73679736197
 31
0.0
  0
INSERT
  5
1A4D4
330
1856F
100
AcDbEntity
  8
0
  6
ByBlock
 62
     0
 48
50.0
100
AcDbBlockReference
  2
_DOTSMALL
 10
9576.969337719754
 20
12218.73679736197
 30
0.0
 41
125.0
 42
125.0
 43
125.0
 50
90.0
  0
INSERT
  5
1A4D5
330
1856F
100
AcDbEntity
  8
0
  6
ByBlock
 62
     0
 48
50.0
100
AcDbBlockReference
  2
_DOTSMALL
 10
9576.969337719754
 20
12268.73679736197
 30
0.0
 41
125.0
 42
125.0
 43
125.0
 50
270.0
  0
MTEXT
  5
1A4D6
330
1856F
100
AcDbEntity
  8
0
  6
ByBlock
 62
     7
 48
50.0
100
AcDbMText
 10
9476.969337719754
 20
12626.29585248008
 30
0.0
 40
150.0
 41
0.0
 71
     5
 72
     1
  1
\A1;50
  7
STYLE1
 11
0.0000000000000001
 21
1.0
 31
0.0
 73
     1
 44
1.0
  0
POINT
  5
1A4D7
330
1856F
100
AcDbEntity
  8
DEFPOINTS
  6
ByBlock
 62
     0
 48
50.0
100
AcDbPoint
 10
9274.165333801144
 20
12218.73679736197
 30
0.0
  0
POINT
  5
1A4D8
330
1856F
100
AcDbEntity
  8
DEFPOINTS
  6
ByBlock
 62
     0
 48
50.0
100
AcDbPoint
 10
8452.829581418173
 20
12268.73679736197
 30
0.0
  0
POINT
  5
1A4D9
330
1856F
100
AcDbEntity
  8
DEFPOINTS
  6
ByBlock
 62
     0
 48
50.0
100
AcDbPoint
 10
9576.969337719754
 20
12268.73679736197
 30
0.0
  0
ENDBLK
  5
1A4DA
330
1856F
100
AcDbEntity
  8
0
 48
50.0
100
AcDbBlockEnd
  0
BLOCK
  5
18624
330
185B5
100
AcDbEntity
  8
0
 48
50.0
100
AcDbBlockBegin
  2
*D13
 70
     1
 10
0.0
 20
0.0
 30
0.0
  3
*D13
  1

  0
LINE
  5
18625
330
185B5
100
AcDbEntity
  8
0
  6
ByBlock
 62
     0
 48
50.0
100
AcDbLine
 10
11787.46242649134
 20
12657.68151569412
 30
0.0
 11
11787.46242649134
 21
13127.71350056477
 31
0.0
  0
LINE
  5
18626
330
185B5
100
AcDbEntity
  8
0
  6
ByBlock
 62
     0
 48
50.0
100
AcDbLine
 10
11857.46242649134
 20
12667.68151569412
 30
0.0
 11
11857.46242649134
 21
13127.71350056477
 31
0.0
  0
LINE
  5
18627
330
185B5
100
AcDbEntity
  8
0
  6
ByBlock
 62
     0
 48
50.0
100
AcDbLine
 10
11857.46242649134
 20
13052.71350056477
 30
0.0
 11
11787.46242649134
 21
13052.71350056477
 31
0.0
  0
LINE
  5
18628
330
185B5
100
AcDbEntity
  8
0
  6
ByBlock
 62
     0
 48
50.0
100
AcDbLine
 10
11787.46242649134
 20
13052.71350056477
 30
0.0
 11
11437.34431625512
 21
13052.71350056477
 31
0.0
  0
INSERT
  5
18629
330
185B5
100
AcDbEntity
  8
0
  6
ByBlock
 62
     0
 48
50.0
100
AcDbBlockReference
  2
_DOTSMALL
 10
11857.46242649134
 20
13052.71350056477
 30
0.0
 41
125.0
 42
125.0
 43
125.0
  0
INSERT
  5
1862A
330
185B5
100
AcDbEntity
  8
0
  6
ByBlock
 62
     0
 48
50.0
100
AcDbBlockReference
  2
_DOTSMALL
 10
11787.46242649134
 20
13052.71350056477
 30
0.0
 41
125.0
 42
125.0
 43
125.0
 50
180.0
  0
MTEXT
  5
1862B
330
185B5
100
AcDbEntity
  8
0
  6
ByBlock
 62
     7
 48
50.0
100
AcDbMText
 10
11544.90337137323
 20
13152.71350056477
 30
0.0
 40
150.0
 41
0.0
 71
     5
 72
     1
  1
\A1;70
  7
STYLE1
 73
     1
 44
1.0
  0
POINT
  5
1862C
330
185B5
100
AcDbEntity
  8
DEFPOINTS
  6
ByBlock
 62
     0
 48
50.0
100
AcDbPoint
 10
11787.46242649134
 20
12632.68151569412
 30
0.0
  0
POINT
  5
1862D
330
185B5
100
AcDbEntity
  8
DEFPOINTS
  6
ByBlock
 62
     0
 48
50.0
100
AcDbPoint
 10
11857.46242649134
 20
12642.68151569412
 30
0.0
  0
POINT
  5
1862E
330
185B5
100
AcDbEntity
  8
DEFPOINTS
  6
ByBlock
 62
     0
 48
50.0
100
AcDbPoint
 10
11857.46242649134
 20
13052.71350056477
 30
0.0
  0
ENDBLK
  5
1862F
330
185B5
100
AcDbEntity
  8
0
 48
50.0
100
AcDbBlockEnd
  0
BLOCK
  5
1A9AF
330
185C2
100
AcDbEntity
  8
0
 48
50.0
100
AcDbBlockBegin
  2
*D14
 70
     1
 10
0.0
 20
0.0
 30
0.0
  3
*D14
  1

  0
LINE
  5
1AE9C
330
185C2
100
AcDbEntity
  8
寸法
 62
     0
 48
50.0
100
AcDbLine
 10
8682.829581418173
 20
11713.73679736197
 30
0.0
 11
8682.829581418173
 21
12173.76878223262
 31
0.0
  0
LINE
  5
1AE9D
330
185C2
100
AcDbEntity
  8
寸法
 62
     0
 48
50.0
100
AcDbLine
 10
5782.829581418173
 20
12098.76878223262
 30
0.0
 11
8682.829581418173
 21
12098.76878223262
 31
0.0
  0
INSERT
  5
1AE9E
330
185C2
100
AcDbEntity
  8
寸法
 62
     0
 48
50.0
100
AcDbBlockReference
  2
_DOTSMALL
 10
5782.829581418173
 20
12098.76878223262
 30
0.0
 41
125.0
 42
125.0
 43
125.0
 50
180.0
  0
INSERT
  5
1AE9F
330
185C2
100
AcDbEntity
  8
寸法
 62
     0
 48
50.0
100
AcDbBlockReference
  2
_DOTSMALL
 10
8682.829581418173
 20
12098.76878223262
 30
0.0
 41
125.0
 42
125.0
 43
125.0
  0
MTEXT
  5
1AEA0
330
185C2
100
AcDbEntity
  8
寸法
 62
     7
 48
50.0
100
AcDbMText
 10
7232.829581418174
 20
12198.78354601215
 30
0.0
 40
150.0
 41
0.0
 71
     5
 72
     1
  1
\A1;5x580=2900
  7
STYLE1
 73
     1
 44
1.0
  0
POINT
  5
1AEA1
330
185C2
100
AcDbEntity
  8
DEFPOINTS
 62
     0
 48
50.0
100
AcDbPoint
 10
5782.829581418173
 20
11688.73679736197
 30
0.0
  0
POINT
  5
1AEA2
330
185C2
100
AcDbEntity
  8
DEFPOINTS
 62
     0
 48
50.0
100
AcDbPoint
 10
8682.829581418173
 20
11688.73679736197
 30
0.0
  0
POINT
  5
1AEA3
330
185C2
100
AcDbEntity
  8
DEFPOINTS
 62
     0
 48
50.0
100
AcDbPoint
 10
8682.829581418173
 20
12098.76878223262
 30
0.0
  0
ENDBLK
  5
1A9B8
330
185C2
100
AcDbEntity
  8
0
 48
50.0
100
AcDbBlockEnd
  0
BLOCK
  5
18656
330
185E5
100
AcDbEntity
  8
0
 48
50.0
100
AcDbBlockBegin
  2
*D15
 70
     1
 10
0.0
 20
0.0
 30
0.0
  3
*D15
  1

  0
LINE
  5
18657
330
185E5
100
AcDbEntity
  8
0
  6
ByBlock
 62
     0
 48
50.0
100
AcDbLine
 10
16637.46242649134
 20
12667.68151569412
 30
0.0
 11
16637.46242649134
 21
13127.71350056477
 31
0.0
  0
LINE
  5
18658
330
185E5
100
AcDbEntity
  8
0
  6
ByBlock
 62
     0
 48
50.0
100
AcDbLine
 10
16707.46242649134
 20
12657.68151569412
 30
0.0
 11
16707.46242649134
 21
13127.71350056477
 31
0.0
  0
LINE
  5
18659
330
185E5
100
AcDbEntity
  8
0
  6
ByBlock
 62
     0
 48
50.0
100
AcDbLine
 10
16637.46242649134
 20
13052.71350056477
 30
0.0
 11
16707.46242649134
 21
13052.71350056477
 31
0.0
  0
LINE
  5
1865A
330
185E5
100
AcDbEntity
  8
0
  6
ByBlock
 62
     0
 48
50.0
100
AcDbLine
 10
16707.46242649134
 20
13052.71350056477
 30
0.0
 11
17077.58053672756
 21
13052.71350056477
 31
0.0
  0
INSERT
  5
1865B
330
185E5
100
AcDbEntity
  8
0
  6
ByBlock
 62
     0
 48
50.0
100
AcDbBlockReference
  2
_DOTSMALL
 10
16637.46242649134
 20
13052.71350056477
 30
0.0
 41
125.0
 42
125.0
 43
125.0
 50
180.0
  0
INSERT
  5
1865C
330
185E5
100
AcDbEntity
  8
0
  6
ByBlock
 62
     0
 48
50.0
100
AcDbBlockReference
  2
_DOTSMALL
 10
16707.46242649134
 20
13052.71350056477
 30
0.0
 41
125.0
 42
125.0
 43
125.0
  0
MTEXT
  5
1865D
330
185E5
100
AcDbEntity
  8
0
  6
ByBlock
 62
     7
 48
50.0
100
AcDbMText
 10
16970.02148160945
 20
13152.71350056477
 30
0.0
 40
150.0
 41
0.0
 71
     5
 72
     1
  1
\A1;70
  7
STYLE1
 73
     1
 44
1.0
  0
POINT
  5
1865E
330
185E5
100
AcDbEntity
  8
DEFPOINTS
  6
ByBlock
 62
     0
 48
50.0
100
AcDbPoint
 10
16637.46242649134
 20
12642.68151569412
 30
0.0
  0
POINT
  5
1865F
330
185E5
100
AcDbEntity
  8
DEFPOINTS
  6
ByBlock
 62
     0
 48
50.0
100
AcDbPoint
 10
16707.46242649134
 20
12632.68151569412
 30
0.0
  0
POINT
  5
18660
330
185E5
100
AcDbEntity
  8
DEFPOINTS
  6
ByBlock
 62
     0
 48
50.0
100
AcDbPoint
 10
16707.46242649134
 20
13052.71350056477
 30
0.0
  0
ENDBLK
  5
18661
330
185E5
100
AcDbEntity
  8
0
 48
50.0
100
AcDbBlockEnd
  0
BLOCK
  5
18617
330
185F2
100
AcDbEntity
  8
0
 48
50.0
100
AcDbBlockBegin
  2
*D16
 70
     1
 10
0.0
 20
0.0
 30
0.0
  3
*D16
  1

  0
LINE
  5
18618
330
185F2
100
AcDbEntity
  8
0
  6
ByBlock
 62
     0
 48
50.0
100
AcDbLine
 10
11787.46242649134
 20
12657.68151569412
 30
0.0
 11
11787.46242649134
 21
13426.45988446553
 31
0.0
  0
LINE
  5
18619
330
185F2
100
AcDbEntity
  8
0
  6
ByBlock
 62
     0
 48
50.0
100
AcDbLine
 10
11837.46242649134
 20
13077.71350056477
 30
0.0
 11
11837.46242649134
 21
13426.45988446553
 31
0.0
  0
LINE
  5
1861A
330
185F2
100
AcDbEntity
  8
0
  6
ByBlock
 62
     0
 48
50.0
100
AcDbLine
 10
11837.46242649134
 20
13351.45988446553
 30
0.0
 11
11962.46242649134
 21
13351.45988446553
 31
0.0
  0
LINE
  5
1861B
330
185F2
100
AcDbEntity
  8
0
  6
ByBlock
 62
     0
 48
50.0
100
AcDbLine
 10
11787.46242649134
 20
13351.45988446553
 30
0.0
 11
11322.34431625512
 21
13351.45988446553
 31
0.0
  0
LINE
  5
1861C
330
185F2
100
AcDbEntity
  8
0
  6
ByBlock
 62
     0
 48
50.0
100
AcDbLine
 10
11837.46242649134
 20
13351.45988446553
 30
0.0
 11
11787.46242649134
 21
13351.45988446553
 31
0.0
  0
INSERT
  5
1861D
330
185F2
100
AcDbEntity
  8
0
  6
ByBlock
 62
     0
 48
50.0
100
AcDbBlockReference
  2
_DOTSMALL
 10
11837.46242649134
 20
13351.45988446553
 30
0.0
 41
125.0
 42
125.0
 43
125.0
 50
180.0
  0
INSERT
  5
1861E
330
185F2
100
AcDbEntity
  8
0
  6
ByBlock
 62
     0
 48
50.0
100
AcDbBlockReference
  2
_DOTSMALL
 10
11787.46242649134
 20
13351.45988446553
 30
0.0
 41
125.0
 42
125.0
 43
125.0
  0
MTEXT
  5
1861F
330
185F2
100
AcDbEntity
  8
0
  6
ByBlock
 62
     7
 48
50.0
100
AcDbMText
 10
11429.90337137323
 20
13451.45988446553
 30
0.0
 40
150.0
 41
0.0
 71
     5
 72
     1
  1
\A1;50
  7
STYLE1
 73
     1
 44
1.0
  0
POINT
  5
18620
330
185F2
100
AcDbEntity
  8
DEFPOINTS
  6
ByBlock
 62
     0
 48
50.0
100
AcDbPoint
 10
11787.46242649134
 20
12632.68151569412
 30
0.0
  0
POINT
  5
18621
330
185F2
100
AcDbEntity
  8
DEFPOINTS
  6
ByBlock
 62
     0
 48
50.0
100
AcDbPoint
 10
11837.46242649134
 20
13052.71350056477
 30
0.0
  0
POINT
  5
18622
330
185F2
100
AcDbEntity
  8
DEFPOINTS
  6
ByBlock
 62
     0
 48
50.0
100
AcDbPoint
 10
11837.46242649134
 20
13351.45988446553
 30
0.0
  0
ENDBLK
  5
18623
330
185F2
100
AcDbEntity
  8
0
 48
50.0
100
AcDbBlockEnd
  0
BLOCK
  5
1A9A5
330
185FF
100
AcDbEntity
  8
0
 48
50.0
100
AcDbBlockBegin
  2
*D17
 70
     1
 10
0.0
 20
0.0
 30
0.0
  3
*D17
  1

  0
LINE
  5
1AE94
330
185FF
100
AcDbEntity
  8
寸法
 62
     0
 48
50.0
100
AcDbLine
 10
8702.82958141818
 20
12123.76878223262
 30
0.0
 11
8702.82958141818
 21
12472.51516613338
 31
0.0
  0
LINE
  5
1AE95
330
185FF
100
AcDbEntity
  8
寸法
 62
     0
 48
50.0
100
AcDbLine
 10
5762.829581418169
 20
12397.51516613338
 30
0.0
 11
8702.82958141818
 21
12397.51516613338
 31
0.0
  0
INSERT
  5
1AE96
330
185FF
100
AcDbEntity
  8
寸法
 62
     0
 48
50.0
100
AcDbBlockReference
  2
_DOTSMALL
 10
5762.829581418169
 20
12397.51516613338
 30
0.0
 41
125.0
 42
125.0
 43
125.0
 50
180.0
  0
INSERT
  5
1AE97
330
185FF
100
AcDbEntity
  8
寸法
 62
     0
 48
50.0
100
AcDbBlockReference
  2
_DOTSMALL
 10
8702.82958141818
 20
12397.51516613338
 30
0.0
 41
125.0
 42
125.0
 43
125.0
  0
MTEXT
  5
1AE98
330
185FF
100
AcDbEntity
  8
寸法
 62
     7
 48
50.0
100
AcDbMText
 10
7232.829581418174
 20
12497.52992991291
 30
0.0
 40
150.0
 41
0.0
 71
     5
 72
     1
  1
\A1;内部寸法 2940
  7
STYLE1
 73
     1
 44
1.0
  0
POINT
  5
1AE99
330
185FF
100
AcDbEntity
  8
DEFPOINTS
 62
     0
 48
50.0
100
AcDbPoint
 10
5762.829581418169
 20
12098.76878223262
 30
0.0
  0
POINT
  5
1AE9A
330
185FF
100
AcDbEntity
  8
DEFPOINTS
 62
     0
 48
50.0
100
AcDbPoint
 10
8702.82958141818
 20
12098.76878223262
 30
0.0
  0
POINT
  5
1AE9B
330
185FF
100
AcDbEntity
  8
DEFPOINTS
 62
     0
 48
50.0
100
AcDbPoint
 10
8702.82958141818
 20
12397.51516613338
 30
0.0
  0
ENDBLK
  5
1A9AE
330
185FF
100
AcDbEntity
  8
0
 48
50.0
100
AcDbBlockEnd
  0
BLOCK
  5
18649
330
1860A
100
AcDbEntity
  8
0
 48
50.0
100
AcDbBlockBegin
  2
*D18
 70
     1
 10
0.0
 20
0.0
 30
0.0
  3
*D18
  1

  0
LINE
  5
1864A
330
1860A
100
AcDbEntity
  8
0
  6
ByBlock
 62
     0
 48
50.0
100
AcDbLine
 10
16657.46242649135
 20
13077.71350056477
 30
0.0
 11
16657.46242649135
 21
13426.45988446553
 31
0.0
  0
LINE
  5
1864B
330
1860A
100
AcDbEntity
  8
0
  6
ByBlock
 62
     0
 48
50.0
100
AcDbLine
 10
16707.46242649134
 20
12657.68151569412
 30
0.0
 11
16707.46242649134
 21
13426.45988446553
 31
0.0
  0
LINE
  5
1864C
330
1860A
100
AcDbEntity
  8
0
  6
ByBlock
 62
     0
 48
50.0
100
AcDbLine
 10
16657.46242649135
 20
13351.45988446553
 30
0.0
 11
16532.46242649135
 21
13351.45988446553
 31
0.0
  0
LINE
  5
1864D
330
1860A
100
AcDbEntity
  8
0
  6
ByBlock
 62
     0
 48
50.0
100
AcDbLine
 10
16707.46242649134
 20
13351.45988446553
 30
0.0
 11
17172.58053672756
 21
13351.45988446553
 31
0.0
  0
LINE
  5
1864E
330
1860A
100
AcDbEntity
  8
0
  6
ByBlock
 62
     0
 48
50.0
100
AcDbLine
 10
16657.46242649135
 20
13351.45988446553
 30
0.0
 11
16707.46242649134
 21
13351.45988446553
 31
0.0
  0
INSERT
  5
1864F
330
1860A
100
AcDbEntity
  8
0
  6
ByBlock
 62
     0
 48
50.0
100
AcDbBlockReference
  2
_DOTSMALL
 10
16657.46242649135
 20
13351.45988446553
 30
0.0
 41
125.0
 42
125.0
 43
125.0
  0
INSERT
  5
18650
330
1860A
100
AcDbEntity
  8
0
  6
ByBlock
 62
     0
 48
50.0
100
AcDbBlockReference
  2
_DOTSMALL
 10
16707.46242649134
 20
13351.45988446553
 30
0.0
 41
125.0
 42
125.0
 43
125.0
 50
180.0
  0
MTEXT
  5
18651
330
1860A
100
AcDbEntity
  8
0
  6
ByBlock
 62
     7
 48
50.0
100
AcDbMText
 10
17065.02148160945
 20
13451.45988446553
 30
0.0
 40
150.0
 41
0.0
 71
     5
 72
     1
  1
\A1;50
  7
STYLE1
 73
     1
 44
1.0
  0
POINT
  5
18652
330
1860A
100
AcDbEntity
  8
DEFPOINTS
  6
ByBlock
 62
     0
 48
50.0
100
AcDbPoint
 10
16657.46242649135
 20
13052.71350056477
 30
0.0
  0
POINT
  5
18653
330
1860A
100
AcDbEntity
  8
DEFPOINTS
  6
ByBlock
 62
     0
 48
50.0
100
AcDbPoint
 10
16707.46242649134
 20
12632.68151569412
 30
0.0
  0
POINT
  5
18654
330
1860A
100
AcDbEntity
  8
DEFPOINTS
  6
ByBlock
 62
     0
 48
50.0
100
AcDbPoint
 10
16707.46242649134
 20
13351.45988446553
 30
0.0
  0
ENDBLK
  5
18655
330
1860A
100
AcDbEntity
  8
0
 48
50.0
100
AcDbBlockEnd
  0
BLOCK
  5
1A99A
330
1868D
100
AcDbEntity
  8
0
 48
50.0
100
AcDbBlockBegin
  2
*D19
 70
     1
 10
0.0
 20
0.0
 30
0.0
  3
*D19
  1

  0
LINE
  5
1A99B
330
1868D
100
AcDbEntity
  8
0
  6
ByBlock
 62
     0
 48
50.0
100
AcDbLine
 10
4842.829581418171
 20
9213.736797361972
 30
0.0
 11
4842.829581418171
 21
7892.428503410812
 31
0.0
  0
LINE
  5
1A99C
330
1868D
100
AcDbEntity
  8
0
  6
ByBlock
 62
     0
 48
50.0
100
AcDbLine
 10
7882.829581418177
 20
9213.736797361972
 30
0.0
 11
7882.829581418177
 21
7892.428503410812
 31
0.0
  0
LINE
  5
1A99D
330
1868D
100
AcDbEntity
  8
0
  6
ByBlock
 62
     0
 48
50.0
100
AcDbLine
 10
4842.829581418171
 20
7967.428503410812
 30
0.0
 11
7882.829581418177
 21
7967.428503410812
 31
0.0
  0
INSERT
  5
1A99E
330
1868D
100
AcDbEntity
  8
0
  6
ByBlock
 62
     0
 48
50.0
100
AcDbBlockReference
  2
_DOTSMALL
 10
4842.829581418171
 20
7967.428503410812
 30
0.0
 41
125.0
 42
125.0
 43
125.0
 50
180.0
  0
INSERT
  5
1A99F
330
1868D
100
AcDbEntity
  8
0
  6
ByBlock
 62
     0
 48
50.0
100
AcDbBlockReference
  2
_DOTSMALL
 10
7882.829581418177
 20
7967.428503410812
 30
0.0
 41
125.0
 42
125.0
 43
125.0
  0
MTEXT
  5
1A9A0
330
1868D
100
AcDbEntity
  8
0
  6
ByBlock
 62
     7
 48
50.0
100
AcDbMText
 10
6362.829581418174
 20
8067.428503410813
 30
0.0
 40
150.0
 41
0.0
 71
     5
 72
     1
  1
\A1;3040
  7
STYLE1
 73
     1
 44
1.0
  0
POINT
  5
1A9A1
330
1868D
100
AcDbEntity
  8
DEFPOINTS
  6
ByBlock
 62
     0
 48
50.0
100
AcDbPoint
 10
4842.829581418171
 20
9238.736797361971
 30
0.0
  0
POINT
  5
1A9A2
330
1868D
100
AcDbEntity
  8
DEFPOINTS
  6
ByBlock
 62
     0
 48
50.0
100
AcDbPoint
 10
7882.829581418177
 20
9238.736797361973
 30
0.0
  0
POINT
  5
1A9A3
330
1868D
100
AcDbEntity
  8
DEFPOINTS
  6
ByBlock
 62
     0
 48
50.0
100
AcDbPoint
 10
7882.829581418177
 20
7967.428503410812
 30
0.0
  0
ENDBLK
  5
1A9A4
330
1868D
100
AcDbEntity
  8
0
 48
50.0
100
AcDbBlockEnd
  0
BLOCK
  5
1A859
330
186B0
100
AcDbEntity
  8
0
 48
50.0
100
AcDbBlockBegin
  2
*D20
 70
     1
 10
0.0
 20
0.0
 30
0.0
  3
*D20
  1

  0
LINE
  5
1A85A
330
186B0
100
AcDbEntity
  8
0
  6
ByBlock
 62
     0
 48
50.0
100
AcDbLine
 10
4827.829581418171
 20
11688.73679736197
 30
0.0
 11
4001.198601638503
 21
11688.73679736197
 31
0.0
  0
LINE
  5
1A85B
330
186B0
100
AcDbEntity
  8
0
  6
ByBlock
 62
     0
 48
50.0
100
AcDbLine
 10
4827.829581418171
 20
9228.736797361971
 30
0.0
 11
4001.198601638503
 21
9228.736797361971
 31
0.0
  0
LINE
  5
1A85C
330
186B0
100
AcDbEntity
  8
0
  6
ByBlock
 62
     0
 48
50.0
100
AcDbLine
 10
4076.198601638504
 20
11688.73679736197
 30
0.0
 11
4076.198601638504
 21
9228.736797361971
 31
0.0
  0
INSERT
  5
1A85D
330
186B0
100
AcDbEntity
  8
0
  6
ByBlock
 62
     0
 48
50.0
100
AcDbBlockReference
  2
_DOTSMALL
 10
4076.198601638504
 20
11688.73679736197
 30
0.0
 41
125.0
 42
125.0
 43
125.0
 50
90.0
  0
INSERT
  5
1A85E
330
186B0
100
AcDbEntity
  8
0
  6
ByBlock
 62
     0
 48
50.0
100
AcDbBlockReference
  2
_DOTSMALL
 10
4076.198601638504
 20
9228.736797361971
 30
0.0
 41
125.0
 42
125.0
 43
125.0
 50
270.0
  0
MTEXT
  5
1A85F
330
186B0
100
AcDbEntity
  8
0
  6
ByBlock
 62
     7
 48
50.0
100
AcDbMText
 10
3976.183837858975
 20
10458.73679736197
 30
0.0
 40
150.0
 41
0.0
 71
     5
 72
     1
  1
\A1;2460
  7
STYLE1
 11
0.0000000000000001
 21
1.0
 31
0.0
 73
     1
 44
1.0
  0
POINT
  5
1A860
330
186B0
100
AcDbEntity
  8
DEFPOINTS
  6
ByBlock
 62
     0
 48
50.0
100
AcDbPoint
 10
4852.829581418171
 20
11688.73679736197
 30
0.0
  0
POINT
  5
1A861
330
186B0
100
AcDbEntity
  8
DEFPOINTS
  6
ByBlock
 62
     0
 48
50.0
100
AcDbPoint
 10
4852.829581418171
 20
9228.736797361971
 30
0.0
  0
POINT
  5
1A862
330
186B0
100
AcDbEntity
  8
DEFPOINTS
  6
ByBlock
 62
     0
 48
50.0
100
AcDbPoint
 10
4076.198601638504
 20
9228.736797361971
 30
0.0
  0
ENDBLK
  5
1A863
330
186B0
100
AcDbEntity
  8
0
 48
50.0
100
AcDbBlockEnd
  0
BLOCK
  5
1A492
330
1876C
100
AcDbEntity
  8
0
 48
50.0
100
AcDbBlockBegin
  2
*D21
 70
     1
 10
0.0
 20
0.0
 30
0.0
  3
*D21
  1

  0
LINE
  5
1A493
330
1876C
100
AcDbEntity
  8
0
  6
ByBlock
 62
     0
 48
50.0
100
AcDbLine
 10
5512.829581418174
 20
9135.736797361609
 30
0.0
 11
5512.829581418174
 21
8457.273498070641
 31
0.0
  0
LINE
  5
1A494
330
1876C
100
AcDbEntity
  8
0
  6
ByBlock
 62
     0
 48
50.0
100
AcDbLine
 10
6602.829581418173
 20
9135.736797361609
 30
0.0
 11
6602.829581418173
 21
8457.273498070641
 31
0.0
  0
LINE
  5
1A495
330
1876C
100
AcDbEntity
  8
0
  6
ByBlock
 62
     0
 48
50.0
100
AcDbLine
 10
5512.829581418174
 20
8532.273498070642
 30
0.0
 11
5387.829581418174
 21
8532.273498070642
 31
0.0
  0
LINE
  5
1A496
330
1876C
100
AcDbEntity
  8
0
  6
ByBlock
 62
     0
 48
50.0
100
AcDbLine
 10
6602.829581418173
 20
8532.273498070642
 30
0.0
 11
6727.829581418173
 21
8532.273498070642
 31
0.0
  0
LINE
  5
1A497
330
1876C
100
AcDbEntity
  8
0
  6
ByBlock
 62
     0
 48
50.0
100
AcDbLine
 10
5512.829581418174
 20
8532.273498070642
 30
0.0
 11
6602.829581418173
 21
8532.273498070642
 31
0.0
  0
INSERT
  5
1A498
330
1876C
100
AcDbEntity
  8
0
  6
ByBlock
 62
     0
 48
50.0
100
AcDbBlockReference
  2
_DOTSMALL
 10
5512.829581418174
 20
8532.273498070642
 30
0.0
 41
125.0
 42
125.0
 43
125.0
  0
INSERT
  5
1A499
330
1876C
100
AcDbEntity
  8
0
  6
ByBlock
 62
     0
 48
50.0
100
AcDbBlockReference
  2
_DOTSMALL
 10
6602.829581418173
 20
8532.273498070642
 30
0.0
 41
125.0
 42
125.0
 43
125.0
 50
180.0
  0
MTEXT
  5
1A49A
330
1876C
100
AcDbEntity
  8
0
  6
ByBlock
 62
     7
 48
50.0
100
AcDbMText
 10
6057.829581418173
 20
8757.273498070642
 30
0.0
 40
150.0
 41
0.0
 71
     5
 72
     1
  1
\A1;有効開口部間口\P1090
  7
STYLE1
 73
     1
 44
1.0
  0
POINT
  5
1A49B
330
1876C
100
AcDbEntity
  8
DEFPOINTS
  6
ByBlock
 62
     0
 48
50.0
100
AcDbPoint
 10
5512.829581418174
 20
9160.736797361609
 30
0.0
  0
POINT
  5
1A49C
330
1876C
100
AcDbEntity
  8
DEFPOINTS
  6
ByBlock
 62
     0
 48
50.0
100
AcDbPoint
 10
6602.829581418173
 20
9160.736797361609
 30
0.0
  0
POINT
  5
1A49D
330
1876C
100
AcDbEntity
  8
DEFPOINTS
  6
ByBlock
 62
     0
 48
50.0
100
AcDbPoint
 10
6602.829581418173
 20
8532.273498070642
 30
0.0
  0
ENDBLK
  5
1A49E
330
1876C
100
AcDbEntity
  8
0
 48
50.0
100
AcDbBlockEnd
  0
BLOCK
  5
1927D
330
19113
100
AcDbEntity
  8
0
 48
50.0
100
AcDbBlockBegin
  2
*D22
 70
     1
 10
0.0
 20
0.0
 30
0.0
  3
*D22
  1

  0
LINE
  5
1927E
330
19113
100
AcDbEntity
  8
0
  6
ByBlock
 62
     0
 48
50.0
100
AcDbLine
 10
9212.829581418173
 20
2574.999999999999
 30
0.0
 11
9212.829581418173
 21
2197.358857715331
 31
0.0
  0
LINE
  5
1927F
330
19113
100
AcDbEntity
  8
0
  6
ByBlock
 62
     0
 48
50.0
100
AcDbLine
 10
9012.829581418172
 20
2574.999999999999
 30
0.0
 11
9012.829581418172
 21
2197.358857715331
 31
0.0
  0
LINE
  5
19280
330
19113
100
AcDbEntity
  8
0
  6
ByBlock
 62
     0
 48
50.0
100
AcDbLine
 10
9212.829581418173
 20
2272.358857715331
 30
0.0
 11
9012.829581418172
 21
2272.358857715331
 31
0.0
  0
LINE
  5
19281
330
19113
100
AcDbEntity
  8
0
  6
ByBlock
 62
     0
 48
50.0
100
AcDbLine
 10
9012.829581418172
 20
2272.358857715331
 30
0.0
 11
8563.902416063839
 21
2272.358857715331
 31
0.0
  0
INSERT
  5
19282
330
19113
100
AcDbEntity
  8
0
  6
ByBlock
 62
     0
 48
50.0
100
AcDbBlockReference
  2
_DOTSMALL
 10
9212.829581418173
 20
2272.358857715331
 30
0.0
 41
125.0
 42
125.0
 43
125.0
  0
INSERT
  5
19283
330
19113
100
AcDbEntity
  8
0
  6
ByBlock
 62
     0
 48
50.0
100
AcDbBlockReference
  2
_DOTSMALL
 10
9012.829581418172
 20
2272.358857715331
 30
0.0
 41
125.0
 42
125.0
 43
125.0
 50
180.0
  0
MTEXT
  5
19284
330
19113
100
AcDbEntity
  8
0
  6
ByBlock
 62
     7
 48
50.0
100
AcDbMText
 10
8725.865998741006
 20
2372.373621494859
 30
0.0
 40
150.0
 41
0.0
 71
     5
 72
     1
  1
\A1;200
  7
STYLE1
 73
     1
 44
1.0
  0
POINT
  5
19285
330
19113
100
AcDbEntity
  8
DEFPOINTS
  6
ByBlock
 62
     0
 48
50.0
100
AcDbPoint
 10
9212.829581418173
 20
2599.999999999999
 30
0.0
  0
POINT
  5
19286
330
19113
100
AcDbEntity
  8
DEFPOINTS
  6
ByBlock
 62
     0
 48
50.0
100
AcDbPoint
 10
9012.829581418172
 20
2599.999999999999
 30
0.0
  0
POINT
  5
19287
330
19113
100
AcDbEntity
  8
DEFPOINTS
  6
ByBlock
 62
     0
 48
50.0
100
AcDbPoint
 10
9012.829581418172
 20
2272.358857715331
 30
0.0
  0
ENDBLK
  5
19288
330
19113
100
AcDbEntity
  8
0
 48
50.0
100
AcDbBlockEnd
  0
BLOCK
  5
1A8A2
330
1A2D7
100
AcDbEntity
  8
0
 48
50.0
100
AcDbBlockBegin
  2
*D23
 70
     1
 10
0.0
 20
0.0
 30
0.0
  3
*D23
  1

  0
LINE
  5
1A8A3
330
1A2D7
100
AcDbEntity
  8
0
  6
ByBlock
 62
     0
 48
50.0
100
AcDbLine
 10
4827.829581418171
 20
9228.736797361971
 30
0.0
 11
4001.198601638503
 21
9228.736797361971
 31
0.0
  0
LINE
  5
1A8A4
330
1A2D7
100
AcDbEntity
  8
0
  6
ByBlock
 62
     0
 48
50.0
100
AcDbLine
 10
4881.829581418173
 20
9160.736797361609
 30
0.0
 11
4001.198601638503
 21
9160.736797361609
 31
0.0
  0
LINE
  5
1A8A5
330
1A2D7
100
AcDbEntity
  8
0
  6
ByBlock
 62
     0
 48
50.0
100
AcDbLine
 10
4076.198601638504
 20
9228.736797361971
 30
0.0
 11
4076.198601638504
 21
9160.736797361609
 31
0.0
  0
LINE
  5
1A8A6
330
1A2D7
100
AcDbEntity
  8
0
  6
ByBlock
 62
     0
 48
50.0
100
AcDbLine
 10
4076.198601638504
 20
9160.736797361609
 30
0.0
 11
4076.198601638504
 21
8811.760419408853
 31
0.0
  0
INSERT
  5
1A8A7
330
1A2D7
100
AcDbEntity
  8
0
  6
ByBlock
 62
     0
 48
50.0
100
AcDbBlockReference
  2
_DOTSMALL
 10
4076.198601638504
 20
9228.736797361971
 30
0.0
 41
125.0
 42
125.0
 43
125.0
 50
90.0
  0
INSERT
  5
1A8A8
330
1A2D7
100
AcDbEntity
  8
0
  6
ByBlock
 62
     0
 48
50.0
100
AcDbBlockReference
  2
_DOTSMALL
 10
4076.198601638504
 20
9160.736797361609
 30
0.0
 41
125.0
 42
125.0
 43
125.0
 50
270.0
  0
MTEXT
  5
1A8A9
330
1A2D7
100
AcDbEntity
  8
0
  6
ByBlock
 62
     7
 48
50.0
100
AcDbMText
 10
3976.198601638504
 20
8923.748608385231
 30
0.0
 40
150.0
 41
0.0
 71
     5
 72
     1
  1
\A1;68
  7
STYLE1
 11
0.0000000000000001
 21
1.0
 31
0.0
 73
     1
 44
1.0
  0
POINT
  5
1A8AA
330
1A2D7
100
AcDbEntity
  8
DEFPOINTS
  6
ByBlock
 62
     0
 48
50.0
100
AcDbPoint
 10
4852.829581418171
 20
9228.736797361971
 30
0.0
  0
POINT
  5
1A8AB
330
1A2D7
100
AcDbEntity
  8
DEFPOINTS
  6
ByBlock
 62
     0
 48
50.0
100
AcDbPoint
 10
4906.829581418173
 20
9160.736797361609
 30
0.0
  0
POINT
  5
1A8AC
330
1A2D7
100
AcDbEntity
  8
DEFPOINTS
  6
ByBlock
 62
     0
 48
50.0
100
AcDbPoint
 10
4076.198601638504
 20
9160.736797361609
 30
0.0
  0
ENDBLK
  5
1A8AD
330
1A2D7
100
AcDbEntity
  8
0
 48
50.0
100
AcDbBlockEnd
  0
BLOCK
  5
1A7C4
330
1A730
100
AcDbEntity
  8
0
 48
50.0
100
AcDbBlockBegin
  2
*D24
 70
     1
 10
0.0
 20
0.0
 30
0.0
  3
*D24
  1

  0
LINE
  5
1A7C5
330
1A730
100
AcDbEntity
  8
0
  6
ByBlock
 62
     0
 48
50.0
100
AcDbLine
 10
13819.80961218735
 20
-5033.157382449195
 30
0.0
 11
14268.14474718123
 21
-5033.157382449195
 31
0.0
  0
LINE
  5
1A7C6
330
1A730
100
AcDbEntity
  8
0
  6
ByBlock
 62
     0
 48
50.0
100
AcDbLine
 10
13819.80961218735
 20
-4833.157382449197
 30
0.0
 11
14268.14474718123
 21
-4833.157382449197
 31
0.0
  0
LINE
  5
1A7C7
330
1A730
100
AcDbEntity
  8
0
  6
ByBlock
 62
     0
 48
50.0
100
AcDbLine
 10
14193.14474718123
 20
-4833.157382449197
 30
0.0
 11
14193.14474718123
 21
-5033.157382449195
 31
0.0
  0
LINE
  5
1A7C8
330
1A730
100
AcDbEntity
  8
0
  6
ByBlock
 62
     0
 48
50.0
100
AcDbLine
 10
14193.14474718123
 20
-5033.157382449195
 30
0.0
 11
14193.14474718123
 21
-5482.084547803527
 31
0.0
  0
INSERT
  5
1A7C9
330
1A730
100
AcDbEntity
  8
0
  6
ByBlock
 62
     0
 48
50.0
100
AcDbBlockReference
  2
_DOTSMALL
 10
14193.14474718123
 20
-4833.157382449197
 30
0.0
 41
125.0
 42
125.0
 43
125.0
 50
90.0
  0
INSERT
  5
1A7CA
330
1A730
100
AcDbEntity
  8
0
  6
ByBlock
 62
     0
 48
50.0
100
AcDbBlockReference
  2
_DOTSMALL
 10
14193.14474718123
 20
-5033.157382449195
 30
0.0
 41
125.0
 42
125.0
 43
125.0
 50
270.0
  0
MTEXT
  5
1A7CB
330
1A730
100
AcDbEntity
  8
0
  6
ByBlock
 62
     7
 48
50.0
100
AcDbMText
 10
14093.1299834017
 20
-5320.120965126361
 30
0.0
 40
150.0
 41
0.0
 71
     5
 72
     1
  1
\A1;200
  7
STYLE1
 11
0.0000000000000001
 21
1.0
 31
0.0
 73
     1
 44
1.0
  0
POINT
  5
1A7CC
330
1A730
100
AcDbEntity
  8
DEFPOINTS
  6
ByBlock
 62
     0
 48
50.0
100
AcDbPoint
 10
13794.80961218735
 20
-5033.157382449195
 30
0.0
  0
POINT
  5
1A7CD
330
1A730
100
AcDbEntity
  8
DEFPOINTS
  6
ByBlock
 62
     0
 48
50.0
100
AcDbPoint
 10
13794.80961218735
 20
-4833.157382449197
 30
0.0
  0
POINT
  5
1A7CE
330
1A730
100
AcDbEntity
  8
DEFPOINTS
  6
ByBlock
 62
     0
 48
50.0
100
AcDbPoint
 10
14193.14474718123
 20
-4833.157382449197
 30
0.0
  0
ENDBLK
  5
1A7CF
330
1A730
100
AcDbEntity
  8
0
 48
50.0
100
AcDbBlockEnd
  0
BLOCK
  5
1A7D0
330
1A73D
100
AcDbEntity
  8
0
 48
50.0
100
AcDbBlockBegin
  2
*D25
 70
     1
 10
0.0
 20
0.0
 30
0.0
  3
*D25
  1

  0
LINE
  5
1A7D1
330
1A73D
100
AcDbEntity
  8
0
  6
ByBlock
 62
     0
 48
50.0
100
AcDbLine
 10
13794.80961218735
 20
-5058.157382449195
 30
0.0
 11
13794.80961218735
 21
-5394.204711749573
 31
0.0
  0
LINE
  5
1A7D2
330
1A73D
100
AcDbEntity
  8
0
  6
ByBlock
 62
     0
 48
50.0
100
AcDbLine
 10
13594.80961218735
 20
-5058.157382449195
 30
0.0
 11
13594.80961218735
 21
-5394.204711749573
 31
0.0
  0
LINE
  5
1A7D3
330
1A73D
100
AcDbEntity
  8
0
  6
ByBlock
 62
     0
 48
50.0
100
AcDbLine
 10
13794.80961218735
 20
-5319.204711749573
 30
0.0
 11
13594.80961218735
 21
-5319.204711749573
 31
0.0
  0
LINE
  5
1A7D4
330
1A73D
100
AcDbEntity
  8
0
  6
ByBlock
 62
     0
 48
50.0
100
AcDbLine
 10
13594.80961218735
 20
-5319.204711749573
 30
0.0
 11
13145.88244683302
 21
-5319.204711749573
 31
0.0
  0
INSERT
  5
1A7D5
330
1A73D
100
AcDbEntity
  8
0
  6
ByBlock
 62
     0
 48
50.0
100
AcDbBlockReference
  2
_DOTSMALL
 10
13794.80961218735
 20
-5319.204711749573
 30
0.0
 41
125.0
 42
125.0
 43
125.0
  0
INSERT
  5
1A7D6
330
1A73D
100
AcDbEntity
  8
0
  6
ByBlock
 62
     0
 48
50.0
100
AcDbBlockReference
  2
_DOTSMALL
 10
13594.80961218735
 20
-5319.204711749573
 30
0.0
 41
125.0
 42
125.0
 43
125.0
 50
180.0
  0
MTEXT
  5
1A7D7
330
1A73D
100
AcDbEntity
  8
0
  6
ByBlock
 62
     7
 48
50.0
100
AcDbMText
 10
13307.84602951019
 20
-5219.189947970045
 30
0.0
 40
150.0
 41
0.0
 71
     5
 72
     1
  1
\A1;200
  7
STYLE1
 73
     1
 44
1.0
  0
POINT
  5
1A7D8
330
1A73D
100
AcDbEntity
  8
DEFPOINTS
  6
ByBlock
 62
     0
 48
50.0
100
AcDbPoint
 10
13794.80961218735
 20
-5033.157382449195
 30
0.0
  0
POINT
  5
1A7D9
330
1A73D
100
AcDbEntity
  8
DEFPOINTS
  6
ByBlock
 62
     0
 48
50.0
100
AcDbPoint
 10
13594.80961218735
 20
-5033.157382449195
 30
0.0
  0
POINT
  5
1A7DA
330
1A73D
100
AcDbEntity
  8
DEFPOINTS
  6
ByBlock
 62
     0
 48
50.0
100
AcDbPoint
 10
13594.80961218735
 20
-5319.204711749573
 30
0.0
  0
ENDBLK
  5
1A7DB
330
1A73D
100
AcDbEntity
  8
0
 48
50.0
100
AcDbBlockEnd
  0
BLOCK
  5
1A7DC
330
1A74A
100
AcDbEntity
  8
0
 48
50.0
100
AcDbBlockBegin
  2
*D26
 70
     1
 10
0.0
 20
0.0
 30
0.0
  3
*D26
  1

  0
LINE
  5
1A7DD
330
1A74A
100
AcDbEntity
  8
0
  6
ByBlock
 62
     0
 48
50.0
100
AcDbLine
 10
11141.30961218735
 20
-2233.157382449197
 30
0.0
 11
11141.30961218735
 21
-1222.088527894651
 31
0.0
  0
LINE
  5
1A7DE
330
1A74A
100
AcDbEntity
  8
0
  6
ByBlock
 62
     0
 48
50.0
100
AcDbLine
 10
13831.30961218735
 20
-2293.157382449197
 30
0.0
 11
13831.30961218735
 21
-1222.088527894651
 31
0.0
  0
LINE
  5
1A7DF
330
1A74A
100
AcDbEntity
  8
0
  6
ByBlock
 62
     0
 48
50.0
100
AcDbLine
 10
11141.30961218735
 20
-1297.088527894651
 30
0.0
 11
13831.30961218735
 21
-1297.088527894651
 31
0.0
  0
INSERT
  5
1A7E0
330
1A74A
100
AcDbEntity
  8
0
  6
ByBlock
 62
     0
 48
50.0
100
AcDbBlockReference
  2
_DOTSMALL
 10
11141.30961218735
 20
-1297.088527894651
 30
0.0
 41
125.0
 42
125.0
 43
125.0
 50
180.0
  0
INSERT
  5
1A7E1
330
1A74A
100
AcDbEntity
  8
0
  6
ByBlock
 62
     0
 48
50.0
100
AcDbBlockReference
  2
_DOTSMALL
 10
13831.30961218735
 20
-1297.088527894651
 30
0.0
 41
125.0
 42
125.0
 43
125.0
  0
MTEXT
  5
1A7E2
330
1A74A
100
AcDbEntity
  8
0
  6
ByBlock
 62
     7
 48
50.0
100
AcDbMText
 10
12486.30961218735
 20
-1197.073764115124
 30
0.0
 40
150.0
 41
0.0
 71
     5
 72
     1
  1
\A1;2690
  7
STYLE1
 73
     1
 44
1.0
  0
POINT
  5
1A7E3
330
1A74A
100
AcDbEntity
  8
DEFPOINTS
  6
ByBlock
 62
     0
 48
50.0
100
AcDbPoint
 10
11141.30961218735
 20
-2258.157382449197
 30
0.0
  0
POINT
  5
1A7E4
330
1A74A
100
AcDbEntity
  8
DEFPOINTS
  6
ByBlock
 62
     0
 48
50.0
100
AcDbPoint
 10
13831.30961218735
 20
-2318.157382449197
 30
0.0
  0
POINT
  5
1A7E5
330
1A74A
100
AcDbEntity
  8
DEFPOINTS
  6
ByBlock
 62
     0
 48
50.0
100
AcDbPoint
 10
13831.30961218735
 20
-1297.088527894651
 30
0.0
  0
ENDBLK
  5
1A7E6
330
1A74A
100
AcDbEntity
  8
0
 48
50.0
100
AcDbBlockEnd
  0
BLOCK
  5
1A8FF
330
1A756
100
AcDbEntity
  8
0
 48
50.0
100
AcDbBlockBegin
  2
*D27
 70
     1
 10
0.0
 20
0.0
 30
0.0
  3
*D27
  1

  0
LINE
  5
1AEA4
330
1A756
100
AcDbEntity
  8
寸法
 62
     0
 48
50.0
100
AcDbLine
 10
15112.82958141817
 20
5682.903495449068
 30
0.0
 11
15112.82958141817
 21
6483.281130716521
 31
0.0
  0
LINE
  5
1AEA5
330
1A756
100
AcDbEntity
  8
寸法
 62
     0
 48
50.0
100
AcDbLine
 10
12652.82958141817
 20
6408.281130716521
 30
0.0
 11
15112.82958141817
 21
6408.281130716521
 31
0.0
  0
INSERT
  5
1AEA6
330
1A756
100
AcDbEntity
  8
寸法
 62
     0
 48
50.0
100
AcDbBlockReference
  2
_DOTSMALL
 10
12652.82958141817
 20
6408.281130716521
 30
0.0
 41
125.0
 42
125.0
 43
125.0
 50
180.0
  0
INSERT
  5
1AEA7
330
1A756
100
AcDbEntity
  8
寸法
 62
     0
 48
50.0
100
AcDbBlockReference
  2
_DOTSMALL
 10
15112.82958141817
 20
6408.281130716521
 30
0.0
 41
125.0
 42
125.0
 43
125.0
  0
MTEXT
  5
1AEA8
330
1A756
100
AcDbEntity
  8
寸法
 62
     7
 48
50.0
100
AcDbMText
 10
13882.82958141817
 20
6508.295894496048
 30
0.0
 40
150.0
 41
0.0
 71
     5
 72
     1
  1
\A1;柱外寸法 2460
  7
STYLE1
 73
     1
 44
1.0
  0
POINT
  5
1AEA9
330
1A756
100
AcDbEntity
  8
DEFPOINTS
 62
     0
 48
50.0
100
AcDbPoint
 10
12652.82958141817
 20
5712.140949611779
 30
0.0
  0
POINT
  5
1AEAA
330
1A756
100
AcDbEntity
  8
DEFPOINTS
 62
     0
 48
50.0
100
AcDbPoint
 10
15112.82958141817
 20
5657.903495449068
 30
0.0
  0
POINT
  5
1AEAB
330
1A756
100
AcDbEntity
  8
DEFPOINTS
 62
     0
 48
50.0
100
AcDbPoint
 10
15112.82958141817
 20
6408.281130716521
 30
0.0
  0
ENDBLK
  5
1A908
330
1A756
100
AcDbEntity
  8
0
 48
50.0
100
AcDbBlockEnd
  0
BLOCK
  5
1A7F1
330
1A761
100
AcDbEntity
  8
0
 48
50.0
100
AcDbBlockBegin
  2
*D28
 70
     1
 10
0.0
 20
0.0
 30
0.0
  3
*D28
  1

  0
LINE
  5
1A7F2
330
1A761
100
AcDbEntity
  8
0
  6
ByBlock
 62
     0
 48
50.0
100
AcDbLine
 10
11183.30961218735
 20
-4620.657382449197
 30
0.0
 11
10787.4213319327
 21
-4620.657382449197
 31
0.0
  0
LINE
  5
1A7F3
330
1A761
100
AcDbEntity
  8
0
  6
ByBlock
 62
     0
 48
50.0
100
AcDbLine
 10
11183.30961218735
 20
-2822.657382449197
 30
0.0
 11
10787.4213319327
 21
-2822.657382449196
 31
0.0
  0
LINE
  5
1A7F4
330
1A761
100
AcDbEntity
  8
0
  6
ByBlock
 62
     0
 48
50.0
100
AcDbLine
 10
10862.42133193271
 20
-4620.657382449197
 30
0.0
 11
10862.42133193271
 21
-2822.657382449196
 31
0.0
  0
INSERT
  5
1A7F5
330
1A761
100
AcDbEntity
  8
0
  6
ByBlock
 62
     0
 48
50.0
100
AcDbBlockReference
  2
_DOTSMALL
 10
10862.42133193271
 20
-4620.657382449197
 30
0.0
 41
125.0
 42
125.0
 43
125.0
 50
270.0
  0
INSERT
  5
1A7F6
330
1A761
100
AcDbEntity
  8
0
  6
ByBlock
 62
     0
 48
50.0
100
AcDbBlockReference
  2
_DOTSMALL
 10
10862.42133193271
 20
-2822.657382449196
 30
0.0
 41
125.0
 42
125.0
 43
125.0
 50
90.0
  0
MTEXT
  5
1A7F7
330
1A761
100
AcDbEntity
  8
0
  6
ByBlock
 62
     7
 48
50.0
100
AcDbMText
 10
10762.42133193271
 20
-3721.657382449196
 30
0.0
 40
150.0
 41
0.0
 71
     5
 72
     1
  1
\A1;有効開口部高サ 1798
  7
STYLE1
 11
0.0000000000000001
 21
1.0
 31
0.0
 73
     1
 44
1.0
  0
POINT
  5
1A7F8
330
1A761
100
AcDbEntity
  8
DEFPOINTS
  6
ByBlock
 62
     0
 48
50.0
100
AcDbPoint
 10
11208.30961218735
 20
-4620.657382449197
 30
0.0
  0
POINT
  5
1A7F9
330
1A761
100
AcDbEntity
  8
DEFPOINTS
  6
ByBlock
 62
     0
 48
50.0
100
AcDbPoint
 10
11208.30961218735
 20
-2822.657382449197
 30
0.0
  0
POINT
  5
1A7FA
330
1A761
100
AcDbEntity
  8
DEFPOINTS
  6
ByBlock
 62
     0
 48
50.0
100
AcDbPoint
 10
10862.42133193271
 20
-2822.657382449196
 30
0.0
  0
ENDBLK
  5
1A7FB
330
1A761
100
AcDbEntity
  8
0
 48
50.0
100
AcDbBlockEnd
  0
BLOCK
  5
1A7FC
330
1A76D
100
AcDbEntity
  8
0
 48
50.0
100
AcDbBlockBegin
  2
*D29
 70
     1
 10
0.0
 20
0.0
 30
0.0
  3
*D29
  1

  0
LINE
  5
1AEAC
330
1A76D
100
AcDbEntity
  8
寸法
 62
     0
 48
50.0
100
AcDbLine
 10
12627.82958141817
 20
5445.0
 30
0.0
 11
11851.70986552558
 21
5445.0
 31
0.0
  0
LINE
  5
1AEAD
330
1A76D
100
AcDbEntity
  8
寸法
 62
     0
 48
50.0
100
AcDbLine
 10
11926.70986552558
 20
3330.0
 30
0.0
 11
11926.70986552558
 21
5445.0
 31
0.0
  0
INSERT
  5
1AEAE
330
1A76D
100
AcDbEntity
  8
寸法
 62
     0
 48
50.0
100
AcDbBlockReference
  2
_DOTSMALL
 10
11926.70986552558
 20
3330.0
 30
0.0
 41
125.0
 42
125.0
 43
125.0
 50
270.0
  0
INSERT
  5
1AEAF
330
1A76D
100
AcDbEntity
  8
寸法
 62
     0
 48
50.0
100
AcDbBlockReference
  2
_DOTSMALL
 10
11926.70986552558
 20
5445.0
 30
0.0
 41
125.0
 42
125.0
 43
125.0
 50
90.0
  0
MTEXT
  5
1AEB0
330
1A76D
100
AcDbEntity
  8
寸法
 62
     7
 48
50.0
100
AcDbMText
 10
11826.69510174605
 20
4387.500000000001
 30
0.0
 40
150.0
 41
0.0
 71
     5
 72
     1
  1
\A1;2115
  7
STYLE1
 11
0.0000000000000001
 21
1.0
 31
0.0
 73
     1
 44
1.0
  0
POINT
  5
1AEB1
330
1A76D
100
AcDbEntity
  8
DEFPOINTS
 62
     0
 48
50.0
100
AcDbPoint
 10
12584.82958141817
 20
3330.0
 30
0.0
  0
POINT
  5
1AEB2
330
1A76D
100
AcDbEntity
  8
DEFPOINTS
 62
     0
 48
50.0
100
AcDbPoint
 10
12652.82958141817
 20
5445.0
 30
0.0
  0
POINT
  5
1AEB3
330
1A76D
100
AcDbEntity
  8
DEFPOINTS
 62
     0
 48
50.0
100
AcDbPoint
 10
11926.70986552558
 20
5445.0
 30
0.0
  0
ENDBLK
  5
1A805
330
1A76D
100
AcDbEntity
  8
0
 48
50.0
100
AcDbBlockEnd
  0
BLOCK
  5
1A806
330
1A778
100
AcDbEntity
  8
0
 48
50.0
100
AcDbBlockBegin
  2
*D30
 70
     1
 10
0.0
 20
0.0
 30
0.0
  3
*D30
  1

  0
LINE
  5
1A807
330
1A778
100
AcDbEntity
  8
0
  6
ByBlock
 62
     0
 48
50.0
100
AcDbLine
 10
11116.30961218735
 20
-2258.157382449196
 30
0.0
 11
10167.14369188896
 21
-2258.157382449196
 31
0.0
  0
LINE
  5
1A808
330
1A778
100
AcDbEntity
  8
0
  6
ByBlock
 62
     0
 48
50.0
100
AcDbLine
 10
11183.30961218735
 20
-4698.157382449197
 30
0.0
 11
10167.14369188896
 21
-4698.157382449197
 31
0.0
  0
LINE
  5
1A809
330
1A778
100
AcDbEntity
  8
0
  6
ByBlock
 62
     0
 48
50.0
100
AcDbLine
 10
10242.14369188896
 20
-2258.157382449196
 30
0.0
 11
10242.14369188896
 21
-4698.157382449197
 31
0.0
  0
INSERT
  5
1A80A
330
1A778
100
AcDbEntity
  8
0
  6
ByBlock
 62
     0
 48
50.0
100
AcDbBlockReference
  2
_DOTSMALL
 10
10242.14369188896
 20
-2258.157382449196
 30
0.0
 41
125.0
 42
125.0
 43
125.0
 50
90.0
  0
INSERT
  5
1A80B
330
1A778
100
AcDbEntity
  8
0
  6
ByBlock
 62
     0
 48
50.0
100
AcDbBlockReference
  2
_DOTSMALL
 10
10242.14369188896
 20
-4698.157382449197
 30
0.0
 41
125.0
 42
125.0
 43
125.0
 50
270.0
  0
MTEXT
  5
1A80C
330
1A778
100
AcDbEntity
  8
0
  6
ByBlock
 62
     7
 48
50.0
100
AcDbMText
 10
10142.12892810943
 20
-3478.157382449196
 30
0.0
 40
150.0
 41
0.0
 71
     5
 72
     1
  1
\A1;2440
  7
STYLE1
 11
0.0000000000000001
 21
1.0
 31
0.0
 73
     1
 44
1.0
  0
POINT
  5
1A80D
330
1A778
100
AcDbEntity
  8
DEFPOINTS
  6
ByBlock
 62
     0
 48
50.0
100
AcDbPoint
 10
11141.30961218735
 20
-2258.157382449197
 30
0.0
  0
POINT
  5
1A80E
330
1A778
100
AcDbEntity
  8
DEFPOINTS
  6
ByBlock
 62
     0
 48
50.0
100
AcDbPoint
 10
11208.30961218735
 20
-4698.157382449197
 30
0.0
  0
POINT
  5
1A80F
330
1A778
100
AcDbEntity
  8
DEFPOINTS
  6
ByBlock
 62
     0
 48
50.0
100
AcDbPoint
 10
10242.14369188896
 20
-4698.157382449197
 30
0.0
  0
ENDBLK
  5
1A810
330
1A778
100
AcDbEntity
  8
0
 48
50.0
100
AcDbBlockEnd
  0
BLOCK
  5
1A811
330
1A784
100
AcDbEntity
  8
0
 48
50.0
100
AcDbBlockBegin
  2
*D31
 70
     1
 10
0.0
 20
0.0
 30
0.0
  3
*D31
  1

  0
LINE
  5
1A812
330
1A784
100
AcDbEntity
  8
0
  6
ByBlock
 62
     0
 48
50.0
100
AcDbLine
 10
11183.30961218735
 20
-4698.157382449197
 30
0.0
 11
10475.18989629476
 21
-4698.157382449197
 31
0.0
  0
LINE
  5
1A813
330
1A784
100
AcDbEntity
  8
0
  6
ByBlock
 62
     0
 48
50.0
100
AcDbLine
 10
11183.30961218735
 20
-4643.157382449197
 30
0.0
 11
10475.18989629476
 21
-4643.157382449197
 31
0.0
  0
LINE
  5
1A814
330
1A784
100
AcDbEntity
  8
0
  6
ByBlock
 62
     0
 48
50.0
100
AcDbLine
 10
10550.18989629476
 20
-4643.157382449197
 30
0.0
 11
10550.18989629476
 21
-4698.157382449197
 31
0.0
  0
LINE
  5
1A815
330
1A784
100
AcDbEntity
  8
0
  6
ByBlock
 62
     0
 48
50.0
100
AcDbLine
 10
10550.18989629476
 20
-4698.157382449197
 30
0.0
 11
10550.18989629476
 21
-5119.343489989529
 31
0.0
  0
INSERT
  5
1A816
330
1A784
100
AcDbEntity
  8
0
  6
ByBlock
 62
     0
 48
50.0
100
AcDbBlockReference
  2
_DOTSMALL
 10
10550.18989629476
 20
-4643.157382449197
 30
0.0
 41
125.0
 42
125.0
 43
125.0
 50
90.0
  0
INSERT
  5
1A817
330
1A784
100
AcDbEntity
  8
0
  6
ByBlock
 62
     0
 48
50.0
100
AcDbBlockReference
  2
_DOTSMALL
 10
10550.18989629476
 20
-4698.157382449197
 30
0.0
 41
125.0
 42
125.0
 43
125.0
 50
270.0
  0
MTEXT
  5
1A818
330
1A784
100
AcDbEntity
  8
0
  6
ByBlock
 62
     7
 48
50.0
100
AcDbMText
 10
10450.18989629476
 20
-5008.736888271731
 30
0.0
 40
150.0
 41
0.0
 71
     5
 72
     1
  1
\A1;55
  7
STYLE1
 11
0.0000000000000001
 21
1.0
 31
0.0
 73
     1
 44
1.0
  0
POINT
  5
1A819
330
1A784
100
AcDbEntity
  8
DEFPOINTS
  6
ByBlock
 62
     0
 48
50.0
100
AcDbPoint
 10
11208.30961218735
 20
-4698.157382449197
 30
0.0
  0
POINT
  5
1A81A
330
1A784
100
AcDbEntity
  8
DEFPOINTS
  6
ByBlock
 62
     0
 48
50.0
100
AcDbPoint
 10
11208.30961218735
 20
-4643.157382449197
 30
0.0
  0
POINT
  5
1A81B
330
1A784
100
AcDbEntity
  8
DEFPOINTS
  6
ByBlock
 62
     0
 48
50.0
100
AcDbPoint
 10
10550.18989629476
 20
-4643.157382449197
 30
0.0
  0
ENDBLK
  5
1A81C
330
1A784
100
AcDbEntity
  8
0
 48
50.0
100
AcDbBlockEnd
  0
BLOCK
  5
1A909
330
1A791
100
AcDbEntity
  8
0
 48
50.0
100
AcDbBlockBegin
  2
*D32
 70
     1
 10
0.0
 20
0.0
 30
0.0
  3
*D32
  1

  0
LINE
  5
1A90A
330
1A791
100
AcDbEntity
  8
0
  6
ByBlock
 62
     0
 48
50.0
100
AcDbLine
 10
13097.82958141817
 20
5740.0
 30
0.0
 11
13097.82958141817
 21
6483.281130716521
 31
0.0
  0
LINE
  5
1A90B
330
1A791
100
AcDbEntity
  8
0
  6
ByBlock
 62
     0
 48
50.0
100
AcDbLine
 10
13232.82958141817
 20
5737.140949611779
 30
0.0
 11
13232.82958141817
 21
6483.281130716521
 31
0.0
  0
LINE
  5
1A90C
330
1A791
100
AcDbEntity
  8
0
  6
ByBlock
 62
     0
 48
50.0
100
AcDbLine
 10
13232.82958141817
 20
6408.281130716521
 30
0.0
 11
13097.82958141817
 21
6408.281130716521
 31
0.0
  0
LINE
  5
1A90D
330
1A791
100
AcDbEntity
  8
0
  6
ByBlock
 62
     0
 48
50.0
100
AcDbLine
 10
13097.82958141817
 20
6408.281130716521
 30
0.0
 11
12676.61637798257
 21
6408.281130716521
 31
0.0
  0
INSERT
  5
1A90E
330
1A791
100
AcDbEntity
  8
0
  6
ByBlock
 62
     0
 48
50.0
100
AcDbBlockReference
  2
_DOTSMALL
 10
13232.82958141817
 20
6408.281130716521
 30
0.0
 41
125.0
 42
125.0
 43
125.0
  0
INSERT
  5
1A90F
330
1A791
100
AcDbEntity
  8
0
  6
ByBlock
 62
     0
 48
50.0
100
AcDbBlockReference
  2
_DOTSMALL
 10
13097.82958141817
 20
6408.281130716521
 30
0.0
 41
125.0
 42
125.0
 43
125.0
 50
180.0
  0
MTEXT
  5
1A910
330
1A791
100
AcDbEntity
  8
0
  6
ByBlock
 62
     7
 48
50.0
100
AcDbMText
 10
12824.72297970037
 20
6508.281130716522
 30
0.0
 40
150.0
 41
0.0
 71
     5
 72
     1
  1
\A1;135
  7
STYLE1
 73
     1
 44
1.0
  0
POINT
  5
1A911
330
1A791
100
AcDbEntity
  8
DEFPOINTS
  6
ByBlock
 62
     0
 48
50.0
100
AcDbPoint
 10
13097.82958141817
 20
5715.0
 30
0.0
  0
POINT
  5
1A912
330
1A791
100
AcDbEntity
  8
DEFPOINTS
  6
ByBlock
 62
     0
 48
50.0
100
AcDbPoint
 10
13232.82958141817
 20
5712.140949611779
 30
0.0
  0
POINT
  5
1A913
330
1A791
100
AcDbEntity
  8
DEFPOINTS
  6
ByBlock
 62
     0
 48
50.0
100
AcDbPoint
 10
13232.82958141817
 20
6408.281130716521
 30
0.0
  0
ENDBLK
  5
1A914
330
1A791
100
AcDbEntity
  8
0
 48
50.0
100
AcDbBlockEnd
  0
BLOCK
  5
1AA2F
330
1A79E
100
AcDbEntity
  8
0
 48
50.0
100
AcDbBlockBegin
  2
*D33
 70
     1
 10
0.0
 20
0.0
 30
0.0
  3
*D33
  1

  0
LINE
  5
1AA30
330
1A79E
100
AcDbEntity
  8
0
  6
ByBlock
 62
     0
 48
50.0
100
AcDbLine
 10
12627.8342842794
 20
5580.433917659398
 30
0.0
 11
11958.76696139898
 21
5593.413394109036
 31
0.0
  0
LINE
  5
1AA31
330
1A79E
100
AcDbEntity
  8
0
  6
ByBlock
 62
     0
 48
50.0
100
AcDbLine
 10
12630.06479076741
 20
5695.412284497717
 30
0.0
 11
11960.99746788698
 21
5708.391760947356
 31
0.0
  0
LINE
  5
1AA32
330
1A79E
100
AcDbEntity
  8
0
  6
ByBlock
 62
     0
 48
50.0
100
AcDbLine
 10
12033.75285281527
 20
5591.958715964686
 30
0.0
 11
12035.98335930327
 21
5706.937082803005
 31
0.0
  0
LINE
  5
1AA33
330
1A79E
100
AcDbEntity
  8
0
  6
ByBlock
 62
     0
 48
50.0
100
AcDbLine
 10
12035.98335930327
 20
5706.937082803005
 30
0.0
 11
12043.57121659419
 21
6098.076693382238
 31
0.0
  0
INSERT
  5
1AA34
330
1A79E
100
AcDbEntity
  8
0
  6
ByBlock
 62
     0
 48
50.0
100
AcDbBlockReference
  2
_DOTSMALL
 10
12033.75285281527
 20
5591.958715964686
 30
0.0
 41
125.0
 42
125.0
 43
125.0
 50
268.8886380684309
  0
INSERT
  5
1AA35
330
1A79E
100
AcDbEntity
  8
0
  6
ByBlock
 62
     0
 48
50.0
100
AcDbBlockReference
  2
_DOTSMALL
 10
12035.98335930327
 20
5706.937082803005
 30
0.0
 41
125.0
 42
125.0
 43
125.0
 50
88.88863806843096
  0
MTEXT
  5
1AA36
330
1A79E
100
AcDbEntity
  8
0
  6
ByBlock
 62
     7
 48
50.0
100
AcDbMText
 10
11941.00833118063
 20
5966.934701798667
 30
0.0
 40
150.0
 41
0.0
 71
     5
 72
     1
  1
\A1;115
  7
STYLE1
 11
0.0193957085913349
 21
0.9998118855505969
 31
0.0
 73
     1
 44
1.0
  0
POINT
  5
1AA37
330
1A79E
100
AcDbEntity
  8
DEFPOINTS
  6
ByBlock
 62
     0
 48
50.0
100
AcDbPoint
 10
12652.82958141817
 20
5579.949024944614
 30
0.0
  0
POINT
  5
1AA38
330
1A79E
100
AcDbEntity
  8
DEFPOINTS
  6
ByBlock
 62
     0
 48
50.0
100
AcDbPoint
 10
12655.06008790617
 20
5694.927391782933
 30
0.0
  0
POINT
  5
1AA39
330
1A79E
100
AcDbEntity
  8
DEFPOINTS
  6
ByBlock
 62
     0
 48
50.0
100
AcDbPoint
 10
12035.98335930327
 20
5706.937082803005
 30
0.0
  0
ENDBLK
  5
1AA3A
330
1A79E
100
AcDbEntity
  8
0
 48
50.0
100
AcDbBlockEnd
  0
BLOCK
  5
1A835
330
1A7AB
100
AcDbEntity
  8
0
 48
50.0
100
AcDbBlockBegin
  2
*D34
 70
     1
 10
0.0
 20
0.0
 30
0.0
  3
*D34
  1

  0
LINE
  5
1A836
330
1A7AB
100
AcDbEntity
  8
0
  6
ByBlock
 62
     0
 48
50.0
100
AcDbLine
 10
13761.30961218735
 20
-4698.157382449197
 30
0.0
 11
14470.80036560877
 21
-4698.157382449197
 31
0.0
  0
LINE
  5
1A837
330
1A7AB
100
AcDbEntity
  8
0
  6
ByBlock
 62
     0
 48
50.0
100
AcDbLine
 10
13856.30961218735
 20
-2318.157382449197
 30
0.0
 11
14470.80036560877
 21
-2318.157382449197
 31
0.0
  0
LINE
  5
1A838
330
1A7AB
100
AcDbEntity
  8
0
  6
ByBlock
 62
     0
 48
50.0
100
AcDbLine
 10
14395.80036560877
 20
-4698.157382449197
 30
0.0
 11
14395.80036560877
 21
-2318.157382449197
 31
0.0
  0
INSERT
  5
1A839
330
1A7AB
100
AcDbEntity
  8
0
  6
ByBlock
 62
     0
 48
50.0
100
AcDbBlockReference
  2
_DOTSMALL
 10
14395.80036560877
 20
-4698.157382449197
 30
0.0
 41
125.0
 42
125.0
 43
125.0
 50
270.0
  0
INSERT
  5
1A83A
330
1A7AB
100
AcDbEntity
  8
0
  6
ByBlock
 62
     0
 48
50.0
100
AcDbBlockReference
  2
_DOTSMALL
 10
14395.80036560877
 20
-2318.157382449197
 30
0.0
 41
125.0
 42
125.0
 43
125.0
 50
90.0
  0
MTEXT
  5
1A83B
330
1A7AB
100
AcDbEntity
  8
0
  6
ByBlock
 62
     7
 48
50.0
100
AcDbMText
 10
14295.78560182924
 20
-3508.157382449196
 30
0.0
 40
150.0
 41
0.0
 71
     5
 72
     1
  1
\A1;2380
  7
STYLE1
 11
0.0000000000000001
 21
1.0
 31
0.0
 73
     1
 44
1.0
  0
POINT
  5
1A83C
330
1A7AB
100
AcDbEntity
  8
DEFPOINTS
  6
ByBlock
 62
     0
 48
50.0
100
AcDbPoint
 10
13736.30961218735
 20
-4698.157382449197
 30
0.0
  0
POINT
  5
1A83D
330
1A7AB
100
AcDbEntity
  8
DEFPOINTS
  6
ByBlock
 62
     0
 48
50.0
100
AcDbPoint
 10
13831.30961218735
 20
-2318.157382449197
 30
0.0
  0
POINT
  5
1A83E
330
1A7AB
100
AcDbEntity
  8
DEFPOINTS
  6
ByBlock
 62
     0
 48
50.0
100
AcDbPoint
 10
14395.80036560877
 20
-2318.157382449197
 30
0.0
  0
ENDBLK
  5
1A83F
330
1A7AB
100
AcDbEntity
  8
0
 48
50.0
100
AcDbBlockEnd
  0
BLOCK
  5
1A8DD
330
1A7B7
100
AcDbEntity
  8
0
 48
50.0
100
AcDbBlockBegin
  2
*D35
 70
     1
 10
0.0
 20
0.0
 30
0.0
  3
*D35
  1

  0
LINE
  5
1A8DE
330
1A7B7
100
AcDbEntity
  8
0
  6
ByBlock
 62
     0
 48
50.0
100
AcDbLine
 10
15692.82958141817
 20
5682.903495449068
 30
0.0
 11
15692.82958141817
 21
6483.281130716521
 31
0.0
  0
LINE
  5
1A8DF
330
1A7B7
100
AcDbEntity
  8
0
  6
ByBlock
 62
     0
 48
50.0
100
AcDbLine
 10
15787.82958141817
 20
5680.0
 30
0.0
 11
15787.82958141817
 21
6483.281130716521
 31
0.0
  0
LINE
  5
1A8E0
330
1A7B7
100
AcDbEntity
  8
0
  6
ByBlock
 62
     0
 48
50.0
100
AcDbLine
 10
15692.82958141817
 20
6408.281130716521
 30
0.0
 11
15787.82958141817
 21
6408.281130716521
 31
0.0
  0
LINE
  5
1A8E1
330
1A7B7
100
AcDbEntity
  8
0
  6
ByBlock
 62
     0
 48
50.0
100
AcDbLine
 10
15787.82958141817
 20
6408.281130716521
 30
0.0
 11
16234.10183997187
 21
6408.281130716521
 31
0.0
  0
INSERT
  5
1A8E2
330
1A7B7
100
AcDbEntity
  8
0
  6
ByBlock
 62
     0
 48
50.0
100
AcDbBlockReference
  2
_DOTSMALL
 10
15692.82958141817
 20
6408.281130716521
 30
0.0
 41
125.0
 42
125.0
 43
125.0
 50
180.0
  0
INSERT
  5
1A8E3
330
1A7B7
100
AcDbEntity
  8
0
  6
ByBlock
 62
     0
 48
50.0
100
AcDbBlockReference
  2
_DOTSMALL
 10
15787.82958141817
 20
6408.281130716521
 30
0.0
 41
125.0
 42
125.0
 43
125.0
  0
MTEXT
  5
1A8E4
330
1A7B7
100
AcDbEntity
  8
0
  6
ByBlock
 62
     7
 48
50.0
100
AcDbMText
 10
16120.38863653628
 20
6508.281130716522
 30
0.0
 40
150.0
 41
0.0
 71
     5
 72
     1
  1
\A1;95
  7
STYLE1
 73
     1
 44
1.0
  0
POINT
  5
1A8E5
330
1A7B7
100
AcDbEntity
  8
DEFPOINTS
  6
ByBlock
 62
     0
 48
50.0
100
AcDbPoint
 10
15692.82958141817
 20
5657.903495449068
 30
0.0
  0
POINT
  5
1A8E6
330
1A7B7
100
AcDbEntity
  8
DEFPOINTS
  6
ByBlock
 62
     0
 48
50.0
100
AcDbPoint
 10
15787.82958141817
 20
5655.0
 30
0.0
  0
POINT
  5
1A8E7
330
1A7B7
100
AcDbEntity
  8
DEFPOINTS
  6
ByBlock
 62
     0
 48
50.0
100
AcDbPoint
 10
15787.82958141817
 20
6408.281130716521
 30
0.0
  0
ENDBLK
  5
1A8E8
330
1A7B7
100
AcDbEntity
  8
0
 48
50.0
100
AcDbBlockEnd
  0
BLOCK
  5
1ADD1
330
1AD56
100
AcDbEntity
  8
0
 48
50.0
100
AcDbBlockBegin
  2
*D36
 70
     1
 10
0.0
 20
0.0
 30
0.0
  3
*D36
  1

  0
LINE
  5
1ADD2
330
1AD56
100
AcDbEntity
  8
0
  6
ByBlock
 62
     0
 48
50.0
100
AcDbLine
 10
12492.82958141816
 20
11803.73679736197
 30
0.0
 11
11353.38013607452
 21
11803.73679736197
 31
0.0
  0
LINE
  5
1ADD3
330
1AD56
100
AcDbEntity
  8
0
  6
ByBlock
 62
     0
 48
50.0
100
AcDbLine
 10
12627.82958141817
 20
9363.736797361967
 30
0.0
 11
11353.38013607452
 21
9363.736797361967
 31
0.0
  0
LINE
  5
1ADD4
330
1AD56
100
AcDbEntity
  8
0
  6
ByBlock
 62
     0
 48
50.0
100
AcDbLine
 10
11428.38013607452
 20
11803.73679736197
 30
0.0
 11
11428.38013607452
 21
9363.736797361967
 31
0.0
  0
INSERT
  5
1ADD5
330
1AD56
100
AcDbEntity
  8
0
  6
ByBlock
 62
     0
 48
50.0
100
AcDbBlockReference
  2
_DOTSMALL
 10
11428.38013607452
 20
11803.73679736197
 30
0.0
 41
125.0
 42
125.0
 43
125.0
 50
90.0
  0
INSERT
  5
1ADD6
330
1AD56
100
AcDbEntity
  8
0
  6
ByBlock
 62
     0
 48
50.0
100
AcDbBlockReference
  2
_DOTSMALL
 10
11428.38013607452
 20
9363.736797361967
 30
0.0
 41
125.0
 42
125.0
 43
125.0
 50
270.0
  0
MTEXT
  5
1ADD7
330
1AD56
100
AcDbEntity
  8
0
  6
ByBlock
 62
     7
 48
50.0
100
AcDbMText
 10
11328.36537229499
 20
10583.73679736196
 30
0.0
 40
150.0
 41
0.0
 71
     5
 72
     1
  1
\A1;2440
  7
STYLE1
 11
0.0000000000000001
 21
1.0
 31
0.0
 73
     1
 44
1.0
  0
POINT
  5
1ADD8
330
1AD56
100
AcDbEntity
  8
DEFPOINTS
  6
ByBlock
 62
     0
 48
50.0
100
AcDbPoint
 10
12517.82958141816
 20
11803.73679736197
 30
0.0
  0
POINT
  5
1ADD9
330
1AD56
100
AcDbEntity
  8
DEFPOINTS
  6
ByBlock
 62
     0
 48
50.0
100
AcDbPoint
 10
12652.82958141817
 20
9363.736797361967
 30
0.0
  0
POINT
  5
1ADDA
330
1AD56
100
AcDbEntity
  8
DEFPOINTS
  6
ByBlock
 62
     0
 48
50.0
100
AcDbPoint
 10
11428.38013607452
 20
9363.736797361967
 30
0.0
  0
ENDBLK
  5
1ADDB
330
1AD56
100
AcDbEntity
  8
0
 48
50.0
100
AcDbBlockEnd
  0
BLOCK
  5
1ADDC
330
1AD62
100
AcDbEntity
  8
0
 48
50.0
100
AcDbBlockBegin
  2
*D37
 70
     1
 10
0.0
 20
0.0
 30
0.0
  3
*D37
  1

  0
LINE
  5
1ADDD
330
1AD62
100
AcDbEntity
  8
0
  6
ByBlock
 62
     0
 48
50.0
100
AcDbLine
 10
15137.82958141817
 20
9363.736797361971
 30
0.0
 11
16812.07164574816
 21
9363.736797361971
 31
0.0
  0
LINE
  5
1ADDE
330
1AD62
100
AcDbEntity
  8
0
  6
ByBlock
 62
     0
 48
50.0
100
AcDbLine
 10
15232.82958141817
 20
11743.73679736197
 30
0.0
 11
16812.07164574816
 21
11743.73679736197
 31
0.0
  0
LINE
  5
1ADDF
330
1AD62
100
AcDbEntity
  8
0
  6
ByBlock
 62
     0
 48
50.0
100
AcDbLine
 10
16737.07164574816
 20
9363.736797361971
 30
0.0
 11
16737.07164574816
 21
11743.73679736197
 31
0.0
  0
INSERT
  5
1ADE0
330
1AD62
100
AcDbEntity
  8
0
  6
ByBlock
 62
     0
 48
50.0
100
AcDbBlockReference
  2
_DOTSMALL
 10
16737.07164574816
 20
9363.736797361971
 30
0.0
 41
125.0
 42
125.0
 43
125.0
 50
270.0
  0
INSERT
  5
1ADE1
330
1AD62
100
AcDbEntity
  8
0
  6
ByBlock
 62
     0
 48
50.0
100
AcDbBlockReference
  2
_DOTSMALL
 10
16737.07164574816
 20
11743.73679736197
 30
0.0
 41
125.0
 42
125.0
 43
125.0
 50
90.0
  0
MTEXT
  5
1ADE2
330
1AD62
100
AcDbEntity
  8
0
  6
ByBlock
 62
     7
 48
50.0
100
AcDbMText
 10
16637.05688196863
 20
10553.73679736197
 30
0.0
 40
150.0
 41
0.0
 71
     5
 72
     1
  1
\A1;2380
  7
STYLE1
 11
0.0000000000000001
 21
1.0
 31
0.0
 73
     1
 44
1.0
  0
POINT
  5
1ADE3
330
1AD62
100
AcDbEntity
  8
DEFPOINTS
  6
ByBlock
 62
     0
 48
50.0
100
AcDbPoint
 10
15112.82958141817
 20
9363.736797361971
 30
0.0
  0
POINT
  5
1ADE4
330
1AD62
100
AcDbEntity
  8
DEFPOINTS
  6
ByBlock
 62
     0
 48
50.0
100
AcDbPoint
 10
15207.82958141817
 20
11743.73679736197
 30
0.0
  0
POINT
  5
1ADE5
330
1AD62
100
AcDbEntity
  8
DEFPOINTS
  6
ByBlock
 62
     0
 48
50.0
100
AcDbPoint
 10
16737.07164574816
 20
11743.73679736197
 30
0.0
  0
ENDBLK
  5
1ADE6
330
1AD62
100
AcDbEntity
  8
0
 48
50.0
100
AcDbBlockEnd
  0
BLOCK
  5
1ADE7
330
1AD6E
100
AcDbEntity
  8
0
 48
50.0
100
AcDbBlockBegin
  2
*D38
 70
     1
 10
0.0
 20
0.0
 30
0.0
  3
*D38
  1

  0
LINE
  5
1ADE8
330
1AD6E
100
AcDbEntity
  8
0
  6
ByBlock
 62
     0
 48
50.0
100
AcDbLine
 10
15112.82958141816
 20
11771.3631811976
 30
0.0
 11
15112.82958141816
 21
12572.01792807848
 31
0.0
  0
LINE
  5
1ADE9
330
1AD6E
100
AcDbEntity
  8
0
  6
ByBlock
 62
     0
 48
50.0
100
AcDbLine
 10
15207.82958141817
 20
11768.73679736197
 30
0.0
 11
15207.82958141817
 21
12572.01792807848
 31
0.0
  0
LINE
  5
1ADEA
330
1AD6E
100
AcDbEntity
  8
0
  6
ByBlock
 62
     0
 48
50.0
100
AcDbLine
 10
15112.82958141816
 20
12497.01792807848
 30
0.0
 11
15207.82958141817
 21
12497.01792807848
 31
0.0
  0
LINE
  5
1ADEB
330
1AD6E
100
AcDbEntity
  8
0
  6
ByBlock
 62
     0
 48
50.0
100
AcDbLine
 10
15207.82958141817
 20
12497.01792807848
 30
0.0
 11
15654.10183997187
 21
12497.01792807848
 31
0.0
  0
INSERT
  5
1ADEC
330
1AD6E
100
AcDbEntity
  8
0
  6
ByBlock
 62
     0
 48
50.0
100
AcDbBlockReference
  2
_DOTSMALL
 10
15112.82958141816
 20
12497.01792807848
 30
0.0
 41
125.0
 42
125.0
 43
125.0
 50
180.0
  0
INSERT
  5
1ADED
330
1AD6E
100
AcDbEntity
  8
0
  6
ByBlock
 62
     0
 48
50.0
100
AcDbBlockReference
  2
_DOTSMALL
 10
15207.82958141817
 20
12497.01792807848
 30
0.0
 41
125.0
 42
125.0
 43
125.0
  0
MTEXT
  5
1ADEE
330
1AD6E
100
AcDbEntity
  8
0
  6
ByBlock
 62
     7
 48
50.0
100
AcDbMText
 10
15540.38863653627
 20
12597.01792807848
 30
0.0
 40
150.0
 41
0.0
 71
     5
 72
     1
  1
\A1;95
  7
STYLE1
 73
     1
 44
1.0
  0
POINT
  5
1ADEF
330
1AD6E
100
AcDbEntity
  8
DEFPOINTS
  6
ByBlock
 62
     0
 48
50.0
100
AcDbPoint
 10
15112.82958141816
 20
11746.3631811976
 30
0.0
  0
POINT
  5
1ADF0
330
1AD6E
100
AcDbEntity
  8
DEFPOINTS
  6
ByBlock
 62
     0
 48
50.0
100
AcDbPoint
 10
15207.82958141817
 20
11743.73679736197
 30
0.0
  0
POINT
  5
1ADF1
330
1AD6E
100
AcDbEntity
  8
DEFPOINTS
  6
ByBlock
 62
     0
 48
50.0
100
AcDbPoint
 10
15207.82958141817
 20
12497.01792807848
 30
0.0
  0
ENDBLK
  5
1ADF2
330
1AD6E
100
AcDbEntity
  8
0
 48
50.0
100
AcDbBlockEnd
  0
BLOCK
  5
1ADF3
330
1AD7B
100
AcDbEntity
  8
0
 48
50.0
100
AcDbBlockBegin
  2
*D39
 70
     1
 10
0.0
 20
0.0
 30
0.0
  3
*D39
  1

  0
LINE
  5
1ADF4
330
1AD7B
100
AcDbEntity
  8
0
  6
ByBlock
 62
     0
 48
50.0
100
AcDbLine
 10
12517.82958141817
 20
11828.73679736197
 30
0.0
 11
12517.82958141817
 21
12572.01792807849
 31
0.0
  0
LINE
  5
1ADF5
330
1AD7B
100
AcDbEntity
  8
0
  6
ByBlock
 62
     0
 48
50.0
100
AcDbLine
 10
12652.82958141816
 20
11826.29728927309
 30
0.0
 11
12652.82958141816
 21
12572.01792807849
 31
0.0
  0
LINE
  5
1ADF6
330
1AD7B
100
AcDbEntity
  8
0
  6
ByBlock
 62
     0
 48
50.0
100
AcDbLine
 10
12652.82958141816
 20
12497.01792807849
 30
0.0
 11
12517.82958141817
 21
12497.01792807849
 31
0.0
  0
LINE
  5
1ADF7
330
1AD7B
100
AcDbEntity
  8
0
  6
ByBlock
 62
     0
 48
50.0
100
AcDbLine
 10
12517.82958141817
 20
12497.01792807849
 30
0.0
 11
12087.16392458225
 21
12497.01792807849
 31
0.0
  0
INSERT
  5
1ADF8
330
1AD7B
100
AcDbEntity
  8
0
  6
ByBlock
 62
     0
 48
50.0
100
AcDbBlockReference
  2
_DOTSMALL
 10
12652.82958141816
 20
12497.01792807849
 30
0.0
 41
125.0
 42
125.0
 43
125.0
  0
INSERT
  5
1ADF9
330
1AD7B
100
AcDbEntity
  8
0
  6
ByBlock
 62
     0
 48
50.0
100
AcDbBlockReference
  2
_DOTSMALL
 10
12517.82958141817
 20
12497.01792807849
 30
0.0
 41
125.0
 42
125.0
 43
125.0
 50
180.0
  0
MTEXT
  5
1ADFA
330
1AD7B
100
AcDbEntity
  8
0
  6
ByBlock
 62
     7
 48
50.0
100
AcDbMText
 10
12235.27052630005
 20
12597.01792807849
 30
0.0
 40
150.0
 41
0.0
 71
     5
 72
     1
  1
\A1;135
  7
STYLE1
 73
     1
 44
1.0
  0
POINT
  5
1ADFB
330
1AD7B
100
AcDbEntity
  8
DEFPOINTS
  6
ByBlock
 62
     0
 48
50.0
100
AcDbPoint
 10
12517.82958141817
 20
11803.73679736197
 30
0.0
  0
POINT
  5
1ADFC
330
1AD7B
100
AcDbEntity
  8
DEFPOINTS
  6
ByBlock
 62
     0
 48
50.0
100
AcDbPoint
 10
12652.82958141816
 20
11801.29728927309
 30
0.0
  0
POINT
  5
1ADFD
330
1AD7B
100
AcDbEntity
  8
DEFPOINTS
  6
ByBlock
 62
     0
 48
50.0
100
AcDbPoint
 10
12652.82958141816
 20
12497.01792807849
 30
0.0
  0
ENDBLK
  5
1ADFE
330
1AD7B
100
AcDbEntity
  8
0
 48
50.0
100
AcDbBlockEnd
  0
BLOCK
  5
1ADFF
330
1AD88
100
AcDbEntity
  8
0
 48
50.0
100
AcDbBlockBegin
  2
*D40
 70
     1
 10
0.0
 20
0.0
 30
0.0
  3
*D40
  1

  0
LINE
  5
1AEB4
330
1AD88
100
AcDbEntity
  8
寸法
 62
     0
 48
50.0
100
AcDbLine
 10
15112.82958141816
 20
11771.3631811976
 30
0.0
 11
15112.82958141816
 21
12572.01792807848
 31
0.0
  0
LINE
  5
1AEB5
330
1AD88
100
AcDbEntity
  8
寸法
 62
     0
 48
50.0
100
AcDbLine
 10
12652.82958141816
 20
12497.01792807848
 30
0.0
 11
15112.82958141816
 21
12497.01792807848
 31
0.0
  0
INSERT
  5
1AEB6
330
1AD88
100
AcDbEntity
  8
寸法
 62
     0
 48
50.0
100
AcDbBlockReference
  2
_DOTSMALL
 10
12652.82958141816
 20
12497.01792807848
 30
0.0
 41
125.0
 42
125.0
 43
125.0
 50
180.0
  0
INSERT
  5
1AEB7
330
1AD88
100
AcDbEntity
  8
寸法
 62
     0
 48
50.0
100
AcDbBlockReference
  2
_DOTSMALL
 10
15112.82958141816
 20
12497.01792807848
 30
0.0
 41
125.0
 42
125.0
 43
125.0
  0
MTEXT
  5
1AEB8
330
1AD88
100
AcDbEntity
  8
寸法
 62
     7
 48
50.0
100
AcDbMText
 10
13882.82958141816
 20
12597.03269185801
 30
0.0
 40
150.0
 41
0.0
 71
     5
 72
     1
  1
\A1;柱外寸法 2460
  7
STYLE1
 73
     1
 44
1.0
  0
POINT
  5
1AEB9
330
1AD88
100
AcDbEntity
  8
DEFPOINTS
 62
     0
 48
50.0
100
AcDbPoint
 10
12652.82958141816
 20
11758.73679736197
 30
0.0
  0
POINT
  5
1AEBA
330
1AD88
100
AcDbEntity
  8
DEFPOINTS
 62
     0
 48
50.0
100
AcDbPoint
 10
15112.82958141816
 20
11746.3631811976
 30
0.0
  0
POINT
  5
1AEBB
330
1AD88
100
AcDbEntity
  8
DEFPOINTS
 62
     0
 48
50.0
100
AcDbPoint
 10
15112.82958141816
 20
12497.01792807848
 30
0.0
  0
ENDBLK
  5
1AE08
330
1AD88
100
AcDbEntity
  8
0
 48
50.0
100
AcDbBlockEnd
  0
BLOCK
  5
1AE09
330
1AD93
100
AcDbEntity
  8
0
 48
50.0
100
AcDbBlockBegin
  2
*D41
 70
     1
 10
0.0
 20
0.0
 30
0.0
  3
*D41
  1

  0
LINE
  5
1AE0A
330
1AD93
100
AcDbEntity
  8
0
  6
ByBlock
 62
     0
 48
50.0
100
AcDbLine
 10
12517.82958141817
 20
11828.73679736197
 30
0.0
 11
12517.82958141817
 21
12888.17369887014
 31
0.0
  0
LINE
  5
1AE0B
330
1AD93
100
AcDbEntity
  8
0
  6
ByBlock
 62
     0
 48
50.0
100
AcDbLine
 10
15207.82958141817
 20
11768.73679736197
 30
0.0
 11
15207.82958141817
 21
12888.17369887014
 31
0.0
  0
LINE
  5
1AE0C
330
1AD93
100
AcDbEntity
  8
0
  6
ByBlock
 62
     0
 48
50.0
100
AcDbLine
 10
12517.82958141817
 20
12813.17369887014
 30
0.0
 11
15207.82958141817
 21
12813.17369887014
 31
0.0
  0
INSERT
  5
1AE0D
330
1AD93
100
AcDbEntity
  8
0
  6
ByBlock
 62
     0
 48
50.0
100
AcDbBlockReference
  2
_DOTSMALL
 10
12517.82958141817
 20
12813.17369887014
 30
0.0
 41
125.0
 42
125.0
 43
125.0
 50
180.0
  0
INSERT
  5
1AE0E
330
1AD93
100
AcDbEntity
  8
0
  6
ByBlock
 62
     0
 48
50.0
100
AcDbBlockReference
  2
_DOTSMALL
 10
15207.82958141817
 20
12813.17369887014
 30
0.0
 41
125.0
 42
125.0
 43
125.0
  0
MTEXT
  5
1AE0F
330
1AD93
100
AcDbEntity
  8
0
  6
ByBlock
 62
     7
 48
50.0
100
AcDbMText
 10
13862.82958141817
 20
12913.18846264967
 30
0.0
 40
150.0
 41
0.0
 71
     5
 72
     1
  1
\A1;2690
  7
STYLE1
 73
     1
 44
1.0
  0
POINT
  5
1AE10
330
1AD93
100
AcDbEntity
  8
DEFPOINTS
  6
ByBlock
 62
     0
 48
50.0
100
AcDbPoint
 10
12517.82958141817
 20
11803.73679736197
 30
0.0
  0
POINT
  5
1AE11
330
1AD93
100
AcDbEntity
  8
DEFPOINTS
  6
ByBlock
 62
     0
 48
50.0
100
AcDbPoint
 10
15207.82958141817
 20
11743.73679736197
 30
0.0
  0
POINT
  5
1AE12
330
1AD93
100
AcDbEntity
  8
DEFPOINTS
  6
ByBlock
 62
     0
 48
50.0
100
AcDbPoint
 10
15207.82958141817
 20
12813.17369887014
 30
0.0
  0
ENDBLK
  5
1AE13
330
1AD93
100
AcDbEntity
  8
0
 48
50.0
100
AcDbBlockEnd
  0
BLOCK
  5
1AE14
330
1AD9F
100
AcDbEntity
  8
0
 48
50.0
100
AcDbBlockBegin
  2
*D42
 70
     1
 10
0.0
 20
0.0
 30
0.0
  3
*D42
  1

  0
LINE
  5
1AE15
330
1AD9F
100
AcDbEntity
  8
0
  6
ByBlock
 62
     0
 48
50.0
100
AcDbLine
 10
12627.82958141816
 20
11533.73679736196
 30
0.0
 11
11687.63480123898
 21
11533.73679736196
 31
0.0
  0
LINE
  5
1AE16
330
1AD9F
100
AcDbEntity
  8
0
  6
ByBlock
 62
     0
 48
50.0
100
AcDbLine
 10
12627.82958141817
 20
9418.736797361971
 30
0.0
 11
11687.63480123898
 21
9418.736797361971
 31
0.0
  0
LINE
  5
1AE17
330
1AD9F
100
AcDbEntity
  8
0
  6
ByBlock
 62
     0
 48
50.0
100
AcDbLine
 10
11762.63480123898
 20
11533.73679736196
 30
0.0
 11
11762.63480123898
 21
9418.736797361971
 31
0.0
  0
INSERT
  5
1AE18
330
1AD9F
100
AcDbEntity
  8
0
  6
ByBlock
 62
     0
 48
50.0
100
AcDbBlockReference
  2
_DOTSMALL
 10
11762.63480123898
 20
11533.73679736196
 30
0.0
 41
125.0
 42
125.0
 43
125.0
 50
90.0
  0
INSERT
  5
1AE19
330
1AD9F
100
AcDbEntity
  8
0
  6
ByBlock
 62
     0
 48
50.0
100
AcDbBlockReference
  2
_DOTSMALL
 10
11762.63480123898
 20
9418.736797361971
 30
0.0
 41
125.0
 42
125.0
 43
125.0
 50
270.0
  0
MTEXT
  5
1AE1A
330
1AD9F
100
AcDbEntity
  8
0
  6
ByBlock
 62
     7
 48
50.0
100
AcDbMText
 10
11662.62003745945
 20
10476.23679736197
 30
0.0
 40
150.0
 41
0.0
 71
     5
 72
     1
  1
\A1;2115
  7
STYLE1
 11
0.0000000000000001
 21
1.0
 31
0.0
 73
     1
 44
1.0
  0
POINT
  5
1AE1B
330
1AD9F
100
AcDbEntity
  8
DEFPOINTS
  6
ByBlock
 62
     0
 48
50.0
100
AcDbPoint
 10
12652.82958141816
 20
11533.73679736196
 30
0.0
  0
POINT
  5
1AE1C
330
1AD9F
100
AcDbEntity
  8
DEFPOINTS
  6
ByBlock
 62
     0
 48
50.0
100
AcDbPoint
 10
12652.82958141817
 20
9418.736797361971
 30
0.0
  0
POINT
  5
1AE1D
330
1AD9F
100
AcDbEntity
  8
DEFPOINTS
  6
ByBlock
 62
     0
 48
50.0
100
AcDbPoint
 10
11762.63480123898
 20
9418.736797361971
 30
0.0
  0
ENDBLK
  5
1AE1E
330
1AD9F
100
AcDbEntity
  8
0
 48
50.0
100
AcDbBlockEnd
  0
BLOCK
  5
1AE1F
330
1ADAB
100
AcDbEntity
  8
0
 48
50.0
100
AcDbBlockBegin
  2
*D43
 70
     1
 10
0.0
 20
0.0
 30
0.0
  3
*D43
  1

  0
LINE
  5
1AE20
330
1ADAB
100
AcDbEntity
  8
0
  6
ByBlock
 62
     0
 48
50.0
100
AcDbLine
 10
12627.82958141816
 20
9418.736797361971
 30
0.0
 11
11687.63480123898
 21
9418.736797361971
 31
0.0
  0
LINE
  5
1AE21
330
1ADAB
100
AcDbEntity
  8
0
  6
ByBlock
 62
     0
 48
50.0
100
AcDbLine
 10
12627.82958141817
 20
9363.736797361971
 30
0.0
 11
11687.63480123898
 21
9363.736797361971
 31
0.0
  0
LINE
  5
1AE22
330
1ADAB
100
AcDbEntity
  8
0
  6
ByBlock
 62
     0
 48
50.0
100
AcDbLine
 10
11762.63480123898
 20
9418.736797361971
 30
0.0
 11
11762.63480123898
 21
9363.736797361971
 31
0.0
  0
LINE
  5
1AE23
330
1ADAB
100
AcDbEntity
  8
0
  6
ByBlock
 62
     0
 48
50.0
100
AcDbLine
 10
11762.63480123898
 20
9363.736797361971
 30
0.0
 11
11762.63480123898
 21
8979.043856808635
 31
0.0
  0
INSERT
  5
1AE24
330
1ADAB
100
AcDbEntity
  8
0
  6
ByBlock
 62
     0
 48
50.0
100
AcDbBlockReference
  2
_DOTSMALL
 10
11762.63480123898
 20
9418.736797361971
 30
0.0
 41
125.0
 42
125.0
 43
125.0
 50
90.0
  0
INSERT
  5
1AE25
330
1ADAB
100
AcDbEntity
  8
0
  6
ByBlock
 62
     0
 48
50.0
100
AcDbBlockReference
  2
_DOTSMALL
 10
11762.63480123898
 20
9363.736797361971
 30
0.0
 41
125.0
 42
125.0
 43
125.0
 50
270.0
  0
MTEXT
  5
1AE26
330
1ADAB
100
AcDbEntity
  8
0
  6
ByBlock
 62
     7
 48
50.0
100
AcDbMText
 10
11662.63480123898
 20
9089.650458526433
 30
0.0
 40
150.0
 41
0.0
 71
     5
 72
     1
  1
\A1;55
  7
STYLE1
 11
0.0000000000000001
 21
1.0
 31
0.0
 73
     1
 44
1.0
  0
POINT
  5
1AE27
330
1ADAB
100
AcDbEntity
  8
DEFPOINTS
  6
ByBlock
 62
     0
 48
50.0
100
AcDbPoint
 10
12652.82958141816
 20
9418.736797361971
 30
0.0
  0
POINT
  5
1AE28
330
1ADAB
100
AcDbEntity
  8
DEFPOINTS
  6
ByBlock
 62
     0
 48
50.0
100
AcDbPoint
 10
12652.82958141817
 20
9363.736797361971
 30
0.0
  0
POINT
  5
1AE29
330
1ADAB
100
AcDbEntity
  8
DEFPOINTS
  6
ByBlock
 62
     0
 48
50.0
100
AcDbPoint
 10
11762.63480123898
 20
9363.736797361971
 30
0.0
  0
ENDBLK
  5
1AE2A
330
1ADAB
100
AcDbEntity
  8
0
 48
50.0
100
AcDbBlockEnd
  0
BLOCK
  5
1AE2B
330
1ADB8
100
AcDbEntity
  8
0
 48
50.0
100
AcDbBlockBegin
  2
*D44
 70
     1
 10
0.0
 20
0.0
 30
0.0
  3
*D44
  1

  0
LINE
  5
1AE2C
330
1ADB8
100
AcDbEntity
  8
0
  6
ByBlock
 62
     0
 48
50.0
100
AcDbLine
 10
12513.84362656884
 20
11671.29474893229
 30
0.0
 11
11844.73506072482
 21
11681.93789083029
 31
0.0
  0
LINE
  5
1AE2D
330
1ADB8
100
AcDbEntity
  8
0
  6
ByBlock
 62
     0
 48
50.0
100
AcDbLine
 10
12515.67263694135
 20
11786.28020332134
 30
0.0
 11
11846.56407109734
 21
11796.92334521935
 31
0.0
  0
LINE
  5
1AE2E
330
1ADB8
100
AcDbEntity
  8
0
  6
ByBlock
 62
     0
 48
50.0
100
AcDbLine
 10
11919.72557445682
 20
11680.74505797865
 30
0.0
 11
11921.55458482934
 21
11795.73051236771
 31
0.0
  0
LINE
  5
1AE2F
330
1ADB8
100
AcDbEntity
  8
0
  6
ByBlock
 62
     0
 48
50.0
100
AcDbLine
 10
11921.55458482934
 20
11795.73051236771
 30
0.0
 11
11927.77661097673
 21
12186.89423375936
 31
0.0
  0
INSERT
  5
1AE30
330
1ADB8
100
AcDbEntity
  8
0
  6
ByBlock
 62
     0
 48
50.0
100
AcDbBlockReference
  2
_DOTSMALL
 10
11919.72557445682
 20
11680.74505797865
 30
0.0
 41
125.0
 42
125.0
 43
125.0
 50
269.0887044041859
  0
INSERT
  5
1AE31
330
1ADB8
100
AcDbEntity
  8
0
  6
ByBlock
 62
     0
 48
50.0
100
AcDbBlockReference
  2
_DOTSMALL
 10
11921.55458482934
 20
11795.73051236771
 30
0.0
 41
125.0
 42
125.0
 43
125.0
 50
89.08870440418592
  0
MTEXT
  5
1AE32
330
1ADB8
100
AcDbEntity
  8
0
  6
ByBlock
 62
     7
 48
50.0
100
AcDbMText
 10
11825.67227363674
 20
12055.39491164238
 30
0.0
 40
150.0
 41
0.0
 71
     5
 72
     1
  1
\A1;115
  7
STYLE1
 11
0.0159044380219005
 21
0.9998735164265566
 31
0.0
 73
     1
 44
1.0
  0
POINT
  5
1AE33
330
1ADB8
100
AcDbEntity
  8
DEFPOINTS
  6
ByBlock
 62
     0
 48
50.0
100
AcDbPoint
 10
12538.8404644795
 20
11670.89713798174
 30
0.0
  0
POINT
  5
1AE34
330
1ADB8
100
AcDbEntity
  8
DEFPOINTS
  6
ByBlock
 62
     0
 48
50.0
100
AcDbPoint
 10
12540.66947485202
 20
11785.88259237079
 30
0.0
  0
POINT
  5
1AE35
330
1ADB8
100
AcDbEntity
  8
DEFPOINTS
  6
ByBlock
 62
     0
 48
50.0
100
AcDbPoint
 10
11921.55458482934
 20
11795.73051236771
 30
0.0
  0
ENDBLK
  5
1AE36
330
1ADB8
100
AcDbEntity
  8
0
 48
50.0
100
AcDbBlockEnd
  0
BLOCK
  5
1AE37
330
1ADC5
100
AcDbEntity
  8
0
 48
50.0
100
AcDbBlockBegin
  2
*D45
 70
     1
 10
0.0
 20
0.0
 30
0.0
  3
*D45
  1

  0
LINE
  5
1AE38
330
1ADC5
100
AcDbEntity
  8
0
  6
ByBlock
 62
     0
 48
50.0
100
AcDbLine
 10
15102.32958141817
 20
9430.736797361971
 30
0.0
 11
16499.10991665977
 21
9430.736797361971
 31
0.0
  0
LINE
  5
1AE39
330
1ADC5
100
AcDbEntity
  8
0
  6
ByBlock
 62
     0
 48
50.0
100
AcDbLine
 10
15137.82958141817
 20
11560.73679736196
 30
0.0
 11
16499.10991665977
 21
11560.73679736196
 31
0.0
  0
LINE
  5
1AE3A
330
1ADC5
100
AcDbEntity
  8
0
  6
ByBlock
 62
     0
 48
50.0
100
AcDbLine
 10
16424.10991665976
 20
9430.736797361971
 30
0.0
 11
16424.10991665976
 21
11560.73679736196
 31
0.0
  0
INSERT
  5
1AE3B
330
1ADC5
100
AcDbEntity
  8
0
  6
ByBlock
 62
     0
 48
50.0
100
AcDbBlockReference
  2
_DOTSMALL
 10
16424.10991665976
 20
9430.736797361971
 30
0.0
 41
125.0
 42
125.0
 43
125.0
 50
270.0
  0
INSERT
  5
1AE3C
330
1ADC5
100
AcDbEntity
  8
0
  6
ByBlock
 62
     0
 48
50.0
100
AcDbBlockReference
  2
_DOTSMALL
 10
16424.10991665976
 20
11560.73679736196
 30
0.0
 41
125.0
 42
125.0
 43
125.0
 50
90.0
  0
MTEXT
  5
1AE3D
330
1ADC5
100
AcDbEntity
  8
0
  6
ByBlock
 62
     7
 48
50.0
100
AcDbMText
 10
16324.09515288024
 20
10495.73679736196
 30
0.0
 40
150.0
 41
0.0
 71
     5
 72
     1
  1
\A1;内高 2130
  7
STYLE1
 11
0.0000000000000001
 21
1.0
 31
0.0
 73
     1
 44
1.0
  0
POINT
  5
1AE3E
330
1ADC5
100
AcDbEntity
  8
DEFPOINTS
  6
ByBlock
 62
     0
 48
50.0
100
AcDbPoint
 10
15077.32958141817
 20
9430.736797361971
 30
0.0
  0
POINT
  5
1AE3F
330
1ADC5
100
AcDbEntity
  8
DEFPOINTS
  6
ByBlock
 62
     0
 48
50.0
100
AcDbPoint
 10
15112.82958141817
 20
11560.73679736196
 30
0.0
  0
POINT
  5
1AE40
330
1ADC5
100
AcDbEntity
  8
DEFPOINTS
  6
ByBlock
 62
     0
 48
50.0
100
AcDbPoint
 10
16424.10991665976
 20
11560.73679736196
 30
0.0
  0
ENDBLK
  5
1AE41
330
1ADC5
100
AcDbEntity
  8
0
 48
50.0
100
AcDbBlockEnd
  0
ENDSEC
  0
SECTION
  2
ENTITIES
  0
LINE
  5
10B56
330
747D
100
AcDbEntity
  8
補助
  6
PHANTOM
 62
   230
 48
50.0
100
AcDbLine
 10
175.0
 20
0.0
 30
0.0
 11
174.9999999999993
 21
14262.0
 31
0.0
  0
LINE
  5
10B57
330
747D
100
AcDbEntity
  8
補助
  6
PHANTOM
 62
   230
 48
50.0
100
AcDbLine
 10
174.9999999999993
 20
14262.0
 30
0.0
 11
20384.0
 21
14262.0
 31
0.0
  0
LINE
  5
10B59
330
747D
100
AcDbEntity
  8
仕様書枠
  6
Continuous
 48
50.0
100
AcDbLine
 10
16384.0
 20
1500.0
 30
0.0
 11
16384.0
 21
0.0
 31
0.0
  0
LINE
  5
10B5C
330
747D
100
AcDbEntity
  8
仕様書枠
 48
50.0
100
AcDbLine
 10
20384.0
 20
1500.0
 30
0.0
 11
20384.0
 21
0.0
 31
0.0
  0
LINE
  5
10B5D
330
747D
100
AcDbEntity
  8
仕様書枠
 48
50.0
100
AcDbLine
 10
175.0
 20
0.0
 30
0.0
 11
20384.0
 21
-0.0000000000001137
 31
0.0
  0
LINE
  5
10B5E
330
747D
100
AcDbEntity
  8
補助
  6
PHANTOM
 62
   230
 48
50.0
100
AcDbLine
 10
20384.0
 20
14262.0
 30
0.0
 11
20384.0
 21
1500.0
 31
0.0
  0
LINE
  5
10B6C
330
747D
100
AcDbEntity
  8
仕様書枠
 48
50.0
100
AcDbLine
 10
16384.0
 20
1500.0
 30
0.0
 11
20384.0
 21
1500.0
 31
0.0
  0
LINE
  5
10B6D
330
747D
100
AcDbEntity
  8
補助
  6
PHANTOM
 62
   230
 48
50.0
100
AcDbLine
 10
16384.0
 20
14262.0
 30
0.0
 11
16384.0
 21
6000.0
 31
0.0
  0
LINE
  5
10B6F
330
747D
100
AcDbEntity
  8
補助
  6
PHANTOM
 62
   230
 48
50.0
100
AcDbLine
 10
16384.0
 20
6000.0
 30
0.0
 11
20384.0
 21
6000.0
 31
0.0
  0
LINE
  5
10B72
330
747D
100
AcDbEntity
  8
文字
 62
     7
 48
50.0
100
AcDbLine
 10
16484.0
 20
500.0
 30
0.0
 11
20284.0
 21
500.0
 31
0.0
  0
TEXT
  5
10B73
330
747D
100
AcDbEntity
  8
文字
 62
     7
 48
50.0
100
AcDbText
 10
16453.72382072112
 20
1118.863259287425
 30
0.0
 40
250.0
  1
外 形 図
  7
STYLE2
100
AcDbText
  0
TEXT
  5
10B74
330
747D
100
AcDbEntity
  8
文字
 62
     7
 48
50.0
100
AcDbText
 10
16501.79587498051
 20
596.5925826289068
 30
0.0
 40
200.0
  1
機種名
  7
STYLE2
100
AcDbText
  0
LINE
  5
10B7B
330
747D
100
AcDbEntity
  8
仕様書枠
 48
50.0
100
AcDbLine
 10
16384.0
 20
1000.0
 30
0.0
 11
17814.0
 21
1000.0
 31
0.0
  0
LINE
  5
10B88
330
747D
100
AcDbEntity
  8
仕様書枠
  6
Continuous
 48
50.0
100
AcDbLine
 10
17814.0
 20
1500.0
 30
0.0
 11
17814.0
 21
1000.0
 31
0.0
  0
LINE
  5
15D7D
330
747D
100
AcDbEntity
  8
Ｇ．Ｌ
 48
50.0
100
AcDbLine
 10
4524.693732604355
 20
3140.0
 30
0.0
 11
16394.30626739564
 21
3140.0
 31
0.0
  0
LINE
  5
15D7E
330
747D
100
AcDbEntity
  8
部品1
 48
50.0
100
AcDbLine
 10
5712.829581418173
 20
5580.000001569568
 30
0.0
 11
5712.829581418173
 21
3140.0
 31
0.0
  0
LINE
  5
15D7F
330
747D
100
AcDbEntity
  8
部品1
 48
50.0
100
AcDbLine
 10
5712.829581418173
 20
3275.0
 30
0.0
 11
8752.829581418174
 21
3275.0
 31
0.0
  0
LINE
  5
15D80
330
747D
100
AcDbEntity
  8
部品1
 48
50.0
100
AcDbLine
 10
7528.829581418174
 20
3330.0
 30
0.0
 11
8682.829581418173
 21
3330.0
 31
0.0
  0
LINE
  5
15D81
330
747D
100
AcDbEntity
  8
部品1
 48
50.0
100
AcDbLine
 10
5782.829581418173
 20
5445.0
 30
0.0
 11
5782.829581418173
 21
5187.0
 31
0.0
  0
LINE
  5
15D90
330
747D
100
AcDbEntity
  8
部品1
 48
50.0
100
AcDbLine
 10
8682.829581418173
 20
5445.0
 30
0.0
 11
8682.829581418173
 21
3275.0
 31
0.0
  0
LINE
  5
15D91
330
747D
100
AcDbEntity
  8
部品1
 48
50.0
100
AcDbLine
 10
8752.829581418172
 20
5580.000001569558
 30
0.0
 11
8752.829581418174
 21
3140.0
 31
0.0
  0
LINE
  5
15D95
330
747D
100
AcDbEntity
  8
部品1
 48
50.0
100
AcDbLine
 10
7522.829581418173
 20
5445.0
 30
0.0
 11
7522.829581418173
 21
5187.0
 31
0.0
  0
LINE
  5
15D96
330
747D
100
AcDbEntity
  8
部品1
 48
50.0
100
AcDbLine
 10
8102.829581418173
 20
5445.0
 30
0.0
 11
8102.829581418173
 21
3330.0
 31
0.0
  0
LINE
  5
15D98
330
747D
100
AcDbEntity
  8
部品1
 48
50.0
100
AcDbLine
 10
8752.829581418174
 20
5445.0
 30
0.0
 11
5712.829581418173
 21
5445.0
 31
0.0
  0
LINE
  5
16919
330
747D
100
AcDbEntity
  8
細線
 48
50.0
100
AcDbLine
 10
6773.829581418173
 20
5489.5
 30
0.0
 11
6531.829581418172
 21
5489.5
 31
0.0
  0
LINE
  5
1692C
330
747D
100
AcDbEntity
  8
細線
 48
50.0
100
AcDbLine
 10
6506.829581418172
 20
5565.500036981838
 30
0.0
 11
6506.829581418172
 21
5488.5
 31
0.0
  0
LINE
  5
1692D
330
747D
100
AcDbEntity
  8
細線
 48
50.0
100
AcDbLine
 10
6531.829581418172
 20
5575.500036981837
 30
0.0
 11
6531.829581418172
 21
5478.5
 31
0.0
  0
ARC
  5
16933
330
747D
100
AcDbEntity
  8
細線
 48
50.0
100
AcDbCircle
 10
6516.829581418173
 20
5565.500036981838
 30
0.0
 40
10.0
100
AcDbArc
 50
90.0
 51
180.0
  0
LINE
  5
1694C
330
747D
100
AcDbEntity
  8
細線
 48
50.0
100
AcDbLine
 10
6531.829581418172
 20
5478.5
 30
0.0
 11
6531.829581418172
 21
5479.0
 31
0.0
  0
ARC
  5
1694D
330
747D
100
AcDbEntity
  8
細線
 48
50.0
100
AcDbCircle
 10
6516.829581418173
 20
5488.5
 30
0.0
 40
10.0
100
AcDbArc
 50
180.0
 51
270.0
  0
LINE
  5
16968
330
747D
100
AcDbEntity
  8
細線
 48
50.0
100
AcDbLine
 10
6788.829581418173
 20
5478.5
 30
0.0
 11
6516.829581418173
 21
5478.5
 31
0.0
  0
LINE
  5
1699A
330
747D
100
AcDbEntity
  8
細線
 48
50.0
100
AcDbLine
 10
6798.829581418172
 20
5565.500036981838
 30
0.0
 11
6798.829581418172
 21
5488.5
 31
0.0
  0
LINE
  5
1699B
330
747D
100
AcDbEntity
  8
細線
 48
50.0
100
AcDbLine
 10
6773.829581418173
 20
5575.500036981837
 30
0.0
 11
6773.829581418173
 21
5478.5
 31
0.0
  0
ARC
  5
169B1
330
747D
100
AcDbEntity
  8
細線
 48
50.0
100
AcDbCircle
 10
6788.829581418173
 20
5565.500036981838
 30
0.0
 40
10.0
100
AcDbArc
 50
359.9999999999998
 51
90.0
  0
LINE
  5
169BB
330
747D
100
AcDbEntity
  8
細線
 48
50.0
100
AcDbLine
 10
6531.829581418172
 20
5545.5
 30
0.0
 11
6773.829581418173
 21
5545.5
 31
0.0
  0
LINE
  5
169C0
330
747D
100
AcDbEntity
  8
細線
 48
50.0
100
AcDbLine
 10
6531.829581418172
 20
5560.500000000001
 30
0.0
 11
6773.829581418173
 21
5560.499999999998
 31
0.0
  0
LINE
  5
169C9
330
747D
100
AcDbEntity
  8
細線
 48
50.0
100
AcDbLine
 10
6531.829581418172
 20
5530.500036981838
 30
0.0
 11
6773.829581418173
 21
5530.500036981838
 31
0.0
  0
LINE
  5
169CA
330
747D
100
AcDbEntity
  8
細線
 48
50.0
100
AcDbLine
 10
6531.829581418172
 20
5515.5
 30
0.0
 11
6773.829581418173
 21
5515.5
 31
0.0
  0
LINE
  5
169CB
330
747D
100
AcDbEntity
  8
細線
 48
50.0
100
AcDbLine
 10
6531.829581418172
 20
5500.500036981837
 30
0.0
 11
6773.829581418173
 21
5500.500036981837
 31
0.0
  0
LINE
  5
16A07
330
747D
100
AcDbEntity
  8
細線
 48
50.0
100
AcDbLine
 10
6773.829581418173
 20
5478.5
 30
0.0
 11
6773.829581418173
 21
5479.0
 31
0.0
  0
ARC
  5
16A08
330
747D
100
AcDbEntity
  8
細線
 48
50.0
100
AcDbCircle
 10
6788.829581418173
 20
5488.5
 30
0.0
 40
10.0
100
AcDbArc
 50
270.0
 51
359.9999999999998
  0
LINE
  5
16BAA
330
747D
100
AcDbEntity
  8
細線
 48
50.0
100
AcDbLine
 10
6692.829581418172
 20
5489.5
 30
0.0
 11
6692.829581418172
 21
5560.500000000001
 31
0.0
  0
LINE
  5
16BAB
330
747D
100
AcDbEntity
  8
細線
 48
50.0
100
AcDbLine
 10
6612.829581418172
 20
5489.5
 30
0.0
 11
6612.829581418172
 21
5560.500000000001
 31
0.0
  0
LINE
  5
16BAC
330
747D
100
AcDbEntity
  8
細線
 48
50.0
100
AcDbLine
 10
7691.829581418173
 20
5500.500036981837
 30
0.0
 11
7933.829581418173
 21
5500.500036981837
 31
0.0
  0
LINE
  5
16BAD
330
747D
100
AcDbEntity
  8
細線
 48
50.0
100
AcDbLine
 10
7691.829581418173
 20
5515.5
 30
0.0
 11
7933.829581418173
 21
5515.5
 31
0.0
  0
LINE
  5
16BAE
330
747D
100
AcDbEntity
  8
細線
 48
50.0
100
AcDbLine
 10
7691.829581418173
 20
5530.500036981838
 30
0.0
 11
7933.829581418173
 21
5530.500036981838
 31
0.0
  0
LINE
  5
16BAF
330
747D
100
AcDbEntity
  8
細線
 48
50.0
100
AcDbLine
 10
7691.829581418173
 20
5560.500000000001
 30
0.0
 11
7933.829581418173
 21
5560.499999999998
 31
0.0
  0
LINE
  5
16BB0
330
747D
100
AcDbEntity
  8
細線
 48
50.0
100
AcDbLine
 10
7691.829581418173
 20
5545.5
 30
0.0
 11
7933.829581418173
 21
5545.5
 31
0.0
  0
LINE
  5
16BB1
330
747D
100
AcDbEntity
  8
細線
 48
50.0
100
AcDbLine
 10
7948.829581418173
 20
5478.5
 30
0.0
 11
7676.829581418172
 21
5478.5
 31
0.0
  0
LINE
  5
16BB2
330
747D
100
AcDbEntity
  8
細線
 48
50.0
100
AcDbLine
 10
7933.829581418173
 20
5489.5
 30
0.0
 11
7691.829581418173
 21
5489.5
 31
0.0
  0
ARC
  5
16BB3
330
747D
100
AcDbEntity
  8
細線
 48
50.0
100
AcDbCircle
 10
7676.829581418172
 20
5488.5
 30
0.0
 40
10.0
100
AcDbArc
 50
180.0
 51
270.0
  0
LINE
  5
16BB4
330
747D
100
AcDbEntity
  8
細線
 48
50.0
100
AcDbLine
 10
7691.829581418173
 20
5575.500036981837
 30
0.0
 11
7691.829581418173
 21
5478.5
 31
0.0
  0
LINE
  5
16BB5
330
747D
100
AcDbEntity
  8
細線
 48
50.0
100
AcDbLine
 10
7691.829581418173
 20
5478.5
 30
0.0
 11
7691.829581418173
 21
5479.0
 31
0.0
  0
ARC
  5
16BB6
330
747D
100
AcDbEntity
  8
細線
 48
50.0
100
AcDbCircle
 10
7676.829581418172
 20
5565.500036981838
 30
0.0
 40
10.0
100
AcDbArc
 50
90.0
 51
180.0
  0
LINE
  5
16BB7
330
747D
100
AcDbEntity
  8
細線
 48
50.0
100
AcDbLine
 10
7666.829581418173
 20
5565.500036981838
 30
0.0
 11
7666.829581418173
 21
5488.5
 31
0.0
  0
ARC
  5
16BB8
330
747D
100
AcDbEntity
  8
細線
 48
50.0
100
AcDbCircle
 10
7948.829581418173
 20
5488.5
 30
0.0
 40
10.0
100
AcDbArc
 50
270.0
 51
359.9999999999998
  0
LINE
  5
16BB9
330
747D
100
AcDbEntity
  8
細線
 48
50.0
100
AcDbLine
 10
7933.829581418173
 20
5575.500036981837
 30
0.0
 11
7933.829581418173
 21
5478.5
 31
0.0
  0
LINE
  5
16BBA
330
747D
100
AcDbEntity
  8
細線
 48
50.0
100
AcDbLine
 10
7933.829581418173
 20
5478.5
 30
0.0
 11
7933.829581418173
 21
5479.0
 31
0.0
  0
LINE
  5
16BBB
330
747D
100
AcDbEntity
  8
細線
 48
50.0
100
AcDbLine
 10
7772.829581418173
 20
5489.5
 30
0.0
 11
7772.829581418173
 21
5560.500000000001
 31
0.0
  0
LINE
  5
16BBC
330
747D
100
AcDbEntity
  8
細線
 48
50.0
100
AcDbLine
 10
7852.829581418173
 20
5489.5
 30
0.0
 11
7852.829581418173
 21
5560.500000000001
 31
0.0
  0
ARC
  5
16BBD
330
747D
100
AcDbEntity
  8
細線
 48
50.0
100
AcDbCircle
 10
7948.829581418173
 20
5565.500036981838
 30
0.0
 40
10.0
100
AcDbArc
 50
359.9999999999998
 51
90.0
  0
LINE
  5
16BBE
330
747D
100
AcDbEntity
  8
細線
 48
50.0
100
AcDbLine
 10
7958.829581418173
 20
5565.500036981838
 30
0.0
 11
7958.829581418173
 21
5488.5
 31
0.0
  0
TEXT
  5
16C68
330
747D
100
AcDbEntity
  8
仕様書枠
 62
     7
 48
50.0
100
AcDbText
 10
4533.500522708389
 20
3170.736447636176
 30
0.0
 40
125.0
  1
▽G.L
  7
STYLE2
100
AcDbText
  0
TEXT
  5
16C77
330
747D
100
AcDbEntity
  8
部品1
100
AcDbText
 10
6740.890735951215
 20
7399.53587887749
 30
0.0
 40
225.0
  1
平面図
  7
STYLE2
100
AcDbText
  0
TEXT
  5
16C79
330
747D
100
AcDbEntity
  8
部品1
100
AcDbText
 10
6762.336082369708
 20
2208.455621404638
 30
0.0
 40
225.0
  1
正面図
  7
STYLE2
100
AcDbText
  0
TEXT
  5
16C7B
330
747D
100
AcDbEntity
  8
部品1
100
AcDbText
 10
13388.94606354015
 20
2205.777720970771
 30
0.0
 40
225.0
  1
側面図
  7
STYLE2
100
AcDbText
  0
DIMENSION
  5
16C9C
330
747D
100
AcDbEntity
  8
寸法
 48
50.0
100
AcDbDimension
  2
*D1
 10
5712.829581418173
 20
6408.281130716521
 30
0.0
 11
5332.770526300061
 21
6408.281130716521
 31
0.0
 12
1520.0
 22
340.0
 32
0.0
 70
   160
 71
     5
 42
-1.0
  3
INABA_S50G
100
AcDbAlignedDimension
 13
5657.829577048346
 23
5679.000002624809
 33
0.0
 14
5712.829581418173
 24
5715.000000008467
 34
0.0
100
AcDbRotatedDimension
  0
DIMENSION
  5
16CB5
330
747D
100
AcDbEntity
  8
寸法
 48
50.0
100
AcDbDimension
  2
*D2
 10
8752.829581418172
 20
6408.281130716521
 30
0.0
 11
7232.829581418172
 21
6508.281130716522
 31
0.0
 70
    32
  1
柱外寸法 <>
 71
     5
 42
-1.0
  3
INABA_S50G
100
AcDbAlignedDimension
 13
5712.829581418173
 23
5715.000000008467
 33
0.0
 14
8752.829581418172
 24
5715.000000008447
 34
0.0
100
AcDbRotatedDimension
1001
ACAD
1000
DSTYLE
1002
{
1070
   287
1070
     4
1070
    75
1070
     1
1070
   279
1070
     1
1002
}
  0
DIMENSION
  5
16CC3
330
747D
100
AcDbEntity
  8
寸法
 48
50.0
100
AcDbDimension
  2
*D3
 10
8807.829581418173
 20
6408.281130716521
 30
0.0
 11
9122.888636536286
 21
6408.281130716521
 31
0.0
 12
-360.0
 22
340.0
 32
0.0
 70
   160
 71
     5
 42
-1.0
  3
INABA_S50G
100
AcDbAlignedDimension
 13
8752.829581418172
 23
5715.000000008445
 33
0.0
 14
8807.829581418173
 24
5679.000002624809
 34
0.0
100
AcDbRotatedDimension
1001
ACAD
1000
DSTYLE
1002
{
1002
}
  0
DIMENSION
  5
16CDA
330
747D
100
AcDbEntity
  8
寸法
 48
50.0
100
AcDbDimension
  2
*D4
 10
8807.829581418173
 20
6676.068854554545
 30
0.0
 11
6362.82957923326
 21
6776.068854554544
 31
0.0
 12
870.0
 22
0.0
 32
0.0
 70
    32
 71
     5
 42
-1.0
  3
INABA_S50G
100
AcDbAlignedDimension
 13
5657.829577048346
 23
5679.000002624809
 33
0.0
 14
8807.829581418173
 24
5679.000002624809
 34
0.0
100
AcDbRotatedDimension
  0
DIMENSION
  5
16D30
330
747D
100
AcDbEntity
  8
寸法
 48
50.0
100
AcDbDimension
  2
*D5
 10
9408.934533249725
 20
3342.0
 30
0.0
 11
9408.934533249725
 21
2978.697597487494
 31
0.0
 12
-360.0
 22
340.0
 32
0.0
 70
   160
 71
     5
 42
-1.0
  3
INABA_S50G
100
AcDbAlignedDimension
 13
8752.829581418174
 23
3275.0
 33
0.0
 14
8752.829581418174
 24
3342.0
 34
0.0
 50
90.0
100
AcDbRotatedDimension
  0
DIMENSION
  5
16D3C
330
747D
100
AcDbEntity
  8
寸法
 48
50.0
100
AcDbDimension
  2
*D6
 10
9408.934533249725
 20
5472.0
 30
0.0
 11
9308.919769470197
 21
4407.0
 31
0.0
 70
    32
  1
内高 <>
 71
     5
 42
-1.0
  3
INABA_S50G
100
AcDbAlignedDimension
 13
8752.829581418174
 23
3342.0
 33
0.0
 14
8752.829581418172
 24
5472.0
 34
0.0
 50
90.0
100
AcDbRotatedDimension
1001
ACAD
1000
DSTYLE
1002
{
1070
   287
1070
     4
1070
    75
1070
     1
1070
   279
1070
     1
1002
}
  0
LINE
  5
17269
330
747D
100
AcDbEntity
  8
部品1
100
AcDbLine
 10
6596.604026227807
 20
7709.831477053278
 30
0.0
 11
6596.604026227807
 21
7310.010941144057
 31
0.0
  0
LINE
  5
1726A
330
747D
100
AcDbEntity
  8
部品1
100
AcDbLine
 10
6596.604026227807
 20
7310.010941144057
 30
0.0
 11
7869.055136608539
 21
7310.010941144057
 31
0.0
  0
LINE
  5
1726B
330
747D
100
AcDbEntity
  8
部品1
100
AcDbLine
 10
7869.055136608539
 20
7310.010941144057
 30
0.0
 11
7869.055136608539
 21
7709.831477053278
 31
0.0
  0
LINE
  5
1726C
330
747D
100
AcDbEntity
  8
部品1
100
AcDbLine
 10
7869.055136608539
 20
7709.831477053278
 30
0.0
 11
6596.604026227807
 21
7709.831477053278
 31
0.0
  0
LINE
  5
1726E
330
747D
100
AcDbEntity
  8
部品1
100
AcDbLine
 10
6596.604026227807
 20
2526.882077830556
 30
0.0
 11
6596.604026227807
 21
2127.061541921335
 31
0.0
  0
LINE
  5
1726F
330
747D
100
AcDbEntity
  8
部品1
100
AcDbLine
 10
6596.604026227807
 20
2127.061541921335
 30
0.0
 11
7869.05513660854
 21
2127.061541921335
 31
0.0
  0
LINE
  5
17270
330
747D
100
AcDbEntity
  8
部品1
100
AcDbLine
 10
7869.05513660854
 20
2127.061541921335
 30
0.0
 11
7869.05513660854
 21
2526.882077830556
 31
0.0
  0
LINE
  5
17271
330
747D
100
AcDbEntity
  8
部品1
100
AcDbLine
 10
7869.05513660854
 20
2526.882077830556
 30
0.0
 11
6596.604026227807
 21
2526.882077830556
 31
0.0
  0
LINE
  5
17273
330
747D
100
AcDbEntity
  8
部品1
100
AcDbLine
 10
13246.6040262278
 20
2526.8820778306
 30
0.0
 11
13246.6040262278
 21
2127.061541921379
 31
0.0
  0
LINE
  5
17274
330
747D
100
AcDbEntity
  8
部品1
100
AcDbLine
 10
13246.6040262278
 20
2127.061541921379
 30
0.0
 11
14519.05513660853
 21
2127.061541921379
 31
0.0
  0
LINE
  5
17275
330
747D
100
AcDbEntity
  8
部品1
100
AcDbLine
 10
14519.05513660853
 20
2127.061541921379
 30
0.0
 11
14519.05513660853
 21
2526.8820778306
 31
0.0
  0
LINE
  5
17276
330
747D
100
AcDbEntity
  8
部品1
100
AcDbLine
 10
14519.05513660853
 20
2526.8820778306
 30
0.0
 11
13246.6040262278
 21
2526.8820778306
 31
0.0
  0
LINE
  5
1837B
330
747D
100
AcDbEntity
  8
部品1
 48
50.0
100
AcDbLine
 10
5712.829581418171
 20
11678.73679736197
 30
0.0
 11
5712.829581418171
 21
9238.736797361971
 31
0.0
  0
LINE
  5
1837C
330
747D
100
AcDbEntity
  8
部品1
 48
50.0
100
AcDbLine
 10
5722.829581418171
 20
9228.736797361971
 30
0.0
 11
5782.829581418173
 21
9228.736797361953
 31
0.0
  0
LINE
  5
1837D
330
747D
100
AcDbEntity
  8
部品1
 48
50.0
100
AcDbLine
 10
8752.829581418176
 20
9238.736797361973
 30
0.0
 11
8752.829581418174
 21
11678.73679736197
 31
0.0
  0
LINE
  5
1837E
330
747D
100
AcDbEntity
  8
部品1
 48
50.0
100
AcDbLine
 10
8742.829581418174
 20
11688.73679736197
 30
0.0
 11
5722.829581418171
 21
11688.73679736197
 31
0.0
  0
ARC
  5
1837F
330
747D
100
AcDbEntity
  8
部品1
 48
50.0
100
AcDbCircle
 10
8742.829581418174
 20
11678.73679736197
 30
0.0
 40
10.0
100
AcDbArc
 50
0.0
 51
90.0
  0
ARC
  5
18380
330
747D
100
AcDbEntity
  8
部品1
 48
50.0
100
AcDbCircle
 10
8742.829581418176
 20
9238.736797361973
 30
0.0
 40
10.0
100
AcDbArc
 50
270.0
 51
0.0
  0
ARC
  5
18381
330
747D
100
AcDbEntity
  8
部品1
 48
50.0
100
AcDbCircle
 10
5722.829581418171
 20
9238.736797361971
 30
0.0
 40
10.0
100
AcDbArc
 50
180.0
 51
270.0
  0
ARC
  5
18382
330
747D
100
AcDbEntity
  8
部品1
 48
50.0
100
AcDbCircle
 10
5722.829581418171
 20
11678.73679736197
 30
0.0
 40
10.0
100
AcDbArc
 50
90.0
 51
180.0
  0
LINE
  5
18383
330
747D
100
AcDbEntity
  8
部品1
 48
50.0
100
AcDbLine
 10
8702.829581418177
 20
11638.73679736197
 30
0.0
 11
5762.829581418174
 21
11638.73679736197
 31
0.0
  0
LINE
  5
18384
330
747D
100
AcDbEntity
  8
部品1
 48
50.0
100
AcDbLine
 10
5762.829581418174
 20
11638.73679736197
 30
0.0
 11
5762.829581418169
 21
9278.73679736197
 31
0.0
  0
LINE
  5
18385
330
747D
100
AcDbEntity
  8
部品1
 48
50.0
100
AcDbLine
 10
5762.829581418169
 20
9278.73679736197
 30
0.0
 11
5800.829581418168
 21
9278.73679736197
 31
0.0
  0
LINE
  5
18386
330
747D
100
AcDbEntity
  8
部品1
 48
50.0
100
AcDbLine
 10
8702.829581418177
 20
9278.73679736197
 30
0.0
 11
8702.829581418177
 21
11638.73679736197
 31
0.0
  0
LINE
  5
18387
330
747D
100
AcDbEntity
  8
部品1
 48
50.0
100
AcDbLine
 10
8717.829581418177
 20
11653.73679736197
 30
0.0
 11
5747.829581418171
 21
11653.73679736197
 31
0.0
  0
LINE
  5
18388
330
747D
100
AcDbEntity
  8
部品1
 48
50.0
100
AcDbLine
 10
5747.829581418171
 20
9263.736797361971
 30
0.0
 11
5800.829581418168
 21
9263.736797361969
 31
0.0
  0
LINE
  5
18389
330
747D
100
AcDbEntity
  8
部品1
 48
50.0
100
AcDbLine
 10
5747.829581418171
 20
11653.73679736197
 30
0.0
 11
5747.829581418171
 21
9263.736797361971
 31
0.0
  0
LINE
  5
1838A
330
747D
100
AcDbEntity
  8
部品1
 48
50.0
100
AcDbLine
 10
8717.829581418177
 20
9263.736797361971
 30
0.0
 11
8717.829581418177
 21
11653.73679736197
 31
0.0
  0
LINE
  5
1838B
330
747D
100
AcDbEntity
  8
部品1
 48
50.0
100
AcDbLine
 10
8682.829581418173
 20
11653.73679736197
 30
0.0
 11
8682.829581418177
 21
11688.73679736197
 31
0.0
  0
LINE
  5
1838C
330
747D
100
AcDbEntity
  8
部品1
 48
50.0
100
AcDbLine
 10
8752.829581418176
 20
11618.73679736197
 30
0.0
 11
8717.829581418177
 21
11618.73679736197
 31
0.0
  0
LINE
  5
1838D
330
747D
100
AcDbEntity
  8
部品1
 48
50.0
100
AcDbLine
 10
8664.829581418173
 20
11653.73679736197
 30
0.0
 11
8664.829581418173
 21
11638.73679736197
 31
0.0
  0
LINE
  5
1838E
330
747D
100
AcDbEntity
  8
部品1
 48
50.0
100
AcDbLine
 10
8700.829581418174
 20
11653.73679736197
 30
0.0
 11
8700.829581418174
 21
11638.73679736197
 31
0.0
  0
LINE
  5
1838F
330
747D
100
AcDbEntity
  8
部品1
 48
50.0
100
AcDbLine
 10
8717.829581418177
 20
11600.73679736197
 30
0.0
 11
8702.829581418177
 21
11600.73679736197
 31
0.0
  0
LINE
  5
18390
330
747D
100
AcDbEntity
  8
部品1
 48
50.0
100
AcDbLine
 10
8717.829581418177
 20
11636.73679736197
 30
0.0
 11
8702.829581418177
 21
11636.73679736197
 31
0.0
  0
LINE
  5
18394
330
747D
100
AcDbEntity
  8
部品1
 48
50.0
100
AcDbLine
 10
8717.829581418177
 20
11056.73679736197
 30
0.0
 11
8702.829581418177
 21
11056.73679736197
 31
0.0
  0
LINE
  5
18395
330
747D
100
AcDbEntity
  8
部品1
 48
50.0
100
AcDbLine
 10
8717.829581418177
 20
11020.73679736196
 30
0.0
 11
8702.829581418177
 21
11020.73679736196
 31
0.0
  0
LINE
  5
18396
330
747D
100
AcDbEntity
  8
部品1
 48
50.0
100
AcDbLine
 10
8752.829581418176
 20
11038.73679736197
 30
0.0
 11
8717.829581418177
 21
11038.73679736197
 31
0.0
  0
LINE
  5
18397
330
747D
100
AcDbEntity
  8
部品1
 48
50.0
100
AcDbLine
 10
8752.829581418174
 20
9878.736797361975
 30
0.0
 11
8717.829581418174
 21
9878.736797361973
 31
0.0
  0
LINE
  5
18398
330
747D
100
AcDbEntity
  8
部品1
 48
50.0
100
AcDbLine
 10
8717.829581418174
 20
9860.736797361971
 30
0.0
 11
8702.829581418173
 21
9860.736797361971
 31
0.0
  0
LINE
  5
18399
330
747D
100
AcDbEntity
  8
部品1
 48
50.0
100
AcDbLine
 10
8717.829581418174
 20
9896.73679736197
 30
0.0
 11
8702.829581418173
 21
9896.73679736197
 31
0.0
  0
LINE
  5
1839A
330
747D
100
AcDbEntity
  8
部品1
 48
50.0
100
AcDbLine
 10
8752.829581418174
 20
10458.73679736197
 30
0.0
 11
8717.829581418174
 21
10458.73679736197
 31
0.0
  0
LINE
  5
1839B
330
747D
100
AcDbEntity
  8
部品1
 48
50.0
100
AcDbLine
 10
8717.829581418174
 20
10440.73679736196
 30
0.0
 11
8702.829581418173
 21
10440.73679736196
 31
0.0
  0
LINE
  5
1839C
330
747D
100
AcDbEntity
  8
部品1
 48
50.0
100
AcDbLine
 10
8717.829581418174
 20
10476.73679736196
 30
0.0
 11
8702.829581418173
 21
10476.73679736196
 31
0.0
  0
LINE
  5
1839D
330
747D
100
AcDbEntity
  8
部品1
 48
50.0
100
AcDbLine
 10
8717.829581418174
 20
9316.736797361969
 30
0.0
 11
8702.829581418173
 21
9316.736797361969
 31
0.0
  0
LINE
  5
1839E
330
747D
100
AcDbEntity
  8
部品1
 48
50.0
100
AcDbLine
 10
8717.829581418174
 20
9280.736797361969
 30
0.0
 11
8702.829581418173
 21
9280.736797361969
 31
0.0
  0
LINE
  5
1839F
330
747D
100
AcDbEntity
  8
部品1
 48
50.0
100
AcDbLine
 10
8752.829581418174
 20
9298.736797361975
 30
0.0
 11
8717.829581418174
 21
9298.736797361973
 31
0.0
  0
LINE
  5
183A0
330
747D
100
AcDbEntity
  8
部品1
 48
50.0
100
AcDbLine
 10
8084.829581418173
 20
11653.73679736197
 30
0.0
 11
8084.829581418173
 21
11638.73679736197
 31
0.0
  0
LINE
  5
183A1
330
747D
100
AcDbEntity
  8
部品1
 48
50.0
100
AcDbLine
 10
8102.829581418173
 20
11653.73679736197
 30
0.0
 11
8102.829581418175
 21
11688.73679736197
 31
0.0
  0
LINE
  5
183A2
330
747D
100
AcDbEntity
  8
部品1
 48
50.0
100
AcDbLine
 10
8120.829581418172
 20
11653.73679736197
 30
0.0
 11
8120.829581418172
 21
11638.73679736197
 31
0.0
  0
LINE
  5
183AC
330
747D
100
AcDbEntity
  8
部品1
 48
50.0
100
AcDbLine
 10
7540.82958141817
 20
11653.73679736221
 30
0.0
 11
7540.82958141817
 21
11638.73679736221
 31
0.0
  0
LINE
  5
183AD
330
747D
100
AcDbEntity
  8
部品1
 48
50.0
100
AcDbLine
 10
7522.829581418169
 20
11653.73679736221
 30
0.0
 11
7522.829581418173
 21
11688.73679736221
 31
0.0
  0
LINE
  5
183AE
330
747D
100
AcDbEntity
  8
部品1
 48
50.0
100
AcDbLine
 10
7504.82958141817
 20
11653.73679736221
 30
0.0
 11
7504.82958141817
 21
11638.73679736221
 31
0.0
  0
LINE
  5
183AF
330
747D
100
AcDbEntity
  8
部品1
 48
50.0
100
AcDbLine
 10
6960.829581418169
 20
11653.73679736227
 30
0.0
 11
6960.829581418169
 21
11638.73679736227
 31
0.0
  0
LINE
  5
183B0
330
747D
100
AcDbEntity
  8
部品1
 48
50.0
100
AcDbLine
 10
6942.82958141817
 20
11653.73679736227
 30
0.0
 11
6942.829581418173
 21
11688.73679736227
 31
0.0
  0
LINE
  5
183B1
330
747D
100
AcDbEntity
  8
部品1
 48
50.0
100
AcDbLine
 10
6924.829581418169
 20
11653.73679736227
 30
0.0
 11
6924.829581418169
 21
11638.73679736227
 31
0.0
  0
LINE
  5
183B2
330
747D
100
AcDbEntity
  8
部品1
 48
50.0
100
AcDbLine
 10
6380.829581418169
 20
11653.73679736233
 30
0.0
 11
6380.829581418169
 21
11638.73679736233
 31
0.0
  0
LINE
  5
183B3
330
747D
100
AcDbEntity
  8
部品1
 48
50.0
100
AcDbLine
 10
6362.829581418169
 20
11653.73679736233
 30
0.0
 11
6362.829581418173
 21
11688.73679736233
 31
0.0
  0
LINE
  5
183B4
330
747D
100
AcDbEntity
  8
部品1
 48
50.0
100
AcDbLine
 10
6344.829581418169
 20
11653.73679736233
 30
0.0
 11
6344.829581418169
 21
11638.73679736233
 31
0.0
  0
LINE
  5
183B5
330
747D
100
AcDbEntity
  8
部品1
 48
50.0
100
AcDbLine
 10
5800.829581418169
 20
11653.73679736197
 30
0.0
 11
5800.829581418169
 21
11638.73679736197
 31
0.0
  0
LINE
  5
183B6
330
747D
100
AcDbEntity
  8
部品1
 48
50.0
100
AcDbLine
 10
5782.82958141817
 20
11653.73679736197
 30
0.0
 11
5782.829581418173
 21
11688.73679736197
 31
0.0
  0
LINE
  5
183B7
330
747D
100
AcDbEntity
  8
部品1
 48
50.0
100
AcDbLine
 10
5764.829581418169
 20
11653.73679736197
 30
0.0
 11
5764.829581418169
 21
11638.73679736197
 31
0.0
  0
LINE
  5
183D1
330
747D
100
AcDbEntity
  8
部品1
 48
50.0
100
AcDbLine
 10
5747.829581418175
 20
9896.73679736197
 30
0.0
 11
5762.829581418174
 21
9896.73679736197
 31
0.0
  0
LINE
  5
183D2
330
747D
100
AcDbEntity
  8
部品1
 48
50.0
100
AcDbLine
 10
5747.829581418175
 20
9860.736797361971
 30
0.0
 11
5762.829581418174
 21
9860.736797361971
 31
0.0
  0
LINE
  5
183D3
330
747D
100
AcDbEntity
  8
部品1
 48
50.0
100
AcDbLine
 10
5712.829581418175
 20
9878.736797361975
 30
0.0
 11
5747.829581418175
 21
9878.736797361973
 31
0.0
  0
LINE
  5
183D4
330
747D
100
AcDbEntity
  8
部品1
 48
50.0
100
AcDbLine
 10
5747.829581418175
 20
10476.73679736196
 30
0.0
 11
5762.829581418174
 21
10476.73679736196
 31
0.0
  0
LINE
  5
183D5
330
747D
100
AcDbEntity
  8
部品1
 48
50.0
100
AcDbLine
 10
5747.829581418175
 20
10440.73679736196
 30
0.0
 11
5762.829581418174
 21
10440.73679736196
 31
0.0
  0
LINE
  5
183D6
330
747D
100
AcDbEntity
  8
部品1
 48
50.0
100
AcDbLine
 10
5712.829581418175
 20
10458.73679736197
 30
0.0
 11
5747.829581418175
 21
10458.73679736197
 31
0.0
  0
LINE
  5
183D7
330
747D
100
AcDbEntity
  8
部品1
 48
50.0
100
AcDbLine
 10
5712.829581418171
 20
11038.73679736197
 30
0.0
 11
5747.829581418171
 21
11038.73679736197
 31
0.0
  0
LINE
  5
183D8
330
747D
100
AcDbEntity
  8
部品1
 48
50.0
100
AcDbLine
 10
5747.829581418171
 20
11020.73679736196
 30
0.0
 11
5762.829581418171
 21
11020.73679736196
 31
0.0
  0
LINE
  5
183D9
330
747D
100
AcDbEntity
  8
部品1
 48
50.0
100
AcDbLine
 10
5747.829581418171
 20
11056.73679736197
 30
0.0
 11
5762.829581418171
 21
11056.73679736197
 31
0.0
  0
LINE
  5
183DD
330
747D
100
AcDbEntity
  8
部品1
 48
50.0
100
AcDbLine
 10
5747.829581418171
 20
11636.73679736197
 30
0.0
 11
5762.829581418171
 21
11636.73679736197
 31
0.0
  0
LINE
  5
183DE
330
747D
100
AcDbEntity
  8
部品1
 48
50.0
100
AcDbLine
 10
5747.829581418171
 20
11600.73679736197
 30
0.0
 11
5762.829581418171
 21
11600.73679736197
 31
0.0
  0
LINE
  5
183DF
330
747D
100
AcDbEntity
  8
部品1
 48
50.0
100
AcDbLine
 10
5712.829581418171
 20
11618.73679736197
 30
0.0
 11
5747.829581418171
 21
11618.73679736197
 31
0.0
  0
LINE
  5
183E0
330
747D
100
AcDbEntity
  8
部品1
 48
50.0
100
AcDbLine
 10
5712.829581418175
 20
9298.736797361975
 30
0.0
 11
5747.829581418175
 21
9298.736797361973
 31
0.0
  0
LINE
  5
183E1
330
747D
100
AcDbEntity
  8
部品1
 48
50.0
100
AcDbLine
 10
5747.829581418175
 20
9280.736797361969
 30
0.0
 11
5762.829581418174
 21
9280.736797361969
 31
0.0
  0
LINE
  5
183E2
330
747D
100
AcDbEntity
  8
部品1
 48
50.0
100
AcDbLine
 10
5747.829581418175
 20
9316.736797361969
 30
0.0
 11
5762.829581418174
 21
9316.736797361969
 31
0.0
  0
LINE
  5
183E3
330
747D
100
AcDbEntity
  8
部品1
 48
50.0
100
AcDbLine
 10
5764.829581418169
 20
9263.736797361975
 30
0.0
 11
5764.829581418169
 21
9278.736797361975
 31
0.0
  0
LINE
  5
183E4
330
747D
100
AcDbEntity
  8
部品1
 48
50.0
100
AcDbLine
 10
5800.829581418169
 20
9263.736797361975
 30
0.0
 11
5800.829581418169
 21
9278.736797361975
 31
0.0
  0
LINE
  5
183E5
330
747D
100
AcDbEntity
  8
部品1
 48
50.0
100
AcDbLine
 10
5782.82958141817
 20
9263.736797361975
 30
0.0
 11
5782.829581418173
 21
9228.736797361973
 31
0.0
  0
LINE
  5
183FB
330
747D
100
AcDbEntity
  8
部品1
 48
50.0
100
AcDbLine
 10
8120.829581418172
 20
9263.736797361973
 30
0.0
 11
8120.829581418172
 21
9278.736797361974
 31
0.0
  0
LINE
  5
183FC
330
747D
100
AcDbEntity
  8
部品1
 48
50.0
100
AcDbLine
 10
8102.829581418173
 20
9263.736797361973
 30
0.0
 11
8102.829581418175
 21
9228.736797361971
 31
0.0
  0
LINE
  5
183FD
330
747D
100
AcDbEntity
  8
部品1
 48
50.0
100
AcDbLine
 10
8084.829581418173
 20
9263.736797361973
 30
0.0
 11
8084.829581418173
 21
9278.736797361974
 31
0.0
  0
LINE
  5
183FE
330
747D
100
AcDbEntity
  8
部品1
 48
50.0
100
AcDbLine
 10
8682.829581418173
 20
9263.736797361973
 30
0.0
 11
8682.829581418177
 21
9228.736797361971
 31
0.0
  0
LINE
  5
183FF
330
747D
100
AcDbEntity
  8
部品1
 48
50.0
100
AcDbLine
 10
8664.829581418173
 20
9263.736797361973
 30
0.0
 11
8664.829581418173
 21
9278.736797361974
 31
0.0
  0
LINE
  5
18400
330
747D
100
AcDbEntity
  8
部品1
 48
50.0
100
AcDbLine
 10
8700.829581418174
 20
9263.736797361973
 30
0.0
 11
8700.829581418174
 21
9278.736797361974
 31
0.0
  0
LINE
  5
18401
330
747D
100
AcDbEntity
  8
細線
 48
50.0
100
AcDbLine
 10
8693.829581418176
 20
11629.73679736197
 30
0.0
 11
8693.829581418176
 21
9278.736797361975
 31
0.0
  0
LINE
  5
18402
330
747D
100
AcDbEntity
  8
細線
 48
50.0
100
AcDbLine
 10
8702.829581418177
 20
11629.73679736197
 30
0.0
 11
5771.829581418173
 21
11629.73679736197
 31
0.0
  0
LINE
  5
18403
330
747D
100
AcDbEntity
  8
細線
 48
50.0
100
AcDbLine
 10
5762.829581418169
 20
9287.73679736197
 30
0.0
 11
5773.329581418169
 21
9287.73679736197
 31
0.0
  0
LINE
  5
18404
330
747D
100
AcDbEntity
  8
細線
 48
50.0
100
AcDbLine
 10
5771.829581418173
 20
11638.73679736197
 30
0.0
 11
5771.829581418171
 21
9287.73679736197
 31
0.0
  0
LINE
  5
18413
330
747D
100
AcDbEntity
  8
細線
 48
50.0
100
AcDbLine
 10
6365.329581418164
 20
9292.236797361971
 30
0.0
 11
6365.329581418164
 21
11629.73679736197
 31
0.0
  0
LINE
  5
18414
330
747D
100
AcDbEntity
  8
細線
 48
50.0
100
AcDbLine
 10
6945.329581418164
 20
9287.73679736197
 30
0.0
 11
6945.329581418164
 21
11629.73679736197
 31
0.0
  0
LINE
  5
18415
330
747D
100
AcDbEntity
  8
細線
 48
50.0
100
AcDbLine
 10
8105.329581418164
 20
9287.73679736197
 30
0.0
 11
8105.329581418164
 21
11629.73679736197
 31
0.0
  0
LINE
  5
18416
330
747D
100
AcDbEntity
  8
細線
 48
50.0
100
AcDbLine
 10
7525.329581418166
 20
9287.73679736197
 30
0.0
 11
7525.329581418164
 21
11629.73679736197
 31
0.0
  0
DIMENSION
  5
1852A
330
747D
100
AcDbEntity
  8
寸法
 48
50.0
100
AcDbDimension
  2
*D11
 10
9866.969337719753
 20
11638.73679736197
 30
0.0
 11
9766.954573940225
 21
10458.73679736197
 31
0.0
 12
290.0
 22
0.0
 32
0.0
 70
    32
  1
内部寸法 <>
 71
     5
 42
-1.0
  3
INABA_S50G
100
AcDbAlignedDimension
 13
9564.165333801147
 23
9278.736797361975
 33
0.0
 14
9564.165333801144
 24
11638.73679736197
 34
0.0
 50
90.0
100
AcDbRotatedDimension
1001
ACAD
1000
DSTYLE
1002
{
1002
}
  0
DIMENSION
  5
1852B
330
747D
100
AcDbEntity
  8
寸法
 48
50.0
100
AcDbDimension
  2
*D8
 10
9564.165333801144
 20
11618.73679736197
 30
0.0
 11
9464.150570021617
 21
10458.73679736197
 31
0.0
 12
290.0
 22
0.0
 32
0.0
 70
    32
  1
4x580=<>
 71
     5
 42
-1.0
  3
INABA_S50G
100
AcDbAlignedDimension
 13
8752.829581418176
 23
9298.736797361975
 33
0.0
 14
8752.829581418176
 24
11618.73679736197
 34
0.0
 50
90.0
100
AcDbRotatedDimension
1001
ACAD
1000
DSTYLE
1002
{
1002
}
  0
DIMENSION
  5
1852C
330
747D
100
AcDbEntity
  8
寸法
 48
50.0
100
AcDbDimension
  2
*D10
 10
9866.969337719758
 20
9278.736797361975
 30
0.0
 11
9866.969337719758
 21
8991.689553267482
 31
0.0
 12
290.0
 22
0.0
 32
0.0
 70
   160
 71
     5
 42
-1.0
  3
INABA_S50G
100
AcDbAlignedDimension
 13
8742.829581418176
 23
9228.736797361971
 33
0.0
 14
9564.165333801147
 24
9278.736797361975
 34
0.0
 50
90.0
100
AcDbRotatedDimension
  0
DIMENSION
  5
1852D
330
747D
100
AcDbEntity
  8
寸法
 48
50.0
100
AcDbDimension
  2
*D7
 10
9564.165333801149
 20
9298.736797361975
 30
0.0
 11
9564.165333801149
 21
8996.177742243862
 31
0.0
 12
-7954.632845073172
 22
-373.9447183321535
 32
0.0
 70
   160
 71
     5
 42
-1.0
  3
INABA_S50G
100
AcDbAlignedDimension
 13
8742.829581418176
 23
9228.736797361971
 33
0.0
 14
8752.829581418176
 24
9298.736797361975
 34
0.0
 50
90.0
100
AcDbRotatedDimension
  0
DIMENSION
  5
1852E
330
747D
100
AcDbEntity
  8
寸法
 48
50.0
100
AcDbDimension
  2
*D12
 10
9866.969337719755
 20
11688.73679736197
 30
0.0
 11
9866.969337719755
 21
12046.29585248008
 31
0.0
 12
290.0
 22
-580.0
 32
0.0
 70
   160
 71
     5
 42
-1.0
  3
INABA_S50G
100
AcDbAlignedDimension
 13
9564.165333801144
 23
11638.73679736197
 33
0.0
 14
8742.829581418174
 24
11688.73679736197
 34
0.0
 50
90.0
100
AcDbRotatedDimension
1001
ACAD
1000
DSTYLE
1002
{
1002
}
  0
DIMENSION
  5
1852F
330
747D
100
AcDbEntity
  8
寸法
 48
50.0
100
AcDbDimension
  2
*D9
 10
9564.165333801145
 20
11688.73679736197
 30
0.0
 11
9564.165333801145
 21
11921.29585248008
 31
0.0
 12
-7954.632845073172
 22
-953.9447183321536
 32
0.0
 70
   160
 71
     5
 42
-1.0
  3
INABA_S50G
100
AcDbAlignedDimension
 13
8752.829581418176
 23
11618.73679736197
 33
0.0
 14
8742.829581418174
 24
11688.73679736197
 34
0.0
 50
90.0
100
AcDbRotatedDimension
1001
ACAD
1000
DSTYLE
1002
{
1002
}
  0
DIMENSION
  5
185AD
330
747D
100
AcDbEntity
  8
寸法
 48
50.0
100
AcDbDimension
  2
*D16
 10
5762.829581418169
 20
12397.51516613338
 30
0.0
 11
5355.270526300061
 21
12397.51516613338
 31
0.0
 12
-6074.632845073172
 22
-953.9447183321536
 32
0.0
 70
   160
 71
     5
 42
-1.0
  3
INABA_S50G
100
AcDbAlignedDimension
 13
5712.829581418171
 23
11678.73679736197
 33
0.0
 14
5762.829581418169
 24
12098.76878223262
 34
0.0
100
AcDbRotatedDimension
  0
DIMENSION
  5
185AE
330
747D
100
AcDbEntity
  8
寸法
 48
50.0
100
AcDbDimension
  2
*D13
 10
5782.829581418173
 20
12098.76878223262
 30
0.0
 11
5470.270526300061
 21
12098.76878223262
 31
0.0
 12
-6074.632845073172
 22
-953.9447183321536
 32
0.0
 70
   160
 71
     5
 42
-1.0
  3
INABA_S50G
100
AcDbAlignedDimension
 13
5712.829581418171
 23
11678.73679736197
 33
0.0
 14
5782.829581418173
 24
11688.73679736197
 34
0.0
100
AcDbRotatedDimension
  0
DIMENSION
  5
185AF
330
747D
100
AcDbEntity
  8
寸法
 48
50.0
100
AcDbDimension
  2
*D17
 10
8702.82958141818
 20
12397.51516613338
 30
0.0
 11
7232.829581418174
 21
12497.52992991291
 31
0.0
 70
    32
  1
内部寸法 <>
 71
     5
 42
-1.0
  3
INABA_S50G
100
AcDbAlignedDimension
 13
5762.829581418169
 23
12098.76878223262
 33
0.0
 14
8702.82958141818
 24
12098.76878223262
 34
0.0
100
AcDbRotatedDimension
1001
ACAD
1000
DSTYLE
1002
{
1070
   287
1070
     4
1070
    75
1070
     1
1070
   279
1070
     1
1002
}
  0
DIMENSION
  5
185B1
330
747D
100
AcDbEntity
  8
寸法
 48
50.0
100
AcDbDimension
  2
*D14
 10
8682.829581418173
 20
12098.76878223262
 30
0.0
 11
7232.829581418174
 21
12198.78354601215
 31
0.0
 70
    32
  1
5x580=<>
 71
     5
 42
-1.0
  3
INABA_S50G
100
AcDbAlignedDimension
 13
5782.829581418173
 23
11688.73679736197
 33
0.0
 14
8682.829581418173
 24
11688.73679736197
 34
0.0
100
AcDbRotatedDimension
1001
ACAD
1000
DSTYLE
1002
{
1070
   287
1070
     4
1070
    75
1070
     1
1070
   279
1070
     1
1002
}
  0
DIMENSION
  5
185B3
330
747D
100
AcDbEntity
  8
寸法
 48
50.0
100
AcDbDimension
  2
*D18
 10
8752.829581418176
 20
12397.51516613338
 30
0.0
 11
9110.388636536285
 21
12397.51516613338
 31
0.0
 12
-7954.632845073172
 22
-953.9447183321536
 32
0.0
 70
   160
 71
     5
 42
-1.0
  3
INABA_S50G
100
AcDbAlignedDimension
 13
8702.82958141818
 23
12098.76878223262
 33
0.0
 14
8752.829581418176
 24
11678.73679736197
 34
0.0
100
AcDbRotatedDimension
1001
ACAD
1000
DSTYLE
1002
{
1002
}
  0
DIMENSION
  5
185B4
330
747D
100
AcDbEntity
  8
寸法
 48
50.0
100
AcDbDimension
  2
*D15
 10
8752.829581418176
 20
12098.76878223262
 30
0.0
 11
9015.388636536284
 21
12098.76878223262
 31
0.0
 12
-7954.632845073172
 22
-953.9447183321536
 32
0.0
 70
   160
 71
     5
 42
-1.0
  3
INABA_S50G
100
AcDbAlignedDimension
 13
8682.829581418177
 23
11688.73679736197
 33
0.0
 14
8752.829581418176
 24
11678.73679736197
 34
0.0
100
AcDbRotatedDimension
1001
ACAD
1000
DSTYLE
1002
{
1002
}
  0
DIMENSION
  5
1868C
330
747D
100
AcDbEntity
  8
寸法
 48
50.0
100
AcDbDimension
  2
*D19
 10
8752.829581418176
 20
7967.428503410812
 30
0.0
 11
6652.829581418174
 21
8067.428503410813
 31
0.0
 12
870.0
 22
0.0
 32
0.0
 70
    32
 71
     5
 42
-1.0
  3
INABA_S50G
100
AcDbAlignedDimension
 13
5712.829581418171
 23
9238.736797361971
 33
0.0
 14
8752.829581418176
 24
9238.736797361973
 34
0.0
100
AcDbRotatedDimension
  0
DIMENSION
  5
186AF
330
747D
100
AcDbEntity
  8
寸法
 48
50.0
100
AcDbDimension
  2
*D20
 10
4946.198601638503
 20
9228.736797361971
 30
0.0
 11
4266.183837858976
 21
10458.73679736197
 31
0.0
 12
870.0
 22
0.0
 32
0.0
 70
    32
 71
     5
 42
-1.0
  3
INABA_S50G
100
AcDbAlignedDimension
 13
5722.829581418171
 23
11688.73679736197
 33
0.0
 14
5722.829581418171
 24
9228.736797361971
 34
0.0
 50
90.0
100
AcDbRotatedDimension
  0
LINE
  5
186D3
330
747D
100
AcDbEntity
  8
部品1
 62
     2
 48
50.0
100
AcDbLine
 10
7528.829581418174
 20
9160.736797361609
 30
0.0
 11
5776.829581418173
 21
9160.736797361609
 31
0.0
  0
LINE
  5
186D4
330
747D
100
AcDbEntity
  8
部品1
 62
     2
 48
50.0
100
AcDbLine
 10
5776.829581418173
 20
9160.736797361609
 30
0.0
 11
5776.829581418173
 21
9228.736797361971
 31
0.0
  0
LINE
  5
186D5
330
747D
100
AcDbEntity
  8
部品1
 62
     2
 48
50.0
100
AcDbLine
 10
7528.829581418174
 20
9228.736797361792
 30
0.0
 11
7528.829581418174
 21
9160.73679736179
 31
0.0
  0
LINE
  5
186D9
330
747D
100
AcDbEntity
  8
部品1
 62
     2
 48
50.0
100
AcDbLine
 10
5802.829581418169
 20
9287.73679736197
 30
0.0
 11
5773.329581418169
 21
9287.73679736197
 31
0.0
  0
LINE
  5
186DA
330
747D
100
AcDbEntity
  8
部品1
 62
     2
 48
50.0
100
AcDbLine
 10
5773.329581418169
 20
9287.73679736197
 30
0.0
 11
5773.329581418169
 21
9278.73679736197
 31
0.0
  0
LINE
  5
186EA
330
747D
100
AcDbEntity
  8
部品1
 62
     2
 48
50.0
100
AcDbLine
 10
5802.829581418169
 20
9292.236797361971
 30
0.0
 11
5802.829581418169
 21
9228.736797361969
 31
0.0
  0
LINE
  5
186ED
330
747D
100
AcDbEntity
  8
部品1
 48
50.0
100
AcDbLine
 10
7522.829581418169
 20
9228.736797361971
 30
0.0
 11
8742.829581418176
 21
9228.736797361973
 31
0.0
  0
LINE
  5
186EE
330
747D
100
AcDbEntity
  8
部品1
 48
50.0
100
AcDbLine
 10
7504.82958141817
 20
9263.736797361969
 30
0.0
 11
8717.829581418177
 21
9263.736797361973
 31
0.0
  0
LINE
  5
186EF
330
747D
100
AcDbEntity
  8
部品1
 48
50.0
100
AcDbLine
 10
7504.829581418167
 20
9278.73679736197
 30
0.0
 11
8702.829581418177
 21
9278.73679736197
 31
0.0
  0
LINE
  5
186F0
330
747D
100
AcDbEntity
  8
部品1
 62
     2
 48
50.0
100
AcDbLine
 10
5792.829581418173
 20
9160.736797361609
 30
0.0
 11
5792.829581418173
 21
9228.736797361971
 31
0.0
  0
LINE
  5
186F2
330
747D
100
AcDbEntity
  8
部品1
 62
     2
 48
50.0
100
AcDbLine
 10
6932.829581418177
 20
9228.736797361969
 30
0.0
 11
5782.829581418173
 21
9228.736797361969
 31
0.0
  0
LINE
  5
186F3
330
747D
100
AcDbEntity
  8
部品1
 62
     2
 48
50.0
100
AcDbLine
 10
7512.829581418173
 20
9228.736797361792
 30
0.0
 11
7512.829581418173
 21
9160.73679736179
 31
0.0
  0
LINE
  5
186F4
330
747D
100
AcDbEntity
  8
部品1
 62
     2
 48
50.0
100
AcDbLine
 10
7502.829581418173
 20
9233.736797361791
 30
0.0
 11
7502.829581418173
 21
9228.736797361971
 31
0.0
  0
LINE
  5
186F5
330
747D
100
AcDbEntity
  8
部品1
 62
     2
 48
50.0
100
AcDbLine
 10
7522.829581418173
 20
9228.736797361971
 30
0.0
 11
7502.829581418173
 21
9228.736797361971
 31
0.0
  0
LINE
  5
186F6
330
747D
100
AcDbEntity
  8
部品1
 62
     2
 48
50.0
100
AcDbLine
 10
6924.829581418169
 20
9263.736797361792
 30
0.0
 11
6924.829581418169
 21
9278.736797361792
 31
0.0
  0
LINE
  5
186F7
330
747D
100
AcDbEntity
  8
部品1
 62
     2
 48
50.0
100
AcDbLine
 10
6960.829581418169
 20
9263.736797361792
 30
0.0
 11
6960.829581418169
 21
9278.736797361792
 31
0.0
  0
LINE
  5
186F9
330
747D
100
AcDbEntity
  8
部品1
 62
     2
 48
50.0
100
AcDbLine
 10
7522.829581418173
 20
9233.736797361972
 30
0.0
 11
6948.829581418171
 21
9233.736797361968
 31
0.0
  0
LINE
  5
186FA
330
747D
100
AcDbEntity
  8
部品1
 62
     2
 48
50.0
100
AcDbLine
 10
6924.829581418169
 20
9278.736797361792
 30
0.0
 11
7504.82958141817
 21
9278.736797361792
 31
0.0
  0
LINE
  5
186FB
330
747D
100
AcDbEntity
  8
部品1
 62
     2
 48
50.0
100
AcDbLine
 10
6924.829581418169
 20
9263.736797361792
 30
0.0
 11
7504.82958141817
 21
9263.736797361969
 31
0.0
  0
LINE
  5
186FD
330
747D
100
AcDbEntity
  8
部品1
 62
     2
 48
50.0
100
AcDbLine
 10
6942.82958141817
 20
9278.736797361792
 30
0.0
 11
6942.82958141817
 21
9287.73679736197
 31
0.0
  0
LINE
  5
186FE
330
747D
100
AcDbEntity
  8
細線
 48
50.0
100
AcDbLine
 10
6942.829581418171
 20
9287.73679736197
 30
0.0
 11
8693.829581418176
 21
9287.73679736197
 31
0.0
  0
LINE
  5
186FF
330
747D
100
AcDbEntity
  8
部品1
 62
     2
 48
50.0
100
AcDbLine
 10
6942.829581418171
 20
9287.73679736197
 30
0.0
 11
6913.329581418171
 21
9287.73679736197
 31
0.0
  0
LINE
  5
18700
330
747D
100
AcDbEntity
  8
部品1
 62
     2
 48
50.0
100
AcDbLine
 10
6913.329581418171
 20
9292.236797361971
 30
0.0
 11
6913.329581418171
 21
9228.736797361971
 31
0.0
  0
LINE
  5
18705
330
747D
100
AcDbEntity
  8
部品1
 62
     2
 48
50.0
100
AcDbLine
 10
6932.829581418174
 20
9263.736797361799
 30
0.0
 11
6932.829581418174
 21
9223.736797361794
 31
0.0
  0
LINE
  5
18706
330
747D
100
AcDbEntity
  8
部品1
 62
     2
 48
50.0
100
AcDbLine
 10
6932.829581418174
 20
9223.736797361794
 30
0.0
 11
6948.829581418175
 21
9223.736797361848
 31
0.0
  0
LINE
  5
18708
330
747D
100
AcDbEntity
  8
部品1
 62
     2
 48
50.0
100
AcDbLine
 10
6948.829581418173
 20
9233.736797361968
 30
0.0
 11
6948.829581418175
 21
9223.736797361794
 31
0.0
  0
LINE
  5
18709
330
747D
100
AcDbEntity
  8
部品1
 62
     2
 48
50.0
100
AcDbLine
 10
5802.829581418169
 20
9292.236797361971
 30
0.0
 11
6913.329581418171
 21
9292.236797361971
 31
0.0
  0
LINE
  5
1870A
330
747D
100
AcDbEntity
  8
部品1
 62
     2
 48
50.0
100
AcDbLine
 10
7512.829581418173
 20
9176.736797361609
 30
0.0
 11
6387.829581418174
 21
9176.736797361609
 31
0.0
  0
LINE
  5
1870B
330
747D
100
AcDbEntity
  8
部品1
 62
     2
 48
50.0
100
AcDbLine
 10
7512.829581418173
 20
9210.73679736161
 30
0.0
 11
6960.329581418173
 21
9210.73679736161
 31
0.0
  0
LINE
  5
18711
330
747D
100
AcDbEntity
  8
部品1
 62
     2
 48
50.0
100
AcDbLine
 10
5802.829581418169
 20
9262.03679736197
 30
0.0
 11
6913.329581418171
 21
9262.03679736197
 31
0.0
  0
LINE
  5
18712
330
747D
100
AcDbEntity
  8
部品1
 62
     2
 48
50.0
100
AcDbLine
 10
5802.829581418169
 20
9248.536797361969
 30
0.0
 11
6913.329581418171
 21
9248.536797361969
 31
0.0
  0
LINE
  5
18713
330
747D
100
AcDbEntity
  8
部品1
 62
     2
 48
50.0
100
AcDbLine
 10
6377.829581418173
 20
9187.736797361608
 30
0.0
 11
6377.829581418173
 21
9194.73679736161
 31
0.0
  0
LINE
  5
18714
330
747D
100
AcDbEntity
  8
部品1
 62
     2
 48
50.0
100
AcDbLine
 10
6377.829581418173
 20
9194.73679736161
 30
0.0
 11
6387.829581418174
 21
9194.73679736161
 31
0.0
  0
LINE
  5
18715
330
747D
100
AcDbEntity
  8
部品1
 62
     2
 48
50.0
100
AcDbLine
 10
6387.829581418174
 20
9194.73679736161
 30
0.0
 11
6387.829581418174
 21
9165.736797361608
 31
0.0
  0
LINE
  5
18716
330
747D
100
AcDbEntity
  8
部品1
 62
     2
 48
50.0
100
AcDbLine
 10
6387.829581418174
 20
9165.736797361608
 30
0.0
 11
5793.829581418172
 21
9165.736797361608
 31
0.0
  0
LINE
  5
18717
330
747D
100
AcDbEntity
  8
部品1
 62
     2
 48
50.0
100
AcDbLine
 10
5793.829581418172
 20
9165.736797361608
 30
0.0
 11
5793.829581418172
 21
9194.73679736161
 31
0.0
  0
LINE
  5
18718
330
747D
100
AcDbEntity
  8
部品1
 62
     2
 48
50.0
100
AcDbLine
 10
5793.829581418172
 20
9194.73679736161
 30
0.0
 11
5803.829581418173
 21
9194.73679736161
 31
0.0
  0
LINE
  5
18719
330
747D
100
AcDbEntity
  8
部品1
 62
     2
 48
50.0
100
AcDbLine
 10
5803.829581418173
 20
9194.73679736161
 30
0.0
 11
5803.829581418173
 21
9187.736797361608
 31
0.0
  0
LINE
  5
1871A
330
747D
100
AcDbEntity
  8
部品1
 62
     2
 48
50.0
100
AcDbLine
 10
5803.829581418173
 20
9187.736797361608
 30
0.0
 11
6377.829581418173
 21
9187.736797361608
 31
0.0
  0
LINE
  5
1871D
330
747D
100
AcDbEntity
  8
部品1
 62
     2
 48
50.0
100
AcDbLine
 10
5793.829581418172
 20
9176.736797361609
 30
0.0
 11
5792.829581418173
 21
9176.736797361609
 31
0.0
  0
LINE
  5
1871E
330
747D
100
AcDbEntity
  8
部品1
 62
     2
 48
50.0
100
AcDbLine
 10
6960.329581418173
 20
9228.736797361611
 30
0.0
 11
6960.329581418173
 21
9199.736797361609
 31
0.0
  0
LINE
  5
1871F
330
747D
100
AcDbEntity
  8
部品1
 62
     2
 48
50.0
100
AcDbLine
 10
6950.329581418173
 20
9228.736797361611
 30
0.0
 11
6960.329581418173
 21
9228.736797361611
 31
0.0
  0
LINE
  5
18720
330
747D
100
AcDbEntity
  8
部品1
 62
     2
 48
50.0
100
AcDbLine
 10
6950.329581418173
 20
9221.736797361609
 30
0.0
 11
6950.329581418173
 21
9228.736797361611
 31
0.0
  0
LINE
  5
18721
330
747D
100
AcDbEntity
  8
部品1
 62
     2
 48
50.0
100
AcDbLine
 10
6366.329581418171
 20
9221.736797361609
 30
0.0
 11
6950.329581418173
 21
9221.736797361609
 31
0.0
  0
LINE
  5
18722
330
747D
100
AcDbEntity
  8
部品1
 62
     2
 48
50.0
100
AcDbLine
 10
6960.329581418173
 20
9199.736797361609
 30
0.0
 11
6376.329581418173
 21
9199.736797361609
 31
0.0
  0
LINE
  5
18723
330
747D
100
AcDbEntity
  8
部品1
 62
     2
 48
50.0
100
AcDbLine
 10
6366.329581418173
 20
9189.736797361609
 30
0.0
 11
6366.329581418173
 21
9221.736797361611
 31
0.0
  0
LINE
  5
18726
330
747D
100
AcDbEntity
  8
部品1
 62
     2
 48
50.0
100
AcDbLine
 10
6366.329581418173
 20
9189.736797361609
 30
0.0
 11
6376.329581418173
 21
9189.736797361609
 31
0.0
  0
LINE
  5
18727
330
747D
100
AcDbEntity
  8
部品1
 62
     2
 48
50.0
100
AcDbLine
 10
6376.329581418173
 20
9189.736797361609
 30
0.0
 11
6376.329581418171
 21
9199.736797361609
 31
0.0
  0
LINE
  5
1872A
330
747D
100
AcDbEntity
  8
部品1
 62
     2
 48
50.0
100
AcDbLine
 10
6366.329581418175
 20
9210.73679736161
 30
0.0
 11
5792.829581418173
 21
9210.73679736161
 31
0.0
  0
LINE
  5
18736
330
747D
100
AcDbEntity
  8
部品1
 62
     2
 48
50.0
100
AcDbLine
 10
5815.329581418173
 20
9187.736797361608
 30
0.0
 11
5815.329581418173
 21
9179.736797361609
 31
0.0
  0
LINE
  5
18738
330
747D
100
AcDbEntity
  8
部品1
 62
     2
 48
50.0
100
AcDbLine
 10
6366.329581418173
 20
9187.736797361608
 30
0.0
 11
6366.329581418173
 21
9179.736797361609
 31
0.0
  0
LINE
  5
18739
330
747D
100
AcDbEntity
  8
部品1
 62
     2
 48
50.0
100
AcDbLine
 10
6063.329581418171
 20
9166.736797361609
 30
0.0
 11
6078.329581418171
 21
9166.736797361609
 31
0.0
  0
LINE
  5
1873A
330
747D
100
AcDbEntity
  8
部品1
 62
     2
 48
50.0
100
AcDbLine
 10
6078.329581418171
 20
9166.736797361609
 30
0.0
 11
6078.329581418171
 21
9180.736797361609
 31
0.0
  0
LINE
  5
1873B
330
747D
100
AcDbEntity
  8
部品1
 62
     2
 48
50.0
100
AcDbLine
 10
6078.329581418171
 20
9180.736797361609
 30
0.0
 11
6083.329581418171
 21
9180.736797361609
 31
0.0
  0
LINE
  5
1873C
330
747D
100
AcDbEntity
  8
部品1
 62
     2
 48
50.0
100
AcDbLine
 10
6083.329581418171
 20
9180.736797361609
 30
0.0
 11
6083.329581418171
 21
9177.736797361609
 31
0.0
  0
LINE
  5
1873D
330
747D
100
AcDbEntity
  8
部品1
 62
     2
 48
50.0
100
AcDbLine
 10
6083.329581418171
 20
9177.736797361609
 30
0.0
 11
6098.329581418171
 21
9177.736797361609
 31
0.0
  0
LINE
  5
1873E
330
747D
100
AcDbEntity
  8
部品1
 62
     2
 48
50.0
100
AcDbLine
 10
6103.329581418171
 20
9166.736797361609
 30
0.0
 11
6103.329581418171
 21
9180.736797361609
 31
0.0
  0
LINE
  5
1873F
330
747D
100
AcDbEntity
  8
部品1
 62
     2
 48
50.0
100
AcDbLine
 10
6118.329581418171
 20
9166.736797361609
 30
0.0
 11
6103.329581418171
 21
9166.736797361609
 31
0.0
  0
LINE
  5
18740
330
747D
100
AcDbEntity
  8
部品1
 62
     2
 48
50.0
100
AcDbLine
 10
6098.329581418171
 20
9180.736797361609
 30
0.0
 11
6098.329581418171
 21
9177.736797361609
 31
0.0
  0
LINE
  5
18741
330
747D
100
AcDbEntity
  8
部品1
 62
     2
 48
50.0
100
AcDbLine
 10
6103.329581418171
 20
9180.736797361609
 30
0.0
 11
6098.329581418171
 21
9180.736797361609
 31
0.0
  0
LINE
  5
18742
330
747D
100
AcDbEntity
  8
部品1
 62
     2
 48
50.0
100
AcDbLine
 10
6072.579581418173
 20
9180.736797361609
 30
0.0
 11
6109.079581418173
 21
9180.736797361609
 31
0.0
  0
LINE
  5
18746
330
747D
100
AcDbEntity
  8
部品1
 62
     2
 48
50.0
100
AcDbLine
 10
6109.079581418173
 20
9180.736797361609
 30
0.0
 11
6112.579581418173
 21
9177.23679736161
 31
0.0
  0
LINE
  5
18747
330
747D
100
AcDbEntity
  8
部品1
 62
     2
 48
50.0
100
AcDbLine
 10
6072.579581418173
 20
9180.736797361609
 30
0.0
 11
6069.079581418173
 21
9177.23679736161
 31
0.0
  0
LINE
  5
1874A
330
747D
100
AcDbEntity
  8
部品1
 62
     2
 48
50.0
100
AcDbLine
 10
6387.829581418174
 20
9178.73679736161
 30
0.0
 11
6103.329581418171
 21
9178.73679736161
 31
0.0
  0
LINE
  5
1874B
330
747D
100
AcDbEntity
  8
部品1
 62
     2
 48
50.0
100
AcDbLine
 10
6078.329581418171
 20
9178.73679736161
 30
0.0
 11
5793.829581418172
 21
9178.73679736161
 31
0.0
  0
LINE
  5
1874E
330
747D
100
AcDbEntity
  8
部品1
 62
     2
 48
50.0
100
AcDbLine
 10
6960.329581418173
 20
9212.736797361609
 30
0.0
 11
6675.82958141817
 21
9212.736797361609
 31
0.0
  0
LINE
  5
1874F
330
747D
100
AcDbEntity
  8
部品1
 62
     2
 48
50.0
100
AcDbLine
 10
6650.829581418171
 20
9212.736797361609
 30
0.0
 11
6366.329581418173
 21
9212.736797361609
 31
0.0
  0
LINE
  5
18750
330
747D
100
AcDbEntity
  8
部品1
 62
     2
 48
50.0
100
AcDbLine
 10
6645.079581418173
 20
9214.736797361609
 30
0.0
 11
6681.579581418173
 21
9214.736797361609
 31
0.0
  0
LINE
  5
18751
330
747D
100
AcDbEntity
  8
部品1
 62
     2
 48
50.0
100
AcDbLine
 10
6675.82958141817
 20
9214.736797361609
 30
0.0
 11
6670.829581418171
 21
9214.736797361609
 31
0.0
  0
LINE
  5
18753
330
747D
100
AcDbEntity
  8
部品1
 62
     2
 48
50.0
100
AcDbLine
 10
6645.079581418173
 20
9214.736797361609
 30
0.0
 11
6641.579581418174
 21
9211.236797361609
 31
0.0
  0
LINE
  5
18754
330
747D
100
AcDbEntity
  8
部品1
 62
     2
 48
50.0
100
AcDbLine
 10
6650.829581418171
 20
9214.736797361609
 30
0.0
 11
6655.829581418172
 21
9214.736797361609
 31
0.0
  0
LINE
  5
18755
330
747D
100
AcDbEntity
  8
部品1
 62
     2
 48
50.0
100
AcDbLine
 10
6655.829581418172
 20
9214.736797361609
 30
0.0
 11
6655.829581418172
 21
9211.736797361609
 31
0.0
  0
LINE
  5
18756
330
747D
100
AcDbEntity
  8
部品1
 62
     2
 48
50.0
100
AcDbLine
 10
6655.829581418172
 20
9211.736797361609
 30
0.0
 11
6670.829581418171
 21
9211.736797361609
 31
0.0
  0
LINE
  5
18757
330
747D
100
AcDbEntity
  8
部品1
 62
     2
 48
50.0
100
AcDbLine
 10
6670.829581418171
 20
9214.736797361609
 30
0.0
 11
6670.829581418171
 21
9211.736797361609
 31
0.0
  0
LINE
  5
18758
330
747D
100
AcDbEntity
  8
部品1
 62
     2
 48
50.0
100
AcDbLine
 10
6635.829581418171
 20
9200.73679736161
 30
0.0
 11
6650.829581418171
 21
9200.73679736161
 31
0.0
  0
LINE
  5
18759
330
747D
100
AcDbEntity
  8
部品1
 62
     2
 48
50.0
100
AcDbLine
 10
6650.829581418171
 20
9200.73679736161
 30
0.0
 11
6650.829581418171
 21
9214.736797361609
 31
0.0
  0
LINE
  5
1875A
330
747D
100
AcDbEntity
  8
部品1
 62
     2
 48
50.0
100
AcDbLine
 10
6681.579581418173
 20
9214.736797361609
 30
0.0
 11
6685.079581418174
 21
9211.236797361609
 31
0.0
  0
LINE
  5
1875B
330
747D
100
AcDbEntity
  8
部品1
 62
     2
 48
50.0
100
AcDbLine
 10
6690.829581418171
 20
9200.73679736161
 30
0.0
 11
6675.82958141817
 21
9200.73679736161
 31
0.0
  0
LINE
  5
1875C
330
747D
100
AcDbEntity
  8
部品1
 62
     2
 48
50.0
100
AcDbLine
 10
6675.82958141817
 20
9200.73679736161
 30
0.0
 11
6675.82958141817
 21
9214.736797361609
 31
0.0
  0
LINE
  5
1875D
330
747D
100
AcDbEntity
  8
部品1
 62
     2
 48
50.0
100
AcDbLine
 10
7195.329581418173
 20
9234.73679736197
 30
0.0
 11
7210.329581418173
 21
9234.73679736197
 31
0.0
  0
LINE
  5
1875E
330
747D
100
AcDbEntity
  8
部品1
 62
     2
 48
50.0
100
AcDbLine
 10
7210.329581418173
 20
9234.73679736197
 30
0.0
 11
7215.329581418173
 21
9262.73679736197
 31
0.0
  0
LINE
  5
1875F
330
747D
100
AcDbEntity
  8
部品1
 62
     2
 48
50.0
100
AcDbLine
 10
7215.329581418173
 20
9262.73679736197
 30
0.0
 11
7240.329581418173
 21
9262.73679736197
 31
0.0
  0
LINE
  5
18760
330
747D
100
AcDbEntity
  8
部品1
 62
     2
 48
50.0
100
AcDbLine
 10
7260.329581418173
 20
9234.73679736197
 30
0.0
 11
7245.329581418173
 21
9234.73679736197
 31
0.0
  0
LINE
  5
18761
330
747D
100
AcDbEntity
  8
部品1
 62
     2
 48
50.0
100
AcDbLine
 10
7245.329581418173
 20
9234.73679736197
 30
0.0
 11
7240.329581418173
 21
9262.73679736197
 31
0.0
  0
LINE
  5
18764
330
747D
100
AcDbEntity
  8
部品1
 62
     2
 48
50.0
100
AcDbLine
 10
6387.829581418171
 20
9221.736797361609
 30
0.0
 11
6387.829581418171
 21
9213.73679736161
 31
0.0
  0
LINE
  5
18766
330
747D
100
AcDbEntity
  8
部品1
 62
     2
 48
50.0
100
AcDbLine
 10
6938.829581418173
 20
9221.736797361609
 30
0.0
 11
6938.829581418173
 21
9213.73679736161
 31
0.0
  0
LINE
  5
18768
330
747D
100
AcDbEntity
  8
部品1
 62
     2
 48
50.0
100
AcDbLine
 10
6962.829581418175
 20
9263.736797361795
 30
0.0
 11
6962.829581418175
 21
9259.236797361795
 31
0.0
  0
LINE
  5
1876A
330
747D
100
AcDbEntity
  8
部品1
 62
     2
 48
50.0
100
AcDbLine
 10
7495.32958141817
 20
9263.736797361792
 30
0.0
 11
7495.32958141817
 21
9259.236797361792
 31
0.0
  0
DIMENSION
  5
18778
330
747D
100
AcDbEntity
  8
寸法
 48
50.0
100
AcDbDimension
  2
*D21
 10
6892.829581418173
 20
8532.273498070642
 30
0.0
 11
6347.829581418173
 21
8757.273498070642
 31
0.0
 12
290.0
 22
0.0
 32
0.0
 70
    32
  1
有効開口部間口\P<>
 71
     5
 42
-1.0
  3
INABA_S50G
100
AcDbAlignedDimension
 13
5802.829581418173
 23
9160.736797361609
 33
0.0
 14
6892.829581418173
 24
9160.736797361609
 34
0.0
100
AcDbRotatedDimension
  0
LINE
  5
18D7B
330
747D
100
AcDbEntity
  8
部品1
 48
50.0
100
AcDbLine
 10
6112.829581418173
 20
3275.0
 30
0.0
 11
6112.829581418173
 21
3140.0
 31
0.0
  0
LINE
  5
18D7C
330
747D
100
AcDbEntity
  8
部品1
 48
50.0
100
AcDbLine
 10
8352.829581418173
 20
3275.0
 30
0.0
 11
8352.829581418173
 21
3140.0
 31
0.0
  0
LINE
  5
18D8B
330
747D
100
AcDbEntity
  8
細線
100
AcDbLine
 10
8792.329581418174
 20
5694.500002624811
 30
0.0
 11
5675.429712967132
 21
5694.500002624818
 31
0.0
  0
LINE
  5
18D8C
330
747D
100
AcDbEntity
  8
部品1
100
AcDbLine
 10
8778.397416958698
 20
5715.000000008445
 30
0.0
 11
5687.26174179908
 21
5715.000000008467
 31
0.0
  0
LINE
  5
18D8D
330
747D
100
AcDbEntity
  8
細線
100
AcDbLine
 10
8801.324725755609
 20
5601.045828186498
 30
0.0
 11
5664.334432710912
 21
5601.045828186505
 31
0.0
  0
LINE
  5
18D8E
330
747D
100
AcDbEntity
  8
部品1
100
AcDbLine
 10
8783.513641876281
 20
5580.000001569558
 30
0.0
 11
5682.145516590237
 21
5580.000001569568
 31
0.0
  0
ARC
  5
18D8F
330
747D
100
AcDbEntity
  8
部品1
100
AcDbCircle
 10
5687.261984657893
 20
5711.500000016894
 30
0.0
 40
3.5
100
AcDbArc
 50
90.0
 51
157.4999956391549
  0
ARC
  5
18D90
330
747D
100
AcDbEntity
  8
部品1
100
AcDbCircle
 10
5675.429712967132
 20
5696.000002624811
 30
0.0
 40
1.5
100
AcDbArc
 50
270.0000000000002
 51
337.4999956391484
  0
LINE
  5
18D91
330
747D
100
AcDbEntity
  8
部品1
100
AcDbLine
 10
5676.815532222208
 20
5695.425977370788
 30
0.0
 11
5684.028406396046
 21
5712.839392276281
 31
0.0
  0
ARC
  5
18D92
330
747D
100
AcDbEntity
  8
部品1
100
AcDbCircle
 10
5673.329577048345
 20
5679.000002624809
 30
0.0
 40
15.5
100
AcDbArc
 50
90.00000000000033
 51
183.979378091838
  0
LINE
  5
18D93
330
747D
100
AcDbEntity
  8
部品1
 48
50.0
100
AcDbLine
 10
5673.329577048345
 20
5694.500002624809
 30
0.0
 11
5675.429712967132
 21
5694.500002624818
 31
0.0
  0
ARC
  5
18D94
330
747D
100
AcDbEntity
  8
部品1
100
AcDbCircle
 10
5682.145516590237
 20
5595.50000156956
 30
0.0
 40
15.5
100
AcDbArc
 50
183.9793780918396
 51
270.0
  0
LINE
  5
18D95
330
747D
100
AcDbEntity
  8
部品1
100
AcDbLine
 10
5666.382226446123
 20
5598.746322390583
 30
0.0
 11
5666.68288565789
 21
5594.424341469881
 31
0.0
  0
ARC
  5
18D96
330
747D
100
AcDbEntity
  8
部品1
100
AcDbCircle
 10
5663.8882537151
 20
5598.572828826121
 30
0.0
 40
2.5
100
AcDbArc
 50
3.979378091802891
 51
83.07390809407314
  0
ARC
  5
18D97
330
747D
100
AcDbEntity
  8
部品1
100
AcDbCircle
 10
5664.334432710912
 20
5602.245828186495
 30
0.0
 40
1.199999999999999
100
AcDbArc
 50
183.979378091838
 51
270.0000000000002
  0
LINE
  5
18D98
330
747D
100
AcDbEntity
  8
部品1
100
AcDbLine
 10
5657.866946115999
 20
5677.92434252513
 30
0.0
 11
5663.13732580002
 21
5602.162551275553
 31
0.0
  0
LINE
  5
18D99
330
747D
100
AcDbEntity
  8
細線
 48
50.0
100
AcDbLine
 10
5695.829581709429
 20
5580.000001569558
 30
0.0
 11
5695.829581709429
 21
5715.0
 31
0.0
  0
LINE
  5
18D9A
330
747D
100
AcDbEntity
  8
部品1
100
AcDbLine
 10
8788.843626244313
 20
5695.425977370788
 30
0.0
 11
8781.630752070475
 21
5712.839392276281
 31
0.0
  0
ARC
  5
18D9B
330
747D
100
AcDbEntity
  8
部品1
100
AcDbCircle
 10
8778.397173808627
 20
5711.500000016894
 30
0.0
 40
3.5
100
AcDbArc
 50
22.50000436084501
 51
90.0
  0
ARC
  5
18D9C
330
747D
100
AcDbEntity
  8
部品1
100
AcDbCircle
 10
8790.229445499388
 20
5696.000002624811
 30
0.0
 40
1.5
100
AcDbArc
 50
202.5000043608516
 51
269.9999999999997
  0
ARC
  5
18D9D
330
747D
100
AcDbEntity
  8
部品1
100
AcDbCircle
 10
8792.329581418174
 20
5679.000002624809
 30
0.0
 40
15.5
100
AcDbArc
 50
356.0206219081619
 51
89.99999999999968
  0
LINE
  5
18D9E
330
747D
100
AcDbEntity
  8
部品1
100
AcDbLine
 10
8799.276932020395
 20
5598.746322390583
 30
0.0
 11
8798.97627280863
 21
5594.424341469881
 31
0.0
  0
ARC
  5
18D9F
330
747D
100
AcDbEntity
  8
部品1
100
AcDbCircle
 10
8783.513641876281
 20
5595.50000156956
 30
0.0
 40
15.5
100
AcDbArc
 50
270.0
 51
356.0206219081603
  0
ARC
  5
18DA0
330
747D
100
AcDbEntity
  8
部品1
100
AcDbCircle
 10
8801.324725755609
 20
5602.245828186495
 30
0.0
 40
1.199999999999999
100
AcDbArc
 50
269.9999999999997
 51
356.0206219081619
  0
ARC
  5
18DA1
330
747D
100
AcDbEntity
  8
部品1
100
AcDbCircle
 10
8801.770904751419
 20
5598.572828826121
 30
0.0
 40
2.5
100
AcDbArc
 50
96.92609190592689
 51
176.0206219081971
  0
LINE
  5
18DA2
330
747D
100
AcDbEntity
  8
部品1
100
AcDbLine
 10
8807.792212350522
 20
5677.92434252513
 30
0.0
 11
8802.521832666499
 21
5602.162551275553
 31
0.0
  0
LINE
  5
18DA3
330
747D
100
AcDbEntity
  8
細線
 48
50.0
100
AcDbLine
 10
8769.829577048346
 20
5580.000001569558
 30
0.0
 11
8769.829577048346
 21
5715.0
 31
0.0
  0
LINE
  5
18E5B
330
747D
100
AcDbEntity
  8
細線
 48
50.0
100
AcDbLine
 10
6788.829581418173
 20
5575.500036981837
 30
0.0
 11
6516.829581418173
 21
5575.500036981837
 31
0.0
  0
LINE
  5
18E5C
330
747D
100
AcDbEntity
  8
細線
 48
50.0
100
AcDbLine
 10
7948.829581418173
 20
5575.500036981837
 30
0.0
 11
7676.829581418172
 21
5575.500036981837
 31
0.0
  0
LINE
  5
190DF
330
747D
100
AcDbEntity
  8
部品1
 48
50.0
100
AcDbLine
 10
7332.829581418173
 20
3275.0
 30
0.0
 11
7332.829581418173
 21
3140.0
 31
0.0
  0
LINE
  5
190E0
330
747D
100
AcDbEntity
  8
部品1
 48
50.0
100
AcDbLine
 10
7132.829581418173
 20
3275.0
 30
0.0
 11
7132.829581418173
 21
3140.0
 31
0.0
  0
LINE
  5
190E4
330
747D
100
AcDbEntity
  8
部品1
 48
50.0
100
AcDbLine
 10
6272.829581418172
 20
3275.0
 30
0.0
 11
6272.829581418172
 21
3140.0
 31
0.0
  0
LINE
  5
190E5
330
747D
100
AcDbEntity
  8
部品1
 48
50.0
100
AcDbLine
 10
6672.829581418172
 20
3275.0
 30
0.0
 11
6672.829581418172
 21
3140.0
 31
0.0
  0
LINE
  5
1910C
330
747D
100
AcDbEntity
  8
破線
 48
5.0
100
AcDbLine
 10
8852.829581418173
 20
3140.0
 30
0.0
 11
8852.829581418173
 21
2939.999999999999
 31
0.0
  0
LINE
  5
1910D
330
747D
100
AcDbEntity
  8
破線
 48
5.0
100
AcDbLine
 10
8652.829581418172
 20
3140.0
 30
0.0
 11
8652.829581418172
 21
2939.999999999999
 31
0.0
  0
LINE
  5
1910E
330
747D
100
AcDbEntity
  8
破線
 48
5.0
100
AcDbLine
 10
8757.829581418173
 20
3140.0
 30
0.0
 11
8757.829581418173
 21
3030.0
 31
0.0
  0
DIMENSION
  5
1910F
330
747D
100
AcDbEntity
  8
寸法
 48
50.0
100
AcDbDimension
  2
*D22
 10
8652.829581418172
 20
2612.358857715331
 30
0.0
 11
8365.865998741005
 21
2612.358857715331
 31
0.0
 12
-360.0
 22
340.0
 32
0.0
 70
   160
 71
     5
 42
-1.0
  3
INABA_S50G
100
AcDbAlignedDimension
 13
8852.829581418173
 23
2939.999999999999
 33
0.0
 14
8652.829581418172
 24
2939.999999999999
 34
0.0
100
AcDbRotatedDimension
  0
LINE
  5
19110
330
747D
100
AcDbEntity
  8
破線
 48
5.0
100
AcDbLine
 10
8852.829581418173
 20
2939.999999999999
 30
0.0
 11
8652.829581418172
 21
2939.999999999999
 31
0.0
  0
LINE
  5
19111
330
747D
100
AcDbEntity
  8
破線
 48
5.0
100
AcDbLine
 10
8777.829581418172
 20
3030.0
 30
0.0
 11
8757.829581418171
 21
3030.0
 31
0.0
  0
LINE
  5
19112
330
747D
100
AcDbEntity
  8
部品1
100
AcDbLine
 10
8757.829581418173
 20
3314.999999999999
 30
0.0
 11
8757.829581418173
 21
3140.0
 31
0.0
  0
LINE
  5
19122
330
747D
100
AcDbEntity
  8
破線
 48
5.0
100
AcDbLine
 10
5707.829581418175
 20
3140.0
 30
0.0
 11
5707.829581418175
 21
3030.0
 31
0.0
  0
LINE
  5
19123
330
747D
100
AcDbEntity
  8
破線
 48
5.0
100
AcDbLine
 10
5812.829581418174
 20
3140.0
 30
0.0
 11
5812.829581418174
 21
2939.999999999999
 31
0.0
  0
LINE
  5
19124
330
747D
100
AcDbEntity
  8
破線
 48
5.0
100
AcDbLine
 10
5612.829581418175
 20
3140.0
 30
0.0
 11
5612.829581418175
 21
2939.999999999999
 31
0.0
  0
LINE
  5
19125
330
747D
100
AcDbEntity
  8
破線
 48
5.0
100
AcDbLine
 10
5687.829581418174
 20
3030.0
 30
0.0
 11
5707.829581418176
 21
3030.0
 31
0.0
  0
LINE
  5
19126
330
747D
100
AcDbEntity
  8
破線
 48
5.0
100
AcDbLine
 10
5612.829581418175
 20
2939.999999999999
 30
0.0
 11
5812.829581418177
 21
2939.999999999999
 31
0.0
  0
LINE
  5
19127
330
747D
100
AcDbEntity
  8
部品1
100
AcDbLine
 10
5707.829581418175
 20
3314.999999999999
 30
0.0
 11
5707.829581418175
 21
3140.0
 31
0.0
  0
LINE
  5
1928A
330
747D
100
AcDbEntity
  8
部品1
 62
     2
 48
50.0
100
AcDbLine
 10
5776.829581418173
 20
5187.0
 30
0.0
 11
5776.829581418172
 21
3275.0
 31
0.0
  0
LINE
  5
1928B
330
747D
100
AcDbEntity
  8
部品1
 62
     2
 48
50.0
100
AcDbLine
 10
7528.829581418174
 20
5187.0
 30
0.0
 11
7528.829581418174
 21
3275.0
 31
0.0
  0
LINE
  5
1928C
330
747D
100
AcDbEntity
  8
部品1
 62
     2
 48
50.0
100
AcDbLine
 10
7528.829581418174
 20
5187.0
 30
0.0
 11
5776.829581418173
 21
5187.0
 31
0.0
  0
LINE
  5
1929C
330
747D
100
AcDbEntity
  8
部品1
 62
     2
 48
50.0
100
AcDbLine
 10
5792.829581418172
 20
3323.999999999999
 30
0.0
 11
7512.829581418174
 21
3323.999999999999
 31
0.0
  0
LINE
  5
1929D
330
747D
100
AcDbEntity
  8
部品1
 62
     2
 48
50.0
100
AcDbLine
 10
7528.829581418174
 20
5149.5
 30
0.0
 11
5776.829581418173
 21
5149.5
 31
0.0
  0
LINE
  5
1929E
330
747D
100
AcDbEntity
  8
部品1
 62
     2
 48
50.0
100
AcDbLine
 10
5800.829581418173
 20
5149.5
 30
0.0
 11
5800.829581418171
 21
3323.999999999999
 31
0.0
  0
LINE
  5
1929F
330
747D
100
AcDbEntity
  8
部品1
 62
     2
 48
50.0
100
AcDbLine
 10
7504.829581418173
 20
5149.5
 30
0.0
 11
7504.829581418173
 21
3323.999999999999
 31
0.0
  0
LINE
  5
192A1
330
747D
100
AcDbEntity
  8
部品1
 62
     2
 48
50.0
100
AcDbLine
 10
5792.829581418172
 20
3323.999999999999
 30
0.0
 11
5792.829581418172
 21
3275.0
 31
0.0
  0
LINE
  5
192A2
330
747D
100
AcDbEntity
  8
部品1
 62
     2
 48
50.0
100
AcDbLine
 10
7512.829581418174
 20
3323.999999999999
 30
0.0
 11
7512.829581418173
 21
3275.0
 31
0.0
  0
LINE
  5
192A4
330
747D
100
AcDbEntity
  8
部品1
 62
     2
 48
50.0
100
AcDbLine
 10
5800.829581418171
 20
3326.0
 30
0.0
 11
6387.829581418174
 21
3326.0
 31
0.0
  0
LINE
  5
192A5
330
747D
100
AcDbEntity
  8
部品1
 62
     2
 48
50.0
100
AcDbLine
 10
6387.829581418174
 20
3333.0
 30
0.0
 11
7486.329581418172
 21
3332.999999999999
 31
0.0
  0
LINE
  5
192A7
330
747D
100
AcDbEntity
  8
部品1
 62
     2
 48
50.0
100
AcDbLine
 10
6387.829581418174
 20
5149.5
 30
0.0
 11
6387.829581418174
 21
3326.0
 31
0.0
  0
LINE
  5
192A9
330
747D
100
AcDbEntity
  8
部品1
 62
     2
 48
50.0
100
AcDbLine
 10
6960.329581418173
 20
5149.5
 30
0.0
 11
6960.329581418172
 21
3333.0
 31
0.0
  0
CIRCLE
  5
192DC
330
747D
100
AcDbEntity
  8
部品1
 62
     2
 48
50.0
100
AcDbCircle
 10
5834.329581418172
 20
4187.0
 30
0.0
 40
17.0
  0
ARC
  5
192DD
330
747D
100
AcDbEntity
  8
部品1
 62
     2
 48
50.0
100
AcDbCircle
 10
6217.329581418172
 20
4187.0
 30
0.0
 40
405.0
100
AcDbArc
 50
170.0163680567114
 51
189.9836319432886
  0
LINE
  5
192DE
330
747D
100
AcDbEntity
  8
部品1
 62
     2
 48
50.0
100
AcDbLine
 10
5855.329581418172
 20
4251.0
 30
0.0
 11
5855.329581418172
 21
4123.0
 31
0.0
  0
ARC
  5
192DF
330
747D
100
AcDbEntity
  8
部品1
 62
     2
 48
50.0
100
AcDbCircle
 10
1894.329581418172
 20
4187.0
 30
0.0
 40
3991.0
100
AcDbArc
 50
359.0804695823139
 51
0.9195304176861213
  0
ARC
  5
192E0
330
747D
100
AcDbEntity
  8
部品1
 62
     2
 48
50.0
100
AcDbCircle
 10
1894.329581418172
 20
4187.0
 30
0.0
 40
4000.0
100
AcDbArc
 50
359.0098658739685
 51
0.9901341260314108
  0
LINE
  5
192E1
330
747D
100
AcDbEntity
  8
部品1
 62
     2
 48
50.0
100
AcDbLine
 10
5886.733368612047
 20
4111.0
 30
0.0
 11
5825.356368047668
 21
4111.0
 31
0.0
  0
LINE
  5
192E2
330
747D
100
AcDbEntity
  8
部品1
 62
     2
 48
50.0
100
AcDbLine
 10
5840.329581418171
 20
4124.0
 30
0.0
 11
5840.329581418171
 21
4158.0
 31
0.0
  0
LINE
  5
192E3
330
747D
100
AcDbEntity
  8
部品1
 62
     2
 48
50.0
100
AcDbLine
 10
5828.329581418172
 20
4124.0
 30
0.0
 11
5828.329581418175
 21
4158.0
 31
0.0
  0
ARC
  5
192E4
330
747D
100
AcDbEntity
  8
部品1
 62
     2
 48
50.0
100
AcDbCircle
 10
5825.356368047668
 20
4118.0
 30
0.0
 40
7.0
100
AcDbArc
 50
189.983631943288
 51
270.0
  0
ARC
  5
192E5
330
747D
100
AcDbEntity
  8
部品1
 62
     2
 48
50.0
100
AcDbCircle
 10
5837.329581418172
 20
4124.0
 30
0.0
 40
3.0
100
AcDbArc
 50
270.0
 51
0.0
  0
ARC
  5
192E6
330
747D
100
AcDbEntity
  8
部品1
 62
     2
 48
50.0
100
AcDbCircle
 10
5831.329581418172
 20
4124.0
 30
0.0
 40
3.0
100
AcDbArc
 50
179.9999999999971
 51
270.0
  0
LINE
  5
192E7
330
747D
100
AcDbEntity
  8
部品1
 62
     2
 48
50.0
100
AcDbLine
 10
5837.329581418172
 20
4121.0
 30
0.0
 11
5831.329581418172
 21
4121.0
 31
0.0
  0
ARC
  5
192E8
330
747D
100
AcDbEntity
  8
部品1
 62
     2
 48
50.0
100
AcDbCircle
 10
5831.329581418176
 20
4158.0
 30
0.0
 40
3.0
100
AcDbArc
 50
90.0
 51
179.9999999999974
  0
ARC
  5
192E9
330
747D
100
AcDbEntity
  8
部品1
 62
     2
 48
50.0
100
AcDbCircle
 10
5837.329581418172
 20
4158.0
 30
0.0
 40
3.0
100
AcDbArc
 50
0.0
 51
90.0
  0
LINE
  5
192EA
330
747D
100
AcDbEntity
  8
部品1
 62
     2
 48
50.0
100
AcDbLine
 10
5837.329581418172
 20
4161.0
 30
0.0
 11
5831.329581418176
 21
4161.0
 31
0.0
  0
ARC
  5
192EB
330
747D
100
AcDbEntity
  8
部品1
 62
     2
 48
50.0
100
AcDbCircle
 10
5881.816007727359
 20
4123.000000000001
 30
0.0
 40
3.0
100
AcDbArc
 50
270.0
 51
359.0804695823297
  0
ARC
  5
192EC
330
747D
100
AcDbEntity
  8
部品1
 62
     2
 48
50.0
100
AcDbCircle
 10
5858.329581418172
 20
4123.0
 30
0.0
 40
3.0
100
AcDbArc
 50
179.9999999999996
 51
270.0000000000035
  0
LINE
  5
192ED
330
747D
100
AcDbEntity
  8
部品1
 62
     2
 48
50.0
100
AcDbLine
 10
5858.329581418172
 20
4120.0
 30
0.0
 11
5881.816007727359
 21
4120.000000000001
 31
0.0
  0
ARC
  5
192EE
330
747D
100
AcDbEntity
  8
部品1
 62
     2
 48
50.0
100
AcDbCircle
 10
5886.733368612047
 20
4118.0
 30
0.0
 40
7.0
100
AcDbArc
 50
270.0
 51
359.009865873969
  0
LINE
  5
192EF
330
747D
100
AcDbEntity
  8
部品1
 62
     2
 48
50.0
100
AcDbLine
 10
5886.733368612047
 20
4263.0
 30
0.0
 11
5825.356368047668
 21
4263.0
 31
0.0
  0
ARC
  5
192F0
330
747D
100
AcDbEntity
  8
部品1
 62
     2
 48
50.0
100
AcDbCircle
 10
5825.356368047668
 20
4256.0
 30
0.0
 40
7.0
100
AcDbArc
 50
90.0
 51
170.0163680567111
  0
ARC
  5
192F1
330
747D
100
AcDbEntity
  8
部品1
 62
     2
 48
50.0
100
AcDbCircle
 10
5837.329581418172
 20
4216.0
 30
0.0
 40
3.0
100
AcDbArc
 50
270.0
 51
0.0
  0
LINE
  5
192F2
330
747D
100
AcDbEntity
  8
部品1
 62
     2
 48
50.0
100
AcDbLine
 10
5837.329581418172
 20
4213.0
 30
0.0
 11
5831.329581418176
 21
4213.0
 31
0.0
  0
ARC
  5
192F3
330
747D
100
AcDbEntity
  8
部品1
 62
     2
 48
50.0
100
AcDbCircle
 10
5831.329581418176
 20
4216.0
 30
0.0
 40
3.0
100
AcDbArc
 50
180.0000000000025
 51
270.0
  0
LINE
  5
192F4
330
747D
100
AcDbEntity
  8
部品1
 62
     2
 48
50.0
100
AcDbLine
 10
5828.329581418172
 20
4250.0
 30
0.0
 11
5828.329581418175
 21
4216.0
 31
0.0
  0
ARC
  5
192F5
330
747D
100
AcDbEntity
  8
部品1
 62
     2
 48
50.0
100
AcDbCircle
 10
5831.329581418172
 20
4250.0
 30
0.0
 40
3.0
100
AcDbArc
 50
90.00000000000003
 51
180.0000000000027
  0
LINE
  5
192F6
330
747D
100
AcDbEntity
  8
部品1
 62
     2
 48
50.0
100
AcDbLine
 10
5837.329581418172
 20
4253.000000000002
 30
0.0
 11
5831.329581418172
 21
4253.0
 31
0.0
  0
LINE
  5
192F7
330
747D
100
AcDbEntity
  8
部品1
 62
     2
 48
50.0
100
AcDbLine
 10
5840.329581418171
 20
4250.000000000002
 30
0.0
 11
5840.329581418171
 21
4216.0
 31
0.0
  0
ARC
  5
192F8
330
747D
100
AcDbEntity
  8
部品1
 62
     2
 48
50.0
100
AcDbCircle
 10
5837.329581418172
 20
4250.000000000002
 30
0.0
 40
3.0
100
AcDbArc
 50
0.0
 51
90.00000000000003
  0
ARC
  5
192F9
330
747D
100
AcDbEntity
  8
部品1
 62
     2
 48
50.0
100
AcDbCircle
 10
5858.329581418172
 20
4251.0
 30
0.0
 40
3.0
100
AcDbArc
 50
90.0
 51
179.9999999999992
  0
ARC
  5
192FA
330
747D
100
AcDbEntity
  8
部品1
 62
     2
 48
50.0
100
AcDbCircle
 10
5881.816007727359
 20
4251.0
 30
0.0
 40
3.0
100
AcDbArc
 50
0.9195304176876355
 51
90.0
  0
LINE
  5
192FB
330
747D
100
AcDbEntity
  8
部品1
 62
     2
 48
50.0
100
AcDbLine
 10
5858.329581418172
 20
4254.0
 30
0.0
 11
5881.816007727359
 21
4254.0
 31
0.0
  0
ARC
  5
192FC
330
747D
100
AcDbEntity
  8
部品1
 62
     2
 48
50.0
100
AcDbCircle
 10
5886.733368612047
 20
4256.0
 30
0.0
 40
7.0
100
AcDbArc
 50
0.9901341260309951
 51
90.0
  0
LINE
  5
192FF
330
747D
100
AcDbEntity
  8
部品1
 62
     2
 48
50.0
100
AcDbLine
 10
7486.329581418172
 20
3332.999999999999
 30
0.0
 11
7492.329581418172
 21
3323.999999999999
 31
0.0
  0
DIMENSION
  5
1A2E5
330
747D
100
AcDbEntity
  8
寸法
 48
50.0
100
AcDbDimension
  2
*D23
 10
4946.198601638503
 20
9160.736797361609
 30
0.0
 11
4946.198601638503
 21
8923.748608385231
 31
0.0
 12
870.0
 22
0.0
 32
0.0
 70
   160
 71
     5
 42
-1.0
  3
INABA_S50G
100
AcDbAlignedDimension
 13
5722.829581418171
 23
9228.736797361971
 33
0.0
 14
5776.829581418173
 24
9160.736797361609
 34
0.0
 50
90.0
100
AcDbRotatedDimension
  0
LINE
  5
1A39A
330
747D
100
AcDbEntity
  8
部品1
 62
     2
 48
50.0
100
AcDbLine
 10
6960.329581418173
 20
9212.736797361609
 30
0.0
 11
6675.82958141817
 21
9212.736797361609
 31
0.0
  0
LINE
  5
1A39B
330
747D
100
AcDbEntity
  8
部品1
 62
     2
 48
50.0
100
AcDbLine
 10
6650.829581418171
 20
9212.736797361609
 30
0.0
 11
6366.329581418173
 21
9212.736797361609
 31
0.0
  0
DIMENSION
  5
1A66D
330
747D
100
AcDbEntity
  8
寸法
 48
50.0
100
AcDbDimension
  2
*D24
 10
15569.66471641205
 20
3140.0
 30
0.0
 11
15569.66471641205
 21
2653.036417322836
 31
0.0
 12
1376.519969230816
 22
7973.157382449198
 32
0.0
 70
   160
 71
     5
 42
-1.0
  3
INABA_S50G
100
AcDbAlignedDimension
 13
15171.32958141817
 23
2940.000000000002
 33
0.0
 14
15171.32958141817
 24
3140.0
 34
0.0
 50
90.0
100
AcDbRotatedDimension
  0
DIMENSION
  5
1A66E
330
747D
100
AcDbEntity
  8
寸法
 48
50.0
100
AcDbDimension
  2
*D25
 10
14971.32958141817
 20
2653.952670699625
 30
0.0
 11
14684.365998741
 21
2653.952670699625
 31
0.0
 12
1376.519969230816
 22
7973.157382449198
 32
0.0
 70
   160
 71
     5
 42
-1.0
  3
INABA_S50G
100
AcDbAlignedDimension
 13
15171.32958141817
 23
2940.000000000002
 33
0.0
 14
14971.32958141817
 24
2940.000000000002
 34
0.0
100
AcDbRotatedDimension
  0
LINE
  5
1A674
330
747D
100
AcDbEntity
  8
部品1
 48
50.0
100
AcDbLine
 10
12715.32958141817
 20
3275.0
 30
0.0
 11
15050.32958141817
 21
3275.0
 31
0.0
  0
LINE
  5
1A675
330
747D
100
AcDbEntity
  8
細線
 48
50.0
100
AcDbLine
 10
15198.38919924369
 20
5550.746404000587
 30
0.0
 11
12521.46376912036
 21
5602.315572311724
 31
0.0
  0
LINE
  5
1A676
330
747D
100
AcDbEntity
  8
部品1
 48
50.0
100
AcDbLine
 10
15180.11846310263
 20
5530.921243435219
 30
0.0
 11
12538.8404644795
 21
5582.16034061977
 31
0.0
  0
LINE
  5
1A677
330
747D
100
AcDbEntity
  8
細線
 48
50.0
100
AcDbLine
 10
15189.73767084558
 20
5646.025833613869
 30
0.0
 11
12536.02062901199
 21
5696.929326860823
 31
0.0
  0
LINE
  5
1A678
330
747D
100
AcDbEntity
  8
部品1
 48
50.0
100
AcDbLine
 10
12547.34578971423
 20
5714.466629415621
 30
0.0
 11
15182.50261261331
 21
5656.367362182472
 31
0.0
  0
DIMENSION
  5
1A679
330
747D
100
AcDbEntity
  8
寸法
 48
50.0
100
AcDbDimension
  2
*D26
 10
15207.82958141817
 20
6676.068854554545
 30
0.0
 11
14442.82958141817
 21
6776.083618334073
 31
0.0
 12
1376.519969230816
 22
7973.157382449198
 32
0.0
 70
    32
 71
     5
 42
-1.0
  3
INABA_S50G
100
AcDbAlignedDimension
 13
12517.82958141817
 23
5715.0
 33
0.0
 14
15207.82958141817
 24
5655.0
 34
0.0
100
AcDbRotatedDimension
  0
DIMENSION
  5
1A67A
330
747D
100
AcDbEntity
  8
寸法
 48
50.0
100
AcDbDimension
  2
*D27
 10
15112.82958141817
 20
6408.281130716521
 30
0.0
 11
13882.82958141817
 21
6508.295894496048
 31
0.0
 70
    32
  1
柱外寸法 <>
 71
     5
 42
-1.0
  3
INABA_S50G
100
AcDbAlignedDimension
 13
12652.82958141817
 23
5712.140949611779
 33
0.0
 14
15112.82958141817
 24
5657.903495449068
 34
0.0
100
AcDbRotatedDimension
1001
ACAD
1000
DSTYLE
1002
{
1070
   287
1070
     4
1070
    75
1070
     1
1070
   279
1070
     1
1002
}
  0
LINE
  5
1A67B
330
747D
100
AcDbEntity
  8
部品1
 48
50.0
100
AcDbLine
 10
12652.82958141817
 20
5445.0
 30
0.0
 11
15112.82958141817
 21
5445.0
 31
0.0
  0
LINE
  5
1A67C
330
747D
100
AcDbEntity
  8
部品1
 48
50.0
100
AcDbLine
 10
12722.82958141817
 20
3330.0
 30
0.0
 11
15042.82958141817
 21
3330.0
 31
0.0
  0
DIMENSION
  5
1A67D
330
747D
100
AcDbEntity
  8
寸法
 48
50.0
100
AcDbDimension
  2
*D28
 10
12238.94130116352
 20
5150.5
 30
0.0
 11
12718.94130116352
 21
4251.5
 31
0.0
 12
1376.519969230816
 22
7973.157382449198
 32
0.0
 70
    32
  1
有効開口部高サ <>
 71
     5
 42
-1.0
  3
INABA_S50G
100
AcDbAlignedDimension
 13
12584.82958141817
 23
3352.5
 33
0.0
 14
12584.82958141817
 24
5150.5
 34
0.0
 50
90.0
100
AcDbRotatedDimension
  0
DIMENSION
  5
1A67E
330
747D
100
AcDbEntity
  8
寸法
 48
50.0
100
AcDbDimension
  2
*D29
 10
11926.70986552558
 20
5445.0
 30
0.0
 11
11826.69510174605
 21
4387.500000000001
 31
0.0
 70
    32
 71
     5
 42
-1.0
  3
INABA_S50G
100
AcDbAlignedDimension
 13
12584.82958141817
 23
3330.0
 33
0.0
 14
12652.82958141817
 24
5445.0
 34
0.0
 50
90.0
100
AcDbRotatedDimension
1001
ACAD
1000
DSTYLE
1002
{
1070
   287
1070
     4
1070
    75
1070
     1
1070
   279
1070
     1
1002
}
  0
LINE
  5
1A67F
330
747D
100
AcDbEntity
  8
部品1
 62
     2
 48
50.0
100
AcDbLine
 10
12584.82958141817
 20
3275.0
 30
0.0
 11
12584.82958141817
 21
5180.0
 31
0.0
  0
LINE
  5
1A680
330
747D
100
AcDbEntity
  8
部品1
 48
50.0
100
AcDbLine
 10
12652.82958141817
 20
5579.949024944614
 30
0.0
 11
12652.82958141817
 21
3140.0
 31
0.0
  0
DIMENSION
  5
1A681
330
747D
100
AcDbEntity
  8
寸法
 48
50.0
100
AcDbDimension
  2
*D30
 10
11618.66366111978
 20
3275.0
 30
0.0
 11
12098.64889734025
 21
4495.0
 31
0.0
 12
1376.519969230816
 22
7973.157382449198
 32
0.0
 70
    32
 71
     5
 42
-1.0
  3
INABA_S50G
100
AcDbAlignedDimension
 13
12517.82958141817
 23
5715.0
 33
0.0
 14
12584.82958141817
 24
3275.0
 34
0.0
 50
90.0
100
AcDbRotatedDimension
  0
LINE
  5
1A682
330
747D
100
AcDbEntity
  8
部品1
 48
50.0
100
AcDbLine
 10
12722.82958141817
 20
5445.0
 30
0.0
 11
12722.82958141817
 21
3275.0
 31
0.0
  0
DIMENSION
  5
1A683
330
747D
100
AcDbEntity
  8
寸法
 48
50.0
100
AcDbDimension
  2
*D31
 10
11926.70986552558
 20
3330.0
 30
0.0
 11
11926.70986552558
 21
2964.420494177466
 31
0.0
 12
1376.519969230816
 22
7973.157382449198
 32
0.0
 70
   160
 71
     5
 42
-1.0
  3
INABA_S50G
100
AcDbAlignedDimension
 13
12584.82958141817
 23
3275.0
 33
0.0
 14
12584.82958141817
 24
3330.0
 34
0.0
 50
90.0
100
AcDbRotatedDimension
  0
LINE
  5
1A684
330
747D
100
AcDbEntity
  8
破線
 48
5.0
100
AcDbLine
 10
12794.32958141817
 20
2940.000000000002
 30
0.0
 11
12594.32958141817
 21
2940.000000000002
 31
0.0
  0
LINE
  5
1A685
330
747D
100
AcDbEntity
  8
破線
 48
5.0
100
AcDbLine
 10
12673.32958141817
 20
3140.0
 30
0.0
 11
12673.32958141817
 21
3030.0
 31
0.0
  0
LINE
  5
1A686
330
747D
100
AcDbEntity
  8
破線
 48
5.0
100
AcDbLine
 10
12715.32958141817
 20
3140.0
 30
0.0
 11
12715.32958141817
 21
3030.0
 31
0.0
  0
LINE
  5
1A687
330
747D
100
AcDbEntity
  8
破線
 48
5.0
100
AcDbLine
 10
12594.32958141817
 20
3140.000000000003
 30
0.0
 11
12594.32958141817
 21
2940.000000000002
 31
0.0
  0
LINE
  5
1A688
330
747D
100
AcDbEntity
  8
破線
 48
5.0
100
AcDbLine
 10
12673.32958141817
 20
3030.0
 30
0.0
 11
12715.32958141817
 21
3030.0
 31
0.0
  0
LINE
  5
1A689
330
747D
100
AcDbEntity
  8
部品1
 48
50.0
100
AcDbLine
 10
12652.82958141817
 20
3275.0
 30
0.0
 11
12584.82958141817
 21
3275.0
 31
0.0
  0
LINE
  5
1A68A
330
747D
100
AcDbEntity
  8
部品1
 48
50.0
100
AcDbLine
 10
12584.82958141817
 20
3275.0
 30
0.0
 11
12584.82958141817
 21
3140.0
 31
0.0
  0
ARC
  5
1A68B
330
747D
100
AcDbEntity
  8
部品1
 48
50.0
100
AcDbCircle
 10
12678.32958141817
 20
3310.000000000001
 30
0.0
 40
5.0
100
AcDbArc
 50
90.0
 51
179.9999999999993
  0
ARC
  5
1A68C
330
747D
100
AcDbEntity
  8
部品1
 48
50.0
100
AcDbCircle
 10
12710.32958141817
 20
3310.0
 30
0.0
 40
5.0
100
AcDbArc
 50
359.9999999999993
 51
90.0
  0
LINE
  5
1A68D
330
747D
100
AcDbEntity
  8
部品1
 48
50.0
100
AcDbLine
 10
12678.32958141817
 20
3315.000000000001
 30
0.0
 11
12710.32958141817
 21
3315.0
 31
0.0
  0
LINE
  5
1A68E
330
747D
100
AcDbEntity
  8
部品1
 48
50.0
100
AcDbLine
 10
12715.32958141817
 20
3310.0
 30
0.0
 11
12715.32958141817
 21
3140.0
 31
0.0
  0
LINE
  5
1A68F
330
747D
100
AcDbEntity
  8
部品1
 48
50.0
100
AcDbLine
 10
12673.32958141817
 20
3310.000000000001
 30
0.0
 11
12673.32958141817
 21
3140.0
 31
0.0
  0
LINE
  5
1A690
330
747D
100
AcDbEntity
  8
部品1
 48
50.0
100
AcDbLine
 10
12652.82958141817
 20
3275.0
 30
0.0
 11
12673.32958141817
 21
3275.0
 31
0.0
  0
LINE
  5
1A691
330
747D
100
AcDbEntity
  8
破線
 48
5.0
100
AcDbLine
 10
12794.32958141817
 20
3140.000000000003
 30
0.0
 11
12794.32958141817
 21
2940.000000000002
 31
0.0
  0
LINE
  5
1A692
330
747D
100
AcDbEntity
  8
部品1
 48
50.0
100
AcDbLine
 10
12852.82958141817
 20
3275.0
 30
0.0
 11
12852.82958141817
 21
3140.0
 31
0.0
  0
DIMENSION
  5
1A693
330
747D
100
AcDbEntity
  8
寸法
 48
50.0
100
AcDbDimension
  2
*D32
 10
12652.82958141817
 20
6408.281130716521
 30
0.0
 11
12244.72297970037
 21
6408.281130716521
 31
0.0
 12
-580.0
 22
0.0
 32
0.0
 70
   160
 71
     5
 42
-1.0
  3
INABA_S50G
100
AcDbAlignedDimension
 13
12517.82958141817
 23
5715.0
 33
0.0
 14
12652.82958141817
 24
5712.140949611779
 34
0.0
100
AcDbRotatedDimension
  0
DIMENSION
  5
1A694
330
747D
100
AcDbEntity
  8
寸法
 48
50.0
100
AcDbDimension
  2
*D33
 10
11921.99424236491
 20
5709.148398478156
 30
0.0
 11
11927.00040279733
 21
5967.206446614685
 31
0.0
 12
-113.989116938359
 22
2.211315675151126
 32
0.0
 70
   160
 71
     5
 42
-1.0
  3
INABA_S50G
100
AcDbAlignedDimension
 13
12538.84046447981
 23
5582.160340619765
 33
0.0
 14
12541.07097096781
 24
5697.138707458083
 34
0.0
 50
88.88863806843096
100
AcDbRotatedDimension
  0
LINE
  5
1A695
330
747D
100
AcDbEntity
  8
細線
 48
50.0
100
AcDbLine
 10
12556.42631339595
 20
5714.266424339623
 30
0.0
 11
12552.12495525883
 21
5581.902630028744
 31
0.0
  0
ARC
  5
1A696
330
747D
100
AcDbEntity
  8
部品1
100
AcDbCircle
 10
12533.32958141817
 20
5681.471940894555
 30
0.0
 40
15.5
100
AcDbArc
 50
88.13874351680366
 51
181.8832004883104
  0
LINE
  5
1A697
330
747D
100
AcDbEntity
  8
部品1
 62
     2
 48
50.0
100
AcDbLine
 10
12584.82958141817
 20
5180.0
 30
0.0
 11
12652.82958141817
 21
5187.0
 31
0.0
  0
ARC
  5
1A698
330
747D
100
AcDbEntity
  8
部品1
100
AcDbCircle
 10
12539.08698326884
 20
5597.658380124381
 30
0.0
 40
15.5
100
AcDbArc
 50
181.8832004883684
 51
269.0887044041854
  0
ARC
  5
1A699
330
747D
100
AcDbEntity
  8
部品1
100
AcDbCircle
 10
12521.00493155814
 20
5599.858039383867
 30
0.0
 40
2.5
100
AcDbArc
 50
1.883200488304429
 51
80.9777304905255
  0
ARC
  5
1A69A
330
747D
100
AcDbEntity
  8
部品1
100
AcDbCircle
 10
12521.58515943173
 20
5603.512260998975
 30
0.0
 40
1.199999999999999
100
AcDbArc
 50
181.8832004883104
 51
260.9777304905277
  0
LINE
  5
1A69B
330
747D
100
AcDbEntity
  8
部品1
100
AcDbLine
 10
12523.5035812939
 20
5599.940194712308
 30
0.0
 11
12523.59535490713
 21
5597.149017088034
 31
0.0
  0
LINE
  5
1A69C
330
747D
100
AcDbEntity
  8
部品1
100
AcDbLine
 10
12517.83795305646
 20
5680.962577858223
 30
0.0
 11
12520.38580755857
 21
5603.472826441325
 31
0.0
  0
ARC
  5
1A69D
330
747D
100
AcDbEntity
  8
部品1
100
AcDbCircle
 10
12536.04423830757
 20
5698.429141049703
 30
0.0
 40
1.5
100
AcDbArc
 50
269.0981540988973
 51
335.4038180356238
  0
LINE
  5
1A69E
330
747D
100
AcDbEntity
  8
部品1
 48
50.0
100
AcDbLine
 10
12536.02062901199
 20
5696.929326860823
 30
0.0
 11
12533.83301119891
 21
5696.963763203626
 31
0.0
  0
ARC
  5
1A69F
330
747D
100
AcDbEntity
  8
部品1
 48
50.0
100
AcDbCircle
 10
12547.28255353197
 20
5710.967200721499
 30
0.0
 40
3.5
100
AcDbArc
 50
88.96475328401214
 51
155.4038180356338
  0
LINE
  5
1A6A0
330
747D
100
AcDbEntity
  8
部品1
100
AcDbLine
 10
12537.40813407784
 20
5697.804810746248
 30
0.0
 11
12544.10013006798
 21
5712.423971429561
 31
0.0
  0
LINE
  5
1A6A1
330
747D
100
AcDbEntity
  8
部品1
 48
50.0
100
AcDbLine
 10
15112.82958141817
 20
5532.226604533093
 30
0.0
 11
15112.82958141817
 21
3140.0
 31
0.0
  0
LINE
  5
1A6A2
330
747D
100
AcDbEntity
  8
細線
 48
5.0
100
AcDbLine
 10
15151.82958141817
 20
5402.0
 30
0.0
 11
15151.82958141816
 21
4392.5
 31
0.0
  0
LINE
  5
1A6A3
330
747D
100
AcDbEntity
  8
細線
 48
5.0
100
AcDbLine
 10
15138.82958141817
 20
5402.0
 30
0.0
 11
15138.82958141816
 21
4392.5
 31
0.0
  0
LINE
  5
1A6A4
330
747D
100
AcDbEntity
  8
細線
 48
5.0
100
AcDbLine
 10
15175.82958141817
 20
5402.0
 30
0.0
 11
15175.82958141816
 21
4392.5
 31
0.0
  0
LINE
  5
1A6A5
330
747D
100
AcDbEntity
  8
細線
 48
5.0
100
AcDbLine
 10
15188.82958141817
 20
5402.0
 30
0.0
 11
15188.82958141816
 21
4392.500000000001
 31
0.0
  0
DIMENSION
  5
1A6A6
330
747D
100
AcDbEntity
  8
寸法
 48
50.0
100
AcDbDimension
  2
*D34
 10
15772.32033483959
 20
5655.0
 30
0.0
 11
16252.30557106006
 21
4465.0
 31
0.0
 12
1376.519969230816
 22
7973.157382449198
 32
0.0
 70
    32
 71
     5
 42
-1.0
  3
INABA_S50G
100
AcDbAlignedDimension
 13
15112.82958141817
 23
3275.0
 33
0.0
 14
15207.82958141817
 24
5655.0
 34
0.0
 50
90.0
100
AcDbRotatedDimension
  0
LINE
  5
1A6A7
330
747D
100
AcDbEntity
  8
部品1
 48
50.0
100
AcDbLine
 10
15042.82958141817
 20
5445.000000000002
 30
0.0
 11
15042.82958141817
 21
3275.0
 31
0.0
  0
LINE
  5
1A6A8
330
747D
100
AcDbEntity
  8
部品1
 48
50.0
100
AcDbLine
 10
14462.82958141817
 20
5445.0
 30
0.0
 11
14462.82958141817
 21
3330.0
 31
0.0
  0
LINE
  5
1A6A9
330
747D
100
AcDbEntity
  8
部品1
 48
50.0
100
AcDbLine
 10
13882.82958141817
 20
5445.0
 30
0.0
 11
13882.82958141817
 21
3330.0
 31
0.0
  0
LINE
  5
1A6AA
330
747D
100
AcDbEntity
  8
部品1
 48
50.0
100
AcDbLine
 10
13302.82958141817
 20
5445.0
 30
0.0
 11
13302.82958141817
 21
3330.0
 31
0.0
  0
LINE
  5
1A6AB
330
747D
100
AcDbEntity
  8
部品1
 48
50.0
100
AcDbLine
 10
13405.82958141817
 20
3275.0
 30
0.0
 11
13405.82958141817
 21
3140.0
 31
0.0
  0
LINE
  5
1A6AC
330
747D
100
AcDbEntity
  8
部品1
 48
50.0
100
AcDbLine
 10
13605.82958141817
 20
3275.0
 30
0.0
 11
13605.82958141817
 21
3140.0
 31
0.0
  0
LINE
  5
1A6AD
330
747D
100
AcDbEntity
  8
部品1
 48
50.0
100
AcDbLine
 10
14159.82958141817
 20
3275.0
 30
0.0
 11
14159.82958141817
 21
3140.0
 31
0.0
  0
LINE
  5
1A6AE
330
747D
100
AcDbEntity
  8
部品1
 48
50.0
100
AcDbLine
 10
14359.82958141817
 20
3275.0
 30
0.0
 11
14359.82958141817
 21
3140.0
 31
0.0
  0
LINE
  5
1A6AF
330
747D
100
AcDbEntity
  8
細線
 48
5.0
100
AcDbLine
 10
15138.82958141816
 20
4372.5
 30
0.0
 11
15138.82958141816
 21
3363.0
 31
0.0
  0
LINE
  5
1A6B0
330
747D
100
AcDbEntity
  8
細線
 48
5.0
100
AcDbLine
 10
15151.82958141816
 20
4372.5
 30
0.0
 11
15151.82958141816
 21
3362.999999999999
 31
0.0
  0
LINE
  5
1A6B1
330
747D
100
AcDbEntity
  8
細線
 48
5.0
100
AcDbLine
 10
15175.82958141816
 20
4372.5
 30
0.0
 11
15175.82958141816
 21
3362.999999999999
 31
0.0
  0
LINE
  5
1A6B2
330
747D
100
AcDbEntity
  8
細線
 48
5.0
100
AcDbLine
 10
15188.82958141816
 20
4372.5
 30
0.0
 11
15188.82958141816
 21
3362.999999999999
 31
0.0
  0
LINE
  5
1A6B3
330
747D
100
AcDbEntity
  8
破線
 48
5.0
100
AcDbLine
 10
15171.32958141817
 20
3140.000000000003
 30
0.0
 11
15171.32958141817
 21
2940.000000000002
 31
0.0
  0
LINE
  5
1A6B4
330
747D
100
AcDbEntity
  8
破線
 48
5.0
100
AcDbLine
 10
15092.32958141817
 20
3140.0
 30
0.0
 11
15092.32958141817
 21
3030.0
 31
0.0
  0
LINE
  5
1A6B5
330
747D
100
AcDbEntity
  8
破線
 48
5.0
100
AcDbLine
 10
15050.32958141817
 20
3140.0
 30
0.0
 11
15050.32958141817
 21
3030.0
 31
0.0
  0
LINE
  5
1A6B6
330
747D
100
AcDbEntity
  8
破線
 48
5.0
100
AcDbLine
 10
14971.32958141817
 20
3140.000000000003
 30
0.0
 11
14971.32958141817
 21
2940.000000000002
 31
0.0
  0
LINE
  5
1A6B7
330
747D
100
AcDbEntity
  8
破線
 48
5.0
100
AcDbLine
 10
14971.32958141817
 20
2940.000000000002
 30
0.0
 11
15171.32958141817
 21
2940.000000000002
 31
0.0
  0
LINE
  5
1A6B8
330
747D
100
AcDbEntity
  8
破線
 48
5.0
100
AcDbLine
 10
15092.32958141817
 20
3030.0
 30
0.0
 11
15050.32958141817
 21
3030.0
 31
0.0
  0
LINE
  5
1A6B9
330
747D
100
AcDbEntity
  8
部品1
 48
50.0
100
AcDbLine
 10
14912.82958141817
 20
3275.0
 30
0.0
 11
14912.82958141817
 21
3140.0
 31
0.0
  0
LINE
  5
1A6BA
330
747D
100
AcDbEntity
  8
部品1
 48
50.0
100
AcDbLine
 10
15092.32958141817
 20
3275.0
 30
0.0
 11
15112.82958141817
 21
3275.0
 31
0.0
  0
ARC
  5
1A6BB
330
747D
100
AcDbEntity
  8
部品1
 48
50.0
100
AcDbCircle
 10
15055.32958141817
 20
3310.0
 30
0.0
 40
5.0
100
AcDbArc
 50
90.0
 51
180.0000000000006
  0
LINE
  5
1A6BC
330
747D
100
AcDbEntity
  8
部品1
 48
50.0
100
AcDbLine
 10
15087.32958141817
 20
3315.000000000001
 30
0.0
 11
15055.32958141817
 21
3315.0
 31
0.0
  0
ARC
  5
1A6BD
330
747D
100
AcDbEntity
  8
部品1
 48
50.0
100
AcDbCircle
 10
15087.32958141817
 20
3310.000000000001
 30
0.0
 40
5.0
100
AcDbArc
 50
0.0000000000006177
 51
90.0
  0
LINE
  5
1A6BE
330
747D
100
AcDbEntity
  8
部品1
 48
50.0
100
AcDbLine
 10
15050.32958141817
 20
3310.0
 30
0.0
 11
15050.32958141817
 21
3140.0
 31
0.0
  0
LINE
  5
1A6BF
330
747D
100
AcDbEntity
  8
部品1
 48
50.0
100
AcDbLine
 10
15092.32958141817
 20
3310.000000000001
 30
0.0
 11
15092.32958141817
 21
3140.0
 31
0.0
  0
LINE
  5
1A6C0
330
747D
100
AcDbEntity
  8
細線
 48
5.0
100
AcDbLine
 10
15112.82958141817
 20
3363.0
 30
0.0
 11
15190.02958141817
 21
3362.999999999999
 31
0.0
  0
LINE
  5
1A6C1
330
747D
100
AcDbEntity
  8
細線
 48
5.0
100
AcDbLine
 10
15134.04554596898
 20
3343.0
 30
0.0
 11
15190.02958141817
 21
3342.999999999998
 31
0.0
  0
LINE
  5
1A6C2
330
747D
100
AcDbEntity
  8
細線
 48
5.0
100
AcDbLine
 10
15112.82958141817
 20
3323.599999999999
 30
0.0
 11
15131.9567721806
 21
3342.153375039561
 31
0.0
  0
ARC
  5
1A6C3
330
747D
100
AcDbEntity
  8
細線
 48
5.0
100
AcDbCircle
 10
15134.04554596898
 20
3340.0
 30
0.0
 40
3.0
100
AcDbArc
 50
89.99999999999909
 51
134.1275428770974
  0
LINE
  5
1A6C4
330
747D
100
AcDbEntity
  8
細線
 48
5.0
100
AcDbLine
 10
15190.02958141817
 20
3342.999999999999
 30
0.0
 11
15190.02958141817
 21
3362.999999999999
 31
0.0
  0
LINE
  5
1A6C5
330
747D
100
AcDbEntity
  8
細線
 48
5.0
100
AcDbLine
 10
15137.62958141817
 20
3342.999999999999
 30
0.0
 11
15137.62958141816
 21
3363.0
 31
0.0
  0
LINE
  5
1A6C6
330
747D
100
AcDbEntity
  8
細線
 48
5.0
100
AcDbLine
 10
15190.62958141816
 20
3270.0
 30
0.0
 11
15173.32958141816
 21
3270.0
 31
0.0
  0
LINE
  5
1A6C7
330
747D
100
AcDbEntity
  8
細線
 48
5.0
100
AcDbLine
 10
15138.82958141816
 20
3343.0
 30
0.0
 11
15138.82958141816
 21
3270.0
 31
0.0
  0
LINE
  5
1A6C8
330
747D
100
AcDbEntity
  8
細線
 48
5.0
100
AcDbLine
 10
15175.82958141816
 20
3343.0
 30
0.0
 11
15175.82958141816
 21
3270.0
 31
0.0
  0
LINE
  5
1A6C9
330
747D
100
AcDbEntity
  8
細線
 48
5.0
100
AcDbLine
 10
15151.82958141816
 20
3343.0
 30
0.0
 11
15151.82958141816
 21
3270.0
 31
0.0
  0
ARC
  5
1A6CA
330
747D
100
AcDbEntity
  8
細線
 48
5.0
100
AcDbCircle
 10
15173.32958141816
 20
3269.5
 30
0.0
 40
0.5
100
AcDbArc
 50
90.0
 51
180.0000000000001
  0
LINE
  5
1A6CB
330
747D
100
AcDbEntity
  8
細線
 48
5.0
100
AcDbLine
 10
15173.32958141816
 20
3270.0
 30
0.0
 11
15154.32958141816
 21
3270.0
 31
0.0
  0
LINE
  5
1A6CC
330
747D
100
AcDbEntity
  8
細線
 48
5.0
100
AcDbLine
 10
15154.82958141816
 20
3269.5
 30
0.0
 11
15154.82958141816
 21
3219.550400232094
 31
0.0
  0
LINE
  5
1A6CD
330
747D
100
AcDbEntity
  8
細線
 48
5.0
100
AcDbLine
 10
15136.52958141816
 20
3269.5
 30
0.0
 11
15136.52958141816
 21
3226.09258006886
 31
0.0
  0
LINE
  5
1A6CE
330
747D
100
AcDbEntity
  8
細線
 48
5.0
100
AcDbLine
 10
15154.32958141816
 20
3270.0
 30
0.0
 11
15137.02958141816
 21
3270.0
 31
0.0
  0
ARC
  5
1A6CF
330
747D
100
AcDbEntity
  8
細線
 48
5.0
100
AcDbCircle
 10
15137.02958141816
 20
3269.5
 30
0.0
 40
0.5
100
AcDbArc
 50
90.0
 51
180.0
  0
ARC
  5
1A6D0
330
747D
100
AcDbEntity
  8
細線
 48
5.0
100
AcDbCircle
 10
15154.32958141816
 20
3269.5
 30
0.0
 40
0.5
100
AcDbArc
 50
359.9999999999998
 51
90.0
  0
LINE
  5
1A6D1
330
747D
100
AcDbEntity
  8
細線
 48
5.0
100
AcDbLine
 10
15188.82958141816
 20
3343.0
 30
0.0
 11
15188.82958141816
 21
3270.0
 31
0.0
  0
LINE
  5
1A6D2
330
747D
100
AcDbEntity
  8
細線
 48
5.0
100
AcDbLine
 10
15191.12958141816
 20
3269.5
 30
0.0
 11
15191.12958141816
 21
3249.0
 31
0.0
  0
LINE
  5
1A6D3
330
747D
100
AcDbEntity
  8
細線
 48
5.0
100
AcDbLine
 10
15191.12958141816
 20
3249.0
 30
0.0
 11
15214.85103067395
 21
3244.817268474697
 31
0.0
  0
LINE
  5
1A6D4
330
747D
100
AcDbEntity
  8
細線
 48
5.0
100
AcDbLine
 10
15191.12958141816
 20
3249.0
 30
0.0
 11
15186.38898616785
 21
3222.114748342767
 31
0.0
  0
ARC
  5
1A6D5
330
747D
100
AcDbEntity
  8
細線
 48
5.0
100
AcDbCircle
 10
15214.67738249629
 20
3243.832460721685
 30
0.0
 40
1.0
100
AcDbArc
 50
355.2322728781318
 51
79.9999999999998
  0
ARC
  5
1A6D6
330
747D
100
AcDbEntity
  8
細線
 48
5.0
100
AcDbCircle
 10
15190.62958141816
 20
3269.5
 30
0.0
 40
0.5
100
AcDbArc
 50
0.0000000000001527
 51
90.0
  0
LINE
  5
1A6D7
330
747D
100
AcDbEntity
  8
細線
 48
5.0
100
AcDbLine
 10
15159.08898616785
 20
3199.207328411627
 30
0.0
 11
15210.11351121807
 21
3190.21032796744
 31
0.0
  0
ARC
  5
1A6D8
330
747D
100
AcDbEntity
  8
細線
 48
5.0
100
AcDbCircle
 10
15210.28715939573
 20
3191.195135720452
 30
0.0
 40
1.0
100
AcDbArc
 50
260.0
 51
355.2322728781318
  0
LINE
  5
1A6D9
330
747D
100
AcDbEntity
  8
細線
 48
5.0
100
AcDbLine
 10
15172.82958141816
 20
3269.5
 30
0.0
 11
15172.82958141816
 21
3216.376514579342
 31
0.0
  0
ARC
  5
1A6DA
330
747D
100
AcDbEntity
  8
細線
 48
5.0
100
AcDbCircle
 10
15163.82958141816
 20
3226.09258006886
 30
0.0
 40
27.3
100
AcDbArc
 50
180.0
 51
260.0
  0
LINE
  5
1A6DB
330
747D
100
AcDbEntity
  8
細線
 48
5.0
100
AcDbLine
 10
15215.6739223305
 20
3243.74934418412
 30
0.0
 11
15211.28369922995
 21
3191.112019182886
 31
0.0
  0
LINE
  5
1A6DC
330
747D
100
AcDbEntity
  8
細線
 48
5.0
100
AcDbLine
 10
15137.62958141816
 20
4372.5
 30
0.0
 11
15112.82958141817
 21
4352.5
 31
0.0
  0
LINE
  5
1A6DD
330
747D
100
AcDbEntity
  8
細線
 48
5.0
100
AcDbLine
 10
15137.62958141816
 20
4392.5
 30
0.0
 11
15112.82958141817
 21
4412.5
 31
0.0
  0
LINE
  5
1A6DE
330
747D
100
AcDbEntity
  8
細線
 48
5.0
100
AcDbLine
 10
15137.62958141816
 20
4392.5
 30
0.0
 11
15137.62958141816
 21
4372.5
 31
0.0
  0
LINE
  5
1A6DF
330
747D
100
AcDbEntity
  8
細線
 48
5.0
100
AcDbLine
 10
15190.02958141817
 20
4392.5
 30
0.0
 11
15190.02958141817
 21
4372.5
 31
0.0
  0
LINE
  5
1A6E0
330
747D
100
AcDbEntity
  8
細線
 48
5.0
100
AcDbLine
 10
15137.62958141816
 20
4372.5
 30
0.0
 11
15190.02958141817
 21
4372.5
 31
0.0
  0
LINE
  5
1A6E1
330
747D
100
AcDbEntity
  8
細線
 48
5.0
100
AcDbLine
 10
15137.62958141816
 20
4392.5
 30
0.0
 11
15190.02958141817
 21
4392.500000000001
 31
0.0
  0
DIMENSION
  5
1A6E2
330
747D
100
AcDbEntity
  8
寸法
 48
50.0
100
AcDbDimension
  2
*D35
 10
15207.82958141817
 20
6408.281130716521
 30
0.0
 11
15540.38863653628
 21
6408.281130716521
 31
0.0
 12
-580.0
 22
0.0
 32
0.0
 70
   160
 71
     5
 42
-1.0
  3
INABA_S50G
100
AcDbAlignedDimension
 13
15112.82958141817
 23
5657.903495449068
 33
0.0
 14
15207.82958141817
 24
5655.0
 34
0.0
100
AcDbRotatedDimension
1001
ACAD
1000
DSTYLE
1002
{
1002
}
  0
ARC
  5
1A6E3
330
747D
100
AcDbEntity
  8
細線
 48
5.0
100
AcDbCircle
 10
15134.04554596898
 20
5425.0
 30
0.0
 40
3.0
100
AcDbArc
 50
225.8724571229025
 51
270.0000000000009
  0
LINE
  5
1A6E4
330
747D
100
AcDbEntity
  8
細線
 48
5.0
100
AcDbLine
 10
15137.62958141817
 20
5422.0
 30
0.0
 11
15137.62958141817
 21
5402.0
 31
0.0
  0
LINE
  5
1A6E5
330
747D
100
AcDbEntity
  8
細線
 48
5.0
100
AcDbLine
 10
15190.02958141817
 20
5422.0
 30
0.0
 11
15190.02958141817
 21
5402.0
 31
0.0
  0
LINE
  5
1A6E6
330
747D
100
AcDbEntity
  8
細線
 48
5.0
100
AcDbLine
 10
15134.04554596898
 20
5422.0
 30
0.0
 11
15190.02958141817
 21
5422.000000000002
 31
0.0
  0
LINE
  5
1A6E7
330
747D
100
AcDbEntity
  8
細線
 48
5.0
100
AcDbLine
 10
15112.82958141817
 20
5402.0
 30
0.0
 11
15190.02958141817
 21
5402.0
 31
0.0
  0
LINE
  5
1A6E8
330
747D
100
AcDbEntity
  8
細線
 48
5.0
100
AcDbLine
 10
15112.82958141817
 20
5441.399999999999
 30
0.0
 11
15131.9567721806
 21
5422.846624960438
 31
0.0
  0
ARC
  5
1A6E9
330
747D
100
AcDbEntity
  8
細線
 48
5.0
100
AcDbCircle
 10
15129.82958141817
 20
5478.0
 30
0.0
 40
3.0
100
AcDbArc
 50
270.0
 51
317.6846849512558
  0
LINE
  5
1A6EA
330
747D
100
AcDbEntity
  8
細線
 48
5.0
100
AcDbLine
 10
15112.82958141817
 20
5530.0
 30
0.0
 11
15133.82958141817
 21
5530.0
 31
0.0
  0
LINE
  5
1A6EB
330
747D
100
AcDbEntity
  8
細線
 48
5.0
100
AcDbLine
 10
15112.82958141817
 20
5475.0
 30
0.0
 11
15129.82958141817
 21
5475.0
 31
0.0
  0
LINE
  5
1A6EC
330
747D
100
AcDbEntity
  8
部品1
 48
50.0
100
AcDbLine
 10
15189.73767084558
 20
5646.025833613869
 30
0.0
 11
15192.83301119892
 21
5645.977108374546
 31
0.0
  0
ARC
  5
1A6ED
330
747D
100
AcDbEntity
  8
部品1
100
AcDbCircle
 10
15189.76128014115
 20
5647.525647802748
 30
0.0
 40
1.5
100
AcDbArc
 50
200.4039185775898
 51
269.0981540988988
  0
ARC
  5
1A6EE
330
747D
100
AcDbEntity
  8
部品1
100
AcDbCircle
 10
15180.36498189196
 20
5546.41928293983
 30
0.0
 40
15.5
100
AcDbArc
 50
269.0887044041854
 51
353.9245361249208
  0
ARC
  5
1A6EF
330
747D
100
AcDbEntity
  8
部品1
100
AcDbCircle
 10
15182.43937643105
 20
5652.867933488349
 30
0.0
 40
3.5
100
AcDbArc
 50
20.40391857757644
 51
88.96475328401214
  0
LINE
  5
1A6F0
330
747D
100
AcDbEntity
  8
細線
 48
50.0
100
AcDbLine
 10
15170.47018699634
 20
5656.632650041362
 30
0.0
 11
15166.39366034655
 21
5531.187495795866
 31
0.0
  0
ARC
  5
1A6F1
330
747D
100
AcDbEntity
  8
部品1
100
AcDbCircle
 10
15192.32958141817
 20
5630.485286065474
 30
0.0
 40
15.5
100
AcDbArc
 50
353.924536124901
 51
88.13874351680366
  0
ARC
  5
1A6F2
330
747D
100
AcDbEntity
  8
部品1
 48
50.0
100
AcDbCircle
 10
15198.66272143308
 20
5548.261411925769
 30
0.0
 40
2.5
100
AcDbArc
 50
94.83000612260093
 51
173.9245361249088
  0
ARC
  5
1A6F3
330
747D
100
AcDbEntity
  8
部品1
 48
50.0
100
AcDbCircle
 10
15198.3511825403
 20
5551.948272855597
 30
0.0
 40
1.199999999999999
100
AcDbArc
 50
274.830006122604
 51
353.924536124901
  0
LINE
  5
1A6F4
330
747D
100
AcDbEntity
  8
部品1
100
AcDbLine
 10
15196.17676303539
 20
5548.526007551112
 30
0.0
 11
15195.77792395765
 21
5544.778790062706
 31
0.0
  0
LINE
  5
1A6F5
330
747D
100
AcDbEntity
  8
部品1
100
AcDbLine
 10
15207.74287520147
 20
5628.848097685025
 30
0.0
 11
15199.54444257119
 21
5551.821266955432
 31
0.0
  0
LINE
  5
1A6F6
330
747D
100
AcDbEntity
  8
部品1
100
AcDbLine
 10
15188.33578614472
 20
5647.055403573377
 30
0.0
 11
15185.71977994811
 21
5654.088160010451
 31
0.0
  0
LINE
  5
1A6F7
330
747D
100
AcDbEntity
  8
細線
 48
5.0
100
AcDbLine
 10
15196.32958141817
 20
5489.809238873037
 30
0.0
 11
15196.32958141817
 21
5477.555305525542
 31
0.0
  0
ARC
  5
1A6F8
330
747D
100
AcDbEntity
  8
細線
 48
5.0
100
AcDbCircle
 10
15183.82958141817
 20
5490.809238873037
 30
0.0
 40
10.0
100
AcDbArc
 50
270.0
 51
0.0
  0
LINE
  5
1A6F9
330
747D
100
AcDbEntity
  8
細線
 48
5.0
100
AcDbLine
 10
15131.32958141817
 20
5489.809238873037
 30
0.0
 11
15131.32958141817
 21
5477.555305525542
 31
0.0
  0
ARC
  5
1A6FA
330
747D
100
AcDbEntity
  8
細線
 48
5.0
100
AcDbCircle
 10
15143.82958141817
 20
5490.809238873037
 30
0.0
 40
10.0
100
AcDbArc
 50
180.0
 51
270.0
  0
ARC
  5
1A6FB
330
747D
100
AcDbEntity
  8
細線
 48
5.0
100
AcDbCircle
 10
15169.82958141817
 20
5460.809238873037
 30
0.0
 40
3.0
100
AcDbArc
 50
0.0
 51
90.0
  0
LINE
  5
1A6FC
330
747D
100
AcDbEntity
  8
細線
 48
5.0
100
AcDbLine
 10
15137.02958141817
 20
5456.809238873036
 30
0.0
 11
15190.62958141816
 21
5456.809238873036
 31
0.0
  0
LINE
  5
1A6FD
330
747D
100
AcDbEntity
  8
細線
 48
5.0
100
AcDbLine
 10
15143.82958141817
 20
5480.809238873036
 30
0.0
 11
15183.82958141817
 21
5480.809238873036
 31
0.0
  0
LINE
  5
1A6FE
330
747D
100
AcDbEntity
  8
細線
 48
5.0
100
AcDbLine
 10
15136.52958141816
 20
5470.809238873036
 30
0.0
 11
15136.52958141816
 21
5457.309238873037
 31
0.0
  0
LINE
  5
1A6FF
330
747D
100
AcDbEntity
  8
細線
 48
5.0
100
AcDbLine
 10
15138.82958141816
 20
5456.809238873036
 30
0.0
 11
15138.82958141817
 21
5422.0
 31
0.0
  0
ARC
  5
1A700
330
747D
100
AcDbEntity
  8
細線
 48
5.0
100
AcDbCircle
 10
15137.02958141817
 20
5457.309238873037
 30
0.0
 40
0.5
100
AcDbArc
 50
180.0
 51
270.0
  0
ARC
  5
1A701
330
747D
100
AcDbEntity
  8
細線
 48
5.0
100
AcDbCircle
 10
15157.82958141817
 20
5460.809238873037
 30
0.0
 40
3.0
100
AcDbArc
 50
90.0
 51
180.0
  0
LINE
  5
1A702
330
747D
100
AcDbEntity
  8
細線
 48
5.0
100
AcDbLine
 10
15151.82958141817
 20
5456.809238873036
 30
0.0
 11
15151.82958141817
 21
5422.0
 31
0.0
  0
LINE
  5
1A703
330
747D
100
AcDbEntity
  8
細線
 48
5.0
100
AcDbLine
 10
15154.82958141817
 20
5460.809238873037
 30
0.0
 11
15154.82958141817
 21
5456.809238873036
 31
0.0
  0
LINE
  5
1A704
330
747D
100
AcDbEntity
  8
細線
 48
5.0
100
AcDbLine
 10
15157.82958141817
 20
5463.809238873036
 30
0.0
 11
15169.82958141817
 21
5463.809238873036
 31
0.0
  0
ARC
  5
1A705
330
747D
100
AcDbEntity
  8
細線
 48
5.0
100
AcDbCircle
 10
15133.32958141817
 20
5477.555305525542
 30
0.0
 40
2.0
100
AcDbArc
 50
179.9999999999999
 51
220.914383220025
  0
LINE
  5
1A706
330
747D
100
AcDbEntity
  8
細線
 48
5.0
100
AcDbLine
 10
15136.52958141816
 20
5470.809238873036
 30
0.0
 11
15131.81820325259
 21
5476.245444448707
 31
0.0
  0
LINE
  5
1A707
330
747D
100
AcDbEntity
  8
細線
 48
5.0
100
AcDbLine
 10
15172.82958141817
 20
5460.809238873037
 30
0.0
 11
15172.82958141817
 21
5456.809238873036
 31
0.0
  0
LINE
  5
1A708
330
747D
100
AcDbEntity
  8
細線
 48
5.0
100
AcDbLine
 10
15191.12958141817
 20
5470.809238873036
 30
0.0
 11
15191.12958141817
 21
5457.309238873037
 31
0.0
  0
LINE
  5
1A709
330
747D
100
AcDbEntity
  8
細線
 48
5.0
100
AcDbLine
 10
15175.82958141816
 20
5456.809238873036
 30
0.0
 11
15175.82958141817
 21
5422.0
 31
0.0
  0
LINE
  5
1A70A
330
747D
100
AcDbEntity
  8
細線
 48
5.0
100
AcDbLine
 10
15188.82958141817
 20
5456.809238873036
 30
0.0
 11
15188.82958141817
 21
5422.0
 31
0.0
  0
ARC
  5
1A70B
330
747D
100
AcDbEntity
  8
細線
 48
5.0
100
AcDbCircle
 10
15190.62958141816
 20
5457.309238873037
 30
0.0
 40
0.5
100
AcDbArc
 50
270.0
 51
0.0
  0
ARC
  5
1A70C
330
747D
100
AcDbEntity
  8
細線
 48
5.0
100
AcDbCircle
 10
15194.32958141817
 20
5477.555305525542
 30
0.0
 40
2.0
100
AcDbArc
 50
319.0856167799749
 51
359.9999999999999
  0
LINE
  5
1A70D
330
747D
100
AcDbEntity
  8
細線
 48
5.0
100
AcDbLine
 10
15191.12958141817
 20
5470.809238873036
 30
0.0
 11
15195.84095958375
 21
5476.245444448707
 31
0.0
  0
LINE
  5
1A70E
330
747D
100
AcDbEntity
  8
細線
 48
5.0
100
AcDbLine
 10
15162.52958141817
 20
5500.509238873037
 30
0.0
 11
15182.12958141816
 21
5500.509238873037
 31
0.0
  0
ARC
  5
1A70F
330
747D
100
AcDbEntity
  8
細線
 48
5.0
100
AcDbCircle
 10
15162.52958141817
 20
5520.509238873037
 30
0.0
 40
20.0
100
AcDbArc
 50
180.0
 51
270.0
  0
LINE
  5
1A710
330
747D
100
AcDbEntity
  8
細線
 48
5.0
100
AcDbLine
 10
15133.82958141817
 20
5531.819218017384
 30
0.0
 11
15133.82958141817
 21
5490.809238873037
 31
0.0
  0
LINE
  5
1A711
330
747D
100
AcDbEntity
  8
細線
 48
5.0
100
AcDbLine
 10
15133.82958141817
 20
5529.809238873037
 30
0.0
 11
15133.82958141817
 21
5502.809238873036
 31
0.0
  0
ARC
  5
1A712
330
747D
100
AcDbEntity
  8
細線
 48
5.0
100
AcDbCircle
 10
15132.32958141817
 20
5489.809238873037
 30
0.0
 40
1.0
100
AcDbArc
 50
90.0
 51
180.0
  0
LINE
  5
1A713
330
747D
100
AcDbEntity
  8
細線
 48
5.0
100
AcDbLine
 10
15133.32958141817
 20
5490.809238873037
 30
0.0
 11
15133.32958141817
 21
5490.809238873037
 31
0.0
  0
LINE
  5
1A714
330
747D
100
AcDbEntity
  8
細線
 48
5.0
100
AcDbLine
 10
15132.32958141817
 20
5490.809238873037
 30
0.0
 11
15133.82958141817
 21
5490.809238873037
 31
0.0
  0
LINE
  5
1A715
330
747D
100
AcDbEntity
  8
細線
 48
5.0
100
AcDbLine
 10
15193.82958141817
 20
5490.809238873037
 30
0.0
 11
15193.82958141817
 21
5515.809238873036
 31
0.0
  0
LINE
  5
1A716
330
747D
100
AcDbEntity
  8
細線
 48
5.0
100
AcDbLine
 10
15187.12958141816
 20
5505.509238873037
 30
0.0
 11
15188.82958141817
 21
5505.509238873037
 31
0.0
  0
ARC
  5
1A717
330
747D
100
AcDbEntity
  8
細線
 48
5.0
100
AcDbCircle
 10
15182.12958141816
 20
5503.009238873037
 30
0.0
 40
2.5
100
AcDbArc
 50
270.0
 51
0.0
  0
ARC
  5
1A718
330
747D
100
AcDbEntity
  8
細線
 48
5.0
100
AcDbCircle
 10
15187.12958141816
 20
5503.009238873037
 30
0.0
 40
2.5
100
AcDbArc
 50
90.0
 51
180.0
  0
LINE
  5
1A719
330
747D
100
AcDbEntity
  8
細線
 48
5.0
100
AcDbLine
 10
15184.62958141816
 20
5503.009238873037
 30
0.0
 11
15184.62958141816
 21
5503.009238873037
 31
0.0
  0
ARC
  5
1A71A
330
747D
100
AcDbEntity
  8
細線
 48
5.0
100
AcDbCircle
 10
15195.32958141817
 20
5489.809238873037
 30
0.0
 40
1.0
100
AcDbArc
 50
0.0
 51
90.0
  0
LINE
  5
1A71B
330
747D
100
AcDbEntity
  8
細線
 48
5.0
100
AcDbLine
 10
15194.32958141817
 20
5490.809238873037
 30
0.0
 11
15194.32958141817
 21
5490.809238873037
 31
0.0
  0
LINE
  5
1A71C
330
747D
100
AcDbEntity
  8
細線
 48
5.0
100
AcDbLine
 10
15188.82958141817
 20
5515.809238873036
 30
0.0
 11
15188.82958141817
 21
5515.809238873036
 31
0.0
  0
LINE
  5
1A71D
330
747D
100
AcDbEntity
  8
細線
 48
5.0
100
AcDbLine
 10
15188.82958141817
 20
5505.509238873037
 30
0.0
 11
15188.82958141817
 21
5515.809238873036
 31
0.0
  0
LINE
  5
1A71E
330
747D
100
AcDbEntity
  8
細線
 48
5.0
100
AcDbLine
 10
15193.82958141817
 20
5490.809238873037
 30
0.0
 11
15195.32958141817
 21
5490.809238873037
 31
0.0
  0
LINE
  5
1A71F
330
747D
100
AcDbEntity
  8
細線
 48
5.0
100
AcDbLine
 10
15142.52958141817
 20
5531.650443603734
 30
0.0
 11
15142.52958141817
 21
5520.509238873037
 31
0.0
  0
LINE
  5
1A720
330
747D
100
AcDbEntity
  8
細線
 48
5.0
100
AcDbLine
 10
15188.82958141817
 20
5515.809238873036
 30
0.0
 11
15193.82958141817
 21
5515.809238873036
 31
0.0
  0
LINE
  5
1A721
330
747D
100
AcDbEntity
  8
部品1
100
AcDbLine
 10
15112.82958141817
 20
5485.0
 30
0.0
 11
15112.82958141817
 21
5445.0
 31
0.0
  0
LINE
  5
1A8B1
330
747D
100
AcDbEntity
  8
部品1
 48
50.0
100
AcDbLine
 10
7504.829581418173
 20
9263.736797361973
 30
0.0
 11
7504.829581418173
 21
9278.736797361974
 31
0.0
  0
LINE
  5
1A8B2
330
747D
100
AcDbEntity
  8
部品1
 48
50.0
100
AcDbLine
 10
7540.829581418172
 20
9263.736797361973
 30
0.0
 11
7540.829581418172
 21
9278.736797361974
 31
0.0
  0
LINE
  5
1A8B3
330
747D
100
AcDbEntity
  8
部品1
 48
50.0
100
AcDbLine
 10
7522.829581418173
 20
9263.736797361973
 30
0.0
 11
7522.829581418176
 21
9228.736797361971
 31
0.0
  0
TEXT
  5
1A95B
330
747D
100
AcDbEntity
  8
文字
 62
     7
 48
50.0
100
AcDbText
 10
17902.30092041603
 20
604.8708912389265
 30
0.0
 40
200.0
  1
ＳＭＫ－７５Ｈ
  7
STYLE2
100
AcDbText
  0
TEXT
  5
1A95C
330
747D
100
AcDbEntity
  8
文字
 62
     7
 48
50.0
100
AcDbText
 10
18386.04187925632
 20
1047.815908841148
 30
0.0
 40
125.0
  1
～一般型･多雪地型～
  7
STYLE2
100
AcDbText
  0
TEXT
  5
1A95D
330
747D
100
AcDbEntity
  8
文字
 62
     7
 48
50.0
100
AcDbText
 10
18155.16479652749
 20
1289.447132864035
 30
0.0
 40
125.0
  1
NO.11     <縮尺> S=1/50
  7
STYLE2
100
AcDbText
  0
TEXT
  5
1A95E
330
747D
100
AcDbEntity
  8
文字
 62
     7
 48
50.0
100
AcDbText
 10
16511.7566802715
 20
270.5931259273529
 30
0.0
 40
100.0
  1
○扉部有効開口寸法：1090×1798 (mm)
  7
STYLE2
100
AcDbText
  0
TEXT
  5
1A95F
330
747D
100
AcDbEntity
  8
文字
 62
     7
 48
50.0
100
AcDbText
 10
16511.7566802715
 20
99.75789836616968
 30
0.0
 40
100.0
  1
○床面積：7.48㎡(2.27坪)
  7
STYLE2
100
AcDbText
  0
MTEXT
  5
1AC16
102
{ACAD_REACTORS
330
1AC17
102
}
330
747D
100
AcDbEntity
  8
部品1
 62
     7
 48
50.0
100
AcDbMText
 10
14897.3983798669
 20
8716.282041753727
 30
0.0
 40
150.0
 41
0.0
 71
     4
 72
     1
  1
\A1;ジョイントカバー
  7
STYLE1
 73
     1
 44
1.0
  0
LEADER
  5
1AC17
330
747D
100
AcDbEntity
  8
寸法
 48
50.0
100
AcDbLeader
  3
INABA_S50G
 71
     0
 73
     0
 74
     0
 75
     1
 40
150.0
 41
1397.5
 76
     3
 10
14474.06618060768
 20
9547.434887568501
 30
0.0
 10
14747.3983798669
 20
8616.282041753727
 30
0.0
 10
14872.3983798669
 20
8616.282041753727
 30
0.0
340
1AC16
1001
ACAD
1000
DSTYLE
1002
{
1070
     6
1000
DOTSMALL
1002
}
  0
MTEXT
  5
1AC18
102
{ACAD_REACTORS
330
1AC19
102
}
330
747D
100
AcDbEntity
  8
部品1
 62
     7
 48
50.0
100
AcDbMText
 10
14231.06372606969
 20
8716.282041753727
 30
0.0
 40
150.0
 41
0.0
 71
     4
 72
     1
  1
\A1;根太
  7
STYLE1
 73
     1
 44
1.0
  0
LEADER
  5
1AC19
330
747D
100
AcDbEntity
  8
寸法
 48
50.0
100
AcDbLeader
  3
INABA_S50G
 71
     0
 73
     0
 74
     0
 75
     1
 40
150.0
 41
330.0
 76
     3
 10
13902.82958141816
 20
9382.720225287025
 30
0.0
 10
14081.06372606969
 20
8616.282041753727
 30
0.0
 10
14206.06372606969
 20
8616.282041753727
 30
0.0
340
1AC18
1001
ACAD
1000
DSTYLE
1002
{
1070
     6
1000
DOTSMALL
1002
}
  0
MTEXT
  5
1AC1A
102
{ACAD_REACTORS
330
1AC1B
102
}
330
747D
100
AcDbEntity
  8
部品1
 62
     7
 48
50.0
100
AcDbMText
 10
13161.3758402945
 20
8716.282041753727
 30
0.0
 40
150.0
 41
0.0
 71
     4
 72
     1
  1
\A1;土台中央
  7
STYLE1
 73
     1
 44
1.0
  0
LEADER
  5
1AC1B
330
747D
100
AcDbEntity
  8
寸法
 48
50.0
100
AcDbLeader
  3
INABA_S50G
 71
     0
 73
     0
 74
     0
 75
     1
 40
150.0
 41
720.0000000000003
 76
     3
 10
12883.90246252955
 20
9382.720225287025
 30
0.0
 10
13011.3758402945
 20
8616.282041753727
 30
0.0
 10
13136.3758402945
 20
8616.282041753727
 30
0.0
340
1AC1A
1001
ACAD
1000
DSTYLE
1002
{
1070
     6
1000
DOTSMALL
1002
}
  0
LINE
  5
1AC1C
330
747D
100
AcDbEntity
  8
部品1
100
AcDbLine
 10
14519.05513660853
 20
7709.831477053279
 30
0.0
 11
13246.6040262278
 21
7709.831477053279
 31
0.0
  0
LINE
  5
1AC1D
330
747D
100
AcDbEntity
  8
部品1
100
AcDbLine
 10
13246.6040262278
 20
7310.010941144058
 30
0.0
 11
14519.05513660853
 21
7310.010941144058
 31
0.0
  0
TEXT
  5
1AC1E
330
747D
100
AcDbEntity
  8
部品1
100
AcDbText
 10
13388.94606354015
 20
7394.180078009755
 30
0.0
 40
225.0
  1
断面図
  7
STYLE2
100
AcDbText
  0
LINE
  5
1AC1F
330
747D
100
AcDbEntity
  8
部品1
100
AcDbLine
 10
13246.6040262278
 20
7709.831477053279
 30
0.0
 11
13246.6040262278
 21
7310.010941144058
 31
0.0
  0
LINE
  5
1AC20
330
747D
100
AcDbEntity
  8
部品1
100
AcDbLine
 10
14519.05513660853
 20
7310.010941144058
 30
0.0
 11
14519.05513660853
 21
7709.831477053279
 31
0.0
  0
MTEXT
  5
1AC21
102
{ACAD_REACTORS
330
1AC22
102
}
330
747D
100
AcDbEntity
  8
寸法
 62
     7
 48
50.0
100
AcDbMText
 10
12199.20278459666
 20
12344.32712616799
 30
0.0
 40
150.0
 41
0.0
 71
     6
 72
     1
  1
\A1;鼻隠シ前
  7
STYLE1
 73
     1
 44
1.0
  0
LEADER
  5
1AC22
330
747D
100
AcDbEntity
  8
寸法
 48
50.0
100
AcDbLeader
  3
INABA_S50G
 71
     0
 73
     0
 75
     1
 40
150.0
 41
697.5
 76
     3
 10
12518.68985764767
 20
11743.78978150138
 30
0.0
 10
12349.20278459666
 20
12244.32712616799
 30
0.0
 10
12224.20278459666
 20
12244.32712616799
 30
0.0
340
1AC21
1001
ACAD
1000
DSTYLE
1002
{
1070
     6
1000
DOTSMALL
1002
}
  0
LINE
  5
1AC23
330
747D
100
AcDbEntity
  8
Ｇ．Ｌ
 48
50.0
100
AcDbLine
 10
11269.2050880862
 20
9228.736797361971
 30
0.0
 11
16896.77176170856
 21
9228.736797361971
 31
0.0
  0
DIMENSION
  5
1AC24
330
747D
100
AcDbEntity
  8
寸法
 48
50.0
100
AcDbDimension
  2
*D36
 10
11428.38013607452
 20
9363.736797361967
 30
0.0
 11
11328.36537229499
 21
10583.73679736196
 31
0.0
 70
    32
 71
     5
 42
-1.0
  3
INABA_S50G
100
AcDbAlignedDimension
 13
12517.82958141816
 23
11803.73679736197
 33
0.0
 14
12652.82958141817
 24
9363.736797361967
 34
0.0
 50
90.0
100
AcDbRotatedDimension
  0
DIMENSION
  5
1AC25
330
747D
100
AcDbEntity
  8
寸法
 48
50.0
100
AcDbDimension
  2
*D37
 10
16737.07164574816
 20
11743.73679736197
 30
0.0
 11
16637.05688196863
 21
10553.73679736197
 31
0.0
 70
    32
 71
     5
 42
-1.0
  3
INABA_S50G
100
AcDbAlignedDimension
 13
15112.82958141817
 23
9363.736797361971
 33
0.0
 14
15207.82958141817
 24
11743.73679736197
 34
0.0
 50
90.0
100
AcDbRotatedDimension
  0
DIMENSION
  5
1AC26
330
747D
100
AcDbEntity
  8
寸法
 48
50.0
100
AcDbDimension
  2
*D38
 10
15207.82958141817
 20
12497.01792807848
 30
0.0
 11
15540.38863653627
 21
12497.01792807848
 31
0.0
 70
   160
 71
     5
 42
-1.0
  3
INABA_S50G
100
AcDbAlignedDimension
 13
15112.82958141816
 23
11746.3631811976
 33
0.0
 14
15207.82958141817
 24
11743.73679736197
 34
0.0
100
AcDbRotatedDimension
1001
ACAD
1000
DSTYLE
1002
{
1002
}
  0
DIMENSION
  5
1AC27
330
747D
100
AcDbEntity
  8
寸法
 48
50.0
100
AcDbDimension
  2
*D39
 10
12652.82958141816
 20
12497.01792807849
 30
0.0
 11
12235.27052630005
 21
12497.01792807849
 31
0.0
 70
   160
 71
     5
 42
-1.0
  3
INABA_S50G
100
AcDbAlignedDimension
 13
12517.82958141817
 23
11803.73679736197
 33
0.0
 14
12652.82958141816
 24
11801.29728927309
 34
0.0
100
AcDbRotatedDimension
  0
DIMENSION
  5
1AC28
330
747D
100
AcDbEntity
  8
寸法
 48
50.0
100
AcDbDimension
  2
*D40
 10
15112.82958141816
 20
12497.01792807848
 30
0.0
 11
13882.82958141816
 21
12597.03269185801
 31
0.0
 70
    32
  1
柱外寸法 <>
 71
     5
 42
-1.0
  3
INABA_S50G
100
AcDbAlignedDimension
 13
12652.82958141816
 23
11758.73679736197
 33
0.0
 14
15112.82958141816
 24
11746.3631811976
 34
0.0
100
AcDbRotatedDimension
1001
ACAD
1000
DSTYLE
1002
{
1070
   287
1070
     4
1070
    75
1070
     1
1070
   279
1070
     1
1002
}
  0
DIMENSION
  5
1AC29
330
747D
100
AcDbEntity
  8
寸法
 48
50.0
100
AcDbDimension
  2
*D41
 10
15207.82958141817
 20
12813.17369887014
 30
0.0
 11
13862.82958141817
 21
12913.18846264967
 31
0.0
 70
    32
 71
     5
 42
-1.0
  3
INABA_S50G
100
AcDbAlignedDimension
 13
12517.82958141817
 23
11803.73679736197
 33
0.0
 14
15207.82958141817
 24
11743.73679736197
 34
0.0
100
AcDbRotatedDimension
  0
LINE
  5
1AC2A
330
747D
100
AcDbEntity
  8
細線
 48
50.0
100
AcDbLine
 10
12545.28603541085
 20
11767.73715059385
 30
0.0
 11
15158.48151722645
 21
11665.36325832354
 31
0.0
  0
LINE
  5
1AC2B
330
747D
100
AcDbEntity
  8
細線
 48
50.0
100
AcDbLine
 10
12546.14724129566
 20
11789.72028786823
 30
0.0
 11
15159.34272311125
 21
11687.34639559791
 31
0.0
  0
LINE
  5
1AC2C
330
747D
100
AcDbEntity
  8
細線
 48
50.0
100
AcDbLine
 10
12717.82958141816
 20
11583.73679736196
 30
0.0
 11
15047.82958141816
 21
11583.73679736196
 31
0.0
  0
LINE
  5
1AC2D
330
747D
100
AcDbEntity
  8
部品1
 48
50.0
100
AcDbLine
 10
12703.32958141817
 20
11537.59466173824
 30
0.0
 11
15062.32958141817
 21
11537.59466173824
 31
0.0
  0
LINE
  5
1AC2E
330
747D
100
AcDbEntity
  8
細線
 48
50.0
100
AcDbLine
 10
12717.82958141816
 20
11563.73679736197
 30
0.0
 11
15047.82958141816
 21
11563.73679736197
 31
0.0
  0
LINE
  5
1AC2F
330
747D
100
AcDbEntity
  8
部品1
 48
50.0
100
AcDbLine
 10
12547.34578971423
 20
11803.20342677758
 30
0.0
 11
15182.50261261331
 21
11745.10415954443
 31
0.0
  0
LINE
  5
1AC30
330
747D
100
AcDbEntity
  8
部品1
 48
50.0
100
AcDbLine
 10
12703.32958141817
 20
9470.73679736197
 30
0.0
 11
15062.32958141817
 21
9470.73679736197
 31
0.0
  0
LINE
  5
1AC31
330
747D
100
AcDbEntity
  8
細線
 48
50.0
100
AcDbLine
 10
15062.32958141817
 20
9418.736797361971
 30
0.0
 11
12703.32958141817
 21
9418.736797361971
 31
0.0
  0
LINE
  5
1AC32
330
747D
100
AcDbEntity
  8
細線
 48
50.0
100
AcDbLine
 10
12703.32958141817
 20
9430.736797361971
 30
0.0
 11
15062.32958141817
 21
9430.736797361971
 31
0.0
  0
LINE
  5
1AC33
330
747D
100
AcDbEntity
  8
部品1
 48
50.0
100
AcDbLine
 10
12652.82958141817
 20
9363.736797361971
 30
0.0
 11
15112.82958141817
 21
9363.736797361971
 31
0.0
  0
DIMENSION
  5
1AC34
330
747D
100
AcDbEntity
  8
寸法
 48
50.0
100
AcDbDimension
  2
*D42
 10
11762.63480123898
 20
9418.736797361971
 30
0.0
 11
11662.62003745945
 21
10476.23679736197
 31
0.0
 70
    32
 71
     5
 42
-1.0
  3
INABA_S50G
100
AcDbAlignedDimension
 13
12652.82958141816
 23
11533.73679736196
 33
0.0
 14
12652.82958141817
 24
9418.736797361971
 34
0.0
 50
90.0
100
AcDbRotatedDimension
  0
LINE
  5
1AC35
330
747D
100
AcDbEntity
  8
部品1
 48
50.0
100
AcDbLine
 10
12652.82958141816
 20
11758.73679736197
 30
0.0
 11
12652.82958141817
 21
9418.736797361971
 31
0.0
  0
LINE
  5
1AC36
330
747D
100
AcDbEntity
  8
部品1
 48
50.0
100
AcDbLine
 10
12703.32958141817
 20
11548.73679736196
 30
0.0
 11
12703.32958141817
 21
9430.736797361971
 31
0.0
  0
LINE
  5
1AC37
330
747D
100
AcDbEntity
  8
部品1
 48
50.0
100
AcDbLine
 10
12739.32958141817
 20
11537.59466173824
 30
0.0
 11
12739.32958141816
 21
9470.73679736197
 31
0.0
  0
LINE
  5
1AC38
330
747D
100
AcDbEntity
  8
部品1
 48
50.0
100
AcDbLine
 10
13864.82958141817
 20
11537.59466173824
 30
0.0
 11
13864.82958141817
 21
9470.73679736197
 31
0.0
  0
LINE
  5
1AC39
330
747D
100
AcDbEntity
  8
部品1
 48
50.0
100
AcDbLine
 10
13900.82958141817
 20
11537.59466173824
 30
0.0
 11
13900.82958141817
 21
9470.73679736197
 31
0.0
  0
LINE
  5
1AC3A
330
747D
100
AcDbEntity
  8
部品1
 48
50.0
100
AcDbLine
 10
13284.82958141817
 20
11537.59466173824
 30
0.0
 11
13284.82958141817
 21
9470.73679736197
 31
0.0
  0
LINE
  5
1AC3B
330
747D
100
AcDbEntity
  8
部品1
 48
50.0
100
AcDbLine
 10
13320.82958141817
 20
11537.59466173824
 30
0.0
 11
13320.82958141817
 21
9470.73679736197
 31
0.0
  0
LINE
  5
1AC3C
330
747D
100
AcDbEntity
  8
細線
 48
50.0
100
AcDbLine
 10
12687.82958141816
 20
11548.73679736197
 30
0.0
 11
12687.82958141817
 21
9418.736797361971
 31
0.0
  0
LINE
  5
1AC3D
330
747D
100
AcDbEntity
  8
細線
 48
50.0
100
AcDbLine
 10
12852.82958141816
 20
9276.010741278424
 30
0.0
 11
12765.10352533462
 21
9363.736797361973
 31
0.0
  0
DIMENSION
  5
1AC3E
330
747D
100
AcDbEntity
  8
寸法
 48
50.0
100
AcDbDimension
  2
*D43
 10
11762.63480123898
 20
9363.736797361971
 30
0.0
 11
11762.63480123898
 21
9089.650458526433
 31
0.0
 70
   160
 71
     5
 42
-1.0
  3
INABA_S50G
100
AcDbAlignedDimension
 13
12652.82958141816
 23
9418.736797361971
 33
0.0
 14
12652.82958141817
 24
9363.736797361971
 34
0.0
 50
90.0
100
AcDbRotatedDimension
  0
LINE
  5
1AC3F
330
747D
100
AcDbEntity
  8
部品1
 48
50.0
100
AcDbLine
 10
12712.32958141817
 20
9470.73679736197
 30
0.0
 11
12712.32958141817
 21
9430.736797361971
 31
0.0
  0
LINE
  5
1AC40
330
747D
100
AcDbEntity
  8
部品1
 48
50.0
100
AcDbLine
 10
12652.82958141817
 20
9412.73679736197
 30
0.0
 11
12652.82958141817
 21
9363.736797361971
 31
0.0
  0
LINE
  5
1AC41
330
747D
100
AcDbEntity
  8
部品1
 48
50.0
100
AcDbLine
 10
12712.32958141817
 20
9430.736797361971
 30
0.0
 11
12703.32958141817
 21
9430.736797361971
 31
0.0
  0
LINE
  5
1AC42
330
747D
100
AcDbEntity
  8
部品1
 48
50.0
100
AcDbLine
 10
12658.82958141817
 20
9412.73679736197
 30
0.0
 11
12658.82958141817
 21
9418.736797361971
 31
0.0
  0
LINE
  5
1AC43
330
747D
100
AcDbEntity
  8
部品1
 48
50.0
100
AcDbLine
 10
12652.82958141817
 20
9412.73679736197
 30
0.0
 11
12658.82958141817
 21
9412.73679736197
 31
0.0
  0
LINE
  5
1AC44
330
747D
100
AcDbEntity
  8
部品1
 48
50.0
100
AcDbLine
 10
12741.32958141817
 20
9411.736797361971
 30
0.0
 11
12741.32958141816
 21
9363.736797361971
 31
0.0
  0
LINE
  5
1AC45
330
747D
100
AcDbEntity
  8
部品1
 48
50.0
100
AcDbLine
 10
12717.32958141817
 20
9411.736797361971
 30
0.0
 11
12741.32958141817
 21
9411.736797361971
 31
0.0
  0
LINE
  5
1AC46
330
747D
100
AcDbEntity
  8
部品1
 48
50.0
100
AcDbLine
 10
12717.32958141817
 20
9418.736797361971
 30
0.0
 11
12717.32958141817
 21
9411.736797361971
 31
0.0
  0
LINE
  5
1AC47
330
747D
100
AcDbEntity
  8
部品1
 48
50.0
100
AcDbLine
 10
12703.32958141817
 20
9418.736797361971
 30
0.0
 11
12717.32958141817
 21
9418.736797361971
 31
0.0
  0
LINE
  5
1AC48
330
747D
100
AcDbEntity
  8
部品1
 48
50.0
100
AcDbLine
 10
12703.32958141817
 20
9430.736797361971
 30
0.0
 11
12703.32958141817
 21
9418.736797361971
 31
0.0
  0
LINE
  5
1AC49
330
747D
100
AcDbEntity
  8
部品1
 48
50.0
100
AcDbLine
 10
12688.32958141817
 20
9430.736797361971
 30
0.0
 11
12703.32958141817
 21
9430.736797361971
 31
0.0
  0
LINE
  5
1AC4A
330
747D
100
AcDbEntity
  8
部品1
 48
50.0
100
AcDbLine
 10
12688.32958141817
 20
9418.736797361971
 30
0.0
 11
12688.32958141817
 21
9430.736797361971
 31
0.0
  0
LINE
  5
1AC4B
330
747D
100
AcDbEntity
  8
部品1
 48
50.0
100
AcDbLine
 10
12652.82958141817
 20
9418.736797361971
 30
0.0
 11
12688.32958141817
 21
9418.736797361971
 31
0.0
  0
LINE
  5
1AC4C
330
747D
100
AcDbEntity
  8
部品1
 48
50.0
100
AcDbLine
 10
12703.32958141817
 20
9470.73679736197
 30
0.0
 11
12712.32958141817
 21
9470.73679736197
 31
0.0
  0
LINE
  5
1AC4D
330
747D
100
AcDbEntity
  8
部品1
 48
50.0
100
AcDbLine
 10
12783.82958141817
 20
9028.73679736197
 30
0.0
 11
12783.82958141817
 21
9228.736797361971
 31
0.0
  0
LINE
  5
1AC4E
330
747D
100
AcDbEntity
  8
破線
 48
3.0
100
AcDbLine
 10
12662.82958141817
 20
9228.736797361971
 30
0.0
 11
12662.82958141817
 21
9122.736797361971
 31
0.0
  0
LINE
  5
1AC4F
330
747D
100
AcDbEntity
  8
破線
 48
3.0
100
AcDbLine
 10
12704.82958141817
 20
9228.736797361971
 30
0.0
 11
12704.82958141817
 21
9122.736797361971
 31
0.0
  0
LINE
  5
1AC50
330
747D
100
AcDbEntity
  8
部品1
 48
50.0
100
AcDbLine
 10
12583.82958141817
 20
9228.736797361971
 30
0.0
 11
12583.82958141817
 21
9028.73679736197
 31
0.0
  0
LINE
  5
1AC51
330
747D
100
AcDbEntity
  8
細線
 48
50.0
100
AcDbLine
 10
12627.53913320722
 20
9028.73679736197
 30
0.0
 11
12783.82958141817
 21
9185.027245572921
 31
0.0
  0
LINE
  5
1AC52
330
747D
100
AcDbEntity
  8
細線
 48
50.0
100
AcDbLine
 10
12583.82958141817
 20
9081.994236983929
 30
0.0
 11
12730.57214179619
 21
9228.736797361973
 31
0.0
  0
LINE
  5
1AC53
330
747D
100
AcDbEntity
  8
細線
 48
50.0
100
AcDbLine
 10
12583.82958141817
 20
9135.027245572921
 30
0.0
 11
12677.53913320723
 21
9228.736797361971
 31
0.0
  0
LINE
  5
1AC54
330
747D
100
AcDbEntity
  8
細線
 48
50.0
100
AcDbLine
 10
12583.82958141817
 20
9108.510741278426
 30
0.0
 11
12704.0556375017
 21
9228.736797361971
 31
0.0
  0
LINE
  5
1AC55
330
747D
100
AcDbEntity
  8
細線
 48
50.0
100
AcDbLine
 10
12654.05563750171
 20
9028.73679736197
 30
0.0
 11
12783.82958141817
 21
9158.510741278426
 31
0.0
  0
LINE
  5
1AC56
330
747D
100
AcDbEntity
  8
細線
 48
50.0
100
AcDbLine
 10
12680.57214179622
 20
9028.73679736197
 30
0.0
 11
12783.82958141817
 21
9131.994236983928
 31
0.0
  0
LINE
  5
1AC57
330
747D
100
AcDbEntity
  8
破線
 48
3.0
100
AcDbLine
 10
12662.82958141817
 20
9122.736797361971
 30
0.0
 11
12704.82958141817
 21
9122.736797361971
 31
0.0
  0
LINE
  5
1AC58
330
747D
100
AcDbEntity
  8
部品1
 48
50.0
100
AcDbLine
 10
12583.82958141817
 20
9028.73679736197
 30
0.0
 11
12783.82958141817
 21
9028.73679736197
 31
0.0
  0
LINE
  5
1AC59
330
747D
100
AcDbEntity
  8
部品1
 48
50.0
100
AcDbLine
 10
12652.82958141817
 20
9363.736797361967
 30
0.0
 11
12652.82958141817
 21
9228.736797361971
 31
0.0
  0
LINE
  5
1AC5A
330
747D
100
AcDbEntity
  8
細線
 48
50.0
100
AcDbLine
 10
12776.62002962911
 20
9228.736797361971
 30
0.0
 11
12652.82958141817
 21
9352.52724557292
 31
0.0
  0
LINE
  5
1AC5B
330
747D
100
AcDbEntity
  8
細線
 48
50.0
100
AcDbLine
 10
12750.10352533462
 20
9228.736797361971
 30
0.0
 11
12652.82958141817
 21
9326.010741278425
 31
0.0
  0
MTEXT
  5
1AC5C
102
{ACAD_REACTORS
330
1AC5D
102
}
330
747D
100
AcDbEntity
  8
部品1
 62
     7
 48
50.0
100
AcDbMText
 10
13362.60524733606
 20
9656.775787169863
 30
0.0
 40
150.0
 41
0.0
 71
     4
 72
     1
  1
\A1;床板
  7
STYLE1
 73
     1
 44
1.0
  0
LEADER
  5
1AC5D
330
747D
100
AcDbEntity
  8
寸法
 48
50.0
100
AcDbLeader
  3
INABA_S50G
 71
     0
 73
     0
 74
     0
 75
     1
 40
150.0
 41
319.9999999999999
 76
     3
 10
13176.69707899399
 20
9425.668860537973
 30
0.0
 10
13212.60524733606
 20
9556.775787169861
 30
0.0
 10
13337.60524733606
 20
9556.775787169861
 30
0.0
340
1AC5C
1001
ACAD
1000
DSTYLE
1002
{
1070
     6
1000
DOTSMALL
1002
}
  0
LINE
  5
1AC5E
330
747D
100
AcDbEntity
  8
細線
 48
50.0
100
AcDbLine
 10
13529.62002962911
 20
9228.736797361971
 30
0.0
 11
13405.82958141817
 21
9352.52724557292
 31
0.0
  0
LINE
  5
1AC5F
330
747D
100
AcDbEntity
  8
細線
 48
50.0
100
AcDbLine
 10
13503.10352533462
 20
9228.736797361971
 30
0.0
 11
13405.82958141817
 21
9326.010741278425
 31
0.0
  0
LINE
  5
1AC60
330
747D
100
AcDbEntity
  8
部品1
 48
50.0
100
AcDbLine
 10
13316.82958141816
 20
9418.736797361971
 30
0.0
 11
13322.82958141816
 21
9418.736797361971
 31
0.0
  0
LINE
  5
1AC61
330
747D
100
AcDbEntity
  8
部品1
 48
50.0
100
AcDbLine
 10
13316.82958141816
 20
9418.736797361971
 30
0.0
 11
13316.82958141816
 21
9412.73679736197
 31
0.0
  0
LINE
  5
1AC62
330
747D
100
AcDbEntity
  8
部品1
 48
50.0
100
AcDbLine
 10
13322.82958141816
 20
9418.736797361971
 30
0.0
 11
13322.82958141816
 21
9363.736797361971
 31
0.0
  0
LINE
  5
1AC63
330
747D
100
AcDbEntity
  8
部品1
 48
50.0
100
AcDbLine
 10
12992.82958141816
 20
9363.736797361971
 30
0.0
 11
12992.82958141816
 21
9418.736797361971
 31
0.0
  0
LINE
  5
1AC64
330
747D
100
AcDbEntity
  8
部品1
 48
50.0
100
AcDbLine
 10
13032.82958141816
 20
9418.736797361971
 30
0.0
 11
13032.82958141816
 21
9363.736797361971
 31
0.0
  0
LINE
  5
1AC65
330
747D
100
AcDbEntity
  8
部品1
 48
50.0
100
AcDbLine
 10
12998.82958141816
 20
9412.73679736197
 30
0.0
 11
12998.82958141816
 21
9418.736797361971
 31
0.0
  0
LINE
  5
1AC66
330
747D
100
AcDbEntity
  8
部品1
 48
50.0
100
AcDbLine
 10
13026.82958141816
 20
9418.736797361971
 30
0.0
 11
13026.82958141816
 21
9412.73679736197
 31
0.0
  0
LINE
  5
1AC67
330
747D
100
AcDbEntity
  8
部品1
 48
50.0
100
AcDbLine
 10
12998.82958141816
 20
9412.73679736197
 30
0.0
 11
13026.82958141816
 21
9412.736797361969
 31
0.0
  0
LINE
  5
1AC68
330
747D
100
AcDbEntity
  8
部品1
 48
50.0
100
AcDbLine
 10
12992.82958141816
 20
9418.736797361971
 30
0.0
 11
12998.82958141816
 21
9418.736797361971
 31
0.0
  0
LINE
  5
1AC69
330
747D
100
AcDbEntity
  8
部品1
 48
50.0
100
AcDbLine
 10
13026.82958141816
 20
9418.736797361971
 30
0.0
 11
13032.82958141816
 21
9418.736797361971
 31
0.0
  0
LINE
  5
1AC6A
330
747D
100
AcDbEntity
  8
部品1
 48
50.0
100
AcDbLine
 10
13288.82958141816
 20
9412.73679736197
 30
0.0
 11
13288.82958141816
 21
9418.736797361971
 31
0.0
  0
LINE
  5
1AC6B
330
747D
100
AcDbEntity
  8
部品1
 48
50.0
100
AcDbLine
 10
13282.82958141816
 20
9418.736797361971
 30
0.0
 11
13288.82958141816
 21
9418.736797361971
 31
0.0
  0
LINE
  5
1AC6C
330
747D
100
AcDbEntity
  8
部品1
 48
50.0
100
AcDbLine
 10
13282.82958141816
 20
9363.736797361971
 30
0.0
 11
13282.82958141816
 21
9418.736797361971
 31
0.0
  0
LINE
  5
1AC6D
330
747D
100
AcDbEntity
  8
部品1
 48
50.0
100
AcDbLine
 10
13288.82958141816
 20
9412.73679736197
 30
0.0
 11
13316.82958141816
 21
9412.736797361969
 31
0.0
  0
LINE
  5
1AC6E
330
747D
100
AcDbEntity
  8
部品1
 48
50.0
100
AcDbLine
 10
12852.82958141817
 20
9363.736797361967
 30
0.0
 11
12852.82958141817
 21
9228.736797361971
 31
0.0
  0
LINE
  5
1AC6F
330
747D
100
AcDbEntity
  8
細線
 48
50.0
100
AcDbLine
 10
12852.82958141817
 20
9302.527245572919
 30
0.0
 11
12791.62002962911
 21
9363.736797361971
 31
0.0
  0
LINE
  5
1AC70
330
747D
100
AcDbEntity
  8
部品1
 48
50.0
100
AcDbLine
 10
13405.82958141817
 20
9363.736797361967
 30
0.0
 11
13405.82958141817
 21
9228.736797361971
 31
0.0
  0
LINE
  5
1AC71
330
747D
100
AcDbEntity
  8
部品1
 48
50.0
100
AcDbLine
 10
13862.82958141816
 20
9363.736797361971
 30
0.0
 11
13862.82958141816
 21
9418.736797361971
 31
0.0
  0
LINE
  5
1AC72
330
747D
100
AcDbEntity
  8
部品1
 48
50.0
100
AcDbLine
 10
13902.82958141816
 20
9418.736797361971
 30
0.0
 11
13902.82958141816
 21
9363.736797361971
 31
0.0
  0
LINE
  5
1AC73
330
747D
100
AcDbEntity
  8
部品1
 48
50.0
100
AcDbLine
 10
13868.82958141816
 20
9412.73679736197
 30
0.0
 11
13868.82958141816
 21
9418.736797361971
 31
0.0
  0
LINE
  5
1AC74
330
747D
100
AcDbEntity
  8
部品1
 48
50.0
100
AcDbLine
 10
13896.82958141816
 20
9418.736797361971
 30
0.0
 11
13896.82958141816
 21
9412.73679736197
 31
0.0
  0
LINE
  5
1AC75
330
747D
100
AcDbEntity
  8
部品1
 48
50.0
100
AcDbLine
 10
13868.82958141816
 20
9412.73679736197
 30
0.0
 11
13896.82958141816
 21
9412.736797361969
 31
0.0
  0
LINE
  5
1AC76
330
747D
100
AcDbEntity
  8
部品1
 48
50.0
100
AcDbLine
 10
13862.82958141816
 20
9418.736797361971
 30
0.0
 11
13868.82958141816
 21
9418.736797361971
 31
0.0
  0
LINE
  5
1AC77
330
747D
100
AcDbEntity
  8
部品1
 48
50.0
100
AcDbLine
 10
13896.82958141816
 20
9418.736797361971
 30
0.0
 11
13902.82958141816
 21
9418.736797361971
 31
0.0
  0
LINE
  5
1AC78
330
747D
100
AcDbEntity
  8
部品1
 48
50.0
100
AcDbLine
 10
13606.82958141816
 20
9418.736797361971
 30
0.0
 11
13612.82958141816
 21
9418.736797361971
 31
0.0
  0
LINE
  5
1AC79
330
747D
100
AcDbEntity
  8
部品1
 48
50.0
100
AcDbLine
 10
13572.82958141816
 20
9418.736797361971
 30
0.0
 11
13578.82958141816
 21
9418.736797361971
 31
0.0
  0
LINE
  5
1AC7A
330
747D
100
AcDbEntity
  8
部品1
 48
50.0
100
AcDbLine
 10
13578.82958141816
 20
9412.73679736197
 30
0.0
 11
13606.82958141816
 21
9412.736797361969
 31
0.0
  0
LINE
  5
1AC7B
330
747D
100
AcDbEntity
  8
部品1
 48
50.0
100
AcDbLine
 10
13606.82958141816
 20
9418.736797361971
 30
0.0
 11
13606.82958141816
 21
9412.73679736197
 31
0.0
  0
LINE
  5
1AC7C
330
747D
100
AcDbEntity
  8
部品1
 48
50.0
100
AcDbLine
 10
13578.82958141816
 20
9412.73679736197
 30
0.0
 11
13578.82958141816
 21
9418.736797361971
 31
0.0
  0
LINE
  5
1AC7D
330
747D
100
AcDbEntity
  8
部品1
 48
50.0
100
AcDbLine
 10
13612.82958141816
 20
9418.736797361971
 30
0.0
 11
13612.82958141816
 21
9363.736797361971
 31
0.0
  0
LINE
  5
1AC7E
330
747D
100
AcDbEntity
  8
部品1
 48
50.0
100
AcDbLine
 10
13572.82958141816
 20
9363.736797361971
 30
0.0
 11
13572.82958141816
 21
9418.736797361971
 31
0.0
  0
LINE
  5
1AC7F
330
747D
100
AcDbEntity
  8
部品1
 48
50.0
100
AcDbLine
 10
13605.82958141817
 20
9363.736797361967
 30
0.0
 11
13605.82958141817
 21
9228.736797361971
 31
0.0
  0
LINE
  5
1AC80
330
747D
100
AcDbEntity
  8
細線
 48
50.0
100
AcDbLine
 10
13605.82958141816
 20
9276.010741278424
 30
0.0
 11
13518.10352533462
 21
9363.736797361973
 31
0.0
  0
LINE
  5
1AC81
330
747D
100
AcDbEntity
  8
細線
 48
50.0
100
AcDbLine
 10
13605.82958141817
 20
9302.527245572919
 30
0.0
 11
13544.62002962911
 21
9363.736797361971
 31
0.0
  0
MTEXT
  5
1AC82
102
{ACAD_REACTORS
330
1AC83
102
}
330
747D
100
AcDbEntity
  8
寸法
 62
     7
 48
50.0
100
AcDbMText
 10
12313.39443515959
 20
11412.78867508207
 30
0.0
 40
150.0
 41
0.0
 71
     6
 72
     1
  1
\A1;桁前
  7
STYLE1
 73
     1
 44
1.0
  0
LEADER
  5
1AC83
330
747D
100
AcDbEntity
  8
寸法
 48
50.0
100
AcDbLeader
  3
INABA_S50G
 71
     0
 73
     0
 75
     1
 40
150.0
 41
337.5
 76
     3
 10
12652.82958141816
 20
11600.44622311198
 30
0.0
 10
12463.39443515959
 20
11312.78867508207
 30
0.0
 10
12338.39443515959
 20
11312.78867508207
 30
0.0
340
1AC82
1001
ACAD
1000
DSTYLE
1002
{
1070
     6
1000
DOTSMALL
1002
}
  0
LINE
  5
1AC84
330
747D
100
AcDbEntity
  8
部品1
 48
50.0
100
AcDbLine
 10
12717.82958141816
 20
11583.73679736196
 30
0.0
 11
12739.82958141816
 21
11583.73679736196
 31
0.0
  0
LINE
  5
1AC85
330
747D
100
AcDbEntity
  8
部品1
 48
50.0
100
AcDbLine
 10
12726.4717170419
 20
11563.73679736197
 30
0.0
 11
12717.82958141817
 21
11563.73679736197
 31
0.0
  0
LINE
  5
1AC86
330
747D
100
AcDbEntity
  8
部品1
 48
50.0
100
AcDbLine
 10
12702.82958141816
 20
11548.73679736196
 30
0.0
 11
12703.32958141817
 21
11548.73679736196
 31
0.0
  0
LINE
  5
1AC87
330
747D
100
AcDbEntity
  8
部品1
 48
50.0
100
AcDbLine
 10
12717.82958141816
 20
11583.73679736196
 30
0.0
 11
12739.82958141816
 21
11583.73679736196
 31
0.0
  0
LINE
  5
1AC88
330
747D
100
AcDbEntity
  8
部品1
 48
50.0
100
AcDbLine
 10
12717.82958141816
 20
11563.73679736196
 30
0.0
 11
12717.82958141816
 21
11583.73679736196
 31
0.0
  0
LINE
  5
1AC89
330
747D
100
AcDbEntity
  8
部品1
 48
50.0
100
AcDbLine
 10
12702.82958141816
 20
11548.73679736196
 30
0.0
 11
12717.82958141816
 21
11563.73679736196
 31
0.0
  0
LINE
  5
1AC8A
330
747D
100
AcDbEntity
  8
部品1
 48
50.0
100
AcDbLine
 10
12652.82958141816
 20
11548.73679736196
 30
0.0
 11
12702.82958141816
 21
11548.73679736196
 31
0.0
  0
LINE
  5
1AC8B
330
747D
100
AcDbEntity
  8
部品1
100
AcDbLine
 10
12727.4717170419
 20
11559.73679736197
 30
0.0
 11
12726.4717170419
 21
11559.73679736197
 31
0.0
  0
LINE
  5
1AC8C
330
747D
100
AcDbEntity
  8
部品1
100
AcDbLine
 10
12727.4717170419
 20
11558.73679736197
 30
0.0
 11
12727.4717170419
 21
11559.73679736197
 31
0.0
  0
LINE
  5
1AC8D
330
747D
100
AcDbEntity
  8
部品1
100
AcDbLine
 10
12726.4717170419
 20
11559.73679736197
 30
0.0
 11
12726.4717170419
 21
11563.73679736197
 31
0.0
  0
LINE
  5
1AC8E
330
747D
100
AcDbEntity
  8
部品1
100
AcDbLine
 10
12720.02196957359
 20
11554.11547701841
 30
0.0
 11
12720.72907635478
 21
11553.40837023722
 31
0.0
  0
LINE
  5
1AC8F
330
747D
100
AcDbEntity
  8
部品1
100
AcDbLine
 10
12722.14328991715
 20
11553.40837023722
 30
0.0
 11
12727.4717170419
 21
11558.73679736197
 31
0.0
  0
ARC
  5
1AC90
330
747D
100
AcDbEntity
  8
部品1
100
AcDbCircle
 10
12721.43618313596
 20
11554.11547701841
 30
0.0
 40
1.0
100
AcDbArc
 50
225.0
 51
315.0
  0
LINE
  5
1AC91
330
747D
100
AcDbEntity
  8
部品1
100
AcDbLine
 10
12712.95090176173
 20
11547.04440920654
 30
0.0
 11
12720.02196957359
 21
11554.11547701841
 31
0.0
  0
LINE
  5
1AC92
330
747D
100
AcDbEntity
  8
部品1
100
AcDbLine
 10
12713.65808760154
 20
11546.33722336673
 30
0.0
 11
12712.95090176173
 21
11547.04440920654
 31
0.0
  0
ARC
  5
1AC93
330
747D
100
AcDbEntity
  8
部品1
100
AcDbCircle
 10
12712.95090176173
 20
11545.63019565301
 30
0.0
 40
1.0
100
AcDbArc
 50
314.9999999999995
 51
44.99999999999885
  0
LINE
  5
1AC94
330
747D
100
AcDbEntity
  8
部品1
100
AcDbLine
 10
12706.32958141817
 20
11537.59466173824
 30
0.0
 11
12703.32958141817
 21
11537.59466173824
 31
0.0
  0
LINE
  5
1AC95
330
747D
100
AcDbEntity
  8
部品1
100
AcDbLine
 10
12706.32958141817
 20
11537.59466173824
 30
0.0
 11
12713.65800854291
 21
11544.92308887182
 31
0.0
  0
DIMENSION
  5
1AC96
330
747D
100
AcDbEntity
  8
寸法
 48
50.0
100
AcDbDimension
  2
*D44
 10
11921.55458482934
 20
11795.73051236771
 30
0.0
 11
11925.6596252794
 21
12053.80446784019
 31
0.0
 70
   160
 71
     5
 42
-1.0
  3
INABA_S50G
100
AcDbAlignedDimension
 13
12538.8404644795
 23
11670.89713798174
 33
0.0
 14
12540.66947485201
 24
11785.88259237079
 34
0.0
 50
89.08870440418592
100
AcDbRotatedDimension
  0
LINE
  5
1AC97
330
747D
100
AcDbEntity
  8
細線
 48
50.0
100
AcDbLine
 10
12682.55392857934
 20
11746.34730475325
 30
0.0
 11
12702.53859882877
 21
11745.56439031251
 31
0.0
  0
LINE
  5
1AC98
330
747D
100
AcDbEntity
  8
細線
 48
50.0
100
AcDbLine
 10
12703.16493038136
 20
11761.55212651206
 30
0.0
 11
12702.53859882877
 21
11745.56439031251
 31
0.0
  0
LINE
  5
1AC99
330
747D
100
AcDbEntity
  8
細線
 48
50.0
100
AcDbLine
 10
12683.18026013192
 20
11762.33504095279
 30
0.0
 11
12682.55392857934
 21
11746.34730475325
 31
0.0
  0
LINE
  5
1AC9A
330
747D
100
AcDbEntity
  8
細線
 48
50.0
100
AcDbLine
 10
12546.14724129566
 20
11789.72028786823
 30
0.0
 11
12545.28603541085
 21
11767.73715059385
 31
0.0
  0
LINE
  5
1AC9B
330
747D
100
AcDbEntity
  8
部品1
 48
50.0
100
AcDbLine
 10
12681.32958141816
 20
11743.73679736196
 30
0.0
 11
12703.82958141816
 21
11743.73679736196
 31
0.0
  0
LINE
  5
1AC9C
330
747D
100
AcDbEntity
  8
部品1
 48
50.0
100
AcDbLine
 10
12681.32958141816
 20
11758.73679736196
 30
0.0
 11
12681.32958141816
 21
11743.73679736196
 31
0.0
  0
LINE
  5
1AC9D
330
747D
100
AcDbEntity
  8
部品1
 48
50.0
100
AcDbLine
 10
12652.82958141816
 20
11758.73679736196
 30
0.0
 11
12681.32958141816
 21
11758.73679736196
 31
0.0
  0
ARC
  5
1AC9E
330
747D
100
AcDbEntity
  8
部品1
100
AcDbCircle
 10
12533.32958141817
 20
11770.20873825652
 30
0.0
 40
15.5
100
AcDbArc
 50
88.13874351680366
 51
181.8832004883104
  0
ARC
  5
1AC9F
330
747D
100
AcDbEntity
  8
部品1
100
AcDbCircle
 10
12539.08698326884
 20
11686.39517748635
 30
0.0
 40
15.5
100
AcDbArc
 50
181.8832004883684
 51
269.0887044041854
  0
ARC
  5
1ACA0
330
747D
100
AcDbEntity
  8
部品1
100
AcDbCircle
 10
12521.00493155814
 20
11688.59483674583
 30
0.0
 40
2.5
100
AcDbArc
 50
1.883200488304429
 51
80.9777304905255
  0
ARC
  5
1ACA1
330
747D
100
AcDbEntity
  8
部品1
100
AcDbCircle
 10
12521.58515943172
 20
11692.24905836094
 30
0.0
 40
1.199999999999999
100
AcDbArc
 50
181.8832004883104
 51
260.9777304905277
  0
LINE
  5
1ACA2
330
747D
100
AcDbEntity
  8
部品1
100
AcDbLine
 10
12523.50358129389
 20
11688.67699207427
 30
0.0
 11
12523.59535490713
 21
11685.88581445
 31
0.0
  0
LINE
  5
1ACA3
330
747D
100
AcDbEntity
  8
部品1
100
AcDbLine
 10
12517.83795305646
 20
11769.69937522019
 30
0.0
 11
12520.38580755856
 21
11692.20962380329
 31
0.0
  0
ARC
  5
1ACA4
330
747D
100
AcDbEntity
  8
部品1
100
AcDbCircle
 10
12536.04423830756
 20
11787.16593841167
 30
0.0
 40
1.5
100
AcDbArc
 50
269.0981540988973
 51
335.4038180356238
  0
LINE
  5
1ACA5
330
747D
100
AcDbEntity
  8
部品1
 48
50.0
100
AcDbLine
 10
12536.02062901199
 20
11785.66612422279
 30
0.0
 11
12533.83301119891
 21
11785.70056056559
 31
0.0
  0
ARC
  5
1ACA6
330
747D
100
AcDbEntity
  8
部品1
 48
50.0
100
AcDbCircle
 10
12547.28255353197
 20
11799.70399808346
 30
0.0
 40
3.5
100
AcDbArc
 50
88.96475328401214
 51
155.4038180356338
  0
LINE
  5
1ACA7
330
747D
100
AcDbEntity
  8
部品1
100
AcDbLine
 10
12537.40813407784
 20
11786.54160810821
 30
0.0
 11
12544.10013006798
 21
11801.16076879152
 31
0.0
  0
LINE
  5
1ACA8
330
747D
100
AcDbEntity
  8
細線
 48
50.0
100
AcDbLine
 10
12652.82958141816
 20
11669.08397580098
 30
0.0
 11
12547.83932612733
 21
11670.75399803954
 31
0.0
  0
LINE
  5
1ACA9
330
747D
100
AcDbEntity
  8
部品1
 48
50.0
100
AcDbLine
 10
12652.90115138926
 20
11673.5834066249
 30
0.0
 11
12550.91051664771
 21
11675.20571554939
 31
0.0
  0
LINE
  5
1ACAA
330
747D
100
AcDbEntity
  8
部品1
 48
50.0
100
AcDbLine
 10
12547.83932612733
 20
11670.75399803954
 30
0.0
 11
12547.86318278437
 21
11672.25380831417
 31
0.0
  0
ARC
  5
1ACAB
330
747D
100
AcDbEntity
  8
部品1
 48
50.0
100
AcDbCircle
 10
12550.86280333365
 20
11672.20609500011
 30
0.0
 40
3.0
100
AcDbArc
 50
89.08870440418532
 51
179.0887044041912
  0
LINE
  5
1ACAC
330
747D
100
AcDbEntity
  8
部品1
 48
50.0
100
AcDbLine
 10
12547.83932612733
 20
11670.75399803954
 30
0.0
 11
12538.8404644795
 21
11670.89713798173
 31
0.0
  0
LINE
  5
1ACAD
330
747D
100
AcDbEntity
  8
部品1
 48
50.0
100
AcDbLine
 10
12595.04596203258
 20
11802.34146413898
 30
0.0
 11
12604.79555514413
 21
11773.96990383365
 31
0.0
  0
MTEXT
  5
1ACAE
102
{ACAD_REACTORS
330
1ACAF
102
}
330
747D
100
AcDbEntity
  8
寸法
 62
     7
 48
50.0
100
AcDbMText
 10
13630.30087063654
 20
11981.40987824757
 30
0.0
 40
150.0
 41
0.0
 71
     6
 72
     1
  1
\A1;母屋中
  7
STYLE1
 73
     1
 44
1.0
  0
LEADER
  5
1ACAF
330
747D
100
AcDbEntity
  8
寸法
 48
50.0
100
AcDbLeader
  3
INABA_S50G
 71
     0
 73
     0
 75
     1
 40
150.0
 41
540.0000000000002
 76
     3
 10
13857.82958141817
 20
11612.38073961986
 30
0.0
 10
13780.30087063654
 20
11881.40987824757
 30
0.0
 10
13655.30087063654
 20
11881.40987824757
 30
0.0
340
1ACAE
1001
ACAD
1000
DSTYLE
1002
{
1070
     6
1000
DOTSMALL
1002
}
  0
LINE
  5
1ACB0
330
747D
100
AcDbEntity
  8
部品1
 48
50.0
100
AcDbLine
 10
13857.82958141817
 20
11583.73679736196
 30
0.0
 11
13857.82958141817
 21
11711.23679736196
 31
0.0
  0
LINE
  5
1ACB1
330
747D
100
AcDbEntity
  8
部品1
 48
50.0
100
AcDbLine
 10
13277.82958141817
 20
11583.73679736196
 30
0.0
 11
13277.82958141817
 21
11734.23679736196
 31
0.0
  0
MTEXT
  5
1ACB2
102
{ACAD_REACTORS
330
1ACB3
102
}
330
747D
100
AcDbEntity
  8
寸法
 62
     7
 48
50.0
100
AcDbMText
 10
13377.27247100773
 20
11373.0922657685
 30
0.0
 40
150.0
 41
0.0
 71
     4
 72
     1
  1
\A1;天井
  7
STYLE1
 73
     1
 44
1.0
  0
LEADER
  5
1ACB3
330
747D
100
AcDbEntity
  8
寸法
 48
50.0
100
AcDbLeader
  3
INABA_S50G
 71
     0
 73
     0
 74
     0
 75
     1
 40
150.0
 41
359.9999999999999
 76
     3
 10
13078.26430675194
 20
11573.41424305313
 30
0.0
 10
13227.27247100773
 20
11273.0922657685
 30
0.0
 10
13352.27247100773
 20
11273.0922657685
 30
0.0
340
1ACB2
1001
ACAD
1000
DSTYLE
1002
{
1070
     6
1000
DOTSMALL
1002
}
  0
LINE
  5
1ACB4
330
747D
100
AcDbEntity
  8
部品1
 48
50.0
100
AcDbLine
 10
13327.82958141817
 20
11595.73679736196
 30
0.0
 11
13327.82958141817
 21
11583.73679736196
 31
0.0
  0
LINE
  5
1ACB5
330
747D
100
AcDbEntity
  8
部品1
 48
50.0
100
AcDbLine
 10
13327.82958141817
 20
11583.73679736196
 30
0.0
 11
13277.82958141817
 21
11583.73679736196
 31
0.0
  0
LINE
  5
1ACB6
330
747D
100
AcDbEntity
  8
部品1
 48
50.0
100
AcDbLine
 10
13907.82958141817
 20
11595.73679736196
 30
0.0
 11
13907.82958141817
 21
11583.73679736196
 31
0.0
  0
LINE
  5
1ACB7
330
747D
100
AcDbEntity
  8
部品1
 48
50.0
100
AcDbLine
 10
13907.82958141817
 20
11583.73679736196
 30
0.0
 11
13857.82958141817
 21
11583.73679736196
 31
0.0
  0
MTEXT
  5
1ACB8
102
{ACAD_REACTORS
330
1ACB9
102
}
330
747D
100
AcDbEntity
  8
部品1
 62
     7
 48
50.0
100
AcDbMText
 10
13080.92264908341
 20
12198.22045057759
 30
0.0
 40
150.0
 41
0.0
 71
     4
 72
     1
  1
\A1;屋根パネル
  7
STYLE1
 73
     1
 44
1.0
  0
LEADER
  5
1ACB9
330
747D
100
AcDbEntity
  8
寸法
 48
50.0
100
AcDbLeader
  3
INABA_S50G
 71
     0
 73
     0
 74
     0
 75
     1
 40
150.0
 41
900.0
 76
     3
 10
12841.93998738526
 20
11770.0347365094
 30
0.0
 10
12930.92264908341
 20
12098.22045057759
 30
0.0
 10
13055.92264908341
 20
12098.22045057759
 30
0.0
340
1ACB8
1001
ACAD
1000
DSTYLE
1002
{
1070
     6
1000
DOTSMALL
1002
}
  0
LINE
  5
1ACBA
330
747D
100
AcDbEntity
  8
細線
 48
50.0
100
AcDbLine
 10
13308.37387744027
 20
11721.83033904168
 30
0.0
 11
13328.3585476897
 21
11721.04742460094
 31
0.0
  0
LINE
  5
1ACBB
330
747D
100
AcDbEntity
  8
細線
 48
50.0
100
AcDbLine
 10
13309.00020899286
 20
11737.81807524122
 30
0.0
 11
13308.37387744027
 21
11721.83033904168
 31
0.0
  0
LINE
  5
1ACBC
330
747D
100
AcDbEntity
  8
細線
 48
50.0
100
AcDbLine
 10
13328.98487924228
 20
11737.03516080049
 30
0.0
 11
13328.3585476897
 21
11721.04742460094
 31
0.0
  0
LINE
  5
1ACBD
330
747D
100
AcDbEntity
  8
部品1
 48
50.0
100
AcDbLine
 10
13307.82958141817
 20
11732.73679736196
 30
0.0
 11
13307.82958141817
 21
11721.73679736196
 31
0.0
  0
LINE
  5
1ACBE
330
747D
100
AcDbEntity
  8
部品1
 48
50.0
100
AcDbLine
 10
13277.82958141817
 20
11734.23679736196
 30
0.0
 11
13307.82958141817
 21
11732.73679736196
 31
0.0
  0
LINE
  5
1ACBF
330
747D
100
AcDbEntity
  8
部品1
 48
50.0
100
AcDbLine
 10
13307.82958141817
 20
11721.73679736196
 30
0.0
 11
13327.82958141817
 21
11720.73679736196
 31
0.0
  0
LINE
  5
1ACC0
330
747D
100
AcDbEntity
  8
細線
 48
50.0
100
AcDbLine
 10
13888.22908472751
 20
11699.11407654379
 30
0.0
 11
13908.21375497694
 21
11698.33116210306
 31
0.0
  0
LINE
  5
1ACC1
330
747D
100
AcDbEntity
  8
細線
 48
50.0
100
AcDbLine
 10
13908.84008652953
 20
11714.31889830261
 30
0.0
 11
13908.21375497694
 21
11698.33116210306
 31
0.0
  0
LINE
  5
1ACC2
330
747D
100
AcDbEntity
  8
細線
 48
50.0
100
AcDbLine
 10
13888.85541628009
 20
11715.10181274334
 30
0.0
 11
13888.22908472751
 21
11699.11407654379
 31
0.0
  0
LINE
  5
1ACC3
330
747D
100
AcDbEntity
  8
部品1
 48
50.0
100
AcDbLine
 10
13887.82958141817
 20
11709.73679736196
 30
0.0
 11
13887.82958141817
 21
11698.73679736196
 31
0.0
  0
LINE
  5
1ACC4
330
747D
100
AcDbEntity
  8
部品1
 48
50.0
100
AcDbLine
 10
13887.82958141817
 20
11698.73679736196
 30
0.0
 11
13907.82958141817
 21
11697.73679736196
 31
0.0
  0
LINE
  5
1ACC5
330
747D
100
AcDbEntity
  8
部品1
 48
50.0
100
AcDbLine
 10
13857.82958141817
 20
11711.23679736196
 30
0.0
 11
13887.82958141817
 21
11709.73679736196
 31
0.0
  0
MTEXT
  5
1ACC6
102
{ACAD_REACTORS
330
1ACC7
102
}
330
747D
100
AcDbEntity
  8
寸法
 62
     7
 48
50.0
100
AcDbMText
 10
15383.03052825934
 20
10806.69336694682
 30
0.0
 40
150.0
 41
0.0
 71
     4
 72
     1
  1
\A1;壁パネル
  7
STYLE1
 73
     1
 44
1.0
  0
LEADER
  5
1ACC7
330
747D
100
AcDbEntity
  8
寸法
 48
50.0
100
AcDbLeader
  3
INABA_S50G
 71
     0
 73
     0
 74
     0
 75
     1
 40
150.0
 41
719.9999999999999
 76
     3
 10
15100.64563276007
 20
10502.70386958124
 30
0.0
 10
15233.03052825934
 20
10706.69336694682
 30
0.0
 10
15358.03052825934
 20
10706.69336694682
 30
0.0
340
1ACC6
1001
ACAD
1000
DSTYLE
1002
{
1070
     6
1000
DOTSMALL
1002
}
  0
LINE
  5
1ACC8
330
747D
100
AcDbEntity
  8
部品1
 48
50.0
100
AcDbLine
 10
15112.82958141817
 20
11643.73679736196
 30
0.0
 11
15112.82958141817
 21
9418.736797361971
 31
0.0
  0
LINE
  5
1ACC9
330
747D
100
AcDbEntity
  8
部品1
 48
50.0
100
AcDbLine
 10
14444.82958141817
 20
11233.08847168111
 30
0.0
 11
14444.82958141817
 21
9470.73679736197
 31
0.0
  0
LINE
  5
1ACCA
330
747D
100
AcDbEntity
  8
部品1
 48
50.0
100
AcDbLine
 10
14480.82958141817
 20
11233.08847168111
 30
0.0
 11
14480.82958141817
 21
9470.73679736197
 31
0.0
  0
LINE
  5
1ACCB
330
747D
100
AcDbEntity
  8
部品1
 48
50.0
100
AcDbLine
 10
15026.32958141817
 20
11537.59466173824
 30
0.0
 11
15026.32958141817
 21
9470.73679736197
 31
0.0
  0
DIMENSION
  5
1ACCC
330
747D
100
AcDbEntity
  8
寸法
 48
50.0
100
AcDbDimension
  2
*D45
 10
16424.10991665976
 20
11560.73679736196
 30
0.0
 11
16324.09515288024
 21
10495.73679736196
 31
0.0
 70
    32
  1
内高 <>
 71
     5
 42
-1.0
  3
INABA_S50G
100
AcDbAlignedDimension
 13
15077.32958141817
 23
9430.736797361971
 33
0.0
 14
15112.82958141817
 24
11560.73679736196
 34
0.0
 50
90.0
100
AcDbRotatedDimension
  0
LINE
  5
1ACCD
330
747D
100
AcDbEntity
  8
部品1
 48
50.0
100
AcDbLine
 10
15062.32958141817
 20
11548.73679736196
 30
0.0
 11
15062.32958141817
 21
9430.736797361971
 31
0.0
  0
LINE
  5
1ACCE
330
747D
100
AcDbEntity
  8
細線
 48
50.0
100
AcDbLine
 10
15077.82958141817
 20
11548.73679736197
 30
0.0
 11
15077.82958141817
 21
9418.736797361971
 31
0.0
  0
MTEXT
  5
1ACCF
102
{ACAD_REACTORS
330
1ACD0
102
}
330
747D
100
AcDbEntity
  8
寸法
 62
     7
 48
50.0
100
AcDbMText
 10
15405.21447691743
 20
9692.226294727554
 30
0.0
 40
150.0
 41
0.0
 71
     4
 72
     1
  1
\A1;土台前後
  7
STYLE1
 73
     1
 44
1.0
  0
LEADER
  5
1ACD0
330
747D
100
AcDbEntity
  8
寸法
 48
50.0
100
AcDbLeader
  3
INABA_S50G
 71
     0
 73
     0
 74
     0
 75
     1
 40
150.0
 41
719.9999999999995
 76
     3
 10
15112.82958141817
 20
9388.236797361971
 30
0.0
 10
15255.21447691743
 20
9592.226294727554
 30
0.0
 10
15380.21447691743
 20
9592.226294727554
 30
0.0
340
1ACCF
1001
ACAD
1000
DSTYLE
1002
{
1070
     6
1000
DOTSMALL
1002
}
  0
MTEXT
  5
1ACD1
102
{ACAD_REACTORS
330
1ACD2
102
}
330
747D
100
AcDbEntity
  8
寸法
 62
     7
 48
50.0
100
AcDbMText
 10
15352.3774760777
 20
10397.63117983797
 30
0.0
 40
150.0
 41
0.0
 71
     4
 72
     1
  1
\A1;内壁
  7
STYLE1
 73
     1
 44
1.0
  0
LEADER
  5
1ACD2
330
747D
100
AcDbEntity
  8
寸法
 48
50.0
100
AcDbLeader
  3
INABA_S50G
 71
     0
 73
     0
 74
     0
 75
     1
 40
150.0
 41
320.0
 76
     3
 10
15069.99258057843
 20
10093.64168247239
 30
0.0
 10
15202.3774760777
 20
10297.63117983797
 30
0.0
 10
15327.3774760777
 20
10297.63117983797
 30
0.0
340
1ACD1
1001
ACAD
1000
DSTYLE
1002
{
1070
     6
1000
DOTSMALL
1002
}
  0
MTEXT
  5
1ACD3
102
{ACAD_REACTORS
330
1ACD4
102
}
330
747D
100
AcDbEntity
  8
寸法
 62
     7
 48
50.0
100
AcDbMText
 10
14843.56909905212
 20
9701.080712269295
 30
0.0
 40
150.0
 41
0.0
 71
     6
 72
     1
  1
\A1;巾木
  7
STYLE1
 73
     1
 44
1.0
  0
LEADER
  5
1ACD4
330
747D
100
AcDbEntity
  8
寸法
 48
50.0
100
AcDbLeader
  3
INABA_S50G
 71
     0
 73
     0
 75
     1
 40
150.0
 41
310.0
 76
     3
 10
15056.76541320617
 20
9455.070269982758
 30
0.0
 10
14993.56909905212
 20
9601.080712269295
 30
0.0
 10
14868.56909905212
 20
9601.080712269295
 30
0.0
340
1ACD3
1001
ACAD
1000
DSTYLE
1002
{
1070
     6
1000
DOTSMALL
1002
}
  0
LINE
  5
1ACD5
330
747D
100
AcDbEntity
  8
部品1
 48
50.0
100
AcDbLine
 10
14476.82958141816
 20
9418.736797361971
 30
0.0
 11
14482.82958141816
 21
9418.736797361971
 31
0.0
  0
LINE
  5
1ACD6
330
747D
100
AcDbEntity
  8
部品1
 48
50.0
100
AcDbLine
 10
14442.82958141816
 20
9418.736797361971
 30
0.0
 11
14448.82958141816
 21
9418.736797361971
 31
0.0
  0
LINE
  5
1ACD7
330
747D
100
AcDbEntity
  8
部品1
 48
50.0
100
AcDbLine
 10
14448.82958141816
 20
9412.73679736197
 30
0.0
 11
14476.82958141816
 21
9412.736797361969
 31
0.0
  0
LINE
  5
1ACD8
330
747D
100
AcDbEntity
  8
部品1
 48
50.0
100
AcDbLine
 10
14476.82958141816
 20
9418.736797361971
 30
0.0
 11
14476.82958141816
 21
9412.73679736197
 31
0.0
  0
LINE
  5
1ACD9
330
747D
100
AcDbEntity
  8
部品1
 48
50.0
100
AcDbLine
 10
14448.82958141816
 20
9412.73679736197
 30
0.0
 11
14448.82958141816
 21
9418.736797361971
 31
0.0
  0
LINE
  5
1ACDA
330
747D
100
AcDbEntity
  8
部品1
 48
50.0
100
AcDbLine
 10
14482.82958141816
 20
9418.736797361971
 30
0.0
 11
14482.82958141816
 21
9363.736797361971
 31
0.0
  0
LINE
  5
1ACDB
330
747D
100
AcDbEntity
  8
部品1
 48
50.0
100
AcDbLine
 10
14442.82958141816
 20
9363.736797361971
 30
0.0
 11
14442.82958141816
 21
9418.736797361971
 31
0.0
  0
LINE
  5
1ACDC
330
747D
100
AcDbEntity
  8
部品1
 48
50.0
100
AcDbLine
 10
14152.82958141816
 20
9418.736797361971
 30
0.0
 11
14158.82958141817
 21
9418.736797361971
 31
0.0
  0
LINE
  5
1ACDD
330
747D
100
AcDbEntity
  8
部品1
 48
50.0
100
AcDbLine
 10
14186.82958141816
 20
9418.736797361971
 30
0.0
 11
14192.82958141816
 21
9418.736797361971
 31
0.0
  0
LINE
  5
1ACDE
330
747D
100
AcDbEntity
  8
部品1
 48
50.0
100
AcDbLine
 10
14158.82958141816
 20
9412.73679736197
 30
0.0
 11
14186.82958141816
 21
9412.736797361969
 31
0.0
  0
LINE
  5
1ACDF
330
747D
100
AcDbEntity
  8
部品1
 48
50.0
100
AcDbLine
 10
14186.82958141816
 20
9418.736797361971
 30
0.0
 11
14186.82958141816
 21
9412.73679736197
 31
0.0
  0
LINE
  5
1ACE0
330
747D
100
AcDbEntity
  8
部品1
 48
50.0
100
AcDbLine
 10
14158.82958141816
 20
9412.73679736197
 30
0.0
 11
14158.82958141816
 21
9418.736797361971
 31
0.0
  0
LINE
  5
1ACE1
330
747D
100
AcDbEntity
  8
部品1
 48
50.0
100
AcDbLine
 10
14192.82958141816
 20
9418.736797361971
 30
0.0
 11
14192.82958141816
 21
9363.736797361971
 31
0.0
  0
LINE
  5
1ACE2
330
747D
100
AcDbEntity
  8
部品1
 48
50.0
100
AcDbLine
 10
14152.82958141816
 20
9363.736797361971
 30
0.0
 11
14152.82958141816
 21
9418.736797361971
 31
0.0
  0
LINE
  5
1ACE3
330
747D
100
AcDbEntity
  8
細線
 48
50.0
100
AcDbLine
 10
14359.82958141816
 20
9276.010741278424
 30
0.0
 11
14272.10352533462
 21
9363.736797361973
 31
0.0
  0
LINE
  5
1ACE4
330
747D
100
AcDbEntity
  8
細線
 48
50.0
100
AcDbLine
 10
14257.10352533462
 20
9228.736797361971
 30
0.0
 11
14159.82958141817
 21
9326.010741278425
 31
0.0
  0
LINE
  5
1ACE5
330
747D
100
AcDbEntity
  8
細線
 48
50.0
100
AcDbLine
 10
14283.62002962911
 20
9228.736797361971
 30
0.0
 11
14159.82958141817
 21
9352.52724557292
 31
0.0
  0
LINE
  5
1ACE6
330
747D
100
AcDbEntity
  8
部品1
 48
50.0
100
AcDbLine
 10
14159.82958141817
 20
9363.736797361967
 30
0.0
 11
14159.82958141817
 21
9228.736797361971
 31
0.0
  0
LINE
  5
1ACE7
330
747D
100
AcDbEntity
  8
部品1
 48
50.0
100
AcDbLine
 10
14359.82958141817
 20
9363.736797361967
 30
0.0
 11
14359.82958141817
 21
9228.736797361971
 31
0.0
  0
LINE
  5
1ACE8
330
747D
100
AcDbEntity
  8
細線
 48
50.0
100
AcDbLine
 10
14359.82958141817
 20
9302.527245572919
 30
0.0
 11
14298.62002962911
 21
9363.736797361971
 31
0.0
  0
LINE
  5
1ACE9
330
747D
100
AcDbEntity
  8
部品1
 48
50.0
100
AcDbLine
 10
15048.32958141817
 20
9411.736797361971
 30
0.0
 11
15024.32958141817
 21
9411.736797361971
 31
0.0
  0
LINE
  5
1ACEA
330
747D
100
AcDbEntity
  8
部品1
 48
50.0
100
AcDbLine
 10
15024.32958141817
 20
9411.736797361971
 30
0.0
 11
15024.32958141817
 21
9363.736797361971
 31
0.0
  0
LINE
  5
1ACEB
330
747D
100
AcDbEntity
  8
部品1
 48
50.0
100
AcDbLine
 10
15053.32958141816
 20
9470.73679736197
 30
0.0
 11
15053.32958141816
 21
9430.736797361971
 31
0.0
  0
LINE
  5
1ACEC
330
747D
100
AcDbEntity
  8
部品1
 48
50.0
100
AcDbLine
 10
15112.82958141817
 20
9412.736797361969
 30
0.0
 11
15112.82958141817
 21
9363.736797361971
 31
0.0
  0
LINE
  5
1ACED
330
747D
100
AcDbEntity
  8
部品1
 48
50.0
100
AcDbLine
 10
15053.32958141816
 20
9430.736797361971
 30
0.0
 11
15062.32958141817
 21
9430.736797361971
 31
0.0
  0
LINE
  5
1ACEE
330
747D
100
AcDbEntity
  8
部品1
 48
50.0
100
AcDbLine
 10
15048.32958141817
 20
9418.736797361971
 30
0.0
 11
15062.32958141817
 21
9418.736797361971
 31
0.0
  0
LINE
  5
1ACEF
330
747D
100
AcDbEntity
  8
部品1
 48
50.0
100
AcDbLine
 10
15106.82958141817
 20
9412.73679736197
 30
0.0
 11
15106.82958141817
 21
9418.736797361971
 31
0.0
  0
LINE
  5
1ACF0
330
747D
100
AcDbEntity
  8
部品1
 48
50.0
100
AcDbLine
 10
15112.82958141817
 20
9412.73679736197
 30
0.0
 11
15106.82958141817
 21
9412.73679736197
 31
0.0
  0
LINE
  5
1ACF1
330
747D
100
AcDbEntity
  8
部品1
 48
50.0
100
AcDbLine
 10
15048.32958141817
 20
9418.736797361971
 30
0.0
 11
15048.32958141817
 21
9411.736797361971
 31
0.0
  0
LINE
  5
1ACF2
330
747D
100
AcDbEntity
  8
部品1
 48
50.0
100
AcDbLine
 10
15112.82958141817
 20
9418.736797361971
 30
0.0
 11
15077.32958141817
 21
9418.736797361971
 31
0.0
  0
LINE
  5
1ACF3
330
747D
100
AcDbEntity
  8
部品1
 48
50.0
100
AcDbLine
 10
15077.32958141817
 20
9418.736797361971
 30
0.0
 11
15077.32958141817
 21
9430.736797361971
 31
0.0
  0
LINE
  5
1ACF4
330
747D
100
AcDbEntity
  8
部品1
 48
50.0
100
AcDbLine
 10
15077.32958141817
 20
9430.736797361971
 30
0.0
 11
15062.32958141817
 21
9430.736797361971
 31
0.0
  0
LINE
  5
1ACF5
330
747D
100
AcDbEntity
  8
部品1
 48
50.0
100
AcDbLine
 10
15062.32958141817
 20
9430.736797361971
 30
0.0
 11
15062.32958141817
 21
9418.736797361971
 31
0.0
  0
LINE
  5
1ACF6
330
747D
100
AcDbEntity
  8
部品1
 48
50.0
100
AcDbLine
 10
15062.32958141816
 20
9470.73679736197
 30
0.0
 11
15053.32958141816
 21
9470.73679736197
 31
0.0
  0
LINE
  5
1ACF7
330
747D
100
AcDbEntity
  8
部品1
 48
50.0
100
AcDbLine
 10
14766.82958141816
 20
9418.736797361971
 30
0.0
 11
14772.82958141816
 21
9418.736797361971
 31
0.0
  0
LINE
  5
1ACF8
330
747D
100
AcDbEntity
  8
部品1
 48
50.0
100
AcDbLine
 10
14732.82958141816
 20
9418.736797361971
 30
0.0
 11
14738.82958141816
 21
9418.736797361971
 31
0.0
  0
LINE
  5
1ACF9
330
747D
100
AcDbEntity
  8
部品1
 48
50.0
100
AcDbLine
 10
14738.82958141816
 20
9412.73679736197
 30
0.0
 11
14766.82958141816
 21
9412.736797361969
 31
0.0
  0
LINE
  5
1ACFA
330
747D
100
AcDbEntity
  8
部品1
 48
50.0
100
AcDbLine
 10
14766.82958141816
 20
9418.736797361971
 30
0.0
 11
14766.82958141816
 21
9412.73679736197
 31
0.0
  0
LINE
  5
1ACFB
330
747D
100
AcDbEntity
  8
部品1
 48
50.0
100
AcDbLine
 10
14738.82958141816
 20
9412.73679736197
 30
0.0
 11
14738.82958141816
 21
9418.736797361971
 31
0.0
  0
LINE
  5
1ACFC
330
747D
100
AcDbEntity
  8
部品1
 48
50.0
100
AcDbLine
 10
14772.82958141816
 20
9418.736797361971
 30
0.0
 11
14772.82958141816
 21
9363.736797361971
 31
0.0
  0
LINE
  5
1ACFD
330
747D
100
AcDbEntity
  8
部品1
 48
50.0
100
AcDbLine
 10
14732.82958141816
 20
9363.736797361971
 30
0.0
 11
14732.82958141816
 21
9418.736797361971
 31
0.0
  0
LINE
  5
1ACFE
330
747D
100
AcDbEntity
  8
部品1
 48
50.0
100
AcDbLine
 10
15181.82958141817
 20
9028.73679736197
 30
0.0
 11
15181.82958141817
 21
9228.736797361971
 31
0.0
  0
LINE
  5
1ACFF
330
747D
100
AcDbEntity
  8
破線
 48
3.0
100
AcDbLine
 10
15060.82958141817
 20
9228.736797361971
 30
0.0
 11
15060.82958141817
 21
9122.736797361971
 31
0.0
  0
LINE
  5
1AD00
330
747D
100
AcDbEntity
  8
破線
 48
3.0
100
AcDbLine
 10
15102.82958141817
 20
9228.736797361971
 30
0.0
 11
15102.82958141817
 21
9122.736797361971
 31
0.0
  0
LINE
  5
1AD01
330
747D
100
AcDbEntity
  8
部品1
 48
50.0
100
AcDbLine
 10
14981.82958141817
 20
9228.736797361971
 30
0.0
 11
14981.82958141817
 21
9028.73679736197
 31
0.0
  0
LINE
  5
1AD02
330
747D
100
AcDbEntity
  8
細線
 48
50.0
100
AcDbLine
 10
15025.53913320722
 20
9028.73679736197
 30
0.0
 11
15181.82958141817
 21
9185.027245572921
 31
0.0
  0
LINE
  5
1AD03
330
747D
100
AcDbEntity
  8
細線
 48
50.0
100
AcDbLine
 10
14981.82958141818
 20
9081.994236983929
 30
0.0
 11
15128.57214179619
 21
9228.736797361973
 31
0.0
  0
LINE
  5
1AD04
330
747D
100
AcDbEntity
  8
細線
 48
50.0
100
AcDbLine
 10
14981.82958141817
 20
9135.027245572921
 30
0.0
 11
15075.53913320723
 21
9228.736797361971
 31
0.0
  0
LINE
  5
1AD05
330
747D
100
AcDbEntity
  8
細線
 48
50.0
100
AcDbLine
 10
14981.82958141817
 20
9108.510741278426
 30
0.0
 11
15102.0556375017
 21
9228.736797361971
 31
0.0
  0
LINE
  5
1AD06
330
747D
100
AcDbEntity
  8
細線
 48
50.0
100
AcDbLine
 10
15052.05563750172
 20
9028.73679736197
 30
0.0
 11
15181.82958141817
 21
9158.510741278426
 31
0.0
  0
LINE
  5
1AD07
330
747D
100
AcDbEntity
  8
細線
 48
50.0
100
AcDbLine
 10
15078.57214179622
 20
9028.73679736197
 30
0.0
 11
15181.82958141817
 21
9131.994236983928
 31
0.0
  0
LINE
  5
1AD08
330
747D
100
AcDbEntity
  8
破線
 48
3.0
100
AcDbLine
 10
15060.82958141817
 20
9122.736797361971
 30
0.0
 11
15102.82958141817
 21
9122.736797361971
 31
0.0
  0
LINE
  5
1AD09
330
747D
100
AcDbEntity
  8
部品1
 48
50.0
100
AcDbLine
 10
14981.82958141817
 20
9028.73679736197
 30
0.0
 11
15181.82958141817
 21
9028.73679736197
 31
0.0
  0
LINE
  5
1AD0A
330
747D
100
AcDbEntity
  8
部品1
 48
50.0
100
AcDbLine
 10
15112.82958141817
 20
9363.736797361971
 30
0.0
 11
15112.82958141817
 21
9228.736797361971
 31
0.0
  0
LINE
  5
1AD0B
330
747D
100
AcDbEntity
  8
部品1
 48
50.0
100
AcDbLine
 10
14912.82958141817
 20
9363.736797361971
 30
0.0
 11
14912.82958141817
 21
9228.736797361971
 31
0.0
  0
LINE
  5
1AD0C
330
747D
100
AcDbEntity
  8
細線
 48
50.0
100
AcDbLine
 10
15112.82958141816
 20
9276.010741278424
 30
0.0
 11
15025.10352533462
 21
9363.736797361973
 31
0.0
  0
LINE
  5
1AD0D
330
747D
100
AcDbEntity
  8
細線
 48
50.0
100
AcDbLine
 10
15036.62002962911
 20
9228.736797361971
 30
0.0
 11
14912.82958141817
 21
9352.52724557292
 31
0.0
  0
LINE
  5
1AD0E
330
747D
100
AcDbEntity
  8
細線
 48
50.0
100
AcDbLine
 10
15010.10352533462
 20
9228.736797361971
 30
0.0
 11
14912.82958141817
 21
9326.010741278425
 31
0.0
  0
LINE
  5
1AD0F
330
747D
100
AcDbEntity
  8
細線
 48
50.0
100
AcDbLine
 10
15112.82958141817
 20
9302.527245572919
 30
0.0
 11
15051.62002962911
 21
9363.736797361971
 31
0.0
  0
MTEXT
  5
1AD10
102
{ACAD_REACTORS
330
1AD11
102
}
330
747D
100
AcDbEntity
  8
寸法
 62
     7
 48
50.0
100
AcDbMText
 10
15479.26870296736
 20
11417.92104541549
 30
0.0
 40
150.0
 41
0.0
 71
     4
 72
     1
  1
\A1;雨樋
  7
STYLE1
 73
     1
 44
1.0
  0
LEADER
  5
1AD11
330
747D
100
AcDbEntity
  8
寸法
 48
50.0
100
AcDbLeader
  3
INABA_S50G
 71
     0
 73
     0
 74
     0
 75
     1
 40
150.0
 41
360.0
 76
     3
 10
15193.82958141817
 20
11579.546036235
 30
0.0
 10
15329.26870296736
 20
11317.92104541549
 30
0.0
 10
15454.26870296736
 20
11317.92104541549
 30
0.0
340
1AD10
1001
ACAD
1000
DSTYLE
1002
{
1070
     6
1000
DOTSMALL
1002
}
  0
MTEXT
  5
1AD12
102
{ACAD_REACTORS
330
1AD13
102
}
330
747D
100
AcDbEntity
  8
寸法
 62
     7
 48
50.0
100
AcDbMText
 10
15399.71452815759
 20
11208.8835600829
 30
0.0
 40
150.0
 41
0.0
 71
     4
 72
     1
  1
\A1;桁後
  7
STYLE1
 73
     1
 44
1.0
  0
LEADER
  5
1AD13
330
747D
100
AcDbEntity
  8
寸法
 48
50.0
100
AcDbLeader
  3
INABA_S50G
 71
     0
 73
     0
 74
     0
 75
     1
 40
150.0
 41
360.0000000000001
 76
     3
 10
15112.82958141817
 20
11602.2065891273
 30
0.0
 10
15249.71452815759
 20
11108.8835600829
 30
0.0
 10
15374.71452815759
 20
11108.8835600829
 30
0.0
340
1AD12
1001
ACAD
1000
DSTYLE
1002
{
1070
     6
1000
DOTSMALL
1002
}
  0
MTEXT
  5
1AD14
102
{ACAD_REACTORS
330
1AD15
102
}
330
747D
100
AcDbEntity
  8
寸法
 62
     7
 48
50.0
100
AcDbMText
 10
15508.68199506868
 20
12066.64748534792
 30
0.0
 40
150.0
 41
0.0
 71
     4
 72
     1
  1
\A1;鼻隠シ後
  7
STYLE1
 73
     1
 44
1.0
  0
LEADER
  5
1AD15
330
747D
100
AcDbEntity
  8
寸法
 48
50.0
100
AcDbLeader
  3
INABA_S50G
 71
     0
 73
     0
 74
     0
 75
     1
 40
150.0
 41
719.9999999999995
 76
     3
 10
15206.6586310141
 20
11725.13210353546
 30
0.0
 10
15358.68199506869
 20
11966.64748534792
 30
0.0
 10
15483.68199506868
 20
11966.64748534792
 30
0.0
340
1AD14
1001
ACAD
1000
DSTYLE
1002
{
1070
     6
1000
DOTSMALL
1002
}
  0
ARC
  5
1AD16
330
747D
100
AcDbEntity
  8
部品1
100
AcDbCircle
 10
15180.36498189196
 20
11635.15608030179
 30
0.0
 40
15.5
100
AcDbArc
 50
269.0887044041854
 51
353.9245361249208
  0
LINE
  5
1AD17
330
747D
100
AcDbEntity
  8
部品1
 48
50.0
100
AcDbLine
 10
14437.82958141817
 20
11583.73679736196
 30
0.0
 11
14437.82958141817
 21
11688.23679736196
 31
0.0
  0
MTEXT
  5
1AD18
102
{ACAD_REACTORS
330
1AD19
102
}
330
747D
100
AcDbEntity
  8
寸法
 62
     7
 48
50.0
100
AcDbMText
 10
14825.28840950222
 20
11362.92239508256
 30
0.0
 40
150.0
 41
0.0
 71
     6
 72
     1
  1
\A1;回リ縁
  7
STYLE1
 73
     1
 44
1.0
  0
LEADER
  5
1AD19
330
747D
100
AcDbEntity
  8
寸法
 48
50.0
100
AcDbLeader
  3
INABA_S50G
 71
     0
 73
     0
 75
     1
 40
150.0
 41
530.0000000000001
 76
     3
 10
15049.17272716867
 20
11550.57994311248
 30
0.0
 10
14975.28840950222
 20
11262.92239508256
 30
0.0
 10
14850.28840950222
 20
11262.92239508256
 30
0.0
340
1AD18
1001
ACAD
1000
DSTYLE
1002
{
1070
     6
1000
DOTSMALL
1002
}
  0
LINE
  5
1AD1A
330
747D
100
AcDbEntity
  8
部品1
 48
50.0
100
AcDbLine
 10
14487.82958141817
 20
11583.73679736196
 30
0.0
 11
14437.82958141817
 21
11583.73679736196
 31
0.0
  0
LINE
  5
1AD1B
330
747D
100
AcDbEntity
  8
部品1
 48
50.0
100
AcDbLine
 10
14487.82958141817
 20
11595.73679736196
 30
0.0
 11
14487.82958141817
 21
11583.73679736196
 31
0.0
  0
LINE
  5
1AD1C
330
747D
100
AcDbEntity
  8
部品1
 48
50.0
100
AcDbLine
 10
14444.82958141817
 20
11537.59466173824
 30
0.0
 11
14444.82958141817
 21
11454.72281612389
 31
0.0
  0
LINE
  5
1AD1D
330
747D
100
AcDbEntity
  8
部品1
 48
50.0
100
AcDbLine
 10
14480.82958141817
 20
11537.59466173824
 30
0.0
 11
14480.82958141817
 21
11454.72281612389
 31
0.0
  0
LINE
  5
1AD1E
330
747D
100
AcDbEntity
  8
部品1
 48
50.0
100
AcDbLine
 10
15047.82958141816
 20
11583.73679736196
 30
0.0
 11
15025.82958141816
 21
11583.73679736196
 31
0.0
  0
LINE
  5
1AD1F
330
747D
100
AcDbEntity
  8
部品1
 48
50.0
100
AcDbLine
 10
15047.82958141816
 20
11583.73679736196
 30
0.0
 11
15025.82958141816
 21
11583.73679736196
 31
0.0
  0
LINE
  5
1AD20
330
747D
100
AcDbEntity
  8
部品1
 48
50.0
100
AcDbLine
 10
15039.18744579443
 20
11563.73679736197
 30
0.0
 11
15047.82958141816
 21
11563.73679736197
 31
0.0
  0
ARC
  5
1AD21
330
747D
100
AcDbEntity
  8
部品1
100
AcDbCircle
 10
15052.7082610746
 20
11545.63019565301
 30
0.0
 40
1.0
100
AcDbArc
 50
135.0000000000011
 51
225.0000000000003
  0
LINE
  5
1AD22
330
747D
100
AcDbEntity
  8
部品1
100
AcDbLine
 10
15052.00107523479
 20
11546.33722336673
 30
0.0
 11
15052.7082610746
 21
11547.04440920654
 31
0.0
  0
LINE
  5
1AD23
330
747D
100
AcDbEntity
  8
部品1
100
AcDbLine
 10
15052.7082610746
 20
11547.04440920654
 30
0.0
 11
15045.63719326274
 21
11554.11547701841
 31
0.0
  0
ARC
  5
1AD24
330
747D
100
AcDbEntity
  8
部品1
100
AcDbCircle
 10
15044.22297970037
 20
11554.11547701841
 30
0.0
 40
1.0
100
AcDbArc
 50
225.0
 51
315.0
  0
LINE
  5
1AD25
330
747D
100
AcDbEntity
  8
部品1
100
AcDbLine
 10
15043.51587291917
 20
11553.40837023722
 30
0.0
 11
15038.18744579443
 21
11558.73679736197
 31
0.0
  0
LINE
  5
1AD26
330
747D
100
AcDbEntity
  8
部品1
100
AcDbLine
 10
15045.63719326274
 20
11554.11547701841
 30
0.0
 11
15044.93008648155
 21
11553.40837023722
 31
0.0
  0
LINE
  5
1AD27
330
747D
100
AcDbEntity
  8
部品1
100
AcDbLine
 10
15039.18744579443
 20
11559.73679736197
 30
0.0
 11
15039.18744579443
 21
11563.73679736197
 31
0.0
  0
LINE
  5
1AD28
330
747D
100
AcDbEntity
  8
部品1
100
AcDbLine
 10
15038.18744579443
 20
11558.73679736197
 30
0.0
 11
15038.18744579443
 21
11559.73679736197
 31
0.0
  0
LINE
  5
1AD29
330
747D
100
AcDbEntity
  8
部品1
100
AcDbLine
 10
15038.18744579443
 20
11559.73679736197
 30
0.0
 11
15039.18744579443
 21
11559.73679736197
 31
0.0
  0
LINE
  5
1AD2A
330
747D
100
AcDbEntity
  8
部品1
 48
50.0
100
AcDbLine
 10
15047.82958141816
 20
11563.73679736196
 30
0.0
 11
15047.82958141816
 21
11583.73679736196
 31
0.0
  0
LINE
  5
1AD2B
330
747D
100
AcDbEntity
  8
部品1
100
AcDbLine
 10
15059.32958141816
 20
11537.59466173824
 30
0.0
 11
15062.32958141816
 21
11537.59466173824
 31
0.0
  0
LINE
  5
1AD2C
330
747D
100
AcDbEntity
  8
部品1
 48
50.0
100
AcDbLine
 10
15112.82958141816
 20
11548.73679736196
 30
0.0
 11
15062.82958141816
 21
11548.73679736196
 31
0.0
  0
LINE
  5
1AD2D
330
747D
100
AcDbEntity
  8
部品1
 48
50.0
100
AcDbLine
 10
15062.82958141816
 20
11548.73679736196
 30
0.0
 11
15062.32958141816
 21
11548.73679736196
 31
0.0
  0
LINE
  5
1AD2E
330
747D
100
AcDbEntity
  8
部品1
100
AcDbLine
 10
15059.32958141816
 20
11537.59466173824
 30
0.0
 11
15052.00115429341
 21
11544.92308887182
 31
0.0
  0
LINE
  5
1AD2F
330
747D
100
AcDbEntity
  8
部品1
 48
50.0
100
AcDbLine
 10
15062.82958141816
 20
11548.73679736196
 30
0.0
 11
15047.82958141816
 21
11563.73679736196
 31
0.0
  0
LINE
  5
1AD30
330
747D
100
AcDbEntity
  8
部品1
100
AcDbLine
 10
15112.82958141817
 20
11573.73679736197
 30
0.0
 11
15112.82958141817
 21
11533.73679736197
 31
0.0
  0
LINE
  5
1AD31
330
747D
100
AcDbEntity
  8
部品1
100
AcDbLine
 10
15180.11846310262
 20
11619.65804079718
 30
0.0
 11
15171.11960145478
 21
11619.80118073938
 31
0.0
  0
LINE
  5
1AD32
330
747D
100
AcDbEntity
  8
部品1
100
AcDbLine
 10
15193.82958141817
 20
11579.546036235
 30
0.0
 11
15193.82958141817
 21
11604.546036235
 31
0.0
  0
LINE
  5
1AD33
330
747D
100
AcDbEntity
  8
部品1
100
AcDbLine
 10
15143.82958141817
 20
11569.546036235
 30
0.0
 11
15183.82958141817
 21
11569.546036235
 31
0.0
  0
ARC
  5
1AD34
330
747D
100
AcDbEntity
  8
部品1
100
AcDbCircle
 10
15143.82958141817
 20
11579.546036235
 30
0.0
 40
10.0
100
AcDbArc
 50
180.0
 51
270.0
  0
LINE
  5
1AD35
330
747D
100
AcDbEntity
  8
部品1
100
AcDbLine
 10
15133.82958141816
 20
11620.39433257585
 30
0.0
 11
15133.82958141817
 21
11579.546036235
 31
0.0
  0
LINE
  5
1AD36
330
747D
100
AcDbEntity
  8
部品1
100
AcDbLine
 10
15133.82958141817
 20
11618.546036235
 30
0.0
 11
15133.82958141817
 21
11591.546036235
 31
0.0
  0
ARC
  5
1AD37
330
747D
100
AcDbEntity
  8
部品1
100
AcDbCircle
 10
15183.82958141817
 20
11579.546036235
 30
0.0
 40
10.0
100
AcDbArc
 50
270.0
 51
0.0
  0
LINE
  5
1AD38
330
747D
100
AcDbEntity
  8
細線
 48
50.0
100
AcDbLine
 10
15171.11960145478
 20
11619.80118073938
 30
0.0
 11
15112.82958141816
 21
11620.72836802431
 31
0.0
  0
MTEXT
  5
1AD39
102
{ACAD_REACTORS
330
1AD3A
102
}
330
747D
100
AcDbEntity
  8
寸法
 62
     7
 48
50.0
100
AcDbMText
 10
14670.81787053858
 20
12198.22045057759
 30
0.0
 40
150.0
 41
0.0
 71
     6
 72
     1
  1
\A1;妻板
  7
STYLE1
 73
     1
 44
1.0
  0
LEADER
  5
1AD3A
330
747D
100
AcDbEntity
  8
寸法
 48
50.0
100
AcDbLeader
  3
INABA_S50G
 71
     0
 73
     0
 75
     1
 40
150.0
 41
319.9999999999998
 76
     3
 10
14965.64168250933
 20
11717.75563517686
 30
0.0
 10
14820.81787053858
 20
12098.22045057759
 30
0.0
 10
14695.81787053858
 20
12098.22045057759
 30
0.0
340
1AD39
1001
ACAD
1000
DSTYLE
1002
{
1070
     6
1000
DOTSMALL
1002
}
  0
LINE
  5
1AD3B
330
747D
100
AcDbEntity
  8
細線
 48
50.0
100
AcDbLine
 10
14468.71062356733
 20
11692.38555024546
 30
0.0
 11
14468.08429201475
 21
11676.39781404591
 31
0.0
  0
LINE
  5
1AD3C
330
747D
100
AcDbEntity
  8
細線
 48
50.0
100
AcDbLine
 10
14488.69529381676
 20
11691.60263580472
 30
0.0
 11
14488.06896226418
 21
11675.61489960518
 31
0.0
  0
LINE
  5
1AD3D
330
747D
100
AcDbEntity
  8
細線
 48
50.0
100
AcDbLine
 10
14468.08429201475
 20
11676.39781404591
 30
0.0
 11
14488.06896226417
 21
11675.61489960518
 31
0.0
  0
LINE
  5
1AD3E
330
747D
100
AcDbEntity
  8
部品1
 48
50.0
100
AcDbLine
 10
14467.82958141817
 20
11675.73679736196
 30
0.0
 11
14487.82958141817
 21
11674.73679736196
 31
0.0
  0
LINE
  5
1AD3F
330
747D
100
AcDbEntity
  8
部品1
 48
50.0
100
AcDbLine
 10
14437.82958141817
 20
11688.23679736196
 30
0.0
 11
14467.82958141817
 21
11686.73679736196
 31
0.0
  0
LINE
  5
1AD40
330
747D
100
AcDbEntity
  8
部品1
 48
50.0
100
AcDbLine
 10
14467.82958141817
 20
11686.73679736196
 30
0.0
 11
14467.82958141817
 21
11675.73679736196
 31
0.0
  0
LINE
  5
1AD41
330
747D
100
AcDbEntity
  8
細線
 48
50.0
100
AcDbLine
 10
15159.34272311125
 20
11687.34639559791
 30
0.0
 11
15158.48151722645
 21
11665.36325832354
 31
0.0
  0
LINE
  5
1AD42
330
747D
100
AcDbEntity
  8
細線
 48
50.0
100
AcDbLine
 10
15063.55433354165
 20
11669.08210191702
 30
0.0
 11
15062.92800198906
 21
11653.09436571748
 31
0.0
  0
LINE
  5
1AD43
330
747D
100
AcDbEntity
  8
細線
 48
50.0
100
AcDbLine
 10
15083.53900379108
 20
11668.29918747629
 30
0.0
 11
15082.91267223849
 21
11652.31145127675
 31
0.0
  0
LINE
  5
1AD44
330
747D
100
AcDbEntity
  8
細線
 48
50.0
100
AcDbLine
 10
15062.92800198906
 20
11653.09436571748
 30
0.0
 11
15082.91267223849
 21
11652.31145127674
 31
0.0
  0
LINE
  5
1AD45
330
747D
100
AcDbEntity
  8
部品1
 48
50.0
100
AcDbLine
 10
15117.82958141816
 20
11643.73679736196
 30
0.0
 11
15112.82958141816
 21
11643.73679736196
 31
0.0
  0
LINE
  5
1AD46
330
747D
100
AcDbEntity
  8
部品1
 48
50.0
100
AcDbLine
 10
15117.82958141816
 20
11663.73679736196
 30
0.0
 11
15117.82958141816
 21
11643.73679736196
 31
0.0
  0
LINE
  5
1AD47
330
747D
100
AcDbEntity
  8
部品1
 48
50.0
100
AcDbLine
 10
15117.82958141816
 20
11663.73679736196
 30
0.0
 11
15084.32958141816
 21
11663.73679736196
 31
0.0
  0
LINE
  5
1AD48
330
747D
100
AcDbEntity
  8
部品1
 48
50.0
100
AcDbLine
 10
15084.32958141816
 20
11663.73679736196
 30
0.0
 11
15084.32958141816
 21
11648.73679736196
 31
0.0
  0
LINE
  5
1AD49
330
747D
100
AcDbEntity
  8
部品1
 48
50.0
100
AcDbLine
 10
15084.32958141816
 20
11648.73679736196
 30
0.0
 11
15060.82958141816
 21
11648.73679736196
 31
0.0
  0
LINE
  5
1AD4A
330
747D
100
AcDbEntity
  8
部品1
 48
50.0
100
AcDbLine
 10
15189.73767084558
 20
11734.76263097583
 30
0.0
 11
15192.83301119891
 21
11734.71390573651
 31
0.0
  0
ARC
  5
1AD4B
330
747D
100
AcDbEntity
  8
部品1
100
AcDbCircle
 10
15189.76128014115
 20
11736.26244516471
 30
0.0
 40
1.5
100
AcDbArc
 50
200.4039185775898
 51
269.0981540988988
  0
ARC
  5
1AD4C
330
747D
100
AcDbEntity
  8
部品1
100
AcDbCircle
 10
15182.43937643104
 20
11741.60473085031
 30
0.0
 40
3.5
100
AcDbArc
 50
20.40391857757644
 51
88.96475328401214
  0
ARC
  5
1AD4D
330
747D
100
AcDbEntity
  8
部品1
100
AcDbCircle
 10
15192.32958141817
 20
11719.22208342744
 30
0.0
 40
15.5
100
AcDbArc
 50
353.924536124901
 51
88.13874351680366
  0
LINE
  5
1AD4E
330
747D
100
AcDbEntity
  8
部品1
100
AcDbLine
 10
15188.33578614471
 20
11735.79220093534
 30
0.0
 11
15185.71977994811
 21
11742.82495737241
 31
0.0
  0
LINE
  5
1AD4F
330
747D
100
AcDbEntity
  8
部品1
100
AcDbLine
 10
15207.74287520147
 20
11717.58489504699
 30
0.0
 11
15199.54444257119
 21
11640.55806431739
 31
0.0
  0
ARC
  5
1AD50
330
747D
100
AcDbEntity
  8
部品1
 48
50.0
100
AcDbCircle
 10
15198.66272143308
 20
11636.99820928773
 30
0.0
 40
2.5
100
AcDbArc
 50
94.83000612260093
 51
173.9245361249088
  0
ARC
  5
1AD51
330
747D
100
AcDbEntity
  8
部品1
 48
50.0
100
AcDbCircle
 10
15198.35118254029
 20
11640.68507021756
 30
0.0
 40
1.199999999999999
100
AcDbArc
 50
274.830006122604
 51
353.924536124901
  0
LINE
  5
1AD52
330
747D
100
AcDbEntity
  8
部品1
100
AcDbLine
 10
15196.17676303538
 20
11637.26280491307
 30
0.0
 11
15195.77792395764
 21
11633.51558742467
 31
0.0
  0
LINE
  5
1AD53
330
747D
100
AcDbEntity
  8
部品1
 48
50.0
100
AcDbLine
 10
15206.95242204339
 20
11710.15834117355
 30
0.0
 11
15180.80660766724
 21
11710.63080728955
 31
0.0
  0
LINE
  5
1AD54
330
747D
100
AcDbEntity
  8
部品1
 48
50.0
100
AcDbLine
 10
15180.80660766724
 20
11710.63080728955
 30
0.0
 11
15151.39578928962
 21
11688.15851852408
 31
0.0
  0
LINE
  5
1AD55
330
747D
100
AcDbEntity
  8
部品1
 48
50.0
100
AcDbLine
 10
15151.39578928962
 20
11688.15851852408
 30
0.0
 11
15135.39840097363
 21
11688.44759821443
 31
0.0
  0
ENDSEC
  0
SECTION
  2
OBJECTS
  0
DICTIONARY
  5
7471
330
0
100
AcDbDictionary
281
     1
  3
ACAD_GROUP
350
7472
  3
ACAD_LAYOUT
350
1AE4E
  3
ACAD_MLINESTYLE
350
7473
  3
ACAD_PLOTSETTINGS
350
1AE4F
  3
ACAD_PLOTSTYLENAME
350
1AE4C
  3
ACDBHEADERROUNDTRIPXREC
350
1AEC7
  3
ACDBVARIABLEDICTIONARY
350
123D8
  3
CONTENTDICTIONARY
350
E71C
  3
DRAWINGVARIABLESDICT
350
F3B9
  0
DICTIONARY
  5
1AE7E
330
747D
100
AcDbDictionary
280
     1
281
     1
  3
ACAD_LAYOUTSELFREF
360
1AE7F
  0
DICTIONARY
  5
1AE7C
330
747A
100
AcDbDictionary
280
     1
281
     1
  3
ACAD_LAYOUTSELFREF
360
1AE7D
  0
DICTIONARY
  5
7472
102
{ACAD_REACTORS
330
7471
102
}
330
7471
100
AcDbDictionary
281
     1
  0
DICTIONARY
  5
1AE4E
102
{ACAD_REACTORS
330
7471
102
}
330
7471
100
AcDbDictionary
281
     1
  3
Model
350
1AE50
  3
ﾚｲｱｳﾄ1
350
1AE51
  0
DICTIONARY
  5
7473
102
{ACAD_REACTORS
330
7471
102
}
330
7471
100
AcDbDictionary
281
     1
  3
STANDARD
350
7480
  0
DICTIONARY
  5
1AE4F
102
{ACAD_REACTORS
330
7471
102
}
330
7471
100
AcDbDictionary
281
     1
  0
ACDBDICTIONARYWDFLT
  5
1AE4C
102
{ACAD_REACTORS
330
7471
102
}
330
7471
100
AcDbDictionary
281
     1
  3
Normal
350
1AE4D
100
AcDbDictionaryWithDefault
340
1AE4D
  0
DICTIONARY
  5
1AEC7
102
{ACAD_REACTORS
330
7471
102
}
330
7471
100
AcDbDictionary
281
     1
  3
CEPSNTYPE
350
1AED1
  3
DIMSTYLEDATA
350
1AED5
  3
FINGERPRINTGUID
350
1AED2
  3
HYPERLINKBASE
350
1AECA
  3
INSUNITS
350
1AED0
  3
LAYOUTDICT
350
1AECC
  3
LWETCUNION
350
1AECF
  3
PLOTSETDICT
350
1AECD
  3
PLOTSTYLNAMDICT
350
1AECE
  3
PSVPSCALE
350
1AED4
  3
PUCSBASE
350
1AED8
  3
PUCSORGBACK
350
1AEDE
  3
PUCSORGBOTTOM
350
1AEDA
  3
PUCSORGFRONT
350
1AEDD
  3
PUCSORGLEFT
350
1AEDB
  3
PUCSORGRIGHT
350
1AEDC
  3
PUCSORGTOP
350
1AED9
  3
PUCSORTHOREF
350
1AED6
  3
PUCSORTHOVIEW
350
1AED7
  3
STYLESHEET
350
1AECB
  3
TSTACKALIGN
350
1AEC8
  3
TSTACKSIZE
350
1AEC9
  3
UCSBASE
350
1AEE1
  3
UCSORGBACK
350
1AEE7
  3
UCSORGBOTTOM
350
1AEE3
  3
UCSORGFRONT
350
1AEE6
  3
UCSORGLEFT
350
1AEE4
  3
UCSORGRIGHT
350
1AEE5
  3
UCSORGTOP
350
1AEE2
  3
UCSORTHOREF
350
1AEDF
  3
UCSORTHOVIEW
350
1AEE0
  3
VERSIONGUID
350
1AED3
  0
DICTIONARY
  5
123D8
102
{ACAD_REACTORS
330
7471
102
}
330
7471
100
AcDbDictionary
281
     1
  3
DIMASSOC
350
1AEBE
  3
SORTENTS
350
123D9
  0
DICTIONARY
  5
E71C
102
{ACAD_REACTORS
330
7471
102
}
330
7471
100
AcDbDictionary
281
     1
  0
DICTIONARY
  5
F3B9
102
{ACAD_REACTORS
330
7471
102
}
330
7471
100
AcDbDictionary
281
     1
1001
DRAWINGVARIABLESXDATA
1000
POLARMODE
1000
1
  0
XRECORD
  5
1AE7F
102
{ACAD_REACTORS
330
1AE7E
102
}
330
1AE7E
100
AcDbXrecord
280
     1
340
747D
  0
XRECORD
  5
1AE7D
102
{ACAD_REACTORS
330
1AE7C
102
}
330
1AE7C
100
AcDbXrecord
280
     1
340
747A
  0
LAYOUT
  5
1AE50
102
{ACAD_REACTORS
330
1AE4E
102
}
330
1AE4E
100
AcDbPlotSettings
  1

  2
Canon LBP-730
  4

  6

 40
0.0
 41
0.0
 42
0.0
 43
0.0
 44
0.0
 45
0.0
 46
0.0
 47
0.0
 48
0.0
 49
0.0
140
0.0
141
0.0
142
1.0
143
1.0
 70
  1712
 72
     0
 73
     0
 74
     0
  7

 75
     0
147
1.0
148
0.0
149
0.0
100
AcDbLayout
  1
Model
 70
     1
 71
     0
 10
0.0
 20
0.0
 11
12.0
 21
9.0
 12
0.0
 22
0.0
 32
0.0
 14
0.0
 24
0.0
 34
0.0
 15
0.0
 25
0.0
 35
0.0
146
0.0
 13
0.0
 23
0.0
 33
0.0
 16
1.0
 26
0.0
 36
0.0
 17
0.0
 27
1.0
 37
0.0
 76
     0
330
747D
  0
LAYOUT
  5
1AE51
102
{ACAD_REACTORS
330
1AE4E
102
}
330
1AE4E
100
AcDbPlotSettings
  1

  2
Canon LBP-730
  4

  6

 40
0.0
 41
0.0
 42
0.0
 43
0.0
 44
0.0
 45
0.0
 46
0.0
 47
0.0
 48
0.0
 49
0.0
140
0.0
141
0.0
142
1.0
143
1.0
 70
   688
 72
     0
 73
     0
 74
     5
  7

 75
    16
147
1.0
148
0.0
149
0.0
100
AcDbLayout
  1
ﾚｲｱｳﾄ1
 70
     0
 71
     1
 10
0.0
 20
0.0
 11
420.0
 21
297.0
 12
0.0
 22
0.0
 32
0.0
 14
1.000000000000000E+20
 24
1.000000000000000E+20
 34
1.000000000000000E+20
 15
-1.000000000000000E+20
 25
-1.000000000000000E+20
 35
-1.000000000000000E+20
146
0.0
 13
0.0
 23
0.0
 33
0.0
 16
1.0
 26
0.0
 36
0.0
 17
0.0
 27
1.0
 37
0.0
 76
     0
330
747A
  0
MLINESTYLE
  5
7480
102
{ACAD_REACTORS
330
7473
102
}
330
7473
100
AcDbMlineStyle
  2
STANDARD
 70
     0
  3

 62
     0
 51
90.0
 52
90.0
 71
     2
 49
0.5
 62
   256
  6
BYLAYER
 49
-0.5
 62
   256
  6
BYLAYER
  0
ACDBPLACEHOLDER
  5
1AE4D
102
{ACAD_REACTORS
330
1AE4C
102
}
330
1AE4C
  0
XRECORD
  5
1AED1
102
{ACAD_REACTORS
330
1AEC7
102
}
330
1AEC7
100
AcDbXrecord
280
     1
 90
        0
  0
XRECORD
  5
1AED5
102
{ACAD_REACTORS
330
1AEC7
102
}
330
1AEC7
100
AcDbXrecord
280
     1
1000
DSTYLE
1002
{
1070
   341
340
F770
1070
   343
340
F770
1070
   344
340
F770
1002
}
  0
XRECORD
  5
1AED2
102
{ACAD_REACTORS
330
1AEC7
102
}
330
1AEC7
100
AcDbXrecord
280
     1
  1
{697DFE22-F946-11D6-AF94-00909916878D}
  0
XRECORD
  5
1AECA
102
{ACAD_REACTORS
330
1AEC7
102
}
330
1AEC7
100
AcDbXrecord
280
     1
  1

  0
XRECORD
  5
1AED0
102
{ACAD_REACTORS
330
1AEC7
102
}
330
1AEC7
100
AcDbXrecord
280
     1
 90
        0
  0
XRECORD
  5
1AECC
102
{ACAD_REACTORS
330
1AEC7
102
}
330
1AEC7
100
AcDbXrecord
280
     1
340
1AE4E
  0
XRECORD
  5
1AECF
102
{ACAD_REACTORS
330
1AEC7
102
}
330
1AEC7
100
AcDbXrecord
280
     1
 90
    14877
  0
XRECORD
  5
1AECD
102
{ACAD_REACTORS
330
1AEC7
102
}
330
1AEC7
100
AcDbXrecord
280
     1
340
1AE4F
  0
XRECORD
  5
1AECE
102
{ACAD_REACTORS
330
1AEC7
102
}
330
1AEC7
100
AcDbXrecord
280
     1
340
1AE4C
  0
XRECORD
  5
1AED4
102
{ACAD_REACTORS
330
1AEC7
102
}
330
1AEC7
100
AcDbXrecord
280
     1
 40
0.0
  0
XRECORD
  5
1AED8
102
{ACAD_REACTORS
330
1AEC7
102
}
330
1AEC7
100
AcDbXrecord
280
     1
340
0
  0
XRECORD
  5
1AEDE
102
{ACAD_REACTORS
330
1AEC7
102
}
330
1AEC7
100
AcDbXrecord
280
     1
 10
0.0
 20
0.0
 30
0.0
  0
XRECORD
  5
1AEDA
102
{ACAD_REACTORS
330
1AEC7
102
}
330
1AEC7
100
AcDbXrecord
280
     1
 10
0.0
 20
0.0
 30
0.0
  0
XRECORD
  5
1AEDD
102
{ACAD_REACTORS
330
1AEC7
102
}
330
1AEC7
100
AcDbXrecord
280
     1
 10
0.0
 20
0.0
 30
0.0
  0
XRECORD
  5
1AEDB
102
{ACAD_REACTORS
330
1AEC7
102
}
330
1AEC7
100
AcDbXrecord
280
     1
 10
0.0
 20
0.0
 30
0.0
  0
XRECORD
  5
1AEDC
102
{ACAD_REACTORS
330
1AEC7
102
}
330
1AEC7
100
AcDbXrecord
280
     1
 10
0.0
 20
0.0
 30
0.0
  0
XRECORD
  5
1AED9
102
{ACAD_REACTORS
330
1AEC7
102
}
330
1AEC7
100
AcDbXrecord
280
     1
 10
0.0
 20
0.0
 30
0.0
  0
XRECORD
  5
1AED6
102
{ACAD_REACTORS
330
1AEC7
102
}
330
1AEC7
100
AcDbXrecord
280
     1
340
0
  0
XRECORD
  5
1AED7
102
{ACAD_REACTORS
330
1AEC7
102
}
330
1AEC7
100
AcDbXrecord
280
     1
 70
     0
  0
XRECORD
  5
1AECB
102
{ACAD_REACTORS
330
1AEC7
102
}
330
1AEC7
100
AcDbXrecord
280
     1
  1

  0
XRECORD
  5
1AEC8
102
{ACAD_REACTORS
330
1AEC7
102
}
330
1AEC7
100
AcDbXrecord
280
     1
 90
        1
  0
XRECORD
  5
1AEC9
102
{ACAD_REACTORS
330
1AEC7
102
}
330
1AEC7
100
AcDbXrecord
280
     1
 90
       70
  0
XRECORD
  5
1AEE1
102
{ACAD_REACTORS
330
1AEC7
102
}
330
1AEC7
100
AcDbXrecord
280
     1
340
0
  0
XRECORD
  5
1AEE7
102
{ACAD_REACTORS
330
1AEC7
102
}
330
1AEC7
100
AcDbXrecord
280
     1
 10
0.0
 20
0.0
 30
0.0
  0
XRECORD
  5
1AEE3
102
{ACAD_REACTORS
330
1AEC7
102
}
330
1AEC7
100
AcDbXrecord
280
     1
 10
0.0
 20
0.0
 30
0.0
  0
XRECORD
  5
1AEE6
102
{ACAD_REACTORS
330
1AEC7
102
}
330
1AEC7
100
AcDbXrecord
280
     1
 10
0.0
 20
0.0
 30
0.0
  0
XRECORD
  5
1AEE4
102
{ACAD_REACTORS
330
1AEC7
102
}
330
1AEC7
100
AcDbXrecord
280
     1
 10
0.0
 20
0.0
 30
0.0
  0
XRECORD
  5
1AEE5
102
{ACAD_REACTORS
330
1AEC7
102
}
330
1AEC7
100
AcDbXrecord
280
     1
 10
0.0
 20
0.0
 30
0.0
  0
XRECORD
  5
1AEE2
102
{ACAD_REACTORS
330
1AEC7
102
}
330
1AEC7
100
AcDbXrecord
280
     1
 10
0.0
 20
0.0
 30
0.0
  0
XRECORD
  5
1AEDF
102
{ACAD_REACTORS
330
1AEC7
102
}
330
1AEC7
100
AcDbXrecord
280
     1
340
0
  0
XRECORD
  5
1AEE0
102
{ACAD_REACTORS
330
1AEC7
102
}
330
1AEC7
100
AcDbXrecord
280
     1
 70
     0
  0
XRECORD
  5
1AED3
102
{ACAD_REACTORS
330
1AEC7
102
}
330
1AEC7
100
AcDbXrecord
280
     1
  1
{697DFE24-F946-11D6-AF94-00909916878D}
  0
DICTIONARYVAR
  5
1AEBE
102
{ACAD_REACTORS
330
123D8
102
}
330
123D8
100
DictionaryVariables
280
     0
  1
1
  0
DICTIONARYVAR
  5
123D9
102
{ACAD_REACTORS
330
123D8
102
}
330
123D8
100
DictionaryVariables
280
     0
  1
96
  0
ENDSEC
  0
EOF
