  0
SECTION
  2
HEADER
  9
$ACADVER
  1
AC1015
  9
$ACADMAINTVER
 70
     6
  9
$DWGCODEPAGE
  3
ANSI_932
  9
$INSBASE
 10
0.0
 20
0.0
 30
0.0
  9
$EXTMIN
 10
174.9999999999993
 20
-0.0000000000001137
 30
0.0
  9
$EXTMAX
 10
20384.0
 20
14262.0
 30
0.0
  9
$LIMMIN
 10
0.0
 20
0.0
  9
$LIMMAX
 10
21000.0
 20
14850.0
  9
$ORTHOMODE
 70
     0
  9
$REGENMODE
 70
     1
  9
$FILLMODE
 70
     1
  9
$QTEXTMODE
 70
     0
  9
$MIRRTEXT
 70
     1
  9
$LTSCALE
 40
20.0
  9
$ATTMODE
 70
     1
  9
$TEXTSIZE
 40
4.0
  9
$TRACEWID
 40
1.0
  9
$TEXTSTYLE
  7
STYLE1
  9
$CLAYER
  8
寸法
  9
$CELTYPE
  6
BYLAYER
  9
$CECOLOR
 62
   256
  9
$CELTSCALE
 40
50.0
  9
$DISPSILH
 70
     0
  9
$DIMSCALE
 40
1.0
  9
$DIMASZ
 40
125.0
  9
$DIMEXO
 40
25.0
  9
$DIMDLI
 40
7.0
  9
$DIMRND
 40
0.0
  9
$DIMDLE
 40
0.0
  9
$DIMEXE
 40
75.0
  9
$DIMTP
 40
0.0
  9
$DIMTM
 40
0.0
  9
$DIMTXT
 40
150.0
  9
$DIMCEN
 40
0.0
  9
$DIMTSZ
 40
0.0
  9
$DIMTOL
 70
     0
  9
$DIMLIM
 70
     0
  9
$DIMTIH
 70
     0
  9
$DIMTOH
 70
     0
  9
$DIMSE1
 70
     0
  9
$DIMSE2
 70
     0
  9
$DIMTAD
 70
     3
  9
$DIMZIN
 70
     8
  9
$DIMBLK
  1

  9
$DIMASO
 70
     1
  9
$DIMSHO
 70
     1
  9
$DIMPOST
  1

  9
$DIMAPOST
  1

  9
$DIMALT
 70
     0
  9
$DIMALTD
 70
     2
  9
$DIMALTF
 40
0.0394
  9
$DIMLFAC
 40
1.0
  9
$DIMTOFL
 70
     1
  9
$DIMTVP
 40
0.0
  9
$DIMTIX
 70
     1
  9
$DIMSOXD
 70
     0
  9
$DIMSAH
 70
     1
  9
$DIMBLK1
  1
DOTSMALL
  9
$DIMBLK2
  1
DOTSMALL
  9
$DIMSTYLE
  2
INABA_S50G
  9
$DIMCLRD
 70
     0
  9
$DIMCLRE
 70
     0
  9
$DIMCLRT
 70
     7
  9
$DIMTFAC
 40
1.0
  9
$DIMGAP
 40
25.0
  9
$DIMJUST
 70
     0
  9
$DIMSD1
 70
     0
  9
$DIMSD2
 70
     0
  9
$DIMTOLJ
 70
     1
  9
$DIMTZIN
 70
     0
  9
$DIMALTZ
 70
     0
  9
$DIMALTTZ
 70
     0
  9
$DIMUPT
 70
     0
  9
$DIMDEC
 70
     1
  9
$DIMTDEC
 70
     4
  9
$DIMALTU
 70
     2
  9
$DIMALTTD
 70
     2
  9
$DIMTXSTY
  7
STYLE1
  9
$DIMAUNIT
 70
     0
  9
$DIMADEC
 70
     0
  9
$DIMALTRND
 40
0.0
  9
$DIMAZIN
 70
     0
  9
$DIMDSEP
 70
    46
  9
$DIMATFIT
 70
     3
  9
$DIMFRAC
 70
     0
  9
$DIMLDRBLK
  1
DOTSMALL
  9
$DIMLUNIT
 70
     2
  9
$DIMLWD
 70
    -2
  9
$DIMLWE
 70
    -2
  9
$DIMTMOVE
 70
     0
  9
$LUNITS
 70
     2
  9
$LUPREC
 70
     1
  9
$SKETCHINC
 40
1.0
  9
$FILLETRAD
 40
3.0
  9
$AUNITS
 70
     0
  9
$AUPREC
 70
     0
  9
$MENU
  1
acad
  9
$ELEVATION
 40
0.0
  9
$PELEVATION
 40
0.0
  9
$THICKNESS
 40
0.0
  9
$LIMCHECK
 70
     0
  9
$CHAMFERA
 40
0.0
  9
$CHAMFERB
 40
0.0
  9
$CHAMFERC
 40
0.0
  9
$CHAMFERD
 40
0.0
  9
$SKPOLY
 70
     0
  9
$TDCREATE
 40
2452335.452219212
  9
$TDUCREATE
 40
2452335.077219213
  9
$TDUPDATE
 40
2452595.500284143
  9
$TDUUPDATE
 40
2452595.125284144
  9
$TDINDWG
 40
1.2832581019
  9
$TDUSRTIMER
 40
1.2832581019
  9
$USRTIMER
 70
     1
  9
$ANGBASE
 50
0.0
  9
$ANGDIR
 70
     0
  9
$PDMODE
 70
     3
  9
$PDSIZE
 40
2.0
  9
$PLINEWID
 40
0.0
  9
$SPLFRAME
 70
     0
  9
$SPLINETYPE
 70
     6
  9
$SPLINESEGS
 70
     8
  9
$HANDSEED
  5
1B461
  9
$SURFTAB1
 70
     6
  9
$SURFTAB2
 70
     6
  9
$SURFTYPE
 70
     6
  9
$SURFU
 70
     6
  9
$SURFV
 70
     6
  9
$UCSBASE
  2

  9
$UCSNAME
  2

  9
$UCSORG
 10
0.0
 20
0.0
 30
0.0
  9
$UCSXDIR
 10
1.0
 20
0.0
 30
0.0
  9
$UCSYDIR
 10
0.0
 20
1.0
 30
0.0
  9
$UCSORTHOREF
  2

  9
$UCSORTHOVIEW
 70
     0
  9
$UCSORGTOP
 10
0.0
 20
0.0
 30
0.0
  9
$UCSORGBOTTOM
 10
0.0
 20
0.0
 30
0.0
  9
$UCSORGLEFT
 10
0.0
 20
0.0
 30
0.0
  9
$UCSORGRIGHT
 10
0.0
 20
0.0
 30
0.0
  9
$UCSORGFRONT
 10
0.0
 20
0.0
 30
0.0
  9
$UCSORGBACK
 10
0.0
 20
0.0
 30
0.0
  9
$PUCSBASE
  2

  9
$PUCSNAME
  2

  9
$PUCSORG
 10
0.0
 20
0.0
 30
0.0
  9
$PUCSXDIR
 10
1.0
 20
0.0
 30
0.0
  9
$PUCSYDIR
 10
0.0
 20
1.0
 30
0.0
  9
$PUCSORTHOREF
  2

  9
$PUCSORTHOVIEW
 70
     0
  9
$PUCSORGTOP
 10
0.0
 20
0.0
 30
0.0
  9
$PUCSORGBOTTOM
 10
0.0
 20
0.0
 30
0.0
  9
$PUCSORGLEFT
 10
0.0
 20
0.0
 30
0.0
  9
$PUCSORGRIGHT
 10
0.0
 20
0.0
 30
0.0
  9
$PUCSORGFRONT
 10
0.0
 20
0.0
 30
0.0
  9
$PUCSORGBACK
 10
0.0
 20
0.0
 30
0.0
  9
$USERI1
 70
     0
  9
$USERI2
 70
     0
  9
$USERI3
 70
     0
  9
$USERI4
 70
     0
  9
$USERI5
 70
     0
  9
$USERR1
 40
0.0
  9
$USERR2
 40
0.0
  9
$USERR3
 40
0.0
  9
$USERR4
 40
0.0
  9
$USERR5
 40
0.0
  9
$WORLDVIEW
 70
     1
  9
$SHADEDGE
 70
     3
  9
$SHADEDIF
 70
    70
  9
$TILEMODE
 70
     1
  9
$MAXACTVP
 70
    16
  9
$PINSBASE
 10
0.0
 20
0.0
 30
0.0
  9
$PLIMCHECK
 70
     0
  9
$PEXTMIN
 10
1.000000000000000E+20
 20
1.000000000000000E+20
 30
1.000000000000000E+20
  9
$PEXTMAX
 10
-1.000000000000000E+20
 20
-1.000000000000000E+20
 30
-1.000000000000000E+20
  9
$PLIMMIN
 10
0.0
 20
0.0
  9
$PLIMMAX
 10
420.0
 20
297.0
  9
$UNITMODE
 70
     0
  9
$VISRETAIN
 70
     0
  9
$PLINEGEN
 70
     0
  9
$PSLTSCALE
 70
     0
  9
$TREEDEPTH
 70
  3020
  9
$CMLSTYLE
  2
STANDARD
  9
$CMLJUST
 70
     0
  9
$CMLSCALE
 40
1.0
  9
$PROXYGRAPHICS
 70
     1
  9
$MEASUREMENT
 70
     1
  9
$CELWEIGHT
370
    -1
  9
$ENDCAPS
280
     0
  9
$JOINSTYLE
280
     0
  9
$LWDISPLAY
290
     0
  9
$INSUNITS
 70
     0
  9
$HYPERLINKBASE
  1

  9
$STYLESHEET
  1

  9
$XEDIT
290
     1
  9
$CEPSNTYPE
380
     0
  9
$PSTYLEMODE
290
     1
  9
$FINGERPRINTGUID
  2
{697DFE25-F946-11D6-AF94-00909916878D}
  9
$VERSIONGUID
  2
{697DFE27-F946-11D6-AF94-00909916878D}
  9
$EXTNAMES
290
     1
  9
$PSVPSCALE
 40
0.0
  9
$OLESTARTUP
290
     0
  0
ENDSEC
  0
SECTION
  2
CLASSES
  0
CLASS
  1
OLE2FRAME
  2
AcDbOle2Frame
  3
AutoCAD 2000
 90
    32768
280
     0
281
     1
  0
CLASS
  1
LWPOLYLINE
  2
AcDbPolyline
  3
AutoCAD 2000
 90
    32768
280
     0
281
     1
  0
CLASS
  1
HATCH
  2
AcDbHatch
  3
AutoCAD 2000
 90
    32768
280
     0
281
     1
  0
CLASS
  1
DICTIONARYVAR
  2
AcDbDictionaryVar
  3
AutoCAD 2000
 90
        0
280
     0
281
     0
  0
CLASS
  1
ACDBDICTIONARYWDFLT
  2
AcDbDictionaryWithDefault
  3
AutoCAD 2000
 90
        0
280
     0
281
     0
  0
CLASS
  1
ACDBPLACEHOLDER
  2
AcDbPlaceHolder
  3
AutoCAD 2000
 90
        0
280
     0
281
     0
  0
CLASS
  1
LAYOUT
  2
AcDbLayout
  3
AutoCAD 2000
 90
        0
280
     0
281
     0
  0
CLASS
  1
LONG_TRANSACTION
  2
AcDbLongTransaction
  3
AutoCAD 2000
 90
    32768
280
     0
281
     0
  0
CLASS
  1
LWPOLYLINE
  2
AcDbPolyline
  3
AutoCAD 2000
 90
    32768
280
     0
281
     1
  0
CLASS
  1
HATCH
  2
AcDbHatch
  3
AutoCAD 2000
 90
    32768
280
     0
281
     1
  0
CLASS
  1
XRECORD
  2
AcDbXrecord
  3
AutoCAD 2000
 90
    32768
280
     0
281
     0
  0
ENDSEC
  0
SECTION
  2
TABLES
  0
TABLE
  2
VPORT
  5
746D
330
0
100
AcDbSymbolTable
 70
     2
  0
VPORT
  5
1B43F
330
746D
100
AcDbSymbolTableRecord
100
AcDbViewportTableRecord
  2
*Active
 70
     0
 10
0.0
 20
0.0
 11
1.0
 21
1.0
 12
10500.0
 22
7424.660302374952
 13
0.0
 23
0.0
 14
10.0
 24
10.0
 15
10.0
 25
10.0
 16
0.0
 26
0.0
 36
1.0
 17
0.0
 27
0.0
 37
0.0
 40
15025.73651975206
 41
2.12007874015748
 42
50.0
 43
0.0
 44
0.0
 50
0.0
 51
0.0
 71
     0
 72
     0
 73
     1
 74
     0
 75
     0
 76
     0
 77
     0
 78
     0
281
     0
 65
     1
110
0.0
120
0.0
130
0.0
111
1.0
121
0.0
131
0.0
112
0.0
122
1.0
132
0.0
 79
     0
146
0.0
  0
ENDTAB
  0
TABLE
  2
LTYPE
  5
746A
330
0
100
AcDbSymbolTable
 70
     4
  0
LTYPE
  5
7477
330
746A
100
AcDbSymbolTableRecord
100
AcDbLinetypeTableRecord
  2
BYBLOCK
 70
     0
  3

 72
    65
 73
     0
 40
0.0
  0
LTYPE
  5
7478
330
746A
100
AcDbSymbolTableRecord
100
AcDbLinetypeTableRecord
  2
BYLAYER
 70
     0
  3

 72
    65
 73
     0
 40
0.0
  0
LTYPE
  5
7479
330
746A
100
AcDbSymbolTableRecord
100
AcDbLinetypeTableRecord
  2
CONTINUOUS
 70
     0
  3
Solid line
 72
    65
 73
     0
 40
0.0
  0
LTYPE
  5
7816
330
746A
100
AcDbSymbolTableRecord
100
AcDbLinetypeTableRecord
  2
CENTER
 70
     0
  3
____ _ ____ _ ____ _ ____ _ ____ _ ____ _ ____ 
 72
    65
 73
     4
 40
2.0
 49
1.25
 74
     0
 49
-0.25
 74
     0
 49
0.25
 74
     0
 49
-0.25
 74
     0
  0
LTYPE
  5
781A
330
746A
100
AcDbSymbolTableRecord
100
AcDbLinetypeTableRecord
  2
HIDDEN
 70
     0
  3
__ __ __ __ __ __ __ __ __ __ __ __ __ __ __ __
 72
    65
 73
     2
 40
0.375
 49
0.25
 74
     0
 49
-0.125
 74
     0
  0
LTYPE
  5
781B
330
746A
100
AcDbSymbolTableRecord
100
AcDbLinetypeTableRecord
  2
PHANTOM
 70
     0
  3
______  __  __  ______  __  __  ______  __  __ 
 72
    65
 73
     6
 40
2.5
 49
1.25
 74
     0
 49
-0.25
 74
     0
 49
0.25
 74
     0
 49
-0.25
 74
     0
 49
0.25
 74
     0
 49
-0.25
 74
     0
  0
ENDTAB
  0
TABLE
  2
LAYER
  5
7467
330
0
100
AcDbSymbolTable
 70
    12
  0
LAYER
  5
7474
330
7467
100
AcDbSymbolTableRecord
100
AcDbLayerTableRecord
  2
0
 70
     0
 62
     7
  6
CONTINUOUS
370
    -3
390
1B3C6
  0
LAYER
  5
DEB2
330
7467
100
AcDbSymbolTableRecord
100
AcDbLayerTableRecord
  2
センター
 70
     0
 62
     3
  6
CENTER
370
    -3
390
1B3C6
  0
LAYER
  5
DEB3
330
7467
100
AcDbSymbolTableRecord
100
AcDbLayerTableRecord
  2
寸法
 70
     0
 62
     4
  6
CONTINUOUS
370
    -3
390
1B3C6
  0
LAYER
  5
DEB4
330
7467
100
AcDbSymbolTableRecord
100
AcDbLayerTableRecord
  2
部品1
 70
     0
 62
     7
  6
CONTINUOUS
370
    -3
390
1B3C6
  0
LAYER
  5
DEB5
330
7467
100
AcDbSymbolTableRecord
100
AcDbLayerTableRecord
  2
補助
 70
     0
 62
    -1
  6
CONTINUOUS
370
    -3
390
1B3C6
  0
LAYER
  5
DEB6
330
7467
100
AcDbSymbolTableRecord
100
AcDbLayerTableRecord
  2
文字
 70
     0
 62
     7
  6
CONTINUOUS
370
    -3
390
1B3C6
  0
LAYER
  5
F255
330
7467
100
AcDbSymbolTableRecord
100
AcDbLayerTableRecord
  2
DEFPOINTS
 70
     0
 62
     7
  6
CONTINUOUS
290
     0
370
    -3
390
1B3C6
  0
LAYER
  5
10B54
330
7467
100
AcDbSymbolTableRecord
100
AcDbLayerTableRecord
  2
仕様書枠
 70
     0
 62
   230
  6
CONTINUOUS
370
    -3
390
1B3C6
  0
LAYER
  5
11729
330
7467
100
AcDbSymbolTableRecord
100
AcDbLayerTableRecord
  2
Ｇ．Ｌ
 70
     0
 62
    30
  6
CONTINUOUS
370
    -3
390
1B3C6
  0
LAYER
  5
1173F
330
7467
100
AcDbSymbolTableRecord
100
AcDbLayerTableRecord
  2
細線
 70
     0
 62
     5
  6
CONTINUOUS
370
    -3
390
1B3C6
  0
LAYER
  5
15A90
330
7467
100
AcDbSymbolTableRecord
100
AcDbLayerTableRecord
  2
想像線
 70
     0
 62
     6
  6
PHANTOM
370
    -3
390
1B3C6
  0
LAYER
  5
188E2
330
7467
100
AcDbSymbolTableRecord
100
AcDbLayerTableRecord
  2
破線
 70
     0
 62
     2
  6
HIDDEN
370
    -3
390
1B3C6
  0
ENDTAB
  0
TABLE
  2
STYLE
  5
7468
330
0
100
AcDbSymbolTable
 70
     3
  0
STYLE
  5
7475
330
7468
100
AcDbSymbolTableRecord
100
AcDbTextStyleTableRecord
  2
STANDARD
 70
     0
 40
0.0
 41
1.0
 50
0.0
 71
     0
 42
4.0
  3
txt
  4
C:\AutoCAD LT\bigfont.shx
  0
STYLE
  5
F706
330
7468
100
AcDbSymbolTableRecord
100
AcDbTextStyleTableRecord
  2
STYLE1
 70
     0
 40
0.0
 41
1.0
 50
0.0
 71
     0
 42
4.0
  3
isocp.shx
  4
bigfont.shx
  0
STYLE
  5
103BF
330
7468
100
AcDbSymbolTableRecord
100
AcDbTextStyleTableRecord
  2
STYLE2
 70
     0
 40
0.0
 41
1.0
 50
0.0
 71
     0
 42
100.0
  3
MS PGothic.ttf
  4

1001
ACAD
1000
MS PGothic
1071
    32818
  0
ENDTAB
  0
TABLE
  2
VIEW
  5
746B
330
0
100
AcDbSymbolTable
 70
     0
  0
ENDTAB
  0
TABLE
  2
UCS
  5
746C
330
0
100
AcDbSymbolTable
 70
     0
  0
ENDTAB
  0
TABLE
  2
APPID
  5
746E
330
0
100
AcDbSymbolTable
 70
     6
  0
APPID
  5
7476
330
746E
100
AcDbSymbolTableRecord
100
AcDbRegAppTableRecord
  2
ACAD
 70
     0
  0
APPID
  5
DEA9
330
746E
100
AcDbSymbolTableRecord
100
AcDbRegAppTableRecord
  2
CONTENTBLOCKICON
 70
     0
  0
APPID
  5
DEAA
330
746E
100
AcDbSymbolTableRecord
100
AcDbRegAppTableRecord
  2
CONTENTBLOCKDESCRIPTION
 70
     0
  0
APPID
  5
E71D
330
746E
100
AcDbSymbolTableRecord
100
AcDbRegAppTableRecord
  2
CONTENTTABDATA
 70
     0
  0
APPID
  5
E71E
330
746E
100
AcDbSymbolTableRecord
100
AcDbRegAppTableRecord
  2
CONTENTCURRENTTAB
 70
     0
  0
APPID
  5
F3BA
330
746E
100
AcDbSymbolTableRecord
100
AcDbRegAppTableRecord
  2
DRAWINGVARIABLESXDATA
 70
     0
  0
ENDTAB
  0
TABLE
  2
DIMSTYLE
  5
746F
330
0
100
AcDbSymbolTable
 70
     2
100
AcDbDimStyleTable
 71
     0
  0
DIMSTYLE
105
7484
330
746F
100
AcDbSymbolTableRecord
100
AcDbDimStyleTableRecord
  2
JIS
 70
     0
 41
2.5
 42
1.0
 43
7.0
 44
1.0
 73
     0
 74
     0
 77
     1
 78
     8
140
2.5
141
0.0
143
0.0394
147
0.0
172
     1
174
     1
175
     1
340
7475
  0
DIMSTYLE
105
F71F
102
{ACAD_REACTORS
330
1A66D
330
1A66E
330
1A679
330
1A67A
330
1A67D
330
1A67E
330
1A681
330
1A683
330
1A693
330
1A694
330
1A6A6
330
1A6E2
330
1AC00
330
1AC0E
330
1AC0F
330
1AC49
330
1AC6B
330
1AC6F
330
1AC7A
330
1AC9A
330
1AC9B
330
1AC9E
330
1AC9F
330
1ACB4
330
1ACB6
330
1AD21
330
1AD22
330
1AD3E
330
1AD3F
330
1AD44
330
1AD45
330
1AD57
330
1AD58
330
1AD59
330
1AD5F
330
1B1BA
330
1B1BB
330
1B1BC
330
1B1BD
330
1B1BE
330
1B1BF
330
1B1D2
330
1B1D7
330
1B1D8
330
1B200
102
}
330
746F
100
AcDbSymbolTableRecord
100
AcDbDimStyleTableRecord
  2
INABA_S50G
 70
     0
 41
125.0
 42
25.0
 43
7.0
 44
75.0
 73
     0
 74
     0
 77
     3
 78
     8
140
150.0
141
0.0
143
0.0394
147
25.0
172
     1
173
     1
174
     1
178
     7
271
     1
340
F706
341
F770
343
F770
344
F770
  0
ENDTAB
  0
TABLE
  2
BLOCK_RECORD
  5
7466
330
0
100
AcDbSymbolTable
 70
    46
  0
BLOCK_RECORD
  5
747D
102
{ACAD_XDICTIONARY
360
1B3F7
102
}
330
7466
100
AcDbSymbolTableRecord
100
AcDbBlockTableRecord
  2
*MODEL_SPACE
340
1B3C9
  0
BLOCK_RECORD
  5
747A
102
{ACAD_XDICTIONARY
360
1B3F5
102
}
330
7466
100
AcDbSymbolTableRecord
100
AcDbBlockTableRecord
  2
*PAPER_SPACE
340
1B3CA
  0
BLOCK_RECORD
  5
F770
330
7466
100
AcDbSymbolTableRecord
100
AcDbBlockTableRecord
  2
_DOTSMALL
340
0
102
{BLKREFS
331
1A7C9
331
1A7CA
331
1A7D5
331
1A7D6
331
1A8C5
331
1A8C6
331
1B3FF
331
1B400
331
1A7F5
331
1A7F6
331
1B407
331
1B408
331
1A80A
331
1A80B
331
1A816
331
1A817
331
1A91F
331
1A920
331
1AFEB
331
1AFEC
331
1A839
331
1A83A
331
1A8F3
331
1A8F4
331
1AE8E
331
1AE8F
331
1AE99
331
1AE9A
331
1B40F
331
1B410
331
1AEAF
331
1AEB0
331
1B417
331
1B418
331
1AEC5
331
1AEC6
331
1AED1
331
1AED2
331
1AEDD
331
1AEDE
331
1AFA3
331
1AFA4
331
1AFAE
331
1AFAF
331
1AFB9
331
1AFBA
331
1AF09
331
1AF0A
331
1AF16
331
1AF17
331
1AF22
331
1AF23
331
1AF2E
331
1AF2F
331
1B41F
331
1B420
331
1B427
331
1B428
331
1AF4E
331
1AF4F
331
1AF5B
331
1AF5C
331
1AF68
331
1AF69
331
1AF74
331
1AF75
331
1AF81
331
1AF82
331
1AF8D
331
1AF8E
331
1B34E
331
1B34F
331
1B359
331
1B35A
331
1B365
331
1B366
331
1B371
331
1B372
331
1B42F
331
1B430
331
1B386
331
1B387
331
1B391
331
1B392
331
1B39C
331
1B39D
331
1B3A8
331
1B3A9
331
1B3B4
331
1B3B5
102
}
  0
BLOCK_RECORD
  5
1A730
330
7466
100
AcDbSymbolTableRecord
100
AcDbBlockTableRecord
  2
*D1
340
0
  0
BLOCK_RECORD
  5
1A73D
330
7466
100
AcDbSymbolTableRecord
100
AcDbBlockTableRecord
  2
*D2
340
0
  0
BLOCK_RECORD
  5
1A74A
330
7466
100
AcDbSymbolTableRecord
100
AcDbBlockTableRecord
  2
*D3
340
0
  0
BLOCK_RECORD
  5
1A756
330
7466
100
AcDbSymbolTableRecord
100
AcDbBlockTableRecord
  2
*D4
340
0
  0
BLOCK_RECORD
  5
1A761
330
7466
100
AcDbSymbolTableRecord
100
AcDbBlockTableRecord
  2
*D5
340
0
  0
BLOCK_RECORD
  5
1A76D
330
7466
100
AcDbSymbolTableRecord
100
AcDbBlockTableRecord
  2
*D6
340
0
  0
BLOCK_RECORD
  5
1A778
330
7466
100
AcDbSymbolTableRecord
100
AcDbBlockTableRecord
  2
*D7
340
0
  0
BLOCK_RECORD
  5
1A784
330
7466
100
AcDbSymbolTableRecord
100
AcDbBlockTableRecord
  2
*D8
340
0
  0
BLOCK_RECORD
  5
1A791
330
7466
100
AcDbSymbolTableRecord
100
AcDbBlockTableRecord
  2
*D9
340
0
  0
BLOCK_RECORD
  5
1A79E
330
7466
100
AcDbSymbolTableRecord
100
AcDbBlockTableRecord
  2
*D10
340
0
  0
BLOCK_RECORD
  5
1A7AB
330
7466
100
AcDbSymbolTableRecord
100
AcDbBlockTableRecord
  2
*D11
340
0
  0
BLOCK_RECORD
  5
1A7B7
330
7466
100
AcDbSymbolTableRecord
100
AcDbBlockTableRecord
  2
*D12
340
0
  0
BLOCK_RECORD
  5
1AD67
330
7466
100
AcDbSymbolTableRecord
100
AcDbBlockTableRecord
  2
*D13
340
0
  0
BLOCK_RECORD
  5
1AD74
330
7466
100
AcDbSymbolTableRecord
100
AcDbBlockTableRecord
  2
*D14
340
0
  0
BLOCK_RECORD
  5
1AD80
330
7466
100
AcDbSymbolTableRecord
100
AcDbBlockTableRecord
  2
*D15
340
0
  0
BLOCK_RECORD
  5
1AD8B
330
7466
100
AcDbSymbolTableRecord
100
AcDbBlockTableRecord
  2
*D16
340
0
  0
BLOCK_RECORD
  5
1AD98
330
7466
100
AcDbSymbolTableRecord
100
AcDbBlockTableRecord
  2
*D17
340
0
  0
BLOCK_RECORD
  5
1ADA3
330
7466
100
AcDbSymbolTableRecord
100
AcDbBlockTableRecord
  2
*D18
340
0
  0
BLOCK_RECORD
  5
1ADB0
330
7466
100
AcDbSymbolTableRecord
100
AcDbBlockTableRecord
  2
*D19
340
0
  0
BLOCK_RECORD
  5
1ADBD
330
7466
100
AcDbSymbolTableRecord
100
AcDbBlockTableRecord
  2
*D20
340
0
  0
BLOCK_RECORD
  5
1ADCA
330
7466
100
AcDbSymbolTableRecord
100
AcDbBlockTableRecord
  2
*D21
340
0
  0
BLOCK_RECORD
  5
1ADD6
330
7466
100
AcDbSymbolTableRecord
100
AcDbBlockTableRecord
  2
*D22
340
0
  0
BLOCK_RECORD
  5
1ADE2
330
7466
100
AcDbSymbolTableRecord
100
AcDbBlockTableRecord
  2
*D23
340
0
  0
BLOCK_RECORD
  5
1ADEE
330
7466
100
AcDbSymbolTableRecord
100
AcDbBlockTableRecord
  2
*D24
340
0
  0
BLOCK_RECORD
  5
1ADFA
330
7466
100
AcDbSymbolTableRecord
100
AcDbBlockTableRecord
  2
*D25
340
0
  0
BLOCK_RECORD
  5
1AE08
330
7466
100
AcDbSymbolTableRecord
100
AcDbBlockTableRecord
  2
*D26
340
0
  0
BLOCK_RECORD
  5
1AE15
330
7466
100
AcDbSymbolTableRecord
100
AcDbBlockTableRecord
  2
*D27
340
0
  0
BLOCK_RECORD
  5
1AE22
330
7466
100
AcDbSymbolTableRecord
100
AcDbBlockTableRecord
  2
*D28
340
0
  0
BLOCK_RECORD
  5
1AE2D
330
7466
100
AcDbSymbolTableRecord
100
AcDbBlockTableRecord
  2
*D29
340
0
  0
BLOCK_RECORD
  5
1AE38
330
7466
100
AcDbSymbolTableRecord
100
AcDbBlockTableRecord
  2
*D30
340
0
  0
BLOCK_RECORD
  5
1AE45
330
7466
100
AcDbSymbolTableRecord
100
AcDbBlockTableRecord
  2
*D31
340
0
  0
BLOCK_RECORD
  5
1AE53
330
7466
100
AcDbSymbolTableRecord
100
AcDbBlockTableRecord
  2
*D32
340
0
  0
BLOCK_RECORD
  5
1AE61
330
7466
100
AcDbSymbolTableRecord
100
AcDbBlockTableRecord
  2
*D33
340
0
  0
BLOCK_RECORD
  5
1AE6E
330
7466
100
AcDbSymbolTableRecord
100
AcDbBlockTableRecord
  2
*D34
340
0
  0
BLOCK_RECORD
  5
1AE7C
330
7466
100
AcDbSymbolTableRecord
100
AcDbBlockTableRecord
  2
*D35
340
0
  0
BLOCK_RECORD
  5
1B2CF
330
7466
100
AcDbSymbolTableRecord
100
AcDbBlockTableRecord
  2
*D36
340
0
  0
BLOCK_RECORD
  5
1B2DB
330
7466
100
AcDbSymbolTableRecord
100
AcDbBlockTableRecord
  2
*D37
340
0
  0
BLOCK_RECORD
  5
1B2E7
330
7466
100
AcDbSymbolTableRecord
100
AcDbBlockTableRecord
  2
*D38
340
0
  0
BLOCK_RECORD
  5
1B2F4
330
7466
100
AcDbSymbolTableRecord
100
AcDbBlockTableRecord
  2
*D39
340
0
  0
BLOCK_RECORD
  5
1B301
330
7466
100
AcDbSymbolTableRecord
100
AcDbBlockTableRecord
  2
*D40
340
0
  0
BLOCK_RECORD
  5
1B30C
330
7466
100
AcDbSymbolTableRecord
100
AcDbBlockTableRecord
  2
*D41
340
0
  0
BLOCK_RECORD
  5
1B318
330
7466
100
AcDbSymbolTableRecord
100
AcDbBlockTableRecord
  2
*D42
340
0
  0
BLOCK_RECORD
  5
1B324
330
7466
100
AcDbSymbolTableRecord
100
AcDbBlockTableRecord
  2
*D43
340
0
  0
BLOCK_RECORD
  5
1B330
330
7466
100
AcDbSymbolTableRecord
100
AcDbBlockTableRecord
  2
*D44
340
0
  0
BLOCK_RECORD
  5
1B33D
330
7466
100
AcDbSymbolTableRecord
100
AcDbBlockTableRecord
  2
*D45
340
0
  0
ENDTAB
  0
ENDSEC
  0
SECTION
  2
BLOCKS
  0
BLOCK
  5
7489
330
747D
100
AcDbEntity
  8
0
100
AcDbBlockBegin
  2
*MODEL_SPACE
 70
     0
 10
0.0
 20
0.0
 30
0.0
  3
*MODEL_SPACE
  1

  0
ENDBLK
  5
748A
330
747D
100
AcDbEntity
  8
0
100
AcDbBlockEnd
  0
BLOCK
  5
7487
330
747A
100
AcDbEntity
 67
     1
  8
0
100
AcDbBlockBegin
  2
*PAPER_SPACE
 70
     0
 10
0.0
 20
0.0
 30
0.0
  3
*PAPER_SPACE
  1

  0
ENDBLK
  5
7488
330
747A
100
AcDbEntity
 67
     1
  8
0
100
AcDbBlockEnd
  0
BLOCK
  5
F771
330
F770
100
AcDbEntity
  8
0
 48
50.0
100
AcDbBlockBegin
  2
_DOTSMALL
 70
     0
 10
0.0
 20
0.0
 30
0.0
  3
_DOTSMALL
  1

  0
LWPOLYLINE
  5
F772
330
F770
100
AcDbEntity
  8
0
  6
ByBlock
 62
     0
 48
50.0
100
AcDbPolyline
 90
        2
 70
     1
 43
0.5
 10
-0.0625
 20
0.0
 42
1.0
 10
0.0625
 20
0.0
 42
1.0
  0
ENDBLK
  5
F776
330
F770
100
AcDbEntity
  8
0
 48
50.0
100
AcDbBlockEnd
  0
BLOCK
  5
1A7C4
330
1A730
100
AcDbEntity
  8
0
 48
50.0
100
AcDbBlockBegin
  2
*D1
 70
     1
 10
0.0
 20
0.0
 30
0.0
  3
*D1
  1

  0
LINE
  5
1A7C5
330
1A730
100
AcDbEntity
  8
0
  6
ByBlock
 62
     0
 48
50.0
100
AcDbLine
 10
13819.80961218735
 20
-5033.157382449195
 30
0.0
 11
14268.14474718123
 21
-5033.157382449195
 31
0.0
  0
LINE
  5
1A7C6
330
1A730
100
AcDbEntity
  8
0
  6
ByBlock
 62
     0
 48
50.0
100
AcDbLine
 10
13819.80961218735
 20
-4833.157382449197
 30
0.0
 11
14268.14474718123
 21
-4833.157382449197
 31
0.0
  0
LINE
  5
1A7C7
330
1A730
100
AcDbEntity
  8
0
  6
ByBlock
 62
     0
 48
50.0
100
AcDbLine
 10
14193.14474718123
 20
-4833.157382449197
 30
0.0
 11
14193.14474718123
 21
-5033.157382449195
 31
0.0
  0
LINE
  5
1A7C8
330
1A730
100
AcDbEntity
  8
0
  6
ByBlock
 62
     0
 48
50.0
100
AcDbLine
 10
14193.14474718123
 20
-5033.157382449195
 30
0.0
 11
14193.14474718123
 21
-5482.084547803527
 31
0.0
  0
INSERT
  5
1A7C9
330
1A730
100
AcDbEntity
  8
0
  6
ByBlock
 62
     0
 48
50.0
100
AcDbBlockReference
  2
_DOTSMALL
 10
14193.14474718123
 20
-4833.157382449197
 30
0.0
 41
125.0
 42
125.0
 43
125.0
 50
90.0
  0
INSERT
  5
1A7CA
330
1A730
100
AcDbEntity
  8
0
  6
ByBlock
 62
     0
 48
50.0
100
AcDbBlockReference
  2
_DOTSMALL
 10
14193.14474718123
 20
-5033.157382449195
 30
0.0
 41
125.0
 42
125.0
 43
125.0
 50
270.0
  0
MTEXT
  5
1A7CB
330
1A730
100
AcDbEntity
  8
0
  6
ByBlock
 62
     7
 48
50.0
100
AcDbMText
 10
14093.1299834017
 20
-5320.120965126361
 30
0.0
 40
150.0
 41
0.0
 71
     5
 72
     1
  1
\A1;200
  7
STYLE1
 11
0.0000000000000001
 21
1.0
 31
0.0
 73
     1
 44
1.0
  0
POINT
  5
1A7CC
330
1A730
100
AcDbEntity
  8
DEFPOINTS
  6
ByBlock
 62
     0
 48
50.0
100
AcDbPoint
 10
13794.80961218735
 20
-5033.157382449195
 30
0.0
  0
POINT
  5
1A7CD
330
1A730
100
AcDbEntity
  8
DEFPOINTS
  6
ByBlock
 62
     0
 48
50.0
100
AcDbPoint
 10
13794.80961218735
 20
-4833.157382449197
 30
0.0
  0
POINT
  5
1A7CE
330
1A730
100
AcDbEntity
  8
DEFPOINTS
  6
ByBlock
 62
     0
 48
50.0
100
AcDbPoint
 10
14193.14474718123
 20
-4833.157382449197
 30
0.0
  0
ENDBLK
  5
1A7CF
330
1A730
100
AcDbEntity
  8
0
 48
50.0
100
AcDbBlockEnd
  0
BLOCK
  5
1A7D0
330
1A73D
100
AcDbEntity
  8
0
 48
50.0
100
AcDbBlockBegin
  2
*D2
 70
     1
 10
0.0
 20
0.0
 30
0.0
  3
*D2
  1

  0
LINE
  5
1A7D1
330
1A73D
100
AcDbEntity
  8
0
  6
ByBlock
 62
     0
 48
50.0
100
AcDbLine
 10
13794.80961218735
 20
-5058.157382449195
 30
0.0
 11
13794.80961218735
 21
-5394.204711749573
 31
0.0
  0
LINE
  5
1A7D2
330
1A73D
100
AcDbEntity
  8
0
  6
ByBlock
 62
     0
 48
50.0
100
AcDbLine
 10
13594.80961218735
 20
-5058.157382449195
 30
0.0
 11
13594.80961218735
 21
-5394.204711749573
 31
0.0
  0
LINE
  5
1A7D3
330
1A73D
100
AcDbEntity
  8
0
  6
ByBlock
 62
     0
 48
50.0
100
AcDbLine
 10
13794.80961218735
 20
-5319.204711749573
 30
0.0
 11
13594.80961218735
 21
-5319.204711749573
 31
0.0
  0
LINE
  5
1A7D4
330
1A73D
100
AcDbEntity
  8
0
  6
ByBlock
 62
     0
 48
50.0
100
AcDbLine
 10
13594.80961218735
 20
-5319.204711749573
 30
0.0
 11
13145.88244683302
 21
-5319.204711749573
 31
0.0
  0
INSERT
  5
1A7D5
330
1A73D
100
AcDbEntity
  8
0
  6
ByBlock
 62
     0
 48
50.0
100
AcDbBlockReference
  2
_DOTSMALL
 10
13794.80961218735
 20
-5319.204711749573
 30
0.0
 41
125.0
 42
125.0
 43
125.0
  0
INSERT
  5
1A7D6
330
1A73D
100
AcDbEntity
  8
0
  6
ByBlock
 62
     0
 48
50.0
100
AcDbBlockReference
  2
_DOTSMALL
 10
13594.80961218735
 20
-5319.204711749573
 30
0.0
 41
125.0
 42
125.0
 43
125.0
 50
180.0
  0
MTEXT
  5
1A7D7
330
1A73D
100
AcDbEntity
  8
0
  6
ByBlock
 62
     7
 48
50.0
100
AcDbMText
 10
13307.84602951019
 20
-5219.189947970045
 30
0.0
 40
150.0
 41
0.0
 71
     5
 72
     1
  1
\A1;200
  7
STYLE1
 73
     1
 44
1.0
  0
POINT
  5
1A7D8
330
1A73D
100
AcDbEntity
  8
DEFPOINTS
  6
ByBlock
 62
     0
 48
50.0
100
AcDbPoint
 10
13794.80961218735
 20
-5033.157382449195
 30
0.0
  0
POINT
  5
1A7D9
330
1A73D
100
AcDbEntity
  8
DEFPOINTS
  6
ByBlock
 62
     0
 48
50.0
100
AcDbPoint
 10
13594.80961218735
 20
-5033.157382449195
 30
0.0
  0
POINT
  5
1A7DA
330
1A73D
100
AcDbEntity
  8
DEFPOINTS
  6
ByBlock
 62
     0
 48
50.0
100
AcDbPoint
 10
13594.80961218735
 20
-5319.204711749573
 30
0.0
  0
ENDBLK
  5
1A7DB
330
1A73D
100
AcDbEntity
  8
0
 48
50.0
100
AcDbBlockEnd
  0
BLOCK
  5
1A8C1
330
1A74A
100
AcDbEntity
  8
0
 48
50.0
100
AcDbBlockBegin
  2
*D3
 70
     1
 10
0.0
 20
0.0
 30
0.0
  3
*D3
  1

  0
LINE
  5
1A8C2
330
1A74A
100
AcDbEntity
  8
0
  6
ByBlock
 62
     0
 48
50.0
100
AcDbLine
 10
13097.82958141817
 20
5740.0
 30
0.0
 11
13097.82958141817
 21
6751.068854554545
 31
0.0
  0
LINE
  5
1A8C3
330
1A74A
100
AcDbEntity
  8
0
  6
ByBlock
 62
     0
 48
50.0
100
AcDbLine
 10
15207.82958141817
 20
5680.0
 30
0.0
 11
15207.82958141817
 21
6751.068854554545
 31
0.0
  0
LINE
  5
1A8C4
330
1A74A
100
AcDbEntity
  8
0
  6
ByBlock
 62
     0
 48
50.0
100
AcDbLine
 10
13097.82958141817
 20
6676.068854554545
 30
0.0
 11
15207.82958141817
 21
6676.068854554545
 31
0.0
  0
INSERT
  5
1A8C5
330
1A74A
100
AcDbEntity
  8
0
  6
ByBlock
 62
     0
 48
50.0
100
AcDbBlockReference
  2
_DOTSMALL
 10
13097.82958141817
 20
6676.068854554545
 30
0.0
 41
125.0
 42
125.0
 43
125.0
 50
180.0
  0
INSERT
  5
1A8C6
330
1A74A
100
AcDbEntity
  8
0
  6
ByBlock
 62
     0
 48
50.0
100
AcDbBlockReference
  2
_DOTSMALL
 10
15207.82958141817
 20
6676.068854554545
 30
0.0
 41
125.0
 42
125.0
 43
125.0
  0
MTEXT
  5
1A8C7
330
1A74A
100
AcDbEntity
  8
0
  6
ByBlock
 62
     7
 48
50.0
100
AcDbMText
 10
14152.82958141817
 20
6776.083618334073
 30
0.0
 40
150.0
 41
0.0
 71
     5
 72
     1
  1
\A1;2110
  7
STYLE1
 73
     1
 44
1.0
  0
POINT
  5
1A8C8
330
1A74A
100
AcDbEntity
  8
DEFPOINTS
  6
ByBlock
 62
     0
 48
50.0
100
AcDbPoint
 10
13097.82958141817
 20
5715.0
 30
0.0
  0
POINT
  5
1A8C9
330
1A74A
100
AcDbEntity
  8
DEFPOINTS
  6
ByBlock
 62
     0
 48
50.0
100
AcDbPoint
 10
15207.82958141817
 20
5655.0
 30
0.0
  0
POINT
  5
1A8CA
330
1A74A
100
AcDbEntity
  8
DEFPOINTS
  6
ByBlock
 62
     0
 48
50.0
100
AcDbPoint
 10
15207.82958141817
 20
6676.068854554545
 30
0.0
  0
ENDBLK
  5
1A8CB
330
1A74A
100
AcDbEntity
  8
0
 48
50.0
100
AcDbBlockEnd
  0
BLOCK
  5
1A910
330
1A756
100
AcDbEntity
  8
0
 48
50.0
100
AcDbBlockBegin
  2
*D4
 70
     1
 10
0.0
 20
0.0
 30
0.0
  3
*D4
  1

  0
LINE
  5
1B3FD
330
1A756
100
AcDbEntity
  8
寸法
 62
     0
 48
50.0
100
AcDbLine
 10
14822.82958141817
 20
5683.337018226842
 30
0.0
 11
14822.82958141817
 21
6483.281130716521
 31
0.0
  0
LINE
  5
1B3FE
330
1A756
100
AcDbEntity
  8
寸法
 62
     0
 48
50.0
100
AcDbLine
 10
12942.82958141817
 20
6408.281130716521
 30
0.0
 11
14822.82958141817
 21
6408.281130716521
 31
0.0
  0
INSERT
  5
1B3FF
330
1A756
100
AcDbEntity
  8
寸法
 62
     0
 48
50.0
100
AcDbBlockReference
  2
_DOTSMALL
 10
12942.82958141817
 20
6408.281130716521
 30
0.0
 41
125.0
 42
125.0
 43
125.0
 50
180.0
  0
INSERT
  5
1B400
330
1A756
100
AcDbEntity
  8
寸法
 62
     0
 48
50.0
100
AcDbBlockReference
  2
_DOTSMALL
 10
14822.82958141817
 20
6408.281130716521
 30
0.0
 41
125.0
 42
125.0
 43
125.0
  0
MTEXT
  5
1B401
330
1A756
100
AcDbEntity
  8
寸法
 62
     7
 48
50.0
100
AcDbMText
 10
13882.82958141817
 20
6508.281130716522
 30
0.0
 40
150.0
 41
0.0
 71
     5
 72
     1
  1
\A1;柱外寸法 1880
  7
STYLE1
 73
     1
 44
1.0
  0
POINT
  5
1B402
330
1A756
100
AcDbEntity
  8
DEFPOINTS
 62
     0
 48
50.0
100
AcDbPoint
 10
12942.82958141817
 20
5711.484603453083
 30
0.0
  0
POINT
  5
1B403
330
1A756
100
AcDbEntity
  8
DEFPOINTS
 62
     0
 48
50.0
100
AcDbPoint
 10
14822.82958141817
 20
5658.337018226841
 30
0.0
  0
POINT
  5
1B404
330
1A756
100
AcDbEntity
  8
DEFPOINTS
 62
     0
 48
50.0
100
AcDbPoint
 10
14822.82958141817
 20
6408.281130716521
 30
0.0
  0
ENDBLK
  5
1A919
330
1A756
100
AcDbEntity
  8
0
 48
50.0
100
AcDbBlockEnd
  0
BLOCK
  5
1A7F1
330
1A761
100
AcDbEntity
  8
0
 48
50.0
100
AcDbBlockBegin
  2
*D5
 70
     1
 10
0.0
 20
0.0
 30
0.0
  3
*D5
  1

  0
LINE
  5
1A7F2
330
1A761
100
AcDbEntity
  8
0
  6
ByBlock
 62
     0
 48
50.0
100
AcDbLine
 10
11183.30961218735
 20
-4620.657382449197
 30
0.0
 11
10787.4213319327
 21
-4620.657382449197
 31
0.0
  0
LINE
  5
1A7F3
330
1A761
100
AcDbEntity
  8
0
  6
ByBlock
 62
     0
 48
50.0
100
AcDbLine
 10
11183.30961218735
 20
-2822.657382449197
 30
0.0
 11
10787.4213319327
 21
-2822.657382449196
 31
0.0
  0
LINE
  5
1A7F4
330
1A761
100
AcDbEntity
  8
0
  6
ByBlock
 62
     0
 48
50.0
100
AcDbLine
 10
10862.42133193271
 20
-4620.657382449197
 30
0.0
 11
10862.42133193271
 21
-2822.657382449196
 31
0.0
  0
INSERT
  5
1A7F5
330
1A761
100
AcDbEntity
  8
0
  6
ByBlock
 62
     0
 48
50.0
100
AcDbBlockReference
  2
_DOTSMALL
 10
10862.42133193271
 20
-4620.657382449197
 30
0.0
 41
125.0
 42
125.0
 43
125.0
 50
270.0
  0
INSERT
  5
1A7F6
330
1A761
100
AcDbEntity
  8
0
  6
ByBlock
 62
     0
 48
50.0
100
AcDbBlockReference
  2
_DOTSMALL
 10
10862.42133193271
 20
-2822.657382449196
 30
0.0
 41
125.0
 42
125.0
 43
125.0
 50
90.0
  0
MTEXT
  5
1A7F7
330
1A761
100
AcDbEntity
  8
0
  6
ByBlock
 62
     7
 48
50.0
100
AcDbMText
 10
10762.42133193271
 20
-3721.657382449196
 30
0.0
 40
150.0
 41
0.0
 71
     5
 72
     1
  1
\A1;有効開口部高サ 1798
  7
STYLE1
 11
0.0000000000000001
 21
1.0
 31
0.0
 73
     1
 44
1.0
  0
POINT
  5
1A7F8
330
1A761
100
AcDbEntity
  8
DEFPOINTS
  6
ByBlock
 62
     0
 48
50.0
100
AcDbPoint
 10
11208.30961218735
 20
-4620.657382449197
 30
0.0
  0
POINT
  5
1A7F9
330
1A761
100
AcDbEntity
  8
DEFPOINTS
  6
ByBlock
 62
     0
 48
50.0
100
AcDbPoint
 10
11208.30961218735
 20
-2822.657382449197
 30
0.0
  0
POINT
  5
1A7FA
330
1A761
100
AcDbEntity
  8
DEFPOINTS
  6
ByBlock
 62
     0
 48
50.0
100
AcDbPoint
 10
10862.42133193271
 20
-2822.657382449196
 30
0.0
  0
ENDBLK
  5
1A7FB
330
1A761
100
AcDbEntity
  8
0
 48
50.0
100
AcDbBlockEnd
  0
BLOCK
  5
1A7FC
330
1A76D
100
AcDbEntity
  8
0
 48
50.0
100
AcDbBlockBegin
  2
*D6
 70
     1
 10
0.0
 20
0.0
 30
0.0
  3
*D6
  1

  0
LINE
  5
1B405
330
1A76D
100
AcDbEntity
  8
寸法
 62
     0
 48
50.0
100
AcDbLine
 10
12917.82958141817
 20
5445.0
 30
0.0
 11
12141.70986552558
 21
5445.0
 31
0.0
  0
LINE
  5
1B406
330
1A76D
100
AcDbEntity
  8
寸法
 62
     0
 48
50.0
100
AcDbLine
 10
12216.70986552558
 20
3330.0
 30
0.0
 11
12216.70986552558
 21
5445.0
 31
0.0
  0
INSERT
  5
1B407
330
1A76D
100
AcDbEntity
  8
寸法
 62
     0
 48
50.0
100
AcDbBlockReference
  2
_DOTSMALL
 10
12216.70986552558
 20
3330.0
 30
0.0
 41
125.0
 42
125.0
 43
125.0
 50
270.0
  0
INSERT
  5
1B408
330
1A76D
100
AcDbEntity
  8
寸法
 62
     0
 48
50.0
100
AcDbBlockReference
  2
_DOTSMALL
 10
12216.70986552558
 20
5445.0
 30
0.0
 41
125.0
 42
125.0
 43
125.0
 50
90.0
  0
MTEXT
  5
1B409
330
1A76D
100
AcDbEntity
  8
寸法
 62
     7
 48
50.0
100
AcDbMText
 10
12116.69510174605
 20
4387.500000000001
 30
0.0
 40
150.0
 41
0.0
 71
     5
 72
     1
  1
\A1;2115
  7
STYLE1
 11
0.0000000000000001
 21
1.0
 31
0.0
 73
     1
 44
1.0
  0
POINT
  5
1B40A
330
1A76D
100
AcDbEntity
  8
DEFPOINTS
 62
     0
 48
50.0
100
AcDbPoint
 10
12874.82958141817
 20
3330.0
 30
0.0
  0
POINT
  5
1B40B
330
1A76D
100
AcDbEntity
  8
DEFPOINTS
 62
     0
 48
50.0
100
AcDbPoint
 10
12942.82958141817
 20
5445.0
 30
0.0
  0
POINT
  5
1B40C
330
1A76D
100
AcDbEntity
  8
DEFPOINTS
 62
     0
 48
50.0
100
AcDbPoint
 10
12216.70986552558
 20
5445.0
 30
0.0
  0
ENDBLK
  5
1A805
330
1A76D
100
AcDbEntity
  8
0
 48
50.0
100
AcDbBlockEnd
  0
BLOCK
  5
1A806
330
1A778
100
AcDbEntity
  8
0
 48
50.0
100
AcDbBlockBegin
  2
*D7
 70
     1
 10
0.0
 20
0.0
 30
0.0
  3
*D7
  1

  0
LINE
  5
1A807
330
1A778
100
AcDbEntity
  8
0
  6
ByBlock
 62
     0
 48
50.0
100
AcDbLine
 10
11116.30961218735
 20
-2258.157382449196
 30
0.0
 11
10167.14369188896
 21
-2258.157382449196
 31
0.0
  0
LINE
  5
1A808
330
1A778
100
AcDbEntity
  8
0
  6
ByBlock
 62
     0
 48
50.0
100
AcDbLine
 10
11183.30961218735
 20
-4698.157382449197
 30
0.0
 11
10167.14369188896
 21
-4698.157382449197
 31
0.0
  0
LINE
  5
1A809
330
1A778
100
AcDbEntity
  8
0
  6
ByBlock
 62
     0
 48
50.0
100
AcDbLine
 10
10242.14369188896
 20
-2258.157382449196
 30
0.0
 11
10242.14369188896
 21
-4698.157382449197
 31
0.0
  0
INSERT
  5
1A80A
330
1A778
100
AcDbEntity
  8
0
  6
ByBlock
 62
     0
 48
50.0
100
AcDbBlockReference
  2
_DOTSMALL
 10
10242.14369188896
 20
-2258.157382449196
 30
0.0
 41
125.0
 42
125.0
 43
125.0
 50
90.0
  0
INSERT
  5
1A80B
330
1A778
100
AcDbEntity
  8
0
  6
ByBlock
 62
     0
 48
50.0
100
AcDbBlockReference
  2
_DOTSMALL
 10
10242.14369188896
 20
-4698.157382449197
 30
0.0
 41
125.0
 42
125.0
 43
125.0
 50
270.0
  0
MTEXT
  5
1A80C
330
1A778
100
AcDbEntity
  8
0
  6
ByBlock
 62
     7
 48
50.0
100
AcDbMText
 10
10142.12892810943
 20
-3478.157382449196
 30
0.0
 40
150.0
 41
0.0
 71
     5
 72
     1
  1
\A1;2440
  7
STYLE1
 11
0.0000000000000001
 21
1.0
 31
0.0
 73
     1
 44
1.0
  0
POINT
  5
1A80D
330
1A778
100
AcDbEntity
  8
DEFPOINTS
  6
ByBlock
 62
     0
 48
50.0
100
AcDbPoint
 10
11141.30961218735
 20
-2258.157382449197
 30
0.0
  0
POINT
  5
1A80E
330
1A778
100
AcDbEntity
  8
DEFPOINTS
  6
ByBlock
 62
     0
 48
50.0
100
AcDbPoint
 10
11208.30961218735
 20
-4698.157382449197
 30
0.0
  0
POINT
  5
1A80F
330
1A778
100
AcDbEntity
  8
DEFPOINTS
  6
ByBlock
 62
     0
 48
50.0
100
AcDbPoint
 10
10242.14369188896
 20
-4698.157382449197
 30
0.0
  0
ENDBLK
  5
1A810
330
1A778
100
AcDbEntity
  8
0
 48
50.0
100
AcDbBlockEnd
  0
BLOCK
  5
1A811
330
1A784
100
AcDbEntity
  8
0
 48
50.0
100
AcDbBlockBegin
  2
*D8
 70
     1
 10
0.0
 20
0.0
 30
0.0
  3
*D8
  1

  0
LINE
  5
1A812
330
1A784
100
AcDbEntity
  8
0
  6
ByBlock
 62
     0
 48
50.0
100
AcDbLine
 10
11183.30961218735
 20
-4698.157382449197
 30
0.0
 11
10475.18989629476
 21
-4698.157382449197
 31
0.0
  0
LINE
  5
1A813
330
1A784
100
AcDbEntity
  8
0
  6
ByBlock
 62
     0
 48
50.0
100
AcDbLine
 10
11183.30961218735
 20
-4643.157382449197
 30
0.0
 11
10475.18989629476
 21
-4643.157382449197
 31
0.0
  0
LINE
  5
1A814
330
1A784
100
AcDbEntity
  8
0
  6
ByBlock
 62
     0
 48
50.0
100
AcDbLine
 10
10550.18989629476
 20
-4643.157382449197
 30
0.0
 11
10550.18989629476
 21
-4698.157382449197
 31
0.0
  0
LINE
  5
1A815
330
1A784
100
AcDbEntity
  8
0
  6
ByBlock
 62
     0
 48
50.0
100
AcDbLine
 10
10550.18989629476
 20
-4698.157382449197
 30
0.0
 11
10550.18989629476
 21
-5119.343489989529
 31
0.0
  0
INSERT
  5
1A816
330
1A784
100
AcDbEntity
  8
0
  6
ByBlock
 62
     0
 48
50.0
100
AcDbBlockReference
  2
_DOTSMALL
 10
10550.18989629476
 20
-4643.157382449197
 30
0.0
 41
125.0
 42
125.0
 43
125.0
 50
90.0
  0
INSERT
  5
1A817
330
1A784
100
AcDbEntity
  8
0
  6
ByBlock
 62
     0
 48
50.0
100
AcDbBlockReference
  2
_DOTSMALL
 10
10550.18989629476
 20
-4698.157382449197
 30
0.0
 41
125.0
 42
125.0
 43
125.0
 50
270.0
  0
MTEXT
  5
1A818
330
1A784
100
AcDbEntity
  8
0
  6
ByBlock
 62
     7
 48
50.0
100
AcDbMText
 10
10450.18989629476
 20
-5008.736888271731
 30
0.0
 40
150.0
 41
0.0
 71
     5
 72
     1
  1
\A1;55
  7
STYLE1
 11
0.0000000000000001
 21
1.0
 31
0.0
 73
     1
 44
1.0
  0
POINT
  5
1A819
330
1A784
100
AcDbEntity
  8
DEFPOINTS
  6
ByBlock
 62
     0
 48
50.0
100
AcDbPoint
 10
11208.30961218735
 20
-4698.157382449197
 30
0.0
  0
POINT
  5
1A81A
330
1A784
100
AcDbEntity
  8
DEFPOINTS
  6
ByBlock
 62
     0
 48
50.0
100
AcDbPoint
 10
11208.30961218735
 20
-4643.157382449197
 30
0.0
  0
POINT
  5
1A81B
330
1A784
100
AcDbEntity
  8
DEFPOINTS
  6
ByBlock
 62
     0
 48
50.0
100
AcDbPoint
 10
10550.18989629476
 20
-4643.157382449197
 30
0.0
  0
ENDBLK
  5
1A81C
330
1A784
100
AcDbEntity
  8
0
 48
50.0
100
AcDbBlockEnd
  0
BLOCK
  5
1A91A
330
1A791
100
AcDbEntity
  8
0
 48
50.0
100
AcDbBlockBegin
  2
*D9
 70
     1
 10
0.0
 20
0.0
 30
0.0
  3
*D9
  1

  0
LINE
  5
1A91B
330
1A791
100
AcDbEntity
  8
0
  6
ByBlock
 62
     0
 48
50.0
100
AcDbLine
 10
13387.82958141817
 20
5740.0
 30
0.0
 11
13387.82958141817
 21
6483.281130716521
 31
0.0
  0
LINE
  5
1A91C
330
1A791
100
AcDbEntity
  8
0
  6
ByBlock
 62
     0
 48
50.0
100
AcDbLine
 10
13522.82958141817
 20
5736.484603453082
 30
0.0
 11
13522.82958141817
 21
6483.281130716521
 31
0.0
  0
LINE
  5
1A91D
330
1A791
100
AcDbEntity
  8
0
  6
ByBlock
 62
     0
 48
50.0
100
AcDbLine
 10
13522.82958141817
 20
6408.281130716521
 30
0.0
 11
13387.82958141817
 21
6408.281130716521
 31
0.0
  0
LINE
  5
1A91E
330
1A791
100
AcDbEntity
  8
0
  6
ByBlock
 62
     0
 48
50.0
100
AcDbLine
 10
13387.82958141817
 20
6408.281130716521
 30
0.0
 11
12966.61637798257
 21
6408.281130716521
 31
0.0
  0
INSERT
  5
1A91F
330
1A791
100
AcDbEntity
  8
0
  6
ByBlock
 62
     0
 48
50.0
100
AcDbBlockReference
  2
_DOTSMALL
 10
13522.82958141817
 20
6408.281130716521
 30
0.0
 41
125.0
 42
125.0
 43
125.0
  0
INSERT
  5
1A920
330
1A791
100
AcDbEntity
  8
0
  6
ByBlock
 62
     0
 48
50.0
100
AcDbBlockReference
  2
_DOTSMALL
 10
13387.82958141817
 20
6408.281130716521
 30
0.0
 41
125.0
 42
125.0
 43
125.0
 50
180.0
  0
MTEXT
  5
1A921
330
1A791
100
AcDbEntity
  8
0
  6
ByBlock
 62
     7
 48
50.0
100
AcDbMText
 10
13114.72297970037
 20
6508.281130716522
 30
0.0
 40
150.0
 41
0.0
 71
     5
 72
     1
  1
\A1;135
  7
STYLE1
 73
     1
 44
1.0
  0
POINT
  5
1A922
330
1A791
100
AcDbEntity
  8
DEFPOINTS
  6
ByBlock
 62
     0
 48
50.0
100
AcDbPoint
 10
13387.82958141817
 20
5715.0
 30
0.0
  0
POINT
  5
1A923
330
1A791
100
AcDbEntity
  8
DEFPOINTS
  6
ByBlock
 62
     0
 48
50.0
100
AcDbPoint
 10
13522.82958141817
 20
5711.484603453083
 30
0.0
  0
POINT
  5
1A924
330
1A791
100
AcDbEntity
  8
DEFPOINTS
  6
ByBlock
 62
     0
 48
50.0
100
AcDbPoint
 10
13522.82958141817
 20
6408.281130716521
 30
0.0
  0
ENDBLK
  5
1A925
330
1A791
100
AcDbEntity
  8
0
 48
50.0
100
AcDbBlockEnd
  0
BLOCK
  5
1AFE6
330
1A79E
100
AcDbEntity
  8
0
 48
50.0
100
AcDbBlockBegin
  2
*D10
 70
     1
 10
0.0
 20
0.0
 30
0.0
  3
*D10
  1

  0
LINE
  5
1AFE7
330
1A79E
100
AcDbEntity
  8
0
  6
ByBlock
 62
     0
 48
50.0
100
AcDbLine
 10
12917.83730179685
 20
5579.948063770425
 30
0.0
 11
12248.85075100425
 21
5596.577682344002
 31
0.0
  0
LINE
  5
1AFE8
330
1A79E
100
AcDbEntity
  8
0
  6
ByBlock
 62
     0
 48
50.0
100
AcDbLine
 10
12920.69508055745
 20
5694.912550028379
 30
0.0
 11
12251.70852976484
 21
5711.542168601956
 31
0.0
  0
LINE
  5
1AFE9
330
1A79E
100
AcDbEntity
  8
0
  6
ByBlock
 62
     0
 48
50.0
100
AcDbLine
 10
12323.82758986813
 20
5594.713913587094
 30
0.0
 11
12326.68536862873
 21
5709.678399845048
 31
0.0
  0
LINE
  5
1AFEA
330
1A79E
100
AcDbEntity
  8
0
  6
ByBlock
 62
     0
 48
50.0
100
AcDbLine
 10
12326.68536862873
 20
5709.678399845048
 30
0.0
 11
12336.40711457343
 21
6100.770790717241
 31
0.0
  0
INSERT
  5
1AFEB
330
1A79E
100
AcDbEntity
  8
0
  6
ByBlock
 62
     0
 48
50.0
100
AcDbBlockReference
  2
_DOTSMALL
 10
12323.82758986813
 20
5594.713913587094
 30
0.0
 41
125.0
 42
125.0
 43
125.0
 50
268.5760389666138
  0
INSERT
  5
1AFEC
330
1A79E
100
AcDbEntity
  8
0
  6
ByBlock
 62
     0
 48
50.0
100
AcDbBlockReference
  2
_DOTSMALL
 10
12326.68536862873
 20
5709.678399845048
 30
0.0
 41
125.0
 42
125.0
 43
125.0
 50
88.57603896661384
  0
MTEXT
  5
1AFED
330
1A79E
100
AcDbEntity
  8
0
  6
ByBlock
 62
     7
 48
50.0
100
AcDbMText
 10
12233.13026374666
 20
5970.190319343593
 30
0.0
 40
150.0
 41
0.0
 71
     5
 72
     1
  1
\A1;115
  7
STYLE1
 11
0.0248502500921075
 21
0.999691184851782
 31
0.0
 73
     1
 44
1.0
  0
POINT
  5
1AFEE
330
1A79E
100
AcDbEntity
  8
DEFPOINTS
  6
ByBlock
 62
     0
 48
50.0
100
AcDbPoint
 10
12942.82958141815
 20
5579.326807518122
 30
0.0
  0
POINT
  5
1AFEF
330
1A79E
100
AcDbEntity
  8
DEFPOINTS
  6
ByBlock
 62
     0
 48
50.0
100
AcDbPoint
 10
12945.68736017874
 20
5694.291293776077
 30
0.0
  0
POINT
  5
1AFF0
330
1A79E
100
AcDbEntity
  8
DEFPOINTS
  6
ByBlock
 62
     0
 48
50.0
100
AcDbPoint
 10
12326.68536862873
 20
5709.678399845048
 30
0.0
  0
ENDBLK
  5
1AFF1
330
1A79E
100
AcDbEntity
  8
0
 48
50.0
100
AcDbBlockEnd
  0
BLOCK
  5
1A835
330
1A7AB
100
AcDbEntity
  8
0
 48
50.0
100
AcDbBlockBegin
  2
*D11
 70
     1
 10
0.0
 20
0.0
 30
0.0
  3
*D11
  1

  0
LINE
  5
1A836
330
1A7AB
100
AcDbEntity
  8
0
  6
ByBlock
 62
     0
 48
50.0
100
AcDbLine
 10
13761.30961218735
 20
-4698.157382449197
 30
0.0
 11
14470.80036560877
 21
-4698.157382449197
 31
0.0
  0
LINE
  5
1A837
330
1A7AB
100
AcDbEntity
  8
0
  6
ByBlock
 62
     0
 48
50.0
100
AcDbLine
 10
13856.30961218735
 20
-2318.157382449197
 30
0.0
 11
14470.80036560877
 21
-2318.157382449197
 31
0.0
  0
LINE
  5
1A838
330
1A7AB
100
AcDbEntity
  8
0
  6
ByBlock
 62
     0
 48
50.0
100
AcDbLine
 10
14395.80036560877
 20
-4698.157382449197
 30
0.0
 11
14395.80036560877
 21
-2318.157382449197
 31
0.0
  0
INSERT
  5
1A839
330
1A7AB
100
AcDbEntity
  8
0
  6
ByBlock
 62
     0
 48
50.0
100
AcDbBlockReference
  2
_DOTSMALL
 10
14395.80036560877
 20
-4698.157382449197
 30
0.0
 41
125.0
 42
125.0
 43
125.0
 50
270.0
  0
INSERT
  5
1A83A
330
1A7AB
100
AcDbEntity
  8
0
  6
ByBlock
 62
     0
 48
50.0
100
AcDbBlockReference
  2
_DOTSMALL
 10
14395.80036560877
 20
-2318.157382449197
 30
0.0
 41
125.0
 42
125.0
 43
125.0
 50
90.0
  0
MTEXT
  5
1A83B
330
1A7AB
100
AcDbEntity
  8
0
  6
ByBlock
 62
     7
 48
50.0
100
AcDbMText
 10
14295.78560182924
 20
-3508.157382449196
 30
0.0
 40
150.0
 41
0.0
 71
     5
 72
     1
  1
\A1;2380
  7
STYLE1
 11
0.0000000000000001
 21
1.0
 31
0.0
 73
     1
 44
1.0
  0
POINT
  5
1A83C
330
1A7AB
100
AcDbEntity
  8
DEFPOINTS
  6
ByBlock
 62
     0
 48
50.0
100
AcDbPoint
 10
13736.30961218735
 20
-4698.157382449197
 30
0.0
  0
POINT
  5
1A83D
330
1A7AB
100
AcDbEntity
  8
DEFPOINTS
  6
ByBlock
 62
     0
 48
50.0
100
AcDbPoint
 10
13831.30961218735
 20
-2318.157382449197
 30
0.0
  0
POINT
  5
1A83E
330
1A7AB
100
AcDbEntity
  8
DEFPOINTS
  6
ByBlock
 62
     0
 48
50.0
100
AcDbPoint
 10
14395.80036560877
 20
-2318.157382449197
 30
0.0
  0
ENDBLK
  5
1A83F
330
1A7AB
100
AcDbEntity
  8
0
 48
50.0
100
AcDbBlockEnd
  0
BLOCK
  5
1A8EE
330
1A7B7
100
AcDbEntity
  8
0
 48
50.0
100
AcDbBlockBegin
  2
*D12
 70
     1
 10
0.0
 20
0.0
 30
0.0
  3
*D12
  1

  0
LINE
  5
1A8EF
330
1A7B7
100
AcDbEntity
  8
0
  6
ByBlock
 62
     0
 48
50.0
100
AcDbLine
 10
15402.82958141817
 20
5683.337018226842
 30
0.0
 11
15402.82958141817
 21
6483.281130716521
 31
0.0
  0
LINE
  5
1A8F0
330
1A7B7
100
AcDbEntity
  8
0
  6
ByBlock
 62
     0
 48
50.0
100
AcDbLine
 10
15497.82958141817
 20
5680.0
 30
0.0
 11
15497.82958141817
 21
6483.281130716521
 31
0.0
  0
LINE
  5
1A8F1
330
1A7B7
100
AcDbEntity
  8
0
  6
ByBlock
 62
     0
 48
50.0
100
AcDbLine
 10
15402.82958141817
 20
6408.281130716521
 30
0.0
 11
15497.82958141817
 21
6408.281130716521
 31
0.0
  0
LINE
  5
1A8F2
330
1A7B7
100
AcDbEntity
  8
0
  6
ByBlock
 62
     0
 48
50.0
100
AcDbLine
 10
15497.82958141817
 20
6408.281130716521
 30
0.0
 11
15944.10183997187
 21
6408.281130716521
 31
0.0
  0
INSERT
  5
1A8F3
330
1A7B7
100
AcDbEntity
  8
0
  6
ByBlock
 62
     0
 48
50.0
100
AcDbBlockReference
  2
_DOTSMALL
 10
15402.82958141817
 20
6408.281130716521
 30
0.0
 41
125.0
 42
125.0
 43
125.0
 50
180.0
  0
INSERT
  5
1A8F4
330
1A7B7
100
AcDbEntity
  8
0
  6
ByBlock
 62
     0
 48
50.0
100
AcDbBlockReference
  2
_DOTSMALL
 10
15497.82958141817
 20
6408.281130716521
 30
0.0
 41
125.0
 42
125.0
 43
125.0
  0
MTEXT
  5
1A8F5
330
1A7B7
100
AcDbEntity
  8
0
  6
ByBlock
 62
     7
 48
50.0
100
AcDbMText
 10
15830.38863653628
 20
6508.281130716522
 30
0.0
 40
150.0
 41
0.0
 71
     5
 72
     1
  1
\A1;95
  7
STYLE1
 73
     1
 44
1.0
  0
POINT
  5
1A8F6
330
1A7B7
100
AcDbEntity
  8
DEFPOINTS
  6
ByBlock
 62
     0
 48
50.0
100
AcDbPoint
 10
15402.82958141817
 20
5658.337018226841
 30
0.0
  0
POINT
  5
1A8F7
330
1A7B7
100
AcDbEntity
  8
DEFPOINTS
  6
ByBlock
 62
     0
 48
50.0
100
AcDbPoint
 10
15497.82958141817
 20
5655.0
 30
0.0
  0
POINT
  5
1A8F8
330
1A7B7
100
AcDbEntity
  8
DEFPOINTS
  6
ByBlock
 62
     0
 48
50.0
100
AcDbPoint
 10
15497.82958141817
 20
6408.281130716521
 30
0.0
  0
ENDBLK
  5
1A8F9
330
1A7B7
100
AcDbEntity
  8
0
 48
50.0
100
AcDbBlockEnd
  0
BLOCK
  5
1AE89
330
1AD67
100
AcDbEntity
  8
0
 48
50.0
100
AcDbBlockBegin
  2
*D13
 70
     1
 10
0.0
 20
0.0
 30
0.0
  3
*D13
  1

  0
LINE
  5
1AE8A
330
1AD67
100
AcDbEntity
  8
0
  6
ByBlock
 62
     0
 48
50.0
100
AcDbLine
 10
5971.809006248175
 20
18761.81261743063
 30
0.0
 11
5971.809006248175
 21
18384.17147514596
 31
0.0
  0
LINE
  5
1AE8B
330
1AD67
100
AcDbEntity
  8
0
  6
ByBlock
 62
     0
 48
50.0
100
AcDbLine
 10
5771.809006248173
 20
18761.81261743063
 30
0.0
 11
5771.809006248173
 21
18384.17147514596
 31
0.0
  0
LINE
  5
1AE8C
330
1AD67
100
AcDbEntity
  8
0
  6
ByBlock
 62
     0
 48
50.0
100
AcDbLine
 10
5971.809006248175
 20
18459.17147514596
 30
0.0
 11
5771.809006248173
 21
18459.17147514596
 31
0.0
  0
LINE
  5
1AE8D
330
1AD67
100
AcDbEntity
  8
0
  6
ByBlock
 62
     0
 48
50.0
100
AcDbLine
 10
5771.809006248173
 20
18459.17147514596
 30
0.0
 11
5322.881840893842
 21
18459.17147514596
 31
0.0
  0
INSERT
  5
1AE8E
330
1AD67
100
AcDbEntity
  8
0
  6
ByBlock
 62
     0
 48
50.0
100
AcDbBlockReference
  2
_DOTSMALL
 10
5971.809006248175
 20
18459.17147514596
 30
0.0
 41
125.0
 42
125.0
 43
125.0
  0
INSERT
  5
1AE8F
330
1AD67
100
AcDbEntity
  8
0
  6
ByBlock
 62
     0
 48
50.0
100
AcDbBlockReference
  2
_DOTSMALL
 10
5771.809006248173
 20
18459.17147514596
 30
0.0
 41
125.0
 42
125.0
 43
125.0
 50
180.0
  0
MTEXT
  5
1AE90
330
1AD67
100
AcDbEntity
  8
0
  6
ByBlock
 62
     7
 48
50.0
100
AcDbMText
 10
5484.845423571008
 20
18559.18623892548
 30
0.0
 40
150.0
 41
0.0
 71
     5
 72
     1
  1
\A1;200
  7
STYLE1
 73
     1
 44
1.0
  0
POINT
  5
1AE91
330
1AD67
100
AcDbEntity
  8
DEFPOINTS
  6
ByBlock
 62
     0
 48
50.0
100
AcDbPoint
 10
5971.809006248175
 20
18786.81261743063
 30
0.0
  0
POINT
  5
1AE92
330
1AD67
100
AcDbEntity
  8
DEFPOINTS
  6
ByBlock
 62
     0
 48
50.0
100
AcDbPoint
 10
5771.809006248173
 20
18786.81261743063
 30
0.0
  0
POINT
  5
1AE93
330
1AD67
100
AcDbEntity
  8
DEFPOINTS
  6
ByBlock
 62
     0
 48
50.0
100
AcDbPoint
 10
5771.809006248173
 20
18459.17147514596
 30
0.0
  0
ENDBLK
  5
1AE94
330
1AD67
100
AcDbEntity
  8
0
 48
50.0
100
AcDbBlockEnd
  0
BLOCK
  5
1AE95
330
1AD74
100
AcDbEntity
  8
0
 48
50.0
100
AcDbBlockBegin
  2
*D14
 70
     1
 10
0.0
 20
0.0
 30
0.0
  3
*D14
  1

  0
LINE
  5
1AE96
330
1AD74
100
AcDbEntity
  8
0
  6
ByBlock
 62
     0
 48
50.0
100
AcDbLine
 10
2196.809001878347
 20
21550.81262005543
 30
0.0
 11
2196.809001878347
 21
22597.88147198517
 31
0.0
  0
LINE
  5
1AE97
330
1AD74
100
AcDbEntity
  8
0
  6
ByBlock
 62
     0
 48
50.0
100
AcDbLine
 10
5926.809006248177
 20
21550.81262005543
 30
0.0
 11
5926.809006248177
 21
22597.88147198517
 31
0.0
  0
LINE
  5
1AE98
330
1AD74
100
AcDbEntity
  8
0
  6
ByBlock
 62
     0
 48
50.0
100
AcDbLine
 10
2196.809001878347
 20
22522.88147198517
 30
0.0
 11
5926.809006248177
 21
22522.88147198517
 31
0.0
  0
INSERT
  5
1AE99
330
1AD74
100
AcDbEntity
  8
0
  6
ByBlock
 62
     0
 48
50.0
100
AcDbBlockReference
  2
_DOTSMALL
 10
2196.809001878347
 20
22522.88147198517
 30
0.0
 41
125.0
 42
125.0
 43
125.0
 50
180.0
  0
INSERT
  5
1AE9A
330
1AD74
100
AcDbEntity
  8
0
  6
ByBlock
 62
     0
 48
50.0
100
AcDbBlockReference
  2
_DOTSMALL
 10
5926.809006248177
 20
22522.88147198517
 30
0.0
 41
125.0
 42
125.0
 43
125.0
  0
MTEXT
  5
1AE9B
330
1AD74
100
AcDbEntity
  8
0
  6
ByBlock
 62
     7
 48
50.0
100
AcDbMText
 10
4061.809004063262
 20
22622.88147198517
 30
0.0
 40
150.0
 41
0.0
 71
     5
 72
     1
  1
\A1;3730
  7
STYLE1
 73
     1
 44
1.0
  0
POINT
  5
1AE9C
330
1AD74
100
AcDbEntity
  8
DEFPOINTS
  6
ByBlock
 62
     0
 48
50.0
100
AcDbPoint
 10
2196.809001878347
 20
21525.81262005544
 30
0.0
  0
POINT
  5
1AE9D
330
1AD74
100
AcDbEntity
  8
DEFPOINTS
  6
ByBlock
 62
     0
 48
50.0
100
AcDbPoint
 10
5926.809006248177
 20
21525.81262005544
 30
0.0
  0
POINT
  5
1AE9E
330
1AD74
100
AcDbEntity
  8
DEFPOINTS
  6
ByBlock
 62
     0
 48
50.0
100
AcDbPoint
 10
5926.809006248177
 20
22522.88147198517
 30
0.0
  0
ENDBLK
  5
1AE9F
330
1AD74
100
AcDbEntity
  8
0
 48
50.0
100
AcDbBlockEnd
  0
BLOCK
  5
1AEA0
330
1AD80
100
AcDbEntity
  8
0
 48
50.0
100
AcDbBlockBegin
  2
*D15
 70
     1
 10
0.0
 20
0.0
 30
0.0
  3
*D15
  1

  0
LINE
  5
1B40D
330
1AD80
100
AcDbEntity
  8
寸法
 62
     0
 48
50.0
100
AcDbLine
 10
9042.829581418171
 20
5740.000000008447
 30
0.0
 11
9042.829581418171
 21
6483.281130716521
 31
0.0
  0
LINE
  5
1B40E
330
1AD80
100
AcDbEntity
  8
寸法
 62
     0
 48
50.0
100
AcDbLine
 10
5422.829581418173
 20
6408.281130716521
 30
0.0
 11
9042.829581418171
 21
6408.281130716521
 31
0.0
  0
INSERT
  5
1B40F
330
1AD80
100
AcDbEntity
  8
寸法
 62
     0
 48
50.0
100
AcDbBlockReference
  2
_DOTSMALL
 10
5422.829581418173
 20
6408.281130716521
 30
0.0
 41
125.0
 42
125.0
 43
125.0
 50
180.0
  0
INSERT
  5
1B410
330
1AD80
100
AcDbEntity
  8
寸法
 62
     0
 48
50.0
100
AcDbBlockReference
  2
_DOTSMALL
 10
9042.829581418171
 20
6408.281130716521
 30
0.0
 41
125.0
 42
125.0
 43
125.0
  0
MTEXT
  5
1B411
330
1AD80
100
AcDbEntity
  8
寸法
 62
     7
 48
50.0
100
AcDbMText
 10
7232.829581418172
 20
6508.295894496048
 30
0.0
 40
150.0
 41
0.0
 71
     5
 72
     1
  1
\A1;柱外寸法 3620
  7
STYLE1
 73
     1
 44
1.0
  0
POINT
  5
1B412
330
1AD80
100
AcDbEntity
  8
DEFPOINTS
 62
     0
 48
50.0
100
AcDbPoint
 10
5422.829581418173
 20
5715.000000008469
 30
0.0
  0
POINT
  5
1B413
330
1AD80
100
AcDbEntity
  8
DEFPOINTS
 62
     0
 48
50.0
100
AcDbPoint
 10
9042.829581418171
 20
5715.000000008448
 30
0.0
  0
POINT
  5
1B414
330
1AD80
100
AcDbEntity
  8
DEFPOINTS
 62
     0
 48
50.0
100
AcDbPoint
 10
9042.829581418171
 20
6408.281130716521
 30
0.0
  0
ENDBLK
  5
1AEA9
330
1AD80
100
AcDbEntity
  8
0
 48
50.0
100
AcDbBlockEnd
  0
BLOCK
  5
1AEAA
330
1AD8B
100
AcDbEntity
  8
0
 48
50.0
100
AcDbBlockBegin
  2
*D16
 70
     1
 10
0.0
 20
0.0
 30
0.0
  3
*D16
  1

  0
LINE
  5
1AEAB
330
1AD8B
100
AcDbEntity
  8
0
  6
ByBlock
 62
     0
 48
50.0
100
AcDbLine
 10
2196.809001878347
 20
21550.81262005543
 30
0.0
 11
2196.809001878347
 21
22330.09374814715
 31
0.0
  0
LINE
  5
1AEAC
330
1AD8B
100
AcDbEntity
  8
0
  6
ByBlock
 62
     0
 48
50.0
100
AcDbLine
 10
2251.809006248175
 20
21586.8126174391
 30
0.0
 11
2251.809006248175
 21
22330.09374814715
 31
0.0
  0
LINE
  5
1AEAD
330
1AD8B
100
AcDbEntity
  8
0
  6
ByBlock
 62
     0
 48
50.0
100
AcDbLine
 10
2251.809006248175
 20
22255.09374814715
 30
0.0
 11
2196.809001878347
 21
22255.09374814715
 31
0.0
  0
LINE
  5
1AEAE
330
1AD8B
100
AcDbEntity
  8
0
  6
ByBlock
 62
     0
 48
50.0
100
AcDbLine
 10
2196.809001878347
 20
22255.09374814715
 30
0.0
 11
1761.143349412264
 21
22255.09374814715
 31
0.0
  0
INSERT
  5
1AEAF
330
1AD8B
100
AcDbEntity
  8
0
  6
ByBlock
 62
     0
 48
50.0
100
AcDbBlockReference
  2
_DOTSMALL
 10
2251.809006248175
 20
22255.09374814715
 30
0.0
 41
125.0
 42
125.0
 43
125.0
  0
INSERT
  5
1AEB0
330
1AD8B
100
AcDbEntity
  8
0
  6
ByBlock
 62
     0
 48
50.0
100
AcDbBlockReference
  2
_DOTSMALL
 10
2196.809001878347
 20
22255.09374814715
 30
0.0
 41
125.0
 42
125.0
 43
125.0
 50
180.0
  0
MTEXT
  5
1AEB1
330
1AD8B
100
AcDbEntity
  8
0
  6
ByBlock
 62
     7
 48
50.0
100
AcDbMText
 10
1871.749951130063
 20
22355.09374814715
 30
0.0
 40
150.0
 41
0.0
 71
     5
 72
     1
  1
\A1;55
  7
STYLE1
 73
     1
 44
1.0
  0
POINT
  5
1AEB2
330
1AD8B
100
AcDbEntity
  8
DEFPOINTS
  6
ByBlock
 62
     0
 48
50.0
100
AcDbPoint
 10
2196.809001878347
 20
21525.81262005544
 30
0.0
  0
POINT
  5
1AEB3
330
1AD8B
100
AcDbEntity
  8
DEFPOINTS
  6
ByBlock
 62
     0
 48
50.0
100
AcDbPoint
 10
2251.809006248175
 20
21561.8126174391
 30
0.0
  0
POINT
  5
1AEB4
330
1AD8B
100
AcDbEntity
  8
DEFPOINTS
  6
ByBlock
 62
     0
 48
50.0
100
AcDbPoint
 10
2251.809006248175
 20
22255.09374814715
 30
0.0
  0
ENDBLK
  5
1AEB5
330
1AD8B
100
AcDbEntity
  8
0
 48
50.0
100
AcDbBlockEnd
  0
BLOCK
  5
1AFFA
330
1AD98
100
AcDbEntity
  8
0
 48
50.0
100
AcDbBlockBegin
  2
*D17
 70
     1
 10
0.0
 20
0.0
 30
0.0
  3
*D17
  1

  0
LINE
  5
1B415
330
1AD98
100
AcDbEntity
  8
寸法
 62
     0
 48
50.0
100
AcDbLine
 10
9067.829581418171
 20
5472.0
 30
0.0
 11
9773.934533249725
 21
5472.0
 31
0.0
  0
LINE
  5
1B416
330
1AD98
100
AcDbEntity
  8
寸法
 62
     0
 48
50.0
100
AcDbLine
 10
9698.934533249724
 20
3341.999999999999
 30
0.0
 11
9698.934533249726
 21
5472.0
 31
0.0
  0
INSERT
  5
1B417
330
1AD98
100
AcDbEntity
  8
寸法
 62
     0
 48
50.0
100
AcDbBlockReference
  2
_DOTSMALL
 10
9698.934533249724
 20
3341.999999999999
 30
0.0
 41
125.0
 42
125.0
 43
125.0
 50
270.0
  0
INSERT
  5
1B418
330
1AD98
100
AcDbEntity
  8
寸法
 62
     0
 48
50.0
100
AcDbBlockReference
  2
_DOTSMALL
 10
9698.934533249726
 20
5472.0
 30
0.0
 41
125.0
 42
125.0
 43
125.0
 50
90.0
  0
MTEXT
  5
1B419
330
1AD98
100
AcDbEntity
  8
寸法
 62
     7
 48
50.0
100
AcDbMText
 10
9598.919769470196
 20
4407.0
 30
0.0
 40
150.0
 41
0.0
 71
     5
 72
     1
  1
\A1;内高 2130
  7
STYLE1
 11
0.0000000000000001
 21
1.0
 31
0.0
 73
     1
 44
1.0
  0
POINT
  5
1B41A
330
1AD98
100
AcDbEntity
  8
DEFPOINTS
 62
     0
 48
50.0
100
AcDbPoint
 10
9042.829581418173
 20
3342.0
 30
0.0
  0
POINT
  5
1B41B
330
1AD98
100
AcDbEntity
  8
DEFPOINTS
 62
     0
 48
50.0
100
AcDbPoint
 10
9042.829581418171
 20
5472.0
 30
0.0
  0
POINT
  5
1B41C
330
1AD98
100
AcDbEntity
  8
DEFPOINTS
 62
     0
 48
50.0
100
AcDbPoint
 10
9698.934533249726
 20
5472.0
 30
0.0
  0
ENDBLK
  5
1B003
330
1AD98
100
AcDbEntity
  8
0
 48
50.0
100
AcDbBlockEnd
  0
BLOCK
  5
1AEC0
330
1ADA3
100
AcDbEntity
  8
0
 48
50.0
100
AcDbBlockBegin
  2
*D18
 70
     1
 10
0.0
 20
0.0
 30
0.0
  3
*D18
  1

  0
LINE
  5
1AEC1
330
1ADA3
100
AcDbEntity
  8
0
  6
ByBlock
 62
     0
 48
50.0
100
AcDbLine
 10
5896.809006248175
 20
19121.81261743063
 30
0.0
 11
6602.913958079728
 21
19121.81261743063
 31
0.0
  0
LINE
  5
1AEC2
330
1ADA3
100
AcDbEntity
  8
0
  6
ByBlock
 62
     0
 48
50.0
100
AcDbLine
 10
5896.809006248175
 20
19188.81261743063
 30
0.0
 11
6602.913958079728
 21
19188.81261743063
 31
0.0
  0
LINE
  5
1AEC3
330
1ADA3
100
AcDbEntity
  8
0
  6
ByBlock
 62
     0
 48
50.0
100
AcDbLine
 10
6527.913958079728
 20
19188.81261743063
 30
0.0
 11
6527.913958079728
 21
19121.81261743063
 31
0.0
  0
LINE
  5
1AEC4
330
1ADA3
100
AcDbEntity
  8
0
  6
ByBlock
 62
     0
 48
50.0
100
AcDbLine
 10
6527.913958079728
 20
19121.81261743063
 30
0.0
 11
6527.913958079728
 21
18713.52202594174
 31
0.0
  0
INSERT
  5
1AEC5
330
1ADA3
100
AcDbEntity
  8
0
  6
ByBlock
 62
     0
 48
50.0
100
AcDbBlockReference
  2
_DOTSMALL
 10
6527.913958079728
 20
19188.81261743063
 30
0.0
 41
125.0
 42
125.0
 43
125.0
 50
90.0
  0
INSERT
  5
1AEC6
330
1ADA3
100
AcDbEntity
  8
0
  6
ByBlock
 62
     0
 48
50.0
100
AcDbBlockReference
  2
_DOTSMALL
 10
6527.913958079728
 20
19121.81261743063
 30
0.0
 41
125.0
 42
125.0
 43
125.0
 50
270.0
  0
MTEXT
  5
1AEC7
330
1ADA3
100
AcDbEntity
  8
0
  6
ByBlock
 62
     7
 48
50.0
100
AcDbMText
 10
6427.913958079727
 20
18825.51021491812
 30
0.0
 40
150.0
 41
0.0
 71
     5
 72
     1
  1
\A1;67
  7
STYLE1
 11
0.0000000000000001
 21
1.0
 31
0.0
 73
     1
 44
1.0
  0
POINT
  5
1AEC8
330
1ADA3
100
AcDbEntity
  8
DEFPOINTS
  6
ByBlock
 62
     0
 48
50.0
100
AcDbPoint
 10
5871.809006248175
 20
19121.81261743063
 30
0.0
  0
POINT
  5
1AEC9
330
1ADA3
100
AcDbEntity
  8
DEFPOINTS
  6
ByBlock
 62
     0
 48
50.0
100
AcDbPoint
 10
5871.809006248175
 20
19188.81261743063
 30
0.0
  0
POINT
  5
1AECA
330
1ADA3
100
AcDbEntity
  8
DEFPOINTS
  6
ByBlock
 62
     0
 48
50.0
100
AcDbPoint
 10
6527.913958079728
 20
19188.81261743063
 30
0.0
  0
ENDBLK
  5
1AECB
330
1ADA3
100
AcDbEntity
  8
0
 48
50.0
100
AcDbBlockEnd
  0
BLOCK
  5
1AECC
330
1ADB0
100
AcDbEntity
  8
0
 48
50.0
100
AcDbBlockBegin
  2
*D19
 70
     1
 10
0.0
 20
0.0
 30
0.0
  3
*D19
  1

  0
LINE
  5
1AECD
330
1ADB0
100
AcDbEntity
  8
0
  6
ByBlock
 62
     0
 48
50.0
100
AcDbLine
 10
5871.809006248174
 20
21586.81261743907
 30
0.0
 11
5871.809006248174
 21
22330.09374814715
 31
0.0
  0
LINE
  5
1AECE
330
1ADB0
100
AcDbEntity
  8
0
  6
ByBlock
 62
     0
 48
50.0
100
AcDbLine
 10
5926.809006248177
 20
21550.81262005543
 30
0.0
 11
5926.809006248177
 21
22330.09374814715
 31
0.0
  0
LINE
  5
1AECF
330
1ADB0
100
AcDbEntity
  8
0
  6
ByBlock
 62
     0
 48
50.0
100
AcDbLine
 10
5871.809006248174
 20
22255.09374814715
 30
0.0
 11
5926.809006248177
 21
22255.09374814715
 31
0.0
  0
LINE
  5
1AED0
330
1ADB0
100
AcDbEntity
  8
0
  6
ByBlock
 62
     0
 48
50.0
100
AcDbLine
 10
5926.809006248177
 20
22255.09374814715
 30
0.0
 11
6352.474663084086
 21
22255.09374814715
 31
0.0
  0
INSERT
  5
1AED1
330
1ADB0
100
AcDbEntity
  8
0
  6
ByBlock
 62
     0
 48
50.0
100
AcDbBlockReference
  2
_DOTSMALL
 10
5871.809006248174
 20
22255.09374814715
 30
0.0
 41
125.0
 42
125.0
 43
125.0
 50
180.0
  0
INSERT
  5
1AED2
330
1ADB0
100
AcDbEntity
  8
0
  6
ByBlock
 62
     0
 48
50.0
100
AcDbBlockReference
  2
_DOTSMALL
 10
5926.809006248177
 20
22255.09374814715
 30
0.0
 41
125.0
 42
125.0
 43
125.0
  0
MTEXT
  5
1AED3
330
1ADB0
100
AcDbEntity
  8
0
  6
ByBlock
 62
     7
 48
50.0
100
AcDbMText
 10
6241.868061366287
 20
22355.09374814715
 30
0.0
 40
150.0
 41
0.0
 71
     5
 72
     1
  1
\A1;55
  7
STYLE1
 73
     1
 44
1.0
  0
POINT
  5
1AED4
330
1ADB0
100
AcDbEntity
  8
DEFPOINTS
  6
ByBlock
 62
     0
 48
50.0
100
AcDbPoint
 10
5871.809006248174
 20
21561.81261743908
 30
0.0
  0
POINT
  5
1AED5
330
1ADB0
100
AcDbEntity
  8
DEFPOINTS
  6
ByBlock
 62
     0
 48
50.0
100
AcDbPoint
 10
5926.809006248177
 20
21525.81262005544
 30
0.0
  0
POINT
  5
1AED6
330
1ADB0
100
AcDbEntity
  8
DEFPOINTS
  6
ByBlock
 62
     0
 48
50.0
100
AcDbPoint
 10
5926.809006248177
 20
22255.09374814715
 30
0.0
  0
ENDBLK
  5
1AED7
330
1ADB0
100
AcDbEntity
  8
0
 48
50.0
100
AcDbBlockEnd
  0
BLOCK
  5
1AED8
330
1ADBD
100
AcDbEntity
  8
0
 48
50.0
100
AcDbBlockBegin
  2
*D20
 70
     1
 10
0.0
 20
0.0
 30
0.0
  3
*D20
  1

  0
LINE
  5
1AED9
330
1ADBD
100
AcDbEntity
  8
0
  6
ByBlock
 62
     0
 48
50.0
100
AcDbLine
 10
2236.809006248173
 20
25075.5494147926
 30
0.0
 11
1410.178026468505
 21
25075.5494147926
 31
0.0
  0
LINE
  5
1AEDA
330
1ADBD
100
AcDbEntity
  8
0
  6
ByBlock
 62
     0
 48
50.0
100
AcDbLine
 10
2870.809006248175
 20
25007.54941479224
 30
0.0
 11
1410.178026468505
 21
25007.54941479224
 31
0.0
  0
LINE
  5
1AEDB
330
1ADBD
100
AcDbEntity
  8
0
  6
ByBlock
 62
     0
 48
50.0
100
AcDbLine
 10
1485.178026468505
 20
25075.5494147926
 30
0.0
 11
1485.178026468505
 21
25007.54941479224
 31
0.0
  0
LINE
  5
1AEDC
330
1ADBD
100
AcDbEntity
  8
0
  6
ByBlock
 62
     0
 48
50.0
100
AcDbLine
 10
1485.178026468505
 20
25007.54941479224
 30
0.0
 11
1485.178026468505
 21
24658.57303683948
 31
0.0
  0
INSERT
  5
1AEDD
330
1ADBD
100
AcDbEntity
  8
0
  6
ByBlock
 62
     0
 48
50.0
100
AcDbBlockReference
  2
_DOTSMALL
 10
1485.178026468505
 20
25075.5494147926
 30
0.0
 41
125.0
 42
125.0
 43
125.0
 50
90.0
  0
INSERT
  5
1AEDE
330
1ADBD
100
AcDbEntity
  8
0
  6
ByBlock
 62
     0
 48
50.0
100
AcDbBlockReference
  2
_DOTSMALL
 10
1485.178026468505
 20
25007.54941479224
 30
0.0
 41
125.0
 42
125.0
 43
125.0
 50
270.0
  0
MTEXT
  5
1AEDF
330
1ADBD
100
AcDbEntity
  8
0
  6
ByBlock
 62
     7
 48
50.0
100
AcDbMText
 10
1385.178026468505
 20
24770.56122581586
 30
0.0
 40
150.0
 41
0.0
 71
     5
 72
     1
  1
\A1;68
  7
STYLE1
 11
0.0000000000000001
 21
1.0
 31
0.0
 73
     1
 44
1.0
  0
POINT
  5
1AEE0
330
1ADBD
100
AcDbEntity
  8
DEFPOINTS
  6
ByBlock
 62
     0
 48
50.0
100
AcDbPoint
 10
2261.809006248173
 20
25075.5494147926
 30
0.0
  0
POINT
  5
1AEE1
330
1ADBD
100
AcDbEntity
  8
DEFPOINTS
  6
ByBlock
 62
     0
 48
50.0
100
AcDbPoint
 10
2895.809006248175
 20
25007.54941479224
 30
0.0
  0
POINT
  5
1AEE2
330
1ADBD
100
AcDbEntity
  8
DEFPOINTS
  6
ByBlock
 62
     0
 48
50.0
100
AcDbPoint
 10
1485.178026468505
 20
25007.54941479224
 30
0.0
  0
ENDBLK
  5
1AEE3
330
1ADBD
100
AcDbEntity
  8
0
 48
50.0
100
AcDbBlockEnd
  0
BLOCK
  5
1AF9F
330
1ADCA
100
AcDbEntity
  8
0
 48
50.0
100
AcDbBlockBegin
  2
*D21
 70
     1
 10
0.0
 20
0.0
 30
0.0
  3
*D21
  1

  0
LINE
  5
1AFA0
330
1ADCA
100
AcDbEntity
  8
0
  6
ByBlock
 62
     0
 48
50.0
100
AcDbLine
 10
4827.829581418171
 20
11108.73679736197
 30
0.0
 11
4001.198601638503
 21
11108.73679736197
 31
0.0
  0
LINE
  5
1AFA1
330
1ADCA
100
AcDbEntity
  8
0
  6
ByBlock
 62
     0
 48
50.0
100
AcDbLine
 10
4827.829581418171
 20
9228.736797361969
 30
0.0
 11
4001.198601638503
 21
9228.736797361969
 31
0.0
  0
LINE
  5
1AFA2
330
1ADCA
100
AcDbEntity
  8
0
  6
ByBlock
 62
     0
 48
50.0
100
AcDbLine
 10
4076.198601638504
 20
11108.73679736197
 30
0.0
 11
4076.198601638504
 21
9228.736797361969
 31
0.0
  0
INSERT
  5
1AFA3
330
1ADCA
100
AcDbEntity
  8
0
  6
ByBlock
 62
     0
 48
50.0
100
AcDbBlockReference
  2
_DOTSMALL
 10
4076.198601638504
 20
11108.73679736197
 30
0.0
 41
125.0
 42
125.0
 43
125.0
 50
90.0
  0
INSERT
  5
1AFA4
330
1ADCA
100
AcDbEntity
  8
0
  6
ByBlock
 62
     0
 48
50.0
100
AcDbBlockReference
  2
_DOTSMALL
 10
4076.198601638504
 20
9228.736797361969
 30
0.0
 41
125.0
 42
125.0
 43
125.0
 50
270.0
  0
MTEXT
  5
1AFA5
330
1ADCA
100
AcDbEntity
  8
0
  6
ByBlock
 62
     7
 48
50.0
100
AcDbMText
 10
3976.198601638504
 20
10168.73679736197
 30
0.0
 40
150.0
 41
0.0
 71
     5
 72
     1
  1
\A1;1880
  7
STYLE1
 11
0.0000000000000001
 21
1.0
 31
0.0
 73
     1
 44
1.0
  0
POINT
  5
1AFA6
330
1ADCA
100
AcDbEntity
  8
DEFPOINTS
  6
ByBlock
 62
     0
 48
50.0
100
AcDbPoint
 10
4852.829581418171
 20
11108.73679736197
 30
0.0
  0
POINT
  5
1AFA7
330
1ADCA
100
AcDbEntity
  8
DEFPOINTS
  6
ByBlock
 62
     0
 48
50.0
100
AcDbPoint
 10
4852.829581418171
 20
9228.736797361969
 30
0.0
  0
POINT
  5
1AFA8
330
1ADCA
100
AcDbEntity
  8
DEFPOINTS
  6
ByBlock
 62
     0
 48
50.0
100
AcDbPoint
 10
4076.198601638504
 20
9228.736797361969
 30
0.0
  0
ENDBLK
  5
1AFA9
330
1ADCA
100
AcDbEntity
  8
0
 48
50.0
100
AcDbBlockEnd
  0
BLOCK
  5
1AFAA
330
1ADD6
100
AcDbEntity
  8
0
 48
50.0
100
AcDbBlockBegin
  2
*D22
 70
     1
 10
0.0
 20
0.0
 30
0.0
  3
*D22
  1

  0
LINE
  5
1AFAB
330
1ADD6
100
AcDbEntity
  8
0
  6
ByBlock
 62
     0
 48
50.0
100
AcDbLine
 10
8487.829581418177
 20
9298.736797361977
 30
0.0
 11
9349.165333801144
 21
9298.736797361977
 31
0.0
  0
LINE
  5
1AFAC
330
1ADD6
100
AcDbEntity
  8
0
  6
ByBlock
 62
     0
 48
50.0
100
AcDbLine
 10
8487.829581418177
 20
11038.73679736197
 30
0.0
 11
9349.165333801144
 21
11038.73679736197
 31
0.0
  0
LINE
  5
1AFAD
330
1ADD6
100
AcDbEntity
  8
0
  6
ByBlock
 62
     0
 48
50.0
100
AcDbLine
 10
9274.165333801144
 20
9298.736797361977
 30
0.0
 11
9274.165333801144
 21
11038.73679736197
 31
0.0
  0
INSERT
  5
1AFAE
330
1ADD6
100
AcDbEntity
  8
0
  6
ByBlock
 62
     0
 48
50.0
100
AcDbBlockReference
  2
_DOTSMALL
 10
9274.165333801144
 20
9298.736797361977
 30
0.0
 41
125.0
 42
125.0
 43
125.0
 50
270.0
  0
INSERT
  5
1AFAF
330
1ADD6
100
AcDbEntity
  8
0
  6
ByBlock
 62
     0
 48
50.0
100
AcDbBlockReference
  2
_DOTSMALL
 10
9274.165333801144
 20
11038.73679736197
 30
0.0
 41
125.0
 42
125.0
 43
125.0
 50
90.0
  0
MTEXT
  5
1AFB0
330
1ADD6
100
AcDbEntity
  8
0
  6
ByBlock
 62
     7
 48
50.0
100
AcDbMText
 10
9174.165333801145
 20
10168.73679736197
 30
0.0
 40
150.0
 41
0.0
 71
     5
 72
     1
  1
\A1;3x580=1740
  7
STYLE1
 11
0.0000000000000001
 21
1.0
 31
0.0
 73
     1
 44
1.0
  0
POINT
  5
1AFB1
330
1ADD6
100
AcDbEntity
  8
DEFPOINTS
  6
ByBlock
 62
     0
 48
50.0
100
AcDbPoint
 10
8462.829581418176
 20
9298.736797361977
 30
0.0
  0
POINT
  5
1AFB2
330
1ADD6
100
AcDbEntity
  8
DEFPOINTS
  6
ByBlock
 62
     0
 48
50.0
100
AcDbPoint
 10
8462.829581418176
 20
11038.73679736197
 30
0.0
  0
POINT
  5
1AFB3
330
1ADD6
100
AcDbEntity
  8
DEFPOINTS
  6
ByBlock
 62
     0
 48
50.0
100
AcDbPoint
 10
9274.165333801144
 20
11038.73679736197
 30
0.0
  0
ENDBLK
  5
1AFB4
330
1ADD6
100
AcDbEntity
  8
0
 48
50.0
100
AcDbBlockEnd
  0
BLOCK
  5
1AFB5
330
1ADE2
100
AcDbEntity
  8
0
 48
50.0
100
AcDbBlockBegin
  2
*D23
 70
     1
 10
0.0
 20
0.0
 30
0.0
  3
*D23
  1

  0
LINE
  5
1AFB6
330
1ADE2
100
AcDbEntity
  8
0
  6
ByBlock
 62
     0
 48
50.0
100
AcDbLine
 10
9299.165333801147
 20
9278.736797361977
 30
0.0
 11
9651.969337719753
 21
9278.736797361977
 31
0.0
  0
LINE
  5
1AFB7
330
1ADE2
100
AcDbEntity
  8
0
  6
ByBlock
 62
     0
 48
50.0
100
AcDbLine
 10
9299.165333801145
 20
11058.73679736197
 30
0.0
 11
9651.969337719753
 21
11058.73679736197
 31
0.0
  0
LINE
  5
1AFB8
330
1ADE2
100
AcDbEntity
  8
0
  6
ByBlock
 62
     0
 48
50.0
100
AcDbLine
 10
9576.969337719752
 20
9278.736797361977
 30
0.0
 11
9576.969337719752
 21
11058.73679736197
 31
0.0
  0
INSERT
  5
1AFB9
330
1ADE2
100
AcDbEntity
  8
0
  6
ByBlock
 62
     0
 48
50.0
100
AcDbBlockReference
  2
_DOTSMALL
 10
9576.969337719752
 20
9278.736797361977
 30
0.0
 41
125.0
 42
125.0
 43
125.0
 50
270.0
  0
INSERT
  5
1AFBA
330
1ADE2
100
AcDbEntity
  8
0
  6
ByBlock
 62
     0
 48
50.0
100
AcDbBlockReference
  2
_DOTSMALL
 10
9576.969337719752
 20
11058.73679736197
 30
0.0
 41
125.0
 42
125.0
 43
125.0
 50
90.0
  0
MTEXT
  5
1AFBB
330
1ADE2
100
AcDbEntity
  8
0
  6
ByBlock
 62
     7
 48
50.0
100
AcDbMText
 10
9476.969337719753
 20
10168.73679736197
 30
0.0
 40
150.0
 41
0.0
 71
     5
 72
     1
  1
\A1;内部寸法 1780
  7
STYLE1
 11
0.0000000000000001
 21
1.0
 31
0.0
 73
     1
 44
1.0
  0
POINT
  5
1AFBC
330
1ADE2
100
AcDbEntity
  8
DEFPOINTS
  6
ByBlock
 62
     0
 48
50.0
100
AcDbPoint
 10
9274.165333801148
 20
9278.736797361977
 30
0.0
  0
POINT
  5
1AFBD
330
1ADE2
100
AcDbEntity
  8
DEFPOINTS
  6
ByBlock
 62
     0
 48
50.0
100
AcDbPoint
 10
9274.165333801144
 20
11058.73679736197
 30
0.0
  0
POINT
  5
1AFBE
330
1ADE2
100
AcDbEntity
  8
DEFPOINTS
  6
ByBlock
 62
     0
 48
50.0
100
AcDbPoint
 10
9576.969337719752
 20
11058.73679736197
 30
0.0
  0
ENDBLK
  5
1AFBF
330
1ADE2
100
AcDbEntity
  8
0
 48
50.0
100
AcDbBlockEnd
  0
BLOCK
  5
1AF05
330
1ADEE
100
AcDbEntity
  8
0
 48
50.0
100
AcDbBlockBegin
  2
*D24
 70
     1
 10
0.0
 20
0.0
 30
0.0
  3
*D24
  1

  0
LINE
  5
1AF06
330
1ADEE
100
AcDbEntity
  8
0
  6
ByBlock
 62
     0
 48
50.0
100
AcDbLine
 10
2251.809006248173
 20
25060.5494147926
 30
0.0
 11
2251.809006248173
 21
23739.24112084144
 31
0.0
  0
LINE
  5
1AF07
330
1ADEE
100
AcDbEntity
  8
0
  6
ByBlock
 62
     0
 48
50.0
100
AcDbLine
 10
5871.809006248179
 20
25060.5494147926
 30
0.0
 11
5871.809006248179
 21
23739.24112084144
 31
0.0
  0
LINE
  5
1AF08
330
1ADEE
100
AcDbEntity
  8
0
  6
ByBlock
 62
     0
 48
50.0
100
AcDbLine
 10
2251.809006248173
 20
23814.24112084144
 30
0.0
 11
5871.809006248179
 21
23814.24112084144
 31
0.0
  0
INSERT
  5
1AF09
330
1ADEE
100
AcDbEntity
  8
0
  6
ByBlock
 62
     0
 48
50.0
100
AcDbBlockReference
  2
_DOTSMALL
 10
2251.809006248173
 20
23814.24112084144
 30
0.0
 41
125.0
 42
125.0
 43
125.0
 50
180.0
  0
INSERT
  5
1AF0A
330
1ADEE
100
AcDbEntity
  8
0
  6
ByBlock
 62
     0
 48
50.0
100
AcDbBlockReference
  2
_DOTSMALL
 10
5871.809006248179
 20
23814.24112084144
 30
0.0
 41
125.0
 42
125.0
 43
125.0
  0
MTEXT
  5
1AF0B
330
1ADEE
100
AcDbEntity
  8
0
  6
ByBlock
 62
     7
 48
50.0
100
AcDbMText
 10
4061.809006248176
 20
23914.25588462097
 30
0.0
 40
150.0
 41
0.0
 71
     5
 72
     1
  1
\A1;3620
  7
STYLE1
 73
     1
 44
1.0
  0
POINT
  5
1AF0C
330
1ADEE
100
AcDbEntity
  8
DEFPOINTS
  6
ByBlock
 62
     0
 48
50.0
100
AcDbPoint
 10
2251.809006248173
 20
25085.5494147926
 30
0.0
  0
POINT
  5
1AF0D
330
1ADEE
100
AcDbEntity
  8
DEFPOINTS
  6
ByBlock
 62
     0
 48
50.0
100
AcDbPoint
 10
5871.809006248179
 20
25085.5494147926
 30
0.0
  0
POINT
  5
1AF0E
330
1ADEE
100
AcDbEntity
  8
DEFPOINTS
  6
ByBlock
 62
     0
 48
50.0
100
AcDbPoint
 10
5871.809006248179
 20
23814.24112084144
 30
0.0
  0
ENDBLK
  5
1AF0F
330
1ADEE
100
AcDbEntity
  8
0
 48
50.0
100
AcDbBlockEnd
  0
BLOCK
  5
1AF10
330
1ADFA
100
AcDbEntity
  8
0
 48
50.0
100
AcDbBlockBegin
  2
*D25
 70
     1
 10
0.0
 20
0.0
 30
0.0
  3
*D25
  1

  0
LINE
  5
1AF11
330
1ADFA
100
AcDbEntity
  8
0
  6
ByBlock
 62
     0
 48
50.0
100
AcDbLine
 10
2921.809006248175
 20
24982.54941479224
 30
0.0
 11
2921.809006248175
 21
24304.08611550127
 31
0.0
  0
LINE
  5
1AF12
330
1ADFA
100
AcDbEntity
  8
0
  6
ByBlock
 62
     0
 48
50.0
100
AcDbLine
 10
4011.809006248175
 20
24982.54941479224
 30
0.0
 11
4011.809006248175
 21
24304.08611550127
 31
0.0
  0
LINE
  5
1AF13
330
1ADFA
100
AcDbEntity
  8
0
  6
ByBlock
 62
     0
 48
50.0
100
AcDbLine
 10
2921.809006248175
 20
24379.08611550127
 30
0.0
 11
2796.809006248175
 21
24379.08611550127
 31
0.0
  0
LINE
  5
1AF14
330
1ADFA
100
AcDbEntity
  8
0
  6
ByBlock
 62
     0
 48
50.0
100
AcDbLine
 10
4011.809006248175
 20
24379.08611550127
 30
0.0
 11
4136.809006248175
 21
24379.08611550127
 31
0.0
  0
LINE
  5
1AF15
330
1ADFA
100
AcDbEntity
  8
0
  6
ByBlock
 62
     0
 48
50.0
100
AcDbLine
 10
2921.809006248175
 20
24379.08611550127
 30
0.0
 11
4011.809006248175
 21
24379.08611550127
 31
0.0
  0
INSERT
  5
1AF16
330
1ADFA
100
AcDbEntity
  8
0
  6
ByBlock
 62
     0
 48
50.0
100
AcDbBlockReference
  2
_DOTSMALL
 10
2921.809006248175
 20
24379.08611550127
 30
0.0
 41
125.0
 42
125.0
 43
125.0
  0
INSERT
  5
1AF17
330
1ADFA
100
AcDbEntity
  8
0
  6
ByBlock
 62
     0
 48
50.0
100
AcDbBlockReference
  2
_DOTSMALL
 10
4011.809006248175
 20
24379.08611550127
 30
0.0
 41
125.0
 42
125.0
 43
125.0
 50
180.0
  0
MTEXT
  5
1AF18
330
1ADFA
100
AcDbEntity
  8
0
  6
ByBlock
 62
     7
 48
50.0
100
AcDbMText
 10
3466.809006248175
 20
24604.08611550127
 30
0.0
 40
150.0
 41
0.0
 71
     5
 72
     1
  1
\A1;有効開口部間口\P1090
  7
STYLE1
 73
     1
 44
1.0
  0
POINT
  5
1AF19
330
1ADFA
100
AcDbEntity
  8
DEFPOINTS
  6
ByBlock
 62
     0
 48
50.0
100
AcDbPoint
 10
2921.809006248175
 20
25007.54941479224
 30
0.0
  0
POINT
  5
1AF1A
330
1ADFA
100
AcDbEntity
  8
DEFPOINTS
  6
ByBlock
 62
     0
 48
50.0
100
AcDbPoint
 10
4011.809006248175
 20
25007.54941479224
 30
0.0
  0
POINT
  5
1AF1B
330
1ADFA
100
AcDbEntity
  8
DEFPOINTS
  6
ByBlock
 62
     0
 48
50.0
100
AcDbPoint
 10
4011.809006248175
 20
24379.08611550127
 30
0.0
  0
ENDBLK
  5
1AF1C
330
1ADFA
100
AcDbEntity
  8
0
 48
50.0
100
AcDbBlockEnd
  0
BLOCK
  5
1AF1D
330
1AE08
100
AcDbEntity
  8
0
 48
50.0
100
AcDbBlockBegin
  2
*D26
 70
     1
 10
0.0
 20
0.0
 30
0.0
  3
*D26
  1

  0
LINE
  5
1AF1E
330
1AE08
100
AcDbEntity
  8
0
  6
ByBlock
 62
     0
 48
50.0
100
AcDbLine
 10
5886.809006248179
 20
25075.5494147926
 30
0.0
 11
6758.144758631151
 21
25075.5494147926
 31
0.0
  0
LINE
  5
1AF1F
330
1AE08
100
AcDbEntity
  8
0
  6
ByBlock
 62
     0
 48
50.0
100
AcDbLine
 10
5896.809006248179
 20
25145.5494147926
 30
0.0
 11
6758.144758631151
 21
25145.5494147926
 31
0.0
  0
LINE
  5
1AF20
330
1AE08
100
AcDbEntity
  8
0
  6
ByBlock
 62
     0
 48
50.0
100
AcDbLine
 10
6683.144758631151
 20
25145.5494147926
 30
0.0
 11
6683.144758631151
 21
25075.5494147926
 31
0.0
  0
LINE
  5
1AF21
330
1AE08
100
AcDbEntity
  8
0
  6
ByBlock
 62
     0
 48
50.0
100
AcDbLine
 10
6683.144758631151
 20
25075.5494147926
 30
0.0
 11
6683.144758631151
 21
24735.43130455638
 31
0.0
  0
INSERT
  5
1AF22
330
1AE08
100
AcDbEntity
  8
0
  6
ByBlock
 62
     0
 48
50.0
100
AcDbBlockReference
  2
_DOTSMALL
 10
6683.144758631151
 20
25145.5494147926
 30
0.0
 41
125.0
 42
125.0
 43
125.0
 50
90.0
  0
INSERT
  5
1AF23
330
1AE08
100
AcDbEntity
  8
0
  6
ByBlock
 62
     0
 48
50.0
100
AcDbBlockReference
  2
_DOTSMALL
 10
6683.144758631151
 20
25075.5494147926
 30
0.0
 41
125.0
 42
125.0
 43
125.0
 50
270.0
  0
MTEXT
  5
1AF24
330
1AE08
100
AcDbEntity
  8
0
  6
ByBlock
 62
     7
 48
50.0
100
AcDbMText
 10
6583.144758631151
 20
24842.99035967449
 30
0.0
 40
150.0
 41
0.0
 71
     5
 72
     1
  1
\A1;70
  7
STYLE1
 11
0.0000000000000001
 21
1.0
 31
0.0
 73
     1
 44
1.0
  0
POINT
  5
1AF25
330
1AE08
100
AcDbEntity
  8
DEFPOINTS
  6
ByBlock
 62
     0
 48
50.0
100
AcDbPoint
 10
5861.809006248179
 20
25075.5494147926
 30
0.0
  0
POINT
  5
1AF26
330
1AE08
100
AcDbEntity
  8
DEFPOINTS
  6
ByBlock
 62
     0
 48
50.0
100
AcDbPoint
 10
5871.809006248179
 20
25145.5494147926
 30
0.0
  0
POINT
  5
1AF27
330
1AE08
100
AcDbEntity
  8
DEFPOINTS
  6
ByBlock
 62
     0
 48
50.0
100
AcDbPoint
 10
6683.144758631151
 20
25145.5494147926
 30
0.0
  0
ENDBLK
  5
1AF28
330
1AE08
100
AcDbEntity
  8
0
 48
50.0
100
AcDbBlockEnd
  0
BLOCK
  5
1AF29
330
1AE15
100
AcDbEntity
  8
0
 48
50.0
100
AcDbBlockBegin
  2
*D27
 70
     1
 10
0.0
 20
0.0
 30
0.0
  3
*D27
  1

  0
LINE
  5
1AF2A
330
1AE15
100
AcDbEntity
  8
0
  6
ByBlock
 62
     0
 48
50.0
100
AcDbLine
 10
5886.809006248179
 20
25075.5494147926
 30
0.0
 11
7060.94876254976
 21
25075.5494147926
 31
0.0
  0
LINE
  5
1AF2B
330
1AE15
100
AcDbEntity
  8
0
  6
ByBlock
 62
     0
 48
50.0
100
AcDbLine
 10
6708.144758631149
 20
25125.5494147926
 30
0.0
 11
7060.94876254976
 21
25125.5494147926
 31
0.0
  0
LINE
  5
1AF2C
330
1AE15
100
AcDbEntity
  8
0
  6
ByBlock
 62
     0
 48
50.0
100
AcDbLine
 10
6985.94876254976
 20
25125.5494147926
 30
0.0
 11
6985.94876254976
 21
25075.5494147926
 31
0.0
  0
LINE
  5
1AF2D
330
1AE15
100
AcDbEntity
  8
0
  6
ByBlock
 62
     0
 48
50.0
100
AcDbLine
 10
6985.94876254976
 20
25075.5494147926
 30
0.0
 11
6985.94876254976
 21
24730.94311558
 31
0.0
  0
INSERT
  5
1AF2E
330
1AE15
100
AcDbEntity
  8
0
  6
ByBlock
 62
     0
 48
50.0
100
AcDbBlockReference
  2
_DOTSMALL
 10
6985.94876254976
 20
25125.5494147926
 30
0.0
 41
125.0
 42
125.0
 43
125.0
 50
90.0
  0
INSERT
  5
1AF2F
330
1AE15
100
AcDbEntity
  8
0
  6
ByBlock
 62
     0
 48
50.0
100
AcDbBlockReference
  2
_DOTSMALL
 10
6985.94876254976
 20
25075.5494147926
 30
0.0
 41
125.0
 42
125.0
 43
125.0
 50
270.0
  0
MTEXT
  5
1AF30
330
1AE15
100
AcDbEntity
  8
0
  6
ByBlock
 62
     7
 48
50.0
100
AcDbMText
 10
6885.948762549761
 20
24838.50217069811
 30
0.0
 40
150.0
 41
0.0
 71
     5
 72
     1
  1
\A1;50
  7
STYLE1
 11
0.0000000000000001
 21
1.0
 31
0.0
 73
     1
 44
1.0
  0
POINT
  5
1AF31
330
1AE15
100
AcDbEntity
  8
DEFPOINTS
  6
ByBlock
 62
     0
 48
50.0
100
AcDbPoint
 10
5861.809006248179
 20
25075.5494147926
 30
0.0
  0
POINT
  5
1AF32
330
1AE15
100
AcDbEntity
  8
DEFPOINTS
  6
ByBlock
 62
     0
 48
50.0
100
AcDbPoint
 10
6683.14475863115
 20
25125.5494147926
 30
0.0
  0
POINT
  5
1AF33
330
1AE15
100
AcDbEntity
  8
DEFPOINTS
  6
ByBlock
 62
     0
 48
50.0
100
AcDbPoint
 10
6985.94876254976
 20
25125.5494147926
 30
0.0
  0
ENDBLK
  5
1AF34
330
1AE15
100
AcDbEntity
  8
0
 48
50.0
100
AcDbBlockEnd
  0
BLOCK
  5
1AFD4
330
1AE22
100
AcDbEntity
  8
0
 48
50.0
100
AcDbBlockBegin
  2
*D28
 70
     1
 10
0.0
 20
0.0
 30
0.0
  3
*D28
  1

  0
LINE
  5
1B41D
330
1AE22
100
AcDbEntity
  8
寸法
 62
     0
 48
50.0
100
AcDbLine
 10
8972.829581418174
 20
11133.73679736197
 30
0.0
 11
8972.829581418174
 21
11593.76878223262
 31
0.0
  0
LINE
  5
1B41E
330
1AE22
100
AcDbEntity
  8
寸法
 62
     0
 48
50.0
100
AcDbLine
 10
5492.829581418173
 20
11518.76878223262
 30
0.0
 11
8972.829581418174
 21
11518.76878223262
 31
0.0
  0
INSERT
  5
1B41F
330
1AE22
100
AcDbEntity
  8
寸法
 62
     0
 48
50.0
100
AcDbBlockReference
  2
_DOTSMALL
 10
5492.829581418173
 20
11518.76878223262
 30
0.0
 41
125.0
 42
125.0
 43
125.0
 50
180.0
  0
INSERT
  5
1B420
330
1AE22
100
AcDbEntity
  8
寸法
 62
     0
 48
50.0
100
AcDbBlockReference
  2
_DOTSMALL
 10
8972.829581418174
 20
11518.76878223262
 30
0.0
 41
125.0
 42
125.0
 43
125.0
  0
MTEXT
  5
1B421
330
1AE22
100
AcDbEntity
  8
寸法
 62
     7
 48
50.0
100
AcDbMText
 10
7232.829581418174
 20
11618.76878223262
 30
0.0
 40
150.0
 41
0.0
 71
     5
 72
     1
  1
\A1;6x580=3480
  7
STYLE1
 73
     1
 44
1.0
  0
POINT
  5
1B422
330
1AE22
100
AcDbEntity
  8
DEFPOINTS
 62
     0
 48
50.0
100
AcDbPoint
 10
5492.829581418173
 20
11108.73679736197
 30
0.0
  0
POINT
  5
1B423
330
1AE22
100
AcDbEntity
  8
DEFPOINTS
 62
     0
 48
50.0
100
AcDbPoint
 10
8972.829581418174
 20
11108.73679736197
 30
0.0
  0
POINT
  5
1B424
330
1AE22
100
AcDbEntity
  8
DEFPOINTS
 62
     0
 48
50.0
100
AcDbPoint
 10
8972.829581418174
 20
11518.76878223262
 30
0.0
  0
ENDBLK
  5
1AFDD
330
1AE22
100
AcDbEntity
  8
0
 48
50.0
100
AcDbBlockEnd
  0
BLOCK
  5
1AFCA
330
1AE2D
100
AcDbEntity
  8
0
 48
50.0
100
AcDbBlockBegin
  2
*D29
 70
     1
 10
0.0
 20
0.0
 30
0.0
  3
*D29
  1

  0
LINE
  5
1B425
330
1AE2D
100
AcDbEntity
  8
寸法
 62
     0
 48
50.0
100
AcDbLine
 10
8992.829581418181
 20
11543.76878223262
 30
0.0
 11
8992.829581418181
 21
11892.51516613338
 31
0.0
  0
LINE
  5
1B426
330
1AE2D
100
AcDbEntity
  8
寸法
 62
     0
 48
50.0
100
AcDbLine
 10
5472.829581418169
 20
11817.51516613338
 30
0.0
 11
8992.829581418181
 21
11817.51516613338
 31
0.0
  0
INSERT
  5
1B427
330
1AE2D
100
AcDbEntity
  8
寸法
 62
     0
 48
50.0
100
AcDbBlockReference
  2
_DOTSMALL
 10
5472.829581418169
 20
11817.51516613338
 30
0.0
 41
125.0
 42
125.0
 43
125.0
 50
180.0
  0
INSERT
  5
1B428
330
1AE2D
100
AcDbEntity
  8
寸法
 62
     0
 48
50.0
100
AcDbBlockReference
  2
_DOTSMALL
 10
8992.829581418181
 20
11817.51516613338
 30
0.0
 41
125.0
 42
125.0
 43
125.0
  0
MTEXT
  5
1B429
330
1AE2D
100
AcDbEntity
  8
寸法
 62
     7
 48
50.0
100
AcDbMText
 10
7232.829581418174
 20
11917.52992991291
 30
0.0
 40
150.0
 41
0.0
 71
     5
 72
     1
  1
\A1;内部寸法 3520
  7
STYLE1
 73
     1
 44
1.0
  0
POINT
  5
1B42A
330
1AE2D
100
AcDbEntity
  8
DEFPOINTS
 62
     0
 48
50.0
100
AcDbPoint
 10
5472.829581418169
 20
11518.76878223262
 30
0.0
  0
POINT
  5
1B42B
330
1AE2D
100
AcDbEntity
  8
DEFPOINTS
 62
     0
 48
50.0
100
AcDbPoint
 10
8992.829581418181
 20
11518.76878223262
 30
0.0
  0
POINT
  5
1B42C
330
1AE2D
100
AcDbEntity
  8
DEFPOINTS
 62
     0
 48
50.0
100
AcDbPoint
 10
8992.829581418181
 20
11817.51516613338
 30
0.0
  0
ENDBLK
  5
1AFD3
330
1AE2D
100
AcDbEntity
  8
0
 48
50.0
100
AcDbBlockEnd
  0
BLOCK
  5
1AF49
330
1AE38
100
AcDbEntity
  8
0
 48
50.0
100
AcDbBlockBegin
  2
*D30
 70
     1
 10
0.0
 20
0.0
 30
0.0
  3
*D30
  1

  0
LINE
  5
1AF4A
330
1AE38
100
AcDbEntity
  8
0
  6
ByBlock
 62
     0
 48
50.0
100
AcDbLine
 10
2251.809006248173
 20
28130.5494147926
 30
0.0
 11
2251.809006248173
 21
28600.58139966325
 31
0.0
  0
LINE
  5
1AF4B
330
1AE38
100
AcDbEntity
  8
0
  6
ByBlock
 62
     0
 48
50.0
100
AcDbLine
 10
2321.809006248175
 20
28140.5494147926
 30
0.0
 11
2321.809006248175
 21
28600.58139966325
 31
0.0
  0
LINE
  5
1AF4C
330
1AE38
100
AcDbEntity
  8
0
  6
ByBlock
 62
     0
 48
50.0
100
AcDbLine
 10
2321.809006248175
 20
28525.58139966325
 30
0.0
 11
2251.809006248173
 21
28525.58139966325
 31
0.0
  0
LINE
  5
1AF4D
330
1AE38
100
AcDbEntity
  8
0
  6
ByBlock
 62
     0
 48
50.0
100
AcDbLine
 10
2251.809006248173
 20
28525.58139966325
 30
0.0
 11
1901.690896011952
 21
28525.58139966325
 31
0.0
  0
INSERT
  5
1AF4E
330
1AE38
100
AcDbEntity
  8
0
  6
ByBlock
 62
     0
 48
50.0
100
AcDbBlockReference
  2
_DOTSMALL
 10
2321.809006248175
 20
28525.58139966325
 30
0.0
 41
125.0
 42
125.0
 43
125.0
  0
INSERT
  5
1AF4F
330
1AE38
100
AcDbEntity
  8
0
  6
ByBlock
 62
     0
 48
50.0
100
AcDbBlockReference
  2
_DOTSMALL
 10
2251.809006248173
 20
28525.58139966325
 30
0.0
 41
125.0
 42
125.0
 43
125.0
 50
180.0
  0
MTEXT
  5
1AF50
330
1AE38
100
AcDbEntity
  8
0
  6
ByBlock
 62
     7
 48
50.0
100
AcDbMText
 10
2009.249951130063
 20
28625.58139966325
 30
0.0
 40
150.0
 41
0.0
 71
     5
 72
     1
  1
\A1;70
  7
STYLE1
 73
     1
 44
1.0
  0
POINT
  5
1AF51
330
1AE38
100
AcDbEntity
  8
DEFPOINTS
  6
ByBlock
 62
     0
 48
50.0
100
AcDbPoint
 10
2251.809006248173
 20
28105.5494147926
 30
0.0
  0
POINT
  5
1AF52
330
1AE38
100
AcDbEntity
  8
DEFPOINTS
  6
ByBlock
 62
     0
 48
50.0
100
AcDbPoint
 10
2321.809006248175
 20
28115.5494147926
 30
0.0
  0
POINT
  5
1AF53
330
1AE38
100
AcDbEntity
  8
DEFPOINTS
  6
ByBlock
 62
     0
 48
50.0
100
AcDbPoint
 10
2321.809006248175
 20
28525.58139966325
 30
0.0
  0
ENDBLK
  5
1AF54
330
1AE38
100
AcDbEntity
  8
0
 48
50.0
100
AcDbBlockEnd
  0
BLOCK
  5
1AF55
330
1AE45
100
AcDbEntity
  8
0
 48
50.0
100
AcDbBlockBegin
  2
*D31
 70
     1
 10
0.0
 20
0.0
 30
0.0
  3
*D31
  1

  0
LINE
  5
1AF56
330
1AE45
100
AcDbEntity
  8
0
  6
ByBlock
 62
     0
 48
50.0
100
AcDbLine
 10
2251.809006248173
 20
28130.5494147926
 30
0.0
 11
2251.809006248173
 21
28899.32778356401
 31
0.0
  0
LINE
  5
1AF57
330
1AE45
100
AcDbEntity
  8
0
  6
ByBlock
 62
     0
 48
50.0
100
AcDbLine
 10
2301.809006248171
 20
28550.58139966325
 30
0.0
 11
2301.809006248171
 21
28899.32778356401
 31
0.0
  0
LINE
  5
1AF58
330
1AE45
100
AcDbEntity
  8
0
  6
ByBlock
 62
     0
 48
50.0
100
AcDbLine
 10
2301.809006248171
 20
28824.32778356401
 30
0.0
 11
2426.809006248171
 21
28824.32778356401
 31
0.0
  0
LINE
  5
1AF59
330
1AE45
100
AcDbEntity
  8
0
  6
ByBlock
 62
     0
 48
50.0
100
AcDbLine
 10
2251.809006248173
 20
28824.32778356401
 30
0.0
 11
1786.690896011952
 21
28824.32778356401
 31
0.0
  0
LINE
  5
1AF5A
330
1AE45
100
AcDbEntity
  8
0
  6
ByBlock
 62
     0
 48
50.0
100
AcDbLine
 10
2301.809006248171
 20
28824.32778356401
 30
0.0
 11
2251.809006248173
 21
28824.32778356401
 31
0.0
  0
INSERT
  5
1AF5B
330
1AE45
100
AcDbEntity
  8
0
  6
ByBlock
 62
     0
 48
50.0
100
AcDbBlockReference
  2
_DOTSMALL
 10
2301.809006248171
 20
28824.32778356401
 30
0.0
 41
125.0
 42
125.0
 43
125.0
 50
180.0
  0
INSERT
  5
1AF5C
330
1AE45
100
AcDbEntity
  8
0
  6
ByBlock
 62
     0
 48
50.0
100
AcDbBlockReference
  2
_DOTSMALL
 10
2251.809006248173
 20
28824.32778356401
 30
0.0
 41
125.0
 42
125.0
 43
125.0
  0
MTEXT
  5
1AF5D
330
1AE45
100
AcDbEntity
  8
0
  6
ByBlock
 62
     7
 48
50.0
100
AcDbMText
 10
1894.249951130063
 20
28924.32778356401
 30
0.0
 40
150.0
 41
0.0
 71
     5
 72
     1
  1
\A1;50
  7
STYLE1
 73
     1
 44
1.0
  0
POINT
  5
1AF5E
330
1AE45
100
AcDbEntity
  8
DEFPOINTS
  6
ByBlock
 62
     0
 48
50.0
100
AcDbPoint
 10
2251.809006248173
 20
28105.5494147926
 30
0.0
  0
POINT
  5
1AF5F
330
1AE45
100
AcDbEntity
  8
DEFPOINTS
  6
ByBlock
 62
     0
 48
50.0
100
AcDbPoint
 10
2301.809006248171
 20
28525.58139966325
 30
0.0
  0
POINT
  5
1AF60
330
1AE45
100
AcDbEntity
  8
DEFPOINTS
  6
ByBlock
 62
     0
 48
50.0
100
AcDbPoint
 10
2301.809006248171
 20
28824.32778356401
 30
0.0
  0
ENDBLK
  5
1AF61
330
1AE45
100
AcDbEntity
  8
0
 48
50.0
100
AcDbBlockEnd
  0
BLOCK
  5
1AF62
330
1AE53
100
AcDbEntity
  8
0
 48
50.0
100
AcDbBlockBegin
  2
*D32
 70
     1
 10
0.0
 20
0.0
 30
0.0
  3
*D32
  1

  0
LINE
  5
1AF63
330
1AE53
100
AcDbEntity
  8
0
  6
ByBlock
 62
     0
 48
50.0
100
AcDbLine
 10
5821.809006248183
 20
28550.58139966325
 30
0.0
 11
5821.809006248183
 21
28899.32778356401
 31
0.0
  0
LINE
  5
1AF64
330
1AE53
100
AcDbEntity
  8
0
  6
ByBlock
 62
     0
 48
50.0
100
AcDbLine
 10
5871.809006248179
 20
28130.5494147926
 30
0.0
 11
5871.809006248179
 21
28899.32778356401
 31
0.0
  0
LINE
  5
1AF65
330
1AE53
100
AcDbEntity
  8
0
  6
ByBlock
 62
     0
 48
50.0
100
AcDbLine
 10
5821.809006248183
 20
28824.32778356401
 30
0.0
 11
5696.809006248183
 21
28824.32778356401
 31
0.0
  0
LINE
  5
1AF66
330
1AE53
100
AcDbEntity
  8
0
  6
ByBlock
 62
     0
 48
50.0
100
AcDbLine
 10
5871.809006248179
 20
28824.32778356401
 30
0.0
 11
6336.9271164844
 21
28824.32778356401
 31
0.0
  0
LINE
  5
1AF67
330
1AE53
100
AcDbEntity
  8
0
  6
ByBlock
 62
     0
 48
50.0
100
AcDbLine
 10
5821.809006248183
 20
28824.32778356401
 30
0.0
 11
5871.809006248179
 21
28824.32778356401
 31
0.0
  0
INSERT
  5
1AF68
330
1AE53
100
AcDbEntity
  8
0
  6
ByBlock
 62
     0
 48
50.0
100
AcDbBlockReference
  2
_DOTSMALL
 10
5821.809006248183
 20
28824.32778356401
 30
0.0
 41
125.0
 42
125.0
 43
125.0
  0
INSERT
  5
1AF69
330
1AE53
100
AcDbEntity
  8
0
  6
ByBlock
 62
     0
 48
50.0
100
AcDbBlockReference
  2
_DOTSMALL
 10
5871.809006248179
 20
28824.32778356401
 30
0.0
 41
125.0
 42
125.0
 43
125.0
 50
180.0
  0
MTEXT
  5
1AF6A
330
1AE53
100
AcDbEntity
  8
0
  6
ByBlock
 62
     7
 48
50.0
100
AcDbMText
 10
6229.368061366289
 20
28924.32778356401
 30
0.0
 40
150.0
 41
0.0
 71
     5
 72
     1
  1
\A1;50
  7
STYLE1
 73
     1
 44
1.0
  0
POINT
  5
1AF6B
330
1AE53
100
AcDbEntity
  8
DEFPOINTS
  6
ByBlock
 62
     0
 48
50.0
100
AcDbPoint
 10
5821.809006248183
 20
28525.58139966325
 30
0.0
  0
POINT
  5
1AF6C
330
1AE53
100
AcDbEntity
  8
DEFPOINTS
  6
ByBlock
 62
     0
 48
50.0
100
AcDbPoint
 10
5871.809006248179
 20
28105.5494147926
 30
0.0
  0
POINT
  5
1AF6D
330
1AE53
100
AcDbEntity
  8
DEFPOINTS
  6
ByBlock
 62
     0
 48
50.0
100
AcDbPoint
 10
5871.809006248179
 20
28824.32778356401
 30
0.0
  0
ENDBLK
  5
1AF6E
330
1AE53
100
AcDbEntity
  8
0
 48
50.0
100
AcDbBlockEnd
  0
BLOCK
  5
1AF6F
330
1AE61
100
AcDbEntity
  8
0
 48
50.0
100
AcDbBlockBegin
  2
*D33
 70
     1
 10
0.0
 20
0.0
 30
0.0
  3
*D33
  1

  0
LINE
  5
1AF70
330
1AE61
100
AcDbEntity
  8
0
  6
ByBlock
 62
     0
 48
50.0
100
AcDbLine
 10
5896.809006248179
 20
28045.5494147926
 30
0.0
 11
6758.144758631148
 21
28045.5494147926
 31
0.0
  0
LINE
  5
1AF71
330
1AE61
100
AcDbEntity
  8
0
  6
ByBlock
 62
     0
 48
50.0
100
AcDbLine
 10
5886.809006248175
 20
28115.5494147926
 30
0.0
 11
6758.144758631148
 21
28115.5494147926
 31
0.0
  0
LINE
  5
1AF72
330
1AE61
100
AcDbEntity
  8
0
  6
ByBlock
 62
     0
 48
50.0
100
AcDbLine
 10
6683.144758631148
 20
28045.5494147926
 30
0.0
 11
6683.144758631148
 21
28115.5494147926
 31
0.0
  0
LINE
  5
1AF73
330
1AE61
100
AcDbEntity
  8
0
  6
ByBlock
 62
     0
 48
50.0
100
AcDbLine
 10
6683.144758631148
 20
28115.5494147926
 30
0.0
 11
6683.144758631148
 21
28455.66752502882
 31
0.0
  0
INSERT
  5
1AF74
330
1AE61
100
AcDbEntity
  8
0
  6
ByBlock
 62
     0
 48
50.0
100
AcDbBlockReference
  2
_DOTSMALL
 10
6683.144758631148
 20
28045.5494147926
 30
0.0
 41
125.0
 42
125.0
 43
125.0
 50
270.0
  0
INSERT
  5
1AF75
330
1AE61
100
AcDbEntity
  8
0
  6
ByBlock
 62
     0
 48
50.0
100
AcDbBlockReference
  2
_DOTSMALL
 10
6683.144758631148
 20
28115.5494147926
 30
0.0
 41
125.0
 42
125.0
 43
125.0
 50
90.0
  0
MTEXT
  5
1AF76
330
1AE61
100
AcDbEntity
  8
0
  6
ByBlock
 62
     7
 48
50.0
100
AcDbMText
 10
6583.144758631148
 20
28348.10846991071
 30
0.0
 40
150.0
 41
0.0
 71
     5
 72
     1
  1
\A1;70
  7
STYLE1
 11
0.0000000000000001
 21
1.0
 31
0.0
 73
     1
 44
1.0
  0
POINT
  5
1AF77
330
1AE61
100
AcDbEntity
  8
DEFPOINTS
  6
ByBlock
 62
     0
 48
50.0
100
AcDbPoint
 10
5871.809006248179
 20
28045.5494147926
 30
0.0
  0
POINT
  5
1AF78
330
1AE61
100
AcDbEntity
  8
DEFPOINTS
  6
ByBlock
 62
     0
 48
50.0
100
AcDbPoint
 10
5861.809006248176
 20
28115.5494147926
 30
0.0
  0
POINT
  5
1AF79
330
1AE61
100
AcDbEntity
  8
DEFPOINTS
  6
ByBlock
 62
     0
 48
50.0
100
AcDbPoint
 10
6683.144758631148
 20
28115.5494147926
 30
0.0
  0
ENDBLK
  5
1AF7A
330
1AE61
100
AcDbEntity
  8
0
 48
50.0
100
AcDbBlockEnd
  0
BLOCK
  5
1AF7B
330
1AE6E
100
AcDbEntity
  8
0
 48
50.0
100
AcDbBlockBegin
  2
*D34
 70
     1
 10
0.0
 20
0.0
 30
0.0
  3
*D34
  1

  0
LINE
  5
1AF7C
330
1AE6E
100
AcDbEntity
  8
0
  6
ByBlock
 62
     0
 48
50.0
100
AcDbLine
 10
6708.144758631146
 20
28065.5494147926
 30
0.0
 11
7060.948762549756
 21
28065.5494147926
 31
0.0
  0
LINE
  5
1AF7D
330
1AE6E
100
AcDbEntity
  8
0
  6
ByBlock
 62
     0
 48
50.0
100
AcDbLine
 10
5886.809006248175
 20
28115.5494147926
 30
0.0
 11
7060.948762549756
 21
28115.5494147926
 31
0.0
  0
LINE
  5
1AF7E
330
1AE6E
100
AcDbEntity
  8
0
  6
ByBlock
 62
     0
 48
50.0
100
AcDbLine
 10
6985.948762549757
 20
28065.5494147926
 30
0.0
 11
6985.948762549757
 21
27940.5494147926
 31
0.0
  0
LINE
  5
1AF7F
330
1AE6E
100
AcDbEntity
  8
0
  6
ByBlock
 62
     0
 48
50.0
100
AcDbLine
 10
6985.948762549757
 20
28115.5494147926
 30
0.0
 11
6985.948762549757
 21
28580.66752502883
 31
0.0
  0
LINE
  5
1AF80
330
1AE6E
100
AcDbEntity
  8
0
  6
ByBlock
 62
     0
 48
50.0
100
AcDbLine
 10
6985.948762549757
 20
28065.5494147926
 30
0.0
 11
6985.948762549757
 21
28115.5494147926
 31
0.0
  0
INSERT
  5
1AF81
330
1AE6E
100
AcDbEntity
  8
0
  6
ByBlock
 62
     0
 48
50.0
100
AcDbBlockReference
  2
_DOTSMALL
 10
6985.948762549757
 20
28065.5494147926
 30
0.0
 41
125.0
 42
125.0
 43
125.0
 50
90.0
  0
INSERT
  5
1AF82
330
1AE6E
100
AcDbEntity
  8
0
  6
ByBlock
 62
     0
 48
50.0
100
AcDbBlockReference
  2
_DOTSMALL
 10
6985.948762549757
 20
28115.5494147926
 30
0.0
 41
125.0
 42
125.0
 43
125.0
 50
270.0
  0
MTEXT
  5
1AF83
330
1AE6E
100
AcDbEntity
  8
0
  6
ByBlock
 62
     7
 48
50.0
100
AcDbMText
 10
6885.948762549756
 20
28473.10846991071
 30
0.0
 40
150.0
 41
0.0
 71
     5
 72
     1
  1
\A1;50
  7
STYLE1
 11
0.0000000000000001
 21
1.0
 31
0.0
 73
     1
 44
1.0
  0
POINT
  5
1AF84
330
1AE6E
100
AcDbEntity
  8
DEFPOINTS
  6
ByBlock
 62
     0
 48
50.0
100
AcDbPoint
 10
6683.144758631145
 20
28065.5494147926
 30
0.0
  0
POINT
  5
1AF85
330
1AE6E
100
AcDbEntity
  8
DEFPOINTS
  6
ByBlock
 62
     0
 48
50.0
100
AcDbPoint
 10
5861.809006248176
 20
28115.5494147926
 30
0.0
  0
POINT
  5
1AF86
330
1AE6E
100
AcDbEntity
  8
DEFPOINTS
  6
ByBlock
 62
     0
 48
50.0
100
AcDbPoint
 10
6985.948762549757
 20
28115.5494147926
 30
0.0
  0
ENDBLK
  5
1AF87
330
1AE6E
100
AcDbEntity
  8
0
 48
50.0
100
AcDbBlockEnd
  0
BLOCK
  5
1AF88
330
1AE7C
100
AcDbEntity
  8
0
 48
50.0
100
AcDbBlockBegin
  2
*D35
 70
     1
 10
0.0
 20
0.0
 30
0.0
  3
*D35
  1

  0
LINE
  5
1AF89
330
1AE7C
100
AcDbEntity
  8
0
  6
ByBlock
 62
     0
 48
50.0
100
AcDbLine
 10
5801.809006248179
 20
28140.5494147926
 30
0.0
 11
5801.809006248179
 21
28600.58139966325
 31
0.0
  0
LINE
  5
1AF8A
330
1AE7C
100
AcDbEntity
  8
0
  6
ByBlock
 62
     0
 48
50.0
100
AcDbLine
 10
5871.809006248179
 20
28130.5494147926
 30
0.0
 11
5871.809006248179
 21
28600.58139966325
 31
0.0
  0
LINE
  5
1AF8B
330
1AE7C
100
AcDbEntity
  8
0
  6
ByBlock
 62
     0
 48
50.0
100
AcDbLine
 10
5801.809006248179
 20
28525.58139966325
 30
0.0
 11
5871.809006248179
 21
28525.58139966325
 31
0.0
  0
LINE
  5
1AF8C
330
1AE7C
100
AcDbEntity
  8
0
  6
ByBlock
 62
     0
 48
50.0
100
AcDbLine
 10
5871.809006248179
 20
28525.58139966325
 30
0.0
 11
6241.927116484397
 21
28525.58139966325
 31
0.0
  0
INSERT
  5
1AF8D
330
1AE7C
100
AcDbEntity
  8
0
  6
ByBlock
 62
     0
 48
50.0
100
AcDbBlockReference
  2
_DOTSMALL
 10
5801.809006248179
 20
28525.58139966325
 30
0.0
 41
125.0
 42
125.0
 43
125.0
 50
180.0
  0
INSERT
  5
1AF8E
330
1AE7C
100
AcDbEntity
  8
0
  6
ByBlock
 62
     0
 48
50.0
100
AcDbBlockReference
  2
_DOTSMALL
 10
5871.809006248179
 20
28525.58139966325
 30
0.0
 41
125.0
 42
125.0
 43
125.0
  0
MTEXT
  5
1AF8F
330
1AE7C
100
AcDbEntity
  8
0
  6
ByBlock
 62
     7
 48
50.0
100
AcDbMText
 10
6134.368061366288
 20
28625.58139966325
 30
0.0
 40
150.0
 41
0.0
 71
     5
 72
     1
  1
\A1;70
  7
STYLE1
 73
     1
 44
1.0
  0
POINT
  5
1AF90
330
1AE7C
100
AcDbEntity
  8
DEFPOINTS
  6
ByBlock
 62
     0
 48
50.0
100
AcDbPoint
 10
5801.809006248179
 20
28115.5494147926
 30
0.0
  0
POINT
  5
1AF91
330
1AE7C
100
AcDbEntity
  8
DEFPOINTS
  6
ByBlock
 62
     0
 48
50.0
100
AcDbPoint
 10
5871.809006248179
 20
28105.5494147926
 30
0.0
  0
POINT
  5
1AF92
330
1AE7C
100
AcDbEntity
  8
DEFPOINTS
  6
ByBlock
 62
     0
 48
50.0
100
AcDbPoint
 10
5871.809006248179
 20
28525.58139966325
 30
0.0
  0
ENDBLK
  5
1AF93
330
1AE7C
100
AcDbEntity
  8
0
 48
50.0
100
AcDbBlockEnd
  0
BLOCK
  5
1B34A
330
1B2CF
100
AcDbEntity
  8
0
 48
50.0
100
AcDbBlockBegin
  2
*D36
 70
     1
 10
0.0
 20
0.0
 30
0.0
  3
*D36
  1

  0
LINE
  5
1B34B
330
1B2CF
100
AcDbEntity
  8
0
  6
ByBlock
 62
     0
 48
50.0
100
AcDbLine
 10
14812.32958141817
 20
9430.736797361969
 30
0.0
 11
16209.10991665977
 21
9430.736797361968
 31
0.0
  0
LINE
  5
1B34C
330
1B2CF
100
AcDbEntity
  8
0
  6
ByBlock
 62
     0
 48
50.0
100
AcDbLine
 10
14847.82958141817
 20
11560.73679736196
 30
0.0
 11
16209.10991665977
 21
11560.73679736196
 31
0.0
  0
LINE
  5
1B34D
330
1B2CF
100
AcDbEntity
  8
0
  6
ByBlock
 62
     0
 48
50.0
100
AcDbLine
 10
16134.10991665977
 20
9430.736797361968
 30
0.0
 11
16134.10991665977
 21
11560.73679736196
 31
0.0
  0
INSERT
  5
1B34E
330
1B2CF
100
AcDbEntity
  8
0
  6
ByBlock
 62
     0
 48
50.0
100
AcDbBlockReference
  2
_DOTSMALL
 10
16134.10991665977
 20
9430.736797361968
 30
0.0
 41
125.0
 42
125.0
 43
125.0
 50
270.0
  0
INSERT
  5
1B34F
330
1B2CF
100
AcDbEntity
  8
0
  6
ByBlock
 62
     0
 48
50.0
100
AcDbBlockReference
  2
_DOTSMALL
 10
16134.10991665977
 20
11560.73679736196
 30
0.0
 41
125.0
 42
125.0
 43
125.0
 50
90.0
  0
MTEXT
  5
1B350
330
1B2CF
100
AcDbEntity
  8
0
  6
ByBlock
 62
     7
 48
50.0
100
AcDbMText
 10
16034.09515288024
 20
10495.73679736196
 30
0.0
 40
150.0
 41
0.0
 71
     5
 72
     1
  1
\A1;内高 2130
  7
STYLE1
 11
0.0000000000000001
 21
1.0
 31
0.0
 73
     1
 44
1.0
  0
POINT
  5
1B351
330
1B2CF
100
AcDbEntity
  8
DEFPOINTS
  6
ByBlock
 62
     0
 48
50.0
100
AcDbPoint
 10
14787.32958141817
 20
9430.736797361969
 30
0.0
  0
POINT
  5
1B352
330
1B2CF
100
AcDbEntity
  8
DEFPOINTS
  6
ByBlock
 62
     0
 48
50.0
100
AcDbPoint
 10
14822.82958141817
 20
11560.73679736196
 30
0.0
  0
POINT
  5
1B353
330
1B2CF
100
AcDbEntity
  8
DEFPOINTS
  6
ByBlock
 62
     0
 48
50.0
100
AcDbPoint
 10
16134.10991665977
 20
11560.73679736196
 30
0.0
  0
ENDBLK
  5
1B354
330
1B2CF
100
AcDbEntity
  8
0
 48
50.0
100
AcDbBlockEnd
  0
BLOCK
  5
1B355
330
1B2DB
100
AcDbEntity
  8
0
 48
50.0
100
AcDbBlockBegin
  2
*D37
 70
     1
 10
0.0
 20
0.0
 30
0.0
  3
*D37
  1

  0
LINE
  5
1B356
330
1B2DB
100
AcDbEntity
  8
0
  6
ByBlock
 62
     0
 48
50.0
100
AcDbLine
 10
14847.82958141817
 20
9363.736797361969
 30
0.0
 11
16522.07164574816
 21
9363.736797361967
 31
0.0
  0
LINE
  5
1B357
330
1B2DB
100
AcDbEntity
  8
0
  6
ByBlock
 62
     0
 48
50.0
100
AcDbLine
 10
14942.82958141817
 20
11743.73679736196
 30
0.0
 11
16522.07164574816
 21
11743.73679736196
 31
0.0
  0
LINE
  5
1B358
330
1B2DB
100
AcDbEntity
  8
0
  6
ByBlock
 62
     0
 48
50.0
100
AcDbLine
 10
16447.07164574816
 20
9363.736797361967
 30
0.0
 11
16447.07164574816
 21
11743.73679736196
 31
0.0
  0
INSERT
  5
1B359
330
1B2DB
100
AcDbEntity
  8
0
  6
ByBlock
 62
     0
 48
50.0
100
AcDbBlockReference
  2
_DOTSMALL
 10
16447.07164574816
 20
9363.736797361967
 30
0.0
 41
125.0
 42
125.0
 43
125.0
 50
270.0
  0
INSERT
  5
1B35A
330
1B2DB
100
AcDbEntity
  8
0
  6
ByBlock
 62
     0
 48
50.0
100
AcDbBlockReference
  2
_DOTSMALL
 10
16447.07164574816
 20
11743.73679736196
 30
0.0
 41
125.0
 42
125.0
 43
125.0
 50
90.0
  0
MTEXT
  5
1B35B
330
1B2DB
100
AcDbEntity
  8
0
  6
ByBlock
 62
     7
 48
50.0
100
AcDbMText
 10
16347.05688196863
 20
10553.73679736196
 30
0.0
 40
150.0
 41
0.0
 71
     5
 72
     1
  1
\A1;2380
  7
STYLE1
 11
0.0000000000000001
 21
1.0
 31
0.0
 73
     1
 44
1.0
  0
POINT
  5
1B35C
330
1B2DB
100
AcDbEntity
  8
DEFPOINTS
  6
ByBlock
 62
     0
 48
50.0
100
AcDbPoint
 10
14822.82958141817
 20
9363.736797361969
 30
0.0
  0
POINT
  5
1B35D
330
1B2DB
100
AcDbEntity
  8
DEFPOINTS
  6
ByBlock
 62
     0
 48
50.0
100
AcDbPoint
 10
14917.82958141817
 20
11743.73679736196
 30
0.0
  0
POINT
  5
1B35E
330
1B2DB
100
AcDbEntity
  8
DEFPOINTS
  6
ByBlock
 62
     0
 48
50.0
100
AcDbPoint
 10
16447.07164574816
 20
11743.73679736196
 30
0.0
  0
ENDBLK
  5
1B35F
330
1B2DB
100
AcDbEntity
  8
0
 48
50.0
100
AcDbBlockEnd
  0
BLOCK
  5
1B360
330
1B2E7
100
AcDbEntity
  8
0
 48
50.0
100
AcDbBlockBegin
  2
*D38
 70
     1
 10
0.0
 20
0.0
 30
0.0
  3
*D38
  1

  0
LINE
  5
1B361
330
1B2E7
100
AcDbEntity
  8
0
  6
ByBlock
 62
     0
 48
50.0
100
AcDbLine
 10
14822.82958141817
 20
11771.3631811976
 30
0.0
 11
14822.82958141817
 21
12572.01792807848
 31
0.0
  0
LINE
  5
1B362
330
1B2E7
100
AcDbEntity
  8
0
  6
ByBlock
 62
     0
 48
50.0
100
AcDbLine
 10
14917.82958141817
 20
11768.73679736196
 30
0.0
 11
14917.82958141817
 21
12572.01792807848
 31
0.0
  0
LINE
  5
1B363
330
1B2E7
100
AcDbEntity
  8
0
  6
ByBlock
 62
     0
 48
50.0
100
AcDbLine
 10
14822.82958141817
 20
12497.01792807848
 30
0.0
 11
14917.82958141817
 21
12497.01792807848
 31
0.0
  0
LINE
  5
1B364
330
1B2E7
100
AcDbEntity
  8
0
  6
ByBlock
 62
     0
 48
50.0
100
AcDbLine
 10
14917.82958141817
 20
12497.01792807848
 30
0.0
 11
15364.10183997187
 21
12497.01792807848
 31
0.0
  0
INSERT
  5
1B365
330
1B2E7
100
AcDbEntity
  8
0
  6
ByBlock
 62
     0
 48
50.0
100
AcDbBlockReference
  2
_DOTSMALL
 10
14822.82958141817
 20
12497.01792807848
 30
0.0
 41
125.0
 42
125.0
 43
125.0
 50
180.0
  0
INSERT
  5
1B366
330
1B2E7
100
AcDbEntity
  8
0
  6
ByBlock
 62
     0
 48
50.0
100
AcDbBlockReference
  2
_DOTSMALL
 10
14917.82958141817
 20
12497.01792807848
 30
0.0
 41
125.0
 42
125.0
 43
125.0
  0
MTEXT
  5
1B367
330
1B2E7
100
AcDbEntity
  8
0
  6
ByBlock
 62
     7
 48
50.0
100
AcDbMText
 10
15250.38863653628
 20
12597.01792807848
 30
0.0
 40
150.0
 41
0.0
 71
     5
 72
     1
  1
\A1;95
  7
STYLE1
 73
     1
 44
1.0
  0
POINT
  5
1B368
330
1B2E7
100
AcDbEntity
  8
DEFPOINTS
  6
ByBlock
 62
     0
 48
50.0
100
AcDbPoint
 10
14822.82958141817
 20
11746.3631811976
 30
0.0
  0
POINT
  5
1B369
330
1B2E7
100
AcDbEntity
  8
DEFPOINTS
  6
ByBlock
 62
     0
 48
50.0
100
AcDbPoint
 10
14917.82958141817
 20
11743.73679736196
 30
0.0
  0
POINT
  5
1B36A
330
1B2E7
100
AcDbEntity
  8
DEFPOINTS
  6
ByBlock
 62
     0
 48
50.0
100
AcDbPoint
 10
14917.82958141817
 20
12497.01792807848
 30
0.0
  0
ENDBLK
  5
1B36B
330
1B2E7
100
AcDbEntity
  8
0
 48
50.0
100
AcDbBlockEnd
  0
BLOCK
  5
1B36C
330
1B2F4
100
AcDbEntity
  8
0
 48
50.0
100
AcDbBlockBegin
  2
*D39
 70
     1
 10
0.0
 20
0.0
 30
0.0
  3
*D39
  1

  0
LINE
  5
1B36D
330
1B2F4
100
AcDbEntity
  8
0
  6
ByBlock
 62
     0
 48
50.0
100
AcDbLine
 10
12807.82958141817
 20
11828.73679736196
 30
0.0
 11
12807.82958141817
 21
12572.01792807849
 31
0.0
  0
LINE
  5
1B36E
330
1B2F4
100
AcDbEntity
  8
0
  6
ByBlock
 62
     0
 48
50.0
100
AcDbLine
 10
12942.82958141817
 20
11826.29728927308
 30
0.0
 11
12942.82958141817
 21
12572.01792807849
 31
0.0
  0
LINE
  5
1B36F
330
1B2F4
100
AcDbEntity
  8
0
  6
ByBlock
 62
     0
 48
50.0
100
AcDbLine
 10
12942.82958141817
 20
12497.01792807849
 30
0.0
 11
12807.82958141817
 21
12497.01792807849
 31
0.0
  0
LINE
  5
1B370
330
1B2F4
100
AcDbEntity
  8
0
  6
ByBlock
 62
     0
 48
50.0
100
AcDbLine
 10
12807.82958141817
 20
12497.01792807849
 30
0.0
 11
12377.16392458225
 21
12497.01792807849
 31
0.0
  0
INSERT
  5
1B371
330
1B2F4
100
AcDbEntity
  8
0
  6
ByBlock
 62
     0
 48
50.0
100
AcDbBlockReference
  2
_DOTSMALL
 10
12942.82958141817
 20
12497.01792807849
 30
0.0
 41
125.0
 42
125.0
 43
125.0
  0
INSERT
  5
1B372
330
1B2F4
100
AcDbEntity
  8
0
  6
ByBlock
 62
     0
 48
50.0
100
AcDbBlockReference
  2
_DOTSMALL
 10
12807.82958141817
 20
12497.01792807849
 30
0.0
 41
125.0
 42
125.0
 43
125.0
 50
180.0
  0
MTEXT
  5
1B373
330
1B2F4
100
AcDbEntity
  8
0
  6
ByBlock
 62
     7
 48
50.0
100
AcDbMText
 10
12525.27052630005
 20
12597.01792807849
 30
0.0
 40
150.0
 41
0.0
 71
     5
 72
     1
  1
\A1;135
  7
STYLE1
 73
     1
 44
1.0
  0
POINT
  5
1B374
330
1B2F4
100
AcDbEntity
  8
DEFPOINTS
  6
ByBlock
 62
     0
 48
50.0
100
AcDbPoint
 10
12807.82958141817
 20
11803.73679736197
 30
0.0
  0
POINT
  5
1B375
330
1B2F4
100
AcDbEntity
  8
DEFPOINTS
  6
ByBlock
 62
     0
 48
50.0
100
AcDbPoint
 10
12942.82958141817
 20
11801.29728927308
 30
0.0
  0
POINT
  5
1B376
330
1B2F4
100
AcDbEntity
  8
DEFPOINTS
  6
ByBlock
 62
     0
 48
50.0
100
AcDbPoint
 10
12942.82958141817
 20
12497.01792807849
 30
0.0
  0
ENDBLK
  5
1B377
330
1B2F4
100
AcDbEntity
  8
0
 48
50.0
100
AcDbBlockEnd
  0
BLOCK
  5
1B378
330
1B301
100
AcDbEntity
  8
0
 48
50.0
100
AcDbBlockBegin
  2
*D40
 70
     1
 10
0.0
 20
0.0
 30
0.0
  3
*D40
  1

  0
LINE
  5
1B42D
330
1B301
100
AcDbEntity
  8
寸法
 62
     0
 48
50.0
100
AcDbLine
 10
14822.82958141817
 20
11771.3631811976
 30
0.0
 11
14822.82958141817
 21
12572.01792807848
 31
0.0
  0
LINE
  5
1B42E
330
1B301
100
AcDbEntity
  8
寸法
 62
     0
 48
50.0
100
AcDbLine
 10
12942.82958141817
 20
12497.01792807848
 30
0.0
 11
14822.82958141817
 21
12497.01792807848
 31
0.0
  0
INSERT
  5
1B42F
330
1B301
100
AcDbEntity
  8
寸法
 62
     0
 48
50.0
100
AcDbBlockReference
  2
_DOTSMALL
 10
12942.82958141817
 20
12497.01792807848
 30
0.0
 41
125.0
 42
125.0
 43
125.0
 50
180.0
  0
INSERT
  5
1B430
330
1B301
100
AcDbEntity
  8
寸法
 62
     0
 48
50.0
100
AcDbBlockReference
  2
_DOTSMALL
 10
14822.82958141817
 20
12497.01792807848
 30
0.0
 41
125.0
 42
125.0
 43
125.0
  0
MTEXT
  5
1B431
330
1B301
100
AcDbEntity
  8
寸法
 62
     7
 48
50.0
100
AcDbMText
 10
13882.82958141817
 20
12597.01792807848
 30
0.0
 40
150.0
 41
0.0
 71
     5
 72
     1
  1
\A1;柱外寸法 1880
  7
STYLE1
 73
     1
 44
1.0
  0
POINT
  5
1B432
330
1B301
100
AcDbEntity
  8
DEFPOINTS
 62
     0
 48
50.0
100
AcDbPoint
 10
12942.82958141817
 20
11758.73679736197
 30
0.0
  0
POINT
  5
1B433
330
1B301
100
AcDbEntity
  8
DEFPOINTS
 62
     0
 48
50.0
100
AcDbPoint
 10
14822.82958141817
 20
11746.3631811976
 30
0.0
  0
POINT
  5
1B434
330
1B301
100
AcDbEntity
  8
DEFPOINTS
 62
     0
 48
50.0
100
AcDbPoint
 10
14822.82958141817
 20
12497.01792807848
 30
0.0
  0
ENDBLK
  5
1B381
330
1B301
100
AcDbEntity
  8
0
 48
50.0
100
AcDbBlockEnd
  0
BLOCK
  5
1B382
330
1B30C
100
AcDbEntity
  8
0
 48
50.0
100
AcDbBlockBegin
  2
*D41
 70
     1
 10
0.0
 20
0.0
 30
0.0
  3
*D41
  1

  0
LINE
  5
1B383
330
1B30C
100
AcDbEntity
  8
0
  6
ByBlock
 62
     0
 48
50.0
100
AcDbLine
 10
12807.82958141817
 20
11828.73679736196
 30
0.0
 11
12807.82958141817
 21
12888.17369887014
 31
0.0
  0
LINE
  5
1B384
330
1B30C
100
AcDbEntity
  8
0
  6
ByBlock
 62
     0
 48
50.0
100
AcDbLine
 10
14917.82958141817
 20
11768.73679736196
 30
0.0
 11
14917.82958141817
 21
12888.17369887014
 31
0.0
  0
LINE
  5
1B385
330
1B30C
100
AcDbEntity
  8
0
  6
ByBlock
 62
     0
 48
50.0
100
AcDbLine
 10
12807.82958141817
 20
12813.17369887014
 30
0.0
 11
14917.82958141817
 21
12813.17369887014
 31
0.0
  0
INSERT
  5
1B386
330
1B30C
100
AcDbEntity
  8
0
  6
ByBlock
 62
     0
 48
50.0
100
AcDbBlockReference
  2
_DOTSMALL
 10
12807.82958141817
 20
12813.17369887014
 30
0.0
 41
125.0
 42
125.0
 43
125.0
 50
180.0
  0
INSERT
  5
1B387
330
1B30C
100
AcDbEntity
  8
0
  6
ByBlock
 62
     0
 48
50.0
100
AcDbBlockReference
  2
_DOTSMALL
 10
14917.82958141817
 20
12813.17369887014
 30
0.0
 41
125.0
 42
125.0
 43
125.0
  0
MTEXT
  5
1B388
330
1B30C
100
AcDbEntity
  8
0
  6
ByBlock
 62
     7
 48
50.0
100
AcDbMText
 10
13862.82958141817
 20
12913.18846264967
 30
0.0
 40
150.0
 41
0.0
 71
     5
 72
     1
  1
\A1;2110
  7
STYLE1
 73
     1
 44
1.0
  0
POINT
  5
1B389
330
1B30C
100
AcDbEntity
  8
DEFPOINTS
  6
ByBlock
 62
     0
 48
50.0
100
AcDbPoint
 10
12807.82958141817
 20
11803.73679736197
 30
0.0
  0
POINT
  5
1B38A
330
1B30C
100
AcDbEntity
  8
DEFPOINTS
  6
ByBlock
 62
     0
 48
50.0
100
AcDbPoint
 10
14917.82958141817
 20
11743.73679736196
 30
0.0
  0
POINT
  5
1B38B
330
1B30C
100
AcDbEntity
  8
DEFPOINTS
  6
ByBlock
 62
     0
 48
50.0
100
AcDbPoint
 10
14917.82958141817
 20
12813.17369887014
 30
0.0
  0
ENDBLK
  5
1B38C
330
1B30C
100
AcDbEntity
  8
0
 48
50.0
100
AcDbBlockEnd
  0
BLOCK
  5
1B38D
330
1B318
100
AcDbEntity
  8
0
 48
50.0
100
AcDbBlockBegin
  2
*D42
 70
     1
 10
0.0
 20
0.0
 30
0.0
  3
*D42
  1

  0
LINE
  5
1B38E
330
1B318
100
AcDbEntity
  8
0
  6
ByBlock
 62
     0
 48
50.0
100
AcDbLine
 10
12782.82958141816
 20
11803.73679736197
 30
0.0
 11
11643.38013607452
 21
11803.73679736197
 31
0.0
  0
LINE
  5
1B38F
330
1B318
100
AcDbEntity
  8
0
  6
ByBlock
 62
     0
 48
50.0
100
AcDbLine
 10
12917.82958141817
 20
9363.736797361966
 30
0.0
 11
11643.38013607452
 21
9363.736797361966
 31
0.0
  0
LINE
  5
1B390
330
1B318
100
AcDbEntity
  8
0
  6
ByBlock
 62
     0
 48
50.0
100
AcDbLine
 10
11718.38013607452
 20
11803.73679736197
 30
0.0
 11
11718.38013607452
 21
9363.736797361966
 31
0.0
  0
INSERT
  5
1B391
330
1B318
100
AcDbEntity
  8
0
  6
ByBlock
 62
     0
 48
50.0
100
AcDbBlockReference
  2
_DOTSMALL
 10
11718.38013607452
 20
11803.73679736197
 30
0.0
 41
125.0
 42
125.0
 43
125.0
 50
90.0
  0
INSERT
  5
1B392
330
1B318
100
AcDbEntity
  8
0
  6
ByBlock
 62
     0
 48
50.0
100
AcDbBlockReference
  2
_DOTSMALL
 10
11718.38013607452
 20
9363.736797361966
 30
0.0
 41
125.0
 42
125.0
 43
125.0
 50
270.0
  0
MTEXT
  5
1B393
330
1B318
100
AcDbEntity
  8
0
  6
ByBlock
 62
     7
 48
50.0
100
AcDbMText
 10
11618.36537229499
 20
10583.73679736196
 30
0.0
 40
150.0
 41
0.0
 71
     5
 72
     1
  1
\A1;2440
  7
STYLE1
 11
0.0000000000000001
 21
1.0
 31
0.0
 73
     1
 44
1.0
  0
POINT
  5
1B394
330
1B318
100
AcDbEntity
  8
DEFPOINTS
  6
ByBlock
 62
     0
 48
50.0
100
AcDbPoint
 10
12807.82958141816
 20
11803.73679736197
 30
0.0
  0
POINT
  5
1B395
330
1B318
100
AcDbEntity
  8
DEFPOINTS
  6
ByBlock
 62
     0
 48
50.0
100
AcDbPoint
 10
12942.82958141817
 20
9363.736797361966
 30
0.0
  0
POINT
  5
1B396
330
1B318
100
AcDbEntity
  8
DEFPOINTS
  6
ByBlock
 62
     0
 48
50.0
100
AcDbPoint
 10
11718.38013607452
 20
9363.736797361966
 30
0.0
  0
ENDBLK
  5
1B397
330
1B318
100
AcDbEntity
  8
0
 48
50.0
100
AcDbBlockEnd
  0
BLOCK
  5
1B398
330
1B324
100
AcDbEntity
  8
0
 48
50.0
100
AcDbBlockBegin
  2
*D43
 70
     1
 10
0.0
 20
0.0
 30
0.0
  3
*D43
  1

  0
LINE
  5
1B399
330
1B324
100
AcDbEntity
  8
0
  6
ByBlock
 62
     0
 48
50.0
100
AcDbLine
 10
12917.82958141817
 20
11533.73679736196
 30
0.0
 11
11977.63480123898
 21
11533.73679736196
 31
0.0
  0
LINE
  5
1B39A
330
1B324
100
AcDbEntity
  8
0
  6
ByBlock
 62
     0
 48
50.0
100
AcDbLine
 10
12917.82958141817
 20
9418.736797361971
 30
0.0
 11
11977.63480123898
 21
9418.736797361971
 31
0.0
  0
LINE
  5
1B39B
330
1B324
100
AcDbEntity
  8
0
  6
ByBlock
 62
     0
 48
50.0
100
AcDbLine
 10
12052.63480123898
 20
11533.73679736196
 30
0.0
 11
12052.63480123898
 21
9418.736797361971
 31
0.0
  0
INSERT
  5
1B39C
330
1B324
100
AcDbEntity
  8
0
  6
ByBlock
 62
     0
 48
50.0
100
AcDbBlockReference
  2
_DOTSMALL
 10
12052.63480123898
 20
11533.73679736196
 30
0.0
 41
125.0
 42
125.0
 43
125.0
 50
90.0
  0
INSERT
  5
1B39D
330
1B324
100
AcDbEntity
  8
0
  6
ByBlock
 62
     0
 48
50.0
100
AcDbBlockReference
  2
_DOTSMALL
 10
12052.63480123898
 20
9418.736797361971
 30
0.0
 41
125.0
 42
125.0
 43
125.0
 50
270.0
  0
MTEXT
  5
1B39E
330
1B324
100
AcDbEntity
  8
0
  6
ByBlock
 62
     7
 48
50.0
100
AcDbMText
 10
11952.62003745945
 20
10476.23679736196
 30
0.0
 40
150.0
 41
0.0
 71
     5
 72
     1
  1
\A1;2115
  7
STYLE1
 11
0.0000000000000001
 21
1.0
 31
0.0
 73
     1
 44
1.0
  0
POINT
  5
1B39F
330
1B324
100
AcDbEntity
  8
DEFPOINTS
  6
ByBlock
 62
     0
 48
50.0
100
AcDbPoint
 10
12942.82958141817
 20
11533.73679736196
 30
0.0
  0
POINT
  5
1B3A0
330
1B324
100
AcDbEntity
  8
DEFPOINTS
  6
ByBlock
 62
     0
 48
50.0
100
AcDbPoint
 10
12942.82958141817
 20
9418.736797361971
 30
0.0
  0
POINT
  5
1B3A1
330
1B324
100
AcDbEntity
  8
DEFPOINTS
  6
ByBlock
 62
     0
 48
50.0
100
AcDbPoint
 10
12052.63480123898
 20
9418.736797361971
 30
0.0
  0
ENDBLK
  5
1B3A2
330
1B324
100
AcDbEntity
  8
0
 48
50.0
100
AcDbBlockEnd
  0
BLOCK
  5
1B3A3
330
1B330
100
AcDbEntity
  8
0
 48
50.0
100
AcDbBlockBegin
  2
*D44
 70
     1
 10
0.0
 20
0.0
 30
0.0
  3
*D44
  1

  0
LINE
  5
1B3A4
330
1B330
100
AcDbEntity
  8
0
  6
ByBlock
 62
     0
 48
50.0
100
AcDbLine
 10
12917.82958141817
 20
9418.736797361971
 30
0.0
 11
11977.63480123898
 21
9418.736797361971
 31
0.0
  0
LINE
  5
1B3A5
330
1B330
100
AcDbEntity
  8
0
  6
ByBlock
 62
     0
 48
50.0
100
AcDbLine
 10
12917.82958141817
 20
9363.736797361969
 30
0.0
 11
11977.63480123898
 21
9363.736797361969
 31
0.0
  0
LINE
  5
1B3A6
330
1B330
100
AcDbEntity
  8
0
  6
ByBlock
 62
     0
 48
50.0
100
AcDbLine
 10
12052.63480123898
 20
9418.736797361971
 30
0.0
 11
12052.63480123898
 21
9363.736797361969
 31
0.0
  0
LINE
  5
1B3A7
330
1B330
100
AcDbEntity
  8
0
  6
ByBlock
 62
     0
 48
50.0
100
AcDbLine
 10
12052.63480123898
 20
9363.736797361969
 30
0.0
 11
12052.63480123898
 21
8979.043856808635
 31
0.0
  0
INSERT
  5
1B3A8
330
1B330
100
AcDbEntity
  8
0
  6
ByBlock
 62
     0
 48
50.0
100
AcDbBlockReference
  2
_DOTSMALL
 10
12052.63480123898
 20
9418.736797361971
 30
0.0
 41
125.0
 42
125.0
 43
125.0
 50
90.0
  0
INSERT
  5
1B3A9
330
1B330
100
AcDbEntity
  8
0
  6
ByBlock
 62
     0
 48
50.0
100
AcDbBlockReference
  2
_DOTSMALL
 10
12052.63480123898
 20
9363.736797361969
 30
0.0
 41
125.0
 42
125.0
 43
125.0
 50
270.0
  0
MTEXT
  5
1B3AA
330
1B330
100
AcDbEntity
  8
0
  6
ByBlock
 62
     7
 48
50.0
100
AcDbMText
 10
11952.63480123898
 20
9089.650458526433
 30
0.0
 40
150.0
 41
0.0
 71
     5
 72
     1
  1
\A1;55
  7
STYLE1
 11
0.0000000000000001
 21
1.0
 31
0.0
 73
     1
 44
1.0
  0
POINT
  5
1B3AB
330
1B330
100
AcDbEntity
  8
DEFPOINTS
  6
ByBlock
 62
     0
 48
50.0
100
AcDbPoint
 10
12942.82958141817
 20
9418.736797361971
 30
0.0
  0
POINT
  5
1B3AC
330
1B330
100
AcDbEntity
  8
DEFPOINTS
  6
ByBlock
 62
     0
 48
50.0
100
AcDbPoint
 10
12942.82958141817
 20
9363.736797361969
 30
0.0
  0
POINT
  5
1B3AD
330
1B330
100
AcDbEntity
  8
DEFPOINTS
  6
ByBlock
 62
     0
 48
50.0
100
AcDbPoint
 10
12052.63480123898
 20
9363.736797361969
 30
0.0
  0
ENDBLK
  5
1B3AE
330
1B330
100
AcDbEntity
  8
0
 48
50.0
100
AcDbBlockEnd
  0
BLOCK
  5
1B3AF
330
1B33D
100
AcDbEntity
  8
0
 48
50.0
100
AcDbBlockBegin
  2
*D45
 70
     1
 10
0.0
 20
0.0
 30
0.0
  3
*D45
  1

  0
LINE
  5
1B3B0
330
1B33D
100
AcDbEntity
  8
0
  6
ByBlock
 62
     0
 48
50.0
100
AcDbLine
 10
12803.84362656884
 20
11671.29474893228
 30
0.0
 11
12134.73506072483
 21
11681.93789083029
 31
0.0
  0
LINE
  5
1B3B1
330
1B33D
100
AcDbEntity
  8
0
  6
ByBlock
 62
     0
 48
50.0
100
AcDbLine
 10
12805.67263694135
 20
11786.28020332134
 30
0.0
 11
12136.56407109735
 21
11796.92334521935
 31
0.0
  0
LINE
  5
1B3B2
330
1B33D
100
AcDbEntity
  8
0
  6
ByBlock
 62
     0
 48
50.0
100
AcDbLine
 10
12209.72557445682
 20
11680.74505797865
 30
0.0
 11
12211.55458482934
 21
11795.73051236771
 31
0.0
  0
LINE
  5
1B3B3
330
1B33D
100
AcDbEntity
  8
0
  6
ByBlock
 62
     0
 48
50.0
100
AcDbLine
 10
12211.55458482934
 20
11795.73051236771
 30
0.0
 11
12217.77661097673
 21
12186.89423375936
 31
0.0
  0
INSERT
  5
1B3B4
330
1B33D
100
AcDbEntity
  8
0
  6
ByBlock
 62
     0
 48
50.0
100
AcDbBlockReference
  2
_DOTSMALL
 10
12209.72557445682
 20
11680.74505797865
 30
0.0
 41
125.0
 42
125.0
 43
125.0
 50
269.0887044041859
  0
INSERT
  5
1B3B5
330
1B33D
100
AcDbEntity
  8
0
  6
ByBlock
 62
     0
 48
50.0
100
AcDbBlockReference
  2
_DOTSMALL
 10
12211.55458482934
 20
11795.73051236771
 30
0.0
 41
125.0
 42
125.0
 43
125.0
 50
89.08870440418592
  0
MTEXT
  5
1B3B6
330
1B33D
100
AcDbEntity
  8
0
  6
ByBlock
 62
     7
 48
50.0
100
AcDbMText
 10
12115.67227363675
 20
12055.39491164238
 30
0.0
 40
150.0
 41
0.0
 71
     5
 72
     1
  1
\A1;115
  7
STYLE1
 11
0.0159044380219005
 21
0.9998735164265566
 31
0.0
 73
     1
 44
1.0
  0
POINT
  5
1B3B7
330
1B33D
100
AcDbEntity
  8
DEFPOINTS
  6
ByBlock
 62
     0
 48
50.0
100
AcDbPoint
 10
12828.8404644795
 20
11670.89713798174
 30
0.0
  0
POINT
  5
1B3B8
330
1B33D
100
AcDbEntity
  8
DEFPOINTS
  6
ByBlock
 62
     0
 48
50.0
100
AcDbPoint
 10
12830.66947485202
 20
11785.88259237079
 30
0.0
  0
POINT
  5
1B3B9
330
1B33D
100
AcDbEntity
  8
DEFPOINTS
  6
ByBlock
 62
     0
 48
50.0
100
AcDbPoint
 10
12211.55458482934
 20
11795.73051236771
 30
0.0
  0
ENDBLK
  5
1B3BA
330
1B33D
100
AcDbEntity
  8
0
 48
50.0
100
AcDbBlockEnd
  0
ENDSEC
  0
SECTION
  2
ENTITIES
  0
LINE
  5
10B56
330
747D
100
AcDbEntity
  8
補助
  6
PHANTOM
 62
   230
 48
50.0
100
AcDbLine
 10
175.0
 20
0.0
 30
0.0
 11
174.9999999999993
 21
14262.0
 31
0.0
  0
LINE
  5
10B57
330
747D
100
AcDbEntity
  8
補助
  6
PHANTOM
 62
   230
 48
50.0
100
AcDbLine
 10
174.9999999999993
 20
14262.0
 30
0.0
 11
20384.0
 21
14262.0
 31
0.0
  0
LINE
  5
10B59
330
747D
100
AcDbEntity
  8
仕様書枠
  6
Continuous
 48
50.0
100
AcDbLine
 10
16384.0
 20
1500.0
 30
0.0
 11
16384.0
 21
0.0
 31
0.0
  0
LINE
  5
10B5C
330
747D
100
AcDbEntity
  8
仕様書枠
 48
50.0
100
AcDbLine
 10
20384.0
 20
1500.0
 30
0.0
 11
20384.0
 21
0.0
 31
0.0
  0
LINE
  5
10B5D
330
747D
100
AcDbEntity
  8
仕様書枠
 48
50.0
100
AcDbLine
 10
175.0
 20
0.0
 30
0.0
 11
20384.0
 21
-0.0000000000001137
 31
0.0
  0
LINE
  5
10B5E
330
747D
100
AcDbEntity
  8
補助
  6
PHANTOM
 62
   230
 48
50.0
100
AcDbLine
 10
20384.0
 20
14262.0
 30
0.0
 11
20384.0
 21
1500.0
 31
0.0
  0
LINE
  5
10B6C
330
747D
100
AcDbEntity
  8
仕様書枠
 48
50.0
100
AcDbLine
 10
16384.0
 20
1500.0
 30
0.0
 11
20384.0
 21
1500.0
 31
0.0
  0
LINE
  5
10B6D
330
747D
100
AcDbEntity
  8
補助
  6
PHANTOM
 62
   230
 48
50.0
100
AcDbLine
 10
16384.0
 20
14262.0
 30
0.0
 11
16384.0
 21
6000.0
 31
0.0
  0
LINE
  5
10B6F
330
747D
100
AcDbEntity
  8
補助
  6
PHANTOM
 62
   230
 48
50.0
100
AcDbLine
 10
16384.0
 20
6000.0
 30
0.0
 11
20384.0
 21
6000.0
 31
0.0
  0
LINE
  5
10B72
330
747D
100
AcDbEntity
  8
文字
 62
     7
 48
50.0
100
AcDbLine
 10
16484.0
 20
500.0
 30
0.0
 11
20284.0
 21
500.0
 31
0.0
  0
TEXT
  5
10B73
330
747D
100
AcDbEntity
  8
文字
 62
     7
 48
50.0
100
AcDbText
 10
16453.72382072112
 20
1118.863259287425
 30
0.0
 40
250.0
  1
外 形 図
  7
STYLE2
100
AcDbText
  0
TEXT
  5
10B74
330
747D
100
AcDbEntity
  8
文字
 62
     7
 48
50.0
100
AcDbText
 10
16501.79587498051
 20
596.5925826289068
 30
0.0
 40
200.0
  1
機種名
  7
STYLE2
100
AcDbText
  0
TEXT
  5
10B79
330
747D
100
AcDbEntity
  8
文字
 62
     7
 48
50.0
100
AcDbText
 10
18155.16479652749
 20
1289.447132864035
 30
0.0
 40
125.0
  1
NO.12     <縮尺> S=1/50
  7
STYLE2
100
AcDbText
  0
LINE
  5
10B7B
330
747D
100
AcDbEntity
  8
仕様書枠
 48
50.0
100
AcDbLine
 10
16384.0
 20
1000.0
 30
0.0
 11
17814.0
 21
1000.0
 31
0.0
  0
LINE
  5
10B88
330
747D
100
AcDbEntity
  8
仕様書枠
  6
Continuous
 48
50.0
100
AcDbLine
 10
17814.0
 20
1500.0
 30
0.0
 11
17814.0
 21
1000.0
 31
0.0
  0
TEXT
  5
10BB0
330
747D
100
AcDbEntity
  8
文字
 62
     7
 48
50.0
100
AcDbText
 10
17902.30092041603
 20
604.8708912389265
 30
0.0
 40
200.0
  1
ＳＭＫ－６８Ｈ
  7
STYLE2
100
AcDbText
  0
TEXT
  5
11E23
330
747D
100
AcDbEntity
  8
文字
 62
     7
 48
50.0
100
AcDbText
 10
16511.7566802715
 20
99.75789836616957
 30
0.0
 40
100.0
  1
○床面積：6.81㎡(2.06坪)
  7
STYLE2
100
AcDbText
  0
TEXT
  5
11E24
330
747D
100
AcDbEntity
  8
文字
 62
     7
 48
50.0
100
AcDbText
 10
16511.7566802715
 20
270.5931259273528
 30
0.0
 40
100.0
  1
○扉部有効開口寸法：1090×1798 (mm)
  7
STYLE2
100
AcDbText
  0
LINE
  5
15D7D
330
747D
100
AcDbEntity
  8
Ｇ．Ｌ
 48
50.0
100
AcDbLine
 10
4234.693732604354
 20
3140.0
 30
0.0
 11
16104.30626739564
 21
3140.0
 31
0.0
  0
TEXT
  5
16C7B
330
747D
100
AcDbEntity
  8
部品1
100
AcDbText
 10
13404.12821251384
 20
2213.457124846867
 30
0.0
 40
225.0
  1
側面図
  7
STYLE2
100
AcDbText
  0
LINE
  5
17273
330
747D
100
AcDbEntity
  8
部品1
100
AcDbLine
 10
13246.6040262278
 20
2526.8820778306
 30
0.0
 11
13246.6040262278
 21
2127.061541921379
 31
0.0
  0
LINE
  5
17274
330
747D
100
AcDbEntity
  8
部品1
100
AcDbLine
 10
13246.6040262278
 20
2127.061541921379
 30
0.0
 11
14519.05513660853
 21
2127.061541921379
 31
0.0
  0
LINE
  5
17275
330
747D
100
AcDbEntity
  8
部品1
100
AcDbLine
 10
14519.05513660853
 20
2127.061541921379
 30
0.0
 11
14519.05513660853
 21
2526.8820778306
 31
0.0
  0
LINE
  5
17276
330
747D
100
AcDbEntity
  8
部品1
100
AcDbLine
 10
14519.05513660853
 20
2526.8820778306
 30
0.0
 11
13246.6040262278
 21
2526.8820778306
 31
0.0
  0
DIMENSION
  5
1A66D
330
747D
100
AcDbEntity
  8
寸法
 48
50.0
100
AcDbDimension
  2
*D1
 10
15279.66471641205
 20
3140.0
 30
0.0
 11
15279.66471641205
 21
2653.036417322837
 31
0.0
 12
1086.519969230816
 22
7973.157382449198
 32
0.0
 70
   160
 71
     5
 42
-1.0
  3
INABA_S50G
100
AcDbAlignedDimension
 13
14881.32958141817
 23
2940.000000000002
 33
0.0
 14
14881.32958141817
 24
3140.0
 34
0.0
 50
90.0
100
AcDbRotatedDimension
  0
DIMENSION
  5
1A66E
330
747D
100
AcDbEntity
  8
寸法
 48
50.0
100
AcDbDimension
  2
*D2
 10
14681.32958141817
 20
2653.952670699625
 30
0.0
 11
14394.365998741
 21
2653.952670699625
 31
0.0
 12
1086.519969230816
 22
7973.157382449198
 32
0.0
 70
   160
 71
     5
 42
-1.0
  3
INABA_S50G
100
AcDbAlignedDimension
 13
14881.32958141817
 23
2940.000000000002
 33
0.0
 14
14681.32958141817
 24
2940.000000000002
 34
0.0
100
AcDbRotatedDimension
  0
LINE
  5
1A674
330
747D
100
AcDbEntity
  8
部品1
 48
50.0
100
AcDbLine
 10
13005.32958141817
 20
3275.0
 30
0.0
 11
14760.32958141817
 21
3275.0
 31
0.0
  0
LINE
  5
1A675
330
747D
100
AcDbEntity
  8
細線
 48
50.0
100
AcDbLine
 10
14908.38919924369
 20
5550.746404000587
 30
0.0
 11
12811.46376912036
 21
5602.315572311724
 31
0.0
  0
LINE
  5
1A676
330
747D
100
AcDbEntity
  8
部品1
 48
50.0
100
AcDbLine
 10
14890.11846310262
 20
5530.921243435219
 30
0.0
 11
12828.8404644795
 21
5582.16034061977
 31
0.0
  0
LINE
  5
1A677
330
747D
100
AcDbEntity
  8
細線
 48
50.0
100
AcDbLine
 10
14899.73767084558
 20
5646.025833613869
 30
0.0
 11
12826.02062901199
 21
5696.929326860823
 31
0.0
  0
LINE
  5
1A678
330
747D
100
AcDbEntity
  8
部品1
 48
50.0
100
AcDbLine
 10
12837.34578971423
 20
5714.466629415621
 30
0.0
 11
14892.50261261331
 21
5656.367362182472
 31
0.0
  0
DIMENSION
  5
1A679
330
747D
100
AcDbEntity
  8
寸法
 48
50.0
100
AcDbDimension
  2
*D3
 10
14917.82958141817
 20
6676.068854554545
 30
0.0
 11
14442.82958141817
 21
6776.083618334073
 31
0.0
 12
-290.0
 22
0.0
 32
0.0
 70
    32
 71
     5
 42
-1.0
  3
INABA_S50G
100
AcDbAlignedDimension
 13
12807.82958141817
 23
5715.0
 33
0.0
 14
14917.82958141817
 24
5655.0
 34
0.0
100
AcDbRotatedDimension
  0
DIMENSION
  5
1A67A
330
747D
100
AcDbEntity
  8
寸法
 48
50.0
100
AcDbDimension
  2
*D4
 10
14822.82958141817
 20
6408.281130716521
 30
0.0
 11
13882.82958141817
 21
6508.281130716522
 31
0.0
 70
    32
  1
柱外寸法 <>
 71
     5
 42
-1.0
  3
INABA_S50G
100
AcDbAlignedDimension
 13
12942.82958141817
 23
5711.484603453083
 33
0.0
 14
14822.82958141817
 24
5658.337018226841
 34
0.0
100
AcDbRotatedDimension
1001
ACAD
1000
DSTYLE
1002
{
1070
   287
1070
     4
1070
    75
1070
     1
1070
   279
1070
     1
1002
}
  0
LINE
  5
1A67B
330
747D
100
AcDbEntity
  8
部品1
 48
50.0
100
AcDbLine
 10
12942.82958141817
 20
5445.0
 30
0.0
 11
14822.82958141817
 21
5445.0
 31
0.0
  0
LINE
  5
1A67C
330
747D
100
AcDbEntity
  8
部品1
 48
50.0
100
AcDbLine
 10
13012.82958141817
 20
3330.0
 30
0.0
 11
14752.82958141817
 21
3330.0
 31
0.0
  0
DIMENSION
  5
1A67D
330
747D
100
AcDbEntity
  8
寸法
 48
50.0
100
AcDbDimension
  2
*D5
 10
12528.94130116352
 20
5150.5
 30
0.0
 11
13008.94130116352
 21
4251.5
 31
0.0
 12
1666.519969230816
 22
7973.157382449198
 32
0.0
 70
    32
  1
有効開口部高サ <>
 71
     5
 42
-1.0
  3
INABA_S50G
100
AcDbAlignedDimension
 13
12874.82958141817
 23
3352.5
 33
0.0
 14
12874.82958141817
 24
5150.5
 34
0.0
 50
90.0
100
AcDbRotatedDimension
  0
DIMENSION
  5
1A67E
330
747D
100
AcDbEntity
  8
寸法
 48
50.0
100
AcDbDimension
  2
*D6
 10
12216.70986552558
 20
5445.0
 30
0.0
 11
12116.69510174605
 21
4387.500000000001
 31
0.0
 70
    32
 71
     5
 42
-1.0
  3
INABA_S50G
100
AcDbAlignedDimension
 13
12874.82958141817
 23
3330.0
 33
0.0
 14
12942.82958141817
 24
5445.0
 34
0.0
 50
90.0
100
AcDbRotatedDimension
1001
ACAD
1000
DSTYLE
1002
{
1070
   287
1070
     4
1070
    75
1070
     1
1070
   279
1070
     1
1002
}
  0
LINE
  5
1A67F
330
747D
100
AcDbEntity
  8
部品1
 62
     2
 48
50.0
100
AcDbLine
 10
12874.82958141817
 20
3275.0
 30
0.0
 11
12874.82958141817
 21
5180.0
 31
0.0
  0
LINE
  5
1A680
330
747D
100
AcDbEntity
  8
部品1
 48
50.0
100
AcDbLine
 10
12942.82958141816
 20
5579.32680751812
 30
0.0
 11
12942.82958141817
 21
3140.0
 31
0.0
  0
DIMENSION
  5
1A681
330
747D
100
AcDbEntity
  8
寸法
 48
50.0
100
AcDbDimension
  2
*D7
 10
11908.66366111978
 20
3275.0
 30
0.0
 11
12388.64889734025
 21
4495.0
 31
0.0
 12
1666.519969230816
 22
7973.157382449198
 32
0.0
 70
    32
 71
     5
 42
-1.0
  3
INABA_S50G
100
AcDbAlignedDimension
 13
12807.82958141817
 23
5715.0
 33
0.0
 14
12874.82958141817
 24
3275.0
 34
0.0
 50
90.0
100
AcDbRotatedDimension
  0
LINE
  5
1A682
330
747D
100
AcDbEntity
  8
部品1
 48
50.0
100
AcDbLine
 10
13012.82958141817
 20
5445.0
 30
0.0
 11
13012.82958141817
 21
3275.0
 31
0.0
  0
DIMENSION
  5
1A683
330
747D
100
AcDbEntity
  8
寸法
 48
50.0
100
AcDbDimension
  2
*D8
 10
12216.70986552558
 20
3330.0
 30
0.0
 11
12216.70986552558
 21
2964.420494177466
 31
0.0
 12
1666.519969230816
 22
7973.157382449198
 32
0.0
 70
   160
 71
     5
 42
-1.0
  3
INABA_S50G
100
AcDbAlignedDimension
 13
12874.82958141817
 23
3275.0
 33
0.0
 14
12874.82958141817
 24
3330.0
 34
0.0
 50
90.0
100
AcDbRotatedDimension
  0
LINE
  5
1A684
330
747D
100
AcDbEntity
  8
破線
 48
5.0
100
AcDbLine
 10
13084.32958141817
 20
2940.000000000002
 30
0.0
 11
12884.32958141817
 21
2940.000000000002
 31
0.0
  0
LINE
  5
1A685
330
747D
100
AcDbEntity
  8
破線
 48
5.0
100
AcDbLine
 10
12963.32958141817
 20
3140.0
 30
0.0
 11
12963.32958141817
 21
3030.0
 31
0.0
  0
LINE
  5
1A686
330
747D
100
AcDbEntity
  8
破線
 48
5.0
100
AcDbLine
 10
13005.32958141817
 20
3140.0
 30
0.0
 11
13005.32958141817
 21
3030.0
 31
0.0
  0
LINE
  5
1A687
330
747D
100
AcDbEntity
  8
破線
 48
5.0
100
AcDbLine
 10
12884.32958141817
 20
3140.000000000004
 30
0.0
 11
12884.32958141817
 21
2940.000000000002
 31
0.0
  0
LINE
  5
1A688
330
747D
100
AcDbEntity
  8
破線
 48
5.0
100
AcDbLine
 10
12963.32958141817
 20
3030.0
 30
0.0
 11
13005.32958141817
 21
3030.0
 31
0.0
  0
LINE
  5
1A689
330
747D
100
AcDbEntity
  8
部品1
 48
50.0
100
AcDbLine
 10
12942.82958141817
 20
3275.0
 30
0.0
 11
12874.82958141817
 21
3275.0
 31
0.0
  0
LINE
  5
1A68A
330
747D
100
AcDbEntity
  8
部品1
 48
50.0
100
AcDbLine
 10
12874.82958141817
 20
3275.0
 30
0.0
 11
12874.82958141817
 21
3140.0
 31
0.0
  0
ARC
  5
1A68B
330
747D
100
AcDbEntity
  8
部品1
 48
50.0
100
AcDbCircle
 10
12968.32958141817
 20
3310.000000000001
 30
0.0
 40
5.0
100
AcDbArc
 50
90.0
 51
179.9999999999993
  0
ARC
  5
1A68C
330
747D
100
AcDbEntity
  8
部品1
 48
50.0
100
AcDbCircle
 10
13000.32958141817
 20
3310.0
 30
0.0
 40
5.0
100
AcDbArc
 50
359.9999999999993
 51
90.0
  0
LINE
  5
1A68D
330
747D
100
AcDbEntity
  8
部品1
 48
50.0
100
AcDbLine
 10
12968.32958141817
 20
3315.000000000002
 30
0.0
 11
13000.32958141817
 21
3315.0
 31
0.0
  0
LINE
  5
1A68E
330
747D
100
AcDbEntity
  8
部品1
 48
50.0
100
AcDbLine
 10
13005.32958141817
 20
3310.0
 30
0.0
 11
13005.32958141817
 21
3140.0
 31
0.0
  0
LINE
  5
1A68F
330
747D
100
AcDbEntity
  8
部品1
 48
50.0
100
AcDbLine
 10
12963.32958141817
 20
3310.000000000001
 30
0.0
 11
12963.32958141817
 21
3140.0
 31
0.0
  0
LINE
  5
1A690
330
747D
100
AcDbEntity
  8
部品1
 48
50.0
100
AcDbLine
 10
12942.82958141817
 20
3275.0
 30
0.0
 11
12963.32958141817
 21
3275.0
 31
0.0
  0
LINE
  5
1A691
330
747D
100
AcDbEntity
  8
破線
 48
5.0
100
AcDbLine
 10
13084.32958141817
 20
3140.000000000004
 30
0.0
 11
13084.32958141817
 21
2940.000000000002
 31
0.0
  0
LINE
  5
1A692
330
747D
100
AcDbEntity
  8
部品1
 48
50.0
100
AcDbLine
 10
13142.82958141817
 20
3275.0
 30
0.0
 11
13142.82958141817
 21
3140.0
 31
0.0
  0
DIMENSION
  5
1A693
330
747D
100
AcDbEntity
  8
寸法
 48
50.0
100
AcDbDimension
  2
*D9
 10
12942.82958141817
 20
6408.281130716521
 30
0.0
 11
12534.72297970037
 21
6408.281130716521
 31
0.0
 12
-580.0
 22
0.0
 32
0.0
 70
   160
 71
     5
 42
-1.0
  3
INABA_S50G
100
AcDbAlignedDimension
 13
12807.82958141817
 23
5715.0
 33
0.0
 14
12942.82958141817
 24
5711.484603453083
 34
0.0
100
AcDbRotatedDimension
  0
DIMENSION
  5
1A694
330
747D
100
AcDbEntity
  8
寸法
 48
50.0
100
AcDbDimension
  2
*D10
 10
12212.41896235352
 20
5712.518825784672
 30
0.0
 11
12218.83297595663
 21
5970.545720274007
 31
0.0
 12
-114.2664062752028
 22
2.840425939623855
 32
0.0
 70
   160
 71
     5
 42
-1.0
  3
INABA_S50G
100
AcDbAlignedDimension
 13
12828.56317514295
 23
5582.167233457745
 33
0.0
 14
12831.42095390354
 24
5697.1317197157
 34
0.0
 50
88.57603896661384
100
AcDbRotatedDimension
  0
LINE
  5
1A695
330
747D
100
AcDbEntity
  8
細線
 48
50.0
100
AcDbLine
 10
12846.42631339595
 20
5714.266424339623
 30
0.0
 11
12842.12495525883
 21
5581.902630028744
 31
0.0
  0
ARC
  5
1A696
330
747D
100
AcDbEntity
  8
部品1
100
AcDbCircle
 10
12823.32958141817
 20
5681.471940894555
 30
0.0
 40
15.5
100
AcDbArc
 50
88.13874351680366
 51
181.8832004883104
  0
LINE
  5
1A697
330
747D
100
AcDbEntity
  8
部品1
 62
     2
 48
50.0
100
AcDbLine
 10
12874.82958141817
 20
5180.0
 30
0.0
 11
12942.82958141817
 21
5187.0
 31
0.0
  0
ARC
  5
1A698
330
747D
100
AcDbEntity
  8
部品1
100
AcDbCircle
 10
12829.08698326884
 20
5597.658380124381
 30
0.0
 40
15.5
100
AcDbArc
 50
181.8832004883684
 51
269.0887044041854
  0
ARC
  5
1A699
330
747D
100
AcDbEntity
  8
部品1
100
AcDbCircle
 10
12811.00493155814
 20
5599.858039383867
 30
0.0
 40
2.5
100
AcDbArc
 50
1.883200488304429
 51
80.9777304905255
  0
ARC
  5
1A69A
330
747D
100
AcDbEntity
  8
部品1
100
AcDbCircle
 10
12811.58515943173
 20
5603.512260998975
 30
0.0
 40
1.199999999999999
100
AcDbArc
 50
181.8832004883104
 51
260.9777304905277
  0
LINE
  5
1A69B
330
747D
100
AcDbEntity
  8
部品1
100
AcDbLine
 10
12813.5035812939
 20
5599.940194712308
 30
0.0
 11
12813.59535490714
 21
5597.149017088034
 31
0.0
  0
LINE
  5
1A69C
330
747D
100
AcDbEntity
  8
部品1
100
AcDbLine
 10
12807.83795305646
 20
5680.962577858223
 30
0.0
 11
12810.38580755857
 21
5603.472826441325
 31
0.0
  0
ARC
  5
1A69D
330
747D
100
AcDbEntity
  8
部品1
100
AcDbCircle
 10
12826.04423830757
 20
5698.429141049703
 30
0.0
 40
1.5
100
AcDbArc
 50
269.0981540988973
 51
335.4038180356238
  0
LINE
  5
1A69E
330
747D
100
AcDbEntity
  8
部品1
 48
50.0
100
AcDbLine
 10
12826.02062901199
 20
5696.929326860823
 30
0.0
 11
12823.83301119891
 21
5696.963763203626
 31
0.0
  0
ARC
  5
1A69F
330
747D
100
AcDbEntity
  8
部品1
 48
50.0
100
AcDbCircle
 10
12837.28255353197
 20
5710.967200721499
 30
0.0
 40
3.5
100
AcDbArc
 50
88.96475328401214
 51
155.4038180356338
  0
LINE
  5
1A6A0
330
747D
100
AcDbEntity
  8
部品1
100
AcDbLine
 10
12827.40813407785
 20
5697.804810746248
 30
0.0
 11
12834.10013006798
 21
5712.423971429561
 31
0.0
  0
LINE
  5
1A6A1
330
747D
100
AcDbEntity
  8
部品1
 48
50.0
100
AcDbLine
 10
14822.82958141817
 20
5532.593905516886
 30
0.0
 11
14822.82958141817
 21
3140.0
 31
0.0
  0
LINE
  5
1A6A2
330
747D
100
AcDbEntity
  8
細線
 48
5.0
100
AcDbLine
 10
14861.82958141817
 20
5402.0
 30
0.0
 11
14861.82958141816
 21
4392.5
 31
0.0
  0
LINE
  5
1A6A3
330
747D
100
AcDbEntity
  8
細線
 48
5.0
100
AcDbLine
 10
14848.82958141817
 20
5402.0
 30
0.0
 11
14848.82958141816
 21
4392.5
 31
0.0
  0
LINE
  5
1A6A4
330
747D
100
AcDbEntity
  8
細線
 48
5.0
100
AcDbLine
 10
14885.82958141817
 20
5402.0
 30
0.0
 11
14885.82958141816
 21
4392.5
 31
0.0
  0
LINE
  5
1A6A5
330
747D
100
AcDbEntity
  8
細線
 48
5.0
100
AcDbLine
 10
14898.82958141817
 20
5402.0
 30
0.0
 11
14898.82958141816
 21
4392.500000000001
 31
0.0
  0
DIMENSION
  5
1A6A6
330
747D
100
AcDbEntity
  8
寸法
 48
50.0
100
AcDbDimension
  2
*D11
 10
15482.32033483959
 20
5655.0
 30
0.0
 11
16542.30557106006
 21
4465.0
 31
0.0
 12
1086.519969230816
 22
7973.157382449198
 32
0.0
 70
    32
 71
     5
 42
-1.0
  3
INABA_S50G
100
AcDbAlignedDimension
 13
14822.82958141817
 23
3275.0
 33
0.0
 14
14917.82958141817
 24
5655.0
 34
0.0
 50
90.0
100
AcDbRotatedDimension
  0
LINE
  5
1A6A7
330
747D
100
AcDbEntity
  8
部品1
 48
50.0
100
AcDbLine
 10
14752.82958141817
 20
5445.000000000002
 30
0.0
 11
14752.82958141817
 21
3275.0
 31
0.0
  0
LINE
  5
1A6A9
330
747D
100
AcDbEntity
  8
部品1
 48
50.0
100
AcDbLine
 10
14172.82958141817
 20
5445.0
 30
0.0
 11
14172.82958141817
 21
3330.0
 31
0.0
  0
LINE
  5
1A6AA
330
747D
100
AcDbEntity
  8
部品1
 48
50.0
100
AcDbLine
 10
13592.82958141817
 20
5445.0
 30
0.0
 11
13592.82958141817
 21
3330.0
 31
0.0
  0
LINE
  5
1A6AB
330
747D
100
AcDbEntity
  8
部品1
 48
50.0
100
AcDbLine
 10
13782.82958141817
 20
3275.0
 30
0.0
 11
13782.82958141817
 21
3140.0
 31
0.0
  0
LINE
  5
1A6AC
330
747D
100
AcDbEntity
  8
部品1
 48
50.0
100
AcDbLine
 10
13982.82958141817
 20
3275.0
 30
0.0
 11
13982.82958141817
 21
3140.0
 31
0.0
  0
LINE
  5
1A6AF
330
747D
100
AcDbEntity
  8
細線
 48
5.0
100
AcDbLine
 10
14848.82958141816
 20
4372.5
 30
0.0
 11
14848.82958141816
 21
3363.0
 31
0.0
  0
LINE
  5
1A6B0
330
747D
100
AcDbEntity
  8
細線
 48
5.0
100
AcDbLine
 10
14861.82958141816
 20
4372.5
 30
0.0
 11
14861.82958141816
 21
3363.0
 31
0.0
  0
LINE
  5
1A6B1
330
747D
100
AcDbEntity
  8
細線
 48
5.0
100
AcDbLine
 10
14885.82958141816
 20
4372.5
 30
0.0
 11
14885.82958141816
 21
3363.0
 31
0.0
  0
LINE
  5
1A6B2
330
747D
100
AcDbEntity
  8
細線
 48
5.0
100
AcDbLine
 10
14898.82958141816
 20
4372.5
 30
0.0
 11
14898.82958141816
 21
3363.0
 31
0.0
  0
LINE
  5
1A6B3
330
747D
100
AcDbEntity
  8
破線
 48
5.0
100
AcDbLine
 10
14881.32958141817
 20
3140.000000000004
 30
0.0
 11
14881.32958141817
 21
2940.000000000002
 31
0.0
  0
LINE
  5
1A6B4
330
747D
100
AcDbEntity
  8
破線
 48
5.0
100
AcDbLine
 10
14802.32958141817
 20
3140.0
 30
0.0
 11
14802.32958141817
 21
3030.0
 31
0.0
  0
LINE
  5
1A6B5
330
747D
100
AcDbEntity
  8
破線
 48
5.0
100
AcDbLine
 10
14760.32958141817
 20
3140.0
 30
0.0
 11
14760.32958141817
 21
3030.0
 31
0.0
  0
LINE
  5
1A6B6
330
747D
100
AcDbEntity
  8
破線
 48
5.0
100
AcDbLine
 10
14681.32958141817
 20
3140.000000000004
 30
0.0
 11
14681.32958141817
 21
2940.000000000002
 31
0.0
  0
LINE
  5
1A6B7
330
747D
100
AcDbEntity
  8
破線
 48
5.0
100
AcDbLine
 10
14681.32958141817
 20
2940.000000000002
 30
0.0
 11
14881.32958141817
 21
2940.000000000002
 31
0.0
  0
LINE
  5
1A6B8
330
747D
100
AcDbEntity
  8
破線
 48
5.0
100
AcDbLine
 10
14802.32958141817
 20
3030.0
 30
0.0
 11
14760.32958141817
 21
3030.0
 31
0.0
  0
LINE
  5
1A6B9
330
747D
100
AcDbEntity
  8
部品1
 48
50.0
100
AcDbLine
 10
14622.82958141817
 20
3275.0
 30
0.0
 11
14622.82958141817
 21
3140.0
 31
0.0
  0
LINE
  5
1A6BA
330
747D
100
AcDbEntity
  8
部品1
 48
50.0
100
AcDbLine
 10
14802.32958141817
 20
3275.0
 30
0.0
 11
14822.82958141817
 21
3275.0
 31
0.0
  0
ARC
  5
1A6BB
330
747D
100
AcDbEntity
  8
部品1
 48
50.0
100
AcDbCircle
 10
14765.32958141817
 20
3310.0
 30
0.0
 40
5.0
100
AcDbArc
 50
90.0
 51
180.0000000000006
  0
LINE
  5
1A6BC
330
747D
100
AcDbEntity
  8
部品1
 48
50.0
100
AcDbLine
 10
14797.32958141817
 20
3315.000000000002
 30
0.0
 11
14765.32958141817
 21
3315.0
 31
0.0
  0
ARC
  5
1A6BD
330
747D
100
AcDbEntity
  8
部品1
 48
50.0
100
AcDbCircle
 10
14797.32958141817
 20
3310.000000000001
 30
0.0
 40
5.0
100
AcDbArc
 50
0.0000000000006177
 51
90.0
  0
LINE
  5
1A6BE
330
747D
100
AcDbEntity
  8
部品1
 48
50.0
100
AcDbLine
 10
14760.32958141817
 20
3310.0
 30
0.0
 11
14760.32958141817
 21
3140.0
 31
0.0
  0
LINE
  5
1A6BF
330
747D
100
AcDbEntity
  8
部品1
 48
50.0
100
AcDbLine
 10
14802.32958141817
 20
3310.000000000001
 30
0.0
 11
14802.32958141817
 21
3140.0
 31
0.0
  0
LINE
  5
1A6C0
330
747D
100
AcDbEntity
  8
細線
 48
5.0
100
AcDbLine
 10
14822.82958141817
 20
3363.0
 30
0.0
 11
14900.02958141817
 21
3363.0
 31
0.0
  0
LINE
  5
1A6C1
330
747D
100
AcDbEntity
  8
細線
 48
5.0
100
AcDbLine
 10
14844.04554596898
 20
3343.0
 30
0.0
 11
14900.02958141817
 21
3342.999999999998
 31
0.0
  0
LINE
  5
1A6C2
330
747D
100
AcDbEntity
  8
細線
 48
5.0
100
AcDbLine
 10
14822.82958141817
 20
3323.6
 30
0.0
 11
14841.9567721806
 21
3342.153375039561
 31
0.0
  0
ARC
  5
1A6C3
330
747D
100
AcDbEntity
  8
細線
 48
5.0
100
AcDbCircle
 10
14844.04554596898
 20
3340.0
 30
0.0
 40
3.0
100
AcDbArc
 50
89.99999999999909
 51
134.1275428770974
  0
LINE
  5
1A6C4
330
747D
100
AcDbEntity
  8
細線
 48
5.0
100
AcDbLine
 10
14900.02958141817
 20
3343.0
 30
0.0
 11
14900.02958141817
 21
3363.0
 31
0.0
  0
LINE
  5
1A6C5
330
747D
100
AcDbEntity
  8
細線
 48
5.0
100
AcDbLine
 10
14847.62958141817
 20
3343.0
 30
0.0
 11
14847.62958141816
 21
3363.0
 31
0.0
  0
LINE
  5
1A6C6
330
747D
100
AcDbEntity
  8
細線
 48
5.0
100
AcDbLine
 10
14900.62958141816
 20
3270.0
 30
0.0
 11
14883.32958141816
 21
3270.0
 31
0.0
  0
LINE
  5
1A6C7
330
747D
100
AcDbEntity
  8
細線
 48
5.0
100
AcDbLine
 10
14848.82958141816
 20
3343.0
 30
0.0
 11
14848.82958141816
 21
3270.0
 31
0.0
  0
LINE
  5
1A6C8
330
747D
100
AcDbEntity
  8
細線
 48
5.0
100
AcDbLine
 10
14885.82958141816
 20
3343.0
 30
0.0
 11
14885.82958141816
 21
3270.0
 31
0.0
  0
LINE
  5
1A6C9
330
747D
100
AcDbEntity
  8
細線
 48
5.0
100
AcDbLine
 10
14861.82958141816
 20
3343.0
 30
0.0
 11
14861.82958141816
 21
3270.0
 31
0.0
  0
ARC
  5
1A6CA
330
747D
100
AcDbEntity
  8
細線
 48
5.0
100
AcDbCircle
 10
14883.32958141816
 20
3269.5
 30
0.0
 40
0.5
100
AcDbArc
 50
90.0
 51
180.0000000000001
  0
LINE
  5
1A6CB
330
747D
100
AcDbEntity
  8
細線
 48
5.0
100
AcDbLine
 10
14883.32958141816
 20
3270.0
 30
0.0
 11
14864.32958141816
 21
3270.0
 31
0.0
  0
LINE
  5
1A6CC
330
747D
100
AcDbEntity
  8
細線
 48
5.0
100
AcDbLine
 10
14864.82958141816
 20
3269.5
 30
0.0
 11
14864.82958141816
 21
3219.550400232094
 31
0.0
  0
LINE
  5
1A6CD
330
747D
100
AcDbEntity
  8
細線
 48
5.0
100
AcDbLine
 10
14846.52958141816
 20
3269.5
 30
0.0
 11
14846.52958141816
 21
3226.09258006886
 31
0.0
  0
LINE
  5
1A6CE
330
747D
100
AcDbEntity
  8
細線
 48
5.0
100
AcDbLine
 10
14864.32958141816
 20
3270.0
 30
0.0
 11
14847.02958141816
 21
3270.0
 31
0.0
  0
ARC
  5
1A6CF
330
747D
100
AcDbEntity
  8
細線
 48
5.0
100
AcDbCircle
 10
14847.02958141816
 20
3269.5
 30
0.0
 40
0.5
100
AcDbArc
 50
90.0
 51
180.0
  0
ARC
  5
1A6D0
330
747D
100
AcDbEntity
  8
細線
 48
5.0
100
AcDbCircle
 10
14864.32958141816
 20
3269.5
 30
0.0
 40
0.5
100
AcDbArc
 50
359.9999999999998
 51
90.0
  0
LINE
  5
1A6D1
330
747D
100
AcDbEntity
  8
細線
 48
5.0
100
AcDbLine
 10
14898.82958141816
 20
3343.0
 30
0.0
 11
14898.82958141816
 21
3270.0
 31
0.0
  0
LINE
  5
1A6D2
330
747D
100
AcDbEntity
  8
細線
 48
5.0
100
AcDbLine
 10
14901.12958141816
 20
3269.5
 30
0.0
 11
14901.12958141816
 21
3249.0
 31
0.0
  0
LINE
  5
1A6D3
330
747D
100
AcDbEntity
  8
細線
 48
5.0
100
AcDbLine
 10
14901.12958141816
 20
3249.0
 30
0.0
 11
14924.85103067395
 21
3244.817268474697
 31
0.0
  0
LINE
  5
1A6D4
330
747D
100
AcDbEntity
  8
細線
 48
5.0
100
AcDbLine
 10
14901.12958141816
 20
3249.0
 30
0.0
 11
14896.38898616785
 21
3222.114748342766
 31
0.0
  0
ARC
  5
1A6D5
330
747D
100
AcDbEntity
  8
細線
 48
5.0
100
AcDbCircle
 10
14924.67738249628
 20
3243.832460721685
 30
0.0
 40
1.0
100
AcDbArc
 50
355.2322728781318
 51
79.9999999999998
  0
ARC
  5
1A6D6
330
747D
100
AcDbEntity
  8
細線
 48
5.0
100
AcDbCircle
 10
14900.62958141816
 20
3269.5
 30
0.0
 40
0.5
100
AcDbArc
 50
0.0000000000001527
 51
90.0
  0
LINE
  5
1A6D7
330
747D
100
AcDbEntity
  8
細線
 48
5.0
100
AcDbLine
 10
14869.08898616785
 20
3199.207328411627
 30
0.0
 11
14920.11351121807
 21
3190.210327967439
 31
0.0
  0
ARC
  5
1A6D8
330
747D
100
AcDbEntity
  8
細線
 48
5.0
100
AcDbCircle
 10
14920.28715939573
 20
3191.195135720452
 30
0.0
 40
1.0
100
AcDbArc
 50
260.0
 51
355.2322728781318
  0
LINE
  5
1A6D9
330
747D
100
AcDbEntity
  8
細線
 48
5.0
100
AcDbLine
 10
14882.82958141816
 20
3269.5
 30
0.0
 11
14882.82958141816
 21
3216.376514579342
 31
0.0
  0
ARC
  5
1A6DA
330
747D
100
AcDbEntity
  8
細線
 48
5.0
100
AcDbCircle
 10
14873.82958141816
 20
3226.09258006886
 30
0.0
 40
27.3
100
AcDbArc
 50
180.0
 51
260.0
  0
LINE
  5
1A6DB
330
747D
100
AcDbEntity
  8
細線
 48
5.0
100
AcDbLine
 10
14925.6739223305
 20
3243.74934418412
 30
0.0
 11
14921.28369922995
 21
3191.112019182886
 31
0.0
  0
LINE
  5
1A6DC
330
747D
100
AcDbEntity
  8
細線
 48
5.0
100
AcDbLine
 10
14847.62958141816
 20
4372.5
 30
0.0
 11
14822.82958141817
 21
4352.5
 31
0.0
  0
LINE
  5
1A6DD
330
747D
100
AcDbEntity
  8
細線
 48
5.0
100
AcDbLine
 10
14847.62958141816
 20
4392.5
 30
0.0
 11
14822.82958141817
 21
4412.5
 31
0.0
  0
LINE
  5
1A6DE
330
747D
100
AcDbEntity
  8
細線
 48
5.0
100
AcDbLine
 10
14847.62958141816
 20
4392.5
 30
0.0
 11
14847.62958141816
 21
4372.5
 31
0.0
  0
LINE
  5
1A6DF
330
747D
100
AcDbEntity
  8
細線
 48
5.0
100
AcDbLine
 10
14900.02958141817
 20
4392.5
 30
0.0
 11
14900.02958141817
 21
4372.5
 31
0.0
  0
LINE
  5
1A6E0
330
747D
100
AcDbEntity
  8
細線
 48
5.0
100
AcDbLine
 10
14847.62958141816
 20
4372.5
 30
0.0
 11
14900.02958141817
 21
4372.5
 31
0.0
  0
LINE
  5
1A6E1
330
747D
100
AcDbEntity
  8
細線
 48
5.0
100
AcDbLine
 10
14847.62958141816
 20
4392.5
 30
0.0
 11
14900.02958141817
 21
4392.500000000001
 31
0.0
  0
DIMENSION
  5
1A6E2
330
747D
100
AcDbEntity
  8
寸法
 48
50.0
100
AcDbDimension
  2
*D12
 10
14917.82958141817
 20
6408.281130716521
 30
0.0
 11
15250.38863653628
 21
6408.281130716521
 31
0.0
 12
-580.0
 22
0.0
 32
0.0
 70
   160
 71
     5
 42
-1.0
  3
INABA_S50G
100
AcDbAlignedDimension
 13
14822.82958141817
 23
5658.337018226841
 33
0.0
 14
14917.82958141817
 24
5655.0
 34
0.0
100
AcDbRotatedDimension
1001
ACAD
1000
DSTYLE
1002
{
1002
}
  0
ARC
  5
1A6E3
330
747D
100
AcDbEntity
  8
細線
 48
5.0
100
AcDbCircle
 10
14844.04554596898
 20
5425.0
 30
0.0
 40
3.0
100
AcDbArc
 50
225.8724571229025
 51
270.0000000000009
  0
LINE
  5
1A6E4
330
747D
100
AcDbEntity
  8
細線
 48
5.0
100
AcDbLine
 10
14847.62958141817
 20
5422.0
 30
0.0
 11
14847.62958141817
 21
5402.0
 31
0.0
  0
LINE
  5
1A6E5
330
747D
100
AcDbEntity
  8
細線
 48
5.0
100
AcDbLine
 10
14900.02958141817
 20
5422.0
 30
0.0
 11
14900.02958141817
 21
5402.0
 31
0.0
  0
LINE
  5
1A6E6
330
747D
100
AcDbEntity
  8
細線
 48
5.0
100
AcDbLine
 10
14844.04554596898
 20
5422.0
 30
0.0
 11
14900.02958141817
 21
5422.000000000002
 31
0.0
  0
LINE
  5
1A6E7
330
747D
100
AcDbEntity
  8
細線
 48
5.0
100
AcDbLine
 10
14822.82958141817
 20
5402.0
 30
0.0
 11
14900.02958141817
 21
5402.0
 31
0.0
  0
LINE
  5
1A6E8
330
747D
100
AcDbEntity
  8
細線
 48
5.0
100
AcDbLine
 10
14822.82958141817
 20
5441.399999999999
 30
0.0
 11
14841.95677218061
 21
5422.846624960438
 31
0.0
  0
ARC
  5
1A6E9
330
747D
100
AcDbEntity
  8
細線
 48
5.0
100
AcDbCircle
 10
14839.82958141817
 20
5478.0
 30
0.0
 40
3.0
100
AcDbArc
 50
270.0
 51
317.6846849512558
  0
LINE
  5
1A6EA
330
747D
100
AcDbEntity
  8
細線
 48
5.0
100
AcDbLine
 10
14822.82958141817
 20
5530.0
 30
0.0
 11
14843.82958141817
 21
5530.0
 31
0.0
  0
LINE
  5
1A6EB
330
747D
100
AcDbEntity
  8
細線
 48
5.0
100
AcDbLine
 10
14822.82958141817
 20
5475.0
 30
0.0
 11
14839.82958141817
 21
5475.0
 31
0.0
  0
LINE
  5
1A6EC
330
747D
100
AcDbEntity
  8
部品1
 48
50.0
100
AcDbLine
 10
14899.73767084558
 20
5646.025833613869
 30
0.0
 11
14902.83301119892
 21
5645.977108374546
 31
0.0
  0
ARC
  5
1A6ED
330
747D
100
AcDbEntity
  8
部品1
100
AcDbCircle
 10
14899.76128014115
 20
5647.525647802748
 30
0.0
 40
1.5
100
AcDbArc
 50
200.4039185775898
 51
269.0981540988988
  0
ARC
  5
1A6EE
330
747D
100
AcDbEntity
  8
部品1
100
AcDbCircle
 10
14890.36498189196
 20
5546.41928293983
 30
0.0
 40
15.5
100
AcDbArc
 50
269.0887044041854
 51
353.9245361249208
  0
ARC
  5
1A6EF
330
747D
100
AcDbEntity
  8
部品1
100
AcDbCircle
 10
14892.43937643105
 20
5652.867933488349
 30
0.0
 40
3.5
100
AcDbArc
 50
20.40391857757644
 51
88.96475328401214
  0
LINE
  5
1A6F0
330
747D
100
AcDbEntity
  8
細線
 48
50.0
100
AcDbLine
 10
14880.47261773352
 20
5656.707450043189
 30
0.0
 11
14876.39609294603
 21
5531.262353105301
 31
0.0
  0
ARC
  5
1A6F1
330
747D
100
AcDbEntity
  8
部品1
100
AcDbCircle
 10
14902.32958141817
 20
5630.485286065474
 30
0.0
 40
15.5
100
AcDbArc
 50
353.924536124901
 51
88.13874351680366
  0
ARC
  5
1A6F2
330
747D
100
AcDbEntity
  8
部品1
 48
50.0
100
AcDbCircle
 10
14908.66272143308
 20
5548.261411925769
 30
0.0
 40
2.5
100
AcDbArc
 50
94.83000612260093
 51
173.9245361249088
  0
ARC
  5
1A6F3
330
747D
100
AcDbEntity
  8
部品1
 48
50.0
100
AcDbCircle
 10
14908.3511825403
 20
5551.948272855597
 30
0.0
 40
1.199999999999999
100
AcDbArc
 50
274.830006122604
 51
353.924536124901
  0
LINE
  5
1A6F4
330
747D
100
AcDbEntity
  8
部品1
100
AcDbLine
 10
14906.17676303539
 20
5548.526007551112
 30
0.0
 11
14905.77792395765
 21
5544.778790062706
 31
0.0
  0
LINE
  5
1A6F5
330
747D
100
AcDbEntity
  8
部品1
100
AcDbLine
 10
14917.74287520147
 20
5628.848097685025
 30
0.0
 11
14909.54444257119
 21
5551.821266955432
 31
0.0
  0
LINE
  5
1A6F6
330
747D
100
AcDbEntity
  8
部品1
100
AcDbLine
 10
14898.33578614472
 20
5647.055403573377
 30
0.0
 11
14895.71977994811
 21
5654.088160010451
 31
0.0
  0
LINE
  5
1A6F7
330
747D
100
AcDbEntity
  8
細線
 48
5.0
100
AcDbLine
 10
14906.32958141817
 20
5489.809238873037
 30
0.0
 11
14906.32958141817
 21
5477.555305525542
 31
0.0
  0
ARC
  5
1A6F8
330
747D
100
AcDbEntity
  8
細線
 48
5.0
100
AcDbCircle
 10
14893.82958141817
 20
5490.809238873037
 30
0.0
 40
10.0
100
AcDbArc
 50
270.0
 51
0.0
  0
LINE
  5
1A6F9
330
747D
100
AcDbEntity
  8
細線
 48
5.0
100
AcDbLine
 10
14841.32958141817
 20
5489.809238873037
 30
0.0
 11
14841.32958141817
 21
5477.555305525542
 31
0.0
  0
ARC
  5
1A6FA
330
747D
100
AcDbEntity
  8
細線
 48
5.0
100
AcDbCircle
 10
14853.82958141817
 20
5490.809238873037
 30
0.0
 40
10.0
100
AcDbArc
 50
180.0
 51
270.0
  0
ARC
  5
1A6FB
330
747D
100
AcDbEntity
  8
細線
 48
5.0
100
AcDbCircle
 10
14879.82958141817
 20
5460.809238873037
 30
0.0
 40
3.0
100
AcDbArc
 50
0.0
 51
90.0
  0
LINE
  5
1A6FC
330
747D
100
AcDbEntity
  8
細線
 48
5.0
100
AcDbLine
 10
14847.02958141816
 20
5456.809238873036
 30
0.0
 11
14900.62958141816
 21
5456.809238873036
 31
0.0
  0
LINE
  5
1A6FD
330
747D
100
AcDbEntity
  8
細線
 48
5.0
100
AcDbLine
 10
14853.82958141817
 20
5480.809238873036
 30
0.0
 11
14893.82958141817
 21
5480.809238873036
 31
0.0
  0
LINE
  5
1A6FE
330
747D
100
AcDbEntity
  8
細線
 48
5.0
100
AcDbLine
 10
14846.52958141817
 20
5470.809238873036
 30
0.0
 11
14846.52958141817
 21
5457.309238873037
 31
0.0
  0
LINE
  5
1A6FF
330
747D
100
AcDbEntity
  8
細線
 48
5.0
100
AcDbLine
 10
14848.82958141816
 20
5456.809238873036
 30
0.0
 11
14848.82958141817
 21
5422.0
 31
0.0
  0
ARC
  5
1A700
330
747D
100
AcDbEntity
  8
細線
 48
5.0
100
AcDbCircle
 10
14847.02958141816
 20
5457.309238873037
 30
0.0
 40
0.5
100
AcDbArc
 50
180.0
 51
270.0
  0
ARC
  5
1A701
330
747D
100
AcDbEntity
  8
細線
 48
5.0
100
AcDbCircle
 10
14867.82958141817
 20
5460.809238873037
 30
0.0
 40
3.0
100
AcDbArc
 50
90.0
 51
180.0
  0
LINE
  5
1A702
330
747D
100
AcDbEntity
  8
細線
 48
5.0
100
AcDbLine
 10
14861.82958141817
 20
5456.809238873036
 30
0.0
 11
14861.82958141817
 21
5422.0
 31
0.0
  0
LINE
  5
1A703
330
747D
100
AcDbEntity
  8
細線
 48
5.0
100
AcDbLine
 10
14864.82958141817
 20
5460.809238873037
 30
0.0
 11
14864.82958141817
 21
5456.809238873036
 31
0.0
  0
LINE
  5
1A704
330
747D
100
AcDbEntity
  8
細線
 48
5.0
100
AcDbLine
 10
14867.82958141817
 20
5463.809238873036
 30
0.0
 11
14879.82958141817
 21
5463.809238873036
 31
0.0
  0
ARC
  5
1A705
330
747D
100
AcDbEntity
  8
細線
 48
5.0
100
AcDbCircle
 10
14843.32958141817
 20
5477.555305525542
 30
0.0
 40
2.0
100
AcDbArc
 50
179.9999999999999
 51
220.914383220025
  0
LINE
  5
1A706
330
747D
100
AcDbEntity
  8
細線
 48
5.0
100
AcDbLine
 10
14846.52958141817
 20
5470.809238873036
 30
0.0
 11
14841.81820325259
 21
5476.245444448707
 31
0.0
  0
LINE
  5
1A707
330
747D
100
AcDbEntity
  8
細線
 48
5.0
100
AcDbLine
 10
14882.82958141817
 20
5460.809238873037
 30
0.0
 11
14882.82958141817
 21
5456.809238873036
 31
0.0
  0
LINE
  5
1A708
330
747D
100
AcDbEntity
  8
細線
 48
5.0
100
AcDbLine
 10
14901.12958141816
 20
5470.809238873036
 30
0.0
 11
14901.12958141816
 21
5457.309238873037
 31
0.0
  0
LINE
  5
1A709
330
747D
100
AcDbEntity
  8
細線
 48
5.0
100
AcDbLine
 10
14885.82958141817
 20
5456.809238873036
 30
0.0
 11
14885.82958141817
 21
5422.0
 31
0.0
  0
LINE
  5
1A70A
330
747D
100
AcDbEntity
  8
細線
 48
5.0
100
AcDbLine
 10
14898.82958141817
 20
5456.809238873036
 30
0.0
 11
14898.82958141817
 21
5422.0
 31
0.0
  0
ARC
  5
1A70B
330
747D
100
AcDbEntity
  8
細線
 48
5.0
100
AcDbCircle
 10
14900.62958141816
 20
5457.309238873037
 30
0.0
 40
0.5
100
AcDbArc
 50
270.0
 51
0.0
  0
ARC
  5
1A70C
330
747D
100
AcDbEntity
  8
細線
 48
5.0
100
AcDbCircle
 10
14904.32958141817
 20
5477.555305525542
 30
0.0
 40
2.0
100
AcDbArc
 50
319.0856167799749
 51
359.9999999999999
  0
LINE
  5
1A70D
330
747D
100
AcDbEntity
  8
細線
 48
5.0
100
AcDbLine
 10
14901.12958141816
 20
5470.809238873036
 30
0.0
 11
14905.84095958375
 21
5476.245444448707
 31
0.0
  0
LINE
  5
1A70E
330
747D
100
AcDbEntity
  8
細線
 48
5.0
100
AcDbLine
 10
14872.52958141817
 20
5500.509238873037
 30
0.0
 11
14892.12958141816
 21
5500.509238873037
 31
0.0
  0
ARC
  5
1A70F
330
747D
100
AcDbEntity
  8
細線
 48
5.0
100
AcDbCircle
 10
14872.52958141817
 20
5520.509238873037
 30
0.0
 40
20.0
100
AcDbArc
 50
180.0
 51
270.0
  0
LINE
  5
1A710
330
747D
100
AcDbEntity
  8
細線
 48
5.0
100
AcDbLine
 10
14843.82958141817
 20
5532.071889058361
 30
0.0
 11
14843.82958141817
 21
5490.809238873037
 31
0.0
  0
LINE
  5
1A711
330
747D
100
AcDbEntity
  8
細線
 48
5.0
100
AcDbLine
 10
14843.82958141817
 20
5529.809238873037
 30
0.0
 11
14843.82958141817
 21
5502.809238873036
 31
0.0
  0
ARC
  5
1A712
330
747D
100
AcDbEntity
  8
細線
 48
5.0
100
AcDbCircle
 10
14842.32958141817
 20
5489.809238873037
 30
0.0
 40
1.0
100
AcDbArc
 50
90.0
 51
180.0
  0
LINE
  5
1A713
330
747D
100
AcDbEntity
  8
細線
 48
5.0
100
AcDbLine
 10
14843.32958141817
 20
5490.809238873037
 30
0.0
 11
14843.32958141817
 21
5490.809238873037
 31
0.0
  0
LINE
  5
1A714
330
747D
100
AcDbEntity
  8
細線
 48
5.0
100
AcDbLine
 10
14842.32958141817
 20
5490.809238873037
 30
0.0
 11
14843.82958141817
 21
5490.809238873037
 31
0.0
  0
LINE
  5
1A715
330
747D
100
AcDbEntity
  8
細線
 48
5.0
100
AcDbLine
 10
14903.82958141817
 20
5490.809238873037
 30
0.0
 11
14903.82958141817
 21
5515.809238873036
 31
0.0
  0
LINE
  5
1A716
330
747D
100
AcDbEntity
  8
細線
 48
5.0
100
AcDbLine
 10
14897.12958141816
 20
5505.509238873037
 30
0.0
 11
14898.82958141816
 21
5505.509238873037
 31
0.0
  0
ARC
  5
1A717
330
747D
100
AcDbEntity
  8
細線
 48
5.0
100
AcDbCircle
 10
14892.12958141816
 20
5503.009238873037
 30
0.0
 40
2.5
100
AcDbArc
 50
270.0
 51
0.0
  0
ARC
  5
1A718
330
747D
100
AcDbEntity
  8
細線
 48
5.0
100
AcDbCircle
 10
14897.12958141816
 20
5503.009238873037
 30
0.0
 40
2.5
100
AcDbArc
 50
90.0
 51
180.0
  0
LINE
  5
1A719
330
747D
100
AcDbEntity
  8
細線
 48
5.0
100
AcDbLine
 10
14894.62958141816
 20
5503.009238873037
 30
0.0
 11
14894.62958141816
 21
5503.009238873037
 31
0.0
  0
ARC
  5
1A71A
330
747D
100
AcDbEntity
  8
細線
 48
5.0
100
AcDbCircle
 10
14905.32958141817
 20
5489.809238873037
 30
0.0
 40
1.0
100
AcDbArc
 50
0.0
 51
90.0
  0
LINE
  5
1A71B
330
747D
100
AcDbEntity
  8
細線
 48
5.0
100
AcDbLine
 10
14904.32958141817
 20
5490.809238873037
 30
0.0
 11
14904.32958141817
 21
5490.809238873037
 31
0.0
  0
LINE
  5
1A71C
330
747D
100
AcDbEntity
  8
細線
 48
5.0
100
AcDbLine
 10
14898.82958141816
 20
5515.809238873036
 30
0.0
 11
14898.82958141816
 21
5515.809238873036
 31
0.0
  0
LINE
  5
1A71D
330
747D
100
AcDbEntity
  8
細線
 48
5.0
100
AcDbLine
 10
14898.82958141816
 20
5505.509238873037
 30
0.0
 11
14898.82958141816
 21
5515.809238873036
 31
0.0
  0
LINE
  5
1A71E
330
747D
100
AcDbEntity
  8
細線
 48
5.0
100
AcDbLine
 10
14903.82958141817
 20
5490.809238873037
 30
0.0
 11
14905.32958141817
 21
5490.809238873037
 31
0.0
  0
LINE
  5
1A71F
330
747D
100
AcDbEntity
  8
細線
 48
5.0
100
AcDbLine
 10
14852.52958141817
 20
5531.855625096972
 30
0.0
 11
14852.52958141817
 21
5520.509238873037
 31
0.0
  0
LINE
  5
1A720
330
747D
100
AcDbEntity
  8
細線
 48
5.0
100
AcDbLine
 10
14898.82958141816
 20
5515.809238873036
 30
0.0
 11
14903.82958141817
 21
5515.809238873036
 31
0.0
  0
LINE
  5
1A721
330
747D
100
AcDbEntity
  8
部品1
100
AcDbLine
 10
14822.82958141817
 20
5485.0
 30
0.0
 11
14822.82958141817
 21
5445.0
 31
0.0
  0
TEXT
  5
1A84C
330
747D
100
AcDbEntity
  8
文字
 62
     7
 48
50.0
100
AcDbText
 10
18386.04187925632
 20
1047.815908841148
 30
0.0
 40
125.0
  1
～一般型･多雪地型～
  7
STYLE2
100
AcDbText
  0
LINE
  5
1ABFC
330
747D
100
AcDbEntity
  8
部品1
100
AcDbLine
 10
7869.055136608539
 20
7310.010941144057
 30
0.0
 11
7869.055136608539
 21
7709.831477053278
 31
0.0
  0
LINE
  5
1ABFD
330
747D
100
AcDbEntity
  8
部品1
100
AcDbLine
 10
6596.604026227807
 20
7709.831477053278
 30
0.0
 11
6596.604026227807
 21
7310.010941144057
 31
0.0
  0
TEXT
  5
1ABFE
330
747D
100
AcDbEntity
  8
部品1
100
AcDbText
 10
6740.548474036208
 20
7403.375597892064
 30
0.0
 40
225.0
  1
平面図
  7
STYLE2
100
AcDbText
  0
TEXT
  5
1ABFF
330
747D
100
AcDbEntity
  8
仕様書枠
 62
     7
 48
50.0
100
AcDbText
 10
4243.500522708389
 20
3170.736447636176
 30
0.0
 40
125.0
  1
▽G.L
  7
STYLE2
100
AcDbText
  0
DIMENSION
  5
1AC00
330
747D
100
AcDbEntity
  8
寸法
 48
50.0
100
AcDbDimension
  2
*D13
 10
8942.829581418171
 20
2612.358857715331
 30
0.0
 11
8655.865998741006
 21
2612.358857715331
 31
0.0
 12
3171.020575169997
 22
-15846.81261743063
 32
0.0
 70
   160
 71
     5
 42
-1.0
  3
INABA_S50G
100
AcDbAlignedDimension
 13
9142.829581418174
 23
2940.0
 33
0.0
 14
8942.829581418171
 24
2940.0
 34
0.0
100
AcDbRotatedDimension
  0
LINE
  5
1AC01
330
747D
100
AcDbEntity
  8
部品1
100
AcDbLine
 10
7869.05513660854
 20
2526.882077830556
 30
0.0
 11
6596.604026227807
 21
2526.882077830556
 31
0.0
  0
LINE
  5
1AC02
330
747D
100
AcDbEntity
  8
部品1
100
AcDbLine
 10
6596.604026227807
 20
2127.061541921335
 30
0.0
 11
7869.05513660854
 21
2127.061541921335
 31
0.0
  0
TEXT
  5
1AC03
330
747D
100
AcDbEntity
  8
部品1
100
AcDbText
 10
6760.542214805107
 20
2224.577584097296
 30
0.0
 40
225.0
  1
正面図
  7
STYLE2
100
AcDbText
  0
LINE
  5
1AC04
330
747D
100
AcDbEntity
  8
部品1
100
AcDbLine
 10
6596.604026227807
 20
2526.882077830556
 30
0.0
 11
6596.604026227807
 21
2127.061541921335
 31
0.0
  0
LINE
  5
1AC05
330
747D
100
AcDbEntity
  8
部品1
100
AcDbLine
 10
7869.05513660854
 20
2127.061541921335
 30
0.0
 11
7869.05513660854
 21
2526.882077830556
 31
0.0
  0
LINE
  5
1AC06
330
747D
100
AcDbEntity
  8
部品1
 62
     2
 48
50.0
100
AcDbLine
 10
7818.829581418173
 20
5149.5
 30
0.0
 11
6066.829581418173
 21
5149.5
 31
0.0
  0
LINE
  5
1AC07
330
747D
100
AcDbEntity
  8
部品1
 62
     2
 48
50.0
100
AcDbLine
 10
6082.829581418172
 20
3324.0
 30
0.0
 11
7802.829581418174
 21
3324.0
 31
0.0
  0
LINE
  5
1AC08
330
747D
100
AcDbEntity
  8
部品1
 62
     2
 48
50.0
100
AcDbLine
 10
7818.829581418173
 20
5187.0
 30
0.0
 11
6066.829581418173
 21
5187.0
 31
0.0
  0
LINE
  5
1AC09
330
747D
100
AcDbEntity
  8
部品1
100
AcDbLine
 10
9073.513641876282
 20
5580.000001569558
 30
0.0
 11
5392.145516590237
 21
5580.000001569569
 31
0.0
  0
LINE
  5
1AC0A
330
747D
100
AcDbEntity
  8
細線
100
AcDbLine
 10
9091.32472575561
 20
5601.045828186499
 30
0.0
 11
5374.334432710912
 21
5601.045828186506
 31
0.0
  0
LINE
  5
1AC0B
330
747D
100
AcDbEntity
  8
部品1
100
AcDbLine
 10
9068.397416958699
 20
5715.000000008448
 30
0.0
 11
5397.261741799081
 21
5715.000000008469
 31
0.0
  0
LINE
  5
1AC0C
330
747D
100
AcDbEntity
  8
細線
100
AcDbLine
 10
9082.329581418175
 20
5694.500002624809
 30
0.0
 11
5385.429712967132
 21
5694.500002624817
 31
0.0
  0
LINE
  5
1AC0D
330
747D
100
AcDbEntity
  8
部品1
100
AcDbLine
 10
6596.604026227807
 20
7310.010941144057
 30
0.0
 11
7869.055136608539
 21
7310.010941144057
 31
0.0
  0
DIMENSION
  5
1AC0E
330
747D
100
AcDbEntity
  8
寸法
 48
50.0
100
AcDbDimension
  2
*D14
 10
9097.829581418174
 20
6676.068854554545
 30
0.0
 11
6652.82957923326
 21
6776.068854554544
 31
0.0
 12
3171.020575169997
 22
-15846.81261743063
 32
0.0
 70
    32
 71
     5
 42
-1.0
  3
INABA_S50G
100
AcDbAlignedDimension
 13
5367.829577048346
 23
5679.000002624809
 33
0.0
 14
9097.829581418174
 24
5679.000002624809
 34
0.0
100
AcDbRotatedDimension
  0
DIMENSION
  5
1AC0F
330
747D
100
AcDbEntity
  8
寸法
 48
50.0
100
AcDbDimension
  2
*D15
 10
9042.829581418171
 20
6408.281130716521
 30
0.0
 11
7232.829581418172
 21
6508.295894496048
 31
0.0
 70
    32
  1
柱外寸法 <>
 71
     5
 42
-1.0
  3
INABA_S50G
100
AcDbAlignedDimension
 13
5422.829581418173
 23
5715.000000008469
 33
0.0
 14
9042.829581418171
 24
5715.000000008448
 34
0.0
100
AcDbRotatedDimension
1001
ACAD
1000
DSTYLE
1002
{
1070
   287
1070
     4
1070
    75
1070
     1
1070
   279
1070
     1
1002
}
  0
LINE
  5
1AC10
330
747D
100
AcDbEntity
  8
部品1
 48
50.0
100
AcDbLine
 10
9042.829581418173
 20
5445.0
 30
0.0
 11
5422.829581418173
 21
5445.0
 31
0.0
  0
LINE
  5
1AC11
330
747D
100
AcDbEntity
  8
部品1
 48
50.0
100
AcDbLine
 10
5422.829581418173
 20
3275.0
 30
0.0
 11
9042.829581418175
 21
3275.0
 31
0.0
  0
LINE
  5
1AC12
330
747D
100
AcDbEntity
  8
部品1
 62
     2
 48
50.0
100
AcDbLine
 10
7250.329581418172
 20
5149.5
 30
0.0
 11
7250.329581418172
 21
3333.0
 31
0.0
  0
LINE
  5
1AC13
330
747D
100
AcDbEntity
  8
部品1
 62
     2
 48
50.0
100
AcDbLine
 10
6677.829581418173
 20
5149.5
 30
0.0
 11
6677.829581418173
 21
3326.0
 31
0.0
  0
LINE
  5
1AC14
330
747D
100
AcDbEntity
  8
部品1
 62
     2
 48
50.0
100
AcDbLine
 10
7794.829581418174
 20
5149.5
 30
0.0
 11
7794.829581418174
 21
3324.0
 31
0.0
  0
LINE
  5
1AC15
330
747D
100
AcDbEntity
  8
部品1
 62
     2
 48
50.0
100
AcDbLine
 10
6090.829581418173
 20
5149.5
 30
0.0
 11
6090.829581418171
 21
3324.0
 31
0.0
  0
LINE
  5
1AC16
330
747D
100
AcDbEntity
  8
部品1
 62
     2
 48
50.0
100
AcDbLine
 10
6066.829581418173
 20
5187.0
 30
0.0
 11
6066.829581418172
 21
3275.0
 31
0.0
  0
LINE
  5
1AC17
330
747D
100
AcDbEntity
  8
部品1
 48
50.0
100
AcDbLine
 10
5492.829581418173
 20
5445.0
 30
0.0
 11
5492.829581418174
 21
3275.0
 31
0.0
  0
LINE
  5
1AC18
330
747D
100
AcDbEntity
  8
部品1
 48
50.0
100
AcDbLine
 10
5422.829581418173
 20
5580.000001569569
 30
0.0
 11
5422.829581418173
 21
3140.0
 31
0.0
  0
LINE
  5
1AC19
330
747D
100
AcDbEntity
  8
部品1
 62
     2
 48
50.0
100
AcDbLine
 10
6148.329581418172
 20
4254.0
 30
0.0
 11
6171.816007727359
 21
4254.0
 31
0.0
  0
LINE
  5
1AC1A
330
747D
100
AcDbEntity
  8
部品1
 62
     2
 48
50.0
100
AcDbLine
 10
6176.733368612047
 20
4263.0
 30
0.0
 11
6115.356368047668
 21
4263.0
 31
0.0
  0
LINE
  5
1AC1B
330
747D
100
AcDbEntity
  8
部品1
 62
     2
 48
50.0
100
AcDbLine
 10
6148.329581418172
 20
4120.0
 30
0.0
 11
6171.816007727359
 21
4120.0
 31
0.0
  0
LINE
  5
1AC1C
330
747D
100
AcDbEntity
  8
部品1
 62
     2
 48
50.0
100
AcDbLine
 10
6176.733368612047
 20
4111.0
 30
0.0
 11
6115.356368047668
 21
4111.0
 31
0.0
  0
LINE
  5
1AC1D
330
747D
100
AcDbEntity
  8
部品1
 62
     2
 48
50.0
100
AcDbLine
 10
6090.829581418171
 20
3326.0
 30
0.0
 11
6677.829581418173
 21
3326.0
 31
0.0
  0
LINE
  5
1AC1E
330
747D
100
AcDbEntity
  8
破線
 48
5.0
100
AcDbLine
 10
5322.829581418175
 20
2940.0
 30
0.0
 11
5522.829581418176
 21
2940.0
 31
0.0
  0
LINE
  5
1AC1F
330
747D
100
AcDbEntity
  8
破線
 48
5.0
100
AcDbLine
 10
5322.829581418175
 20
3140.0
 30
0.0
 11
5322.829581418175
 21
2940.0
 31
0.0
  0
LINE
  5
1AC20
330
747D
100
AcDbEntity
  8
部品1
 48
50.0
100
AcDbLine
 10
5492.829581418174
 20
3330.0
 30
0.0
 11
6066.829581418171
 21
3330.0
 31
0.0
  0
LINE
  5
1AC21
330
747D
100
AcDbEntity
  8
破線
 48
5.0
100
AcDbLine
 10
5522.829581418175
 20
3140.0
 30
0.0
 11
5522.829581418175
 21
2940.0
 31
0.0
  0
LINE
  5
1AC22
330
747D
100
AcDbEntity
  8
破線
 48
5.0
100
AcDbLine
 10
5417.829581418175
 20
3140.0
 30
0.0
 11
5417.829581418175
 21
3030.0
 31
0.0
  0
LINE
  5
1AC23
330
747D
100
AcDbEntity
  8
破線
 48
5.0
100
AcDbLine
 10
5397.829581418175
 20
3030.0
 30
0.0
 11
5417.829581418176
 21
3030.0
 31
0.0
  0
LINE
  5
1AC24
330
747D
100
AcDbEntity
  8
部品1
100
AcDbLine
 10
5417.829581418175
 20
3315.0
 30
0.0
 11
5417.829581418175
 21
3140.0
 31
0.0
  0
LINE
  5
1AC25
330
747D
100
AcDbEntity
  8
部品1
 48
50.0
100
AcDbLine
 10
5822.829581418172
 20
3275.0
 30
0.0
 11
5822.829581418172
 21
3140.0
 31
0.0
  0
LINE
  5
1AC26
330
747D
100
AcDbEntity
  8
部品1
 62
     2
 48
50.0
100
AcDbLine
 10
6082.829581418172
 20
3324.0
 30
0.0
 11
6082.829581418172
 21
3275.0
 31
0.0
  0
LINE
  5
1AC27
330
747D
100
AcDbEntity
  8
部品1
 62
     2
 48
50.0
100
AcDbLine
 10
6130.329581418172
 20
4250.0
 30
0.0
 11
6130.329581418172
 21
4216.0
 31
0.0
  0
LINE
  5
1AC28
330
747D
100
AcDbEntity
  8
部品1
 62
     2
 48
50.0
100
AcDbLine
 10
6118.329581418172
 20
4250.0
 30
0.0
 11
6118.329581418175
 21
4216.0
 31
0.0
  0
LINE
  5
1AC29
330
747D
100
AcDbEntity
  8
部品1
 62
     2
 48
50.0
100
AcDbLine
 10
6145.329581418172
 20
4251.0
 30
0.0
 11
6145.329581418172
 21
4123.0
 31
0.0
  0
ARC
  5
1AC2A
330
747D
100
AcDbEntity
  8
部品1
 62
     2
 48
50.0
100
AcDbCircle
 10
6507.329581418172
 20
4187.0
 30
0.0
 40
405.0
100
AcDbArc
 50
170.0163680567114
 51
189.9836319432886
  0
ARC
  5
1AC2B
330
747D
100
AcDbEntity
  8
部品1
 62
     2
 48
50.0
100
AcDbCircle
 10
6121.329581418176
 20
4216.0
 30
0.0
 40
3.0
100
AcDbArc
 50
180.0000000000025
 51
270.0
  0
LINE
  5
1AC2C
330
747D
100
AcDbEntity
  8
部品1
 62
     2
 48
50.0
100
AcDbLine
 10
6127.329581418172
 20
4213.0
 30
0.0
 11
6121.329581418176
 21
4213.0
 31
0.0
  0
ARC
  5
1AC2D
330
747D
100
AcDbEntity
  8
部品1
 62
     2
 48
50.0
100
AcDbCircle
 10
6127.329581418172
 20
4216.0
 30
0.0
 40
3.0
100
AcDbArc
 50
270.0
 51
0.0
  0
ARC
  5
1AC2E
330
747D
100
AcDbEntity
  8
部品1
 62
     2
 48
50.0
100
AcDbCircle
 10
6148.329581418172
 20
4123.0
 30
0.0
 40
3.0
100
AcDbArc
 50
179.9999999999996
 51
270.0000000000035
  0
LINE
  5
1AC2F
330
747D
100
AcDbEntity
  8
部品1
 62
     2
 48
50.0
100
AcDbLine
 10
6127.329581418172
 20
4161.0
 30
0.0
 11
6121.329581418176
 21
4161.0
 31
0.0
  0
ARC
  5
1AC30
330
747D
100
AcDbEntity
  8
部品1
 62
     2
 48
50.0
100
AcDbCircle
 10
6127.329581418172
 20
4158.0
 30
0.0
 40
3.0
100
AcDbArc
 50
0.0
 51
90.0
  0
ARC
  5
1AC31
330
747D
100
AcDbEntity
  8
部品1
 62
     2
 48
50.0
100
AcDbCircle
 10
6121.329581418176
 20
4158.0
 30
0.0
 40
3.0
100
AcDbArc
 50
90.0
 51
179.9999999999974
  0
LINE
  5
1AC32
330
747D
100
AcDbEntity
  8
部品1
 62
     2
 48
50.0
100
AcDbLine
 10
6127.329581418172
 20
4121.0
 30
0.0
 11
6121.329581418172
 21
4121.0
 31
0.0
  0
ARC
  5
1AC33
330
747D
100
AcDbEntity
  8
部品1
 62
     2
 48
50.0
100
AcDbCircle
 10
6121.329581418172
 20
4124.0
 30
0.0
 40
3.0
100
AcDbArc
 50
179.9999999999971
 51
270.0
  0
ARC
  5
1AC34
330
747D
100
AcDbEntity
  8
部品1
 62
     2
 48
50.0
100
AcDbCircle
 10
6127.329581418172
 20
4124.0
 30
0.0
 40
3.0
100
AcDbArc
 50
270.0
 51
0.0
  0
ARC
  5
1AC35
330
747D
100
AcDbEntity
  8
部品1
 62
     2
 48
50.0
100
AcDbCircle
 10
6115.356368047668
 20
4118.0
 30
0.0
 40
7.0
100
AcDbArc
 50
189.983631943288
 51
270.0
  0
LINE
  5
1AC36
330
747D
100
AcDbEntity
  8
部品1
 62
     2
 48
50.0
100
AcDbLine
 10
6118.329581418172
 20
4124.0
 30
0.0
 11
6118.329581418175
 21
4158.0
 31
0.0
  0
LINE
  5
1AC37
330
747D
100
AcDbEntity
  8
部品1
 62
     2
 48
50.0
100
AcDbLine
 10
6130.329581418172
 20
4124.0
 30
0.0
 11
6130.329581418172
 21
4158.0
 31
0.0
  0
CIRCLE
  5
1AC38
330
747D
100
AcDbEntity
  8
部品1
 62
     2
 48
50.0
100
AcDbCircle
 10
6124.329581418172
 20
4187.0
 30
0.0
 40
17.0
  0
ARC
  5
1AC39
330
747D
100
AcDbEntity
  8
部品1
 62
     2
 48
50.0
100
AcDbCircle
 10
6148.329581418172
 20
4251.0
 30
0.0
 40
3.0
100
AcDbArc
 50
90.0
 51
179.9999999999992
  0
ARC
  5
1AC3A
330
747D
100
AcDbEntity
  8
部品1
 62
     2
 48
50.0
100
AcDbCircle
 10
6127.329581418172
 20
4250.0
 30
0.0
 40
3.0
100
AcDbArc
 50
0.0
 51
90.00000000000003
  0
LINE
  5
1AC3B
330
747D
100
AcDbEntity
  8
部品1
 62
     2
 48
50.0
100
AcDbLine
 10
6127.329581418172
 20
4253.0
 30
0.0
 11
6121.329581418172
 21
4253.0
 31
0.0
  0
ARC
  5
1AC3C
330
747D
100
AcDbEntity
  8
部品1
 62
     2
 48
50.0
100
AcDbCircle
 10
6121.329581418172
 20
4250.0
 30
0.0
 40
3.0
100
AcDbArc
 50
90.00000000000003
 51
180.0000000000027
  0
ARC
  5
1AC3D
330
747D
100
AcDbEntity
  8
部品1
 62
     2
 48
50.0
100
AcDbCircle
 10
6115.356368047668
 20
4256.0
 30
0.0
 40
7.0
100
AcDbArc
 50
90.0
 51
170.0163680567111
  0
LINE
  5
1AC3E
330
747D
100
AcDbEntity
  8
部品1
 62
     2
 48
50.0
100
AcDbLine
 10
6677.829581418173
 20
3333.0
 30
0.0
 11
7776.329581418173
 21
3333.0
 31
0.0
  0
LINE
  5
1AC3F
330
747D
100
AcDbEntity
  8
部品1
 48
50.0
100
AcDbLine
 10
6542.829581418172
 20
3275.0
 30
0.0
 11
6542.829581418172
 21
3140.0
 31
0.0
  0
LINE
  5
1AC40
330
747D
100
AcDbEntity
  8
部品1
 48
50.0
100
AcDbLine
 10
6942.829581418173
 20
3275.0
 30
0.0
 11
6942.829581418173
 21
3140.0
 31
0.0
  0
LINE
  5
1AC41
330
747D
100
AcDbEntity
  8
部品1
 62
     2
 48
50.0
100
AcDbLine
 10
7776.329581418173
 20
3333.0
 30
0.0
 11
7782.329581418173
 21
3324.0
 31
0.0
  0
LINE
  5
1AC42
330
747D
100
AcDbEntity
  8
部品1
 48
50.0
100
AcDbLine
 10
7722.829581418173
 20
3275.0
 30
0.0
 11
7722.829581418173
 21
3140.0
 31
0.0
  0
ARC
  5
1AC43
330
747D
100
AcDbEntity
  8
部品1
 62
     2
 48
50.0
100
AcDbCircle
 10
2184.329581418171
 20
4187.0
 30
0.0
 40
4000.0
100
AcDbArc
 50
359.0098658739685
 51
0.9901341260314108
  0
ARC
  5
1AC44
330
747D
100
AcDbEntity
  8
部品1
 62
     2
 48
50.0
100
AcDbCircle
 10
2184.329581418171
 20
4187.0
 30
0.0
 40
3991.0
100
AcDbArc
 50
359.0804695823139
 51
0.9195304176861213
  0
ARC
  5
1AC45
330
747D
100
AcDbEntity
  8
部品1
 62
     2
 48
50.0
100
AcDbCircle
 10
6176.733368612047
 20
4118.0
 30
0.0
 40
7.0
100
AcDbArc
 50
270.0
 51
359.009865873969
  0
ARC
  5
1AC46
330
747D
100
AcDbEntity
  8
部品1
 62
     2
 48
50.0
100
AcDbCircle
 10
6171.816007727359
 20
4123.0
 30
0.0
 40
3.0
100
AcDbArc
 50
270.0
 51
359.0804695823297
  0
ARC
  5
1AC47
330
747D
100
AcDbEntity
  8
部品1
 62
     2
 48
50.0
100
AcDbCircle
 10
6176.733368612047
 20
4256.0
 30
0.0
 40
7.0
100
AcDbArc
 50
0.9901341260309951
 51
90.0
  0
ARC
  5
1AC48
330
747D
100
AcDbEntity
  8
部品1
 62
     2
 48
50.0
100
AcDbCircle
 10
6171.816007727359
 20
4251.0
 30
0.0
 40
3.0
100
AcDbArc
 50
0.9195304176876355
 51
90.0
  0
DIMENSION
  5
1AC49
330
747D
100
AcDbEntity
  8
寸法
 48
50.0
100
AcDbDimension
  2
*D16
 10
5422.829581418173
 20
6408.281130716521
 30
0.0
 11
5042.770526300061
 21
6408.281130716521
 31
0.0
 12
3171.020575169997
 22
-15846.81261743063
 32
0.0
 70
   160
 71
     5
 42
-1.0
  3
INABA_S50G
100
AcDbAlignedDimension
 13
5367.829577048346
 23
5679.000002624809
 33
0.0
 14
5422.829581418173
 24
5715.000000008469
 34
0.0
100
AcDbRotatedDimension
  0
LINE
  5
1AC4A
330
747D
100
AcDbEntity
  8
細線
 48
50.0
100
AcDbLine
 10
5405.829581709429
 20
5580.000001569558
 30
0.0
 11
5405.829581709429
 21
5715.0
 31
0.0
  0
ARC
  5
1AC4B
330
747D
100
AcDbEntity
  8
部品1
100
AcDbCircle
 10
5383.329577048346
 20
5679.000002624809
 30
0.0
 40
15.5
100
AcDbArc
 50
90.00000000000033
 51
183.979378091838
  0
LINE
  5
1AC4C
330
747D
100
AcDbEntity
  8
部品1
100
AcDbLine
 10
5367.866946115999
 20
5677.92434252513
 30
0.0
 11
5373.13732580002
 21
5602.162551275553
 31
0.0
  0
ARC
  5
1AC4D
330
747D
100
AcDbEntity
  8
部品1
100
AcDbCircle
 10
5374.334432710912
 20
5602.245828186497
 30
0.0
 40
1.199999999999999
100
AcDbArc
 50
183.979378091838
 51
270.0000000000002
  0
ARC
  5
1AC4E
330
747D
100
AcDbEntity
  8
部品1
100
AcDbCircle
 10
5373.888253715101
 20
5598.572828826124
 30
0.0
 40
2.5
100
AcDbArc
 50
3.979378091802891
 51
83.07390809407314
  0
LINE
  5
1AC4F
330
747D
100
AcDbEntity
  8
部品1
100
AcDbLine
 10
5376.382226446123
 20
5598.746322390583
 30
0.0
 11
5376.68288565789
 21
5594.424341469879
 31
0.0
  0
ARC
  5
1AC50
330
747D
100
AcDbEntity
  8
部品1
100
AcDbCircle
 10
5392.145516590237
 20
5595.500001569562
 30
0.0
 40
15.5
100
AcDbArc
 50
183.9793780918396
 51
270.0
  0
LINE
  5
1AC51
330
747D
100
AcDbEntity
  8
部品1
 48
50.0
100
AcDbLine
 10
6072.829581418172
 20
5445.0
 30
0.0
 11
6072.829581418172
 21
5187.0
 31
0.0
  0
LINE
  5
1AC52
330
747D
100
AcDbEntity
  8
部品1
 48
50.0
100
AcDbLine
 10
5383.329577048346
 20
5694.500002624809
 30
0.0
 11
5385.429712967132
 21
5694.500002624817
 31
0.0
  0
LINE
  5
1AC53
330
747D
100
AcDbEntity
  8
部品1
100
AcDbLine
 10
5386.815532222208
 20
5695.425977370788
 30
0.0
 11
5394.028406396046
 21
5712.839392276281
 31
0.0
  0
ARC
  5
1AC54
330
747D
100
AcDbEntity
  8
部品1
100
AcDbCircle
 10
5385.429712967132
 20
5696.000002624809
 30
0.0
 40
1.5
100
AcDbArc
 50
270.0000000000002
 51
337.4999956391484
  0
ARC
  5
1AC55
330
747D
100
AcDbEntity
  8
部品1
100
AcDbCircle
 10
5397.261984657893
 20
5711.500000016894
 30
0.0
 40
3.5
100
AcDbArc
 50
90.0
 51
157.4999956391549
  0
LINE
  5
1AC56
330
747D
100
AcDbEntity
  8
細線
 48
50.0
100
AcDbLine
 10
6498.829581418172
 20
5575.500036981837
 30
0.0
 11
6226.829581418173
 21
5575.500036981837
 31
0.0
  0
LINE
  5
1AC57
330
747D
100
AcDbEntity
  8
細線
 48
50.0
100
AcDbLine
 10
6241.829581418173
 20
5500.500036981837
 30
0.0
 11
6483.829581418174
 21
5500.500036981837
 31
0.0
  0
LINE
  5
1AC58
330
747D
100
AcDbEntity
  8
細線
 48
50.0
100
AcDbLine
 10
6241.829581418173
 20
5515.5
 30
0.0
 11
6483.829581418174
 21
5515.5
 31
0.0
  0
LINE
  5
1AC59
330
747D
100
AcDbEntity
  8
細線
 48
50.0
100
AcDbLine
 10
6241.829581418173
 20
5530.500036981838
 30
0.0
 11
6483.829581418174
 21
5530.500036981838
 31
0.0
  0
LINE
  5
1AC5A
330
747D
100
AcDbEntity
  8
細線
 48
50.0
100
AcDbLine
 10
6241.829581418173
 20
5560.500000000001
 30
0.0
 11
6483.829581418174
 21
5560.500000000001
 31
0.0
  0
LINE
  5
1AC5B
330
747D
100
AcDbEntity
  8
細線
 48
50.0
100
AcDbLine
 10
6241.829581418173
 20
5545.5
 30
0.0
 11
6483.829581418174
 21
5545.5
 31
0.0
  0
LINE
  5
1AC5C
330
747D
100
AcDbEntity
  8
細線
 48
50.0
100
AcDbLine
 10
6498.829581418172
 20
5478.5
 30
0.0
 11
6226.829581418173
 21
5478.5
 31
0.0
  0
LINE
  5
1AC5D
330
747D
100
AcDbEntity
  8
細線
 48
50.0
100
AcDbLine
 10
6483.829581418174
 20
5489.5
 30
0.0
 11
6241.829581418173
 21
5489.5
 31
0.0
  0
LINE
  5
1AC5E
330
747D
100
AcDbEntity
  8
細線
 48
50.0
100
AcDbLine
 10
6322.829581418172
 20
5489.5
 30
0.0
 11
6322.829581418172
 21
5560.500000000001
 31
0.0
  0
ARC
  5
1AC5F
330
747D
100
AcDbEntity
  8
細線
 48
50.0
100
AcDbCircle
 10
6226.829581418173
 20
5488.5
 30
0.0
 40
10.0
100
AcDbArc
 50
180.0
 51
270.0
  0
LINE
  5
1AC60
330
747D
100
AcDbEntity
  8
細線
 48
50.0
100
AcDbLine
 10
6241.829581418173
 20
5478.5
 30
0.0
 11
6241.829581418173
 21
5479.0
 31
0.0
  0
ARC
  5
1AC61
330
747D
100
AcDbEntity
  8
細線
 48
50.0
100
AcDbCircle
 10
6226.829581418173
 20
5565.500036981838
 30
0.0
 40
10.0
100
AcDbArc
 50
90.0
 51
180.0
  0
LINE
  5
1AC62
330
747D
100
AcDbEntity
  8
細線
 48
50.0
100
AcDbLine
 10
6241.829581418173
 20
5575.500036981837
 30
0.0
 11
6241.829581418173
 21
5478.5
 31
0.0
  0
LINE
  5
1AC63
330
747D
100
AcDbEntity
  8
細線
 48
50.0
100
AcDbLine
 10
6216.829581418173
 20
5565.500036981838
 30
0.0
 11
6216.829581418173
 21
5488.5
 31
0.0
  0
LINE
  5
1AC64
330
747D
100
AcDbEntity
  8
細線
 48
50.0
100
AcDbLine
 10
6402.829581418173
 20
5489.5
 30
0.0
 11
6402.829581418173
 21
5560.500000000001
 31
0.0
  0
ARC
  5
1AC65
330
747D
100
AcDbEntity
  8
細線
 48
50.0
100
AcDbCircle
 10
6498.829581418172
 20
5488.5
 30
0.0
 40
10.0
100
AcDbArc
 50
270.0
 51
359.9999999999998
  0
LINE
  5
1AC66
330
747D
100
AcDbEntity
  8
細線
 48
50.0
100
AcDbLine
 10
6483.829581418174
 20
5478.5
 30
0.0
 11
6483.829581418174
 21
5479.0
 31
0.0
  0
ARC
  5
1AC67
330
747D
100
AcDbEntity
  8
細線
 48
50.0
100
AcDbCircle
 10
6498.829581418172
 20
5565.500036981838
 30
0.0
 40
10.0
100
AcDbArc
 50
359.9999999999998
 51
90.0
  0
LINE
  5
1AC68
330
747D
100
AcDbEntity
  8
細線
 48
50.0
100
AcDbLine
 10
6483.829581418174
 20
5575.500036981837
 30
0.0
 11
6483.829581418174
 21
5478.5
 31
0.0
  0
LINE
  5
1AC69
330
747D
100
AcDbEntity
  8
細線
 48
50.0
100
AcDbLine
 10
6508.829581418173
 20
5565.500036981838
 30
0.0
 11
6508.829581418173
 21
5488.5
 31
0.0
  0
LINE
  5
1AC6A
330
747D
100
AcDbEntity
  8
部品1
 62
     2
 48
50.0
100
AcDbLine
 10
7818.829581418173
 20
5187.0
 30
0.0
 11
7818.829581418173
 21
3275.0
 31
0.0
  0
DIMENSION
  5
1AC6B
330
747D
100
AcDbEntity
  8
寸法
 48
50.0
100
AcDbDimension
  2
*D17
 10
9698.934533249726
 20
5472.0
 30
0.0
 11
9598.919769470196
 21
4407.0
 31
0.0
 70
    32
  1
内高 <>
 71
     5
 42
-1.0
  3
INABA_S50G
100
AcDbAlignedDimension
 13
9042.829581418173
 23
3342.0
 33
0.0
 14
9042.829581418171
 24
5472.0
 34
0.0
 50
90.0
100
AcDbRotatedDimension
1001
ACAD
1000
DSTYLE
1002
{
1070
   287
1070
     4
1070
    75
1070
     1
1070
   279
1070
     1
1002
}
  0
LINE
  5
1AC6C
330
747D
100
AcDbEntity
  8
部品1
 48
50.0
100
AcDbLine
 10
8392.829581418174
 20
5445.0
 30
0.0
 11
8392.829581418174
 21
3330.0
 31
0.0
  0
LINE
  5
1AC6D
330
747D
100
AcDbEntity
  8
部品1
 48
50.0
100
AcDbLine
 10
9042.829581418171
 20
5580.000001569558
 30
0.0
 11
9042.829581418173
 21
3140.0
 31
0.0
  0
LINE
  5
1AC6E
330
747D
100
AcDbEntity
  8
部品1
 48
50.0
100
AcDbLine
 10
8972.829581418173
 20
5445.0
 30
0.0
 11
8972.829581418173
 21
3275.0
 31
0.0
  0
DIMENSION
  5
1AC6F
330
747D
100
AcDbEntity
  8
寸法
 48
50.0
100
AcDbDimension
  2
*D18
 10
9698.934533249726
 20
3342.0
 30
0.0
 11
9698.934533249726
 21
2978.697597487494
 31
0.0
 12
3171.020575169997
 22
-15846.81261743063
 32
0.0
 70
   160
 71
     5
 42
-1.0
  3
INABA_S50G
100
AcDbAlignedDimension
 13
9042.829581418173
 23
3275.0
 33
0.0
 14
9042.829581418173
 24
3342.0
 34
0.0
 50
90.0
100
AcDbRotatedDimension
  0
LINE
  5
1AC70
330
747D
100
AcDbEntity
  8
部品1
 48
50.0
100
AcDbLine
 10
7818.829581418173
 20
3330.0
 30
0.0
 11
8972.829581418173
 21
3330.0
 31
0.0
  0
LINE
  5
1AC71
330
747D
100
AcDbEntity
  8
部品1
 62
     2
 48
50.0
100
AcDbLine
 10
7802.829581418174
 20
3324.0
 30
0.0
 11
7802.829581418173
 21
3275.0
 31
0.0
  0
LINE
  5
1AC72
330
747D
100
AcDbEntity
  8
部品1
 48
50.0
100
AcDbLine
 10
7922.829581418174
 20
3275.0
 30
0.0
 11
7922.829581418174
 21
3140.0
 31
0.0
  0
LINE
  5
1AC73
330
747D
100
AcDbEntity
  8
破線
 48
5.0
100
AcDbLine
 10
9142.829581418174
 20
2940.0
 30
0.0
 11
8942.829581418171
 21
2940.0
 31
0.0
  0
LINE
  5
1AC74
330
747D
100
AcDbEntity
  8
破線
 48
5.0
100
AcDbLine
 10
8942.829581418173
 20
3140.0
 30
0.0
 11
8942.829581418173
 21
2940.0
 31
0.0
  0
LINE
  5
1AC75
330
747D
100
AcDbEntity
  8
部品1
 48
50.0
100
AcDbLine
 10
8642.829581418174
 20
3275.0
 30
0.0
 11
8642.829581418174
 21
3140.0
 31
0.0
  0
LINE
  5
1AC76
330
747D
100
AcDbEntity
  8
破線
 48
5.0
100
AcDbLine
 10
9047.829581418174
 20
3140.0
 30
0.0
 11
9047.829581418174
 21
3030.0
 31
0.0
  0
LINE
  5
1AC77
330
747D
100
AcDbEntity
  8
破線
 48
5.0
100
AcDbLine
 10
9142.829581418174
 20
3140.0
 30
0.0
 11
9142.829581418174
 21
2940.0
 31
0.0
  0
LINE
  5
1AC78
330
747D
100
AcDbEntity
  8
破線
 48
5.0
100
AcDbLine
 10
9067.829581418173
 20
3030.0
 30
0.0
 11
9047.82958141817
 21
3030.0
 31
0.0
  0
LINE
  5
1AC79
330
747D
100
AcDbEntity
  8
部品1
100
AcDbLine
 10
9047.829581418174
 20
3315.0
 30
0.0
 11
9047.829581418174
 21
3140.0
 31
0.0
  0
DIMENSION
  5
1AC7A
330
747D
100
AcDbEntity
  8
寸法
 48
50.0
100
AcDbDimension
  2
*D19
 10
9097.829581418174
 20
6408.281130716521
 30
0.0
 11
9412.888636536285
 21
6408.281130716521
 31
0.0
 12
3171.020575169997
 22
-15846.81261743063
 32
0.0
 70
   160
 71
     5
 42
-1.0
  3
INABA_S50G
100
AcDbAlignedDimension
 13
9042.829581418171
 23
5715.000000008448
 33
0.0
 14
9097.829581418174
 24
5679.000002624809
 34
0.0
100
AcDbRotatedDimension
1001
ACAD
1000
DSTYLE
1002
{
1002
}
  0
LINE
  5
1AC7B
330
747D
100
AcDbEntity
  8
細線
 48
50.0
100
AcDbLine
 10
8238.829581418173
 20
5575.500036981837
 30
0.0
 11
7966.829581418173
 21
5575.500036981837
 31
0.0
  0
LINE
  5
1AC7C
330
747D
100
AcDbEntity
  8
細線
 48
50.0
100
AcDbLine
 10
8223.829581418172
 20
5489.5
 30
0.0
 11
7981.829581418172
 21
5489.5
 31
0.0
  0
LINE
  5
1AC7D
330
747D
100
AcDbEntity
  8
細線
 48
50.0
100
AcDbLine
 10
8238.829581418173
 20
5478.5
 30
0.0
 11
7966.829581418173
 21
5478.5
 31
0.0
  0
LINE
  5
1AC7E
330
747D
100
AcDbEntity
  8
細線
 48
50.0
100
AcDbLine
 10
7981.829581418172
 20
5545.5
 30
0.0
 11
8223.829581418172
 21
5545.5
 31
0.0
  0
LINE
  5
1AC7F
330
747D
100
AcDbEntity
  8
細線
 48
50.0
100
AcDbLine
 10
7981.829581418172
 20
5560.500000000001
 30
0.0
 11
8223.829581418172
 21
5560.500000000001
 31
0.0
  0
LINE
  5
1AC80
330
747D
100
AcDbEntity
  8
細線
 48
50.0
100
AcDbLine
 10
7981.829581418172
 20
5530.500036981838
 30
0.0
 11
8223.829581418172
 21
5530.500036981838
 31
0.0
  0
LINE
  5
1AC81
330
747D
100
AcDbEntity
  8
細線
 48
50.0
100
AcDbLine
 10
7981.829581418172
 20
5515.5
 30
0.0
 11
8223.829581418172
 21
5515.5
 31
0.0
  0
LINE
  5
1AC82
330
747D
100
AcDbEntity
  8
細線
 48
50.0
100
AcDbLine
 10
7981.829581418172
 20
5500.500036981837
 30
0.0
 11
8223.829581418172
 21
5500.500036981837
 31
0.0
  0
LINE
  5
1AC83
330
747D
100
AcDbEntity
  8
部品1
 48
50.0
100
AcDbLine
 10
7812.829581418172
 20
5445.0
 30
0.0
 11
7812.829581418172
 21
5187.0
 31
0.0
  0
LINE
  5
1AC84
330
747D
100
AcDbEntity
  8
細線
 48
50.0
100
AcDbLine
 10
7956.829581418173
 20
5565.500036981838
 30
0.0
 11
7956.829581418173
 21
5488.5
 31
0.0
  0
ARC
  5
1AC85
330
747D
100
AcDbEntity
  8
細線
 48
50.0
100
AcDbCircle
 10
7966.829581418173
 20
5565.500036981838
 30
0.0
 40
10.0
100
AcDbArc
 50
90.0
 51
180.0
  0
LINE
  5
1AC86
330
747D
100
AcDbEntity
  8
細線
 48
50.0
100
AcDbLine
 10
7981.829581418172
 20
5478.5
 30
0.0
 11
7981.829581418172
 21
5479.0
 31
0.0
  0
LINE
  5
1AC87
330
747D
100
AcDbEntity
  8
細線
 48
50.0
100
AcDbLine
 10
7981.829581418172
 20
5575.500036981837
 30
0.0
 11
7981.829581418172
 21
5478.5
 31
0.0
  0
ARC
  5
1AC88
330
747D
100
AcDbEntity
  8
細線
 48
50.0
100
AcDbCircle
 10
7966.829581418173
 20
5488.5
 30
0.0
 40
10.0
100
AcDbArc
 50
180.0
 51
270.0
  0
LINE
  5
1AC89
330
747D
100
AcDbEntity
  8
細線
 48
50.0
100
AcDbLine
 10
8142.829581418174
 20
5489.5
 30
0.0
 11
8142.829581418174
 21
5560.500000000001
 31
0.0
  0
LINE
  5
1AC8A
330
747D
100
AcDbEntity
  8
細線
 48
50.0
100
AcDbLine
 10
8062.829581418172
 20
5489.5
 30
0.0
 11
8062.829581418172
 21
5560.500000000001
 31
0.0
  0
LINE
  5
1AC8B
330
747D
100
AcDbEntity
  8
細線
 48
50.0
100
AcDbLine
 10
8248.829581418172
 20
5565.500036981838
 30
0.0
 11
8248.829581418172
 21
5488.5
 31
0.0
  0
ARC
  5
1AC8C
330
747D
100
AcDbEntity
  8
細線
 48
50.0
100
AcDbCircle
 10
8238.829581418173
 20
5565.500036981838
 30
0.0
 40
10.0
100
AcDbArc
 50
359.9999999999998
 51
90.0
  0
LINE
  5
1AC8D
330
747D
100
AcDbEntity
  8
細線
 48
50.0
100
AcDbLine
 10
8223.829581418172
 20
5478.5
 30
0.0
 11
8223.829581418172
 21
5479.0
 31
0.0
  0
LINE
  5
1AC8E
330
747D
100
AcDbEntity
  8
細線
 48
50.0
100
AcDbLine
 10
8223.829581418172
 20
5575.500036981837
 30
0.0
 11
8223.829581418172
 21
5478.5
 31
0.0
  0
ARC
  5
1AC8F
330
747D
100
AcDbEntity
  8
細線
 48
50.0
100
AcDbCircle
 10
8238.829581418173
 20
5488.5
 30
0.0
 40
10.0
100
AcDbArc
 50
270.0
 51
359.9999999999998
  0
LINE
  5
1AC90
330
747D
100
AcDbEntity
  8
細線
 48
50.0
100
AcDbLine
 10
9059.829577048347
 20
5580.000001569558
 30
0.0
 11
9059.829577048347
 21
5715.0
 31
0.0
  0
ARC
  5
1AC91
330
747D
100
AcDbEntity
  8
部品1
100
AcDbCircle
 10
9082.329581418175
 20
5679.000002624809
 30
0.0
 40
15.5
100
AcDbArc
 50
356.0206219081619
 51
89.99999999999968
  0
LINE
  5
1AC92
330
747D
100
AcDbEntity
  8
部品1
100
AcDbLine
 10
9097.792212350521
 20
5677.92434252513
 30
0.0
 11
9092.5218326665
 21
5602.162551275553
 31
0.0
  0
ARC
  5
1AC93
330
747D
100
AcDbEntity
  8
部品1
100
AcDbCircle
 10
9091.770904751419
 20
5598.572828826124
 30
0.0
 40
2.5
100
AcDbArc
 50
96.92609190592689
 51
176.0206219081971
  0
ARC
  5
1AC94
330
747D
100
AcDbEntity
  8
部品1
100
AcDbCircle
 10
9091.32472575561
 20
5602.245828186497
 30
0.0
 40
1.199999999999999
100
AcDbArc
 50
269.9999999999997
 51
356.0206219081619
  0
ARC
  5
1AC95
330
747D
100
AcDbEntity
  8
部品1
100
AcDbCircle
 10
9073.513641876282
 20
5595.500001569562
 30
0.0
 40
15.5
100
AcDbArc
 50
270.0
 51
356.0206219081603
  0
LINE
  5
1AC96
330
747D
100
AcDbEntity
  8
部品1
100
AcDbLine
 10
9089.276932020394
 20
5598.746322390583
 30
0.0
 11
9088.976272808629
 21
5594.424341469879
 31
0.0
  0
ARC
  5
1AC97
330
747D
100
AcDbEntity
  8
部品1
100
AcDbCircle
 10
9080.229445499389
 20
5696.000002624809
 30
0.0
 40
1.5
100
AcDbArc
 50
202.5000043608516
 51
269.9999999999997
  0
ARC
  5
1AC98
330
747D
100
AcDbEntity
  8
部品1
100
AcDbCircle
 10
9068.397173808627
 20
5711.500000016894
 30
0.0
 40
3.5
100
AcDbArc
 50
22.50000436084501
 51
90.0
  0
LINE
  5
1AC99
330
747D
100
AcDbEntity
  8
部品1
100
AcDbLine
 10
9078.843626244312
 20
5695.425977370788
 30
0.0
 11
9071.630752070474
 21
5712.839392276281
 31
0.0
  0
DIMENSION
  5
1AC9A
330
747D
100
AcDbEntity
  8
寸法
 48
50.0
100
AcDbDimension
  2
*D20
 10
4656.198601638503
 20
9160.736797361609
 30
0.0
 11
4656.198601638503
 21
8923.748608385231
 31
0.0
 12
3171.020575169997
 22
-15846.81261743063
 32
0.0
 70
   160
 71
     5
 42
-1.0
  3
INABA_S50G
100
AcDbAlignedDimension
 13
5432.829581418172
 23
9228.736797361969
 33
0.0
 14
6066.829581418173
 24
9160.736797361609
 34
0.0
 50
90.0
100
AcDbRotatedDimension
  0
DIMENSION
  5
1AC9B
330
747D
100
AcDbEntity
  8
寸法
 48
50.0
100
AcDbDimension
  2
*D21
 10
4656.198601638503
 20
9228.736797361969
 30
0.0
 11
3976.198601638504
 21
10168.73679736197
 31
0.0
 12
580.0
 22
0.0
 32
0.0
 70
    32
 71
     5
 42
-1.0
  3
INABA_S50G
100
AcDbAlignedDimension
 13
5432.829581418172
 23
11108.73679736197
 33
0.0
 14
5432.829581418172
 24
9228.736797361969
 34
0.0
 50
90.0
100
AcDbRotatedDimension
  0
LINE
  5
1AC9C
330
747D
100
AcDbEntity
  8
細線
 48
50.0
100
AcDbLine
 10
8698.829581418165
 20
9287.73679736197
 30
0.0
 11
8698.829581418165
 21
11049.73679736197
 31
0.0
  0
LINE
  5
1AC9D
330
747D
100
AcDbEntity
  8
細線
 48
50.0
100
AcDbLine
 10
8118.829581418165
 20
9287.73679736197
 30
0.0
 11
8118.829581418165
 21
11049.73679736197
 31
0.0
  0
DIMENSION
  5
1AC9E
330
747D
100
AcDbEntity
  8
寸法
 48
50.0
100
AcDbDimension
  2
*D22
 10
9854.165333801145
 20
11038.73679736197
 30
0.0
 11
9174.165333801145
 21
10168.73679736197
 31
0.0
 12
580.0
 22
0.0
 32
0.0
 70
    32
  1
3x580=<>
 71
     5
 42
-1.0
  3
INABA_S50G
100
AcDbAlignedDimension
 13
9042.829581418176
 23
9298.736797361977
 33
0.0
 14
9042.829581418176
 24
11038.73679736197
 34
0.0
 50
90.0
100
AcDbRotatedDimension
1001
ACAD
1000
DSTYLE
1002
{
1002
}
  0
DIMENSION
  5
1AC9F
330
747D
100
AcDbEntity
  8
寸法
 48
50.0
100
AcDbDimension
  2
*D23
 10
10156.96933771975
 20
11058.73679736197
 30
0.0
 11
9476.969337719753
 21
10168.73679736197
 31
0.0
 12
580.0
 22
0.0
 32
0.0
 70
    32
  1
内部寸法 <>
 71
     5
 42
-1.0
  3
INABA_S50G
100
AcDbAlignedDimension
 13
9854.165333801148
 23
9278.736797361977
 33
0.0
 14
9854.165333801145
 24
11058.73679736197
 34
0.0
 50
90.0
100
AcDbRotatedDimension
1001
ACAD
1000
DSTYLE
1002
{
1002
}
  0
LINE
  5
1ACA0
330
747D
100
AcDbEntity
  8
細線
 48
50.0
100
AcDbLine
 10
6958.829581418164
 20
9292.236797361971
 30
0.0
 11
6958.829581418163
 21
11049.73679736197
 31
0.0
  0
LINE
  5
1ACA1
330
747D
100
AcDbEntity
  8
細線
 48
50.0
100
AcDbLine
 10
7538.829581418164
 20
9287.73679736197
 30
0.0
 11
7538.829581418164
 21
11049.73679736197
 31
0.0
  0
LINE
  5
1ACA2
330
747D
100
AcDbEntity
  8
細線
 48
50.0
100
AcDbLine
 10
6378.829581418163
 20
9292.236797361972
 30
0.0
 11
6378.829581418163
 21
11049.73679736197
 31
0.0
  0
LINE
  5
1ACA3
330
747D
100
AcDbEntity
  8
細線
 48
50.0
100
AcDbLine
 10
5798.829581418164
 20
9287.73679736197
 30
0.0
 11
5798.829581418164
 21
11049.73679736197
 31
0.0
  0
LINE
  5
1ACA4
330
747D
100
AcDbEntity
  8
細線
 48
50.0
100
AcDbLine
 10
5481.829581418173
 20
11058.73679736197
 30
0.0
 11
5481.829581418171
 21
9287.73679736197
 31
0.0
  0
LINE
  5
1ACA5
330
747D
100
AcDbEntity
  8
細線
 48
50.0
100
AcDbLine
 10
8983.829581418175
 20
11049.73679736197
 30
0.0
 11
8983.829581418175
 21
9278.736797361977
 31
0.0
  0
LINE
  5
1ACA6
330
747D
100
AcDbEntity
  8
部品1
 48
50.0
100
AcDbLine
 10
9007.829581418176
 20
9263.736797361969
 30
0.0
 11
9007.829581418176
 21
11073.73679736197
 31
0.0
  0
LINE
  5
1ACA7
330
747D
100
AcDbEntity
  8
部品1
 48
50.0
100
AcDbLine
 10
5457.829581418171
 20
11073.73679736197
 30
0.0
 11
5457.829581418171
 21
9263.736797361969
 31
0.0
  0
LINE
  5
1ACA8
330
747D
100
AcDbEntity
  8
部品1
 48
50.0
100
AcDbLine
 10
8992.829581418176
 20
9278.73679736197
 30
0.0
 11
8992.829581418176
 21
11058.73679736197
 31
0.0
  0
LINE
  5
1ACA9
330
747D
100
AcDbEntity
  8
部品1
 48
50.0
100
AcDbLine
 10
5472.829581418173
 20
11058.73679736197
 30
0.0
 11
5472.829581418169
 21
9278.73679736197
 31
0.0
  0
LINE
  5
1ACAA
330
747D
100
AcDbEntity
  8
部品1
 48
50.0
100
AcDbLine
 10
9042.829581418176
 20
9238.736797361973
 30
0.0
 11
9042.829581418173
 21
11098.73679736197
 31
0.0
  0
LINE
  5
1ACAB
330
747D
100
AcDbEntity
  8
部品1
 48
50.0
100
AcDbLine
 10
5422.829581418171
 20
11098.73679736197
 30
0.0
 11
5422.829581418171
 21
9238.736797361969
 31
0.0
  0
LINE
  5
1ACAC
330
747D
100
AcDbEntity
  8
部品1
 62
     2
 48
50.0
100
AcDbLine
 10
7802.829581418173
 20
9210.73679736161
 30
0.0
 11
7250.329581418172
 21
9210.73679736161
 31
0.0
  0
LINE
  5
1ACAD
330
747D
100
AcDbEntity
  8
部品1
 62
     2
 48
50.0
100
AcDbLine
 10
7802.829581418173
 20
9176.736797361609
 30
0.0
 11
6677.829581418173
 21
9176.736797361609
 31
0.0
  0
LINE
  5
1ACAE
330
747D
100
AcDbEntity
  8
細線
 48
50.0
100
AcDbLine
 10
7232.829581418172
 20
9287.73679736197
 30
0.0
 11
8983.829581418175
 21
9287.73679736197
 31
0.0
  0
LINE
  5
1ACAF
330
747D
100
AcDbEntity
  8
部品1
 62
     2
 48
50.0
100
AcDbLine
 10
7812.829581418172
 20
9233.736797361968
 30
0.0
 11
7238.829581418172
 21
9233.736797361968
 31
0.0
  0
LINE
  5
1ACB0
330
747D
100
AcDbEntity
  8
部品1
 62
     2
 48
50.0
100
AcDbLine
 10
7812.829581418172
 20
9228.736797361969
 30
0.0
 11
7792.829581418174
 21
9228.736797361969
 31
0.0
  0
LINE
  5
1ACB1
330
747D
100
AcDbEntity
  8
部品1
 48
50.0
100
AcDbLine
 10
7794.829581418167
 20
9278.73679736197
 30
0.0
 11
8992.829581418176
 21
9278.73679736197
 31
0.0
  0
LINE
  5
1ACB2
330
747D
100
AcDbEntity
  8
部品1
 48
50.0
100
AcDbLine
 10
7794.829581418169
 20
9263.736797361969
 30
0.0
 11
9007.829581418176
 21
9263.736797361973
 31
0.0
  0
LINE
  5
1ACB3
330
747D
100
AcDbEntity
  8
部品1
 62
     2
 48
50.0
100
AcDbLine
 10
7818.829581418173
 20
9160.736797361609
 30
0.0
 11
6066.829581418173
 21
9160.736797361609
 31
0.0
  0
DIMENSION
  5
1ACB4
330
747D
100
AcDbEntity
  8
寸法
 48
50.0
100
AcDbDimension
  2
*D24
 10
9042.829581418176
 20
7967.428503410811
 30
0.0
 11
6652.829581418174
 21
8067.443267190338
 31
0.0
 12
3171.020575169997
 22
-15846.81261743063
 32
0.0
 70
    32
 71
     5
 42
-1.0
  3
INABA_S50G
100
AcDbAlignedDimension
 13
5422.829581418171
 23
9238.736797361969
 33
0.0
 14
9042.829581418176
 24
9238.736797361973
 34
0.0
100
AcDbRotatedDimension
  0
LINE
  5
1ACB5
330
747D
100
AcDbEntity
  8
部品1
100
AcDbLine
 10
7869.055136608539
 20
7709.831477053278
 30
0.0
 11
6596.604026227807
 21
7709.831477053278
 31
0.0
  0
DIMENSION
  5
1ACB6
330
747D
100
AcDbEntity
  8
寸法
 48
50.0
100
AcDbDimension
  2
*D25
 10
7182.829581418173
 20
8532.273498070642
 30
0.0
 11
6057.829581418173
 21
8757.273498070642
 31
0.0
 12
3171.020575169997
 22
-15846.81261743063
 32
0.0
 70
    32
  1
有効開口部間口\P<>
 71
     5
 42
-1.0
  3
INABA_S50G
100
AcDbAlignedDimension
 13
6092.829581418173
 23
9160.736797361609
 33
0.0
 14
7182.829581418173
 24
9160.736797361609
 34
0.0
100
AcDbRotatedDimension
  0
LINE
  5
1ACB7
330
747D
100
AcDbEntity
  8
部品1
 62
     2
 48
50.0
100
AcDbLine
 10
6368.329581418171
 20
9178.73679736161
 30
0.0
 11
6083.829581418172
 21
9178.73679736161
 31
0.0
  0
LINE
  5
1ACB8
330
747D
100
AcDbEntity
  8
部品1
 62
     2
 48
50.0
100
AcDbLine
 10
6656.329581418174
 20
9210.73679736161
 30
0.0
 11
6082.829581418173
 21
9210.73679736161
 31
0.0
  0
LINE
  5
1ACB9
330
747D
100
AcDbEntity
  8
部品1
 62
     2
 48
50.0
100
AcDbLine
 10
6093.829581418173
 20
9187.736797361608
 30
0.0
 11
6667.829581418172
 21
9187.736797361608
 31
0.0
  0
LINE
  5
1ACBA
330
747D
100
AcDbEntity
  8
部品1
 62
     2
 48
50.0
100
AcDbLine
 10
6677.829581418173
 20
9165.736797361608
 30
0.0
 11
6083.829581418172
 21
9165.736797361608
 31
0.0
  0
LINE
  5
1ACBB
330
747D
100
AcDbEntity
  8
部品1
 62
     2
 48
50.0
100
AcDbLine
 10
6092.829581418169
 20
9248.536797361973
 30
0.0
 11
7203.329581418171
 21
9248.536797361973
 31
0.0
  0
LINE
  5
1ACBC
330
747D
100
AcDbEntity
  8
部品1
 62
     2
 48
50.0
100
AcDbLine
 10
6092.829581418169
 20
9262.036797361972
 30
0.0
 11
7203.329581418171
 21
9262.036797361972
 31
0.0
  0
LINE
  5
1ACBD
330
747D
100
AcDbEntity
  8
部品1
 62
     2
 48
50.0
100
AcDbLine
 10
6092.829581418169
 20
9292.236797361971
 30
0.0
 11
7203.329581418171
 21
9292.236797361971
 31
0.0
  0
LINE
  5
1ACBE
330
747D
100
AcDbEntity
  8
部品1
 62
     2
 48
50.0
100
AcDbLine
 10
7222.829581418176
 20
9228.736797361969
 30
0.0
 11
6072.829581418172
 21
9228.736797361969
 31
0.0
  0
LINE
  5
1ACBF
330
747D
100
AcDbEntity
  8
部品1
 62
     2
 48
50.0
100
AcDbLine
 10
6082.829581418173
 20
9160.736797361609
 30
0.0
 11
6082.829581418173
 21
9228.736797361969
 31
0.0
  0
LINE
  5
1ACC0
330
747D
100
AcDbEntity
  8
部品1
 62
     2
 48
50.0
100
AcDbLine
 10
6066.829581418173
 20
9160.736797361609
 30
0.0
 11
6066.829581418173
 21
9228.736797361969
 31
0.0
  0
LINE
  5
1ACC1
330
747D
100
AcDbEntity
  8
細線
 48
50.0
100
AcDbLine
 10
5472.829581418169
 20
9287.73679736197
 30
0.0
 11
6063.32958141817
 21
9287.73679736197
 31
0.0
  0
LINE
  5
1ACC2
330
747D
100
AcDbEntity
  8
部品1
 48
50.0
100
AcDbLine
 10
5457.829581418171
 20
9263.736797361969
 30
0.0
 11
6090.829581418168
 21
9263.736797361969
 31
0.0
  0
LINE
  5
1ACC3
330
747D
100
AcDbEntity
  8
部品1
 48
50.0
100
AcDbLine
 10
5472.829581418169
 20
9278.73679736197
 30
0.0
 11
6090.829581418168
 21
9278.73679736197
 31
0.0
  0
LINE
  5
1ACC4
330
747D
100
AcDbEntity
  8
部品1
 48
50.0
100
AcDbLine
 10
5432.829581418172
 20
9228.736797361969
 30
0.0
 11
6072.829581418172
 21
9228.736797361955
 31
0.0
  0
LINE
  5
1ACC5
330
747D
100
AcDbEntity
  8
部品1
 48
50.0
100
AcDbLine
 10
5492.82958141817
 20
9263.736797361977
 30
0.0
 11
5492.829581418173
 21
9228.736797361973
 31
0.0
  0
LINE
  5
1ACC6
330
747D
100
AcDbEntity
  8
部品1
 48
50.0
100
AcDbLine
 10
5510.829581418169
 20
9263.736797361977
 30
0.0
 11
5510.829581418169
 21
9278.736797361977
 31
0.0
  0
LINE
  5
1ACC7
330
747D
100
AcDbEntity
  8
部品1
 48
50.0
100
AcDbLine
 10
5474.82958141817
 20
9263.736797361977
 30
0.0
 11
5474.82958141817
 21
9278.736797361977
 31
0.0
  0
LINE
  5
1ACC8
330
747D
100
AcDbEntity
  8
部品1
 48
50.0
100
AcDbLine
 10
5457.829581418175
 20
9316.736797361969
 30
0.0
 11
5472.829581418174
 21
9316.736797361969
 31
0.0
  0
LINE
  5
1ACC9
330
747D
100
AcDbEntity
  8
部品1
 48
50.0
100
AcDbLine
 10
5457.829581418175
 20
9280.736797361969
 30
0.0
 11
5472.829581418174
 21
9280.736797361969
 31
0.0
  0
LINE
  5
1ACCA
330
747D
100
AcDbEntity
  8
部品1
 48
50.0
100
AcDbLine
 10
5422.829581418175
 20
9298.736797361977
 30
0.0
 11
5457.829581418175
 21
9298.736797361973
 31
0.0
  0
ARC
  5
1ACCB
330
747D
100
AcDbEntity
  8
部品1
 48
50.0
100
AcDbCircle
 10
5432.829581418172
 20
9238.736797361969
 30
0.0
 40
10.0
100
AcDbArc
 50
180.0
 51
270.0
  0
LINE
  5
1ACCC
330
747D
100
AcDbEntity
  8
部品1
 48
50.0
100
AcDbLine
 10
6090.829581418169
 20
9263.736797361977
 30
0.0
 11
6090.829581418169
 21
9278.736797361977
 31
0.0
  0
LINE
  5
1ACCD
330
747D
100
AcDbEntity
  8
部品1
 48
50.0
100
AcDbLine
 10
6054.829581418169
 20
9263.736797361977
 30
0.0
 11
6054.829581418169
 21
9278.736797361977
 31
0.0
  0
LINE
  5
1ACCE
330
747D
100
AcDbEntity
  8
部品1
 48
50.0
100
AcDbLine
 10
6072.829581418169
 20
9263.736797361977
 30
0.0
 11
6072.829581418172
 21
9228.736797361973
 31
0.0
  0
LINE
  5
1ACCF
330
747D
100
AcDbEntity
  8
部品1
 62
     2
 48
50.0
100
AcDbLine
 10
6105.329581418173
 20
9187.736797361608
 30
0.0
 11
6105.329581418173
 21
9179.736797361609
 31
0.0
  0
LINE
  5
1ACD0
330
747D
100
AcDbEntity
  8
部品1
 62
     2
 48
50.0
100
AcDbLine
 10
6083.829581418172
 20
9176.736797361609
 30
0.0
 11
6082.829581418173
 21
9176.736797361609
 31
0.0
  0
LINE
  5
1ACD1
330
747D
100
AcDbEntity
  8
部品1
 62
     2
 48
50.0
100
AcDbLine
 10
6093.829581418173
 20
9194.73679736161
 30
0.0
 11
6093.829581418173
 21
9187.736797361608
 31
0.0
  0
LINE
  5
1ACD2
330
747D
100
AcDbEntity
  8
部品1
 62
     2
 48
50.0
100
AcDbLine
 10
6083.829581418172
 20
9194.73679736161
 30
0.0
 11
6093.829581418173
 21
9194.73679736161
 31
0.0
  0
LINE
  5
1ACD3
330
747D
100
AcDbEntity
  8
部品1
 62
     2
 48
50.0
100
AcDbLine
 10
6083.829581418172
 20
9165.736797361608
 30
0.0
 11
6083.829581418172
 21
9194.73679736161
 31
0.0
  0
LINE
  5
1ACD4
330
747D
100
AcDbEntity
  8
部品1
 62
     2
 48
50.0
100
AcDbLine
 10
6092.829581418169
 20
9292.236797361971
 30
0.0
 11
6092.829581418169
 21
9228.736797361969
 31
0.0
  0
LINE
  5
1ACD5
330
747D
100
AcDbEntity
  8
部品1
 62
     2
 48
50.0
100
AcDbLine
 10
6063.32958141817
 20
9287.73679736197
 30
0.0
 11
6063.32958141817
 21
9278.73679736197
 31
0.0
  0
LINE
  5
1ACD6
330
747D
100
AcDbEntity
  8
部品1
 62
     2
 48
50.0
100
AcDbLine
 10
6092.829581418169
 20
9287.73679736197
 30
0.0
 11
6063.32958141817
 21
9287.73679736197
 31
0.0
  0
LINE
  5
1ACD7
330
747D
100
AcDbEntity
  8
部品1
 62
     2
 48
50.0
100
AcDbLine
 10
7250.329581418172
 20
9212.736797361609
 30
0.0
 11
6965.829581418171
 21
9212.736797361609
 31
0.0
  0
LINE
  5
1ACD8
330
747D
100
AcDbEntity
  8
部品1
 62
     2
 48
50.0
100
AcDbLine
 10
6980.829581418172
 20
9200.73679736161
 30
0.0
 11
6965.829581418171
 21
9200.73679736161
 31
0.0
  0
LINE
  5
1ACD9
330
747D
100
AcDbEntity
  8
部品1
 62
     2
 48
50.0
100
AcDbLine
 10
7250.329581418172
 20
9212.736797361609
 30
0.0
 11
6965.829581418171
 21
9212.736797361609
 31
0.0
  0
LINE
  5
1ACDA
330
747D
100
AcDbEntity
  8
部品1
 62
     2
 48
50.0
100
AcDbLine
 10
7250.329581418172
 20
9199.736797361609
 30
0.0
 11
6666.329581418174
 21
9199.736797361609
 31
0.0
  0
LINE
  5
1ACDB
330
747D
100
AcDbEntity
  8
部品1
 62
     2
 48
50.0
100
AcDbLine
 10
6656.329581418171
 20
9221.736797361609
 30
0.0
 11
7240.329581418173
 21
9221.736797361609
 31
0.0
  0
LINE
  5
1ACDC
330
747D
100
AcDbEntity
  8
部品1
 62
     2
 48
50.0
100
AcDbLine
 10
6677.829581418173
 20
9178.73679736161
 30
0.0
 11
6393.329581418171
 21
9178.73679736161
 31
0.0
  0
LINE
  5
1ACDD
330
747D
100
AcDbEntity
  8
部品1
 62
     2
 48
50.0
100
AcDbLine
 10
6362.579581418173
 20
9180.736797361609
 30
0.0
 11
6399.079581418173
 21
9180.736797361609
 31
0.0
  0
LINE
  5
1ACDE
330
747D
100
AcDbEntity
  8
部品1
 62
     2
 48
50.0
100
AcDbLine
 10
6353.329581418171
 20
9166.736797361609
 30
0.0
 11
6368.329581418171
 21
9166.736797361609
 31
0.0
  0
LINE
  5
1ACDF
330
747D
100
AcDbEntity
  8
部品1
 62
     2
 48
50.0
100
AcDbLine
 10
6362.579581418173
 20
9180.736797361609
 30
0.0
 11
6359.079581418173
 21
9177.23679736161
 31
0.0
  0
LINE
  5
1ACE0
330
747D
100
AcDbEntity
  8
部品1
 62
     2
 48
50.0
100
AcDbLine
 10
6399.079581418173
 20
9180.736797361609
 30
0.0
 11
6402.579581418173
 21
9177.23679736161
 31
0.0
  0
LINE
  5
1ACE1
330
747D
100
AcDbEntity
  8
部品1
 62
     2
 48
50.0
100
AcDbLine
 10
6393.329581418171
 20
9180.736797361609
 30
0.0
 11
6388.329581418171
 21
9180.736797361609
 31
0.0
  0
LINE
  5
1ACE2
330
747D
100
AcDbEntity
  8
部品1
 62
     2
 48
50.0
100
AcDbLine
 10
6388.329581418171
 20
9180.736797361609
 30
0.0
 11
6388.329581418171
 21
9177.736797361609
 31
0.0
  0
LINE
  5
1ACE3
330
747D
100
AcDbEntity
  8
部品1
 62
     2
 48
50.0
100
AcDbLine
 10
6408.329581418171
 20
9166.736797361609
 30
0.0
 11
6393.329581418171
 21
9166.736797361609
 31
0.0
  0
LINE
  5
1ACE4
330
747D
100
AcDbEntity
  8
部品1
 62
     2
 48
50.0
100
AcDbLine
 10
6393.329581418171
 20
9166.736797361609
 30
0.0
 11
6393.329581418171
 21
9180.736797361609
 31
0.0
  0
LINE
  5
1ACE5
330
747D
100
AcDbEntity
  8
部品1
 62
     2
 48
50.0
100
AcDbLine
 10
6373.329581418171
 20
9177.736797361609
 30
0.0
 11
6388.329581418171
 21
9177.736797361609
 31
0.0
  0
LINE
  5
1ACE6
330
747D
100
AcDbEntity
  8
部品1
 62
     2
 48
50.0
100
AcDbLine
 10
6373.329581418171
 20
9180.736797361609
 30
0.0
 11
6373.329581418171
 21
9177.736797361609
 31
0.0
  0
LINE
  5
1ACE7
330
747D
100
AcDbEntity
  8
部品1
 62
     2
 48
50.0
100
AcDbLine
 10
6368.329581418171
 20
9180.736797361609
 30
0.0
 11
6373.329581418171
 21
9180.736797361609
 31
0.0
  0
LINE
  5
1ACE8
330
747D
100
AcDbEntity
  8
部品1
 62
     2
 48
50.0
100
AcDbLine
 10
6368.329581418171
 20
9166.736797361609
 30
0.0
 11
6368.329581418171
 21
9180.736797361609
 31
0.0
  0
LINE
  5
1ACE9
330
747D
100
AcDbEntity
  8
部品1
 62
     2
 48
50.0
100
AcDbLine
 10
6940.829581418171
 20
9212.736797361609
 30
0.0
 11
6656.329581418173
 21
9212.736797361609
 31
0.0
  0
LINE
  5
1ACEA
330
747D
100
AcDbEntity
  8
部品1
 62
     2
 48
50.0
100
AcDbLine
 10
6940.829581418171
 20
9212.736797361609
 30
0.0
 11
6656.329581418173
 21
9212.736797361609
 31
0.0
  0
LINE
  5
1ACEB
330
747D
100
AcDbEntity
  8
部品1
 62
     2
 48
50.0
100
AcDbLine
 10
6677.829581418172
 20
9221.736797361609
 30
0.0
 11
6677.829581418172
 21
9213.73679736161
 31
0.0
  0
LINE
  5
1ACEC
330
747D
100
AcDbEntity
  8
部品1
 62
     2
 48
50.0
100
AcDbLine
 10
6656.329581418173
 20
9187.736797361608
 30
0.0
 11
6656.329581418173
 21
9179.736797361609
 31
0.0
  0
LINE
  5
1ACED
330
747D
100
AcDbEntity
  8
部品1
 62
     2
 48
50.0
100
AcDbLine
 10
6666.329581418174
 20
9189.736797361609
 30
0.0
 11
6666.329581418171
 21
9199.736797361609
 31
0.0
  0
LINE
  5
1ACEE
330
747D
100
AcDbEntity
  8
部品1
 62
     2
 48
50.0
100
AcDbLine
 10
6656.329581418173
 20
9189.736797361609
 30
0.0
 11
6666.329581418174
 21
9189.736797361609
 31
0.0
  0
LINE
  5
1ACEF
330
747D
100
AcDbEntity
  8
部品1
 62
     2
 48
50.0
100
AcDbLine
 10
6656.329581418173
 20
9189.736797361609
 30
0.0
 11
6656.329581418173
 21
9221.736797361613
 31
0.0
  0
LINE
  5
1ACF0
330
747D
100
AcDbEntity
  8
部品1
 62
     2
 48
50.0
100
AcDbLine
 10
6677.829581418173
 20
9194.73679736161
 30
0.0
 11
6677.829581418173
 21
9165.736797361608
 31
0.0
  0
LINE
  5
1ACF1
330
747D
100
AcDbEntity
  8
部品1
 62
     2
 48
50.0
100
AcDbLine
 10
6667.829581418172
 20
9194.73679736161
 30
0.0
 11
6677.829581418173
 21
9194.73679736161
 31
0.0
  0
LINE
  5
1ACF2
330
747D
100
AcDbEntity
  8
部品1
 62
     2
 48
50.0
100
AcDbLine
 10
6667.829581418172
 20
9187.736797361608
 30
0.0
 11
6667.829581418172
 21
9194.73679736161
 31
0.0
  0
LINE
  5
1ACF3
330
747D
100
AcDbEntity
  8
部品1
 62
     2
 48
50.0
100
AcDbLine
 10
6965.829581418171
 20
9200.73679736161
 30
0.0
 11
6965.829581418171
 21
9214.736797361609
 31
0.0
  0
LINE
  5
1ACF4
330
747D
100
AcDbEntity
  8
部品1
 62
     2
 48
50.0
100
AcDbLine
 10
6971.579581418173
 20
9214.736797361609
 30
0.0
 11
6975.079581418173
 21
9211.236797361609
 31
0.0
  0
LINE
  5
1ACF5
330
747D
100
AcDbEntity
  8
部品1
 62
     2
 48
50.0
100
AcDbLine
 10
6940.829581418171
 20
9200.73679736161
 30
0.0
 11
6940.829581418171
 21
9214.736797361609
 31
0.0
  0
LINE
  5
1ACF6
330
747D
100
AcDbEntity
  8
部品1
 62
     2
 48
50.0
100
AcDbLine
 10
6925.82958141817
 20
9200.73679736161
 30
0.0
 11
6940.829581418171
 21
9200.73679736161
 31
0.0
  0
LINE
  5
1ACF7
330
747D
100
AcDbEntity
  8
部品1
 62
     2
 48
50.0
100
AcDbLine
 10
6960.829581418171
 20
9214.736797361609
 30
0.0
 11
6960.829581418171
 21
9211.736797361609
 31
0.0
  0
LINE
  5
1ACF8
330
747D
100
AcDbEntity
  8
部品1
 62
     2
 48
50.0
100
AcDbLine
 10
6945.829581418171
 20
9211.736797361609
 30
0.0
 11
6960.829581418171
 21
9211.736797361609
 31
0.0
  0
LINE
  5
1ACF9
330
747D
100
AcDbEntity
  8
部品1
 62
     2
 48
50.0
100
AcDbLine
 10
6945.829581418171
 20
9214.736797361609
 30
0.0
 11
6945.829581418171
 21
9211.736797361609
 31
0.0
  0
LINE
  5
1ACFA
330
747D
100
AcDbEntity
  8
部品1
 62
     2
 48
50.0
100
AcDbLine
 10
6940.829581418171
 20
9214.736797361609
 30
0.0
 11
6945.829581418171
 21
9214.736797361609
 31
0.0
  0
LINE
  5
1ACFB
330
747D
100
AcDbEntity
  8
部品1
 62
     2
 48
50.0
100
AcDbLine
 10
6935.079581418174
 20
9214.736797361609
 30
0.0
 11
6931.579581418173
 21
9211.236797361609
 31
0.0
  0
LINE
  5
1ACFC
330
747D
100
AcDbEntity
  8
部品1
 62
     2
 48
50.0
100
AcDbLine
 10
6965.829581418171
 20
9214.736797361609
 30
0.0
 11
6960.829581418171
 21
9214.736797361609
 31
0.0
  0
LINE
  5
1ACFD
330
747D
100
AcDbEntity
  8
部品1
 62
     2
 48
50.0
100
AcDbLine
 10
6935.079581418174
 20
9214.736797361609
 30
0.0
 11
6971.579581418173
 21
9214.736797361609
 31
0.0
  0
LINE
  5
1ACFE
330
747D
100
AcDbEntity
  8
部品1
 62
     2
 48
50.0
100
AcDbLine
 10
7214.829581418169
 20
9263.736797361795
 30
0.0
 11
7794.829581418169
 21
9263.736797361969
 31
0.0
  0
LINE
  5
1ACFF
330
747D
100
AcDbEntity
  8
部品1
 62
     2
 48
50.0
100
AcDbLine
 10
7214.829581418169
 20
9278.736797361794
 30
0.0
 11
7794.829581418169
 21
9278.736797361794
 31
0.0
  0
LINE
  5
1AD00
330
747D
100
AcDbEntity
  8
部品1
 62
     2
 48
50.0
100
AcDbLine
 10
7252.829581418175
 20
9263.736797361795
 30
0.0
 11
7252.829581418175
 21
9259.236797361795
 31
0.0
  0
LINE
  5
1AD01
330
747D
100
AcDbEntity
  8
部品1
 62
     2
 48
50.0
100
AcDbLine
 10
7228.829581418174
 20
9221.736797361609
 30
0.0
 11
7228.829581418174
 21
9213.73679736161
 31
0.0
  0
LINE
  5
1AD02
330
747D
100
AcDbEntity
  8
部品1
 62
     2
 48
50.0
100
AcDbLine
 10
7240.329581418173
 20
9221.736797361609
 30
0.0
 11
7240.329581418173
 21
9228.736797361611
 31
0.0
  0
LINE
  5
1AD03
330
747D
100
AcDbEntity
  8
部品1
 62
     2
 48
50.0
100
AcDbLine
 10
7240.329581418173
 20
9228.736797361611
 30
0.0
 11
7250.329581418172
 21
9228.736797361611
 31
0.0
  0
LINE
  5
1AD04
330
747D
100
AcDbEntity
  8
部品1
 62
     2
 48
50.0
100
AcDbLine
 10
7250.329581418172
 20
9228.736797361611
 30
0.0
 11
7250.329581418172
 21
9199.736797361609
 31
0.0
  0
LINE
  5
1AD05
330
747D
100
AcDbEntity
  8
部品1
 62
     2
 48
50.0
100
AcDbLine
 10
7238.829581418173
 20
9233.736797361968
 30
0.0
 11
7238.829581418174
 21
9223.736797361794
 31
0.0
  0
LINE
  5
1AD06
330
747D
100
AcDbEntity
  8
部品1
 62
     2
 48
50.0
100
AcDbLine
 10
7222.829581418174
 20
9223.736797361794
 30
0.0
 11
7238.829581418174
 21
9223.736797361846
 31
0.0
  0
LINE
  5
1AD07
330
747D
100
AcDbEntity
  8
部品1
 62
     2
 48
50.0
100
AcDbLine
 10
7222.829581418174
 20
9263.736797361799
 30
0.0
 11
7222.829581418174
 21
9223.736797361794
 31
0.0
  0
LINE
  5
1AD08
330
747D
100
AcDbEntity
  8
部品1
 62
     2
 48
50.0
100
AcDbLine
 10
7203.329581418171
 20
9292.236797361971
 30
0.0
 11
7203.329581418171
 21
9228.736797361969
 31
0.0
  0
LINE
  5
1AD09
330
747D
100
AcDbEntity
  8
部品1
 62
     2
 48
50.0
100
AcDbLine
 10
7232.829581418172
 20
9287.73679736197
 30
0.0
 11
7203.329581418171
 21
9287.73679736197
 31
0.0
  0
LINE
  5
1AD0A
330
747D
100
AcDbEntity
  8
部品1
 62
     2
 48
50.0
100
AcDbLine
 10
7232.82958141817
 20
9278.736797361794
 30
0.0
 11
7232.82958141817
 21
9287.73679736197
 31
0.0
  0
LINE
  5
1AD0B
330
747D
100
AcDbEntity
  8
部品1
 62
     2
 48
50.0
100
AcDbLine
 10
7250.82958141817
 20
9263.736797361795
 30
0.0
 11
7250.82958141817
 21
9278.736797361794
 31
0.0
  0
LINE
  5
1AD0C
330
747D
100
AcDbEntity
  8
部品1
 62
     2
 48
50.0
100
AcDbLine
 10
7214.829581418169
 20
9263.736797361795
 30
0.0
 11
7214.829581418169
 21
9278.736797361794
 31
0.0
  0
LINE
  5
1AD0D
330
747D
100
AcDbEntity
  8
部品1
 62
     2
 48
50.0
100
AcDbLine
 10
7535.329581418173
 20
9234.73679736197
 30
0.0
 11
7530.329581418174
 21
9262.73679736197
 31
0.0
  0
LINE
  5
1AD0E
330
747D
100
AcDbEntity
  8
部品1
 62
     2
 48
50.0
100
AcDbLine
 10
7550.329581418172
 20
9234.73679736197
 30
0.0
 11
7535.329581418173
 21
9234.73679736197
 31
0.0
  0
LINE
  5
1AD0F
330
747D
100
AcDbEntity
  8
部品1
 62
     2
 48
50.0
100
AcDbLine
 10
7505.329581418173
 20
9262.73679736197
 30
0.0
 11
7530.329581418174
 21
9262.73679736197
 31
0.0
  0
LINE
  5
1AD10
330
747D
100
AcDbEntity
  8
部品1
 62
     2
 48
50.0
100
AcDbLine
 10
7500.329581418172
 20
9234.73679736197
 30
0.0
 11
7505.329581418173
 21
9262.73679736197
 31
0.0
  0
LINE
  5
1AD11
330
747D
100
AcDbEntity
  8
部品1
 62
     2
 48
50.0
100
AcDbLine
 10
7485.329581418174
 20
9234.73679736197
 30
0.0
 11
7500.329581418172
 21
9234.73679736197
 31
0.0
  0
LINE
  5
1AD12
330
747D
100
AcDbEntity
  8
部品1
 48
50.0
100
AcDbLine
 10
7794.829581418169
 20
9263.736797361795
 30
0.0
 11
7794.829581418169
 21
9278.736797361794
 31
0.0
  0
LINE
  5
1AD13
330
747D
100
AcDbEntity
  8
部品1
 62
     2
 48
50.0
100
AcDbLine
 10
7785.329581418169
 20
9263.736797361795
 30
0.0
 11
7785.329581418169
 21
9259.236797361795
 31
0.0
  0
LINE
  5
1AD14
330
747D
100
AcDbEntity
  8
部品1
 62
     2
 48
50.0
100
AcDbLine
 10
7792.829581418174
 20
9233.736797361791
 30
0.0
 11
7792.829581418174
 21
9228.736797361969
 31
0.0
  0
LINE
  5
1AD15
330
747D
100
AcDbEntity
  8
部品1
 48
50.0
100
AcDbLine
 10
5422.829581418175
 20
9878.736797361977
 30
0.0
 11
5457.829581418175
 21
9878.736797361973
 31
0.0
  0
LINE
  5
1AD16
330
747D
100
AcDbEntity
  8
部品1
 48
50.0
100
AcDbLine
 10
5457.829581418175
 20
9860.736797361971
 30
0.0
 11
5472.829581418174
 21
9860.736797361971
 31
0.0
  0
LINE
  5
1AD17
330
747D
100
AcDbEntity
  8
部品1
 48
50.0
100
AcDbLine
 10
5457.829581418175
 20
9896.73679736197
 30
0.0
 11
5472.829581418174
 21
9896.73679736197
 31
0.0
  0
LINE
  5
1AD18
330
747D
100
AcDbEntity
  8
部品1
 48
50.0
100
AcDbLine
 10
5422.829581418175
 20
10458.73679736197
 30
0.0
 11
5457.829581418175
 21
10458.73679736197
 31
0.0
  0
LINE
  5
1AD19
330
747D
100
AcDbEntity
  8
部品1
 48
50.0
100
AcDbLine
 10
5457.829581418175
 20
10440.73679736196
 30
0.0
 11
5472.829581418174
 21
10440.73679736196
 31
0.0
  0
LINE
  5
1AD1A
330
747D
100
AcDbEntity
  8
部品1
 48
50.0
100
AcDbLine
 10
5457.829581418175
 20
10476.73679736196
 30
0.0
 11
5472.829581418174
 21
10476.73679736196
 31
0.0
  0
DIMENSION
  5
1AD21
330
747D
100
AcDbEntity
  8
寸法
 48
50.0
100
AcDbDimension
  2
*D26
 10
9854.16533380115
 20
9298.736797361977
 30
0.0
 11
9854.16533380115
 21
8996.177742243862
 31
0.0
 12
3171.020575169997
 22
-15846.81261743063
 32
0.0
 70
   160
 71
     5
 42
-1.0
  3
INABA_S50G
100
AcDbAlignedDimension
 13
9032.829581418177
 23
9228.736797361969
 33
0.0
 14
9042.829581418176
 24
9298.736797361977
 34
0.0
 50
90.0
100
AcDbRotatedDimension
  0
DIMENSION
  5
1AD22
330
747D
100
AcDbEntity
  8
寸法
 48
50.0
100
AcDbDimension
  2
*D27
 10
10156.96933771975
 20
9278.736797361977
 30
0.0
 11
10156.96933771975
 21
8991.689553267482
 31
0.0
 12
3171.020575169997
 22
-15846.81261743063
 32
0.0
 70
   160
 71
     5
 42
-1.0
  3
INABA_S50G
100
AcDbAlignedDimension
 13
9032.829581418177
 23
9228.736797361969
 33
0.0
 14
9854.165333801148
 24
9278.736797361977
 34
0.0
 50
90.0
100
AcDbRotatedDimension
  0
LINE
  5
1AD23
330
747D
100
AcDbEntity
  8
部品1
 48
50.0
100
AcDbLine
 10
7812.82958141817
 20
9228.736797361969
 30
0.0
 11
9032.829581418177
 21
9228.736797361973
 31
0.0
  0
LINE
  5
1AD24
330
747D
100
AcDbEntity
  8
部品1
 62
     2
 48
50.0
100
AcDbLine
 10
7802.829581418173
 20
9228.736797361792
 30
0.0
 11
7802.829581418173
 21
9160.73679736179
 31
0.0
  0
LINE
  5
1AD25
330
747D
100
AcDbEntity
  8
部品1
 62
     2
 48
50.0
100
AcDbLine
 10
7818.829581418173
 20
9228.736797361792
 30
0.0
 11
7818.829581418173
 21
9160.73679736179
 31
0.0
  0
LINE
  5
1AD26
330
747D
100
AcDbEntity
  8
部品1
 48
50.0
100
AcDbLine
 10
7812.82958141817
 20
9263.736797361795
 30
0.0
 11
7812.829581418172
 21
9228.736797361792
 31
0.0
  0
LINE
  5
1AD27
330
747D
100
AcDbEntity
  8
部品1
 48
50.0
100
AcDbLine
 10
7830.829581418169
 20
9263.736797361795
 30
0.0
 11
7830.829581418169
 21
9278.736797361794
 31
0.0
  0
LINE
  5
1AD28
330
747D
100
AcDbEntity
  8
部品1
 48
50.0
100
AcDbLine
 10
8374.829581418174
 20
9263.736797361973
 30
0.0
 11
8374.829581418174
 21
9278.736797361974
 31
0.0
  0
LINE
  5
1AD29
330
747D
100
AcDbEntity
  8
部品1
 48
50.0
100
AcDbLine
 10
8392.829581418174
 20
9263.736797361973
 30
0.0
 11
8392.829581418176
 21
9228.736797361969
 31
0.0
  0
LINE
  5
1AD2A
330
747D
100
AcDbEntity
  8
部品1
 48
50.0
100
AcDbLine
 10
8410.829581418173
 20
9263.736797361973
 30
0.0
 11
8410.829581418173
 21
9278.736797361974
 31
0.0
  0
LINE
  5
1AD2B
330
747D
100
AcDbEntity
  8
部品1
 48
50.0
100
AcDbLine
 10
9042.829581418173
 20
9298.736797361977
 30
0.0
 11
9007.829581418173
 21
9298.736797361973
 31
0.0
  0
LINE
  5
1AD2C
330
747D
100
AcDbEntity
  8
部品1
 48
50.0
100
AcDbLine
 10
8990.829581418173
 20
9263.736797361973
 30
0.0
 11
8990.829581418173
 21
9278.736797361974
 31
0.0
  0
LINE
  5
1AD2D
330
747D
100
AcDbEntity
  8
部品1
 48
50.0
100
AcDbLine
 10
8954.829581418172
 20
9263.736797361973
 30
0.0
 11
8954.829581418172
 21
9278.736797361974
 31
0.0
  0
LINE
  5
1AD2E
330
747D
100
AcDbEntity
  8
部品1
 48
50.0
100
AcDbLine
 10
8972.829581418173
 20
9263.736797361973
 30
0.0
 11
8972.829581418176
 21
9228.736797361969
 31
0.0
  0
LINE
  5
1AD2F
330
747D
100
AcDbEntity
  8
部品1
 48
50.0
100
AcDbLine
 10
9007.829581418173
 20
9280.736797361969
 30
0.0
 11
8992.829581418174
 21
9280.736797361969
 31
0.0
  0
LINE
  5
1AD30
330
747D
100
AcDbEntity
  8
部品1
 48
50.0
100
AcDbLine
 10
9007.829581418173
 20
9316.736797361969
 30
0.0
 11
8992.829581418174
 21
9316.736797361969
 31
0.0
  0
ARC
  5
1AD31
330
747D
100
AcDbEntity
  8
部品1
 48
50.0
100
AcDbCircle
 10
9032.829581418177
 20
9238.736797361973
 30
0.0
 40
10.0
100
AcDbArc
 50
270.0
 51
0.0
  0
LINE
  5
1AD32
330
747D
100
AcDbEntity
  8
部品1
 48
50.0
100
AcDbLine
 10
9042.829581418173
 20
9878.736797361977
 30
0.0
 11
9007.829581418173
 21
9878.736797361973
 31
0.0
  0
LINE
  5
1AD33
330
747D
100
AcDbEntity
  8
部品1
 48
50.0
100
AcDbLine
 10
9007.829581418173
 20
9896.73679736197
 30
0.0
 11
8992.829581418174
 21
9896.73679736197
 31
0.0
  0
LINE
  5
1AD34
330
747D
100
AcDbEntity
  8
部品1
 48
50.0
100
AcDbLine
 10
9007.829581418173
 20
9860.736797361971
 30
0.0
 11
8992.829581418174
 21
9860.736797361971
 31
0.0
  0
LINE
  5
1AD35
330
747D
100
AcDbEntity
  8
部品1
 48
50.0
100
AcDbLine
 10
9042.829581418173
 20
10458.73679736197
 30
0.0
 11
9007.829581418173
 21
10458.73679736197
 31
0.0
  0
LINE
  5
1AD36
330
747D
100
AcDbEntity
  8
部品1
 48
50.0
100
AcDbLine
 10
9007.829581418173
 20
10476.73679736196
 30
0.0
 11
8992.829581418174
 21
10476.73679736196
 31
0.0
  0
LINE
  5
1AD37
330
747D
100
AcDbEntity
  8
部品1
 48
50.0
100
AcDbLine
 10
9007.829581418173
 20
10440.73679736196
 30
0.0
 11
8992.829581418174
 21
10440.73679736196
 31
0.0
  0
DIMENSION
  5
1AD3E
330
747D
100
AcDbEntity
  8
寸法
 48
50.0
100
AcDbDimension
  2
*D28
 10
8972.829581418174
 20
11518.76878223262
 30
0.0
 11
7232.829581418174
 21
11618.76878223262
 31
0.0
 70
    32
  1
6x580=<>
 71
     5
 42
-1.0
  3
INABA_S50G
100
AcDbAlignedDimension
 13
5492.829581418173
 23
11108.73679736197
 33
0.0
 14
8972.829581418174
 24
11108.73679736197
 34
0.0
100
AcDbRotatedDimension
1001
ACAD
1000
DSTYLE
1002
{
1070
   287
1070
     4
1070
    75
1070
     1
1070
   279
1070
     1
1002
}
  0
DIMENSION
  5
1AD3F
330
747D
100
AcDbEntity
  8
寸法
 48
50.0
100
AcDbDimension
  2
*D29
 10
8992.829581418181
 20
11817.51516613338
 30
0.0
 11
7232.829581418174
 21
11917.52992991291
 31
0.0
 70
    32
  1
内部寸法 <>
 71
     5
 42
-1.0
  3
INABA_S50G
100
AcDbAlignedDimension
 13
5472.829581418169
 23
11518.76878223262
 33
0.0
 14
8992.829581418181
 24
11518.76878223262
 34
0.0
100
AcDbRotatedDimension
1001
ACAD
1000
DSTYLE
1002
{
1070
   287
1070
     4
1070
    75
1070
     1
1070
   279
1070
     1
1002
}
  0
LINE
  5
1AD40
330
747D
100
AcDbEntity
  8
細線
 48
50.0
100
AcDbLine
 10
8992.829581418176
 20
11049.73679736197
 30
0.0
 11
5481.829581418173
 21
11049.73679736197
 31
0.0
  0
LINE
  5
1AD41
330
747D
100
AcDbEntity
  8
部品1
 48
50.0
100
AcDbLine
 10
9007.829581418176
 20
11073.73679736197
 30
0.0
 11
5457.829581418171
 21
11073.73679736197
 31
0.0
  0
LINE
  5
1AD42
330
747D
100
AcDbEntity
  8
部品1
 48
50.0
100
AcDbLine
 10
8992.829581418176
 20
11058.73679736197
 30
0.0
 11
5472.829581418173
 21
11058.73679736197
 31
0.0
  0
LINE
  5
1AD43
330
747D
100
AcDbEntity
  8
部品1
 48
50.0
100
AcDbLine
 10
9032.829581418173
 20
11108.73679736197
 30
0.0
 11
5432.829581418172
 21
11108.73679736197
 31
0.0
  0
DIMENSION
  5
1AD44
330
747D
100
AcDbEntity
  8
寸法
 48
50.0
100
AcDbDimension
  2
*D30
 10
5492.829581418173
 20
11518.76878223262
 30
0.0
 11
5180.270526300061
 21
11518.76878223262
 31
0.0
 12
3171.020575169997
 22
-17006.81261743063
 32
0.0
 70
   160
 71
     5
 42
-1.0
  3
INABA_S50G
100
AcDbAlignedDimension
 13
5422.829581418171
 23
11098.73679736197
 33
0.0
 14
5492.829581418173
 24
11108.73679736197
 34
0.0
100
AcDbRotatedDimension
  0
DIMENSION
  5
1AD45
330
747D
100
AcDbEntity
  8
寸法
 48
50.0
100
AcDbDimension
  2
*D31
 10
5472.829581418169
 20
11817.51516613338
 30
0.0
 11
5065.270526300061
 21
11817.51516613338
 31
0.0
 12
3171.020575169997
 22
-17006.81261743063
 32
0.0
 70
   160
 71
     5
 42
-1.0
  3
INABA_S50G
100
AcDbAlignedDimension
 13
5422.829581418171
 23
11098.73679736197
 33
0.0
 14
5472.829581418169
 24
11518.76878223262
 34
0.0
100
AcDbRotatedDimension
  0
LINE
  5
1AD46
330
747D
100
AcDbEntity
  8
部品1
 48
50.0
100
AcDbLine
 10
5422.829581418171
 20
11038.73679736197
 30
0.0
 11
5457.829581418171
 21
11038.73679736197
 31
0.0
  0
LINE
  5
1AD47
330
747D
100
AcDbEntity
  8
部品1
 48
50.0
100
AcDbLine
 10
5457.829581418171
 20
11020.73679736196
 30
0.0
 11
5472.829581418171
 21
11020.73679736196
 31
0.0
  0
LINE
  5
1AD48
330
747D
100
AcDbEntity
  8
部品1
 48
50.0
100
AcDbLine
 10
5457.829581418171
 20
11056.73679736197
 30
0.0
 11
5472.829581418171
 21
11056.73679736197
 31
0.0
  0
LINE
  5
1AD49
330
747D
100
AcDbEntity
  8
部品1
 48
50.0
100
AcDbLine
 10
5474.82958141817
 20
11073.73679736197
 30
0.0
 11
5474.82958141817
 21
11058.73679736196
 31
0.0
  0
LINE
  5
1AD4A
330
747D
100
AcDbEntity
  8
部品1
 48
50.0
100
AcDbLine
 10
5492.82958141817
 20
11073.73679736197
 30
0.0
 11
5492.829581418173
 21
11108.73679736197
 31
0.0
  0
LINE
  5
1AD4B
330
747D
100
AcDbEntity
  8
部品1
 48
50.0
100
AcDbLine
 10
5510.829581418169
 20
11073.73679736197
 30
0.0
 11
5510.829581418169
 21
11058.73679736196
 31
0.0
  0
ARC
  5
1AD4C
330
747D
100
AcDbEntity
  8
部品1
 48
50.0
100
AcDbCircle
 10
5432.829581418172
 20
11098.73679736197
 30
0.0
 40
10.0
100
AcDbArc
 50
90.0
 51
180.0
  0
LINE
  5
1AD4D
330
747D
100
AcDbEntity
  8
部品1
 48
50.0
100
AcDbLine
 10
6054.829581418169
 20
11073.73679736233
 30
0.0
 11
6054.829581418169
 21
11058.73679736233
 31
0.0
  0
LINE
  5
1AD4E
330
747D
100
AcDbEntity
  8
部品1
 48
50.0
100
AcDbLine
 10
6072.829581418169
 20
11073.73679736233
 30
0.0
 11
6072.829581418172
 21
11108.73679736233
 31
0.0
  0
LINE
  5
1AD4F
330
747D
100
AcDbEntity
  8
部品1
 48
50.0
100
AcDbLine
 10
6090.829581418169
 20
11073.73679736233
 30
0.0
 11
6090.829581418169
 21
11058.73679736233
 31
0.0
  0
LINE
  5
1AD50
330
747D
100
AcDbEntity
  8
部品1
 48
50.0
100
AcDbLine
 10
6634.82958141817
 20
11073.73679736227
 30
0.0
 11
6634.82958141817
 21
11058.73679736227
 31
0.0
  0
LINE
  5
1AD51
330
747D
100
AcDbEntity
  8
部品1
 48
50.0
100
AcDbLine
 10
6652.829581418169
 20
11073.73679736227
 30
0.0
 11
6652.829581418173
 21
11108.73679736227
 31
0.0
  0
LINE
  5
1AD52
330
747D
100
AcDbEntity
  8
部品1
 48
50.0
100
AcDbLine
 10
6670.829581418169
 20
11073.73679736227
 30
0.0
 11
6670.829581418169
 21
11058.73679736227
 31
0.0
  0
LINE
  5
1AD53
330
747D
100
AcDbEntity
  8
部品1
 48
50.0
100
AcDbLine
 10
7214.829581418169
 20
11073.73679736221
 30
0.0
 11
7214.829581418169
 21
11058.73679736221
 31
0.0
  0
LINE
  5
1AD54
330
747D
100
AcDbEntity
  8
部品1
 48
50.0
100
AcDbLine
 10
7232.82958141817
 20
11073.73679736221
 30
0.0
 11
7232.829581418172
 21
11108.73679736221
 31
0.0
  0
LINE
  5
1AD55
330
747D
100
AcDbEntity
  8
部品1
 48
50.0
100
AcDbLine
 10
7250.82958141817
 20
11073.73679736221
 30
0.0
 11
7250.82958141817
 21
11058.73679736221
 31
0.0
  0
LINE
  5
1AD56
330
747D
100
AcDbEntity
  8
部品1
 48
50.0
100
AcDbLine
 10
7794.829581418169
 20
11073.73679736215
 30
0.0
 11
7794.829581418169
 21
11058.73679736215
 31
0.0
  0
DIMENSION
  5
1AD57
330
747D
100
AcDbEntity
  8
寸法
 48
50.0
100
AcDbDimension
  2
*D32
 10
9042.829581418176
 20
11817.51516613338
 30
0.0
 11
9400.388636536288
 21
11817.51516613338
 31
0.0
 12
3171.020575169997
 22
-17006.81261743063
 32
0.0
 70
   160
 71
     5
 42
-1.0
  3
INABA_S50G
100
AcDbAlignedDimension
 13
8992.829581418181
 23
11518.76878223262
 33
0.0
 14
9042.829581418176
 24
11098.73679736197
 34
0.0
100
AcDbRotatedDimension
1001
ACAD
1000
DSTYLE
1002
{
1002
}
  0
DIMENSION
  5
1AD58
330
747D
100
AcDbEntity
  8
寸法
 48
50.0
100
AcDbDimension
  2
*D33
 10
9854.165333801146
 20
11108.73679736197
 30
0.0
 11
9854.165333801146
 21
11341.29585248008
 31
0.0
 12
3171.020575169997
 22
-17006.81261743063
 32
0.0
 70
   160
 71
     5
 42
-1.0
  3
INABA_S50G
100
AcDbAlignedDimension
 13
9042.829581418176
 23
11038.73679736197
 33
0.0
 14
9032.829581418173
 24
11108.73679736197
 34
0.0
 50
90.0
100
AcDbRotatedDimension
1001
ACAD
1000
DSTYLE
1002
{
1002
}
  0
DIMENSION
  5
1AD59
330
747D
100
AcDbEntity
  8
寸法
 48
50.0
100
AcDbDimension
  2
*D34
 10
10156.96933771975
 20
11108.73679736197
 30
0.0
 11
10156.96933771975
 21
11466.29585248008
 31
0.0
 12
3171.020575169997
 22
-17006.81261743063
 32
0.0
 70
   160
 71
     5
 42
-1.0
  3
INABA_S50G
100
AcDbAlignedDimension
 13
9854.165333801145
 23
11058.73679736197
 33
0.0
 14
9032.829581418173
 24
11108.73679736197
 34
0.0
 50
90.0
100
AcDbRotatedDimension
1001
ACAD
1000
DSTYLE
1002
{
1002
}
  0
LINE
  5
1AD5A
330
747D
100
AcDbEntity
  8
部品1
 48
50.0
100
AcDbLine
 10
7830.829581418169
 20
11073.73679736215
 30
0.0
 11
7830.829581418169
 21
11058.73679736215
 31
0.0
  0
LINE
  5
1AD5B
330
747D
100
AcDbEntity
  8
部品1
 48
50.0
100
AcDbLine
 10
7812.82958141817
 20
11073.73679736215
 30
0.0
 11
7812.829581418172
 21
11108.73679736215
 31
0.0
  0
LINE
  5
1AD5C
330
747D
100
AcDbEntity
  8
部品1
 48
50.0
100
AcDbLine
 10
8410.829581418173
 20
11073.73679736197
 30
0.0
 11
8410.829581418173
 21
11058.73679736197
 31
0.0
  0
LINE
  5
1AD5D
330
747D
100
AcDbEntity
  8
部品1
 48
50.0
100
AcDbLine
 10
8392.829581418174
 20
11073.73679736197
 30
0.0
 11
8392.829581418176
 21
11108.73679736197
 31
0.0
  0
LINE
  5
1AD5E
330
747D
100
AcDbEntity
  8
部品1
 48
50.0
100
AcDbLine
 10
8374.829581418174
 20
11073.73679736197
 30
0.0
 11
8374.829581418174
 21
11058.73679736197
 31
0.0
  0
DIMENSION
  5
1AD5F
330
747D
100
AcDbEntity
  8
寸法
 48
50.0
100
AcDbDimension
  2
*D35
 10
9042.829581418176
 20
11518.76878223262
 30
0.0
 11
9305.388636536285
 21
11518.76878223262
 31
0.0
 12
3171.020575169997
 22
-17006.81261743063
 32
0.0
 70
   160
 71
     5
 42
-1.0
  3
INABA_S50G
100
AcDbAlignedDimension
 13
8972.829581418176
 23
11108.73679736197
 33
0.0
 14
9042.829581418176
 24
11098.73679736197
 34
0.0
100
AcDbRotatedDimension
1001
ACAD
1000
DSTYLE
1002
{
1002
}
  0
LINE
  5
1AD60
330
747D
100
AcDbEntity
  8
部品1
 48
50.0
100
AcDbLine
 10
9042.829581418176
 20
11038.73679736197
 30
0.0
 11
9007.829581418176
 21
11038.73679736197
 31
0.0
  0
LINE
  5
1AD61
330
747D
100
AcDbEntity
  8
部品1
 48
50.0
100
AcDbLine
 10
9007.829581418176
 20
11056.73679736197
 30
0.0
 11
8992.829581418176
 21
11056.73679736197
 31
0.0
  0
LINE
  5
1AD62
330
747D
100
AcDbEntity
  8
部品1
 48
50.0
100
AcDbLine
 10
9007.829581418176
 20
11020.73679736196
 30
0.0
 11
8992.829581418176
 21
11020.73679736196
 31
0.0
  0
LINE
  5
1AD63
330
747D
100
AcDbEntity
  8
部品1
 48
50.0
100
AcDbLine
 10
8990.829581418173
 20
11073.73679736197
 30
0.0
 11
8990.829581418173
 21
11058.73679736197
 31
0.0
  0
LINE
  5
1AD64
330
747D
100
AcDbEntity
  8
部品1
 48
50.0
100
AcDbLine
 10
8954.829581418172
 20
11073.73679736197
 30
0.0
 11
8954.829581418172
 21
11058.73679736197
 31
0.0
  0
LINE
  5
1AD65
330
747D
100
AcDbEntity
  8
部品1
 48
50.0
100
AcDbLine
 10
8972.829581418173
 20
11073.73679736197
 30
0.0
 11
8972.829581418176
 21
11108.73679736197
 31
0.0
  0
ARC
  5
1AD66
330
747D
100
AcDbEntity
  8
部品1
 48
50.0
100
AcDbCircle
 10
9032.829581418173
 20
11098.73679736197
 30
0.0
 40
10.0
100
AcDbArc
 50
0.0
 51
90.0
  0
MTEXT
  5
1B1AE
102
{ACAD_REACTORS
330
1B1AF
102
}
330
747D
100
AcDbEntity
  8
部品1
 62
     7
 48
50.0
100
AcDbMText
 10
13009.09060856884
 20
8716.282041753721
 30
0.0
 40
150.0
 41
0.0
 71
     6
 72
     1
  1
\A1;土台中央
  7
STYLE1
 73
     1
 44
1.0
  0
LEADER
  5
1B1AF
330
747D
100
AcDbEntity
  8
寸法
 48
50.0
100
AcDbLeader
  3
INABA_S50G
 71
     0
 73
     0
 75
     1
 40
150.0
 41
720.0000000000003
 76
     3
 10
13238.20823510304
 20
9382.72022528702
 30
0.0
 10
13159.09060856884
 20
8616.282041753722
 30
0.0
 10
13034.09060856884
 20
8616.282041753722
 30
0.0
340
1B1AE
1001
ACAD
1000
DSTYLE
1002
{
1070
     6
1000
DOTSMALL
1002
}
  0
MTEXT
  5
1B1B0
102
{ACAD_REACTORS
330
1B1B1
102
}
330
747D
100
AcDbEntity
  8
部品1
 62
     7
 48
50.0
100
AcDbMText
 10
13941.06372606969
 20
8716.282041753727
 30
0.0
 40
150.0
 41
0.0
 71
     4
 72
     1
  1
\A1;根太
  7
STYLE1
 73
     1
 44
1.0
  0
LEADER
  5
1B1B1
330
747D
100
AcDbEntity
  8
寸法
 48
50.0
100
AcDbLeader
  3
INABA_S50G
 71
     0
 73
     0
 74
     0
 75
     1
 40
150.0
 41
330.0
 76
     3
 10
13612.82958141817
 20
9382.720225287023
 30
0.0
 10
13791.06372606969
 20
8616.282041753725
 30
0.0
 10
13916.06372606969
 20
8616.282041753725
 30
0.0
340
1B1B0
1001
ACAD
1000
DSTYLE
1002
{
1070
     6
1000
DOTSMALL
1002
}
  0
MTEXT
  5
1B1B2
102
{ACAD_REACTORS
330
1B1B3
102
}
330
747D
100
AcDbEntity
  8
部品1
 62
     7
 48
50.0
100
AcDbMText
 10
14607.3983798669
 20
8716.282041753727
 30
0.0
 40
150.0
 41
0.0
 71
     4
 72
     1
  1
\A1;ジョイントカバー
  7
STYLE1
 73
     1
 44
1.0
  0
LEADER
  5
1B1B3
330
747D
100
AcDbEntity
  8
寸法
 48
50.0
100
AcDbLeader
  3
INABA_S50G
 71
     0
 73
     0
 74
     0
 75
     1
 40
150.0
 41
1397.5
 76
     3
 10
14184.06618060768
 20
9547.434887568499
 30
0.0
 10
14457.3983798669
 20
8616.282041753725
 30
0.0
 10
14582.3983798669
 20
8616.282041753725
 30
0.0
340
1B1B2
1001
ACAD
1000
DSTYLE
1002
{
1070
     6
1000
DOTSMALL
1002
}
  0
LINE
  5
1B1B4
330
747D
100
AcDbEntity
  8
部品1
100
AcDbLine
 10
14519.05513660853
 20
7709.831477053277
 30
0.0
 11
13246.6040262278
 21
7709.831477053277
 31
0.0
  0
LINE
  5
1B1B5
330
747D
100
AcDbEntity
  8
部品1
100
AcDbLine
 10
13246.6040262278
 20
7310.010941144057
 30
0.0
 11
14519.05513660853
 21
7310.010941144057
 31
0.0
  0
TEXT
  5
1B1B6
330
747D
100
AcDbEntity
  8
部品1
100
AcDbText
 10
13406.3546141366
 20
7403.375597892064
 30
0.0
 40
225.0
  1
断面図
  7
STYLE2
100
AcDbText
  0
LINE
  5
1B1B7
330
747D
100
AcDbEntity
  8
部品1
100
AcDbLine
 10
13246.6040262278
 20
7709.831477053277
 30
0.0
 11
13246.6040262278
 21
7310.010941144057
 31
0.0
  0
LINE
  5
1B1B8
330
747D
100
AcDbEntity
  8
部品1
100
AcDbLine
 10
14519.05513660853
 20
7310.010941144057
 30
0.0
 11
14519.05513660853
 21
7709.831477053277
 31
0.0
  0
LINE
  5
1B1B9
330
747D
100
AcDbEntity
  8
Ｇ．Ｌ
 48
50.0
100
AcDbLine
 10
11559.2050880862
 20
9228.736797361969
 30
0.0
 11
16606.77176170856
 21
9228.736797361969
 31
0.0
  0
DIMENSION
  5
1B1BA
330
747D
100
AcDbEntity
  8
寸法
 48
50.0
100
AcDbDimension
  2
*D36
 10
16134.10991665977
 20
11560.73679736196
 30
0.0
 11
16034.09515288024
 21
10495.73679736196
 31
0.0
 70
    32
  1
内高 <>
 71
     5
 42
-1.0
  3
INABA_S50G
100
AcDbAlignedDimension
 13
14787.32958141817
 23
9430.736797361969
 33
0.0
 14
14822.82958141817
 24
11560.73679736196
 34
0.0
 50
90.0
100
AcDbRotatedDimension
  0
DIMENSION
  5
1B1BB
330
747D
100
AcDbEntity
  8
寸法
 48
50.0
100
AcDbDimension
  2
*D37
 10
16447.07164574816
 20
11743.73679736196
 30
0.0
 11
16347.05688196863
 21
10553.73679736196
 31
0.0
 70
    32
 71
     5
 42
-1.0
  3
INABA_S50G
100
AcDbAlignedDimension
 13
14822.82958141817
 23
9363.736797361969
 33
0.0
 14
14917.82958141817
 24
11743.73679736196
 34
0.0
 50
90.0
100
AcDbRotatedDimension
  0
DIMENSION
  5
1B1BC
330
747D
100
AcDbEntity
  8
寸法
 48
50.0
100
AcDbDimension
  2
*D38
 10
14917.82958141817
 20
12497.01792807848
 30
0.0
 11
15250.38863653628
 21
12497.01792807848
 31
0.0
 70
   160
 71
     5
 42
-1.0
  3
INABA_S50G
100
AcDbAlignedDimension
 13
14822.82958141817
 23
11746.3631811976
 33
0.0
 14
14917.82958141817
 24
11743.73679736196
 34
0.0
100
AcDbRotatedDimension
1001
ACAD
1000
DSTYLE
1002
{
1002
}
  0
DIMENSION
  5
1B1BD
330
747D
100
AcDbEntity
  8
寸法
 48
50.0
100
AcDbDimension
  2
*D39
 10
12942.82958141817
 20
12497.01792807849
 30
0.0
 11
12525.27052630005
 21
12497.01792807849
 31
0.0
 70
   160
 71
     5
 42
-1.0
  3
INABA_S50G
100
AcDbAlignedDimension
 13
12807.82958141817
 23
11803.73679736197
 33
0.0
 14
12942.82958141817
 24
11801.29728927308
 34
0.0
100
AcDbRotatedDimension
  0
DIMENSION
  5
1B1BE
330
747D
100
AcDbEntity
  8
寸法
 48
50.0
100
AcDbDimension
  2
*D40
 10
14822.82958141817
 20
12497.01792807848
 30
0.0
 11
13882.82958141817
 21
12597.01792807848
 31
0.0
 70
    32
  1
柱外寸法 <>
 71
     5
 42
-1.0
  3
INABA_S50G
100
AcDbAlignedDimension
 13
12942.82958141817
 23
11758.73679736197
 33
0.0
 14
14822.82958141817
 24
11746.3631811976
 34
0.0
100
AcDbRotatedDimension
1001
ACAD
1000
DSTYLE
1002
{
1070
   287
1070
     4
1070
    75
1070
     1
1070
   279
1070
     1
1002
}
  0
DIMENSION
  5
1B1BF
330
747D
100
AcDbEntity
  8
寸法
 48
50.0
100
AcDbDimension
  2
*D41
 10
14917.82958141817
 20
12813.17369887014
 30
0.0
 11
13862.82958141817
 21
12913.18846264967
 31
0.0
 70
    32
 71
     5
 42
-1.0
  3
INABA_S50G
100
AcDbAlignedDimension
 13
12807.82958141817
 23
11803.73679736197
 33
0.0
 14
14917.82958141817
 24
11743.73679736196
 34
0.0
100
AcDbRotatedDimension
  0
LINE
  5
1B1C0
330
747D
100
AcDbEntity
  8
細線
 48
50.0
100
AcDbLine
 10
12836.46236672542
 20
11792.00045751344
 30
0.0
 11
14870.44575021202
 21
11686.84112269049
 31
0.0
  0
LINE
  5
1B1C1
330
747D
100
AcDbEntity
  8
細線
 48
50.0
100
AcDbLine
 10
12835.32645796807
 20
11770.02980182694
 30
0.0
 11
14869.30984145466
 21
11664.87046700399
 31
0.0
  0
MTEXT
  5
1B1C2
102
{ACAD_REACTORS
330
1B1C3
102
}
330
747D
100
AcDbEntity
  8
部品1
 62
     7
 48
50.0
100
AcDbMText
 10
13271.05948236589
 20
12169.83557484575
 30
0.0
 40
150.0
 41
0.0
 71
     4
 72
     1
  1
\A1;屋根パネル
  7
STYLE1
 73
     1
 44
1.0
  0
LEADER
  5
1B1C3
330
747D
100
AcDbEntity
  8
寸法
 48
50.0
100
AcDbLeader
  3
INABA_S50G
 71
     0
 73
     0
 74
     0
 75
     1
 40
150.0
 41
900.0
 76
     3
 10
13032.07682066774
 20
11770.0347365094
 30
0.0
 10
13121.05948236589
 20
12069.83557484575
 30
0.0
 10
13246.05948236589
 20
12069.83557484575
 30
0.0
340
1B1C2
1001
ACAD
1000
DSTYLE
1002
{
1070
     6
1000
DOTSMALL
1002
}
  0
MTEXT
  5
1B1C4
102
{ACAD_REACTORS
330
1B1C5
102
}
330
747D
100
AcDbEntity
  8
寸法
 62
     7
 48
50.0
100
AcDbMText
 10
13554.86752994077
 20
11362.92239508256
 30
0.0
 40
150.0
 41
0.0
 71
     6
 72
     1
  1
\A1;天井
  7
STYLE1
 73
     1
 44
1.0
  0
LEADER
  5
1B1C5
330
747D
100
AcDbEntity
  8
寸法
 48
50.0
100
AcDbLeader
  3
INABA_S50G
 71
     0
 73
     0
 75
     1
 40
150.0
 41
359.9999999999999
 76
     3
 10
13828.1695438461
 20
11573.41424305312
 30
0.0
 10
13704.86752994077
 20
11262.92239508256
 30
0.0
 10
13579.86752994077
 20
11262.92239508256
 30
0.0
340
1B1C4
1001
ACAD
1000
DSTYLE
1002
{
1070
     6
1000
DOTSMALL
1002
}
  0
LINE
  5
1B1C6
330
747D
100
AcDbEntity
  8
部品1
 48
50.0
100
AcDbLine
 10
12837.34578971423
 20
11803.20342677758
 30
0.0
 11
14892.50261261331
 21
11745.10415954443
 31
0.0
  0
LINE
  5
1B1C7
330
747D
100
AcDbEntity
  8
細線
 48
50.0
100
AcDbLine
 10
13007.82958141817
 20
11583.73679736196
 30
0.0
 11
14757.82958141816
 21
11583.73679736196
 31
0.0
  0
LINE
  5
1B1C8
330
747D
100
AcDbEntity
  8
部品1
 48
50.0
100
AcDbLine
 10
12993.32958141817
 20
11537.59466173823
 30
0.0
 11
14772.32958141817
 21
11537.59466173823
 31
0.0
  0
LINE
  5
1B1C9
330
747D
100
AcDbEntity
  8
細線
 48
50.0
100
AcDbLine
 10
13007.82958141817
 20
11563.73679736196
 30
0.0
 11
14757.82958141816
 21
11563.73679736196
 31
0.0
  0
LINE
  5
1B1CA
330
747D
100
AcDbEntity
  8
部品1
 48
50.0
100
AcDbLine
 10
12942.82958141817
 20
9363.736797361969
 30
0.0
 11
14822.82958141817
 21
9363.736797361969
 31
0.0
  0
LINE
  5
1B1CB
330
747D
100
AcDbEntity
  8
部品1
 48
50.0
100
AcDbLine
 10
12993.32958141817
 20
9470.73679736197
 30
0.0
 11
14772.32958141817
 21
9470.73679736197
 31
0.0
  0
LINE
  5
1B1CC
330
747D
100
AcDbEntity
  8
細線
 48
50.0
100
AcDbLine
 10
14772.32958141817
 20
9418.736797361971
 30
0.0
 11
12993.32958141817
 21
9418.736797361971
 31
0.0
  0
LINE
  5
1B1CD
330
747D
100
AcDbEntity
  8
細線
 48
50.0
100
AcDbLine
 10
12993.32958141817
 20
9430.736797361969
 30
0.0
 11
14772.32958141817
 21
9430.736797361969
 31
0.0
  0
MTEXT
  5
1B1CE
102
{ACAD_REACTORS
330
1B1CF
102
}
330
747D
100
AcDbEntity
  8
部品1
 62
     7
 48
50.0
100
AcDbMText
 10
13652.60524733606
 20
9656.775787169861
 30
0.0
 40
150.0
 41
0.0
 71
     4
 72
     1
  1
\A1;床板
  7
STYLE1
 73
     1
 44
1.0
  0
LEADER
  5
1B1CF
330
747D
100
AcDbEntity
  8
寸法
 48
50.0
100
AcDbLeader
  3
INABA_S50G
 71
     0
 73
     0
 74
     0
 75
     1
 40
150.0
 41
319.9999999999999
 76
     3
 10
13466.69707899399
 20
9425.668860537973
 30
0.0
 10
13502.60524733606
 20
9556.775787169859
 30
0.0
 10
13627.60524733606
 20
9556.775787169859
 30
0.0
340
1B1CE
1001
ACAD
1000
DSTYLE
1002
{
1070
     6
1000
DOTSMALL
1002
}
  0
MTEXT
  5
1B1D0
102
{ACAD_REACTORS
330
1B1D1
102
}
330
747D
100
AcDbEntity
  8
寸法
 62
     7
 48
50.0
100
AcDbMText
 10
13920.30087063654
 20
11981.40987824757
 30
0.0
 40
150.0
 41
0.0
 71
     6
 72
     1
  1
\A1;母屋中
  7
STYLE1
 73
     1
 44
1.0
  0
LEADER
  5
1B1D1
330
747D
100
AcDbEntity
  8
寸法
 48
50.0
100
AcDbLeader
  3
INABA_S50G
 71
     0
 73
     0
 75
     1
 40
150.0
 41
540.0000000000002
 76
     3
 10
14147.82958141817
 20
11612.38073961986
 30
0.0
 10
14070.30087063654
 20
11881.40987824757
 30
0.0
 10
13945.30087063654
 20
11881.40987824757
 30
0.0
340
1B1D0
1001
ACAD
1000
DSTYLE
1002
{
1070
     6
1000
DOTSMALL
1002
}
  0
DIMENSION
  5
1B1D2
330
747D
100
AcDbEntity
  8
寸法
 48
50.0
100
AcDbDimension
  2
*D42
 10
11718.38013607452
 20
9363.736797361966
 30
0.0
 11
11618.36537229499
 21
10583.73679736196
 31
0.0
 70
    32
 71
     5
 42
-1.0
  3
INABA_S50G
100
AcDbAlignedDimension
 13
12807.82958141816
 23
11803.73679736197
 33
0.0
 14
12942.82958141817
 24
9363.736797361966
 34
0.0
 50
90.0
100
AcDbRotatedDimension
  0
LINE
  5
1B1D3
330
747D
100
AcDbEntity
  8
細線
 48
50.0
100
AcDbLine
 10
12977.82958141817
 20
11548.73679736196
 30
0.0
 11
12977.82958141817
 21
9418.736797361971
 31
0.0
  0
LINE
  5
1B1D4
330
747D
100
AcDbEntity
  8
部品1
 48
50.0
100
AcDbLine
 10
13029.32958141817
 20
11537.59466173823
 30
0.0
 11
13029.32958141817
 21
9470.73679736197
 31
0.0
  0
LINE
  5
1B1D5
330
747D
100
AcDbEntity
  8
部品1
 48
50.0
100
AcDbLine
 10
12993.32958141817
 20
11548.73679736196
 30
0.0
 11
12993.32958141817
 21
9430.736797361969
 31
0.0
  0
LINE
  5
1B1D6
330
747D
100
AcDbEntity
  8
部品1
 48
50.0
100
AcDbLine
 10
12942.82958141817
 20
11758.73679736197
 30
0.0
 11
12942.82958141817
 21
9418.736797361971
 31
0.0
  0
DIMENSION
  5
1B1D7
330
747D
100
AcDbEntity
  8
寸法
 48
50.0
100
AcDbDimension
  2
*D43
 10
12052.63480123898
 20
9418.736797361971
 30
0.0
 11
11952.62003745945
 21
10476.23679736196
 31
0.0
 70
    32
 71
     5
 42
-1.0
  3
INABA_S50G
100
AcDbAlignedDimension
 13
12942.82958141817
 23
11533.73679736196
 33
0.0
 14
12942.82958141817
 24
9418.736797361971
 34
0.0
 50
90.0
100
AcDbRotatedDimension
  0
DIMENSION
  5
1B1D8
330
747D
100
AcDbEntity
  8
寸法
 48
50.0
100
AcDbDimension
  2
*D44
 10
12052.63480123898
 20
9363.736797361969
 30
0.0
 11
12052.63480123898
 21
9089.650458526433
 31
0.0
 70
   160
 71
     5
 42
-1.0
  3
INABA_S50G
100
AcDbAlignedDimension
 13
12942.82958141817
 23
9418.736797361971
 33
0.0
 14
12942.82958141817
 24
9363.736797361969
 34
0.0
 50
90.0
100
AcDbRotatedDimension
  0
LINE
  5
1B1D9
330
747D
100
AcDbEntity
  8
部品1
 48
50.0
100
AcDbLine
 10
12873.82958141817
 20
9028.73679736197
 30
0.0
 11
13073.82958141817
 21
9028.73679736197
 31
0.0
  0
LINE
  5
1B1DA
330
747D
100
AcDbEntity
  8
細線
 48
50.0
100
AcDbLine
 10
12873.82958141817
 20
9108.510741278424
 30
0.0
 11
12994.0556375017
 21
9228.736797361969
 31
0.0
  0
LINE
  5
1B1DB
330
747D
100
AcDbEntity
  8
細線
 48
50.0
100
AcDbLine
 10
12873.82958141817
 20
9135.027245572919
 30
0.0
 11
12967.53913320723
 21
9228.736797361969
 31
0.0
  0
LINE
  5
1B1DC
330
747D
100
AcDbEntity
  8
細線
 48
50.0
100
AcDbLine
 10
12873.82958141817
 20
9081.994236983929
 30
0.0
 11
13020.5721417962
 21
9228.736797361971
 31
0.0
  0
LINE
  5
1B1DD
330
747D
100
AcDbEntity
  8
部品1
 48
50.0
100
AcDbLine
 10
12873.82958141817
 20
9228.736797361969
 30
0.0
 11
12873.82958141817
 21
9028.73679736197
 31
0.0
  0
LINE
  5
1B1DE
330
747D
100
AcDbEntity
  8
部品1
 48
50.0
100
AcDbLine
 10
12993.32958141817
 20
9470.73679736197
 30
0.0
 11
13002.32958141817
 21
9470.73679736197
 31
0.0
  0
LINE
  5
1B1DF
330
747D
100
AcDbEntity
  8
部品1
 48
50.0
100
AcDbLine
 10
12942.82958141817
 20
9418.736797361971
 30
0.0
 11
12978.32958141817
 21
9418.736797361971
 31
0.0
  0
LINE
  5
1B1E0
330
747D
100
AcDbEntity
  8
部品1
 48
50.0
100
AcDbLine
 10
12978.32958141817
 20
9418.736797361971
 30
0.0
 11
12978.32958141817
 21
9430.736797361969
 31
0.0
  0
LINE
  5
1B1E1
330
747D
100
AcDbEntity
  8
部品1
 48
50.0
100
AcDbLine
 10
12978.32958141817
 20
9430.736797361969
 30
0.0
 11
12993.32958141817
 21
9430.736797361969
 31
0.0
  0
LINE
  5
1B1E2
330
747D
100
AcDbEntity
  8
部品1
 48
50.0
100
AcDbLine
 10
12993.32958141817
 20
9430.736797361969
 30
0.0
 11
12993.32958141817
 21
9418.736797361971
 31
0.0
  0
LINE
  5
1B1E3
330
747D
100
AcDbEntity
  8
部品1
 48
50.0
100
AcDbLine
 10
12993.32958141817
 20
9418.736797361971
 30
0.0
 11
13007.32958141817
 21
9418.736797361971
 31
0.0
  0
LINE
  5
1B1E4
330
747D
100
AcDbEntity
  8
部品1
 48
50.0
100
AcDbLine
 10
13007.32958141817
 20
9418.736797361971
 30
0.0
 11
13007.32958141817
 21
9411.736797361969
 31
0.0
  0
LINE
  5
1B1E5
330
747D
100
AcDbEntity
  8
部品1
 48
50.0
100
AcDbLine
 10
13007.32958141817
 20
9411.736797361969
 30
0.0
 11
13031.32958141817
 21
9411.736797361969
 31
0.0
  0
LINE
  5
1B1E6
330
747D
100
AcDbEntity
  8
部品1
 48
50.0
100
AcDbLine
 10
13031.32958141817
 20
9411.736797361969
 30
0.0
 11
13031.32958141817
 21
9363.736797361969
 31
0.0
  0
LINE
  5
1B1E7
330
747D
100
AcDbEntity
  8
部品1
 48
50.0
100
AcDbLine
 10
12942.82958141817
 20
9412.73679736197
 30
0.0
 11
12948.82958141817
 21
9412.73679736197
 31
0.0
  0
LINE
  5
1B1E8
330
747D
100
AcDbEntity
  8
部品1
 48
50.0
100
AcDbLine
 10
12948.82958141817
 20
9412.73679736197
 30
0.0
 11
12948.82958141817
 21
9418.736797361971
 31
0.0
  0
LINE
  5
1B1E9
330
747D
100
AcDbEntity
  8
部品1
 48
50.0
100
AcDbLine
 10
13002.32958141817
 20
9430.736797361969
 30
0.0
 11
12993.32958141817
 21
9430.736797361969
 31
0.0
  0
LINE
  5
1B1EA
330
747D
100
AcDbEntity
  8
部品1
 48
50.0
100
AcDbLine
 10
12942.82958141817
 20
9412.73679736197
 30
0.0
 11
12942.82958141817
 21
9363.736797361969
 31
0.0
  0
LINE
  5
1B1EB
330
747D
100
AcDbEntity
  8
部品1
 48
50.0
100
AcDbLine
 10
13002.32958141817
 20
9470.73679736197
 30
0.0
 11
13002.32958141817
 21
9430.736797361969
 31
0.0
  0
LINE
  5
1B1EC
330
747D
100
AcDbEntity
  8
部品1
 48
50.0
100
AcDbLine
 10
13316.82958141817
 20
9418.736797361971
 30
0.0
 11
13322.82958141817
 21
9418.736797361971
 31
0.0
  0
LINE
  5
1B1ED
330
747D
100
AcDbEntity
  8
部品1
 48
50.0
100
AcDbLine
 10
13282.82958141817
 20
9418.736797361971
 30
0.0
 11
13288.82958141817
 21
9418.736797361971
 31
0.0
  0
LINE
  5
1B1EE
330
747D
100
AcDbEntity
  8
部品1
 48
50.0
100
AcDbLine
 10
13288.82958141817
 20
9412.73679736197
 30
0.0
 11
13316.82958141817
 21
9412.736797361965
 31
0.0
  0
LINE
  5
1B1EF
330
747D
100
AcDbEntity
  8
部品1
 48
50.0
100
AcDbLine
 10
13316.82958141817
 20
9418.736797361971
 30
0.0
 11
13316.82958141817
 21
9412.73679736197
 31
0.0
  0
LINE
  5
1B1F0
330
747D
100
AcDbEntity
  8
部品1
 48
50.0
100
AcDbLine
 10
13288.82958141817
 20
9412.73679736197
 30
0.0
 11
13288.82958141817
 21
9418.736797361971
 31
0.0
  0
LINE
  5
1B1F1
330
747D
100
AcDbEntity
  8
部品1
 48
50.0
100
AcDbLine
 10
13322.82958141817
 20
9418.736797361971
 30
0.0
 11
13322.82958141817
 21
9363.736797361969
 31
0.0
  0
LINE
  5
1B1F2
330
747D
100
AcDbEntity
  8
部品1
 48
50.0
100
AcDbLine
 10
13282.82958141817
 20
9363.736797361969
 30
0.0
 11
13282.82958141817
 21
9418.736797361971
 31
0.0
  0
LINE
  5
1B1F3
330
747D
100
AcDbEntity
  8
破線
 48
3.0
100
AcDbLine
 10
12952.82958141817
 20
9122.736797361969
 30
0.0
 11
12994.82958141817
 21
9122.736797361969
 31
0.0
  0
LINE
  5
1B1F4
330
747D
100
AcDbEntity
  8
細線
 48
50.0
100
AcDbLine
 10
12970.57214179622
 20
9028.73679736197
 30
0.0
 11
13073.82958141817
 21
9131.994236983926
 31
0.0
  0
LINE
  5
1B1F5
330
747D
100
AcDbEntity
  8
細線
 48
50.0
100
AcDbLine
 10
12944.05563750172
 20
9028.73679736197
 30
0.0
 11
13073.82958141817
 21
9158.510741278425
 31
0.0
  0
LINE
  5
1B1F6
330
747D
100
AcDbEntity
  8
細線
 48
50.0
100
AcDbLine
 10
12917.53913320722
 20
9028.73679736197
 30
0.0
 11
13073.82958141817
 21
9185.02724557292
 31
0.0
  0
LINE
  5
1B1F7
330
747D
100
AcDbEntity
  8
破線
 48
3.0
100
AcDbLine
 10
12994.82958141817
 20
9228.736797361969
 30
0.0
 11
12994.82958141817
 21
9122.736797361969
 31
0.0
  0
LINE
  5
1B1F8
330
747D
100
AcDbEntity
  8
破線
 48
3.0
100
AcDbLine
 10
12952.82958141817
 20
9228.736797361969
 30
0.0
 11
12952.82958141817
 21
9122.736797361969
 31
0.0
  0
LINE
  5
1B1F9
330
747D
100
AcDbEntity
  8
部品1
 48
50.0
100
AcDbLine
 10
13073.82958141817
 20
9028.73679736197
 30
0.0
 11
13073.82958141817
 21
9228.736797361969
 31
0.0
  0
LINE
  5
1B1FA
330
747D
100
AcDbEntity
  8
細線
 48
50.0
100
AcDbLine
 10
13142.82958141817
 20
9276.010741278422
 30
0.0
 11
13055.10352533463
 21
9363.736797361971
 31
0.0
  0
LINE
  5
1B1FB
330
747D
100
AcDbEntity
  8
細線
 48
50.0
100
AcDbLine
 10
13142.82958141817
 20
9302.527245572917
 30
0.0
 11
13081.62002962911
 21
9363.736797361969
 31
0.0
  0
LINE
  5
1B1FC
330
747D
100
AcDbEntity
  8
細線
 48
50.0
100
AcDbLine
 10
13040.10352533462
 20
9228.736797361969
 30
0.0
 11
12942.82958141817
 21
9326.010741278423
 31
0.0
  0
LINE
  5
1B1FD
330
747D
100
AcDbEntity
  8
細線
 48
50.0
100
AcDbLine
 10
13066.62002962911
 20
9228.736797361969
 30
0.0
 11
12942.82958141817
 21
9352.527245572918
 31
0.0
  0
LINE
  5
1B1FE
330
747D
100
AcDbEntity
  8
部品1
 48
50.0
100
AcDbLine
 10
13142.82958141817
 20
9363.736797361966
 30
0.0
 11
13142.82958141817
 21
9228.736797361969
 31
0.0
  0
LINE
  5
1B1FF
330
747D
100
AcDbEntity
  8
部品1
 48
50.0
100
AcDbLine
 10
12942.82958141817
 20
9363.736797361966
 30
0.0
 11
12942.82958141817
 21
9228.736797361969
 31
0.0
  0
DIMENSION
  5
1B200
330
747D
100
AcDbEntity
  8
寸法
 48
50.0
100
AcDbDimension
  2
*D45
 10
12211.55458482934
 20
11795.73051236771
 30
0.0
 11
12215.6596252794
 21
12053.80446784019
 31
0.0
 70
   160
 71
     5
 42
-1.0
  3
INABA_S50G
100
AcDbAlignedDimension
 13
12828.8404644795
 23
11670.89713798173
 33
0.0
 14
12830.66947485201
 24
11785.88259237079
 34
0.0
 50
89.08870440418592
100
AcDbRotatedDimension
  0
MTEXT
  5
1B201
102
{ACAD_REACTORS
330
1B202
102
}
330
747D
100
AcDbEntity
  8
寸法
 62
     7
 48
50.0
100
AcDbMText
 10
12489.20278459666
 20
12344.32712616799
 30
0.0
 40
150.0
 41
0.0
 71
     6
 72
     1
  1
\A1;鼻隠シ前
  7
STYLE1
 73
     1
 44
1.0
  0
LEADER
  5
1B202
330
747D
100
AcDbEntity
  8
寸法
 48
50.0
100
AcDbLeader
  3
INABA_S50G
 71
     0
 73
     0
 75
     1
 40
150.0
 41
697.5
 76
     3
 10
12808.68985764767
 20
11743.78978150138
 30
0.0
 10
12639.20278459666
 20
12244.32712616799
 30
0.0
 10
12514.20278459666
 20
12244.32712616799
 30
0.0
340
1B201
1001
ACAD
1000
DSTYLE
1002
{
1070
     6
1000
DOTSMALL
1002
}
  0
MTEXT
  5
1B203
102
{ACAD_REACTORS
330
1B204
102
}
330
747D
100
AcDbEntity
  8
寸法
 62
     7
 48
50.0
100
AcDbMText
 10
12603.39443515959
 20
11412.78867508206
 30
0.0
 40
150.0
 41
0.0
 71
     6
 72
     1
  1
\A1;桁前
  7
STYLE1
 73
     1
 44
1.0
  0
LEADER
  5
1B204
330
747D
100
AcDbEntity
  8
寸法
 48
50.0
100
AcDbLeader
  3
INABA_S50G
 71
     0
 73
     0
 75
     1
 40
150.0
 41
337.5
 76
     3
 10
12942.82958141817
 20
11600.44622311198
 30
0.0
 10
12753.39443515959
 20
11312.78867508207
 30
0.0
 10
12628.39443515959
 20
11312.78867508207
 30
0.0
340
1B203
1001
ACAD
1000
DSTYLE
1002
{
1070
     6
1000
DOTSMALL
1002
}
  0
LINE
  5
1B205
330
747D
100
AcDbEntity
  8
部品1
100
AcDbLine
 10
12996.32958141817
 20
11537.59466173823
 30
0.0
 11
13003.65800854291
 21
11544.92308887182
 31
0.0
  0
LINE
  5
1B206
330
747D
100
AcDbEntity
  8
部品1
100
AcDbLine
 10
12996.32958141817
 20
11537.59466173823
 30
0.0
 11
12993.32958141817
 21
11537.59466173823
 31
0.0
  0
ARC
  5
1B207
330
747D
100
AcDbEntity
  8
部品1
100
AcDbCircle
 10
13002.95090176173
 20
11545.63019565301
 30
0.0
 40
1.0
100
AcDbArc
 50
314.9999999999995
 51
44.99999999999885
  0
LINE
  5
1B208
330
747D
100
AcDbEntity
  8
部品1
100
AcDbLine
 10
13003.65808760154
 20
11546.33722336673
 30
0.0
 11
13002.95090176173
 21
11547.04440920654
 31
0.0
  0
LINE
  5
1B209
330
747D
100
AcDbEntity
  8
部品1
100
AcDbLine
 10
13002.95090176173
 20
11547.04440920654
 30
0.0
 11
13010.02196957359
 21
11554.11547701841
 31
0.0
  0
ARC
  5
1B20A
330
747D
100
AcDbEntity
  8
部品1
100
AcDbCircle
 10
13011.43618313596
 20
11554.11547701841
 30
0.0
 40
1.0
100
AcDbArc
 50
225.0
 51
315.0
  0
LINE
  5
1B20B
330
747D
100
AcDbEntity
  8
部品1
100
AcDbLine
 10
13012.14328991715
 20
11553.40837023722
 30
0.0
 11
13017.47171704189
 21
11558.73679736197
 31
0.0
  0
LINE
  5
1B20C
330
747D
100
AcDbEntity
  8
部品1
100
AcDbLine
 10
13010.02196957359
 20
11554.11547701841
 30
0.0
 11
13010.72907635478
 21
11553.40837023722
 31
0.0
  0
LINE
  5
1B20D
330
747D
100
AcDbEntity
  8
部品1
100
AcDbLine
 10
13016.47171704189
 20
11559.73679736197
 30
0.0
 11
13016.47171704189
 21
11563.73679736196
 31
0.0
  0
LINE
  5
1B20E
330
747D
100
AcDbEntity
  8
部品1
100
AcDbLine
 10
13017.47171704189
 20
11558.73679736197
 30
0.0
 11
13017.47171704189
 21
11559.73679736197
 31
0.0
  0
LINE
  5
1B20F
330
747D
100
AcDbEntity
  8
部品1
100
AcDbLine
 10
13017.47171704189
 20
11559.73679736197
 30
0.0
 11
13016.47171704189
 21
11559.73679736197
 31
0.0
  0
LINE
  5
1B210
330
747D
100
AcDbEntity
  8
部品1
 48
50.0
100
AcDbLine
 10
12942.82958141817
 20
11548.73679736196
 30
0.0
 11
12992.82958141817
 21
11548.73679736196
 31
0.0
  0
LINE
  5
1B211
330
747D
100
AcDbEntity
  8
部品1
 48
50.0
100
AcDbLine
 10
12992.82958141817
 20
11548.73679736196
 30
0.0
 11
13007.82958141817
 21
11563.73679736196
 31
0.0
  0
LINE
  5
1B212
330
747D
100
AcDbEntity
  8
部品1
 48
50.0
100
AcDbLine
 10
13007.82958141817
 20
11563.73679736196
 30
0.0
 11
13007.82958141817
 21
11583.73679736196
 31
0.0
  0
LINE
  5
1B213
330
747D
100
AcDbEntity
  8
部品1
 48
50.0
100
AcDbLine
 10
13007.82958141817
 20
11583.73679736196
 30
0.0
 11
13029.82958141817
 21
11583.73679736196
 31
0.0
  0
LINE
  5
1B214
330
747D
100
AcDbEntity
  8
部品1
 48
50.0
100
AcDbLine
 10
12992.82958141817
 20
11548.73679736196
 30
0.0
 11
12993.32958141817
 21
11548.73679736196
 31
0.0
  0
LINE
  5
1B215
330
747D
100
AcDbEntity
  8
部品1
 48
50.0
100
AcDbLine
 10
13016.47171704189
 20
11563.73679736196
 30
0.0
 11
13007.82958141817
 21
11563.73679736196
 31
0.0
  0
LINE
  5
1B216
330
747D
100
AcDbEntity
  8
部品1
 48
50.0
100
AcDbLine
 10
13007.82958141817
 20
11583.73679736196
 30
0.0
 11
13029.82958141817
 21
11583.73679736196
 31
0.0
  0
LINE
  5
1B217
330
747D
100
AcDbEntity
  8
部品1
 48
50.0
100
AcDbLine
 10
12942.90115138926
 20
11673.5834066249
 30
0.0
 11
12840.91051664771
 21
11675.20571554939
 31
0.0
  0
LINE
  5
1B218
330
747D
100
AcDbEntity
  8
細線
 48
50.0
100
AcDbLine
 10
12942.82958141816
 20
11669.08397580098
 30
0.0
 11
12837.83932612734
 21
11670.75399803954
 31
0.0
  0
LINE
  5
1B219
330
747D
100
AcDbEntity
  8
細線
 48
50.0
100
AcDbLine
 10
12836.46236672542
 20
11792.00045751344
 30
0.0
 11
12835.32645796807
 21
11770.02980182694
 31
0.0
  0
LINE
  5
1B21A
330
747D
100
AcDbEntity
  8
部品1
 48
50.0
100
AcDbLine
 10
12885.04596203257
 20
11802.34146413898
 30
0.0
 11
12894.79555514413
 21
11773.96990383364
 31
0.0
  0
LINE
  5
1B21B
330
747D
100
AcDbEntity
  8
部品1
 48
50.0
100
AcDbLine
 10
12837.83932612734
 20
11670.75399803954
 30
0.0
 11
12828.8404644795
 21
11670.89713798173
 31
0.0
  0
ARC
  5
1B21C
330
747D
100
AcDbEntity
  8
部品1
 48
50.0
100
AcDbCircle
 10
12840.86280333365
 20
11672.20609500011
 30
0.0
 40
3.0
100
AcDbArc
 50
89.08870440418532
 51
179.0887044041912
  0
LINE
  5
1B21D
330
747D
100
AcDbEntity
  8
部品1
 48
50.0
100
AcDbLine
 10
12837.83932612734
 20
11670.75399803954
 30
0.0
 11
12837.86318278437
 21
11672.25380831417
 31
0.0
  0
LINE
  5
1B21E
330
747D
100
AcDbEntity
  8
部品1
100
AcDbLine
 10
12827.40813407784
 20
11786.54160810821
 30
0.0
 11
12834.10013006798
 21
11801.16076879152
 31
0.0
  0
ARC
  5
1B21F
330
747D
100
AcDbEntity
  8
部品1
 48
50.0
100
AcDbCircle
 10
12837.28255353196
 20
11799.70399808346
 30
0.0
 40
3.5
100
AcDbArc
 50
88.96475328401214
 51
155.4038180356338
  0
LINE
  5
1B220
330
747D
100
AcDbEntity
  8
部品1
 48
50.0
100
AcDbLine
 10
12826.02062901199
 20
11785.66612422278
 30
0.0
 11
12823.83301119891
 21
11785.70056056559
 31
0.0
  0
ARC
  5
1B221
330
747D
100
AcDbEntity
  8
部品1
100
AcDbCircle
 10
12826.04423830756
 20
11787.16593841166
 30
0.0
 40
1.5
100
AcDbArc
 50
269.0981540988973
 51
335.4038180356238
  0
LINE
  5
1B222
330
747D
100
AcDbEntity
  8
部品1
100
AcDbLine
 10
12807.83795305646
 20
11769.69937522018
 30
0.0
 11
12810.38580755856
 21
11692.20962380329
 31
0.0
  0
LINE
  5
1B223
330
747D
100
AcDbEntity
  8
部品1
100
AcDbLine
 10
12813.50358129389
 20
11688.67699207427
 30
0.0
 11
12813.59535490713
 21
11685.88581444999
 31
0.0
  0
ARC
  5
1B224
330
747D
100
AcDbEntity
  8
部品1
100
AcDbCircle
 10
12811.58515943173
 20
11692.24905836093
 30
0.0
 40
1.199999999999999
100
AcDbArc
 50
181.8832004883104
 51
260.9777304905277
  0
ARC
  5
1B225
330
747D
100
AcDbEntity
  8
部品1
100
AcDbCircle
 10
12811.00493155814
 20
11688.59483674583
 30
0.0
 40
2.5
100
AcDbArc
 50
1.883200488304429
 51
80.9777304905255
  0
ARC
  5
1B226
330
747D
100
AcDbEntity
  8
部品1
100
AcDbCircle
 10
12829.08698326884
 20
11686.39517748634
 30
0.0
 40
15.5
100
AcDbArc
 50
181.8832004883684
 51
269.0887044041854
  0
ARC
  5
1B227
330
747D
100
AcDbEntity
  8
部品1
100
AcDbCircle
 10
12823.32958141817
 20
11770.20873825652
 30
0.0
 40
15.5
100
AcDbArc
 50
88.13874351680366
 51
181.8832004883104
  0
LINE
  5
1B228
330
747D
100
AcDbEntity
  8
細線
 48
50.0
100
AcDbLine
 10
12972.31627363261
 20
11746.92589730425
 30
0.0
 11
12992.28959698398
 21
11745.89325297938
 31
0.0
  0
LINE
  5
1B229
330
747D
100
AcDbEntity
  8
細線
 48
50.0
100
AcDbLine
 10
12993.11571244387
 20
11761.87191166048
 30
0.0
 11
12992.28959698398
 21
11745.89325297938
 31
0.0
  0
LINE
  5
1B22A
330
747D
100
AcDbEntity
  8
細線
 48
50.0
100
AcDbLine
 10
12973.1423890925
 20
11762.90455598535
 30
0.0
 11
12972.31627363261
 21
11746.92589730425
 31
0.0
  0
LINE
  5
1B22B
330
747D
100
AcDbEntity
  8
部品1
 48
50.0
100
AcDbLine
 10
12942.82958141817
 20
11758.73679736196
 30
0.0
 11
12971.32958141817
 21
11758.73679736196
 31
0.0
  0
LINE
  5
1B22C
330
747D
100
AcDbEntity
  8
部品1
 48
50.0
100
AcDbLine
 10
12971.32958141817
 20
11758.73679736196
 30
0.0
 11
12971.32958141817
 21
11743.73679736196
 31
0.0
  0
LINE
  5
1B22D
330
747D
100
AcDbEntity
  8
部品1
 48
50.0
100
AcDbLine
 10
12971.32958141817
 20
11743.73679736196
 30
0.0
 11
12993.82958141817
 21
11743.73679736196
 31
0.0
  0
LINE
  5
1B22E
330
747D
100
AcDbEntity
  8
部品1
 48
50.0
100
AcDbLine
 10
13610.82958141817
 20
11537.59466173823
 30
0.0
 11
13610.82958141817
 21
9470.73679736197
 31
0.0
  0
LINE
  5
1B22F
330
747D
100
AcDbEntity
  8
部品1
 48
50.0
100
AcDbLine
 10
13574.82958141817
 20
11537.59466173823
 30
0.0
 11
13574.82958141817
 21
9470.73679736197
 31
0.0
  0
LINE
  5
1B230
330
747D
100
AcDbEntity
  8
部品1
 48
50.0
100
AcDbLine
 10
14154.82958141817
 20
11233.08847168111
 30
0.0
 11
14154.82958141817
 21
9470.73679736197
 31
0.0
  0
LINE
  5
1B231
330
747D
100
AcDbEntity
  8
部品1
 48
50.0
100
AcDbLine
 10
14190.82958141817
 20
11233.08847168111
 30
0.0
 11
14190.82958141817
 21
9470.73679736197
 31
0.0
  0
LINE
  5
1B232
330
747D
100
AcDbEntity
  8
部品1
 48
50.0
100
AcDbLine
 10
14736.32958141817
 20
11537.59466173823
 30
0.0
 11
14736.32958141817
 21
9470.73679736197
 31
0.0
  0
LINE
  5
1B233
330
747D
100
AcDbEntity
  8
部品1
 48
50.0
100
AcDbLine
 10
14772.32958141817
 20
11548.73679736196
 30
0.0
 11
14772.32958141817
 21
9430.736797361969
 31
0.0
  0
LINE
  5
1B234
330
747D
100
AcDbEntity
  8
細線
 48
50.0
100
AcDbLine
 10
14787.82958141817
 20
11548.73679736196
 30
0.0
 11
14787.82958141817
 21
9418.736797361971
 31
0.0
  0
LINE
  5
1B235
330
747D
100
AcDbEntity
  8
部品1
 48
50.0
100
AcDbLine
 10
14822.82958141817
 20
11643.73679736196
 30
0.0
 11
14822.82958141817
 21
9418.736797361971
 31
0.0
  0
MTEXT
  5
1B236
102
{ACAD_REACTORS
330
1B237
102
}
330
747D
100
AcDbEntity
  8
寸法
 62
     7
 48
50.0
100
AcDbMText
 10
15062.3774760777
 20
10099.22034129159
 30
0.0
 40
150.0
 41
0.0
 71
     4
 72
     1
  1
\A1;内壁
  7
STYLE1
 73
     1
 44
1.0
  0
LEADER
  5
1B237
330
747D
100
AcDbEntity
  8
寸法
 48
50.0
100
AcDbLeader
  3
INABA_S50G
 71
     0
 73
     0
 74
     0
 75
     1
 40
150.0
 41
320.0
 76
     3
 10
14779.99258057844
 20
9795.23084392601
 30
0.0
 10
14912.3774760777
 20
9999.220341291591
 30
0.0
 10
15037.3774760777
 20
9999.220341291591
 30
0.0
340
1B236
1001
ACAD
1000
DSTYLE
1002
{
1070
     6
1000
DOTSMALL
1002
}
  0
MTEXT
  5
1B238
102
{ACAD_REACTORS
330
1B239
102
}
330
747D
100
AcDbEntity
  8
寸法
 62
     7
 48
50.0
100
AcDbMText
 10
15093.03052825934
 20
10508.28252840044
 30
0.0
 40
150.0
 41
0.0
 71
     4
 72
     1
  1
\A1;壁パネル
  7
STYLE1
 73
     1
 44
1.0
  0
LEADER
  5
1B239
330
747D
100
AcDbEntity
  8
寸法
 48
50.0
100
AcDbLeader
  3
INABA_S50G
 71
     0
 73
     0
 74
     0
 75
     1
 40
150.0
 41
719.9999999999999
 76
     3
 10
14810.64563276007
 20
10204.29303103486
 30
0.0
 10
14943.03052825934
 20
10408.28252840044
 30
0.0
 10
15068.03052825934
 20
10408.28252840044
 30
0.0
340
1B238
1001
ACAD
1000
DSTYLE
1002
{
1070
     6
1000
DOTSMALL
1002
}
  0
LINE
  5
1B23A
330
747D
100
AcDbEntity
  8
部品1
 48
50.0
100
AcDbLine
 10
14822.82958141817
 20
9418.736797361971
 30
0.0
 11
14787.32958141817
 21
9418.736797361971
 31
0.0
  0
LINE
  5
1B23B
330
747D
100
AcDbEntity
  8
細線
 48
50.0
100
AcDbLine
 10
14691.82958141817
 20
9081.994236983929
 30
0.0
 11
14838.5721417962
 21
9228.736797361971
 31
0.0
  0
LINE
  5
1B23C
330
747D
100
AcDbEntity
  8
細線
 48
50.0
100
AcDbLine
 10
14691.82958141817
 20
9108.510741278424
 30
0.0
 11
14812.0556375017
 21
9228.736797361969
 31
0.0
  0
LINE
  5
1B23D
330
747D
100
AcDbEntity
  8
破線
 48
3.0
100
AcDbLine
 10
14770.82958141817
 20
9122.736797361969
 30
0.0
 11
14812.82958141817
 21
9122.736797361969
 31
0.0
  0
LINE
  5
1B23E
330
747D
100
AcDbEntity
  8
細線
 48
50.0
100
AcDbLine
 10
14735.53913320722
 20
9028.73679736197
 30
0.0
 11
14891.82958141817
 21
9185.02724557292
 31
0.0
  0
LINE
  5
1B23F
330
747D
100
AcDbEntity
  8
細線
 48
50.0
100
AcDbLine
 10
14762.05563750172
 20
9028.73679736197
 30
0.0
 11
14891.82958141817
 21
9158.510741278425
 31
0.0
  0
LINE
  5
1B240
330
747D
100
AcDbEntity
  8
細線
 48
50.0
100
AcDbLine
 10
14788.57214179622
 20
9028.73679736197
 30
0.0
 11
14891.82958141817
 21
9131.994236983926
 31
0.0
  0
LINE
  5
1B241
330
747D
100
AcDbEntity
  8
部品1
 48
50.0
100
AcDbLine
 10
14691.82958141817
 20
9028.73679736197
 30
0.0
 11
14891.82958141817
 21
9028.73679736197
 31
0.0
  0
LINE
  5
1B242
330
747D
100
AcDbEntity
  8
細線
 48
50.0
100
AcDbLine
 10
14822.82958141817
 20
9276.010741278422
 30
0.0
 11
14735.10352533462
 21
9363.736797361971
 31
0.0
  0
LINE
  5
1B243
330
747D
100
AcDbEntity
  8
細線
 48
50.0
100
AcDbLine
 10
14822.82958141817
 20
9302.527245572917
 30
0.0
 11
14761.62002962911
 21
9363.736797361969
 31
0.0
  0
LINE
  5
1B244
330
747D
100
AcDbEntity
  8
部品1
 48
50.0
100
AcDbLine
 10
14158.82958141816
 20
9412.73679736197
 30
0.0
 11
14186.82958141816
 21
9412.736797361965
 31
0.0
  0
LINE
  5
1B245
330
747D
100
AcDbEntity
  8
部品1
 48
50.0
100
AcDbLine
 10
14152.82958141816
 20
9418.736797361971
 30
0.0
 11
14158.82958141816
 21
9418.736797361971
 31
0.0
  0
LINE
  5
1B246
330
747D
100
AcDbEntity
  8
部品1
 48
50.0
100
AcDbLine
 10
14158.82958141816
 20
9412.73679736197
 30
0.0
 11
14158.82958141816
 21
9418.736797361971
 31
0.0
  0
LINE
  5
1B247
330
747D
100
AcDbEntity
  8
部品1
 48
50.0
100
AcDbLine
 10
14152.82958141816
 20
9363.736797361969
 30
0.0
 11
14152.82958141816
 21
9418.736797361971
 31
0.0
  0
LINE
  5
1B248
330
747D
100
AcDbEntity
  8
部品1
 48
50.0
100
AcDbLine
 10
13902.82958141817
 20
9418.736797361971
 30
0.0
 11
13902.82958141817
 21
9363.736797361969
 31
0.0
  0
LINE
  5
1B249
330
747D
100
AcDbEntity
  8
部品1
 48
50.0
100
AcDbLine
 10
13896.82958141817
 20
9418.736797361971
 30
0.0
 11
13896.82958141817
 21
9412.73679736197
 31
0.0
  0
LINE
  5
1B24A
330
747D
100
AcDbEntity
  8
部品1
 48
50.0
100
AcDbLine
 10
13896.82958141817
 20
9418.736797361971
 30
0.0
 11
13902.82958141817
 21
9418.736797361971
 31
0.0
  0
LINE
  5
1B24B
330
747D
100
AcDbEntity
  8
部品1
 48
50.0
100
AcDbLine
 10
13578.82958141817
 20
9412.73679736197
 30
0.0
 11
13606.82958141817
 21
9412.736797361965
 31
0.0
  0
LINE
  5
1B24C
330
747D
100
AcDbEntity
  8
部品1
 48
50.0
100
AcDbLine
 10
13572.82958141817
 20
9363.736797361969
 30
0.0
 11
13572.82958141817
 21
9418.736797361971
 31
0.0
  0
LINE
  5
1B24D
330
747D
100
AcDbEntity
  8
部品1
 48
50.0
100
AcDbLine
 10
13572.82958141817
 20
9418.736797361971
 30
0.0
 11
13578.82958141817
 21
9418.736797361971
 31
0.0
  0
LINE
  5
1B24E
330
747D
100
AcDbEntity
  8
部品1
 48
50.0
100
AcDbLine
 10
13578.82958141817
 20
9412.73679736197
 30
0.0
 11
13578.82958141817
 21
9418.736797361971
 31
0.0
  0
LINE
  5
1B24F
330
747D
100
AcDbEntity
  8
部品1
 48
50.0
100
AcDbLine
 10
13612.82958141817
 20
9418.736797361971
 30
0.0
 11
13612.82958141817
 21
9363.736797361969
 31
0.0
  0
LINE
  5
1B250
330
747D
100
AcDbEntity
  8
部品1
 48
50.0
100
AcDbLine
 10
13606.82958141817
 20
9418.736797361971
 30
0.0
 11
13606.82958141817
 21
9412.73679736197
 31
0.0
  0
LINE
  5
1B251
330
747D
100
AcDbEntity
  8
部品1
 48
50.0
100
AcDbLine
 10
13606.82958141817
 20
9418.736797361971
 30
0.0
 11
13612.82958141817
 21
9418.736797361971
 31
0.0
  0
LINE
  5
1B252
330
747D
100
AcDbEntity
  8
部品1
 48
50.0
100
AcDbLine
 10
13862.82958141817
 20
9363.736797361969
 30
0.0
 11
13862.82958141817
 21
9418.736797361971
 31
0.0
  0
LINE
  5
1B253
330
747D
100
AcDbEntity
  8
部品1
 48
50.0
100
AcDbLine
 10
13868.82958141817
 20
9412.73679736197
 30
0.0
 11
13868.82958141817
 21
9418.736797361971
 31
0.0
  0
LINE
  5
1B254
330
747D
100
AcDbEntity
  8
部品1
 48
50.0
100
AcDbLine
 10
13862.82958141817
 20
9418.736797361971
 30
0.0
 11
13868.82958141817
 21
9418.736797361971
 31
0.0
  0
LINE
  5
1B255
330
747D
100
AcDbEntity
  8
部品1
 48
50.0
100
AcDbLine
 10
13868.82958141817
 20
9412.73679736197
 30
0.0
 11
13896.82958141817
 21
9412.736797361965
 31
0.0
  0
LINE
  5
1B256
330
747D
100
AcDbEntity
  8
部品1
 48
50.0
100
AcDbLine
 10
13782.82958141817
 20
9363.736797361966
 30
0.0
 11
13782.82958141817
 21
9228.736797361969
 31
0.0
  0
LINE
  5
1B257
330
747D
100
AcDbEntity
  8
部品1
 48
50.0
100
AcDbLine
 10
13982.82958141817
 20
9363.736797361966
 30
0.0
 11
13982.82958141817
 21
9228.736797361969
 31
0.0
  0
LINE
  5
1B258
330
747D
100
AcDbEntity
  8
細線
 48
50.0
100
AcDbLine
 10
13906.62002962911
 20
9228.736797361969
 30
0.0
 11
13782.82958141817
 21
9352.527245572918
 31
0.0
  0
LINE
  5
1B259
330
747D
100
AcDbEntity
  8
細線
 48
50.0
100
AcDbLine
 10
13880.10352533462
 20
9228.736797361969
 30
0.0
 11
13782.82958141817
 21
9326.010741278423
 31
0.0
  0
LINE
  5
1B25A
330
747D
100
AcDbEntity
  8
細線
 48
50.0
100
AcDbLine
 10
13982.82958141817
 20
9276.010741278422
 30
0.0
 11
13895.10352533462
 21
9363.736797361971
 31
0.0
  0
LINE
  5
1B25B
330
747D
100
AcDbEntity
  8
細線
 48
50.0
100
AcDbLine
 10
13982.82958141817
 20
9302.527245572917
 30
0.0
 11
13921.62002962911
 21
9363.736797361969
 31
0.0
  0
LINE
  5
1B25C
330
747D
100
AcDbEntity
  8
部品1
 48
50.0
100
AcDbLine
 10
14758.32958141817
 20
9411.736797361969
 30
0.0
 11
14734.32958141817
 21
9411.736797361969
 31
0.0
  0
LINE
  5
1B25D
330
747D
100
AcDbEntity
  8
部品1
 48
50.0
100
AcDbLine
 10
14734.32958141817
 20
9411.736797361969
 30
0.0
 11
14734.32958141817
 21
9363.736797361969
 31
0.0
  0
LINE
  5
1B25E
330
747D
100
AcDbEntity
  8
部品1
 48
50.0
100
AcDbLine
 10
14763.32958141816
 20
9470.73679736197
 30
0.0
 11
14763.32958141816
 21
9430.736797361969
 31
0.0
  0
LINE
  5
1B25F
330
747D
100
AcDbEntity
  8
部品1
 48
50.0
100
AcDbLine
 10
14763.32958141816
 20
9430.736797361969
 30
0.0
 11
14772.32958141817
 21
9430.736797361969
 31
0.0
  0
LINE
  5
1B260
330
747D
100
AcDbEntity
  8
部品1
 48
50.0
100
AcDbLine
 10
14758.32958141817
 20
9418.736797361971
 30
0.0
 11
14772.32958141817
 21
9418.736797361971
 31
0.0
  0
LINE
  5
1B261
330
747D
100
AcDbEntity
  8
部品1
 48
50.0
100
AcDbLine
 10
14758.32958141817
 20
9418.736797361971
 30
0.0
 11
14758.32958141817
 21
9411.736797361969
 31
0.0
  0
LINE
  5
1B262
330
747D
100
AcDbEntity
  8
部品1
 48
50.0
100
AcDbLine
 10
14787.32958141817
 20
9418.736797361971
 30
0.0
 11
14787.32958141817
 21
9430.736797361969
 31
0.0
  0
LINE
  5
1B263
330
747D
100
AcDbEntity
  8
部品1
 48
50.0
100
AcDbLine
 10
14787.32958141817
 20
9430.736797361969
 30
0.0
 11
14772.32958141817
 21
9430.736797361969
 31
0.0
  0
LINE
  5
1B264
330
747D
100
AcDbEntity
  8
部品1
 48
50.0
100
AcDbLine
 10
14772.32958141817
 20
9430.736797361969
 30
0.0
 11
14772.32958141817
 21
9418.736797361971
 31
0.0
  0
LINE
  5
1B265
330
747D
100
AcDbEntity
  8
部品1
 48
50.0
100
AcDbLine
 10
14772.32958141816
 20
9470.73679736197
 30
0.0
 11
14763.32958141816
 21
9470.73679736197
 31
0.0
  0
LINE
  5
1B266
330
747D
100
AcDbEntity
  8
部品1
 48
50.0
100
AcDbLine
 10
14476.82958141816
 20
9418.736797361971
 30
0.0
 11
14482.82958141816
 21
9418.736797361971
 31
0.0
  0
LINE
  5
1B267
330
747D
100
AcDbEntity
  8
部品1
 48
50.0
100
AcDbLine
 10
14442.82958141816
 20
9418.736797361971
 30
0.0
 11
14448.82958141816
 21
9418.736797361971
 31
0.0
  0
LINE
  5
1B268
330
747D
100
AcDbEntity
  8
部品1
 48
50.0
100
AcDbLine
 10
14448.82958141816
 20
9412.73679736197
 30
0.0
 11
14476.82958141816
 21
9412.736797361965
 31
0.0
  0
LINE
  5
1B269
330
747D
100
AcDbEntity
  8
部品1
 48
50.0
100
AcDbLine
 10
14476.82958141816
 20
9418.736797361971
 30
0.0
 11
14476.82958141816
 21
9412.73679736197
 31
0.0
  0
LINE
  5
1B26A
330
747D
100
AcDbEntity
  8
部品1
 48
50.0
100
AcDbLine
 10
14448.82958141816
 20
9412.73679736197
 30
0.0
 11
14448.82958141816
 21
9418.736797361971
 31
0.0
  0
LINE
  5
1B26B
330
747D
100
AcDbEntity
  8
部品1
 48
50.0
100
AcDbLine
 10
14482.82958141816
 20
9418.736797361971
 30
0.0
 11
14482.82958141816
 21
9363.736797361969
 31
0.0
  0
LINE
  5
1B26C
330
747D
100
AcDbEntity
  8
部品1
 48
50.0
100
AcDbLine
 10
14442.82958141816
 20
9363.736797361969
 30
0.0
 11
14442.82958141816
 21
9418.736797361971
 31
0.0
  0
LINE
  5
1B26D
330
747D
100
AcDbEntity
  8
部品1
 48
50.0
100
AcDbLine
 10
14186.82958141816
 20
9418.736797361971
 30
0.0
 11
14192.82958141816
 21
9418.736797361971
 31
0.0
  0
LINE
  5
1B26E
330
747D
100
AcDbEntity
  8
部品1
 48
50.0
100
AcDbLine
 10
14186.82958141816
 20
9418.736797361971
 30
0.0
 11
14186.82958141816
 21
9412.73679736197
 31
0.0
  0
LINE
  5
1B26F
330
747D
100
AcDbEntity
  8
部品1
 48
50.0
100
AcDbLine
 10
14192.82958141816
 20
9418.736797361971
 30
0.0
 11
14192.82958141816
 21
9363.736797361969
 31
0.0
  0
MTEXT
  5
1B270
102
{ACAD_REACTORS
330
1B271
102
}
330
747D
100
AcDbEntity
  8
寸法
 62
     7
 48
50.0
100
AcDbMText
 10
14553.56909905212
 20
9701.080712269295
 30
0.0
 40
150.0
 41
0.0
 71
     6
 72
     1
  1
\A1;巾木
  7
STYLE1
 73
     1
 44
1.0
  0
LEADER
  5
1B271
330
747D
100
AcDbEntity
  8
寸法
 48
50.0
100
AcDbLeader
  3
INABA_S50G
 71
     0
 73
     0
 75
     1
 40
150.0
 41
310.0
 76
     3
 10
14766.76541320617
 20
9455.070269982757
 30
0.0
 10
14703.56909905212
 20
9601.080712269293
 30
0.0
 10
14578.56909905212
 20
9601.080712269293
 30
0.0
340
1B270
1001
ACAD
1000
DSTYLE
1002
{
1070
     6
1000
DOTSMALL
1002
}
  0
LINE
  5
1B272
330
747D
100
AcDbEntity
  8
破線
 48
3.0
100
AcDbLine
 10
14770.82958141817
 20
9228.736797361969
 30
0.0
 11
14770.82958141817
 21
9122.736797361969
 31
0.0
  0
LINE
  5
1B273
330
747D
100
AcDbEntity
  8
部品1
 48
50.0
100
AcDbLine
 10
14691.82958141817
 20
9228.736797361969
 30
0.0
 11
14691.82958141817
 21
9028.73679736197
 31
0.0
  0
LINE
  5
1B274
330
747D
100
AcDbEntity
  8
細線
 48
50.0
100
AcDbLine
 10
14691.82958141817
 20
9135.027245572919
 30
0.0
 11
14785.53913320723
 21
9228.736797361969
 31
0.0
  0
LINE
  5
1B275
330
747D
100
AcDbEntity
  8
部品1
 48
50.0
100
AcDbLine
 10
14622.82958141817
 20
9363.736797361969
 30
0.0
 11
14622.82958141817
 21
9228.736797361969
 31
0.0
  0
LINE
  5
1B276
330
747D
100
AcDbEntity
  8
細線
 48
50.0
100
AcDbLine
 10
14746.62002962911
 20
9228.736797361969
 30
0.0
 11
14622.82958141817
 21
9352.527245572918
 31
0.0
  0
LINE
  5
1B277
330
747D
100
AcDbEntity
  8
細線
 48
50.0
100
AcDbLine
 10
14720.10352533462
 20
9228.736797361969
 30
0.0
 11
14622.82958141817
 21
9326.010741278423
 31
0.0
  0
MTEXT
  5
1B278
102
{ACAD_REACTORS
330
1B279
102
}
330
747D
100
AcDbEntity
  8
寸法
 62
     7
 48
50.0
100
AcDbMText
 10
15115.21447691743
 20
9692.226294727554
 30
0.0
 40
150.0
 41
0.0
 71
     4
 72
     1
  1
\A1;土台前後
  7
STYLE1
 73
     1
 44
1.0
  0
LEADER
  5
1B279
330
747D
100
AcDbEntity
  8
寸法
 48
50.0
100
AcDbLeader
  3
INABA_S50G
 71
     0
 73
     0
 74
     0
 75
     1
 40
150.0
 41
719.9999999999995
 76
     3
 10
14822.82958141817
 20
9388.236797361969
 30
0.0
 10
14965.21447691743
 20
9592.226294727552
 30
0.0
 10
15090.21447691743
 20
9592.226294727552
 30
0.0
340
1B278
1001
ACAD
1000
DSTYLE
1002
{
1070
     6
1000
DOTSMALL
1002
}
  0
LINE
  5
1B27A
330
747D
100
AcDbEntity
  8
部品1
 48
50.0
100
AcDbLine
 10
14822.82958141817
 20
9412.736797361965
 30
0.0
 11
14822.82958141817
 21
9363.736797361969
 31
0.0
  0
LINE
  5
1B27B
330
747D
100
AcDbEntity
  8
部品1
 48
50.0
100
AcDbLine
 10
14816.82958141817
 20
9412.73679736197
 30
0.0
 11
14816.82958141817
 21
9418.736797361971
 31
0.0
  0
LINE
  5
1B27C
330
747D
100
AcDbEntity
  8
部品1
 48
50.0
100
AcDbLine
 10
14822.82958141817
 20
9412.73679736197
 30
0.0
 11
14816.82958141817
 21
9412.73679736197
 31
0.0
  0
LINE
  5
1B27D
330
747D
100
AcDbEntity
  8
部品1
 48
50.0
100
AcDbLine
 10
14891.82958141817
 20
9028.73679736197
 30
0.0
 11
14891.82958141817
 21
9228.736797361969
 31
0.0
  0
LINE
  5
1B27E
330
747D
100
AcDbEntity
  8
破線
 48
3.0
100
AcDbLine
 10
14812.82958141817
 20
9228.736797361969
 30
0.0
 11
14812.82958141817
 21
9122.736797361969
 31
0.0
  0
LINE
  5
1B27F
330
747D
100
AcDbEntity
  8
部品1
 48
50.0
100
AcDbLine
 10
14822.82958141817
 20
9363.736797361969
 30
0.0
 11
14822.82958141817
 21
9228.736797361969
 31
0.0
  0
LINE
  5
1B280
330
747D
100
AcDbEntity
  8
部品1
 48
50.0
100
AcDbLine
 10
14822.82958141816
 20
11548.73679736196
 30
0.0
 11
14772.82958141816
 21
11548.73679736196
 31
0.0
  0
LINE
  5
1B281
330
747D
100
AcDbEntity
  8
部品1
 48
50.0
100
AcDbLine
 10
14827.82958141816
 20
11663.73679736196
 30
0.0
 11
14794.32958141816
 21
11663.73679736196
 31
0.0
  0
LINE
  5
1B282
330
747D
100
AcDbEntity
  8
部品1
 48
50.0
100
AcDbLine
 10
14147.82958141817
 20
11583.73679736196
 30
0.0
 11
14147.82958141817
 21
11696.73679736196
 31
0.0
  0
LINE
  5
1B283
330
747D
100
AcDbEntity
  8
部品1
 48
50.0
100
AcDbLine
 10
13567.82958141817
 20
11583.73679736196
 30
0.0
 11
13567.82958141817
 21
11726.73679736196
 31
0.0
  0
LINE
  5
1B284
330
747D
100
AcDbEntity
  8
部品1
 48
50.0
100
AcDbLine
 10
14197.82958141817
 20
11583.73679736196
 30
0.0
 11
14147.82958141817
 21
11583.73679736196
 31
0.0
  0
MTEXT
  5
1B285
102
{ACAD_REACTORS
330
1B286
102
}
330
747D
100
AcDbEntity
  8
寸法
 62
     7
 48
50.0
100
AcDbMText
 10
14535.28840950222
 20
11362.92239508256
 30
0.0
 40
150.0
 41
0.0
 71
     6
 72
     1
  1
\A1;回リ縁
  7
STYLE1
 73
     1
 44
1.0
  0
LEADER
  5
1B286
330
747D
100
AcDbEntity
  8
寸法
 48
50.0
100
AcDbLeader
  3
INABA_S50G
 71
     0
 73
     0
 75
     1
 40
150.0
 41
530.0000000000001
 76
     3
 10
14759.17272716866
 20
11550.57994311248
 30
0.0
 10
14685.28840950222
 20
11262.92239508256
 30
0.0
 10
14560.28840950222
 20
11262.92239508256
 30
0.0
340
1B285
1001
ACAD
1000
DSTYLE
1002
{
1070
     6
1000
DOTSMALL
1002
}
  0
LINE
  5
1B287
330
747D
100
AcDbEntity
  8
部品1
 48
50.0
100
AcDbLine
 10
14154.82958141817
 20
11537.59466173823
 30
0.0
 11
14154.82958141817
 21
11454.72281612389
 31
0.0
  0
LINE
  5
1B288
330
747D
100
AcDbEntity
  8
部品1
 48
50.0
100
AcDbLine
 10
13617.82958141817
 20
11583.73679736196
 30
0.0
 11
13567.82958141817
 21
11583.73679736196
 31
0.0
  0
LINE
  5
1B289
330
747D
100
AcDbEntity
  8
部品1
 48
50.0
100
AcDbLine
 10
13617.82958141817
 20
11595.73679736196
 30
0.0
 11
13617.82958141817
 21
11583.73679736196
 31
0.0
  0
LINE
  5
1B28A
330
747D
100
AcDbEntity
  8
部品1
 48
50.0
100
AcDbLine
 10
14757.82958141816
 20
11583.73679736196
 30
0.0
 11
14735.82958141816
 21
11583.73679736196
 31
0.0
  0
LINE
  5
1B28B
330
747D
100
AcDbEntity
  8
部品1
 48
50.0
100
AcDbLine
 10
14757.82958141816
 20
11583.73679736196
 30
0.0
 11
14735.82958141816
 21
11583.73679736196
 31
0.0
  0
LINE
  5
1B28C
330
747D
100
AcDbEntity
  8
部品1
 48
50.0
100
AcDbLine
 10
14749.18744579443
 20
11563.73679736196
 30
0.0
 11
14757.82958141816
 21
11563.73679736196
 31
0.0
  0
ARC
  5
1B28D
330
747D
100
AcDbEntity
  8
部品1
100
AcDbCircle
 10
14762.7082610746
 20
11545.63019565301
 30
0.0
 40
1.0
100
AcDbArc
 50
135.0000000000011
 51
225.0000000000003
  0
LINE
  5
1B28E
330
747D
100
AcDbEntity
  8
部品1
100
AcDbLine
 10
14762.00107523478
 20
11546.33722336673
 30
0.0
 11
14762.7082610746
 21
11547.04440920654
 31
0.0
  0
LINE
  5
1B28F
330
747D
100
AcDbEntity
  8
部品1
100
AcDbLine
 10
14762.7082610746
 20
11547.04440920654
 30
0.0
 11
14755.63719326274
 21
11554.11547701841
 31
0.0
  0
ARC
  5
1B290
330
747D
100
AcDbEntity
  8
部品1
100
AcDbCircle
 10
14754.22297970037
 20
11554.11547701841
 30
0.0
 40
1.0
100
AcDbArc
 50
225.0
 51
315.0
  0
LINE
  5
1B291
330
747D
100
AcDbEntity
  8
部品1
100
AcDbLine
 10
14753.51587291917
 20
11553.40837023722
 30
0.0
 11
14748.18744579443
 21
11558.73679736197
 31
0.0
  0
LINE
  5
1B292
330
747D
100
AcDbEntity
  8
部品1
100
AcDbLine
 10
14755.63719326274
 20
11554.11547701841
 30
0.0
 11
14754.93008648155
 21
11553.40837023722
 31
0.0
  0
LINE
  5
1B293
330
747D
100
AcDbEntity
  8
部品1
100
AcDbLine
 10
14749.18744579443
 20
11559.73679736197
 30
0.0
 11
14749.18744579443
 21
11563.73679736196
 31
0.0
  0
LINE
  5
1B294
330
747D
100
AcDbEntity
  8
部品1
100
AcDbLine
 10
14748.18744579443
 20
11558.73679736197
 30
0.0
 11
14748.18744579443
 21
11559.73679736197
 31
0.0
  0
LINE
  5
1B295
330
747D
100
AcDbEntity
  8
部品1
100
AcDbLine
 10
14748.18744579443
 20
11559.73679736197
 30
0.0
 11
14749.18744579443
 21
11559.73679736197
 31
0.0
  0
LINE
  5
1B296
330
747D
100
AcDbEntity
  8
部品1
 48
50.0
100
AcDbLine
 10
14757.82958141816
 20
11563.73679736196
 30
0.0
 11
14757.82958141816
 21
11583.73679736196
 31
0.0
  0
LINE
  5
1B297
330
747D
100
AcDbEntity
  8
部品1
100
AcDbLine
 10
14769.32958141816
 20
11537.59466173823
 30
0.0
 11
14772.32958141816
 21
11537.59466173823
 31
0.0
  0
LINE
  5
1B298
330
747D
100
AcDbEntity
  8
部品1
 48
50.0
100
AcDbLine
 10
14772.82958141816
 20
11548.73679736196
 30
0.0
 11
14772.32958141816
 21
11548.73679736196
 31
0.0
  0
LINE
  5
1B299
330
747D
100
AcDbEntity
  8
部品1
100
AcDbLine
 10
14769.32958141816
 20
11537.59466173823
 30
0.0
 11
14762.00115429341
 21
11544.92308887182
 31
0.0
  0
LINE
  5
1B29A
330
747D
100
AcDbEntity
  8
部品1
 48
50.0
100
AcDbLine
 10
14772.82958141816
 20
11548.73679736196
 30
0.0
 11
14757.82958141816
 21
11563.73679736196
 31
0.0
  0
LINE
  5
1B29B
330
747D
100
AcDbEntity
  8
部品1
 48
50.0
100
AcDbLine
 10
14197.82958141817
 20
11595.73679736196
 30
0.0
 11
14197.82958141817
 21
11583.73679736196
 31
0.0
  0
LINE
  5
1B29C
330
747D
100
AcDbEntity
  8
部品1
 48
50.0
100
AcDbLine
 10
14190.82958141817
 20
11537.59466173823
 30
0.0
 11
14190.82958141817
 21
11454.72281612389
 31
0.0
  0
LINE
  5
1B29D
330
747D
100
AcDbEntity
  8
部品1
 48
50.0
100
AcDbLine
 10
14147.82958141817
 20
11696.73679736196
 30
0.0
 11
14177.82958141817
 21
11695.23679736196
 31
0.0
  0
LINE
  5
1B29E
330
747D
100
AcDbEntity
  8
細線
 48
50.0
100
AcDbLine
 10
13619.07966627575
 20
11729.50883851911
 30
0.0
 11
13618.25355081586
 21
11713.53017983802
 31
0.0
  0
LINE
  5
1B29F
330
747D
100
AcDbEntity
  8
細線
 48
50.0
100
AcDbLine
 10
13599.10634292439
 20
11730.54148284398
 30
0.0
 11
13598.2802274645
 21
11714.56282416289
 31
0.0
  0
LINE
  5
1B2A0
330
747D
100
AcDbEntity
  8
細線
 48
50.0
100
AcDbLine
 10
13598.2802274645
 20
11714.56282416289
 30
0.0
 11
13618.25355081586
 21
11713.53017983801
 31
0.0
  0
LINE
  5
1B2A1
330
747D
100
AcDbEntity
  8
部品1
 48
50.0
100
AcDbLine
 10
13597.82958141817
 20
11725.23679736196
 30
0.0
 11
13597.82958141817
 21
11714.23679736196
 31
0.0
  0
LINE
  5
1B2A2
330
747D
100
AcDbEntity
  8
部品1
 48
50.0
100
AcDbLine
 10
13567.82958141817
 20
11726.73679736196
 30
0.0
 11
13597.82958141817
 21
11725.23679736196
 31
0.0
  0
LINE
  5
1B2A3
330
747D
100
AcDbEntity
  8
部品1
 48
50.0
100
AcDbLine
 10
13597.82958141817
 20
11714.23679736196
 30
0.0
 11
13617.82958141817
 21
11713.23679736196
 31
0.0
  0
LINE
  5
1B2A4
330
747D
100
AcDbEntity
  8
細線
 48
50.0
100
AcDbLine
 10
14774.43655553566
 20
11669.77552754711
 30
0.0
 11
14773.61044007577
 21
11653.79686886602
 31
0.0
  0
LINE
  5
1B2A5
330
747D
100
AcDbEntity
  8
細線
 48
50.0
100
AcDbLine
 10
14794.40987888703
 20
11668.74288322225
 30
0.0
 11
14793.58376342714
 21
11652.76422454115
 31
0.0
  0
LINE
  5
1B2A6
330
747D
100
AcDbEntity
  8
細線
 48
50.0
100
AcDbLine
 10
14773.61044007577
 20
11653.79686886602
 30
0.0
 11
14793.58376342714
 21
11652.76422454115
 31
0.0
  0
LINE
  5
1B2A7
330
747D
100
AcDbEntity
  8
細線
 48
50.0
100
AcDbLine
 10
14178.30553758823
 20
11684.57483296871
 30
0.0
 11
14198.27886093959
 21
11683.54218864384
 31
0.0
  0
LINE
  5
1B2A8
330
747D
100
AcDbEntity
  8
細線
 48
50.0
100
AcDbLine
 10
14199.10497639949
 20
11699.52084732494
 30
0.0
 11
14198.2788609396
 21
11683.54218864385
 31
0.0
  0
LINE
  5
1B2A9
330
747D
100
AcDbEntity
  8
細線
 48
50.0
100
AcDbLine
 10
14179.13165304812
 20
11700.55349164981
 30
0.0
 11
14178.30553758823
 21
11684.57483296871
 31
0.0
  0
MTEXT
  5
1B2AA
102
{ACAD_REACTORS
330
1B2AB
102
}
330
747D
100
AcDbEntity
  8
寸法
 62
     7
 48
50.0
100
AcDbMText
 10
14442.84038892262
 20
11975.2915960787
 30
0.0
 40
150.0
 41
0.0
 71
     4
 72
     1
  1
\A1;妻板
  7
STYLE1
 73
     1
 44
1.0
  0
LEADER
  5
1B2AB
330
747D
100
AcDbEntity
  8
寸法
 48
50.0
100
AcDbLeader
  3
INABA_S50G
 71
     0
 73
     0
 74
     0
 75
     1
 40
150.0
 41
319.9999999999998
 76
     3
 10
14243.39974491689
 20
11741.95548955546
 30
0.0
 10
14292.84038892262
 20
11875.2915960787
 30
0.0
 10
14417.84038892262
 20
11875.2915960787
 30
0.0
340
1B2AA
1001
ACAD
1000
DSTYLE
1002
{
1070
     6
1000
DOTSMALL
1002
}
  0
LINE
  5
1B2AC
330
747D
100
AcDbEntity
  8
部品1
 48
50.0
100
AcDbLine
 10
14794.32958141816
 20
11663.73679736196
 30
0.0
 11
14794.32958141816
 21
11648.73679736196
 31
0.0
  0
LINE
  5
1B2AD
330
747D
100
AcDbEntity
  8
部品1
 48
50.0
100
AcDbLine
 10
14794.32958141816
 20
11648.73679736196
 30
0.0
 11
14770.82958141816
 21
11648.73679736196
 31
0.0
  0
LINE
  5
1B2AE
330
747D
100
AcDbEntity
  8
部品1
 48
50.0
100
AcDbLine
 10
14177.82958141817
 20
11695.23679736196
 30
0.0
 11
14177.82958141817
 21
11684.23679736196
 31
0.0
  0
LINE
  5
1B2AF
330
747D
100
AcDbEntity
  8
部品1
 48
50.0
100
AcDbLine
 10
14177.82958141817
 20
11684.23679736196
 30
0.0
 11
14197.82958141817
 21
11683.23679736196
 31
0.0
  0
ARC
  5
1B2B0
330
747D
100
AcDbEntity
  8
部品1
100
AcDbCircle
 10
14890.36498189196
 20
11635.15608030179
 30
0.0
 40
15.5
100
AcDbArc
 50
269.0887044041854
 51
353.9245361249208
  0
MTEXT
  5
1B2B1
102
{ACAD_REACTORS
330
1B2B2
102
}
330
747D
100
AcDbEntity
  8
寸法
 62
     7
 48
50.0
100
AcDbMText
 10
15190.49506749086
 20
11208.8835600829
 30
0.0
 40
150.0
 41
0.0
 71
     4
 72
     1
  1
\A1;桁後
  7
STYLE1
 73
     1
 44
1.0
  0
LEADER
  5
1B2B2
330
747D
100
AcDbEntity
  8
寸法
 48
50.0
100
AcDbLeader
  3
INABA_S50G
 71
     0
 73
     0
 74
     0
 75
     1
 40
150.0
 41
360.0000000000001
 76
     3
 10
14822.82958141817
 20
11602.2065891273
 30
0.0
 10
15040.49506749086
 20
11108.8835600829
 30
0.0
 10
15165.49506749086
 20
11108.8835600829
 30
0.0
340
1B2B1
1001
ACAD
1000
DSTYLE
1002
{
1070
     6
1000
DOTSMALL
1002
}
  0
MTEXT
  5
1B2B3
102
{ACAD_REACTORS
330
1B2B4
102
}
330
747D
100
AcDbEntity
  8
寸法
 62
     7
 48
50.0
100
AcDbMText
 10
15183.94018070688
 20
11417.92104541549
 30
0.0
 40
150.0
 41
0.0
 71
     4
 72
     1
  1
\A1;雨樋
  7
STYLE1
 73
     1
 44
1.0
  0
LEADER
  5
1B2B4
330
747D
100
AcDbEntity
  8
寸法
 48
50.0
100
AcDbLeader
  3
INABA_S50G
 71
     0
 73
     0
 74
     0
 75
     1
 40
150.0
 41
360.0
 76
     3
 10
14903.82958141817
 20
11579.546036235
 30
0.0
 10
15033.94018070688
 20
11317.92104541549
 30
0.0
 10
15158.94018070688
 20
11317.92104541549
 30
0.0
340
1B2B3
1001
ACAD
1000
DSTYLE
1002
{
1070
     6
1000
DOTSMALL
1002
}
  0
LINE
  5
1B2B5
330
747D
100
AcDbEntity
  8
部品1
100
AcDbLine
 10
14890.11846310262
 20
11619.65804079718
 30
0.0
 11
14881.11960145478
 21
11619.80118073938
 31
0.0
  0
LINE
  5
1B2B6
330
747D
100
AcDbEntity
  8
部品1
100
AcDbLine
 10
14903.82958141817
 20
11579.546036235
 30
0.0
 11
14903.82958141817
 21
11604.546036235
 31
0.0
  0
ARC
  5
1B2B7
330
747D
100
AcDbEntity
  8
部品1
100
AcDbCircle
 10
14893.82958141817
 20
11579.546036235
 30
0.0
 40
10.0
100
AcDbArc
 50
270.0
 51
0.0
  0
LINE
  5
1B2B8
330
747D
100
AcDbEntity
  8
部品1
100
AcDbLine
 10
14822.82958141817
 20
11573.73679736197
 30
0.0
 11
14822.82958141817
 21
11533.73679736197
 31
0.0
  0
ARC
  5
1B2B9
330
747D
100
AcDbEntity
  8
部品1
100
AcDbCircle
 10
14853.82958141817
 20
11579.546036235
 30
0.0
 40
10.0
100
AcDbArc
 50
180.0
 51
270.0
  0
LINE
  5
1B2BA
330
747D
100
AcDbEntity
  8
部品1
100
AcDbLine
 10
14843.82958141816
 20
11620.39433257585
 30
0.0
 11
14843.82958141817
 21
11579.546036235
 31
0.0
  0
LINE
  5
1B2BB
330
747D
100
AcDbEntity
  8
部品1
100
AcDbLine
 10
14843.82958141817
 20
11618.546036235
 30
0.0
 11
14843.82958141817
 21
11591.546036235
 31
0.0
  0
LINE
  5
1B2BC
330
747D
100
AcDbEntity
  8
部品1
100
AcDbLine
 10
14853.82958141817
 20
11569.546036235
 30
0.0
 11
14893.82958141817
 21
11569.546036235
 31
0.0
  0
LINE
  5
1B2BD
330
747D
100
AcDbEntity
  8
細線
 48
50.0
100
AcDbLine
 10
14881.11960145478
 20
11619.80118073938
 30
0.0
 11
14822.82958141817
 21
11620.72836802431
 31
0.0
  0
MTEXT
  5
1B2BE
102
{ACAD_REACTORS
330
1B2BF
102
}
330
747D
100
AcDbEntity
  8
寸法
 62
     7
 48
50.0
100
AcDbMText
 10
15218.68199506866
 20
12066.64748534791
 30
0.0
 40
150.0
 41
0.0
 71
     4
 72
     1
  1
\A1;鼻隠シ後
  7
STYLE1
 73
     1
 44
1.0
  0
LEADER
  5
1B2BF
330
747D
100
AcDbEntity
  8
寸法
 48
50.0
100
AcDbLeader
  3
INABA_S50G
 71
     0
 73
     0
 74
     0
 75
     1
 40
150.0
 41
719.9999999999995
 76
     3
 10
14916.65863101408
 20
11725.13210353545
 30
0.0
 10
15068.68199506866
 20
11966.64748534791
 30
0.0
 10
15193.68199506866
 20
11966.64748534791
 30
0.0
340
1B2BE
1001
ACAD
1000
DSTYLE
1002
{
1070
     6
1000
DOTSMALL
1002
}
  0
LINE
  5
1B2C0
330
747D
100
AcDbEntity
  8
細線
 48
50.0
100
AcDbLine
 10
14870.44575021202
 20
11686.84112269049
 30
0.0
 11
14869.30984145466
 21
11664.87046700399
 31
0.0
  0
LINE
  5
1B2C1
330
747D
100
AcDbEntity
  8
部品1
 48
50.0
100
AcDbLine
 10
14899.73767084558
 20
11734.76263097583
 30
0.0
 11
14902.83301119891
 21
11734.7139057365
 31
0.0
  0
ARC
  5
1B2C2
330
747D
100
AcDbEntity
  8
部品1
100
AcDbCircle
 10
14899.76128014115
 20
11736.26244516471
 30
0.0
 40
1.5
100
AcDbArc
 50
200.4039185775898
 51
269.0981540988988
  0
ARC
  5
1B2C3
330
747D
100
AcDbEntity
  8
部品1
100
AcDbCircle
 10
14892.43937643104
 20
11741.60473085031
 30
0.0
 40
3.5
100
AcDbArc
 50
20.40391857757644
 51
88.96475328401214
  0
ARC
  5
1B2C4
330
747D
100
AcDbEntity
  8
部品1
100
AcDbCircle
 10
14902.32958141817
 20
11719.22208342743
 30
0.0
 40
15.5
100
AcDbArc
 50
353.924536124901
 51
88.13874351680366
  0
LINE
  5
1B2C5
330
747D
100
AcDbEntity
  8
部品1
100
AcDbLine
 10
14898.33578614471
 20
11735.79220093534
 30
0.0
 11
14895.7197799481
 21
11742.82495737241
 31
0.0
  0
LINE
  5
1B2C6
330
747D
100
AcDbEntity
  8
部品1
100
AcDbLine
 10
14917.74287520146
 20
11717.58489504698
 30
0.0
 11
14909.54444257119
 21
11640.55806431739
 31
0.0
  0
ARC
  5
1B2C7
330
747D
100
AcDbEntity
  8
部品1
 48
50.0
100
AcDbCircle
 10
14908.66272143308
 20
11636.99820928773
 30
0.0
 40
2.5
100
AcDbArc
 50
94.83000612260093
 51
173.9245361249088
  0
ARC
  5
1B2C8
330
747D
100
AcDbEntity
  8
部品1
 48
50.0
100
AcDbCircle
 10
14908.35118254029
 20
11640.68507021756
 30
0.0
 40
1.199999999999999
100
AcDbArc
 50
274.830006122604
 51
353.924536124901
  0
LINE
  5
1B2C9
330
747D
100
AcDbEntity
  8
部品1
100
AcDbLine
 10
14906.17676303538
 20
11637.26280491307
 30
0.0
 11
14905.77792395764
 21
11633.51558742466
 31
0.0
  0
LINE
  5
1B2CA
330
747D
100
AcDbEntity
  8
部品1
 48
50.0
100
AcDbLine
 10
14916.95242204339
 20
11710.15834117355
 30
0.0
 11
14890.80660766724
 21
11710.63080728955
 31
0.0
  0
LINE
  5
1B2CB
330
747D
100
AcDbEntity
  8
部品1
 48
50.0
100
AcDbLine
 10
14890.80660766724
 20
11710.63080728955
 30
0.0
 11
14861.39578928962
 21
11688.15851852408
 31
0.0
  0
LINE
  5
1B2CC
330
747D
100
AcDbEntity
  8
部品1
 48
50.0
100
AcDbLine
 10
14827.82958141816
 20
11643.73679736196
 30
0.0
 11
14822.82958141816
 21
11643.73679736196
 31
0.0
  0
LINE
  5
1B2CD
330
747D
100
AcDbEntity
  8
部品1
 48
50.0
100
AcDbLine
 10
14827.82958141816
 20
11663.73679736196
 30
0.0
 11
14827.82958141816
 21
11643.73679736196
 31
0.0
  0
LINE
  5
1B2CE
330
747D
100
AcDbEntity
  8
部品1
 48
50.0
100
AcDbLine
 10
14861.39578928962
 20
11688.15851852408
 30
0.0
 11
14845.39840097363
 21
11688.44759821443
 31
0.0
  0
ENDSEC
  0
SECTION
  2
OBJECTS
  0
DICTIONARY
  5
7471
330
0
100
AcDbDictionary
281
     1
  3
ACAD_GROUP
350
7472
  3
ACAD_LAYOUT
350
1B3C7
  3
ACAD_MLINESTYLE
350
7473
  3
ACAD_PLOTSETTINGS
350
1B3C8
  3
ACAD_PLOTSTYLENAME
350
1B3C5
  3
ACDBHEADERROUNDTRIPXREC
350
1B440
  3
ACDBVARIABLEDICTIONARY
350
123D8
  3
CONTENTDICTIONARY
350
E71C
  3
DRAWINGVARIABLESDICT
350
F3B9
  0
DICTIONARY
  5
1B3F7
330
747D
100
AcDbDictionary
280
     1
281
     1
  3
ACAD_LAYOUTSELFREF
360
1B3F8
  0
DICTIONARY
  5
1B3F5
330
747A
100
AcDbDictionary
280
     1
281
     1
  3
ACAD_LAYOUTSELFREF
360
1B3F6
  0
DICTIONARY
  5
7472
102
{ACAD_REACTORS
330
7471
102
}
330
7471
100
AcDbDictionary
281
     1
  0
DICTIONARY
  5
1B3C7
102
{ACAD_REACTORS
330
7471
102
}
330
7471
100
AcDbDictionary
281
     1
  3
Model
350
1B3C9
  3
ﾚｲｱｳﾄ1
350
1B3CA
  0
DICTIONARY
  5
7473
102
{ACAD_REACTORS
330
7471
102
}
330
7471
100
AcDbDictionary
281
     1
  3
STANDARD
350
7480
  0
DICTIONARY
  5
1B3C8
102
{ACAD_REACTORS
330
7471
102
}
330
7471
100
AcDbDictionary
281
     1
  0
ACDBDICTIONARYWDFLT
  5
1B3C5
102
{ACAD_REACTORS
330
7471
102
}
330
7471
100
AcDbDictionary
281
     1
  3
Normal
350
1B3C6
100
AcDbDictionaryWithDefault
340
1B3C6
  0
DICTIONARY
  5
1B440
102
{ACAD_REACTORS
330
7471
102
}
330
7471
100
AcDbDictionary
281
     1
  3
CEPSNTYPE
350
1B44A
  3
DIMSTYLEDATA
350
1B44E
  3
FINGERPRINTGUID
350
1B44B
  3
HYPERLINKBASE
350
1B443
  3
INSUNITS
350
1B449
  3
LAYOUTDICT
350
1B445
  3
LWETCUNION
350
1B448
  3
PLOTSETDICT
350
1B446
  3
PLOTSTYLNAMDICT
350
1B447
  3
PSVPSCALE
350
1B44D
  3
PUCSBASE
350
1B451
  3
PUCSORGBACK
350
1B457
  3
PUCSORGBOTTOM
350
1B453
  3
PUCSORGFRONT
350
1B456
  3
PUCSORGLEFT
350
1B454
  3
PUCSORGRIGHT
350
1B455
  3
PUCSORGTOP
350
1B452
  3
PUCSORTHOREF
350
1B44F
  3
PUCSORTHOVIEW
350
1B450
  3
STYLESHEET
350
1B444
  3
TSTACKALIGN
350
1B441
  3
TSTACKSIZE
350
1B442
  3
UCSBASE
350
1B45A
  3
UCSORGBACK
350
1B460
  3
UCSORGBOTTOM
350
1B45C
  3
UCSORGFRONT
350
1B45F
  3
UCSORGLEFT
350
1B45D
  3
UCSORGRIGHT
350
1B45E
  3
UCSORGTOP
350
1B45B
  3
UCSORTHOREF
350
1B458
  3
UCSORTHOVIEW
350
1B459
  3
VERSIONGUID
350
1B44C
  0
DICTIONARY
  5
123D8
102
{ACAD_REACTORS
330
7471
102
}
330
7471
100
AcDbDictionary
281
     1
  3
DIMASSOC
350
1B437
  3
SORTENTS
350
123D9
  0
DICTIONARY
  5
E71C
102
{ACAD_REACTORS
330
7471
102
}
330
7471
100
AcDbDictionary
281
     1
  0
DICTIONARY
  5
F3B9
102
{ACAD_REACTORS
330
7471
102
}
330
7471
100
AcDbDictionary
281
     1
1001
DRAWINGVARIABLESXDATA
1000
POLARMODE
1000
1
  0
XRECORD
  5
1B3F8
102
{ACAD_REACTORS
330
1B3F7
102
}
330
1B3F7
100
AcDbXrecord
280
     1
340
747D
  0
XRECORD
  5
1B3F6
102
{ACAD_REACTORS
330
1B3F5
102
}
330
1B3F5
100
AcDbXrecord
280
     1
340
747A
  0
LAYOUT
  5
1B3C9
102
{ACAD_REACTORS
330
1B3C7
102
}
330
1B3C7
100
AcDbPlotSettings
  1

  2
Canon LBP-730
  4

  6

 40
0.0
 41
0.0
 42
0.0
 43
0.0
 44
0.0
 45
0.0
 46
0.0
 47
0.0
 48
0.0
 49
0.0
140
0.0
141
0.0
142
1.0
143
1.0
 70
  1712
 72
     0
 73
     0
 74
     0
  7

 75
     0
147
1.0
148
0.0
149
0.0
100
AcDbLayout
  1
Model
 70
     1
 71
     0
 10
0.0
 20
0.0
 11
12.0
 21
9.0
 12
0.0
 22
0.0
 32
0.0
 14
0.0
 24
0.0
 34
0.0
 15
0.0
 25
0.0
 35
0.0
146
0.0
 13
0.0
 23
0.0
 33
0.0
 16
1.0
 26
0.0
 36
0.0
 17
0.0
 27
1.0
 37
0.0
 76
     0
330
747D
  0
LAYOUT
  5
1B3CA
102
{ACAD_REACTORS
330
1B3C7
102
}
330
1B3C7
100
AcDbPlotSettings
  1

  2
Canon LBP-730
  4

  6

 40
0.0
 41
0.0
 42
0.0
 43
0.0
 44
0.0
 45
0.0
 46
0.0
 47
0.0
 48
0.0
 49
0.0
140
0.0
141
0.0
142
1.0
143
1.0
 70
   688
 72
     0
 73
     0
 74
     5
  7

 75
    16
147
1.0
148
0.0
149
0.0
100
AcDbLayout
  1
ﾚｲｱｳﾄ1
 70
     0
 71
     1
 10
0.0
 20
0.0
 11
420.0
 21
297.0
 12
0.0
 22
0.0
 32
0.0
 14
1.000000000000000E+20
 24
1.000000000000000E+20
 34
1.000000000000000E+20
 15
-1.000000000000000E+20
 25
-1.000000000000000E+20
 35
-1.000000000000000E+20
146
0.0
 13
0.0
 23
0.0
 33
0.0
 16
1.0
 26
0.0
 36
0.0
 17
0.0
 27
1.0
 37
0.0
 76
     0
330
747A
  0
MLINESTYLE
  5
7480
102
{ACAD_REACTORS
330
7473
102
}
330
7473
100
AcDbMlineStyle
  2
STANDARD
 70
     0
  3

 62
     0
 51
90.0
 52
90.0
 71
     2
 49
0.5
 62
   256
  6
BYLAYER
 49
-0.5
 62
   256
  6
BYLAYER
  0
ACDBPLACEHOLDER
  5
1B3C6
102
{ACAD_REACTORS
330
1B3C5
102
}
330
1B3C5
  0
XRECORD
  5
1B44A
102
{ACAD_REACTORS
330
1B440
102
}
330
1B440
100
AcDbXrecord
280
     1
 90
        0
  0
XRECORD
  5
1B44E
102
{ACAD_REACTORS
330
1B440
102
}
330
1B440
100
AcDbXrecord
280
     1
1000
DSTYLE
1002
{
1070
   341
340
F770
1070
   343
340
F770
1070
   344
340
F770
1002
}
  0
XRECORD
  5
1B44B
102
{ACAD_REACTORS
330
1B440
102
}
330
1B440
100
AcDbXrecord
280
     1
  1
{697DFE25-F946-11D6-AF94-00909916878D}
  0
XRECORD
  5
1B443
102
{ACAD_REACTORS
330
1B440
102
}
330
1B440
100
AcDbXrecord
280
     1
  1

  0
XRECORD
  5
1B449
102
{ACAD_REACTORS
330
1B440
102
}
330
1B440
100
AcDbXrecord
280
     1
 90
        0
  0
XRECORD
  5
1B445
102
{ACAD_REACTORS
330
1B440
102
}
330
1B440
100
AcDbXrecord
280
     1
340
1B3C7
  0
XRECORD
  5
1B448
102
{ACAD_REACTORS
330
1B440
102
}
330
1B440
100
AcDbXrecord
280
     1
 90
    14877
  0
XRECORD
  5
1B446
102
{ACAD_REACTORS
330
1B440
102
}
330
1B440
100
AcDbXrecord
280
     1
340
1B3C8
  0
XRECORD
  5
1B447
102
{ACAD_REACTORS
330
1B440
102
}
330
1B440
100
AcDbXrecord
280
     1
340
1B3C5
  0
XRECORD
  5
1B44D
102
{ACAD_REACTORS
330
1B440
102
}
330
1B440
100
AcDbXrecord
280
     1
 40
0.0
  0
XRECORD
  5
1B451
102
{ACAD_REACTORS
330
1B440
102
}
330
1B440
100
AcDbXrecord
280
     1
340
0
  0
XRECORD
  5
1B457
102
{ACAD_REACTORS
330
1B440
102
}
330
1B440
100
AcDbXrecord
280
     1
 10
0.0
 20
0.0
 30
0.0
  0
XRECORD
  5
1B453
102
{ACAD_REACTORS
330
1B440
102
}
330
1B440
100
AcDbXrecord
280
     1
 10
0.0
 20
0.0
 30
0.0
  0
XRECORD
  5
1B456
102
{ACAD_REACTORS
330
1B440
102
}
330
1B440
100
AcDbXrecord
280
     1
 10
0.0
 20
0.0
 30
0.0
  0
XRECORD
  5
1B454
102
{ACAD_REACTORS
330
1B440
102
}
330
1B440
100
AcDbXrecord
280
     1
 10
0.0
 20
0.0
 30
0.0
  0
XRECORD
  5
1B455
102
{ACAD_REACTORS
330
1B440
102
}
330
1B440
100
AcDbXrecord
280
     1
 10
0.0
 20
0.0
 30
0.0
  0
XRECORD
  5
1B452
102
{ACAD_REACTORS
330
1B440
102
}
330
1B440
100
AcDbXrecord
280
     1
 10
0.0
 20
0.0
 30
0.0
  0
XRECORD
  5
1B44F
102
{ACAD_REACTORS
330
1B440
102
}
330
1B440
100
AcDbXrecord
280
     1
340
0
  0
XRECORD
  5
1B450
102
{ACAD_REACTORS
330
1B440
102
}
330
1B440
100
AcDbXrecord
280
     1
 70
     0
  0
XRECORD
  5
1B444
102
{ACAD_REACTORS
330
1B440
102
}
330
1B440
100
AcDbXrecord
280
     1
  1

  0
XRECORD
  5
1B441
102
{ACAD_REACTORS
330
1B440
102
}
330
1B440
100
AcDbXrecord
280
     1
 90
        1
  0
XRECORD
  5
1B442
102
{ACAD_REACTORS
330
1B440
102
}
330
1B440
100
AcDbXrecord
280
     1
 90
       70
  0
XRECORD
  5
1B45A
102
{ACAD_REACTORS
330
1B440
102
}
330
1B440
100
AcDbXrecord
280
     1
340
0
  0
XRECORD
  5
1B460
102
{ACAD_REACTORS
330
1B440
102
}
330
1B440
100
AcDbXrecord
280
     1
 10
0.0
 20
0.0
 30
0.0
  0
XRECORD
  5
1B45C
102
{ACAD_REACTORS
330
1B440
102
}
330
1B440
100
AcDbXrecord
280
     1
 10
0.0
 20
0.0
 30
0.0
  0
XRECORD
  5
1B45F
102
{ACAD_REACTORS
330
1B440
102
}
330
1B440
100
AcDbXrecord
280
     1
 10
0.0
 20
0.0
 30
0.0
  0
XRECORD
  5
1B45D
102
{ACAD_REACTORS
330
1B440
102
}
330
1B440
100
AcDbXrecord
280
     1
 10
0.0
 20
0.0
 30
0.0
  0
XRECORD
  5
1B45E
102
{ACAD_REACTORS
330
1B440
102
}
330
1B440
100
AcDbXrecord
280
     1
 10
0.0
 20
0.0
 30
0.0
  0
XRECORD
  5
1B45B
102
{ACAD_REACTORS
330
1B440
102
}
330
1B440
100
AcDbXrecord
280
     1
 10
0.0
 20
0.0
 30
0.0
  0
XRECORD
  5
1B458
102
{ACAD_REACTORS
330
1B440
102
}
330
1B440
100
AcDbXrecord
280
     1
340
0
  0
XRECORD
  5
1B459
102
{ACAD_REACTORS
330
1B440
102
}
330
1B440
100
AcDbXrecord
280
     1
 70
     0
  0
XRECORD
  5
1B44C
102
{ACAD_REACTORS
330
1B440
102
}
330
1B440
100
AcDbXrecord
280
     1
  1
{697DFE27-F946-11D6-AF94-00909916878D}
  0
DICTIONARYVAR
  5
1B437
102
{ACAD_REACTORS
330
123D8
102
}
330
123D8
100
DictionaryVariables
280
     0
  1
1
  0
DICTIONARYVAR
  5
123D9
102
{ACAD_REACTORS
330
123D8
102
}
330
123D8
100
DictionaryVariables
280
     0
  1
96
  0
ENDSEC
  0
EOF
