  0
SECTION
  2
HEADER
  9
$ACADVER
  1
AC1015
  9
$ACADMAINTVER
 70
     6
  9
$DWGCODEPAGE
  3
ANSI_932
  9
$INSBASE
 10
0.0
 20
0.0
 30
0.0
  9
$EXTMIN
 10
174.9999999999993
 20
-0.0000000000001137
 30
0.0
  9
$EXTMAX
 10
20384.0
 20
14262.0
 30
0.0
  9
$LIMMIN
 10
0.0
 20
0.0
  9
$LIMMAX
 10
21000.0
 20
14850.0
  9
$ORTHOMODE
 70
     0
  9
$REGENMODE
 70
     1
  9
$FILLMODE
 70
     1
  9
$QTEXTMODE
 70
     0
  9
$MIRRTEXT
 70
     1
  9
$LTSCALE
 40
20.0
  9
$ATTMODE
 70
     1
  9
$TEXTSIZE
 40
4.0
  9
$TRACEWID
 40
1.0
  9
$TEXTSTYLE
  7
STYLE1
  9
$CLAYER
  8
寸法
  9
$CELTYPE
  6
BYLAYER
  9
$CECOLOR
 62
   256
  9
$CELTSCALE
 40
50.0
  9
$DISPSILH
 70
     0
  9
$DIMSCALE
 40
1.0
  9
$DIMASZ
 40
125.0
  9
$DIMEXO
 40
25.0
  9
$DIMDLI
 40
7.0
  9
$DIMRND
 40
0.0
  9
$DIMDLE
 40
0.0
  9
$DIMEXE
 40
75.0
  9
$DIMTP
 40
0.0
  9
$DIMTM
 40
0.0
  9
$DIMTXT
 40
150.0
  9
$DIMCEN
 40
0.0
  9
$DIMTSZ
 40
0.0
  9
$DIMTOL
 70
     0
  9
$DIMLIM
 70
     0
  9
$DIMTIH
 70
     0
  9
$DIMTOH
 70
     0
  9
$DIMSE1
 70
     0
  9
$DIMSE2
 70
     0
  9
$DIMTAD
 70
     3
  9
$DIMZIN
 70
     8
  9
$DIMBLK
  1

  9
$DIMASO
 70
     1
  9
$DIMSHO
 70
     1
  9
$DIMPOST
  1

  9
$DIMAPOST
  1

  9
$DIMALT
 70
     0
  9
$DIMALTD
 70
     2
  9
$DIMALTF
 40
0.0394
  9
$DIMLFAC
 40
1.0
  9
$DIMTOFL
 70
     1
  9
$DIMTVP
 40
0.0
  9
$DIMTIX
 70
     1
  9
$DIMSOXD
 70
     0
  9
$DIMSAH
 70
     1
  9
$DIMBLK1
  1
DOTSMALL
  9
$DIMBLK2
  1
DOTSMALL
  9
$DIMSTYLE
  2
INABA_S50G
  9
$DIMCLRD
 70
     0
  9
$DIMCLRE
 70
     0
  9
$DIMCLRT
 70
     7
  9
$DIMTFAC
 40
1.0
  9
$DIMGAP
 40
25.0
  9
$DIMJUST
 70
     0
  9
$DIMSD1
 70
     0
  9
$DIMSD2
 70
     0
  9
$DIMTOLJ
 70
     1
  9
$DIMTZIN
 70
     0
  9
$DIMALTZ
 70
     0
  9
$DIMALTTZ
 70
     0
  9
$DIMUPT
 70
     0
  9
$DIMDEC
 70
     1
  9
$DIMTDEC
 70
     4
  9
$DIMALTU
 70
     2
  9
$DIMALTTD
 70
     2
  9
$DIMTXSTY
  7
STYLE1
  9
$DIMAUNIT
 70
     0
  9
$DIMADEC
 70
     0
  9
$DIMALTRND
 40
0.0
  9
$DIMAZIN
 70
     0
  9
$DIMDSEP
 70
    46
  9
$DIMATFIT
 70
     3
  9
$DIMFRAC
 70
     0
  9
$DIMLDRBLK
  1
DOTSMALL
  9
$DIMLUNIT
 70
     2
  9
$DIMLWD
 70
    -2
  9
$DIMLWE
 70
    -2
  9
$DIMTMOVE
 70
     0
  9
$LUNITS
 70
     2
  9
$LUPREC
 70
     1
  9
$SKETCHINC
 40
1.0
  9
$FILLETRAD
 40
3.0
  9
$AUNITS
 70
     0
  9
$AUPREC
 70
     0
  9
$MENU
  1
acad
  9
$ELEVATION
 40
0.0
  9
$PELEVATION
 40
0.0
  9
$THICKNESS
 40
0.0
  9
$LIMCHECK
 70
     0
  9
$CHAMFERA
 40
0.0
  9
$CHAMFERB
 40
0.0
  9
$CHAMFERC
 40
0.0
  9
$CHAMFERD
 40
0.0
  9
$SKPOLY
 70
     0
  9
$TDCREATE
 40
2452335.452219212
  9
$TDUCREATE
 40
2452335.077219213
  9
$TDUPDATE
 40
2452595.552570717
  9
$TDUUPDATE
 40
2452595.177570717
  9
$TDINDWG
 40
1.3922042824
  9
$TDUSRTIMER
 40
1.3922042824
  9
$USRTIMER
 70
     1
  9
$ANGBASE
 50
0.0
  9
$ANGDIR
 70
     0
  9
$PDMODE
 70
     3
  9
$PDSIZE
 40
2.0
  9
$PLINEWID
 40
0.0
  9
$SPLFRAME
 70
     0
  9
$SPLINETYPE
 70
     6
  9
$SPLINESEGS
 70
     8
  9
$HANDSEED
  5
1D814
  9
$SURFTAB1
 70
     6
  9
$SURFTAB2
 70
     6
  9
$SURFTYPE
 70
     6
  9
$SURFU
 70
     6
  9
$SURFV
 70
     6
  9
$UCSBASE
  2

  9
$UCSNAME
  2

  9
$UCSORG
 10
0.0
 20
0.0
 30
0.0
  9
$UCSXDIR
 10
1.0
 20
0.0
 30
0.0
  9
$UCSYDIR
 10
0.0
 20
1.0
 30
0.0
  9
$UCSORTHOREF
  2

  9
$UCSORTHOVIEW
 70
     0
  9
$UCSORGTOP
 10
0.0
 20
0.0
 30
0.0
  9
$UCSORGBOTTOM
 10
0.0
 20
0.0
 30
0.0
  9
$UCSORGLEFT
 10
0.0
 20
0.0
 30
0.0
  9
$UCSORGRIGHT
 10
0.0
 20
0.0
 30
0.0
  9
$UCSORGFRONT
 10
0.0
 20
0.0
 30
0.0
  9
$UCSORGBACK
 10
0.0
 20
0.0
 30
0.0
  9
$PUCSBASE
  2

  9
$PUCSNAME
  2

  9
$PUCSORG
 10
0.0
 20
0.0
 30
0.0
  9
$PUCSXDIR
 10
1.0
 20
0.0
 30
0.0
  9
$PUCSYDIR
 10
0.0
 20
1.0
 30
0.0
  9
$PUCSORTHOREF
  2

  9
$PUCSORTHOVIEW
 70
     0
  9
$PUCSORGTOP
 10
0.0
 20
0.0
 30
0.0
  9
$PUCSORGBOTTOM
 10
0.0
 20
0.0
 30
0.0
  9
$PUCSORGLEFT
 10
0.0
 20
0.0
 30
0.0
  9
$PUCSORGRIGHT
 10
0.0
 20
0.0
 30
0.0
  9
$PUCSORGFRONT
 10
0.0
 20
0.0
 30
0.0
  9
$PUCSORGBACK
 10
0.0
 20
0.0
 30
0.0
  9
$USERI1
 70
     0
  9
$USERI2
 70
     0
  9
$USERI3
 70
     0
  9
$USERI4
 70
     0
  9
$USERI5
 70
     0
  9
$USERR1
 40
0.0
  9
$USERR2
 40
0.0
  9
$USERR3
 40
0.0
  9
$USERR4
 40
0.0
  9
$USERR5
 40
0.0
  9
$WORLDVIEW
 70
     1
  9
$SHADEDGE
 70
     3
  9
$SHADEDIF
 70
    70
  9
$TILEMODE
 70
     1
  9
$MAXACTVP
 70
    16
  9
$PINSBASE
 10
0.0
 20
0.0
 30
0.0
  9
$PLIMCHECK
 70
     0
  9
$PEXTMIN
 10
1.000000000000000E+20
 20
1.000000000000000E+20
 30
1.000000000000000E+20
  9
$PEXTMAX
 10
-1.000000000000000E+20
 20
-1.000000000000000E+20
 30
-1.000000000000000E+20
  9
$PLIMMIN
 10
0.0
 20
0.0
  9
$PLIMMAX
 10
420.0
 20
297.0
  9
$UNITMODE
 70
     0
  9
$VISRETAIN
 70
     0
  9
$PLINEGEN
 70
     0
  9
$PSLTSCALE
 70
     0
  9
$TREEDEPTH
 70
  3020
  9
$CMLSTYLE
  2
STANDARD
  9
$CMLJUST
 70
     0
  9
$CMLSCALE
 40
1.0
  9
$PROXYGRAPHICS
 70
     1
  9
$MEASUREMENT
 70
     1
  9
$CELWEIGHT
370
    -1
  9
$ENDCAPS
280
     0
  9
$JOINSTYLE
280
     0
  9
$LWDISPLAY
290
     0
  9
$INSUNITS
 70
     0
  9
$HYPERLINKBASE
  1

  9
$STYLESHEET
  1

  9
$XEDIT
290
     1
  9
$CEPSNTYPE
380
     0
  9
$PSTYLEMODE
290
     1
  9
$FINGERPRINTGUID
  2
{697DFE46-F946-11D6-AF94-00909916878D}
  9
$VERSIONGUID
  2
{697DFE48-F946-11D6-AF94-00909916878D}
  9
$EXTNAMES
290
     1
  9
$PSVPSCALE
 40
0.0
  9
$OLESTARTUP
290
     0
  0
ENDSEC
  0
SECTION
  2
CLASSES
  0
CLASS
  1
OLE2FRAME
  2
AcDbOle2Frame
  3
AutoCAD 2000
 90
    32768
280
     0
281
     1
  0
CLASS
  1
LWPOLYLINE
  2
AcDbPolyline
  3
AutoCAD 2000
 90
    32768
280
     0
281
     1
  0
CLASS
  1
HATCH
  2
AcDbHatch
  3
AutoCAD 2000
 90
    32768
280
     0
281
     1
  0
CLASS
  1
DICTIONARYVAR
  2
AcDbDictionaryVar
  3
AutoCAD 2000
 90
        0
280
     0
281
     0
  0
CLASS
  1
ACDBDICTIONARYWDFLT
  2
AcDbDictionaryWithDefault
  3
AutoCAD 2000
 90
        0
280
     0
281
     0
  0
CLASS
  1
ACDBPLACEHOLDER
  2
AcDbPlaceHolder
  3
AutoCAD 2000
 90
        0
280
     0
281
     0
  0
CLASS
  1
LAYOUT
  2
AcDbLayout
  3
AutoCAD 2000
 90
        0
280
     0
281
     0
  0
CLASS
  1
LONG_TRANSACTION
  2
AcDbLongTransaction
  3
AutoCAD 2000
 90
    32768
280
     0
281
     0
  0
CLASS
  1
LWPOLYLINE
  2
AcDbPolyline
  3
AutoCAD 2000
 90
    32768
280
     0
281
     1
  0
CLASS
  1
HATCH
  2
AcDbHatch
  3
AutoCAD 2000
 90
    32768
280
     0
281
     1
  0
CLASS
  1
XRECORD
  2
AcDbXrecord
  3
AutoCAD 2000
 90
    32768
280
     0
281
     0
  0
ENDSEC
  0
SECTION
  2
TABLES
  0
TABLE
  2
VPORT
  5
746D
330
0
100
AcDbSymbolTable
 70
     2
  0
VPORT
  5
1D7F2
330
746D
100
AcDbSymbolTableRecord
100
AcDbViewportTableRecord
  2
*Active
 70
     0
 10
0.0
 20
0.0
 11
1.0
 21
1.0
 12
10500.0
 22
8286.123436339119
 13
0.0
 23
0.0
 14
10.0
 24
10.0
 15
10.0
 25
10.0
 16
0.0
 26
0.0
 36
1.0
 17
0.0
 27
0.0
 37
0.0
 40
16748.20763317997
 41
1.902010050251256
 42
50.0
 43
0.0
 44
0.0
 50
0.0
 51
0.0
 71
     0
 72
     0
 73
     1
 74
     0
 75
     0
 76
     0
 77
     0
 78
     0
281
     0
 65
     1
110
0.0
120
0.0
130
0.0
111
1.0
121
0.0
131
0.0
112
0.0
122
1.0
132
0.0
 79
     0
146
0.0
  0
ENDTAB
  0
TABLE
  2
LTYPE
  5
746A
330
0
100
AcDbSymbolTable
 70
     4
  0
LTYPE
  5
7477
330
746A
100
AcDbSymbolTableRecord
100
AcDbLinetypeTableRecord
  2
BYBLOCK
 70
     0
  3

 72
    65
 73
     0
 40
0.0
  0
LTYPE
  5
7478
330
746A
100
AcDbSymbolTableRecord
100
AcDbLinetypeTableRecord
  2
BYLAYER
 70
     0
  3

 72
    65
 73
     0
 40
0.0
  0
LTYPE
  5
7479
330
746A
100
AcDbSymbolTableRecord
100
AcDbLinetypeTableRecord
  2
CONTINUOUS
 70
     0
  3
Solid line
 72
    65
 73
     0
 40
0.0
  0
LTYPE
  5
7816
330
746A
100
AcDbSymbolTableRecord
100
AcDbLinetypeTableRecord
  2
CENTER
 70
     0
  3
____ _ ____ _ ____ _ ____ _ ____ _ ____ _ ____ 
 72
    65
 73
     4
 40
2.0
 49
1.25
 74
     0
 49
-0.25
 74
     0
 49
0.25
 74
     0
 49
-0.25
 74
     0
  0
LTYPE
  5
781A
330
746A
100
AcDbSymbolTableRecord
100
AcDbLinetypeTableRecord
  2
HIDDEN
 70
     0
  3
__ __ __ __ __ __ __ __ __ __ __ __ __ __ __ __
 72
    65
 73
     2
 40
0.375
 49
0.25
 74
     0
 49
-0.125
 74
     0
  0
LTYPE
  5
781B
330
746A
100
AcDbSymbolTableRecord
100
AcDbLinetypeTableRecord
  2
PHANTOM
 70
     0
  3
______  __  __  ______  __  __  ______  __  __ 
 72
    65
 73
     6
 40
2.5
 49
1.25
 74
     0
 49
-0.25
 74
     0
 49
0.25
 74
     0
 49
-0.25
 74
     0
 49
0.25
 74
     0
 49
-0.25
 74
     0
  0
ENDTAB
  0
TABLE
  2
LAYER
  5
7467
330
0
100
AcDbSymbolTable
 70
    12
  0
LAYER
  5
7474
330
7467
100
AcDbSymbolTableRecord
100
AcDbLayerTableRecord
  2
0
 70
     0
 62
     7
  6
CONTINUOUS
370
    -3
390
1D769
  0
LAYER
  5
DEB2
330
7467
100
AcDbSymbolTableRecord
100
AcDbLayerTableRecord
  2
センター
 70
     0
 62
     3
  6
CENTER
370
    -3
390
1D769
  0
LAYER
  5
DEB3
330
7467
100
AcDbSymbolTableRecord
100
AcDbLayerTableRecord
  2
寸法
 70
     0
 62
     4
  6
CONTINUOUS
370
    -3
390
1D769
  0
LAYER
  5
DEB4
330
7467
100
AcDbSymbolTableRecord
100
AcDbLayerTableRecord
  2
部品1
 70
     0
 62
     7
  6
CONTINUOUS
370
    -3
390
1D769
  0
LAYER
  5
DEB5
330
7467
100
AcDbSymbolTableRecord
100
AcDbLayerTableRecord
  2
補助
 70
     0
 62
    -1
  6
CONTINUOUS
370
    -3
390
1D769
  0
LAYER
  5
DEB6
330
7467
100
AcDbSymbolTableRecord
100
AcDbLayerTableRecord
  2
文字
 70
     0
 62
     7
  6
CONTINUOUS
370
    -3
390
1D769
  0
LAYER
  5
F255
330
7467
100
AcDbSymbolTableRecord
100
AcDbLayerTableRecord
  2
DEFPOINTS
 70
     0
 62
     7
  6
CONTINUOUS
290
     0
370
    -3
390
1D769
  0
LAYER
  5
10B54
330
7467
100
AcDbSymbolTableRecord
100
AcDbLayerTableRecord
  2
仕様書枠
 70
     0
 62
   230
  6
CONTINUOUS
370
    -3
390
1D769
  0
LAYER
  5
11729
330
7467
100
AcDbSymbolTableRecord
100
AcDbLayerTableRecord
  2
Ｇ．Ｌ
 70
     0
 62
    30
  6
CONTINUOUS
370
    -3
390
1D769
  0
LAYER
  5
1173F
330
7467
100
AcDbSymbolTableRecord
100
AcDbLayerTableRecord
  2
細線
 70
     0
 62
     5
  6
CONTINUOUS
370
    -3
390
1D769
  0
LAYER
  5
15A90
330
7467
100
AcDbSymbolTableRecord
100
AcDbLayerTableRecord
  2
想像線
 70
     0
 62
     6
  6
PHANTOM
370
    -3
390
1D769
  0
LAYER
  5
188E2
330
7467
100
AcDbSymbolTableRecord
100
AcDbLayerTableRecord
  2
破線
 70
     0
 62
     2
  6
HIDDEN
370
    -3
390
1D769
  0
ENDTAB
  0
TABLE
  2
STYLE
  5
7468
330
0
100
AcDbSymbolTable
 70
     3
  0
STYLE
  5
7475
330
7468
100
AcDbSymbolTableRecord
100
AcDbTextStyleTableRecord
  2
STANDARD
 70
     0
 40
0.0
 41
1.0
 50
0.0
 71
     0
 42
4.0
  3
txt
  4
C:\AutoCAD LT\bigfont.shx
  0
STYLE
  5
F706
330
7468
100
AcDbSymbolTableRecord
100
AcDbTextStyleTableRecord
  2
STYLE1
 70
     0
 40
0.0
 41
1.0
 50
0.0
 71
     0
 42
4.0
  3
isocp.shx
  4
bigfont.shx
  0
STYLE
  5
103BF
330
7468
100
AcDbSymbolTableRecord
100
AcDbTextStyleTableRecord
  2
STYLE2
 70
     0
 40
0.0
 41
1.0
 50
0.0
 71
     0
 42
100.0
  3
MS PGothic.ttf
  4

1001
ACAD
1000
MS PGothic
1071
    32818
  0
ENDTAB
  0
TABLE
  2
VIEW
  5
746B
330
0
100
AcDbSymbolTable
 70
     0
  0
ENDTAB
  0
TABLE
  2
UCS
  5
746C
330
0
100
AcDbSymbolTable
 70
     0
  0
ENDTAB
  0
TABLE
  2
APPID
  5
746E
330
0
100
AcDbSymbolTable
 70
     6
  0
APPID
  5
7476
330
746E
100
AcDbSymbolTableRecord
100
AcDbRegAppTableRecord
  2
ACAD
 70
     0
  0
APPID
  5
DEA9
330
746E
100
AcDbSymbolTableRecord
100
AcDbRegAppTableRecord
  2
CONTENTBLOCKICON
 70
     0
  0
APPID
  5
DEAA
330
746E
100
AcDbSymbolTableRecord
100
AcDbRegAppTableRecord
  2
CONTENTBLOCKDESCRIPTION
 70
     0
  0
APPID
  5
E71D
330
746E
100
AcDbSymbolTableRecord
100
AcDbRegAppTableRecord
  2
CONTENTTABDATA
 70
     0
  0
APPID
  5
E71E
330
746E
100
AcDbSymbolTableRecord
100
AcDbRegAppTableRecord
  2
CONTENTCURRENTTAB
 70
     0
  0
APPID
  5
F3BA
330
746E
100
AcDbSymbolTableRecord
100
AcDbRegAppTableRecord
  2
DRAWINGVARIABLESXDATA
 70
     0
  0
ENDTAB
  0
TABLE
  2
DIMSTYLE
  5
746F
330
0
100
AcDbSymbolTable
 70
     2
100
AcDbDimStyleTable
 71
     0
  0
DIMSTYLE
105
7484
330
746F
100
AcDbSymbolTableRecord
100
AcDbDimStyleTableRecord
  2
JIS
 70
     0
 41
2.5
 42
1.0
 43
7.0
 44
1.0
 73
     0
 74
     0
 77
     1
 78
     8
140
2.5
141
0.0
143
0.0394
147
0.0
172
     1
174
     1
175
     1
340
7475
  0
DIMSTYLE
105
F71F
102
{ACAD_REACTORS
330
1852D
330
1852B
330
1852F
330
1852C
330
1852E
330
185AE
330
185B1
330
185B4
330
185AD
330
185AF
330
185B3
330
1868C
330
186AF
330
1852A
330
1C1CC
330
1C1FF
330
1C8C1
330
1C836
330
1C835
330
1C834
330
1C833
330
1C934
330
1C935
330
1C932
330
1C933
330
1CE4B
330
1CFC6
330
1CFC7
330
1CFCF
330
1CFD0
330
1CFD8
330
1CFDB
330
1CFDD
330
1CFF0
330
1D000
330
1D03B
330
1D248
330
1D4F0
330
1D4F6
330
1D4FD
330
1D507
330
1D508
330
1D5B1
330
1D5B8
330
1D5BF
330
1D5C0
330
1D5C3
330
1D5C4
102
}
330
746F
100
AcDbSymbolTableRecord
100
AcDbDimStyleTableRecord
  2
INABA_S50G
 70
     0
 41
125.0
 42
25.0
 43
7.0
 44
75.0
 73
     0
 74
     0
 77
     3
 78
     8
140
150.0
141
0.0
143
0.0394
147
25.0
172
     1
173
     1
174
     1
178
     7
271
     1
340
F706
341
F770
343
F770
344
F770
  0
ENDTAB
  0
TABLE
  2
BLOCK_RECORD
  5
7466
330
0
100
AcDbSymbolTable
 70
    54
  0
BLOCK_RECORD
  5
747D
102
{ACAD_XDICTIONARY
360
1D79A
102
}
330
7466
100
AcDbSymbolTableRecord
100
AcDbBlockTableRecord
  2
*MODEL_SPACE
340
1D76C
  0
BLOCK_RECORD
  5
747A
102
{ACAD_XDICTIONARY
360
1D798
102
}
330
7466
100
AcDbSymbolTableRecord
100
AcDbBlockTableRecord
  2
*PAPER_SPACE
340
1D76D
  0
BLOCK_RECORD
  5
F770
330
7466
100
AcDbSymbolTableRecord
100
AcDbBlockTableRecord
  2
_DOTSMALL
340
0
102
{BLKREFS
331
18581
331
18582
331
1D28B
331
1D28C
331
18599
331
1859A
331
1A4EB
331
1A4EC
331
1D27A
331
1D27B
331
1A4D4
331
1A4D5
331
18629
331
1862A
331
1D7AA
331
1D7AB
331
1865B
331
1865C
331
1861D
331
1861E
331
1D7A2
331
1D7A3
331
1864F
331
18650
331
1C97E
331
1C97F
331
1D264
331
1D265
331
1B826
331
1B827
331
1D2B8
331
1D2B9
331
1C99D
331
1C99E
331
1C8C8
331
1C8C9
331
1C8D4
331
1C8D5
331
1D7B2
331
1D7B3
331
1C8EC
331
1C8ED
331
1C911
331
1C912
331
1C950
331
1C951
331
1D7C2
331
1D7C3
331
1C968
331
1C969
331
1D7BA
331
1D7BB
331
1CE53
331
1CE54
331
1D219
331
1D21A
331
1D20D
331
1D20E
331
1D7CA
331
1D7CB
331
1D19C
331
1D19D
331
1D230
331
1D231
331
1D7D2
331
1D7D3
331
1D225
331
1D226
331
1D1B2
331
1D1B3
331
1D201
331
1D202
331
1D1F6
331
1D1F7
331
1D2A0
331
1D2A1
331
1D2D1
331
1D2D2
331
1D7DA
331
1D7DB
331
1D6F1
331
1D6F2
331
1D6FD
331
1D6FE
331
1D708
331
1D709
331
1D713
331
1D714
331
1D71F
331
1D720
331
1D72A
331
1D72B
331
1D7E2
331
1D7E3
331
1D73F
331
1D740
331
1D74B
331
1D74C
331
1D756
331
1D757
102
}
  0
BLOCK_RECORD
  5
18530
330
7466
100
AcDbSymbolTableRecord
100
AcDbBlockTableRecord
  2
*D1
340
0
  0
BLOCK_RECORD
  5
1853D
330
7466
100
AcDbSymbolTableRecord
100
AcDbBlockTableRecord
  2
*D2
340
0
  0
BLOCK_RECORD
  5
18549
330
7466
100
AcDbSymbolTableRecord
100
AcDbBlockTableRecord
  2
*D3
340
0
  0
BLOCK_RECORD
  5
18556
330
7466
100
AcDbSymbolTableRecord
100
AcDbBlockTableRecord
  2
*D4
340
0
  0
BLOCK_RECORD
  5
18563
330
7466
100
AcDbSymbolTableRecord
100
AcDbBlockTableRecord
  2
*D5
340
0
  0
BLOCK_RECORD
  5
1856F
330
7466
100
AcDbSymbolTableRecord
100
AcDbBlockTableRecord
  2
*D6
340
0
  0
BLOCK_RECORD
  5
185B5
330
7466
100
AcDbSymbolTableRecord
100
AcDbBlockTableRecord
  2
*D7
340
0
  0
BLOCK_RECORD
  5
185C2
330
7466
100
AcDbSymbolTableRecord
100
AcDbBlockTableRecord
  2
*D8
340
0
  0
BLOCK_RECORD
  5
185E5
330
7466
100
AcDbSymbolTableRecord
100
AcDbBlockTableRecord
  2
*D9
340
0
  0
BLOCK_RECORD
  5
185F2
330
7466
100
AcDbSymbolTableRecord
100
AcDbBlockTableRecord
  2
*D10
340
0
  0
BLOCK_RECORD
  5
185FF
330
7466
100
AcDbSymbolTableRecord
100
AcDbBlockTableRecord
  2
*D11
340
0
  0
BLOCK_RECORD
  5
1860A
330
7466
100
AcDbSymbolTableRecord
100
AcDbBlockTableRecord
  2
*D12
340
0
  0
BLOCK_RECORD
  5
1868D
330
7466
100
AcDbSymbolTableRecord
100
AcDbBlockTableRecord
  2
*D13
340
0
  0
BLOCK_RECORD
  5
186B0
330
7466
100
AcDbSymbolTableRecord
100
AcDbBlockTableRecord
  2
*D14
340
0
  0
BLOCK_RECORD
  5
1B821
330
7466
100
AcDbSymbolTableRecord
100
AcDbBlockTableRecord
  2
*D15
340
0
  0
BLOCK_RECORD
  5
1B82E
330
7466
100
AcDbSymbolTableRecord
100
AcDbBlockTableRecord
  2
A$C019569EB
340
0
102
{BLKREFS
331
1D242
102
}
  0
BLOCK_RECORD
  5
1C1F3
330
7466
100
AcDbSymbolTableRecord
100
AcDbBlockTableRecord
  2
*D17
340
0
  0
BLOCK_RECORD
  5
1C214
330
7466
100
AcDbSymbolTableRecord
100
AcDbBlockTableRecord
  2
*D18
340
0
  0
BLOCK_RECORD
  5
1C8C2
330
7466
100
AcDbSymbolTableRecord
100
AcDbBlockTableRecord
  2
*D19
340
0
  0
BLOCK_RECORD
  5
1C8CF
330
7466
100
AcDbSymbolTableRecord
100
AcDbBlockTableRecord
  2
*D20
340
0
  0
BLOCK_RECORD
  5
1C8DB
330
7466
100
AcDbSymbolTableRecord
100
AcDbBlockTableRecord
  2
*D21
340
0
  0
BLOCK_RECORD
  5
1C8E6
330
7466
100
AcDbSymbolTableRecord
100
AcDbBlockTableRecord
  2
*D22
340
0
  0
BLOCK_RECORD
  5
1C90B
330
7466
100
AcDbSymbolTableRecord
100
AcDbBlockTableRecord
  2
*D23
340
0
  0
BLOCK_RECORD
  5
1C94B
330
7466
100
AcDbSymbolTableRecord
100
AcDbBlockTableRecord
  2
*D24
340
0
  0
BLOCK_RECORD
  5
1C957
330
7466
100
AcDbSymbolTableRecord
100
AcDbBlockTableRecord
  2
*D25
340
0
  0
BLOCK_RECORD
  5
1C962
330
7466
100
AcDbSymbolTableRecord
100
AcDbBlockTableRecord
  2
*D26
340
0
  0
BLOCK_RECORD
  5
1C96F
330
7466
100
AcDbSymbolTableRecord
100
AcDbBlockTableRecord
  2
*D27
340
0
  0
BLOCK_RECORD
  5
1CE4D
330
7466
100
AcDbSymbolTableRecord
100
AcDbBlockTableRecord
  2
*D28
340
0
  0
BLOCK_RECORD
  5
1D07C
330
7466
100
AcDbSymbolTableRecord
100
AcDbBlockTableRecord
  2
*D29
340
0
  0
BLOCK_RECORD
  5
1D089
330
7466
100
AcDbSymbolTableRecord
100
AcDbBlockTableRecord
  2
*D30
340
0
  0
BLOCK_RECORD
  5
1D096
330
7466
100
AcDbSymbolTableRecord
100
AcDbBlockTableRecord
  2
*D31
340
0
  0
BLOCK_RECORD
  5
1D0A1
330
7466
100
AcDbSymbolTableRecord
100
AcDbBlockTableRecord
  2
*D32
340
0
  0
BLOCK_RECORD
  5
1D0AD
330
7466
100
AcDbSymbolTableRecord
100
AcDbBlockTableRecord
  2
*D33
340
0
  0
BLOCK_RECORD
  5
1D0B9
330
7466
100
AcDbSymbolTableRecord
100
AcDbBlockTableRecord
  2
*D34
340
0
  0
BLOCK_RECORD
  5
1D0D0
330
7466
100
AcDbSymbolTableRecord
100
AcDbBlockTableRecord
  2
*D35
340
0
  0
BLOCK_RECORD
  5
1D0EA
330
7466
100
AcDbSymbolTableRecord
100
AcDbBlockTableRecord
  2
*D36
340
0
  0
BLOCK_RECORD
  5
1D0F7
330
7466
100
AcDbSymbolTableRecord
100
AcDbBlockTableRecord
  2
*D37
340
0
  0
BLOCK_RECORD
  5
1D103
330
7466
100
AcDbSymbolTableRecord
100
AcDbBlockTableRecord
  2
*D38
340
0
  0
BLOCK_RECORD
  5
1D254
330
7466
100
AcDbSymbolTableRecord
100
AcDbBlockTableRecord
  2
*D39
340
0
  0
BLOCK_RECORD
  5
1D2CC
330
7466
100
AcDbSymbolTableRecord
100
AcDbBlockTableRecord
  2
*D40
340
0
  0
BLOCK_RECORD
  5
1D2D9
330
7466
100
AcDbSymbolTableRecord
100
AcDbBlockTableRecord
  2
A$C356B7D95
340
0
102
{BLKREFS
331
1D2DE
102
}
  0
BLOCK_RECORD
  5
1D2DD
330
7466
100
AcDbSymbolTableRecord
100
AcDbBlockTableRecord
  2
A$C5FCD7CC6
340
0
102
{BLKREFS
331
1D5B2
102
}
  0
BLOCK_RECORD
  5
1D65E
330
7466
100
AcDbSymbolTableRecord
100
AcDbBlockTableRecord
  2
*D43
340
0
  0
BLOCK_RECORD
  5
1D669
330
7466
100
AcDbSymbolTableRecord
100
AcDbBlockTableRecord
  2
*D44
340
0
  0
BLOCK_RECORD
  5
1D675
330
7466
100
AcDbSymbolTableRecord
100
AcDbBlockTableRecord
  2
*D45
340
0
  0
BLOCK_RECORD
  5
1D682
330
7466
100
AcDbSymbolTableRecord
100
AcDbBlockTableRecord
  2
*D46
340
0
  0
BLOCK_RECORD
  5
1D68E
330
7466
100
AcDbSymbolTableRecord
100
AcDbBlockTableRecord
  2
*D47
340
0
  0
BLOCK_RECORD
  5
1D69A
330
7466
100
AcDbSymbolTableRecord
100
AcDbBlockTableRecord
  2
*D48
340
0
  0
BLOCK_RECORD
  5
1D6A7
330
7466
100
AcDbSymbolTableRecord
100
AcDbBlockTableRecord
  2
*D49
340
0
  0
BLOCK_RECORD
  5
1D6B3
330
7466
100
AcDbSymbolTableRecord
100
AcDbBlockTableRecord
  2
*D50
340
0
  0
BLOCK_RECORD
  5
1D6BE
330
7466
100
AcDbSymbolTableRecord
100
AcDbBlockTableRecord
  2
*D51
340
0
  0
BLOCK_RECORD
  5
1D6CA
330
7466
100
AcDbSymbolTableRecord
100
AcDbBlockTableRecord
  2
*D52
340
0
  0
BLOCK_RECORD
  5
1D6D7
330
7466
100
AcDbSymbolTableRecord
100
AcDbBlockTableRecord
  2
*D53
340
0
  0
ENDTAB
  0
ENDSEC
  0
SECTION
  2
BLOCKS
  0
BLOCK
  5
7489
330
747D
100
AcDbEntity
  8
0
100
AcDbBlockBegin
  2
*MODEL_SPACE
 70
     0
 10
0.0
 20
0.0
 30
0.0
  3
*MODEL_SPACE
  1

  0
ENDBLK
  5
748A
330
747D
100
AcDbEntity
  8
0
100
AcDbBlockEnd
  0
BLOCK
  5
7487
330
747A
100
AcDbEntity
 67
     1
  8
0
100
AcDbBlockBegin
  2
*PAPER_SPACE
 70
     0
 10
0.0
 20
0.0
 30
0.0
  3
*PAPER_SPACE
  1

  0
ENDBLK
  5
7488
330
747A
100
AcDbEntity
 67
     1
  8
0
100
AcDbBlockEnd
  0
BLOCK
  5
F771
330
F770
100
AcDbEntity
  8
0
 48
50.0
100
AcDbBlockBegin
  2
_DOTSMALL
 70
     0
 10
0.0
 20
0.0
 30
0.0
  3
_DOTSMALL
  1

  0
LWPOLYLINE
  5
F772
330
F770
100
AcDbEntity
  8
0
  6
ByBlock
 62
     0
 48
50.0
100
AcDbPolyline
 90
        2
 70
     1
 43
0.5
 10
-0.0625
 20
0.0
 42
1.0
 10
0.0625
 20
0.0
 42
1.0
  0
ENDBLK
  5
F776
330
F770
100
AcDbEntity
  8
0
 48
50.0
100
AcDbBlockEnd
  0
BLOCK
  5
1857C
330
18530
100
AcDbEntity
  8
0
 48
50.0
100
AcDbBlockBegin
  2
*D1
 70
     1
 10
0.0
 20
0.0
 30
0.0
  3
*D1
  1

  0
LINE
  5
1857D
330
18530
100
AcDbEntity
  8
0
  6
ByBlock
 62
     0
 48
50.0
100
AcDbLine
 10
16722.46242649134
 20
9602.681515694126
 30
0.0
 11
17593.79817887432
 21
9602.681515694126
 31
0.0
  0
LINE
  5
1857E
330
18530
100
AcDbEntity
  8
0
  6
ByBlock
 62
     0
 48
50.0
100
AcDbLine
 10
16732.46242649134
 20
9672.681515694129
 30
0.0
 11
17593.79817887432
 21
9672.681515694129
 31
0.0
  0
LINE
  5
1857F
330
18530
100
AcDbEntity
  8
0
  6
ByBlock
 62
     0
 48
50.0
100
AcDbLine
 10
17518.79817887432
 20
9672.681515694129
 30
0.0
 11
17518.79817887432
 21
9602.681515694126
 31
0.0
  0
LINE
  5
18580
330
18530
100
AcDbEntity
  8
0
  6
ByBlock
 62
     0
 48
50.0
100
AcDbLine
 10
17518.79817887432
 20
9602.681515694126
 30
0.0
 11
17518.79817887432
 21
9262.563405457903
 31
0.0
  0
INSERT
  5
18581
330
18530
100
AcDbEntity
  8
0
  6
ByBlock
 62
     0
 48
50.0
100
AcDbBlockReference
  2
_DOTSMALL
 10
17518.79817887432
 20
9672.681515694129
 30
0.0
 41
125.0
 42
125.0
 43
125.0
 50
90.0
  0
INSERT
  5
18582
330
18530
100
AcDbEntity
  8
0
  6
ByBlock
 62
     0
 48
50.0
100
AcDbBlockReference
  2
_DOTSMALL
 10
17518.79817887432
 20
9602.681515694126
 30
0.0
 41
125.0
 42
125.0
 43
125.0
 50
270.0
  0
MTEXT
  5
18583
330
18530
100
AcDbEntity
  8
0
  6
ByBlock
 62
     7
 48
50.0
100
AcDbMText
 10
17418.79817887432
 20
9370.122460576014
 30
0.0
 40
150.0
 41
0.0
 71
     5
 72
     1
  1
\A1;70
  7
STYLE1
 11
0.0000000000000001
 21
1.0
 31
0.0
 73
     1
 44
1.0
  0
POINT
  5
18584
330
18530
100
AcDbEntity
  8
DEFPOINTS
  6
ByBlock
 62
     0
 48
50.0
100
AcDbPoint
 10
16697.46242649134
 20
9602.681515694126
 30
0.0
  0
POINT
  5
18585
330
18530
100
AcDbEntity
  8
DEFPOINTS
  6
ByBlock
 62
     0
 48
50.0
100
AcDbPoint
 10
16707.46242649134
 20
9672.681515694129
 30
0.0
  0
POINT
  5
18586
330
18530
100
AcDbEntity
  8
DEFPOINTS
  6
ByBlock
 62
     0
 48
50.0
100
AcDbPoint
 10
17518.79817887432
 20
9672.681515694129
 30
0.0
  0
ENDBLK
  5
18587
330
18530
100
AcDbEntity
  8
0
 48
50.0
100
AcDbBlockEnd
  0
BLOCK
  5
1D287
330
1853D
100
AcDbEntity
  8
0
 48
50.0
100
AcDbBlockBegin
  2
*D2
 70
     1
 10
0.0
 20
0.0
 30
0.0
  3
*D2
  1

  0
LINE
  5
1D288
330
1853D
100
AcDbEntity
  8
0
  6
ByBlock
 62
     0
 48
50.0
100
AcDbLine
 10
14557.82958141817
 20
9298.736797361931
 30
0.0
 11
15419.16533380114
 21
9298.736797361931
 31
0.0
  0
LINE
  5
1D289
330
1853D
100
AcDbEntity
  8
0
  6
ByBlock
 62
     0
 48
50.0
100
AcDbLine
 10
14557.82958141817
 20
11618.73679736193
 30
0.0
 11
15419.16533380114
 21
11618.73679736193
 31
0.0
  0
LINE
  5
1D28A
330
1853D
100
AcDbEntity
  8
0
  6
ByBlock
 62
     0
 48
50.0
100
AcDbLine
 10
15344.16533380114
 20
9298.736797361931
 30
0.0
 11
15344.16533380114
 21
11618.73679736193
 31
0.0
  0
INSERT
  5
1D28B
330
1853D
100
AcDbEntity
  8
0
  6
ByBlock
 62
     0
 48
50.0
100
AcDbBlockReference
  2
_DOTSMALL
 10
15344.16533380114
 20
9298.736797361931
 30
0.0
 41
125.0
 42
125.0
 43
125.0
 50
270.0
  0
INSERT
  5
1D28C
330
1853D
100
AcDbEntity
  8
0
  6
ByBlock
 62
     0
 48
50.0
100
AcDbBlockReference
  2
_DOTSMALL
 10
15344.16533380114
 20
11618.73679736193
 30
0.0
 41
125.0
 42
125.0
 43
125.0
 50
90.0
  0
MTEXT
  5
1D28D
330
1853D
100
AcDbEntity
  8
0
  6
ByBlock
 62
     7
 48
50.0
100
AcDbMText
 10
15244.15057002161
 20
10458.73679736192
 30
0.0
 40
150.0
 41
0.0
 71
     5
 72
     1
  1
\A1;4x580=2320
  7
STYLE1
 11
0.0000000000000001
 21
1.0
 31
0.0
 73
     1
 44
1.0
  0
POINT
  5
1D28E
330
1853D
100
AcDbEntity
  8
DEFPOINTS
  6
ByBlock
 62
     0
 48
50.0
100
AcDbPoint
 10
14532.82958141817
 20
9298.736797361931
 30
0.0
  0
POINT
  5
1D28F
330
1853D
100
AcDbEntity
  8
DEFPOINTS
  6
ByBlock
 62
     0
 48
50.0
100
AcDbPoint
 10
14532.82958141817
 20
11618.73679736193
 30
0.0
  0
POINT
  5
1D290
330
1853D
100
AcDbEntity
  8
DEFPOINTS
  6
ByBlock
 62
     0
 48
50.0
100
AcDbPoint
 10
15344.16533380114
 20
11618.73679736193
 30
0.0
  0
ENDBLK
  5
1D291
330
1853D
100
AcDbEntity
  8
0
 48
50.0
100
AcDbBlockEnd
  0
BLOCK
  5
18594
330
18549
100
AcDbEntity
  8
0
 48
50.0
100
AcDbBlockBegin
  2
*D3
 70
     1
 10
0.0
 20
0.0
 30
0.0
  3
*D3
  1

  0
LINE
  5
18595
330
18549
100
AcDbEntity
  8
0
  6
ByBlock
 62
     0
 48
50.0
100
AcDbLine
 10
16732.46242649134
 20
12572.68151569412
 30
0.0
 11
17593.79817887431
 21
12572.68151569412
 31
0.0
  0
LINE
  5
18596
330
18549
100
AcDbEntity
  8
0
  6
ByBlock
 62
     0
 48
50.0
100
AcDbLine
 10
16722.46242649134
 20
12642.68151569412
 30
0.0
 11
17593.79817887431
 21
12642.68151569412
 31
0.0
  0
LINE
  5
18597
330
18549
100
AcDbEntity
  8
0
  6
ByBlock
 62
     0
 48
50.0
100
AcDbLine
 10
17518.79817887431
 20
12572.68151569412
 30
0.0
 11
17518.79817887431
 21
12642.68151569412
 31
0.0
  0
LINE
  5
18598
330
18549
100
AcDbEntity
  8
0
  6
ByBlock
 62
     0
 48
50.0
100
AcDbLine
 10
17518.79817887431
 20
12642.68151569412
 30
0.0
 11
17518.79817887431
 21
12982.79962593034
 31
0.0
  0
INSERT
  5
18599
330
18549
100
AcDbEntity
  8
0
  6
ByBlock
 62
     0
 48
50.0
100
AcDbBlockReference
  2
_DOTSMALL
 10
17518.79817887431
 20
12572.68151569412
 30
0.0
 41
125.0
 42
125.0
 43
125.0
 50
270.0
  0
INSERT
  5
1859A
330
18549
100
AcDbEntity
  8
0
  6
ByBlock
 62
     0
 48
50.0
100
AcDbBlockReference
  2
_DOTSMALL
 10
17518.79817887431
 20
12642.68151569412
 30
0.0
 41
125.0
 42
125.0
 43
125.0
 50
90.0
  0
MTEXT
  5
1859B
330
18549
100
AcDbEntity
  8
0
  6
ByBlock
 62
     7
 48
50.0
100
AcDbMText
 10
17418.79817887431
 20
12875.24057081223
 30
0.0
 40
150.0
 41
0.0
 71
     5
 72
     1
  1
\A1;70
  7
STYLE1
 11
0.0000000000000001
 21
1.0
 31
0.0
 73
     1
 44
1.0
  0
POINT
  5
1859C
330
18549
100
AcDbEntity
  8
DEFPOINTS
  6
ByBlock
 62
     0
 48
50.0
100
AcDbPoint
 10
16707.46242649134
 20
12572.68151569412
 30
0.0
  0
POINT
  5
1859D
330
18549
100
AcDbEntity
  8
DEFPOINTS
  6
ByBlock
 62
     0
 48
50.0
100
AcDbPoint
 10
16697.46242649134
 20
12642.68151569412
 30
0.0
  0
POINT
  5
1859E
330
18549
100
AcDbEntity
  8
DEFPOINTS
  6
ByBlock
 62
     0
 48
50.0
100
AcDbPoint
 10
17518.79817887431
 20
12642.68151569412
 30
0.0
  0
ENDBLK
  5
1859F
330
18549
100
AcDbEntity
  8
0
 48
50.0
100
AcDbBlockEnd
  0
BLOCK
  5
1A4E6
330
18556
100
AcDbEntity
  8
0
 48
50.0
100
AcDbBlockBegin
  2
*D4
 70
     1
 10
0.0
 20
0.0
 30
0.0
  3
*D4
  1

  0
LINE
  5
1A4E7
330
18556
100
AcDbEntity
  8
0
  6
ByBlock
 62
     0
 48
50.0
100
AcDbLine
 10
8477.829581418175
 20
9228.736797361971
 30
0.0
 11
9651.969337719759
 21
9228.736797361971
 31
0.0
  0
LINE
  5
1A4E8
330
18556
100
AcDbEntity
  8
0
  6
ByBlock
 62
     0
 48
50.0
100
AcDbLine
 10
9299.165333801147
 20
9278.736797361975
 30
0.0
 11
9651.969337719759
 21
9278.736797361975
 31
0.0
  0
LINE
  5
1A4E9
330
18556
100
AcDbEntity
  8
0
  6
ByBlock
 62
     0
 48
50.0
100
AcDbLine
 10
9576.969337719758
 20
9278.736797361975
 30
0.0
 11
9576.969337719758
 21
9228.736797361971
 31
0.0
  0
LINE
  5
1A4EA
330
18556
100
AcDbEntity
  8
0
  6
ByBlock
 62
     0
 48
50.0
100
AcDbLine
 10
9576.969337719758
 20
9228.736797361971
 30
0.0
 11
9576.969337719758
 21
8884.130498149373
 31
0.0
  0
INSERT
  5
1A4EB
330
18556
100
AcDbEntity
  8
0
  6
ByBlock
 62
     0
 48
50.0
100
AcDbBlockReference
  2
_DOTSMALL
 10
9576.969337719758
 20
9278.736797361975
 30
0.0
 41
125.0
 42
125.0
 43
125.0
 50
90.0
  0
INSERT
  5
1A4EC
330
18556
100
AcDbEntity
  8
0
  6
ByBlock
 62
     0
 48
50.0
100
AcDbBlockReference
  2
_DOTSMALL
 10
9576.969337719758
 20
9228.736797361971
 30
0.0
 41
125.0
 42
125.0
 43
125.0
 50
270.0
  0
MTEXT
  5
1A4ED
330
18556
100
AcDbEntity
  8
0
  6
ByBlock
 62
     7
 48
50.0
100
AcDbMText
 10
9476.969337719758
 20
8991.689553267482
 30
0.0
 40
150.0
 41
0.0
 71
     5
 72
     1
  1
\A1;50
  7
STYLE1
 11
0.0000000000000001
 21
1.0
 31
0.0
 73
     1
 44
1.0
  0
POINT
  5
1A4EE
330
18556
100
AcDbEntity
  8
DEFPOINTS
  6
ByBlock
 62
     0
 48
50.0
100
AcDbPoint
 10
8452.829581418177
 20
9228.736797361971
 30
0.0
  0
POINT
  5
1A4EF
330
18556
100
AcDbEntity
  8
DEFPOINTS
  6
ByBlock
 62
     0
 48
50.0
100
AcDbPoint
 10
9274.165333801148
 20
9278.736797361975
 30
0.0
  0
POINT
  5
1A4F0
330
18556
100
AcDbEntity
  8
DEFPOINTS
  6
ByBlock
 62
     0
 48
50.0
100
AcDbPoint
 10
9576.969337719758
 20
9278.736797361975
 30
0.0
  0
ENDBLK
  5
1A4F1
330
18556
100
AcDbEntity
  8
0
 48
50.0
100
AcDbBlockEnd
  0
BLOCK
  5
1D276
330
18563
100
AcDbEntity
  8
0
 48
50.0
100
AcDbBlockBegin
  2
*D5
 70
     1
 10
0.0
 20
0.0
 30
0.0
  3
*D5
  1

  0
LINE
  5
1D277
330
18563
100
AcDbEntity
  8
0
  6
ByBlock
 62
     0
 48
50.0
100
AcDbLine
 10
15369.16533380114
 20
9278.736797361931
 30
0.0
 11
15721.96933771975
 21
9278.736797361931
 31
0.0
  0
LINE
  5
1D278
330
18563
100
AcDbEntity
  8
0
  6
ByBlock
 62
     0
 48
50.0
100
AcDbLine
 10
15369.16533380114
 20
11638.73679736193
 30
0.0
 11
15721.96933771975
 21
11638.73679736193
 31
0.0
  0
LINE
  5
1D279
330
18563
100
AcDbEntity
  8
0
  6
ByBlock
 62
     0
 48
50.0
100
AcDbLine
 10
15646.96933771975
 20
9278.736797361931
 30
0.0
 11
15646.96933771975
 21
11638.73679736193
 31
0.0
  0
INSERT
  5
1D27A
330
18563
100
AcDbEntity
  8
0
  6
ByBlock
 62
     0
 48
50.0
100
AcDbBlockReference
  2
_DOTSMALL
 10
15646.96933771975
 20
9278.736797361931
 30
0.0
 41
125.0
 42
125.0
 43
125.0
 50
270.0
  0
INSERT
  5
1D27B
330
18563
100
AcDbEntity
  8
0
  6
ByBlock
 62
     0
 48
50.0
100
AcDbBlockReference
  2
_DOTSMALL
 10
15646.96933771975
 20
11638.73679736193
 30
0.0
 41
125.0
 42
125.0
 43
125.0
 50
90.0
  0
MTEXT
  5
1D27C
330
18563
100
AcDbEntity
  8
0
  6
ByBlock
 62
     7
 48
50.0
100
AcDbMText
 10
15546.95457394022
 20
10458.73679736193
 30
0.0
 40
150.0
 41
0.0
 71
     5
 72
     1
  1
\A1;内部寸法 2360
  7
STYLE1
 11
0.0000000000000001
 21
1.0
 31
0.0
 73
     1
 44
1.0
  0
POINT
  5
1D27D
330
18563
100
AcDbEntity
  8
DEFPOINTS
  6
ByBlock
 62
     0
 48
50.0
100
AcDbPoint
 10
15344.16533380114
 20
9278.736797361931
 30
0.0
  0
POINT
  5
1D27E
330
18563
100
AcDbEntity
  8
DEFPOINTS
  6
ByBlock
 62
     0
 48
50.0
100
AcDbPoint
 10
15344.16533380114
 20
11638.73679736193
 30
0.0
  0
POINT
  5
1D27F
330
18563
100
AcDbEntity
  8
DEFPOINTS
  6
ByBlock
 62
     0
 48
50.0
100
AcDbPoint
 10
15646.96933771975
 20
11638.73679736193
 30
0.0
  0
ENDBLK
  5
1D280
330
18563
100
AcDbEntity
  8
0
 48
50.0
100
AcDbBlockEnd
  0
BLOCK
  5
1A4CE
330
1856F
100
AcDbEntity
  8
0
 48
50.0
100
AcDbBlockBegin
  2
*D6
 70
     1
 10
0.0
 20
0.0
 30
0.0
  3
*D6
  1

  0
LINE
  5
1A4CF
330
1856F
100
AcDbEntity
  8
0
  6
ByBlock
 62
     0
 48
50.0
100
AcDbLine
 10
9299.165333801145
 20
12218.73679736197
 30
0.0
 11
9651.969337719755
 21
12218.73679736197
 31
0.0
  0
LINE
  5
1A4D0
330
1856F
100
AcDbEntity
  8
0
  6
ByBlock
 62
     0
 48
50.0
100
AcDbLine
 10
8477.829581418173
 20
12268.73679736197
 30
0.0
 11
9651.969337719755
 21
12268.73679736197
 31
0.0
  0
LINE
  5
1A4D1
330
1856F
100
AcDbEntity
  8
0
  6
ByBlock
 62
     0
 48
50.0
100
AcDbLine
 10
9576.969337719754
 20
12218.73679736197
 30
0.0
 11
9576.969337719754
 21
12093.73679736197
 31
0.0
  0
LINE
  5
1A4D2
330
1856F
100
AcDbEntity
  8
0
  6
ByBlock
 62
     0
 48
50.0
100
AcDbLine
 10
9576.969337719754
 20
12268.73679736197
 30
0.0
 11
9576.969337719754
 21
12733.85490759819
 31
0.0
  0
LINE
  5
1A4D3
330
1856F
100
AcDbEntity
  8
0
  6
ByBlock
 62
     0
 48
50.0
100
AcDbLine
 10
9576.969337719754
 20
12218.73679736197
 30
0.0
 11
9576.969337719754
 21
12268.73679736197
 31
0.0
  0
INSERT
  5
1A4D4
330
1856F
100
AcDbEntity
  8
0
  6
ByBlock
 62
     0
 48
50.0
100
AcDbBlockReference
  2
_DOTSMALL
 10
9576.969337719754
 20
12218.73679736197
 30
0.0
 41
125.0
 42
125.0
 43
125.0
 50
90.0
  0
INSERT
  5
1A4D5
330
1856F
100
AcDbEntity
  8
0
  6
ByBlock
 62
     0
 48
50.0
100
AcDbBlockReference
  2
_DOTSMALL
 10
9576.969337719754
 20
12268.73679736197
 30
0.0
 41
125.0
 42
125.0
 43
125.0
 50
270.0
  0
MTEXT
  5
1A4D6
330
1856F
100
AcDbEntity
  8
0
  6
ByBlock
 62
     7
 48
50.0
100
AcDbMText
 10
9476.969337719754
 20
12626.29585248008
 30
0.0
 40
150.0
 41
0.0
 71
     5
 72
     1
  1
\A1;50
  7
STYLE1
 11
0.0000000000000001
 21
1.0
 31
0.0
 73
     1
 44
1.0
  0
POINT
  5
1A4D7
330
1856F
100
AcDbEntity
  8
DEFPOINTS
  6
ByBlock
 62
     0
 48
50.0
100
AcDbPoint
 10
9274.165333801144
 20
12218.73679736197
 30
0.0
  0
POINT
  5
1A4D8
330
1856F
100
AcDbEntity
  8
DEFPOINTS
  6
ByBlock
 62
     0
 48
50.0
100
AcDbPoint
 10
8452.829581418173
 20
12268.73679736197
 30
0.0
  0
POINT
  5
1A4D9
330
1856F
100
AcDbEntity
  8
DEFPOINTS
  6
ByBlock
 62
     0
 48
50.0
100
AcDbPoint
 10
9576.969337719754
 20
12268.73679736197
 30
0.0
  0
ENDBLK
  5
1A4DA
330
1856F
100
AcDbEntity
  8
0
 48
50.0
100
AcDbBlockEnd
  0
BLOCK
  5
18624
330
185B5
100
AcDbEntity
  8
0
 48
50.0
100
AcDbBlockBegin
  2
*D7
 70
     1
 10
0.0
 20
0.0
 30
0.0
  3
*D7
  1

  0
LINE
  5
18625
330
185B5
100
AcDbEntity
  8
0
  6
ByBlock
 62
     0
 48
50.0
100
AcDbLine
 10
11787.46242649134
 20
12657.68151569412
 30
0.0
 11
11787.46242649134
 21
13127.71350056477
 31
0.0
  0
LINE
  5
18626
330
185B5
100
AcDbEntity
  8
0
  6
ByBlock
 62
     0
 48
50.0
100
AcDbLine
 10
11857.46242649134
 20
12667.68151569412
 30
0.0
 11
11857.46242649134
 21
13127.71350056477
 31
0.0
  0
LINE
  5
18627
330
185B5
100
AcDbEntity
  8
0
  6
ByBlock
 62
     0
 48
50.0
100
AcDbLine
 10
11857.46242649134
 20
13052.71350056477
 30
0.0
 11
11787.46242649134
 21
13052.71350056477
 31
0.0
  0
LINE
  5
18628
330
185B5
100
AcDbEntity
  8
0
  6
ByBlock
 62
     0
 48
50.0
100
AcDbLine
 10
11787.46242649134
 20
13052.71350056477
 30
0.0
 11
11437.34431625512
 21
13052.71350056477
 31
0.0
  0
INSERT
  5
18629
330
185B5
100
AcDbEntity
  8
0
  6
ByBlock
 62
     0
 48
50.0
100
AcDbBlockReference
  2
_DOTSMALL
 10
11857.46242649134
 20
13052.71350056477
 30
0.0
 41
125.0
 42
125.0
 43
125.0
  0
INSERT
  5
1862A
330
185B5
100
AcDbEntity
  8
0
  6
ByBlock
 62
     0
 48
50.0
100
AcDbBlockReference
  2
_DOTSMALL
 10
11787.46242649134
 20
13052.71350056477
 30
0.0
 41
125.0
 42
125.0
 43
125.0
 50
180.0
  0
MTEXT
  5
1862B
330
185B5
100
AcDbEntity
  8
0
  6
ByBlock
 62
     7
 48
50.0
100
AcDbMText
 10
11544.90337137323
 20
13152.71350056477
 30
0.0
 40
150.0
 41
0.0
 71
     5
 72
     1
  1
\A1;70
  7
STYLE1
 73
     1
 44
1.0
  0
POINT
  5
1862C
330
185B5
100
AcDbEntity
  8
DEFPOINTS
  6
ByBlock
 62
     0
 48
50.0
100
AcDbPoint
 10
11787.46242649134
 20
12632.68151569412
 30
0.0
  0
POINT
  5
1862D
330
185B5
100
AcDbEntity
  8
DEFPOINTS
  6
ByBlock
 62
     0
 48
50.0
100
AcDbPoint
 10
11857.46242649134
 20
12642.68151569412
 30
0.0
  0
POINT
  5
1862E
330
185B5
100
AcDbEntity
  8
DEFPOINTS
  6
ByBlock
 62
     0
 48
50.0
100
AcDbPoint
 10
11857.46242649134
 20
13052.71350056477
 30
0.0
  0
ENDBLK
  5
1862F
330
185B5
100
AcDbEntity
  8
0
 48
50.0
100
AcDbBlockEnd
  0
BLOCK
  5
1C9A4
330
185C2
100
AcDbEntity
  8
0
 48
50.0
100
AcDbBlockBegin
  2
*D8
 70
     1
 10
0.0
 20
0.0
 30
0.0
  3
*D8
  1

  0
LINE
  5
1D7A8
330
185C2
100
AcDbEntity
  8
寸法
 62
     0
 48
50.0
100
AcDbLine
 10
14462.82958141817
 20
11713.73679736193
 30
0.0
 11
14462.82958141817
 21
12173.76878223257
 31
0.0
  0
LINE
  5
1D7A9
330
185C2
100
AcDbEntity
  8
寸法
 62
     0
 48
50.0
100
AcDbLine
 10
12142.82958141817
 20
12098.76878223257
 30
0.0
 11
14462.82958141817
 21
12098.76878223257
 31
0.0
  0
INSERT
  5
1D7AA
330
185C2
100
AcDbEntity
  8
寸法
 62
     0
 48
50.0
100
AcDbBlockReference
  2
_DOTSMALL
 10
12142.82958141817
 20
12098.76878223257
 30
0.0
 41
125.0
 42
125.0
 43
125.0
 50
180.0
  0
INSERT
  5
1D7AB
330
185C2
100
AcDbEntity
  8
寸法
 62
     0
 48
50.0
100
AcDbBlockReference
  2
_DOTSMALL
 10
14462.82958141817
 20
12098.76878223257
 30
0.0
 41
125.0
 42
125.0
 43
125.0
  0
MTEXT
  5
1D7AC
330
185C2
100
AcDbEntity
  8
寸法
 62
     7
 48
50.0
100
AcDbMText
 10
13302.82958141817
 20
12198.7835460121
 30
0.0
 40
150.0
 41
0.0
 71
     5
 72
     1
  1
\A1;4x580=2320
  7
STYLE1
 73
     1
 44
1.0
  0
POINT
  5
1D7AD
330
185C2
100
AcDbEntity
  8
DEFPOINTS
 62
     0
 48
50.0
100
AcDbPoint
 10
12142.82958141817
 20
11688.73679736192
 30
0.0
  0
POINT
  5
1D7AE
330
185C2
100
AcDbEntity
  8
DEFPOINTS
 62
     0
 48
50.0
100
AcDbPoint
 10
14462.82958141817
 20
11688.73679736193
 30
0.0
  0
POINT
  5
1D7AF
330
185C2
100
AcDbEntity
  8
DEFPOINTS
 62
     0
 48
50.0
100
AcDbPoint
 10
14462.82958141817
 20
12098.76878223257
 30
0.0
  0
ENDBLK
  5
1C9AD
330
185C2
100
AcDbEntity
  8
0
 48
50.0
100
AcDbBlockEnd
  0
BLOCK
  5
18656
330
185E5
100
AcDbEntity
  8
0
 48
50.0
100
AcDbBlockBegin
  2
*D9
 70
     1
 10
0.0
 20
0.0
 30
0.0
  3
*D9
  1

  0
LINE
  5
18657
330
185E5
100
AcDbEntity
  8
0
  6
ByBlock
 62
     0
 48
50.0
100
AcDbLine
 10
16637.46242649134
 20
12667.68151569412
 30
0.0
 11
16637.46242649134
 21
13127.71350056477
 31
0.0
  0
LINE
  5
18658
330
185E5
100
AcDbEntity
  8
0
  6
ByBlock
 62
     0
 48
50.0
100
AcDbLine
 10
16707.46242649134
 20
12657.68151569412
 30
0.0
 11
16707.46242649134
 21
13127.71350056477
 31
0.0
  0
LINE
  5
18659
330
185E5
100
AcDbEntity
  8
0
  6
ByBlock
 62
     0
 48
50.0
100
AcDbLine
 10
16637.46242649134
 20
13052.71350056477
 30
0.0
 11
16707.46242649134
 21
13052.71350056477
 31
0.0
  0
LINE
  5
1865A
330
185E5
100
AcDbEntity
  8
0
  6
ByBlock
 62
     0
 48
50.0
100
AcDbLine
 10
16707.46242649134
 20
13052.71350056477
 30
0.0
 11
17077.58053672756
 21
13052.71350056477
 31
0.0
  0
INSERT
  5
1865B
330
185E5
100
AcDbEntity
  8
0
  6
ByBlock
 62
     0
 48
50.0
100
AcDbBlockReference
  2
_DOTSMALL
 10
16637.46242649134
 20
13052.71350056477
 30
0.0
 41
125.0
 42
125.0
 43
125.0
 50
180.0
  0
INSERT
  5
1865C
330
185E5
100
AcDbEntity
  8
0
  6
ByBlock
 62
     0
 48
50.0
100
AcDbBlockReference
  2
_DOTSMALL
 10
16707.46242649134
 20
13052.71350056477
 30
0.0
 41
125.0
 42
125.0
 43
125.0
  0
MTEXT
  5
1865D
330
185E5
100
AcDbEntity
  8
0
  6
ByBlock
 62
     7
 48
50.0
100
AcDbMText
 10
16970.02148160945
 20
13152.71350056477
 30
0.0
 40
150.0
 41
0.0
 71
     5
 72
     1
  1
\A1;70
  7
STYLE1
 73
     1
 44
1.0
  0
POINT
  5
1865E
330
185E5
100
AcDbEntity
  8
DEFPOINTS
  6
ByBlock
 62
     0
 48
50.0
100
AcDbPoint
 10
16637.46242649134
 20
12642.68151569412
 30
0.0
  0
POINT
  5
1865F
330
185E5
100
AcDbEntity
  8
DEFPOINTS
  6
ByBlock
 62
     0
 48
50.0
100
AcDbPoint
 10
16707.46242649134
 20
12632.68151569412
 30
0.0
  0
POINT
  5
18660
330
185E5
100
AcDbEntity
  8
DEFPOINTS
  6
ByBlock
 62
     0
 48
50.0
100
AcDbPoint
 10
16707.46242649134
 20
13052.71350056477
 30
0.0
  0
ENDBLK
  5
18661
330
185E5
100
AcDbEntity
  8
0
 48
50.0
100
AcDbBlockEnd
  0
BLOCK
  5
18617
330
185F2
100
AcDbEntity
  8
0
 48
50.0
100
AcDbBlockBegin
  2
*D10
 70
     1
 10
0.0
 20
0.0
 30
0.0
  3
*D10
  1

  0
LINE
  5
18618
330
185F2
100
AcDbEntity
  8
0
  6
ByBlock
 62
     0
 48
50.0
100
AcDbLine
 10
11787.46242649134
 20
12657.68151569412
 30
0.0
 11
11787.46242649134
 21
13426.45988446553
 31
0.0
  0
LINE
  5
18619
330
185F2
100
AcDbEntity
  8
0
  6
ByBlock
 62
     0
 48
50.0
100
AcDbLine
 10
11837.46242649134
 20
13077.71350056477
 30
0.0
 11
11837.46242649134
 21
13426.45988446553
 31
0.0
  0
LINE
  5
1861A
330
185F2
100
AcDbEntity
  8
0
  6
ByBlock
 62
     0
 48
50.0
100
AcDbLine
 10
11837.46242649134
 20
13351.45988446553
 30
0.0
 11
11962.46242649134
 21
13351.45988446553
 31
0.0
  0
LINE
  5
1861B
330
185F2
100
AcDbEntity
  8
0
  6
ByBlock
 62
     0
 48
50.0
100
AcDbLine
 10
11787.46242649134
 20
13351.45988446553
 30
0.0
 11
11322.34431625512
 21
13351.45988446553
 31
0.0
  0
LINE
  5
1861C
330
185F2
100
AcDbEntity
  8
0
  6
ByBlock
 62
     0
 48
50.0
100
AcDbLine
 10
11837.46242649134
 20
13351.45988446553
 30
0.0
 11
11787.46242649134
 21
13351.45988446553
 31
0.0
  0
INSERT
  5
1861D
330
185F2
100
AcDbEntity
  8
0
  6
ByBlock
 62
     0
 48
50.0
100
AcDbBlockReference
  2
_DOTSMALL
 10
11837.46242649134
 20
13351.45988446553
 30
0.0
 41
125.0
 42
125.0
 43
125.0
 50
180.0
  0
INSERT
  5
1861E
330
185F2
100
AcDbEntity
  8
0
  6
ByBlock
 62
     0
 48
50.0
100
AcDbBlockReference
  2
_DOTSMALL
 10
11787.46242649134
 20
13351.45988446553
 30
0.0
 41
125.0
 42
125.0
 43
125.0
  0
MTEXT
  5
1861F
330
185F2
100
AcDbEntity
  8
0
  6
ByBlock
 62
     7
 48
50.0
100
AcDbMText
 10
11429.90337137323
 20
13451.45988446553
 30
0.0
 40
150.0
 41
0.0
 71
     5
 72
     1
  1
\A1;50
  7
STYLE1
 73
     1
 44
1.0
  0
POINT
  5
18620
330
185F2
100
AcDbEntity
  8
DEFPOINTS
  6
ByBlock
 62
     0
 48
50.0
100
AcDbPoint
 10
11787.46242649134
 20
12632.68151569412
 30
0.0
  0
POINT
  5
18621
330
185F2
100
AcDbEntity
  8
DEFPOINTS
  6
ByBlock
 62
     0
 48
50.0
100
AcDbPoint
 10
11837.46242649134
 20
13052.71350056477
 30
0.0
  0
POINT
  5
18622
330
185F2
100
AcDbEntity
  8
DEFPOINTS
  6
ByBlock
 62
     0
 48
50.0
100
AcDbPoint
 10
11837.46242649134
 20
13351.45988446553
 30
0.0
  0
ENDBLK
  5
18623
330
185F2
100
AcDbEntity
  8
0
 48
50.0
100
AcDbBlockEnd
  0
BLOCK
  5
1C98F
330
185FF
100
AcDbEntity
  8
0
 48
50.0
100
AcDbBlockBegin
  2
*D11
 70
     1
 10
0.0
 20
0.0
 30
0.0
  3
*D11
  1

  0
LINE
  5
1D7A0
330
185FF
100
AcDbEntity
  8
寸法
 62
     0
 48
50.0
100
AcDbLine
 10
14482.82958141817
 20
12123.76878223258
 30
0.0
 11
14482.82958141817
 21
12472.51516613333
 31
0.0
  0
LINE
  5
1D7A1
330
185FF
100
AcDbEntity
  8
寸法
 62
     0
 48
50.0
100
AcDbLine
 10
12122.82958141816
 20
12397.51516613334
 30
0.0
 11
14482.82958141817
 21
12397.51516613334
 31
0.0
  0
INSERT
  5
1D7A2
330
185FF
100
AcDbEntity
  8
寸法
 62
     0
 48
50.0
100
AcDbBlockReference
  2
_DOTSMALL
 10
12122.82958141816
 20
12397.51516613334
 30
0.0
 41
125.0
 42
125.0
 43
125.0
 50
180.0
  0
INSERT
  5
1D7A3
330
185FF
100
AcDbEntity
  8
寸法
 62
     0
 48
50.0
100
AcDbBlockReference
  2
_DOTSMALL
 10
14482.82958141817
 20
12397.51516613334
 30
0.0
 41
125.0
 42
125.0
 43
125.0
  0
MTEXT
  5
1D7A4
330
185FF
100
AcDbEntity
  8
寸法
 62
     7
 48
50.0
100
AcDbMText
 10
13302.82958141817
 20
12497.52992991286
 30
0.0
 40
150.0
 41
0.0
 71
     5
 72
     1
  1
\A1;内部寸法 2360
  7
STYLE1
 73
     1
 44
1.0
  0
POINT
  5
1D7A5
330
185FF
100
AcDbEntity
  8
DEFPOINTS
 62
     0
 48
50.0
100
AcDbPoint
 10
12122.82958141816
 20
12098.76878223257
 30
0.0
  0
POINT
  5
1D7A6
330
185FF
100
AcDbEntity
  8
DEFPOINTS
 62
     0
 48
50.0
100
AcDbPoint
 10
14482.82958141817
 20
12098.76878223258
 30
0.0
  0
POINT
  5
1D7A7
330
185FF
100
AcDbEntity
  8
DEFPOINTS
 62
     0
 48
50.0
100
AcDbPoint
 10
14482.82958141817
 20
12397.51516613334
 30
0.0
  0
ENDBLK
  5
1C998
330
185FF
100
AcDbEntity
  8
0
 48
50.0
100
AcDbBlockEnd
  0
BLOCK
  5
18649
330
1860A
100
AcDbEntity
  8
0
 48
50.0
100
AcDbBlockBegin
  2
*D12
 70
     1
 10
0.0
 20
0.0
 30
0.0
  3
*D12
  1

  0
LINE
  5
1864A
330
1860A
100
AcDbEntity
  8
0
  6
ByBlock
 62
     0
 48
50.0
100
AcDbLine
 10
16657.46242649135
 20
13077.71350056477
 30
0.0
 11
16657.46242649135
 21
13426.45988446553
 31
0.0
  0
LINE
  5
1864B
330
1860A
100
AcDbEntity
  8
0
  6
ByBlock
 62
     0
 48
50.0
100
AcDbLine
 10
16707.46242649134
 20
12657.68151569412
 30
0.0
 11
16707.46242649134
 21
13426.45988446553
 31
0.0
  0
LINE
  5
1864C
330
1860A
100
AcDbEntity
  8
0
  6
ByBlock
 62
     0
 48
50.0
100
AcDbLine
 10
16657.46242649135
 20
13351.45988446553
 30
0.0
 11
16532.46242649135
 21
13351.45988446553
 31
0.0
  0
LINE
  5
1864D
330
1860A
100
AcDbEntity
  8
0
  6
ByBlock
 62
     0
 48
50.0
100
AcDbLine
 10
16707.46242649134
 20
13351.45988446553
 30
0.0
 11
17172.58053672756
 21
13351.45988446553
 31
0.0
  0
LINE
  5
1864E
330
1860A
100
AcDbEntity
  8
0
  6
ByBlock
 62
     0
 48
50.0
100
AcDbLine
 10
16657.46242649135
 20
13351.45988446553
 30
0.0
 11
16707.46242649134
 21
13351.45988446553
 31
0.0
  0
INSERT
  5
1864F
330
1860A
100
AcDbEntity
  8
0
  6
ByBlock
 62
     0
 48
50.0
100
AcDbBlockReference
  2
_DOTSMALL
 10
16657.46242649135
 20
13351.45988446553
 30
0.0
 41
125.0
 42
125.0
 43
125.0
  0
INSERT
  5
18650
330
1860A
100
AcDbEntity
  8
0
  6
ByBlock
 62
     0
 48
50.0
100
AcDbBlockReference
  2
_DOTSMALL
 10
16707.46242649134
 20
13351.45988446553
 30
0.0
 41
125.0
 42
125.0
 43
125.0
 50
180.0
  0
MTEXT
  5
18651
330
1860A
100
AcDbEntity
  8
0
  6
ByBlock
 62
     7
 48
50.0
100
AcDbMText
 10
17065.02148160945
 20
13451.45988446553
 30
0.0
 40
150.0
 41
0.0
 71
     5
 72
     1
  1
\A1;50
  7
STYLE1
 73
     1
 44
1.0
  0
POINT
  5
18652
330
1860A
100
AcDbEntity
  8
DEFPOINTS
  6
ByBlock
 62
     0
 48
50.0
100
AcDbPoint
 10
16657.46242649135
 20
13052.71350056477
 30
0.0
  0
POINT
  5
18653
330
1860A
100
AcDbEntity
  8
DEFPOINTS
  6
ByBlock
 62
     0
 48
50.0
100
AcDbPoint
 10
16707.46242649134
 20
12632.68151569412
 30
0.0
  0
POINT
  5
18654
330
1860A
100
AcDbEntity
  8
DEFPOINTS
  6
ByBlock
 62
     0
 48
50.0
100
AcDbPoint
 10
16707.46242649134
 20
13351.45988446553
 30
0.0
  0
ENDBLK
  5
18655
330
1860A
100
AcDbEntity
  8
0
 48
50.0
100
AcDbBlockEnd
  0
BLOCK
  5
1C97A
330
1868D
100
AcDbEntity
  8
0
 48
50.0
100
AcDbBlockBegin
  2
*D13
 70
     1
 10
0.0
 20
0.0
 30
0.0
  3
*D13
  1

  0
LINE
  5
1C97B
330
1868D
100
AcDbEntity
  8
0
  6
ByBlock
 62
     0
 48
50.0
100
AcDbLine
 10
11782.82958141817
 20
9213.736797361928
 30
0.0
 11
11782.82958141817
 21
8361.498920305797
 31
0.0
  0
LINE
  5
1C97C
330
1868D
100
AcDbEntity
  8
0
  6
ByBlock
 62
     0
 48
50.0
100
AcDbLine
 10
14242.82958141817
 20
9213.73679736193
 30
0.0
 11
14242.82958141817
 21
8361.498920305797
 31
0.0
  0
LINE
  5
1C97D
330
1868D
100
AcDbEntity
  8
0
  6
ByBlock
 62
     0
 48
50.0
100
AcDbLine
 10
11782.82958141817
 20
8436.498920305798
 30
0.0
 11
14242.82958141817
 21
8436.498920305798
 31
0.0
  0
INSERT
  5
1C97E
330
1868D
100
AcDbEntity
  8
0
  6
ByBlock
 62
     0
 48
50.0
100
AcDbBlockReference
  2
_DOTSMALL
 10
11782.82958141817
 20
8436.498920305798
 30
0.0
 41
125.0
 42
125.0
 43
125.0
 50
180.0
  0
INSERT
  5
1C97F
330
1868D
100
AcDbEntity
  8
0
  6
ByBlock
 62
     0
 48
50.0
100
AcDbBlockReference
  2
_DOTSMALL
 10
14242.82958141817
 20
8436.498920305798
 30
0.0
 41
125.0
 42
125.0
 43
125.0
  0
MTEXT
  5
1C980
330
1868D
100
AcDbEntity
  8
0
  6
ByBlock
 62
     7
 48
50.0
100
AcDbMText
 10
13012.82958141817
 20
8536.513684085326
 30
0.0
 40
150.0
 41
0.0
 71
     5
 72
     1
  1
\A1;2460
  7
STYLE1
 73
     1
 44
1.0
  0
POINT
  5
1C981
330
1868D
100
AcDbEntity
  8
DEFPOINTS
  6
ByBlock
 62
     0
 48
50.0
100
AcDbPoint
 10
11782.82958141817
 20
9238.736797361928
 30
0.0
  0
POINT
  5
1C982
330
1868D
100
AcDbEntity
  8
DEFPOINTS
  6
ByBlock
 62
     0
 48
50.0
100
AcDbPoint
 10
14242.82958141817
 20
9238.736797361928
 30
0.0
  0
POINT
  5
1C983
330
1868D
100
AcDbEntity
  8
DEFPOINTS
  6
ByBlock
 62
     0
 48
50.0
100
AcDbPoint
 10
14242.82958141817
 20
8436.498920305798
 30
0.0
  0
ENDBLK
  5
1C984
330
1868D
100
AcDbEntity
  8
0
 48
50.0
100
AcDbBlockEnd
  0
BLOCK
  5
1D260
330
186B0
100
AcDbEntity
  8
0
 48
50.0
100
AcDbBlockBegin
  2
*D14
 70
     1
 10
0.0
 20
0.0
 30
0.0
  3
*D14
  1

  0
LINE
  5
1D261
330
186B0
100
AcDbEntity
  8
0
  6
ByBlock
 62
     0
 48
50.0
100
AcDbLine
 10
12057.82958141816
 20
11688.73679736192
 30
0.0
 11
11231.1986016385
 21
11688.73679736192
 31
0.0
  0
LINE
  5
1D262
330
186B0
100
AcDbEntity
  8
0
  6
ByBlock
 62
     0
 48
50.0
100
AcDbLine
 10
12057.82958141816
 20
9228.736797361928
 30
0.0
 11
11231.1986016385
 21
9228.736797361928
 31
0.0
  0
LINE
  5
1D263
330
186B0
100
AcDbEntity
  8
0
  6
ByBlock
 62
     0
 48
50.0
100
AcDbLine
 10
11306.1986016385
 20
11688.73679736192
 30
0.0
 11
11306.1986016385
 21
9228.736797361928
 31
0.0
  0
INSERT
  5
1D264
330
186B0
100
AcDbEntity
  8
0
  6
ByBlock
 62
     0
 48
50.0
100
AcDbBlockReference
  2
_DOTSMALL
 10
11306.1986016385
 20
11688.73679736192
 30
0.0
 41
125.0
 42
125.0
 43
125.0
 50
90.0
  0
INSERT
  5
1D265
330
186B0
100
AcDbEntity
  8
0
  6
ByBlock
 62
     0
 48
50.0
100
AcDbBlockReference
  2
_DOTSMALL
 10
11306.1986016385
 20
9228.736797361928
 30
0.0
 41
125.0
 42
125.0
 43
125.0
 50
270.0
  0
MTEXT
  5
1D266
330
186B0
100
AcDbEntity
  8
0
  6
ByBlock
 62
     7
 48
50.0
100
AcDbMText
 10
11206.18383785897
 20
10458.73679736192
 30
0.0
 40
150.0
 41
0.0
 71
     5
 72
     1
  1
\A1;2460
  7
STYLE1
 11
0.0000000000000001
 21
1.0
 31
0.0
 73
     1
 44
1.0
  0
POINT
  5
1D267
330
186B0
100
AcDbEntity
  8
DEFPOINTS
  6
ByBlock
 62
     0
 48
50.0
100
AcDbPoint
 10
12082.82958141817
 20
11688.73679736192
 30
0.0
  0
POINT
  5
1D268
330
186B0
100
AcDbEntity
  8
DEFPOINTS
  6
ByBlock
 62
     0
 48
50.0
100
AcDbPoint
 10
12082.82958141817
 20
9228.736797361928
 30
0.0
  0
POINT
  5
1D269
330
186B0
100
AcDbEntity
  8
DEFPOINTS
  6
ByBlock
 62
     0
 48
50.0
100
AcDbPoint
 10
11306.1986016385
 20
9228.736797361928
 30
0.0
  0
ENDBLK
  5
1D26A
330
186B0
100
AcDbEntity
  8
0
 48
50.0
100
AcDbBlockEnd
  0
BLOCK
  5
1B82C
330
1B821
100
AcDbEntity
  8
0
 48
50.0
100
AcDbBlockBegin
  2
*D15
 70
     1
 10
0.0
 20
0.0
 30
0.0
  3
*D15
  1

  0
LINE
  5
1B822
330
1B821
100
AcDbEntity
  8
0
  6
ByBlock
 62
     0
 48
50.0
100
AcDbLine
 10
9844.700675670623
 20
6240.518507324279
 30
0.0
 11
10513.89790290454
 21
6240.518507324279
 31
0.0
  0
LINE
  5
1B823
330
1B821
100
AcDbEntity
  8
0
  6
ByBlock
 62
     0
 48
50.0
100
AcDbLine
 10
9844.700675670623
 20
6125.518507324279
 30
0.0
 11
10513.89790290454
 21
6125.518507324279
 31
0.0
  0
LINE
  5
1B824
330
1B821
100
AcDbEntity
  8
0
  6
ByBlock
 62
     0
 48
50.0
100
AcDbLine
 10
10438.89790290454
 20
6125.518507324279
 30
0.0
 11
10438.89790290454
 21
6240.518507324279
 31
0.0
  0
LINE
  5
1B825
330
1B821
100
AcDbEntity
  8
0
  6
ByBlock
 62
     0
 48
50.0
100
AcDbLine
 10
10438.89790290454
 20
6240.518507324279
 30
0.0
 11
10438.89790290454
 21
6631.731710759876
 31
0.0
  0
INSERT
  5
1B826
330
1B821
100
AcDbEntity
  8
0
  6
ByBlock
 62
     0
 48
50.0
100
AcDbBlockReference
  2
_DOTSMALL
 10
10438.89790290454
 20
6125.518507324279
 30
0.0
 41
125.0
 42
125.0
 43
125.0
 50
270.0
  0
INSERT
  5
1B827
330
1B821
100
AcDbEntity
  8
0
  6
ByBlock
 62
     0
 48
50.0
100
AcDbBlockReference
  2
_DOTSMALL
 10
10438.89790290454
 20
6240.518507324279
 30
0.0
 41
125.0
 42
125.0
 43
125.0
 50
90.0
  0
MTEXT
  5
1B828
330
1B821
100
AcDbEntity
  8
0
  6
ByBlock
 62
     7
 48
50.0
100
AcDbMText
 10
10338.89790290454
 20
6498.625109042078
 30
0.0
 40
150.0
 41
0.0
 71
     5
 72
     1
  1
\A1;115
  7
STYLE1
 11
0.0000000000000001
 21
1.0
 31
0.0
 73
     1
 44
1.0
  0
POINT
  5
1B829
330
1B821
100
AcDbEntity
  8
DEFPOINTS
  6
ByBlock
 62
     0
 48
50.0
100
AcDbPoint
 10
9819.700675670624
 20
6240.518507324279
 30
0.0
  0
POINT
  5
1B82A
330
1B821
100
AcDbEntity
  8
DEFPOINTS
  6
ByBlock
 62
     0
 48
50.0
100
AcDbPoint
 10
9819.700675670624
 20
6125.518507324279
 30
0.0
  0
POINT
  5
1B82B
330
1B821
100
AcDbEntity
  8
DEFPOINTS
  6
ByBlock
 62
     0
 48
50.0
100
AcDbPoint
 10
10438.89790290454
 20
6125.518507324279
 30
0.0
  0
ENDBLK
  5
1B82D
330
1B821
100
AcDbEntity
  8
0
 48
50.0
100
AcDbBlockEnd
  0
BLOCK
  5
1B830
330
1B82E
100
AcDbEntity
  8
0
 48
50.0
100
AcDbBlockBegin
  2
A$C019569EB
 70
     0
 10
0.0
 20
0.0
 30
0.0
  3
A$C019569EB
  1

  0
DIMENSION
  5
1B82F
330
1B82E
100
AcDbEntity
  8
寸法
 48
50.0
100
AcDbDimension
  2
*D15
 10
619.1972245496908
 20
15.62500544841896
 30
0.0
 11
619.1972245496908
 21
388.7316071662171
 31
0.0
 12
-9819.70067835485
 22
-6109.89350187586
 32
0.0
 70
   128
 71
     5
 42
-1.0
  3
INABA_S50G
100
AcDbAlignedDimension
 13
-0.0000026842262741
 23
130.6250054484189
 33
0.0
 14
-0.0000026842262741
 24
15.62500544841896
 34
0.0
 50
90.0
100
AcDbRotatedDimension
  0
ENDBLK
  5
1B831
330
1B82E
100
AcDbEntity
  8
0
 48
50.0
100
AcDbBlockEnd
  0
BLOCK
  5
1D2B4
330
1C1F3
100
AcDbEntity
  8
0
 48
50.0
100
AcDbBlockBegin
  2
*D17
 70
     1
 10
0.0
 20
0.0
 30
0.0
  3
*D17
  1

  0
LINE
  5
1D2B5
330
1C1F3
100
AcDbEntity
  8
0
  6
ByBlock
 62
     0
 48
50.0
100
AcDbLine
 10
11997.82958141816
 20
11254.73679736192
 30
0.0
 11
11513.38589554556
 21
11254.73679736192
 31
0.0
  0
LINE
  5
1D2B6
330
1C1F3
100
AcDbEntity
  8
0
  6
ByBlock
 62
     0
 48
50.0
100
AcDbLine
 10
11997.82958141816
 20
10452.73679736192
 30
0.0
 11
11513.38589554556
 21
10452.73679736192
 31
0.0
  0
LINE
  5
1D2B7
330
1C1F3
100
AcDbEntity
  8
0
  6
ByBlock
 62
     0
 48
50.0
100
AcDbLine
 10
11588.38589554556
 20
11254.73679736192
 30
0.0
 11
11588.38589554556
 21
10452.73679736192
 31
0.0
  0
INSERT
  5
1D2B8
330
1C1F3
100
AcDbEntity
  8
0
  6
ByBlock
 62
     0
 48
50.0
100
AcDbBlockReference
  2
_DOTSMALL
 10
11588.38589554556
 20
11254.73679736192
 30
0.0
 41
125.0
 42
125.0
 43
125.0
 50
90.0
  0
INSERT
  5
1D2B9
330
1C1F3
100
AcDbEntity
  8
0
  6
ByBlock
 62
     0
 48
50.0
100
AcDbBlockReference
  2
_DOTSMALL
 10
11588.38589554556
 20
10452.73679736192
 30
0.0
 41
125.0
 42
125.0
 43
125.0
 50
270.0
  0
MTEXT
  5
1D2BA
330
1C1F3
100
AcDbEntity
  8
0
  6
ByBlock
 62
     7
 48
50.0
100
AcDbMText
 10
11488.37113176604
 20
10853.73679736192
 30
0.0
 40
150.0
 41
0.0
 71
     5
 72
     1
  1
\A1;802
  7
STYLE1
 11
0.0000000000000001
 21
1.0
 31
0.0
 73
     1
 44
1.0
  0
POINT
  5
1D2BB
330
1C1F3
100
AcDbEntity
  8
DEFPOINTS
  6
ByBlock
 62
     0
 48
50.0
100
AcDbPoint
 10
12022.82958141817
 20
11254.73679736192
 30
0.0
  0
POINT
  5
1D2BC
330
1C1F3
100
AcDbEntity
  8
DEFPOINTS
  6
ByBlock
 62
     0
 48
50.0
100
AcDbPoint
 10
12022.82958141817
 20
10452.73679736192
 30
0.0
  0
POINT
  5
1D2BD
330
1C1F3
100
AcDbEntity
  8
DEFPOINTS
  6
ByBlock
 62
     0
 48
50.0
100
AcDbPoint
 10
11588.38589554556
 20
10452.73679736192
 30
0.0
  0
ENDBLK
  5
1D2BE
330
1C1F3
100
AcDbEntity
  8
0
 48
50.0
100
AcDbBlockEnd
  0
BLOCK
  5
1C999
330
1C214
100
AcDbEntity
  8
0
 48
50.0
100
AcDbBlockBegin
  2
*D18
 70
     1
 10
0.0
 20
0.0
 30
0.0
  3
*D18
  1

  0
LINE
  5
1C99A
330
1C214
100
AcDbEntity
  8
0
  6
ByBlock
 62
     0
 48
50.0
100
AcDbLine
 10
11846.82958141817
 20
9203.73679736191
 30
0.0
 11
11846.82958141817
 21
8669.293111489313
 31
0.0
  0
LINE
  5
1C99B
330
1C214
100
AcDbEntity
  8
0
  6
ByBlock
 62
     0
 48
50.0
100
AcDbLine
 10
14178.82958141817
 20
9203.73679736191
 30
0.0
 11
14178.82958141817
 21
8669.293111489313
 31
0.0
  0
LINE
  5
1C99C
330
1C214
100
AcDbEntity
  8
0
  6
ByBlock
 62
     0
 48
50.0
100
AcDbLine
 10
11846.82958141817
 20
8744.293111489312
 30
0.0
 11
14178.82958141817
 21
8744.293111489312
 31
0.0
  0
INSERT
  5
1C99D
330
1C214
100
AcDbEntity
  8
0
  6
ByBlock
 62
     0
 48
50.0
100
AcDbBlockReference
  2
_DOTSMALL
 10
11846.82958141817
 20
8744.293111489312
 30
0.0
 41
125.0
 42
125.0
 43
125.0
 50
180.0
  0
INSERT
  5
1C99E
330
1C214
100
AcDbEntity
  8
0
  6
ByBlock
 62
     0
 48
50.0
100
AcDbBlockReference
  2
_DOTSMALL
 10
14178.82958141817
 20
8744.293111489312
 30
0.0
 41
125.0
 42
125.0
 43
125.0
  0
MTEXT
  5
1C99F
330
1C214
100
AcDbEntity
  8
0
  6
ByBlock
 62
     7
 48
50.0
100
AcDbMText
 10
13012.82958141817
 20
8844.307875268839
 30
0.0
 40
150.0
 41
0.0
 71
     5
 72
     1
  1
\A1;2332
  7
STYLE1
 73
     1
 44
1.0
  0
POINT
  5
1C9A0
330
1C214
100
AcDbEntity
  8
DEFPOINTS
  6
ByBlock
 62
     0
 48
50.0
100
AcDbPoint
 10
11846.82958141817
 20
9228.736797361909
 30
0.0
  0
POINT
  5
1C9A1
330
1C214
100
AcDbEntity
  8
DEFPOINTS
  6
ByBlock
 62
     0
 48
50.0
100
AcDbPoint
 10
14178.82958141817
 20
9228.736797361909
 30
0.0
  0
POINT
  5
1C9A2
330
1C214
100
AcDbEntity
  8
DEFPOINTS
  6
ByBlock
 62
     0
 48
50.0
100
AcDbPoint
 10
14178.82958141817
 20
8744.293111489312
 30
0.0
  0
ENDBLK
  5
1C9A3
330
1C214
100
AcDbEntity
  8
0
 48
50.0
100
AcDbBlockEnd
  0
BLOCK
  5
1C8C3
330
1C8C2
100
AcDbEntity
  8
0
 48
50.0
100
AcDbBlockBegin
  2
*D19
 70
     1
 10
0.0
 20
0.0
 30
0.0
  3
*D19
  1

  0
LINE
  5
1C8C4
330
1C8C2
100
AcDbEntity
  8
0
  6
ByBlock
 62
     0
 48
50.0
100
AcDbLine
 10
21842.04355569053
 20
3945.720159777916
 30
0.0
 11
21842.04355569053
 21
3568.079017493248
 31
0.0
  0
LINE
  5
1C8C5
330
1C8C2
100
AcDbEntity
  8
0
  6
ByBlock
 62
     0
 48
50.0
100
AcDbLine
 10
21642.04355569052
 20
3945.720159777916
 30
0.0
 11
21642.04355569052
 21
3568.079017493248
 31
0.0
  0
LINE
  5
1C8C6
330
1C8C2
100
AcDbEntity
  8
0
  6
ByBlock
 62
     0
 48
50.0
100
AcDbLine
 10
21842.04355569053
 20
3643.079017493248
 30
0.0
 11
21642.04355569052
 21
3643.079017493248
 31
0.0
  0
LINE
  5
1C8C7
330
1C8C2
100
AcDbEntity
  8
0
  6
ByBlock
 62
     0
 48
50.0
100
AcDbLine
 10
21642.04355569052
 20
3643.079017493248
 30
0.0
 11
21193.11639033619
 21
3643.079017493248
 31
0.0
  0
INSERT
  5
1C8C8
330
1C8C2
100
AcDbEntity
  8
0
  6
ByBlock
 62
     0
 48
50.0
100
AcDbBlockReference
  2
_DOTSMALL
 10
21842.04355569053
 20
3643.079017493248
 30
0.0
 41
125.0
 42
125.0
 43
125.0
  0
INSERT
  5
1C8C9
330
1C8C2
100
AcDbEntity
  8
0
  6
ByBlock
 62
     0
 48
50.0
100
AcDbBlockReference
  2
_DOTSMALL
 10
21642.04355569052
 20
3643.079017493248
 30
0.0
 41
125.0
 42
125.0
 43
125.0
 50
180.0
  0
MTEXT
  5
1C8CA
330
1C8C2
100
AcDbEntity
  8
0
  6
ByBlock
 62
     7
 48
50.0
100
AcDbMText
 10
21355.07997301335
 20
3743.093781272775
 30
0.0
 40
150.0
 41
0.0
 71
     5
 72
     1
  1
\A1;200
  7
STYLE1
 73
     1
 44
1.0
  0
POINT
  5
1C8CB
330
1C8C2
100
AcDbEntity
  8
DEFPOINTS
  6
ByBlock
 62
     0
 48
50.0
100
AcDbPoint
 10
21842.04355569053
 20
3970.720159777916
 30
0.0
  0
POINT
  5
1C8CC
330
1C8C2
100
AcDbEntity
  8
DEFPOINTS
  6
ByBlock
 62
     0
 48
50.0
100
AcDbPoint
 10
21642.04355569052
 20
3970.720159777916
 30
0.0
  0
POINT
  5
1C8CD
330
1C8C2
100
AcDbEntity
  8
DEFPOINTS
  6
ByBlock
 62
     0
 48
50.0
100
AcDbPoint
 10
21642.04355569052
 20
3643.079017493248
 30
0.0
  0
ENDBLK
  5
1C8CE
330
1C8C2
100
AcDbEntity
  8
0
 48
50.0
100
AcDbBlockEnd
  0
BLOCK
  5
1C8D0
330
1C8CF
100
AcDbEntity
  8
0
 48
50.0
100
AcDbBlockBegin
  2
*D20
 70
     1
 10
0.0
 20
0.0
 30
0.0
  3
*D20
  1

  0
LINE
  5
1C8D1
330
1C8CF
100
AcDbEntity
  8
0
  6
ByBlock
 62
     0
 48
50.0
100
AcDbLine
 10
19227.04355132069
 20
6564.720162402726
 30
0.0
 11
19227.04355132069
 21
7611.789014332463
 31
0.0
  0
LINE
  5
1C8D2
330
1C8CF
100
AcDbEntity
  8
0
  6
ByBlock
 62
     0
 48
50.0
100
AcDbLine
 10
21797.04355569052
 20
6564.720162402726
 30
0.0
 11
21797.04355569052
 21
7611.789014332463
 31
0.0
  0
LINE
  5
1C8D3
330
1C8CF
100
AcDbEntity
  8
0
  6
ByBlock
 62
     0
 48
50.0
100
AcDbLine
 10
19227.04355132069
 20
7536.789014332462
 30
0.0
 11
21797.04355569052
 21
7536.789014332462
 31
0.0
  0
INSERT
  5
1C8D4
330
1C8CF
100
AcDbEntity
  8
0
  6
ByBlock
 62
     0
 48
50.0
100
AcDbBlockReference
  2
_DOTSMALL
 10
19227.04355132069
 20
7536.789014332462
 30
0.0
 41
125.0
 42
125.0
 43
125.0
 50
180.0
  0
INSERT
  5
1C8D5
330
1C8CF
100
AcDbEntity
  8
0
  6
ByBlock
 62
     0
 48
50.0
100
AcDbBlockReference
  2
_DOTSMALL
 10
21797.04355569052
 20
7536.789014332462
 30
0.0
 41
125.0
 42
125.0
 43
125.0
  0
MTEXT
  5
1C8D6
330
1C8CF
100
AcDbEntity
  8
0
  6
ByBlock
 62
     7
 48
50.0
100
AcDbMText
 10
20512.04355350561
 20
7636.803778111989
 30
0.0
 40
150.0
 41
0.0
 71
     5
 72
     1
  1
\A1;2570
  7
STYLE1
 73
     1
 44
1.0
  0
POINT
  5
1C8D7
330
1C8CF
100
AcDbEntity
  8
DEFPOINTS
  6
ByBlock
 62
     0
 48
50.0
100
AcDbPoint
 10
19227.04355132069
 20
6539.720162402726
 30
0.0
  0
POINT
  5
1C8D8
330
1C8CF
100
AcDbEntity
  8
DEFPOINTS
  6
ByBlock
 62
     0
 48
50.0
100
AcDbPoint
 10
21797.04355569052
 20
6539.720162402726
 30
0.0
  0
POINT
  5
1C8D9
330
1C8CF
100
AcDbEntity
  8
DEFPOINTS
  6
ByBlock
 62
     0
 48
50.0
100
AcDbPoint
 10
21797.04355569052
 20
7536.789014332462
 30
0.0
  0
ENDBLK
  5
1C8DA
330
1C8CF
100
AcDbEntity
  8
0
 48
50.0
100
AcDbBlockEnd
  0
BLOCK
  5
1C8DC
330
1C8DB
100
AcDbEntity
  8
0
 48
50.0
100
AcDbBlockBegin
  2
*D21
 70
     1
 10
0.0
 20
0.0
 30
0.0
  3
*D21
  1

  0
LINE
  5
1D7B0
330
1C8DB
100
AcDbEntity
  8
寸法
 62
     0
 48
50.0
100
AcDbLine
 10
14532.82958360308
 20
5570.000000008445
 30
0.0
 11
14532.82958360308
 21
6313.281130716521
 31
0.0
  0
LINE
  5
1D7B1
330
1C8DB
100
AcDbEntity
  8
寸法
 62
     0
 48
50.0
100
AcDbLine
 10
12072.82958360308
 20
6238.281130716521
 30
0.0
 11
14532.82958360308
 21
6238.281130716521
 31
0.0
  0
INSERT
  5
1D7B2
330
1C8DB
100
AcDbEntity
  8
寸法
 62
     0
 48
50.0
100
AcDbBlockReference
  2
_DOTSMALL
 10
12072.82958360308
 20
6238.281130716521
 30
0.0
 41
125.0
 42
125.0
 43
125.0
 50
180.0
  0
INSERT
  5
1D7B3
330
1C8DB
100
AcDbEntity
  8
寸法
 62
     0
 48
50.0
100
AcDbBlockReference
  2
_DOTSMALL
 10
14532.82958360308
 20
6238.281130716521
 30
0.0
 41
125.0
 42
125.0
 43
125.0
  0
MTEXT
  5
1D7B4
330
1C8DB
100
AcDbEntity
  8
寸法
 62
     7
 48
50.0
100
AcDbMText
 10
13302.82958360308
 20
6338.295894496049
 30
0.0
 40
150.0
 41
0.0
 71
     5
 72
     1
  1
\A1;柱外寸法 2460
  7
STYLE1
 73
     1
 44
1.0
  0
POINT
  5
1D7B5
330
1C8DB
100
AcDbEntity
  8
DEFPOINTS
 62
     0
 48
50.0
100
AcDbPoint
 10
12072.82958360308
 20
5545.000000008467
 30
0.0
  0
POINT
  5
1D7B6
330
1C8DB
100
AcDbEntity
  8
DEFPOINTS
 62
     0
 48
50.0
100
AcDbPoint
 10
14532.82958360308
 20
5545.000000008446
 30
0.0
  0
POINT
  5
1D7B7
330
1C8DB
100
AcDbEntity
  8
DEFPOINTS
 62
     0
 48
50.0
100
AcDbPoint
 10
14532.82958360308
 20
6238.281130716521
 30
0.0
  0
ENDBLK
  5
1C8E5
330
1C8DB
100
AcDbEntity
  8
0
 48
50.0
100
AcDbBlockEnd
  0
BLOCK
  5
1C8E7
330
1C8E6
100
AcDbEntity
  8
0
 48
50.0
100
AcDbBlockBegin
  2
*D22
 70
     1
 10
0.0
 20
0.0
 30
0.0
  3
*D22
  1

  0
LINE
  5
1C8E8
330
1C8E6
100
AcDbEntity
  8
0
  6
ByBlock
 62
     0
 48
50.0
100
AcDbLine
 10
19227.04355132069
 20
6564.720162402726
 30
0.0
 11
19227.04355132069
 21
7344.001290494438
 31
0.0
  0
LINE
  5
1C8E9
330
1C8E6
100
AcDbEntity
  8
0
  6
ByBlock
 62
     0
 48
50.0
100
AcDbLine
 10
19282.04355569052
 20
6600.720159786384
 30
0.0
 11
19282.04355569052
 21
7344.001290494438
 31
0.0
  0
LINE
  5
1C8EA
330
1C8E6
100
AcDbEntity
  8
0
  6
ByBlock
 62
     0
 48
50.0
100
AcDbLine
 10
19282.04355569052
 20
7269.001290494438
 30
0.0
 11
19227.04355132069
 21
7269.001290494438
 31
0.0
  0
LINE
  5
1C8EB
330
1C8E6
100
AcDbEntity
  8
0
  6
ByBlock
 62
     0
 48
50.0
100
AcDbLine
 10
19227.04355132069
 20
7269.001290494438
 30
0.0
 11
18791.37789885461
 21
7269.001290494438
 31
0.0
  0
INSERT
  5
1C8EC
330
1C8E6
100
AcDbEntity
  8
0
  6
ByBlock
 62
     0
 48
50.0
100
AcDbBlockReference
  2
_DOTSMALL
 10
19282.04355569052
 20
7269.001290494438
 30
0.0
 41
125.0
 42
125.0
 43
125.0
  0
INSERT
  5
1C8ED
330
1C8E6
100
AcDbEntity
  8
0
  6
ByBlock
 62
     0
 48
50.0
100
AcDbBlockReference
  2
_DOTSMALL
 10
19227.04355132069
 20
7269.001290494438
 30
0.0
 41
125.0
 42
125.0
 43
125.0
 50
180.0
  0
MTEXT
  5
1C8EE
330
1C8E6
100
AcDbEntity
  8
0
  6
ByBlock
 62
     7
 48
50.0
100
AcDbMText
 10
18901.98450057241
 20
7369.001290494438
 30
0.0
 40
150.0
 41
0.0
 71
     5
 72
     1
  1
\A1;55
  7
STYLE1
 73
     1
 44
1.0
  0
POINT
  5
1C8EF
330
1C8E6
100
AcDbEntity
  8
DEFPOINTS
  6
ByBlock
 62
     0
 48
50.0
100
AcDbPoint
 10
19227.04355132069
 20
6539.720162402726
 30
0.0
  0
POINT
  5
1C8F0
330
1C8E6
100
AcDbEntity
  8
DEFPOINTS
  6
ByBlock
 62
     0
 48
50.0
100
AcDbPoint
 10
19282.04355569052
 20
6575.720159786384
 30
0.0
  0
POINT
  5
1C8F1
330
1C8E6
100
AcDbEntity
  8
DEFPOINTS
  6
ByBlock
 62
     0
 48
50.0
100
AcDbPoint
 10
19282.04355569052
 20
7269.001290494438
 30
0.0
  0
ENDBLK
  5
1C8F2
330
1C8E6
100
AcDbEntity
  8
0
 48
50.0
100
AcDbBlockEnd
  0
BLOCK
  5
1C90C
330
1C90B
100
AcDbEntity
  8
0
 48
50.0
100
AcDbBlockBegin
  2
*D23
 70
     1
 10
0.0
 20
0.0
 30
0.0
  3
*D23
  1

  0
LINE
  5
1C90D
330
1C90B
100
AcDbEntity
  8
0
  6
ByBlock
 62
     0
 48
50.0
100
AcDbLine
 10
21742.04355569052
 20
6600.720159786362
 30
0.0
 11
21742.04355569052
 21
7344.001290494438
 31
0.0
  0
LINE
  5
1C90E
330
1C90B
100
AcDbEntity
  8
0
  6
ByBlock
 62
     0
 48
50.0
100
AcDbLine
 10
21797.04355569052
 20
6564.720162402726
 30
0.0
 11
21797.04355569052
 21
7344.001290494438
 31
0.0
  0
LINE
  5
1C90F
330
1C90B
100
AcDbEntity
  8
0
  6
ByBlock
 62
     0
 48
50.0
100
AcDbLine
 10
21742.04355569052
 20
7269.001290494438
 30
0.0
 11
21797.04355569052
 21
7269.001290494438
 31
0.0
  0
LINE
  5
1C910
330
1C90B
100
AcDbEntity
  8
0
  6
ByBlock
 62
     0
 48
50.0
100
AcDbLine
 10
21797.04355569052
 20
7269.001290494438
 30
0.0
 11
22222.70921252643
 21
7269.001290494438
 31
0.0
  0
INSERT
  5
1C911
330
1C90B
100
AcDbEntity
  8
0
  6
ByBlock
 62
     0
 48
50.0
100
AcDbBlockReference
  2
_DOTSMALL
 10
21742.04355569052
 20
7269.001290494438
 30
0.0
 41
125.0
 42
125.0
 43
125.0
 50
180.0
  0
INSERT
  5
1C912
330
1C90B
100
AcDbEntity
  8
0
  6
ByBlock
 62
     0
 48
50.0
100
AcDbBlockReference
  2
_DOTSMALL
 10
21797.04355569052
 20
7269.001290494438
 30
0.0
 41
125.0
 42
125.0
 43
125.0
  0
MTEXT
  5
1C913
330
1C90B
100
AcDbEntity
  8
0
  6
ByBlock
 62
     7
 48
50.0
100
AcDbMText
 10
22112.10261080863
 20
7369.001290494438
 30
0.0
 40
150.0
 41
0.0
 71
     5
 72
     1
  1
\A1;55
  7
STYLE1
 73
     1
 44
1.0
  0
POINT
  5
1C914
330
1C90B
100
AcDbEntity
  8
DEFPOINTS
  6
ByBlock
 62
     0
 48
50.0
100
AcDbPoint
 10
21742.04355569052
 20
6575.720159786363
 30
0.0
  0
POINT
  5
1C915
330
1C90B
100
AcDbEntity
  8
DEFPOINTS
  6
ByBlock
 62
     0
 48
50.0
100
AcDbPoint
 10
21797.04355569052
 20
6539.720162402726
 30
0.0
  0
POINT
  5
1C916
330
1C90B
100
AcDbEntity
  8
DEFPOINTS
  6
ByBlock
 62
     0
 48
50.0
100
AcDbPoint
 10
21797.04355569052
 20
7269.001290494438
 30
0.0
  0
ENDBLK
  5
1C917
330
1C90B
100
AcDbEntity
  8
0
 48
50.0
100
AcDbBlockEnd
  0
BLOCK
  5
1C94C
330
1C94B
100
AcDbEntity
  8
0
 48
50.0
100
AcDbBlockBegin
  2
*D24
 70
     1
 10
0.0
 20
0.0
 30
0.0
  3
*D24
  1

  0
LINE
  5
1C94D
330
1C94B
100
AcDbEntity
  8
0
  6
ByBlock
 62
     0
 48
50.0
100
AcDbLine
 10
34222.10331536156
 20
3274.999999999956
 30
0.0
 11
34918.2082671931
 21
3274.999999999956
 31
0.0
  0
LINE
  5
1C94E
330
1C94B
100
AcDbEntity
  8
0
  6
ByBlock
 62
     0
 48
50.0
100
AcDbLine
 10
34152.10331536155
 20
4059.999999999956
 30
0.0
 11
34918.2082671931
 21
4059.999999999956
 31
0.0
  0
LINE
  5
1C94F
330
1C94B
100
AcDbEntity
  8
0
  6
ByBlock
 62
     0
 48
50.0
100
AcDbLine
 10
34843.2082671931
 20
3274.999999999956
 30
0.0
 11
34843.2082671931
 21
4059.999999999956
 31
0.0
  0
INSERT
  5
1C950
330
1C94B
100
AcDbEntity
  8
0
  6
ByBlock
 62
     0
 48
50.0
100
AcDbBlockReference
  2
_DOTSMALL
 10
34843.2082671931
 20
3274.999999999956
 30
0.0
 41
125.0
 42
125.0
 43
125.0
 50
270.0
  0
INSERT
  5
1C951
330
1C94B
100
AcDbEntity
  8
0
  6
ByBlock
 62
     0
 48
50.0
100
AcDbBlockReference
  2
_DOTSMALL
 10
34843.2082671931
 20
4059.999999999956
 30
0.0
 41
125.0
 42
125.0
 43
125.0
 50
90.0
  0
MTEXT
  5
1C952
330
1C94B
100
AcDbEntity
  8
0
  6
ByBlock
 62
     7
 48
50.0
100
AcDbMText
 10
34743.2082671931
 20
3667.499999999956
 30
0.0
 40
150.0
 41
0.0
 71
     5
 72
     1
  1
\A1;785
  7
STYLE1
 11
0.0000000000000001
 21
1.0
 31
0.0
 73
     1
 44
1.0
  0
POINT
  5
1C953
330
1C94B
100
AcDbEntity
  8
DEFPOINTS
  6
ByBlock
 62
     0
 48
50.0
100
AcDbPoint
 10
34197.10331536155
 20
3274.999999999956
 30
0.0
  0
POINT
  5
1C954
330
1C94B
100
AcDbEntity
  8
DEFPOINTS
  6
ByBlock
 62
     0
 48
50.0
100
AcDbPoint
 10
34127.10331536155
 20
4059.999999999956
 30
0.0
  0
POINT
  5
1C955
330
1C94B
100
AcDbEntity
  8
DEFPOINTS
  6
ByBlock
 62
     0
 48
50.0
100
AcDbPoint
 10
34843.2082671931
 20
4059.999999999956
 30
0.0
  0
ENDBLK
  5
1C956
330
1C94B
100
AcDbEntity
  8
0
 48
50.0
100
AcDbBlockEnd
  0
BLOCK
  5
1C958
330
1C957
100
AcDbEntity
  8
0
 48
50.0
100
AcDbBlockBegin
  2
*D25
 70
     1
 10
0.0
 20
0.0
 30
0.0
  3
*D25
  1

  0
LINE
  5
1D7C0
330
1C957
100
AcDbEntity
  8
寸法
 62
     0
 48
50.0
100
AcDbLine
 10
14557.82958360308
 20
5302.0
 30
0.0
 11
15607.97132641338
 21
5302.0
 31
0.0
  0
LINE
  5
1D7C1
330
1C957
100
AcDbEntity
  8
寸法
 62
     0
 48
50.0
100
AcDbLine
 10
15532.97132641338
 20
3341.999999999999
 30
0.0
 11
15532.97132641338
 21
5302.0
 31
0.0
  0
INSERT
  5
1D7C2
330
1C957
100
AcDbEntity
  8
寸法
 62
     0
 48
50.0
100
AcDbBlockReference
  2
_DOTSMALL
 10
15532.97132641338
 20
3341.999999999999
 30
0.0
 41
125.0
 42
125.0
 43
125.0
 50
270.0
  0
INSERT
  5
1D7C3
330
1C957
100
AcDbEntity
  8
寸法
 62
     0
 48
50.0
100
AcDbBlockReference
  2
_DOTSMALL
 10
15532.97132641338
 20
5302.0
 30
0.0
 41
125.0
 42
125.0
 43
125.0
 50
90.0
  0
MTEXT
  5
1D7C4
330
1C957
100
AcDbEntity
  8
寸法
 62
     7
 48
50.0
100
AcDbMText
 10
15432.97132641338
 20
4322.000000000002
 30
0.0
 40
150.0
 41
0.0
 71
     5
 72
     1
  1
\A1;内高 1960
  7
STYLE1
 11
0.0000000000000001
 21
1.0
 31
0.0
 73
     1
 44
1.0
  0
POINT
  5
1D7C5
330
1C957
100
AcDbEntity
  8
DEFPOINTS
 62
     0
 48
50.0
100
AcDbPoint
 10
14532.82958360308
 20
3341.999999999999
 30
0.0
  0
POINT
  5
1D7C6
330
1C957
100
AcDbEntity
  8
DEFPOINTS
 62
     0
 48
50.0
100
AcDbPoint
 10
14532.82958360308
 20
5302.0
 30
0.0
  0
POINT
  5
1D7C7
330
1C957
100
AcDbEntity
  8
DEFPOINTS
 62
     0
 48
50.0
100
AcDbPoint
 10
15532.97132641338
 20
5302.0
 30
0.0
  0
ENDBLK
  5
1C961
330
1C957
100
AcDbEntity
  8
0
 48
50.0
100
AcDbBlockEnd
  0
BLOCK
  5
1C963
330
1C962
100
AcDbEntity
  8
0
 48
50.0
100
AcDbBlockBegin
  2
*D26
 70
     1
 10
0.0
 20
0.0
 30
0.0
  3
*D26
  1

  0
LINE
  5
1C964
330
1C962
100
AcDbEntity
  8
0
  6
ByBlock
 62
     0
 48
50.0
100
AcDbLine
 10
34222.10331536156
 20
3274.999999999956
 30
0.0
 11
35272.24505817185
 21
3274.999999999956
 31
0.0
  0
LINE
  5
1C965
330
1C962
100
AcDbEntity
  8
0
  6
ByBlock
 62
     0
 48
50.0
100
AcDbLine
 10
34222.10331536156
 20
3341.999999999956
 30
0.0
 11
35272.24505817185
 21
3341.999999999956
 31
0.0
  0
LINE
  5
1C966
330
1C962
100
AcDbEntity
  8
0
  6
ByBlock
 62
     0
 48
50.0
100
AcDbLine
 10
35197.24505817185
 20
3341.999999999956
 30
0.0
 11
35197.24505817185
 21
3274.999999999956
 31
0.0
  0
LINE
  5
1C967
330
1C962
100
AcDbEntity
  8
0
  6
ByBlock
 62
     0
 48
50.0
100
AcDbLine
 10
35197.24505817185
 20
3274.999999999956
 30
0.0
 11
35197.24505817185
 21
2866.709408511073
 31
0.0
  0
INSERT
  5
1C968
330
1C962
100
AcDbEntity
  8
0
  6
ByBlock
 62
     0
 48
50.0
100
AcDbBlockReference
  2
_DOTSMALL
 10
35197.24505817185
 20
3341.999999999956
 30
0.0
 41
125.0
 42
125.0
 43
125.0
 50
90.0
  0
INSERT
  5
1C969
330
1C962
100
AcDbEntity
  8
0
  6
ByBlock
 62
     0
 48
50.0
100
AcDbBlockReference
  2
_DOTSMALL
 10
35197.24505817185
 20
3274.999999999956
 30
0.0
 41
125.0
 42
125.0
 43
125.0
 50
270.0
  0
MTEXT
  5
1C96A
330
1C962
100
AcDbEntity
  8
0
  6
ByBlock
 62
     7
 48
50.0
100
AcDbMText
 10
35097.24505817185
 20
2978.697597487451
 30
0.0
 40
150.0
 41
0.0
 71
     5
 72
     1
  1
\A1;67
  7
STYLE1
 11
0.0000000000000001
 21
1.0
 31
0.0
 73
     1
 44
1.0
  0
POINT
  5
1C96B
330
1C962
100
AcDbEntity
  8
DEFPOINTS
  6
ByBlock
 62
     0
 48
50.0
100
AcDbPoint
 10
34197.10331536155
 20
3274.999999999956
 30
0.0
  0
POINT
  5
1C96C
330
1C962
100
AcDbEntity
  8
DEFPOINTS
  6
ByBlock
 62
     0
 48
50.0
100
AcDbPoint
 10
34197.10331536155
 20
3341.999999999956
 30
0.0
  0
POINT
  5
1C96D
330
1C962
100
AcDbEntity
  8
DEFPOINTS
  6
ByBlock
 62
     0
 48
50.0
100
AcDbPoint
 10
35197.24505817185
 20
3341.999999999956
 30
0.0
  0
ENDBLK
  5
1C96E
330
1C962
100
AcDbEntity
  8
0
 48
50.0
100
AcDbBlockEnd
  0
BLOCK
  5
1C970
330
1C96F
100
AcDbEntity
  8
0
 48
50.0
100
AcDbBlockBegin
  2
*D27
 70
     1
 10
0.0
 20
0.0
 30
0.0
  3
*D27
  1

  0
LINE
  5
1D7B8
330
1C96F
100
AcDbEntity
  8
寸法
 62
     0
 48
50.0
100
AcDbLine
 10
14487.82958360308
 20
5130.0
 30
0.0
 11
15253.93453543463
 21
5130.0
 31
0.0
  0
LINE
  5
1D7B9
330
1C96F
100
AcDbEntity
  8
寸法
 62
     0
 48
50.0
100
AcDbLine
 10
15178.93453543463
 20
4059.999999999999
 30
0.0
 11
15178.93453543463
 21
5130.0
 31
0.0
  0
INSERT
  5
1D7BA
330
1C96F
100
AcDbEntity
  8
寸法
 62
     0
 48
50.0
100
AcDbBlockReference
  2
_DOTSMALL
 10
15178.93453543463
 20
4059.999999999999
 30
0.0
 41
125.0
 42
125.0
 43
125.0
 50
270.0
  0
INSERT
  5
1D7BB
330
1C96F
100
AcDbEntity
  8
寸法
 62
     0
 48
50.0
100
AcDbBlockReference
  2
_DOTSMALL
 10
15178.93453543463
 20
5130.0
 30
0.0
 41
125.0
 42
125.0
 43
125.0
 50
90.0
  0
MTEXT
  5
1D7BC
330
1C96F
100
AcDbEntity
  8
寸法
 62
     7
 48
50.0
100
AcDbMText
 10
15078.93453543463
 20
4595.000000000003
 30
0.0
 40
150.0
 41
0.0
 71
     5
 72
     1
  1
\A1;1070
  7
STYLE1
 11
0.0000000000000001
 21
1.0
 31
0.0
 73
     1
 44
1.0
  0
POINT
  5
1D7BD
330
1C96F
100
AcDbEntity
  8
DEFPOINTS
 62
     0
 48
50.0
100
AcDbPoint
 10
14462.82958360308
 20
4059.999999999999
 30
0.0
  0
POINT
  5
1D7BE
330
1C96F
100
AcDbEntity
  8
DEFPOINTS
 62
     0
 48
50.0
100
AcDbPoint
 10
14462.82958360308
 20
5130.0
 30
0.0
  0
POINT
  5
1D7BF
330
1C96F
100
AcDbEntity
  8
DEFPOINTS
 62
     0
 48
50.0
100
AcDbPoint
 10
15178.93453543463
 20
5130.0
 30
0.0
  0
ENDBLK
  5
1C979
330
1C96F
100
AcDbEntity
  8
0
 48
50.0
100
AcDbBlockEnd
  0
BLOCK
  5
1CE4E
330
1CE4D
100
AcDbEntity
  8
0
 48
50.0
100
AcDbBlockBegin
  2
*D28
 70
     1
 10
0.0
 20
0.0
 30
0.0
  3
*D28
  1

  0
LINE
  5
1CE4F
330
1CE4D
100
AcDbEntity
  8
0
  6
ByBlock
 62
     0
 48
50.0
100
AcDbLine
 10
11148.00852711456
 20
-4789.153781328314
 30
0.0
 11
11148.00852711456
 21
-5138.46255209193
 31
0.0
  0
LINE
  5
1CE50
330
1CE4D
100
AcDbEntity
  8
0
  6
ByBlock
 62
     0
 48
50.0
100
AcDbLine
 10
11098.00852711456
 20
-4654.153781328314
 30
0.0
 11
11098.00852711456
 21
-5138.46255209193
 31
0.0
  0
LINE
  5
1CE51
330
1CE4D
100
AcDbEntity
  8
0
  6
ByBlock
 62
     0
 48
50.0
100
AcDbLine
 10
11148.00852711456
 20
-5063.462552091929
 30
0.0
 11
11098.00852711456
 21
-5063.462552091929
 31
0.0
  0
LINE
  5
1CE52
330
1CE4D
100
AcDbEntity
  8
0
  6
ByBlock
 62
     0
 48
50.0
100
AcDbLine
 10
11098.00852711456
 20
-5063.462552091929
 30
0.0
 11
10757.89041687833
 21
-5063.462552091929
 31
0.0
  0
INSERT
  5
1CE53
330
1CE4D
100
AcDbEntity
  8
0
  6
ByBlock
 62
     0
 48
50.0
100
AcDbBlockReference
  2
_DOTSMALL
 10
11148.00852711456
 20
-5063.462552091929
 30
0.0
 41
125.0
 42
125.0
 43
125.0
  0
INSERT
  5
1CE54
330
1CE4D
100
AcDbEntity
  8
0
  6
ByBlock
 62
     0
 48
50.0
100
AcDbBlockReference
  2
_DOTSMALL
 10
11098.00852711456
 20
-5063.462552091929
 30
0.0
 41
125.0
 42
125.0
 43
125.0
 50
180.0
  0
MTEXT
  5
1CE55
330
1CE4D
100
AcDbEntity
  8
0
  6
ByBlock
 62
     7
 48
50.0
100
AcDbMText
 10
10865.44947199645
 20
-4963.462552091929
 30
0.0
 40
150.0
 41
0.0
 71
     5
 72
     1
  1
\A1;50
  7
STYLE1
 73
     1
 44
1.0
  0
POINT
  5
1CE56
330
1CE4D
100
AcDbEntity
  8
DEFPOINTS
  6
ByBlock
 62
     0
 48
50.0
100
AcDbPoint
 10
11148.00852711456
 20
-4764.153781328314
 30
0.0
  0
POINT
  5
1CE57
330
1CE4D
100
AcDbEntity
  8
DEFPOINTS
  6
ByBlock
 62
     0
 48
50.0
100
AcDbPoint
 10
11098.00852711456
 20
-4629.153781328314
 30
0.0
  0
POINT
  5
1CE58
330
1CE4D
100
AcDbEntity
  8
DEFPOINTS
  6
ByBlock
 62
     0
 48
50.0
100
AcDbPoint
 10
11098.00852711456
 20
-5063.462552091929
 30
0.0
  0
ENDBLK
  5
1CE59
330
1CE4D
100
AcDbEntity
  8
0
 48
50.0
100
AcDbBlockEnd
  0
BLOCK
  5
1D214
330
1D07C
100
AcDbEntity
  8
0
 48
50.0
100
AcDbBlockBegin
  2
*D29
 70
     1
 10
0.0
 20
0.0
 30
0.0
  3
*D29
  1

  0
LINE
  5
1D215
330
1D07C
100
AcDbEntity
  8
0
  6
ByBlock
 62
     0
 48
50.0
100
AcDbLine
 10
-2231.094388945068
 20
9029.651372360508
 30
0.0
 11
-2231.094388945068
 21
8693.604043060132
 31
0.0
  0
LINE
  5
1D216
330
1D07C
100
AcDbEntity
  8
0
  6
ByBlock
 62
     0
 48
50.0
100
AcDbLine
 10
-2031.094388945066
 20
9029.651372360508
 30
0.0
 11
-2031.094388945066
 21
8693.604043060132
 31
0.0
  0
LINE
  5
1D217
330
1D07C
100
AcDbEntity
  8
0
  6
ByBlock
 62
     0
 48
50.0
100
AcDbLine
 10
-2231.094388945068
 20
8768.604043060133
 30
0.0
 11
-2031.094388945066
 21
8768.604043060133
 31
0.0
  0
LINE
  5
1D218
330
1D07C
100
AcDbEntity
  8
0
  6
ByBlock
 62
     0
 48
50.0
100
AcDbLine
 10
-2031.094388945066
 20
8768.604043060133
 30
0.0
 11
-1582.167223590735
 21
8768.604043060133
 31
0.0
  0
INSERT
  5
1D219
330
1D07C
100
AcDbEntity
  8
0
  6
ByBlock
 62
     0
 48
50.0
100
AcDbBlockReference
  2
_DOTSMALL
 10
-2231.094388945068
 20
8768.604043060133
 30
0.0
 41
125.0
 42
125.0
 43
125.0
 50
180.0
  0
INSERT
  5
1D21A
330
1D07C
100
AcDbEntity
  8
0
  6
ByBlock
 62
     0
 48
50.0
100
AcDbBlockReference
  2
_DOTSMALL
 10
-2031.094388945066
 20
8768.604043060133
 30
0.0
 41
125.0
 42
125.0
 43
125.0
  0
MTEXT
  5
1D21B
330
1D07C
100
AcDbEntity
  8
0
  6
ByBlock
 62
     7
 48
50.0
100
AcDbMText
 10
-1744.130806267901
 20
8868.618806839659
 30
0.0
 40
150.0
 41
0.0
 71
     5
 72
     1
  1
\A1;200
  7
STYLE1
 73
     1
 44
1.0
  0
POINT
  5
1D21C
330
1D07C
100
AcDbEntity
  8
DEFPOINTS
  6
ByBlock
 62
     0
 48
50.0
100
AcDbPoint
 10
-2231.094388945068
 20
9054.651372360508
 30
0.0
  0
POINT
  5
1D21D
330
1D07C
100
AcDbEntity
  8
DEFPOINTS
  6
ByBlock
 62
     0
 48
50.0
100
AcDbPoint
 10
-2031.094388945066
 20
9054.651372360508
 30
0.0
  0
POINT
  5
1D21E
330
1D07C
100
AcDbEntity
  8
DEFPOINTS
  6
ByBlock
 62
     0
 48
50.0
100
AcDbPoint
 10
-2031.094388945066
 20
8768.604043060133
 30
0.0
  0
ENDBLK
  5
1D21F
330
1D07C
100
AcDbEntity
  8
0
 48
50.0
100
AcDbBlockEnd
  0
BLOCK
  5
1D208
330
1D089
100
AcDbEntity
  8
0
 48
50.0
100
AcDbBlockBegin
  2
*D30
 70
     1
 10
0.0
 20
0.0
 30
0.0
  3
*D30
  1

  0
LINE
  5
1D209
330
1D089
100
AcDbEntity
  8
0
  6
ByBlock
 62
     0
 48
50.0
100
AcDbLine
 10
-2256.094388945066
 20
9054.651372360508
 30
0.0
 11
-2704.429523938946
 21
9054.651372360508
 31
0.0
  0
LINE
  5
1D20A
330
1D089
100
AcDbEntity
  8
0
  6
ByBlock
 62
     0
 48
50.0
100
AcDbLine
 10
-2256.094388945068
 20
9254.651372360505
 30
0.0
 11
-2704.429523938946
 21
9254.651372360505
 31
0.0
  0
LINE
  5
1D20B
330
1D089
100
AcDbEntity
  8
0
  6
ByBlock
 62
     0
 48
50.0
100
AcDbLine
 10
-2629.429523938946
 20
9254.651372360505
 30
0.0
 11
-2629.429523938946
 21
9054.651372360508
 31
0.0
  0
LINE
  5
1D20C
330
1D089
100
AcDbEntity
  8
0
  6
ByBlock
 62
     0
 48
50.0
100
AcDbLine
 10
-2629.429523938946
 20
9054.651372360508
 30
0.0
 11
-2629.429523938946
 21
8605.724207006176
 31
0.0
  0
INSERT
  5
1D20D
330
1D089
100
AcDbEntity
  8
0
  6
ByBlock
 62
     0
 48
50.0
100
AcDbBlockReference
  2
_DOTSMALL
 10
-2629.429523938946
 20
9254.651372360505
 30
0.0
 41
125.0
 42
125.0
 43
125.0
 50
90.0
  0
INSERT
  5
1D20E
330
1D089
100
AcDbEntity
  8
0
  6
ByBlock
 62
     0
 48
50.0
100
AcDbBlockReference
  2
_DOTSMALL
 10
-2629.429523938946
 20
9054.651372360508
 30
0.0
 41
125.0
 42
125.0
 43
125.0
 50
270.0
  0
MTEXT
  5
1D20F
330
1D089
100
AcDbEntity
  8
0
  6
ByBlock
 62
     7
 48
50.0
100
AcDbMText
 10
-2729.444287718474
 20
8767.687789683343
 30
0.0
 40
150.0
 41
0.0
 71
     5
 72
     1
  1
\A1;200
  7
STYLE1
 11
0.0000000000000001
 21
1.0
 31
0.0
 73
     1
 44
1.0
  0
POINT
  5
1D210
330
1D089
100
AcDbEntity
  8
DEFPOINTS
  6
ByBlock
 62
     0
 48
50.0
100
AcDbPoint
 10
-2231.094388945066
 20
9054.651372360508
 30
0.0
  0
POINT
  5
1D211
330
1D089
100
AcDbEntity
  8
DEFPOINTS
  6
ByBlock
 62
     0
 48
50.0
100
AcDbPoint
 10
-2231.094388945068
 20
9254.651372360505
 30
0.0
  0
POINT
  5
1D212
330
1D089
100
AcDbEntity
  8
DEFPOINTS
  6
ByBlock
 62
     0
 48
50.0
100
AcDbPoint
 10
-2629.429523938946
 20
9254.651372360505
 30
0.0
  0
ENDBLK
  5
1D213
330
1D089
100
AcDbEntity
  8
0
 48
50.0
100
AcDbBlockEnd
  0
BLOCK
  5
1D1A3
330
1D096
100
AcDbEntity
  8
0
 48
50.0
100
AcDbBlockBegin
  2
*D31
 70
     1
 10
0.0
 20
0.0
 30
0.0
  3
*D31
  1

  0
LINE
  5
1D7C8
330
1D096
100
AcDbEntity
  8
寸法
 62
     0
 48
50.0
100
AcDbLine
 10
5422.829581418175
 20
5512.903495449067
 30
0.0
 11
5422.829581418175
 21
6313.281130716521
 31
0.0
  0
LINE
  5
1D7C9
330
1D096
100
AcDbEntity
  8
寸法
 62
     0
 48
50.0
100
AcDbLine
 10
7882.829581418177
 20
6238.281130716521
 30
0.0
 11
5422.829581418175
 21
6238.281130716521
 31
0.0
  0
INSERT
  5
1D7CA
330
1D096
100
AcDbEntity
  8
寸法
 62
     0
 48
50.0
100
AcDbBlockReference
  2
_DOTSMALL
 10
7882.829581418177
 20
6238.281130716521
 30
0.0
 41
125.0
 42
125.0
 43
125.0
  0
INSERT
  5
1D7CB
330
1D096
100
AcDbEntity
  8
寸法
 62
     0
 48
50.0
100
AcDbBlockReference
  2
_DOTSMALL
 10
5422.829581418175
 20
6238.281130716521
 30
0.0
 41
125.0
 42
125.0
 43
125.0
 50
180.0
  0
MTEXT
  5
1D7CC
330
1D096
100
AcDbEntity
  8
寸法
 62
     7
 48
50.0
100
AcDbMText
 10
6652.829581418176
 20
6338.295894496049
 30
0.0
 40
150.0
 41
0.0
 71
     5
 72
     1
  1
\A1;柱外寸法 2460
  7
STYLE1
 73
     1
 44
1.0
  0
POINT
  5
1D7CD
330
1D096
100
AcDbEntity
  8
DEFPOINTS
 62
     0
 48
50.0
100
AcDbPoint
 10
7882.829581418177
 20
5542.14094961178
 30
0.0
  0
POINT
  5
1D7CE
330
1D096
100
AcDbEntity
  8
DEFPOINTS
 62
     0
 48
50.0
100
AcDbPoint
 10
5422.829581418175
 20
5487.903495449067
 30
0.0
  0
POINT
  5
1D7CF
330
1D096
100
AcDbEntity
  8
DEFPOINTS
 62
     0
 48
50.0
100
AcDbPoint
 10
5422.829581418175
 20
6238.281130716521
 30
0.0
  0
ENDBLK
  5
1D1AC
330
1D096
100
AcDbEntity
  8
0
 48
50.0
100
AcDbBlockEnd
  0
BLOCK
  5
1D198
330
1D0A1
100
AcDbEntity
  8
0
 48
50.0
100
AcDbBlockBegin
  2
*D32
 70
     1
 10
0.0
 20
0.0
 30
0.0
  3
*D32
  1

  0
LINE
  5
1D199
330
1D0A1
100
AcDbEntity
  8
0
  6
ByBlock
 62
     0
 48
50.0
100
AcDbLine
 10
422.4056110549318
 20
11684.6513723605
 30
0.0
 11
422.4056110549318
 21
12695.72022691505
 31
0.0
  0
LINE
  5
1D19A
330
1D0A1
100
AcDbEntity
  8
0
  6
ByBlock
 62
     0
 48
50.0
100
AcDbLine
 10
-2267.594388945068
 20
11624.6513723605
 30
0.0
 11
-2267.594388945068
 21
12695.72022691505
 31
0.0
  0
LINE
  5
1D19B
330
1D0A1
100
AcDbEntity
  8
0
  6
ByBlock
 62
     0
 48
50.0
100
AcDbLine
 10
422.4056110549318
 20
12620.72022691505
 30
0.0
 11
-2267.594388945068
 21
12620.72022691505
 31
0.0
  0
INSERT
  5
1D19C
330
1D0A1
100
AcDbEntity
  8
0
  6
ByBlock
 62
     0
 48
50.0
100
AcDbBlockReference
  2
_DOTSMALL
 10
422.4056110549318
 20
12620.72022691505
 30
0.0
 41
125.0
 42
125.0
 43
125.0
  0
INSERT
  5
1D19D
330
1D0A1
100
AcDbEntity
  8
0
  6
ByBlock
 62
     0
 48
50.0
100
AcDbBlockReference
  2
_DOTSMALL
 10
-2267.594388945068
 20
12620.72022691505
 30
0.0
 41
125.0
 42
125.0
 43
125.0
 50
180.0
  0
MTEXT
  5
1D19E
330
1D0A1
100
AcDbEntity
  8
0
  6
ByBlock
 62
     7
 48
50.0
100
AcDbMText
 10
-922.5943889450682
 20
12720.73499069457
 30
0.0
 40
150.0
 41
0.0
 71
     5
 72
     1
  1
\A1;2690
  7
STYLE1
 73
     1
 44
1.0
  0
POINT
  5
1D19F
330
1D0A1
100
AcDbEntity
  8
DEFPOINTS
  6
ByBlock
 62
     0
 48
50.0
100
AcDbPoint
 10
422.4056110549318
 20
11659.6513723605
 30
0.0
  0
POINT
  5
1D1A0
330
1D0A1
100
AcDbEntity
  8
DEFPOINTS
  6
ByBlock
 62
     0
 48
50.0
100
AcDbPoint
 10
-2267.594388945068
 20
11599.6513723605
 30
0.0
  0
POINT
  5
1D1A1
330
1D0A1
100
AcDbEntity
  8
DEFPOINTS
  6
ByBlock
 62
     0
 48
50.0
100
AcDbPoint
 10
-2267.594388945068
 20
12620.72022691505
 30
0.0
  0
ENDBLK
  5
1D1A2
330
1D0A1
100
AcDbEntity
  8
0
 48
50.0
100
AcDbBlockEnd
  0
BLOCK
  5
1D22C
330
1D0AD
100
AcDbEntity
  8
0
 48
50.0
100
AcDbBlockBegin
  2
*D33
 70
     1
 10
0.0
 20
0.0
 30
0.0
  3
*D33
  1

  0
LINE
  5
1D22D
330
1D0AD
100
AcDbEntity
  8
0
  6
ByBlock
 62
     0
 48
50.0
100
AcDbLine
 10
447.4056110549335
 20
11659.6513723605
 30
0.0
 11
1396.571531353322
 21
11659.6513723605
 31
0.0
  0
LINE
  5
1D22E
330
1D0AD
100
AcDbEntity
  8
0
  6
ByBlock
 62
     0
 48
50.0
100
AcDbLine
 10
312.4056110549321
 20
9389.651372360505
 30
0.0
 11
1396.571531353322
 21
9389.651372360505
 31
0.0
  0
LINE
  5
1D22F
330
1D0AD
100
AcDbEntity
  8
0
  6
ByBlock
 62
     0
 48
50.0
100
AcDbLine
 10
1321.571531353322
 20
11659.6513723605
 30
0.0
 11
1321.571531353322
 21
9389.651372360505
 31
0.0
  0
INSERT
  5
1D230
330
1D0AD
100
AcDbEntity
  8
0
  6
ByBlock
 62
     0
 48
50.0
100
AcDbBlockReference
  2
_DOTSMALL
 10
1321.571531353322
 20
11659.6513723605
 30
0.0
 41
125.0
 42
125.0
 43
125.0
 50
90.0
  0
INSERT
  5
1D231
330
1D0AD
100
AcDbEntity
  8
0
  6
ByBlock
 62
     0
 48
50.0
100
AcDbBlockReference
  2
_DOTSMALL
 10
1321.571531353322
 20
9389.651372360505
 30
0.0
 41
125.0
 42
125.0
 43
125.0
 50
270.0
  0
MTEXT
  5
1D232
330
1D0AD
100
AcDbEntity
  8
0
  6
ByBlock
 62
     7
 48
50.0
100
AcDbMText
 10
1221.556767573794
 20
10524.6513723605
 30
0.0
 40
150.0
 41
0.0
 71
     5
 72
     1
  1
\A1;2270
  7
STYLE1
 11
0.0000000000000001
 21
1.0
 31
0.0
 73
     1
 44
1.0
  0
POINT
  5
1D233
330
1D0AD
100
AcDbEntity
  8
DEFPOINTS
  6
ByBlock
 62
     0
 48
50.0
100
AcDbPoint
 10
422.4056110549335
 20
11659.6513723605
 30
0.0
  0
POINT
  5
1D234
330
1D0AD
100
AcDbEntity
  8
DEFPOINTS
  6
ByBlock
 62
     0
 48
50.0
100
AcDbPoint
 10
287.4056110549321
 20
9389.651372360505
 30
0.0
  0
POINT
  5
1D235
330
1D0AD
100
AcDbEntity
  8
DEFPOINTS
  6
ByBlock
 62
     0
 48
50.0
100
AcDbPoint
 10
1321.571531353322
 20
9389.651372360505
 30
0.0
  0
ENDBLK
  5
1D236
330
1D0AD
100
AcDbEntity
  8
0
 48
50.0
100
AcDbBlockEnd
  0
BLOCK
  5
1D237
330
1D0B9
100
AcDbEntity
  8
0
 48
50.0
100
AcDbBlockBegin
  2
*D34
 70
     1
 10
0.0
 20
0.0
 30
0.0
  3
*D34
  1

  0
LINE
  5
1D7D0
330
1D0B9
100
AcDbEntity
  8
寸法
 62
     0
 48
50.0
100
AcDbLine
 10
7907.829581418174
 20
5275.0
 30
0.0
 11
8683.949297310766
 21
5275.0
 31
0.0
  0
LINE
  5
1D7D1
330
1D0B9
100
AcDbEntity
  8
寸法
 62
     0
 48
50.0
100
AcDbLine
 10
8608.949297310763
 20
3330.0
 30
0.0
 11
8608.949297310765
 21
5275.0
 31
0.0
  0
INSERT
  5
1D7D2
330
1D0B9
100
AcDbEntity
  8
寸法
 62
     0
 48
50.0
100
AcDbBlockReference
  2
_DOTSMALL
 10
8608.949297310763
 20
3330.0
 30
0.0
 41
125.0
 42
125.0
 43
125.0
 50
270.0
  0
INSERT
  5
1D7D3
330
1D0B9
100
AcDbEntity
  8
寸法
 62
     0
 48
50.0
100
AcDbBlockReference
  2
_DOTSMALL
 10
8608.949297310765
 20
5275.0
 30
0.0
 41
125.0
 42
125.0
 43
125.0
 50
90.0
  0
MTEXT
  5
1D7D4
330
1D0B9
100
AcDbEntity
  8
寸法
 62
     7
 48
50.0
100
AcDbMText
 10
8508.949297310762
 20
4302.500000000001
 30
0.0
 40
150.0
 41
0.0
 71
     5
 72
     1
  1
\A1;1945
  7
STYLE1
 11
0.0000000000000001
 21
1.0
 31
0.0
 73
     1
 44
1.0
  0
POINT
  5
1D7D5
330
1D0B9
100
AcDbEntity
  8
DEFPOINTS
 62
     0
 48
50.0
100
AcDbPoint
 10
7882.829581418175
 20
3330.0
 30
0.0
  0
POINT
  5
1D7D6
330
1D0B9
100
AcDbEntity
  8
DEFPOINTS
 62
     0
 48
50.0
100
AcDbPoint
 10
7882.829581418175
 20
5275.0
 30
0.0
  0
POINT
  5
1D7D7
330
1D0B9
100
AcDbEntity
  8
DEFPOINTS
 62
     0
 48
50.0
100
AcDbPoint
 10
8608.949297310765
 20
5275.0
 30
0.0
  0
ENDBLK
  5
1D240
330
1D0B9
100
AcDbEntity
  8
0
 48
50.0
100
AcDbBlockEnd
  0
BLOCK
  5
1D220
330
1D0D0
100
AcDbEntity
  8
0
 48
50.0
100
AcDbBlockBegin
  2
*D35
 70
     1
 10
0.0
 20
0.0
 30
0.0
  3
*D35
  1

  0
LINE
  5
1D221
330
1D0D0
100
AcDbEntity
  8
0
  6
ByBlock
 62
     0
 48
50.0
100
AcDbLine
 10
312.4056110549321
 20
9389.651372360505
 30
0.0
 11
1088.525326947521
 21
9389.651372360505
 31
0.0
  0
LINE
  5
1D222
330
1D0D0
100
AcDbEntity
  8
0
  6
ByBlock
 62
     0
 48
50.0
100
AcDbLine
 10
312.4056110549321
 20
9444.651372360507
 30
0.0
 11
1088.525326947521
 21
9444.651372360507
 31
0.0
  0
LINE
  5
1D223
330
1D0D0
100
AcDbEntity
  8
0
  6
ByBlock
 62
     0
 48
50.0
100
AcDbLine
 10
1013.525326947521
 20
9444.651372360507
 30
0.0
 11
1013.525326947521
 21
9389.651372360505
 31
0.0
  0
LINE
  5
1D224
330
1D0D0
100
AcDbEntity
  8
0
  6
ByBlock
 62
     0
 48
50.0
100
AcDbLine
 10
1013.525326947521
 20
9389.651372360505
 30
0.0
 11
1013.525326947521
 21
8968.465264820173
 31
0.0
  0
INSERT
  5
1D225
330
1D0D0
100
AcDbEntity
  8
0
  6
ByBlock
 62
     0
 48
50.0
100
AcDbBlockReference
  2
_DOTSMALL
 10
1013.525326947521
 20
9444.651372360507
 30
0.0
 41
125.0
 42
125.0
 43
125.0
 50
90.0
  0
INSERT
  5
1D226
330
1D0D0
100
AcDbEntity
  8
0
  6
ByBlock
 62
     0
 48
50.0
100
AcDbBlockReference
  2
_DOTSMALL
 10
1013.525326947521
 20
9389.651372360505
 30
0.0
 41
125.0
 42
125.0
 43
125.0
 50
270.0
  0
MTEXT
  5
1D227
330
1D0D0
100
AcDbEntity
  8
0
  6
ByBlock
 62
     7
 48
50.0
100
AcDbMText
 10
913.5253269475215
 20
9079.071866537971
 30
0.0
 40
150.0
 41
0.0
 71
     5
 72
     1
  1
\A1;55
  7
STYLE1
 11
0.0000000000000001
 21
1.0
 31
0.0
 73
     1
 44
1.0
  0
POINT
  5
1D228
330
1D0D0
100
AcDbEntity
  8
DEFPOINTS
  6
ByBlock
 62
     0
 48
50.0
100
AcDbPoint
 10
287.4056110549321
 20
9389.651372360505
 30
0.0
  0
POINT
  5
1D229
330
1D0D0
100
AcDbEntity
  8
DEFPOINTS
  6
ByBlock
 62
     0
 48
50.0
100
AcDbPoint
 10
287.4056110549321
 20
9444.651372360507
 30
0.0
  0
POINT
  5
1D22A
330
1D0D0
100
AcDbEntity
  8
DEFPOINTS
  6
ByBlock
 62
     0
 48
50.0
100
AcDbPoint
 10
1013.525326947521
 20
9444.651372360507
 30
0.0
  0
ENDBLK
  5
1D22B
330
1D0D0
100
AcDbEntity
  8
0
 48
50.0
100
AcDbBlockEnd
  0
BLOCK
  5
1D1AD
330
1D0EA
100
AcDbEntity
  8
0
 48
50.0
100
AcDbBlockBegin
  2
*D36
 70
     1
 10
0.0
 20
0.0
 30
0.0
  3
*D36
  1

  0
LINE
  5
1D1AE
330
1D0EA
100
AcDbEntity
  8
0
  6
ByBlock
 62
     0
 48
50.0
100
AcDbLine
 10
422.4056110549335
 20
11684.6513723605
 30
0.0
 11
422.4056110549336
 21
12427.93250307702
 31
0.0
  0
LINE
  5
1D1AF
330
1D0EA
100
AcDbEntity
  8
0
  6
ByBlock
 62
     0
 48
50.0
100
AcDbLine
 10
287.4056110549336
 20
11681.79232197228
 30
0.0
 11
287.4056110549336
 21
12427.93250307702
 31
0.0
  0
LINE
  5
1D1B0
330
1D0EA
100
AcDbEntity
  8
0
  6
ByBlock
 62
     0
 48
50.0
100
AcDbLine
 10
287.4056110549336
 20
12352.93250307702
 30
0.0
 11
422.4056110549336
 21
12352.93250307702
 31
0.0
  0
LINE
  5
1D1B1
330
1D0EA
100
AcDbEntity
  8
0
  6
ByBlock
 62
     0
 48
50.0
100
AcDbLine
 10
422.4056110549336
 20
12352.93250307702
 30
0.0
 11
843.6188144905299
 21
12352.93250307702
 31
0.0
  0
INSERT
  5
1D1B2
330
1D0EA
100
AcDbEntity
  8
0
  6
ByBlock
 62
     0
 48
50.0
100
AcDbBlockReference
  2
_DOTSMALL
 10
287.4056110549336
 20
12352.93250307702
 30
0.0
 41
125.0
 42
125.0
 43
125.0
 50
180.0
  0
INSERT
  5
1D1B3
330
1D0EA
100
AcDbEntity
  8
0
  6
ByBlock
 62
     0
 48
50.0
100
AcDbBlockReference
  2
_DOTSMALL
 10
422.4056110549336
 20
12352.93250307702
 30
0.0
 41
125.0
 42
125.0
 43
125.0
  0
MTEXT
  5
1D1B4
330
1D0EA
100
AcDbEntity
  8
0
  6
ByBlock
 62
     7
 48
50.0
100
AcDbMText
 10
695.5122127727317
 20
12452.93250307702
 30
0.0
 40
150.0
 41
0.0
 71
     5
 72
     1
  1
\A1;135
  7
STYLE1
 73
     1
 44
1.0
  0
POINT
  5
1D1B5
330
1D0EA
100
AcDbEntity
  8
DEFPOINTS
  6
ByBlock
 62
     0
 48
50.0
100
AcDbPoint
 10
422.4056110549335
 20
11659.6513723605
 30
0.0
  0
POINT
  5
1D1B6
330
1D0EA
100
AcDbEntity
  8
DEFPOINTS
  6
ByBlock
 62
     0
 48
50.0
100
AcDbPoint
 10
287.4056110549336
 20
11656.79232197228
 30
0.0
  0
POINT
  5
1D1B7
330
1D0EA
100
AcDbEntity
  8
DEFPOINTS
  6
ByBlock
 62
     0
 48
50.0
100
AcDbPoint
 10
287.4056110549336
 20
12352.93250307702
 30
0.0
  0
ENDBLK
  5
1D1B8
330
1D0EA
100
AcDbEntity
  8
0
 48
50.0
100
AcDbBlockEnd
  0
BLOCK
  5
1D1FD
330
1D0F7
100
AcDbEntity
  8
0
 48
50.0
100
AcDbBlockBegin
  2
*D37
 70
     1
 10
0.0
 20
0.0
 30
0.0
  3
*D37
  1

  0
LINE
  5
1D1FE
330
1D0F7
100
AcDbEntity
  8
0
  6
ByBlock
 62
     0
 48
50.0
100
AcDbLine
 10
-2197.594388945068
 20
9389.651372360505
 30
0.0
 11
-2907.085142366486
 21
9389.651372360505
 31
0.0
  0
LINE
  5
1D1FF
330
1D0F7
100
AcDbEntity
  8
0
  6
ByBlock
 62
     0
 48
50.0
100
AcDbLine
 10
-2292.594388945068
 20
11599.6513723605
 30
0.0
 11
-2907.085142366486
 21
11599.6513723605
 31
0.0
  0
LINE
  5
1D200
330
1D0F7
100
AcDbEntity
  8
0
  6
ByBlock
 62
     0
 48
50.0
100
AcDbLine
 10
-2832.085142366486
 20
9389.651372360505
 30
0.0
 11
-2832.085142366486
 21
11599.6513723605
 31
0.0
  0
INSERT
  5
1D201
330
1D0F7
100
AcDbEntity
  8
0
  6
ByBlock
 62
     0
 48
50.0
100
AcDbBlockReference
  2
_DOTSMALL
 10
-2832.085142366486
 20
9389.651372360505
 30
0.0
 41
125.0
 42
125.0
 43
125.0
 50
270.0
  0
INSERT
  5
1D202
330
1D0F7
100
AcDbEntity
  8
0
  6
ByBlock
 62
     0
 48
50.0
100
AcDbBlockReference
  2
_DOTSMALL
 10
-2832.085142366486
 20
11599.6513723605
 30
0.0
 41
125.0
 42
125.0
 43
125.0
 50
90.0
  0
MTEXT
  5
1D203
330
1D0F7
100
AcDbEntity
  8
0
  6
ByBlock
 62
     7
 48
50.0
100
AcDbMText
 10
-2932.099906146014
 20
10494.6513723605
 30
0.0
 40
150.0
 41
0.0
 71
     5
 72
     1
  1
\A1;2210
  7
STYLE1
 11
0.0000000000000001
 21
1.0
 31
0.0
 73
     1
 44
1.0
  0
POINT
  5
1D204
330
1D0F7
100
AcDbEntity
  8
DEFPOINTS
  6
ByBlock
 62
     0
 48
50.0
100
AcDbPoint
 10
-2172.594388945068
 20
9389.651372360505
 30
0.0
  0
POINT
  5
1D205
330
1D0F7
100
AcDbEntity
  8
DEFPOINTS
  6
ByBlock
 62
     0
 48
50.0
100
AcDbPoint
 10
-2267.594388945068
 20
11599.6513723605
 30
0.0
  0
POINT
  5
1D206
330
1D0F7
100
AcDbEntity
  8
DEFPOINTS
  6
ByBlock
 62
     0
 48
50.0
100
AcDbPoint
 10
-2832.085142366486
 20
11599.6513723605
 30
0.0
  0
ENDBLK
  5
1D207
330
1D0F7
100
AcDbEntity
  8
0
 48
50.0
100
AcDbBlockEnd
  0
BLOCK
  5
1D1F1
330
1D103
100
AcDbEntity
  8
0
 48
50.0
100
AcDbBlockBegin
  2
*D38
 70
     1
 10
0.0
 20
0.0
 30
0.0
  3
*D38
  1

  0
LINE
  5
1D1F2
330
1D103
100
AcDbEntity
  8
0
  6
ByBlock
 62
     0
 48
50.0
100
AcDbLine
 10
-2172.594388945068
 20
11627.55486780957
 30
0.0
 11
-2172.594388945068
 21
12427.93250307702
 31
0.0
  0
LINE
  5
1D1F3
330
1D103
100
AcDbEntity
  8
0
  6
ByBlock
 62
     0
 48
50.0
100
AcDbLine
 10
-2267.594388945068
 20
11624.6513723605
 30
0.0
 11
-2267.594388945068
 21
12427.93250307702
 31
0.0
  0
LINE
  5
1D1F4
330
1D103
100
AcDbEntity
  8
0
  6
ByBlock
 62
     0
 48
50.0
100
AcDbLine
 10
-2172.594388945068
 20
12352.93250307702
 30
0.0
 11
-2267.594388945068
 21
12352.93250307702
 31
0.0
  0
LINE
  5
1D1F5
330
1D103
100
AcDbEntity
  8
0
  6
ByBlock
 62
     0
 48
50.0
100
AcDbLine
 10
-2267.594388945068
 20
12352.93250307702
 30
0.0
 11
-2713.866647498773
 21
12352.93250307702
 31
0.0
  0
INSERT
  5
1D1F6
330
1D103
100
AcDbEntity
  8
0
  6
ByBlock
 62
     0
 48
50.0
100
AcDbBlockReference
  2
_DOTSMALL
 10
-2172.594388945068
 20
12352.93250307702
 30
0.0
 41
125.0
 42
125.0
 43
125.0
  0
INSERT
  5
1D1F7
330
1D103
100
AcDbEntity
  8
0
  6
ByBlock
 62
     0
 48
50.0
100
AcDbBlockReference
  2
_DOTSMALL
 10
-2267.594388945068
 20
12352.93250307702
 30
0.0
 41
125.0
 42
125.0
 43
125.0
 50
180.0
  0
MTEXT
  5
1D1F8
330
1D103
100
AcDbEntity
  8
0
  6
ByBlock
 62
     7
 48
50.0
100
AcDbMText
 10
-2600.153444063177
 20
12452.93250307702
 30
0.0
 40
150.0
 41
0.0
 71
     5
 72
     1
  1
\A1;95
  7
STYLE1
 73
     1
 44
1.0
  0
POINT
  5
1D1F9
330
1D103
100
AcDbEntity
  8
DEFPOINTS
  6
ByBlock
 62
     0
 48
50.0
100
AcDbPoint
 10
-2172.594388945068
 20
11602.55486780957
 30
0.0
  0
POINT
  5
1D1FA
330
1D103
100
AcDbEntity
  8
DEFPOINTS
  6
ByBlock
 62
     0
 48
50.0
100
AcDbPoint
 10
-2267.594388945068
 20
11599.6513723605
 30
0.0
  0
POINT
  5
1D1FB
330
1D103
100
AcDbEntity
  8
DEFPOINTS
  6
ByBlock
 62
     0
 48
50.0
100
AcDbPoint
 10
-2267.594388945068
 20
12352.93250307702
 30
0.0
  0
ENDBLK
  5
1D1FC
330
1D103
100
AcDbEntity
  8
0
 48
50.0
100
AcDbBlockEnd
  0
BLOCK
  5
1D29C
330
1D254
100
AcDbEntity
  8
0
 48
50.0
100
AcDbBlockBegin
  2
*D39
 70
     1
 10
0.0
 20
0.0
 30
0.0
  3
*D39
  1

  0
LINE
  5
1D29D
330
1D254
100
AcDbEntity
  8
0
  6
ByBlock
 62
     0
 48
50.0
100
AcDbLine
 10
5397.829581418175
 20
3274.999999999951
 30
0.0
 11
4999.899621195023
 21
3274.999999999951
 31
0.0
  0
LINE
  5
1D29E
330
1D254
100
AcDbEntity
  8
0
  6
ByBlock
 62
     0
 48
50.0
100
AcDbLine
 10
5837.829581418175
 20
5169.999999999951
 30
0.0
 11
4999.899621195023
 21
5169.999999999951
 31
0.0
  0
LINE
  5
1D29F
330
1D254
100
AcDbEntity
  8
0
  6
ByBlock
 62
     0
 48
50.0
100
AcDbLine
 10
5074.899621195023
 20
3274.999999999951
 30
0.0
 11
5074.899621195023
 21
5169.999999999951
 31
0.0
  0
INSERT
  5
1D2A0
330
1D254
100
AcDbEntity
  8
0
  6
ByBlock
 62
     0
 48
50.0
100
AcDbBlockReference
  2
_DOTSMALL
 10
5074.899621195023
 20
3274.999999999951
 30
0.0
 41
125.0
 42
125.0
 43
125.0
 50
270.0
  0
INSERT
  5
1D2A1
330
1D254
100
AcDbEntity
  8
0
  6
ByBlock
 62
     0
 48
50.0
100
AcDbBlockReference
  2
_DOTSMALL
 10
5074.899621195023
 20
5169.999999999951
 30
0.0
 41
125.0
 42
125.0
 43
125.0
 50
90.0
  0
MTEXT
  5
1D2A2
330
1D254
100
AcDbEntity
  8
0
  6
ByBlock
 62
     7
 48
50.0
100
AcDbMText
 10
4974.899621195024
 20
4222.499999999951
 30
0.0
 40
150.0
 41
0.0
 71
     5
 72
     1
  1
\A1;1895
  7
STYLE1
 11
0.0000000000000001
 21
1.0
 31
0.0
 73
     1
 44
1.0
  0
POINT
  5
1D2A3
330
1D254
100
AcDbEntity
  8
DEFPOINTS
  6
ByBlock
 62
     0
 48
50.0
100
AcDbPoint
 10
5422.829581418175
 20
3274.999999999951
 30
0.0
  0
POINT
  5
1D2A4
330
1D254
100
AcDbEntity
  8
DEFPOINTS
  6
ByBlock
 62
     0
 48
50.0
100
AcDbPoint
 10
5862.829581418175
 20
5169.999999999951
 30
0.0
  0
POINT
  5
1D2A5
330
1D254
100
AcDbEntity
  8
DEFPOINTS
  6
ByBlock
 62
     0
 48
50.0
100
AcDbPoint
 10
5074.899621195023
 20
5169.999999999951
 30
0.0
  0
ENDBLK
  5
1D2A6
330
1D254
100
AcDbEntity
  8
0
 48
50.0
100
AcDbBlockEnd
  0
BLOCK
  5
1D2D7
330
1D2CC
100
AcDbEntity
  8
0
 48
50.0
100
AcDbBlockBegin
  2
*D40
 70
     1
 10
0.0
 20
0.0
 30
0.0
  3
*D40
  1

  0
LINE
  5
1D2CD
330
1D2CC
100
AcDbEntity
  8
0
  6
ByBlock
 62
     0
 48
50.0
100
AcDbLine
 10
44405.89788991325
 20
19731.25355823898
 30
0.0
 11
45075.0910977055
 21
19731.25355823898
 31
0.0
  0
LINE
  5
1D2CE
330
1D2CC
100
AcDbEntity
  8
0
  6
ByBlock
 62
     0
 48
50.0
100
AcDbLine
 10
44405.89788991326
 20
19846.25355823898
 30
0.0
 11
45075.0910977055
 21
19846.25355823898
 31
0.0
  0
LINE
  5
1D2CF
330
1D2CC
100
AcDbEntity
  8
0
  6
ByBlock
 62
     0
 48
50.0
100
AcDbLine
 10
45000.0910977055
 20
19731.25355823898
 30
0.0
 11
45000.0910977055
 21
19846.25355823898
 31
0.0
  0
LINE
  5
1D2D0
330
1D2CC
100
AcDbEntity
  8
0
  6
ByBlock
 62
     0
 48
50.0
100
AcDbLine
 10
45000.0910977055
 20
19846.25355823898
 30
0.0
 11
45000.0910977055
 21
20237.46676167458
 31
0.0
  0
INSERT
  5
1D2D1
330
1D2CC
100
AcDbEntity
  8
0
  6
ByBlock
 62
     0
 48
50.0
100
AcDbBlockReference
  2
_DOTSMALL
 10
45000.0910977055
 20
19731.25355823898
 30
0.0
 41
125.0
 42
125.0
 43
125.0
 50
270.0
  0
INSERT
  5
1D2D2
330
1D2CC
100
AcDbEntity
  8
0
  6
ByBlock
 62
     0
 48
50.0
100
AcDbBlockReference
  2
_DOTSMALL
 10
45000.0910977055
 20
19846.25355823898
 30
0.0
 41
125.0
 42
125.0
 43
125.0
 50
90.0
  0
MTEXT
  5
1D2D3
330
1D2CC
100
AcDbEntity
  8
0
  6
ByBlock
 62
     7
 48
50.0
100
AcDbMText
 10
44900.0910977055
 20
20104.36015995679
 30
0.0
 40
150.0
 41
0.0
 71
     5
 72
     1
  1
\A1;115
  7
STYLE1
 11
0.0000000000000001
 21
1.0
 31
0.0
 73
     1
 44
1.0
  0
POINT
  5
1D2D4
330
1D2CC
100
AcDbEntity
  8
DEFPOINTS
  6
ByBlock
 62
     0
 48
50.0
100
AcDbPoint
 10
44380.89788991326
 20
19731.25355823898
 30
0.0
  0
POINT
  5
1D2D5
330
1D2CC
100
AcDbEntity
  8
DEFPOINTS
  6
ByBlock
 62
     0
 48
50.0
100
AcDbPoint
 10
44380.89788991326
 20
19846.25355823898
 30
0.0
  0
POINT
  5
1D2D6
330
1D2CC
100
AcDbEntity
  8
DEFPOINTS
  6
ByBlock
 62
     0
 48
50.0
100
AcDbPoint
 10
45000.0910977055
 20
19846.25355823898
 30
0.0
  0
ENDBLK
  5
1D2D8
330
1D2CC
100
AcDbEntity
  8
0
 48
50.0
100
AcDbBlockEnd
  0
BLOCK
  5
1D2DB
330
1D2D9
100
AcDbEntity
  8
0
 48
50.0
100
AcDbBlockBegin
  2
A$C356B7D95
 70
     0
 10
0.0
 20
0.0
 30
0.0
  3
A$C356B7D95
  1

  0
DIMENSION
  5
1D2DA
330
1D2D9
100
AcDbEntity
  8
寸法
 48
50.0
100
AcDbDimension
  2
*D40
 10
619.1932440042291
 20
130.6249900073708
 30
0.0
 11
619.1932440042291
 21
388.7315917251762
 31
0.0
 12
-44380.89785370127
 22
-19715.62856823161
 32
0.0
 70
   128
 71
     5
 42
-1.0
  3
INABA_S50G
100
AcDbAlignedDimension
 13
0.0000362119826605
 23
15.62499000737079
 33
0.0
 14
0.0000362119899364
 24
130.6249900073708
 34
0.0
 50
269.9999999999997
100
AcDbRotatedDimension
  0
ENDBLK
  5
1D2DC
330
1D2D9
100
AcDbEntity
  8
0
 48
50.0
100
AcDbBlockEnd
  0
BLOCK
  5
1D2DF
330
1D2DD
100
AcDbEntity
  8
0
 48
50.0
100
AcDbBlockBegin
  2
A$C5FCD7CC6
 70
     0
 10
0.0
 20
0.0
 30
0.0
  3
A$C5FCD7CC6
  1

  0
INSERT
  5
1D2DE
330
1D2DD
100
AcDbEntity
  8
部品1
 48
50.0
100
AcDbBlockReference
  2
A$C356B7D95
 10
5.140650254201318
 20
-15.61293116059096
 30
0.0
 50
2.255436934929261
  0
ENDBLK
  5
1D2E0
330
1D2DD
100
AcDbEntity
  8
0
 48
50.0
100
AcDbBlockEnd
  0
BLOCK
  5
1D6E3
330
1D65E
100
AcDbEntity
  8
0
 48
50.0
100
AcDbBlockBegin
  2
*D43
 70
     1
 10
0.0
 20
0.0
 30
0.0
  3
*D43
  1

  0
LINE
  5
1D7D8
330
1D65E
100
AcDbEntity
  8
寸法
 62
     0
 48
50.0
100
AcDbLine
 10
5422.829581418184
 20
11601.36318119755
 30
0.0
 11
5422.829581418184
 21
12402.01792807844
 31
0.0
  0
LINE
  5
1D7D9
330
1D65E
100
AcDbEntity
  8
寸法
 62
     0
 48
50.0
100
AcDbLine
 10
7882.829581418184
 20
12327.01792807844
 30
0.0
 11
5422.829581418184
 21
12327.01792807844
 31
0.0
  0
INSERT
  5
1D7DA
330
1D65E
100
AcDbEntity
  8
寸法
 62
     0
 48
50.0
100
AcDbBlockReference
  2
_DOTSMALL
 10
7882.829581418184
 20
12327.01792807844
 30
0.0
 41
125.0
 42
125.0
 43
125.0
  0
INSERT
  5
1D7DB
330
1D65E
100
AcDbEntity
  8
寸法
 62
     0
 48
50.0
100
AcDbBlockReference
  2
_DOTSMALL
 10
5422.829581418184
 20
12327.01792807844
 30
0.0
 41
125.0
 42
125.0
 43
125.0
 50
180.0
  0
MTEXT
  5
1D7DC
330
1D65E
100
AcDbEntity
  8
寸法
 62
     7
 48
50.0
100
AcDbMText
 10
6652.829581418185
 20
12427.03269185797
 30
0.0
 40
150.0
 41
0.0
 71
     5
 72
     1
  1
\A1;柱外寸法 2460
  7
STYLE1
 73
     1
 44
1.0
  0
POINT
  5
1D7DD
330
1D65E
100
AcDbEntity
  8
DEFPOINTS
 62
     0
 48
50.0
100
AcDbPoint
 10
7882.829581418184
 20
11588.73679736192
 30
0.0
  0
POINT
  5
1D7DE
330
1D65E
100
AcDbEntity
  8
DEFPOINTS
 62
     0
 48
50.0
100
AcDbPoint
 10
5422.829581418184
 20
11576.36318119755
 30
0.0
  0
POINT
  5
1D7DF
330
1D65E
100
AcDbEntity
  8
DEFPOINTS
 62
     0
 48
50.0
100
AcDbPoint
 10
5422.829581418184
 20
12327.01792807844
 30
0.0
  0
ENDBLK
  5
1D6EC
330
1D65E
100
AcDbEntity
  8
0
 48
50.0
100
AcDbBlockEnd
  0
BLOCK
  5
1D6ED
330
1D669
100
AcDbEntity
  8
0
 48
50.0
100
AcDbBlockBegin
  2
*D44
 70
     1
 10
0.0
 20
0.0
 30
0.0
  3
*D44
  1

  0
LINE
  5
1D6EE
330
1D669
100
AcDbEntity
  8
0
  6
ByBlock
 62
     0
 48
50.0
100
AcDbLine
 10
8017.829581418176
 20
11658.73679736192
 30
0.0
 11
8017.829581418176
 21
12718.1736988701
 31
0.0
  0
LINE
  5
1D6EF
330
1D669
100
AcDbEntity
  8
0
  6
ByBlock
 62
     0
 48
50.0
100
AcDbLine
 10
5327.82958141818
 20
11598.73679736192
 30
0.0
 11
5327.82958141818
 21
12718.1736988701
 31
0.0
  0
LINE
  5
1D6F0
330
1D669
100
AcDbEntity
  8
0
  6
ByBlock
 62
     0
 48
50.0
100
AcDbLine
 10
8017.829581418176
 20
12643.1736988701
 30
0.0
 11
5327.82958141818
 21
12643.1736988701
 31
0.0
  0
INSERT
  5
1D6F1
330
1D669
100
AcDbEntity
  8
0
  6
ByBlock
 62
     0
 48
50.0
100
AcDbBlockReference
  2
_DOTSMALL
 10
8017.829581418176
 20
12643.1736988701
 30
0.0
 41
125.0
 42
125.0
 43
125.0
  0
INSERT
  5
1D6F2
330
1D669
100
AcDbEntity
  8
0
  6
ByBlock
 62
     0
 48
50.0
100
AcDbBlockReference
  2
_DOTSMALL
 10
5327.82958141818
 20
12643.1736988701
 30
0.0
 41
125.0
 42
125.0
 43
125.0
 50
180.0
  0
MTEXT
  5
1D6F3
330
1D669
100
AcDbEntity
  8
0
  6
ByBlock
 62
     7
 48
50.0
100
AcDbMText
 10
6672.829581418179
 20
12743.18846264963
 30
0.0
 40
150.0
 41
0.0
 71
     5
 72
     1
  1
\A1;2690
  7
STYLE1
 73
     1
 44
1.0
  0
POINT
  5
1D6F4
330
1D669
100
AcDbEntity
  8
DEFPOINTS
  6
ByBlock
 62
     0
 48
50.0
100
AcDbPoint
 10
8017.829581418176
 20
11633.73679736192
 30
0.0
  0
POINT
  5
1D6F5
330
1D669
100
AcDbEntity
  8
DEFPOINTS
  6
ByBlock
 62
     0
 48
50.0
100
AcDbPoint
 10
5327.82958141818
 20
11573.73679736192
 30
0.0
  0
POINT
  5
1D6F6
330
1D669
100
AcDbEntity
  8
DEFPOINTS
  6
ByBlock
 62
     0
 48
50.0
100
AcDbPoint
 10
5327.82958141818
 20
12643.1736988701
 30
0.0
  0
ENDBLK
  5
1D6F7
330
1D669
100
AcDbEntity
  8
0
 48
50.0
100
AcDbBlockEnd
  0
BLOCK
  5
1D6F8
330
1D675
100
AcDbEntity
  8
0
 48
50.0
100
AcDbBlockBegin
  2
*D45
 70
     1
 10
0.0
 20
0.0
 30
0.0
  3
*D45
  1

  0
LINE
  5
1D6F9
330
1D675
100
AcDbEntity
  8
0
  6
ByBlock
 62
     0
 48
50.0
100
AcDbLine
 10
5422.829581418184
 20
11601.36318119755
 30
0.0
 11
5422.829581418184
 21
12402.01792807844
 31
0.0
  0
LINE
  5
1D6FA
330
1D675
100
AcDbEntity
  8
0
  6
ByBlock
 62
     0
 48
50.0
100
AcDbLine
 10
5327.82958141818
 20
11598.73679736192
 30
0.0
 11
5327.82958141818
 21
12402.01792807844
 31
0.0
  0
LINE
  5
1D6FB
330
1D675
100
AcDbEntity
  8
0
  6
ByBlock
 62
     0
 48
50.0
100
AcDbLine
 10
5422.829581418184
 20
12327.01792807844
 30
0.0
 11
5327.82958141818
 21
12327.01792807844
 31
0.0
  0
LINE
  5
1D6FC
330
1D675
100
AcDbEntity
  8
0
  6
ByBlock
 62
     0
 48
50.0
100
AcDbLine
 10
5327.82958141818
 20
12327.01792807844
 30
0.0
 11
4881.557322864475
 21
12327.01792807844
 31
0.0
  0
INSERT
  5
1D6FD
330
1D675
100
AcDbEntity
  8
0
  6
ByBlock
 62
     0
 48
50.0
100
AcDbBlockReference
  2
_DOTSMALL
 10
5422.829581418184
 20
12327.01792807844
 30
0.0
 41
125.0
 42
125.0
 43
125.0
  0
INSERT
  5
1D6FE
330
1D675
100
AcDbEntity
  8
0
  6
ByBlock
 62
     0
 48
50.0
100
AcDbBlockReference
  2
_DOTSMALL
 10
5327.82958141818
 20
12327.01792807844
 30
0.0
 41
125.0
 42
125.0
 43
125.0
 50
180.0
  0
MTEXT
  5
1D6FF
330
1D675
100
AcDbEntity
  8
0
  6
ByBlock
 62
     7
 48
50.0
100
AcDbMText
 10
4995.270526300071
 20
12427.01792807844
 30
0.0
 40
150.0
 41
0.0
 71
     5
 72
     1
  1
\A1;95
  7
STYLE1
 73
     1
 44
1.0
  0
POINT
  5
1D700
330
1D675
100
AcDbEntity
  8
DEFPOINTS
  6
ByBlock
 62
     0
 48
50.0
100
AcDbPoint
 10
5422.829581418184
 20
11576.36318119755
 30
0.0
  0
POINT
  5
1D701
330
1D675
100
AcDbEntity
  8
DEFPOINTS
  6
ByBlock
 62
     0
 48
50.0
100
AcDbPoint
 10
5327.82958141818
 20
11573.73679736192
 30
0.0
  0
POINT
  5
1D702
330
1D675
100
AcDbEntity
  8
DEFPOINTS
  6
ByBlock
 62
     0
 48
50.0
100
AcDbPoint
 10
5327.82958141818
 20
12327.01792807844
 30
0.0
  0
ENDBLK
  5
1D703
330
1D675
100
AcDbEntity
  8
0
 48
50.0
100
AcDbBlockEnd
  0
BLOCK
  5
1D704
330
1D682
100
AcDbEntity
  8
0
 48
50.0
100
AcDbBlockBegin
  2
*D46
 70
     1
 10
0.0
 20
0.0
 30
0.0
  3
*D46
  1

  0
LINE
  5
1D705
330
1D682
100
AcDbEntity
  8
0
  6
ByBlock
 62
     0
 48
50.0
100
AcDbLine
 10
5397.82958141818
 20
9363.736797361928
 30
0.0
 11
3723.587517088187
 21
9363.736797361928
 31
0.0
  0
LINE
  5
1D706
330
1D682
100
AcDbEntity
  8
0
  6
ByBlock
 62
     0
 48
50.0
100
AcDbLine
 10
5302.82958141818
 20
11573.73679736192
 30
0.0
 11
3723.587517088188
 21
11573.73679736192
 31
0.0
  0
LINE
  5
1D707
330
1D682
100
AcDbEntity
  8
0
  6
ByBlock
 62
     0
 48
50.0
100
AcDbLine
 10
3798.587517088187
 20
9363.736797361928
 30
0.0
 11
3798.587517088188
 21
11573.73679736192
 31
0.0
  0
INSERT
  5
1D708
330
1D682
100
AcDbEntity
  8
0
  6
ByBlock
 62
     0
 48
50.0
100
AcDbBlockReference
  2
_DOTSMALL
 10
3798.587517088187
 20
9363.736797361928
 30
0.0
 41
125.0
 42
125.0
 43
125.0
 50
270.0
  0
INSERT
  5
1D709
330
1D682
100
AcDbEntity
  8
0
  6
ByBlock
 62
     0
 48
50.0
100
AcDbBlockReference
  2
_DOTSMALL
 10
3798.587517088188
 20
11573.73679736192
 30
0.0
 41
125.0
 42
125.0
 43
125.0
 50
90.0
  0
MTEXT
  5
1D70A
330
1D682
100
AcDbEntity
  8
0
  6
ByBlock
 62
     7
 48
50.0
100
AcDbMText
 10
3698.57275330866
 20
10468.73679736192
 30
0.0
 40
150.0
 41
0.0
 71
     5
 72
     1
  1
\A1;2210
  7
STYLE1
 11
0.0000000000000001
 21
1.0
 31
0.0
 73
     1
 44
1.0
  0
POINT
  5
1D70B
330
1D682
100
AcDbEntity
  8
DEFPOINTS
  6
ByBlock
 62
     0
 48
50.0
100
AcDbPoint
 10
5422.829581418181
 20
9363.736797361928
 30
0.0
  0
POINT
  5
1D70C
330
1D682
100
AcDbEntity
  8
DEFPOINTS
  6
ByBlock
 62
     0
 48
50.0
100
AcDbPoint
 10
5327.82958141818
 20
11573.73679736192
 30
0.0
  0
POINT
  5
1D70D
330
1D682
100
AcDbEntity
  8
DEFPOINTS
  6
ByBlock
 62
     0
 48
50.0
100
AcDbPoint
 10
3798.587517088188
 20
11573.73679736192
 30
0.0
  0
ENDBLK
  5
1D70E
330
1D682
100
AcDbEntity
  8
0
 48
50.0
100
AcDbBlockEnd
  0
BLOCK
  5
1D70F
330
1D68E
100
AcDbEntity
  8
0
 48
50.0
100
AcDbBlockBegin
  2
*D47
 70
     1
 10
0.0
 20
0.0
 30
0.0
  3
*D47
  1

  0
LINE
  5
1D710
330
1D68E
100
AcDbEntity
  8
0
  6
ByBlock
 62
     0
 48
50.0
100
AcDbLine
 10
5433.32958141818
 20
9430.736797361928
 30
0.0
 11
4036.549246176578
 21
9430.736797361928
 31
0.0
  0
LINE
  5
1D711
330
1D68E
100
AcDbEntity
  8
0
  6
ByBlock
 62
     0
 48
50.0
100
AcDbLine
 10
5397.82958141818
 20
11390.73679736192
 30
0.0
 11
4036.549246176579
 21
11390.73679736192
 31
0.0
  0
LINE
  5
1D712
330
1D68E
100
AcDbEntity
  8
0
  6
ByBlock
 62
     0
 48
50.0
100
AcDbLine
 10
4111.549246176578
 20
9430.736797361928
 30
0.0
 11
4111.549246176578
 21
11390.73679736192
 31
0.0
  0
INSERT
  5
1D713
330
1D68E
100
AcDbEntity
  8
0
  6
ByBlock
 62
     0
 48
50.0
100
AcDbBlockReference
  2
_DOTSMALL
 10
4111.549246176578
 20
9430.736797361928
 30
0.0
 41
125.0
 42
125.0
 43
125.0
 50
270.0
  0
INSERT
  5
1D714
330
1D68E
100
AcDbEntity
  8
0
  6
ByBlock
 62
     0
 48
50.0
100
AcDbBlockReference
  2
_DOTSMALL
 10
4111.549246176578
 20
11390.73679736192
 30
0.0
 41
125.0
 42
125.0
 43
125.0
 50
90.0
  0
MTEXT
  5
1D715
330
1D68E
100
AcDbEntity
  8
0
  6
ByBlock
 62
     7
 48
50.0
100
AcDbMText
 10
4011.549246176578
 20
10410.73679736192
 30
0.0
 40
150.0
 41
0.0
 71
     5
 72
     1
  1
\A1;内高 1960
  7
STYLE1
 11
0.0000000000000001
 21
1.0
 31
0.0
 73
     1
 44
1.0
  0
POINT
  5
1D716
330
1D68E
100
AcDbEntity
  8
DEFPOINTS
  6
ByBlock
 62
     0
 48
50.0
100
AcDbPoint
 10
5458.32958141818
 20
9430.736797361928
 30
0.0
  0
POINT
  5
1D717
330
1D68E
100
AcDbEntity
  8
DEFPOINTS
  6
ByBlock
 62
     0
 48
50.0
100
AcDbPoint
 10
5422.829581418181
 20
11390.73679736192
 30
0.0
  0
POINT
  5
1D718
330
1D68E
100
AcDbEntity
  8
DEFPOINTS
  6
ByBlock
 62
     0
 48
50.0
100
AcDbPoint
 10
4111.549246176578
 20
11390.73679736192
 30
0.0
  0
ENDBLK
  5
1D719
330
1D68E
100
AcDbEntity
  8
0
 48
50.0
100
AcDbBlockEnd
  0
BLOCK
  5
1D71A
330
1D69A
100
AcDbEntity
  8
0
 48
50.0
100
AcDbBlockBegin
  2
*D48
 70
     1
 10
0.0
 20
0.0
 30
0.0
  3
*D48
  1

  0
LINE
  5
1D71B
330
1D69A
100
AcDbEntity
  8
0
  6
ByBlock
 62
     0
 48
50.0
100
AcDbLine
 10
8017.829581418176
 20
11658.73679736192
 30
0.0
 11
8017.829581418176
 21
12402.01792807845
 31
0.0
  0
LINE
  5
1D71C
330
1D69A
100
AcDbEntity
  8
0
  6
ByBlock
 62
     0
 48
50.0
100
AcDbLine
 10
7882.829581418184
 20
11656.29728927304
 30
0.0
 11
7882.829581418184
 21
12402.01792807845
 31
0.0
  0
LINE
  5
1D71D
330
1D69A
100
AcDbEntity
  8
0
  6
ByBlock
 62
     0
 48
50.0
100
AcDbLine
 10
7882.829581418184
 20
12327.01792807845
 30
0.0
 11
8017.829581418176
 21
12327.01792807845
 31
0.0
  0
LINE
  5
1D71E
330
1D69A
100
AcDbEntity
  8
0
  6
ByBlock
 62
     0
 48
50.0
100
AcDbLine
 10
8017.829581418176
 20
12327.01792807845
 30
0.0
 11
8448.495238254098
 21
12327.01792807845
 31
0.0
  0
INSERT
  5
1D71F
330
1D69A
100
AcDbEntity
  8
0
  6
ByBlock
 62
     0
 48
50.0
100
AcDbBlockReference
  2
_DOTSMALL
 10
7882.829581418184
 20
12327.01792807845
 30
0.0
 41
125.0
 42
125.0
 43
125.0
 50
180.0
  0
INSERT
  5
1D720
330
1D69A
100
AcDbEntity
  8
0
  6
ByBlock
 62
     0
 48
50.0
100
AcDbBlockReference
  2
_DOTSMALL
 10
8017.829581418176
 20
12327.01792807845
 30
0.0
 41
125.0
 42
125.0
 43
125.0
  0
MTEXT
  5
1D721
330
1D69A
100
AcDbEntity
  8
0
  6
ByBlock
 62
     7
 48
50.0
100
AcDbMText
 10
8300.3886365363
 20
12427.01792807845
 30
0.0
 40
150.0
 41
0.0
 71
     5
 72
     1
  1
\A1;135
  7
STYLE1
 73
     1
 44
1.0
  0
POINT
  5
1D722
330
1D69A
100
AcDbEntity
  8
DEFPOINTS
  6
ByBlock
 62
     0
 48
50.0
100
AcDbPoint
 10
8017.829581418176
 20
11633.73679736192
 30
0.0
  0
POINT
  5
1D723
330
1D69A
100
AcDbEntity
  8
DEFPOINTS
  6
ByBlock
 62
     0
 48
50.0
100
AcDbPoint
 10
7882.829581418184
 20
11631.29728927304
 30
0.0
  0
POINT
  5
1D724
330
1D69A
100
AcDbEntity
  8
DEFPOINTS
  6
ByBlock
 62
     0
 48
50.0
100
AcDbPoint
 10
7882.829581418184
 20
12327.01792807845
 30
0.0
  0
ENDBLK
  5
1D725
330
1D69A
100
AcDbEntity
  8
0
 48
50.0
100
AcDbBlockEnd
  0
BLOCK
  5
1D726
330
1D6A7
100
AcDbEntity
  8
0
 48
50.0
100
AcDbBlockBegin
  2
*D49
 70
     1
 10
0.0
 20
0.0
 30
0.0
  3
*D49
  1

  0
LINE
  5
1D727
330
1D6A7
100
AcDbEntity
  8
0
  6
ByBlock
 62
     0
 48
50.0
100
AcDbLine
 10
8042.829581418184
 20
11633.73679736192
 30
0.0
 11
9842.490021403357
 21
11633.73679736192
 31
0.0
  0
LINE
  5
1D728
330
1D6A7
100
AcDbEntity
  8
0
  6
ByBlock
 62
     0
 48
50.0
100
AcDbLine
 10
7907.829581418177
 20
9363.736797361928
 30
0.0
 11
9842.490021403357
 21
9363.736797361928
 31
0.0
  0
LINE
  5
1D729
330
1D6A7
100
AcDbEntity
  8
0
  6
ByBlock
 62
     0
 48
50.0
100
AcDbLine
 10
9767.490021403355
 20
11633.73679736192
 30
0.0
 11
9767.490021403355
 21
9363.736797361928
 31
0.0
  0
INSERT
  5
1D72A
330
1D6A7
100
AcDbEntity
  8
0
  6
ByBlock
 62
     0
 48
50.0
100
AcDbBlockReference
  2
_DOTSMALL
 10
9767.490021403355
 20
11633.73679736192
 30
0.0
 41
125.0
 42
125.0
 43
125.0
 50
90.0
  0
INSERT
  5
1D72B
330
1D6A7
100
AcDbEntity
  8
0
  6
ByBlock
 62
     0
 48
50.0
100
AcDbBlockReference
  2
_DOTSMALL
 10
9767.490021403355
 20
9363.736797361928
 30
0.0
 41
125.0
 42
125.0
 43
125.0
 50
270.0
  0
MTEXT
  5
1D72C
330
1D6A7
100
AcDbEntity
  8
0
  6
ByBlock
 62
     7
 48
50.0
100
AcDbMText
 10
9667.475257623827
 20
10498.73679736192
 30
0.0
 40
150.0
 41
0.0
 71
     5
 72
     1
  1
\A1;2270
  7
STYLE1
 11
0.0000000000000001
 21
1.0
 31
0.0
 73
     1
 44
1.0
  0
POINT
  5
1D72D
330
1D6A7
100
AcDbEntity
  8
DEFPOINTS
  6
ByBlock
 62
     0
 48
50.0
100
AcDbPoint
 10
8017.829581418183
 20
11633.73679736192
 30
0.0
  0
POINT
  5
1D72E
330
1D6A7
100
AcDbEntity
  8
DEFPOINTS
  6
ByBlock
 62
     0
 48
50.0
100
AcDbPoint
 10
7882.829581418177
 20
9363.736797361928
 30
0.0
  0
POINT
  5
1D72F
330
1D6A7
100
AcDbEntity
  8
DEFPOINTS
  6
ByBlock
 62
     0
 48
50.0
100
AcDbPoint
 10
9767.490021403355
 20
9363.736797361928
 30
0.0
  0
ENDBLK
  5
1D730
330
1D6A7
100
AcDbEntity
  8
0
 48
50.0
100
AcDbBlockEnd
  0
BLOCK
  5
1D731
330
1D6B3
100
AcDbEntity
  8
0
 48
50.0
100
AcDbBlockBegin
  2
*D50
 70
     1
 10
0.0
 20
0.0
 30
0.0
  3
*D50
  1

  0
LINE
  5
1D7E0
330
1D6B3
100
AcDbEntity
  8
寸法
 62
     0
 48
50.0
100
AcDbLine
 10
7907.82958141817
 20
11218.73679736192
 30
0.0
 11
9176.033355093794
 21
11218.73679736192
 31
0.0
  0
LINE
  5
1D7E1
330
1D6B3
100
AcDbEntity
  8
寸法
 62
     0
 48
50.0
100
AcDbLine
 10
9101.033355093795
 20
10148.73679736192
 30
0.0
 11
9101.033355093795
 21
11218.73679736192
 31
0.0
  0
INSERT
  5
1D7E2
330
1D6B3
100
AcDbEntity
  8
寸法
 62
     0
 48
50.0
100
AcDbBlockReference
  2
_DOTSMALL
 10
9101.033355093795
 20
10148.73679736192
 30
0.0
 41
125.0
 42
125.0
 43
125.0
 50
270.0
  0
INSERT
  5
1D7E3
330
1D6B3
100
AcDbEntity
  8
寸法
 62
     0
 48
50.0
100
AcDbBlockReference
  2
_DOTSMALL
 10
9101.033355093795
 20
11218.73679736192
 30
0.0
 41
125.0
 42
125.0
 43
125.0
 50
90.0
  0
MTEXT
  5
1D7E4
330
1D6B3
100
AcDbEntity
  8
寸法
 62
     7
 48
50.0
100
AcDbMText
 10
9001.033355093793
 20
10683.73679736192
 30
0.0
 40
150.0
 41
0.0
 71
     5
 72
     1
  1
\A1;1070
  7
STYLE1
 11
0.0000000000000001
 21
1.0
 31
0.0
 73
     1
 44
1.0
  0
POINT
  5
1D7E5
330
1D6B3
100
AcDbEntity
  8
DEFPOINTS
 62
     0
 48
50.0
100
AcDbPoint
 10
7882.829581418177
 20
10148.73679736192
 30
0.0
  0
POINT
  5
1D7E6
330
1D6B3
100
AcDbEntity
  8
DEFPOINTS
 62
     0
 48
50.0
100
AcDbPoint
 10
7882.82958141817
 20
11218.73679736192
 30
0.0
  0
POINT
  5
1D7E7
330
1D6B3
100
AcDbEntity
  8
DEFPOINTS
 62
     0
 48
50.0
100
AcDbPoint
 10
9101.033355093795
 20
11218.73679736192
 30
0.0
  0
ENDBLK
  5
1D73A
330
1D6B3
100
AcDbEntity
  8
0
 48
50.0
100
AcDbBlockEnd
  0
BLOCK
  5
1D73B
330
1D6BE
100
AcDbEntity
  8
0
 48
50.0
100
AcDbBlockBegin
  2
*D51
 70
     1
 10
0.0
 20
0.0
 30
0.0
  3
*D51
  1

  0
LINE
  5
1D73C
330
1D6BE
100
AcDbEntity
  8
0
  6
ByBlock
 62
     0
 48
50.0
100
AcDbLine
 10
7907.829581418177
 20
11363.73679736192
 30
0.0
 11
9508.235356238897
 21
11363.73679736192
 31
0.0
  0
LINE
  5
1D73D
330
1D6BE
100
AcDbEntity
  8
0
  6
ByBlock
 62
     0
 48
50.0
100
AcDbLine
 10
9126.033355093793
 20
9418.736797361928
 30
0.0
 11
9508.235356238897
 21
9418.736797361928
 31
0.0
  0
LINE
  5
1D73E
330
1D6BE
100
AcDbEntity
  8
0
  6
ByBlock
 62
     0
 48
50.0
100
AcDbLine
 10
9433.235356238895
 20
11363.73679736192
 30
0.0
 11
9433.235356238895
 21
9418.736797361928
 31
0.0
  0
INSERT
  5
1D73F
330
1D6BE
100
AcDbEntity
  8
0
  6
ByBlock
 62
     0
 48
50.0
100
AcDbBlockReference
  2
_DOTSMALL
 10
9433.235356238895
 20
11363.73679736192
 30
0.0
 41
125.0
 42
125.0
 43
125.0
 50
90.0
  0
INSERT
  5
1D740
330
1D6BE
100
AcDbEntity
  8
0
  6
ByBlock
 62
     0
 48
50.0
100
AcDbBlockReference
  2
_DOTSMALL
 10
9433.235356238895
 20
9418.736797361928
 30
0.0
 41
125.0
 42
125.0
 43
125.0
 50
270.0
  0
MTEXT
  5
1D741
330
1D6BE
100
AcDbEntity
  8
0
  6
ByBlock
 62
     7
 48
50.0
100
AcDbMText
 10
9333.235356238896
 20
10391.23679736192
 30
0.0
 40
150.0
 41
0.0
 71
     5
 72
     1
  1
\A1;1945
  7
STYLE1
 11
0.0000000000000001
 21
1.0
 31
0.0
 73
     1
 44
1.0
  0
POINT
  5
1D742
330
1D6BE
100
AcDbEntity
  8
DEFPOINTS
  6
ByBlock
 62
     0
 48
50.0
100
AcDbPoint
 10
7882.829581418177
 20
11363.73679736192
 30
0.0
  0
POINT
  5
1D743
330
1D6BE
100
AcDbEntity
  8
DEFPOINTS
  6
ByBlock
 62
     0
 48
50.0
100
AcDbPoint
 10
9101.033355093795
 20
9418.736797361928
 30
0.0
  0
POINT
  5
1D744
330
1D6BE
100
AcDbEntity
  8
DEFPOINTS
  6
ByBlock
 62
     0
 48
50.0
100
AcDbPoint
 10
9433.235356238895
 20
9418.736797361928
 30
0.0
  0
ENDBLK
  5
1D745
330
1D6BE
100
AcDbEntity
  8
0
 48
50.0
100
AcDbBlockEnd
  0
BLOCK
  5
1D746
330
1D6CA
100
AcDbEntity
  8
0
 48
50.0
100
AcDbBlockBegin
  2
*D52
 70
     1
 10
0.0
 20
0.0
 30
0.0
  3
*D52
  1

  0
LINE
  5
1D747
330
1D6CA
100
AcDbEntity
  8
0
  6
ByBlock
 62
     0
 48
50.0
100
AcDbLine
 10
9126.033355093793
 20
9418.736797361928
 30
0.0
 11
9508.235356238897
 21
9418.736797361928
 31
0.0
  0
LINE
  5
1D748
330
1D6CA
100
AcDbEntity
  8
0
  6
ByBlock
 62
     0
 48
50.0
100
AcDbLine
 10
7907.829581418177
 20
9363.736797361928
 30
0.0
 11
9508.235356238897
 21
9363.736797361928
 31
0.0
  0
LINE
  5
1D749
330
1D6CA
100
AcDbEntity
  8
0
  6
ByBlock
 62
     0
 48
50.0
100
AcDbLine
 10
9433.235356238895
 20
9418.736797361928
 30
0.0
 11
9433.235356238895
 21
9363.736797361928
 31
0.0
  0
LINE
  5
1D74A
330
1D6CA
100
AcDbEntity
  8
0
  6
ByBlock
 62
     0
 48
50.0
100
AcDbLine
 10
9433.235356238895
 20
9363.736797361928
 30
0.0
 11
9433.235356238895
 21
8998.065646709887
 31
0.0
  0
INSERT
  5
1D74B
330
1D6CA
100
AcDbEntity
  8
0
  6
ByBlock
 62
     0
 48
50.0
100
AcDbBlockReference
  2
_DOTSMALL
 10
9433.235356238895
 20
9418.736797361928
 30
0.0
 41
125.0
 42
125.0
 43
125.0
 50
90.0
  0
INSERT
  5
1D74C
330
1D6CA
100
AcDbEntity
  8
0
  6
ByBlock
 62
     0
 48
50.0
100
AcDbBlockReference
  2
_DOTSMALL
 10
9433.235356238895
 20
9363.736797361928
 30
0.0
 41
125.0
 42
125.0
 43
125.0
 50
270.0
  0
MTEXT
  5
1D74D
330
1D6CA
100
AcDbEntity
  8
0
  6
ByBlock
 62
     7
 48
50.0
100
AcDbMText
 10
9333.235356238896
 20
9108.672248427685
 30
0.0
 40
150.0
 41
0.0
 71
     5
 72
     1
  1
\A1;55
  7
STYLE1
 11
0.0000000000000001
 21
1.0
 31
0.0
 73
     1
 44
1.0
  0
POINT
  5
1D74E
330
1D6CA
100
AcDbEntity
  8
DEFPOINTS
  6
ByBlock
 62
     0
 48
50.0
100
AcDbPoint
 10
9101.033355093795
 20
9418.736797361928
 30
0.0
  0
POINT
  5
1D74F
330
1D6CA
100
AcDbEntity
  8
DEFPOINTS
  6
ByBlock
 62
     0
 48
50.0
100
AcDbPoint
 10
7882.829581418177
 20
9363.736797361928
 30
0.0
  0
POINT
  5
1D750
330
1D6CA
100
AcDbEntity
  8
DEFPOINTS
  6
ByBlock
 62
     0
 48
50.0
100
AcDbPoint
 10
9433.235356238895
 20
9363.736797361928
 30
0.0
  0
ENDBLK
  5
1D751
330
1D6CA
100
AcDbEntity
  8
0
 48
50.0
100
AcDbBlockEnd
  0
BLOCK
  5
1D752
330
1D6D7
100
AcDbEntity
  8
0
 48
50.0
100
AcDbBlockBegin
  2
*D53
 70
     1
 10
0.0
 20
0.0
 30
0.0
  3
*D53
  1

  0
LINE
  5
1D753
330
1D6D7
100
AcDbEntity
  8
0
  6
ByBlock
 62
     0
 48
50.0
100
AcDbLine
 10
7907.829581418177
 20
9363.736797361928
 30
0.0
 11
9176.033355093794
 21
9363.736797361928
 31
0.0
  0
LINE
  5
1D754
330
1D6D7
100
AcDbEntity
  8
0
  6
ByBlock
 62
     0
 48
50.0
100
AcDbLine
 10
7907.829581418177
 20
10148.73679736192
 30
0.0
 11
9176.033355093794
 21
10148.73679736192
 31
0.0
  0
LINE
  5
1D755
330
1D6D7
100
AcDbEntity
  8
0
  6
ByBlock
 62
     0
 48
50.0
100
AcDbLine
 10
9101.033355093795
 20
9363.736797361928
 30
0.0
 11
9101.033355093795
 21
10148.73679736192
 31
0.0
  0
INSERT
  5
1D756
330
1D6D7
100
AcDbEntity
  8
0
  6
ByBlock
 62
     0
 48
50.0
100
AcDbBlockReference
  2
_DOTSMALL
 10
9101.033355093795
 20
9363.736797361928
 30
0.0
 41
125.0
 42
125.0
 43
125.0
 50
270.0
  0
INSERT
  5
1D757
330
1D6D7
100
AcDbEntity
  8
0
  6
ByBlock
 62
     0
 48
50.0
100
AcDbBlockReference
  2
_DOTSMALL
 10
9101.033355093795
 20
10148.73679736192
 30
0.0
 41
125.0
 42
125.0
 43
125.0
 50
90.0
  0
MTEXT
  5
1D758
330
1D6D7
100
AcDbEntity
  8
0
  6
ByBlock
 62
     7
 48
50.0
100
AcDbMText
 10
9001.033355093793
 20
9756.236797361928
 30
0.0
 40
150.0
 41
0.0
 71
     5
 72
     1
  1
\A1;785
  7
STYLE1
 11
0.0000000000000001
 21
1.0
 31
0.0
 73
     1
 44
1.0
  0
POINT
  5
1D759
330
1D6D7
100
AcDbEntity
  8
DEFPOINTS
  6
ByBlock
 62
     0
 48
50.0
100
AcDbPoint
 10
7882.829581418177
 20
9363.736797361928
 30
0.0
  0
POINT
  5
1D75A
330
1D6D7
100
AcDbEntity
  8
DEFPOINTS
  6
ByBlock
 62
     0
 48
50.0
100
AcDbPoint
 10
7882.829581418177
 20
10148.73679736192
 30
0.0
  0
POINT
  5
1D75B
330
1D6D7
100
AcDbEntity
  8
DEFPOINTS
  6
ByBlock
 62
     0
 48
50.0
100
AcDbPoint
 10
9101.033355093795
 20
10148.73679736192
 30
0.0
  0
ENDBLK
  5
1D75C
330
1D6D7
100
AcDbEntity
  8
0
 48
50.0
100
AcDbBlockEnd
  0
ENDSEC
  0
SECTION
  2
ENTITIES
  0
LINE
  5
10B56
330
747D
100
AcDbEntity
  8
補助
  6
PHANTOM
 62
   230
 48
50.0
100
AcDbLine
 10
175.0
 20
0.0
 30
0.0
 11
174.9999999999993
 21
14262.0
 31
0.0
  0
LINE
  5
10B57
330
747D
100
AcDbEntity
  8
補助
  6
PHANTOM
 62
   230
 48
50.0
100
AcDbLine
 10
174.9999999999993
 20
14262.0
 30
0.0
 11
20384.0
 21
14262.0
 31
0.0
  0
LINE
  5
10B59
330
747D
100
AcDbEntity
  8
仕様書枠
  6
Continuous
 48
50.0
100
AcDbLine
 10
16384.0
 20
1500.0
 30
0.0
 11
16384.0
 21
0.0
 31
0.0
  0
LINE
  5
10B5C
330
747D
100
AcDbEntity
  8
仕様書枠
 48
50.0
100
AcDbLine
 10
20384.0
 20
1500.0
 30
0.0
 11
20384.0
 21
0.0
 31
0.0
  0
LINE
  5
10B5D
330
747D
100
AcDbEntity
  8
仕様書枠
 48
50.0
100
AcDbLine
 10
175.0
 20
0.0
 30
0.0
 11
20384.0
 21
-0.0000000000001137
 31
0.0
  0
LINE
  5
10B5E
330
747D
100
AcDbEntity
  8
補助
  6
PHANTOM
 62
   230
 48
50.0
100
AcDbLine
 10
20384.0
 20
14262.0
 30
0.0
 11
20384.0
 21
1500.0
 31
0.0
  0
LINE
  5
10B6C
330
747D
100
AcDbEntity
  8
仕様書枠
 48
50.0
100
AcDbLine
 10
16384.0
 20
1500.0
 30
0.0
 11
20384.0
 21
1500.0
 31
0.0
  0
LINE
  5
10B6D
330
747D
100
AcDbEntity
  8
補助
  6
PHANTOM
 62
   230
 48
50.0
100
AcDbLine
 10
16384.0
 20
14262.0
 30
0.0
 11
16384.0
 21
6000.0
 31
0.0
  0
LINE
  5
10B6F
330
747D
100
AcDbEntity
  8
補助
  6
PHANTOM
 62
   230
 48
50.0
100
AcDbLine
 10
16384.0
 20
6000.0
 30
0.0
 11
20384.0
 21
6000.0
 31
0.0
  0
LINE
  5
10B72
330
747D
100
AcDbEntity
  8
文字
 62
     7
 48
50.0
100
AcDbLine
 10
16484.0
 20
500.0
 30
0.0
 11
20284.0
 21
500.0
 31
0.0
  0
TEXT
  5
10B73
330
747D
100
AcDbEntity
  8
文字
 62
     7
 48
50.0
100
AcDbText
 10
16453.72382072112
 20
1118.863259287425
 30
0.0
 40
250.0
  1
外 形 図
  7
STYLE2
100
AcDbText
  0
TEXT
  5
10B74
330
747D
100
AcDbEntity
  8
文字
 62
     7
 48
50.0
100
AcDbText
 10
16501.79587498051
 20
596.5925826289068
 30
0.0
 40
200.0
  1
機種名
  7
STYLE2
100
AcDbText
  0
LINE
  5
10B7B
330
747D
100
AcDbEntity
  8
仕様書枠
 48
50.0
100
AcDbLine
 10
16384.0
 20
1000.0
 30
0.0
 11
17814.0
 21
1000.0
 31
0.0
  0
LINE
  5
10B88
330
747D
100
AcDbEntity
  8
仕様書枠
  6
Continuous
 48
50.0
100
AcDbLine
 10
17814.0
 20
1500.0
 30
0.0
 11
17814.0
 21
1000.0
 31
0.0
  0
LINE
  5
15D7D
330
747D
100
AcDbEntity
  8
Ｇ．Ｌ
 48
50.0
100
AcDbLine
 10
3944.693732604355
 20
3140.0
 30
0.0
 11
15814.30626739564
 21
3140.0
 31
0.0
  0
TEXT
  5
16C68
330
747D
100
AcDbEntity
  8
仕様書枠
 62
     7
 48
50.0
100
AcDbText
 10
3953.500522708389
 20
3170.736447636176
 30
0.0
 40
125.0
  1
▽G.L
  7
STYLE2
100
AcDbText
  0
TEXT
  5
16C77
330
747D
100
AcDbEntity
  8
部品1
100
AcDbText
 10
12807.38484963756
 20
7394.201107851215
 30
0.0
 40
225.0
  1
平面図
  7
STYLE2
100
AcDbText
  0
TEXT
  5
16C79
330
747D
100
AcDbEntity
  8
部品1
100
AcDbText
 10
12822.19045620709
 20
2217.627147812621
 30
0.0
 40
225.0
  1
正面図
  7
STYLE2
100
AcDbText
  0
LINE
  5
17269
330
747D
100
AcDbEntity
  8
部品1
100
AcDbLine
 10
12666.6040262278
 20
7709.831477053234
 30
0.0
 11
12666.6040262278
 21
7310.010941144013
 31
0.0
  0
LINE
  5
1726A
330
747D
100
AcDbEntity
  8
部品1
100
AcDbLine
 10
12666.6040262278
 20
7310.010941144013
 30
0.0
 11
13939.05513660853
 21
7310.010941144013
 31
0.0
  0
LINE
  5
1726B
330
747D
100
AcDbEntity
  8
部品1
100
AcDbLine
 10
13939.05513660853
 20
7310.010941144013
 30
0.0
 11
13939.05513660853
 21
7709.831477053234
 31
0.0
  0
LINE
  5
1726C
330
747D
100
AcDbEntity
  8
部品1
100
AcDbLine
 10
13939.05513660853
 20
7709.831477053234
 30
0.0
 11
12666.6040262278
 21
7709.831477053234
 31
0.0
  0
LINE
  5
1726E
330
747D
100
AcDbEntity
  8
部品1
100
AcDbLine
 10
12666.6040262278
 20
2526.882077830512
 30
0.0
 11
12666.6040262278
 21
2127.061541921292
 31
0.0
  0
LINE
  5
1726F
330
747D
100
AcDbEntity
  8
部品1
100
AcDbLine
 10
12666.6040262278
 20
2127.061541921292
 30
0.0
 11
13939.05513660853
 21
2127.061541921292
 31
0.0
  0
LINE
  5
17270
330
747D
100
AcDbEntity
  8
部品1
100
AcDbLine
 10
13939.05513660853
 20
2127.061541921292
 30
0.0
 11
13939.05513660853
 21
2526.882077830512
 31
0.0
  0
LINE
  5
17271
330
747D
100
AcDbEntity
  8
部品1
100
AcDbLine
 10
13939.05513660853
 20
2526.882077830512
 30
0.0
 11
12666.6040262278
 21
2526.882077830512
 31
0.0
  0
LINE
  5
1837B
330
747D
100
AcDbEntity
  8
部品1
 48
50.0
100
AcDbLine
 10
12072.82958141816
 20
11678.73679736193
 30
0.0
 11
12072.82958141816
 21
11254.73679736192
 31
0.0
  0
LINE
  5
1837C
330
747D
100
AcDbEntity
  8
部品1
 48
50.0
100
AcDbLine
 10
12082.82958141817
 20
9228.736797361928
 30
0.0
 11
12142.82958141817
 21
9228.736797361909
 31
0.0
  0
LINE
  5
1837D
330
747D
100
AcDbEntity
  8
部品1
 48
50.0
100
AcDbLine
 10
14532.82958141817
 20
9238.736797361928
 30
0.0
 11
14532.82958141817
 21
11678.73679736193
 31
0.0
  0
LINE
  5
1837E
330
747D
100
AcDbEntity
  8
部品1
 48
50.0
100
AcDbLine
 10
14522.82958141817
 20
11688.73679736192
 30
0.0
 11
12082.82958141817
 21
11688.73679736192
 31
0.0
  0
ARC
  5
1837F
330
747D
100
AcDbEntity
  8
部品1
 48
50.0
100
AcDbCircle
 10
14522.82958141817
 20
11678.73679736193
 30
0.0
 40
10.0
100
AcDbArc
 50
0.0
 51
90.0
  0
ARC
  5
18380
330
747D
100
AcDbEntity
  8
部品1
 48
50.0
100
AcDbCircle
 10
14522.82958141817
 20
9238.736797361928
 30
0.0
 40
10.0
100
AcDbArc
 50
270.0
 51
0.0
  0
ARC
  5
18381
330
747D
100
AcDbEntity
  8
部品1
 48
50.0
100
AcDbCircle
 10
12082.82958141817
 20
9238.736797361928
 30
0.0
 40
10.0
100
AcDbArc
 50
180.0
 51
270.0
  0
ARC
  5
18382
330
747D
100
AcDbEntity
  8
部品1
 48
50.0
100
AcDbCircle
 10
12082.82958141817
 20
11678.73679736193
 30
0.0
 40
10.0
100
AcDbArc
 50
90.0
 51
180.0
  0
LINE
  5
18383
330
747D
100
AcDbEntity
  8
部品1
 48
50.0
100
AcDbLine
 10
14482.82958141817
 20
11638.73679736193
 30
0.0
 11
12122.82958141817
 21
11638.73679736193
 31
0.0
  0
LINE
  5
18384
330
747D
100
AcDbEntity
  8
部品1
 48
50.0
100
AcDbLine
 10
12122.82958141817
 20
11638.73679736193
 30
0.0
 11
12122.82958141815
 21
11230.73679736192
 31
0.0
  0
LINE
  5
18385
330
747D
100
AcDbEntity
  8
部品1
 48
50.0
100
AcDbLine
 10
12122.82958141816
 20
9278.736797361927
 30
0.0
 11
12160.82958141816
 21
9278.736797361927
 31
0.0
  0
LINE
  5
18386
330
747D
100
AcDbEntity
  8
部品1
 48
50.0
100
AcDbLine
 10
14482.82958141817
 20
9278.736797361927
 30
0.0
 11
14482.82958141817
 21
11638.73679736193
 31
0.0
  0
LINE
  5
18387
330
747D
100
AcDbEntity
  8
部品1
 48
50.0
100
AcDbLine
 10
14497.82958141817
 20
11653.73679736192
 30
0.0
 11
12107.82958141817
 21
11653.73679736192
 31
0.0
  0
LINE
  5
18388
330
747D
100
AcDbEntity
  8
部品1
 48
50.0
100
AcDbLine
 10
12107.82958141817
 20
9263.736797361927
 30
0.0
 11
12160.82958141816
 21
9263.736797361927
 31
0.0
  0
LINE
  5
18389
330
747D
100
AcDbEntity
  8
部品1
 48
50.0
100
AcDbLine
 10
12107.82958141817
 20
11653.73679736192
 30
0.0
 11
12107.82958141817
 21
11230.73679736192
 31
0.0
  0
LINE
  5
1838A
330
747D
100
AcDbEntity
  8
部品1
 48
50.0
100
AcDbLine
 10
14497.82958141817
 20
9263.736797361927
 30
0.0
 11
14497.82958141817
 21
11653.73679736193
 31
0.0
  0
LINE
  5
1838B
330
747D
100
AcDbEntity
  8
部品1
 48
50.0
100
AcDbLine
 10
14462.82958141817
 20
11653.73679736192
 30
0.0
 11
14462.82958141817
 21
11688.73679736193
 31
0.0
  0
LINE
  5
1838C
330
747D
100
AcDbEntity
  8
部品1
 48
50.0
100
AcDbLine
 10
14532.82958141817
 20
11618.73679736193
 30
0.0
 11
14497.82958141817
 21
11618.73679736193
 31
0.0
  0
LINE
  5
1838D
330
747D
100
AcDbEntity
  8
部品1
 48
50.0
100
AcDbLine
 10
14444.82958141817
 20
11653.73679736192
 30
0.0
 11
14444.82958141817
 21
11638.73679736193
 31
0.0
  0
LINE
  5
1838E
330
747D
100
AcDbEntity
  8
部品1
 48
50.0
100
AcDbLine
 10
14480.82958141817
 20
11653.73679736192
 30
0.0
 11
14480.82958141817
 21
11638.73679736193
 31
0.0
  0
LINE
  5
1838F
330
747D
100
AcDbEntity
  8
部品1
 48
50.0
100
AcDbLine
 10
14497.82958141817
 20
11600.73679736192
 30
0.0
 11
14482.82958141817
 21
11600.73679736192
 31
0.0
  0
LINE
  5
18390
330
747D
100
AcDbEntity
  8
部品1
 48
50.0
100
AcDbLine
 10
14497.82958141817
 20
11636.73679736192
 30
0.0
 11
14482.82958141817
 21
11636.73679736192
 31
0.0
  0
LINE
  5
18397
330
747D
100
AcDbEntity
  8
部品1
 48
50.0
100
AcDbLine
 10
14532.82958141817
 20
11038.73679736193
 30
0.0
 11
14497.82958141817
 21
11038.73679736192
 31
0.0
  0
LINE
  5
18398
330
747D
100
AcDbEntity
  8
部品1
 48
50.0
100
AcDbLine
 10
14497.82958141817
 20
11020.73679736192
 30
0.0
 11
14482.82958141817
 21
11020.73679736192
 31
0.0
  0
LINE
  5
18399
330
747D
100
AcDbEntity
  8
部品1
 48
50.0
100
AcDbLine
 10
14497.82958141817
 20
11056.73679736192
 30
0.0
 11
14482.82958141817
 21
11056.73679736192
 31
0.0
  0
LINE
  5
1839D
330
747D
100
AcDbEntity
  8
部品1
 48
50.0
100
AcDbLine
 10
14497.82958141817
 20
9316.736797361926
 30
0.0
 11
14482.82958141817
 21
9316.736797361926
 31
0.0
  0
LINE
  5
1839E
330
747D
100
AcDbEntity
  8
部品1
 48
50.0
100
AcDbLine
 10
14497.82958141817
 20
9280.736797361926
 30
0.0
 11
14482.82958141817
 21
9280.736797361926
 31
0.0
  0
LINE
  5
1839F
330
747D
100
AcDbEntity
  8
部品1
 48
50.0
100
AcDbLine
 10
14532.82958141817
 20
9298.736797361931
 30
0.0
 11
14497.82958141817
 21
9298.736797361931
 31
0.0
  0
LINE
  5
183AF
330
747D
100
AcDbEntity
  8
部品1
 48
50.0
100
AcDbLine
 10
13900.82958141816
 20
11653.73679736223
 30
0.0
 11
13900.82958141816
 21
11638.73679736223
 31
0.0
  0
LINE
  5
183B0
330
747D
100
AcDbEntity
  8
部品1
 48
50.0
100
AcDbLine
 10
13882.82958141816
 20
11653.73679736223
 30
0.0
 11
13882.82958141817
 21
11688.73679736223
 31
0.0
  0
LINE
  5
183B1
330
747D
100
AcDbEntity
  8
部品1
 48
50.0
100
AcDbLine
 10
13864.82958141816
 20
11653.73679736223
 30
0.0
 11
13864.82958141816
 21
11638.73679736223
 31
0.0
  0
LINE
  5
183B2
330
747D
100
AcDbEntity
  8
部品1
 48
50.0
100
AcDbLine
 10
13320.82958141816
 20
11653.73679736229
 30
0.0
 11
13320.82958141816
 21
11638.73679736229
 31
0.0
  0
LINE
  5
183B3
330
747D
100
AcDbEntity
  8
部品1
 48
50.0
100
AcDbLine
 10
13302.82958141816
 20
11653.73679736229
 30
0.0
 11
13302.82958141817
 21
11688.73679736229
 31
0.0
  0
LINE
  5
183B4
330
747D
100
AcDbEntity
  8
部品1
 48
50.0
100
AcDbLine
 10
13284.82958141816
 20
11653.73679736229
 30
0.0
 11
13284.82958141816
 21
11638.73679736229
 31
0.0
  0
LINE
  5
183B5
330
747D
100
AcDbEntity
  8
部品1
 48
50.0
100
AcDbLine
 10
12160.82958141816
 20
11653.73679736192
 30
0.0
 11
12160.82958141816
 21
11638.73679736192
 31
0.0
  0
LINE
  5
183B6
330
747D
100
AcDbEntity
  8
部品1
 48
50.0
100
AcDbLine
 10
12142.82958141816
 20
11653.73679736192
 30
0.0
 11
12142.82958141817
 21
11688.73679736192
 31
0.0
  0
LINE
  5
183B7
330
747D
100
AcDbEntity
  8
部品1
 48
50.0
100
AcDbLine
 10
12124.82958141816
 20
11653.73679736192
 30
0.0
 11
12124.82958141816
 21
11638.73679736192
 31
0.0
  0
LINE
  5
183DD
330
747D
100
AcDbEntity
  8
部品1
 48
50.0
100
AcDbLine
 10
12107.82958141817
 20
11636.73679736192
 30
0.0
 11
12122.82958141817
 21
11636.73679736192
 31
0.0
  0
LINE
  5
183DE
330
747D
100
AcDbEntity
  8
部品1
 48
50.0
100
AcDbLine
 10
12107.82958141817
 20
11600.73679736192
 30
0.0
 11
12122.82958141817
 21
11600.73679736192
 31
0.0
  0
LINE
  5
183DF
330
747D
100
AcDbEntity
  8
部品1
 48
50.0
100
AcDbLine
 10
12072.82958141816
 20
11618.73679736193
 30
0.0
 11
12107.82958141817
 21
11618.73679736193
 31
0.0
  0
LINE
  5
183E0
330
747D
100
AcDbEntity
  8
部品1
 48
50.0
100
AcDbLine
 10
12072.82958141817
 20
9298.736797361931
 30
0.0
 11
12107.82958141817
 21
9298.736797361931
 31
0.0
  0
LINE
  5
183E1
330
747D
100
AcDbEntity
  8
部品1
 48
50.0
100
AcDbLine
 10
12107.82958141817
 20
9280.736797361926
 30
0.0
 11
12122.82958141817
 21
9280.736797361926
 31
0.0
  0
LINE
  5
183E2
330
747D
100
AcDbEntity
  8
部品1
 48
50.0
100
AcDbLine
 10
12107.82958141817
 20
9316.736797361926
 30
0.0
 11
12122.82958141817
 21
9316.736797361926
 31
0.0
  0
LINE
  5
183E3
330
747D
100
AcDbEntity
  8
部品1
 48
50.0
100
AcDbLine
 10
12124.82958141816
 20
9263.736797361932
 30
0.0
 11
12124.82958141816
 21
9278.736797361931
 31
0.0
  0
LINE
  5
183E4
330
747D
100
AcDbEntity
  8
部品1
 48
50.0
100
AcDbLine
 10
12160.82958141816
 20
9263.736797361932
 30
0.0
 11
12160.82958141816
 21
9278.736797361931
 31
0.0
  0
LINE
  5
183E5
330
747D
100
AcDbEntity
  8
部品1
 48
50.0
100
AcDbLine
 10
12142.82958141816
 20
9263.736797361932
 30
0.0
 11
12142.82958141817
 21
9228.73679736193
 31
0.0
  0
LINE
  5
183FE
330
747D
100
AcDbEntity
  8
部品1
 48
50.0
100
AcDbLine
 10
14462.82958141817
 20
9263.736797361929
 30
0.0
 11
14462.82958141817
 21
9228.736797361928
 31
0.0
  0
LINE
  5
183FF
330
747D
100
AcDbEntity
  8
部品1
 48
50.0
100
AcDbLine
 10
14444.82958141817
 20
9263.736797361929
 30
0.0
 11
14444.82958141817
 21
9278.736797361929
 31
0.0
  0
LINE
  5
18400
330
747D
100
AcDbEntity
  8
部品1
 48
50.0
100
AcDbLine
 10
14480.82958141817
 20
9263.736797361929
 30
0.0
 11
14480.82958141817
 21
9278.736797361929
 31
0.0
  0
LINE
  5
18401
330
747D
100
AcDbEntity
  8
細線
 48
50.0
100
AcDbLine
 10
14473.82958141817
 20
11629.73679736192
 30
0.0
 11
14473.82958141817
 21
9278.736797361931
 31
0.0
  0
LINE
  5
18402
330
747D
100
AcDbEntity
  8
細線
 48
50.0
100
AcDbLine
 10
14482.82958141817
 20
11629.73679736192
 30
0.0
 11
12131.82958141817
 21
11629.73679736193
 31
0.0
  0
LINE
  5
18403
330
747D
100
AcDbEntity
  8
細線
 48
50.0
100
AcDbLine
 10
12122.82958141816
 20
9287.736797361928
 30
0.0
 11
12142.82958141817
 21
9287.736797361928
 31
0.0
  0
LINE
  5
18404
330
747D
100
AcDbEntity
  8
細線
 48
50.0
100
AcDbLine
 10
12131.82958141816
 20
10440.73679736192
 30
0.0
 11
12131.82958141816
 21
9287.736797361928
 31
0.0
  0
DIMENSION
  5
1852A
330
747D
100
AcDbEntity
  8
寸法
 48
50.0
100
AcDbDimension
  2
*D5
 10
15646.96933771975
 20
11638.73679736193
 30
0.0
 11
15546.95457394022
 21
10458.73679736193
 31
0.0
 70
    32
  1
内部寸法 <>
 71
     5
 42
-1.0
  3
INABA_S50G
100
AcDbAlignedDimension
 13
15344.16533380114
 23
9278.736797361931
 33
0.0
 14
15344.16533380114
 24
11638.73679736193
 34
0.0
 50
90.0
100
AcDbRotatedDimension
1001
ACAD
1000
DSTYLE
1002
{
1002
}
  0
DIMENSION
  5
1852B
330
747D
100
AcDbEntity
  8
寸法
 48
50.0
100
AcDbDimension
  2
*D2
 10
15344.16533380114
 20
11618.73679736193
 30
0.0
 11
15244.15057002161
 21
10458.73679736192
 31
0.0
 70
    32
  1
4x580=<>
 71
     5
 42
-1.0
  3
INABA_S50G
100
AcDbAlignedDimension
 13
14532.82958141817
 23
9298.736797361931
 33
0.0
 14
14532.82958141817
 24
11618.73679736193
 34
0.0
 50
90.0
100
AcDbRotatedDimension
1001
ACAD
1000
DSTYLE
1002
{
1002
}
  0
DIMENSION
  5
1852C
330
747D
100
AcDbEntity
  8
寸法
 48
50.0
100
AcDbDimension
  2
*D4
 10
15646.96933771975
 20
9278.736797361931
 30
0.0
 11
15646.96933771975
 21
8991.689553267439
 31
0.0
 12
6069.999999999998
 22
-0.0000000000436557
 32
0.0
 70
   160
 71
     5
 42
-1.0
  3
INABA_S50G
100
AcDbAlignedDimension
 13
14522.82958141817
 23
9228.736797361928
 33
0.0
 14
15344.16533380114
 24
9278.736797361931
 34
0.0
 50
90.0
100
AcDbRotatedDimension
  0
DIMENSION
  5
1852D
330
747D
100
AcDbEntity
  8
寸法
 48
50.0
100
AcDbDimension
  2
*D1
 10
15344.16533380114
 20
9298.736797361931
 30
0.0
 11
15344.16533380114
 21
8996.177742243817
 31
0.0
 12
-2174.632845073174
 22
-373.9447183321972
 32
0.0
 70
   160
 71
     5
 42
-1.0
  3
INABA_S50G
100
AcDbAlignedDimension
 13
14522.82958141817
 23
9228.736797361928
 33
0.0
 14
14532.82958141817
 24
9298.736797361931
 34
0.0
 50
90.0
100
AcDbRotatedDimension
  0
DIMENSION
  5
1852E
330
747D
100
AcDbEntity
  8
寸法
 48
50.0
100
AcDbDimension
  2
*D6
 10
15646.96933771975
 20
11688.73679736192
 30
0.0
 11
15646.96933771975
 21
12046.29585248004
 31
0.0
 12
6069.999999999998
 22
-580.0000000000436
 32
0.0
 70
   160
 71
     5
 42
-1.0
  3
INABA_S50G
100
AcDbAlignedDimension
 13
15344.16533380114
 23
11638.73679736193
 33
0.0
 14
14522.82958141817
 24
11688.73679736192
 34
0.0
 50
90.0
100
AcDbRotatedDimension
1001
ACAD
1000
DSTYLE
1002
{
1002
}
  0
DIMENSION
  5
1852F
330
747D
100
AcDbEntity
  8
寸法
 48
50.0
100
AcDbDimension
  2
*D3
 10
15344.16533380114
 20
11688.73679736192
 30
0.0
 11
15344.16533380114
 21
11921.29585248004
 31
0.0
 12
-2174.632845073174
 22
-953.9447183321971
 32
0.0
 70
   160
 71
     5
 42
-1.0
  3
INABA_S50G
100
AcDbAlignedDimension
 13
14532.82958141817
 23
11618.73679736193
 33
0.0
 14
14522.82958141817
 24
11688.73679736192
 34
0.0
 50
90.0
100
AcDbRotatedDimension
1001
ACAD
1000
DSTYLE
1002
{
1002
}
  0
DIMENSION
  5
185AD
330
747D
100
AcDbEntity
  8
寸法
 48
50.0
100
AcDbDimension
  2
*D10
 10
12122.82958141816
 20
12397.51516613334
 30
0.0
 11
11715.27052630005
 21
12397.51516613334
 31
0.0
 12
285.3671549268256
 22
-953.9447183321971
 32
0.0
 70
   160
 71
     5
 42
-1.0
  3
INABA_S50G
100
AcDbAlignedDimension
 13
12072.82958141816
 23
11678.73679736193
 33
0.0
 14
12122.82958141816
 24
12098.76878223257
 34
0.0
100
AcDbRotatedDimension
  0
DIMENSION
  5
185AE
330
747D
100
AcDbEntity
  8
寸法
 48
50.0
100
AcDbDimension
  2
*D7
 10
12142.82958141817
 20
12098.76878223257
 30
0.0
 11
11830.27052630005
 21
12098.76878223257
 31
0.0
 12
285.3671549268256
 22
-953.9447183321971
 32
0.0
 70
   160
 71
     5
 42
-1.0
  3
INABA_S50G
100
AcDbAlignedDimension
 13
12072.82958141816
 23
11678.73679736193
 33
0.0
 14
12142.82958141817
 24
11688.73679736192
 34
0.0
100
AcDbRotatedDimension
  0
DIMENSION
  5
185AF
330
747D
100
AcDbEntity
  8
寸法
 48
50.0
100
AcDbDimension
  2
*D11
 10
14482.82958141817
 20
12397.51516613334
 30
0.0
 11
13302.82958141817
 21
12497.52992991286
 31
0.0
 70
    32
  1
内部寸法 <>
 71
     5
 42
-1.0
  3
INABA_S50G
100
AcDbAlignedDimension
 13
12122.82958141816
 23
12098.76878223257
 33
0.0
 14
14482.82958141817
 24
12098.76878223258
 34
0.0
100
AcDbRotatedDimension
1001
ACAD
1000
DSTYLE
1002
{
1070
   287
1070
     4
1070
    75
1070
     1
1070
   279
1070
     1
1002
}
  0
DIMENSION
  5
185B1
330
747D
100
AcDbEntity
  8
寸法
 48
50.0
100
AcDbDimension
  2
*D8
 10
14462.82958141817
 20
12098.76878223257
 30
0.0
 11
13302.82958141817
 21
12198.7835460121
 31
0.0
 70
    32
  1
4x580=<>
 71
     5
 42
-1.0
  3
INABA_S50G
100
AcDbAlignedDimension
 13
12142.82958141817
 23
11688.73679736192
 33
0.0
 14
14462.82958141817
 24
11688.73679736193
 34
0.0
100
AcDbRotatedDimension
1001
ACAD
1000
DSTYLE
1002
{
1070
   287
1070
     4
1070
    75
1070
     1
1070
   279
1070
     1
1002
}
  0
DIMENSION
  5
185B3
330
747D
100
AcDbEntity
  8
寸法
 48
50.0
100
AcDbDimension
  2
*D12
 10
14532.82958141817
 20
12397.51516613334
 30
0.0
 11
14890.38863653628
 21
12397.51516613334
 31
0.0
 12
-2174.632845073174
 22
-953.9447183321971
 32
0.0
 70
   160
 71
     5
 42
-1.0
  3
INABA_S50G
100
AcDbAlignedDimension
 13
14482.82958141817
 23
12098.76878223258
 33
0.0
 14
14532.82958141817
 24
11678.73679736193
 34
0.0
100
AcDbRotatedDimension
1001
ACAD
1000
DSTYLE
1002
{
1002
}
  0
DIMENSION
  5
185B4
330
747D
100
AcDbEntity
  8
寸法
 48
50.0
100
AcDbDimension
  2
*D9
 10
14532.82958141817
 20
12098.76878223257
 30
0.0
 11
14795.38863653628
 21
12098.76878223257
 31
0.0
 12
-2174.632845073174
 22
-953.9447183321971
 32
0.0
 70
   160
 71
     5
 42
-1.0
  3
INABA_S50G
100
AcDbAlignedDimension
 13
14462.82958141817
 23
11688.73679736193
 33
0.0
 14
14532.82958141817
 24
11678.73679736193
 34
0.0
100
AcDbRotatedDimension
1001
ACAD
1000
DSTYLE
1002
{
1002
}
  0
DIMENSION
  5
1868C
330
747D
100
AcDbEntity
  8
寸法
 48
50.0
100
AcDbDimension
  2
*D13
 10
14532.82958141817
 20
8436.498920305798
 30
0.0
 11
13302.82958141817
 21
8536.513684085326
 31
0.0
 12
290.0
 22
0.0
 32
0.0
 70
    32
 71
     5
 42
-1.0
  3
INABA_S50G
100
AcDbAlignedDimension
 13
12072.82958141816
 23
9238.736797361928
 33
0.0
 14
14532.82958141817
 24
9238.736797361928
 34
0.0
100
AcDbRotatedDimension
  0
DIMENSION
  5
186AF
330
747D
100
AcDbEntity
  8
寸法
 48
50.0
100
AcDbDimension
  2
*D14
 10
11306.1986016385
 20
9228.736797361928
 30
0.0
 11
11206.18383785897
 21
10458.73679736192
 31
0.0
 70
    32
 71
     5
 42
-1.0
  3
INABA_S50G
100
AcDbAlignedDimension
 13
12082.82958141817
 23
11688.73679736192
 33
0.0
 14
12082.82958141817
 24
9228.736797361928
 34
0.0
 50
90.0
100
AcDbRotatedDimension
  0
LINE
  5
186ED
330
747D
100
AcDbEntity
  8
部品1
 48
50.0
100
AcDbLine
 10
14462.82958141816
 20
9228.736797361928
 30
0.0
 11
14522.82958141817
 21
9228.73679736193
 31
0.0
  0
LINE
  5
186EE
330
747D
100
AcDbEntity
  8
部品1
 48
50.0
100
AcDbLine
 10
14444.82958141816
 20
9263.736797361927
 30
0.0
 11
14497.82958141817
 21
9263.736797361929
 31
0.0
  0
LINE
  5
186EF
330
747D
100
AcDbEntity
  8
部品1
 48
50.0
100
AcDbLine
 10
14444.82958141816
 20
9278.736797361927
 30
0.0
 11
14482.82958141817
 21
9278.736797361927
 31
0.0
  0
LINE
  5
186FE
330
747D
100
AcDbEntity
  8
細線
 48
50.0
100
AcDbLine
 10
14462.82958141817
 20
9287.736797361928
 30
0.0
 11
14473.82958141817
 21
9287.736797361928
 31
0.0
  0
TEXT
  5
1A95B
330
747D
100
AcDbEntity
  8
文字
 62
     7
 48
50.0
100
AcDbText
 10
17902.30092041603
 20
604.8708912389265
 30
0.0
 40
200.0
  1
ＳＭＫ－６１ＳＧＭ
  7
STYLE2
100
AcDbText
  0
TEXT
  5
1A95C
330
747D
100
AcDbEntity
  8
文字
 62
     7
 48
50.0
100
AcDbText
 10
18386.04187925632
 20
1047.815908841148
 30
0.0
 40
125.0
  1
～一般型･多雪地型～
  7
STYLE2
100
AcDbText
  0
TEXT
  5
1A95D
330
747D
100
AcDbEntity
  8
文字
 62
     7
 48
50.0
100
AcDbText
 10
18155.16479652749
 20
1289.447132864035
 30
0.0
 40
125.0
  1
NO.23     <縮尺> S=1/50
  7
STYLE2
100
AcDbText
  0
TEXT
  5
1A95E
330
747D
100
AcDbEntity
  8
文字
 62
     7
 48
50.0
100
AcDbText
 10
16511.7566802715
 20
270.5931259273529
 30
0.0
 40
100.0
  1
○ドア部有効開口寸法：677×1760 (mm)
  7
STYLE2
100
AcDbText
  0
TEXT
  5
1A95F
330
747D
100
AcDbEntity
  8
文字
 62
     7
 48
50.0
100
AcDbText
 10
16511.7566802715
 20
99.75789836616968
 30
0.0
 40
100.0
  1
○床面積：6.05㎡(1.83坪)
  7
STYLE2
100
AcDbText
  0
LINE
  5
1BF3F
330
747D
100
AcDbEntity
  8
部品1
100
AcDbLine
 10
6016.604026227807
 20
2526.882077830556
 30
0.0
 11
7289.05513660854
 21
2526.882077830556
 31
0.0
  0
LINE
  5
1BF40
330
747D
100
AcDbEntity
  8
部品1
100
AcDbLine
 10
7289.05513660854
 20
2127.061541921335
 30
0.0
 11
6016.604026227807
 21
2127.061541921335
 31
0.0
  0
LINE
  5
1BF42
330
747D
100
AcDbEntity
  8
部品1
100
AcDbLine
 10
7289.05513660854
 20
2526.882077830556
 30
0.0
 11
7289.05513660854
 21
2127.061541921335
 31
0.0
  0
LINE
  5
1BF43
330
747D
100
AcDbEntity
  8
部品1
100
AcDbLine
 10
6016.604026227807
 20
2127.061541921335
 30
0.0
 11
6016.604026227807
 21
2526.882077830556
 31
0.0
  0
TEXT
  5
1C108
330
747D
100
AcDbEntity
  8
部品1
100
AcDbText
 10
6166.02522414938
 20
2217.627147812621
 30
0.0
 40
225.0
  1
側面図
  7
STYLE2
100
AcDbText
  0
LINE
  5
1C12E
330
747D
100
AcDbEntity
  8
部品1
 48
50.0
100
AcDbLine
 10
12072.82958141816
 20
10458.73679736192
 30
0.0
 11
12072.82958141816
 21
9238.736797361928
 31
0.0
  0
LINE
  5
1C12F
330
747D
100
AcDbEntity
  8
部品1
 48
50.0
100
AcDbLine
 10
12107.82958141817
 20
10476.73679736192
 30
0.0
 11
12107.82958141817
 21
9263.736797361927
 31
0.0
  0
LINE
  5
1C130
330
747D
100
AcDbEntity
  8
部品1
 48
50.0
100
AcDbLine
 10
12122.82958141816
 20
10476.73679736192
 30
0.0
 11
12122.82958141816
 21
9278.736797361927
 31
0.0
  0
DIMENSION
  5
1C1CC
330
747D
100
AcDbEntity
  8
寸法
 48
50.0
100
AcDbDimension
  2
*D17
 10
11588.38589554556
 20
10452.73679736192
 30
0.0
 11
11488.37113176604
 21
10853.73679736192
 31
0.0
 70
    32
 71
     5
 42
-1.0
  3
INABA_S50G
100
AcDbAlignedDimension
 13
12022.82958141817
 23
11254.73679736192
 33
0.0
 14
12022.82958141817
 24
10452.73679736192
 34
0.0
 50
270.0
100
AcDbRotatedDimension
  0
LINE
  5
1C1CD
330
747D
100
AcDbEntity
  8
部品1
 62
     2
100
AcDbLine
 10
12022.82958141817
 20
10489.23679736192
 30
0.0
 11
12022.82958141817
 21
11149.23679736194
 31
0.0
  0
LINE
  5
1C1CE
330
747D
100
AcDbEntity
  8
部品1
 62
     2
100
AcDbLine
 10
12029.32958141816
 20
10485.23679736192
 30
0.0
 11
12029.32958141816
 21
11221.23679736192
 31
0.0
  0
LINE
  5
1C1CF
330
747D
100
AcDbEntity
  8
部品1
 62
     2
100
AcDbLine
 10
12060.82958141816
 20
10481.23679736192
 30
0.0
 11
12060.82958141816
 21
11221.23679736192
 31
0.0
  0
LINE
  5
1C1D0
330
747D
100
AcDbEntity
  8
部品1
 62
     2
100
AcDbLine
 10
11995.32958141815
 20
11073.23679736191
 30
0.0
 11
11995.32958141815
 21
11149.23679736194
 31
0.0
  0
LINE
  5
1C1D1
330
747D
100
AcDbEntity
  8
部品1
 62
     2
100
AcDbLine
 10
11979.32958141817
 20
11155.23679736188
 30
0.0
 11
11979.32958141817
 21
11073.23679736191
 31
0.0
  0
ARC
  5
1C1D2
330
747D
100
AcDbEntity
  8
部品1
 62
     2
100
AcDbCircle
 10
11987.32958141816
 20
11073.23679736191
 30
0.0
 40
8.0
100
AcDbArc
 50
180.0
 51
0.0
  0
LINE
  5
1C1D3
330
747D
100
AcDbEntity
  8
部品1
 62
     2
100
AcDbLine
 10
12029.32958141816
 20
11221.23679736192
 30
0.0
 11
12060.82958141816
 21
11221.23679736192
 31
0.0
  0
LINE
  5
1C1D4
330
747D
100
AcDbEntity
  8
部品1
 62
     2
100
AcDbLine
 10
12060.82958141816
 20
11213.73679736192
 30
0.0
 11
12138.32958141817
 21
11213.73679736192
 31
0.0
  0
LINE
  5
1C1D5
330
747D
100
AcDbEntity
  8
部品1
 62
     2
100
AcDbLine
 10
12060.82958141816
 20
11149.23679736194
 30
0.0
 11
12094.82958141818
 21
11149.23679736194
 31
0.0
  0
LINE
  5
1C1D6
330
747D
100
AcDbEntity
  8
部品1
 62
     2
100
AcDbLine
 10
12060.82958141816
 20
11165.23679736192
 30
0.0
 11
12100.82958141813
 21
11165.23679736192
 31
0.0
  0
ARC
  5
1C1D7
330
747D
100
AcDbEntity
  8
部品1
 62
     2
100
AcDbCircle
 10
11989.32958141811
 20
11155.23679736188
 30
0.0
 40
10.0
100
AcDbArc
 50
89.99999999999998
 51
180.0
  0
LINE
  5
1C1D8
330
747D
100
AcDbEntity
  8
部品1
 62
     2
100
AcDbLine
 10
12022.82958141817
 20
11165.23679736192
 30
0.0
 11
12022.82958141817
 21
11254.73679736192
 31
0.0
  0
LINE
  5
1C1D9
330
747D
100
AcDbEntity
  8
部品1
 62
     2
100
AcDbLine
 10
12029.32958141816
 20
11149.23679736194
 30
0.0
 11
11995.32958141815
 21
11149.23679736194
 31
0.0
  0
LINE
  5
1C1DA
330
747D
100
AcDbEntity
  8
部品1
 62
     2
100
AcDbLine
 10
12029.32958141816
 20
11165.23679736192
 30
0.0
 11
11989.32958141811
 21
11165.23679736192
 31
0.0
  0
LINE
  5
1C1DB
330
747D
100
AcDbEntity
  8
部品1
 62
     2
100
AcDbLine
 10
12022.82958141817
 20
11226.23679736192
 30
0.0
 11
12072.82958141816
 21
11226.23679736192
 31
0.0
  0
LINE
  5
1C1DC
330
747D
100
AcDbEntity
  8
部品1
 62
     2
100
AcDbLine
 10
12022.82958141817
 20
11254.73679736192
 30
0.0
 11
12072.82958141816
 21
11254.73679736192
 31
0.0
  0
LINE
  5
1C1DD
330
747D
100
AcDbEntity
  8
部品1
 62
     2
100
AcDbLine
 10
12097.82958141816
 20
11066.99179936352
 30
0.0
 11
12097.82958141816
 21
10493.73679736192
 31
0.0
  0
LINE
  5
1C1DE
330
747D
100
AcDbEntity
  8
部品1
 62
     2
100
AcDbLine
 10
12138.32958141817
 20
11213.73679736192
 30
0.0
 11
12138.32958141817
 21
10493.73679736192
 31
0.0
  0
LINE
  5
1C1DF
330
747D
100
AcDbEntity
  8
部品1
 62
     2
100
AcDbLine
 10
12123.32958141816
 20
11213.73679736192
 30
0.0
 11
12123.32958141816
 21
10493.73679736192
 31
0.0
  0
LINE
  5
1C1E0
330
747D
100
AcDbEntity
  8
部品1
 62
     2
100
AcDbLine
 10
12110.82958141816
 20
11155.23679736188
 30
0.0
 11
12110.82958141816
 21
11073.23679736191
 31
0.0
  0
LINE
  5
1C1E1
330
747D
100
AcDbEntity
  8
部品1
 62
     2
100
AcDbLine
 10
12094.82958141818
 20
11073.23679736191
 30
0.0
 11
12094.82958141818
 21
11149.23679736194
 31
0.0
  0
ARC
  5
1C1E2
330
747D
100
AcDbEntity
  8
部品1
 62
     2
100
AcDbCircle
 10
12102.82958141817
 20
11073.23679736191
 30
0.0
 40
8.0
100
AcDbArc
 50
180.0
 51
0.0
  0
ARC
  5
1C1E3
330
747D
100
AcDbEntity
  8
部品1
 62
     2
100
AcDbCircle
 10
12100.82958141813
 20
11155.23679736188
 30
0.0
 40
10.0
100
AcDbArc
 50
0.0
 51
89.99999999999998
  0
LINE
  5
1C1E4
330
747D
100
AcDbEntity
  8
部品1
 62
     2
100
AcDbLine
 10
12097.82958141816
 20
11213.73679736192
 30
0.0
 11
12097.82958141816
 21
11165.23679736192
 31
0.0
  0
LINE
  5
1C1E5
330
747D
100
AcDbEntity
  8
部品1
 62
     2
100
AcDbLine
 10
12131.82958141816
 20
11266.73679736192
 30
0.0
 11
12131.82958141816
 21
11213.73679736192
 31
0.0
  0
LINE
  5
1C1E6
330
747D
100
AcDbEntity
  8
部品1
 62
     2
100
AcDbLine
 10
12072.82958141816
 20
11254.73679736192
 30
0.0
 11
12072.82958141816
 21
11213.73679736192
 31
0.0
  0
LINE
  5
1C1E7
330
747D
100
AcDbEntity
  8
部品1
 62
     2
100
AcDbLine
 10
12122.82958141817
 20
11266.73679736192
 30
0.0
 11
12131.82958141816
 21
11266.73679736192
 31
0.0
  0
LINE
  5
1C1E8
330
747D
100
AcDbEntity
  8
部品1
 62
     2
100
AcDbLine
 10
12060.82958141816
 20
10493.73679736192
 30
0.0
 11
12138.32958141817
 21
10493.73679736192
 31
0.0
  0
LINE
  5
1C1E9
330
747D
100
AcDbEntity
  8
部品1
 62
     2
100
AcDbLine
 10
12022.82958141817
 20
10452.73679736192
 30
0.0
 11
12022.82958141817
 21
10481.23679736192
 31
0.0
  0
CIRCLE
  5
1C1EA
330
747D
100
AcDbEntity
  8
部品1
 62
     2
100
AcDbCircle
 10
12010.32958141816
 20
10485.23679736192
 30
0.0
 40
9.099999999999999
  0
LINE
  5
1C1EB
330
747D
100
AcDbEntity
  8
部品1
 62
     2
100
AcDbLine
 10
12022.82958141817
 20
10452.73679736192
 30
0.0
 11
12072.82958141816
 21
10452.73679736192
 31
0.0
  0
LINE
  5
1C1EC
330
747D
100
AcDbEntity
  8
部品1
 62
     2
100
AcDbLine
 10
12022.82958141817
 20
10481.23679736192
 30
0.0
 11
12072.82958141816
 21
10481.23679736192
 31
0.0
  0
LINE
  5
1C1ED
330
747D
100
AcDbEntity
  8
部品1
 62
     2
100
AcDbLine
 10
12019.42958141816
 20
10485.23679736192
 30
0.0
 11
12060.82958141816
 21
10485.23679736192
 31
0.0
  0
LINE
  5
1C1EE
330
747D
100
AcDbEntity
  8
部品1
 62
     2
100
AcDbLine
 10
12018.50331985293
 20
10489.23679736192
 30
0.0
 11
12029.32958141816
 21
10489.23679736192
 31
0.0
  0
LINE
  5
1C1EF
330
747D
100
AcDbEntity
  8
部品1
 62
     2
100
AcDbLine
 10
12018.50331985293
 20
10481.23679736192
 30
0.0
 11
12060.82958141816
 21
10481.23679736192
 31
0.0
  0
LINE
  5
1C1F0
330
747D
100
AcDbEntity
  8
部品1
 62
     2
100
AcDbLine
 10
12072.82958141816
 20
10493.73679736192
 30
0.0
 11
12072.82958141816
 21
10452.73679736192
 31
0.0
  0
LINE
  5
1C1F1
330
747D
100
AcDbEntity
  8
部品1
 62
     2
100
AcDbLine
 10
12131.82958141816
 20
10440.73679736192
 30
0.0
 11
12131.82958141816
 21
10493.73679736192
 31
0.0
  0
LINE
  5
1C1F2
330
747D
100
AcDbEntity
  8
部品1
 62
     2
100
AcDbLine
 10
12122.82958141817
 20
10440.73679736192
 30
0.0
 11
12131.82958141816
 21
10440.73679736192
 31
0.0
  0
DIMENSION
  5
1C1FF
330
747D
100
AcDbEntity
  8
寸法
 48
50.0
100
AcDbDimension
  2
*D18
 10
14468.82958141817
 20
8744.293111489312
 30
0.0
 11
13302.82958141817
 21
8844.307875268839
 31
0.0
 12
290.0
 22
0.0
 32
0.0
 70
    32
 71
     5
 42
-1.0
  3
INABA_S50G
100
AcDbAlignedDimension
 13
12136.82958141817
 23
9228.736797361909
 33
0.0
 14
14468.82958141817
 24
9228.736797361909
 34
0.0
100
AcDbRotatedDimension
  0
LINE
  5
1C200
330
747D
100
AcDbEntity
  8
部品1
 62
     2
 48
50.0
100
AcDbLine
 10
13875.82958141817
 20
9240.236797361909
 30
0.0
 11
14409.82958141817
 21
9240.236797361909
 31
0.0
  0
LINE
  5
1C201
330
747D
100
AcDbEntity
  8
部品1
 62
     2
 48
50.0
100
AcDbLine
 10
13857.82958141817
 20
9251.73679736191
 30
0.0
 11
14430.82958141817
 21
9251.73679736191
 31
0.0
  0
LINE
  5
1C202
330
747D
100
AcDbEntity
  8
部品1
 62
     2
 48
50.0
100
AcDbLine
 10
14430.82958141817
 20
9289.736797361909
 30
0.0
 11
12174.82958141817
 21
9289.736797361909
 31
0.0
  0
LINE
  5
1C203
330
747D
100
AcDbEntity
  8
部品1
 62
     2
 48
50.0
100
AcDbLine
 10
12142.82958141817
 20
9228.736797361909
 30
0.0
 11
14462.82958141817
 21
9228.736797361909
 31
0.0
  0
LINE
  5
1C204
330
747D
100
AcDbEntity
  8
部品1
 62
     2
 48
50.0
100
AcDbLine
 10
14462.82958141817
 20
9290.736797361908
 30
0.0
 11
12142.82958141817
 21
9290.736797361908
 31
0.0
  0
LINE
  5
1C205
330
747D
100
AcDbEntity
  8
部品1
 62
     2
 48
50.0
100
AcDbLine
 10
14444.82958141817
 20
9278.73679736191
 30
0.0
 11
14430.82958141817
 21
9278.73679736191
 31
0.0
  0
LINE
  5
1C206
330
747D
100
AcDbEntity
  8
部品1
 62
     2
 48
50.0
100
AcDbLine
 10
14403.82958141817
 20
9228.736797361909
 30
0.0
 11
14403.82958141817
 21
9251.73679736191
 31
0.0
  0
LINE
  5
1C207
330
747D
100
AcDbEntity
  8
部品1
 62
     2
 48
50.0
100
AcDbLine
 10
14430.82958141817
 20
9228.736797361909
 30
0.0
 11
14430.82958141817
 21
9289.736797361909
 31
0.0
  0
LINE
  5
1C208
330
747D
100
AcDbEntity
  8
部品1
 62
     2
 48
50.0
100
AcDbLine
 10
14462.82958141817
 20
9278.73679736191
 30
0.0
 11
14462.82958141817
 21
9290.736797361908
 31
0.0
  0
LINE
  5
1C209
330
747D
100
AcDbEntity
  8
部品1
 62
     2
 48
50.0
100
AcDbLine
 10
13857.82958141817
 20
9262.036797361899
 30
0.0
 11
13857.82958141817
 21
9285.036797361897
 31
0.0
  0
LINE
  5
1C20A
330
747D
100
AcDbEntity
  8
部品1
 62
     2
 48
50.0
100
AcDbLine
 10
13881.82958141817
 20
9262.036797361913
 30
0.0
 11
13881.82958141817
 21
9285.036797361897
 31
0.0
  0
LINE
  5
1C20B
330
747D
100
AcDbEntity
  8
部品1
 62
     2
 48
50.0
100
AcDbLine
 10
13881.82958141817
 20
9228.736797361909
 30
0.0
 11
13881.82958141817
 21
9251.73679736191
 31
0.0
  0
LINE
  5
1C20C
330
747D
100
AcDbEntity
  8
部品1
 62
     2
 48
50.0
100
AcDbLine
 10
13857.82958141817
 20
9228.736797361909
 30
0.0
 11
13857.82958141817
 21
9251.73679736191
 31
0.0
  0
LINE
  5
1C20D
330
747D
100
AcDbEntity
  8
部品1
 62
     2
 48
50.0
100
AcDbLine
 10
13329.82958141817
 20
9273.536797361911
 30
0.0
 11
13863.82958141817
 21
9273.536797361911
 31
0.0
  0
LINE
  5
1C20E
330
747D
100
AcDbEntity
  8
部品1
 62
     2
 48
50.0
100
AcDbLine
 10
12723.82958141817
 20
9285.036797361913
 30
0.0
 11
13881.82958141817
 21
9285.036797361913
 31
0.0
  0
LINE
  5
1C20F
330
747D
100
AcDbEntity
  8
部品1
 62
     2
 48
50.0
100
AcDbLine
 10
12723.82958141817
 20
9262.036797361913
 30
0.0
 11
13881.82958141817
 21
9262.036797361913
 31
0.0
  0
LINE
  5
1C210
330
747D
100
AcDbEntity
  8
部品1
 62
     2
 48
50.0
100
AcDbLine
 10
12174.82958141817
 20
9278.73679736191
 30
0.0
 11
12160.82958141817
 21
9278.73679736191
 31
0.0
  0
LINE
  5
1C211
330
747D
100
AcDbEntity
  8
部品1
 62
     2
 48
50.0
100
AcDbLine
 10
13335.82958141817
 20
9262.036797361913
 30
0.0
 11
13335.82958141817
 21
9285.036797361913
 31
0.0
  0
LINE
  5
1C212
330
747D
100
AcDbEntity
  8
部品1
 62
     2
 48
50.0
100
AcDbLine
 10
12174.82958141817
 20
9228.736797361909
 30
0.0
 11
12174.82958141817
 21
9289.736797361909
 31
0.0
  0
LINE
  5
1C213
330
747D
100
AcDbEntity
  8
部品1
 62
     2
 48
50.0
100
AcDbLine
 10
12142.82958141817
 20
9278.73679736191
 30
0.0
 11
12142.82958141817
 21
9290.736797361908
 31
0.0
  0
DIMENSION
  5
1C833
330
747D
100
AcDbEntity
  8
寸法
 48
50.0
100
AcDbDimension
  2
*D23
 10
14587.82958360308
 20
6238.281130716521
 30
0.0
 11
14902.88863872119
 21
6238.281130716521
 31
0.0
 12
-7209.213972087439
 22
-1030.720159777917
 32
0.0
 70
   160
 71
     5
 42
-1.0
  3
INABA_S50G
100
AcDbAlignedDimension
 13
14532.82958360308
 23
5545.000000008446
 33
0.0
 14
14587.82958360308
 24
5509.000002624809
 34
0.0
100
AcDbRotatedDimension
1001
ACAD
1000
DSTYLE
1002
{
1002
}
  0
DIMENSION
  5
1C834
330
747D
100
AcDbEntity
  8
寸法
 48
50.0
100
AcDbDimension
  2
*D22
 10
12072.82958360308
 20
6238.281130716521
 30
0.0
 11
11692.77052848497
 21
6238.281130716521
 31
0.0
 12
-7209.213972087439
 22
-1030.720159777917
 32
0.0
 70
   160
 71
     5
 42
-1.0
  3
INABA_S50G
100
AcDbAlignedDimension
 13
12017.82957923325
 23
5509.000002624809
 33
0.0
 14
12072.82958360308
 24
5545.000000008467
 34
0.0
100
AcDbRotatedDimension
  0
DIMENSION
  5
1C835
330
747D
100
AcDbEntity
  8
寸法
 48
50.0
100
AcDbDimension
  2
*D21
 10
14532.82958360308
 20
6238.281130716521
 30
0.0
 11
13302.82958360308
 21
6338.295894496049
 31
0.0
 70
    32
  1
柱外寸法 <>
 71
     5
 42
-1.0
  3
INABA_S50G
100
AcDbAlignedDimension
 13
12072.82958360308
 23
5545.000000008467
 33
0.0
 14
14532.82958360308
 24
5545.000000008446
 34
0.0
100
AcDbRotatedDimension
1001
ACAD
1000
DSTYLE
1002
{
1070
   287
1070
     4
1070
    75
1070
     1
1070
   279
1070
     1
1002
}
  0
DIMENSION
  5
1C836
330
747D
100
AcDbEntity
  8
寸法
 48
50.0
100
AcDbDimension
  2
*D20
 10
14587.82958360308
 20
6506.068854554546
 30
0.0
 11
13302.82958141817
 21
6606.083618334072
 31
0.0
 12
-7209.213972087439
 22
-1030.720159777917
 32
0.0
 70
    32
 71
     5
 42
-1.0
  3
INABA_S50G
100
AcDbAlignedDimension
 13
12017.82957923325
 23
5509.000002624809
 33
0.0
 14
14587.82958360308
 24
5509.000002624809
 34
0.0
100
AcDbRotatedDimension
  0
LINE
  5
1C838
330
747D
100
AcDbEntity
  8
部品1
 48
50.0
100
AcDbLine
 10
12072.82958360308
 20
3274.999999999999
 30
0.0
 11
14532.82958360308
 21
3274.999999999999
 31
0.0
  0
LINE
  5
1C83A
330
747D
100
AcDbEntity
  8
部品1
 48
50.0
100
AcDbLine
 10
14532.82958360308
 20
5275.0
 30
0.0
 11
12072.82958360308
 21
5275.0
 31
0.0
  0
LINE
  5
1C83B
330
747D
100
AcDbEntity
  8
細線
100
AcDbLine
 10
14572.32958360308
 20
5524.500002624811
 30
0.0
 11
12035.42971515204
 21
5524.500002624819
 31
0.0
  0
LINE
  5
1C83C
330
747D
100
AcDbEntity
  8
部品1
100
AcDbLine
 10
14558.39741914361
 20
5545.000000008446
 30
0.0
 11
12047.26174398399
 21
5545.000000008467
 31
0.0
  0
LINE
  5
1C83D
330
747D
100
AcDbEntity
  8
細線
100
AcDbLine
 10
14581.32472794052
 20
5431.045828186498
 30
0.0
 11
12024.33443489582
 21
5431.045828186505
 31
0.0
  0
LINE
  5
1C83E
330
747D
100
AcDbEntity
  8
部品1
100
AcDbLine
 10
14563.51364406119
 20
5410.000001569558
 30
0.0
 11
12042.14551877514
 21
5410.000001569567
 31
0.0
  0
LINE
  5
1C841
330
747D
100
AcDbEntity
  8
部品1
 48
50.0
100
AcDbLine
 10
12072.82958360308
 20
5410.000001569567
 30
0.0
 11
12072.82958360308
 21
3139.999999999999
 31
0.0
  0
LINE
  5
1C842
330
747D
100
AcDbEntity
  8
部品1
 48
50.0
100
AcDbLine
 10
12142.82958360308
 20
5275.0
 30
0.0
 11
12142.82958360308
 21
3274.999999999999
 31
0.0
  0
LINE
  5
1C845
330
747D
100
AcDbEntity
  8
部品1
 48
50.0
100
AcDbLine
 10
12142.82958360308
 20
3330.000000000001
 30
0.0
 11
14462.82958360308
 21
3330.000000000001
 31
0.0
  0
LINE
  5
1C846
330
747D
100
AcDbEntity
  8
部品1
100
AcDbLine
 10
12067.82958360308
 20
3314.999999999999
 30
0.0
 11
12067.82958360308
 21
3139.999999999999
 31
0.0
  0
LINE
  5
1C847
330
747D
100
AcDbEntity
  8
破線
 48
5.0
100
AcDbLine
 10
11972.82958360308
 20
2939.999999999999
 30
0.0
 11
12172.82958360308
 21
2939.999999999999
 31
0.0
  0
LINE
  5
1C848
330
747D
100
AcDbEntity
  8
破線
 48
5.0
100
AcDbLine
 10
12067.82958360308
 20
3139.999999999999
 30
0.0
 11
12067.82958360308
 21
3029.999999999999
 31
0.0
  0
LINE
  5
1C849
330
747D
100
AcDbEntity
  8
破線
 48
5.0
100
AcDbLine
 10
11972.82958360308
 20
3139.999999999999
 30
0.0
 11
11972.82958360308
 21
2939.999999999999
 31
0.0
  0
LINE
  5
1C84A
330
747D
100
AcDbEntity
  8
破線
 48
5.0
100
AcDbLine
 10
12047.82958360308
 20
3029.999999999999
 30
0.0
 11
12067.82958360308
 21
3029.999999999999
 31
0.0
  0
LINE
  5
1C84B
330
747D
100
AcDbEntity
  8
破線
 48
5.0
100
AcDbLine
 10
12172.82958360308
 20
3139.999999999999
 30
0.0
 11
12172.82958360308
 21
2939.999999999999
 31
0.0
  0
LINE
  5
1C84C
330
747D
100
AcDbEntity
  8
部品1
 48
50.0
100
AcDbLine
 10
12472.82958360308
 20
3274.999999999999
 30
0.0
 11
12472.82958360308
 21
3139.999999999999
 31
0.0
  0
LINE
  5
1C84E
330
747D
100
AcDbEntity
  8
部品1
 48
50.0
100
AcDbLine
 10
12722.82958360308
 20
4059.999999999999
 30
0.0
 11
12722.82958360308
 21
3330.000000000001
 31
0.0
  0
LINE
  5
1C870
330
747D
100
AcDbEntity
  8
細線
 48
50.0
100
AcDbLine
 10
12055.82958389434
 20
5410.000001569558
 30
0.0
 11
12055.82958389434
 21
5545.0
 31
0.0
  0
ARC
  5
1C871
330
747D
100
AcDbEntity
  8
部品1
100
AcDbCircle
 10
12033.32957923325
 20
5509.000002624809
 30
0.0
 40
15.5
100
AcDbArc
 50
90.00000000000033
 51
183.979378091838
  0
ARC
  5
1C872
330
747D
100
AcDbEntity
  8
部品1
100
AcDbCircle
 10
12023.88825590001
 20
5428.572828826122
 30
0.0
 40
2.5
100
AcDbArc
 50
3.979378091802891
 51
83.07390809407314
  0
ARC
  5
1C873
330
747D
100
AcDbEntity
  8
部品1
100
AcDbCircle
 10
12042.14551877514
 20
5425.50000156956
 30
0.0
 40
15.5
100
AcDbArc
 50
183.9793780918396
 51
270.0
  0
LINE
  5
1C874
330
747D
100
AcDbEntity
  8
部品1
100
AcDbLine
 10
12026.38222863103
 20
5428.746322390583
 30
0.0
 11
12026.6828878428
 21
5424.424341469881
 31
0.0
  0
ARC
  5
1C875
330
747D
100
AcDbEntity
  8
部品1
100
AcDbCircle
 10
12024.33443489582
 20
5432.245828186495
 30
0.0
 40
1.199999999999999
100
AcDbArc
 50
183.979378091838
 51
270.0000000000002
  0
LINE
  5
1C876
330
747D
100
AcDbEntity
  8
部品1
100
AcDbLine
 10
12017.86694830091
 20
5507.92434252513
 30
0.0
 11
12023.13732798493
 21
5432.162551275553
 31
0.0
  0
ARC
  5
1C877
330
747D
100
AcDbEntity
  8
部品1
100
AcDbCircle
 10
12047.2619868428
 20
5541.500000016893
 30
0.0
 40
3.5
100
AcDbArc
 50
90.0
 51
157.4999956391549
  0
ARC
  5
1C878
330
747D
100
AcDbEntity
  8
部品1
100
AcDbCircle
 10
12035.42971515204
 20
5526.000002624811
 30
0.0
 40
1.5
100
AcDbArc
 50
270.0000000000002
 51
337.4999956391484
  0
LINE
  5
1C879
330
747D
100
AcDbEntity
  8
部品1
100
AcDbLine
 10
12036.81553440712
 20
5525.425977370787
 30
0.0
 11
12044.02840858096
 21
5542.839392276281
 31
0.0
  0
LINE
  5
1C87A
330
747D
100
AcDbEntity
  8
部品1
 48
50.0
100
AcDbLine
 10
12033.32957923325
 20
5524.500002624809
 30
0.0
 11
12035.42971515204
 21
5524.500002624819
 31
0.0
  0
LINE
  5
1C87B
330
747D
100
AcDbEntity
  8
細線
 48
50.0
100
AcDbLine
 10
12858.82958360308
 20
5405.500036981838
 30
0.0
 11
12586.82958360308
 21
5405.500036981838
 31
0.0
  0
LINE
  5
1C87C
330
747D
100
AcDbEntity
  8
細線
 48
50.0
100
AcDbLine
 10
12843.82958360308
 20
5319.5
 30
0.0
 11
12601.82958360308
 21
5319.5
 31
0.0
  0
LINE
  5
1C87D
330
747D
100
AcDbEntity
  8
細線
 48
50.0
100
AcDbLine
 10
12858.82958360308
 20
5308.5
 30
0.0
 11
12586.82958360308
 21
5308.5
 31
0.0
  0
LINE
  5
1C87E
330
747D
100
AcDbEntity
  8
細線
 48
50.0
100
AcDbLine
 10
12601.82958360308
 20
5375.5
 30
0.0
 11
12843.82958360308
 21
5375.5
 31
0.0
  0
LINE
  5
1C87F
330
747D
100
AcDbEntity
  8
細線
 48
50.0
100
AcDbLine
 10
12601.82958360308
 20
5390.5
 30
0.0
 11
12843.82958360308
 21
5390.499999999998
 31
0.0
  0
LINE
  5
1C880
330
747D
100
AcDbEntity
  8
細線
 48
50.0
100
AcDbLine
 10
12601.82958360308
 20
5360.500036981837
 30
0.0
 11
12843.82958360308
 21
5360.500036981837
 31
0.0
  0
LINE
  5
1C881
330
747D
100
AcDbEntity
  8
細線
 48
50.0
100
AcDbLine
 10
12601.82958360308
 20
5345.5
 30
0.0
 11
12843.82958360308
 21
5345.5
 31
0.0
  0
LINE
  5
1C882
330
747D
100
AcDbEntity
  8
細線
 48
50.0
100
AcDbLine
 10
12601.82958360308
 20
5330.500036981837
 30
0.0
 11
12843.82958360308
 21
5330.500036981837
 31
0.0
  0
ARC
  5
1C883
330
747D
100
AcDbEntity
  8
細線
 48
50.0
100
AcDbCircle
 10
12586.82958360308
 20
5395.500036981837
 30
0.0
 40
10.0
100
AcDbArc
 50
90.0
 51
180.0
  0
LINE
  5
1C884
330
747D
100
AcDbEntity
  8
細線
 48
50.0
100
AcDbLine
 10
12682.82958360308
 20
5319.5
 30
0.0
 11
12682.82958360308
 21
5390.5
 31
0.0
  0
LINE
  5
1C885
330
747D
100
AcDbEntity
  8
細線
 48
50.0
100
AcDbLine
 10
12601.82958360308
 20
5308.5
 30
0.0
 11
12601.82958360308
 21
5309.0
 31
0.0
  0
ARC
  5
1C886
330
747D
100
AcDbEntity
  8
細線
 48
50.0
100
AcDbCircle
 10
12586.82958360308
 20
5318.5
 30
0.0
 40
10.0
100
AcDbArc
 50
180.0
 51
270.0
  0
LINE
  5
1C887
330
747D
100
AcDbEntity
  8
細線
 48
50.0
100
AcDbLine
 10
12576.82958360308
 20
5395.500036981837
 30
0.0
 11
12576.82958360308
 21
5318.5
 31
0.0
  0
LINE
  5
1C888
330
747D
100
AcDbEntity
  8
細線
 48
50.0
100
AcDbLine
 10
12601.82958360308
 20
5405.500036981838
 30
0.0
 11
12601.82958360308
 21
5308.5
 31
0.0
  0
ARC
  5
1C889
330
747D
100
AcDbEntity
  8
細線
 48
50.0
100
AcDbCircle
 10
12858.82958360308
 20
5395.500036981837
 30
0.0
 40
10.0
100
AcDbArc
 50
359.9999999999998
 51
90.0
  0
LINE
  5
1C88A
330
747D
100
AcDbEntity
  8
細線
 48
50.0
100
AcDbLine
 10
12843.82958360308
 20
5308.5
 30
0.0
 11
12843.82958360308
 21
5309.0
 31
0.0
  0
ARC
  5
1C88B
330
747D
100
AcDbEntity
  8
細線
 48
50.0
100
AcDbCircle
 10
12858.82958360308
 20
5318.5
 30
0.0
 40
10.0
100
AcDbArc
 50
270.0
 51
359.9999999999998
  0
LINE
  5
1C88C
330
747D
100
AcDbEntity
  8
細線
 48
50.0
100
AcDbLine
 10
12762.82958360308
 20
5319.5
 30
0.0
 11
12762.82958360308
 21
5390.5
 31
0.0
  0
LINE
  5
1C88D
330
747D
100
AcDbEntity
  8
細線
 48
50.0
100
AcDbLine
 10
12868.82958360308
 20
5395.500036981837
 30
0.0
 11
12868.82958360308
 21
5318.5
 31
0.0
  0
LINE
  5
1C88E
330
747D
100
AcDbEntity
  8
細線
 48
50.0
100
AcDbLine
 10
12843.82958360308
 20
5405.500036981838
 30
0.0
 11
12843.82958360308
 21
5308.5
 31
0.0
  0
LINE
  5
1C88F
330
747D
100
AcDbEntity
  8
部品1
 48
50.0
100
AcDbLine
 10
14532.82958360308
 20
5410.000001569558
 30
0.0
 11
14532.82958360308
 21
3139.999999999999
 31
0.0
  0
LINE
  5
1C897
330
747D
100
AcDbEntity
  8
部品1
 48
50.0
100
AcDbLine
 10
13202.82958360308
 20
3274.999999999999
 30
0.0
 11
13202.82958360308
 21
3139.999999999999
 31
0.0
  0
LINE
  5
1C898
330
747D
100
AcDbEntity
  8
部品1
 48
50.0
100
AcDbLine
 10
13402.82958360308
 20
3274.999999999999
 30
0.0
 11
13402.82958360308
 21
3139.999999999999
 31
0.0
  0
LINE
  5
1C899
330
747D
100
AcDbEntity
  8
部品1
 48
50.0
100
AcDbLine
 10
14132.82958360308
 20
3274.999999999999
 30
0.0
 11
14132.82958360308
 21
3139.999999999999
 31
0.0
  0
LINE
  5
1C89A
330
747D
100
AcDbEntity
  8
部品1
100
AcDbLine
 10
14537.82958360308
 20
3314.999999999999
 30
0.0
 11
14537.82958360308
 21
3139.999999999999
 31
0.0
  0
LINE
  5
1C89B
330
747D
100
AcDbEntity
  8
破線
 48
5.0
100
AcDbLine
 10
14632.82958360308
 20
2939.999999999999
 30
0.0
 11
14432.82958360308
 21
2939.999999999999
 31
0.0
  0
LINE
  5
1C89C
330
747D
100
AcDbEntity
  8
破線
 48
5.0
100
AcDbLine
 10
14557.82958360308
 20
3029.999999999999
 30
0.0
 11
14537.82958360308
 21
3029.999999999999
 31
0.0
  0
LINE
  5
1C89D
330
747D
100
AcDbEntity
  8
破線
 48
5.0
100
AcDbLine
 10
14537.82958360308
 20
3139.999999999999
 30
0.0
 11
14537.82958360308
 21
3029.999999999999
 31
0.0
  0
LINE
  5
1C89E
330
747D
100
AcDbEntity
  8
破線
 48
5.0
100
AcDbLine
 10
14432.82958360308
 20
3139.999999999999
 30
0.0
 11
14432.82958360308
 21
2939.999999999999
 31
0.0
  0
LINE
  5
1C89F
330
747D
100
AcDbEntity
  8
破線
 48
5.0
100
AcDbLine
 10
14632.82958360308
 20
3139.999999999999
 30
0.0
 11
14632.82958360308
 21
2939.999999999999
 31
0.0
  0
LINE
  5
1C8A2
330
747D
100
AcDbEntity
  8
部品1
 48
50.0
100
AcDbLine
 10
14462.82958360308
 20
5275.0
 30
0.0
 11
14462.82958360308
 21
3274.999999999999
 31
0.0
  0
LINE
  5
1C8A3
330
747D
100
AcDbEntity
  8
細線
 48
50.0
100
AcDbLine
 10
14018.82958360308
 20
5405.500036981838
 30
0.0
 11
13746.82958360308
 21
5405.500036981838
 31
0.0
  0
LINE
  5
1C8A4
330
747D
100
AcDbEntity
  8
細線
 48
50.0
100
AcDbLine
 10
13761.82958360308
 20
5330.500036981837
 30
0.0
 11
14003.82958360308
 21
5330.500036981837
 31
0.0
  0
LINE
  5
1C8A5
330
747D
100
AcDbEntity
  8
細線
 48
50.0
100
AcDbLine
 10
13761.82958360308
 20
5345.5
 30
0.0
 11
14003.82958360308
 21
5345.5
 31
0.0
  0
LINE
  5
1C8A6
330
747D
100
AcDbEntity
  8
細線
 48
50.0
100
AcDbLine
 10
13761.82958360308
 20
5360.500036981837
 30
0.0
 11
14003.82958360308
 21
5360.500036981837
 31
0.0
  0
LINE
  5
1C8A7
330
747D
100
AcDbEntity
  8
細線
 48
50.0
100
AcDbLine
 10
13761.82958360308
 20
5390.5
 30
0.0
 11
14003.82958360308
 21
5390.499999999998
 31
0.0
  0
LINE
  5
1C8A8
330
747D
100
AcDbEntity
  8
細線
 48
50.0
100
AcDbLine
 10
13761.82958360308
 20
5375.5
 30
0.0
 11
14003.82958360308
 21
5375.5
 31
0.0
  0
LINE
  5
1C8A9
330
747D
100
AcDbEntity
  8
細線
 48
50.0
100
AcDbLine
 10
14018.82958360308
 20
5308.5
 30
0.0
 11
13746.82958360308
 21
5308.5
 31
0.0
  0
LINE
  5
1C8AA
330
747D
100
AcDbEntity
  8
細線
 48
50.0
100
AcDbLine
 10
14003.82958360308
 20
5319.5
 30
0.0
 11
13761.82958360308
 21
5319.5
 31
0.0
  0
ARC
  5
1C8AB
330
747D
100
AcDbEntity
  8
細線
 48
50.0
100
AcDbCircle
 10
13746.82958360308
 20
5395.500036981837
 30
0.0
 40
10.0
100
AcDbArc
 50
90.0
 51
180.0
  0
ARC
  5
1C8AC
330
747D
100
AcDbEntity
  8
細線
 48
50.0
100
AcDbCircle
 10
13746.82958360308
 20
5318.5
 30
0.0
 40
10.0
100
AcDbArc
 50
180.0
 51
270.0
  0
LINE
  5
1C8AD
330
747D
100
AcDbEntity
  8
細線
 48
50.0
100
AcDbLine
 10
13736.82958360308
 20
5395.500036981837
 30
0.0
 11
13736.82958360308
 21
5318.5
 31
0.0
  0
LINE
  5
1C8AE
330
747D
100
AcDbEntity
  8
細線
 48
50.0
100
AcDbLine
 10
13922.82958360308
 20
5319.5
 30
0.0
 11
13922.82958360308
 21
5390.5
 31
0.0
  0
LINE
  5
1C8AF
330
747D
100
AcDbEntity
  8
細線
 48
50.0
100
AcDbLine
 10
13761.82958360308
 20
5308.5
 30
0.0
 11
13761.82958360308
 21
5309.0
 31
0.0
  0
LINE
  5
1C8B0
330
747D
100
AcDbEntity
  8
細線
 48
50.0
100
AcDbLine
 10
13842.82958360308
 20
5319.5
 30
0.0
 11
13842.82958360308
 21
5390.5
 31
0.0
  0
LINE
  5
1C8B1
330
747D
100
AcDbEntity
  8
細線
 48
50.0
100
AcDbLine
 10
13761.82958360308
 20
5405.500036981838
 30
0.0
 11
13761.82958360308
 21
5308.5
 31
0.0
  0
ARC
  5
1C8B2
330
747D
100
AcDbEntity
  8
細線
 48
50.0
100
AcDbCircle
 10
14018.82958360308
 20
5395.500036981837
 30
0.0
 40
10.0
100
AcDbArc
 50
359.9999999999998
 51
90.0
  0
ARC
  5
1C8B3
330
747D
100
AcDbEntity
  8
細線
 48
50.0
100
AcDbCircle
 10
14018.82958360308
 20
5318.5
 30
0.0
 40
10.0
100
AcDbArc
 50
270.0
 51
359.9999999999998
  0
LINE
  5
1C8B4
330
747D
100
AcDbEntity
  8
細線
 48
50.0
100
AcDbLine
 10
14003.82958360308
 20
5308.5
 30
0.0
 11
14003.82958360308
 21
5309.0
 31
0.0
  0
LINE
  5
1C8B5
330
747D
100
AcDbEntity
  8
細線
 48
50.0
100
AcDbLine
 10
14003.82958360308
 20
5405.500036981838
 30
0.0
 11
14003.82958360308
 21
5308.5
 31
0.0
  0
LINE
  5
1C8B6
330
747D
100
AcDbEntity
  8
細線
 48
50.0
100
AcDbLine
 10
14028.82958360308
 20
5395.500036981837
 30
0.0
 11
14028.82958360308
 21
5318.5
 31
0.0
  0
LINE
  5
1C8B7
330
747D
100
AcDbEntity
  8
細線
 48
50.0
100
AcDbLine
 10
14549.82957923326
 20
5410.000001569558
 30
0.0
 11
14549.82957923326
 21
5545.0
 31
0.0
  0
ARC
  5
1C8B8
330
747D
100
AcDbEntity
  8
部品1
100
AcDbCircle
 10
14572.32958360308
 20
5509.000002624809
 30
0.0
 40
15.5
100
AcDbArc
 50
356.0206219081619
 51
89.99999999999968
  0
ARC
  5
1C8B9
330
747D
100
AcDbEntity
  8
部品1
100
AcDbCircle
 10
14563.51364406119
 20
5425.50000156956
 30
0.0
 40
15.5
100
AcDbArc
 50
270.0
 51
356.0206219081603
  0
ARC
  5
1C8BA
330
747D
100
AcDbEntity
  8
部品1
100
AcDbCircle
 10
14581.77090693633
 20
5428.572828826122
 30
0.0
 40
2.5
100
AcDbArc
 50
96.92609190592689
 51
176.0206219081971
  0
LINE
  5
1C8BB
330
747D
100
AcDbEntity
  8
部品1
100
AcDbLine
 10
14579.2769342053
 20
5428.746322390583
 30
0.0
 11
14578.97627499354
 21
5424.424341469881
 31
0.0
  0
ARC
  5
1C8BC
330
747D
100
AcDbEntity
  8
部品1
100
AcDbCircle
 10
14581.32472794052
 20
5432.245828186495
 30
0.0
 40
1.199999999999999
100
AcDbArc
 50
269.9999999999997
 51
356.0206219081619
  0
LINE
  5
1C8BD
330
747D
100
AcDbEntity
  8
部品1
100
AcDbLine
 10
14587.79221453543
 20
5507.92434252513
 30
0.0
 11
14582.52183485141
 21
5432.162551275553
 31
0.0
  0
ARC
  5
1C8BE
330
747D
100
AcDbEntity
  8
部品1
100
AcDbCircle
 10
14570.2294476843
 20
5526.000002624811
 30
0.0
 40
1.5
100
AcDbArc
 50
202.5000043608516
 51
269.9999999999997
  0
LINE
  5
1C8BF
330
747D
100
AcDbEntity
  8
部品1
100
AcDbLine
 10
14568.84362842922
 20
5525.425977370787
 30
0.0
 11
14561.63075425538
 21
5542.839392276281
 31
0.0
  0
ARC
  5
1C8C0
330
747D
100
AcDbEntity
  8
部品1
100
AcDbCircle
 10
14558.39717599354
 20
5541.500000016893
 30
0.0
 40
3.5
100
AcDbArc
 50
22.50000436084501
 51
90.0
  0
DIMENSION
  5
1C8C1
330
747D
100
AcDbEntity
  8
寸法
 48
50.0
100
AcDbDimension
  2
*D19
 10
14432.82958360308
 20
2612.358857715331
 30
0.0
 11
14145.86600092591
 21
2612.358857715331
 31
0.0
 12
-7209.213972087439
 22
-1030.720159777917
 32
0.0
 70
   160
 71
     5
 42
-1.0
  3
INABA_S50G
100
AcDbAlignedDimension
 13
14632.82958360308
 23
2939.999999999999
 33
0.0
 14
14432.82958360308
 24
2939.999999999999
 34
0.0
100
AcDbRotatedDimension
  0
DIMENSION
  5
1C932
330
747D
100
AcDbEntity
  8
寸法
 48
50.0
100
AcDbDimension
  2
*D26
 10
15532.97132641338
 20
3341.999999999999
 30
0.0
 11
15532.97132641338
 21
2978.697597487494
 31
0.0
 12
-19664.27373175847
 22
0.000000000043201
 32
0.0
 70
   160
 71
     5
 42
-1.0
  3
INABA_S50G
100
AcDbAlignedDimension
 13
14532.82958360308
 23
3274.999999999999
 33
0.0
 14
14532.82958360308
 24
3341.999999999999
 34
0.0
 50
90.0
100
AcDbRotatedDimension
  0
DIMENSION
  5
1C933
330
747D
100
AcDbEntity
  8
寸法
 48
50.0
100
AcDbDimension
  2
*D27
 10
15178.93453543463
 20
5130.0
 30
0.0
 11
15078.93453543463
 21
4595.000000000003
 31
0.0
 70
    32
 71
     5
 42
-1.0
  3
INABA_S50G
100
AcDbAlignedDimension
 13
14462.82958360308
 23
4059.999999999999
 33
0.0
 14
14462.82958360308
 24
5130.0
 34
0.0
 50
90.0
100
AcDbRotatedDimension
1001
ACAD
1000
DSTYLE
1002
{
1070
   287
1070
     4
1070
    75
1070
     1
1070
   279
1070
     1
1002
}
  0
DIMENSION
  5
1C934
330
747D
100
AcDbEntity
  8
寸法
 48
50.0
100
AcDbDimension
  2
*D24
 10
15178.93453543463
 20
4059.999999999999
 30
0.0
 11
15078.93453543463
 21
3667.499999999999
 31
0.0
 12
-19664.27373175847
 22
0.000000000043201
 32
0.0
 70
    32
 71
     5
 42
-1.0
  3
INABA_S50G
100
AcDbAlignedDimension
 13
14532.82958360308
 23
3274.999999999999
 33
0.0
 14
14462.82958360308
 24
4059.999999999999
 34
0.0
 50
90.0
100
AcDbRotatedDimension
  0
DIMENSION
  5
1C935
330
747D
100
AcDbEntity
  8
寸法
 48
50.0
100
AcDbDimension
  2
*D25
 10
15532.97132641338
 20
5302.0
 30
0.0
 11
15432.97132641338
 21
4322.000000000002
 31
0.0
 70
    32
  1
内高 <>
 71
     5
 42
-1.0
  3
INABA_S50G
100
AcDbAlignedDimension
 13
14532.82958360308
 23
3341.999999999999
 33
0.0
 14
14532.82958360308
 24
5302.0
 34
0.0
 50
90.0
100
AcDbRotatedDimension
1001
ACAD
1000
DSTYLE
1002
{
1070
   287
1070
     4
1070
    75
1070
     1
1070
   279
1070
     1
1002
}
  0
LINE
  5
1C936
330
747D
100
AcDbEntity
  8
部品1
 62
     2
 48
50.0
100
AcDbLine
 10
12174.82958360308
 20
5082.5
 30
0.0
 11
12174.82958360308
 21
4059.999999999999
 31
0.0
  0
LINE
  5
1C937
330
747D
100
AcDbEntity
  8
部品1
 62
     2
 48
50.0
100
AcDbLine
 10
12201.82958360308
 20
5082.5
 30
0.0
 11
12201.82958360308
 21
4103.0
 31
0.0
  0
LINE
  5
1C938
330
747D
100
AcDbEntity
  8
部品1
 62
     2
 48
50.0
100
AcDbLine
 10
13857.82958141817
 20
5082.5
 30
0.0
 11
13857.82958141817
 21
4103.0
 31
0.0
  0
LINE
  5
1C939
330
747D
100
AcDbEntity
  8
部品1
 62
     2
 48
50.0
100
AcDbLine
 10
14430.82958360308
 20
5082.5
 30
0.0
 11
14430.82958360308
 21
4059.999999999999
 31
0.0
  0
LINE
  5
1C93A
330
747D
100
AcDbEntity
  8
部品1
 62
     2
 48
50.0
100
AcDbLine
 10
14403.82958360308
 20
5082.5
 30
0.0
 11
14403.82958360308
 21
4103.0
 31
0.0
  0
LINE
  5
1C93B
330
747D
100
AcDbEntity
  8
部品1
 62
     2
 48
50.0
100
AcDbLine
 10
13881.82958141817
 20
5082.5
 30
0.0
 11
13881.82958141817
 21
4103.0
 31
0.0
  0
LINE
  5
1C93C
330
747D
100
AcDbEntity
  8
部品1
 62
     2
 48
50.0
100
AcDbLine
 10
12201.82958360308
 20
4146.0
 30
0.0
 11
12723.82958170944
 21
4146.0
 31
0.0
  0
LINE
  5
1C93D
330
747D
100
AcDbEntity
  8
部品1
 62
     2
 48
50.0
100
AcDbLine
 10
12747.82958170944
 20
4112.0
 30
0.0
 11
13857.82958141816
 21
4112.0
 31
0.0
  0
LINE
  5
1C93E
330
747D
100
AcDbEntity
  8
部品1
 62
     2
 48
50.0
100
AcDbLine
 10
12142.82958360308
 20
4059.999999999999
 30
0.0
 11
14462.82958360308
 21
4059.999999999999
 31
0.0
  0
LINE
  5
1C93F
330
747D
100
AcDbEntity
  8
部品1
 62
     2
 48
50.0
100
AcDbLine
 10
12174.82958360308
 20
4091.999999999999
 30
0.0
 11
14430.82958360308
 21
4091.999999999999
 31
0.0
  0
LINE
  5
1C940
330
747D
100
AcDbEntity
  8
部品1
 62
     2
 48
50.0
100
AcDbLine
 10
12174.82958360308
 20
4103.0
 30
0.0
 11
12199.15458360308
 21
4103.0
 31
0.0
  0
LINE
  5
1C942
330
747D
100
AcDbEntity
  8
部品1
 62
     2
 48
50.0
100
AcDbLine
 10
13857.82958141816
 20
4103.0
 30
0.0
 11
14430.82958360308
 21
4103.0
 31
0.0
  0
LINE
  5
1C943
330
747D
100
AcDbEntity
  8
部品1
 62
     2
 48
50.0
100
AcDbLine
 10
13881.82958141816
 20
4146.0
 30
0.0
 11
14403.82958360308
 21
4146.0
 31
0.0
  0
LINE
  5
1C944
330
747D
100
AcDbEntity
  8
部品1
 62
     2
 48
50.0
100
AcDbLine
 10
12201.82958360308
 20
5052.5
 30
0.0
 11
12723.82958170944
 21
5052.5
 31
0.0
  0
LINE
  5
1C945
330
747D
100
AcDbEntity
  8
部品1
 62
     2
 48
50.0
100
AcDbLine
 10
12142.82958360308
 20
5112.0
 30
0.0
 11
14462.82958360308
 21
5112.0
 31
0.0
  0
LINE
  5
1C946
330
747D
100
AcDbEntity
  8
部品1
 62
     2
 48
50.0
100
AcDbLine
 10
12142.82958360308
 20
5130.0
 30
0.0
 11
14462.82958360308
 21
5130.0
 31
0.0
  0
LINE
  5
1C947
330
747D
100
AcDbEntity
  8
部品1
 62
     2
 48
50.0
100
AcDbLine
 10
12142.82958360308
 20
5082.5
 30
0.0
 11
14462.82958360308
 21
5082.5
 31
0.0
  0
LINE
  5
1C948
330
747D
100
AcDbEntity
  8
部品1
 62
     2
 48
50.0
100
AcDbLine
 10
13881.82958141816
 20
5052.5
 30
0.0
 11
14403.82958360308
 21
5052.5
 31
0.0
  0
LINE
  5
1C949
330
747D
100
AcDbEntity
  8
部品1
 48
50.0
100
AcDbLine
 10
13302.82958360308
 20
4059.999999999999
 30
0.0
 11
13302.82958360308
 21
3330.0
 31
0.0
  0
LINE
  5
1C94A
330
747D
100
AcDbEntity
  8
部品1
 48
50.0
100
AcDbLine
 10
13882.82958360308
 20
4059.999999999999
 30
0.0
 11
13882.82958360308
 21
3330.0
 31
0.0
  0
LINE
  5
1C9AE
330
747D
100
AcDbEntity
  8
細線
 48
50.0
100
AcDbLine
 10
14188.82958141816
 20
9290.736797361908
 30
0.0
 11
14188.82958141816
 21
11629.73679736193
 31
0.0
  0
LINE
  5
1C9AF
330
747D
100
AcDbEntity
  8
細線
 48
50.0
100
AcDbLine
 10
13608.82958141816
 20
9290.736797361908
 30
0.0
 11
13608.82958141816
 21
11629.73679736193
 31
0.0
  0
LINE
  5
1C9B0
330
747D
100
AcDbEntity
  8
細線
 48
50.0
100
AcDbLine
 10
12448.82958141816
 20
9290.736797361908
 30
0.0
 11
12448.82958141816
 21
11629.73679736193
 31
0.0
  0
LINE
  5
1C9B1
330
747D
100
AcDbEntity
  8
細線
 48
50.0
100
AcDbLine
 10
13028.82958141816
 20
9290.736797361908
 30
0.0
 11
13028.82958141815
 21
11629.73679736193
 31
0.0
  0
LINE
  5
1C9DC
330
747D
100
AcDbEntity
  8
部品1
 62
     2
 48
50.0
100
AcDbLine
 10
13308.82958141817
 20
9262.036797361913
 30
0.0
 11
13308.82958141817
 21
9285.036797361897
 31
0.0
  0
LINE
  5
1C9DD
330
747D
100
AcDbEntity
  8
部品1
 62
     2
 48
50.0
100
AcDbLine
 10
13296.82958141817
 20
9262.036797361913
 30
0.0
 11
13296.82958141817
 21
9285.036797361897
 31
0.0
  0
LINE
  5
1C9DF
330
747D
100
AcDbEntity
  8
部品1
 62
     2
 48
50.0
100
AcDbLine
 10
13275.82958141817
 20
9273.536797361911
 30
0.0
 11
12741.82958141817
 21
9273.536797361911
 31
0.0
  0
LINE
  5
1C9E2
330
747D
100
AcDbEntity
  8
部品1
 62
     2
 48
50.0
100
AcDbLine
 10
13269.82958141817
 20
9262.036797361913
 30
0.0
 11
13269.82958141817
 21
9285.036797361913
 31
0.0
  0
LINE
  5
1C9E3
330
747D
100
AcDbEntity
  8
部品1
 62
     2
 48
50.0
100
AcDbLine
 10
12747.82958141817
 20
9262.036797361899
 30
0.0
 11
12747.82958141817
 21
9285.036797361897
 31
0.0
  0
LINE
  5
1C9E4
330
747D
100
AcDbEntity
  8
部品1
 62
     2
 48
50.0
100
AcDbLine
 10
12723.82958141817
 20
9262.036797361913
 30
0.0
 11
12723.82958141817
 21
9285.036797361897
 31
0.0
  0
LINE
  5
1C9E5
330
747D
100
AcDbEntity
  8
部品1
 62
     2
 48
50.0
100
AcDbLine
 10
12729.82958141817
 20
9240.236797361909
 30
0.0
 11
12195.82958141817
 21
9240.236797361909
 31
0.0
  0
LINE
  5
1C9E6
330
747D
100
AcDbEntity
  8
部品1
 62
     2
 48
50.0
100
AcDbLine
 10
12747.82958141817
 20
9251.73679736191
 30
0.0
 11
12174.82958141817
 21
9251.73679736191
 31
0.0
  0
LINE
  5
1C9E7
330
747D
100
AcDbEntity
  8
部品1
 62
     2
 48
50.0
100
AcDbLine
 10
12723.82958141817
 20
9228.736797361909
 30
0.0
 11
12723.82958141817
 21
9251.73679736191
 31
0.0
  0
LINE
  5
1C9E8
330
747D
100
AcDbEntity
  8
部品1
 62
     2
 48
50.0
100
AcDbLine
 10
12747.82958141817
 20
9228.736797361909
 30
0.0
 11
12747.82958141817
 21
9251.73679736191
 31
0.0
  0
LINE
  5
1C9E9
330
747D
100
AcDbEntity
  8
部品1
 62
     2
 48
50.0
100
AcDbLine
 10
12201.82958141817
 20
9228.736797361909
 30
0.0
 11
12201.82958141817
 21
9251.73679736191
 31
0.0
  0
LINE
  5
1C9ED
330
747D
100
AcDbEntity
  8
部品1
 62
     2
 48
50.0
100
AcDbLine
 10
13335.82958141817
 20
5082.5
 30
0.0
 11
13335.82958141817
 21
4112.0
 31
0.0
  0
LINE
  5
1C9EE
330
747D
100
AcDbEntity
  8
部品1
 62
     2
 48
50.0
100
AcDbLine
 10
13335.82958141817
 20
5052.5
 30
0.0
 11
13857.82958141817
 21
5052.5
 31
0.0
  0
LINE
  5
1C9EF
330
747D
100
AcDbEntity
  8
部品1
 62
     2
 48
50.0
100
AcDbLine
 10
13335.82958141817
 20
4146.0
 30
0.0
 11
13857.82958141817
 21
4146.0
 31
0.0
  0
LINE
  5
1C9F0
330
747D
100
AcDbEntity
  8
部品1
 62
     2
 48
50.0
100
AcDbLine
 10
13296.82958141817
 20
5082.5
 30
0.0
 11
13296.82958141817
 21
4112.0
 31
0.0
  0
LINE
  5
1C9F1
330
747D
100
AcDbEntity
  8
部品1
 62
     2
 48
50.0
100
AcDbLine
 10
13269.82958141817
 20
5082.5
 30
0.0
 11
13269.82958141817
 21
4112.0
 31
0.0
  0
LINE
  5
1C9F2
330
747D
100
AcDbEntity
  8
部品1
 62
     2
 48
50.0
100
AcDbLine
 10
12747.82958170944
 20
5082.5
 30
0.0
 11
12747.82958170944
 21
4103.0
 31
0.0
  0
LINE
  5
1C9F3
330
747D
100
AcDbEntity
  8
部品1
 62
     2
 48
50.0
100
AcDbLine
 10
12723.82958170943
 20
5082.5
 30
0.0
 11
12723.82958170943
 21
4103.0
 31
0.0
  0
LINE
  5
1C9F4
330
747D
100
AcDbEntity
  8
部品1
 62
     2
 48
50.0
100
AcDbLine
 10
12747.82958170944
 20
5052.5
 30
0.0
 11
13269.82958141816
 21
5052.499999999999
 31
0.0
  0
LINE
  5
1C9F5
330
747D
100
AcDbEntity
  8
部品1
 62
     2
 48
50.0
100
AcDbLine
 10
12747.82958170944
 20
4146.0
 30
0.0
 11
13269.82958141816
 21
4145.999999999999
 31
0.0
  0
LINE
  5
1C9F6
330
747D
100
AcDbEntity
  8
部品1
 62
     2
 48
50.0
100
AcDbLine
 10
12174.82957952452
 20
4103.0
 30
0.0
 11
12747.82958170944
 21
4103.0
 31
0.0
  0
LINE
  5
1C9FA
330
747D
100
AcDbEntity
  8
部品1
 62
     2
 48
50.0
100
AcDbLine
 10
13308.82958141817
 20
5082.5
 30
0.0
 11
13308.82958141817
 21
4112.0
 31
0.0
  0
LINE
  5
1CD4D
330
747D
100
AcDbEntity
  8
部品1
 48
50.0
100
AcDbLine
 10
14532.82958141817
 20
10458.73679736193
 30
0.0
 11
14497.82958141817
 21
10458.73679736192
 31
0.0
  0
LINE
  5
1CD4E
330
747D
100
AcDbEntity
  8
部品1
 48
50.0
100
AcDbLine
 10
14497.82958141817
 20
10440.73679736192
 30
0.0
 11
14482.82958141817
 21
10440.73679736192
 31
0.0
  0
LINE
  5
1CD4F
330
747D
100
AcDbEntity
  8
部品1
 48
50.0
100
AcDbLine
 10
14497.82958141817
 20
10476.73679736192
 30
0.0
 11
14482.82958141817
 21
10476.73679736192
 31
0.0
  0
LINE
  5
1CD50
330
747D
100
AcDbEntity
  8
部品1
 48
50.0
100
AcDbLine
 10
12072.82958141817
 20
10458.73679736193
 30
0.0
 11
12107.82958141817
 21
10458.73679736192
 31
0.0
  0
LINE
  5
1CD51
330
747D
100
AcDbEntity
  8
部品1
 48
50.0
100
AcDbLine
 10
12107.82958141817
 20
10476.73679736192
 30
0.0
 11
12122.82958141817
 21
10476.73679736192
 31
0.0
  0
LINE
  5
1CD52
330
747D
100
AcDbEntity
  8
部品1
 48
50.0
100
AcDbLine
 10
12107.82958141817
 20
10440.73679736192
 30
0.0
 11
12122.82958141817
 21
10440.73679736192
 31
0.0
  0
LINE
  5
1CE49
330
747D
100
AcDbEntity
  8
部品1
 62
     2
 48
50.0
100
AcDbLine
 10
12022.82958360308
 20
3275.0
 30
0.0
 11
12022.82958360308
 21
5164.0
 31
0.0
  0
LINE
  5
1CE4A
330
747D
100
AcDbEntity
  8
部品1
 62
     2
 48
50.0
100
AcDbLine
 10
12022.82958360308
 20
5164.0
 30
0.0
 11
12072.82958360308
 21
5170.0
 31
0.0
  0
DIMENSION
  5
1CE4B
330
747D
100
AcDbEntity
  8
寸法
 48
50.0
100
AcDbDimension
  2
*D28
 10
12022.82958360308
 20
2840.691229236385
 30
0.0
 11
11790.27052848497
 21
2840.691229236385
 31
0.0
 12
924.8210564885267
 22
7904.153781328314
 32
0.0
 70
   160
 71
     5
 42
-1.0
  3
INABA_S50G
100
AcDbAlignedDimension
 13
12072.82958360308
 23
3140.0
 33
0.0
 14
12022.82958360308
 24
3275.0
 34
0.0
100
AcDbRotatedDimension
  0
LINE
  5
1CE4C
330
747D
100
AcDbEntity
  8
部品1
 62
     2
 48
50.0
100
AcDbLine
 10
12072.82958360308
 20
3275.0
 30
0.0
 11
12022.82958360308
 21
3275.0
 31
0.0
  0
LINE
  5
1CE5B
330
747D
100
AcDbEntity
  8
部品1
 48
50.0
100
AcDbLine
 10
12704.82958141816
 20
11653.73679736229
 30
0.0
 11
12704.82958141816
 21
11638.73679736229
 31
0.0
  0
LINE
  5
1CE5C
330
747D
100
AcDbEntity
  8
部品1
 48
50.0
100
AcDbLine
 10
12722.82958141816
 20
11653.73679736229
 30
0.0
 11
12722.82958141817
 21
11688.73679736229
 31
0.0
  0
LINE
  5
1CE5D
330
747D
100
AcDbEntity
  8
部品1
 48
50.0
100
AcDbLine
 10
12740.82958141816
 20
11653.73679736229
 30
0.0
 11
12740.82958141816
 21
11638.73679736229
 31
0.0
  0
DIMENSION
  5
1CFC6
330
747D
100
AcDbEntity
  8
寸法
 48
50.0
100
AcDbDimension
  2
*D29
 10
5564.329581418177
 20
2653.952670699625
 30
0.0
 11
5851.293164095341
 21
2653.952670699625
 31
0.0
 12
7595.423970363242
 22
-6114.651372360506
 32
0.0
 70
   160
 71
     5
 42
-1.0
  3
INABA_S50G
100
AcDbAlignedDimension
 13
5364.329581418175
 23
2940.000000000002
 33
0.0
 14
5564.329581418177
 24
2940.000000000002
 34
0.0
100
AcDbRotatedDimension
  0
DIMENSION
  5
1CFC7
330
747D
100
AcDbEntity
  8
寸法
 48
50.0
100
AcDbDimension
  2
*D30
 10
4965.994446424296
 20
3140.0
 30
0.0
 11
4965.994446424296
 21
2653.036417322837
 31
0.0
 12
7595.423970363242
 22
-6114.651372360506
 32
0.0
 70
   160
 71
     5
 42
-1.0
  3
INABA_S50G
100
AcDbAlignedDimension
 13
5364.329581418177
 23
2940.000000000002
 33
0.0
 14
5364.329581418175
 24
3140.0
 34
0.0
 50
270.0
100
AcDbRotatedDimension
  0
LINE
  5
1CFCD
330
747D
100
AcDbEntity
  8
部品1
 48
50.0
100
AcDbLine
 10
7812.829581418175
 20
3330.0
 30
0.0
 11
6652.829581418174
 21
3330.0
 31
0.0
  0
LINE
  5
1CFCE
330
747D
100
AcDbEntity
  8
部品1
 48
50.0
100
AcDbLine
 10
7882.829581418175
 20
5275.0
 30
0.0
 11
5422.829581418173
 21
5275.0
 31
0.0
  0
DIMENSION
  5
1CFCF
330
747D
100
AcDbEntity
  8
寸法
 48
50.0
100
AcDbDimension
  2
*D31
 10
5422.829581418175
 20
6238.281130716521
 30
0.0
 11
6652.829581418176
 21
6338.295894496049
 31
0.0
 70
    32
  1
柱外寸法 <>
 71
     5
 42
-1.0
  3
INABA_S50G
100
AcDbAlignedDimension
 13
7882.829581418177
 23
5542.14094961178
 33
0.0
 14
5422.829581418175
 24
5487.903495449067
 34
0.0
100
AcDbRotatedDimension
1001
ACAD
1000
DSTYLE
1002
{
1070
   287
1070
     4
1070
    75
1070
     1
1070
   279
1070
     1
1002
}
  0
DIMENSION
  5
1CFD0
330
747D
100
AcDbEntity
  8
寸法
 48
50.0
100
AcDbDimension
  2
*D32
 10
5327.829581418175
 20
6506.068854554546
 30
0.0
 11
6672.829581418175
 21
6606.083618334072
 31
0.0
 12
7595.423970363242
 22
-6114.651372360506
 32
0.0
 70
    32
 71
     5
 42
-1.0
  3
INABA_S50G
100
AcDbAlignedDimension
 13
8017.829581418174
 23
5545.0
 33
0.0
 14
5327.829581418175
 24
5485.0
 34
0.0
100
AcDbRotatedDimension
  0
LINE
  5
1CFD1
330
747D
100
AcDbEntity
  8
部品1
 48
50.0
100
AcDbLine
 10
7988.313373122109
 20
5544.466629415621
 30
0.0
 11
5353.156550223031
 21
5486.367362182473
 31
0.0
  0
LINE
  5
1CFD2
330
747D
100
AcDbEntity
  8
細線
 48
50.0
100
AcDbLine
 10
5345.921491990761
 20
5476.025833613869
 30
0.0
 11
7999.638533824349
 21
5526.929326860823
 31
0.0
  0
LINE
  5
1CFD3
330
747D
100
AcDbEntity
  8
部品1
 48
50.0
100
AcDbLine
 10
5355.540699733719
 20
5360.921243435219
 30
0.0
 11
7996.818698356841
 21
5412.16034061977
 31
0.0
  0
LINE
  5
1CFD4
330
747D
100
AcDbEntity
  8
細線
 48
50.0
100
AcDbLine
 10
5337.269963592653
 20
5380.746404000587
 30
0.0
 11
8014.195393715985
 21
5432.315572311723
 31
0.0
  0
LINE
  5
1CFD5
330
747D
100
AcDbEntity
  8
部品1
 48
50.0
100
AcDbLine
 10
7820.329581418177
 20
3275.0
 30
0.0
 11
5485.329581418175
 21
3275.0
 31
0.0
  0
LINE
  5
1CFD6
330
747D
100
AcDbEntity
  8
部品1
 48
50.0
100
AcDbLine
 10
7232.829581418174
 20
5275.0
 30
0.0
 11
7232.829581418174
 21
3330.0
 31
0.0
  0
LINE
  5
1CFD7
330
747D
100
AcDbEntity
  8
部品1
 48
50.0
100
AcDbLine
 10
7812.829581418175
 20
5275.0
 30
0.0
 11
7812.829581418175
 21
3275.0
 31
0.0
  0
DIMENSION
  5
1CFD8
330
747D
100
AcDbEntity
  8
寸法
 48
50.0
100
AcDbDimension
  2
*D33
 10
8916.995501716565
 20
3275.0
 30
0.0
 11
8816.980737937038
 21
4410.0
 31
0.0
 12
7595.423970363242
 22
-6114.651372360506
 32
0.0
 70
    32
 71
     5
 42
-1.0
  3
INABA_S50G
100
AcDbAlignedDimension
 13
8017.829581418176
 23
5545.0
 33
0.0
 14
7882.829581418175
 24
3275.0
 34
0.0
 50
270.0
100
AcDbRotatedDimension
  0
LINE
  5
1CFD9
330
747D
100
AcDbEntity
  8
部品1
 48
50.0
100
AcDbLine
 10
7882.829581418178
 20
5409.949024944613
 30
0.0
 11
7882.829581418175
 21
3140.0
 31
0.0
  0
DIMENSION
  5
1CFDB
330
747D
100
AcDbEntity
  8
寸法
 48
50.0
100
AcDbDimension
  2
*D34
 10
8608.949297310765
 20
5275.0
 30
0.0
 11
8508.949297310762
 21
4302.500000000001
 31
0.0
 70
    32
 71
     5
 42
-1.0
  3
INABA_S50G
100
AcDbAlignedDimension
 13
7882.829581418175
 23
3330.0
 33
0.0
 14
7882.829581418175
 24
5275.0
 34
0.0
 50
270.0
100
AcDbRotatedDimension
1001
ACAD
1000
DSTYLE
1002
{
1070
   287
1070
     4
1070
    75
1070
     1
1070
   279
1070
     1
1002
}
  0
DIMENSION
  5
1CFDD
330
747D
100
AcDbEntity
  8
寸法
 48
50.0
100
AcDbDimension
  2
*D35
 10
8608.949297310765
 20
3330.0
 30
0.0
 11
8608.949297310765
 21
2964.420494177466
 31
0.0
 12
7595.423970363242
 22
-6114.651372360506
 32
0.0
 70
   160
 71
     5
 42
-1.0
  3
INABA_S50G
100
AcDbAlignedDimension
 13
7882.829581418175
 23
3275.0
 33
0.0
 14
7882.829581418175
 24
3330.0
 34
0.0
 50
270.0
100
AcDbRotatedDimension
  0
LINE
  5
1CFDE
330
747D
100
AcDbEntity
  8
破線
 48
5.0
100
AcDbLine
 10
7741.329581418174
 20
3140.000000000004
 30
0.0
 11
7741.329581418174
 21
2940.000000000002
 31
0.0
  0
LINE
  5
1CFDF
330
747D
100
AcDbEntity
  8
破線
 48
5.0
100
AcDbLine
 10
7941.329581418173
 20
3140.000000000004
 30
0.0
 11
7941.329581418173
 21
2940.000000000002
 31
0.0
  0
LINE
  5
1CFE0
330
747D
100
AcDbEntity
  8
破線
 48
5.0
100
AcDbLine
 10
7820.329581418175
 20
3140.0
 30
0.0
 11
7820.329581418173
 21
3030.0
 31
0.0
  0
LINE
  5
1CFE1
330
747D
100
AcDbEntity
  8
破線
 48
5.0
100
AcDbLine
 10
7862.329581418174
 20
3140.0
 30
0.0
 11
7862.329581418173
 21
3030.0
 31
0.0
  0
LINE
  5
1CFE2
330
747D
100
AcDbEntity
  8
破線
 48
5.0
100
AcDbLine
 10
7741.329581418174
 20
2940.000000000002
 30
0.0
 11
7941.329581418175
 21
2940.000000000002
 31
0.0
  0
LINE
  5
1CFE3
330
747D
100
AcDbEntity
  8
破線
 48
5.0
100
AcDbLine
 10
7862.329581418173
 20
3030.0
 30
0.0
 11
7820.329581418173
 21
3030.0
 31
0.0
  0
LINE
  5
1CFE4
330
747D
100
AcDbEntity
  8
部品1
 48
50.0
100
AcDbLine
 10
7882.829581418175
 20
3275.0
 30
0.0
 11
7862.329581418177
 21
3275.0
 31
0.0
  0
LINE
  5
1CFE5
330
747D
100
AcDbEntity
  8
部品1
 48
50.0
100
AcDbLine
 10
7862.329581418174
 20
3310.000000000001
 30
0.0
 11
7862.329581418174
 21
3140.0
 31
0.0
  0
LINE
  5
1CFE6
330
747D
100
AcDbEntity
  8
部品1
 48
50.0
100
AcDbLine
 10
7820.329581418177
 20
3310.0
 30
0.0
 11
7820.329581418175
 21
3140.0
 31
0.0
  0
LINE
  5
1CFE7
330
747D
100
AcDbEntity
  8
部品1
 48
50.0
100
AcDbLine
 10
7857.329581418174
 20
3315.000000000002
 30
0.0
 11
7825.329581418177
 21
3315.0
 31
0.0
  0
ARC
  5
1CFE8
330
747D
100
AcDbEntity
  8
部品1
 48
50.0
100
AcDbCircle
 10
7825.329581418177
 20
3310.0
 30
0.0
 40
5.0
100
AcDbArc
 50
90.0
 51
180.0000000000006
  0
ARC
  5
1CFE9
330
747D
100
AcDbEntity
  8
部品1
 48
50.0
100
AcDbCircle
 10
7857.329581418174
 20
3310.000000000001
 30
0.0
 40
5.0
100
AcDbArc
 50
0.0000000000006177
 51
90.0
  0
LINE
  5
1CFEC
330
747D
100
AcDbEntity
  8
部品1
 48
50.0
100
AcDbLine
 10
7682.829581418173
 20
3275.0
 30
0.0
 11
7682.829581418174
 21
3140.0
 31
0.0
  0
LINE
  5
1CFED
330
747D
100
AcDbEntity
  8
部品1
 48
50.0
100
AcDbLine
 10
7129.829581418174
 20
3275.0
 30
0.0
 11
7129.829581418174
 21
3140.0
 31
0.0
  0
LINE
  5
1CFEE
330
747D
100
AcDbEntity
  8
部品1
 48
50.0
100
AcDbLine
 10
6929.829581418174
 20
3275.0
 30
0.0
 11
6929.829581418174
 21
3140.0
 31
0.0
  0
DIMENSION
  5
1CFF0
330
747D
100
AcDbEntity
  8
寸法
 48
50.0
100
AcDbDimension
  2
*D36
 10
7882.829581418177
 20
6238.281130716521
 30
0.0
 11
8290.936183135974
 21
6238.281130716521
 31
0.0
 12
7595.423970363242
 22
-6114.651372360506
 32
0.0
 70
   160
 71
     5
 42
-1.0
  3
INABA_S50G
100
AcDbAlignedDimension
 13
8017.829581418176
 23
5545.0
 33
0.0
 14
7882.829581418177
 24
5542.14094961178
 34
0.0
100
AcDbRotatedDimension
  0
LINE
  5
1CFF1
330
747D
100
AcDbEntity
  8
部品1
100
AcDbLine
 10
7998.251028758497
 20
5527.804810746247
 30
0.0
 11
7991.55903276836
 21
5542.423971429562
 31
0.0
  0
ARC
  5
1CFF2
330
747D
100
AcDbEntity
  8
部品1
 48
50.0
100
AcDbCircle
 10
7988.376609304374
 20
5540.9672007215
 30
0.0
 40
3.5
100
AcDbArc
 50
24.59618196436618
 51
91.03524671598787
  0
LINE
  5
1CFF3
330
747D
100
AcDbEntity
  8
部品1
 48
50.0
100
AcDbLine
 10
7999.638533824349
 20
5526.929326860823
 30
0.0
 11
8001.826151637434
 21
5526.963763203626
 31
0.0
  0
ARC
  5
1CFF4
330
747D
100
AcDbEntity
  8
部品1
100
AcDbCircle
 10
7999.614924528778
 20
5528.429141049702
 30
0.0
 40
1.5
100
AcDbArc
 50
204.5961819643761
 51
270.9018459011026
  0
LINE
  5
1CFF5
330
747D
100
AcDbEntity
  8
部品1
100
AcDbLine
 10
8017.82120977988
 20
5510.962577858223
 30
0.0
 11
8015.273355277777
 21
5433.472826441324
 31
0.0
  0
LINE
  5
1CFF6
330
747D
100
AcDbEntity
  8
部品1
100
AcDbLine
 10
8012.155581542446
 20
5429.940194712308
 30
0.0
 11
8012.063807929207
 21
5427.149017088034
 31
0.0
  0
ARC
  5
1CFF7
330
747D
100
AcDbEntity
  8
部品1
100
AcDbCircle
 10
8014.074003404612
 20
5433.512260998976
 30
0.0
 40
1.199999999999999
100
AcDbArc
 50
279.0222695094722
 51
358.1167995116895
  0
ARC
  5
1CFF8
330
747D
100
AcDbEntity
  8
部品1
100
AcDbCircle
 10
8014.654231278202
 20
5429.858039383868
 30
0.0
 40
2.5
100
AcDbArc
 50
99.02226950947451
 51
178.1167995116955
  0
ARC
  5
1CFF9
330
747D
100
AcDbEntity
  8
部品1
100
AcDbCircle
 10
7996.572179567502
 20
5427.658380124381
 30
0.0
 40
15.5
100
AcDbArc
 50
270.9112955958145
 51
358.1167995116315
  0
ARC
  5
1CFFA
330
747D
100
AcDbEntity
  8
部品1
100
AcDbCircle
 10
8002.329581418175
 20
5511.471940894555
 30
0.0
 40
15.5
100
AcDbArc
 50
358.1167995116895
 51
91.86125648319634
  0
LINE
  5
1CFFC
330
747D
100
AcDbEntity
  8
細線
 48
50.0
100
AcDbLine
 10
7979.232849440396
 20
5544.266424339623
 30
0.0
 11
7983.534207577516
 21
5411.902630028745
 31
0.0
  0
LINE
  5
1CFFD
330
747D
100
AcDbEntity
  8
部品1
 48
50.0
100
AcDbLine
 10
6652.829581418174
 20
5275.0
 30
0.0
 11
6652.829581418174
 21
3275.0
 31
0.0
  0
LINE
  5
1CFFE
330
747D
100
AcDbEntity
  8
部品1
 48
50.0
100
AcDbLine
 10
5862.829581418175
 20
5275.0
 30
0.0
 11
5862.829581418175
 21
3275.0
 31
0.0
  0
LINE
  5
1CFFF
330
747D
100
AcDbEntity
  8
部品1
 48
50.0
100
AcDbLine
 10
5492.829581418177
 20
5275.000000000002
 30
0.0
 11
5492.829581418175
 21
3275.0
 31
0.0
  0
DIMENSION
  5
1D000
330
747D
100
AcDbEntity
  8
寸法
 48
50.0
100
AcDbDimension
  2
*D37
 10
4763.338827996757
 20
5485.0
 30
0.0
 11
4663.324064217229
 21
4380.0
 31
0.0
 12
7595.423970363242
 22
-6114.651372360506
 32
0.0
 70
    32
 71
     5
 42
-1.0
  3
INABA_S50G
100
AcDbAlignedDimension
 13
5422.829581418175
 23
3275.0
 33
0.0
 14
5327.829581418175
 24
5485.0
 34
0.0
 50
270.0
100
AcDbRotatedDimension
  0
LINE
  5
1D001
330
747D
100
AcDbEntity
  8
細線
 48
5.0
100
AcDbLine
 10
5346.829581418175
 20
5232.0
 30
0.0
 11
5346.82958141818
 21
4307.500000000001
 31
0.0
  0
LINE
  5
1D002
330
747D
100
AcDbEntity
  8
細線
 48
5.0
100
AcDbLine
 10
5359.829581418175
 20
5232.0
 30
0.0
 11
5359.829581418182
 21
4307.5
 31
0.0
  0
LINE
  5
1D003
330
747D
100
AcDbEntity
  8
細線
 48
5.0
100
AcDbLine
 10
5396.829581418175
 20
5232.0
 30
0.0
 11
5396.82958141818
 21
4307.5
 31
0.0
  0
LINE
  5
1D004
330
747D
100
AcDbEntity
  8
細線
 48
5.0
100
AcDbLine
 10
5383.829581418175
 20
5232.0
 30
0.0
 11
5383.82958141818
 21
4307.5
 31
0.0
  0
LINE
  5
1D005
330
747D
100
AcDbEntity
  8
部品1
 48
50.0
100
AcDbLine
 10
5422.829581418176
 20
5362.226604533092
 30
0.0
 11
5422.829581418175
 21
3140.0
 31
0.0
  0
LINE
  5
1D006
330
747D
100
AcDbEntity
  8
細線
 48
5.0
100
AcDbLine
 10
5346.82958141818
 20
4287.5
 30
0.0
 11
5346.829581418186
 21
3363.0
 31
0.0
  0
LINE
  5
1D007
330
747D
100
AcDbEntity
  8
細線
 48
5.0
100
AcDbLine
 10
5359.829581418182
 20
4287.5
 30
0.0
 11
5359.829581418187
 21
3363.0
 31
0.0
  0
LINE
  5
1D008
330
747D
100
AcDbEntity
  8
細線
 48
5.0
100
AcDbLine
 10
5383.82958141818
 20
4287.5
 30
0.0
 11
5383.829581418186
 21
3363.0
 31
0.0
  0
LINE
  5
1D009
330
747D
100
AcDbEntity
  8
細線
 48
5.0
100
AcDbLine
 10
5396.82958141818
 20
4287.5
 30
0.0
 11
5396.829581418185
 21
3363.0
 31
0.0
  0
LINE
  5
1D00A
330
747D
100
AcDbEntity
  8
部品1
 48
50.0
100
AcDbLine
 10
6375.829581418175
 20
3275.0
 30
0.0
 11
6375.829581418175
 21
3140.0
 31
0.0
  0
LINE
  5
1D00B
330
747D
100
AcDbEntity
  8
部品1
 48
50.0
100
AcDbLine
 10
6175.829581418175
 20
3275.0
 30
0.0
 11
6175.829581418175
 21
3140.0
 31
0.0
  0
LINE
  5
1D00C
330
747D
100
AcDbEntity
  8
破線
 48
5.0
100
AcDbLine
 10
5564.329581418177
 20
2940.000000000002
 30
0.0
 11
5364.329581418175
 21
2940.000000000002
 31
0.0
  0
LINE
  5
1D00D
330
747D
100
AcDbEntity
  8
破線
 48
5.0
100
AcDbLine
 10
5564.329581418177
 20
3140.000000000004
 30
0.0
 11
5564.329581418177
 21
2940.000000000002
 31
0.0
  0
LINE
  5
1D00E
330
747D
100
AcDbEntity
  8
部品1
 48
50.0
100
AcDbLine
 10
5622.829581418177
 20
3275.0
 30
0.0
 11
5622.829581418175
 21
3140.0
 31
0.0
  0
LINE
  5
1D00F
330
747D
100
AcDbEntity
  8
破線
 48
5.0
100
AcDbLine
 10
5485.329581418175
 20
3140.0
 30
0.0
 11
5485.329581418176
 21
3030.0
 31
0.0
  0
LINE
  5
1D010
330
747D
100
AcDbEntity
  8
破線
 48
5.0
100
AcDbLine
 10
5443.329581418175
 20
3140.0
 30
0.0
 11
5443.329581418177
 21
3030.0
 31
0.0
  0
LINE
  5
1D011
330
747D
100
AcDbEntity
  8
破線
 48
5.0
100
AcDbLine
 10
5364.329581418177
 20
3140.000000000004
 30
0.0
 11
5364.329581418177
 21
2940.000000000002
 31
0.0
  0
LINE
  5
1D012
330
747D
100
AcDbEntity
  8
破線
 48
5.0
100
AcDbLine
 10
5443.329581418177
 20
3030.0
 30
0.0
 11
5485.329581418176
 21
3030.0
 31
0.0
  0
LINE
  5
1D013
330
747D
100
AcDbEntity
  8
細線
 48
5.0
100
AcDbLine
 10
5319.98524050584
 20
3243.74934418412
 30
0.0
 11
5324.375463606394
 21
3191.112019182886
 31
0.0
  0
ARC
  5
1D014
330
747D
100
AcDbEntity
  8
細線
 48
5.0
100
AcDbCircle
 10
5371.829581418183
 20
3226.09258006886
 30
0.0
 40
27.3
100
AcDbArc
 50
280.0
 51
359.9999999999999
  0
LINE
  5
1D015
330
747D
100
AcDbEntity
  8
細線
 48
5.0
100
AcDbLine
 10
5362.829581418184
 20
3269.5
 30
0.0
 11
5362.829581418184
 21
3216.376514579342
 31
0.0
  0
ARC
  5
1D016
330
747D
100
AcDbEntity
  8
細線
 48
5.0
100
AcDbCircle
 10
5325.372003440611
 20
3191.195135720452
 30
0.0
 40
1.0
100
AcDbArc
 50
184.7677271218682
 51
280.0
  0
LINE
  5
1D017
330
747D
100
AcDbEntity
  8
細線
 48
5.0
100
AcDbLine
 10
5376.570176668494
 20
3199.207328411627
 30
0.0
 11
5325.545651618274
 21
3190.210327967439
 31
0.0
  0
ARC
  5
1D018
330
747D
100
AcDbEntity
  8
細線
 48
5.0
100
AcDbCircle
 10
5345.029581418184
 20
3269.5
 30
0.0
 40
0.5
100
AcDbArc
 50
90.0
 51
179.9999999999998
  0
ARC
  5
1D019
330
747D
100
AcDbEntity
  8
細線
 48
5.0
100
AcDbCircle
 10
5320.981780340058
 20
3243.832460721685
 30
0.0
 40
1.0
100
AcDbArc
 50
100.0000000000001
 51
184.7677271218682
  0
LINE
  5
1D01A
330
747D
100
AcDbEntity
  8
細線
 48
5.0
100
AcDbLine
 10
5344.529581418185
 20
3249.0
 30
0.0
 11
5349.270176668492
 21
3222.114748342766
 31
0.0
  0
LINE
  5
1D01B
330
747D
100
AcDbEntity
  8
細線
 48
5.0
100
AcDbLine
 10
5344.529581418185
 20
3249.0
 30
0.0
 11
5320.80813216239
 21
3244.817268474697
 31
0.0
  0
LINE
  5
1D01C
330
747D
100
AcDbEntity
  8
細線
 48
5.0
100
AcDbLine
 10
5344.529581418185
 20
3269.5
 30
0.0
 11
5344.529581418185
 21
3249.0
 31
0.0
  0
LINE
  5
1D01D
330
747D
100
AcDbEntity
  8
細線
 48
5.0
100
AcDbLine
 10
5346.829581418186
 20
3343.0
 30
0.0
 11
5346.829581418184
 21
3270.0
 31
0.0
  0
ARC
  5
1D01E
330
747D
100
AcDbEntity
  8
細線
 48
5.0
100
AcDbCircle
 10
5381.329581418184
 20
3269.5
 30
0.0
 40
0.5
100
AcDbArc
 50
90.0
 51
180.0000000000001
  0
ARC
  5
1D01F
330
747D
100
AcDbEntity
  8
細線
 48
5.0
100
AcDbCircle
 10
5398.629581418187
 20
3269.5
 30
0.0
 40
0.5
100
AcDbArc
 50
359.9999999999999
 51
90.0
  0
LINE
  5
1D020
330
747D
100
AcDbEntity
  8
細線
 48
5.0
100
AcDbLine
 10
5381.329581418184
 20
3270.0
 30
0.0
 11
5398.629581418187
 21
3270.0
 31
0.0
  0
LINE
  5
1D021
330
747D
100
AcDbEntity
  8
細線
 48
5.0
100
AcDbLine
 10
5399.129581418186
 20
3269.5
 30
0.0
 11
5399.129581418186
 21
3226.09258006886
 31
0.0
  0
LINE
  5
1D022
330
747D
100
AcDbEntity
  8
細線
 48
5.0
100
AcDbLine
 10
5380.829581418184
 20
3269.5
 30
0.0
 11
5380.829581418184
 21
3219.550400232094
 31
0.0
  0
LINE
  5
1D023
330
747D
100
AcDbEntity
  8
細線
 48
5.0
100
AcDbLine
 10
5362.329581418183
 20
3270.0
 30
0.0
 11
5381.329581418184
 21
3270.0
 31
0.0
  0
ARC
  5
1D024
330
747D
100
AcDbEntity
  8
細線
 48
5.0
100
AcDbCircle
 10
5362.329581418183
 20
3269.5
 30
0.0
 40
0.5
100
AcDbArc
 50
359.9999999999998
 51
90.0
  0
LINE
  5
1D025
330
747D
100
AcDbEntity
  8
細線
 48
5.0
100
AcDbLine
 10
5383.829581418186
 20
3343.0
 30
0.0
 11
5383.829581418184
 21
3270.0
 31
0.0
  0
LINE
  5
1D026
330
747D
100
AcDbEntity
  8
細線
 48
5.0
100
AcDbLine
 10
5359.829581418185
 20
3343.0
 30
0.0
 11
5359.829581418184
 21
3270.0
 31
0.0
  0
LINE
  5
1D027
330
747D
100
AcDbEntity
  8
細線
 48
5.0
100
AcDbLine
 10
5396.829581418185
 20
3343.0
 30
0.0
 11
5396.829581418184
 21
3270.0
 31
0.0
  0
LINE
  5
1D028
330
747D
100
AcDbEntity
  8
細線
 48
5.0
100
AcDbLine
 10
5345.029581418184
 20
3270.0
 30
0.0
 11
5362.329581418183
 21
3270.0
 31
0.0
  0
LINE
  5
1D029
330
747D
100
AcDbEntity
  8
細線
 48
5.0
100
AcDbLine
 10
5398.029581418177
 20
3343.0
 30
0.0
 11
5398.029581418179
 21
3363.0
 31
0.0
  0
LINE
  5
1D02A
330
747D
100
AcDbEntity
  8
細線
 48
5.0
100
AcDbLine
 10
5345.629581418176
 20
3343.0
 30
0.0
 11
5345.629581418174
 21
3363.0
 31
0.0
  0
ARC
  5
1D02B
330
747D
100
AcDbEntity
  8
細線
 48
5.0
100
AcDbCircle
 10
5401.613616867365
 20
3340.0
 30
0.0
 40
3.0
100
AcDbArc
 50
45.87245712290256
 51
90.0000000000009
  0
LINE
  5
1D02C
330
747D
100
AcDbEntity
  8
細線
 48
5.0
100
AcDbLine
 10
5422.829581418175
 20
3323.6
 30
0.0
 11
5403.702390655738
 21
3342.153375039561
 31
0.0
  0
LINE
  5
1D02D
330
747D
100
AcDbEntity
  8
細線
 48
5.0
100
AcDbLine
 10
5401.613616867365
 20
3343.0
 30
0.0
 11
5345.629581418174
 21
3342.999999999998
 31
0.0
  0
LINE
  5
1D02E
330
747D
100
AcDbEntity
  8
細線
 48
5.0
100
AcDbLine
 10
5422.829581418178
 20
3363.0
 30
0.0
 11
5345.629581418174
 21
3363.0
 31
0.0
  0
LINE
  5
1D02F
330
747D
100
AcDbEntity
  8
部品1
 48
50.0
100
AcDbLine
 10
5443.329581418175
 20
3310.000000000001
 30
0.0
 11
5443.329581418175
 21
3140.0
 31
0.0
  0
LINE
  5
1D030
330
747D
100
AcDbEntity
  8
部品1
 48
50.0
100
AcDbLine
 10
5485.329581418173
 20
3310.0
 30
0.0
 11
5485.329581418175
 21
3140.0
 31
0.0
  0
ARC
  5
1D031
330
747D
100
AcDbEntity
  8
部品1
 48
50.0
100
AcDbCircle
 10
5448.329581418175
 20
3310.000000000001
 30
0.0
 40
5.0
100
AcDbArc
 50
90.0
 51
179.9999999999993
  0
LINE
  5
1D032
330
747D
100
AcDbEntity
  8
部品1
 48
50.0
100
AcDbLine
 10
5448.329581418175
 20
3315.000000000002
 30
0.0
 11
5480.329581418173
 21
3315.0
 31
0.0
  0
ARC
  5
1D033
330
747D
100
AcDbEntity
  8
部品1
 48
50.0
100
AcDbCircle
 10
5480.329581418173
 20
3310.0
 30
0.0
 40
5.0
100
AcDbArc
 50
359.9999999999993
 51
90.0
  0
LINE
  5
1D034
330
747D
100
AcDbEntity
  8
部品1
 48
50.0
100
AcDbLine
 10
5443.329581418175
 20
3275.0
 30
0.0
 11
5422.829581418175
 21
3275.0
 31
0.0
  0
LINE
  5
1D035
330
747D
100
AcDbEntity
  8
細線
 48
5.0
100
AcDbLine
 10
5398.029581418183
 20
4307.5
 30
0.0
 11
5345.629581418172
 21
4307.500000000001
 31
0.0
  0
LINE
  5
1D036
330
747D
100
AcDbEntity
  8
細線
 48
5.0
100
AcDbLine
 10
5398.029581418181
 20
4287.5
 30
0.0
 11
5345.629581418172
 21
4287.5
 31
0.0
  0
LINE
  5
1D037
330
747D
100
AcDbEntity
  8
細線
 48
5.0
100
AcDbLine
 10
5345.629581418174
 20
4307.5
 30
0.0
 11
5345.629581418172
 21
4287.5
 31
0.0
  0
LINE
  5
1D038
330
747D
100
AcDbEntity
  8
細線
 48
5.0
100
AcDbLine
 10
5398.029581418181
 20
4307.5
 30
0.0
 11
5398.029581418181
 21
4287.5
 31
0.0
  0
LINE
  5
1D039
330
747D
100
AcDbEntity
  8
細線
 48
5.0
100
AcDbLine
 10
5398.029581418183
 20
4307.5
 30
0.0
 11
5422.829581418178
 21
4327.499999999999
 31
0.0
  0
LINE
  5
1D03A
330
747D
100
AcDbEntity
  8
細線
 48
5.0
100
AcDbLine
 10
5398.029581418183
 20
4287.5
 30
0.0
 11
5422.829581418178
 21
4267.5
 31
0.0
  0
DIMENSION
  5
1D03B
330
747D
100
AcDbEntity
  8
寸法
 48
50.0
100
AcDbDimension
  2
*D38
 10
5327.829581418175
 20
6238.281130716521
 30
0.0
 11
4995.270526300067
 21
6238.281130716521
 31
0.0
 12
7595.423970363242
 22
-6114.651372360506
 32
0.0
 70
   160
 71
     5
 42
-1.0
  3
INABA_S50G
100
AcDbAlignedDimension
 13
5422.829581418175
 23
5487.903495449067
 33
0.0
 14
5327.829581418175
 24
5485.0
 34
0.0
100
AcDbRotatedDimension
1001
ACAD
1000
DSTYLE
1002
{
1002
}
  0
LINE
  5
1D03C
330
747D
100
AcDbEntity
  8
部品1
100
AcDbLine
 10
5327.916287634873
 20
5458.848097685024
 30
0.0
 11
5336.11472026515
 21
5381.821266955433
 31
0.0
  0
LINE
  5
1D03D
330
747D
100
AcDbEntity
  8
細線
 48
50.0
100
AcDbLine
 10
5365.188975840001
 20
5486.632650041361
 30
0.0
 11
5369.265502489794
 21
5361.187495795866
 31
0.0
  0
LINE
  5
1D03E
330
747D
100
AcDbEntity
  8
部品1
100
AcDbLine
 10
5422.829581418175
 20
5315.0
 30
0.0
 11
5422.829581418175
 21
5275.0
 31
0.0
  0
LINE
  5
1D03F
330
747D
100
AcDbEntity
  8
細線
 48
5.0
100
AcDbLine
 10
5346.829581418178
 20
5345.809238873036
 30
0.0
 11
5341.829581418171
 21
5345.809238873036
 31
0.0
  0
LINE
  5
1D040
330
747D
100
AcDbEntity
  8
細線
 48
5.0
100
AcDbLine
 10
5393.129581418178
 20
5361.650443603732
 30
0.0
 11
5393.129581418178
 21
5350.509238873037
 31
0.0
  0
LINE
  5
1D041
330
747D
100
AcDbEntity
  8
細線
 48
5.0
100
AcDbLine
 10
5341.829581418174
 20
5320.809238873036
 30
0.0
 11
5340.329581418174
 21
5320.809238873036
 31
0.0
  0
LINE
  5
1D042
330
747D
100
AcDbEntity
  8
細線
 48
5.0
100
AcDbLine
 10
5346.829581418178
 20
5335.509238873037
 30
0.0
 11
5346.829581418178
 21
5345.809238873036
 31
0.0
  0
LINE
  5
1D043
330
747D
100
AcDbEntity
  8
細線
 48
5.0
100
AcDbLine
 10
5346.829581418178
 20
5345.809238873036
 30
0.0
 11
5346.829581418178
 21
5345.809238873036
 31
0.0
  0
LINE
  5
1D044
330
747D
100
AcDbEntity
  8
細線
 48
5.0
100
AcDbLine
 10
5341.329581418175
 20
5320.809238873036
 30
0.0
 11
5341.329581418175
 21
5320.809238873036
 31
0.0
  0
ARC
  5
1D045
330
747D
100
AcDbEntity
  8
細線
 48
5.0
100
AcDbCircle
 10
5340.329581418174
 20
5319.809238873037
 30
0.0
 40
1.0
100
AcDbArc
 50
90.0
 51
180.0
  0
LINE
  5
1D046
330
747D
100
AcDbEntity
  8
細線
 48
5.0
100
AcDbLine
 10
5351.029581418179
 20
5333.009238873037
 30
0.0
 11
5351.029581418179
 21
5333.009238873037
 31
0.0
  0
ARC
  5
1D047
330
747D
100
AcDbEntity
  8
細線
 48
5.0
100
AcDbCircle
 10
5348.529581418179
 20
5333.009238873037
 30
0.0
 40
2.5
100
AcDbArc
 50
0.000000000000007
 51
90.0
  0
ARC
  5
1D048
330
747D
100
AcDbEntity
  8
細線
 48
5.0
100
AcDbCircle
 10
5353.529581418179
 20
5333.009238873037
 30
0.0
 40
2.5
100
AcDbArc
 50
180.0
 51
270.0
  0
LINE
  5
1D049
330
747D
100
AcDbEntity
  8
細線
 48
5.0
100
AcDbLine
 10
5348.529581418179
 20
5335.509238873037
 30
0.0
 11
5346.829581418178
 21
5335.509238873037
 31
0.0
  0
LINE
  5
1D04A
330
747D
100
AcDbEntity
  8
細線
 48
5.0
100
AcDbLine
 10
5341.829581418174
 20
5320.809238873036
 30
0.0
 11
5341.829581418174
 21
5345.809238873036
 31
0.0
  0
LINE
  5
1D04B
330
747D
100
AcDbEntity
  8
細線
 48
5.0
100
AcDbLine
 10
5403.329581418175
 20
5320.809238873036
 30
0.0
 11
5401.829581418175
 21
5320.809238873036
 31
0.0
  0
LINE
  5
1D04C
330
747D
100
AcDbEntity
  8
細線
 48
5.0
100
AcDbLine
 10
5402.329581418175
 20
5320.809238873036
 30
0.0
 11
5402.329581418175
 21
5320.809238873036
 31
0.0
  0
ARC
  5
1D04D
330
747D
100
AcDbEntity
  8
細線
 48
5.0
100
AcDbCircle
 10
5403.329581418175
 20
5319.809238873037
 30
0.0
 40
1.0
100
AcDbArc
 50
0.000000000000007
 51
90.0
  0
LINE
  5
1D04E
330
747D
100
AcDbEntity
  8
細線
 48
5.0
100
AcDbLine
 10
5401.829581418175
 20
5359.809238873037
 30
0.0
 11
5401.829581418175
 21
5332.809238873037
 31
0.0
  0
LINE
  5
1D04F
330
747D
100
AcDbEntity
  8
細線
 48
5.0
100
AcDbLine
 10
5401.829581418178
 20
5361.819218017383
 30
0.0
 11
5401.829581418175
 21
5320.809238873036
 31
0.0
  0
ARC
  5
1D050
330
747D
100
AcDbEntity
  8
細線
 48
5.0
100
AcDbCircle
 10
5373.129581418178
 20
5350.509238873037
 30
0.0
 40
20.0
100
AcDbArc
 50
270.0
 51
359.9999999999999
  0
LINE
  5
1D051
330
747D
100
AcDbEntity
  8
細線
 48
5.0
100
AcDbLine
 10
5373.129581418178
 20
5330.509238873037
 30
0.0
 11
5353.529581418179
 21
5330.509238873037
 31
0.0
  0
LINE
  5
1D052
330
747D
100
AcDbEntity
  8
細線
 48
5.0
100
AcDbLine
 10
5344.529581418179
 20
5300.809238873037
 30
0.0
 11
5339.818203252597
 21
5306.245444448706
 31
0.0
  0
ARC
  5
1D053
330
747D
100
AcDbEntity
  8
細線
 48
5.0
100
AcDbCircle
 10
5341.329581418175
 20
5307.555305525543
 30
0.0
 40
2.0
100
AcDbArc
 50
180.0
 51
220.9143832200251
  0
ARC
  5
1D054
330
747D
100
AcDbEntity
  8
細線
 48
5.0
100
AcDbCircle
 10
5345.029581418179
 20
5287.309238873036
 30
0.0
 40
0.5
100
AcDbArc
 50
180.0
 51
270.0
  0
LINE
  5
1D055
330
747D
100
AcDbEntity
  8
細線
 48
5.0
100
AcDbLine
 10
5346.829581418173
 20
5286.809238873036
 30
0.0
 11
5346.829581418175
 21
5252.0
 31
0.0
  0
LINE
  5
1D056
330
747D
100
AcDbEntity
  8
細線
 48
5.0
100
AcDbLine
 10
5359.829581418178
 20
5286.809238873036
 30
0.0
 11
5359.829581418175
 21
5252.0
 31
0.0
  0
LINE
  5
1D057
330
747D
100
AcDbEntity
  8
細線
 48
5.0
100
AcDbLine
 10
5344.529581418179
 20
5300.809238873037
 30
0.0
 11
5344.529581418179
 21
5287.309238873036
 31
0.0
  0
LINE
  5
1D058
330
747D
100
AcDbEntity
  8
細線
 48
5.0
100
AcDbLine
 10
5362.829581418175
 20
5290.809238873037
 30
0.0
 11
5362.829581418175
 21
5286.809238873036
 31
0.0
  0
LINE
  5
1D059
330
747D
100
AcDbEntity
  8
細線
 48
5.0
100
AcDbLine
 10
5399.129581418177
 20
5300.809238873037
 30
0.0
 11
5403.840959583757
 21
5306.245444448706
 31
0.0
  0
ARC
  5
1D05A
330
747D
100
AcDbEntity
  8
細線
 48
5.0
100
AcDbCircle
 10
5402.329581418175
 20
5307.555305525543
 30
0.0
 40
2.0
100
AcDbArc
 50
319.085616779975
 51
0.0000000000000579
  0
LINE
  5
1D05B
330
747D
100
AcDbEntity
  8
細線
 48
5.0
100
AcDbLine
 10
5377.829581418175
 20
5293.809238873037
 30
0.0
 11
5365.829581418175
 21
5293.809238873037
 31
0.0
  0
LINE
  5
1D05C
330
747D
100
AcDbEntity
  8
細線
 48
5.0
100
AcDbLine
 10
5380.829581418175
 20
5290.809238873037
 30
0.0
 11
5380.829581418175
 21
5286.809238873036
 31
0.0
  0
LINE
  5
1D05D
330
747D
100
AcDbEntity
  8
細線
 48
5.0
100
AcDbLine
 10
5383.829581418175
 20
5286.809238873036
 30
0.0
 11
5383.829581418175
 21
5252.0
 31
0.0
  0
ARC
  5
1D05E
330
747D
100
AcDbEntity
  8
細線
 48
5.0
100
AcDbCircle
 10
5377.829581418175
 20
5290.809238873037
 30
0.0
 40
3.0
100
AcDbArc
 50
0.000000000000007
 51
90.0
  0
ARC
  5
1D05F
330
747D
100
AcDbEntity
  8
細線
 48
5.0
100
AcDbCircle
 10
5398.629581418178
 20
5287.309238873036
 30
0.0
 40
0.5
100
AcDbArc
 50
270.0
 51
0.000000000000007
  0
LINE
  5
1D060
330
747D
100
AcDbEntity
  8
細線
 48
5.0
100
AcDbLine
 10
5396.82958141818
 20
5286.809238873036
 30
0.0
 11
5396.829581418175
 21
5252.0
 31
0.0
  0
LINE
  5
1D061
330
747D
100
AcDbEntity
  8
細線
 48
5.0
100
AcDbLine
 10
5399.129581418177
 20
5300.809238873037
 30
0.0
 11
5399.129581418177
 21
5287.309238873036
 31
0.0
  0
LINE
  5
1D062
330
747D
100
AcDbEntity
  8
細線
 48
5.0
100
AcDbLine
 10
5391.829581418175
 20
5310.809238873037
 30
0.0
 11
5351.829581418175
 21
5310.809238873037
 31
0.0
  0
LINE
  5
1D063
330
747D
100
AcDbEntity
  8
細線
 48
5.0
100
AcDbLine
 10
5398.629581418178
 20
5286.809238873036
 30
0.0
 11
5345.029581418179
 21
5286.809238873036
 31
0.0
  0
ARC
  5
1D064
330
747D
100
AcDbEntity
  8
細線
 48
5.0
100
AcDbCircle
 10
5365.829581418175
 20
5290.809238873037
 30
0.0
 40
3.0
100
AcDbArc
 50
90.0
 51
180.0
  0
ARC
  5
1D065
330
747D
100
AcDbEntity
  8
細線
 48
5.0
100
AcDbCircle
 10
5391.829581418175
 20
5320.809238873036
 30
0.0
 40
10.0
100
AcDbArc
 50
270.0
 51
0.000000000000007
  0
LINE
  5
1D066
330
747D
100
AcDbEntity
  8
細線
 48
5.0
100
AcDbLine
 10
5404.329581418174
 20
5319.809238873037
 30
0.0
 11
5404.329581418174
 21
5307.555305525543
 31
0.0
  0
ARC
  5
1D067
330
747D
100
AcDbEntity
  8
細線
 48
5.0
100
AcDbCircle
 10
5351.829581418175
 20
5320.809238873036
 30
0.0
 40
10.0
100
AcDbArc
 50
180.0
 51
270.0
  0
LINE
  5
1D068
330
747D
100
AcDbEntity
  8
細線
 48
5.0
100
AcDbLine
 10
5339.329581418175
 20
5319.809238873037
 30
0.0
 11
5339.329581418175
 21
5307.555305525543
 31
0.0
  0
LINE
  5
1D069
330
747D
100
AcDbEntity
  8
部品1
100
AcDbLine
 10
5339.482399800954
 20
5378.526007551112
 30
0.0
 11
5339.881238878697
 21
5374.778790062706
 31
0.0
  0
ARC
  5
1D06A
330
747D
100
AcDbEntity
  8
部品1
 48
50.0
100
AcDbCircle
 10
5337.307980296044
 20
5381.948272855598
 30
0.0
 40
1.199999999999999
100
AcDbArc
 50
186.0754638750989
 51
265.1699938773959
  0
ARC
  5
1D06B
330
747D
100
AcDbEntity
  8
部品1
 48
50.0
100
AcDbCircle
 10
5336.99644140326
 20
5378.261411925769
 30
0.0
 40
2.5
100
AcDbArc
 50
6.075463875091184
 51
85.16999387739907
  0
ARC
  5
1D06C
330
747D
100
AcDbEntity
  8
部品1
100
AcDbCircle
 10
5355.29418094438
 20
5376.419282939831
 30
0.0
 40
15.5
100
AcDbArc
 50
186.0754638750791
 51
270.9112955958145
  0
LINE
  5
1D06D
330
747D
100
AcDbEntity
  8
細線
 48
5.0
100
AcDbLine
 10
5422.829581418175
 20
5305.0
 30
0.0
 11
5405.829581418174
 21
5305.0
 31
0.0
  0
LINE
  5
1D06E
330
747D
100
AcDbEntity
  8
細線
 48
5.0
100
AcDbLine
 10
5422.829581418175
 20
5360.0
 30
0.0
 11
5401.829581418173
 21
5360.0
 31
0.0
  0
ARC
  5
1D06F
330
747D
100
AcDbEntity
  8
細線
 48
5.0
100
AcDbCircle
 10
5405.829581418174
 20
5308.0
 30
0.0
 40
3.0
100
AcDbArc
 50
222.3153150487441
 51
270.0
  0
LINE
  5
1D070
330
747D
100
AcDbEntity
  8
細線
 48
5.0
100
AcDbLine
 10
5422.829581418173
 20
5271.399999999999
 30
0.0
 11
5403.702390655737
 21
5252.846624960439
 31
0.0
  0
LINE
  5
1D071
330
747D
100
AcDbEntity
  8
細線
 48
5.0
100
AcDbLine
 10
5422.829581418176
 20
5232.0
 30
0.0
 11
5345.629581418172
 21
5232.0
 31
0.0
  0
LINE
  5
1D072
330
747D
100
AcDbEntity
  8
細線
 48
5.0
100
AcDbLine
 10
5401.613616867364
 20
5252.0
 30
0.0
 11
5345.629581418172
 21
5252.000000000002
 31
0.0
  0
LINE
  5
1D073
330
747D
100
AcDbEntity
  8
細線
 48
5.0
100
AcDbLine
 10
5345.629581418174
 20
5252.0
 30
0.0
 11
5345.629581418172
 21
5232.0
 31
0.0
  0
LINE
  5
1D074
330
747D
100
AcDbEntity
  8
細線
 48
5.0
100
AcDbLine
 10
5398.029581418176
 20
5252.0
 30
0.0
 11
5398.029581418177
 21
5232.0
 31
0.0
  0
ARC
  5
1D075
330
747D
100
AcDbEntity
  8
細線
 48
5.0
100
AcDbCircle
 10
5401.613616867364
 20
5255.0
 30
0.0
 40
3.0
100
AcDbArc
 50
269.999999999999
 51
314.1275428770974
  0
LINE
  5
1D076
330
747D
100
AcDbEntity
  8
部品1
100
AcDbLine
 10
5347.323376691626
 20
5477.055403573377
 30
0.0
 11
5349.939382888234
 21
5484.088160010451
 31
0.0
  0
ARC
  5
1D077
330
747D
100
AcDbEntity
  8
部品1
100
AcDbCircle
 10
5343.329581418174
 20
5460.485286065473
 30
0.0
 40
15.5
100
AcDbArc
 50
91.86125648319634
 51
186.0754638750989
  0
ARC
  5
1D078
330
747D
100
AcDbEntity
  8
部品1
100
AcDbCircle
 10
5353.219786405296
 20
5482.867933488349
 30
0.0
 40
3.5
100
AcDbArc
 50
91.03524671598787
 51
159.5960814224235
  0
ARC
  5
1D079
330
747D
100
AcDbEntity
  8
部品1
100
AcDbCircle
 10
5345.89788269519
 20
5477.525647802748
 30
0.0
 40
1.5
100
AcDbArc
 50
270.9018459011011
 51
339.5960814224101
  0
LINE
  5
1D07A
330
747D
100
AcDbEntity
  8
部品1
 48
50.0
100
AcDbLine
 10
5345.921491990761
 20
5476.025833613869
 30
0.0
 11
5342.826151637426
 21
5475.977108374546
 31
0.0
  0
INSERT
  5
1D242
330
747D
100
AcDbEntity
  8
寸法
 48
50.0
100
AcDbBlockReference
  2
A$C019569EB
 10
7997.12175909281
 20
5396.538274512709
 30
0.0
 50
1.111361931569045
  0
LINE
  5
1D243
330
747D
100
AcDbEntity
  8
部品1
 62
     2
 48
50.0
100
AcDbLine
 10
6626.329581418175
 20
5141.999999999951
 30
0.0
 11
6626.329581418175
 21
3274.999999999951
 31
0.0
  0
LINE
  5
1D244
330
747D
100
AcDbEntity
  8
部品1
 62
     2
 48
50.0
100
AcDbLine
 10
5890.329581418175
 20
5141.999999999951
 30
0.0
 11
5890.329581418175
 21
3274.999999999951
 31
0.0
  0
LINE
  5
1D245
330
747D
100
AcDbEntity
  8
部品1
 62
     2
 48
50.0
100
AcDbLine
 10
6626.329581418175
 20
5138.999999999951
 30
0.0
 11
5890.329581418175
 21
5138.999999999951
 31
0.0
  0
LINE
  5
1D246
330
747D
100
AcDbEntity
  8
部品1
 62
     2
 48
50.0
100
AcDbLine
 10
6652.829581418174
 20
5141.999999999951
 30
0.0
 11
5862.829581418175
 21
5141.999999999951
 31
0.0
  0
LINE
  5
1D247
330
747D
100
AcDbEntity
  8
部品1
 62
     2
 48
50.0
100
AcDbLine
 10
6652.829581418174
 20
5169.999999999951
 30
0.0
 11
5862.829581418175
 21
5169.999999999951
 31
0.0
  0
DIMENSION
  5
1D248
330
747D
100
AcDbEntity
  8
寸法
 48
50.0
100
AcDbDimension
  2
*D39
 10
5074.899621195023
 20
5169.999999999951
 30
0.0
 11
4974.899621195024
 21
4222.499999999951
 31
0.0
 70
    32
 71
     5
 42
-1.0
  3
INABA_S50G
100
AcDbAlignedDimension
 13
5422.829581418175
 23
3274.999999999951
 33
0.0
 14
5862.829581418175
 24
5169.999999999951
 34
0.0
 50
90.0
100
AcDbRotatedDimension
  0
LINE
  5
1D249
330
747D
100
AcDbEntity
  8
部品1
 62
     2
 48
50.0
100
AcDbLine
 10
5954.329581418175
 20
4276.999999999943
 30
0.0
 11
6046.329581418182
 21
4276.999999999943
 31
0.0
  0
LINE
  5
1D24A
330
747D
100
AcDbEntity
  8
部品1
 62
     2
 48
50.0
100
AcDbLine
 10
6046.329581418182
 20
4260.999999999958
 30
0.0
 11
5954.329581418175
 21
4260.999999999958
 31
0.0
  0
CIRCLE
  5
1D24B
330
747D
100
AcDbEntity
  8
部品1
 62
     2
 48
50.0
100
AcDbCircle
 10
5954.329581418175
 20
4333.999999999951
 30
0.0
 40
10.0
  0
CIRCLE
  5
1D24C
330
747D
100
AcDbEntity
  8
部品1
 62
     2
 48
50.0
100
AcDbCircle
 10
5954.329581418175
 20
4485.499999999951
 30
0.0
 40
10.0
  0
CIRCLE
  5
1D24D
330
747D
100
AcDbEntity
  8
部品1
 62
     2
 48
50.0
100
AcDbCircle
 10
5954.329581418175
 20
4333.999999999951
 30
0.0
 40
20.0
  0
CIRCLE
  5
1D24E
330
747D
100
AcDbEntity
  8
部品1
 62
     2
 48
50.0
100
AcDbCircle
 10
5954.329581418175
 20
4485.499999999951
 30
0.0
 40
20.0
  0
ARC
  5
1D24F
330
747D
100
AcDbEntity
  8
部品1
 62
     2
 48
50.0
100
AcDbCircle
 10
5954.329581418175
 20
4268.999999999951
 30
0.0
 40
20.0
100
AcDbArc
 50
23.57817800000002
 51
336.4218220000001
  0
ARC
  5
1D250
330
747D
100
AcDbEntity
  8
部品1
 62
     2
 48
50.0
100
AcDbCircle
 10
5954.329581418175
 20
4268.999999999951
 30
0.0
 40
8.0
100
AcDbArc
 50
90.0
 51
270.0
  0
ARC
  5
1D251
330
747D
100
AcDbEntity
  8
部品1
 62
     2
 48
50.0
100
AcDbCircle
 10
6046.329581418182
 20
4268.999999999951
 30
0.0
 40
8.0
100
AcDbArc
 50
270.0
 51
90.0
  0
LINE
  5
1D252
330
747D
100
AcDbEntity
  8
部品1
 62
     2
 48
50.0
100
AcDbLine
 10
5890.329581418175
 20
3308.99999999995
 30
0.0
 11
6626.329581418175
 21
3308.99999999995
 31
0.0
  0
LINE
  5
1D253
330
747D
100
AcDbEntity
  8
部品1
 62
     2
 48
50.0
100
AcDbLine
 10
5890.329581418175
 20
3317.999999999951
 30
0.0
 11
6626.329581418175
 21
3317.999999999951
 31
0.0
  0
LINE
  5
1D281
330
747D
100
AcDbEntity
  8
部品1
 48
50.0
100
AcDbLine
 10
12072.82958141817
 20
9878.736797361931
 30
0.0
 11
12107.82958141817
 21
9878.736797361931
 31
0.0
  0
LINE
  5
1D282
330
747D
100
AcDbEntity
  8
部品1
 48
50.0
100
AcDbLine
 10
12107.82958141817
 20
9896.736797361926
 30
0.0
 11
12122.82958141817
 21
9896.736797361926
 31
0.0
  0
LINE
  5
1D283
330
747D
100
AcDbEntity
  8
部品1
 48
50.0
100
AcDbLine
 10
12107.82958141817
 20
9860.736797361926
 30
0.0
 11
12122.82958141817
 21
9860.736797361926
 31
0.0
  0
LINE
  5
1D284
330
747D
100
AcDbEntity
  8
部品1
 48
50.0
100
AcDbLine
 10
14532.82958141817
 20
9878.736797361931
 30
0.0
 11
14497.82958141817
 21
9878.736797361931
 31
0.0
  0
LINE
  5
1D285
330
747D
100
AcDbEntity
  8
部品1
 48
50.0
100
AcDbLine
 10
14497.82958141817
 20
9860.736797361926
 30
0.0
 11
14482.82958141817
 21
9860.736797361926
 31
0.0
  0
LINE
  5
1D286
330
747D
100
AcDbEntity
  8
部品1
 48
50.0
100
AcDbLine
 10
14497.82958141817
 20
9896.736797361926
 30
0.0
 11
14482.82958141817
 21
9896.736797361926
 31
0.0
  0
LINE
  5
1D2A8
330
747D
100
AcDbEntity
  8
部品1
 48
50.0
100
AcDbLine
 10
5862.829581418175
 20
3330.0
 30
0.0
 11
5492.829581418175
 21
3330.0
 31
0.0
  0
LINE
  5
1D2BF
330
747D
100
AcDbEntity
  8
部品1
 48
50.0
100
AcDbLine
 10
12107.82958141817
 20
11230.73679736192
 30
0.0
 11
12122.82958141817
 21
11230.73679736192
 31
0.0
  0
LINE
  5
1D2C0
330
747D
100
AcDbEntity
  8
部品1
 48
50.0
100
AcDbLine
 10
12107.82958141817
 20
11266.73679736192
 30
0.0
 11
12122.82958141817
 21
11266.73679736192
 31
0.0
  0
LINE
  5
1D2C1
330
747D
100
AcDbEntity
  8
部品1
 48
50.0
100
AcDbLine
 10
12072.82958141816
 20
11248.73679736193
 30
0.0
 11
12107.82958141817
 21
11248.73679736192
 31
0.0
  0
LINE
  5
1D4E5
330
747D
100
AcDbEntity
  8
Ｇ．Ｌ
 48
50.0
100
AcDbLine
 10
9926.654074750143
 20
9228.736797361928
 30
0.0
 11
3638.887401127784
 21
9228.736797361928
 31
0.0
  0
LINE
  5
1D4E6
330
747D
100
AcDbEntity
  8
部品1
 48
50.0
100
AcDbLine
 10
7832.329581418176
 20
9470.736797361928
 30
0.0
 11
5473.32958141818
 21
9470.736797361928
 31
0.0
  0
LINE
  5
1D4E7
330
747D
100
AcDbEntity
  8
細線
 48
50.0
100
AcDbLine
 10
5473.32958141818
 20
9418.736797361928
 30
0.0
 11
7832.329581418176
 21
9418.736797361928
 31
0.0
  0
LINE
  5
1D4E8
330
747D
100
AcDbEntity
  8
細線
 48
50.0
100
AcDbLine
 10
7832.329581418176
 20
9430.736797361928
 30
0.0
 11
5473.32958141818
 21
9430.736797361928
 31
0.0
  0
LINE
  5
1D4E9
330
747D
100
AcDbEntity
  8
部品1
 48
50.0
100
AcDbLine
 10
7882.829581418177
 20
9363.736797361928
 30
0.0
 11
5422.829581418181
 21
9363.736797361928
 31
0.0
  0
TEXT
  5
1D4EA
330
747D
100
AcDbEntity
  8
部品1
100
AcDbText
 10
6170.255387296631
 20
7392.088229282163
 30
0.0
 40
225.0
  1
断面図
  7
STYLE2
100
AcDbText
  0
LINE
  5
1D4EB
330
747D
100
AcDbEntity
  8
部品1
100
AcDbLine
 10
7289.055136608542
 20
7709.831477053232
 30
0.0
 11
6016.604026227811
 21
7709.831477053232
 31
0.0
  0
LINE
  5
1D4EC
330
747D
100
AcDbEntity
  8
部品1
100
AcDbLine
 10
6016.604026227811
 20
7310.010941144016
 30
0.0
 11
7289.055136608542
 21
7310.010941144016
 31
0.0
  0
MTEXT
  5
1D4ED
102
{ACAD_REACTORS
330
1D4EE
102
}
330
747D
100
AcDbEntity
  8
部品1
 62
     7
 48
50.0
100
AcDbMText
 10
7001.063726069704
 20
8716.282041753688
 30
0.0
 40
150.0
 41
0.0
 71
     4
 72
     1
  1
\A1;根太
  7
STYLE1
 73
     1
 44
1.0
  0
LEADER
  5
1D4EE
330
747D
100
AcDbEntity
  8
寸法
 48
50.0
100
AcDbLeader
  3
INABA_S50G
 71
     0
 73
     0
 74
     0
 75
     1
 40
150.0
 41
330.0
 76
     3
 10
6672.829581418176
 20
9382.720225286979
 30
0.0
 10
6851.063726069703
 20
8616.282041753688
 30
0.0
 10
6976.063726069703
 20
8616.282041753688
 30
0.0
340
1D4ED
1001
ACAD
1000
DSTYLE
1002
{
1070
     6
1000
DOTSMALL
1002
}
  0
LINE
  5
1D4EF
330
747D
100
AcDbEntity
  8
部品1
 48
50.0
100
AcDbLine
 10
7988.313373122116
 20
11633.20342677754
 30
0.0
 11
5353.15655022304
 21
11575.10415954439
 31
0.0
  0
DIMENSION
  5
1D4F0
330
747D
100
AcDbEntity
  8
寸法
 48
50.0
100
AcDbDimension
  2
*D43
 10
5422.829581418184
 20
12327.01792807844
 30
0.0
 11
6652.829581418185
 21
12427.03269185797
 31
0.0
 70
    32
  1
柱外寸法 <>
 71
     5
 42
-1.0
  3
INABA_S50G
100
AcDbAlignedDimension
 13
7882.829581418184
 23
11588.73679736192
 33
0.0
 14
5422.829581418184
 24
11576.36318119755
 34
0.0
100
AcDbRotatedDimension
1001
ACAD
1000
DSTYLE
1002
{
1070
   287
1070
     4
1070
    75
1070
     1
1070
   279
1070
     1
1002
}
  0
LINE
  5
1D4F1
330
747D
100
AcDbEntity
  8
細線
 48
50.0
100
AcDbLine
 10
7817.829581418184
 20
11393.73679736192
 30
0.0
 11
5487.829581418187
 21
11393.73679736192
 31
0.0
  0
LINE
  5
1D4F2
330
747D
100
AcDbEntity
  8
部品1
 48
50.0
100
AcDbLine
 10
7832.329581418176
 20
11367.5946617382
 30
0.0
 11
5473.32958141818
 21
11367.5946617382
 31
0.0
  0
LINE
  5
1D4F3
330
747D
100
AcDbEntity
  8
細線
 48
50.0
100
AcDbLine
 10
7817.829581418184
 20
11413.73679736192
 30
0.0
 11
5487.829581418187
 21
11413.73679736192
 31
0.0
  0
LINE
  5
1D4F4
330
747D
100
AcDbEntity
  8
細線
 48
50.0
100
AcDbLine
 10
7989.511921540689
 20
11619.72028786818
 30
0.0
 11
5376.316439725099
 21
11517.34639559786
 31
0.0
  0
LINE
  5
1D4F5
330
747D
100
AcDbEntity
  8
細線
 48
50.0
100
AcDbLine
 10
7990.373127425496
 20
11597.73715059381
 30
0.0
 11
5377.177645609903
 21
11495.36325832349
 31
0.0
  0
DIMENSION
  5
1D4F6
330
747D
100
AcDbEntity
  8
寸法
 48
50.0
100
AcDbDimension
  2
*D44
 10
5327.82958141818
 20
12643.1736988701
 30
0.0
 11
6672.829581418179
 21
12743.18846264963
 31
0.0
 70
    32
 71
     5
 42
-1.0
  3
INABA_S50G
100
AcDbAlignedDimension
 13
8017.829581418176
 23
11633.73679736192
 33
0.0
 14
5327.82958141818
 24
11573.73679736192
 34
0.0
100
AcDbRotatedDimension
  0
MTEXT
  5
1D4F7
102
{ACAD_REACTORS
330
1D4F8
102
}
330
747D
100
AcDbEntity
  8
部品1
 62
     7
 48
50.0
100
AcDbMText
 10
7486.281171268784
 20
12029.0405129501
 30
0.0
 40
150.0
 41
0.0
 71
     6
 72
     1
  1
\A1;屋根パネル
  7
STYLE1
 73
     1
 44
1.0
  0
LEADER
  5
1D4F8
330
747D
100
AcDbEntity
  8
寸法
 48
50.0
100
AcDbLeader
  3
INABA_S50G
 71
     0
 73
     0
 75
     1
 40
150.0
 41
900.0
 76
     3
 10
7768.403593044903
 20
11600.03473650936
 30
0.0
 10
7636.281171268784
 20
11929.0405129501
 30
0.0
 10
7511.281171268784
 20
11929.0405129501
 30
0.0
340
1D4F7
1001
ACAD
1000
DSTYLE
1002
{
1070
     6
1000
DOTSMALL
1002
}
  0
MTEXT
  5
1D4F9
102
{ACAD_REACTORS
330
1D4FA
102
}
330
747D
100
AcDbEntity
  8
寸法
 62
     7
 48
50.0
100
AcDbMText
 10
7313.774992040766
 20
11192.92239508252
 30
0.0
 40
150.0
 41
0.0
 71
     4
 72
     1
  1
\A1;天井
  7
STYLE1
 73
     1
 44
1.0
  0
LEADER
  5
1D4FA
330
747D
100
AcDbEntity
  8
寸法
 48
50.0
100
AcDbLeader
  3
INABA_S50G
 71
     0
 73
     0
 74
     0
 75
     1
 40
150.0
 41
359.9999999999999
 76
     3
 10
7030.882357902894
 20
11403.41424305308
 30
0.0
 10
7163.774992040766
 20
11092.92239508252
 30
0.0
 10
7288.774992040766
 20
11092.92239508252
 30
0.0
340
1D4F9
1001
ACAD
1000
DSTYLE
1002
{
1070
     6
1000
DOTSMALL
1002
}
  0
MTEXT
  5
1D4FB
102
{ACAD_REACTORS
330
1D59C
102
}
330
747D
100
AcDbEntity
  8
寸法
 62
     7
 48
50.0
100
AcDbMText
 10
6326.744357697422
 20
11811.40987824753
 30
0.0
 40
150.0
 41
0.0
 71
     4
 72
     1
  1
\A1;母屋中
  7
STYLE1
 73
     1
 44
1.0
  0
MTEXT
  5
1D4FC
102
{ACAD_REACTORS
330
1D564
102
}
330
747D
100
AcDbEntity
  8
寸法
 62
     7
 48
50.0
100
AcDbMText
 10
5784.658491557257
 20
11805.29159607865
 30
0.0
 40
150.0
 41
0.0
 71
     6
 72
     1
  1
\A1;妻板
  7
STYLE1
 73
     1
 44
1.0
  0
DIMENSION
  5
1D4FD
330
747D
100
AcDbEntity
  8
寸法
 48
50.0
100
AcDbDimension
  2
*D45
 10
5327.82958141818
 20
12327.01792807844
 30
0.0
 11
4995.270526300071
 21
12327.01792807844
 31
0.0
 70
   160
 71
     5
 42
-1.0
  3
INABA_S50G
100
AcDbAlignedDimension
 13
5422.829581418184
 23
11576.36318119755
 33
0.0
 14
5327.82958141818
 24
11573.73679736192
 34
0.0
100
AcDbRotatedDimension
1001
ACAD
1000
DSTYLE
1002
{
1002
}
  0
MTEXT
  5
1D4FE
102
{ACAD_REACTORS
330
1D4FF
102
}
330
747D
100
AcDbEntity
  8
寸法
 62
     7
 48
50.0
100
AcDbMText
 10
4977.41629121971
 20
11900.91283849599
 30
0.0
 40
150.0
 41
0.0
 71
     6
 72
     1
  1
\A1;鼻隠シ後
  7
STYLE1
 73
     1
 44
1.0
  0
LEADER
  5
1D4FF
330
747D
100
AcDbEntity
  8
寸法
 48
50.0
100
AcDbLeader
  3
INABA_S50G
 71
     0
 73
     0
 75
     1
 40
150.0
 41
719.9999999999995
 76
     3
 10
5331.637200176603
 20
11559.39745668354
 30
0.0
 10
5127.416291219709
 20
11800.91283849599
 30
0.0
 10
5002.416291219709
 20
11800.91283849599
 30
0.0
340
1D4FE
1001
ACAD
1000
DSTYLE
1002
{
1070
     6
1000
DOTSMALL
1002
}
  0
MTEXT
  5
1D500
102
{ACAD_REACTORS
330
1D501
102
}
330
747D
100
AcDbEntity
  8
部品1
 62
     7
 48
50.0
100
AcDbMText
 10
5899.034909713642
 20
8716.282041753688
 30
0.0
 40
150.0
 41
0.0
 71
     4
 72
     1
  1
\A1;土台中央
  7
STYLE1
 73
     1
 44
1.0
  0
LEADER
  5
1D501
330
747D
100
AcDbEntity
  8
寸法
 48
50.0
100
AcDbLeader
  3
INABA_S50G
 71
     0
 73
     0
 74
     0
 75
     1
 40
150.0
 41
720.0000000000003
 76
     3
 10
5653.902462529568
 20
9382.720225286986
 30
0.0
 10
5749.034909713643
 20
8616.282041753688
 30
0.0
 10
5874.034909713643
 20
8616.282041753688
 30
0.0
340
1D500
1001
ACAD
1000
DSTYLE
1002
{
1070
     6
1000
DOTSMALL
1002
}
  0
LINE
  5
1D502
330
747D
100
AcDbEntity
  8
部品1
100
AcDbLine
 10
6016.604026227811
 20
7709.831477053232
 30
0.0
 11
6016.604026227811
 21
7310.010941144016
 31
0.0
  0
MTEXT
  5
1D503
102
{ACAD_REACTORS
330
1D504
102
}
330
747D
100
AcDbEntity
  8
寸法
 62
     7
 48
50.0
100
AcDbMText
 10
5173.436727685734
 20
10508.2825284004
 30
0.0
 40
150.0
 41
0.0
 71
     6
 72
     1
  1
\A1;壁パネル
  7
STYLE1
 73
     1
 44
1.0
  0
LEADER
  5
1D504
330
747D
100
AcDbEntity
  8
寸法
 48
50.0
100
AcDbLeader
  3
INABA_S50G
 71
     0
 73
     0
 75
     1
 40
150.0
 41
719.9999999999999
 76
     3
 10
5441.29787101399
 20
10204.29303103481
 30
0.0
 10
5323.436727685734
 20
10408.2825284004
 30
0.0
 10
5198.436727685734
 20
10408.2825284004
 30
0.0
340
1D503
1001
ACAD
1000
DSTYLE
1002
{
1070
     6
1000
DOTSMALL
1002
}
  0
MTEXT
  5
1D505
102
{ACAD_REACTORS
330
1D506
102
}
330
747D
100
AcDbEntity
  8
寸法
 62
     7
 48
50.0
100
AcDbMText
 10
5088.442711368498
 20
9692.226294727511
 30
0.0
 40
150.0
 41
0.0
 71
     6
 72
     1
  1
\A1;土台前後
  7
STYLE1
 73
     1
 44
1.0
  0
LEADER
  5
1D506
330
747D
100
AcDbEntity
  8
寸法
 48
50.0
100
AcDbLeader
  3
INABA_S50G
 71
     0
 73
     0
 75
     1
 40
150.0
 41
719.9999999999995
 76
     3
 10
5422.829581418173
 20
9388.236797361928
 30
0.0
 10
5238.442711368498
 20
9592.22629472751
 30
0.0
 10
5113.442711368498
 20
9592.22629472751
 30
0.0
340
1D505
1001
ACAD
1000
DSTYLE
1002
{
1070
     6
1000
DOTSMALL
1002
}
  0
DIMENSION
  5
1D507
330
747D
100
AcDbEntity
  8
寸法
 48
50.0
100
AcDbDimension
  2
*D46
 10
3798.587517088188
 20
11573.73679736192
 30
0.0
 11
3698.57275330866
 21
10468.73679736192
 31
0.0
 70
    32
 71
     5
 42
-1.0
  3
INABA_S50G
100
AcDbAlignedDimension
 13
5422.829581418181
 23
9363.736797361928
 33
0.0
 14
5327.82958141818
 24
11573.73679736192
 34
0.0
 50
270.0
100
AcDbRotatedDimension
  0
DIMENSION
  5
1D508
330
747D
100
AcDbEntity
  8
寸法
 48
50.0
100
AcDbDimension
  2
*D47
 10
4111.549246176578
 20
11390.73679736192
 30
0.0
 11
4011.549246176578
 21
10410.73679736192
 31
0.0
 70
    32
  1
内高 <>
 71
     5
 42
-1.0
  3
INABA_S50G
100
AcDbAlignedDimension
 13
5458.32958141818
 23
9430.736797361928
 33
0.0
 14
5422.829581418181
 24
11390.73679736192
 34
0.0
 50
270.0
100
AcDbRotatedDimension
  0
LINE
  5
1D509
330
747D
100
AcDbEntity
  8
細線
 48
50.0
100
AcDbLine
 10
5457.82958141818
 20
11378.73679736192
 30
0.0
 11
5457.82958141818
 21
9418.736797361928
 31
0.0
  0
LINE
  5
1D50A
330
747D
100
AcDbEntity
  8
部品1
 48
50.0
100
AcDbLine
 10
5473.32958141818
 20
11378.73679736192
 30
0.0
 11
5473.32958141818
 21
9430.736797361928
 31
0.0
  0
LINE
  5
1D50B
330
747D
100
AcDbEntity
  8
部品1
 48
50.0
100
AcDbLine
 10
6634.82958141818
 20
11367.5946617382
 30
0.0
 11
6634.82958141818
 21
9470.736797361928
 31
0.0
  0
LINE
  5
1D50C
330
747D
100
AcDbEntity
  8
部品1
 48
50.0
100
AcDbLine
 10
6670.829581418181
 20
11367.5946617382
 30
0.0
 11
6670.829581418181
 21
9470.736797361928
 31
0.0
  0
LINE
  5
1D50D
330
747D
100
AcDbEntity
  8
部品1
 48
50.0
100
AcDbLine
 10
5509.32958141818
 20
11367.5946617382
 30
0.0
 11
5509.32958141818
 21
9470.736797361928
 31
0.0
  0
LINE
  5
1D50E
330
747D
100
AcDbEntity
  8
部品1
 48
50.0
100
AcDbLine
 10
6054.82958141818
 20
11063.08847168107
 30
0.0
 11
6054.82958141818
 21
9470.736797361928
 31
0.0
  0
LINE
  5
1D50F
330
747D
100
AcDbEntity
  8
部品1
 48
50.0
100
AcDbLine
 10
6090.82958141818
 20
11063.08847168107
 30
0.0
 11
6090.82958141818
 21
9470.736797361928
 31
0.0
  0
LINE
  5
1D510
330
747D
100
AcDbEntity
  8
部品1
 48
50.0
100
AcDbLine
 10
5422.829581418181
 20
11473.73679736192
 30
0.0
 11
5422.829581418181
 21
9418.736797361928
 31
0.0
  0
LINE
  5
1D511
330
747D
100
AcDbEntity
  8
部品1
 48
50.0
100
AcDbLine
 10
5482.329581418188
 20
9470.736797361928
 30
0.0
 11
5482.329581418188
 21
9430.736797361928
 31
0.0
  0
LINE
  5
1D512
330
747D
100
AcDbEntity
  8
細線
 48
50.0
100
AcDbLine
 10
5499.039133207237
 20
9228.736797361928
 30
0.0
 11
5622.82958141818
 21
9352.527245572872
 31
0.0
  0
LINE
  5
1D513
330
747D
100
AcDbEntity
  8
細線
 48
50.0
100
AcDbLine
 10
5525.55563750173
 20
9228.736797361928
 30
0.0
 11
5622.82958141818
 21
9326.010741278386
 31
0.0
  0
LINE
  5
1D514
330
747D
100
AcDbEntity
  8
部品1
 48
50.0
100
AcDbLine
 10
5487.32958141818
 20
9411.736797361928
 30
0.0
 11
5511.329581418181
 21
9411.736797361928
 31
0.0
  0
LINE
  5
1D515
330
747D
100
AcDbEntity
  8
部品1
 48
50.0
100
AcDbLine
 10
5511.329581418181
 20
9411.736797361928
 30
0.0
 11
5511.329581418181
 21
9363.736797361928
 31
0.0
  0
LINE
  5
1D516
330
747D
100
AcDbEntity
  8
部品1
 48
50.0
100
AcDbLine
 10
5422.829581418181
 20
9412.736797361928
 30
0.0
 11
5422.829581418181
 21
9363.736797361928
 31
0.0
  0
LINE
  5
1D517
330
747D
100
AcDbEntity
  8
部品1
 48
50.0
100
AcDbLine
 10
5482.329581418188
 20
9430.736797361928
 30
0.0
 11
5473.32958141818
 21
9430.736797361928
 31
0.0
  0
LINE
  5
1D518
330
747D
100
AcDbEntity
  8
部品1
 48
50.0
100
AcDbLine
 10
5487.32958141818
 20
9418.736797361928
 30
0.0
 11
5473.32958141818
 21
9418.736797361928
 31
0.0
  0
LINE
  5
1D519
330
747D
100
AcDbEntity
  8
部品1
 48
50.0
100
AcDbLine
 10
5428.82958141818
 20
9412.736797361928
 30
0.0
 11
5428.82958141818
 21
9418.736797361928
 31
0.0
  0
LINE
  5
1D51A
330
747D
100
AcDbEntity
  8
部品1
 48
50.0
100
AcDbLine
 10
5422.829581418181
 20
9412.736797361928
 30
0.0
 11
5428.82958141818
 21
9412.736797361928
 31
0.0
  0
LINE
  5
1D51B
330
747D
100
AcDbEntity
  8
部品1
 48
50.0
100
AcDbLine
 10
5487.32958141818
 20
9418.736797361928
 30
0.0
 11
5487.32958141818
 21
9411.736797361928
 31
0.0
  0
LINE
  5
1D51C
330
747D
100
AcDbEntity
  8
部品1
 48
50.0
100
AcDbLine
 10
5422.829581418181
 20
9418.736797361928
 30
0.0
 11
5458.32958141818
 21
9418.736797361928
 31
0.0
  0
LINE
  5
1D51D
330
747D
100
AcDbEntity
  8
部品1
 48
50.0
100
AcDbLine
 10
5458.32958141818
 20
9418.736797361928
 30
0.0
 11
5458.32958141818
 21
9430.736797361928
 31
0.0
  0
LINE
  5
1D51E
330
747D
100
AcDbEntity
  8
部品1
 48
50.0
100
AcDbLine
 10
5458.32958141818
 20
9430.736797361928
 30
0.0
 11
5473.32958141818
 21
9430.736797361928
 31
0.0
  0
LINE
  5
1D51F
330
747D
100
AcDbEntity
  8
部品1
 48
50.0
100
AcDbLine
 10
5473.32958141818
 20
9430.736797361928
 30
0.0
 11
5473.32958141818
 21
9418.736797361928
 31
0.0
  0
LINE
  5
1D520
330
747D
100
AcDbEntity
  8
部品1
 48
50.0
100
AcDbLine
 10
5353.82958141818
 20
9028.736797361927
 30
0.0
 11
5353.82958141818
 21
9228.736797361928
 31
0.0
  0
LINE
  5
1D521
330
747D
100
AcDbEntity
  8
破線
 48
3.0
100
AcDbLine
 10
5474.82958141818
 20
9228.736797361928
 30
0.0
 11
5474.82958141818
 21
9122.736797361929
 31
0.0
  0
LINE
  5
1D522
330
747D
100
AcDbEntity
  8
破線
 48
3.0
100
AcDbLine
 10
5432.82958141818
 20
9228.736797361928
 30
0.0
 11
5432.82958141818
 21
9122.736797361929
 31
0.0
  0
LINE
  5
1D523
330
747D
100
AcDbEntity
  8
部品1
 48
50.0
100
AcDbLine
 10
5553.82958141818
 20
9228.736797361928
 30
0.0
 11
5553.82958141818
 21
9028.736797361927
 31
0.0
  0
LINE
  5
1D524
330
747D
100
AcDbEntity
  8
細線
 48
50.0
100
AcDbLine
 10
5510.120029629124
 20
9028.736797361927
 30
0.0
 11
5353.82958141818
 21
9185.02724557288
 31
0.0
  0
LINE
  5
1D525
330
747D
100
AcDbEntity
  8
細線
 48
50.0
100
AcDbLine
 10
5553.829581418173
 20
9081.994236983884
 30
0.0
 11
5407.087021040151
 21
9228.736797361928
 31
0.0
  0
LINE
  5
1D526
330
747D
100
AcDbEntity
  8
細線
 48
50.0
100
AcDbLine
 10
5553.82958141818
 20
9135.02724557288
 30
0.0
 11
5460.120029629117
 21
9228.736797361928
 31
0.0
  0
LINE
  5
1D527
330
747D
100
AcDbEntity
  8
細線
 48
50.0
100
AcDbLine
 10
5553.82958141818
 20
9108.510741278385
 30
0.0
 11
5433.603525334645
 21
9228.736797361928
 31
0.0
  0
LINE
  5
1D528
330
747D
100
AcDbEntity
  8
細線
 48
50.0
100
AcDbLine
 10
5483.603525334631
 20
9028.736797361927
 30
0.0
 11
5353.82958141818
 21
9158.510741278385
 31
0.0
  0
LINE
  5
1D529
330
747D
100
AcDbEntity
  8
細線
 48
50.0
100
AcDbLine
 10
5457.08702104013
 20
9028.736797361927
 30
0.0
 11
5353.82958141818
 21
9131.994236983883
 31
0.0
  0
LINE
  5
1D52A
330
747D
100
AcDbEntity
  8
破線
 48
3.0
100
AcDbLine
 10
5474.82958141818
 20
9122.736797361929
 30
0.0
 11
5432.82958141818
 21
9122.736797361929
 31
0.0
  0
LINE
  5
1D52B
330
747D
100
AcDbEntity
  8
部品1
 48
50.0
100
AcDbLine
 10
5553.82958141818
 20
9028.736797361927
 30
0.0
 11
5353.82958141818
 21
9028.736797361927
 31
0.0
  0
LINE
  5
1D52C
330
747D
100
AcDbEntity
  8
部品1
 48
50.0
100
AcDbLine
 10
5422.829581418181
 20
9363.736797361928
 30
0.0
 11
5422.829581418181
 21
9228.736797361928
 31
0.0
  0
LINE
  5
1D52D
330
747D
100
AcDbEntity
  8
細線
 48
50.0
100
AcDbLine
 10
5422.829581418184
 20
9276.010741278378
 30
0.0
 11
5510.555637501726
 21
9363.736797361928
 31
0.0
  0
LINE
  5
1D52E
330
747D
100
AcDbEntity
  8
細線
 48
50.0
100
AcDbLine
 10
5422.829581418181
 20
9302.527245572873
 30
0.0
 11
5484.039133207236
 21
9363.736797361928
 31
0.0
  0
LINE
  5
1D52F
330
747D
100
AcDbEntity
  8
部品1
 48
50.0
100
AcDbLine
 10
5768.829581418188
 20
9418.736797361928
 30
0.0
 11
5762.829581418188
 21
9418.736797361928
 31
0.0
  0
LINE
  5
1D530
330
747D
100
AcDbEntity
  8
部品1
 48
50.0
100
AcDbLine
 10
5802.829581418187
 20
9418.736797361928
 30
0.0
 11
5796.829581418188
 21
9418.736797361928
 31
0.0
  0
LINE
  5
1D531
330
747D
100
AcDbEntity
  8
部品1
 48
50.0
100
AcDbLine
 10
5796.829581418188
 20
9412.736797361928
 30
0.0
 11
5768.829581418188
 21
9412.736797361928
 31
0.0
  0
LINE
  5
1D532
330
747D
100
AcDbEntity
  8
部品1
 48
50.0
100
AcDbLine
 10
5768.829581418188
 20
9418.736797361928
 30
0.0
 11
5768.829581418188
 21
9412.736797361928
 31
0.0
  0
LINE
  5
1D533
330
747D
100
AcDbEntity
  8
部品1
 48
50.0
100
AcDbLine
 10
5796.829581418188
 20
9412.736797361928
 30
0.0
 11
5796.829581418188
 21
9418.736797361928
 31
0.0
  0
LINE
  5
1D534
330
747D
100
AcDbEntity
  8
部品1
 48
50.0
100
AcDbLine
 10
5762.829581418188
 20
9418.736797361928
 30
0.0
 11
5762.829581418188
 21
9363.736797361928
 31
0.0
  0
LINE
  5
1D535
330
747D
100
AcDbEntity
  8
部品1
 48
50.0
100
AcDbLine
 10
5802.829581418187
 20
9363.736797361928
 30
0.0
 11
5802.829581418187
 21
9418.736797361928
 31
0.0
  0
LINE
  5
1D536
330
747D
100
AcDbEntity
  8
部品1
 48
50.0
100
AcDbLine
 10
5622.82958141818
 20
9363.736797361928
 30
0.0
 11
5622.82958141818
 21
9228.736797361928
 31
0.0
  0
MTEXT
  5
1D537
102
{ACAD_REACTORS
330
1D538
102
}
330
747D
100
AcDbEntity
  8
寸法
 62
     7
 48
50.0
100
AcDbMText
 10
5195.80855030887
 20
10099.22034129155
 30
0.0
 40
150.0
 41
0.0
 71
     6
 72
     1
  1
\A1;内壁
  7
STYLE1
 73
     1
 44
1.0
  0
LEADER
  5
1D538
330
747D
100
AcDbEntity
  8
寸法
 48
50.0
100
AcDbLeader
  3
INABA_S50G
 71
     0
 73
     0
 75
     1
 40
150.0
 41
320.0
 76
     3
 10
5466.262048626461
 20
9795.230843925967
 30
0.0
 10
5345.80855030887
 20
9999.22034129155
 30
0.0
 10
5220.80855030887
 20
9999.22034129155
 30
0.0
340
1D537
1001
ACAD
1000
DSTYLE
1002
{
1070
     6
1000
DOTSMALL
1002
}
  0
LINE
  5
1D539
330
747D
100
AcDbEntity
  8
部品1
 48
50.0
100
AcDbLine
 10
5473.329581418187
 20
9470.736797361928
 30
0.0
 11
5482.329581418188
 21
9470.736797361928
 31
0.0
  0
MTEXT
  5
1D53A
102
{ACAD_REACTORS
330
1D53B
102
}
330
747D
100
AcDbEntity
  8
部品1
 62
     7
 48
50.0
100
AcDbMText
 10
6132.605247336073
 20
9656.775787169815
 30
0.0
 40
150.0
 41
0.0
 71
     4
 72
     1
  1
\A1;床板
  7
STYLE1
 73
     1
 44
1.0
  0
LEADER
  5
1D53B
330
747D
100
AcDbEntity
  8
寸法
 48
50.0
100
AcDbLeader
  3
INABA_S50G
 71
     0
 73
     0
 74
     0
 75
     1
 40
150.0
 41
319.9999999999999
 76
     3
 10
5946.697078994006
 20
9425.668860537934
 30
0.0
 10
5982.605247336072
 20
9556.775787169815
 30
0.0
 10
6107.605247336072
 20
9556.775787169815
 30
0.0
340
1D53A
1001
ACAD
1000
DSTYLE
1002
{
1070
     6
1000
DOTSMALL
1002
}
  0
LINE
  5
1D53C
330
747D
100
AcDbEntity
  8
細線
 48
50.0
100
AcDbLine
 10
6175.829581418184
 20
9276.010741278378
 30
0.0
 11
6263.555637501726
 21
9363.736797361928
 31
0.0
  0
LINE
  5
1D53D
330
747D
100
AcDbEntity
  8
細線
 48
50.0
100
AcDbLine
 10
6175.82958141818
 20
9302.527245572873
 30
0.0
 11
6237.039133207236
 21
9363.736797361928
 31
0.0
  0
LINE
  5
1D53E
330
747D
100
AcDbEntity
  8
部品1
 48
50.0
100
AcDbLine
 10
6058.829581418187
 20
9418.736797361928
 30
0.0
 11
6052.829581418187
 21
9418.736797361928
 31
0.0
  0
LINE
  5
1D53F
330
747D
100
AcDbEntity
  8
部品1
 48
50.0
100
AcDbLine
 10
6092.829581418187
 20
9418.736797361928
 30
0.0
 11
6086.829581418188
 21
9418.736797361928
 31
0.0
  0
LINE
  5
1D540
330
747D
100
AcDbEntity
  8
部品1
 48
50.0
100
AcDbLine
 10
6086.829581418188
 20
9412.736797361928
 30
0.0
 11
6058.829581418187
 21
9412.736797361928
 31
0.0
  0
LINE
  5
1D541
330
747D
100
AcDbEntity
  8
部品1
 48
50.0
100
AcDbLine
 10
6058.829581418187
 20
9418.736797361928
 30
0.0
 11
6058.829581418187
 21
9412.736797361928
 31
0.0
  0
LINE
  5
1D542
330
747D
100
AcDbEntity
  8
部品1
 48
50.0
100
AcDbLine
 10
6086.829581418188
 20
9412.736797361928
 30
0.0
 11
6086.829581418188
 21
9418.736797361928
 31
0.0
  0
LINE
  5
1D543
330
747D
100
AcDbEntity
  8
部品1
 48
50.0
100
AcDbLine
 10
6052.829581418187
 20
9418.736797361928
 30
0.0
 11
6052.829581418187
 21
9363.736797361928
 31
0.0
  0
LINE
  5
1D544
330
747D
100
AcDbEntity
  8
部品1
 48
50.0
100
AcDbLine
 10
6092.829581418187
 20
9363.736797361928
 30
0.0
 11
6092.829581418187
 21
9418.736797361928
 31
0.0
  0
LINE
  5
1D545
330
747D
100
AcDbEntity
  8
部品1
 48
50.0
100
AcDbLine
 10
6175.82958141818
 20
9363.736797361928
 30
0.0
 11
6175.82958141818
 21
9228.736797361928
 31
0.0
  0
LINE
  5
1D546
330
747D
100
AcDbEntity
  8
部品1
 48
50.0
100
AcDbLine
 10
6382.829581418184
 20
9418.736797361928
 30
0.0
 11
6376.829581418181
 21
9418.736797361928
 31
0.0
  0
LINE
  5
1D547
330
747D
100
AcDbEntity
  8
部品1
 48
50.0
100
AcDbLine
 10
6348.829581418184
 20
9418.736797361928
 30
0.0
 11
6342.829581418183
 21
9418.736797361928
 31
0.0
  0
LINE
  5
1D548
330
747D
100
AcDbEntity
  8
部品1
 48
50.0
100
AcDbLine
 10
6376.829581418184
 20
9412.736797361928
 30
0.0
 11
6348.829581418184
 21
9412.736797361928
 31
0.0
  0
LINE
  5
1D549
330
747D
100
AcDbEntity
  8
部品1
 48
50.0
100
AcDbLine
 10
6348.829581418184
 20
9418.736797361928
 30
0.0
 11
6348.829581418184
 21
9412.736797361928
 31
0.0
  0
LINE
  5
1D54A
330
747D
100
AcDbEntity
  8
部品1
 48
50.0
100
AcDbLine
 10
6376.829581418184
 20
9412.736797361928
 30
0.0
 11
6376.829581418184
 21
9418.736797361928
 31
0.0
  0
LINE
  5
1D54B
330
747D
100
AcDbEntity
  8
部品1
 48
50.0
100
AcDbLine
 10
6342.829581418183
 20
9418.736797361928
 30
0.0
 11
6342.829581418183
 21
9363.736797361928
 31
0.0
  0
LINE
  5
1D54C
330
747D
100
AcDbEntity
  8
部品1
 48
50.0
100
AcDbLine
 10
6382.829581418184
 20
9363.736797361928
 30
0.0
 11
6382.829581418184
 21
9418.736797361928
 31
0.0
  0
LINE
  5
1D54D
330
747D
100
AcDbEntity
  8
細線
 48
50.0
100
AcDbLine
 10
6278.555637501729
 20
9228.736797361928
 30
0.0
 11
6375.82958141818
 21
9326.010741278386
 31
0.0
  0
LINE
  5
1D54E
330
747D
100
AcDbEntity
  8
細線
 48
50.0
100
AcDbLine
 10
6252.039133207236
 20
9228.736797361928
 30
0.0
 11
6375.82958141818
 21
9352.527245572872
 31
0.0
  0
LINE
  5
1D54F
330
747D
100
AcDbEntity
  8
部品1
 48
50.0
100
AcDbLine
 10
6375.82958141818
 20
9363.736797361928
 30
0.0
 11
6375.82958141818
 21
9228.736797361928
 31
0.0
  0
LINE
  5
1D550
330
747D
100
AcDbEntity
  8
部品1
 48
50.0
100
AcDbLine
 10
6672.829581418183
 20
9363.736797361928
 30
0.0
 11
6672.829581418183
 21
9418.736797361928
 31
0.0
  0
LINE
  5
1D551
330
747D
100
AcDbEntity
  8
部品1
 48
50.0
100
AcDbLine
 10
6632.829581418184
 20
9418.736797361928
 30
0.0
 11
6632.829581418184
 21
9363.736797361928
 31
0.0
  0
LINE
  5
1D552
330
747D
100
AcDbEntity
  8
部品1
 48
50.0
100
AcDbLine
 10
6666.829581418184
 20
9412.736797361928
 30
0.0
 11
6666.829581418184
 21
9418.736797361928
 31
0.0
  0
LINE
  5
1D553
330
747D
100
AcDbEntity
  8
部品1
 48
50.0
100
AcDbLine
 10
6638.829581418185
 20
9418.736797361928
 30
0.0
 11
6638.829581418185
 21
9412.736797361928
 31
0.0
  0
LINE
  5
1D554
330
747D
100
AcDbEntity
  8
部品1
 48
50.0
100
AcDbLine
 10
6666.829581418184
 20
9412.736797361928
 30
0.0
 11
6638.829581418185
 21
9412.736797361928
 31
0.0
  0
LINE
  5
1D555
330
747D
100
AcDbEntity
  8
部品1
 48
50.0
100
AcDbLine
 10
6672.829581418183
 20
9418.736797361928
 30
0.0
 11
6666.829581418184
 21
9418.736797361928
 31
0.0
  0
LINE
  5
1D556
330
747D
100
AcDbEntity
  8
部品1
 48
50.0
100
AcDbLine
 10
6638.829581418185
 20
9418.736797361928
 30
0.0
 11
6632.829581418184
 21
9418.736797361928
 31
0.0
  0
LINE
  5
1D557
330
747D
100
AcDbEntity
  8
部品1
 48
50.0
100
AcDbLine
 10
6928.829581418184
 20
9418.736797361928
 30
0.0
 11
6922.829581418183
 21
9418.736797361928
 31
0.0
  0
LINE
  5
1D558
330
747D
100
AcDbEntity
  8
部品1
 48
50.0
100
AcDbLine
 10
6962.829581418183
 20
9418.736797361928
 30
0.0
 11
6956.829581418183
 21
9418.736797361928
 31
0.0
  0
LINE
  5
1D559
330
747D
100
AcDbEntity
  8
部品1
 48
50.0
100
AcDbLine
 10
6956.829581418183
 20
9412.736797361928
 30
0.0
 11
6928.829581418184
 21
9412.736797361928
 31
0.0
  0
LINE
  5
1D55A
330
747D
100
AcDbEntity
  8
部品1
 48
50.0
100
AcDbLine
 10
6928.829581418184
 20
9418.736797361928
 30
0.0
 11
6928.829581418184
 21
9412.736797361928
 31
0.0
  0
LINE
  5
1D55B
330
747D
100
AcDbEntity
  8
部品1
 48
50.0
100
AcDbLine
 10
6956.829581418183
 20
9412.736797361928
 30
0.0
 11
6956.829581418183
 21
9418.736797361928
 31
0.0
  0
LINE
  5
1D55C
330
747D
100
AcDbEntity
  8
部品1
 48
50.0
100
AcDbLine
 10
6922.829581418183
 20
9418.736797361928
 30
0.0
 11
6922.829581418183
 21
9363.736797361928
 31
0.0
  0
LINE
  5
1D55D
330
747D
100
AcDbEntity
  8
部品1
 48
50.0
100
AcDbLine
 10
6962.829581418183
 20
9363.736797361928
 30
0.0
 11
6962.829581418183
 21
9418.736797361928
 31
0.0
  0
LINE
  5
1D55E
330
747D
100
AcDbEntity
  8
部品1
 48
50.0
100
AcDbLine
 10
6929.82958141818
 20
9363.736797361928
 30
0.0
 11
6929.82958141818
 21
9228.736797361928
 31
0.0
  0
LINE
  5
1D55F
330
747D
100
AcDbEntity
  8
細線
 48
50.0
100
AcDbLine
 10
6929.829581418184
 20
9276.010741278378
 30
0.0
 11
7017.555637501726
 21
9363.736797361928
 31
0.0
  0
LINE
  5
1D560
330
747D
100
AcDbEntity
  8
細線
 48
50.0
100
AcDbLine
 10
6929.82958141818
 20
9302.527245572873
 30
0.0
 11
6991.039133207237
 21
9363.736797361928
 31
0.0
  0
LINE
  5
1D561
330
747D
100
AcDbEntity
  8
部品1
 48
50.0
100
AcDbLine
 10
7129.82958141818
 20
9363.736797361928
 30
0.0
 11
7129.82958141818
 21
9228.736797361928
 31
0.0
  0
LINE
  5
1D562
330
747D
100
AcDbEntity
  8
細線
 48
50.0
100
AcDbLine
 10
7006.039133207235
 20
9228.736797361928
 30
0.0
 11
7129.82958141818
 21
9352.527245572872
 31
0.0
  0
LINE
  5
1D563
330
747D
100
AcDbEntity
  8
細線
 48
50.0
100
AcDbLine
 10
7032.555637501729
 20
9228.736797361928
 30
0.0
 11
7129.82958141818
 21
9326.010741278386
 31
0.0
  0
LEADER
  5
1D564
330
747D
100
AcDbEntity
  8
寸法
 48
50.0
100
AcDbLeader
  3
INABA_S50G
 71
     0
 73
     0
 75
     1
 40
150.0
 41
319.9999999999998
 76
     3
 10
5979.151879789093
 20
11581.89466159483
 30
0.0
 10
5934.658491557257
 20
11705.29159607865
 30
0.0
 10
5809.658491557257
 20
11705.29159607865
 30
0.0
340
1D4FC
1001
ACAD
1000
DSTYLE
1002
{
1070
     6
1000
DOTSMALL
1002
}
  0
MTEXT
  5
1D565
102
{ACAD_REACTORS
330
1D566
102
}
330
747D
100
AcDbEntity
  8
寸法
 62
     7
 48
50.0
100
AcDbMText
 10
5775.826863646911
 20
11192.92239508252
 30
0.0
 40
150.0
 41
0.0
 71
     4
 72
     1
  1
\A1;回リ縁
  7
STYLE1
 73
     1
 44
1.0
  0
LEADER
  5
1D566
330
747D
100
AcDbEntity
  8
寸法
 48
50.0
100
AcDbLeader
  3
INABA_S50G
 71
     0
 73
     0
 74
     0
 75
     1
 40
150.0
 41
530.0000000000001
 76
     3
 10
5486.486435667673
 20
11380.57994311244
 30
0.0
 10
5625.826863646911
 20
11092.92239508252
 30
0.0
 10
5750.826863646911
 20
11092.92239508252
 30
0.0
340
1D565
1001
ACAD
1000
DSTYLE
1002
{
1070
     6
1000
DOTSMALL
1002
}
  0
MTEXT
  5
1D567
102
{ACAD_REACTORS
330
1D568
102
}
330
747D
100
AcDbEntity
  8
寸法
 62
     7
 48
50.0
100
AcDbMText
 10
4993.134357941922
 20
11038.88356008286
 30
0.0
 40
150.0
 41
0.0
 71
     6
 72
     1
  1
\A1;桁後
  7
STYLE1
 73
     1
 44
1.0
  0
LEADER
  5
1D568
330
747D
100
AcDbEntity
  8
寸法
 48
50.0
100
AcDbLeader
  3
INABA_S50G
 71
     0
 73
     0
 75
     1
 40
150.0
 41
360.0000000000001
 76
     3
 10
5422.829581418173
 20
11432.20658912726
 30
0.0
 10
5143.134357941923
 20
10938.88356008286
 30
0.0
 10
5018.134357941923
 20
10938.88356008286
 30
0.0
340
1D567
1001
ACAD
1000
DSTYLE
1002
{
1070
     6
1000
DOTSMALL
1002
}
  0
MTEXT
  5
1D569
102
{ACAD_REACTORS
330
1D56A
102
}
330
747D
100
AcDbEntity
  8
寸法
 62
     7
 48
50.0
100
AcDbMText
 10
5030.044594101982
 20
11247.92104541545
 30
0.0
 40
150.0
 41
0.0
 71
     6
 72
     1
  1
\A1;雨樋
  7
STYLE1
 73
     1
 44
1.0
  0
LEADER
  5
1D56A
330
747D
100
AcDbEntity
  8
寸法
 48
50.0
100
AcDbLeader
  3
INABA_S50G
 71
     0
 73
     0
 75
     1
 40
150.0
 41
360.0
 76
     3
 10
5341.829581418173
 20
11409.54603623496
 30
0.0
 10
5180.044594101982
 20
11147.92104541545
 30
0.0
 10
5055.044594101982
 20
11147.92104541545
 30
0.0
340
1D569
1001
ACAD
1000
DSTYLE
1002
{
1070
     6
1000
DOTSMALL
1002
}
  0
LINE
  5
1D56B
330
747D
100
AcDbEntity
  8
部品1
 48
50.0
100
AcDbLine
 10
5384.263373546728
 20
11518.15851852404
 30
0.0
 11
5400.260761862718
 21
11518.44759821439
 31
0.0
  0
LINE
  5
1D56C
330
747D
100
AcDbEntity
  8
部品1
 48
50.0
100
AcDbLine
 10
5354.852555169109
 20
11540.63080728951
 30
0.0
 11
5384.263373546728
 21
11518.15851852404
 31
0.0
  0
LINE
  5
1D56D
330
747D
100
AcDbEntity
  8
部品1
 48
50.0
100
AcDbLine
 10
5328.706740792953
 20
11540.1583411735
 30
0.0
 11
5354.852555169109
 21
11540.63080728951
 31
0.0
  0
LINE
  5
1D56E
330
747D
100
AcDbEntity
  8
細線
 48
50.0
100
AcDbLine
 10
5364.539561381567
 20
11449.80118073934
 30
0.0
 11
5422.829581418184
 21
11450.72836802427
 31
0.0
  0
ARC
  5
1D56F
330
747D
100
AcDbEntity
  8
部品1
100
AcDbCircle
 10
5351.82958141818
 20
11409.54603623495
 30
0.0
 40
10.0
100
AcDbArc
 50
180.0
 51
270.0
  0
LINE
  5
1D570
330
747D
100
AcDbEntity
  8
部品1
100
AcDbLine
 10
5401.82958141818
 20
11448.54603623495
 30
0.0
 11
5401.82958141818
 21
11421.54603623495
 31
0.0
  0
LINE
  5
1D571
330
747D
100
AcDbEntity
  8
部品1
100
AcDbLine
 10
5401.829581418187
 20
11450.39433257581
 30
0.0
 11
5401.82958141818
 21
11409.54603623495
 31
0.0
  0
ARC
  5
1D572
330
747D
100
AcDbEntity
  8
部品1
100
AcDbCircle
 10
5391.82958141818
 20
11409.54603623495
 30
0.0
 40
10.0
100
AcDbArc
 50
270.0
 51
0.000000000000007
  0
LINE
  5
1D573
330
747D
100
AcDbEntity
  8
部品1
100
AcDbLine
 10
5391.82958141818
 20
11399.54603623495
 30
0.0
 11
5351.82958141818
 21
11399.54603623495
 31
0.0
  0
LINE
  5
1D574
330
747D
100
AcDbEntity
  8
部品1
100
AcDbLine
 10
5341.82958141818
 20
11409.54603623495
 30
0.0
 11
5341.82958141818
 21
11434.54603623495
 31
0.0
  0
LINE
  5
1D575
330
747D
100
AcDbEntity
  8
部品1
100
AcDbLine
 10
5339.482399800964
 20
11467.26280491303
 30
0.0
 11
5339.881238878705
 21
11463.51558742462
 31
0.0
  0
ARC
  5
1D576
330
747D
100
AcDbEntity
  8
部品1
 48
50.0
100
AcDbCircle
 10
5337.307980296053
 20
11470.68507021751
 30
0.0
 40
1.199999999999999
100
AcDbArc
 50
186.0754638750989
 51
265.1699938773959
  0
ARC
  5
1D577
330
747D
100
AcDbEntity
  8
部品1
 48
50.0
100
AcDbCircle
 10
5336.996441403269
 20
11466.99820928769
 30
0.0
 40
2.5
100
AcDbArc
 50
6.075463875091184
 51
85.16999387739907
  0
ARC
  5
1D578
330
747D
100
AcDbEntity
  8
部品1
100
AcDbCircle
 10
5355.294180944387
 20
11465.15608030175
 30
0.0
 40
15.5
100
AcDbArc
 50
186.0754638750791
 51
270.9112955958145
  0
LINE
  5
1D579
330
747D
100
AcDbEntity
  8
部品1
100
AcDbLine
 10
5327.916287634882
 20
11547.58489504694
 30
0.0
 11
5336.114720265159
 21
11470.55806431735
 31
0.0
  0
LINE
  5
1D57A
330
747D
100
AcDbEntity
  8
部品1
100
AcDbLine
 10
5347.323376691634
 20
11565.7922009353
 30
0.0
 11
5349.939382888242
 21
11572.82495737237
 31
0.0
  0
ARC
  5
1D57B
330
747D
100
AcDbEntity
  8
部品1
100
AcDbCircle
 10
5343.32958141818
 20
11549.22208342739
 30
0.0
 40
15.5
100
AcDbArc
 50
91.86125648319634
 51
186.0754638750989
  0
ARC
  5
1D57C
330
747D
100
AcDbEntity
  8
部品1
100
AcDbCircle
 10
5353.219786405305
 20
11571.60473085027
 30
0.0
 40
3.5
100
AcDbArc
 50
91.03524671598787
 51
159.5960814224235
  0
ARC
  5
1D57D
330
747D
100
AcDbEntity
  8
部品1
100
AcDbCircle
 10
5345.897882695197
 20
11566.26244516467
 30
0.0
 40
1.5
100
AcDbArc
 50
270.9018459011011
 51
339.5960814224101
  0
LINE
  5
1D57E
330
747D
100
AcDbEntity
  8
部品1
 48
50.0
100
AcDbLine
 10
5345.921491990768
 20
11564.76263097579
 30
0.0
 11
5342.826151637433
 21
11564.71390573647
 31
0.0
  0
LINE
  5
1D57F
330
747D
100
AcDbEntity
  8
部品1
100
AcDbLine
 10
5355.540699733727
 20
11449.65804079714
 30
0.0
 11
5364.539561381567
 21
11449.80118073934
 31
0.0
  0
LINE
  5
1D580
330
747D
100
AcDbEntity
  8
部品1
 48
50.0
100
AcDbLine
 10
5451.329581418187
 20
11478.73679736192
 30
0.0
 11
5474.829581418187
 21
11478.73679736192
 31
0.0
  0
LINE
  5
1D581
330
747D
100
AcDbEntity
  8
部品1
 48
50.0
100
AcDbLine
 10
5451.329581418187
 20
11493.73679736192
 30
0.0
 11
5451.329581418187
 21
11478.73679736192
 31
0.0
  0
LINE
  5
1D582
330
747D
100
AcDbEntity
  8
部品1
 48
50.0
100
AcDbLine
 10
5417.829581418187
 20
11493.73679736192
 30
0.0
 11
5451.329581418187
 21
11493.73679736192
 31
0.0
  0
LINE
  5
1D583
330
747D
100
AcDbEntity
  8
部品1
 48
50.0
100
AcDbLine
 10
5417.829581418187
 20
11493.73679736192
 30
0.0
 11
5417.829581418187
 21
11473.73679736192
 31
0.0
  0
LINE
  5
1D584
330
747D
100
AcDbEntity
  8
部品1
 48
50.0
100
AcDbLine
 10
5417.829581418187
 20
11473.73679736192
 30
0.0
 11
5422.829581418188
 21
11473.73679736192
 31
0.0
  0
LINE
  5
1D585
330
747D
100
AcDbEntity
  8
部品1
100
AcDbLine
 10
5422.829581418181
 20
11403.73679736192
 30
0.0
 11
5422.829581418181
 21
11363.73679736192
 31
0.0
  0
LINE
  5
1D586
330
747D
100
AcDbEntity
  8
部品1
 48
50.0
100
AcDbLine
 10
5472.829581418188
 20
11378.73679736192
 30
0.0
 11
5487.829581418187
 21
11393.73679736192
 31
0.0
  0
LINE
  5
1D587
330
747D
100
AcDbEntity
  8
部品1
100
AcDbLine
 10
5476.329581418188
 20
11367.5946617382
 30
0.0
 11
5483.658008542934
 21
11374.92308887178
 31
0.0
  0
LINE
  5
1D588
330
747D
100
AcDbEntity
  8
部品1
 48
50.0
100
AcDbLine
 10
5472.829581418188
 20
11378.73679736192
 30
0.0
 11
5473.329581418187
 21
11378.73679736192
 31
0.0
  0
LINE
  5
1D589
330
747D
100
AcDbEntity
  8
部品1
 48
50.0
100
AcDbLine
 10
5422.829581418188
 20
11378.73679736192
 30
0.0
 11
5472.829581418188
 21
11378.73679736192
 31
0.0
  0
LINE
  5
1D58A
330
747D
100
AcDbEntity
  8
部品1
100
AcDbLine
 10
5476.329581418188
 20
11367.5946617382
 30
0.0
 11
5473.329581418187
 21
11367.5946617382
 31
0.0
  0
LINE
  5
1D58B
330
747D
100
AcDbEntity
  8
部品1
 48
50.0
100
AcDbLine
 10
5487.829581418187
 20
11393.73679736192
 30
0.0
 11
5487.829581418187
 21
11413.73679736192
 31
0.0
  0
LINE
  5
1D58C
330
747D
100
AcDbEntity
  8
部品1
100
AcDbLine
 10
5497.471717041921
 20
11389.73679736192
 30
0.0
 11
5496.47171704192
 21
11389.73679736192
 31
0.0
  0
LINE
  5
1D58D
330
747D
100
AcDbEntity
  8
部品1
100
AcDbLine
 10
5497.471717041921
 20
11388.73679736192
 30
0.0
 11
5497.471717041921
 21
11389.73679736192
 31
0.0
  0
LINE
  5
1D58E
330
747D
100
AcDbEntity
  8
部品1
100
AcDbLine
 10
5496.47171704192
 20
11389.73679736192
 30
0.0
 11
5496.47171704192
 21
11393.73679736192
 31
0.0
  0
LINE
  5
1D58F
330
747D
100
AcDbEntity
  8
部品1
100
AcDbLine
 10
5490.021969573612
 20
11384.11547701836
 30
0.0
 11
5490.729076354797
 21
11383.40837023718
 31
0.0
  0
LINE
  5
1D590
330
747D
100
AcDbEntity
  8
部品1
100
AcDbLine
 10
5492.143289917174
 20
11383.40837023718
 30
0.0
 11
5497.471717041921
 21
11388.73679736192
 31
0.0
  0
ARC
  5
1D591
330
747D
100
AcDbEntity
  8
部品1
100
AcDbCircle
 10
5491.436183135982
 20
11384.11547701836
 30
0.0
 40
1.0
100
AcDbArc
 50
225.0
 51
315.0
  0
LINE
  5
1D592
330
747D
100
AcDbEntity
  8
部品1
100
AcDbLine
 10
5482.95090176175
 20
11377.0444092065
 30
0.0
 11
5490.021969573612
 21
11384.11547701836
 31
0.0
  0
LINE
  5
1D593
330
747D
100
AcDbEntity
  8
部品1
100
AcDbLine
 10
5483.658087601561
 20
11376.33722336669
 30
0.0
 11
5482.95090176175
 21
11377.0444092065
 31
0.0
  0
ARC
  5
1D594
330
747D
100
AcDbEntity
  8
部品1
100
AcDbCircle
 10
5482.95090176175
 20
11375.63019565296
 30
0.0
 40
1.0
100
AcDbArc
 50
314.9999999999995
 51
44.99999999999886
  0
LINE
  5
1D595
330
747D
100
AcDbEntity
  8
部品1
 48
50.0
100
AcDbLine
 10
5496.47171704192
 20
11393.73679736192
 30
0.0
 11
5487.829581418187
 21
11393.73679736192
 31
0.0
  0
LINE
  5
1D596
330
747D
100
AcDbEntity
  8
部品1
 48
50.0
100
AcDbLine
 10
5487.829581418187
 20
11413.73679736192
 30
0.0
 11
5509.829581418188
 21
11413.73679736192
 31
0.0
  0
LINE
  5
1D597
330
747D
100
AcDbEntity
  8
部品1
 48
50.0
100
AcDbLine
 10
5487.829581418187
 20
11413.73679736192
 30
0.0
 11
5509.829581418188
 21
11413.73679736192
 31
0.0
  0
LINE
  5
1D598
330
747D
100
AcDbEntity
  8
細線
 48
50.0
100
AcDbLine
 10
5472.731160847288
 20
11483.09436571743
 30
0.0
 11
5452.74649059786
 21
11482.3114512767
 31
0.0
  0
LINE
  5
1D599
330
747D
100
AcDbEntity
  8
細線
 48
50.0
100
AcDbLine
 10
5452.120159045269
 20
11498.29918747625
 30
0.0
 11
5452.74649059786
 21
11482.3114512767
 31
0.0
  0
LINE
  5
1D59A
330
747D
100
AcDbEntity
  8
細線
 48
50.0
100
AcDbLine
 10
5472.104829294702
 20
11499.08210191698
 30
0.0
 11
5472.731160847288
 21
11483.09436571743
 31
0.0
  0
LINE
  5
1D59B
330
747D
100
AcDbEntity
  8
細線
 48
50.0
100
AcDbLine
 10
5376.316439725099
 20
11517.34639559786
 30
0.0
 11
5377.177645609903
 21
11495.36325832349
 31
0.0
  0
LEADER
  5
1D59C
330
747D
100
AcDbEntity
  8
寸法
 48
50.0
100
AcDbLeader
  3
INABA_S50G
 71
     0
 73
     0
 74
     0
 75
     1
 40
150.0
 41
540.0000000000002
 76
     3
 10
6097.829581418181
 20
11442.38073961981
 30
0.0
 10
6176.744357697423
 20
11711.40987824753
 30
0.0
 10
6301.744357697423
 20
11711.40987824753
 30
0.0
340
1D4FB
1001
ACAD
1000
DSTYLE
1002
{
1070
     6
1000
DOTSMALL
1002
}
  0
LINE
  5
1D59D
330
747D
100
AcDbEntity
  8
部品1
 48
50.0
100
AcDbLine
 10
6054.82958141818
 20
11367.5946617382
 30
0.0
 11
6054.82958141818
 21
11284.72281612384
 31
0.0
  0
LINE
  5
1D59E
330
747D
100
AcDbEntity
  8
部品1
 48
50.0
100
AcDbLine
 10
6090.82958141818
 20
11367.5946617382
 30
0.0
 11
6090.82958141818
 21
11284.72281612384
 31
0.0
  0
LINE
  5
1D59F
330
747D
100
AcDbEntity
  8
部品1
 48
50.0
100
AcDbLine
 10
6067.82958141818
 20
11516.73679736192
 30
0.0
 11
6067.82958141818
 21
11505.73679736192
 31
0.0
  0
LINE
  5
1D5A0
330
747D
100
AcDbEntity
  8
部品1
 48
50.0
100
AcDbLine
 10
6097.829581418181
 20
11518.23679736192
 30
0.0
 11
6067.82958141818
 21
11516.73679736192
 31
0.0
  0
LINE
  5
1D5A1
330
747D
100
AcDbEntity
  8
部品1
 48
50.0
100
AcDbLine
 10
6067.82958141818
 20
11505.73679736192
 30
0.0
 11
6047.829581418181
 21
11504.73679736192
 31
0.0
  0
LINE
  5
1D5A2
330
747D
100
AcDbEntity
  8
部品1
 48
50.0
100
AcDbLine
 10
6047.829581418181
 20
11425.73679736192
 30
0.0
 11
6047.829581418181
 21
11413.73679736192
 31
0.0
  0
LINE
  5
1D5A3
330
747D
100
AcDbEntity
  8
部品1
 48
50.0
100
AcDbLine
 10
6047.829581418181
 20
11413.73679736192
 30
0.0
 11
6097.829581418181
 21
11413.73679736192
 31
0.0
  0
LINE
  5
1D5A4
330
747D
100
AcDbEntity
  8
部品1
 48
50.0
100
AcDbLine
 10
6097.829581418181
 20
11413.73679736192
 30
0.0
 11
6097.829581418181
 21
11518.23679736192
 31
0.0
  0
LINE
  5
1D5A5
330
747D
100
AcDbEntity
  8
細線
 48
50.0
100
AcDbLine
 10
6067.574870821601
 20
11506.39781404586
 30
0.0
 11
6047.590200572173
 21
11505.61489960513
 31
0.0
  0
LINE
  5
1D5A6
330
747D
100
AcDbEntity
  8
細線
 48
50.0
100
AcDbLine
 10
6046.963869019583
 20
11521.60263580468
 30
0.0
 11
6047.59020057217
 21
11505.61489960513
 31
0.0
  0
LINE
  5
1D5A7
330
747D
100
AcDbEntity
  8
細線
 48
50.0
100
AcDbLine
 10
6066.948539269015
 20
11522.38555024541
 30
0.0
 11
6067.574870821601
 21
11506.39781404587
 31
0.0
  0
LINE
  5
1D5A8
330
747D
100
AcDbEntity
  8
部品1
 48
50.0
100
AcDbLine
 10
6677.82958141818
 20
11541.23679736192
 30
0.0
 11
6647.82958141818
 21
11539.73679736192
 31
0.0
  0
LINE
  5
1D5A9
330
747D
100
AcDbEntity
  8
部品1
 48
50.0
100
AcDbLine
 10
6647.82958141818
 20
11528.73679736192
 30
0.0
 11
6627.82958141818
 21
11527.73679736192
 31
0.0
  0
LINE
  5
1D5AA
330
747D
100
AcDbEntity
  8
部品1
 48
50.0
100
AcDbLine
 10
6647.82958141818
 20
11539.73679736192
 30
0.0
 11
6647.82958141818
 21
11528.73679736192
 31
0.0
  0
LINE
  5
1D5AB
330
747D
100
AcDbEntity
  8
部品1
 48
50.0
100
AcDbLine
 10
6627.82958141818
 20
11413.73679736192
 30
0.0
 11
6677.82958141818
 21
11413.73679736192
 31
0.0
  0
LINE
  5
1D5AC
330
747D
100
AcDbEntity
  8
部品1
 48
50.0
100
AcDbLine
 10
6627.82958141818
 20
11425.73679736192
 30
0.0
 11
6627.82958141818
 21
11413.73679736192
 31
0.0
  0
LINE
  5
1D5AD
330
747D
100
AcDbEntity
  8
部品1
 48
50.0
100
AcDbLine
 10
6677.82958141818
 20
11413.73679736192
 30
0.0
 11
6677.82958141818
 21
11541.23679736192
 31
0.0
  0
LINE
  5
1D5AE
330
747D
100
AcDbEntity
  8
細線
 48
50.0
100
AcDbLine
 10
6646.803746556256
 20
11545.1018127433
 30
0.0
 11
6647.430078108839
 21
11529.11407654375
 31
0.0
  0
LINE
  5
1D5AF
330
747D
100
AcDbEntity
  8
細線
 48
50.0
100
AcDbLine
 10
6626.819076306819
 20
11544.31889830257
 30
0.0
 11
6627.445407859406
 21
11528.33116210301
 31
0.0
  0
LINE
  5
1D5B0
330
747D
100
AcDbEntity
  8
細線
 48
50.0
100
AcDbLine
 10
6647.430078108839
 20
11529.11407654375
 30
0.0
 11
6627.44540785941
 21
11528.33116210301
 31
0.0
  0
DIMENSION
  5
1D5B1
330
747D
100
AcDbEntity
  8
寸法
 48
50.0
100
AcDbDimension
  2
*D48
 10
7882.829581418184
 20
12327.01792807845
 30
0.0
 11
8300.3886365363
 21
12327.01792807845
 31
0.0
 70
   160
 71
     5
 42
-1.0
  3
INABA_S50G
100
AcDbAlignedDimension
 13
8017.829581418176
 23
11633.73679736192
 33
0.0
 14
7882.829581418184
 24
11631.29728927304
 34
0.0
100
AcDbRotatedDimension
  0
INSERT
  5
1D5B2
330
747D
100
AcDbEntity
  8
部品1
 48
50.0
100
AcDbBlockReference
  2
A$C5FCD7CC6
 10
7992.293607320156
 20
11500.97556754829
 30
0.0
 50
359.007601206361
  0
MTEXT
  5
1D5B3
102
{ACAD_REACTORS
330
1D5B4
102
}
330
747D
100
AcDbEntity
  8
寸法
 62
     7
 48
50.0
100
AcDbMText
 10
8265.640527615024
 20
12174.04804154394
 30
0.0
 40
150.0
 41
0.0
 71
     4
 72
     1
  1
\A1;鼻隠シ前
  7
STYLE1
 73
     1
 44
1.0
  0
LEADER
  5
1D5B4
330
747D
100
AcDbEntity
  8
寸法
 48
50.0
100
AcDbLeader
  3
INABA_S50G
 71
     0
 73
     0
 74
     0
 75
     1
 40
150.0
 41
697.5
 76
     3
 10
8016.960128916945
 20
11573.51069687733
 30
0.0
 10
8115.640527615026
 20
12074.04804154394
 30
0.0
 10
8240.640527615026
 20
12074.04804154394
 30
0.0
340
1D5B3
1001
ACAD
1000
DSTYLE
1002
{
1070
     6
1000
DOTSMALL
1002
}
  0
MTEXT
  5
1D5B5
102
{ACAD_REACTORS
330
1D5B6
102
}
330
747D
100
AcDbEntity
  8
部品1
 62
     7
 48
50.0
100
AcDbMText
 10
7667.398379866907
 20
8716.282041753688
 30
0.0
 40
150.0
 41
0.0
 71
     4
 72
     1
  1
\A1;ジョイントカバー
  7
STYLE1
 73
     1
 44
1.0
  0
LEADER
  5
1D5B6
330
747D
100
AcDbEntity
  8
寸法
 48
50.0
100
AcDbLeader
  3
INABA_S50G
 71
     0
 73
     0
 74
     0
 75
     1
 40
150.0
 41
1397.5
 76
     3
 10
7244.066180607693
 20
9547.434887568455
 30
0.0
 10
7517.398379866907
 20
8616.282041753688
 30
0.0
 10
7642.398379866907
 20
8616.282041753688
 30
0.0
340
1D5B5
1001
ACAD
1000
DSTYLE
1002
{
1070
     6
1000
DOTSMALL
1002
}
  0
LINE
  5
1D5B7
330
747D
100
AcDbEntity
  8
部品1
100
AcDbLine
 10
7289.055136608542
 20
7310.010941144016
 30
0.0
 11
7289.055136608542
 21
7709.831477053232
 31
0.0
  0
DIMENSION
  5
1D5B8
330
747D
100
AcDbEntity
  8
寸法
 48
50.0
100
AcDbDimension
  2
*D49
 10
9767.490021403355
 20
9363.736797361928
 30
0.0
 11
9667.475257623827
 21
10498.73679736192
 31
0.0
 70
    32
 71
     5
 42
-1.0
  3
INABA_S50G
100
AcDbAlignedDimension
 13
8017.829581418183
 23
11633.73679736192
 33
0.0
 14
7882.829581418177
 24
9363.736797361928
 34
0.0
 50
270.0
100
AcDbRotatedDimension
  0
MTEXT
  5
1D5B9
102
{ACAD_REACTORS
330
1D5F7
102
}
330
747D
100
AcDbEntity
  8
寸法
 62
     7
 48
50.0
100
AcDbMText
 10
7641.391372236786
 20
10202.5518772182
 30
0.0
 40
150.0
 41
0.0
 71
     6
 72
     1
  1
\A1;額縁
  7
STYLE1
 73
     1
 44
1.0
  0
LINE
  5
1D5BA
330
747D
100
AcDbEntity
  8
部品1
 48
50.0
100
AcDbLine
 10
7796.329581418176
 20
11367.5946617382
 30
0.0
 11
7796.329581418176
 21
9470.736797361928
 31
0.0
  0
LINE
  5
1D5BB
330
747D
100
AcDbEntity
  8
細線
 48
50.0
100
AcDbLine
 10
7883.129581418173
 20
10191.73679736192
 30
0.0
 11
7883.129581418216
 21
11179.23679736191
 31
0.0
  0
LINE
  5
1D5BC
330
747D
100
AcDbEntity
  8
細線
 48
50.0
100
AcDbLine
 10
7860.129581418179
 20
10191.73679736192
 30
0.0
 11
7860.129581418187
 21
11179.23679736191
 31
0.0
  0
LINE
  5
1D5BD
330
747D
100
AcDbEntity
  8
細線
 48
50.0
100
AcDbLine
 10
7850.579581418156
 20
10191.73679736194
 30
0.0
 11
7850.579581418198
 21
11179.23679736193
 31
0.0
  0
LINE
  5
1D5BE
330
747D
100
AcDbEntity
  8
細線
 48
50.0
100
AcDbLine
 10
7826.079581418162
 20
10191.73679736194
 30
0.0
 11
7826.079581418169
 21
11179.23679736193
 31
0.0
  0
DIMENSION
  5
1D5BF
330
747D
100
AcDbEntity
  8
寸法
 48
50.0
100
AcDbDimension
  2
*D50
 10
9101.033355093795
 20
11218.73679736192
 30
0.0
 11
9001.033355093793
 21
10683.73679736192
 31
0.0
 70
    32
 71
     5
 42
-1.0
  3
INABA_S50G
100
AcDbAlignedDimension
 13
7882.829581418177
 23
10148.73679736192
 33
0.0
 14
7882.82958141817
 24
11218.73679736192
 34
0.0
 50
90.0
100
AcDbRotatedDimension
1001
ACAD
1000
DSTYLE
1002
{
1070
   287
1070
     4
1070
    75
1070
     1
1070
   279
1070
     1
1002
}
  0
DIMENSION
  5
1D5C0
330
747D
100
AcDbEntity
  8
寸法
 48
50.0
100
AcDbDimension
  2
*D51
 10
9433.235356238895
 20
9418.736797361928
 30
0.0
 11
9333.235356238896
 21
10391.23679736192
 31
0.0
 70
    32
 71
     5
 42
-1.0
  3
INABA_S50G
100
AcDbAlignedDimension
 13
7882.829581418177
 23
11363.73679736192
 33
0.0
 14
9101.033355093795
 24
9418.736797361928
 34
0.0
 50
270.0
100
AcDbRotatedDimension
  0
LINE
  5
1D5C1
330
747D
100
AcDbEntity
  8
部品1
 48
50.0
100
AcDbLine
 10
7214.829581418181
 20
11367.5946617382
 30
0.0
 11
7214.829581418181
 21
9470.736797361928
 31
0.0
  0
LINE
  5
1D5C2
330
747D
100
AcDbEntity
  8
部品1
 48
50.0
100
AcDbLine
 10
7250.82958141818
 20
11367.5946617382
 30
0.0
 11
7250.82958141818
 21
9470.736797361928
 31
0.0
  0
DIMENSION
  5
1D5C3
330
747D
100
AcDbEntity
  8
寸法
 48
50.0
100
AcDbDimension
  2
*D52
 10
9433.235356238895
 20
9363.736797361928
 30
0.0
 11
9433.235356238895
 21
9108.672248427685
 31
0.0
 70
   160
 71
     5
 42
-1.0
  3
INABA_S50G
100
AcDbAlignedDimension
 13
9101.033355093795
 23
9418.736797361928
 33
0.0
 14
7882.829581418177
 24
9363.736797361928
 34
0.0
 50
270.0
100
AcDbRotatedDimension
  0
DIMENSION
  5
1D5C4
330
747D
100
AcDbEntity
  8
寸法
 48
50.0
100
AcDbDimension
  2
*D53
 10
9101.033355093795
 20
10148.73679736192
 30
0.0
 11
9001.033355093793
 21
9756.236797361928
 31
0.0
 70
    32
 71
     5
 42
-1.0
  3
INABA_S50G
100
AcDbAlignedDimension
 13
7882.829581418177
 23
9363.736797361928
 33
0.0
 14
7882.829581418177
 24
10148.73679736192
 34
0.0
 50
90.0
100
AcDbRotatedDimension
  0
LINE
  5
1D5C5
330
747D
100
AcDbEntity
  8
部品1
 48
50.0
100
AcDbLine
 10
7832.329581418169
 20
10148.73679736192
 30
0.0
 11
7832.329581418176
 21
9430.736797361928
 31
0.0
  0
LINE
  5
1D5C6
330
747D
100
AcDbEntity
  8
細線
 48
50.0
100
AcDbLine
 10
7847.829581418169
 20
10148.73679736192
 30
0.0
 11
7847.829581418176
 21
9418.736797361928
 31
0.0
  0
LINE
  5
1D5C7
330
747D
100
AcDbEntity
  8
部品1
 48
50.0
100
AcDbLine
 10
7882.829581418177
 20
10148.73679736192
 30
0.0
 11
7882.829581418177
 21
9418.736797361928
 31
0.0
  0
LINE
  5
1D5C8
330
747D
100
AcDbEntity
  8
部品1
 48
50.0
100
AcDbLine
 10
7823.329581418177
 20
9470.736797361928
 30
0.0
 11
7823.329581418177
 21
9430.736797361928
 31
0.0
  0
MTEXT
  5
1D5C9
102
{ACAD_REACTORS
330
1D5CA
102
}
330
747D
100
AcDbEntity
  8
寸法
 62
     7
 48
50.0
100
AcDbMText
 10
7610.133267264129
 20
9701.080712269252
 30
0.0
 40
150.0
 41
0.0
 71
     6
 72
     1
  1
\A1;巾木
  7
STYLE1
 73
     1
 44
1.0
  0
LEADER
  5
1D5CA
330
747D
100
AcDbEntity
  8
寸法
 48
50.0
100
AcDbLeader
  3
INABA_S50G
 71
     0
 73
     0
 75
     1
 40
150.0
 41
310.0
 76
     3
 10
7823.329581418177
 20
9455.070269982718
 30
0.0
 10
7760.133267264129
 20
9601.080712269251
 30
0.0
 10
7635.133267264129
 20
9601.080712269251
 30
0.0
340
1D5C9
1001
ACAD
1000
DSTYLE
1002
{
1070
     6
1000
DOTSMALL
1002
}
  0
LINE
  5
1D5CB
330
747D
100
AcDbEntity
  8
細線
 48
50.0
100
AcDbLine
 10
7908.120029629121
 20
9028.736797361927
 30
0.0
 11
7751.829581418177
 21
9185.02724557288
 31
0.0
  0
LINE
  5
1D5CC
330
747D
100
AcDbEntity
  8
細線
 48
50.0
100
AcDbLine
 10
7881.603525334634
 20
9028.736797361927
 30
0.0
 11
7751.829581418177
 21
9158.510741278385
 31
0.0
  0
LINE
  5
1D5CD
330
747D
100
AcDbEntity
  8
細線
 48
50.0
100
AcDbLine
 10
7855.087021040134
 20
9028.736797361927
 30
0.0
 11
7751.829581418177
 21
9131.994236983883
 31
0.0
  0
LINE
  5
1D5CE
330
747D
100
AcDbEntity
  8
部品1
 48
50.0
100
AcDbLine
 10
7951.829581418177
 20
9028.736797361927
 30
0.0
 11
7751.829581418177
 21
9028.736797361927
 31
0.0
  0
LINE
  5
1D5CF
330
747D
100
AcDbEntity
  8
細線
 48
50.0
100
AcDbLine
 10
7759.039133207233
 20
9228.736797361928
 30
0.0
 11
7882.829581418177
 21
9352.527245572872
 31
0.0
  0
LINE
  5
1D5D0
330
747D
100
AcDbEntity
  8
部品1
 48
50.0
100
AcDbLine
 10
7218.829581418184
 20
9418.736797361928
 30
0.0
 11
7212.829581418183
 21
9418.736797361928
 31
0.0
  0
LINE
  5
1D5D1
330
747D
100
AcDbEntity
  8
部品1
 48
50.0
100
AcDbLine
 10
7218.829581418184
 20
9418.736797361928
 30
0.0
 11
7218.829581418184
 21
9412.736797361928
 31
0.0
  0
LINE
  5
1D5D2
330
747D
100
AcDbEntity
  8
部品1
 48
50.0
100
AcDbLine
 10
7212.829581418183
 20
9418.736797361928
 30
0.0
 11
7212.829581418183
 21
9363.736797361928
 31
0.0
  0
LINE
  5
1D5D3
330
747D
100
AcDbEntity
  8
部品1
 48
50.0
100
AcDbLine
 10
7246.829581418184
 20
9412.736797361928
 30
0.0
 11
7246.829581418184
 21
9418.736797361928
 31
0.0
  0
LINE
  5
1D5D4
330
747D
100
AcDbEntity
  8
部品1
 48
50.0
100
AcDbLine
 10
7252.829581418184
 20
9418.736797361928
 30
0.0
 11
7246.829581418184
 21
9418.736797361928
 31
0.0
  0
LINE
  5
1D5D5
330
747D
100
AcDbEntity
  8
部品1
 48
50.0
100
AcDbLine
 10
7252.829581418184
 20
9363.736797361928
 30
0.0
 11
7252.829581418184
 21
9418.736797361928
 31
0.0
  0
LINE
  5
1D5D6
330
747D
100
AcDbEntity
  8
部品1
 48
50.0
100
AcDbLine
 10
7246.829581418184
 20
9412.736797361928
 30
0.0
 11
7218.829581418184
 21
9412.736797361928
 31
0.0
  0
LINE
  5
1D5D7
330
747D
100
AcDbEntity
  8
部品1
 48
50.0
100
AcDbLine
 10
7542.829581418184
 20
9363.736797361928
 30
0.0
 11
7542.829581418184
 21
9418.736797361928
 31
0.0
  0
LINE
  5
1D5D8
330
747D
100
AcDbEntity
  8
部品1
 48
50.0
100
AcDbLine
 10
7502.829581418184
 20
9418.736797361928
 30
0.0
 11
7502.829581418184
 21
9363.736797361928
 31
0.0
  0
LINE
  5
1D5D9
330
747D
100
AcDbEntity
  8
部品1
 48
50.0
100
AcDbLine
 10
7536.829581418183
 20
9412.736797361928
 30
0.0
 11
7536.829581418183
 21
9418.736797361928
 31
0.0
  0
LINE
  5
1D5DA
330
747D
100
AcDbEntity
  8
部品1
 48
50.0
100
AcDbLine
 10
7508.829581418183
 20
9418.736797361928
 30
0.0
 11
7508.829581418183
 21
9412.736797361928
 31
0.0
  0
LINE
  5
1D5DB
330
747D
100
AcDbEntity
  8
部品1
 48
50.0
100
AcDbLine
 10
7536.829581418183
 20
9412.736797361928
 30
0.0
 11
7508.829581418183
 21
9412.736797361928
 31
0.0
  0
LINE
  5
1D5DC
330
747D
100
AcDbEntity
  8
部品1
 48
50.0
100
AcDbLine
 10
7542.829581418184
 20
9418.736797361928
 30
0.0
 11
7536.829581418183
 21
9418.736797361928
 31
0.0
  0
LINE
  5
1D5DD
330
747D
100
AcDbEntity
  8
部品1
 48
50.0
100
AcDbLine
 10
7508.829581418183
 20
9418.736797361928
 30
0.0
 11
7502.829581418184
 21
9418.736797361928
 31
0.0
  0
LINE
  5
1D5DE
330
747D
100
AcDbEntity
  8
部品1
 48
50.0
100
AcDbLine
 10
7682.829581418177
 20
9363.736797361928
 30
0.0
 11
7682.829581418177
 21
9228.736797361928
 31
0.0
  0
LINE
  5
1D5DF
330
747D
100
AcDbEntity
  8
細線
 48
50.0
100
AcDbLine
 10
7682.829581418177
 20
9302.527245572873
 30
0.0
 11
7744.039133207232
 21
9363.736797361928
 31
0.0
  0
LINE
  5
1D5E0
330
747D
100
AcDbEntity
  8
部品1
 48
50.0
100
AcDbLine
 10
7751.829581418177
 20
9028.736797361927
 30
0.0
 11
7751.829581418177
 21
9228.736797361928
 31
0.0
  0
LINE
  5
1D5E1
330
747D
100
AcDbEntity
  8
細線
 48
50.0
100
AcDbLine
 10
7682.829581418184
 20
9276.010741278378
 30
0.0
 11
7770.555637501726
 21
9363.736797361928
 31
0.0
  0
LINE
  5
1D5E2
330
747D
100
AcDbEntity
  8
部品1
 48
50.0
100
AcDbLine
 10
7882.829581418177
 20
9412.736797361928
 30
0.0
 11
7882.829581418177
 21
9363.736797361928
 31
0.0
  0
LINE
  5
1D5E3
330
747D
100
AcDbEntity
  8
部品1
 48
50.0
100
AcDbLine
 10
7823.329581418177
 20
9430.736797361928
 30
0.0
 11
7832.329581418176
 21
9430.736797361928
 31
0.0
  0
LINE
  5
1D5E4
330
747D
100
AcDbEntity
  8
部品1
 48
50.0
100
AcDbLine
 10
7876.829581418177
 20
9412.736797361928
 30
0.0
 11
7876.829581418177
 21
9418.736797361928
 31
0.0
  0
LINE
  5
1D5E5
330
747D
100
AcDbEntity
  8
部品1
 48
50.0
100
AcDbLine
 10
7882.829581418177
 20
9412.736797361928
 30
0.0
 11
7876.829581418177
 21
9412.736797361928
 31
0.0
  0
LINE
  5
1D5E6
330
747D
100
AcDbEntity
  8
部品1
 48
50.0
100
AcDbLine
 10
7794.329581418176
 20
9411.736797361928
 30
0.0
 11
7794.329581418184
 21
9363.736797361928
 31
0.0
  0
LINE
  5
1D5E7
330
747D
100
AcDbEntity
  8
部品1
 48
50.0
100
AcDbLine
 10
7818.329581418176
 20
9411.736797361928
 30
0.0
 11
7794.329581418176
 21
9411.736797361928
 31
0.0
  0
LINE
  5
1D5E8
330
747D
100
AcDbEntity
  8
部品1
 48
50.0
100
AcDbLine
 10
7818.329581418176
 20
9418.736797361928
 30
0.0
 11
7818.329581418176
 21
9411.736797361928
 31
0.0
  0
LINE
  5
1D5E9
330
747D
100
AcDbEntity
  8
部品1
 48
50.0
100
AcDbLine
 10
7832.329581418176
 20
9418.736797361928
 30
0.0
 11
7818.329581418176
 21
9418.736797361928
 31
0.0
  0
LINE
  5
1D5EA
330
747D
100
AcDbEntity
  8
部品1
 48
50.0
100
AcDbLine
 10
7832.329581418176
 20
9430.736797361928
 30
0.0
 11
7832.329581418176
 21
9418.736797361928
 31
0.0
  0
LINE
  5
1D5EB
330
747D
100
AcDbEntity
  8
部品1
 48
50.0
100
AcDbLine
 10
7847.329581418176
 20
9430.736797361928
 30
0.0
 11
7832.329581418176
 21
9430.736797361928
 31
0.0
  0
LINE
  5
1D5EC
330
747D
100
AcDbEntity
  8
部品1
 48
50.0
100
AcDbLine
 10
7847.329581418176
 20
9418.736797361928
 30
0.0
 11
7847.329581418176
 21
9430.736797361928
 31
0.0
  0
LINE
  5
1D5ED
330
747D
100
AcDbEntity
  8
部品1
 48
50.0
100
AcDbLine
 10
7882.829581418177
 20
9418.736797361928
 30
0.0
 11
7847.329581418176
 21
9418.736797361928
 31
0.0
  0
LINE
  5
1D5EE
330
747D
100
AcDbEntity
  8
破線
 48
3.0
100
AcDbLine
 10
7872.829581418177
 20
9228.736797361928
 30
0.0
 11
7872.829581418177
 21
9122.736797361929
 31
0.0
  0
LINE
  5
1D5EF
330
747D
100
AcDbEntity
  8
破線
 48
3.0
100
AcDbLine
 10
7830.829581418176
 20
9228.736797361928
 30
0.0
 11
7830.829581418176
 21
9122.736797361929
 31
0.0
  0
LINE
  5
1D5F0
330
747D
100
AcDbEntity
  8
部品1
 48
50.0
100
AcDbLine
 10
7951.829581418177
 20
9228.736797361928
 30
0.0
 11
7951.829581418177
 21
9028.736797361927
 31
0.0
  0
LINE
  5
1D5F1
330
747D
100
AcDbEntity
  8
細線
 48
50.0
100
AcDbLine
 10
7951.829581418177
 20
9081.994236983884
 30
0.0
 11
7805.087021040148
 21
9228.736797361928
 31
0.0
  0
LINE
  5
1D5F2
330
747D
100
AcDbEntity
  8
細線
 48
50.0
100
AcDbLine
 10
7951.829581418177
 20
9135.02724557288
 30
0.0
 11
7858.120029629121
 21
9228.736797361928
 31
0.0
  0
LINE
  5
1D5F3
330
747D
100
AcDbEntity
  8
細線
 48
50.0
100
AcDbLine
 10
7951.829581418177
 20
9108.510741278385
 30
0.0
 11
7831.603525334649
 21
9228.736797361928
 31
0.0
  0
LINE
  5
1D5F4
330
747D
100
AcDbEntity
  8
破線
 48
3.0
100
AcDbLine
 10
7872.829581418177
 20
9122.736797361929
 30
0.0
 11
7830.829581418176
 21
9122.736797361929
 31
0.0
  0
LINE
  5
1D5F5
330
747D
100
AcDbEntity
  8
部品1
 48
50.0
100
AcDbLine
 10
7882.829581418177
 20
9363.736797361928
 30
0.0
 11
7882.829581418177
 21
9228.736797361928
 31
0.0
  0
LINE
  5
1D5F6
330
747D
100
AcDbEntity
  8
細線
 48
50.0
100
AcDbLine
 10
7785.555637501733
 20
9228.736797361928
 30
0.0
 11
7882.829581418177
 21
9326.010741278386
 31
0.0
  0
LEADER
  5
1D5F7
330
747D
100
AcDbEntity
  8
寸法
 48
50.0
100
AcDbLeader
  3
INABA_S50G
 71
     0
 73
     0
 75
     1
 40
150.0
 41
360.0
 76
     3
 10
7823.329581418177
 20
10156.36369594979
 30
0.0
 10
7791.391372236787
 20
10102.55187721819
 30
0.0
 10
7666.391372236787
 20
10102.55187721819
 30
0.0
340
1D5B9
1001
ACAD
1000
DSTYLE
1002
{
1070
     6
1000
DOTSMALL
1002
}
  0
LINE
  5
1D5F8
330
747D
100
AcDbEntity
  8
細線
 48
50.0
100
AcDbLine
 10
7882.829581418184
 20
10171.63679736192
 30
0.0
 11
7891.329581418169
 21
10171.63679736192
 31
0.0
  0
LINE
  5
1D5F9
330
747D
100
AcDbEntity
  8
細線
 48
50.0
100
AcDbLine
 10
7891.329581418183
 20
10162.73679736192
 30
0.0
 11
7851.029581418173
 21
10162.73679736192
 31
0.0
  0
LINE
  5
1D5FA
330
747D
100
AcDbEntity
  8
細線
 48
50.0
100
AcDbLine
 10
7882.829581418177
 20
10148.73679736192
 30
0.0
 11
7832.329581418176
 21
10148.73679736192
 31
0.0
  0
LINE
  5
1D5FB
330
747D
100
AcDbEntity
  8
細線
 48
50.0
100
AcDbLine
 10
7832.329581418176
 20
10136.73679736192
 30
0.0
 11
7832.329581418176
 21
10172.73679736192
 31
0.0
  0
LINE
  5
1D5FC
330
747D
100
AcDbEntity
  8
細線
 48
50.0
100
AcDbLine
 10
7832.329581418176
 20
10172.73679736192
 30
0.0
 11
7820.329581418177
 21
10172.73679736192
 31
0.0
  0
LINE
  5
1D5FD
330
747D
100
AcDbEntity
  8
細線
 48
50.0
100
AcDbLine
 10
7821.329581418176
 20
10172.73679736192
 30
0.0
 11
7821.329581418176
 21
10200.73679736192
 31
0.0
  0
LINE
  5
1D5FE
330
747D
100
AcDbEntity
  8
細線
 48
50.0
100
AcDbLine
 10
7821.329581418176
 20
10185.23679736192
 30
0.0
 11
7851.029581418173
 21
10184.23679736192
 31
0.0
  0
LINE
  5
1D5FF
330
747D
100
AcDbEntity
  8
細線
 48
50.0
100
AcDbLine
 10
7838.329581418169
 20
10184.66440678954
 30
0.0
 11
7838.329581418176
 21
10201.73679736192
 31
0.0
  0
LINE
  5
1D600
330
747D
100
AcDbEntity
  8
細線
 48
50.0
100
AcDbLine
 10
7871.629581418172
 20
10181.08899861978
 30
0.0
 11
7871.629581418179
 21
10201.73679736192
 31
0.0
  0
LINE
  5
1D601
330
747D
100
AcDbEntity
  8
細線
 48
50.0
100
AcDbLine
 10
7851.029581418173
 20
10184.23679736192
 30
0.0
 11
7851.029581418181
 21
10148.73679736192
 31
0.0
  0
LINE
  5
1D602
330
747D
100
AcDbEntity
  8
細線
 48
50.0
100
AcDbLine
 10
7851.029581418173
 20
10181.73679736192
 30
0.0
 11
7882.829581418184
 21
10180.73679736192
 31
0.0
  0
LINE
  5
1D603
330
747D
100
AcDbEntity
  8
細線
 48
50.0
100
AcDbLine
 10
7882.829581418184
 20
10180.73679736192
 30
0.0
 11
7882.829581418184
 21
10162.73679736192
 31
0.0
  0
LINE
  5
1D604
330
747D
100
AcDbEntity
  8
細線
 48
50.0
100
AcDbLine
 10
7887.129581418186
 20
10162.73679736192
 30
0.0
 11
7887.129581418186
 21
10144.23679736192
 31
0.0
  0
LINE
  5
1D605
330
747D
100
AcDbEntity
  8
細線
 48
50.0
100
AcDbLine
 10
7887.129581418179
 20
10144.23679736192
 30
0.0
 11
7882.829581418177
 21
10144.23679736192
 31
0.0
  0
LINE
  5
1D606
330
747D
100
AcDbEntity
  8
細線
 48
50.0
100
AcDbLine
 10
7820.329581418177
 20
10136.73679736192
 30
0.0
 11
7820.329581418177
 21
10172.73679736192
 31
0.0
  0
LINE
  5
1D607
330
747D
100
AcDbEntity
  8
細線
 48
50.0
100
AcDbLine
 10
7832.329581418176
 20
10136.73679736192
 30
0.0
 11
7820.329581418177
 21
10136.73679736192
 31
0.0
  0
LINE
  5
1D608
330
747D
100
AcDbEntity
  8
細線
 48
50.0
100
AcDbLine
 10
7883.129581418173
 20
10191.73679736192
 30
0.0
 11
7860.129581418179
 21
10191.73679736192
 31
0.0
  0
LINE
  5
1D609
330
747D
100
AcDbEntity
  8
細線
 48
50.0
100
AcDbLine
 10
7850.579581418156
 20
10191.73679736194
 30
0.0
 11
7826.079581418162
 21
10191.73679736194
 31
0.0
  0
LINE
  5
1D60A
330
747D
100
AcDbEntity
  8
細線
 48
50.0
100
AcDbLine
 10
7891.329581418169
 20
10171.63679736192
 30
0.0
 11
7891.329581418183
 21
10180.73679736192
 31
0.0
  0
LINE
  5
1D60B
330
747D
100
AcDbEntity
  8
細線
 48
50.0
100
AcDbLine
 10
7891.329581418183
 20
10162.73679736192
 30
0.0
 11
7891.329581418183
 21
10159.73679736192
 31
0.0
  0
LINE
  5
1D60C
330
747D
100
AcDbEntity
  8
部品1
 48
50.0
100
AcDbLine
 10
7832.329581418176
 20
9470.736797361928
 30
0.0
 11
7823.329581418177
 21
9470.736797361928
 31
0.0
  0
MTEXT
  5
1D60D
102
{ACAD_REACTORS
330
1D60E
102
}
330
747D
100
AcDbEntity
  8
寸法
 62
     7
 48
50.0
100
AcDbMText
 10
8175.143168490206
 20
10535.24827682972
 30
0.0
 40
150.0
 41
0.0
 71
     4
 72
     1
  1
\A1;ガラス窓
  7
STYLE1
 73
     1
 44
1.0
  0
LEADER
  5
1D60E
330
747D
100
AcDbEntity
  8
寸法
 48
50.0
100
AcDbLeader
  3
INABA_S50G
 71
     0
 73
     0
 74
     0
 75
     1
 40
150.0
 41
709.9999999999998
 76
     3
 10
7875.193960732795
 20
10722.90582485964
 30
0.0
 10
8025.143168490206
 20
10435.24827682972
 30
0.0
 10
8150.143168490206
 20
10435.24827682972
 30
0.0
340
1D60D
1001
ACAD
1000
DSTYLE
1002
{
1070
     6
1000
DOTSMALL
1002
}
  0
MTEXT
  5
1D60F
102
{ACAD_REACTORS
330
1D610
102
}
330
747D
100
AcDbEntity
  8
寸法
 62
     7
 48
50.0
100
AcDbMText
 10
8248.97877427427
 20
11097.85083762996
 30
0.0
 40
150.0
 41
0.0
 71
     4
 72
     1
  1
\A1;桁前
  7
STYLE1
 73
     1
 44
1.0
  0
LEADER
  5
1D610
330
747D
100
AcDbEntity
  8
寸法
 48
50.0
100
AcDbLeader
  3
INABA_S50G
 71
     0
 73
     0
 74
     0
 75
     1
 40
150.0
 41
337.5
 76
     3
 10
7882.829581418177
 20
11430.44622311194
 30
0.0
 10
8098.97877427427
 20
10997.85083762996
 30
0.0
 10
8223.97877427427
 20
10997.85083762996
 30
0.0
340
1D60F
1001
ACAD
1000
DSTYLE
1002
{
1070
     6
1000
DOTSMALL
1002
}
  0
LINE
  5
1D611
330
747D
100
AcDbEntity
  8
細線
 48
50.0
100
AcDbLine
 10
7871.629581418179
 20
11147.23679736192
 30
0.0
 11
7871.629581418194
 21
10228.73679736192
 31
0.0
  0
LINE
  5
1D612
330
747D
100
AcDbEntity
  8
細線
 48
50.0
100
AcDbLine
 10
7838.329581418162
 20
11147.23679736192
 30
0.0
 11
7838.329581418176
 21
10228.73679736192
 31
0.0
  0
LINE
  5
1D613
330
747D
100
AcDbEntity
  8
細線
 48
50.0
100
AcDbLine
 10
7883.129581418201
 20
10234.73679736193
 30
0.0
 11
7860.129581418179
 21
10234.73679736192
 31
0.0
  0
LINE
  5
1D614
330
747D
100
AcDbEntity
  8
細線
 48
50.0
100
AcDbLine
 10
7850.579581418184
 20
10234.73679736194
 30
0.0
 11
7826.079581418162
 21
10234.73679736194
 31
0.0
  0
LINE
  5
1D615
330
747D
100
AcDbEntity
  8
部品1
 48
50.0
100
AcDbLine
 10
7227.82958141818
 20
11551.73679736192
 30
0.0
 11
7207.82958141818
 21
11550.73679736192
 31
0.0
  0
LINE
  5
1D616
330
747D
100
AcDbEntity
  8
部品1
 48
50.0
100
AcDbLine
 10
7207.82958141818
 20
11413.73679736192
 30
0.0
 11
7257.82958141818
 21
11413.73679736192
 31
0.0
  0
LINE
  5
1D617
330
747D
100
AcDbEntity
  8
部品1
 48
50.0
100
AcDbLine
 10
7257.82958141818
 20
11564.23679736192
 30
0.0
 11
7227.82958141818
 21
11562.73679736192
 31
0.0
  0
LINE
  5
1D618
330
747D
100
AcDbEntity
  8
部品1
 48
50.0
100
AcDbLine
 10
7227.82958141818
 20
11562.73679736192
 30
0.0
 11
7227.82958141818
 21
11551.73679736192
 31
0.0
  0
LINE
  5
1D619
330
747D
100
AcDbEntity
  8
部品1
 48
50.0
100
AcDbLine
 10
7257.82958141818
 20
11413.73679736192
 30
0.0
 11
7257.82958141818
 21
11564.23679736192
 31
0.0
  0
LINE
  5
1D61A
330
747D
100
AcDbEntity
  8
部品1
 48
50.0
100
AcDbLine
 10
7207.82958141818
 20
11425.73679736192
 30
0.0
 11
7207.82958141818
 21
11413.73679736192
 31
0.0
  0
LINE
  5
1D61B
330
747D
100
AcDbEntity
  8
細線
 48
50.0
100
AcDbLine
 10
7206.674283594065
 20
11567.03516080045
 30
0.0
 11
7207.300615146651
 21
11551.0474246009
 31
0.0
  0
LINE
  5
1D61C
330
747D
100
AcDbEntity
  8
細線
 48
50.0
100
AcDbLine
 10
7226.658953843486
 20
11567.81807524118
 30
0.0
 11
7227.285285396075
 21
11551.83033904164
 31
0.0
  0
LINE
  5
1D61D
330
747D
100
AcDbEntity
  8
細線
 48
50.0
100
AcDbLine
 10
7227.285285396075
 20
11551.83033904163
 30
0.0
 11
7207.300615146651
 21
11551.04742460089
 31
0.0
  0
LINE
  5
1D61E
330
747D
100
AcDbEntity
  8
細線
 48
50.0
100
AcDbLine
 10
7891.329581418169
 20
11198.73679736192
 30
0.0
 11
7882.329581418169
 21
11200.73679736192
 31
0.0
  0
LINE
  5
1D61F
330
747D
100
AcDbEntity
  8
細線
 48
50.0
100
AcDbLine
 10
7850.579581418191
 20
11179.23679736193
 30
0.0
 11
7826.079581418162
 21
11179.23679736192
 31
0.0
  0
LINE
  5
1D620
330
747D
100
AcDbEntity
  8
細線
 48
50.0
100
AcDbLine
 10
7883.129581418208
 20
11179.23679736192
 30
0.0
 11
7860.129581418179
 21
11179.23679736193
 31
0.0
  0
LINE
  5
1D621
330
747D
100
AcDbEntity
  8
細線
 48
50.0
100
AcDbLine
 10
7882.329581418169
 20
11200.73679736192
 30
0.0
 11
7871.629581418165
 21
11200.73679736192
 31
0.0
  0
LINE
  5
1D622
330
747D
100
AcDbEntity
  8
細線
 48
50.0
100
AcDbLine
 10
7847.329581418169
 20
11198.23679736192
 30
0.0
 11
7847.329581418169
 21
11238.73679736192
 31
0.0
  0
LINE
  5
1D623
330
747D
100
AcDbEntity
  8
細線
 48
50.0
100
AcDbLine
 10
7882.329581418169
 20
11200.73679736192
 30
0.0
 11
7882.329581418169
 21
11218.23679736192
 31
0.0
  0
LINE
  5
1D624
330
747D
100
AcDbEntity
  8
細線
 48
50.0
100
AcDbLine
 10
7821.329581418169
 20
11198.23679736192
 30
0.0
 11
7871.629581418172
 21
11198.23679736192
 31
0.0
  0
LINE
  5
1D625
330
747D
100
AcDbEntity
  8
細線
 48
50.0
100
AcDbLine
 10
7832.329581418169
 20
11210.73679736192
 30
0.0
 11
7832.329581418162
 21
11246.73679736192
 31
0.0
  0
LINE
  5
1D626
330
747D
100
AcDbEntity
  8
細線
 48
50.0
100
AcDbLine
 10
7832.329581418176
 20
11238.73679736192
 30
0.0
 11
7847.829581418176
 21
11238.73679736192
 31
0.0
  0
LINE
  5
1D627
330
747D
100
AcDbEntity
  8
細線
 48
50.0
100
AcDbLine
 10
7882.82958141817
 20
11218.73679736192
 30
0.0
 11
7847.829581418183
 21
11218.73679736192
 31
0.0
  0
LINE
  5
1D628
330
747D
100
AcDbEntity
  8
細線
 48
50.0
100
AcDbLine
 10
7832.329581418169
 20
11246.73679736192
 30
0.0
 11
7820.32958141817
 21
11246.73679736192
 31
0.0
  0
LINE
  5
1D629
330
747D
100
AcDbEntity
  8
細線
 48
50.0
100
AcDbLine
 10
7832.329581418169
 20
11210.73679736192
 30
0.0
 11
7820.32958141817
 21
11210.73679736192
 31
0.0
  0
LINE
  5
1D62A
330
747D
100
AcDbEntity
  8
細線
 48
50.0
100
AcDbLine
 10
7820.32958141817
 20
11210.73679736192
 30
0.0
 11
7820.32958141817
 21
11246.73679736192
 31
0.0
  0
LINE
  5
1D62B
330
747D
100
AcDbEntity
  8
細線
 48
50.0
100
AcDbLine
 10
7847.829581418176
 20
11378.73679736192
 30
0.0
 11
7847.829581418183
 21
11218.73679736192
 31
0.0
  0
LINE
  5
1D62C
330
747D
100
AcDbEntity
  8
部品1
 48
50.0
100
AcDbLine
 10
7832.329581418176
 20
11378.73679736192
 30
0.0
 11
7832.329581418176
 21
11238.73679736193
 31
0.0
  0
LINE
  5
1D62D
330
747D
100
AcDbEntity
  8
部品1
 48
50.0
100
AcDbLine
 10
7882.829581418177
 20
11588.73679736192
 30
0.0
 11
7882.829581418177
 21
11200.62568625081
 31
0.0
  0
LINE
  5
1D62E
330
747D
100
AcDbEntity
  8
細線
 48
50.0
100
AcDbLine
 10
7850.579581418156
 20
11141.23679736192
 30
0.0
 11
7826.079581418162
 21
11141.23679736192
 31
0.0
  0
LINE
  5
1D62F
330
747D
100
AcDbEntity
  8
細線
 48
50.0
100
AcDbLine
 10
7883.12958141818
 20
11141.23679736192
 30
0.0
 11
7860.129581418179
 21
11141.23679736192
 31
0.0
  0
LINE
  5
1D630
330
747D
100
AcDbEntity
  8
細線
 48
50.0
100
AcDbLine
 10
7871.629581418172
 20
11171.23679736192
 30
0.0
 11
7871.629581418172
 21
11200.73679736192
 31
0.0
  0
LINE
  5
1D631
330
747D
100
AcDbEntity
  8
細線
 48
50.0
100
AcDbLine
 10
7838.329581418169
 20
11171.23679736192
 30
0.0
 11
7838.329581418169
 21
11198.23679736192
 31
0.0
  0
LINE
  5
1D632
330
747D
100
AcDbEntity
  8
細線
 48
50.0
100
AcDbLine
 10
7821.329581418169
 20
11173.23679736192
 30
0.0
 11
7821.329581418169
 21
11198.23679736192
 31
0.0
  0
LINE
  5
1D633
330
747D
100
AcDbEntity
  8
細線
 48
50.0
100
AcDbLine
 10
7821.329581418169
 20
11210.73679736192
 30
0.0
 11
7821.329581418169
 21
11173.23679736192
 31
0.0
  0
LINE
  5
1D634
330
747D
100
AcDbEntity
  8
細線
 48
50.0
100
AcDbLine
 10
7891.329581418169
 20
11172.23679736192
 30
0.0
 11
7891.329581418169
 21
11198.73679736192
 31
0.0
  0
LINE
  5
1D635
330
747D
100
AcDbEntity
  8
部品1
 48
50.0
100
AcDbLine
 10
7940.613200803767
 20
11632.34146413894
 30
0.0
 11
7930.86360769222
 21
11603.9699038336
 31
0.0
  0
LINE
  5
1D636
330
747D
100
AcDbEntity
  8
部品1
 48
50.0
100
AcDbLine
 10
7987.819836709007
 20
11500.75399803949
 30
0.0
 11
7996.818698356844
 21
11500.89713798169
 31
0.0
  0
ARC
  5
1D637
330
747D
100
AcDbEntity
  8
部品1
 48
50.0
100
AcDbCircle
 10
7984.796359502695
 20
11502.20609500006
 30
0.0
 40
3.0
100
AcDbArc
 50
0.9112955958087358
 51
90.91129559581467
  0
LINE
  5
1D638
330
747D
100
AcDbEntity
  8
部品1
 48
50.0
100
AcDbLine
 10
7987.819836709007
 20
11500.75399803949
 30
0.0
 11
7987.795980051974
 21
11502.25380831413
 31
0.0
  0
LINE
  5
1D639
330
747D
100
AcDbEntity
  8
部品1
 48
50.0
100
AcDbLine
 10
7882.758011447092
 20
11503.58340662485
 30
0.0
 11
7984.748646188629
 21
11505.20571554934
 31
0.0
  0
LINE
  5
1D63A
330
747D
100
AcDbEntity
  8
細線
 48
50.0
100
AcDbLine
 10
7882.829581418191
 20
11499.08397580094
 30
0.0
 11
7987.819836709007
 21
11500.75399803949
 31
0.0
  0
LINE
  5
1D63B
330
747D
100
AcDbEntity
  8
部品1
100
AcDbLine
 10
7998.251028758502
 20
11616.54160810816
 30
0.0
 11
7991.559032768368
 21
11631.16076879148
 31
0.0
  0
ARC
  5
1D63C
330
747D
100
AcDbEntity
  8
部品1
 48
50.0
100
AcDbCircle
 10
7988.376609304381
 20
11629.70399808342
 30
0.0
 40
3.5
100
AcDbArc
 50
24.59618196436618
 51
91.03524671598787
  0
LINE
  5
1D63D
330
747D
100
AcDbEntity
  8
部品1
 48
50.0
100
AcDbLine
 10
7999.638533824357
 20
11615.66612422274
 30
0.0
 11
8001.826151637441
 21
11615.70056056554
 31
0.0
  0
ARC
  5
1D63E
330
747D
100
AcDbEntity
  8
部品1
100
AcDbCircle
 10
7999.614924528781
 20
11617.16593841162
 30
0.0
 40
1.5
100
AcDbArc
 50
204.5961819643761
 51
270.9018459011026
  0
LINE
  5
1D63F
330
747D
100
AcDbEntity
  8
部品1
100
AcDbLine
 10
8017.821209779881
 20
11599.69937522014
 30
0.0
 11
8015.273355277779
 21
11522.20962380324
 31
0.0
  0
LINE
  5
1D640
330
747D
100
AcDbEntity
  8
部品1
100
AcDbLine
 10
8012.155581542451
 20
11518.67699207423
 30
0.0
 11
8012.063807929211
 21
11515.88581444995
 31
0.0
  0
ARC
  5
1D641
330
747D
100
AcDbEntity
  8
部品1
100
AcDbCircle
 10
8014.074003404617
 20
11522.24905836089
 30
0.0
 40
1.199999999999999
100
AcDbArc
 50
279.0222695094722
 51
358.1167995116895
  0
ARC
  5
1D642
330
747D
100
AcDbEntity
  8
部品1
100
AcDbCircle
 10
8014.654231278212
 20
11518.59483674579
 30
0.0
 40
2.5
100
AcDbArc
 50
99.02226950947451
 51
178.1167995116955
  0
ARC
  5
1D643
330
747D
100
AcDbEntity
  8
部品1
100
AcDbCircle
 10
7996.572179567505
 20
11516.3951774863
 30
0.0
 40
15.5
100
AcDbArc
 50
270.9112955958145
 51
358.1167995116315
  0
ARC
  5
1D644
330
747D
100
AcDbEntity
  8
部品1
100
AcDbCircle
 10
8002.329581418177
 20
11600.20873825648
 30
0.0
 40
15.5
100
AcDbArc
 50
358.1167995116895
 51
91.86125648319634
  0
LINE
  5
1D645
330
747D
100
AcDbEntity
  8
部品1
 48
50.0
100
AcDbLine
 10
7882.829581418184
 20
11588.73679736192
 30
0.0
 11
7854.329581418184
 21
11588.73679736192
 31
0.0
  0
LINE
  5
1D646
330
747D
100
AcDbEntity
  8
部品1
 48
50.0
100
AcDbLine
 10
7854.329581418184
 20
11588.73679736192
 30
0.0
 11
7854.329581418184
 21
11573.73679736192
 31
0.0
  0
LINE
  5
1D647
330
747D
100
AcDbEntity
  8
部品1
 48
50.0
100
AcDbLine
 10
7854.329581418184
 20
11573.73679736192
 30
0.0
 11
7831.829581418183
 21
11573.73679736192
 31
0.0
  0
LINE
  5
1D648
330
747D
100
AcDbEntity
  8
部品1
100
AcDbLine
 10
7829.329581418176
 20
11367.5946617382
 30
0.0
 11
7822.001154293437
 21
11374.92308887178
 31
0.0
  0
LINE
  5
1D649
330
747D
100
AcDbEntity
  8
部品1
100
AcDbLine
 10
7829.329581418176
 20
11367.5946617382
 30
0.0
 11
7832.329581418176
 21
11367.5946617382
 31
0.0
  0
ARC
  5
1D64A
330
747D
100
AcDbEntity
  8
部品1
100
AcDbCircle
 10
7822.708261074622
 20
11375.63019565296
 30
0.0
 40
1.0
100
AcDbArc
 50
135.0000000000011
 51
225.0000000000003
  0
LINE
  5
1D64B
330
747D
100
AcDbEntity
  8
部品1
100
AcDbLine
 10
7822.00107523481
 20
11376.33722336669
 30
0.0
 11
7822.708261074622
 21
11377.0444092065
 31
0.0
  0
LINE
  5
1D64C
330
747D
100
AcDbEntity
  8
部品1
100
AcDbLine
 10
7822.708261074622
 20
11377.0444092065
 30
0.0
 11
7815.637193262752
 21
11384.11547701836
 31
0.0
  0
ARC
  5
1D64D
330
747D
100
AcDbEntity
  8
部品1
100
AcDbCircle
 10
7814.222979700382
 20
11384.11547701836
 30
0.0
 40
1.0
100
AcDbArc
 50
225.0
 51
315.0
  0
LINE
  5
1D64E
330
747D
100
AcDbEntity
  8
部品1
100
AcDbLine
 10
7813.515872919197
 20
11383.40837023718
 30
0.0
 11
7808.187445794451
 21
11388.73679736192
 31
0.0
  0
LINE
  5
1D64F
330
747D
100
AcDbEntity
  8
部品1
100
AcDbLine
 10
7815.637193262752
 20
11384.11547701836
 30
0.0
 11
7814.930086481574
 21
11383.40837023718
 31
0.0
  0
LINE
  5
1D650
330
747D
100
AcDbEntity
  8
部品1
100
AcDbLine
 10
7809.187445794451
 20
11389.73679736192
 30
0.0
 11
7809.187445794451
 21
11393.73679736192
 31
0.0
  0
LINE
  5
1D651
330
747D
100
AcDbEntity
  8
部品1
100
AcDbLine
 10
7808.187445794451
 20
11388.73679736192
 30
0.0
 11
7808.187445794451
 21
11389.73679736192
 31
0.0
  0
LINE
  5
1D652
330
747D
100
AcDbEntity
  8
部品1
100
AcDbLine
 10
7808.187445794451
 20
11389.73679736192
 30
0.0
 11
7809.187445794451
 21
11389.73679736192
 31
0.0
  0
LINE
  5
1D653
330
747D
100
AcDbEntity
  8
部品1
 48
50.0
100
AcDbLine
 10
7882.829581418184
 20
11378.73679736192
 30
0.0
 11
7832.829581418184
 21
11378.73679736192
 31
0.0
  0
LINE
  5
1D654
330
747D
100
AcDbEntity
  8
部品1
 48
50.0
100
AcDbLine
 10
7832.829581418184
 20
11378.73679736192
 30
0.0
 11
7817.829581418184
 21
11393.73679736192
 31
0.0
  0
LINE
  5
1D655
330
747D
100
AcDbEntity
  8
部品1
 48
50.0
100
AcDbLine
 10
7817.829581418184
 20
11393.73679736192
 30
0.0
 11
7817.829581418184
 21
11413.73679736192
 31
0.0
  0
LINE
  5
1D656
330
747D
100
AcDbEntity
  8
部品1
 48
50.0
100
AcDbLine
 10
7817.829581418184
 20
11413.73679736192
 30
0.0
 11
7795.829581418184
 21
11413.73679736192
 31
0.0
  0
LINE
  5
1D657
330
747D
100
AcDbEntity
  8
部品1
 48
50.0
100
AcDbLine
 10
7832.829581418184
 20
11378.73679736192
 30
0.0
 11
7832.329581418176
 21
11378.73679736192
 31
0.0
  0
LINE
  5
1D658
330
747D
100
AcDbEntity
  8
部品1
 48
50.0
100
AcDbLine
 10
7809.187445794451
 20
11393.73679736192
 30
0.0
 11
7817.829581418177
 21
11393.73679736192
 31
0.0
  0
LINE
  5
1D659
330
747D
100
AcDbEntity
  8
部品1
 48
50.0
100
AcDbLine
 10
7817.829581418184
 20
11413.73679736192
 30
0.0
 11
7795.829581418184
 21
11413.73679736192
 31
0.0
  0
LINE
  5
1D65A
330
747D
100
AcDbEntity
  8
細線
 48
50.0
100
AcDbLine
 10
7989.511921540689
 20
11619.72028786818
 30
0.0
 11
7990.373127425496
 21
11597.73715059381
 31
0.0
  0
LINE
  5
1D65B
330
747D
100
AcDbEntity
  8
細線
 48
50.0
100
AcDbLine
 10
7852.478902704425
 20
11592.33504095275
 30
0.0
 11
7853.105234257004
 21
11576.3473047532
 31
0.0
  0
LINE
  5
1D65C
330
747D
100
AcDbEntity
  8
細線
 48
50.0
100
AcDbLine
 10
7832.494232454992
 20
11591.55212651202
 30
0.0
 11
7833.120564007579
 21
11575.56439031247
 31
0.0
  0
LINE
  5
1D65D
330
747D
100
AcDbEntity
  8
細線
 48
50.0
100
AcDbLine
 10
7853.105234257004
 20
11576.3473047532
 30
0.0
 11
7833.120564007579
 21
11575.56439031247
 31
0.0
  0
ENDSEC
  0
SECTION
  2
OBJECTS
  0
DICTIONARY
  5
7471
330
0
100
AcDbDictionary
281
     1
  3
ACAD_GROUP
350
7472
  3
ACAD_LAYOUT
350
1D76A
  3
ACAD_MLINESTYLE
350
7473
  3
ACAD_PLOTSETTINGS
350
1D76B
  3
ACAD_PLOTSTYLENAME
350
1D768
  3
ACDBHEADERROUNDTRIPXREC
350
1D7F3
  3
ACDBVARIABLEDICTIONARY
350
123D8
  3
CONTENTDICTIONARY
350
E71C
  3
DRAWINGVARIABLESDICT
350
F3B9
  0
DICTIONARY
  5
1D79A
330
747D
100
AcDbDictionary
280
     1
281
     1
  3
ACAD_LAYOUTSELFREF
360
1D79B
  0
DICTIONARY
  5
1D798
330
747A
100
AcDbDictionary
280
     1
281
     1
  3
ACAD_LAYOUTSELFREF
360
1D799
  0
DICTIONARY
  5
7472
102
{ACAD_REACTORS
330
7471
102
}
330
7471
100
AcDbDictionary
281
     1
  0
DICTIONARY
  5
1D76A
102
{ACAD_REACTORS
330
7471
102
}
330
7471
100
AcDbDictionary
281
     1
  3
Model
350
1D76C
  3
ﾚｲｱｳﾄ1
350
1D76D
  0
DICTIONARY
  5
7473
102
{ACAD_REACTORS
330
7471
102
}
330
7471
100
AcDbDictionary
281
     1
  3
STANDARD
350
7480
  0
DICTIONARY
  5
1D76B
102
{ACAD_REACTORS
330
7471
102
}
330
7471
100
AcDbDictionary
281
     1
  0
ACDBDICTIONARYWDFLT
  5
1D768
102
{ACAD_REACTORS
330
7471
102
}
330
7471
100
AcDbDictionary
281
     1
  3
Normal
350
1D769
100
AcDbDictionaryWithDefault
340
1D769
  0
DICTIONARY
  5
1D7F3
102
{ACAD_REACTORS
330
7471
102
}
330
7471
100
AcDbDictionary
281
     1
  3
CEPSNTYPE
350
1D7FD
  3
DIMSTYLEDATA
350
1D801
  3
FINGERPRINTGUID
350
1D7FE
  3
HYPERLINKBASE
350
1D7F6
  3
INSUNITS
350
1D7FC
  3
LAYOUTDICT
350
1D7F8
  3
LWETCUNION
350
1D7FB
  3
PLOTSETDICT
350
1D7F9
  3
PLOTSTYLNAMDICT
350
1D7FA
  3
PSVPSCALE
350
1D800
  3
PUCSBASE
350
1D804
  3
PUCSORGBACK
350
1D80A
  3
PUCSORGBOTTOM
350
1D806
  3
PUCSORGFRONT
350
1D809
  3
PUCSORGLEFT
350
1D807
  3
PUCSORGRIGHT
350
1D808
  3
PUCSORGTOP
350
1D805
  3
PUCSORTHOREF
350
1D802
  3
PUCSORTHOVIEW
350
1D803
  3
STYLESHEET
350
1D7F7
  3
TSTACKALIGN
350
1D7F4
  3
TSTACKSIZE
350
1D7F5
  3
UCSBASE
350
1D80D
  3
UCSORGBACK
350
1D813
  3
UCSORGBOTTOM
350
1D80F
  3
UCSORGFRONT
350
1D812
  3
UCSORGLEFT
350
1D810
  3
UCSORGRIGHT
350
1D811
  3
UCSORGTOP
350
1D80E
  3
UCSORTHOREF
350
1D80B
  3
UCSORTHOVIEW
350
1D80C
  3
VERSIONGUID
350
1D7FF
  0
DICTIONARY
  5
123D8
102
{ACAD_REACTORS
330
7471
102
}
330
7471
100
AcDbDictionary
281
     1
  3
DIMASSOC
350
1D7EA
  3
SORTENTS
350
123D9
  0
DICTIONARY
  5
E71C
102
{ACAD_REACTORS
330
7471
102
}
330
7471
100
AcDbDictionary
281
     1
  0
DICTIONARY
  5
F3B9
102
{ACAD_REACTORS
330
7471
102
}
330
7471
100
AcDbDictionary
281
     1
1001
DRAWINGVARIABLESXDATA
1000
POLARMODE
1000
1
  0
XRECORD
  5
1D79B
102
{ACAD_REACTORS
330
1D79A
102
}
330
1D79A
100
AcDbXrecord
280
     1
340
747D
  0
XRECORD
  5
1D799
102
{ACAD_REACTORS
330
1D798
102
}
330
1D798
100
AcDbXrecord
280
     1
340
747A
  0
LAYOUT
  5
1D76C
102
{ACAD_REACTORS
330
1D76A
102
}
330
1D76A
100
AcDbPlotSettings
  1

  2
Canon LBP-730
  4

  6

 40
0.0
 41
0.0
 42
0.0
 43
0.0
 44
0.0
 45
0.0
 46
0.0
 47
0.0
 48
0.0
 49
0.0
140
0.0
141
0.0
142
1.0
143
1.0
 70
  1712
 72
     0
 73
     0
 74
     0
  7

 75
     0
147
1.0
148
0.0
149
0.0
100
AcDbLayout
  1
Model
 70
     1
 71
     0
 10
0.0
 20
0.0
 11
12.0
 21
9.0
 12
0.0
 22
0.0
 32
0.0
 14
0.0
 24
0.0
 34
0.0
 15
0.0
 25
0.0
 35
0.0
146
0.0
 13
0.0
 23
0.0
 33
0.0
 16
1.0
 26
0.0
 36
0.0
 17
0.0
 27
1.0
 37
0.0
 76
     0
330
747D
  0
LAYOUT
  5
1D76D
102
{ACAD_REACTORS
330
1D76A
102
}
330
1D76A
100
AcDbPlotSettings
  1

  2
Canon LBP-730
  4

  6

 40
0.0
 41
0.0
 42
0.0
 43
0.0
 44
0.0
 45
0.0
 46
0.0
 47
0.0
 48
0.0
 49
0.0
140
0.0
141
0.0
142
1.0
143
1.0
 70
   688
 72
     0
 73
     0
 74
     5
  7

 75
    16
147
1.0
148
0.0
149
0.0
100
AcDbLayout
  1
ﾚｲｱｳﾄ1
 70
     0
 71
     1
 10
0.0
 20
0.0
 11
420.0
 21
297.0
 12
0.0
 22
0.0
 32
0.0
 14
1.000000000000000E+20
 24
1.000000000000000E+20
 34
1.000000000000000E+20
 15
-1.000000000000000E+20
 25
-1.000000000000000E+20
 35
-1.000000000000000E+20
146
0.0
 13
0.0
 23
0.0
 33
0.0
 16
1.0
 26
0.0
 36
0.0
 17
0.0
 27
1.0
 37
0.0
 76
     0
330
747A
  0
MLINESTYLE
  5
7480
102
{ACAD_REACTORS
330
7473
102
}
330
7473
100
AcDbMlineStyle
  2
STANDARD
 70
     0
  3

 62
     0
 51
90.0
 52
90.0
 71
     2
 49
0.5
 62
   256
  6
BYLAYER
 49
-0.5
 62
   256
  6
BYLAYER
  0
ACDBPLACEHOLDER
  5
1D769
102
{ACAD_REACTORS
330
1D768
102
}
330
1D768
  0
XRECORD
  5
1D7FD
102
{ACAD_REACTORS
330
1D7F3
102
}
330
1D7F3
100
AcDbXrecord
280
     1
 90
        0
  0
XRECORD
  5
1D801
102
{ACAD_REACTORS
330
1D7F3
102
}
330
1D7F3
100
AcDbXrecord
280
     1
1000
DSTYLE
1002
{
1070
   341
340
F770
1070
   343
340
F770
1070
   344
340
F770
1002
}
  0
XRECORD
  5
1D7FE
102
{ACAD_REACTORS
330
1D7F3
102
}
330
1D7F3
100
AcDbXrecord
280
     1
  1
{697DFE46-F946-11D6-AF94-00909916878D}
  0
XRECORD
  5
1D7F6
102
{ACAD_REACTORS
330
1D7F3
102
}
330
1D7F3
100
AcDbXrecord
280
     1
  1

  0
XRECORD
  5
1D7FC
102
{ACAD_REACTORS
330
1D7F3
102
}
330
1D7F3
100
AcDbXrecord
280
     1
 90
        0
  0
XRECORD
  5
1D7F8
102
{ACAD_REACTORS
330
1D7F3
102
}
330
1D7F3
100
AcDbXrecord
280
     1
340
1D76A
  0
XRECORD
  5
1D7FB
102
{ACAD_REACTORS
330
1D7F3
102
}
330
1D7F3
100
AcDbXrecord
280
     1
 90
    14877
  0
XRECORD
  5
1D7F9
102
{ACAD_REACTORS
330
1D7F3
102
}
330
1D7F3
100
AcDbXrecord
280
     1
340
1D76B
  0
XRECORD
  5
1D7FA
102
{ACAD_REACTORS
330
1D7F3
102
}
330
1D7F3
100
AcDbXrecord
280
     1
340
1D768
  0
XRECORD
  5
1D800
102
{ACAD_REACTORS
330
1D7F3
102
}
330
1D7F3
100
AcDbXrecord
280
     1
 40
0.0
  0
XRECORD
  5
1D804
102
{ACAD_REACTORS
330
1D7F3
102
}
330
1D7F3
100
AcDbXrecord
280
     1
340
0
  0
XRECORD
  5
1D80A
102
{ACAD_REACTORS
330
1D7F3
102
}
330
1D7F3
100
AcDbXrecord
280
     1
 10
0.0
 20
0.0
 30
0.0
  0
XRECORD
  5
1D806
102
{ACAD_REACTORS
330
1D7F3
102
}
330
1D7F3
100
AcDbXrecord
280
     1
 10
0.0
 20
0.0
 30
0.0
  0
XRECORD
  5
1D809
102
{ACAD_REACTORS
330
1D7F3
102
}
330
1D7F3
100
AcDbXrecord
280
     1
 10
0.0
 20
0.0
 30
0.0
  0
XRECORD
  5
1D807
102
{ACAD_REACTORS
330
1D7F3
102
}
330
1D7F3
100
AcDbXrecord
280
     1
 10
0.0
 20
0.0
 30
0.0
  0
XRECORD
  5
1D808
102
{ACAD_REACTORS
330
1D7F3
102
}
330
1D7F3
100
AcDbXrecord
280
     1
 10
0.0
 20
0.0
 30
0.0
  0
XRECORD
  5
1D805
102
{ACAD_REACTORS
330
1D7F3
102
}
330
1D7F3
100
AcDbXrecord
280
     1
 10
0.0
 20
0.0
 30
0.0
  0
XRECORD
  5
1D802
102
{ACAD_REACTORS
330
1D7F3
102
}
330
1D7F3
100
AcDbXrecord
280
     1
340
0
  0
XRECORD
  5
1D803
102
{ACAD_REACTORS
330
1D7F3
102
}
330
1D7F3
100
AcDbXrecord
280
     1
 70
     0
  0
XRECORD
  5
1D7F7
102
{ACAD_REACTORS
330
1D7F3
102
}
330
1D7F3
100
AcDbXrecord
280
     1
  1

  0
XRECORD
  5
1D7F4
102
{ACAD_REACTORS
330
1D7F3
102
}
330
1D7F3
100
AcDbXrecord
280
     1
 90
        1
  0
XRECORD
  5
1D7F5
102
{ACAD_REACTORS
330
1D7F3
102
}
330
1D7F3
100
AcDbXrecord
280
     1
 90
       70
  0
XRECORD
  5
1D80D
102
{ACAD_REACTORS
330
1D7F3
102
}
330
1D7F3
100
AcDbXrecord
280
     1
340
0
  0
XRECORD
  5
1D813
102
{ACAD_REACTORS
330
1D7F3
102
}
330
1D7F3
100
AcDbXrecord
280
     1
 10
0.0
 20
0.0
 30
0.0
  0
XRECORD
  5
1D80F
102
{ACAD_REACTORS
330
1D7F3
102
}
330
1D7F3
100
AcDbXrecord
280
     1
 10
0.0
 20
0.0
 30
0.0
  0
XRECORD
  5
1D812
102
{ACAD_REACTORS
330
1D7F3
102
}
330
1D7F3
100
AcDbXrecord
280
     1
 10
0.0
 20
0.0
 30
0.0
  0
XRECORD
  5
1D810
102
{ACAD_REACTORS
330
1D7F3
102
}
330
1D7F3
100
AcDbXrecord
280
     1
 10
0.0
 20
0.0
 30
0.0
  0
XRECORD
  5
1D811
102
{ACAD_REACTORS
330
1D7F3
102
}
330
1D7F3
100
AcDbXrecord
280
     1
 10
0.0
 20
0.0
 30
0.0
  0
XRECORD
  5
1D80E
102
{ACAD_REACTORS
330
1D7F3
102
}
330
1D7F3
100
AcDbXrecord
280
     1
 10
0.0
 20
0.0
 30
0.0
  0
XRECORD
  5
1D80B
102
{ACAD_REACTORS
330
1D7F3
102
}
330
1D7F3
100
AcDbXrecord
280
     1
340
0
  0
XRECORD
  5
1D80C
102
{ACAD_REACTORS
330
1D7F3
102
}
330
1D7F3
100
AcDbXrecord
280
     1
 70
     0
  0
XRECORD
  5
1D7FF
102
{ACAD_REACTORS
330
1D7F3
102
}
330
1D7F3
100
AcDbXrecord
280
     1
  1
{697DFE48-F946-11D6-AF94-00909916878D}
  0
DICTIONARYVAR
  5
1D7EA
102
{ACAD_REACTORS
330
123D8
102
}
330
123D8
100
DictionaryVariables
280
     0
  1
1
  0
DICTIONARYVAR
  5
123D9
102
{ACAD_REACTORS
330
123D8
102
}
330
123D8
100
DictionaryVariables
280
     0
  1
96
  0
ENDSEC
  0
EOF
