  0
SECTION
  2
HEADER
  9
$ACADVER
  1
AC1015
  9
$ACADMAINTVER
 70
     6
  9
$DWGCODEPAGE
  3
ANSI_932
  9
$INSBASE
 10
0.0
 20
0.0
 30
0.0
  9
$EXTMIN
 10
174.9999999999993
 20
-0.0000000000001137
 30
0.0
  9
$EXTMAX
 10
20384.0
 20
14262.0
 30
0.0
  9
$LIMMIN
 10
0.0
 20
0.0
  9
$LIMMAX
 10
21000.0
 20
14850.0
  9
$ORTHOMODE
 70
     0
  9
$REGENMODE
 70
     1
  9
$FILLMODE
 70
     1
  9
$QTEXTMODE
 70
     0
  9
$MIRRTEXT
 70
     1
  9
$LTSCALE
 40
20.0
  9
$ATTMODE
 70
     1
  9
$TEXTSIZE
 40
4.0
  9
$TRACEWID
 40
1.0
  9
$TEXTSTYLE
  7
STYLE1
  9
$CLAYER
  8
寸法
  9
$CELTYPE
  6
BYLAYER
  9
$CECOLOR
 62
   256
  9
$CELTSCALE
 40
50.0
  9
$DISPSILH
 70
     0
  9
$DIMSCALE
 40
1.0
  9
$DIMASZ
 40
125.0
  9
$DIMEXO
 40
25.0
  9
$DIMDLI
 40
7.0
  9
$DIMRND
 40
0.0
  9
$DIMDLE
 40
0.0
  9
$DIMEXE
 40
75.0
  9
$DIMTP
 40
0.0
  9
$DIMTM
 40
0.0
  9
$DIMTXT
 40
150.0
  9
$DIMCEN
 40
0.0
  9
$DIMTSZ
 40
0.0
  9
$DIMTOL
 70
     0
  9
$DIMLIM
 70
     0
  9
$DIMTIH
 70
     0
  9
$DIMTOH
 70
     0
  9
$DIMSE1
 70
     0
  9
$DIMSE2
 70
     0
  9
$DIMTAD
 70
     3
  9
$DIMZIN
 70
     8
  9
$DIMBLK
  1

  9
$DIMASO
 70
     1
  9
$DIMSHO
 70
     1
  9
$DIMPOST
  1

  9
$DIMAPOST
  1

  9
$DIMALT
 70
     0
  9
$DIMALTD
 70
     2
  9
$DIMALTF
 40
0.0394
  9
$DIMLFAC
 40
1.0
  9
$DIMTOFL
 70
     1
  9
$DIMTVP
 40
0.0
  9
$DIMTIX
 70
     1
  9
$DIMSOXD
 70
     0
  9
$DIMSAH
 70
     1
  9
$DIMBLK1
  1
DOTSMALL
  9
$DIMBLK2
  1
DOTSMALL
  9
$DIMSTYLE
  2
INABA_S50G
  9
$DIMCLRD
 70
     0
  9
$DIMCLRE
 70
     0
  9
$DIMCLRT
 70
     7
  9
$DIMTFAC
 40
1.0
  9
$DIMGAP
 40
25.0
  9
$DIMJUST
 70
     0
  9
$DIMSD1
 70
     0
  9
$DIMSD2
 70
     0
  9
$DIMTOLJ
 70
     1
  9
$DIMTZIN
 70
     0
  9
$DIMALTZ
 70
     0
  9
$DIMALTTZ
 70
     0
  9
$DIMUPT
 70
     0
  9
$DIMDEC
 70
     1
  9
$DIMTDEC
 70
     4
  9
$DIMALTU
 70
     2
  9
$DIMALTTD
 70
     2
  9
$DIMTXSTY
  7
STYLE1
  9
$DIMAUNIT
 70
     0
  9
$DIMADEC
 70
     0
  9
$DIMALTRND
 40
0.0
  9
$DIMAZIN
 70
     0
  9
$DIMDSEP
 70
    46
  9
$DIMATFIT
 70
     3
  9
$DIMFRAC
 70
     0
  9
$DIMLDRBLK
  1
DOTSMALL
  9
$DIMLUNIT
 70
     2
  9
$DIMLWD
 70
    -2
  9
$DIMLWE
 70
    -2
  9
$DIMTMOVE
 70
     0
  9
$LUNITS
 70
     2
  9
$LUPREC
 70
     1
  9
$SKETCHINC
 40
1.0
  9
$FILLETRAD
 40
3.0
  9
$AUNITS
 70
     0
  9
$AUPREC
 70
     0
  9
$MENU
  1
acad
  9
$ELEVATION
 40
0.0
  9
$PELEVATION
 40
0.0
  9
$THICKNESS
 40
0.0
  9
$LIMCHECK
 70
     0
  9
$CHAMFERA
 40
0.0
  9
$CHAMFERB
 40
0.0
  9
$CHAMFERC
 40
0.0
  9
$CHAMFERD
 40
0.0
  9
$SKPOLY
 70
     0
  9
$TDCREATE
 40
2452335.452219212
  9
$TDUCREATE
 40
2452335.077219213
  9
$TDUPDATE
 40
2452595.499573380
  9
$TDUUPDATE
 40
2452595.124573380
  9
$TDINDWG
 40
1.2665657407
  9
$TDUSRTIMER
 40
1.2665657407
  9
$USRTIMER
 70
     1
  9
$ANGBASE
 50
0.0
  9
$ANGDIR
 70
     0
  9
$PDMODE
 70
     3
  9
$PDSIZE
 40
2.0
  9
$PLINEWID
 40
0.0
  9
$SPLFRAME
 70
     0
  9
$SPLINETYPE
 70
     6
  9
$SPLINESEGS
 70
     8
  9
$HANDSEED
  5
1B255
  9
$SURFTAB1
 70
     6
  9
$SURFTAB2
 70
     6
  9
$SURFTYPE
 70
     6
  9
$SURFU
 70
     6
  9
$SURFV
 70
     6
  9
$UCSBASE
  2

  9
$UCSNAME
  2

  9
$UCSORG
 10
0.0
 20
0.0
 30
0.0
  9
$UCSXDIR
 10
1.0
 20
0.0
 30
0.0
  9
$UCSYDIR
 10
0.0
 20
1.0
 30
0.0
  9
$UCSORTHOREF
  2

  9
$UCSORTHOVIEW
 70
     0
  9
$UCSORGTOP
 10
0.0
 20
0.0
 30
0.0
  9
$UCSORGBOTTOM
 10
0.0
 20
0.0
 30
0.0
  9
$UCSORGLEFT
 10
0.0
 20
0.0
 30
0.0
  9
$UCSORGRIGHT
 10
0.0
 20
0.0
 30
0.0
  9
$UCSORGFRONT
 10
0.0
 20
0.0
 30
0.0
  9
$UCSORGBACK
 10
0.0
 20
0.0
 30
0.0
  9
$PUCSBASE
  2

  9
$PUCSNAME
  2

  9
$PUCSORG
 10
0.0
 20
0.0
 30
0.0
  9
$PUCSXDIR
 10
1.0
 20
0.0
 30
0.0
  9
$PUCSYDIR
 10
0.0
 20
1.0
 30
0.0
  9
$PUCSORTHOREF
  2

  9
$PUCSORTHOVIEW
 70
     0
  9
$PUCSORGTOP
 10
0.0
 20
0.0
 30
0.0
  9
$PUCSORGBOTTOM
 10
0.0
 20
0.0
 30
0.0
  9
$PUCSORGLEFT
 10
0.0
 20
0.0
 30
0.0
  9
$PUCSORGRIGHT
 10
0.0
 20
0.0
 30
0.0
  9
$PUCSORGFRONT
 10
0.0
 20
0.0
 30
0.0
  9
$PUCSORGBACK
 10
0.0
 20
0.0
 30
0.0
  9
$USERI1
 70
     0
  9
$USERI2
 70
     0
  9
$USERI3
 70
     0
  9
$USERI4
 70
     0
  9
$USERI5
 70
     0
  9
$USERR1
 40
0.0
  9
$USERR2
 40
0.0
  9
$USERR3
 40
0.0
  9
$USERR4
 40
0.0
  9
$USERR5
 40
0.0
  9
$WORLDVIEW
 70
     1
  9
$SHADEDGE
 70
     3
  9
$SHADEDIF
 70
    70
  9
$TILEMODE
 70
     1
  9
$MAXACTVP
 70
    16
  9
$PINSBASE
 10
0.0
 20
0.0
 30
0.0
  9
$PLIMCHECK
 70
     0
  9
$PEXTMIN
 10
1.000000000000000E+20
 20
1.000000000000000E+20
 30
1.000000000000000E+20
  9
$PEXTMAX
 10
-1.000000000000000E+20
 20
-1.000000000000000E+20
 30
-1.000000000000000E+20
  9
$PLIMMIN
 10
0.0
 20
0.0
  9
$PLIMMAX
 10
420.0
 20
297.0
  9
$UNITMODE
 70
     0
  9
$VISRETAIN
 70
     0
  9
$PLINEGEN
 70
     0
  9
$PSLTSCALE
 70
     0
  9
$TREEDEPTH
 70
  3020
  9
$CMLSTYLE
  2
STANDARD
  9
$CMLJUST
 70
     0
  9
$CMLSCALE
 40
1.0
  9
$PROXYGRAPHICS
 70
     1
  9
$MEASUREMENT
 70
     1
  9
$CELWEIGHT
370
    -1
  9
$ENDCAPS
280
     0
  9
$JOINSTYLE
280
     0
  9
$LWDISPLAY
290
     0
  9
$INSUNITS
 70
     0
  9
$HYPERLINKBASE
  1

  9
$STYLESHEET
  1

  9
$XEDIT
290
     1
  9
$CEPSNTYPE
380
     0
  9
$PSTYLEMODE
290
     1
  9
$FINGERPRINTGUID
  2
{071707A7-F8BF-11D6-AF94-00909916878D}
  9
$VERSIONGUID
  2
{071707A9-F8BF-11D6-AF94-00909916878D}
  9
$EXTNAMES
290
     1
  9
$PSVPSCALE
 40
0.0
  9
$OLESTARTUP
290
     0
  0
ENDSEC
  0
SECTION
  2
CLASSES
  0
CLASS
  1
OLE2FRAME
  2
AcDbOle2Frame
  3
AutoCAD 2000
 90
    32768
280
     0
281
     1
  0
CLASS
  1
LWPOLYLINE
  2
AcDbPolyline
  3
AutoCAD 2000
 90
    32768
280
     0
281
     1
  0
CLASS
  1
HATCH
  2
AcDbHatch
  3
AutoCAD 2000
 90
    32768
280
     0
281
     1
  0
CLASS
  1
DICTIONARYVAR
  2
AcDbDictionaryVar
  3
AutoCAD 2000
 90
        0
280
     0
281
     0
  0
CLASS
  1
ACDBDICTIONARYWDFLT
  2
AcDbDictionaryWithDefault
  3
AutoCAD 2000
 90
        0
280
     0
281
     0
  0
CLASS
  1
ACDBPLACEHOLDER
  2
AcDbPlaceHolder
  3
AutoCAD 2000
 90
        0
280
     0
281
     0
  0
CLASS
  1
LAYOUT
  2
AcDbLayout
  3
AutoCAD 2000
 90
        0
280
     0
281
     0
  0
CLASS
  1
LONG_TRANSACTION
  2
AcDbLongTransaction
  3
AutoCAD 2000
 90
    32768
280
     0
281
     0
  0
CLASS
  1
LWPOLYLINE
  2
AcDbPolyline
  3
AutoCAD 2000
 90
    32768
280
     0
281
     1
  0
CLASS
  1
HATCH
  2
AcDbHatch
  3
AutoCAD 2000
 90
    32768
280
     0
281
     1
  0
CLASS
  1
XRECORD
  2
AcDbXrecord
  3
AutoCAD 2000
 90
    32768
280
     0
281
     0
  0
ENDSEC
  0
SECTION
  2
TABLES
  0
TABLE
  2
VPORT
  5
746D
330
0
100
AcDbSymbolTable
 70
     2
  0
VPORT
  5
1B233
330
746D
100
AcDbSymbolTableRecord
100
AcDbViewportTableRecord
  2
*Active
 70
     0
 10
0.0
 20
0.0
 11
1.0
 21
1.0
 12
10500.0
 22
7424.773424269833
 13
0.0
 23
0.0
 14
10.0
 24
10.0
 15
10.0
 25
10.0
 16
0.0
 26
0.0
 36
1.0
 17
0.0
 27
0.0
 37
0.0
 40
15025.50760904139
 41
2.12007874015748
 42
50.0
 43
0.0
 44
0.0
 50
0.0
 51
0.0
 71
     0
 72
     0
 73
     1
 74
     0
 75
     0
 76
     0
 77
     0
 78
     0
281
     0
 65
     1
110
0.0
120
0.0
130
0.0
111
1.0
121
0.0
131
0.0
112
0.0
122
1.0
132
0.0
 79
     0
146
0.0
  0
ENDTAB
  0
TABLE
  2
LTYPE
  5
746A
330
0
100
AcDbSymbolTable
 70
     4
  0
LTYPE
  5
7477
330
746A
100
AcDbSymbolTableRecord
100
AcDbLinetypeTableRecord
  2
BYBLOCK
 70
     0
  3

 72
    65
 73
     0
 40
0.0
  0
LTYPE
  5
7478
330
746A
100
AcDbSymbolTableRecord
100
AcDbLinetypeTableRecord
  2
BYLAYER
 70
     0
  3

 72
    65
 73
     0
 40
0.0
  0
LTYPE
  5
7479
330
746A
100
AcDbSymbolTableRecord
100
AcDbLinetypeTableRecord
  2
CONTINUOUS
 70
     0
  3
Solid line
 72
    65
 73
     0
 40
0.0
  0
LTYPE
  5
7816
330
746A
100
AcDbSymbolTableRecord
100
AcDbLinetypeTableRecord
  2
CENTER
 70
     0
  3
____ _ ____ _ ____ _ ____ _ ____ _ ____ _ ____ 
 72
    65
 73
     4
 40
2.0
 49
1.25
 74
     0
 49
-0.25
 74
     0
 49
0.25
 74
     0
 49
-0.25
 74
     0
  0
LTYPE
  5
781A
330
746A
100
AcDbSymbolTableRecord
100
AcDbLinetypeTableRecord
  2
HIDDEN
 70
     0
  3
__ __ __ __ __ __ __ __ __ __ __ __ __ __ __ __
 72
    65
 73
     2
 40
0.375
 49
0.25
 74
     0
 49
-0.125
 74
     0
  0
LTYPE
  5
781B
330
746A
100
AcDbSymbolTableRecord
100
AcDbLinetypeTableRecord
  2
PHANTOM
 70
     0
  3
______  __  __  ______  __  __  ______  __  __ 
 72
    65
 73
     6
 40
2.5
 49
1.25
 74
     0
 49
-0.25
 74
     0
 49
0.25
 74
     0
 49
-0.25
 74
     0
 49
0.25
 74
     0
 49
-0.25
 74
     0
  0
ENDTAB
  0
TABLE
  2
LAYER
  5
7467
330
0
100
AcDbSymbolTable
 70
    12
  0
LAYER
  5
7474
330
7467
100
AcDbSymbolTableRecord
100
AcDbLayerTableRecord
  2
0
 70
     0
 62
     7
  6
CONTINUOUS
370
    -3
390
1B1B8
  0
LAYER
  5
DEB2
330
7467
100
AcDbSymbolTableRecord
100
AcDbLayerTableRecord
  2
センター
 70
     0
 62
     3
  6
CENTER
370
    -3
390
1B1B8
  0
LAYER
  5
DEB3
330
7467
100
AcDbSymbolTableRecord
100
AcDbLayerTableRecord
  2
寸法
 70
     0
 62
     4
  6
CONTINUOUS
370
    -3
390
1B1B8
  0
LAYER
  5
DEB4
330
7467
100
AcDbSymbolTableRecord
100
AcDbLayerTableRecord
  2
部品1
 70
     0
 62
     7
  6
CONTINUOUS
370
    -3
390
1B1B8
  0
LAYER
  5
DEB5
330
7467
100
AcDbSymbolTableRecord
100
AcDbLayerTableRecord
  2
補助
 70
     0
 62
    -1
  6
CONTINUOUS
370
    -3
390
1B1B8
  0
LAYER
  5
DEB6
330
7467
100
AcDbSymbolTableRecord
100
AcDbLayerTableRecord
  2
文字
 70
     0
 62
     7
  6
CONTINUOUS
370
    -3
390
1B1B8
  0
LAYER
  5
F255
330
7467
100
AcDbSymbolTableRecord
100
AcDbLayerTableRecord
  2
DEFPOINTS
 70
     0
 62
     7
  6
CONTINUOUS
290
     0
370
    -3
390
1B1B8
  0
LAYER
  5
10B54
330
7467
100
AcDbSymbolTableRecord
100
AcDbLayerTableRecord
  2
仕様書枠
 70
     0
 62
   230
  6
CONTINUOUS
370
    -3
390
1B1B8
  0
LAYER
  5
11729
330
7467
100
AcDbSymbolTableRecord
100
AcDbLayerTableRecord
  2
Ｇ．Ｌ
 70
     0
 62
    30
  6
CONTINUOUS
370
    -3
390
1B1B8
  0
LAYER
  5
1173F
330
7467
100
AcDbSymbolTableRecord
100
AcDbLayerTableRecord
  2
細線
 70
     0
 62
     5
  6
CONTINUOUS
370
    -3
390
1B1B8
  0
LAYER
  5
15A90
330
7467
100
AcDbSymbolTableRecord
100
AcDbLayerTableRecord
  2
想像線
 70
     0
 62
     6
  6
PHANTOM
370
    -3
390
1B1B8
  0
LAYER
  5
188E2
330
7467
100
AcDbSymbolTableRecord
100
AcDbLayerTableRecord
  2
破線
 70
     0
 62
     2
  6
HIDDEN
370
    -3
390
1B1B8
  0
ENDTAB
  0
TABLE
  2
STYLE
  5
7468
330
0
100
AcDbSymbolTable
 70
     3
  0
STYLE
  5
7475
330
7468
100
AcDbSymbolTableRecord
100
AcDbTextStyleTableRecord
  2
STANDARD
 70
     0
 40
0.0
 41
1.0
 50
0.0
 71
     0
 42
4.0
  3
txt
  4
C:\AutoCAD LT\bigfont.shx
  0
STYLE
  5
F706
330
7468
100
AcDbSymbolTableRecord
100
AcDbTextStyleTableRecord
  2
STYLE1
 70
     0
 40
0.0
 41
1.0
 50
0.0
 71
     0
 42
4.0
  3
isocp.shx
  4
bigfont.shx
  0
STYLE
  5
103BF
330
7468
100
AcDbSymbolTableRecord
100
AcDbTextStyleTableRecord
  2
STYLE2
 70
     0
 40
0.0
 41
1.0
 50
0.0
 71
     0
 42
100.0
  3
MS PGothic.ttf
  4

1001
ACAD
1000
MS PGothic
1071
    32818
  0
ENDTAB
  0
TABLE
  2
VIEW
  5
746B
330
0
100
AcDbSymbolTable
 70
     0
  0
ENDTAB
  0
TABLE
  2
UCS
  5
746C
330
0
100
AcDbSymbolTable
 70
     0
  0
ENDTAB
  0
TABLE
  2
APPID
  5
746E
330
0
100
AcDbSymbolTable
 70
     6
  0
APPID
  5
7476
330
746E
100
AcDbSymbolTableRecord
100
AcDbRegAppTableRecord
  2
ACAD
 70
     0
  0
APPID
  5
DEA9
330
746E
100
AcDbSymbolTableRecord
100
AcDbRegAppTableRecord
  2
CONTENTBLOCKICON
 70
     0
  0
APPID
  5
DEAA
330
746E
100
AcDbSymbolTableRecord
100
AcDbRegAppTableRecord
  2
CONTENTBLOCKDESCRIPTION
 70
     0
  0
APPID
  5
E71D
330
746E
100
AcDbSymbolTableRecord
100
AcDbRegAppTableRecord
  2
CONTENTTABDATA
 70
     0
  0
APPID
  5
E71E
330
746E
100
AcDbSymbolTableRecord
100
AcDbRegAppTableRecord
  2
CONTENTCURRENTTAB
 70
     0
  0
APPID
  5
F3BA
330
746E
100
AcDbSymbolTableRecord
100
AcDbRegAppTableRecord
  2
DRAWINGVARIABLESXDATA
 70
     0
  0
ENDTAB
  0
TABLE
  2
DIMSTYLE
  5
746F
330
0
100
AcDbSymbolTable
 70
     2
100
AcDbDimStyleTable
 71
     0
  0
DIMSTYLE
105
7484
330
746F
100
AcDbSymbolTableRecord
100
AcDbDimStyleTableRecord
  2
JIS
 70
     0
 41
2.5
 42
1.0
 43
7.0
 44
1.0
 73
     0
 74
     0
 77
     1
 78
     8
140
2.5
141
0.0
143
0.0394
147
0.0
172
     1
174
     1
175
     1
340
7475
  0
DIMSTYLE
105
F71F
102
{ACAD_REACTORS
330
16C9C
330
16CB5
330
16CC3
330
16CDA
330
16D30
330
16D3C
330
1852D
330
1852B
330
1852F
330
1852C
330
1852E
330
185AE
330
185B1
330
185B4
330
185AD
330
185AF
330
185B3
330
1868C
330
186AF
330
18778
330
1A2E5
330
1852A
330
1AB73
330
1AB74
330
1AB7C
330
1AB7D
330
1AB84
330
1AB87
330
1AB88
330
1AB89
330
1AB99
330
1AB9A
330
1ABAA
330
1ABED
330
1AFB0
330
1AFB7
330
1AFBD
330
1AFC4
330
1AFC5
330
1B003
330
1B006
330
1B03D
330
1B03E
330
1B07B
330
1910F
102
}
330
746F
100
AcDbSymbolTableRecord
100
AcDbDimStyleTableRecord
  2
INABA_S50G
 70
     0
 41
125.0
 42
25.0
 43
7.0
 44
75.0
 73
     0
 74
     0
 77
     3
 78
     8
140
150.0
141
0.0
143
0.0394
147
25.0
172
     1
173
     1
174
     1
178
     7
271
     1
340
F706
341
F770
343
F770
344
F770
  0
ENDTAB
  0
TABLE
  2
BLOCK_RECORD
  5
7466
330
0
100
AcDbSymbolTable
 70
    46
  0
BLOCK_RECORD
  5
747D
102
{ACAD_XDICTIONARY
360
1B1E9
102
}
330
7466
100
AcDbSymbolTableRecord
100
AcDbBlockTableRecord
  2
*MODEL_SPACE
340
1B1BB
  0
BLOCK_RECORD
  5
747A
102
{ACAD_XDICTIONARY
360
1B1E7
102
}
330
7466
100
AcDbSymbolTableRecord
100
AcDbBlockTableRecord
  2
*PAPER_SPACE
340
1B1BC
  0
BLOCK_RECORD
  5
F770
330
7466
100
AcDbSymbolTableRecord
100
AcDbBlockTableRecord
  2
_DOTSMALL
340
0
102
{BLKREFS
331
18E54
331
18E55
331
1B1F1
331
1B1F2
331
18E3E
331
18E3F
331
1A964
331
1A965
331
187F9
331
187FA
331
1B1F9
331
1B1FA
331
18581
331
18582
331
1AD67
331
1AD68
331
18599
331
1859A
331
1A4EB
331
1A4EC
331
1AD5C
331
1AD5D
331
1A4D4
331
1A4D5
331
18629
331
1862A
331
1B209
331
1B20A
331
1865B
331
1865C
331
1861D
331
1861E
331
1B201
331
1B202
331
1864F
331
18650
331
1A99E
331
1A99F
331
1AD46
331
1AD47
331
1A498
331
1A499
331
19282
331
19283
331
1A8A7
331
1A8A8
331
1ACBE
331
1ACBF
331
1ACCA
331
1ACCB
331
1B211
331
1B212
331
1ACDF
331
1ACE0
331
1AD9D
331
1AD9E
331
1B219
331
1B21A
331
1ACFF
331
1AD00
331
1AD0B
331
1AD0C
331
1AD17
331
1AD18
331
1ADDC
331
1ADDD
331
1ADA8
331
1ADA9
331
1AD3A
331
1AD3B
331
1B223
331
1B224
331
1B149
331
1B14A
331
1B154
331
1B155
331
1B15F
331
1B160
331
1B16B
331
1B16C
331
1B177
331
1B178
331
1B183
331
1B184
331
1B18E
331
1B18F
331
1B199
331
1B19A
331
1B1A5
331
1B1A6
102
}
  0
BLOCK_RECORD
  5
16C8E
330
7466
100
AcDbSymbolTableRecord
100
AcDbBlockTableRecord
  2
*D1
340
0
  0
BLOCK_RECORD
  5
16CAA
330
7466
100
AcDbSymbolTableRecord
100
AcDbBlockTableRecord
  2
*D2
340
0
  0
BLOCK_RECORD
  5
16CB6
330
7466
100
AcDbSymbolTableRecord
100
AcDbBlockTableRecord
  2
*D3
340
0
  0
BLOCK_RECORD
  5
16CCE
330
7466
100
AcDbSymbolTableRecord
100
AcDbBlockTableRecord
  2
*D4
340
0
  0
BLOCK_RECORD
  5
16D22
330
7466
100
AcDbSymbolTableRecord
100
AcDbBlockTableRecord
  2
*D5
340
0
  0
BLOCK_RECORD
  5
16D31
330
7466
100
AcDbSymbolTableRecord
100
AcDbBlockTableRecord
  2
*D6
340
0
  0
BLOCK_RECORD
  5
18530
330
7466
100
AcDbSymbolTableRecord
100
AcDbBlockTableRecord
  2
*D7
340
0
  0
BLOCK_RECORD
  5
1853D
330
7466
100
AcDbSymbolTableRecord
100
AcDbBlockTableRecord
  2
*D8
340
0
  0
BLOCK_RECORD
  5
18549
330
7466
100
AcDbSymbolTableRecord
100
AcDbBlockTableRecord
  2
*D9
340
0
  0
BLOCK_RECORD
  5
18556
330
7466
100
AcDbSymbolTableRecord
100
AcDbBlockTableRecord
  2
*D10
340
0
  0
BLOCK_RECORD
  5
18563
330
7466
100
AcDbSymbolTableRecord
100
AcDbBlockTableRecord
  2
*D11
340
0
  0
BLOCK_RECORD
  5
1856F
330
7466
100
AcDbSymbolTableRecord
100
AcDbBlockTableRecord
  2
*D12
340
0
  0
BLOCK_RECORD
  5
185B5
330
7466
100
AcDbSymbolTableRecord
100
AcDbBlockTableRecord
  2
*D13
340
0
  0
BLOCK_RECORD
  5
185C2
330
7466
100
AcDbSymbolTableRecord
100
AcDbBlockTableRecord
  2
*D14
340
0
  0
BLOCK_RECORD
  5
185E5
330
7466
100
AcDbSymbolTableRecord
100
AcDbBlockTableRecord
  2
*D15
340
0
  0
BLOCK_RECORD
  5
185F2
330
7466
100
AcDbSymbolTableRecord
100
AcDbBlockTableRecord
  2
*D16
340
0
  0
BLOCK_RECORD
  5
185FF
330
7466
100
AcDbSymbolTableRecord
100
AcDbBlockTableRecord
  2
*D17
340
0
  0
BLOCK_RECORD
  5
1860A
330
7466
100
AcDbSymbolTableRecord
100
AcDbBlockTableRecord
  2
*D18
340
0
  0
BLOCK_RECORD
  5
1868D
330
7466
100
AcDbSymbolTableRecord
100
AcDbBlockTableRecord
  2
*D19
340
0
  0
BLOCK_RECORD
  5
186B0
330
7466
100
AcDbSymbolTableRecord
100
AcDbBlockTableRecord
  2
*D20
340
0
  0
BLOCK_RECORD
  5
1876C
330
7466
100
AcDbSymbolTableRecord
100
AcDbBlockTableRecord
  2
*D21
340
0
  0
BLOCK_RECORD
  5
19113
330
7466
100
AcDbSymbolTableRecord
100
AcDbBlockTableRecord
  2
*D22
340
0
  0
BLOCK_RECORD
  5
1A2D7
330
7466
100
AcDbSymbolTableRecord
100
AcDbBlockTableRecord
  2
*D23
340
0
  0
BLOCK_RECORD
  5
1AC25
330
7466
100
AcDbSymbolTableRecord
100
AcDbBlockTableRecord
  2
*D24
340
0
  0
BLOCK_RECORD
  5
1AC32
330
7466
100
AcDbSymbolTableRecord
100
AcDbBlockTableRecord
  2
*D25
340
0
  0
BLOCK_RECORD
  5
1AC3F
330
7466
100
AcDbSymbolTableRecord
100
AcDbBlockTableRecord
  2
*D26
340
0
  0
BLOCK_RECORD
  5
1AC4A
330
7466
100
AcDbSymbolTableRecord
100
AcDbBlockTableRecord
  2
*D27
340
0
  0
BLOCK_RECORD
  5
1AC56
330
7466
100
AcDbSymbolTableRecord
100
AcDbBlockTableRecord
  2
*D28
340
0
  0
BLOCK_RECORD
  5
1AC62
330
7466
100
AcDbSymbolTableRecord
100
AcDbBlockTableRecord
  2
*D29
340
0
  0
BLOCK_RECORD
  5
1AC6D
330
7466
100
AcDbSymbolTableRecord
100
AcDbBlockTableRecord
  2
*D30
340
0
  0
BLOCK_RECORD
  5
1AC79
330
7466
100
AcDbSymbolTableRecord
100
AcDbBlockTableRecord
  2
*D31
340
0
  0
BLOCK_RECORD
  5
1AC86
330
7466
100
AcDbSymbolTableRecord
100
AcDbBlockTableRecord
  2
*D32
340
0
  0
BLOCK_RECORD
  5
1AC93
330
7466
100
AcDbSymbolTableRecord
100
AcDbBlockTableRecord
  2
*D33
340
0
  0
BLOCK_RECORD
  5
1ACA0
330
7466
100
AcDbSymbolTableRecord
100
AcDbBlockTableRecord
  2
*D34
340
0
  0
BLOCK_RECORD
  5
1ACAC
330
7466
100
AcDbSymbolTableRecord
100
AcDbBlockTableRecord
  2
*D35
340
0
  0
BLOCK_RECORD
  5
1B0C0
330
7466
100
AcDbSymbolTableRecord
100
AcDbBlockTableRecord
  2
*D36
340
0
  0
BLOCK_RECORD
  5
1B0CB
330
7466
100
AcDbSymbolTableRecord
100
AcDbBlockTableRecord
  2
*D37
340
0
  0
BLOCK_RECORD
  5
1B0D7
330
7466
100
AcDbSymbolTableRecord
100
AcDbBlockTableRecord
  2
*D38
340
0
  0
BLOCK_RECORD
  5
1B0E3
330
7466
100
AcDbSymbolTableRecord
100
AcDbBlockTableRecord
  2
*D39
340
0
  0
BLOCK_RECORD
  5
1B0EF
330
7466
100
AcDbSymbolTableRecord
100
AcDbBlockTableRecord
  2
*D40
340
0
  0
BLOCK_RECORD
  5
1B0FC
330
7466
100
AcDbSymbolTableRecord
100
AcDbBlockTableRecord
  2
*D41
340
0
  0
BLOCK_RECORD
  5
1B109
330
7466
100
AcDbSymbolTableRecord
100
AcDbBlockTableRecord
  2
*D42
340
0
  0
BLOCK_RECORD
  5
1B116
330
7466
100
AcDbSymbolTableRecord
100
AcDbBlockTableRecord
  2
*D43
340
0
  0
BLOCK_RECORD
  5
1B122
330
7466
100
AcDbSymbolTableRecord
100
AcDbBlockTableRecord
  2
*D44
340
0
  0
BLOCK_RECORD
  5
1B12E
330
7466
100
AcDbSymbolTableRecord
100
AcDbBlockTableRecord
  2
*D45
340
0
  0
ENDTAB
  0
ENDSEC
  0
SECTION
  2
BLOCKS
  0
BLOCK
  5
7489
330
747D
100
AcDbEntity
  8
0
100
AcDbBlockBegin
  2
*MODEL_SPACE
 70
     0
 10
0.0
 20
0.0
 30
0.0
  3
*MODEL_SPACE
  1

  0
ENDBLK
  5
748A
330
747D
100
AcDbEntity
  8
0
100
AcDbBlockEnd
  0
BLOCK
  5
7487
330
747A
100
AcDbEntity
 67
     1
  8
0
100
AcDbBlockBegin
  2
*PAPER_SPACE
 70
     0
 10
0.0
 20
0.0
 30
0.0
  3
*PAPER_SPACE
  1

  0
ENDBLK
  5
7488
330
747A
100
AcDbEntity
 67
     1
  8
0
100
AcDbBlockEnd
  0
BLOCK
  5
F771
330
F770
100
AcDbEntity
  8
0
 48
50.0
100
AcDbBlockBegin
  2
_DOTSMALL
 70
     0
 10
0.0
 20
0.0
 30
0.0
  3
_DOTSMALL
  1

  0
LWPOLYLINE
  5
F772
330
F770
100
AcDbEntity
  8
0
  6
ByBlock
 62
     0
 48
50.0
100
AcDbPolyline
 90
        2
 70
     1
 43
0.5
 10
-0.0625
 20
0.0
 42
1.0
 10
0.0625
 20
0.0
 42
1.0
  0
ENDBLK
  5
F776
330
F770
100
AcDbEntity
  8
0
 48
50.0
100
AcDbBlockEnd
  0
BLOCK
  5
18E4F
330
16C8E
100
AcDbEntity
  8
0
 48
50.0
100
AcDbBlockBegin
  2
*D1
 70
     1
 10
0.0
 20
0.0
 30
0.0
  3
*D1
  1

  0
LINE
  5
18E50
330
16C8E
100
AcDbEntity
  8
0
  6
ByBlock
 62
     0
 48
50.0
100
AcDbLine
 10
4137.829577048345
 20
5364.000002624809
 30
0.0
 11
4137.829577048345
 21
6143.281130716521
 31
0.0
  0
LINE
  5
18E51
330
16C8E
100
AcDbEntity
  8
0
  6
ByBlock
 62
     0
 48
50.0
100
AcDbLine
 10
4192.829581418172
 20
5400.000000008468
 30
0.0
 11
4192.829581418172
 21
6143.281130716521
 31
0.0
  0
LINE
  5
18E52
330
16C8E
100
AcDbEntity
  8
0
  6
ByBlock
 62
     0
 48
50.0
100
AcDbLine
 10
4192.829581418172
 20
6068.28113071652
 30
0.0
 11
4137.829577048345
 21
6068.28113071652
 31
0.0
  0
LINE
  5
18E53
330
16C8E
100
AcDbEntity
  8
0
  6
ByBlock
 62
     0
 48
50.0
100
AcDbLine
 10
4137.829577048345
 20
6068.28113071652
 30
0.0
 11
3702.163924582261
 21
6068.28113071652
 31
0.0
  0
INSERT
  5
18E54
330
16C8E
100
AcDbEntity
  8
0
  6
ByBlock
 62
     0
 48
50.0
100
AcDbBlockReference
  2
_DOTSMALL
 10
4192.829581418172
 20
6068.28113071652
 30
0.0
 41
125.0
 42
125.0
 43
125.0
  0
INSERT
  5
18E55
330
16C8E
100
AcDbEntity
  8
0
  6
ByBlock
 62
     0
 48
50.0
100
AcDbBlockReference
  2
_DOTSMALL
 10
4137.829577048345
 20
6068.28113071652
 30
0.0
 41
125.0
 42
125.0
 43
125.0
 50
180.0
  0
MTEXT
  5
18E56
330
16C8E
100
AcDbEntity
  8
0
  6
ByBlock
 62
     7
 48
50.0
100
AcDbMText
 10
3812.770526300059
 20
6168.281130716521
 30
0.0
 40
150.0
 41
0.0
 71
     5
 72
     1
  1
\A1;55
  7
STYLE1
 73
     1
 44
1.0
  0
POINT
  5
18E57
330
16C8E
100
AcDbEntity
  8
DEFPOINTS
  6
ByBlock
 62
     0
 48
50.0
100
AcDbPoint
 10
4137.829577048345
 20
5339.000002624809
 30
0.0
  0
POINT
  5
18E58
330
16C8E
100
AcDbEntity
  8
DEFPOINTS
  6
ByBlock
 62
     0
 48
50.0
100
AcDbPoint
 10
4192.829581418172
 20
5375.000000008467
 30
0.0
  0
POINT
  5
18E59
330
16C8E
100
AcDbEntity
  8
DEFPOINTS
  6
ByBlock
 62
     0
 48
50.0
100
AcDbPoint
 10
4192.829581418172
 20
6068.28113071652
 30
0.0
  0
ENDBLK
  5
18E5A
330
16C8E
100
AcDbEntity
  8
0
 48
50.0
100
AcDbBlockEnd
  0
BLOCK
  5
1A96B
330
16CAA
100
AcDbEntity
  8
0
 48
50.0
100
AcDbBlockBegin
  2
*D2
 70
     1
 10
0.0
 20
0.0
 30
0.0
  3
*D2
  1

  0
LINE
  5
1B1EF
330
16CAA
100
AcDbEntity
  8
寸法
 62
     0
 48
50.0
100
AcDbLine
 10
8752.829581418172
 20
5570.000000008446
 30
0.0
 11
8752.829581418172
 21
6313.281130716521
 31
0.0
  0
LINE
  5
1B1F0
330
16CAA
100
AcDbEntity
  8
寸法
 62
     0
 48
50.0
100
AcDbLine
 10
5712.829581418173
 20
6238.281130716521
 30
0.0
 11
8752.829581418172
 21
6238.281130716521
 31
0.0
  0
INSERT
  5
1B1F1
330
16CAA
100
AcDbEntity
  8
寸法
 62
     0
 48
50.0
100
AcDbBlockReference
  2
_DOTSMALL
 10
5712.829581418173
 20
6238.281130716521
 30
0.0
 41
125.0
 42
125.0
 43
125.0
 50
180.0
  0
INSERT
  5
1B1F2
330
16CAA
100
AcDbEntity
  8
寸法
 62
     0
 48
50.0
100
AcDbBlockReference
  2
_DOTSMALL
 10
8752.829581418172
 20
6238.281130716521
 30
0.0
 41
125.0
 42
125.0
 43
125.0
  0
MTEXT
  5
1B1F3
330
16CAA
100
AcDbEntity
  8
寸法
 62
     7
 48
50.0
100
AcDbMText
 10
7232.829581418172
 20
6338.281130716521
 30
0.0
 40
150.0
 41
0.0
 71
     5
 72
     1
  1
\A1;柱外寸法 3040
  7
STYLE1
 73
     1
 44
1.0
  0
POINT
  5
1B1F4
330
16CAA
100
AcDbEntity
  8
DEFPOINTS
 62
     0
 48
50.0
100
AcDbPoint
 10
5712.829581418173
 20
5545.000000008467
 30
0.0
  0
POINT
  5
1B1F5
330
16CAA
100
AcDbEntity
  8
DEFPOINTS
 62
     0
 48
50.0
100
AcDbPoint
 10
8752.829581418172
 20
5545.000000008446
 30
0.0
  0
POINT
  5
1B1F6
330
16CAA
100
AcDbEntity
  8
DEFPOINTS
 62
     0
 48
50.0
100
AcDbPoint
 10
8752.829581418172
 20
6238.281130716521
 30
0.0
  0
ENDBLK
  5
1A974
330
16CAA
100
AcDbEntity
  8
0
 48
50.0
100
AcDbBlockEnd
  0
BLOCK
  5
18E39
330
16CB6
100
AcDbEntity
  8
0
 48
50.0
100
AcDbBlockBegin
  2
*D3
 70
     1
 10
0.0
 20
0.0
 30
0.0
  3
*D3
  1

  0
LINE
  5
18E3A
330
16CB6
100
AcDbEntity
  8
0
  6
ByBlock
 62
     0
 48
50.0
100
AcDbLine
 10
9112.829581418171
 20
5400.000000008446
 30
0.0
 11
9112.829581418171
 21
6143.281130716521
 31
0.0
  0
LINE
  5
18E3B
330
16CB6
100
AcDbEntity
  8
0
  6
ByBlock
 62
     0
 48
50.0
100
AcDbLine
 10
9167.829581418175
 20
5364.000002624809
 30
0.0
 11
9167.829581418175
 21
6143.281130716521
 31
0.0
  0
LINE
  5
18E3C
330
16CB6
100
AcDbEntity
  8
0
  6
ByBlock
 62
     0
 48
50.0
100
AcDbLine
 10
9112.829581418171
 20
6068.28113071652
 30
0.0
 11
9167.829581418175
 21
6068.28113071652
 31
0.0
  0
LINE
  5
18E3D
330
16CB6
100
AcDbEntity
  8
0
  6
ByBlock
 62
     0
 48
50.0
100
AcDbLine
 10
9167.829581418175
 20
6068.28113071652
 30
0.0
 11
9593.495238254083
 21
6068.28113071652
 31
0.0
  0
INSERT
  5
18E3E
330
16CB6
100
AcDbEntity
  8
0
  6
ByBlock
 62
     0
 48
50.0
100
AcDbBlockReference
  2
_DOTSMALL
 10
9112.829581418171
 20
6068.28113071652
 30
0.0
 41
125.0
 42
125.0
 43
125.0
 50
180.0
  0
INSERT
  5
18E3F
330
16CB6
100
AcDbEntity
  8
0
  6
ByBlock
 62
     0
 48
50.0
100
AcDbBlockReference
  2
_DOTSMALL
 10
9167.829581418175
 20
6068.28113071652
 30
0.0
 41
125.0
 42
125.0
 43
125.0
  0
MTEXT
  5
18E40
330
16CB6
100
AcDbEntity
  8
0
  6
ByBlock
 62
     7
 48
50.0
100
AcDbMText
 10
9482.888636536285
 20
6168.281130716521
 30
0.0
 40
150.0
 41
0.0
 71
     5
 72
     1
  1
\A1;55
  7
STYLE1
 73
     1
 44
1.0
  0
POINT
  5
18E41
330
16CB6
100
AcDbEntity
  8
DEFPOINTS
  6
ByBlock
 62
     0
 48
50.0
100
AcDbPoint
 10
9112.829581418171
 20
5375.000000008445
 30
0.0
  0
POINT
  5
18E42
330
16CB6
100
AcDbEntity
  8
DEFPOINTS
  6
ByBlock
 62
     0
 48
50.0
100
AcDbPoint
 10
9167.829581418175
 20
5339.000002624809
 30
0.0
  0
POINT
  5
18E43
330
16CB6
100
AcDbEntity
  8
DEFPOINTS
  6
ByBlock
 62
     0
 48
50.0
100
AcDbPoint
 10
9167.829581418175
 20
6068.28113071652
 30
0.0
  0
ENDBLK
  5
18E44
330
16CB6
100
AcDbEntity
  8
0
 48
50.0
100
AcDbBlockEnd
  0
BLOCK
  5
1A960
330
16CCE
100
AcDbEntity
  8
0
 48
50.0
100
AcDbBlockBegin
  2
*D4
 70
     1
 10
0.0
 20
0.0
 30
0.0
  3
*D4
  1

  0
LINE
  5
1A961
330
16CCE
100
AcDbEntity
  8
0
  6
ByBlock
 62
     0
 48
50.0
100
AcDbLine
 10
4787.829577048345
 20
5704.000002624809
 30
0.0
 11
4787.829577048345
 21
6751.068854554545
 31
0.0
  0
LINE
  5
1A962
330
16CCE
100
AcDbEntity
  8
0
  6
ByBlock
 62
     0
 48
50.0
100
AcDbLine
 10
7937.829581418175
 20
5704.000002624809
 30
0.0
 11
7937.829581418175
 21
6751.068854554545
 31
0.0
  0
LINE
  5
1A963
330
16CCE
100
AcDbEntity
  8
0
  6
ByBlock
 62
     0
 48
50.0
100
AcDbLine
 10
4787.829577048345
 20
6676.068854554545
 30
0.0
 11
7937.829581418175
 21
6676.068854554545
 31
0.0
  0
INSERT
  5
1A964
330
16CCE
100
AcDbEntity
  8
0
  6
ByBlock
 62
     0
 48
50.0
100
AcDbBlockReference
  2
_DOTSMALL
 10
4787.829577048345
 20
6676.068854554545
 30
0.0
 41
125.0
 42
125.0
 43
125.0
 50
180.0
  0
INSERT
  5
1A965
330
16CCE
100
AcDbEntity
  8
0
  6
ByBlock
 62
     0
 48
50.0
100
AcDbBlockReference
  2
_DOTSMALL
 10
7937.829581418175
 20
6676.068854554545
 30
0.0
 41
125.0
 42
125.0
 43
125.0
  0
MTEXT
  5
1A966
330
16CCE
100
AcDbEntity
  8
0
  6
ByBlock
 62
     7
 48
50.0
100
AcDbMText
 10
6362.82957923326
 20
6776.068854554544
 30
0.0
 40
150.0
 41
0.0
 71
     5
 72
     1
  1
\A1;3150
  7
STYLE1
 73
     1
 44
1.0
  0
POINT
  5
1A967
330
16CCE
100
AcDbEntity
  8
DEFPOINTS
  6
ByBlock
 62
     0
 48
50.0
100
AcDbPoint
 10
4787.829577048345
 20
5679.000002624809
 30
0.0
  0
POINT
  5
1A968
330
16CCE
100
AcDbEntity
  8
DEFPOINTS
  6
ByBlock
 62
     0
 48
50.0
100
AcDbPoint
 10
7937.829581418175
 20
5679.000002624809
 30
0.0
  0
POINT
  5
1A969
330
16CCE
100
AcDbEntity
  8
DEFPOINTS
  6
ByBlock
 62
     0
 48
50.0
100
AcDbPoint
 10
7937.829581418175
 20
6676.068854554545
 30
0.0
  0
ENDBLK
  5
1A96A
330
16CCE
100
AcDbEntity
  8
0
 48
50.0
100
AcDbBlockEnd
  0
BLOCK
  5
187F4
330
16D22
100
AcDbEntity
  8
0
 48
50.0
100
AcDbBlockBegin
  2
*D5
 70
     1
 10
0.0
 20
0.0
 30
0.0
  3
*D5
  1

  0
LINE
  5
187F5
330
16D22
100
AcDbEntity
  8
0
  6
ByBlock
 62
     0
 48
50.0
100
AcDbLine
 10
9137.829581418172
 20
2935.0
 30
0.0
 11
9843.934533249726
 21
2935.0
 31
0.0
  0
LINE
  5
187F6
330
16D22
100
AcDbEntity
  8
0
  6
ByBlock
 62
     0
 48
50.0
100
AcDbLine
 10
9137.829581418172
 20
3002.0
 30
0.0
 11
9843.934533249726
 21
3002.0
 31
0.0
  0
LINE
  5
187F7
330
16D22
100
AcDbEntity
  8
0
  6
ByBlock
 62
     0
 48
50.0
100
AcDbLine
 10
9768.934533249726
 20
3002.0
 30
0.0
 11
9768.934533249726
 21
2935.0
 31
0.0
  0
LINE
  5
187F8
330
16D22
100
AcDbEntity
  8
0
  6
ByBlock
 62
     0
 48
50.0
100
AcDbLine
 10
9768.934533249726
 20
2935.0
 30
0.0
 11
9768.934533249726
 21
2526.709408511117
 31
0.0
  0
INSERT
  5
187F9
330
16D22
100
AcDbEntity
  8
0
  6
ByBlock
 62
     0
 48
50.0
100
AcDbBlockReference
  2
_DOTSMALL
 10
9768.934533249726
 20
3002.0
 30
0.0
 41
125.0
 42
125.0
 43
125.0
 50
90.0
  0
INSERT
  5
187FA
330
16D22
100
AcDbEntity
  8
0
  6
ByBlock
 62
     0
 48
50.0
100
AcDbBlockReference
  2
_DOTSMALL
 10
9768.934533249726
 20
2935.0
 30
0.0
 41
125.0
 42
125.0
 43
125.0
 50
270.0
  0
MTEXT
  5
187FB
330
16D22
100
AcDbEntity
  8
0
  6
ByBlock
 62
     7
 48
50.0
100
AcDbMText
 10
9668.934533249725
 20
2638.697597487495
 30
0.0
 40
150.0
 41
0.0
 71
     5
 72
     1
  1
\A1;67
  7
STYLE1
 11
0.0000000000000001
 21
1.0
 31
0.0
 73
     1
 44
1.0
  0
POINT
  5
187FC
330
16D22
100
AcDbEntity
  8
DEFPOINTS
  6
ByBlock
 62
     0
 48
50.0
100
AcDbPoint
 10
9112.829581418173
 20
2935.0
 30
0.0
  0
POINT
  5
187FD
330
16D22
100
AcDbEntity
  8
DEFPOINTS
  6
ByBlock
 62
     0
 48
50.0
100
AcDbPoint
 10
9112.829581418173
 20
3002.0
 30
0.0
  0
POINT
  5
187FE
330
16D22
100
AcDbEntity
  8
DEFPOINTS
  6
ByBlock
 62
     0
 48
50.0
100
AcDbPoint
 10
9768.934533249726
 20
3002.0
 30
0.0
  0
ENDBLK
  5
187FF
330
16D22
100
AcDbEntity
  8
0
 48
50.0
100
AcDbBlockEnd
  0
BLOCK
  5
1ADEB
330
16D31
100
AcDbEntity
  8
0
 48
50.0
100
AcDbBlockBegin
  2
*D6
 70
     1
 10
0.0
 20
0.0
 30
0.0
  3
*D6
  1

  0
LINE
  5
1B1F7
330
16D31
100
AcDbEntity
  8
寸法
 62
     0
 48
50.0
100
AcDbLine
 10
8777.829581418172
 20
5302.0
 30
0.0
 11
9483.934533249724
 21
5302.0
 31
0.0
  0
LINE
  5
1B1F8
330
16D31
100
AcDbEntity
  8
寸法
 62
     0
 48
50.0
100
AcDbLine
 10
9408.934533249723
 20
3341.999999999999
 30
0.0
 11
9408.934533249725
 21
5302.0
 31
0.0
  0
INSERT
  5
1B1F9
330
16D31
100
AcDbEntity
  8
寸法
 62
     0
 48
50.0
100
AcDbBlockReference
  2
_DOTSMALL
 10
9408.934533249723
 20
3341.999999999999
 30
0.0
 41
125.0
 42
125.0
 43
125.0
 50
270.0
  0
INSERT
  5
1B1FA
330
16D31
100
AcDbEntity
  8
寸法
 62
     0
 48
50.0
100
AcDbBlockReference
  2
_DOTSMALL
 10
9408.934533249725
 20
5302.0
 30
0.0
 41
125.0
 42
125.0
 43
125.0
 50
90.0
  0
MTEXT
  5
1B1FB
330
16D31
100
AcDbEntity
  8
寸法
 62
     7
 48
50.0
100
AcDbMText
 10
9308.934533249724
 20
4322.000000000001
 30
0.0
 40
150.0
 41
0.0
 71
     5
 72
     1
  1
\A1;内高 1960
  7
STYLE1
 11
0.0000000000000001
 21
1.0
 31
0.0
 73
     1
 44
1.0
  0
POINT
  5
1B1FC
330
16D31
100
AcDbEntity
  8
DEFPOINTS
 62
     0
 48
50.0
100
AcDbPoint
 10
8752.829581418174
 20
3342.0
 30
0.0
  0
POINT
  5
1B1FD
330
16D31
100
AcDbEntity
  8
DEFPOINTS
 62
     0
 48
50.0
100
AcDbPoint
 10
8752.829581418172
 20
5302.0
 30
0.0
  0
POINT
  5
1B1FE
330
16D31
100
AcDbEntity
  8
DEFPOINTS
 62
     0
 48
50.0
100
AcDbPoint
 10
9408.934533249725
 20
5302.0
 30
0.0
  0
ENDBLK
  5
1ADF4
330
16D31
100
AcDbEntity
  8
0
 48
50.0
100
AcDbBlockEnd
  0
BLOCK
  5
1857C
330
18530
100
AcDbEntity
  8
0
 48
50.0
100
AcDbBlockBegin
  2
*D7
 70
     1
 10
0.0
 20
0.0
 30
0.0
  3
*D7
  1

  0
LINE
  5
1857D
330
18530
100
AcDbEntity
  8
0
  6
ByBlock
 62
     0
 48
50.0
100
AcDbLine
 10
16722.46242649134
 20
9602.681515694126
 30
0.0
 11
17593.79817887432
 21
9602.681515694126
 31
0.0
  0
LINE
  5
1857E
330
18530
100
AcDbEntity
  8
0
  6
ByBlock
 62
     0
 48
50.0
100
AcDbLine
 10
16732.46242649134
 20
9672.681515694129
 30
0.0
 11
17593.79817887432
 21
9672.681515694129
 31
0.0
  0
LINE
  5
1857F
330
18530
100
AcDbEntity
  8
0
  6
ByBlock
 62
     0
 48
50.0
100
AcDbLine
 10
17518.79817887432
 20
9672.681515694129
 30
0.0
 11
17518.79817887432
 21
9602.681515694126
 31
0.0
  0
LINE
  5
18580
330
18530
100
AcDbEntity
  8
0
  6
ByBlock
 62
     0
 48
50.0
100
AcDbLine
 10
17518.79817887432
 20
9602.681515694126
 30
0.0
 11
17518.79817887432
 21
9262.563405457903
 31
0.0
  0
INSERT
  5
18581
330
18530
100
AcDbEntity
  8
0
  6
ByBlock
 62
     0
 48
50.0
100
AcDbBlockReference
  2
_DOTSMALL
 10
17518.79817887432
 20
9672.681515694129
 30
0.0
 41
125.0
 42
125.0
 43
125.0
 50
90.0
  0
INSERT
  5
18582
330
18530
100
AcDbEntity
  8
0
  6
ByBlock
 62
     0
 48
50.0
100
AcDbBlockReference
  2
_DOTSMALL
 10
17518.79817887432
 20
9602.681515694126
 30
0.0
 41
125.0
 42
125.0
 43
125.0
 50
270.0
  0
MTEXT
  5
18583
330
18530
100
AcDbEntity
  8
0
  6
ByBlock
 62
     7
 48
50.0
100
AcDbMText
 10
17418.79817887432
 20
9370.122460576014
 30
0.0
 40
150.0
 41
0.0
 71
     5
 72
     1
  1
\A1;70
  7
STYLE1
 11
0.0000000000000001
 21
1.0
 31
0.0
 73
     1
 44
1.0
  0
POINT
  5
18584
330
18530
100
AcDbEntity
  8
DEFPOINTS
  6
ByBlock
 62
     0
 48
50.0
100
AcDbPoint
 10
16697.46242649134
 20
9602.681515694126
 30
0.0
  0
POINT
  5
18585
330
18530
100
AcDbEntity
  8
DEFPOINTS
  6
ByBlock
 62
     0
 48
50.0
100
AcDbPoint
 10
16707.46242649134
 20
9672.681515694129
 30
0.0
  0
POINT
  5
18586
330
18530
100
AcDbEntity
  8
DEFPOINTS
  6
ByBlock
 62
     0
 48
50.0
100
AcDbPoint
 10
17518.79817887432
 20
9672.681515694129
 30
0.0
  0
ENDBLK
  5
18587
330
18530
100
AcDbEntity
  8
0
 48
50.0
100
AcDbBlockEnd
  0
BLOCK
  5
1AD63
330
1853D
100
AcDbEntity
  8
0
 48
50.0
100
AcDbBlockBegin
  2
*D8
 70
     1
 10
0.0
 20
0.0
 30
0.0
  3
*D8
  1

  0
LINE
  5
1AD64
330
1853D
100
AcDbEntity
  8
0
  6
ByBlock
 62
     0
 48
50.0
100
AcDbLine
 10
8197.829581418176
 20
9298.736797361975
 30
0.0
 11
9059.165333801145
 21
9298.736797361975
 31
0.0
  0
LINE
  5
1AD65
330
1853D
100
AcDbEntity
  8
0
  6
ByBlock
 62
     0
 48
50.0
100
AcDbLine
 10
8197.829581418176
 20
11038.73679736197
 30
0.0
 11
9059.165333801145
 21
11038.73679736197
 31
0.0
  0
LINE
  5
1AD66
330
1853D
100
AcDbEntity
  8
0
  6
ByBlock
 62
     0
 48
50.0
100
AcDbLine
 10
8984.165333801144
 20
9298.736797361975
 30
0.0
 11
8984.165333801144
 21
11038.73679736197
 31
0.0
  0
INSERT
  5
1AD67
330
1853D
100
AcDbEntity
  8
0
  6
ByBlock
 62
     0
 48
50.0
100
AcDbBlockReference
  2
_DOTSMALL
 10
8984.165333801144
 20
9298.736797361975
 30
0.0
 41
125.0
 42
125.0
 43
125.0
 50
270.0
  0
INSERT
  5
1AD68
330
1853D
100
AcDbEntity
  8
0
  6
ByBlock
 62
     0
 48
50.0
100
AcDbBlockReference
  2
_DOTSMALL
 10
8984.165333801144
 20
11038.73679736197
 30
0.0
 41
125.0
 42
125.0
 43
125.0
 50
90.0
  0
MTEXT
  5
1AD69
330
1853D
100
AcDbEntity
  8
0
  6
ByBlock
 62
     7
 48
50.0
100
AcDbMText
 10
8884.165333801144
 20
10168.73679736197
 30
0.0
 40
150.0
 41
0.0
 71
     5
 72
     1
  1
\A1;3x580=1740
  7
STYLE1
 11
0.0000000000000001
 21
1.0
 31
0.0
 73
     1
 44
1.0
  0
POINT
  5
1AD6A
330
1853D
100
AcDbEntity
  8
DEFPOINTS
  6
ByBlock
 62
     0
 48
50.0
100
AcDbPoint
 10
8172.829581418175
 20
9298.736797361975
 30
0.0
  0
POINT
  5
1AD6B
330
1853D
100
AcDbEntity
  8
DEFPOINTS
  6
ByBlock
 62
     0
 48
50.0
100
AcDbPoint
 10
8172.829581418175
 20
11038.73679736197
 30
0.0
  0
POINT
  5
1AD6C
330
1853D
100
AcDbEntity
  8
DEFPOINTS
  6
ByBlock
 62
     0
 48
50.0
100
AcDbPoint
 10
8984.165333801144
 20
11038.73679736197
 30
0.0
  0
ENDBLK
  5
1AD6D
330
1853D
100
AcDbEntity
  8
0
 48
50.0
100
AcDbBlockEnd
  0
BLOCK
  5
18594
330
18549
100
AcDbEntity
  8
0
 48
50.0
100
AcDbBlockBegin
  2
*D9
 70
     1
 10
0.0
 20
0.0
 30
0.0
  3
*D9
  1

  0
LINE
  5
18595
330
18549
100
AcDbEntity
  8
0
  6
ByBlock
 62
     0
 48
50.0
100
AcDbLine
 10
16732.46242649134
 20
12572.68151569412
 30
0.0
 11
17593.79817887431
 21
12572.68151569412
 31
0.0
  0
LINE
  5
18596
330
18549
100
AcDbEntity
  8
0
  6
ByBlock
 62
     0
 48
50.0
100
AcDbLine
 10
16722.46242649134
 20
12642.68151569412
 30
0.0
 11
17593.79817887431
 21
12642.68151569412
 31
0.0
  0
LINE
  5
18597
330
18549
100
AcDbEntity
  8
0
  6
ByBlock
 62
     0
 48
50.0
100
AcDbLine
 10
17518.79817887431
 20
12572.68151569412
 30
0.0
 11
17518.79817887431
 21
12642.68151569412
 31
0.0
  0
LINE
  5
18598
330
18549
100
AcDbEntity
  8
0
  6
ByBlock
 62
     0
 48
50.0
100
AcDbLine
 10
17518.79817887431
 20
12642.68151569412
 30
0.0
 11
17518.79817887431
 21
12982.79962593034
 31
0.0
  0
INSERT
  5
18599
330
18549
100
AcDbEntity
  8
0
  6
ByBlock
 62
     0
 48
50.0
100
AcDbBlockReference
  2
_DOTSMALL
 10
17518.79817887431
 20
12572.68151569412
 30
0.0
 41
125.0
 42
125.0
 43
125.0
 50
270.0
  0
INSERT
  5
1859A
330
18549
100
AcDbEntity
  8
0
  6
ByBlock
 62
     0
 48
50.0
100
AcDbBlockReference
  2
_DOTSMALL
 10
17518.79817887431
 20
12642.68151569412
 30
0.0
 41
125.0
 42
125.0
 43
125.0
 50
90.0
  0
MTEXT
  5
1859B
330
18549
100
AcDbEntity
  8
0
  6
ByBlock
 62
     7
 48
50.0
100
AcDbMText
 10
17418.79817887431
 20
12875.24057081223
 30
0.0
 40
150.0
 41
0.0
 71
     5
 72
     1
  1
\A1;70
  7
STYLE1
 11
0.0000000000000001
 21
1.0
 31
0.0
 73
     1
 44
1.0
  0
POINT
  5
1859C
330
18549
100
AcDbEntity
  8
DEFPOINTS
  6
ByBlock
 62
     0
 48
50.0
100
AcDbPoint
 10
16707.46242649134
 20
12572.68151569412
 30
0.0
  0
POINT
  5
1859D
330
18549
100
AcDbEntity
  8
DEFPOINTS
  6
ByBlock
 62
     0
 48
50.0
100
AcDbPoint
 10
16697.46242649134
 20
12642.68151569412
 30
0.0
  0
POINT
  5
1859E
330
18549
100
AcDbEntity
  8
DEFPOINTS
  6
ByBlock
 62
     0
 48
50.0
100
AcDbPoint
 10
17518.79817887431
 20
12642.68151569412
 30
0.0
  0
ENDBLK
  5
1859F
330
18549
100
AcDbEntity
  8
0
 48
50.0
100
AcDbBlockEnd
  0
BLOCK
  5
1A4E6
330
18556
100
AcDbEntity
  8
0
 48
50.0
100
AcDbBlockBegin
  2
*D10
 70
     1
 10
0.0
 20
0.0
 30
0.0
  3
*D10
  1

  0
LINE
  5
1A4E7
330
18556
100
AcDbEntity
  8
0
  6
ByBlock
 62
     0
 48
50.0
100
AcDbLine
 10
8477.829581418175
 20
9228.736797361971
 30
0.0
 11
9651.969337719759
 21
9228.736797361971
 31
0.0
  0
LINE
  5
1A4E8
330
18556
100
AcDbEntity
  8
0
  6
ByBlock
 62
     0
 48
50.0
100
AcDbLine
 10
9299.165333801147
 20
9278.736797361975
 30
0.0
 11
9651.969337719759
 21
9278.736797361975
 31
0.0
  0
LINE
  5
1A4E9
330
18556
100
AcDbEntity
  8
0
  6
ByBlock
 62
     0
 48
50.0
100
AcDbLine
 10
9576.969337719758
 20
9278.736797361975
 30
0.0
 11
9576.969337719758
 21
9228.736797361971
 31
0.0
  0
LINE
  5
1A4EA
330
18556
100
AcDbEntity
  8
0
  6
ByBlock
 62
     0
 48
50.0
100
AcDbLine
 10
9576.969337719758
 20
9228.736797361971
 30
0.0
 11
9576.969337719758
 21
8884.130498149373
 31
0.0
  0
INSERT
  5
1A4EB
330
18556
100
AcDbEntity
  8
0
  6
ByBlock
 62
     0
 48
50.0
100
AcDbBlockReference
  2
_DOTSMALL
 10
9576.969337719758
 20
9278.736797361975
 30
0.0
 41
125.0
 42
125.0
 43
125.0
 50
90.0
  0
INSERT
  5
1A4EC
330
18556
100
AcDbEntity
  8
0
  6
ByBlock
 62
     0
 48
50.0
100
AcDbBlockReference
  2
_DOTSMALL
 10
9576.969337719758
 20
9228.736797361971
 30
0.0
 41
125.0
 42
125.0
 43
125.0
 50
270.0
  0
MTEXT
  5
1A4ED
330
18556
100
AcDbEntity
  8
0
  6
ByBlock
 62
     7
 48
50.0
100
AcDbMText
 10
9476.969337719758
 20
8991.689553267482
 30
0.0
 40
150.0
 41
0.0
 71
     5
 72
     1
  1
\A1;50
  7
STYLE1
 11
0.0000000000000001
 21
1.0
 31
0.0
 73
     1
 44
1.0
  0
POINT
  5
1A4EE
330
18556
100
AcDbEntity
  8
DEFPOINTS
  6
ByBlock
 62
     0
 48
50.0
100
AcDbPoint
 10
8452.829581418177
 20
9228.736797361971
 30
0.0
  0
POINT
  5
1A4EF
330
18556
100
AcDbEntity
  8
DEFPOINTS
  6
ByBlock
 62
     0
 48
50.0
100
AcDbPoint
 10
9274.165333801148
 20
9278.736797361975
 30
0.0
  0
POINT
  5
1A4F0
330
18556
100
AcDbEntity
  8
DEFPOINTS
  6
ByBlock
 62
     0
 48
50.0
100
AcDbPoint
 10
9576.969337719758
 20
9278.736797361975
 30
0.0
  0
ENDBLK
  5
1A4F1
330
18556
100
AcDbEntity
  8
0
 48
50.0
100
AcDbBlockEnd
  0
BLOCK
  5
1AD58
330
18563
100
AcDbEntity
  8
0
 48
50.0
100
AcDbBlockBegin
  2
*D11
 70
     1
 10
0.0
 20
0.0
 30
0.0
  3
*D11
  1

  0
LINE
  5
1AD59
330
18563
100
AcDbEntity
  8
0
  6
ByBlock
 62
     0
 48
50.0
100
AcDbLine
 10
9009.165333801147
 20
9278.736797361975
 30
0.0
 11
9361.969337719754
 21
9278.736797361975
 31
0.0
  0
LINE
  5
1AD5A
330
18563
100
AcDbEntity
  8
0
  6
ByBlock
 62
     0
 48
50.0
100
AcDbLine
 10
9009.165333801144
 20
11058.73679736197
 30
0.0
 11
9361.969337719754
 21
11058.73679736197
 31
0.0
  0
LINE
  5
1AD5B
330
18563
100
AcDbEntity
  8
0
  6
ByBlock
 62
     0
 48
50.0
100
AcDbLine
 10
9286.969337719753
 20
9278.736797361975
 30
0.0
 11
9286.969337719753
 21
11058.73679736197
 31
0.0
  0
INSERT
  5
1AD5C
330
18563
100
AcDbEntity
  8
0
  6
ByBlock
 62
     0
 48
50.0
100
AcDbBlockReference
  2
_DOTSMALL
 10
9286.969337719753
 20
9278.736797361975
 30
0.0
 41
125.0
 42
125.0
 43
125.0
 50
270.0
  0
INSERT
  5
1AD5D
330
18563
100
AcDbEntity
  8
0
  6
ByBlock
 62
     0
 48
50.0
100
AcDbBlockReference
  2
_DOTSMALL
 10
9286.969337719753
 20
11058.73679736197
 30
0.0
 41
125.0
 42
125.0
 43
125.0
 50
90.0
  0
MTEXT
  5
1AD5E
330
18563
100
AcDbEntity
  8
0
  6
ByBlock
 62
     7
 48
50.0
100
AcDbMText
 10
9186.969337719753
 20
10168.73679736197
 30
0.0
 40
150.0
 41
0.0
 71
     5
 72
     1
  1
\A1;内部寸法 1780
  7
STYLE1
 11
0.0000000000000001
 21
1.0
 31
0.0
 73
     1
 44
1.0
  0
POINT
  5
1AD5F
330
18563
100
AcDbEntity
  8
DEFPOINTS
  6
ByBlock
 62
     0
 48
50.0
100
AcDbPoint
 10
8984.165333801149
 20
9278.736797361975
 30
0.0
  0
POINT
  5
1AD60
330
18563
100
AcDbEntity
  8
DEFPOINTS
  6
ByBlock
 62
     0
 48
50.0
100
AcDbPoint
 10
8984.165333801144
 20
11058.73679736197
 30
0.0
  0
POINT
  5
1AD61
330
18563
100
AcDbEntity
  8
DEFPOINTS
  6
ByBlock
 62
     0
 48
50.0
100
AcDbPoint
 10
9286.969337719753
 20
11058.73679736197
 30
0.0
  0
ENDBLK
  5
1AD62
330
18563
100
AcDbEntity
  8
0
 48
50.0
100
AcDbBlockEnd
  0
BLOCK
  5
1A4CE
330
1856F
100
AcDbEntity
  8
0
 48
50.0
100
AcDbBlockBegin
  2
*D12
 70
     1
 10
0.0
 20
0.0
 30
0.0
  3
*D12
  1

  0
LINE
  5
1A4CF
330
1856F
100
AcDbEntity
  8
0
  6
ByBlock
 62
     0
 48
50.0
100
AcDbLine
 10
9299.165333801145
 20
12218.73679736197
 30
0.0
 11
9651.969337719755
 21
12218.73679736197
 31
0.0
  0
LINE
  5
1A4D0
330
1856F
100
AcDbEntity
  8
0
  6
ByBlock
 62
     0
 48
50.0
100
AcDbLine
 10
8477.829581418173
 20
12268.73679736197
 30
0.0
 11
9651.969337719755
 21
12268.73679736197
 31
0.0
  0
LINE
  5
1A4D1
330
1856F
100
AcDbEntity
  8
0
  6
ByBlock
 62
     0
 48
50.0
100
AcDbLine
 10
9576.969337719754
 20
12218.73679736197
 30
0.0
 11
9576.969337719754
 21
12093.73679736197
 31
0.0
  0
LINE
  5
1A4D2
330
1856F
100
AcDbEntity
  8
0
  6
ByBlock
 62
     0
 48
50.0
100
AcDbLine
 10
9576.969337719754
 20
12268.73679736197
 30
0.0
 11
9576.969337719754
 21
12733.85490759819
 31
0.0
  0
LINE
  5
1A4D3
330
1856F
100
AcDbEntity
  8
0
  6
ByBlock
 62
     0
 48
50.0
100
AcDbLine
 10
9576.969337719754
 20
12218.73679736197
 30
0.0
 11
9576.969337719754
 21
12268.73679736197
 31
0.0
  0
INSERT
  5
1A4D4
330
1856F
100
AcDbEntity
  8
0
  6
ByBlock
 62
     0
 48
50.0
100
AcDbBlockReference
  2
_DOTSMALL
 10
9576.969337719754
 20
12218.73679736197
 30
0.0
 41
125.0
 42
125.0
 43
125.0
 50
90.0
  0
INSERT
  5
1A4D5
330
1856F
100
AcDbEntity
  8
0
  6
ByBlock
 62
     0
 48
50.0
100
AcDbBlockReference
  2
_DOTSMALL
 10
9576.969337719754
 20
12268.73679736197
 30
0.0
 41
125.0
 42
125.0
 43
125.0
 50
270.0
  0
MTEXT
  5
1A4D6
330
1856F
100
AcDbEntity
  8
0
  6
ByBlock
 62
     7
 48
50.0
100
AcDbMText
 10
9476.969337719754
 20
12626.29585248008
 30
0.0
 40
150.0
 41
0.0
 71
     5
 72
     1
  1
\A1;50
  7
STYLE1
 11
0.0000000000000001
 21
1.0
 31
0.0
 73
     1
 44
1.0
  0
POINT
  5
1A4D7
330
1856F
100
AcDbEntity
  8
DEFPOINTS
  6
ByBlock
 62
     0
 48
50.0
100
AcDbPoint
 10
9274.165333801144
 20
12218.73679736197
 30
0.0
  0
POINT
  5
1A4D8
330
1856F
100
AcDbEntity
  8
DEFPOINTS
  6
ByBlock
 62
     0
 48
50.0
100
AcDbPoint
 10
8452.829581418173
 20
12268.73679736197
 30
0.0
  0
POINT
  5
1A4D9
330
1856F
100
AcDbEntity
  8
DEFPOINTS
  6
ByBlock
 62
     0
 48
50.0
100
AcDbPoint
 10
9576.969337719754
 20
12268.73679736197
 30
0.0
  0
ENDBLK
  5
1A4DA
330
1856F
100
AcDbEntity
  8
0
 48
50.0
100
AcDbBlockEnd
  0
BLOCK
  5
18624
330
185B5
100
AcDbEntity
  8
0
 48
50.0
100
AcDbBlockBegin
  2
*D13
 70
     1
 10
0.0
 20
0.0
 30
0.0
  3
*D13
  1

  0
LINE
  5
18625
330
185B5
100
AcDbEntity
  8
0
  6
ByBlock
 62
     0
 48
50.0
100
AcDbLine
 10
11787.46242649134
 20
12657.68151569412
 30
0.0
 11
11787.46242649134
 21
13127.71350056477
 31
0.0
  0
LINE
  5
18626
330
185B5
100
AcDbEntity
  8
0
  6
ByBlock
 62
     0
 48
50.0
100
AcDbLine
 10
11857.46242649134
 20
12667.68151569412
 30
0.0
 11
11857.46242649134
 21
13127.71350056477
 31
0.0
  0
LINE
  5
18627
330
185B5
100
AcDbEntity
  8
0
  6
ByBlock
 62
     0
 48
50.0
100
AcDbLine
 10
11857.46242649134
 20
13052.71350056477
 30
0.0
 11
11787.46242649134
 21
13052.71350056477
 31
0.0
  0
LINE
  5
18628
330
185B5
100
AcDbEntity
  8
0
  6
ByBlock
 62
     0
 48
50.0
100
AcDbLine
 10
11787.46242649134
 20
13052.71350056477
 30
0.0
 11
11437.34431625512
 21
13052.71350056477
 31
0.0
  0
INSERT
  5
18629
330
185B5
100
AcDbEntity
  8
0
  6
ByBlock
 62
     0
 48
50.0
100
AcDbBlockReference
  2
_DOTSMALL
 10
11857.46242649134
 20
13052.71350056477
 30
0.0
 41
125.0
 42
125.0
 43
125.0
  0
INSERT
  5
1862A
330
185B5
100
AcDbEntity
  8
0
  6
ByBlock
 62
     0
 48
50.0
100
AcDbBlockReference
  2
_DOTSMALL
 10
11787.46242649134
 20
13052.71350056477
 30
0.0
 41
125.0
 42
125.0
 43
125.0
 50
180.0
  0
MTEXT
  5
1862B
330
185B5
100
AcDbEntity
  8
0
  6
ByBlock
 62
     7
 48
50.0
100
AcDbMText
 10
11544.90337137323
 20
13152.71350056477
 30
0.0
 40
150.0
 41
0.0
 71
     5
 72
     1
  1
\A1;70
  7
STYLE1
 73
     1
 44
1.0
  0
POINT
  5
1862C
330
185B5
100
AcDbEntity
  8
DEFPOINTS
  6
ByBlock
 62
     0
 48
50.0
100
AcDbPoint
 10
11787.46242649134
 20
12632.68151569412
 30
0.0
  0
POINT
  5
1862D
330
185B5
100
AcDbEntity
  8
DEFPOINTS
  6
ByBlock
 62
     0
 48
50.0
100
AcDbPoint
 10
11857.46242649134
 20
12642.68151569412
 30
0.0
  0
POINT
  5
1862E
330
185B5
100
AcDbEntity
  8
DEFPOINTS
  6
ByBlock
 62
     0
 48
50.0
100
AcDbPoint
 10
11857.46242649134
 20
13052.71350056477
 30
0.0
  0
ENDBLK
  5
1862F
330
185B5
100
AcDbEntity
  8
0
 48
50.0
100
AcDbBlockEnd
  0
BLOCK
  5
1A9AF
330
185C2
100
AcDbEntity
  8
0
 48
50.0
100
AcDbBlockBegin
  2
*D14
 70
     1
 10
0.0
 20
0.0
 30
0.0
  3
*D14
  1

  0
LINE
  5
1B207
330
185C2
100
AcDbEntity
  8
寸法
 62
     0
 48
50.0
100
AcDbLine
 10
8682.829581418173
 20
11133.73679736197
 30
0.0
 11
8682.829581418173
 21
11593.76878223262
 31
0.0
  0
LINE
  5
1B208
330
185C2
100
AcDbEntity
  8
寸法
 62
     0
 48
50.0
100
AcDbLine
 10
5782.829581418173
 20
11518.76878223262
 30
0.0
 11
8682.829581418173
 21
11518.76878223262
 31
0.0
  0
INSERT
  5
1B209
330
185C2
100
AcDbEntity
  8
寸法
 62
     0
 48
50.0
100
AcDbBlockReference
  2
_DOTSMALL
 10
5782.829581418173
 20
11518.76878223262
 30
0.0
 41
125.0
 42
125.0
 43
125.0
 50
180.0
  0
INSERT
  5
1B20A
330
185C2
100
AcDbEntity
  8
寸法
 62
     0
 48
50.0
100
AcDbBlockReference
  2
_DOTSMALL
 10
8682.829581418173
 20
11518.76878223262
 30
0.0
 41
125.0
 42
125.0
 43
125.0
  0
MTEXT
  5
1B20B
330
185C2
100
AcDbEntity
  8
寸法
 62
     7
 48
50.0
100
AcDbMText
 10
7232.829581418174
 20
11618.78354601215
 30
0.0
 40
150.0
 41
0.0
 71
     5
 72
     1
  1
\A1;5x580=2900
  7
STYLE1
 73
     1
 44
1.0
  0
POINT
  5
1B20C
330
185C2
100
AcDbEntity
  8
DEFPOINTS
 62
     0
 48
50.0
100
AcDbPoint
 10
5782.829581418173
 20
11108.73679736197
 30
0.0
  0
POINT
  5
1B20D
330
185C2
100
AcDbEntity
  8
DEFPOINTS
 62
     0
 48
50.0
100
AcDbPoint
 10
8682.829581418173
 20
11108.73679736197
 30
0.0
  0
POINT
  5
1B20E
330
185C2
100
AcDbEntity
  8
DEFPOINTS
 62
     0
 48
50.0
100
AcDbPoint
 10
8682.829581418173
 20
11518.76878223262
 30
0.0
  0
ENDBLK
  5
1A9B8
330
185C2
100
AcDbEntity
  8
0
 48
50.0
100
AcDbBlockEnd
  0
BLOCK
  5
18656
330
185E5
100
AcDbEntity
  8
0
 48
50.0
100
AcDbBlockBegin
  2
*D15
 70
     1
 10
0.0
 20
0.0
 30
0.0
  3
*D15
  1

  0
LINE
  5
18657
330
185E5
100
AcDbEntity
  8
0
  6
ByBlock
 62
     0
 48
50.0
100
AcDbLine
 10
16637.46242649134
 20
12667.68151569412
 30
0.0
 11
16637.46242649134
 21
13127.71350056477
 31
0.0
  0
LINE
  5
18658
330
185E5
100
AcDbEntity
  8
0
  6
ByBlock
 62
     0
 48
50.0
100
AcDbLine
 10
16707.46242649134
 20
12657.68151569412
 30
0.0
 11
16707.46242649134
 21
13127.71350056477
 31
0.0
  0
LINE
  5
18659
330
185E5
100
AcDbEntity
  8
0
  6
ByBlock
 62
     0
 48
50.0
100
AcDbLine
 10
16637.46242649134
 20
13052.71350056477
 30
0.0
 11
16707.46242649134
 21
13052.71350056477
 31
0.0
  0
LINE
  5
1865A
330
185E5
100
AcDbEntity
  8
0
  6
ByBlock
 62
     0
 48
50.0
100
AcDbLine
 10
16707.46242649134
 20
13052.71350056477
 30
0.0
 11
17077.58053672756
 21
13052.71350056477
 31
0.0
  0
INSERT
  5
1865B
330
185E5
100
AcDbEntity
  8
0
  6
ByBlock
 62
     0
 48
50.0
100
AcDbBlockReference
  2
_DOTSMALL
 10
16637.46242649134
 20
13052.71350056477
 30
0.0
 41
125.0
 42
125.0
 43
125.0
 50
180.0
  0
INSERT
  5
1865C
330
185E5
100
AcDbEntity
  8
0
  6
ByBlock
 62
     0
 48
50.0
100
AcDbBlockReference
  2
_DOTSMALL
 10
16707.46242649134
 20
13052.71350056477
 30
0.0
 41
125.0
 42
125.0
 43
125.0
  0
MTEXT
  5
1865D
330
185E5
100
AcDbEntity
  8
0
  6
ByBlock
 62
     7
 48
50.0
100
AcDbMText
 10
16970.02148160945
 20
13152.71350056477
 30
0.0
 40
150.0
 41
0.0
 71
     5
 72
     1
  1
\A1;70
  7
STYLE1
 73
     1
 44
1.0
  0
POINT
  5
1865E
330
185E5
100
AcDbEntity
  8
DEFPOINTS
  6
ByBlock
 62
     0
 48
50.0
100
AcDbPoint
 10
16637.46242649134
 20
12642.68151569412
 30
0.0
  0
POINT
  5
1865F
330
185E5
100
AcDbEntity
  8
DEFPOINTS
  6
ByBlock
 62
     0
 48
50.0
100
AcDbPoint
 10
16707.46242649134
 20
12632.68151569412
 30
0.0
  0
POINT
  5
18660
330
185E5
100
AcDbEntity
  8
DEFPOINTS
  6
ByBlock
 62
     0
 48
50.0
100
AcDbPoint
 10
16707.46242649134
 20
13052.71350056477
 30
0.0
  0
ENDBLK
  5
18661
330
185E5
100
AcDbEntity
  8
0
 48
50.0
100
AcDbBlockEnd
  0
BLOCK
  5
18617
330
185F2
100
AcDbEntity
  8
0
 48
50.0
100
AcDbBlockBegin
  2
*D16
 70
     1
 10
0.0
 20
0.0
 30
0.0
  3
*D16
  1

  0
LINE
  5
18618
330
185F2
100
AcDbEntity
  8
0
  6
ByBlock
 62
     0
 48
50.0
100
AcDbLine
 10
11787.46242649134
 20
12657.68151569412
 30
0.0
 11
11787.46242649134
 21
13426.45988446553
 31
0.0
  0
LINE
  5
18619
330
185F2
100
AcDbEntity
  8
0
  6
ByBlock
 62
     0
 48
50.0
100
AcDbLine
 10
11837.46242649134
 20
13077.71350056477
 30
0.0
 11
11837.46242649134
 21
13426.45988446553
 31
0.0
  0
LINE
  5
1861A
330
185F2
100
AcDbEntity
  8
0
  6
ByBlock
 62
     0
 48
50.0
100
AcDbLine
 10
11837.46242649134
 20
13351.45988446553
 30
0.0
 11
11962.46242649134
 21
13351.45988446553
 31
0.0
  0
LINE
  5
1861B
330
185F2
100
AcDbEntity
  8
0
  6
ByBlock
 62
     0
 48
50.0
100
AcDbLine
 10
11787.46242649134
 20
13351.45988446553
 30
0.0
 11
11322.34431625512
 21
13351.45988446553
 31
0.0
  0
LINE
  5
1861C
330
185F2
100
AcDbEntity
  8
0
  6
ByBlock
 62
     0
 48
50.0
100
AcDbLine
 10
11837.46242649134
 20
13351.45988446553
 30
0.0
 11
11787.46242649134
 21
13351.45988446553
 31
0.0
  0
INSERT
  5
1861D
330
185F2
100
AcDbEntity
  8
0
  6
ByBlock
 62
     0
 48
50.0
100
AcDbBlockReference
  2
_DOTSMALL
 10
11837.46242649134
 20
13351.45988446553
 30
0.0
 41
125.0
 42
125.0
 43
125.0
 50
180.0
  0
INSERT
  5
1861E
330
185F2
100
AcDbEntity
  8
0
  6
ByBlock
 62
     0
 48
50.0
100
AcDbBlockReference
  2
_DOTSMALL
 10
11787.46242649134
 20
13351.45988446553
 30
0.0
 41
125.0
 42
125.0
 43
125.0
  0
MTEXT
  5
1861F
330
185F2
100
AcDbEntity
  8
0
  6
ByBlock
 62
     7
 48
50.0
100
AcDbMText
 10
11429.90337137323
 20
13451.45988446553
 30
0.0
 40
150.0
 41
0.0
 71
     5
 72
     1
  1
\A1;50
  7
STYLE1
 73
     1
 44
1.0
  0
POINT
  5
18620
330
185F2
100
AcDbEntity
  8
DEFPOINTS
  6
ByBlock
 62
     0
 48
50.0
100
AcDbPoint
 10
11787.46242649134
 20
12632.68151569412
 30
0.0
  0
POINT
  5
18621
330
185F2
100
AcDbEntity
  8
DEFPOINTS
  6
ByBlock
 62
     0
 48
50.0
100
AcDbPoint
 10
11837.46242649134
 20
13052.71350056477
 30
0.0
  0
POINT
  5
18622
330
185F2
100
AcDbEntity
  8
DEFPOINTS
  6
ByBlock
 62
     0
 48
50.0
100
AcDbPoint
 10
11837.46242649134
 20
13351.45988446553
 30
0.0
  0
ENDBLK
  5
18623
330
185F2
100
AcDbEntity
  8
0
 48
50.0
100
AcDbBlockEnd
  0
BLOCK
  5
1A9A5
330
185FF
100
AcDbEntity
  8
0
 48
50.0
100
AcDbBlockBegin
  2
*D17
 70
     1
 10
0.0
 20
0.0
 30
0.0
  3
*D17
  1

  0
LINE
  5
1B1FF
330
185FF
100
AcDbEntity
  8
寸法
 62
     0
 48
50.0
100
AcDbLine
 10
8702.82958141818
 20
11543.76878223262
 30
0.0
 11
8702.82958141818
 21
11892.51516613338
 31
0.0
  0
LINE
  5
1B200
330
185FF
100
AcDbEntity
  8
寸法
 62
     0
 48
50.0
100
AcDbLine
 10
5762.829581418169
 20
11817.51516613338
 30
0.0
 11
8702.82958141818
 21
11817.51516613338
 31
0.0
  0
INSERT
  5
1B201
330
185FF
100
AcDbEntity
  8
寸法
 62
     0
 48
50.0
100
AcDbBlockReference
  2
_DOTSMALL
 10
5762.829581418169
 20
11817.51516613338
 30
0.0
 41
125.0
 42
125.0
 43
125.0
 50
180.0
  0
INSERT
  5
1B202
330
185FF
100
AcDbEntity
  8
寸法
 62
     0
 48
50.0
100
AcDbBlockReference
  2
_DOTSMALL
 10
8702.82958141818
 20
11817.51516613338
 30
0.0
 41
125.0
 42
125.0
 43
125.0
  0
MTEXT
  5
1B203
330
185FF
100
AcDbEntity
  8
寸法
 62
     7
 48
50.0
100
AcDbMText
 10
7232.829581418174
 20
11917.52992991291
 30
0.0
 40
150.0
 41
0.0
 71
     5
 72
     1
  1
\A1;内部寸法 2940
  7
STYLE1
 73
     1
 44
1.0
  0
POINT
  5
1B204
330
185FF
100
AcDbEntity
  8
DEFPOINTS
 62
     0
 48
50.0
100
AcDbPoint
 10
5762.829581418169
 20
11518.76878223262
 30
0.0
  0
POINT
  5
1B205
330
185FF
100
AcDbEntity
  8
DEFPOINTS
 62
     0
 48
50.0
100
AcDbPoint
 10
8702.82958141818
 20
11518.76878223262
 30
0.0
  0
POINT
  5
1B206
330
185FF
100
AcDbEntity
  8
DEFPOINTS
 62
     0
 48
50.0
100
AcDbPoint
 10
8702.82958141818
 20
11817.51516613338
 30
0.0
  0
ENDBLK
  5
1A9AE
330
185FF
100
AcDbEntity
  8
0
 48
50.0
100
AcDbBlockEnd
  0
BLOCK
  5
18649
330
1860A
100
AcDbEntity
  8
0
 48
50.0
100
AcDbBlockBegin
  2
*D18
 70
     1
 10
0.0
 20
0.0
 30
0.0
  3
*D18
  1

  0
LINE
  5
1864A
330
1860A
100
AcDbEntity
  8
0
  6
ByBlock
 62
     0
 48
50.0
100
AcDbLine
 10
16657.46242649135
 20
13077.71350056477
 30
0.0
 11
16657.46242649135
 21
13426.45988446553
 31
0.0
  0
LINE
  5
1864B
330
1860A
100
AcDbEntity
  8
0
  6
ByBlock
 62
     0
 48
50.0
100
AcDbLine
 10
16707.46242649134
 20
12657.68151569412
 30
0.0
 11
16707.46242649134
 21
13426.45988446553
 31
0.0
  0
LINE
  5
1864C
330
1860A
100
AcDbEntity
  8
0
  6
ByBlock
 62
     0
 48
50.0
100
AcDbLine
 10
16657.46242649135
 20
13351.45988446553
 30
0.0
 11
16532.46242649135
 21
13351.45988446553
 31
0.0
  0
LINE
  5
1864D
330
1860A
100
AcDbEntity
  8
0
  6
ByBlock
 62
     0
 48
50.0
100
AcDbLine
 10
16707.46242649134
 20
13351.45988446553
 30
0.0
 11
17172.58053672756
 21
13351.45988446553
 31
0.0
  0
LINE
  5
1864E
330
1860A
100
AcDbEntity
  8
0
  6
ByBlock
 62
     0
 48
50.0
100
AcDbLine
 10
16657.46242649135
 20
13351.45988446553
 30
0.0
 11
16707.46242649134
 21
13351.45988446553
 31
0.0
  0
INSERT
  5
1864F
330
1860A
100
AcDbEntity
  8
0
  6
ByBlock
 62
     0
 48
50.0
100
AcDbBlockReference
  2
_DOTSMALL
 10
16657.46242649135
 20
13351.45988446553
 30
0.0
 41
125.0
 42
125.0
 43
125.0
  0
INSERT
  5
18650
330
1860A
100
AcDbEntity
  8
0
  6
ByBlock
 62
     0
 48
50.0
100
AcDbBlockReference
  2
_DOTSMALL
 10
16707.46242649134
 20
13351.45988446553
 30
0.0
 41
125.0
 42
125.0
 43
125.0
 50
180.0
  0
MTEXT
  5
18651
330
1860A
100
AcDbEntity
  8
0
  6
ByBlock
 62
     7
 48
50.0
100
AcDbMText
 10
17065.02148160945
 20
13451.45988446553
 30
0.0
 40
150.0
 41
0.0
 71
     5
 72
     1
  1
\A1;50
  7
STYLE1
 73
     1
 44
1.0
  0
POINT
  5
18652
330
1860A
100
AcDbEntity
  8
DEFPOINTS
  6
ByBlock
 62
     0
 48
50.0
100
AcDbPoint
 10
16657.46242649135
 20
13052.71350056477
 30
0.0
  0
POINT
  5
18653
330
1860A
100
AcDbEntity
  8
DEFPOINTS
  6
ByBlock
 62
     0
 48
50.0
100
AcDbPoint
 10
16707.46242649134
 20
12632.68151569412
 30
0.0
  0
POINT
  5
18654
330
1860A
100
AcDbEntity
  8
DEFPOINTS
  6
ByBlock
 62
     0
 48
50.0
100
AcDbPoint
 10
16707.46242649134
 20
13351.45988446553
 30
0.0
  0
ENDBLK
  5
18655
330
1860A
100
AcDbEntity
  8
0
 48
50.0
100
AcDbBlockEnd
  0
BLOCK
  5
1A99A
330
1868D
100
AcDbEntity
  8
0
 48
50.0
100
AcDbBlockBegin
  2
*D19
 70
     1
 10
0.0
 20
0.0
 30
0.0
  3
*D19
  1

  0
LINE
  5
1A99B
330
1868D
100
AcDbEntity
  8
0
  6
ByBlock
 62
     0
 48
50.0
100
AcDbLine
 10
4842.829581418171
 20
9213.736797361972
 30
0.0
 11
4842.829581418171
 21
7892.428503410812
 31
0.0
  0
LINE
  5
1A99C
330
1868D
100
AcDbEntity
  8
0
  6
ByBlock
 62
     0
 48
50.0
100
AcDbLine
 10
7882.829581418177
 20
9213.736797361972
 30
0.0
 11
7882.829581418177
 21
7892.428503410812
 31
0.0
  0
LINE
  5
1A99D
330
1868D
100
AcDbEntity
  8
0
  6
ByBlock
 62
     0
 48
50.0
100
AcDbLine
 10
4842.829581418171
 20
7967.428503410812
 30
0.0
 11
7882.829581418177
 21
7967.428503410812
 31
0.0
  0
INSERT
  5
1A99E
330
1868D
100
AcDbEntity
  8
0
  6
ByBlock
 62
     0
 48
50.0
100
AcDbBlockReference
  2
_DOTSMALL
 10
4842.829581418171
 20
7967.428503410812
 30
0.0
 41
125.0
 42
125.0
 43
125.0
 50
180.0
  0
INSERT
  5
1A99F
330
1868D
100
AcDbEntity
  8
0
  6
ByBlock
 62
     0
 48
50.0
100
AcDbBlockReference
  2
_DOTSMALL
 10
7882.829581418177
 20
7967.428503410812
 30
0.0
 41
125.0
 42
125.0
 43
125.0
  0
MTEXT
  5
1A9A0
330
1868D
100
AcDbEntity
  8
0
  6
ByBlock
 62
     7
 48
50.0
100
AcDbMText
 10
6362.829581418174
 20
8067.428503410813
 30
0.0
 40
150.0
 41
0.0
 71
     5
 72
     1
  1
\A1;3040
  7
STYLE1
 73
     1
 44
1.0
  0
POINT
  5
1A9A1
330
1868D
100
AcDbEntity
  8
DEFPOINTS
  6
ByBlock
 62
     0
 48
50.0
100
AcDbPoint
 10
4842.829581418171
 20
9238.736797361971
 30
0.0
  0
POINT
  5
1A9A2
330
1868D
100
AcDbEntity
  8
DEFPOINTS
  6
ByBlock
 62
     0
 48
50.0
100
AcDbPoint
 10
7882.829581418177
 20
9238.736797361973
 30
0.0
  0
POINT
  5
1A9A3
330
1868D
100
AcDbEntity
  8
DEFPOINTS
  6
ByBlock
 62
     0
 48
50.0
100
AcDbPoint
 10
7882.829581418177
 20
7967.428503410812
 30
0.0
  0
ENDBLK
  5
1A9A4
330
1868D
100
AcDbEntity
  8
0
 48
50.0
100
AcDbBlockEnd
  0
BLOCK
  5
1AD42
330
186B0
100
AcDbEntity
  8
0
 48
50.0
100
AcDbBlockBegin
  2
*D20
 70
     1
 10
0.0
 20
0.0
 30
0.0
  3
*D20
  1

  0
LINE
  5
1AD43
330
186B0
100
AcDbEntity
  8
0
  6
ByBlock
 62
     0
 48
50.0
100
AcDbLine
 10
5117.82958141817
 20
11108.73679736197
 30
0.0
 11
4291.198601638503
 21
11108.73679736197
 31
0.0
  0
LINE
  5
1AD44
330
186B0
100
AcDbEntity
  8
0
  6
ByBlock
 62
     0
 48
50.0
100
AcDbLine
 10
5117.82958141817
 20
9228.736797361971
 30
0.0
 11
4291.198601638503
 21
9228.736797361971
 31
0.0
  0
LINE
  5
1AD45
330
186B0
100
AcDbEntity
  8
0
  6
ByBlock
 62
     0
 48
50.0
100
AcDbLine
 10
4366.198601638504
 20
11108.73679736197
 30
0.0
 11
4366.198601638504
 21
9228.736797361971
 31
0.0
  0
INSERT
  5
1AD46
330
186B0
100
AcDbEntity
  8
0
  6
ByBlock
 62
     0
 48
50.0
100
AcDbBlockReference
  2
_DOTSMALL
 10
4366.198601638504
 20
11108.73679736197
 30
0.0
 41
125.0
 42
125.0
 43
125.0
 50
90.0
  0
INSERT
  5
1AD47
330
186B0
100
AcDbEntity
  8
0
  6
ByBlock
 62
     0
 48
50.0
100
AcDbBlockReference
  2
_DOTSMALL
 10
4366.198601638504
 20
9228.736797361971
 30
0.0
 41
125.0
 42
125.0
 43
125.0
 50
270.0
  0
MTEXT
  5
1AD48
330
186B0
100
AcDbEntity
  8
0
  6
ByBlock
 62
     7
 48
50.0
100
AcDbMText
 10
4266.198601638503
 20
10168.73679736197
 30
0.0
 40
150.0
 41
0.0
 71
     5
 72
     1
  1
\A1;1880
  7
STYLE1
 11
0.0000000000000001
 21
1.0
 31
0.0
 73
     1
 44
1.0
  0
POINT
  5
1AD49
330
186B0
100
AcDbEntity
  8
DEFPOINTS
  6
ByBlock
 62
     0
 48
50.0
100
AcDbPoint
 10
5142.829581418171
 20
11108.73679736197
 30
0.0
  0
POINT
  5
1AD4A
330
186B0
100
AcDbEntity
  8
DEFPOINTS
  6
ByBlock
 62
     0
 48
50.0
100
AcDbPoint
 10
5142.829581418171
 20
9228.736797361971
 30
0.0
  0
POINT
  5
1AD4B
330
186B0
100
AcDbEntity
  8
DEFPOINTS
  6
ByBlock
 62
     0
 48
50.0
100
AcDbPoint
 10
4366.198601638504
 20
9228.736797361971
 30
0.0
  0
ENDBLK
  5
1AD4C
330
186B0
100
AcDbEntity
  8
0
 48
50.0
100
AcDbBlockEnd
  0
BLOCK
  5
1A492
330
1876C
100
AcDbEntity
  8
0
 48
50.0
100
AcDbBlockBegin
  2
*D21
 70
     1
 10
0.0
 20
0.0
 30
0.0
  3
*D21
  1

  0
LINE
  5
1A493
330
1876C
100
AcDbEntity
  8
0
  6
ByBlock
 62
     0
 48
50.0
100
AcDbLine
 10
5512.829581418174
 20
9135.736797361609
 30
0.0
 11
5512.829581418174
 21
8457.273498070641
 31
0.0
  0
LINE
  5
1A494
330
1876C
100
AcDbEntity
  8
0
  6
ByBlock
 62
     0
 48
50.0
100
AcDbLine
 10
6602.829581418173
 20
9135.736797361609
 30
0.0
 11
6602.829581418173
 21
8457.273498070641
 31
0.0
  0
LINE
  5
1A495
330
1876C
100
AcDbEntity
  8
0
  6
ByBlock
 62
     0
 48
50.0
100
AcDbLine
 10
5512.829581418174
 20
8532.273498070642
 30
0.0
 11
5387.829581418174
 21
8532.273498070642
 31
0.0
  0
LINE
  5
1A496
330
1876C
100
AcDbEntity
  8
0
  6
ByBlock
 62
     0
 48
50.0
100
AcDbLine
 10
6602.829581418173
 20
8532.273498070642
 30
0.0
 11
6727.829581418173
 21
8532.273498070642
 31
0.0
  0
LINE
  5
1A497
330
1876C
100
AcDbEntity
  8
0
  6
ByBlock
 62
     0
 48
50.0
100
AcDbLine
 10
5512.829581418174
 20
8532.273498070642
 30
0.0
 11
6602.829581418173
 21
8532.273498070642
 31
0.0
  0
INSERT
  5
1A498
330
1876C
100
AcDbEntity
  8
0
  6
ByBlock
 62
     0
 48
50.0
100
AcDbBlockReference
  2
_DOTSMALL
 10
5512.829581418174
 20
8532.273498070642
 30
0.0
 41
125.0
 42
125.0
 43
125.0
  0
INSERT
  5
1A499
330
1876C
100
AcDbEntity
  8
0
  6
ByBlock
 62
     0
 48
50.0
100
AcDbBlockReference
  2
_DOTSMALL
 10
6602.829581418173
 20
8532.273498070642
 30
0.0
 41
125.0
 42
125.0
 43
125.0
 50
180.0
  0
MTEXT
  5
1A49A
330
1876C
100
AcDbEntity
  8
0
  6
ByBlock
 62
     7
 48
50.0
100
AcDbMText
 10
6057.829581418173
 20
8757.273498070642
 30
0.0
 40
150.0
 41
0.0
 71
     5
 72
     1
  1
\A1;有効開口部間口\P1090
  7
STYLE1
 73
     1
 44
1.0
  0
POINT
  5
1A49B
330
1876C
100
AcDbEntity
  8
DEFPOINTS
  6
ByBlock
 62
     0
 48
50.0
100
AcDbPoint
 10
5512.829581418174
 20
9160.736797361609
 30
0.0
  0
POINT
  5
1A49C
330
1876C
100
AcDbEntity
  8
DEFPOINTS
  6
ByBlock
 62
     0
 48
50.0
100
AcDbPoint
 10
6602.829581418173
 20
9160.736797361609
 30
0.0
  0
POINT
  5
1A49D
330
1876C
100
AcDbEntity
  8
DEFPOINTS
  6
ByBlock
 62
     0
 48
50.0
100
AcDbPoint
 10
6602.829581418173
 20
8532.273498070642
 30
0.0
  0
ENDBLK
  5
1A49E
330
1876C
100
AcDbEntity
  8
0
 48
50.0
100
AcDbBlockEnd
  0
BLOCK
  5
1927D
330
19113
100
AcDbEntity
  8
0
 48
50.0
100
AcDbBlockBegin
  2
*D22
 70
     1
 10
0.0
 20
0.0
 30
0.0
  3
*D22
  1

  0
LINE
  5
1927E
330
19113
100
AcDbEntity
  8
0
  6
ByBlock
 62
     0
 48
50.0
100
AcDbLine
 10
9212.829581418173
 20
2574.999999999999
 30
0.0
 11
9212.829581418173
 21
2197.358857715331
 31
0.0
  0
LINE
  5
1927F
330
19113
100
AcDbEntity
  8
0
  6
ByBlock
 62
     0
 48
50.0
100
AcDbLine
 10
9012.829581418172
 20
2574.999999999999
 30
0.0
 11
9012.829581418172
 21
2197.358857715331
 31
0.0
  0
LINE
  5
19280
330
19113
100
AcDbEntity
  8
0
  6
ByBlock
 62
     0
 48
50.0
100
AcDbLine
 10
9212.829581418173
 20
2272.358857715331
 30
0.0
 11
9012.829581418172
 21
2272.358857715331
 31
0.0
  0
LINE
  5
19281
330
19113
100
AcDbEntity
  8
0
  6
ByBlock
 62
     0
 48
50.0
100
AcDbLine
 10
9012.829581418172
 20
2272.358857715331
 30
0.0
 11
8563.902416063839
 21
2272.358857715331
 31
0.0
  0
INSERT
  5
19282
330
19113
100
AcDbEntity
  8
0
  6
ByBlock
 62
     0
 48
50.0
100
AcDbBlockReference
  2
_DOTSMALL
 10
9212.829581418173
 20
2272.358857715331
 30
0.0
 41
125.0
 42
125.0
 43
125.0
  0
INSERT
  5
19283
330
19113
100
AcDbEntity
  8
0
  6
ByBlock
 62
     0
 48
50.0
100
AcDbBlockReference
  2
_DOTSMALL
 10
9012.829581418172
 20
2272.358857715331
 30
0.0
 41
125.0
 42
125.0
 43
125.0
 50
180.0
  0
MTEXT
  5
19284
330
19113
100
AcDbEntity
  8
0
  6
ByBlock
 62
     7
 48
50.0
100
AcDbMText
 10
8725.865998741006
 20
2372.373621494859
 30
0.0
 40
150.0
 41
0.0
 71
     5
 72
     1
  1
\A1;200
  7
STYLE1
 73
     1
 44
1.0
  0
POINT
  5
19285
330
19113
100
AcDbEntity
  8
DEFPOINTS
  6
ByBlock
 62
     0
 48
50.0
100
AcDbPoint
 10
9212.829581418173
 20
2599.999999999999
 30
0.0
  0
POINT
  5
19286
330
19113
100
AcDbEntity
  8
DEFPOINTS
  6
ByBlock
 62
     0
 48
50.0
100
AcDbPoint
 10
9012.829581418172
 20
2599.999999999999
 30
0.0
  0
POINT
  5
19287
330
19113
100
AcDbEntity
  8
DEFPOINTS
  6
ByBlock
 62
     0
 48
50.0
100
AcDbPoint
 10
9012.829581418172
 20
2272.358857715331
 30
0.0
  0
ENDBLK
  5
19288
330
19113
100
AcDbEntity
  8
0
 48
50.0
100
AcDbBlockEnd
  0
BLOCK
  5
1A8A2
330
1A2D7
100
AcDbEntity
  8
0
 48
50.0
100
AcDbBlockBegin
  2
*D23
 70
     1
 10
0.0
 20
0.0
 30
0.0
  3
*D23
  1

  0
LINE
  5
1A8A3
330
1A2D7
100
AcDbEntity
  8
0
  6
ByBlock
 62
     0
 48
50.0
100
AcDbLine
 10
4827.829581418171
 20
9228.736797361971
 30
0.0
 11
4001.198601638503
 21
9228.736797361971
 31
0.0
  0
LINE
  5
1A8A4
330
1A2D7
100
AcDbEntity
  8
0
  6
ByBlock
 62
     0
 48
50.0
100
AcDbLine
 10
4881.829581418173
 20
9160.736797361609
 30
0.0
 11
4001.198601638503
 21
9160.736797361609
 31
0.0
  0
LINE
  5
1A8A5
330
1A2D7
100
AcDbEntity
  8
0
  6
ByBlock
 62
     0
 48
50.0
100
AcDbLine
 10
4076.198601638504
 20
9228.736797361971
 30
0.0
 11
4076.198601638504
 21
9160.736797361609
 31
0.0
  0
LINE
  5
1A8A6
330
1A2D7
100
AcDbEntity
  8
0
  6
ByBlock
 62
     0
 48
50.0
100
AcDbLine
 10
4076.198601638504
 20
9160.736797361609
 30
0.0
 11
4076.198601638504
 21
8811.760419408853
 31
0.0
  0
INSERT
  5
1A8A7
330
1A2D7
100
AcDbEntity
  8
0
  6
ByBlock
 62
     0
 48
50.0
100
AcDbBlockReference
  2
_DOTSMALL
 10
4076.198601638504
 20
9228.736797361971
 30
0.0
 41
125.0
 42
125.0
 43
125.0
 50
90.0
  0
INSERT
  5
1A8A8
330
1A2D7
100
AcDbEntity
  8
0
  6
ByBlock
 62
     0
 48
50.0
100
AcDbBlockReference
  2
_DOTSMALL
 10
4076.198601638504
 20
9160.736797361609
 30
0.0
 41
125.0
 42
125.0
 43
125.0
 50
270.0
  0
MTEXT
  5
1A8A9
330
1A2D7
100
AcDbEntity
  8
0
  6
ByBlock
 62
     7
 48
50.0
100
AcDbMText
 10
3976.198601638504
 20
8923.748608385231
 30
0.0
 40
150.0
 41
0.0
 71
     5
 72
     1
  1
\A1;68
  7
STYLE1
 11
0.0000000000000001
 21
1.0
 31
0.0
 73
     1
 44
1.0
  0
POINT
  5
1A8AA
330
1A2D7
100
AcDbEntity
  8
DEFPOINTS
  6
ByBlock
 62
     0
 48
50.0
100
AcDbPoint
 10
4852.829581418171
 20
9228.736797361971
 30
0.0
  0
POINT
  5
1A8AB
330
1A2D7
100
AcDbEntity
  8
DEFPOINTS
  6
ByBlock
 62
     0
 48
50.0
100
AcDbPoint
 10
4906.829581418173
 20
9160.736797361609
 30
0.0
  0
POINT
  5
1A8AC
330
1A2D7
100
AcDbEntity
  8
DEFPOINTS
  6
ByBlock
 62
     0
 48
50.0
100
AcDbPoint
 10
4076.198601638504
 20
9160.736797361609
 30
0.0
  0
ENDBLK
  5
1A8AD
330
1A2D7
100
AcDbEntity
  8
0
 48
50.0
100
AcDbBlockEnd
  0
BLOCK
  5
1ACB9
330
1AC25
100
AcDbEntity
  8
0
 48
50.0
100
AcDbBlockBegin
  2
*D24
 70
     1
 10
0.0
 20
0.0
 30
0.0
  3
*D24
  1

  0
LINE
  5
1ACBA
330
1AC25
100
AcDbEntity
  8
0
  6
ByBlock
 62
     0
 48
50.0
100
AcDbLine
 10
14250.31781125775
 20
14622.52646466355
 30
0.0
 11
14250.31781125775
 21
14286.47913536318
 31
0.0
  0
LINE
  5
1ACBB
330
1AC25
100
AcDbEntity
  8
0
  6
ByBlock
 62
     0
 48
50.0
100
AcDbLine
 10
14050.31781125775
 20
14622.52646466355
 30
0.0
 11
14050.31781125775
 21
14286.47913536318
 31
0.0
  0
LINE
  5
1ACBC
330
1AC25
100
AcDbEntity
  8
0
  6
ByBlock
 62
     0
 48
50.0
100
AcDbLine
 10
14250.31781125775
 20
14361.47913536318
 30
0.0
 11
14050.31781125775
 21
14361.47913536318
 31
0.0
  0
LINE
  5
1ACBD
330
1AC25
100
AcDbEntity
  8
0
  6
ByBlock
 62
     0
 48
50.0
100
AcDbLine
 10
14050.31781125775
 20
14361.47913536318
 30
0.0
 11
13601.39064590342
 21
14361.47913536318
 31
0.0
  0
INSERT
  5
1ACBE
330
1AC25
100
AcDbEntity
  8
0
  6
ByBlock
 62
     0
 48
50.0
100
AcDbBlockReference
  2
_DOTSMALL
 10
14250.31781125775
 20
14361.47913536318
 30
0.0
 41
125.0
 42
125.0
 43
125.0
  0
INSERT
  5
1ACBF
330
1AC25
100
AcDbEntity
  8
0
  6
ByBlock
 62
     0
 48
50.0
100
AcDbBlockReference
  2
_DOTSMALL
 10
14050.31781125775
 20
14361.47913536318
 30
0.0
 41
125.0
 42
125.0
 43
125.0
 50
180.0
  0
MTEXT
  5
1ACC0
330
1AC25
100
AcDbEntity
  8
0
  6
ByBlock
 62
     7
 48
50.0
100
AcDbMText
 10
13763.35422858058
 20
14461.4938991427
 30
0.0
 40
150.0
 41
0.0
 71
     5
 72
     1
  1
\A1;200
  7
STYLE1
 73
     1
 44
1.0
  0
POINT
  5
1ACC1
330
1AC25
100
AcDbEntity
  8
DEFPOINTS
  6
ByBlock
 62
     0
 48
50.0
100
AcDbPoint
 10
14250.31781125775
 20
14647.52646466355
 30
0.0
  0
POINT
  5
1ACC2
330
1AC25
100
AcDbEntity
  8
DEFPOINTS
  6
ByBlock
 62
     0
 48
50.0
100
AcDbPoint
 10
14050.31781125775
 20
14647.52646466355
 30
0.0
  0
POINT
  5
1ACC3
330
1AC25
100
AcDbEntity
  8
DEFPOINTS
  6
ByBlock
 62
     0
 48
50.0
100
AcDbPoint
 10
14050.31781125775
 20
14361.47913536318
 30
0.0
  0
ENDBLK
  5
1ACC4
330
1AC25
100
AcDbEntity
  8
0
 48
50.0
100
AcDbBlockEnd
  0
BLOCK
  5
1ACC5
330
1AC32
100
AcDbEntity
  8
0
 48
50.0
100
AcDbBlockBegin
  2
*D25
 70
     1
 10
0.0
 20
0.0
 30
0.0
  3
*D25
  1

  0
LINE
  5
1ACC6
330
1AC32
100
AcDbEntity
  8
0
  6
ByBlock
 62
     0
 48
50.0
100
AcDbLine
 10
14275.31781125775
 20
14647.52646466355
 30
0.0
 11
14723.65294625163
 21
14647.52646466355
 31
0.0
  0
LINE
  5
1ACC7
330
1AC32
100
AcDbEntity
  8
0
  6
ByBlock
 62
     0
 48
50.0
100
AcDbLine
 10
14275.31781125775
 20
14847.52646466355
 30
0.0
 11
14723.65294625163
 21
14847.52646466355
 31
0.0
  0
LINE
  5
1ACC8
330
1AC32
100
AcDbEntity
  8
0
  6
ByBlock
 62
     0
 48
50.0
100
AcDbLine
 10
14648.65294625163
 20
14847.52646466355
 30
0.0
 11
14648.65294625163
 21
14647.52646466355
 31
0.0
  0
LINE
  5
1ACC9
330
1AC32
100
AcDbEntity
  8
0
  6
ByBlock
 62
     0
 48
50.0
100
AcDbLine
 10
14648.65294625163
 20
14647.52646466355
 30
0.0
 11
14648.65294625163
 21
14198.59929930922
 31
0.0
  0
INSERT
  5
1ACCA
330
1AC32
100
AcDbEntity
  8
0
  6
ByBlock
 62
     0
 48
50.0
100
AcDbBlockReference
  2
_DOTSMALL
 10
14648.65294625163
 20
14847.52646466355
 30
0.0
 41
125.0
 42
125.0
 43
125.0
 50
90.0
  0
INSERT
  5
1ACCB
330
1AC32
100
AcDbEntity
  8
0
  6
ByBlock
 62
     0
 48
50.0
100
AcDbBlockReference
  2
_DOTSMALL
 10
14648.65294625163
 20
14647.52646466355
 30
0.0
 41
125.0
 42
125.0
 43
125.0
 50
270.0
  0
MTEXT
  5
1ACCC
330
1AC32
100
AcDbEntity
  8
0
  6
ByBlock
 62
     7
 48
50.0
100
AcDbMText
 10
14548.6381824721
 20
14360.56288198639
 30
0.0
 40
150.0
 41
0.0
 71
     5
 72
     1
  1
\A1;200
  7
STYLE1
 11
0.0000000000000001
 21
1.0
 31
0.0
 73
     1
 44
1.0
  0
POINT
  5
1ACCD
330
1AC32
100
AcDbEntity
  8
DEFPOINTS
  6
ByBlock
 62
     0
 48
50.0
100
AcDbPoint
 10
14250.31781125775
 20
14647.52646466355
 30
0.0
  0
POINT
  5
1ACCE
330
1AC32
100
AcDbEntity
  8
DEFPOINTS
  6
ByBlock
 62
     0
 48
50.0
100
AcDbPoint
 10
14250.31781125775
 20
14847.52646466355
 30
0.0
  0
POINT
  5
1ACCF
330
1AC32
100
AcDbEntity
  8
DEFPOINTS
  6
ByBlock
 62
     0
 48
50.0
100
AcDbPoint
 10
14648.65294625163
 20
14847.52646466355
 30
0.0
  0
ENDBLK
  5
1ACD0
330
1AC32
100
AcDbEntity
  8
0
 48
50.0
100
AcDbBlockEnd
  0
BLOCK
  5
1ACD1
330
1AC3F
100
AcDbEntity
  8
0
 48
50.0
100
AcDbBlockBegin
  2
*D26
 70
     1
 10
0.0
 20
0.0
 30
0.0
  3
*D26
  1

  0
LINE
  5
1B20F
330
1AC3F
100
AcDbEntity
  8
寸法
 62
     0
 48
50.0
100
AcDbLine
 10
14822.82958141817
 20
5513.337018226841
 30
0.0
 11
14822.82958141817
 21
6313.281130716521
 31
0.0
  0
LINE
  5
1B210
330
1AC3F
100
AcDbEntity
  8
寸法
 62
     0
 48
50.0
100
AcDbLine
 10
12942.82958141817
 20
6238.281130716521
 30
0.0
 11
14822.82958141817
 21
6238.281130716521
 31
0.0
  0
INSERT
  5
1B211
330
1AC3F
100
AcDbEntity
  8
寸法
 62
     0
 48
50.0
100
AcDbBlockReference
  2
_DOTSMALL
 10
12942.82958141817
 20
6238.281130716521
 30
0.0
 41
125.0
 42
125.0
 43
125.0
 50
180.0
  0
INSERT
  5
1B212
330
1AC3F
100
AcDbEntity
  8
寸法
 62
     0
 48
50.0
100
AcDbBlockReference
  2
_DOTSMALL
 10
14822.82958141817
 20
6238.281130716521
 30
0.0
 41
125.0
 42
125.0
 43
125.0
  0
MTEXT
  5
1B213
330
1AC3F
100
AcDbEntity
  8
寸法
 62
     7
 48
50.0
100
AcDbMText
 10
13882.82958141817
 20
6338.281130716521
 30
0.0
 40
150.0
 41
0.0
 71
     5
 72
     1
  1
\A1;柱外寸法 1880
  7
STYLE1
 73
     1
 44
1.0
  0
POINT
  5
1B214
330
1AC3F
100
AcDbEntity
  8
DEFPOINTS
 62
     0
 48
50.0
100
AcDbPoint
 10
12942.82958141817
 20
5541.484603453081
 30
0.0
  0
POINT
  5
1B215
330
1AC3F
100
AcDbEntity
  8
DEFPOINTS
 62
     0
 48
50.0
100
AcDbPoint
 10
14822.82958141817
 20
5488.33701822684
 30
0.0
  0
POINT
  5
1B216
330
1AC3F
100
AcDbEntity
  8
DEFPOINTS
 62
     0
 48
50.0
100
AcDbPoint
 10
14822.82958141817
 20
6238.281130716521
 30
0.0
  0
ENDBLK
  5
1ACDA
330
1AC3F
100
AcDbEntity
  8
0
 48
50.0
100
AcDbBlockEnd
  0
BLOCK
  5
1ACDB
330
1AC4A
100
AcDbEntity
  8
0
 48
50.0
100
AcDbBlockBegin
  2
*D27
 70
     1
 10
0.0
 20
0.0
 30
0.0
  3
*D27
  1

  0
LINE
  5
1ACDC
330
1AC4A
100
AcDbEntity
  8
0
  6
ByBlock
 62
     0
 48
50.0
100
AcDbLine
 10
12176.81781125775
 20
17447.52646466355
 30
0.0
 11
12176.81781125775
 21
18458.5953192181
 31
0.0
  0
LINE
  5
1ACDD
330
1AC4A
100
AcDbEntity
  8
0
  6
ByBlock
 62
     0
 48
50.0
100
AcDbLine
 10
14286.81781125775
 20
17387.52646466355
 30
0.0
 11
14286.81781125775
 21
18458.5953192181
 31
0.0
  0
LINE
  5
1ACDE
330
1AC4A
100
AcDbEntity
  8
0
  6
ByBlock
 62
     0
 48
50.0
100
AcDbLine
 10
12176.81781125775
 20
18383.5953192181
 30
0.0
 11
14286.81781125775
 21
18383.5953192181
 31
0.0
  0
INSERT
  5
1ACDF
330
1AC4A
100
AcDbEntity
  8
0
  6
ByBlock
 62
     0
 48
50.0
100
AcDbBlockReference
  2
_DOTSMALL
 10
12176.81781125775
 20
18383.5953192181
 30
0.0
 41
125.0
 42
125.0
 43
125.0
 50
180.0
  0
INSERT
  5
1ACE0
330
1AC4A
100
AcDbEntity
  8
0
  6
ByBlock
 62
     0
 48
50.0
100
AcDbBlockReference
  2
_DOTSMALL
 10
14286.81781125775
 20
18383.5953192181
 30
0.0
 41
125.0
 42
125.0
 43
125.0
  0
MTEXT
  5
1ACE1
330
1AC4A
100
AcDbEntity
  8
0
  6
ByBlock
 62
     7
 48
50.0
100
AcDbMText
 10
13231.81781125775
 20
18483.61008299762
 30
0.0
 40
150.0
 41
0.0
 71
     5
 72
     1
  1
\A1;2110
  7
STYLE1
 73
     1
 44
1.0
  0
POINT
  5
1ACE2
330
1AC4A
100
AcDbEntity
  8
DEFPOINTS
  6
ByBlock
 62
     0
 48
50.0
100
AcDbPoint
 10
12176.81781125775
 20
17422.52646466355
 30
0.0
  0
POINT
  5
1ACE3
330
1AC4A
100
AcDbEntity
  8
DEFPOINTS
  6
ByBlock
 62
     0
 48
50.0
100
AcDbPoint
 10
14286.81781125775
 20
17362.52646466355
 30
0.0
  0
POINT
  5
1ACE4
330
1AC4A
100
AcDbEntity
  8
DEFPOINTS
  6
ByBlock
 62
     0
 48
50.0
100
AcDbPoint
 10
14286.81781125775
 20
18383.5953192181
 30
0.0
  0
ENDBLK
  5
1ACE5
330
1AC4A
100
AcDbEntity
  8
0
 48
50.0
100
AcDbBlockEnd
  0
BLOCK
  5
1AD99
330
1AC56
100
AcDbEntity
  8
0
 48
50.0
100
AcDbBlockBegin
  2
*D28
 70
     1
 10
0.0
 20
0.0
 30
0.0
  3
*D28
  1

  0
LINE
  5
1AD9A
330
1AC56
100
AcDbEntity
  8
0
  6
ByBlock
 62
     0
 48
50.0
100
AcDbLine
 10
13362.82958141817
 20
5545.0
 30
0.0
 11
12413.66366111978
 21
5545.0
 31
0.0
  0
LINE
  5
1AD9B
330
1AC56
100
AcDbEntity
  8
0
  6
ByBlock
 62
     0
 48
50.0
100
AcDbLine
 10
13429.82958141817
 20
3275.0
 30
0.0
 11
12413.66366111978
 21
3275.0
 31
0.0
  0
LINE
  5
1AD9C
330
1AC56
100
AcDbEntity
  8
0
  6
ByBlock
 62
     0
 48
50.0
100
AcDbLine
 10
12488.66366111978
 20
5545.0
 30
0.0
 11
12488.66366111978
 21
3275.0
 31
0.0
  0
INSERT
  5
1AD9D
330
1AC56
100
AcDbEntity
  8
0
  6
ByBlock
 62
     0
 48
50.0
100
AcDbBlockReference
  2
_DOTSMALL
 10
12488.66366111978
 20
5545.0
 30
0.0
 41
125.0
 42
125.0
 43
125.0
 50
90.0
  0
INSERT
  5
1AD9E
330
1AC56
100
AcDbEntity
  8
0
  6
ByBlock
 62
     0
 48
50.0
100
AcDbBlockReference
  2
_DOTSMALL
 10
12488.66366111978
 20
3275.0
 30
0.0
 41
125.0
 42
125.0
 43
125.0
 50
270.0
  0
MTEXT
  5
1AD9F
330
1AC56
100
AcDbEntity
  8
0
  6
ByBlock
 62
     7
 48
50.0
100
AcDbMText
 10
12388.64889734025
 20
4410.0
 30
0.0
 40
150.0
 41
0.0
 71
     5
 72
     1
  1
\A1;2270
  7
STYLE1
 11
0.0000000000000001
 21
1.0
 31
0.0
 73
     1
 44
1.0
  0
POINT
  5
1ADA0
330
1AC56
100
AcDbEntity
  8
DEFPOINTS
  6
ByBlock
 62
     0
 48
50.0
100
AcDbPoint
 10
13387.82958141817
 20
5545.0
 30
0.0
  0
POINT
  5
1ADA1
330
1AC56
100
AcDbEntity
  8
DEFPOINTS
  6
ByBlock
 62
     0
 48
50.0
100
AcDbPoint
 10
13454.82958141817
 20
3275.0
 30
0.0
  0
POINT
  5
1ADA2
330
1AC56
100
AcDbEntity
  8
DEFPOINTS
  6
ByBlock
 62
     0
 48
50.0
100
AcDbPoint
 10
12488.66366111978
 20
3275.0
 30
0.0
  0
ENDBLK
  5
1ADA3
330
1AC56
100
AcDbEntity
  8
0
 48
50.0
100
AcDbBlockEnd
  0
BLOCK
  5
1AD8F
330
1AC62
100
AcDbEntity
  8
0
 48
50.0
100
AcDbBlockBegin
  2
*D29
 70
     1
 10
0.0
 20
0.0
 30
0.0
  3
*D29
  1

  0
LINE
  5
1B217
330
1AC62
100
AcDbEntity
  8
寸法
 62
     0
 48
50.0
100
AcDbLine
 10
12917.82958141817
 20
5275.0
 30
0.0
 11
12141.70986552558
 21
5275.0
 31
0.0
  0
LINE
  5
1B218
330
1AC62
100
AcDbEntity
  8
寸法
 62
     0
 48
50.0
100
AcDbLine
 10
12216.70986552558
 20
3330.0
 30
0.0
 11
12216.70986552558
 21
5275.0
 31
0.0
  0
INSERT
  5
1B219
330
1AC62
100
AcDbEntity
  8
寸法
 62
     0
 48
50.0
100
AcDbBlockReference
  2
_DOTSMALL
 10
12216.70986552558
 20
3330.0
 30
0.0
 41
125.0
 42
125.0
 43
125.0
 50
270.0
  0
INSERT
  5
1B21A
330
1AC62
100
AcDbEntity
  8
寸法
 62
     0
 48
50.0
100
AcDbBlockReference
  2
_DOTSMALL
 10
12216.70986552558
 20
5275.0
 30
0.0
 41
125.0
 42
125.0
 43
125.0
 50
90.0
  0
MTEXT
  5
1B21B
330
1AC62
100
AcDbEntity
  8
寸法
 62
     7
 48
50.0
100
AcDbMText
 10
12116.70986552558
 20
4302.500000000001
 30
0.0
 40
150.0
 41
0.0
 71
     5
 72
     1
  1
\A1;1945
  7
STYLE1
 11
0.0000000000000001
 21
1.0
 31
0.0
 73
     1
 44
1.0
  0
POINT
  5
1B21C
330
1AC62
100
AcDbEntity
  8
DEFPOINTS
 62
     0
 48
50.0
100
AcDbPoint
 10
12874.82958141817
 20
3330.0
 30
0.0
  0
POINT
  5
1B21D
330
1AC62
100
AcDbEntity
  8
DEFPOINTS
 62
     0
 48
50.0
100
AcDbPoint
 10
12942.82958141817
 20
5275.0
 30
0.0
  0
POINT
  5
1B21E
330
1AC62
100
AcDbEntity
  8
DEFPOINTS
 62
     0
 48
50.0
100
AcDbPoint
 10
12216.70986552558
 20
5275.0
 30
0.0
  0
ENDBLK
  5
1AD98
330
1AC62
100
AcDbEntity
  8
0
 48
50.0
100
AcDbBlockEnd
  0
BLOCK
  5
1ACFB
330
1AC6D
100
AcDbEntity
  8
0
 48
50.0
100
AcDbBlockBegin
  2
*D30
 70
     1
 10
0.0
 20
0.0
 30
0.0
  3
*D30
  1

  0
LINE
  5
1ACFC
330
1AC6D
100
AcDbEntity
  8
0
  6
ByBlock
 62
     0
 48
50.0
100
AcDbLine
 10
12218.81781125775
 20
15060.02646466355
 30
0.0
 11
11822.9295310031
 21
15060.02646466355
 31
0.0
  0
LINE
  5
1ACFD
330
1AC6D
100
AcDbEntity
  8
0
  6
ByBlock
 62
     0
 48
50.0
100
AcDbLine
 10
12218.81781125775
 20
16858.02646466355
 30
0.0
 11
11822.9295310031
 21
16858.02646466355
 31
0.0
  0
LINE
  5
1ACFE
330
1AC6D
100
AcDbEntity
  8
0
  6
ByBlock
 62
     0
 48
50.0
100
AcDbLine
 10
11897.9295310031
 20
15060.02646466355
 30
0.0
 11
11897.9295310031
 21
16858.02646466355
 31
0.0
  0
INSERT
  5
1ACFF
330
1AC6D
100
AcDbEntity
  8
0
  6
ByBlock
 62
     0
 48
50.0
100
AcDbBlockReference
  2
_DOTSMALL
 10
11897.9295310031
 20
15060.02646466355
 30
0.0
 41
125.0
 42
125.0
 43
125.0
 50
270.0
  0
INSERT
  5
1AD00
330
1AC6D
100
AcDbEntity
  8
0
  6
ByBlock
 62
     0
 48
50.0
100
AcDbBlockReference
  2
_DOTSMALL
 10
11897.9295310031
 20
16858.02646466355
 30
0.0
 41
125.0
 42
125.0
 43
125.0
 50
90.0
  0
MTEXT
  5
1AD01
330
1AC6D
100
AcDbEntity
  8
0
  6
ByBlock
 62
     7
 48
50.0
100
AcDbMText
 10
11797.9295310031
 20
15959.02646466355
 30
0.0
 40
150.0
 41
0.0
 71
     5
 72
     1
  1
\A1;有効開口部高サ 1798
  7
STYLE1
 11
0.0000000000000001
 21
1.0
 31
0.0
 73
     1
 44
1.0
  0
POINT
  5
1AD02
330
1AC6D
100
AcDbEntity
  8
DEFPOINTS
  6
ByBlock
 62
     0
 48
50.0
100
AcDbPoint
 10
12243.81781125775
 20
15060.02646466355
 30
0.0
  0
POINT
  5
1AD03
330
1AC6D
100
AcDbEntity
  8
DEFPOINTS
  6
ByBlock
 62
     0
 48
50.0
100
AcDbPoint
 10
12243.81781125775
 20
16858.02646466355
 30
0.0
  0
POINT
  5
1AD04
330
1AC6D
100
AcDbEntity
  8
DEFPOINTS
  6
ByBlock
 62
     0
 48
50.0
100
AcDbPoint
 10
11897.9295310031
 20
16858.02646466355
 30
0.0
  0
ENDBLK
  5
1AD05
330
1AC6D
100
AcDbEntity
  8
0
 48
50.0
100
AcDbBlockEnd
  0
BLOCK
  5
1AD06
330
1AC79
100
AcDbEntity
  8
0
 48
50.0
100
AcDbBlockBegin
  2
*D31
 70
     1
 10
0.0
 20
0.0
 30
0.0
  3
*D31
  1

  0
LINE
  5
1AD07
330
1AC79
100
AcDbEntity
  8
0
  6
ByBlock
 62
     0
 48
50.0
100
AcDbLine
 10
12218.81781125775
 20
14982.52646466355
 30
0.0
 11
11510.69809536516
 21
14982.52646466355
 31
0.0
  0
LINE
  5
1AD08
330
1AC79
100
AcDbEntity
  8
0
  6
ByBlock
 62
     0
 48
50.0
100
AcDbLine
 10
12218.81781125775
 20
15037.52646466355
 30
0.0
 11
11510.69809536516
 21
15037.52646466355
 31
0.0
  0
LINE
  5
1AD09
330
1AC79
100
AcDbEntity
  8
0
  6
ByBlock
 62
     0
 48
50.0
100
AcDbLine
 10
11585.69809536516
 20
15037.52646466355
 30
0.0
 11
11585.69809536516
 21
14982.52646466355
 31
0.0
  0
LINE
  5
1AD0A
330
1AC79
100
AcDbEntity
  8
0
  6
ByBlock
 62
     0
 48
50.0
100
AcDbLine
 10
11585.69809536516
 20
14982.52646466355
 30
0.0
 11
11585.69809536516
 21
14561.34035712322
 31
0.0
  0
INSERT
  5
1AD0B
330
1AC79
100
AcDbEntity
  8
0
  6
ByBlock
 62
     0
 48
50.0
100
AcDbBlockReference
  2
_DOTSMALL
 10
11585.69809536516
 20
15037.52646466355
 30
0.0
 41
125.0
 42
125.0
 43
125.0
 50
90.0
  0
INSERT
  5
1AD0C
330
1AC79
100
AcDbEntity
  8
0
  6
ByBlock
 62
     0
 48
50.0
100
AcDbBlockReference
  2
_DOTSMALL
 10
11585.69809536516
 20
14982.52646466355
 30
0.0
 41
125.0
 42
125.0
 43
125.0
 50
270.0
  0
MTEXT
  5
1AD0D
330
1AC79
100
AcDbEntity
  8
0
  6
ByBlock
 62
     7
 48
50.0
100
AcDbMText
 10
11485.69809536516
 20
14671.94695884102
 30
0.0
 40
150.0
 41
0.0
 71
     5
 72
     1
  1
\A1;55
  7
STYLE1
 11
0.0000000000000001
 21
1.0
 31
0.0
 73
     1
 44
1.0
  0
POINT
  5
1AD0E
330
1AC79
100
AcDbEntity
  8
DEFPOINTS
  6
ByBlock
 62
     0
 48
50.0
100
AcDbPoint
 10
12243.81781125775
 20
14982.52646466355
 30
0.0
  0
POINT
  5
1AD0F
330
1AC79
100
AcDbEntity
  8
DEFPOINTS
  6
ByBlock
 62
     0
 48
50.0
100
AcDbPoint
 10
12243.81781125775
 20
15037.52646466355
 30
0.0
  0
POINT
  5
1AD10
330
1AC79
100
AcDbEntity
  8
DEFPOINTS
  6
ByBlock
 62
     0
 48
50.0
100
AcDbPoint
 10
11585.69809536516
 20
15037.52646466355
 30
0.0
  0
ENDBLK
  5
1AD11
330
1AC79
100
AcDbEntity
  8
0
 48
50.0
100
AcDbBlockEnd
  0
BLOCK
  5
1AD12
330
1AC86
100
AcDbEntity
  8
0
 48
50.0
100
AcDbBlockBegin
  2
*D32
 70
     1
 10
0.0
 20
0.0
 30
0.0
  3
*D32
  1

  0
LINE
  5
1AD13
330
1AC86
100
AcDbEntity
  8
0
  6
ByBlock
 62
     0
 48
50.0
100
AcDbLine
 10
12176.81781125775
 20
17447.52646466355
 30
0.0
 11
12176.81781125775
 21
18190.80759538007
 31
0.0
  0
LINE
  5
1AD14
330
1AC86
100
AcDbEntity
  8
0
  6
ByBlock
 62
     0
 48
50.0
100
AcDbLine
 10
12311.81781125775
 20
17444.01106811663
 30
0.0
 11
12311.81781125775
 21
18190.80759538007
 31
0.0
  0
LINE
  5
1AD15
330
1AC86
100
AcDbEntity
  8
0
  6
ByBlock
 62
     0
 48
50.0
100
AcDbLine
 10
12311.81781125775
 20
18115.80759538007
 30
0.0
 11
12176.81781125775
 21
18115.80759538007
 31
0.0
  0
LINE
  5
1AD16
330
1AC86
100
AcDbEntity
  8
0
  6
ByBlock
 62
     0
 48
50.0
100
AcDbLine
 10
12176.81781125775
 20
18115.80759538007
 30
0.0
 11
11755.60460782215
 21
18115.80759538007
 31
0.0
  0
INSERT
  5
1AD17
330
1AC86
100
AcDbEntity
  8
0
  6
ByBlock
 62
     0
 48
50.0
100
AcDbBlockReference
  2
_DOTSMALL
 10
12311.81781125775
 20
18115.80759538007
 30
0.0
 41
125.0
 42
125.0
 43
125.0
  0
INSERT
  5
1AD18
330
1AC86
100
AcDbEntity
  8
0
  6
ByBlock
 62
     0
 48
50.0
100
AcDbBlockReference
  2
_DOTSMALL
 10
12176.81781125775
 20
18115.80759538007
 30
0.0
 41
125.0
 42
125.0
 43
125.0
 50
180.0
  0
MTEXT
  5
1AD19
330
1AC86
100
AcDbEntity
  8
0
  6
ByBlock
 62
     7
 48
50.0
100
AcDbMText
 10
11903.71120953995
 20
18215.80759538007
 30
0.0
 40
150.0
 41
0.0
 71
     5
 72
     1
  1
\A1;135
  7
STYLE1
 73
     1
 44
1.0
  0
POINT
  5
1AD1A
330
1AC86
100
AcDbEntity
  8
DEFPOINTS
  6
ByBlock
 62
     0
 48
50.0
100
AcDbPoint
 10
12176.81781125775
 20
17422.52646466355
 30
0.0
  0
POINT
  5
1AD1B
330
1AC86
100
AcDbEntity
  8
DEFPOINTS
  6
ByBlock
 62
     0
 48
50.0
100
AcDbPoint
 10
12311.81781125775
 20
17419.01106811663
 30
0.0
  0
POINT
  5
1AD1C
330
1AC86
100
AcDbEntity
  8
DEFPOINTS
  6
ByBlock
 62
     0
 48
50.0
100
AcDbPoint
 10
12311.81781125775
 20
18115.80759538007
 30
0.0
  0
ENDBLK
  5
1AD1D
330
1AC86
100
AcDbEntity
  8
0
 48
50.0
100
AcDbBlockEnd
  0
BLOCK
  5
1ADD7
330
1AC93
100
AcDbEntity
  8
0
 48
50.0
100
AcDbBlockBegin
  2
*D33
 70
     1
 10
0.0
 20
0.0
 30
0.0
  3
*D33
  1

  0
LINE
  5
1ADD8
330
1AC93
100
AcDbEntity
  8
0
  6
ByBlock
 62
     0
 48
50.0
100
AcDbLine
 10
12917.83730179687
 20
5409.948063770424
 30
0.0
 11
12248.85075100427
 21
5426.577682344024
 31
0.0
  0
LINE
  5
1ADD9
330
1AC93
100
AcDbEntity
  8
0
  6
ByBlock
 62
     0
 48
50.0
100
AcDbLine
 10
12920.69508055747
 20
5524.912550028378
 30
0.0
 11
12251.70852976487
 21
5541.542168601978
 31
0.0
  0
LINE
  5
1ADDA
330
1AC93
100
AcDbEntity
  8
0
  6
ByBlock
 62
     0
 48
50.0
100
AcDbLine
 10
12323.82758986816
 20
5424.713913587113
 30
0.0
 11
12326.68536862875
 21
5539.678399845069
 31
0.0
  0
LINE
  5
1ADDB
330
1AC93
100
AcDbEntity
  8
0
  6
ByBlock
 62
     0
 48
50.0
100
AcDbLine
 10
12326.68536862875
 20
5539.678399845069
 30
0.0
 11
12336.40711457347
 21
5930.770790717268
 31
0.0
  0
INSERT
  5
1ADDC
330
1AC93
100
AcDbEntity
  8
0
  6
ByBlock
 62
     0
 48
50.0
100
AcDbBlockReference
  2
_DOTSMALL
 10
12323.82758986816
 20
5424.713913587113
 30
0.0
 41
125.0
 42
125.0
 43
125.0
 50
268.5760389666118
  0
INSERT
  5
1ADDD
330
1AC93
100
AcDbEntity
  8
0
  6
ByBlock
 62
     0
 48
50.0
100
AcDbBlockReference
  2
_DOTSMALL
 10
12326.68536862875
 20
5539.678399845069
 30
0.0
 41
125.0
 42
125.0
 43
125.0
 50
88.5760389666118
  0
MTEXT
  5
1ADDE
330
1AC93
100
AcDbEntity
  8
0
  6
ByBlock
 62
     7
 48
50.0
100
AcDbMText
 10
12233.1302637467
 20
5800.190319343623
 30
0.0
 40
150.0
 41
0.0
 71
     5
 72
     1
  1
\A1;115
  7
STYLE1
 11
0.024850250092143
 21
0.9996911848517811
 31
0.0
 73
     1
 44
1.0
  0
POINT
  5
1ADDF
330
1AC93
100
AcDbEntity
  8
DEFPOINTS
  6
ByBlock
 62
     0
 48
50.0
100
AcDbPoint
 10
12942.82958141816
 20
5409.32680751812
 30
0.0
  0
POINT
  5
1ADE0
330
1AC93
100
AcDbEntity
  8
DEFPOINTS
  6
ByBlock
 62
     0
 48
50.0
100
AcDbPoint
 10
12945.68736017876
 20
5524.291293776074
 30
0.0
  0
POINT
  5
1ADE1
330
1AC93
100
AcDbEntity
  8
DEFPOINTS
  6
ByBlock
 62
     0
 48
50.0
100
AcDbPoint
 10
12326.68536862875
 20
5539.678399845069
 30
0.0
  0
ENDBLK
  5
1ADE2
330
1AC93
100
AcDbEntity
  8
0
 48
50.0
100
AcDbBlockEnd
  0
BLOCK
  5
1ADA4
330
1ACA0
100
AcDbEntity
  8
0
 48
50.0
100
AcDbBlockBegin
  2
*D34
 70
     1
 10
0.0
 20
0.0
 30
0.0
  3
*D34
  1

  0
LINE
  5
1ADA5
330
1ACA0
100
AcDbEntity
  8
0
  6
ByBlock
 62
     0
 48
50.0
100
AcDbLine
 10
15427.82958141817
 20
3275.0
 30
0.0
 11
16137.32033483959
 21
3275.0
 31
0.0
  0
LINE
  5
1ADA6
330
1ACA0
100
AcDbEntity
  8
0
  6
ByBlock
 62
     0
 48
50.0
100
AcDbLine
 10
15522.82958141817
 20
5485.0
 30
0.0
 11
16137.32033483959
 21
5485.0
 31
0.0
  0
LINE
  5
1ADA7
330
1ACA0
100
AcDbEntity
  8
0
  6
ByBlock
 62
     0
 48
50.0
100
AcDbLine
 10
16062.32033483959
 20
3275.0
 30
0.0
 11
16062.32033483959
 21
5485.0
 31
0.0
  0
INSERT
  5
1ADA8
330
1ACA0
100
AcDbEntity
  8
0
  6
ByBlock
 62
     0
 48
50.0
100
AcDbBlockReference
  2
_DOTSMALL
 10
16062.32033483959
 20
3275.0
 30
0.0
 41
125.0
 42
125.0
 43
125.0
 50
270.0
  0
INSERT
  5
1ADA9
330
1ACA0
100
AcDbEntity
  8
0
  6
ByBlock
 62
     0
 48
50.0
100
AcDbBlockReference
  2
_DOTSMALL
 10
16062.32033483959
 20
5485.0
 30
0.0
 41
125.0
 42
125.0
 43
125.0
 50
90.0
  0
MTEXT
  5
1ADAA
330
1ACA0
100
AcDbEntity
  8
0
  6
ByBlock
 62
     7
 48
50.0
100
AcDbMText
 10
15962.30557106006
 20
4380.0
 30
0.0
 40
150.0
 41
0.0
 71
     5
 72
     1
  1
\A1;2210
  7
STYLE1
 11
0.0000000000000001
 21
1.0
 31
0.0
 73
     1
 44
1.0
  0
POINT
  5
1ADAB
330
1ACA0
100
AcDbEntity
  8
DEFPOINTS
  6
ByBlock
 62
     0
 48
50.0
100
AcDbPoint
 10
15402.82958141817
 20
3275.0
 30
0.0
  0
POINT
  5
1ADAC
330
1ACA0
100
AcDbEntity
  8
DEFPOINTS
  6
ByBlock
 62
     0
 48
50.0
100
AcDbPoint
 10
15497.82958141817
 20
5485.0
 30
0.0
  0
POINT
  5
1ADAD
330
1ACA0
100
AcDbEntity
  8
DEFPOINTS
  6
ByBlock
 62
     0
 48
50.0
100
AcDbPoint
 10
16062.32033483959
 20
5485.0
 30
0.0
  0
ENDBLK
  5
1ADAE
330
1ACA0
100
AcDbEntity
  8
0
 48
50.0
100
AcDbBlockEnd
  0
BLOCK
  5
1AD35
330
1ACAC
100
AcDbEntity
  8
0
 48
50.0
100
AcDbBlockBegin
  2
*D35
 70
     1
 10
0.0
 20
0.0
 30
0.0
  3
*D35
  1

  0
LINE
  5
1AD36
330
1ACAC
100
AcDbEntity
  8
0
  6
ByBlock
 62
     0
 48
50.0
100
AcDbLine
 10
14191.81781125775
 20
17390.86348289039
 30
0.0
 11
14191.81781125775
 21
18190.80759538007
 31
0.0
  0
LINE
  5
1AD37
330
1ACAC
100
AcDbEntity
  8
0
  6
ByBlock
 62
     0
 48
50.0
100
AcDbLine
 10
14286.81781125775
 20
17387.52646466355
 30
0.0
 11
14286.81781125775
 21
18190.80759538007
 31
0.0
  0
LINE
  5
1AD38
330
1ACAC
100
AcDbEntity
  8
0
  6
ByBlock
 62
     0
 48
50.0
100
AcDbLine
 10
14191.81781125775
 20
18115.80759538007
 30
0.0
 11
14286.81781125775
 21
18115.80759538007
 31
0.0
  0
LINE
  5
1AD39
330
1ACAC
100
AcDbEntity
  8
0
  6
ByBlock
 62
     0
 48
50.0
100
AcDbLine
 10
14286.81781125775
 20
18115.80759538007
 30
0.0
 11
14733.09006981146
 21
18115.80759538007
 31
0.0
  0
INSERT
  5
1AD3A
330
1ACAC
100
AcDbEntity
  8
0
  6
ByBlock
 62
     0
 48
50.0
100
AcDbBlockReference
  2
_DOTSMALL
 10
14191.81781125775
 20
18115.80759538007
 30
0.0
 41
125.0
 42
125.0
 43
125.0
 50
180.0
  0
INSERT
  5
1AD3B
330
1ACAC
100
AcDbEntity
  8
0
  6
ByBlock
 62
     0
 48
50.0
100
AcDbBlockReference
  2
_DOTSMALL
 10
14286.81781125775
 20
18115.80759538007
 30
0.0
 41
125.0
 42
125.0
 43
125.0
  0
MTEXT
  5
1AD3C
330
1ACAC
100
AcDbEntity
  8
0
  6
ByBlock
 62
     7
 48
50.0
100
AcDbMText
 10
14619.37686637586
 20
18215.80759538007
 30
0.0
 40
150.0
 41
0.0
 71
     5
 72
     1
  1
\A1;95
  7
STYLE1
 73
     1
 44
1.0
  0
POINT
  5
1AD3D
330
1ACAC
100
AcDbEntity
  8
DEFPOINTS
  6
ByBlock
 62
     0
 48
50.0
100
AcDbPoint
 10
14191.81781125775
 20
17365.86348289039
 30
0.0
  0
POINT
  5
1AD3E
330
1ACAC
100
AcDbEntity
  8
DEFPOINTS
  6
ByBlock
 62
     0
 48
50.0
100
AcDbPoint
 10
14286.81781125775
 20
17362.52646466355
 30
0.0
  0
POINT
  5
1AD3F
330
1ACAC
100
AcDbEntity
  8
DEFPOINTS
  6
ByBlock
 62
     0
 48
50.0
100
AcDbPoint
 10
14286.81781125775
 20
18115.80759538007
 30
0.0
  0
ENDBLK
  5
1AD40
330
1ACAC
100
AcDbEntity
  8
0
 48
50.0
100
AcDbBlockEnd
  0
BLOCK
  5
1B13B
330
1B0C0
100
AcDbEntity
  8
0
 48
50.0
100
AcDbBlockBegin
  2
*D36
 70
     1
 10
0.0
 20
0.0
 30
0.0
  3
*D36
  1

  0
LINE
  5
1B221
330
1B0C0
100
AcDbEntity
  8
寸法
 62
     0
 48
50.0
100
AcDbLine
 10
14687.82958141817
 20
11601.3631811976
 30
0.0
 11
14687.82958141817
 21
12402.01792807849
 31
0.0
  0
LINE
  5
1B222
330
1B0C0
100
AcDbEntity
  8
寸法
 62
     0
 48
50.0
100
AcDbLine
 10
12807.82958141817
 20
12327.01792807848
 30
0.0
 11
14687.82958141817
 21
12327.01792807848
 31
0.0
  0
INSERT
  5
1B223
330
1B0C0
100
AcDbEntity
  8
寸法
 62
     0
 48
50.0
100
AcDbBlockReference
  2
_DOTSMALL
 10
12807.82958141817
 20
12327.01792807848
 30
0.0
 41
125.0
 42
125.0
 43
125.0
 50
180.0
  0
INSERT
  5
1B224
330
1B0C0
100
AcDbEntity
  8
寸法
 62
     0
 48
50.0
100
AcDbBlockReference
  2
_DOTSMALL
 10
14687.82958141817
 20
12327.01792807848
 30
0.0
 41
125.0
 42
125.0
 43
125.0
  0
MTEXT
  5
1B225
330
1B0C0
100
AcDbEntity
  8
寸法
 62
     7
 48
50.0
100
AcDbMText
 10
13747.82958141817
 20
12427.01792807848
 30
0.0
 40
150.0
 41
0.0
 71
     5
 72
     1
  1
\A1;柱外寸法 1880
  7
STYLE1
 73
     1
 44
1.0
  0
POINT
  5
1B226
330
1B0C0
100
AcDbEntity
  8
DEFPOINTS
 62
     0
 48
50.0
100
AcDbPoint
 10
12807.82958141817
 20
11588.73679736197
 30
0.0
  0
POINT
  5
1B227
330
1B0C0
100
AcDbEntity
  8
DEFPOINTS
 62
     0
 48
50.0
100
AcDbPoint
 10
14687.82958141817
 20
11576.3631811976
 30
0.0
  0
POINT
  5
1B228
330
1B0C0
100
AcDbEntity
  8
DEFPOINTS
 62
     0
 48
50.0
100
AcDbPoint
 10
14687.82958141817
 20
12327.01792807848
 30
0.0
  0
ENDBLK
  5
1B144
330
1B0C0
100
AcDbEntity
  8
0
 48
50.0
100
AcDbBlockEnd
  0
BLOCK
  5
1B145
330
1B0CB
100
AcDbEntity
  8
0
 48
50.0
100
AcDbBlockBegin
  2
*D37
 70
     1
 10
0.0
 20
0.0
 30
0.0
  3
*D37
  1

  0
LINE
  5
1B146
330
1B0CB
100
AcDbEntity
  8
0
  6
ByBlock
 62
     0
 48
50.0
100
AcDbLine
 10
12672.82958141817
 20
11658.73679736197
 30
0.0
 11
12672.82958141817
 21
12718.17369887014
 31
0.0
  0
LINE
  5
1B147
330
1B0CB
100
AcDbEntity
  8
0
  6
ByBlock
 62
     0
 48
50.0
100
AcDbLine
 10
14782.82958141817
 20
11598.73679736197
 30
0.0
 11
14782.82958141817
 21
12718.17369887014
 31
0.0
  0
LINE
  5
1B148
330
1B0CB
100
AcDbEntity
  8
0
  6
ByBlock
 62
     0
 48
50.0
100
AcDbLine
 10
12672.82958141817
 20
12643.17369887014
 30
0.0
 11
14782.82958141817
 21
12643.17369887014
 31
0.0
  0
INSERT
  5
1B149
330
1B0CB
100
AcDbEntity
  8
0
  6
ByBlock
 62
     0
 48
50.0
100
AcDbBlockReference
  2
_DOTSMALL
 10
12672.82958141817
 20
12643.17369887014
 30
0.0
 41
125.0
 42
125.0
 43
125.0
 50
180.0
  0
INSERT
  5
1B14A
330
1B0CB
100
AcDbEntity
  8
0
  6
ByBlock
 62
     0
 48
50.0
100
AcDbBlockReference
  2
_DOTSMALL
 10
14782.82958141817
 20
12643.17369887014
 30
0.0
 41
125.0
 42
125.0
 43
125.0
  0
MTEXT
  5
1B14B
330
1B0CB
100
AcDbEntity
  8
0
  6
ByBlock
 62
     7
 48
50.0
100
AcDbMText
 10
13727.82958141817
 20
12743.18846264967
 30
0.0
 40
150.0
 41
0.0
 71
     5
 72
     1
  1
\A1;2110
  7
STYLE1
 73
     1
 44
1.0
  0
POINT
  5
1B14C
330
1B0CB
100
AcDbEntity
  8
DEFPOINTS
  6
ByBlock
 62
     0
 48
50.0
100
AcDbPoint
 10
12672.82958141817
 20
11633.73679736197
 30
0.0
  0
POINT
  5
1B14D
330
1B0CB
100
AcDbEntity
  8
DEFPOINTS
  6
ByBlock
 62
     0
 48
50.0
100
AcDbPoint
 10
14782.82958141817
 20
11573.73679736197
 30
0.0
  0
POINT
  5
1B14E
330
1B0CB
100
AcDbEntity
  8
DEFPOINTS
  6
ByBlock
 62
     0
 48
50.0
100
AcDbPoint
 10
14782.82958141817
 20
12643.17369887014
 30
0.0
  0
ENDBLK
  5
1B14F
330
1B0CB
100
AcDbEntity
  8
0
 48
50.0
100
AcDbBlockEnd
  0
BLOCK
  5
1B150
330
1B0D7
100
AcDbEntity
  8
0
 48
50.0
100
AcDbBlockBegin
  2
*D38
 70
     1
 10
0.0
 20
0.0
 30
0.0
  3
*D38
  1

  0
LINE
  5
1B151
330
1B0D7
100
AcDbEntity
  8
0
  6
ByBlock
 62
     0
 48
50.0
100
AcDbLine
 10
12782.82958141817
 20
11363.73679736196
 30
0.0
 11
11842.63480123898
 21
11363.73679736196
 31
0.0
  0
LINE
  5
1B152
330
1B0D7
100
AcDbEntity
  8
0
  6
ByBlock
 62
     0
 48
50.0
100
AcDbLine
 10
12782.82958141817
 20
9418.736797361971
 30
0.0
 11
11842.63480123898
 21
9418.736797361971
 31
0.0
  0
LINE
  5
1B153
330
1B0D7
100
AcDbEntity
  8
0
  6
ByBlock
 62
     0
 48
50.0
100
AcDbLine
 10
11917.63480123898
 20
11363.73679736196
 30
0.0
 11
11917.63480123898
 21
9418.736797361971
 31
0.0
  0
INSERT
  5
1B154
330
1B0D7
100
AcDbEntity
  8
0
  6
ByBlock
 62
     0
 48
50.0
100
AcDbBlockReference
  2
_DOTSMALL
 10
11917.63480123898
 20
11363.73679736196
 30
0.0
 41
125.0
 42
125.0
 43
125.0
 50
90.0
  0
INSERT
  5
1B155
330
1B0D7
100
AcDbEntity
  8
0
  6
ByBlock
 62
     0
 48
50.0
100
AcDbBlockReference
  2
_DOTSMALL
 10
11917.63480123898
 20
9418.736797361971
 30
0.0
 41
125.0
 42
125.0
 43
125.0
 50
270.0
  0
MTEXT
  5
1B156
330
1B0D7
100
AcDbEntity
  8
0
  6
ByBlock
 62
     7
 48
50.0
100
AcDbMText
 10
11817.63480123898
 20
10391.23679736196
 30
0.0
 40
150.0
 41
0.0
 71
     5
 72
     1
  1
\A1;1945
  7
STYLE1
 11
0.0000000000000001
 21
1.0
 31
0.0
 73
     1
 44
1.0
  0
POINT
  5
1B157
330
1B0D7
100
AcDbEntity
  8
DEFPOINTS
  6
ByBlock
 62
     0
 48
50.0
100
AcDbPoint
 10
12807.82958141817
 20
11363.73679736196
 30
0.0
  0
POINT
  5
1B158
330
1B0D7
100
AcDbEntity
  8
DEFPOINTS
  6
ByBlock
 62
     0
 48
50.0
100
AcDbPoint
 10
12807.82958141817
 20
9418.736797361971
 30
0.0
  0
POINT
  5
1B159
330
1B0D7
100
AcDbEntity
  8
DEFPOINTS
  6
ByBlock
 62
     0
 48
50.0
100
AcDbPoint
 10
11917.63480123898
 20
9418.736797361971
 30
0.0
  0
ENDBLK
  5
1B15A
330
1B0D7
100
AcDbEntity
  8
0
 48
50.0
100
AcDbBlockEnd
  0
BLOCK
  5
1B15B
330
1B0E3
100
AcDbEntity
  8
0
 48
50.0
100
AcDbBlockBegin
  2
*D39
 70
     1
 10
0.0
 20
0.0
 30
0.0
  3
*D39
  1

  0
LINE
  5
1B15C
330
1B0E3
100
AcDbEntity
  8
0
  6
ByBlock
 62
     0
 48
50.0
100
AcDbLine
 10
12647.82958141816
 20
11633.73679736197
 30
0.0
 11
11508.38013607452
 21
11633.73679736197
 31
0.0
  0
LINE
  5
1B15D
330
1B0E3
100
AcDbEntity
  8
0
  6
ByBlock
 62
     0
 48
50.0
100
AcDbLine
 10
12782.82958141817
 20
9363.736797361967
 30
0.0
 11
11508.38013607452
 21
9363.736797361967
 31
0.0
  0
LINE
  5
1B15E
330
1B0E3
100
AcDbEntity
  8
0
  6
ByBlock
 62
     0
 48
50.0
100
AcDbLine
 10
11583.38013607452
 20
11633.73679736197
 30
0.0
 11
11583.38013607452
 21
9363.736797361967
 31
0.0
  0
INSERT
  5
1B15F
330
1B0E3
100
AcDbEntity
  8
0
  6
ByBlock
 62
     0
 48
50.0
100
AcDbBlockReference
  2
_DOTSMALL
 10
11583.38013607452
 20
11633.73679736197
 30
0.0
 41
125.0
 42
125.0
 43
125.0
 50
90.0
  0
INSERT
  5
1B160
330
1B0E3
100
AcDbEntity
  8
0
  6
ByBlock
 62
     0
 48
50.0
100
AcDbBlockReference
  2
_DOTSMALL
 10
11583.38013607452
 20
9363.736797361967
 30
0.0
 41
125.0
 42
125.0
 43
125.0
 50
270.0
  0
MTEXT
  5
1B161
330
1B0E3
100
AcDbEntity
  8
0
  6
ByBlock
 62
     7
 48
50.0
100
AcDbMText
 10
11483.36537229499
 20
10498.73679736196
 30
0.0
 40
150.0
 41
0.0
 71
     5
 72
     1
  1
\A1;2270
  7
STYLE1
 11
0.0000000000000001
 21
1.0
 31
0.0
 73
     1
 44
1.0
  0
POINT
  5
1B162
330
1B0E3
100
AcDbEntity
  8
DEFPOINTS
  6
ByBlock
 62
     0
 48
50.0
100
AcDbPoint
 10
12672.82958141816
 20
11633.73679736197
 30
0.0
  0
POINT
  5
1B163
330
1B0E3
100
AcDbEntity
  8
DEFPOINTS
  6
ByBlock
 62
     0
 48
50.0
100
AcDbPoint
 10
12807.82958141817
 20
9363.736797361967
 30
0.0
  0
POINT
  5
1B164
330
1B0E3
100
AcDbEntity
  8
DEFPOINTS
  6
ByBlock
 62
     0
 48
50.0
100
AcDbPoint
 10
11583.38013607452
 20
9363.736797361967
 30
0.0
  0
ENDBLK
  5
1B165
330
1B0E3
100
AcDbEntity
  8
0
 48
50.0
100
AcDbBlockEnd
  0
BLOCK
  5
1B166
330
1B0EF
100
AcDbEntity
  8
0
 48
50.0
100
AcDbBlockBegin
  2
*D40
 70
     1
 10
0.0
 20
0.0
 30
0.0
  3
*D40
  1

  0
LINE
  5
1B167
330
1B0EF
100
AcDbEntity
  8
0
  6
ByBlock
 62
     0
 48
50.0
100
AcDbLine
 10
12782.82958141817
 20
9418.736797361971
 30
0.0
 11
11842.63480123898
 21
9418.736797361971
 31
0.0
  0
LINE
  5
1B168
330
1B0EF
100
AcDbEntity
  8
0
  6
ByBlock
 62
     0
 48
50.0
100
AcDbLine
 10
12782.82958141817
 20
9363.736797361971
 30
0.0
 11
11842.63480123898
 21
9363.736797361971
 31
0.0
  0
LINE
  5
1B169
330
1B0EF
100
AcDbEntity
  8
0
  6
ByBlock
 62
     0
 48
50.0
100
AcDbLine
 10
11917.63480123898
 20
9418.736797361971
 30
0.0
 11
11917.63480123898
 21
9363.736797361971
 31
0.0
  0
LINE
  5
1B16A
330
1B0EF
100
AcDbEntity
  8
0
  6
ByBlock
 62
     0
 48
50.0
100
AcDbLine
 10
11917.63480123898
 20
9363.736797361971
 30
0.0
 11
11917.63480123898
 21
8979.043856808635
 31
0.0
  0
INSERT
  5
1B16B
330
1B0EF
100
AcDbEntity
  8
0
  6
ByBlock
 62
     0
 48
50.0
100
AcDbBlockReference
  2
_DOTSMALL
 10
11917.63480123898
 20
9418.736797361971
 30
0.0
 41
125.0
 42
125.0
 43
125.0
 50
90.0
  0
INSERT
  5
1B16C
330
1B0EF
100
AcDbEntity
  8
0
  6
ByBlock
 62
     0
 48
50.0
100
AcDbBlockReference
  2
_DOTSMALL
 10
11917.63480123898
 20
9363.736797361971
 30
0.0
 41
125.0
 42
125.0
 43
125.0
 50
270.0
  0
MTEXT
  5
1B16D
330
1B0EF
100
AcDbEntity
  8
0
  6
ByBlock
 62
     7
 48
50.0
100
AcDbMText
 10
11817.63480123898
 20
9089.650458526433
 30
0.0
 40
150.0
 41
0.0
 71
     5
 72
     1
  1
\A1;55
  7
STYLE1
 11
0.0000000000000001
 21
1.0
 31
0.0
 73
     1
 44
1.0
  0
POINT
  5
1B16E
330
1B0EF
100
AcDbEntity
  8
DEFPOINTS
  6
ByBlock
 62
     0
 48
50.0
100
AcDbPoint
 10
12807.82958141817
 20
9418.736797361971
 30
0.0
  0
POINT
  5
1B16F
330
1B0EF
100
AcDbEntity
  8
DEFPOINTS
  6
ByBlock
 62
     0
 48
50.0
100
AcDbPoint
 10
12807.82958141817
 20
9363.736797361971
 30
0.0
  0
POINT
  5
1B170
330
1B0EF
100
AcDbEntity
  8
DEFPOINTS
  6
ByBlock
 62
     0
 48
50.0
100
AcDbPoint
 10
11917.63480123898
 20
9363.736797361971
 30
0.0
  0
ENDBLK
  5
1B171
330
1B0EF
100
AcDbEntity
  8
0
 48
50.0
100
AcDbBlockEnd
  0
BLOCK
  5
1B172
330
1B0FC
100
AcDbEntity
  8
0
 48
50.0
100
AcDbBlockBegin
  2
*D41
 70
     1
 10
0.0
 20
0.0
 30
0.0
  3
*D41
  1

  0
LINE
  5
1B173
330
1B0FC
100
AcDbEntity
  8
0
  6
ByBlock
 62
     0
 48
50.0
100
AcDbLine
 10
12668.84362656884
 20
11501.29474893229
 30
0.0
 11
11999.73506072483
 21
11511.9378908303
 31
0.0
  0
LINE
  5
1B174
330
1B0FC
100
AcDbEntity
  8
0
  6
ByBlock
 62
     0
 48
50.0
100
AcDbLine
 10
12670.67263694135
 20
11616.28020332134
 30
0.0
 11
12001.56407109735
 21
11626.92334521935
 31
0.0
  0
LINE
  5
1B175
330
1B0FC
100
AcDbEntity
  8
0
  6
ByBlock
 62
     0
 48
50.0
100
AcDbLine
 10
12074.72557445682
 20
11510.74505797865
 30
0.0
 11
12076.55458482934
 21
11625.73051236771
 31
0.0
  0
LINE
  5
1B176
330
1B0FC
100
AcDbEntity
  8
0
  6
ByBlock
 62
     0
 48
50.0
100
AcDbLine
 10
12076.55458482934
 20
11625.73051236771
 30
0.0
 11
12082.77661097673
 21
12016.89423375936
 31
0.0
  0
INSERT
  5
1B177
330
1B0FC
100
AcDbEntity
  8
0
  6
ByBlock
 62
     0
 48
50.0
100
AcDbBlockReference
  2
_DOTSMALL
 10
12074.72557445682
 20
11510.74505797865
 30
0.0
 41
125.0
 42
125.0
 43
125.0
 50
269.0887044041859
  0
INSERT
  5
1B178
330
1B0FC
100
AcDbEntity
  8
0
  6
ByBlock
 62
     0
 48
50.0
100
AcDbBlockReference
  2
_DOTSMALL
 10
12076.55458482934
 20
11625.73051236771
 30
0.0
 41
125.0
 42
125.0
 43
125.0
 50
89.08870440418592
  0
MTEXT
  5
1B179
330
1B0FC
100
AcDbEntity
  8
0
  6
ByBlock
 62
     7
 48
50.0
100
AcDbMText
 10
11980.67227363675
 20
11885.39491164239
 30
0.0
 40
150.0
 41
0.0
 71
     5
 72
     1
  1
\A1;115
  7
STYLE1
 11
0.0159044380219005
 21
0.9998735164265566
 31
0.0
 73
     1
 44
1.0
  0
POINT
  5
1B17A
330
1B0FC
100
AcDbEntity
  8
DEFPOINTS
  6
ByBlock
 62
     0
 48
50.0
100
AcDbPoint
 10
12693.8404644795
 20
11500.89713798174
 30
0.0
  0
POINT
  5
1B17B
330
1B0FC
100
AcDbEntity
  8
DEFPOINTS
  6
ByBlock
 62
     0
 48
50.0
100
AcDbPoint
 10
12695.66947485202
 20
11615.88259237079
 30
0.0
  0
POINT
  5
1B17C
330
1B0FC
100
AcDbEntity
  8
DEFPOINTS
  6
ByBlock
 62
     0
 48
50.0
100
AcDbPoint
 10
12076.55458482934
 20
11625.73051236771
 30
0.0
  0
ENDBLK
  5
1B17D
330
1B0FC
100
AcDbEntity
  8
0
 48
50.0
100
AcDbBlockEnd
  0
BLOCK
  5
1B17E
330
1B109
100
AcDbEntity
  8
0
 48
50.0
100
AcDbBlockBegin
  2
*D42
 70
     1
 10
0.0
 20
0.0
 30
0.0
  3
*D42
  1

  0
LINE
  5
1B17F
330
1B109
100
AcDbEntity
  8
0
  6
ByBlock
 62
     0
 48
50.0
100
AcDbLine
 10
12672.82958141817
 20
11658.73679736197
 30
0.0
 11
12672.82958141817
 21
12402.01792807849
 31
0.0
  0
LINE
  5
1B180
330
1B109
100
AcDbEntity
  8
0
  6
ByBlock
 62
     0
 48
50.0
100
AcDbLine
 10
12807.82958141817
 20
11656.29728927309
 30
0.0
 11
12807.82958141817
 21
12402.01792807849
 31
0.0
  0
LINE
  5
1B181
330
1B109
100
AcDbEntity
  8
0
  6
ByBlock
 62
     0
 48
50.0
100
AcDbLine
 10
12807.82958141817
 20
12327.01792807849
 30
0.0
 11
12672.82958141817
 21
12327.01792807849
 31
0.0
  0
LINE
  5
1B182
330
1B109
100
AcDbEntity
  8
0
  6
ByBlock
 62
     0
 48
50.0
100
AcDbLine
 10
12672.82958141817
 20
12327.01792807849
 30
0.0
 11
12242.16392458225
 21
12327.01792807849
 31
0.0
  0
INSERT
  5
1B183
330
1B109
100
AcDbEntity
  8
0
  6
ByBlock
 62
     0
 48
50.0
100
AcDbBlockReference
  2
_DOTSMALL
 10
12807.82958141817
 20
12327.01792807849
 30
0.0
 41
125.0
 42
125.0
 43
125.0
  0
INSERT
  5
1B184
330
1B109
100
AcDbEntity
  8
0
  6
ByBlock
 62
     0
 48
50.0
100
AcDbBlockReference
  2
_DOTSMALL
 10
12672.82958141817
 20
12327.01792807849
 30
0.0
 41
125.0
 42
125.0
 43
125.0
 50
180.0
  0
MTEXT
  5
1B185
330
1B109
100
AcDbEntity
  8
0
  6
ByBlock
 62
     7
 48
50.0
100
AcDbMText
 10
12390.27052630005
 20
12427.01792807849
 30
0.0
 40
150.0
 41
0.0
 71
     5
 72
     1
  1
\A1;135
  7
STYLE1
 73
     1
 44
1.0
  0
POINT
  5
1B186
330
1B109
100
AcDbEntity
  8
DEFPOINTS
  6
ByBlock
 62
     0
 48
50.0
100
AcDbPoint
 10
12672.82958141817
 20
11633.73679736197
 30
0.0
  0
POINT
  5
1B187
330
1B109
100
AcDbEntity
  8
DEFPOINTS
  6
ByBlock
 62
     0
 48
50.0
100
AcDbPoint
 10
12807.82958141817
 20
11631.29728927309
 30
0.0
  0
POINT
  5
1B188
330
1B109
100
AcDbEntity
  8
DEFPOINTS
  6
ByBlock
 62
     0
 48
50.0
100
AcDbPoint
 10
12807.82958141817
 20
12327.01792807849
 30
0.0
  0
ENDBLK
  5
1B189
330
1B109
100
AcDbEntity
  8
0
 48
50.0
100
AcDbBlockEnd
  0
BLOCK
  5
1B18A
330
1B116
100
AcDbEntity
  8
0
 48
50.0
100
AcDbBlockBegin
  2
*D43
 70
     1
 10
0.0
 20
0.0
 30
0.0
  3
*D43
  1

  0
LINE
  5
1B18B
330
1B116
100
AcDbEntity
  8
0
  6
ByBlock
 62
     0
 48
50.0
100
AcDbLine
 10
14712.82958141817
 20
9363.736797361971
 30
0.0
 11
16387.07164574816
 21
9363.736797361969
 31
0.0
  0
LINE
  5
1B18C
330
1B116
100
AcDbEntity
  8
0
  6
ByBlock
 62
     0
 48
50.0
100
AcDbLine
 10
14807.82958141817
 20
11573.73679736197
 30
0.0
 11
16387.07164574816
 21
11573.73679736197
 31
0.0
  0
LINE
  5
1B18D
330
1B116
100
AcDbEntity
  8
0
  6
ByBlock
 62
     0
 48
50.0
100
AcDbLine
 10
16312.07164574816
 20
9363.736797361969
 30
0.0
 11
16312.07164574816
 21
11573.73679736197
 31
0.0
  0
INSERT
  5
1B18E
330
1B116
100
AcDbEntity
  8
0
  6
ByBlock
 62
     0
 48
50.0
100
AcDbBlockReference
  2
_DOTSMALL
 10
16312.07164574816
 20
9363.736797361969
 30
0.0
 41
125.0
 42
125.0
 43
125.0
 50
270.0
  0
INSERT
  5
1B18F
330
1B116
100
AcDbEntity
  8
0
  6
ByBlock
 62
     0
 48
50.0
100
AcDbBlockReference
  2
_DOTSMALL
 10
16312.07164574816
 20
11573.73679736197
 30
0.0
 41
125.0
 42
125.0
 43
125.0
 50
90.0
  0
MTEXT
  5
1B190
330
1B116
100
AcDbEntity
  8
0
  6
ByBlock
 62
     7
 48
50.0
100
AcDbMText
 10
16212.05688196863
 20
10468.73679736197
 30
0.0
 40
150.0
 41
0.0
 71
     5
 72
     1
  1
\A1;2210
  7
STYLE1
 11
0.0000000000000001
 21
1.0
 31
0.0
 73
     1
 44
1.0
  0
POINT
  5
1B191
330
1B116
100
AcDbEntity
  8
DEFPOINTS
  6
ByBlock
 62
     0
 48
50.0
100
AcDbPoint
 10
14687.82958141817
 20
9363.736797361971
 30
0.0
  0
POINT
  5
1B192
330
1B116
100
AcDbEntity
  8
DEFPOINTS
  6
ByBlock
 62
     0
 48
50.0
100
AcDbPoint
 10
14782.82958141817
 20
11573.73679736197
 30
0.0
  0
POINT
  5
1B193
330
1B116
100
AcDbEntity
  8
DEFPOINTS
  6
ByBlock
 62
     0
 48
50.0
100
AcDbPoint
 10
16312.07164574816
 20
11573.73679736197
 30
0.0
  0
ENDBLK
  5
1B194
330
1B116
100
AcDbEntity
  8
0
 48
50.0
100
AcDbBlockEnd
  0
BLOCK
  5
1B195
330
1B122
100
AcDbEntity
  8
0
 48
50.0
100
AcDbBlockBegin
  2
*D44
 70
     1
 10
0.0
 20
0.0
 30
0.0
  3
*D44
  1

  0
LINE
  5
1B196
330
1B122
100
AcDbEntity
  8
0
  6
ByBlock
 62
     0
 48
50.0
100
AcDbLine
 10
14677.32958141817
 20
9430.736797361971
 30
0.0
 11
16074.10991665977
 21
9430.736797361969
 31
0.0
  0
LINE
  5
1B197
330
1B122
100
AcDbEntity
  8
0
  6
ByBlock
 62
     0
 48
50.0
100
AcDbLine
 10
14712.82958141817
 20
11390.73679736196
 30
0.0
 11
16074.10991665977
 21
11390.73679736196
 31
0.0
  0
LINE
  5
1B198
330
1B122
100
AcDbEntity
  8
0
  6
ByBlock
 62
     0
 48
50.0
100
AcDbLine
 10
15999.10991665977
 20
9430.736797361969
 30
0.0
 11
15999.10991665977
 21
11390.73679736196
 31
0.0
  0
INSERT
  5
1B199
330
1B122
100
AcDbEntity
  8
0
  6
ByBlock
 62
     0
 48
50.0
100
AcDbBlockReference
  2
_DOTSMALL
 10
15999.10991665977
 20
9430.736797361969
 30
0.0
 41
125.0
 42
125.0
 43
125.0
 50
270.0
  0
INSERT
  5
1B19A
330
1B122
100
AcDbEntity
  8
0
  6
ByBlock
 62
     0
 48
50.0
100
AcDbBlockReference
  2
_DOTSMALL
 10
15999.10991665977
 20
11390.73679736196
 30
0.0
 41
125.0
 42
125.0
 43
125.0
 50
90.0
  0
MTEXT
  5
1B19B
330
1B122
100
AcDbEntity
  8
0
  6
ByBlock
 62
     7
 48
50.0
100
AcDbMText
 10
15899.10991665977
 20
10410.73679736196
 30
0.0
 40
150.0
 41
0.0
 71
     5
 72
     1
  1
\A1;内高 1960
  7
STYLE1
 11
0.0000000000000001
 21
1.0
 31
0.0
 73
     1
 44
1.0
  0
POINT
  5
1B19C
330
1B122
100
AcDbEntity
  8
DEFPOINTS
  6
ByBlock
 62
     0
 48
50.0
100
AcDbPoint
 10
14652.32958141817
 20
9430.736797361971
 30
0.0
  0
POINT
  5
1B19D
330
1B122
100
AcDbEntity
  8
DEFPOINTS
  6
ByBlock
 62
     0
 48
50.0
100
AcDbPoint
 10
14687.82958141817
 20
11390.73679736196
 30
0.0
  0
POINT
  5
1B19E
330
1B122
100
AcDbEntity
  8
DEFPOINTS
  6
ByBlock
 62
     0
 48
50.0
100
AcDbPoint
 10
15999.10991665977
 20
11390.73679736196
 30
0.0
  0
ENDBLK
  5
1B19F
330
1B122
100
AcDbEntity
  8
0
 48
50.0
100
AcDbBlockEnd
  0
BLOCK
  5
1B1A0
330
1B12E
100
AcDbEntity
  8
0
 48
50.0
100
AcDbBlockBegin
  2
*D45
 70
     1
 10
0.0
 20
0.0
 30
0.0
  3
*D45
  1

  0
LINE
  5
1B1A1
330
1B12E
100
AcDbEntity
  8
0
  6
ByBlock
 62
     0
 48
50.0
100
AcDbLine
 10
14687.82958141817
 20
11601.3631811976
 30
0.0
 11
14687.82958141817
 21
12402.01792807849
 31
0.0
  0
LINE
  5
1B1A2
330
1B12E
100
AcDbEntity
  8
0
  6
ByBlock
 62
     0
 48
50.0
100
AcDbLine
 10
14782.82958141817
 20
11598.73679736197
 30
0.0
 11
14782.82958141817
 21
12402.01792807849
 31
0.0
  0
LINE
  5
1B1A3
330
1B12E
100
AcDbEntity
  8
0
  6
ByBlock
 62
     0
 48
50.0
100
AcDbLine
 10
14687.82958141817
 20
12327.01792807848
 30
0.0
 11
14782.82958141817
 21
12327.01792807848
 31
0.0
  0
LINE
  5
1B1A4
330
1B12E
100
AcDbEntity
  8
0
  6
ByBlock
 62
     0
 48
50.0
100
AcDbLine
 10
14782.82958141817
 20
12327.01792807848
 30
0.0
 11
15229.10183997187
 21
12327.01792807848
 31
0.0
  0
INSERT
  5
1B1A5
330
1B12E
100
AcDbEntity
  8
0
  6
ByBlock
 62
     0
 48
50.0
100
AcDbBlockReference
  2
_DOTSMALL
 10
14687.82958141817
 20
12327.01792807848
 30
0.0
 41
125.0
 42
125.0
 43
125.0
 50
180.0
  0
INSERT
  5
1B1A6
330
1B12E
100
AcDbEntity
  8
0
  6
ByBlock
 62
     0
 48
50.0
100
AcDbBlockReference
  2
_DOTSMALL
 10
14782.82958141817
 20
12327.01792807848
 30
0.0
 41
125.0
 42
125.0
 43
125.0
  0
MTEXT
  5
1B1A7
330
1B12E
100
AcDbEntity
  8
0
  6
ByBlock
 62
     7
 48
50.0
100
AcDbMText
 10
15115.38863653628
 20
12427.01792807848
 30
0.0
 40
150.0
 41
0.0
 71
     5
 72
     1
  1
\A1;95
  7
STYLE1
 73
     1
 44
1.0
  0
POINT
  5
1B1A8
330
1B12E
100
AcDbEntity
  8
DEFPOINTS
  6
ByBlock
 62
     0
 48
50.0
100
AcDbPoint
 10
14687.82958141817
 20
11576.3631811976
 30
0.0
  0
POINT
  5
1B1A9
330
1B12E
100
AcDbEntity
  8
DEFPOINTS
  6
ByBlock
 62
     0
 48
50.0
100
AcDbPoint
 10
14782.82958141817
 20
11573.73679736197
 30
0.0
  0
POINT
  5
1B1AA
330
1B12E
100
AcDbEntity
  8
DEFPOINTS
  6
ByBlock
 62
     0
 48
50.0
100
AcDbPoint
 10
14782.82958141817
 20
12327.01792807848
 30
0.0
  0
ENDBLK
  5
1B1AB
330
1B12E
100
AcDbEntity
  8
0
 48
50.0
100
AcDbBlockEnd
  0
ENDSEC
  0
SECTION
  2
ENTITIES
  0
LINE
  5
10B56
330
747D
100
AcDbEntity
  8
補助
  6
PHANTOM
 62
   230
 48
50.0
100
AcDbLine
 10
175.0
 20
0.0
 30
0.0
 11
174.9999999999993
 21
14262.0
 31
0.0
  0
LINE
  5
10B57
330
747D
100
AcDbEntity
  8
補助
  6
PHANTOM
 62
   230
 48
50.0
100
AcDbLine
 10
174.9999999999993
 20
14262.0
 30
0.0
 11
20384.0
 21
14262.0
 31
0.0
  0
LINE
  5
10B59
330
747D
100
AcDbEntity
  8
仕様書枠
  6
Continuous
 48
50.0
100
AcDbLine
 10
16384.0
 20
1500.0
 30
0.0
 11
16384.0
 21
0.0
 31
0.0
  0
LINE
  5
10B5C
330
747D
100
AcDbEntity
  8
仕様書枠
 48
50.0
100
AcDbLine
 10
20384.0
 20
1500.0
 30
0.0
 11
20384.0
 21
0.0
 31
0.0
  0
LINE
  5
10B5D
330
747D
100
AcDbEntity
  8
仕様書枠
 48
50.0
100
AcDbLine
 10
175.0
 20
0.0
 30
0.0
 11
20384.0
 21
-0.0000000000001137
 31
0.0
  0
LINE
  5
10B5E
330
747D
100
AcDbEntity
  8
補助
  6
PHANTOM
 62
   230
 48
50.0
100
AcDbLine
 10
20384.0
 20
14262.0
 30
0.0
 11
20384.0
 21
1500.0
 31
0.0
  0
LINE
  5
10B6C
330
747D
100
AcDbEntity
  8
仕様書枠
 48
50.0
100
AcDbLine
 10
16384.0
 20
1500.0
 30
0.0
 11
20384.0
 21
1500.0
 31
0.0
  0
LINE
  5
10B6D
330
747D
100
AcDbEntity
  8
補助
  6
PHANTOM
 62
   230
 48
50.0
100
AcDbLine
 10
16384.0
 20
14262.0
 30
0.0
 11
16384.0
 21
6000.0
 31
0.0
  0
LINE
  5
10B6F
330
747D
100
AcDbEntity
  8
補助
  6
PHANTOM
 62
   230
 48
50.0
100
AcDbLine
 10
16384.0
 20
6000.0
 30
0.0
 11
20384.0
 21
6000.0
 31
0.0
  0
LINE
  5
10B72
330
747D
100
AcDbEntity
  8
文字
 62
     7
 48
50.0
100
AcDbLine
 10
16484.0
 20
500.0
 30
0.0
 11
20284.0
 21
500.0
 31
0.0
  0
TEXT
  5
10B73
330
747D
100
AcDbEntity
  8
文字
 62
     7
 48
50.0
100
AcDbText
 10
16453.72382072112
 20
1118.863259287425
 30
0.0
 40
250.0
  1
外 形 図
  7
STYLE2
100
AcDbText
  0
TEXT
  5
10B74
330
747D
100
AcDbEntity
  8
文字
 62
     7
 48
50.0
100
AcDbText
 10
16501.79587498051
 20
596.5925826289068
 30
0.0
 40
200.0
  1
機種名
  7
STYLE2
100
AcDbText
  0
LINE
  5
10B7B
330
747D
100
AcDbEntity
  8
仕様書枠
 48
50.0
100
AcDbLine
 10
16384.0
 20
1000.0
 30
0.0
 11
17814.0
 21
1000.0
 31
0.0
  0
LINE
  5
10B88
330
747D
100
AcDbEntity
  8
仕様書枠
  6
Continuous
 48
50.0
100
AcDbLine
 10
17814.0
 20
1500.0
 30
0.0
 11
17814.0
 21
1000.0
 31
0.0
  0
LINE
  5
15D7D
330
747D
100
AcDbEntity
  8
Ｇ．Ｌ
 48
50.0
100
AcDbLine
 10
4524.693732604355
 20
3140.0
 30
0.0
 11
16104.30626739564
 21
3140.0
 31
0.0
  0
LINE
  5
15D7E
330
747D
100
AcDbEntity
  8
部品1
 48
50.0
100
AcDbLine
 10
5712.829581418173
 20
5410.000001569567
 30
0.0
 11
5712.829581418173
 21
3140.0
 31
0.0
  0
LINE
  5
15D7F
330
747D
100
AcDbEntity
  8
部品1
 48
50.0
100
AcDbLine
 10
5712.829581418173
 20
3275.0
 30
0.0
 11
8752.829581418174
 21
3275.0
 31
0.0
  0
LINE
  5
15D80
330
747D
100
AcDbEntity
  8
部品1
 48
50.0
100
AcDbLine
 10
7528.829581418174
 20
3330.0
 30
0.0
 11
8682.829581418173
 21
3330.0
 31
0.0
  0
LINE
  5
15D81
330
747D
100
AcDbEntity
  8
部品1
 48
50.0
100
AcDbLine
 10
5782.829581418173
 20
5275.0
 30
0.0
 11
5782.829581418173
 21
5187.0
 31
0.0
  0
LINE
  5
15D90
330
747D
100
AcDbEntity
  8
部品1
 48
50.0
100
AcDbLine
 10
8682.829581418173
 20
5275.0
 30
0.0
 11
8682.829581418173
 21
3275.0
 31
0.0
  0
LINE
  5
15D91
330
747D
100
AcDbEntity
  8
部品1
 48
50.0
100
AcDbLine
 10
8752.829581418172
 20
5410.000001569558
 30
0.0
 11
8752.829581418174
 21
3140.0
 31
0.0
  0
LINE
  5
15D95
330
747D
100
AcDbEntity
  8
部品1
 48
50.0
100
AcDbLine
 10
7522.829581418173
 20
5275.0
 30
0.0
 11
7522.829581418173
 21
5187.0
 31
0.0
  0
LINE
  5
15D96
330
747D
100
AcDbEntity
  8
部品1
 48
50.0
100
AcDbLine
 10
8102.829581418173
 20
5275.0
 30
0.0
 11
8102.829581418173
 21
3330.0
 31
0.0
  0
LINE
  5
15D98
330
747D
100
AcDbEntity
  8
部品1
 48
50.0
100
AcDbLine
 10
8752.829581418174
 20
5275.0
 30
0.0
 11
5712.829581418173
 21
5275.0
 31
0.0
  0
LINE
  5
16919
330
747D
100
AcDbEntity
  8
細線
 48
50.0
100
AcDbLine
 10
6773.829581418173
 20
5319.5
 30
0.0
 11
6531.829581418172
 21
5319.5
 31
0.0
  0
LINE
  5
1692C
330
747D
100
AcDbEntity
  8
細線
 48
50.0
100
AcDbLine
 10
6506.829581418172
 20
5395.500036981837
 30
0.0
 11
6506.829581418172
 21
5318.5
 31
0.0
  0
LINE
  5
1692D
330
747D
100
AcDbEntity
  8
細線
 48
50.0
100
AcDbLine
 10
6531.829581418172
 20
5405.500036981838
 30
0.0
 11
6531.829581418172
 21
5308.5
 31
0.0
  0
ARC
  5
16933
330
747D
100
AcDbEntity
  8
細線
 48
50.0
100
AcDbCircle
 10
6516.829581418173
 20
5395.500036981837
 30
0.0
 40
10.0
100
AcDbArc
 50
90.0
 51
180.0
  0
LINE
  5
1694C
330
747D
100
AcDbEntity
  8
細線
 48
50.0
100
AcDbLine
 10
6531.829581418172
 20
5308.5
 30
0.0
 11
6531.829581418172
 21
5309.0
 31
0.0
  0
ARC
  5
1694D
330
747D
100
AcDbEntity
  8
細線
 48
50.0
100
AcDbCircle
 10
6516.829581418173
 20
5318.5
 30
0.0
 40
10.0
100
AcDbArc
 50
180.0
 51
270.0
  0
LINE
  5
16968
330
747D
100
AcDbEntity
  8
細線
 48
50.0
100
AcDbLine
 10
6788.829581418173
 20
5308.5
 30
0.0
 11
6516.829581418173
 21
5308.5
 31
0.0
  0
LINE
  5
1699A
330
747D
100
AcDbEntity
  8
細線
 48
50.0
100
AcDbLine
 10
6798.829581418172
 20
5395.500036981837
 30
0.0
 11
6798.829581418172
 21
5318.5
 31
0.0
  0
LINE
  5
1699B
330
747D
100
AcDbEntity
  8
細線
 48
50.0
100
AcDbLine
 10
6773.829581418173
 20
5405.500036981838
 30
0.0
 11
6773.829581418173
 21
5308.5
 31
0.0
  0
ARC
  5
169B1
330
747D
100
AcDbEntity
  8
細線
 48
50.0
100
AcDbCircle
 10
6788.829581418173
 20
5395.500036981837
 30
0.0
 40
10.0
100
AcDbArc
 50
359.9999999999998
 51
90.0
  0
LINE
  5
169BB
330
747D
100
AcDbEntity
  8
細線
 48
50.0
100
AcDbLine
 10
6531.829581418172
 20
5375.5
 30
0.0
 11
6773.829581418173
 21
5375.5
 31
0.0
  0
LINE
  5
169C0
330
747D
100
AcDbEntity
  8
細線
 48
50.0
100
AcDbLine
 10
6531.829581418172
 20
5390.5
 30
0.0
 11
6773.829581418173
 21
5390.499999999998
 31
0.0
  0
LINE
  5
169C9
330
747D
100
AcDbEntity
  8
細線
 48
50.0
100
AcDbLine
 10
6531.829581418172
 20
5360.500036981837
 30
0.0
 11
6773.829581418173
 21
5360.500036981837
 31
0.0
  0
LINE
  5
169CA
330
747D
100
AcDbEntity
  8
細線
 48
50.0
100
AcDbLine
 10
6531.829581418172
 20
5345.5
 30
0.0
 11
6773.829581418173
 21
5345.5
 31
0.0
  0
LINE
  5
169CB
330
747D
100
AcDbEntity
  8
細線
 48
50.0
100
AcDbLine
 10
6531.829581418172
 20
5330.500036981837
 30
0.0
 11
6773.829581418173
 21
5330.500036981837
 31
0.0
  0
LINE
  5
16A07
330
747D
100
AcDbEntity
  8
細線
 48
50.0
100
AcDbLine
 10
6773.829581418173
 20
5308.5
 30
0.0
 11
6773.829581418173
 21
5309.0
 31
0.0
  0
ARC
  5
16A08
330
747D
100
AcDbEntity
  8
細線
 48
50.0
100
AcDbCircle
 10
6788.829581418173
 20
5318.5
 30
0.0
 40
10.0
100
AcDbArc
 50
270.0
 51
359.9999999999998
  0
LINE
  5
16BAA
330
747D
100
AcDbEntity
  8
細線
 48
50.0
100
AcDbLine
 10
6692.829581418172
 20
5319.5
 30
0.0
 11
6692.829581418172
 21
5390.5
 31
0.0
  0
LINE
  5
16BAB
330
747D
100
AcDbEntity
  8
細線
 48
50.0
100
AcDbLine
 10
6612.829581418172
 20
5319.5
 30
0.0
 11
6612.829581418172
 21
5390.5
 31
0.0
  0
LINE
  5
16BAC
330
747D
100
AcDbEntity
  8
細線
 48
50.0
100
AcDbLine
 10
7691.829581418173
 20
5330.500036981837
 30
0.0
 11
7933.829581418173
 21
5330.500036981837
 31
0.0
  0
LINE
  5
16BAD
330
747D
100
AcDbEntity
  8
細線
 48
50.0
100
AcDbLine
 10
7691.829581418173
 20
5345.5
 30
0.0
 11
7933.829581418173
 21
5345.5
 31
0.0
  0
LINE
  5
16BAE
330
747D
100
AcDbEntity
  8
細線
 48
50.0
100
AcDbLine
 10
7691.829581418173
 20
5360.500036981837
 30
0.0
 11
7933.829581418173
 21
5360.500036981837
 31
0.0
  0
LINE
  5
16BAF
330
747D
100
AcDbEntity
  8
細線
 48
50.0
100
AcDbLine
 10
7691.829581418173
 20
5390.5
 30
0.0
 11
7933.829581418173
 21
5390.499999999998
 31
0.0
  0
LINE
  5
16BB0
330
747D
100
AcDbEntity
  8
細線
 48
50.0
100
AcDbLine
 10
7691.829581418173
 20
5375.5
 30
0.0
 11
7933.829581418173
 21
5375.5
 31
0.0
  0
LINE
  5
16BB1
330
747D
100
AcDbEntity
  8
細線
 48
50.0
100
AcDbLine
 10
7948.829581418173
 20
5308.5
 30
0.0
 11
7676.829581418172
 21
5308.5
 31
0.0
  0
LINE
  5
16BB2
330
747D
100
AcDbEntity
  8
細線
 48
50.0
100
AcDbLine
 10
7933.829581418173
 20
5319.5
 30
0.0
 11
7691.829581418173
 21
5319.5
 31
0.0
  0
ARC
  5
16BB3
330
747D
100
AcDbEntity
  8
細線
 48
50.0
100
AcDbCircle
 10
7676.829581418172
 20
5318.5
 30
0.0
 40
10.0
100
AcDbArc
 50
180.0
 51
270.0
  0
LINE
  5
16BB4
330
747D
100
AcDbEntity
  8
細線
 48
50.0
100
AcDbLine
 10
7691.829581418173
 20
5405.500036981838
 30
0.0
 11
7691.829581418173
 21
5308.5
 31
0.0
  0
LINE
  5
16BB5
330
747D
100
AcDbEntity
  8
細線
 48
50.0
100
AcDbLine
 10
7691.829581418173
 20
5308.5
 30
0.0
 11
7691.829581418173
 21
5309.0
 31
0.0
  0
ARC
  5
16BB6
330
747D
100
AcDbEntity
  8
細線
 48
50.0
100
AcDbCircle
 10
7676.829581418172
 20
5395.500036981837
 30
0.0
 40
10.0
100
AcDbArc
 50
90.0
 51
180.0
  0
LINE
  5
16BB7
330
747D
100
AcDbEntity
  8
細線
 48
50.0
100
AcDbLine
 10
7666.829581418173
 20
5395.500036981837
 30
0.0
 11
7666.829581418173
 21
5318.5
 31
0.0
  0
ARC
  5
16BB8
330
747D
100
AcDbEntity
  8
細線
 48
50.0
100
AcDbCircle
 10
7948.829581418173
 20
5318.5
 30
0.0
 40
10.0
100
AcDbArc
 50
270.0
 51
359.9999999999998
  0
LINE
  5
16BB9
330
747D
100
AcDbEntity
  8
細線
 48
50.0
100
AcDbLine
 10
7933.829581418173
 20
5405.500036981838
 30
0.0
 11
7933.829581418173
 21
5308.5
 31
0.0
  0
LINE
  5
16BBA
330
747D
100
AcDbEntity
  8
細線
 48
50.0
100
AcDbLine
 10
7933.829581418173
 20
5308.5
 30
0.0
 11
7933.829581418173
 21
5309.0
 31
0.0
  0
LINE
  5
16BBB
330
747D
100
AcDbEntity
  8
細線
 48
50.0
100
AcDbLine
 10
7772.829581418173
 20
5319.5
 30
0.0
 11
7772.829581418173
 21
5390.5
 31
0.0
  0
LINE
  5
16BBC
330
747D
100
AcDbEntity
  8
細線
 48
50.0
100
AcDbLine
 10
7852.829581418173
 20
5319.5
 30
0.0
 11
7852.829581418173
 21
5390.5
 31
0.0
  0
ARC
  5
16BBD
330
747D
100
AcDbEntity
  8
細線
 48
50.0
100
AcDbCircle
 10
7948.829581418173
 20
5395.500036981837
 30
0.0
 40
10.0
100
AcDbArc
 50
359.9999999999998
 51
90.0
  0
LINE
  5
16BBE
330
747D
100
AcDbEntity
  8
細線
 48
50.0
100
AcDbLine
 10
7958.829581418173
 20
5395.500036981837
 30
0.0
 11
7958.829581418173
 21
5318.5
 31
0.0
  0
TEXT
  5
16C68
330
747D
100
AcDbEntity
  8
仕様書枠
 62
     7
 48
50.0
100
AcDbText
 10
4533.500522708389
 20
3170.736447636176
 30
0.0
 40
125.0
  1
▽G.L
  7
STYLE2
100
AcDbText
  0
TEXT
  5
16C77
330
747D
100
AcDbEntity
  8
部品1
100
AcDbText
 10
6740.464939300982
 20
7396.814409441933
 30
0.0
 40
225.0
  1
平面図
  7
STYLE2
100
AcDbText
  0
TEXT
  5
16C79
330
747D
100
AcDbEntity
  8
部品1
100
AcDbText
 10
6735.789495822458
 20
2205.684009045664
 30
0.0
 40
225.0
  1
正面図
  7
STYLE2
100
AcDbText
  0
TEXT
  5
16C7B
330
747D
100
AcDbEntity
  8
部品1
100
AcDbText
 10
13402.97509609211
 20
2203.348723971474
 30
0.0
 40
225.0
  1
側面図
  7
STYLE2
100
AcDbText
  0
DIMENSION
  5
16C9C
330
747D
100
AcDbEntity
  8
寸法
 48
50.0
100
AcDbDimension
  2
*D1
 10
5712.829581418173
 20
6238.281130716521
 30
0.0
 11
5332.770526300061
 21
6238.281130716521
 31
0.0
 12
1520.0
 22
170.0
 32
0.0
 70
   160
 71
     5
 42
-1.0
  3
INABA_S50G
100
AcDbAlignedDimension
 13
5657.829577048346
 23
5509.000002624809
 33
0.0
 14
5712.829581418173
 24
5545.000000008467
 34
0.0
100
AcDbRotatedDimension
  0
DIMENSION
  5
16CB5
330
747D
100
AcDbEntity
  8
寸法
 48
50.0
100
AcDbDimension
  2
*D2
 10
8752.829581418172
 20
6238.281130716521
 30
0.0
 11
7232.829581418172
 21
6338.281130716521
 31
0.0
 70
    32
  1
柱外寸法 <>
 71
     5
 42
-1.0
  3
INABA_S50G
100
AcDbAlignedDimension
 13
5712.829581418173
 23
5545.000000008467
 33
0.0
 14
8752.829581418172
 24
5545.000000008446
 34
0.0
100
AcDbRotatedDimension
1001
ACAD
1000
DSTYLE
1002
{
1070
   287
1070
     4
1070
    75
1070
     1
1070
   279
1070
     1
1002
}
  0
DIMENSION
  5
16CC3
330
747D
100
AcDbEntity
  8
寸法
 48
50.0
100
AcDbDimension
  2
*D3
 10
8807.829581418173
 20
6238.281130716521
 30
0.0
 11
9122.888636536286
 21
6238.281130716521
 31
0.0
 12
-360.0
 22
170.0
 32
0.0
 70
   160
 71
     5
 42
-1.0
  3
INABA_S50G
100
AcDbAlignedDimension
 13
8752.829581418172
 23
5545.000000008446
 33
0.0
 14
8807.829581418173
 24
5509.000002624809
 34
0.0
100
AcDbRotatedDimension
1001
ACAD
1000
DSTYLE
1002
{
1002
}
  0
DIMENSION
  5
16CDA
330
747D
100
AcDbEntity
  8
寸法
 48
50.0
100
AcDbDimension
  2
*D4
 10
8807.829581418173
 20
6506.068854554546
 30
0.0
 11
6362.82957923326
 21
6776.068854554544
 31
0.0
 12
870.0
 22
-170.0
 32
0.0
 70
    32
 71
     5
 42
-1.0
  3
INABA_S50G
100
AcDbAlignedDimension
 13
5657.829577048346
 23
5509.000002624809
 33
0.0
 14
8807.829581418173
 24
5509.000002624809
 34
0.0
100
AcDbRotatedDimension
  0
DIMENSION
  5
16D30
330
747D
100
AcDbEntity
  8
寸法
 48
50.0
100
AcDbDimension
  2
*D5
 10
9408.934533249725
 20
3342.0
 30
0.0
 11
9408.934533249725
 21
2978.697597487494
 31
0.0
 12
-360.0
 22
340.0
 32
0.0
 70
   160
 71
     5
 42
-1.0
  3
INABA_S50G
100
AcDbAlignedDimension
 13
8752.829581418174
 23
3275.0
 33
0.0
 14
8752.829581418174
 24
3342.0
 34
0.0
 50
90.0
100
AcDbRotatedDimension
  0
DIMENSION
  5
16D3C
330
747D
100
AcDbEntity
  8
寸法
 48
50.0
100
AcDbDimension
  2
*D6
 10
9408.934533249725
 20
5302.0
 30
0.0
 11
9308.934533249724
 21
4322.000000000001
 31
0.0
 70
    32
  1
内高 <>
 71
     5
 42
-1.0
  3
INABA_S50G
100
AcDbAlignedDimension
 13
8752.829581418174
 23
3342.0
 33
0.0
 14
8752.829581418172
 24
5302.0
 34
0.0
 50
90.0
100
AcDbRotatedDimension
1001
ACAD
1000
DSTYLE
1002
{
1070
   287
1070
     4
1070
    75
1070
     1
1070
   279
1070
     1
1002
}
  0
LINE
  5
17269
330
747D
100
AcDbEntity
  8
部品1
100
AcDbLine
 10
6596.604026227807
 20
7709.831477053278
 30
0.0
 11
6596.604026227807
 21
7310.010941144057
 31
0.0
  0
LINE
  5
1726A
330
747D
100
AcDbEntity
  8
部品1
100
AcDbLine
 10
6596.604026227807
 20
7310.010941144057
 30
0.0
 11
7869.055136608539
 21
7310.010941144057
 31
0.0
  0
LINE
  5
1726B
330
747D
100
AcDbEntity
  8
部品1
100
AcDbLine
 10
7869.055136608539
 20
7310.010941144057
 30
0.0
 11
7869.055136608539
 21
7709.831477053278
 31
0.0
  0
LINE
  5
1726C
330
747D
100
AcDbEntity
  8
部品1
100
AcDbLine
 10
7869.055136608539
 20
7709.831477053278
 30
0.0
 11
6596.604026227807
 21
7709.831477053278
 31
0.0
  0
LINE
  5
1726E
330
747D
100
AcDbEntity
  8
部品1
100
AcDbLine
 10
6596.604026227807
 20
2526.882077830556
 30
0.0
 11
6596.604026227807
 21
2127.061541921335
 31
0.0
  0
LINE
  5
1726F
330
747D
100
AcDbEntity
  8
部品1
100
AcDbLine
 10
6596.604026227807
 20
2127.061541921335
 30
0.0
 11
7869.05513660854
 21
2127.061541921335
 31
0.0
  0
LINE
  5
17270
330
747D
100
AcDbEntity
  8
部品1
100
AcDbLine
 10
7869.05513660854
 20
2127.061541921335
 30
0.0
 11
7869.05513660854
 21
2526.882077830556
 31
0.0
  0
LINE
  5
17271
330
747D
100
AcDbEntity
  8
部品1
100
AcDbLine
 10
7869.05513660854
 20
2526.882077830556
 30
0.0
 11
6596.604026227807
 21
2526.882077830556
 31
0.0
  0
LINE
  5
17273
330
747D
100
AcDbEntity
  8
部品1
100
AcDbLine
 10
13246.6040262278
 20
2526.8820778306
 30
0.0
 11
13246.6040262278
 21
2127.061541921379
 31
0.0
  0
LINE
  5
17274
330
747D
100
AcDbEntity
  8
部品1
100
AcDbLine
 10
13246.6040262278
 20
2127.061541921379
 30
0.0
 11
14519.05513660853
 21
2127.061541921379
 31
0.0
  0
LINE
  5
17275
330
747D
100
AcDbEntity
  8
部品1
100
AcDbLine
 10
14519.05513660853
 20
2127.061541921379
 30
0.0
 11
14519.05513660853
 21
2526.8820778306
 31
0.0
  0
LINE
  5
17276
330
747D
100
AcDbEntity
  8
部品1
100
AcDbLine
 10
14519.05513660853
 20
2526.8820778306
 30
0.0
 11
13246.6040262278
 21
2526.8820778306
 31
0.0
  0
LINE
  5
1837B
330
747D
100
AcDbEntity
  8
部品1
 48
50.0
100
AcDbLine
 10
5712.829581418171
 20
11098.73679736197
 30
0.0
 11
5712.829581418171
 21
9238.736797361971
 31
0.0
  0
LINE
  5
1837C
330
747D
100
AcDbEntity
  8
部品1
 48
50.0
100
AcDbLine
 10
5722.829581418171
 20
9228.736797361971
 30
0.0
 11
5782.829581418173
 21
9228.736797361953
 31
0.0
  0
LINE
  5
1837D
330
747D
100
AcDbEntity
  8
部品1
 48
50.0
100
AcDbLine
 10
8752.829581418176
 20
9238.736797361973
 30
0.0
 11
8752.829581418174
 21
11098.73679736197
 31
0.0
  0
LINE
  5
1837E
330
747D
100
AcDbEntity
  8
部品1
 48
50.0
100
AcDbLine
 10
8742.829581418174
 20
11108.73679736197
 30
0.0
 11
5722.829581418171
 21
11108.73679736197
 31
0.0
  0
ARC
  5
1837F
330
747D
100
AcDbEntity
  8
部品1
 48
50.0
100
AcDbCircle
 10
8742.829581418174
 20
11098.73679736197
 30
0.0
 40
10.0
100
AcDbArc
 50
0.0
 51
90.0
  0
ARC
  5
18380
330
747D
100
AcDbEntity
  8
部品1
 48
50.0
100
AcDbCircle
 10
8742.829581418176
 20
9238.736797361973
 30
0.0
 40
10.0
100
AcDbArc
 50
270.0
 51
0.0
  0
ARC
  5
18381
330
747D
100
AcDbEntity
  8
部品1
 48
50.0
100
AcDbCircle
 10
5722.829581418171
 20
9238.736797361971
 30
0.0
 40
10.0
100
AcDbArc
 50
180.0
 51
270.0
  0
ARC
  5
18382
330
747D
100
AcDbEntity
  8
部品1
 48
50.0
100
AcDbCircle
 10
5722.829581418171
 20
11098.73679736197
 30
0.0
 40
10.0
100
AcDbArc
 50
90.0
 51
180.0
  0
LINE
  5
18383
330
747D
100
AcDbEntity
  8
部品1
 48
50.0
100
AcDbLine
 10
8702.829581418177
 20
11058.73679736197
 30
0.0
 11
5762.829581418174
 21
11058.73679736197
 31
0.0
  0
LINE
  5
18384
330
747D
100
AcDbEntity
  8
部品1
 48
50.0
100
AcDbLine
 10
5762.829581418174
 20
11058.73679736197
 30
0.0
 11
5762.829581418169
 21
9278.73679736197
 31
0.0
  0
LINE
  5
18385
330
747D
100
AcDbEntity
  8
部品1
 48
50.0
100
AcDbLine
 10
5762.829581418169
 20
9278.73679736197
 30
0.0
 11
5800.829581418168
 21
9278.73679736197
 31
0.0
  0
LINE
  5
18386
330
747D
100
AcDbEntity
  8
部品1
 48
50.0
100
AcDbLine
 10
8702.829581418177
 20
9278.73679736197
 30
0.0
 11
8702.829581418177
 21
11058.73679736197
 31
0.0
  0
LINE
  5
18387
330
747D
100
AcDbEntity
  8
部品1
 48
50.0
100
AcDbLine
 10
8717.829581418177
 20
11073.73679736197
 30
0.0
 11
5747.829581418171
 21
11073.73679736197
 31
0.0
  0
LINE
  5
18388
330
747D
100
AcDbEntity
  8
部品1
 48
50.0
100
AcDbLine
 10
5747.829581418171
 20
9263.736797361971
 30
0.0
 11
5800.829581418168
 21
9263.736797361969
 31
0.0
  0
LINE
  5
18389
330
747D
100
AcDbEntity
  8
部品1
 48
50.0
100
AcDbLine
 10
5747.829581418171
 20
11073.73679736197
 30
0.0
 11
5747.829581418171
 21
9263.736797361971
 31
0.0
  0
LINE
  5
1838A
330
747D
100
AcDbEntity
  8
部品1
 48
50.0
100
AcDbLine
 10
8717.829581418177
 20
9263.736797361971
 30
0.0
 11
8717.829581418177
 21
11073.73679736197
 31
0.0
  0
LINE
  5
1838B
330
747D
100
AcDbEntity
  8
部品1
 48
50.0
100
AcDbLine
 10
8682.829581418173
 20
11073.73679736197
 30
0.0
 11
8682.829581418177
 21
11108.73679736197
 31
0.0
  0
LINE
  5
1838C
330
747D
100
AcDbEntity
  8
部品1
 48
50.0
100
AcDbLine
 10
8752.829581418176
 20
11038.73679736197
 30
0.0
 11
8717.829581418177
 21
11038.73679736197
 31
0.0
  0
LINE
  5
1838D
330
747D
100
AcDbEntity
  8
部品1
 48
50.0
100
AcDbLine
 10
8664.829581418173
 20
11073.73679736197
 30
0.0
 11
8664.829581418173
 21
11058.73679736197
 31
0.0
  0
LINE
  5
1838E
330
747D
100
AcDbEntity
  8
部品1
 48
50.0
100
AcDbLine
 10
8700.829581418174
 20
11073.73679736197
 30
0.0
 11
8700.829581418174
 21
11058.73679736197
 31
0.0
  0
LINE
  5
1838F
330
747D
100
AcDbEntity
  8
部品1
 48
50.0
100
AcDbLine
 10
8717.829581418177
 20
11020.73679736196
 30
0.0
 11
8702.829581418177
 21
11020.73679736196
 31
0.0
  0
LINE
  5
18390
330
747D
100
AcDbEntity
  8
部品1
 48
50.0
100
AcDbLine
 10
8717.829581418177
 20
11056.73679736197
 30
0.0
 11
8702.829581418177
 21
11056.73679736197
 31
0.0
  0
LINE
  5
18397
330
747D
100
AcDbEntity
  8
部品1
 48
50.0
100
AcDbLine
 10
8752.829581418174
 20
9878.736797361975
 30
0.0
 11
8717.829581418174
 21
9878.736797361973
 31
0.0
  0
LINE
  5
18398
330
747D
100
AcDbEntity
  8
部品1
 48
50.0
100
AcDbLine
 10
8717.829581418174
 20
9860.736797361971
 30
0.0
 11
8702.829581418173
 21
9860.736797361971
 31
0.0
  0
LINE
  5
18399
330
747D
100
AcDbEntity
  8
部品1
 48
50.0
100
AcDbLine
 10
8717.829581418174
 20
9896.73679736197
 30
0.0
 11
8702.829581418173
 21
9896.73679736197
 31
0.0
  0
LINE
  5
1839A
330
747D
100
AcDbEntity
  8
部品1
 48
50.0
100
AcDbLine
 10
8752.829581418174
 20
10458.73679736197
 30
0.0
 11
8717.829581418174
 21
10458.73679736197
 31
0.0
  0
LINE
  5
1839B
330
747D
100
AcDbEntity
  8
部品1
 48
50.0
100
AcDbLine
 10
8717.829581418174
 20
10440.73679736196
 30
0.0
 11
8702.829581418173
 21
10440.73679736196
 31
0.0
  0
LINE
  5
1839C
330
747D
100
AcDbEntity
  8
部品1
 48
50.0
100
AcDbLine
 10
8717.829581418174
 20
10476.73679736196
 30
0.0
 11
8702.829581418173
 21
10476.73679736196
 31
0.0
  0
LINE
  5
1839D
330
747D
100
AcDbEntity
  8
部品1
 48
50.0
100
AcDbLine
 10
8717.829581418174
 20
9316.736797361969
 30
0.0
 11
8702.829581418173
 21
9316.736797361969
 31
0.0
  0
LINE
  5
1839E
330
747D
100
AcDbEntity
  8
部品1
 48
50.0
100
AcDbLine
 10
8717.829581418174
 20
9280.736797361969
 30
0.0
 11
8702.829581418173
 21
9280.736797361969
 31
0.0
  0
LINE
  5
1839F
330
747D
100
AcDbEntity
  8
部品1
 48
50.0
100
AcDbLine
 10
8752.829581418174
 20
9298.736797361975
 30
0.0
 11
8717.829581418174
 21
9298.736797361973
 31
0.0
  0
LINE
  5
183A0
330
747D
100
AcDbEntity
  8
部品1
 48
50.0
100
AcDbLine
 10
8084.829581418173
 20
11073.73679736197
 30
0.0
 11
8084.829581418173
 21
11058.73679736197
 31
0.0
  0
LINE
  5
183A1
330
747D
100
AcDbEntity
  8
部品1
 48
50.0
100
AcDbLine
 10
8102.829581418173
 20
11073.73679736197
 30
0.0
 11
8102.829581418175
 21
11108.73679736197
 31
0.0
  0
LINE
  5
183A2
330
747D
100
AcDbEntity
  8
部品1
 48
50.0
100
AcDbLine
 10
8120.829581418172
 20
11073.73679736197
 30
0.0
 11
8120.829581418172
 21
11058.73679736197
 31
0.0
  0
LINE
  5
183AC
330
747D
100
AcDbEntity
  8
部品1
 48
50.0
100
AcDbLine
 10
7540.82958141817
 20
11073.73679736221
 30
0.0
 11
7540.82958141817
 21
11058.73679736221
 31
0.0
  0
LINE
  5
183AD
330
747D
100
AcDbEntity
  8
部品1
 48
50.0
100
AcDbLine
 10
7522.829581418169
 20
11073.73679736221
 30
0.0
 11
7522.829581418173
 21
11108.73679736221
 31
0.0
  0
LINE
  5
183AE
330
747D
100
AcDbEntity
  8
部品1
 48
50.0
100
AcDbLine
 10
7504.82958141817
 20
11073.73679736221
 30
0.0
 11
7504.82958141817
 21
11058.73679736221
 31
0.0
  0
LINE
  5
183AF
330
747D
100
AcDbEntity
  8
部品1
 48
50.0
100
AcDbLine
 10
6960.829581418169
 20
11073.73679736227
 30
0.0
 11
6960.829581418169
 21
11058.73679736227
 31
0.0
  0
LINE
  5
183B0
330
747D
100
AcDbEntity
  8
部品1
 48
50.0
100
AcDbLine
 10
6942.82958141817
 20
11073.73679736227
 30
0.0
 11
6942.829581418173
 21
11108.73679736227
 31
0.0
  0
LINE
  5
183B1
330
747D
100
AcDbEntity
  8
部品1
 48
50.0
100
AcDbLine
 10
6924.829581418169
 20
11073.73679736227
 30
0.0
 11
6924.829581418169
 21
11058.73679736227
 31
0.0
  0
LINE
  5
183B2
330
747D
100
AcDbEntity
  8
部品1
 48
50.0
100
AcDbLine
 10
6380.829581418169
 20
11073.73679736233
 30
0.0
 11
6380.829581418169
 21
11058.73679736233
 31
0.0
  0
LINE
  5
183B3
330
747D
100
AcDbEntity
  8
部品1
 48
50.0
100
AcDbLine
 10
6362.829581418169
 20
11073.73679736233
 30
0.0
 11
6362.829581418173
 21
11108.73679736233
 31
0.0
  0
LINE
  5
183B4
330
747D
100
AcDbEntity
  8
部品1
 48
50.0
100
AcDbLine
 10
6344.829581418169
 20
11073.73679736233
 30
0.0
 11
6344.829581418169
 21
11058.73679736233
 31
0.0
  0
LINE
  5
183B5
330
747D
100
AcDbEntity
  8
部品1
 48
50.0
100
AcDbLine
 10
5800.829581418169
 20
11073.73679736197
 30
0.0
 11
5800.829581418169
 21
11058.73679736197
 31
0.0
  0
LINE
  5
183B6
330
747D
100
AcDbEntity
  8
部品1
 48
50.0
100
AcDbLine
 10
5782.82958141817
 20
11073.73679736197
 30
0.0
 11
5782.829581418173
 21
11108.73679736197
 31
0.0
  0
LINE
  5
183B7
330
747D
100
AcDbEntity
  8
部品1
 48
50.0
100
AcDbLine
 10
5764.829581418169
 20
11073.73679736197
 30
0.0
 11
5764.829581418169
 21
11058.73679736197
 31
0.0
  0
LINE
  5
183D1
330
747D
100
AcDbEntity
  8
部品1
 48
50.0
100
AcDbLine
 10
5747.829581418175
 20
9896.73679736197
 30
0.0
 11
5762.829581418174
 21
9896.73679736197
 31
0.0
  0
LINE
  5
183D2
330
747D
100
AcDbEntity
  8
部品1
 48
50.0
100
AcDbLine
 10
5747.829581418175
 20
9860.736797361971
 30
0.0
 11
5762.829581418174
 21
9860.736797361971
 31
0.0
  0
LINE
  5
183D3
330
747D
100
AcDbEntity
  8
部品1
 48
50.0
100
AcDbLine
 10
5712.829581418175
 20
9878.736797361975
 30
0.0
 11
5747.829581418175
 21
9878.736797361973
 31
0.0
  0
LINE
  5
183D4
330
747D
100
AcDbEntity
  8
部品1
 48
50.0
100
AcDbLine
 10
5747.829581418175
 20
10476.73679736196
 30
0.0
 11
5762.829581418174
 21
10476.73679736196
 31
0.0
  0
LINE
  5
183D5
330
747D
100
AcDbEntity
  8
部品1
 48
50.0
100
AcDbLine
 10
5747.829581418175
 20
10440.73679736196
 30
0.0
 11
5762.829581418174
 21
10440.73679736196
 31
0.0
  0
LINE
  5
183D6
330
747D
100
AcDbEntity
  8
部品1
 48
50.0
100
AcDbLine
 10
5712.829581418175
 20
10458.73679736197
 30
0.0
 11
5747.829581418175
 21
10458.73679736197
 31
0.0
  0
LINE
  5
183DD
330
747D
100
AcDbEntity
  8
部品1
 48
50.0
100
AcDbLine
 10
5747.829581418171
 20
11056.73679736197
 30
0.0
 11
5762.829581418171
 21
11056.73679736197
 31
0.0
  0
LINE
  5
183DE
330
747D
100
AcDbEntity
  8
部品1
 48
50.0
100
AcDbLine
 10
5747.829581418171
 20
11020.73679736196
 30
0.0
 11
5762.829581418171
 21
11020.73679736196
 31
0.0
  0
LINE
  5
183DF
330
747D
100
AcDbEntity
  8
部品1
 48
50.0
100
AcDbLine
 10
5712.829581418171
 20
11038.73679736197
 30
0.0
 11
5747.829581418171
 21
11038.73679736197
 31
0.0
  0
LINE
  5
183E0
330
747D
100
AcDbEntity
  8
部品1
 48
50.0
100
AcDbLine
 10
5712.829581418175
 20
9298.736797361975
 30
0.0
 11
5747.829581418175
 21
9298.736797361973
 31
0.0
  0
LINE
  5
183E1
330
747D
100
AcDbEntity
  8
部品1
 48
50.0
100
AcDbLine
 10
5747.829581418175
 20
9280.736797361969
 30
0.0
 11
5762.829581418174
 21
9280.736797361969
 31
0.0
  0
LINE
  5
183E2
330
747D
100
AcDbEntity
  8
部品1
 48
50.0
100
AcDbLine
 10
5747.829581418175
 20
9316.736797361969
 30
0.0
 11
5762.829581418174
 21
9316.736797361969
 31
0.0
  0
LINE
  5
183E3
330
747D
100
AcDbEntity
  8
部品1
 48
50.0
100
AcDbLine
 10
5764.829581418169
 20
9263.736797361975
 30
0.0
 11
5764.829581418169
 21
9278.736797361975
 31
0.0
  0
LINE
  5
183E4
330
747D
100
AcDbEntity
  8
部品1
 48
50.0
100
AcDbLine
 10
5800.829581418169
 20
9263.736797361975
 30
0.0
 11
5800.829581418169
 21
9278.736797361975
 31
0.0
  0
LINE
  5
183E5
330
747D
100
AcDbEntity
  8
部品1
 48
50.0
100
AcDbLine
 10
5782.82958141817
 20
9263.736797361975
 30
0.0
 11
5782.829581418173
 21
9228.736797361973
 31
0.0
  0
LINE
  5
183FB
330
747D
100
AcDbEntity
  8
部品1
 48
50.0
100
AcDbLine
 10
8120.829581418172
 20
9263.736797361973
 30
0.0
 11
8120.829581418172
 21
9278.736797361974
 31
0.0
  0
LINE
  5
183FC
330
747D
100
AcDbEntity
  8
部品1
 48
50.0
100
AcDbLine
 10
8102.829581418173
 20
9263.736797361973
 30
0.0
 11
8102.829581418175
 21
9228.736797361971
 31
0.0
  0
LINE
  5
183FD
330
747D
100
AcDbEntity
  8
部品1
 48
50.0
100
AcDbLine
 10
8084.829581418173
 20
9263.736797361973
 30
0.0
 11
8084.829581418173
 21
9278.736797361974
 31
0.0
  0
LINE
  5
183FE
330
747D
100
AcDbEntity
  8
部品1
 48
50.0
100
AcDbLine
 10
8682.829581418173
 20
9263.736797361973
 30
0.0
 11
8682.829581418177
 21
9228.736797361971
 31
0.0
  0
LINE
  5
183FF
330
747D
100
AcDbEntity
  8
部品1
 48
50.0
100
AcDbLine
 10
8664.829581418173
 20
9263.736797361973
 30
0.0
 11
8664.829581418173
 21
9278.736797361974
 31
0.0
  0
LINE
  5
18400
330
747D
100
AcDbEntity
  8
部品1
 48
50.0
100
AcDbLine
 10
8700.829581418174
 20
9263.736797361973
 30
0.0
 11
8700.829581418174
 21
9278.736797361974
 31
0.0
  0
LINE
  5
18401
330
747D
100
AcDbEntity
  8
細線
 48
50.0
100
AcDbLine
 10
8693.829581418176
 20
11049.73679736197
 30
0.0
 11
8693.829581418176
 21
9278.736797361975
 31
0.0
  0
LINE
  5
18402
330
747D
100
AcDbEntity
  8
細線
 48
50.0
100
AcDbLine
 10
8702.829581418177
 20
11049.73679736197
 30
0.0
 11
5771.829581418173
 21
11049.73679736197
 31
0.0
  0
LINE
  5
18403
330
747D
100
AcDbEntity
  8
細線
 48
50.0
100
AcDbLine
 10
5762.829581418169
 20
9287.73679736197
 30
0.0
 11
5773.329581418169
 21
9287.73679736197
 31
0.0
  0
LINE
  5
18404
330
747D
100
AcDbEntity
  8
細線
 48
50.0
100
AcDbLine
 10
5771.829581418173
 20
11058.73679736197
 30
0.0
 11
5771.829581418171
 21
9287.73679736197
 31
0.0
  0
LINE
  5
18413
330
747D
100
AcDbEntity
  8
細線
 48
50.0
100
AcDbLine
 10
6365.329581418164
 20
9292.236797361971
 30
0.0
 11
6365.329581418164
 21
11049.73679736197
 31
0.0
  0
LINE
  5
18414
330
747D
100
AcDbEntity
  8
細線
 48
50.0
100
AcDbLine
 10
6945.329581418164
 20
9287.736797361972
 30
0.0
 11
6945.329581418164
 21
11049.73679736197
 31
0.0
  0
LINE
  5
18415
330
747D
100
AcDbEntity
  8
細線
 48
50.0
100
AcDbLine
 10
8105.329581418164
 20
9287.73679736197
 30
0.0
 11
8105.329581418164
 21
11049.73679736197
 31
0.0
  0
LINE
  5
18416
330
747D
100
AcDbEntity
  8
細線
 48
50.0
100
AcDbLine
 10
7525.329581418166
 20
9287.73679736197
 30
0.0
 11
7525.329581418164
 21
11049.73679736197
 31
0.0
  0
DIMENSION
  5
1852A
330
747D
100
AcDbEntity
  8
寸法
 48
50.0
100
AcDbDimension
  2
*D11
 10
9866.969337719753
 20
11058.73679736197
 30
0.0
 11
9186.969337719753
 21
10168.73679736197
 31
0.0
 12
580.0
 22
0.0
 32
0.0
 70
    32
  1
内部寸法 <>
 71
     5
 42
-1.0
  3
INABA_S50G
100
AcDbAlignedDimension
 13
9564.165333801147
 23
9278.736797361975
 33
0.0
 14
9564.165333801144
 24
11058.73679736197
 34
0.0
 50
90.0
100
AcDbRotatedDimension
1001
ACAD
1000
DSTYLE
1002
{
1002
}
  0
DIMENSION
  5
1852B
330
747D
100
AcDbEntity
  8
寸法
 48
50.0
100
AcDbDimension
  2
*D8
 10
9564.165333801144
 20
11038.73679736197
 30
0.0
 11
8884.165333801144
 21
10168.73679736197
 31
0.0
 12
580.0
 22
0.0
 32
0.0
 70
    32
  1
3x580=<>
 71
     5
 42
-1.0
  3
INABA_S50G
100
AcDbAlignedDimension
 13
8752.829581418176
 23
9298.736797361975
 33
0.0
 14
8752.829581418176
 24
11038.73679736197
 34
0.0
 50
90.0
100
AcDbRotatedDimension
1001
ACAD
1000
DSTYLE
1002
{
1002
}
  0
DIMENSION
  5
1852C
330
747D
100
AcDbEntity
  8
寸法
 48
50.0
100
AcDbDimension
  2
*D10
 10
9866.969337719758
 20
9278.736797361975
 30
0.0
 11
9866.969337719758
 21
8991.689553267482
 31
0.0
 12
290.0
 22
0.0
 32
0.0
 70
   160
 71
     5
 42
-1.0
  3
INABA_S50G
100
AcDbAlignedDimension
 13
8742.829581418176
 23
9228.736797361971
 33
0.0
 14
9564.165333801147
 24
9278.736797361975
 34
0.0
 50
90.0
100
AcDbRotatedDimension
  0
DIMENSION
  5
1852D
330
747D
100
AcDbEntity
  8
寸法
 48
50.0
100
AcDbDimension
  2
*D7
 10
9564.165333801149
 20
9298.736797361975
 30
0.0
 11
9564.165333801149
 21
8996.177742243862
 31
0.0
 12
-7954.632845073172
 22
-373.9447183321535
 32
0.0
 70
   160
 71
     5
 42
-1.0
  3
INABA_S50G
100
AcDbAlignedDimension
 13
8742.829581418176
 23
9228.736797361971
 33
0.0
 14
8752.829581418176
 24
9298.736797361975
 34
0.0
 50
90.0
100
AcDbRotatedDimension
  0
DIMENSION
  5
1852E
330
747D
100
AcDbEntity
  8
寸法
 48
50.0
100
AcDbDimension
  2
*D12
 10
9866.969337719755
 20
11108.73679736197
 30
0.0
 11
9866.969337719755
 21
11466.29585248008
 31
0.0
 12
290.0
 22
-1160.0
 32
0.0
 70
   160
 71
     5
 42
-1.0
  3
INABA_S50G
100
AcDbAlignedDimension
 13
9564.165333801144
 23
11058.73679736197
 33
0.0
 14
8742.829581418174
 24
11108.73679736197
 34
0.0
 50
90.0
100
AcDbRotatedDimension
1001
ACAD
1000
DSTYLE
1002
{
1002
}
  0
DIMENSION
  5
1852F
330
747D
100
AcDbEntity
  8
寸法
 48
50.0
100
AcDbDimension
  2
*D9
 10
9564.165333801145
 20
11108.73679736197
 30
0.0
 11
9564.165333801145
 21
11341.29585248008
 31
0.0
 12
-7954.632845073172
 22
-1533.944718332153
 32
0.0
 70
   160
 71
     5
 42
-1.0
  3
INABA_S50G
100
AcDbAlignedDimension
 13
8752.829581418176
 23
11038.73679736197
 33
0.0
 14
8742.829581418174
 24
11108.73679736197
 34
0.0
 50
90.0
100
AcDbRotatedDimension
1001
ACAD
1000
DSTYLE
1002
{
1002
}
  0
DIMENSION
  5
185AD
330
747D
100
AcDbEntity
  8
寸法
 48
50.0
100
AcDbDimension
  2
*D16
 10
5762.829581418169
 20
11817.51516613338
 30
0.0
 11
5355.270526300061
 21
11817.51516613338
 31
0.0
 12
-6074.632845073172
 22
-1533.944718332153
 32
0.0
 70
   160
 71
     5
 42
-1.0
  3
INABA_S50G
100
AcDbAlignedDimension
 13
5712.829581418171
 23
11098.73679736197
 33
0.0
 14
5762.829581418169
 24
11518.76878223262
 34
0.0
100
AcDbRotatedDimension
  0
DIMENSION
  5
185AE
330
747D
100
AcDbEntity
  8
寸法
 48
50.0
100
AcDbDimension
  2
*D13
 10
5782.829581418173
 20
11518.76878223262
 30
0.0
 11
5470.270526300061
 21
11518.76878223262
 31
0.0
 12
-6074.632845073172
 22
-1533.944718332153
 32
0.0
 70
   160
 71
     5
 42
-1.0
  3
INABA_S50G
100
AcDbAlignedDimension
 13
5712.829581418171
 23
11098.73679736197
 33
0.0
 14
5782.829581418173
 24
11108.73679736197
 34
0.0
100
AcDbRotatedDimension
  0
DIMENSION
  5
185AF
330
747D
100
AcDbEntity
  8
寸法
 48
50.0
100
AcDbDimension
  2
*D17
 10
8702.82958141818
 20
11817.51516613338
 30
0.0
 11
7232.829581418174
 21
11917.52992991291
 31
0.0
 70
    32
  1
内部寸法 <>
 71
     5
 42
-1.0
  3
INABA_S50G
100
AcDbAlignedDimension
 13
5762.829581418169
 23
11518.76878223262
 33
0.0
 14
8702.82958141818
 24
11518.76878223262
 34
0.0
100
AcDbRotatedDimension
1001
ACAD
1000
DSTYLE
1002
{
1070
   287
1070
     4
1070
    75
1070
     1
1070
   279
1070
     1
1002
}
  0
DIMENSION
  5
185B1
330
747D
100
AcDbEntity
  8
寸法
 48
50.0
100
AcDbDimension
  2
*D14
 10
8682.829581418173
 20
11518.76878223262
 30
0.0
 11
7232.829581418174
 21
11618.78354601215
 31
0.0
 70
    32
  1
5x580=<>
 71
     5
 42
-1.0
  3
INABA_S50G
100
AcDbAlignedDimension
 13
5782.829581418173
 23
11108.73679736197
 33
0.0
 14
8682.829581418173
 24
11108.73679736197
 34
0.0
100
AcDbRotatedDimension
1001
ACAD
1000
DSTYLE
1002
{
1070
   287
1070
     4
1070
    75
1070
     1
1070
   279
1070
     1
1002
}
  0
DIMENSION
  5
185B3
330
747D
100
AcDbEntity
  8
寸法
 48
50.0
100
AcDbDimension
  2
*D18
 10
8752.829581418176
 20
11817.51516613338
 30
0.0
 11
9110.388636536285
 21
11817.51516613338
 31
0.0
 12
-7954.632845073172
 22
-1533.944718332153
 32
0.0
 70
   160
 71
     5
 42
-1.0
  3
INABA_S50G
100
AcDbAlignedDimension
 13
8702.82958141818
 23
11518.76878223262
 33
0.0
 14
8752.829581418176
 24
11098.73679736197
 34
0.0
100
AcDbRotatedDimension
1001
ACAD
1000
DSTYLE
1002
{
1002
}
  0
DIMENSION
  5
185B4
330
747D
100
AcDbEntity
  8
寸法
 48
50.0
100
AcDbDimension
  2
*D15
 10
8752.829581418176
 20
11518.76878223262
 30
0.0
 11
9015.388636536284
 21
11518.76878223262
 31
0.0
 12
-7954.632845073172
 22
-1533.944718332153
 32
0.0
 70
   160
 71
     5
 42
-1.0
  3
INABA_S50G
100
AcDbAlignedDimension
 13
8682.829581418177
 23
11108.73679736197
 33
0.0
 14
8752.829581418176
 24
11098.73679736197
 34
0.0
100
AcDbRotatedDimension
1001
ACAD
1000
DSTYLE
1002
{
1002
}
  0
DIMENSION
  5
1868C
330
747D
100
AcDbEntity
  8
寸法
 48
50.0
100
AcDbDimension
  2
*D19
 10
8752.829581418176
 20
7967.428503410812
 30
0.0
 11
6652.829581418174
 21
8067.428503410813
 31
0.0
 12
870.0
 22
0.0
 32
0.0
 70
    32
 71
     5
 42
-1.0
  3
INABA_S50G
100
AcDbAlignedDimension
 13
5712.829581418171
 23
9238.736797361971
 33
0.0
 14
8752.829581418176
 24
9238.736797361973
 34
0.0
100
AcDbRotatedDimension
  0
DIMENSION
  5
186AF
330
747D
100
AcDbEntity
  8
寸法
 48
50.0
100
AcDbDimension
  2
*D20
 10
4946.198601638503
 20
9228.736797361971
 30
0.0
 11
4266.198601638503
 21
10168.73679736197
 31
0.0
 12
580.0
 22
0.0
 32
0.0
 70
    32
 71
     5
 42
-1.0
  3
INABA_S50G
100
AcDbAlignedDimension
 13
5722.829581418171
 23
11108.73679736197
 33
0.0
 14
5722.829581418171
 24
9228.736797361971
 34
0.0
 50
90.0
100
AcDbRotatedDimension
  0
LINE
  5
186D3
330
747D
100
AcDbEntity
  8
部品1
 62
     2
 48
50.0
100
AcDbLine
 10
7528.829581418174
 20
9160.736797361609
 30
0.0
 11
5776.829581418173
 21
9160.736797361609
 31
0.0
  0
LINE
  5
186D4
330
747D
100
AcDbEntity
  8
部品1
 62
     2
 48
50.0
100
AcDbLine
 10
5776.829581418173
 20
9160.736797361609
 30
0.0
 11
5776.829581418173
 21
9228.736797361971
 31
0.0
  0
LINE
  5
186D5
330
747D
100
AcDbEntity
  8
部品1
 62
     2
 48
50.0
100
AcDbLine
 10
7528.829581418174
 20
9228.736797361792
 30
0.0
 11
7528.829581418174
 21
9160.73679736179
 31
0.0
  0
LINE
  5
186D9
330
747D
100
AcDbEntity
  8
部品1
 62
     2
 48
50.0
100
AcDbLine
 10
5802.829581418169
 20
9287.73679736197
 30
0.0
 11
5773.329581418169
 21
9287.73679736197
 31
0.0
  0
LINE
  5
186DA
330
747D
100
AcDbEntity
  8
部品1
 62
     2
 48
50.0
100
AcDbLine
 10
5773.329581418169
 20
9287.73679736197
 30
0.0
 11
5773.329581418169
 21
9278.73679736197
 31
0.0
  0
LINE
  5
186EA
330
747D
100
AcDbEntity
  8
部品1
 62
     2
 48
50.0
100
AcDbLine
 10
5802.829581418169
 20
9292.236797361971
 30
0.0
 11
5802.829581418169
 21
9228.736797361969
 31
0.0
  0
LINE
  5
186ED
330
747D
100
AcDbEntity
  8
部品1
 48
50.0
100
AcDbLine
 10
7522.829581418169
 20
9228.736797361971
 30
0.0
 11
8742.829581418176
 21
9228.736797361973
 31
0.0
  0
LINE
  5
186EE
330
747D
100
AcDbEntity
  8
部品1
 48
50.0
100
AcDbLine
 10
7504.82958141817
 20
9263.736797361969
 30
0.0
 11
8717.829581418177
 21
9263.736797361973
 31
0.0
  0
LINE
  5
186EF
330
747D
100
AcDbEntity
  8
部品1
 48
50.0
100
AcDbLine
 10
7504.829581418167
 20
9278.73679736197
 30
0.0
 11
8702.829581418177
 21
9278.73679736197
 31
0.0
  0
LINE
  5
186F0
330
747D
100
AcDbEntity
  8
部品1
 62
     2
 48
50.0
100
AcDbLine
 10
5792.829581418173
 20
9160.736797361609
 30
0.0
 11
5792.829581418173
 21
9228.736797361971
 31
0.0
  0
LINE
  5
186F2
330
747D
100
AcDbEntity
  8
部品1
 62
     2
 48
50.0
100
AcDbLine
 10
6932.829581418177
 20
9228.736797361969
 30
0.0
 11
5782.829581418173
 21
9228.736797361969
 31
0.0
  0
LINE
  5
186F3
330
747D
100
AcDbEntity
  8
部品1
 62
     2
 48
50.0
100
AcDbLine
 10
7512.829581418173
 20
9228.736797361792
 30
0.0
 11
7512.829581418173
 21
9160.73679736179
 31
0.0
  0
LINE
  5
186F4
330
747D
100
AcDbEntity
  8
部品1
 62
     2
 48
50.0
100
AcDbLine
 10
7502.829581418173
 20
9233.736797361791
 30
0.0
 11
7502.829581418173
 21
9228.736797361971
 31
0.0
  0
LINE
  5
186F5
330
747D
100
AcDbEntity
  8
部品1
 62
     2
 48
50.0
100
AcDbLine
 10
7522.829581418173
 20
9228.736797361971
 30
0.0
 11
7502.829581418173
 21
9228.736797361971
 31
0.0
  0
LINE
  5
186F6
330
747D
100
AcDbEntity
  8
部品1
 62
     2
 48
50.0
100
AcDbLine
 10
6924.829581418169
 20
9263.736797361792
 30
0.0
 11
6924.829581418169
 21
9278.736797361792
 31
0.0
  0
LINE
  5
186F7
330
747D
100
AcDbEntity
  8
部品1
 62
     2
 48
50.0
100
AcDbLine
 10
6960.829581418169
 20
9263.736797361792
 30
0.0
 11
6960.829581418169
 21
9278.736797361792
 31
0.0
  0
LINE
  5
186F9
330
747D
100
AcDbEntity
  8
部品1
 62
     2
 48
50.0
100
AcDbLine
 10
7522.829581418173
 20
9233.736797361972
 30
0.0
 11
6948.829581418171
 21
9233.736797361968
 31
0.0
  0
LINE
  5
186FA
330
747D
100
AcDbEntity
  8
部品1
 62
     2
 48
50.0
100
AcDbLine
 10
6924.829581418169
 20
9278.736797361792
 30
0.0
 11
7504.82958141817
 21
9278.736797361792
 31
0.0
  0
LINE
  5
186FB
330
747D
100
AcDbEntity
  8
部品1
 62
     2
 48
50.0
100
AcDbLine
 10
6924.829581418169
 20
9263.736797361792
 30
0.0
 11
7504.82958141817
 21
9263.736797361969
 31
0.0
  0
LINE
  5
186FD
330
747D
100
AcDbEntity
  8
部品1
 62
     2
 48
50.0
100
AcDbLine
 10
6942.82958141817
 20
9278.736797361792
 30
0.0
 11
6942.82958141817
 21
9287.73679736197
 31
0.0
  0
LINE
  5
186FE
330
747D
100
AcDbEntity
  8
細線
 48
50.0
100
AcDbLine
 10
6942.829581418171
 20
9287.73679736197
 30
0.0
 11
8693.829581418176
 21
9287.73679736197
 31
0.0
  0
LINE
  5
186FF
330
747D
100
AcDbEntity
  8
部品1
 62
     2
 48
50.0
100
AcDbLine
 10
6942.829581418171
 20
9287.73679736197
 30
0.0
 11
6913.329581418171
 21
9287.73679736197
 31
0.0
  0
LINE
  5
18700
330
747D
100
AcDbEntity
  8
部品1
 62
     2
 48
50.0
100
AcDbLine
 10
6913.329581418171
 20
9292.236797361971
 30
0.0
 11
6913.329581418171
 21
9228.736797361971
 31
0.0
  0
LINE
  5
18705
330
747D
100
AcDbEntity
  8
部品1
 62
     2
 48
50.0
100
AcDbLine
 10
6932.829581418174
 20
9263.736797361799
 30
0.0
 11
6932.829581418174
 21
9223.736797361794
 31
0.0
  0
LINE
  5
18706
330
747D
100
AcDbEntity
  8
部品1
 62
     2
 48
50.0
100
AcDbLine
 10
6932.829581418174
 20
9223.736797361794
 30
0.0
 11
6948.829581418175
 21
9223.736797361848
 31
0.0
  0
LINE
  5
18708
330
747D
100
AcDbEntity
  8
部品1
 62
     2
 48
50.0
100
AcDbLine
 10
6948.829581418173
 20
9233.736797361968
 30
0.0
 11
6948.829581418175
 21
9223.736797361794
 31
0.0
  0
LINE
  5
18709
330
747D
100
AcDbEntity
  8
部品1
 62
     2
 48
50.0
100
AcDbLine
 10
5802.829581418169
 20
9292.236797361971
 30
0.0
 11
6913.329581418171
 21
9292.236797361971
 31
0.0
  0
LINE
  5
1870A
330
747D
100
AcDbEntity
  8
部品1
 62
     2
 48
50.0
100
AcDbLine
 10
7512.829581418173
 20
9176.736797361609
 30
0.0
 11
6387.829581418174
 21
9176.736797361609
 31
0.0
  0
LINE
  5
1870B
330
747D
100
AcDbEntity
  8
部品1
 62
     2
 48
50.0
100
AcDbLine
 10
7512.829581418173
 20
9210.73679736161
 30
0.0
 11
6960.329581418173
 21
9210.73679736161
 31
0.0
  0
LINE
  5
18711
330
747D
100
AcDbEntity
  8
部品1
 62
     2
 48
50.0
100
AcDbLine
 10
5802.829581418169
 20
9262.03679736197
 30
0.0
 11
6913.329581418171
 21
9262.03679736197
 31
0.0
  0
LINE
  5
18712
330
747D
100
AcDbEntity
  8
部品1
 62
     2
 48
50.0
100
AcDbLine
 10
5802.829581418169
 20
9248.536797361969
 30
0.0
 11
6913.329581418171
 21
9248.536797361969
 31
0.0
  0
LINE
  5
18713
330
747D
100
AcDbEntity
  8
部品1
 62
     2
 48
50.0
100
AcDbLine
 10
6377.829581418173
 20
9187.736797361608
 30
0.0
 11
6377.829581418173
 21
9194.73679736161
 31
0.0
  0
LINE
  5
18714
330
747D
100
AcDbEntity
  8
部品1
 62
     2
 48
50.0
100
AcDbLine
 10
6377.829581418173
 20
9194.73679736161
 30
0.0
 11
6387.829581418174
 21
9194.73679736161
 31
0.0
  0
LINE
  5
18715
330
747D
100
AcDbEntity
  8
部品1
 62
     2
 48
50.0
100
AcDbLine
 10
6387.829581418174
 20
9194.73679736161
 30
0.0
 11
6387.829581418174
 21
9165.736797361608
 31
0.0
  0
LINE
  5
18716
330
747D
100
AcDbEntity
  8
部品1
 62
     2
 48
50.0
100
AcDbLine
 10
6387.829581418174
 20
9165.736797361608
 30
0.0
 11
5793.829581418172
 21
9165.736797361608
 31
0.0
  0
LINE
  5
18717
330
747D
100
AcDbEntity
  8
部品1
 62
     2
 48
50.0
100
AcDbLine
 10
5793.829581418172
 20
9165.736797361608
 30
0.0
 11
5793.829581418172
 21
9194.73679736161
 31
0.0
  0
LINE
  5
18718
330
747D
100
AcDbEntity
  8
部品1
 62
     2
 48
50.0
100
AcDbLine
 10
5793.829581418172
 20
9194.73679736161
 30
0.0
 11
5803.829581418173
 21
9194.73679736161
 31
0.0
  0
LINE
  5
18719
330
747D
100
AcDbEntity
  8
部品1
 62
     2
 48
50.0
100
AcDbLine
 10
5803.829581418173
 20
9194.73679736161
 30
0.0
 11
5803.829581418173
 21
9187.736797361608
 31
0.0
  0
LINE
  5
1871A
330
747D
100
AcDbEntity
  8
部品1
 62
     2
 48
50.0
100
AcDbLine
 10
5803.829581418173
 20
9187.736797361608
 30
0.0
 11
6377.829581418173
 21
9187.736797361608
 31
0.0
  0
LINE
  5
1871D
330
747D
100
AcDbEntity
  8
部品1
 62
     2
 48
50.0
100
AcDbLine
 10
5793.829581418172
 20
9176.736797361609
 30
0.0
 11
5792.829581418173
 21
9176.736797361609
 31
0.0
  0
LINE
  5
1871E
330
747D
100
AcDbEntity
  8
部品1
 62
     2
 48
50.0
100
AcDbLine
 10
6960.329581418173
 20
9228.736797361611
 30
0.0
 11
6960.329581418173
 21
9199.736797361609
 31
0.0
  0
LINE
  5
1871F
330
747D
100
AcDbEntity
  8
部品1
 62
     2
 48
50.0
100
AcDbLine
 10
6950.329581418173
 20
9228.736797361611
 30
0.0
 11
6960.329581418173
 21
9228.736797361611
 31
0.0
  0
LINE
  5
18720
330
747D
100
AcDbEntity
  8
部品1
 62
     2
 48
50.0
100
AcDbLine
 10
6950.329581418173
 20
9221.736797361609
 30
0.0
 11
6950.329581418173
 21
9228.736797361611
 31
0.0
  0
LINE
  5
18721
330
747D
100
AcDbEntity
  8
部品1
 62
     2
 48
50.0
100
AcDbLine
 10
6366.329581418171
 20
9221.736797361609
 30
0.0
 11
6950.329581418173
 21
9221.736797361609
 31
0.0
  0
LINE
  5
18722
330
747D
100
AcDbEntity
  8
部品1
 62
     2
 48
50.0
100
AcDbLine
 10
6960.329581418173
 20
9199.736797361609
 30
0.0
 11
6376.329581418173
 21
9199.736797361609
 31
0.0
  0
LINE
  5
18723
330
747D
100
AcDbEntity
  8
部品1
 62
     2
 48
50.0
100
AcDbLine
 10
6366.329581418173
 20
9189.736797361609
 30
0.0
 11
6366.329581418173
 21
9221.736797361611
 31
0.0
  0
LINE
  5
18726
330
747D
100
AcDbEntity
  8
部品1
 62
     2
 48
50.0
100
AcDbLine
 10
6366.329581418173
 20
9189.736797361609
 30
0.0
 11
6376.329581418173
 21
9189.736797361609
 31
0.0
  0
LINE
  5
18727
330
747D
100
AcDbEntity
  8
部品1
 62
     2
 48
50.0
100
AcDbLine
 10
6376.329581418173
 20
9189.736797361609
 30
0.0
 11
6376.329581418171
 21
9199.736797361609
 31
0.0
  0
LINE
  5
1872A
330
747D
100
AcDbEntity
  8
部品1
 62
     2
 48
50.0
100
AcDbLine
 10
6366.329581418175
 20
9210.73679736161
 30
0.0
 11
5792.829581418173
 21
9210.73679736161
 31
0.0
  0
LINE
  5
18736
330
747D
100
AcDbEntity
  8
部品1
 62
     2
 48
50.0
100
AcDbLine
 10
5815.329581418173
 20
9187.736797361608
 30
0.0
 11
5815.329581418173
 21
9179.736797361609
 31
0.0
  0
LINE
  5
18738
330
747D
100
AcDbEntity
  8
部品1
 62
     2
 48
50.0
100
AcDbLine
 10
6366.329581418173
 20
9187.736797361608
 30
0.0
 11
6366.329581418173
 21
9179.736797361609
 31
0.0
  0
LINE
  5
18739
330
747D
100
AcDbEntity
  8
部品1
 62
     2
 48
50.0
100
AcDbLine
 10
6063.329581418171
 20
9166.736797361609
 30
0.0
 11
6078.329581418171
 21
9166.736797361609
 31
0.0
  0
LINE
  5
1873A
330
747D
100
AcDbEntity
  8
部品1
 62
     2
 48
50.0
100
AcDbLine
 10
6078.329581418171
 20
9166.736797361609
 30
0.0
 11
6078.329581418171
 21
9180.736797361609
 31
0.0
  0
LINE
  5
1873B
330
747D
100
AcDbEntity
  8
部品1
 62
     2
 48
50.0
100
AcDbLine
 10
6078.329581418171
 20
9180.736797361609
 30
0.0
 11
6083.329581418171
 21
9180.736797361609
 31
0.0
  0
LINE
  5
1873C
330
747D
100
AcDbEntity
  8
部品1
 62
     2
 48
50.0
100
AcDbLine
 10
6083.329581418171
 20
9180.736797361609
 30
0.0
 11
6083.329581418171
 21
9177.736797361609
 31
0.0
  0
LINE
  5
1873D
330
747D
100
AcDbEntity
  8
部品1
 62
     2
 48
50.0
100
AcDbLine
 10
6083.329581418171
 20
9177.736797361609
 30
0.0
 11
6098.329581418171
 21
9177.736797361609
 31
0.0
  0
LINE
  5
1873E
330
747D
100
AcDbEntity
  8
部品1
 62
     2
 48
50.0
100
AcDbLine
 10
6103.329581418171
 20
9166.736797361609
 30
0.0
 11
6103.329581418171
 21
9180.736797361609
 31
0.0
  0
LINE
  5
1873F
330
747D
100
AcDbEntity
  8
部品1
 62
     2
 48
50.0
100
AcDbLine
 10
6118.329581418171
 20
9166.736797361609
 30
0.0
 11
6103.329581418171
 21
9166.736797361609
 31
0.0
  0
LINE
  5
18740
330
747D
100
AcDbEntity
  8
部品1
 62
     2
 48
50.0
100
AcDbLine
 10
6098.329581418171
 20
9180.736797361609
 30
0.0
 11
6098.329581418171
 21
9177.736797361609
 31
0.0
  0
LINE
  5
18741
330
747D
100
AcDbEntity
  8
部品1
 62
     2
 48
50.0
100
AcDbLine
 10
6103.329581418171
 20
9180.736797361609
 30
0.0
 11
6098.329581418171
 21
9180.736797361609
 31
0.0
  0
LINE
  5
18742
330
747D
100
AcDbEntity
  8
部品1
 62
     2
 48
50.0
100
AcDbLine
 10
6072.579581418173
 20
9180.736797361609
 30
0.0
 11
6109.079581418173
 21
9180.736797361609
 31
0.0
  0
LINE
  5
18746
330
747D
100
AcDbEntity
  8
部品1
 62
     2
 48
50.0
100
AcDbLine
 10
6109.079581418173
 20
9180.736797361609
 30
0.0
 11
6112.579581418173
 21
9177.23679736161
 31
0.0
  0
LINE
  5
18747
330
747D
100
AcDbEntity
  8
部品1
 62
     2
 48
50.0
100
AcDbLine
 10
6072.579581418173
 20
9180.736797361609
 30
0.0
 11
6069.079581418173
 21
9177.23679736161
 31
0.0
  0
LINE
  5
1874A
330
747D
100
AcDbEntity
  8
部品1
 62
     2
 48
50.0
100
AcDbLine
 10
6387.829581418174
 20
9178.73679736161
 30
0.0
 11
6103.329581418171
 21
9178.73679736161
 31
0.0
  0
LINE
  5
1874B
330
747D
100
AcDbEntity
  8
部品1
 62
     2
 48
50.0
100
AcDbLine
 10
6078.329581418171
 20
9178.73679736161
 30
0.0
 11
5793.829581418172
 21
9178.73679736161
 31
0.0
  0
LINE
  5
1874E
330
747D
100
AcDbEntity
  8
部品1
 62
     2
 48
50.0
100
AcDbLine
 10
6960.329581418173
 20
9212.736797361609
 30
0.0
 11
6675.82958141817
 21
9212.736797361609
 31
0.0
  0
LINE
  5
1874F
330
747D
100
AcDbEntity
  8
部品1
 62
     2
 48
50.0
100
AcDbLine
 10
6650.829581418171
 20
9212.736797361609
 30
0.0
 11
6366.329581418173
 21
9212.736797361609
 31
0.0
  0
LINE
  5
18750
330
747D
100
AcDbEntity
  8
部品1
 62
     2
 48
50.0
100
AcDbLine
 10
6645.079581418173
 20
9214.736797361609
 30
0.0
 11
6681.579581418173
 21
9214.736797361609
 31
0.0
  0
LINE
  5
18751
330
747D
100
AcDbEntity
  8
部品1
 62
     2
 48
50.0
100
AcDbLine
 10
6675.82958141817
 20
9214.736797361609
 30
0.0
 11
6670.829581418171
 21
9214.736797361609
 31
0.0
  0
LINE
  5
18753
330
747D
100
AcDbEntity
  8
部品1
 62
     2
 48
50.0
100
AcDbLine
 10
6645.079581418173
 20
9214.736797361609
 30
0.0
 11
6641.579581418174
 21
9211.236797361609
 31
0.0
  0
LINE
  5
18754
330
747D
100
AcDbEntity
  8
部品1
 62
     2
 48
50.0
100
AcDbLine
 10
6650.829581418171
 20
9214.736797361609
 30
0.0
 11
6655.829581418172
 21
9214.736797361609
 31
0.0
  0
LINE
  5
18755
330
747D
100
AcDbEntity
  8
部品1
 62
     2
 48
50.0
100
AcDbLine
 10
6655.829581418172
 20
9214.736797361609
 30
0.0
 11
6655.829581418172
 21
9211.736797361609
 31
0.0
  0
LINE
  5
18756
330
747D
100
AcDbEntity
  8
部品1
 62
     2
 48
50.0
100
AcDbLine
 10
6655.829581418172
 20
9211.736797361609
 30
0.0
 11
6670.829581418171
 21
9211.736797361609
 31
0.0
  0
LINE
  5
18757
330
747D
100
AcDbEntity
  8
部品1
 62
     2
 48
50.0
100
AcDbLine
 10
6670.829581418171
 20
9214.736797361609
 30
0.0
 11
6670.829581418171
 21
9211.736797361609
 31
0.0
  0
LINE
  5
18758
330
747D
100
AcDbEntity
  8
部品1
 62
     2
 48
50.0
100
AcDbLine
 10
6635.829581418171
 20
9200.73679736161
 30
0.0
 11
6650.829581418171
 21
9200.73679736161
 31
0.0
  0
LINE
  5
18759
330
747D
100
AcDbEntity
  8
部品1
 62
     2
 48
50.0
100
AcDbLine
 10
6650.829581418171
 20
9200.73679736161
 30
0.0
 11
6650.829581418171
 21
9214.736797361609
 31
0.0
  0
LINE
  5
1875A
330
747D
100
AcDbEntity
  8
部品1
 62
     2
 48
50.0
100
AcDbLine
 10
6681.579581418173
 20
9214.736797361609
 30
0.0
 11
6685.079581418174
 21
9211.236797361609
 31
0.0
  0
LINE
  5
1875B
330
747D
100
AcDbEntity
  8
部品1
 62
     2
 48
50.0
100
AcDbLine
 10
6690.829581418171
 20
9200.73679736161
 30
0.0
 11
6675.82958141817
 21
9200.73679736161
 31
0.0
  0
LINE
  5
1875C
330
747D
100
AcDbEntity
  8
部品1
 62
     2
 48
50.0
100
AcDbLine
 10
6675.82958141817
 20
9200.73679736161
 30
0.0
 11
6675.82958141817
 21
9214.736797361609
 31
0.0
  0
LINE
  5
1875D
330
747D
100
AcDbEntity
  8
部品1
 62
     2
 48
50.0
100
AcDbLine
 10
7195.329581418173
 20
9234.73679736197
 30
0.0
 11
7210.329581418173
 21
9234.73679736197
 31
0.0
  0
LINE
  5
1875E
330
747D
100
AcDbEntity
  8
部品1
 62
     2
 48
50.0
100
AcDbLine
 10
7210.329581418173
 20
9234.73679736197
 30
0.0
 11
7215.329581418173
 21
9262.73679736197
 31
0.0
  0
LINE
  5
1875F
330
747D
100
AcDbEntity
  8
部品1
 62
     2
 48
50.0
100
AcDbLine
 10
7215.329581418173
 20
9262.73679736197
 30
0.0
 11
7240.329581418173
 21
9262.73679736197
 31
0.0
  0
LINE
  5
18760
330
747D
100
AcDbEntity
  8
部品1
 62
     2
 48
50.0
100
AcDbLine
 10
7260.329581418173
 20
9234.73679736197
 30
0.0
 11
7245.329581418173
 21
9234.73679736197
 31
0.0
  0
LINE
  5
18761
330
747D
100
AcDbEntity
  8
部品1
 62
     2
 48
50.0
100
AcDbLine
 10
7245.329581418173
 20
9234.73679736197
 30
0.0
 11
7240.329581418173
 21
9262.73679736197
 31
0.0
  0
LINE
  5
18764
330
747D
100
AcDbEntity
  8
部品1
 62
     2
 48
50.0
100
AcDbLine
 10
6387.829581418171
 20
9221.736797361609
 30
0.0
 11
6387.829581418171
 21
9213.73679736161
 31
0.0
  0
LINE
  5
18766
330
747D
100
AcDbEntity
  8
部品1
 62
     2
 48
50.0
100
AcDbLine
 10
6938.829581418173
 20
9221.736797361609
 30
0.0
 11
6938.829581418173
 21
9213.73679736161
 31
0.0
  0
LINE
  5
18768
330
747D
100
AcDbEntity
  8
部品1
 62
     2
 48
50.0
100
AcDbLine
 10
6962.829581418175
 20
9263.736797361795
 30
0.0
 11
6962.829581418175
 21
9259.236797361795
 31
0.0
  0
LINE
  5
1876A
330
747D
100
AcDbEntity
  8
部品1
 62
     2
 48
50.0
100
AcDbLine
 10
7495.32958141817
 20
9263.736797361792
 30
0.0
 11
7495.32958141817
 21
9259.236797361792
 31
0.0
  0
DIMENSION
  5
18778
330
747D
100
AcDbEntity
  8
寸法
 48
50.0
100
AcDbDimension
  2
*D21
 10
6892.829581418173
 20
8532.273498070642
 30
0.0
 11
6347.829581418173
 21
8757.273498070642
 31
0.0
 12
290.0
 22
0.0
 32
0.0
 70
    32
  1
有効開口部間口\P<>
 71
     5
 42
-1.0
  3
INABA_S50G
100
AcDbAlignedDimension
 13
5802.829581418173
 23
9160.736797361609
 33
0.0
 14
6892.829581418173
 24
9160.736797361609
 34
0.0
100
AcDbRotatedDimension
  0
LINE
  5
18D7B
330
747D
100
AcDbEntity
  8
部品1
 48
50.0
100
AcDbLine
 10
6112.829581418173
 20
3275.0
 30
0.0
 11
6112.829581418173
 21
3140.0
 31
0.0
  0
LINE
  5
18D7C
330
747D
100
AcDbEntity
  8
部品1
 48
50.0
100
AcDbLine
 10
8352.829581418173
 20
3275.0
 30
0.0
 11
8352.829581418173
 21
3140.0
 31
0.0
  0
LINE
  5
18D8B
330
747D
100
AcDbEntity
  8
細線
100
AcDbLine
 10
8792.329581418174
 20
5524.500002624811
 30
0.0
 11
5675.429712967132
 21
5524.500002624819
 31
0.0
  0
LINE
  5
18D8C
330
747D
100
AcDbEntity
  8
部品1
100
AcDbLine
 10
8778.397416958698
 20
5545.000000008446
 30
0.0
 11
5687.26174179908
 21
5545.000000008467
 31
0.0
  0
LINE
  5
18D8D
330
747D
100
AcDbEntity
  8
細線
100
AcDbLine
 10
8801.324725755609
 20
5431.045828186498
 30
0.0
 11
5664.334432710912
 21
5431.045828186505
 31
0.0
  0
LINE
  5
18D8E
330
747D
100
AcDbEntity
  8
部品1
100
AcDbLine
 10
8783.513641876281
 20
5410.000001569558
 30
0.0
 11
5682.145516590237
 21
5410.000001569567
 31
0.0
  0
ARC
  5
18D8F
330
747D
100
AcDbEntity
  8
部品1
100
AcDbCircle
 10
5687.261984657893
 20
5541.500000016893
 30
0.0
 40
3.5
100
AcDbArc
 50
90.0
 51
157.4999956391549
  0
ARC
  5
18D90
330
747D
100
AcDbEntity
  8
部品1
100
AcDbCircle
 10
5675.429712967132
 20
5526.000002624811
 30
0.0
 40
1.5
100
AcDbArc
 50
270.0000000000002
 51
337.4999956391484
  0
LINE
  5
18D91
330
747D
100
AcDbEntity
  8
部品1
100
AcDbLine
 10
5676.815532222208
 20
5525.425977370787
 30
0.0
 11
5684.028406396046
 21
5542.839392276281
 31
0.0
  0
ARC
  5
18D92
330
747D
100
AcDbEntity
  8
部品1
100
AcDbCircle
 10
5673.329577048345
 20
5509.000002624809
 30
0.0
 40
15.5
100
AcDbArc
 50
90.00000000000033
 51
183.979378091838
  0
LINE
  5
18D93
330
747D
100
AcDbEntity
  8
部品1
 48
50.0
100
AcDbLine
 10
5673.329577048345
 20
5524.500002624809
 30
0.0
 11
5675.429712967132
 21
5524.500002624819
 31
0.0
  0
ARC
  5
18D94
330
747D
100
AcDbEntity
  8
部品1
100
AcDbCircle
 10
5682.145516590237
 20
5425.50000156956
 30
0.0
 40
15.5
100
AcDbArc
 50
183.9793780918396
 51
270.0
  0
LINE
  5
18D95
330
747D
100
AcDbEntity
  8
部品1
100
AcDbLine
 10
5666.382226446123
 20
5428.746322390583
 30
0.0
 11
5666.68288565789
 21
5424.424341469881
 31
0.0
  0
ARC
  5
18D96
330
747D
100
AcDbEntity
  8
部品1
100
AcDbCircle
 10
5663.8882537151
 20
5428.572828826122
 30
0.0
 40
2.5
100
AcDbArc
 50
3.979378091802891
 51
83.07390809407314
  0
ARC
  5
18D97
330
747D
100
AcDbEntity
  8
部品1
100
AcDbCircle
 10
5664.334432710912
 20
5432.245828186495
 30
0.0
 40
1.199999999999999
100
AcDbArc
 50
183.979378091838
 51
270.0000000000002
  0
LINE
  5
18D98
330
747D
100
AcDbEntity
  8
部品1
100
AcDbLine
 10
5657.866946115999
 20
5507.92434252513
 30
0.0
 11
5663.13732580002
 21
5432.162551275553
 31
0.0
  0
LINE
  5
18D99
330
747D
100
AcDbEntity
  8
細線
 48
50.0
100
AcDbLine
 10
5695.829581709429
 20
5410.000001569558
 30
0.0
 11
5695.829581709429
 21
5545.0
 31
0.0
  0
LINE
  5
18D9A
330
747D
100
AcDbEntity
  8
部品1
100
AcDbLine
 10
8788.843626244313
 20
5525.425977370787
 30
0.0
 11
8781.630752070475
 21
5542.839392276281
 31
0.0
  0
ARC
  5
18D9B
330
747D
100
AcDbEntity
  8
部品1
100
AcDbCircle
 10
8778.397173808627
 20
5541.500000016893
 30
0.0
 40
3.5
100
AcDbArc
 50
22.50000436084501
 51
90.0
  0
ARC
  5
18D9C
330
747D
100
AcDbEntity
  8
部品1
100
AcDbCircle
 10
8790.229445499388
 20
5526.000002624811
 30
0.0
 40
1.5
100
AcDbArc
 50
202.5000043608516
 51
269.9999999999997
  0
ARC
  5
18D9D
330
747D
100
AcDbEntity
  8
部品1
100
AcDbCircle
 10
8792.329581418174
 20
5509.000002624809
 30
0.0
 40
15.5
100
AcDbArc
 50
356.0206219081619
 51
89.99999999999968
  0
LINE
  5
18D9E
330
747D
100
AcDbEntity
  8
部品1
100
AcDbLine
 10
8799.276932020395
 20
5428.746322390583
 30
0.0
 11
8798.97627280863
 21
5424.424341469881
 31
0.0
  0
ARC
  5
18D9F
330
747D
100
AcDbEntity
  8
部品1
100
AcDbCircle
 10
8783.513641876281
 20
5425.50000156956
 30
0.0
 40
15.5
100
AcDbArc
 50
270.0
 51
356.0206219081603
  0
ARC
  5
18DA0
330
747D
100
AcDbEntity
  8
部品1
100
AcDbCircle
 10
8801.324725755609
 20
5432.245828186495
 30
0.0
 40
1.199999999999999
100
AcDbArc
 50
269.9999999999997
 51
356.0206219081619
  0
ARC
  5
18DA1
330
747D
100
AcDbEntity
  8
部品1
100
AcDbCircle
 10
8801.770904751419
 20
5428.572828826122
 30
0.0
 40
2.5
100
AcDbArc
 50
96.92609190592689
 51
176.0206219081971
  0
LINE
  5
18DA2
330
747D
100
AcDbEntity
  8
部品1
100
AcDbLine
 10
8807.792212350522
 20
5507.92434252513
 30
0.0
 11
8802.521832666499
 21
5432.162551275553
 31
0.0
  0
LINE
  5
18DA3
330
747D
100
AcDbEntity
  8
細線
 48
50.0
100
AcDbLine
 10
8769.829577048346
 20
5410.000001569558
 30
0.0
 11
8769.829577048346
 21
5545.0
 31
0.0
  0
LINE
  5
18E5B
330
747D
100
AcDbEntity
  8
細線
 48
50.0
100
AcDbLine
 10
6788.829581418173
 20
5405.500036981838
 30
0.0
 11
6516.829581418173
 21
5405.500036981838
 31
0.0
  0
LINE
  5
18E5C
330
747D
100
AcDbEntity
  8
細線
 48
50.0
100
AcDbLine
 10
7948.829581418173
 20
5405.500036981838
 30
0.0
 11
7676.829581418172
 21
5405.500036981838
 31
0.0
  0
LINE
  5
190DF
330
747D
100
AcDbEntity
  8
部品1
 48
50.0
100
AcDbLine
 10
7332.829581418173
 20
3275.0
 30
0.0
 11
7332.829581418173
 21
3140.0
 31
0.0
  0
LINE
  5
190E0
330
747D
100
AcDbEntity
  8
部品1
 48
50.0
100
AcDbLine
 10
7132.829581418173
 20
3275.0
 30
0.0
 11
7132.829581418173
 21
3140.0
 31
0.0
  0
LINE
  5
190E4
330
747D
100
AcDbEntity
  8
部品1
 48
50.0
100
AcDbLine
 10
6272.829581418172
 20
3275.0
 30
0.0
 11
6272.829581418172
 21
3140.0
 31
0.0
  0
LINE
  5
190E5
330
747D
100
AcDbEntity
  8
部品1
 48
50.0
100
AcDbLine
 10
6672.829581418172
 20
3275.0
 30
0.0
 11
6672.829581418172
 21
3140.0
 31
0.0
  0
LINE
  5
1910C
330
747D
100
AcDbEntity
  8
破線
 48
5.0
100
AcDbLine
 10
8852.829581418173
 20
3140.0
 30
0.0
 11
8852.829581418173
 21
2939.999999999999
 31
0.0
  0
LINE
  5
1910D
330
747D
100
AcDbEntity
  8
破線
 48
5.0
100
AcDbLine
 10
8652.829581418172
 20
3140.0
 30
0.0
 11
8652.829581418172
 21
2939.999999999999
 31
0.0
  0
LINE
  5
1910E
330
747D
100
AcDbEntity
  8
破線
 48
5.0
100
AcDbLine
 10
8757.829581418173
 20
3140.0
 30
0.0
 11
8757.829581418173
 21
3030.0
 31
0.0
  0
DIMENSION
  5
1910F
330
747D
100
AcDbEntity
  8
寸法
 48
50.0
100
AcDbDimension
  2
*D22
 10
8652.829581418172
 20
2612.358857715331
 30
0.0
 11
8365.865998741005
 21
2612.358857715331
 31
0.0
 12
-360.0
 22
340.0
 32
0.0
 70
   160
 71
     5
 42
-1.0
  3
INABA_S50G
100
AcDbAlignedDimension
 13
8852.829581418173
 23
2939.999999999999
 33
0.0
 14
8652.829581418172
 24
2939.999999999999
 34
0.0
100
AcDbRotatedDimension
  0
LINE
  5
19110
330
747D
100
AcDbEntity
  8
破線
 48
5.0
100
AcDbLine
 10
8852.829581418173
 20
2939.999999999999
 30
0.0
 11
8652.829581418172
 21
2939.999999999999
 31
0.0
  0
LINE
  5
19111
330
747D
100
AcDbEntity
  8
破線
 48
5.0
100
AcDbLine
 10
8777.829581418172
 20
3030.0
 30
0.0
 11
8757.829581418171
 21
3030.0
 31
0.0
  0
LINE
  5
19112
330
747D
100
AcDbEntity
  8
部品1
100
AcDbLine
 10
8757.829581418173
 20
3314.999999999999
 30
0.0
 11
8757.829581418173
 21
3140.0
 31
0.0
  0
LINE
  5
19122
330
747D
100
AcDbEntity
  8
破線
 48
5.0
100
AcDbLine
 10
5707.829581418175
 20
3140.0
 30
0.0
 11
5707.829581418175
 21
3030.0
 31
0.0
  0
LINE
  5
19123
330
747D
100
AcDbEntity
  8
破線
 48
5.0
100
AcDbLine
 10
5812.829581418174
 20
3140.0
 30
0.0
 11
5812.829581418174
 21
2939.999999999999
 31
0.0
  0
LINE
  5
19124
330
747D
100
AcDbEntity
  8
破線
 48
5.0
100
AcDbLine
 10
5612.829581418175
 20
3140.0
 30
0.0
 11
5612.829581418175
 21
2939.999999999999
 31
0.0
  0
LINE
  5
19125
330
747D
100
AcDbEntity
  8
破線
 48
5.0
100
AcDbLine
 10
5687.829581418174
 20
3030.0
 30
0.0
 11
5707.829581418176
 21
3030.0
 31
0.0
  0
LINE
  5
19126
330
747D
100
AcDbEntity
  8
破線
 48
5.0
100
AcDbLine
 10
5612.829581418175
 20
2939.999999999999
 30
0.0
 11
5812.829581418177
 21
2939.999999999999
 31
0.0
  0
LINE
  5
19127
330
747D
100
AcDbEntity
  8
部品1
100
AcDbLine
 10
5707.829581418175
 20
3314.999999999999
 30
0.0
 11
5707.829581418175
 21
3140.0
 31
0.0
  0
LINE
  5
1928A
330
747D
100
AcDbEntity
  8
部品1
 62
     2
 48
50.0
100
AcDbLine
 10
5776.829581418173
 20
5187.0
 30
0.0
 11
5776.829581418172
 21
3275.0
 31
0.0
  0
LINE
  5
1928B
330
747D
100
AcDbEntity
  8
部品1
 62
     2
 48
50.0
100
AcDbLine
 10
7528.829581418174
 20
5187.0
 30
0.0
 11
7528.829581418174
 21
3275.0
 31
0.0
  0
LINE
  5
1928C
330
747D
100
AcDbEntity
  8
部品1
 62
     2
 48
50.0
100
AcDbLine
 10
7528.829581418174
 20
5187.0
 30
0.0
 11
5776.829581418173
 21
5187.0
 31
0.0
  0
LINE
  5
1929C
330
747D
100
AcDbEntity
  8
部品1
 62
     2
 48
50.0
100
AcDbLine
 10
5792.829581418172
 20
3323.999999999999
 30
0.0
 11
7512.829581418174
 21
3323.999999999999
 31
0.0
  0
LINE
  5
1929D
330
747D
100
AcDbEntity
  8
部品1
 62
     2
 48
50.0
100
AcDbLine
 10
7528.829581418174
 20
5149.5
 30
0.0
 11
5776.829581418173
 21
5149.5
 31
0.0
  0
LINE
  5
1929E
330
747D
100
AcDbEntity
  8
部品1
 62
     2
 48
50.0
100
AcDbLine
 10
5800.829581418173
 20
5149.5
 30
0.0
 11
5800.829581418171
 21
3323.999999999999
 31
0.0
  0
LINE
  5
1929F
330
747D
100
AcDbEntity
  8
部品1
 62
     2
 48
50.0
100
AcDbLine
 10
7504.829581418173
 20
5149.5
 30
0.0
 11
7504.829581418173
 21
3323.999999999999
 31
0.0
  0
LINE
  5
192A1
330
747D
100
AcDbEntity
  8
部品1
 62
     2
 48
50.0
100
AcDbLine
 10
5792.829581418172
 20
3323.999999999999
 30
0.0
 11
5792.829581418172
 21
3275.0
 31
0.0
  0
LINE
  5
192A2
330
747D
100
AcDbEntity
  8
部品1
 62
     2
 48
50.0
100
AcDbLine
 10
7512.829581418174
 20
3323.999999999999
 30
0.0
 11
7512.829581418173
 21
3275.0
 31
0.0
  0
LINE
  5
192A4
330
747D
100
AcDbEntity
  8
部品1
 62
     2
 48
50.0
100
AcDbLine
 10
5800.829581418171
 20
3326.0
 30
0.0
 11
6387.829581418174
 21
3326.0
 31
0.0
  0
LINE
  5
192A5
330
747D
100
AcDbEntity
  8
部品1
 62
     2
 48
50.0
100
AcDbLine
 10
6387.829581418174
 20
3333.0
 30
0.0
 11
7486.329581418172
 21
3332.999999999999
 31
0.0
  0
LINE
  5
192A7
330
747D
100
AcDbEntity
  8
部品1
 62
     2
 48
50.0
100
AcDbLine
 10
6387.829581418174
 20
5149.5
 30
0.0
 11
6387.829581418174
 21
3326.0
 31
0.0
  0
LINE
  5
192A9
330
747D
100
AcDbEntity
  8
部品1
 62
     2
 48
50.0
100
AcDbLine
 10
6960.329581418173
 20
5149.5
 30
0.0
 11
6960.329581418172
 21
3333.0
 31
0.0
  0
CIRCLE
  5
192DC
330
747D
100
AcDbEntity
  8
部品1
 62
     2
 48
50.0
100
AcDbCircle
 10
5834.329581418172
 20
4187.0
 30
0.0
 40
17.0
  0
ARC
  5
192DD
330
747D
100
AcDbEntity
  8
部品1
 62
     2
 48
50.0
100
AcDbCircle
 10
6217.329581418172
 20
4187.0
 30
0.0
 40
405.0
100
AcDbArc
 50
170.0163680567114
 51
189.9836319432886
  0
LINE
  5
192DE
330
747D
100
AcDbEntity
  8
部品1
 62
     2
 48
50.0
100
AcDbLine
 10
5855.329581418172
 20
4251.0
 30
0.0
 11
5855.329581418172
 21
4123.0
 31
0.0
  0
ARC
  5
192DF
330
747D
100
AcDbEntity
  8
部品1
 62
     2
 48
50.0
100
AcDbCircle
 10
1894.329581418172
 20
4187.0
 30
0.0
 40
3991.0
100
AcDbArc
 50
359.0804695823139
 51
0.9195304176861213
  0
ARC
  5
192E0
330
747D
100
AcDbEntity
  8
部品1
 62
     2
 48
50.0
100
AcDbCircle
 10
1894.329581418172
 20
4187.0
 30
0.0
 40
4000.0
100
AcDbArc
 50
359.0098658739685
 51
0.9901341260314108
  0
LINE
  5
192E1
330
747D
100
AcDbEntity
  8
部品1
 62
     2
 48
50.0
100
AcDbLine
 10
5886.733368612047
 20
4111.0
 30
0.0
 11
5825.356368047668
 21
4111.0
 31
0.0
  0
LINE
  5
192E2
330
747D
100
AcDbEntity
  8
部品1
 62
     2
 48
50.0
100
AcDbLine
 10
5840.329581418171
 20
4124.0
 30
0.0
 11
5840.329581418171
 21
4158.0
 31
0.0
  0
LINE
  5
192E3
330
747D
100
AcDbEntity
  8
部品1
 62
     2
 48
50.0
100
AcDbLine
 10
5828.329581418172
 20
4124.0
 30
0.0
 11
5828.329581418175
 21
4158.0
 31
0.0
  0
ARC
  5
192E4
330
747D
100
AcDbEntity
  8
部品1
 62
     2
 48
50.0
100
AcDbCircle
 10
5825.356368047668
 20
4118.0
 30
0.0
 40
7.0
100
AcDbArc
 50
189.983631943288
 51
270.0
  0
ARC
  5
192E5
330
747D
100
AcDbEntity
  8
部品1
 62
     2
 48
50.0
100
AcDbCircle
 10
5837.329581418172
 20
4124.0
 30
0.0
 40
3.0
100
AcDbArc
 50
270.0
 51
0.0
  0
ARC
  5
192E6
330
747D
100
AcDbEntity
  8
部品1
 62
     2
 48
50.0
100
AcDbCircle
 10
5831.329581418172
 20
4124.0
 30
0.0
 40
3.0
100
AcDbArc
 50
179.9999999999971
 51
270.0
  0
LINE
  5
192E7
330
747D
100
AcDbEntity
  8
部品1
 62
     2
 48
50.0
100
AcDbLine
 10
5837.329581418172
 20
4121.0
 30
0.0
 11
5831.329581418172
 21
4121.0
 31
0.0
  0
ARC
  5
192E8
330
747D
100
AcDbEntity
  8
部品1
 62
     2
 48
50.0
100
AcDbCircle
 10
5831.329581418176
 20
4158.0
 30
0.0
 40
3.0
100
AcDbArc
 50
90.0
 51
179.9999999999974
  0
ARC
  5
192E9
330
747D
100
AcDbEntity
  8
部品1
 62
     2
 48
50.0
100
AcDbCircle
 10
5837.329581418172
 20
4158.0
 30
0.0
 40
3.0
100
AcDbArc
 50
0.0
 51
90.0
  0
LINE
  5
192EA
330
747D
100
AcDbEntity
  8
部品1
 62
     2
 48
50.0
100
AcDbLine
 10
5837.329581418172
 20
4161.0
 30
0.0
 11
5831.329581418176
 21
4161.0
 31
0.0
  0
ARC
  5
192EB
330
747D
100
AcDbEntity
  8
部品1
 62
     2
 48
50.0
100
AcDbCircle
 10
5881.816007727359
 20
4123.000000000001
 30
0.0
 40
3.0
100
AcDbArc
 50
270.0
 51
359.0804695823297
  0
ARC
  5
192EC
330
747D
100
AcDbEntity
  8
部品1
 62
     2
 48
50.0
100
AcDbCircle
 10
5858.329581418172
 20
4123.0
 30
0.0
 40
3.0
100
AcDbArc
 50
179.9999999999996
 51
270.0000000000035
  0
LINE
  5
192ED
330
747D
100
AcDbEntity
  8
部品1
 62
     2
 48
50.0
100
AcDbLine
 10
5858.329581418172
 20
4120.0
 30
0.0
 11
5881.816007727359
 21
4120.000000000001
 31
0.0
  0
ARC
  5
192EE
330
747D
100
AcDbEntity
  8
部品1
 62
     2
 48
50.0
100
AcDbCircle
 10
5886.733368612047
 20
4118.0
 30
0.0
 40
7.0
100
AcDbArc
 50
270.0
 51
359.009865873969
  0
LINE
  5
192EF
330
747D
100
AcDbEntity
  8
部品1
 62
     2
 48
50.0
100
AcDbLine
 10
5886.733368612047
 20
4263.0
 30
0.0
 11
5825.356368047668
 21
4263.0
 31
0.0
  0
ARC
  5
192F0
330
747D
100
AcDbEntity
  8
部品1
 62
     2
 48
50.0
100
AcDbCircle
 10
5825.356368047668
 20
4256.0
 30
0.0
 40
7.0
100
AcDbArc
 50
90.0
 51
170.0163680567111
  0
ARC
  5
192F1
330
747D
100
AcDbEntity
  8
部品1
 62
     2
 48
50.0
100
AcDbCircle
 10
5837.329581418172
 20
4216.0
 30
0.0
 40
3.0
100
AcDbArc
 50
270.0
 51
0.0
  0
LINE
  5
192F2
330
747D
100
AcDbEntity
  8
部品1
 62
     2
 48
50.0
100
AcDbLine
 10
5837.329581418172
 20
4213.0
 30
0.0
 11
5831.329581418176
 21
4213.0
 31
0.0
  0
ARC
  5
192F3
330
747D
100
AcDbEntity
  8
部品1
 62
     2
 48
50.0
100
AcDbCircle
 10
5831.329581418176
 20
4216.0
 30
0.0
 40
3.0
100
AcDbArc
 50
180.0000000000025
 51
270.0
  0
LINE
  5
192F4
330
747D
100
AcDbEntity
  8
部品1
 62
     2
 48
50.0
100
AcDbLine
 10
5828.329581418172
 20
4250.0
 30
0.0
 11
5828.329581418175
 21
4216.0
 31
0.0
  0
ARC
  5
192F5
330
747D
100
AcDbEntity
  8
部品1
 62
     2
 48
50.0
100
AcDbCircle
 10
5831.329581418172
 20
4250.0
 30
0.0
 40
3.0
100
AcDbArc
 50
90.00000000000003
 51
180.0000000000027
  0
LINE
  5
192F6
330
747D
100
AcDbEntity
  8
部品1
 62
     2
 48
50.0
100
AcDbLine
 10
5837.329581418172
 20
4253.000000000002
 30
0.0
 11
5831.329581418172
 21
4253.0
 31
0.0
  0
LINE
  5
192F7
330
747D
100
AcDbEntity
  8
部品1
 62
     2
 48
50.0
100
AcDbLine
 10
5840.329581418171
 20
4250.000000000002
 30
0.0
 11
5840.329581418171
 21
4216.0
 31
0.0
  0
ARC
  5
192F8
330
747D
100
AcDbEntity
  8
部品1
 62
     2
 48
50.0
100
AcDbCircle
 10
5837.329581418172
 20
4250.000000000002
 30
0.0
 40
3.0
100
AcDbArc
 50
0.0
 51
90.00000000000003
  0
ARC
  5
192F9
330
747D
100
AcDbEntity
  8
部品1
 62
     2
 48
50.0
100
AcDbCircle
 10
5858.329581418172
 20
4251.0
 30
0.0
 40
3.0
100
AcDbArc
 50
90.0
 51
179.9999999999992
  0
ARC
  5
192FA
330
747D
100
AcDbEntity
  8
部品1
 62
     2
 48
50.0
100
AcDbCircle
 10
5881.816007727359
 20
4251.0
 30
0.0
 40
3.0
100
AcDbArc
 50
0.9195304176876355
 51
90.0
  0
LINE
  5
192FB
330
747D
100
AcDbEntity
  8
部品1
 62
     2
 48
50.0
100
AcDbLine
 10
5858.329581418172
 20
4254.0
 30
0.0
 11
5881.816007727359
 21
4254.0
 31
0.0
  0
ARC
  5
192FC
330
747D
100
AcDbEntity
  8
部品1
 62
     2
 48
50.0
100
AcDbCircle
 10
5886.733368612047
 20
4256.0
 30
0.0
 40
7.0
100
AcDbArc
 50
0.9901341260309951
 51
90.0
  0
LINE
  5
192FF
330
747D
100
AcDbEntity
  8
部品1
 62
     2
 48
50.0
100
AcDbLine
 10
7486.329581418172
 20
3332.999999999999
 30
0.0
 11
7492.329581418172
 21
3323.999999999999
 31
0.0
  0
DIMENSION
  5
1A2E5
330
747D
100
AcDbEntity
  8
寸法
 48
50.0
100
AcDbDimension
  2
*D23
 10
4946.198601638503
 20
9160.736797361609
 30
0.0
 11
4946.198601638503
 21
8923.748608385231
 31
0.0
 12
870.0
 22
0.0
 32
0.0
 70
   160
 71
     5
 42
-1.0
  3
INABA_S50G
100
AcDbAlignedDimension
 13
5722.829581418171
 23
9228.736797361971
 33
0.0
 14
5776.829581418173
 24
9160.736797361609
 34
0.0
 50
90.0
100
AcDbRotatedDimension
  0
LINE
  5
1A39A
330
747D
100
AcDbEntity
  8
部品1
 62
     2
 48
50.0
100
AcDbLine
 10
6960.329581418173
 20
9212.736797361609
 30
0.0
 11
6675.82958141817
 21
9212.736797361609
 31
0.0
  0
LINE
  5
1A39B
330
747D
100
AcDbEntity
  8
部品1
 62
     2
 48
50.0
100
AcDbLine
 10
6650.829581418171
 20
9212.736797361609
 30
0.0
 11
6366.329581418173
 21
9212.736797361609
 31
0.0
  0
LINE
  5
1A8B1
330
747D
100
AcDbEntity
  8
部品1
 48
50.0
100
AcDbLine
 10
7504.829581418173
 20
9263.736797361973
 30
0.0
 11
7504.829581418173
 21
9278.736797361974
 31
0.0
  0
LINE
  5
1A8B2
330
747D
100
AcDbEntity
  8
部品1
 48
50.0
100
AcDbLine
 10
7540.829581418172
 20
9263.736797361973
 30
0.0
 11
7540.829581418172
 21
9278.736797361974
 31
0.0
  0
LINE
  5
1A8B3
330
747D
100
AcDbEntity
  8
部品1
 48
50.0
100
AcDbLine
 10
7522.829581418173
 20
9263.736797361973
 30
0.0
 11
7522.829581418176
 21
9228.736797361971
 31
0.0
  0
TEXT
  5
1A95B
330
747D
100
AcDbEntity
  8
文字
 62
     7
 48
50.0
100
AcDbText
 10
17902.30092041603
 20
604.8708912389265
 30
0.0
 40
200.0
  1
ＳＭＫ－５８Ｓ
  7
STYLE2
100
AcDbText
  0
TEXT
  5
1A95C
330
747D
100
AcDbEntity
  8
文字
 62
     7
 48
50.0
100
AcDbText
 10
18386.04187925632
 20
1047.815908841148
 30
0.0
 40
125.0
  1
～一般型･多雪地型～
  7
STYLE2
100
AcDbText
  0
TEXT
  5
1A95D
330
747D
100
AcDbEntity
  8
文字
 62
     7
 48
50.0
100
AcDbText
 10
18155.16479652749
 20
1289.447132864035
 30
0.0
 40
125.0
  1
NO.08     <縮尺> S=1/50
  7
STYLE2
100
AcDbText
  0
TEXT
  5
1A95E
330
747D
100
AcDbEntity
  8
文字
 62
     7
 48
50.0
100
AcDbText
 10
16511.7566802715
 20
270.5931259273529
 30
0.0
 40
100.0
  1
○扉部有効開口寸法：1090×1798 (mm)
  7
STYLE2
100
AcDbText
  0
TEXT
  5
1A95F
330
747D
100
AcDbEntity
  8
文字
 62
     7
 48
50.0
100
AcDbText
 10
16511.7566802715
 20
99.75789836616968
 30
0.0
 40
100.0
  1
○床面積：5.72㎡(1.73坪)
  7
STYLE2
100
AcDbText
  0
DIMENSION
  5
1AB73
330
747D
100
AcDbEntity
  8
寸法
 48
50.0
100
AcDbDimension
  2
*D24
 10
14681.32958141817
 20
2653.952670699625
 30
0.0
 11
14394.365998741
 21
2653.952670699625
 31
0.0
 12
631.0117701604176
 22
-11707.52646466355
 32
0.0
 70
   160
 71
     5
 42
-1.0
  3
INABA_S50G
100
AcDbAlignedDimension
 13
14881.32958141817
 23
2940.000000000002
 33
0.0
 14
14681.32958141817
 24
2940.000000000002
 34
0.0
100
AcDbRotatedDimension
  0
DIMENSION
  5
1AB74
330
747D
100
AcDbEntity
  8
寸法
 48
50.0
100
AcDbDimension
  2
*D25
 10
15279.66471641205
 20
3140.0
 30
0.0
 11
15279.66471641205
 21
2653.036417322837
 31
0.0
 12
631.0117701604176
 22
-11707.52646466355
 32
0.0
 70
   160
 71
     5
 42
-1.0
  3
INABA_S50G
100
AcDbAlignedDimension
 13
14881.32958141817
 23
2940.000000000002
 33
0.0
 14
14881.32958141817
 24
3140.0
 34
0.0
 50
90.0
100
AcDbRotatedDimension
  0
LINE
  5
1AB7A
330
747D
100
AcDbEntity
  8
部品1
 48
50.0
100
AcDbLine
 10
13012.82958141817
 20
3330.0
 30
0.0
 11
14752.82958141817
 21
3330.0
 31
0.0
  0
LINE
  5
1AB7B
330
747D
100
AcDbEntity
  8
部品1
 48
50.0
100
AcDbLine
 10
12942.82958141817
 20
5275.0
 30
0.0
 11
14822.82958141817
 21
5275.0
 31
0.0
  0
DIMENSION
  5
1AB7C
330
747D
100
AcDbEntity
  8
寸法
 48
50.0
100
AcDbDimension
  2
*D26
 10
14822.82958141817
 20
6238.281130716521
 30
0.0
 11
13882.82958141817
 21
6338.281130716521
 31
0.0
 70
    32
  1
柱外寸法 <>
 71
     5
 42
-1.0
  3
INABA_S50G
100
AcDbAlignedDimension
 13
12942.82958141817
 23
5541.484603453081
 33
0.0
 14
14822.82958141817
 24
5488.33701822684
 34
0.0
100
AcDbRotatedDimension
1001
ACAD
1000
DSTYLE
1002
{
1070
   287
1070
     4
1070
    75
1070
     1
1070
   279
1070
     1
1002
}
  0
DIMENSION
  5
1AB7D
330
747D
100
AcDbEntity
  8
寸法
 48
50.0
100
AcDbDimension
  2
*D27
 10
14917.82958141817
 20
6506.068854554546
 30
0.0
 11
14442.82958141817
 21
6776.083618334073
 31
0.0
 12
631.0117701604176
 22
-11877.52646466355
 32
0.0
 70
    32
 71
     5
 42
-1.0
  3
INABA_S50G
100
AcDbAlignedDimension
 13
12807.82958141817
 23
5545.0
 33
0.0
 14
14917.82958141817
 24
5485.0
 34
0.0
100
AcDbRotatedDimension
  0
LINE
  5
1AB7E
330
747D
100
AcDbEntity
  8
部品1
 48
50.0
100
AcDbLine
 10
12837.34578971423
 20
5544.466629415619
 30
0.0
 11
14892.50261261331
 21
5486.367362182471
 31
0.0
  0
LINE
  5
1AB7F
330
747D
100
AcDbEntity
  8
細線
 48
50.0
100
AcDbLine
 10
14899.73767084558
 20
5476.025833613869
 30
0.0
 11
12826.02062901199
 21
5526.929326860823
 31
0.0
  0
LINE
  5
1AB80
330
747D
100
AcDbEntity
  8
部品1
 48
50.0
100
AcDbLine
 10
14890.11846310262
 20
5360.921243435219
 30
0.0
 11
12828.8404644795
 21
5412.160340619768
 31
0.0
  0
LINE
  5
1AB81
330
747D
100
AcDbEntity
  8
細線
 48
50.0
100
AcDbLine
 10
14908.38919924369
 20
5380.746404000587
 30
0.0
 11
12811.46376912036
 21
5432.315572311723
 31
0.0
  0
LINE
  5
1AB82
330
747D
100
AcDbEntity
  8
部品1
 48
50.0
100
AcDbLine
 10
13005.32958141817
 20
3275.0
 30
0.0
 11
14760.32958141817
 21
3275.0
 31
0.0
  0
LINE
  5
1AB83
330
747D
100
AcDbEntity
  8
部品1
 48
50.0
100
AcDbLine
 10
13012.82958141817
 20
5275.0
 30
0.0
 11
13012.82958141817
 21
3275.0
 31
0.0
  0
DIMENSION
  5
1AB84
330
747D
100
AcDbEntity
  8
寸法
 48
50.0
100
AcDbDimension
  2
*D28
 10
11908.66366111978
 20
3275.0
 30
0.0
 11
12388.64889734025
 21
4410.0
 31
0.0
 12
-580.0
 22
0.0
 32
0.0
 70
    32
 71
     5
 42
-1.0
  3
INABA_S50G
100
AcDbAlignedDimension
 13
12807.82958141817
 23
5545.0
 33
0.0
 14
12874.82958141817
 24
3275.0
 34
0.0
 50
90.0
100
AcDbRotatedDimension
  0
LINE
  5
1AB85
330
747D
100
AcDbEntity
  8
部品1
 48
50.0
100
AcDbLine
 10
12942.82958141816
 20
5409.326807518119
 30
0.0
 11
12942.82958141817
 21
3140.0
 31
0.0
  0
LINE
  5
1AB86
330
747D
100
AcDbEntity
  8
部品1
 62
     2
 48
50.0
100
AcDbLine
 10
12874.82958141817
 20
3275.0
 30
0.0
 11
12874.82958141817
 21
5180.0
 31
0.0
  0
DIMENSION
  5
1AB87
330
747D
100
AcDbEntity
  8
寸法
 48
50.0
100
AcDbDimension
  2
*D29
 10
12216.70986552558
 20
5275.0
 30
0.0
 11
12116.70986552558
 21
4302.500000000001
 31
0.0
 70
    32
 71
     5
 42
-1.0
  3
INABA_S50G
100
AcDbAlignedDimension
 13
12874.82958141817
 23
3330.0
 33
0.0
 14
12942.82958141817
 24
5275.0
 34
0.0
 50
90.0
100
AcDbRotatedDimension
1001
ACAD
1000
DSTYLE
1002
{
1070
   287
1070
     4
1070
    75
1070
     1
1070
   279
1070
     1
1002
}
  0
DIMENSION
  5
1AB88
330
747D
100
AcDbEntity
  8
寸法
 48
50.0
100
AcDbDimension
  2
*D30
 10
12528.94130116352
 20
5150.5
 30
0.0
 11
13008.94130116352
 21
4251.5
 31
0.0
 12
631.0117701604176
 22
-11707.52646466355
 32
0.0
 70
    32
  1
有効開口部高サ <>
 71
     5
 42
-1.0
  3
INABA_S50G
100
AcDbAlignedDimension
 13
12874.82958141817
 23
3352.5
 33
0.0
 14
12874.82958141817
 24
5150.5
 34
0.0
 50
90.0
100
AcDbRotatedDimension
  0
DIMENSION
  5
1AB89
330
747D
100
AcDbEntity
  8
寸法
 48
50.0
100
AcDbDimension
  2
*D31
 10
12216.70986552558
 20
3330.0
 30
0.0
 11
12216.70986552558
 21
2964.420494177466
 31
0.0
 12
631.0117701604176
 22
-11707.52646466355
 32
0.0
 70
   160
 71
     5
 42
-1.0
  3
INABA_S50G
100
AcDbAlignedDimension
 13
12874.82958141817
 23
3275.0
 33
0.0
 14
12874.82958141817
 24
3330.0
 34
0.0
 50
90.0
100
AcDbRotatedDimension
  0
LINE
  5
1AB8A
330
747D
100
AcDbEntity
  8
破線
 48
5.0
100
AcDbLine
 10
13084.32958141817
 20
3140.000000000004
 30
0.0
 11
13084.32958141817
 21
2940.000000000002
 31
0.0
  0
LINE
  5
1AB8B
330
747D
100
AcDbEntity
  8
破線
 48
5.0
100
AcDbLine
 10
12884.32958141817
 20
3140.000000000004
 30
0.0
 11
12884.32958141817
 21
2940.000000000002
 31
0.0
  0
LINE
  5
1AB8C
330
747D
100
AcDbEntity
  8
破線
 48
5.0
100
AcDbLine
 10
13005.32958141817
 20
3140.0
 30
0.0
 11
13005.32958141817
 21
3030.0
 31
0.0
  0
LINE
  5
1AB8D
330
747D
100
AcDbEntity
  8
破線
 48
5.0
100
AcDbLine
 10
12963.32958141817
 20
3140.0
 30
0.0
 11
12963.32958141817
 21
3030.0
 31
0.0
  0
LINE
  5
1AB8E
330
747D
100
AcDbEntity
  8
破線
 48
5.0
100
AcDbLine
 10
12963.32958141817
 20
3030.0
 30
0.0
 11
13005.32958141817
 21
3030.0
 31
0.0
  0
LINE
  5
1AB8F
330
747D
100
AcDbEntity
  8
破線
 48
5.0
100
AcDbLine
 10
13084.32958141817
 20
2940.000000000002
 30
0.0
 11
12884.32958141817
 21
2940.000000000002
 31
0.0
  0
LINE
  5
1AB90
330
747D
100
AcDbEntity
  8
部品1
 48
50.0
100
AcDbLine
 10
12968.32958141817
 20
3315.000000000002
 30
0.0
 11
13000.32958141817
 21
3315.0
 31
0.0
  0
LINE
  5
1AB91
330
747D
100
AcDbEntity
  8
部品1
 48
50.0
100
AcDbLine
 10
12942.82958141817
 20
3275.0
 30
0.0
 11
12963.32958141817
 21
3275.0
 31
0.0
  0
LINE
  5
1AB92
330
747D
100
AcDbEntity
  8
部品1
 48
50.0
100
AcDbLine
 10
12963.32958141817
 20
3310.000000000001
 30
0.0
 11
12963.32958141817
 21
3140.0
 31
0.0
  0
ARC
  5
1AB93
330
747D
100
AcDbEntity
  8
部品1
 48
50.0
100
AcDbCircle
 10
12968.32958141817
 20
3310.000000000001
 30
0.0
 40
5.0
100
AcDbArc
 50
90.0
 51
179.9999999999993
  0
LINE
  5
1AB94
330
747D
100
AcDbEntity
  8
部品1
 48
50.0
100
AcDbLine
 10
12874.82958141817
 20
3275.0
 30
0.0
 11
12874.82958141817
 21
3140.0
 31
0.0
  0
LINE
  5
1AB95
330
747D
100
AcDbEntity
  8
部品1
 48
50.0
100
AcDbLine
 10
12942.82958141817
 20
3275.0
 30
0.0
 11
12874.82958141817
 21
3275.0
 31
0.0
  0
LINE
  5
1AB96
330
747D
100
AcDbEntity
  8
部品1
 48
50.0
100
AcDbLine
 10
13142.82958141817
 20
3275.0
 30
0.0
 11
13142.82958141817
 21
3140.0
 31
0.0
  0
LINE
  5
1AB97
330
747D
100
AcDbEntity
  8
部品1
 48
50.0
100
AcDbLine
 10
13005.32958141817
 20
3310.0
 30
0.0
 11
13005.32958141817
 21
3140.0
 31
0.0
  0
ARC
  5
1AB98
330
747D
100
AcDbEntity
  8
部品1
 48
50.0
100
AcDbCircle
 10
13000.32958141817
 20
3310.0
 30
0.0
 40
5.0
100
AcDbArc
 50
359.9999999999993
 51
90.0
  0
DIMENSION
  5
1AB99
330
747D
100
AcDbEntity
  8
寸法
 48
50.0
100
AcDbDimension
  2
*D32
 10
12942.82958141817
 20
6238.281130716521
 30
0.0
 11
12534.72297970037
 21
6238.281130716521
 31
0.0
 12
631.0117701604176
 22
-11877.52646466355
 32
0.0
 70
   160
 71
     5
 42
-1.0
  3
INABA_S50G
100
AcDbAlignedDimension
 13
12807.82958141817
 23
5545.0
 33
0.0
 14
12942.82958141817
 24
5541.484603453081
 34
0.0
100
AcDbRotatedDimension
  0
DIMENSION
  5
1AB9A
330
747D
100
AcDbEntity
  8
寸法
 48
50.0
100
AcDbDimension
  2
*D33
 10
12212.69625169009
 20
5542.511932946717
 30
0.0
 11
12219.11026529321
 21
5800.538827436056
 31
0.0
 12
-113.9891169386628
 22
2.833533101648754
 32
0.0
 70
   160
 71
     5
 42
-1.0
  3
INABA_S50G
100
AcDbAlignedDimension
 13
12828.8404644795
 23
5412.160340619767
 33
0.0
 14
12831.6982432401
 24
5527.124826877723
 34
0.0
 50
88.5760389666118
100
AcDbRotatedDimension
  0
ARC
  5
1AB9B
330
747D
100
AcDbEntity
  8
部品1
100
AcDbCircle
 10
12823.32958141817
 20
5511.471940894553
 30
0.0
 40
15.5
100
AcDbArc
 50
88.13874351680366
 51
181.8832004883104
  0
LINE
  5
1AB9C
330
747D
100
AcDbEntity
  8
細線
 48
50.0
100
AcDbLine
 10
12846.42631339595
 20
5544.266424339621
 30
0.0
 11
12842.12495525883
 21
5411.902630028745
 31
0.0
  0
LINE
  5
1AB9D
330
747D
100
AcDbEntity
  8
部品1
 62
     2
 48
50.0
100
AcDbLine
 10
12874.82958141817
 20
5180.0
 30
0.0
 11
12942.82958141817
 21
5187.0
 31
0.0
  0
LINE
  5
1AB9E
330
747D
100
AcDbEntity
  8
部品1
100
AcDbLine
 10
12807.83795305646
 20
5510.962577858223
 30
0.0
 11
12810.38580755857
 21
5433.472826441324
 31
0.0
  0
LINE
  5
1AB9F
330
747D
100
AcDbEntity
  8
部品1
100
AcDbLine
 10
12813.5035812939
 20
5429.940194712308
 30
0.0
 11
12813.59535490714
 21
5427.149017088035
 31
0.0
  0
ARC
  5
1ABA0
330
747D
100
AcDbEntity
  8
部品1
100
AcDbCircle
 10
12811.58515943173
 20
5433.512260998977
 30
0.0
 40
1.199999999999999
100
AcDbArc
 50
181.8832004883104
 51
260.9777304905277
  0
ARC
  5
1ABA1
330
747D
100
AcDbEntity
  8
部品1
100
AcDbCircle
 10
12811.00493155814
 20
5429.858039383868
 30
0.0
 40
2.5
100
AcDbArc
 50
1.883200488304429
 51
80.9777304905255
  0
ARC
  5
1ABA2
330
747D
100
AcDbEntity
  8
部品1
100
AcDbCircle
 10
12829.08698326884
 20
5427.658380124383
 30
0.0
 40
15.5
100
AcDbArc
 50
181.8832004883684
 51
269.0887044041854
  0
LINE
  5
1ABA3
330
747D
100
AcDbEntity
  8
部品1
100
AcDbLine
 10
12827.40813407785
 20
5527.804810746245
 30
0.0
 11
12834.10013006798
 21
5542.423971429562
 31
0.0
  0
ARC
  5
1ABA4
330
747D
100
AcDbEntity
  8
部品1
 48
50.0
100
AcDbCircle
 10
12837.28255353197
 20
5540.967200721498
 30
0.0
 40
3.5
100
AcDbArc
 50
88.96475328401214
 51
155.4038180356338
  0
LINE
  5
1ABA5
330
747D
100
AcDbEntity
  8
部品1
 48
50.0
100
AcDbLine
 10
12826.02062901199
 20
5526.929326860823
 30
0.0
 11
12823.83301119891
 21
5526.963763203625
 31
0.0
  0
ARC
  5
1ABA6
330
747D
100
AcDbEntity
  8
部品1
100
AcDbCircle
 10
12826.04423830757
 20
5528.429141049702
 30
0.0
 40
1.5
100
AcDbArc
 50
269.0981540988973
 51
335.4038180356238
  0
LINE
  5
1ABA7
330
747D
100
AcDbEntity
  8
部品1
 48
50.0
100
AcDbLine
 10
13592.82958141817
 20
5275.0
 30
0.0
 11
13592.82958141817
 21
3330.0
 31
0.0
  0
LINE
  5
1ABA8
330
747D
100
AcDbEntity
  8
部品1
 48
50.0
100
AcDbLine
 10
14172.82958141817
 20
5275.0
 30
0.0
 11
14172.82958141817
 21
3330.0
 31
0.0
  0
LINE
  5
1ABA9
330
747D
100
AcDbEntity
  8
部品1
 48
50.0
100
AcDbLine
 10
14752.82958141817
 20
5275.0
 30
0.0
 11
14752.82958141817
 21
3275.0
 31
0.0
  0
DIMENSION
  5
1ABAA
330
747D
100
AcDbEntity
  8
寸法
 48
50.0
100
AcDbDimension
  2
*D34
 10
15482.32033483959
 20
5485.0
 30
0.0
 11
15962.30557106006
 21
4380.0
 31
0.0
 12
-580.0
 22
0.0
 32
0.0
 70
    32
 71
     5
 42
-1.0
  3
INABA_S50G
100
AcDbAlignedDimension
 13
14822.82958141817
 23
3275.0
 33
0.0
 14
14917.82958141817
 24
5485.0
 34
0.0
 50
90.0
100
AcDbRotatedDimension
  0
LINE
  5
1ABAB
330
747D
100
AcDbEntity
  8
細線
 48
5.0
100
AcDbLine
 10
14898.82958141817
 20
5232.0
 30
0.0
 11
14898.82958141816
 21
4307.500000000001
 31
0.0
  0
LINE
  5
1ABAC
330
747D
100
AcDbEntity
  8
細線
 48
5.0
100
AcDbLine
 10
14885.82958141817
 20
5232.0
 30
0.0
 11
14885.82958141816
 21
4307.5
 31
0.0
  0
LINE
  5
1ABAD
330
747D
100
AcDbEntity
  8
細線
 48
5.0
100
AcDbLine
 10
14848.82958141817
 20
5232.0
 30
0.0
 11
14848.82958141816
 21
4307.5
 31
0.0
  0
LINE
  5
1ABAE
330
747D
100
AcDbEntity
  8
細線
 48
5.0
100
AcDbLine
 10
14861.82958141817
 20
5232.0
 30
0.0
 11
14861.82958141816
 21
4307.5
 31
0.0
  0
LINE
  5
1ABAF
330
747D
100
AcDbEntity
  8
部品1
 48
50.0
100
AcDbLine
 10
14822.82958141817
 20
5362.593905516885
 30
0.0
 11
14822.82958141817
 21
3140.0
 31
0.0
  0
LINE
  5
1ABB0
330
747D
100
AcDbEntity
  8
細線
 48
5.0
100
AcDbLine
 10
14847.62958141816
 20
4307.5
 30
0.0
 11
14822.82958141817
 21
4327.499999999999
 31
0.0
  0
LINE
  5
1ABB1
330
747D
100
AcDbEntity
  8
細線
 48
5.0
100
AcDbLine
 10
14847.62958141816
 20
4287.5
 30
0.0
 11
14822.82958141817
 21
4267.5
 31
0.0
  0
ARC
  5
1ABB2
330
747D
100
AcDbEntity
  8
細線
 48
5.0
100
AcDbCircle
 10
14873.82958141816
 20
3226.09258006886
 30
0.0
 40
27.3
100
AcDbArc
 50
180.0
 51
260.0
  0
ARC
  5
1ABB3
330
747D
100
AcDbEntity
  8
細線
 48
5.0
100
AcDbCircle
 10
14844.04554596898
 20
3340.0
 30
0.0
 40
3.0
100
AcDbArc
 50
89.99999999999909
 51
134.1275428770974
  0
LINE
  5
1ABB4
330
747D
100
AcDbEntity
  8
細線
 48
5.0
100
AcDbLine
 10
14822.82958141817
 20
3323.6
 30
0.0
 11
14841.9567721806
 21
3342.153375039561
 31
0.0
  0
LINE
  5
1ABB5
330
747D
100
AcDbEntity
  8
細線
 48
5.0
100
AcDbLine
 10
14822.82958141817
 20
3363.0
 30
0.0
 11
14900.02958141817
 21
3363.0
 31
0.0
  0
LINE
  5
1ABB6
330
747D
100
AcDbEntity
  8
破線
 48
5.0
100
AcDbLine
 10
14681.32958141817
 20
2940.000000000002
 30
0.0
 11
14881.32958141817
 21
2940.000000000002
 31
0.0
  0
LINE
  5
1ABB7
330
747D
100
AcDbEntity
  8
部品1
 48
50.0
100
AcDbLine
 10
13782.82958141817
 20
3275.0
 30
0.0
 11
13782.82958141817
 21
3140.0
 31
0.0
  0
LINE
  5
1ABB8
330
747D
100
AcDbEntity
  8
部品1
 48
50.0
100
AcDbLine
 10
13982.82958141817
 20
3275.0
 30
0.0
 11
13982.82958141817
 21
3140.0
 31
0.0
  0
LINE
  5
1ABB9
330
747D
100
AcDbEntity
  8
破線
 48
5.0
100
AcDbLine
 10
14681.32958141817
 20
3140.000000000004
 30
0.0
 11
14681.32958141817
 21
2940.000000000002
 31
0.0
  0
LINE
  5
1ABBA
330
747D
100
AcDbEntity
  8
破線
 48
5.0
100
AcDbLine
 10
14760.32958141817
 20
3140.0
 30
0.0
 11
14760.32958141817
 21
3030.0
 31
0.0
  0
LINE
  5
1ABBB
330
747D
100
AcDbEntity
  8
破線
 48
5.0
100
AcDbLine
 10
14802.32958141817
 20
3140.0
 30
0.0
 11
14802.32958141817
 21
3030.0
 31
0.0
  0
LINE
  5
1ABBC
330
747D
100
AcDbEntity
  8
破線
 48
5.0
100
AcDbLine
 10
14802.32958141817
 20
3030.0
 30
0.0
 11
14760.32958141817
 21
3030.0
 31
0.0
  0
LINE
  5
1ABBD
330
747D
100
AcDbEntity
  8
部品1
 48
50.0
100
AcDbLine
 10
14622.82958141817
 20
3275.0
 30
0.0
 11
14622.82958141817
 21
3140.0
 31
0.0
  0
LINE
  5
1ABBE
330
747D
100
AcDbEntity
  8
部品1
 48
50.0
100
AcDbLine
 10
14802.32958141817
 20
3310.000000000001
 30
0.0
 11
14802.32958141817
 21
3140.0
 31
0.0
  0
LINE
  5
1ABBF
330
747D
100
AcDbEntity
  8
部品1
 48
50.0
100
AcDbLine
 10
14760.32958141817
 20
3310.0
 30
0.0
 11
14760.32958141817
 21
3140.0
 31
0.0
  0
ARC
  5
1ABC0
330
747D
100
AcDbEntity
  8
部品1
 48
50.0
100
AcDbCircle
 10
14797.32958141817
 20
3310.000000000001
 30
0.0
 40
5.0
100
AcDbArc
 50
0.0000000000006177
 51
90.0
  0
LINE
  5
1ABC1
330
747D
100
AcDbEntity
  8
部品1
 48
50.0
100
AcDbLine
 10
14797.32958141817
 20
3315.000000000002
 30
0.0
 11
14765.32958141817
 21
3315.0
 31
0.0
  0
ARC
  5
1ABC2
330
747D
100
AcDbEntity
  8
部品1
 48
50.0
100
AcDbCircle
 10
14765.32958141817
 20
3310.0
 30
0.0
 40
5.0
100
AcDbArc
 50
90.0
 51
180.0000000000006
  0
LINE
  5
1ABC3
330
747D
100
AcDbEntity
  8
部品1
 48
50.0
100
AcDbLine
 10
14802.32958141817
 20
3275.0
 30
0.0
 11
14822.82958141817
 21
3275.0
 31
0.0
  0
LINE
  5
1ABC4
330
747D
100
AcDbEntity
  8
細線
 48
5.0
100
AcDbLine
 10
14898.82958141816
 20
4287.5
 30
0.0
 11
14898.82958141816
 21
3363.0
 31
0.0
  0
LINE
  5
1ABC5
330
747D
100
AcDbEntity
  8
細線
 48
5.0
100
AcDbLine
 10
14885.82958141816
 20
4287.5
 30
0.0
 11
14885.82958141816
 21
3363.0
 31
0.0
  0
LINE
  5
1ABC6
330
747D
100
AcDbEntity
  8
細線
 48
5.0
100
AcDbLine
 10
14861.82958141816
 20
4287.5
 30
0.0
 11
14861.82958141816
 21
3363.0
 31
0.0
  0
LINE
  5
1ABC7
330
747D
100
AcDbEntity
  8
細線
 48
5.0
100
AcDbLine
 10
14848.82958141816
 20
4287.5
 30
0.0
 11
14848.82958141816
 21
3363.0
 31
0.0
  0
LINE
  5
1ABC8
330
747D
100
AcDbEntity
  8
破線
 48
5.0
100
AcDbLine
 10
14881.32958141817
 20
3140.000000000004
 30
0.0
 11
14881.32958141817
 21
2940.000000000002
 31
0.0
  0
LINE
  5
1ABC9
330
747D
100
AcDbEntity
  8
細線
 48
5.0
100
AcDbLine
 10
14925.6739223305
 20
3243.74934418412
 30
0.0
 11
14921.28369922995
 21
3191.112019182886
 31
0.0
  0
LINE
  5
1ABCA
330
747D
100
AcDbEntity
  8
細線
 48
5.0
100
AcDbLine
 10
14882.82958141816
 20
3269.5
 30
0.0
 11
14882.82958141816
 21
3216.376514579342
 31
0.0
  0
ARC
  5
1ABCB
330
747D
100
AcDbEntity
  8
細線
 48
5.0
100
AcDbCircle
 10
14920.28715939573
 20
3191.195135720452
 30
0.0
 40
1.0
100
AcDbArc
 50
260.0
 51
355.2322728781318
  0
LINE
  5
1ABCC
330
747D
100
AcDbEntity
  8
細線
 48
5.0
100
AcDbLine
 10
14869.08898616785
 20
3199.207328411627
 30
0.0
 11
14920.11351121807
 21
3190.210327967439
 31
0.0
  0
ARC
  5
1ABCD
330
747D
100
AcDbEntity
  8
細線
 48
5.0
100
AcDbCircle
 10
14900.62958141816
 20
3269.5
 30
0.0
 40
0.5
100
AcDbArc
 50
0.0000000000001527
 51
90.0
  0
ARC
  5
1ABCE
330
747D
100
AcDbEntity
  8
細線
 48
5.0
100
AcDbCircle
 10
14924.67738249628
 20
3243.832460721685
 30
0.0
 40
1.0
100
AcDbArc
 50
355.2322728781318
 51
79.9999999999998
  0
LINE
  5
1ABCF
330
747D
100
AcDbEntity
  8
細線
 48
5.0
100
AcDbLine
 10
14901.12958141816
 20
3249.0
 30
0.0
 11
14896.38898616785
 21
3222.114748342766
 31
0.0
  0
LINE
  5
1ABD0
330
747D
100
AcDbEntity
  8
細線
 48
5.0
100
AcDbLine
 10
14901.12958141816
 20
3249.0
 30
0.0
 11
14924.85103067395
 21
3244.817268474697
 31
0.0
  0
LINE
  5
1ABD1
330
747D
100
AcDbEntity
  8
細線
 48
5.0
100
AcDbLine
 10
14901.12958141816
 20
3269.5
 30
0.0
 11
14901.12958141816
 21
3249.0
 31
0.0
  0
LINE
  5
1ABD2
330
747D
100
AcDbEntity
  8
細線
 48
5.0
100
AcDbLine
 10
14898.82958141816
 20
3343.0
 30
0.0
 11
14898.82958141816
 21
3270.0
 31
0.0
  0
ARC
  5
1ABD3
330
747D
100
AcDbEntity
  8
細線
 48
5.0
100
AcDbCircle
 10
14864.32958141816
 20
3269.5
 30
0.0
 40
0.5
100
AcDbArc
 50
359.9999999999998
 51
90.0
  0
ARC
  5
1ABD4
330
747D
100
AcDbEntity
  8
細線
 48
5.0
100
AcDbCircle
 10
14847.02958141816
 20
3269.5
 30
0.0
 40
0.5
100
AcDbArc
 50
90.0
 51
180.0
  0
LINE
  5
1ABD5
330
747D
100
AcDbEntity
  8
細線
 48
5.0
100
AcDbLine
 10
14864.32958141816
 20
3270.0
 30
0.0
 11
14847.02958141816
 21
3270.0
 31
0.0
  0
LINE
  5
1ABD6
330
747D
100
AcDbEntity
  8
細線
 48
5.0
100
AcDbLine
 10
14846.52958141816
 20
3269.5
 30
0.0
 11
14846.52958141816
 21
3226.09258006886
 31
0.0
  0
LINE
  5
1ABD7
330
747D
100
AcDbEntity
  8
細線
 48
5.0
100
AcDbLine
 10
14864.82958141816
 20
3269.5
 30
0.0
 11
14864.82958141816
 21
3219.550400232094
 31
0.0
  0
LINE
  5
1ABD8
330
747D
100
AcDbEntity
  8
細線
 48
5.0
100
AcDbLine
 10
14883.32958141816
 20
3270.0
 30
0.0
 11
14864.32958141816
 21
3270.0
 31
0.0
  0
ARC
  5
1ABD9
330
747D
100
AcDbEntity
  8
細線
 48
5.0
100
AcDbCircle
 10
14883.32958141816
 20
3269.5
 30
0.0
 40
0.5
100
AcDbArc
 50
90.0
 51
180.0000000000001
  0
LINE
  5
1ABDA
330
747D
100
AcDbEntity
  8
細線
 48
5.0
100
AcDbLine
 10
14861.82958141816
 20
3343.0
 30
0.0
 11
14861.82958141816
 21
3270.0
 31
0.0
  0
LINE
  5
1ABDB
330
747D
100
AcDbEntity
  8
細線
 48
5.0
100
AcDbLine
 10
14885.82958141816
 20
3343.0
 30
0.0
 11
14885.82958141816
 21
3270.0
 31
0.0
  0
LINE
  5
1ABDC
330
747D
100
AcDbEntity
  8
細線
 48
5.0
100
AcDbLine
 10
14848.82958141816
 20
3343.0
 30
0.0
 11
14848.82958141816
 21
3270.0
 31
0.0
  0
LINE
  5
1ABDD
330
747D
100
AcDbEntity
  8
細線
 48
5.0
100
AcDbLine
 10
14900.62958141816
 20
3270.0
 30
0.0
 11
14883.32958141816
 21
3270.0
 31
0.0
  0
LINE
  5
1ABDE
330
747D
100
AcDbEntity
  8
細線
 48
5.0
100
AcDbLine
 10
14847.62958141817
 20
3343.0
 30
0.0
 11
14847.62958141816
 21
3363.0
 31
0.0
  0
LINE
  5
1ABDF
330
747D
100
AcDbEntity
  8
細線
 48
5.0
100
AcDbLine
 10
14900.02958141817
 20
3343.0
 30
0.0
 11
14900.02958141817
 21
3363.0
 31
0.0
  0
LINE
  5
1ABE0
330
747D
100
AcDbEntity
  8
細線
 48
5.0
100
AcDbLine
 10
14844.04554596898
 20
3343.0
 30
0.0
 11
14900.02958141817
 21
3342.999999999998
 31
0.0
  0
LINE
  5
1ABE1
330
747D
100
AcDbEntity
  8
細線
 48
5.0
100
AcDbLine
 10
14847.62958141816
 20
4307.5
 30
0.0
 11
14900.02958141817
 21
4307.500000000001
 31
0.0
  0
LINE
  5
1ABE2
330
747D
100
AcDbEntity
  8
細線
 48
5.0
100
AcDbLine
 10
14847.62958141816
 20
4287.5
 30
0.0
 11
14900.02958141817
 21
4287.5
 31
0.0
  0
LINE
  5
1ABE3
330
747D
100
AcDbEntity
  8
細線
 48
5.0
100
AcDbLine
 10
14900.02958141817
 20
4307.5
 30
0.0
 11
14900.02958141817
 21
4287.5
 31
0.0
  0
LINE
  5
1ABE4
330
747D
100
AcDbEntity
  8
細線
 48
5.0
100
AcDbLine
 10
14847.62958141816
 20
4307.5
 30
0.0
 11
14847.62958141816
 21
4287.5
 31
0.0
  0
ARC
  5
1ABE5
330
747D
100
AcDbEntity
  8
細線
 48
5.0
100
AcDbCircle
 10
14842.32958141817
 20
5319.809238873037
 30
0.0
 40
1.0
100
AcDbArc
 50
90.0
 51
180.0
  0
LINE
  5
1ABE6
330
747D
100
AcDbEntity
  8
細線
 48
5.0
100
AcDbLine
 10
14846.52958141817
 20
5300.809238873037
 30
0.0
 11
14841.81820325259
 21
5306.245444448709
 31
0.0
  0
ARC
  5
1ABE7
330
747D
100
AcDbEntity
  8
細線
 48
5.0
100
AcDbCircle
 10
14853.82958141817
 20
5320.809238873036
 30
0.0
 40
10.0
100
AcDbArc
 50
180.0
 51
270.0
  0
LINE
  5
1ABE8
330
747D
100
AcDbEntity
  8
細線
 48
5.0
100
AcDbLine
 10
14822.82958141817
 20
5360.0
 30
0.0
 11
14843.82958141817
 21
5360.0
 31
0.0
  0
ARC
  5
1ABE9
330
747D
100
AcDbEntity
  8
細線
 48
5.0
100
AcDbCircle
 10
14839.82958141817
 20
5308.0
 30
0.0
 40
3.0
100
AcDbArc
 50
270.0
 51
317.6846849512558
  0
LINE
  5
1ABEA
330
747D
100
AcDbEntity
  8
細線
 48
5.0
100
AcDbLine
 10
14822.82958141817
 20
5271.400000000001
 30
0.0
 11
14841.95677218061
 21
5252.846624960439
 31
0.0
  0
LINE
  5
1ABEB
330
747D
100
AcDbEntity
  8
細線
 48
5.0
100
AcDbLine
 10
14822.82958141817
 20
5232.0
 30
0.0
 11
14900.02958141817
 21
5232.0
 31
0.0
  0
ARC
  5
1ABEC
330
747D
100
AcDbEntity
  8
細線
 48
5.0
100
AcDbCircle
 10
14844.04554596898
 20
5255.0
 30
0.0
 40
3.0
100
AcDbArc
 50
225.8724571229025
 51
270.0000000000009
  0
DIMENSION
  5
1ABED
330
747D
100
AcDbEntity
  8
寸法
 48
50.0
100
AcDbDimension
  2
*D35
 10
14917.82958141817
 20
6238.281130716521
 30
0.0
 11
15250.38863653628
 21
6238.281130716521
 31
0.0
 12
631.0117701604176
 22
-11877.52646466355
 32
0.0
 70
   160
 71
     5
 42
-1.0
  3
INABA_S50G
100
AcDbAlignedDimension
 13
14822.82958141817
 23
5488.33701822684
 33
0.0
 14
14917.82958141817
 24
5485.0
 34
0.0
100
AcDbRotatedDimension
1001
ACAD
1000
DSTYLE
1002
{
1002
}
  0
LINE
  5
1ABEE
330
747D
100
AcDbEntity
  8
部品1
100
AcDbLine
 10
14822.82958141817
 20
5315.0
 30
0.0
 11
14822.82958141817
 21
5275.0
 31
0.0
  0
ARC
  5
1ABEF
330
747D
100
AcDbEntity
  8
細線
 48
5.0
100
AcDbCircle
 10
14843.32958141817
 20
5307.555305525544
 30
0.0
 40
2.0
100
AcDbArc
 50
179.9999999999999
 51
220.914383220025
  0
LINE
  5
1ABF0
330
747D
100
AcDbEntity
  8
細線
 48
5.0
100
AcDbLine
 10
14841.32958141817
 20
5319.809238873037
 30
0.0
 11
14841.32958141817
 21
5307.555305525544
 31
0.0
  0
LINE
  5
1ABF1
330
747D
100
AcDbEntity
  8
細線
 48
5.0
100
AcDbLine
 10
14822.82958141817
 20
5305.0
 30
0.0
 11
14839.82958141817
 21
5305.0
 31
0.0
  0
LINE
  5
1ABF2
330
747D
100
AcDbEntity
  8
細線
 48
5.0
100
AcDbLine
 10
14898.82958141816
 20
5345.809238873036
 30
0.0
 11
14903.82958141817
 21
5345.809238873036
 31
0.0
  0
LINE
  5
1ABF3
330
747D
100
AcDbEntity
  8
細線
 48
5.0
100
AcDbLine
 10
14852.52958141817
 20
5361.85562509697
 30
0.0
 11
14852.52958141817
 21
5350.509238873037
 31
0.0
  0
LINE
  5
1ABF4
330
747D
100
AcDbEntity
  8
細線
 48
5.0
100
AcDbLine
 10
14903.82958141817
 20
5320.809238873036
 30
0.0
 11
14905.32958141817
 21
5320.809238873036
 31
0.0
  0
LINE
  5
1ABF5
330
747D
100
AcDbEntity
  8
細線
 48
5.0
100
AcDbLine
 10
14898.82958141816
 20
5335.509238873037
 30
0.0
 11
14898.82958141816
 21
5345.809238873036
 31
0.0
  0
LINE
  5
1ABF6
330
747D
100
AcDbEntity
  8
細線
 48
5.0
100
AcDbLine
 10
14898.82958141816
 20
5345.809238873036
 30
0.0
 11
14898.82958141816
 21
5345.809238873036
 31
0.0
  0
LINE
  5
1ABF7
330
747D
100
AcDbEntity
  8
細線
 48
5.0
100
AcDbLine
 10
14904.32958141817
 20
5320.809238873036
 30
0.0
 11
14904.32958141817
 21
5320.809238873036
 31
0.0
  0
ARC
  5
1ABF8
330
747D
100
AcDbEntity
  8
細線
 48
5.0
100
AcDbCircle
 10
14905.32958141817
 20
5319.809238873037
 30
0.0
 40
1.0
100
AcDbArc
 50
0.0
 51
90.0
  0
LINE
  5
1ABF9
330
747D
100
AcDbEntity
  8
細線
 48
5.0
100
AcDbLine
 10
14894.62958141816
 20
5333.009238873037
 30
0.0
 11
14894.62958141816
 21
5333.009238873037
 31
0.0
  0
ARC
  5
1ABFA
330
747D
100
AcDbEntity
  8
細線
 48
5.0
100
AcDbCircle
 10
14897.12958141816
 20
5333.009238873037
 30
0.0
 40
2.5
100
AcDbArc
 50
90.0
 51
180.0
  0
ARC
  5
1ABFB
330
747D
100
AcDbEntity
  8
細線
 48
5.0
100
AcDbCircle
 10
14892.12958141816
 20
5333.009238873037
 30
0.0
 40
2.5
100
AcDbArc
 50
270.0
 51
0.0
  0
LINE
  5
1ABFC
330
747D
100
AcDbEntity
  8
細線
 48
5.0
100
AcDbLine
 10
14897.12958141816
 20
5335.509238873037
 30
0.0
 11
14898.82958141816
 21
5335.509238873037
 31
0.0
  0
LINE
  5
1ABFD
330
747D
100
AcDbEntity
  8
細線
 48
5.0
100
AcDbLine
 10
14903.82958141817
 20
5320.809238873036
 30
0.0
 11
14903.82958141817
 21
5345.809238873036
 31
0.0
  0
LINE
  5
1ABFE
330
747D
100
AcDbEntity
  8
細線
 48
5.0
100
AcDbLine
 10
14842.32958141817
 20
5320.809238873036
 30
0.0
 11
14843.82958141817
 21
5320.809238873036
 31
0.0
  0
LINE
  5
1ABFF
330
747D
100
AcDbEntity
  8
細線
 48
5.0
100
AcDbLine
 10
14843.32958141817
 20
5320.809238873036
 30
0.0
 11
14843.32958141817
 21
5320.809238873036
 31
0.0
  0
LINE
  5
1AC00
330
747D
100
AcDbEntity
  8
細線
 48
5.0
100
AcDbLine
 10
14843.82958141817
 20
5359.809238873037
 30
0.0
 11
14843.82958141817
 21
5332.809238873037
 31
0.0
  0
LINE
  5
1AC01
330
747D
100
AcDbEntity
  8
細線
 48
5.0
100
AcDbLine
 10
14843.82958141817
 20
5362.071889058359
 30
0.0
 11
14843.82958141817
 21
5320.809238873036
 31
0.0
  0
ARC
  5
1AC02
330
747D
100
AcDbEntity
  8
細線
 48
5.0
100
AcDbCircle
 10
14872.52958141817
 20
5350.509238873037
 30
0.0
 40
20.0
100
AcDbArc
 50
180.0
 51
270.0
  0
LINE
  5
1AC03
330
747D
100
AcDbEntity
  8
細線
 48
5.0
100
AcDbLine
 10
14872.52958141817
 20
5330.509238873037
 30
0.0
 11
14892.12958141816
 21
5330.509238873037
 31
0.0
  0
LINE
  5
1AC04
330
747D
100
AcDbEntity
  8
細線
 48
5.0
100
AcDbLine
 10
14901.12958141816
 20
5300.809238873037
 30
0.0
 11
14905.84095958375
 21
5306.245444448709
 31
0.0
  0
ARC
  5
1AC05
330
747D
100
AcDbEntity
  8
細線
 48
5.0
100
AcDbCircle
 10
14904.32958141817
 20
5307.555305525544
 30
0.0
 40
2.0
100
AcDbArc
 50
319.0856167799749
 51
359.9999999999999
  0
ARC
  5
1AC06
330
747D
100
AcDbEntity
  8
細線
 48
5.0
100
AcDbCircle
 10
14900.62958141816
 20
5287.309238873036
 30
0.0
 40
0.5
100
AcDbArc
 50
270.0
 51
0.0
  0
LINE
  5
1AC07
330
747D
100
AcDbEntity
  8
細線
 48
5.0
100
AcDbLine
 10
14898.82958141817
 20
5286.809238873036
 30
0.0
 11
14898.82958141817
 21
5252.0
 31
0.0
  0
LINE
  5
1AC08
330
747D
100
AcDbEntity
  8
細線
 48
5.0
100
AcDbLine
 10
14885.82958141817
 20
5286.809238873036
 30
0.0
 11
14885.82958141817
 21
5252.0
 31
0.0
  0
LINE
  5
1AC09
330
747D
100
AcDbEntity
  8
細線
 48
5.0
100
AcDbLine
 10
14901.12958141816
 20
5300.809238873037
 30
0.0
 11
14901.12958141816
 21
5287.309238873036
 31
0.0
  0
LINE
  5
1AC0A
330
747D
100
AcDbEntity
  8
細線
 48
5.0
100
AcDbLine
 10
14882.82958141817
 20
5290.809238873037
 30
0.0
 11
14882.82958141817
 21
5286.809238873036
 31
0.0
  0
LINE
  5
1AC0B
330
747D
100
AcDbEntity
  8
細線
 48
5.0
100
AcDbLine
 10
14867.82958141817
 20
5293.809238873037
 30
0.0
 11
14879.82958141817
 21
5293.809238873037
 31
0.0
  0
LINE
  5
1AC0C
330
747D
100
AcDbEntity
  8
細線
 48
5.0
100
AcDbLine
 10
14864.82958141817
 20
5290.809238873037
 30
0.0
 11
14864.82958141817
 21
5286.809238873036
 31
0.0
  0
LINE
  5
1AC0D
330
747D
100
AcDbEntity
  8
細線
 48
5.0
100
AcDbLine
 10
14861.82958141817
 20
5286.809238873036
 30
0.0
 11
14861.82958141817
 21
5252.0
 31
0.0
  0
ARC
  5
1AC0E
330
747D
100
AcDbEntity
  8
細線
 48
5.0
100
AcDbCircle
 10
14867.82958141817
 20
5290.809238873037
 30
0.0
 40
3.0
100
AcDbArc
 50
90.0
 51
180.0
  0
ARC
  5
1AC0F
330
747D
100
AcDbEntity
  8
細線
 48
5.0
100
AcDbCircle
 10
14847.02958141816
 20
5287.309238873036
 30
0.0
 40
0.5
100
AcDbArc
 50
180.0
 51
270.0
  0
LINE
  5
1AC10
330
747D
100
AcDbEntity
  8
細線
 48
5.0
100
AcDbLine
 10
14848.82958141816
 20
5286.809238873036
 30
0.0
 11
14848.82958141817
 21
5252.0
 31
0.0
  0
LINE
  5
1AC11
330
747D
100
AcDbEntity
  8
細線
 48
5.0
100
AcDbLine
 10
14846.52958141817
 20
5300.809238873037
 30
0.0
 11
14846.52958141817
 21
5287.309238873036
 31
0.0
  0
LINE
  5
1AC12
330
747D
100
AcDbEntity
  8
細線
 48
5.0
100
AcDbLine
 10
14853.82958141817
 20
5310.809238873037
 30
0.0
 11
14893.82958141817
 21
5310.809238873037
 31
0.0
  0
LINE
  5
1AC13
330
747D
100
AcDbEntity
  8
細線
 48
5.0
100
AcDbLine
 10
14847.02958141816
 20
5286.809238873036
 30
0.0
 11
14900.62958141816
 21
5286.809238873036
 31
0.0
  0
ARC
  5
1AC14
330
747D
100
AcDbEntity
  8
細線
 48
5.0
100
AcDbCircle
 10
14879.82958141817
 20
5290.809238873037
 30
0.0
 40
3.0
100
AcDbArc
 50
0.0
 51
90.0
  0
ARC
  5
1AC15
330
747D
100
AcDbEntity
  8
細線
 48
5.0
100
AcDbCircle
 10
14893.82958141817
 20
5320.809238873036
 30
0.0
 40
10.0
100
AcDbArc
 50
270.0
 51
0.0
  0
LINE
  5
1AC16
330
747D
100
AcDbEntity
  8
細線
 48
5.0
100
AcDbLine
 10
14906.32958141817
 20
5319.809238873037
 30
0.0
 11
14906.32958141817
 21
5307.555305525544
 31
0.0
  0
LINE
  5
1AC17
330
747D
100
AcDbEntity
  8
部品1
100
AcDbLine
 10
14898.33578614472
 20
5477.055403573377
 30
0.0
 11
14895.71977994811
 21
5484.088160010451
 31
0.0
  0
LINE
  5
1AC18
330
747D
100
AcDbEntity
  8
部品1
100
AcDbLine
 10
14917.74287520147
 20
5458.848097685026
 30
0.0
 11
14909.54444257119
 21
5381.821266955434
 31
0.0
  0
LINE
  5
1AC19
330
747D
100
AcDbEntity
  8
部品1
100
AcDbLine
 10
14906.17676303539
 20
5378.52600755111
 30
0.0
 11
14905.77792395765
 21
5374.778790062708
 31
0.0
  0
ARC
  5
1AC1A
330
747D
100
AcDbEntity
  8
部品1
 48
50.0
100
AcDbCircle
 10
14908.3511825403
 20
5381.948272855596
 30
0.0
 40
1.199999999999999
100
AcDbArc
 50
274.830006122604
 51
353.924536124901
  0
ARC
  5
1AC1B
330
747D
100
AcDbEntity
  8
部品1
 48
50.0
100
AcDbCircle
 10
14908.66272143308
 20
5378.261411925771
 30
0.0
 40
2.5
100
AcDbArc
 50
94.83000612260093
 51
173.9245361249088
  0
ARC
  5
1AC1C
330
747D
100
AcDbEntity
  8
部品1
100
AcDbCircle
 10
14902.32958141817
 20
5460.485286065472
 30
0.0
 40
15.5
100
AcDbArc
 50
353.924536124901
 51
88.13874351680366
  0
LINE
  5
1AC1D
330
747D
100
AcDbEntity
  8
細線
 48
50.0
100
AcDbLine
 10
14880.47261773352
 20
5486.707450043188
 30
0.0
 11
14876.39609294603
 21
5361.262353105303
 31
0.0
  0
ARC
  5
1AC1E
330
747D
100
AcDbEntity
  8
部品1
100
AcDbCircle
 10
14892.43937643105
 20
5482.867933488349
 30
0.0
 40
3.5
100
AcDbArc
 50
20.40391857757644
 51
88.96475328401214
  0
ARC
  5
1AC1F
330
747D
100
AcDbEntity
  8
部品1
100
AcDbCircle
 10
14890.36498189196
 20
5376.419282939831
 30
0.0
 40
15.5
100
AcDbArc
 50
269.0887044041854
 51
353.9245361249208
  0
ARC
  5
1AC20
330
747D
100
AcDbEntity
  8
部品1
100
AcDbCircle
 10
14899.76128014115
 20
5477.525647802748
 30
0.0
 40
1.5
100
AcDbArc
 50
200.4039185775898
 51
269.0981540988988
  0
LINE
  5
1AC21
330
747D
100
AcDbEntity
  8
部品1
 48
50.0
100
AcDbLine
 10
14899.73767084558
 20
5476.025833613869
 30
0.0
 11
14902.83301119892
 21
5475.977108374543
 31
0.0
  0
LINE
  5
1AC22
330
747D
100
AcDbEntity
  8
細線
 48
5.0
100
AcDbLine
 10
14844.04554596898
 20
5252.0
 30
0.0
 11
14900.02958141817
 21
5252.0
 31
0.0
  0
LINE
  5
1AC23
330
747D
100
AcDbEntity
  8
細線
 48
5.0
100
AcDbLine
 10
14900.02958141817
 20
5252.0
 30
0.0
 11
14900.02958141817
 21
5232.0
 31
0.0
  0
LINE
  5
1AC24
330
747D
100
AcDbEntity
  8
細線
 48
5.0
100
AcDbLine
 10
14847.62958141817
 20
5252.0
 30
0.0
 11
14847.62958141817
 21
5232.0
 31
0.0
  0
MTEXT
  5
1AF9F
102
{ACAD_REACTORS
330
1AFA0
102
}
330
747D
100
AcDbEntity
  8
部品1
 62
     7
 48
50.0
100
AcDbMText
 10
13806.06372606969
 20
8716.282041753727
 30
0.0
 40
150.0
 41
0.0
 71
     4
 72
     1
  1
\A1;根太
  7
STYLE1
 73
     1
 44
1.0
  0
LEADER
  5
1AFA0
330
747D
100
AcDbEntity
  8
寸法
 48
50.0
100
AcDbLeader
  3
INABA_S50G
 71
     0
 73
     0
 74
     0
 75
     1
 40
150.0
 41
330.0
 76
     3
 10
13477.82958141817
 20
9382.720225287025
 30
0.0
 10
13656.06372606969
 20
8616.282041753727
 30
0.0
 10
13781.06372606969
 20
8616.282041753727
 30
0.0
340
1AF9F
1001
ACAD
1000
DSTYLE
1002
{
1070
     6
1000
DOTSMALL
1002
}
  0
MTEXT
  5
1AFA1
102
{ACAD_REACTORS
330
1AFA2
102
}
330
747D
100
AcDbEntity
  8
部品1
 62
     7
 48
50.0
100
AcDbMText
 10
12874.09060856884
 20
8716.282041753725
 30
0.0
 40
150.0
 41
0.0
 71
     6
 72
     1
  1
\A1;土台中央
  7
STYLE1
 73
     1
 44
1.0
  0
LEADER
  5
1AFA2
330
747D
100
AcDbEntity
  8
寸法
 48
50.0
100
AcDbLeader
  3
INABA_S50G
 71
     0
 73
     0
 75
     1
 40
150.0
 41
720.0000000000003
 76
     3
 10
13103.20823510304
 20
9382.720225287021
 30
0.0
 10
13024.09060856884
 20
8616.282041753725
 30
0.0
 10
12899.09060856884
 20
8616.282041753725
 30
0.0
340
1AFA1
1001
ACAD
1000
DSTYLE
1002
{
1070
     6
1000
DOTSMALL
1002
}
  0
MTEXT
  5
1AFA3
102
{ACAD_REACTORS
330
1AFA4
102
}
330
747D
100
AcDbEntity
  8
部品1
 62
     7
 48
50.0
100
AcDbMText
 10
14472.3983798669
 20
8716.282041753727
 30
0.0
 40
150.0
 41
0.0
 71
     4
 72
     1
  1
\A1;ジョイントカバー
  7
STYLE1
 73
     1
 44
1.0
  0
LEADER
  5
1AFA4
330
747D
100
AcDbEntity
  8
寸法
 48
50.0
100
AcDbLeader
  3
INABA_S50G
 71
     0
 73
     0
 74
     0
 75
     1
 40
150.0
 41
1397.5
 76
     3
 10
14049.06618060768
 20
9547.434887568501
 30
0.0
 10
14322.3983798669
 20
8616.282041753727
 30
0.0
 10
14447.3983798669
 20
8616.282041753727
 30
0.0
340
1AFA3
1001
ACAD
1000
DSTYLE
1002
{
1070
     6
1000
DOTSMALL
1002
}
  0
TEXT
  5
1AFA5
330
747D
100
AcDbEntity
  8
部品1
100
AcDbText
 10
13251.02314748547
 20
7396.814409441933
 30
0.0
 40
225.0
  1
断面図
  7
STYLE2
100
AcDbText
  0
LINE
  5
1AFA6
330
747D
100
AcDbEntity
  8
部品1
100
AcDbLine
 10
13111.6040262278
 20
7310.010941144058
 30
0.0
 11
14384.05513660853
 21
7310.010941144058
 31
0.0
  0
LINE
  5
1AFA7
330
747D
100
AcDbEntity
  8
部品1
100
AcDbLine
 10
14384.05513660853
 20
7709.831477053279
 30
0.0
 11
13111.6040262278
 21
7709.831477053279
 31
0.0
  0
LINE
  5
1AFA8
330
747D
100
AcDbEntity
  8
部品1
100
AcDbLine
 10
13111.6040262278
 20
7709.831477053279
 30
0.0
 11
13111.6040262278
 21
7310.010941144058
 31
0.0
  0
LINE
  5
1AFA9
330
747D
100
AcDbEntity
  8
部品1
100
AcDbLine
 10
14384.05513660853
 20
7310.010941144058
 30
0.0
 11
14384.05513660853
 21
7709.831477053279
 31
0.0
  0
MTEXT
  5
1AFAA
102
{ACAD_REACTORS
330
1AFAB
102
}
330
747D
100
AcDbEntity
  8
寸法
 62
     7
 48
50.0
100
AcDbMText
 10
13785.30087063654
 20
11811.40987824757
 30
0.0
 40
150.0
 41
0.0
 71
     6
 72
     1
  1
\A1;母屋中
  7
STYLE1
 73
     1
 44
1.0
  0
LEADER
  5
1AFAB
330
747D
100
AcDbEntity
  8
寸法
 48
50.0
100
AcDbLeader
  3
INABA_S50G
 71
     0
 73
     0
 75
     1
 40
150.0
 41
540.0000000000002
 76
     3
 10
14012.82958141817
 20
11442.38073961986
 30
0.0
 10
13935.30087063654
 20
11711.40987824757
 30
0.0
 10
13810.30087063654
 20
11711.40987824757
 30
0.0
340
1AFAA
1001
ACAD
1000
DSTYLE
1002
{
1070
     6
1000
DOTSMALL
1002
}
  0
LINE
  5
1AFAC
330
747D
100
AcDbEntity
  8
細線
 48
50.0
100
AcDbLine
 10
12872.82958141817
 20
11393.73679736197
 30
0.0
 11
14622.82958141816
 21
11393.73679736197
 31
0.0
  0
LINE
  5
1AFAD
330
747D
100
AcDbEntity
  8
部品1
 48
50.0
100
AcDbLine
 10
12858.32958141817
 20
11367.59466173824
 30
0.0
 11
14637.32958141817
 21
11367.59466173824
 31
0.0
  0
LINE
  5
1AFAE
330
747D
100
AcDbEntity
  8
細線
 48
50.0
100
AcDbLine
 10
12872.82958141817
 20
11413.73679736196
 30
0.0
 11
14622.82958141816
 21
11413.73679736196
 31
0.0
  0
LINE
  5
1AFAF
330
747D
100
AcDbEntity
  8
部品1
 48
50.0
100
AcDbLine
 10
12702.34578971423
 20
11633.20342677758
 30
0.0
 11
14757.50261261331
 21
11575.10415954443
 31
0.0
  0
DIMENSION
  5
1AFB0
330
747D
100
AcDbEntity
  8
寸法
 48
50.0
100
AcDbDimension
  2
*D36
 10
14687.82958141817
 20
12327.01792807848
 30
0.0
 11
13747.82958141817
 21
12427.01792807848
 31
0.0
 70
    32
  1
柱外寸法 <>
 71
     5
 42
-1.0
  3
INABA_S50G
100
AcDbAlignedDimension
 13
12807.82958141817
 23
11588.73679736197
 33
0.0
 14
14687.82958141817
 24
11576.3631811976
 34
0.0
100
AcDbRotatedDimension
1001
ACAD
1000
DSTYLE
1002
{
1070
   287
1070
     4
1070
    75
1070
     1
1070
   279
1070
     1
1002
}
  0
MTEXT
  5
1AFB1
102
{ACAD_REACTORS
330
1AFB2
102
}
330
747D
100
AcDbEntity
  8
部品1
 62
     7
 48
50.0
100
AcDbMText
 10
13136.05948236589
 20
11999.83557484575
 30
0.0
 40
150.0
 41
0.0
 71
     4
 72
     1
  1
\A1;屋根パネル
  7
STYLE1
 73
     1
 44
1.0
  0
LEADER
  5
1AFB2
330
747D
100
AcDbEntity
  8
寸法
 48
50.0
100
AcDbLeader
  3
INABA_S50G
 71
     0
 73
     0
 74
     0
 75
     1
 40
150.0
 41
900.0
 76
     3
 10
12897.07682066774
 20
11600.0347365094
 30
0.0
 10
12986.05948236589
 20
11899.83557484575
 30
0.0
 10
13111.05948236589
 20
11899.83557484575
 30
0.0
340
1AFB1
1001
ACAD
1000
DSTYLE
1002
{
1070
     6
1000
DOTSMALL
1002
}
  0
LINE
  5
1AFB3
330
747D
100
AcDbEntity
  8
細線
 48
50.0
100
AcDbLine
 10
12700.32645796807
 20
11600.02980182694
 30
0.0
 11
14734.30984145466
 21
11494.87046700399
 31
0.0
  0
LINE
  5
1AFB4
330
747D
100
AcDbEntity
  8
細線
 48
50.0
100
AcDbLine
 10
12701.46236672542
 20
11622.00045751345
 30
0.0
 11
14735.44575021202
 21
11516.84112269049
 31
0.0
  0
MTEXT
  5
1AFB5
102
{ACAD_REACTORS
330
1AFB6
102
}
330
747D
100
AcDbEntity
  8
寸法
 62
     7
 48
50.0
100
AcDbMText
 10
14400.28840950222
 20
11192.92239508256
 30
0.0
 40
150.0
 41
0.0
 71
     6
 72
     1
  1
\A1;回リ縁
  7
STYLE1
 73
     1
 44
1.0
  0
LEADER
  5
1AFB6
330
747D
100
AcDbEntity
  8
寸法
 48
50.0
100
AcDbLeader
  3
INABA_S50G
 71
     0
 73
     0
 75
     1
 40
150.0
 41
530.0000000000001
 76
     3
 10
14624.17272716867
 20
11380.57994311248
 30
0.0
 10
14550.28840950222
 20
11092.92239508256
 30
0.0
 10
14425.28840950222
 20
11092.92239508256
 30
0.0
340
1AFB5
1001
ACAD
1000
DSTYLE
1002
{
1070
     6
1000
DOTSMALL
1002
}
  0
DIMENSION
  5
1AFB7
330
747D
100
AcDbEntity
  8
寸法
 48
50.0
100
AcDbDimension
  2
*D37
 10
14782.82958141817
 20
12643.17369887014
 30
0.0
 11
13727.82958141817
 21
12743.18846264967
 31
0.0
 70
    32
 71
     5
 42
-1.0
  3
INABA_S50G
100
AcDbAlignedDimension
 13
12672.82958141817
 23
11633.73679736197
 33
0.0
 14
14782.82958141817
 24
11573.73679736197
 34
0.0
100
AcDbRotatedDimension
  0
LINE
  5
1AFB8
330
747D
100
AcDbEntity
  8
細線
 48
50.0
100
AcDbLine
 10
12858.32958141817
 20
9430.736797361971
 30
0.0
 11
14637.32958141817
 21
9430.736797361971
 31
0.0
  0
LINE
  5
1AFB9
330
747D
100
AcDbEntity
  8
細線
 48
50.0
100
AcDbLine
 10
14637.32958141817
 20
9418.736797361971
 30
0.0
 11
12858.32958141817
 21
9418.736797361971
 31
0.0
  0
LINE
  5
1AFBA
330
747D
100
AcDbEntity
  8
部品1
 48
50.0
100
AcDbLine
 10
12858.32958141817
 20
9470.73679736197
 30
0.0
 11
14637.32958141817
 21
9470.73679736197
 31
0.0
  0
LINE
  5
1AFBB
330
747D
100
AcDbEntity
  8
部品1
 48
50.0
100
AcDbLine
 10
12807.82958141817
 20
9363.736797361971
 30
0.0
 11
14687.82958141817
 21
9363.736797361971
 31
0.0
  0
LINE
  5
1AFBC
330
747D
100
AcDbEntity
  8
Ｇ．Ｌ
 48
50.0
100
AcDbLine
 10
11424.2050880862
 20
9228.736797361971
 30
0.0
 11
16471.77176170856
 21
9228.736797361971
 31
0.0
  0
DIMENSION
  5
1AFBD
330
747D
100
AcDbEntity
  8
寸法
 48
50.0
100
AcDbDimension
  2
*D38
 10
11917.63480123898
 20
9418.736797361971
 30
0.0
 11
11817.63480123898
 21
10391.23679736196
 31
0.0
 70
    32
 71
     5
 42
-1.0
  3
INABA_S50G
100
AcDbAlignedDimension
 13
12807.82958141817
 23
11363.73679736196
 33
0.0
 14
12807.82958141817
 24
9418.736797361971
 34
0.0
 50
90.0
100
AcDbRotatedDimension
  0
LINE
  5
1AFBE
330
747D
100
AcDbEntity
  8
部品1
 48
50.0
100
AcDbLine
 10
12807.82958141817
 20
11588.73679736197
 30
0.0
 11
12807.82958141817
 21
9418.736797361971
 31
0.0
  0
LINE
  5
1AFBF
330
747D
100
AcDbEntity
  8
部品1
 48
50.0
100
AcDbLine
 10
12858.32958141817
 20
11378.73679736196
 30
0.0
 11
12858.32958141817
 21
9430.736797361971
 31
0.0
  0
LINE
  5
1AFC0
330
747D
100
AcDbEntity
  8
部品1
 48
50.0
100
AcDbLine
 10
12894.32958141817
 20
11367.59466173824
 30
0.0
 11
12894.32958141817
 21
9470.73679736197
 31
0.0
  0
LINE
  5
1AFC1
330
747D
100
AcDbEntity
  8
部品1
 48
50.0
100
AcDbLine
 10
13439.82958141817
 20
11367.59466173824
 30
0.0
 11
13439.82958141817
 21
9470.73679736197
 31
0.0
  0
LINE
  5
1AFC2
330
747D
100
AcDbEntity
  8
部品1
 48
50.0
100
AcDbLine
 10
13475.82958141817
 20
11367.59466173824
 30
0.0
 11
13475.82958141817
 21
9470.73679736197
 31
0.0
  0
LINE
  5
1AFC3
330
747D
100
AcDbEntity
  8
細線
 48
50.0
100
AcDbLine
 10
12842.82958141817
 20
11378.73679736197
 30
0.0
 11
12842.82958141817
 21
9418.736797361971
 31
0.0
  0
DIMENSION
  5
1AFC4
330
747D
100
AcDbEntity
  8
寸法
 48
50.0
100
AcDbDimension
  2
*D39
 10
11583.38013607452
 20
9363.736797361967
 30
0.0
 11
11483.36537229499
 21
10498.73679736196
 31
0.0
 70
    32
 71
     5
 42
-1.0
  3
INABA_S50G
100
AcDbAlignedDimension
 13
12672.82958141816
 23
11633.73679736197
 33
0.0
 14
12807.82958141817
 24
9363.736797361967
 34
0.0
 50
90.0
100
AcDbRotatedDimension
  0
DIMENSION
  5
1AFC5
330
747D
100
AcDbEntity
  8
寸法
 48
50.0
100
AcDbDimension
  2
*D40
 10
11917.63480123898
 20
9363.736797361971
 30
0.0
 11
11917.63480123898
 21
9089.650458526433
 31
0.0
 70
   160
 71
     5
 42
-1.0
  3
INABA_S50G
100
AcDbAlignedDimension
 13
12807.82958141817
 23
9418.736797361971
 33
0.0
 14
12807.82958141817
 24
9363.736797361971
 34
0.0
 50
90.0
100
AcDbRotatedDimension
  0
LINE
  5
1AFC6
330
747D
100
AcDbEntity
  8
部品1
 48
50.0
100
AcDbLine
 10
12807.82958141817
 20
9363.736797361967
 30
0.0
 11
12807.82958141817
 21
9228.736797361971
 31
0.0
  0
LINE
  5
1AFC7
330
747D
100
AcDbEntity
  8
部品1
 48
50.0
100
AcDbLine
 10
13007.82958141817
 20
9363.736797361967
 30
0.0
 11
13007.82958141817
 21
9228.736797361971
 31
0.0
  0
LINE
  5
1AFC8
330
747D
100
AcDbEntity
  8
細線
 48
50.0
100
AcDbLine
 10
12931.62002962911
 20
9228.736797361971
 30
0.0
 11
12807.82958141817
 21
9352.52724557292
 31
0.0
  0
LINE
  5
1AFC9
330
747D
100
AcDbEntity
  8
細線
 48
50.0
100
AcDbLine
 10
12905.10352533462
 20
9228.736797361971
 30
0.0
 11
12807.82958141817
 21
9326.010741278425
 31
0.0
  0
LINE
  5
1AFCA
330
747D
100
AcDbEntity
  8
細線
 48
50.0
100
AcDbLine
 10
13007.82958141817
 20
9302.527245572919
 30
0.0
 11
12946.62002962911
 21
9363.736797361971
 31
0.0
  0
LINE
  5
1AFCB
330
747D
100
AcDbEntity
  8
細線
 48
50.0
100
AcDbLine
 10
13007.82958141817
 20
9276.010741278424
 30
0.0
 11
12920.10352533463
 21
9363.736797361973
 31
0.0
  0
LINE
  5
1AFCC
330
747D
100
AcDbEntity
  8
破線
 48
3.0
100
AcDbLine
 10
12817.82958141817
 20
9228.736797361971
 30
0.0
 11
12817.82958141817
 21
9122.736797361971
 31
0.0
  0
LINE
  5
1AFCD
330
747D
100
AcDbEntity
  8
破線
 48
3.0
100
AcDbLine
 10
12859.82958141817
 20
9228.736797361971
 30
0.0
 11
12859.82958141817
 21
9122.736797361971
 31
0.0
  0
LINE
  5
1AFCE
330
747D
100
AcDbEntity
  8
細線
 48
50.0
100
AcDbLine
 10
12738.82958141817
 20
9135.027245572921
 30
0.0
 11
12832.53913320723
 21
9228.736797361971
 31
0.0
  0
LINE
  5
1AFCF
330
747D
100
AcDbEntity
  8
破線
 48
3.0
100
AcDbLine
 10
12817.82958141817
 20
9122.736797361971
 30
0.0
 11
12859.82958141817
 21
9122.736797361971
 31
0.0
  0
LINE
  5
1AFD0
330
747D
100
AcDbEntity
  8
部品1
 48
50.0
100
AcDbLine
 10
13147.82958141817
 20
9363.736797361971
 30
0.0
 11
13147.82958141817
 21
9418.736797361971
 31
0.0
  0
LINE
  5
1AFD1
330
747D
100
AcDbEntity
  8
部品1
 48
50.0
100
AcDbLine
 10
13187.82958141817
 20
9418.736797361971
 30
0.0
 11
13187.82958141817
 21
9363.736797361971
 31
0.0
  0
LINE
  5
1AFD2
330
747D
100
AcDbEntity
  8
部品1
 48
50.0
100
AcDbLine
 10
13153.82958141817
 20
9412.73679736197
 30
0.0
 11
13153.82958141817
 21
9418.736797361971
 31
0.0
  0
LINE
  5
1AFD3
330
747D
100
AcDbEntity
  8
部品1
 48
50.0
100
AcDbLine
 10
13181.82958141817
 20
9418.736797361971
 30
0.0
 11
13181.82958141817
 21
9412.73679736197
 31
0.0
  0
LINE
  5
1AFD4
330
747D
100
AcDbEntity
  8
部品1
 48
50.0
100
AcDbLine
 10
13153.82958141817
 20
9412.73679736197
 30
0.0
 11
13181.82958141817
 21
9412.736797361969
 31
0.0
  0
LINE
  5
1AFD5
330
747D
100
AcDbEntity
  8
部品1
 48
50.0
100
AcDbLine
 10
13147.82958141817
 20
9418.736797361971
 30
0.0
 11
13153.82958141817
 21
9418.736797361971
 31
0.0
  0
LINE
  5
1AFD6
330
747D
100
AcDbEntity
  8
部品1
 48
50.0
100
AcDbLine
 10
13181.82958141817
 20
9418.736797361971
 30
0.0
 11
13187.82958141817
 21
9418.736797361971
 31
0.0
  0
LINE
  5
1AFD7
330
747D
100
AcDbEntity
  8
部品1
 48
50.0
100
AcDbLine
 10
12867.32958141817
 20
9470.73679736197
 30
0.0
 11
12867.32958141817
 21
9430.736797361971
 31
0.0
  0
LINE
  5
1AFD8
330
747D
100
AcDbEntity
  8
部品1
 48
50.0
100
AcDbLine
 10
12807.82958141817
 20
9412.73679736197
 30
0.0
 11
12807.82958141817
 21
9363.736797361971
 31
0.0
  0
LINE
  5
1AFD9
330
747D
100
AcDbEntity
  8
部品1
 48
50.0
100
AcDbLine
 10
12867.32958141817
 20
9430.736797361971
 30
0.0
 11
12858.32958141817
 21
9430.736797361971
 31
0.0
  0
LINE
  5
1AFDA
330
747D
100
AcDbEntity
  8
部品1
 48
50.0
100
AcDbLine
 10
12813.82958141817
 20
9412.73679736197
 30
0.0
 11
12813.82958141817
 21
9418.736797361971
 31
0.0
  0
LINE
  5
1AFDB
330
747D
100
AcDbEntity
  8
部品1
 48
50.0
100
AcDbLine
 10
12807.82958141817
 20
9412.73679736197
 30
0.0
 11
12813.82958141817
 21
9412.73679736197
 31
0.0
  0
LINE
  5
1AFDC
330
747D
100
AcDbEntity
  8
部品1
 48
50.0
100
AcDbLine
 10
12896.32958141817
 20
9411.736797361971
 30
0.0
 11
12896.32958141817
 21
9363.736797361971
 31
0.0
  0
LINE
  5
1AFDD
330
747D
100
AcDbEntity
  8
部品1
 48
50.0
100
AcDbLine
 10
12872.32958141817
 20
9411.736797361971
 30
0.0
 11
12896.32958141817
 21
9411.736797361971
 31
0.0
  0
LINE
  5
1AFDE
330
747D
100
AcDbEntity
  8
部品1
 48
50.0
100
AcDbLine
 10
12872.32958141817
 20
9418.736797361971
 30
0.0
 11
12872.32958141817
 21
9411.736797361971
 31
0.0
  0
LINE
  5
1AFDF
330
747D
100
AcDbEntity
  8
部品1
 48
50.0
100
AcDbLine
 10
12858.32958141817
 20
9418.736797361971
 30
0.0
 11
12872.32958141817
 21
9418.736797361971
 31
0.0
  0
LINE
  5
1AFE0
330
747D
100
AcDbEntity
  8
部品1
 48
50.0
100
AcDbLine
 10
12858.32958141817
 20
9430.736797361971
 30
0.0
 11
12858.32958141817
 21
9418.736797361971
 31
0.0
  0
LINE
  5
1AFE1
330
747D
100
AcDbEntity
  8
部品1
 48
50.0
100
AcDbLine
 10
12843.32958141817
 20
9430.736797361971
 30
0.0
 11
12858.32958141817
 21
9430.736797361971
 31
0.0
  0
LINE
  5
1AFE2
330
747D
100
AcDbEntity
  8
部品1
 48
50.0
100
AcDbLine
 10
12843.32958141817
 20
9418.736797361971
 30
0.0
 11
12843.32958141817
 21
9430.736797361971
 31
0.0
  0
LINE
  5
1AFE3
330
747D
100
AcDbEntity
  8
部品1
 48
50.0
100
AcDbLine
 10
12807.82958141817
 20
9418.736797361971
 30
0.0
 11
12843.32958141817
 21
9418.736797361971
 31
0.0
  0
LINE
  5
1AFE4
330
747D
100
AcDbEntity
  8
部品1
 48
50.0
100
AcDbLine
 10
12858.32958141817
 20
9470.73679736197
 30
0.0
 11
12867.32958141817
 21
9470.73679736197
 31
0.0
  0
LINE
  5
1AFE5
330
747D
100
AcDbEntity
  8
部品1
 48
50.0
100
AcDbLine
 10
12738.82958141817
 20
9028.73679736197
 30
0.0
 11
12938.82958141817
 21
9028.73679736197
 31
0.0
  0
LINE
  5
1AFE6
330
747D
100
AcDbEntity
  8
部品1
 48
50.0
100
AcDbLine
 10
12938.82958141817
 20
9028.73679736197
 30
0.0
 11
12938.82958141817
 21
9228.736797361971
 31
0.0
  0
LINE
  5
1AFE7
330
747D
100
AcDbEntity
  8
部品1
 48
50.0
100
AcDbLine
 10
12738.82958141817
 20
9228.736797361971
 30
0.0
 11
12738.82958141817
 21
9028.73679736197
 31
0.0
  0
LINE
  5
1AFE8
330
747D
100
AcDbEntity
  8
細線
 48
50.0
100
AcDbLine
 10
12782.53913320722
 20
9028.73679736197
 30
0.0
 11
12938.82958141817
 21
9185.027245572921
 31
0.0
  0
LINE
  5
1AFE9
330
747D
100
AcDbEntity
  8
細線
 48
50.0
100
AcDbLine
 10
12738.82958141818
 20
9081.994236983929
 30
0.0
 11
12885.5721417962
 21
9228.736797361973
 31
0.0
  0
LINE
  5
1AFEA
330
747D
100
AcDbEntity
  8
細線
 48
50.0
100
AcDbLine
 10
12738.82958141817
 20
9108.510741278426
 30
0.0
 11
12859.0556375017
 21
9228.736797361971
 31
0.0
  0
LINE
  5
1AFEB
330
747D
100
AcDbEntity
  8
細線
 48
50.0
100
AcDbLine
 10
12809.05563750172
 20
9028.73679736197
 30
0.0
 11
12938.82958141817
 21
9158.510741278426
 31
0.0
  0
LINE
  5
1AFEC
330
747D
100
AcDbEntity
  8
細線
 48
50.0
100
AcDbLine
 10
12835.57214179622
 20
9028.73679736197
 30
0.0
 11
12938.82958141817
 21
9131.994236983928
 31
0.0
  0
MTEXT
  5
1AFED
102
{ACAD_REACTORS
330
1B002
102
}
330
747D
100
AcDbEntity
  8
部品1
 62
     7
 48
50.0
100
AcDbMText
 10
13517.60524733606
 20
9656.775787169863
 30
0.0
 40
150.0
 41
0.0
 71
     4
 72
     1
  1
\A1;床板
  7
STYLE1
 73
     1
 44
1.0
  0
LINE
  5
1AFEE
330
747D
100
AcDbEntity
  8
細線
 48
50.0
100
AcDbLine
 10
13847.82958141817
 20
9302.527245572919
 30
0.0
 11
13786.62002962911
 21
9363.736797361971
 31
0.0
  0
LINE
  5
1AFEF
330
747D
100
AcDbEntity
  8
部品1
 48
50.0
100
AcDbLine
 10
13847.82958141817
 20
9363.736797361967
 30
0.0
 11
13847.82958141817
 21
9228.736797361971
 31
0.0
  0
LINE
  5
1AFF0
330
747D
100
AcDbEntity
  8
細線
 48
50.0
100
AcDbLine
 10
13745.10352533462
 20
9228.736797361971
 30
0.0
 11
13647.82958141817
 21
9326.010741278425
 31
0.0
  0
LINE
  5
1AFF1
330
747D
100
AcDbEntity
  8
細線
 48
50.0
100
AcDbLine
 10
13771.62002962911
 20
9228.736797361971
 30
0.0
 11
13647.82958141817
 21
9352.52724557292
 31
0.0
  0
LINE
  5
1AFF2
330
747D
100
AcDbEntity
  8
部品1
 48
50.0
100
AcDbLine
 10
13647.82958141817
 20
9363.736797361967
 30
0.0
 11
13647.82958141817
 21
9228.736797361971
 31
0.0
  0
LINE
  5
1AFF3
330
747D
100
AcDbEntity
  8
部品1
 48
50.0
100
AcDbLine
 10
13733.82958141817
 20
9412.73679736197
 30
0.0
 11
13761.82958141817
 21
9412.736797361969
 31
0.0
  0
LINE
  5
1AFF4
330
747D
100
AcDbEntity
  8
部品1
 48
50.0
100
AcDbLine
 10
13727.82958141817
 20
9418.736797361971
 30
0.0
 11
13733.82958141817
 21
9418.736797361971
 31
0.0
  0
LINE
  5
1AFF5
330
747D
100
AcDbEntity
  8
部品1
 48
50.0
100
AcDbLine
 10
13733.82958141817
 20
9412.73679736197
 30
0.0
 11
13733.82958141817
 21
9418.736797361971
 31
0.0
  0
LINE
  5
1AFF6
330
747D
100
AcDbEntity
  8
部品1
 48
50.0
100
AcDbLine
 10
13727.82958141817
 20
9363.736797361971
 30
0.0
 11
13727.82958141817
 21
9418.736797361971
 31
0.0
  0
LINE
  5
1AFF7
330
747D
100
AcDbEntity
  8
部品1
 48
50.0
100
AcDbLine
 10
13471.82958141817
 20
9418.736797361971
 30
0.0
 11
13477.82958141817
 21
9418.736797361971
 31
0.0
  0
LINE
  5
1AFF8
330
747D
100
AcDbEntity
  8
部品1
 48
50.0
100
AcDbLine
 10
13471.82958141817
 20
9418.736797361971
 30
0.0
 11
13471.82958141817
 21
9412.73679736197
 31
0.0
  0
LINE
  5
1AFF9
330
747D
100
AcDbEntity
  8
部品1
 48
50.0
100
AcDbLine
 10
13477.82958141817
 20
9418.736797361971
 30
0.0
 11
13477.82958141817
 21
9363.736797361971
 31
0.0
  0
LINE
  5
1AFFA
330
747D
100
AcDbEntity
  8
部品1
 48
50.0
100
AcDbLine
 10
13443.82958141817
 20
9412.73679736197
 30
0.0
 11
13443.82958141817
 21
9418.736797361971
 31
0.0
  0
LINE
  5
1AFFB
330
747D
100
AcDbEntity
  8
部品1
 48
50.0
100
AcDbLine
 10
13437.82958141817
 20
9418.736797361971
 30
0.0
 11
13443.82958141817
 21
9418.736797361971
 31
0.0
  0
LINE
  5
1AFFC
330
747D
100
AcDbEntity
  8
部品1
 48
50.0
100
AcDbLine
 10
13437.82958141817
 20
9363.736797361971
 30
0.0
 11
13437.82958141817
 21
9418.736797361971
 31
0.0
  0
LINE
  5
1AFFD
330
747D
100
AcDbEntity
  8
部品1
 48
50.0
100
AcDbLine
 10
13443.82958141817
 20
9412.73679736197
 30
0.0
 11
13471.82958141817
 21
9412.736797361969
 31
0.0
  0
LINE
  5
1AFFE
330
747D
100
AcDbEntity
  8
部品1
 48
50.0
100
AcDbLine
 10
13761.82958141817
 20
9418.736797361971
 30
0.0
 11
13767.82958141817
 21
9418.736797361971
 31
0.0
  0
LINE
  5
1AFFF
330
747D
100
AcDbEntity
  8
部品1
 48
50.0
100
AcDbLine
 10
13761.82958141817
 20
9418.736797361971
 30
0.0
 11
13761.82958141817
 21
9412.73679736197
 31
0.0
  0
LINE
  5
1B000
330
747D
100
AcDbEntity
  8
部品1
 48
50.0
100
AcDbLine
 10
13767.82958141817
 20
9418.736797361971
 30
0.0
 11
13767.82958141817
 21
9363.736797361971
 31
0.0
  0
LINE
  5
1B001
330
747D
100
AcDbEntity
  8
細線
 48
50.0
100
AcDbLine
 10
13847.82958141817
 20
9276.010741278424
 30
0.0
 11
13760.10352533463
 21
9363.736797361973
 31
0.0
  0
LEADER
  5
1B002
330
747D
100
AcDbEntity
  8
寸法
 48
50.0
100
AcDbLeader
  3
INABA_S50G
 71
     0
 73
     0
 74
     0
 75
     1
 40
150.0
 41
319.9999999999999
 76
     3
 10
13331.697078994
 20
9425.668860537973
 30
0.0
 10
13367.60524733606
 20
9556.775787169861
 30
0.0
 10
13492.60524733606
 20
9556.775787169861
 30
0.0
340
1AFED
1001
ACAD
1000
DSTYLE
1002
{
1070
     6
1000
DOTSMALL
1002
}
  0
DIMENSION
  5
1B003
330
747D
100
AcDbEntity
  8
寸法
 48
50.0
100
AcDbDimension
  2
*D41
 10
12076.55458482934
 20
11625.73051236771
 30
0.0
 11
12080.65962527941
 21
11883.8044678402
 31
0.0
 70
   160
 71
     5
 42
-1.0
  3
INABA_S50G
100
AcDbAlignedDimension
 13
12693.8404644795
 23
11500.89713798174
 33
0.0
 14
12695.66947485202
 24
11615.88259237079
 34
0.0
 50
89.08870440418592
100
AcDbRotatedDimension
  0
MTEXT
  5
1B004
102
{ACAD_REACTORS
330
1B005
102
}
330
747D
100
AcDbEntity
  8
寸法
 62
     7
 48
50.0
100
AcDbMText
 10
12354.20278459666
 20
12174.32712616799
 30
0.0
 40
150.0
 41
0.0
 71
     6
 72
     1
  1
\A1;鼻隠シ前
  7
STYLE1
 73
     1
 44
1.0
  0
LEADER
  5
1B005
330
747D
100
AcDbEntity
  8
寸法
 48
50.0
100
AcDbLeader
  3
INABA_S50G
 71
     0
 73
     0
 75
     1
 40
150.0
 41
697.5
 76
     3
 10
12673.68985764767
 20
11573.78978150138
 30
0.0
 10
12504.20278459666
 20
12074.32712616799
 30
0.0
 10
12379.20278459666
 20
12074.32712616799
 30
0.0
340
1B004
1001
ACAD
1000
DSTYLE
1002
{
1070
     6
1000
DOTSMALL
1002
}
  0
DIMENSION
  5
1B006
330
747D
100
AcDbEntity
  8
寸法
 48
50.0
100
AcDbDimension
  2
*D42
 10
12807.82958141817
 20
12327.01792807849
 30
0.0
 11
12390.27052630005
 21
12327.01792807849
 31
0.0
 70
   160
 71
     5
 42
-1.0
  3
INABA_S50G
100
AcDbAlignedDimension
 13
12672.82958141817
 23
11633.73679736197
 33
0.0
 14
12807.82958141817
 24
11631.29728927309
 34
0.0
100
AcDbRotatedDimension
  0
MTEXT
  5
1B007
102
{ACAD_REACTORS
330
1B008
102
}
330
747D
100
AcDbEntity
  8
寸法
 62
     7
 48
50.0
100
AcDbMText
 10
12468.39443515959
 20
11242.78867508207
 30
0.0
 40
150.0
 41
0.0
 71
     6
 72
     1
  1
\A1;桁前
  7
STYLE1
 73
     1
 44
1.0
  0
LEADER
  5
1B008
330
747D
100
AcDbEntity
  8
寸法
 48
50.0
100
AcDbLeader
  3
INABA_S50G
 71
     0
 73
     0
 75
     1
 40
150.0
 41
337.5
 76
     3
 10
12807.82958141817
 20
11430.44622311198
 30
0.0
 10
12618.39443515959
 20
11142.78867508207
 30
0.0
 10
12493.39443515959
 20
11142.78867508207
 30
0.0
340
1B007
1001
ACAD
1000
DSTYLE
1002
{
1070
     6
1000
DOTSMALL
1002
}
  0
LINE
  5
1B009
330
747D
100
AcDbEntity
  8
部品1
100
AcDbLine
 10
12692.40813407784
 20
11616.54160810821
 30
0.0
 11
12699.10013006799
 21
11631.16076879153
 31
0.0
  0
LINE
  5
1B00A
330
747D
100
AcDbEntity
  8
部品1
 48
50.0
100
AcDbLine
 10
12750.04596203258
 20
11632.34146413898
 30
0.0
 11
12759.79555514413
 21
11603.96990383365
 31
0.0
  0
MTEXT
  5
1B00B
102
{ACAD_REACTORS
330
1B00C
102
}
330
747D
100
AcDbEntity
  8
寸法
 62
     7
 48
50.0
100
AcDbMText
 10
13419.86752994078
 20
11192.92239508256
 30
0.0
 40
150.0
 41
0.0
 71
     6
 72
     1
  1
\A1;天井
  7
STYLE1
 73
     1
 44
1.0
  0
LEADER
  5
1B00C
330
747D
100
AcDbEntity
  8
寸法
 48
50.0
100
AcDbLeader
  3
INABA_S50G
 71
     0
 73
     0
 75
     1
 40
150.0
 41
359.9999999999999
 76
     3
 10
13693.1695438461
 20
11403.41424305313
 30
0.0
 10
13569.86752994078
 20
11092.92239508256
 30
0.0
 10
13444.86752994078
 20
11092.92239508256
 30
0.0
340
1B00B
1001
ACAD
1000
DSTYLE
1002
{
1070
     6
1000
DOTSMALL
1002
}
  0
LINE
  5
1B00D
330
747D
100
AcDbEntity
  8
細線
 48
50.0
100
AcDbLine
 10
12807.82958141816
 20
11499.08397580098
 30
0.0
 11
12702.83932612734
 21
11500.75399803954
 31
0.0
  0
LINE
  5
1B00E
330
747D
100
AcDbEntity
  8
部品1
 48
50.0
100
AcDbLine
 10
12807.90115138926
 20
11503.5834066249
 30
0.0
 11
12705.91051664772
 21
11505.20571554939
 31
0.0
  0
ARC
  5
1B00F
330
747D
100
AcDbEntity
  8
部品1
100
AcDbCircle
 10
12688.32958141817
 20
11600.20873825652
 30
0.0
 40
15.5
100
AcDbArc
 50
88.13874351680366
 51
181.8832004883104
  0
ARC
  5
1B010
330
747D
100
AcDbEntity
  8
部品1
100
AcDbCircle
 10
12694.08698326884
 20
11516.39517748634
 30
0.0
 40
15.5
100
AcDbArc
 50
181.8832004883684
 51
269.0887044041854
  0
ARC
  5
1B011
330
747D
100
AcDbEntity
  8
部品1
100
AcDbCircle
 10
12676.00493155814
 20
11518.59483674583
 30
0.0
 40
2.5
100
AcDbArc
 50
1.883200488304429
 51
80.9777304905255
  0
ARC
  5
1B012
330
747D
100
AcDbEntity
  8
部品1
100
AcDbCircle
 10
12676.58515943173
 20
11522.24905836094
 30
0.0
 40
1.199999999999999
100
AcDbArc
 50
181.8832004883104
 51
260.9777304905277
  0
LINE
  5
1B013
330
747D
100
AcDbEntity
  8
部品1
100
AcDbLine
 10
12678.50358129389
 20
11518.67699207427
 30
0.0
 11
12678.59535490713
 21
11515.88581445
 31
0.0
  0
LINE
  5
1B014
330
747D
100
AcDbEntity
  8
部品1
100
AcDbLine
 10
12672.83795305646
 20
11599.69937522019
 30
0.0
 11
12675.38580755857
 21
11522.20962380329
 31
0.0
  0
ARC
  5
1B015
330
747D
100
AcDbEntity
  8
部品1
100
AcDbCircle
 10
12691.04423830756
 20
11617.16593841167
 30
0.0
 40
1.5
100
AcDbArc
 50
269.0981540988973
 51
335.4038180356238
  0
LINE
  5
1B016
330
747D
100
AcDbEntity
  8
部品1
 48
50.0
100
AcDbLine
 10
12691.02062901199
 20
11615.66612422279
 30
0.0
 11
12688.83301119891
 21
11615.70056056559
 31
0.0
  0
LINE
  5
1B017
330
747D
100
AcDbEntity
  8
部品1
 48
50.0
100
AcDbLine
 10
12702.83932612734
 20
11500.75399803954
 30
0.0
 11
12702.86318278437
 21
11502.25380831417
 31
0.0
  0
ARC
  5
1B018
330
747D
100
AcDbEntity
  8
部品1
 48
50.0
100
AcDbCircle
 10
12705.86280333365
 20
11502.20609500011
 30
0.0
 40
3.0
100
AcDbArc
 50
89.08870440418532
 51
179.0887044041912
  0
LINE
  5
1B019
330
747D
100
AcDbEntity
  8
部品1
 48
50.0
100
AcDbLine
 10
12702.83932612734
 20
11500.75399803954
 30
0.0
 11
12693.8404644795
 21
11500.89713798173
 31
0.0
  0
LINE
  5
1B01A
330
747D
100
AcDbEntity
  8
部品1
 48
50.0
100
AcDbLine
 10
12872.82958141817
 20
11413.73679736196
 30
0.0
 11
12894.82958141817
 21
11413.73679736196
 31
0.0
  0
LINE
  5
1B01B
330
747D
100
AcDbEntity
  8
部品1
 48
50.0
100
AcDbLine
 10
12881.47171704189
 20
11393.73679736197
 30
0.0
 11
12872.82958141817
 21
11393.73679736197
 31
0.0
  0
LINE
  5
1B01C
330
747D
100
AcDbEntity
  8
部品1
 48
50.0
100
AcDbLine
 10
12857.82958141817
 20
11378.73679736196
 30
0.0
 11
12858.32958141817
 21
11378.73679736196
 31
0.0
  0
LINE
  5
1B01D
330
747D
100
AcDbEntity
  8
部品1
 48
50.0
100
AcDbLine
 10
12872.82958141817
 20
11413.73679736196
 30
0.0
 11
12894.82958141817
 21
11413.73679736196
 31
0.0
  0
LINE
  5
1B01E
330
747D
100
AcDbEntity
  8
部品1
 48
50.0
100
AcDbLine
 10
12872.82958141817
 20
11393.73679736196
 30
0.0
 11
12872.82958141817
 21
11413.73679736196
 31
0.0
  0
LINE
  5
1B01F
330
747D
100
AcDbEntity
  8
部品1
 48
50.0
100
AcDbLine
 10
12857.82958141817
 20
11378.73679736196
 30
0.0
 11
12872.82958141817
 21
11393.73679736196
 31
0.0
  0
LINE
  5
1B020
330
747D
100
AcDbEntity
  8
部品1
 48
50.0
100
AcDbLine
 10
12807.82958141817
 20
11378.73679736196
 30
0.0
 11
12857.82958141817
 21
11378.73679736196
 31
0.0
  0
LINE
  5
1B021
330
747D
100
AcDbEntity
  8
部品1
100
AcDbLine
 10
12882.47171704189
 20
11389.73679736197
 30
0.0
 11
12881.47171704189
 21
11389.73679736197
 31
0.0
  0
LINE
  5
1B022
330
747D
100
AcDbEntity
  8
部品1
100
AcDbLine
 10
12882.47171704189
 20
11388.73679736197
 30
0.0
 11
12882.47171704189
 21
11389.73679736197
 31
0.0
  0
LINE
  5
1B023
330
747D
100
AcDbEntity
  8
部品1
100
AcDbLine
 10
12881.47171704189
 20
11389.73679736197
 30
0.0
 11
12881.47171704189
 21
11393.73679736197
 31
0.0
  0
LINE
  5
1B024
330
747D
100
AcDbEntity
  8
部品1
100
AcDbLine
 10
12875.02196957359
 20
11384.11547701841
 30
0.0
 11
12875.72907635478
 21
11383.40837023722
 31
0.0
  0
LINE
  5
1B025
330
747D
100
AcDbEntity
  8
部品1
100
AcDbLine
 10
12877.14328991716
 20
11383.40837023722
 30
0.0
 11
12882.47171704189
 21
11388.73679736197
 31
0.0
  0
ARC
  5
1B026
330
747D
100
AcDbEntity
  8
部品1
100
AcDbCircle
 10
12876.43618313596
 20
11384.11547701841
 30
0.0
 40
1.0
100
AcDbArc
 50
225.0
 51
315.0
  0
LINE
  5
1B027
330
747D
100
AcDbEntity
  8
部品1
100
AcDbLine
 10
12867.95090176173
 20
11377.04440920654
 30
0.0
 11
12875.02196957359
 21
11384.11547701841
 31
0.0
  0
LINE
  5
1B028
330
747D
100
AcDbEntity
  8
部品1
100
AcDbLine
 10
12868.65808760154
 20
11376.33722336673
 30
0.0
 11
12867.95090176173
 21
11377.04440920654
 31
0.0
  0
ARC
  5
1B029
330
747D
100
AcDbEntity
  8
部品1
100
AcDbCircle
 10
12867.95090176173
 20
11375.63019565301
 30
0.0
 40
1.0
100
AcDbArc
 50
314.9999999999995
 51
44.99999999999885
  0
LINE
  5
1B02A
330
747D
100
AcDbEntity
  8
部品1
100
AcDbLine
 10
12861.32958141817
 20
11367.59466173824
 30
0.0
 11
12858.32958141817
 21
11367.59466173824
 31
0.0
  0
LINE
  5
1B02B
330
747D
100
AcDbEntity
  8
部品1
100
AcDbLine
 10
12861.32958141817
 20
11367.59466173824
 30
0.0
 11
12868.65800854291
 21
11374.92308887182
 31
0.0
  0
LINE
  5
1B02C
330
747D
100
AcDbEntity
  8
部品1
 48
50.0
100
AcDbLine
 10
12836.32958141817
 20
11573.73679736196
 30
0.0
 11
12858.82958141817
 21
11573.73679736196
 31
0.0
  0
LINE
  5
1B02D
330
747D
100
AcDbEntity
  8
部品1
 48
50.0
100
AcDbLine
 10
12836.32958141817
 20
11588.73679736196
 30
0.0
 11
12836.32958141817
 21
11573.73679736196
 31
0.0
  0
LINE
  5
1B02E
330
747D
100
AcDbEntity
  8
部品1
 48
50.0
100
AcDbLine
 10
12807.82958141817
 20
11588.73679736196
 30
0.0
 11
12836.32958141817
 21
11588.73679736196
 31
0.0
  0
LINE
  5
1B02F
330
747D
100
AcDbEntity
  8
細線
 48
50.0
100
AcDbLine
 10
12701.46236672542
 20
11622.00045751345
 30
0.0
 11
12700.32645796807
 21
11600.02980182694
 31
0.0
  0
LINE
  5
1B030
330
747D
100
AcDbEntity
  8
細線
 48
50.0
100
AcDbLine
 10
12838.14238909251
 20
11592.90455598535
 30
0.0
 11
12837.31627363261
 21
11576.92589730425
 31
0.0
  0
LINE
  5
1B031
330
747D
100
AcDbEntity
  8
細線
 48
50.0
100
AcDbLine
 10
12858.11571244388
 20
11591.87191166048
 30
0.0
 11
12857.28959698398
 21
11575.89325297939
 31
0.0
  0
LINE
  5
1B032
330
747D
100
AcDbEntity
  8
細線
 48
50.0
100
AcDbLine
 10
12837.31627363261
 20
11576.92589730425
 30
0.0
 11
12857.28959698398
 21
11575.89325297939
 31
0.0
  0
LINE
  5
1B033
330
747D
100
AcDbEntity
  8
部品1
 48
50.0
100
AcDbLine
 10
13482.82958141817
 20
11425.73679736196
 30
0.0
 11
13482.82958141817
 21
11413.73679736196
 31
0.0
  0
LINE
  5
1B034
330
747D
100
AcDbEntity
  8
部品1
 48
50.0
100
AcDbLine
 10
13462.82958141817
 20
11544.23679736196
 30
0.0
 11
13482.82958141817
 21
11543.23679736196
 31
0.0
  0
LINE
  5
1B035
330
747D
100
AcDbEntity
  8
部品1
 48
50.0
100
AcDbLine
 10
13432.82958141817
 20
11556.73679736196
 30
0.0
 11
13462.82958141817
 21
11555.23679736196
 31
0.0
  0
LINE
  5
1B036
330
747D
100
AcDbEntity
  8
部品1
 48
50.0
100
AcDbLine
 10
13462.82958141817
 20
11555.23679736196
 30
0.0
 11
13462.82958141817
 21
11544.23679736196
 31
0.0
  0
LINE
  5
1B037
330
747D
100
AcDbEntity
  8
部品1
 48
50.0
100
AcDbLine
 10
13432.82958141817
 20
11413.73679736196
 30
0.0
 11
13432.82958141817
 21
11556.73679736196
 31
0.0
  0
LINE
  5
1B038
330
747D
100
AcDbEntity
  8
部品1
 48
50.0
100
AcDbLine
 10
13482.82958141817
 20
11413.73679736196
 30
0.0
 11
13432.82958141817
 21
11413.73679736196
 31
0.0
  0
LINE
  5
1B039
330
747D
100
AcDbEntity
  8
細線
 48
50.0
100
AcDbLine
 10
13463.2802274645
 20
11544.56282416289
 30
0.0
 11
13483.25355081586
 21
11543.53017983802
 31
0.0
  0
LINE
  5
1B03A
330
747D
100
AcDbEntity
  8
細線
 48
50.0
100
AcDbLine
 10
13464.1063429244
 20
11560.54148284398
 30
0.0
 11
13463.2802274645
 21
11544.56282416289
 31
0.0
  0
LINE
  5
1B03B
330
747D
100
AcDbEntity
  8
細線
 48
50.0
100
AcDbLine
 10
13484.07966627576
 20
11559.50883851911
 30
0.0
 11
13483.25355081586
 21
11543.53017983802
 31
0.0
  0
ARC
  5
1B03C
330
747D
100
AcDbEntity
  8
部品1
 48
50.0
100
AcDbCircle
 10
12702.28255353196
 20
11629.70399808346
 30
0.0
 40
3.5
100
AcDbArc
 50
88.96475328401214
 51
155.4038180356338
  0
DIMENSION
  5
1B03D
330
747D
100
AcDbEntity
  8
寸法
 48
50.0
100
AcDbDimension
  2
*D43
 10
16312.07164574816
 20
11573.73679736197
 30
0.0
 11
16212.05688196863
 21
10468.73679736197
 31
0.0
 70
    32
 71
     5
 42
-1.0
  3
INABA_S50G
100
AcDbAlignedDimension
 13
14687.82958141817
 23
9363.736797361971
 33
0.0
 14
14782.82958141817
 24
11573.73679736197
 34
0.0
 50
90.0
100
AcDbRotatedDimension
  0
DIMENSION
  5
1B03E
330
747D
100
AcDbEntity
  8
寸法
 48
50.0
100
AcDbDimension
  2
*D44
 10
15999.10991665977
 20
11390.73679736196
 30
0.0
 11
15899.10991665977
 21
10410.73679736196
 31
0.0
 70
    32
  1
内高 <>
 71
     5
 42
-1.0
  3
INABA_S50G
100
AcDbAlignedDimension
 13
14652.32958141817
 23
9430.736797361971
 33
0.0
 14
14687.82958141817
 24
11390.73679736196
 34
0.0
 50
90.0
100
AcDbRotatedDimension
  0
LINE
  5
1B03F
330
747D
100
AcDbEntity
  8
部品1
 48
50.0
100
AcDbLine
 10
14687.82958141817
 20
11473.73679736196
 30
0.0
 11
14687.82958141817
 21
9418.736797361971
 31
0.0
  0
LINE
  5
1B040
330
747D
100
AcDbEntity
  8
細線
 48
50.0
100
AcDbLine
 10
14652.82958141817
 20
11378.73679736197
 30
0.0
 11
14652.82958141817
 21
9418.736797361971
 31
0.0
  0
LINE
  5
1B041
330
747D
100
AcDbEntity
  8
部品1
 48
50.0
100
AcDbLine
 10
14637.32958141817
 20
11378.73679736196
 30
0.0
 11
14637.32958141817
 21
9430.736797361971
 31
0.0
  0
LINE
  5
1B042
330
747D
100
AcDbEntity
  8
部品1
 48
50.0
100
AcDbLine
 10
14601.32958141817
 20
11367.59466173824
 30
0.0
 11
14601.32958141817
 21
9470.73679736197
 31
0.0
  0
LINE
  5
1B043
330
747D
100
AcDbEntity
  8
部品1
 48
50.0
100
AcDbLine
 10
14055.82958141817
 20
11063.08847168111
 30
0.0
 11
14055.82958141817
 21
9470.73679736197
 31
0.0
  0
LINE
  5
1B044
330
747D
100
AcDbEntity
  8
部品1
 48
50.0
100
AcDbLine
 10
14019.82958141817
 20
11063.08847168111
 30
0.0
 11
14019.82958141817
 21
9470.73679736197
 31
0.0
  0
MTEXT
  5
1B045
102
{ACAD_REACTORS
330
1B04A
102
}
330
747D
100
AcDbEntity
  8
寸法
 62
     7
 48
50.0
100
AcDbMText
 10
14927.3774760777
 20
10099.22034129159
 30
0.0
 40
150.0
 41
0.0
 71
     4
 72
     1
  1
\A1;内壁
  7
STYLE1
 73
     1
 44
1.0
  0
MTEXT
  5
1B046
102
{ACAD_REACTORS
330
1B047
102
}
330
747D
100
AcDbEntity
  8
寸法
 62
     7
 48
50.0
100
AcDbMText
 10
14958.03052825934
 20
10508.28252840044
 30
0.0
 40
150.0
 41
0.0
 71
     4
 72
     1
  1
\A1;壁パネル
  7
STYLE1
 73
     1
 44
1.0
  0
LEADER
  5
1B047
330
747D
100
AcDbEntity
  8
寸法
 48
50.0
100
AcDbLeader
  3
INABA_S50G
 71
     0
 73
     0
 74
     0
 75
     1
 40
150.0
 41
719.9999999999999
 76
     3
 10
14675.64563276007
 20
10204.29303103486
 30
0.0
 10
14808.03052825934
 20
10408.28252840044
 30
0.0
 10
14933.03052825934
 20
10408.28252840044
 30
0.0
340
1B046
1001
ACAD
1000
DSTYLE
1002
{
1070
     6
1000
DOTSMALL
1002
}
  0
MTEXT
  5
1B048
102
{ACAD_REACTORS
330
1B049
102
}
330
747D
100
AcDbEntity
  8
寸法
 62
     7
 48
50.0
100
AcDbMText
 10
14980.21447691743
 20
9692.226294727554
 30
0.0
 40
150.0
 41
0.0
 71
     4
 72
     1
  1
\A1;土台前後
  7
STYLE1
 73
     1
 44
1.0
  0
LEADER
  5
1B049
330
747D
100
AcDbEntity
  8
寸法
 48
50.0
100
AcDbLeader
  3
INABA_S50G
 71
     0
 73
     0
 74
     0
 75
     1
 40
150.0
 41
719.9999999999995
 76
     3
 10
14687.82958141817
 20
9388.236797361971
 30
0.0
 10
14830.21447691743
 20
9592.226294727554
 30
0.0
 10
14955.21447691743
 20
9592.226294727554
 30
0.0
340
1B048
1001
ACAD
1000
DSTYLE
1002
{
1070
     6
1000
DOTSMALL
1002
}
  0
LEADER
  5
1B04A
330
747D
100
AcDbEntity
  8
寸法
 48
50.0
100
AcDbLeader
  3
INABA_S50G
 71
     0
 73
     0
 74
     0
 75
     1
 40
150.0
 41
320.0
 76
     3
 10
14644.99258057844
 20
9795.230843926011
 30
0.0
 10
14777.3774760777
 20
9999.220341291595
 30
0.0
 10
14902.3774760777
 20
9999.220341291595
 30
0.0
340
1B045
1001
ACAD
1000
DSTYLE
1002
{
1070
     6
1000
DOTSMALL
1002
}
  0
LINE
  5
1B04B
330
747D
100
AcDbEntity
  8
細線
 48
50.0
100
AcDbLine
 10
14585.10352533462
 20
9228.736797361971
 30
0.0
 11
14487.82958141817
 21
9326.010741278425
 31
0.0
  0
LINE
  5
1B04C
330
747D
100
AcDbEntity
  8
細線
 48
50.0
100
AcDbLine
 10
14611.62002962911
 20
9228.736797361971
 30
0.0
 11
14487.82958141817
 21
9352.52724557292
 31
0.0
  0
LINE
  5
1B04D
330
747D
100
AcDbEntity
  8
細線
 48
50.0
100
AcDbLine
 10
14556.82958141817
 20
9135.027245572921
 30
0.0
 11
14650.53913320723
 21
9228.736797361971
 31
0.0
  0
MTEXT
  5
1B04E
102
{ACAD_REACTORS
330
1B04F
102
}
330
747D
100
AcDbEntity
  8
寸法
 62
     7
 48
50.0
100
AcDbMText
 10
14418.56909905212
 20
9701.080712269295
 30
0.0
 40
150.0
 41
0.0
 71
     6
 72
     1
  1
\A1;巾木
  7
STYLE1
 73
     1
 44
1.0
  0
LEADER
  5
1B04F
330
747D
100
AcDbEntity
  8
寸法
 48
50.0
100
AcDbLeader
  3
INABA_S50G
 71
     0
 73
     0
 75
     1
 40
150.0
 41
310.0
 76
     3
 10
14631.76541320617
 20
9455.070269982758
 30
0.0
 10
14568.56909905212
 20
9601.080712269295
 30
0.0
 10
14443.56909905212
 20
9601.080712269295
 30
0.0
340
1B04E
1001
ACAD
1000
DSTYLE
1002
{
1070
     6
1000
DOTSMALL
1002
}
  0
LINE
  5
1B050
330
747D
100
AcDbEntity
  8
部品1
 48
50.0
100
AcDbLine
 10
14556.82958141817
 20
9028.73679736197
 30
0.0
 11
14756.82958141817
 21
9028.73679736197
 31
0.0
  0
LINE
  5
1B051
330
747D
100
AcDbEntity
  8
細線
 48
50.0
100
AcDbLine
 10
14556.82958141817
 20
9108.510741278426
 30
0.0
 11
14677.0556375017
 21
9228.736797361971
 31
0.0
  0
LINE
  5
1B052
330
747D
100
AcDbEntity
  8
細線
 48
50.0
100
AcDbLine
 10
14556.82958141817
 20
9081.994236983929
 30
0.0
 11
14703.5721417962
 21
9228.736797361973
 31
0.0
  0
LINE
  5
1B053
330
747D
100
AcDbEntity
  8
部品1
 48
50.0
100
AcDbLine
 10
14487.82958141817
 20
9363.736797361971
 30
0.0
 11
14487.82958141817
 21
9228.736797361971
 31
0.0
  0
LINE
  5
1B054
330
747D
100
AcDbEntity
  8
部品1
 48
50.0
100
AcDbLine
 10
14347.82958141816
 20
9418.736797361971
 30
0.0
 11
14347.82958141816
 21
9363.736797361971
 31
0.0
  0
LINE
  5
1B055
330
747D
100
AcDbEntity
  8
部品1
 48
50.0
100
AcDbLine
 10
14341.82958141816
 20
9418.736797361971
 30
0.0
 11
14341.82958141816
 21
9412.73679736197
 31
0.0
  0
LINE
  5
1B056
330
747D
100
AcDbEntity
  8
部品1
 48
50.0
100
AcDbLine
 10
14341.82958141816
 20
9418.736797361971
 30
0.0
 11
14347.82958141816
 21
9418.736797361971
 31
0.0
  0
LINE
  5
1B057
330
747D
100
AcDbEntity
  8
部品1
 48
50.0
100
AcDbLine
 10
14017.82958141816
 20
9363.736797361971
 30
0.0
 11
14017.82958141816
 21
9418.736797361971
 31
0.0
  0
LINE
  5
1B058
330
747D
100
AcDbEntity
  8
部品1
 48
50.0
100
AcDbLine
 10
14057.82958141816
 20
9418.736797361971
 30
0.0
 11
14057.82958141816
 21
9363.736797361971
 31
0.0
  0
LINE
  5
1B059
330
747D
100
AcDbEntity
  8
部品1
 48
50.0
100
AcDbLine
 10
14023.82958141816
 20
9412.73679736197
 30
0.0
 11
14023.82958141816
 21
9418.736797361971
 31
0.0
  0
LINE
  5
1B05A
330
747D
100
AcDbEntity
  8
部品1
 48
50.0
100
AcDbLine
 10
14051.82958141816
 20
9418.736797361971
 30
0.0
 11
14051.82958141816
 21
9412.73679736197
 31
0.0
  0
LINE
  5
1B05B
330
747D
100
AcDbEntity
  8
部品1
 48
50.0
100
AcDbLine
 10
14023.82958141816
 20
9412.73679736197
 30
0.0
 11
14051.82958141816
 21
9412.736797361969
 31
0.0
  0
LINE
  5
1B05C
330
747D
100
AcDbEntity
  8
部品1
 48
50.0
100
AcDbLine
 10
14017.82958141816
 20
9418.736797361971
 30
0.0
 11
14023.82958141816
 21
9418.736797361971
 31
0.0
  0
LINE
  5
1B05D
330
747D
100
AcDbEntity
  8
部品1
 48
50.0
100
AcDbLine
 10
14051.82958141816
 20
9418.736797361971
 30
0.0
 11
14057.82958141816
 21
9418.736797361971
 31
0.0
  0
LINE
  5
1B05E
330
747D
100
AcDbEntity
  8
部品1
 48
50.0
100
AcDbLine
 10
14307.82958141816
 20
9363.736797361971
 30
0.0
 11
14307.82958141816
 21
9418.736797361971
 31
0.0
  0
LINE
  5
1B05F
330
747D
100
AcDbEntity
  8
部品1
 48
50.0
100
AcDbLine
 10
14313.82958141816
 20
9412.73679736197
 30
0.0
 11
14313.82958141816
 21
9418.736797361971
 31
0.0
  0
LINE
  5
1B060
330
747D
100
AcDbEntity
  8
部品1
 48
50.0
100
AcDbLine
 10
14307.82958141816
 20
9418.736797361971
 30
0.0
 11
14313.82958141816
 21
9418.736797361971
 31
0.0
  0
LINE
  5
1B061
330
747D
100
AcDbEntity
  8
部品1
 48
50.0
100
AcDbLine
 10
14313.82958141816
 20
9412.73679736197
 30
0.0
 11
14341.82958141816
 21
9412.736797361969
 31
0.0
  0
LINE
  5
1B062
330
747D
100
AcDbEntity
  8
部品1
 48
50.0
100
AcDbLine
 10
14556.82958141817
 20
9228.736797361971
 30
0.0
 11
14556.82958141817
 21
9028.73679736197
 31
0.0
  0
LINE
  5
1B063
330
747D
100
AcDbEntity
  8
部品1
 48
50.0
100
AcDbLine
 10
14687.82958141817
 20
9363.736797361971
 30
0.0
 11
14687.82958141817
 21
9228.736797361971
 31
0.0
  0
LINE
  5
1B064
330
747D
100
AcDbEntity
  8
細線
 48
50.0
100
AcDbLine
 10
14687.82958141817
 20
9302.527245572919
 30
0.0
 11
14626.62002962911
 21
9363.736797361971
 31
0.0
  0
LINE
  5
1B065
330
747D
100
AcDbEntity
  8
細線
 48
50.0
100
AcDbLine
 10
14687.82958141817
 20
9276.010741278424
 30
0.0
 11
14600.10352533463
 21
9363.736797361973
 31
0.0
  0
LINE
  5
1B066
330
747D
100
AcDbEntity
  8
破線
 48
3.0
100
AcDbLine
 10
14677.82958141817
 20
9228.736797361971
 30
0.0
 11
14677.82958141817
 21
9122.736797361971
 31
0.0
  0
LINE
  5
1B067
330
747D
100
AcDbEntity
  8
破線
 48
3.0
100
AcDbLine
 10
14635.82958141817
 20
9228.736797361971
 30
0.0
 11
14635.82958141817
 21
9122.736797361971
 31
0.0
  0
LINE
  5
1B068
330
747D
100
AcDbEntity
  8
破線
 48
3.0
100
AcDbLine
 10
14635.82958141817
 20
9122.736797361971
 30
0.0
 11
14677.82958141817
 21
9122.736797361971
 31
0.0
  0
LINE
  5
1B069
330
747D
100
AcDbEntity
  8
部品1
 48
50.0
100
AcDbLine
 10
14687.82958141817
 20
9412.73679736197
 30
0.0
 11
14681.82958141817
 21
9412.73679736197
 31
0.0
  0
LINE
  5
1B06A
330
747D
100
AcDbEntity
  8
部品1
 48
50.0
100
AcDbLine
 10
14681.82958141817
 20
9412.73679736197
 30
0.0
 11
14681.82958141817
 21
9418.736797361971
 31
0.0
  0
LINE
  5
1B06B
330
747D
100
AcDbEntity
  8
部品1
 48
50.0
100
AcDbLine
 10
14687.82958141817
 20
9412.736797361969
 30
0.0
 11
14687.82958141817
 21
9363.736797361971
 31
0.0
  0
LINE
  5
1B06C
330
747D
100
AcDbEntity
  8
部品1
 48
50.0
100
AcDbLine
 10
14637.32958141816
 20
9470.73679736197
 30
0.0
 11
14628.32958141816
 21
9470.73679736197
 31
0.0
  0
LINE
  5
1B06D
330
747D
100
AcDbEntity
  8
部品1
 48
50.0
100
AcDbLine
 10
14637.32958141817
 20
9430.736797361971
 30
0.0
 11
14637.32958141817
 21
9418.736797361971
 31
0.0
  0
LINE
  5
1B06E
330
747D
100
AcDbEntity
  8
部品1
 48
50.0
100
AcDbLine
 10
14652.32958141817
 20
9430.736797361971
 30
0.0
 11
14637.32958141817
 21
9430.736797361971
 31
0.0
  0
LINE
  5
1B06F
330
747D
100
AcDbEntity
  8
部品1
 48
50.0
100
AcDbLine
 10
14652.32958141817
 20
9418.736797361971
 30
0.0
 11
14652.32958141817
 21
9430.736797361971
 31
0.0
  0
LINE
  5
1B070
330
747D
100
AcDbEntity
  8
部品1
 48
50.0
100
AcDbLine
 10
14623.32958141817
 20
9418.736797361971
 30
0.0
 11
14623.32958141817
 21
9411.736797361971
 31
0.0
  0
LINE
  5
1B071
330
747D
100
AcDbEntity
  8
部品1
 48
50.0
100
AcDbLine
 10
14623.32958141817
 20
9418.736797361971
 30
0.0
 11
14637.32958141817
 21
9418.736797361971
 31
0.0
  0
LINE
  5
1B072
330
747D
100
AcDbEntity
  8
部品1
 48
50.0
100
AcDbLine
 10
14628.32958141816
 20
9430.736797361971
 30
0.0
 11
14637.32958141817
 21
9430.736797361971
 31
0.0
  0
LINE
  5
1B073
330
747D
100
AcDbEntity
  8
部品1
 48
50.0
100
AcDbLine
 10
14628.32958141816
 20
9470.73679736197
 30
0.0
 11
14628.32958141816
 21
9430.736797361971
 31
0.0
  0
LINE
  5
1B074
330
747D
100
AcDbEntity
  8
部品1
 48
50.0
100
AcDbLine
 10
14599.32958141817
 20
9411.736797361971
 30
0.0
 11
14599.32958141817
 21
9363.736797361971
 31
0.0
  0
LINE
  5
1B075
330
747D
100
AcDbEntity
  8
部品1
 48
50.0
100
AcDbLine
 10
14623.32958141817
 20
9411.736797361971
 30
0.0
 11
14599.32958141817
 21
9411.736797361971
 31
0.0
  0
LINE
  5
1B076
330
747D
100
AcDbEntity
  8
部品1
 48
50.0
100
AcDbLine
 10
14687.82958141817
 20
9418.736797361971
 30
0.0
 11
14652.32958141817
 21
9418.736797361971
 31
0.0
  0
LINE
  5
1B077
330
747D
100
AcDbEntity
  8
細線
 48
50.0
100
AcDbLine
 10
14653.57214179622
 20
9028.73679736197
 30
0.0
 11
14756.82958141817
 21
9131.994236983928
 31
0.0
  0
LINE
  5
1B078
330
747D
100
AcDbEntity
  8
細線
 48
50.0
100
AcDbLine
 10
14627.05563750172
 20
9028.73679736197
 30
0.0
 11
14756.82958141817
 21
9158.510741278426
 31
0.0
  0
LINE
  5
1B079
330
747D
100
AcDbEntity
  8
細線
 48
50.0
100
AcDbLine
 10
14600.53913320722
 20
9028.73679736197
 30
0.0
 11
14756.82958141817
 21
9185.027245572921
 31
0.0
  0
LINE
  5
1B07A
330
747D
100
AcDbEntity
  8
部品1
 48
50.0
100
AcDbLine
 10
14756.82958141817
 20
9028.73679736197
 30
0.0
 11
14756.82958141817
 21
9228.736797361971
 31
0.0
  0
DIMENSION
  5
1B07B
330
747D
100
AcDbEntity
  8
寸法
 48
50.0
100
AcDbDimension
  2
*D45
 10
14782.82958141817
 20
12327.01792807848
 30
0.0
 11
15115.38863653628
 21
12327.01792807848
 31
0.0
 70
   160
 71
     5
 42
-1.0
  3
INABA_S50G
100
AcDbAlignedDimension
 13
14687.82958141817
 23
11576.3631811976
 33
0.0
 14
14782.82958141817
 24
11573.73679736197
 34
0.0
100
AcDbRotatedDimension
1001
ACAD
1000
DSTYLE
1002
{
1002
}
  0
MTEXT
  5
1B07C
102
{ACAD_REACTORS
330
1B07F
102
}
330
747D
100
AcDbEntity
  8
寸法
 62
     7
 48
50.0
100
AcDbMText
 10
15055.49506749086
 20
11038.8835600829
 30
0.0
 40
150.0
 41
0.0
 71
     4
 72
     1
  1
\A1;桁後
  7
STYLE1
 73
     1
 44
1.0
  0
MTEXT
  5
1B07D
102
{ACAD_REACTORS
330
1B07E
102
}
330
747D
100
AcDbEntity
  8
寸法
 62
     7
 48
50.0
100
AcDbMText
 10
15048.94018070689
 20
11247.92104541549
 30
0.0
 40
150.0
 41
0.0
 71
     4
 72
     1
  1
\A1;雨樋
  7
STYLE1
 73
     1
 44
1.0
  0
LEADER
  5
1B07E
330
747D
100
AcDbEntity
  8
寸法
 48
50.0
100
AcDbLeader
  3
INABA_S50G
 71
     0
 73
     0
 74
     0
 75
     1
 40
150.0
 41
360.0
 76
     3
 10
14768.82958141817
 20
11409.546036235
 30
0.0
 10
14898.94018070688
 20
11147.92104541549
 30
0.0
 10
15023.94018070688
 20
11147.92104541549
 30
0.0
340
1B07D
1001
ACAD
1000
DSTYLE
1002
{
1070
     6
1000
DOTSMALL
1002
}
  0
LEADER
  5
1B07F
330
747D
100
AcDbEntity
  8
寸法
 48
50.0
100
AcDbLeader
  3
INABA_S50G
 71
     0
 73
     0
 74
     0
 75
     1
 40
150.0
 41
360.0000000000001
 76
     3
 10
14687.82958141817
 20
11432.2065891273
 30
0.0
 10
14905.49506749086
 20
10938.8835600829
 30
0.0
 10
15030.49506749086
 20
10938.8835600829
 30
0.0
340
1B07C
1001
ACAD
1000
DSTYLE
1002
{
1070
     6
1000
DOTSMALL
1002
}
  0
MTEXT
  5
1B080
102
{ACAD_REACTORS
330
1B081
102
}
330
747D
100
AcDbEntity
  8
寸法
 62
     7
 48
50.0
100
AcDbMText
 10
15083.68199506866
 20
11896.64748534791
 30
0.0
 40
150.0
 41
0.0
 71
     4
 72
     1
  1
\A1;鼻隠シ後
  7
STYLE1
 73
     1
 44
1.0
  0
LEADER
  5
1B081
330
747D
100
AcDbEntity
  8
寸法
 48
50.0
100
AcDbLeader
  3
INABA_S50G
 71
     0
 73
     0
 74
     0
 75
     1
 40
150.0
 41
719.9999999999995
 76
     3
 10
14781.65863101408
 20
11555.13210353545
 30
0.0
 10
14933.68199506866
 20
11796.64748534791
 30
0.0
 10
15058.68199506866
 20
11796.64748534791
 30
0.0
340
1B080
1001
ACAD
1000
DSTYLE
1002
{
1070
     6
1000
DOTSMALL
1002
}
  0
MTEXT
  5
1B082
102
{ACAD_REACTORS
330
1B083
102
}
330
747D
100
AcDbEntity
  8
寸法
 62
     7
 48
50.0
100
AcDbMText
 10
14307.84038892262
 20
11805.2915960787
 30
0.0
 40
150.0
 41
0.0
 71
     4
 72
     1
  1
\A1;妻板
  7
STYLE1
 73
     1
 44
1.0
  0
LEADER
  5
1B083
330
747D
100
AcDbEntity
  8
寸法
 48
50.0
100
AcDbLeader
  3
INABA_S50G
 71
     0
 73
     0
 74
     0
 75
     1
 40
150.0
 41
319.9999999999998
 76
     3
 10
14108.3997449169
 20
11571.95548955546
 30
0.0
 10
14157.84038892262
 20
11705.2915960787
 30
0.0
 10
14282.84038892262
 20
11705.2915960787
 30
0.0
340
1B082
1001
ACAD
1000
DSTYLE
1002
{
1070
     6
1000
DOTSMALL
1002
}
  0
LINE
  5
1B084
330
747D
100
AcDbEntity
  8
部品1
 48
50.0
100
AcDbLine
 10
14055.82958141817
 20
11367.59466173824
 30
0.0
 11
14055.82958141817
 21
11284.72281612389
 31
0.0
  0
LINE
  5
1B085
330
747D
100
AcDbEntity
  8
部品1
 48
50.0
100
AcDbLine
 10
14019.82958141817
 20
11367.59466173824
 30
0.0
 11
14019.82958141817
 21
11284.72281612389
 31
0.0
  0
LINE
  5
1B086
330
747D
100
AcDbEntity
  8
部品1
 48
50.0
100
AcDbLine
 10
14062.82958141817
 20
11425.73679736196
 30
0.0
 11
14062.82958141817
 21
11413.73679736196
 31
0.0
  0
LINE
  5
1B087
330
747D
100
AcDbEntity
  8
部品1
 48
50.0
100
AcDbLine
 10
14012.82958141817
 20
11413.73679736196
 30
0.0
 11
14012.82958141817
 21
11526.73679736196
 31
0.0
  0
LINE
  5
1B088
330
747D
100
AcDbEntity
  8
部品1
 48
50.0
100
AcDbLine
 10
14042.82958141817
 20
11514.23679736196
 30
0.0
 11
14062.82958141817
 21
11513.23679736196
 31
0.0
  0
LINE
  5
1B089
330
747D
100
AcDbEntity
  8
部品1
 48
50.0
100
AcDbLine
 10
14012.82958141817
 20
11526.73679736196
 30
0.0
 11
14042.82958141817
 21
11525.23679736196
 31
0.0
  0
LINE
  5
1B08A
330
747D
100
AcDbEntity
  8
部品1
 48
50.0
100
AcDbLine
 10
14042.82958141817
 20
11525.23679736196
 30
0.0
 11
14042.82958141817
 21
11514.23679736196
 31
0.0
  0
LINE
  5
1B08B
330
747D
100
AcDbEntity
  8
部品1
 48
50.0
100
AcDbLine
 10
14062.82958141817
 20
11413.73679736196
 30
0.0
 11
14012.82958141817
 21
11413.73679736196
 31
0.0
  0
LINE
  5
1B08C
330
747D
100
AcDbEntity
  8
細線
 48
50.0
100
AcDbLine
 10
14044.13165304812
 20
11530.55349164981
 30
0.0
 11
14043.30553758823
 21
11514.57483296872
 31
0.0
  0
LINE
  5
1B08D
330
747D
100
AcDbEntity
  8
細線
 48
50.0
100
AcDbLine
 10
14064.1049763995
 20
11529.52084732494
 30
0.0
 11
14063.2788609396
 21
11513.54218864385
 31
0.0
  0
LINE
  5
1B08E
330
747D
100
AcDbEntity
  8
細線
 48
50.0
100
AcDbLine
 10
14043.30553758823
 20
11514.57483296872
 30
0.0
 11
14063.27886093959
 21
11513.54218864385
 31
0.0
  0
LINE
  5
1B08F
330
747D
100
AcDbEntity
  8
部品1
 48
50.0
100
AcDbLine
 10
14726.39578928962
 20
11518.15851852408
 30
0.0
 11
14710.39840097363
 21
11518.44759821443
 31
0.0
  0
LINE
  5
1B090
330
747D
100
AcDbEntity
  8
細線
 48
50.0
100
AcDbLine
 10
14746.11960145478
 20
11449.80118073938
 30
0.0
 11
14687.82958141817
 21
11450.72836802431
 31
0.0
  0
LINE
  5
1B091
330
747D
100
AcDbEntity
  8
部品1
100
AcDbLine
 10
14718.82958141817
 20
11399.546036235
 30
0.0
 11
14758.82958141817
 21
11399.546036235
 31
0.0
  0
LINE
  5
1B092
330
747D
100
AcDbEntity
  8
部品1
100
AcDbLine
 10
14708.82958141817
 20
11448.546036235
 30
0.0
 11
14708.82958141817
 21
11421.546036235
 31
0.0
  0
LINE
  5
1B093
330
747D
100
AcDbEntity
  8
部品1
100
AcDbLine
 10
14708.82958141816
 20
11450.39433257585
 30
0.0
 11
14708.82958141817
 21
11409.546036235
 31
0.0
  0
ARC
  5
1B094
330
747D
100
AcDbEntity
  8
部品1
100
AcDbCircle
 10
14718.82958141817
 20
11409.546036235
 30
0.0
 40
10.0
100
AcDbArc
 50
180.0
 51
270.0
  0
LINE
  5
1B095
330
747D
100
AcDbEntity
  8
部品1
 48
50.0
100
AcDbLine
 10
14692.82958141816
 20
11493.73679736196
 30
0.0
 11
14692.82958141816
 21
11473.73679736196
 31
0.0
  0
LINE
  5
1B096
330
747D
100
AcDbEntity
  8
部品1
 48
50.0
100
AcDbLine
 10
14692.82958141816
 20
11473.73679736196
 30
0.0
 11
14687.82958141816
 21
11473.73679736196
 31
0.0
  0
LINE
  5
1B097
330
747D
100
AcDbEntity
  8
部品1
100
AcDbLine
 10
14687.82958141817
 20
11403.73679736197
 30
0.0
 11
14687.82958141817
 21
11363.73679736197
 31
0.0
  0
LINE
  5
1B098
330
747D
100
AcDbEntity
  8
部品1
 48
50.0
100
AcDbLine
 10
14659.32958141816
 20
11478.73679736196
 30
0.0
 11
14635.82958141816
 21
11478.73679736196
 31
0.0
  0
LINE
  5
1B099
330
747D
100
AcDbEntity
  8
部品1
 48
50.0
100
AcDbLine
 10
14659.32958141816
 20
11493.73679736196
 30
0.0
 11
14659.32958141816
 21
11478.73679736196
 31
0.0
  0
LINE
  5
1B09A
330
747D
100
AcDbEntity
  8
部品1
 48
50.0
100
AcDbLine
 10
14637.82958141816
 20
11378.73679736196
 30
0.0
 11
14622.82958141816
 21
11393.73679736196
 31
0.0
  0
LINE
  5
1B09B
330
747D
100
AcDbEntity
  8
部品1
100
AcDbLine
 10
14634.32958141816
 20
11367.59466173824
 30
0.0
 11
14627.00115429341
 21
11374.92308887182
 31
0.0
  0
LINE
  5
1B09C
330
747D
100
AcDbEntity
  8
部品1
 48
50.0
100
AcDbLine
 10
14637.82958141816
 20
11378.73679736196
 30
0.0
 11
14637.32958141816
 21
11378.73679736196
 31
0.0
  0
LINE
  5
1B09D
330
747D
100
AcDbEntity
  8
部品1
100
AcDbLine
 10
14634.32958141816
 20
11367.59466173824
 30
0.0
 11
14637.32958141816
 21
11367.59466173824
 31
0.0
  0
LINE
  5
1B09E
330
747D
100
AcDbEntity
  8
部品1
 48
50.0
100
AcDbLine
 10
14622.82958141816
 20
11393.73679736196
 30
0.0
 11
14622.82958141816
 21
11413.73679736196
 31
0.0
  0
LINE
  5
1B09F
330
747D
100
AcDbEntity
  8
部品1
100
AcDbLine
 10
14613.18744579443
 20
11389.73679736197
 30
0.0
 11
14614.18744579443
 21
11389.73679736197
 31
0.0
  0
LINE
  5
1B0A0
330
747D
100
AcDbEntity
  8
部品1
100
AcDbLine
 10
14613.18744579443
 20
11388.73679736197
 30
0.0
 11
14613.18744579443
 21
11389.73679736197
 31
0.0
  0
LINE
  5
1B0A1
330
747D
100
AcDbEntity
  8
部品1
100
AcDbLine
 10
14614.18744579443
 20
11389.73679736197
 30
0.0
 11
14614.18744579443
 21
11393.73679736197
 31
0.0
  0
LINE
  5
1B0A2
330
747D
100
AcDbEntity
  8
部品1
100
AcDbLine
 10
14620.63719326274
 20
11384.11547701841
 30
0.0
 11
14619.93008648155
 21
11383.40837023722
 31
0.0
  0
LINE
  5
1B0A3
330
747D
100
AcDbEntity
  8
部品1
100
AcDbLine
 10
14618.51587291917
 20
11383.40837023722
 30
0.0
 11
14613.18744579443
 21
11388.73679736197
 31
0.0
  0
ARC
  5
1B0A4
330
747D
100
AcDbEntity
  8
部品1
100
AcDbCircle
 10
14619.22297970037
 20
11384.11547701841
 30
0.0
 40
1.0
100
AcDbArc
 50
225.0
 51
315.0
  0
LINE
  5
1B0A5
330
747D
100
AcDbEntity
  8
部品1
100
AcDbLine
 10
14627.7082610746
 20
11377.04440920654
 30
0.0
 11
14620.63719326274
 21
11384.11547701841
 31
0.0
  0
LINE
  5
1B0A6
330
747D
100
AcDbEntity
  8
部品1
100
AcDbLine
 10
14627.00107523479
 20
11376.33722336673
 30
0.0
 11
14627.7082610746
 21
11377.04440920654
 31
0.0
  0
ARC
  5
1B0A7
330
747D
100
AcDbEntity
  8
部品1
100
AcDbCircle
 10
14627.7082610746
 20
11375.63019565301
 30
0.0
 40
1.0
100
AcDbArc
 50
135.0000000000011
 51
225.0000000000003
  0
LINE
  5
1B0A8
330
747D
100
AcDbEntity
  8
部品1
 48
50.0
100
AcDbLine
 10
14614.18744579443
 20
11393.73679736197
 30
0.0
 11
14622.82958141816
 21
11393.73679736197
 31
0.0
  0
LINE
  5
1B0A9
330
747D
100
AcDbEntity
  8
部品1
 48
50.0
100
AcDbLine
 10
14622.82958141816
 20
11413.73679736196
 30
0.0
 11
14600.82958141816
 21
11413.73679736196
 31
0.0
  0
LINE
  5
1B0AA
330
747D
100
AcDbEntity
  8
部品1
 48
50.0
100
AcDbLine
 10
14622.82958141816
 20
11413.73679736196
 30
0.0
 11
14600.82958141816
 21
11413.73679736196
 31
0.0
  0
LINE
  5
1B0AB
330
747D
100
AcDbEntity
  8
部品1
 48
50.0
100
AcDbLine
 10
14692.82958141816
 20
11493.73679736196
 30
0.0
 11
14659.32958141816
 21
11493.73679736196
 31
0.0
  0
LINE
  5
1B0AC
330
747D
100
AcDbEntity
  8
部品1
 48
50.0
100
AcDbLine
 10
14687.82958141816
 20
11378.73679736196
 30
0.0
 11
14637.82958141816
 21
11378.73679736196
 31
0.0
  0
LINE
  5
1B0AD
330
747D
100
AcDbEntity
  8
部品1
 48
50.0
100
AcDbLine
 10
14755.80660766724
 20
11540.63080728955
 30
0.0
 11
14726.39578928962
 21
11518.15851852408
 31
0.0
  0
LINE
  5
1B0AE
330
747D
100
AcDbEntity
  8
部品1
 48
50.0
100
AcDbLine
 10
14781.9524220434
 20
11540.15834117355
 30
0.0
 11
14755.80660766724
 21
11540.63080728955
 31
0.0
  0
ARC
  5
1B0AF
330
747D
100
AcDbEntity
  8
部品1
100
AcDbCircle
 10
14758.82958141817
 20
11409.546036235
 30
0.0
 40
10.0
100
AcDbArc
 50
270.0
 51
0.0
  0
LINE
  5
1B0B0
330
747D
100
AcDbEntity
  8
部品1
100
AcDbLine
 10
14768.82958141817
 20
11409.546036235
 30
0.0
 11
14768.82958141817
 21
11434.546036235
 31
0.0
  0
LINE
  5
1B0B1
330
747D
100
AcDbEntity
  8
部品1
100
AcDbLine
 10
14771.17676303539
 20
11467.26280491307
 30
0.0
 11
14770.77792395764
 21
11463.51558742467
 31
0.0
  0
ARC
  5
1B0B2
330
747D
100
AcDbEntity
  8
部品1
 48
50.0
100
AcDbCircle
 10
14773.3511825403
 20
11470.68507021756
 30
0.0
 40
1.199999999999999
100
AcDbArc
 50
274.830006122604
 51
353.924536124901
  0
ARC
  5
1B0B3
330
747D
100
AcDbEntity
  8
部品1
 48
50.0
100
AcDbCircle
 10
14773.66272143308
 20
11466.99820928773
 30
0.0
 40
2.5
100
AcDbArc
 50
94.83000612260093
 51
173.9245361249088
  0
ARC
  5
1B0B4
330
747D
100
AcDbEntity
  8
部品1
100
AcDbCircle
 10
14755.36498189196
 20
11465.15608030179
 30
0.0
 40
15.5
100
AcDbArc
 50
269.0887044041854
 51
353.9245361249208
  0
LINE
  5
1B0B5
330
747D
100
AcDbEntity
  8
部品1
100
AcDbLine
 10
14782.74287520147
 20
11547.58489504698
 30
0.0
 11
14774.54444257119
 21
11470.55806431739
 31
0.0
  0
LINE
  5
1B0B6
330
747D
100
AcDbEntity
  8
部品1
100
AcDbLine
 10
14763.33578614472
 20
11565.79220093534
 30
0.0
 11
14760.71977994811
 21
11572.82495737241
 31
0.0
  0
ARC
  5
1B0B7
330
747D
100
AcDbEntity
  8
部品1
100
AcDbCircle
 10
14767.32958141817
 20
11549.22208342743
 30
0.0
 40
15.5
100
AcDbArc
 50
353.924536124901
 51
88.13874351680366
  0
ARC
  5
1B0B8
330
747D
100
AcDbEntity
  8
部品1
100
AcDbCircle
 10
14757.43937643104
 20
11571.60473085031
 30
0.0
 40
3.5
100
AcDbArc
 50
20.40391857757644
 51
88.96475328401214
  0
ARC
  5
1B0B9
330
747D
100
AcDbEntity
  8
部品1
100
AcDbCircle
 10
14764.76128014115
 20
11566.26244516471
 30
0.0
 40
1.5
100
AcDbArc
 50
200.4039185775898
 51
269.0981540988988
  0
LINE
  5
1B0BA
330
747D
100
AcDbEntity
  8
部品1
 48
50.0
100
AcDbLine
 10
14764.73767084558
 20
11564.76263097583
 30
0.0
 11
14767.83301119891
 21
11564.71390573651
 31
0.0
  0
LINE
  5
1B0BB
330
747D
100
AcDbEntity
  8
部品1
100
AcDbLine
 10
14755.11846310262
 20
11449.65804079718
 30
0.0
 11
14746.11960145478
 21
11449.80118073938
 31
0.0
  0
LINE
  5
1B0BC
330
747D
100
AcDbEntity
  8
細線
 48
50.0
100
AcDbLine
 10
14638.61044007577
 20
11483.79686886602
 30
0.0
 11
14658.58376342714
 21
11482.76422454115
 31
0.0
  0
LINE
  5
1B0BD
330
747D
100
AcDbEntity
  8
細線
 48
50.0
100
AcDbLine
 10
14659.40987888703
 20
11498.74288322225
 30
0.0
 11
14658.58376342714
 21
11482.76422454115
 31
0.0
  0
LINE
  5
1B0BE
330
747D
100
AcDbEntity
  8
細線
 48
50.0
100
AcDbLine
 10
14639.43655553566
 20
11499.77552754712
 30
0.0
 11
14638.61044007577
 21
11483.79686886602
 31
0.0
  0
LINE
  5
1B0BF
330
747D
100
AcDbEntity
  8
細線
 48
50.0
100
AcDbLine
 10
14735.44575021202
 20
11516.84112269049
 30
0.0
 11
14734.30984145466
 21
11494.87046700399
 31
0.0
  0
VIEWPORT
  5
1ADCD
330
747A
100
AcDbEntity
 67
     1
  8
0
 48
50.0
100
AcDbViewport
 10
253.0459866220736
 20
148.5
 30
0.0
 40
506.0919732441472
 41
297.0
 68
     1
 69
     1
 12
253.0459866220736
 22
148.5
 13
0.0
 23
0.0
 14
10.0
 24
10.0
 15
10.0
 25
10.0
 16
0.0
 26
0.0
 36
1.0
 17
0.0
 27
0.0
 37
0.0
 42
50.0
 43
0.0
 44
0.0
 45
297.0
 50
0.0
 51
0.0
 72
     0
 90
    32800
  1

281
     0
 71
     1
 74
     0
110
0.0
120
0.0
130
0.0
111
1.0
121
0.0
131
0.0
112
0.0
122
1.0
132
0.0
 79
     0
146
0.0
  0
ENDSEC
  0
SECTION
  2
OBJECTS
  0
DICTIONARY
  5
7471
330
0
100
AcDbDictionary
281
     1
  3
ACAD_GROUP
350
7472
  3
ACAD_LAYOUT
350
1B1B9
  3
ACAD_MLINESTYLE
350
7473
  3
ACAD_PLOTSETTINGS
350
1B1BA
  3
ACAD_PLOTSTYLENAME
350
1B1B7
  3
ACDBHEADERROUNDTRIPXREC
350
1B234
  3
ACDBVARIABLEDICTIONARY
350
123D8
  3
CONTENTDICTIONARY
350
E71C
  3
DRAWINGVARIABLESDICT
350
F3B9
  0
DICTIONARY
  5
1B1E9
330
747D
100
AcDbDictionary
280
     1
281
     1
  3
ACAD_LAYOUTSELFREF
360
1B1EA
  0
DICTIONARY
  5
1B1E7
330
747A
100
AcDbDictionary
280
     1
281
     1
  3
ACAD_LAYOUTSELFREF
360
1B1E8
  0
DICTIONARY
  5
7472
102
{ACAD_REACTORS
330
7471
102
}
330
7471
100
AcDbDictionary
281
     1
  0
DICTIONARY
  5
1B1B9
102
{ACAD_REACTORS
330
7471
102
}
330
7471
100
AcDbDictionary
281
     1
  3
Model
350
1B1BB
  3
ﾚｲｱｳﾄ1
350
1B1BC
  0
DICTIONARY
  5
7473
102
{ACAD_REACTORS
330
7471
102
}
330
7471
100
AcDbDictionary
281
     1
  3
STANDARD
350
7480
  0
DICTIONARY
  5
1B1BA
102
{ACAD_REACTORS
330
7471
102
}
330
7471
100
AcDbDictionary
281
     1
  0
ACDBDICTIONARYWDFLT
  5
1B1B7
102
{ACAD_REACTORS
330
7471
102
}
330
7471
100
AcDbDictionary
281
     1
  3
Normal
350
1B1B8
100
AcDbDictionaryWithDefault
340
1B1B8
  0
DICTIONARY
  5
1B234
102
{ACAD_REACTORS
330
7471
102
}
330
7471
100
AcDbDictionary
281
     1
  3
CEPSNTYPE
350
1B23E
  3
DIMSTYLEDATA
350
1B242
  3
FINGERPRINTGUID
350
1B23F
  3
HYPERLINKBASE
350
1B237
  3
INSUNITS
350
1B23D
  3
LAYOUTDICT
350
1B239
  3
LWETCUNION
350
1B23C
  3
PLOTSETDICT
350
1B23A
  3
PLOTSTYLNAMDICT
350
1B23B
  3
PSVPSCALE
350
1B241
  3
PUCSBASE
350
1B245
  3
PUCSORGBACK
350
1B24B
  3
PUCSORGBOTTOM
350
1B247
  3
PUCSORGFRONT
350
1B24A
  3
PUCSORGLEFT
350
1B248
  3
PUCSORGRIGHT
350
1B249
  3
PUCSORGTOP
350
1B246
  3
PUCSORTHOREF
350
1B243
  3
PUCSORTHOVIEW
350
1B244
  3
STYLESHEET
350
1B238
  3
TSTACKALIGN
350
1B235
  3
TSTACKSIZE
350
1B236
  3
UCSBASE
350
1B24E
  3
UCSORGBACK
350
1B254
  3
UCSORGBOTTOM
350
1B250
  3
UCSORGFRONT
350
1B253
  3
UCSORGLEFT
350
1B251
  3
UCSORGRIGHT
350
1B252
  3
UCSORGTOP
350
1B24F
  3
UCSORTHOREF
350
1B24C
  3
UCSORTHOVIEW
350
1B24D
  3
VERSIONGUID
350
1B240
  0
DICTIONARY
  5
123D8
102
{ACAD_REACTORS
330
7471
102
}
330
7471
100
AcDbDictionary
281
     1
  3
DIMASSOC
350
1B22B
  3
SORTENTS
350
123D9
  0
DICTIONARY
  5
E71C
102
{ACAD_REACTORS
330
7471
102
}
330
7471
100
AcDbDictionary
281
     1
  0
DICTIONARY
  5
F3B9
102
{ACAD_REACTORS
330
7471
102
}
330
7471
100
AcDbDictionary
281
     1
1001
DRAWINGVARIABLESXDATA
1000
POLARMODE
1000
1
  0
XRECORD
  5
1B1EA
102
{ACAD_REACTORS
330
1B1E9
102
}
330
1B1E9
100
AcDbXrecord
280
     1
340
747D
  0
XRECORD
  5
1B1E8
102
{ACAD_REACTORS
330
1B1E7
102
}
330
1B1E7
100
AcDbXrecord
280
     1
340
747A
  0
LAYOUT
  5
1B1BB
102
{ACAD_REACTORS
330
1B1B9
102
}
330
1B1B9
100
AcDbPlotSettings
  1

  2
Canon LBP-730
  4

  6

 40
0.0
 41
0.0
 42
0.0
 43
0.0
 44
0.0
 45
0.0
 46
0.0
 47
0.0
 48
0.0
 49
0.0
140
0.0
141
0.0
142
1.0
143
1.0
 70
  1712
 72
     0
 73
     0
 74
     0
  7

 75
     0
147
1.0
148
0.0
149
0.0
100
AcDbLayout
  1
Model
 70
     1
 71
     0
 10
0.0
 20
0.0
 11
12.0
 21
9.0
 12
0.0
 22
0.0
 32
0.0
 14
0.0
 24
0.0
 34
0.0
 15
0.0
 25
0.0
 35
0.0
146
0.0
 13
0.0
 23
0.0
 33
0.0
 16
1.0
 26
0.0
 36
0.0
 17
0.0
 27
1.0
 37
0.0
 76
     0
330
747D
  0
LAYOUT
  5
1B1BC
102
{ACAD_REACTORS
330
1B1B9
102
}
330
1B1B9
100
AcDbPlotSettings
  1

  2
Canon LBP-730
  4

  6

 40
0.0
 41
0.0
 42
0.0
 43
0.0
 44
0.0
 45
0.0
 46
0.0
 47
0.0
 48
0.0
 49
0.0
140
0.0
141
0.0
142
1.0
143
1.0
 70
   688
 72
     0
 73
     0
 74
     5
  7

 75
    16
147
1.0
148
0.0
149
0.0
100
AcDbLayout
  1
ﾚｲｱｳﾄ1
 70
     0
 71
     1
 10
0.0
 20
0.0
 11
420.0
 21
297.0
 12
0.0
 22
0.0
 32
0.0
 14
1.000000000000000E+20
 24
1.000000000000000E+20
 34
1.000000000000000E+20
 15
-1.000000000000000E+20
 25
-1.000000000000000E+20
 35
-1.000000000000000E+20
146
0.0
 13
0.0
 23
0.0
 33
0.0
 16
1.0
 26
0.0
 36
0.0
 17
0.0
 27
1.0
 37
0.0
 76
     0
330
747A
331
1ADCD
  0
MLINESTYLE
  5
7480
102
{ACAD_REACTORS
330
7473
102
}
330
7473
100
AcDbMlineStyle
  2
STANDARD
 70
     0
  3

 62
     0
 51
90.0
 52
90.0
 71
     2
 49
0.5
 62
   256
  6
BYLAYER
 49
-0.5
 62
   256
  6
BYLAYER
  0
ACDBPLACEHOLDER
  5
1B1B8
102
{ACAD_REACTORS
330
1B1B7
102
}
330
1B1B7
  0
XRECORD
  5
1B23E
102
{ACAD_REACTORS
330
1B234
102
}
330
1B234
100
AcDbXrecord
280
     1
 90
        0
  0
XRECORD
  5
1B242
102
{ACAD_REACTORS
330
1B234
102
}
330
1B234
100
AcDbXrecord
280
     1
1000
DSTYLE
1002
{
1070
   341
340
F770
1070
   343
340
F770
1070
   344
340
F770
1002
}
  0
XRECORD
  5
1B23F
102
{ACAD_REACTORS
330
1B234
102
}
330
1B234
100
AcDbXrecord
280
     1
  1
{071707A7-F8BF-11D6-AF94-00909916878D}
  0
XRECORD
  5
1B237
102
{ACAD_REACTORS
330
1B234
102
}
330
1B234
100
AcDbXrecord
280
     1
  1

  0
XRECORD
  5
1B23D
102
{ACAD_REACTORS
330
1B234
102
}
330
1B234
100
AcDbXrecord
280
     1
 90
        0
  0
XRECORD
  5
1B239
102
{ACAD_REACTORS
330
1B234
102
}
330
1B234
100
AcDbXrecord
280
     1
340
1B1B9
  0
XRECORD
  5
1B23C
102
{ACAD_REACTORS
330
1B234
102
}
330
1B234
100
AcDbXrecord
280
     1
 90
    14877
  0
XRECORD
  5
1B23A
102
{ACAD_REACTORS
330
1B234
102
}
330
1B234
100
AcDbXrecord
280
     1
340
1B1BA
  0
XRECORD
  5
1B23B
102
{ACAD_REACTORS
330
1B234
102
}
330
1B234
100
AcDbXrecord
280
     1
340
1B1B7
  0
XRECORD
  5
1B241
102
{ACAD_REACTORS
330
1B234
102
}
330
1B234
100
AcDbXrecord
280
     1
 40
0.0
  0
XRECORD
  5
1B245
102
{ACAD_REACTORS
330
1B234
102
}
330
1B234
100
AcDbXrecord
280
     1
340
0
  0
XRECORD
  5
1B24B
102
{ACAD_REACTORS
330
1B234
102
}
330
1B234
100
AcDbXrecord
280
     1
 10
0.0
 20
0.0
 30
0.0
  0
XRECORD
  5
1B247
102
{ACAD_REACTORS
330
1B234
102
}
330
1B234
100
AcDbXrecord
280
     1
 10
0.0
 20
0.0
 30
0.0
  0
XRECORD
  5
1B24A
102
{ACAD_REACTORS
330
1B234
102
}
330
1B234
100
AcDbXrecord
280
     1
 10
0.0
 20
0.0
 30
0.0
  0
XRECORD
  5
1B248
102
{ACAD_REACTORS
330
1B234
102
}
330
1B234
100
AcDbXrecord
280
     1
 10
0.0
 20
0.0
 30
0.0
  0
XRECORD
  5
1B249
102
{ACAD_REACTORS
330
1B234
102
}
330
1B234
100
AcDbXrecord
280
     1
 10
0.0
 20
0.0
 30
0.0
  0
XRECORD
  5
1B246
102
{ACAD_REACTORS
330
1B234
102
}
330
1B234
100
AcDbXrecord
280
     1
 10
0.0
 20
0.0
 30
0.0
  0
XRECORD
  5
1B243
102
{ACAD_REACTORS
330
1B234
102
}
330
1B234
100
AcDbXrecord
280
     1
340
0
  0
XRECORD
  5
1B244
102
{ACAD_REACTORS
330
1B234
102
}
330
1B234
100
AcDbXrecord
280
     1
 70
     0
  0
XRECORD
  5
1B238
102
{ACAD_REACTORS
330
1B234
102
}
330
1B234
100
AcDbXrecord
280
     1
  1

  0
XRECORD
  5
1B235
102
{ACAD_REACTORS
330
1B234
102
}
330
1B234
100
AcDbXrecord
280
     1
 90
        1
  0
XRECORD
  5
1B236
102
{ACAD_REACTORS
330
1B234
102
}
330
1B234
100
AcDbXrecord
280
     1
 90
       70
  0
XRECORD
  5
1B24E
102
{ACAD_REACTORS
330
1B234
102
}
330
1B234
100
AcDbXrecord
280
     1
340
0
  0
XRECORD
  5
1B254
102
{ACAD_REACTORS
330
1B234
102
}
330
1B234
100
AcDbXrecord
280
     1
 10
0.0
 20
0.0
 30
0.0
  0
XRECORD
  5
1B250
102
{ACAD_REACTORS
330
1B234
102
}
330
1B234
100
AcDbXrecord
280
     1
 10
0.0
 20
0.0
 30
0.0
  0
XRECORD
  5
1B253
102
{ACAD_REACTORS
330
1B234
102
}
330
1B234
100
AcDbXrecord
280
     1
 10
0.0
 20
0.0
 30
0.0
  0
XRECORD
  5
1B251
102
{ACAD_REACTORS
330
1B234
102
}
330
1B234
100
AcDbXrecord
280
     1
 10
0.0
 20
0.0
 30
0.0
  0
XRECORD
  5
1B252
102
{ACAD_REACTORS
330
1B234
102
}
330
1B234
100
AcDbXrecord
280
     1
 10
0.0
 20
0.0
 30
0.0
  0
XRECORD
  5
1B24F
102
{ACAD_REACTORS
330
1B234
102
}
330
1B234
100
AcDbXrecord
280
     1
 10
0.0
 20
0.0
 30
0.0
  0
XRECORD
  5
1B24C
102
{ACAD_REACTORS
330
1B234
102
}
330
1B234
100
AcDbXrecord
280
     1
340
0
  0
XRECORD
  5
1B24D
102
{ACAD_REACTORS
330
1B234
102
}
330
1B234
100
AcDbXrecord
280
     1
 70
     0
  0
XRECORD
  5
1B240
102
{ACAD_REACTORS
330
1B234
102
}
330
1B234
100
AcDbXrecord
280
     1
  1
{071707A9-F8BF-11D6-AF94-00909916878D}
  0
DICTIONARYVAR
  5
1B22B
102
{ACAD_REACTORS
330
123D8
102
}
330
123D8
100
DictionaryVariables
280
     0
  1
1
  0
DICTIONARYVAR
  5
123D9
102
{ACAD_REACTORS
330
123D8
102
}
330
123D8
100
DictionaryVariables
280
     0
  1
96
  0
ENDSEC
  0
EOF
