  0
SECTION
  2
HEADER
  9
$ACADVER
  1
AC1015
  9
$ACADMAINTVER
 70
     6
  9
$DWGCODEPAGE
  3
ANSI_932
  9
$INSBASE
 10
0.0
 20
0.0
 30
0.0
  9
$EXTMIN
 10
174.9999999999993
 20
-0.0000000000001137
 30
0.0
  9
$EXTMAX
 10
20384.0
 20
14262.0
 30
0.0
  9
$LIMMIN
 10
0.0
 20
0.0
  9
$LIMMAX
 10
21000.0
 20
14850.0
  9
$ORTHOMODE
 70
     0
  9
$REGENMODE
 70
     1
  9
$FILLMODE
 70
     1
  9
$QTEXTMODE
 70
     0
  9
$MIRRTEXT
 70
     1
  9
$LTSCALE
 40
20.0
  9
$ATTMODE
 70
     1
  9
$TEXTSIZE
 40
4.0
  9
$TRACEWID
 40
1.0
  9
$TEXTSTYLE
  7
STYLE1
  9
$CLAYER
  8
寸法
  9
$CELTYPE
  6
BYLAYER
  9
$CECOLOR
 62
   256
  9
$CELTSCALE
 40
50.0
  9
$DISPSILH
 70
     0
  9
$DIMSCALE
 40
1.0
  9
$DIMASZ
 40
125.0
  9
$DIMEXO
 40
25.0
  9
$DIMDLI
 40
7.0
  9
$DIMRND
 40
0.0
  9
$DIMDLE
 40
0.0
  9
$DIMEXE
 40
75.0
  9
$DIMTP
 40
0.0
  9
$DIMTM
 40
0.0
  9
$DIMTXT
 40
150.0
  9
$DIMCEN
 40
0.0
  9
$DIMTSZ
 40
0.0
  9
$DIMTOL
 70
     0
  9
$DIMLIM
 70
     0
  9
$DIMTIH
 70
     0
  9
$DIMTOH
 70
     0
  9
$DIMSE1
 70
     0
  9
$DIMSE2
 70
     0
  9
$DIMTAD
 70
     3
  9
$DIMZIN
 70
     8
  9
$DIMBLK
  1

  9
$DIMASO
 70
     1
  9
$DIMSHO
 70
     1
  9
$DIMPOST
  1

  9
$DIMAPOST
  1

  9
$DIMALT
 70
     0
  9
$DIMALTD
 70
     2
  9
$DIMALTF
 40
0.0394
  9
$DIMLFAC
 40
1.0
  9
$DIMTOFL
 70
     1
  9
$DIMTVP
 40
0.0
  9
$DIMTIX
 70
     1
  9
$DIMSOXD
 70
     0
  9
$DIMSAH
 70
     1
  9
$DIMBLK1
  1
DOTSMALL
  9
$DIMBLK2
  1
DOTSMALL
  9
$DIMSTYLE
  2
INABA_S50G
  9
$DIMCLRD
 70
     0
  9
$DIMCLRE
 70
     0
  9
$DIMCLRT
 70
     7
  9
$DIMTFAC
 40
1.0
  9
$DIMGAP
 40
25.0
  9
$DIMJUST
 70
     0
  9
$DIMSD1
 70
     0
  9
$DIMSD2
 70
     0
  9
$DIMTOLJ
 70
     1
  9
$DIMTZIN
 70
     0
  9
$DIMALTZ
 70
     0
  9
$DIMALTTZ
 70
     0
  9
$DIMUPT
 70
     0
  9
$DIMDEC
 70
     1
  9
$DIMTDEC
 70
     4
  9
$DIMALTU
 70
     2
  9
$DIMALTTD
 70
     2
  9
$DIMTXSTY
  7
STYLE1
  9
$DIMAUNIT
 70
     0
  9
$DIMADEC
 70
     0
  9
$DIMALTRND
 40
0.0
  9
$DIMAZIN
 70
     0
  9
$DIMDSEP
 70
    46
  9
$DIMATFIT
 70
     3
  9
$DIMFRAC
 70
     0
  9
$DIMLDRBLK
  1
DOTSMALL
  9
$DIMLUNIT
 70
     2
  9
$DIMLWD
 70
    -2
  9
$DIMLWE
 70
    -2
  9
$DIMTMOVE
 70
     0
  9
$LUNITS
 70
     2
  9
$LUPREC
 70
     1
  9
$SKETCHINC
 40
1.0
  9
$FILLETRAD
 40
3.0
  9
$AUNITS
 70
     0
  9
$AUPREC
 70
     0
  9
$MENU
  1
acad
  9
$ELEVATION
 40
0.0
  9
$PELEVATION
 40
0.0
  9
$THICKNESS
 40
0.0
  9
$LIMCHECK
 70
     0
  9
$CHAMFERA
 40
0.0
  9
$CHAMFERB
 40
0.0
  9
$CHAMFERC
 40
0.0
  9
$CHAMFERD
 40
0.0
  9
$SKPOLY
 70
     0
  9
$TDCREATE
 40
2452335.452219212
  9
$TDUCREATE
 40
2452335.077219213
  9
$TDUPDATE
 40
2452595.552085069
  9
$TDUUPDATE
 40
2452595.177085069
  9
$TDINDWG
 40
1.3877167824
  9
$TDUSRTIMER
 40
1.3877167824
  9
$USRTIMER
 70
     1
  9
$ANGBASE
 50
0.0
  9
$ANGDIR
 70
     0
  9
$PDMODE
 70
     3
  9
$PDSIZE
 40
2.0
  9
$PLINEWID
 40
0.0
  9
$SPLFRAME
 70
     0
  9
$SPLINETYPE
 70
     6
  9
$SPLINESEGS
 70
     8
  9
$HANDSEED
  5
1D378
  9
$SURFTAB1
 70
     6
  9
$SURFTAB2
 70
     6
  9
$SURFTYPE
 70
     6
  9
$SURFU
 70
     6
  9
$SURFV
 70
     6
  9
$UCSBASE
  2

  9
$UCSNAME
  2

  9
$UCSORG
 10
0.0
 20
0.0
 30
0.0
  9
$UCSXDIR
 10
1.0
 20
0.0
 30
0.0
  9
$UCSYDIR
 10
0.0
 20
1.0
 30
0.0
  9
$UCSORTHOREF
  2

  9
$UCSORTHOVIEW
 70
     0
  9
$UCSORGTOP
 10
0.0
 20
0.0
 30
0.0
  9
$UCSORGBOTTOM
 10
0.0
 20
0.0
 30
0.0
  9
$UCSORGLEFT
 10
0.0
 20
0.0
 30
0.0
  9
$UCSORGRIGHT
 10
0.0
 20
0.0
 30
0.0
  9
$UCSORGFRONT
 10
0.0
 20
0.0
 30
0.0
  9
$UCSORGBACK
 10
0.0
 20
0.0
 30
0.0
  9
$PUCSBASE
  2

  9
$PUCSNAME
  2

  9
$PUCSORG
 10
0.0
 20
0.0
 30
0.0
  9
$PUCSXDIR
 10
1.0
 20
0.0
 30
0.0
  9
$PUCSYDIR
 10
0.0
 20
1.0
 30
0.0
  9
$PUCSORTHOREF
  2

  9
$PUCSORTHOVIEW
 70
     0
  9
$PUCSORGTOP
 10
0.0
 20
0.0
 30
0.0
  9
$PUCSORGBOTTOM
 10
0.0
 20
0.0
 30
0.0
  9
$PUCSORGLEFT
 10
0.0
 20
0.0
 30
0.0
  9
$PUCSORGRIGHT
 10
0.0
 20
0.0
 30
0.0
  9
$PUCSORGFRONT
 10
0.0
 20
0.0
 30
0.0
  9
$PUCSORGBACK
 10
0.0
 20
0.0
 30
0.0
  9
$USERI1
 70
     0
  9
$USERI2
 70
     0
  9
$USERI3
 70
     0
  9
$USERI4
 70
     0
  9
$USERI5
 70
     0
  9
$USERR1
 40
0.0
  9
$USERR2
 40
0.0
  9
$USERR3
 40
0.0
  9
$USERR4
 40
0.0
  9
$USERR5
 40
0.0
  9
$WORLDVIEW
 70
     1
  9
$SHADEDGE
 70
     3
  9
$SHADEDIF
 70
    70
  9
$TILEMODE
 70
     1
  9
$MAXACTVP
 70
    16
  9
$PINSBASE
 10
0.0
 20
0.0
 30
0.0
  9
$PLIMCHECK
 70
     0
  9
$PEXTMIN
 10
1.000000000000000E+20
 20
1.000000000000000E+20
 30
1.000000000000000E+20
  9
$PEXTMAX
 10
-1.000000000000000E+20
 20
-1.000000000000000E+20
 30
-1.000000000000000E+20
  9
$PLIMMIN
 10
0.0
 20
0.0
  9
$PLIMMAX
 10
420.0
 20
297.0
  9
$UNITMODE
 70
     0
  9
$VISRETAIN
 70
     0
  9
$PLINEGEN
 70
     0
  9
$PSLTSCALE
 70
     0
  9
$TREEDEPTH
 70
  3020
  9
$CMLSTYLE
  2
STANDARD
  9
$CMLJUST
 70
     0
  9
$CMLSCALE
 40
1.0
  9
$PROXYGRAPHICS
 70
     1
  9
$MEASUREMENT
 70
     1
  9
$CELWEIGHT
370
    -1
  9
$ENDCAPS
280
     0
  9
$JOINSTYLE
280
     0
  9
$LWDISPLAY
290
     0
  9
$INSUNITS
 70
     0
  9
$HYPERLINKBASE
  1

  9
$STYLESHEET
  1

  9
$XEDIT
290
     1
  9
$CEPSNTYPE
380
     0
  9
$PSTYLEMODE
290
     1
  9
$FINGERPRINTGUID
  2
{697DFE40-F946-11D6-AF94-00909916878D}
  9
$VERSIONGUID
  2
{697DFE42-F946-11D6-AF94-00909916878D}
  9
$EXTNAMES
290
     1
  9
$PSVPSCALE
 40
0.0
  9
$OLESTARTUP
290
     0
  0
ENDSEC
  0
SECTION
  2
CLASSES
  0
CLASS
  1
OLE2FRAME
  2
AcDbOle2Frame
  3
AutoCAD 2000
 90
    32768
280
     0
281
     1
  0
CLASS
  1
LWPOLYLINE
  2
AcDbPolyline
  3
AutoCAD 2000
 90
    32768
280
     0
281
     1
  0
CLASS
  1
HATCH
  2
AcDbHatch
  3
AutoCAD 2000
 90
    32768
280
     0
281
     1
  0
CLASS
  1
DICTIONARYVAR
  2
AcDbDictionaryVar
  3
AutoCAD 2000
 90
        0
280
     0
281
     0
  0
CLASS
  1
ACDBDICTIONARYWDFLT
  2
AcDbDictionaryWithDefault
  3
AutoCAD 2000
 90
        0
280
     0
281
     0
  0
CLASS
  1
ACDBPLACEHOLDER
  2
AcDbPlaceHolder
  3
AutoCAD 2000
 90
        0
280
     0
281
     0
  0
CLASS
  1
LAYOUT
  2
AcDbLayout
  3
AutoCAD 2000
 90
        0
280
     0
281
     0
  0
CLASS
  1
LONG_TRANSACTION
  2
AcDbLongTransaction
  3
AutoCAD 2000
 90
    32768
280
     0
281
     0
  0
CLASS
  1
LWPOLYLINE
  2
AcDbPolyline
  3
AutoCAD 2000
 90
    32768
280
     0
281
     1
  0
CLASS
  1
HATCH
  2
AcDbHatch
  3
AutoCAD 2000
 90
    32768
280
     0
281
     1
  0
CLASS
  1
XRECORD
  2
AcDbXrecord
  3
AutoCAD 2000
 90
    32768
280
     0
281
     0
  0
ENDSEC
  0
SECTION
  2
TABLES
  0
TABLE
  2
VPORT
  5
746D
330
0
100
AcDbSymbolTable
 70
     2
  0
VPORT
  5
1D356
330
746D
100
AcDbSymbolTableRecord
100
AcDbViewportTableRecord
  2
*Active
 70
     0
 10
0.0
 20
0.0
 11
1.0
 21
1.0
 12
10500.0
 22
8286.123436339119
 13
0.0
 23
0.0
 14
10.0
 24
10.0
 15
10.0
 25
10.0
 16
0.0
 26
0.0
 36
1.0
 17
0.0
 27
0.0
 37
0.0
 40
16748.20763317997
 41
1.902010050251256
 42
50.0
 43
0.0
 44
0.0
 50
0.0
 51
0.0
 71
     0
 72
     0
 73
     1
 74
     0
 75
     0
 76
     0
 77
     0
 78
     0
281
     0
 65
     1
110
0.0
120
0.0
130
0.0
111
1.0
121
0.0
131
0.0
112
0.0
122
1.0
132
0.0
 79
     0
146
0.0
  0
ENDTAB
  0
TABLE
  2
LTYPE
  5
746A
330
0
100
AcDbSymbolTable
 70
     4
  0
LTYPE
  5
7477
330
746A
100
AcDbSymbolTableRecord
100
AcDbLinetypeTableRecord
  2
BYBLOCK
 70
     0
  3

 72
    65
 73
     0
 40
0.0
  0
LTYPE
  5
7478
330
746A
100
AcDbSymbolTableRecord
100
AcDbLinetypeTableRecord
  2
BYLAYER
 70
     0
  3

 72
    65
 73
     0
 40
0.0
  0
LTYPE
  5
7479
330
746A
100
AcDbSymbolTableRecord
100
AcDbLinetypeTableRecord
  2
CONTINUOUS
 70
     0
  3
Solid line
 72
    65
 73
     0
 40
0.0
  0
LTYPE
  5
7816
330
746A
100
AcDbSymbolTableRecord
100
AcDbLinetypeTableRecord
  2
CENTER
 70
     0
  3
____ _ ____ _ ____ _ ____ _ ____ _ ____ _ ____ 
 72
    65
 73
     4
 40
2.0
 49
1.25
 74
     0
 49
-0.25
 74
     0
 49
0.25
 74
     0
 49
-0.25
 74
     0
  0
LTYPE
  5
781A
330
746A
100
AcDbSymbolTableRecord
100
AcDbLinetypeTableRecord
  2
HIDDEN
 70
     0
  3
__ __ __ __ __ __ __ __ __ __ __ __ __ __ __ __
 72
    65
 73
     2
 40
0.375
 49
0.25
 74
     0
 49
-0.125
 74
     0
  0
LTYPE
  5
781B
330
746A
100
AcDbSymbolTableRecord
100
AcDbLinetypeTableRecord
  2
PHANTOM
 70
     0
  3
______  __  __  ______  __  __  ______  __  __ 
 72
    65
 73
     6
 40
2.5
 49
1.25
 74
     0
 49
-0.25
 74
     0
 49
0.25
 74
     0
 49
-0.25
 74
     0
 49
0.25
 74
     0
 49
-0.25
 74
     0
  0
ENDTAB
  0
TABLE
  2
LAYER
  5
7467
330
0
100
AcDbSymbolTable
 70
    12
  0
LAYER
  5
7474
330
7467
100
AcDbSymbolTableRecord
100
AcDbLayerTableRecord
  2
0
 70
     0
 62
     7
  6
CONTINUOUS
370
    -3
390
1D2CD
  0
LAYER
  5
DEB2
330
7467
100
AcDbSymbolTableRecord
100
AcDbLayerTableRecord
  2
センター
 70
     0
 62
     3
  6
CENTER
370
    -3
390
1D2CD
  0
LAYER
  5
DEB3
330
7467
100
AcDbSymbolTableRecord
100
AcDbLayerTableRecord
  2
寸法
 70
     0
 62
     4
  6
CONTINUOUS
370
    -3
390
1D2CD
  0
LAYER
  5
DEB4
330
7467
100
AcDbSymbolTableRecord
100
AcDbLayerTableRecord
  2
部品1
 70
     0
 62
     7
  6
CONTINUOUS
370
    -3
390
1D2CD
  0
LAYER
  5
DEB5
330
7467
100
AcDbSymbolTableRecord
100
AcDbLayerTableRecord
  2
補助
 70
     0
 62
    -1
  6
CONTINUOUS
370
    -3
390
1D2CD
  0
LAYER
  5
DEB6
330
7467
100
AcDbSymbolTableRecord
100
AcDbLayerTableRecord
  2
文字
 70
     0
 62
     7
  6
CONTINUOUS
370
    -3
390
1D2CD
  0
LAYER
  5
F255
330
7467
100
AcDbSymbolTableRecord
100
AcDbLayerTableRecord
  2
DEFPOINTS
 70
     0
 62
     7
  6
CONTINUOUS
290
     0
370
    -3
390
1D2CD
  0
LAYER
  5
10B54
330
7467
100
AcDbSymbolTableRecord
100
AcDbLayerTableRecord
  2
仕様書枠
 70
     0
 62
   230
  6
CONTINUOUS
370
    -3
390
1D2CD
  0
LAYER
  5
11729
330
7467
100
AcDbSymbolTableRecord
100
AcDbLayerTableRecord
  2
Ｇ．Ｌ
 70
     0
 62
    30
  6
CONTINUOUS
370
    -3
390
1D2CD
  0
LAYER
  5
1173F
330
7467
100
AcDbSymbolTableRecord
100
AcDbLayerTableRecord
  2
細線
 70
     0
 62
     5
  6
CONTINUOUS
370
    -3
390
1D2CD
  0
LAYER
  5
15A90
330
7467
100
AcDbSymbolTableRecord
100
AcDbLayerTableRecord
  2
想像線
 70
     0
 62
     6
  6
PHANTOM
370
    -3
390
1D2CD
  0
LAYER
  5
188E2
330
7467
100
AcDbSymbolTableRecord
100
AcDbLayerTableRecord
  2
破線
 70
     0
 62
     2
  6
HIDDEN
370
    -3
390
1D2CD
  0
ENDTAB
  0
TABLE
  2
STYLE
  5
7468
330
0
100
AcDbSymbolTable
 70
     3
  0
STYLE
  5
7475
330
7468
100
AcDbSymbolTableRecord
100
AcDbTextStyleTableRecord
  2
STANDARD
 70
     0
 40
0.0
 41
1.0
 50
0.0
 71
     0
 42
4.0
  3
txt
  4
C:\AutoCAD LT\bigfont.shx
  0
STYLE
  5
F706
330
7468
100
AcDbSymbolTableRecord
100
AcDbTextStyleTableRecord
  2
STYLE1
 70
     0
 40
0.0
 41
1.0
 50
0.0
 71
     0
 42
4.0
  3
isocp.shx
  4
bigfont.shx
  0
STYLE
  5
103BF
330
7468
100
AcDbSymbolTableRecord
100
AcDbTextStyleTableRecord
  2
STYLE2
 70
     0
 40
0.0
 41
1.0
 50
0.0
 71
     0
 42
100.0
  3
MS PGothic.ttf
  4

1001
ACAD
1000
MS PGothic
1071
    32818
  0
ENDTAB
  0
TABLE
  2
VIEW
  5
746B
330
0
100
AcDbSymbolTable
 70
     0
  0
ENDTAB
  0
TABLE
  2
UCS
  5
746C
330
0
100
AcDbSymbolTable
 70
     0
  0
ENDTAB
  0
TABLE
  2
APPID
  5
746E
330
0
100
AcDbSymbolTable
 70
     6
  0
APPID
  5
7476
330
746E
100
AcDbSymbolTableRecord
100
AcDbRegAppTableRecord
  2
ACAD
 70
     0
  0
APPID
  5
DEA9
330
746E
100
AcDbSymbolTableRecord
100
AcDbRegAppTableRecord
  2
CONTENTBLOCKICON
 70
     0
  0
APPID
  5
DEAA
330
746E
100
AcDbSymbolTableRecord
100
AcDbRegAppTableRecord
  2
CONTENTBLOCKDESCRIPTION
 70
     0
  0
APPID
  5
E71D
330
746E
100
AcDbSymbolTableRecord
100
AcDbRegAppTableRecord
  2
CONTENTTABDATA
 70
     0
  0
APPID
  5
E71E
330
746E
100
AcDbSymbolTableRecord
100
AcDbRegAppTableRecord
  2
CONTENTCURRENTTAB
 70
     0
  0
APPID
  5
F3BA
330
746E
100
AcDbSymbolTableRecord
100
AcDbRegAppTableRecord
  2
DRAWINGVARIABLESXDATA
 70
     0
  0
ENDTAB
  0
TABLE
  2
DIMSTYLE
  5
746F
330
0
100
AcDbSymbolTable
 70
     2
100
AcDbDimStyleTable
 71
     0
  0
DIMSTYLE
105
7484
330
746F
100
AcDbSymbolTableRecord
100
AcDbDimStyleTableRecord
  2
JIS
 70
     0
 41
2.5
 42
1.0
 43
7.0
 44
1.0
 73
     0
 74
     0
 77
     1
 78
     8
140
2.5
141
0.0
143
0.0394
147
0.0
172
     1
174
     1
175
     1
340
7475
  0
DIMSTYLE
105
F71F
102
{ACAD_REACTORS
330
1852D
330
1852B
330
1852F
330
1852C
330
1852E
330
185AE
330
185B1
330
185B4
330
185AD
330
185AF
330
185B3
330
1868C
330
186AF
330
1852A
330
1C1CC
330
1C1FF
330
1C8C1
330
1C836
330
1C835
330
1C834
330
1C833
330
1C934
330
1C935
330
1C932
330
1C933
330
1CB5E
330
1CB5F
330
1CB67
330
1CB68
330
1CB6E
330
1CB73
330
1CBBB
330
1CBFF
330
1CC01
330
1CC02
330
1CC10
330
1CE4B
330
1D06A
330
1D06E
330
1D071
330
1D075
330
1D08C
330
1D08D
330
1D11D
330
1D124
330
1D125
330
1D128
330
1D129
102
}
330
746F
100
AcDbSymbolTableRecord
100
AcDbDimStyleTableRecord
  2
INABA_S50G
 70
     0
 41
125.0
 42
25.0
 43
7.0
 44
75.0
 73
     0
 74
     0
 77
     3
 78
     8
140
150.0
141
0.0
143
0.0394
147
25.0
172
     1
173
     1
174
     1
178
     7
271
     1
340
F706
341
F770
343
F770
344
F770
  0
ENDTAB
  0
TABLE
  2
BLOCK_RECORD
  5
7466
330
0
100
AcDbSymbolTable
 70
    54
  0
BLOCK_RECORD
  5
747D
102
{ACAD_XDICTIONARY
360
1D2FE
102
}
330
7466
100
AcDbSymbolTableRecord
100
AcDbBlockTableRecord
  2
*MODEL_SPACE
340
1D2D0
  0
BLOCK_RECORD
  5
747A
102
{ACAD_XDICTIONARY
360
1D2FC
102
}
330
7466
100
AcDbSymbolTableRecord
100
AcDbBlockTableRecord
  2
*PAPER_SPACE
340
1D2D1
  0
BLOCK_RECORD
  5
F770
330
7466
100
AcDbSymbolTableRecord
100
AcDbBlockTableRecord
  2
_DOTSMALL
340
0
102
{BLKREFS
331
18581
331
18582
331
1CD46
331
1CD47
331
18599
331
1859A
331
1A4EB
331
1A4EC
331
1CD3B
331
1CD3C
331
1A4D4
331
1A4D5
331
18629
331
1862A
331
1D30E
331
1D30F
331
1865B
331
1865C
331
1861D
331
1861E
331
1D306
331
1D307
331
1864F
331
18650
331
1C97E
331
1C97F
331
1CD25
331
1CD26
331
1B826
331
1B827
331
1C1F8
331
1C1F9
331
1C99D
331
1C99E
331
1C8C8
331
1C8C9
331
1C8D4
331
1C8D5
331
1D316
331
1D317
331
1C8EC
331
1C8ED
331
1C911
331
1C912
331
1C950
331
1C951
331
1D326
331
1D327
331
1C968
331
1C969
331
1D31E
331
1D31F
331
1CCA9
331
1CCAA
331
1CCB5
331
1CCB6
331
1D32E
331
1D32F
331
1CCCA
331
1CCCB
331
1CCD5
331
1CCD6
331
1CCE0
331
1CCE1
331
1CCEC
331
1CCED
331
1CCF7
331
1CCF8
331
1D336
331
1D337
331
1CD0D
331
1CD0E
331
1CD19
331
1CD1A
331
1CE53
331
1CE54
331
1CE74
331
1CE75
331
1D24D
331
1D24E
331
1D259
331
1D25A
331
1D33E
331
1D33F
331
1D26E
331
1D26F
331
1D279
331
1D27A
331
1D284
331
1D285
331
1D28F
331
1D290
331
1D29A
331
1D29B
331
1D346
331
1D347
331
1D2B0
331
1D2B1
331
1D2BB
331
1D2BC
102
}
  0
BLOCK_RECORD
  5
18530
330
7466
100
AcDbSymbolTableRecord
100
AcDbBlockTableRecord
  2
*D1
340
0
  0
BLOCK_RECORD
  5
1853D
330
7466
100
AcDbSymbolTableRecord
100
AcDbBlockTableRecord
  2
*D2
340
0
  0
BLOCK_RECORD
  5
18549
330
7466
100
AcDbSymbolTableRecord
100
AcDbBlockTableRecord
  2
*D3
340
0
  0
BLOCK_RECORD
  5
18556
330
7466
100
AcDbSymbolTableRecord
100
AcDbBlockTableRecord
  2
*D4
340
0
  0
BLOCK_RECORD
  5
18563
330
7466
100
AcDbSymbolTableRecord
100
AcDbBlockTableRecord
  2
*D5
340
0
  0
BLOCK_RECORD
  5
1856F
330
7466
100
AcDbSymbolTableRecord
100
AcDbBlockTableRecord
  2
*D6
340
0
  0
BLOCK_RECORD
  5
185B5
330
7466
100
AcDbSymbolTableRecord
100
AcDbBlockTableRecord
  2
*D7
340
0
  0
BLOCK_RECORD
  5
185C2
330
7466
100
AcDbSymbolTableRecord
100
AcDbBlockTableRecord
  2
*D8
340
0
  0
BLOCK_RECORD
  5
185E5
330
7466
100
AcDbSymbolTableRecord
100
AcDbBlockTableRecord
  2
*D9
340
0
  0
BLOCK_RECORD
  5
185F2
330
7466
100
AcDbSymbolTableRecord
100
AcDbBlockTableRecord
  2
*D10
340
0
  0
BLOCK_RECORD
  5
185FF
330
7466
100
AcDbSymbolTableRecord
100
AcDbBlockTableRecord
  2
*D11
340
0
  0
BLOCK_RECORD
  5
1860A
330
7466
100
AcDbSymbolTableRecord
100
AcDbBlockTableRecord
  2
*D12
340
0
  0
BLOCK_RECORD
  5
1868D
330
7466
100
AcDbSymbolTableRecord
100
AcDbBlockTableRecord
  2
*D13
340
0
  0
BLOCK_RECORD
  5
186B0
330
7466
100
AcDbSymbolTableRecord
100
AcDbBlockTableRecord
  2
*D14
340
0
  0
BLOCK_RECORD
  5
1B821
330
7466
100
AcDbSymbolTableRecord
100
AcDbBlockTableRecord
  2
*D15
340
0
  0
BLOCK_RECORD
  5
1B82E
330
7466
100
AcDbSymbolTableRecord
100
AcDbBlockTableRecord
  2
A$C019569EB
340
0
102
{BLKREFS
331
1CC11
102
}
  0
BLOCK_RECORD
  5
1C1F3
330
7466
100
AcDbSymbolTableRecord
100
AcDbBlockTableRecord
  2
*D17
340
0
  0
BLOCK_RECORD
  5
1C214
330
7466
100
AcDbSymbolTableRecord
100
AcDbBlockTableRecord
  2
*D18
340
0
  0
BLOCK_RECORD
  5
1C8C2
330
7466
100
AcDbSymbolTableRecord
100
AcDbBlockTableRecord
  2
*D19
340
0
  0
BLOCK_RECORD
  5
1C8CF
330
7466
100
AcDbSymbolTableRecord
100
AcDbBlockTableRecord
  2
*D20
340
0
  0
BLOCK_RECORD
  5
1C8DB
330
7466
100
AcDbSymbolTableRecord
100
AcDbBlockTableRecord
  2
*D21
340
0
  0
BLOCK_RECORD
  5
1C8E6
330
7466
100
AcDbSymbolTableRecord
100
AcDbBlockTableRecord
  2
*D22
340
0
  0
BLOCK_RECORD
  5
1C90B
330
7466
100
AcDbSymbolTableRecord
100
AcDbBlockTableRecord
  2
*D23
340
0
  0
BLOCK_RECORD
  5
1C94B
330
7466
100
AcDbSymbolTableRecord
100
AcDbBlockTableRecord
  2
*D24
340
0
  0
BLOCK_RECORD
  5
1C957
330
7466
100
AcDbSymbolTableRecord
100
AcDbBlockTableRecord
  2
*D25
340
0
  0
BLOCK_RECORD
  5
1C962
330
7466
100
AcDbSymbolTableRecord
100
AcDbBlockTableRecord
  2
*D26
340
0
  0
BLOCK_RECORD
  5
1C96F
330
7466
100
AcDbSymbolTableRecord
100
AcDbBlockTableRecord
  2
*D27
340
0
  0
BLOCK_RECORD
  5
1CC1D
330
7466
100
AcDbSymbolTableRecord
100
AcDbBlockTableRecord
  2
*D28
340
0
  0
BLOCK_RECORD
  5
1CC2A
330
7466
100
AcDbSymbolTableRecord
100
AcDbBlockTableRecord
  2
*D29
340
0
  0
BLOCK_RECORD
  5
1CC37
330
7466
100
AcDbSymbolTableRecord
100
AcDbBlockTableRecord
  2
*D30
340
0
  0
BLOCK_RECORD
  5
1CC42
330
7466
100
AcDbSymbolTableRecord
100
AcDbBlockTableRecord
  2
*D31
340
0
  0
BLOCK_RECORD
  5
1CC4E
330
7466
100
AcDbSymbolTableRecord
100
AcDbBlockTableRecord
  2
*D32
340
0
  0
BLOCK_RECORD
  5
1CC5A
330
7466
100
AcDbSymbolTableRecord
100
AcDbBlockTableRecord
  2
*D33
340
0
  0
BLOCK_RECORD
  5
1CC66
330
7466
100
AcDbSymbolTableRecord
100
AcDbBlockTableRecord
  2
*D34
340
0
  0
BLOCK_RECORD
  5
1CC73
330
7466
100
AcDbSymbolTableRecord
100
AcDbBlockTableRecord
  2
*D35
340
0
  0
BLOCK_RECORD
  5
1CC7F
330
7466
100
AcDbSymbolTableRecord
100
AcDbBlockTableRecord
  2
*D36
340
0
  0
BLOCK_RECORD
  5
1CC8A
330
7466
100
AcDbSymbolTableRecord
100
AcDbBlockTableRecord
  2
*D37
340
0
  0
BLOCK_RECORD
  5
1CC97
330
7466
100
AcDbSymbolTableRecord
100
AcDbBlockTableRecord
  2
*D38
340
0
  0
BLOCK_RECORD
  5
1CE4D
330
7466
100
AcDbSymbolTableRecord
100
AcDbBlockTableRecord
  2
*D39
340
0
  0
BLOCK_RECORD
  5
1CE6F
330
7466
100
AcDbSymbolTableRecord
100
AcDbBlockTableRecord
  2
*D40
340
0
  0
BLOCK_RECORD
  5
1CE7C
330
7466
100
AcDbSymbolTableRecord
100
AcDbBlockTableRecord
  2
A$C356B7D95
340
0
102
{BLKREFS
331
1CEF9
102
}
  0
BLOCK_RECORD
  5
1CEF8
330
7466
100
AcDbSymbolTableRecord
100
AcDbBlockTableRecord
  2
A$C5FCD7CC6
340
0
102
{BLKREFS
331
1D069
102
}
  0
BLOCK_RECORD
  5
1D1C3
330
7466
100
AcDbSymbolTableRecord
100
AcDbBlockTableRecord
  2
*D43
340
0
  0
BLOCK_RECORD
  5
1D1D0
330
7466
100
AcDbSymbolTableRecord
100
AcDbBlockTableRecord
  2
*D44
340
0
  0
BLOCK_RECORD
  5
1D1DD
330
7466
100
AcDbSymbolTableRecord
100
AcDbBlockTableRecord
  2
*D45
340
0
  0
BLOCK_RECORD
  5
1D1E8
330
7466
100
AcDbSymbolTableRecord
100
AcDbBlockTableRecord
  2
*D46
340
0
  0
BLOCK_RECORD
  5
1D1F4
330
7466
100
AcDbSymbolTableRecord
100
AcDbBlockTableRecord
  2
*D47
340
0
  0
BLOCK_RECORD
  5
1D200
330
7466
100
AcDbSymbolTableRecord
100
AcDbBlockTableRecord
  2
*D48
340
0
  0
BLOCK_RECORD
  5
1D20C
330
7466
100
AcDbSymbolTableRecord
100
AcDbBlockTableRecord
  2
*D49
340
0
  0
BLOCK_RECORD
  5
1D218
330
7466
100
AcDbSymbolTableRecord
100
AcDbBlockTableRecord
  2
*D50
340
0
  0
BLOCK_RECORD
  5
1D224
330
7466
100
AcDbSymbolTableRecord
100
AcDbBlockTableRecord
  2
*D51
340
0
  0
BLOCK_RECORD
  5
1D22F
330
7466
100
AcDbSymbolTableRecord
100
AcDbBlockTableRecord
  2
*D52
340
0
  0
BLOCK_RECORD
  5
1D23C
330
7466
100
AcDbSymbolTableRecord
100
AcDbBlockTableRecord
  2
*D53
340
0
  0
ENDTAB
  0
ENDSEC
  0
SECTION
  2
BLOCKS
  0
BLOCK
  5
7489
330
747D
100
AcDbEntity
  8
0
100
AcDbBlockBegin
  2
*MODEL_SPACE
 70
     0
 10
0.0
 20
0.0
 30
0.0
  3
*MODEL_SPACE
  1

  0
ENDBLK
  5
748A
330
747D
100
AcDbEntity
  8
0
100
AcDbBlockEnd
  0
BLOCK
  5
7487
330
747A
100
AcDbEntity
 67
     1
  8
0
100
AcDbBlockBegin
  2
*PAPER_SPACE
 70
     0
 10
0.0
 20
0.0
 30
0.0
  3
*PAPER_SPACE
  1

  0
ENDBLK
  5
7488
330
747A
100
AcDbEntity
 67
     1
  8
0
100
AcDbBlockEnd
  0
BLOCK
  5
F771
330
F770
100
AcDbEntity
  8
0
 48
50.0
100
AcDbBlockBegin
  2
_DOTSMALL
 70
     0
 10
0.0
 20
0.0
 30
0.0
  3
_DOTSMALL
  1

  0
LWPOLYLINE
  5
F772
330
F770
100
AcDbEntity
  8
0
  6
ByBlock
 62
     0
 48
50.0
100
AcDbPolyline
 90
        2
 70
     1
 43
0.5
 10
-0.0625
 20
0.0
 42
1.0
 10
0.0625
 20
0.0
 42
1.0
  0
ENDBLK
  5
F776
330
F770
100
AcDbEntity
  8
0
 48
50.0
100
AcDbBlockEnd
  0
BLOCK
  5
1857C
330
18530
100
AcDbEntity
  8
0
 48
50.0
100
AcDbBlockBegin
  2
*D1
 70
     1
 10
0.0
 20
0.0
 30
0.0
  3
*D1
  1

  0
LINE
  5
1857D
330
18530
100
AcDbEntity
  8
0
  6
ByBlock
 62
     0
 48
50.0
100
AcDbLine
 10
16722.46242649134
 20
9602.681515694126
 30
0.0
 11
17593.79817887432
 21
9602.681515694126
 31
0.0
  0
LINE
  5
1857E
330
18530
100
AcDbEntity
  8
0
  6
ByBlock
 62
     0
 48
50.0
100
AcDbLine
 10
16732.46242649134
 20
9672.681515694129
 30
0.0
 11
17593.79817887432
 21
9672.681515694129
 31
0.0
  0
LINE
  5
1857F
330
18530
100
AcDbEntity
  8
0
  6
ByBlock
 62
     0
 48
50.0
100
AcDbLine
 10
17518.79817887432
 20
9672.681515694129
 30
0.0
 11
17518.79817887432
 21
9602.681515694126
 31
0.0
  0
LINE
  5
18580
330
18530
100
AcDbEntity
  8
0
  6
ByBlock
 62
     0
 48
50.0
100
AcDbLine
 10
17518.79817887432
 20
9602.681515694126
 30
0.0
 11
17518.79817887432
 21
9262.563405457903
 31
0.0
  0
INSERT
  5
18581
330
18530
100
AcDbEntity
  8
0
  6
ByBlock
 62
     0
 48
50.0
100
AcDbBlockReference
  2
_DOTSMALL
 10
17518.79817887432
 20
9672.681515694129
 30
0.0
 41
125.0
 42
125.0
 43
125.0
 50
90.0
  0
INSERT
  5
18582
330
18530
100
AcDbEntity
  8
0
  6
ByBlock
 62
     0
 48
50.0
100
AcDbBlockReference
  2
_DOTSMALL
 10
17518.79817887432
 20
9602.681515694126
 30
0.0
 41
125.0
 42
125.0
 43
125.0
 50
270.0
  0
MTEXT
  5
18583
330
18530
100
AcDbEntity
  8
0
  6
ByBlock
 62
     7
 48
50.0
100
AcDbMText
 10
17418.79817887432
 20
9370.122460576014
 30
0.0
 40
150.0
 41
0.0
 71
     5
 72
     1
  1
\A1;70
  7
STYLE1
 11
0.0000000000000001
 21
1.0
 31
0.0
 73
     1
 44
1.0
  0
POINT
  5
18584
330
18530
100
AcDbEntity
  8
DEFPOINTS
  6
ByBlock
 62
     0
 48
50.0
100
AcDbPoint
 10
16697.46242649134
 20
9602.681515694126
 30
0.0
  0
POINT
  5
18585
330
18530
100
AcDbEntity
  8
DEFPOINTS
  6
ByBlock
 62
     0
 48
50.0
100
AcDbPoint
 10
16707.46242649134
 20
9672.681515694129
 30
0.0
  0
POINT
  5
18586
330
18530
100
AcDbEntity
  8
DEFPOINTS
  6
ByBlock
 62
     0
 48
50.0
100
AcDbPoint
 10
17518.79817887432
 20
9672.681515694129
 30
0.0
  0
ENDBLK
  5
18587
330
18530
100
AcDbEntity
  8
0
 48
50.0
100
AcDbBlockEnd
  0
BLOCK
  5
1CD42
330
1853D
100
AcDbEntity
  8
0
 48
50.0
100
AcDbBlockBegin
  2
*D2
 70
     1
 10
0.0
 20
0.0
 30
0.0
  3
*D2
  1

  0
LINE
  5
1CD43
330
1853D
100
AcDbEntity
  8
0
  6
ByBlock
 62
     0
 48
50.0
100
AcDbLine
 10
14557.82958141817
 20
9298.736797361931
 30
0.0
 11
15419.16533380114
 21
9298.736797361931
 31
0.0
  0
LINE
  5
1CD44
330
1853D
100
AcDbEntity
  8
0
  6
ByBlock
 62
     0
 48
50.0
100
AcDbLine
 10
14557.82958141817
 20
11038.73679736193
 30
0.0
 11
15419.16533380114
 21
11038.73679736192
 31
0.0
  0
LINE
  5
1CD45
330
1853D
100
AcDbEntity
  8
0
  6
ByBlock
 62
     0
 48
50.0
100
AcDbLine
 10
15344.16533380114
 20
9298.736797361931
 30
0.0
 11
15344.16533380114
 21
11038.73679736192
 31
0.0
  0
INSERT
  5
1CD46
330
1853D
100
AcDbEntity
  8
0
  6
ByBlock
 62
     0
 48
50.0
100
AcDbBlockReference
  2
_DOTSMALL
 10
15344.16533380114
 20
9298.736797361931
 30
0.0
 41
125.0
 42
125.0
 43
125.0
 50
270.0
  0
INSERT
  5
1CD47
330
1853D
100
AcDbEntity
  8
0
  6
ByBlock
 62
     0
 48
50.0
100
AcDbBlockReference
  2
_DOTSMALL
 10
15344.16533380114
 20
11038.73679736192
 30
0.0
 41
125.0
 42
125.0
 43
125.0
 50
90.0
  0
MTEXT
  5
1CD48
330
1853D
100
AcDbEntity
  8
0
  6
ByBlock
 62
     7
 48
50.0
100
AcDbMText
 10
15244.16533380114
 20
10168.73679736193
 30
0.0
 40
150.0
 41
0.0
 71
     5
 72
     1
  1
\A1;3x580=1740
  7
STYLE1
 11
0.0000000000000001
 21
1.0
 31
0.0
 73
     1
 44
1.0
  0
POINT
  5
1CD49
330
1853D
100
AcDbEntity
  8
DEFPOINTS
  6
ByBlock
 62
     0
 48
50.0
100
AcDbPoint
 10
14532.82958141817
 20
9298.736797361931
 30
0.0
  0
POINT
  5
1CD4A
330
1853D
100
AcDbEntity
  8
DEFPOINTS
  6
ByBlock
 62
     0
 48
50.0
100
AcDbPoint
 10
14532.82958141817
 20
11038.73679736193
 30
0.0
  0
POINT
  5
1CD4B
330
1853D
100
AcDbEntity
  8
DEFPOINTS
  6
ByBlock
 62
     0
 48
50.0
100
AcDbPoint
 10
15344.16533380114
 20
11038.73679736192
 30
0.0
  0
ENDBLK
  5
1CD4C
330
1853D
100
AcDbEntity
  8
0
 48
50.0
100
AcDbBlockEnd
  0
BLOCK
  5
18594
330
18549
100
AcDbEntity
  8
0
 48
50.0
100
AcDbBlockBegin
  2
*D3
 70
     1
 10
0.0
 20
0.0
 30
0.0
  3
*D3
  1

  0
LINE
  5
18595
330
18549
100
AcDbEntity
  8
0
  6
ByBlock
 62
     0
 48
50.0
100
AcDbLine
 10
16732.46242649134
 20
12572.68151569412
 30
0.0
 11
17593.79817887431
 21
12572.68151569412
 31
0.0
  0
LINE
  5
18596
330
18549
100
AcDbEntity
  8
0
  6
ByBlock
 62
     0
 48
50.0
100
AcDbLine
 10
16722.46242649134
 20
12642.68151569412
 30
0.0
 11
17593.79817887431
 21
12642.68151569412
 31
0.0
  0
LINE
  5
18597
330
18549
100
AcDbEntity
  8
0
  6
ByBlock
 62
     0
 48
50.0
100
AcDbLine
 10
17518.79817887431
 20
12572.68151569412
 30
0.0
 11
17518.79817887431
 21
12642.68151569412
 31
0.0
  0
LINE
  5
18598
330
18549
100
AcDbEntity
  8
0
  6
ByBlock
 62
     0
 48
50.0
100
AcDbLine
 10
17518.79817887431
 20
12642.68151569412
 30
0.0
 11
17518.79817887431
 21
12982.79962593034
 31
0.0
  0
INSERT
  5
18599
330
18549
100
AcDbEntity
  8
0
  6
ByBlock
 62
     0
 48
50.0
100
AcDbBlockReference
  2
_DOTSMALL
 10
17518.79817887431
 20
12572.68151569412
 30
0.0
 41
125.0
 42
125.0
 43
125.0
 50
270.0
  0
INSERT
  5
1859A
330
18549
100
AcDbEntity
  8
0
  6
ByBlock
 62
     0
 48
50.0
100
AcDbBlockReference
  2
_DOTSMALL
 10
17518.79817887431
 20
12642.68151569412
 30
0.0
 41
125.0
 42
125.0
 43
125.0
 50
90.0
  0
MTEXT
  5
1859B
330
18549
100
AcDbEntity
  8
0
  6
ByBlock
 62
     7
 48
50.0
100
AcDbMText
 10
17418.79817887431
 20
12875.24057081223
 30
0.0
 40
150.0
 41
0.0
 71
     5
 72
     1
  1
\A1;70
  7
STYLE1
 11
0.0000000000000001
 21
1.0
 31
0.0
 73
     1
 44
1.0
  0
POINT
  5
1859C
330
18549
100
AcDbEntity
  8
DEFPOINTS
  6
ByBlock
 62
     0
 48
50.0
100
AcDbPoint
 10
16707.46242649134
 20
12572.68151569412
 30
0.0
  0
POINT
  5
1859D
330
18549
100
AcDbEntity
  8
DEFPOINTS
  6
ByBlock
 62
     0
 48
50.0
100
AcDbPoint
 10
16697.46242649134
 20
12642.68151569412
 30
0.0
  0
POINT
  5
1859E
330
18549
100
AcDbEntity
  8
DEFPOINTS
  6
ByBlock
 62
     0
 48
50.0
100
AcDbPoint
 10
17518.79817887431
 20
12642.68151569412
 30
0.0
  0
ENDBLK
  5
1859F
330
18549
100
AcDbEntity
  8
0
 48
50.0
100
AcDbBlockEnd
  0
BLOCK
  5
1A4E6
330
18556
100
AcDbEntity
  8
0
 48
50.0
100
AcDbBlockBegin
  2
*D4
 70
     1
 10
0.0
 20
0.0
 30
0.0
  3
*D4
  1

  0
LINE
  5
1A4E7
330
18556
100
AcDbEntity
  8
0
  6
ByBlock
 62
     0
 48
50.0
100
AcDbLine
 10
8477.829581418175
 20
9228.736797361971
 30
0.0
 11
9651.969337719759
 21
9228.736797361971
 31
0.0
  0
LINE
  5
1A4E8
330
18556
100
AcDbEntity
  8
0
  6
ByBlock
 62
     0
 48
50.0
100
AcDbLine
 10
9299.165333801147
 20
9278.736797361975
 30
0.0
 11
9651.969337719759
 21
9278.736797361975
 31
0.0
  0
LINE
  5
1A4E9
330
18556
100
AcDbEntity
  8
0
  6
ByBlock
 62
     0
 48
50.0
100
AcDbLine
 10
9576.969337719758
 20
9278.736797361975
 30
0.0
 11
9576.969337719758
 21
9228.736797361971
 31
0.0
  0
LINE
  5
1A4EA
330
18556
100
AcDbEntity
  8
0
  6
ByBlock
 62
     0
 48
50.0
100
AcDbLine
 10
9576.969337719758
 20
9228.736797361971
 30
0.0
 11
9576.969337719758
 21
8884.130498149373
 31
0.0
  0
INSERT
  5
1A4EB
330
18556
100
AcDbEntity
  8
0
  6
ByBlock
 62
     0
 48
50.0
100
AcDbBlockReference
  2
_DOTSMALL
 10
9576.969337719758
 20
9278.736797361975
 30
0.0
 41
125.0
 42
125.0
 43
125.0
 50
90.0
  0
INSERT
  5
1A4EC
330
18556
100
AcDbEntity
  8
0
  6
ByBlock
 62
     0
 48
50.0
100
AcDbBlockReference
  2
_DOTSMALL
 10
9576.969337719758
 20
9228.736797361971
 30
0.0
 41
125.0
 42
125.0
 43
125.0
 50
270.0
  0
MTEXT
  5
1A4ED
330
18556
100
AcDbEntity
  8
0
  6
ByBlock
 62
     7
 48
50.0
100
AcDbMText
 10
9476.969337719758
 20
8991.689553267482
 30
0.0
 40
150.0
 41
0.0
 71
     5
 72
     1
  1
\A1;50
  7
STYLE1
 11
0.0000000000000001
 21
1.0
 31
0.0
 73
     1
 44
1.0
  0
POINT
  5
1A4EE
330
18556
100
AcDbEntity
  8
DEFPOINTS
  6
ByBlock
 62
     0
 48
50.0
100
AcDbPoint
 10
8452.829581418177
 20
9228.736797361971
 30
0.0
  0
POINT
  5
1A4EF
330
18556
100
AcDbEntity
  8
DEFPOINTS
  6
ByBlock
 62
     0
 48
50.0
100
AcDbPoint
 10
9274.165333801148
 20
9278.736797361975
 30
0.0
  0
POINT
  5
1A4F0
330
18556
100
AcDbEntity
  8
DEFPOINTS
  6
ByBlock
 62
     0
 48
50.0
100
AcDbPoint
 10
9576.969337719758
 20
9278.736797361975
 30
0.0
  0
ENDBLK
  5
1A4F1
330
18556
100
AcDbEntity
  8
0
 48
50.0
100
AcDbBlockEnd
  0
BLOCK
  5
1CD37
330
18563
100
AcDbEntity
  8
0
 48
50.0
100
AcDbBlockBegin
  2
*D5
 70
     1
 10
0.0
 20
0.0
 30
0.0
  3
*D5
  1

  0
LINE
  5
1CD38
330
18563
100
AcDbEntity
  8
0
  6
ByBlock
 62
     0
 48
50.0
100
AcDbLine
 10
15369.16533380114
 20
9278.736797361931
 30
0.0
 11
15721.96933771975
 21
9278.736797361931
 31
0.0
  0
LINE
  5
1CD39
330
18563
100
AcDbEntity
  8
0
  6
ByBlock
 62
     0
 48
50.0
100
AcDbLine
 10
15369.16533380114
 20
11058.73679736193
 30
0.0
 11
15721.96933771975
 21
11058.73679736193
 31
0.0
  0
LINE
  5
1CD3A
330
18563
100
AcDbEntity
  8
0
  6
ByBlock
 62
     0
 48
50.0
100
AcDbLine
 10
15646.96933771975
 20
9278.736797361931
 30
0.0
 11
15646.96933771975
 21
11058.73679736193
 31
0.0
  0
INSERT
  5
1CD3B
330
18563
100
AcDbEntity
  8
0
  6
ByBlock
 62
     0
 48
50.0
100
AcDbBlockReference
  2
_DOTSMALL
 10
15646.96933771975
 20
9278.736797361931
 30
0.0
 41
125.0
 42
125.0
 43
125.0
 50
270.0
  0
INSERT
  5
1CD3C
330
18563
100
AcDbEntity
  8
0
  6
ByBlock
 62
     0
 48
50.0
100
AcDbBlockReference
  2
_DOTSMALL
 10
15646.96933771975
 20
11058.73679736193
 30
0.0
 41
125.0
 42
125.0
 43
125.0
 50
90.0
  0
MTEXT
  5
1CD3D
330
18563
100
AcDbEntity
  8
0
  6
ByBlock
 62
     7
 48
50.0
100
AcDbMText
 10
15546.96933771975
 20
10168.73679736193
 30
0.0
 40
150.0
 41
0.0
 71
     5
 72
     1
  1
\A1;内部寸法 1780
  7
STYLE1
 11
0.0000000000000001
 21
1.0
 31
0.0
 73
     1
 44
1.0
  0
POINT
  5
1CD3E
330
18563
100
AcDbEntity
  8
DEFPOINTS
  6
ByBlock
 62
     0
 48
50.0
100
AcDbPoint
 10
15344.16533380114
 20
9278.736797361931
 30
0.0
  0
POINT
  5
1CD3F
330
18563
100
AcDbEntity
  8
DEFPOINTS
  6
ByBlock
 62
     0
 48
50.0
100
AcDbPoint
 10
15344.16533380114
 20
11058.73679736193
 30
0.0
  0
POINT
  5
1CD40
330
18563
100
AcDbEntity
  8
DEFPOINTS
  6
ByBlock
 62
     0
 48
50.0
100
AcDbPoint
 10
15646.96933771975
 20
11058.73679736193
 30
0.0
  0
ENDBLK
  5
1CD41
330
18563
100
AcDbEntity
  8
0
 48
50.0
100
AcDbBlockEnd
  0
BLOCK
  5
1A4CE
330
1856F
100
AcDbEntity
  8
0
 48
50.0
100
AcDbBlockBegin
  2
*D6
 70
     1
 10
0.0
 20
0.0
 30
0.0
  3
*D6
  1

  0
LINE
  5
1A4CF
330
1856F
100
AcDbEntity
  8
0
  6
ByBlock
 62
     0
 48
50.0
100
AcDbLine
 10
9299.165333801145
 20
12218.73679736197
 30
0.0
 11
9651.969337719755
 21
12218.73679736197
 31
0.0
  0
LINE
  5
1A4D0
330
1856F
100
AcDbEntity
  8
0
  6
ByBlock
 62
     0
 48
50.0
100
AcDbLine
 10
8477.829581418173
 20
12268.73679736197
 30
0.0
 11
9651.969337719755
 21
12268.73679736197
 31
0.0
  0
LINE
  5
1A4D1
330
1856F
100
AcDbEntity
  8
0
  6
ByBlock
 62
     0
 48
50.0
100
AcDbLine
 10
9576.969337719754
 20
12218.73679736197
 30
0.0
 11
9576.969337719754
 21
12093.73679736197
 31
0.0
  0
LINE
  5
1A4D2
330
1856F
100
AcDbEntity
  8
0
  6
ByBlock
 62
     0
 48
50.0
100
AcDbLine
 10
9576.969337719754
 20
12268.73679736197
 30
0.0
 11
9576.969337719754
 21
12733.85490759819
 31
0.0
  0
LINE
  5
1A4D3
330
1856F
100
AcDbEntity
  8
0
  6
ByBlock
 62
     0
 48
50.0
100
AcDbLine
 10
9576.969337719754
 20
12218.73679736197
 30
0.0
 11
9576.969337719754
 21
12268.73679736197
 31
0.0
  0
INSERT
  5
1A4D4
330
1856F
100
AcDbEntity
  8
0
  6
ByBlock
 62
     0
 48
50.0
100
AcDbBlockReference
  2
_DOTSMALL
 10
9576.969337719754
 20
12218.73679736197
 30
0.0
 41
125.0
 42
125.0
 43
125.0
 50
90.0
  0
INSERT
  5
1A4D5
330
1856F
100
AcDbEntity
  8
0
  6
ByBlock
 62
     0
 48
50.0
100
AcDbBlockReference
  2
_DOTSMALL
 10
9576.969337719754
 20
12268.73679736197
 30
0.0
 41
125.0
 42
125.0
 43
125.0
 50
270.0
  0
MTEXT
  5
1A4D6
330
1856F
100
AcDbEntity
  8
0
  6
ByBlock
 62
     7
 48
50.0
100
AcDbMText
 10
9476.969337719754
 20
12626.29585248008
 30
0.0
 40
150.0
 41
0.0
 71
     5
 72
     1
  1
\A1;50
  7
STYLE1
 11
0.0000000000000001
 21
1.0
 31
0.0
 73
     1
 44
1.0
  0
POINT
  5
1A4D7
330
1856F
100
AcDbEntity
  8
DEFPOINTS
  6
ByBlock
 62
     0
 48
50.0
100
AcDbPoint
 10
9274.165333801144
 20
12218.73679736197
 30
0.0
  0
POINT
  5
1A4D8
330
1856F
100
AcDbEntity
  8
DEFPOINTS
  6
ByBlock
 62
     0
 48
50.0
100
AcDbPoint
 10
8452.829581418173
 20
12268.73679736197
 30
0.0
  0
POINT
  5
1A4D9
330
1856F
100
AcDbEntity
  8
DEFPOINTS
  6
ByBlock
 62
     0
 48
50.0
100
AcDbPoint
 10
9576.969337719754
 20
12268.73679736197
 30
0.0
  0
ENDBLK
  5
1A4DA
330
1856F
100
AcDbEntity
  8
0
 48
50.0
100
AcDbBlockEnd
  0
BLOCK
  5
18624
330
185B5
100
AcDbEntity
  8
0
 48
50.0
100
AcDbBlockBegin
  2
*D7
 70
     1
 10
0.0
 20
0.0
 30
0.0
  3
*D7
  1

  0
LINE
  5
18625
330
185B5
100
AcDbEntity
  8
0
  6
ByBlock
 62
     0
 48
50.0
100
AcDbLine
 10
11787.46242649134
 20
12657.68151569412
 30
0.0
 11
11787.46242649134
 21
13127.71350056477
 31
0.0
  0
LINE
  5
18626
330
185B5
100
AcDbEntity
  8
0
  6
ByBlock
 62
     0
 48
50.0
100
AcDbLine
 10
11857.46242649134
 20
12667.68151569412
 30
0.0
 11
11857.46242649134
 21
13127.71350056477
 31
0.0
  0
LINE
  5
18627
330
185B5
100
AcDbEntity
  8
0
  6
ByBlock
 62
     0
 48
50.0
100
AcDbLine
 10
11857.46242649134
 20
13052.71350056477
 30
0.0
 11
11787.46242649134
 21
13052.71350056477
 31
0.0
  0
LINE
  5
18628
330
185B5
100
AcDbEntity
  8
0
  6
ByBlock
 62
     0
 48
50.0
100
AcDbLine
 10
11787.46242649134
 20
13052.71350056477
 30
0.0
 11
11437.34431625512
 21
13052.71350056477
 31
0.0
  0
INSERT
  5
18629
330
185B5
100
AcDbEntity
  8
0
  6
ByBlock
 62
     0
 48
50.0
100
AcDbBlockReference
  2
_DOTSMALL
 10
11857.46242649134
 20
13052.71350056477
 30
0.0
 41
125.0
 42
125.0
 43
125.0
  0
INSERT
  5
1862A
330
185B5
100
AcDbEntity
  8
0
  6
ByBlock
 62
     0
 48
50.0
100
AcDbBlockReference
  2
_DOTSMALL
 10
11787.46242649134
 20
13052.71350056477
 30
0.0
 41
125.0
 42
125.0
 43
125.0
 50
180.0
  0
MTEXT
  5
1862B
330
185B5
100
AcDbEntity
  8
0
  6
ByBlock
 62
     7
 48
50.0
100
AcDbMText
 10
11544.90337137323
 20
13152.71350056477
 30
0.0
 40
150.0
 41
0.0
 71
     5
 72
     1
  1
\A1;70
  7
STYLE1
 73
     1
 44
1.0
  0
POINT
  5
1862C
330
185B5
100
AcDbEntity
  8
DEFPOINTS
  6
ByBlock
 62
     0
 48
50.0
100
AcDbPoint
 10
11787.46242649134
 20
12632.68151569412
 30
0.0
  0
POINT
  5
1862D
330
185B5
100
AcDbEntity
  8
DEFPOINTS
  6
ByBlock
 62
     0
 48
50.0
100
AcDbPoint
 10
11857.46242649134
 20
12642.68151569412
 30
0.0
  0
POINT
  5
1862E
330
185B5
100
AcDbEntity
  8
DEFPOINTS
  6
ByBlock
 62
     0
 48
50.0
100
AcDbPoint
 10
11857.46242649134
 20
13052.71350056477
 30
0.0
  0
ENDBLK
  5
1862F
330
185B5
100
AcDbEntity
  8
0
 48
50.0
100
AcDbBlockEnd
  0
BLOCK
  5
1C9A4
330
185C2
100
AcDbEntity
  8
0
 48
50.0
100
AcDbBlockBegin
  2
*D8
 70
     1
 10
0.0
 20
0.0
 30
0.0
  3
*D8
  1

  0
LINE
  5
1D30C
330
185C2
100
AcDbEntity
  8
寸法
 62
     0
 48
50.0
100
AcDbLine
 10
14462.82958141817
 20
11133.73679736193
 30
0.0
 11
14462.82958141817
 21
11593.76878223257
 31
0.0
  0
LINE
  5
1D30D
330
185C2
100
AcDbEntity
  8
寸法
 62
     0
 48
50.0
100
AcDbLine
 10
12142.82958141817
 20
11518.76878223258
 30
0.0
 11
14462.82958141817
 21
11518.76878223258
 31
0.0
  0
INSERT
  5
1D30E
330
185C2
100
AcDbEntity
  8
寸法
 62
     0
 48
50.0
100
AcDbBlockReference
  2
_DOTSMALL
 10
12142.82958141817
 20
11518.76878223258
 30
0.0
 41
125.0
 42
125.0
 43
125.0
 50
180.0
  0
INSERT
  5
1D30F
330
185C2
100
AcDbEntity
  8
寸法
 62
     0
 48
50.0
100
AcDbBlockReference
  2
_DOTSMALL
 10
14462.82958141817
 20
11518.76878223258
 30
0.0
 41
125.0
 42
125.0
 43
125.0
  0
MTEXT
  5
1D310
330
185C2
100
AcDbEntity
  8
寸法
 62
     7
 48
50.0
100
AcDbMText
 10
13302.82958141817
 20
11618.7835460121
 30
0.0
 40
150.0
 41
0.0
 71
     5
 72
     1
  1
\A1;4x580=2320
  7
STYLE1
 73
     1
 44
1.0
  0
POINT
  5
1D311
330
185C2
100
AcDbEntity
  8
DEFPOINTS
 62
     0
 48
50.0
100
AcDbPoint
 10
12142.82958141817
 20
11108.73679736192
 30
0.0
  0
POINT
  5
1D312
330
185C2
100
AcDbEntity
  8
DEFPOINTS
 62
     0
 48
50.0
100
AcDbPoint
 10
14462.82958141817
 20
11108.73679736193
 30
0.0
  0
POINT
  5
1D313
330
185C2
100
AcDbEntity
  8
DEFPOINTS
 62
     0
 48
50.0
100
AcDbPoint
 10
14462.82958141817
 20
11518.76878223258
 30
0.0
  0
ENDBLK
  5
1C9AD
330
185C2
100
AcDbEntity
  8
0
 48
50.0
100
AcDbBlockEnd
  0
BLOCK
  5
18656
330
185E5
100
AcDbEntity
  8
0
 48
50.0
100
AcDbBlockBegin
  2
*D9
 70
     1
 10
0.0
 20
0.0
 30
0.0
  3
*D9
  1

  0
LINE
  5
18657
330
185E5
100
AcDbEntity
  8
0
  6
ByBlock
 62
     0
 48
50.0
100
AcDbLine
 10
16637.46242649134
 20
12667.68151569412
 30
0.0
 11
16637.46242649134
 21
13127.71350056477
 31
0.0
  0
LINE
  5
18658
330
185E5
100
AcDbEntity
  8
0
  6
ByBlock
 62
     0
 48
50.0
100
AcDbLine
 10
16707.46242649134
 20
12657.68151569412
 30
0.0
 11
16707.46242649134
 21
13127.71350056477
 31
0.0
  0
LINE
  5
18659
330
185E5
100
AcDbEntity
  8
0
  6
ByBlock
 62
     0
 48
50.0
100
AcDbLine
 10
16637.46242649134
 20
13052.71350056477
 30
0.0
 11
16707.46242649134
 21
13052.71350056477
 31
0.0
  0
LINE
  5
1865A
330
185E5
100
AcDbEntity
  8
0
  6
ByBlock
 62
     0
 48
50.0
100
AcDbLine
 10
16707.46242649134
 20
13052.71350056477
 30
0.0
 11
17077.58053672756
 21
13052.71350056477
 31
0.0
  0
INSERT
  5
1865B
330
185E5
100
AcDbEntity
  8
0
  6
ByBlock
 62
     0
 48
50.0
100
AcDbBlockReference
  2
_DOTSMALL
 10
16637.46242649134
 20
13052.71350056477
 30
0.0
 41
125.0
 42
125.0
 43
125.0
 50
180.0
  0
INSERT
  5
1865C
330
185E5
100
AcDbEntity
  8
0
  6
ByBlock
 62
     0
 48
50.0
100
AcDbBlockReference
  2
_DOTSMALL
 10
16707.46242649134
 20
13052.71350056477
 30
0.0
 41
125.0
 42
125.0
 43
125.0
  0
MTEXT
  5
1865D
330
185E5
100
AcDbEntity
  8
0
  6
ByBlock
 62
     7
 48
50.0
100
AcDbMText
 10
16970.02148160945
 20
13152.71350056477
 30
0.0
 40
150.0
 41
0.0
 71
     5
 72
     1
  1
\A1;70
  7
STYLE1
 73
     1
 44
1.0
  0
POINT
  5
1865E
330
185E5
100
AcDbEntity
  8
DEFPOINTS
  6
ByBlock
 62
     0
 48
50.0
100
AcDbPoint
 10
16637.46242649134
 20
12642.68151569412
 30
0.0
  0
POINT
  5
1865F
330
185E5
100
AcDbEntity
  8
DEFPOINTS
  6
ByBlock
 62
     0
 48
50.0
100
AcDbPoint
 10
16707.46242649134
 20
12632.68151569412
 30
0.0
  0
POINT
  5
18660
330
185E5
100
AcDbEntity
  8
DEFPOINTS
  6
ByBlock
 62
     0
 48
50.0
100
AcDbPoint
 10
16707.46242649134
 20
13052.71350056477
 30
0.0
  0
ENDBLK
  5
18661
330
185E5
100
AcDbEntity
  8
0
 48
50.0
100
AcDbBlockEnd
  0
BLOCK
  5
18617
330
185F2
100
AcDbEntity
  8
0
 48
50.0
100
AcDbBlockBegin
  2
*D10
 70
     1
 10
0.0
 20
0.0
 30
0.0
  3
*D10
  1

  0
LINE
  5
18618
330
185F2
100
AcDbEntity
  8
0
  6
ByBlock
 62
     0
 48
50.0
100
AcDbLine
 10
11787.46242649134
 20
12657.68151569412
 30
0.0
 11
11787.46242649134
 21
13426.45988446553
 31
0.0
  0
LINE
  5
18619
330
185F2
100
AcDbEntity
  8
0
  6
ByBlock
 62
     0
 48
50.0
100
AcDbLine
 10
11837.46242649134
 20
13077.71350056477
 30
0.0
 11
11837.46242649134
 21
13426.45988446553
 31
0.0
  0
LINE
  5
1861A
330
185F2
100
AcDbEntity
  8
0
  6
ByBlock
 62
     0
 48
50.0
100
AcDbLine
 10
11837.46242649134
 20
13351.45988446553
 30
0.0
 11
11962.46242649134
 21
13351.45988446553
 31
0.0
  0
LINE
  5
1861B
330
185F2
100
AcDbEntity
  8
0
  6
ByBlock
 62
     0
 48
50.0
100
AcDbLine
 10
11787.46242649134
 20
13351.45988446553
 30
0.0
 11
11322.34431625512
 21
13351.45988446553
 31
0.0
  0
LINE
  5
1861C
330
185F2
100
AcDbEntity
  8
0
  6
ByBlock
 62
     0
 48
50.0
100
AcDbLine
 10
11837.46242649134
 20
13351.45988446553
 30
0.0
 11
11787.46242649134
 21
13351.45988446553
 31
0.0
  0
INSERT
  5
1861D
330
185F2
100
AcDbEntity
  8
0
  6
ByBlock
 62
     0
 48
50.0
100
AcDbBlockReference
  2
_DOTSMALL
 10
11837.46242649134
 20
13351.45988446553
 30
0.0
 41
125.0
 42
125.0
 43
125.0
 50
180.0
  0
INSERT
  5
1861E
330
185F2
100
AcDbEntity
  8
0
  6
ByBlock
 62
     0
 48
50.0
100
AcDbBlockReference
  2
_DOTSMALL
 10
11787.46242649134
 20
13351.45988446553
 30
0.0
 41
125.0
 42
125.0
 43
125.0
  0
MTEXT
  5
1861F
330
185F2
100
AcDbEntity
  8
0
  6
ByBlock
 62
     7
 48
50.0
100
AcDbMText
 10
11429.90337137323
 20
13451.45988446553
 30
0.0
 40
150.0
 41
0.0
 71
     5
 72
     1
  1
\A1;50
  7
STYLE1
 73
     1
 44
1.0
  0
POINT
  5
18620
330
185F2
100
AcDbEntity
  8
DEFPOINTS
  6
ByBlock
 62
     0
 48
50.0
100
AcDbPoint
 10
11787.46242649134
 20
12632.68151569412
 30
0.0
  0
POINT
  5
18621
330
185F2
100
AcDbEntity
  8
DEFPOINTS
  6
ByBlock
 62
     0
 48
50.0
100
AcDbPoint
 10
11837.46242649134
 20
13052.71350056477
 30
0.0
  0
POINT
  5
18622
330
185F2
100
AcDbEntity
  8
DEFPOINTS
  6
ByBlock
 62
     0
 48
50.0
100
AcDbPoint
 10
11837.46242649134
 20
13351.45988446553
 30
0.0
  0
ENDBLK
  5
18623
330
185F2
100
AcDbEntity
  8
0
 48
50.0
100
AcDbBlockEnd
  0
BLOCK
  5
1C98F
330
185FF
100
AcDbEntity
  8
0
 48
50.0
100
AcDbBlockBegin
  2
*D11
 70
     1
 10
0.0
 20
0.0
 30
0.0
  3
*D11
  1

  0
LINE
  5
1D304
330
185FF
100
AcDbEntity
  8
寸法
 62
     0
 48
50.0
100
AcDbLine
 10
14482.82958141817
 20
11543.76878223258
 30
0.0
 11
14482.82958141817
 21
11892.51516613334
 31
0.0
  0
LINE
  5
1D305
330
185FF
100
AcDbEntity
  8
寸法
 62
     0
 48
50.0
100
AcDbLine
 10
12122.82958141816
 20
11817.51516613334
 30
0.0
 11
14482.82958141817
 21
11817.51516613334
 31
0.0
  0
INSERT
  5
1D306
330
185FF
100
AcDbEntity
  8
寸法
 62
     0
 48
50.0
100
AcDbBlockReference
  2
_DOTSMALL
 10
12122.82958141816
 20
11817.51516613334
 30
0.0
 41
125.0
 42
125.0
 43
125.0
 50
180.0
  0
INSERT
  5
1D307
330
185FF
100
AcDbEntity
  8
寸法
 62
     0
 48
50.0
100
AcDbBlockReference
  2
_DOTSMALL
 10
14482.82958141817
 20
11817.51516613334
 30
0.0
 41
125.0
 42
125.0
 43
125.0
  0
MTEXT
  5
1D308
330
185FF
100
AcDbEntity
  8
寸法
 62
     7
 48
50.0
100
AcDbMText
 10
13302.82958141817
 20
11917.52992991286
 30
0.0
 40
150.0
 41
0.0
 71
     5
 72
     1
  1
\A1;内部寸法 2360
  7
STYLE1
 73
     1
 44
1.0
  0
POINT
  5
1D309
330
185FF
100
AcDbEntity
  8
DEFPOINTS
 62
     0
 48
50.0
100
AcDbPoint
 10
12122.82958141816
 20
11518.76878223258
 30
0.0
  0
POINT
  5
1D30A
330
185FF
100
AcDbEntity
  8
DEFPOINTS
 62
     0
 48
50.0
100
AcDbPoint
 10
14482.82958141817
 20
11518.76878223258
 30
0.0
  0
POINT
  5
1D30B
330
185FF
100
AcDbEntity
  8
DEFPOINTS
 62
     0
 48
50.0
100
AcDbPoint
 10
14482.82958141817
 20
11817.51516613334
 30
0.0
  0
ENDBLK
  5
1C998
330
185FF
100
AcDbEntity
  8
0
 48
50.0
100
AcDbBlockEnd
  0
BLOCK
  5
18649
330
1860A
100
AcDbEntity
  8
0
 48
50.0
100
AcDbBlockBegin
  2
*D12
 70
     1
 10
0.0
 20
0.0
 30
0.0
  3
*D12
  1

  0
LINE
  5
1864A
330
1860A
100
AcDbEntity
  8
0
  6
ByBlock
 62
     0
 48
50.0
100
AcDbLine
 10
16657.46242649135
 20
13077.71350056477
 30
0.0
 11
16657.46242649135
 21
13426.45988446553
 31
0.0
  0
LINE
  5
1864B
330
1860A
100
AcDbEntity
  8
0
  6
ByBlock
 62
     0
 48
50.0
100
AcDbLine
 10
16707.46242649134
 20
12657.68151569412
 30
0.0
 11
16707.46242649134
 21
13426.45988446553
 31
0.0
  0
LINE
  5
1864C
330
1860A
100
AcDbEntity
  8
0
  6
ByBlock
 62
     0
 48
50.0
100
AcDbLine
 10
16657.46242649135
 20
13351.45988446553
 30
0.0
 11
16532.46242649135
 21
13351.45988446553
 31
0.0
  0
LINE
  5
1864D
330
1860A
100
AcDbEntity
  8
0
  6
ByBlock
 62
     0
 48
50.0
100
AcDbLine
 10
16707.46242649134
 20
13351.45988446553
 30
0.0
 11
17172.58053672756
 21
13351.45988446553
 31
0.0
  0
LINE
  5
1864E
330
1860A
100
AcDbEntity
  8
0
  6
ByBlock
 62
     0
 48
50.0
100
AcDbLine
 10
16657.46242649135
 20
13351.45988446553
 30
0.0
 11
16707.46242649134
 21
13351.45988446553
 31
0.0
  0
INSERT
  5
1864F
330
1860A
100
AcDbEntity
  8
0
  6
ByBlock
 62
     0
 48
50.0
100
AcDbBlockReference
  2
_DOTSMALL
 10
16657.46242649135
 20
13351.45988446553
 30
0.0
 41
125.0
 42
125.0
 43
125.0
  0
INSERT
  5
18650
330
1860A
100
AcDbEntity
  8
0
  6
ByBlock
 62
     0
 48
50.0
100
AcDbBlockReference
  2
_DOTSMALL
 10
16707.46242649134
 20
13351.45988446553
 30
0.0
 41
125.0
 42
125.0
 43
125.0
 50
180.0
  0
MTEXT
  5
18651
330
1860A
100
AcDbEntity
  8
0
  6
ByBlock
 62
     7
 48
50.0
100
AcDbMText
 10
17065.02148160945
 20
13451.45988446553
 30
0.0
 40
150.0
 41
0.0
 71
     5
 72
     1
  1
\A1;50
  7
STYLE1
 73
     1
 44
1.0
  0
POINT
  5
18652
330
1860A
100
AcDbEntity
  8
DEFPOINTS
  6
ByBlock
 62
     0
 48
50.0
100
AcDbPoint
 10
16657.46242649135
 20
13052.71350056477
 30
0.0
  0
POINT
  5
18653
330
1860A
100
AcDbEntity
  8
DEFPOINTS
  6
ByBlock
 62
     0
 48
50.0
100
AcDbPoint
 10
16707.46242649134
 20
12632.68151569412
 30
0.0
  0
POINT
  5
18654
330
1860A
100
AcDbEntity
  8
DEFPOINTS
  6
ByBlock
 62
     0
 48
50.0
100
AcDbPoint
 10
16707.46242649134
 20
13351.45988446553
 30
0.0
  0
ENDBLK
  5
18655
330
1860A
100
AcDbEntity
  8
0
 48
50.0
100
AcDbBlockEnd
  0
BLOCK
  5
1C97A
330
1868D
100
AcDbEntity
  8
0
 48
50.0
100
AcDbBlockBegin
  2
*D13
 70
     1
 10
0.0
 20
0.0
 30
0.0
  3
*D13
  1

  0
LINE
  5
1C97B
330
1868D
100
AcDbEntity
  8
0
  6
ByBlock
 62
     0
 48
50.0
100
AcDbLine
 10
11782.82958141817
 20
9213.736797361928
 30
0.0
 11
11782.82958141817
 21
8361.498920305797
 31
0.0
  0
LINE
  5
1C97C
330
1868D
100
AcDbEntity
  8
0
  6
ByBlock
 62
     0
 48
50.0
100
AcDbLine
 10
14242.82958141817
 20
9213.73679736193
 30
0.0
 11
14242.82958141817
 21
8361.498920305797
 31
0.0
  0
LINE
  5
1C97D
330
1868D
100
AcDbEntity
  8
0
  6
ByBlock
 62
     0
 48
50.0
100
AcDbLine
 10
11782.82958141817
 20
8436.498920305798
 30
0.0
 11
14242.82958141817
 21
8436.498920305798
 31
0.0
  0
INSERT
  5
1C97E
330
1868D
100
AcDbEntity
  8
0
  6
ByBlock
 62
     0
 48
50.0
100
AcDbBlockReference
  2
_DOTSMALL
 10
11782.82958141817
 20
8436.498920305798
 30
0.0
 41
125.0
 42
125.0
 43
125.0
 50
180.0
  0
INSERT
  5
1C97F
330
1868D
100
AcDbEntity
  8
0
  6
ByBlock
 62
     0
 48
50.0
100
AcDbBlockReference
  2
_DOTSMALL
 10
14242.82958141817
 20
8436.498920305798
 30
0.0
 41
125.0
 42
125.0
 43
125.0
  0
MTEXT
  5
1C980
330
1868D
100
AcDbEntity
  8
0
  6
ByBlock
 62
     7
 48
50.0
100
AcDbMText
 10
13012.82958141817
 20
8536.513684085326
 30
0.0
 40
150.0
 41
0.0
 71
     5
 72
     1
  1
\A1;2460
  7
STYLE1
 73
     1
 44
1.0
  0
POINT
  5
1C981
330
1868D
100
AcDbEntity
  8
DEFPOINTS
  6
ByBlock
 62
     0
 48
50.0
100
AcDbPoint
 10
11782.82958141817
 20
9238.736797361928
 30
0.0
  0
POINT
  5
1C982
330
1868D
100
AcDbEntity
  8
DEFPOINTS
  6
ByBlock
 62
     0
 48
50.0
100
AcDbPoint
 10
14242.82958141817
 20
9238.736797361928
 30
0.0
  0
POINT
  5
1C983
330
1868D
100
AcDbEntity
  8
DEFPOINTS
  6
ByBlock
 62
     0
 48
50.0
100
AcDbPoint
 10
14242.82958141817
 20
8436.498920305798
 30
0.0
  0
ENDBLK
  5
1C984
330
1868D
100
AcDbEntity
  8
0
 48
50.0
100
AcDbBlockEnd
  0
BLOCK
  5
1CD21
330
186B0
100
AcDbEntity
  8
0
 48
50.0
100
AcDbBlockBegin
  2
*D14
 70
     1
 10
0.0
 20
0.0
 30
0.0
  3
*D14
  1

  0
LINE
  5
1CD22
330
186B0
100
AcDbEntity
  8
0
  6
ByBlock
 62
     0
 48
50.0
100
AcDbLine
 10
12057.82958141816
 20
11108.73679736192
 30
0.0
 11
11231.1986016385
 21
11108.73679736192
 31
0.0
  0
LINE
  5
1CD23
330
186B0
100
AcDbEntity
  8
0
  6
ByBlock
 62
     0
 48
50.0
100
AcDbLine
 10
12057.82958141816
 20
9228.736797361928
 30
0.0
 11
11231.1986016385
 21
9228.736797361928
 31
0.0
  0
LINE
  5
1CD24
330
186B0
100
AcDbEntity
  8
0
  6
ByBlock
 62
     0
 48
50.0
100
AcDbLine
 10
11306.1986016385
 20
11108.73679736192
 30
0.0
 11
11306.1986016385
 21
9228.736797361928
 31
0.0
  0
INSERT
  5
1CD25
330
186B0
100
AcDbEntity
  8
0
  6
ByBlock
 62
     0
 48
50.0
100
AcDbBlockReference
  2
_DOTSMALL
 10
11306.1986016385
 20
11108.73679736192
 30
0.0
 41
125.0
 42
125.0
 43
125.0
 50
90.0
  0
INSERT
  5
1CD26
330
186B0
100
AcDbEntity
  8
0
  6
ByBlock
 62
     0
 48
50.0
100
AcDbBlockReference
  2
_DOTSMALL
 10
11306.1986016385
 20
9228.736797361928
 30
0.0
 41
125.0
 42
125.0
 43
125.0
 50
270.0
  0
MTEXT
  5
1CD27
330
186B0
100
AcDbEntity
  8
0
  6
ByBlock
 62
     7
 48
50.0
100
AcDbMText
 10
11206.1986016385
 20
10168.73679736193
 30
0.0
 40
150.0
 41
0.0
 71
     5
 72
     1
  1
\A1;1880
  7
STYLE1
 11
0.0000000000000001
 21
1.0
 31
0.0
 73
     1
 44
1.0
  0
POINT
  5
1CD28
330
186B0
100
AcDbEntity
  8
DEFPOINTS
  6
ByBlock
 62
     0
 48
50.0
100
AcDbPoint
 10
12082.82958141817
 20
11108.73679736192
 30
0.0
  0
POINT
  5
1CD29
330
186B0
100
AcDbEntity
  8
DEFPOINTS
  6
ByBlock
 62
     0
 48
50.0
100
AcDbPoint
 10
12082.82958141817
 20
9228.736797361928
 30
0.0
  0
POINT
  5
1CD2A
330
186B0
100
AcDbEntity
  8
DEFPOINTS
  6
ByBlock
 62
     0
 48
50.0
100
AcDbPoint
 10
11306.1986016385
 20
9228.736797361928
 30
0.0
  0
ENDBLK
  5
1CD2B
330
186B0
100
AcDbEntity
  8
0
 48
50.0
100
AcDbBlockEnd
  0
BLOCK
  5
1B82C
330
1B821
100
AcDbEntity
  8
0
 48
50.0
100
AcDbBlockBegin
  2
*D15
 70
     1
 10
0.0
 20
0.0
 30
0.0
  3
*D15
  1

  0
LINE
  5
1B822
330
1B821
100
AcDbEntity
  8
0
  6
ByBlock
 62
     0
 48
50.0
100
AcDbLine
 10
9844.700675670623
 20
6240.518507324279
 30
0.0
 11
10513.89790290454
 21
6240.518507324279
 31
0.0
  0
LINE
  5
1B823
330
1B821
100
AcDbEntity
  8
0
  6
ByBlock
 62
     0
 48
50.0
100
AcDbLine
 10
9844.700675670623
 20
6125.518507324279
 30
0.0
 11
10513.89790290454
 21
6125.518507324279
 31
0.0
  0
LINE
  5
1B824
330
1B821
100
AcDbEntity
  8
0
  6
ByBlock
 62
     0
 48
50.0
100
AcDbLine
 10
10438.89790290454
 20
6125.518507324279
 30
0.0
 11
10438.89790290454
 21
6240.518507324279
 31
0.0
  0
LINE
  5
1B825
330
1B821
100
AcDbEntity
  8
0
  6
ByBlock
 62
     0
 48
50.0
100
AcDbLine
 10
10438.89790290454
 20
6240.518507324279
 30
0.0
 11
10438.89790290454
 21
6631.731710759876
 31
0.0
  0
INSERT
  5
1B826
330
1B821
100
AcDbEntity
  8
0
  6
ByBlock
 62
     0
 48
50.0
100
AcDbBlockReference
  2
_DOTSMALL
 10
10438.89790290454
 20
6125.518507324279
 30
0.0
 41
125.0
 42
125.0
 43
125.0
 50
270.0
  0
INSERT
  5
1B827
330
1B821
100
AcDbEntity
  8
0
  6
ByBlock
 62
     0
 48
50.0
100
AcDbBlockReference
  2
_DOTSMALL
 10
10438.89790290454
 20
6240.518507324279
 30
0.0
 41
125.0
 42
125.0
 43
125.0
 50
90.0
  0
MTEXT
  5
1B828
330
1B821
100
AcDbEntity
  8
0
  6
ByBlock
 62
     7
 48
50.0
100
AcDbMText
 10
10338.89790290454
 20
6498.625109042078
 30
0.0
 40
150.0
 41
0.0
 71
     5
 72
     1
  1
\A1;115
  7
STYLE1
 11
0.0000000000000001
 21
1.0
 31
0.0
 73
     1
 44
1.0
  0
POINT
  5
1B829
330
1B821
100
AcDbEntity
  8
DEFPOINTS
  6
ByBlock
 62
     0
 48
50.0
100
AcDbPoint
 10
9819.700675670624
 20
6240.518507324279
 30
0.0
  0
POINT
  5
1B82A
330
1B821
100
AcDbEntity
  8
DEFPOINTS
  6
ByBlock
 62
     0
 48
50.0
100
AcDbPoint
 10
9819.700675670624
 20
6125.518507324279
 30
0.0
  0
POINT
  5
1B82B
330
1B821
100
AcDbEntity
  8
DEFPOINTS
  6
ByBlock
 62
     0
 48
50.0
100
AcDbPoint
 10
10438.89790290454
 20
6125.518507324279
 30
0.0
  0
ENDBLK
  5
1B82D
330
1B821
100
AcDbEntity
  8
0
 48
50.0
100
AcDbBlockEnd
  0
BLOCK
  5
1B830
330
1B82E
100
AcDbEntity
  8
0
 48
50.0
100
AcDbBlockBegin
  2
A$C019569EB
 70
     0
 10
0.0
 20
0.0
 30
0.0
  3
A$C019569EB
  1

  0
DIMENSION
  5
1B82F
330
1B82E
100
AcDbEntity
  8
寸法
 48
50.0
100
AcDbDimension
  2
*D15
 10
619.1972245496908
 20
15.62500544841896
 30
0.0
 11
619.1972245496908
 21
388.7316071662171
 31
0.0
 12
-9819.70067835485
 22
-6109.89350187586
 32
0.0
 70
   128
 71
     5
 42
-1.0
  3
INABA_S50G
100
AcDbAlignedDimension
 13
-0.0000026842262741
 23
130.6250054484189
 33
0.0
 14
-0.0000026842262741
 24
15.62500544841896
 34
0.0
 50
90.0
100
AcDbRotatedDimension
  0
ENDBLK
  5
1B831
330
1B82E
100
AcDbEntity
  8
0
 48
50.0
100
AcDbBlockEnd
  0
BLOCK
  5
1C1F4
330
1C1F3
100
AcDbEntity
  8
0
 48
50.0
100
AcDbBlockBegin
  2
*D17
 70
     1
 10
0.0
 20
0.0
 30
0.0
  3
*D17
  1

  0
LINE
  5
1C1F5
330
1C1F3
100
AcDbEntity
  8
0
  6
ByBlock
 62
     0
 48
50.0
100
AcDbLine
 10
17097.10411557581
 20
23500.97012038376
 30
0.0
 11
16612.66042970321
 21
23500.97012038376
 31
0.0
  0
LINE
  5
1C1F6
330
1C1F3
100
AcDbEntity
  8
0
  6
ByBlock
 62
     0
 48
50.0
100
AcDbLine
 10
17097.10411557581
 20
22698.97012038376
 30
0.0
 11
16612.66042970321
 21
22698.97012038376
 31
0.0
  0
LINE
  5
1C1F7
330
1C1F3
100
AcDbEntity
  8
0
  6
ByBlock
 62
     0
 48
50.0
100
AcDbLine
 10
16687.66042970321
 20
23500.97012038376
 30
0.0
 11
16687.66042970321
 21
22698.97012038376
 31
0.0
  0
INSERT
  5
1C1F8
330
1C1F3
100
AcDbEntity
  8
0
  6
ByBlock
 62
     0
 48
50.0
100
AcDbBlockReference
  2
_DOTSMALL
 10
16687.66042970321
 20
23500.97012038376
 30
0.0
 41
125.0
 42
125.0
 43
125.0
 50
90.0
  0
INSERT
  5
1C1F9
330
1C1F3
100
AcDbEntity
  8
0
  6
ByBlock
 62
     0
 48
50.0
100
AcDbBlockReference
  2
_DOTSMALL
 10
16687.66042970321
 20
22698.97012038376
 30
0.0
 41
125.0
 42
125.0
 43
125.0
 50
270.0
  0
MTEXT
  5
1C1FA
330
1C1F3
100
AcDbEntity
  8
0
  6
ByBlock
 62
     7
 48
50.0
100
AcDbMText
 10
16587.64566592368
 20
23099.97012038376
 30
0.0
 40
150.0
 41
0.0
 71
     5
 72
     1
  1
\A1;802
  7
STYLE1
 11
0.0000000000000001
 21
1.0
 31
0.0
 73
     1
 44
1.0
  0
POINT
  5
1C1FB
330
1C1F3
100
AcDbEntity
  8
DEFPOINTS
  6
ByBlock
 62
     0
 48
50.0
100
AcDbPoint
 10
17122.10411557581
 20
23500.97012038376
 30
0.0
  0
POINT
  5
1C1FC
330
1C1F3
100
AcDbEntity
  8
DEFPOINTS
  6
ByBlock
 62
     0
 48
50.0
100
AcDbPoint
 10
17122.10411557581
 20
22698.97012038376
 30
0.0
  0
POINT
  5
1C1FD
330
1C1F3
100
AcDbEntity
  8
DEFPOINTS
  6
ByBlock
 62
     0
 48
50.0
100
AcDbPoint
 10
16687.66042970321
 20
22698.97012038376
 30
0.0
  0
ENDBLK
  5
1C1FE
330
1C1F3
100
AcDbEntity
  8
0
 48
50.0
100
AcDbBlockEnd
  0
BLOCK
  5
1C999
330
1C214
100
AcDbEntity
  8
0
 48
50.0
100
AcDbBlockBegin
  2
*D18
 70
     1
 10
0.0
 20
0.0
 30
0.0
  3
*D18
  1

  0
LINE
  5
1C99A
330
1C214
100
AcDbEntity
  8
0
  6
ByBlock
 62
     0
 48
50.0
100
AcDbLine
 10
11846.82958141817
 20
9203.73679736191
 30
0.0
 11
11846.82958141817
 21
8669.293111489313
 31
0.0
  0
LINE
  5
1C99B
330
1C214
100
AcDbEntity
  8
0
  6
ByBlock
 62
     0
 48
50.0
100
AcDbLine
 10
14178.82958141817
 20
9203.73679736191
 30
0.0
 11
14178.82958141817
 21
8669.293111489313
 31
0.0
  0
LINE
  5
1C99C
330
1C214
100
AcDbEntity
  8
0
  6
ByBlock
 62
     0
 48
50.0
100
AcDbLine
 10
11846.82958141817
 20
8744.293111489312
 30
0.0
 11
14178.82958141817
 21
8744.293111489312
 31
0.0
  0
INSERT
  5
1C99D
330
1C214
100
AcDbEntity
  8
0
  6
ByBlock
 62
     0
 48
50.0
100
AcDbBlockReference
  2
_DOTSMALL
 10
11846.82958141817
 20
8744.293111489312
 30
0.0
 41
125.0
 42
125.0
 43
125.0
 50
180.0
  0
INSERT
  5
1C99E
330
1C214
100
AcDbEntity
  8
0
  6
ByBlock
 62
     0
 48
50.0
100
AcDbBlockReference
  2
_DOTSMALL
 10
14178.82958141817
 20
8744.293111489312
 30
0.0
 41
125.0
 42
125.0
 43
125.0
  0
MTEXT
  5
1C99F
330
1C214
100
AcDbEntity
  8
0
  6
ByBlock
 62
     7
 48
50.0
100
AcDbMText
 10
13012.82958141817
 20
8844.307875268839
 30
0.0
 40
150.0
 41
0.0
 71
     5
 72
     1
  1
\A1;2332
  7
STYLE1
 73
     1
 44
1.0
  0
POINT
  5
1C9A0
330
1C214
100
AcDbEntity
  8
DEFPOINTS
  6
ByBlock
 62
     0
 48
50.0
100
AcDbPoint
 10
11846.82958141817
 20
9228.736797361909
 30
0.0
  0
POINT
  5
1C9A1
330
1C214
100
AcDbEntity
  8
DEFPOINTS
  6
ByBlock
 62
     0
 48
50.0
100
AcDbPoint
 10
14178.82958141817
 20
9228.736797361909
 30
0.0
  0
POINT
  5
1C9A2
330
1C214
100
AcDbEntity
  8
DEFPOINTS
  6
ByBlock
 62
     0
 48
50.0
100
AcDbPoint
 10
14178.82958141817
 20
8744.293111489312
 30
0.0
  0
ENDBLK
  5
1C9A3
330
1C214
100
AcDbEntity
  8
0
 48
50.0
100
AcDbBlockEnd
  0
BLOCK
  5
1C8C3
330
1C8C2
100
AcDbEntity
  8
0
 48
50.0
100
AcDbBlockBegin
  2
*D19
 70
     1
 10
0.0
 20
0.0
 30
0.0
  3
*D19
  1

  0
LINE
  5
1C8C4
330
1C8C2
100
AcDbEntity
  8
0
  6
ByBlock
 62
     0
 48
50.0
100
AcDbLine
 10
21842.04355569053
 20
3945.720159777916
 30
0.0
 11
21842.04355569053
 21
3568.079017493248
 31
0.0
  0
LINE
  5
1C8C5
330
1C8C2
100
AcDbEntity
  8
0
  6
ByBlock
 62
     0
 48
50.0
100
AcDbLine
 10
21642.04355569052
 20
3945.720159777916
 30
0.0
 11
21642.04355569052
 21
3568.079017493248
 31
0.0
  0
LINE
  5
1C8C6
330
1C8C2
100
AcDbEntity
  8
0
  6
ByBlock
 62
     0
 48
50.0
100
AcDbLine
 10
21842.04355569053
 20
3643.079017493248
 30
0.0
 11
21642.04355569052
 21
3643.079017493248
 31
0.0
  0
LINE
  5
1C8C7
330
1C8C2
100
AcDbEntity
  8
0
  6
ByBlock
 62
     0
 48
50.0
100
AcDbLine
 10
21642.04355569052
 20
3643.079017493248
 30
0.0
 11
21193.11639033619
 21
3643.079017493248
 31
0.0
  0
INSERT
  5
1C8C8
330
1C8C2
100
AcDbEntity
  8
0
  6
ByBlock
 62
     0
 48
50.0
100
AcDbBlockReference
  2
_DOTSMALL
 10
21842.04355569053
 20
3643.079017493248
 30
0.0
 41
125.0
 42
125.0
 43
125.0
  0
INSERT
  5
1C8C9
330
1C8C2
100
AcDbEntity
  8
0
  6
ByBlock
 62
     0
 48
50.0
100
AcDbBlockReference
  2
_DOTSMALL
 10
21642.04355569052
 20
3643.079017493248
 30
0.0
 41
125.0
 42
125.0
 43
125.0
 50
180.0
  0
MTEXT
  5
1C8CA
330
1C8C2
100
AcDbEntity
  8
0
  6
ByBlock
 62
     7
 48
50.0
100
AcDbMText
 10
21355.07997301335
 20
3743.093781272775
 30
0.0
 40
150.0
 41
0.0
 71
     5
 72
     1
  1
\A1;200
  7
STYLE1
 73
     1
 44
1.0
  0
POINT
  5
1C8CB
330
1C8C2
100
AcDbEntity
  8
DEFPOINTS
  6
ByBlock
 62
     0
 48
50.0
100
AcDbPoint
 10
21842.04355569053
 20
3970.720159777916
 30
0.0
  0
POINT
  5
1C8CC
330
1C8C2
100
AcDbEntity
  8
DEFPOINTS
  6
ByBlock
 62
     0
 48
50.0
100
AcDbPoint
 10
21642.04355569052
 20
3970.720159777916
 30
0.0
  0
POINT
  5
1C8CD
330
1C8C2
100
AcDbEntity
  8
DEFPOINTS
  6
ByBlock
 62
     0
 48
50.0
100
AcDbPoint
 10
21642.04355569052
 20
3643.079017493248
 30
0.0
  0
ENDBLK
  5
1C8CE
330
1C8C2
100
AcDbEntity
  8
0
 48
50.0
100
AcDbBlockEnd
  0
BLOCK
  5
1C8D0
330
1C8CF
100
AcDbEntity
  8
0
 48
50.0
100
AcDbBlockBegin
  2
*D20
 70
     1
 10
0.0
 20
0.0
 30
0.0
  3
*D20
  1

  0
LINE
  5
1C8D1
330
1C8CF
100
AcDbEntity
  8
0
  6
ByBlock
 62
     0
 48
50.0
100
AcDbLine
 10
19227.04355132069
 20
6564.720162402726
 30
0.0
 11
19227.04355132069
 21
7611.789014332463
 31
0.0
  0
LINE
  5
1C8D2
330
1C8CF
100
AcDbEntity
  8
0
  6
ByBlock
 62
     0
 48
50.0
100
AcDbLine
 10
21797.04355569052
 20
6564.720162402726
 30
0.0
 11
21797.04355569052
 21
7611.789014332463
 31
0.0
  0
LINE
  5
1C8D3
330
1C8CF
100
AcDbEntity
  8
0
  6
ByBlock
 62
     0
 48
50.0
100
AcDbLine
 10
19227.04355132069
 20
7536.789014332462
 30
0.0
 11
21797.04355569052
 21
7536.789014332462
 31
0.0
  0
INSERT
  5
1C8D4
330
1C8CF
100
AcDbEntity
  8
0
  6
ByBlock
 62
     0
 48
50.0
100
AcDbBlockReference
  2
_DOTSMALL
 10
19227.04355132069
 20
7536.789014332462
 30
0.0
 41
125.0
 42
125.0
 43
125.0
 50
180.0
  0
INSERT
  5
1C8D5
330
1C8CF
100
AcDbEntity
  8
0
  6
ByBlock
 62
     0
 48
50.0
100
AcDbBlockReference
  2
_DOTSMALL
 10
21797.04355569052
 20
7536.789014332462
 30
0.0
 41
125.0
 42
125.0
 43
125.0
  0
MTEXT
  5
1C8D6
330
1C8CF
100
AcDbEntity
  8
0
  6
ByBlock
 62
     7
 48
50.0
100
AcDbMText
 10
20512.04355350561
 20
7636.803778111989
 30
0.0
 40
150.0
 41
0.0
 71
     5
 72
     1
  1
\A1;2570
  7
STYLE1
 73
     1
 44
1.0
  0
POINT
  5
1C8D7
330
1C8CF
100
AcDbEntity
  8
DEFPOINTS
  6
ByBlock
 62
     0
 48
50.0
100
AcDbPoint
 10
19227.04355132069
 20
6539.720162402726
 30
0.0
  0
POINT
  5
1C8D8
330
1C8CF
100
AcDbEntity
  8
DEFPOINTS
  6
ByBlock
 62
     0
 48
50.0
100
AcDbPoint
 10
21797.04355569052
 20
6539.720162402726
 30
0.0
  0
POINT
  5
1C8D9
330
1C8CF
100
AcDbEntity
  8
DEFPOINTS
  6
ByBlock
 62
     0
 48
50.0
100
AcDbPoint
 10
21797.04355569052
 20
7536.789014332462
 30
0.0
  0
ENDBLK
  5
1C8DA
330
1C8CF
100
AcDbEntity
  8
0
 48
50.0
100
AcDbBlockEnd
  0
BLOCK
  5
1C8DC
330
1C8DB
100
AcDbEntity
  8
0
 48
50.0
100
AcDbBlockBegin
  2
*D21
 70
     1
 10
0.0
 20
0.0
 30
0.0
  3
*D21
  1

  0
LINE
  5
1D314
330
1C8DB
100
AcDbEntity
  8
寸法
 62
     0
 48
50.0
100
AcDbLine
 10
14532.82958360308
 20
5570.000000008445
 30
0.0
 11
14532.82958360308
 21
6313.281130716521
 31
0.0
  0
LINE
  5
1D315
330
1C8DB
100
AcDbEntity
  8
寸法
 62
     0
 48
50.0
100
AcDbLine
 10
12072.82958360308
 20
6238.281130716521
 30
0.0
 11
14532.82958360308
 21
6238.281130716521
 31
0.0
  0
INSERT
  5
1D316
330
1C8DB
100
AcDbEntity
  8
寸法
 62
     0
 48
50.0
100
AcDbBlockReference
  2
_DOTSMALL
 10
12072.82958360308
 20
6238.281130716521
 30
0.0
 41
125.0
 42
125.0
 43
125.0
 50
180.0
  0
INSERT
  5
1D317
330
1C8DB
100
AcDbEntity
  8
寸法
 62
     0
 48
50.0
100
AcDbBlockReference
  2
_DOTSMALL
 10
14532.82958360308
 20
6238.281130716521
 30
0.0
 41
125.0
 42
125.0
 43
125.0
  0
MTEXT
  5
1D318
330
1C8DB
100
AcDbEntity
  8
寸法
 62
     7
 48
50.0
100
AcDbMText
 10
13302.82958360308
 20
6338.295894496049
 30
0.0
 40
150.0
 41
0.0
 71
     5
 72
     1
  1
\A1;柱外寸法 2460
  7
STYLE1
 73
     1
 44
1.0
  0
POINT
  5
1D319
330
1C8DB
100
AcDbEntity
  8
DEFPOINTS
 62
     0
 48
50.0
100
AcDbPoint
 10
12072.82958360308
 20
5545.000000008467
 30
0.0
  0
POINT
  5
1D31A
330
1C8DB
100
AcDbEntity
  8
DEFPOINTS
 62
     0
 48
50.0
100
AcDbPoint
 10
14532.82958360308
 20
5545.000000008446
 30
0.0
  0
POINT
  5
1D31B
330
1C8DB
100
AcDbEntity
  8
DEFPOINTS
 62
     0
 48
50.0
100
AcDbPoint
 10
14532.82958360308
 20
6238.281130716521
 30
0.0
  0
ENDBLK
  5
1C8E5
330
1C8DB
100
AcDbEntity
  8
0
 48
50.0
100
AcDbBlockEnd
  0
BLOCK
  5
1C8E7
330
1C8E6
100
AcDbEntity
  8
0
 48
50.0
100
AcDbBlockBegin
  2
*D22
 70
     1
 10
0.0
 20
0.0
 30
0.0
  3
*D22
  1

  0
LINE
  5
1C8E8
330
1C8E6
100
AcDbEntity
  8
0
  6
ByBlock
 62
     0
 48
50.0
100
AcDbLine
 10
19227.04355132069
 20
6564.720162402726
 30
0.0
 11
19227.04355132069
 21
7344.001290494438
 31
0.0
  0
LINE
  5
1C8E9
330
1C8E6
100
AcDbEntity
  8
0
  6
ByBlock
 62
     0
 48
50.0
100
AcDbLine
 10
19282.04355569052
 20
6600.720159786384
 30
0.0
 11
19282.04355569052
 21
7344.001290494438
 31
0.0
  0
LINE
  5
1C8EA
330
1C8E6
100
AcDbEntity
  8
0
  6
ByBlock
 62
     0
 48
50.0
100
AcDbLine
 10
19282.04355569052
 20
7269.001290494438
 30
0.0
 11
19227.04355132069
 21
7269.001290494438
 31
0.0
  0
LINE
  5
1C8EB
330
1C8E6
100
AcDbEntity
  8
0
  6
ByBlock
 62
     0
 48
50.0
100
AcDbLine
 10
19227.04355132069
 20
7269.001290494438
 30
0.0
 11
18791.37789885461
 21
7269.001290494438
 31
0.0
  0
INSERT
  5
1C8EC
330
1C8E6
100
AcDbEntity
  8
0
  6
ByBlock
 62
     0
 48
50.0
100
AcDbBlockReference
  2
_DOTSMALL
 10
19282.04355569052
 20
7269.001290494438
 30
0.0
 41
125.0
 42
125.0
 43
125.0
  0
INSERT
  5
1C8ED
330
1C8E6
100
AcDbEntity
  8
0
  6
ByBlock
 62
     0
 48
50.0
100
AcDbBlockReference
  2
_DOTSMALL
 10
19227.04355132069
 20
7269.001290494438
 30
0.0
 41
125.0
 42
125.0
 43
125.0
 50
180.0
  0
MTEXT
  5
1C8EE
330
1C8E6
100
AcDbEntity
  8
0
  6
ByBlock
 62
     7
 48
50.0
100
AcDbMText
 10
18901.98450057241
 20
7369.001290494438
 30
0.0
 40
150.0
 41
0.0
 71
     5
 72
     1
  1
\A1;55
  7
STYLE1
 73
     1
 44
1.0
  0
POINT
  5
1C8EF
330
1C8E6
100
AcDbEntity
  8
DEFPOINTS
  6
ByBlock
 62
     0
 48
50.0
100
AcDbPoint
 10
19227.04355132069
 20
6539.720162402726
 30
0.0
  0
POINT
  5
1C8F0
330
1C8E6
100
AcDbEntity
  8
DEFPOINTS
  6
ByBlock
 62
     0
 48
50.0
100
AcDbPoint
 10
19282.04355569052
 20
6575.720159786384
 30
0.0
  0
POINT
  5
1C8F1
330
1C8E6
100
AcDbEntity
  8
DEFPOINTS
  6
ByBlock
 62
     0
 48
50.0
100
AcDbPoint
 10
19282.04355569052
 20
7269.001290494438
 30
0.0
  0
ENDBLK
  5
1C8F2
330
1C8E6
100
AcDbEntity
  8
0
 48
50.0
100
AcDbBlockEnd
  0
BLOCK
  5
1C90C
330
1C90B
100
AcDbEntity
  8
0
 48
50.0
100
AcDbBlockBegin
  2
*D23
 70
     1
 10
0.0
 20
0.0
 30
0.0
  3
*D23
  1

  0
LINE
  5
1C90D
330
1C90B
100
AcDbEntity
  8
0
  6
ByBlock
 62
     0
 48
50.0
100
AcDbLine
 10
21742.04355569052
 20
6600.720159786362
 30
0.0
 11
21742.04355569052
 21
7344.001290494438
 31
0.0
  0
LINE
  5
1C90E
330
1C90B
100
AcDbEntity
  8
0
  6
ByBlock
 62
     0
 48
50.0
100
AcDbLine
 10
21797.04355569052
 20
6564.720162402726
 30
0.0
 11
21797.04355569052
 21
7344.001290494438
 31
0.0
  0
LINE
  5
1C90F
330
1C90B
100
AcDbEntity
  8
0
  6
ByBlock
 62
     0
 48
50.0
100
AcDbLine
 10
21742.04355569052
 20
7269.001290494438
 30
0.0
 11
21797.04355569052
 21
7269.001290494438
 31
0.0
  0
LINE
  5
1C910
330
1C90B
100
AcDbEntity
  8
0
  6
ByBlock
 62
     0
 48
50.0
100
AcDbLine
 10
21797.04355569052
 20
7269.001290494438
 30
0.0
 11
22222.70921252643
 21
7269.001290494438
 31
0.0
  0
INSERT
  5
1C911
330
1C90B
100
AcDbEntity
  8
0
  6
ByBlock
 62
     0
 48
50.0
100
AcDbBlockReference
  2
_DOTSMALL
 10
21742.04355569052
 20
7269.001290494438
 30
0.0
 41
125.0
 42
125.0
 43
125.0
 50
180.0
  0
INSERT
  5
1C912
330
1C90B
100
AcDbEntity
  8
0
  6
ByBlock
 62
     0
 48
50.0
100
AcDbBlockReference
  2
_DOTSMALL
 10
21797.04355569052
 20
7269.001290494438
 30
0.0
 41
125.0
 42
125.0
 43
125.0
  0
MTEXT
  5
1C913
330
1C90B
100
AcDbEntity
  8
0
  6
ByBlock
 62
     7
 48
50.0
100
AcDbMText
 10
22112.10261080863
 20
7369.001290494438
 30
0.0
 40
150.0
 41
0.0
 71
     5
 72
     1
  1
\A1;55
  7
STYLE1
 73
     1
 44
1.0
  0
POINT
  5
1C914
330
1C90B
100
AcDbEntity
  8
DEFPOINTS
  6
ByBlock
 62
     0
 48
50.0
100
AcDbPoint
 10
21742.04355569052
 20
6575.720159786363
 30
0.0
  0
POINT
  5
1C915
330
1C90B
100
AcDbEntity
  8
DEFPOINTS
  6
ByBlock
 62
     0
 48
50.0
100
AcDbPoint
 10
21797.04355569052
 20
6539.720162402726
 30
0.0
  0
POINT
  5
1C916
330
1C90B
100
AcDbEntity
  8
DEFPOINTS
  6
ByBlock
 62
     0
 48
50.0
100
AcDbPoint
 10
21797.04355569052
 20
7269.001290494438
 30
0.0
  0
ENDBLK
  5
1C917
330
1C90B
100
AcDbEntity
  8
0
 48
50.0
100
AcDbBlockEnd
  0
BLOCK
  5
1C94C
330
1C94B
100
AcDbEntity
  8
0
 48
50.0
100
AcDbBlockBegin
  2
*D24
 70
     1
 10
0.0
 20
0.0
 30
0.0
  3
*D24
  1

  0
LINE
  5
1C94D
330
1C94B
100
AcDbEntity
  8
0
  6
ByBlock
 62
     0
 48
50.0
100
AcDbLine
 10
34222.10331536156
 20
3274.999999999956
 30
0.0
 11
34918.2082671931
 21
3274.999999999956
 31
0.0
  0
LINE
  5
1C94E
330
1C94B
100
AcDbEntity
  8
0
  6
ByBlock
 62
     0
 48
50.0
100
AcDbLine
 10
34152.10331536155
 20
4059.999999999956
 30
0.0
 11
34918.2082671931
 21
4059.999999999956
 31
0.0
  0
LINE
  5
1C94F
330
1C94B
100
AcDbEntity
  8
0
  6
ByBlock
 62
     0
 48
50.0
100
AcDbLine
 10
34843.2082671931
 20
3274.999999999956
 30
0.0
 11
34843.2082671931
 21
4059.999999999956
 31
0.0
  0
INSERT
  5
1C950
330
1C94B
100
AcDbEntity
  8
0
  6
ByBlock
 62
     0
 48
50.0
100
AcDbBlockReference
  2
_DOTSMALL
 10
34843.2082671931
 20
3274.999999999956
 30
0.0
 41
125.0
 42
125.0
 43
125.0
 50
270.0
  0
INSERT
  5
1C951
330
1C94B
100
AcDbEntity
  8
0
  6
ByBlock
 62
     0
 48
50.0
100
AcDbBlockReference
  2
_DOTSMALL
 10
34843.2082671931
 20
4059.999999999956
 30
0.0
 41
125.0
 42
125.0
 43
125.0
 50
90.0
  0
MTEXT
  5
1C952
330
1C94B
100
AcDbEntity
  8
0
  6
ByBlock
 62
     7
 48
50.0
100
AcDbMText
 10
34743.2082671931
 20
3667.499999999956
 30
0.0
 40
150.0
 41
0.0
 71
     5
 72
     1
  1
\A1;785
  7
STYLE1
 11
0.0000000000000001
 21
1.0
 31
0.0
 73
     1
 44
1.0
  0
POINT
  5
1C953
330
1C94B
100
AcDbEntity
  8
DEFPOINTS
  6
ByBlock
 62
     0
 48
50.0
100
AcDbPoint
 10
34197.10331536155
 20
3274.999999999956
 30
0.0
  0
POINT
  5
1C954
330
1C94B
100
AcDbEntity
  8
DEFPOINTS
  6
ByBlock
 62
     0
 48
50.0
100
AcDbPoint
 10
34127.10331536155
 20
4059.999999999956
 30
0.0
  0
POINT
  5
1C955
330
1C94B
100
AcDbEntity
  8
DEFPOINTS
  6
ByBlock
 62
     0
 48
50.0
100
AcDbPoint
 10
34843.2082671931
 20
4059.999999999956
 30
0.0
  0
ENDBLK
  5
1C956
330
1C94B
100
AcDbEntity
  8
0
 48
50.0
100
AcDbBlockEnd
  0
BLOCK
  5
1C958
330
1C957
100
AcDbEntity
  8
0
 48
50.0
100
AcDbBlockBegin
  2
*D25
 70
     1
 10
0.0
 20
0.0
 30
0.0
  3
*D25
  1

  0
LINE
  5
1D324
330
1C957
100
AcDbEntity
  8
寸法
 62
     0
 48
50.0
100
AcDbLine
 10
14557.82958360308
 20
5302.0
 30
0.0
 11
15607.97132641338
 21
5302.0
 31
0.0
  0
LINE
  5
1D325
330
1C957
100
AcDbEntity
  8
寸法
 62
     0
 48
50.0
100
AcDbLine
 10
15532.97132641338
 20
3341.999999999999
 30
0.0
 11
15532.97132641338
 21
5302.0
 31
0.0
  0
INSERT
  5
1D326
330
1C957
100
AcDbEntity
  8
寸法
 62
     0
 48
50.0
100
AcDbBlockReference
  2
_DOTSMALL
 10
15532.97132641338
 20
3341.999999999999
 30
0.0
 41
125.0
 42
125.0
 43
125.0
 50
270.0
  0
INSERT
  5
1D327
330
1C957
100
AcDbEntity
  8
寸法
 62
     0
 48
50.0
100
AcDbBlockReference
  2
_DOTSMALL
 10
15532.97132641338
 20
5302.0
 30
0.0
 41
125.0
 42
125.0
 43
125.0
 50
90.0
  0
MTEXT
  5
1D328
330
1C957
100
AcDbEntity
  8
寸法
 62
     7
 48
50.0
100
AcDbMText
 10
15432.97132641338
 20
4322.000000000002
 30
0.0
 40
150.0
 41
0.0
 71
     5
 72
     1
  1
\A1;内高 1960
  7
STYLE1
 11
0.0000000000000001
 21
1.0
 31
0.0
 73
     1
 44
1.0
  0
POINT
  5
1D329
330
1C957
100
AcDbEntity
  8
DEFPOINTS
 62
     0
 48
50.0
100
AcDbPoint
 10
14532.82958360308
 20
3341.999999999999
 30
0.0
  0
POINT
  5
1D32A
330
1C957
100
AcDbEntity
  8
DEFPOINTS
 62
     0
 48
50.0
100
AcDbPoint
 10
14532.82958360308
 20
5302.0
 30
0.0
  0
POINT
  5
1D32B
330
1C957
100
AcDbEntity
  8
DEFPOINTS
 62
     0
 48
50.0
100
AcDbPoint
 10
15532.97132641338
 20
5302.0
 30
0.0
  0
ENDBLK
  5
1C961
330
1C957
100
AcDbEntity
  8
0
 48
50.0
100
AcDbBlockEnd
  0
BLOCK
  5
1C963
330
1C962
100
AcDbEntity
  8
0
 48
50.0
100
AcDbBlockBegin
  2
*D26
 70
     1
 10
0.0
 20
0.0
 30
0.0
  3
*D26
  1

  0
LINE
  5
1C964
330
1C962
100
AcDbEntity
  8
0
  6
ByBlock
 62
     0
 48
50.0
100
AcDbLine
 10
34222.10331536156
 20
3274.999999999956
 30
0.0
 11
35272.24505817185
 21
3274.999999999956
 31
0.0
  0
LINE
  5
1C965
330
1C962
100
AcDbEntity
  8
0
  6
ByBlock
 62
     0
 48
50.0
100
AcDbLine
 10
34222.10331536156
 20
3341.999999999956
 30
0.0
 11
35272.24505817185
 21
3341.999999999956
 31
0.0
  0
LINE
  5
1C966
330
1C962
100
AcDbEntity
  8
0
  6
ByBlock
 62
     0
 48
50.0
100
AcDbLine
 10
35197.24505817185
 20
3341.999999999956
 30
0.0
 11
35197.24505817185
 21
3274.999999999956
 31
0.0
  0
LINE
  5
1C967
330
1C962
100
AcDbEntity
  8
0
  6
ByBlock
 62
     0
 48
50.0
100
AcDbLine
 10
35197.24505817185
 20
3274.999999999956
 30
0.0
 11
35197.24505817185
 21
2866.709408511073
 31
0.0
  0
INSERT
  5
1C968
330
1C962
100
AcDbEntity
  8
0
  6
ByBlock
 62
     0
 48
50.0
100
AcDbBlockReference
  2
_DOTSMALL
 10
35197.24505817185
 20
3341.999999999956
 30
0.0
 41
125.0
 42
125.0
 43
125.0
 50
90.0
  0
INSERT
  5
1C969
330
1C962
100
AcDbEntity
  8
0
  6
ByBlock
 62
     0
 48
50.0
100
AcDbBlockReference
  2
_DOTSMALL
 10
35197.24505817185
 20
3274.999999999956
 30
0.0
 41
125.0
 42
125.0
 43
125.0
 50
270.0
  0
MTEXT
  5
1C96A
330
1C962
100
AcDbEntity
  8
0
  6
ByBlock
 62
     7
 48
50.0
100
AcDbMText
 10
35097.24505817185
 20
2978.697597487451
 30
0.0
 40
150.0
 41
0.0
 71
     5
 72
     1
  1
\A1;67
  7
STYLE1
 11
0.0000000000000001
 21
1.0
 31
0.0
 73
     1
 44
1.0
  0
POINT
  5
1C96B
330
1C962
100
AcDbEntity
  8
DEFPOINTS
  6
ByBlock
 62
     0
 48
50.0
100
AcDbPoint
 10
34197.10331536155
 20
3274.999999999956
 30
0.0
  0
POINT
  5
1C96C
330
1C962
100
AcDbEntity
  8
DEFPOINTS
  6
ByBlock
 62
     0
 48
50.0
100
AcDbPoint
 10
34197.10331536155
 20
3341.999999999956
 30
0.0
  0
POINT
  5
1C96D
330
1C962
100
AcDbEntity
  8
DEFPOINTS
  6
ByBlock
 62
     0
 48
50.0
100
AcDbPoint
 10
35197.24505817185
 20
3341.999999999956
 30
0.0
  0
ENDBLK
  5
1C96E
330
1C962
100
AcDbEntity
  8
0
 48
50.0
100
AcDbBlockEnd
  0
BLOCK
  5
1C970
330
1C96F
100
AcDbEntity
  8
0
 48
50.0
100
AcDbBlockBegin
  2
*D27
 70
     1
 10
0.0
 20
0.0
 30
0.0
  3
*D27
  1

  0
LINE
  5
1D31C
330
1C96F
100
AcDbEntity
  8
寸法
 62
     0
 48
50.0
100
AcDbLine
 10
14487.82958360308
 20
5130.0
 30
0.0
 11
15253.93453543463
 21
5130.0
 31
0.0
  0
LINE
  5
1D31D
330
1C96F
100
AcDbEntity
  8
寸法
 62
     0
 48
50.0
100
AcDbLine
 10
15178.93453543463
 20
4059.999999999999
 30
0.0
 11
15178.93453543463
 21
5130.0
 31
0.0
  0
INSERT
  5
1D31E
330
1C96F
100
AcDbEntity
  8
寸法
 62
     0
 48
50.0
100
AcDbBlockReference
  2
_DOTSMALL
 10
15178.93453543463
 20
4059.999999999999
 30
0.0
 41
125.0
 42
125.0
 43
125.0
 50
270.0
  0
INSERT
  5
1D31F
330
1C96F
100
AcDbEntity
  8
寸法
 62
     0
 48
50.0
100
AcDbBlockReference
  2
_DOTSMALL
 10
15178.93453543463
 20
5130.0
 30
0.0
 41
125.0
 42
125.0
 43
125.0
 50
90.0
  0
MTEXT
  5
1D320
330
1C96F
100
AcDbEntity
  8
寸法
 62
     7
 48
50.0
100
AcDbMText
 10
15078.93453543463
 20
4595.000000000003
 30
0.0
 40
150.0
 41
0.0
 71
     5
 72
     1
  1
\A1;1070
  7
STYLE1
 11
0.0000000000000001
 21
1.0
 31
0.0
 73
     1
 44
1.0
  0
POINT
  5
1D321
330
1C96F
100
AcDbEntity
  8
DEFPOINTS
 62
     0
 48
50.0
100
AcDbPoint
 10
14462.82958360308
 20
4059.999999999999
 30
0.0
  0
POINT
  5
1D322
330
1C96F
100
AcDbEntity
  8
DEFPOINTS
 62
     0
 48
50.0
100
AcDbPoint
 10
14462.82958360308
 20
5130.0
 30
0.0
  0
POINT
  5
1D323
330
1C96F
100
AcDbEntity
  8
DEFPOINTS
 62
     0
 48
50.0
100
AcDbPoint
 10
15178.93453543463
 20
5130.0
 30
0.0
  0
ENDBLK
  5
1C979
330
1C96F
100
AcDbEntity
  8
0
 48
50.0
100
AcDbBlockEnd
  0
BLOCK
  5
1CCA4
330
1CC1D
100
AcDbEntity
  8
0
 48
50.0
100
AcDbBlockBegin
  2
*D28
 70
     1
 10
0.0
 20
0.0
 30
0.0
  3
*D28
  1

  0
LINE
  5
1CCA5
330
1CC1D
100
AcDbEntity
  8
0
  6
ByBlock
 62
     0
 48
50.0
100
AcDbLine
 10
2758.512900804916
 20
-4528.247473483335
 30
0.0
 11
2758.512900804916
 21
-4864.294802783712
 31
0.0
  0
LINE
  5
1CCA6
330
1CC1D
100
AcDbEntity
  8
0
  6
ByBlock
 62
     0
 48
50.0
100
AcDbLine
 10
2958.512900804917
 20
-4528.247473483335
 30
0.0
 11
2958.512900804917
 21
-4864.294802783712
 31
0.0
  0
LINE
  5
1CCA7
330
1CC1D
100
AcDbEntity
  8
0
  6
ByBlock
 62
     0
 48
50.0
100
AcDbLine
 10
2758.512900804916
 20
-4789.294802783712
 30
0.0
 11
2958.512900804917
 21
-4789.294802783712
 31
0.0
  0
LINE
  5
1CCA8
330
1CC1D
100
AcDbEntity
  8
0
  6
ByBlock
 62
     0
 48
50.0
100
AcDbLine
 10
2958.512900804917
 20
-4789.294802783712
 30
0.0
 11
3407.440066159248
 21
-4789.294802783712
 31
0.0
  0
INSERT
  5
1CCA9
330
1CC1D
100
AcDbEntity
  8
0
  6
ByBlock
 62
     0
 48
50.0
100
AcDbBlockReference
  2
_DOTSMALL
 10
2758.512900804916
 20
-4789.294802783712
 30
0.0
 41
125.0
 42
125.0
 43
125.0
 50
180.0
  0
INSERT
  5
1CCAA
330
1CC1D
100
AcDbEntity
  8
0
  6
ByBlock
 62
     0
 48
50.0
100
AcDbBlockReference
  2
_DOTSMALL
 10
2958.512900804917
 20
-4789.294802783712
 30
0.0
 41
125.0
 42
125.0
 43
125.0
  0
MTEXT
  5
1CCAB
330
1CC1D
100
AcDbEntity
  8
0
  6
ByBlock
 62
     7
 48
50.0
100
AcDbMText
 10
3245.476483482083
 20
-4689.280039004184
 30
0.0
 40
150.0
 41
0.0
 71
     5
 72
     1
  1
\A1;200
  7
STYLE1
 73
     1
 44
1.0
  0
POINT
  5
1CCAC
330
1CC1D
100
AcDbEntity
  8
DEFPOINTS
  6
ByBlock
 62
     0
 48
50.0
100
AcDbPoint
 10
2758.512900804916
 20
-4503.247473483336
 30
0.0
  0
POINT
  5
1CCAD
330
1CC1D
100
AcDbEntity
  8
DEFPOINTS
  6
ByBlock
 62
     0
 48
50.0
100
AcDbPoint
 10
2958.512900804917
 20
-4503.247473483336
 30
0.0
  0
POINT
  5
1CCAE
330
1CC1D
100
AcDbEntity
  8
DEFPOINTS
  6
ByBlock
 62
     0
 48
50.0
100
AcDbPoint
 10
2958.512900804917
 20
-4789.294802783712
 30
0.0
  0
ENDBLK
  5
1CCAF
330
1CC1D
100
AcDbEntity
  8
0
 48
50.0
100
AcDbBlockEnd
  0
BLOCK
  5
1CCB0
330
1CC2A
100
AcDbEntity
  8
0
 48
50.0
100
AcDbBlockBegin
  2
*D29
 70
     1
 10
0.0
 20
0.0
 30
0.0
  3
*D29
  1

  0
LINE
  5
1CCB1
330
1CC2A
100
AcDbEntity
  8
0
  6
ByBlock
 62
     0
 48
50.0
100
AcDbLine
 10
2733.512900804917
 20
-4503.247473483336
 30
0.0
 11
2285.177765811038
 21
-4503.247473483336
 31
0.0
  0
LINE
  5
1CCB2
330
1CC2A
100
AcDbEntity
  8
0
  6
ByBlock
 62
     0
 48
50.0
100
AcDbLine
 10
2733.512900804916
 20
-4303.247473483337
 30
0.0
 11
2285.177765811038
 21
-4303.247473483337
 31
0.0
  0
LINE
  5
1CCB3
330
1CC2A
100
AcDbEntity
  8
0
  6
ByBlock
 62
     0
 48
50.0
100
AcDbLine
 10
2360.177765811037
 20
-4303.247473483337
 30
0.0
 11
2360.177765811037
 21
-4503.247473483336
 31
0.0
  0
LINE
  5
1CCB4
330
1CC2A
100
AcDbEntity
  8
0
  6
ByBlock
 62
     0
 48
50.0
100
AcDbLine
 10
2360.177765811037
 20
-4503.247473483336
 30
0.0
 11
2360.177765811037
 21
-4952.174638837667
 31
0.0
  0
INSERT
  5
1CCB5
330
1CC2A
100
AcDbEntity
  8
0
  6
ByBlock
 62
     0
 48
50.0
100
AcDbBlockReference
  2
_DOTSMALL
 10
2360.177765811037
 20
-4303.247473483337
 30
0.0
 41
125.0
 42
125.0
 43
125.0
 50
90.0
  0
INSERT
  5
1CCB6
330
1CC2A
100
AcDbEntity
  8
0
  6
ByBlock
 62
     0
 48
50.0
100
AcDbBlockReference
  2
_DOTSMALL
 10
2360.177765811037
 20
-4503.247473483336
 30
0.0
 41
125.0
 42
125.0
 43
125.0
 50
270.0
  0
MTEXT
  5
1CCB7
330
1CC2A
100
AcDbEntity
  8
0
  6
ByBlock
 62
     7
 48
50.0
100
AcDbMText
 10
2260.16300203151
 20
-4790.211056160501
 30
0.0
 40
150.0
 41
0.0
 71
     5
 72
     1
  1
\A1;200
  7
STYLE1
 11
0.0000000000000001
 21
1.0
 31
0.0
 73
     1
 44
1.0
  0
POINT
  5
1CCB8
330
1CC2A
100
AcDbEntity
  8
DEFPOINTS
  6
ByBlock
 62
     0
 48
50.0
100
AcDbPoint
 10
2758.512900804918
 20
-4503.247473483336
 30
0.0
  0
POINT
  5
1CCB9
330
1CC2A
100
AcDbEntity
  8
DEFPOINTS
  6
ByBlock
 62
     0
 48
50.0
100
AcDbPoint
 10
2758.512900804916
 20
-4303.247473483337
 30
0.0
  0
POINT
  5
1CCBA
330
1CC2A
100
AcDbEntity
  8
DEFPOINTS
  6
ByBlock
 62
     0
 48
50.0
100
AcDbPoint
 10
2360.177765811037
 20
-4303.247473483337
 30
0.0
  0
ENDBLK
  5
1CCBB
330
1CC2A
100
AcDbEntity
  8
0
 48
50.0
100
AcDbBlockEnd
  0
BLOCK
  5
1CCBC
330
1CC37
100
AcDbEntity
  8
0
 48
50.0
100
AcDbBlockBegin
  2
*D30
 70
     1
 10
0.0
 20
0.0
 30
0.0
  3
*D30
  1

  0
LINE
  5
1D32C
330
1CC37
100
AcDbEntity
  8
寸法
 62
     0
 48
50.0
100
AcDbLine
 10
5712.829581418173
 20
5513.337018226841
 30
0.0
 11
5712.829581418173
 21
6313.281130716521
 31
0.0
  0
LINE
  5
1D32D
330
1CC37
100
AcDbEntity
  8
寸法
 62
     0
 48
50.0
100
AcDbLine
 10
7592.829581418175
 20
6238.281130716521
 30
0.0
 11
5712.829581418173
 21
6238.281130716521
 31
0.0
  0
INSERT
  5
1D32E
330
1CC37
100
AcDbEntity
  8
寸法
 62
     0
 48
50.0
100
AcDbBlockReference
  2
_DOTSMALL
 10
7592.829581418175
 20
6238.281130716521
 30
0.0
 41
125.0
 42
125.0
 43
125.0
  0
INSERT
  5
1D32F
330
1CC37
100
AcDbEntity
  8
寸法
 62
     0
 48
50.0
100
AcDbBlockReference
  2
_DOTSMALL
 10
5712.829581418173
 20
6238.281130716521
 30
0.0
 41
125.0
 42
125.0
 43
125.0
 50
180.0
  0
MTEXT
  5
1D330
330
1CC37
100
AcDbEntity
  8
寸法
 62
     7
 48
50.0
100
AcDbMText
 10
6652.829581418174
 20
6338.281130716521
 30
0.0
 40
150.0
 41
0.0
 71
     5
 72
     1
  1
\A1;柱外寸法 1880
  7
STYLE1
 73
     1
 44
1.0
  0
POINT
  5
1D331
330
1CC37
100
AcDbEntity
  8
DEFPOINTS
 62
     0
 48
50.0
100
AcDbPoint
 10
7592.829581418175
 20
5541.484603453081
 30
0.0
  0
POINT
  5
1D332
330
1CC37
100
AcDbEntity
  8
DEFPOINTS
 62
     0
 48
50.0
100
AcDbPoint
 10
5712.829581418173
 20
5488.33701822684
 30
0.0
  0
POINT
  5
1D333
330
1CC37
100
AcDbEntity
  8
DEFPOINTS
 62
     0
 48
50.0
100
AcDbPoint
 10
5712.829581418173
 20
6238.281130716521
 30
0.0
  0
ENDBLK
  5
1CCC5
330
1CC37
100
AcDbEntity
  8
0
 48
50.0
100
AcDbBlockEnd
  0
BLOCK
  5
1CCC6
330
1CC42
100
AcDbEntity
  8
0
 48
50.0
100
AcDbBlockBegin
  2
*D31
 70
     1
 10
0.0
 20
0.0
 30
0.0
  3
*D31
  1

  0
LINE
  5
1CCC7
330
1CC42
100
AcDbEntity
  8
0
  6
ByBlock
 62
     0
 48
50.0
100
AcDbLine
 10
4832.012900804916
 20
-1873.247473483337
 30
0.0
 11
4832.012900804916
 21
-862.1786189287922
 31
0.0
  0
LINE
  5
1CCC8
330
1CC42
100
AcDbEntity
  8
0
  6
ByBlock
 62
     0
 48
50.0
100
AcDbLine
 10
2722.012900804916
 20
-1933.247473483337
 30
0.0
 11
2722.012900804916
 21
-862.1786189287922
 31
0.0
  0
LINE
  5
1CCC9
330
1CC42
100
AcDbEntity
  8
0
  6
ByBlock
 62
     0
 48
50.0
100
AcDbLine
 10
4832.012900804916
 20
-937.1786189287922
 30
0.0
 11
2722.012900804916
 21
-937.1786189287922
 31
0.0
  0
INSERT
  5
1CCCA
330
1CC42
100
AcDbEntity
  8
0
  6
ByBlock
 62
     0
 48
50.0
100
AcDbBlockReference
  2
_DOTSMALL
 10
4832.012900804916
 20
-937.1786189287922
 30
0.0
 41
125.0
 42
125.0
 43
125.0
  0
INSERT
  5
1CCCB
330
1CC42
100
AcDbEntity
  8
0
  6
ByBlock
 62
     0
 48
50.0
100
AcDbBlockReference
  2
_DOTSMALL
 10
2722.012900804916
 20
-937.1786189287922
 30
0.0
 41
125.0
 42
125.0
 43
125.0
 50
180.0
  0
MTEXT
  5
1CCCC
330
1CC42
100
AcDbEntity
  8
0
  6
ByBlock
 62
     7
 48
50.0
100
AcDbMText
 10
3777.012900804916
 20
-837.1638551492647
 30
0.0
 40
150.0
 41
0.0
 71
     5
 72
     1
  1
\A1;2110
  7
STYLE1
 73
     1
 44
1.0
  0
POINT
  5
1CCCD
330
1CC42
100
AcDbEntity
  8
DEFPOINTS
  6
ByBlock
 62
     0
 48
50.0
100
AcDbPoint
 10
4832.012900804916
 20
-1898.247473483337
 30
0.0
  0
POINT
  5
1CCCE
330
1CC42
100
AcDbEntity
  8
DEFPOINTS
  6
ByBlock
 62
     0
 48
50.0
100
AcDbPoint
 10
2722.012900804916
 20
-1958.247473483337
 30
0.0
  0
POINT
  5
1CCCF
330
1CC42
100
AcDbEntity
  8
DEFPOINTS
  6
ByBlock
 62
     0
 48
50.0
100
AcDbPoint
 10
2722.012900804916
 20
-937.1786189287922
 30
0.0
  0
ENDBLK
  5
1CCD0
330
1CC42
100
AcDbEntity
  8
0
 48
50.0
100
AcDbBlockEnd
  0
BLOCK
  5
1CCD1
330
1CC4E
100
AcDbEntity
  8
0
 48
50.0
100
AcDbBlockBegin
  2
*D32
 70
     1
 10
0.0
 20
0.0
 30
0.0
  3
*D32
  1

  0
LINE
  5
1CCD2
330
1CC4E
100
AcDbEntity
  8
0
  6
ByBlock
 62
     0
 48
50.0
100
AcDbLine
 10
2792.012900804915
 20
-4168.247473483386
 30
0.0
 11
2394.082940581763
 21
-4168.247473483386
 31
0.0
  0
LINE
  5
1CCD3
330
1CC4E
100
AcDbEntity
  8
0
  6
ByBlock
 62
     0
 48
50.0
100
AcDbLine
 10
2862.012900804915
 20
-2273.247473483386
 30
0.0
 11
2394.082940581764
 21
-2273.247473483386
 31
0.0
  0
LINE
  5
1CCD4
330
1CC4E
100
AcDbEntity
  8
0
  6
ByBlock
 62
     0
 48
50.0
100
AcDbLine
 10
2469.082940581763
 20
-4168.247473483386
 30
0.0
 11
2469.082940581764
 21
-2273.247473483386
 31
0.0
  0
INSERT
  5
1CCD5
330
1CC4E
100
AcDbEntity
  8
0
  6
ByBlock
 62
     0
 48
50.0
100
AcDbBlockReference
  2
_DOTSMALL
 10
2469.082940581763
 20
-4168.247473483386
 30
0.0
 41
125.0
 42
125.0
 43
125.0
 50
270.0
  0
INSERT
  5
1CCD6
330
1CC4E
100
AcDbEntity
  8
0
  6
ByBlock
 62
     0
 48
50.0
100
AcDbBlockReference
  2
_DOTSMALL
 10
2469.082940581764
 20
-2273.247473483386
 30
0.0
 41
125.0
 42
125.0
 43
125.0
 50
90.0
  0
MTEXT
  5
1CCD7
330
1CC4E
100
AcDbEntity
  8
0
  6
ByBlock
 62
     7
 48
50.0
100
AcDbMText
 10
2369.082940581764
 20
-3220.747473483386
 30
0.0
 40
150.0
 41
0.0
 71
     5
 72
     1
  1
\A1;1895
  7
STYLE1
 11
0.0000000000000001
 21
1.0
 31
0.0
 73
     1
 44
1.0
  0
POINT
  5
1CCD8
330
1CC4E
100
AcDbEntity
  8
DEFPOINTS
  6
ByBlock
 62
     0
 48
50.0
100
AcDbPoint
 10
2817.012900804915
 20
-4168.247473483386
 30
0.0
  0
POINT
  5
1CCD9
330
1CC4E
100
AcDbEntity
  8
DEFPOINTS
  6
ByBlock
 62
     0
 48
50.0
100
AcDbPoint
 10
2887.012900804915
 20
-2273.247473483386
 30
0.0
  0
POINT
  5
1CCDA
330
1CC4E
100
AcDbEntity
  8
DEFPOINTS
  6
ByBlock
 62
     0
 48
50.0
100
AcDbPoint
 10
2469.082940581764
 20
-2273.247473483386
 30
0.0
  0
ENDBLK
  5
1CCDB
330
1CC4E
100
AcDbEntity
  8
0
 48
50.0
100
AcDbBlockEnd
  0
BLOCK
  5
1CCDC
330
1CC5A
100
AcDbEntity
  8
0
 48
50.0
100
AcDbBlockBegin
  2
*D33
 70
     1
 10
0.0
 20
0.0
 30
0.0
  3
*D33
  1

  0
LINE
  5
1CCDD
330
1CC5A
100
AcDbEntity
  8
0
  6
ByBlock
 62
     0
 48
50.0
100
AcDbLine
 10
2792.012900804916
 20
-4168.247473483337
 30
0.0
 11
2082.522147383497
 21
-4168.247473483337
 31
0.0
  0
LINE
  5
1CCDE
330
1CC5A
100
AcDbEntity
  8
0
  6
ByBlock
 62
     0
 48
50.0
100
AcDbLine
 10
2697.012900804916
 20
-1958.247473483337
 30
0.0
 11
2082.522147383498
 21
-1958.247473483337
 31
0.0
  0
LINE
  5
1CCDF
330
1CC5A
100
AcDbEntity
  8
0
  6
ByBlock
 62
     0
 48
50.0
100
AcDbLine
 10
2157.522147383497
 20
-4168.247473483337
 30
0.0
 11
2157.522147383498
 21
-1958.247473483337
 31
0.0
  0
INSERT
  5
1CCE0
330
1CC5A
100
AcDbEntity
  8
0
  6
ByBlock
 62
     0
 48
50.0
100
AcDbBlockReference
  2
_DOTSMALL
 10
2157.522147383497
 20
-4168.247473483337
 30
0.0
 41
125.0
 42
125.0
 43
125.0
 50
270.0
  0
INSERT
  5
1CCE1
330
1CC5A
100
AcDbEntity
  8
0
  6
ByBlock
 62
     0
 48
50.0
100
AcDbBlockReference
  2
_DOTSMALL
 10
2157.522147383498
 20
-1958.247473483337
 30
0.0
 41
125.0
 42
125.0
 43
125.0
 50
90.0
  0
MTEXT
  5
1CCE2
330
1CC5A
100
AcDbEntity
  8
0
  6
ByBlock
 62
     7
 48
50.0
100
AcDbMText
 10
2057.50738360397
 20
-3063.247473483337
 30
0.0
 40
150.0
 41
0.0
 71
     5
 72
     1
  1
\A1;2210
  7
STYLE1
 11
0.0000000000000001
 21
1.0
 31
0.0
 73
     1
 44
1.0
  0
POINT
  5
1CCE3
330
1CC5A
100
AcDbEntity
  8
DEFPOINTS
  6
ByBlock
 62
     0
 48
50.0
100
AcDbPoint
 10
2817.012900804916
 20
-4168.247473483337
 30
0.0
  0
POINT
  5
1CCE4
330
1CC5A
100
AcDbEntity
  8
DEFPOINTS
  6
ByBlock
 62
     0
 48
50.0
100
AcDbPoint
 10
2722.012900804916
 20
-1958.247473483337
 30
0.0
  0
POINT
  5
1CCE5
330
1CC5A
100
AcDbEntity
  8
DEFPOINTS
  6
ByBlock
 62
     0
 48
50.0
100
AcDbPoint
 10
2157.522147383498
 20
-1958.247473483337
 30
0.0
  0
ENDBLK
  5
1CCE6
330
1CC5A
100
AcDbEntity
  8
0
 48
50.0
100
AcDbBlockEnd
  0
BLOCK
  5
1CCE7
330
1CC66
100
AcDbEntity
  8
0
 48
50.0
100
AcDbBlockBegin
  2
*D34
 70
     1
 10
0.0
 20
0.0
 30
0.0
  3
*D34
  1

  0
LINE
  5
1CCE8
330
1CC66
100
AcDbEntity
  8
0
  6
ByBlock
 62
     0
 48
50.0
100
AcDbLine
 10
2817.012900804916
 20
-1929.910455256496
 30
0.0
 11
2817.012900804916
 21
-1129.966342766816
 31
0.0
  0
LINE
  5
1CCE9
330
1CC66
100
AcDbEntity
  8
0
  6
ByBlock
 62
     0
 48
50.0
100
AcDbLine
 10
2722.012900804916
 20
-1933.247473483337
 30
0.0
 11
2722.012900804916
 21
-1129.966342766816
 31
0.0
  0
LINE
  5
1CCEA
330
1CC66
100
AcDbEntity
  8
0
  6
ByBlock
 62
     0
 48
50.0
100
AcDbLine
 10
2817.012900804916
 20
-1204.966342766816
 30
0.0
 11
2722.012900804916
 21
-1204.966342766816
 31
0.0
  0
LINE
  5
1CCEB
330
1CC66
100
AcDbEntity
  8
0
  6
ByBlock
 62
     0
 48
50.0
100
AcDbLine
 10
2722.012900804916
 20
-1204.966342766816
 30
0.0
 11
2275.740642251211
 21
-1204.966342766816
 31
0.0
  0
INSERT
  5
1CCEC
330
1CC66
100
AcDbEntity
  8
0
  6
ByBlock
 62
     0
 48
50.0
100
AcDbBlockReference
  2
_DOTSMALL
 10
2817.012900804916
 20
-1204.966342766816
 30
0.0
 41
125.0
 42
125.0
 43
125.0
  0
INSERT
  5
1CCED
330
1CC66
100
AcDbEntity
  8
0
  6
ByBlock
 62
     0
 48
50.0
100
AcDbBlockReference
  2
_DOTSMALL
 10
2722.012900804916
 20
-1204.966342766816
 30
0.0
 41
125.0
 42
125.0
 43
125.0
 50
180.0
  0
MTEXT
  5
1CCEE
330
1CC66
100
AcDbEntity
  8
0
  6
ByBlock
 62
     7
 48
50.0
100
AcDbMText
 10
2389.453845686807
 20
-1104.966342766816
 30
0.0
 40
150.0
 41
0.0
 71
     5
 72
     1
  1
\A1;95
  7
STYLE1
 73
     1
 44
1.0
  0
POINT
  5
1CCEF
330
1CC66
100
AcDbEntity
  8
DEFPOINTS
  6
ByBlock
 62
     0
 48
50.0
100
AcDbPoint
 10
2817.012900804916
 20
-1954.910455256497
 30
0.0
  0
POINT
  5
1CCF0
330
1CC66
100
AcDbEntity
  8
DEFPOINTS
  6
ByBlock
 62
     0
 48
50.0
100
AcDbPoint
 10
2722.012900804916
 20
-1958.247473483337
 30
0.0
  0
POINT
  5
1CCF1
330
1CC66
100
AcDbEntity
  8
DEFPOINTS
  6
ByBlock
 62
     0
 48
50.0
100
AcDbPoint
 10
2722.012900804916
 20
-1204.966342766816
 30
0.0
  0
ENDBLK
  5
1CCF2
330
1CC66
100
AcDbEntity
  8
0
 48
50.0
100
AcDbBlockEnd
  0
BLOCK
  5
1CCF3
330
1CC73
100
AcDbEntity
  8
0
 48
50.0
100
AcDbBlockBegin
  2
*D35
 70
     1
 10
0.0
 20
0.0
 30
0.0
  3
*D35
  1

  0
LINE
  5
1CCF4
330
1CC73
100
AcDbEntity
  8
0
  6
ByBlock
 62
     0
 48
50.0
100
AcDbLine
 10
4857.012900804917
 20
-1898.247473483337
 30
0.0
 11
5806.178821103305
 21
-1898.247473483337
 31
0.0
  0
LINE
  5
1CCF5
330
1CC73
100
AcDbEntity
  8
0
  6
ByBlock
 62
     0
 48
50.0
100
AcDbLine
 10
4722.012900804916
 20
-4168.247473483337
 30
0.0
 11
5806.178821103305
 21
-4168.247473483337
 31
0.0
  0
LINE
  5
1CCF6
330
1CC73
100
AcDbEntity
  8
0
  6
ByBlock
 62
     0
 48
50.0
100
AcDbLine
 10
5731.178821103306
 20
-1898.247473483337
 30
0.0
 11
5731.178821103306
 21
-4168.247473483337
 31
0.0
  0
INSERT
  5
1CCF7
330
1CC73
100
AcDbEntity
  8
0
  6
ByBlock
 62
     0
 48
50.0
100
AcDbBlockReference
  2
_DOTSMALL
 10
5731.178821103306
 20
-1898.247473483337
 30
0.0
 41
125.0
 42
125.0
 43
125.0
 50
90.0
  0
INSERT
  5
1CCF8
330
1CC73
100
AcDbEntity
  8
0
  6
ByBlock
 62
     0
 48
50.0
100
AcDbBlockReference
  2
_DOTSMALL
 10
5731.178821103306
 20
-4168.247473483337
 30
0.0
 41
125.0
 42
125.0
 43
125.0
 50
270.0
  0
MTEXT
  5
1CCF9
330
1CC73
100
AcDbEntity
  8
0
  6
ByBlock
 62
     7
 48
50.0
100
AcDbMText
 10
5631.164057323778
 20
-3033.247473483338
 30
0.0
 40
150.0
 41
0.0
 71
     5
 72
     1
  1
\A1;2270
  7
STYLE1
 11
0.0000000000000001
 21
1.0
 31
0.0
 73
     1
 44
1.0
  0
POINT
  5
1CCFA
330
1CC73
100
AcDbEntity
  8
DEFPOINTS
  6
ByBlock
 62
     0
 48
50.0
100
AcDbPoint
 10
4832.012900804918
 20
-1898.247473483337
 30
0.0
  0
POINT
  5
1CCFB
330
1CC73
100
AcDbEntity
  8
DEFPOINTS
  6
ByBlock
 62
     0
 48
50.0
100
AcDbPoint
 10
4697.012900804916
 20
-4168.247473483337
 30
0.0
  0
POINT
  5
1CCFC
330
1CC73
100
AcDbEntity
  8
DEFPOINTS
  6
ByBlock
 62
     0
 48
50.0
100
AcDbPoint
 10
5731.178821103306
 20
-4168.247473483337
 30
0.0
  0
ENDBLK
  5
1CCFD
330
1CC73
100
AcDbEntity
  8
0
 48
50.0
100
AcDbBlockEnd
  0
BLOCK
  5
1CCFE
330
1CC7F
100
AcDbEntity
  8
0
 48
50.0
100
AcDbBlockBegin
  2
*D36
 70
     1
 10
0.0
 20
0.0
 30
0.0
  3
*D36
  1

  0
LINE
  5
1D334
330
1CC7F
100
AcDbEntity
  8
寸法
 62
     0
 48
50.0
100
AcDbLine
 10
7617.829581418174
 20
5275.0
 30
0.0
 11
8393.949297310763
 21
5275.0
 31
0.0
  0
LINE
  5
1D335
330
1CC7F
100
AcDbEntity
  8
寸法
 62
     0
 48
50.0
100
AcDbLine
 10
8318.94929731076
 20
3330.0
 30
0.0
 11
8318.949297310764
 21
5275.0
 31
0.0
  0
INSERT
  5
1D336
330
1CC7F
100
AcDbEntity
  8
寸法
 62
     0
 48
50.0
100
AcDbBlockReference
  2
_DOTSMALL
 10
8318.94929731076
 20
3330.0
 30
0.0
 41
125.0
 42
125.0
 43
125.0
 50
270.0
  0
INSERT
  5
1D337
330
1CC7F
100
AcDbEntity
  8
寸法
 62
     0
 48
50.0
100
AcDbBlockReference
  2
_DOTSMALL
 10
8318.949297310764
 20
5275.0
 30
0.0
 41
125.0
 42
125.0
 43
125.0
 50
90.0
  0
MTEXT
  5
1D338
330
1CC7F
100
AcDbEntity
  8
寸法
 62
     7
 48
50.0
100
AcDbMText
 10
8218.949297310761
 20
4302.500000000001
 30
0.0
 40
150.0
 41
0.0
 71
     5
 72
     1
  1
\A1;1945
  7
STYLE1
 11
0.0000000000000001
 21
1.0
 31
0.0
 73
     1
 44
1.0
  0
POINT
  5
1D339
330
1CC7F
100
AcDbEntity
  8
DEFPOINTS
 62
     0
 48
50.0
100
AcDbPoint
 10
7592.829581418174
 20
3330.0
 30
0.0
  0
POINT
  5
1D33A
330
1CC7F
100
AcDbEntity
  8
DEFPOINTS
 62
     0
 48
50.0
100
AcDbPoint
 10
7592.829581418174
 20
5275.0
 30
0.0
  0
POINT
  5
1D33B
330
1CC7F
100
AcDbEntity
  8
DEFPOINTS
 62
     0
 48
50.0
100
AcDbPoint
 10
8318.949297310764
 20
5275.0
 30
0.0
  0
ENDBLK
  5
1CD07
330
1CC7F
100
AcDbEntity
  8
0
 48
50.0
100
AcDbBlockEnd
  0
BLOCK
  5
1CD08
330
1CC8A
100
AcDbEntity
  8
0
 48
50.0
100
AcDbBlockBegin
  2
*D37
 70
     1
 10
0.0
 20
0.0
 30
0.0
  3
*D37
  1

  0
LINE
  5
1CD09
330
1CC8A
100
AcDbEntity
  8
0
  6
ByBlock
 62
     0
 48
50.0
100
AcDbLine
 10
4722.012900804916
 20
-4168.247473483337
 30
0.0
 11
5498.132616697505
 21
-4168.247473483337
 31
0.0
  0
LINE
  5
1CD0A
330
1CC8A
100
AcDbEntity
  8
0
  6
ByBlock
 62
     0
 48
50.0
100
AcDbLine
 10
4722.012900804916
 20
-4113.247473483338
 30
0.0
 11
5498.132616697505
 21
-4113.247473483338
 31
0.0
  0
LINE
  5
1CD0B
330
1CC8A
100
AcDbEntity
  8
0
  6
ByBlock
 62
     0
 48
50.0
100
AcDbLine
 10
5423.132616697505
 20
-4113.247473483338
 30
0.0
 11
5423.132616697505
 21
-4168.247473483337
 31
0.0
  0
LINE
  5
1CD0C
330
1CC8A
100
AcDbEntity
  8
0
  6
ByBlock
 62
     0
 48
50.0
100
AcDbLine
 10
5423.132616697505
 20
-4168.247473483337
 30
0.0
 11
5423.132616697505
 21
-4589.433581023669
 31
0.0
  0
INSERT
  5
1CD0D
330
1CC8A
100
AcDbEntity
  8
0
  6
ByBlock
 62
     0
 48
50.0
100
AcDbBlockReference
  2
_DOTSMALL
 10
5423.132616697505
 20
-4113.247473483338
 30
0.0
 41
125.0
 42
125.0
 43
125.0
 50
90.0
  0
INSERT
  5
1CD0E
330
1CC8A
100
AcDbEntity
  8
0
  6
ByBlock
 62
     0
 48
50.0
100
AcDbBlockReference
  2
_DOTSMALL
 10
5423.132616697505
 20
-4168.247473483337
 30
0.0
 41
125.0
 42
125.0
 43
125.0
 50
270.0
  0
MTEXT
  5
1CD0F
330
1CC8A
100
AcDbEntity
  8
0
  6
ByBlock
 62
     7
 48
50.0
100
AcDbMText
 10
5323.132616697505
 20
-4478.826979305871
 30
0.0
 40
150.0
 41
0.0
 71
     5
 72
     1
  1
\A1;55
  7
STYLE1
 11
0.0000000000000001
 21
1.0
 31
0.0
 73
     1
 44
1.0
  0
POINT
  5
1CD10
330
1CC8A
100
AcDbEntity
  8
DEFPOINTS
  6
ByBlock
 62
     0
 48
50.0
100
AcDbPoint
 10
4697.012900804916
 20
-4168.247473483337
 30
0.0
  0
POINT
  5
1CD11
330
1CC8A
100
AcDbEntity
  8
DEFPOINTS
  6
ByBlock
 62
     0
 48
50.0
100
AcDbPoint
 10
4697.012900804916
 20
-4113.247473483338
 30
0.0
  0
POINT
  5
1CD12
330
1CC8A
100
AcDbEntity
  8
DEFPOINTS
  6
ByBlock
 62
     0
 48
50.0
100
AcDbPoint
 10
5423.132616697505
 20
-4113.247473483338
 30
0.0
  0
ENDBLK
  5
1CD13
330
1CC8A
100
AcDbEntity
  8
0
 48
50.0
100
AcDbBlockEnd
  0
BLOCK
  5
1CD14
330
1CC97
100
AcDbEntity
  8
0
 48
50.0
100
AcDbBlockBegin
  2
*D38
 70
     1
 10
0.0
 20
0.0
 30
0.0
  3
*D38
  1

  0
LINE
  5
1CD15
330
1CC97
100
AcDbEntity
  8
0
  6
ByBlock
 62
     0
 48
50.0
100
AcDbLine
 10
4832.012900804918
 20
-1873.247473483337
 30
0.0
 11
4832.012900804918
 21
-1129.966342766816
 31
0.0
  0
LINE
  5
1CD16
330
1CC97
100
AcDbEntity
  8
0
  6
ByBlock
 62
     0
 48
50.0
100
AcDbLine
 10
4697.012900804917
 20
-1876.762870030256
 30
0.0
 11
4697.012900804917
 21
-1129.966342766816
 31
0.0
  0
LINE
  5
1CD17
330
1CC97
100
AcDbEntity
  8
0
  6
ByBlock
 62
     0
 48
50.0
100
AcDbLine
 10
4697.012900804917
 20
-1204.966342766816
 30
0.0
 11
4832.012900804918
 21
-1204.966342766816
 31
0.0
  0
LINE
  5
1CD18
330
1CC97
100
AcDbEntity
  8
0
  6
ByBlock
 62
     0
 48
50.0
100
AcDbLine
 10
4832.012900804918
 20
-1204.966342766816
 30
0.0
 11
5253.226104240514
 21
-1204.966342766816
 31
0.0
  0
INSERT
  5
1CD19
330
1CC97
100
AcDbEntity
  8
0
  6
ByBlock
 62
     0
 48
50.0
100
AcDbBlockReference
  2
_DOTSMALL
 10
4697.012900804917
 20
-1204.966342766816
 30
0.0
 41
125.0
 42
125.0
 43
125.0
 50
180.0
  0
INSERT
  5
1CD1A
330
1CC97
100
AcDbEntity
  8
0
  6
ByBlock
 62
     0
 48
50.0
100
AcDbBlockReference
  2
_DOTSMALL
 10
4832.012900804918
 20
-1204.966342766816
 30
0.0
 41
125.0
 42
125.0
 43
125.0
  0
MTEXT
  5
1CD1B
330
1CC97
100
AcDbEntity
  8
0
  6
ByBlock
 62
     7
 48
50.0
100
AcDbMText
 10
5105.119502522716
 20
-1104.966342766816
 30
0.0
 40
150.0
 41
0.0
 71
     5
 72
     1
  1
\A1;135
  7
STYLE1
 73
     1
 44
1.0
  0
POINT
  5
1CD1C
330
1CC97
100
AcDbEntity
  8
DEFPOINTS
  6
ByBlock
 62
     0
 48
50.0
100
AcDbPoint
 10
4832.012900804918
 20
-1898.247473483337
 30
0.0
  0
POINT
  5
1CD1D
330
1CC97
100
AcDbEntity
  8
DEFPOINTS
  6
ByBlock
 62
     0
 48
50.0
100
AcDbPoint
 10
4697.012900804917
 20
-1901.762870030255
 30
0.0
  0
POINT
  5
1CD1E
330
1CC97
100
AcDbEntity
  8
DEFPOINTS
  6
ByBlock
 62
     0
 48
50.0
100
AcDbPoint
 10
4697.012900804917
 20
-1204.966342766816
 30
0.0
  0
ENDBLK
  5
1CD1F
330
1CC97
100
AcDbEntity
  8
0
 48
50.0
100
AcDbBlockEnd
  0
BLOCK
  5
1CE4E
330
1CE4D
100
AcDbEntity
  8
0
 48
50.0
100
AcDbBlockBegin
  2
*D39
 70
     1
 10
0.0
 20
0.0
 30
0.0
  3
*D39
  1

  0
LINE
  5
1CE4F
330
1CE4D
100
AcDbEntity
  8
0
  6
ByBlock
 62
     0
 48
50.0
100
AcDbLine
 10
11148.00852711456
 20
-4789.153781328314
 30
0.0
 11
11148.00852711456
 21
-5138.46255209193
 31
0.0
  0
LINE
  5
1CE50
330
1CE4D
100
AcDbEntity
  8
0
  6
ByBlock
 62
     0
 48
50.0
100
AcDbLine
 10
11098.00852711456
 20
-4654.153781328314
 30
0.0
 11
11098.00852711456
 21
-5138.46255209193
 31
0.0
  0
LINE
  5
1CE51
330
1CE4D
100
AcDbEntity
  8
0
  6
ByBlock
 62
     0
 48
50.0
100
AcDbLine
 10
11148.00852711456
 20
-5063.462552091929
 30
0.0
 11
11098.00852711456
 21
-5063.462552091929
 31
0.0
  0
LINE
  5
1CE52
330
1CE4D
100
AcDbEntity
  8
0
  6
ByBlock
 62
     0
 48
50.0
100
AcDbLine
 10
11098.00852711456
 20
-5063.462552091929
 30
0.0
 11
10757.89041687833
 21
-5063.462552091929
 31
0.0
  0
INSERT
  5
1CE53
330
1CE4D
100
AcDbEntity
  8
0
  6
ByBlock
 62
     0
 48
50.0
100
AcDbBlockReference
  2
_DOTSMALL
 10
11148.00852711456
 20
-5063.462552091929
 30
0.0
 41
125.0
 42
125.0
 43
125.0
  0
INSERT
  5
1CE54
330
1CE4D
100
AcDbEntity
  8
0
  6
ByBlock
 62
     0
 48
50.0
100
AcDbBlockReference
  2
_DOTSMALL
 10
11098.00852711456
 20
-5063.462552091929
 30
0.0
 41
125.0
 42
125.0
 43
125.0
 50
180.0
  0
MTEXT
  5
1CE55
330
1CE4D
100
AcDbEntity
  8
0
  6
ByBlock
 62
     7
 48
50.0
100
AcDbMText
 10
10865.44947199645
 20
-4963.462552091929
 30
0.0
 40
150.0
 41
0.0
 71
     5
 72
     1
  1
\A1;50
  7
STYLE1
 73
     1
 44
1.0
  0
POINT
  5
1CE56
330
1CE4D
100
AcDbEntity
  8
DEFPOINTS
  6
ByBlock
 62
     0
 48
50.0
100
AcDbPoint
 10
11148.00852711456
 20
-4764.153781328314
 30
0.0
  0
POINT
  5
1CE57
330
1CE4D
100
AcDbEntity
  8
DEFPOINTS
  6
ByBlock
 62
     0
 48
50.0
100
AcDbPoint
 10
11098.00852711456
 20
-4629.153781328314
 30
0.0
  0
POINT
  5
1CE58
330
1CE4D
100
AcDbEntity
  8
DEFPOINTS
  6
ByBlock
 62
     0
 48
50.0
100
AcDbPoint
 10
11098.00852711456
 20
-5063.462552091929
 30
0.0
  0
ENDBLK
  5
1CE59
330
1CE4D
100
AcDbEntity
  8
0
 48
50.0
100
AcDbBlockEnd
  0
BLOCK
  5
1CE7A
330
1CE6F
100
AcDbEntity
  8
0
 48
50.0
100
AcDbBlockBegin
  2
*D40
 70
     1
 10
0.0
 20
0.0
 30
0.0
  3
*D40
  1

  0
LINE
  5
1CE70
330
1CE6F
100
AcDbEntity
  8
0
  6
ByBlock
 62
     0
 48
50.0
100
AcDbLine
 10
44405.89788991325
 20
19731.25355823898
 30
0.0
 11
45075.0910977055
 21
19731.25355823898
 31
0.0
  0
LINE
  5
1CE71
330
1CE6F
100
AcDbEntity
  8
0
  6
ByBlock
 62
     0
 48
50.0
100
AcDbLine
 10
44405.89788991326
 20
19846.25355823898
 30
0.0
 11
45075.0910977055
 21
19846.25355823898
 31
0.0
  0
LINE
  5
1CE72
330
1CE6F
100
AcDbEntity
  8
0
  6
ByBlock
 62
     0
 48
50.0
100
AcDbLine
 10
45000.0910977055
 20
19731.25355823898
 30
0.0
 11
45000.0910977055
 21
19846.25355823898
 31
0.0
  0
LINE
  5
1CE73
330
1CE6F
100
AcDbEntity
  8
0
  6
ByBlock
 62
     0
 48
50.0
100
AcDbLine
 10
45000.0910977055
 20
19846.25355823898
 30
0.0
 11
45000.0910977055
 21
20237.46676167458
 31
0.0
  0
INSERT
  5
1CE74
330
1CE6F
100
AcDbEntity
  8
0
  6
ByBlock
 62
     0
 48
50.0
100
AcDbBlockReference
  2
_DOTSMALL
 10
45000.0910977055
 20
19731.25355823898
 30
0.0
 41
125.0
 42
125.0
 43
125.0
 50
270.0
  0
INSERT
  5
1CE75
330
1CE6F
100
AcDbEntity
  8
0
  6
ByBlock
 62
     0
 48
50.0
100
AcDbBlockReference
  2
_DOTSMALL
 10
45000.0910977055
 20
19846.25355823898
 30
0.0
 41
125.0
 42
125.0
 43
125.0
 50
90.0
  0
MTEXT
  5
1CE76
330
1CE6F
100
AcDbEntity
  8
0
  6
ByBlock
 62
     7
 48
50.0
100
AcDbMText
 10
44900.0910977055
 20
20104.36015995679
 30
0.0
 40
150.0
 41
0.0
 71
     5
 72
     1
  1
\A1;115
  7
STYLE1
 11
0.0000000000000001
 21
1.0
 31
0.0
 73
     1
 44
1.0
  0
POINT
  5
1CE77
330
1CE6F
100
AcDbEntity
  8
DEFPOINTS
  6
ByBlock
 62
     0
 48
50.0
100
AcDbPoint
 10
44380.89788991326
 20
19731.25355823898
 30
0.0
  0
POINT
  5
1CE78
330
1CE6F
100
AcDbEntity
  8
DEFPOINTS
  6
ByBlock
 62
     0
 48
50.0
100
AcDbPoint
 10
44380.89788991326
 20
19846.25355823898
 30
0.0
  0
POINT
  5
1CE79
330
1CE6F
100
AcDbEntity
  8
DEFPOINTS
  6
ByBlock
 62
     0
 48
50.0
100
AcDbPoint
 10
45000.0910977055
 20
19846.25355823898
 30
0.0
  0
ENDBLK
  5
1CE7B
330
1CE6F
100
AcDbEntity
  8
0
 48
50.0
100
AcDbBlockEnd
  0
BLOCK
  5
1CE7E
330
1CE7C
100
AcDbEntity
  8
0
 48
50.0
100
AcDbBlockBegin
  2
A$C356B7D95
 70
     0
 10
0.0
 20
0.0
 30
0.0
  3
A$C356B7D95
  1

  0
DIMENSION
  5
1CE7D
330
1CE7C
100
AcDbEntity
  8
寸法
 48
50.0
100
AcDbDimension
  2
*D40
 10
619.1932440042291
 20
130.6249900073708
 30
0.0
 11
619.1932440042291
 21
388.7315917251762
 31
0.0
 12
-44380.89785370127
 22
-19715.62856823161
 32
0.0
 70
   128
 71
     5
 42
-1.0
  3
INABA_S50G
100
AcDbAlignedDimension
 13
0.0000362119826605
 23
15.62499000737079
 33
0.0
 14
0.0000362119899364
 24
130.6249900073708
 34
0.0
 50
269.9999999999997
100
AcDbRotatedDimension
  0
ENDBLK
  5
1CE7F
330
1CE7C
100
AcDbEntity
  8
0
 48
50.0
100
AcDbBlockEnd
  0
BLOCK
  5
1CEFA
330
1CEF8
100
AcDbEntity
  8
0
 48
50.0
100
AcDbBlockBegin
  2
A$C5FCD7CC6
 70
     0
 10
0.0
 20
0.0
 30
0.0
  3
A$C5FCD7CC6
  1

  0
INSERT
  5
1CEF9
330
1CEF8
100
AcDbEntity
  8
部品1
 48
50.0
100
AcDbBlockReference
  2
A$C356B7D95
 10
5.140650254201318
 20
-15.61293116059096
 30
0.0
 50
2.255436934929261
  0
ENDBLK
  5
1CEFB
330
1CEF8
100
AcDbEntity
  8
0
 48
50.0
100
AcDbBlockEnd
  0
BLOCK
  5
1D248
330
1D1C3
100
AcDbEntity
  8
0
 48
50.0
100
AcDbBlockBegin
  2
*D43
 70
     1
 10
0.0
 20
0.0
 30
0.0
  3
*D43
  1

  0
LINE
  5
1D249
330
1D1C3
100
AcDbEntity
  8
0
  6
ByBlock
 62
     0
 48
50.0
100
AcDbLine
 10
7727.829581418174
 20
11658.73679736192
 30
0.0
 11
7727.829581418174
 21
12402.01792807845
 31
0.0
  0
LINE
  5
1D24A
330
1D1C3
100
AcDbEntity
  8
0
  6
ByBlock
 62
     0
 48
50.0
100
AcDbLine
 10
7592.829581418175
 20
11656.29728927304
 30
0.0
 11
7592.829581418175
 21
12402.01792807845
 31
0.0
  0
LINE
  5
1D24B
330
1D1C3
100
AcDbEntity
  8
0
  6
ByBlock
 62
     0
 48
50.0
100
AcDbLine
 10
7592.829581418175
 20
12327.01792807845
 30
0.0
 11
7727.829581418174
 21
12327.01792807845
 31
0.0
  0
LINE
  5
1D24C
330
1D1C3
100
AcDbEntity
  8
0
  6
ByBlock
 62
     0
 48
50.0
100
AcDbLine
 10
7727.829581418174
 20
12327.01792807845
 30
0.0
 11
8158.495238254088
 21
12327.01792807845
 31
0.0
  0
INSERT
  5
1D24D
330
1D1C3
100
AcDbEntity
  8
0
  6
ByBlock
 62
     0
 48
50.0
100
AcDbBlockReference
  2
_DOTSMALL
 10
7592.829581418175
 20
12327.01792807845
 30
0.0
 41
125.0
 42
125.0
 43
125.0
 50
180.0
  0
INSERT
  5
1D24E
330
1D1C3
100
AcDbEntity
  8
0
  6
ByBlock
 62
     0
 48
50.0
100
AcDbBlockReference
  2
_DOTSMALL
 10
7727.829581418174
 20
12327.01792807845
 30
0.0
 41
125.0
 42
125.0
 43
125.0
  0
MTEXT
  5
1D24F
330
1D1C3
100
AcDbEntity
  8
0
  6
ByBlock
 62
     7
 48
50.0
100
AcDbMText
 10
8010.388636536291
 20
12427.01792807845
 30
0.0
 40
150.0
 41
0.0
 71
     5
 72
     1
  1
\A1;135
  7
STYLE1
 73
     1
 44
1.0
  0
POINT
  5
1D250
330
1D1C3
100
AcDbEntity
  8
DEFPOINTS
  6
ByBlock
 62
     0
 48
50.0
100
AcDbPoint
 10
7727.829581418174
 20
11633.73679736192
 30
0.0
  0
POINT
  5
1D251
330
1D1C3
100
AcDbEntity
  8
DEFPOINTS
  6
ByBlock
 62
     0
 48
50.0
100
AcDbPoint
 10
7592.829581418175
 20
11631.29728927304
 30
0.0
  0
POINT
  5
1D252
330
1D1C3
100
AcDbEntity
  8
DEFPOINTS
  6
ByBlock
 62
     0
 48
50.0
100
AcDbPoint
 10
7592.829581418175
 20
12327.01792807845
 30
0.0
  0
ENDBLK
  5
1D253
330
1D1C3
100
AcDbEntity
  8
0
 48
50.0
100
AcDbBlockEnd
  0
BLOCK
  5
1D254
330
1D1D0
100
AcDbEntity
  8
0
 48
50.0
100
AcDbBlockBegin
  2
*D44
 70
     1
 10
0.0
 20
0.0
 30
0.0
  3
*D44
  1

  0
LINE
  5
1D255
330
1D1D0
100
AcDbEntity
  8
0
  6
ByBlock
 62
     0
 48
50.0
100
AcDbLine
 10
5712.829581418175
 20
11601.36318119755
 30
0.0
 11
5712.829581418175
 21
12402.01792807844
 31
0.0
  0
LINE
  5
1D256
330
1D1D0
100
AcDbEntity
  8
0
  6
ByBlock
 62
     0
 48
50.0
100
AcDbLine
 10
5617.829581418175
 20
11598.73679736192
 30
0.0
 11
5617.829581418175
 21
12402.01792807844
 31
0.0
  0
LINE
  5
1D257
330
1D1D0
100
AcDbEntity
  8
0
  6
ByBlock
 62
     0
 48
50.0
100
AcDbLine
 10
5712.829581418175
 20
12327.01792807844
 30
0.0
 11
5617.829581418175
 21
12327.01792807844
 31
0.0
  0
LINE
  5
1D258
330
1D1D0
100
AcDbEntity
  8
0
  6
ByBlock
 62
     0
 48
50.0
100
AcDbLine
 10
5617.829581418175
 20
12327.01792807844
 30
0.0
 11
5171.55732286447
 21
12327.01792807844
 31
0.0
  0
INSERT
  5
1D259
330
1D1D0
100
AcDbEntity
  8
0
  6
ByBlock
 62
     0
 48
50.0
100
AcDbBlockReference
  2
_DOTSMALL
 10
5712.829581418175
 20
12327.01792807844
 30
0.0
 41
125.0
 42
125.0
 43
125.0
  0
INSERT
  5
1D25A
330
1D1D0
100
AcDbEntity
  8
0
  6
ByBlock
 62
     0
 48
50.0
100
AcDbBlockReference
  2
_DOTSMALL
 10
5617.829581418175
 20
12327.01792807844
 30
0.0
 41
125.0
 42
125.0
 43
125.0
 50
180.0
  0
MTEXT
  5
1D25B
330
1D1D0
100
AcDbEntity
  8
0
  6
ByBlock
 62
     7
 48
50.0
100
AcDbMText
 10
5285.270526300067
 20
12427.01792807844
 30
0.0
 40
150.0
 41
0.0
 71
     5
 72
     1
  1
\A1;95
  7
STYLE1
 73
     1
 44
1.0
  0
POINT
  5
1D25C
330
1D1D0
100
AcDbEntity
  8
DEFPOINTS
  6
ByBlock
 62
     0
 48
50.0
100
AcDbPoint
 10
5712.829581418175
 20
11576.36318119755
 30
0.0
  0
POINT
  5
1D25D
330
1D1D0
100
AcDbEntity
  8
DEFPOINTS
  6
ByBlock
 62
     0
 48
50.0
100
AcDbPoint
 10
5617.829581418175
 20
11573.73679736192
 30
0.0
  0
POINT
  5
1D25E
330
1D1D0
100
AcDbEntity
  8
DEFPOINTS
  6
ByBlock
 62
     0
 48
50.0
100
AcDbPoint
 10
5617.829581418175
 20
12327.01792807844
 30
0.0
  0
ENDBLK
  5
1D25F
330
1D1D0
100
AcDbEntity
  8
0
 48
50.0
100
AcDbBlockEnd
  0
BLOCK
  5
1D260
330
1D1DD
100
AcDbEntity
  8
0
 48
50.0
100
AcDbBlockBegin
  2
*D45
 70
     1
 10
0.0
 20
0.0
 30
0.0
  3
*D45
  1

  0
LINE
  5
1D33C
330
1D1DD
100
AcDbEntity
  8
寸法
 62
     0
 48
50.0
100
AcDbLine
 10
5712.829581418175
 20
11601.36318119755
 30
0.0
 11
5712.829581418175
 21
12402.01792807844
 31
0.0
  0
LINE
  5
1D33D
330
1D1DD
100
AcDbEntity
  8
寸法
 62
     0
 48
50.0
100
AcDbLine
 10
7592.829581418175
 20
12327.01792807844
 30
0.0
 11
5712.829581418175
 21
12327.01792807844
 31
0.0
  0
INSERT
  5
1D33E
330
1D1DD
100
AcDbEntity
  8
寸法
 62
     0
 48
50.0
100
AcDbBlockReference
  2
_DOTSMALL
 10
7592.829581418175
 20
12327.01792807844
 30
0.0
 41
125.0
 42
125.0
 43
125.0
  0
INSERT
  5
1D33F
330
1D1DD
100
AcDbEntity
  8
寸法
 62
     0
 48
50.0
100
AcDbBlockReference
  2
_DOTSMALL
 10
5712.829581418175
 20
12327.01792807844
 30
0.0
 41
125.0
 42
125.0
 43
125.0
 50
180.0
  0
MTEXT
  5
1D340
330
1D1DD
100
AcDbEntity
  8
寸法
 62
     7
 48
50.0
100
AcDbMText
 10
6652.829581418174
 20
12427.01792807844
 30
0.0
 40
150.0
 41
0.0
 71
     5
 72
     1
  1
\A1;柱外寸法 1880
  7
STYLE1
 73
     1
 44
1.0
  0
POINT
  5
1D341
330
1D1DD
100
AcDbEntity
  8
DEFPOINTS
 62
     0
 48
50.0
100
AcDbPoint
 10
7592.829581418175
 20
11588.73679736192
 30
0.0
  0
POINT
  5
1D342
330
1D1DD
100
AcDbEntity
  8
DEFPOINTS
 62
     0
 48
50.0
100
AcDbPoint
 10
5712.829581418175
 20
11576.36318119755
 30
0.0
  0
POINT
  5
1D343
330
1D1DD
100
AcDbEntity
  8
DEFPOINTS
 62
     0
 48
50.0
100
AcDbPoint
 10
5712.829581418175
 20
12327.01792807844
 30
0.0
  0
ENDBLK
  5
1D269
330
1D1DD
100
AcDbEntity
  8
0
 48
50.0
100
AcDbBlockEnd
  0
BLOCK
  5
1D26A
330
1D1E8
100
AcDbEntity
  8
0
 48
50.0
100
AcDbBlockBegin
  2
*D46
 70
     1
 10
0.0
 20
0.0
 30
0.0
  3
*D46
  1

  0
LINE
  5
1D26B
330
1D1E8
100
AcDbEntity
  8
0
  6
ByBlock
 62
     0
 48
50.0
100
AcDbLine
 10
7727.829581418174
 20
11658.73679736192
 30
0.0
 11
7727.829581418174
 21
12718.1736988701
 31
0.0
  0
LINE
  5
1D26C
330
1D1E8
100
AcDbEntity
  8
0
  6
ByBlock
 62
     0
 48
50.0
100
AcDbLine
 10
5617.829581418175
 20
11598.73679736192
 30
0.0
 11
5617.829581418175
 21
12718.1736988701
 31
0.0
  0
LINE
  5
1D26D
330
1D1E8
100
AcDbEntity
  8
0
  6
ByBlock
 62
     0
 48
50.0
100
AcDbLine
 10
7727.829581418174
 20
12643.1736988701
 30
0.0
 11
5617.829581418175
 21
12643.1736988701
 31
0.0
  0
INSERT
  5
1D26E
330
1D1E8
100
AcDbEntity
  8
0
  6
ByBlock
 62
     0
 48
50.0
100
AcDbBlockReference
  2
_DOTSMALL
 10
7727.829581418174
 20
12643.1736988701
 30
0.0
 41
125.0
 42
125.0
 43
125.0
  0
INSERT
  5
1D26F
330
1D1E8
100
AcDbEntity
  8
0
  6
ByBlock
 62
     0
 48
50.0
100
AcDbBlockReference
  2
_DOTSMALL
 10
5617.829581418175
 20
12643.1736988701
 30
0.0
 41
125.0
 42
125.0
 43
125.0
 50
180.0
  0
MTEXT
  5
1D270
330
1D1E8
100
AcDbEntity
  8
0
  6
ByBlock
 62
     7
 48
50.0
100
AcDbMText
 10
6672.829581418175
 20
12743.18846264963
 30
0.0
 40
150.0
 41
0.0
 71
     5
 72
     1
  1
\A1;2110
  7
STYLE1
 73
     1
 44
1.0
  0
POINT
  5
1D271
330
1D1E8
100
AcDbEntity
  8
DEFPOINTS
  6
ByBlock
 62
     0
 48
50.0
100
AcDbPoint
 10
7727.829581418174
 20
11633.73679736192
 30
0.0
  0
POINT
  5
1D272
330
1D1E8
100
AcDbEntity
  8
DEFPOINTS
  6
ByBlock
 62
     0
 48
50.0
100
AcDbPoint
 10
5617.829581418175
 20
11573.73679736192
 30
0.0
  0
POINT
  5
1D273
330
1D1E8
100
AcDbEntity
  8
DEFPOINTS
  6
ByBlock
 62
     0
 48
50.0
100
AcDbPoint
 10
5617.829581418175
 20
12643.1736988701
 30
0.0
  0
ENDBLK
  5
1D274
330
1D1E8
100
AcDbEntity
  8
0
 48
50.0
100
AcDbBlockEnd
  0
BLOCK
  5
1D275
330
1D1F4
100
AcDbEntity
  8
0
 48
50.0
100
AcDbBlockBegin
  2
*D47
 70
     1
 10
0.0
 20
0.0
 30
0.0
  3
*D47
  1

  0
LINE
  5
1D276
330
1D1F4
100
AcDbEntity
  8
0
  6
ByBlock
 62
     0
 48
50.0
100
AcDbLine
 10
5687.829581418174
 20
9363.736797361928
 30
0.0
 11
4013.587517088182
 21
9363.736797361928
 31
0.0
  0
LINE
  5
1D277
330
1D1F4
100
AcDbEntity
  8
0
  6
ByBlock
 62
     0
 48
50.0
100
AcDbLine
 10
5592.829581418175
 20
11573.73679736192
 30
0.0
 11
4013.587517088182
 21
11573.73679736192
 31
0.0
  0
LINE
  5
1D278
330
1D1F4
100
AcDbEntity
  8
0
  6
ByBlock
 62
     0
 48
50.0
100
AcDbLine
 10
4088.587517088182
 20
9363.736797361928
 30
0.0
 11
4088.587517088182
 21
11573.73679736192
 31
0.0
  0
INSERT
  5
1D279
330
1D1F4
100
AcDbEntity
  8
0
  6
ByBlock
 62
     0
 48
50.0
100
AcDbBlockReference
  2
_DOTSMALL
 10
4088.587517088182
 20
9363.736797361928
 30
0.0
 41
125.0
 42
125.0
 43
125.0
 50
270.0
  0
INSERT
  5
1D27A
330
1D1F4
100
AcDbEntity
  8
0
  6
ByBlock
 62
     0
 48
50.0
100
AcDbBlockReference
  2
_DOTSMALL
 10
4088.587517088182
 20
11573.73679736192
 30
0.0
 41
125.0
 42
125.0
 43
125.0
 50
90.0
  0
MTEXT
  5
1D27B
330
1D1F4
100
AcDbEntity
  8
0
  6
ByBlock
 62
     7
 48
50.0
100
AcDbMText
 10
3988.572753308654
 20
10468.73679736192
 30
0.0
 40
150.0
 41
0.0
 71
     5
 72
     1
  1
\A1;2210
  7
STYLE1
 11
0.0000000000000001
 21
1.0
 31
0.0
 73
     1
 44
1.0
  0
POINT
  5
1D27C
330
1D1F4
100
AcDbEntity
  8
DEFPOINTS
  6
ByBlock
 62
     0
 48
50.0
100
AcDbPoint
 10
5712.829581418175
 20
9363.736797361928
 30
0.0
  0
POINT
  5
1D27D
330
1D1F4
100
AcDbEntity
  8
DEFPOINTS
  6
ByBlock
 62
     0
 48
50.0
100
AcDbPoint
 10
5617.829581418175
 20
11573.73679736192
 30
0.0
  0
POINT
  5
1D27E
330
1D1F4
100
AcDbEntity
  8
DEFPOINTS
  6
ByBlock
 62
     0
 48
50.0
100
AcDbPoint
 10
4088.587517088182
 20
11573.73679736192
 30
0.0
  0
ENDBLK
  5
1D27F
330
1D1F4
100
AcDbEntity
  8
0
 48
50.0
100
AcDbBlockEnd
  0
BLOCK
  5
1D280
330
1D200
100
AcDbEntity
  8
0
 48
50.0
100
AcDbBlockBegin
  2
*D48
 70
     1
 10
0.0
 20
0.0
 30
0.0
  3
*D48
  1

  0
LINE
  5
1D281
330
1D200
100
AcDbEntity
  8
0
  6
ByBlock
 62
     0
 48
50.0
100
AcDbLine
 10
5723.329581418175
 20
9430.736797361928
 30
0.0
 11
4326.549246176574
 21
9430.736797361928
 31
0.0
  0
LINE
  5
1D282
330
1D200
100
AcDbEntity
  8
0
  6
ByBlock
 62
     0
 48
50.0
100
AcDbLine
 10
5687.829581418174
 20
11390.73679736192
 30
0.0
 11
4326.549246176574
 21
11390.73679736192
 31
0.0
  0
LINE
  5
1D283
330
1D200
100
AcDbEntity
  8
0
  6
ByBlock
 62
     0
 48
50.0
100
AcDbLine
 10
4401.549246176574
 20
9430.736797361928
 30
0.0
 11
4401.549246176574
 21
11390.73679736192
 31
0.0
  0
INSERT
  5
1D284
330
1D200
100
AcDbEntity
  8
0
  6
ByBlock
 62
     0
 48
50.0
100
AcDbBlockReference
  2
_DOTSMALL
 10
4401.549246176574
 20
9430.736797361928
 30
0.0
 41
125.0
 42
125.0
 43
125.0
 50
270.0
  0
INSERT
  5
1D285
330
1D200
100
AcDbEntity
  8
0
  6
ByBlock
 62
     0
 48
50.0
100
AcDbBlockReference
  2
_DOTSMALL
 10
4401.549246176574
 20
11390.73679736192
 30
0.0
 41
125.0
 42
125.0
 43
125.0
 50
90.0
  0
MTEXT
  5
1D286
330
1D200
100
AcDbEntity
  8
0
  6
ByBlock
 62
     7
 48
50.0
100
AcDbMText
 10
4301.549246176573
 20
10410.73679736192
 30
0.0
 40
150.0
 41
0.0
 71
     5
 72
     1
  1
\A1;内高 1960
  7
STYLE1
 11
0.0000000000000001
 21
1.0
 31
0.0
 73
     1
 44
1.0
  0
POINT
  5
1D287
330
1D200
100
AcDbEntity
  8
DEFPOINTS
  6
ByBlock
 62
     0
 48
50.0
100
AcDbPoint
 10
5748.329581418175
 20
9430.736797361928
 30
0.0
  0
POINT
  5
1D288
330
1D200
100
AcDbEntity
  8
DEFPOINTS
  6
ByBlock
 62
     0
 48
50.0
100
AcDbPoint
 10
5712.829581418175
 20
11390.73679736192
 30
0.0
  0
POINT
  5
1D289
330
1D200
100
AcDbEntity
  8
DEFPOINTS
  6
ByBlock
 62
     0
 48
50.0
100
AcDbPoint
 10
4401.549246176574
 20
11390.73679736192
 30
0.0
  0
ENDBLK
  5
1D28A
330
1D200
100
AcDbEntity
  8
0
 48
50.0
100
AcDbBlockEnd
  0
BLOCK
  5
1D28B
330
1D20C
100
AcDbEntity
  8
0
 48
50.0
100
AcDbBlockBegin
  2
*D49
 70
     1
 10
0.0
 20
0.0
 30
0.0
  3
*D49
  1

  0
LINE
  5
1D28C
330
1D20C
100
AcDbEntity
  8
0
  6
ByBlock
 62
     0
 48
50.0
100
AcDbLine
 10
7752.829581418182
 20
11633.73679736192
 30
0.0
 11
9552.490021403354
 21
11633.73679736192
 31
0.0
  0
LINE
  5
1D28D
330
1D20C
100
AcDbEntity
  8
0
  6
ByBlock
 62
     0
 48
50.0
100
AcDbLine
 10
7617.829581418175
 20
9363.736797361928
 30
0.0
 11
9552.490021403354
 21
9363.736797361928
 31
0.0
  0
LINE
  5
1D28E
330
1D20C
100
AcDbEntity
  8
0
  6
ByBlock
 62
     0
 48
50.0
100
AcDbLine
 10
9477.490021403353
 20
11633.73679736192
 30
0.0
 11
9477.490021403353
 21
9363.736797361928
 31
0.0
  0
INSERT
  5
1D28F
330
1D20C
100
AcDbEntity
  8
0
  6
ByBlock
 62
     0
 48
50.0
100
AcDbBlockReference
  2
_DOTSMALL
 10
9477.490021403353
 20
11633.73679736192
 30
0.0
 41
125.0
 42
125.0
 43
125.0
 50
90.0
  0
INSERT
  5
1D290
330
1D20C
100
AcDbEntity
  8
0
  6
ByBlock
 62
     0
 48
50.0
100
AcDbBlockReference
  2
_DOTSMALL
 10
9477.490021403353
 20
9363.736797361928
 30
0.0
 41
125.0
 42
125.0
 43
125.0
 50
270.0
  0
MTEXT
  5
1D291
330
1D20C
100
AcDbEntity
  8
0
  6
ByBlock
 62
     7
 48
50.0
100
AcDbMText
 10
9377.475257623826
 20
10498.73679736192
 30
0.0
 40
150.0
 41
0.0
 71
     5
 72
     1
  1
\A1;2270
  7
STYLE1
 11
0.0000000000000001
 21
1.0
 31
0.0
 73
     1
 44
1.0
  0
POINT
  5
1D292
330
1D20C
100
AcDbEntity
  8
DEFPOINTS
  6
ByBlock
 62
     0
 48
50.0
100
AcDbPoint
 10
7727.829581418181
 20
11633.73679736192
 30
0.0
  0
POINT
  5
1D293
330
1D20C
100
AcDbEntity
  8
DEFPOINTS
  6
ByBlock
 62
     0
 48
50.0
100
AcDbPoint
 10
7592.829581418175
 20
9363.736797361928
 30
0.0
  0
POINT
  5
1D294
330
1D20C
100
AcDbEntity
  8
DEFPOINTS
  6
ByBlock
 62
     0
 48
50.0
100
AcDbPoint
 10
9477.490021403353
 20
9363.736797361928
 30
0.0
  0
ENDBLK
  5
1D295
330
1D20C
100
AcDbEntity
  8
0
 48
50.0
100
AcDbBlockEnd
  0
BLOCK
  5
1D296
330
1D218
100
AcDbEntity
  8
0
 48
50.0
100
AcDbBlockBegin
  2
*D50
 70
     1
 10
0.0
 20
0.0
 30
0.0
  3
*D50
  1

  0
LINE
  5
1D297
330
1D218
100
AcDbEntity
  8
0
  6
ByBlock
 62
     0
 48
50.0
100
AcDbLine
 10
7617.829581418175
 20
11363.73679736192
 30
0.0
 11
9218.235356238894
 21
11363.73679736192
 31
0.0
  0
LINE
  5
1D298
330
1D218
100
AcDbEntity
  8
0
  6
ByBlock
 62
     0
 48
50.0
100
AcDbLine
 10
8836.033355093793
 20
9418.736797361928
 30
0.0
 11
9218.235356238894
 21
9418.736797361928
 31
0.0
  0
LINE
  5
1D299
330
1D218
100
AcDbEntity
  8
0
  6
ByBlock
 62
     0
 48
50.0
100
AcDbLine
 10
9143.235356238895
 20
11363.73679736192
 30
0.0
 11
9143.235356238895
 21
9418.736797361928
 31
0.0
  0
INSERT
  5
1D29A
330
1D218
100
AcDbEntity
  8
0
  6
ByBlock
 62
     0
 48
50.0
100
AcDbBlockReference
  2
_DOTSMALL
 10
9143.235356238895
 20
11363.73679736192
 30
0.0
 41
125.0
 42
125.0
 43
125.0
 50
90.0
  0
INSERT
  5
1D29B
330
1D218
100
AcDbEntity
  8
0
  6
ByBlock
 62
     0
 48
50.0
100
AcDbBlockReference
  2
_DOTSMALL
 10
9143.235356238895
 20
9418.736797361928
 30
0.0
 41
125.0
 42
125.0
 43
125.0
 50
270.0
  0
MTEXT
  5
1D29C
330
1D218
100
AcDbEntity
  8
0
  6
ByBlock
 62
     7
 48
50.0
100
AcDbMText
 10
9043.235356238893
 20
10391.23679736192
 30
0.0
 40
150.0
 41
0.0
 71
     5
 72
     1
  1
\A1;1945
  7
STYLE1
 11
0.0000000000000001
 21
1.0
 31
0.0
 73
     1
 44
1.0
  0
POINT
  5
1D29D
330
1D218
100
AcDbEntity
  8
DEFPOINTS
  6
ByBlock
 62
     0
 48
50.0
100
AcDbPoint
 10
7592.829581418175
 20
11363.73679736192
 30
0.0
  0
POINT
  5
1D29E
330
1D218
100
AcDbEntity
  8
DEFPOINTS
  6
ByBlock
 62
     0
 48
50.0
100
AcDbPoint
 10
8811.033355093792
 20
9418.736797361928
 30
0.0
  0
POINT
  5
1D29F
330
1D218
100
AcDbEntity
  8
DEFPOINTS
  6
ByBlock
 62
     0
 48
50.0
100
AcDbPoint
 10
9143.235356238895
 20
9418.736797361928
 30
0.0
  0
ENDBLK
  5
1D2A0
330
1D218
100
AcDbEntity
  8
0
 48
50.0
100
AcDbBlockEnd
  0
BLOCK
  5
1D2A1
330
1D224
100
AcDbEntity
  8
0
 48
50.0
100
AcDbBlockBegin
  2
*D51
 70
     1
 10
0.0
 20
0.0
 30
0.0
  3
*D51
  1

  0
LINE
  5
1D344
330
1D224
100
AcDbEntity
  8
寸法
 62
     0
 48
50.0
100
AcDbLine
 10
7617.829581418168
 20
11218.73679736192
 30
0.0
 11
8886.033355093791
 21
11218.73679736192
 31
0.0
  0
LINE
  5
1D345
330
1D224
100
AcDbEntity
  8
寸法
 62
     0
 48
50.0
100
AcDbLine
 10
8811.033355093792
 20
10148.73679736192
 30
0.0
 11
8811.033355093792
 21
11218.73679736192
 31
0.0
  0
INSERT
  5
1D346
330
1D224
100
AcDbEntity
  8
寸法
 62
     0
 48
50.0
100
AcDbBlockReference
  2
_DOTSMALL
 10
8811.033355093792
 20
10148.73679736192
 30
0.0
 41
125.0
 42
125.0
 43
125.0
 50
270.0
  0
INSERT
  5
1D347
330
1D224
100
AcDbEntity
  8
寸法
 62
     0
 48
50.0
100
AcDbBlockReference
  2
_DOTSMALL
 10
8811.033355093792
 20
11218.73679736192
 30
0.0
 41
125.0
 42
125.0
 43
125.0
 50
90.0
  0
MTEXT
  5
1D348
330
1D224
100
AcDbEntity
  8
寸法
 62
     7
 48
50.0
100
AcDbMText
 10
8711.033355093791
 20
10683.73679736192
 30
0.0
 40
150.0
 41
0.0
 71
     5
 72
     1
  1
\A1;1070
  7
STYLE1
 11
0.0000000000000001
 21
1.0
 31
0.0
 73
     1
 44
1.0
  0
POINT
  5
1D349
330
1D224
100
AcDbEntity
  8
DEFPOINTS
 62
     0
 48
50.0
100
AcDbPoint
 10
7592.829581418175
 20
10148.73679736192
 30
0.0
  0
POINT
  5
1D34A
330
1D224
100
AcDbEntity
  8
DEFPOINTS
 62
     0
 48
50.0
100
AcDbPoint
 10
7592.829581418168
 20
11218.73679736192
 30
0.0
  0
POINT
  5
1D34B
330
1D224
100
AcDbEntity
  8
DEFPOINTS
 62
     0
 48
50.0
100
AcDbPoint
 10
8811.033355093792
 20
11218.73679736192
 30
0.0
  0
ENDBLK
  5
1D2AA
330
1D224
100
AcDbEntity
  8
0
 48
50.0
100
AcDbBlockEnd
  0
BLOCK
  5
1D2AB
330
1D22F
100
AcDbEntity
  8
0
 48
50.0
100
AcDbBlockBegin
  2
*D52
 70
     1
 10
0.0
 20
0.0
 30
0.0
  3
*D52
  1

  0
LINE
  5
1D2AC
330
1D22F
100
AcDbEntity
  8
0
  6
ByBlock
 62
     0
 48
50.0
100
AcDbLine
 10
8836.033355093793
 20
9418.736797361928
 30
0.0
 11
9218.235356238894
 21
9418.736797361928
 31
0.0
  0
LINE
  5
1D2AD
330
1D22F
100
AcDbEntity
  8
0
  6
ByBlock
 62
     0
 48
50.0
100
AcDbLine
 10
7617.829581418175
 20
9363.736797361928
 30
0.0
 11
9218.235356238894
 21
9363.736797361928
 31
0.0
  0
LINE
  5
1D2AE
330
1D22F
100
AcDbEntity
  8
0
  6
ByBlock
 62
     0
 48
50.0
100
AcDbLine
 10
9143.235356238895
 20
9418.736797361928
 30
0.0
 11
9143.235356238895
 21
9363.736797361928
 31
0.0
  0
LINE
  5
1D2AF
330
1D22F
100
AcDbEntity
  8
0
  6
ByBlock
 62
     0
 48
50.0
100
AcDbLine
 10
9143.235356238895
 20
9363.736797361928
 30
0.0
 11
9143.235356238895
 21
8998.065646709887
 31
0.0
  0
INSERT
  5
1D2B0
330
1D22F
100
AcDbEntity
  8
0
  6
ByBlock
 62
     0
 48
50.0
100
AcDbBlockReference
  2
_DOTSMALL
 10
9143.235356238895
 20
9418.736797361928
 30
0.0
 41
125.0
 42
125.0
 43
125.0
 50
90.0
  0
INSERT
  5
1D2B1
330
1D22F
100
AcDbEntity
  8
0
  6
ByBlock
 62
     0
 48
50.0
100
AcDbBlockReference
  2
_DOTSMALL
 10
9143.235356238895
 20
9363.736797361928
 30
0.0
 41
125.0
 42
125.0
 43
125.0
 50
270.0
  0
MTEXT
  5
1D2B2
330
1D22F
100
AcDbEntity
  8
0
  6
ByBlock
 62
     7
 48
50.0
100
AcDbMText
 10
9043.235356238893
 20
9108.672248427685
 30
0.0
 40
150.0
 41
0.0
 71
     5
 72
     1
  1
\A1;55
  7
STYLE1
 11
0.0000000000000001
 21
1.0
 31
0.0
 73
     1
 44
1.0
  0
POINT
  5
1D2B3
330
1D22F
100
AcDbEntity
  8
DEFPOINTS
  6
ByBlock
 62
     0
 48
50.0
100
AcDbPoint
 10
8811.033355093792
 20
9418.736797361928
 30
0.0
  0
POINT
  5
1D2B4
330
1D22F
100
AcDbEntity
  8
DEFPOINTS
  6
ByBlock
 62
     0
 48
50.0
100
AcDbPoint
 10
7592.829581418175
 20
9363.736797361928
 30
0.0
  0
POINT
  5
1D2B5
330
1D22F
100
AcDbEntity
  8
DEFPOINTS
  6
ByBlock
 62
     0
 48
50.0
100
AcDbPoint
 10
9143.235356238895
 20
9363.736797361928
 30
0.0
  0
ENDBLK
  5
1D2B6
330
1D22F
100
AcDbEntity
  8
0
 48
50.0
100
AcDbBlockEnd
  0
BLOCK
  5
1D2B7
330
1D23C
100
AcDbEntity
  8
0
 48
50.0
100
AcDbBlockBegin
  2
*D53
 70
     1
 10
0.0
 20
0.0
 30
0.0
  3
*D53
  1

  0
LINE
  5
1D2B8
330
1D23C
100
AcDbEntity
  8
0
  6
ByBlock
 62
     0
 48
50.0
100
AcDbLine
 10
7617.829581418175
 20
9363.736797361928
 30
0.0
 11
8886.033355093791
 21
9363.736797361928
 31
0.0
  0
LINE
  5
1D2B9
330
1D23C
100
AcDbEntity
  8
0
  6
ByBlock
 62
     0
 48
50.0
100
AcDbLine
 10
7617.829581418175
 20
10148.73679736192
 30
0.0
 11
8886.033355093791
 21
10148.73679736192
 31
0.0
  0
LINE
  5
1D2BA
330
1D23C
100
AcDbEntity
  8
0
  6
ByBlock
 62
     0
 48
50.0
100
AcDbLine
 10
8811.033355093792
 20
9363.736797361928
 30
0.0
 11
8811.033355093792
 21
10148.73679736192
 31
0.0
  0
INSERT
  5
1D2BB
330
1D23C
100
AcDbEntity
  8
0
  6
ByBlock
 62
     0
 48
50.0
100
AcDbBlockReference
  2
_DOTSMALL
 10
8811.033355093792
 20
9363.736797361928
 30
0.0
 41
125.0
 42
125.0
 43
125.0
 50
270.0
  0
INSERT
  5
1D2BC
330
1D23C
100
AcDbEntity
  8
0
  6
ByBlock
 62
     0
 48
50.0
100
AcDbBlockReference
  2
_DOTSMALL
 10
8811.033355093792
 20
10148.73679736192
 30
0.0
 41
125.0
 42
125.0
 43
125.0
 50
90.0
  0
MTEXT
  5
1D2BD
330
1D23C
100
AcDbEntity
  8
0
  6
ByBlock
 62
     7
 48
50.0
100
AcDbMText
 10
8711.033355093793
 20
9756.236797361928
 30
0.0
 40
150.0
 41
0.0
 71
     5
 72
     1
  1
\A1;785
  7
STYLE1
 11
0.0000000000000001
 21
1.0
 31
0.0
 73
     1
 44
1.0
  0
POINT
  5
1D2BE
330
1D23C
100
AcDbEntity
  8
DEFPOINTS
  6
ByBlock
 62
     0
 48
50.0
100
AcDbPoint
 10
7592.829581418175
 20
9363.736797361928
 30
0.0
  0
POINT
  5
1D2BF
330
1D23C
100
AcDbEntity
  8
DEFPOINTS
  6
ByBlock
 62
     0
 48
50.0
100
AcDbPoint
 10
7592.829581418175
 20
10148.73679736192
 30
0.0
  0
POINT
  5
1D2C0
330
1D23C
100
AcDbEntity
  8
DEFPOINTS
  6
ByBlock
 62
     0
 48
50.0
100
AcDbPoint
 10
8811.033355093792
 20
10148.73679736192
 30
0.0
  0
ENDBLK
  5
1D2C1
330
1D23C
100
AcDbEntity
  8
0
 48
50.0
100
AcDbBlockEnd
  0
ENDSEC
  0
SECTION
  2
ENTITIES
  0
LINE
  5
10B56
330
747D
100
AcDbEntity
  8
補助
  6
PHANTOM
 62
   230
 48
50.0
100
AcDbLine
 10
175.0
 20
0.0
 30
0.0
 11
174.9999999999993
 21
14262.0
 31
0.0
  0
LINE
  5
10B57
330
747D
100
AcDbEntity
  8
補助
  6
PHANTOM
 62
   230
 48
50.0
100
AcDbLine
 10
174.9999999999993
 20
14262.0
 30
0.0
 11
20384.0
 21
14262.0
 31
0.0
  0
LINE
  5
10B59
330
747D
100
AcDbEntity
  8
仕様書枠
  6
Continuous
 48
50.0
100
AcDbLine
 10
16384.0
 20
1500.0
 30
0.0
 11
16384.0
 21
0.0
 31
0.0
  0
LINE
  5
10B5C
330
747D
100
AcDbEntity
  8
仕様書枠
 48
50.0
100
AcDbLine
 10
20384.0
 20
1500.0
 30
0.0
 11
20384.0
 21
0.0
 31
0.0
  0
LINE
  5
10B5D
330
747D
100
AcDbEntity
  8
仕様書枠
 48
50.0
100
AcDbLine
 10
175.0
 20
0.0
 30
0.0
 11
20384.0
 21
-0.0000000000001137
 31
0.0
  0
LINE
  5
10B5E
330
747D
100
AcDbEntity
  8
補助
  6
PHANTOM
 62
   230
 48
50.0
100
AcDbLine
 10
20384.0
 20
14262.0
 30
0.0
 11
20384.0
 21
1500.0
 31
0.0
  0
LINE
  5
10B6C
330
747D
100
AcDbEntity
  8
仕様書枠
 48
50.0
100
AcDbLine
 10
16384.0
 20
1500.0
 30
0.0
 11
20384.0
 21
1500.0
 31
0.0
  0
LINE
  5
10B6D
330
747D
100
AcDbEntity
  8
補助
  6
PHANTOM
 62
   230
 48
50.0
100
AcDbLine
 10
16384.0
 20
14262.0
 30
0.0
 11
16384.0
 21
6000.0
 31
0.0
  0
LINE
  5
10B6F
330
747D
100
AcDbEntity
  8
補助
  6
PHANTOM
 62
   230
 48
50.0
100
AcDbLine
 10
16384.0
 20
6000.0
 30
0.0
 11
20384.0
 21
6000.0
 31
0.0
  0
LINE
  5
10B72
330
747D
100
AcDbEntity
  8
文字
 62
     7
 48
50.0
100
AcDbLine
 10
16484.0
 20
500.0
 30
0.0
 11
20284.0
 21
500.0
 31
0.0
  0
TEXT
  5
10B73
330
747D
100
AcDbEntity
  8
文字
 62
     7
 48
50.0
100
AcDbText
 10
16453.72382072112
 20
1118.863259287425
 30
0.0
 40
250.0
  1
外 形 図
  7
STYLE2
100
AcDbText
  0
TEXT
  5
10B74
330
747D
100
AcDbEntity
  8
文字
 62
     7
 48
50.0
100
AcDbText
 10
16501.79587498051
 20
596.5925826289068
 30
0.0
 40
200.0
  1
機種名
  7
STYLE2
100
AcDbText
  0
LINE
  5
10B7B
330
747D
100
AcDbEntity
  8
仕様書枠
 48
50.0
100
AcDbLine
 10
16384.0
 20
1000.0
 30
0.0
 11
17814.0
 21
1000.0
 31
0.0
  0
LINE
  5
10B88
330
747D
100
AcDbEntity
  8
仕様書枠
  6
Continuous
 48
50.0
100
AcDbLine
 10
17814.0
 20
1500.0
 30
0.0
 11
17814.0
 21
1000.0
 31
0.0
  0
LINE
  5
15D7D
330
747D
100
AcDbEntity
  8
Ｇ．Ｌ
 48
50.0
100
AcDbLine
 10
4234.693732604354
 20
3140.0
 30
0.0
 11
15814.30626739564
 21
3140.0
 31
0.0
  0
TEXT
  5
16C68
330
747D
100
AcDbEntity
  8
仕様書枠
 62
     7
 48
50.0
100
AcDbText
 10
4243.500522708389
 20
3170.736447636176
 30
0.0
 40
125.0
  1
▽G.L
  7
STYLE2
100
AcDbText
  0
TEXT
  5
16C77
330
747D
100
AcDbEntity
  8
部品1
100
AcDbText
 10
12806.34048680395
 20
7389.467651847542
 30
0.0
 40
225.0
  1
平面図
  7
STYLE2
100
AcDbText
  0
TEXT
  5
16C79
330
747D
100
AcDbEntity
  8
部品1
100
AcDbText
 10
12808.51132171062
 20
2219.281077457108
 30
0.0
 40
225.0
  1
正面図
  7
STYLE2
100
AcDbText
  0
LINE
  5
17269
330
747D
100
AcDbEntity
  8
部品1
100
AcDbLine
 10
12666.6040262278
 20
7709.831477053234
 30
0.0
 11
12666.6040262278
 21
7310.010941144013
 31
0.0
  0
LINE
  5
1726A
330
747D
100
AcDbEntity
  8
部品1
100
AcDbLine
 10
12666.6040262278
 20
7310.010941144013
 30
0.0
 11
13939.05513660853
 21
7310.010941144013
 31
0.0
  0
LINE
  5
1726B
330
747D
100
AcDbEntity
  8
部品1
100
AcDbLine
 10
13939.05513660853
 20
7310.010941144013
 30
0.0
 11
13939.05513660853
 21
7709.831477053234
 31
0.0
  0
LINE
  5
1726C
330
747D
100
AcDbEntity
  8
部品1
100
AcDbLine
 10
13939.05513660853
 20
7709.831477053234
 30
0.0
 11
12666.6040262278
 21
7709.831477053234
 31
0.0
  0
LINE
  5
1726E
330
747D
100
AcDbEntity
  8
部品1
100
AcDbLine
 10
12666.6040262278
 20
2526.882077830512
 30
0.0
 11
12666.6040262278
 21
2127.061541921292
 31
0.0
  0
LINE
  5
1726F
330
747D
100
AcDbEntity
  8
部品1
100
AcDbLine
 10
12666.6040262278
 20
2127.061541921292
 30
0.0
 11
13939.05513660853
 21
2127.061541921292
 31
0.0
  0
LINE
  5
17270
330
747D
100
AcDbEntity
  8
部品1
100
AcDbLine
 10
13939.05513660853
 20
2127.061541921292
 30
0.0
 11
13939.05513660853
 21
2526.882077830512
 31
0.0
  0
LINE
  5
17271
330
747D
100
AcDbEntity
  8
部品1
100
AcDbLine
 10
13939.05513660853
 20
2526.882077830512
 30
0.0
 11
12666.6040262278
 21
2526.882077830512
 31
0.0
  0
LINE
  5
1837B
330
747D
100
AcDbEntity
  8
部品1
 48
50.0
100
AcDbLine
 10
12072.82958141816
 20
11098.73679736192
 30
0.0
 11
12072.82958141816
 21
11038.73679736192
 31
0.0
  0
LINE
  5
1837C
330
747D
100
AcDbEntity
  8
部品1
 48
50.0
100
AcDbLine
 10
12082.82958141817
 20
9228.736797361928
 30
0.0
 11
12142.82958141817
 21
9228.736797361909
 31
0.0
  0
LINE
  5
1837D
330
747D
100
AcDbEntity
  8
部品1
 48
50.0
100
AcDbLine
 10
14532.82958141817
 20
9238.736797361928
 30
0.0
 11
14532.82958141817
 21
11098.73679736192
 31
0.0
  0
LINE
  5
1837E
330
747D
100
AcDbEntity
  8
部品1
 48
50.0
100
AcDbLine
 10
14522.82958141817
 20
11108.73679736192
 30
0.0
 11
12082.82958141817
 21
11108.73679736192
 31
0.0
  0
ARC
  5
1837F
330
747D
100
AcDbEntity
  8
部品1
 48
50.0
100
AcDbCircle
 10
14522.82958141817
 20
11098.73679736192
 30
0.0
 40
10.0
100
AcDbArc
 50
0.0
 51
90.0
  0
ARC
  5
18380
330
747D
100
AcDbEntity
  8
部品1
 48
50.0
100
AcDbCircle
 10
14522.82958141817
 20
9238.736797361928
 30
0.0
 40
10.0
100
AcDbArc
 50
270.0
 51
0.0
  0
ARC
  5
18381
330
747D
100
AcDbEntity
  8
部品1
 48
50.0
100
AcDbCircle
 10
12082.82958141817
 20
9238.736797361928
 30
0.0
 40
10.0
100
AcDbArc
 50
180.0
 51
270.0
  0
ARC
  5
18382
330
747D
100
AcDbEntity
  8
部品1
 48
50.0
100
AcDbCircle
 10
12082.82958141817
 20
11098.73679736192
 30
0.0
 40
10.0
100
AcDbArc
 50
90.0
 51
180.0
  0
LINE
  5
18383
330
747D
100
AcDbEntity
  8
部品1
 48
50.0
100
AcDbLine
 10
14482.82958141817
 20
11058.73679736192
 30
0.0
 11
12122.82958141817
 21
11058.73679736193
 31
0.0
  0
LINE
  5
18384
330
747D
100
AcDbEntity
  8
部品1
 48
50.0
100
AcDbLine
 10
12122.82958141817
 20
11058.73679736192
 30
0.0
 11
12122.82958141817
 21
11020.73679736192
 31
0.0
  0
LINE
  5
18385
330
747D
100
AcDbEntity
  8
部品1
 48
50.0
100
AcDbLine
 10
12122.82958141816
 20
9278.736797361927
 30
0.0
 11
12160.82958141816
 21
9278.736797361927
 31
0.0
  0
LINE
  5
18386
330
747D
100
AcDbEntity
  8
部品1
 48
50.0
100
AcDbLine
 10
14482.82958141817
 20
9278.736797361927
 30
0.0
 11
14482.82958141817
 21
11058.73679736193
 31
0.0
  0
LINE
  5
18387
330
747D
100
AcDbEntity
  8
部品1
 48
50.0
100
AcDbLine
 10
14497.82958141817
 20
11073.73679736193
 30
0.0
 11
12107.82958141817
 21
11073.73679736192
 31
0.0
  0
LINE
  5
18388
330
747D
100
AcDbEntity
  8
部品1
 48
50.0
100
AcDbLine
 10
12107.82958141817
 20
9263.736797361927
 30
0.0
 11
12160.82958141816
 21
9263.736797361927
 31
0.0
  0
LINE
  5
18389
330
747D
100
AcDbEntity
  8
部品1
 48
50.0
100
AcDbLine
 10
12107.82958141817
 20
11073.73679736192
 30
0.0
 11
12107.82958141817
 21
11020.73679736192
 31
0.0
  0
LINE
  5
1838A
330
747D
100
AcDbEntity
  8
部品1
 48
50.0
100
AcDbLine
 10
14497.82958141817
 20
9263.736797361927
 30
0.0
 11
14497.82958141817
 21
11073.73679736193
 31
0.0
  0
LINE
  5
1838B
330
747D
100
AcDbEntity
  8
部品1
 48
50.0
100
AcDbLine
 10
14462.82958141817
 20
11073.73679736193
 30
0.0
 11
14462.82958141817
 21
11108.73679736193
 31
0.0
  0
LINE
  5
1838C
330
747D
100
AcDbEntity
  8
部品1
 48
50.0
100
AcDbLine
 10
14532.82958141817
 20
11038.73679736193
 30
0.0
 11
14497.82958141817
 21
11038.73679736192
 31
0.0
  0
LINE
  5
1838D
330
747D
100
AcDbEntity
  8
部品1
 48
50.0
100
AcDbLine
 10
14444.82958141817
 20
11073.73679736193
 30
0.0
 11
14444.82958141817
 21
11058.73679736192
 31
0.0
  0
LINE
  5
1838E
330
747D
100
AcDbEntity
  8
部品1
 48
50.0
100
AcDbLine
 10
14480.82958141817
 20
11073.73679736193
 30
0.0
 11
14480.82958141817
 21
11058.73679736192
 31
0.0
  0
LINE
  5
1838F
330
747D
100
AcDbEntity
  8
部品1
 48
50.0
100
AcDbLine
 10
14497.82958141817
 20
11020.73679736192
 30
0.0
 11
14482.82958141817
 21
11020.73679736192
 31
0.0
  0
LINE
  5
18390
330
747D
100
AcDbEntity
  8
部品1
 48
50.0
100
AcDbLine
 10
14497.82958141817
 20
11056.73679736192
 30
0.0
 11
14482.82958141817
 21
11056.73679736192
 31
0.0
  0
LINE
  5
18397
330
747D
100
AcDbEntity
  8
部品1
 48
50.0
100
AcDbLine
 10
14532.82958141817
 20
10458.73679736193
 30
0.0
 11
14497.82958141817
 21
10458.73679736192
 31
0.0
  0
LINE
  5
18398
330
747D
100
AcDbEntity
  8
部品1
 48
50.0
100
AcDbLine
 10
14497.82958141817
 20
10440.73679736192
 30
0.0
 11
14482.82958141817
 21
10440.73679736192
 31
0.0
  0
LINE
  5
18399
330
747D
100
AcDbEntity
  8
部品1
 48
50.0
100
AcDbLine
 10
14497.82958141817
 20
10476.73679736192
 30
0.0
 11
14482.82958141817
 21
10476.73679736192
 31
0.0
  0
LINE
  5
1839D
330
747D
100
AcDbEntity
  8
部品1
 48
50.0
100
AcDbLine
 10
14497.82958141817
 20
9316.736797361926
 30
0.0
 11
14482.82958141817
 21
9316.736797361926
 31
0.0
  0
LINE
  5
1839E
330
747D
100
AcDbEntity
  8
部品1
 48
50.0
100
AcDbLine
 10
14497.82958141817
 20
9280.736797361926
 30
0.0
 11
14482.82958141817
 21
9280.736797361926
 31
0.0
  0
LINE
  5
1839F
330
747D
100
AcDbEntity
  8
部品1
 48
50.0
100
AcDbLine
 10
14532.82958141817
 20
9298.736797361931
 30
0.0
 11
14497.82958141817
 21
9298.736797361931
 31
0.0
  0
LINE
  5
183AF
330
747D
100
AcDbEntity
  8
部品1
 48
50.0
100
AcDbLine
 10
13900.82958141816
 20
11073.73679736223
 30
0.0
 11
13900.82958141816
 21
11058.73679736222
 31
0.0
  0
LINE
  5
183B0
330
747D
100
AcDbEntity
  8
部品1
 48
50.0
100
AcDbLine
 10
13882.82958141816
 20
11073.73679736223
 30
0.0
 11
13882.82958141817
 21
11108.73679736223
 31
0.0
  0
LINE
  5
183B1
330
747D
100
AcDbEntity
  8
部品1
 48
50.0
100
AcDbLine
 10
13864.82958141816
 20
11073.73679736223
 30
0.0
 11
13864.82958141816
 21
11058.73679736222
 31
0.0
  0
LINE
  5
183B2
330
747D
100
AcDbEntity
  8
部品1
 48
50.0
100
AcDbLine
 10
13320.82958141816
 20
11073.73679736229
 30
0.0
 11
13320.82958141816
 21
11058.73679736229
 31
0.0
  0
LINE
  5
183B3
330
747D
100
AcDbEntity
  8
部品1
 48
50.0
100
AcDbLine
 10
13302.82958141816
 20
11073.73679736229
 30
0.0
 11
13302.82958141817
 21
11108.73679736229
 31
0.0
  0
LINE
  5
183B4
330
747D
100
AcDbEntity
  8
部品1
 48
50.0
100
AcDbLine
 10
13284.82958141816
 20
11073.73679736229
 30
0.0
 11
13284.82958141816
 21
11058.73679736229
 31
0.0
  0
LINE
  5
183B5
330
747D
100
AcDbEntity
  8
部品1
 48
50.0
100
AcDbLine
 10
12160.82958141816
 20
11073.73679736192
 30
0.0
 11
12160.82958141816
 21
11058.73679736192
 31
0.0
  0
LINE
  5
183B6
330
747D
100
AcDbEntity
  8
部品1
 48
50.0
100
AcDbLine
 10
12142.82958141816
 20
11073.73679736192
 30
0.0
 11
12142.82958141817
 21
11108.73679736192
 31
0.0
  0
LINE
  5
183B7
330
747D
100
AcDbEntity
  8
部品1
 48
50.0
100
AcDbLine
 10
12124.82958141816
 20
11073.73679736192
 30
0.0
 11
12124.82958141816
 21
11058.73679736192
 31
0.0
  0
LINE
  5
183D1
330
747D
100
AcDbEntity
  8
部品1
 48
50.0
100
AcDbLine
 10
12107.82958141817
 20
10266.73679736192
 30
0.0
 11
12122.82958141817
 21
10266.73679736192
 31
0.0
  0
LINE
  5
183D2
330
747D
100
AcDbEntity
  8
部品1
 48
50.0
100
AcDbLine
 10
12107.82958141817
 20
10230.73679736192
 30
0.0
 11
12122.82958141817
 21
10230.73679736192
 31
0.0
  0
LINE
  5
183D3
330
747D
100
AcDbEntity
  8
部品1
 48
50.0
100
AcDbLine
 10
12072.82958141817
 20
10248.73679736193
 30
0.0
 11
12107.82958141817
 21
10248.73679736193
 31
0.0
  0
LINE
  5
183DD
330
747D
100
AcDbEntity
  8
部品1
 48
50.0
100
AcDbLine
 10
12107.82958141817
 20
11056.73679736192
 30
0.0
 11
12122.82958141817
 21
11056.73679736192
 31
0.0
  0
LINE
  5
183DE
330
747D
100
AcDbEntity
  8
部品1
 48
50.0
100
AcDbLine
 10
12107.82958141817
 20
11020.73679736192
 30
0.0
 11
12122.82958141817
 21
11020.73679736192
 31
0.0
  0
LINE
  5
183DF
330
747D
100
AcDbEntity
  8
部品1
 48
50.0
100
AcDbLine
 10
12072.82958141816
 20
11038.73679736193
 30
0.0
 11
12107.82958141817
 21
11038.73679736192
 31
0.0
  0
LINE
  5
183E0
330
747D
100
AcDbEntity
  8
部品1
 48
50.0
100
AcDbLine
 10
12072.82958141817
 20
9298.736797361931
 30
0.0
 11
12107.82958141817
 21
9298.736797361931
 31
0.0
  0
LINE
  5
183E1
330
747D
100
AcDbEntity
  8
部品1
 48
50.0
100
AcDbLine
 10
12107.82958141817
 20
9280.736797361926
 30
0.0
 11
12122.82958141817
 21
9280.736797361926
 31
0.0
  0
LINE
  5
183E2
330
747D
100
AcDbEntity
  8
部品1
 48
50.0
100
AcDbLine
 10
12107.82958141817
 20
9316.736797361926
 30
0.0
 11
12122.82958141817
 21
9316.736797361926
 31
0.0
  0
LINE
  5
183E3
330
747D
100
AcDbEntity
  8
部品1
 48
50.0
100
AcDbLine
 10
12124.82958141816
 20
9263.736797361932
 30
0.0
 11
12124.82958141816
 21
9278.736797361931
 31
0.0
  0
LINE
  5
183E4
330
747D
100
AcDbEntity
  8
部品1
 48
50.0
100
AcDbLine
 10
12160.82958141816
 20
9263.736797361932
 30
0.0
 11
12160.82958141816
 21
9278.736797361931
 31
0.0
  0
LINE
  5
183E5
330
747D
100
AcDbEntity
  8
部品1
 48
50.0
100
AcDbLine
 10
12142.82958141816
 20
9263.736797361932
 30
0.0
 11
12142.82958141817
 21
9228.73679736193
 31
0.0
  0
LINE
  5
183FE
330
747D
100
AcDbEntity
  8
部品1
 48
50.0
100
AcDbLine
 10
14462.82958141817
 20
9263.736797361929
 30
0.0
 11
14462.82958141817
 21
9228.736797361928
 31
0.0
  0
LINE
  5
183FF
330
747D
100
AcDbEntity
  8
部品1
 48
50.0
100
AcDbLine
 10
14444.82958141817
 20
9263.736797361929
 30
0.0
 11
14444.82958141817
 21
9278.736797361929
 31
0.0
  0
LINE
  5
18400
330
747D
100
AcDbEntity
  8
部品1
 48
50.0
100
AcDbLine
 10
14480.82958141817
 20
9263.736797361929
 30
0.0
 11
14480.82958141817
 21
9278.736797361929
 31
0.0
  0
LINE
  5
18401
330
747D
100
AcDbEntity
  8
細線
 48
50.0
100
AcDbLine
 10
14473.82958141817
 20
11049.73679736192
 30
0.0
 11
14473.82958141817
 21
9278.736797361931
 31
0.0
  0
LINE
  5
18402
330
747D
100
AcDbEntity
  8
細線
 48
50.0
100
AcDbLine
 10
14482.82958141817
 20
11049.73679736193
 30
0.0
 11
12131.82958141817
 21
11049.73679736193
 31
0.0
  0
LINE
  5
18403
330
747D
100
AcDbEntity
  8
細線
 48
50.0
100
AcDbLine
 10
12122.82958141816
 20
9287.736797361928
 30
0.0
 11
12142.82958141817
 21
9287.736797361928
 31
0.0
  0
LINE
  5
18404
330
747D
100
AcDbEntity
  8
細線
 48
50.0
100
AcDbLine
 10
12131.82958141816
 20
10230.73679736192
 30
0.0
 11
12131.82958141816
 21
9287.736797361928
 31
0.0
  0
DIMENSION
  5
1852A
330
747D
100
AcDbEntity
  8
寸法
 48
50.0
100
AcDbDimension
  2
*D5
 10
15646.96933771975
 20
11058.73679736193
 30
0.0
 11
15546.96933771975
 21
10168.73679736193
 31
0.0
 70
    32
  1
内部寸法 <>
 71
     5
 42
-1.0
  3
INABA_S50G
100
AcDbAlignedDimension
 13
15344.16533380114
 23
9278.736797361931
 33
0.0
 14
15344.16533380114
 24
11058.73679736193
 34
0.0
 50
90.0
100
AcDbRotatedDimension
1001
ACAD
1000
DSTYLE
1002
{
1002
}
  0
DIMENSION
  5
1852B
330
747D
100
AcDbEntity
  8
寸法
 48
50.0
100
AcDbDimension
  2
*D2
 10
15344.16533380114
 20
11038.73679736192
 30
0.0
 11
15244.16533380114
 21
10168.73679736193
 31
0.0
 70
    32
  1
3x580=<>
 71
     5
 42
-1.0
  3
INABA_S50G
100
AcDbAlignedDimension
 13
14532.82958141817
 23
9298.736797361931
 33
0.0
 14
14532.82958141817
 24
11038.73679736193
 34
0.0
 50
90.0
100
AcDbRotatedDimension
1001
ACAD
1000
DSTYLE
1002
{
1002
}
  0
DIMENSION
  5
1852C
330
747D
100
AcDbEntity
  8
寸法
 48
50.0
100
AcDbDimension
  2
*D4
 10
15646.96933771975
 20
9278.736797361931
 30
0.0
 11
15646.96933771975
 21
8991.689553267439
 31
0.0
 12
6069.999999999998
 22
-0.0000000000436557
 32
0.0
 70
   160
 71
     5
 42
-1.0
  3
INABA_S50G
100
AcDbAlignedDimension
 13
14522.82958141817
 23
9228.736797361928
 33
0.0
 14
15344.16533380114
 24
9278.736797361931
 34
0.0
 50
90.0
100
AcDbRotatedDimension
  0
DIMENSION
  5
1852D
330
747D
100
AcDbEntity
  8
寸法
 48
50.0
100
AcDbDimension
  2
*D1
 10
15344.16533380114
 20
9298.736797361931
 30
0.0
 11
15344.16533380114
 21
8996.177742243817
 31
0.0
 12
-2174.632845073174
 22
-373.9447183321972
 32
0.0
 70
   160
 71
     5
 42
-1.0
  3
INABA_S50G
100
AcDbAlignedDimension
 13
14522.82958141817
 23
9228.736797361928
 33
0.0
 14
14532.82958141817
 24
9298.736797361931
 34
0.0
 50
90.0
100
AcDbRotatedDimension
  0
DIMENSION
  5
1852E
330
747D
100
AcDbEntity
  8
寸法
 48
50.0
100
AcDbDimension
  2
*D6
 10
15646.96933771975
 20
11108.73679736192
 30
0.0
 11
15646.96933771975
 21
11466.29585248003
 31
0.0
 12
6069.999999999998
 22
-1160.000000000043
 32
0.0
 70
   160
 71
     5
 42
-1.0
  3
INABA_S50G
100
AcDbAlignedDimension
 13
15344.16533380114
 23
11058.73679736193
 33
0.0
 14
14522.82958141817
 24
11108.73679736192
 34
0.0
 50
90.0
100
AcDbRotatedDimension
1001
ACAD
1000
DSTYLE
1002
{
1002
}
  0
DIMENSION
  5
1852F
330
747D
100
AcDbEntity
  8
寸法
 48
50.0
100
AcDbDimension
  2
*D3
 10
15344.16533380114
 20
11108.73679736192
 30
0.0
 11
15344.16533380114
 21
11341.29585248004
 31
0.0
 12
-2174.632845073174
 22
-1533.944718332197
 32
0.0
 70
   160
 71
     5
 42
-1.0
  3
INABA_S50G
100
AcDbAlignedDimension
 13
14532.82958141817
 23
11038.73679736193
 33
0.0
 14
14522.82958141817
 24
11108.73679736192
 34
0.0
 50
90.0
100
AcDbRotatedDimension
1001
ACAD
1000
DSTYLE
1002
{
1002
}
  0
DIMENSION
  5
185AD
330
747D
100
AcDbEntity
  8
寸法
 48
50.0
100
AcDbDimension
  2
*D10
 10
12122.82958141816
 20
11817.51516613334
 30
0.0
 11
11715.27052630005
 21
11817.51516613334
 31
0.0
 12
285.3671549268256
 22
-1533.944718332197
 32
0.0
 70
   160
 71
     5
 42
-1.0
  3
INABA_S50G
100
AcDbAlignedDimension
 13
12072.82958141816
 23
11098.73679736192
 33
0.0
 14
12122.82958141816
 24
11518.76878223258
 34
0.0
100
AcDbRotatedDimension
  0
DIMENSION
  5
185AE
330
747D
100
AcDbEntity
  8
寸法
 48
50.0
100
AcDbDimension
  2
*D7
 10
12142.82958141817
 20
11518.76878223258
 30
0.0
 11
11830.27052630005
 21
11518.76878223258
 31
0.0
 12
285.3671549268256
 22
-1533.944718332197
 32
0.0
 70
   160
 71
     5
 42
-1.0
  3
INABA_S50G
100
AcDbAlignedDimension
 13
12072.82958141816
 23
11098.73679736192
 33
0.0
 14
12142.82958141817
 24
11108.73679736192
 34
0.0
100
AcDbRotatedDimension
  0
DIMENSION
  5
185AF
330
747D
100
AcDbEntity
  8
寸法
 48
50.0
100
AcDbDimension
  2
*D11
 10
14482.82958141817
 20
11817.51516613334
 30
0.0
 11
13302.82958141817
 21
11917.52992991286
 31
0.0
 70
    32
  1
内部寸法 <>
 71
     5
 42
-1.0
  3
INABA_S50G
100
AcDbAlignedDimension
 13
12122.82958141816
 23
11518.76878223258
 33
0.0
 14
14482.82958141817
 24
11518.76878223258
 34
0.0
100
AcDbRotatedDimension
1001
ACAD
1000
DSTYLE
1002
{
1070
   287
1070
     4
1070
    75
1070
     1
1070
   279
1070
     1
1002
}
  0
DIMENSION
  5
185B1
330
747D
100
AcDbEntity
  8
寸法
 48
50.0
100
AcDbDimension
  2
*D8
 10
14462.82958141817
 20
11518.76878223258
 30
0.0
 11
13302.82958141817
 21
11618.7835460121
 31
0.0
 70
    32
  1
4x580=<>
 71
     5
 42
-1.0
  3
INABA_S50G
100
AcDbAlignedDimension
 13
12142.82958141817
 23
11108.73679736192
 33
0.0
 14
14462.82958141817
 24
11108.73679736193
 34
0.0
100
AcDbRotatedDimension
1001
ACAD
1000
DSTYLE
1002
{
1070
   287
1070
     4
1070
    75
1070
     1
1070
   279
1070
     1
1002
}
  0
DIMENSION
  5
185B3
330
747D
100
AcDbEntity
  8
寸法
 48
50.0
100
AcDbDimension
  2
*D12
 10
14532.82958141817
 20
11817.51516613334
 30
0.0
 11
14890.38863653628
 21
11817.51516613334
 31
0.0
 12
-2174.632845073174
 22
-1533.944718332197
 32
0.0
 70
   160
 71
     5
 42
-1.0
  3
INABA_S50G
100
AcDbAlignedDimension
 13
14482.82958141817
 23
11518.76878223258
 33
0.0
 14
14532.82958141817
 24
11098.73679736192
 34
0.0
100
AcDbRotatedDimension
1001
ACAD
1000
DSTYLE
1002
{
1002
}
  0
DIMENSION
  5
185B4
330
747D
100
AcDbEntity
  8
寸法
 48
50.0
100
AcDbDimension
  2
*D9
 10
14532.82958141817
 20
11518.76878223258
 30
0.0
 11
14795.38863653628
 21
11518.76878223258
 31
0.0
 12
-2174.632845073174
 22
-1533.944718332197
 32
0.0
 70
   160
 71
     5
 42
-1.0
  3
INABA_S50G
100
AcDbAlignedDimension
 13
14462.82958141817
 23
11108.73679736193
 33
0.0
 14
14532.82958141817
 24
11098.73679736192
 34
0.0
100
AcDbRotatedDimension
1001
ACAD
1000
DSTYLE
1002
{
1002
}
  0
DIMENSION
  5
1868C
330
747D
100
AcDbEntity
  8
寸法
 48
50.0
100
AcDbDimension
  2
*D13
 10
14532.82958141817
 20
8436.498920305798
 30
0.0
 11
13302.82958141817
 21
8536.513684085326
 31
0.0
 12
290.0
 22
0.0
 32
0.0
 70
    32
 71
     5
 42
-1.0
  3
INABA_S50G
100
AcDbAlignedDimension
 13
12072.82958141816
 23
9238.736797361928
 33
0.0
 14
14532.82958141817
 24
9238.736797361928
 34
0.0
100
AcDbRotatedDimension
  0
DIMENSION
  5
186AF
330
747D
100
AcDbEntity
  8
寸法
 48
50.0
100
AcDbDimension
  2
*D14
 10
11306.1986016385
 20
9228.736797361928
 30
0.0
 11
11206.1986016385
 21
10168.73679736193
 31
0.0
 70
    32
 71
     5
 42
-1.0
  3
INABA_S50G
100
AcDbAlignedDimension
 13
12082.82958141817
 23
11108.73679736192
 33
0.0
 14
12082.82958141817
 24
9228.736797361928
 34
0.0
 50
90.0
100
AcDbRotatedDimension
  0
LINE
  5
186ED
330
747D
100
AcDbEntity
  8
部品1
 48
50.0
100
AcDbLine
 10
14462.82958141816
 20
9228.736797361928
 30
0.0
 11
14522.82958141817
 21
9228.73679736193
 31
0.0
  0
LINE
  5
186EE
330
747D
100
AcDbEntity
  8
部品1
 48
50.0
100
AcDbLine
 10
14444.82958141816
 20
9263.736797361927
 30
0.0
 11
14497.82958141817
 21
9263.736797361929
 31
0.0
  0
LINE
  5
186EF
330
747D
100
AcDbEntity
  8
部品1
 48
50.0
100
AcDbLine
 10
14444.82958141816
 20
9278.736797361927
 30
0.0
 11
14482.82958141817
 21
9278.736797361927
 31
0.0
  0
LINE
  5
186FE
330
747D
100
AcDbEntity
  8
細線
 48
50.0
100
AcDbLine
 10
14462.82958141817
 20
9287.736797361928
 30
0.0
 11
14473.82958141817
 21
9287.736797361928
 31
0.0
  0
TEXT
  5
1A95B
330
747D
100
AcDbEntity
  8
文字
 62
     7
 48
50.0
100
AcDbText
 10
17902.30092041603
 20
604.8708912389265
 30
0.0
 40
200.0
  1
ＳＭＫ－４７ＳＧＭ
  7
STYLE2
100
AcDbText
  0
TEXT
  5
1A95C
330
747D
100
AcDbEntity
  8
文字
 62
     7
 48
50.0
100
AcDbText
 10
18386.04187925632
 20
1047.815908841148
 30
0.0
 40
125.0
  1
～一般型･多雪地型～
  7
STYLE2
100
AcDbText
  0
TEXT
  5
1A95D
330
747D
100
AcDbEntity
  8
文字
 62
     7
 48
50.0
100
AcDbText
 10
18155.16479652749
 20
1289.447132864035
 30
0.0
 40
125.0
  1
NO.21     <縮尺> S=1/50
  7
STYLE2
100
AcDbText
  0
TEXT
  5
1A95E
330
747D
100
AcDbEntity
  8
文字
 62
     7
 48
50.0
100
AcDbText
 10
16511.7566802715
 20
270.5931259273529
 30
0.0
 40
100.0
  1
○ドア部有効開口寸法：677×1760 (mm)
  7
STYLE2
100
AcDbText
  0
TEXT
  5
1A95F
330
747D
100
AcDbEntity
  8
文字
 62
     7
 48
50.0
100
AcDbText
 10
16511.7566802715
 20
99.75789836616968
 30
0.0
 40
100.0
  1
○床面積：4.62㎡(1.40坪)
  7
STYLE2
100
AcDbText
  0
LINE
  5
1BF3F
330
747D
100
AcDbEntity
  8
部品1
100
AcDbLine
 10
6016.604026227807
 20
2526.882077830556
 30
0.0
 11
7289.05513660854
 21
2526.882077830556
 31
0.0
  0
LINE
  5
1BF40
330
747D
100
AcDbEntity
  8
部品1
100
AcDbLine
 10
7289.05513660854
 20
2127.061541921335
 30
0.0
 11
6016.604026227807
 21
2127.061541921335
 31
0.0
  0
LINE
  5
1BF42
330
747D
100
AcDbEntity
  8
部品1
100
AcDbLine
 10
7289.05513660854
 20
2526.882077830556
 30
0.0
 11
7289.05513660854
 21
2127.061541921335
 31
0.0
  0
LINE
  5
1BF43
330
747D
100
AcDbEntity
  8
部品1
100
AcDbLine
 10
6016.604026227807
 20
2127.061541921335
 30
0.0
 11
6016.604026227807
 21
2526.882077830556
 31
0.0
  0
TEXT
  5
1C108
330
747D
100
AcDbEntity
  8
部品1
100
AcDbText
 10
6167.509004231156
 20
2218.177912835024
 30
0.0
 40
225.0
  1
側面図
  7
STYLE2
100
AcDbText
  0
LINE
  5
1C12E
330
747D
100
AcDbEntity
  8
部品1
 48
50.0
100
AcDbLine
 10
12072.82958141816
 20
10248.73679736193
 30
0.0
 11
12072.82958141816
 21
9238.736797361928
 31
0.0
  0
LINE
  5
1C12F
330
747D
100
AcDbEntity
  8
部品1
 48
50.0
100
AcDbLine
 10
12107.82958141817
 20
10266.73679736192
 30
0.0
 11
12107.82958141817
 21
9263.736797361927
 31
0.0
  0
LINE
  5
1C130
330
747D
100
AcDbEntity
  8
部品1
 48
50.0
100
AcDbLine
 10
12122.82958141816
 20
10266.73679736192
 30
0.0
 11
12122.82958141816
 21
9278.736797361927
 31
0.0
  0
DIMENSION
  5
1C1CC
330
747D
100
AcDbEntity
  8
寸法
 48
50.0
100
AcDbDimension
  2
*D17
 10
11588.38589554556
 20
10242.73679736192
 30
0.0
 11
12068.37113176604
 21
10063.73679736192
 31
0.0
 12
-5099.274534157644
 22
-12456.23332302183
 32
0.0
 70
    32
 71
     5
 42
-1.0
  3
INABA_S50G
100
AcDbAlignedDimension
 13
12022.82958141817
 23
11044.73679736192
 33
0.0
 14
12022.82958141817
 24
10242.73679736192
 34
0.0
 50
270.0
100
AcDbRotatedDimension
  0
LINE
  5
1C1CD
330
747D
100
AcDbEntity
  8
部品1
 62
     2
100
AcDbLine
 10
12022.82958141817
 20
10279.23679736192
 30
0.0
 11
12022.82958141817
 21
10939.23679736193
 31
0.0
  0
LINE
  5
1C1CE
330
747D
100
AcDbEntity
  8
部品1
 62
     2
100
AcDbLine
 10
12029.32958141816
 20
10275.23679736192
 30
0.0
 11
12029.32958141816
 21
11011.23679736192
 31
0.0
  0
LINE
  5
1C1CF
330
747D
100
AcDbEntity
  8
部品1
 62
     2
100
AcDbLine
 10
12060.82958141816
 20
10271.23679736192
 30
0.0
 11
12060.82958141816
 21
11011.23679736192
 31
0.0
  0
LINE
  5
1C1D0
330
747D
100
AcDbEntity
  8
部品1
 62
     2
100
AcDbLine
 10
11995.32958141815
 20
10863.23679736191
 30
0.0
 11
11995.32958141815
 21
10939.23679736193
 31
0.0
  0
LINE
  5
1C1D1
330
747D
100
AcDbEntity
  8
部品1
 62
     2
100
AcDbLine
 10
11979.32958141817
 20
10945.23679736189
 30
0.0
 11
11979.32958141817
 21
10863.23679736191
 31
0.0
  0
ARC
  5
1C1D2
330
747D
100
AcDbEntity
  8
部品1
 62
     2
100
AcDbCircle
 10
11987.32958141816
 20
10863.23679736191
 30
0.0
 40
8.0
100
AcDbArc
 50
180.0
 51
0.0
  0
LINE
  5
1C1D3
330
747D
100
AcDbEntity
  8
部品1
 62
     2
100
AcDbLine
 10
12029.32958141816
 20
11011.23679736192
 30
0.0
 11
12060.82958141816
 21
11011.23679736192
 31
0.0
  0
LINE
  5
1C1D4
330
747D
100
AcDbEntity
  8
部品1
 62
     2
100
AcDbLine
 10
12060.82958141816
 20
11003.73679736192
 30
0.0
 11
12138.32958141817
 21
11003.73679736192
 31
0.0
  0
LINE
  5
1C1D5
330
747D
100
AcDbEntity
  8
部品1
 62
     2
100
AcDbLine
 10
12060.82958141816
 20
10939.23679736193
 30
0.0
 11
12094.82958141818
 21
10939.23679736193
 31
0.0
  0
LINE
  5
1C1D6
330
747D
100
AcDbEntity
  8
部品1
 62
     2
100
AcDbLine
 10
12060.82958141816
 20
10955.23679736192
 30
0.0
 11
12100.82958141813
 21
10955.23679736192
 31
0.0
  0
ARC
  5
1C1D7
330
747D
100
AcDbEntity
  8
部品1
 62
     2
100
AcDbCircle
 10
11989.32958141811
 20
10945.23679736189
 30
0.0
 40
10.0
100
AcDbArc
 50
89.99999999999998
 51
180.0
  0
LINE
  5
1C1D8
330
747D
100
AcDbEntity
  8
部品1
 62
     2
100
AcDbLine
 10
12022.82958141817
 20
10955.23679736192
 30
0.0
 11
12022.82958141817
 21
11044.73679736192
 31
0.0
  0
LINE
  5
1C1D9
330
747D
100
AcDbEntity
  8
部品1
 62
     2
100
AcDbLine
 10
12029.32958141816
 20
10939.23679736193
 30
0.0
 11
11995.32958141815
 21
10939.23679736193
 31
0.0
  0
LINE
  5
1C1DA
330
747D
100
AcDbEntity
  8
部品1
 62
     2
100
AcDbLine
 10
12029.32958141816
 20
10955.23679736192
 30
0.0
 11
11989.32958141811
 21
10955.23679736192
 31
0.0
  0
LINE
  5
1C1DB
330
747D
100
AcDbEntity
  8
部品1
 62
     2
100
AcDbLine
 10
12022.82958141817
 20
11016.23679736192
 30
0.0
 11
12072.82958141816
 21
11016.23679736192
 31
0.0
  0
LINE
  5
1C1DC
330
747D
100
AcDbEntity
  8
部品1
 62
     2
100
AcDbLine
 10
12022.82958141817
 20
11044.73679736192
 30
0.0
 11
12072.82958141816
 21
11044.73679736192
 31
0.0
  0
LINE
  5
1C1DD
330
747D
100
AcDbEntity
  8
部品1
 62
     2
100
AcDbLine
 10
12097.82958141816
 20
10856.99179936352
 30
0.0
 11
12097.82958141816
 21
10283.73679736192
 31
0.0
  0
LINE
  5
1C1DE
330
747D
100
AcDbEntity
  8
部品1
 62
     2
100
AcDbLine
 10
12138.32958141817
 20
11003.73679736192
 30
0.0
 11
12138.32958141817
 21
10283.73679736192
 31
0.0
  0
LINE
  5
1C1DF
330
747D
100
AcDbEntity
  8
部品1
 62
     2
100
AcDbLine
 10
12123.32958141816
 20
11003.73679736192
 30
0.0
 11
12123.32958141816
 21
10283.73679736192
 31
0.0
  0
LINE
  5
1C1E0
330
747D
100
AcDbEntity
  8
部品1
 62
     2
100
AcDbLine
 10
12110.82958141816
 20
10945.23679736189
 30
0.0
 11
12110.82958141816
 21
10863.23679736191
 31
0.0
  0
LINE
  5
1C1E1
330
747D
100
AcDbEntity
  8
部品1
 62
     2
100
AcDbLine
 10
12094.82958141818
 20
10863.23679736191
 30
0.0
 11
12094.82958141818
 21
10939.23679736193
 31
0.0
  0
ARC
  5
1C1E2
330
747D
100
AcDbEntity
  8
部品1
 62
     2
100
AcDbCircle
 10
12102.82958141817
 20
10863.23679736191
 30
0.0
 40
8.0
100
AcDbArc
 50
180.0
 51
0.0
  0
ARC
  5
1C1E3
330
747D
100
AcDbEntity
  8
部品1
 62
     2
100
AcDbCircle
 10
12100.82958141813
 20
10945.23679736189
 30
0.0
 40
10.0
100
AcDbArc
 50
0.0
 51
89.99999999999998
  0
LINE
  5
1C1E4
330
747D
100
AcDbEntity
  8
部品1
 62
     2
100
AcDbLine
 10
12097.82958141816
 20
11003.73679736192
 30
0.0
 11
12097.82958141816
 21
10955.23679736192
 31
0.0
  0
LINE
  5
1C1E5
330
747D
100
AcDbEntity
  8
部品1
 62
     2
100
AcDbLine
 10
12131.82958141816
 20
11056.73679736192
 30
0.0
 11
12131.82958141816
 21
11003.73679736192
 31
0.0
  0
LINE
  5
1C1E6
330
747D
100
AcDbEntity
  8
部品1
 62
     2
100
AcDbLine
 10
12072.82958141816
 20
11044.73679736192
 30
0.0
 11
12072.82958141816
 21
11003.73679736192
 31
0.0
  0
LINE
  5
1C1E7
330
747D
100
AcDbEntity
  8
部品1
 62
     2
100
AcDbLine
 10
12122.82958141817
 20
11056.73679736192
 30
0.0
 11
12131.82958141816
 21
11056.73679736192
 31
0.0
  0
LINE
  5
1C1E8
330
747D
100
AcDbEntity
  8
部品1
 62
     2
100
AcDbLine
 10
12060.82958141816
 20
10283.73679736192
 30
0.0
 11
12138.32958141817
 21
10283.73679736192
 31
0.0
  0
LINE
  5
1C1E9
330
747D
100
AcDbEntity
  8
部品1
 62
     2
100
AcDbLine
 10
12022.82958141817
 20
10242.73679736192
 30
0.0
 11
12022.82958141817
 21
10271.23679736192
 31
0.0
  0
CIRCLE
  5
1C1EA
330
747D
100
AcDbEntity
  8
部品1
 62
     2
100
AcDbCircle
 10
12010.32958141816
 20
10275.23679736192
 30
0.0
 40
9.099999999999999
  0
LINE
  5
1C1EB
330
747D
100
AcDbEntity
  8
部品1
 62
     2
100
AcDbLine
 10
12022.82958141817
 20
10242.73679736192
 30
0.0
 11
12072.82958141816
 21
10242.73679736192
 31
0.0
  0
LINE
  5
1C1EC
330
747D
100
AcDbEntity
  8
部品1
 62
     2
100
AcDbLine
 10
12022.82958141817
 20
10271.23679736192
 30
0.0
 11
12072.82958141816
 21
10271.23679736192
 31
0.0
  0
LINE
  5
1C1ED
330
747D
100
AcDbEntity
  8
部品1
 62
     2
100
AcDbLine
 10
12019.42958141816
 20
10275.23679736192
 30
0.0
 11
12060.82958141816
 21
10275.23679736192
 31
0.0
  0
LINE
  5
1C1EE
330
747D
100
AcDbEntity
  8
部品1
 62
     2
100
AcDbLine
 10
12018.50331985293
 20
10279.23679736192
 30
0.0
 11
12029.32958141816
 21
10279.23679736192
 31
0.0
  0
LINE
  5
1C1EF
330
747D
100
AcDbEntity
  8
部品1
 62
     2
100
AcDbLine
 10
12018.50331985293
 20
10271.23679736192
 30
0.0
 11
12060.82958141816
 21
10271.23679736192
 31
0.0
  0
LINE
  5
1C1F0
330
747D
100
AcDbEntity
  8
部品1
 62
     2
100
AcDbLine
 10
12072.82958141816
 20
10283.73679736192
 30
0.0
 11
12072.82958141816
 21
10242.73679736192
 31
0.0
  0
LINE
  5
1C1F1
330
747D
100
AcDbEntity
  8
部品1
 62
     2
100
AcDbLine
 10
12131.82958141816
 20
10230.73679736192
 30
0.0
 11
12131.82958141816
 21
10283.73679736192
 31
0.0
  0
LINE
  5
1C1F2
330
747D
100
AcDbEntity
  8
部品1
 62
     2
100
AcDbLine
 10
12122.82958141817
 20
10230.73679736192
 30
0.0
 11
12131.82958141816
 21
10230.73679736192
 31
0.0
  0
DIMENSION
  5
1C1FF
330
747D
100
AcDbEntity
  8
寸法
 48
50.0
100
AcDbDimension
  2
*D18
 10
14468.82958141817
 20
8744.293111489312
 30
0.0
 11
13302.82958141817
 21
8844.307875268839
 31
0.0
 12
290.0
 22
0.0
 32
0.0
 70
    32
 71
     5
 42
-1.0
  3
INABA_S50G
100
AcDbAlignedDimension
 13
12136.82958141817
 23
9228.736797361909
 33
0.0
 14
14468.82958141817
 24
9228.736797361909
 34
0.0
100
AcDbRotatedDimension
  0
LINE
  5
1C200
330
747D
100
AcDbEntity
  8
部品1
 62
     2
 48
50.0
100
AcDbLine
 10
13875.82958141817
 20
9240.236797361909
 30
0.0
 11
14409.82958141817
 21
9240.236797361909
 31
0.0
  0
LINE
  5
1C201
330
747D
100
AcDbEntity
  8
部品1
 62
     2
 48
50.0
100
AcDbLine
 10
13857.82958141817
 20
9251.73679736191
 30
0.0
 11
14430.82958141817
 21
9251.73679736191
 31
0.0
  0
LINE
  5
1C202
330
747D
100
AcDbEntity
  8
部品1
 62
     2
 48
50.0
100
AcDbLine
 10
14430.82958141817
 20
9289.736797361909
 30
0.0
 11
12174.82958141817
 21
9289.736797361909
 31
0.0
  0
LINE
  5
1C203
330
747D
100
AcDbEntity
  8
部品1
 62
     2
 48
50.0
100
AcDbLine
 10
12142.82958141817
 20
9228.736797361909
 30
0.0
 11
14462.82958141817
 21
9228.736797361909
 31
0.0
  0
LINE
  5
1C204
330
747D
100
AcDbEntity
  8
部品1
 62
     2
 48
50.0
100
AcDbLine
 10
14462.82958141817
 20
9290.736797361908
 30
0.0
 11
12142.82958141817
 21
9290.736797361908
 31
0.0
  0
LINE
  5
1C205
330
747D
100
AcDbEntity
  8
部品1
 62
     2
 48
50.0
100
AcDbLine
 10
14444.82958141817
 20
9278.73679736191
 30
0.0
 11
14430.82958141817
 21
9278.73679736191
 31
0.0
  0
LINE
  5
1C206
330
747D
100
AcDbEntity
  8
部品1
 62
     2
 48
50.0
100
AcDbLine
 10
14403.82958141817
 20
9228.736797361909
 30
0.0
 11
14403.82958141817
 21
9251.73679736191
 31
0.0
  0
LINE
  5
1C207
330
747D
100
AcDbEntity
  8
部品1
 62
     2
 48
50.0
100
AcDbLine
 10
14430.82958141817
 20
9228.736797361909
 30
0.0
 11
14430.82958141817
 21
9289.736797361909
 31
0.0
  0
LINE
  5
1C208
330
747D
100
AcDbEntity
  8
部品1
 62
     2
 48
50.0
100
AcDbLine
 10
14462.82958141817
 20
9278.73679736191
 30
0.0
 11
14462.82958141817
 21
9290.736797361908
 31
0.0
  0
LINE
  5
1C209
330
747D
100
AcDbEntity
  8
部品1
 62
     2
 48
50.0
100
AcDbLine
 10
13857.82958141817
 20
9262.036797361899
 30
0.0
 11
13857.82958141817
 21
9285.036797361897
 31
0.0
  0
LINE
  5
1C20A
330
747D
100
AcDbEntity
  8
部品1
 62
     2
 48
50.0
100
AcDbLine
 10
13881.82958141817
 20
9262.036797361913
 30
0.0
 11
13881.82958141817
 21
9285.036797361897
 31
0.0
  0
LINE
  5
1C20B
330
747D
100
AcDbEntity
  8
部品1
 62
     2
 48
50.0
100
AcDbLine
 10
13881.82958141817
 20
9228.736797361909
 30
0.0
 11
13881.82958141817
 21
9251.73679736191
 31
0.0
  0
LINE
  5
1C20C
330
747D
100
AcDbEntity
  8
部品1
 62
     2
 48
50.0
100
AcDbLine
 10
13857.82958141817
 20
9228.736797361909
 30
0.0
 11
13857.82958141817
 21
9251.73679736191
 31
0.0
  0
LINE
  5
1C20D
330
747D
100
AcDbEntity
  8
部品1
 62
     2
 48
50.0
100
AcDbLine
 10
13329.82958141817
 20
9273.536797361911
 30
0.0
 11
13863.82958141817
 21
9273.536797361911
 31
0.0
  0
LINE
  5
1C20E
330
747D
100
AcDbEntity
  8
部品1
 62
     2
 48
50.0
100
AcDbLine
 10
12723.82958141817
 20
9285.036797361913
 30
0.0
 11
13881.82958141817
 21
9285.036797361913
 31
0.0
  0
LINE
  5
1C20F
330
747D
100
AcDbEntity
  8
部品1
 62
     2
 48
50.0
100
AcDbLine
 10
12723.82958141817
 20
9262.036797361913
 30
0.0
 11
13881.82958141817
 21
9262.036797361913
 31
0.0
  0
LINE
  5
1C210
330
747D
100
AcDbEntity
  8
部品1
 62
     2
 48
50.0
100
AcDbLine
 10
12174.82958141817
 20
9278.73679736191
 30
0.0
 11
12160.82958141817
 21
9278.73679736191
 31
0.0
  0
LINE
  5
1C211
330
747D
100
AcDbEntity
  8
部品1
 62
     2
 48
50.0
100
AcDbLine
 10
13335.82958141817
 20
9262.036797361913
 30
0.0
 11
13335.82958141817
 21
9285.036797361913
 31
0.0
  0
LINE
  5
1C212
330
747D
100
AcDbEntity
  8
部品1
 62
     2
 48
50.0
100
AcDbLine
 10
12174.82958141817
 20
9228.736797361909
 30
0.0
 11
12174.82958141817
 21
9289.736797361909
 31
0.0
  0
LINE
  5
1C213
330
747D
100
AcDbEntity
  8
部品1
 62
     2
 48
50.0
100
AcDbLine
 10
12142.82958141817
 20
9278.73679736191
 30
0.0
 11
12142.82958141817
 21
9290.736797361908
 31
0.0
  0
DIMENSION
  5
1C833
330
747D
100
AcDbEntity
  8
寸法
 48
50.0
100
AcDbDimension
  2
*D23
 10
14587.82958360308
 20
6238.281130716521
 30
0.0
 11
14902.88863872119
 21
6238.281130716521
 31
0.0
 12
-7209.213972087439
 22
-1030.720159777917
 32
0.0
 70
   160
 71
     5
 42
-1.0
  3
INABA_S50G
100
AcDbAlignedDimension
 13
14532.82958360308
 23
5545.000000008446
 33
0.0
 14
14587.82958360308
 24
5509.000002624809
 34
0.0
100
AcDbRotatedDimension
1001
ACAD
1000
DSTYLE
1002
{
1002
}
  0
DIMENSION
  5
1C834
330
747D
100
AcDbEntity
  8
寸法
 48
50.0
100
AcDbDimension
  2
*D22
 10
12072.82958360308
 20
6238.281130716521
 30
0.0
 11
11692.77052848497
 21
6238.281130716521
 31
0.0
 12
-7209.213972087439
 22
-1030.720159777917
 32
0.0
 70
   160
 71
     5
 42
-1.0
  3
INABA_S50G
100
AcDbAlignedDimension
 13
12017.82957923325
 23
5509.000002624809
 33
0.0
 14
12072.82958360308
 24
5545.000000008467
 34
0.0
100
AcDbRotatedDimension
  0
DIMENSION
  5
1C835
330
747D
100
AcDbEntity
  8
寸法
 48
50.0
100
AcDbDimension
  2
*D21
 10
14532.82958360308
 20
6238.281130716521
 30
0.0
 11
13302.82958360308
 21
6338.295894496049
 31
0.0
 70
    32
  1
柱外寸法 <>
 71
     5
 42
-1.0
  3
INABA_S50G
100
AcDbAlignedDimension
 13
12072.82958360308
 23
5545.000000008467
 33
0.0
 14
14532.82958360308
 24
5545.000000008446
 34
0.0
100
AcDbRotatedDimension
1001
ACAD
1000
DSTYLE
1002
{
1070
   287
1070
     4
1070
    75
1070
     1
1070
   279
1070
     1
1002
}
  0
DIMENSION
  5
1C836
330
747D
100
AcDbEntity
  8
寸法
 48
50.0
100
AcDbDimension
  2
*D20
 10
14587.82958360308
 20
6506.068854554546
 30
0.0
 11
13302.82958141817
 21
6606.083618334072
 31
0.0
 12
-7209.213972087439
 22
-1030.720159777917
 32
0.0
 70
    32
 71
     5
 42
-1.0
  3
INABA_S50G
100
AcDbAlignedDimension
 13
12017.82957923325
 23
5509.000002624809
 33
0.0
 14
14587.82958360308
 24
5509.000002624809
 34
0.0
100
AcDbRotatedDimension
  0
LINE
  5
1C838
330
747D
100
AcDbEntity
  8
部品1
 48
50.0
100
AcDbLine
 10
12072.82958360308
 20
3274.999999999999
 30
0.0
 11
14532.82958360308
 21
3274.999999999999
 31
0.0
  0
LINE
  5
1C83A
330
747D
100
AcDbEntity
  8
部品1
 48
50.0
100
AcDbLine
 10
14532.82958360308
 20
5275.0
 30
0.0
 11
12072.82958360308
 21
5275.0
 31
0.0
  0
LINE
  5
1C83B
330
747D
100
AcDbEntity
  8
細線
100
AcDbLine
 10
14572.32958360308
 20
5524.500002624811
 30
0.0
 11
12035.42971515204
 21
5524.500002624819
 31
0.0
  0
LINE
  5
1C83C
330
747D
100
AcDbEntity
  8
部品1
100
AcDbLine
 10
14558.39741914361
 20
5545.000000008446
 30
0.0
 11
12047.26174398399
 21
5545.000000008467
 31
0.0
  0
LINE
  5
1C83D
330
747D
100
AcDbEntity
  8
細線
100
AcDbLine
 10
14581.32472794052
 20
5431.045828186498
 30
0.0
 11
12024.33443489582
 21
5431.045828186505
 31
0.0
  0
LINE
  5
1C83E
330
747D
100
AcDbEntity
  8
部品1
100
AcDbLine
 10
14563.51364406119
 20
5410.000001569558
 30
0.0
 11
12042.14551877514
 21
5410.000001569567
 31
0.0
  0
LINE
  5
1C841
330
747D
100
AcDbEntity
  8
部品1
 48
50.0
100
AcDbLine
 10
12072.82958360308
 20
5410.000001569567
 30
0.0
 11
12072.82958360308
 21
3139.999999999999
 31
0.0
  0
LINE
  5
1C842
330
747D
100
AcDbEntity
  8
部品1
 48
50.0
100
AcDbLine
 10
12142.82958360308
 20
5275.0
 30
0.0
 11
12142.82958360308
 21
3274.999999999999
 31
0.0
  0
LINE
  5
1C845
330
747D
100
AcDbEntity
  8
部品1
 48
50.0
100
AcDbLine
 10
12142.82958360308
 20
3330.000000000001
 30
0.0
 11
14462.82958360308
 21
3330.000000000001
 31
0.0
  0
LINE
  5
1C846
330
747D
100
AcDbEntity
  8
部品1
100
AcDbLine
 10
12067.82958360308
 20
3314.999999999999
 30
0.0
 11
12067.82958360308
 21
3139.999999999999
 31
0.0
  0
LINE
  5
1C847
330
747D
100
AcDbEntity
  8
破線
 48
5.0
100
AcDbLine
 10
11972.82958360308
 20
2939.999999999999
 30
0.0
 11
12172.82958360308
 21
2939.999999999999
 31
0.0
  0
LINE
  5
1C848
330
747D
100
AcDbEntity
  8
破線
 48
5.0
100
AcDbLine
 10
12067.82958360308
 20
3139.999999999999
 30
0.0
 11
12067.82958360308
 21
3029.999999999999
 31
0.0
  0
LINE
  5
1C849
330
747D
100
AcDbEntity
  8
破線
 48
5.0
100
AcDbLine
 10
11972.82958360308
 20
3139.999999999999
 30
0.0
 11
11972.82958360308
 21
2939.999999999999
 31
0.0
  0
LINE
  5
1C84A
330
747D
100
AcDbEntity
  8
破線
 48
5.0
100
AcDbLine
 10
12047.82958360308
 20
3029.999999999999
 30
0.0
 11
12067.82958360308
 21
3029.999999999999
 31
0.0
  0
LINE
  5
1C84B
330
747D
100
AcDbEntity
  8
破線
 48
5.0
100
AcDbLine
 10
12172.82958360308
 20
3139.999999999999
 30
0.0
 11
12172.82958360308
 21
2939.999999999999
 31
0.0
  0
LINE
  5
1C84C
330
747D
100
AcDbEntity
  8
部品1
 48
50.0
100
AcDbLine
 10
12472.82958360308
 20
3274.999999999999
 30
0.0
 11
12472.82958360308
 21
3139.999999999999
 31
0.0
  0
LINE
  5
1C84E
330
747D
100
AcDbEntity
  8
部品1
 48
50.0
100
AcDbLine
 10
12722.82958360308
 20
4059.999999999999
 30
0.0
 11
12722.82958360308
 21
3330.000000000001
 31
0.0
  0
LINE
  5
1C870
330
747D
100
AcDbEntity
  8
細線
 48
50.0
100
AcDbLine
 10
12055.82958389434
 20
5410.000001569558
 30
0.0
 11
12055.82958389434
 21
5545.0
 31
0.0
  0
ARC
  5
1C871
330
747D
100
AcDbEntity
  8
部品1
100
AcDbCircle
 10
12033.32957923325
 20
5509.000002624809
 30
0.0
 40
15.5
100
AcDbArc
 50
90.00000000000033
 51
183.979378091838
  0
ARC
  5
1C872
330
747D
100
AcDbEntity
  8
部品1
100
AcDbCircle
 10
12023.88825590001
 20
5428.572828826122
 30
0.0
 40
2.5
100
AcDbArc
 50
3.979378091802891
 51
83.07390809407314
  0
ARC
  5
1C873
330
747D
100
AcDbEntity
  8
部品1
100
AcDbCircle
 10
12042.14551877514
 20
5425.50000156956
 30
0.0
 40
15.5
100
AcDbArc
 50
183.9793780918396
 51
270.0
  0
LINE
  5
1C874
330
747D
100
AcDbEntity
  8
部品1
100
AcDbLine
 10
12026.38222863103
 20
5428.746322390583
 30
0.0
 11
12026.6828878428
 21
5424.424341469881
 31
0.0
  0
ARC
  5
1C875
330
747D
100
AcDbEntity
  8
部品1
100
AcDbCircle
 10
12024.33443489582
 20
5432.245828186495
 30
0.0
 40
1.199999999999999
100
AcDbArc
 50
183.979378091838
 51
270.0000000000002
  0
LINE
  5
1C876
330
747D
100
AcDbEntity
  8
部品1
100
AcDbLine
 10
12017.86694830091
 20
5507.92434252513
 30
0.0
 11
12023.13732798493
 21
5432.162551275553
 31
0.0
  0
ARC
  5
1C877
330
747D
100
AcDbEntity
  8
部品1
100
AcDbCircle
 10
12047.2619868428
 20
5541.500000016893
 30
0.0
 40
3.5
100
AcDbArc
 50
90.0
 51
157.4999956391549
  0
ARC
  5
1C878
330
747D
100
AcDbEntity
  8
部品1
100
AcDbCircle
 10
12035.42971515204
 20
5526.000002624811
 30
0.0
 40
1.5
100
AcDbArc
 50
270.0000000000002
 51
337.4999956391484
  0
LINE
  5
1C879
330
747D
100
AcDbEntity
  8
部品1
100
AcDbLine
 10
12036.81553440712
 20
5525.425977370787
 30
0.0
 11
12044.02840858096
 21
5542.839392276281
 31
0.0
  0
LINE
  5
1C87A
330
747D
100
AcDbEntity
  8
部品1
 48
50.0
100
AcDbLine
 10
12033.32957923325
 20
5524.500002624809
 30
0.0
 11
12035.42971515204
 21
5524.500002624819
 31
0.0
  0
LINE
  5
1C87B
330
747D
100
AcDbEntity
  8
細線
 48
50.0
100
AcDbLine
 10
12858.82958360308
 20
5405.500036981838
 30
0.0
 11
12586.82958360308
 21
5405.500036981838
 31
0.0
  0
LINE
  5
1C87C
330
747D
100
AcDbEntity
  8
細線
 48
50.0
100
AcDbLine
 10
12843.82958360308
 20
5319.5
 30
0.0
 11
12601.82958360308
 21
5319.5
 31
0.0
  0
LINE
  5
1C87D
330
747D
100
AcDbEntity
  8
細線
 48
50.0
100
AcDbLine
 10
12858.82958360308
 20
5308.5
 30
0.0
 11
12586.82958360308
 21
5308.5
 31
0.0
  0
LINE
  5
1C87E
330
747D
100
AcDbEntity
  8
細線
 48
50.0
100
AcDbLine
 10
12601.82958360308
 20
5375.5
 30
0.0
 11
12843.82958360308
 21
5375.5
 31
0.0
  0
LINE
  5
1C87F
330
747D
100
AcDbEntity
  8
細線
 48
50.0
100
AcDbLine
 10
12601.82958360308
 20
5390.5
 30
0.0
 11
12843.82958360308
 21
5390.499999999998
 31
0.0
  0
LINE
  5
1C880
330
747D
100
AcDbEntity
  8
細線
 48
50.0
100
AcDbLine
 10
12601.82958360308
 20
5360.500036981837
 30
0.0
 11
12843.82958360308
 21
5360.500036981837
 31
0.0
  0
LINE
  5
1C881
330
747D
100
AcDbEntity
  8
細線
 48
50.0
100
AcDbLine
 10
12601.82958360308
 20
5345.5
 30
0.0
 11
12843.82958360308
 21
5345.5
 31
0.0
  0
LINE
  5
1C882
330
747D
100
AcDbEntity
  8
細線
 48
50.0
100
AcDbLine
 10
12601.82958360308
 20
5330.500036981837
 30
0.0
 11
12843.82958360308
 21
5330.500036981837
 31
0.0
  0
ARC
  5
1C883
330
747D
100
AcDbEntity
  8
細線
 48
50.0
100
AcDbCircle
 10
12586.82958360308
 20
5395.500036981837
 30
0.0
 40
10.0
100
AcDbArc
 50
90.0
 51
180.0
  0
LINE
  5
1C884
330
747D
100
AcDbEntity
  8
細線
 48
50.0
100
AcDbLine
 10
12682.82958360308
 20
5319.5
 30
0.0
 11
12682.82958360308
 21
5390.5
 31
0.0
  0
LINE
  5
1C885
330
747D
100
AcDbEntity
  8
細線
 48
50.0
100
AcDbLine
 10
12601.82958360308
 20
5308.5
 30
0.0
 11
12601.82958360308
 21
5309.0
 31
0.0
  0
ARC
  5
1C886
330
747D
100
AcDbEntity
  8
細線
 48
50.0
100
AcDbCircle
 10
12586.82958360308
 20
5318.5
 30
0.0
 40
10.0
100
AcDbArc
 50
180.0
 51
270.0
  0
LINE
  5
1C887
330
747D
100
AcDbEntity
  8
細線
 48
50.0
100
AcDbLine
 10
12576.82958360308
 20
5395.500036981837
 30
0.0
 11
12576.82958360308
 21
5318.5
 31
0.0
  0
LINE
  5
1C888
330
747D
100
AcDbEntity
  8
細線
 48
50.0
100
AcDbLine
 10
12601.82958360308
 20
5405.500036981838
 30
0.0
 11
12601.82958360308
 21
5308.5
 31
0.0
  0
ARC
  5
1C889
330
747D
100
AcDbEntity
  8
細線
 48
50.0
100
AcDbCircle
 10
12858.82958360308
 20
5395.500036981837
 30
0.0
 40
10.0
100
AcDbArc
 50
359.9999999999998
 51
90.0
  0
LINE
  5
1C88A
330
747D
100
AcDbEntity
  8
細線
 48
50.0
100
AcDbLine
 10
12843.82958360308
 20
5308.5
 30
0.0
 11
12843.82958360308
 21
5309.0
 31
0.0
  0
ARC
  5
1C88B
330
747D
100
AcDbEntity
  8
細線
 48
50.0
100
AcDbCircle
 10
12858.82958360308
 20
5318.5
 30
0.0
 40
10.0
100
AcDbArc
 50
270.0
 51
359.9999999999998
  0
LINE
  5
1C88C
330
747D
100
AcDbEntity
  8
細線
 48
50.0
100
AcDbLine
 10
12762.82958360308
 20
5319.5
 30
0.0
 11
12762.82958360308
 21
5390.5
 31
0.0
  0
LINE
  5
1C88D
330
747D
100
AcDbEntity
  8
細線
 48
50.0
100
AcDbLine
 10
12868.82958360308
 20
5395.500036981837
 30
0.0
 11
12868.82958360308
 21
5318.5
 31
0.0
  0
LINE
  5
1C88E
330
747D
100
AcDbEntity
  8
細線
 48
50.0
100
AcDbLine
 10
12843.82958360308
 20
5405.500036981838
 30
0.0
 11
12843.82958360308
 21
5308.5
 31
0.0
  0
LINE
  5
1C88F
330
747D
100
AcDbEntity
  8
部品1
 48
50.0
100
AcDbLine
 10
14532.82958360308
 20
5410.000001569558
 30
0.0
 11
14532.82958360308
 21
3139.999999999999
 31
0.0
  0
LINE
  5
1C897
330
747D
100
AcDbEntity
  8
部品1
 48
50.0
100
AcDbLine
 10
13202.82958360308
 20
3274.999999999999
 30
0.0
 11
13202.82958360308
 21
3139.999999999999
 31
0.0
  0
LINE
  5
1C898
330
747D
100
AcDbEntity
  8
部品1
 48
50.0
100
AcDbLine
 10
13402.82958360308
 20
3274.999999999999
 30
0.0
 11
13402.82958360308
 21
3139.999999999999
 31
0.0
  0
LINE
  5
1C899
330
747D
100
AcDbEntity
  8
部品1
 48
50.0
100
AcDbLine
 10
14132.82958360308
 20
3274.999999999999
 30
0.0
 11
14132.82958360308
 21
3139.999999999999
 31
0.0
  0
LINE
  5
1C89A
330
747D
100
AcDbEntity
  8
部品1
100
AcDbLine
 10
14537.82958360308
 20
3314.999999999999
 30
0.0
 11
14537.82958360308
 21
3139.999999999999
 31
0.0
  0
LINE
  5
1C89B
330
747D
100
AcDbEntity
  8
破線
 48
5.0
100
AcDbLine
 10
14632.82958360308
 20
2939.999999999999
 30
0.0
 11
14432.82958360308
 21
2939.999999999999
 31
0.0
  0
LINE
  5
1C89C
330
747D
100
AcDbEntity
  8
破線
 48
5.0
100
AcDbLine
 10
14557.82958360308
 20
3029.999999999999
 30
0.0
 11
14537.82958360308
 21
3029.999999999999
 31
0.0
  0
LINE
  5
1C89D
330
747D
100
AcDbEntity
  8
破線
 48
5.0
100
AcDbLine
 10
14537.82958360308
 20
3139.999999999999
 30
0.0
 11
14537.82958360308
 21
3029.999999999999
 31
0.0
  0
LINE
  5
1C89E
330
747D
100
AcDbEntity
  8
破線
 48
5.0
100
AcDbLine
 10
14432.82958360308
 20
3139.999999999999
 30
0.0
 11
14432.82958360308
 21
2939.999999999999
 31
0.0
  0
LINE
  5
1C89F
330
747D
100
AcDbEntity
  8
破線
 48
5.0
100
AcDbLine
 10
14632.82958360308
 20
3139.999999999999
 30
0.0
 11
14632.82958360308
 21
2939.999999999999
 31
0.0
  0
LINE
  5
1C8A2
330
747D
100
AcDbEntity
  8
部品1
 48
50.0
100
AcDbLine
 10
14462.82958360308
 20
5275.0
 30
0.0
 11
14462.82958360308
 21
3274.999999999999
 31
0.0
  0
LINE
  5
1C8A3
330
747D
100
AcDbEntity
  8
細線
 48
50.0
100
AcDbLine
 10
14018.82958360308
 20
5405.500036981838
 30
0.0
 11
13746.82958360308
 21
5405.500036981838
 31
0.0
  0
LINE
  5
1C8A4
330
747D
100
AcDbEntity
  8
細線
 48
50.0
100
AcDbLine
 10
13761.82958360308
 20
5330.500036981837
 30
0.0
 11
14003.82958360308
 21
5330.500036981837
 31
0.0
  0
LINE
  5
1C8A5
330
747D
100
AcDbEntity
  8
細線
 48
50.0
100
AcDbLine
 10
13761.82958360308
 20
5345.5
 30
0.0
 11
14003.82958360308
 21
5345.5
 31
0.0
  0
LINE
  5
1C8A6
330
747D
100
AcDbEntity
  8
細線
 48
50.0
100
AcDbLine
 10
13761.82958360308
 20
5360.500036981837
 30
0.0
 11
14003.82958360308
 21
5360.500036981837
 31
0.0
  0
LINE
  5
1C8A7
330
747D
100
AcDbEntity
  8
細線
 48
50.0
100
AcDbLine
 10
13761.82958360308
 20
5390.5
 30
0.0
 11
14003.82958360308
 21
5390.499999999998
 31
0.0
  0
LINE
  5
1C8A8
330
747D
100
AcDbEntity
  8
細線
 48
50.0
100
AcDbLine
 10
13761.82958360308
 20
5375.5
 30
0.0
 11
14003.82958360308
 21
5375.5
 31
0.0
  0
LINE
  5
1C8A9
330
747D
100
AcDbEntity
  8
細線
 48
50.0
100
AcDbLine
 10
14018.82958360308
 20
5308.5
 30
0.0
 11
13746.82958360308
 21
5308.5
 31
0.0
  0
LINE
  5
1C8AA
330
747D
100
AcDbEntity
  8
細線
 48
50.0
100
AcDbLine
 10
14003.82958360308
 20
5319.5
 30
0.0
 11
13761.82958360308
 21
5319.5
 31
0.0
  0
ARC
  5
1C8AB
330
747D
100
AcDbEntity
  8
細線
 48
50.0
100
AcDbCircle
 10
13746.82958360308
 20
5395.500036981837
 30
0.0
 40
10.0
100
AcDbArc
 50
90.0
 51
180.0
  0
ARC
  5
1C8AC
330
747D
100
AcDbEntity
  8
細線
 48
50.0
100
AcDbCircle
 10
13746.82958360308
 20
5318.5
 30
0.0
 40
10.0
100
AcDbArc
 50
180.0
 51
270.0
  0
LINE
  5
1C8AD
330
747D
100
AcDbEntity
  8
細線
 48
50.0
100
AcDbLine
 10
13736.82958360308
 20
5395.500036981837
 30
0.0
 11
13736.82958360308
 21
5318.5
 31
0.0
  0
LINE
  5
1C8AE
330
747D
100
AcDbEntity
  8
細線
 48
50.0
100
AcDbLine
 10
13922.82958360308
 20
5319.5
 30
0.0
 11
13922.82958360308
 21
5390.5
 31
0.0
  0
LINE
  5
1C8AF
330
747D
100
AcDbEntity
  8
細線
 48
50.0
100
AcDbLine
 10
13761.82958360308
 20
5308.5
 30
0.0
 11
13761.82958360308
 21
5309.0
 31
0.0
  0
LINE
  5
1C8B0
330
747D
100
AcDbEntity
  8
細線
 48
50.0
100
AcDbLine
 10
13842.82958360308
 20
5319.5
 30
0.0
 11
13842.82958360308
 21
5390.5
 31
0.0
  0
LINE
  5
1C8B1
330
747D
100
AcDbEntity
  8
細線
 48
50.0
100
AcDbLine
 10
13761.82958360308
 20
5405.500036981838
 30
0.0
 11
13761.82958360308
 21
5308.5
 31
0.0
  0
ARC
  5
1C8B2
330
747D
100
AcDbEntity
  8
細線
 48
50.0
100
AcDbCircle
 10
14018.82958360308
 20
5395.500036981837
 30
0.0
 40
10.0
100
AcDbArc
 50
359.9999999999998
 51
90.0
  0
ARC
  5
1C8B3
330
747D
100
AcDbEntity
  8
細線
 48
50.0
100
AcDbCircle
 10
14018.82958360308
 20
5318.5
 30
0.0
 40
10.0
100
AcDbArc
 50
270.0
 51
359.9999999999998
  0
LINE
  5
1C8B4
330
747D
100
AcDbEntity
  8
細線
 48
50.0
100
AcDbLine
 10
14003.82958360308
 20
5308.5
 30
0.0
 11
14003.82958360308
 21
5309.0
 31
0.0
  0
LINE
  5
1C8B5
330
747D
100
AcDbEntity
  8
細線
 48
50.0
100
AcDbLine
 10
14003.82958360308
 20
5405.500036981838
 30
0.0
 11
14003.82958360308
 21
5308.5
 31
0.0
  0
LINE
  5
1C8B6
330
747D
100
AcDbEntity
  8
細線
 48
50.0
100
AcDbLine
 10
14028.82958360308
 20
5395.500036981837
 30
0.0
 11
14028.82958360308
 21
5318.5
 31
0.0
  0
LINE
  5
1C8B7
330
747D
100
AcDbEntity
  8
細線
 48
50.0
100
AcDbLine
 10
14549.82957923326
 20
5410.000001569558
 30
0.0
 11
14549.82957923326
 21
5545.0
 31
0.0
  0
ARC
  5
1C8B8
330
747D
100
AcDbEntity
  8
部品1
100
AcDbCircle
 10
14572.32958360308
 20
5509.000002624809
 30
0.0
 40
15.5
100
AcDbArc
 50
356.0206219081619
 51
89.99999999999968
  0
ARC
  5
1C8B9
330
747D
100
AcDbEntity
  8
部品1
100
AcDbCircle
 10
14563.51364406119
 20
5425.50000156956
 30
0.0
 40
15.5
100
AcDbArc
 50
270.0
 51
356.0206219081603
  0
ARC
  5
1C8BA
330
747D
100
AcDbEntity
  8
部品1
100
AcDbCircle
 10
14581.77090693633
 20
5428.572828826122
 30
0.0
 40
2.5
100
AcDbArc
 50
96.92609190592689
 51
176.0206219081971
  0
LINE
  5
1C8BB
330
747D
100
AcDbEntity
  8
部品1
100
AcDbLine
 10
14579.2769342053
 20
5428.746322390583
 30
0.0
 11
14578.97627499354
 21
5424.424341469881
 31
0.0
  0
ARC
  5
1C8BC
330
747D
100
AcDbEntity
  8
部品1
100
AcDbCircle
 10
14581.32472794052
 20
5432.245828186495
 30
0.0
 40
1.199999999999999
100
AcDbArc
 50
269.9999999999997
 51
356.0206219081619
  0
LINE
  5
1C8BD
330
747D
100
AcDbEntity
  8
部品1
100
AcDbLine
 10
14587.79221453543
 20
5507.92434252513
 30
0.0
 11
14582.52183485141
 21
5432.162551275553
 31
0.0
  0
ARC
  5
1C8BE
330
747D
100
AcDbEntity
  8
部品1
100
AcDbCircle
 10
14570.2294476843
 20
5526.000002624811
 30
0.0
 40
1.5
100
AcDbArc
 50
202.5000043608516
 51
269.9999999999997
  0
LINE
  5
1C8BF
330
747D
100
AcDbEntity
  8
部品1
100
AcDbLine
 10
14568.84362842922
 20
5525.425977370787
 30
0.0
 11
14561.63075425538
 21
5542.839392276281
 31
0.0
  0
ARC
  5
1C8C0
330
747D
100
AcDbEntity
  8
部品1
100
AcDbCircle
 10
14558.39717599354
 20
5541.500000016893
 30
0.0
 40
3.5
100
AcDbArc
 50
22.50000436084501
 51
90.0
  0
DIMENSION
  5
1C8C1
330
747D
100
AcDbEntity
  8
寸法
 48
50.0
100
AcDbDimension
  2
*D19
 10
14432.82958360308
 20
2612.358857715331
 30
0.0
 11
14145.86600092591
 21
2612.358857715331
 31
0.0
 12
-7209.213972087439
 22
-1030.720159777917
 32
0.0
 70
   160
 71
     5
 42
-1.0
  3
INABA_S50G
100
AcDbAlignedDimension
 13
14632.82958360308
 23
2939.999999999999
 33
0.0
 14
14432.82958360308
 24
2939.999999999999
 34
0.0
100
AcDbRotatedDimension
  0
DIMENSION
  5
1C932
330
747D
100
AcDbEntity
  8
寸法
 48
50.0
100
AcDbDimension
  2
*D26
 10
15532.97132641338
 20
3341.999999999999
 30
0.0
 11
15532.97132641338
 21
2978.697597487494
 31
0.0
 12
-19664.27373175847
 22
0.000000000043201
 32
0.0
 70
   160
 71
     5
 42
-1.0
  3
INABA_S50G
100
AcDbAlignedDimension
 13
14532.82958360308
 23
3274.999999999999
 33
0.0
 14
14532.82958360308
 24
3341.999999999999
 34
0.0
 50
90.0
100
AcDbRotatedDimension
  0
DIMENSION
  5
1C933
330
747D
100
AcDbEntity
  8
寸法
 48
50.0
100
AcDbDimension
  2
*D27
 10
15178.93453543463
 20
5130.0
 30
0.0
 11
15078.93453543463
 21
4595.000000000003
 31
0.0
 70
    32
 71
     5
 42
-1.0
  3
INABA_S50G
100
AcDbAlignedDimension
 13
14462.82958360308
 23
4059.999999999999
 33
0.0
 14
14462.82958360308
 24
5130.0
 34
0.0
 50
90.0
100
AcDbRotatedDimension
1001
ACAD
1000
DSTYLE
1002
{
1070
   287
1070
     4
1070
    75
1070
     1
1070
   279
1070
     1
1002
}
  0
DIMENSION
  5
1C934
330
747D
100
AcDbEntity
  8
寸法
 48
50.0
100
AcDbDimension
  2
*D24
 10
15178.93453543463
 20
4059.999999999999
 30
0.0
 11
15078.93453543463
 21
3667.499999999999
 31
0.0
 12
-19664.27373175847
 22
0.000000000043201
 32
0.0
 70
    32
 71
     5
 42
-1.0
  3
INABA_S50G
100
AcDbAlignedDimension
 13
14532.82958360308
 23
3274.999999999999
 33
0.0
 14
14462.82958360308
 24
4059.999999999999
 34
0.0
 50
90.0
100
AcDbRotatedDimension
  0
DIMENSION
  5
1C935
330
747D
100
AcDbEntity
  8
寸法
 48
50.0
100
AcDbDimension
  2
*D25
 10
15532.97132641338
 20
5302.0
 30
0.0
 11
15432.97132641338
 21
4322.000000000002
 31
0.0
 70
    32
  1
内高 <>
 71
     5
 42
-1.0
  3
INABA_S50G
100
AcDbAlignedDimension
 13
14532.82958360308
 23
3341.999999999999
 33
0.0
 14
14532.82958360308
 24
5302.0
 34
0.0
 50
90.0
100
AcDbRotatedDimension
1001
ACAD
1000
DSTYLE
1002
{
1070
   287
1070
     4
1070
    75
1070
     1
1070
   279
1070
     1
1002
}
  0
LINE
  5
1C936
330
747D
100
AcDbEntity
  8
部品1
 62
     2
 48
50.0
100
AcDbLine
 10
12174.82958360308
 20
5082.5
 30
0.0
 11
12174.82958360308
 21
4059.999999999999
 31
0.0
  0
LINE
  5
1C937
330
747D
100
AcDbEntity
  8
部品1
 62
     2
 48
50.0
100
AcDbLine
 10
12201.82958360308
 20
5082.5
 30
0.0
 11
12201.82958360308
 21
4103.0
 31
0.0
  0
LINE
  5
1C938
330
747D
100
AcDbEntity
  8
部品1
 62
     2
 48
50.0
100
AcDbLine
 10
13857.82958141817
 20
5082.5
 30
0.0
 11
13857.82958141817
 21
4103.0
 31
0.0
  0
LINE
  5
1C939
330
747D
100
AcDbEntity
  8
部品1
 62
     2
 48
50.0
100
AcDbLine
 10
14430.82958360308
 20
5082.5
 30
0.0
 11
14430.82958360308
 21
4059.999999999999
 31
0.0
  0
LINE
  5
1C93A
330
747D
100
AcDbEntity
  8
部品1
 62
     2
 48
50.0
100
AcDbLine
 10
14403.82958360308
 20
5082.5
 30
0.0
 11
14403.82958360308
 21
4103.0
 31
0.0
  0
LINE
  5
1C93B
330
747D
100
AcDbEntity
  8
部品1
 62
     2
 48
50.0
100
AcDbLine
 10
13881.82958141817
 20
5082.5
 30
0.0
 11
13881.82958141817
 21
4103.0
 31
0.0
  0
LINE
  5
1C93C
330
747D
100
AcDbEntity
  8
部品1
 62
     2
 48
50.0
100
AcDbLine
 10
12201.82958360308
 20
4146.0
 30
0.0
 11
12723.82958170944
 21
4146.0
 31
0.0
  0
LINE
  5
1C93D
330
747D
100
AcDbEntity
  8
部品1
 62
     2
 48
50.0
100
AcDbLine
 10
12747.82958170944
 20
4112.0
 30
0.0
 11
13857.82958141816
 21
4112.0
 31
0.0
  0
LINE
  5
1C93E
330
747D
100
AcDbEntity
  8
部品1
 62
     2
 48
50.0
100
AcDbLine
 10
12142.82958360308
 20
4059.999999999999
 30
0.0
 11
14462.82958360308
 21
4059.999999999999
 31
0.0
  0
LINE
  5
1C93F
330
747D
100
AcDbEntity
  8
部品1
 62
     2
 48
50.0
100
AcDbLine
 10
12174.82958360308
 20
4091.999999999999
 30
0.0
 11
14430.82958360308
 21
4091.999999999999
 31
0.0
  0
LINE
  5
1C940
330
747D
100
AcDbEntity
  8
部品1
 62
     2
 48
50.0
100
AcDbLine
 10
12174.82958360308
 20
4103.0
 30
0.0
 11
12199.15458360308
 21
4103.0
 31
0.0
  0
LINE
  5
1C942
330
747D
100
AcDbEntity
  8
部品1
 62
     2
 48
50.0
100
AcDbLine
 10
13857.82958141816
 20
4103.0
 30
0.0
 11
14430.82958360308
 21
4103.0
 31
0.0
  0
LINE
  5
1C943
330
747D
100
AcDbEntity
  8
部品1
 62
     2
 48
50.0
100
AcDbLine
 10
13881.82958141816
 20
4146.0
 30
0.0
 11
14403.82958360308
 21
4146.0
 31
0.0
  0
LINE
  5
1C944
330
747D
100
AcDbEntity
  8
部品1
 62
     2
 48
50.0
100
AcDbLine
 10
12201.82958360308
 20
5052.5
 30
0.0
 11
12723.82958170944
 21
5052.5
 31
0.0
  0
LINE
  5
1C945
330
747D
100
AcDbEntity
  8
部品1
 62
     2
 48
50.0
100
AcDbLine
 10
12142.82958360308
 20
5112.0
 30
0.0
 11
14462.82958360308
 21
5112.0
 31
0.0
  0
LINE
  5
1C946
330
747D
100
AcDbEntity
  8
部品1
 62
     2
 48
50.0
100
AcDbLine
 10
12142.82958360308
 20
5130.0
 30
0.0
 11
14462.82958360308
 21
5130.0
 31
0.0
  0
LINE
  5
1C947
330
747D
100
AcDbEntity
  8
部品1
 62
     2
 48
50.0
100
AcDbLine
 10
12142.82958360308
 20
5082.5
 30
0.0
 11
14462.82958360308
 21
5082.5
 31
0.0
  0
LINE
  5
1C948
330
747D
100
AcDbEntity
  8
部品1
 62
     2
 48
50.0
100
AcDbLine
 10
13881.82958141816
 20
5052.5
 30
0.0
 11
14403.82958360308
 21
5052.5
 31
0.0
  0
LINE
  5
1C949
330
747D
100
AcDbEntity
  8
部品1
 48
50.0
100
AcDbLine
 10
13302.82958360308
 20
4059.999999999999
 30
0.0
 11
13302.82958360308
 21
3330.0
 31
0.0
  0
LINE
  5
1C94A
330
747D
100
AcDbEntity
  8
部品1
 48
50.0
100
AcDbLine
 10
13882.82958360308
 20
4059.999999999999
 30
0.0
 11
13882.82958360308
 21
3330.0
 31
0.0
  0
LINE
  5
1C9AE
330
747D
100
AcDbEntity
  8
細線
 48
50.0
100
AcDbLine
 10
14188.82958141816
 20
9290.736797361908
 30
0.0
 11
14188.82958141816
 21
11049.73679736193
 31
0.0
  0
LINE
  5
1C9AF
330
747D
100
AcDbEntity
  8
細線
 48
50.0
100
AcDbLine
 10
13608.82958141816
 20
9290.736797361908
 30
0.0
 11
13608.82958141816
 21
11049.73679736193
 31
0.0
  0
LINE
  5
1C9B0
330
747D
100
AcDbEntity
  8
細線
 48
50.0
100
AcDbLine
 10
12448.82958141816
 20
9290.736797361908
 30
0.0
 11
12448.82958141816
 21
11049.73679736193
 31
0.0
  0
LINE
  5
1C9B1
330
747D
100
AcDbEntity
  8
細線
 48
50.0
100
AcDbLine
 10
13028.82958141816
 20
9290.736797361908
 30
0.0
 11
13028.82958141815
 21
11049.73679736193
 31
0.0
  0
LINE
  5
1C9DC
330
747D
100
AcDbEntity
  8
部品1
 62
     2
 48
50.0
100
AcDbLine
 10
13308.82958141817
 20
9262.036797361913
 30
0.0
 11
13308.82958141817
 21
9285.036797361897
 31
0.0
  0
LINE
  5
1C9DD
330
747D
100
AcDbEntity
  8
部品1
 62
     2
 48
50.0
100
AcDbLine
 10
13296.82958141817
 20
9262.036797361913
 30
0.0
 11
13296.82958141817
 21
9285.036797361897
 31
0.0
  0
LINE
  5
1C9DF
330
747D
100
AcDbEntity
  8
部品1
 62
     2
 48
50.0
100
AcDbLine
 10
13275.82958141817
 20
9273.536797361911
 30
0.0
 11
12741.82958141817
 21
9273.536797361911
 31
0.0
  0
LINE
  5
1C9E2
330
747D
100
AcDbEntity
  8
部品1
 62
     2
 48
50.0
100
AcDbLine
 10
13269.82958141817
 20
9262.036797361913
 30
0.0
 11
13269.82958141817
 21
9285.036797361913
 31
0.0
  0
LINE
  5
1C9E3
330
747D
100
AcDbEntity
  8
部品1
 62
     2
 48
50.0
100
AcDbLine
 10
12747.82958141817
 20
9262.036797361899
 30
0.0
 11
12747.82958141817
 21
9285.036797361897
 31
0.0
  0
LINE
  5
1C9E4
330
747D
100
AcDbEntity
  8
部品1
 62
     2
 48
50.0
100
AcDbLine
 10
12723.82958141817
 20
9262.036797361913
 30
0.0
 11
12723.82958141817
 21
9285.036797361897
 31
0.0
  0
LINE
  5
1C9E5
330
747D
100
AcDbEntity
  8
部品1
 62
     2
 48
50.0
100
AcDbLine
 10
12729.82958141817
 20
9240.236797361909
 30
0.0
 11
12195.82958141817
 21
9240.236797361909
 31
0.0
  0
LINE
  5
1C9E6
330
747D
100
AcDbEntity
  8
部品1
 62
     2
 48
50.0
100
AcDbLine
 10
12747.82958141817
 20
9251.73679736191
 30
0.0
 11
12174.82958141817
 21
9251.73679736191
 31
0.0
  0
LINE
  5
1C9E7
330
747D
100
AcDbEntity
  8
部品1
 62
     2
 48
50.0
100
AcDbLine
 10
12723.82958141817
 20
9228.736797361909
 30
0.0
 11
12723.82958141817
 21
9251.73679736191
 31
0.0
  0
LINE
  5
1C9E8
330
747D
100
AcDbEntity
  8
部品1
 62
     2
 48
50.0
100
AcDbLine
 10
12747.82958141817
 20
9228.736797361909
 30
0.0
 11
12747.82958141817
 21
9251.73679736191
 31
0.0
  0
LINE
  5
1C9E9
330
747D
100
AcDbEntity
  8
部品1
 62
     2
 48
50.0
100
AcDbLine
 10
12201.82958141817
 20
9228.736797361909
 30
0.0
 11
12201.82958141817
 21
9251.73679736191
 31
0.0
  0
LINE
  5
1C9ED
330
747D
100
AcDbEntity
  8
部品1
 62
     2
 48
50.0
100
AcDbLine
 10
13335.82958141817
 20
5082.5
 30
0.0
 11
13335.82958141817
 21
4112.0
 31
0.0
  0
LINE
  5
1C9EE
330
747D
100
AcDbEntity
  8
部品1
 62
     2
 48
50.0
100
AcDbLine
 10
13335.82958141817
 20
5052.5
 30
0.0
 11
13857.82958141817
 21
5052.5
 31
0.0
  0
LINE
  5
1C9EF
330
747D
100
AcDbEntity
  8
部品1
 62
     2
 48
50.0
100
AcDbLine
 10
13335.82958141817
 20
4146.0
 30
0.0
 11
13857.82958141817
 21
4146.0
 31
0.0
  0
LINE
  5
1C9F0
330
747D
100
AcDbEntity
  8
部品1
 62
     2
 48
50.0
100
AcDbLine
 10
13296.82958141817
 20
5082.5
 30
0.0
 11
13296.82958141817
 21
4112.0
 31
0.0
  0
LINE
  5
1C9F1
330
747D
100
AcDbEntity
  8
部品1
 62
     2
 48
50.0
100
AcDbLine
 10
13269.82958141817
 20
5082.5
 30
0.0
 11
13269.82958141817
 21
4112.0
 31
0.0
  0
LINE
  5
1C9F2
330
747D
100
AcDbEntity
  8
部品1
 62
     2
 48
50.0
100
AcDbLine
 10
12747.82958170944
 20
5082.5
 30
0.0
 11
12747.82958170944
 21
4103.0
 31
0.0
  0
LINE
  5
1C9F3
330
747D
100
AcDbEntity
  8
部品1
 62
     2
 48
50.0
100
AcDbLine
 10
12723.82958170943
 20
5082.5
 30
0.0
 11
12723.82958170943
 21
4103.0
 31
0.0
  0
LINE
  5
1C9F4
330
747D
100
AcDbEntity
  8
部品1
 62
     2
 48
50.0
100
AcDbLine
 10
12747.82958170944
 20
5052.5
 30
0.0
 11
13269.82958141816
 21
5052.499999999999
 31
0.0
  0
LINE
  5
1C9F5
330
747D
100
AcDbEntity
  8
部品1
 62
     2
 48
50.0
100
AcDbLine
 10
12747.82958170944
 20
4146.0
 30
0.0
 11
13269.82958141816
 21
4145.999999999999
 31
0.0
  0
LINE
  5
1C9F6
330
747D
100
AcDbEntity
  8
部品1
 62
     2
 48
50.0
100
AcDbLine
 10
12174.82957952452
 20
4103.0
 30
0.0
 11
12747.82958170944
 21
4103.0
 31
0.0
  0
LINE
  5
1C9FA
330
747D
100
AcDbEntity
  8
部品1
 62
     2
 48
50.0
100
AcDbLine
 10
13308.82958141817
 20
5082.5
 30
0.0
 11
13308.82958141817
 21
4112.0
 31
0.0
  0
DIMENSION
  5
1CB5E
330
747D
100
AcDbEntity
  8
寸法
 48
50.0
100
AcDbDimension
  2
*D28
 10
5854.329581418174
 20
2653.952670699625
 30
0.0
 11
6141.29316409534
 21
2653.952670699625
 31
0.0
 12
2895.816680613256
 22
7443.247473483338
 32
0.0
 70
   160
 71
     5
 42
-1.0
  3
INABA_S50G
100
AcDbAlignedDimension
 13
5654.329581418173
 23
2940.000000000002
 33
0.0
 14
5854.329581418174
 24
2940.000000000002
 34
0.0
100
AcDbRotatedDimension
  0
DIMENSION
  5
1CB5F
330
747D
100
AcDbEntity
  8
寸法
 48
50.0
100
AcDbDimension
  2
*D29
 10
5255.994446424295
 20
3140.0
 30
0.0
 11
5255.994446424295
 21
2653.036417322836
 31
0.0
 12
2895.816680613256
 22
7443.247473483338
 32
0.0
 70
   160
 71
     5
 42
-1.0
  3
INABA_S50G
100
AcDbAlignedDimension
 13
5654.329581418174
 23
2940.000000000002
 33
0.0
 14
5654.329581418173
 24
3140.0
 34
0.0
 50
270.0
100
AcDbRotatedDimension
  0
LINE
  5
1CB65
330
747D
100
AcDbEntity
  8
部品1
 48
50.0
100
AcDbLine
 10
7522.829581418173
 20
3330.0
 30
0.0
 11
6572.829581418172
 21
3330.0
 31
0.0
  0
LINE
  5
1CB66
330
747D
100
AcDbEntity
  8
部品1
 48
50.0
100
AcDbLine
 10
7592.829581418174
 20
5275.0
 30
0.0
 11
5712.829581418171
 21
5275.0
 31
0.0
  0
DIMENSION
  5
1CB67
330
747D
100
AcDbEntity
  8
寸法
 48
50.0
100
AcDbDimension
  2
*D30
 10
5712.829581418173
 20
6238.281130716521
 30
0.0
 11
6652.829581418174
 21
6338.281130716521
 31
0.0
 70
    32
  1
柱外寸法 <>
 71
     5
 42
-1.0
  3
INABA_S50G
100
AcDbAlignedDimension
 13
7592.829581418175
 23
5541.484603453081
 33
0.0
 14
5712.829581418173
 24
5488.33701822684
 34
0.0
100
AcDbRotatedDimension
1001
ACAD
1000
DSTYLE
1002
{
1070
   287
1070
     4
1070
    75
1070
     1
1070
   279
1070
     1
1002
}
  0
DIMENSION
  5
1CB68
330
747D
100
AcDbEntity
  8
寸法
 48
50.0
100
AcDbDimension
  2
*D31
 10
5617.829581418173
 20
6506.068854554546
 30
0.0
 11
6672.829581418174
 21
6606.083618334072
 31
0.0
 12
2895.816680613256
 22
7443.247473483338
 32
0.0
 70
    32
 71
     5
 42
-1.0
  3
INABA_S50G
100
AcDbAlignedDimension
 13
7727.829581418173
 23
5545.0
 33
0.0
 14
5617.829581418173
 24
5485.0
 34
0.0
100
AcDbRotatedDimension
  0
LINE
  5
1CB69
330
747D
100
AcDbEntity
  8
部品1
 48
50.0
100
AcDbLine
 10
7698.313373122108
 20
5544.466629415619
 30
0.0
 11
5643.15655022303
 21
5486.367362182471
 31
0.0
  0
LINE
  5
1CB6A
330
747D
100
AcDbEntity
  8
細線
 48
50.0
100
AcDbLine
 10
5635.921491990759
 20
5476.025833613869
 30
0.0
 11
7709.638533824348
 21
5526.929326860823
 31
0.0
  0
LINE
  5
1CB6B
330
747D
100
AcDbEntity
  8
部品1
 48
50.0
100
AcDbLine
 10
5645.540699733718
 20
5360.921243435219
 30
0.0
 11
7706.81869835684
 21
5412.160340619768
 31
0.0
  0
LINE
  5
1CB6C
330
747D
100
AcDbEntity
  8
細線
 48
50.0
100
AcDbLine
 10
5627.269963592651
 20
5380.746404000587
 30
0.0
 11
7724.195393715982
 21
5432.315572311723
 31
0.0
  0
LINE
  5
1CB6D
330
747D
100
AcDbEntity
  8
部品1
 48
50.0
100
AcDbLine
 10
7530.329581418175
 20
3275.0
 30
0.0
 11
5775.329581418173
 21
3275.0
 31
0.0
  0
DIMENSION
  5
1CB6E
330
747D
100
AcDbEntity
  8
寸法
 48
50.0
100
AcDbDimension
  2
*D32
 10
5364.899621195021
 20
5169.999999999951
 30
0.0
 11
5264.89962119502
 21
4222.499999999951
 31
0.0
 12
2895.816680613256
 22
7443.247473483338
 32
0.0
 70
    32
 71
     5
 42
-1.0
  3
INABA_S50G
100
AcDbAlignedDimension
 13
5712.829581418172
 23
3274.999999999951
 33
0.0
 14
5782.829581418172
 24
5169.999999999951
 34
0.0
 50
90.0
100
AcDbRotatedDimension
  0
LINE
  5
1CB6F
330
747D
100
AcDbEntity
  8
部品1
 62
     2
 48
50.0
100
AcDbLine
 10
6546.329581418172
 20
5141.999999999951
 30
0.0
 11
6546.329581418172
 21
3274.999999999951
 31
0.0
  0
LINE
  5
1CB70
330
747D
100
AcDbEntity
  8
部品1
 48
50.0
100
AcDbLine
 10
6572.829581418173
 20
5274.999999999951
 30
0.0
 11
6572.829581418172
 21
3274.999999999951
 31
0.0
  0
LINE
  5
1CB71
330
747D
100
AcDbEntity
  8
部品1
 62
     2
 48
50.0
100
AcDbLine
 10
5810.329581418172
 20
5141.999999999951
 30
0.0
 11
5810.329581418172
 21
3274.999999999951
 31
0.0
  0
LINE
  5
1CB72
330
747D
100
AcDbEntity
  8
部品1
 48
50.0
100
AcDbLine
 10
5782.829581418175
 20
5275.0
 30
0.0
 11
5782.829581418173
 21
3275.0
 31
0.0
  0
DIMENSION
  5
1CB73
330
747D
100
AcDbEntity
  8
寸法
 48
50.0
100
AcDbDimension
  2
*D33
 10
5053.338827996754
 20
5485.0
 30
0.0
 11
4953.324064217228
 21
4380.0
 31
0.0
 12
2895.816680613256
 22
7443.247473483338
 32
0.0
 70
    32
 71
     5
 42
-1.0
  3
INABA_S50G
100
AcDbAlignedDimension
 13
5712.829581418173
 23
3275.0
 33
0.0
 14
5617.829581418173
 24
5485.0
 34
0.0
 50
270.0
100
AcDbRotatedDimension
  0
LINE
  5
1CB74
330
747D
100
AcDbEntity
  8
細線
 48
5.0
100
AcDbLine
 10
5636.829581418172
 20
5232.0
 30
0.0
 11
5636.829581418179
 21
4307.500000000001
 31
0.0
  0
LINE
  5
1CB75
330
747D
100
AcDbEntity
  8
細線
 48
5.0
100
AcDbLine
 10
5649.829581418173
 20
5232.0
 30
0.0
 11
5649.82958141818
 21
4307.5
 31
0.0
  0
LINE
  5
1CB76
330
747D
100
AcDbEntity
  8
細線
 48
5.0
100
AcDbLine
 10
5686.829581418173
 20
5232.0
 30
0.0
 11
5686.829581418178
 21
4307.5
 31
0.0
  0
LINE
  5
1CB77
330
747D
100
AcDbEntity
  8
細線
 48
5.0
100
AcDbLine
 10
5673.829581418173
 20
5232.0
 30
0.0
 11
5673.829581418178
 21
4307.5
 31
0.0
  0
LINE
  5
1CB78
330
747D
100
AcDbEntity
  8
部品1
 48
50.0
100
AcDbLine
 10
5712.829581418175
 20
5362.593905516885
 30
0.0
 11
5712.829581418173
 21
3140.0
 31
0.0
  0
LINE
  5
1CB79
330
747D
100
AcDbEntity
  8
部品1
 48
50.0
100
AcDbLine
 10
6942.829581418173
 20
5275.0
 30
0.0
 11
6942.829581418173
 21
3330.0
 31
0.0
  0
LINE
  5
1CB7B
330
747D
100
AcDbEntity
  8
細線
 48
5.0
100
AcDbLine
 10
5636.829581418179
 20
4287.5
 30
0.0
 11
5636.829581418184
 21
3363.0
 31
0.0
  0
LINE
  5
1CB7C
330
747D
100
AcDbEntity
  8
細線
 48
5.0
100
AcDbLine
 10
5649.82958141818
 20
4287.5
 30
0.0
 11
5649.829581418186
 21
3363.0
 31
0.0
  0
LINE
  5
1CB7D
330
747D
100
AcDbEntity
  8
細線
 48
5.0
100
AcDbLine
 10
5673.829581418178
 20
4287.5
 30
0.0
 11
5673.829581418184
 21
3363.0
 31
0.0
  0
LINE
  5
1CB7E
330
747D
100
AcDbEntity
  8
細線
 48
5.0
100
AcDbLine
 10
5686.829581418178
 20
4287.5
 30
0.0
 11
5686.829581418184
 21
3363.0
 31
0.0
  0
LINE
  5
1CB7F
330
747D
100
AcDbEntity
  8
部品1
 62
     2
 48
50.0
100
AcDbLine
 10
5810.329581418172
 20
3308.99999999995
 30
0.0
 11
6546.329581418172
 21
3308.99999999995
 31
0.0
  0
LINE
  5
1CB80
330
747D
100
AcDbEntity
  8
部品1
 62
     2
 48
50.0
100
AcDbLine
 10
5810.329581418172
 20
3317.999999999951
 30
0.0
 11
6546.329581418172
 21
3317.999999999951
 31
0.0
  0
LINE
  5
1CB81
330
747D
100
AcDbEntity
  8
破線
 48
5.0
100
AcDbLine
 10
5854.329581418174
 20
3140.000000000004
 30
0.0
 11
5854.329581418174
 21
2940.000000000002
 31
0.0
  0
LINE
  5
1CB82
330
747D
100
AcDbEntity
  8
破線
 48
5.0
100
AcDbLine
 10
5775.329581418173
 20
3140.0
 30
0.0
 11
5775.329581418175
 21
3030.0
 31
0.0
  0
LINE
  5
1CB83
330
747D
100
AcDbEntity
  8
破線
 48
5.0
100
AcDbLine
 10
5733.329581418173
 20
3140.0
 30
0.0
 11
5733.329581418175
 21
3030.0
 31
0.0
  0
LINE
  5
1CB84
330
747D
100
AcDbEntity
  8
破線
 48
5.0
100
AcDbLine
 10
5654.329581418174
 20
3140.000000000004
 30
0.0
 11
5654.329581418174
 21
2940.000000000002
 31
0.0
  0
LINE
  5
1CB85
330
747D
100
AcDbEntity
  8
破線
 48
5.0
100
AcDbLine
 10
5854.329581418174
 20
2940.000000000002
 30
0.0
 11
5654.329581418173
 21
2940.000000000002
 31
0.0
  0
LINE
  5
1CB86
330
747D
100
AcDbEntity
  8
破線
 48
5.0
100
AcDbLine
 10
5733.329581418175
 20
3030.0
 30
0.0
 11
5775.329581418175
 21
3030.0
 31
0.0
  0
ARC
  5
1CB87
330
747D
100
AcDbEntity
  8
細線
 48
5.0
100
AcDbCircle
 10
5661.829581418182
 20
3226.09258006886
 30
0.0
 40
27.3
100
AcDbArc
 50
280.0
 51
359.9999999999999
  0
ARC
  5
1CB88
330
747D
100
AcDbEntity
  8
細線
 48
5.0
100
AcDbCircle
 10
5691.613616867364
 20
3340.0
 30
0.0
 40
3.0
100
AcDbArc
 50
45.87245712290256
 51
90.0000000000009
  0
LINE
  5
1CB89
330
747D
100
AcDbEntity
  8
細線
 48
5.0
100
AcDbLine
 10
5712.829581418173
 20
3323.6
 30
0.0
 11
5693.702390655737
 21
3342.153375039561
 31
0.0
  0
LINE
  5
1CB8A
330
747D
100
AcDbEntity
  8
細線
 48
5.0
100
AcDbLine
 10
5712.829581418176
 20
3363.0
 30
0.0
 11
5635.629581418172
 21
3363.0
 31
0.0
  0
LINE
  5
1CB8B
330
747D
100
AcDbEntity
  8
細線
 48
5.0
100
AcDbLine
 10
5609.985240505839
 20
3243.74934418412
 30
0.0
 11
5614.375463606392
 21
3191.112019182886
 31
0.0
  0
LINE
  5
1CB8C
330
747D
100
AcDbEntity
  8
細線
 48
5.0
100
AcDbLine
 10
5652.829581418182
 20
3269.5
 30
0.0
 11
5652.829581418182
 21
3216.376514579342
 31
0.0
  0
ARC
  5
1CB8D
330
747D
100
AcDbEntity
  8
細線
 48
5.0
100
AcDbCircle
 10
5615.372003440609
 20
3191.195135720452
 30
0.0
 40
1.0
100
AcDbArc
 50
184.7677271218682
 51
280.0
  0
LINE
  5
1CB8E
330
747D
100
AcDbEntity
  8
細線
 48
5.0
100
AcDbLine
 10
5666.570176668493
 20
3199.207328411627
 30
0.0
 11
5615.545651618273
 21
3190.210327967439
 31
0.0
  0
ARC
  5
1CB8F
330
747D
100
AcDbEntity
  8
細線
 48
5.0
100
AcDbCircle
 10
5635.029581418183
 20
3269.5
 30
0.0
 40
0.5
100
AcDbArc
 50
90.0
 51
179.9999999999998
  0
ARC
  5
1CB90
330
747D
100
AcDbEntity
  8
細線
 48
5.0
100
AcDbCircle
 10
5610.981780340057
 20
3243.832460721685
 30
0.0
 40
1.0
100
AcDbArc
 50
100.0000000000001
 51
184.7677271218682
  0
LINE
  5
1CB91
330
747D
100
AcDbEntity
  8
細線
 48
5.0
100
AcDbLine
 10
5634.529581418183
 20
3249.0
 30
0.0
 11
5639.270176668489
 21
3222.114748342766
 31
0.0
  0
LINE
  5
1CB92
330
747D
100
AcDbEntity
  8
細線
 48
5.0
100
AcDbLine
 10
5634.529581418183
 20
3249.0
 30
0.0
 11
5610.808132162389
 21
3244.817268474697
 31
0.0
  0
LINE
  5
1CB93
330
747D
100
AcDbEntity
  8
細線
 48
5.0
100
AcDbLine
 10
5634.529581418183
 20
3269.5
 30
0.0
 11
5634.529581418183
 21
3249.0
 31
0.0
  0
LINE
  5
1CB94
330
747D
100
AcDbEntity
  8
細線
 48
5.0
100
AcDbLine
 10
5636.829581418184
 20
3343.0
 30
0.0
 11
5636.829581418182
 21
3270.0
 31
0.0
  0
ARC
  5
1CB95
330
747D
100
AcDbEntity
  8
細線
 48
5.0
100
AcDbCircle
 10
5671.329581418182
 20
3269.5
 30
0.0
 40
0.5
100
AcDbArc
 50
90.0
 51
180.0000000000001
  0
ARC
  5
1CB96
330
747D
100
AcDbEntity
  8
細線
 48
5.0
100
AcDbCircle
 10
5688.629581418185
 20
3269.5
 30
0.0
 40
0.5
100
AcDbArc
 50
359.9999999999999
 51
90.0
  0
LINE
  5
1CB97
330
747D
100
AcDbEntity
  8
細線
 48
5.0
100
AcDbLine
 10
5671.329581418182
 20
3270.0
 30
0.0
 11
5688.629581418185
 21
3270.0
 31
0.0
  0
LINE
  5
1CB98
330
747D
100
AcDbEntity
  8
細線
 48
5.0
100
AcDbLine
 10
5689.129581418185
 20
3269.5
 30
0.0
 11
5689.129581418185
 21
3226.09258006886
 31
0.0
  0
LINE
  5
1CB99
330
747D
100
AcDbEntity
  8
細線
 48
5.0
100
AcDbLine
 10
5670.829581418182
 20
3269.5
 30
0.0
 11
5670.829581418182
 21
3219.550400232094
 31
0.0
  0
LINE
  5
1CB9A
330
747D
100
AcDbEntity
  8
細線
 48
5.0
100
AcDbLine
 10
5652.329581418182
 20
3270.0
 30
0.0
 11
5671.329581418182
 21
3270.0
 31
0.0
  0
ARC
  5
1CB9B
330
747D
100
AcDbEntity
  8
細線
 48
5.0
100
AcDbCircle
 10
5652.329581418182
 20
3269.5
 30
0.0
 40
0.5
100
AcDbArc
 50
359.9999999999998
 51
90.0
  0
LINE
  5
1CB9C
330
747D
100
AcDbEntity
  8
細線
 48
5.0
100
AcDbLine
 10
5673.829581418184
 20
3343.0
 30
0.0
 11
5673.829581418182
 21
3270.0
 31
0.0
  0
LINE
  5
1CB9D
330
747D
100
AcDbEntity
  8
細線
 48
5.0
100
AcDbLine
 10
5649.829581418184
 20
3343.0
 30
0.0
 11
5649.829581418182
 21
3270.0
 31
0.0
  0
LINE
  5
1CB9E
330
747D
100
AcDbEntity
  8
細線
 48
5.0
100
AcDbLine
 10
5686.829581418184
 20
3343.0
 30
0.0
 11
5686.829581418182
 21
3270.0
 31
0.0
  0
LINE
  5
1CB9F
330
747D
100
AcDbEntity
  8
細線
 48
5.0
100
AcDbLine
 10
5635.029581418183
 20
3270.0
 30
0.0
 11
5652.329581418182
 21
3270.0
 31
0.0
  0
LINE
  5
1CBA0
330
747D
100
AcDbEntity
  8
細線
 48
5.0
100
AcDbLine
 10
5688.029581418176
 20
3343.0
 30
0.0
 11
5688.029581418177
 21
3363.0
 31
0.0
  0
LINE
  5
1CBA1
330
747D
100
AcDbEntity
  8
細線
 48
5.0
100
AcDbLine
 10
5635.629581418174
 20
3343.0
 30
0.0
 11
5635.629581418172
 21
3363.0
 31
0.0
  0
LINE
  5
1CBA2
330
747D
100
AcDbEntity
  8
細線
 48
5.0
100
AcDbLine
 10
5691.613616867364
 20
3343.0
 30
0.0
 11
5635.629581418172
 21
3342.999999999998
 31
0.0
  0
LINE
  5
1CBA3
330
747D
100
AcDbEntity
  8
部品1
 48
50.0
100
AcDbLine
 10
5733.329581418173
 20
3310.000000000001
 30
0.0
 11
5733.329581418173
 21
3140.0
 31
0.0
  0
LINE
  5
1CBA4
330
747D
100
AcDbEntity
  8
部品1
 48
50.0
100
AcDbLine
 10
5775.329581418171
 20
3310.0
 30
0.0
 11
5775.329581418173
 21
3140.0
 31
0.0
  0
ARC
  5
1CBA5
330
747D
100
AcDbEntity
  8
部品1
 48
50.0
100
AcDbCircle
 10
5738.329581418173
 20
3310.000000000001
 30
0.0
 40
5.0
100
AcDbArc
 50
90.0
 51
179.9999999999993
  0
LINE
  5
1CBA6
330
747D
100
AcDbEntity
  8
部品1
 48
50.0
100
AcDbLine
 10
5738.329581418173
 20
3315.000000000002
 30
0.0
 11
5770.329581418171
 21
3315.0
 31
0.0
  0
ARC
  5
1CBA7
330
747D
100
AcDbEntity
  8
部品1
 48
50.0
100
AcDbCircle
 10
5770.329581418171
 20
3310.0
 30
0.0
 40
5.0
100
AcDbArc
 50
359.9999999999993
 51
90.0
  0
LINE
  5
1CBA8
330
747D
100
AcDbEntity
  8
部品1
 48
50.0
100
AcDbLine
 10
5733.329581418173
 20
3275.0
 30
0.0
 11
5712.829581418173
 21
3275.0
 31
0.0
  0
LINE
  5
1CBA9
330
747D
100
AcDbEntity
  8
部品1
 48
50.0
100
AcDbLine
 10
5912.829581418175
 20
3275.0
 30
0.0
 11
5912.829581418173
 21
3140.0
 31
0.0
  0
LINE
  5
1CBAA
330
747D
100
AcDbEntity
  8
部品1
 48
50.0
100
AcDbLine
 10
6552.829581418173
 20
3275.0
 30
0.0
 11
6552.829581418173
 21
3140.0
 31
0.0
  0
LINE
  5
1CBAB
330
747D
100
AcDbEntity
  8
部品1
 48
50.0
100
AcDbLine
 10
6752.829581418173
 20
3275.0
 30
0.0
 11
6752.829581418173
 21
3140.0
 31
0.0
  0
LINE
  5
1CBAC
330
747D
100
AcDbEntity
  8
細線
 48
5.0
100
AcDbLine
 10
5688.029581418181
 20
4307.5
 30
0.0
 11
5712.829581418176
 21
4327.499999999999
 31
0.0
  0
LINE
  5
1CBAD
330
747D
100
AcDbEntity
  8
細線
 48
5.0
100
AcDbLine
 10
5688.029581418181
 20
4287.5
 30
0.0
 11
5712.829581418176
 21
4267.5
 31
0.0
  0
LINE
  5
1CBAE
330
747D
100
AcDbEntity
  8
細線
 48
5.0
100
AcDbLine
 10
5688.029581418181
 20
4307.5
 30
0.0
 11
5635.629581418171
 21
4307.500000000001
 31
0.0
  0
LINE
  5
1CBAF
330
747D
100
AcDbEntity
  8
細線
 48
5.0
100
AcDbLine
 10
5688.029581418179
 20
4287.5
 30
0.0
 11
5635.629581418171
 21
4287.5
 31
0.0
  0
LINE
  5
1CBB0
330
747D
100
AcDbEntity
  8
細線
 48
5.0
100
AcDbLine
 10
5635.629581418172
 20
4307.5
 30
0.0
 11
5635.629581418171
 21
4287.5
 31
0.0
  0
LINE
  5
1CBB1
330
747D
100
AcDbEntity
  8
細線
 48
5.0
100
AcDbLine
 10
5688.029581418179
 20
4307.5
 30
0.0
 11
5688.029581418179
 21
4287.5
 31
0.0
  0
LINE
  5
1CBB2
330
747D
100
AcDbEntity
  8
部品1
 62
     2
 48
50.0
100
AcDbLine
 10
5874.329581418172
 20
4276.999999999943
 30
0.0
 11
5966.329581418179
 21
4276.999999999943
 31
0.0
  0
LINE
  5
1CBB3
330
747D
100
AcDbEntity
  8
部品1
 62
     2
 48
50.0
100
AcDbLine
 10
5966.329581418179
 20
4260.999999999958
 30
0.0
 11
5874.329581418172
 21
4260.999999999958
 31
0.0
  0
ARC
  5
1CBB4
330
747D
100
AcDbEntity
  8
部品1
 62
     2
 48
50.0
100
AcDbCircle
 10
5874.329581418172
 20
4268.999999999951
 30
0.0
 40
8.0
100
AcDbArc
 50
90.0
 51
270.0
  0
CIRCLE
  5
1CBB5
330
747D
100
AcDbEntity
  8
部品1
 62
     2
 48
50.0
100
AcDbCircle
 10
5874.329581418172
 20
4333.999999999951
 30
0.0
 40
10.0
  0
CIRCLE
  5
1CBB6
330
747D
100
AcDbEntity
  8
部品1
 62
     2
 48
50.0
100
AcDbCircle
 10
5874.329581418172
 20
4485.499999999951
 30
0.0
 40
10.0
  0
ARC
  5
1CBB7
330
747D
100
AcDbEntity
  8
部品1
 62
     2
 48
50.0
100
AcDbCircle
 10
5966.329581418179
 20
4268.999999999951
 30
0.0
 40
8.0
100
AcDbArc
 50
270.0
 51
90.0
  0
CIRCLE
  5
1CBB8
330
747D
100
AcDbEntity
  8
部品1
 62
     2
 48
50.0
100
AcDbCircle
 10
5874.329581418172
 20
4333.999999999951
 30
0.0
 40
20.0
  0
CIRCLE
  5
1CBB9
330
747D
100
AcDbEntity
  8
部品1
 62
     2
 48
50.0
100
AcDbCircle
 10
5874.329581418172
 20
4485.499999999951
 30
0.0
 40
20.0
  0
ARC
  5
1CBBA
330
747D
100
AcDbEntity
  8
部品1
 62
     2
 48
50.0
100
AcDbCircle
 10
5874.329581418172
 20
4268.999999999951
 30
0.0
 40
20.0
100
AcDbArc
 50
23.57817800000002
 51
336.4218220000001
  0
DIMENSION
  5
1CBBB
330
747D
100
AcDbEntity
  8
寸法
 48
50.0
100
AcDbDimension
  2
*D34
 10
5617.829581418173
 20
6238.281130716521
 30
0.0
 11
5285.270526300064
 21
6238.281130716521
 31
0.0
 12
2895.816680613256
 22
7443.247473483338
 32
0.0
 70
   160
 71
     5
 42
-1.0
  3
INABA_S50G
100
AcDbAlignedDimension
 13
5712.829581418173
 23
5488.33701822684
 33
0.0
 14
5617.829581418173
 24
5485.0
 34
0.0
100
AcDbRotatedDimension
1001
ACAD
1000
DSTYLE
1002
{
1002
}
  0
LINE
  5
1CBBC
330
747D
100
AcDbEntity
  8
部品1
 62
     2
 48
50.0
100
AcDbLine
 10
6546.329581418172
 20
5138.999999999951
 30
0.0
 11
5810.329581418172
 21
5138.999999999951
 31
0.0
  0
LINE
  5
1CBBD
330
747D
100
AcDbEntity
  8
部品1
 62
     2
 48
50.0
100
AcDbLine
 10
6572.829581418172
 20
5141.999999999951
 30
0.0
 11
5782.829581418172
 21
5141.999999999951
 31
0.0
  0
LINE
  5
1CBBE
330
747D
100
AcDbEntity
  8
部品1
 62
     2
 48
50.0
100
AcDbLine
 10
6572.829581418172
 20
5169.999999999951
 30
0.0
 11
5782.829581418172
 21
5169.999999999951
 31
0.0
  0
LINE
  5
1CBBF
330
747D
100
AcDbEntity
  8
部品1
100
AcDbLine
 10
5617.916287634871
 20
5458.848097685026
 30
0.0
 11
5626.114720265149
 21
5381.821266955434
 31
0.0
  0
LINE
  5
1CBC0
330
747D
100
AcDbEntity
  8
細線
 48
50.0
100
AcDbLine
 10
5655.186545102817
 20
5486.707450043188
 30
0.0
 11
5659.263069890312
 21
5361.262353105303
 31
0.0
  0
ARC
  5
1CBC1
330
747D
100
AcDbEntity
  8
細線
 48
5.0
100
AcDbCircle
 10
5693.329581418173
 20
5319.809238873037
 30
0.0
 40
1.0
100
AcDbArc
 50
0.000000000000007
 51
90.0
  0
LINE
  5
1CBC2
330
747D
100
AcDbEntity
  8
細線
 48
5.0
100
AcDbLine
 10
5689.129581418176
 20
5300.809238873037
 30
0.0
 11
5693.840959583755
 21
5306.245444448709
 31
0.0
  0
ARC
  5
1CBC3
330
747D
100
AcDbEntity
  8
細線
 48
5.0
100
AcDbCircle
 10
5681.829581418173
 20
5320.809238873036
 30
0.0
 40
10.0
100
AcDbArc
 50
270.0
 51
0.000000000000007
  0
LINE
  5
1CBC4
330
747D
100
AcDbEntity
  8
細線
 48
5.0
100
AcDbLine
 10
5712.829581418173
 20
5360.0
 30
0.0
 11
5691.829581418171
 21
5360.0
 31
0.0
  0
ARC
  5
1CBC5
330
747D
100
AcDbEntity
  8
細線
 48
5.0
100
AcDbCircle
 10
5695.829581418173
 20
5308.0
 30
0.0
 40
3.0
100
AcDbArc
 50
222.3153150487441
 51
270.0
  0
LINE
  5
1CBC6
330
747D
100
AcDbEntity
  8
細線
 48
5.0
100
AcDbLine
 10
5712.829581418171
 20
5271.400000000001
 30
0.0
 11
5693.702390655735
 21
5252.846624960439
 31
0.0
  0
LINE
  5
1CBC7
330
747D
100
AcDbEntity
  8
細線
 48
5.0
100
AcDbLine
 10
5712.829581418175
 20
5232.0
 30
0.0
 11
5635.629581418171
 21
5232.0
 31
0.0
  0
ARC
  5
1CBC8
330
747D
100
AcDbEntity
  8
細線
 48
5.0
100
AcDbCircle
 10
5691.613616867362
 20
5255.0
 30
0.0
 40
3.0
100
AcDbArc
 50
269.999999999999
 51
314.1275428770974
  0
LINE
  5
1CBC9
330
747D
100
AcDbEntity
  8
部品1
100
AcDbLine
 10
5712.829581418173
 20
5315.0
 30
0.0
 11
5712.829581418173
 21
5275.0
 31
0.0
  0
ARC
  5
1CBCA
330
747D
100
AcDbEntity
  8
細線
 48
5.0
100
AcDbCircle
 10
5692.329581418173
 20
5307.555305525544
 30
0.0
 40
2.0
100
AcDbArc
 50
319.085616779975
 51
0.0000000000000579
  0
LINE
  5
1CBCB
330
747D
100
AcDbEntity
  8
細線
 48
5.0
100
AcDbLine
 10
5694.329581418173
 20
5319.809238873037
 30
0.0
 11
5694.329581418173
 21
5307.555305525544
 31
0.0
  0
LINE
  5
1CBCC
330
747D
100
AcDbEntity
  8
細線
 48
5.0
100
AcDbLine
 10
5712.829581418173
 20
5305.0
 30
0.0
 11
5695.829581418173
 21
5305.0
 31
0.0
  0
LINE
  5
1CBCD
330
747D
100
AcDbEntity
  8
細線
 48
5.0
100
AcDbLine
 10
5636.829581418176
 20
5345.809238873036
 30
0.0
 11
5631.82958141817
 21
5345.809238873036
 31
0.0
  0
LINE
  5
1CBCE
330
747D
100
AcDbEntity
  8
細線
 48
5.0
100
AcDbLine
 10
5683.129581418175
 20
5361.85562509697
 30
0.0
 11
5683.129581418175
 21
5350.509238873037
 31
0.0
  0
LINE
  5
1CBCF
330
747D
100
AcDbEntity
  8
細線
 48
5.0
100
AcDbLine
 10
5631.829581418173
 20
5320.809238873036
 30
0.0
 11
5630.329581418173
 21
5320.809238873036
 31
0.0
  0
LINE
  5
1CBD0
330
747D
100
AcDbEntity
  8
細線
 48
5.0
100
AcDbLine
 10
5636.829581418176
 20
5335.509238873037
 30
0.0
 11
5636.829581418176
 21
5345.809238873036
 31
0.0
  0
LINE
  5
1CBD1
330
747D
100
AcDbEntity
  8
細線
 48
5.0
100
AcDbLine
 10
5636.829581418176
 20
5345.809238873036
 30
0.0
 11
5636.829581418176
 21
5345.809238873036
 31
0.0
  0
LINE
  5
1CBD2
330
747D
100
AcDbEntity
  8
細線
 48
5.0
100
AcDbLine
 10
5631.329581418173
 20
5320.809238873036
 30
0.0
 11
5631.329581418173
 21
5320.809238873036
 31
0.0
  0
ARC
  5
1CBD3
330
747D
100
AcDbEntity
  8
細線
 48
5.0
100
AcDbCircle
 10
5630.329581418173
 20
5319.809238873037
 30
0.0
 40
1.0
100
AcDbArc
 50
90.0
 51
180.0
  0
LINE
  5
1CBD4
330
747D
100
AcDbEntity
  8
細線
 48
5.0
100
AcDbLine
 10
5641.029581418177
 20
5333.009238873037
 30
0.0
 11
5641.029581418177
 21
5333.009238873037
 31
0.0
  0
ARC
  5
1CBD5
330
747D
100
AcDbEntity
  8
細線
 48
5.0
100
AcDbCircle
 10
5638.529581418177
 20
5333.009238873037
 30
0.0
 40
2.5
100
AcDbArc
 50
0.000000000000007
 51
90.0
  0
ARC
  5
1CBD6
330
747D
100
AcDbEntity
  8
細線
 48
5.0
100
AcDbCircle
 10
5643.529581418177
 20
5333.009238873037
 30
0.0
 40
2.5
100
AcDbArc
 50
180.0
 51
270.0
  0
LINE
  5
1CBD7
330
747D
100
AcDbEntity
  8
細線
 48
5.0
100
AcDbLine
 10
5638.529581418177
 20
5335.509238873037
 30
0.0
 11
5636.829581418176
 21
5335.509238873037
 31
0.0
  0
LINE
  5
1CBD8
330
747D
100
AcDbEntity
  8
細線
 48
5.0
100
AcDbLine
 10
5631.829581418173
 20
5320.809238873036
 30
0.0
 11
5631.829581418173
 21
5345.809238873036
 31
0.0
  0
LINE
  5
1CBD9
330
747D
100
AcDbEntity
  8
細線
 48
5.0
100
AcDbLine
 10
5693.329581418173
 20
5320.809238873036
 30
0.0
 11
5691.829581418173
 21
5320.809238873036
 31
0.0
  0
LINE
  5
1CBDA
330
747D
100
AcDbEntity
  8
細線
 48
5.0
100
AcDbLine
 10
5692.329581418173
 20
5320.809238873036
 30
0.0
 11
5692.329581418173
 21
5320.809238873036
 31
0.0
  0
LINE
  5
1CBDB
330
747D
100
AcDbEntity
  8
細線
 48
5.0
100
AcDbLine
 10
5691.829581418173
 20
5359.809238873037
 30
0.0
 11
5691.829581418173
 21
5332.809238873037
 31
0.0
  0
LINE
  5
1CBDC
330
747D
100
AcDbEntity
  8
細線
 48
5.0
100
AcDbLine
 10
5691.829581418176
 20
5362.071889058359
 30
0.0
 11
5691.829581418173
 21
5320.809238873036
 31
0.0
  0
ARC
  5
1CBDD
330
747D
100
AcDbEntity
  8
細線
 48
5.0
100
AcDbCircle
 10
5663.129581418176
 20
5350.509238873037
 30
0.0
 40
20.0
100
AcDbArc
 50
270.0
 51
359.9999999999999
  0
LINE
  5
1CBDE
330
747D
100
AcDbEntity
  8
細線
 48
5.0
100
AcDbLine
 10
5663.129581418176
 20
5330.509238873037
 30
0.0
 11
5643.529581418177
 21
5330.509238873037
 31
0.0
  0
LINE
  5
1CBDF
330
747D
100
AcDbEntity
  8
細線
 48
5.0
100
AcDbLine
 10
5634.529581418178
 20
5300.809238873037
 30
0.0
 11
5629.818203252595
 21
5306.245444448709
 31
0.0
  0
ARC
  5
1CBE0
330
747D
100
AcDbEntity
  8
細線
 48
5.0
100
AcDbCircle
 10
5631.329581418173
 20
5307.555305525544
 30
0.0
 40
2.0
100
AcDbArc
 50
180.0
 51
220.9143832200251
  0
ARC
  5
1CBE1
330
747D
100
AcDbEntity
  8
細線
 48
5.0
100
AcDbCircle
 10
5635.029581418177
 20
5287.309238873036
 30
0.0
 40
0.5
100
AcDbArc
 50
180.0
 51
270.0
  0
LINE
  5
1CBE2
330
747D
100
AcDbEntity
  8
細線
 48
5.0
100
AcDbLine
 10
5636.829581418171
 20
5286.809238873036
 30
0.0
 11
5636.829581418172
 21
5252.0
 31
0.0
  0
LINE
  5
1CBE3
330
747D
100
AcDbEntity
  8
細線
 48
5.0
100
AcDbLine
 10
5649.829581418177
 20
5286.809238873036
 30
0.0
 11
5649.829581418173
 21
5252.0
 31
0.0
  0
LINE
  5
1CBE4
330
747D
100
AcDbEntity
  8
細線
 48
5.0
100
AcDbLine
 10
5634.529581418178
 20
5300.809238873037
 30
0.0
 11
5634.529581418178
 21
5287.309238873036
 31
0.0
  0
LINE
  5
1CBE5
330
747D
100
AcDbEntity
  8
細線
 48
5.0
100
AcDbLine
 10
5652.829581418173
 20
5290.809238873037
 30
0.0
 11
5652.829581418173
 21
5286.809238873036
 31
0.0
  0
LINE
  5
1CBE6
330
747D
100
AcDbEntity
  8
細線
 48
5.0
100
AcDbLine
 10
5667.829581418173
 20
5293.809238873037
 30
0.0
 11
5655.829581418173
 21
5293.809238873037
 31
0.0
  0
LINE
  5
1CBE7
330
747D
100
AcDbEntity
  8
細線
 48
5.0
100
AcDbLine
 10
5670.829581418173
 20
5290.809238873037
 30
0.0
 11
5670.829581418173
 21
5286.809238873036
 31
0.0
  0
LINE
  5
1CBE8
330
747D
100
AcDbEntity
  8
細線
 48
5.0
100
AcDbLine
 10
5673.829581418173
 20
5286.809238873036
 30
0.0
 11
5673.829581418173
 21
5252.0
 31
0.0
  0
ARC
  5
1CBE9
330
747D
100
AcDbEntity
  8
細線
 48
5.0
100
AcDbCircle
 10
5667.829581418173
 20
5290.809238873037
 30
0.0
 40
3.0
100
AcDbArc
 50
0.000000000000007
 51
90.0
  0
ARC
  5
1CBEA
330
747D
100
AcDbEntity
  8
細線
 48
5.0
100
AcDbCircle
 10
5688.629581418176
 20
5287.309238873036
 30
0.0
 40
0.5
100
AcDbArc
 50
270.0
 51
0.000000000000007
  0
LINE
  5
1CBEB
330
747D
100
AcDbEntity
  8
細線
 48
5.0
100
AcDbLine
 10
5686.829581418178
 20
5286.809238873036
 30
0.0
 11
5686.829581418173
 21
5252.0
 31
0.0
  0
LINE
  5
1CBEC
330
747D
100
AcDbEntity
  8
細線
 48
5.0
100
AcDbLine
 10
5689.129581418176
 20
5300.809238873037
 30
0.0
 11
5689.129581418176
 21
5287.309238873036
 31
0.0
  0
LINE
  5
1CBED
330
747D
100
AcDbEntity
  8
細線
 48
5.0
100
AcDbLine
 10
5681.829581418173
 20
5310.809238873037
 30
0.0
 11
5641.829581418173
 21
5310.809238873037
 31
0.0
  0
LINE
  5
1CBEE
330
747D
100
AcDbEntity
  8
細線
 48
5.0
100
AcDbLine
 10
5688.629581418176
 20
5286.809238873036
 30
0.0
 11
5635.029581418177
 21
5286.809238873036
 31
0.0
  0
ARC
  5
1CBEF
330
747D
100
AcDbEntity
  8
細線
 48
5.0
100
AcDbCircle
 10
5655.829581418173
 20
5290.809238873037
 30
0.0
 40
3.0
100
AcDbArc
 50
90.0
 51
180.0
  0
ARC
  5
1CBF0
330
747D
100
AcDbEntity
  8
細線
 48
5.0
100
AcDbCircle
 10
5641.829581418173
 20
5320.809238873036
 30
0.0
 40
10.0
100
AcDbArc
 50
180.0
 51
270.0
  0
LINE
  5
1CBF1
330
747D
100
AcDbEntity
  8
細線
 48
5.0
100
AcDbLine
 10
5629.329581418173
 20
5319.809238873037
 30
0.0
 11
5629.329581418173
 21
5307.555305525544
 31
0.0
  0
LINE
  5
1CBF2
330
747D
100
AcDbEntity
  8
部品1
100
AcDbLine
 10
5629.482399800952
 20
5378.52600755111
 30
0.0
 11
5629.881238878695
 21
5374.778790062708
 31
0.0
  0
ARC
  5
1CBF3
330
747D
100
AcDbEntity
  8
部品1
 48
50.0
100
AcDbCircle
 10
5627.307980296041
 20
5381.948272855596
 30
0.0
 40
1.199999999999999
100
AcDbArc
 50
186.0754638750989
 51
265.1699938773959
  0
ARC
  5
1CBF4
330
747D
100
AcDbEntity
  8
部品1
 48
50.0
100
AcDbCircle
 10
5626.996441403258
 20
5378.261411925771
 30
0.0
 40
2.5
100
AcDbArc
 50
6.075463875091184
 51
85.16999387739907
  0
ARC
  5
1CBF5
330
747D
100
AcDbEntity
  8
部品1
100
AcDbCircle
 10
5645.294180944379
 20
5376.419282939831
 30
0.0
 40
15.5
100
AcDbArc
 50
186.0754638750791
 51
270.9112955958145
  0
LINE
  5
1CBF6
330
747D
100
AcDbEntity
  8
細線
 48
5.0
100
AcDbLine
 10
5691.613616867362
 20
5252.0
 30
0.0
 11
5635.629581418171
 21
5252.0
 31
0.0
  0
LINE
  5
1CBF7
330
747D
100
AcDbEntity
  8
細線
 48
5.0
100
AcDbLine
 10
5635.629581418172
 20
5252.0
 30
0.0
 11
5635.629581418171
 21
5232.0
 31
0.0
  0
LINE
  5
1CBF8
330
747D
100
AcDbEntity
  8
細線
 48
5.0
100
AcDbLine
 10
5688.029581418174
 20
5252.0
 30
0.0
 11
5688.029581418176
 21
5232.0
 31
0.0
  0
LINE
  5
1CBF9
330
747D
100
AcDbEntity
  8
部品1
100
AcDbLine
 10
5637.323376691623
 20
5477.055403573377
 30
0.0
 11
5639.939382888231
 21
5484.088160010451
 31
0.0
  0
ARC
  5
1CBFA
330
747D
100
AcDbEntity
  8
部品1
100
AcDbCircle
 10
5633.329581418173
 20
5460.485286065472
 30
0.0
 40
15.5
100
AcDbArc
 50
91.86125648319634
 51
186.0754638750989
  0
ARC
  5
1CBFB
330
747D
100
AcDbEntity
  8
部品1
100
AcDbCircle
 10
5643.219786405294
 20
5482.867933488349
 30
0.0
 40
3.5
100
AcDbArc
 50
91.03524671598787
 51
159.5960814224235
  0
ARC
  5
1CBFC
330
747D
100
AcDbEntity
  8
部品1
100
AcDbCircle
 10
5635.897882695188
 20
5477.525647802748
 30
0.0
 40
1.5
100
AcDbArc
 50
270.9018459011011
 51
339.5960814224101
  0
LINE
  5
1CBFD
330
747D
100
AcDbEntity
  8
部品1
 48
50.0
100
AcDbLine
 10
5635.921491990759
 20
5476.025833613869
 30
0.0
 11
5632.826151637424
 21
5475.977108374543
 31
0.0
  0
LINE
  5
1CBFE
330
747D
100
AcDbEntity
  8
部品1
 48
50.0
100
AcDbLine
 10
7522.829581418173
 20
5275.0
 30
0.0
 11
7522.829581418173
 21
3275.0
 31
0.0
  0
DIMENSION
  5
1CBFF
330
747D
100
AcDbEntity
  8
寸法
 48
50.0
100
AcDbDimension
  2
*D35
 10
8626.995501716562
 20
3275.0
 30
0.0
 11
8526.980737937035
 21
4410.0
 31
0.0
 12
2895.816680613256
 22
7443.247473483338
 32
0.0
 70
    32
 71
     5
 42
-1.0
  3
INABA_S50G
100
AcDbAlignedDimension
 13
7727.829581418174
 23
5545.0
 33
0.0
 14
7592.829581418174
 24
3275.0
 34
0.0
 50
270.0
100
AcDbRotatedDimension
  0
LINE
  5
1CC00
330
747D
100
AcDbEntity
  8
部品1
 48
50.0
100
AcDbLine
 10
7592.829581418176
 20
5409.326807518119
 30
0.0
 11
7592.829581418174
 21
3140.0
 31
0.0
  0
DIMENSION
  5
1CC01
330
747D
100
AcDbEntity
  8
寸法
 48
50.0
100
AcDbDimension
  2
*D36
 10
8318.949297310764
 20
5275.0
 30
0.0
 11
8218.949297310761
 21
4302.500000000001
 31
0.0
 70
    32
 71
     5
 42
-1.0
  3
INABA_S50G
100
AcDbAlignedDimension
 13
7592.829581418174
 23
3330.0
 33
0.0
 14
7592.829581418174
 24
5275.0
 34
0.0
 50
270.0
100
AcDbRotatedDimension
1001
ACAD
1000
DSTYLE
1002
{
1070
   287
1070
     4
1070
    75
1070
     1
1070
   279
1070
     1
1002
}
  0
DIMENSION
  5
1CC02
330
747D
100
AcDbEntity
  8
寸法
 48
50.0
100
AcDbDimension
  2
*D37
 10
8318.949297310764
 20
3330.0
 30
0.0
 11
8318.949297310764
 21
2964.420494177466
 31
0.0
 12
2895.816680613256
 22
7443.247473483338
 32
0.0
 70
   160
 71
     5
 42
-1.0
  3
INABA_S50G
100
AcDbAlignedDimension
 13
7592.829581418174
 23
3275.0
 33
0.0
 14
7592.829581418174
 24
3330.0
 34
0.0
 50
270.0
100
AcDbRotatedDimension
  0
LINE
  5
1CC03
330
747D
100
AcDbEntity
  8
破線
 48
5.0
100
AcDbLine
 10
7451.329581418171
 20
2940.000000000002
 30
0.0
 11
7651.329581418173
 21
2940.000000000002
 31
0.0
  0
LINE
  5
1CC04
330
747D
100
AcDbEntity
  8
破線
 48
5.0
100
AcDbLine
 10
7451.329581418171
 20
3140.000000000004
 30
0.0
 11
7451.329581418171
 21
2940.000000000002
 31
0.0
  0
LINE
  5
1CC05
330
747D
100
AcDbEntity
  8
破線
 48
5.0
100
AcDbLine
 10
7530.329581418174
 20
3140.0
 30
0.0
 11
7530.329581418171
 21
3030.0
 31
0.0
  0
LINE
  5
1CC06
330
747D
100
AcDbEntity
  8
破線
 48
5.0
100
AcDbLine
 10
7572.329581418173
 20
3140.0
 30
0.0
 11
7572.329581418171
 21
3030.0
 31
0.0
  0
LINE
  5
1CC07
330
747D
100
AcDbEntity
  8
破線
 48
5.0
100
AcDbLine
 10
7572.329581418171
 20
3030.0
 30
0.0
 11
7530.329581418171
 21
3030.0
 31
0.0
  0
LINE
  5
1CC08
330
747D
100
AcDbEntity
  8
部品1
 48
50.0
100
AcDbLine
 10
7392.829581418171
 20
3275.0
 30
0.0
 11
7392.829581418173
 21
3140.0
 31
0.0
  0
LINE
  5
1CC09
330
747D
100
AcDbEntity
  8
部品1
 48
50.0
100
AcDbLine
 10
7567.329581418173
 20
3315.000000000002
 30
0.0
 11
7535.329581418174
 21
3315.0
 31
0.0
  0
LINE
  5
1CC0A
330
747D
100
AcDbEntity
  8
部品1
 48
50.0
100
AcDbLine
 10
7572.329581418173
 20
3310.000000000001
 30
0.0
 11
7572.329581418173
 21
3140.0
 31
0.0
  0
ARC
  5
1CC0B
330
747D
100
AcDbEntity
  8
部品1
 48
50.0
100
AcDbCircle
 10
7567.329581418173
 20
3310.000000000001
 30
0.0
 40
5.0
100
AcDbArc
 50
0.0000000000006177
 51
90.0
  0
LINE
  5
1CC0C
330
747D
100
AcDbEntity
  8
部品1
 48
50.0
100
AcDbLine
 10
7530.329581418175
 20
3310.0
 30
0.0
 11
7530.329581418174
 21
3140.0
 31
0.0
  0
ARC
  5
1CC0D
330
747D
100
AcDbEntity
  8
部品1
 48
50.0
100
AcDbCircle
 10
7535.329581418174
 20
3310.0
 30
0.0
 40
5.0
100
AcDbArc
 50
90.0
 51
180.0000000000006
  0
LINE
  5
1CC0E
330
747D
100
AcDbEntity
  8
部品1
 48
50.0
100
AcDbLine
 10
7592.829581418174
 20
3275.0
 30
0.0
 11
7572.329581418175
 21
3275.0
 31
0.0
  0
LINE
  5
1CC0F
330
747D
100
AcDbEntity
  8
破線
 48
5.0
100
AcDbLine
 10
7651.329581418171
 20
3140.000000000004
 30
0.0
 11
7651.329581418171
 21
2940.000000000002
 31
0.0
  0
DIMENSION
  5
1CC10
330
747D
100
AcDbEntity
  8
寸法
 48
50.0
100
AcDbDimension
  2
*D38
 10
7592.829581418175
 20
6238.281130716521
 30
0.0
 11
8000.936183135973
 21
6238.281130716521
 31
0.0
 12
2895.816680613256
 22
7443.247473483338
 32
0.0
 70
   160
 71
     5
 42
-1.0
  3
INABA_S50G
100
AcDbAlignedDimension
 13
7727.829581418174
 23
5545.0
 33
0.0
 14
7592.829581418175
 24
5541.484603453081
 34
0.0
100
AcDbRotatedDimension
  0
INSERT
  5
1CC11
330
747D
100
AcDbEntity
  8
寸法
 48
50.0
100
AcDbBlockReference
  2
A$C019569EB
 10
7707.206986333152
 20
5396.540160476436
 30
0.0
 50
1.423961033388455
  0
ARC
  5
1CC12
330
747D
100
AcDbEntity
  8
部品1
100
AcDbCircle
 10
7712.329581418173
 20
5511.471940894553
 30
0.0
 40
15.5
100
AcDbArc
 50
358.1167995116895
 51
91.86125648319634
  0
LINE
  5
1CC13
330
747D
100
AcDbEntity
  8
細線
 48
50.0
100
AcDbLine
 10
7689.232849440394
 20
5544.266424339621
 30
0.0
 11
7693.534207577513
 21
5411.902630028745
 31
0.0
  0
LINE
  5
1CC14
330
747D
100
AcDbEntity
  8
部品1
100
AcDbLine
 10
7727.821209779879
 20
5510.962577858223
 30
0.0
 11
7725.273355277775
 21
5433.472826441324
 31
0.0
  0
LINE
  5
1CC15
330
747D
100
AcDbEntity
  8
部品1
100
AcDbLine
 10
7722.155581542444
 20
5429.940194712308
 30
0.0
 11
7722.063807929206
 21
5427.149017088035
 31
0.0
  0
ARC
  5
1CC16
330
747D
100
AcDbEntity
  8
部品1
100
AcDbCircle
 10
7724.074003404609
 20
5433.512260998977
 30
0.0
 40
1.199999999999999
100
AcDbArc
 50
279.0222695094722
 51
358.1167995116895
  0
ARC
  5
1CC17
330
747D
100
AcDbEntity
  8
部品1
100
AcDbCircle
 10
7724.654231278201
 20
5429.858039383868
 30
0.0
 40
2.5
100
AcDbArc
 50
99.02226950947451
 51
178.1167995116955
  0
ARC
  5
1CC18
330
747D
100
AcDbEntity
  8
部品1
100
AcDbCircle
 10
7706.5721795675
 20
5427.658380124383
 30
0.0
 40
15.5
100
AcDbArc
 50
270.9112955958145
 51
358.1167995116315
  0
LINE
  5
1CC19
330
747D
100
AcDbEntity
  8
部品1
100
AcDbLine
 10
7708.251028758495
 20
5527.804810746245
 30
0.0
 11
7701.559032768358
 21
5542.423971429562
 31
0.0
  0
ARC
  5
1CC1A
330
747D
100
AcDbEntity
  8
部品1
 48
50.0
100
AcDbCircle
 10
7698.376609304372
 20
5540.967200721498
 30
0.0
 40
3.5
100
AcDbArc
 50
24.59618196436618
 51
91.03524671598787
  0
LINE
  5
1CC1B
330
747D
100
AcDbEntity
  8
部品1
 48
50.0
100
AcDbLine
 10
7709.638533824348
 20
5526.929326860823
 30
0.0
 11
7711.826151637431
 21
5526.963763203625
 31
0.0
  0
ARC
  5
1CC1C
330
747D
100
AcDbEntity
  8
部品1
100
AcDbCircle
 10
7709.614924528776
 20
5528.429141049702
 30
0.0
 40
1.5
100
AcDbArc
 50
204.5961819643761
 51
270.9018459011026
  0
LINE
  5
1CD4D
330
747D
100
AcDbEntity
  8
部品1
 48
50.0
100
AcDbLine
 10
14532.82958141817
 20
9878.736797361931
 30
0.0
 11
14497.82958141817
 21
9878.736797361931
 31
0.0
  0
LINE
  5
1CD4E
330
747D
100
AcDbEntity
  8
部品1
 48
50.0
100
AcDbLine
 10
14497.82958141817
 20
9860.736797361926
 30
0.0
 11
14482.82958141817
 21
9860.736797361926
 31
0.0
  0
LINE
  5
1CD4F
330
747D
100
AcDbEntity
  8
部品1
 48
50.0
100
AcDbLine
 10
14497.82958141817
 20
9896.736797361926
 30
0.0
 11
14482.82958141817
 21
9896.736797361926
 31
0.0
  0
LINE
  5
1CD50
330
747D
100
AcDbEntity
  8
部品1
 48
50.0
100
AcDbLine
 10
12072.82958141817
 20
9878.736797361931
 30
0.0
 11
12107.82958141817
 21
9878.736797361931
 31
0.0
  0
LINE
  5
1CD51
330
747D
100
AcDbEntity
  8
部品1
 48
50.0
100
AcDbLine
 10
12107.82958141817
 20
9896.736797361926
 30
0.0
 11
12122.82958141817
 21
9896.736797361926
 31
0.0
  0
LINE
  5
1CD52
330
747D
100
AcDbEntity
  8
部品1
 48
50.0
100
AcDbLine
 10
12107.82958141817
 20
9860.736797361926
 30
0.0
 11
12122.82958141817
 21
9860.736797361926
 31
0.0
  0
LINE
  5
1CE49
330
747D
100
AcDbEntity
  8
部品1
 62
     2
 48
50.0
100
AcDbLine
 10
12022.82958360308
 20
3275.0
 30
0.0
 11
12022.82958360308
 21
5164.0
 31
0.0
  0
LINE
  5
1CE4A
330
747D
100
AcDbEntity
  8
部品1
 62
     2
 48
50.0
100
AcDbLine
 10
12022.82958360308
 20
5164.0
 30
0.0
 11
12072.82958360308
 21
5170.0
 31
0.0
  0
DIMENSION
  5
1CE4B
330
747D
100
AcDbEntity
  8
寸法
 48
50.0
100
AcDbDimension
  2
*D39
 10
12022.82958360308
 20
2840.691229236385
 30
0.0
 11
11790.27052848497
 21
2840.691229236385
 31
0.0
 12
924.8210564885267
 22
7904.153781328314
 32
0.0
 70
   160
 71
     5
 42
-1.0
  3
INABA_S50G
100
AcDbAlignedDimension
 13
12072.82958360308
 23
3140.0
 33
0.0
 14
12022.82958360308
 24
3275.0
 34
0.0
100
AcDbRotatedDimension
  0
LINE
  5
1CE4C
330
747D
100
AcDbEntity
  8
部品1
 62
     2
 48
50.0
100
AcDbLine
 10
12072.82958360308
 20
3275.0
 30
0.0
 11
12022.82958360308
 21
3275.0
 31
0.0
  0
LINE
  5
1CE5B
330
747D
100
AcDbEntity
  8
部品1
 48
50.0
100
AcDbLine
 10
12704.82958141816
 20
11073.73679736229
 30
0.0
 11
12704.82958141816
 21
11058.73679736229
 31
0.0
  0
LINE
  5
1CE5C
330
747D
100
AcDbEntity
  8
部品1
 48
50.0
100
AcDbLine
 10
12722.82958141816
 20
11073.73679736229
 30
0.0
 11
12722.82958141817
 21
11108.73679736229
 31
0.0
  0
LINE
  5
1CE5D
330
747D
100
AcDbEntity
  8
部品1
 48
50.0
100
AcDbLine
 10
12740.82958141816
 20
11073.73679736229
 30
0.0
 11
12740.82958141816
 21
11058.73679736229
 31
0.0
  0
INSERT
  5
1D069
330
747D
100
AcDbEntity
  8
部品1
 48
50.0
100
AcDbBlockReference
  2
A$C5FCD7CC6
 10
7702.293191979281
 20
11500.94604722332
 30
0.0
 50
359.3813630597402
  0
DIMENSION
  5
1D06A
330
747D
100
AcDbEntity
  8
寸法
 48
50.0
100
AcDbDimension
  2
*D43
 10
7592.829581418175
 20
12327.01792807845
 30
0.0
 11
8010.388636536291
 21
12327.01792807845
 31
0.0
 70
   160
 71
     5
 42
-1.0
  3
INABA_S50G
100
AcDbAlignedDimension
 13
7727.829581418174
 23
11633.73679736192
 33
0.0
 14
7592.829581418175
 24
11631.29728927304
 34
0.0
100
AcDbRotatedDimension
  0
MTEXT
  5
1D06B
102
{ACAD_REACTORS
330
1D06C
102
}
330
747D
100
AcDbEntity
  8
寸法
 62
     7
 48
50.0
100
AcDbMText
 10
7975.640527615016
 20
12174.04804154394
 30
0.0
 40
150.0
 41
0.0
 71
     4
 72
     1
  1
\A1;鼻隠シ前
  7
STYLE1
 73
     1
 44
1.0
  0
LEADER
  5
1D06C
330
747D
100
AcDbEntity
  8
寸法
 48
50.0
100
AcDbLeader
  3
INABA_S50G
 71
     0
 73
     0
 74
     0
 75
     1
 40
150.0
 41
697.5
 76
     3
 10
7726.960128916935
 20
11573.51069687733
 30
0.0
 10
7825.640527615016
 20
12074.04804154394
 30
0.0
 10
7950.640527615016
 20
12074.04804154394
 30
0.0
340
1D06B
1001
ACAD
1000
DSTYLE
1002
{
1070
     6
1000
DOTSMALL
1002
}
  0
MTEXT
  5
1D06D
102
{ACAD_REACTORS
330
1D0DB
102
}
330
747D
100
AcDbEntity
  8
寸法
 62
     7
 48
50.0
100
AcDbMText
 10
6074.658491557251
 20
11805.29159607865
 30
0.0
 40
150.0
 41
0.0
 71
     6
 72
     1
  1
\A1;妻板
  7
STYLE1
 73
     1
 44
1.0
  0
DIMENSION
  5
1D06E
330
747D
100
AcDbEntity
  8
寸法
 48
50.0
100
AcDbDimension
  2
*D44
 10
5617.829581418175
 20
12327.01792807844
 30
0.0
 11
5285.270526300067
 21
12327.01792807844
 31
0.0
 70
   160
 71
     5
 42
-1.0
  3
INABA_S50G
100
AcDbAlignedDimension
 13
5712.829581418175
 23
11576.36318119755
 33
0.0
 14
5617.829581418175
 24
11573.73679736192
 34
0.0
100
AcDbRotatedDimension
1001
ACAD
1000
DSTYLE
1002
{
1002
}
  0
MTEXT
  5
1D06F
102
{ACAD_REACTORS
330
1D070
102
}
330
747D
100
AcDbEntity
  8
寸法
 62
     7
 48
50.0
100
AcDbMText
 10
5267.416291219705
 20
11900.91283849599
 30
0.0
 40
150.0
 41
0.0
 71
     6
 72
     1
  1
\A1;鼻隠シ後
  7
STYLE1
 73
     1
 44
1.0
  0
LEADER
  5
1D070
330
747D
100
AcDbEntity
  8
寸法
 48
50.0
100
AcDbLeader
  3
INABA_S50G
 71
     0
 73
     0
 75
     1
 40
150.0
 41
719.9999999999995
 76
     3
 10
5621.637200176597
 20
11559.39745668354
 30
0.0
 10
5417.416291219705
 20
11800.91283849599
 30
0.0
 10
5292.416291219705
 20
11800.91283849599
 30
0.0
340
1D06F
1001
ACAD
1000
DSTYLE
1002
{
1070
     6
1000
DOTSMALL
1002
}
  0
DIMENSION
  5
1D071
330
747D
100
AcDbEntity
  8
寸法
 48
50.0
100
AcDbDimension
  2
*D45
 10
5712.829581418175
 20
12327.01792807844
 30
0.0
 11
6652.829581418174
 21
12427.01792807844
 31
0.0
 70
    32
  1
柱外寸法 <>
 71
     5
 42
-1.0
  3
INABA_S50G
100
AcDbAlignedDimension
 13
7592.829581418175
 23
11588.73679736192
 33
0.0
 14
5712.829581418175
 24
11576.36318119755
 34
0.0
100
AcDbRotatedDimension
1001
ACAD
1000
DSTYLE
1002
{
1070
   287
1070
     4
1070
    75
1070
     1
1070
   279
1070
     1
1002
}
  0
MTEXT
  5
1D072
102
{ACAD_REACTORS
330
1D073
102
}
330
747D
100
AcDbEntity
  8
部品1
 62
     7
 48
50.0
100
AcDbMText
 10
7161.658676662394
 20
12029.0405129501
 30
0.0
 40
150.0
 41
0.0
 71
     6
 72
     1
  1
\A1;屋根パネル
  7
STYLE1
 73
     1
 44
1.0
  0
LEADER
  5
1D073
330
747D
100
AcDbEntity
  8
寸法
 48
50.0
100
AcDbLeader
  3
INABA_S50G
 71
     0
 73
     0
 75
     1
 40
150.0
 41
900.0
 76
     3
 10
7443.781098438512
 20
11600.03473650936
 30
0.0
 10
7311.658676662394
 20
11929.0405129501
 30
0.0
 10
7186.658676662394
 20
11929.0405129501
 30
0.0
340
1D072
1001
ACAD
1000
DSTYLE
1002
{
1070
     6
1000
DOTSMALL
1002
}
  0
MTEXT
  5
1D074
102
{ACAD_REACTORS
330
1D086
102
}
330
747D
100
AcDbEntity
  8
寸法
 62
     7
 48
50.0
100
AcDbMText
 10
6616.744357697417
 20
11811.40987824753
 30
0.0
 40
150.0
 41
0.0
 71
     4
 72
     1
  1
\A1;母屋中
  7
STYLE1
 73
     1
 44
1.0
  0
DIMENSION
  5
1D075
330
747D
100
AcDbEntity
  8
寸法
 48
50.0
100
AcDbDimension
  2
*D46
 10
5617.829581418175
 20
12643.1736988701
 30
0.0
 11
6672.829581418175
 21
12743.18846264963
 31
0.0
 70
    32
 71
     5
 42
-1.0
  3
INABA_S50G
100
AcDbAlignedDimension
 13
7727.829581418174
 23
11633.73679736192
 33
0.0
 14
5617.829581418175
 24
11573.73679736192
 34
0.0
100
AcDbRotatedDimension
  0
LINE
  5
1D076
330
747D
100
AcDbEntity
  8
Ｇ．Ｌ
 48
50.0
100
AcDbLine
 10
9636.65407475014
 20
9228.736797361928
 30
0.0
 11
3928.887401127778
 21
9228.736797361928
 31
0.0
  0
LINE
  5
1D077
330
747D
100
AcDbEntity
  8
部品1
 48
50.0
100
AcDbLine
 10
7592.829581418175
 20
9363.736797361928
 30
0.0
 11
5712.829581418175
 21
9363.736797361928
 31
0.0
  0
LINE
  5
1D078
330
747D
100
AcDbEntity
  8
部品1
 48
50.0
100
AcDbLine
 10
7542.329581418174
 20
9470.736797361928
 30
0.0
 11
5763.329581418175
 21
9470.736797361928
 31
0.0
  0
LINE
  5
1D079
330
747D
100
AcDbEntity
  8
細線
 48
50.0
100
AcDbLine
 10
5763.329581418175
 20
9418.736797361928
 30
0.0
 11
7542.329581418174
 21
9418.736797361928
 31
0.0
  0
LINE
  5
1D07A
330
747D
100
AcDbEntity
  8
細線
 48
50.0
100
AcDbLine
 10
7542.329581418174
 20
9430.736797361928
 30
0.0
 11
5763.329581418175
 21
9430.736797361928
 31
0.0
  0
TEXT
  5
1D07B
330
747D
100
AcDbEntity
  8
部品1
100
AcDbText
 10
6174.382105905163
 20
7404.64735133616
 30
0.0
 40
225.0
  1
断面図
  7
STYLE2
100
AcDbText
  0
LINE
  5
1D07C
330
747D
100
AcDbEntity
  8
部品1
100
AcDbLine
 10
7289.05513660854
 20
7709.831477053232
 30
0.0
 11
6016.60402622781
 21
7709.831477053232
 31
0.0
  0
LINE
  5
1D07D
330
747D
100
AcDbEntity
  8
部品1
100
AcDbLine
 10
6016.60402622781
 20
7310.010941144016
 30
0.0
 11
7289.05513660854
 21
7310.010941144016
 31
0.0
  0
MTEXT
  5
1D07E
102
{ACAD_REACTORS
330
1D07F
102
}
330
747D
100
AcDbEntity
  8
部品1
 62
     7
 48
50.0
100
AcDbMText
 10
7001.063726069702
 20
8716.282041753688
 30
0.0
 40
150.0
 41
0.0
 71
     4
 72
     1
  1
\A1;根太
  7
STYLE1
 73
     1
 44
1.0
  0
LEADER
  5
1D07F
330
747D
100
AcDbEntity
  8
寸法
 48
50.0
100
AcDbLeader
  3
INABA_S50G
 71
     0
 73
     0
 74
     0
 75
     1
 40
150.0
 41
330.0
 76
     3
 10
6672.829581418175
 20
9382.720225286986
 30
0.0
 10
6851.063726069702
 20
8616.282041753688
 30
0.0
 10
6976.063726069702
 20
8616.282041753688
 30
0.0
340
1D07E
1001
ACAD
1000
DSTYLE
1002
{
1070
     6
1000
DOTSMALL
1002
}
  0
LINE
  5
1D080
330
747D
100
AcDbEntity
  8
細線
 48
50.0
100
AcDbLine
 10
7527.829581418174
 20
11393.73679736192
 30
0.0
 11
5777.829581418182
 21
11393.73679736192
 31
0.0
  0
LINE
  5
1D081
330
747D
100
AcDbEntity
  8
部品1
 48
50.0
100
AcDbLine
 10
7542.329581418174
 20
11367.5946617382
 30
0.0
 11
5763.329581418175
 21
11367.5946617382
 31
0.0
  0
LINE
  5
1D082
330
747D
100
AcDbEntity
  8
細線
 48
50.0
100
AcDbLine
 10
7527.829581418174
 20
11413.73679736192
 30
0.0
 11
5777.829581418182
 21
11413.73679736192
 31
0.0
  0
LINE
  5
1D083
330
747D
100
AcDbEntity
  8
部品1
 48
50.0
100
AcDbLine
 10
7698.313373122116
 20
11633.20342677754
 30
0.0
 11
5643.156550223035
 21
11575.10415954439
 31
0.0
  0
LINE
  5
1D084
330
747D
100
AcDbEntity
  8
細線
 48
50.0
100
AcDbLine
 10
7700.332704868275
 20
11600.02980182689
 30
0.0
 11
5666.349321381682
 21
11494.87046700394
 31
0.0
  0
LINE
  5
1D085
330
747D
100
AcDbEntity
  8
細線
 48
50.0
100
AcDbLine
 10
7699.196796110924
 20
11622.00045751341
 30
0.0
 11
5665.213412624324
 21
11516.84112269045
 31
0.0
  0
LEADER
  5
1D086
330
747D
100
AcDbEntity
  8
寸法
 48
50.0
100
AcDbLeader
  3
INABA_S50G
 71
     0
 73
     0
 74
     0
 75
     1
 40
150.0
 41
540.0000000000002
 76
     3
 10
6387.829581418174
 20
11442.38073961981
 30
0.0
 10
6466.744357697416
 20
11711.40987824753
 30
0.0
 10
6591.744357697416
 20
11711.40987824753
 30
0.0
340
1D074
1001
ACAD
1000
DSTYLE
1002
{
1070
     6
1000
DOTSMALL
1002
}
  0
MTEXT
  5
1D087
102
{ACAD_REACTORS
330
1D088
102
}
330
747D
100
AcDbEntity
  8
寸法
 62
     7
 48
50.0
100
AcDbMText
 10
7023.774992040756
 20
11192.92239508252
 30
0.0
 40
150.0
 41
0.0
 71
     4
 72
     1
  1
\A1;天井
  7
STYLE1
 73
     1
 44
1.0
  0
LEADER
  5
1D088
330
747D
100
AcDbEntity
  8
寸法
 48
50.0
100
AcDbLeader
  3
INABA_S50G
 71
     0
 73
     0
 74
     0
 75
     1
 40
150.0
 41
359.9999999999999
 76
     3
 10
6740.882357902889
 20
11403.41424305308
 30
0.0
 10
6873.774992040757
 20
11092.92239508252
 30
0.0
 10
6998.774992040757
 20
11092.92239508252
 30
0.0
340
1D087
1001
ACAD
1000
DSTYLE
1002
{
1070
     6
1000
DOTSMALL
1002
}
  0
MTEXT
  5
1D089
102
{ACAD_REACTORS
330
1D08A
102
}
330
747D
100
AcDbEntity
  8
部品1
 62
     7
 48
50.0
100
AcDbMText
 10
5915.709884325892
 20
8716.282041753681
 30
0.0
 40
150.0
 41
0.0
 71
     6
 72
     1
  1
\A1;土台中央
  7
STYLE1
 73
     1
 44
1.0
  0
LEADER
  5
1D08A
330
747D
100
AcDbEntity
  8
寸法
 48
50.0
100
AcDbLeader
  3
INABA_S50G
 71
     0
 73
     0
 75
     1
 40
150.0
 41
720.0000000000003
 76
     3
 10
6144.827510860092
 20
9382.720225286979
 30
0.0
 10
6065.709884325892
 20
8616.282041753681
 30
0.0
 10
5940.709884325892
 20
8616.282041753681
 30
0.0
340
1D089
1001
ACAD
1000
DSTYLE
1002
{
1070
     6
1000
DOTSMALL
1002
}
  0
LINE
  5
1D08B
330
747D
100
AcDbEntity
  8
部品1
100
AcDbLine
 10
6016.60402622781
 20
7709.831477053232
 30
0.0
 11
6016.60402622781
 21
7310.010941144016
 31
0.0
  0
DIMENSION
  5
1D08C
330
747D
100
AcDbEntity
  8
寸法
 48
50.0
100
AcDbDimension
  2
*D47
 10
4088.587517088182
 20
11573.73679736192
 30
0.0
 11
3988.572753308654
 21
10468.73679736192
 31
0.0
 70
    32
 71
     5
 42
-1.0
  3
INABA_S50G
100
AcDbAlignedDimension
 13
5712.829581418175
 23
9363.736797361928
 33
0.0
 14
5617.829581418175
 24
11573.73679736192
 34
0.0
 50
270.0
100
AcDbRotatedDimension
  0
DIMENSION
  5
1D08D
330
747D
100
AcDbEntity
  8
寸法
 48
50.0
100
AcDbDimension
  2
*D48
 10
4401.549246176574
 20
11390.73679736192
 30
0.0
 11
4301.549246176573
 21
10410.73679736192
 31
0.0
 70
    32
  1
内高 <>
 71
     5
 42
-1.0
  3
INABA_S50G
100
AcDbAlignedDimension
 13
5748.329581418175
 23
9430.736797361928
 33
0.0
 14
5712.829581418175
 24
11390.73679736192
 34
0.0
 50
270.0
100
AcDbRotatedDimension
  0
MTEXT
  5
1D08E
102
{ACAD_REACTORS
330
1D08F
102
}
330
747D
100
AcDbEntity
  8
寸法
 62
     7
 48
50.0
100
AcDbMText
 10
5463.436727685728
 20
10508.2825284004
 30
0.0
 40
150.0
 41
0.0
 71
     6
 72
     1
  1
\A1;壁パネル
  7
STYLE1
 73
     1
 44
1.0
  0
LEADER
  5
1D08F
330
747D
100
AcDbEntity
  8
寸法
 48
50.0
100
AcDbLeader
  3
INABA_S50G
 71
     0
 73
     0
 75
     1
 40
150.0
 41
719.9999999999999
 76
     3
 10
5731.297871013985
 20
10204.29303103481
 30
0.0
 10
5613.436727685728
 20
10408.2825284004
 30
0.0
 10
5488.436727685728
 20
10408.2825284004
 30
0.0
340
1D08E
1001
ACAD
1000
DSTYLE
1002
{
1070
     6
1000
DOTSMALL
1002
}
  0
LINE
  5
1D090
330
747D
100
AcDbEntity
  8
部品1
 48
50.0
100
AcDbLine
 10
5712.829581418175
 20
11473.73679736192
 30
0.0
 11
5712.829581418175
 21
9418.736797361928
 31
0.0
  0
LINE
  5
1D091
330
747D
100
AcDbEntity
  8
細線
 48
50.0
100
AcDbLine
 10
5747.829581418175
 20
11378.73679736192
 30
0.0
 11
5747.829581418175
 21
9418.736797361928
 31
0.0
  0
LINE
  5
1D092
330
747D
100
AcDbEntity
  8
部品1
 48
50.0
100
AcDbLine
 10
5763.329581418175
 20
11378.73679736192
 30
0.0
 11
5763.329581418175
 21
9430.736797361928
 31
0.0
  0
LINE
  5
1D093
330
747D
100
AcDbEntity
  8
部品1
 48
50.0
100
AcDbLine
 10
5799.329581418175
 20
11367.5946617382
 30
0.0
 11
5799.329581418175
 21
9470.736797361928
 31
0.0
  0
LINE
  5
1D094
330
747D
100
AcDbEntity
  8
部品1
 48
50.0
100
AcDbLine
 10
6344.829581418174
 20
11063.08847168107
 30
0.0
 11
6344.829581418174
 21
9470.736797361928
 31
0.0
  0
LINE
  5
1D095
330
747D
100
AcDbEntity
  8
部品1
 48
50.0
100
AcDbLine
 10
6380.829581418175
 20
11063.08847168107
 30
0.0
 11
6380.829581418175
 21
9470.736797361928
 31
0.0
  0
MTEXT
  5
1D096
102
{ACAD_REACTORS
330
1D097
102
}
330
747D
100
AcDbEntity
  8
寸法
 62
     7
 48
50.0
100
AcDbMText
 10
5485.808550308864
 20
10099.22034129155
 30
0.0
 40
150.0
 41
0.0
 71
     6
 72
     1
  1
\A1;内壁
  7
STYLE1
 73
     1
 44
1.0
  0
LEADER
  5
1D097
330
747D
100
AcDbEntity
  8
寸法
 48
50.0
100
AcDbLeader
  3
INABA_S50G
 71
     0
 73
     0
 75
     1
 40
150.0
 41
320.0
 76
     3
 10
5756.262048626455
 20
9795.230843925967
 30
0.0
 10
5635.808550308865
 20
9999.22034129155
 30
0.0
 10
5510.808550308865
 20
9999.22034129155
 30
0.0
340
1D096
1001
ACAD
1000
DSTYLE
1002
{
1070
     6
1000
DOTSMALL
1002
}
  0
MTEXT
  5
1D098
102
{ACAD_REACTORS
330
1D099
102
}
330
747D
100
AcDbEntity
  8
寸法
 62
     7
 48
50.0
100
AcDbMText
 10
5378.442711368492
 20
9692.226294727511
 30
0.0
 40
150.0
 41
0.0
 71
     6
 72
     1
  1
\A1;土台前後
  7
STYLE1
 73
     1
 44
1.0
  0
LEADER
  5
1D099
330
747D
100
AcDbEntity
  8
寸法
 48
50.0
100
AcDbLeader
  3
INABA_S50G
 71
     0
 73
     0
 75
     1
 40
150.0
 41
719.9999999999995
 76
     3
 10
5712.829581418167
 20
9388.236797361928
 30
0.0
 10
5528.442711368493
 20
9592.22629472751
 30
0.0
 10
5403.442711368493
 20
9592.22629472751
 30
0.0
340
1D098
1001
ACAD
1000
DSTYLE
1002
{
1070
     6
1000
DOTSMALL
1002
}
  0
MTEXT
  5
1D09A
102
{ACAD_REACTORS
330
1D09B
102
}
330
747D
100
AcDbEntity
  8
部品1
 62
     7
 48
50.0
100
AcDbMText
 10
6422.605247336067
 20
9656.775787169815
 30
0.0
 40
150.0
 41
0.0
 71
     4
 72
     1
  1
\A1;床板
  7
STYLE1
 73
     1
 44
1.0
  0
LEADER
  5
1D09B
330
747D
100
AcDbEntity
  8
寸法
 48
50.0
100
AcDbLeader
  3
INABA_S50G
 71
     0
 73
     0
 74
     0
 75
     1
 40
150.0
 41
319.9999999999999
 76
     3
 10
6236.697078994001
 20
9425.668860537934
 30
0.0
 10
6272.605247336066
 20
9556.775787169815
 30
0.0
 10
6397.605247336066
 20
9556.775787169815
 30
0.0
340
1D09A
1001
ACAD
1000
DSTYLE
1002
{
1070
     6
1000
DOTSMALL
1002
}
  0
LINE
  5
1D09C
330
747D
100
AcDbEntity
  8
部品1
 48
50.0
100
AcDbLine
 10
5772.329581418182
 20
9470.736797361928
 30
0.0
 11
5772.329581418182
 21
9430.736797361928
 31
0.0
  0
LINE
  5
1D09D
330
747D
100
AcDbEntity
  8
細線
 48
50.0
100
AcDbLine
 10
5800.120029629119
 20
9028.736797361927
 30
0.0
 11
5643.829581418175
 21
9185.02724557288
 31
0.0
  0
LINE
  5
1D09E
330
747D
100
AcDbEntity
  8
細線
 48
50.0
100
AcDbLine
 10
5773.603525334625
 20
9028.736797361927
 30
0.0
 11
5643.829581418175
 21
9158.510741278385
 31
0.0
  0
LINE
  5
1D09F
330
747D
100
AcDbEntity
  8
細線
 48
50.0
100
AcDbLine
 10
5747.087021040124
 20
9028.736797361927
 30
0.0
 11
5643.829581418175
 21
9131.994236983883
 31
0.0
  0
LINE
  5
1D0A0
330
747D
100
AcDbEntity
  8
部品1
 48
50.0
100
AcDbLine
 10
5843.829581418175
 20
9028.736797361927
 30
0.0
 11
5643.829581418175
 21
9028.736797361927
 31
0.0
  0
LINE
  5
1D0A1
330
747D
100
AcDbEntity
  8
部品1
 48
50.0
100
AcDbLine
 10
5643.829581418175
 20
9028.736797361927
 30
0.0
 11
5643.829581418175
 21
9228.736797361928
 31
0.0
  0
LINE
  5
1D0A2
330
747D
100
AcDbEntity
  8
部品1
 48
50.0
100
AcDbLine
 10
5712.829581418175
 20
9412.736797361928
 30
0.0
 11
5712.829581418175
 21
9363.736797361928
 31
0.0
  0
LINE
  5
1D0A3
330
747D
100
AcDbEntity
  8
部品1
 48
50.0
100
AcDbLine
 10
5718.829581418175
 20
9412.736797361928
 30
0.0
 11
5718.829581418175
 21
9418.736797361928
 31
0.0
  0
LINE
  5
1D0A4
330
747D
100
AcDbEntity
  8
部品1
 48
50.0
100
AcDbLine
 10
5712.829581418175
 20
9412.736797361928
 30
0.0
 11
5718.829581418175
 21
9412.736797361928
 31
0.0
  0
LINE
  5
1D0A5
330
747D
100
AcDbEntity
  8
破線
 48
3.0
100
AcDbLine
 10
5722.829581418174
 20
9228.736797361928
 30
0.0
 11
5722.829581418174
 21
9122.736797361929
 31
0.0
  0
LINE
  5
1D0A6
330
747D
100
AcDbEntity
  8
部品1
 48
50.0
100
AcDbLine
 10
5712.829581418175
 20
9363.736797361928
 30
0.0
 11
5712.829581418175
 21
9228.736797361928
 31
0.0
  0
LINE
  5
1D0A7
330
747D
100
AcDbEntity
  8
部品1
 48
50.0
100
AcDbLine
 10
5777.329581418175
 20
9411.736797361928
 30
0.0
 11
5801.329581418174
 21
9411.736797361928
 31
0.0
  0
LINE
  5
1D0A8
330
747D
100
AcDbEntity
  8
部品1
 48
50.0
100
AcDbLine
 10
5801.329581418174
 20
9411.736797361928
 30
0.0
 11
5801.329581418174
 21
9363.736797361928
 31
0.0
  0
LINE
  5
1D0A9
330
747D
100
AcDbEntity
  8
部品1
 48
50.0
100
AcDbLine
 10
5772.329581418182
 20
9430.736797361928
 30
0.0
 11
5763.329581418175
 21
9430.736797361928
 31
0.0
  0
LINE
  5
1D0AA
330
747D
100
AcDbEntity
  8
部品1
 48
50.0
100
AcDbLine
 10
5777.329581418175
 20
9418.736797361928
 30
0.0
 11
5763.329581418175
 21
9418.736797361928
 31
0.0
  0
LINE
  5
1D0AB
330
747D
100
AcDbEntity
  8
部品1
 48
50.0
100
AcDbLine
 10
5777.329581418175
 20
9418.736797361928
 30
0.0
 11
5777.329581418175
 21
9411.736797361928
 31
0.0
  0
LINE
  5
1D0AC
330
747D
100
AcDbEntity
  8
部品1
 48
50.0
100
AcDbLine
 10
5748.329581418175
 20
9418.736797361928
 30
0.0
 11
5748.329581418175
 21
9430.736797361928
 31
0.0
  0
LINE
  5
1D0AD
330
747D
100
AcDbEntity
  8
部品1
 48
50.0
100
AcDbLine
 10
5748.329581418175
 20
9430.736797361928
 30
0.0
 11
5763.329581418175
 21
9430.736797361928
 31
0.0
  0
LINE
  5
1D0AE
330
747D
100
AcDbEntity
  8
部品1
 48
50.0
100
AcDbLine
 10
5763.329581418175
 20
9430.736797361928
 30
0.0
 11
5763.329581418175
 21
9418.736797361928
 31
0.0
  0
LINE
  5
1D0AF
330
747D
100
AcDbEntity
  8
部品1
 48
50.0
100
AcDbLine
 10
6058.829581418182
 20
9418.736797361928
 30
0.0
 11
6052.829581418182
 21
9418.736797361928
 31
0.0
  0
LINE
  5
1D0B0
330
747D
100
AcDbEntity
  8
部品1
 48
50.0
100
AcDbLine
 10
6092.829581418182
 20
9418.736797361928
 30
0.0
 11
6086.829581418182
 21
9418.736797361928
 31
0.0
  0
LINE
  5
1D0B1
330
747D
100
AcDbEntity
  8
部品1
 48
50.0
100
AcDbLine
 10
6086.829581418182
 20
9412.736797361928
 30
0.0
 11
6058.829581418182
 21
9412.736797361928
 31
0.0
  0
LINE
  5
1D0B2
330
747D
100
AcDbEntity
  8
部品1
 48
50.0
100
AcDbLine
 10
6058.829581418182
 20
9418.736797361928
 30
0.0
 11
6058.829581418182
 21
9412.736797361928
 31
0.0
  0
LINE
  5
1D0B3
330
747D
100
AcDbEntity
  8
部品1
 48
50.0
100
AcDbLine
 10
6086.829581418182
 20
9412.736797361928
 30
0.0
 11
6086.829581418182
 21
9418.736797361928
 31
0.0
  0
LINE
  5
1D0B4
330
747D
100
AcDbEntity
  8
部品1
 48
50.0
100
AcDbLine
 10
6052.829581418182
 20
9418.736797361928
 30
0.0
 11
6052.829581418182
 21
9363.736797361928
 31
0.0
  0
LINE
  5
1D0B5
330
747D
100
AcDbEntity
  8
部品1
 48
50.0
100
AcDbLine
 10
6092.829581418182
 20
9363.736797361928
 30
0.0
 11
6092.829581418182
 21
9418.736797361928
 31
0.0
  0
LINE
  5
1D0B6
330
747D
100
AcDbEntity
  8
破線
 48
3.0
100
AcDbLine
 10
5764.829581418175
 20
9228.736797361928
 30
0.0
 11
5764.829581418175
 21
9122.736797361929
 31
0.0
  0
LINE
  5
1D0B7
330
747D
100
AcDbEntity
  8
部品1
 48
50.0
100
AcDbLine
 10
5843.829581418175
 20
9228.736797361928
 30
0.0
 11
5843.829581418175
 21
9028.736797361927
 31
0.0
  0
LINE
  5
1D0B8
330
747D
100
AcDbEntity
  8
細線
 48
50.0
100
AcDbLine
 10
5843.829581418175
 20
9135.02724557288
 30
0.0
 11
5750.120029629112
 21
9228.736797361928
 31
0.0
  0
LINE
  5
1D0B9
330
747D
100
AcDbEntity
  8
部品1
 48
50.0
100
AcDbLine
 10
5912.829581418175
 20
9363.736797361928
 30
0.0
 11
5912.829581418175
 21
9228.736797361928
 31
0.0
  0
LINE
  5
1D0BA
330
747D
100
AcDbEntity
  8
細線
 48
50.0
100
AcDbLine
 10
5789.03913320723
 20
9228.736797361928
 30
0.0
 11
5912.829581418175
 21
9352.527245572872
 31
0.0
  0
LINE
  5
1D0BB
330
747D
100
AcDbEntity
  8
細線
 48
50.0
100
AcDbLine
 10
5815.555637501724
 20
9228.736797361928
 30
0.0
 11
5912.829581418175
 21
9326.010741278386
 31
0.0
  0
LINE
  5
1D0BC
330
747D
100
AcDbEntity
  8
部品1
 48
50.0
100
AcDbLine
 10
5712.829581418175
 20
9418.736797361928
 30
0.0
 11
5748.329581418175
 21
9418.736797361928
 31
0.0
  0
LINE
  5
1D0BD
330
747D
100
AcDbEntity
  8
細線
 48
50.0
100
AcDbLine
 10
5843.829581418168
 20
9081.994236983884
 30
0.0
 11
5697.087021040147
 21
9228.736797361928
 31
0.0
  0
LINE
  5
1D0BE
330
747D
100
AcDbEntity
  8
細線
 48
50.0
100
AcDbLine
 10
5843.829581418175
 20
9108.510741278385
 30
0.0
 11
5723.60352533464
 21
9228.736797361928
 31
0.0
  0
LINE
  5
1D0BF
330
747D
100
AcDbEntity
  8
破線
 48
3.0
100
AcDbLine
 10
5764.829581418175
 20
9122.736797361929
 30
0.0
 11
5722.829581418174
 21
9122.736797361929
 31
0.0
  0
LINE
  5
1D0C0
330
747D
100
AcDbEntity
  8
細線
 48
50.0
100
AcDbLine
 10
5712.829581418175
 20
9276.010741278378
 30
0.0
 11
5800.555637501717
 21
9363.736797361928
 31
0.0
  0
LINE
  5
1D0C1
330
747D
100
AcDbEntity
  8
細線
 48
50.0
100
AcDbLine
 10
5712.829581418175
 20
9302.527245572873
 30
0.0
 11
5774.039133207231
 21
9363.736797361928
 31
0.0
  0
LINE
  5
1D0C2
330
747D
100
AcDbEntity
  8
部品1
 48
50.0
100
AcDbLine
 10
6348.829581418182
 20
9418.736797361928
 30
0.0
 11
6342.829581418182
 21
9418.736797361928
 31
0.0
  0
LINE
  5
1D0C3
330
747D
100
AcDbEntity
  8
部品1
 48
50.0
100
AcDbLine
 10
6348.829581418182
 20
9418.736797361928
 30
0.0
 11
6348.829581418182
 21
9412.736797361928
 31
0.0
  0
LINE
  5
1D0C4
330
747D
100
AcDbEntity
  8
部品1
 48
50.0
100
AcDbLine
 10
6342.829581418182
 20
9418.736797361928
 30
0.0
 11
6342.829581418182
 21
9363.736797361928
 31
0.0
  0
LINE
  5
1D0C5
330
747D
100
AcDbEntity
  8
部品1
 48
50.0
100
AcDbLine
 10
6382.829581418182
 20
9418.736797361928
 30
0.0
 11
6376.829581418181
 21
9418.736797361928
 31
0.0
  0
LINE
  5
1D0C6
330
747D
100
AcDbEntity
  8
部品1
 48
50.0
100
AcDbLine
 10
6376.829581418181
 20
9412.736797361928
 30
0.0
 11
6376.829581418181
 21
9418.736797361928
 31
0.0
  0
LINE
  5
1D0C7
330
747D
100
AcDbEntity
  8
部品1
 48
50.0
100
AcDbLine
 10
6382.829581418182
 20
9363.736797361928
 30
0.0
 11
6382.829581418182
 21
9418.736797361928
 31
0.0
  0
LINE
  5
1D0C8
330
747D
100
AcDbEntity
  8
部品1
 48
50.0
100
AcDbLine
 10
6632.829581418175
 20
9418.736797361928
 30
0.0
 11
6632.829581418175
 21
9363.736797361928
 31
0.0
  0
LINE
  5
1D0C9
330
747D
100
AcDbEntity
  8
部品1
 48
50.0
100
AcDbLine
 10
6638.829581418175
 20
9418.736797361928
 30
0.0
 11
6638.829581418175
 21
9412.736797361928
 31
0.0
  0
LINE
  5
1D0CA
330
747D
100
AcDbEntity
  8
部品1
 48
50.0
100
AcDbLine
 10
6638.829581418175
 20
9418.736797361928
 30
0.0
 11
6632.829581418175
 21
9418.736797361928
 31
0.0
  0
LINE
  5
1D0CB
330
747D
100
AcDbEntity
  8
部品1
 48
50.0
100
AcDbLine
 10
6672.829581418175
 20
9363.736797361928
 30
0.0
 11
6672.829581418175
 21
9418.736797361928
 31
0.0
  0
LINE
  5
1D0CC
330
747D
100
AcDbEntity
  8
部品1
 48
50.0
100
AcDbLine
 10
6666.829581418174
 20
9412.736797361928
 30
0.0
 11
6666.829581418174
 21
9418.736797361928
 31
0.0
  0
LINE
  5
1D0CD
330
747D
100
AcDbEntity
  8
部品1
 48
50.0
100
AcDbLine
 10
6672.829581418175
 20
9418.736797361928
 30
0.0
 11
6666.829581418174
 21
9418.736797361928
 31
0.0
  0
LINE
  5
1D0CE
330
747D
100
AcDbEntity
  8
部品1
 48
50.0
100
AcDbLine
 10
6666.829581418174
 20
9412.736797361928
 30
0.0
 11
6638.829581418175
 21
9412.736797361928
 31
0.0
  0
LINE
  5
1D0CF
330
747D
100
AcDbEntity
  8
部品1
 48
50.0
100
AcDbLine
 10
6752.829581418175
 20
9363.736797361928
 30
0.0
 11
6752.829581418175
 21
9228.736797361928
 31
0.0
  0
LINE
  5
1D0D0
330
747D
100
AcDbEntity
  8
部品1
 48
50.0
100
AcDbLine
 10
6552.829581418174
 20
9363.736797361928
 30
0.0
 11
6552.829581418174
 21
9228.736797361928
 31
0.0
  0
LINE
  5
1D0D1
330
747D
100
AcDbEntity
  8
細線
 48
50.0
100
AcDbLine
 10
6629.03913320723
 20
9228.736797361928
 30
0.0
 11
6752.829581418175
 21
9352.527245572872
 31
0.0
  0
LINE
  5
1D0D2
330
747D
100
AcDbEntity
  8
細線
 48
50.0
100
AcDbLine
 10
6655.555637501724
 20
9228.736797361928
 30
0.0
 11
6752.829581418175
 21
9326.010741278386
 31
0.0
  0
LINE
  5
1D0D3
330
747D
100
AcDbEntity
  8
細線
 48
50.0
100
AcDbLine
 10
6552.829581418174
 20
9276.010741278378
 30
0.0
 11
6640.555637501717
 21
9363.736797361928
 31
0.0
  0
LINE
  5
1D0D4
330
747D
100
AcDbEntity
  8
細線
 48
50.0
100
AcDbLine
 10
6552.829581418174
 20
9302.527245572873
 30
0.0
 11
6614.039133207231
 21
9363.736797361928
 31
0.0
  0
LINE
  5
1D0D5
330
747D
100
AcDbEntity
  8
部品1
 48
50.0
100
AcDbLine
 10
6376.829581418181
 20
9412.736797361928
 30
0.0
 11
6348.829581418182
 21
9412.736797361928
 31
0.0
  0
LINE
  5
1D0D6
330
747D
100
AcDbEntity
  8
部品1
 48
50.0
100
AcDbLine
 10
5763.329581418182
 20
9470.736797361928
 30
0.0
 11
5772.329581418182
 21
9470.736797361928
 31
0.0
  0
MTEXT
  5
1D0D7
102
{ACAD_REACTORS
330
1D0D8
102
}
330
747D
100
AcDbEntity
  8
寸法
 62
     7
 48
50.0
100
AcDbMText
 10
5283.134357941918
 20
11038.88356008286
 30
0.0
 40
150.0
 41
0.0
 71
     6
 72
     1
  1
\A1;桁後
  7
STYLE1
 73
     1
 44
1.0
  0
LEADER
  5
1D0D8
330
747D
100
AcDbEntity
  8
寸法
 48
50.0
100
AcDbLeader
  3
INABA_S50G
 71
     0
 73
     0
 75
     1
 40
150.0
 41
360.0000000000001
 76
     3
 10
5712.829581418167
 20
11432.20658912726
 30
0.0
 10
5433.134357941917
 20
10938.88356008286
 30
0.0
 10
5308.134357941917
 20
10938.88356008286
 30
0.0
340
1D0D7
1001
ACAD
1000
DSTYLE
1002
{
1070
     6
1000
DOTSMALL
1002
}
  0
MTEXT
  5
1D0D9
102
{ACAD_REACTORS
330
1D0DA
102
}
330
747D
100
AcDbEntity
  8
寸法
 62
     7
 48
50.0
100
AcDbMText
 10
5320.044594101977
 20
11247.92104541545
 30
0.0
 40
150.0
 41
0.0
 71
     6
 72
     1
  1
\A1;雨樋
  7
STYLE1
 73
     1
 44
1.0
  0
LEADER
  5
1D0DA
330
747D
100
AcDbEntity
  8
寸法
 48
50.0
100
AcDbLeader
  3
INABA_S50G
 71
     0
 73
     0
 75
     1
 40
150.0
 41
360.0
 76
     3
 10
5631.829581418167
 20
11409.54603623496
 30
0.0
 10
5470.044594101977
 20
11147.92104541545
 30
0.0
 10
5345.044594101977
 20
11147.92104541545
 30
0.0
340
1D0D9
1001
ACAD
1000
DSTYLE
1002
{
1070
     6
1000
DOTSMALL
1002
}
  0
LEADER
  5
1D0DB
330
747D
100
AcDbEntity
  8
寸法
 48
50.0
100
AcDbLeader
  3
INABA_S50G
 71
     0
 73
     0
 75
     1
 40
150.0
 41
319.9999999999998
 76
     3
 10
6269.151879789088
 20
11581.89466159483
 30
0.0
 10
6224.658491557251
 20
11705.29159607865
 30
0.0
 10
6099.658491557251
 20
11705.29159607865
 30
0.0
340
1D06D
1001
ACAD
1000
DSTYLE
1002
{
1070
     6
1000
DOTSMALL
1002
}
  0
MTEXT
  5
1D0DC
102
{ACAD_REACTORS
330
1D0DD
102
}
330
747D
100
AcDbEntity
  8
寸法
 62
     7
 48
50.0
100
AcDbMText
 10
6065.826863646906
 20
11192.92239508252
 30
0.0
 40
150.0
 41
0.0
 71
     4
 72
     1
  1
\A1;回リ縁
  7
STYLE1
 73
     1
 44
1.0
  0
LEADER
  5
1D0DD
330
747D
100
AcDbEntity
  8
寸法
 48
50.0
100
AcDbLeader
  3
INABA_S50G
 71
     0
 73
     0
 74
     0
 75
     1
 40
150.0
 41
530.0000000000001
 76
     3
 10
5776.486435667668
 20
11380.57994311244
 30
0.0
 10
5915.826863646906
 20
11092.92239508252
 30
0.0
 10
6040.826863646906
 20
11092.92239508252
 30
0.0
340
1D0DC
1001
ACAD
1000
DSTYLE
1002
{
1070
     6
1000
DOTSMALL
1002
}
  0
LINE
  5
1D0DE
330
747D
100
AcDbEntity
  8
部品1
 48
50.0
100
AcDbLine
 10
5707.829581418182
 20
11493.73679736192
 30
0.0
 11
5741.329581418182
 21
11493.73679736192
 31
0.0
  0
LINE
  5
1D0DF
330
747D
100
AcDbEntity
  8
部品1
 48
50.0
100
AcDbLine
 10
5712.829581418182
 20
11378.73679736192
 30
0.0
 11
5762.829581418182
 21
11378.73679736192
 31
0.0
  0
LINE
  5
1D0E0
330
747D
100
AcDbEntity
  8
部品1
 48
50.0
100
AcDbLine
 10
5741.329581418182
 20
11478.73679736192
 30
0.0
 11
5764.829581418182
 21
11478.73679736192
 31
0.0
  0
LINE
  5
1D0E1
330
747D
100
AcDbEntity
  8
部品1
 48
50.0
100
AcDbLine
 10
5741.329581418182
 20
11493.73679736192
 30
0.0
 11
5741.329581418182
 21
11478.73679736192
 31
0.0
  0
LINE
  5
1D0E2
330
747D
100
AcDbEntity
  8
部品1
 48
50.0
100
AcDbLine
 10
5762.829581418182
 20
11378.73679736192
 30
0.0
 11
5777.829581418182
 21
11393.73679736192
 31
0.0
  0
LINE
  5
1D0E3
330
747D
100
AcDbEntity
  8
部品1
100
AcDbLine
 10
5766.329581418182
 20
11367.5946617382
 30
0.0
 11
5773.658008542929
 21
11374.92308887178
 31
0.0
  0
LINE
  5
1D0E4
330
747D
100
AcDbEntity
  8
部品1
 48
50.0
100
AcDbLine
 10
5762.829581418182
 20
11378.73679736192
 30
0.0
 11
5763.329581418182
 21
11378.73679736192
 31
0.0
  0
LINE
  5
1D0E5
330
747D
100
AcDbEntity
  8
部品1
100
AcDbLine
 10
5766.329581418182
 20
11367.5946617382
 30
0.0
 11
5763.329581418182
 21
11367.5946617382
 31
0.0
  0
LINE
  5
1D0E6
330
747D
100
AcDbEntity
  8
部品1
 48
50.0
100
AcDbLine
 10
5777.829581418182
 20
11393.73679736192
 30
0.0
 11
5777.829581418182
 21
11413.73679736192
 31
0.0
  0
LINE
  5
1D0E7
330
747D
100
AcDbEntity
  8
部品1
100
AcDbLine
 10
5787.471717041915
 20
11389.73679736192
 30
0.0
 11
5786.471717041916
 21
11389.73679736192
 31
0.0
  0
LINE
  5
1D0E8
330
747D
100
AcDbEntity
  8
部品1
100
AcDbLine
 10
5787.471717041915
 20
11388.73679736192
 30
0.0
 11
5787.471717041915
 21
11389.73679736192
 31
0.0
  0
LINE
  5
1D0E9
330
747D
100
AcDbEntity
  8
部品1
100
AcDbLine
 10
5786.471717041916
 20
11389.73679736192
 30
0.0
 11
5786.471717041916
 21
11393.73679736192
 31
0.0
  0
LINE
  5
1D0EA
330
747D
100
AcDbEntity
  8
部品1
100
AcDbLine
 10
5780.021969573606
 20
11384.11547701836
 30
0.0
 11
5780.729076354791
 21
11383.40837023718
 31
0.0
  0
LINE
  5
1D0EB
330
747D
100
AcDbEntity
  8
部品1
100
AcDbLine
 10
5782.143289917168
 20
11383.40837023718
 30
0.0
 11
5787.471717041915
 21
11388.73679736192
 31
0.0
  0
ARC
  5
1D0EC
330
747D
100
AcDbEntity
  8
部品1
100
AcDbCircle
 10
5781.436183135976
 20
11384.11547701836
 30
0.0
 40
1.0
100
AcDbArc
 50
225.0
 51
315.0
  0
LINE
  5
1D0ED
330
747D
100
AcDbEntity
  8
部品1
100
AcDbLine
 10
5772.950901761744
 20
11377.0444092065
 30
0.0
 11
5780.021969573606
 21
11384.11547701836
 31
0.0
  0
LINE
  5
1D0EE
330
747D
100
AcDbEntity
  8
部品1
100
AcDbLine
 10
5773.658087601556
 20
11376.33722336669
 30
0.0
 11
5772.950901761744
 21
11377.0444092065
 31
0.0
  0
ARC
  5
1D0EF
330
747D
100
AcDbEntity
  8
部品1
100
AcDbCircle
 10
5772.950901761744
 20
11375.63019565296
 30
0.0
 40
1.0
100
AcDbArc
 50
314.9999999999995
 51
44.99999999999886
  0
LINE
  5
1D0F0
330
747D
100
AcDbEntity
  8
部品1
 48
50.0
100
AcDbLine
 10
5786.471717041916
 20
11393.73679736192
 30
0.0
 11
5777.829581418182
 21
11393.73679736192
 31
0.0
  0
LINE
  5
1D0F1
330
747D
100
AcDbEntity
  8
部品1
 48
50.0
100
AcDbLine
 10
5777.829581418182
 20
11413.73679736192
 30
0.0
 11
5799.829581418182
 21
11413.73679736192
 31
0.0
  0
LINE
  5
1D0F2
330
747D
100
AcDbEntity
  8
部品1
 48
50.0
100
AcDbLine
 10
5777.829581418182
 20
11413.73679736192
 30
0.0
 11
5799.829581418182
 21
11413.73679736192
 31
0.0
  0
LINE
  5
1D0F3
330
747D
100
AcDbEntity
  8
細線
 48
50.0
100
AcDbLine
 10
5762.048722760575
 20
11483.79686886597
 30
0.0
 11
5742.075399409206
 21
11482.76422454111
 31
0.0
  0
LINE
  5
1D0F4
330
747D
100
AcDbEntity
  8
細線
 48
50.0
100
AcDbLine
 10
5741.249283949311
 20
11498.7428832222
 30
0.0
 11
5742.075399409206
 21
11482.76422454111
 31
0.0
  0
LINE
  5
1D0F5
330
747D
100
AcDbEntity
  8
細線
 48
50.0
100
AcDbLine
 10
5761.22260730068
 20
11499.77552754708
 30
0.0
 11
5762.048722760575
 21
11483.79686886598
 31
0.0
  0
LINE
  5
1D0F6
330
747D
100
AcDbEntity
  8
部品1
 48
50.0
100
AcDbLine
 10
5674.263373546722
 20
11518.15851852404
 30
0.0
 11
5690.260761862713
 21
11518.44759821439
 31
0.0
  0
LINE
  5
1D0F7
330
747D
100
AcDbEntity
  8
部品1
100
AcDbLine
 10
5691.829581418175
 20
11448.54603623495
 30
0.0
 11
5691.829581418175
 21
11421.54603623495
 31
0.0
  0
LINE
  5
1D0F8
330
747D
100
AcDbEntity
  8
部品1
100
AcDbLine
 10
5691.829581418182
 20
11450.39433257581
 30
0.0
 11
5691.829581418175
 21
11409.54603623495
 31
0.0
  0
ARC
  5
1D0F9
330
747D
100
AcDbEntity
  8
部品1
100
AcDbCircle
 10
5681.829581418174
 20
11409.54603623495
 30
0.0
 40
10.0
100
AcDbArc
 50
270.0
 51
0.000000000000007
  0
LINE
  5
1D0FA
330
747D
100
AcDbEntity
  8
部品1
 48
50.0
100
AcDbLine
 10
5707.829581418182
 20
11493.73679736192
 30
0.0
 11
5707.829581418182
 21
11473.73679736192
 31
0.0
  0
LINE
  5
1D0FB
330
747D
100
AcDbEntity
  8
部品1
 48
50.0
100
AcDbLine
 10
5707.829581418182
 20
11473.73679736192
 30
0.0
 11
5712.829581418182
 21
11473.73679736192
 31
0.0
  0
LINE
  5
1D0FC
330
747D
100
AcDbEntity
  8
部品1
100
AcDbLine
 10
5712.829581418175
 20
11403.73679736192
 30
0.0
 11
5712.829581418175
 21
11363.73679736192
 31
0.0
  0
LINE
  5
1D0FD
330
747D
100
AcDbEntity
  8
部品1
 48
50.0
100
AcDbLine
 10
5618.706740792948
 20
11540.1583411735
 30
0.0
 11
5644.852555169103
 21
11540.63080728951
 31
0.0
  0
ARC
  5
1D0FE
330
747D
100
AcDbEntity
  8
部品1
100
AcDbCircle
 10
5641.829581418175
 20
11409.54603623495
 30
0.0
 40
10.0
100
AcDbArc
 50
180.0
 51
270.0
  0
LINE
  5
1D0FF
330
747D
100
AcDbEntity
  8
部品1
100
AcDbLine
 10
5631.829581418174
 20
11409.54603623495
 30
0.0
 11
5631.829581418174
 21
11434.54603623495
 31
0.0
  0
LINE
  5
1D100
330
747D
100
AcDbEntity
  8
部品1
100
AcDbLine
 10
5629.482399800957
 20
11467.26280491303
 30
0.0
 11
5629.881238878702
 21
11463.51558742462
 31
0.0
  0
ARC
  5
1D101
330
747D
100
AcDbEntity
  8
部品1
 48
50.0
100
AcDbCircle
 10
5627.307980296047
 20
11470.68507021751
 30
0.0
 40
1.199999999999999
100
AcDbArc
 50
186.0754638750989
 51
265.1699938773959
  0
ARC
  5
1D102
330
747D
100
AcDbEntity
  8
部品1
 48
50.0
100
AcDbCircle
 10
5626.996441403264
 20
11466.99820928769
 30
0.0
 40
2.5
100
AcDbArc
 50
6.075463875091184
 51
85.16999387739907
  0
ARC
  5
1D103
330
747D
100
AcDbEntity
  8
部品1
100
AcDbCircle
 10
5645.294180944386
 20
11465.15608030175
 30
0.0
 40
15.5
100
AcDbArc
 50
186.0754638750791
 51
270.9112955958145
  0
LINE
  5
1D104
330
747D
100
AcDbEntity
  8
部品1
100
AcDbLine
 10
5617.916287634876
 20
11547.58489504694
 30
0.0
 11
5626.114720265153
 21
11470.55806431735
 31
0.0
  0
LINE
  5
1D105
330
747D
100
AcDbEntity
  8
部品1
100
AcDbLine
 10
5637.323376691629
 20
11565.7922009353
 30
0.0
 11
5639.939382888236
 21
11572.82495737237
 31
0.0
  0
ARC
  5
1D106
330
747D
100
AcDbEntity
  8
部品1
100
AcDbCircle
 10
5633.329581418174
 20
11549.22208342739
 30
0.0
 40
15.5
100
AcDbArc
 50
91.86125648319634
 51
186.0754638750989
  0
ARC
  5
1D107
330
747D
100
AcDbEntity
  8
部品1
100
AcDbCircle
 10
5643.2197864053
 20
11571.60473085027
 30
0.0
 40
3.5
100
AcDbArc
 50
91.03524671598787
 51
159.5960814224235
  0
ARC
  5
1D108
330
747D
100
AcDbEntity
  8
部品1
100
AcDbCircle
 10
5635.897882695192
 20
11566.26244516467
 30
0.0
 40
1.5
100
AcDbArc
 50
270.9018459011011
 51
339.5960814224101
  0
LINE
  5
1D109
330
747D
100
AcDbEntity
  8
部品1
 48
50.0
100
AcDbLine
 10
5635.921491990766
 20
11564.76263097579
 30
0.0
 11
5632.826151637431
 21
11564.71390573647
 31
0.0
  0
LINE
  5
1D10A
330
747D
100
AcDbEntity
  8
部品1
100
AcDbLine
 10
5645.540699733725
 20
11449.65804079714
 30
0.0
 11
5654.539561381562
 21
11449.80118073934
 31
0.0
  0
LINE
  5
1D10B
330
747D
100
AcDbEntity
  8
細線
 48
50.0
100
AcDbLine
 10
5665.213412624324
 20
11516.84112269045
 30
0.0
 11
5666.349321381682
 21
11494.87046700394
 31
0.0
  0
LINE
  5
1D10C
330
747D
100
AcDbEntity
  8
細線
 48
50.0
100
AcDbLine
 10
5654.539561381562
 20
11449.80118073934
 30
0.0
 11
5712.829581418175
 21
11450.72836802427
 31
0.0
  0
LINE
  5
1D10D
330
747D
100
AcDbEntity
  8
部品1
100
AcDbLine
 10
5681.829581418174
 20
11399.54603623495
 30
0.0
 11
5641.829581418175
 21
11399.54603623495
 31
0.0
  0
LINE
  5
1D10E
330
747D
100
AcDbEntity
  8
部品1
 48
50.0
100
AcDbLine
 10
5644.852555169103
 20
11540.63080728951
 30
0.0
 11
5674.263373546722
 21
11518.15851852404
 31
0.0
  0
LINE
  5
1D10F
330
747D
100
AcDbEntity
  8
部品1
 48
50.0
100
AcDbLine
 10
6387.829581418174
 20
11526.73679736192
 30
0.0
 11
6357.829581418175
 21
11525.23679736192
 31
0.0
  0
LINE
  5
1D110
330
747D
100
AcDbEntity
  8
部品1
 48
50.0
100
AcDbLine
 10
6337.829581418175
 20
11413.73679736192
 30
0.0
 11
6387.829581418174
 21
11413.73679736192
 31
0.0
  0
LINE
  5
1D111
330
747D
100
AcDbEntity
  8
部品1
 48
50.0
100
AcDbLine
 10
6380.829581418175
 20
11367.5946617382
 30
0.0
 11
6380.829581418175
 21
11284.72281612384
 31
0.0
  0
LINE
  5
1D112
330
747D
100
AcDbEntity
  8
部品1
 48
50.0
100
AcDbLine
 10
6387.829581418174
 20
11413.73679736192
 30
0.0
 11
6387.829581418174
 21
11526.73679736192
 31
0.0
  0
LINE
  5
1D113
330
747D
100
AcDbEntity
  8
部品1
 48
50.0
100
AcDbLine
 10
6344.829581418174
 20
11367.5946617382
 30
0.0
 11
6344.829581418174
 21
11284.72281612384
 31
0.0
  0
LINE
  5
1D114
330
747D
100
AcDbEntity
  8
部品1
 48
50.0
100
AcDbLine
 10
6337.829581418175
 20
11425.73679736192
 30
0.0
 11
6337.829581418175
 21
11413.73679736192
 31
0.0
  0
LINE
  5
1D115
330
747D
100
AcDbEntity
  8
部品1
 48
50.0
100
AcDbLine
 10
6357.829581418175
 20
11514.23679736192
 30
0.0
 11
6337.829581418175
 21
11513.23679736192
 31
0.0
  0
LINE
  5
1D116
330
747D
100
AcDbEntity
  8
部品1
 48
50.0
100
AcDbLine
 10
6357.829581418175
 20
11525.23679736192
 30
0.0
 11
6357.829581418175
 21
11514.23679736192
 31
0.0
  0
LINE
  5
1D117
330
747D
100
AcDbEntity
  8
細線
 48
50.0
100
AcDbLine
 10
6356.527509788224
 20
11530.55349164977
 30
0.0
 11
6357.353625248112
 21
11514.57483296867
 31
0.0
  0
LINE
  5
1D118
330
747D
100
AcDbEntity
  8
細線
 48
50.0
100
AcDbLine
 10
6336.554186436848
 20
11529.5208473249
 30
0.0
 11
6337.380301896743
 21
11513.5421886438
 31
0.0
  0
LINE
  5
1D119
330
747D
100
AcDbEntity
  8
細線
 48
50.0
100
AcDbLine
 10
6357.353625248112
 20
11514.57483296867
 30
0.0
 11
6337.38030189675
 21
11513.5421886438
 31
0.0
  0
MTEXT
  5
1D11A
102
{ACAD_REACTORS
330
1D11B
102
}
330
747D
100
AcDbEntity
  8
部品1
 62
     7
 48
50.0
100
AcDbMText
 10
7653.228562898561
 20
8716.282041753688
 30
0.0
 40
150.0
 41
0.0
 71
     4
 72
     1
  1
\A1;ジョイントカバー
  7
STYLE1
 73
     1
 44
1.0
  0
LEADER
  5
1D11B
330
747D
100
AcDbEntity
  8
寸法
 48
50.0
100
AcDbLeader
  3
INABA_S50G
 71
     0
 73
     0
 74
     0
 75
     1
 40
150.0
 41
1397.5
 76
     3
 10
6949.657560436235
 20
9547.434887568462
 30
0.0
 10
7503.22856289856
 20
8616.282041753688
 30
0.0
 10
7628.22856289856
 20
8616.282041753688
 30
0.0
340
1D11A
1001
ACAD
1000
DSTYLE
1002
{
1070
     6
1000
DOTSMALL
1002
}
  0
LINE
  5
1D11C
330
747D
100
AcDbEntity
  8
部品1
100
AcDbLine
 10
7289.05513660854
 20
7310.010941144016
 30
0.0
 11
7289.05513660854
 21
7709.831477053232
 31
0.0
  0
DIMENSION
  5
1D11D
330
747D
100
AcDbEntity
  8
寸法
 48
50.0
100
AcDbDimension
  2
*D49
 10
9477.490021403353
 20
9363.736797361928
 30
0.0
 11
9377.475257623826
 21
10498.73679736192
 31
0.0
 70
    32
 71
     5
 42
-1.0
  3
INABA_S50G
100
AcDbAlignedDimension
 13
7727.829581418181
 23
11633.73679736192
 33
0.0
 14
7592.829581418175
 24
9363.736797361928
 34
0.0
 50
270.0
100
AcDbRotatedDimension
  0
MTEXT
  5
1D11E
102
{ACAD_REACTORS
330
1D15C
102
}
330
747D
100
AcDbEntity
  8
寸法
 62
     7
 48
50.0
100
AcDbMText
 10
7351.391372236786
 20
10202.5518772182
 30
0.0
 40
150.0
 41
0.0
 71
     6
 72
     1
  1
\A1;額縁
  7
STYLE1
 73
     1
 44
1.0
  0
LINE
  5
1D11F
330
747D
100
AcDbEntity
  8
細線
 48
50.0
100
AcDbLine
 10
7536.07958141816
 20
10191.73679736194
 30
0.0
 11
7536.079581418167
 21
11179.23679736193
 31
0.0
  0
LINE
  5
1D120
330
747D
100
AcDbEntity
  8
細線
 48
50.0
100
AcDbLine
 10
7560.579581418153
 20
10191.73679736194
 30
0.0
 11
7560.579581418197
 21
11179.23679736193
 31
0.0
  0
LINE
  5
1D121
330
747D
100
AcDbEntity
  8
細線
 48
50.0
100
AcDbLine
 10
7570.129581418178
 20
10191.73679736192
 30
0.0
 11
7570.129581418185
 21
11179.23679736191
 31
0.0
  0
LINE
  5
1D122
330
747D
100
AcDbEntity
  8
細線
 48
50.0
100
AcDbLine
 10
7593.129581418171
 20
10191.73679736192
 30
0.0
 11
7593.129581418214
 21
11179.23679736191
 31
0.0
  0
LINE
  5
1D123
330
747D
100
AcDbEntity
  8
部品1
 48
50.0
100
AcDbLine
 10
7506.329581418174
 20
11367.5946617382
 30
0.0
 11
7506.329581418174
 21
9470.736797361928
 31
0.0
  0
DIMENSION
  5
1D124
330
747D
100
AcDbEntity
  8
寸法
 48
50.0
100
AcDbDimension
  2
*D50
 10
9143.235356238895
 20
9418.736797361928
 30
0.0
 11
9043.235356238893
 21
10391.23679736192
 31
0.0
 70
    32
 71
     5
 42
-1.0
  3
INABA_S50G
100
AcDbAlignedDimension
 13
7592.829581418175
 23
11363.73679736192
 33
0.0
 14
8811.033355093792
 24
9418.736797361928
 34
0.0
 50
270.0
100
AcDbRotatedDimension
  0
DIMENSION
  5
1D125
330
747D
100
AcDbEntity
  8
寸法
 48
50.0
100
AcDbDimension
  2
*D51
 10
8811.033355093792
 20
11218.73679736192
 30
0.0
 11
8711.033355093791
 21
10683.73679736192
 31
0.0
 70
    32
 71
     5
 42
-1.0
  3
INABA_S50G
100
AcDbAlignedDimension
 13
7592.829581418175
 23
10148.73679736192
 33
0.0
 14
7592.829581418168
 24
11218.73679736192
 34
0.0
 50
90.0
100
AcDbRotatedDimension
1001
ACAD
1000
DSTYLE
1002
{
1070
   287
1070
     4
1070
    75
1070
     1
1070
   279
1070
     1
1002
}
  0
LINE
  5
1D126
330
747D
100
AcDbEntity
  8
部品1
 48
50.0
100
AcDbLine
 10
6960.829581418174
 20
11367.5946617382
 30
0.0
 11
6960.829581418174
 21
9470.736797361928
 31
0.0
  0
LINE
  5
1D127
330
747D
100
AcDbEntity
  8
部品1
 48
50.0
100
AcDbLine
 10
6924.829581418174
 20
11367.5946617382
 30
0.0
 11
6924.829581418174
 21
9470.736797361928
 31
0.0
  0
DIMENSION
  5
1D128
330
747D
100
AcDbEntity
  8
寸法
 48
50.0
100
AcDbDimension
  2
*D52
 10
9143.235356238895
 20
9363.736797361928
 30
0.0
 11
9143.235356238895
 21
9108.672248427685
 31
0.0
 70
   160
 71
     5
 42
-1.0
  3
INABA_S50G
100
AcDbAlignedDimension
 13
8811.033355093792
 23
9418.736797361928
 33
0.0
 14
7592.829581418175
 24
9363.736797361928
 34
0.0
 50
270.0
100
AcDbRotatedDimension
  0
DIMENSION
  5
1D129
330
747D
100
AcDbEntity
  8
寸法
 48
50.0
100
AcDbDimension
  2
*D53
 10
8811.033355093792
 20
10148.73679736192
 30
0.0
 11
8711.033355093793
 21
9756.236797361928
 31
0.0
 70
    32
 71
     5
 42
-1.0
  3
INABA_S50G
100
AcDbAlignedDimension
 13
7592.829581418175
 23
9363.736797361928
 33
0.0
 14
7592.829581418175
 24
10148.73679736192
 34
0.0
 50
90.0
100
AcDbRotatedDimension
  0
LINE
  5
1D12A
330
747D
100
AcDbEntity
  8
部品1
 48
50.0
100
AcDbLine
 10
7592.829581418175
 20
10148.73679736192
 30
0.0
 11
7592.829581418175
 21
9418.736797361928
 31
0.0
  0
LINE
  5
1D12B
330
747D
100
AcDbEntity
  8
細線
 48
50.0
100
AcDbLine
 10
7557.829581418167
 20
10148.73679736192
 30
0.0
 11
7557.829581418174
 21
9418.736797361928
 31
0.0
  0
LINE
  5
1D12C
330
747D
100
AcDbEntity
  8
部品1
 48
50.0
100
AcDbLine
 10
7542.329581418167
 20
10148.73679736192
 30
0.0
 11
7542.329581418174
 21
9430.736797361928
 31
0.0
  0
LINE
  5
1D12D
330
747D
100
AcDbEntity
  8
部品1
 48
50.0
100
AcDbLine
 10
7533.329581418175
 20
9470.736797361928
 30
0.0
 11
7533.329581418175
 21
9430.736797361928
 31
0.0
  0
MTEXT
  5
1D12E
102
{ACAD_REACTORS
330
1D12F
102
}
330
747D
100
AcDbEntity
  8
寸法
 62
     7
 48
50.0
100
AcDbMText
 10
7320.13326726412
 20
9701.080712269252
 30
0.0
 40
150.0
 41
0.0
 71
     6
 72
     1
  1
\A1;巾木
  7
STYLE1
 73
     1
 44
1.0
  0
LEADER
  5
1D12F
330
747D
100
AcDbEntity
  8
寸法
 48
50.0
100
AcDbLeader
  3
INABA_S50G
 71
     0
 73
     0
 75
     1
 40
150.0
 41
310.0
 76
     3
 10
7533.329581418168
 20
9455.070269982718
 30
0.0
 10
7470.13326726412
 20
9601.080712269251
 30
0.0
 10
7345.13326726412
 20
9601.080712269251
 30
0.0
340
1D12E
1001
ACAD
1000
DSTYLE
1002
{
1070
     6
1000
DOTSMALL
1002
}
  0
LINE
  5
1D130
330
747D
100
AcDbEntity
  8
細線
 48
50.0
100
AcDbLine
 10
7591.603525334625
 20
9028.736797361927
 30
0.0
 11
7461.829581418175
 21
9158.510741278385
 31
0.0
  0
LINE
  5
1D131
330
747D
100
AcDbEntity
  8
細線
 48
50.0
100
AcDbLine
 10
7618.120029629119
 20
9028.736797361927
 30
0.0
 11
7461.829581418175
 21
9185.02724557288
 31
0.0
  0
LINE
  5
1D132
330
747D
100
AcDbEntity
  8
細線
 48
50.0
100
AcDbLine
 10
7469.039133207231
 20
9228.736797361928
 30
0.0
 11
7592.829581418175
 21
9352.527245572872
 31
0.0
  0
LINE
  5
1D133
330
747D
100
AcDbEntity
  8
部品1
 48
50.0
100
AcDbLine
 10
7661.829581418174
 20
9028.736797361927
 30
0.0
 11
7461.829581418175
 21
9028.736797361927
 31
0.0
  0
LINE
  5
1D134
330
747D
100
AcDbEntity
  8
細線
 48
50.0
100
AcDbLine
 10
7565.087021040125
 20
9028.736797361927
 30
0.0
 11
7461.829581418175
 21
9131.994236983883
 31
0.0
  0
LINE
  5
1D135
330
747D
100
AcDbEntity
  8
部品1
 48
50.0
100
AcDbLine
 10
6956.829581418175
 20
9412.736797361928
 30
0.0
 11
6928.829581418175
 21
9412.736797361928
 31
0.0
  0
LINE
  5
1D136
330
747D
100
AcDbEntity
  8
部品1
 48
50.0
100
AcDbLine
 10
6922.829581418175
 20
9418.736797361928
 30
0.0
 11
6922.829581418175
 21
9363.736797361928
 31
0.0
  0
LINE
  5
1D137
330
747D
100
AcDbEntity
  8
部品1
 48
50.0
100
AcDbLine
 10
6928.829581418175
 20
9418.736797361928
 30
0.0
 11
6928.829581418175
 21
9412.736797361928
 31
0.0
  0
LINE
  5
1D138
330
747D
100
AcDbEntity
  8
部品1
 48
50.0
100
AcDbLine
 10
6928.829581418175
 20
9418.736797361928
 30
0.0
 11
6922.829581418175
 21
9418.736797361928
 31
0.0
  0
LINE
  5
1D139
330
747D
100
AcDbEntity
  8
部品1
 48
50.0
100
AcDbLine
 10
6962.829581418175
 20
9363.736797361928
 30
0.0
 11
6962.829581418175
 21
9418.736797361928
 31
0.0
  0
LINE
  5
1D13A
330
747D
100
AcDbEntity
  8
部品1
 48
50.0
100
AcDbLine
 10
6962.829581418175
 20
9418.736797361928
 30
0.0
 11
6956.829581418175
 21
9418.736797361928
 31
0.0
  0
LINE
  5
1D13B
330
747D
100
AcDbEntity
  8
部品1
 48
50.0
100
AcDbLine
 10
6956.829581418175
 20
9412.736797361928
 30
0.0
 11
6956.829581418175
 21
9418.736797361928
 31
0.0
  0
LINE
  5
1D13C
330
747D
100
AcDbEntity
  8
部品1
 48
50.0
100
AcDbLine
 10
7218.829581418174
 20
9418.736797361928
 30
0.0
 11
7212.829581418175
 21
9418.736797361928
 31
0.0
  0
LINE
  5
1D13D
330
747D
100
AcDbEntity
  8
部品1
 48
50.0
100
AcDbLine
 10
7252.829581418175
 20
9418.736797361928
 30
0.0
 11
7246.829581418174
 21
9418.736797361928
 31
0.0
  0
LINE
  5
1D13E
330
747D
100
AcDbEntity
  8
部品1
 48
50.0
100
AcDbLine
 10
7246.829581418174
 20
9412.736797361928
 30
0.0
 11
7218.829581418174
 21
9412.736797361928
 31
0.0
  0
LINE
  5
1D13F
330
747D
100
AcDbEntity
  8
部品1
 48
50.0
100
AcDbLine
 10
7218.829581418174
 20
9418.736797361928
 30
0.0
 11
7218.829581418174
 21
9412.736797361928
 31
0.0
  0
LINE
  5
1D140
330
747D
100
AcDbEntity
  8
部品1
 48
50.0
100
AcDbLine
 10
7246.829581418174
 20
9412.736797361928
 30
0.0
 11
7246.829581418174
 21
9418.736797361928
 31
0.0
  0
LINE
  5
1D141
330
747D
100
AcDbEntity
  8
部品1
 48
50.0
100
AcDbLine
 10
7212.829581418175
 20
9418.736797361928
 30
0.0
 11
7212.829581418175
 21
9363.736797361928
 31
0.0
  0
LINE
  5
1D142
330
747D
100
AcDbEntity
  8
部品1
 48
50.0
100
AcDbLine
 10
7252.829581418175
 20
9363.736797361928
 30
0.0
 11
7252.829581418175
 21
9418.736797361928
 31
0.0
  0
LINE
  5
1D143
330
747D
100
AcDbEntity
  8
部品1
 48
50.0
100
AcDbLine
 10
7461.829581418175
 20
9028.736797361927
 30
0.0
 11
7461.829581418175
 21
9228.736797361928
 31
0.0
  0
LINE
  5
1D144
330
747D
100
AcDbEntity
  8
細線
 48
50.0
100
AcDbLine
 10
7392.829581418175
 20
9276.010741278378
 30
0.0
 11
7480.555637501717
 21
9363.736797361928
 31
0.0
  0
LINE
  5
1D145
330
747D
100
AcDbEntity
  8
細線
 48
50.0
100
AcDbLine
 10
7392.829581418175
 20
9302.527245572873
 30
0.0
 11
7454.03913320723
 21
9363.736797361928
 31
0.0
  0
LINE
  5
1D146
330
747D
100
AcDbEntity
  8
部品1
 48
50.0
100
AcDbLine
 10
7392.829581418175
 20
9363.736797361928
 30
0.0
 11
7392.829581418175
 21
9228.736797361928
 31
0.0
  0
LINE
  5
1D147
330
747D
100
AcDbEntity
  8
部品1
 48
50.0
100
AcDbLine
 10
7592.829581418175
 20
9418.736797361928
 30
0.0
 11
7557.329581418175
 21
9418.736797361928
 31
0.0
  0
LINE
  5
1D148
330
747D
100
AcDbEntity
  8
破線
 48
3.0
100
AcDbLine
 10
7582.829581418174
 20
9122.736797361929
 30
0.0
 11
7540.829581418176
 21
9122.736797361929
 31
0.0
  0
LINE
  5
1D149
330
747D
100
AcDbEntity
  8
細線
 48
50.0
100
AcDbLine
 10
7495.555637501723
 20
9228.736797361928
 30
0.0
 11
7592.829581418175
 21
9326.010741278386
 31
0.0
  0
LINE
  5
1D14A
330
747D
100
AcDbEntity
  8
細線
 48
50.0
100
AcDbLine
 10
7661.829581418174
 20
9108.510741278385
 30
0.0
 11
7541.60352533464
 21
9228.736797361928
 31
0.0
  0
LINE
  5
1D14B
330
747D
100
AcDbEntity
  8
細線
 48
50.0
100
AcDbLine
 10
7661.829581418174
 20
9135.02724557288
 30
0.0
 11
7568.120029629112
 21
9228.736797361928
 31
0.0
  0
LINE
  5
1D14C
330
747D
100
AcDbEntity
  8
細線
 48
50.0
100
AcDbLine
 10
7661.829581418167
 20
9081.994236983884
 30
0.0
 11
7515.087021040146
 21
9228.736797361928
 31
0.0
  0
LINE
  5
1D14D
330
747D
100
AcDbEntity
  8
部品1
 48
50.0
100
AcDbLine
 10
7557.329581418175
 20
9418.736797361928
 30
0.0
 11
7557.329581418175
 21
9430.736797361928
 31
0.0
  0
LINE
  5
1D14E
330
747D
100
AcDbEntity
  8
部品1
 48
50.0
100
AcDbLine
 10
7557.329581418175
 20
9430.736797361928
 30
0.0
 11
7542.329581418174
 21
9430.736797361928
 31
0.0
  0
LINE
  5
1D14F
330
747D
100
AcDbEntity
  8
部品1
 48
50.0
100
AcDbLine
 10
7542.329581418174
 20
9430.736797361928
 30
0.0
 11
7542.329581418174
 21
9418.736797361928
 31
0.0
  0
LINE
  5
1D150
330
747D
100
AcDbEntity
  8
部品1
 48
50.0
100
AcDbLine
 10
7542.329581418174
 20
9418.736797361928
 30
0.0
 11
7528.329581418176
 21
9418.736797361928
 31
0.0
  0
LINE
  5
1D151
330
747D
100
AcDbEntity
  8
部品1
 48
50.0
100
AcDbLine
 10
7528.329581418176
 20
9418.736797361928
 30
0.0
 11
7528.329581418176
 21
9411.736797361928
 31
0.0
  0
LINE
  5
1D152
330
747D
100
AcDbEntity
  8
部品1
 48
50.0
100
AcDbLine
 10
7528.329581418176
 20
9411.736797361928
 30
0.0
 11
7504.329581418175
 21
9411.736797361928
 31
0.0
  0
LINE
  5
1D153
330
747D
100
AcDbEntity
  8
部品1
 48
50.0
100
AcDbLine
 10
7504.329581418175
 20
9411.736797361928
 30
0.0
 11
7504.329581418175
 21
9363.736797361928
 31
0.0
  0
LINE
  5
1D154
330
747D
100
AcDbEntity
  8
部品1
 48
50.0
100
AcDbLine
 10
7533.329581418175
 20
9430.736797361928
 30
0.0
 11
7542.329581418174
 21
9430.736797361928
 31
0.0
  0
LINE
  5
1D155
330
747D
100
AcDbEntity
  8
破線
 48
3.0
100
AcDbLine
 10
7540.829581418176
 20
9228.736797361928
 30
0.0
 11
7540.829581418176
 21
9122.736797361929
 31
0.0
  0
LINE
  5
1D156
330
747D
100
AcDbEntity
  8
部品1
 48
50.0
100
AcDbLine
 10
7592.829581418175
 20
9412.736797361928
 30
0.0
 11
7586.829581418175
 21
9412.736797361928
 31
0.0
  0
LINE
  5
1D157
330
747D
100
AcDbEntity
  8
部品1
 48
50.0
100
AcDbLine
 10
7586.829581418175
 20
9412.736797361928
 30
0.0
 11
7586.829581418175
 21
9418.736797361928
 31
0.0
  0
LINE
  5
1D158
330
747D
100
AcDbEntity
  8
部品1
 48
50.0
100
AcDbLine
 10
7592.829581418175
 20
9412.736797361928
 30
0.0
 11
7592.829581418175
 21
9363.736797361928
 31
0.0
  0
LINE
  5
1D159
330
747D
100
AcDbEntity
  8
破線
 48
3.0
100
AcDbLine
 10
7582.829581418174
 20
9228.736797361928
 30
0.0
 11
7582.829581418174
 21
9122.736797361929
 31
0.0
  0
LINE
  5
1D15A
330
747D
100
AcDbEntity
  8
部品1
 48
50.0
100
AcDbLine
 10
7592.829581418175
 20
9363.736797361928
 30
0.0
 11
7592.829581418175
 21
9228.736797361928
 31
0.0
  0
LINE
  5
1D15B
330
747D
100
AcDbEntity
  8
部品1
 48
50.0
100
AcDbLine
 10
7661.829581418174
 20
9228.736797361928
 30
0.0
 11
7661.829581418174
 21
9028.736797361927
 31
0.0
  0
LEADER
  5
1D15C
330
747D
100
AcDbEntity
  8
寸法
 48
50.0
100
AcDbLeader
  3
INABA_S50G
 71
     0
 73
     0
 75
     1
 40
150.0
 41
360.0
 76
     3
 10
7533.329581418175
 20
10156.36369594979
 30
0.0
 10
7501.391372236786
 20
10102.55187721819
 30
0.0
 10
7376.391372236786
 20
10102.55187721819
 30
0.0
340
1D11E
1001
ACAD
1000
DSTYLE
1002
{
1070
     6
1000
DOTSMALL
1002
}
  0
LINE
  5
1D15D
330
747D
100
AcDbEntity
  8
細線
 48
50.0
100
AcDbLine
 10
7601.329581418181
 20
10162.73679736192
 30
0.0
 11
7601.329581418181
 21
10159.73679736192
 31
0.0
  0
LINE
  5
1D15E
330
747D
100
AcDbEntity
  8
細線
 48
50.0
100
AcDbLine
 10
7601.329581418167
 20
10171.63679736192
 30
0.0
 11
7601.329581418181
 21
10180.73679736192
 31
0.0
  0
LINE
  5
1D15F
330
747D
100
AcDbEntity
  8
細線
 48
50.0
100
AcDbLine
 10
7560.579581418153
 20
10191.73679736194
 30
0.0
 11
7536.07958141816
 21
10191.73679736194
 31
0.0
  0
LINE
  5
1D160
330
747D
100
AcDbEntity
  8
細線
 48
50.0
100
AcDbLine
 10
7593.129581418171
 20
10191.73679736192
 30
0.0
 11
7570.129581418178
 21
10191.73679736192
 31
0.0
  0
LINE
  5
1D161
330
747D
100
AcDbEntity
  8
細線
 48
50.0
100
AcDbLine
 10
7542.329581418174
 20
10136.73679736192
 30
0.0
 11
7530.329581418175
 21
10136.73679736192
 31
0.0
  0
LINE
  5
1D162
330
747D
100
AcDbEntity
  8
細線
 48
50.0
100
AcDbLine
 10
7530.329581418175
 20
10136.73679736192
 30
0.0
 11
7530.329581418175
 21
10172.73679736192
 31
0.0
  0
LINE
  5
1D163
330
747D
100
AcDbEntity
  8
細線
 48
50.0
100
AcDbLine
 10
7597.129581418177
 20
10144.23679736192
 30
0.0
 11
7592.829581418175
 21
10144.23679736192
 31
0.0
  0
LINE
  5
1D164
330
747D
100
AcDbEntity
  8
細線
 48
50.0
100
AcDbLine
 10
7597.129581418186
 20
10162.73679736192
 30
0.0
 11
7597.129581418186
 21
10144.23679736192
 31
0.0
  0
LINE
  5
1D165
330
747D
100
AcDbEntity
  8
細線
 48
50.0
100
AcDbLine
 10
7592.829581418182
 20
10180.73679736192
 30
0.0
 11
7592.829581418182
 21
10162.73679736192
 31
0.0
  0
LINE
  5
1D166
330
747D
100
AcDbEntity
  8
細線
 48
50.0
100
AcDbLine
 10
7561.029581418172
 20
10181.73679736192
 30
0.0
 11
7592.829581418182
 21
10180.73679736192
 31
0.0
  0
LINE
  5
1D167
330
747D
100
AcDbEntity
  8
細線
 48
50.0
100
AcDbLine
 10
7561.029581418172
 20
10184.23679736192
 30
0.0
 11
7561.029581418179
 21
10148.73679736192
 31
0.0
  0
LINE
  5
1D168
330
747D
100
AcDbEntity
  8
細線
 48
50.0
100
AcDbLine
 10
7581.62958141817
 20
10181.08899861978
 30
0.0
 11
7581.629581418177
 21
10201.73679736192
 31
0.0
  0
LINE
  5
1D169
330
747D
100
AcDbEntity
  8
細線
 48
50.0
100
AcDbLine
 10
7548.329581418167
 20
10184.66440678954
 30
0.0
 11
7548.329581418174
 21
10201.73679736192
 31
0.0
  0
LINE
  5
1D16A
330
747D
100
AcDbEntity
  8
細線
 48
50.0
100
AcDbLine
 10
7531.329581418174
 20
10185.23679736192
 30
0.0
 11
7561.029581418172
 21
10184.23679736192
 31
0.0
  0
LINE
  5
1D16B
330
747D
100
AcDbEntity
  8
細線
 48
50.0
100
AcDbLine
 10
7531.329581418174
 20
10172.73679736192
 30
0.0
 11
7531.329581418174
 21
10200.73679736192
 31
0.0
  0
LINE
  5
1D16C
330
747D
100
AcDbEntity
  8
細線
 48
50.0
100
AcDbLine
 10
7542.329581418174
 20
10172.73679736192
 30
0.0
 11
7530.329581418175
 21
10172.73679736192
 31
0.0
  0
LINE
  5
1D16D
330
747D
100
AcDbEntity
  8
細線
 48
50.0
100
AcDbLine
 10
7542.329581418174
 20
10136.73679736192
 30
0.0
 11
7542.329581418174
 21
10172.73679736192
 31
0.0
  0
LINE
  5
1D16E
330
747D
100
AcDbEntity
  8
細線
 48
50.0
100
AcDbLine
 10
7592.829581418175
 20
10148.73679736192
 30
0.0
 11
7542.329581418174
 21
10148.73679736192
 31
0.0
  0
LINE
  5
1D16F
330
747D
100
AcDbEntity
  8
細線
 48
50.0
100
AcDbLine
 10
7601.329581418181
 20
10162.73679736192
 30
0.0
 11
7561.029581418172
 21
10162.73679736192
 31
0.0
  0
LINE
  5
1D170
330
747D
100
AcDbEntity
  8
細線
 48
50.0
100
AcDbLine
 10
7592.829581418182
 20
10171.63679736192
 30
0.0
 11
7601.329581418167
 21
10171.63679736192
 31
0.0
  0
LINE
  5
1D171
330
747D
100
AcDbEntity
  8
部品1
 48
50.0
100
AcDbLine
 10
7542.329581418174
 20
9470.736797361928
 30
0.0
 11
7533.329581418175
 21
9470.736797361928
 31
0.0
  0
MTEXT
  5
1D172
102
{ACAD_REACTORS
330
1D174
102
}
330
747D
100
AcDbEntity
  8
寸法
 62
     7
 48
50.0
100
AcDbMText
 10
7958.978774274268
 20
11097.85083762996
 30
0.0
 40
150.0
 41
0.0
 71
     4
 72
     1
  1
\A1;桁前
  7
STYLE1
 73
     1
 44
1.0
  0
MTEXT
  5
1D173
102
{ACAD_REACTORS
330
1D175
102
}
330
747D
100
AcDbEntity
  8
寸法
 62
     7
 48
50.0
100
AcDbMText
 10
7885.143168490204
 20
10535.24827682972
 30
0.0
 40
150.0
 41
0.0
 71
     4
 72
     1
  1
\A1;ガラス窓
  7
STYLE1
 73
     1
 44
1.0
  0
LEADER
  5
1D174
330
747D
100
AcDbEntity
  8
寸法
 48
50.0
100
AcDbLeader
  3
INABA_S50G
 71
     0
 73
     0
 74
     0
 75
     1
 40
150.0
 41
337.5
 76
     3
 10
7592.829581418175
 20
11430.44622311194
 30
0.0
 10
7808.978774274269
 20
10997.85083762996
 30
0.0
 10
7933.978774274269
 20
10997.85083762996
 30
0.0
340
1D172
1001
ACAD
1000
DSTYLE
1002
{
1070
     6
1000
DOTSMALL
1002
}
  0
LEADER
  5
1D175
330
747D
100
AcDbEntity
  8
寸法
 48
50.0
100
AcDbLeader
  3
INABA_S50G
 71
     0
 73
     0
 74
     0
 75
     1
 40
150.0
 41
709.9999999999998
 76
     3
 10
7585.193960732794
 20
10722.90582485964
 30
0.0
 10
7735.143168490203
 20
10435.24827682972
 30
0.0
 10
7860.143168490203
 20
10435.24827682972
 30
0.0
340
1D173
1001
ACAD
1000
DSTYLE
1002
{
1070
     6
1000
DOTSMALL
1002
}
  0
LINE
  5
1D176
330
747D
100
AcDbEntity
  8
細線
 48
50.0
100
AcDbLine
 10
7548.32958141816
 20
11147.23679736192
 30
0.0
 11
7548.329581418174
 21
10228.73679736192
 31
0.0
  0
LINE
  5
1D177
330
747D
100
AcDbEntity
  8
細線
 48
50.0
100
AcDbLine
 10
7581.629581418177
 20
11147.23679736192
 30
0.0
 11
7581.629581418193
 21
10228.73679736192
 31
0.0
  0
LINE
  5
1D178
330
747D
100
AcDbEntity
  8
細線
 48
50.0
100
AcDbLine
 10
7560.579581418181
 20
10234.73679736194
 30
0.0
 11
7536.07958141816
 21
10234.73679736194
 31
0.0
  0
LINE
  5
1D179
330
747D
100
AcDbEntity
  8
細線
 48
50.0
100
AcDbLine
 10
7593.1295814182
 20
10234.73679736193
 30
0.0
 11
7570.129581418178
 21
10234.73679736192
 31
0.0
  0
LINE
  5
1D17A
330
747D
100
AcDbEntity
  8
部品1
 48
50.0
100
AcDbLine
 10
6967.829581418175
 20
11413.73679736192
 30
0.0
 11
6967.829581418175
 21
11556.73679736192
 31
0.0
  0
LINE
  5
1D17B
330
747D
100
AcDbEntity
  8
部品1
 48
50.0
100
AcDbLine
 10
6917.829581418175
 20
11425.73679736192
 30
0.0
 11
6917.829581418175
 21
11413.73679736192
 31
0.0
  0
LINE
  5
1D17C
330
747D
100
AcDbEntity
  8
部品1
 48
50.0
100
AcDbLine
 10
6937.829581418175
 20
11544.23679736192
 30
0.0
 11
6917.829581418175
 21
11543.23679736192
 31
0.0
  0
LINE
  5
1D17D
330
747D
100
AcDbEntity
  8
部品1
 48
50.0
100
AcDbLine
 10
6937.829581418175
 20
11555.23679736192
 30
0.0
 11
6937.829581418175
 21
11544.23679736192
 31
0.0
  0
LINE
  5
1D17E
330
747D
100
AcDbEntity
  8
細線
 48
50.0
100
AcDbLine
 10
6937.378935371843
 20
11544.56282416284
 30
0.0
 11
6917.405612020482
 21
11543.53017983797
 31
0.0
  0
LINE
  5
1D17F
330
747D
100
AcDbEntity
  8
細線
 48
50.0
100
AcDbLine
 10
6936.552819911949
 20
11560.54148284394
 30
0.0
 11
6937.378935371843
 21
11544.56282416284
 31
0.0
  0
LINE
  5
1D180
330
747D
100
AcDbEntity
  8
細線
 48
50.0
100
AcDbLine
 10
6916.579496560586
 20
11559.50883851907
 30
0.0
 11
6917.405612020482
 21
11543.53017983798
 31
0.0
  0
LINE
  5
1D181
330
747D
100
AcDbEntity
  8
部品1
 48
50.0
100
AcDbLine
 10
6967.829581418175
 20
11556.73679736192
 30
0.0
 11
6937.829581418175
 21
11555.23679736192
 31
0.0
  0
LINE
  5
1D182
330
747D
100
AcDbEntity
  8
部品1
 48
50.0
100
AcDbLine
 10
6917.829581418175
 20
11413.73679736192
 30
0.0
 11
6967.829581418175
 21
11413.73679736192
 31
0.0
  0
LINE
  5
1D183
330
747D
100
AcDbEntity
  8
細線
 48
50.0
100
AcDbLine
 10
7601.329581418167
 20
11172.23679736192
 30
0.0
 11
7601.329581418167
 21
11198.73679736192
 31
0.0
  0
LINE
  5
1D184
330
747D
100
AcDbEntity
  8
部品1
 48
50.0
100
AcDbLine
 10
7592.829581418175
 20
11588.73679736192
 30
0.0
 11
7592.829581418175
 21
11200.62568625081
 31
0.0
  0
LINE
  5
1D185
330
747D
100
AcDbEntity
  8
部品1
 48
50.0
100
AcDbLine
 10
7542.329581418174
 20
11378.73679736192
 30
0.0
 11
7542.329581418174
 21
11238.73679736193
 31
0.0
  0
LINE
  5
1D186
330
747D
100
AcDbEntity
  8
細線
 48
50.0
100
AcDbLine
 10
7557.829581418174
 20
11378.73679736192
 30
0.0
 11
7557.829581418182
 21
11218.73679736192
 31
0.0
  0
LINE
  5
1D187
330
747D
100
AcDbEntity
  8
細線
 48
50.0
100
AcDbLine
 10
7530.329581418168
 20
11210.73679736192
 30
0.0
 11
7530.329581418168
 21
11246.73679736192
 31
0.0
  0
LINE
  5
1D188
330
747D
100
AcDbEntity
  8
細線
 48
50.0
100
AcDbLine
 10
7542.329581418167
 20
11210.73679736192
 30
0.0
 11
7530.329581418168
 21
11210.73679736192
 31
0.0
  0
LINE
  5
1D189
330
747D
100
AcDbEntity
  8
細線
 48
50.0
100
AcDbLine
 10
7542.329581418167
 20
11246.73679736192
 30
0.0
 11
7530.329581418168
 21
11246.73679736192
 31
0.0
  0
LINE
  5
1D18A
330
747D
100
AcDbEntity
  8
細線
 48
50.0
100
AcDbLine
 10
7592.829581418168
 20
11218.73679736192
 30
0.0
 11
7557.829581418182
 21
11218.73679736192
 31
0.0
  0
LINE
  5
1D18B
330
747D
100
AcDbEntity
  8
細線
 48
50.0
100
AcDbLine
 10
7542.329581418174
 20
11238.73679736192
 30
0.0
 11
7557.829581418174
 21
11238.73679736192
 31
0.0
  0
LINE
  5
1D18C
330
747D
100
AcDbEntity
  8
細線
 48
50.0
100
AcDbLine
 10
7542.329581418167
 20
11210.73679736192
 30
0.0
 11
7542.32958141816
 21
11246.73679736192
 31
0.0
  0
LINE
  5
1D18D
330
747D
100
AcDbEntity
  8
細線
 48
50.0
100
AcDbLine
 10
7531.329581418167
 20
11210.73679736192
 30
0.0
 11
7531.329581418167
 21
11173.23679736192
 31
0.0
  0
LINE
  5
1D18E
330
747D
100
AcDbEntity
  8
細線
 48
50.0
100
AcDbLine
 10
7531.329581418167
 20
11173.23679736192
 30
0.0
 11
7531.329581418167
 21
11198.23679736192
 31
0.0
  0
LINE
  5
1D18F
330
747D
100
AcDbEntity
  8
細線
 48
50.0
100
AcDbLine
 10
7531.329581418167
 20
11198.23679736192
 30
0.0
 11
7581.62958141817
 21
11198.23679736192
 31
0.0
  0
LINE
  5
1D190
330
747D
100
AcDbEntity
  8
細線
 48
50.0
100
AcDbLine
 10
7548.329581418167
 20
11171.23679736192
 30
0.0
 11
7548.329581418167
 21
11198.23679736192
 31
0.0
  0
LINE
  5
1D191
330
747D
100
AcDbEntity
  8
細線
 48
50.0
100
AcDbLine
 10
7581.62958141817
 20
11171.23679736192
 30
0.0
 11
7581.62958141817
 21
11200.73679736192
 31
0.0
  0
LINE
  5
1D192
330
747D
100
AcDbEntity
  8
細線
 48
50.0
100
AcDbLine
 10
7592.329581418167
 20
11200.73679736192
 30
0.0
 11
7592.329581418167
 21
11218.23679736192
 31
0.0
  0
LINE
  5
1D193
330
747D
100
AcDbEntity
  8
細線
 48
50.0
100
AcDbLine
 10
7557.329581418168
 20
11198.23679736192
 30
0.0
 11
7557.329581418168
 21
11238.73679736192
 31
0.0
  0
LINE
  5
1D194
330
747D
100
AcDbEntity
  8
細線
 48
50.0
100
AcDbLine
 10
7592.329581418167
 20
11200.73679736192
 30
0.0
 11
7581.629581418162
 21
11200.73679736192
 31
0.0
  0
LINE
  5
1D195
330
747D
100
AcDbEntity
  8
細線
 48
50.0
100
AcDbLine
 10
7593.129581418207
 20
11179.23679736192
 30
0.0
 11
7570.129581418178
 21
11179.23679736193
 31
0.0
  0
LINE
  5
1D196
330
747D
100
AcDbEntity
  8
細線
 48
50.0
100
AcDbLine
 10
7593.129581418178
 20
11141.23679736192
 30
0.0
 11
7570.129581418178
 21
11141.23679736192
 31
0.0
  0
LINE
  5
1D197
330
747D
100
AcDbEntity
  8
細線
 48
50.0
100
AcDbLine
 10
7560.579581418153
 20
11141.23679736192
 30
0.0
 11
7536.07958141816
 21
11141.23679736192
 31
0.0
  0
LINE
  5
1D198
330
747D
100
AcDbEntity
  8
細線
 48
50.0
100
AcDbLine
 10
7560.579581418188
 20
11179.23679736193
 30
0.0
 11
7536.07958141816
 21
11179.23679736192
 31
0.0
  0
LINE
  5
1D199
330
747D
100
AcDbEntity
  8
細線
 48
50.0
100
AcDbLine
 10
7601.329581418167
 20
11198.73679736192
 30
0.0
 11
7592.329581418167
 21
11200.73679736192
 31
0.0
  0
LINE
  5
1D19A
330
747D
100
AcDbEntity
  8
細線
 48
50.0
100
AcDbLine
 10
7592.829581418182
 20
11499.08397580094
 30
0.0
 11
7697.819836709006
 21
11500.75399803949
 31
0.0
  0
LINE
  5
1D19B
330
747D
100
AcDbEntity
  8
部品1
 48
50.0
100
AcDbLine
 10
7592.758011447083
 20
11503.58340662485
 30
0.0
 11
7694.748646188627
 21
11505.20571554934
 31
0.0
  0
ARC
  5
1D19C
330
747D
100
AcDbEntity
  8
部品1
100
AcDbCircle
 10
7712.329581418174
 20
11600.20873825648
 30
0.0
 40
15.5
100
AcDbArc
 50
358.1167995116895
 51
91.86125648319634
  0
ARC
  5
1D19D
330
747D
100
AcDbEntity
  8
部品1
100
AcDbCircle
 10
7706.572179567503
 20
11516.3951774863
 30
0.0
 40
15.5
100
AcDbArc
 50
270.9112955958145
 51
358.1167995116315
  0
ARC
  5
1D19E
330
747D
100
AcDbEntity
  8
部品1
100
AcDbCircle
 10
7724.654231278202
 20
11518.59483674579
 30
0.0
 40
2.5
100
AcDbArc
 50
99.02226950947451
 51
178.1167995116955
  0
ARC
  5
1D19F
330
747D
100
AcDbEntity
  8
部品1
100
AcDbCircle
 10
7724.074003404616
 20
11522.24905836089
 30
0.0
 40
1.199999999999999
100
AcDbArc
 50
279.0222695094722
 51
358.1167995116895
  0
LINE
  5
1D1A0
330
747D
100
AcDbEntity
  8
部品1
100
AcDbLine
 10
7722.155581542449
 20
11518.67699207423
 30
0.0
 11
7722.06380792921
 21
11515.88581444995
 31
0.0
  0
LINE
  5
1D1A1
330
747D
100
AcDbEntity
  8
部品1
100
AcDbLine
 10
7727.82120977988
 20
11599.69937522014
 30
0.0
 11
7725.273355277777
 21
11522.20962380324
 31
0.0
  0
ARC
  5
1D1A2
330
747D
100
AcDbEntity
  8
部品1
100
AcDbCircle
 10
7709.61492452878
 20
11617.16593841162
 30
0.0
 40
1.5
100
AcDbArc
 50
204.5961819643761
 51
270.9018459011026
  0
LINE
  5
1D1A3
330
747D
100
AcDbEntity
  8
部品1
 48
50.0
100
AcDbLine
 10
7709.638533824355
 20
11615.66612422274
 30
0.0
 11
7711.826151637431
 21
11615.70056056554
 31
0.0
  0
ARC
  5
1D1A4
330
747D
100
AcDbEntity
  8
部品1
 48
50.0
100
AcDbCircle
 10
7698.376609304379
 20
11629.70399808342
 30
0.0
 40
3.5
100
AcDbArc
 50
24.59618196436618
 51
91.03524671598787
  0
LINE
  5
1D1A5
330
747D
100
AcDbEntity
  8
部品1
100
AcDbLine
 10
7708.251028758501
 20
11616.54160810816
 30
0.0
 11
7701.559032768358
 21
11631.16076879148
 31
0.0
  0
LINE
  5
1D1A6
330
747D
100
AcDbEntity
  8
部品1
 48
50.0
100
AcDbLine
 10
7697.819836709006
 20
11500.75399803949
 30
0.0
 11
7697.795980051973
 21
11502.25380831413
 31
0.0
  0
ARC
  5
1D1A7
330
747D
100
AcDbEntity
  8
部品1
 48
50.0
100
AcDbCircle
 10
7694.796359502695
 20
11502.20609500006
 30
0.0
 40
3.0
100
AcDbArc
 50
0.9112955958087358
 51
90.91129559581467
  0
LINE
  5
1D1A8
330
747D
100
AcDbEntity
  8
部品1
 48
50.0
100
AcDbLine
 10
7697.819836709006
 20
11500.75399803949
 30
0.0
 11
7706.818698356844
 21
11500.89713798169
 31
0.0
  0
LINE
  5
1D1A9
330
747D
100
AcDbEntity
  8
部品1
 48
50.0
100
AcDbLine
 10
7650.613200803765
 20
11632.34146413894
 30
0.0
 11
7640.86360769221
 21
11603.9699038336
 31
0.0
  0
LINE
  5
1D1AA
330
747D
100
AcDbEntity
  8
細線
 48
50.0
100
AcDbLine
 10
7699.196796110924
 20
11622.00045751341
 30
0.0
 11
7700.332704868275
 21
11600.02980182689
 31
0.0
  0
LINE
  5
1D1AB
330
747D
100
AcDbEntity
  8
部品1
 48
50.0
100
AcDbLine
 10
7527.829581418174
 20
11413.73679736192
 30
0.0
 11
7505.829581418175
 21
11413.73679736192
 31
0.0
  0
LINE
  5
1D1AC
330
747D
100
AcDbEntity
  8
部品1
 48
50.0
100
AcDbLine
 10
7519.187445794449
 20
11393.73679736192
 30
0.0
 11
7527.829581418174
 21
11393.73679736192
 31
0.0
  0
LINE
  5
1D1AD
330
747D
100
AcDbEntity
  8
部品1
 48
50.0
100
AcDbLine
 10
7542.829581418175
 20
11378.73679736192
 30
0.0
 11
7542.329581418174
 21
11378.73679736192
 31
0.0
  0
LINE
  5
1D1AE
330
747D
100
AcDbEntity
  8
部品1
 48
50.0
100
AcDbLine
 10
7527.829581418174
 20
11413.73679736192
 30
0.0
 11
7505.829581418175
 21
11413.73679736192
 31
0.0
  0
LINE
  5
1D1AF
330
747D
100
AcDbEntity
  8
部品1
 48
50.0
100
AcDbLine
 10
7527.829581418174
 20
11393.73679736192
 30
0.0
 11
7527.829581418174
 21
11413.73679736192
 31
0.0
  0
LINE
  5
1D1B0
330
747D
100
AcDbEntity
  8
部品1
 48
50.0
100
AcDbLine
 10
7542.829581418175
 20
11378.73679736192
 30
0.0
 11
7527.829581418174
 21
11393.73679736192
 31
0.0
  0
LINE
  5
1D1B1
330
747D
100
AcDbEntity
  8
部品1
100
AcDbLine
 10
7518.187445794449
 20
11389.73679736192
 30
0.0
 11
7519.187445794449
 21
11389.73679736192
 31
0.0
  0
LINE
  5
1D1B2
330
747D
100
AcDbEntity
  8
部品1
100
AcDbLine
 10
7518.187445794449
 20
11388.73679736192
 30
0.0
 11
7518.187445794449
 21
11389.73679736192
 31
0.0
  0
LINE
  5
1D1B3
330
747D
100
AcDbEntity
  8
部品1
100
AcDbLine
 10
7519.187445794449
 20
11389.73679736192
 30
0.0
 11
7519.187445794449
 21
11393.73679736192
 31
0.0
  0
LINE
  5
1D1B4
330
747D
100
AcDbEntity
  8
部品1
100
AcDbLine
 10
7525.63719326275
 20
11384.11547701836
 30
0.0
 11
7524.930086481565
 21
11383.40837023718
 31
0.0
  0
LINE
  5
1D1B5
330
747D
100
AcDbEntity
  8
部品1
100
AcDbLine
 10
7523.515872919188
 20
11383.40837023718
 30
0.0
 11
7518.187445794449
 21
11388.73679736192
 31
0.0
  0
ARC
  5
1D1B6
330
747D
100
AcDbEntity
  8
部品1
100
AcDbCircle
 10
7524.22297970038
 20
11384.11547701836
 30
0.0
 40
1.0
100
AcDbArc
 50
225.0
 51
315.0
  0
LINE
  5
1D1B7
330
747D
100
AcDbEntity
  8
部品1
100
AcDbLine
 10
7532.708261074613
 20
11377.0444092065
 30
0.0
 11
7525.63719326275
 21
11384.11547701836
 31
0.0
  0
LINE
  5
1D1B8
330
747D
100
AcDbEntity
  8
部品1
100
AcDbLine
 10
7532.001075234801
 20
11376.33722336669
 30
0.0
 11
7532.708261074613
 21
11377.0444092065
 31
0.0
  0
ARC
  5
1D1B9
330
747D
100
AcDbEntity
  8
部品1
100
AcDbCircle
 10
7532.708261074613
 20
11375.63019565296
 30
0.0
 40
1.0
100
AcDbArc
 50
135.0000000000011
 51
225.0000000000003
  0
LINE
  5
1D1BA
330
747D
100
AcDbEntity
  8
部品1
100
AcDbLine
 10
7539.329581418176
 20
11367.5946617382
 30
0.0
 11
7542.329581418174
 21
11367.5946617382
 31
0.0
  0
LINE
  5
1D1BB
330
747D
100
AcDbEntity
  8
部品1
100
AcDbLine
 10
7539.329581418176
 20
11367.5946617382
 30
0.0
 11
7532.001154293428
 21
11374.92308887178
 31
0.0
  0
LINE
  5
1D1BC
330
747D
100
AcDbEntity
  8
部品1
 48
50.0
100
AcDbLine
 10
7564.329581418175
 20
11573.73679736192
 30
0.0
 11
7541.829581418174
 21
11573.73679736192
 31
0.0
  0
LINE
  5
1D1BD
330
747D
100
AcDbEntity
  8
部品1
 48
50.0
100
AcDbLine
 10
7564.329581418175
 20
11588.73679736192
 30
0.0
 11
7564.329581418175
 21
11573.73679736192
 31
0.0
  0
LINE
  5
1D1BE
330
747D
100
AcDbEntity
  8
細線
 48
50.0
100
AcDbLine
 10
7562.516773743837
 20
11592.90455598531
 30
0.0
 11
7563.342889203731
 21
11576.92589730421
 31
0.0
  0
LINE
  5
1D1BF
330
747D
100
AcDbEntity
  8
細線
 48
50.0
100
AcDbLine
 10
7542.543450392468
 20
11591.87191166044
 30
0.0
 11
7543.369565852363
 21
11575.89325297934
 31
0.0
  0
LINE
  5
1D1C0
330
747D
100
AcDbEntity
  8
細線
 48
50.0
100
AcDbLine
 10
7563.342889203731
 20
11576.92589730421
 30
0.0
 11
7543.369565852363
 21
11575.89325297934
 31
0.0
  0
LINE
  5
1D1C1
330
747D
100
AcDbEntity
  8
部品1
 48
50.0
100
AcDbLine
 10
7592.829581418175
 20
11378.73679736192
 30
0.0
 11
7542.829581418175
 21
11378.73679736192
 31
0.0
  0
LINE
  5
1D1C2
330
747D
100
AcDbEntity
  8
部品1
 48
50.0
100
AcDbLine
 10
7592.829581418175
 20
11588.73679736192
 30
0.0
 11
7564.329581418175
 21
11588.73679736192
 31
0.0
  0
ENDSEC
  0
SECTION
  2
OBJECTS
  0
DICTIONARY
  5
7471
330
0
100
AcDbDictionary
281
     1
  3
ACAD_GROUP
350
7472
  3
ACAD_LAYOUT
350
1D2CE
  3
ACAD_MLINESTYLE
350
7473
  3
ACAD_PLOTSETTINGS
350
1D2CF
  3
ACAD_PLOTSTYLENAME
350
1D2CC
  3
ACDBHEADERROUNDTRIPXREC
350
1D357
  3
ACDBVARIABLEDICTIONARY
350
123D8
  3
CONTENTDICTIONARY
350
E71C
  3
DRAWINGVARIABLESDICT
350
F3B9
  0
DICTIONARY
  5
1D2FE
330
747D
100
AcDbDictionary
280
     1
281
     1
  3
ACAD_LAYOUTSELFREF
360
1D2FF
  0
DICTIONARY
  5
1D2FC
330
747A
100
AcDbDictionary
280
     1
281
     1
  3
ACAD_LAYOUTSELFREF
360
1D2FD
  0
DICTIONARY
  5
7472
102
{ACAD_REACTORS
330
7471
102
}
330
7471
100
AcDbDictionary
281
     1
  0
DICTIONARY
  5
1D2CE
102
{ACAD_REACTORS
330
7471
102
}
330
7471
100
AcDbDictionary
281
     1
  3
Model
350
1D2D0
  3
ﾚｲｱｳﾄ1
350
1D2D1
  0
DICTIONARY
  5
7473
102
{ACAD_REACTORS
330
7471
102
}
330
7471
100
AcDbDictionary
281
     1
  3
STANDARD
350
7480
  0
DICTIONARY
  5
1D2CF
102
{ACAD_REACTORS
330
7471
102
}
330
7471
100
AcDbDictionary
281
     1
  0
ACDBDICTIONARYWDFLT
  5
1D2CC
102
{ACAD_REACTORS
330
7471
102
}
330
7471
100
AcDbDictionary
281
     1
  3
Normal
350
1D2CD
100
AcDbDictionaryWithDefault
340
1D2CD
  0
DICTIONARY
  5
1D357
102
{ACAD_REACTORS
330
7471
102
}
330
7471
100
AcDbDictionary
281
     1
  3
CEPSNTYPE
350
1D361
  3
DIMSTYLEDATA
350
1D365
  3
FINGERPRINTGUID
350
1D362
  3
HYPERLINKBASE
350
1D35A
  3
INSUNITS
350
1D360
  3
LAYOUTDICT
350
1D35C
  3
LWETCUNION
350
1D35F
  3
PLOTSETDICT
350
1D35D
  3
PLOTSTYLNAMDICT
350
1D35E
  3
PSVPSCALE
350
1D364
  3
PUCSBASE
350
1D368
  3
PUCSORGBACK
350
1D36E
  3
PUCSORGBOTTOM
350
1D36A
  3
PUCSORGFRONT
350
1D36D
  3
PUCSORGLEFT
350
1D36B
  3
PUCSORGRIGHT
350
1D36C
  3
PUCSORGTOP
350
1D369
  3
PUCSORTHOREF
350
1D366
  3
PUCSORTHOVIEW
350
1D367
  3
STYLESHEET
350
1D35B
  3
TSTACKALIGN
350
1D358
  3
TSTACKSIZE
350
1D359
  3
UCSBASE
350
1D371
  3
UCSORGBACK
350
1D377
  3
UCSORGBOTTOM
350
1D373
  3
UCSORGFRONT
350
1D376
  3
UCSORGLEFT
350
1D374
  3
UCSORGRIGHT
350
1D375
  3
UCSORGTOP
350
1D372
  3
UCSORTHOREF
350
1D36F
  3
UCSORTHOVIEW
350
1D370
  3
VERSIONGUID
350
1D363
  0
DICTIONARY
  5
123D8
102
{ACAD_REACTORS
330
7471
102
}
330
7471
100
AcDbDictionary
281
     1
  3
DIMASSOC
350
1D34E
  3
SORTENTS
350
123D9
  0
DICTIONARY
  5
E71C
102
{ACAD_REACTORS
330
7471
102
}
330
7471
100
AcDbDictionary
281
     1
  0
DICTIONARY
  5
F3B9
102
{ACAD_REACTORS
330
7471
102
}
330
7471
100
AcDbDictionary
281
     1
1001
DRAWINGVARIABLESXDATA
1000
POLARMODE
1000
1
  0
XRECORD
  5
1D2FF
102
{ACAD_REACTORS
330
1D2FE
102
}
330
1D2FE
100
AcDbXrecord
280
     1
340
747D
  0
XRECORD
  5
1D2FD
102
{ACAD_REACTORS
330
1D2FC
102
}
330
1D2FC
100
AcDbXrecord
280
     1
340
747A
  0
LAYOUT
  5
1D2D0
102
{ACAD_REACTORS
330
1D2CE
102
}
330
1D2CE
100
AcDbPlotSettings
  1

  2
Canon LBP-730
  4

  6

 40
0.0
 41
0.0
 42
0.0
 43
0.0
 44
0.0
 45
0.0
 46
0.0
 47
0.0
 48
0.0
 49
0.0
140
0.0
141
0.0
142
1.0
143
1.0
 70
  1712
 72
     0
 73
     0
 74
     0
  7

 75
     0
147
1.0
148
0.0
149
0.0
100
AcDbLayout
  1
Model
 70
     1
 71
     0
 10
0.0
 20
0.0
 11
12.0
 21
9.0
 12
0.0
 22
0.0
 32
0.0
 14
0.0
 24
0.0
 34
0.0
 15
0.0
 25
0.0
 35
0.0
146
0.0
 13
0.0
 23
0.0
 33
0.0
 16
1.0
 26
0.0
 36
0.0
 17
0.0
 27
1.0
 37
0.0
 76
     0
330
747D
  0
LAYOUT
  5
1D2D1
102
{ACAD_REACTORS
330
1D2CE
102
}
330
1D2CE
100
AcDbPlotSettings
  1

  2
Canon LBP-730
  4

  6

 40
0.0
 41
0.0
 42
0.0
 43
0.0
 44
0.0
 45
0.0
 46
0.0
 47
0.0
 48
0.0
 49
0.0
140
0.0
141
0.0
142
1.0
143
1.0
 70
   688
 72
     0
 73
     0
 74
     5
  7

 75
    16
147
1.0
148
0.0
149
0.0
100
AcDbLayout
  1
ﾚｲｱｳﾄ1
 70
     0
 71
     1
 10
0.0
 20
0.0
 11
420.0
 21
297.0
 12
0.0
 22
0.0
 32
0.0
 14
1.000000000000000E+20
 24
1.000000000000000E+20
 34
1.000000000000000E+20
 15
-1.000000000000000E+20
 25
-1.000000000000000E+20
 35
-1.000000000000000E+20
146
0.0
 13
0.0
 23
0.0
 33
0.0
 16
1.0
 26
0.0
 36
0.0
 17
0.0
 27
1.0
 37
0.0
 76
     0
330
747A
  0
MLINESTYLE
  5
7480
102
{ACAD_REACTORS
330
7473
102
}
330
7473
100
AcDbMlineStyle
  2
STANDARD
 70
     0
  3

 62
     0
 51
90.0
 52
90.0
 71
     2
 49
0.5
 62
   256
  6
BYLAYER
 49
-0.5
 62
   256
  6
BYLAYER
  0
ACDBPLACEHOLDER
  5
1D2CD
102
{ACAD_REACTORS
330
1D2CC
102
}
330
1D2CC
  0
XRECORD
  5
1D361
102
{ACAD_REACTORS
330
1D357
102
}
330
1D357
100
AcDbXrecord
280
     1
 90
        0
  0
XRECORD
  5
1D365
102
{ACAD_REACTORS
330
1D357
102
}
330
1D357
100
AcDbXrecord
280
     1
1000
DSTYLE
1002
{
1070
   341
340
F770
1070
   343
340
F770
1070
   344
340
F770
1002
}
  0
XRECORD
  5
1D362
102
{ACAD_REACTORS
330
1D357
102
}
330
1D357
100
AcDbXrecord
280
     1
  1
{697DFE40-F946-11D6-AF94-00909916878D}
  0
XRECORD
  5
1D35A
102
{ACAD_REACTORS
330
1D357
102
}
330
1D357
100
AcDbXrecord
280
     1
  1

  0
XRECORD
  5
1D360
102
{ACAD_REACTORS
330
1D357
102
}
330
1D357
100
AcDbXrecord
280
     1
 90
        0
  0
XRECORD
  5
1D35C
102
{ACAD_REACTORS
330
1D357
102
}
330
1D357
100
AcDbXrecord
280
     1
340
1D2CE
  0
XRECORD
  5
1D35F
102
{ACAD_REACTORS
330
1D357
102
}
330
1D357
100
AcDbXrecord
280
     1
 90
    14877
  0
XRECORD
  5
1D35D
102
{ACAD_REACTORS
330
1D357
102
}
330
1D357
100
AcDbXrecord
280
     1
340
1D2CF
  0
XRECORD
  5
1D35E
102
{ACAD_REACTORS
330
1D357
102
}
330
1D357
100
AcDbXrecord
280
     1
340
1D2CC
  0
XRECORD
  5
1D364
102
{ACAD_REACTORS
330
1D357
102
}
330
1D357
100
AcDbXrecord
280
     1
 40
0.0
  0
XRECORD
  5
1D368
102
{ACAD_REACTORS
330
1D357
102
}
330
1D357
100
AcDbXrecord
280
     1
340
0
  0
XRECORD
  5
1D36E
102
{ACAD_REACTORS
330
1D357
102
}
330
1D357
100
AcDbXrecord
280
     1
 10
0.0
 20
0.0
 30
0.0
  0
XRECORD
  5
1D36A
102
{ACAD_REACTORS
330
1D357
102
}
330
1D357
100
AcDbXrecord
280
     1
 10
0.0
 20
0.0
 30
0.0
  0
XRECORD
  5
1D36D
102
{ACAD_REACTORS
330
1D357
102
}
330
1D357
100
AcDbXrecord
280
     1
 10
0.0
 20
0.0
 30
0.0
  0
XRECORD
  5
1D36B
102
{ACAD_REACTORS
330
1D357
102
}
330
1D357
100
AcDbXrecord
280
     1
 10
0.0
 20
0.0
 30
0.0
  0
XRECORD
  5
1D36C
102
{ACAD_REACTORS
330
1D357
102
}
330
1D357
100
AcDbXrecord
280
     1
 10
0.0
 20
0.0
 30
0.0
  0
XRECORD
  5
1D369
102
{ACAD_REACTORS
330
1D357
102
}
330
1D357
100
AcDbXrecord
280
     1
 10
0.0
 20
0.0
 30
0.0
  0
XRECORD
  5
1D366
102
{ACAD_REACTORS
330
1D357
102
}
330
1D357
100
AcDbXrecord
280
     1
340
0
  0
XRECORD
  5
1D367
102
{ACAD_REACTORS
330
1D357
102
}
330
1D357
100
AcDbXrecord
280
     1
 70
     0
  0
XRECORD
  5
1D35B
102
{ACAD_REACTORS
330
1D357
102
}
330
1D357
100
AcDbXrecord
280
     1
  1

  0
XRECORD
  5
1D358
102
{ACAD_REACTORS
330
1D357
102
}
330
1D357
100
AcDbXrecord
280
     1
 90
        1
  0
XRECORD
  5
1D359
102
{ACAD_REACTORS
330
1D357
102
}
330
1D357
100
AcDbXrecord
280
     1
 90
       70
  0
XRECORD
  5
1D371
102
{ACAD_REACTORS
330
1D357
102
}
330
1D357
100
AcDbXrecord
280
     1
340
0
  0
XRECORD
  5
1D377
102
{ACAD_REACTORS
330
1D357
102
}
330
1D357
100
AcDbXrecord
280
     1
 10
0.0
 20
0.0
 30
0.0
  0
XRECORD
  5
1D373
102
{ACAD_REACTORS
330
1D357
102
}
330
1D357
100
AcDbXrecord
280
     1
 10
0.0
 20
0.0
 30
0.0
  0
XRECORD
  5
1D376
102
{ACAD_REACTORS
330
1D357
102
}
330
1D357
100
AcDbXrecord
280
     1
 10
0.0
 20
0.0
 30
0.0
  0
XRECORD
  5
1D374
102
{ACAD_REACTORS
330
1D357
102
}
330
1D357
100
AcDbXrecord
280
     1
 10
0.0
 20
0.0
 30
0.0
  0
XRECORD
  5
1D375
102
{ACAD_REACTORS
330
1D357
102
}
330
1D357
100
AcDbXrecord
280
     1
 10
0.0
 20
0.0
 30
0.0
  0
XRECORD
  5
1D372
102
{ACAD_REACTORS
330
1D357
102
}
330
1D357
100
AcDbXrecord
280
     1
 10
0.0
 20
0.0
 30
0.0
  0
XRECORD
  5
1D36F
102
{ACAD_REACTORS
330
1D357
102
}
330
1D357
100
AcDbXrecord
280
     1
340
0
  0
XRECORD
  5
1D370
102
{ACAD_REACTORS
330
1D357
102
}
330
1D357
100
AcDbXrecord
280
     1
 70
     0
  0
XRECORD
  5
1D363
102
{ACAD_REACTORS
330
1D357
102
}
330
1D357
100
AcDbXrecord
280
     1
  1
{697DFE42-F946-11D6-AF94-00909916878D}
  0
DICTIONARYVAR
  5
1D34E
102
{ACAD_REACTORS
330
123D8
102
}
330
123D8
100
DictionaryVariables
280
     0
  1
1
  0
DICTIONARYVAR
  5
123D9
102
{ACAD_REACTORS
330
123D8
102
}
330
123D8
100
DictionaryVariables
280
     0
  1
96
  0
ENDSEC
  0
EOF
