  0
SECTION
  2
HEADER
  9
$ACADVER
  1
AC1015
  9
$ACADMAINTVER
 70
     6
  9
$DWGCODEPAGE
  3
ANSI_932
  9
$INSBASE
 10
0.0
 20
0.0
 30
0.0
  9
$EXTMIN
 10
174.9999999999993
 20
-0.0000000000001137
 30
0.0
  9
$EXTMAX
 10
20384.0
 20
14262.0
 30
0.0
  9
$LIMMIN
 10
0.0
 20
0.0
  9
$LIMMAX
 10
21000.0
 20
14850.0
  9
$ORTHOMODE
 70
     0
  9
$REGENMODE
 70
     1
  9
$FILLMODE
 70
     1
  9
$QTEXTMODE
 70
     0
  9
$MIRRTEXT
 70
     1
  9
$LTSCALE
 40
20.0
  9
$ATTMODE
 70
     1
  9
$TEXTSIZE
 40
4.0
  9
$TRACEWID
 40
1.0
  9
$TEXTSTYLE
  7
STYLE1
  9
$CLAYER
  8
寸法
  9
$CELTYPE
  6
BYLAYER
  9
$CECOLOR
 62
   256
  9
$CELTSCALE
 40
50.0
  9
$DISPSILH
 70
     0
  9
$DIMSCALE
 40
1.0
  9
$DIMASZ
 40
125.0
  9
$DIMEXO
 40
25.0
  9
$DIMDLI
 40
7.0
  9
$DIMRND
 40
0.0
  9
$DIMDLE
 40
0.0
  9
$DIMEXE
 40
75.0
  9
$DIMTP
 40
0.0
  9
$DIMTM
 40
0.0
  9
$DIMTXT
 40
150.0
  9
$DIMCEN
 40
0.0
  9
$DIMTSZ
 40
0.0
  9
$DIMTOL
 70
     0
  9
$DIMLIM
 70
     0
  9
$DIMTIH
 70
     0
  9
$DIMTOH
 70
     0
  9
$DIMSE1
 70
     0
  9
$DIMSE2
 70
     0
  9
$DIMTAD
 70
     3
  9
$DIMZIN
 70
     8
  9
$DIMBLK
  1

  9
$DIMASO
 70
     1
  9
$DIMSHO
 70
     1
  9
$DIMPOST
  1

  9
$DIMAPOST
  1

  9
$DIMALT
 70
     0
  9
$DIMALTD
 70
     2
  9
$DIMALTF
 40
0.0394
  9
$DIMLFAC
 40
1.0
  9
$DIMTOFL
 70
     1
  9
$DIMTVP
 40
0.0
  9
$DIMTIX
 70
     1
  9
$DIMSOXD
 70
     0
  9
$DIMSAH
 70
     1
  9
$DIMBLK1
  1
DOTSMALL
  9
$DIMBLK2
  1
DOTSMALL
  9
$DIMSTYLE
  2
INABA_S50G
  9
$DIMCLRD
 70
     0
  9
$DIMCLRE
 70
     0
  9
$DIMCLRT
 70
     7
  9
$DIMTFAC
 40
1.0
  9
$DIMGAP
 40
25.0
  9
$DIMJUST
 70
     0
  9
$DIMSD1
 70
     0
  9
$DIMSD2
 70
     0
  9
$DIMTOLJ
 70
     1
  9
$DIMTZIN
 70
     0
  9
$DIMALTZ
 70
     0
  9
$DIMALTTZ
 70
     0
  9
$DIMUPT
 70
     0
  9
$DIMDEC
 70
     1
  9
$DIMTDEC
 70
     4
  9
$DIMALTU
 70
     2
  9
$DIMALTTD
 70
     2
  9
$DIMTXSTY
  7
STYLE1
  9
$DIMAUNIT
 70
     0
  9
$DIMADEC
 70
     0
  9
$DIMALTRND
 40
0.0
  9
$DIMAZIN
 70
     0
  9
$DIMDSEP
 70
    46
  9
$DIMATFIT
 70
     3
  9
$DIMFRAC
 70
     0
  9
$DIMLDRBLK
  1
DOTSMALL
  9
$DIMLUNIT
 70
     2
  9
$DIMLWD
 70
    -2
  9
$DIMLWE
 70
    -2
  9
$DIMTMOVE
 70
     0
  9
$LUNITS
 70
     2
  9
$LUPREC
 70
     1
  9
$SKETCHINC
 40
1.0
  9
$FILLETRAD
 40
3.0
  9
$AUNITS
 70
     0
  9
$AUPREC
 70
     0
  9
$MENU
  1
acad
  9
$ELEVATION
 40
0.0
  9
$PELEVATION
 40
0.0
  9
$THICKNESS
 40
0.0
  9
$LIMCHECK
 70
     0
  9
$CHAMFERA
 40
0.0
  9
$CHAMFERB
 40
0.0
  9
$CHAMFERC
 40
0.0
  9
$CHAMFERD
 40
0.0
  9
$SKPOLY
 70
     0
  9
$TDCREATE
 40
2452335.452219212
  9
$TDUCREATE
 40
2452335.077219213
  9
$TDUPDATE
 40
2452595.498669328
  9
$TDUUPDATE
 40
2452595.123669329
  9
$TDINDWG
 40
1.2835171296
  9
$TDUSRTIMER
 40
1.2835171296
  9
$USRTIMER
 70
     1
  9
$ANGBASE
 50
0.0
  9
$ANGDIR
 70
     0
  9
$PDMODE
 70
     3
  9
$PDSIZE
 40
2.0
  9
$PLINEWID
 40
0.0
  9
$SPLFRAME
 70
     0
  9
$SPLINETYPE
 70
     6
  9
$SPLINESEGS
 70
     8
  9
$HANDSEED
  5
1B6FB
  9
$SURFTAB1
 70
     6
  9
$SURFTAB2
 70
     6
  9
$SURFTYPE
 70
     6
  9
$SURFU
 70
     6
  9
$SURFV
 70
     6
  9
$UCSBASE
  2

  9
$UCSNAME
  2

  9
$UCSORG
 10
0.0
 20
0.0
 30
0.0
  9
$UCSXDIR
 10
1.0
 20
0.0
 30
0.0
  9
$UCSYDIR
 10
0.0
 20
1.0
 30
0.0
  9
$UCSORTHOREF
  2

  9
$UCSORTHOVIEW
 70
     0
  9
$UCSORGTOP
 10
0.0
 20
0.0
 30
0.0
  9
$UCSORGBOTTOM
 10
0.0
 20
0.0
 30
0.0
  9
$UCSORGLEFT
 10
0.0
 20
0.0
 30
0.0
  9
$UCSORGRIGHT
 10
0.0
 20
0.0
 30
0.0
  9
$UCSORGFRONT
 10
0.0
 20
0.0
 30
0.0
  9
$UCSORGBACK
 10
0.0
 20
0.0
 30
0.0
  9
$PUCSBASE
  2

  9
$PUCSNAME
  2

  9
$PUCSORG
 10
0.0
 20
0.0
 30
0.0
  9
$PUCSXDIR
 10
1.0
 20
0.0
 30
0.0
  9
$PUCSYDIR
 10
0.0
 20
1.0
 30
0.0
  9
$PUCSORTHOREF
  2

  9
$PUCSORTHOVIEW
 70
     0
  9
$PUCSORGTOP
 10
0.0
 20
0.0
 30
0.0
  9
$PUCSORGBOTTOM
 10
0.0
 20
0.0
 30
0.0
  9
$PUCSORGLEFT
 10
0.0
 20
0.0
 30
0.0
  9
$PUCSORGRIGHT
 10
0.0
 20
0.0
 30
0.0
  9
$PUCSORGFRONT
 10
0.0
 20
0.0
 30
0.0
  9
$PUCSORGBACK
 10
0.0
 20
0.0
 30
0.0
  9
$USERI1
 70
     0
  9
$USERI2
 70
     0
  9
$USERI3
 70
     0
  9
$USERI4
 70
     0
  9
$USERI5
 70
     0
  9
$USERR1
 40
0.0
  9
$USERR2
 40
0.0
  9
$USERR3
 40
0.0
  9
$USERR4
 40
0.0
  9
$USERR5
 40
0.0
  9
$WORLDVIEW
 70
     1
  9
$SHADEDGE
 70
     3
  9
$SHADEDIF
 70
    70
  9
$TILEMODE
 70
     1
  9
$MAXACTVP
 70
    16
  9
$PINSBASE
 10
0.0
 20
0.0
 30
0.0
  9
$PLIMCHECK
 70
     0
  9
$PEXTMIN
 10
1.000000000000000E+20
 20
1.000000000000000E+20
 30
1.000000000000000E+20
  9
$PEXTMAX
 10
-1.000000000000000E+20
 20
-1.000000000000000E+20
 30
-1.000000000000000E+20
  9
$PLIMMIN
 10
0.0
 20
0.0
  9
$PLIMMAX
 10
420.0
 20
297.0
  9
$UNITMODE
 70
     0
  9
$VISRETAIN
 70
     0
  9
$PLINEGEN
 70
     0
  9
$PSLTSCALE
 70
     0
  9
$TREEDEPTH
 70
  3020
  9
$CMLSTYLE
  2
STANDARD
  9
$CMLJUST
 70
     0
  9
$CMLSCALE
 40
1.0
  9
$PROXYGRAPHICS
 70
     1
  9
$MEASUREMENT
 70
     1
  9
$CELWEIGHT
370
    -1
  9
$ENDCAPS
280
     0
  9
$JOINSTYLE
280
     0
  9
$LWDISPLAY
290
     0
  9
$INSUNITS
 70
     0
  9
$HYPERLINKBASE
  1

  9
$STYLESHEET
  1

  9
$XEDIT
290
     1
  9
$CEPSNTYPE
380
     0
  9
$PSTYLEMODE
290
     1
  9
$FINGERPRINTGUID
  2
{0717079B-F8BF-11D6-AF94-00909916878D}
  9
$VERSIONGUID
  2
{0717079D-F8BF-11D6-AF94-00909916878D}
  9
$EXTNAMES
290
     1
  9
$PSVPSCALE
 40
0.0
  9
$OLESTARTUP
290
     0
  0
ENDSEC
  0
SECTION
  2
CLASSES
  0
CLASS
  1
OLE2FRAME
  2
AcDbOle2Frame
  3
AutoCAD 2000
 90
    32768
280
     0
281
     1
  0
CLASS
  1
LWPOLYLINE
  2
AcDbPolyline
  3
AutoCAD 2000
 90
    32768
280
     0
281
     1
  0
CLASS
  1
HATCH
  2
AcDbHatch
  3
AutoCAD 2000
 90
    32768
280
     0
281
     1
  0
CLASS
  1
DICTIONARYVAR
  2
AcDbDictionaryVar
  3
AutoCAD 2000
 90
        0
280
     0
281
     0
  0
CLASS
  1
ACDBDICTIONARYWDFLT
  2
AcDbDictionaryWithDefault
  3
AutoCAD 2000
 90
        0
280
     0
281
     0
  0
CLASS
  1
ACDBPLACEHOLDER
  2
AcDbPlaceHolder
  3
AutoCAD 2000
 90
        0
280
     0
281
     0
  0
CLASS
  1
LAYOUT
  2
AcDbLayout
  3
AutoCAD 2000
 90
        0
280
     0
281
     0
  0
CLASS
  1
LONG_TRANSACTION
  2
AcDbLongTransaction
  3
AutoCAD 2000
 90
    32768
280
     0
281
     0
  0
CLASS
  1
LWPOLYLINE
  2
AcDbPolyline
  3
AutoCAD 2000
 90
    32768
280
     0
281
     1
  0
CLASS
  1
HATCH
  2
AcDbHatch
  3
AutoCAD 2000
 90
    32768
280
     0
281
     1
  0
CLASS
  1
XRECORD
  2
AcDbXrecord
  3
AutoCAD 2000
 90
    32768
280
     0
281
     0
  0
ENDSEC
  0
SECTION
  2
TABLES
  0
TABLE
  2
VPORT
  5
746D
330
0
100
AcDbSymbolTable
 70
     2
  0
VPORT
  5
1B6D9
330
746D
100
AcDbSymbolTableRecord
100
AcDbViewportTableRecord
  2
*Active
 70
     0
 10
0.0
 20
0.0
 11
1.0
 21
1.0
 12
10500.0
 22
7424.773424269833
 13
0.0
 23
0.0
 14
10.0
 24
10.0
 15
10.0
 25
10.0
 16
0.0
 26
0.0
 36
1.0
 17
0.0
 27
0.0
 37
0.0
 40
15025.50760904139
 41
2.12007874015748
 42
50.0
 43
0.0
 44
0.0
 50
0.0
 51
0.0
 71
     0
 72
     0
 73
     1
 74
     0
 75
     0
 76
     0
 77
     0
 78
     0
281
     0
 65
     1
110
0.0
120
0.0
130
0.0
111
1.0
121
0.0
131
0.0
112
0.0
122
1.0
132
0.0
 79
     0
146
0.0
  0
ENDTAB
  0
TABLE
  2
LTYPE
  5
746A
330
0
100
AcDbSymbolTable
 70
     4
  0
LTYPE
  5
7477
330
746A
100
AcDbSymbolTableRecord
100
AcDbLinetypeTableRecord
  2
BYBLOCK
 70
     0
  3

 72
    65
 73
     0
 40
0.0
  0
LTYPE
  5
7478
330
746A
100
AcDbSymbolTableRecord
100
AcDbLinetypeTableRecord
  2
BYLAYER
 70
     0
  3

 72
    65
 73
     0
 40
0.0
  0
LTYPE
  5
7479
330
746A
100
AcDbSymbolTableRecord
100
AcDbLinetypeTableRecord
  2
CONTINUOUS
 70
     0
  3
Solid line
 72
    65
 73
     0
 40
0.0
  0
LTYPE
  5
7816
330
746A
100
AcDbSymbolTableRecord
100
AcDbLinetypeTableRecord
  2
CENTER
 70
     0
  3
____ _ ____ _ ____ _ ____ _ ____ _ ____ _ ____ 
 72
    65
 73
     4
 40
2.0
 49
1.25
 74
     0
 49
-0.25
 74
     0
 49
0.25
 74
     0
 49
-0.25
 74
     0
  0
LTYPE
  5
781A
330
746A
100
AcDbSymbolTableRecord
100
AcDbLinetypeTableRecord
  2
HIDDEN
 70
     0
  3
__ __ __ __ __ __ __ __ __ __ __ __ __ __ __ __
 72
    65
 73
     2
 40
0.375
 49
0.25
 74
     0
 49
-0.125
 74
     0
  0
LTYPE
  5
781B
330
746A
100
AcDbSymbolTableRecord
100
AcDbLinetypeTableRecord
  2
PHANTOM
 70
     0
  3
______  __  __  ______  __  __  ______  __  __ 
 72
    65
 73
     6
 40
2.5
 49
1.25
 74
     0
 49
-0.25
 74
     0
 49
0.25
 74
     0
 49
-0.25
 74
     0
 49
0.25
 74
     0
 49
-0.25
 74
     0
  0
ENDTAB
  0
TABLE
  2
LAYER
  5
7467
330
0
100
AcDbSymbolTable
 70
    12
  0
LAYER
  5
7474
330
7467
100
AcDbSymbolTableRecord
100
AcDbLayerTableRecord
  2
0
 70
     0
 62
     7
  6
CONTINUOUS
370
    -3
390
1B660
  0
LAYER
  5
DEB2
330
7467
100
AcDbSymbolTableRecord
100
AcDbLayerTableRecord
  2
センター
 70
     0
 62
     3
  6
CENTER
370
    -3
390
1B660
  0
LAYER
  5
DEB3
330
7467
100
AcDbSymbolTableRecord
100
AcDbLayerTableRecord
  2
寸法
 70
     0
 62
     4
  6
CONTINUOUS
370
    -3
390
1B660
  0
LAYER
  5
DEB4
330
7467
100
AcDbSymbolTableRecord
100
AcDbLayerTableRecord
  2
部品1
 70
     0
 62
     7
  6
CONTINUOUS
370
    -3
390
1B660
  0
LAYER
  5
DEB5
330
7467
100
AcDbSymbolTableRecord
100
AcDbLayerTableRecord
  2
補助
 70
     0
 62
    -1
  6
CONTINUOUS
370
    -3
390
1B660
  0
LAYER
  5
DEB6
330
7467
100
AcDbSymbolTableRecord
100
AcDbLayerTableRecord
  2
文字
 70
     0
 62
     7
  6
CONTINUOUS
370
    -3
390
1B660
  0
LAYER
  5
F255
330
7467
100
AcDbSymbolTableRecord
100
AcDbLayerTableRecord
  2
DEFPOINTS
 70
     0
 62
     7
  6
CONTINUOUS
290
     0
370
    -3
390
1B660
  0
LAYER
  5
10B54
330
7467
100
AcDbSymbolTableRecord
100
AcDbLayerTableRecord
  2
仕様書枠
 70
     0
 62
   230
  6
CONTINUOUS
370
    -3
390
1B660
  0
LAYER
  5
11729
330
7467
100
AcDbSymbolTableRecord
100
AcDbLayerTableRecord
  2
Ｇ．Ｌ
 70
     0
 62
    30
  6
CONTINUOUS
370
    -3
390
1B660
  0
LAYER
  5
1173F
330
7467
100
AcDbSymbolTableRecord
100
AcDbLayerTableRecord
  2
細線
 70
     0
 62
     5
  6
CONTINUOUS
370
    -3
390
1B660
  0
LAYER
  5
15A90
330
7467
100
AcDbSymbolTableRecord
100
AcDbLayerTableRecord
  2
想像線
 70
     0
 62
     6
  6
PHANTOM
370
    -3
390
1B660
  0
LAYER
  5
188E2
330
7467
100
AcDbSymbolTableRecord
100
AcDbLayerTableRecord
  2
破線
 70
     0
 62
     2
  6
HIDDEN
370
    -3
390
1B660
  0
ENDTAB
  0
TABLE
  2
STYLE
  5
7468
330
0
100
AcDbSymbolTable
 70
     3
  0
STYLE
  5
7475
330
7468
100
AcDbSymbolTableRecord
100
AcDbTextStyleTableRecord
  2
STANDARD
 70
     0
 40
0.0
 41
1.0
 50
0.0
 71
     0
 42
4.0
  3
txt
  4
C:\AutoCAD LT\bigfont.shx
  0
STYLE
  5
F706
330
7468
100
AcDbSymbolTableRecord
100
AcDbTextStyleTableRecord
  2
STYLE1
 70
     0
 40
0.0
 41
1.0
 50
0.0
 71
     0
 42
4.0
  3
isocp.shx
  4
bigfont.shx
  0
STYLE
  5
103BF
330
7468
100
AcDbSymbolTableRecord
100
AcDbTextStyleTableRecord
  2
STYLE2
 70
     0
 40
0.0
 41
1.0
 50
0.0
 71
     0
 42
100.0
  3
MS PGothic.ttf
  4

1001
ACAD
1000
MS PGothic
1071
    32818
  0
ENDTAB
  0
TABLE
  2
VIEW
  5
746B
330
0
100
AcDbSymbolTable
 70
     0
  0
ENDTAB
  0
TABLE
  2
UCS
  5
746C
330
0
100
AcDbSymbolTable
 70
     0
  0
ENDTAB
  0
TABLE
  2
APPID
  5
746E
330
0
100
AcDbSymbolTable
 70
     6
  0
APPID
  5
7476
330
746E
100
AcDbSymbolTableRecord
100
AcDbRegAppTableRecord
  2
ACAD
 70
     0
  0
APPID
  5
DEA9
330
746E
100
AcDbSymbolTableRecord
100
AcDbRegAppTableRecord
  2
CONTENTBLOCKICON
 70
     0
  0
APPID
  5
DEAA
330
746E
100
AcDbSymbolTableRecord
100
AcDbRegAppTableRecord
  2
CONTENTBLOCKDESCRIPTION
 70
     0
  0
APPID
  5
E71D
330
746E
100
AcDbSymbolTableRecord
100
AcDbRegAppTableRecord
  2
CONTENTTABDATA
 70
     0
  0
APPID
  5
E71E
330
746E
100
AcDbSymbolTableRecord
100
AcDbRegAppTableRecord
  2
CONTENTCURRENTTAB
 70
     0
  0
APPID
  5
F3BA
330
746E
100
AcDbSymbolTableRecord
100
AcDbRegAppTableRecord
  2
DRAWINGVARIABLESXDATA
 70
     0
  0
ENDTAB
  0
TABLE
  2
DIMSTYLE
  5
746F
330
0
100
AcDbSymbolTable
 70
     2
100
AcDbDimStyleTable
 71
     0
  0
DIMSTYLE
105
7484
330
746F
100
AcDbSymbolTableRecord
100
AcDbDimStyleTableRecord
  2
JIS
 70
     0
 41
2.5
 42
1.0
 43
7.0
 44
1.0
 73
     0
 74
     0
 77
     1
 78
     8
140
2.5
141
0.0
143
0.0394
147
0.0
172
     1
174
     1
175
     1
340
7475
  0
DIMSTYLE
105
F71F
102
{ACAD_REACTORS
330
1852D
330
1852B
330
1852F
330
1852C
330
1852E
330
185AE
330
185B1
330
185B4
330
185AD
330
185AF
330
185B3
330
1868C
330
186AF
330
18778
330
1A2E5
330
1852A
330
1AB73
330
1AB74
330
1AB7C
330
1AB7D
330
1AB84
330
1AB87
330
1AB88
330
1AB89
330
1AB99
330
1AB9A
330
1ABAA
330
1ABED
330
1AE97
330
1AEA6
330
1AEA7
330
1AEE4
330
1AF0E
330
1AF10
330
1AF1A
330
1B459
330
1B460
330
1B466
330
1B46D
330
1B46E
330
1B4AC
330
1B4AF
330
1B4E6
330
1B4E7
330
1B524
102
}
330
746F
100
AcDbSymbolTableRecord
100
AcDbDimStyleTableRecord
  2
INABA_S50G
 70
     0
 41
125.0
 42
25.0
 43
7.0
 44
75.0
 73
     0
 74
     0
 77
     3
 78
     8
140
150.0
141
0.0
143
0.0394
147
25.0
172
     1
173
     1
174
     1
178
     7
271
     1
340
F706
341
F770
343
F770
344
F770
  0
ENDTAB
  0
TABLE
  2
BLOCK_RECORD
  5
7466
330
0
100
AcDbSymbolTable
 70
    46
  0
BLOCK_RECORD
  5
747D
102
{ACAD_XDICTIONARY
360
1B691
102
}
330
7466
100
AcDbSymbolTableRecord
100
AcDbBlockTableRecord
  2
*MODEL_SPACE
340
1B663
  0
BLOCK_RECORD
  5
747A
102
{ACAD_XDICTIONARY
360
1B68F
102
}
330
7466
100
AcDbSymbolTableRecord
100
AcDbBlockTableRecord
  2
*PAPER_SPACE
340
1B664
  0
BLOCK_RECORD
  5
F770
330
7466
100
AcDbSymbolTableRecord
100
AcDbBlockTableRecord
  2
_DOTSMALL
340
0
102
{BLKREFS
331
18581
331
18582
331
1AD67
331
1AD68
331
18599
331
1859A
331
1A4EB
331
1A4EC
331
1AD5C
331
1AD5D
331
1A4D4
331
1A4D5
331
18629
331
1862A
331
1B6A1
331
1B6A2
331
1865B
331
1865C
331
1861D
331
1861E
331
1B699
331
1B69A
331
1864F
331
18650
331
1AFEA
331
1AFEB
331
1AD46
331
1AD47
331
1A498
331
1A499
331
1A8A7
331
1A8A8
331
1ACBE
331
1ACBF
331
1ACCA
331
1ACCB
331
1B6A9
331
1B6AA
331
1ACDF
331
1ACE0
331
1B251
331
1B252
331
1B6B1
331
1B6B2
331
1ACFF
331
1AD00
331
1AD0B
331
1AD0C
331
1AD17
331
1AD18
331
1B285
331
1B286
331
1B23C
331
1B23D
331
1AD3A
331
1AD3B
331
1AF87
331
1AF88
331
1AF92
331
1AF93
331
1B6B9
331
1B6BA
331
1AFA8
331
1AFA9
331
1B6C1
331
1B6C2
331
1AFBE
331
1AFBF
331
1AFCA
331
1AFCB
331
1B6C9
331
1B6CA
331
1B5F2
331
1B5F3
331
1B5FD
331
1B5FE
331
1B608
331
1B609
331
1B614
331
1B615
331
1B620
331
1B621
331
1B62C
331
1B62D
331
1B637
331
1B638
331
1B642
331
1B643
331
1B64E
331
1B64F
102
}
  0
BLOCK_RECORD
  5
18530
330
7466
100
AcDbSymbolTableRecord
100
AcDbBlockTableRecord
  2
*D1
340
0
  0
BLOCK_RECORD
  5
1853D
330
7466
100
AcDbSymbolTableRecord
100
AcDbBlockTableRecord
  2
*D2
340
0
  0
BLOCK_RECORD
  5
18549
330
7466
100
AcDbSymbolTableRecord
100
AcDbBlockTableRecord
  2
*D3
340
0
  0
BLOCK_RECORD
  5
18556
330
7466
100
AcDbSymbolTableRecord
100
AcDbBlockTableRecord
  2
*D4
340
0
  0
BLOCK_RECORD
  5
18563
330
7466
100
AcDbSymbolTableRecord
100
AcDbBlockTableRecord
  2
*D5
340
0
  0
BLOCK_RECORD
  5
1856F
330
7466
100
AcDbSymbolTableRecord
100
AcDbBlockTableRecord
  2
*D6
340
0
  0
BLOCK_RECORD
  5
185B5
330
7466
100
AcDbSymbolTableRecord
100
AcDbBlockTableRecord
  2
*D7
340
0
  0
BLOCK_RECORD
  5
185C2
330
7466
100
AcDbSymbolTableRecord
100
AcDbBlockTableRecord
  2
*D8
340
0
  0
BLOCK_RECORD
  5
185E5
330
7466
100
AcDbSymbolTableRecord
100
AcDbBlockTableRecord
  2
*D9
340
0
  0
BLOCK_RECORD
  5
185F2
330
7466
100
AcDbSymbolTableRecord
100
AcDbBlockTableRecord
  2
*D10
340
0
  0
BLOCK_RECORD
  5
185FF
330
7466
100
AcDbSymbolTableRecord
100
AcDbBlockTableRecord
  2
*D11
340
0
  0
BLOCK_RECORD
  5
1860A
330
7466
100
AcDbSymbolTableRecord
100
AcDbBlockTableRecord
  2
*D12
340
0
  0
BLOCK_RECORD
  5
1868D
330
7466
100
AcDbSymbolTableRecord
100
AcDbBlockTableRecord
  2
*D13
340
0
  0
BLOCK_RECORD
  5
186B0
330
7466
100
AcDbSymbolTableRecord
100
AcDbBlockTableRecord
  2
*D14
340
0
  0
BLOCK_RECORD
  5
1876C
330
7466
100
AcDbSymbolTableRecord
100
AcDbBlockTableRecord
  2
*D15
340
0
  0
BLOCK_RECORD
  5
1A2D7
330
7466
100
AcDbSymbolTableRecord
100
AcDbBlockTableRecord
  2
*D16
340
0
  0
BLOCK_RECORD
  5
1AC25
330
7466
100
AcDbSymbolTableRecord
100
AcDbBlockTableRecord
  2
*D17
340
0
  0
BLOCK_RECORD
  5
1AC32
330
7466
100
AcDbSymbolTableRecord
100
AcDbBlockTableRecord
  2
*D18
340
0
  0
BLOCK_RECORD
  5
1AC3F
330
7466
100
AcDbSymbolTableRecord
100
AcDbBlockTableRecord
  2
*D19
340
0
  0
BLOCK_RECORD
  5
1AC4A
330
7466
100
AcDbSymbolTableRecord
100
AcDbBlockTableRecord
  2
*D20
340
0
  0
BLOCK_RECORD
  5
1AC56
330
7466
100
AcDbSymbolTableRecord
100
AcDbBlockTableRecord
  2
*D21
340
0
  0
BLOCK_RECORD
  5
1AC62
330
7466
100
AcDbSymbolTableRecord
100
AcDbBlockTableRecord
  2
*D22
340
0
  0
BLOCK_RECORD
  5
1AC6D
330
7466
100
AcDbSymbolTableRecord
100
AcDbBlockTableRecord
  2
*D23
340
0
  0
BLOCK_RECORD
  5
1AC79
330
7466
100
AcDbSymbolTableRecord
100
AcDbBlockTableRecord
  2
*D24
340
0
  0
BLOCK_RECORD
  5
1AC86
330
7466
100
AcDbSymbolTableRecord
100
AcDbBlockTableRecord
  2
*D25
340
0
  0
BLOCK_RECORD
  5
1AC93
330
7466
100
AcDbSymbolTableRecord
100
AcDbBlockTableRecord
  2
*D26
340
0
  0
BLOCK_RECORD
  5
1ACA0
330
7466
100
AcDbSymbolTableRecord
100
AcDbBlockTableRecord
  2
*D27
340
0
  0
BLOCK_RECORD
  5
1ACAC
330
7466
100
AcDbSymbolTableRecord
100
AcDbBlockTableRecord
  2
*D28
340
0
  0
BLOCK_RECORD
  5
1AF2C
330
7466
100
AcDbSymbolTableRecord
100
AcDbBlockTableRecord
  2
*D29
340
0
  0
BLOCK_RECORD
  5
1AF39
330
7466
100
AcDbSymbolTableRecord
100
AcDbBlockTableRecord
  2
*D30
340
0
  0
BLOCK_RECORD
  5
1AF45
330
7466
100
AcDbSymbolTableRecord
100
AcDbBlockTableRecord
  2
*D31
340
0
  0
BLOCK_RECORD
  5
1AF50
330
7466
100
AcDbSymbolTableRecord
100
AcDbBlockTableRecord
  2
*D32
340
0
  0
BLOCK_RECORD
  5
1AF5D
330
7466
100
AcDbSymbolTableRecord
100
AcDbBlockTableRecord
  2
*D33
340
0
  0
BLOCK_RECORD
  5
1AF68
330
7466
100
AcDbSymbolTableRecord
100
AcDbBlockTableRecord
  2
*D34
340
0
  0
BLOCK_RECORD
  5
1AF75
330
7466
100
AcDbSymbolTableRecord
100
AcDbBlockTableRecord
  2
*D35
340
0
  0
BLOCK_RECORD
  5
1B569
330
7466
100
AcDbSymbolTableRecord
100
AcDbBlockTableRecord
  2
*D36
340
0
  0
BLOCK_RECORD
  5
1B574
330
7466
100
AcDbSymbolTableRecord
100
AcDbBlockTableRecord
  2
*D37
340
0
  0
BLOCK_RECORD
  5
1B580
330
7466
100
AcDbSymbolTableRecord
100
AcDbBlockTableRecord
  2
*D38
340
0
  0
BLOCK_RECORD
  5
1B58C
330
7466
100
AcDbSymbolTableRecord
100
AcDbBlockTableRecord
  2
*D39
340
0
  0
BLOCK_RECORD
  5
1B598
330
7466
100
AcDbSymbolTableRecord
100
AcDbBlockTableRecord
  2
*D40
340
0
  0
BLOCK_RECORD
  5
1B5A5
330
7466
100
AcDbSymbolTableRecord
100
AcDbBlockTableRecord
  2
*D41
340
0
  0
BLOCK_RECORD
  5
1B5B2
330
7466
100
AcDbSymbolTableRecord
100
AcDbBlockTableRecord
  2
*D42
340
0
  0
BLOCK_RECORD
  5
1B5BF
330
7466
100
AcDbSymbolTableRecord
100
AcDbBlockTableRecord
  2
*D43
340
0
  0
BLOCK_RECORD
  5
1B5CB
330
7466
100
AcDbSymbolTableRecord
100
AcDbBlockTableRecord
  2
*D44
340
0
  0
BLOCK_RECORD
  5
1B5D7
330
7466
100
AcDbSymbolTableRecord
100
AcDbBlockTableRecord
  2
*D45
340
0
  0
ENDTAB
  0
ENDSEC
  0
SECTION
  2
BLOCKS
  0
BLOCK
  5
7489
330
747D
100
AcDbEntity
  8
0
100
AcDbBlockBegin
  2
*MODEL_SPACE
 70
     0
 10
0.0
 20
0.0
 30
0.0
  3
*MODEL_SPACE
  1

  0
ENDBLK
  5
748A
330
747D
100
AcDbEntity
  8
0
100
AcDbBlockEnd
  0
BLOCK
  5
7487
330
747A
100
AcDbEntity
 67
     1
  8
0
100
AcDbBlockBegin
  2
*PAPER_SPACE
 70
     0
 10
0.0
 20
0.0
 30
0.0
  3
*PAPER_SPACE
  1

  0
ENDBLK
  5
7488
330
747A
100
AcDbEntity
 67
     1
  8
0
100
AcDbBlockEnd
  0
BLOCK
  5
F771
330
F770
100
AcDbEntity
  8
0
 48
50.0
100
AcDbBlockBegin
  2
_DOTSMALL
 70
     0
 10
0.0
 20
0.0
 30
0.0
  3
_DOTSMALL
  1

  0
LWPOLYLINE
  5
F772
330
F770
100
AcDbEntity
  8
0
  6
ByBlock
 62
     0
 48
50.0
100
AcDbPolyline
 90
        2
 70
     1
 43
0.5
 10
-0.0625
 20
0.0
 42
1.0
 10
0.0625
 20
0.0
 42
1.0
  0
ENDBLK
  5
F776
330
F770
100
AcDbEntity
  8
0
 48
50.0
100
AcDbBlockEnd
  0
BLOCK
  5
1857C
330
18530
100
AcDbEntity
  8
0
 48
50.0
100
AcDbBlockBegin
  2
*D1
 70
     1
 10
0.0
 20
0.0
 30
0.0
  3
*D1
  1

  0
LINE
  5
1857D
330
18530
100
AcDbEntity
  8
0
  6
ByBlock
 62
     0
 48
50.0
100
AcDbLine
 10
16722.46242649134
 20
9602.681515694126
 30
0.0
 11
17593.79817887432
 21
9602.681515694126
 31
0.0
  0
LINE
  5
1857E
330
18530
100
AcDbEntity
  8
0
  6
ByBlock
 62
     0
 48
50.0
100
AcDbLine
 10
16732.46242649134
 20
9672.681515694129
 30
0.0
 11
17593.79817887432
 21
9672.681515694129
 31
0.0
  0
LINE
  5
1857F
330
18530
100
AcDbEntity
  8
0
  6
ByBlock
 62
     0
 48
50.0
100
AcDbLine
 10
17518.79817887432
 20
9672.681515694129
 30
0.0
 11
17518.79817887432
 21
9602.681515694126
 31
0.0
  0
LINE
  5
18580
330
18530
100
AcDbEntity
  8
0
  6
ByBlock
 62
     0
 48
50.0
100
AcDbLine
 10
17518.79817887432
 20
9602.681515694126
 30
0.0
 11
17518.79817887432
 21
9262.563405457903
 31
0.0
  0
INSERT
  5
18581
330
18530
100
AcDbEntity
  8
0
  6
ByBlock
 62
     0
 48
50.0
100
AcDbBlockReference
  2
_DOTSMALL
 10
17518.79817887432
 20
9672.681515694129
 30
0.0
 41
125.0
 42
125.0
 43
125.0
 50
90.0
  0
INSERT
  5
18582
330
18530
100
AcDbEntity
  8
0
  6
ByBlock
 62
     0
 48
50.0
100
AcDbBlockReference
  2
_DOTSMALL
 10
17518.79817887432
 20
9602.681515694126
 30
0.0
 41
125.0
 42
125.0
 43
125.0
 50
270.0
  0
MTEXT
  5
18583
330
18530
100
AcDbEntity
  8
0
  6
ByBlock
 62
     7
 48
50.0
100
AcDbMText
 10
17418.79817887432
 20
9370.122460576014
 30
0.0
 40
150.0
 41
0.0
 71
     5
 72
     1
  1
\A1;70
  7
STYLE1
 11
0.0000000000000001
 21
1.0
 31
0.0
 73
     1
 44
1.0
  0
POINT
  5
18584
330
18530
100
AcDbEntity
  8
DEFPOINTS
  6
ByBlock
 62
     0
 48
50.0
100
AcDbPoint
 10
16697.46242649134
 20
9602.681515694126
 30
0.0
  0
POINT
  5
18585
330
18530
100
AcDbEntity
  8
DEFPOINTS
  6
ByBlock
 62
     0
 48
50.0
100
AcDbPoint
 10
16707.46242649134
 20
9672.681515694129
 30
0.0
  0
POINT
  5
18586
330
18530
100
AcDbEntity
  8
DEFPOINTS
  6
ByBlock
 62
     0
 48
50.0
100
AcDbPoint
 10
17518.79817887432
 20
9672.681515694129
 30
0.0
  0
ENDBLK
  5
18587
330
18530
100
AcDbEntity
  8
0
 48
50.0
100
AcDbBlockEnd
  0
BLOCK
  5
1AD63
330
1853D
100
AcDbEntity
  8
0
 48
50.0
100
AcDbBlockBegin
  2
*D2
 70
     1
 10
0.0
 20
0.0
 30
0.0
  3
*D2
  1

  0
LINE
  5
1AD64
330
1853D
100
AcDbEntity
  8
0
  6
ByBlock
 62
     0
 48
50.0
100
AcDbLine
 10
8197.829581418176
 20
9298.736797361975
 30
0.0
 11
9059.165333801145
 21
9298.736797361975
 31
0.0
  0
LINE
  5
1AD65
330
1853D
100
AcDbEntity
  8
0
  6
ByBlock
 62
     0
 48
50.0
100
AcDbLine
 10
8197.829581418176
 20
11038.73679736197
 30
0.0
 11
9059.165333801145
 21
11038.73679736197
 31
0.0
  0
LINE
  5
1AD66
330
1853D
100
AcDbEntity
  8
0
  6
ByBlock
 62
     0
 48
50.0
100
AcDbLine
 10
8984.165333801144
 20
9298.736797361975
 30
0.0
 11
8984.165333801144
 21
11038.73679736197
 31
0.0
  0
INSERT
  5
1AD67
330
1853D
100
AcDbEntity
  8
0
  6
ByBlock
 62
     0
 48
50.0
100
AcDbBlockReference
  2
_DOTSMALL
 10
8984.165333801144
 20
9298.736797361975
 30
0.0
 41
125.0
 42
125.0
 43
125.0
 50
270.0
  0
INSERT
  5
1AD68
330
1853D
100
AcDbEntity
  8
0
  6
ByBlock
 62
     0
 48
50.0
100
AcDbBlockReference
  2
_DOTSMALL
 10
8984.165333801144
 20
11038.73679736197
 30
0.0
 41
125.0
 42
125.0
 43
125.0
 50
90.0
  0
MTEXT
  5
1AD69
330
1853D
100
AcDbEntity
  8
0
  6
ByBlock
 62
     7
 48
50.0
100
AcDbMText
 10
8884.165333801144
 20
10168.73679736197
 30
0.0
 40
150.0
 41
0.0
 71
     5
 72
     1
  1
\A1;3x580=1740
  7
STYLE1
 11
0.0000000000000001
 21
1.0
 31
0.0
 73
     1
 44
1.0
  0
POINT
  5
1AD6A
330
1853D
100
AcDbEntity
  8
DEFPOINTS
  6
ByBlock
 62
     0
 48
50.0
100
AcDbPoint
 10
8172.829581418175
 20
9298.736797361975
 30
0.0
  0
POINT
  5
1AD6B
330
1853D
100
AcDbEntity
  8
DEFPOINTS
  6
ByBlock
 62
     0
 48
50.0
100
AcDbPoint
 10
8172.829581418175
 20
11038.73679736197
 30
0.0
  0
POINT
  5
1AD6C
330
1853D
100
AcDbEntity
  8
DEFPOINTS
  6
ByBlock
 62
     0
 48
50.0
100
AcDbPoint
 10
8984.165333801144
 20
11038.73679736197
 30
0.0
  0
ENDBLK
  5
1AD6D
330
1853D
100
AcDbEntity
  8
0
 48
50.0
100
AcDbBlockEnd
  0
BLOCK
  5
18594
330
18549
100
AcDbEntity
  8
0
 48
50.0
100
AcDbBlockBegin
  2
*D3
 70
     1
 10
0.0
 20
0.0
 30
0.0
  3
*D3
  1

  0
LINE
  5
18595
330
18549
100
AcDbEntity
  8
0
  6
ByBlock
 62
     0
 48
50.0
100
AcDbLine
 10
16732.46242649134
 20
12572.68151569412
 30
0.0
 11
17593.79817887431
 21
12572.68151569412
 31
0.0
  0
LINE
  5
18596
330
18549
100
AcDbEntity
  8
0
  6
ByBlock
 62
     0
 48
50.0
100
AcDbLine
 10
16722.46242649134
 20
12642.68151569412
 30
0.0
 11
17593.79817887431
 21
12642.68151569412
 31
0.0
  0
LINE
  5
18597
330
18549
100
AcDbEntity
  8
0
  6
ByBlock
 62
     0
 48
50.0
100
AcDbLine
 10
17518.79817887431
 20
12572.68151569412
 30
0.0
 11
17518.79817887431
 21
12642.68151569412
 31
0.0
  0
LINE
  5
18598
330
18549
100
AcDbEntity
  8
0
  6
ByBlock
 62
     0
 48
50.0
100
AcDbLine
 10
17518.79817887431
 20
12642.68151569412
 30
0.0
 11
17518.79817887431
 21
12982.79962593034
 31
0.0
  0
INSERT
  5
18599
330
18549
100
AcDbEntity
  8
0
  6
ByBlock
 62
     0
 48
50.0
100
AcDbBlockReference
  2
_DOTSMALL
 10
17518.79817887431
 20
12572.68151569412
 30
0.0
 41
125.0
 42
125.0
 43
125.0
 50
270.0
  0
INSERT
  5
1859A
330
18549
100
AcDbEntity
  8
0
  6
ByBlock
 62
     0
 48
50.0
100
AcDbBlockReference
  2
_DOTSMALL
 10
17518.79817887431
 20
12642.68151569412
 30
0.0
 41
125.0
 42
125.0
 43
125.0
 50
90.0
  0
MTEXT
  5
1859B
330
18549
100
AcDbEntity
  8
0
  6
ByBlock
 62
     7
 48
50.0
100
AcDbMText
 10
17418.79817887431
 20
12875.24057081223
 30
0.0
 40
150.0
 41
0.0
 71
     5
 72
     1
  1
\A1;70
  7
STYLE1
 11
0.0000000000000001
 21
1.0
 31
0.0
 73
     1
 44
1.0
  0
POINT
  5
1859C
330
18549
100
AcDbEntity
  8
DEFPOINTS
  6
ByBlock
 62
     0
 48
50.0
100
AcDbPoint
 10
16707.46242649134
 20
12572.68151569412
 30
0.0
  0
POINT
  5
1859D
330
18549
100
AcDbEntity
  8
DEFPOINTS
  6
ByBlock
 62
     0
 48
50.0
100
AcDbPoint
 10
16697.46242649134
 20
12642.68151569412
 30
0.0
  0
POINT
  5
1859E
330
18549
100
AcDbEntity
  8
DEFPOINTS
  6
ByBlock
 62
     0
 48
50.0
100
AcDbPoint
 10
17518.79817887431
 20
12642.68151569412
 30
0.0
  0
ENDBLK
  5
1859F
330
18549
100
AcDbEntity
  8
0
 48
50.0
100
AcDbBlockEnd
  0
BLOCK
  5
1A4E6
330
18556
100
AcDbEntity
  8
0
 48
50.0
100
AcDbBlockBegin
  2
*D4
 70
     1
 10
0.0
 20
0.0
 30
0.0
  3
*D4
  1

  0
LINE
  5
1A4E7
330
18556
100
AcDbEntity
  8
0
  6
ByBlock
 62
     0
 48
50.0
100
AcDbLine
 10
8477.829581418175
 20
9228.736797361971
 30
0.0
 11
9651.969337719759
 21
9228.736797361971
 31
0.0
  0
LINE
  5
1A4E8
330
18556
100
AcDbEntity
  8
0
  6
ByBlock
 62
     0
 48
50.0
100
AcDbLine
 10
9299.165333801147
 20
9278.736797361975
 30
0.0
 11
9651.969337719759
 21
9278.736797361975
 31
0.0
  0
LINE
  5
1A4E9
330
18556
100
AcDbEntity
  8
0
  6
ByBlock
 62
     0
 48
50.0
100
AcDbLine
 10
9576.969337719758
 20
9278.736797361975
 30
0.0
 11
9576.969337719758
 21
9228.736797361971
 31
0.0
  0
LINE
  5
1A4EA
330
18556
100
AcDbEntity
  8
0
  6
ByBlock
 62
     0
 48
50.0
100
AcDbLine
 10
9576.969337719758
 20
9228.736797361971
 30
0.0
 11
9576.969337719758
 21
8884.130498149373
 31
0.0
  0
INSERT
  5
1A4EB
330
18556
100
AcDbEntity
  8
0
  6
ByBlock
 62
     0
 48
50.0
100
AcDbBlockReference
  2
_DOTSMALL
 10
9576.969337719758
 20
9278.736797361975
 30
0.0
 41
125.0
 42
125.0
 43
125.0
 50
90.0
  0
INSERT
  5
1A4EC
330
18556
100
AcDbEntity
  8
0
  6
ByBlock
 62
     0
 48
50.0
100
AcDbBlockReference
  2
_DOTSMALL
 10
9576.969337719758
 20
9228.736797361971
 30
0.0
 41
125.0
 42
125.0
 43
125.0
 50
270.0
  0
MTEXT
  5
1A4ED
330
18556
100
AcDbEntity
  8
0
  6
ByBlock
 62
     7
 48
50.0
100
AcDbMText
 10
9476.969337719758
 20
8991.689553267482
 30
0.0
 40
150.0
 41
0.0
 71
     5
 72
     1
  1
\A1;50
  7
STYLE1
 11
0.0000000000000001
 21
1.0
 31
0.0
 73
     1
 44
1.0
  0
POINT
  5
1A4EE
330
18556
100
AcDbEntity
  8
DEFPOINTS
  6
ByBlock
 62
     0
 48
50.0
100
AcDbPoint
 10
8452.829581418177
 20
9228.736797361971
 30
0.0
  0
POINT
  5
1A4EF
330
18556
100
AcDbEntity
  8
DEFPOINTS
  6
ByBlock
 62
     0
 48
50.0
100
AcDbPoint
 10
9274.165333801148
 20
9278.736797361975
 30
0.0
  0
POINT
  5
1A4F0
330
18556
100
AcDbEntity
  8
DEFPOINTS
  6
ByBlock
 62
     0
 48
50.0
100
AcDbPoint
 10
9576.969337719758
 20
9278.736797361975
 30
0.0
  0
ENDBLK
  5
1A4F1
330
18556
100
AcDbEntity
  8
0
 48
50.0
100
AcDbBlockEnd
  0
BLOCK
  5
1AD58
330
18563
100
AcDbEntity
  8
0
 48
50.0
100
AcDbBlockBegin
  2
*D5
 70
     1
 10
0.0
 20
0.0
 30
0.0
  3
*D5
  1

  0
LINE
  5
1AD59
330
18563
100
AcDbEntity
  8
0
  6
ByBlock
 62
     0
 48
50.0
100
AcDbLine
 10
9009.165333801147
 20
9278.736797361975
 30
0.0
 11
9361.969337719754
 21
9278.736797361975
 31
0.0
  0
LINE
  5
1AD5A
330
18563
100
AcDbEntity
  8
0
  6
ByBlock
 62
     0
 48
50.0
100
AcDbLine
 10
9009.165333801144
 20
11058.73679736197
 30
0.0
 11
9361.969337719754
 21
11058.73679736197
 31
0.0
  0
LINE
  5
1AD5B
330
18563
100
AcDbEntity
  8
0
  6
ByBlock
 62
     0
 48
50.0
100
AcDbLine
 10
9286.969337719753
 20
9278.736797361975
 30
0.0
 11
9286.969337719753
 21
11058.73679736197
 31
0.0
  0
INSERT
  5
1AD5C
330
18563
100
AcDbEntity
  8
0
  6
ByBlock
 62
     0
 48
50.0
100
AcDbBlockReference
  2
_DOTSMALL
 10
9286.969337719753
 20
9278.736797361975
 30
0.0
 41
125.0
 42
125.0
 43
125.0
 50
270.0
  0
INSERT
  5
1AD5D
330
18563
100
AcDbEntity
  8
0
  6
ByBlock
 62
     0
 48
50.0
100
AcDbBlockReference
  2
_DOTSMALL
 10
9286.969337719753
 20
11058.73679736197
 30
0.0
 41
125.0
 42
125.0
 43
125.0
 50
90.0
  0
MTEXT
  5
1AD5E
330
18563
100
AcDbEntity
  8
0
  6
ByBlock
 62
     7
 48
50.0
100
AcDbMText
 10
9186.969337719753
 20
10168.73679736197
 30
0.0
 40
150.0
 41
0.0
 71
     5
 72
     1
  1
\A1;内部寸法 1780
  7
STYLE1
 11
0.0000000000000001
 21
1.0
 31
0.0
 73
     1
 44
1.0
  0
POINT
  5
1AD5F
330
18563
100
AcDbEntity
  8
DEFPOINTS
  6
ByBlock
 62
     0
 48
50.0
100
AcDbPoint
 10
8984.165333801149
 20
9278.736797361975
 30
0.0
  0
POINT
  5
1AD60
330
18563
100
AcDbEntity
  8
DEFPOINTS
  6
ByBlock
 62
     0
 48
50.0
100
AcDbPoint
 10
8984.165333801144
 20
11058.73679736197
 30
0.0
  0
POINT
  5
1AD61
330
18563
100
AcDbEntity
  8
DEFPOINTS
  6
ByBlock
 62
     0
 48
50.0
100
AcDbPoint
 10
9286.969337719753
 20
11058.73679736197
 30
0.0
  0
ENDBLK
  5
1AD62
330
18563
100
AcDbEntity
  8
0
 48
50.0
100
AcDbBlockEnd
  0
BLOCK
  5
1A4CE
330
1856F
100
AcDbEntity
  8
0
 48
50.0
100
AcDbBlockBegin
  2
*D6
 70
     1
 10
0.0
 20
0.0
 30
0.0
  3
*D6
  1

  0
LINE
  5
1A4CF
330
1856F
100
AcDbEntity
  8
0
  6
ByBlock
 62
     0
 48
50.0
100
AcDbLine
 10
9299.165333801145
 20
12218.73679736197
 30
0.0
 11
9651.969337719755
 21
12218.73679736197
 31
0.0
  0
LINE
  5
1A4D0
330
1856F
100
AcDbEntity
  8
0
  6
ByBlock
 62
     0
 48
50.0
100
AcDbLine
 10
8477.829581418173
 20
12268.73679736197
 30
0.0
 11
9651.969337719755
 21
12268.73679736197
 31
0.0
  0
LINE
  5
1A4D1
330
1856F
100
AcDbEntity
  8
0
  6
ByBlock
 62
     0
 48
50.0
100
AcDbLine
 10
9576.969337719754
 20
12218.73679736197
 30
0.0
 11
9576.969337719754
 21
12093.73679736197
 31
0.0
  0
LINE
  5
1A4D2
330
1856F
100
AcDbEntity
  8
0
  6
ByBlock
 62
     0
 48
50.0
100
AcDbLine
 10
9576.969337719754
 20
12268.73679736197
 30
0.0
 11
9576.969337719754
 21
12733.85490759819
 31
0.0
  0
LINE
  5
1A4D3
330
1856F
100
AcDbEntity
  8
0
  6
ByBlock
 62
     0
 48
50.0
100
AcDbLine
 10
9576.969337719754
 20
12218.73679736197
 30
0.0
 11
9576.969337719754
 21
12268.73679736197
 31
0.0
  0
INSERT
  5
1A4D4
330
1856F
100
AcDbEntity
  8
0
  6
ByBlock
 62
     0
 48
50.0
100
AcDbBlockReference
  2
_DOTSMALL
 10
9576.969337719754
 20
12218.73679736197
 30
0.0
 41
125.0
 42
125.0
 43
125.0
 50
90.0
  0
INSERT
  5
1A4D5
330
1856F
100
AcDbEntity
  8
0
  6
ByBlock
 62
     0
 48
50.0
100
AcDbBlockReference
  2
_DOTSMALL
 10
9576.969337719754
 20
12268.73679736197
 30
0.0
 41
125.0
 42
125.0
 43
125.0
 50
270.0
  0
MTEXT
  5
1A4D6
330
1856F
100
AcDbEntity
  8
0
  6
ByBlock
 62
     7
 48
50.0
100
AcDbMText
 10
9476.969337719754
 20
12626.29585248008
 30
0.0
 40
150.0
 41
0.0
 71
     5
 72
     1
  1
\A1;50
  7
STYLE1
 11
0.0000000000000001
 21
1.0
 31
0.0
 73
     1
 44
1.0
  0
POINT
  5
1A4D7
330
1856F
100
AcDbEntity
  8
DEFPOINTS
  6
ByBlock
 62
     0
 48
50.0
100
AcDbPoint
 10
9274.165333801144
 20
12218.73679736197
 30
0.0
  0
POINT
  5
1A4D8
330
1856F
100
AcDbEntity
  8
DEFPOINTS
  6
ByBlock
 62
     0
 48
50.0
100
AcDbPoint
 10
8452.829581418173
 20
12268.73679736197
 30
0.0
  0
POINT
  5
1A4D9
330
1856F
100
AcDbEntity
  8
DEFPOINTS
  6
ByBlock
 62
     0
 48
50.0
100
AcDbPoint
 10
9576.969337719754
 20
12268.73679736197
 30
0.0
  0
ENDBLK
  5
1A4DA
330
1856F
100
AcDbEntity
  8
0
 48
50.0
100
AcDbBlockEnd
  0
BLOCK
  5
18624
330
185B5
100
AcDbEntity
  8
0
 48
50.0
100
AcDbBlockBegin
  2
*D7
 70
     1
 10
0.0
 20
0.0
 30
0.0
  3
*D7
  1

  0
LINE
  5
18625
330
185B5
100
AcDbEntity
  8
0
  6
ByBlock
 62
     0
 48
50.0
100
AcDbLine
 10
11787.46242649134
 20
12657.68151569412
 30
0.0
 11
11787.46242649134
 21
13127.71350056477
 31
0.0
  0
LINE
  5
18626
330
185B5
100
AcDbEntity
  8
0
  6
ByBlock
 62
     0
 48
50.0
100
AcDbLine
 10
11857.46242649134
 20
12667.68151569412
 30
0.0
 11
11857.46242649134
 21
13127.71350056477
 31
0.0
  0
LINE
  5
18627
330
185B5
100
AcDbEntity
  8
0
  6
ByBlock
 62
     0
 48
50.0
100
AcDbLine
 10
11857.46242649134
 20
13052.71350056477
 30
0.0
 11
11787.46242649134
 21
13052.71350056477
 31
0.0
  0
LINE
  5
18628
330
185B5
100
AcDbEntity
  8
0
  6
ByBlock
 62
     0
 48
50.0
100
AcDbLine
 10
11787.46242649134
 20
13052.71350056477
 30
0.0
 11
11437.34431625512
 21
13052.71350056477
 31
0.0
  0
INSERT
  5
18629
330
185B5
100
AcDbEntity
  8
0
  6
ByBlock
 62
     0
 48
50.0
100
AcDbBlockReference
  2
_DOTSMALL
 10
11857.46242649134
 20
13052.71350056477
 30
0.0
 41
125.0
 42
125.0
 43
125.0
  0
INSERT
  5
1862A
330
185B5
100
AcDbEntity
  8
0
  6
ByBlock
 62
     0
 48
50.0
100
AcDbBlockReference
  2
_DOTSMALL
 10
11787.46242649134
 20
13052.71350056477
 30
0.0
 41
125.0
 42
125.0
 43
125.0
 50
180.0
  0
MTEXT
  5
1862B
330
185B5
100
AcDbEntity
  8
0
  6
ByBlock
 62
     7
 48
50.0
100
AcDbMText
 10
11544.90337137323
 20
13152.71350056477
 30
0.0
 40
150.0
 41
0.0
 71
     5
 72
     1
  1
\A1;70
  7
STYLE1
 73
     1
 44
1.0
  0
POINT
  5
1862C
330
185B5
100
AcDbEntity
  8
DEFPOINTS
  6
ByBlock
 62
     0
 48
50.0
100
AcDbPoint
 10
11787.46242649134
 20
12632.68151569412
 30
0.0
  0
POINT
  5
1862D
330
185B5
100
AcDbEntity
  8
DEFPOINTS
  6
ByBlock
 62
     0
 48
50.0
100
AcDbPoint
 10
11857.46242649134
 20
12642.68151569412
 30
0.0
  0
POINT
  5
1862E
330
185B5
100
AcDbEntity
  8
DEFPOINTS
  6
ByBlock
 62
     0
 48
50.0
100
AcDbPoint
 10
11857.46242649134
 20
13052.71350056477
 30
0.0
  0
ENDBLK
  5
1862F
330
185B5
100
AcDbEntity
  8
0
 48
50.0
100
AcDbBlockEnd
  0
BLOCK
  5
1AFDC
330
185C2
100
AcDbEntity
  8
0
 48
50.0
100
AcDbBlockBegin
  2
*D8
 70
     1
 10
0.0
 20
0.0
 30
0.0
  3
*D8
  1

  0
LINE
  5
1B69F
330
185C2
100
AcDbEntity
  8
寸法
 62
     0
 48
50.0
100
AcDbLine
 10
8392.829581418174
 20
11133.73679736197
 30
0.0
 11
8392.829581418174
 21
11593.76878223262
 31
0.0
  0
LINE
  5
1B6A0
330
185C2
100
AcDbEntity
  8
寸法
 62
     0
 48
50.0
100
AcDbLine
 10
6072.829581418172
 20
11518.76878223262
 30
0.0
 11
8392.829581418174
 21
11518.76878223262
 31
0.0
  0
INSERT
  5
1B6A1
330
185C2
100
AcDbEntity
  8
寸法
 62
     0
 48
50.0
100
AcDbBlockReference
  2
_DOTSMALL
 10
6072.829581418172
 20
11518.76878223262
 30
0.0
 41
125.0
 42
125.0
 43
125.0
 50
180.0
  0
INSERT
  5
1B6A2
330
185C2
100
AcDbEntity
  8
寸法
 62
     0
 48
50.0
100
AcDbBlockReference
  2
_DOTSMALL
 10
8392.829581418174
 20
11518.76878223262
 30
0.0
 41
125.0
 42
125.0
 43
125.0
  0
MTEXT
  5
1B6A3
330
185C2
100
AcDbEntity
  8
寸法
 62
     7
 48
50.0
100
AcDbMText
 10
7232.829581418174
 20
11618.78354601215
 30
0.0
 40
150.0
 41
0.0
 71
     5
 72
     1
  1
\A1;4x580=2320
  7
STYLE1
 73
     1
 44
1.0
  0
POINT
  5
1B6A4
330
185C2
100
AcDbEntity
  8
DEFPOINTS
 62
     0
 48
50.0
100
AcDbPoint
 10
6072.829581418172
 20
11108.73679736197
 30
0.0
  0
POINT
  5
1B6A5
330
185C2
100
AcDbEntity
  8
DEFPOINTS
 62
     0
 48
50.0
100
AcDbPoint
 10
8392.829581418174
 20
11108.73679736197
 30
0.0
  0
POINT
  5
1B6A6
330
185C2
100
AcDbEntity
  8
DEFPOINTS
 62
     0
 48
50.0
100
AcDbPoint
 10
8392.829581418174
 20
11518.76878223262
 30
0.0
  0
ENDBLK
  5
1AFE5
330
185C2
100
AcDbEntity
  8
0
 48
50.0
100
AcDbBlockEnd
  0
BLOCK
  5
18656
330
185E5
100
AcDbEntity
  8
0
 48
50.0
100
AcDbBlockBegin
  2
*D9
 70
     1
 10
0.0
 20
0.0
 30
0.0
  3
*D9
  1

  0
LINE
  5
18657
330
185E5
100
AcDbEntity
  8
0
  6
ByBlock
 62
     0
 48
50.0
100
AcDbLine
 10
16637.46242649134
 20
12667.68151569412
 30
0.0
 11
16637.46242649134
 21
13127.71350056477
 31
0.0
  0
LINE
  5
18658
330
185E5
100
AcDbEntity
  8
0
  6
ByBlock
 62
     0
 48
50.0
100
AcDbLine
 10
16707.46242649134
 20
12657.68151569412
 30
0.0
 11
16707.46242649134
 21
13127.71350056477
 31
0.0
  0
LINE
  5
18659
330
185E5
100
AcDbEntity
  8
0
  6
ByBlock
 62
     0
 48
50.0
100
AcDbLine
 10
16637.46242649134
 20
13052.71350056477
 30
0.0
 11
16707.46242649134
 21
13052.71350056477
 31
0.0
  0
LINE
  5
1865A
330
185E5
100
AcDbEntity
  8
0
  6
ByBlock
 62
     0
 48
50.0
100
AcDbLine
 10
16707.46242649134
 20
13052.71350056477
 30
0.0
 11
17077.58053672756
 21
13052.71350056477
 31
0.0
  0
INSERT
  5
1865B
330
185E5
100
AcDbEntity
  8
0
  6
ByBlock
 62
     0
 48
50.0
100
AcDbBlockReference
  2
_DOTSMALL
 10
16637.46242649134
 20
13052.71350056477
 30
0.0
 41
125.0
 42
125.0
 43
125.0
 50
180.0
  0
INSERT
  5
1865C
330
185E5
100
AcDbEntity
  8
0
  6
ByBlock
 62
     0
 48
50.0
100
AcDbBlockReference
  2
_DOTSMALL
 10
16707.46242649134
 20
13052.71350056477
 30
0.0
 41
125.0
 42
125.0
 43
125.0
  0
MTEXT
  5
1865D
330
185E5
100
AcDbEntity
  8
0
  6
ByBlock
 62
     7
 48
50.0
100
AcDbMText
 10
16970.02148160945
 20
13152.71350056477
 30
0.0
 40
150.0
 41
0.0
 71
     5
 72
     1
  1
\A1;70
  7
STYLE1
 73
     1
 44
1.0
  0
POINT
  5
1865E
330
185E5
100
AcDbEntity
  8
DEFPOINTS
  6
ByBlock
 62
     0
 48
50.0
100
AcDbPoint
 10
16637.46242649134
 20
12642.68151569412
 30
0.0
  0
POINT
  5
1865F
330
185E5
100
AcDbEntity
  8
DEFPOINTS
  6
ByBlock
 62
     0
 48
50.0
100
AcDbPoint
 10
16707.46242649134
 20
12632.68151569412
 30
0.0
  0
POINT
  5
18660
330
185E5
100
AcDbEntity
  8
DEFPOINTS
  6
ByBlock
 62
     0
 48
50.0
100
AcDbPoint
 10
16707.46242649134
 20
13052.71350056477
 30
0.0
  0
ENDBLK
  5
18661
330
185E5
100
AcDbEntity
  8
0
 48
50.0
100
AcDbBlockEnd
  0
BLOCK
  5
18617
330
185F2
100
AcDbEntity
  8
0
 48
50.0
100
AcDbBlockBegin
  2
*D10
 70
     1
 10
0.0
 20
0.0
 30
0.0
  3
*D10
  1

  0
LINE
  5
18618
330
185F2
100
AcDbEntity
  8
0
  6
ByBlock
 62
     0
 48
50.0
100
AcDbLine
 10
11787.46242649134
 20
12657.68151569412
 30
0.0
 11
11787.46242649134
 21
13426.45988446553
 31
0.0
  0
LINE
  5
18619
330
185F2
100
AcDbEntity
  8
0
  6
ByBlock
 62
     0
 48
50.0
100
AcDbLine
 10
11837.46242649134
 20
13077.71350056477
 30
0.0
 11
11837.46242649134
 21
13426.45988446553
 31
0.0
  0
LINE
  5
1861A
330
185F2
100
AcDbEntity
  8
0
  6
ByBlock
 62
     0
 48
50.0
100
AcDbLine
 10
11837.46242649134
 20
13351.45988446553
 30
0.0
 11
11962.46242649134
 21
13351.45988446553
 31
0.0
  0
LINE
  5
1861B
330
185F2
100
AcDbEntity
  8
0
  6
ByBlock
 62
     0
 48
50.0
100
AcDbLine
 10
11787.46242649134
 20
13351.45988446553
 30
0.0
 11
11322.34431625512
 21
13351.45988446553
 31
0.0
  0
LINE
  5
1861C
330
185F2
100
AcDbEntity
  8
0
  6
ByBlock
 62
     0
 48
50.0
100
AcDbLine
 10
11837.46242649134
 20
13351.45988446553
 30
0.0
 11
11787.46242649134
 21
13351.45988446553
 31
0.0
  0
INSERT
  5
1861D
330
185F2
100
AcDbEntity
  8
0
  6
ByBlock
 62
     0
 48
50.0
100
AcDbBlockReference
  2
_DOTSMALL
 10
11837.46242649134
 20
13351.45988446553
 30
0.0
 41
125.0
 42
125.0
 43
125.0
 50
180.0
  0
INSERT
  5
1861E
330
185F2
100
AcDbEntity
  8
0
  6
ByBlock
 62
     0
 48
50.0
100
AcDbBlockReference
  2
_DOTSMALL
 10
11787.46242649134
 20
13351.45988446553
 30
0.0
 41
125.0
 42
125.0
 43
125.0
  0
MTEXT
  5
1861F
330
185F2
100
AcDbEntity
  8
0
  6
ByBlock
 62
     7
 48
50.0
100
AcDbMText
 10
11429.90337137323
 20
13451.45988446553
 30
0.0
 40
150.0
 41
0.0
 71
     5
 72
     1
  1
\A1;50
  7
STYLE1
 73
     1
 44
1.0
  0
POINT
  5
18620
330
185F2
100
AcDbEntity
  8
DEFPOINTS
  6
ByBlock
 62
     0
 48
50.0
100
AcDbPoint
 10
11787.46242649134
 20
12632.68151569412
 30
0.0
  0
POINT
  5
18621
330
185F2
100
AcDbEntity
  8
DEFPOINTS
  6
ByBlock
 62
     0
 48
50.0
100
AcDbPoint
 10
11837.46242649134
 20
13052.71350056477
 30
0.0
  0
POINT
  5
18622
330
185F2
100
AcDbEntity
  8
DEFPOINTS
  6
ByBlock
 62
     0
 48
50.0
100
AcDbPoint
 10
11837.46242649134
 20
13351.45988446553
 30
0.0
  0
ENDBLK
  5
18623
330
185F2
100
AcDbEntity
  8
0
 48
50.0
100
AcDbBlockEnd
  0
BLOCK
  5
1AFF1
330
185FF
100
AcDbEntity
  8
0
 48
50.0
100
AcDbBlockBegin
  2
*D11
 70
     1
 10
0.0
 20
0.0
 30
0.0
  3
*D11
  1

  0
LINE
  5
1B697
330
185FF
100
AcDbEntity
  8
寸法
 62
     0
 48
50.0
100
AcDbLine
 10
8412.829581418179
 20
11543.76878223262
 30
0.0
 11
8412.829581418179
 21
11892.51516613338
 31
0.0
  0
LINE
  5
1B698
330
185FF
100
AcDbEntity
  8
寸法
 62
     0
 48
50.0
100
AcDbLine
 10
6052.829581418169
 20
11817.51516613338
 30
0.0
 11
8412.829581418179
 21
11817.51516613338
 31
0.0
  0
INSERT
  5
1B699
330
185FF
100
AcDbEntity
  8
寸法
 62
     0
 48
50.0
100
AcDbBlockReference
  2
_DOTSMALL
 10
6052.829581418169
 20
11817.51516613338
 30
0.0
 41
125.0
 42
125.0
 43
125.0
 50
180.0
  0
INSERT
  5
1B69A
330
185FF
100
AcDbEntity
  8
寸法
 62
     0
 48
50.0
100
AcDbBlockReference
  2
_DOTSMALL
 10
8412.829581418179
 20
11817.51516613338
 30
0.0
 41
125.0
 42
125.0
 43
125.0
  0
MTEXT
  5
1B69B
330
185FF
100
AcDbEntity
  8
寸法
 62
     7
 48
50.0
100
AcDbMText
 10
7232.829581418174
 20
11917.52992991291
 30
0.0
 40
150.0
 41
0.0
 71
     5
 72
     1
  1
\A1;内部寸法 2360
  7
STYLE1
 73
     1
 44
1.0
  0
POINT
  5
1B69C
330
185FF
100
AcDbEntity
  8
DEFPOINTS
 62
     0
 48
50.0
100
AcDbPoint
 10
6052.829581418169
 20
11518.76878223262
 30
0.0
  0
POINT
  5
1B69D
330
185FF
100
AcDbEntity
  8
DEFPOINTS
 62
     0
 48
50.0
100
AcDbPoint
 10
8412.829581418179
 20
11518.76878223262
 30
0.0
  0
POINT
  5
1B69E
330
185FF
100
AcDbEntity
  8
DEFPOINTS
 62
     0
 48
50.0
100
AcDbPoint
 10
8412.829581418179
 20
11817.51516613338
 30
0.0
  0
ENDBLK
  5
1AFFA
330
185FF
100
AcDbEntity
  8
0
 48
50.0
100
AcDbBlockEnd
  0
BLOCK
  5
18649
330
1860A
100
AcDbEntity
  8
0
 48
50.0
100
AcDbBlockBegin
  2
*D12
 70
     1
 10
0.0
 20
0.0
 30
0.0
  3
*D12
  1

  0
LINE
  5
1864A
330
1860A
100
AcDbEntity
  8
0
  6
ByBlock
 62
     0
 48
50.0
100
AcDbLine
 10
16657.46242649135
 20
13077.71350056477
 30
0.0
 11
16657.46242649135
 21
13426.45988446553
 31
0.0
  0
LINE
  5
1864B
330
1860A
100
AcDbEntity
  8
0
  6
ByBlock
 62
     0
 48
50.0
100
AcDbLine
 10
16707.46242649134
 20
12657.68151569412
 30
0.0
 11
16707.46242649134
 21
13426.45988446553
 31
0.0
  0
LINE
  5
1864C
330
1860A
100
AcDbEntity
  8
0
  6
ByBlock
 62
     0
 48
50.0
100
AcDbLine
 10
16657.46242649135
 20
13351.45988446553
 30
0.0
 11
16532.46242649135
 21
13351.45988446553
 31
0.0
  0
LINE
  5
1864D
330
1860A
100
AcDbEntity
  8
0
  6
ByBlock
 62
     0
 48
50.0
100
AcDbLine
 10
16707.46242649134
 20
13351.45988446553
 30
0.0
 11
17172.58053672756
 21
13351.45988446553
 31
0.0
  0
LINE
  5
1864E
330
1860A
100
AcDbEntity
  8
0
  6
ByBlock
 62
     0
 48
50.0
100
AcDbLine
 10
16657.46242649135
 20
13351.45988446553
 30
0.0
 11
16707.46242649134
 21
13351.45988446553
 31
0.0
  0
INSERT
  5
1864F
330
1860A
100
AcDbEntity
  8
0
  6
ByBlock
 62
     0
 48
50.0
100
AcDbBlockReference
  2
_DOTSMALL
 10
16657.46242649135
 20
13351.45988446553
 30
0.0
 41
125.0
 42
125.0
 43
125.0
  0
INSERT
  5
18650
330
1860A
100
AcDbEntity
  8
0
  6
ByBlock
 62
     0
 48
50.0
100
AcDbBlockReference
  2
_DOTSMALL
 10
16707.46242649134
 20
13351.45988446553
 30
0.0
 41
125.0
 42
125.0
 43
125.0
 50
180.0
  0
MTEXT
  5
18651
330
1860A
100
AcDbEntity
  8
0
  6
ByBlock
 62
     7
 48
50.0
100
AcDbMText
 10
17065.02148160945
 20
13451.45988446553
 30
0.0
 40
150.0
 41
0.0
 71
     5
 72
     1
  1
\A1;50
  7
STYLE1
 73
     1
 44
1.0
  0
POINT
  5
18652
330
1860A
100
AcDbEntity
  8
DEFPOINTS
  6
ByBlock
 62
     0
 48
50.0
100
AcDbPoint
 10
16657.46242649135
 20
13052.71350056477
 30
0.0
  0
POINT
  5
18653
330
1860A
100
AcDbEntity
  8
DEFPOINTS
  6
ByBlock
 62
     0
 48
50.0
100
AcDbPoint
 10
16707.46242649134
 20
12632.68151569412
 30
0.0
  0
POINT
  5
18654
330
1860A
100
AcDbEntity
  8
DEFPOINTS
  6
ByBlock
 62
     0
 48
50.0
100
AcDbPoint
 10
16707.46242649134
 20
13351.45988446553
 30
0.0
  0
ENDBLK
  5
18655
330
1860A
100
AcDbEntity
  8
0
 48
50.0
100
AcDbBlockEnd
  0
BLOCK
  5
1AFE6
330
1868D
100
AcDbEntity
  8
0
 48
50.0
100
AcDbBlockBegin
  2
*D13
 70
     1
 10
0.0
 20
0.0
 30
0.0
  3
*D13
  1

  0
LINE
  5
1AFE7
330
1868D
100
AcDbEntity
  8
0
  6
ByBlock
 62
     0
 48
50.0
100
AcDbLine
 10
5132.829581418171
 20
9213.736797361972
 30
0.0
 11
5132.829581418171
 21
7892.428503410812
 31
0.0
  0
LINE
  5
1AFE8
330
1868D
100
AcDbEntity
  8
0
  6
ByBlock
 62
     0
 48
50.0
100
AcDbLine
 10
7592.829581418176
 20
9213.736797361972
 30
0.0
 11
7592.829581418176
 21
7892.428503410812
 31
0.0
  0
LINE
  5
1AFE9
330
1868D
100
AcDbEntity
  8
0
  6
ByBlock
 62
     0
 48
50.0
100
AcDbLine
 10
5132.829581418171
 20
7967.428503410812
 30
0.0
 11
7592.829581418176
 21
7967.428503410812
 31
0.0
  0
INSERT
  5
1AFEA
330
1868D
100
AcDbEntity
  8
0
  6
ByBlock
 62
     0
 48
50.0
100
AcDbBlockReference
  2
_DOTSMALL
 10
5132.829581418171
 20
7967.428503410812
 30
0.0
 41
125.0
 42
125.0
 43
125.0
 50
180.0
  0
INSERT
  5
1AFEB
330
1868D
100
AcDbEntity
  8
0
  6
ByBlock
 62
     0
 48
50.0
100
AcDbBlockReference
  2
_DOTSMALL
 10
7592.829581418176
 20
7967.428503410812
 30
0.0
 41
125.0
 42
125.0
 43
125.0
  0
MTEXT
  5
1AFEC
330
1868D
100
AcDbEntity
  8
0
  6
ByBlock
 62
     7
 48
50.0
100
AcDbMText
 10
6362.829581418174
 20
8067.443267190339
 30
0.0
 40
150.0
 41
0.0
 71
     5
 72
     1
  1
\A1;2460
  7
STYLE1
 73
     1
 44
1.0
  0
POINT
  5
1AFED
330
1868D
100
AcDbEntity
  8
DEFPOINTS
  6
ByBlock
 62
     0
 48
50.0
100
AcDbPoint
 10
5132.829581418171
 20
9238.736797361971
 30
0.0
  0
POINT
  5
1AFEE
330
1868D
100
AcDbEntity
  8
DEFPOINTS
  6
ByBlock
 62
     0
 48
50.0
100
AcDbPoint
 10
7592.829581418176
 20
9238.736797361973
 30
0.0
  0
POINT
  5
1AFEF
330
1868D
100
AcDbEntity
  8
DEFPOINTS
  6
ByBlock
 62
     0
 48
50.0
100
AcDbPoint
 10
7592.829581418176
 20
7967.428503410812
 30
0.0
  0
ENDBLK
  5
1AFF0
330
1868D
100
AcDbEntity
  8
0
 48
50.0
100
AcDbBlockEnd
  0
BLOCK
  5
1AD42
330
186B0
100
AcDbEntity
  8
0
 48
50.0
100
AcDbBlockBegin
  2
*D14
 70
     1
 10
0.0
 20
0.0
 30
0.0
  3
*D14
  1

  0
LINE
  5
1AD43
330
186B0
100
AcDbEntity
  8
0
  6
ByBlock
 62
     0
 48
50.0
100
AcDbLine
 10
5117.82958141817
 20
11108.73679736197
 30
0.0
 11
4291.198601638503
 21
11108.73679736197
 31
0.0
  0
LINE
  5
1AD44
330
186B0
100
AcDbEntity
  8
0
  6
ByBlock
 62
     0
 48
50.0
100
AcDbLine
 10
5117.82958141817
 20
9228.736797361971
 30
0.0
 11
4291.198601638503
 21
9228.736797361971
 31
0.0
  0
LINE
  5
1AD45
330
186B0
100
AcDbEntity
  8
0
  6
ByBlock
 62
     0
 48
50.0
100
AcDbLine
 10
4366.198601638504
 20
11108.73679736197
 30
0.0
 11
4366.198601638504
 21
9228.736797361971
 31
0.0
  0
INSERT
  5
1AD46
330
186B0
100
AcDbEntity
  8
0
  6
ByBlock
 62
     0
 48
50.0
100
AcDbBlockReference
  2
_DOTSMALL
 10
4366.198601638504
 20
11108.73679736197
 30
0.0
 41
125.0
 42
125.0
 43
125.0
 50
90.0
  0
INSERT
  5
1AD47
330
186B0
100
AcDbEntity
  8
0
  6
ByBlock
 62
     0
 48
50.0
100
AcDbBlockReference
  2
_DOTSMALL
 10
4366.198601638504
 20
9228.736797361971
 30
0.0
 41
125.0
 42
125.0
 43
125.0
 50
270.0
  0
MTEXT
  5
1AD48
330
186B0
100
AcDbEntity
  8
0
  6
ByBlock
 62
     7
 48
50.0
100
AcDbMText
 10
4266.198601638503
 20
10168.73679736197
 30
0.0
 40
150.0
 41
0.0
 71
     5
 72
     1
  1
\A1;1880
  7
STYLE1
 11
0.0000000000000001
 21
1.0
 31
0.0
 73
     1
 44
1.0
  0
POINT
  5
1AD49
330
186B0
100
AcDbEntity
  8
DEFPOINTS
  6
ByBlock
 62
     0
 48
50.0
100
AcDbPoint
 10
5142.829581418171
 20
11108.73679736197
 30
0.0
  0
POINT
  5
1AD4A
330
186B0
100
AcDbEntity
  8
DEFPOINTS
  6
ByBlock
 62
     0
 48
50.0
100
AcDbPoint
 10
5142.829581418171
 20
9228.736797361971
 30
0.0
  0
POINT
  5
1AD4B
330
186B0
100
AcDbEntity
  8
DEFPOINTS
  6
ByBlock
 62
     0
 48
50.0
100
AcDbPoint
 10
4366.198601638504
 20
9228.736797361971
 30
0.0
  0
ENDBLK
  5
1AD4C
330
186B0
100
AcDbEntity
  8
0
 48
50.0
100
AcDbBlockEnd
  0
BLOCK
  5
1A492
330
1876C
100
AcDbEntity
  8
0
 48
50.0
100
AcDbBlockBegin
  2
*D15
 70
     1
 10
0.0
 20
0.0
 30
0.0
  3
*D15
  1

  0
LINE
  5
1A493
330
1876C
100
AcDbEntity
  8
0
  6
ByBlock
 62
     0
 48
50.0
100
AcDbLine
 10
5512.829581418174
 20
9135.736797361609
 30
0.0
 11
5512.829581418174
 21
8457.273498070641
 31
0.0
  0
LINE
  5
1A494
330
1876C
100
AcDbEntity
  8
0
  6
ByBlock
 62
     0
 48
50.0
100
AcDbLine
 10
6602.829581418173
 20
9135.736797361609
 30
0.0
 11
6602.829581418173
 21
8457.273498070641
 31
0.0
  0
LINE
  5
1A495
330
1876C
100
AcDbEntity
  8
0
  6
ByBlock
 62
     0
 48
50.0
100
AcDbLine
 10
5512.829581418174
 20
8532.273498070642
 30
0.0
 11
5387.829581418174
 21
8532.273498070642
 31
0.0
  0
LINE
  5
1A496
330
1876C
100
AcDbEntity
  8
0
  6
ByBlock
 62
     0
 48
50.0
100
AcDbLine
 10
6602.829581418173
 20
8532.273498070642
 30
0.0
 11
6727.829581418173
 21
8532.273498070642
 31
0.0
  0
LINE
  5
1A497
330
1876C
100
AcDbEntity
  8
0
  6
ByBlock
 62
     0
 48
50.0
100
AcDbLine
 10
5512.829581418174
 20
8532.273498070642
 30
0.0
 11
6602.829581418173
 21
8532.273498070642
 31
0.0
  0
INSERT
  5
1A498
330
1876C
100
AcDbEntity
  8
0
  6
ByBlock
 62
     0
 48
50.0
100
AcDbBlockReference
  2
_DOTSMALL
 10
5512.829581418174
 20
8532.273498070642
 30
0.0
 41
125.0
 42
125.0
 43
125.0
  0
INSERT
  5
1A499
330
1876C
100
AcDbEntity
  8
0
  6
ByBlock
 62
     0
 48
50.0
100
AcDbBlockReference
  2
_DOTSMALL
 10
6602.829581418173
 20
8532.273498070642
 30
0.0
 41
125.0
 42
125.0
 43
125.0
 50
180.0
  0
MTEXT
  5
1A49A
330
1876C
100
AcDbEntity
  8
0
  6
ByBlock
 62
     7
 48
50.0
100
AcDbMText
 10
6057.829581418173
 20
8757.273498070642
 30
0.0
 40
150.0
 41
0.0
 71
     5
 72
     1
  1
\A1;有効開口部間口\P1090
  7
STYLE1
 73
     1
 44
1.0
  0
POINT
  5
1A49B
330
1876C
100
AcDbEntity
  8
DEFPOINTS
  6
ByBlock
 62
     0
 48
50.0
100
AcDbPoint
 10
5512.829581418174
 20
9160.736797361609
 30
0.0
  0
POINT
  5
1A49C
330
1876C
100
AcDbEntity
  8
DEFPOINTS
  6
ByBlock
 62
     0
 48
50.0
100
AcDbPoint
 10
6602.829581418173
 20
9160.736797361609
 30
0.0
  0
POINT
  5
1A49D
330
1876C
100
AcDbEntity
  8
DEFPOINTS
  6
ByBlock
 62
     0
 48
50.0
100
AcDbPoint
 10
6602.829581418173
 20
8532.273498070642
 30
0.0
  0
ENDBLK
  5
1A49E
330
1876C
100
AcDbEntity
  8
0
 48
50.0
100
AcDbBlockEnd
  0
BLOCK
  5
1A8A2
330
1A2D7
100
AcDbEntity
  8
0
 48
50.0
100
AcDbBlockBegin
  2
*D16
 70
     1
 10
0.0
 20
0.0
 30
0.0
  3
*D16
  1

  0
LINE
  5
1A8A3
330
1A2D7
100
AcDbEntity
  8
0
  6
ByBlock
 62
     0
 48
50.0
100
AcDbLine
 10
4827.829581418171
 20
9228.736797361971
 30
0.0
 11
4001.198601638503
 21
9228.736797361971
 31
0.0
  0
LINE
  5
1A8A4
330
1A2D7
100
AcDbEntity
  8
0
  6
ByBlock
 62
     0
 48
50.0
100
AcDbLine
 10
4881.829581418173
 20
9160.736797361609
 30
0.0
 11
4001.198601638503
 21
9160.736797361609
 31
0.0
  0
LINE
  5
1A8A5
330
1A2D7
100
AcDbEntity
  8
0
  6
ByBlock
 62
     0
 48
50.0
100
AcDbLine
 10
4076.198601638504
 20
9228.736797361971
 30
0.0
 11
4076.198601638504
 21
9160.736797361609
 31
0.0
  0
LINE
  5
1A8A6
330
1A2D7
100
AcDbEntity
  8
0
  6
ByBlock
 62
     0
 48
50.0
100
AcDbLine
 10
4076.198601638504
 20
9160.736797361609
 30
0.0
 11
4076.198601638504
 21
8811.760419408853
 31
0.0
  0
INSERT
  5
1A8A7
330
1A2D7
100
AcDbEntity
  8
0
  6
ByBlock
 62
     0
 48
50.0
100
AcDbBlockReference
  2
_DOTSMALL
 10
4076.198601638504
 20
9228.736797361971
 30
0.0
 41
125.0
 42
125.0
 43
125.0
 50
90.0
  0
INSERT
  5
1A8A8
330
1A2D7
100
AcDbEntity
  8
0
  6
ByBlock
 62
     0
 48
50.0
100
AcDbBlockReference
  2
_DOTSMALL
 10
4076.198601638504
 20
9160.736797361609
 30
0.0
 41
125.0
 42
125.0
 43
125.0
 50
270.0
  0
MTEXT
  5
1A8A9
330
1A2D7
100
AcDbEntity
  8
0
  6
ByBlock
 62
     7
 48
50.0
100
AcDbMText
 10
3976.198601638504
 20
8923.748608385231
 30
0.0
 40
150.0
 41
0.0
 71
     5
 72
     1
  1
\A1;68
  7
STYLE1
 11
0.0000000000000001
 21
1.0
 31
0.0
 73
     1
 44
1.0
  0
POINT
  5
1A8AA
330
1A2D7
100
AcDbEntity
  8
DEFPOINTS
  6
ByBlock
 62
     0
 48
50.0
100
AcDbPoint
 10
4852.829581418171
 20
9228.736797361971
 30
0.0
  0
POINT
  5
1A8AB
330
1A2D7
100
AcDbEntity
  8
DEFPOINTS
  6
ByBlock
 62
     0
 48
50.0
100
AcDbPoint
 10
4906.829581418173
 20
9160.736797361609
 30
0.0
  0
POINT
  5
1A8AC
330
1A2D7
100
AcDbEntity
  8
DEFPOINTS
  6
ByBlock
 62
     0
 48
50.0
100
AcDbPoint
 10
4076.198601638504
 20
9160.736797361609
 30
0.0
  0
ENDBLK
  5
1A8AD
330
1A2D7
100
AcDbEntity
  8
0
 48
50.0
100
AcDbBlockEnd
  0
BLOCK
  5
1ACB9
330
1AC25
100
AcDbEntity
  8
0
 48
50.0
100
AcDbBlockBegin
  2
*D17
 70
     1
 10
0.0
 20
0.0
 30
0.0
  3
*D17
  1

  0
LINE
  5
1ACBA
330
1AC25
100
AcDbEntity
  8
0
  6
ByBlock
 62
     0
 48
50.0
100
AcDbLine
 10
14250.31781125775
 20
14622.52646466355
 30
0.0
 11
14250.31781125775
 21
14286.47913536318
 31
0.0
  0
LINE
  5
1ACBB
330
1AC25
100
AcDbEntity
  8
0
  6
ByBlock
 62
     0
 48
50.0
100
AcDbLine
 10
14050.31781125775
 20
14622.52646466355
 30
0.0
 11
14050.31781125775
 21
14286.47913536318
 31
0.0
  0
LINE
  5
1ACBC
330
1AC25
100
AcDbEntity
  8
0
  6
ByBlock
 62
     0
 48
50.0
100
AcDbLine
 10
14250.31781125775
 20
14361.47913536318
 30
0.0
 11
14050.31781125775
 21
14361.47913536318
 31
0.0
  0
LINE
  5
1ACBD
330
1AC25
100
AcDbEntity
  8
0
  6
ByBlock
 62
     0
 48
50.0
100
AcDbLine
 10
14050.31781125775
 20
14361.47913536318
 30
0.0
 11
13601.39064590342
 21
14361.47913536318
 31
0.0
  0
INSERT
  5
1ACBE
330
1AC25
100
AcDbEntity
  8
0
  6
ByBlock
 62
     0
 48
50.0
100
AcDbBlockReference
  2
_DOTSMALL
 10
14250.31781125775
 20
14361.47913536318
 30
0.0
 41
125.0
 42
125.0
 43
125.0
  0
INSERT
  5
1ACBF
330
1AC25
100
AcDbEntity
  8
0
  6
ByBlock
 62
     0
 48
50.0
100
AcDbBlockReference
  2
_DOTSMALL
 10
14050.31781125775
 20
14361.47913536318
 30
0.0
 41
125.0
 42
125.0
 43
125.0
 50
180.0
  0
MTEXT
  5
1ACC0
330
1AC25
100
AcDbEntity
  8
0
  6
ByBlock
 62
     7
 48
50.0
100
AcDbMText
 10
13763.35422858058
 20
14461.4938991427
 30
0.0
 40
150.0
 41
0.0
 71
     5
 72
     1
  1
\A1;200
  7
STYLE1
 73
     1
 44
1.0
  0
POINT
  5
1ACC1
330
1AC25
100
AcDbEntity
  8
DEFPOINTS
  6
ByBlock
 62
     0
 48
50.0
100
AcDbPoint
 10
14250.31781125775
 20
14647.52646466355
 30
0.0
  0
POINT
  5
1ACC2
330
1AC25
100
AcDbEntity
  8
DEFPOINTS
  6
ByBlock
 62
     0
 48
50.0
100
AcDbPoint
 10
14050.31781125775
 20
14647.52646466355
 30
0.0
  0
POINT
  5
1ACC3
330
1AC25
100
AcDbEntity
  8
DEFPOINTS
  6
ByBlock
 62
     0
 48
50.0
100
AcDbPoint
 10
14050.31781125775
 20
14361.47913536318
 30
0.0
  0
ENDBLK
  5
1ACC4
330
1AC25
100
AcDbEntity
  8
0
 48
50.0
100
AcDbBlockEnd
  0
BLOCK
  5
1ACC5
330
1AC32
100
AcDbEntity
  8
0
 48
50.0
100
AcDbBlockBegin
  2
*D18
 70
     1
 10
0.0
 20
0.0
 30
0.0
  3
*D18
  1

  0
LINE
  5
1ACC6
330
1AC32
100
AcDbEntity
  8
0
  6
ByBlock
 62
     0
 48
50.0
100
AcDbLine
 10
14275.31781125775
 20
14647.52646466355
 30
0.0
 11
14723.65294625163
 21
14647.52646466355
 31
0.0
  0
LINE
  5
1ACC7
330
1AC32
100
AcDbEntity
  8
0
  6
ByBlock
 62
     0
 48
50.0
100
AcDbLine
 10
14275.31781125775
 20
14847.52646466355
 30
0.0
 11
14723.65294625163
 21
14847.52646466355
 31
0.0
  0
LINE
  5
1ACC8
330
1AC32
100
AcDbEntity
  8
0
  6
ByBlock
 62
     0
 48
50.0
100
AcDbLine
 10
14648.65294625163
 20
14847.52646466355
 30
0.0
 11
14648.65294625163
 21
14647.52646466355
 31
0.0
  0
LINE
  5
1ACC9
330
1AC32
100
AcDbEntity
  8
0
  6
ByBlock
 62
     0
 48
50.0
100
AcDbLine
 10
14648.65294625163
 20
14647.52646466355
 30
0.0
 11
14648.65294625163
 21
14198.59929930922
 31
0.0
  0
INSERT
  5
1ACCA
330
1AC32
100
AcDbEntity
  8
0
  6
ByBlock
 62
     0
 48
50.0
100
AcDbBlockReference
  2
_DOTSMALL
 10
14648.65294625163
 20
14847.52646466355
 30
0.0
 41
125.0
 42
125.0
 43
125.0
 50
90.0
  0
INSERT
  5
1ACCB
330
1AC32
100
AcDbEntity
  8
0
  6
ByBlock
 62
     0
 48
50.0
100
AcDbBlockReference
  2
_DOTSMALL
 10
14648.65294625163
 20
14647.52646466355
 30
0.0
 41
125.0
 42
125.0
 43
125.0
 50
270.0
  0
MTEXT
  5
1ACCC
330
1AC32
100
AcDbEntity
  8
0
  6
ByBlock
 62
     7
 48
50.0
100
AcDbMText
 10
14548.6381824721
 20
14360.56288198639
 30
0.0
 40
150.0
 41
0.0
 71
     5
 72
     1
  1
\A1;200
  7
STYLE1
 11
0.0000000000000001
 21
1.0
 31
0.0
 73
     1
 44
1.0
  0
POINT
  5
1ACCD
330
1AC32
100
AcDbEntity
  8
DEFPOINTS
  6
ByBlock
 62
     0
 48
50.0
100
AcDbPoint
 10
14250.31781125775
 20
14647.52646466355
 30
0.0
  0
POINT
  5
1ACCE
330
1AC32
100
AcDbEntity
  8
DEFPOINTS
  6
ByBlock
 62
     0
 48
50.0
100
AcDbPoint
 10
14250.31781125775
 20
14847.52646466355
 30
0.0
  0
POINT
  5
1ACCF
330
1AC32
100
AcDbEntity
  8
DEFPOINTS
  6
ByBlock
 62
     0
 48
50.0
100
AcDbPoint
 10
14648.65294625163
 20
14847.52646466355
 30
0.0
  0
ENDBLK
  5
1ACD0
330
1AC32
100
AcDbEntity
  8
0
 48
50.0
100
AcDbBlockEnd
  0
BLOCK
  5
1ACD1
330
1AC3F
100
AcDbEntity
  8
0
 48
50.0
100
AcDbBlockBegin
  2
*D19
 70
     1
 10
0.0
 20
0.0
 30
0.0
  3
*D19
  1

  0
LINE
  5
1B6A7
330
1AC3F
100
AcDbEntity
  8
寸法
 62
     0
 48
50.0
100
AcDbLine
 10
14822.82958141817
 20
5513.337018226841
 30
0.0
 11
14822.82958141817
 21
6313.281130716521
 31
0.0
  0
LINE
  5
1B6A8
330
1AC3F
100
AcDbEntity
  8
寸法
 62
     0
 48
50.0
100
AcDbLine
 10
12942.82958141817
 20
6238.281130716521
 30
0.0
 11
14822.82958141817
 21
6238.281130716521
 31
0.0
  0
INSERT
  5
1B6A9
330
1AC3F
100
AcDbEntity
  8
寸法
 62
     0
 48
50.0
100
AcDbBlockReference
  2
_DOTSMALL
 10
12942.82958141817
 20
6238.281130716521
 30
0.0
 41
125.0
 42
125.0
 43
125.0
 50
180.0
  0
INSERT
  5
1B6AA
330
1AC3F
100
AcDbEntity
  8
寸法
 62
     0
 48
50.0
100
AcDbBlockReference
  2
_DOTSMALL
 10
14822.82958141817
 20
6238.281130716521
 30
0.0
 41
125.0
 42
125.0
 43
125.0
  0
MTEXT
  5
1B6AB
330
1AC3F
100
AcDbEntity
  8
寸法
 62
     7
 48
50.0
100
AcDbMText
 10
13882.82958141817
 20
6338.281130716521
 30
0.0
 40
150.0
 41
0.0
 71
     5
 72
     1
  1
\A1;柱外寸法 1880
  7
STYLE1
 73
     1
 44
1.0
  0
POINT
  5
1B6AC
330
1AC3F
100
AcDbEntity
  8
DEFPOINTS
 62
     0
 48
50.0
100
AcDbPoint
 10
12942.82958141817
 20
5541.484603453081
 30
0.0
  0
POINT
  5
1B6AD
330
1AC3F
100
AcDbEntity
  8
DEFPOINTS
 62
     0
 48
50.0
100
AcDbPoint
 10
14822.82958141817
 20
5488.33701822684
 30
0.0
  0
POINT
  5
1B6AE
330
1AC3F
100
AcDbEntity
  8
DEFPOINTS
 62
     0
 48
50.0
100
AcDbPoint
 10
14822.82958141817
 20
6238.281130716521
 30
0.0
  0
ENDBLK
  5
1ACDA
330
1AC3F
100
AcDbEntity
  8
0
 48
50.0
100
AcDbBlockEnd
  0
BLOCK
  5
1ACDB
330
1AC4A
100
AcDbEntity
  8
0
 48
50.0
100
AcDbBlockBegin
  2
*D20
 70
     1
 10
0.0
 20
0.0
 30
0.0
  3
*D20
  1

  0
LINE
  5
1ACDC
330
1AC4A
100
AcDbEntity
  8
0
  6
ByBlock
 62
     0
 48
50.0
100
AcDbLine
 10
12176.81781125775
 20
17447.52646466355
 30
0.0
 11
12176.81781125775
 21
18458.5953192181
 31
0.0
  0
LINE
  5
1ACDD
330
1AC4A
100
AcDbEntity
  8
0
  6
ByBlock
 62
     0
 48
50.0
100
AcDbLine
 10
14286.81781125775
 20
17387.52646466355
 30
0.0
 11
14286.81781125775
 21
18458.5953192181
 31
0.0
  0
LINE
  5
1ACDE
330
1AC4A
100
AcDbEntity
  8
0
  6
ByBlock
 62
     0
 48
50.0
100
AcDbLine
 10
12176.81781125775
 20
18383.5953192181
 30
0.0
 11
14286.81781125775
 21
18383.5953192181
 31
0.0
  0
INSERT
  5
1ACDF
330
1AC4A
100
AcDbEntity
  8
0
  6
ByBlock
 62
     0
 48
50.0
100
AcDbBlockReference
  2
_DOTSMALL
 10
12176.81781125775
 20
18383.5953192181
 30
0.0
 41
125.0
 42
125.0
 43
125.0
 50
180.0
  0
INSERT
  5
1ACE0
330
1AC4A
100
AcDbEntity
  8
0
  6
ByBlock
 62
     0
 48
50.0
100
AcDbBlockReference
  2
_DOTSMALL
 10
14286.81781125775
 20
18383.5953192181
 30
0.0
 41
125.0
 42
125.0
 43
125.0
  0
MTEXT
  5
1ACE1
330
1AC4A
100
AcDbEntity
  8
0
  6
ByBlock
 62
     7
 48
50.0
100
AcDbMText
 10
13231.81781125775
 20
18483.61008299762
 30
0.0
 40
150.0
 41
0.0
 71
     5
 72
     1
  1
\A1;2110
  7
STYLE1
 73
     1
 44
1.0
  0
POINT
  5
1ACE2
330
1AC4A
100
AcDbEntity
  8
DEFPOINTS
  6
ByBlock
 62
     0
 48
50.0
100
AcDbPoint
 10
12176.81781125775
 20
17422.52646466355
 30
0.0
  0
POINT
  5
1ACE3
330
1AC4A
100
AcDbEntity
  8
DEFPOINTS
  6
ByBlock
 62
     0
 48
50.0
100
AcDbPoint
 10
14286.81781125775
 20
17362.52646466355
 30
0.0
  0
POINT
  5
1ACE4
330
1AC4A
100
AcDbEntity
  8
DEFPOINTS
  6
ByBlock
 62
     0
 48
50.0
100
AcDbPoint
 10
14286.81781125775
 20
18383.5953192181
 30
0.0
  0
ENDBLK
  5
1ACE5
330
1AC4A
100
AcDbEntity
  8
0
 48
50.0
100
AcDbBlockEnd
  0
BLOCK
  5
1B24D
330
1AC56
100
AcDbEntity
  8
0
 48
50.0
100
AcDbBlockBegin
  2
*D21
 70
     1
 10
0.0
 20
0.0
 30
0.0
  3
*D21
  1

  0
LINE
  5
1B24E
330
1AC56
100
AcDbEntity
  8
0
  6
ByBlock
 62
     0
 48
50.0
100
AcDbLine
 10
13362.82958141817
 20
5545.0
 30
0.0
 11
12413.66366111978
 21
5545.0
 31
0.0
  0
LINE
  5
1B24F
330
1AC56
100
AcDbEntity
  8
0
  6
ByBlock
 62
     0
 48
50.0
100
AcDbLine
 10
13429.82958141817
 20
3275.0
 30
0.0
 11
12413.66366111978
 21
3275.0
 31
0.0
  0
LINE
  5
1B250
330
1AC56
100
AcDbEntity
  8
0
  6
ByBlock
 62
     0
 48
50.0
100
AcDbLine
 10
12488.66366111978
 20
5545.0
 30
0.0
 11
12488.66366111978
 21
3275.0
 31
0.0
  0
INSERT
  5
1B251
330
1AC56
100
AcDbEntity
  8
0
  6
ByBlock
 62
     0
 48
50.0
100
AcDbBlockReference
  2
_DOTSMALL
 10
12488.66366111978
 20
5545.0
 30
0.0
 41
125.0
 42
125.0
 43
125.0
 50
90.0
  0
INSERT
  5
1B252
330
1AC56
100
AcDbEntity
  8
0
  6
ByBlock
 62
     0
 48
50.0
100
AcDbBlockReference
  2
_DOTSMALL
 10
12488.66366111978
 20
3275.0
 30
0.0
 41
125.0
 42
125.0
 43
125.0
 50
270.0
  0
MTEXT
  5
1B253
330
1AC56
100
AcDbEntity
  8
0
  6
ByBlock
 62
     7
 48
50.0
100
AcDbMText
 10
12388.64889734025
 20
4410.0
 30
0.0
 40
150.0
 41
0.0
 71
     5
 72
     1
  1
\A1;2270
  7
STYLE1
 11
0.0000000000000001
 21
1.0
 31
0.0
 73
     1
 44
1.0
  0
POINT
  5
1B254
330
1AC56
100
AcDbEntity
  8
DEFPOINTS
  6
ByBlock
 62
     0
 48
50.0
100
AcDbPoint
 10
13387.82958141817
 20
5545.0
 30
0.0
  0
POINT
  5
1B255
330
1AC56
100
AcDbEntity
  8
DEFPOINTS
  6
ByBlock
 62
     0
 48
50.0
100
AcDbPoint
 10
13454.82958141817
 20
3275.0
 30
0.0
  0
POINT
  5
1B256
330
1AC56
100
AcDbEntity
  8
DEFPOINTS
  6
ByBlock
 62
     0
 48
50.0
100
AcDbPoint
 10
12488.66366111978
 20
3275.0
 30
0.0
  0
ENDBLK
  5
1B257
330
1AC56
100
AcDbEntity
  8
0
 48
50.0
100
AcDbBlockEnd
  0
BLOCK
  5
1B243
330
1AC62
100
AcDbEntity
  8
0
 48
50.0
100
AcDbBlockBegin
  2
*D22
 70
     1
 10
0.0
 20
0.0
 30
0.0
  3
*D22
  1

  0
LINE
  5
1B6AF
330
1AC62
100
AcDbEntity
  8
寸法
 62
     0
 48
50.0
100
AcDbLine
 10
12917.82958141817
 20
5275.0
 30
0.0
 11
12141.70986552558
 21
5275.0
 31
0.0
  0
LINE
  5
1B6B0
330
1AC62
100
AcDbEntity
  8
寸法
 62
     0
 48
50.0
100
AcDbLine
 10
12216.70986552558
 20
3330.0
 30
0.0
 11
12216.70986552558
 21
5275.0
 31
0.0
  0
INSERT
  5
1B6B1
330
1AC62
100
AcDbEntity
  8
寸法
 62
     0
 48
50.0
100
AcDbBlockReference
  2
_DOTSMALL
 10
12216.70986552558
 20
3330.0
 30
0.0
 41
125.0
 42
125.0
 43
125.0
 50
270.0
  0
INSERT
  5
1B6B2
330
1AC62
100
AcDbEntity
  8
寸法
 62
     0
 48
50.0
100
AcDbBlockReference
  2
_DOTSMALL
 10
12216.70986552558
 20
5275.0
 30
0.0
 41
125.0
 42
125.0
 43
125.0
 50
90.0
  0
MTEXT
  5
1B6B3
330
1AC62
100
AcDbEntity
  8
寸法
 62
     7
 48
50.0
100
AcDbMText
 10
12116.70986552558
 20
4302.500000000001
 30
0.0
 40
150.0
 41
0.0
 71
     5
 72
     1
  1
\A1;1945
  7
STYLE1
 11
0.0000000000000001
 21
1.0
 31
0.0
 73
     1
 44
1.0
  0
POINT
  5
1B6B4
330
1AC62
100
AcDbEntity
  8
DEFPOINTS
 62
     0
 48
50.0
100
AcDbPoint
 10
12874.82958141817
 20
3330.0
 30
0.0
  0
POINT
  5
1B6B5
330
1AC62
100
AcDbEntity
  8
DEFPOINTS
 62
     0
 48
50.0
100
AcDbPoint
 10
12942.82958141817
 20
5275.0
 30
0.0
  0
POINT
  5
1B6B6
330
1AC62
100
AcDbEntity
  8
DEFPOINTS
 62
     0
 48
50.0
100
AcDbPoint
 10
12216.70986552558
 20
5275.0
 30
0.0
  0
ENDBLK
  5
1B24C
330
1AC62
100
AcDbEntity
  8
0
 48
50.0
100
AcDbBlockEnd
  0
BLOCK
  5
1ACFB
330
1AC6D
100
AcDbEntity
  8
0
 48
50.0
100
AcDbBlockBegin
  2
*D23
 70
     1
 10
0.0
 20
0.0
 30
0.0
  3
*D23
  1

  0
LINE
  5
1ACFC
330
1AC6D
100
AcDbEntity
  8
0
  6
ByBlock
 62
     0
 48
50.0
100
AcDbLine
 10
12218.81781125775
 20
15060.02646466355
 30
0.0
 11
11822.9295310031
 21
15060.02646466355
 31
0.0
  0
LINE
  5
1ACFD
330
1AC6D
100
AcDbEntity
  8
0
  6
ByBlock
 62
     0
 48
50.0
100
AcDbLine
 10
12218.81781125775
 20
16858.02646466355
 30
0.0
 11
11822.9295310031
 21
16858.02646466355
 31
0.0
  0
LINE
  5
1ACFE
330
1AC6D
100
AcDbEntity
  8
0
  6
ByBlock
 62
     0
 48
50.0
100
AcDbLine
 10
11897.9295310031
 20
15060.02646466355
 30
0.0
 11
11897.9295310031
 21
16858.02646466355
 31
0.0
  0
INSERT
  5
1ACFF
330
1AC6D
100
AcDbEntity
  8
0
  6
ByBlock
 62
     0
 48
50.0
100
AcDbBlockReference
  2
_DOTSMALL
 10
11897.9295310031
 20
15060.02646466355
 30
0.0
 41
125.0
 42
125.0
 43
125.0
 50
270.0
  0
INSERT
  5
1AD00
330
1AC6D
100
AcDbEntity
  8
0
  6
ByBlock
 62
     0
 48
50.0
100
AcDbBlockReference
  2
_DOTSMALL
 10
11897.9295310031
 20
16858.02646466355
 30
0.0
 41
125.0
 42
125.0
 43
125.0
 50
90.0
  0
MTEXT
  5
1AD01
330
1AC6D
100
AcDbEntity
  8
0
  6
ByBlock
 62
     7
 48
50.0
100
AcDbMText
 10
11797.9295310031
 20
15959.02646466355
 30
0.0
 40
150.0
 41
0.0
 71
     5
 72
     1
  1
\A1;有効開口部高サ 1798
  7
STYLE1
 11
0.0000000000000001
 21
1.0
 31
0.0
 73
     1
 44
1.0
  0
POINT
  5
1AD02
330
1AC6D
100
AcDbEntity
  8
DEFPOINTS
  6
ByBlock
 62
     0
 48
50.0
100
AcDbPoint
 10
12243.81781125775
 20
15060.02646466355
 30
0.0
  0
POINT
  5
1AD03
330
1AC6D
100
AcDbEntity
  8
DEFPOINTS
  6
ByBlock
 62
     0
 48
50.0
100
AcDbPoint
 10
12243.81781125775
 20
16858.02646466355
 30
0.0
  0
POINT
  5
1AD04
330
1AC6D
100
AcDbEntity
  8
DEFPOINTS
  6
ByBlock
 62
     0
 48
50.0
100
AcDbPoint
 10
11897.9295310031
 20
16858.02646466355
 30
0.0
  0
ENDBLK
  5
1AD05
330
1AC6D
100
AcDbEntity
  8
0
 48
50.0
100
AcDbBlockEnd
  0
BLOCK
  5
1AD06
330
1AC79
100
AcDbEntity
  8
0
 48
50.0
100
AcDbBlockBegin
  2
*D24
 70
     1
 10
0.0
 20
0.0
 30
0.0
  3
*D24
  1

  0
LINE
  5
1AD07
330
1AC79
100
AcDbEntity
  8
0
  6
ByBlock
 62
     0
 48
50.0
100
AcDbLine
 10
12218.81781125775
 20
14982.52646466355
 30
0.0
 11
11510.69809536516
 21
14982.52646466355
 31
0.0
  0
LINE
  5
1AD08
330
1AC79
100
AcDbEntity
  8
0
  6
ByBlock
 62
     0
 48
50.0
100
AcDbLine
 10
12218.81781125775
 20
15037.52646466355
 30
0.0
 11
11510.69809536516
 21
15037.52646466355
 31
0.0
  0
LINE
  5
1AD09
330
1AC79
100
AcDbEntity
  8
0
  6
ByBlock
 62
     0
 48
50.0
100
AcDbLine
 10
11585.69809536516
 20
15037.52646466355
 30
0.0
 11
11585.69809536516
 21
14982.52646466355
 31
0.0
  0
LINE
  5
1AD0A
330
1AC79
100
AcDbEntity
  8
0
  6
ByBlock
 62
     0
 48
50.0
100
AcDbLine
 10
11585.69809536516
 20
14982.52646466355
 30
0.0
 11
11585.69809536516
 21
14561.34035712322
 31
0.0
  0
INSERT
  5
1AD0B
330
1AC79
100
AcDbEntity
  8
0
  6
ByBlock
 62
     0
 48
50.0
100
AcDbBlockReference
  2
_DOTSMALL
 10
11585.69809536516
 20
15037.52646466355
 30
0.0
 41
125.0
 42
125.0
 43
125.0
 50
90.0
  0
INSERT
  5
1AD0C
330
1AC79
100
AcDbEntity
  8
0
  6
ByBlock
 62
     0
 48
50.0
100
AcDbBlockReference
  2
_DOTSMALL
 10
11585.69809536516
 20
14982.52646466355
 30
0.0
 41
125.0
 42
125.0
 43
125.0
 50
270.0
  0
MTEXT
  5
1AD0D
330
1AC79
100
AcDbEntity
  8
0
  6
ByBlock
 62
     7
 48
50.0
100
AcDbMText
 10
11485.69809536516
 20
14671.94695884102
 30
0.0
 40
150.0
 41
0.0
 71
     5
 72
     1
  1
\A1;55
  7
STYLE1
 11
0.0000000000000001
 21
1.0
 31
0.0
 73
     1
 44
1.0
  0
POINT
  5
1AD0E
330
1AC79
100
AcDbEntity
  8
DEFPOINTS
  6
ByBlock
 62
     0
 48
50.0
100
AcDbPoint
 10
12243.81781125775
 20
14982.52646466355
 30
0.0
  0
POINT
  5
1AD0F
330
1AC79
100
AcDbEntity
  8
DEFPOINTS
  6
ByBlock
 62
     0
 48
50.0
100
AcDbPoint
 10
12243.81781125775
 20
15037.52646466355
 30
0.0
  0
POINT
  5
1AD10
330
1AC79
100
AcDbEntity
  8
DEFPOINTS
  6
ByBlock
 62
     0
 48
50.0
100
AcDbPoint
 10
11585.69809536516
 20
15037.52646466355
 30
0.0
  0
ENDBLK
  5
1AD11
330
1AC79
100
AcDbEntity
  8
0
 48
50.0
100
AcDbBlockEnd
  0
BLOCK
  5
1AD12
330
1AC86
100
AcDbEntity
  8
0
 48
50.0
100
AcDbBlockBegin
  2
*D25
 70
     1
 10
0.0
 20
0.0
 30
0.0
  3
*D25
  1

  0
LINE
  5
1AD13
330
1AC86
100
AcDbEntity
  8
0
  6
ByBlock
 62
     0
 48
50.0
100
AcDbLine
 10
12176.81781125775
 20
17447.52646466355
 30
0.0
 11
12176.81781125775
 21
18190.80759538007
 31
0.0
  0
LINE
  5
1AD14
330
1AC86
100
AcDbEntity
  8
0
  6
ByBlock
 62
     0
 48
50.0
100
AcDbLine
 10
12311.81781125775
 20
17444.01106811663
 30
0.0
 11
12311.81781125775
 21
18190.80759538007
 31
0.0
  0
LINE
  5
1AD15
330
1AC86
100
AcDbEntity
  8
0
  6
ByBlock
 62
     0
 48
50.0
100
AcDbLine
 10
12311.81781125775
 20
18115.80759538007
 30
0.0
 11
12176.81781125775
 21
18115.80759538007
 31
0.0
  0
LINE
  5
1AD16
330
1AC86
100
AcDbEntity
  8
0
  6
ByBlock
 62
     0
 48
50.0
100
AcDbLine
 10
12176.81781125775
 20
18115.80759538007
 30
0.0
 11
11755.60460782215
 21
18115.80759538007
 31
0.0
  0
INSERT
  5
1AD17
330
1AC86
100
AcDbEntity
  8
0
  6
ByBlock
 62
     0
 48
50.0
100
AcDbBlockReference
  2
_DOTSMALL
 10
12311.81781125775
 20
18115.80759538007
 30
0.0
 41
125.0
 42
125.0
 43
125.0
  0
INSERT
  5
1AD18
330
1AC86
100
AcDbEntity
  8
0
  6
ByBlock
 62
     0
 48
50.0
100
AcDbBlockReference
  2
_DOTSMALL
 10
12176.81781125775
 20
18115.80759538007
 30
0.0
 41
125.0
 42
125.0
 43
125.0
 50
180.0
  0
MTEXT
  5
1AD19
330
1AC86
100
AcDbEntity
  8
0
  6
ByBlock
 62
     7
 48
50.0
100
AcDbMText
 10
11903.71120953995
 20
18215.80759538007
 30
0.0
 40
150.0
 41
0.0
 71
     5
 72
     1
  1
\A1;135
  7
STYLE1
 73
     1
 44
1.0
  0
POINT
  5
1AD1A
330
1AC86
100
AcDbEntity
  8
DEFPOINTS
  6
ByBlock
 62
     0
 48
50.0
100
AcDbPoint
 10
12176.81781125775
 20
17422.52646466355
 30
0.0
  0
POINT
  5
1AD1B
330
1AC86
100
AcDbEntity
  8
DEFPOINTS
  6
ByBlock
 62
     0
 48
50.0
100
AcDbPoint
 10
12311.81781125775
 20
17419.01106811663
 30
0.0
  0
POINT
  5
1AD1C
330
1AC86
100
AcDbEntity
  8
DEFPOINTS
  6
ByBlock
 62
     0
 48
50.0
100
AcDbPoint
 10
12311.81781125775
 20
18115.80759538007
 30
0.0
  0
ENDBLK
  5
1AD1D
330
1AC86
100
AcDbEntity
  8
0
 48
50.0
100
AcDbBlockEnd
  0
BLOCK
  5
1B280
330
1AC93
100
AcDbEntity
  8
0
 48
50.0
100
AcDbBlockBegin
  2
*D26
 70
     1
 10
0.0
 20
0.0
 30
0.0
  3
*D26
  1

  0
LINE
  5
1B281
330
1AC93
100
AcDbEntity
  8
0
  6
ByBlock
 62
     0
 48
50.0
100
AcDbLine
 10
12917.83730179726
 20
5409.948063770409
 30
0.0
 11
12248.85075100466
 21
5426.577682343992
 31
0.0
  0
LINE
  5
1B282
330
1AC93
100
AcDbEntity
  8
0
  6
ByBlock
 62
     0
 48
50.0
100
AcDbLine
 10
12920.69508055785
 20
5524.912550028364
 30
0.0
 11
12251.70852976525
 21
5541.542168601947
 31
0.0
  0
LINE
  5
1B283
330
1AC93
100
AcDbEntity
  8
0
  6
ByBlock
 62
     0
 48
50.0
100
AcDbLine
 10
12323.82758986854
 20
5424.713913587083
 30
0.0
 11
12326.68536862913
 21
5539.678399845038
 31
0.0
  0
LINE
  5
1B284
330
1AC93
100
AcDbEntity
  8
0
  6
ByBlock
 62
     0
 48
50.0
100
AcDbLine
 10
12326.68536862913
 20
5539.678399845038
 30
0.0
 11
12336.40711457385
 21
5930.77079071724
 31
0.0
  0
INSERT
  5
1B285
330
1AC93
100
AcDbEntity
  8
0
  6
ByBlock
 62
     0
 48
50.0
100
AcDbBlockReference
  2
_DOTSMALL
 10
12323.82758986854
 20
5424.713913587083
 30
0.0
 41
125.0
 42
125.0
 43
125.0
 50
268.5760389666132
  0
INSERT
  5
1B286
330
1AC93
100
AcDbEntity
  8
0
  6
ByBlock
 62
     0
 48
50.0
100
AcDbBlockReference
  2
_DOTSMALL
 10
12326.68536862913
 20
5539.678399845038
 30
0.0
 41
125.0
 42
125.0
 43
125.0
 50
88.57603896661327
  0
MTEXT
  5
1B287
330
1AC93
100
AcDbEntity
  8
0
  6
ByBlock
 62
     7
 48
50.0
100
AcDbMText
 10
12233.13026374707
 20
5800.190319343591
 30
0.0
 40
150.0
 41
0.0
 71
     5
 72
     1
  1
\A1;115
  7
STYLE1
 11
0.0248502500921173
 21
0.9996911848517818
 31
0.0
 73
     1
 44
1.0
  0
POINT
  5
1B288
330
1AC93
100
AcDbEntity
  8
DEFPOINTS
  6
ByBlock
 62
     0
 48
50.0
100
AcDbPoint
 10
12942.82958141856
 20
5409.326807518105
 30
0.0
  0
POINT
  5
1B289
330
1AC93
100
AcDbEntity
  8
DEFPOINTS
  6
ByBlock
 62
     0
 48
50.0
100
AcDbPoint
 10
12945.68736017915
 20
5524.29129377606
 30
0.0
  0
POINT
  5
1B28A
330
1AC93
100
AcDbEntity
  8
DEFPOINTS
  6
ByBlock
 62
     0
 48
50.0
100
AcDbPoint
 10
12326.68536862913
 20
5539.678399845038
 30
0.0
  0
ENDBLK
  5
1B28B
330
1AC93
100
AcDbEntity
  8
0
 48
50.0
100
AcDbBlockEnd
  0
BLOCK
  5
1B238
330
1ACA0
100
AcDbEntity
  8
0
 48
50.0
100
AcDbBlockBegin
  2
*D27
 70
     1
 10
0.0
 20
0.0
 30
0.0
  3
*D27
  1

  0
LINE
  5
1B239
330
1ACA0
100
AcDbEntity
  8
0
  6
ByBlock
 62
     0
 48
50.0
100
AcDbLine
 10
15427.82958141817
 20
3275.0
 30
0.0
 11
16137.32033483959
 21
3275.0
 31
0.0
  0
LINE
  5
1B23A
330
1ACA0
100
AcDbEntity
  8
0
  6
ByBlock
 62
     0
 48
50.0
100
AcDbLine
 10
15522.82958141817
 20
5485.0
 30
0.0
 11
16137.32033483959
 21
5485.0
 31
0.0
  0
LINE
  5
1B23B
330
1ACA0
100
AcDbEntity
  8
0
  6
ByBlock
 62
     0
 48
50.0
100
AcDbLine
 10
16062.32033483959
 20
3275.0
 30
0.0
 11
16062.32033483959
 21
5485.0
 31
0.0
  0
INSERT
  5
1B23C
330
1ACA0
100
AcDbEntity
  8
0
  6
ByBlock
 62
     0
 48
50.0
100
AcDbBlockReference
  2
_DOTSMALL
 10
16062.32033483959
 20
3275.0
 30
0.0
 41
125.0
 42
125.0
 43
125.0
 50
270.0
  0
INSERT
  5
1B23D
330
1ACA0
100
AcDbEntity
  8
0
  6
ByBlock
 62
     0
 48
50.0
100
AcDbBlockReference
  2
_DOTSMALL
 10
16062.32033483959
 20
5485.0
 30
0.0
 41
125.0
 42
125.0
 43
125.0
 50
90.0
  0
MTEXT
  5
1B23E
330
1ACA0
100
AcDbEntity
  8
0
  6
ByBlock
 62
     7
 48
50.0
100
AcDbMText
 10
15962.30557106006
 20
4380.0
 30
0.0
 40
150.0
 41
0.0
 71
     5
 72
     1
  1
\A1;2210
  7
STYLE1
 11
0.0000000000000001
 21
1.0
 31
0.0
 73
     1
 44
1.0
  0
POINT
  5
1B23F
330
1ACA0
100
AcDbEntity
  8
DEFPOINTS
  6
ByBlock
 62
     0
 48
50.0
100
AcDbPoint
 10
15402.82958141817
 20
3275.0
 30
0.0
  0
POINT
  5
1B240
330
1ACA0
100
AcDbEntity
  8
DEFPOINTS
  6
ByBlock
 62
     0
 48
50.0
100
AcDbPoint
 10
15497.82958141817
 20
5485.0
 30
0.0
  0
POINT
  5
1B241
330
1ACA0
100
AcDbEntity
  8
DEFPOINTS
  6
ByBlock
 62
     0
 48
50.0
100
AcDbPoint
 10
16062.32033483959
 20
5485.0
 30
0.0
  0
ENDBLK
  5
1B242
330
1ACA0
100
AcDbEntity
  8
0
 48
50.0
100
AcDbBlockEnd
  0
BLOCK
  5
1AD35
330
1ACAC
100
AcDbEntity
  8
0
 48
50.0
100
AcDbBlockBegin
  2
*D28
 70
     1
 10
0.0
 20
0.0
 30
0.0
  3
*D28
  1

  0
LINE
  5
1AD36
330
1ACAC
100
AcDbEntity
  8
0
  6
ByBlock
 62
     0
 48
50.0
100
AcDbLine
 10
14191.81781125775
 20
17390.86348289039
 30
0.0
 11
14191.81781125775
 21
18190.80759538007
 31
0.0
  0
LINE
  5
1AD37
330
1ACAC
100
AcDbEntity
  8
0
  6
ByBlock
 62
     0
 48
50.0
100
AcDbLine
 10
14286.81781125775
 20
17387.52646466355
 30
0.0
 11
14286.81781125775
 21
18190.80759538007
 31
0.0
  0
LINE
  5
1AD38
330
1ACAC
100
AcDbEntity
  8
0
  6
ByBlock
 62
     0
 48
50.0
100
AcDbLine
 10
14191.81781125775
 20
18115.80759538007
 30
0.0
 11
14286.81781125775
 21
18115.80759538007
 31
0.0
  0
LINE
  5
1AD39
330
1ACAC
100
AcDbEntity
  8
0
  6
ByBlock
 62
     0
 48
50.0
100
AcDbLine
 10
14286.81781125775
 20
18115.80759538007
 30
0.0
 11
14733.09006981146
 21
18115.80759538007
 31
0.0
  0
INSERT
  5
1AD3A
330
1ACAC
100
AcDbEntity
  8
0
  6
ByBlock
 62
     0
 48
50.0
100
AcDbBlockReference
  2
_DOTSMALL
 10
14191.81781125775
 20
18115.80759538007
 30
0.0
 41
125.0
 42
125.0
 43
125.0
 50
180.0
  0
INSERT
  5
1AD3B
330
1ACAC
100
AcDbEntity
  8
0
  6
ByBlock
 62
     0
 48
50.0
100
AcDbBlockReference
  2
_DOTSMALL
 10
14286.81781125775
 20
18115.80759538007
 30
0.0
 41
125.0
 42
125.0
 43
125.0
  0
MTEXT
  5
1AD3C
330
1ACAC
100
AcDbEntity
  8
0
  6
ByBlock
 62
     7
 48
50.0
100
AcDbMText
 10
14619.37686637586
 20
18215.80759538007
 30
0.0
 40
150.0
 41
0.0
 71
     5
 72
     1
  1
\A1;95
  7
STYLE1
 73
     1
 44
1.0
  0
POINT
  5
1AD3D
330
1ACAC
100
AcDbEntity
  8
DEFPOINTS
  6
ByBlock
 62
     0
 48
50.0
100
AcDbPoint
 10
14191.81781125775
 20
17365.86348289039
 30
0.0
  0
POINT
  5
1AD3E
330
1ACAC
100
AcDbEntity
  8
DEFPOINTS
  6
ByBlock
 62
     0
 48
50.0
100
AcDbPoint
 10
14286.81781125775
 20
17362.52646466355
 30
0.0
  0
POINT
  5
1AD3F
330
1ACAC
100
AcDbEntity
  8
DEFPOINTS
  6
ByBlock
 62
     0
 48
50.0
100
AcDbPoint
 10
14286.81781125775
 20
18115.80759538007
 30
0.0
  0
ENDBLK
  5
1AD40
330
1ACAC
100
AcDbEntity
  8
0
 48
50.0
100
AcDbBlockEnd
  0
BLOCK
  5
1AF82
330
1AF2C
100
AcDbEntity
  8
0
 48
50.0
100
AcDbBlockBegin
  2
*D29
 70
     1
 10
0.0
 20
0.0
 30
0.0
  3
*D29
  1

  0
LINE
  5
1AF83
330
1AF2C
100
AcDbEntity
  8
0
  6
ByBlock
 62
     0
 48
50.0
100
AcDbLine
 10
273.7989405287262
 20
1475.528226376841
 30
0.0
 11
273.7989405287262
 21
1097.887084092173
 31
0.0
  0
LINE
  5
1AF84
330
1AF2C
100
AcDbEntity
  8
0
  6
ByBlock
 62
     0
 48
50.0
100
AcDbLine
 10
73.79894052872441
 20
1475.528226376841
 30
0.0
 11
73.79894052872439
 21
1097.887084092173
 31
0.0
  0
LINE
  5
1AF85
330
1AF2C
100
AcDbEntity
  8
0
  6
ByBlock
 62
     0
 48
50.0
100
AcDbLine
 10
273.7989405287262
 20
1172.887084092173
 30
0.0
 11
73.7989405287244
 21
1172.887084092173
 31
0.0
  0
LINE
  5
1AF86
330
1AF2C
100
AcDbEntity
  8
0
  6
ByBlock
 62
     0
 48
50.0
100
AcDbLine
 10
73.7989405287244
 20
1172.887084092173
 30
0.0
 11
-375.1282248256064
 21
1172.887084092173
 31
0.0
  0
INSERT
  5
1AF87
330
1AF2C
100
AcDbEntity
  8
0
  6
ByBlock
 62
     0
 48
50.0
100
AcDbBlockReference
  2
_DOTSMALL
 10
273.7989405287262
 20
1172.887084092173
 30
0.0
 41
125.0
 42
125.0
 43
125.0
  0
INSERT
  5
1AF88
330
1AF2C
100
AcDbEntity
  8
0
  6
ByBlock
 62
     0
 48
50.0
100
AcDbBlockReference
  2
_DOTSMALL
 10
73.7989405287244
 20
1172.887084092173
 30
0.0
 41
125.0
 42
125.0
 43
125.0
 50
180.0
  0
MTEXT
  5
1AF89
330
1AF2C
100
AcDbEntity
  8
0
  6
ByBlock
 62
     7
 48
50.0
100
AcDbMText
 10
-213.164642148441
 20
1272.901847871701
 30
0.0
 40
150.0
 41
0.0
 71
     5
 72
     1
  1
\A1;200
  7
STYLE1
 73
     1
 44
1.0
  0
POINT
  5
1AF8A
330
1AF2C
100
AcDbEntity
  8
DEFPOINTS
  6
ByBlock
 62
     0
 48
50.0
100
AcDbPoint
 10
273.7989405287262
 20
1500.528226376841
 30
0.0
  0
POINT
  5
1AF8B
330
1AF2C
100
AcDbEntity
  8
DEFPOINTS
  6
ByBlock
 62
     0
 48
50.0
100
AcDbPoint
 10
73.79894052872441
 20
1500.528226376841
 30
0.0
  0
POINT
  5
1AF8C
330
1AF2C
100
AcDbEntity
  8
DEFPOINTS
  6
ByBlock
 62
     0
 48
50.0
100
AcDbPoint
 10
73.7989405287244
 20
1172.887084092173
 30
0.0
  0
ENDBLK
  5
1AF8D
330
1AF2C
100
AcDbEntity
  8
0
 48
50.0
100
AcDbBlockEnd
  0
BLOCK
  5
1AF8E
330
1AF39
100
AcDbEntity
  8
0
 48
50.0
100
AcDbBlockBegin
  2
*D30
 70
     1
 10
0.0
 20
0.0
 30
0.0
  3
*D30
  1

  0
LINE
  5
1AF8F
330
1AF39
100
AcDbEntity
  8
0
  6
ByBlock
 62
     0
 48
50.0
100
AcDbLine
 10
-2341.201063841101
 20
4264.52822900165
 30
0.0
 11
-2341.201063841101
 21
5311.597080931388
 31
0.0
  0
LINE
  5
1AF90
330
1AF39
100
AcDbEntity
  8
0
  6
ByBlock
 62
     0
 48
50.0
100
AcDbLine
 10
228.798940528728
 20
4264.52822900165
 30
0.0
 11
228.7989405287281
 21
5311.597080931388
 31
0.0
  0
LINE
  5
1AF91
330
1AF39
100
AcDbEntity
  8
0
  6
ByBlock
 62
     0
 48
50.0
100
AcDbLine
 10
-2341.201063841101
 20
5236.597080931388
 30
0.0
 11
228.7989405287281
 21
5236.597080931388
 31
0.0
  0
INSERT
  5
1AF92
330
1AF39
100
AcDbEntity
  8
0
  6
ByBlock
 62
     0
 48
50.0
100
AcDbBlockReference
  2
_DOTSMALL
 10
-2341.201063841101
 20
5236.597080931388
 30
0.0
 41
125.0
 42
125.0
 43
125.0
 50
180.0
  0
INSERT
  5
1AF93
330
1AF39
100
AcDbEntity
  8
0
  6
ByBlock
 62
     0
 48
50.0
100
AcDbBlockReference
  2
_DOTSMALL
 10
228.7989405287281
 20
5236.597080931388
 30
0.0
 41
125.0
 42
125.0
 43
125.0
  0
MTEXT
  5
1AF94
330
1AF39
100
AcDbEntity
  8
0
  6
ByBlock
 62
     7
 48
50.0
100
AcDbMText
 10
-1056.201061656186
 20
5336.611844710915
 30
0.0
 40
150.0
 41
0.0
 71
     5
 72
     1
  1
\A1;2570
  7
STYLE1
 73
     1
 44
1.0
  0
POINT
  5
1AF95
330
1AF39
100
AcDbEntity
  8
DEFPOINTS
  6
ByBlock
 62
     0
 48
50.0
100
AcDbPoint
 10
-2341.201063841101
 20
4239.528229001651
 30
0.0
  0
POINT
  5
1AF96
330
1AF39
100
AcDbEntity
  8
DEFPOINTS
  6
ByBlock
 62
     0
 48
50.0
100
AcDbPoint
 10
228.798940528728
 20
4239.528229001651
 30
0.0
  0
POINT
  5
1AF97
330
1AF39
100
AcDbEntity
  8
DEFPOINTS
  6
ByBlock
 62
     0
 48
50.0
100
AcDbPoint
 10
228.7989405287281
 20
5236.597080931388
 30
0.0
  0
ENDBLK
  5
1AF98
330
1AF39
100
AcDbEntity
  8
0
 48
50.0
100
AcDbBlockEnd
  0
BLOCK
  5
1AF99
330
1AF45
100
AcDbEntity
  8
0
 48
50.0
100
AcDbBlockBegin
  2
*D31
 70
     1
 10
0.0
 20
0.0
 30
0.0
  3
*D31
  1

  0
LINE
  5
1B6B7
330
1AF45
100
AcDbEntity
  8
寸法
 62
     0
 48
50.0
100
AcDbLine
 10
8462.829581418173
 20
5570.000000008446
 30
0.0
 11
8462.829581418173
 21
6313.281130716521
 31
0.0
  0
LINE
  5
1B6B8
330
1AF45
100
AcDbEntity
  8
寸法
 62
     0
 48
50.0
100
AcDbLine
 10
6002.829581418175
 20
6238.281130716521
 30
0.0
 11
8462.829581418173
 21
6238.281130716521
 31
0.0
  0
INSERT
  5
1B6B9
330
1AF45
100
AcDbEntity
  8
寸法
 62
     0
 48
50.0
100
AcDbBlockReference
  2
_DOTSMALL
 10
6002.829581418175
 20
6238.281130716521
 30
0.0
 41
125.0
 42
125.0
 43
125.0
 50
180.0
  0
INSERT
  5
1B6BA
330
1AF45
100
AcDbEntity
  8
寸法
 62
     0
 48
50.0
100
AcDbBlockReference
  2
_DOTSMALL
 10
8462.829581418173
 20
6238.281130716521
 30
0.0
 41
125.0
 42
125.0
 43
125.0
  0
MTEXT
  5
1B6BB
330
1AF45
100
AcDbEntity
  8
寸法
 62
     7
 48
50.0
100
AcDbMText
 10
7232.829581418174
 20
6338.295894496049
 30
0.0
 40
150.0
 41
0.0
 71
     5
 72
     1
  1
\A1;柱外寸法 2460
  7
STYLE1
 73
     1
 44
1.0
  0
POINT
  5
1B6BC
330
1AF45
100
AcDbEntity
  8
DEFPOINTS
 62
     0
 48
50.0
100
AcDbPoint
 10
6002.829581418175
 20
5545.000000008467
 30
0.0
  0
POINT
  5
1B6BD
330
1AF45
100
AcDbEntity
  8
DEFPOINTS
 62
     0
 48
50.0
100
AcDbPoint
 10
8462.829581418173
 20
5545.000000008446
 30
0.0
  0
POINT
  5
1B6BE
330
1AF45
100
AcDbEntity
  8
DEFPOINTS
 62
     0
 48
50.0
100
AcDbPoint
 10
8462.829581418173
 20
6238.281130716521
 30
0.0
  0
ENDBLK
  5
1AFA2
330
1AF45
100
AcDbEntity
  8
0
 48
50.0
100
AcDbBlockEnd
  0
BLOCK
  5
1AFA3
330
1AF50
100
AcDbEntity
  8
0
 48
50.0
100
AcDbBlockBegin
  2
*D32
 70
     1
 10
0.0
 20
0.0
 30
0.0
  3
*D32
  1

  0
LINE
  5
1AFA4
330
1AF50
100
AcDbEntity
  8
0
  6
ByBlock
 62
     0
 48
50.0
100
AcDbLine
 10
-2341.201063841101
 20
4264.52822900165
 30
0.0
 11
-2341.201063841101
 21
5043.809357093363
 31
0.0
  0
LINE
  5
1AFA5
330
1AF50
100
AcDbEntity
  8
0
  6
ByBlock
 62
     0
 48
50.0
100
AcDbLine
 10
-2286.201059471273
 20
4300.528226385309
 30
0.0
 11
-2286.201059471273
 21
5043.809357093363
 31
0.0
  0
LINE
  5
1AFA6
330
1AF50
100
AcDbEntity
  8
0
  6
ByBlock
 62
     0
 48
50.0
100
AcDbLine
 10
-2286.201059471273
 20
4968.809357093363
 30
0.0
 11
-2341.201063841101
 21
4968.809357093363
 31
0.0
  0
LINE
  5
1AFA7
330
1AF50
100
AcDbEntity
  8
0
  6
ByBlock
 62
     0
 48
50.0
100
AcDbLine
 10
-2341.201063841101
 20
4968.809357093363
 30
0.0
 11
-2776.866716307184
 21
4968.809357093363
 31
0.0
  0
INSERT
  5
1AFA8
330
1AF50
100
AcDbEntity
  8
0
  6
ByBlock
 62
     0
 48
50.0
100
AcDbBlockReference
  2
_DOTSMALL
 10
-2286.201059471273
 20
4968.809357093363
 30
0.0
 41
125.0
 42
125.0
 43
125.0
  0
INSERT
  5
1AFA9
330
1AF50
100
AcDbEntity
  8
0
  6
ByBlock
 62
     0
 48
50.0
100
AcDbBlockReference
  2
_DOTSMALL
 10
-2341.201063841101
 20
4968.809357093363
 30
0.0
 41
125.0
 42
125.0
 43
125.0
 50
180.0
  0
MTEXT
  5
1AFAA
330
1AF50
100
AcDbEntity
  8
0
  6
ByBlock
 62
     7
 48
50.0
100
AcDbMText
 10
-2666.260114589386
 20
5068.809357093363
 30
0.0
 40
150.0
 41
0.0
 71
     5
 72
     1
  1
\A1;55
  7
STYLE1
 73
     1
 44
1.0
  0
POINT
  5
1AFAB
330
1AF50
100
AcDbEntity
  8
DEFPOINTS
  6
ByBlock
 62
     0
 48
50.0
100
AcDbPoint
 10
-2341.201063841101
 20
4239.528229001651
 30
0.0
  0
POINT
  5
1AFAC
330
1AF50
100
AcDbEntity
  8
DEFPOINTS
  6
ByBlock
 62
     0
 48
50.0
100
AcDbPoint
 10
-2286.201059471273
 20
4275.52822638531
 30
0.0
  0
POINT
  5
1AFAD
330
1AF50
100
AcDbEntity
  8
DEFPOINTS
  6
ByBlock
 62
     0
 48
50.0
100
AcDbPoint
 10
-2286.201059471273
 20
4968.809357093363
 30
0.0
  0
ENDBLK
  5
1AFAE
330
1AF50
100
AcDbEntity
  8
0
 48
50.0
100
AcDbBlockEnd
  0
BLOCK
  5
1B294
330
1AF5D
100
AcDbEntity
  8
0
 48
50.0
100
AcDbBlockBegin
  2
*D33
 70
     1
 10
0.0
 20
0.0
 30
0.0
  3
*D33
  1

  0
LINE
  5
1B6BF
330
1AF5D
100
AcDbEntity
  8
寸法
 62
     0
 48
50.0
100
AcDbLine
 10
8487.829581418173
 20
5302.0
 30
0.0
 11
9193.934533249727
 21
5302.0
 31
0.0
  0
LINE
  5
1B6C0
330
1AF5D
100
AcDbEntity
  8
寸法
 62
     0
 48
50.0
100
AcDbLine
 10
9118.934533249726
 20
3342.0
 30
0.0
 11
9118.934533249726
 21
5302.0
 31
0.0
  0
INSERT
  5
1B6C1
330
1AF5D
100
AcDbEntity
  8
寸法
 62
     0
 48
50.0
100
AcDbBlockReference
  2
_DOTSMALL
 10
9118.934533249726
 20
3342.0
 30
0.0
 41
125.0
 42
125.0
 43
125.0
 50
270.0
  0
INSERT
  5
1B6C2
330
1AF5D
100
AcDbEntity
  8
寸法
 62
     0
 48
50.0
100
AcDbBlockReference
  2
_DOTSMALL
 10
9118.934533249726
 20
5302.0
 30
0.0
 41
125.0
 42
125.0
 43
125.0
 50
90.0
  0
MTEXT
  5
1B6C3
330
1AF5D
100
AcDbEntity
  8
寸法
 62
     7
 48
50.0
100
AcDbMText
 10
9018.934533249725
 20
4322.000000000001
 30
0.0
 40
150.0
 41
0.0
 71
     5
 72
     1
  1
\A1;内高 1960
  7
STYLE1
 11
0.0000000000000001
 21
1.0
 31
0.0
 73
     1
 44
1.0
  0
POINT
  5
1B6C4
330
1AF5D
100
AcDbEntity
  8
DEFPOINTS
 62
     0
 48
50.0
100
AcDbPoint
 10
8462.829581418175
 20
3342.0
 30
0.0
  0
POINT
  5
1B6C5
330
1AF5D
100
AcDbEntity
  8
DEFPOINTS
 62
     0
 48
50.0
100
AcDbPoint
 10
8462.829581418173
 20
5302.0
 30
0.0
  0
POINT
  5
1B6C6
330
1AF5D
100
AcDbEntity
  8
DEFPOINTS
 62
     0
 48
50.0
100
AcDbPoint
 10
9118.934533249726
 20
5302.0
 30
0.0
  0
ENDBLK
  5
1B29D
330
1AF5D
100
AcDbEntity
  8
0
 48
50.0
100
AcDbBlockEnd
  0
BLOCK
  5
1AFB9
330
1AF68
100
AcDbEntity
  8
0
 48
50.0
100
AcDbBlockBegin
  2
*D34
 70
     1
 10
0.0
 20
0.0
 30
0.0
  3
*D34
  1

  0
LINE
  5
1AFBA
330
1AF68
100
AcDbEntity
  8
0
  6
ByBlock
 62
     0
 48
50.0
100
AcDbLine
 10
198.7989405287262
 20
1835.528226376842
 30
0.0
 11
904.9038923602784
 21
1835.528226376842
 31
0.0
  0
LINE
  5
1AFBB
330
1AF68
100
AcDbEntity
  8
0
  6
ByBlock
 62
     0
 48
50.0
100
AcDbLine
 10
198.7989405287262
 20
1902.528226376842
 30
0.0
 11
904.9038923602784
 21
1902.528226376842
 31
0.0
  0
LINE
  5
1AFBC
330
1AF68
100
AcDbEntity
  8
0
  6
ByBlock
 62
     0
 48
50.0
100
AcDbLine
 10
829.9038923602784
 20
1902.528226376842
 30
0.0
 11
829.9038923602784
 21
1835.528226376842
 31
0.0
  0
LINE
  5
1AFBD
330
1AF68
100
AcDbEntity
  8
0
  6
ByBlock
 62
     0
 48
50.0
100
AcDbLine
 10
829.9038923602784
 20
1835.528226376842
 30
0.0
 11
829.9038923602784
 21
1427.237634887959
 31
0.0
  0
INSERT
  5
1AFBE
330
1AF68
100
AcDbEntity
  8
0
  6
ByBlock
 62
     0
 48
50.0
100
AcDbBlockReference
  2
_DOTSMALL
 10
829.9038923602784
 20
1902.528226376842
 30
0.0
 41
125.0
 42
125.0
 43
125.0
 50
90.0
  0
INSERT
  5
1AFBF
330
1AF68
100
AcDbEntity
  8
0
  6
ByBlock
 62
     0
 48
50.0
100
AcDbBlockReference
  2
_DOTSMALL
 10
829.9038923602784
 20
1835.528226376842
 30
0.0
 41
125.0
 42
125.0
 43
125.0
 50
270.0
  0
MTEXT
  5
1AFC0
330
1AF68
100
AcDbEntity
  8
0
  6
ByBlock
 62
     7
 48
50.0
100
AcDbMText
 10
729.9038923602783
 20
1539.225823864337
 30
0.0
 40
150.0
 41
0.0
 71
     5
 72
     1
  1
\A1;67
  7
STYLE1
 11
0.0000000000000001
 21
1.0
 31
0.0
 73
     1
 44
1.0
  0
POINT
  5
1AFC1
330
1AF68
100
AcDbEntity
  8
DEFPOINTS
  6
ByBlock
 62
     0
 48
50.0
100
AcDbPoint
 10
173.7989405287262
 20
1835.528226376842
 30
0.0
  0
POINT
  5
1AFC2
330
1AF68
100
AcDbEntity
  8
DEFPOINTS
  6
ByBlock
 62
     0
 48
50.0
100
AcDbPoint
 10
173.7989405287262
 20
1902.528226376842
 30
0.0
  0
POINT
  5
1AFC3
330
1AF68
100
AcDbEntity
  8
DEFPOINTS
  6
ByBlock
 62
     0
 48
50.0
100
AcDbPoint
 10
829.9038923602784
 20
1902.528226376842
 30
0.0
  0
ENDBLK
  5
1AFC4
330
1AF68
100
AcDbEntity
  8
0
 48
50.0
100
AcDbBlockEnd
  0
BLOCK
  5
1AFC5
330
1AF75
100
AcDbEntity
  8
0
 48
50.0
100
AcDbBlockBegin
  2
*D35
 70
     1
 10
0.0
 20
0.0
 30
0.0
  3
*D35
  1

  0
LINE
  5
1AFC6
330
1AF75
100
AcDbEntity
  8
0
  6
ByBlock
 62
     0
 48
50.0
100
AcDbLine
 10
173.7989405287244
 20
4300.528226385288
 30
0.0
 11
173.7989405287244
 21
5043.809357093363
 31
0.0
  0
LINE
  5
1AFC7
330
1AF75
100
AcDbEntity
  8
0
  6
ByBlock
 62
     0
 48
50.0
100
AcDbLine
 10
228.798940528728
 20
4264.52822900165
 30
0.0
 11
228.7989405287281
 21
5043.809357093363
 31
0.0
  0
LINE
  5
1AFC8
330
1AF75
100
AcDbEntity
  8
0
  6
ByBlock
 62
     0
 48
50.0
100
AcDbLine
 10
173.7989405287244
 20
4968.809357093363
 30
0.0
 11
228.7989405287281
 21
4968.809357093363
 31
0.0
  0
LINE
  5
1AFC9
330
1AF75
100
AcDbEntity
  8
0
  6
ByBlock
 62
     0
 48
50.0
100
AcDbLine
 10
228.7989405287281
 20
4968.809357093363
 30
0.0
 11
654.4645973646366
 21
4968.809357093363
 31
0.0
  0
INSERT
  5
1AFCA
330
1AF75
100
AcDbEntity
  8
0
  6
ByBlock
 62
     0
 48
50.0
100
AcDbBlockReference
  2
_DOTSMALL
 10
173.7989405287244
 20
4968.809357093363
 30
0.0
 41
125.0
 42
125.0
 43
125.0
 50
180.0
  0
INSERT
  5
1AFCB
330
1AF75
100
AcDbEntity
  8
0
  6
ByBlock
 62
     0
 48
50.0
100
AcDbBlockReference
  2
_DOTSMALL
 10
228.7989405287281
 20
4968.809357093363
 30
0.0
 41
125.0
 42
125.0
 43
125.0
  0
MTEXT
  5
1AFCC
330
1AF75
100
AcDbEntity
  8
0
  6
ByBlock
 62
     7
 48
50.0
100
AcDbMText
 10
543.8579956468384
 20
5068.809357093363
 30
0.0
 40
150.0
 41
0.0
 71
     5
 72
     1
  1
\A1;55
  7
STYLE1
 73
     1
 44
1.0
  0
POINT
  5
1AFCD
330
1AF75
100
AcDbEntity
  8
DEFPOINTS
  6
ByBlock
 62
     0
 48
50.0
100
AcDbPoint
 10
173.7989405287244
 20
4275.528226385287
 30
0.0
  0
POINT
  5
1AFCE
330
1AF75
100
AcDbEntity
  8
DEFPOINTS
  6
ByBlock
 62
     0
 48
50.0
100
AcDbPoint
 10
228.798940528728
 20
4239.528229001651
 30
0.0
  0
POINT
  5
1AFCF
330
1AF75
100
AcDbEntity
  8
DEFPOINTS
  6
ByBlock
 62
     0
 48
50.0
100
AcDbPoint
 10
228.7989405287281
 20
4968.809357093363
 30
0.0
  0
ENDBLK
  5
1AFD0
330
1AF75
100
AcDbEntity
  8
0
 48
50.0
100
AcDbBlockEnd
  0
BLOCK
  5
1B5E4
330
1B569
100
AcDbEntity
  8
0
 48
50.0
100
AcDbBlockBegin
  2
*D36
 70
     1
 10
0.0
 20
0.0
 30
0.0
  3
*D36
  1

  0
LINE
  5
1B6C7
330
1B569
100
AcDbEntity
  8
寸法
 62
     0
 48
50.0
100
AcDbLine
 10
14822.82958141817
 20
11601.3631811976
 30
0.0
 11
14822.82958141817
 21
12402.01792807849
 31
0.0
  0
LINE
  5
1B6C8
330
1B569
100
AcDbEntity
  8
寸法
 62
     0
 48
50.0
100
AcDbLine
 10
12942.82958141817
 20
12327.01792807848
 30
0.0
 11
14822.82958141817
 21
12327.01792807848
 31
0.0
  0
INSERT
  5
1B6C9
330
1B569
100
AcDbEntity
  8
寸法
 62
     0
 48
50.0
100
AcDbBlockReference
  2
_DOTSMALL
 10
12942.82958141817
 20
12327.01792807848
 30
0.0
 41
125.0
 42
125.0
 43
125.0
 50
180.0
  0
INSERT
  5
1B6CA
330
1B569
100
AcDbEntity
  8
寸法
 62
     0
 48
50.0
100
AcDbBlockReference
  2
_DOTSMALL
 10
14822.82958141817
 20
12327.01792807848
 30
0.0
 41
125.0
 42
125.0
 43
125.0
  0
MTEXT
  5
1B6CB
330
1B569
100
AcDbEntity
  8
寸法
 62
     7
 48
50.0
100
AcDbMText
 10
13882.82958141817
 20
12427.01792807848
 30
0.0
 40
150.0
 41
0.0
 71
     5
 72
     1
  1
\A1;柱外寸法 1880
  7
STYLE1
 73
     1
 44
1.0
  0
POINT
  5
1B6CC
330
1B569
100
AcDbEntity
  8
DEFPOINTS
 62
     0
 48
50.0
100
AcDbPoint
 10
12942.82958141817
 20
11588.73679736197
 30
0.0
  0
POINT
  5
1B6CD
330
1B569
100
AcDbEntity
  8
DEFPOINTS
 62
     0
 48
50.0
100
AcDbPoint
 10
14822.82958141817
 20
11576.3631811976
 30
0.0
  0
POINT
  5
1B6CE
330
1B569
100
AcDbEntity
  8
DEFPOINTS
 62
     0
 48
50.0
100
AcDbPoint
 10
14822.82958141817
 20
12327.01792807848
 30
0.0
  0
ENDBLK
  5
1B5ED
330
1B569
100
AcDbEntity
  8
0
 48
50.0
100
AcDbBlockEnd
  0
BLOCK
  5
1B5EE
330
1B574
100
AcDbEntity
  8
0
 48
50.0
100
AcDbBlockBegin
  2
*D37
 70
     1
 10
0.0
 20
0.0
 30
0.0
  3
*D37
  1

  0
LINE
  5
1B5EF
330
1B574
100
AcDbEntity
  8
0
  6
ByBlock
 62
     0
 48
50.0
100
AcDbLine
 10
12807.82958141817
 20
11658.73679736197
 30
0.0
 11
12807.82958141817
 21
12718.17369887014
 31
0.0
  0
LINE
  5
1B5F0
330
1B574
100
AcDbEntity
  8
0
  6
ByBlock
 62
     0
 48
50.0
100
AcDbLine
 10
14917.82958141817
 20
11598.73679736197
 30
0.0
 11
14917.82958141817
 21
12718.17369887014
 31
0.0
  0
LINE
  5
1B5F1
330
1B574
100
AcDbEntity
  8
0
  6
ByBlock
 62
     0
 48
50.0
100
AcDbLine
 10
12807.82958141817
 20
12643.17369887014
 30
0.0
 11
14917.82958141817
 21
12643.17369887014
 31
0.0
  0
INSERT
  5
1B5F2
330
1B574
100
AcDbEntity
  8
0
  6
ByBlock
 62
     0
 48
50.0
100
AcDbBlockReference
  2
_DOTSMALL
 10
12807.82958141817
 20
12643.17369887014
 30
0.0
 41
125.0
 42
125.0
 43
125.0
 50
180.0
  0
INSERT
  5
1B5F3
330
1B574
100
AcDbEntity
  8
0
  6
ByBlock
 62
     0
 48
50.0
100
AcDbBlockReference
  2
_DOTSMALL
 10
14917.82958141817
 20
12643.17369887014
 30
0.0
 41
125.0
 42
125.0
 43
125.0
  0
MTEXT
  5
1B5F4
330
1B574
100
AcDbEntity
  8
0
  6
ByBlock
 62
     7
 48
50.0
100
AcDbMText
 10
13862.82958141817
 20
12743.18846264967
 30
0.0
 40
150.0
 41
0.0
 71
     5
 72
     1
  1
\A1;2110
  7
STYLE1
 73
     1
 44
1.0
  0
POINT
  5
1B5F5
330
1B574
100
AcDbEntity
  8
DEFPOINTS
  6
ByBlock
 62
     0
 48
50.0
100
AcDbPoint
 10
12807.82958141817
 20
11633.73679736197
 30
0.0
  0
POINT
  5
1B5F6
330
1B574
100
AcDbEntity
  8
DEFPOINTS
  6
ByBlock
 62
     0
 48
50.0
100
AcDbPoint
 10
14917.82958141817
 20
11573.73679736197
 30
0.0
  0
POINT
  5
1B5F7
330
1B574
100
AcDbEntity
  8
DEFPOINTS
  6
ByBlock
 62
     0
 48
50.0
100
AcDbPoint
 10
14917.82958141817
 20
12643.17369887014
 30
0.0
  0
ENDBLK
  5
1B5F8
330
1B574
100
AcDbEntity
  8
0
 48
50.0
100
AcDbBlockEnd
  0
BLOCK
  5
1B5F9
330
1B580
100
AcDbEntity
  8
0
 48
50.0
100
AcDbBlockBegin
  2
*D38
 70
     1
 10
0.0
 20
0.0
 30
0.0
  3
*D38
  1

  0
LINE
  5
1B5FA
330
1B580
100
AcDbEntity
  8
0
  6
ByBlock
 62
     0
 48
50.0
100
AcDbLine
 10
12917.82958141817
 20
11363.73679736196
 30
0.0
 11
11977.63480123898
 21
11363.73679736196
 31
0.0
  0
LINE
  5
1B5FB
330
1B580
100
AcDbEntity
  8
0
  6
ByBlock
 62
     0
 48
50.0
100
AcDbLine
 10
12917.82958141817
 20
9418.736797361971
 30
0.0
 11
11977.63480123898
 21
9418.736797361971
 31
0.0
  0
LINE
  5
1B5FC
330
1B580
100
AcDbEntity
  8
0
  6
ByBlock
 62
     0
 48
50.0
100
AcDbLine
 10
12052.63480123898
 20
11363.73679736196
 30
0.0
 11
12052.63480123898
 21
9418.736797361971
 31
0.0
  0
INSERT
  5
1B5FD
330
1B580
100
AcDbEntity
  8
0
  6
ByBlock
 62
     0
 48
50.0
100
AcDbBlockReference
  2
_DOTSMALL
 10
12052.63480123898
 20
11363.73679736196
 30
0.0
 41
125.0
 42
125.0
 43
125.0
 50
90.0
  0
INSERT
  5
1B5FE
330
1B580
100
AcDbEntity
  8
0
  6
ByBlock
 62
     0
 48
50.0
100
AcDbBlockReference
  2
_DOTSMALL
 10
12052.63480123898
 20
9418.736797361971
 30
0.0
 41
125.0
 42
125.0
 43
125.0
 50
270.0
  0
MTEXT
  5
1B5FF
330
1B580
100
AcDbEntity
  8
0
  6
ByBlock
 62
     7
 48
50.0
100
AcDbMText
 10
11952.63480123898
 20
10391.23679736196
 30
0.0
 40
150.0
 41
0.0
 71
     5
 72
     1
  1
\A1;1945
  7
STYLE1
 11
0.0000000000000001
 21
1.0
 31
0.0
 73
     1
 44
1.0
  0
POINT
  5
1B600
330
1B580
100
AcDbEntity
  8
DEFPOINTS
  6
ByBlock
 62
     0
 48
50.0
100
AcDbPoint
 10
12942.82958141817
 20
11363.73679736196
 30
0.0
  0
POINT
  5
1B601
330
1B580
100
AcDbEntity
  8
DEFPOINTS
  6
ByBlock
 62
     0
 48
50.0
100
AcDbPoint
 10
12942.82958141817
 20
9418.736797361971
 30
0.0
  0
POINT
  5
1B602
330
1B580
100
AcDbEntity
  8
DEFPOINTS
  6
ByBlock
 62
     0
 48
50.0
100
AcDbPoint
 10
12052.63480123898
 20
9418.736797361971
 30
0.0
  0
ENDBLK
  5
1B603
330
1B580
100
AcDbEntity
  8
0
 48
50.0
100
AcDbBlockEnd
  0
BLOCK
  5
1B604
330
1B58C
100
AcDbEntity
  8
0
 48
50.0
100
AcDbBlockBegin
  2
*D39
 70
     1
 10
0.0
 20
0.0
 30
0.0
  3
*D39
  1

  0
LINE
  5
1B605
330
1B58C
100
AcDbEntity
  8
0
  6
ByBlock
 62
     0
 48
50.0
100
AcDbLine
 10
12782.82958141816
 20
11633.73679736197
 30
0.0
 11
11643.38013607452
 21
11633.73679736197
 31
0.0
  0
LINE
  5
1B606
330
1B58C
100
AcDbEntity
  8
0
  6
ByBlock
 62
     0
 48
50.0
100
AcDbLine
 10
12917.82958141817
 20
9363.736797361967
 30
0.0
 11
11643.38013607452
 21
9363.736797361967
 31
0.0
  0
LINE
  5
1B607
330
1B58C
100
AcDbEntity
  8
0
  6
ByBlock
 62
     0
 48
50.0
100
AcDbLine
 10
11718.38013607452
 20
11633.73679736197
 30
0.0
 11
11718.38013607452
 21
9363.736797361967
 31
0.0
  0
INSERT
  5
1B608
330
1B58C
100
AcDbEntity
  8
0
  6
ByBlock
 62
     0
 48
50.0
100
AcDbBlockReference
  2
_DOTSMALL
 10
11718.38013607452
 20
11633.73679736197
 30
0.0
 41
125.0
 42
125.0
 43
125.0
 50
90.0
  0
INSERT
  5
1B609
330
1B58C
100
AcDbEntity
  8
0
  6
ByBlock
 62
     0
 48
50.0
100
AcDbBlockReference
  2
_DOTSMALL
 10
11718.38013607452
 20
9363.736797361967
 30
0.0
 41
125.0
 42
125.0
 43
125.0
 50
270.0
  0
MTEXT
  5
1B60A
330
1B58C
100
AcDbEntity
  8
0
  6
ByBlock
 62
     7
 48
50.0
100
AcDbMText
 10
11618.36537229499
 20
10498.73679736196
 30
0.0
 40
150.0
 41
0.0
 71
     5
 72
     1
  1
\A1;2270
  7
STYLE1
 11
0.0000000000000001
 21
1.0
 31
0.0
 73
     1
 44
1.0
  0
POINT
  5
1B60B
330
1B58C
100
AcDbEntity
  8
DEFPOINTS
  6
ByBlock
 62
     0
 48
50.0
100
AcDbPoint
 10
12807.82958141816
 20
11633.73679736197
 30
0.0
  0
POINT
  5
1B60C
330
1B58C
100
AcDbEntity
  8
DEFPOINTS
  6
ByBlock
 62
     0
 48
50.0
100
AcDbPoint
 10
12942.82958141817
 20
9363.736797361967
 30
0.0
  0
POINT
  5
1B60D
330
1B58C
100
AcDbEntity
  8
DEFPOINTS
  6
ByBlock
 62
     0
 48
50.0
100
AcDbPoint
 10
11718.38013607452
 20
9363.736797361967
 30
0.0
  0
ENDBLK
  5
1B60E
330
1B58C
100
AcDbEntity
  8
0
 48
50.0
100
AcDbBlockEnd
  0
BLOCK
  5
1B60F
330
1B598
100
AcDbEntity
  8
0
 48
50.0
100
AcDbBlockBegin
  2
*D40
 70
     1
 10
0.0
 20
0.0
 30
0.0
  3
*D40
  1

  0
LINE
  5
1B610
330
1B598
100
AcDbEntity
  8
0
  6
ByBlock
 62
     0
 48
50.0
100
AcDbLine
 10
12917.82958141817
 20
9418.736797361971
 30
0.0
 11
11977.63480123898
 21
9418.736797361971
 31
0.0
  0
LINE
  5
1B611
330
1B598
100
AcDbEntity
  8
0
  6
ByBlock
 62
     0
 48
50.0
100
AcDbLine
 10
12917.82958141817
 20
9363.736797361971
 30
0.0
 11
11977.63480123898
 21
9363.736797361971
 31
0.0
  0
LINE
  5
1B612
330
1B598
100
AcDbEntity
  8
0
  6
ByBlock
 62
     0
 48
50.0
100
AcDbLine
 10
12052.63480123898
 20
9418.736797361971
 30
0.0
 11
12052.63480123898
 21
9363.736797361971
 31
0.0
  0
LINE
  5
1B613
330
1B598
100
AcDbEntity
  8
0
  6
ByBlock
 62
     0
 48
50.0
100
AcDbLine
 10
12052.63480123898
 20
9363.736797361971
 30
0.0
 11
12052.63480123898
 21
8979.043856808635
 31
0.0
  0
INSERT
  5
1B614
330
1B598
100
AcDbEntity
  8
0
  6
ByBlock
 62
     0
 48
50.0
100
AcDbBlockReference
  2
_DOTSMALL
 10
12052.63480123898
 20
9418.736797361971
 30
0.0
 41
125.0
 42
125.0
 43
125.0
 50
90.0
  0
INSERT
  5
1B615
330
1B598
100
AcDbEntity
  8
0
  6
ByBlock
 62
     0
 48
50.0
100
AcDbBlockReference
  2
_DOTSMALL
 10
12052.63480123898
 20
9363.736797361971
 30
0.0
 41
125.0
 42
125.0
 43
125.0
 50
270.0
  0
MTEXT
  5
1B616
330
1B598
100
AcDbEntity
  8
0
  6
ByBlock
 62
     7
 48
50.0
100
AcDbMText
 10
11952.63480123898
 20
9089.650458526433
 30
0.0
 40
150.0
 41
0.0
 71
     5
 72
     1
  1
\A1;55
  7
STYLE1
 11
0.0000000000000001
 21
1.0
 31
0.0
 73
     1
 44
1.0
  0
POINT
  5
1B617
330
1B598
100
AcDbEntity
  8
DEFPOINTS
  6
ByBlock
 62
     0
 48
50.0
100
AcDbPoint
 10
12942.82958141817
 20
9418.736797361971
 30
0.0
  0
POINT
  5
1B618
330
1B598
100
AcDbEntity
  8
DEFPOINTS
  6
ByBlock
 62
     0
 48
50.0
100
AcDbPoint
 10
12942.82958141817
 20
9363.736797361971
 30
0.0
  0
POINT
  5
1B619
330
1B598
100
AcDbEntity
  8
DEFPOINTS
  6
ByBlock
 62
     0
 48
50.0
100
AcDbPoint
 10
12052.63480123898
 20
9363.736797361971
 30
0.0
  0
ENDBLK
  5
1B61A
330
1B598
100
AcDbEntity
  8
0
 48
50.0
100
AcDbBlockEnd
  0
BLOCK
  5
1B61B
330
1B5A5
100
AcDbEntity
  8
0
 48
50.0
100
AcDbBlockBegin
  2
*D41
 70
     1
 10
0.0
 20
0.0
 30
0.0
  3
*D41
  1

  0
LINE
  5
1B61C
330
1B5A5
100
AcDbEntity
  8
0
  6
ByBlock
 62
     0
 48
50.0
100
AcDbLine
 10
12803.84362656884
 20
11501.29474893229
 30
0.0
 11
12134.73506072483
 21
11511.9378908303
 31
0.0
  0
LINE
  5
1B61D
330
1B5A5
100
AcDbEntity
  8
0
  6
ByBlock
 62
     0
 48
50.0
100
AcDbLine
 10
12805.67263694135
 20
11616.28020332134
 30
0.0
 11
12136.56407109735
 21
11626.92334521935
 31
0.0
  0
LINE
  5
1B61E
330
1B5A5
100
AcDbEntity
  8
0
  6
ByBlock
 62
     0
 48
50.0
100
AcDbLine
 10
12209.72557445682
 20
11510.74505797865
 30
0.0
 11
12211.55458482934
 21
11625.73051236771
 31
0.0
  0
LINE
  5
1B61F
330
1B5A5
100
AcDbEntity
  8
0
  6
ByBlock
 62
     0
 48
50.0
100
AcDbLine
 10
12211.55458482934
 20
11625.73051236771
 30
0.0
 11
12217.77661097673
 21
12016.89423375936
 31
0.0
  0
INSERT
  5
1B620
330
1B5A5
100
AcDbEntity
  8
0
  6
ByBlock
 62
     0
 48
50.0
100
AcDbBlockReference
  2
_DOTSMALL
 10
12209.72557445682
 20
11510.74505797865
 30
0.0
 41
125.0
 42
125.0
 43
125.0
 50
269.0887044041859
  0
INSERT
  5
1B621
330
1B5A5
100
AcDbEntity
  8
0
  6
ByBlock
 62
     0
 48
50.0
100
AcDbBlockReference
  2
_DOTSMALL
 10
12211.55458482934
 20
11625.73051236771
 30
0.0
 41
125.0
 42
125.0
 43
125.0
 50
89.08870440418592
  0
MTEXT
  5
1B622
330
1B5A5
100
AcDbEntity
  8
0
  6
ByBlock
 62
     7
 48
50.0
100
AcDbMText
 10
12115.67227363675
 20
11885.39491164239
 30
0.0
 40
150.0
 41
0.0
 71
     5
 72
     1
  1
\A1;115
  7
STYLE1
 11
0.0159044380219005
 21
0.9998735164265566
 31
0.0
 73
     1
 44
1.0
  0
POINT
  5
1B623
330
1B5A5
100
AcDbEntity
  8
DEFPOINTS
  6
ByBlock
 62
     0
 48
50.0
100
AcDbPoint
 10
12828.8404644795
 20
11500.89713798174
 30
0.0
  0
POINT
  5
1B624
330
1B5A5
100
AcDbEntity
  8
DEFPOINTS
  6
ByBlock
 62
     0
 48
50.0
100
AcDbPoint
 10
12830.66947485202
 20
11615.88259237079
 30
0.0
  0
POINT
  5
1B625
330
1B5A5
100
AcDbEntity
  8
DEFPOINTS
  6
ByBlock
 62
     0
 48
50.0
100
AcDbPoint
 10
12211.55458482934
 20
11625.73051236771
 30
0.0
  0
ENDBLK
  5
1B626
330
1B5A5
100
AcDbEntity
  8
0
 48
50.0
100
AcDbBlockEnd
  0
BLOCK
  5
1B627
330
1B5B2
100
AcDbEntity
  8
0
 48
50.0
100
AcDbBlockBegin
  2
*D42
 70
     1
 10
0.0
 20
0.0
 30
0.0
  3
*D42
  1

  0
LINE
  5
1B628
330
1B5B2
100
AcDbEntity
  8
0
  6
ByBlock
 62
     0
 48
50.0
100
AcDbLine
 10
12807.82958141817
 20
11658.73679736197
 30
0.0
 11
12807.82958141817
 21
12402.01792807849
 31
0.0
  0
LINE
  5
1B629
330
1B5B2
100
AcDbEntity
  8
0
  6
ByBlock
 62
     0
 48
50.0
100
AcDbLine
 10
12942.82958141817
 20
11656.29728927309
 30
0.0
 11
12942.82958141817
 21
12402.01792807849
 31
0.0
  0
LINE
  5
1B62A
330
1B5B2
100
AcDbEntity
  8
0
  6
ByBlock
 62
     0
 48
50.0
100
AcDbLine
 10
12942.82958141817
 20
12327.01792807849
 30
0.0
 11
12807.82958141817
 21
12327.01792807849
 31
0.0
  0
LINE
  5
1B62B
330
1B5B2
100
AcDbEntity
  8
0
  6
ByBlock
 62
     0
 48
50.0
100
AcDbLine
 10
12807.82958141817
 20
12327.01792807849
 30
0.0
 11
12377.16392458225
 21
12327.01792807849
 31
0.0
  0
INSERT
  5
1B62C
330
1B5B2
100
AcDbEntity
  8
0
  6
ByBlock
 62
     0
 48
50.0
100
AcDbBlockReference
  2
_DOTSMALL
 10
12942.82958141817
 20
12327.01792807849
 30
0.0
 41
125.0
 42
125.0
 43
125.0
  0
INSERT
  5
1B62D
330
1B5B2
100
AcDbEntity
  8
0
  6
ByBlock
 62
     0
 48
50.0
100
AcDbBlockReference
  2
_DOTSMALL
 10
12807.82958141817
 20
12327.01792807849
 30
0.0
 41
125.0
 42
125.0
 43
125.0
 50
180.0
  0
MTEXT
  5
1B62E
330
1B5B2
100
AcDbEntity
  8
0
  6
ByBlock
 62
     7
 48
50.0
100
AcDbMText
 10
12525.27052630005
 20
12427.01792807849
 30
0.0
 40
150.0
 41
0.0
 71
     5
 72
     1
  1
\A1;135
  7
STYLE1
 73
     1
 44
1.0
  0
POINT
  5
1B62F
330
1B5B2
100
AcDbEntity
  8
DEFPOINTS
  6
ByBlock
 62
     0
 48
50.0
100
AcDbPoint
 10
12807.82958141817
 20
11633.73679736197
 30
0.0
  0
POINT
  5
1B630
330
1B5B2
100
AcDbEntity
  8
DEFPOINTS
  6
ByBlock
 62
     0
 48
50.0
100
AcDbPoint
 10
12942.82958141817
 20
11631.29728927309
 30
0.0
  0
POINT
  5
1B631
330
1B5B2
100
AcDbEntity
  8
DEFPOINTS
  6
ByBlock
 62
     0
 48
50.0
100
AcDbPoint
 10
12942.82958141817
 20
12327.01792807849
 30
0.0
  0
ENDBLK
  5
1B632
330
1B5B2
100
AcDbEntity
  8
0
 48
50.0
100
AcDbBlockEnd
  0
BLOCK
  5
1B633
330
1B5BF
100
AcDbEntity
  8
0
 48
50.0
100
AcDbBlockBegin
  2
*D43
 70
     1
 10
0.0
 20
0.0
 30
0.0
  3
*D43
  1

  0
LINE
  5
1B634
330
1B5BF
100
AcDbEntity
  8
0
  6
ByBlock
 62
     0
 48
50.0
100
AcDbLine
 10
14847.82958141817
 20
9363.736797361971
 30
0.0
 11
16522.07164574816
 21
9363.736797361969
 31
0.0
  0
LINE
  5
1B635
330
1B5BF
100
AcDbEntity
  8
0
  6
ByBlock
 62
     0
 48
50.0
100
AcDbLine
 10
14942.82958141817
 20
11573.73679736197
 30
0.0
 11
16522.07164574816
 21
11573.73679736197
 31
0.0
  0
LINE
  5
1B636
330
1B5BF
100
AcDbEntity
  8
0
  6
ByBlock
 62
     0
 48
50.0
100
AcDbLine
 10
16447.07164574816
 20
9363.736797361969
 30
0.0
 11
16447.07164574816
 21
11573.73679736197
 31
0.0
  0
INSERT
  5
1B637
330
1B5BF
100
AcDbEntity
  8
0
  6
ByBlock
 62
     0
 48
50.0
100
AcDbBlockReference
  2
_DOTSMALL
 10
16447.07164574816
 20
9363.736797361969
 30
0.0
 41
125.0
 42
125.0
 43
125.0
 50
270.0
  0
INSERT
  5
1B638
330
1B5BF
100
AcDbEntity
  8
0
  6
ByBlock
 62
     0
 48
50.0
100
AcDbBlockReference
  2
_DOTSMALL
 10
16447.07164574816
 20
11573.73679736197
 30
0.0
 41
125.0
 42
125.0
 43
125.0
 50
90.0
  0
MTEXT
  5
1B639
330
1B5BF
100
AcDbEntity
  8
0
  6
ByBlock
 62
     7
 48
50.0
100
AcDbMText
 10
16347.05688196863
 20
10468.73679736197
 30
0.0
 40
150.0
 41
0.0
 71
     5
 72
     1
  1
\A1;2210
  7
STYLE1
 11
0.0000000000000001
 21
1.0
 31
0.0
 73
     1
 44
1.0
  0
POINT
  5
1B63A
330
1B5BF
100
AcDbEntity
  8
DEFPOINTS
  6
ByBlock
 62
     0
 48
50.0
100
AcDbPoint
 10
14822.82958141817
 20
9363.736797361971
 30
0.0
  0
POINT
  5
1B63B
330
1B5BF
100
AcDbEntity
  8
DEFPOINTS
  6
ByBlock
 62
     0
 48
50.0
100
AcDbPoint
 10
14917.82958141817
 20
11573.73679736197
 30
0.0
  0
POINT
  5
1B63C
330
1B5BF
100
AcDbEntity
  8
DEFPOINTS
  6
ByBlock
 62
     0
 48
50.0
100
AcDbPoint
 10
16447.07164574816
 20
11573.73679736197
 30
0.0
  0
ENDBLK
  5
1B63D
330
1B5BF
100
AcDbEntity
  8
0
 48
50.0
100
AcDbBlockEnd
  0
BLOCK
  5
1B63E
330
1B5CB
100
AcDbEntity
  8
0
 48
50.0
100
AcDbBlockBegin
  2
*D44
 70
     1
 10
0.0
 20
0.0
 30
0.0
  3
*D44
  1

  0
LINE
  5
1B63F
330
1B5CB
100
AcDbEntity
  8
0
  6
ByBlock
 62
     0
 48
50.0
100
AcDbLine
 10
14812.32958141817
 20
9430.736797361971
 30
0.0
 11
16209.10991665977
 21
9430.736797361969
 31
0.0
  0
LINE
  5
1B640
330
1B5CB
100
AcDbEntity
  8
0
  6
ByBlock
 62
     0
 48
50.0
100
AcDbLine
 10
14847.82958141817
 20
11390.73679736196
 30
0.0
 11
16209.10991665977
 21
11390.73679736196
 31
0.0
  0
LINE
  5
1B641
330
1B5CB
100
AcDbEntity
  8
0
  6
ByBlock
 62
     0
 48
50.0
100
AcDbLine
 10
16134.10991665977
 20
9430.736797361969
 30
0.0
 11
16134.10991665977
 21
11390.73679736196
 31
0.0
  0
INSERT
  5
1B642
330
1B5CB
100
AcDbEntity
  8
0
  6
ByBlock
 62
     0
 48
50.0
100
AcDbBlockReference
  2
_DOTSMALL
 10
16134.10991665977
 20
9430.736797361969
 30
0.0
 41
125.0
 42
125.0
 43
125.0
 50
270.0
  0
INSERT
  5
1B643
330
1B5CB
100
AcDbEntity
  8
0
  6
ByBlock
 62
     0
 48
50.0
100
AcDbBlockReference
  2
_DOTSMALL
 10
16134.10991665977
 20
11390.73679736196
 30
0.0
 41
125.0
 42
125.0
 43
125.0
 50
90.0
  0
MTEXT
  5
1B644
330
1B5CB
100
AcDbEntity
  8
0
  6
ByBlock
 62
     7
 48
50.0
100
AcDbMText
 10
16034.10991665977
 20
10410.73679736196
 30
0.0
 40
150.0
 41
0.0
 71
     5
 72
     1
  1
\A1;内高 1960
  7
STYLE1
 11
0.0000000000000001
 21
1.0
 31
0.0
 73
     1
 44
1.0
  0
POINT
  5
1B645
330
1B5CB
100
AcDbEntity
  8
DEFPOINTS
  6
ByBlock
 62
     0
 48
50.0
100
AcDbPoint
 10
14787.32958141817
 20
9430.736797361971
 30
0.0
  0
POINT
  5
1B646
330
1B5CB
100
AcDbEntity
  8
DEFPOINTS
  6
ByBlock
 62
     0
 48
50.0
100
AcDbPoint
 10
14822.82958141817
 20
11390.73679736196
 30
0.0
  0
POINT
  5
1B647
330
1B5CB
100
AcDbEntity
  8
DEFPOINTS
  6
ByBlock
 62
     0
 48
50.0
100
AcDbPoint
 10
16134.10991665977
 20
11390.73679736196
 30
0.0
  0
ENDBLK
  5
1B648
330
1B5CB
100
AcDbEntity
  8
0
 48
50.0
100
AcDbBlockEnd
  0
BLOCK
  5
1B649
330
1B5D7
100
AcDbEntity
  8
0
 48
50.0
100
AcDbBlockBegin
  2
*D45
 70
     1
 10
0.0
 20
0.0
 30
0.0
  3
*D45
  1

  0
LINE
  5
1B64A
330
1B5D7
100
AcDbEntity
  8
0
  6
ByBlock
 62
     0
 48
50.0
100
AcDbLine
 10
14822.82958141817
 20
11601.3631811976
 30
0.0
 11
14822.82958141817
 21
12402.01792807849
 31
0.0
  0
LINE
  5
1B64B
330
1B5D7
100
AcDbEntity
  8
0
  6
ByBlock
 62
     0
 48
50.0
100
AcDbLine
 10
14917.82958141817
 20
11598.73679736197
 30
0.0
 11
14917.82958141817
 21
12402.01792807849
 31
0.0
  0
LINE
  5
1B64C
330
1B5D7
100
AcDbEntity
  8
0
  6
ByBlock
 62
     0
 48
50.0
100
AcDbLine
 10
14822.82958141817
 20
12327.01792807848
 30
0.0
 11
14917.82958141817
 21
12327.01792807848
 31
0.0
  0
LINE
  5
1B64D
330
1B5D7
100
AcDbEntity
  8
0
  6
ByBlock
 62
     0
 48
50.0
100
AcDbLine
 10
14917.82958141817
 20
12327.01792807848
 30
0.0
 11
15364.10183997187
 21
12327.01792807848
 31
0.0
  0
INSERT
  5
1B64E
330
1B5D7
100
AcDbEntity
  8
0
  6
ByBlock
 62
     0
 48
50.0
100
AcDbBlockReference
  2
_DOTSMALL
 10
14822.82958141817
 20
12327.01792807848
 30
0.0
 41
125.0
 42
125.0
 43
125.0
 50
180.0
  0
INSERT
  5
1B64F
330
1B5D7
100
AcDbEntity
  8
0
  6
ByBlock
 62
     0
 48
50.0
100
AcDbBlockReference
  2
_DOTSMALL
 10
14917.82958141817
 20
12327.01792807848
 30
0.0
 41
125.0
 42
125.0
 43
125.0
  0
MTEXT
  5
1B650
330
1B5D7
100
AcDbEntity
  8
0
  6
ByBlock
 62
     7
 48
50.0
100
AcDbMText
 10
15250.38863653628
 20
12427.01792807848
 30
0.0
 40
150.0
 41
0.0
 71
     5
 72
     1
  1
\A1;95
  7
STYLE1
 73
     1
 44
1.0
  0
POINT
  5
1B651
330
1B5D7
100
AcDbEntity
  8
DEFPOINTS
  6
ByBlock
 62
     0
 48
50.0
100
AcDbPoint
 10
14822.82958141817
 20
11576.3631811976
 30
0.0
  0
POINT
  5
1B652
330
1B5D7
100
AcDbEntity
  8
DEFPOINTS
  6
ByBlock
 62
     0
 48
50.0
100
AcDbPoint
 10
14917.82958141817
 20
11573.73679736197
 30
0.0
  0
POINT
  5
1B653
330
1B5D7
100
AcDbEntity
  8
DEFPOINTS
  6
ByBlock
 62
     0
 48
50.0
100
AcDbPoint
 10
14917.82958141817
 20
12327.01792807848
 30
0.0
  0
ENDBLK
  5
1B654
330
1B5D7
100
AcDbEntity
  8
0
 48
50.0
100
AcDbBlockEnd
  0
ENDSEC
  0
SECTION
  2
ENTITIES
  0
LINE
  5
10B56
330
747D
100
AcDbEntity
  8
補助
  6
PHANTOM
 62
   230
 48
50.0
100
AcDbLine
 10
175.0
 20
0.0
 30
0.0
 11
174.9999999999993
 21
14262.0
 31
0.0
  0
LINE
  5
10B57
330
747D
100
AcDbEntity
  8
補助
  6
PHANTOM
 62
   230
 48
50.0
100
AcDbLine
 10
174.9999999999993
 20
14262.0
 30
0.0
 11
20384.0
 21
14262.0
 31
0.0
  0
LINE
  5
10B59
330
747D
100
AcDbEntity
  8
仕様書枠
  6
Continuous
 48
50.0
100
AcDbLine
 10
16384.0
 20
1500.0
 30
0.0
 11
16384.0
 21
0.0
 31
0.0
  0
LINE
  5
10B5C
330
747D
100
AcDbEntity
  8
仕様書枠
 48
50.0
100
AcDbLine
 10
20384.0
 20
1500.0
 30
0.0
 11
20384.0
 21
0.0
 31
0.0
  0
LINE
  5
10B5D
330
747D
100
AcDbEntity
  8
仕様書枠
 48
50.0
100
AcDbLine
 10
175.0
 20
0.0
 30
0.0
 11
20384.0
 21
-0.0000000000001137
 31
0.0
  0
LINE
  5
10B5E
330
747D
100
AcDbEntity
  8
補助
  6
PHANTOM
 62
   230
 48
50.0
100
AcDbLine
 10
20384.0
 20
14262.0
 30
0.0
 11
20384.0
 21
1500.0
 31
0.0
  0
LINE
  5
10B6C
330
747D
100
AcDbEntity
  8
仕様書枠
 48
50.0
100
AcDbLine
 10
16384.0
 20
1500.0
 30
0.0
 11
20384.0
 21
1500.0
 31
0.0
  0
LINE
  5
10B6D
330
747D
100
AcDbEntity
  8
補助
  6
PHANTOM
 62
   230
 48
50.0
100
AcDbLine
 10
16384.0
 20
14262.0
 30
0.0
 11
16384.0
 21
6000.0
 31
0.0
  0
LINE
  5
10B6F
330
747D
100
AcDbEntity
  8
補助
  6
PHANTOM
 62
   230
 48
50.0
100
AcDbLine
 10
16384.0
 20
6000.0
 30
0.0
 11
20384.0
 21
6000.0
 31
0.0
  0
LINE
  5
10B72
330
747D
100
AcDbEntity
  8
文字
 62
     7
 48
50.0
100
AcDbLine
 10
16484.0
 20
500.0
 30
0.0
 11
20284.0
 21
500.0
 31
0.0
  0
TEXT
  5
10B73
330
747D
100
AcDbEntity
  8
文字
 62
     7
 48
50.0
100
AcDbText
 10
16453.72382072112
 20
1118.863259287425
 30
0.0
 40
250.0
  1
外 形 図
  7
STYLE2
100
AcDbText
  0
TEXT
  5
10B74
330
747D
100
AcDbEntity
  8
文字
 62
     7
 48
50.0
100
AcDbText
 10
16501.79587498051
 20
596.5925826289068
 30
0.0
 40
200.0
  1
機種名
  7
STYLE2
100
AcDbText
  0
LINE
  5
10B7B
330
747D
100
AcDbEntity
  8
仕様書枠
 48
50.0
100
AcDbLine
 10
16384.0
 20
1000.0
 30
0.0
 11
17814.0
 21
1000.0
 31
0.0
  0
LINE
  5
10B88
330
747D
100
AcDbEntity
  8
仕様書枠
  6
Continuous
 48
50.0
100
AcDbLine
 10
17814.0
 20
1500.0
 30
0.0
 11
17814.0
 21
1000.0
 31
0.0
  0
LINE
  5
15D7D
330
747D
100
AcDbEntity
  8
Ｇ．Ｌ
 48
50.0
100
AcDbLine
 10
4814.693732604355
 20
3140.0
 30
0.0
 11
16104.30626739564
 21
3140.0
 31
0.0
  0
TEXT
  5
16C68
330
747D
100
AcDbEntity
  8
仕様書枠
 62
     7
 48
50.0
100
AcDbText
 10
4823.500522708389
 20
3170.736447636176
 30
0.0
 40
125.0
  1
▽G.L
  7
STYLE2
100
AcDbText
  0
TEXT
  5
16C77
330
747D
100
AcDbEntity
  8
部品1
100
AcDbText
 10
6741.780074207032
 20
7395.906917431054
 30
0.0
 40
225.0
  1
平面図
  7
STYLE2
100
AcDbText
  0
TEXT
  5
16C79
330
747D
100
AcDbEntity
  8
部品1
100
AcDbText
 10
6756.917875414707
 20
2221.635195474566
 30
0.0
 40
225.0
  1
正面図
  7
STYLE2
100
AcDbText
  0
TEXT
  5
16C7B
330
747D
100
AcDbEntity
  8
部品1
100
AcDbText
 10
13412.50060952646
 20
2211.55381407135
 30
0.0
 40
225.0
  1
側面図
  7
STYLE2
100
AcDbText
  0
LINE
  5
17269
330
747D
100
AcDbEntity
  8
部品1
100
AcDbLine
 10
6596.604026227807
 20
7709.831477053278
 30
0.0
 11
6596.604026227807
 21
7310.010941144057
 31
0.0
  0
LINE
  5
1726A
330
747D
100
AcDbEntity
  8
部品1
100
AcDbLine
 10
6596.604026227807
 20
7310.010941144057
 30
0.0
 11
7869.055136608539
 21
7310.010941144057
 31
0.0
  0
LINE
  5
1726B
330
747D
100
AcDbEntity
  8
部品1
100
AcDbLine
 10
7869.055136608539
 20
7310.010941144057
 30
0.0
 11
7869.055136608539
 21
7709.831477053278
 31
0.0
  0
LINE
  5
1726C
330
747D
100
AcDbEntity
  8
部品1
100
AcDbLine
 10
7869.055136608539
 20
7709.831477053278
 30
0.0
 11
6596.604026227807
 21
7709.831477053278
 31
0.0
  0
LINE
  5
1726E
330
747D
100
AcDbEntity
  8
部品1
100
AcDbLine
 10
6596.604026227807
 20
2526.882077830556
 30
0.0
 11
6596.604026227807
 21
2127.061541921335
 31
0.0
  0
LINE
  5
1726F
330
747D
100
AcDbEntity
  8
部品1
100
AcDbLine
 10
6596.604026227807
 20
2127.061541921335
 30
0.0
 11
7869.05513660854
 21
2127.061541921335
 31
0.0
  0
LINE
  5
17270
330
747D
100
AcDbEntity
  8
部品1
100
AcDbLine
 10
7869.05513660854
 20
2127.061541921335
 30
0.0
 11
7869.05513660854
 21
2526.882077830556
 31
0.0
  0
LINE
  5
17271
330
747D
100
AcDbEntity
  8
部品1
100
AcDbLine
 10
7869.05513660854
 20
2526.882077830556
 30
0.0
 11
6596.604026227807
 21
2526.882077830556
 31
0.0
  0
LINE
  5
17273
330
747D
100
AcDbEntity
  8
部品1
100
AcDbLine
 10
13246.6040262278
 20
2526.8820778306
 30
0.0
 11
13246.6040262278
 21
2127.061541921379
 31
0.0
  0
LINE
  5
17274
330
747D
100
AcDbEntity
  8
部品1
100
AcDbLine
 10
13246.6040262278
 20
2127.061541921379
 30
0.0
 11
14519.05513660853
 21
2127.061541921379
 31
0.0
  0
LINE
  5
17275
330
747D
100
AcDbEntity
  8
部品1
100
AcDbLine
 10
14519.05513660853
 20
2127.061541921379
 30
0.0
 11
14519.05513660853
 21
2526.8820778306
 31
0.0
  0
LINE
  5
17276
330
747D
100
AcDbEntity
  8
部品1
100
AcDbLine
 10
14519.05513660853
 20
2526.8820778306
 30
0.0
 11
13246.6040262278
 21
2526.8820778306
 31
0.0
  0
LINE
  5
1837B
330
747D
100
AcDbEntity
  8
部品1
 48
50.0
100
AcDbLine
 10
6002.829581418171
 20
11098.73679736197
 30
0.0
 11
6002.829581418171
 21
9238.736797361971
 31
0.0
  0
LINE
  5
1837C
330
747D
100
AcDbEntity
  8
部品1
 48
50.0
100
AcDbLine
 10
6012.829581418171
 20
9228.736797361971
 30
0.0
 11
6072.829581418172
 21
9228.736797361953
 31
0.0
  0
LINE
  5
1837D
330
747D
100
AcDbEntity
  8
部品1
 48
50.0
100
AcDbLine
 10
8462.829581418176
 20
9238.736797361973
 30
0.0
 11
8462.829581418173
 21
11098.73679736197
 31
0.0
  0
LINE
  5
1837E
330
747D
100
AcDbEntity
  8
部品1
 48
50.0
100
AcDbLine
 10
8452.829581418173
 20
11108.73679736197
 30
0.0
 11
6012.829581418171
 21
11108.73679736197
 31
0.0
  0
ARC
  5
1837F
330
747D
100
AcDbEntity
  8
部品1
 48
50.0
100
AcDbCircle
 10
8452.829581418173
 20
11098.73679736197
 30
0.0
 40
10.0
100
AcDbArc
 50
0.0
 51
90.0
  0
ARC
  5
18380
330
747D
100
AcDbEntity
  8
部品1
 48
50.0
100
AcDbCircle
 10
8452.829581418177
 20
9238.736797361973
 30
0.0
 40
10.0
100
AcDbArc
 50
270.0
 51
0.0
  0
ARC
  5
18381
330
747D
100
AcDbEntity
  8
部品1
 48
50.0
100
AcDbCircle
 10
6012.829581418171
 20
9238.736797361971
 30
0.0
 40
10.0
100
AcDbArc
 50
180.0
 51
270.0
  0
ARC
  5
18382
330
747D
100
AcDbEntity
  8
部品1
 48
50.0
100
AcDbCircle
 10
6012.829581418171
 20
11098.73679736197
 30
0.0
 40
10.0
100
AcDbArc
 50
90.0
 51
180.0
  0
LINE
  5
18383
330
747D
100
AcDbEntity
  8
部品1
 48
50.0
100
AcDbLine
 10
8412.829581418177
 20
11058.73679736197
 30
0.0
 11
6052.829581418173
 21
11058.73679736197
 31
0.0
  0
LINE
  5
18384
330
747D
100
AcDbEntity
  8
部品1
 48
50.0
100
AcDbLine
 10
6052.829581418173
 20
11058.73679736197
 30
0.0
 11
6052.829581418169
 21
9278.73679736197
 31
0.0
  0
LINE
  5
18385
330
747D
100
AcDbEntity
  8
部品1
 48
50.0
100
AcDbLine
 10
6052.829581418169
 20
9278.73679736197
 30
0.0
 11
6090.829581418168
 21
9278.73679736197
 31
0.0
  0
LINE
  5
18386
330
747D
100
AcDbEntity
  8
部品1
 48
50.0
100
AcDbLine
 10
8412.829581418177
 20
9278.73679736197
 30
0.0
 11
8412.829581418177
 21
11058.73679736197
 31
0.0
  0
LINE
  5
18387
330
747D
100
AcDbEntity
  8
部品1
 48
50.0
100
AcDbLine
 10
8427.829581418176
 20
11073.73679736197
 30
0.0
 11
6037.829581418171
 21
11073.73679736197
 31
0.0
  0
LINE
  5
18388
330
747D
100
AcDbEntity
  8
部品1
 48
50.0
100
AcDbLine
 10
6037.829581418171
 20
9263.736797361971
 30
0.0
 11
6090.829581418168
 21
9263.736797361969
 31
0.0
  0
LINE
  5
18389
330
747D
100
AcDbEntity
  8
部品1
 48
50.0
100
AcDbLine
 10
6037.829581418171
 20
11073.73679736197
 30
0.0
 11
6037.829581418171
 21
9263.736797361971
 31
0.0
  0
LINE
  5
1838A
330
747D
100
AcDbEntity
  8
部品1
 48
50.0
100
AcDbLine
 10
8427.829581418176
 20
9263.736797361971
 30
0.0
 11
8427.829581418176
 21
11073.73679736197
 31
0.0
  0
LINE
  5
1838B
330
747D
100
AcDbEntity
  8
部品1
 48
50.0
100
AcDbLine
 10
8392.829581418174
 20
11073.73679736197
 30
0.0
 11
8392.829581418176
 21
11108.73679736197
 31
0.0
  0
LINE
  5
1838C
330
747D
100
AcDbEntity
  8
部品1
 48
50.0
100
AcDbLine
 10
8462.829581418176
 20
11038.73679736197
 30
0.0
 11
8427.829581418176
 21
11038.73679736197
 31
0.0
  0
LINE
  5
1838D
330
747D
100
AcDbEntity
  8
部品1
 48
50.0
100
AcDbLine
 10
8374.829581418174
 20
11073.73679736197
 30
0.0
 11
8374.829581418174
 21
11058.73679736197
 31
0.0
  0
LINE
  5
1838E
330
747D
100
AcDbEntity
  8
部品1
 48
50.0
100
AcDbLine
 10
8410.829581418173
 20
11073.73679736197
 30
0.0
 11
8410.829581418173
 21
11058.73679736197
 31
0.0
  0
LINE
  5
1838F
330
747D
100
AcDbEntity
  8
部品1
 48
50.0
100
AcDbLine
 10
8427.829581418176
 20
11020.73679736196
 30
0.0
 11
8412.829581418177
 21
11020.73679736196
 31
0.0
  0
LINE
  5
18390
330
747D
100
AcDbEntity
  8
部品1
 48
50.0
100
AcDbLine
 10
8427.829581418176
 20
11056.73679736197
 30
0.0
 11
8412.829581418177
 21
11056.73679736197
 31
0.0
  0
LINE
  5
18397
330
747D
100
AcDbEntity
  8
部品1
 48
50.0
100
AcDbLine
 10
8462.829581418173
 20
9878.736797361975
 30
0.0
 11
8427.829581418173
 21
9878.736797361973
 31
0.0
  0
LINE
  5
18398
330
747D
100
AcDbEntity
  8
部品1
 48
50.0
100
AcDbLine
 10
8427.829581418173
 20
9860.736797361971
 30
0.0
 11
8412.829581418172
 21
9860.736797361971
 31
0.0
  0
LINE
  5
18399
330
747D
100
AcDbEntity
  8
部品1
 48
50.0
100
AcDbLine
 10
8427.829581418173
 20
9896.73679736197
 30
0.0
 11
8412.829581418172
 21
9896.73679736197
 31
0.0
  0
LINE
  5
1839A
330
747D
100
AcDbEntity
  8
部品1
 48
50.0
100
AcDbLine
 10
8462.829581418173
 20
10458.73679736197
 30
0.0
 11
8427.829581418173
 21
10458.73679736197
 31
0.0
  0
LINE
  5
1839B
330
747D
100
AcDbEntity
  8
部品1
 48
50.0
100
AcDbLine
 10
8427.829581418173
 20
10440.73679736196
 30
0.0
 11
8412.829581418172
 21
10440.73679736196
 31
0.0
  0
LINE
  5
1839C
330
747D
100
AcDbEntity
  8
部品1
 48
50.0
100
AcDbLine
 10
8427.829581418173
 20
10476.73679736196
 30
0.0
 11
8412.829581418172
 21
10476.73679736196
 31
0.0
  0
LINE
  5
1839D
330
747D
100
AcDbEntity
  8
部品1
 48
50.0
100
AcDbLine
 10
8427.829581418173
 20
9316.736797361969
 30
0.0
 11
8412.829581418172
 21
9316.736797361969
 31
0.0
  0
LINE
  5
1839E
330
747D
100
AcDbEntity
  8
部品1
 48
50.0
100
AcDbLine
 10
8427.829581418173
 20
9280.736797361969
 30
0.0
 11
8412.829581418172
 21
9280.736797361969
 31
0.0
  0
LINE
  5
1839F
330
747D
100
AcDbEntity
  8
部品1
 48
50.0
100
AcDbLine
 10
8462.829581418173
 20
9298.736797361975
 30
0.0
 11
8427.829581418173
 21
9298.736797361973
 31
0.0
  0
LINE
  5
183AC
330
747D
100
AcDbEntity
  8
部品1
 48
50.0
100
AcDbLine
 10
7830.829581418169
 20
11073.73679736221
 30
0.0
 11
7830.829581418169
 21
11058.73679736221
 31
0.0
  0
LINE
  5
183AD
330
747D
100
AcDbEntity
  8
部品1
 48
50.0
100
AcDbLine
 10
7812.82958141817
 20
11073.73679736221
 30
0.0
 11
7812.829581418172
 21
11108.73679736221
 31
0.0
  0
LINE
  5
183AE
330
747D
100
AcDbEntity
  8
部品1
 48
50.0
100
AcDbLine
 10
7794.829581418169
 20
11073.73679736221
 30
0.0
 11
7794.829581418169
 21
11058.73679736221
 31
0.0
  0
LINE
  5
183AF
330
747D
100
AcDbEntity
  8
部品1
 48
50.0
100
AcDbLine
 10
7250.82958141817
 20
11073.73679736227
 30
0.0
 11
7250.82958141817
 21
11058.73679736227
 31
0.0
  0
LINE
  5
183B0
330
747D
100
AcDbEntity
  8
部品1
 48
50.0
100
AcDbLine
 10
7232.82958141817
 20
11073.73679736227
 30
0.0
 11
7232.829581418172
 21
11108.73679736227
 31
0.0
  0
LINE
  5
183B1
330
747D
100
AcDbEntity
  8
部品1
 48
50.0
100
AcDbLine
 10
7214.829581418169
 20
11073.73679736227
 30
0.0
 11
7214.829581418169
 21
11058.73679736227
 31
0.0
  0
LINE
  5
183B2
330
747D
100
AcDbEntity
  8
部品1
 48
50.0
100
AcDbLine
 10
6670.829581418169
 20
11073.73679736233
 30
0.0
 11
6670.829581418169
 21
11058.73679736233
 31
0.0
  0
LINE
  5
183B3
330
747D
100
AcDbEntity
  8
部品1
 48
50.0
100
AcDbLine
 10
6652.829581418169
 20
11073.73679736233
 30
0.0
 11
6652.829581418173
 21
11108.73679736233
 31
0.0
  0
LINE
  5
183B4
330
747D
100
AcDbEntity
  8
部品1
 48
50.0
100
AcDbLine
 10
6634.82958141817
 20
11073.73679736233
 30
0.0
 11
6634.82958141817
 21
11058.73679736233
 31
0.0
  0
LINE
  5
183B5
330
747D
100
AcDbEntity
  8
部品1
 48
50.0
100
AcDbLine
 10
6090.829581418169
 20
11073.73679736197
 30
0.0
 11
6090.829581418169
 21
11058.73679736197
 31
0.0
  0
LINE
  5
183B6
330
747D
100
AcDbEntity
  8
部品1
 48
50.0
100
AcDbLine
 10
6072.829581418169
 20
11073.73679736197
 30
0.0
 11
6072.829581418172
 21
11108.73679736197
 31
0.0
  0
LINE
  5
183B7
330
747D
100
AcDbEntity
  8
部品1
 48
50.0
100
AcDbLine
 10
6054.829581418169
 20
11073.73679736197
 30
0.0
 11
6054.829581418169
 21
11058.73679736197
 31
0.0
  0
LINE
  5
183D1
330
747D
100
AcDbEntity
  8
部品1
 48
50.0
100
AcDbLine
 10
6037.829581418175
 20
9896.73679736197
 30
0.0
 11
6052.829581418174
 21
9896.73679736197
 31
0.0
  0
LINE
  5
183D2
330
747D
100
AcDbEntity
  8
部品1
 48
50.0
100
AcDbLine
 10
6037.829581418175
 20
9860.736797361971
 30
0.0
 11
6052.829581418174
 21
9860.736797361971
 31
0.0
  0
LINE
  5
183D3
330
747D
100
AcDbEntity
  8
部品1
 48
50.0
100
AcDbLine
 10
6002.829581418175
 20
9878.736797361975
 30
0.0
 11
6037.829581418175
 21
9878.736797361973
 31
0.0
  0
LINE
  5
183D4
330
747D
100
AcDbEntity
  8
部品1
 48
50.0
100
AcDbLine
 10
6037.829581418175
 20
10476.73679736196
 30
0.0
 11
6052.829581418174
 21
10476.73679736196
 31
0.0
  0
LINE
  5
183D5
330
747D
100
AcDbEntity
  8
部品1
 48
50.0
100
AcDbLine
 10
6037.829581418175
 20
10440.73679736196
 30
0.0
 11
6052.829581418174
 21
10440.73679736196
 31
0.0
  0
LINE
  5
183D6
330
747D
100
AcDbEntity
  8
部品1
 48
50.0
100
AcDbLine
 10
6002.829581418175
 20
10458.73679736197
 30
0.0
 11
6037.829581418175
 21
10458.73679736197
 31
0.0
  0
LINE
  5
183DD
330
747D
100
AcDbEntity
  8
部品1
 48
50.0
100
AcDbLine
 10
6037.829581418171
 20
11056.73679736197
 30
0.0
 11
6052.829581418171
 21
11056.73679736197
 31
0.0
  0
LINE
  5
183DE
330
747D
100
AcDbEntity
  8
部品1
 48
50.0
100
AcDbLine
 10
6037.829581418171
 20
11020.73679736196
 30
0.0
 11
6052.829581418171
 21
11020.73679736196
 31
0.0
  0
LINE
  5
183DF
330
747D
100
AcDbEntity
  8
部品1
 48
50.0
100
AcDbLine
 10
6002.829581418171
 20
11038.73679736197
 30
0.0
 11
6037.829581418171
 21
11038.73679736197
 31
0.0
  0
LINE
  5
183E0
330
747D
100
AcDbEntity
  8
部品1
 48
50.0
100
AcDbLine
 10
6002.829581418175
 20
9298.736797361975
 30
0.0
 11
6037.829581418175
 21
9298.736797361973
 31
0.0
  0
LINE
  5
183E1
330
747D
100
AcDbEntity
  8
部品1
 48
50.0
100
AcDbLine
 10
6037.829581418175
 20
9280.736797361969
 30
0.0
 11
6052.829581418174
 21
9280.736797361969
 31
0.0
  0
LINE
  5
183E2
330
747D
100
AcDbEntity
  8
部品1
 48
50.0
100
AcDbLine
 10
6037.829581418175
 20
9316.736797361969
 30
0.0
 11
6052.829581418174
 21
9316.736797361969
 31
0.0
  0
LINE
  5
183E3
330
747D
100
AcDbEntity
  8
部品1
 48
50.0
100
AcDbLine
 10
6054.829581418169
 20
9263.736797361975
 30
0.0
 11
6054.829581418169
 21
9278.736797361975
 31
0.0
  0
LINE
  5
183E4
330
747D
100
AcDbEntity
  8
部品1
 48
50.0
100
AcDbLine
 10
6090.829581418169
 20
9263.736797361975
 30
0.0
 11
6090.829581418169
 21
9278.736797361975
 31
0.0
  0
LINE
  5
183E5
330
747D
100
AcDbEntity
  8
部品1
 48
50.0
100
AcDbLine
 10
6072.829581418169
 20
9263.736797361975
 30
0.0
 11
6072.829581418172
 21
9228.736797361973
 31
0.0
  0
LINE
  5
183FE
330
747D
100
AcDbEntity
  8
部品1
 48
50.0
100
AcDbLine
 10
8392.829581418174
 20
9263.736797361973
 30
0.0
 11
8392.829581418176
 21
9228.736797361971
 31
0.0
  0
LINE
  5
183FF
330
747D
100
AcDbEntity
  8
部品1
 48
50.0
100
AcDbLine
 10
8374.829581418174
 20
9263.736797361973
 30
0.0
 11
8374.829581418174
 21
9278.736797361974
 31
0.0
  0
LINE
  5
18400
330
747D
100
AcDbEntity
  8
部品1
 48
50.0
100
AcDbLine
 10
8410.829581418173
 20
9263.736797361973
 30
0.0
 11
8410.829581418173
 21
9278.736797361974
 31
0.0
  0
LINE
  5
18401
330
747D
100
AcDbEntity
  8
細線
 48
50.0
100
AcDbLine
 10
8403.829581418177
 20
11049.73679736197
 30
0.0
 11
8403.829581418177
 21
9278.736797361975
 31
0.0
  0
LINE
  5
18402
330
747D
100
AcDbEntity
  8
細線
 48
50.0
100
AcDbLine
 10
8412.829581418177
 20
11049.73679736197
 30
0.0
 11
6061.829581418173
 21
11049.73679736197
 31
0.0
  0
LINE
  5
18403
330
747D
100
AcDbEntity
  8
細線
 48
50.0
100
AcDbLine
 10
6052.829581418169
 20
9287.73679736197
 30
0.0
 11
6063.32958141817
 21
9287.73679736197
 31
0.0
  0
LINE
  5
18404
330
747D
100
AcDbEntity
  8
細線
 48
50.0
100
AcDbLine
 10
6061.829581418173
 20
11058.73679736197
 30
0.0
 11
6061.829581418171
 21
9287.73679736197
 31
0.0
  0
DIMENSION
  5
1852A
330
747D
100
AcDbEntity
  8
寸法
 48
50.0
100
AcDbDimension
  2
*D5
 10
9576.969337719752
 20
11058.73679736197
 30
0.0
 11
9476.969337719753
 21
10168.73679736197
 31
0.0
 12
290.0
 22
0.0
 32
0.0
 70
    32
  1
内部寸法 <>
 71
     5
 42
-1.0
  3
INABA_S50G
100
AcDbAlignedDimension
 13
9274.165333801148
 23
9278.736797361975
 33
0.0
 14
9274.165333801144
 24
11058.73679736197
 34
0.0
 50
90.0
100
AcDbRotatedDimension
1001
ACAD
1000
DSTYLE
1002
{
1002
}
  0
DIMENSION
  5
1852B
330
747D
100
AcDbEntity
  8
寸法
 48
50.0
100
AcDbDimension
  2
*D2
 10
9274.165333801144
 20
11038.73679736197
 30
0.0
 11
9174.165333801145
 21
10168.73679736197
 31
0.0
 12
290.0
 22
0.0
 32
0.0
 70
    32
  1
3x580=<>
 71
     5
 42
-1.0
  3
INABA_S50G
100
AcDbAlignedDimension
 13
8462.829581418176
 23
9298.736797361975
 33
0.0
 14
8462.829581418176
 24
11038.73679736197
 34
0.0
 50
90.0
100
AcDbRotatedDimension
1001
ACAD
1000
DSTYLE
1002
{
1002
}
  0
DIMENSION
  5
1852C
330
747D
100
AcDbEntity
  8
寸法
 48
50.0
100
AcDbDimension
  2
*D4
 10
9576.969337719758
 20
9278.736797361975
 30
0.0
 11
9576.969337719758
 21
8991.689553267482
 31
0.0
 70
   160
 71
     5
 42
-1.0
  3
INABA_S50G
100
AcDbAlignedDimension
 13
8452.829581418177
 23
9228.736797361971
 33
0.0
 14
9274.165333801148
 24
9278.736797361975
 34
0.0
 50
90.0
100
AcDbRotatedDimension
  0
DIMENSION
  5
1852D
330
747D
100
AcDbEntity
  8
寸法
 48
50.0
100
AcDbDimension
  2
*D1
 10
9274.165333801148
 20
9298.736797361975
 30
0.0
 11
9274.165333801148
 21
8996.177742243862
 31
0.0
 12
-8244.632845073173
 22
-373.9447183321535
 32
0.0
 70
   160
 71
     5
 42
-1.0
  3
INABA_S50G
100
AcDbAlignedDimension
 13
8452.829581418177
 23
9228.736797361971
 33
0.0
 14
8462.829581418176
 24
9298.736797361975
 34
0.0
 50
90.0
100
AcDbRotatedDimension
  0
DIMENSION
  5
1852E
330
747D
100
AcDbEntity
  8
寸法
 48
50.0
100
AcDbDimension
  2
*D6
 10
9576.969337719754
 20
11108.73679736197
 30
0.0
 11
9576.969337719754
 21
11466.29585248008
 31
0.0
 12
0.0
 22
-1160.0
 32
0.0
 70
   160
 71
     5
 42
-1.0
  3
INABA_S50G
100
AcDbAlignedDimension
 13
9274.165333801144
 23
11058.73679736197
 33
0.0
 14
8452.829581418173
 24
11108.73679736197
 34
0.0
 50
90.0
100
AcDbRotatedDimension
1001
ACAD
1000
DSTYLE
1002
{
1002
}
  0
DIMENSION
  5
1852F
330
747D
100
AcDbEntity
  8
寸法
 48
50.0
100
AcDbDimension
  2
*D3
 10
9274.165333801146
 20
11108.73679736197
 30
0.0
 11
9274.165333801146
 21
11341.29585248008
 31
0.0
 12
-8244.632845073173
 22
-1533.944718332153
 32
0.0
 70
   160
 71
     5
 42
-1.0
  3
INABA_S50G
100
AcDbAlignedDimension
 13
8462.829581418176
 23
11038.73679736197
 33
0.0
 14
8452.829581418173
 24
11108.73679736197
 34
0.0
 50
90.0
100
AcDbRotatedDimension
1001
ACAD
1000
DSTYLE
1002
{
1002
}
  0
DIMENSION
  5
185AD
330
747D
100
AcDbEntity
  8
寸法
 48
50.0
100
AcDbDimension
  2
*D10
 10
6052.829581418169
 20
11817.51516613338
 30
0.0
 11
5645.270526300061
 21
11817.51516613338
 31
0.0
 12
-5784.632845073172
 22
-1533.944718332153
 32
0.0
 70
   160
 71
     5
 42
-1.0
  3
INABA_S50G
100
AcDbAlignedDimension
 13
6002.829581418171
 23
11098.73679736197
 33
0.0
 14
6052.829581418169
 24
11518.76878223262
 34
0.0
100
AcDbRotatedDimension
  0
DIMENSION
  5
185AE
330
747D
100
AcDbEntity
  8
寸法
 48
50.0
100
AcDbDimension
  2
*D7
 10
6072.829581418172
 20
11518.76878223262
 30
0.0
 11
5760.270526300061
 21
11518.76878223262
 31
0.0
 12
-5784.632845073172
 22
-1533.944718332153
 32
0.0
 70
   160
 71
     5
 42
-1.0
  3
INABA_S50G
100
AcDbAlignedDimension
 13
6002.829581418171
 23
11098.73679736197
 33
0.0
 14
6072.829581418172
 24
11108.73679736197
 34
0.0
100
AcDbRotatedDimension
  0
DIMENSION
  5
185AF
330
747D
100
AcDbEntity
  8
寸法
 48
50.0
100
AcDbDimension
  2
*D11
 10
8412.829581418179
 20
11817.51516613338
 30
0.0
 11
7232.829581418174
 21
11917.52992991291
 31
0.0
 70
    32
  1
内部寸法 <>
 71
     5
 42
-1.0
  3
INABA_S50G
100
AcDbAlignedDimension
 13
6052.829581418169
 23
11518.76878223262
 33
0.0
 14
8412.829581418179
 24
11518.76878223262
 34
0.0
100
AcDbRotatedDimension
1001
ACAD
1000
DSTYLE
1002
{
1070
   287
1070
     4
1070
    75
1070
     1
1070
   279
1070
     1
1002
}
  0
DIMENSION
  5
185B1
330
747D
100
AcDbEntity
  8
寸法
 48
50.0
100
AcDbDimension
  2
*D8
 10
8392.829581418174
 20
11518.76878223262
 30
0.0
 11
7232.829581418174
 21
11618.78354601215
 31
0.0
 70
    32
  1
4x580=<>
 71
     5
 42
-1.0
  3
INABA_S50G
100
AcDbAlignedDimension
 13
6072.829581418172
 23
11108.73679736197
 33
0.0
 14
8392.829581418174
 24
11108.73679736197
 34
0.0
100
AcDbRotatedDimension
1001
ACAD
1000
DSTYLE
1002
{
1070
   287
1070
     4
1070
    75
1070
     1
1070
   279
1070
     1
1002
}
  0
DIMENSION
  5
185B3
330
747D
100
AcDbEntity
  8
寸法
 48
50.0
100
AcDbDimension
  2
*D12
 10
8462.829581418176
 20
11817.51516613338
 30
0.0
 11
8820.388636536284
 21
11817.51516613338
 31
0.0
 12
-8244.632845073173
 22
-1533.944718332153
 32
0.0
 70
   160
 71
     5
 42
-1.0
  3
INABA_S50G
100
AcDbAlignedDimension
 13
8412.829581418179
 23
11518.76878223262
 33
0.0
 14
8462.829581418176
 24
11098.73679736197
 34
0.0
100
AcDbRotatedDimension
1001
ACAD
1000
DSTYLE
1002
{
1002
}
  0
DIMENSION
  5
185B4
330
747D
100
AcDbEntity
  8
寸法
 48
50.0
100
AcDbDimension
  2
*D9
 10
8462.829581418176
 20
11518.76878223262
 30
0.0
 11
8725.388636536285
 21
11518.76878223262
 31
0.0
 12
-8244.632845073173
 22
-1533.944718332153
 32
0.0
 70
   160
 71
     5
 42
-1.0
  3
INABA_S50G
100
AcDbAlignedDimension
 13
8392.829581418176
 23
11108.73679736197
 33
0.0
 14
8462.829581418176
 24
11098.73679736197
 34
0.0
100
AcDbRotatedDimension
1001
ACAD
1000
DSTYLE
1002
{
1002
}
  0
DIMENSION
  5
1868C
330
747D
100
AcDbEntity
  8
寸法
 48
50.0
100
AcDbDimension
  2
*D13
 10
8462.829581418176
 20
7967.428503410812
 30
0.0
 11
6652.829581418174
 21
8067.443267190339
 31
0.0
 12
870.0
 22
0.0
 32
0.0
 70
    32
 71
     5
 42
-1.0
  3
INABA_S50G
100
AcDbAlignedDimension
 13
6002.829581418171
 23
9238.736797361971
 33
0.0
 14
8462.829581418176
 24
9238.736797361973
 34
0.0
100
AcDbRotatedDimension
  0
DIMENSION
  5
186AF
330
747D
100
AcDbEntity
  8
寸法
 48
50.0
100
AcDbDimension
  2
*D14
 10
5236.198601638504
 20
9228.736797361971
 30
0.0
 11
4556.198601638503
 21
10168.73679736197
 31
0.0
 12
870.0
 22
0.0
 32
0.0
 70
    32
 71
     5
 42
-1.0
  3
INABA_S50G
100
AcDbAlignedDimension
 13
6012.829581418171
 23
11108.73679736197
 33
0.0
 14
6012.829581418171
 24
9228.736797361971
 34
0.0
 50
90.0
100
AcDbRotatedDimension
  0
LINE
  5
186D3
330
747D
100
AcDbEntity
  8
部品1
 62
     2
 48
50.0
100
AcDbLine
 10
7818.829581418173
 20
9160.736797361609
 30
0.0
 11
6066.829581418173
 21
9160.736797361609
 31
0.0
  0
LINE
  5
186D4
330
747D
100
AcDbEntity
  8
部品1
 62
     2
 48
50.0
100
AcDbLine
 10
6066.829581418173
 20
9160.736797361609
 30
0.0
 11
6066.829581418173
 21
9228.736797361971
 31
0.0
  0
LINE
  5
186D5
330
747D
100
AcDbEntity
  8
部品1
 62
     2
 48
50.0
100
AcDbLine
 10
7818.829581418173
 20
9228.736797361792
 30
0.0
 11
7818.829581418173
 21
9160.73679736179
 31
0.0
  0
LINE
  5
186D9
330
747D
100
AcDbEntity
  8
部品1
 62
     2
 48
50.0
100
AcDbLine
 10
6092.829581418169
 20
9287.73679736197
 30
0.0
 11
6063.32958141817
 21
9287.73679736197
 31
0.0
  0
LINE
  5
186DA
330
747D
100
AcDbEntity
  8
部品1
 62
     2
 48
50.0
100
AcDbLine
 10
6063.32958141817
 20
9287.73679736197
 30
0.0
 11
6063.32958141817
 21
9278.73679736197
 31
0.0
  0
LINE
  5
186EA
330
747D
100
AcDbEntity
  8
部品1
 62
     2
 48
50.0
100
AcDbLine
 10
6092.829581418169
 20
9292.236797361971
 30
0.0
 11
6092.829581418169
 21
9228.736797361969
 31
0.0
  0
LINE
  5
186ED
330
747D
100
AcDbEntity
  8
部品1
 48
50.0
100
AcDbLine
 10
7812.82958141817
 20
9228.736797361971
 30
0.0
 11
8452.829581418177
 21
9228.736797361973
 31
0.0
  0
LINE
  5
186EE
330
747D
100
AcDbEntity
  8
部品1
 48
50.0
100
AcDbLine
 10
7794.829581418169
 20
9263.736797361969
 30
0.0
 11
8427.829581418176
 21
9263.736797361973
 31
0.0
  0
LINE
  5
186EF
330
747D
100
AcDbEntity
  8
部品1
 48
50.0
100
AcDbLine
 10
7794.829581418167
 20
9278.73679736197
 30
0.0
 11
8412.829581418177
 21
9278.73679736197
 31
0.0
  0
LINE
  5
186F0
330
747D
100
AcDbEntity
  8
部品1
 62
     2
 48
50.0
100
AcDbLine
 10
6082.829581418173
 20
9160.736797361609
 30
0.0
 11
6082.829581418173
 21
9228.736797361971
 31
0.0
  0
LINE
  5
186F2
330
747D
100
AcDbEntity
  8
部品1
 62
     2
 48
50.0
100
AcDbLine
 10
7222.829581418176
 20
9228.736797361969
 30
0.0
 11
6072.829581418172
 21
9228.736797361969
 31
0.0
  0
LINE
  5
186F3
330
747D
100
AcDbEntity
  8
部品1
 62
     2
 48
50.0
100
AcDbLine
 10
7802.829581418173
 20
9228.736797361792
 30
0.0
 11
7802.829581418173
 21
9160.73679736179
 31
0.0
  0
LINE
  5
186F4
330
747D
100
AcDbEntity
  8
部品1
 62
     2
 48
50.0
100
AcDbLine
 10
7792.829581418174
 20
9233.736797361791
 30
0.0
 11
7792.829581418174
 21
9228.736797361971
 31
0.0
  0
LINE
  5
186F5
330
747D
100
AcDbEntity
  8
部品1
 62
     2
 48
50.0
100
AcDbLine
 10
7812.829581418172
 20
9228.736797361971
 30
0.0
 11
7792.829581418174
 21
9228.736797361971
 31
0.0
  0
LINE
  5
186F6
330
747D
100
AcDbEntity
  8
部品1
 62
     2
 48
50.0
100
AcDbLine
 10
7214.829581418169
 20
9263.736797361792
 30
0.0
 11
7214.829581418169
 21
9278.736797361792
 31
0.0
  0
LINE
  5
186F7
330
747D
100
AcDbEntity
  8
部品1
 62
     2
 48
50.0
100
AcDbLine
 10
7250.82958141817
 20
9263.736797361792
 30
0.0
 11
7250.82958141817
 21
9278.736797361792
 31
0.0
  0
LINE
  5
186F9
330
747D
100
AcDbEntity
  8
部品1
 62
     2
 48
50.0
100
AcDbLine
 10
7812.829581418172
 20
9233.736797361972
 30
0.0
 11
7238.829581418172
 21
9233.736797361968
 31
0.0
  0
LINE
  5
186FA
330
747D
100
AcDbEntity
  8
部品1
 62
     2
 48
50.0
100
AcDbLine
 10
7214.829581418169
 20
9278.736797361792
 30
0.0
 11
7794.829581418169
 21
9278.736797361792
 31
0.0
  0
LINE
  5
186FB
330
747D
100
AcDbEntity
  8
部品1
 62
     2
 48
50.0
100
AcDbLine
 10
7214.829581418169
 20
9263.736797361792
 30
0.0
 11
7794.829581418169
 21
9263.736797361969
 31
0.0
  0
LINE
  5
186FD
330
747D
100
AcDbEntity
  8
部品1
 62
     2
 48
50.0
100
AcDbLine
 10
7232.82958141817
 20
9278.736797361792
 30
0.0
 11
7232.82958141817
 21
9287.73679736197
 31
0.0
  0
LINE
  5
186FE
330
747D
100
AcDbEntity
  8
細線
 48
50.0
100
AcDbLine
 10
7232.829581418172
 20
9287.73679736197
 30
0.0
 11
8403.829581418177
 21
9287.73679736197
 31
0.0
  0
LINE
  5
186FF
330
747D
100
AcDbEntity
  8
部品1
 62
     2
 48
50.0
100
AcDbLine
 10
7232.829581418172
 20
9287.73679736197
 30
0.0
 11
7203.329581418171
 21
9287.73679736197
 31
0.0
  0
LINE
  5
18700
330
747D
100
AcDbEntity
  8
部品1
 62
     2
 48
50.0
100
AcDbLine
 10
7203.329581418171
 20
9292.236797361971
 30
0.0
 11
7203.329581418171
 21
9228.736797361971
 31
0.0
  0
LINE
  5
18705
330
747D
100
AcDbEntity
  8
部品1
 62
     2
 48
50.0
100
AcDbLine
 10
7222.829581418174
 20
9263.736797361799
 30
0.0
 11
7222.829581418174
 21
9223.736797361794
 31
0.0
  0
LINE
  5
18706
330
747D
100
AcDbEntity
  8
部品1
 62
     2
 48
50.0
100
AcDbLine
 10
7222.829581418174
 20
9223.736797361794
 30
0.0
 11
7238.829581418174
 21
9223.736797361848
 31
0.0
  0
LINE
  5
18708
330
747D
100
AcDbEntity
  8
部品1
 62
     2
 48
50.0
100
AcDbLine
 10
7238.829581418173
 20
9233.736797361968
 30
0.0
 11
7238.829581418174
 21
9223.736797361794
 31
0.0
  0
LINE
  5
18709
330
747D
100
AcDbEntity
  8
部品1
 62
     2
 48
50.0
100
AcDbLine
 10
6092.829581418169
 20
9292.236797361971
 30
0.0
 11
7203.329581418171
 21
9292.236797361971
 31
0.0
  0
LINE
  5
1870A
330
747D
100
AcDbEntity
  8
部品1
 62
     2
 48
50.0
100
AcDbLine
 10
7802.829581418173
 20
9176.736797361609
 30
0.0
 11
6677.829581418173
 21
9176.736797361609
 31
0.0
  0
LINE
  5
1870B
330
747D
100
AcDbEntity
  8
部品1
 62
     2
 48
50.0
100
AcDbLine
 10
7802.829581418173
 20
9210.73679736161
 30
0.0
 11
7250.329581418172
 21
9210.73679736161
 31
0.0
  0
LINE
  5
18711
330
747D
100
AcDbEntity
  8
部品1
 62
     2
 48
50.0
100
AcDbLine
 10
6092.829581418169
 20
9262.03679736197
 30
0.0
 11
7203.329581418171
 21
9262.03679736197
 31
0.0
  0
LINE
  5
18712
330
747D
100
AcDbEntity
  8
部品1
 62
     2
 48
50.0
100
AcDbLine
 10
6092.829581418169
 20
9248.536797361969
 30
0.0
 11
7203.329581418171
 21
9248.536797361969
 31
0.0
  0
LINE
  5
18713
330
747D
100
AcDbEntity
  8
部品1
 62
     2
 48
50.0
100
AcDbLine
 10
6667.829581418172
 20
9187.736797361608
 30
0.0
 11
6667.829581418172
 21
9194.73679736161
 31
0.0
  0
LINE
  5
18714
330
747D
100
AcDbEntity
  8
部品1
 62
     2
 48
50.0
100
AcDbLine
 10
6667.829581418172
 20
9194.73679736161
 30
0.0
 11
6677.829581418173
 21
9194.73679736161
 31
0.0
  0
LINE
  5
18715
330
747D
100
AcDbEntity
  8
部品1
 62
     2
 48
50.0
100
AcDbLine
 10
6677.829581418173
 20
9194.73679736161
 30
0.0
 11
6677.829581418173
 21
9165.736797361608
 31
0.0
  0
LINE
  5
18716
330
747D
100
AcDbEntity
  8
部品1
 62
     2
 48
50.0
100
AcDbLine
 10
6677.829581418173
 20
9165.736797361608
 30
0.0
 11
6083.829581418172
 21
9165.736797361608
 31
0.0
  0
LINE
  5
18717
330
747D
100
AcDbEntity
  8
部品1
 62
     2
 48
50.0
100
AcDbLine
 10
6083.829581418172
 20
9165.736797361608
 30
0.0
 11
6083.829581418172
 21
9194.73679736161
 31
0.0
  0
LINE
  5
18718
330
747D
100
AcDbEntity
  8
部品1
 62
     2
 48
50.0
100
AcDbLine
 10
6083.829581418172
 20
9194.73679736161
 30
0.0
 11
6093.829581418173
 21
9194.73679736161
 31
0.0
  0
LINE
  5
18719
330
747D
100
AcDbEntity
  8
部品1
 62
     2
 48
50.0
100
AcDbLine
 10
6093.829581418173
 20
9194.73679736161
 30
0.0
 11
6093.829581418173
 21
9187.736797361608
 31
0.0
  0
LINE
  5
1871A
330
747D
100
AcDbEntity
  8
部品1
 62
     2
 48
50.0
100
AcDbLine
 10
6093.829581418173
 20
9187.736797361608
 30
0.0
 11
6667.829581418172
 21
9187.736797361608
 31
0.0
  0
LINE
  5
1871D
330
747D
100
AcDbEntity
  8
部品1
 62
     2
 48
50.0
100
AcDbLine
 10
6083.829581418172
 20
9176.736797361609
 30
0.0
 11
6082.829581418173
 21
9176.736797361609
 31
0.0
  0
LINE
  5
1871E
330
747D
100
AcDbEntity
  8
部品1
 62
     2
 48
50.0
100
AcDbLine
 10
7250.329581418172
 20
9228.736797361611
 30
0.0
 11
7250.329581418172
 21
9199.736797361609
 31
0.0
  0
LINE
  5
1871F
330
747D
100
AcDbEntity
  8
部品1
 62
     2
 48
50.0
100
AcDbLine
 10
7240.329581418173
 20
9228.736797361611
 30
0.0
 11
7250.329581418172
 21
9228.736797361611
 31
0.0
  0
LINE
  5
18720
330
747D
100
AcDbEntity
  8
部品1
 62
     2
 48
50.0
100
AcDbLine
 10
7240.329581418173
 20
9221.736797361609
 30
0.0
 11
7240.329581418173
 21
9228.736797361611
 31
0.0
  0
LINE
  5
18721
330
747D
100
AcDbEntity
  8
部品1
 62
     2
 48
50.0
100
AcDbLine
 10
6656.329581418171
 20
9221.736797361609
 30
0.0
 11
7240.329581418173
 21
9221.736797361609
 31
0.0
  0
LINE
  5
18722
330
747D
100
AcDbEntity
  8
部品1
 62
     2
 48
50.0
100
AcDbLine
 10
7250.329581418172
 20
9199.736797361609
 30
0.0
 11
6666.329581418174
 21
9199.736797361609
 31
0.0
  0
LINE
  5
18723
330
747D
100
AcDbEntity
  8
部品1
 62
     2
 48
50.0
100
AcDbLine
 10
6656.329581418173
 20
9189.736797361609
 30
0.0
 11
6656.329581418173
 21
9221.736797361611
 31
0.0
  0
LINE
  5
18726
330
747D
100
AcDbEntity
  8
部品1
 62
     2
 48
50.0
100
AcDbLine
 10
6656.329581418173
 20
9189.736797361609
 30
0.0
 11
6666.329581418174
 21
9189.736797361609
 31
0.0
  0
LINE
  5
18727
330
747D
100
AcDbEntity
  8
部品1
 62
     2
 48
50.0
100
AcDbLine
 10
6666.329581418174
 20
9189.736797361609
 30
0.0
 11
6666.329581418171
 21
9199.736797361609
 31
0.0
  0
LINE
  5
1872A
330
747D
100
AcDbEntity
  8
部品1
 62
     2
 48
50.0
100
AcDbLine
 10
6656.329581418174
 20
9210.73679736161
 30
0.0
 11
6082.829581418173
 21
9210.73679736161
 31
0.0
  0
LINE
  5
18736
330
747D
100
AcDbEntity
  8
部品1
 62
     2
 48
50.0
100
AcDbLine
 10
6105.329581418173
 20
9187.736797361608
 30
0.0
 11
6105.329581418173
 21
9179.736797361609
 31
0.0
  0
LINE
  5
18738
330
747D
100
AcDbEntity
  8
部品1
 62
     2
 48
50.0
100
AcDbLine
 10
6656.329581418173
 20
9187.736797361608
 30
0.0
 11
6656.329581418173
 21
9179.736797361609
 31
0.0
  0
LINE
  5
18739
330
747D
100
AcDbEntity
  8
部品1
 62
     2
 48
50.0
100
AcDbLine
 10
6353.329581418171
 20
9166.736797361609
 30
0.0
 11
6368.329581418171
 21
9166.736797361609
 31
0.0
  0
LINE
  5
1873A
330
747D
100
AcDbEntity
  8
部品1
 62
     2
 48
50.0
100
AcDbLine
 10
6368.329581418171
 20
9166.736797361609
 30
0.0
 11
6368.329581418171
 21
9180.736797361609
 31
0.0
  0
LINE
  5
1873B
330
747D
100
AcDbEntity
  8
部品1
 62
     2
 48
50.0
100
AcDbLine
 10
6368.329581418171
 20
9180.736797361609
 30
0.0
 11
6373.329581418171
 21
9180.736797361609
 31
0.0
  0
LINE
  5
1873C
330
747D
100
AcDbEntity
  8
部品1
 62
     2
 48
50.0
100
AcDbLine
 10
6373.329581418171
 20
9180.736797361609
 30
0.0
 11
6373.329581418171
 21
9177.736797361609
 31
0.0
  0
LINE
  5
1873D
330
747D
100
AcDbEntity
  8
部品1
 62
     2
 48
50.0
100
AcDbLine
 10
6373.329581418171
 20
9177.736797361609
 30
0.0
 11
6388.329581418171
 21
9177.736797361609
 31
0.0
  0
LINE
  5
1873E
330
747D
100
AcDbEntity
  8
部品1
 62
     2
 48
50.0
100
AcDbLine
 10
6393.329581418171
 20
9166.736797361609
 30
0.0
 11
6393.329581418171
 21
9180.736797361609
 31
0.0
  0
LINE
  5
1873F
330
747D
100
AcDbEntity
  8
部品1
 62
     2
 48
50.0
100
AcDbLine
 10
6408.329581418171
 20
9166.736797361609
 30
0.0
 11
6393.329581418171
 21
9166.736797361609
 31
0.0
  0
LINE
  5
18740
330
747D
100
AcDbEntity
  8
部品1
 62
     2
 48
50.0
100
AcDbLine
 10
6388.329581418171
 20
9180.736797361609
 30
0.0
 11
6388.329581418171
 21
9177.736797361609
 31
0.0
  0
LINE
  5
18741
330
747D
100
AcDbEntity
  8
部品1
 62
     2
 48
50.0
100
AcDbLine
 10
6393.329581418171
 20
9180.736797361609
 30
0.0
 11
6388.329581418171
 21
9180.736797361609
 31
0.0
  0
LINE
  5
18742
330
747D
100
AcDbEntity
  8
部品1
 62
     2
 48
50.0
100
AcDbLine
 10
6362.579581418173
 20
9180.736797361609
 30
0.0
 11
6399.079581418173
 21
9180.736797361609
 31
0.0
  0
LINE
  5
18746
330
747D
100
AcDbEntity
  8
部品1
 62
     2
 48
50.0
100
AcDbLine
 10
6399.079581418173
 20
9180.736797361609
 30
0.0
 11
6402.579581418173
 21
9177.23679736161
 31
0.0
  0
LINE
  5
18747
330
747D
100
AcDbEntity
  8
部品1
 62
     2
 48
50.0
100
AcDbLine
 10
6362.579581418173
 20
9180.736797361609
 30
0.0
 11
6359.079581418173
 21
9177.23679736161
 31
0.0
  0
LINE
  5
1874A
330
747D
100
AcDbEntity
  8
部品1
 62
     2
 48
50.0
100
AcDbLine
 10
6677.829581418173
 20
9178.73679736161
 30
0.0
 11
6393.329581418171
 21
9178.73679736161
 31
0.0
  0
LINE
  5
1874B
330
747D
100
AcDbEntity
  8
部品1
 62
     2
 48
50.0
100
AcDbLine
 10
6368.329581418171
 20
9178.73679736161
 30
0.0
 11
6083.829581418172
 21
9178.73679736161
 31
0.0
  0
LINE
  5
1874E
330
747D
100
AcDbEntity
  8
部品1
 62
     2
 48
50.0
100
AcDbLine
 10
7250.329581418172
 20
9212.736797361609
 30
0.0
 11
6965.829581418171
 21
9212.736797361609
 31
0.0
  0
LINE
  5
1874F
330
747D
100
AcDbEntity
  8
部品1
 62
     2
 48
50.0
100
AcDbLine
 10
6940.829581418171
 20
9212.736797361609
 30
0.0
 11
6656.329581418173
 21
9212.736797361609
 31
0.0
  0
LINE
  5
18750
330
747D
100
AcDbEntity
  8
部品1
 62
     2
 48
50.0
100
AcDbLine
 10
6935.079581418174
 20
9214.736797361609
 30
0.0
 11
6971.579581418173
 21
9214.736797361609
 31
0.0
  0
LINE
  5
18751
330
747D
100
AcDbEntity
  8
部品1
 62
     2
 48
50.0
100
AcDbLine
 10
6965.829581418171
 20
9214.736797361609
 30
0.0
 11
6960.829581418171
 21
9214.736797361609
 31
0.0
  0
LINE
  5
18753
330
747D
100
AcDbEntity
  8
部品1
 62
     2
 48
50.0
100
AcDbLine
 10
6935.079581418174
 20
9214.736797361609
 30
0.0
 11
6931.579581418173
 21
9211.236797361609
 31
0.0
  0
LINE
  5
18754
330
747D
100
AcDbEntity
  8
部品1
 62
     2
 48
50.0
100
AcDbLine
 10
6940.829581418171
 20
9214.736797361609
 30
0.0
 11
6945.829581418171
 21
9214.736797361609
 31
0.0
  0
LINE
  5
18755
330
747D
100
AcDbEntity
  8
部品1
 62
     2
 48
50.0
100
AcDbLine
 10
6945.829581418171
 20
9214.736797361609
 30
0.0
 11
6945.829581418171
 21
9211.736797361609
 31
0.0
  0
LINE
  5
18756
330
747D
100
AcDbEntity
  8
部品1
 62
     2
 48
50.0
100
AcDbLine
 10
6945.829581418171
 20
9211.736797361609
 30
0.0
 11
6960.829581418171
 21
9211.736797361609
 31
0.0
  0
LINE
  5
18757
330
747D
100
AcDbEntity
  8
部品1
 62
     2
 48
50.0
100
AcDbLine
 10
6960.829581418171
 20
9214.736797361609
 30
0.0
 11
6960.829581418171
 21
9211.736797361609
 31
0.0
  0
LINE
  5
18758
330
747D
100
AcDbEntity
  8
部品1
 62
     2
 48
50.0
100
AcDbLine
 10
6925.82958141817
 20
9200.73679736161
 30
0.0
 11
6940.829581418171
 21
9200.73679736161
 31
0.0
  0
LINE
  5
18759
330
747D
100
AcDbEntity
  8
部品1
 62
     2
 48
50.0
100
AcDbLine
 10
6940.829581418171
 20
9200.73679736161
 30
0.0
 11
6940.829581418171
 21
9214.736797361609
 31
0.0
  0
LINE
  5
1875A
330
747D
100
AcDbEntity
  8
部品1
 62
     2
 48
50.0
100
AcDbLine
 10
6971.579581418173
 20
9214.736797361609
 30
0.0
 11
6975.079581418173
 21
9211.236797361609
 31
0.0
  0
LINE
  5
1875B
330
747D
100
AcDbEntity
  8
部品1
 62
     2
 48
50.0
100
AcDbLine
 10
6980.829581418172
 20
9200.73679736161
 30
0.0
 11
6965.829581418171
 21
9200.73679736161
 31
0.0
  0
LINE
  5
1875C
330
747D
100
AcDbEntity
  8
部品1
 62
     2
 48
50.0
100
AcDbLine
 10
6965.829581418171
 20
9200.73679736161
 30
0.0
 11
6965.829581418171
 21
9214.736797361609
 31
0.0
  0
LINE
  5
1875D
330
747D
100
AcDbEntity
  8
部品1
 62
     2
 48
50.0
100
AcDbLine
 10
7485.329581418174
 20
9234.73679736197
 30
0.0
 11
7500.329581418172
 21
9234.73679736197
 31
0.0
  0
LINE
  5
1875E
330
747D
100
AcDbEntity
  8
部品1
 62
     2
 48
50.0
100
AcDbLine
 10
7500.329581418172
 20
9234.73679736197
 30
0.0
 11
7505.329581418173
 21
9262.73679736197
 31
0.0
  0
LINE
  5
1875F
330
747D
100
AcDbEntity
  8
部品1
 62
     2
 48
50.0
100
AcDbLine
 10
7505.329581418173
 20
9262.73679736197
 30
0.0
 11
7530.329581418174
 21
9262.73679736197
 31
0.0
  0
LINE
  5
18760
330
747D
100
AcDbEntity
  8
部品1
 62
     2
 48
50.0
100
AcDbLine
 10
7550.329581418172
 20
9234.73679736197
 30
0.0
 11
7535.329581418173
 21
9234.73679736197
 31
0.0
  0
LINE
  5
18761
330
747D
100
AcDbEntity
  8
部品1
 62
     2
 48
50.0
100
AcDbLine
 10
7535.329581418173
 20
9234.73679736197
 30
0.0
 11
7530.329581418174
 21
9262.73679736197
 31
0.0
  0
LINE
  5
18764
330
747D
100
AcDbEntity
  8
部品1
 62
     2
 48
50.0
100
AcDbLine
 10
6677.829581418172
 20
9221.736797361609
 30
0.0
 11
6677.829581418172
 21
9213.73679736161
 31
0.0
  0
LINE
  5
18766
330
747D
100
AcDbEntity
  8
部品1
 62
     2
 48
50.0
100
AcDbLine
 10
7228.829581418174
 20
9221.736797361609
 30
0.0
 11
7228.829581418174
 21
9213.73679736161
 31
0.0
  0
LINE
  5
18768
330
747D
100
AcDbEntity
  8
部品1
 62
     2
 48
50.0
100
AcDbLine
 10
7252.829581418175
 20
9263.736797361795
 30
0.0
 11
7252.829581418175
 21
9259.236797361795
 31
0.0
  0
LINE
  5
1876A
330
747D
100
AcDbEntity
  8
部品1
 62
     2
 48
50.0
100
AcDbLine
 10
7785.329581418169
 20
9263.736797361792
 30
0.0
 11
7785.329581418169
 21
9259.236797361792
 31
0.0
  0
DIMENSION
  5
18778
330
747D
100
AcDbEntity
  8
寸法
 48
50.0
100
AcDbDimension
  2
*D15
 10
7182.829581418173
 20
8532.273498070642
 30
0.0
 11
6637.829581418173
 21
8757.273498070642
 31
0.0
 12
580.0
 22
0.0
 32
0.0
 70
    32
  1
有効開口部間口\P<>
 71
     5
 42
-1.0
  3
INABA_S50G
100
AcDbAlignedDimension
 13
6092.829581418173
 23
9160.736797361609
 33
0.0
 14
7182.829581418173
 24
9160.736797361609
 34
0.0
100
AcDbRotatedDimension
  0
DIMENSION
  5
1A2E5
330
747D
100
AcDbEntity
  8
寸法
 48
50.0
100
AcDbDimension
  2
*D16
 10
5236.198601638504
 20
9160.736797361609
 30
0.0
 11
5236.198601638504
 21
8923.748608385231
 31
0.0
 12
1160.0
 22
0.0
 32
0.0
 70
   160
 71
     5
 42
-1.0
  3
INABA_S50G
100
AcDbAlignedDimension
 13
6012.829581418171
 23
9228.736797361971
 33
0.0
 14
6066.829581418173
 24
9160.736797361609
 34
0.0
 50
90.0
100
AcDbRotatedDimension
  0
LINE
  5
1A39A
330
747D
100
AcDbEntity
  8
部品1
 62
     2
 48
50.0
100
AcDbLine
 10
7250.329581418172
 20
9212.736797361609
 30
0.0
 11
6965.829581418171
 21
9212.736797361609
 31
0.0
  0
LINE
  5
1A39B
330
747D
100
AcDbEntity
  8
部品1
 62
     2
 48
50.0
100
AcDbLine
 10
6940.829581418171
 20
9212.736797361609
 30
0.0
 11
6656.329581418173
 21
9212.736797361609
 31
0.0
  0
LINE
  5
1A8B1
330
747D
100
AcDbEntity
  8
部品1
 48
50.0
100
AcDbLine
 10
7794.829581418174
 20
9263.736797361973
 30
0.0
 11
7794.829581418174
 21
9278.736797361974
 31
0.0
  0
LINE
  5
1A8B2
330
747D
100
AcDbEntity
  8
部品1
 48
50.0
100
AcDbLine
 10
7830.829581418173
 20
9263.736797361973
 30
0.0
 11
7830.829581418173
 21
9278.736797361974
 31
0.0
  0
LINE
  5
1A8B3
330
747D
100
AcDbEntity
  8
部品1
 48
50.0
100
AcDbLine
 10
7812.829581418172
 20
9263.736797361973
 30
0.0
 11
7812.829581418177
 21
9228.736797361971
 31
0.0
  0
TEXT
  5
1A95B
330
747D
100
AcDbEntity
  8
文字
 62
     7
 48
50.0
100
AcDbText
 10
17902.30092041603
 20
604.8708912389265
 30
0.0
 40
200.0
  1
ＳＭＫ－４７Ｓ
  7
STYLE2
100
AcDbText
  0
TEXT
  5
1A95C
330
747D
100
AcDbEntity
  8
文字
 62
     7
 48
50.0
100
AcDbText
 10
18386.04187925632
 20
1047.815908841148
 30
0.0
 40
125.0
  1
～一般型･多雪地型～
  7
STYLE2
100
AcDbText
  0
TEXT
  5
1A95D
330
747D
100
AcDbEntity
  8
文字
 62
     7
 48
50.0
100
AcDbText
 10
18155.16479652749
 20
1289.447132864035
 30
0.0
 40
125.0
  1
NO.04     <縮尺> S=1/50
  7
STYLE2
100
AcDbText
  0
TEXT
  5
1A95E
330
747D
100
AcDbEntity
  8
文字
 62
     7
 48
50.0
100
AcDbText
 10
16511.7566802715
 20
270.5931259273529
 30
0.0
 40
100.0
  1
○扉部有効開口寸法：1090×1798 (mm)
  7
STYLE2
100
AcDbText
  0
TEXT
  5
1A95F
330
747D
100
AcDbEntity
  8
文字
 62
     7
 48
50.0
100
AcDbText
 10
16511.7566802715
 20
99.75789836616968
 30
0.0
 40
100.0
  1
○床面積：4.62㎡(1.40坪)
  7
STYLE2
100
AcDbText
  0
DIMENSION
  5
1AB73
330
747D
100
AcDbEntity
  8
寸法
 48
50.0
100
AcDbDimension
  2
*D17
 10
14681.32958141817
 20
2653.952670699625
 30
0.0
 11
14394.365998741
 21
2653.952670699625
 31
0.0
 12
631.0117701604176
 22
-11707.52646466355
 32
0.0
 70
   160
 71
     5
 42
-1.0
  3
INABA_S50G
100
AcDbAlignedDimension
 13
14881.32958141817
 23
2940.000000000002
 33
0.0
 14
14681.32958141817
 24
2940.000000000002
 34
0.0
100
AcDbRotatedDimension
  0
DIMENSION
  5
1AB74
330
747D
100
AcDbEntity
  8
寸法
 48
50.0
100
AcDbDimension
  2
*D18
 10
15279.66471641205
 20
3140.0
 30
0.0
 11
15279.66471641205
 21
2653.036417322837
 31
0.0
 12
631.0117701604176
 22
-11707.52646466355
 32
0.0
 70
   160
 71
     5
 42
-1.0
  3
INABA_S50G
100
AcDbAlignedDimension
 13
14881.32958141817
 23
2940.000000000002
 33
0.0
 14
14881.32958141817
 24
3140.0
 34
0.0
 50
90.0
100
AcDbRotatedDimension
  0
LINE
  5
1AB7A
330
747D
100
AcDbEntity
  8
部品1
 48
50.0
100
AcDbLine
 10
13012.82958141817
 20
3330.0
 30
0.0
 11
14752.82958141817
 21
3330.0
 31
0.0
  0
LINE
  5
1AB7B
330
747D
100
AcDbEntity
  8
部品1
 48
50.0
100
AcDbLine
 10
12942.82958141817
 20
5275.0
 30
0.0
 11
14822.82958141817
 21
5275.0
 31
0.0
  0
DIMENSION
  5
1AB7C
330
747D
100
AcDbEntity
  8
寸法
 48
50.0
100
AcDbDimension
  2
*D19
 10
14822.82958141817
 20
6238.281130716521
 30
0.0
 11
13882.82958141817
 21
6338.281130716521
 31
0.0
 70
    32
  1
柱外寸法 <>
 71
     5
 42
-1.0
  3
INABA_S50G
100
AcDbAlignedDimension
 13
12942.82958141817
 23
5541.484603453081
 33
0.0
 14
14822.82958141817
 24
5488.33701822684
 34
0.0
100
AcDbRotatedDimension
1001
ACAD
1000
DSTYLE
1002
{
1070
   287
1070
     4
1070
    75
1070
     1
1070
   279
1070
     1
1002
}
  0
DIMENSION
  5
1AB7D
330
747D
100
AcDbEntity
  8
寸法
 48
50.0
100
AcDbDimension
  2
*D20
 10
14917.82958141817
 20
6506.068854554546
 30
0.0
 11
14442.82958141817
 21
6776.083618334073
 31
0.0
 12
631.0117701604176
 22
-11877.52646466355
 32
0.0
 70
    32
 71
     5
 42
-1.0
  3
INABA_S50G
100
AcDbAlignedDimension
 13
12807.82958141817
 23
5545.0
 33
0.0
 14
14917.82958141817
 24
5485.0
 34
0.0
100
AcDbRotatedDimension
  0
LINE
  5
1AB7E
330
747D
100
AcDbEntity
  8
部品1
 48
50.0
100
AcDbLine
 10
12837.34578971423
 20
5544.466629415619
 30
0.0
 11
14892.50261261331
 21
5486.367362182471
 31
0.0
  0
LINE
  5
1AB7F
330
747D
100
AcDbEntity
  8
細線
 48
50.0
100
AcDbLine
 10
14899.73767084558
 20
5476.025833613869
 30
0.0
 11
12826.02062901199
 21
5526.929326860823
 31
0.0
  0
LINE
  5
1AB80
330
747D
100
AcDbEntity
  8
部品1
 48
50.0
100
AcDbLine
 10
14890.11846310262
 20
5360.921243435219
 30
0.0
 11
12828.8404644795
 21
5412.160340619768
 31
0.0
  0
LINE
  5
1AB81
330
747D
100
AcDbEntity
  8
細線
 48
50.0
100
AcDbLine
 10
14908.38919924369
 20
5380.746404000587
 30
0.0
 11
12811.46376912036
 21
5432.315572311723
 31
0.0
  0
LINE
  5
1AB82
330
747D
100
AcDbEntity
  8
部品1
 48
50.0
100
AcDbLine
 10
13005.32958141817
 20
3275.0
 30
0.0
 11
14760.32958141817
 21
3275.0
 31
0.0
  0
LINE
  5
1AB83
330
747D
100
AcDbEntity
  8
部品1
 48
50.0
100
AcDbLine
 10
13012.82958141817
 20
5275.0
 30
0.0
 11
13012.82958141817
 21
3275.0
 31
0.0
  0
DIMENSION
  5
1AB84
330
747D
100
AcDbEntity
  8
寸法
 48
50.0
100
AcDbDimension
  2
*D21
 10
11908.66366111978
 20
3275.0
 30
0.0
 11
12388.64889734025
 21
4410.0
 31
0.0
 12
-580.0
 22
0.0
 32
0.0
 70
    32
 71
     5
 42
-1.0
  3
INABA_S50G
100
AcDbAlignedDimension
 13
12807.82958141817
 23
5545.0
 33
0.0
 14
12874.82958141817
 24
3275.0
 34
0.0
 50
90.0
100
AcDbRotatedDimension
  0
LINE
  5
1AB85
330
747D
100
AcDbEntity
  8
部品1
 48
50.0
100
AcDbLine
 10
12942.82958141816
 20
5409.326807518119
 30
0.0
 11
12942.82958141817
 21
3140.0
 31
0.0
  0
LINE
  5
1AB86
330
747D
100
AcDbEntity
  8
部品1
 62
     2
 48
50.0
100
AcDbLine
 10
12874.82958141817
 20
3275.0
 30
0.0
 11
12874.82958141817
 21
5180.0
 31
0.0
  0
DIMENSION
  5
1AB87
330
747D
100
AcDbEntity
  8
寸法
 48
50.0
100
AcDbDimension
  2
*D22
 10
12216.70986552558
 20
5275.0
 30
0.0
 11
12116.70986552558
 21
4302.500000000001
 31
0.0
 70
    32
 71
     5
 42
-1.0
  3
INABA_S50G
100
AcDbAlignedDimension
 13
12874.82958141817
 23
3330.0
 33
0.0
 14
12942.82958141817
 24
5275.0
 34
0.0
 50
90.0
100
AcDbRotatedDimension
1001
ACAD
1000
DSTYLE
1002
{
1070
   287
1070
     4
1070
    75
1070
     1
1070
   279
1070
     1
1002
}
  0
DIMENSION
  5
1AB88
330
747D
100
AcDbEntity
  8
寸法
 48
50.0
100
AcDbDimension
  2
*D23
 10
12528.94130116352
 20
5150.5
 30
0.0
 11
13008.94130116352
 21
4251.5
 31
0.0
 12
631.0117701604176
 22
-11707.52646466355
 32
0.0
 70
    32
  1
有効開口部高サ <>
 71
     5
 42
-1.0
  3
INABA_S50G
100
AcDbAlignedDimension
 13
12874.82958141817
 23
3352.5
 33
0.0
 14
12874.82958141817
 24
5150.5
 34
0.0
 50
90.0
100
AcDbRotatedDimension
  0
DIMENSION
  5
1AB89
330
747D
100
AcDbEntity
  8
寸法
 48
50.0
100
AcDbDimension
  2
*D24
 10
12216.70986552558
 20
3330.0
 30
0.0
 11
12216.70986552558
 21
2964.420494177466
 31
0.0
 12
631.0117701604176
 22
-11707.52646466355
 32
0.0
 70
   160
 71
     5
 42
-1.0
  3
INABA_S50G
100
AcDbAlignedDimension
 13
12874.82958141817
 23
3275.0
 33
0.0
 14
12874.82958141817
 24
3330.0
 34
0.0
 50
90.0
100
AcDbRotatedDimension
  0
LINE
  5
1AB8A
330
747D
100
AcDbEntity
  8
破線
 48
5.0
100
AcDbLine
 10
13084.32958141817
 20
3140.000000000004
 30
0.0
 11
13084.32958141817
 21
2940.000000000002
 31
0.0
  0
LINE
  5
1AB8B
330
747D
100
AcDbEntity
  8
破線
 48
5.0
100
AcDbLine
 10
12884.32958141817
 20
3140.000000000004
 30
0.0
 11
12884.32958141817
 21
2940.000000000002
 31
0.0
  0
LINE
  5
1AB8C
330
747D
100
AcDbEntity
  8
破線
 48
5.0
100
AcDbLine
 10
13005.32958141817
 20
3140.0
 30
0.0
 11
13005.32958141817
 21
3030.0
 31
0.0
  0
LINE
  5
1AB8D
330
747D
100
AcDbEntity
  8
破線
 48
5.0
100
AcDbLine
 10
12963.32958141817
 20
3140.0
 30
0.0
 11
12963.32958141817
 21
3030.0
 31
0.0
  0
LINE
  5
1AB8E
330
747D
100
AcDbEntity
  8
破線
 48
5.0
100
AcDbLine
 10
12963.32958141817
 20
3030.0
 30
0.0
 11
13005.32958141817
 21
3030.0
 31
0.0
  0
LINE
  5
1AB8F
330
747D
100
AcDbEntity
  8
破線
 48
5.0
100
AcDbLine
 10
13084.32958141817
 20
2940.000000000002
 30
0.0
 11
12884.32958141817
 21
2940.000000000002
 31
0.0
  0
LINE
  5
1AB90
330
747D
100
AcDbEntity
  8
部品1
 48
50.0
100
AcDbLine
 10
12968.32958141817
 20
3315.000000000002
 30
0.0
 11
13000.32958141817
 21
3315.0
 31
0.0
  0
LINE
  5
1AB91
330
747D
100
AcDbEntity
  8
部品1
 48
50.0
100
AcDbLine
 10
12942.82958141817
 20
3275.0
 30
0.0
 11
12963.32958141817
 21
3275.0
 31
0.0
  0
LINE
  5
1AB92
330
747D
100
AcDbEntity
  8
部品1
 48
50.0
100
AcDbLine
 10
12963.32958141817
 20
3310.000000000001
 30
0.0
 11
12963.32958141817
 21
3140.0
 31
0.0
  0
ARC
  5
1AB93
330
747D
100
AcDbEntity
  8
部品1
 48
50.0
100
AcDbCircle
 10
12968.32958141817
 20
3310.000000000001
 30
0.0
 40
5.0
100
AcDbArc
 50
90.0
 51
179.9999999999993
  0
LINE
  5
1AB94
330
747D
100
AcDbEntity
  8
部品1
 48
50.0
100
AcDbLine
 10
12874.82958141817
 20
3275.0
 30
0.0
 11
12874.82958141817
 21
3140.0
 31
0.0
  0
LINE
  5
1AB95
330
747D
100
AcDbEntity
  8
部品1
 48
50.0
100
AcDbLine
 10
12942.82958141817
 20
3275.0
 30
0.0
 11
12874.82958141817
 21
3275.0
 31
0.0
  0
LINE
  5
1AB96
330
747D
100
AcDbEntity
  8
部品1
 48
50.0
100
AcDbLine
 10
13142.82958141817
 20
3275.0
 30
0.0
 11
13142.82958141817
 21
3140.0
 31
0.0
  0
LINE
  5
1AB97
330
747D
100
AcDbEntity
  8
部品1
 48
50.0
100
AcDbLine
 10
13005.32958141817
 20
3310.0
 30
0.0
 11
13005.32958141817
 21
3140.0
 31
0.0
  0
ARC
  5
1AB98
330
747D
100
AcDbEntity
  8
部品1
 48
50.0
100
AcDbCircle
 10
13000.32958141817
 20
3310.0
 30
0.0
 40
5.0
100
AcDbArc
 50
359.9999999999993
 51
90.0
  0
DIMENSION
  5
1AB99
330
747D
100
AcDbEntity
  8
寸法
 48
50.0
100
AcDbDimension
  2
*D25
 10
12942.82958141817
 20
6238.281130716521
 30
0.0
 11
12534.72297970037
 21
6238.281130716521
 31
0.0
 12
631.0117701604176
 22
-11877.52646466355
 32
0.0
 70
   160
 71
     5
 42
-1.0
  3
INABA_S50G
100
AcDbAlignedDimension
 13
12807.82958141817
 23
5545.0
 33
0.0
 14
12942.82958141817
 24
5541.484603453081
 34
0.0
100
AcDbRotatedDimension
  0
DIMENSION
  5
1AB9A
330
747D
100
AcDbEntity
  8
寸法
 48
50.0
100
AcDbDimension
  2
*D26
 10
12212.41896235455
 20
5542.518825784645
 30
0.0
 11
12218.83297595766
 21
5800.545720273986
 31
0.0
 12
-114.2664062745825
 22
2.840425939606575
 32
0.0
 70
   160
 71
     5
 42
-1.0
  3
INABA_S50G
100
AcDbAlignedDimension
 13
12828.56317514397
 23
5412.167233457712
 33
0.0
 14
12831.42095390457
 24
5527.131719715667
 34
0.0
 50
88.57603896661327
100
AcDbRotatedDimension
  0
ARC
  5
1AB9B
330
747D
100
AcDbEntity
  8
部品1
100
AcDbCircle
 10
12823.32958141817
 20
5511.471940894553
 30
0.0
 40
15.5
100
AcDbArc
 50
88.13874351680366
 51
181.8832004883104
  0
LINE
  5
1AB9C
330
747D
100
AcDbEntity
  8
細線
 48
50.0
100
AcDbLine
 10
12846.42631339595
 20
5544.266424339621
 30
0.0
 11
12842.12495525883
 21
5411.902630028745
 31
0.0
  0
LINE
  5
1AB9D
330
747D
100
AcDbEntity
  8
部品1
 62
     2
 48
50.0
100
AcDbLine
 10
12874.82958141817
 20
5180.0
 30
0.0
 11
12942.82958141817
 21
5187.0
 31
0.0
  0
LINE
  5
1AB9E
330
747D
100
AcDbEntity
  8
部品1
100
AcDbLine
 10
12807.83795305646
 20
5510.962577858223
 30
0.0
 11
12810.38580755857
 21
5433.472826441324
 31
0.0
  0
LINE
  5
1AB9F
330
747D
100
AcDbEntity
  8
部品1
100
AcDbLine
 10
12813.5035812939
 20
5429.940194712308
 30
0.0
 11
12813.59535490714
 21
5427.149017088035
 31
0.0
  0
ARC
  5
1ABA0
330
747D
100
AcDbEntity
  8
部品1
100
AcDbCircle
 10
12811.58515943173
 20
5433.512260998977
 30
0.0
 40
1.199999999999999
100
AcDbArc
 50
181.8832004883104
 51
260.9777304905277
  0
ARC
  5
1ABA1
330
747D
100
AcDbEntity
  8
部品1
100
AcDbCircle
 10
12811.00493155814
 20
5429.858039383868
 30
0.0
 40
2.5
100
AcDbArc
 50
1.883200488304429
 51
80.9777304905255
  0
ARC
  5
1ABA2
330
747D
100
AcDbEntity
  8
部品1
100
AcDbCircle
 10
12829.08698326884
 20
5427.658380124383
 30
0.0
 40
15.5
100
AcDbArc
 50
181.8832004883684
 51
269.0887044041854
  0
LINE
  5
1ABA3
330
747D
100
AcDbEntity
  8
部品1
100
AcDbLine
 10
12827.40813407785
 20
5527.804810746245
 30
0.0
 11
12834.10013006798
 21
5542.423971429562
 31
0.0
  0
ARC
  5
1ABA4
330
747D
100
AcDbEntity
  8
部品1
 48
50.0
100
AcDbCircle
 10
12837.28255353197
 20
5540.967200721498
 30
0.0
 40
3.5
100
AcDbArc
 50
88.96475328401214
 51
155.4038180356338
  0
LINE
  5
1ABA5
330
747D
100
AcDbEntity
  8
部品1
 48
50.0
100
AcDbLine
 10
12826.02062901199
 20
5526.929326860823
 30
0.0
 11
12823.83301119891
 21
5526.963763203625
 31
0.0
  0
ARC
  5
1ABA6
330
747D
100
AcDbEntity
  8
部品1
100
AcDbCircle
 10
12826.04423830757
 20
5528.429141049702
 30
0.0
 40
1.5
100
AcDbArc
 50
269.0981540988973
 51
335.4038180356238
  0
LINE
  5
1ABA7
330
747D
100
AcDbEntity
  8
部品1
 48
50.0
100
AcDbLine
 10
13592.82958141817
 20
5275.0
 30
0.0
 11
13592.82958141817
 21
3330.0
 31
0.0
  0
LINE
  5
1ABA8
330
747D
100
AcDbEntity
  8
部品1
 48
50.0
100
AcDbLine
 10
14172.82958141817
 20
5275.0
 30
0.0
 11
14172.82958141817
 21
3330.0
 31
0.0
  0
LINE
  5
1ABA9
330
747D
100
AcDbEntity
  8
部品1
 48
50.0
100
AcDbLine
 10
14752.82958141817
 20
5275.0
 30
0.0
 11
14752.82958141817
 21
3275.0
 31
0.0
  0
DIMENSION
  5
1ABAA
330
747D
100
AcDbEntity
  8
寸法
 48
50.0
100
AcDbDimension
  2
*D27
 10
15482.32033483959
 20
5485.0
 30
0.0
 11
15962.30557106006
 21
4380.0
 31
0.0
 12
-580.0
 22
0.0
 32
0.0
 70
    32
 71
     5
 42
-1.0
  3
INABA_S50G
100
AcDbAlignedDimension
 13
14822.82958141817
 23
3275.0
 33
0.0
 14
14917.82958141817
 24
5485.0
 34
0.0
 50
90.0
100
AcDbRotatedDimension
  0
LINE
  5
1ABAB
330
747D
100
AcDbEntity
  8
細線
 48
5.0
100
AcDbLine
 10
14898.82958141817
 20
5232.0
 30
0.0
 11
14898.82958141816
 21
4307.500000000001
 31
0.0
  0
LINE
  5
1ABAC
330
747D
100
AcDbEntity
  8
細線
 48
5.0
100
AcDbLine
 10
14885.82958141817
 20
5232.0
 30
0.0
 11
14885.82958141816
 21
4307.5
 31
0.0
  0
LINE
  5
1ABAD
330
747D
100
AcDbEntity
  8
細線
 48
5.0
100
AcDbLine
 10
14848.82958141817
 20
5232.0
 30
0.0
 11
14848.82958141816
 21
4307.5
 31
0.0
  0
LINE
  5
1ABAE
330
747D
100
AcDbEntity
  8
細線
 48
5.0
100
AcDbLine
 10
14861.82958141817
 20
5232.0
 30
0.0
 11
14861.82958141816
 21
4307.5
 31
0.0
  0
LINE
  5
1ABAF
330
747D
100
AcDbEntity
  8
部品1
 48
50.0
100
AcDbLine
 10
14822.82958141817
 20
5362.593905516885
 30
0.0
 11
14822.82958141817
 21
3140.0
 31
0.0
  0
LINE
  5
1ABB0
330
747D
100
AcDbEntity
  8
細線
 48
5.0
100
AcDbLine
 10
14847.62958141816
 20
4307.5
 30
0.0
 11
14822.82958141817
 21
4327.499999999999
 31
0.0
  0
LINE
  5
1ABB1
330
747D
100
AcDbEntity
  8
細線
 48
5.0
100
AcDbLine
 10
14847.62958141816
 20
4287.5
 30
0.0
 11
14822.82958141817
 21
4267.5
 31
0.0
  0
ARC
  5
1ABB2
330
747D
100
AcDbEntity
  8
細線
 48
5.0
100
AcDbCircle
 10
14873.82958141816
 20
3226.09258006886
 30
0.0
 40
27.3
100
AcDbArc
 50
180.0
 51
260.0
  0
ARC
  5
1ABB3
330
747D
100
AcDbEntity
  8
細線
 48
5.0
100
AcDbCircle
 10
14844.04554596898
 20
3340.0
 30
0.0
 40
3.0
100
AcDbArc
 50
89.99999999999909
 51
134.1275428770974
  0
LINE
  5
1ABB4
330
747D
100
AcDbEntity
  8
細線
 48
5.0
100
AcDbLine
 10
14822.82958141817
 20
3323.6
 30
0.0
 11
14841.9567721806
 21
3342.153375039561
 31
0.0
  0
LINE
  5
1ABB5
330
747D
100
AcDbEntity
  8
細線
 48
5.0
100
AcDbLine
 10
14822.82958141817
 20
3363.0
 30
0.0
 11
14900.02958141817
 21
3363.0
 31
0.0
  0
LINE
  5
1ABB6
330
747D
100
AcDbEntity
  8
破線
 48
5.0
100
AcDbLine
 10
14681.32958141817
 20
2940.000000000002
 30
0.0
 11
14881.32958141817
 21
2940.000000000002
 31
0.0
  0
LINE
  5
1ABB7
330
747D
100
AcDbEntity
  8
部品1
 48
50.0
100
AcDbLine
 10
13782.82958141817
 20
3275.0
 30
0.0
 11
13782.82958141817
 21
3140.0
 31
0.0
  0
LINE
  5
1ABB8
330
747D
100
AcDbEntity
  8
部品1
 48
50.0
100
AcDbLine
 10
13982.82958141817
 20
3275.0
 30
0.0
 11
13982.82958141817
 21
3140.0
 31
0.0
  0
LINE
  5
1ABB9
330
747D
100
AcDbEntity
  8
破線
 48
5.0
100
AcDbLine
 10
14681.32958141817
 20
3140.000000000004
 30
0.0
 11
14681.32958141817
 21
2940.000000000002
 31
0.0
  0
LINE
  5
1ABBA
330
747D
100
AcDbEntity
  8
破線
 48
5.0
100
AcDbLine
 10
14760.32958141817
 20
3140.0
 30
0.0
 11
14760.32958141817
 21
3030.0
 31
0.0
  0
LINE
  5
1ABBB
330
747D
100
AcDbEntity
  8
破線
 48
5.0
100
AcDbLine
 10
14802.32958141817
 20
3140.0
 30
0.0
 11
14802.32958141817
 21
3030.0
 31
0.0
  0
LINE
  5
1ABBC
330
747D
100
AcDbEntity
  8
破線
 48
5.0
100
AcDbLine
 10
14802.32958141817
 20
3030.0
 30
0.0
 11
14760.32958141817
 21
3030.0
 31
0.0
  0
LINE
  5
1ABBD
330
747D
100
AcDbEntity
  8
部品1
 48
50.0
100
AcDbLine
 10
14622.82958141817
 20
3275.0
 30
0.0
 11
14622.82958141817
 21
3140.0
 31
0.0
  0
LINE
  5
1ABBE
330
747D
100
AcDbEntity
  8
部品1
 48
50.0
100
AcDbLine
 10
14802.32958141817
 20
3310.000000000001
 30
0.0
 11
14802.32958141817
 21
3140.0
 31
0.0
  0
LINE
  5
1ABBF
330
747D
100
AcDbEntity
  8
部品1
 48
50.0
100
AcDbLine
 10
14760.32958141817
 20
3310.0
 30
0.0
 11
14760.32958141817
 21
3140.0
 31
0.0
  0
ARC
  5
1ABC0
330
747D
100
AcDbEntity
  8
部品1
 48
50.0
100
AcDbCircle
 10
14797.32958141817
 20
3310.000000000001
 30
0.0
 40
5.0
100
AcDbArc
 50
0.0000000000006177
 51
90.0
  0
LINE
  5
1ABC1
330
747D
100
AcDbEntity
  8
部品1
 48
50.0
100
AcDbLine
 10
14797.32958141817
 20
3315.000000000002
 30
0.0
 11
14765.32958141817
 21
3315.0
 31
0.0
  0
ARC
  5
1ABC2
330
747D
100
AcDbEntity
  8
部品1
 48
50.0
100
AcDbCircle
 10
14765.32958141817
 20
3310.0
 30
0.0
 40
5.0
100
AcDbArc
 50
90.0
 51
180.0000000000006
  0
LINE
  5
1ABC3
330
747D
100
AcDbEntity
  8
部品1
 48
50.0
100
AcDbLine
 10
14802.32958141817
 20
3275.0
 30
0.0
 11
14822.82958141817
 21
3275.0
 31
0.0
  0
LINE
  5
1ABC4
330
747D
100
AcDbEntity
  8
細線
 48
5.0
100
AcDbLine
 10
14898.82958141816
 20
4287.5
 30
0.0
 11
14898.82958141816
 21
3363.0
 31
0.0
  0
LINE
  5
1ABC5
330
747D
100
AcDbEntity
  8
細線
 48
5.0
100
AcDbLine
 10
14885.82958141816
 20
4287.5
 30
0.0
 11
14885.82958141816
 21
3363.0
 31
0.0
  0
LINE
  5
1ABC6
330
747D
100
AcDbEntity
  8
細線
 48
5.0
100
AcDbLine
 10
14861.82958141816
 20
4287.5
 30
0.0
 11
14861.82958141816
 21
3363.0
 31
0.0
  0
LINE
  5
1ABC7
330
747D
100
AcDbEntity
  8
細線
 48
5.0
100
AcDbLine
 10
14848.82958141816
 20
4287.5
 30
0.0
 11
14848.82958141816
 21
3363.0
 31
0.0
  0
LINE
  5
1ABC8
330
747D
100
AcDbEntity
  8
破線
 48
5.0
100
AcDbLine
 10
14881.32958141817
 20
3140.000000000004
 30
0.0
 11
14881.32958141817
 21
2940.000000000002
 31
0.0
  0
LINE
  5
1ABC9
330
747D
100
AcDbEntity
  8
細線
 48
5.0
100
AcDbLine
 10
14925.6739223305
 20
3243.74934418412
 30
0.0
 11
14921.28369922995
 21
3191.112019182886
 31
0.0
  0
LINE
  5
1ABCA
330
747D
100
AcDbEntity
  8
細線
 48
5.0
100
AcDbLine
 10
14882.82958141816
 20
3269.5
 30
0.0
 11
14882.82958141816
 21
3216.376514579342
 31
0.0
  0
ARC
  5
1ABCB
330
747D
100
AcDbEntity
  8
細線
 48
5.0
100
AcDbCircle
 10
14920.28715939573
 20
3191.195135720452
 30
0.0
 40
1.0
100
AcDbArc
 50
260.0
 51
355.2322728781318
  0
LINE
  5
1ABCC
330
747D
100
AcDbEntity
  8
細線
 48
5.0
100
AcDbLine
 10
14869.08898616785
 20
3199.207328411627
 30
0.0
 11
14920.11351121807
 21
3190.210327967439
 31
0.0
  0
ARC
  5
1ABCD
330
747D
100
AcDbEntity
  8
細線
 48
5.0
100
AcDbCircle
 10
14900.62958141816
 20
3269.5
 30
0.0
 40
0.5
100
AcDbArc
 50
0.0000000000001527
 51
90.0
  0
ARC
  5
1ABCE
330
747D
100
AcDbEntity
  8
細線
 48
5.0
100
AcDbCircle
 10
14924.67738249628
 20
3243.832460721685
 30
0.0
 40
1.0
100
AcDbArc
 50
355.2322728781318
 51
79.9999999999998
  0
LINE
  5
1ABCF
330
747D
100
AcDbEntity
  8
細線
 48
5.0
100
AcDbLine
 10
14901.12958141816
 20
3249.0
 30
0.0
 11
14896.38898616785
 21
3222.114748342766
 31
0.0
  0
LINE
  5
1ABD0
330
747D
100
AcDbEntity
  8
細線
 48
5.0
100
AcDbLine
 10
14901.12958141816
 20
3249.0
 30
0.0
 11
14924.85103067395
 21
3244.817268474697
 31
0.0
  0
LINE
  5
1ABD1
330
747D
100
AcDbEntity
  8
細線
 48
5.0
100
AcDbLine
 10
14901.12958141816
 20
3269.5
 30
0.0
 11
14901.12958141816
 21
3249.0
 31
0.0
  0
LINE
  5
1ABD2
330
747D
100
AcDbEntity
  8
細線
 48
5.0
100
AcDbLine
 10
14898.82958141816
 20
3343.0
 30
0.0
 11
14898.82958141816
 21
3270.0
 31
0.0
  0
ARC
  5
1ABD3
330
747D
100
AcDbEntity
  8
細線
 48
5.0
100
AcDbCircle
 10
14864.32958141816
 20
3269.5
 30
0.0
 40
0.5
100
AcDbArc
 50
359.9999999999998
 51
90.0
  0
ARC
  5
1ABD4
330
747D
100
AcDbEntity
  8
細線
 48
5.0
100
AcDbCircle
 10
14847.02958141816
 20
3269.5
 30
0.0
 40
0.5
100
AcDbArc
 50
90.0
 51
180.0
  0
LINE
  5
1ABD5
330
747D
100
AcDbEntity
  8
細線
 48
5.0
100
AcDbLine
 10
14864.32958141816
 20
3270.0
 30
0.0
 11
14847.02958141816
 21
3270.0
 31
0.0
  0
LINE
  5
1ABD6
330
747D
100
AcDbEntity
  8
細線
 48
5.0
100
AcDbLine
 10
14846.52958141816
 20
3269.5
 30
0.0
 11
14846.52958141816
 21
3226.09258006886
 31
0.0
  0
LINE
  5
1ABD7
330
747D
100
AcDbEntity
  8
細線
 48
5.0
100
AcDbLine
 10
14864.82958141816
 20
3269.5
 30
0.0
 11
14864.82958141816
 21
3219.550400232094
 31
0.0
  0
LINE
  5
1ABD8
330
747D
100
AcDbEntity
  8
細線
 48
5.0
100
AcDbLine
 10
14883.32958141816
 20
3270.0
 30
0.0
 11
14864.32958141816
 21
3270.0
 31
0.0
  0
ARC
  5
1ABD9
330
747D
100
AcDbEntity
  8
細線
 48
5.0
100
AcDbCircle
 10
14883.32958141816
 20
3269.5
 30
0.0
 40
0.5
100
AcDbArc
 50
90.0
 51
180.0000000000001
  0
LINE
  5
1ABDA
330
747D
100
AcDbEntity
  8
細線
 48
5.0
100
AcDbLine
 10
14861.82958141816
 20
3343.0
 30
0.0
 11
14861.82958141816
 21
3270.0
 31
0.0
  0
LINE
  5
1ABDB
330
747D
100
AcDbEntity
  8
細線
 48
5.0
100
AcDbLine
 10
14885.82958141816
 20
3343.0
 30
0.0
 11
14885.82958141816
 21
3270.0
 31
0.0
  0
LINE
  5
1ABDC
330
747D
100
AcDbEntity
  8
細線
 48
5.0
100
AcDbLine
 10
14848.82958141816
 20
3343.0
 30
0.0
 11
14848.82958141816
 21
3270.0
 31
0.0
  0
LINE
  5
1ABDD
330
747D
100
AcDbEntity
  8
細線
 48
5.0
100
AcDbLine
 10
14900.62958141816
 20
3270.0
 30
0.0
 11
14883.32958141816
 21
3270.0
 31
0.0
  0
LINE
  5
1ABDE
330
747D
100
AcDbEntity
  8
細線
 48
5.0
100
AcDbLine
 10
14847.62958141817
 20
3343.0
 30
0.0
 11
14847.62958141816
 21
3363.0
 31
0.0
  0
LINE
  5
1ABDF
330
747D
100
AcDbEntity
  8
細線
 48
5.0
100
AcDbLine
 10
14900.02958141817
 20
3343.0
 30
0.0
 11
14900.02958141817
 21
3363.0
 31
0.0
  0
LINE
  5
1ABE0
330
747D
100
AcDbEntity
  8
細線
 48
5.0
100
AcDbLine
 10
14844.04554596898
 20
3343.0
 30
0.0
 11
14900.02958141817
 21
3342.999999999998
 31
0.0
  0
LINE
  5
1ABE1
330
747D
100
AcDbEntity
  8
細線
 48
5.0
100
AcDbLine
 10
14847.62958141816
 20
4307.5
 30
0.0
 11
14900.02958141817
 21
4307.500000000001
 31
0.0
  0
LINE
  5
1ABE2
330
747D
100
AcDbEntity
  8
細線
 48
5.0
100
AcDbLine
 10
14847.62958141816
 20
4287.5
 30
0.0
 11
14900.02958141817
 21
4287.5
 31
0.0
  0
LINE
  5
1ABE3
330
747D
100
AcDbEntity
  8
細線
 48
5.0
100
AcDbLine
 10
14900.02958141817
 20
4307.5
 30
0.0
 11
14900.02958141817
 21
4287.5
 31
0.0
  0
LINE
  5
1ABE4
330
747D
100
AcDbEntity
  8
細線
 48
5.0
100
AcDbLine
 10
14847.62958141816
 20
4307.5
 30
0.0
 11
14847.62958141816
 21
4287.5
 31
0.0
  0
ARC
  5
1ABE5
330
747D
100
AcDbEntity
  8
細線
 48
5.0
100
AcDbCircle
 10
14842.32958141817
 20
5319.809238873037
 30
0.0
 40
1.0
100
AcDbArc
 50
90.0
 51
180.0
  0
LINE
  5
1ABE6
330
747D
100
AcDbEntity
  8
細線
 48
5.0
100
AcDbLine
 10
14846.52958141817
 20
5300.809238873037
 30
0.0
 11
14841.81820325259
 21
5306.245444448709
 31
0.0
  0
ARC
  5
1ABE7
330
747D
100
AcDbEntity
  8
細線
 48
5.0
100
AcDbCircle
 10
14853.82958141817
 20
5320.809238873036
 30
0.0
 40
10.0
100
AcDbArc
 50
180.0
 51
270.0
  0
LINE
  5
1ABE8
330
747D
100
AcDbEntity
  8
細線
 48
5.0
100
AcDbLine
 10
14822.82958141817
 20
5360.0
 30
0.0
 11
14843.82958141817
 21
5360.0
 31
0.0
  0
ARC
  5
1ABE9
330
747D
100
AcDbEntity
  8
細線
 48
5.0
100
AcDbCircle
 10
14839.82958141817
 20
5308.0
 30
0.0
 40
3.0
100
AcDbArc
 50
270.0
 51
317.6846849512558
  0
LINE
  5
1ABEA
330
747D
100
AcDbEntity
  8
細線
 48
5.0
100
AcDbLine
 10
14822.82958141817
 20
5271.400000000001
 30
0.0
 11
14841.95677218061
 21
5252.846624960439
 31
0.0
  0
LINE
  5
1ABEB
330
747D
100
AcDbEntity
  8
細線
 48
5.0
100
AcDbLine
 10
14822.82958141817
 20
5232.0
 30
0.0
 11
14900.02958141817
 21
5232.0
 31
0.0
  0
ARC
  5
1ABEC
330
747D
100
AcDbEntity
  8
細線
 48
5.0
100
AcDbCircle
 10
14844.04554596898
 20
5255.0
 30
0.0
 40
3.0
100
AcDbArc
 50
225.8724571229025
 51
270.0000000000009
  0
DIMENSION
  5
1ABED
330
747D
100
AcDbEntity
  8
寸法
 48
50.0
100
AcDbDimension
  2
*D28
 10
14917.82958141817
 20
6238.281130716521
 30
0.0
 11
15250.38863653628
 21
6238.281130716521
 31
0.0
 12
631.0117701604176
 22
-11877.52646466355
 32
0.0
 70
   160
 71
     5
 42
-1.0
  3
INABA_S50G
100
AcDbAlignedDimension
 13
14822.82958141817
 23
5488.33701822684
 33
0.0
 14
14917.82958141817
 24
5485.0
 34
0.0
100
AcDbRotatedDimension
1001
ACAD
1000
DSTYLE
1002
{
1002
}
  0
LINE
  5
1ABEE
330
747D
100
AcDbEntity
  8
部品1
100
AcDbLine
 10
14822.82958141817
 20
5315.0
 30
0.0
 11
14822.82958141817
 21
5275.0
 31
0.0
  0
ARC
  5
1ABEF
330
747D
100
AcDbEntity
  8
細線
 48
5.0
100
AcDbCircle
 10
14843.32958141817
 20
5307.555305525544
 30
0.0
 40
2.0
100
AcDbArc
 50
179.9999999999999
 51
220.914383220025
  0
LINE
  5
1ABF0
330
747D
100
AcDbEntity
  8
細線
 48
5.0
100
AcDbLine
 10
14841.32958141817
 20
5319.809238873037
 30
0.0
 11
14841.32958141817
 21
5307.555305525544
 31
0.0
  0
LINE
  5
1ABF1
330
747D
100
AcDbEntity
  8
細線
 48
5.0
100
AcDbLine
 10
14822.82958141817
 20
5305.0
 30
0.0
 11
14839.82958141817
 21
5305.0
 31
0.0
  0
LINE
  5
1ABF2
330
747D
100
AcDbEntity
  8
細線
 48
5.0
100
AcDbLine
 10
14898.82958141816
 20
5345.809238873036
 30
0.0
 11
14903.82958141817
 21
5345.809238873036
 31
0.0
  0
LINE
  5
1ABF3
330
747D
100
AcDbEntity
  8
細線
 48
5.0
100
AcDbLine
 10
14852.52958141817
 20
5361.85562509697
 30
0.0
 11
14852.52958141817
 21
5350.509238873037
 31
0.0
  0
LINE
  5
1ABF4
330
747D
100
AcDbEntity
  8
細線
 48
5.0
100
AcDbLine
 10
14903.82958141817
 20
5320.809238873036
 30
0.0
 11
14905.32958141817
 21
5320.809238873036
 31
0.0
  0
LINE
  5
1ABF5
330
747D
100
AcDbEntity
  8
細線
 48
5.0
100
AcDbLine
 10
14898.82958141816
 20
5335.509238873037
 30
0.0
 11
14898.82958141816
 21
5345.809238873036
 31
0.0
  0
LINE
  5
1ABF6
330
747D
100
AcDbEntity
  8
細線
 48
5.0
100
AcDbLine
 10
14898.82958141816
 20
5345.809238873036
 30
0.0
 11
14898.82958141816
 21
5345.809238873036
 31
0.0
  0
LINE
  5
1ABF7
330
747D
100
AcDbEntity
  8
細線
 48
5.0
100
AcDbLine
 10
14904.32958141817
 20
5320.809238873036
 30
0.0
 11
14904.32958141817
 21
5320.809238873036
 31
0.0
  0
ARC
  5
1ABF8
330
747D
100
AcDbEntity
  8
細線
 48
5.0
100
AcDbCircle
 10
14905.32958141817
 20
5319.809238873037
 30
0.0
 40
1.0
100
AcDbArc
 50
0.0
 51
90.0
  0
LINE
  5
1ABF9
330
747D
100
AcDbEntity
  8
細線
 48
5.0
100
AcDbLine
 10
14894.62958141816
 20
5333.009238873037
 30
0.0
 11
14894.62958141816
 21
5333.009238873037
 31
0.0
  0
ARC
  5
1ABFA
330
747D
100
AcDbEntity
  8
細線
 48
5.0
100
AcDbCircle
 10
14897.12958141816
 20
5333.009238873037
 30
0.0
 40
2.5
100
AcDbArc
 50
90.0
 51
180.0
  0
ARC
  5
1ABFB
330
747D
100
AcDbEntity
  8
細線
 48
5.0
100
AcDbCircle
 10
14892.12958141816
 20
5333.009238873037
 30
0.0
 40
2.5
100
AcDbArc
 50
270.0
 51
0.0
  0
LINE
  5
1ABFC
330
747D
100
AcDbEntity
  8
細線
 48
5.0
100
AcDbLine
 10
14897.12958141816
 20
5335.509238873037
 30
0.0
 11
14898.82958141816
 21
5335.509238873037
 31
0.0
  0
LINE
  5
1ABFD
330
747D
100
AcDbEntity
  8
細線
 48
5.0
100
AcDbLine
 10
14903.82958141817
 20
5320.809238873036
 30
0.0
 11
14903.82958141817
 21
5345.809238873036
 31
0.0
  0
LINE
  5
1ABFE
330
747D
100
AcDbEntity
  8
細線
 48
5.0
100
AcDbLine
 10
14842.32958141817
 20
5320.809238873036
 30
0.0
 11
14843.82958141817
 21
5320.809238873036
 31
0.0
  0
LINE
  5
1ABFF
330
747D
100
AcDbEntity
  8
細線
 48
5.0
100
AcDbLine
 10
14843.32958141817
 20
5320.809238873036
 30
0.0
 11
14843.32958141817
 21
5320.809238873036
 31
0.0
  0
LINE
  5
1AC00
330
747D
100
AcDbEntity
  8
細線
 48
5.0
100
AcDbLine
 10
14843.82958141817
 20
5359.809238873037
 30
0.0
 11
14843.82958141817
 21
5332.809238873037
 31
0.0
  0
LINE
  5
1AC01
330
747D
100
AcDbEntity
  8
細線
 48
5.0
100
AcDbLine
 10
14843.82958141817
 20
5362.071889058359
 30
0.0
 11
14843.82958141817
 21
5320.809238873036
 31
0.0
  0
ARC
  5
1AC02
330
747D
100
AcDbEntity
  8
細線
 48
5.0
100
AcDbCircle
 10
14872.52958141817
 20
5350.509238873037
 30
0.0
 40
20.0
100
AcDbArc
 50
180.0
 51
270.0
  0
LINE
  5
1AC03
330
747D
100
AcDbEntity
  8
細線
 48
5.0
100
AcDbLine
 10
14872.52958141817
 20
5330.509238873037
 30
0.0
 11
14892.12958141816
 21
5330.509238873037
 31
0.0
  0
LINE
  5
1AC04
330
747D
100
AcDbEntity
  8
細線
 48
5.0
100
AcDbLine
 10
14901.12958141816
 20
5300.809238873037
 30
0.0
 11
14905.84095958375
 21
5306.245444448709
 31
0.0
  0
ARC
  5
1AC05
330
747D
100
AcDbEntity
  8
細線
 48
5.0
100
AcDbCircle
 10
14904.32958141817
 20
5307.555305525544
 30
0.0
 40
2.0
100
AcDbArc
 50
319.0856167799749
 51
359.9999999999999
  0
ARC
  5
1AC06
330
747D
100
AcDbEntity
  8
細線
 48
5.0
100
AcDbCircle
 10
14900.62958141816
 20
5287.309238873036
 30
0.0
 40
0.5
100
AcDbArc
 50
270.0
 51
0.0
  0
LINE
  5
1AC07
330
747D
100
AcDbEntity
  8
細線
 48
5.0
100
AcDbLine
 10
14898.82958141817
 20
5286.809238873036
 30
0.0
 11
14898.82958141817
 21
5252.0
 31
0.0
  0
LINE
  5
1AC08
330
747D
100
AcDbEntity
  8
細線
 48
5.0
100
AcDbLine
 10
14885.82958141817
 20
5286.809238873036
 30
0.0
 11
14885.82958141817
 21
5252.0
 31
0.0
  0
LINE
  5
1AC09
330
747D
100
AcDbEntity
  8
細線
 48
5.0
100
AcDbLine
 10
14901.12958141816
 20
5300.809238873037
 30
0.0
 11
14901.12958141816
 21
5287.309238873036
 31
0.0
  0
LINE
  5
1AC0A
330
747D
100
AcDbEntity
  8
細線
 48
5.0
100
AcDbLine
 10
14882.82958141817
 20
5290.809238873037
 30
0.0
 11
14882.82958141817
 21
5286.809238873036
 31
0.0
  0
LINE
  5
1AC0B
330
747D
100
AcDbEntity
  8
細線
 48
5.0
100
AcDbLine
 10
14867.82958141817
 20
5293.809238873037
 30
0.0
 11
14879.82958141817
 21
5293.809238873037
 31
0.0
  0
LINE
  5
1AC0C
330
747D
100
AcDbEntity
  8
細線
 48
5.0
100
AcDbLine
 10
14864.82958141817
 20
5290.809238873037
 30
0.0
 11
14864.82958141817
 21
5286.809238873036
 31
0.0
  0
LINE
  5
1AC0D
330
747D
100
AcDbEntity
  8
細線
 48
5.0
100
AcDbLine
 10
14861.82958141817
 20
5286.809238873036
 30
0.0
 11
14861.82958141817
 21
5252.0
 31
0.0
  0
ARC
  5
1AC0E
330
747D
100
AcDbEntity
  8
細線
 48
5.0
100
AcDbCircle
 10
14867.82958141817
 20
5290.809238873037
 30
0.0
 40
3.0
100
AcDbArc
 50
90.0
 51
180.0
  0
ARC
  5
1AC0F
330
747D
100
AcDbEntity
  8
細線
 48
5.0
100
AcDbCircle
 10
14847.02958141816
 20
5287.309238873036
 30
0.0
 40
0.5
100
AcDbArc
 50
180.0
 51
270.0
  0
LINE
  5
1AC10
330
747D
100
AcDbEntity
  8
細線
 48
5.0
100
AcDbLine
 10
14848.82958141816
 20
5286.809238873036
 30
0.0
 11
14848.82958141817
 21
5252.0
 31
0.0
  0
LINE
  5
1AC11
330
747D
100
AcDbEntity
  8
細線
 48
5.0
100
AcDbLine
 10
14846.52958141817
 20
5300.809238873037
 30
0.0
 11
14846.52958141817
 21
5287.309238873036
 31
0.0
  0
LINE
  5
1AC12
330
747D
100
AcDbEntity
  8
細線
 48
5.0
100
AcDbLine
 10
14853.82958141817
 20
5310.809238873037
 30
0.0
 11
14893.82958141817
 21
5310.809238873037
 31
0.0
  0
LINE
  5
1AC13
330
747D
100
AcDbEntity
  8
細線
 48
5.0
100
AcDbLine
 10
14847.02958141816
 20
5286.809238873036
 30
0.0
 11
14900.62958141816
 21
5286.809238873036
 31
0.0
  0
ARC
  5
1AC14
330
747D
100
AcDbEntity
  8
細線
 48
5.0
100
AcDbCircle
 10
14879.82958141817
 20
5290.809238873037
 30
0.0
 40
3.0
100
AcDbArc
 50
0.0
 51
90.0
  0
ARC
  5
1AC15
330
747D
100
AcDbEntity
  8
細線
 48
5.0
100
AcDbCircle
 10
14893.82958141817
 20
5320.809238873036
 30
0.0
 40
10.0
100
AcDbArc
 50
270.0
 51
0.0
  0
LINE
  5
1AC16
330
747D
100
AcDbEntity
  8
細線
 48
5.0
100
AcDbLine
 10
14906.32958141817
 20
5319.809238873037
 30
0.0
 11
14906.32958141817
 21
5307.555305525544
 31
0.0
  0
LINE
  5
1AC17
330
747D
100
AcDbEntity
  8
部品1
100
AcDbLine
 10
14898.33578614472
 20
5477.055403573377
 30
0.0
 11
14895.71977994811
 21
5484.088160010451
 31
0.0
  0
LINE
  5
1AC18
330
747D
100
AcDbEntity
  8
部品1
100
AcDbLine
 10
14917.74287520147
 20
5458.848097685026
 30
0.0
 11
14909.54444257119
 21
5381.821266955434
 31
0.0
  0
LINE
  5
1AC19
330
747D
100
AcDbEntity
  8
部品1
100
AcDbLine
 10
14906.17676303539
 20
5378.52600755111
 30
0.0
 11
14905.77792395765
 21
5374.778790062708
 31
0.0
  0
ARC
  5
1AC1A
330
747D
100
AcDbEntity
  8
部品1
 48
50.0
100
AcDbCircle
 10
14908.3511825403
 20
5381.948272855596
 30
0.0
 40
1.199999999999999
100
AcDbArc
 50
274.830006122604
 51
353.924536124901
  0
ARC
  5
1AC1B
330
747D
100
AcDbEntity
  8
部品1
 48
50.0
100
AcDbCircle
 10
14908.66272143308
 20
5378.261411925771
 30
0.0
 40
2.5
100
AcDbArc
 50
94.83000612260093
 51
173.9245361249088
  0
ARC
  5
1AC1C
330
747D
100
AcDbEntity
  8
部品1
100
AcDbCircle
 10
14902.32958141817
 20
5460.485286065472
 30
0.0
 40
15.5
100
AcDbArc
 50
353.924536124901
 51
88.13874351680366
  0
LINE
  5
1AC1D
330
747D
100
AcDbEntity
  8
細線
 48
50.0
100
AcDbLine
 10
14880.47261773352
 20
5486.707450043188
 30
0.0
 11
14876.39609294603
 21
5361.262353105303
 31
0.0
  0
ARC
  5
1AC1E
330
747D
100
AcDbEntity
  8
部品1
100
AcDbCircle
 10
14892.43937643105
 20
5482.867933488349
 30
0.0
 40
3.5
100
AcDbArc
 50
20.40391857757644
 51
88.96475328401214
  0
ARC
  5
1AC1F
330
747D
100
AcDbEntity
  8
部品1
100
AcDbCircle
 10
14890.36498189196
 20
5376.419282939831
 30
0.0
 40
15.5
100
AcDbArc
 50
269.0887044041854
 51
353.9245361249208
  0
ARC
  5
1AC20
330
747D
100
AcDbEntity
  8
部品1
100
AcDbCircle
 10
14899.76128014115
 20
5477.525647802748
 30
0.0
 40
1.5
100
AcDbArc
 50
200.4039185775898
 51
269.0981540988988
  0
LINE
  5
1AC21
330
747D
100
AcDbEntity
  8
部品1
 48
50.0
100
AcDbLine
 10
14899.73767084558
 20
5476.025833613869
 30
0.0
 11
14902.83301119892
 21
5475.977108374543
 31
0.0
  0
LINE
  5
1AC22
330
747D
100
AcDbEntity
  8
細線
 48
5.0
100
AcDbLine
 10
14844.04554596898
 20
5252.0
 30
0.0
 11
14900.02958141817
 21
5252.0
 31
0.0
  0
LINE
  5
1AC23
330
747D
100
AcDbEntity
  8
細線
 48
5.0
100
AcDbLine
 10
14900.02958141817
 20
5252.0
 30
0.0
 11
14900.02958141817
 21
5232.0
 31
0.0
  0
LINE
  5
1AC24
330
747D
100
AcDbEntity
  8
細線
 48
5.0
100
AcDbLine
 10
14847.62958141817
 20
5252.0
 30
0.0
 11
14847.62958141817
 21
5232.0
 31
0.0
  0
DIMENSION
  5
1AE97
330
747D
100
AcDbEntity
  8
寸法
 48
50.0
100
AcDbDimension
  2
*D29
 10
8362.829581418173
 20
2612.358857715331
 30
0.0
 11
8075.865998741006
 21
2612.358857715331
 31
0.0
 12
8289.030640889448
 22
1439.471773623157
 32
0.0
 70
   160
 71
     5
 42
-1.0
  3
INABA_S50G
100
AcDbAlignedDimension
 13
8562.829581418176
 23
2939.999999999999
 33
0.0
 14
8362.829581418173
 24
2939.999999999999
 34
0.0
100
AcDbRotatedDimension
  0
LINE
  5
1AE9D
330
747D
100
AcDbEntity
  8
部品1
 62
     2
 48
50.0
100
AcDbLine
 10
6677.829581418174
 20
3333.0
 30
0.0
 11
7776.329581418174
 21
3332.999999999999
 31
0.0
  0
LINE
  5
1AE9E
330
747D
100
AcDbEntity
  8
部品1
 62
     2
 48
50.0
100
AcDbLine
 10
7818.829581418174
 20
5149.5
 30
0.0
 11
6066.829581418175
 21
5149.5
 31
0.0
  0
LINE
  5
1AE9F
330
747D
100
AcDbEntity
  8
部品1
 62
     2
 48
50.0
100
AcDbLine
 10
6082.829581418174
 20
3323.999999999999
 30
0.0
 11
7802.829581418176
 21
3323.999999999999
 31
0.0
  0
LINE
  5
1AEA0
330
747D
100
AcDbEntity
  8
部品1
 62
     2
 48
50.0
100
AcDbLine
 10
7818.829581418174
 20
5187.0
 30
0.0
 11
6066.829581418175
 21
5187.0
 31
0.0
  0
LINE
  5
1AEA1
330
747D
100
AcDbEntity
  8
細線
 48
50.0
100
AcDbLine
 10
7948.829581418175
 20
5405.500036981838
 30
0.0
 11
7676.829581418175
 21
5405.500036981838
 31
0.0
  0
LINE
  5
1AEA2
330
747D
100
AcDbEntity
  8
部品1
100
AcDbLine
 10
8493.513641876283
 20
5410.000001569558
 30
0.0
 11
5972.145516590239
 21
5410.000001569567
 31
0.0
  0
LINE
  5
1AEA3
330
747D
100
AcDbEntity
  8
細線
100
AcDbLine
 10
8511.324725755612
 20
5431.045828186498
 30
0.0
 11
5954.334432710914
 21
5431.045828186505
 31
0.0
  0
LINE
  5
1AEA4
330
747D
100
AcDbEntity
  8
部品1
100
AcDbLine
 10
8488.397416958701
 20
5545.000000008446
 30
0.0
 11
5977.261741799082
 21
5545.000000008467
 31
0.0
  0
LINE
  5
1AEA5
330
747D
100
AcDbEntity
  8
細線
100
AcDbLine
 10
8502.329581418177
 20
5524.500002624811
 30
0.0
 11
5965.429712967134
 21
5524.500002624819
 31
0.0
  0
DIMENSION
  5
1AEA6
330
747D
100
AcDbEntity
  8
寸法
 48
50.0
100
AcDbDimension
  2
*D30
 10
8517.829581418176
 20
6506.068854554546
 30
0.0
 11
6652.829579233261
 21
6776.083618334073
 31
0.0
 12
8289.030640889448
 22
1269.471773623157
 32
0.0
 70
    32
 71
     5
 42
-1.0
  3
INABA_S50G
100
AcDbAlignedDimension
 13
5947.829577048348
 23
5509.000002624809
 33
0.0
 14
8517.829581418176
 24
5509.000002624809
 34
0.0
100
AcDbRotatedDimension
  0
DIMENSION
  5
1AEA7
330
747D
100
AcDbEntity
  8
寸法
 48
50.0
100
AcDbDimension
  2
*D31
 10
8462.829581418173
 20
6238.281130716521
 30
0.0
 11
7232.829581418174
 21
6338.295894496049
 31
0.0
 70
    32
  1
柱外寸法 <>
 71
     5
 42
-1.0
  3
INABA_S50G
100
AcDbAlignedDimension
 13
6002.829581418175
 23
5545.000000008467
 33
0.0
 14
8462.829581418173
 24
5545.000000008446
 34
0.0
100
AcDbRotatedDimension
1001
ACAD
1000
DSTYLE
1002
{
1070
   287
1070
     4
1070
    75
1070
     1
1070
   279
1070
     1
1002
}
  0
LINE
  5
1AEA8
330
747D
100
AcDbEntity
  8
細線
 48
50.0
100
AcDbLine
 10
7933.829581418175
 20
5319.5
 30
0.0
 11
7691.829581418175
 21
5319.5
 31
0.0
  0
LINE
  5
1AEA9
330
747D
100
AcDbEntity
  8
細線
 48
50.0
100
AcDbLine
 10
7948.829581418175
 20
5308.5
 30
0.0
 11
7676.829581418175
 21
5308.5
 31
0.0
  0
LINE
  5
1AEAA
330
747D
100
AcDbEntity
  8
細線
 48
50.0
100
AcDbLine
 10
7691.829581418175
 20
5375.5
 30
0.0
 11
7933.829581418175
 21
5375.5
 31
0.0
  0
LINE
  5
1AEAB
330
747D
100
AcDbEntity
  8
細線
 48
50.0
100
AcDbLine
 10
7691.829581418175
 20
5390.5
 30
0.0
 11
7933.829581418175
 21
5390.499999999998
 31
0.0
  0
LINE
  5
1AEAC
330
747D
100
AcDbEntity
  8
細線
 48
50.0
100
AcDbLine
 10
7691.829581418175
 20
5360.500036981837
 30
0.0
 11
7933.829581418175
 21
5360.500036981837
 31
0.0
  0
LINE
  5
1AEAD
330
747D
100
AcDbEntity
  8
細線
 48
50.0
100
AcDbLine
 10
7691.829581418175
 20
5345.5
 30
0.0
 11
7933.829581418175
 21
5345.5
 31
0.0
  0
LINE
  5
1AEAE
330
747D
100
AcDbEntity
  8
細線
 48
50.0
100
AcDbLine
 10
7691.829581418175
 20
5330.500036981837
 30
0.0
 11
7933.829581418175
 21
5330.500036981837
 31
0.0
  0
LINE
  5
1AEAF
330
747D
100
AcDbEntity
  8
部品1
 48
50.0
100
AcDbLine
 10
8462.829581418175
 20
5275.0
 30
0.0
 11
6002.829581418175
 21
5275.0
 31
0.0
  0
LINE
  5
1AEB0
330
747D
100
AcDbEntity
  8
部品1
 48
50.0
100
AcDbLine
 10
6002.829581418175
 20
3275.0
 30
0.0
 11
8462.829581418176
 21
3275.0
 31
0.0
  0
LINE
  5
1AEB1
330
747D
100
AcDbEntity
  8
部品1
 62
     2
 48
50.0
100
AcDbLine
 10
6677.829581418174
 20
5149.5
 30
0.0
 11
6677.829581418174
 21
3326.0
 31
0.0
  0
LINE
  5
1AEB2
330
747D
100
AcDbEntity
  8
部品1
 62
     2
 48
50.0
100
AcDbLine
 10
6090.829581418175
 20
5149.5
 30
0.0
 11
6090.829581418173
 21
3323.999999999999
 31
0.0
  0
LINE
  5
1AEB3
330
747D
100
AcDbEntity
  8
部品1
 62
     2
 48
50.0
100
AcDbLine
 10
6066.829581418175
 20
5187.0
 30
0.0
 11
6066.829581418174
 21
3275.0
 31
0.0
  0
LINE
  5
1AEB4
330
747D
100
AcDbEntity
  8
部品1
 48
50.0
100
AcDbLine
 10
6072.829581418175
 20
5275.0
 30
0.0
 11
6072.829581418175
 21
5187.0
 31
0.0
  0
LINE
  5
1AEB5
330
747D
100
AcDbEntity
  8
部品1
 48
50.0
100
AcDbLine
 10
6002.829581418175
 20
5410.000001569567
 30
0.0
 11
6002.829581418175
 21
3140.0
 31
0.0
  0
LINE
  5
1AEB6
330
747D
100
AcDbEntity
  8
部品1
 48
50.0
100
AcDbLine
 10
7818.829581418175
 20
3330.000000000001
 30
0.0
 11
8392.829581418176
 21
3330.000000000001
 31
0.0
  0
LINE
  5
1AEB8
330
747D
100
AcDbEntity
  8
破線
 48
5.0
100
AcDbLine
 10
5902.829581418177
 20
3140.0
 30
0.0
 11
5902.829581418177
 21
2939.999999999999
 31
0.0
  0
LINE
  5
1AEB9
330
747D
100
AcDbEntity
  8
破線
 48
5.0
100
AcDbLine
 10
6102.829581418177
 20
3140.0
 30
0.0
 11
6102.829581418177
 21
2939.999999999999
 31
0.0
  0
LINE
  5
1AEBA
330
747D
100
AcDbEntity
  8
破線
 48
5.0
100
AcDbLine
 10
5997.829581418177
 20
3140.0
 30
0.0
 11
5997.829581418177
 21
3030.0
 31
0.0
  0
LINE
  5
1AEBB
330
747D
100
AcDbEntity
  8
破線
 48
5.0
100
AcDbLine
 10
5902.829581418177
 20
2939.999999999999
 30
0.0
 11
6102.829581418178
 21
2939.999999999999
 31
0.0
  0
LINE
  5
1AEBC
330
747D
100
AcDbEntity
  8
破線
 48
5.0
100
AcDbLine
 10
5977.829581418177
 20
3030.0
 30
0.0
 11
5997.829581418178
 21
3030.0
 31
0.0
  0
LINE
  5
1AEBD
330
747D
100
AcDbEntity
  8
部品1
100
AcDbLine
 10
5997.829581418177
 20
3314.999999999999
 30
0.0
 11
5997.829581418177
 21
3140.0
 31
0.0
  0
LINE
  5
1AEBE
330
747D
100
AcDbEntity
  8
部品1
 62
     2
 48
50.0
100
AcDbLine
 10
6090.829581418173
 20
3326.0
 30
0.0
 11
6677.829581418174
 21
3326.0
 31
0.0
  0
LINE
  5
1AEBF
330
747D
100
AcDbEntity
  8
部品1
 48
50.0
100
AcDbLine
 10
6402.829581418174
 20
3275.0
 30
0.0
 11
6402.829581418174
 21
3140.0
 31
0.0
  0
LINE
  5
1AEC0
330
747D
100
AcDbEntity
  8
部品1
 62
     2
 48
50.0
100
AcDbLine
 10
6082.829581418174
 20
3323.999999999999
 30
0.0
 11
6082.829581418174
 21
3275.0
 31
0.0
  0
LINE
  5
1AEC1
330
747D
100
AcDbEntity
  8
部品1
 48
50.0
100
AcDbLine
 10
6932.829581418174
 20
3275.0
 30
0.0
 11
6932.829581418174
 21
3140.0
 31
0.0
  0
LINE
  5
1AEC2
330
747D
100
AcDbEntity
  8
部品1
 48
50.0
100
AcDbLine
 10
7332.829581418174
 20
3275.0
 30
0.0
 11
7332.829581418174
 21
3140.0
 31
0.0
  0
LINE
  5
1AEC3
330
747D
100
AcDbEntity
  8
部品1
 62
     2
 48
50.0
100
AcDbLine
 10
6130.329581418173
 20
4250.000000000002
 30
0.0
 11
6130.329581418173
 21
4216.0
 31
0.0
  0
LINE
  5
1AEC4
330
747D
100
AcDbEntity
  8
部品1
 62
     2
 48
50.0
100
AcDbLine
 10
6118.329581418174
 20
4250.0
 30
0.0
 11
6118.329581418177
 21
4216.0
 31
0.0
  0
ARC
  5
1AEC5
330
747D
100
AcDbEntity
  8
部品1
 62
     2
 48
50.0
100
AcDbCircle
 10
2184.329581418174
 20
4187.0
 30
0.0
 40
4000.0
100
AcDbArc
 50
359.0098658739685
 51
0.9901341260314108
  0
ARC
  5
1AEC6
330
747D
100
AcDbEntity
  8
部品1
 62
     2
 48
50.0
100
AcDbCircle
 10
2184.329581418174
 20
4187.0
 30
0.0
 40
3991.0
100
AcDbArc
 50
359.0804695823139
 51
0.9195304176861213
  0
LINE
  5
1AEC7
330
747D
100
AcDbEntity
  8
部品1
 62
     2
 48
50.0
100
AcDbLine
 10
6145.329581418174
 20
4251.0
 30
0.0
 11
6145.329581418174
 21
4123.0
 31
0.0
  0
ARC
  5
1AEC8
330
747D
100
AcDbEntity
  8
部品1
 62
     2
 48
50.0
100
AcDbCircle
 10
6507.329581418173
 20
4187.0
 30
0.0
 40
405.0
100
AcDbArc
 50
170.0163680567114
 51
189.9836319432886
  0
ARC
  5
1AEC9
330
747D
100
AcDbEntity
  8
部品1
 62
     2
 48
50.0
100
AcDbCircle
 10
6121.329581418177
 20
4216.0
 30
0.0
 40
3.0
100
AcDbArc
 50
180.0000000000025
 51
270.0
  0
LINE
  5
1AECA
330
747D
100
AcDbEntity
  8
部品1
 62
     2
 48
50.0
100
AcDbLine
 10
6127.329581418173
 20
4213.0
 30
0.0
 11
6121.329581418177
 21
4213.0
 31
0.0
  0
ARC
  5
1AECB
330
747D
100
AcDbEntity
  8
部品1
 62
     2
 48
50.0
100
AcDbCircle
 10
6127.329581418173
 20
4216.0
 30
0.0
 40
3.0
100
AcDbArc
 50
270.0
 51
0.0
  0
ARC
  5
1AECC
330
747D
100
AcDbEntity
  8
部品1
 62
     2
 48
50.0
100
AcDbCircle
 10
6176.733368612048
 20
4118.0
 30
0.0
 40
7.0
100
AcDbArc
 50
270.0
 51
359.009865873969
  0
LINE
  5
1AECD
330
747D
100
AcDbEntity
  8
部品1
 62
     2
 48
50.0
100
AcDbLine
 10
6148.329581418174
 20
4120.0
 30
0.0
 11
6171.816007727361
 21
4120.000000000001
 31
0.0
  0
ARC
  5
1AECE
330
747D
100
AcDbEntity
  8
部品1
 62
     2
 48
50.0
100
AcDbCircle
 10
6148.329581418174
 20
4123.0
 30
0.0
 40
3.0
100
AcDbArc
 50
179.9999999999996
 51
270.0000000000035
  0
ARC
  5
1AECF
330
747D
100
AcDbEntity
  8
部品1
 62
     2
 48
50.0
100
AcDbCircle
 10
6171.816007727361
 20
4123.000000000001
 30
0.0
 40
3.0
100
AcDbArc
 50
270.0
 51
359.0804695823297
  0
LINE
  5
1AED0
330
747D
100
AcDbEntity
  8
部品1
 62
     2
 48
50.0
100
AcDbLine
 10
6127.329581418173
 20
4161.0
 30
0.0
 11
6121.329581418177
 21
4161.0
 31
0.0
  0
ARC
  5
1AED1
330
747D
100
AcDbEntity
  8
部品1
 62
     2
 48
50.0
100
AcDbCircle
 10
6127.329581418173
 20
4158.0
 30
0.0
 40
3.0
100
AcDbArc
 50
0.0
 51
90.0
  0
ARC
  5
1AED2
330
747D
100
AcDbEntity
  8
部品1
 62
     2
 48
50.0
100
AcDbCircle
 10
6121.329581418177
 20
4158.0
 30
0.0
 40
3.0
100
AcDbArc
 50
90.0
 51
179.9999999999974
  0
LINE
  5
1AED3
330
747D
100
AcDbEntity
  8
部品1
 62
     2
 48
50.0
100
AcDbLine
 10
6127.329581418173
 20
4121.0
 30
0.0
 11
6121.329581418174
 21
4121.0
 31
0.0
  0
ARC
  5
1AED4
330
747D
100
AcDbEntity
  8
部品1
 62
     2
 48
50.0
100
AcDbCircle
 10
6121.329581418174
 20
4124.0
 30
0.0
 40
3.0
100
AcDbArc
 50
179.9999999999971
 51
270.0
  0
ARC
  5
1AED5
330
747D
100
AcDbEntity
  8
部品1
 62
     2
 48
50.0
100
AcDbCircle
 10
6127.329581418173
 20
4124.0
 30
0.0
 40
3.0
100
AcDbArc
 50
270.0
 51
0.0
  0
ARC
  5
1AED6
330
747D
100
AcDbEntity
  8
部品1
 62
     2
 48
50.0
100
AcDbCircle
 10
6115.35636804767
 20
4118.0
 30
0.0
 40
7.0
100
AcDbArc
 50
189.983631943288
 51
270.0
  0
LINE
  5
1AED7
330
747D
100
AcDbEntity
  8
部品1
 62
     2
 48
50.0
100
AcDbLine
 10
6118.329581418174
 20
4124.0
 30
0.0
 11
6118.329581418177
 21
4158.0
 31
0.0
  0
LINE
  5
1AED8
330
747D
100
AcDbEntity
  8
部品1
 62
     2
 48
50.0
100
AcDbLine
 10
6130.329581418173
 20
4124.0
 30
0.0
 11
6130.329581418173
 21
4158.0
 31
0.0
  0
LINE
  5
1AED9
330
747D
100
AcDbEntity
  8
部品1
 62
     2
 48
50.0
100
AcDbLine
 10
6176.733368612048
 20
4111.0
 30
0.0
 11
6115.35636804767
 21
4111.0
 31
0.0
  0
CIRCLE
  5
1AEDA
330
747D
100
AcDbEntity
  8
部品1
 62
     2
 48
50.0
100
AcDbCircle
 10
6124.329581418174
 20
4187.0
 30
0.0
 40
17.0
  0
ARC
  5
1AEDB
330
747D
100
AcDbEntity
  8
部品1
 62
     2
 48
50.0
100
AcDbCircle
 10
6176.733368612048
 20
4256.0
 30
0.0
 40
7.0
100
AcDbArc
 50
0.9901341260309951
 51
90.0
  0
LINE
  5
1AEDC
330
747D
100
AcDbEntity
  8
部品1
 62
     2
 48
50.0
100
AcDbLine
 10
6148.329581418174
 20
4254.0
 30
0.0
 11
6171.816007727361
 21
4254.0
 31
0.0
  0
ARC
  5
1AEDD
330
747D
100
AcDbEntity
  8
部品1
 62
     2
 48
50.0
100
AcDbCircle
 10
6171.816007727361
 20
4251.0
 30
0.0
 40
3.0
100
AcDbArc
 50
0.9195304176876355
 51
90.0
  0
ARC
  5
1AEDE
330
747D
100
AcDbEntity
  8
部品1
 62
     2
 48
50.0
100
AcDbCircle
 10
6148.329581418174
 20
4251.0
 30
0.0
 40
3.0
100
AcDbArc
 50
90.0
 51
179.9999999999992
  0
ARC
  5
1AEDF
330
747D
100
AcDbEntity
  8
部品1
 62
     2
 48
50.0
100
AcDbCircle
 10
6127.329581418173
 20
4250.000000000002
 30
0.0
 40
3.0
100
AcDbArc
 50
0.0
 51
90.00000000000003
  0
LINE
  5
1AEE0
330
747D
100
AcDbEntity
  8
部品1
 62
     2
 48
50.0
100
AcDbLine
 10
6127.329581418173
 20
4253.000000000002
 30
0.0
 11
6121.329581418174
 21
4253.0
 31
0.0
  0
ARC
  5
1AEE1
330
747D
100
AcDbEntity
  8
部品1
 62
     2
 48
50.0
100
AcDbCircle
 10
6121.329581418174
 20
4250.0
 30
0.0
 40
3.0
100
AcDbArc
 50
90.00000000000003
 51
180.0000000000027
  0
ARC
  5
1AEE2
330
747D
100
AcDbEntity
  8
部品1
 62
     2
 48
50.0
100
AcDbCircle
 10
6115.35636804767
 20
4256.0
 30
0.0
 40
7.0
100
AcDbArc
 50
90.0
 51
170.0163680567111
  0
LINE
  5
1AEE3
330
747D
100
AcDbEntity
  8
部品1
 62
     2
 48
50.0
100
AcDbLine
 10
6176.733368612048
 20
4263.0
 30
0.0
 11
6115.35636804767
 21
4263.0
 31
0.0
  0
DIMENSION
  5
1AEE4
330
747D
100
AcDbEntity
  8
寸法
 48
50.0
100
AcDbDimension
  2
*D32
 10
6002.829581418175
 20
6238.281130716521
 30
0.0
 11
5622.770526300063
 21
6238.281130716521
 31
0.0
 12
8289.030640889448
 22
1269.471773623157
 32
0.0
 70
   160
 71
     5
 42
-1.0
  3
INABA_S50G
100
AcDbAlignedDimension
 13
5947.829577048348
 23
5509.000002624809
 33
0.0
 14
6002.829581418175
 24
5545.000000008467
 34
0.0
100
AcDbRotatedDimension
  0
LINE
  5
1AEE5
330
747D
100
AcDbEntity
  8
細線
 48
50.0
100
AcDbLine
 10
5985.829581709431
 20
5410.000001569558
 30
0.0
 11
5985.829581709431
 21
5545.0
 31
0.0
  0
ARC
  5
1AEE6
330
747D
100
AcDbEntity
  8
部品1
100
AcDbCircle
 10
5963.329577048347
 20
5509.000002624809
 30
0.0
 40
15.5
100
AcDbArc
 50
90.00000000000033
 51
183.979378091838
  0
LINE
  5
1AEE7
330
747D
100
AcDbEntity
  8
部品1
100
AcDbLine
 10
5947.866946116
 20
5507.92434252513
 30
0.0
 11
5953.137325800022
 21
5432.162551275553
 31
0.0
  0
ARC
  5
1AEE8
330
747D
100
AcDbEntity
  8
部品1
100
AcDbCircle
 10
5954.334432710914
 20
5432.245828186495
 30
0.0
 40
1.199999999999999
100
AcDbArc
 50
183.979378091838
 51
270.0000000000002
  0
ARC
  5
1AEE9
330
747D
100
AcDbEntity
  8
部品1
100
AcDbCircle
 10
5953.888253715103
 20
5428.572828826122
 30
0.0
 40
2.5
100
AcDbArc
 50
3.979378091802891
 51
83.07390809407314
  0
LINE
  5
1AEEA
330
747D
100
AcDbEntity
  8
部品1
100
AcDbLine
 10
5956.382226446125
 20
5428.746322390583
 30
0.0
 11
5956.682885657892
 21
5424.424341469881
 31
0.0
  0
ARC
  5
1AEEB
330
747D
100
AcDbEntity
  8
部品1
100
AcDbCircle
 10
5972.145516590239
 20
5425.50000156956
 30
0.0
 40
15.5
100
AcDbArc
 50
183.9793780918396
 51
270.0
  0
LINE
  5
1AEEC
330
747D
100
AcDbEntity
  8
部品1
 48
50.0
100
AcDbLine
 10
5963.329577048347
 20
5524.500002624809
 30
0.0
 11
5965.429712967134
 21
5524.500002624819
 31
0.0
  0
LINE
  5
1AEED
330
747D
100
AcDbEntity
  8
部品1
100
AcDbLine
 10
5966.81553222221
 20
5525.425977370787
 30
0.0
 11
5974.028406396048
 21
5542.839392276281
 31
0.0
  0
ARC
  5
1AEEE
330
747D
100
AcDbEntity
  8
部品1
100
AcDbCircle
 10
5965.429712967134
 20
5526.000002624811
 30
0.0
 40
1.5
100
AcDbArc
 50
270.0000000000002
 51
337.4999956391484
  0
ARC
  5
1AEEF
330
747D
100
AcDbEntity
  8
部品1
100
AcDbCircle
 10
5977.261984657895
 20
5541.500000016893
 30
0.0
 40
3.5
100
AcDbArc
 50
90.0
 51
157.4999956391549
  0
LINE
  5
1AEF0
330
747D
100
AcDbEntity
  8
細線
 48
50.0
100
AcDbLine
 10
6788.829581418174
 20
5405.500036981838
 30
0.0
 11
6516.829581418175
 21
5405.500036981838
 31
0.0
  0
LINE
  5
1AEF1
330
747D
100
AcDbEntity
  8
細線
 48
50.0
100
AcDbLine
 10
6531.829581418175
 20
5330.500036981837
 30
0.0
 11
6773.829581418175
 21
5330.500036981837
 31
0.0
  0
LINE
  5
1AEF2
330
747D
100
AcDbEntity
  8
細線
 48
50.0
100
AcDbLine
 10
6531.829581418175
 20
5345.5
 30
0.0
 11
6773.829581418175
 21
5345.5
 31
0.0
  0
LINE
  5
1AEF3
330
747D
100
AcDbEntity
  8
細線
 48
50.0
100
AcDbLine
 10
6531.829581418175
 20
5360.500036981837
 30
0.0
 11
6773.829581418175
 21
5360.500036981837
 31
0.0
  0
LINE
  5
1AEF4
330
747D
100
AcDbEntity
  8
細線
 48
50.0
100
AcDbLine
 10
6531.829581418175
 20
5390.5
 30
0.0
 11
6773.829581418175
 21
5390.499999999998
 31
0.0
  0
LINE
  5
1AEF5
330
747D
100
AcDbEntity
  8
細線
 48
50.0
100
AcDbLine
 10
6531.829581418175
 20
5375.5
 30
0.0
 11
6773.829581418175
 21
5375.5
 31
0.0
  0
LINE
  5
1AEF6
330
747D
100
AcDbEntity
  8
細線
 48
50.0
100
AcDbLine
 10
6788.829581418174
 20
5308.5
 30
0.0
 11
6516.829581418175
 21
5308.5
 31
0.0
  0
LINE
  5
1AEF7
330
747D
100
AcDbEntity
  8
細線
 48
50.0
100
AcDbLine
 10
6773.829581418175
 20
5319.5
 30
0.0
 11
6531.829581418175
 21
5319.5
 31
0.0
  0
ARC
  5
1AEF8
330
747D
100
AcDbEntity
  8
細線
 48
50.0
100
AcDbCircle
 10
6516.829581418175
 20
5318.5
 30
0.0
 40
10.0
100
AcDbArc
 50
180.0
 51
270.0
  0
LINE
  5
1AEF9
330
747D
100
AcDbEntity
  8
細線
 48
50.0
100
AcDbLine
 10
6531.829581418175
 20
5308.5
 30
0.0
 11
6531.829581418175
 21
5309.0
 31
0.0
  0
ARC
  5
1AEFA
330
747D
100
AcDbEntity
  8
細線
 48
50.0
100
AcDbCircle
 10
6516.829581418175
 20
5395.500036981837
 30
0.0
 40
10.0
100
AcDbArc
 50
90.0
 51
180.0
  0
LINE
  5
1AEFB
330
747D
100
AcDbEntity
  8
細線
 48
50.0
100
AcDbLine
 10
6531.829581418175
 20
5405.500036981838
 30
0.0
 11
6531.829581418175
 21
5308.5
 31
0.0
  0
LINE
  5
1AEFC
330
747D
100
AcDbEntity
  8
細線
 48
50.0
100
AcDbLine
 10
6506.829581418175
 20
5395.500036981837
 30
0.0
 11
6506.829581418175
 21
5318.5
 31
0.0
  0
LINE
  5
1AEFD
330
747D
100
AcDbEntity
  8
部品1
 48
50.0
100
AcDbLine
 10
7812.829581418175
 20
5275.0
 30
0.0
 11
7812.829581418175
 21
5187.0
 31
0.0
  0
LINE
  5
1AEFE
330
747D
100
AcDbEntity
  8
細線
 48
50.0
100
AcDbLine
 10
6612.829581418175
 20
5319.5
 30
0.0
 11
6612.829581418175
 21
5390.5
 31
0.0
  0
LINE
  5
1AEFF
330
747D
100
AcDbEntity
  8
細線
 48
50.0
100
AcDbLine
 10
6692.829581418175
 20
5319.5
 30
0.0
 11
6692.829581418175
 21
5390.5
 31
0.0
  0
ARC
  5
1AF00
330
747D
100
AcDbEntity
  8
細線
 48
50.0
100
AcDbCircle
 10
6788.829581418174
 20
5318.5
 30
0.0
 40
10.0
100
AcDbArc
 50
270.0
 51
359.9999999999998
  0
LINE
  5
1AF01
330
747D
100
AcDbEntity
  8
細線
 48
50.0
100
AcDbLine
 10
6773.829581418175
 20
5308.5
 30
0.0
 11
6773.829581418175
 21
5309.0
 31
0.0
  0
ARC
  5
1AF02
330
747D
100
AcDbEntity
  8
細線
 48
50.0
100
AcDbCircle
 10
6788.829581418174
 20
5395.500036981837
 30
0.0
 40
10.0
100
AcDbArc
 50
359.9999999999998
 51
90.0
  0
LINE
  5
1AF03
330
747D
100
AcDbEntity
  8
細線
 48
50.0
100
AcDbLine
 10
6773.829581418175
 20
5405.500036981838
 30
0.0
 11
6773.829581418175
 21
5308.5
 31
0.0
  0
LINE
  5
1AF04
330
747D
100
AcDbEntity
  8
細線
 48
50.0
100
AcDbLine
 10
6798.829581418175
 20
5395.500036981837
 30
0.0
 11
6798.829581418175
 21
5318.5
 31
0.0
  0
LINE
  5
1AF05
330
747D
100
AcDbEntity
  8
細線
 48
50.0
100
AcDbLine
 10
7772.829581418175
 20
5319.5
 30
0.0
 11
7772.829581418175
 21
5390.5
 31
0.0
  0
LINE
  5
1AF06
330
747D
100
AcDbEntity
  8
細線
 48
50.0
100
AcDbLine
 10
7666.829581418174
 20
5395.500036981837
 30
0.0
 11
7666.829581418174
 21
5318.5
 31
0.0
  0
ARC
  5
1AF07
330
747D
100
AcDbEntity
  8
細線
 48
50.0
100
AcDbCircle
 10
7676.829581418175
 20
5395.500036981837
 30
0.0
 40
10.0
100
AcDbArc
 50
90.0
 51
180.0
  0
LINE
  5
1AF08
330
747D
100
AcDbEntity
  8
細線
 48
50.0
100
AcDbLine
 10
7691.829581418175
 20
5308.5
 30
0.0
 11
7691.829581418175
 21
5309.0
 31
0.0
  0
LINE
  5
1AF09
330
747D
100
AcDbEntity
  8
細線
 48
50.0
100
AcDbLine
 10
7691.829581418175
 20
5405.500036981838
 30
0.0
 11
7691.829581418175
 21
5308.5
 31
0.0
  0
ARC
  5
1AF0A
330
747D
100
AcDbEntity
  8
細線
 48
50.0
100
AcDbCircle
 10
7676.829581418175
 20
5318.5
 30
0.0
 40
10.0
100
AcDbArc
 50
180.0
 51
270.0
  0
LINE
  5
1AF0B
330
747D
100
AcDbEntity
  8
部品1
 62
     2
 48
50.0
100
AcDbLine
 10
7250.329581418175
 20
5149.5
 30
0.0
 11
7250.329581418174
 21
3333.0
 31
0.0
  0
LINE
  5
1AF0C
330
747D
100
AcDbEntity
  8
部品1
 62
     2
 48
50.0
100
AcDbLine
 10
7794.829581418174
 20
5149.5
 30
0.0
 11
7794.829581418174
 21
3323.999999999999
 31
0.0
  0
LINE
  5
1AF0D
330
747D
100
AcDbEntity
  8
部品1
 62
     2
 48
50.0
100
AcDbLine
 10
7818.829581418174
 20
5187.0
 30
0.0
 11
7818.829581418174
 21
3275.0
 31
0.0
  0
DIMENSION
  5
1AF0E
330
747D
100
AcDbEntity
  8
寸法
 48
50.0
100
AcDbDimension
  2
*D33
 10
9118.934533249726
 20
5302.0
 30
0.0
 11
9018.934533249725
 21
4322.000000000001
 31
0.0
 70
    32
  1
内高 <>
 71
     5
 42
-1.0
  3
INABA_S50G
100
AcDbAlignedDimension
 13
8462.829581418175
 23
3342.0
 33
0.0
 14
8462.829581418173
 24
5302.0
 34
0.0
 50
90.0
100
AcDbRotatedDimension
1001
ACAD
1000
DSTYLE
1002
{
1070
   287
1070
     4
1070
    75
1070
     1
1070
   279
1070
     1
1002
}
  0
LINE
  5
1AF0F
330
747D
100
AcDbEntity
  8
部品1
 48
50.0
100
AcDbLine
 10
8462.829581418173
 20
5410.000001569558
 30
0.0
 11
8462.829581418175
 21
3140.0
 31
0.0
  0
DIMENSION
  5
1AF10
330
747D
100
AcDbEntity
  8
寸法
 48
50.0
100
AcDbDimension
  2
*D34
 10
9118.934533249726
 20
3342.0
 30
0.0
 11
9118.934533249726
 21
2978.697597487494
 31
0.0
 12
8289.030640889448
 22
1439.471773623157
 32
0.0
 70
   160
 71
     5
 42
-1.0
  3
INABA_S50G
100
AcDbAlignedDimension
 13
8462.829581418175
 23
3275.0
 33
0.0
 14
8462.829581418175
 24
3342.0
 34
0.0
 50
90.0
100
AcDbRotatedDimension
  0
LINE
  5
1AF11
330
747D
100
AcDbEntity
  8
部品1
 48
50.0
100
AcDbLine
 10
8062.829581418176
 20
3275.0
 30
0.0
 11
8062.829581418176
 21
3140.0
 31
0.0
  0
LINE
  5
1AF12
330
747D
100
AcDbEntity
  8
破線
 48
5.0
100
AcDbLine
 10
8467.829581418175
 20
3140.0
 30
0.0
 11
8467.829581418175
 21
3030.0
 31
0.0
  0
LINE
  5
1AF13
330
747D
100
AcDbEntity
  8
破線
 48
5.0
100
AcDbLine
 10
8362.829581418175
 20
3140.0
 30
0.0
 11
8362.829581418175
 21
2939.999999999999
 31
0.0
  0
LINE
  5
1AF14
330
747D
100
AcDbEntity
  8
破線
 48
5.0
100
AcDbLine
 10
8562.829581418176
 20
3140.0
 30
0.0
 11
8562.829581418176
 21
2939.999999999999
 31
0.0
  0
LINE
  5
1AF15
330
747D
100
AcDbEntity
  8
破線
 48
5.0
100
AcDbLine
 10
8562.829581418176
 20
2939.999999999999
 30
0.0
 11
8362.829581418173
 21
2939.999999999999
 31
0.0
  0
LINE
  5
1AF16
330
747D
100
AcDbEntity
  8
破線
 48
5.0
100
AcDbLine
 10
8487.829581418175
 20
3030.0
 30
0.0
 11
8467.829581418174
 21
3030.0
 31
0.0
  0
LINE
  5
1AF17
330
747D
100
AcDbEntity
  8
部品1
 62
     2
 48
50.0
100
AcDbLine
 10
7776.329581418174
 20
3332.999999999999
 30
0.0
 11
7782.329581418174
 21
3323.999999999999
 31
0.0
  0
LINE
  5
1AF18
330
747D
100
AcDbEntity
  8
部品1
 62
     2
 48
50.0
100
AcDbLine
 10
7802.829581418176
 20
3323.999999999999
 30
0.0
 11
7802.829581418174
 21
3275.0
 31
0.0
  0
LINE
  5
1AF19
330
747D
100
AcDbEntity
  8
部品1
100
AcDbLine
 10
8467.829581418175
 20
3314.999999999999
 30
0.0
 11
8467.829581418175
 21
3140.0
 31
0.0
  0
DIMENSION
  5
1AF1A
330
747D
100
AcDbEntity
  8
寸法
 48
50.0
100
AcDbDimension
  2
*D35
 10
8517.829581418176
 20
6238.281130716521
 30
0.0
 11
8832.888636536287
 21
6238.281130716521
 31
0.0
 12
8289.030640889448
 22
1269.471773623157
 32
0.0
 70
   160
 71
     5
 42
-1.0
  3
INABA_S50G
100
AcDbAlignedDimension
 13
8462.829581418173
 23
5545.000000008446
 33
0.0
 14
8517.829581418176
 24
5509.000002624809
 34
0.0
100
AcDbRotatedDimension
1001
ACAD
1000
DSTYLE
1002
{
1002
}
  0
LINE
  5
1AF1B
330
747D
100
AcDbEntity
  8
細線
 48
50.0
100
AcDbLine
 10
8479.829577048349
 20
5410.000001569558
 30
0.0
 11
8479.829577048349
 21
5545.0
 31
0.0
  0
ARC
  5
1AF1C
330
747D
100
AcDbEntity
  8
部品1
100
AcDbCircle
 10
8502.329581418177
 20
5509.000002624809
 30
0.0
 40
15.5
100
AcDbArc
 50
356.0206219081619
 51
89.99999999999968
  0
LINE
  5
1AF1D
330
747D
100
AcDbEntity
  8
細線
 48
50.0
100
AcDbLine
 10
7958.829581418175
 20
5395.500036981837
 30
0.0
 11
7958.829581418175
 21
5318.5
 31
0.0
  0
ARC
  5
1AF1E
330
747D
100
AcDbEntity
  8
細線
 48
50.0
100
AcDbCircle
 10
7948.829581418175
 20
5395.500036981837
 30
0.0
 40
10.0
100
AcDbArc
 50
359.9999999999998
 51
90.0
  0
LINE
  5
1AF1F
330
747D
100
AcDbEntity
  8
細線
 48
50.0
100
AcDbLine
 10
7852.829581418174
 20
5319.5
 30
0.0
 11
7852.829581418174
 21
5390.5
 31
0.0
  0
LINE
  5
1AF20
330
747D
100
AcDbEntity
  8
細線
 48
50.0
100
AcDbLine
 10
7933.829581418175
 20
5308.5
 30
0.0
 11
7933.829581418175
 21
5309.0
 31
0.0
  0
LINE
  5
1AF21
330
747D
100
AcDbEntity
  8
細線
 48
50.0
100
AcDbLine
 10
7933.829581418175
 20
5405.500036981838
 30
0.0
 11
7933.829581418175
 21
5308.5
 31
0.0
  0
ARC
  5
1AF22
330
747D
100
AcDbEntity
  8
細線
 48
50.0
100
AcDbCircle
 10
7948.829581418175
 20
5318.5
 30
0.0
 40
10.0
100
AcDbArc
 50
270.0
 51
359.9999999999998
  0
LINE
  5
1AF23
330
747D
100
AcDbEntity
  8
部品1
 48
50.0
100
AcDbLine
 10
8392.829581418174
 20
5275.0
 30
0.0
 11
8392.829581418176
 21
3275.0
 31
0.0
  0
LINE
  5
1AF24
330
747D
100
AcDbEntity
  8
部品1
100
AcDbLine
 10
8517.792212350524
 20
5507.92434252513
 30
0.0
 11
8512.521832666502
 21
5432.162551275553
 31
0.0
  0
ARC
  5
1AF25
330
747D
100
AcDbEntity
  8
部品1
100
AcDbCircle
 10
8511.77090475142
 20
5428.572828826122
 30
0.0
 40
2.5
100
AcDbArc
 50
96.92609190592689
 51
176.0206219081971
  0
ARC
  5
1AF26
330
747D
100
AcDbEntity
  8
部品1
100
AcDbCircle
 10
8511.324725755612
 20
5432.245828186495
 30
0.0
 40
1.199999999999999
100
AcDbArc
 50
269.9999999999997
 51
356.0206219081619
  0
ARC
  5
1AF27
330
747D
100
AcDbEntity
  8
部品1
100
AcDbCircle
 10
8493.513641876283
 20
5425.50000156956
 30
0.0
 40
15.5
100
AcDbArc
 50
270.0
 51
356.0206219081603
  0
LINE
  5
1AF28
330
747D
100
AcDbEntity
  8
部品1
100
AcDbLine
 10
8509.276932020396
 20
5428.746322390583
 30
0.0
 11
8508.976272808631
 21
5424.424341469881
 31
0.0
  0
ARC
  5
1AF29
330
747D
100
AcDbEntity
  8
部品1
100
AcDbCircle
 10
8500.229445499391
 20
5526.000002624811
 30
0.0
 40
1.5
100
AcDbArc
 50
202.5000043608516
 51
269.9999999999997
  0
ARC
  5
1AF2A
330
747D
100
AcDbEntity
  8
部品1
100
AcDbCircle
 10
8488.397173808628
 20
5541.500000016893
 30
0.0
 40
3.5
100
AcDbArc
 50
22.50000436084501
 51
90.0
  0
LINE
  5
1AF2B
330
747D
100
AcDbEntity
  8
部品1
100
AcDbLine
 10
8498.843626244314
 20
5525.425977370787
 30
0.0
 11
8491.630752070475
 21
5542.839392276281
 31
0.0
  0
LINE
  5
1B230
330
747D
100
AcDbEntity
  8
細線
 48
50.0
100
AcDbLine
 10
6378.829581418163
 20
9292.236797361971
 30
0.0
 11
6378.829581418163
 21
11049.73679736197
 31
0.0
  0
LINE
  5
1B231
330
747D
100
AcDbEntity
  8
細線
 48
50.0
100
AcDbLine
 10
6958.829581418163
 20
9292.236797361971
 30
0.0
 11
6958.829581418163
 21
11049.73679736197
 31
0.0
  0
LINE
  5
1B232
330
747D
100
AcDbEntity
  8
細線
 48
50.0
100
AcDbLine
 10
7538.829581418166
 20
9287.73679736197
 30
0.0
 11
7538.829581418164
 21
11049.73679736197
 31
0.0
  0
LINE
  5
1B233
330
747D
100
AcDbEntity
  8
細線
 48
50.0
100
AcDbLine
 10
8118.829581418163
 20
9287.73679736197
 30
0.0
 11
8118.829581418165
 21
11049.73679736197
 31
0.0
  0
MTEXT
  5
1B448
102
{ACAD_REACTORS
330
1B449
102
}
330
747D
100
AcDbEntity
  8
部品1
 62
     7
 48
50.0
100
AcDbMText
 10
13941.06372606969
 20
8716.282041753727
 30
0.0
 40
150.0
 41
0.0
 71
     4
 72
     1
  1
\A1;根太
  7
STYLE1
 73
     1
 44
1.0
  0
LEADER
  5
1B449
330
747D
100
AcDbEntity
  8
寸法
 48
50.0
100
AcDbLeader
  3
INABA_S50G
 71
     0
 73
     0
 74
     0
 75
     1
 40
150.0
 41
330.0
 76
     3
 10
13612.82958141817
 20
9382.720225287025
 30
0.0
 10
13791.06372606969
 20
8616.282041753727
 30
0.0
 10
13916.06372606969
 20
8616.282041753727
 30
0.0
340
1B448
1001
ACAD
1000
DSTYLE
1002
{
1070
     6
1000
DOTSMALL
1002
}
  0
MTEXT
  5
1B44A
102
{ACAD_REACTORS
330
1B44B
102
}
330
747D
100
AcDbEntity
  8
部品1
 62
     7
 48
50.0
100
AcDbMText
 10
13009.09060856884
 20
8716.282041753725
 30
0.0
 40
150.0
 41
0.0
 71
     6
 72
     1
  1
\A1;土台中央
  7
STYLE1
 73
     1
 44
1.0
  0
LEADER
  5
1B44B
330
747D
100
AcDbEntity
  8
寸法
 48
50.0
100
AcDbLeader
  3
INABA_S50G
 71
     0
 73
     0
 75
     1
 40
150.0
 41
720.0000000000003
 76
     3
 10
13238.20823510304
 20
9382.720225287021
 30
0.0
 10
13159.09060856884
 20
8616.282041753725
 30
0.0
 10
13034.09060856884
 20
8616.282041753725
 30
0.0
340
1B44A
1001
ACAD
1000
DSTYLE
1002
{
1070
     6
1000
DOTSMALL
1002
}
  0
MTEXT
  5
1B44C
102
{ACAD_REACTORS
330
1B44D
102
}
330
747D
100
AcDbEntity
  8
部品1
 62
     7
 48
50.0
100
AcDbMText
 10
14607.3983798669
 20
8716.282041753727
 30
0.0
 40
150.0
 41
0.0
 71
     4
 72
     1
  1
\A1;ジョイントカバー
  7
STYLE1
 73
     1
 44
1.0
  0
LEADER
  5
1B44D
330
747D
100
AcDbEntity
  8
寸法
 48
50.0
100
AcDbLeader
  3
INABA_S50G
 71
     0
 73
     0
 74
     0
 75
     1
 40
150.0
 41
1397.5
 76
     3
 10
14184.06618060768
 20
9547.434887568501
 30
0.0
 10
14457.3983798669
 20
8616.282041753727
 30
0.0
 10
14582.3983798669
 20
8616.282041753727
 30
0.0
340
1B44C
1001
ACAD
1000
DSTYLE
1002
{
1070
     6
1000
DOTSMALL
1002
}
  0
TEXT
  5
1B44E
330
747D
100
AcDbEntity
  8
部品1
100
AcDbText
 10
13399.88578703805
 20
7390.866193189238
 30
0.0
 40
225.0
  1
断面図
  7
STYLE2
100
AcDbText
  0
LINE
  5
1B44F
330
747D
100
AcDbEntity
  8
部品1
100
AcDbLine
 10
13246.6040262278
 20
7310.010941144058
 30
0.0
 11
14519.05513660853
 21
7310.010941144058
 31
0.0
  0
LINE
  5
1B450
330
747D
100
AcDbEntity
  8
部品1
100
AcDbLine
 10
14519.05513660853
 20
7709.831477053279
 30
0.0
 11
13246.6040262278
 21
7709.831477053279
 31
0.0
  0
LINE
  5
1B451
330
747D
100
AcDbEntity
  8
部品1
100
AcDbLine
 10
13246.6040262278
 20
7709.831477053279
 30
0.0
 11
13246.6040262278
 21
7310.010941144058
 31
0.0
  0
LINE
  5
1B452
330
747D
100
AcDbEntity
  8
部品1
100
AcDbLine
 10
14519.05513660853
 20
7310.010941144058
 30
0.0
 11
14519.05513660853
 21
7709.831477053279
 31
0.0
  0
MTEXT
  5
1B453
102
{ACAD_REACTORS
330
1B454
102
}
330
747D
100
AcDbEntity
  8
寸法
 62
     7
 48
50.0
100
AcDbMText
 10
13920.30087063654
 20
11811.40987824757
 30
0.0
 40
150.0
 41
0.0
 71
     6
 72
     1
  1
\A1;母屋中
  7
STYLE1
 73
     1
 44
1.0
  0
LEADER
  5
1B454
330
747D
100
AcDbEntity
  8
寸法
 48
50.0
100
AcDbLeader
  3
INABA_S50G
 71
     0
 73
     0
 75
     1
 40
150.0
 41
540.0000000000002
 76
     3
 10
14147.82958141817
 20
11442.38073961986
 30
0.0
 10
14070.30087063654
 20
11711.40987824757
 30
0.0
 10
13945.30087063654
 20
11711.40987824757
 30
0.0
340
1B453
1001
ACAD
1000
DSTYLE
1002
{
1070
     6
1000
DOTSMALL
1002
}
  0
LINE
  5
1B455
330
747D
100
AcDbEntity
  8
細線
 48
50.0
100
AcDbLine
 10
13007.82958141817
 20
11393.73679736197
 30
0.0
 11
14757.82958141816
 21
11393.73679736197
 31
0.0
  0
LINE
  5
1B456
330
747D
100
AcDbEntity
  8
部品1
 48
50.0
100
AcDbLine
 10
12993.32958141817
 20
11367.59466173824
 30
0.0
 11
14772.32958141817
 21
11367.59466173824
 31
0.0
  0
LINE
  5
1B457
330
747D
100
AcDbEntity
  8
細線
 48
50.0
100
AcDbLine
 10
13007.82958141817
 20
11413.73679736196
 30
0.0
 11
14757.82958141816
 21
11413.73679736196
 31
0.0
  0
LINE
  5
1B458
330
747D
100
AcDbEntity
  8
部品1
 48
50.0
100
AcDbLine
 10
12837.34578971423
 20
11633.20342677758
 30
0.0
 11
14892.50261261331
 21
11575.10415954443
 31
0.0
  0
DIMENSION
  5
1B459
330
747D
100
AcDbEntity
  8
寸法
 48
50.0
100
AcDbDimension
  2
*D36
 10
14822.82958141817
 20
12327.01792807848
 30
0.0
 11
13882.82958141817
 21
12427.01792807848
 31
0.0
 70
    32
  1
柱外寸法 <>
 71
     5
 42
-1.0
  3
INABA_S50G
100
AcDbAlignedDimension
 13
12942.82958141817
 23
11588.73679736197
 33
0.0
 14
14822.82958141817
 24
11576.3631811976
 34
0.0
100
AcDbRotatedDimension
1001
ACAD
1000
DSTYLE
1002
{
1070
   287
1070
     4
1070
    75
1070
     1
1070
   279
1070
     1
1002
}
  0
MTEXT
  5
1B45A
102
{ACAD_REACTORS
330
1B45B
102
}
330
747D
100
AcDbEntity
  8
部品1
 62
     7
 48
50.0
100
AcDbMText
 10
13271.05948236589
 20
11999.83557484575
 30
0.0
 40
150.0
 41
0.0
 71
     4
 72
     1
  1
\A1;屋根パネル
  7
STYLE1
 73
     1
 44
1.0
  0
LEADER
  5
1B45B
330
747D
100
AcDbEntity
  8
寸法
 48
50.0
100
AcDbLeader
  3
INABA_S50G
 71
     0
 73
     0
 74
     0
 75
     1
 40
150.0
 41
900.0
 76
     3
 10
13032.07682066774
 20
11600.0347365094
 30
0.0
 10
13121.05948236589
 20
11899.83557484575
 30
0.0
 10
13246.05948236589
 20
11899.83557484575
 30
0.0
340
1B45A
1001
ACAD
1000
DSTYLE
1002
{
1070
     6
1000
DOTSMALL
1002
}
  0
LINE
  5
1B45C
330
747D
100
AcDbEntity
  8
細線
 48
50.0
100
AcDbLine
 10
12835.32645796807
 20
11600.02980182694
 30
0.0
 11
14869.30984145466
 21
11494.87046700399
 31
0.0
  0
LINE
  5
1B45D
330
747D
100
AcDbEntity
  8
細線
 48
50.0
100
AcDbLine
 10
12836.46236672542
 20
11622.00045751345
 30
0.0
 11
14870.44575021202
 21
11516.84112269049
 31
0.0
  0
MTEXT
  5
1B45E
102
{ACAD_REACTORS
330
1B45F
102
}
330
747D
100
AcDbEntity
  8
寸法
 62
     7
 48
50.0
100
AcDbMText
 10
14535.28840950222
 20
11192.92239508256
 30
0.0
 40
150.0
 41
0.0
 71
     6
 72
     1
  1
\A1;回リ縁
  7
STYLE1
 73
     1
 44
1.0
  0
LEADER
  5
1B45F
330
747D
100
AcDbEntity
  8
寸法
 48
50.0
100
AcDbLeader
  3
INABA_S50G
 71
     0
 73
     0
 75
     1
 40
150.0
 41
530.0000000000001
 76
     3
 10
14759.17272716866
 20
11380.57994311248
 30
0.0
 10
14685.28840950222
 20
11092.92239508256
 30
0.0
 10
14560.28840950222
 20
11092.92239508256
 30
0.0
340
1B45E
1001
ACAD
1000
DSTYLE
1002
{
1070
     6
1000
DOTSMALL
1002
}
  0
DIMENSION
  5
1B460
330
747D
100
AcDbEntity
  8
寸法
 48
50.0
100
AcDbDimension
  2
*D37
 10
14917.82958141817
 20
12643.17369887014
 30
0.0
 11
13862.82958141817
 21
12743.18846264967
 31
0.0
 70
    32
 71
     5
 42
-1.0
  3
INABA_S50G
100
AcDbAlignedDimension
 13
12807.82958141817
 23
11633.73679736197
 33
0.0
 14
14917.82958141817
 24
11573.73679736197
 34
0.0
100
AcDbRotatedDimension
  0
LINE
  5
1B461
330
747D
100
AcDbEntity
  8
細線
 48
50.0
100
AcDbLine
 10
12993.32958141817
 20
9430.736797361971
 30
0.0
 11
14772.32958141817
 21
9430.736797361971
 31
0.0
  0
LINE
  5
1B462
330
747D
100
AcDbEntity
  8
細線
 48
50.0
100
AcDbLine
 10
14772.32958141817
 20
9418.736797361971
 30
0.0
 11
12993.32958141817
 21
9418.736797361971
 31
0.0
  0
LINE
  5
1B463
330
747D
100
AcDbEntity
  8
部品1
 48
50.0
100
AcDbLine
 10
12993.32958141817
 20
9470.73679736197
 30
0.0
 11
14772.32958141817
 21
9470.73679736197
 31
0.0
  0
LINE
  5
1B464
330
747D
100
AcDbEntity
  8
部品1
 48
50.0
100
AcDbLine
 10
12942.82958141817
 20
9363.736797361971
 30
0.0
 11
14822.82958141817
 21
9363.736797361971
 31
0.0
  0
LINE
  5
1B465
330
747D
100
AcDbEntity
  8
Ｇ．Ｌ
 48
50.0
100
AcDbLine
 10
11559.2050880862
 20
9228.736797361971
 30
0.0
 11
16606.77176170856
 21
9228.736797361971
 31
0.0
  0
DIMENSION
  5
1B466
330
747D
100
AcDbEntity
  8
寸法
 48
50.0
100
AcDbDimension
  2
*D38
 10
12052.63480123898
 20
9418.736797361971
 30
0.0
 11
11952.63480123898
 21
10391.23679736196
 31
0.0
 70
    32
 71
     5
 42
-1.0
  3
INABA_S50G
100
AcDbAlignedDimension
 13
12942.82958141817
 23
11363.73679736196
 33
0.0
 14
12942.82958141817
 24
9418.736797361971
 34
0.0
 50
90.0
100
AcDbRotatedDimension
  0
LINE
  5
1B467
330
747D
100
AcDbEntity
  8
部品1
 48
50.0
100
AcDbLine
 10
12942.82958141817
 20
11588.73679736197
 30
0.0
 11
12942.82958141817
 21
9418.736797361971
 31
0.0
  0
LINE
  5
1B468
330
747D
100
AcDbEntity
  8
部品1
 48
50.0
100
AcDbLine
 10
12993.32958141817
 20
11378.73679736196
 30
0.0
 11
12993.32958141817
 21
9430.736797361971
 31
0.0
  0
LINE
  5
1B469
330
747D
100
AcDbEntity
  8
部品1
 48
50.0
100
AcDbLine
 10
13029.32958141817
 20
11367.59466173824
 30
0.0
 11
13029.32958141817
 21
9470.73679736197
 31
0.0
  0
LINE
  5
1B46A
330
747D
100
AcDbEntity
  8
部品1
 48
50.0
100
AcDbLine
 10
13574.82958141817
 20
11367.59466173824
 30
0.0
 11
13574.82958141817
 21
9470.73679736197
 31
0.0
  0
LINE
  5
1B46B
330
747D
100
AcDbEntity
  8
部品1
 48
50.0
100
AcDbLine
 10
13610.82958141817
 20
11367.59466173824
 30
0.0
 11
13610.82958141817
 21
9470.73679736197
 31
0.0
  0
LINE
  5
1B46C
330
747D
100
AcDbEntity
  8
細線
 48
50.0
100
AcDbLine
 10
12977.82958141817
 20
11378.73679736197
 30
0.0
 11
12977.82958141817
 21
9418.736797361971
 31
0.0
  0
DIMENSION
  5
1B46D
330
747D
100
AcDbEntity
  8
寸法
 48
50.0
100
AcDbDimension
  2
*D39
 10
11718.38013607452
 20
9363.736797361967
 30
0.0
 11
11618.36537229499
 21
10498.73679736196
 31
0.0
 70
    32
 71
     5
 42
-1.0
  3
INABA_S50G
100
AcDbAlignedDimension
 13
12807.82958141816
 23
11633.73679736197
 33
0.0
 14
12942.82958141817
 24
9363.736797361967
 34
0.0
 50
90.0
100
AcDbRotatedDimension
  0
DIMENSION
  5
1B46E
330
747D
100
AcDbEntity
  8
寸法
 48
50.0
100
AcDbDimension
  2
*D40
 10
12052.63480123898
 20
9363.736797361971
 30
0.0
 11
12052.63480123898
 21
9089.650458526433
 31
0.0
 70
   160
 71
     5
 42
-1.0
  3
INABA_S50G
100
AcDbAlignedDimension
 13
12942.82958141817
 23
9418.736797361971
 33
0.0
 14
12942.82958141817
 24
9363.736797361971
 34
0.0
 50
90.0
100
AcDbRotatedDimension
  0
LINE
  5
1B46F
330
747D
100
AcDbEntity
  8
部品1
 48
50.0
100
AcDbLine
 10
12942.82958141817
 20
9363.736797361967
 30
0.0
 11
12942.82958141817
 21
9228.736797361971
 31
0.0
  0
LINE
  5
1B470
330
747D
100
AcDbEntity
  8
部品1
 48
50.0
100
AcDbLine
 10
13142.82958141817
 20
9363.736797361967
 30
0.0
 11
13142.82958141817
 21
9228.736797361971
 31
0.0
  0
LINE
  5
1B471
330
747D
100
AcDbEntity
  8
細線
 48
50.0
100
AcDbLine
 10
13066.62002962911
 20
9228.736797361971
 30
0.0
 11
12942.82958141817
 21
9352.52724557292
 31
0.0
  0
LINE
  5
1B472
330
747D
100
AcDbEntity
  8
細線
 48
50.0
100
AcDbLine
 10
13040.10352533462
 20
9228.736797361971
 30
0.0
 11
12942.82958141817
 21
9326.010741278425
 31
0.0
  0
LINE
  5
1B473
330
747D
100
AcDbEntity
  8
細線
 48
50.0
100
AcDbLine
 10
13142.82958141817
 20
9302.527245572919
 30
0.0
 11
13081.62002962911
 21
9363.736797361971
 31
0.0
  0
LINE
  5
1B474
330
747D
100
AcDbEntity
  8
細線
 48
50.0
100
AcDbLine
 10
13142.82958141817
 20
9276.010741278424
 30
0.0
 11
13055.10352533463
 21
9363.736797361973
 31
0.0
  0
LINE
  5
1B475
330
747D
100
AcDbEntity
  8
破線
 48
3.0
100
AcDbLine
 10
12952.82958141817
 20
9228.736797361971
 30
0.0
 11
12952.82958141817
 21
9122.736797361971
 31
0.0
  0
LINE
  5
1B476
330
747D
100
AcDbEntity
  8
破線
 48
3.0
100
AcDbLine
 10
12994.82958141817
 20
9228.736797361971
 30
0.0
 11
12994.82958141817
 21
9122.736797361971
 31
0.0
  0
LINE
  5
1B477
330
747D
100
AcDbEntity
  8
細線
 48
50.0
100
AcDbLine
 10
12873.82958141817
 20
9135.027245572921
 30
0.0
 11
12967.53913320723
 21
9228.736797361971
 31
0.0
  0
LINE
  5
1B478
330
747D
100
AcDbEntity
  8
破線
 48
3.0
100
AcDbLine
 10
12952.82958141817
 20
9122.736797361971
 30
0.0
 11
12994.82958141817
 21
9122.736797361971
 31
0.0
  0
LINE
  5
1B479
330
747D
100
AcDbEntity
  8
部品1
 48
50.0
100
AcDbLine
 10
13282.82958141817
 20
9363.736797361971
 30
0.0
 11
13282.82958141817
 21
9418.736797361971
 31
0.0
  0
LINE
  5
1B47A
330
747D
100
AcDbEntity
  8
部品1
 48
50.0
100
AcDbLine
 10
13322.82958141817
 20
9418.736797361971
 30
0.0
 11
13322.82958141817
 21
9363.736797361971
 31
0.0
  0
LINE
  5
1B47B
330
747D
100
AcDbEntity
  8
部品1
 48
50.0
100
AcDbLine
 10
13288.82958141817
 20
9412.73679736197
 30
0.0
 11
13288.82958141817
 21
9418.736797361971
 31
0.0
  0
LINE
  5
1B47C
330
747D
100
AcDbEntity
  8
部品1
 48
50.0
100
AcDbLine
 10
13316.82958141817
 20
9418.736797361971
 30
0.0
 11
13316.82958141817
 21
9412.73679736197
 31
0.0
  0
LINE
  5
1B47D
330
747D
100
AcDbEntity
  8
部品1
 48
50.0
100
AcDbLine
 10
13288.82958141817
 20
9412.73679736197
 30
0.0
 11
13316.82958141817
 21
9412.736797361969
 31
0.0
  0
LINE
  5
1B47E
330
747D
100
AcDbEntity
  8
部品1
 48
50.0
100
AcDbLine
 10
13282.82958141817
 20
9418.736797361971
 30
0.0
 11
13288.82958141817
 21
9418.736797361971
 31
0.0
  0
LINE
  5
1B47F
330
747D
100
AcDbEntity
  8
部品1
 48
50.0
100
AcDbLine
 10
13316.82958141817
 20
9418.736797361971
 30
0.0
 11
13322.82958141817
 21
9418.736797361971
 31
0.0
  0
LINE
  5
1B480
330
747D
100
AcDbEntity
  8
部品1
 48
50.0
100
AcDbLine
 10
13002.32958141817
 20
9470.73679736197
 30
0.0
 11
13002.32958141817
 21
9430.736797361971
 31
0.0
  0
LINE
  5
1B481
330
747D
100
AcDbEntity
  8
部品1
 48
50.0
100
AcDbLine
 10
12942.82958141817
 20
9412.73679736197
 30
0.0
 11
12942.82958141817
 21
9363.736797361971
 31
0.0
  0
LINE
  5
1B482
330
747D
100
AcDbEntity
  8
部品1
 48
50.0
100
AcDbLine
 10
13002.32958141817
 20
9430.736797361971
 30
0.0
 11
12993.32958141817
 21
9430.736797361971
 31
0.0
  0
LINE
  5
1B483
330
747D
100
AcDbEntity
  8
部品1
 48
50.0
100
AcDbLine
 10
12948.82958141817
 20
9412.73679736197
 30
0.0
 11
12948.82958141817
 21
9418.736797361971
 31
0.0
  0
LINE
  5
1B484
330
747D
100
AcDbEntity
  8
部品1
 48
50.0
100
AcDbLine
 10
12942.82958141817
 20
9412.73679736197
 30
0.0
 11
12948.82958141817
 21
9412.73679736197
 31
0.0
  0
LINE
  5
1B485
330
747D
100
AcDbEntity
  8
部品1
 48
50.0
100
AcDbLine
 10
13031.32958141817
 20
9411.736797361971
 30
0.0
 11
13031.32958141817
 21
9363.736797361971
 31
0.0
  0
LINE
  5
1B486
330
747D
100
AcDbEntity
  8
部品1
 48
50.0
100
AcDbLine
 10
13007.32958141817
 20
9411.736797361971
 30
0.0
 11
13031.32958141817
 21
9411.736797361971
 31
0.0
  0
LINE
  5
1B487
330
747D
100
AcDbEntity
  8
部品1
 48
50.0
100
AcDbLine
 10
13007.32958141817
 20
9418.736797361971
 30
0.0
 11
13007.32958141817
 21
9411.736797361971
 31
0.0
  0
LINE
  5
1B488
330
747D
100
AcDbEntity
  8
部品1
 48
50.0
100
AcDbLine
 10
12993.32958141817
 20
9418.736797361971
 30
0.0
 11
13007.32958141817
 21
9418.736797361971
 31
0.0
  0
LINE
  5
1B489
330
747D
100
AcDbEntity
  8
部品1
 48
50.0
100
AcDbLine
 10
12993.32958141817
 20
9430.736797361971
 30
0.0
 11
12993.32958141817
 21
9418.736797361971
 31
0.0
  0
LINE
  5
1B48A
330
747D
100
AcDbEntity
  8
部品1
 48
50.0
100
AcDbLine
 10
12978.32958141817
 20
9430.736797361971
 30
0.0
 11
12993.32958141817
 21
9430.736797361971
 31
0.0
  0
LINE
  5
1B48B
330
747D
100
AcDbEntity
  8
部品1
 48
50.0
100
AcDbLine
 10
12978.32958141817
 20
9418.736797361971
 30
0.0
 11
12978.32958141817
 21
9430.736797361971
 31
0.0
  0
LINE
  5
1B48C
330
747D
100
AcDbEntity
  8
部品1
 48
50.0
100
AcDbLine
 10
12942.82958141817
 20
9418.736797361971
 30
0.0
 11
12978.32958141817
 21
9418.736797361971
 31
0.0
  0
LINE
  5
1B48D
330
747D
100
AcDbEntity
  8
部品1
 48
50.0
100
AcDbLine
 10
12993.32958141817
 20
9470.73679736197
 30
0.0
 11
13002.32958141817
 21
9470.73679736197
 31
0.0
  0
LINE
  5
1B48E
330
747D
100
AcDbEntity
  8
部品1
 48
50.0
100
AcDbLine
 10
12873.82958141817
 20
9028.73679736197
 30
0.0
 11
13073.82958141817
 21
9028.73679736197
 31
0.0
  0
LINE
  5
1B48F
330
747D
100
AcDbEntity
  8
部品1
 48
50.0
100
AcDbLine
 10
13073.82958141817
 20
9028.73679736197
 30
0.0
 11
13073.82958141817
 21
9228.736797361971
 31
0.0
  0
LINE
  5
1B490
330
747D
100
AcDbEntity
  8
部品1
 48
50.0
100
AcDbLine
 10
12873.82958141817
 20
9228.736797361971
 30
0.0
 11
12873.82958141817
 21
9028.73679736197
 31
0.0
  0
LINE
  5
1B491
330
747D
100
AcDbEntity
  8
細線
 48
50.0
100
AcDbLine
 10
12917.53913320722
 20
9028.73679736197
 30
0.0
 11
13073.82958141817
 21
9185.027245572921
 31
0.0
  0
LINE
  5
1B492
330
747D
100
AcDbEntity
  8
細線
 48
50.0
100
AcDbLine
 10
12873.82958141817
 20
9081.994236983929
 30
0.0
 11
13020.5721417962
 21
9228.736797361973
 31
0.0
  0
LINE
  5
1B493
330
747D
100
AcDbEntity
  8
細線
 48
50.0
100
AcDbLine
 10
12873.82958141817
 20
9108.510741278426
 30
0.0
 11
12994.0556375017
 21
9228.736797361971
 31
0.0
  0
LINE
  5
1B494
330
747D
100
AcDbEntity
  8
細線
 48
50.0
100
AcDbLine
 10
12944.05563750172
 20
9028.73679736197
 30
0.0
 11
13073.82958141817
 21
9158.510741278426
 31
0.0
  0
LINE
  5
1B495
330
747D
100
AcDbEntity
  8
細線
 48
50.0
100
AcDbLine
 10
12970.57214179622
 20
9028.73679736197
 30
0.0
 11
13073.82958141817
 21
9131.994236983928
 31
0.0
  0
MTEXT
  5
1B496
102
{ACAD_REACTORS
330
1B4AB
102
}
330
747D
100
AcDbEntity
  8
部品1
 62
     7
 48
50.0
100
AcDbMText
 10
13652.60524733606
 20
9656.775787169863
 30
0.0
 40
150.0
 41
0.0
 71
     4
 72
     1
  1
\A1;床板
  7
STYLE1
 73
     1
 44
1.0
  0
LINE
  5
1B497
330
747D
100
AcDbEntity
  8
細線
 48
50.0
100
AcDbLine
 10
13982.82958141817
 20
9302.527245572919
 30
0.0
 11
13921.62002962911
 21
9363.736797361971
 31
0.0
  0
LINE
  5
1B498
330
747D
100
AcDbEntity
  8
部品1
 48
50.0
100
AcDbLine
 10
13982.82958141817
 20
9363.736797361967
 30
0.0
 11
13982.82958141817
 21
9228.736797361971
 31
0.0
  0
LINE
  5
1B499
330
747D
100
AcDbEntity
  8
細線
 48
50.0
100
AcDbLine
 10
13880.10352533462
 20
9228.736797361971
 30
0.0
 11
13782.82958141817
 21
9326.010741278425
 31
0.0
  0
LINE
  5
1B49A
330
747D
100
AcDbEntity
  8
細線
 48
50.0
100
AcDbLine
 10
13906.62002962911
 20
9228.736797361971
 30
0.0
 11
13782.82958141817
 21
9352.52724557292
 31
0.0
  0
LINE
  5
1B49B
330
747D
100
AcDbEntity
  8
部品1
 48
50.0
100
AcDbLine
 10
13782.82958141817
 20
9363.736797361967
 30
0.0
 11
13782.82958141817
 21
9228.736797361971
 31
0.0
  0
LINE
  5
1B49C
330
747D
100
AcDbEntity
  8
部品1
 48
50.0
100
AcDbLine
 10
13868.82958141817
 20
9412.73679736197
 30
0.0
 11
13896.82958141817
 21
9412.736797361969
 31
0.0
  0
LINE
  5
1B49D
330
747D
100
AcDbEntity
  8
部品1
 48
50.0
100
AcDbLine
 10
13862.82958141817
 20
9418.736797361971
 30
0.0
 11
13868.82958141817
 21
9418.736797361971
 31
0.0
  0
LINE
  5
1B49E
330
747D
100
AcDbEntity
  8
部品1
 48
50.0
100
AcDbLine
 10
13868.82958141817
 20
9412.73679736197
 30
0.0
 11
13868.82958141817
 21
9418.736797361971
 31
0.0
  0
LINE
  5
1B49F
330
747D
100
AcDbEntity
  8
部品1
 48
50.0
100
AcDbLine
 10
13862.82958141817
 20
9363.736797361971
 30
0.0
 11
13862.82958141817
 21
9418.736797361971
 31
0.0
  0
LINE
  5
1B4A0
330
747D
100
AcDbEntity
  8
部品1
 48
50.0
100
AcDbLine
 10
13606.82958141817
 20
9418.736797361971
 30
0.0
 11
13612.82958141817
 21
9418.736797361971
 31
0.0
  0
LINE
  5
1B4A1
330
747D
100
AcDbEntity
  8
部品1
 48
50.0
100
AcDbLine
 10
13606.82958141817
 20
9418.736797361971
 30
0.0
 11
13606.82958141817
 21
9412.73679736197
 31
0.0
  0
LINE
  5
1B4A2
330
747D
100
AcDbEntity
  8
部品1
 48
50.0
100
AcDbLine
 10
13612.82958141817
 20
9418.736797361971
 30
0.0
 11
13612.82958141817
 21
9363.736797361971
 31
0.0
  0
LINE
  5
1B4A3
330
747D
100
AcDbEntity
  8
部品1
 48
50.0
100
AcDbLine
 10
13578.82958141817
 20
9412.73679736197
 30
0.0
 11
13578.82958141817
 21
9418.736797361971
 31
0.0
  0
LINE
  5
1B4A4
330
747D
100
AcDbEntity
  8
部品1
 48
50.0
100
AcDbLine
 10
13572.82958141817
 20
9418.736797361971
 30
0.0
 11
13578.82958141817
 21
9418.736797361971
 31
0.0
  0
LINE
  5
1B4A5
330
747D
100
AcDbEntity
  8
部品1
 48
50.0
100
AcDbLine
 10
13572.82958141817
 20
9363.736797361971
 30
0.0
 11
13572.82958141817
 21
9418.736797361971
 31
0.0
  0
LINE
  5
1B4A6
330
747D
100
AcDbEntity
  8
部品1
 48
50.0
100
AcDbLine
 10
13578.82958141817
 20
9412.73679736197
 30
0.0
 11
13606.82958141817
 21
9412.736797361969
 31
0.0
  0
LINE
  5
1B4A7
330
747D
100
AcDbEntity
  8
部品1
 48
50.0
100
AcDbLine
 10
13896.82958141817
 20
9418.736797361971
 30
0.0
 11
13902.82958141817
 21
9418.736797361971
 31
0.0
  0
LINE
  5
1B4A8
330
747D
100
AcDbEntity
  8
部品1
 48
50.0
100
AcDbLine
 10
13896.82958141817
 20
9418.736797361971
 30
0.0
 11
13896.82958141817
 21
9412.73679736197
 31
0.0
  0
LINE
  5
1B4A9
330
747D
100
AcDbEntity
  8
部品1
 48
50.0
100
AcDbLine
 10
13902.82958141817
 20
9418.736797361971
 30
0.0
 11
13902.82958141817
 21
9363.736797361971
 31
0.0
  0
LINE
  5
1B4AA
330
747D
100
AcDbEntity
  8
細線
 48
50.0
100
AcDbLine
 10
13982.82958141817
 20
9276.010741278424
 30
0.0
 11
13895.10352533462
 21
9363.736797361973
 31
0.0
  0
LEADER
  5
1B4AB
330
747D
100
AcDbEntity
  8
寸法
 48
50.0
100
AcDbLeader
  3
INABA_S50G
 71
     0
 73
     0
 74
     0
 75
     1
 40
150.0
 41
319.9999999999999
 76
     3
 10
13466.69707899399
 20
9425.668860537973
 30
0.0
 10
13502.60524733606
 20
9556.775787169861
 30
0.0
 10
13627.60524733606
 20
9556.775787169861
 30
0.0
340
1B496
1001
ACAD
1000
DSTYLE
1002
{
1070
     6
1000
DOTSMALL
1002
}
  0
DIMENSION
  5
1B4AC
330
747D
100
AcDbEntity
  8
寸法
 48
50.0
100
AcDbDimension
  2
*D41
 10
12211.55458482934
 20
11625.73051236771
 30
0.0
 11
12215.6596252794
 21
11883.80446784019
 31
0.0
 70
   160
 71
     5
 42
-1.0
  3
INABA_S50G
100
AcDbAlignedDimension
 13
12828.8404644795
 23
11500.89713798174
 33
0.0
 14
12830.66947485201
 24
11615.88259237079
 34
0.0
 50
89.08870440418592
100
AcDbRotatedDimension
  0
MTEXT
  5
1B4AD
102
{ACAD_REACTORS
330
1B4AE
102
}
330
747D
100
AcDbEntity
  8
寸法
 62
     7
 48
50.0
100
AcDbMText
 10
12489.20278459666
 20
12174.32712616799
 30
0.0
 40
150.0
 41
0.0
 71
     6
 72
     1
  1
\A1;鼻隠シ前
  7
STYLE1
 73
     1
 44
1.0
  0
LEADER
  5
1B4AE
330
747D
100
AcDbEntity
  8
寸法
 48
50.0
100
AcDbLeader
  3
INABA_S50G
 71
     0
 73
     0
 75
     1
 40
150.0
 41
697.5
 76
     3
 10
12808.68985764767
 20
11573.78978150138
 30
0.0
 10
12639.20278459666
 20
12074.32712616799
 30
0.0
 10
12514.20278459666
 20
12074.32712616799
 30
0.0
340
1B4AD
1001
ACAD
1000
DSTYLE
1002
{
1070
     6
1000
DOTSMALL
1002
}
  0
DIMENSION
  5
1B4AF
330
747D
100
AcDbEntity
  8
寸法
 48
50.0
100
AcDbDimension
  2
*D42
 10
12942.82958141817
 20
12327.01792807849
 30
0.0
 11
12525.27052630005
 21
12327.01792807849
 31
0.0
 70
   160
 71
     5
 42
-1.0
  3
INABA_S50G
100
AcDbAlignedDimension
 13
12807.82958141817
 23
11633.73679736197
 33
0.0
 14
12942.82958141817
 24
11631.29728927309
 34
0.0
100
AcDbRotatedDimension
  0
MTEXT
  5
1B4B0
102
{ACAD_REACTORS
330
1B4B1
102
}
330
747D
100
AcDbEntity
  8
寸法
 62
     7
 48
50.0
100
AcDbMText
 10
12603.39443515959
 20
11242.78867508207
 30
0.0
 40
150.0
 41
0.0
 71
     6
 72
     1
  1
\A1;桁前
  7
STYLE1
 73
     1
 44
1.0
  0
LEADER
  5
1B4B1
330
747D
100
AcDbEntity
  8
寸法
 48
50.0
100
AcDbLeader
  3
INABA_S50G
 71
     0
 73
     0
 75
     1
 40
150.0
 41
337.5
 76
     3
 10
12942.82958141817
 20
11430.44622311198
 30
0.0
 10
12753.39443515959
 20
11142.78867508207
 30
0.0
 10
12628.39443515959
 20
11142.78867508207
 30
0.0
340
1B4B0
1001
ACAD
1000
DSTYLE
1002
{
1070
     6
1000
DOTSMALL
1002
}
  0
LINE
  5
1B4B2
330
747D
100
AcDbEntity
  8
部品1
100
AcDbLine
 10
12827.40813407784
 20
11616.54160810821
 30
0.0
 11
12834.10013006798
 21
11631.16076879153
 31
0.0
  0
LINE
  5
1B4B3
330
747D
100
AcDbEntity
  8
部品1
 48
50.0
100
AcDbLine
 10
12885.04596203257
 20
11632.34146413898
 30
0.0
 11
12894.79555514413
 21
11603.96990383365
 31
0.0
  0
MTEXT
  5
1B4B4
102
{ACAD_REACTORS
330
1B4B5
102
}
330
747D
100
AcDbEntity
  8
寸法
 62
     7
 48
50.0
100
AcDbMText
 10
13554.86752994077
 20
11192.92239508256
 30
0.0
 40
150.0
 41
0.0
 71
     6
 72
     1
  1
\A1;天井
  7
STYLE1
 73
     1
 44
1.0
  0
LEADER
  5
1B4B5
330
747D
100
AcDbEntity
  8
寸法
 48
50.0
100
AcDbLeader
  3
INABA_S50G
 71
     0
 73
     0
 75
     1
 40
150.0
 41
359.9999999999999
 76
     3
 10
13828.1695438461
 20
11403.41424305313
 30
0.0
 10
13704.86752994077
 20
11092.92239508256
 30
0.0
 10
13579.86752994077
 20
11092.92239508256
 30
0.0
340
1B4B4
1001
ACAD
1000
DSTYLE
1002
{
1070
     6
1000
DOTSMALL
1002
}
  0
LINE
  5
1B4B6
330
747D
100
AcDbEntity
  8
細線
 48
50.0
100
AcDbLine
 10
12942.82958141816
 20
11499.08397580098
 30
0.0
 11
12837.83932612734
 21
11500.75399803954
 31
0.0
  0
LINE
  5
1B4B7
330
747D
100
AcDbEntity
  8
部品1
 48
50.0
100
AcDbLine
 10
12942.90115138926
 20
11503.5834066249
 30
0.0
 11
12840.91051664771
 21
11505.20571554939
 31
0.0
  0
ARC
  5
1B4B8
330
747D
100
AcDbEntity
  8
部品1
100
AcDbCircle
 10
12823.32958141817
 20
11600.20873825652
 30
0.0
 40
15.5
100
AcDbArc
 50
88.13874351680366
 51
181.8832004883104
  0
ARC
  5
1B4B9
330
747D
100
AcDbEntity
  8
部品1
100
AcDbCircle
 10
12829.08698326884
 20
11516.39517748634
 30
0.0
 40
15.5
100
AcDbArc
 50
181.8832004883684
 51
269.0887044041854
  0
ARC
  5
1B4BA
330
747D
100
AcDbEntity
  8
部品1
100
AcDbCircle
 10
12811.00493155814
 20
11518.59483674583
 30
0.0
 40
2.5
100
AcDbArc
 50
1.883200488304429
 51
80.9777304905255
  0
ARC
  5
1B4BB
330
747D
100
AcDbEntity
  8
部品1
100
AcDbCircle
 10
12811.58515943173
 20
11522.24905836094
 30
0.0
 40
1.199999999999999
100
AcDbArc
 50
181.8832004883104
 51
260.9777304905277
  0
LINE
  5
1B4BC
330
747D
100
AcDbEntity
  8
部品1
100
AcDbLine
 10
12813.50358129389
 20
11518.67699207427
 30
0.0
 11
12813.59535490713
 21
11515.88581445
 31
0.0
  0
LINE
  5
1B4BD
330
747D
100
AcDbEntity
  8
部品1
100
AcDbLine
 10
12807.83795305646
 20
11599.69937522019
 30
0.0
 11
12810.38580755856
 21
11522.20962380329
 31
0.0
  0
ARC
  5
1B4BE
330
747D
100
AcDbEntity
  8
部品1
100
AcDbCircle
 10
12826.04423830756
 20
11617.16593841167
 30
0.0
 40
1.5
100
AcDbArc
 50
269.0981540988973
 51
335.4038180356238
  0
LINE
  5
1B4BF
330
747D
100
AcDbEntity
  8
部品1
 48
50.0
100
AcDbLine
 10
12826.02062901199
 20
11615.66612422279
 30
0.0
 11
12823.83301119891
 21
11615.70056056559
 31
0.0
  0
LINE
  5
1B4C0
330
747D
100
AcDbEntity
  8
部品1
 48
50.0
100
AcDbLine
 10
12837.83932612734
 20
11500.75399803954
 30
0.0
 11
12837.86318278437
 21
11502.25380831417
 31
0.0
  0
ARC
  5
1B4C1
330
747D
100
AcDbEntity
  8
部品1
 48
50.0
100
AcDbCircle
 10
12840.86280333365
 20
11502.20609500011
 30
0.0
 40
3.0
100
AcDbArc
 50
89.08870440418532
 51
179.0887044041912
  0
LINE
  5
1B4C2
330
747D
100
AcDbEntity
  8
部品1
 48
50.0
100
AcDbLine
 10
12837.83932612734
 20
11500.75399803954
 30
0.0
 11
12828.8404644795
 21
11500.89713798173
 31
0.0
  0
LINE
  5
1B4C3
330
747D
100
AcDbEntity
  8
部品1
 48
50.0
100
AcDbLine
 10
13007.82958141817
 20
11413.73679736196
 30
0.0
 11
13029.82958141817
 21
11413.73679736196
 31
0.0
  0
LINE
  5
1B4C4
330
747D
100
AcDbEntity
  8
部品1
 48
50.0
100
AcDbLine
 10
13016.47171704189
 20
11393.73679736197
 30
0.0
 11
13007.82958141817
 21
11393.73679736197
 31
0.0
  0
LINE
  5
1B4C5
330
747D
100
AcDbEntity
  8
部品1
 48
50.0
100
AcDbLine
 10
12992.82958141817
 20
11378.73679736196
 30
0.0
 11
12993.32958141817
 21
11378.73679736196
 31
0.0
  0
LINE
  5
1B4C6
330
747D
100
AcDbEntity
  8
部品1
 48
50.0
100
AcDbLine
 10
13007.82958141817
 20
11413.73679736196
 30
0.0
 11
13029.82958141817
 21
11413.73679736196
 31
0.0
  0
LINE
  5
1B4C7
330
747D
100
AcDbEntity
  8
部品1
 48
50.0
100
AcDbLine
 10
13007.82958141817
 20
11393.73679736196
 30
0.0
 11
13007.82958141817
 21
11413.73679736196
 31
0.0
  0
LINE
  5
1B4C8
330
747D
100
AcDbEntity
  8
部品1
 48
50.0
100
AcDbLine
 10
12992.82958141817
 20
11378.73679736196
 30
0.0
 11
13007.82958141817
 21
11393.73679736196
 31
0.0
  0
LINE
  5
1B4C9
330
747D
100
AcDbEntity
  8
部品1
 48
50.0
100
AcDbLine
 10
12942.82958141817
 20
11378.73679736196
 30
0.0
 11
12992.82958141817
 21
11378.73679736196
 31
0.0
  0
LINE
  5
1B4CA
330
747D
100
AcDbEntity
  8
部品1
100
AcDbLine
 10
13017.47171704189
 20
11389.73679736197
 30
0.0
 11
13016.47171704189
 21
11389.73679736197
 31
0.0
  0
LINE
  5
1B4CB
330
747D
100
AcDbEntity
  8
部品1
100
AcDbLine
 10
13017.47171704189
 20
11388.73679736197
 30
0.0
 11
13017.47171704189
 21
11389.73679736197
 31
0.0
  0
LINE
  5
1B4CC
330
747D
100
AcDbEntity
  8
部品1
100
AcDbLine
 10
13016.47171704189
 20
11389.73679736197
 30
0.0
 11
13016.47171704189
 21
11393.73679736197
 31
0.0
  0
LINE
  5
1B4CD
330
747D
100
AcDbEntity
  8
部品1
100
AcDbLine
 10
13010.02196957359
 20
11384.11547701841
 30
0.0
 11
13010.72907635478
 21
11383.40837023722
 31
0.0
  0
LINE
  5
1B4CE
330
747D
100
AcDbEntity
  8
部品1
100
AcDbLine
 10
13012.14328991715
 20
11383.40837023722
 30
0.0
 11
13017.47171704189
 21
11388.73679736197
 31
0.0
  0
ARC
  5
1B4CF
330
747D
100
AcDbEntity
  8
部品1
100
AcDbCircle
 10
13011.43618313596
 20
11384.11547701841
 30
0.0
 40
1.0
100
AcDbArc
 50
225.0
 51
315.0
  0
LINE
  5
1B4D0
330
747D
100
AcDbEntity
  8
部品1
100
AcDbLine
 10
13002.95090176173
 20
11377.04440920654
 30
0.0
 11
13010.02196957359
 21
11384.11547701841
 31
0.0
  0
LINE
  5
1B4D1
330
747D
100
AcDbEntity
  8
部品1
100
AcDbLine
 10
13003.65808760154
 20
11376.33722336673
 30
0.0
 11
13002.95090176173
 21
11377.04440920654
 31
0.0
  0
ARC
  5
1B4D2
330
747D
100
AcDbEntity
  8
部品1
100
AcDbCircle
 10
13002.95090176173
 20
11375.63019565301
 30
0.0
 40
1.0
100
AcDbArc
 50
314.9999999999995
 51
44.99999999999885
  0
LINE
  5
1B4D3
330
747D
100
AcDbEntity
  8
部品1
100
AcDbLine
 10
12996.32958141817
 20
11367.59466173824
 30
0.0
 11
12993.32958141817
 21
11367.59466173824
 31
0.0
  0
LINE
  5
1B4D4
330
747D
100
AcDbEntity
  8
部品1
100
AcDbLine
 10
12996.32958141817
 20
11367.59466173824
 30
0.0
 11
13003.65800854291
 21
11374.92308887182
 31
0.0
  0
LINE
  5
1B4D5
330
747D
100
AcDbEntity
  8
部品1
 48
50.0
100
AcDbLine
 10
12971.32958141817
 20
11573.73679736196
 30
0.0
 11
12993.82958141817
 21
11573.73679736196
 31
0.0
  0
LINE
  5
1B4D6
330
747D
100
AcDbEntity
  8
部品1
 48
50.0
100
AcDbLine
 10
12971.32958141817
 20
11588.73679736196
 30
0.0
 11
12971.32958141817
 21
11573.73679736196
 31
0.0
  0
LINE
  5
1B4D7
330
747D
100
AcDbEntity
  8
部品1
 48
50.0
100
AcDbLine
 10
12942.82958141817
 20
11588.73679736196
 30
0.0
 11
12971.32958141817
 21
11588.73679736196
 31
0.0
  0
LINE
  5
1B4D8
330
747D
100
AcDbEntity
  8
細線
 48
50.0
100
AcDbLine
 10
12836.46236672542
 20
11622.00045751345
 30
0.0
 11
12835.32645796807
 21
11600.02980182694
 31
0.0
  0
LINE
  5
1B4D9
330
747D
100
AcDbEntity
  8
細線
 48
50.0
100
AcDbLine
 10
12973.1423890925
 20
11592.90455598535
 30
0.0
 11
12972.31627363261
 21
11576.92589730425
 31
0.0
  0
LINE
  5
1B4DA
330
747D
100
AcDbEntity
  8
細線
 48
50.0
100
AcDbLine
 10
12993.11571244387
 20
11591.87191166048
 30
0.0
 11
12992.28959698398
 21
11575.89325297939
 31
0.0
  0
LINE
  5
1B4DB
330
747D
100
AcDbEntity
  8
細線
 48
50.0
100
AcDbLine
 10
12972.31627363261
 20
11576.92589730425
 30
0.0
 11
12992.28959698398
 21
11575.89325297939
 31
0.0
  0
LINE
  5
1B4DC
330
747D
100
AcDbEntity
  8
部品1
 48
50.0
100
AcDbLine
 10
13617.82958141817
 20
11425.73679736196
 30
0.0
 11
13617.82958141817
 21
11413.73679736196
 31
0.0
  0
LINE
  5
1B4DD
330
747D
100
AcDbEntity
  8
部品1
 48
50.0
100
AcDbLine
 10
13597.82958141817
 20
11544.23679736196
 30
0.0
 11
13617.82958141817
 21
11543.23679736196
 31
0.0
  0
LINE
  5
1B4DE
330
747D
100
AcDbEntity
  8
部品1
 48
50.0
100
AcDbLine
 10
13567.82958141817
 20
11556.73679736196
 30
0.0
 11
13597.82958141817
 21
11555.23679736196
 31
0.0
  0
LINE
  5
1B4DF
330
747D
100
AcDbEntity
  8
部品1
 48
50.0
100
AcDbLine
 10
13597.82958141817
 20
11555.23679736196
 30
0.0
 11
13597.82958141817
 21
11544.23679736196
 31
0.0
  0
LINE
  5
1B4E0
330
747D
100
AcDbEntity
  8
部品1
 48
50.0
100
AcDbLine
 10
13567.82958141817
 20
11413.73679736196
 30
0.0
 11
13567.82958141817
 21
11556.73679736196
 31
0.0
  0
LINE
  5
1B4E1
330
747D
100
AcDbEntity
  8
部品1
 48
50.0
100
AcDbLine
 10
13617.82958141817
 20
11413.73679736196
 30
0.0
 11
13567.82958141817
 21
11413.73679736196
 31
0.0
  0
LINE
  5
1B4E2
330
747D
100
AcDbEntity
  8
細線
 48
50.0
100
AcDbLine
 10
13598.2802274645
 20
11544.56282416289
 30
0.0
 11
13618.25355081586
 21
11543.53017983802
 31
0.0
  0
LINE
  5
1B4E3
330
747D
100
AcDbEntity
  8
細線
 48
50.0
100
AcDbLine
 10
13599.10634292439
 20
11560.54148284398
 30
0.0
 11
13598.2802274645
 21
11544.56282416289
 31
0.0
  0
LINE
  5
1B4E4
330
747D
100
AcDbEntity
  8
細線
 48
50.0
100
AcDbLine
 10
13619.07966627575
 20
11559.50883851911
 30
0.0
 11
13618.25355081586
 21
11543.53017983802
 31
0.0
  0
ARC
  5
1B4E5
330
747D
100
AcDbEntity
  8
部品1
 48
50.0
100
AcDbCircle
 10
12837.28255353196
 20
11629.70399808346
 30
0.0
 40
3.5
100
AcDbArc
 50
88.96475328401214
 51
155.4038180356338
  0
DIMENSION
  5
1B4E6
330
747D
100
AcDbEntity
  8
寸法
 48
50.0
100
AcDbDimension
  2
*D43
 10
16447.07164574816
 20
11573.73679736197
 30
0.0
 11
16347.05688196863
 21
10468.73679736197
 31
0.0
 70
    32
 71
     5
 42
-1.0
  3
INABA_S50G
100
AcDbAlignedDimension
 13
14822.82958141817
 23
9363.736797361971
 33
0.0
 14
14917.82958141817
 24
11573.73679736197
 34
0.0
 50
90.0
100
AcDbRotatedDimension
  0
DIMENSION
  5
1B4E7
330
747D
100
AcDbEntity
  8
寸法
 48
50.0
100
AcDbDimension
  2
*D44
 10
16134.10991665977
 20
11390.73679736196
 30
0.0
 11
16034.10991665977
 21
10410.73679736196
 31
0.0
 70
    32
  1
内高 <>
 71
     5
 42
-1.0
  3
INABA_S50G
100
AcDbAlignedDimension
 13
14787.32958141817
 23
9430.736797361971
 33
0.0
 14
14822.82958141817
 24
11390.73679736196
 34
0.0
 50
90.0
100
AcDbRotatedDimension
  0
LINE
  5
1B4E8
330
747D
100
AcDbEntity
  8
部品1
 48
50.0
100
AcDbLine
 10
14822.82958141817
 20
11473.73679736196
 30
0.0
 11
14822.82958141817
 21
9418.736797361971
 31
0.0
  0
LINE
  5
1B4E9
330
747D
100
AcDbEntity
  8
細線
 48
50.0
100
AcDbLine
 10
14787.82958141817
 20
11378.73679736197
 30
0.0
 11
14787.82958141817
 21
9418.736797361971
 31
0.0
  0
LINE
  5
1B4EA
330
747D
100
AcDbEntity
  8
部品1
 48
50.0
100
AcDbLine
 10
14772.32958141817
 20
11378.73679736196
 30
0.0
 11
14772.32958141817
 21
9430.736797361971
 31
0.0
  0
LINE
  5
1B4EB
330
747D
100
AcDbEntity
  8
部品1
 48
50.0
100
AcDbLine
 10
14736.32958141817
 20
11367.59466173824
 30
0.0
 11
14736.32958141817
 21
9470.73679736197
 31
0.0
  0
LINE
  5
1B4EC
330
747D
100
AcDbEntity
  8
部品1
 48
50.0
100
AcDbLine
 10
14190.82958141817
 20
11063.08847168111
 30
0.0
 11
14190.82958141817
 21
9470.73679736197
 31
0.0
  0
LINE
  5
1B4ED
330
747D
100
AcDbEntity
  8
部品1
 48
50.0
100
AcDbLine
 10
14154.82958141817
 20
11063.08847168111
 30
0.0
 11
14154.82958141817
 21
9470.73679736197
 31
0.0
  0
MTEXT
  5
1B4EE
102
{ACAD_REACTORS
330
1B4F3
102
}
330
747D
100
AcDbEntity
  8
寸法
 62
     7
 48
50.0
100
AcDbMText
 10
15062.3774760777
 20
10099.22034129159
 30
0.0
 40
150.0
 41
0.0
 71
     4
 72
     1
  1
\A1;内壁
  7
STYLE1
 73
     1
 44
1.0
  0
MTEXT
  5
1B4EF
102
{ACAD_REACTORS
330
1B4F0
102
}
330
747D
100
AcDbEntity
  8
寸法
 62
     7
 48
50.0
100
AcDbMText
 10
15093.03052825934
 20
10508.28252840044
 30
0.0
 40
150.0
 41
0.0
 71
     4
 72
     1
  1
\A1;壁パネル
  7
STYLE1
 73
     1
 44
1.0
  0
LEADER
  5
1B4F0
330
747D
100
AcDbEntity
  8
寸法
 48
50.0
100
AcDbLeader
  3
INABA_S50G
 71
     0
 73
     0
 74
     0
 75
     1
 40
150.0
 41
719.9999999999999
 76
     3
 10
14810.64563276007
 20
10204.29303103486
 30
0.0
 10
14943.03052825934
 20
10408.28252840044
 30
0.0
 10
15068.03052825934
 20
10408.28252840044
 30
0.0
340
1B4EF
1001
ACAD
1000
DSTYLE
1002
{
1070
     6
1000
DOTSMALL
1002
}
  0
MTEXT
  5
1B4F1
102
{ACAD_REACTORS
330
1B4F2
102
}
330
747D
100
AcDbEntity
  8
寸法
 62
     7
 48
50.0
100
AcDbMText
 10
15115.21447691743
 20
9692.226294727554
 30
0.0
 40
150.0
 41
0.0
 71
     4
 72
     1
  1
\A1;土台前後
  7
STYLE1
 73
     1
 44
1.0
  0
LEADER
  5
1B4F2
330
747D
100
AcDbEntity
  8
寸法
 48
50.0
100
AcDbLeader
  3
INABA_S50G
 71
     0
 73
     0
 74
     0
 75
     1
 40
150.0
 41
719.9999999999995
 76
     3
 10
14822.82958141817
 20
9388.236797361971
 30
0.0
 10
14965.21447691743
 20
9592.226294727554
 30
0.0
 10
15090.21447691743
 20
9592.226294727554
 30
0.0
340
1B4F1
1001
ACAD
1000
DSTYLE
1002
{
1070
     6
1000
DOTSMALL
1002
}
  0
LEADER
  5
1B4F3
330
747D
100
AcDbEntity
  8
寸法
 48
50.0
100
AcDbLeader
  3
INABA_S50G
 71
     0
 73
     0
 74
     0
 75
     1
 40
150.0
 41
320.0
 76
     3
 10
14779.99258057844
 20
9795.230843926011
 30
0.0
 10
14912.3774760777
 20
9999.220341291595
 30
0.0
 10
15037.3774760777
 20
9999.220341291595
 30
0.0
340
1B4EE
1001
ACAD
1000
DSTYLE
1002
{
1070
     6
1000
DOTSMALL
1002
}
  0
LINE
  5
1B4F4
330
747D
100
AcDbEntity
  8
細線
 48
50.0
100
AcDbLine
 10
14720.10352533462
 20
9228.736797361971
 30
0.0
 11
14622.82958141817
 21
9326.010741278425
 31
0.0
  0
LINE
  5
1B4F5
330
747D
100
AcDbEntity
  8
細線
 48
50.0
100
AcDbLine
 10
14746.62002962911
 20
9228.736797361971
 30
0.0
 11
14622.82958141817
 21
9352.52724557292
 31
0.0
  0
LINE
  5
1B4F6
330
747D
100
AcDbEntity
  8
細線
 48
50.0
100
AcDbLine
 10
14691.82958141817
 20
9135.027245572921
 30
0.0
 11
14785.53913320723
 21
9228.736797361971
 31
0.0
  0
MTEXT
  5
1B4F7
102
{ACAD_REACTORS
330
1B4F8
102
}
330
747D
100
AcDbEntity
  8
寸法
 62
     7
 48
50.0
100
AcDbMText
 10
14553.56909905212
 20
9701.080712269295
 30
0.0
 40
150.0
 41
0.0
 71
     6
 72
     1
  1
\A1;巾木
  7
STYLE1
 73
     1
 44
1.0
  0
LEADER
  5
1B4F8
330
747D
100
AcDbEntity
  8
寸法
 48
50.0
100
AcDbLeader
  3
INABA_S50G
 71
     0
 73
     0
 75
     1
 40
150.0
 41
310.0
 76
     3
 10
14766.76541320617
 20
9455.070269982758
 30
0.0
 10
14703.56909905212
 20
9601.080712269295
 30
0.0
 10
14578.56909905212
 20
9601.080712269295
 30
0.0
340
1B4F7
1001
ACAD
1000
DSTYLE
1002
{
1070
     6
1000
DOTSMALL
1002
}
  0
LINE
  5
1B4F9
330
747D
100
AcDbEntity
  8
部品1
 48
50.0
100
AcDbLine
 10
14691.82958141817
 20
9028.73679736197
 30
0.0
 11
14891.82958141817
 21
9028.73679736197
 31
0.0
  0
LINE
  5
1B4FA
330
747D
100
AcDbEntity
  8
細線
 48
50.0
100
AcDbLine
 10
14691.82958141817
 20
9108.510741278426
 30
0.0
 11
14812.0556375017
 21
9228.736797361971
 31
0.0
  0
LINE
  5
1B4FB
330
747D
100
AcDbEntity
  8
細線
 48
50.0
100
AcDbLine
 10
14691.82958141817
 20
9081.994236983929
 30
0.0
 11
14838.5721417962
 21
9228.736797361973
 31
0.0
  0
LINE
  5
1B4FC
330
747D
100
AcDbEntity
  8
部品1
 48
50.0
100
AcDbLine
 10
14622.82958141817
 20
9363.736797361971
 30
0.0
 11
14622.82958141817
 21
9228.736797361971
 31
0.0
  0
LINE
  5
1B4FD
330
747D
100
AcDbEntity
  8
部品1
 48
50.0
100
AcDbLine
 10
14482.82958141816
 20
9418.736797361971
 30
0.0
 11
14482.82958141816
 21
9363.736797361971
 31
0.0
  0
LINE
  5
1B4FE
330
747D
100
AcDbEntity
  8
部品1
 48
50.0
100
AcDbLine
 10
14476.82958141816
 20
9418.736797361971
 30
0.0
 11
14476.82958141816
 21
9412.73679736197
 31
0.0
  0
LINE
  5
1B4FF
330
747D
100
AcDbEntity
  8
部品1
 48
50.0
100
AcDbLine
 10
14476.82958141816
 20
9418.736797361971
 30
0.0
 11
14482.82958141816
 21
9418.736797361971
 31
0.0
  0
LINE
  5
1B500
330
747D
100
AcDbEntity
  8
部品1
 48
50.0
100
AcDbLine
 10
14152.82958141816
 20
9363.736797361971
 30
0.0
 11
14152.82958141816
 21
9418.736797361971
 31
0.0
  0
LINE
  5
1B501
330
747D
100
AcDbEntity
  8
部品1
 48
50.0
100
AcDbLine
 10
14192.82958141816
 20
9418.736797361971
 30
0.0
 11
14192.82958141816
 21
9363.736797361971
 31
0.0
  0
LINE
  5
1B502
330
747D
100
AcDbEntity
  8
部品1
 48
50.0
100
AcDbLine
 10
14158.82958141816
 20
9412.73679736197
 30
0.0
 11
14158.82958141816
 21
9418.736797361971
 31
0.0
  0
LINE
  5
1B503
330
747D
100
AcDbEntity
  8
部品1
 48
50.0
100
AcDbLine
 10
14186.82958141816
 20
9418.736797361971
 30
0.0
 11
14186.82958141816
 21
9412.73679736197
 31
0.0
  0
LINE
  5
1B504
330
747D
100
AcDbEntity
  8
部品1
 48
50.0
100
AcDbLine
 10
14158.82958141816
 20
9412.73679736197
 30
0.0
 11
14186.82958141816
 21
9412.736797361969
 31
0.0
  0
LINE
  5
1B505
330
747D
100
AcDbEntity
  8
部品1
 48
50.0
100
AcDbLine
 10
14152.82958141816
 20
9418.736797361971
 30
0.0
 11
14158.82958141816
 21
9418.736797361971
 31
0.0
  0
LINE
  5
1B506
330
747D
100
AcDbEntity
  8
部品1
 48
50.0
100
AcDbLine
 10
14186.82958141816
 20
9418.736797361971
 30
0.0
 11
14192.82958141816
 21
9418.736797361971
 31
0.0
  0
LINE
  5
1B507
330
747D
100
AcDbEntity
  8
部品1
 48
50.0
100
AcDbLine
 10
14442.82958141816
 20
9363.736797361971
 30
0.0
 11
14442.82958141816
 21
9418.736797361971
 31
0.0
  0
LINE
  5
1B508
330
747D
100
AcDbEntity
  8
部品1
 48
50.0
100
AcDbLine
 10
14448.82958141816
 20
9412.73679736197
 30
0.0
 11
14448.82958141816
 21
9418.736797361971
 31
0.0
  0
LINE
  5
1B509
330
747D
100
AcDbEntity
  8
部品1
 48
50.0
100
AcDbLine
 10
14442.82958141816
 20
9418.736797361971
 30
0.0
 11
14448.82958141816
 21
9418.736797361971
 31
0.0
  0
LINE
  5
1B50A
330
747D
100
AcDbEntity
  8
部品1
 48
50.0
100
AcDbLine
 10
14448.82958141816
 20
9412.73679736197
 30
0.0
 11
14476.82958141816
 21
9412.736797361969
 31
0.0
  0
LINE
  5
1B50B
330
747D
100
AcDbEntity
  8
部品1
 48
50.0
100
AcDbLine
 10
14691.82958141817
 20
9228.736797361971
 30
0.0
 11
14691.82958141817
 21
9028.73679736197
 31
0.0
  0
LINE
  5
1B50C
330
747D
100
AcDbEntity
  8
部品1
 48
50.0
100
AcDbLine
 10
14822.82958141817
 20
9363.736797361971
 30
0.0
 11
14822.82958141817
 21
9228.736797361971
 31
0.0
  0
LINE
  5
1B50D
330
747D
100
AcDbEntity
  8
細線
 48
50.0
100
AcDbLine
 10
14822.82958141817
 20
9302.527245572919
 30
0.0
 11
14761.62002962911
 21
9363.736797361971
 31
0.0
  0
LINE
  5
1B50E
330
747D
100
AcDbEntity
  8
細線
 48
50.0
100
AcDbLine
 10
14822.82958141817
 20
9276.010741278424
 30
0.0
 11
14735.10352533462
 21
9363.736797361973
 31
0.0
  0
LINE
  5
1B50F
330
747D
100
AcDbEntity
  8
破線
 48
3.0
100
AcDbLine
 10
14812.82958141817
 20
9228.736797361971
 30
0.0
 11
14812.82958141817
 21
9122.736797361971
 31
0.0
  0
LINE
  5
1B510
330
747D
100
AcDbEntity
  8
破線
 48
3.0
100
AcDbLine
 10
14770.82958141817
 20
9228.736797361971
 30
0.0
 11
14770.82958141817
 21
9122.736797361971
 31
0.0
  0
LINE
  5
1B511
330
747D
100
AcDbEntity
  8
破線
 48
3.0
100
AcDbLine
 10
14770.82958141817
 20
9122.736797361971
 30
0.0
 11
14812.82958141817
 21
9122.736797361971
 31
0.0
  0
LINE
  5
1B512
330
747D
100
AcDbEntity
  8
部品1
 48
50.0
100
AcDbLine
 10
14822.82958141817
 20
9412.73679736197
 30
0.0
 11
14816.82958141817
 21
9412.73679736197
 31
0.0
  0
LINE
  5
1B513
330
747D
100
AcDbEntity
  8
部品1
 48
50.0
100
AcDbLine
 10
14816.82958141817
 20
9412.73679736197
 30
0.0
 11
14816.82958141817
 21
9418.736797361971
 31
0.0
  0
LINE
  5
1B514
330
747D
100
AcDbEntity
  8
部品1
 48
50.0
100
AcDbLine
 10
14822.82958141817
 20
9412.736797361969
 30
0.0
 11
14822.82958141817
 21
9363.736797361971
 31
0.0
  0
LINE
  5
1B515
330
747D
100
AcDbEntity
  8
部品1
 48
50.0
100
AcDbLine
 10
14772.32958141816
 20
9470.73679736197
 30
0.0
 11
14763.32958141816
 21
9470.73679736197
 31
0.0
  0
LINE
  5
1B516
330
747D
100
AcDbEntity
  8
部品1
 48
50.0
100
AcDbLine
 10
14772.32958141817
 20
9430.736797361971
 30
0.0
 11
14772.32958141817
 21
9418.736797361971
 31
0.0
  0
LINE
  5
1B517
330
747D
100
AcDbEntity
  8
部品1
 48
50.0
100
AcDbLine
 10
14787.32958141817
 20
9430.736797361971
 30
0.0
 11
14772.32958141817
 21
9430.736797361971
 31
0.0
  0
LINE
  5
1B518
330
747D
100
AcDbEntity
  8
部品1
 48
50.0
100
AcDbLine
 10
14787.32958141817
 20
9418.736797361971
 30
0.0
 11
14787.32958141817
 21
9430.736797361971
 31
0.0
  0
LINE
  5
1B519
330
747D
100
AcDbEntity
  8
部品1
 48
50.0
100
AcDbLine
 10
14758.32958141817
 20
9418.736797361971
 30
0.0
 11
14758.32958141817
 21
9411.736797361971
 31
0.0
  0
LINE
  5
1B51A
330
747D
100
AcDbEntity
  8
部品1
 48
50.0
100
AcDbLine
 10
14758.32958141817
 20
9418.736797361971
 30
0.0
 11
14772.32958141817
 21
9418.736797361971
 31
0.0
  0
LINE
  5
1B51B
330
747D
100
AcDbEntity
  8
部品1
 48
50.0
100
AcDbLine
 10
14763.32958141816
 20
9430.736797361971
 30
0.0
 11
14772.32958141817
 21
9430.736797361971
 31
0.0
  0
LINE
  5
1B51C
330
747D
100
AcDbEntity
  8
部品1
 48
50.0
100
AcDbLine
 10
14763.32958141816
 20
9470.73679736197
 30
0.0
 11
14763.32958141816
 21
9430.736797361971
 31
0.0
  0
LINE
  5
1B51D
330
747D
100
AcDbEntity
  8
部品1
 48
50.0
100
AcDbLine
 10
14734.32958141817
 20
9411.736797361971
 30
0.0
 11
14734.32958141817
 21
9363.736797361971
 31
0.0
  0
LINE
  5
1B51E
330
747D
100
AcDbEntity
  8
部品1
 48
50.0
100
AcDbLine
 10
14758.32958141817
 20
9411.736797361971
 30
0.0
 11
14734.32958141817
 21
9411.736797361971
 31
0.0
  0
LINE
  5
1B51F
330
747D
100
AcDbEntity
  8
部品1
 48
50.0
100
AcDbLine
 10
14822.82958141817
 20
9418.736797361971
 30
0.0
 11
14787.32958141817
 21
9418.736797361971
 31
0.0
  0
LINE
  5
1B520
330
747D
100
AcDbEntity
  8
細線
 48
50.0
100
AcDbLine
 10
14788.57214179622
 20
9028.73679736197
 30
0.0
 11
14891.82958141817
 21
9131.994236983928
 31
0.0
  0
LINE
  5
1B521
330
747D
100
AcDbEntity
  8
細線
 48
50.0
100
AcDbLine
 10
14762.05563750172
 20
9028.73679736197
 30
0.0
 11
14891.82958141817
 21
9158.510741278426
 31
0.0
  0
LINE
  5
1B522
330
747D
100
AcDbEntity
  8
細線
 48
50.0
100
AcDbLine
 10
14735.53913320722
 20
9028.73679736197
 30
0.0
 11
14891.82958141817
 21
9185.027245572921
 31
0.0
  0
LINE
  5
1B523
330
747D
100
AcDbEntity
  8
部品1
 48
50.0
100
AcDbLine
 10
14891.82958141817
 20
9028.73679736197
 30
0.0
 11
14891.82958141817
 21
9228.736797361971
 31
0.0
  0
DIMENSION
  5
1B524
330
747D
100
AcDbEntity
  8
寸法
 48
50.0
100
AcDbDimension
  2
*D45
 10
14917.82958141817
 20
12327.01792807848
 30
0.0
 11
15250.38863653628
 21
12327.01792807848
 31
0.0
 70
   160
 71
     5
 42
-1.0
  3
INABA_S50G
100
AcDbAlignedDimension
 13
14822.82958141817
 23
11576.3631811976
 33
0.0
 14
14917.82958141817
 24
11573.73679736197
 34
0.0
100
AcDbRotatedDimension
1001
ACAD
1000
DSTYLE
1002
{
1002
}
  0
MTEXT
  5
1B525
102
{ACAD_REACTORS
330
1B528
102
}
330
747D
100
AcDbEntity
  8
寸法
 62
     7
 48
50.0
100
AcDbMText
 10
15190.49506749086
 20
11038.8835600829
 30
0.0
 40
150.0
 41
0.0
 71
     4
 72
     1
  1
\A1;桁後
  7
STYLE1
 73
     1
 44
1.0
  0
MTEXT
  5
1B526
102
{ACAD_REACTORS
330
1B527
102
}
330
747D
100
AcDbEntity
  8
寸法
 62
     7
 48
50.0
100
AcDbMText
 10
15183.94018070688
 20
11247.92104541549
 30
0.0
 40
150.0
 41
0.0
 71
     4
 72
     1
  1
\A1;雨樋
  7
STYLE1
 73
     1
 44
1.0
  0
LEADER
  5
1B527
330
747D
100
AcDbEntity
  8
寸法
 48
50.0
100
AcDbLeader
  3
INABA_S50G
 71
     0
 73
     0
 74
     0
 75
     1
 40
150.0
 41
360.0
 76
     3
 10
14903.82958141817
 20
11409.546036235
 30
0.0
 10
15033.94018070688
 20
11147.92104541549
 30
0.0
 10
15158.94018070688
 20
11147.92104541549
 30
0.0
340
1B526
1001
ACAD
1000
DSTYLE
1002
{
1070
     6
1000
DOTSMALL
1002
}
  0
LEADER
  5
1B528
330
747D
100
AcDbEntity
  8
寸法
 48
50.0
100
AcDbLeader
  3
INABA_S50G
 71
     0
 73
     0
 74
     0
 75
     1
 40
150.0
 41
360.0000000000001
 76
     3
 10
14822.82958141817
 20
11432.2065891273
 30
0.0
 10
15040.49506749086
 20
10938.8835600829
 30
0.0
 10
15165.49506749086
 20
10938.8835600829
 30
0.0
340
1B525
1001
ACAD
1000
DSTYLE
1002
{
1070
     6
1000
DOTSMALL
1002
}
  0
MTEXT
  5
1B529
102
{ACAD_REACTORS
330
1B52A
102
}
330
747D
100
AcDbEntity
  8
寸法
 62
     7
 48
50.0
100
AcDbMText
 10
15218.68199506866
 20
11896.64748534791
 30
0.0
 40
150.0
 41
0.0
 71
     4
 72
     1
  1
\A1;鼻隠シ後
  7
STYLE1
 73
     1
 44
1.0
  0
LEADER
  5
1B52A
330
747D
100
AcDbEntity
  8
寸法
 48
50.0
100
AcDbLeader
  3
INABA_S50G
 71
     0
 73
     0
 74
     0
 75
     1
 40
150.0
 41
719.9999999999995
 76
     3
 10
14916.65863101408
 20
11555.13210353545
 30
0.0
 10
15068.68199506866
 20
11796.64748534791
 30
0.0
 10
15193.68199506866
 20
11796.64748534791
 30
0.0
340
1B529
1001
ACAD
1000
DSTYLE
1002
{
1070
     6
1000
DOTSMALL
1002
}
  0
MTEXT
  5
1B52B
102
{ACAD_REACTORS
330
1B52C
102
}
330
747D
100
AcDbEntity
  8
寸法
 62
     7
 48
50.0
100
AcDbMText
 10
14442.84038892262
 20
11805.2915960787
 30
0.0
 40
150.0
 41
0.0
 71
     4
 72
     1
  1
\A1;妻板
  7
STYLE1
 73
     1
 44
1.0
  0
LEADER
  5
1B52C
330
747D
100
AcDbEntity
  8
寸法
 48
50.0
100
AcDbLeader
  3
INABA_S50G
 71
     0
 73
     0
 74
     0
 75
     1
 40
150.0
 41
319.9999999999998
 76
     3
 10
14243.39974491689
 20
11571.95548955546
 30
0.0
 10
14292.84038892262
 20
11705.2915960787
 30
0.0
 10
14417.84038892262
 20
11705.2915960787
 30
0.0
340
1B52B
1001
ACAD
1000
DSTYLE
1002
{
1070
     6
1000
DOTSMALL
1002
}
  0
LINE
  5
1B52D
330
747D
100
AcDbEntity
  8
部品1
 48
50.0
100
AcDbLine
 10
14190.82958141817
 20
11367.59466173824
 30
0.0
 11
14190.82958141817
 21
11284.72281612389
 31
0.0
  0
LINE
  5
1B52E
330
747D
100
AcDbEntity
  8
部品1
 48
50.0
100
AcDbLine
 10
14154.82958141817
 20
11367.59466173824
 30
0.0
 11
14154.82958141817
 21
11284.72281612389
 31
0.0
  0
LINE
  5
1B52F
330
747D
100
AcDbEntity
  8
部品1
 48
50.0
100
AcDbLine
 10
14197.82958141817
 20
11425.73679736196
 30
0.0
 11
14197.82958141817
 21
11413.73679736196
 31
0.0
  0
LINE
  5
1B530
330
747D
100
AcDbEntity
  8
部品1
 48
50.0
100
AcDbLine
 10
14147.82958141817
 20
11413.73679736196
 30
0.0
 11
14147.82958141817
 21
11526.73679736196
 31
0.0
  0
LINE
  5
1B531
330
747D
100
AcDbEntity
  8
部品1
 48
50.0
100
AcDbLine
 10
14177.82958141817
 20
11514.23679736196
 30
0.0
 11
14197.82958141817
 21
11513.23679736196
 31
0.0
  0
LINE
  5
1B532
330
747D
100
AcDbEntity
  8
部品1
 48
50.0
100
AcDbLine
 10
14147.82958141817
 20
11526.73679736196
 30
0.0
 11
14177.82958141817
 21
11525.23679736196
 31
0.0
  0
LINE
  5
1B533
330
747D
100
AcDbEntity
  8
部品1
 48
50.0
100
AcDbLine
 10
14177.82958141817
 20
11525.23679736196
 30
0.0
 11
14177.82958141817
 21
11514.23679736196
 31
0.0
  0
LINE
  5
1B534
330
747D
100
AcDbEntity
  8
部品1
 48
50.0
100
AcDbLine
 10
14197.82958141817
 20
11413.73679736196
 30
0.0
 11
14147.82958141817
 21
11413.73679736196
 31
0.0
  0
LINE
  5
1B535
330
747D
100
AcDbEntity
  8
細線
 48
50.0
100
AcDbLine
 10
14179.13165304812
 20
11530.55349164981
 30
0.0
 11
14178.30553758823
 21
11514.57483296872
 31
0.0
  0
LINE
  5
1B536
330
747D
100
AcDbEntity
  8
細線
 48
50.0
100
AcDbLine
 10
14199.10497639949
 20
11529.52084732494
 30
0.0
 11
14198.2788609396
 21
11513.54218864385
 31
0.0
  0
LINE
  5
1B537
330
747D
100
AcDbEntity
  8
細線
 48
50.0
100
AcDbLine
 10
14178.30553758823
 20
11514.57483296872
 30
0.0
 11
14198.27886093959
 21
11513.54218864385
 31
0.0
  0
LINE
  5
1B538
330
747D
100
AcDbEntity
  8
部品1
 48
50.0
100
AcDbLine
 10
14861.39578928962
 20
11518.15851852408
 30
0.0
 11
14845.39840097363
 21
11518.44759821443
 31
0.0
  0
LINE
  5
1B539
330
747D
100
AcDbEntity
  8
細線
 48
50.0
100
AcDbLine
 10
14881.11960145478
 20
11449.80118073938
 30
0.0
 11
14822.82958141817
 21
11450.72836802431
 31
0.0
  0
LINE
  5
1B53A
330
747D
100
AcDbEntity
  8
部品1
100
AcDbLine
 10
14853.82958141817
 20
11399.546036235
 30
0.0
 11
14893.82958141817
 21
11399.546036235
 31
0.0
  0
LINE
  5
1B53B
330
747D
100
AcDbEntity
  8
部品1
100
AcDbLine
 10
14843.82958141817
 20
11448.546036235
 30
0.0
 11
14843.82958141817
 21
11421.546036235
 31
0.0
  0
LINE
  5
1B53C
330
747D
100
AcDbEntity
  8
部品1
100
AcDbLine
 10
14843.82958141816
 20
11450.39433257585
 30
0.0
 11
14843.82958141817
 21
11409.546036235
 31
0.0
  0
ARC
  5
1B53D
330
747D
100
AcDbEntity
  8
部品1
100
AcDbCircle
 10
14853.82958141817
 20
11409.546036235
 30
0.0
 40
10.0
100
AcDbArc
 50
180.0
 51
270.0
  0
LINE
  5
1B53E
330
747D
100
AcDbEntity
  8
部品1
 48
50.0
100
AcDbLine
 10
14827.82958141816
 20
11493.73679736196
 30
0.0
 11
14827.82958141816
 21
11473.73679736196
 31
0.0
  0
LINE
  5
1B53F
330
747D
100
AcDbEntity
  8
部品1
 48
50.0
100
AcDbLine
 10
14827.82958141816
 20
11473.73679736196
 30
0.0
 11
14822.82958141816
 21
11473.73679736196
 31
0.0
  0
LINE
  5
1B540
330
747D
100
AcDbEntity
  8
部品1
100
AcDbLine
 10
14822.82958141817
 20
11403.73679736197
 30
0.0
 11
14822.82958141817
 21
11363.73679736197
 31
0.0
  0
LINE
  5
1B541
330
747D
100
AcDbEntity
  8
部品1
 48
50.0
100
AcDbLine
 10
14794.32958141816
 20
11478.73679736196
 30
0.0
 11
14770.82958141816
 21
11478.73679736196
 31
0.0
  0
LINE
  5
1B542
330
747D
100
AcDbEntity
  8
部品1
 48
50.0
100
AcDbLine
 10
14794.32958141816
 20
11493.73679736196
 30
0.0
 11
14794.32958141816
 21
11478.73679736196
 31
0.0
  0
LINE
  5
1B543
330
747D
100
AcDbEntity
  8
部品1
 48
50.0
100
AcDbLine
 10
14772.82958141816
 20
11378.73679736196
 30
0.0
 11
14757.82958141816
 21
11393.73679736196
 31
0.0
  0
LINE
  5
1B544
330
747D
100
AcDbEntity
  8
部品1
100
AcDbLine
 10
14769.32958141816
 20
11367.59466173824
 30
0.0
 11
14762.00115429341
 21
11374.92308887182
 31
0.0
  0
LINE
  5
1B545
330
747D
100
AcDbEntity
  8
部品1
 48
50.0
100
AcDbLine
 10
14772.82958141816
 20
11378.73679736196
 30
0.0
 11
14772.32958141816
 21
11378.73679736196
 31
0.0
  0
LINE
  5
1B546
330
747D
100
AcDbEntity
  8
部品1
100
AcDbLine
 10
14769.32958141816
 20
11367.59466173824
 30
0.0
 11
14772.32958141816
 21
11367.59466173824
 31
0.0
  0
LINE
  5
1B547
330
747D
100
AcDbEntity
  8
部品1
 48
50.0
100
AcDbLine
 10
14757.82958141816
 20
11393.73679736196
 30
0.0
 11
14757.82958141816
 21
11413.73679736196
 31
0.0
  0
LINE
  5
1B548
330
747D
100
AcDbEntity
  8
部品1
100
AcDbLine
 10
14748.18744579443
 20
11389.73679736197
 30
0.0
 11
14749.18744579443
 21
11389.73679736197
 31
0.0
  0
LINE
  5
1B549
330
747D
100
AcDbEntity
  8
部品1
100
AcDbLine
 10
14748.18744579443
 20
11388.73679736197
 30
0.0
 11
14748.18744579443
 21
11389.73679736197
 31
0.0
  0
LINE
  5
1B54A
330
747D
100
AcDbEntity
  8
部品1
100
AcDbLine
 10
14749.18744579443
 20
11389.73679736197
 30
0.0
 11
14749.18744579443
 21
11393.73679736197
 31
0.0
  0
LINE
  5
1B54B
330
747D
100
AcDbEntity
  8
部品1
100
AcDbLine
 10
14755.63719326274
 20
11384.11547701841
 30
0.0
 11
14754.93008648155
 21
11383.40837023722
 31
0.0
  0
LINE
  5
1B54C
330
747D
100
AcDbEntity
  8
部品1
100
AcDbLine
 10
14753.51587291917
 20
11383.40837023722
 30
0.0
 11
14748.18744579443
 21
11388.73679736197
 31
0.0
  0
ARC
  5
1B54D
330
747D
100
AcDbEntity
  8
部品1
100
AcDbCircle
 10
14754.22297970037
 20
11384.11547701841
 30
0.0
 40
1.0
100
AcDbArc
 50
225.0
 51
315.0
  0
LINE
  5
1B54E
330
747D
100
AcDbEntity
  8
部品1
100
AcDbLine
 10
14762.7082610746
 20
11377.04440920654
 30
0.0
 11
14755.63719326274
 21
11384.11547701841
 31
0.0
  0
LINE
  5
1B54F
330
747D
100
AcDbEntity
  8
部品1
100
AcDbLine
 10
14762.00107523478
 20
11376.33722336673
 30
0.0
 11
14762.7082610746
 21
11377.04440920654
 31
0.0
  0
ARC
  5
1B550
330
747D
100
AcDbEntity
  8
部品1
100
AcDbCircle
 10
14762.7082610746
 20
11375.63019565301
 30
0.0
 40
1.0
100
AcDbArc
 50
135.0000000000011
 51
225.0000000000003
  0
LINE
  5
1B551
330
747D
100
AcDbEntity
  8
部品1
 48
50.0
100
AcDbLine
 10
14749.18744579443
 20
11393.73679736197
 30
0.0
 11
14757.82958141816
 21
11393.73679736197
 31
0.0
  0
LINE
  5
1B552
330
747D
100
AcDbEntity
  8
部品1
 48
50.0
100
AcDbLine
 10
14757.82958141816
 20
11413.73679736196
 30
0.0
 11
14735.82958141816
 21
11413.73679736196
 31
0.0
  0
LINE
  5
1B553
330
747D
100
AcDbEntity
  8
部品1
 48
50.0
100
AcDbLine
 10
14757.82958141816
 20
11413.73679736196
 30
0.0
 11
14735.82958141816
 21
11413.73679736196
 31
0.0
  0
LINE
  5
1B554
330
747D
100
AcDbEntity
  8
部品1
 48
50.0
100
AcDbLine
 10
14827.82958141816
 20
11493.73679736196
 30
0.0
 11
14794.32958141816
 21
11493.73679736196
 31
0.0
  0
LINE
  5
1B555
330
747D
100
AcDbEntity
  8
部品1
 48
50.0
100
AcDbLine
 10
14822.82958141816
 20
11378.73679736196
 30
0.0
 11
14772.82958141816
 21
11378.73679736196
 31
0.0
  0
LINE
  5
1B556
330
747D
100
AcDbEntity
  8
部品1
 48
50.0
100
AcDbLine
 10
14890.80660766724
 20
11540.63080728955
 30
0.0
 11
14861.39578928962
 21
11518.15851852408
 31
0.0
  0
LINE
  5
1B557
330
747D
100
AcDbEntity
  8
部品1
 48
50.0
100
AcDbLine
 10
14916.95242204339
 20
11540.15834117355
 30
0.0
 11
14890.80660766724
 21
11540.63080728955
 31
0.0
  0
ARC
  5
1B558
330
747D
100
AcDbEntity
  8
部品1
100
AcDbCircle
 10
14893.82958141817
 20
11409.546036235
 30
0.0
 40
10.0
100
AcDbArc
 50
270.0
 51
0.0
  0
LINE
  5
1B559
330
747D
100
AcDbEntity
  8
部品1
100
AcDbLine
 10
14903.82958141817
 20
11409.546036235
 30
0.0
 11
14903.82958141817
 21
11434.546036235
 31
0.0
  0
LINE
  5
1B55A
330
747D
100
AcDbEntity
  8
部品1
100
AcDbLine
 10
14906.17676303538
 20
11467.26280491307
 30
0.0
 11
14905.77792395764
 21
11463.51558742467
 31
0.0
  0
ARC
  5
1B55B
330
747D
100
AcDbEntity
  8
部品1
 48
50.0
100
AcDbCircle
 10
14908.35118254029
 20
11470.68507021756
 30
0.0
 40
1.199999999999999
100
AcDbArc
 50
274.830006122604
 51
353.924536124901
  0
ARC
  5
1B55C
330
747D
100
AcDbEntity
  8
部品1
 48
50.0
100
AcDbCircle
 10
14908.66272143308
 20
11466.99820928773
 30
0.0
 40
2.5
100
AcDbArc
 50
94.83000612260093
 51
173.9245361249088
  0
ARC
  5
1B55D
330
747D
100
AcDbEntity
  8
部品1
100
AcDbCircle
 10
14890.36498189196
 20
11465.15608030179
 30
0.0
 40
15.5
100
AcDbArc
 50
269.0887044041854
 51
353.9245361249208
  0
LINE
  5
1B55E
330
747D
100
AcDbEntity
  8
部品1
100
AcDbLine
 10
14917.74287520146
 20
11547.58489504698
 30
0.0
 11
14909.54444257119
 21
11470.55806431739
 31
0.0
  0
LINE
  5
1B55F
330
747D
100
AcDbEntity
  8
部品1
100
AcDbLine
 10
14898.33578614471
 20
11565.79220093534
 30
0.0
 11
14895.7197799481
 21
11572.82495737241
 31
0.0
  0
ARC
  5
1B560
330
747D
100
AcDbEntity
  8
部品1
100
AcDbCircle
 10
14902.32958141817
 20
11549.22208342743
 30
0.0
 40
15.5
100
AcDbArc
 50
353.924536124901
 51
88.13874351680366
  0
ARC
  5
1B561
330
747D
100
AcDbEntity
  8
部品1
100
AcDbCircle
 10
14892.43937643104
 20
11571.60473085031
 30
0.0
 40
3.5
100
AcDbArc
 50
20.40391857757644
 51
88.96475328401214
  0
ARC
  5
1B562
330
747D
100
AcDbEntity
  8
部品1
100
AcDbCircle
 10
14899.76128014115
 20
11566.26244516471
 30
0.0
 40
1.5
100
AcDbArc
 50
200.4039185775898
 51
269.0981540988988
  0
LINE
  5
1B563
330
747D
100
AcDbEntity
  8
部品1
 48
50.0
100
AcDbLine
 10
14899.73767084558
 20
11564.76263097583
 30
0.0
 11
14902.83301119891
 21
11564.71390573651
 31
0.0
  0
LINE
  5
1B564
330
747D
100
AcDbEntity
  8
部品1
100
AcDbLine
 10
14890.11846310262
 20
11449.65804079718
 30
0.0
 11
14881.11960145478
 21
11449.80118073938
 31
0.0
  0
LINE
  5
1B565
330
747D
100
AcDbEntity
  8
細線
 48
50.0
100
AcDbLine
 10
14773.61044007577
 20
11483.79686886602
 30
0.0
 11
14793.58376342714
 21
11482.76422454115
 31
0.0
  0
LINE
  5
1B566
330
747D
100
AcDbEntity
  8
細線
 48
50.0
100
AcDbLine
 10
14794.40987888703
 20
11498.74288322225
 30
0.0
 11
14793.58376342714
 21
11482.76422454115
 31
0.0
  0
LINE
  5
1B567
330
747D
100
AcDbEntity
  8
細線
 48
50.0
100
AcDbLine
 10
14774.43655553566
 20
11499.77552754712
 30
0.0
 11
14773.61044007577
 21
11483.79686886602
 31
0.0
  0
LINE
  5
1B568
330
747D
100
AcDbEntity
  8
細線
 48
50.0
100
AcDbLine
 10
14870.44575021202
 20
11516.84112269049
 30
0.0
 11
14869.30984145466
 21
11494.87046700399
 31
0.0
  0
ENDSEC
  0
SECTION
  2
OBJECTS
  0
DICTIONARY
  5
7471
330
0
100
AcDbDictionary
281
     1
  3
ACAD_GROUP
350
7472
  3
ACAD_LAYOUT
350
1B661
  3
ACAD_MLINESTYLE
350
7473
  3
ACAD_PLOTSETTINGS
350
1B662
  3
ACAD_PLOTSTYLENAME
350
1B65F
  3
ACDBHEADERROUNDTRIPXREC
350
1B6DA
  3
ACDBVARIABLEDICTIONARY
350
123D8
  3
CONTENTDICTIONARY
350
E71C
  3
DRAWINGVARIABLESDICT
350
F3B9
  0
DICTIONARY
  5
1B691
330
747D
100
AcDbDictionary
280
     1
281
     1
  3
ACAD_LAYOUTSELFREF
360
1B692
  0
DICTIONARY
  5
1B68F
330
747A
100
AcDbDictionary
280
     1
281
     1
  3
ACAD_LAYOUTSELFREF
360
1B690
  0
DICTIONARY
  5
7472
102
{ACAD_REACTORS
330
7471
102
}
330
7471
100
AcDbDictionary
281
     1
  0
DICTIONARY
  5
1B661
102
{ACAD_REACTORS
330
7471
102
}
330
7471
100
AcDbDictionary
281
     1
  3
Model
350
1B663
  3
ﾚｲｱｳﾄ1
350
1B664
  0
DICTIONARY
  5
7473
102
{ACAD_REACTORS
330
7471
102
}
330
7471
100
AcDbDictionary
281
     1
  3
STANDARD
350
7480
  0
DICTIONARY
  5
1B662
102
{ACAD_REACTORS
330
7471
102
}
330
7471
100
AcDbDictionary
281
     1
  0
ACDBDICTIONARYWDFLT
  5
1B65F
102
{ACAD_REACTORS
330
7471
102
}
330
7471
100
AcDbDictionary
281
     1
  3
Normal
350
1B660
100
AcDbDictionaryWithDefault
340
1B660
  0
DICTIONARY
  5
1B6DA
102
{ACAD_REACTORS
330
7471
102
}
330
7471
100
AcDbDictionary
281
     1
  3
CEPSNTYPE
350
1B6E4
  3
DIMSTYLEDATA
350
1B6E8
  3
FINGERPRINTGUID
350
1B6E5
  3
HYPERLINKBASE
350
1B6DD
  3
INSUNITS
350
1B6E3
  3
LAYOUTDICT
350
1B6DF
  3
LWETCUNION
350
1B6E2
  3
PLOTSETDICT
350
1B6E0
  3
PLOTSTYLNAMDICT
350
1B6E1
  3
PSVPSCALE
350
1B6E7
  3
PUCSBASE
350
1B6EB
  3
PUCSORGBACK
350
1B6F1
  3
PUCSORGBOTTOM
350
1B6ED
  3
PUCSORGFRONT
350
1B6F0
  3
PUCSORGLEFT
350
1B6EE
  3
PUCSORGRIGHT
350
1B6EF
  3
PUCSORGTOP
350
1B6EC
  3
PUCSORTHOREF
350
1B6E9
  3
PUCSORTHOVIEW
350
1B6EA
  3
STYLESHEET
350
1B6DE
  3
TSTACKALIGN
350
1B6DB
  3
TSTACKSIZE
350
1B6DC
  3
UCSBASE
350
1B6F4
  3
UCSORGBACK
350
1B6FA
  3
UCSORGBOTTOM
350
1B6F6
  3
UCSORGFRONT
350
1B6F9
  3
UCSORGLEFT
350
1B6F7
  3
UCSORGRIGHT
350
1B6F8
  3
UCSORGTOP
350
1B6F5
  3
UCSORTHOREF
350
1B6F2
  3
UCSORTHOVIEW
350
1B6F3
  3
VERSIONGUID
350
1B6E6
  0
DICTIONARY
  5
123D8
102
{ACAD_REACTORS
330
7471
102
}
330
7471
100
AcDbDictionary
281
     1
  3
DIMASSOC
350
1B6D1
  3
SORTENTS
350
123D9
  0
DICTIONARY
  5
E71C
102
{ACAD_REACTORS
330
7471
102
}
330
7471
100
AcDbDictionary
281
     1
  0
DICTIONARY
  5
F3B9
102
{ACAD_REACTORS
330
7471
102
}
330
7471
100
AcDbDictionary
281
     1
1001
DRAWINGVARIABLESXDATA
1000
POLARMODE
1000
1
  0
XRECORD
  5
1B692
102
{ACAD_REACTORS
330
1B691
102
}
330
1B691
100
AcDbXrecord
280
     1
340
747D
  0
XRECORD
  5
1B690
102
{ACAD_REACTORS
330
1B68F
102
}
330
1B68F
100
AcDbXrecord
280
     1
340
747A
  0
LAYOUT
  5
1B663
102
{ACAD_REACTORS
330
1B661
102
}
330
1B661
100
AcDbPlotSettings
  1

  2
Canon LBP-730
  4

  6

 40
0.0
 41
0.0
 42
0.0
 43
0.0
 44
0.0
 45
0.0
 46
0.0
 47
0.0
 48
0.0
 49
0.0
140
0.0
141
0.0
142
1.0
143
1.0
 70
  1712
 72
     0
 73
     0
 74
     0
  7

 75
     0
147
1.0
148
0.0
149
0.0
100
AcDbLayout
  1
Model
 70
     1
 71
     0
 10
0.0
 20
0.0
 11
12.0
 21
9.0
 12
0.0
 22
0.0
 32
0.0
 14
0.0
 24
0.0
 34
0.0
 15
0.0
 25
0.0
 35
0.0
146
0.0
 13
0.0
 23
0.0
 33
0.0
 16
1.0
 26
0.0
 36
0.0
 17
0.0
 27
1.0
 37
0.0
 76
     0
330
747D
  0
LAYOUT
  5
1B664
102
{ACAD_REACTORS
330
1B661
102
}
330
1B661
100
AcDbPlotSettings
  1

  2
Canon LBP-730
  4

  6

 40
0.0
 41
0.0
 42
0.0
 43
0.0
 44
0.0
 45
0.0
 46
0.0
 47
0.0
 48
0.0
 49
0.0
140
0.0
141
0.0
142
1.0
143
1.0
 70
   688
 72
     0
 73
     0
 74
     5
  7

 75
    16
147
1.0
148
0.0
149
0.0
100
AcDbLayout
  1
ﾚｲｱｳﾄ1
 70
     0
 71
     1
 10
0.0
 20
0.0
 11
420.0
 21
297.0
 12
0.0
 22
0.0
 32
0.0
 14
1.000000000000000E+20
 24
1.000000000000000E+20
 34
1.000000000000000E+20
 15
-1.000000000000000E+20
 25
-1.000000000000000E+20
 35
-1.000000000000000E+20
146
0.0
 13
0.0
 23
0.0
 33
0.0
 16
1.0
 26
0.0
 36
0.0
 17
0.0
 27
1.0
 37
0.0
 76
     0
330
747A
  0
MLINESTYLE
  5
7480
102
{ACAD_REACTORS
330
7473
102
}
330
7473
100
AcDbMlineStyle
  2
STANDARD
 70
     0
  3

 62
     0
 51
90.0
 52
90.0
 71
     2
 49
0.5
 62
   256
  6
BYLAYER
 49
-0.5
 62
   256
  6
BYLAYER
  0
ACDBPLACEHOLDER
  5
1B660
102
{ACAD_REACTORS
330
1B65F
102
}
330
1B65F
  0
XRECORD
  5
1B6E4
102
{ACAD_REACTORS
330
1B6DA
102
}
330
1B6DA
100
AcDbXrecord
280
     1
 90
        0
  0
XRECORD
  5
1B6E8
102
{ACAD_REACTORS
330
1B6DA
102
}
330
1B6DA
100
AcDbXrecord
280
     1
1000
DSTYLE
1002
{
1070
   341
340
F770
1070
   343
340
F770
1070
   344
340
F770
1002
}
  0
XRECORD
  5
1B6E5
102
{ACAD_REACTORS
330
1B6DA
102
}
330
1B6DA
100
AcDbXrecord
280
     1
  1
{0717079B-F8BF-11D6-AF94-00909916878D}
  0
XRECORD
  5
1B6DD
102
{ACAD_REACTORS
330
1B6DA
102
}
330
1B6DA
100
AcDbXrecord
280
     1
  1

  0
XRECORD
  5
1B6E3
102
{ACAD_REACTORS
330
1B6DA
102
}
330
1B6DA
100
AcDbXrecord
280
     1
 90
        0
  0
XRECORD
  5
1B6DF
102
{ACAD_REACTORS
330
1B6DA
102
}
330
1B6DA
100
AcDbXrecord
280
     1
340
1B661
  0
XRECORD
  5
1B6E2
102
{ACAD_REACTORS
330
1B6DA
102
}
330
1B6DA
100
AcDbXrecord
280
     1
 90
    14877
  0
XRECORD
  5
1B6E0
102
{ACAD_REACTORS
330
1B6DA
102
}
330
1B6DA
100
AcDbXrecord
280
     1
340
1B662
  0
XRECORD
  5
1B6E1
102
{ACAD_REACTORS
330
1B6DA
102
}
330
1B6DA
100
AcDbXrecord
280
     1
340
1B65F
  0
XRECORD
  5
1B6E7
102
{ACAD_REACTORS
330
1B6DA
102
}
330
1B6DA
100
AcDbXrecord
280
     1
 40
0.0
  0
XRECORD
  5
1B6EB
102
{ACAD_REACTORS
330
1B6DA
102
}
330
1B6DA
100
AcDbXrecord
280
     1
340
0
  0
XRECORD
  5
1B6F1
102
{ACAD_REACTORS
330
1B6DA
102
}
330
1B6DA
100
AcDbXrecord
280
     1
 10
0.0
 20
0.0
 30
0.0
  0
XRECORD
  5
1B6ED
102
{ACAD_REACTORS
330
1B6DA
102
}
330
1B6DA
100
AcDbXrecord
280
     1
 10
0.0
 20
0.0
 30
0.0
  0
XRECORD
  5
1B6F0
102
{ACAD_REACTORS
330
1B6DA
102
}
330
1B6DA
100
AcDbXrecord
280
     1
 10
0.0
 20
0.0
 30
0.0
  0
XRECORD
  5
1B6EE
102
{ACAD_REACTORS
330
1B6DA
102
}
330
1B6DA
100
AcDbXrecord
280
     1
 10
0.0
 20
0.0
 30
0.0
  0
XRECORD
  5
1B6EF
102
{ACAD_REACTORS
330
1B6DA
102
}
330
1B6DA
100
AcDbXrecord
280
     1
 10
0.0
 20
0.0
 30
0.0
  0
XRECORD
  5
1B6EC
102
{ACAD_REACTORS
330
1B6DA
102
}
330
1B6DA
100
AcDbXrecord
280
     1
 10
0.0
 20
0.0
 30
0.0
  0
XRECORD
  5
1B6E9
102
{ACAD_REACTORS
330
1B6DA
102
}
330
1B6DA
100
AcDbXrecord
280
     1
340
0
  0
XRECORD
  5
1B6EA
102
{ACAD_REACTORS
330
1B6DA
102
}
330
1B6DA
100
AcDbXrecord
280
     1
 70
     0
  0
XRECORD
  5
1B6DE
102
{ACAD_REACTORS
330
1B6DA
102
}
330
1B6DA
100
AcDbXrecord
280
     1
  1

  0
XRECORD
  5
1B6DB
102
{ACAD_REACTORS
330
1B6DA
102
}
330
1B6DA
100
AcDbXrecord
280
     1
 90
        1
  0
XRECORD
  5
1B6DC
102
{ACAD_REACTORS
330
1B6DA
102
}
330
1B6DA
100
AcDbXrecord
280
     1
 90
       70
  0
XRECORD
  5
1B6F4
102
{ACAD_REACTORS
330
1B6DA
102
}
330
1B6DA
100
AcDbXrecord
280
     1
340
0
  0
XRECORD
  5
1B6FA
102
{ACAD_REACTORS
330
1B6DA
102
}
330
1B6DA
100
AcDbXrecord
280
     1
 10
0.0
 20
0.0
 30
0.0
  0
XRECORD
  5
1B6F6
102
{ACAD_REACTORS
330
1B6DA
102
}
330
1B6DA
100
AcDbXrecord
280
     1
 10
0.0
 20
0.0
 30
0.0
  0
XRECORD
  5
1B6F9
102
{ACAD_REACTORS
330
1B6DA
102
}
330
1B6DA
100
AcDbXrecord
280
     1
 10
0.0
 20
0.0
 30
0.0
  0
XRECORD
  5
1B6F7
102
{ACAD_REACTORS
330
1B6DA
102
}
330
1B6DA
100
AcDbXrecord
280
     1
 10
0.0
 20
0.0
 30
0.0
  0
XRECORD
  5
1B6F8
102
{ACAD_REACTORS
330
1B6DA
102
}
330
1B6DA
100
AcDbXrecord
280
     1
 10
0.0
 20
0.0
 30
0.0
  0
XRECORD
  5
1B6F5
102
{ACAD_REACTORS
330
1B6DA
102
}
330
1B6DA
100
AcDbXrecord
280
     1
 10
0.0
 20
0.0
 30
0.0
  0
XRECORD
  5
1B6F2
102
{ACAD_REACTORS
330
1B6DA
102
}
330
1B6DA
100
AcDbXrecord
280
     1
340
0
  0
XRECORD
  5
1B6F3
102
{ACAD_REACTORS
330
1B6DA
102
}
330
1B6DA
100
AcDbXrecord
280
     1
 70
     0
  0
XRECORD
  5
1B6E6
102
{ACAD_REACTORS
330
1B6DA
102
}
330
1B6DA
100
AcDbXrecord
280
     1
  1
{0717079D-F8BF-11D6-AF94-00909916878D}
  0
DICTIONARYVAR
  5
1B6D1
102
{ACAD_REACTORS
330
123D8
102
}
330
123D8
100
DictionaryVariables
280
     0
  1
1
  0
DICTIONARYVAR
  5
123D9
102
{ACAD_REACTORS
330
123D8
102
}
330
123D8
100
DictionaryVariables
280
     0
  1
96
  0
ENDSEC
  0
EOF
