  0
SECTION
  2
HEADER
  9
$ACADVER
  1
AC1015
  9
$ACADMAINTVER
 70
     6
  9
$DWGCODEPAGE
  3
ANSI_932
  9
$INSBASE
 10
0.0
 20
0.0
 30
0.0
  9
$EXTMIN
 10
174.9999999999993
 20
-0.0000000000001137
 30
0.0
  9
$EXTMAX
 10
20384.0
 20
14262.0
 30
0.0
  9
$LIMMIN
 10
0.0
 20
0.0
  9
$LIMMAX
 10
21000.0
 20
14850.0
  9
$ORTHOMODE
 70
     0
  9
$REGENMODE
 70
     1
  9
$FILLMODE
 70
     1
  9
$QTEXTMODE
 70
     0
  9
$MIRRTEXT
 70
     1
  9
$LTSCALE
 40
20.0
  9
$ATTMODE
 70
     1
  9
$TEXTSIZE
 40
4.0
  9
$TRACEWID
 40
1.0
  9
$TEXTSTYLE
  7
STYLE1
  9
$CLAYER
  8
寸法
  9
$CELTYPE
  6
BYLAYER
  9
$CECOLOR
 62
   256
  9
$CELTSCALE
 40
50.0
  9
$DISPSILH
 70
     0
  9
$DIMSCALE
 40
1.0
  9
$DIMASZ
 40
125.0
  9
$DIMEXO
 40
25.0
  9
$DIMDLI
 40
7.0
  9
$DIMRND
 40
0.0
  9
$DIMDLE
 40
0.0
  9
$DIMEXE
 40
75.0
  9
$DIMTP
 40
0.0
  9
$DIMTM
 40
0.0
  9
$DIMTXT
 40
150.0
  9
$DIMCEN
 40
0.0
  9
$DIMTSZ
 40
0.0
  9
$DIMTOL
 70
     0
  9
$DIMLIM
 70
     0
  9
$DIMTIH
 70
     0
  9
$DIMTOH
 70
     0
  9
$DIMSE1
 70
     0
  9
$DIMSE2
 70
     0
  9
$DIMTAD
 70
     3
  9
$DIMZIN
 70
     8
  9
$DIMBLK
  1

  9
$DIMASO
 70
     1
  9
$DIMSHO
 70
     1
  9
$DIMPOST
  1

  9
$DIMAPOST
  1

  9
$DIMALT
 70
     0
  9
$DIMALTD
 70
     2
  9
$DIMALTF
 40
0.0394
  9
$DIMLFAC
 40
1.0
  9
$DIMTOFL
 70
     1
  9
$DIMTVP
 40
0.0
  9
$DIMTIX
 70
     1
  9
$DIMSOXD
 70
     0
  9
$DIMSAH
 70
     1
  9
$DIMBLK1
  1
DOTSMALL
  9
$DIMBLK2
  1
DOTSMALL
  9
$DIMSTYLE
  2
INABA_S50G
  9
$DIMCLRD
 70
     0
  9
$DIMCLRE
 70
     0
  9
$DIMCLRT
 70
     7
  9
$DIMTFAC
 40
1.0
  9
$DIMGAP
 40
25.0
  9
$DIMJUST
 70
     0
  9
$DIMSD1
 70
     0
  9
$DIMSD2
 70
     0
  9
$DIMTOLJ
 70
     1
  9
$DIMTZIN
 70
     0
  9
$DIMALTZ
 70
     0
  9
$DIMALTTZ
 70
     0
  9
$DIMUPT
 70
     0
  9
$DIMDEC
 70
     1
  9
$DIMTDEC
 70
     4
  9
$DIMALTU
 70
     2
  9
$DIMALTTD
 70
     2
  9
$DIMTXSTY
  7
STYLE1
  9
$DIMAUNIT
 70
     0
  9
$DIMADEC
 70
     0
  9
$DIMALTRND
 40
0.0
  9
$DIMAZIN
 70
     0
  9
$DIMDSEP
 70
    46
  9
$DIMATFIT
 70
     3
  9
$DIMFRAC
 70
     0
  9
$DIMLDRBLK
  1
DOTSMALL
  9
$DIMLUNIT
 70
     2
  9
$DIMLWD
 70
    -2
  9
$DIMLWE
 70
    -2
  9
$DIMTMOVE
 70
     0
  9
$LUNITS
 70
     2
  9
$LUPREC
 70
     1
  9
$SKETCHINC
 40
1.0
  9
$FILLETRAD
 40
3.0
  9
$AUNITS
 70
     0
  9
$AUPREC
 70
     0
  9
$MENU
  1
acad
  9
$ELEVATION
 40
0.0
  9
$PELEVATION
 40
0.0
  9
$THICKNESS
 40
0.0
  9
$LIMCHECK
 70
     0
  9
$CHAMFERA
 40
0.0
  9
$CHAMFERB
 40
0.0
  9
$CHAMFERC
 40
0.0
  9
$CHAMFERD
 40
0.0
  9
$SKPOLY
 70
     0
  9
$TDCREATE
 40
2452335.452219212
  9
$TDUCREATE
 40
2452335.077219213
  9
$TDUPDATE
 40
2452595.498390972
  9
$TDUUPDATE
 40
2452595.123390972
  9
$TDINDWG
 40
1.2917119213
  9
$TDUSRTIMER
 40
1.2917119213
  9
$USRTIMER
 70
     1
  9
$ANGBASE
 50
0.0
  9
$ANGDIR
 70
     0
  9
$PDMODE
 70
     3
  9
$PDSIZE
 40
2.0
  9
$PLINEWID
 40
0.0
  9
$SPLFRAME
 70
     0
  9
$SPLINETYPE
 70
     6
  9
$SPLINESEGS
 70
     8
  9
$HANDSEED
  5
1BFC4
  9
$SURFTAB1
 70
     6
  9
$SURFTAB2
 70
     6
  9
$SURFTYPE
 70
     6
  9
$SURFU
 70
     6
  9
$SURFV
 70
     6
  9
$UCSBASE
  2

  9
$UCSNAME
  2

  9
$UCSORG
 10
0.0
 20
0.0
 30
0.0
  9
$UCSXDIR
 10
1.0
 20
0.0
 30
0.0
  9
$UCSYDIR
 10
0.0
 20
1.0
 30
0.0
  9
$UCSORTHOREF
  2

  9
$UCSORTHOVIEW
 70
     0
  9
$UCSORGTOP
 10
0.0
 20
0.0
 30
0.0
  9
$UCSORGBOTTOM
 10
0.0
 20
0.0
 30
0.0
  9
$UCSORGLEFT
 10
0.0
 20
0.0
 30
0.0
  9
$UCSORGRIGHT
 10
0.0
 20
0.0
 30
0.0
  9
$UCSORGFRONT
 10
0.0
 20
0.0
 30
0.0
  9
$UCSORGBACK
 10
0.0
 20
0.0
 30
0.0
  9
$PUCSBASE
  2

  9
$PUCSNAME
  2

  9
$PUCSORG
 10
0.0
 20
0.0
 30
0.0
  9
$PUCSXDIR
 10
1.0
 20
0.0
 30
0.0
  9
$PUCSYDIR
 10
0.0
 20
1.0
 30
0.0
  9
$PUCSORTHOREF
  2

  9
$PUCSORTHOVIEW
 70
     0
  9
$PUCSORGTOP
 10
0.0
 20
0.0
 30
0.0
  9
$PUCSORGBOTTOM
 10
0.0
 20
0.0
 30
0.0
  9
$PUCSORGLEFT
 10
0.0
 20
0.0
 30
0.0
  9
$PUCSORGRIGHT
 10
0.0
 20
0.0
 30
0.0
  9
$PUCSORGFRONT
 10
0.0
 20
0.0
 30
0.0
  9
$PUCSORGBACK
 10
0.0
 20
0.0
 30
0.0
  9
$USERI1
 70
     0
  9
$USERI2
 70
     0
  9
$USERI3
 70
     0
  9
$USERI4
 70
     0
  9
$USERI5
 70
     0
  9
$USERR1
 40
0.0
  9
$USERR2
 40
0.0
  9
$USERR3
 40
0.0
  9
$USERR4
 40
0.0
  9
$USERR5
 40
0.0
  9
$WORLDVIEW
 70
     1
  9
$SHADEDGE
 70
     3
  9
$SHADEDIF
 70
    70
  9
$TILEMODE
 70
     1
  9
$MAXACTVP
 70
    16
  9
$PINSBASE
 10
0.0
 20
0.0
 30
0.0
  9
$PLIMCHECK
 70
     0
  9
$PEXTMIN
 10
1.000000000000000E+20
 20
1.000000000000000E+20
 30
1.000000000000000E+20
  9
$PEXTMAX
 10
-1.000000000000000E+20
 20
-1.000000000000000E+20
 30
-1.000000000000000E+20
  9
$PLIMMIN
 10
0.0
 20
0.0
  9
$PLIMMAX
 10
420.0
 20
297.0
  9
$UNITMODE
 70
     0
  9
$VISRETAIN
 70
     0
  9
$PLINEGEN
 70
     0
  9
$PSLTSCALE
 70
     0
  9
$TREEDEPTH
 70
  3020
  9
$CMLSTYLE
  2
STANDARD
  9
$CMLJUST
 70
     0
  9
$CMLSCALE
 40
1.0
  9
$PROXYGRAPHICS
 70
     1
  9
$MEASUREMENT
 70
     1
  9
$CELWEIGHT
370
    -1
  9
$ENDCAPS
280
     0
  9
$JOINSTYLE
280
     0
  9
$LWDISPLAY
290
     0
  9
$INSUNITS
 70
     0
  9
$HYPERLINKBASE
  1

  9
$STYLESHEET
  1

  9
$XEDIT
290
     1
  9
$CEPSNTYPE
380
     0
  9
$PSTYLEMODE
290
     1
  9
$FINGERPRINTGUID
  2
{07170798-F8BF-11D6-AF94-00909916878D}
  9
$VERSIONGUID
  2
{0717079A-F8BF-11D6-AF94-00909916878D}
  9
$EXTNAMES
290
     1
  9
$PSVPSCALE
 40
0.0
  9
$OLESTARTUP
290
     0
  0
ENDSEC
  0
SECTION
  2
CLASSES
  0
CLASS
  1
OLE2FRAME
  2
AcDbOle2Frame
  3
AutoCAD 2000
 90
    32768
280
     0
281
     1
  0
CLASS
  1
LWPOLYLINE
  2
AcDbPolyline
  3
AutoCAD 2000
 90
    32768
280
     0
281
     1
  0
CLASS
  1
HATCH
  2
AcDbHatch
  3
AutoCAD 2000
 90
    32768
280
     0
281
     1
  0
CLASS
  1
DICTIONARYVAR
  2
AcDbDictionaryVar
  3
AutoCAD 2000
 90
        0
280
     0
281
     0
  0
CLASS
  1
ACDBDICTIONARYWDFLT
  2
AcDbDictionaryWithDefault
  3
AutoCAD 2000
 90
        0
280
     0
281
     0
  0
CLASS
  1
ACDBPLACEHOLDER
  2
AcDbPlaceHolder
  3
AutoCAD 2000
 90
        0
280
     0
281
     0
  0
CLASS
  1
LAYOUT
  2
AcDbLayout
  3
AutoCAD 2000
 90
        0
280
     0
281
     0
  0
CLASS
  1
LONG_TRANSACTION
  2
AcDbLongTransaction
  3
AutoCAD 2000
 90
    32768
280
     0
281
     0
  0
CLASS
  1
LWPOLYLINE
  2
AcDbPolyline
  3
AutoCAD 2000
 90
    32768
280
     0
281
     1
  0
CLASS
  1
HATCH
  2
AcDbHatch
  3
AutoCAD 2000
 90
    32768
280
     0
281
     1
  0
CLASS
  1
XRECORD
  2
AcDbXrecord
  3
AutoCAD 2000
 90
    32768
280
     0
281
     0
  0
ENDSEC
  0
SECTION
  2
TABLES
  0
TABLE
  2
VPORT
  5
746D
330
0
100
AcDbSymbolTable
 70
     2
  0
VPORT
  5
1BFA2
330
746D
100
AcDbSymbolTableRecord
100
AcDbViewportTableRecord
  2
*Active
 70
     0
 10
0.0
 20
0.0
 11
1.0
 21
1.0
 12
10500.0
 22
7424.773424269833
 13
0.0
 23
0.0
 14
10.0
 24
10.0
 15
10.0
 25
10.0
 16
0.0
 26
0.0
 36
1.0
 17
0.0
 27
0.0
 37
0.0
 40
15025.50760904139
 41
2.12007874015748
 42
50.0
 43
0.0
 44
0.0
 50
0.0
 51
0.0
 71
     0
 72
     0
 73
     1
 74
     0
 75
     0
 76
     0
 77
     0
 78
     0
281
     0
 65
     1
110
0.0
120
0.0
130
0.0
111
1.0
121
0.0
131
0.0
112
0.0
122
1.0
132
0.0
 79
     0
146
0.0
  0
ENDTAB
  0
TABLE
  2
LTYPE
  5
746A
330
0
100
AcDbSymbolTable
 70
     4
  0
LTYPE
  5
7477
330
746A
100
AcDbSymbolTableRecord
100
AcDbLinetypeTableRecord
  2
BYBLOCK
 70
     0
  3

 72
    65
 73
     0
 40
0.0
  0
LTYPE
  5
7478
330
746A
100
AcDbSymbolTableRecord
100
AcDbLinetypeTableRecord
  2
BYLAYER
 70
     0
  3

 72
    65
 73
     0
 40
0.0
  0
LTYPE
  5
7479
330
746A
100
AcDbSymbolTableRecord
100
AcDbLinetypeTableRecord
  2
CONTINUOUS
 70
     0
  3
Solid line
 72
    65
 73
     0
 40
0.0
  0
LTYPE
  5
7816
330
746A
100
AcDbSymbolTableRecord
100
AcDbLinetypeTableRecord
  2
CENTER
 70
     0
  3
____ _ ____ _ ____ _ ____ _ ____ _ ____ _ ____ 
 72
    65
 73
     4
 40
2.0
 49
1.25
 74
     0
 49
-0.25
 74
     0
 49
0.25
 74
     0
 49
-0.25
 74
     0
  0
LTYPE
  5
781A
330
746A
100
AcDbSymbolTableRecord
100
AcDbLinetypeTableRecord
  2
HIDDEN
 70
     0
  3
__ __ __ __ __ __ __ __ __ __ __ __ __ __ __ __
 72
    65
 73
     2
 40
0.375
 49
0.25
 74
     0
 49
-0.125
 74
     0
  0
LTYPE
  5
781B
330
746A
100
AcDbSymbolTableRecord
100
AcDbLinetypeTableRecord
  2
PHANTOM
 70
     0
  3
______  __  __  ______  __  __  ______  __  __ 
 72
    65
 73
     6
 40
2.5
 49
1.25
 74
     0
 49
-0.25
 74
     0
 49
0.25
 74
     0
 49
-0.25
 74
     0
 49
0.25
 74
     0
 49
-0.25
 74
     0
  0
ENDTAB
  0
TABLE
  2
LAYER
  5
7467
330
0
100
AcDbSymbolTable
 70
    12
  0
LAYER
  5
7474
330
7467
100
AcDbSymbolTableRecord
100
AcDbLayerTableRecord
  2
0
 70
     0
 62
     7
  6
CONTINUOUS
370
    -3
390
1BF29
  0
LAYER
  5
DEB2
330
7467
100
AcDbSymbolTableRecord
100
AcDbLayerTableRecord
  2
センター
 70
     0
 62
     3
  6
CENTER
370
    -3
390
1BF29
  0
LAYER
  5
DEB3
330
7467
100
AcDbSymbolTableRecord
100
AcDbLayerTableRecord
  2
寸法
 70
     0
 62
     4
  6
CONTINUOUS
370
    -3
390
1BF29
  0
LAYER
  5
DEB4
330
7467
100
AcDbSymbolTableRecord
100
AcDbLayerTableRecord
  2
部品1
 70
     0
 62
     7
  6
CONTINUOUS
370
    -3
390
1BF29
  0
LAYER
  5
DEB5
330
7467
100
AcDbSymbolTableRecord
100
AcDbLayerTableRecord
  2
補助
 70
     0
 62
    -1
  6
CONTINUOUS
370
    -3
390
1BF29
  0
LAYER
  5
DEB6
330
7467
100
AcDbSymbolTableRecord
100
AcDbLayerTableRecord
  2
文字
 70
     0
 62
     7
  6
CONTINUOUS
370
    -3
390
1BF29
  0
LAYER
  5
F255
330
7467
100
AcDbSymbolTableRecord
100
AcDbLayerTableRecord
  2
DEFPOINTS
 70
     0
 62
     7
  6
CONTINUOUS
290
     0
370
    -3
390
1BF29
  0
LAYER
  5
10B54
330
7467
100
AcDbSymbolTableRecord
100
AcDbLayerTableRecord
  2
仕様書枠
 70
     0
 62
   230
  6
CONTINUOUS
370
    -3
390
1BF29
  0
LAYER
  5
11729
330
7467
100
AcDbSymbolTableRecord
100
AcDbLayerTableRecord
  2
Ｇ．Ｌ
 70
     0
 62
    30
  6
CONTINUOUS
370
    -3
390
1BF29
  0
LAYER
  5
1173F
330
7467
100
AcDbSymbolTableRecord
100
AcDbLayerTableRecord
  2
細線
 70
     0
 62
     5
  6
CONTINUOUS
370
    -3
390
1BF29
  0
LAYER
  5
15A90
330
7467
100
AcDbSymbolTableRecord
100
AcDbLayerTableRecord
  2
想像線
 70
     0
 62
     6
  6
PHANTOM
370
    -3
390
1BF29
  0
LAYER
  5
188E2
330
7467
100
AcDbSymbolTableRecord
100
AcDbLayerTableRecord
  2
破線
 70
     0
 62
     2
  6
HIDDEN
370
    -3
390
1BF29
  0
ENDTAB
  0
TABLE
  2
STYLE
  5
7468
330
0
100
AcDbSymbolTable
 70
     3
  0
STYLE
  5
7475
330
7468
100
AcDbSymbolTableRecord
100
AcDbTextStyleTableRecord
  2
STANDARD
 70
     0
 40
0.0
 41
1.0
 50
0.0
 71
     0
 42
4.0
  3
txt
  4
C:\AutoCAD LT\bigfont.shx
  0
STYLE
  5
F706
330
7468
100
AcDbSymbolTableRecord
100
AcDbTextStyleTableRecord
  2
STYLE1
 70
     0
 40
0.0
 41
1.0
 50
0.0
 71
     0
 42
4.0
  3
isocp.shx
  4
bigfont.shx
  0
STYLE
  5
103BF
330
7468
100
AcDbSymbolTableRecord
100
AcDbTextStyleTableRecord
  2
STYLE2
 70
     0
 40
0.0
 41
1.0
 50
0.0
 71
     0
 42
100.0
  3
MS PGothic.ttf
  4

1001
ACAD
1000
MS PGothic
1071
    32818
  0
ENDTAB
  0
TABLE
  2
VIEW
  5
746B
330
0
100
AcDbSymbolTable
 70
     0
  0
ENDTAB
  0
TABLE
  2
UCS
  5
746C
330
0
100
AcDbSymbolTable
 70
     0
  0
ENDTAB
  0
TABLE
  2
APPID
  5
746E
330
0
100
AcDbSymbolTable
 70
     6
  0
APPID
  5
7476
330
746E
100
AcDbSymbolTableRecord
100
AcDbRegAppTableRecord
  2
ACAD
 70
     0
  0
APPID
  5
DEA9
330
746E
100
AcDbSymbolTableRecord
100
AcDbRegAppTableRecord
  2
CONTENTBLOCKICON
 70
     0
  0
APPID
  5
DEAA
330
746E
100
AcDbSymbolTableRecord
100
AcDbRegAppTableRecord
  2
CONTENTBLOCKDESCRIPTION
 70
     0
  0
APPID
  5
E71D
330
746E
100
AcDbSymbolTableRecord
100
AcDbRegAppTableRecord
  2
CONTENTTABDATA
 70
     0
  0
APPID
  5
E71E
330
746E
100
AcDbSymbolTableRecord
100
AcDbRegAppTableRecord
  2
CONTENTCURRENTTAB
 70
     0
  0
APPID
  5
F3BA
330
746E
100
AcDbSymbolTableRecord
100
AcDbRegAppTableRecord
  2
DRAWINGVARIABLESXDATA
 70
     0
  0
ENDTAB
  0
TABLE
  2
DIMSTYLE
  5
746F
330
0
100
AcDbSymbolTable
 70
     2
100
AcDbDimStyleTable
 71
     0
  0
DIMSTYLE
105
7484
330
746F
100
AcDbSymbolTableRecord
100
AcDbDimStyleTableRecord
  2
JIS
 70
     0
 41
2.5
 42
1.0
 43
7.0
 44
1.0
 73
     0
 74
     0
 77
     1
 78
     8
140
2.5
141
0.0
143
0.0394
147
0.0
172
     1
174
     1
175
     1
340
7475
  0
DIMSTYLE
105
F71F
102
{ACAD_REACTORS
330
1AB73
330
1AB74
330
1AB7C
330
1AB7D
330
1AB84
330
1AB87
330
1AB88
330
1AB89
330
1AB99
330
1AB9A
330
1ABAA
330
1ABED
330
1B9C9
330
1B981
330
1B980
330
1B9A1
330
1B93C
330
1B97C
330
1B9A9
330
1B92C
330
1B92B
330
1B896
330
1B8BF
330
1B8BE
330
1B939
330
1B887
330
1B886
330
1B89C
330
1B885
330
1B8CF
330
1B8CE
330
1B884
330
1B883
330
1B938
330
1B888
330
1BD3C
330
1BD41
330
1BD43
330
1BD51
330
1BD52
330
1BD55
330
1BD5A
330
1BD6C
330
1BDC2
330
1BDD7
102
}
330
746F
100
AcDbSymbolTableRecord
100
AcDbDimStyleTableRecord
  2
INABA_S50G
 70
     0
 41
125.0
 42
25.0
 43
7.0
 44
75.0
 73
     0
 74
     0
 77
     3
 78
     8
140
150.0
141
0.0
143
0.0394
147
25.0
172
     1
173
     1
174
     1
178
     7
271
     1
340
F706
341
F770
343
F770
344
F770
  0
ENDTAB
  0
TABLE
  2
BLOCK_RECORD
  5
7466
330
0
100
AcDbSymbolTable
 70
    46
  0
BLOCK_RECORD
  5
747D
102
{ACAD_XDICTIONARY
360
1BF5A
102
}
330
7466
100
AcDbSymbolTableRecord
100
AcDbBlockTableRecord
  2
*MODEL_SPACE
340
1BF2C
  0
BLOCK_RECORD
  5
747A
102
{ACAD_XDICTIONARY
360
1BF58
102
}
330
7466
100
AcDbSymbolTableRecord
100
AcDbBlockTableRecord
  2
*PAPER_SPACE
340
1BF2D
  0
BLOCK_RECORD
  5
F770
330
7466
100
AcDbSymbolTableRecord
100
AcDbBlockTableRecord
  2
_DOTSMALL
340
0
102
{BLKREFS
331
1ACBE
331
1ACBF
331
1ACCA
331
1ACCB
331
1BF62
331
1BF63
331
1B270
331
1B271
331
1B251
331
1B252
331
1BF6A
331
1BF6B
331
1ACFF
331
1AD00
331
1AD0B
331
1AD0C
331
1AD17
331
1AD18
331
1BB8A
331
1BB8B
331
1B23C
331
1B23D
331
1AD3A
331
1AD3B
331
1B9D0
331
1B9D1
331
1B9DC
331
1B9DD
331
1BF8A
331
1BF8B
331
1B9F4
331
1B9F5
331
1BF82
331
1BF83
331
1BA0C
331
1BA0D
331
1BA19
331
1BA1A
331
1BA26
331
1BA27
331
1BA34
331
1BA35
331
1BF7A
331
1BF7B
331
1BA4C
331
1BA4D
331
1BA5A
331
1BA5B
331
1BA68
331
1BA69
331
1BA76
331
1BA77
331
1BA82
331
1BA83
331
1BAFB
331
1BAFC
331
1BA9B
331
1BA9C
331
1BB06
331
1BB07
331
1BB13
331
1BB14
331
1BAC0
331
1BAC1
331
1BACD
331
1BACE
331
1BADA
331
1BADB
331
1BF72
331
1BF73
331
1BEB1
331
1BEB2
331
1BEBC
331
1BEBD
331
1BF92
331
1BF93
331
1BED1
331
1BED2
331
1BEDC
331
1BEDD
331
1BEE7
331
1BEE8
331
1BEF2
331
1BEF3
331
1BEFE
331
1BEFF
331
1BF0A
331
1BF0B
331
1BF16
331
1BF17
102
}
  0
BLOCK_RECORD
  5
1AC25
330
7466
100
AcDbSymbolTableRecord
100
AcDbBlockTableRecord
  2
*D1
340
0
  0
BLOCK_RECORD
  5
1AC32
330
7466
100
AcDbSymbolTableRecord
100
AcDbBlockTableRecord
  2
*D2
340
0
  0
BLOCK_RECORD
  5
1AC3F
330
7466
100
AcDbSymbolTableRecord
100
AcDbBlockTableRecord
  2
*D3
340
0
  0
BLOCK_RECORD
  5
1AC4A
330
7466
100
AcDbSymbolTableRecord
100
AcDbBlockTableRecord
  2
*D4
340
0
  0
BLOCK_RECORD
  5
1AC56
330
7466
100
AcDbSymbolTableRecord
100
AcDbBlockTableRecord
  2
*D5
340
0
  0
BLOCK_RECORD
  5
1AC62
330
7466
100
AcDbSymbolTableRecord
100
AcDbBlockTableRecord
  2
*D6
340
0
  0
BLOCK_RECORD
  5
1AC6D
330
7466
100
AcDbSymbolTableRecord
100
AcDbBlockTableRecord
  2
*D7
340
0
  0
BLOCK_RECORD
  5
1AC79
330
7466
100
AcDbSymbolTableRecord
100
AcDbBlockTableRecord
  2
*D8
340
0
  0
BLOCK_RECORD
  5
1AC86
330
7466
100
AcDbSymbolTableRecord
100
AcDbBlockTableRecord
  2
*D9
340
0
  0
BLOCK_RECORD
  5
1AC93
330
7466
100
AcDbSymbolTableRecord
100
AcDbBlockTableRecord
  2
*D10
340
0
  0
BLOCK_RECORD
  5
1ACA0
330
7466
100
AcDbSymbolTableRecord
100
AcDbBlockTableRecord
  2
*D11
340
0
  0
BLOCK_RECORD
  5
1ACAC
330
7466
100
AcDbSymbolTableRecord
100
AcDbBlockTableRecord
  2
*D12
340
0
  0
BLOCK_RECORD
  5
1B9CA
330
7466
100
AcDbSymbolTableRecord
100
AcDbBlockTableRecord
  2
*D13
340
0
  0
BLOCK_RECORD
  5
1B9D7
330
7466
100
AcDbSymbolTableRecord
100
AcDbBlockTableRecord
  2
*D14
340
0
  0
BLOCK_RECORD
  5
1B9E3
330
7466
100
AcDbSymbolTableRecord
100
AcDbBlockTableRecord
  2
*D15
340
0
  0
BLOCK_RECORD
  5
1B9EE
330
7466
100
AcDbSymbolTableRecord
100
AcDbBlockTableRecord
  2
*D16
340
0
  0
BLOCK_RECORD
  5
1B9FB
330
7466
100
AcDbSymbolTableRecord
100
AcDbBlockTableRecord
  2
*D17
340
0
  0
BLOCK_RECORD
  5
1BA06
330
7466
100
AcDbSymbolTableRecord
100
AcDbBlockTableRecord
  2
*D18
340
0
  0
BLOCK_RECORD
  5
1BA13
330
7466
100
AcDbSymbolTableRecord
100
AcDbBlockTableRecord
  2
*D19
340
0
  0
BLOCK_RECORD
  5
1BA20
330
7466
100
AcDbSymbolTableRecord
100
AcDbBlockTableRecord
  2
*D20
340
0
  0
BLOCK_RECORD
  5
1BA2D
330
7466
100
AcDbSymbolTableRecord
100
AcDbBlockTableRecord
  2
*D21
340
0
  0
BLOCK_RECORD
  5
1BA3B
330
7466
100
AcDbSymbolTableRecord
100
AcDbBlockTableRecord
  2
*D22
340
0
  0
BLOCK_RECORD
  5
1BA46
330
7466
100
AcDbSymbolTableRecord
100
AcDbBlockTableRecord
  2
*D23
340
0
  0
BLOCK_RECORD
  5
1BA53
330
7466
100
AcDbSymbolTableRecord
100
AcDbBlockTableRecord
  2
*D24
340
0
  0
BLOCK_RECORD
  5
1BA61
330
7466
100
AcDbSymbolTableRecord
100
AcDbBlockTableRecord
  2
*D25
340
0
  0
BLOCK_RECORD
  5
1BA6F
330
7466
100
AcDbSymbolTableRecord
100
AcDbBlockTableRecord
  2
*D26
340
0
  0
BLOCK_RECORD
  5
1BA7D
330
7466
100
AcDbSymbolTableRecord
100
AcDbBlockTableRecord
  2
*D27
340
0
  0
BLOCK_RECORD
  5
1BA89
330
7466
100
AcDbSymbolTableRecord
100
AcDbBlockTableRecord
  2
*D28
340
0
  0
BLOCK_RECORD
  5
1BA95
330
7466
100
AcDbSymbolTableRecord
100
AcDbBlockTableRecord
  2
*D29
340
0
  0
BLOCK_RECORD
  5
1BAA2
330
7466
100
AcDbSymbolTableRecord
100
AcDbBlockTableRecord
  2
*D30
340
0
  0
BLOCK_RECORD
  5
1BAAE
330
7466
100
AcDbSymbolTableRecord
100
AcDbBlockTableRecord
  2
*D31
340
0
  0
BLOCK_RECORD
  5
1BABA
330
7466
100
AcDbSymbolTableRecord
100
AcDbBlockTableRecord
  2
*D32
340
0
  0
BLOCK_RECORD
  5
1BAC7
330
7466
100
AcDbSymbolTableRecord
100
AcDbBlockTableRecord
  2
*D33
340
0
  0
BLOCK_RECORD
  5
1BAD4
330
7466
100
AcDbSymbolTableRecord
100
AcDbBlockTableRecord
  2
*D34
340
0
  0
BLOCK_RECORD
  5
1BAE1
330
7466
100
AcDbSymbolTableRecord
100
AcDbBlockTableRecord
  2
*D35
340
0
  0
BLOCK_RECORD
  5
1BE31
330
7466
100
AcDbSymbolTableRecord
100
AcDbBlockTableRecord
  2
*D36
340
0
  0
BLOCK_RECORD
  5
1BE3E
330
7466
100
AcDbSymbolTableRecord
100
AcDbBlockTableRecord
  2
*D37
340
0
  0
BLOCK_RECORD
  5
1BE4A
330
7466
100
AcDbSymbolTableRecord
100
AcDbBlockTableRecord
  2
*D38
340
0
  0
BLOCK_RECORD
  5
1BE55
330
7466
100
AcDbSymbolTableRecord
100
AcDbBlockTableRecord
  2
*D39
340
0
  0
BLOCK_RECORD
  5
1BE61
330
7466
100
AcDbSymbolTableRecord
100
AcDbBlockTableRecord
  2
*D40
340
0
  0
BLOCK_RECORD
  5
1BE6D
330
7466
100
AcDbSymbolTableRecord
100
AcDbBlockTableRecord
  2
*D41
340
0
  0
BLOCK_RECORD
  5
1BE79
330
7466
100
AcDbSymbolTableRecord
100
AcDbBlockTableRecord
  2
*D42
340
0
  0
BLOCK_RECORD
  5
1BE85
330
7466
100
AcDbSymbolTableRecord
100
AcDbBlockTableRecord
  2
*D43
340
0
  0
BLOCK_RECORD
  5
1BE92
330
7466
100
AcDbSymbolTableRecord
100
AcDbBlockTableRecord
  2
*D44
340
0
  0
BLOCK_RECORD
  5
1BE9F
330
7466
100
AcDbSymbolTableRecord
100
AcDbBlockTableRecord
  2
*D45
340
0
  0
ENDTAB
  0
ENDSEC
  0
SECTION
  2
BLOCKS
  0
BLOCK
  5
7489
330
747D
100
AcDbEntity
  8
0
100
AcDbBlockBegin
  2
*MODEL_SPACE
 70
     0
 10
0.0
 20
0.0
 30
0.0
  3
*MODEL_SPACE
  1

  0
ENDBLK
  5
748A
330
747D
100
AcDbEntity
  8
0
100
AcDbBlockEnd
  0
BLOCK
  5
7487
330
747A
100
AcDbEntity
 67
     1
  8
0
100
AcDbBlockBegin
  2
*PAPER_SPACE
 70
     0
 10
0.0
 20
0.0
 30
0.0
  3
*PAPER_SPACE
  1

  0
ENDBLK
  5
7488
330
747A
100
AcDbEntity
 67
     1
  8
0
100
AcDbBlockEnd
  0
BLOCK
  5
F771
330
F770
100
AcDbEntity
  8
0
 48
50.0
100
AcDbBlockBegin
  2
_DOTSMALL
 70
     0
 10
0.0
 20
0.0
 30
0.0
  3
_DOTSMALL
  1

  0
LWPOLYLINE
  5
F772
330
F770
100
AcDbEntity
  8
0
  6
ByBlock
 62
     0
 48
50.0
100
AcDbPolyline
 90
        2
 70
     1
 43
0.5
 10
-0.0625
 20
0.0
 42
1.0
 10
0.0625
 20
0.0
 42
1.0
  0
ENDBLK
  5
F776
330
F770
100
AcDbEntity
  8
0
 48
50.0
100
AcDbBlockEnd
  0
BLOCK
  5
1ACB9
330
1AC25
100
AcDbEntity
  8
0
 48
50.0
100
AcDbBlockBegin
  2
*D1
 70
     1
 10
0.0
 20
0.0
 30
0.0
  3
*D1
  1

  0
LINE
  5
1ACBA
330
1AC25
100
AcDbEntity
  8
0
  6
ByBlock
 62
     0
 48
50.0
100
AcDbLine
 10
14250.31781125775
 20
14622.52646466355
 30
0.0
 11
14250.31781125775
 21
14286.47913536318
 31
0.0
  0
LINE
  5
1ACBB
330
1AC25
100
AcDbEntity
  8
0
  6
ByBlock
 62
     0
 48
50.0
100
AcDbLine
 10
14050.31781125775
 20
14622.52646466355
 30
0.0
 11
14050.31781125775
 21
14286.47913536318
 31
0.0
  0
LINE
  5
1ACBC
330
1AC25
100
AcDbEntity
  8
0
  6
ByBlock
 62
     0
 48
50.0
100
AcDbLine
 10
14250.31781125775
 20
14361.47913536318
 30
0.0
 11
14050.31781125775
 21
14361.47913536318
 31
0.0
  0
LINE
  5
1ACBD
330
1AC25
100
AcDbEntity
  8
0
  6
ByBlock
 62
     0
 48
50.0
100
AcDbLine
 10
14050.31781125775
 20
14361.47913536318
 30
0.0
 11
13601.39064590342
 21
14361.47913536318
 31
0.0
  0
INSERT
  5
1ACBE
330
1AC25
100
AcDbEntity
  8
0
  6
ByBlock
 62
     0
 48
50.0
100
AcDbBlockReference
  2
_DOTSMALL
 10
14250.31781125775
 20
14361.47913536318
 30
0.0
 41
125.0
 42
125.0
 43
125.0
  0
INSERT
  5
1ACBF
330
1AC25
100
AcDbEntity
  8
0
  6
ByBlock
 62
     0
 48
50.0
100
AcDbBlockReference
  2
_DOTSMALL
 10
14050.31781125775
 20
14361.47913536318
 30
0.0
 41
125.0
 42
125.0
 43
125.0
 50
180.0
  0
MTEXT
  5
1ACC0
330
1AC25
100
AcDbEntity
  8
0
  6
ByBlock
 62
     7
 48
50.0
100
AcDbMText
 10
13763.35422858058
 20
14461.4938991427
 30
0.0
 40
150.0
 41
0.0
 71
     5
 72
     1
  1
\A1;200
  7
STYLE1
 73
     1
 44
1.0
  0
POINT
  5
1ACC1
330
1AC25
100
AcDbEntity
  8
DEFPOINTS
  6
ByBlock
 62
     0
 48
50.0
100
AcDbPoint
 10
14250.31781125775
 20
14647.52646466355
 30
0.0
  0
POINT
  5
1ACC2
330
1AC25
100
AcDbEntity
  8
DEFPOINTS
  6
ByBlock
 62
     0
 48
50.0
100
AcDbPoint
 10
14050.31781125775
 20
14647.52646466355
 30
0.0
  0
POINT
  5
1ACC3
330
1AC25
100
AcDbEntity
  8
DEFPOINTS
  6
ByBlock
 62
     0
 48
50.0
100
AcDbPoint
 10
14050.31781125775
 20
14361.47913536318
 30
0.0
  0
ENDBLK
  5
1ACC4
330
1AC25
100
AcDbEntity
  8
0
 48
50.0
100
AcDbBlockEnd
  0
BLOCK
  5
1ACC5
330
1AC32
100
AcDbEntity
  8
0
 48
50.0
100
AcDbBlockBegin
  2
*D2
 70
     1
 10
0.0
 20
0.0
 30
0.0
  3
*D2
  1

  0
LINE
  5
1ACC6
330
1AC32
100
AcDbEntity
  8
0
  6
ByBlock
 62
     0
 48
50.0
100
AcDbLine
 10
14275.31781125775
 20
14647.52646466355
 30
0.0
 11
14723.65294625163
 21
14647.52646466355
 31
0.0
  0
LINE
  5
1ACC7
330
1AC32
100
AcDbEntity
  8
0
  6
ByBlock
 62
     0
 48
50.0
100
AcDbLine
 10
14275.31781125775
 20
14847.52646466355
 30
0.0
 11
14723.65294625163
 21
14847.52646466355
 31
0.0
  0
LINE
  5
1ACC8
330
1AC32
100
AcDbEntity
  8
0
  6
ByBlock
 62
     0
 48
50.0
100
AcDbLine
 10
14648.65294625163
 20
14847.52646466355
 30
0.0
 11
14648.65294625163
 21
14647.52646466355
 31
0.0
  0
LINE
  5
1ACC9
330
1AC32
100
AcDbEntity
  8
0
  6
ByBlock
 62
     0
 48
50.0
100
AcDbLine
 10
14648.65294625163
 20
14647.52646466355
 30
0.0
 11
14648.65294625163
 21
14198.59929930922
 31
0.0
  0
INSERT
  5
1ACCA
330
1AC32
100
AcDbEntity
  8
0
  6
ByBlock
 62
     0
 48
50.0
100
AcDbBlockReference
  2
_DOTSMALL
 10
14648.65294625163
 20
14847.52646466355
 30
0.0
 41
125.0
 42
125.0
 43
125.0
 50
90.0
  0
INSERT
  5
1ACCB
330
1AC32
100
AcDbEntity
  8
0
  6
ByBlock
 62
     0
 48
50.0
100
AcDbBlockReference
  2
_DOTSMALL
 10
14648.65294625163
 20
14647.52646466355
 30
0.0
 41
125.0
 42
125.0
 43
125.0
 50
270.0
  0
MTEXT
  5
1ACCC
330
1AC32
100
AcDbEntity
  8
0
  6
ByBlock
 62
     7
 48
50.0
100
AcDbMText
 10
14548.6381824721
 20
14360.56288198639
 30
0.0
 40
150.0
 41
0.0
 71
     5
 72
     1
  1
\A1;200
  7
STYLE1
 11
0.0000000000000001
 21
1.0
 31
0.0
 73
     1
 44
1.0
  0
POINT
  5
1ACCD
330
1AC32
100
AcDbEntity
  8
DEFPOINTS
  6
ByBlock
 62
     0
 48
50.0
100
AcDbPoint
 10
14250.31781125775
 20
14647.52646466355
 30
0.0
  0
POINT
  5
1ACCE
330
1AC32
100
AcDbEntity
  8
DEFPOINTS
  6
ByBlock
 62
     0
 48
50.0
100
AcDbPoint
 10
14250.31781125775
 20
14847.52646466355
 30
0.0
  0
POINT
  5
1ACCF
330
1AC32
100
AcDbEntity
  8
DEFPOINTS
  6
ByBlock
 62
     0
 48
50.0
100
AcDbPoint
 10
14648.65294625163
 20
14847.52646466355
 30
0.0
  0
ENDBLK
  5
1ACD0
330
1AC32
100
AcDbEntity
  8
0
 48
50.0
100
AcDbBlockEnd
  0
BLOCK
  5
1B277
330
1AC3F
100
AcDbEntity
  8
0
 48
50.0
100
AcDbBlockBegin
  2
*D3
 70
     1
 10
0.0
 20
0.0
 30
0.0
  3
*D3
  1

  0
LINE
  5
1BF60
330
1AC3F
100
AcDbEntity
  8
寸法
 62
     0
 48
50.0
100
AcDbLine
 10
14532.82958141817
 20
5513.337018226841
 30
0.0
 11
14532.82958141817
 21
6313.281130716521
 31
0.0
  0
LINE
  5
1BF61
330
1AC3F
100
AcDbEntity
  8
寸法
 62
     0
 48
50.0
100
AcDbLine
 10
13232.82958141817
 20
6238.281130716521
 30
0.0
 11
14532.82958141817
 21
6238.281130716521
 31
0.0
  0
INSERT
  5
1BF62
330
1AC3F
100
AcDbEntity
  8
寸法
 62
     0
 48
50.0
100
AcDbBlockReference
  2
_DOTSMALL
 10
13232.82958141817
 20
6238.281130716521
 30
0.0
 41
125.0
 42
125.0
 43
125.0
 50
180.0
  0
INSERT
  5
1BF63
330
1AC3F
100
AcDbEntity
  8
寸法
 62
     0
 48
50.0
100
AcDbBlockReference
  2
_DOTSMALL
 10
14532.82958141817
 20
6238.281130716521
 30
0.0
 41
125.0
 42
125.0
 43
125.0
  0
MTEXT
  5
1BF64
330
1AC3F
100
AcDbEntity
  8
寸法
 62
     7
 48
50.0
100
AcDbMText
 10
13882.82958141817
 20
6338.281130716521
 30
0.0
 40
150.0
 41
0.0
 71
     5
 72
     1
  1
\A1;柱外寸法 1300
  7
STYLE1
 73
     1
 44
1.0
  0
POINT
  5
1BF65
330
1AC3F
100
AcDbEntity
  8
DEFPOINTS
 62
     0
 48
50.0
100
AcDbPoint
 10
13232.82958141817
 20
5541.484603453081
 30
0.0
  0
POINT
  5
1BF66
330
1AC3F
100
AcDbEntity
  8
DEFPOINTS
 62
     0
 48
50.0
100
AcDbPoint
 10
14532.82958141817
 20
5488.33701822684
 30
0.0
  0
POINT
  5
1BF67
330
1AC3F
100
AcDbEntity
  8
DEFPOINTS
 62
     0
 48
50.0
100
AcDbPoint
 10
14532.82958141817
 20
6238.281130716521
 30
0.0
  0
ENDBLK
  5
1B280
330
1AC3F
100
AcDbEntity
  8
0
 48
50.0
100
AcDbBlockEnd
  0
BLOCK
  5
1B26C
330
1AC4A
100
AcDbEntity
  8
0
 48
50.0
100
AcDbBlockBegin
  2
*D4
 70
     1
 10
0.0
 20
0.0
 30
0.0
  3
*D4
  1

  0
LINE
  5
1B26D
330
1AC4A
100
AcDbEntity
  8
0
  6
ByBlock
 62
     0
 48
50.0
100
AcDbLine
 10
13387.82958141817
 20
5570.0
 30
0.0
 11
13387.82958141817
 21
6581.068854554546
 31
0.0
  0
LINE
  5
1B26E
330
1AC4A
100
AcDbEntity
  8
0
  6
ByBlock
 62
     0
 48
50.0
100
AcDbLine
 10
14917.82958141817
 20
5510.0
 30
0.0
 11
14917.82958141817
 21
6581.068854554546
 31
0.0
  0
LINE
  5
1B26F
330
1AC4A
100
AcDbEntity
  8
0
  6
ByBlock
 62
     0
 48
50.0
100
AcDbLine
 10
13387.82958141817
 20
6506.068854554546
 30
0.0
 11
14917.82958141817
 21
6506.068854554546
 31
0.0
  0
INSERT
  5
1B270
330
1AC4A
100
AcDbEntity
  8
0
  6
ByBlock
 62
     0
 48
50.0
100
AcDbBlockReference
  2
_DOTSMALL
 10
13387.82958141817
 20
6506.068854554546
 30
0.0
 41
125.0
 42
125.0
 43
125.0
 50
180.0
  0
INSERT
  5
1B271
330
1AC4A
100
AcDbEntity
  8
0
  6
ByBlock
 62
     0
 48
50.0
100
AcDbBlockReference
  2
_DOTSMALL
 10
14917.82958141817
 20
6506.068854554546
 30
0.0
 41
125.0
 42
125.0
 43
125.0
  0
MTEXT
  5
1B272
330
1AC4A
100
AcDbEntity
  8
0
  6
ByBlock
 62
     7
 48
50.0
100
AcDbMText
 10
14152.82958141817
 20
6606.068854554546
 30
0.0
 40
150.0
 41
0.0
 71
     5
 72
     1
  1
\A1;1530
  7
STYLE1
 73
     1
 44
1.0
  0
POINT
  5
1B273
330
1AC4A
100
AcDbEntity
  8
DEFPOINTS
  6
ByBlock
 62
     0
 48
50.0
100
AcDbPoint
 10
13387.82958141817
 20
5545.0
 30
0.0
  0
POINT
  5
1B274
330
1AC4A
100
AcDbEntity
  8
DEFPOINTS
  6
ByBlock
 62
     0
 48
50.0
100
AcDbPoint
 10
14917.82958141817
 20
5485.0
 30
0.0
  0
POINT
  5
1B275
330
1AC4A
100
AcDbEntity
  8
DEFPOINTS
  6
ByBlock
 62
     0
 48
50.0
100
AcDbPoint
 10
14917.82958141817
 20
6506.068854554546
 30
0.0
  0
ENDBLK
  5
1B276
330
1AC4A
100
AcDbEntity
  8
0
 48
50.0
100
AcDbBlockEnd
  0
BLOCK
  5
1B24D
330
1AC56
100
AcDbEntity
  8
0
 48
50.0
100
AcDbBlockBegin
  2
*D5
 70
     1
 10
0.0
 20
0.0
 30
0.0
  3
*D5
  1

  0
LINE
  5
1B24E
330
1AC56
100
AcDbEntity
  8
0
  6
ByBlock
 62
     0
 48
50.0
100
AcDbLine
 10
13362.82958141817
 20
5545.0
 30
0.0
 11
12413.66366111978
 21
5545.0
 31
0.0
  0
LINE
  5
1B24F
330
1AC56
100
AcDbEntity
  8
0
  6
ByBlock
 62
     0
 48
50.0
100
AcDbLine
 10
13429.82958141817
 20
3275.0
 30
0.0
 11
12413.66366111978
 21
3275.0
 31
0.0
  0
LINE
  5
1B250
330
1AC56
100
AcDbEntity
  8
0
  6
ByBlock
 62
     0
 48
50.0
100
AcDbLine
 10
12488.66366111978
 20
5545.0
 30
0.0
 11
12488.66366111978
 21
3275.0
 31
0.0
  0
INSERT
  5
1B251
330
1AC56
100
AcDbEntity
  8
0
  6
ByBlock
 62
     0
 48
50.0
100
AcDbBlockReference
  2
_DOTSMALL
 10
12488.66366111978
 20
5545.0
 30
0.0
 41
125.0
 42
125.0
 43
125.0
 50
90.0
  0
INSERT
  5
1B252
330
1AC56
100
AcDbEntity
  8
0
  6
ByBlock
 62
     0
 48
50.0
100
AcDbBlockReference
  2
_DOTSMALL
 10
12488.66366111978
 20
3275.0
 30
0.0
 41
125.0
 42
125.0
 43
125.0
 50
270.0
  0
MTEXT
  5
1B253
330
1AC56
100
AcDbEntity
  8
0
  6
ByBlock
 62
     7
 48
50.0
100
AcDbMText
 10
12388.64889734025
 20
4410.0
 30
0.0
 40
150.0
 41
0.0
 71
     5
 72
     1
  1
\A1;2270
  7
STYLE1
 11
0.0000000000000001
 21
1.0
 31
0.0
 73
     1
 44
1.0
  0
POINT
  5
1B254
330
1AC56
100
AcDbEntity
  8
DEFPOINTS
  6
ByBlock
 62
     0
 48
50.0
100
AcDbPoint
 10
13387.82958141817
 20
5545.0
 30
0.0
  0
POINT
  5
1B255
330
1AC56
100
AcDbEntity
  8
DEFPOINTS
  6
ByBlock
 62
     0
 48
50.0
100
AcDbPoint
 10
13454.82958141817
 20
3275.0
 30
0.0
  0
POINT
  5
1B256
330
1AC56
100
AcDbEntity
  8
DEFPOINTS
  6
ByBlock
 62
     0
 48
50.0
100
AcDbPoint
 10
12488.66366111978
 20
3275.0
 30
0.0
  0
ENDBLK
  5
1B257
330
1AC56
100
AcDbEntity
  8
0
 48
50.0
100
AcDbBlockEnd
  0
BLOCK
  5
1B243
330
1AC62
100
AcDbEntity
  8
0
 48
50.0
100
AcDbBlockBegin
  2
*D6
 70
     1
 10
0.0
 20
0.0
 30
0.0
  3
*D6
  1

  0
LINE
  5
1BF68
330
1AC62
100
AcDbEntity
  8
寸法
 62
     0
 48
50.0
100
AcDbLine
 10
13207.82958141817
 20
5275.0
 30
0.0
 11
12431.70986552558
 21
5275.0
 31
0.0
  0
LINE
  5
1BF69
330
1AC62
100
AcDbEntity
  8
寸法
 62
     0
 48
50.0
100
AcDbLine
 10
12506.70986552558
 20
3330.0
 30
0.0
 11
12506.70986552558
 21
5275.0
 31
0.0
  0
INSERT
  5
1BF6A
330
1AC62
100
AcDbEntity
  8
寸法
 62
     0
 48
50.0
100
AcDbBlockReference
  2
_DOTSMALL
 10
12506.70986552558
 20
3330.0
 30
0.0
 41
125.0
 42
125.0
 43
125.0
 50
270.0
  0
INSERT
  5
1BF6B
330
1AC62
100
AcDbEntity
  8
寸法
 62
     0
 48
50.0
100
AcDbBlockReference
  2
_DOTSMALL
 10
12506.70986552558
 20
5275.0
 30
0.0
 41
125.0
 42
125.0
 43
125.0
 50
90.0
  0
MTEXT
  5
1BF6C
330
1AC62
100
AcDbEntity
  8
寸法
 62
     7
 48
50.0
100
AcDbMText
 10
12406.70986552558
 20
4302.500000000001
 30
0.0
 40
150.0
 41
0.0
 71
     5
 72
     1
  1
\A1;1945
  7
STYLE1
 11
0.0000000000000001
 21
1.0
 31
0.0
 73
     1
 44
1.0
  0
POINT
  5
1BF6D
330
1AC62
100
AcDbEntity
  8
DEFPOINTS
 62
     0
 48
50.0
100
AcDbPoint
 10
13164.82958141817
 20
3330.0
 30
0.0
  0
POINT
  5
1BF6E
330
1AC62
100
AcDbEntity
  8
DEFPOINTS
 62
     0
 48
50.0
100
AcDbPoint
 10
13232.82958141817
 20
5275.0
 30
0.0
  0
POINT
  5
1BF6F
330
1AC62
100
AcDbEntity
  8
DEFPOINTS
 62
     0
 48
50.0
100
AcDbPoint
 10
12506.70986552558
 20
5275.0
 30
0.0
  0
ENDBLK
  5
1B24C
330
1AC62
100
AcDbEntity
  8
0
 48
50.0
100
AcDbBlockEnd
  0
BLOCK
  5
1ACFB
330
1AC6D
100
AcDbEntity
  8
0
 48
50.0
100
AcDbBlockBegin
  2
*D7
 70
     1
 10
0.0
 20
0.0
 30
0.0
  3
*D7
  1

  0
LINE
  5
1ACFC
330
1AC6D
100
AcDbEntity
  8
0
  6
ByBlock
 62
     0
 48
50.0
100
AcDbLine
 10
12218.81781125775
 20
15060.02646466355
 30
0.0
 11
11822.9295310031
 21
15060.02646466355
 31
0.0
  0
LINE
  5
1ACFD
330
1AC6D
100
AcDbEntity
  8
0
  6
ByBlock
 62
     0
 48
50.0
100
AcDbLine
 10
12218.81781125775
 20
16858.02646466355
 30
0.0
 11
11822.9295310031
 21
16858.02646466355
 31
0.0
  0
LINE
  5
1ACFE
330
1AC6D
100
AcDbEntity
  8
0
  6
ByBlock
 62
     0
 48
50.0
100
AcDbLine
 10
11897.9295310031
 20
15060.02646466355
 30
0.0
 11
11897.9295310031
 21
16858.02646466355
 31
0.0
  0
INSERT
  5
1ACFF
330
1AC6D
100
AcDbEntity
  8
0
  6
ByBlock
 62
     0
 48
50.0
100
AcDbBlockReference
  2
_DOTSMALL
 10
11897.9295310031
 20
15060.02646466355
 30
0.0
 41
125.0
 42
125.0
 43
125.0
 50
270.0
  0
INSERT
  5
1AD00
330
1AC6D
100
AcDbEntity
  8
0
  6
ByBlock
 62
     0
 48
50.0
100
AcDbBlockReference
  2
_DOTSMALL
 10
11897.9295310031
 20
16858.02646466355
 30
0.0
 41
125.0
 42
125.0
 43
125.0
 50
90.0
  0
MTEXT
  5
1AD01
330
1AC6D
100
AcDbEntity
  8
0
  6
ByBlock
 62
     7
 48
50.0
100
AcDbMText
 10
11797.9295310031
 20
15959.02646466355
 30
0.0
 40
150.0
 41
0.0
 71
     5
 72
     1
  1
\A1;有効開口部高サ 1798
  7
STYLE1
 11
0.0000000000000001
 21
1.0
 31
0.0
 73
     1
 44
1.0
  0
POINT
  5
1AD02
330
1AC6D
100
AcDbEntity
  8
DEFPOINTS
  6
ByBlock
 62
     0
 48
50.0
100
AcDbPoint
 10
12243.81781125775
 20
15060.02646466355
 30
0.0
  0
POINT
  5
1AD03
330
1AC6D
100
AcDbEntity
  8
DEFPOINTS
  6
ByBlock
 62
     0
 48
50.0
100
AcDbPoint
 10
12243.81781125775
 20
16858.02646466355
 30
0.0
  0
POINT
  5
1AD04
330
1AC6D
100
AcDbEntity
  8
DEFPOINTS
  6
ByBlock
 62
     0
 48
50.0
100
AcDbPoint
 10
11897.9295310031
 20
16858.02646466355
 30
0.0
  0
ENDBLK
  5
1AD05
330
1AC6D
100
AcDbEntity
  8
0
 48
50.0
100
AcDbBlockEnd
  0
BLOCK
  5
1AD06
330
1AC79
100
AcDbEntity
  8
0
 48
50.0
100
AcDbBlockBegin
  2
*D8
 70
     1
 10
0.0
 20
0.0
 30
0.0
  3
*D8
  1

  0
LINE
  5
1AD07
330
1AC79
100
AcDbEntity
  8
0
  6
ByBlock
 62
     0
 48
50.0
100
AcDbLine
 10
12218.81781125775
 20
14982.52646466355
 30
0.0
 11
11510.69809536516
 21
14982.52646466355
 31
0.0
  0
LINE
  5
1AD08
330
1AC79
100
AcDbEntity
  8
0
  6
ByBlock
 62
     0
 48
50.0
100
AcDbLine
 10
12218.81781125775
 20
15037.52646466355
 30
0.0
 11
11510.69809536516
 21
15037.52646466355
 31
0.0
  0
LINE
  5
1AD09
330
1AC79
100
AcDbEntity
  8
0
  6
ByBlock
 62
     0
 48
50.0
100
AcDbLine
 10
11585.69809536516
 20
15037.52646466355
 30
0.0
 11
11585.69809536516
 21
14982.52646466355
 31
0.0
  0
LINE
  5
1AD0A
330
1AC79
100
AcDbEntity
  8
0
  6
ByBlock
 62
     0
 48
50.0
100
AcDbLine
 10
11585.69809536516
 20
14982.52646466355
 30
0.0
 11
11585.69809536516
 21
14561.34035712322
 31
0.0
  0
INSERT
  5
1AD0B
330
1AC79
100
AcDbEntity
  8
0
  6
ByBlock
 62
     0
 48
50.0
100
AcDbBlockReference
  2
_DOTSMALL
 10
11585.69809536516
 20
15037.52646466355
 30
0.0
 41
125.0
 42
125.0
 43
125.0
 50
90.0
  0
INSERT
  5
1AD0C
330
1AC79
100
AcDbEntity
  8
0
  6
ByBlock
 62
     0
 48
50.0
100
AcDbBlockReference
  2
_DOTSMALL
 10
11585.69809536516
 20
14982.52646466355
 30
0.0
 41
125.0
 42
125.0
 43
125.0
 50
270.0
  0
MTEXT
  5
1AD0D
330
1AC79
100
AcDbEntity
  8
0
  6
ByBlock
 62
     7
 48
50.0
100
AcDbMText
 10
11485.69809536516
 20
14671.94695884102
 30
0.0
 40
150.0
 41
0.0
 71
     5
 72
     1
  1
\A1;55
  7
STYLE1
 11
0.0000000000000001
 21
1.0
 31
0.0
 73
     1
 44
1.0
  0
POINT
  5
1AD0E
330
1AC79
100
AcDbEntity
  8
DEFPOINTS
  6
ByBlock
 62
     0
 48
50.0
100
AcDbPoint
 10
12243.81781125775
 20
14982.52646466355
 30
0.0
  0
POINT
  5
1AD0F
330
1AC79
100
AcDbEntity
  8
DEFPOINTS
  6
ByBlock
 62
     0
 48
50.0
100
AcDbPoint
 10
12243.81781125775
 20
15037.52646466355
 30
0.0
  0
POINT
  5
1AD10
330
1AC79
100
AcDbEntity
  8
DEFPOINTS
  6
ByBlock
 62
     0
 48
50.0
100
AcDbPoint
 10
11585.69809536516
 20
15037.52646466355
 30
0.0
  0
ENDBLK
  5
1AD11
330
1AC79
100
AcDbEntity
  8
0
 48
50.0
100
AcDbBlockEnd
  0
BLOCK
  5
1AD12
330
1AC86
100
AcDbEntity
  8
0
 48
50.0
100
AcDbBlockBegin
  2
*D9
 70
     1
 10
0.0
 20
0.0
 30
0.0
  3
*D9
  1

  0
LINE
  5
1AD13
330
1AC86
100
AcDbEntity
  8
0
  6
ByBlock
 62
     0
 48
50.0
100
AcDbLine
 10
12176.81781125775
 20
17447.52646466355
 30
0.0
 11
12176.81781125775
 21
18190.80759538007
 31
0.0
  0
LINE
  5
1AD14
330
1AC86
100
AcDbEntity
  8
0
  6
ByBlock
 62
     0
 48
50.0
100
AcDbLine
 10
12311.81781125775
 20
17444.01106811663
 30
0.0
 11
12311.81781125775
 21
18190.80759538007
 31
0.0
  0
LINE
  5
1AD15
330
1AC86
100
AcDbEntity
  8
0
  6
ByBlock
 62
     0
 48
50.0
100
AcDbLine
 10
12311.81781125775
 20
18115.80759538007
 30
0.0
 11
12176.81781125775
 21
18115.80759538007
 31
0.0
  0
LINE
  5
1AD16
330
1AC86
100
AcDbEntity
  8
0
  6
ByBlock
 62
     0
 48
50.0
100
AcDbLine
 10
12176.81781125775
 20
18115.80759538007
 30
0.0
 11
11755.60460782215
 21
18115.80759538007
 31
0.0
  0
INSERT
  5
1AD17
330
1AC86
100
AcDbEntity
  8
0
  6
ByBlock
 62
     0
 48
50.0
100
AcDbBlockReference
  2
_DOTSMALL
 10
12311.81781125775
 20
18115.80759538007
 30
0.0
 41
125.0
 42
125.0
 43
125.0
  0
INSERT
  5
1AD18
330
1AC86
100
AcDbEntity
  8
0
  6
ByBlock
 62
     0
 48
50.0
100
AcDbBlockReference
  2
_DOTSMALL
 10
12176.81781125775
 20
18115.80759538007
 30
0.0
 41
125.0
 42
125.0
 43
125.0
 50
180.0
  0
MTEXT
  5
1AD19
330
1AC86
100
AcDbEntity
  8
0
  6
ByBlock
 62
     7
 48
50.0
100
AcDbMText
 10
11903.71120953995
 20
18215.80759538007
 30
0.0
 40
150.0
 41
0.0
 71
     5
 72
     1
  1
\A1;135
  7
STYLE1
 73
     1
 44
1.0
  0
POINT
  5
1AD1A
330
1AC86
100
AcDbEntity
  8
DEFPOINTS
  6
ByBlock
 62
     0
 48
50.0
100
AcDbPoint
 10
12176.81781125775
 20
17422.52646466355
 30
0.0
  0
POINT
  5
1AD1B
330
1AC86
100
AcDbEntity
  8
DEFPOINTS
  6
ByBlock
 62
     0
 48
50.0
100
AcDbPoint
 10
12311.81781125775
 20
17419.01106811663
 30
0.0
  0
POINT
  5
1AD1C
330
1AC86
100
AcDbEntity
  8
DEFPOINTS
  6
ByBlock
 62
     0
 48
50.0
100
AcDbPoint
 10
12311.81781125775
 20
18115.80759538007
 30
0.0
  0
ENDBLK
  5
1AD1D
330
1AC86
100
AcDbEntity
  8
0
 48
50.0
100
AcDbBlockEnd
  0
BLOCK
  5
1BB85
330
1AC93
100
AcDbEntity
  8
0
 48
50.0
100
AcDbBlockBegin
  2
*D10
 70
     1
 10
0.0
 20
0.0
 30
0.0
  3
*D10
  1

  0
LINE
  5
1BB86
330
1AC93
100
AcDbEntity
  8
0
  6
ByBlock
 62
     0
 48
50.0
100
AcDbLine
 10
13207.84452484769
 20
5409.081588553469
 30
0.0
 11
12539.05131871692
 21
5432.215909131477
 31
0.0
  0
LINE
  5
1BB87
330
1AC93
100
AcDbEntity
  8
0
  6
ByBlock
 62
     0
 48
50.0
100
AcDbLine
 10
13211.82012835874
 20
5524.012848777669
 30
0.0
 11
12543.02692222797
 21
5547.147169355677
 31
0.0
  0
LINE
  5
1BB88
330
1AC93
100
AcDbEntity
  8
0
  6
ByBlock
 62
     0
 48
50.0
100
AcDbLine
 10
12614.00648842835
 20
5429.623124232965
 30
0.0
 11
12617.9820919394
 21
5544.554384457165
 31
0.0
  0
LINE
  5
1BB89
330
1AC93
100
AcDbEntity
  8
0
  6
ByBlock
 62
     0
 48
50.0
100
AcDbLine
 10
12617.9820919394
 20
5544.554384457165
 30
0.0
 11
12631.50651441895
 21
5935.533745215431
 31
0.0
  0
INSERT
  5
1BB8A
330
1AC93
100
AcDbEntity
  8
0
  6
ByBlock
 62
     0
 48
50.0
100
AcDbBlockReference
  2
_DOTSMALL
 10
12614.00648842835
 20
5429.623124232965
 30
0.0
 41
125.0
 42
125.0
 43
125.0
 50
268.0188634930178
  0
INSERT
  5
1BB8B
330
1AC93
100
AcDbEntity
  8
0
  6
ByBlock
 62
     0
 48
50.0
100
AcDbBlockReference
  2
_DOTSMALL
 10
12617.9820919394
 20
5544.554384457165
 30
0.0
 41
125.0
 42
125.0
 43
125.0
 50
88.0188634930178
  0
MTEXT
  5
1BB8C
330
1AC93
100
AcDbEntity
  8
0
  6
ByBlock
 62
     7
 48
50.0
100
AcDbMText
 10
12526.96473097936
 20
5805.963752793847
 30
0.0
 40
150.0
 41
0.0
 71
     5
 72
     1
  1
\A1;115
  7
STYLE1
 11
0.0345704653134949
 21
0.9994022628191356
 31
0.0
 73
     1
 44
1.0
  0
POINT
  5
1BB8D
330
1AC93
100
AcDbEntity
  8
DEFPOINTS
  6
ByBlock
 62
     0
 48
50.0
100
AcDbPoint
 10
13232.82958141817
 20
5408.217326920631
 30
0.0
  0
POINT
  5
1BB8E
330
1AC93
100
AcDbEntity
  8
DEFPOINTS
  6
ByBlock
 62
     0
 48
50.0
100
AcDbPoint
 10
13236.80518492922
 20
5523.148587144831
 30
0.0
  0
POINT
  5
1BB8F
330
1AC93
100
AcDbEntity
  8
DEFPOINTS
  6
ByBlock
 62
     0
 48
50.0
100
AcDbPoint
 10
12617.9820919394
 20
5544.554384457165
 30
0.0
  0
ENDBLK
  5
1BB90
330
1AC93
100
AcDbEntity
  8
0
 48
50.0
100
AcDbBlockEnd
  0
BLOCK
  5
1B238
330
1ACA0
100
AcDbEntity
  8
0
 48
50.0
100
AcDbBlockBegin
  2
*D11
 70
     1
 10
0.0
 20
0.0
 30
0.0
  3
*D11
  1

  0
LINE
  5
1B239
330
1ACA0
100
AcDbEntity
  8
0
  6
ByBlock
 62
     0
 48
50.0
100
AcDbLine
 10
15427.82958141817
 20
3275.0
 30
0.0
 11
16137.32033483959
 21
3275.0
 31
0.0
  0
LINE
  5
1B23A
330
1ACA0
100
AcDbEntity
  8
0
  6
ByBlock
 62
     0
 48
50.0
100
AcDbLine
 10
15522.82958141817
 20
5485.0
 30
0.0
 11
16137.32033483959
 21
5485.0
 31
0.0
  0
LINE
  5
1B23B
330
1ACA0
100
AcDbEntity
  8
0
  6
ByBlock
 62
     0
 48
50.0
100
AcDbLine
 10
16062.32033483959
 20
3275.0
 30
0.0
 11
16062.32033483959
 21
5485.0
 31
0.0
  0
INSERT
  5
1B23C
330
1ACA0
100
AcDbEntity
  8
0
  6
ByBlock
 62
     0
 48
50.0
100
AcDbBlockReference
  2
_DOTSMALL
 10
16062.32033483959
 20
3275.0
 30
0.0
 41
125.0
 42
125.0
 43
125.0
 50
270.0
  0
INSERT
  5
1B23D
330
1ACA0
100
AcDbEntity
  8
0
  6
ByBlock
 62
     0
 48
50.0
100
AcDbBlockReference
  2
_DOTSMALL
 10
16062.32033483959
 20
5485.0
 30
0.0
 41
125.0
 42
125.0
 43
125.0
 50
90.0
  0
MTEXT
  5
1B23E
330
1ACA0
100
AcDbEntity
  8
0
  6
ByBlock
 62
     7
 48
50.0
100
AcDbMText
 10
15962.30557106006
 20
4380.0
 30
0.0
 40
150.0
 41
0.0
 71
     5
 72
     1
  1
\A1;2210
  7
STYLE1
 11
0.0000000000000001
 21
1.0
 31
0.0
 73
     1
 44
1.0
  0
POINT
  5
1B23F
330
1ACA0
100
AcDbEntity
  8
DEFPOINTS
  6
ByBlock
 62
     0
 48
50.0
100
AcDbPoint
 10
15402.82958141817
 20
3275.0
 30
0.0
  0
POINT
  5
1B240
330
1ACA0
100
AcDbEntity
  8
DEFPOINTS
  6
ByBlock
 62
     0
 48
50.0
100
AcDbPoint
 10
15497.82958141817
 20
5485.0
 30
0.0
  0
POINT
  5
1B241
330
1ACA0
100
AcDbEntity
  8
DEFPOINTS
  6
ByBlock
 62
     0
 48
50.0
100
AcDbPoint
 10
16062.32033483959
 20
5485.0
 30
0.0
  0
ENDBLK
  5
1B242
330
1ACA0
100
AcDbEntity
  8
0
 48
50.0
100
AcDbBlockEnd
  0
BLOCK
  5
1AD35
330
1ACAC
100
AcDbEntity
  8
0
 48
50.0
100
AcDbBlockBegin
  2
*D12
 70
     1
 10
0.0
 20
0.0
 30
0.0
  3
*D12
  1

  0
LINE
  5
1AD36
330
1ACAC
100
AcDbEntity
  8
0
  6
ByBlock
 62
     0
 48
50.0
100
AcDbLine
 10
14191.81781125775
 20
17390.86348289039
 30
0.0
 11
14191.81781125775
 21
18190.80759538007
 31
0.0
  0
LINE
  5
1AD37
330
1ACAC
100
AcDbEntity
  8
0
  6
ByBlock
 62
     0
 48
50.0
100
AcDbLine
 10
14286.81781125775
 20
17387.52646466355
 30
0.0
 11
14286.81781125775
 21
18190.80759538007
 31
0.0
  0
LINE
  5
1AD38
330
1ACAC
100
AcDbEntity
  8
0
  6
ByBlock
 62
     0
 48
50.0
100
AcDbLine
 10
14191.81781125775
 20
18115.80759538007
 30
0.0
 11
14286.81781125775
 21
18115.80759538007
 31
0.0
  0
LINE
  5
1AD39
330
1ACAC
100
AcDbEntity
  8
0
  6
ByBlock
 62
     0
 48
50.0
100
AcDbLine
 10
14286.81781125775
 20
18115.80759538007
 30
0.0
 11
14733.09006981146
 21
18115.80759538007
 31
0.0
  0
INSERT
  5
1AD3A
330
1ACAC
100
AcDbEntity
  8
0
  6
ByBlock
 62
     0
 48
50.0
100
AcDbBlockReference
  2
_DOTSMALL
 10
14191.81781125775
 20
18115.80759538007
 30
0.0
 41
125.0
 42
125.0
 43
125.0
 50
180.0
  0
INSERT
  5
1AD3B
330
1ACAC
100
AcDbEntity
  8
0
  6
ByBlock
 62
     0
 48
50.0
100
AcDbBlockReference
  2
_DOTSMALL
 10
14286.81781125775
 20
18115.80759538007
 30
0.0
 41
125.0
 42
125.0
 43
125.0
  0
MTEXT
  5
1AD3C
330
1ACAC
100
AcDbEntity
  8
0
  6
ByBlock
 62
     7
 48
50.0
100
AcDbMText
 10
14619.37686637586
 20
18215.80759538007
 30
0.0
 40
150.0
 41
0.0
 71
     5
 72
     1
  1
\A1;95
  7
STYLE1
 73
     1
 44
1.0
  0
POINT
  5
1AD3D
330
1ACAC
100
AcDbEntity
  8
DEFPOINTS
  6
ByBlock
 62
     0
 48
50.0
100
AcDbPoint
 10
14191.81781125775
 20
17365.86348289039
 30
0.0
  0
POINT
  5
1AD3E
330
1ACAC
100
AcDbEntity
  8
DEFPOINTS
  6
ByBlock
 62
     0
 48
50.0
100
AcDbPoint
 10
14286.81781125775
 20
17362.52646466355
 30
0.0
  0
POINT
  5
1AD3F
330
1ACAC
100
AcDbEntity
  8
DEFPOINTS
  6
ByBlock
 62
     0
 48
50.0
100
AcDbPoint
 10
14286.81781125775
 20
18115.80759538007
 30
0.0
  0
ENDBLK
  5
1AD40
330
1ACAC
100
AcDbEntity
  8
0
 48
50.0
100
AcDbBlockEnd
  0
BLOCK
  5
1B9CB
330
1B9CA
100
AcDbEntity
  8
0
 48
50.0
100
AcDbBlockBegin
  2
*D13
 70
     1
 10
0.0
 20
0.0
 30
0.0
  3
*D13
  1

  0
LINE
  5
1B9CC
330
1B9CA
100
AcDbEntity
  8
0
  6
ByBlock
 62
     0
 48
50.0
100
AcDbLine
 10
-4153.717496938315
 20
1429.54584640996
 30
0.0
 11
-4153.717496938315
 21
1051.904704125292
 31
0.0
  0
LINE
  5
1B9CD
330
1B9CA
100
AcDbEntity
  8
0
  6
ByBlock
 62
     0
 48
50.0
100
AcDbLine
 10
-4353.717496938318
 20
1429.54584640996
 30
0.0
 11
-4353.717496938318
 21
1051.904704125292
 31
0.0
  0
LINE
  5
1B9CE
330
1B9CA
100
AcDbEntity
  8
0
  6
ByBlock
 62
     0
 48
50.0
100
AcDbLine
 10
-4153.717496938315
 20
1126.904704125292
 30
0.0
 11
-4353.717496938318
 21
1126.904704125292
 31
0.0
  0
LINE
  5
1B9CF
330
1B9CA
100
AcDbEntity
  8
0
  6
ByBlock
 62
     0
 48
50.0
100
AcDbLine
 10
-4353.717496938318
 20
1126.904704125292
 30
0.0
 11
-4802.644662292649
 21
1126.904704125292
 31
0.0
  0
INSERT
  5
1B9D0
330
1B9CA
100
AcDbEntity
  8
0
  6
ByBlock
 62
     0
 48
50.0
100
AcDbBlockReference
  2
_DOTSMALL
 10
-4153.717496938315
 20
1126.904704125292
 30
0.0
 41
125.0
 42
125.0
 43
125.0
  0
INSERT
  5
1B9D1
330
1B9CA
100
AcDbEntity
  8
0
  6
ByBlock
 62
     0
 48
50.0
100
AcDbBlockReference
  2
_DOTSMALL
 10
-4353.717496938318
 20
1126.904704125292
 30
0.0
 41
125.0
 42
125.0
 43
125.0
 50
180.0
  0
MTEXT
  5
1B9D2
330
1B9CA
100
AcDbEntity
  8
0
  6
ByBlock
 62
     7
 48
50.0
100
AcDbMText
 10
-4640.681079615483
 20
1226.91946790482
 30
0.0
 40
150.0
 41
0.0
 71
     5
 72
     1
  1
\A1;200
  7
STYLE1
 73
     1
 44
1.0
  0
POINT
  5
1B9D3
330
1B9CA
100
AcDbEntity
  8
DEFPOINTS
  6
ByBlock
 62
     0
 48
50.0
100
AcDbPoint
 10
-4153.717496938315
 20
1454.54584640996
 30
0.0
  0
POINT
  5
1B9D4
330
1B9CA
100
AcDbEntity
  8
DEFPOINTS
  6
ByBlock
 62
     0
 48
50.0
100
AcDbPoint
 10
-4353.717496938318
 20
1454.54584640996
 30
0.0
  0
POINT
  5
1B9D5
330
1B9CA
100
AcDbEntity
  8
DEFPOINTS
  6
ByBlock
 62
     0
 48
50.0
100
AcDbPoint
 10
-4353.717496938318
 20
1126.904704125292
 30
0.0
  0
ENDBLK
  5
1B9D6
330
1B9CA
100
AcDbEntity
  8
0
 48
50.0
100
AcDbBlockEnd
  0
BLOCK
  5
1B9D8
330
1B9D7
100
AcDbEntity
  8
0
 48
50.0
100
AcDbBlockBegin
  2
*D14
 70
     1
 10
0.0
 20
0.0
 30
0.0
  3
*D14
  1

  0
LINE
  5
1B9D9
330
1B9D7
100
AcDbEntity
  8
0
  6
ByBlock
 62
     0
 48
50.0
100
AcDbLine
 10
-6768.717501308143
 20
4048.54584903477
 30
0.0
 11
-6768.717501308143
 21
5095.614700964507
 31
0.0
  0
LINE
  5
1B9DA
330
1B9D7
100
AcDbEntity
  8
0
  6
ByBlock
 62
     0
 48
50.0
100
AcDbLine
 10
-4198.717496938313
 20
4048.54584903477
 30
0.0
 11
-4198.717496938313
 21
5095.614700964507
 31
0.0
  0
LINE
  5
1B9DB
330
1B9D7
100
AcDbEntity
  8
0
  6
ByBlock
 62
     0
 48
50.0
100
AcDbLine
 10
-6768.717501308143
 20
5020.614700964507
 30
0.0
 11
-4198.717496938313
 21
5020.614700964507
 31
0.0
  0
INSERT
  5
1B9DC
330
1B9D7
100
AcDbEntity
  8
0
  6
ByBlock
 62
     0
 48
50.0
100
AcDbBlockReference
  2
_DOTSMALL
 10
-6768.717501308143
 20
5020.614700964507
 30
0.0
 41
125.0
 42
125.0
 43
125.0
 50
180.0
  0
INSERT
  5
1B9DD
330
1B9D7
100
AcDbEntity
  8
0
  6
ByBlock
 62
     0
 48
50.0
100
AcDbBlockReference
  2
_DOTSMALL
 10
-4198.717496938313
 20
5020.614700964507
 30
0.0
 41
125.0
 42
125.0
 43
125.0
  0
MTEXT
  5
1B9DE
330
1B9D7
100
AcDbEntity
  8
0
  6
ByBlock
 62
     7
 48
50.0
100
AcDbMText
 10
-5483.717499123229
 20
5120.629464744034
 30
0.0
 40
150.0
 41
0.0
 71
     5
 72
     1
  1
\A1;2570
  7
STYLE1
 73
     1
 44
1.0
  0
POINT
  5
1B9DF
330
1B9D7
100
AcDbEntity
  8
DEFPOINTS
  6
ByBlock
 62
     0
 48
50.0
100
AcDbPoint
 10
-6768.717501308143
 20
4023.54584903477
 30
0.0
  0
POINT
  5
1B9E0
330
1B9D7
100
AcDbEntity
  8
DEFPOINTS
  6
ByBlock
 62
     0
 48
50.0
100
AcDbPoint
 10
-4198.717496938313
 20
4023.54584903477
 30
0.0
  0
POINT
  5
1B9E1
330
1B9D7
100
AcDbEntity
  8
DEFPOINTS
  6
ByBlock
 62
     0
 48
50.0
100
AcDbPoint
 10
-4198.717496938313
 20
5020.614700964507
 30
0.0
  0
ENDBLK
  5
1B9E2
330
1B9D7
100
AcDbEntity
  8
0
 48
50.0
100
AcDbBlockEnd
  0
BLOCK
  5
1B9E4
330
1B9E3
100
AcDbEntity
  8
0
 48
50.0
100
AcDbBlockBegin
  2
*D15
 70
     1
 10
0.0
 20
0.0
 30
0.0
  3
*D15
  1

  0
LINE
  5
1BF88
330
1B9E3
100
AcDbEntity
  8
寸法
 62
     0
 48
50.0
100
AcDbLine
 10
8462.829581418173
 20
5570.000000008446
 30
0.0
 11
8462.829581418173
 21
6313.281130716521
 31
0.0
  0
LINE
  5
1BF89
330
1B9E3
100
AcDbEntity
  8
寸法
 62
     0
 48
50.0
100
AcDbLine
 10
6002.829581418175
 20
6238.281130716521
 30
0.0
 11
8462.829581418173
 21
6238.281130716521
 31
0.0
  0
INSERT
  5
1BF8A
330
1B9E3
100
AcDbEntity
  8
寸法
 62
     0
 48
50.0
100
AcDbBlockReference
  2
_DOTSMALL
 10
6002.829581418175
 20
6238.281130716521
 30
0.0
 41
125.0
 42
125.0
 43
125.0
 50
180.0
  0
INSERT
  5
1BF8B
330
1B9E3
100
AcDbEntity
  8
寸法
 62
     0
 48
50.0
100
AcDbBlockReference
  2
_DOTSMALL
 10
8462.829581418173
 20
6238.281130716521
 30
0.0
 41
125.0
 42
125.0
 43
125.0
  0
MTEXT
  5
1BF8C
330
1B9E3
100
AcDbEntity
  8
寸法
 62
     7
 48
50.0
100
AcDbMText
 10
7232.829581418174
 20
6338.295894496049
 30
0.0
 40
150.0
 41
0.0
 71
     5
 72
     1
  1
\A1;柱外寸法 2460
  7
STYLE1
 73
     1
 44
1.0
  0
POINT
  5
1BF8D
330
1B9E3
100
AcDbEntity
  8
DEFPOINTS
 62
     0
 48
50.0
100
AcDbPoint
 10
6002.829581418175
 20
5545.000000008467
 30
0.0
  0
POINT
  5
1BF8E
330
1B9E3
100
AcDbEntity
  8
DEFPOINTS
 62
     0
 48
50.0
100
AcDbPoint
 10
8462.829581418173
 20
5545.000000008446
 30
0.0
  0
POINT
  5
1BF8F
330
1B9E3
100
AcDbEntity
  8
DEFPOINTS
 62
     0
 48
50.0
100
AcDbPoint
 10
8462.829581418173
 20
6238.281130716521
 30
0.0
  0
ENDBLK
  5
1B9ED
330
1B9E3
100
AcDbEntity
  8
0
 48
50.0
100
AcDbBlockEnd
  0
BLOCK
  5
1B9EF
330
1B9EE
100
AcDbEntity
  8
0
 48
50.0
100
AcDbBlockBegin
  2
*D16
 70
     1
 10
0.0
 20
0.0
 30
0.0
  3
*D16
  1

  0
LINE
  5
1B9F0
330
1B9EE
100
AcDbEntity
  8
0
  6
ByBlock
 62
     0
 48
50.0
100
AcDbLine
 10
-6768.717501308143
 20
4048.54584903477
 30
0.0
 11
-6768.717501308143
 21
4827.826977126482
 31
0.0
  0
LINE
  5
1B9F1
330
1B9EE
100
AcDbEntity
  8
0
  6
ByBlock
 62
     0
 48
50.0
100
AcDbLine
 10
-6713.717496938315
 20
4084.545846418428
 30
0.0
 11
-6713.717496938315
 21
4827.826977126482
 31
0.0
  0
LINE
  5
1B9F2
330
1B9EE
100
AcDbEntity
  8
0
  6
ByBlock
 62
     0
 48
50.0
100
AcDbLine
 10
-6713.717496938315
 20
4752.826977126482
 30
0.0
 11
-6768.717501308143
 21
4752.826977126482
 31
0.0
  0
LINE
  5
1B9F3
330
1B9EE
100
AcDbEntity
  8
0
  6
ByBlock
 62
     0
 48
50.0
100
AcDbLine
 10
-6768.717501308143
 20
4752.826977126482
 30
0.0
 11
-7204.383153774227
 21
4752.826977126482
 31
0.0
  0
INSERT
  5
1B9F4
330
1B9EE
100
AcDbEntity
  8
0
  6
ByBlock
 62
     0
 48
50.0
100
AcDbBlockReference
  2
_DOTSMALL
 10
-6713.717496938315
 20
4752.826977126482
 30
0.0
 41
125.0
 42
125.0
 43
125.0
  0
INSERT
  5
1B9F5
330
1B9EE
100
AcDbEntity
  8
0
  6
ByBlock
 62
     0
 48
50.0
100
AcDbBlockReference
  2
_DOTSMALL
 10
-6768.717501308143
 20
4752.826977126482
 30
0.0
 41
125.0
 42
125.0
 43
125.0
 50
180.0
  0
MTEXT
  5
1B9F6
330
1B9EE
100
AcDbEntity
  8
0
  6
ByBlock
 62
     7
 48
50.0
100
AcDbMText
 10
-7093.776552056429
 20
4852.826977126483
 30
0.0
 40
150.0
 41
0.0
 71
     5
 72
     1
  1
\A1;55
  7
STYLE1
 73
     1
 44
1.0
  0
POINT
  5
1B9F7
330
1B9EE
100
AcDbEntity
  8
DEFPOINTS
  6
ByBlock
 62
     0
 48
50.0
100
AcDbPoint
 10
-6768.717501308143
 20
4023.54584903477
 30
0.0
  0
POINT
  5
1B9F8
330
1B9EE
100
AcDbEntity
  8
DEFPOINTS
  6
ByBlock
 62
     0
 48
50.0
100
AcDbPoint
 10
-6713.717496938315
 20
4059.545846418428
 30
0.0
  0
POINT
  5
1B9F9
330
1B9EE
100
AcDbEntity
  8
DEFPOINTS
  6
ByBlock
 62
     0
 48
50.0
100
AcDbPoint
 10
-6713.717496938315
 20
4752.826977126482
 30
0.0
  0
ENDBLK
  5
1B9FA
330
1B9EE
100
AcDbEntity
  8
0
 48
50.0
100
AcDbBlockEnd
  0
BLOCK
  5
1BB99
330
1B9FB
100
AcDbEntity
  8
0
 48
50.0
100
AcDbBlockBegin
  2
*D17
 70
     1
 10
0.0
 20
0.0
 30
0.0
  3
*D17
  1

  0
LINE
  5
1BF80
330
1B9FB
100
AcDbEntity
  8
寸法
 62
     0
 48
50.0
100
AcDbLine
 10
8487.829581418173
 20
5302.0
 30
0.0
 11
9193.934533249727
 21
5302.0
 31
0.0
  0
LINE
  5
1BF81
330
1B9FB
100
AcDbEntity
  8
寸法
 62
     0
 48
50.0
100
AcDbLine
 10
9118.934533249726
 20
3342.0
 30
0.0
 11
9118.934533249726
 21
5302.0
 31
0.0
  0
INSERT
  5
1BF82
330
1B9FB
100
AcDbEntity
  8
寸法
 62
     0
 48
50.0
100
AcDbBlockReference
  2
_DOTSMALL
 10
9118.934533249726
 20
3342.0
 30
0.0
 41
125.0
 42
125.0
 43
125.0
 50
270.0
  0
INSERT
  5
1BF83
330
1B9FB
100
AcDbEntity
  8
寸法
 62
     0
 48
50.0
100
AcDbBlockReference
  2
_DOTSMALL
 10
9118.934533249726
 20
5302.0
 30
0.0
 41
125.0
 42
125.0
 43
125.0
 50
90.0
  0
MTEXT
  5
1BF84
330
1B9FB
100
AcDbEntity
  8
寸法
 62
     7
 48
50.0
100
AcDbMText
 10
9018.934533249725
 20
4322.000000000001
 30
0.0
 40
150.0
 41
0.0
 71
     5
 72
     1
  1
\A1;内高 1960
  7
STYLE1
 11
0.0000000000000001
 21
1.0
 31
0.0
 73
     1
 44
1.0
  0
POINT
  5
1BF85
330
1B9FB
100
AcDbEntity
  8
DEFPOINTS
 62
     0
 48
50.0
100
AcDbPoint
 10
8462.829581418175
 20
3342.0
 30
0.0
  0
POINT
  5
1BF86
330
1B9FB
100
AcDbEntity
  8
DEFPOINTS
 62
     0
 48
50.0
100
AcDbPoint
 10
8462.829581418173
 20
5302.0
 30
0.0
  0
POINT
  5
1BF87
330
1B9FB
100
AcDbEntity
  8
DEFPOINTS
 62
     0
 48
50.0
100
AcDbPoint
 10
9118.934533249726
 20
5302.0
 30
0.0
  0
ENDBLK
  5
1BBA2
330
1B9FB
100
AcDbEntity
  8
0
 48
50.0
100
AcDbBlockEnd
  0
BLOCK
  5
1BA07
330
1BA06
100
AcDbEntity
  8
0
 48
50.0
100
AcDbBlockBegin
  2
*D18
 70
     1
 10
0.0
 20
0.0
 30
0.0
  3
*D18
  1

  0
LINE
  5
1BA08
330
1BA06
100
AcDbEntity
  8
0
  6
ByBlock
 62
     0
 48
50.0
100
AcDbLine
 10
-4228.717496938315
 20
1789.545846409961
 30
0.0
 11
-3522.612545106763
 21
1789.545846409961
 31
0.0
  0
LINE
  5
1BA09
330
1BA06
100
AcDbEntity
  8
0
  6
ByBlock
 62
     0
 48
50.0
100
AcDbLine
 10
-4228.717496938315
 20
1856.545846409961
 30
0.0
 11
-3522.612545106763
 21
1856.545846409961
 31
0.0
  0
LINE
  5
1BA0A
330
1BA06
100
AcDbEntity
  8
0
  6
ByBlock
 62
     0
 48
50.0
100
AcDbLine
 10
-3597.612545106763
 20
1856.545846409961
 30
0.0
 11
-3597.612545106763
 21
1789.545846409961
 31
0.0
  0
LINE
  5
1BA0B
330
1BA06
100
AcDbEntity
  8
0
  6
ByBlock
 62
     0
 48
50.0
100
AcDbLine
 10
-3597.612545106763
 20
1789.545846409961
 30
0.0
 11
-3597.612545106763
 21
1381.255254921078
 31
0.0
  0
INSERT
  5
1BA0C
330
1BA06
100
AcDbEntity
  8
0
  6
ByBlock
 62
     0
 48
50.0
100
AcDbBlockReference
  2
_DOTSMALL
 10
-3597.612545106763
 20
1856.545846409961
 30
0.0
 41
125.0
 42
125.0
 43
125.0
 50
90.0
  0
INSERT
  5
1BA0D
330
1BA06
100
AcDbEntity
  8
0
  6
ByBlock
 62
     0
 48
50.0
100
AcDbBlockReference
  2
_DOTSMALL
 10
-3597.612545106763
 20
1789.545846409961
 30
0.0
 41
125.0
 42
125.0
 43
125.0
 50
270.0
  0
MTEXT
  5
1BA0E
330
1BA06
100
AcDbEntity
  8
0
  6
ByBlock
 62
     7
 48
50.0
100
AcDbMText
 10
-3697.612545106764
 20
1493.243443897456
 30
0.0
 40
150.0
 41
0.0
 71
     5
 72
     1
  1
\A1;67
  7
STYLE1
 11
0.0000000000000001
 21
1.0
 31
0.0
 73
     1
 44
1.0
  0
POINT
  5
1BA0F
330
1BA06
100
AcDbEntity
  8
DEFPOINTS
  6
ByBlock
 62
     0
 48
50.0
100
AcDbPoint
 10
-4253.717496938316
 20
1789.545846409961
 30
0.0
  0
POINT
  5
1BA10
330
1BA06
100
AcDbEntity
  8
DEFPOINTS
  6
ByBlock
 62
     0
 48
50.0
100
AcDbPoint
 10
-4253.717496938316
 20
1856.545846409961
 30
0.0
  0
POINT
  5
1BA11
330
1BA06
100
AcDbEntity
  8
DEFPOINTS
  6
ByBlock
 62
     0
 48
50.0
100
AcDbPoint
 10
-3597.612545106763
 20
1856.545846409961
 30
0.0
  0
ENDBLK
  5
1BA12
330
1BA06
100
AcDbEntity
  8
0
 48
50.0
100
AcDbBlockEnd
  0
BLOCK
  5
1BA14
330
1BA13
100
AcDbEntity
  8
0
 48
50.0
100
AcDbBlockBegin
  2
*D19
 70
     1
 10
0.0
 20
0.0
 30
0.0
  3
*D19
  1

  0
LINE
  5
1BA15
330
1BA13
100
AcDbEntity
  8
0
  6
ByBlock
 62
     0
 48
50.0
100
AcDbLine
 10
-4253.717496938318
 20
4084.545846418406
 30
0.0
 11
-4253.717496938318
 21
4827.826977126482
 31
0.0
  0
LINE
  5
1BA16
330
1BA13
100
AcDbEntity
  8
0
  6
ByBlock
 62
     0
 48
50.0
100
AcDbLine
 10
-4198.717496938313
 20
4048.54584903477
 30
0.0
 11
-4198.717496938313
 21
4827.826977126482
 31
0.0
  0
LINE
  5
1BA17
330
1BA13
100
AcDbEntity
  8
0
  6
ByBlock
 62
     0
 48
50.0
100
AcDbLine
 10
-4253.717496938318
 20
4752.826977126482
 30
0.0
 11
-4198.717496938313
 21
4752.826977126482
 31
0.0
  0
LINE
  5
1BA18
330
1BA13
100
AcDbEntity
  8
0
  6
ByBlock
 62
     0
 48
50.0
100
AcDbLine
 10
-4198.717496938313
 20
4752.826977126482
 30
0.0
 11
-3773.051840102406
 21
4752.826977126482
 31
0.0
  0
INSERT
  5
1BA19
330
1BA13
100
AcDbEntity
  8
0
  6
ByBlock
 62
     0
 48
50.0
100
AcDbBlockReference
  2
_DOTSMALL
 10
-4253.717496938318
 20
4752.826977126482
 30
0.0
 41
125.0
 42
125.0
 43
125.0
 50
180.0
  0
INSERT
  5
1BA1A
330
1BA13
100
AcDbEntity
  8
0
  6
ByBlock
 62
     0
 48
50.0
100
AcDbBlockReference
  2
_DOTSMALL
 10
-4198.717496938313
 20
4752.826977126482
 30
0.0
 41
125.0
 42
125.0
 43
125.0
  0
MTEXT
  5
1BA1B
330
1BA13
100
AcDbEntity
  8
0
  6
ByBlock
 62
     7
 48
50.0
100
AcDbMText
 10
-3883.658441820204
 20
4852.826977126483
 30
0.0
 40
150.0
 41
0.0
 71
     5
 72
     1
  1
\A1;55
  7
STYLE1
 73
     1
 44
1.0
  0
POINT
  5
1BA1C
330
1BA13
100
AcDbEntity
  8
DEFPOINTS
  6
ByBlock
 62
     0
 48
50.0
100
AcDbPoint
 10
-4253.717496938318
 20
4059.545846418407
 30
0.0
  0
POINT
  5
1BA1D
330
1BA13
100
AcDbEntity
  8
DEFPOINTS
  6
ByBlock
 62
     0
 48
50.0
100
AcDbPoint
 10
-4198.717496938313
 20
4023.54584903477
 30
0.0
  0
POINT
  5
1BA1E
330
1BA13
100
AcDbEntity
  8
DEFPOINTS
  6
ByBlock
 62
     0
 48
50.0
100
AcDbPoint
 10
-4198.717496938313
 20
4752.826977126482
 30
0.0
  0
ENDBLK
  5
1BA1F
330
1BA13
100
AcDbEntity
  8
0
 48
50.0
100
AcDbBlockEnd
  0
BLOCK
  5
1BA21
330
1BA20
100
AcDbEntity
  8
0
 48
50.0
100
AcDbBlockBegin
  2
*D20
 70
     1
 10
0.0
 20
0.0
 30
0.0
  3
*D20
  1

  0
LINE
  5
1BA22
330
1BA20
100
AcDbEntity
  8
0
  6
ByBlock
 62
     0
 48
50.0
100
AcDbLine
 10
-4323.717496938312
 20
10228.28264377193
 30
0.0
 11
-4323.717496938312
 21
10688.31462864258
 31
0.0
  0
LINE
  5
1BA23
330
1BA20
100
AcDbEntity
  8
0
  6
ByBlock
 62
     0
 48
50.0
100
AcDbLine
 10
-4253.717496938312
 20
10218.28264377193
 30
0.0
 11
-4253.717496938312
 21
10688.31462864258
 31
0.0
  0
LINE
  5
1BA24
330
1BA20
100
AcDbEntity
  8
0
  6
ByBlock
 62
     0
 48
50.0
100
AcDbLine
 10
-4323.717496938312
 20
10613.31462864258
 30
0.0
 11
-4253.717496938312
 21
10613.31462864258
 31
0.0
  0
LINE
  5
1BA25
330
1BA20
100
AcDbEntity
  8
0
  6
ByBlock
 62
     0
 48
50.0
100
AcDbLine
 10
-4253.717496938312
 20
10613.31462864258
 30
0.0
 11
-3883.599386702093
 21
10613.31462864258
 31
0.0
  0
INSERT
  5
1BA26
330
1BA20
100
AcDbEntity
  8
0
  6
ByBlock
 62
     0
 48
50.0
100
AcDbBlockReference
  2
_DOTSMALL
 10
-4323.717496938312
 20
10613.31462864258
 30
0.0
 41
125.0
 42
125.0
 43
125.0
 50
180.0
  0
INSERT
  5
1BA27
330
1BA20
100
AcDbEntity
  8
0
  6
ByBlock
 62
     0
 48
50.0
100
AcDbBlockReference
  2
_DOTSMALL
 10
-4253.717496938312
 20
10613.31462864258
 30
0.0
 41
125.0
 42
125.0
 43
125.0
  0
MTEXT
  5
1BA28
330
1BA20
100
AcDbEntity
  8
0
  6
ByBlock
 62
     7
 48
50.0
100
AcDbMText
 10
-3991.158441820203
 20
10713.31462864258
 30
0.0
 40
150.0
 41
0.0
 71
     5
 72
     1
  1
\A1;70
  7
STYLE1
 73
     1
 44
1.0
  0
POINT
  5
1BA29
330
1BA20
100
AcDbEntity
  8
DEFPOINTS
  6
ByBlock
 62
     0
 48
50.0
100
AcDbPoint
 10
-4323.717496938312
 20
10203.28264377193
 30
0.0
  0
POINT
  5
1BA2A
330
1BA20
100
AcDbEntity
  8
DEFPOINTS
  6
ByBlock
 62
     0
 48
50.0
100
AcDbPoint
 10
-4253.717496938312
 20
10193.28264377193
 30
0.0
  0
POINT
  5
1BA2B
330
1BA20
100
AcDbEntity
  8
DEFPOINTS
  6
ByBlock
 62
     0
 48
50.0
100
AcDbPoint
 10
-4253.717496938312
 20
10613.31462864258
 30
0.0
  0
ENDBLK
  5
1BA2C
330
1BA20
100
AcDbEntity
  8
0
 48
50.0
100
AcDbBlockEnd
  0
BLOCK
  5
1BA2E
330
1BA2D
100
AcDbEntity
  8
0
 48
50.0
100
AcDbBlockBegin
  2
*D21
 70
     1
 10
0.0
 20
0.0
 30
0.0
  3
*D21
  1

  0
LINE
  5
1BA2F
330
1BA2D
100
AcDbEntity
  8
0
  6
ByBlock
 62
     0
 48
50.0
100
AcDbLine
 10
-4303.717496938308
 20
10638.31462864258
 30
0.0
 11
-4303.717496938308
 21
10987.06101254334
 31
0.0
  0
LINE
  5
1BA30
330
1BA2D
100
AcDbEntity
  8
0
  6
ByBlock
 62
     0
 48
50.0
100
AcDbLine
 10
-4253.717496938312
 20
10218.28264377193
 30
0.0
 11
-4253.717496938312
 21
10987.06101254334
 31
0.0
  0
LINE
  5
1BA31
330
1BA2D
100
AcDbEntity
  8
0
  6
ByBlock
 62
     0
 48
50.0
100
AcDbLine
 10
-4303.717496938308
 20
10912.06101254334
 30
0.0
 11
-4428.717496938308
 21
10912.06101254334
 31
0.0
  0
LINE
  5
1BA32
330
1BA2D
100
AcDbEntity
  8
0
  6
ByBlock
 62
     0
 48
50.0
100
AcDbLine
 10
-4253.717496938312
 20
10912.06101254334
 30
0.0
 11
-3788.599386702091
 21
10912.06101254334
 31
0.0
  0
LINE
  5
1BA33
330
1BA2D
100
AcDbEntity
  8
0
  6
ByBlock
 62
     0
 48
50.0
100
AcDbLine
 10
-4303.717496938308
 20
10912.06101254334
 30
0.0
 11
-4253.717496938312
 21
10912.06101254334
 31
0.0
  0
INSERT
  5
1BA34
330
1BA2D
100
AcDbEntity
  8
0
  6
ByBlock
 62
     0
 48
50.0
100
AcDbBlockReference
  2
_DOTSMALL
 10
-4303.717496938308
 20
10912.06101254334
 30
0.0
 41
125.0
 42
125.0
 43
125.0
  0
INSERT
  5
1BA35
330
1BA2D
100
AcDbEntity
  8
0
  6
ByBlock
 62
     0
 48
50.0
100
AcDbBlockReference
  2
_DOTSMALL
 10
-4253.717496938312
 20
10912.06101254334
 30
0.0
 41
125.0
 42
125.0
 43
125.0
 50
180.0
  0
MTEXT
  5
1BA36
330
1BA2D
100
AcDbEntity
  8
0
  6
ByBlock
 62
     7
 48
50.0
100
AcDbMText
 10
-3896.158441820202
 20
11012.06101254334
 30
0.0
 40
150.0
 41
0.0
 71
     5
 72
     1
  1
\A1;50
  7
STYLE1
 73
     1
 44
1.0
  0
POINT
  5
1BA37
330
1BA2D
100
AcDbEntity
  8
DEFPOINTS
  6
ByBlock
 62
     0
 48
50.0
100
AcDbPoint
 10
-4303.717496938308
 20
10613.31462864258
 30
0.0
  0
POINT
  5
1BA38
330
1BA2D
100
AcDbEntity
  8
DEFPOINTS
  6
ByBlock
 62
     0
 48
50.0
100
AcDbPoint
 10
-4253.717496938312
 20
10193.28264377193
 30
0.0
  0
POINT
  5
1BA39
330
1BA2D
100
AcDbEntity
  8
DEFPOINTS
  6
ByBlock
 62
     0
 48
50.0
100
AcDbPoint
 10
-4253.717496938312
 20
10912.06101254334
 30
0.0
  0
ENDBLK
  5
1BA3A
330
1BA2D
100
AcDbEntity
  8
0
 48
50.0
100
AcDbBlockEnd
  0
BLOCK
  5
1BB25
330
1BA3B
100
AcDbEntity
  8
0
 48
50.0
100
AcDbBlockBegin
  2
*D22
 70
     1
 10
0.0
 20
0.0
 30
0.0
  3
*D22
  1

  0
LINE
  5
1BF78
330
1BA3B
100
AcDbEntity
  8
寸法
 62
     0
 48
50.0
100
AcDbLine
 10
8392.829581418176
 20
10553.73679736197
 30
0.0
 11
8392.829581418176
 21
11013.76878223262
 31
0.0
  0
LINE
  5
1BF79
330
1BA3B
100
AcDbEntity
  8
寸法
 62
     0
 48
50.0
100
AcDbLine
 10
6072.829581418175
 20
10938.76878223262
 30
0.0
 11
8392.829581418176
 21
10938.76878223262
 31
0.0
  0
INSERT
  5
1BF7A
330
1BA3B
100
AcDbEntity
  8
寸法
 62
     0
 48
50.0
100
AcDbBlockReference
  2
_DOTSMALL
 10
6072.829581418175
 20
10938.76878223262
 30
0.0
 41
125.0
 42
125.0
 43
125.0
 50
180.0
  0
INSERT
  5
1BF7B
330
1BA3B
100
AcDbEntity
  8
寸法
 62
     0
 48
50.0
100
AcDbBlockReference
  2
_DOTSMALL
 10
8392.829581418176
 20
10938.76878223262
 30
0.0
 41
125.0
 42
125.0
 43
125.0
  0
MTEXT
  5
1BF7C
330
1BA3B
100
AcDbEntity
  8
寸法
 62
     7
 48
50.0
100
AcDbMText
 10
7232.829581418176
 20
11038.78354601214
 30
0.0
 40
150.0
 41
0.0
 71
     5
 72
     1
  1
\A1;4x580=2320
  7
STYLE1
 73
     1
 44
1.0
  0
POINT
  5
1BF7D
330
1BA3B
100
AcDbEntity
  8
DEFPOINTS
 62
     0
 48
50.0
100
AcDbPoint
 10
6072.829581418175
 20
10528.73679736197
 30
0.0
  0
POINT
  5
1BF7E
330
1BA3B
100
AcDbEntity
  8
DEFPOINTS
 62
     0
 48
50.0
100
AcDbPoint
 10
8392.829581418176
 20
10528.73679736197
 30
0.0
  0
POINT
  5
1BF7F
330
1BA3B
100
AcDbEntity
  8
DEFPOINTS
 62
     0
 48
50.0
100
AcDbPoint
 10
8392.829581418176
 20
10938.76878223262
 30
0.0
  0
ENDBLK
  5
1BB2E
330
1BA3B
100
AcDbEntity
  8
0
 48
50.0
100
AcDbBlockEnd
  0
BLOCK
  5
1BA47
330
1BA46
100
AcDbEntity
  8
0
 48
50.0
100
AcDbBlockBegin
  2
*D23
 70
     1
 10
0.0
 20
0.0
 30
0.0
  3
*D23
  1

  0
LINE
  5
1BA48
330
1BA46
100
AcDbEntity
  8
0
  6
ByBlock
 62
     0
 48
50.0
100
AcDbLine
 10
-6713.717496938318
 20
10218.28264377193
 30
0.0
 11
-6713.717496938318
 21
10688.31462864258
 31
0.0
  0
LINE
  5
1BA49
330
1BA46
100
AcDbEntity
  8
0
  6
ByBlock
 62
     0
 48
50.0
100
AcDbLine
 10
-6643.717496938316
 20
10228.28264377193
 30
0.0
 11
-6643.717496938316
 21
10688.31462864258
 31
0.0
  0
LINE
  5
1BA4A
330
1BA46
100
AcDbEntity
  8
0
  6
ByBlock
 62
     0
 48
50.0
100
AcDbLine
 10
-6643.717496938316
 20
10613.31462864258
 30
0.0
 11
-6713.717496938318
 21
10613.31462864258
 31
0.0
  0
LINE
  5
1BA4B
330
1BA46
100
AcDbEntity
  8
0
  6
ByBlock
 62
     0
 48
50.0
100
AcDbLine
 10
-6713.717496938318
 20
10613.31462864258
 30
0.0
 11
-7063.835607174539
 21
10613.31462864258
 31
0.0
  0
INSERT
  5
1BA4C
330
1BA46
100
AcDbEntity
  8
0
  6
ByBlock
 62
     0
 48
50.0
100
AcDbBlockReference
  2
_DOTSMALL
 10
-6643.717496938316
 20
10613.31462864258
 30
0.0
 41
125.0
 42
125.0
 43
125.0
  0
INSERT
  5
1BA4D
330
1BA46
100
AcDbEntity
  8
0
  6
ByBlock
 62
     0
 48
50.0
100
AcDbBlockReference
  2
_DOTSMALL
 10
-6713.717496938318
 20
10613.31462864258
 30
0.0
 41
125.0
 42
125.0
 43
125.0
 50
180.0
  0
MTEXT
  5
1BA4E
330
1BA46
100
AcDbEntity
  8
0
  6
ByBlock
 62
     7
 48
50.0
100
AcDbMText
 10
-6956.276552056428
 20
10713.31462864258
 30
0.0
 40
150.0
 41
0.0
 71
     5
 72
     1
  1
\A1;70
  7
STYLE1
 73
     1
 44
1.0
  0
POINT
  5
1BA4F
330
1BA46
100
AcDbEntity
  8
DEFPOINTS
  6
ByBlock
 62
     0
 48
50.0
100
AcDbPoint
 10
-6713.717496938318
 20
10193.28264377193
 30
0.0
  0
POINT
  5
1BA50
330
1BA46
100
AcDbEntity
  8
DEFPOINTS
  6
ByBlock
 62
     0
 48
50.0
100
AcDbPoint
 10
-6643.717496938316
 20
10203.28264377193
 30
0.0
  0
POINT
  5
1BA51
330
1BA46
100
AcDbEntity
  8
DEFPOINTS
  6
ByBlock
 62
     0
 48
50.0
100
AcDbPoint
 10
-6643.717496938316
 20
10613.31462864258
 30
0.0
  0
ENDBLK
  5
1BA52
330
1BA46
100
AcDbEntity
  8
0
 48
50.0
100
AcDbBlockEnd
  0
BLOCK
  5
1BA54
330
1BA53
100
AcDbEntity
  8
0
 48
50.0
100
AcDbBlockBegin
  2
*D24
 70
     1
 10
0.0
 20
0.0
 30
0.0
  3
*D24
  1

  0
LINE
  5
1BA55
330
1BA53
100
AcDbEntity
  8
0
  6
ByBlock
 62
     0
 48
50.0
100
AcDbLine
 10
-6713.717496938318
 20
10218.28264377193
 30
0.0
 11
-6713.717496938318
 21
10987.06101254334
 31
0.0
  0
LINE
  5
1BA56
330
1BA53
100
AcDbEntity
  8
0
  6
ByBlock
 62
     0
 48
50.0
100
AcDbLine
 10
-6663.717496938319
 20
10638.31462864258
 30
0.0
 11
-6663.717496938319
 21
10987.06101254334
 31
0.0
  0
LINE
  5
1BA57
330
1BA53
100
AcDbEntity
  8
0
  6
ByBlock
 62
     0
 48
50.0
100
AcDbLine
 10
-6663.717496938319
 20
10912.06101254334
 30
0.0
 11
-6538.717496938319
 21
10912.06101254334
 31
0.0
  0
LINE
  5
1BA58
330
1BA53
100
AcDbEntity
  8
0
  6
ByBlock
 62
     0
 48
50.0
100
AcDbLine
 10
-6713.717496938318
 20
10912.06101254334
 30
0.0
 11
-7178.835607174538
 21
10912.06101254334
 31
0.0
  0
LINE
  5
1BA59
330
1BA53
100
AcDbEntity
  8
0
  6
ByBlock
 62
     0
 48
50.0
100
AcDbLine
 10
-6663.717496938319
 20
10912.06101254334
 30
0.0
 11
-6713.717496938318
 21
10912.06101254334
 31
0.0
  0
INSERT
  5
1BA5A
330
1BA53
100
AcDbEntity
  8
0
  6
ByBlock
 62
     0
 48
50.0
100
AcDbBlockReference
  2
_DOTSMALL
 10
-6663.717496938319
 20
10912.06101254334
 30
0.0
 41
125.0
 42
125.0
 43
125.0
 50
180.0
  0
INSERT
  5
1BA5B
330
1BA53
100
AcDbEntity
  8
0
  6
ByBlock
 62
     0
 48
50.0
100
AcDbBlockReference
  2
_DOTSMALL
 10
-6713.717496938318
 20
10912.06101254334
 30
0.0
 41
125.0
 42
125.0
 43
125.0
  0
MTEXT
  5
1BA5C
330
1BA53
100
AcDbEntity
  8
0
  6
ByBlock
 62
     7
 48
50.0
100
AcDbMText
 10
-7071.276552056428
 20
11012.06101254334
 30
0.0
 40
150.0
 41
0.0
 71
     5
 72
     1
  1
\A1;50
  7
STYLE1
 73
     1
 44
1.0
  0
POINT
  5
1BA5D
330
1BA53
100
AcDbEntity
  8
DEFPOINTS
  6
ByBlock
 62
     0
 48
50.0
100
AcDbPoint
 10
-6713.717496938318
 20
10193.28264377193
 30
0.0
  0
POINT
  5
1BA5E
330
1BA53
100
AcDbEntity
  8
DEFPOINTS
  6
ByBlock
 62
     0
 48
50.0
100
AcDbPoint
 10
-6663.717496938319
 20
10613.31462864258
 30
0.0
  0
POINT
  5
1BA5F
330
1BA53
100
AcDbEntity
  8
DEFPOINTS
  6
ByBlock
 62
     0
 48
50.0
100
AcDbPoint
 10
-6663.717496938319
 20
10912.06101254334
 30
0.0
  0
ENDBLK
  5
1BA60
330
1BA53
100
AcDbEntity
  8
0
 48
50.0
100
AcDbBlockEnd
  0
BLOCK
  5
1BA62
330
1BA61
100
AcDbEntity
  8
0
 48
50.0
100
AcDbBlockBegin
  2
*D25
 70
     1
 10
0.0
 20
0.0
 30
0.0
  3
*D25
  1

  0
LINE
  5
1BA63
330
1BA61
100
AcDbEntity
  8
0
  6
ByBlock
 62
     0
 48
50.0
100
AcDbLine
 10
-3417.381744555345
 20
10153.28264377193
 30
0.0
 11
-3064.577740636734
 21
10153.28264377193
 31
0.0
  0
LINE
  5
1BA64
330
1BA61
100
AcDbEntity
  8
0
  6
ByBlock
 62
     0
 48
50.0
100
AcDbLine
 10
-4238.717496938316
 20
10203.28264377193
 30
0.0
 11
-3064.577740636734
 21
10203.28264377193
 31
0.0
  0
LINE
  5
1BA65
330
1BA61
100
AcDbEntity
  8
0
  6
ByBlock
 62
     0
 48
50.0
100
AcDbLine
 10
-3139.577740636734
 20
10153.28264377193
 30
0.0
 11
-3139.577740636734
 21
10028.28264377193
 31
0.0
  0
LINE
  5
1BA66
330
1BA61
100
AcDbEntity
  8
0
  6
ByBlock
 62
     0
 48
50.0
100
AcDbLine
 10
-3139.577740636734
 20
10203.28264377193
 30
0.0
 11
-3139.577740636734
 21
10668.40075400815
 31
0.0
  0
LINE
  5
1BA67
330
1BA61
100
AcDbEntity
  8
0
  6
ByBlock
 62
     0
 48
50.0
100
AcDbLine
 10
-3139.577740636734
 20
10153.28264377193
 30
0.0
 11
-3139.577740636734
 21
10203.28264377193
 31
0.0
  0
INSERT
  5
1BA68
330
1BA61
100
AcDbEntity
  8
0
  6
ByBlock
 62
     0
 48
50.0
100
AcDbBlockReference
  2
_DOTSMALL
 10
-3139.577740636734
 20
10153.28264377193
 30
0.0
 41
125.0
 42
125.0
 43
125.0
 50
90.0
  0
INSERT
  5
1BA69
330
1BA61
100
AcDbEntity
  8
0
  6
ByBlock
 62
     0
 48
50.0
100
AcDbBlockReference
  2
_DOTSMALL
 10
-3139.577740636734
 20
10203.28264377193
 30
0.0
 41
125.0
 42
125.0
 43
125.0
 50
270.0
  0
MTEXT
  5
1BA6A
330
1BA61
100
AcDbEntity
  8
0
  6
ByBlock
 62
     7
 48
50.0
100
AcDbMText
 10
-3239.577740636734
 20
10560.84169889004
 30
0.0
 40
150.0
 41
0.0
 71
     5
 72
     1
  1
\A1;50
  7
STYLE1
 11
0.0000000000000001
 21
1.0
 31
0.0
 73
     1
 44
1.0
  0
POINT
  5
1BA6B
330
1BA61
100
AcDbEntity
  8
DEFPOINTS
  6
ByBlock
 62
     0
 48
50.0
100
AcDbPoint
 10
-3442.381744555345
 20
10153.28264377193
 30
0.0
  0
POINT
  5
1BA6C
330
1BA61
100
AcDbEntity
  8
DEFPOINTS
  6
ByBlock
 62
     0
 48
50.0
100
AcDbPoint
 10
-4263.717496938316
 20
10203.28264377193
 30
0.0
  0
POINT
  5
1BA6D
330
1BA61
100
AcDbEntity
  8
DEFPOINTS
  6
ByBlock
 62
     0
 48
50.0
100
AcDbPoint
 10
-3139.577740636734
 20
10203.28264377193
 30
0.0
  0
ENDBLK
  5
1BA6E
330
1BA61
100
AcDbEntity
  8
0
 48
50.0
100
AcDbBlockEnd
  0
BLOCK
  5
1BA70
330
1BA6F
100
AcDbEntity
  8
0
 48
50.0
100
AcDbBlockBegin
  2
*D26
 70
     1
 10
0.0
 20
0.0
 30
0.0
  3
*D26
  1

  0
LINE
  5
1BA71
330
1BA6F
100
AcDbEntity
  8
0
  6
ByBlock
 62
     0
 48
50.0
100
AcDbLine
 10
-6043.717496938316
 20
7650.282643771571
 30
0.0
 11
-6043.717496938316
 21
6971.819344480602
 31
0.0
  0
LINE
  5
1BA72
330
1BA6F
100
AcDbEntity
  8
0
  6
ByBlock
 62
     0
 48
50.0
100
AcDbLine
 10
-4953.717496938316
 20
7650.282643771571
 30
0.0
 11
-4953.717496938316
 21
6971.819344480602
 31
0.0
  0
LINE
  5
1BA73
330
1BA6F
100
AcDbEntity
  8
0
  6
ByBlock
 62
     0
 48
50.0
100
AcDbLine
 10
-6043.717496938316
 20
7046.819344480602
 30
0.0
 11
-6168.717496938316
 21
7046.819344480602
 31
0.0
  0
LINE
  5
1BA74
330
1BA6F
100
AcDbEntity
  8
0
  6
ByBlock
 62
     0
 48
50.0
100
AcDbLine
 10
-4953.717496938316
 20
7046.819344480602
 30
0.0
 11
-4828.717496938316
 21
7046.819344480602
 31
0.0
  0
LINE
  5
1BA75
330
1BA6F
100
AcDbEntity
  8
0
  6
ByBlock
 62
     0
 48
50.0
100
AcDbLine
 10
-6043.717496938316
 20
7046.819344480602
 30
0.0
 11
-4953.717496938316
 21
7046.819344480602
 31
0.0
  0
INSERT
  5
1BA76
330
1BA6F
100
AcDbEntity
  8
0
  6
ByBlock
 62
     0
 48
50.0
100
AcDbBlockReference
  2
_DOTSMALL
 10
-6043.717496938316
 20
7046.819344480602
 30
0.0
 41
125.0
 42
125.0
 43
125.0
  0
INSERT
  5
1BA77
330
1BA6F
100
AcDbEntity
  8
0
  6
ByBlock
 62
     0
 48
50.0
100
AcDbBlockReference
  2
_DOTSMALL
 10
-4953.717496938316
 20
7046.819344480602
 30
0.0
 41
125.0
 42
125.0
 43
125.0
 50
180.0
  0
MTEXT
  5
1BA78
330
1BA6F
100
AcDbEntity
  8
0
  6
ByBlock
 62
     7
 48
50.0
100
AcDbMText
 10
-5498.717496938316
 20
7271.819344480602
 30
0.0
 40
150.0
 41
0.0
 71
     5
 72
     1
  1
\A1;有効開口部間口\P1090
  7
STYLE1
 73
     1
 44
1.0
  0
POINT
  5
1BA79
330
1BA6F
100
AcDbEntity
  8
DEFPOINTS
  6
ByBlock
 62
     0
 48
50.0
100
AcDbPoint
 10
-6043.717496938316
 20
7675.282643771571
 30
0.0
  0
POINT
  5
1BA7A
330
1BA6F
100
AcDbEntity
  8
DEFPOINTS
  6
ByBlock
 62
     0
 48
50.0
100
AcDbPoint
 10
-4953.717496938316
 20
7675.282643771571
 30
0.0
  0
POINT
  5
1BA7B
330
1BA6F
100
AcDbEntity
  8
DEFPOINTS
  6
ByBlock
 62
     0
 48
50.0
100
AcDbPoint
 10
-4953.717496938316
 20
7046.819344480602
 30
0.0
  0
ENDBLK
  5
1BA7C
330
1BA6F
100
AcDbEntity
  8
0
 48
50.0
100
AcDbBlockEnd
  0
BLOCK
  5
1BA7E
330
1BA7D
100
AcDbEntity
  8
0
 48
50.0
100
AcDbBlockBegin
  2
*D27
 70
     1
 10
0.0
 20
0.0
 30
0.0
  3
*D27
  1

  0
LINE
  5
1BA7F
330
1BA7D
100
AcDbEntity
  8
0
  6
ByBlock
 62
     0
 48
50.0
100
AcDbLine
 10
-6713.717496938318
 20
7728.282643771932
 30
0.0
 11
-6713.717496938318
 21
6406.974349820774
 31
0.0
  0
LINE
  5
1BA80
330
1BA7D
100
AcDbEntity
  8
0
  6
ByBlock
 62
     0
 48
50.0
100
AcDbLine
 10
-4253.717496938312
 20
7728.282643771933
 30
0.0
 11
-4253.717496938312
 21
6406.974349820774
 31
0.0
  0
LINE
  5
1BA81
330
1BA7D
100
AcDbEntity
  8
0
  6
ByBlock
 62
     0
 48
50.0
100
AcDbLine
 10
-6713.717496938318
 20
6481.974349820774
 30
0.0
 11
-4253.717496938312
 21
6481.974349820774
 31
0.0
  0
INSERT
  5
1BA82
330
1BA7D
100
AcDbEntity
  8
0
  6
ByBlock
 62
     0
 48
50.0
100
AcDbBlockReference
  2
_DOTSMALL
 10
-6713.717496938318
 20
6481.974349820774
 30
0.0
 41
125.0
 42
125.0
 43
125.0
 50
180.0
  0
INSERT
  5
1BA83
330
1BA7D
100
AcDbEntity
  8
0
  6
ByBlock
 62
     0
 48
50.0
100
AcDbBlockReference
  2
_DOTSMALL
 10
-4253.717496938312
 20
6481.974349820774
 30
0.0
 41
125.0
 42
125.0
 43
125.0
  0
MTEXT
  5
1BA84
330
1BA7D
100
AcDbEntity
  8
0
  6
ByBlock
 62
     7
 48
50.0
100
AcDbMText
 10
-5483.717496938314
 20
6581.9891136003
 30
0.0
 40
150.0
 41
0.0
 71
     5
 72
     1
  1
\A1;2460
  7
STYLE1
 73
     1
 44
1.0
  0
POINT
  5
1BA85
330
1BA7D
100
AcDbEntity
  8
DEFPOINTS
  6
ByBlock
 62
     0
 48
50.0
100
AcDbPoint
 10
-6713.717496938318
 20
7753.282643771932
 30
0.0
  0
POINT
  5
1BA86
330
1BA7D
100
AcDbEntity
  8
DEFPOINTS
  6
ByBlock
 62
     0
 48
50.0
100
AcDbPoint
 10
-4253.717496938312
 20
7753.282643771933
 30
0.0
  0
POINT
  5
1BA87
330
1BA7D
100
AcDbEntity
  8
DEFPOINTS
  6
ByBlock
 62
     0
 48
50.0
100
AcDbPoint
 10
-4253.717496938312
 20
6481.974349820774
 30
0.0
  0
ENDBLK
  5
1BA88
330
1BA7D
100
AcDbEntity
  8
0
 48
50.0
100
AcDbBlockEnd
  0
BLOCK
  5
1BAF7
330
1BA89
100
AcDbEntity
  8
0
 48
50.0
100
AcDbBlockBegin
  2
*D28
 70
     1
 10
0.0
 20
0.0
 30
0.0
  3
*D28
  1

  0
LINE
  5
1BAF8
330
1BA89
100
AcDbEntity
  8
0
  6
ByBlock
 62
     0
 48
50.0
100
AcDbLine
 10
5407.829581418173
 20
10528.73679736197
 30
0.0
 11
4581.198601638505
 21
10528.73679736197
 31
0.0
  0
LINE
  5
1BAF9
330
1BA89
100
AcDbEntity
  8
0
  6
ByBlock
 62
     0
 48
50.0
100
AcDbLine
 10
5407.829581418173
 20
9228.736797361971
 30
0.0
 11
4581.198601638505
 21
9228.736797361971
 31
0.0
  0
LINE
  5
1BAFA
330
1BA89
100
AcDbEntity
  8
0
  6
ByBlock
 62
     0
 48
50.0
100
AcDbLine
 10
4656.198601638505
 20
10528.73679736197
 30
0.0
 11
4656.198601638505
 21
9228.736797361971
 31
0.0
  0
INSERT
  5
1BAFB
330
1BA89
100
AcDbEntity
  8
0
  6
ByBlock
 62
     0
 48
50.0
100
AcDbBlockReference
  2
_DOTSMALL
 10
4656.198601638505
 20
10528.73679736197
 30
0.0
 41
125.0
 42
125.0
 43
125.0
 50
90.0
  0
INSERT
  5
1BAFC
330
1BA89
100
AcDbEntity
  8
0
  6
ByBlock
 62
     0
 48
50.0
100
AcDbBlockReference
  2
_DOTSMALL
 10
4656.198601638505
 20
9228.736797361971
 30
0.0
 41
125.0
 42
125.0
 43
125.0
 50
270.0
  0
MTEXT
  5
1BAFD
330
1BA89
100
AcDbEntity
  8
0
  6
ByBlock
 62
     7
 48
50.0
100
AcDbMText
 10
4556.198601638505
 20
9878.736797361973
 30
0.0
 40
150.0
 41
0.0
 71
     5
 72
     1
  1
\A1;1300
  7
STYLE1
 11
0.0000000000000001
 21
1.0
 31
0.0
 73
     1
 44
1.0
  0
POINT
  5
1BAFE
330
1BA89
100
AcDbEntity
  8
DEFPOINTS
  6
ByBlock
 62
     0
 48
50.0
100
AcDbPoint
 10
5432.829581418173
 20
10528.73679736197
 30
0.0
  0
POINT
  5
1BAFF
330
1BA89
100
AcDbEntity
  8
DEFPOINTS
  6
ByBlock
 62
     0
 48
50.0
100
AcDbPoint
 10
5432.829581418173
 20
9228.736797361971
 30
0.0
  0
POINT
  5
1BB00
330
1BA89
100
AcDbEntity
  8
DEFPOINTS
  6
ByBlock
 62
     0
 48
50.0
100
AcDbPoint
 10
4656.198601638505
 20
9228.736797361971
 30
0.0
  0
ENDBLK
  5
1BB01
330
1BA89
100
AcDbEntity
  8
0
 48
50.0
100
AcDbBlockEnd
  0
BLOCK
  5
1BA96
330
1BA95
100
AcDbEntity
  8
0
 48
50.0
100
AcDbBlockBegin
  2
*D29
 70
     1
 10
0.0
 20
0.0
 30
0.0
  3
*D29
  1

  0
LINE
  5
1BA97
330
1BA95
100
AcDbEntity
  8
0
  6
ByBlock
 62
     0
 48
50.0
100
AcDbLine
 10
-6728.717496938317
 20
7743.282643771933
 30
0.0
 11
-7555.348476717985
 21
7743.282643771933
 31
0.0
  0
LINE
  5
1BA98
330
1BA95
100
AcDbEntity
  8
0
  6
ByBlock
 62
     0
 48
50.0
100
AcDbLine
 10
-6094.717496938316
 20
7675.282643771571
 30
0.0
 11
-7555.348476717985
 21
7675.282643771571
 31
0.0
  0
LINE
  5
1BA99
330
1BA95
100
AcDbEntity
  8
0
  6
ByBlock
 62
     0
 48
50.0
100
AcDbLine
 10
-7480.348476717985
 20
7743.282643771933
 30
0.0
 11
-7480.348476717985
 21
7675.282643771571
 31
0.0
  0
LINE
  5
1BA9A
330
1BA95
100
AcDbEntity
  8
0
  6
ByBlock
 62
     0
 48
50.0
100
AcDbLine
 10
-7480.348476717985
 20
7675.282643771571
 30
0.0
 11
-7480.348476717987
 21
7326.306265818814
 31
0.0
  0
INSERT
  5
1BA9B
330
1BA95
100
AcDbEntity
  8
0
  6
ByBlock
 62
     0
 48
50.0
100
AcDbBlockReference
  2
_DOTSMALL
 10
-7480.348476717985
 20
7743.282643771933
 30
0.0
 41
125.0
 42
125.0
 43
125.0
 50
90.0
  0
INSERT
  5
1BA9C
330
1BA95
100
AcDbEntity
  8
0
  6
ByBlock
 62
     0
 48
50.0
100
AcDbBlockReference
  2
_DOTSMALL
 10
-7480.348476717985
 20
7675.282643771571
 30
0.0
 41
125.0
 42
125.0
 43
125.0
 50
270.0
  0
MTEXT
  5
1BA9D
330
1BA95
100
AcDbEntity
  8
0
  6
ByBlock
 62
     7
 48
50.0
100
AcDbMText
 10
-7580.348476717985
 20
7438.294454795192
 30
0.0
 40
150.0
 41
0.0
 71
     5
 72
     1
  1
\A1;68
  7
STYLE1
 11
0.0000000000000001
 21
1.0
 31
0.0
 73
     1
 44
1.0
  0
POINT
  5
1BA9E
330
1BA95
100
AcDbEntity
  8
DEFPOINTS
  6
ByBlock
 62
     0
 48
50.0
100
AcDbPoint
 10
-6703.717496938317
 20
7743.282643771933
 30
0.0
  0
POINT
  5
1BA9F
330
1BA95
100
AcDbEntity
  8
DEFPOINTS
  6
ByBlock
 62
     0
 48
50.0
100
AcDbPoint
 10
-6069.717496938316
 20
7675.282643771571
 30
0.0
  0
POINT
  5
1BAA0
330
1BA95
100
AcDbEntity
  8
DEFPOINTS
  6
ByBlock
 62
     0
 48
50.0
100
AcDbPoint
 10
-7480.348476717985
 20
7675.282643771571
 30
0.0
  0
ENDBLK
  5
1BAA1
330
1BA95
100
AcDbEntity
  8
0
 48
50.0
100
AcDbBlockEnd
  0
BLOCK
  5
1BB02
330
1BAA2
100
AcDbEntity
  8
0
 48
50.0
100
AcDbBlockBegin
  2
*D30
 70
     1
 10
0.0
 20
0.0
 30
0.0
  3
*D30
  1

  0
LINE
  5
1BB03
330
1BAA2
100
AcDbEntity
  8
0
  6
ByBlock
 62
     0
 48
50.0
100
AcDbLine
 10
7907.829581418178
 20
9298.736797361975
 30
0.0
 11
8769.165333801145
 21
9298.736797361975
 31
0.0
  0
LINE
  5
1BB04
330
1BAA2
100
AcDbEntity
  8
0
  6
ByBlock
 62
     0
 48
50.0
100
AcDbLine
 10
7907.829581418178
 20
10458.73679736197
 30
0.0
 11
8769.165333801145
 21
10458.73679736197
 31
0.0
  0
LINE
  5
1BB05
330
1BAA2
100
AcDbEntity
  8
0
  6
ByBlock
 62
     0
 48
50.0
100
AcDbLine
 10
8694.165333801146
 20
9298.736797361975
 30
0.0
 11
8694.165333801146
 21
10458.73679736197
 31
0.0
  0
INSERT
  5
1BB06
330
1BAA2
100
AcDbEntity
  8
0
  6
ByBlock
 62
     0
 48
50.0
100
AcDbBlockReference
  2
_DOTSMALL
 10
8694.165333801146
 20
9298.736797361975
 30
0.0
 41
125.0
 42
125.0
 43
125.0
 50
270.0
  0
INSERT
  5
1BB07
330
1BAA2
100
AcDbEntity
  8
0
  6
ByBlock
 62
     0
 48
50.0
100
AcDbBlockReference
  2
_DOTSMALL
 10
8694.165333801146
 20
10458.73679736197
 30
0.0
 41
125.0
 42
125.0
 43
125.0
 50
90.0
  0
MTEXT
  5
1BB08
330
1BAA2
100
AcDbEntity
  8
0
  6
ByBlock
 62
     7
 48
50.0
100
AcDbMText
 10
8594.150570021618
 20
9878.736797361975
 30
0.0
 40
150.0
 41
0.0
 71
     5
 72
     1
  1
\A1;2x580=1160
  7
STYLE1
 11
0.0000000000000001
 21
1.0
 31
0.0
 73
     1
 44
1.0
  0
POINT
  5
1BB09
330
1BAA2
100
AcDbEntity
  8
DEFPOINTS
  6
ByBlock
 62
     0
 48
50.0
100
AcDbPoint
 10
7882.829581418178
 20
9298.736797361975
 30
0.0
  0
POINT
  5
1BB0A
330
1BAA2
100
AcDbEntity
  8
DEFPOINTS
  6
ByBlock
 62
     0
 48
50.0
100
AcDbPoint
 10
7882.829581418178
 20
10458.73679736197
 30
0.0
  0
POINT
  5
1BB0B
330
1BAA2
100
AcDbEntity
  8
DEFPOINTS
  6
ByBlock
 62
     0
 48
50.0
100
AcDbPoint
 10
8694.165333801146
 20
10458.73679736197
 30
0.0
  0
ENDBLK
  5
1BB0C
330
1BAA2
100
AcDbEntity
  8
0
 48
50.0
100
AcDbBlockEnd
  0
BLOCK
  5
1BB0D
330
1BAAE
100
AcDbEntity
  8
0
 48
50.0
100
AcDbBlockBegin
  2
*D31
 70
     1
 10
0.0
 20
0.0
 30
0.0
  3
*D31
  1

  0
LINE
  5
1BB0E
330
1BAAE
100
AcDbEntity
  8
0
  6
ByBlock
 62
     0
 48
50.0
100
AcDbLine
 10
8719.165333801148
 20
9278.736797361975
 30
0.0
 11
9071.969337719755
 21
9278.736797361975
 31
0.0
  0
LINE
  5
1BB0F
330
1BAAE
100
AcDbEntity
  8
0
  6
ByBlock
 62
     0
 48
50.0
100
AcDbLine
 10
8719.165333801146
 20
10478.73679736197
 30
0.0
 11
9071.969337719755
 21
10478.73679736197
 31
0.0
  0
LINE
  5
1BB10
330
1BAAE
100
AcDbEntity
  8
0
  6
ByBlock
 62
     0
 48
50.0
100
AcDbLine
 10
8996.969337719754
 20
9278.736797361975
 30
0.0
 11
8996.969337719754
 21
9153.736797361975
 31
0.0
  0
LINE
  5
1BB11
330
1BAAE
100
AcDbEntity
  8
0
  6
ByBlock
 62
     0
 48
50.0
100
AcDbLine
 10
8996.969337719754
 20
10478.73679736197
 30
0.0
 11
8996.969337719754
 21
10603.73679736197
 31
0.0
  0
LINE
  5
1BB12
330
1BAAE
100
AcDbEntity
  8
0
  6
ByBlock
 62
     0
 48
50.0
100
AcDbLine
 10
8996.969337719754
 20
9278.736797361975
 30
0.0
 11
8996.969337719754
 21
10478.73679736197
 31
0.0
  0
INSERT
  5
1BB13
330
1BAAE
100
AcDbEntity
  8
0
  6
ByBlock
 62
     0
 48
50.0
100
AcDbBlockReference
  2
_DOTSMALL
 10
8996.969337719754
 20
9278.736797361975
 30
0.0
 41
125.0
 42
125.0
 43
125.0
 50
90.0
  0
INSERT
  5
1BB14
330
1BAAE
100
AcDbEntity
  8
0
  6
ByBlock
 62
     0
 48
50.0
100
AcDbBlockReference
  2
_DOTSMALL
 10
8996.969337719754
 20
10478.73679736197
 30
0.0
 41
125.0
 42
125.0
 43
125.0
 50
270.0
  0
MTEXT
  5
1BB15
330
1BAAE
100
AcDbEntity
  8
0
  6
ByBlock
 62
     7
 48
50.0
100
AcDbMText
 10
8896.954573940227
 20
9878.736797361975
 30
0.0
 40
150.0
 41
0.0
 71
     5
 72
     1
  1
\A1;内部寸法 1200
  7
STYLE1
 11
0.0000000000000001
 21
1.0
 31
0.0
 73
     1
 44
1.0
  0
POINT
  5
1BB16
330
1BAAE
100
AcDbEntity
  8
DEFPOINTS
  6
ByBlock
 62
     0
 48
50.0
100
AcDbPoint
 10
8694.16533380115
 20
9278.736797361975
 30
0.0
  0
POINT
  5
1BB17
330
1BAAE
100
AcDbEntity
  8
DEFPOINTS
  6
ByBlock
 62
     0
 48
50.0
100
AcDbPoint
 10
8694.165333801146
 20
10478.73679736197
 30
0.0
  0
POINT
  5
1BB18
330
1BAAE
100
AcDbEntity
  8
DEFPOINTS
  6
ByBlock
 62
     0
 48
50.0
100
AcDbPoint
 10
8996.969337719754
 20
10478.73679736197
 30
0.0
  0
ENDBLK
  5
1BB19
330
1BAAE
100
AcDbEntity
  8
0
 48
50.0
100
AcDbBlockEnd
  0
BLOCK
  5
1BABB
330
1BABA
100
AcDbEntity
  8
0
 48
50.0
100
AcDbBlockBegin
  2
*D32
 70
     1
 10
0.0
 20
0.0
 30
0.0
  3
*D32
  1

  0
LINE
  5
1BABC
330
1BABA
100
AcDbEntity
  8
0
  6
ByBlock
 62
     0
 48
50.0
100
AcDbLine
 10
-4238.717496938313
 20
7743.282643771933
 30
0.0
 11
-3064.57774063673
 21
7743.282643771933
 31
0.0
  0
LINE
  5
1BABD
330
1BABA
100
AcDbEntity
  8
0
  6
ByBlock
 62
     0
 48
50.0
100
AcDbLine
 10
-3417.381744555342
 20
7793.282643771935
 30
0.0
 11
-3064.57774063673
 21
7793.282643771935
 31
0.0
  0
LINE
  5
1BABE
330
1BABA
100
AcDbEntity
  8
0
  6
ByBlock
 62
     0
 48
50.0
100
AcDbLine
 10
-3139.57774063673
 20
7793.282643771935
 30
0.0
 11
-3139.57774063673
 21
7743.282643771933
 31
0.0
  0
LINE
  5
1BABF
330
1BABA
100
AcDbEntity
  8
0
  6
ByBlock
 62
     0
 48
50.0
100
AcDbLine
 10
-3139.57774063673
 20
7743.282643771933
 30
0.0
 11
-3139.57774063673
 21
7398.676344559333
 31
0.0
  0
INSERT
  5
1BAC0
330
1BABA
100
AcDbEntity
  8
0
  6
ByBlock
 62
     0
 48
50.0
100
AcDbBlockReference
  2
_DOTSMALL
 10
-3139.57774063673
 20
7793.282643771935
 30
0.0
 41
125.0
 42
125.0
 43
125.0
 50
90.0
  0
INSERT
  5
1BAC1
330
1BABA
100
AcDbEntity
  8
0
  6
ByBlock
 62
     0
 48
50.0
100
AcDbBlockReference
  2
_DOTSMALL
 10
-3139.57774063673
 20
7743.282643771933
 30
0.0
 41
125.0
 42
125.0
 43
125.0
 50
270.0
  0
MTEXT
  5
1BAC2
330
1BABA
100
AcDbEntity
  8
0
  6
ByBlock
 62
     7
 48
50.0
100
AcDbMText
 10
-3239.577740636731
 20
7506.235399677443
 30
0.0
 40
150.0
 41
0.0
 71
     5
 72
     1
  1
\A1;50
  7
STYLE1
 11
0.0000000000000001
 21
1.0
 31
0.0
 73
     1
 44
1.0
  0
POINT
  5
1BAC3
330
1BABA
100
AcDbEntity
  8
DEFPOINTS
  6
ByBlock
 62
     0
 48
50.0
100
AcDbPoint
 10
-4263.717496938312
 20
7743.282643771933
 30
0.0
  0
POINT
  5
1BAC4
330
1BABA
100
AcDbEntity
  8
DEFPOINTS
  6
ByBlock
 62
     0
 48
50.0
100
AcDbPoint
 10
-3442.381744555341
 20
7793.282643771935
 30
0.0
  0
POINT
  5
1BAC5
330
1BABA
100
AcDbEntity
  8
DEFPOINTS
  6
ByBlock
 62
     0
 48
50.0
100
AcDbPoint
 10
-3139.57774063673
 20
7793.282643771935
 30
0.0
  0
ENDBLK
  5
1BAC6
330
1BABA
100
AcDbEntity
  8
0
 48
50.0
100
AcDbBlockEnd
  0
BLOCK
  5
1BAC8
330
1BAC7
100
AcDbEntity
  8
0
 48
50.0
100
AcDbBlockBegin
  2
*D33
 70
     1
 10
0.0
 20
0.0
 30
0.0
  3
*D33
  1

  0
LINE
  5
1BAC9
330
1BAC7
100
AcDbEntity
  8
0
  6
ByBlock
 62
     0
 48
50.0
100
AcDbLine
 10
-4238.717496938313
 20
7743.282643771933
 30
0.0
 11
-3367.38174455534
 21
7743.282643771933
 31
0.0
  0
LINE
  5
1BACA
330
1BAC7
100
AcDbEntity
  8
0
  6
ByBlock
 62
     0
 48
50.0
100
AcDbLine
 10
-4228.717496938312
 20
7813.282643771936
 30
0.0
 11
-3367.38174455534
 21
7813.282643771936
 31
0.0
  0
LINE
  5
1BACB
330
1BAC7
100
AcDbEntity
  8
0
  6
ByBlock
 62
     0
 48
50.0
100
AcDbLine
 10
-3442.381744555339
 20
7813.282643771936
 30
0.0
 11
-3442.381744555339
 21
7743.282643771933
 31
0.0
  0
LINE
  5
1BACC
330
1BAC7
100
AcDbEntity
  8
0
  6
ByBlock
 62
     0
 48
50.0
100
AcDbLine
 10
-3442.381744555339
 20
7743.282643771933
 30
0.0
 11
-3442.381744555339
 21
7403.164533535711
 31
0.0
  0
INSERT
  5
1BACD
330
1BAC7
100
AcDbEntity
  8
0
  6
ByBlock
 62
     0
 48
50.0
100
AcDbBlockReference
  2
_DOTSMALL
 10
-3442.381744555339
 20
7813.282643771936
 30
0.0
 41
125.0
 42
125.0
 43
125.0
 50
90.0
  0
INSERT
  5
1BACE
330
1BAC7
100
AcDbEntity
  8
0
  6
ByBlock
 62
     0
 48
50.0
100
AcDbBlockReference
  2
_DOTSMALL
 10
-3442.381744555339
 20
7743.282643771933
 30
0.0
 41
125.0
 42
125.0
 43
125.0
 50
270.0
  0
MTEXT
  5
1BACF
330
1BAC7
100
AcDbEntity
  8
0
  6
ByBlock
 62
     7
 48
50.0
100
AcDbMText
 10
-3542.381744555339
 20
7510.723588653822
 30
0.0
 40
150.0
 41
0.0
 71
     5
 72
     1
  1
\A1;70
  7
STYLE1
 11
0.0000000000000001
 21
1.0
 31
0.0
 73
     1
 44
1.0
  0
POINT
  5
1BAD0
330
1BAC7
100
AcDbEntity
  8
DEFPOINTS
  6
ByBlock
 62
     0
 48
50.0
100
AcDbPoint
 10
-4263.717496938312
 20
7743.282643771933
 30
0.0
  0
POINT
  5
1BAD1
330
1BAC7
100
AcDbEntity
  8
DEFPOINTS
  6
ByBlock
 62
     0
 48
50.0
100
AcDbPoint
 10
-4253.717496938312
 20
7813.282643771936
 30
0.0
  0
POINT
  5
1BAD2
330
1BAC7
100
AcDbEntity
  8
DEFPOINTS
  6
ByBlock
 62
     0
 48
50.0
100
AcDbPoint
 10
-3442.381744555339
 20
7813.282643771936
 30
0.0
  0
ENDBLK
  5
1BAD3
330
1BAC7
100
AcDbEntity
  8
0
 48
50.0
100
AcDbBlockEnd
  0
BLOCK
  5
1BAD5
330
1BAD4
100
AcDbEntity
  8
0
 48
50.0
100
AcDbBlockBegin
  2
*D34
 70
     1
 10
0.0
 20
0.0
 30
0.0
  3
*D34
  1

  0
LINE
  5
1BAD6
330
1BAD4
100
AcDbEntity
  8
0
  6
ByBlock
 62
     0
 48
50.0
100
AcDbLine
 10
-4228.717496938312
 20
10133.28264377193
 30
0.0
 11
-3367.381744555343
 21
10133.28264377193
 31
0.0
  0
LINE
  5
1BAD7
330
1BAD4
100
AcDbEntity
  8
0
  6
ByBlock
 62
     0
 48
50.0
100
AcDbLine
 10
-4238.717496938316
 20
10203.28264377193
 30
0.0
 11
-3367.381744555343
 21
10203.28264377193
 31
0.0
  0
LINE
  5
1BAD8
330
1BAD4
100
AcDbEntity
  8
0
  6
ByBlock
 62
     0
 48
50.0
100
AcDbLine
 10
-3442.381744555343
 20
10133.28264377193
 30
0.0
 11
-3442.381744555343
 21
10203.28264377193
 31
0.0
  0
LINE
  5
1BAD9
330
1BAD4
100
AcDbEntity
  8
0
  6
ByBlock
 62
     0
 48
50.0
100
AcDbLine
 10
-3442.381744555343
 20
10203.28264377193
 30
0.0
 11
-3442.381744555343
 21
10543.40075400815
 31
0.0
  0
INSERT
  5
1BADA
330
1BAD4
100
AcDbEntity
  8
0
  6
ByBlock
 62
     0
 48
50.0
100
AcDbBlockReference
  2
_DOTSMALL
 10
-3442.381744555343
 20
10133.28264377193
 30
0.0
 41
125.0
 42
125.0
 43
125.0
 50
270.0
  0
INSERT
  5
1BADB
330
1BAD4
100
AcDbEntity
  8
0
  6
ByBlock
 62
     0
 48
50.0
100
AcDbBlockReference
  2
_DOTSMALL
 10
-3442.381744555343
 20
10203.28264377193
 30
0.0
 41
125.0
 42
125.0
 43
125.0
 50
90.0
  0
MTEXT
  5
1BADC
330
1BAD4
100
AcDbEntity
  8
0
  6
ByBlock
 62
     7
 48
50.0
100
AcDbMText
 10
-3542.381744555343
 20
10435.84169889004
 30
0.0
 40
150.0
 41
0.0
 71
     5
 72
     1
  1
\A1;70
  7
STYLE1
 11
0.0000000000000001
 21
1.0
 31
0.0
 73
     1
 44
1.0
  0
POINT
  5
1BADD
330
1BAD4
100
AcDbEntity
  8
DEFPOINTS
  6
ByBlock
 62
     0
 48
50.0
100
AcDbPoint
 10
-4253.717496938312
 20
10133.28264377193
 30
0.0
  0
POINT
  5
1BADE
330
1BAD4
100
AcDbEntity
  8
DEFPOINTS
  6
ByBlock
 62
     0
 48
50.0
100
AcDbPoint
 10
-4263.717496938316
 20
10203.28264377193
 30
0.0
  0
POINT
  5
1BADF
330
1BAD4
100
AcDbEntity
  8
DEFPOINTS
  6
ByBlock
 62
     0
 48
50.0
100
AcDbPoint
 10
-3442.381744555343
 20
10203.28264377193
 30
0.0
  0
ENDBLK
  5
1BAE0
330
1BAD4
100
AcDbEntity
  8
0
 48
50.0
100
AcDbBlockEnd
  0
BLOCK
  5
1BB1B
330
1BAE1
100
AcDbEntity
  8
0
 48
50.0
100
AcDbBlockBegin
  2
*D35
 70
     1
 10
0.0
 20
0.0
 30
0.0
  3
*D35
  1

  0
LINE
  5
1BF70
330
1BAE1
100
AcDbEntity
  8
寸法
 62
     0
 48
50.0
100
AcDbLine
 10
8412.829581418183
 20
10963.76878223262
 30
0.0
 11
8412.829581418183
 21
11312.51516613338
 31
0.0
  0
LINE
  5
1BF71
330
1BAE1
100
AcDbEntity
  8
寸法
 62
     0
 48
50.0
100
AcDbLine
 10
6052.829581418171
 20
11237.51516613338
 30
0.0
 11
8412.829581418183
 21
11237.51516613338
 31
0.0
  0
INSERT
  5
1BF72
330
1BAE1
100
AcDbEntity
  8
寸法
 62
     0
 48
50.0
100
AcDbBlockReference
  2
_DOTSMALL
 10
6052.829581418171
 20
11237.51516613338
 30
0.0
 41
125.0
 42
125.0
 43
125.0
 50
180.0
  0
INSERT
  5
1BF73
330
1BAE1
100
AcDbEntity
  8
寸法
 62
     0
 48
50.0
100
AcDbBlockReference
  2
_DOTSMALL
 10
8412.829581418183
 20
11237.51516613338
 30
0.0
 41
125.0
 42
125.0
 43
125.0
  0
MTEXT
  5
1BF74
330
1BAE1
100
AcDbEntity
  8
寸法
 62
     7
 48
50.0
100
AcDbMText
 10
7232.829581418177
 20
11337.52992991291
 30
0.0
 40
150.0
 41
0.0
 71
     5
 72
     1
  1
\A1;内部寸法 2360
  7
STYLE1
 73
     1
 44
1.0
  0
POINT
  5
1BF75
330
1BAE1
100
AcDbEntity
  8
DEFPOINTS
 62
     0
 48
50.0
100
AcDbPoint
 10
6052.829581418171
 20
10938.76878223262
 30
0.0
  0
POINT
  5
1BF76
330
1BAE1
100
AcDbEntity
  8
DEFPOINTS
 62
     0
 48
50.0
100
AcDbPoint
 10
8412.829581418183
 20
10938.76878223262
 30
0.0
  0
POINT
  5
1BF77
330
1BAE1
100
AcDbEntity
  8
DEFPOINTS
 62
     0
 48
50.0
100
AcDbPoint
 10
8412.829581418183
 20
11237.51516613338
 30
0.0
  0
ENDBLK
  5
1BB24
330
1BAE1
100
AcDbEntity
  8
0
 48
50.0
100
AcDbBlockEnd
  0
BLOCK
  5
1BEAC
330
1BE31
100
AcDbEntity
  8
0
 48
50.0
100
AcDbBlockBegin
  2
*D36
 70
     1
 10
0.0
 20
0.0
 30
0.0
  3
*D36
  1

  0
LINE
  5
1BEAD
330
1BE31
100
AcDbEntity
  8
0
  6
ByBlock
 62
     0
 48
50.0
100
AcDbLine
 10
14532.82958141817
 20
11601.3631811976
 30
0.0
 11
14532.82958141817
 21
12402.01792807849
 31
0.0
  0
LINE
  5
1BEAE
330
1BE31
100
AcDbEntity
  8
0
  6
ByBlock
 62
     0
 48
50.0
100
AcDbLine
 10
14627.82958141817
 20
11598.73679736197
 30
0.0
 11
14627.82958141817
 21
12402.01792807849
 31
0.0
  0
LINE
  5
1BEAF
330
1BE31
100
AcDbEntity
  8
0
  6
ByBlock
 62
     0
 48
50.0
100
AcDbLine
 10
14532.82958141817
 20
12327.01792807848
 30
0.0
 11
14627.82958141817
 21
12327.01792807848
 31
0.0
  0
LINE
  5
1BEB0
330
1BE31
100
AcDbEntity
  8
0
  6
ByBlock
 62
     0
 48
50.0
100
AcDbLine
 10
14627.82958141817
 20
12327.01792807848
 30
0.0
 11
15074.10183997187
 21
12327.01792807848
 31
0.0
  0
INSERT
  5
1BEB1
330
1BE31
100
AcDbEntity
  8
0
  6
ByBlock
 62
     0
 48
50.0
100
AcDbBlockReference
  2
_DOTSMALL
 10
14532.82958141817
 20
12327.01792807848
 30
0.0
 41
125.0
 42
125.0
 43
125.0
 50
180.0
  0
INSERT
  5
1BEB2
330
1BE31
100
AcDbEntity
  8
0
  6
ByBlock
 62
     0
 48
50.0
100
AcDbBlockReference
  2
_DOTSMALL
 10
14627.82958141817
 20
12327.01792807848
 30
0.0
 41
125.0
 42
125.0
 43
125.0
  0
MTEXT
  5
1BEB3
330
1BE31
100
AcDbEntity
  8
0
  6
ByBlock
 62
     7
 48
50.0
100
AcDbMText
 10
14960.38863653627
 20
12427.01792807848
 30
0.0
 40
150.0
 41
0.0
 71
     5
 72
     1
  1
\A1;95
  7
STYLE1
 73
     1
 44
1.0
  0
POINT
  5
1BEB4
330
1BE31
100
AcDbEntity
  8
DEFPOINTS
  6
ByBlock
 62
     0
 48
50.0
100
AcDbPoint
 10
14532.82958141817
 20
11576.3631811976
 30
0.0
  0
POINT
  5
1BEB5
330
1BE31
100
AcDbEntity
  8
DEFPOINTS
  6
ByBlock
 62
     0
 48
50.0
100
AcDbPoint
 10
14627.82958141817
 20
11573.73679736197
 30
0.0
  0
POINT
  5
1BEB6
330
1BE31
100
AcDbEntity
  8
DEFPOINTS
  6
ByBlock
 62
     0
 48
50.0
100
AcDbPoint
 10
14627.82958141817
 20
12327.01792807848
 30
0.0
  0
ENDBLK
  5
1BEB7
330
1BE31
100
AcDbEntity
  8
0
 48
50.0
100
AcDbBlockEnd
  0
BLOCK
  5
1BEB8
330
1BE3E
100
AcDbEntity
  8
0
 48
50.0
100
AcDbBlockBegin
  2
*D37
 70
     1
 10
0.0
 20
0.0
 30
0.0
  3
*D37
  1

  0
LINE
  5
1BEB9
330
1BE3E
100
AcDbEntity
  8
0
  6
ByBlock
 62
     0
 48
50.0
100
AcDbLine
 10
13097.82958141817
 20
11658.73679736197
 30
0.0
 11
13097.82958141817
 21
12718.17369887014
 31
0.0
  0
LINE
  5
1BEBA
330
1BE3E
100
AcDbEntity
  8
0
  6
ByBlock
 62
     0
 48
50.0
100
AcDbLine
 10
14627.82958141817
 20
11598.73679736197
 30
0.0
 11
14627.82958141817
 21
12718.17369887014
 31
0.0
  0
LINE
  5
1BEBB
330
1BE3E
100
AcDbEntity
  8
0
  6
ByBlock
 62
     0
 48
50.0
100
AcDbLine
 10
13097.82958141817
 20
12643.17369887014
 30
0.0
 11
14627.82958141817
 21
12643.17369887014
 31
0.0
  0
INSERT
  5
1BEBC
330
1BE3E
100
AcDbEntity
  8
0
  6
ByBlock
 62
     0
 48
50.0
100
AcDbBlockReference
  2
_DOTSMALL
 10
13097.82958141817
 20
12643.17369887014
 30
0.0
 41
125.0
 42
125.0
 43
125.0
 50
180.0
  0
INSERT
  5
1BEBD
330
1BE3E
100
AcDbEntity
  8
0
  6
ByBlock
 62
     0
 48
50.0
100
AcDbBlockReference
  2
_DOTSMALL
 10
14627.82958141817
 20
12643.17369887014
 30
0.0
 41
125.0
 42
125.0
 43
125.0
  0
MTEXT
  5
1BEBE
330
1BE3E
100
AcDbEntity
  8
0
  6
ByBlock
 62
     7
 48
50.0
100
AcDbMText
 10
13862.82958141817
 20
12743.17369887014
 30
0.0
 40
150.0
 41
0.0
 71
     5
 72
     1
  1
\A1;1530
  7
STYLE1
 73
     1
 44
1.0
  0
POINT
  5
1BEBF
330
1BE3E
100
AcDbEntity
  8
DEFPOINTS
  6
ByBlock
 62
     0
 48
50.0
100
AcDbPoint
 10
13097.82958141817
 20
11633.73679736197
 30
0.0
  0
POINT
  5
1BEC0
330
1BE3E
100
AcDbEntity
  8
DEFPOINTS
  6
ByBlock
 62
     0
 48
50.0
100
AcDbPoint
 10
14627.82958141817
 20
11573.73679736197
 30
0.0
  0
POINT
  5
1BEC1
330
1BE3E
100
AcDbEntity
  8
DEFPOINTS
  6
ByBlock
 62
     0
 48
50.0
100
AcDbPoint
 10
14627.82958141817
 20
12643.17369887014
 30
0.0
  0
ENDBLK
  5
1BEC2
330
1BE3E
100
AcDbEntity
  8
0
 48
50.0
100
AcDbBlockEnd
  0
BLOCK
  5
1BEC3
330
1BE4A
100
AcDbEntity
  8
0
 48
50.0
100
AcDbBlockBegin
  2
*D38
 70
     1
 10
0.0
 20
0.0
 30
0.0
  3
*D38
  1

  0
LINE
  5
1BF90
330
1BE4A
100
AcDbEntity
  8
寸法
 62
     0
 48
50.0
100
AcDbLine
 10
14532.82958141817
 20
11601.3631811976
 30
0.0
 11
14532.82958141817
 21
12402.01792807849
 31
0.0
  0
LINE
  5
1BF91
330
1BE4A
100
AcDbEntity
  8
寸法
 62
     0
 48
50.0
100
AcDbLine
 10
13232.82958141817
 20
12327.01792807848
 30
0.0
 11
14532.82958141817
 21
12327.01792807848
 31
0.0
  0
INSERT
  5
1BF92
330
1BE4A
100
AcDbEntity
  8
寸法
 62
     0
 48
50.0
100
AcDbBlockReference
  2
_DOTSMALL
 10
13232.82958141817
 20
12327.01792807848
 30
0.0
 41
125.0
 42
125.0
 43
125.0
 50
180.0
  0
INSERT
  5
1BF93
330
1BE4A
100
AcDbEntity
  8
寸法
 62
     0
 48
50.0
100
AcDbBlockReference
  2
_DOTSMALL
 10
14532.82958141817
 20
12327.01792807848
 30
0.0
 41
125.0
 42
125.0
 43
125.0
  0
MTEXT
  5
1BF94
330
1BE4A
100
AcDbEntity
  8
寸法
 62
     7
 48
50.0
100
AcDbMText
 10
13882.82958141817
 20
12427.01792807848
 30
0.0
 40
150.0
 41
0.0
 71
     5
 72
     1
  1
\A1;柱外寸法 1300
  7
STYLE1
 73
     1
 44
1.0
  0
POINT
  5
1BF95
330
1BE4A
100
AcDbEntity
  8
DEFPOINTS
 62
     0
 48
50.0
100
AcDbPoint
 10
13232.82958141817
 20
11588.73679736197
 30
0.0
  0
POINT
  5
1BF96
330
1BE4A
100
AcDbEntity
  8
DEFPOINTS
 62
     0
 48
50.0
100
AcDbPoint
 10
14532.82958141817
 20
11576.3631811976
 30
0.0
  0
POINT
  5
1BF97
330
1BE4A
100
AcDbEntity
  8
DEFPOINTS
 62
     0
 48
50.0
100
AcDbPoint
 10
14532.82958141817
 20
12327.01792807848
 30
0.0
  0
ENDBLK
  5
1BECC
330
1BE4A
100
AcDbEntity
  8
0
 48
50.0
100
AcDbBlockEnd
  0
BLOCK
  5
1BECD
330
1BE55
100
AcDbEntity
  8
0
 48
50.0
100
AcDbBlockBegin
  2
*D39
 70
     1
 10
0.0
 20
0.0
 30
0.0
  3
*D39
  1

  0
LINE
  5
1BECE
330
1BE55
100
AcDbEntity
  8
0
  6
ByBlock
 62
     0
 48
50.0
100
AcDbLine
 10
14522.32958141817
 20
9430.736797361971
 30
0.0
 11
15919.10991665977
 21
9430.736797361969
 31
0.0
  0
LINE
  5
1BECF
330
1BE55
100
AcDbEntity
  8
0
  6
ByBlock
 62
     0
 48
50.0
100
AcDbLine
 10
14557.82958141817
 20
11390.73679736196
 30
0.0
 11
15919.10991665977
 21
11390.73679736196
 31
0.0
  0
LINE
  5
1BED0
330
1BE55
100
AcDbEntity
  8
0
  6
ByBlock
 62
     0
 48
50.0
100
AcDbLine
 10
15844.10991665977
 20
9430.736797361969
 30
0.0
 11
15844.10991665977
 21
11390.73679736196
 31
0.0
  0
INSERT
  5
1BED1
330
1BE55
100
AcDbEntity
  8
0
  6
ByBlock
 62
     0
 48
50.0
100
AcDbBlockReference
  2
_DOTSMALL
 10
15844.10991665977
 20
9430.736797361969
 30
0.0
 41
125.0
 42
125.0
 43
125.0
 50
270.0
  0
INSERT
  5
1BED2
330
1BE55
100
AcDbEntity
  8
0
  6
ByBlock
 62
     0
 48
50.0
100
AcDbBlockReference
  2
_DOTSMALL
 10
15844.10991665977
 20
11390.73679736196
 30
0.0
 41
125.0
 42
125.0
 43
125.0
 50
90.0
  0
MTEXT
  5
1BED3
330
1BE55
100
AcDbEntity
  8
0
  6
ByBlock
 62
     7
 48
50.0
100
AcDbMText
 10
15744.10991665977
 20
10410.73679736196
 30
0.0
 40
150.0
 41
0.0
 71
     5
 72
     1
  1
\A1;内高 1960
  7
STYLE1
 11
0.0000000000000001
 21
1.0
 31
0.0
 73
     1
 44
1.0
  0
POINT
  5
1BED4
330
1BE55
100
AcDbEntity
  8
DEFPOINTS
  6
ByBlock
 62
     0
 48
50.0
100
AcDbPoint
 10
14497.32958141817
 20
9430.736797361971
 30
0.0
  0
POINT
  5
1BED5
330
1BE55
100
AcDbEntity
  8
DEFPOINTS
  6
ByBlock
 62
     0
 48
50.0
100
AcDbPoint
 10
14532.82958141817
 20
11390.73679736196
 30
0.0
  0
POINT
  5
1BED6
330
1BE55
100
AcDbEntity
  8
DEFPOINTS
  6
ByBlock
 62
     0
 48
50.0
100
AcDbPoint
 10
15844.10991665977
 20
11390.73679736196
 30
0.0
  0
ENDBLK
  5
1BED7
330
1BE55
100
AcDbEntity
  8
0
 48
50.0
100
AcDbBlockEnd
  0
BLOCK
  5
1BED8
330
1BE61
100
AcDbEntity
  8
0
 48
50.0
100
AcDbBlockBegin
  2
*D40
 70
     1
 10
0.0
 20
0.0
 30
0.0
  3
*D40
  1

  0
LINE
  5
1BED9
330
1BE61
100
AcDbEntity
  8
0
  6
ByBlock
 62
     0
 48
50.0
100
AcDbLine
 10
14557.82958141817
 20
9363.736797361971
 30
0.0
 11
16232.07164574816
 21
9363.736797361969
 31
0.0
  0
LINE
  5
1BEDA
330
1BE61
100
AcDbEntity
  8
0
  6
ByBlock
 62
     0
 48
50.0
100
AcDbLine
 10
14652.82958141817
 20
11573.73679736197
 30
0.0
 11
16232.07164574816
 21
11573.73679736197
 31
0.0
  0
LINE
  5
1BEDB
330
1BE61
100
AcDbEntity
  8
0
  6
ByBlock
 62
     0
 48
50.0
100
AcDbLine
 10
16157.07164574816
 20
9363.736797361969
 30
0.0
 11
16157.07164574816
 21
11573.73679736197
 31
0.0
  0
INSERT
  5
1BEDC
330
1BE61
100
AcDbEntity
  8
0
  6
ByBlock
 62
     0
 48
50.0
100
AcDbBlockReference
  2
_DOTSMALL
 10
16157.07164574816
 20
9363.736797361969
 30
0.0
 41
125.0
 42
125.0
 43
125.0
 50
270.0
  0
INSERT
  5
1BEDD
330
1BE61
100
AcDbEntity
  8
0
  6
ByBlock
 62
     0
 48
50.0
100
AcDbBlockReference
  2
_DOTSMALL
 10
16157.07164574816
 20
11573.73679736197
 30
0.0
 41
125.0
 42
125.0
 43
125.0
 50
90.0
  0
MTEXT
  5
1BEDE
330
1BE61
100
AcDbEntity
  8
0
  6
ByBlock
 62
     7
 48
50.0
100
AcDbMText
 10
16057.05688196863
 20
10468.73679736197
 30
0.0
 40
150.0
 41
0.0
 71
     5
 72
     1
  1
\A1;2210
  7
STYLE1
 11
0.0000000000000001
 21
1.0
 31
0.0
 73
     1
 44
1.0
  0
POINT
  5
1BEDF
330
1BE61
100
AcDbEntity
  8
DEFPOINTS
  6
ByBlock
 62
     0
 48
50.0
100
AcDbPoint
 10
14532.82958141817
 20
9363.736797361971
 30
0.0
  0
POINT
  5
1BEE0
330
1BE61
100
AcDbEntity
  8
DEFPOINTS
  6
ByBlock
 62
     0
 48
50.0
100
AcDbPoint
 10
14627.82958141817
 20
11573.73679736197
 30
0.0
  0
POINT
  5
1BEE1
330
1BE61
100
AcDbEntity
  8
DEFPOINTS
  6
ByBlock
 62
     0
 48
50.0
100
AcDbPoint
 10
16157.07164574816
 20
11573.73679736197
 30
0.0
  0
ENDBLK
  5
1BEE2
330
1BE61
100
AcDbEntity
  8
0
 48
50.0
100
AcDbBlockEnd
  0
BLOCK
  5
1BEE3
330
1BE6D
100
AcDbEntity
  8
0
 48
50.0
100
AcDbBlockBegin
  2
*D41
 70
     1
 10
0.0
 20
0.0
 30
0.0
  3
*D41
  1

  0
LINE
  5
1BEE4
330
1BE6D
100
AcDbEntity
  8
0
  6
ByBlock
 62
     0
 48
50.0
100
AcDbLine
 10
13072.82958141816
 20
11633.73679736197
 30
0.0
 11
11933.38013607452
 21
11633.73679736197
 31
0.0
  0
LINE
  5
1BEE5
330
1BE6D
100
AcDbEntity
  8
0
  6
ByBlock
 62
     0
 48
50.0
100
AcDbLine
 10
13207.82958141817
 20
9363.736797361967
 30
0.0
 11
11933.38013607452
 21
9363.736797361967
 31
0.0
  0
LINE
  5
1BEE6
330
1BE6D
100
AcDbEntity
  8
0
  6
ByBlock
 62
     0
 48
50.0
100
AcDbLine
 10
12008.38013607452
 20
11633.73679736197
 30
0.0
 11
12008.38013607452
 21
9363.736797361967
 31
0.0
  0
INSERT
  5
1BEE7
330
1BE6D
100
AcDbEntity
  8
0
  6
ByBlock
 62
     0
 48
50.0
100
AcDbBlockReference
  2
_DOTSMALL
 10
12008.38013607452
 20
11633.73679736197
 30
0.0
 41
125.0
 42
125.0
 43
125.0
 50
90.0
  0
INSERT
  5
1BEE8
330
1BE6D
100
AcDbEntity
  8
0
  6
ByBlock
 62
     0
 48
50.0
100
AcDbBlockReference
  2
_DOTSMALL
 10
12008.38013607452
 20
9363.736797361967
 30
0.0
 41
125.0
 42
125.0
 43
125.0
 50
270.0
  0
MTEXT
  5
1BEE9
330
1BE6D
100
AcDbEntity
  8
0
  6
ByBlock
 62
     7
 48
50.0
100
AcDbMText
 10
11908.36537229499
 20
10498.73679736196
 30
0.0
 40
150.0
 41
0.0
 71
     5
 72
     1
  1
\A1;2270
  7
STYLE1
 11
0.0000000000000001
 21
1.0
 31
0.0
 73
     1
 44
1.0
  0
POINT
  5
1BEEA
330
1BE6D
100
AcDbEntity
  8
DEFPOINTS
  6
ByBlock
 62
     0
 48
50.0
100
AcDbPoint
 10
13097.82958141816
 20
11633.73679736197
 30
0.0
  0
POINT
  5
1BEEB
330
1BE6D
100
AcDbEntity
  8
DEFPOINTS
  6
ByBlock
 62
     0
 48
50.0
100
AcDbPoint
 10
13232.82958141817
 20
9363.736797361967
 30
0.0
  0
POINT
  5
1BEEC
330
1BE6D
100
AcDbEntity
  8
DEFPOINTS
  6
ByBlock
 62
     0
 48
50.0
100
AcDbPoint
 10
12008.38013607452
 20
9363.736797361967
 30
0.0
  0
ENDBLK
  5
1BEED
330
1BE6D
100
AcDbEntity
  8
0
 48
50.0
100
AcDbBlockEnd
  0
BLOCK
  5
1BEEE
330
1BE79
100
AcDbEntity
  8
0
 48
50.0
100
AcDbBlockBegin
  2
*D42
 70
     1
 10
0.0
 20
0.0
 30
0.0
  3
*D42
  1

  0
LINE
  5
1BEEF
330
1BE79
100
AcDbEntity
  8
0
  6
ByBlock
 62
     0
 48
50.0
100
AcDbLine
 10
13207.82958141817
 20
11363.73679736196
 30
0.0
 11
12267.63480123898
 21
11363.73679736196
 31
0.0
  0
LINE
  5
1BEF0
330
1BE79
100
AcDbEntity
  8
0
  6
ByBlock
 62
     0
 48
50.0
100
AcDbLine
 10
13207.82958141817
 20
9418.736797361971
 30
0.0
 11
12267.63480123898
 21
9418.736797361971
 31
0.0
  0
LINE
  5
1BEF1
330
1BE79
100
AcDbEntity
  8
0
  6
ByBlock
 62
     0
 48
50.0
100
AcDbLine
 10
12342.63480123898
 20
11363.73679736196
 30
0.0
 11
12342.63480123898
 21
9418.736797361971
 31
0.0
  0
INSERT
  5
1BEF2
330
1BE79
100
AcDbEntity
  8
0
  6
ByBlock
 62
     0
 48
50.0
100
AcDbBlockReference
  2
_DOTSMALL
 10
12342.63480123898
 20
11363.73679736196
 30
0.0
 41
125.0
 42
125.0
 43
125.0
 50
90.0
  0
INSERT
  5
1BEF3
330
1BE79
100
AcDbEntity
  8
0
  6
ByBlock
 62
     0
 48
50.0
100
AcDbBlockReference
  2
_DOTSMALL
 10
12342.63480123898
 20
9418.736797361971
 30
0.0
 41
125.0
 42
125.0
 43
125.0
 50
270.0
  0
MTEXT
  5
1BEF4
330
1BE79
100
AcDbEntity
  8
0
  6
ByBlock
 62
     7
 48
50.0
100
AcDbMText
 10
12242.63480123898
 20
10391.23679736196
 30
0.0
 40
150.0
 41
0.0
 71
     5
 72
     1
  1
\A1;1945
  7
STYLE1
 11
0.0000000000000001
 21
1.0
 31
0.0
 73
     1
 44
1.0
  0
POINT
  5
1BEF5
330
1BE79
100
AcDbEntity
  8
DEFPOINTS
  6
ByBlock
 62
     0
 48
50.0
100
AcDbPoint
 10
13232.82958141817
 20
11363.73679736196
 30
0.0
  0
POINT
  5
1BEF6
330
1BE79
100
AcDbEntity
  8
DEFPOINTS
  6
ByBlock
 62
     0
 48
50.0
100
AcDbPoint
 10
13232.82958141817
 20
9418.736797361971
 30
0.0
  0
POINT
  5
1BEF7
330
1BE79
100
AcDbEntity
  8
DEFPOINTS
  6
ByBlock
 62
     0
 48
50.0
100
AcDbPoint
 10
12342.63480123898
 20
9418.736797361971
 30
0.0
  0
ENDBLK
  5
1BEF8
330
1BE79
100
AcDbEntity
  8
0
 48
50.0
100
AcDbBlockEnd
  0
BLOCK
  5
1BEF9
330
1BE85
100
AcDbEntity
  8
0
 48
50.0
100
AcDbBlockBegin
  2
*D43
 70
     1
 10
0.0
 20
0.0
 30
0.0
  3
*D43
  1

  0
LINE
  5
1BEFA
330
1BE85
100
AcDbEntity
  8
0
  6
ByBlock
 62
     0
 48
50.0
100
AcDbLine
 10
13207.82958141817
 20
9418.736797361971
 30
0.0
 11
12267.63480123898
 21
9418.736797361971
 31
0.0
  0
LINE
  5
1BEFB
330
1BE85
100
AcDbEntity
  8
0
  6
ByBlock
 62
     0
 48
50.0
100
AcDbLine
 10
13207.82958141817
 20
9363.736797361971
 30
0.0
 11
12267.63480123898
 21
9363.736797361971
 31
0.0
  0
LINE
  5
1BEFC
330
1BE85
100
AcDbEntity
  8
0
  6
ByBlock
 62
     0
 48
50.0
100
AcDbLine
 10
12342.63480123898
 20
9418.736797361971
 30
0.0
 11
12342.63480123898
 21
9363.736797361971
 31
0.0
  0
LINE
  5
1BEFD
330
1BE85
100
AcDbEntity
  8
0
  6
ByBlock
 62
     0
 48
50.0
100
AcDbLine
 10
12342.63480123898
 20
9363.736797361971
 30
0.0
 11
12342.63480123898
 21
8979.043856808635
 31
0.0
  0
INSERT
  5
1BEFE
330
1BE85
100
AcDbEntity
  8
0
  6
ByBlock
 62
     0
 48
50.0
100
AcDbBlockReference
  2
_DOTSMALL
 10
12342.63480123898
 20
9418.736797361971
 30
0.0
 41
125.0
 42
125.0
 43
125.0
 50
90.0
  0
INSERT
  5
1BEFF
330
1BE85
100
AcDbEntity
  8
0
  6
ByBlock
 62
     0
 48
50.0
100
AcDbBlockReference
  2
_DOTSMALL
 10
12342.63480123898
 20
9363.736797361971
 30
0.0
 41
125.0
 42
125.0
 43
125.0
 50
270.0
  0
MTEXT
  5
1BF00
330
1BE85
100
AcDbEntity
  8
0
  6
ByBlock
 62
     7
 48
50.0
100
AcDbMText
 10
12242.63480123898
 20
9089.650458526433
 30
0.0
 40
150.0
 41
0.0
 71
     5
 72
     1
  1
\A1;55
  7
STYLE1
 11
0.0000000000000001
 21
1.0
 31
0.0
 73
     1
 44
1.0
  0
POINT
  5
1BF01
330
1BE85
100
AcDbEntity
  8
DEFPOINTS
  6
ByBlock
 62
     0
 48
50.0
100
AcDbPoint
 10
13232.82958141817
 20
9418.736797361971
 30
0.0
  0
POINT
  5
1BF02
330
1BE85
100
AcDbEntity
  8
DEFPOINTS
  6
ByBlock
 62
     0
 48
50.0
100
AcDbPoint
 10
13232.82958141817
 20
9363.736797361971
 30
0.0
  0
POINT
  5
1BF03
330
1BE85
100
AcDbEntity
  8
DEFPOINTS
  6
ByBlock
 62
     0
 48
50.0
100
AcDbPoint
 10
12342.63480123898
 20
9363.736797361971
 30
0.0
  0
ENDBLK
  5
1BF04
330
1BE85
100
AcDbEntity
  8
0
 48
50.0
100
AcDbBlockEnd
  0
BLOCK
  5
1BF05
330
1BE92
100
AcDbEntity
  8
0
 48
50.0
100
AcDbBlockBegin
  2
*D44
 70
     1
 10
0.0
 20
0.0
 30
0.0
  3
*D44
  1

  0
LINE
  5
1BF06
330
1BE92
100
AcDbEntity
  8
0
  6
ByBlock
 62
     0
 48
50.0
100
AcDbLine
 10
13093.84362656883
 20
11501.29474893228
 30
0.0
 11
12424.73506072483
 21
11511.93789083029
 31
0.0
  0
LINE
  5
1BF07
330
1BE92
100
AcDbEntity
  8
0
  6
ByBlock
 62
     0
 48
50.0
100
AcDbLine
 10
13095.67263694135
 20
11616.28020332134
 30
0.0
 11
12426.56407109735
 21
11626.92334521935
 31
0.0
  0
LINE
  5
1BF08
330
1BE92
100
AcDbEntity
  8
0
  6
ByBlock
 62
     0
 48
50.0
100
AcDbLine
 10
12499.72557445682
 20
11510.74505797865
 30
0.0
 11
12501.55458482934
 21
11625.7305123677
 31
0.0
  0
LINE
  5
1BF09
330
1BE92
100
AcDbEntity
  8
0
  6
ByBlock
 62
     0
 48
50.0
100
AcDbLine
 10
12501.55458482934
 20
11625.7305123677
 30
0.0
 11
12507.77661097673
 21
12016.89423375936
 31
0.0
  0
INSERT
  5
1BF0A
330
1BE92
100
AcDbEntity
  8
0
  6
ByBlock
 62
     0
 48
50.0
100
AcDbBlockReference
  2
_DOTSMALL
 10
12499.72557445682
 20
11510.74505797865
 30
0.0
 41
125.0
 42
125.0
 43
125.0
 50
269.0887044041859
  0
INSERT
  5
1BF0B
330
1BE92
100
AcDbEntity
  8
0
  6
ByBlock
 62
     0
 48
50.0
100
AcDbBlockReference
  2
_DOTSMALL
 10
12501.55458482934
 20
11625.7305123677
 30
0.0
 41
125.0
 42
125.0
 43
125.0
 50
89.08870440418592
  0
MTEXT
  5
1BF0C
330
1BE92
100
AcDbEntity
  8
0
  6
ByBlock
 62
     7
 48
50.0
100
AcDbMText
 10
12405.67227363675
 20
11885.39491164239
 30
0.0
 40
150.0
 41
0.0
 71
     5
 72
     1
  1
\A1;115
  7
STYLE1
 11
0.0159044380219005
 21
0.9998735164265566
 31
0.0
 73
     1
 44
1.0
  0
POINT
  5
1BF0D
330
1BE92
100
AcDbEntity
  8
DEFPOINTS
  6
ByBlock
 62
     0
 48
50.0
100
AcDbPoint
 10
13118.8404644795
 20
11500.89713798174
 30
0.0
  0
POINT
  5
1BF0E
330
1BE92
100
AcDbEntity
  8
DEFPOINTS
  6
ByBlock
 62
     0
 48
50.0
100
AcDbPoint
 10
13120.66947485202
 20
11615.88259237079
 30
0.0
  0
POINT
  5
1BF0F
330
1BE92
100
AcDbEntity
  8
DEFPOINTS
  6
ByBlock
 62
     0
 48
50.0
100
AcDbPoint
 10
12501.55458482934
 20
11625.7305123677
 30
0.0
  0
ENDBLK
  5
1BF10
330
1BE92
100
AcDbEntity
  8
0
 48
50.0
100
AcDbBlockEnd
  0
BLOCK
  5
1BF11
330
1BE9F
100
AcDbEntity
  8
0
 48
50.0
100
AcDbBlockBegin
  2
*D45
 70
     1
 10
0.0
 20
0.0
 30
0.0
  3
*D45
  1

  0
LINE
  5
1BF12
330
1BE9F
100
AcDbEntity
  8
0
  6
ByBlock
 62
     0
 48
50.0
100
AcDbLine
 10
13097.82958141817
 20
11658.73679736197
 30
0.0
 11
13097.82958141817
 21
12402.01792807849
 31
0.0
  0
LINE
  5
1BF13
330
1BE9F
100
AcDbEntity
  8
0
  6
ByBlock
 62
     0
 48
50.0
100
AcDbLine
 10
13232.82958141817
 20
11656.29728927309
 30
0.0
 11
13232.82958141817
 21
12402.01792807849
 31
0.0
  0
LINE
  5
1BF14
330
1BE9F
100
AcDbEntity
  8
0
  6
ByBlock
 62
     0
 48
50.0
100
AcDbLine
 10
13232.82958141817
 20
12327.01792807849
 30
0.0
 11
13097.82958141817
 21
12327.01792807849
 31
0.0
  0
LINE
  5
1BF15
330
1BE9F
100
AcDbEntity
  8
0
  6
ByBlock
 62
     0
 48
50.0
100
AcDbLine
 10
13097.82958141817
 20
12327.01792807849
 30
0.0
 11
12667.16392458225
 21
12327.01792807849
 31
0.0
  0
INSERT
  5
1BF16
330
1BE9F
100
AcDbEntity
  8
0
  6
ByBlock
 62
     0
 48
50.0
100
AcDbBlockReference
  2
_DOTSMALL
 10
13232.82958141817
 20
12327.01792807849
 30
0.0
 41
125.0
 42
125.0
 43
125.0
  0
INSERT
  5
1BF17
330
1BE9F
100
AcDbEntity
  8
0
  6
ByBlock
 62
     0
 48
50.0
100
AcDbBlockReference
  2
_DOTSMALL
 10
13097.82958141817
 20
12327.01792807849
 30
0.0
 41
125.0
 42
125.0
 43
125.0
 50
180.0
  0
MTEXT
  5
1BF18
330
1BE9F
100
AcDbEntity
  8
0
  6
ByBlock
 62
     7
 48
50.0
100
AcDbMText
 10
12815.27052630005
 20
12427.01792807849
 30
0.0
 40
150.0
 41
0.0
 71
     5
 72
     1
  1
\A1;135
  7
STYLE1
 73
     1
 44
1.0
  0
POINT
  5
1BF19
330
1BE9F
100
AcDbEntity
  8
DEFPOINTS
  6
ByBlock
 62
     0
 48
50.0
100
AcDbPoint
 10
13097.82958141817
 20
11633.73679736197
 30
0.0
  0
POINT
  5
1BF1A
330
1BE9F
100
AcDbEntity
  8
DEFPOINTS
  6
ByBlock
 62
     0
 48
50.0
100
AcDbPoint
 10
13232.82958141817
 20
11631.29728927309
 30
0.0
  0
POINT
  5
1BF1B
330
1BE9F
100
AcDbEntity
  8
DEFPOINTS
  6
ByBlock
 62
     0
 48
50.0
100
AcDbPoint
 10
13232.82958141817
 20
12327.01792807849
 30
0.0
  0
ENDBLK
  5
1BF1C
330
1BE9F
100
AcDbEntity
  8
0
 48
50.0
100
AcDbBlockEnd
  0
ENDSEC
  0
SECTION
  2
ENTITIES
  0
LINE
  5
10B56
330
747D
100
AcDbEntity
  8
補助
  6
PHANTOM
 62
   230
 48
50.0
100
AcDbLine
 10
175.0
 20
0.0
 30
0.0
 11
174.9999999999993
 21
14262.0
 31
0.0
  0
LINE
  5
10B57
330
747D
100
AcDbEntity
  8
補助
  6
PHANTOM
 62
   230
 48
50.0
100
AcDbLine
 10
174.9999999999993
 20
14262.0
 30
0.0
 11
20384.0
 21
14262.0
 31
0.0
  0
LINE
  5
10B59
330
747D
100
AcDbEntity
  8
仕様書枠
  6
Continuous
 48
50.0
100
AcDbLine
 10
16384.0
 20
1500.0
 30
0.0
 11
16384.0
 21
0.0
 31
0.0
  0
LINE
  5
10B5C
330
747D
100
AcDbEntity
  8
仕様書枠
 48
50.0
100
AcDbLine
 10
20384.0
 20
1500.0
 30
0.0
 11
20384.0
 21
0.0
 31
0.0
  0
LINE
  5
10B5D
330
747D
100
AcDbEntity
  8
仕様書枠
 48
50.0
100
AcDbLine
 10
175.0
 20
0.0
 30
0.0
 11
20384.0
 21
-0.0000000000001137
 31
0.0
  0
LINE
  5
10B5E
330
747D
100
AcDbEntity
  8
補助
  6
PHANTOM
 62
   230
 48
50.0
100
AcDbLine
 10
20384.0
 20
14262.0
 30
0.0
 11
20384.0
 21
1500.0
 31
0.0
  0
LINE
  5
10B6C
330
747D
100
AcDbEntity
  8
仕様書枠
 48
50.0
100
AcDbLine
 10
16384.0
 20
1500.0
 30
0.0
 11
20384.0
 21
1500.0
 31
0.0
  0
LINE
  5
10B6D
330
747D
100
AcDbEntity
  8
補助
  6
PHANTOM
 62
   230
 48
50.0
100
AcDbLine
 10
16384.0
 20
14262.0
 30
0.0
 11
16384.0
 21
6000.0
 31
0.0
  0
LINE
  5
10B6F
330
747D
100
AcDbEntity
  8
補助
  6
PHANTOM
 62
   230
 48
50.0
100
AcDbLine
 10
16384.0
 20
6000.0
 30
0.0
 11
20384.0
 21
6000.0
 31
0.0
  0
LINE
  5
10B72
330
747D
100
AcDbEntity
  8
文字
 62
     7
 48
50.0
100
AcDbLine
 10
16484.0
 20
500.0
 30
0.0
 11
20284.0
 21
500.0
 31
0.0
  0
TEXT
  5
10B73
330
747D
100
AcDbEntity
  8
文字
 62
     7
 48
50.0
100
AcDbText
 10
16453.72382072112
 20
1118.863259287425
 30
0.0
 40
250.0
  1
外 形 図
  7
STYLE2
100
AcDbText
  0
TEXT
  5
10B74
330
747D
100
AcDbEntity
  8
文字
 62
     7
 48
50.0
100
AcDbText
 10
16501.79587498051
 20
596.5925826289068
 30
0.0
 40
200.0
  1
機種名
  7
STYLE2
100
AcDbText
  0
LINE
  5
10B7B
330
747D
100
AcDbEntity
  8
仕様書枠
 48
50.0
100
AcDbLine
 10
16384.0
 20
1000.0
 30
0.0
 11
17814.0
 21
1000.0
 31
0.0
  0
LINE
  5
10B88
330
747D
100
AcDbEntity
  8
仕様書枠
  6
Continuous
 48
50.0
100
AcDbLine
 10
17814.0
 20
1500.0
 30
0.0
 11
17814.0
 21
1000.0
 31
0.0
  0
LINE
  5
15D7D
330
747D
100
AcDbEntity
  8
Ｇ．Ｌ
 48
50.0
100
AcDbLine
 10
4814.693732604355
 20
3140.0
 30
0.0
 11
15814.30626739564
 21
3140.0
 31
0.0
  0
TEXT
  5
16C68
330
747D
100
AcDbEntity
  8
仕様書枠
 62
     7
 48
50.0
100
AcDbText
 10
4823.500522708389
 20
3170.736447636176
 30
0.0
 40
125.0
  1
▽G.L
  7
STYLE2
100
AcDbText
  0
TEXT
  5
16C77
330
747D
100
AcDbEntity
  8
部品1
100
AcDbText
 10
6760.950679175897
 20
7401.470083124987
 30
0.0
 40
225.0
  1
平面図
  7
STYLE2
100
AcDbText
  0
TEXT
  5
16C79
330
747D
100
AcDbEntity
  8
部品1
100
AcDbText
 10
6765.786536007633
 20
2198.589753150987
 30
0.0
 40
225.0
  1
正面図
  7
STYLE2
100
AcDbText
  0
TEXT
  5
16C7B
330
747D
100
AcDbEntity
  8
部品1
100
AcDbText
 10
13405.50529073258
 20
2203.420651335527
 30
0.0
 40
225.0
  1
側面図
  7
STYLE2
100
AcDbText
  0
LINE
  5
17269
330
747D
100
AcDbEntity
  8
部品1
100
AcDbLine
 10
6596.604026227807
 20
7709.831477053278
 30
0.0
 11
6596.604026227807
 21
7310.010941144057
 31
0.0
  0
LINE
  5
1726A
330
747D
100
AcDbEntity
  8
部品1
100
AcDbLine
 10
6596.604026227807
 20
7310.010941144057
 30
0.0
 11
7869.055136608539
 21
7310.010941144057
 31
0.0
  0
LINE
  5
1726B
330
747D
100
AcDbEntity
  8
部品1
100
AcDbLine
 10
7869.055136608539
 20
7310.010941144057
 30
0.0
 11
7869.055136608539
 21
7709.831477053278
 31
0.0
  0
LINE
  5
1726C
330
747D
100
AcDbEntity
  8
部品1
100
AcDbLine
 10
7869.055136608539
 20
7709.831477053278
 30
0.0
 11
6596.604026227807
 21
7709.831477053278
 31
0.0
  0
LINE
  5
1726E
330
747D
100
AcDbEntity
  8
部品1
100
AcDbLine
 10
6596.604026227807
 20
2526.882077830556
 30
0.0
 11
6596.604026227807
 21
2127.061541921335
 31
0.0
  0
LINE
  5
1726F
330
747D
100
AcDbEntity
  8
部品1
100
AcDbLine
 10
6596.604026227807
 20
2127.061541921335
 30
0.0
 11
7869.05513660854
 21
2127.061541921335
 31
0.0
  0
LINE
  5
17270
330
747D
100
AcDbEntity
  8
部品1
100
AcDbLine
 10
7869.05513660854
 20
2127.061541921335
 30
0.0
 11
7869.05513660854
 21
2526.882077830556
 31
0.0
  0
LINE
  5
17271
330
747D
100
AcDbEntity
  8
部品1
100
AcDbLine
 10
7869.05513660854
 20
2526.882077830556
 30
0.0
 11
6596.604026227807
 21
2526.882077830556
 31
0.0
  0
LINE
  5
17273
330
747D
100
AcDbEntity
  8
部品1
100
AcDbLine
 10
13246.6040262278
 20
2526.8820778306
 30
0.0
 11
13246.6040262278
 21
2127.061541921379
 31
0.0
  0
LINE
  5
17274
330
747D
100
AcDbEntity
  8
部品1
100
AcDbLine
 10
13246.6040262278
 20
2127.061541921379
 30
0.0
 11
14519.05513660853
 21
2127.061541921379
 31
0.0
  0
LINE
  5
17275
330
747D
100
AcDbEntity
  8
部品1
100
AcDbLine
 10
14519.05513660853
 20
2127.061541921379
 30
0.0
 11
14519.05513660853
 21
2526.8820778306
 31
0.0
  0
LINE
  5
17276
330
747D
100
AcDbEntity
  8
部品1
100
AcDbLine
 10
14519.05513660853
 20
2526.8820778306
 30
0.0
 11
13246.6040262278
 21
2526.8820778306
 31
0.0
  0
TEXT
  5
1A95B
330
747D
100
AcDbEntity
  8
文字
 62
     7
 48
50.0
100
AcDbText
 10
17902.30092041603
 20
604.8708912389265
 30
0.0
 40
200.0
  1
ＳＭＫ－３２Ｓ
  7
STYLE2
100
AcDbText
  0
TEXT
  5
1A95C
330
747D
100
AcDbEntity
  8
文字
 62
     7
 48
50.0
100
AcDbText
 10
18386.04187925632
 20
1047.815908841148
 30
0.0
 40
125.0
  1
～一般型･多雪地型～
  7
STYLE2
100
AcDbText
  0
TEXT
  5
1A95D
330
747D
100
AcDbEntity
  8
文字
 62
     7
 48
50.0
100
AcDbText
 10
18155.16479652749
 20
1289.447132864035
 30
0.0
 40
125.0
  1
NO.03     <縮尺> S=1/50
  7
STYLE2
100
AcDbText
  0
TEXT
  5
1A95E
330
747D
100
AcDbEntity
  8
文字
 62
     7
 48
50.0
100
AcDbText
 10
16511.7566802715
 20
270.5931259273529
 30
0.0
 40
100.0
  1
○扉部有効開口寸法：1090×1798 (mm)
  7
STYLE2
100
AcDbText
  0
TEXT
  5
1A95F
330
747D
100
AcDbEntity
  8
文字
 62
     7
 48
50.0
100
AcDbText
 10
16511.7566802715
 20
99.75789836616968
 30
0.0
 40
100.0
  1
○床面積：3.20㎡(0.97坪)
  7
STYLE2
100
AcDbText
  0
DIMENSION
  5
1AB73
330
747D
100
AcDbEntity
  8
寸法
 48
50.0
100
AcDbDimension
  2
*D1
 10
14391.32958141817
 20
2653.952670699625
 30
0.0
 11
14104.365998741
 21
2653.952670699625
 31
0.0
 12
341.0117701604176
 22
-11707.52646466355
 32
0.0
 70
   160
 71
     5
 42
-1.0
  3
INABA_S50G
100
AcDbAlignedDimension
 13
14591.32958141817
 23
2940.000000000002
 33
0.0
 14
14391.32958141817
 24
2940.000000000002
 34
0.0
100
AcDbRotatedDimension
  0
DIMENSION
  5
1AB74
330
747D
100
AcDbEntity
  8
寸法
 48
50.0
100
AcDbDimension
  2
*D2
 10
14989.66471641205
 20
3140.0
 30
0.0
 11
14989.66471641205
 21
2653.036417322837
 31
0.0
 12
341.0117701604176
 22
-11707.52646466355
 32
0.0
 70
   160
 71
     5
 42
-1.0
  3
INABA_S50G
100
AcDbAlignedDimension
 13
14591.32958141817
 23
2940.000000000002
 33
0.0
 14
14591.32958141817
 24
3140.0
 34
0.0
 50
90.0
100
AcDbRotatedDimension
  0
LINE
  5
1AB7A
330
747D
100
AcDbEntity
  8
部品1
 48
50.0
100
AcDbLine
 10
13302.82958141817
 20
3330.0
 30
0.0
 11
14462.82958141817
 21
3330.0
 31
0.0
  0
LINE
  5
1AB7B
330
747D
100
AcDbEntity
  8
部品1
 48
50.0
100
AcDbLine
 10
13232.82958141817
 20
5275.0
 30
0.0
 11
14532.82958141817
 21
5275.0
 31
0.0
  0
DIMENSION
  5
1AB7C
330
747D
100
AcDbEntity
  8
寸法
 48
50.0
100
AcDbDimension
  2
*D3
 10
14532.82958141817
 20
6238.281130716521
 30
0.0
 11
13882.82958141817
 21
6338.281130716521
 31
0.0
 70
    32
  1
柱外寸法 <>
 71
     5
 42
-1.0
  3
INABA_S50G
100
AcDbAlignedDimension
 13
13232.82958141817
 23
5541.484603453081
 33
0.0
 14
14532.82958141817
 24
5488.33701822684
 34
0.0
100
AcDbRotatedDimension
1001
ACAD
1000
DSTYLE
1002
{
1070
   287
1070
     4
1070
    75
1070
     1
1070
   279
1070
     1
1002
}
  0
DIMENSION
  5
1AB7D
330
747D
100
AcDbEntity
  8
寸法
 48
50.0
100
AcDbDimension
  2
*D4
 10
14627.82958141817
 20
6506.068854554546
 30
0.0
 11
14152.82958141817
 21
6606.068854554546
 31
0.0
 12
-290.0
 22
0.0
 32
0.0
 70
    32
 71
     5
 42
-1.0
  3
INABA_S50G
100
AcDbAlignedDimension
 13
13097.82958141817
 23
5545.0
 33
0.0
 14
14627.82958141817
 24
5485.0
 34
0.0
100
AcDbRotatedDimension
  0
LINE
  5
1AB7E
330
747D
100
AcDbEntity
  8
部品1
 48
50.0
100
AcDbLine
 10
13127.34578971423
 20
5544.466629415619
 30
0.0
 11
14602.50261261331
 21
5486.367362182471
 31
0.0
  0
LINE
  5
1AB7F
330
747D
100
AcDbEntity
  8
細線
 48
50.0
100
AcDbLine
 10
14609.73767084558
 20
5476.025833613869
 30
0.0
 11
13116.02062901199
 21
5526.929326860823
 31
0.0
  0
LINE
  5
1AB80
330
747D
100
AcDbEntity
  8
部品1
 48
50.0
100
AcDbLine
 10
14600.11846310262
 20
5360.921243435219
 30
0.0
 11
13118.8404644795
 21
5412.160340619768
 31
0.0
  0
LINE
  5
1AB81
330
747D
100
AcDbEntity
  8
細線
 48
50.0
100
AcDbLine
 10
14618.38919924369
 20
5380.746404000587
 30
0.0
 11
13101.46376912036
 21
5432.315572311723
 31
0.0
  0
LINE
  5
1AB82
330
747D
100
AcDbEntity
  8
部品1
 48
50.0
100
AcDbLine
 10
13295.32958141817
 20
3275.0
 30
0.0
 11
14470.32958141817
 21
3275.0
 31
0.0
  0
LINE
  5
1AB83
330
747D
100
AcDbEntity
  8
部品1
 48
50.0
100
AcDbLine
 10
13302.82958141817
 20
5275.0
 30
0.0
 11
13302.82958141817
 21
3275.0
 31
0.0
  0
DIMENSION
  5
1AB84
330
747D
100
AcDbEntity
  8
寸法
 48
50.0
100
AcDbDimension
  2
*D5
 10
12198.66366111978
 20
3275.0
 30
0.0
 11
12388.64889734025
 21
4410.0
 31
0.0
 12
-290.0
 22
0.0
 32
0.0
 70
    32
 71
     5
 42
-1.0
  3
INABA_S50G
100
AcDbAlignedDimension
 13
13097.82958141817
 23
5545.0
 33
0.0
 14
13164.82958141817
 24
3275.0
 34
0.0
 50
90.0
100
AcDbRotatedDimension
  0
LINE
  5
1AB85
330
747D
100
AcDbEntity
  8
部品1
 48
50.0
100
AcDbLine
 10
13232.82958141817
 20
5408.217326920631
 30
0.0
 11
13232.82958141817
 21
3140.0
 31
0.0
  0
LINE
  5
1AB86
330
747D
100
AcDbEntity
  8
部品1
 62
     2
 48
50.0
100
AcDbLine
 10
13164.82958141817
 20
3275.0
 30
0.0
 11
13164.82958141817
 21
5180.0
 31
0.0
  0
DIMENSION
  5
1AB87
330
747D
100
AcDbEntity
  8
寸法
 48
50.0
100
AcDbDimension
  2
*D6
 10
12506.70986552558
 20
5275.0
 30
0.0
 11
12406.70986552558
 21
4302.500000000001
 31
0.0
 70
    32
 71
     5
 42
-1.0
  3
INABA_S50G
100
AcDbAlignedDimension
 13
13164.82958141817
 23
3330.0
 33
0.0
 14
13232.82958141817
 24
5275.0
 34
0.0
 50
90.0
100
AcDbRotatedDimension
1001
ACAD
1000
DSTYLE
1002
{
1070
   287
1070
     4
1070
    75
1070
     1
1070
   279
1070
     1
1002
}
  0
DIMENSION
  5
1AB88
330
747D
100
AcDbEntity
  8
寸法
 48
50.0
100
AcDbDimension
  2
*D7
 10
12818.94130116352
 20
5150.5
 30
0.0
 11
13008.94130116352
 21
4251.5
 31
0.0
 12
921.0117701604175
 22
-11707.52646466355
 32
0.0
 70
    32
  1
有効開口部高サ <>
 71
     5
 42
-1.0
  3
INABA_S50G
100
AcDbAlignedDimension
 13
13164.82958141817
 23
3352.5
 33
0.0
 14
13164.82958141817
 24
5150.5
 34
0.0
 50
90.0
100
AcDbRotatedDimension
  0
DIMENSION
  5
1AB89
330
747D
100
AcDbEntity
  8
寸法
 48
50.0
100
AcDbDimension
  2
*D8
 10
12506.70986552558
 20
3330.0
 30
0.0
 11
12506.70986552558
 21
2964.420494177466
 31
0.0
 12
921.0117701604175
 22
-11707.52646466355
 32
0.0
 70
   160
 71
     5
 42
-1.0
  3
INABA_S50G
100
AcDbAlignedDimension
 13
13164.82958141817
 23
3275.0
 33
0.0
 14
13164.82958141817
 24
3330.0
 34
0.0
 50
90.0
100
AcDbRotatedDimension
  0
LINE
  5
1AB8A
330
747D
100
AcDbEntity
  8
破線
 48
5.0
100
AcDbLine
 10
13374.32958141817
 20
3140.000000000004
 30
0.0
 11
13374.32958141817
 21
2940.000000000002
 31
0.0
  0
LINE
  5
1AB8B
330
747D
100
AcDbEntity
  8
破線
 48
5.0
100
AcDbLine
 10
13174.32958141817
 20
3140.000000000004
 30
0.0
 11
13174.32958141817
 21
2940.000000000002
 31
0.0
  0
LINE
  5
1AB8C
330
747D
100
AcDbEntity
  8
破線
 48
5.0
100
AcDbLine
 10
13295.32958141817
 20
3140.0
 30
0.0
 11
13295.32958141817
 21
3030.0
 31
0.0
  0
LINE
  5
1AB8D
330
747D
100
AcDbEntity
  8
破線
 48
5.0
100
AcDbLine
 10
13253.32958141817
 20
3140.0
 30
0.0
 11
13253.32958141817
 21
3030.0
 31
0.0
  0
LINE
  5
1AB8E
330
747D
100
AcDbEntity
  8
破線
 48
5.0
100
AcDbLine
 10
13253.32958141817
 20
3030.0
 30
0.0
 11
13295.32958141817
 21
3030.0
 31
0.0
  0
LINE
  5
1AB8F
330
747D
100
AcDbEntity
  8
破線
 48
5.0
100
AcDbLine
 10
13374.32958141817
 20
2940.000000000002
 30
0.0
 11
13174.32958141817
 21
2940.000000000002
 31
0.0
  0
LINE
  5
1AB90
330
747D
100
AcDbEntity
  8
部品1
 48
50.0
100
AcDbLine
 10
13258.32958141817
 20
3315.000000000002
 30
0.0
 11
13290.32958141817
 21
3315.0
 31
0.0
  0
LINE
  5
1AB91
330
747D
100
AcDbEntity
  8
部品1
 48
50.0
100
AcDbLine
 10
13232.82958141817
 20
3275.0
 30
0.0
 11
13253.32958141817
 21
3275.0
 31
0.0
  0
LINE
  5
1AB92
330
747D
100
AcDbEntity
  8
部品1
 48
50.0
100
AcDbLine
 10
13253.32958141817
 20
3310.000000000001
 30
0.0
 11
13253.32958141817
 21
3140.0
 31
0.0
  0
ARC
  5
1AB93
330
747D
100
AcDbEntity
  8
部品1
 48
50.0
100
AcDbCircle
 10
13258.32958141817
 20
3310.000000000001
 30
0.0
 40
5.0
100
AcDbArc
 50
90.0
 51
179.9999999999993
  0
LINE
  5
1AB94
330
747D
100
AcDbEntity
  8
部品1
 48
50.0
100
AcDbLine
 10
13164.82958141817
 20
3275.0
 30
0.0
 11
13164.82958141817
 21
3140.0
 31
0.0
  0
LINE
  5
1AB95
330
747D
100
AcDbEntity
  8
部品1
 48
50.0
100
AcDbLine
 10
13232.82958141817
 20
3275.0
 30
0.0
 11
13164.82958141817
 21
3275.0
 31
0.0
  0
LINE
  5
1AB96
330
747D
100
AcDbEntity
  8
部品1
 48
50.0
100
AcDbLine
 10
13432.82958141817
 20
3275.0
 30
0.0
 11
13432.82958141817
 21
3140.0
 31
0.0
  0
LINE
  5
1AB97
330
747D
100
AcDbEntity
  8
部品1
 48
50.0
100
AcDbLine
 10
13295.32958141817
 20
3310.0
 30
0.0
 11
13295.32958141817
 21
3140.0
 31
0.0
  0
ARC
  5
1AB98
330
747D
100
AcDbEntity
  8
部品1
 48
50.0
100
AcDbCircle
 10
13290.32958141817
 20
3310.0
 30
0.0
 40
5.0
100
AcDbArc
 50
359.9999999999993
 51
90.0
  0
DIMENSION
  5
1AB99
330
747D
100
AcDbEntity
  8
寸法
 48
50.0
100
AcDbDimension
  2
*D9
 10
13232.82958141817
 20
6238.281130716521
 30
0.0
 11
12824.72297970037
 21
6238.281130716521
 31
0.0
 12
921.0117701604175
 22
-11877.52646466355
 32
0.0
 70
   160
 71
     5
 42
-1.0
  3
INABA_S50G
100
AcDbAlignedDimension
 13
13097.82958141817
 23
5545.0
 33
0.0
 14
13232.82958141817
 24
5541.484603453081
 34
0.0
100
AcDbRotatedDimension
  0
DIMENSION
  5
1AB9A
330
747D
100
AcDbEntity
  8
寸法
 48
50.0
100
AcDbDimension
  2
*D10
 10
12503.41451497238
 20
5548.517407749125
 30
0.0
 11
12512.33738029425
 21
5806.469729554457
 31
0.0
 12
-114.5675769670233
 22
3.963023291959871
 32
0.0
 70
   160
 71
     5
 42
-1.0
  3
INABA_S50G
100
AcDbAlignedDimension
 13
13118.26200445114
 23
5412.18035021259
 33
0.0
 14
13122.23760796219
 24
5527.11161043679
 34
0.0
 50
88.0188634930178
100
AcDbRotatedDimension
  0
ARC
  5
1AB9B
330
747D
100
AcDbEntity
  8
部品1
100
AcDbCircle
 10
13113.32958141817
 20
5511.471940894553
 30
0.0
 40
15.5
100
AcDbArc
 50
88.13874351680366
 51
181.8832004883104
  0
LINE
  5
1AB9C
330
747D
100
AcDbEntity
  8
細線
 48
50.0
100
AcDbLine
 10
13136.42120392672
 20
5544.109192899448
 30
0.0
 11
13132.11840434076
 21
5411.701041520212
 31
0.0
  0
LINE
  5
1AB9D
330
747D
100
AcDbEntity
  8
部品1
 62
     2
 48
50.0
100
AcDbLine
 10
13164.82958141817
 20
5180.0
 30
0.0
 11
13232.82958141817
 21
5187.0
 31
0.0
  0
LINE
  5
1AB9E
330
747D
100
AcDbEntity
  8
部品1
100
AcDbLine
 10
13097.83795305646
 20
5510.962577858223
 30
0.0
 11
13100.38580755856
 21
5433.472826441324
 31
0.0
  0
LINE
  5
1AB9F
330
747D
100
AcDbEntity
  8
部品1
100
AcDbLine
 10
13103.5035812939
 20
5429.940194712308
 30
0.0
 11
13103.59535490714
 21
5427.149017088035
 31
0.0
  0
ARC
  5
1ABA0
330
747D
100
AcDbEntity
  8
部品1
100
AcDbCircle
 10
13101.58515943173
 20
5433.512260998977
 30
0.0
 40
1.199999999999999
100
AcDbArc
 50
181.8832004883104
 51
260.9777304905277
  0
ARC
  5
1ABA1
330
747D
100
AcDbEntity
  8
部品1
100
AcDbCircle
 10
13101.00493155814
 20
5429.858039383868
 30
0.0
 40
2.5
100
AcDbArc
 50
1.883200488304429
 51
80.9777304905255
  0
ARC
  5
1ABA2
330
747D
100
AcDbEntity
  8
部品1
100
AcDbCircle
 10
13119.08698326884
 20
5427.658380124383
 30
0.0
 40
15.5
100
AcDbArc
 50
181.8832004883684
 51
269.0887044041854
  0
LINE
  5
1ABA3
330
747D
100
AcDbEntity
  8
部品1
100
AcDbLine
 10
13117.40813407785
 20
5527.804810746245
 30
0.0
 11
13124.10013006798
 21
5542.423971429562
 31
0.0
  0
ARC
  5
1ABA4
330
747D
100
AcDbEntity
  8
部品1
 48
50.0
100
AcDbCircle
 10
13127.28255353197
 20
5540.967200721498
 30
0.0
 40
3.5
100
AcDbArc
 50
88.96475328401214
 51
155.4038180356338
  0
LINE
  5
1ABA5
330
747D
100
AcDbEntity
  8
部品1
 48
50.0
100
AcDbLine
 10
13116.02062901199
 20
5526.929326860823
 30
0.0
 11
13113.83301119891
 21
5526.963763203625
 31
0.0
  0
ARC
  5
1ABA6
330
747D
100
AcDbEntity
  8
部品1
100
AcDbCircle
 10
13116.04423830756
 20
5528.429141049702
 30
0.0
 40
1.5
100
AcDbArc
 50
269.0981540988973
 51
335.4038180356238
  0
LINE
  5
1ABA7
330
747D
100
AcDbEntity
  8
部品1
 48
50.0
100
AcDbLine
 10
13882.82958141817
 20
5275.0
 30
0.0
 11
13882.82958141817
 21
3330.0
 31
0.0
  0
LINE
  5
1ABA9
330
747D
100
AcDbEntity
  8
部品1
 48
50.0
100
AcDbLine
 10
14462.82958141817
 20
5275.0
 30
0.0
 11
14462.82958141817
 21
3275.0
 31
0.0
  0
DIMENSION
  5
1ABAA
330
747D
100
AcDbEntity
  8
寸法
 48
50.0
100
AcDbDimension
  2
*D11
 10
15192.32033483959
 20
5485.0
 30
0.0
 11
15962.30557106006
 21
4380.0
 31
0.0
 12
-870.0
 22
0.0
 32
0.0
 70
    32
 71
     5
 42
-1.0
  3
INABA_S50G
100
AcDbAlignedDimension
 13
14532.82958141817
 23
3275.0
 33
0.0
 14
14627.82958141817
 24
5485.0
 34
0.0
 50
90.0
100
AcDbRotatedDimension
  0
LINE
  5
1ABAB
330
747D
100
AcDbEntity
  8
細線
 48
5.0
100
AcDbLine
 10
14608.82958141817
 20
5232.0
 30
0.0
 11
14608.82958141816
 21
4307.500000000001
 31
0.0
  0
LINE
  5
1ABAC
330
747D
100
AcDbEntity
  8
細線
 48
5.0
100
AcDbLine
 10
14595.82958141817
 20
5232.0
 30
0.0
 11
14595.82958141816
 21
4307.5
 31
0.0
  0
LINE
  5
1ABAD
330
747D
100
AcDbEntity
  8
細線
 48
5.0
100
AcDbLine
 10
14558.82958141817
 20
5232.0
 30
0.0
 11
14558.82958141816
 21
4307.5
 31
0.0
  0
LINE
  5
1ABAE
330
747D
100
AcDbEntity
  8
細線
 48
5.0
100
AcDbLine
 10
14571.82958141817
 20
5232.0
 30
0.0
 11
14571.82958141816
 21
4307.5
 31
0.0
  0
LINE
  5
1ABAF
330
747D
100
AcDbEntity
  8
部品1
 48
50.0
100
AcDbLine
 10
14532.82958141817
 20
5363.248842678086
 30
0.0
 11
14532.82958141817
 21
3140.0
 31
0.0
  0
LINE
  5
1ABB0
330
747D
100
AcDbEntity
  8
細線
 48
5.0
100
AcDbLine
 10
14557.62958141816
 20
4307.5
 30
0.0
 11
14532.82958141817
 21
4327.499999999999
 31
0.0
  0
LINE
  5
1ABB1
330
747D
100
AcDbEntity
  8
細線
 48
5.0
100
AcDbLine
 10
14557.62958141816
 20
4287.5
 30
0.0
 11
14532.82958141817
 21
4267.5
 31
0.0
  0
ARC
  5
1ABB2
330
747D
100
AcDbEntity
  8
細線
 48
5.0
100
AcDbCircle
 10
14583.82958141816
 20
3226.09258006886
 30
0.0
 40
27.3
100
AcDbArc
 50
180.0
 51
260.0
  0
ARC
  5
1ABB3
330
747D
100
AcDbEntity
  8
細線
 48
5.0
100
AcDbCircle
 10
14554.04554596898
 20
3340.0
 30
0.0
 40
3.0
100
AcDbArc
 50
89.99999999999909
 51
134.1275428770974
  0
LINE
  5
1ABB4
330
747D
100
AcDbEntity
  8
細線
 48
5.0
100
AcDbLine
 10
14532.82958141817
 20
3323.6
 30
0.0
 11
14551.9567721806
 21
3342.153375039561
 31
0.0
  0
LINE
  5
1ABB5
330
747D
100
AcDbEntity
  8
細線
 48
5.0
100
AcDbLine
 10
14532.82958141817
 20
3363.0
 30
0.0
 11
14610.02958141817
 21
3363.0
 31
0.0
  0
LINE
  5
1ABB6
330
747D
100
AcDbEntity
  8
破線
 48
5.0
100
AcDbLine
 10
14391.32958141817
 20
2940.000000000002
 30
0.0
 11
14591.32958141817
 21
2940.000000000002
 31
0.0
  0
LINE
  5
1ABB9
330
747D
100
AcDbEntity
  8
破線
 48
5.0
100
AcDbLine
 10
14391.32958141817
 20
3140.000000000004
 30
0.0
 11
14391.32958141817
 21
2940.000000000002
 31
0.0
  0
LINE
  5
1ABBA
330
747D
100
AcDbEntity
  8
破線
 48
5.0
100
AcDbLine
 10
14470.32958141817
 20
3140.0
 30
0.0
 11
14470.32958141817
 21
3030.0
 31
0.0
  0
LINE
  5
1ABBB
330
747D
100
AcDbEntity
  8
破線
 48
5.0
100
AcDbLine
 10
14512.32958141817
 20
3140.0
 30
0.0
 11
14512.32958141817
 21
3030.0
 31
0.0
  0
LINE
  5
1ABBC
330
747D
100
AcDbEntity
  8
破線
 48
5.0
100
AcDbLine
 10
14512.32958141817
 20
3030.0
 30
0.0
 11
14470.32958141817
 21
3030.0
 31
0.0
  0
LINE
  5
1ABBD
330
747D
100
AcDbEntity
  8
部品1
 48
50.0
100
AcDbLine
 10
14332.82958141817
 20
3275.0
 30
0.0
 11
14332.82958141817
 21
3140.0
 31
0.0
  0
LINE
  5
1ABBE
330
747D
100
AcDbEntity
  8
部品1
 48
50.0
100
AcDbLine
 10
14512.32958141817
 20
3310.000000000001
 30
0.0
 11
14512.32958141817
 21
3140.0
 31
0.0
  0
LINE
  5
1ABBF
330
747D
100
AcDbEntity
  8
部品1
 48
50.0
100
AcDbLine
 10
14470.32958141817
 20
3310.0
 30
0.0
 11
14470.32958141817
 21
3140.0
 31
0.0
  0
ARC
  5
1ABC0
330
747D
100
AcDbEntity
  8
部品1
 48
50.0
100
AcDbCircle
 10
14507.32958141817
 20
3310.000000000001
 30
0.0
 40
5.0
100
AcDbArc
 50
0.0000000000006177
 51
90.0
  0
LINE
  5
1ABC1
330
747D
100
AcDbEntity
  8
部品1
 48
50.0
100
AcDbLine
 10
14507.32958141817
 20
3315.000000000002
 30
0.0
 11
14475.32958141817
 21
3315.0
 31
0.0
  0
ARC
  5
1ABC2
330
747D
100
AcDbEntity
  8
部品1
 48
50.0
100
AcDbCircle
 10
14475.32958141817
 20
3310.0
 30
0.0
 40
5.0
100
AcDbArc
 50
90.0
 51
180.0000000000006
  0
LINE
  5
1ABC3
330
747D
100
AcDbEntity
  8
部品1
 48
50.0
100
AcDbLine
 10
14512.32958141817
 20
3275.0
 30
0.0
 11
14532.82958141817
 21
3275.0
 31
0.0
  0
LINE
  5
1ABC4
330
747D
100
AcDbEntity
  8
細線
 48
5.0
100
AcDbLine
 10
14608.82958141816
 20
4287.5
 30
0.0
 11
14608.82958141816
 21
3363.0
 31
0.0
  0
LINE
  5
1ABC5
330
747D
100
AcDbEntity
  8
細線
 48
5.0
100
AcDbLine
 10
14595.82958141816
 20
4287.5
 30
0.0
 11
14595.82958141816
 21
3363.0
 31
0.0
  0
LINE
  5
1ABC6
330
747D
100
AcDbEntity
  8
細線
 48
5.0
100
AcDbLine
 10
14571.82958141816
 20
4287.5
 30
0.0
 11
14571.82958141816
 21
3363.0
 31
0.0
  0
LINE
  5
1ABC7
330
747D
100
AcDbEntity
  8
細線
 48
5.0
100
AcDbLine
 10
14558.82958141816
 20
4287.5
 30
0.0
 11
14558.82958141816
 21
3363.0
 31
0.0
  0
LINE
  5
1ABC8
330
747D
100
AcDbEntity
  8
破線
 48
5.0
100
AcDbLine
 10
14591.32958141817
 20
3140.000000000004
 30
0.0
 11
14591.32958141817
 21
2940.000000000002
 31
0.0
  0
LINE
  5
1ABC9
330
747D
100
AcDbEntity
  8
細線
 48
5.0
100
AcDbLine
 10
14635.6739223305
 20
3243.74934418412
 30
0.0
 11
14631.28369922995
 21
3191.112019182886
 31
0.0
  0
LINE
  5
1ABCA
330
747D
100
AcDbEntity
  8
細線
 48
5.0
100
AcDbLine
 10
14592.82958141816
 20
3269.5
 30
0.0
 11
14592.82958141816
 21
3216.376514579342
 31
0.0
  0
ARC
  5
1ABCB
330
747D
100
AcDbEntity
  8
細線
 48
5.0
100
AcDbCircle
 10
14630.28715939573
 20
3191.195135720452
 30
0.0
 40
1.0
100
AcDbArc
 50
260.0
 51
355.2322728781318
  0
LINE
  5
1ABCC
330
747D
100
AcDbEntity
  8
細線
 48
5.0
100
AcDbLine
 10
14579.08898616785
 20
3199.207328411627
 30
0.0
 11
14630.11351121807
 21
3190.210327967439
 31
0.0
  0
ARC
  5
1ABCD
330
747D
100
AcDbEntity
  8
細線
 48
5.0
100
AcDbCircle
 10
14610.62958141816
 20
3269.5
 30
0.0
 40
0.5
100
AcDbArc
 50
0.0000000000001527
 51
90.0
  0
ARC
  5
1ABCE
330
747D
100
AcDbEntity
  8
細線
 48
5.0
100
AcDbCircle
 10
14634.67738249629
 20
3243.832460721685
 30
0.0
 40
1.0
100
AcDbArc
 50
355.2322728781318
 51
79.9999999999998
  0
LINE
  5
1ABCF
330
747D
100
AcDbEntity
  8
細線
 48
5.0
100
AcDbLine
 10
14611.12958141816
 20
3249.0
 30
0.0
 11
14606.38898616785
 21
3222.114748342766
 31
0.0
  0
LINE
  5
1ABD0
330
747D
100
AcDbEntity
  8
細線
 48
5.0
100
AcDbLine
 10
14611.12958141816
 20
3249.0
 30
0.0
 11
14634.85103067395
 21
3244.817268474697
 31
0.0
  0
LINE
  5
1ABD1
330
747D
100
AcDbEntity
  8
細線
 48
5.0
100
AcDbLine
 10
14611.12958141816
 20
3269.5
 30
0.0
 11
14611.12958141816
 21
3249.0
 31
0.0
  0
LINE
  5
1ABD2
330
747D
100
AcDbEntity
  8
細線
 48
5.0
100
AcDbLine
 10
14608.82958141816
 20
3343.0
 30
0.0
 11
14608.82958141816
 21
3270.0
 31
0.0
  0
ARC
  5
1ABD3
330
747D
100
AcDbEntity
  8
細線
 48
5.0
100
AcDbCircle
 10
14574.32958141816
 20
3269.5
 30
0.0
 40
0.5
100
AcDbArc
 50
359.9999999999998
 51
90.0
  0
ARC
  5
1ABD4
330
747D
100
AcDbEntity
  8
細線
 48
5.0
100
AcDbCircle
 10
14557.02958141816
 20
3269.5
 30
0.0
 40
0.5
100
AcDbArc
 50
90.0
 51
180.0
  0
LINE
  5
1ABD5
330
747D
100
AcDbEntity
  8
細線
 48
5.0
100
AcDbLine
 10
14574.32958141816
 20
3270.0
 30
0.0
 11
14557.02958141816
 21
3270.0
 31
0.0
  0
LINE
  5
1ABD6
330
747D
100
AcDbEntity
  8
細線
 48
5.0
100
AcDbLine
 10
14556.52958141816
 20
3269.5
 30
0.0
 11
14556.52958141816
 21
3226.09258006886
 31
0.0
  0
LINE
  5
1ABD7
330
747D
100
AcDbEntity
  8
細線
 48
5.0
100
AcDbLine
 10
14574.82958141816
 20
3269.5
 30
0.0
 11
14574.82958141816
 21
3219.550400232094
 31
0.0
  0
LINE
  5
1ABD8
330
747D
100
AcDbEntity
  8
細線
 48
5.0
100
AcDbLine
 10
14593.32958141816
 20
3270.0
 30
0.0
 11
14574.32958141816
 21
3270.0
 31
0.0
  0
ARC
  5
1ABD9
330
747D
100
AcDbEntity
  8
細線
 48
5.0
100
AcDbCircle
 10
14593.32958141816
 20
3269.5
 30
0.0
 40
0.5
100
AcDbArc
 50
90.0
 51
180.0000000000001
  0
LINE
  5
1ABDA
330
747D
100
AcDbEntity
  8
細線
 48
5.0
100
AcDbLine
 10
14571.82958141816
 20
3343.0
 30
0.0
 11
14571.82958141816
 21
3270.0
 31
0.0
  0
LINE
  5
1ABDB
330
747D
100
AcDbEntity
  8
細線
 48
5.0
100
AcDbLine
 10
14595.82958141816
 20
3343.0
 30
0.0
 11
14595.82958141816
 21
3270.0
 31
0.0
  0
LINE
  5
1ABDC
330
747D
100
AcDbEntity
  8
細線
 48
5.0
100
AcDbLine
 10
14558.82958141816
 20
3343.0
 30
0.0
 11
14558.82958141816
 21
3270.0
 31
0.0
  0
LINE
  5
1ABDD
330
747D
100
AcDbEntity
  8
細線
 48
5.0
100
AcDbLine
 10
14610.62958141816
 20
3270.0
 30
0.0
 11
14593.32958141816
 21
3270.0
 31
0.0
  0
LINE
  5
1ABDE
330
747D
100
AcDbEntity
  8
細線
 48
5.0
100
AcDbLine
 10
14557.62958141816
 20
3343.0
 30
0.0
 11
14557.62958141816
 21
3363.0
 31
0.0
  0
LINE
  5
1ABDF
330
747D
100
AcDbEntity
  8
細線
 48
5.0
100
AcDbLine
 10
14610.02958141817
 20
3343.0
 30
0.0
 11
14610.02958141817
 21
3363.0
 31
0.0
  0
LINE
  5
1ABE0
330
747D
100
AcDbEntity
  8
細線
 48
5.0
100
AcDbLine
 10
14554.04554596898
 20
3343.0
 30
0.0
 11
14610.02958141817
 21
3342.999999999998
 31
0.0
  0
LINE
  5
1ABE1
330
747D
100
AcDbEntity
  8
細線
 48
5.0
100
AcDbLine
 10
14557.62958141816
 20
4307.5
 30
0.0
 11
14610.02958141817
 21
4307.500000000001
 31
0.0
  0
LINE
  5
1ABE2
330
747D
100
AcDbEntity
  8
細線
 48
5.0
100
AcDbLine
 10
14557.62958141816
 20
4287.5
 30
0.0
 11
14610.02958141817
 21
4287.5
 31
0.0
  0
LINE
  5
1ABE3
330
747D
100
AcDbEntity
  8
細線
 48
5.0
100
AcDbLine
 10
14610.02958141817
 20
4307.5
 30
0.0
 11
14610.02958141817
 21
4287.5
 31
0.0
  0
LINE
  5
1ABE4
330
747D
100
AcDbEntity
  8
細線
 48
5.0
100
AcDbLine
 10
14557.62958141816
 20
4307.5
 30
0.0
 11
14557.62958141816
 21
4287.5
 31
0.0
  0
ARC
  5
1ABE5
330
747D
100
AcDbEntity
  8
細線
 48
5.0
100
AcDbCircle
 10
14552.32958141817
 20
5319.809238873037
 30
0.0
 40
1.0
100
AcDbArc
 50
90.0
 51
180.0
  0
LINE
  5
1ABE6
330
747D
100
AcDbEntity
  8
細線
 48
5.0
100
AcDbLine
 10
14556.52958141817
 20
5300.809238873037
 30
0.0
 11
14551.81820325259
 21
5306.245444448709
 31
0.0
  0
ARC
  5
1ABE7
330
747D
100
AcDbEntity
  8
細線
 48
5.0
100
AcDbCircle
 10
14563.82958141817
 20
5320.809238873036
 30
0.0
 40
10.0
100
AcDbArc
 50
180.0
 51
270.0
  0
LINE
  5
1ABE8
330
747D
100
AcDbEntity
  8
細線
 48
5.0
100
AcDbLine
 10
14532.82958141817
 20
5360.0
 30
0.0
 11
14553.82958141817
 21
5360.0
 31
0.0
  0
ARC
  5
1ABE9
330
747D
100
AcDbEntity
  8
細線
 48
5.0
100
AcDbCircle
 10
14549.82958141817
 20
5308.0
 30
0.0
 40
3.0
100
AcDbArc
 50
270.0
 51
317.6846849512558
  0
LINE
  5
1ABEA
330
747D
100
AcDbEntity
  8
細線
 48
5.0
100
AcDbLine
 10
14532.82958141817
 20
5271.400000000001
 30
0.0
 11
14551.95677218061
 21
5252.846624960439
 31
0.0
  0
LINE
  5
1ABEB
330
747D
100
AcDbEntity
  8
細線
 48
5.0
100
AcDbLine
 10
14532.82958141817
 20
5232.0
 30
0.0
 11
14610.02958141817
 21
5232.0
 31
0.0
  0
ARC
  5
1ABEC
330
747D
100
AcDbEntity
  8
細線
 48
5.0
100
AcDbCircle
 10
14554.04554596898
 20
5255.0
 30
0.0
 40
3.0
100
AcDbArc
 50
225.8724571229025
 51
270.0000000000009
  0
DIMENSION
  5
1ABED
330
747D
100
AcDbEntity
  8
寸法
 48
50.0
100
AcDbDimension
  2
*D12
 10
14627.82958141817
 20
6238.281130716521
 30
0.0
 11
14960.38863653628
 21
6238.281130716521
 31
0.0
 12
341.0117701604176
 22
-11877.52646466355
 32
0.0
 70
   160
 71
     5
 42
-1.0
  3
INABA_S50G
100
AcDbAlignedDimension
 13
14532.82958141817
 23
5488.33701822684
 33
0.0
 14
14627.82958141817
 24
5485.0
 34
0.0
100
AcDbRotatedDimension
1001
ACAD
1000
DSTYLE
1002
{
1002
}
  0
LINE
  5
1ABEE
330
747D
100
AcDbEntity
  8
部品1
100
AcDbLine
 10
14532.82958141817
 20
5315.0
 30
0.0
 11
14532.82958141817
 21
5275.0
 31
0.0
  0
ARC
  5
1ABEF
330
747D
100
AcDbEntity
  8
細線
 48
5.0
100
AcDbCircle
 10
14553.32958141817
 20
5307.555305525544
 30
0.0
 40
2.0
100
AcDbArc
 50
179.9999999999999
 51
220.914383220025
  0
LINE
  5
1ABF0
330
747D
100
AcDbEntity
  8
細線
 48
5.0
100
AcDbLine
 10
14551.32958141817
 20
5319.809238873037
 30
0.0
 11
14551.32958141817
 21
5307.555305525544
 31
0.0
  0
LINE
  5
1ABF1
330
747D
100
AcDbEntity
  8
細線
 48
5.0
100
AcDbLine
 10
14532.82958141817
 20
5305.0
 30
0.0
 11
14549.82958141817
 21
5305.0
 31
0.0
  0
LINE
  5
1ABF2
330
747D
100
AcDbEntity
  8
細線
 48
5.0
100
AcDbLine
 10
14608.82958141817
 20
5345.809238873036
 30
0.0
 11
14613.82958141817
 21
5345.809238873036
 31
0.0
  0
LINE
  5
1ABF3
330
747D
100
AcDbEntity
  8
細線
 48
5.0
100
AcDbLine
 10
14562.52958141816
 20
5362.221485768852
 30
0.0
 11
14562.52958141817
 21
5350.509238873037
 31
0.0
  0
LINE
  5
1ABF4
330
747D
100
AcDbEntity
  8
細線
 48
5.0
100
AcDbLine
 10
14613.82958141817
 20
5320.809238873036
 30
0.0
 11
14615.32958141817
 21
5320.809238873036
 31
0.0
  0
LINE
  5
1ABF5
330
747D
100
AcDbEntity
  8
細線
 48
5.0
100
AcDbLine
 10
14608.82958141817
 20
5335.509238873037
 30
0.0
 11
14608.82958141817
 21
5345.809238873036
 31
0.0
  0
LINE
  5
1ABF6
330
747D
100
AcDbEntity
  8
細線
 48
5.0
100
AcDbLine
 10
14608.82958141817
 20
5345.809238873036
 30
0.0
 11
14608.82958141817
 21
5345.809238873036
 31
0.0
  0
LINE
  5
1ABF7
330
747D
100
AcDbEntity
  8
細線
 48
5.0
100
AcDbLine
 10
14614.32958141817
 20
5320.809238873036
 30
0.0
 11
14614.32958141817
 21
5320.809238873036
 31
0.0
  0
ARC
  5
1ABF8
330
747D
100
AcDbEntity
  8
細線
 48
5.0
100
AcDbCircle
 10
14615.32958141817
 20
5319.809238873037
 30
0.0
 40
1.0
100
AcDbArc
 50
0.0
 51
90.0
  0
LINE
  5
1ABF9
330
747D
100
AcDbEntity
  8
細線
 48
5.0
100
AcDbLine
 10
14604.62958141816
 20
5333.009238873037
 30
0.0
 11
14604.62958141816
 21
5333.009238873037
 31
0.0
  0
ARC
  5
1ABFA
330
747D
100
AcDbEntity
  8
細線
 48
5.0
100
AcDbCircle
 10
14607.12958141817
 20
5333.009238873037
 30
0.0
 40
2.5
100
AcDbArc
 50
90.0
 51
180.0
  0
ARC
  5
1ABFB
330
747D
100
AcDbEntity
  8
細線
 48
5.0
100
AcDbCircle
 10
14602.12958141816
 20
5333.009238873037
 30
0.0
 40
2.5
100
AcDbArc
 50
270.0
 51
0.0
  0
LINE
  5
1ABFC
330
747D
100
AcDbEntity
  8
細線
 48
5.0
100
AcDbLine
 10
14607.12958141817
 20
5335.509238873037
 30
0.0
 11
14608.82958141817
 21
5335.509238873037
 31
0.0
  0
LINE
  5
1ABFD
330
747D
100
AcDbEntity
  8
細線
 48
5.0
100
AcDbLine
 10
14613.82958141817
 20
5320.809238873036
 30
0.0
 11
14613.82958141817
 21
5345.809238873036
 31
0.0
  0
LINE
  5
1ABFE
330
747D
100
AcDbEntity
  8
細線
 48
5.0
100
AcDbLine
 10
14552.32958141817
 20
5320.809238873036
 30
0.0
 11
14553.82958141817
 21
5320.809238873036
 31
0.0
  0
LINE
  5
1ABFF
330
747D
100
AcDbEntity
  8
細線
 48
5.0
100
AcDbLine
 10
14553.32958141817
 20
5320.809238873036
 30
0.0
 11
14553.32958141817
 21
5320.809238873036
 31
0.0
  0
LINE
  5
1AC00
330
747D
100
AcDbEntity
  8
細線
 48
5.0
100
AcDbLine
 10
14553.82958141817
 20
5359.809238873037
 30
0.0
 11
14553.82958141817
 21
5332.809238873037
 31
0.0
  0
LINE
  5
1AC01
330
747D
100
AcDbEntity
  8
細線
 48
5.0
100
AcDbLine
 10
14553.82958141817
 20
5362.522428701861
 30
0.0
 11
14553.82958141817
 21
5320.809238873036
 31
0.0
  0
ARC
  5
1AC02
330
747D
100
AcDbEntity
  8
細線
 48
5.0
100
AcDbCircle
 10
14582.52958141817
 20
5350.509238873037
 30
0.0
 40
20.0
100
AcDbArc
 50
180.0
 51
270.0
  0
LINE
  5
1AC03
330
747D
100
AcDbEntity
  8
細線
 48
5.0
100
AcDbLine
 10
14582.52958141817
 20
5330.509238873037
 30
0.0
 11
14602.12958141816
 21
5330.509238873037
 31
0.0
  0
LINE
  5
1AC04
330
747D
100
AcDbEntity
  8
細線
 48
5.0
100
AcDbLine
 10
14611.12958141816
 20
5300.809238873037
 30
0.0
 11
14615.84095958375
 21
5306.245444448709
 31
0.0
  0
ARC
  5
1AC05
330
747D
100
AcDbEntity
  8
細線
 48
5.0
100
AcDbCircle
 10
14614.32958141817
 20
5307.555305525544
 30
0.0
 40
2.0
100
AcDbArc
 50
319.0856167799749
 51
359.9999999999999
  0
ARC
  5
1AC06
330
747D
100
AcDbEntity
  8
細線
 48
5.0
100
AcDbCircle
 10
14610.62958141816
 20
5287.309238873036
 30
0.0
 40
0.5
100
AcDbArc
 50
270.0
 51
0.0
  0
LINE
  5
1AC07
330
747D
100
AcDbEntity
  8
細線
 48
5.0
100
AcDbLine
 10
14608.82958141817
 20
5286.809238873036
 30
0.0
 11
14608.82958141817
 21
5252.0
 31
0.0
  0
LINE
  5
1AC08
330
747D
100
AcDbEntity
  8
細線
 48
5.0
100
AcDbLine
 10
14595.82958141816
 20
5286.809238873036
 30
0.0
 11
14595.82958141817
 21
5252.0
 31
0.0
  0
LINE
  5
1AC09
330
747D
100
AcDbEntity
  8
細線
 48
5.0
100
AcDbLine
 10
14611.12958141816
 20
5300.809238873037
 30
0.0
 11
14611.12958141816
 21
5287.309238873036
 31
0.0
  0
LINE
  5
1AC0A
330
747D
100
AcDbEntity
  8
細線
 48
5.0
100
AcDbLine
 10
14592.82958141817
 20
5290.809238873037
 30
0.0
 11
14592.82958141817
 21
5286.809238873036
 31
0.0
  0
LINE
  5
1AC0B
330
747D
100
AcDbEntity
  8
細線
 48
5.0
100
AcDbLine
 10
14577.82958141817
 20
5293.809238873037
 30
0.0
 11
14589.82958141817
 21
5293.809238873037
 31
0.0
  0
LINE
  5
1AC0C
330
747D
100
AcDbEntity
  8
細線
 48
5.0
100
AcDbLine
 10
14574.82958141817
 20
5290.809238873037
 30
0.0
 11
14574.82958141817
 21
5286.809238873036
 31
0.0
  0
LINE
  5
1AC0D
330
747D
100
AcDbEntity
  8
細線
 48
5.0
100
AcDbLine
 10
14571.82958141817
 20
5286.809238873036
 30
0.0
 11
14571.82958141817
 21
5252.0
 31
0.0
  0
ARC
  5
1AC0E
330
747D
100
AcDbEntity
  8
細線
 48
5.0
100
AcDbCircle
 10
14577.82958141817
 20
5290.809238873037
 30
0.0
 40
3.0
100
AcDbArc
 50
90.0
 51
180.0
  0
ARC
  5
1AC0F
330
747D
100
AcDbEntity
  8
細線
 48
5.0
100
AcDbCircle
 10
14557.02958141817
 20
5287.309238873036
 30
0.0
 40
0.5
100
AcDbArc
 50
180.0
 51
270.0
  0
LINE
  5
1AC10
330
747D
100
AcDbEntity
  8
細線
 48
5.0
100
AcDbLine
 10
14558.82958141816
 20
5286.809238873036
 30
0.0
 11
14558.82958141817
 21
5252.0
 31
0.0
  0
LINE
  5
1AC11
330
747D
100
AcDbEntity
  8
細線
 48
5.0
100
AcDbLine
 10
14556.52958141817
 20
5300.809238873037
 30
0.0
 11
14556.52958141817
 21
5287.309238873036
 31
0.0
  0
LINE
  5
1AC12
330
747D
100
AcDbEntity
  8
細線
 48
5.0
100
AcDbLine
 10
14563.82958141817
 20
5310.809238873037
 30
0.0
 11
14603.82958141817
 21
5310.809238873037
 31
0.0
  0
LINE
  5
1AC13
330
747D
100
AcDbEntity
  8
細線
 48
5.0
100
AcDbLine
 10
14557.02958141817
 20
5286.809238873036
 30
0.0
 11
14610.62958141816
 21
5286.809238873036
 31
0.0
  0
ARC
  5
1AC14
330
747D
100
AcDbEntity
  8
細線
 48
5.0
100
AcDbCircle
 10
14589.82958141817
 20
5290.809238873037
 30
0.0
 40
3.0
100
AcDbArc
 50
0.0
 51
90.0
  0
ARC
  5
1AC15
330
747D
100
AcDbEntity
  8
細線
 48
5.0
100
AcDbCircle
 10
14603.82958141817
 20
5320.809238873036
 30
0.0
 40
10.0
100
AcDbArc
 50
270.0
 51
0.0
  0
LINE
  5
1AC16
330
747D
100
AcDbEntity
  8
細線
 48
5.0
100
AcDbLine
 10
14616.32958141817
 20
5319.809238873037
 30
0.0
 11
14616.32958141817
 21
5307.555305525544
 31
0.0
  0
LINE
  5
1AC17
330
747D
100
AcDbEntity
  8
部品1
100
AcDbLine
 10
14608.33578614472
 20
5477.055403573377
 30
0.0
 11
14605.71977994811
 21
5484.088160010451
 31
0.0
  0
LINE
  5
1AC18
330
747D
100
AcDbEntity
  8
部品1
100
AcDbLine
 10
14627.74287520147
 20
5458.848097685026
 30
0.0
 11
14619.54444257119
 21
5381.821266955434
 31
0.0
  0
LINE
  5
1AC19
330
747D
100
AcDbEntity
  8
部品1
100
AcDbLine
 10
14616.17676303539
 20
5378.52600755111
 30
0.0
 11
14615.77792395765
 21
5374.778790062708
 31
0.0
  0
ARC
  5
1AC1A
330
747D
100
AcDbEntity
  8
部品1
 48
50.0
100
AcDbCircle
 10
14618.3511825403
 20
5381.948272855596
 30
0.0
 40
1.199999999999999
100
AcDbArc
 50
274.830006122604
 51
353.924536124901
  0
ARC
  5
1AC1B
330
747D
100
AcDbEntity
  8
部品1
 48
50.0
100
AcDbCircle
 10
14618.66272143308
 20
5378.261411925771
 30
0.0
 40
2.5
100
AcDbArc
 50
94.83000612260093
 51
173.9245361249088
  0
ARC
  5
1AC1C
330
747D
100
AcDbEntity
  8
部品1
100
AcDbCircle
 10
14612.32958141817
 20
5460.485286065472
 30
0.0
 40
15.5
100
AcDbArc
 50
353.924536124901
 51
88.13874351680366
  0
LINE
  5
1AC1D
330
747D
100
AcDbEntity
  8
細線
 48
50.0
100
AcDbLine
 10
14590.47695745481
 20
5486.840994369817
 30
0.0
 11
14586.40042839358
 21
5361.39576591803
 31
0.0
  0
ARC
  5
1AC1E
330
747D
100
AcDbEntity
  8
部品1
100
AcDbCircle
 10
14602.43937643105
 20
5482.867933488349
 30
0.0
 40
3.5
100
AcDbArc
 50
20.40391857757644
 51
88.96475328401214
  0
ARC
  5
1AC1F
330
747D
100
AcDbEntity
  8
部品1
100
AcDbCircle
 10
14600.36498189196
 20
5376.419282939831
 30
0.0
 40
15.5
100
AcDbArc
 50
269.0887044041854
 51
353.9245361249208
  0
ARC
  5
1AC20
330
747D
100
AcDbEntity
  8
部品1
100
AcDbCircle
 10
14609.76128014115
 20
5477.525647802748
 30
0.0
 40
1.5
100
AcDbArc
 50
200.4039185775898
 51
269.0981540988988
  0
LINE
  5
1AC21
330
747D
100
AcDbEntity
  8
部品1
 48
50.0
100
AcDbLine
 10
14609.73767084558
 20
5476.025833613869
 30
0.0
 11
14612.83301119892
 21
5475.977108374543
 31
0.0
  0
LINE
  5
1AC22
330
747D
100
AcDbEntity
  8
細線
 48
5.0
100
AcDbLine
 10
14554.04554596898
 20
5252.0
 30
0.0
 11
14610.02958141817
 21
5252.0
 31
0.0
  0
LINE
  5
1AC23
330
747D
100
AcDbEntity
  8
細線
 48
5.0
100
AcDbLine
 10
14610.02958141817
 20
5252.0
 30
0.0
 11
14610.02958141817
 21
5232.0
 31
0.0
  0
LINE
  5
1AC24
330
747D
100
AcDbEntity
  8
細線
 48
5.0
100
AcDbLine
 10
14557.62958141817
 20
5252.0
 30
0.0
 11
14557.62958141816
 21
5232.0
 31
0.0
  0
DIMENSION
  5
1B883
330
747D
100
AcDbEntity
  8
寸法
 48
50.0
100
AcDbDimension
  2
*D33
 10
9274.165333801152
 20
9298.736797361975
 30
0.0
 11
9274.165333801152
 21
8996.177742243862
 31
0.0
 12
12716.54707835649
 22
1485.454153590039
 32
0.0
 70
   160
 71
     5
 42
-1.0
  3
INABA_S50G
100
AcDbAlignedDimension
 13
8452.829581418178
 23
9228.736797361971
 33
0.0
 14
8462.829581418178
 24
9298.736797361975
 34
0.0
 50
90.0
100
AcDbRotatedDimension
  0
DIMENSION
  5
1B884
330
747D
100
AcDbEntity
  8
寸法
 48
50.0
100
AcDbDimension
  2
*D32
 10
9576.969337719759
 20
9278.736797361975
 30
0.0
 11
9576.969337719759
 21
8991.689553267482
 31
0.0
 12
12716.54707835649
 22
1485.454153590039
 32
0.0
 70
   160
 71
     5
 42
-1.0
  3
INABA_S50G
100
AcDbAlignedDimension
 13
8452.829581418178
 23
9228.736797361971
 33
0.0
 14
9274.165333801148
 24
9278.736797361975
 34
0.0
 50
90.0
100
AcDbRotatedDimension
  0
DIMENSION
  5
1B885
330
747D
100
AcDbEntity
  8
寸法
 48
50.0
100
AcDbDimension
  2
*D29
 10
5236.198601638506
 20
9160.736797361609
 30
0.0
 11
5236.198601638506
 21
8923.748608385231
 31
0.0
 12
12716.54707835649
 22
1485.454153590039
 32
0.0
 70
   160
 71
     5
 42
-1.0
  3
INABA_S50G
100
AcDbAlignedDimension
 13
6012.829581418174
 23
9228.736797361971
 33
0.0
 14
6646.829581418174
 24
9160.736797361609
 34
0.0
 50
90.0
100
AcDbRotatedDimension
  0
DIMENSION
  5
1B886
330
747D
100
AcDbEntity
  8
寸法
 48
50.0
100
AcDbDimension
  2
*D27
 10
8462.829581418178
 20
7967.428503410812
 30
0.0
 11
6652.829581418176
 21
8067.443267190339
 31
0.0
 12
12716.54707835649
 22
1485.454153590039
 32
0.0
 70
    32
 71
     5
 42
-1.0
  3
INABA_S50G
100
AcDbAlignedDimension
 13
6002.829581418173
 23
9238.736797361971
 33
0.0
 14
8462.829581418178
 24
9238.736797361973
 34
0.0
100
AcDbRotatedDimension
  0
DIMENSION
  5
1B887
330
747D
100
AcDbEntity
  8
寸法
 48
50.0
100
AcDbDimension
  2
*D26
 10
7762.829581418175
 20
8532.273498070642
 30
0.0
 11
6637.829581418175
 21
8757.273498070642
 31
0.0
 12
12716.54707835649
 22
1485.454153590039
 32
0.0
 70
    32
  1
有効開口部間口\P<>
 71
     5
 42
-1.0
  3
INABA_S50G
100
AcDbAlignedDimension
 13
6672.829581418175
 23
9160.736797361609
 33
0.0
 14
7762.829581418175
 24
9160.736797361609
 34
0.0
100
AcDbRotatedDimension
  0
DIMENSION
  5
1B888
330
747D
100
AcDbEntity
  8
寸法
 48
50.0
100
AcDbDimension
  2
*D35
 10
8412.829581418183
 20
11237.51516613338
 30
0.0
 11
7232.829581418177
 21
11337.52992991291
 31
0.0
 70
    32
  1
内部寸法 <>
 71
     5
 42
-1.0
  3
INABA_S50G
100
AcDbAlignedDimension
 13
6052.829581418171
 23
10938.76878223262
 33
0.0
 14
8412.829581418183
 24
10938.76878223262
 34
0.0
100
AcDbRotatedDimension
1001
ACAD
1000
DSTYLE
1002
{
1070
   287
1070
     4
1070
    75
1070
     1
1070
   279
1070
     1
1002
}
  0
LINE
  5
1B889
330
747D
100
AcDbEntity
  8
部品1
 62
     2
 48
50.0
100
AcDbLine
 10
6948.329581418173
 20
9178.73679736161
 30
0.0
 11
6663.829581418174
 21
9178.73679736161
 31
0.0
  0
LINE
  5
1B88A
330
747D
100
AcDbEntity
  8
部品1
 62
     2
 48
50.0
100
AcDbLine
 10
6672.82958141817
 20
9292.236797361971
 30
0.0
 11
7783.329581418172
 21
9292.236797361971
 31
0.0
  0
LINE
  5
1B88B
330
747D
100
AcDbEntity
  8
部品1
 62
     2
 48
50.0
100
AcDbLine
 10
6672.82958141817
 20
9262.03679736197
 30
0.0
 11
7783.329581418172
 21
9262.03679736197
 31
0.0
  0
LINE
  5
1B88C
330
747D
100
AcDbEntity
  8
部品1
 62
     2
 48
50.0
100
AcDbLine
 10
6672.82958141817
 20
9248.536797361969
 30
0.0
 11
7783.329581418172
 21
9248.536797361969
 31
0.0
  0
LINE
  5
1B88D
330
747D
100
AcDbEntity
  8
部品1
 62
     2
 48
50.0
100
AcDbLine
 10
7257.829581418175
 20
9165.736797361608
 30
0.0
 11
6663.829581418174
 21
9165.736797361608
 31
0.0
  0
LINE
  5
1B88E
330
747D
100
AcDbEntity
  8
部品1
 62
     2
 48
50.0
100
AcDbLine
 10
6673.829581418175
 20
9187.736797361608
 30
0.0
 11
7247.829581418175
 21
9187.736797361608
 31
0.0
  0
LINE
  5
1B88F
330
747D
100
AcDbEntity
  8
部品1
 62
     2
 48
50.0
100
AcDbLine
 10
7236.329581418177
 20
9210.73679736161
 30
0.0
 11
6662.829581418176
 21
9210.73679736161
 31
0.0
  0
LINE
  5
1B890
330
747D
100
AcDbEntity
  8
部品1
 48
50.0
100
AcDbLine
 10
8452.829581418175
 20
10528.73679736197
 30
0.0
 11
6012.829581418174
 21
10528.73679736197
 31
0.0
  0
LINE
  5
1B891
330
747D
100
AcDbEntity
  8
部品1
 48
50.0
100
AcDbLine
 10
8412.829581418177
 20
10478.73679736197
 30
0.0
 11
6052.829581418174
 21
10478.73679736197
 31
0.0
  0
LINE
  5
1B892
330
747D
100
AcDbEntity
  8
部品1
 48
50.0
100
AcDbLine
 10
8427.829581418178
 20
10493.73679736197
 30
0.0
 11
6037.829581418173
 21
10493.73679736197
 31
0.0
  0
LINE
  5
1B893
330
747D
100
AcDbEntity
  8
細線
 48
50.0
100
AcDbLine
 10
8412.829581418177
 20
10469.73679736197
 30
0.0
 11
6061.829581418175
 21
10469.73679736197
 31
0.0
  0
LINE
  5
1B894
330
747D
100
AcDbEntity
  8
部品1
 62
     2
 48
50.0
100
AcDbLine
 10
8398.829581418175
 20
9160.736797361609
 30
0.0
 11
6646.829581418174
 21
9160.736797361609
 31
0.0
  0
LINE
  5
1B895
330
747D
100
AcDbEntity
  8
部品1
 62
     2
 48
50.0
100
AcDbLine
 10
7802.829581418179
 20
9228.736797361969
 30
0.0
 11
6652.829581418174
 21
9228.736797361969
 31
0.0
  0
DIMENSION
  5
1B896
330
747D
100
AcDbEntity
  8
寸法
 48
50.0
100
AcDbDimension
  2
*D22
 10
8392.829581418176
 20
10938.76878223262
 30
0.0
 11
7232.829581418176
 21
11038.78354601214
 31
0.0
 70
    32
  1
4x580=<>
 71
     5
 42
-1.0
  3
INABA_S50G
100
AcDbAlignedDimension
 13
6072.829581418175
 23
10528.73679736197
 33
0.0
 14
8392.829581418176
 24
10528.73679736197
 34
0.0
100
AcDbRotatedDimension
1001
ACAD
1000
DSTYLE
1002
{
1070
   287
1070
     4
1070
    75
1070
     1
1070
   279
1070
     1
1002
}
  0
LINE
  5
1B897
330
747D
100
AcDbEntity
  8
部品1
 48
50.0
100
AcDbLine
 10
6002.829581418173
 20
10518.73679736197
 30
0.0
 11
6002.829581418173
 21
9238.736797361971
 31
0.0
  0
LINE
  5
1B898
330
747D
100
AcDbEntity
  8
部品1
 48
50.0
100
AcDbLine
 10
6052.829581418174
 20
10478.73679736197
 30
0.0
 11
6052.829581418171
 21
9278.73679736197
 31
0.0
  0
LINE
  5
1B899
330
747D
100
AcDbEntity
  8
部品1
 48
50.0
100
AcDbLine
 10
6037.829581418173
 20
10493.73679736196
 30
0.0
 11
6037.829581418173
 21
9263.736797361971
 31
0.0
  0
LINE
  5
1B89A
330
747D
100
AcDbEntity
  8
細線
 48
50.0
100
AcDbLine
 10
6061.829581418175
 20
10478.73679736197
 30
0.0
 11
6061.829581418173
 21
9287.73679736197
 31
0.0
  0
LINE
  5
1B89B
330
747D
100
AcDbEntity
  8
細線
 48
50.0
100
AcDbLine
 10
6378.829581418166
 20
9287.73679736197
 30
0.0
 11
6378.829581418166
 21
10469.73679736197
 31
0.0
  0
DIMENSION
  5
1B89C
330
747D
100
AcDbEntity
  8
寸法
 48
50.0
100
AcDbDimension
  2
*D28
 10
5236.198601638506
 20
9228.736797361971
 30
0.0
 11
4556.198601638505
 21
9878.736797361973
 31
0.0
 12
580.0
 22
0.0
 32
0.0
 70
    32
 71
     5
 42
-1.0
  3
INABA_S50G
100
AcDbAlignedDimension
 13
6012.829581418174
 23
10528.73679736197
 33
0.0
 14
6012.829581418174
 24
9228.736797361971
 34
0.0
 50
90.0
100
AcDbRotatedDimension
  0
LINE
  5
1B89D
330
747D
100
AcDbEntity
  8
部品1
 48
50.0
100
AcDbLine
 10
6012.829581418174
 20
9228.736797361971
 30
0.0
 11
6646.829581418174
 21
9228.736797361781
 31
0.0
  0
LINE
  5
1B89E
330
747D
100
AcDbEntity
  8
部品1
 48
50.0
100
AcDbLine
 10
6052.829581418171
 20
9278.73679736197
 30
0.0
 11
6670.829581418172
 21
9278.736797361974
 31
0.0
  0
LINE
  5
1B89F
330
747D
100
AcDbEntity
  8
部品1
 48
50.0
100
AcDbLine
 10
6037.829581418173
 20
9263.736797361971
 30
0.0
 11
6670.829581418172
 21
9263.736797361948
 31
0.0
  0
LINE
  5
1B8A0
330
747D
100
AcDbEntity
  8
細線
 48
50.0
100
AcDbLine
 10
6052.829581418171
 20
9287.73679736197
 30
0.0
 11
6643.329581418171
 21
9287.73679736197
 31
0.0
  0
ARC
  5
1B8A1
330
747D
100
AcDbEntity
  8
部品1
 48
50.0
100
AcDbCircle
 10
6012.829581418174
 20
9238.736797361971
 30
0.0
 40
10.0
100
AcDbArc
 50
180.0
 51
270.0
  0
LINE
  5
1B8A2
330
747D
100
AcDbEntity
  8
部品1
 48
50.0
100
AcDbLine
 10
6002.829581418176
 20
9298.736797361975
 30
0.0
 11
6037.829581418177
 21
9298.736797361973
 31
0.0
  0
LINE
  5
1B8A3
330
747D
100
AcDbEntity
  8
部品1
 48
50.0
100
AcDbLine
 10
6037.829581418177
 20
9280.736797361969
 30
0.0
 11
6052.829581418176
 21
9280.736797361969
 31
0.0
  0
LINE
  5
1B8A4
330
747D
100
AcDbEntity
  8
部品1
 48
50.0
100
AcDbLine
 10
6037.829581418177
 20
9316.736797361969
 30
0.0
 11
6052.829581418176
 21
9316.736797361969
 31
0.0
  0
LINE
  5
1B8A5
330
747D
100
AcDbEntity
  8
部品1
 48
50.0
100
AcDbLine
 10
6054.829581418172
 20
9263.736797361975
 30
0.0
 11
6054.829581418172
 21
9278.736797361975
 31
0.0
  0
LINE
  5
1B8A6
330
747D
100
AcDbEntity
  8
部品1
 48
50.0
100
AcDbLine
 10
6090.829581418171
 20
9263.736797361975
 30
0.0
 11
6090.829581418171
 21
9278.736797361975
 31
0.0
  0
LINE
  5
1B8A7
330
747D
100
AcDbEntity
  8
部品1
 48
50.0
100
AcDbLine
 10
6072.829581418171
 20
9263.736797361975
 30
0.0
 11
6072.829581418175
 21
9228.736797361973
 31
0.0
  0
LINE
  5
1B8A8
330
747D
100
AcDbEntity
  8
部品1
 62
     2
 48
50.0
100
AcDbLine
 10
6646.829581418174
 20
9160.736797361609
 30
0.0
 11
6646.829581418174
 21
9228.736797361971
 31
0.0
  0
LINE
  5
1B8A9
330
747D
100
AcDbEntity
  8
部品1
 62
     2
 48
50.0
100
AcDbLine
 10
6662.829581418176
 20
9160.736797361609
 30
0.0
 11
6662.829581418176
 21
9228.736797361971
 31
0.0
  0
LINE
  5
1B8AA
330
747D
100
AcDbEntity
  8
部品1
 62
     2
 48
50.0
100
AcDbLine
 10
6663.829581418174
 20
9165.736797361608
 30
0.0
 11
6663.829581418174
 21
9194.73679736161
 31
0.0
  0
LINE
  5
1B8AB
330
747D
100
AcDbEntity
  8
部品1
 62
     2
 48
50.0
100
AcDbLine
 10
6663.829581418174
 20
9194.73679736161
 30
0.0
 11
6673.829581418175
 21
9194.73679736161
 31
0.0
  0
LINE
  5
1B8AC
330
747D
100
AcDbEntity
  8
部品1
 62
     2
 48
50.0
100
AcDbLine
 10
6673.829581418175
 20
9194.73679736161
 30
0.0
 11
6673.829581418175
 21
9187.736797361608
 31
0.0
  0
LINE
  5
1B8AD
330
747D
100
AcDbEntity
  8
部品1
 62
     2
 48
50.0
100
AcDbLine
 10
6663.829581418174
 20
9176.736797361609
 30
0.0
 11
6662.829581418176
 21
9176.736797361609
 31
0.0
  0
LINE
  5
1B8AE
330
747D
100
AcDbEntity
  8
部品1
 62
     2
 48
50.0
100
AcDbLine
 10
6685.329581418175
 20
9187.736797361608
 30
0.0
 11
6685.329581418175
 21
9179.736797361609
 31
0.0
  0
LINE
  5
1B8AF
330
747D
100
AcDbEntity
  8
部品1
 62
     2
 48
50.0
100
AcDbLine
 10
6672.82958141817
 20
9287.73679736197
 30
0.0
 11
6643.329581418171
 21
9287.73679736197
 31
0.0
  0
LINE
  5
1B8B0
330
747D
100
AcDbEntity
  8
部品1
 62
     2
 48
50.0
100
AcDbLine
 10
6643.329581418171
 20
9287.73679736197
 30
0.0
 11
6643.329581418171
 21
9278.73679736197
 31
0.0
  0
LINE
  5
1B8B1
330
747D
100
AcDbEntity
  8
部品1
 62
     2
 48
50.0
100
AcDbLine
 10
6672.82958141817
 20
9292.236797361971
 30
0.0
 11
6672.82958141817
 21
9228.736797361969
 31
0.0
  0
LINE
  5
1B8B2
330
747D
100
AcDbEntity
  8
部品1
 48
50.0
100
AcDbLine
 10
6670.829581418171
 20
9263.736797361975
 30
0.0
 11
6670.829581418171
 21
9278.736797361975
 31
0.0
  0
LINE
  5
1B8B3
330
747D
100
AcDbEntity
  8
部品1
 48
50.0
100
AcDbLine
 10
6634.829581418171
 20
9263.736797361975
 30
0.0
 11
6634.829581418171
 21
9278.736797361975
 31
0.0
  0
LINE
  5
1B8B4
330
747D
100
AcDbEntity
  8
部品1
 48
50.0
100
AcDbLine
 10
6652.829581418171
 20
9263.736797361975
 30
0.0
 11
6652.829581418174
 21
9228.736797361973
 31
0.0
  0
LINE
  5
1B8B5
330
747D
100
AcDbEntity
  8
部品1
 48
50.0
100
AcDbLine
 10
6037.829581418177
 20
9896.73679736197
 30
0.0
 11
6052.829581418176
 21
9896.73679736197
 31
0.0
  0
LINE
  5
1B8B6
330
747D
100
AcDbEntity
  8
部品1
 48
50.0
100
AcDbLine
 10
6037.829581418177
 20
9860.736797361971
 30
0.0
 11
6052.829581418176
 21
9860.736797361971
 31
0.0
  0
LINE
  5
1B8B7
330
747D
100
AcDbEntity
  8
部品1
 48
50.0
100
AcDbLine
 10
6002.829581418176
 20
9878.736797361975
 30
0.0
 11
6037.829581418177
 21
9878.736797361973
 31
0.0
  0
DIMENSION
  5
1B8BE
330
747D
100
AcDbEntity
  8
寸法
 48
50.0
100
AcDbDimension
  2
*D24
 10
6052.829581418171
 20
11237.51516613338
 30
0.0
 11
5645.270526300063
 21
11237.51516613338
 31
0.0
 12
12716.54707835649
 22
325.4541535900389
 32
0.0
 70
   160
 71
     5
 42
-1.0
  3
INABA_S50G
100
AcDbAlignedDimension
 13
6002.829581418173
 23
10518.73679736197
 33
0.0
 14
6052.829581418171
 24
10938.76878223262
 34
0.0
100
AcDbRotatedDimension
  0
DIMENSION
  5
1B8BF
330
747D
100
AcDbEntity
  8
寸法
 48
50.0
100
AcDbDimension
  2
*D23
 10
6072.829581418175
 20
10938.76878223262
 30
0.0
 11
5760.270526300063
 21
10938.76878223262
 31
0.0
 12
12716.54707835649
 22
325.4541535900389
 32
0.0
 70
   160
 71
     5
 42
-1.0
  3
INABA_S50G
100
AcDbAlignedDimension
 13
6002.829581418173
 23
10518.73679736197
 33
0.0
 14
6072.829581418175
 24
10528.73679736197
 34
0.0
100
AcDbRotatedDimension
  0
ARC
  5
1B8C0
330
747D
100
AcDbEntity
  8
部品1
 48
50.0
100
AcDbCircle
 10
6012.829581418174
 20
10518.73679736197
 30
0.0
 40
10.0
100
AcDbArc
 50
90.0
 51
180.0
  0
LINE
  5
1B8C1
330
747D
100
AcDbEntity
  8
部品1
 48
50.0
100
AcDbLine
 10
6090.829581418171
 20
10493.73679736197
 30
0.0
 11
6090.829581418171
 21
10478.73679736197
 31
0.0
  0
LINE
  5
1B8C2
330
747D
100
AcDbEntity
  8
部品1
 48
50.0
100
AcDbLine
 10
6072.829581418171
 20
10493.73679736197
 30
0.0
 11
6072.829581418175
 21
10528.73679736197
 31
0.0
  0
LINE
  5
1B8C3
330
747D
100
AcDbEntity
  8
部品1
 48
50.0
100
AcDbLine
 10
6054.829581418172
 20
10493.73679736197
 30
0.0
 11
6054.829581418172
 21
10478.73679736197
 31
0.0
  0
LINE
  5
1B8C4
330
747D
100
AcDbEntity
  8
部品1
 48
50.0
100
AcDbLine
 10
6037.829581418173
 20
10476.73679736196
 30
0.0
 11
6052.829581418173
 21
10476.73679736196
 31
0.0
  0
LINE
  5
1B8C5
330
747D
100
AcDbEntity
  8
部品1
 48
50.0
100
AcDbLine
 10
6037.829581418173
 20
10440.73679736196
 30
0.0
 11
6052.829581418173
 21
10440.73679736196
 31
0.0
  0
LINE
  5
1B8C6
330
747D
100
AcDbEntity
  8
部品1
 48
50.0
100
AcDbLine
 10
6002.829581418173
 20
10458.73679736197
 30
0.0
 11
6037.829581418173
 21
10458.73679736197
 31
0.0
  0
LINE
  5
1B8C7
330
747D
100
AcDbEntity
  8
部品1
 48
50.0
100
AcDbLine
 10
6670.829581418171
 20
10493.73679736233
 30
0.0
 11
6670.829581418171
 21
10478.73679736233
 31
0.0
  0
LINE
  5
1B8C8
330
747D
100
AcDbEntity
  8
部品1
 48
50.0
100
AcDbLine
 10
6652.829581418171
 20
10493.73679736233
 30
0.0
 11
6652.829581418174
 21
10528.73679736233
 31
0.0
  0
LINE
  5
1B8C9
330
747D
100
AcDbEntity
  8
部品1
 48
50.0
100
AcDbLine
 10
6634.829581418171
 20
10493.73679736233
 30
0.0
 11
6634.829581418171
 21
10478.73679736233
 31
0.0
  0
LINE
  5
1B8CA
330
747D
100
AcDbEntity
  8
部品1
 48
50.0
100
AcDbLine
 10
8462.829581418178
 20
9238.736797361973
 30
0.0
 11
8462.829581418175
 21
10518.73679736197
 31
0.0
  0
LINE
  5
1B8CB
330
747D
100
AcDbEntity
  8
部品1
 48
50.0
100
AcDbLine
 10
8412.829581418177
 20
9278.73679736197
 30
0.0
 11
8412.829581418177
 21
10478.73679736197
 31
0.0
  0
LINE
  5
1B8CC
330
747D
100
AcDbEntity
  8
部品1
 48
50.0
100
AcDbLine
 10
8427.829581418178
 20
9263.736797361971
 30
0.0
 11
8427.829581418178
 21
10493.73679736197
 31
0.0
  0
LINE
  5
1B8CD
330
747D
100
AcDbEntity
  8
細線
 48
50.0
100
AcDbLine
 10
8403.829581418177
 20
10469.73679736197
 30
0.0
 11
8403.829581418177
 21
9278.736797361975
 31
0.0
  0
DIMENSION
  5
1B8CE
330
747D
100
AcDbEntity
  8
寸法
 48
50.0
100
AcDbDimension
  2
*D31
 10
9576.969337719754
 20
10478.73679736197
 30
0.0
 11
8896.954573940227
 21
9878.736797361975
 31
0.0
 12
580.0
 22
0.0
 32
0.0
 70
    32
  1
内部寸法 <>
 71
     5
 42
-1.0
  3
INABA_S50G
100
AcDbAlignedDimension
 13
9274.165333801148
 23
9278.736797361975
 33
0.0
 14
9274.165333801146
 24
10478.73679736197
 34
0.0
 50
90.0
100
AcDbRotatedDimension
1001
ACAD
1000
DSTYLE
1002
{
1002
}
  0
DIMENSION
  5
1B8CF
330
747D
100
AcDbEntity
  8
寸法
 48
50.0
100
AcDbDimension
  2
*D30
 10
9274.165333801146
 20
10458.73679736197
 30
0.0
 11
8594.150570021618
 21
9878.736797361975
 31
0.0
 12
580.0
 22
0.0
 32
0.0
 70
    32
  1
2x580=<>
 71
     5
 42
-1.0
  3
INABA_S50G
100
AcDbAlignedDimension
 13
8462.829581418178
 23
9298.736797361975
 33
0.0
 14
8462.829581418178
 24
10458.73679736197
 34
0.0
 50
90.0
100
AcDbRotatedDimension
1001
ACAD
1000
DSTYLE
1002
{
1002
}
  0
LINE
  5
1B8D0
330
747D
100
AcDbEntity
  8
細線
 48
50.0
100
AcDbLine
 10
8118.829581418166
 20
9287.73679736197
 30
0.0
 11
8118.829581418166
 21
10469.73679736197
 31
0.0
  0
LINE
  5
1B8D1
330
747D
100
AcDbEntity
  8
細線
 48
50.0
100
AcDbLine
 10
6958.829581418166
 20
9292.236797361972
 30
0.0
 11
6958.829581418166
 21
10469.73679736197
 31
0.0
  0
LINE
  5
1B8D2
330
747D
100
AcDbEntity
  8
細線
 48
50.0
100
AcDbLine
 10
7538.829581418167
 20
9292.236797361971
 30
0.0
 11
7538.829581418166
 21
10469.73679736197
 31
0.0
  0
LINE
  5
1B8D5
330
747D
100
AcDbEntity
  8
部品1
 48
50.0
100
AcDbLine
 10
8462.829581418175
 20
9878.736797361975
 30
0.0
 11
8427.829581418174
 21
9878.736797361973
 31
0.0
  0
LINE
  5
1B8D6
330
747D
100
AcDbEntity
  8
部品1
 48
50.0
100
AcDbLine
 10
8462.829581418175
 20
9298.736797361975
 30
0.0
 11
8427.829581418174
 21
9298.736797361973
 31
0.0
  0
LINE
  5
1B8D7
330
747D
100
AcDbEntity
  8
部品1
 48
50.0
100
AcDbLine
 10
8392.829581418171
 20
9228.736797361971
 30
0.0
 11
8452.829581418178
 21
9228.736797361973
 31
0.0
  0
LINE
  5
1B8D8
330
747D
100
AcDbEntity
  8
部品1
 62
     2
 48
50.0
100
AcDbLine
 10
8382.829581418175
 20
9176.736797361609
 30
0.0
 11
7257.829581418175
 21
9176.736797361609
 31
0.0
  0
LINE
  5
1B8D9
330
747D
100
AcDbEntity
  8
部品1
 62
     2
 48
50.0
100
AcDbLine
 10
7236.329581418172
 20
9221.736797361609
 30
0.0
 11
7820.329581418175
 21
9221.736797361609
 31
0.0
  0
LINE
  5
1B8DA
330
747D
100
AcDbEntity
  8
部品1
 62
     2
 48
50.0
100
AcDbLine
 10
7830.329581418175
 20
9199.736797361609
 30
0.0
 11
7246.329581418175
 21
9199.736797361609
 31
0.0
  0
LINE
  5
1B8DB
330
747D
100
AcDbEntity
  8
部品1
 62
     2
 48
50.0
100
AcDbLine
 10
7830.329581418175
 20
9212.736797361609
 30
0.0
 11
7545.829581418172
 21
9212.736797361609
 31
0.0
  0
LINE
  5
1B8DC
330
747D
100
AcDbEntity
  8
部品1
 62
     2
 48
50.0
100
AcDbLine
 10
7830.329581418175
 20
9212.736797361609
 30
0.0
 11
7545.829581418172
 21
9212.736797361609
 31
0.0
  0
LINE
  5
1B8DD
330
747D
100
AcDbEntity
  8
部品1
 62
     2
 48
50.0
100
AcDbLine
 10
7257.829581418175
 20
9178.73679736161
 30
0.0
 11
6973.329581418173
 21
9178.73679736161
 31
0.0
  0
LINE
  5
1B8DE
330
747D
100
AcDbEntity
  8
部品1
 62
     2
 48
50.0
100
AcDbLine
 10
6979.079581418175
 20
9180.736797361609
 30
0.0
 11
6982.579581418175
 21
9177.23679736161
 31
0.0
  0
LINE
  5
1B8DF
330
747D
100
AcDbEntity
  8
部品1
 62
     2
 48
50.0
100
AcDbLine
 10
6933.329581418172
 20
9166.736797361609
 30
0.0
 11
6948.329581418173
 21
9166.736797361609
 31
0.0
  0
LINE
  5
1B8E0
330
747D
100
AcDbEntity
  8
部品1
 62
     2
 48
50.0
100
AcDbLine
 10
6948.329581418173
 20
9166.736797361609
 30
0.0
 11
6948.329581418173
 21
9180.736797361609
 31
0.0
  0
LINE
  5
1B8E1
330
747D
100
AcDbEntity
  8
部品1
 62
     2
 48
50.0
100
AcDbLine
 10
6948.329581418173
 20
9180.736797361609
 30
0.0
 11
6953.329581418173
 21
9180.736797361609
 31
0.0
  0
LINE
  5
1B8E2
330
747D
100
AcDbEntity
  8
部品1
 62
     2
 48
50.0
100
AcDbLine
 10
6953.329581418173
 20
9180.736797361609
 30
0.0
 11
6953.329581418173
 21
9177.736797361609
 31
0.0
  0
LINE
  5
1B8E3
330
747D
100
AcDbEntity
  8
部品1
 62
     2
 48
50.0
100
AcDbLine
 10
6953.329581418173
 20
9177.736797361609
 30
0.0
 11
6968.329581418173
 21
9177.736797361609
 31
0.0
  0
LINE
  5
1B8E4
330
747D
100
AcDbEntity
  8
部品1
 62
     2
 48
50.0
100
AcDbLine
 10
6973.329581418173
 20
9166.736797361609
 30
0.0
 11
6973.329581418173
 21
9180.736797361609
 31
0.0
  0
LINE
  5
1B8E5
330
747D
100
AcDbEntity
  8
部品1
 62
     2
 48
50.0
100
AcDbLine
 10
6968.329581418173
 20
9180.736797361609
 30
0.0
 11
6968.329581418173
 21
9177.736797361609
 31
0.0
  0
LINE
  5
1B8E6
330
747D
100
AcDbEntity
  8
部品1
 62
     2
 48
50.0
100
AcDbLine
 10
6973.329581418173
 20
9180.736797361609
 30
0.0
 11
6968.329581418173
 21
9180.736797361609
 31
0.0
  0
LINE
  5
1B8E7
330
747D
100
AcDbEntity
  8
部品1
 62
     2
 48
50.0
100
AcDbLine
 10
6942.579581418176
 20
9180.736797361609
 30
0.0
 11
6939.079581418174
 21
9177.23679736161
 31
0.0
  0
LINE
  5
1B8E8
330
747D
100
AcDbEntity
  8
部品1
 62
     2
 48
50.0
100
AcDbLine
 10
6988.329581418174
 20
9166.736797361609
 30
0.0
 11
6973.329581418173
 21
9166.736797361609
 31
0.0
  0
LINE
  5
1B8E9
330
747D
100
AcDbEntity
  8
部品1
 62
     2
 48
50.0
100
AcDbLine
 10
6942.579581418176
 20
9180.736797361609
 30
0.0
 11
6979.079581418175
 21
9180.736797361609
 31
0.0
  0
LINE
  5
1B8EA
330
747D
100
AcDbEntity
  8
部品1
 62
     2
 48
50.0
100
AcDbLine
 10
7236.329581418175
 20
9189.736797361609
 30
0.0
 11
7236.329581418175
 21
9221.736797361611
 31
0.0
  0
LINE
  5
1B8EB
330
747D
100
AcDbEntity
  8
部品1
 62
     2
 48
50.0
100
AcDbLine
 10
7247.829581418175
 20
9187.736797361608
 30
0.0
 11
7247.829581418175
 21
9194.73679736161
 31
0.0
  0
LINE
  5
1B8EC
330
747D
100
AcDbEntity
  8
部品1
 62
     2
 48
50.0
100
AcDbLine
 10
7247.829581418175
 20
9194.73679736161
 30
0.0
 11
7257.829581418175
 21
9194.73679736161
 31
0.0
  0
LINE
  5
1B8ED
330
747D
100
AcDbEntity
  8
部品1
 62
     2
 48
50.0
100
AcDbLine
 10
7257.829581418175
 20
9194.73679736161
 30
0.0
 11
7257.829581418175
 21
9165.736797361608
 31
0.0
  0
LINE
  5
1B8EE
330
747D
100
AcDbEntity
  8
部品1
 62
     2
 48
50.0
100
AcDbLine
 10
7236.329581418175
 20
9189.736797361609
 30
0.0
 11
7246.329581418175
 21
9189.736797361609
 31
0.0
  0
LINE
  5
1B8EF
330
747D
100
AcDbEntity
  8
部品1
 62
     2
 48
50.0
100
AcDbLine
 10
7246.329581418175
 20
9189.736797361609
 30
0.0
 11
7246.329581418173
 21
9199.736797361609
 31
0.0
  0
LINE
  5
1B8F0
330
747D
100
AcDbEntity
  8
部品1
 62
     2
 48
50.0
100
AcDbLine
 10
7236.329581418175
 20
9187.736797361608
 30
0.0
 11
7236.329581418175
 21
9179.736797361609
 31
0.0
  0
LINE
  5
1B8F1
330
747D
100
AcDbEntity
  8
部品1
 62
     2
 48
50.0
100
AcDbLine
 10
7520.829581418173
 20
9212.736797361609
 30
0.0
 11
7236.329581418175
 21
9212.736797361609
 31
0.0
  0
LINE
  5
1B8F2
330
747D
100
AcDbEntity
  8
部品1
 62
     2
 48
50.0
100
AcDbLine
 10
7520.829581418173
 20
9212.736797361609
 30
0.0
 11
7236.329581418175
 21
9212.736797361609
 31
0.0
  0
LINE
  5
1B8F3
330
747D
100
AcDbEntity
  8
部品1
 62
     2
 48
50.0
100
AcDbLine
 10
7257.829581418173
 20
9221.736797361609
 30
0.0
 11
7257.829581418173
 21
9213.73679736161
 31
0.0
  0
LINE
  5
1B8F4
330
747D
100
AcDbEntity
  8
部品1
 62
     2
 48
50.0
100
AcDbLine
 10
7515.079581418175
 20
9214.736797361609
 30
0.0
 11
7551.579581418174
 21
9214.736797361609
 31
0.0
  0
LINE
  5
1B8F5
330
747D
100
AcDbEntity
  8
部品1
 62
     2
 48
50.0
100
AcDbLine
 10
7545.829581418172
 20
9214.736797361609
 30
0.0
 11
7540.829581418172
 21
9214.736797361609
 31
0.0
  0
LINE
  5
1B8F6
330
747D
100
AcDbEntity
  8
部品1
 62
     2
 48
50.0
100
AcDbLine
 10
7515.079581418175
 20
9214.736797361609
 30
0.0
 11
7511.579581418175
 21
9211.236797361609
 31
0.0
  0
LINE
  5
1B8F7
330
747D
100
AcDbEntity
  8
部品1
 62
     2
 48
50.0
100
AcDbLine
 10
7520.829581418173
 20
9214.736797361609
 30
0.0
 11
7525.829581418173
 21
9214.736797361609
 31
0.0
  0
LINE
  5
1B8F8
330
747D
100
AcDbEntity
  8
部品1
 62
     2
 48
50.0
100
AcDbLine
 10
7525.829581418173
 20
9214.736797361609
 30
0.0
 11
7525.829581418173
 21
9211.736797361609
 31
0.0
  0
LINE
  5
1B8F9
330
747D
100
AcDbEntity
  8
部品1
 62
     2
 48
50.0
100
AcDbLine
 10
7525.829581418173
 20
9211.736797361609
 30
0.0
 11
7540.829581418172
 21
9211.736797361609
 31
0.0
  0
LINE
  5
1B8FA
330
747D
100
AcDbEntity
  8
部品1
 62
     2
 48
50.0
100
AcDbLine
 10
7540.829581418172
 20
9214.736797361609
 30
0.0
 11
7540.829581418172
 21
9211.736797361609
 31
0.0
  0
LINE
  5
1B8FB
330
747D
100
AcDbEntity
  8
部品1
 62
     2
 48
50.0
100
AcDbLine
 10
7505.829581418173
 20
9200.73679736161
 30
0.0
 11
7520.829581418173
 21
9200.73679736161
 31
0.0
  0
LINE
  5
1B8FC
330
747D
100
AcDbEntity
  8
部品1
 62
     2
 48
50.0
100
AcDbLine
 10
7520.829581418173
 20
9200.73679736161
 30
0.0
 11
7520.829581418173
 21
9214.736797361609
 31
0.0
  0
LINE
  5
1B8FD
330
747D
100
AcDbEntity
  8
部品1
 62
     2
 48
50.0
100
AcDbLine
 10
7551.579581418174
 20
9214.736797361609
 30
0.0
 11
7555.079581418175
 21
9211.236797361609
 31
0.0
  0
LINE
  5
1B8FE
330
747D
100
AcDbEntity
  8
部品1
 62
     2
 48
50.0
100
AcDbLine
 10
7560.829581418173
 20
9200.73679736161
 30
0.0
 11
7545.829581418172
 21
9200.73679736161
 31
0.0
  0
LINE
  5
1B8FF
330
747D
100
AcDbEntity
  8
部品1
 62
     2
 48
50.0
100
AcDbLine
 10
7545.829581418172
 20
9200.73679736161
 30
0.0
 11
7545.829581418172
 21
9214.736797361609
 31
0.0
  0
LINE
  5
1B900
330
747D
100
AcDbEntity
  8
部品1
 62
     2
 48
50.0
100
AcDbLine
 10
8392.829581418174
 20
9233.736797361972
 30
0.0
 11
7818.829581418173
 21
9233.736797361968
 31
0.0
  0
LINE
  5
1B901
330
747D
100
AcDbEntity
  8
細線
 48
50.0
100
AcDbLine
 10
7812.829581418172
 20
9287.73679736197
 30
0.0
 11
8403.829581418177
 21
9287.73679736197
 31
0.0
  0
LINE
  5
1B902
330
747D
100
AcDbEntity
  8
部品1
 62
     2
 48
50.0
100
AcDbLine
 10
8382.829581418175
 20
9210.73679736161
 30
0.0
 11
7830.329581418175
 21
9210.73679736161
 31
0.0
  0
LINE
  5
1B903
330
747D
100
AcDbEntity
  8
部品1
 62
     2
 48
50.0
100
AcDbLine
 10
7794.829581418172
 20
9278.736797361792
 30
0.0
 11
8374.829581418172
 21
9278.736797361792
 31
0.0
  0
LINE
  5
1B904
330
747D
100
AcDbEntity
  8
部品1
 62
     2
 48
50.0
100
AcDbLine
 10
7794.829581418172
 20
9263.736797361792
 30
0.0
 11
8374.829581418172
 21
9263.736797361969
 31
0.0
  0
LINE
  5
1B905
330
747D
100
AcDbEntity
  8
部品1
 62
     2
 48
50.0
100
AcDbLine
 10
7830.329581418175
 20
9228.736797361611
 30
0.0
 11
7830.329581418175
 21
9199.736797361609
 31
0.0
  0
LINE
  5
1B906
330
747D
100
AcDbEntity
  8
部品1
 62
     2
 48
50.0
100
AcDbLine
 10
7830.829581418171
 20
9263.736797361792
 30
0.0
 11
7830.829581418171
 21
9278.736797361792
 31
0.0
  0
LINE
  5
1B907
330
747D
100
AcDbEntity
  8
部品1
 62
     2
 48
50.0
100
AcDbLine
 10
7812.829581418171
 20
9278.736797361792
 30
0.0
 11
7812.829581418171
 21
9287.73679736197
 31
0.0
  0
LINE
  5
1B908
330
747D
100
AcDbEntity
  8
部品1
 62
     2
 48
50.0
100
AcDbLine
 10
7802.829581418176
 20
9263.736797361799
 30
0.0
 11
7802.829581418176
 21
9223.736797361794
 31
0.0
  0
LINE
  5
1B909
330
747D
100
AcDbEntity
  8
部品1
 62
     2
 48
50.0
100
AcDbLine
 10
7802.829581418176
 20
9223.736797361794
 30
0.0
 11
7818.829581418177
 21
9223.736797361848
 31
0.0
  0
LINE
  5
1B90A
330
747D
100
AcDbEntity
  8
部品1
 62
     2
 48
50.0
100
AcDbLine
 10
7818.829581418174
 20
9233.736797361968
 30
0.0
 11
7818.829581418177
 21
9223.736797361794
 31
0.0
  0
LINE
  5
1B90B
330
747D
100
AcDbEntity
  8
部品1
 62
     2
 48
50.0
100
AcDbLine
 10
7820.329581418175
 20
9228.736797361611
 30
0.0
 11
7830.329581418175
 21
9228.736797361611
 31
0.0
  0
LINE
  5
1B90C
330
747D
100
AcDbEntity
  8
部品1
 62
     2
 48
50.0
100
AcDbLine
 10
7820.329581418175
 20
9221.736797361609
 30
0.0
 11
7820.329581418175
 21
9228.736797361611
 31
0.0
  0
LINE
  5
1B90D
330
747D
100
AcDbEntity
  8
部品1
 62
     2
 48
50.0
100
AcDbLine
 10
7808.829581418175
 20
9221.736797361609
 30
0.0
 11
7808.829581418175
 21
9213.73679736161
 31
0.0
  0
LINE
  5
1B90E
330
747D
100
AcDbEntity
  8
部品1
 62
     2
 48
50.0
100
AcDbLine
 10
7832.829581418177
 20
9263.736797361795
 30
0.0
 11
7832.829581418177
 21
9259.236797361795
 31
0.0
  0
LINE
  5
1B90F
330
747D
100
AcDbEntity
  8
部品1
 62
     2
 48
50.0
100
AcDbLine
 10
7794.829581418172
 20
9263.736797361792
 30
0.0
 11
7794.829581418172
 21
9278.736797361792
 31
0.0
  0
LINE
  5
1B910
330
747D
100
AcDbEntity
  8
部品1
 62
     2
 48
50.0
100
AcDbLine
 10
7783.329581418172
 20
9292.236797361971
 30
0.0
 11
7783.329581418172
 21
9228.736797361971
 31
0.0
  0
LINE
  5
1B911
330
747D
100
AcDbEntity
  8
部品1
 62
     2
 48
50.0
100
AcDbLine
 10
7812.829581418172
 20
9287.73679736197
 30
0.0
 11
7783.329581418172
 21
9287.73679736197
 31
0.0
  0
LINE
  5
1B912
330
747D
100
AcDbEntity
  8
部品1
 62
     2
 48
50.0
100
AcDbLine
 10
8398.829581418175
 20
9228.736797361792
 30
0.0
 11
8398.829581418175
 21
9160.73679736179
 31
0.0
  0
LINE
  5
1B913
330
747D
100
AcDbEntity
  8
部品1
 62
     2
 48
50.0
100
AcDbLine
 10
8382.829581418175
 20
9228.736797361792
 30
0.0
 11
8382.829581418175
 21
9160.73679736179
 31
0.0
  0
LINE
  5
1B914
330
747D
100
AcDbEntity
  8
部品1
 62
     2
 48
50.0
100
AcDbLine
 10
8065.329581418174
 20
9234.73679736197
 30
0.0
 11
8080.329581418174
 21
9234.73679736197
 31
0.0
  0
LINE
  5
1B915
330
747D
100
AcDbEntity
  8
部品1
 62
     2
 48
50.0
100
AcDbLine
 10
8080.329581418174
 20
9234.73679736197
 30
0.0
 11
8085.329581418175
 21
9262.73679736197
 31
0.0
  0
LINE
  5
1B916
330
747D
100
AcDbEntity
  8
部品1
 62
     2
 48
50.0
100
AcDbLine
 10
8085.329581418175
 20
9262.73679736197
 30
0.0
 11
8110.329581418175
 21
9262.73679736197
 31
0.0
  0
LINE
  5
1B917
330
747D
100
AcDbEntity
  8
部品1
 62
     2
 48
50.0
100
AcDbLine
 10
8130.329581418175
 20
9234.73679736197
 30
0.0
 11
8115.329581418174
 21
9234.73679736197
 31
0.0
  0
LINE
  5
1B918
330
747D
100
AcDbEntity
  8
部品1
 62
     2
 48
50.0
100
AcDbLine
 10
8115.329581418174
 20
9234.73679736197
 30
0.0
 11
8110.329581418175
 21
9262.73679736197
 31
0.0
  0
LINE
  5
1B919
330
747D
100
AcDbEntity
  8
部品1
 48
50.0
100
AcDbLine
 10
8392.829581418174
 20
9263.736797361973
 30
0.0
 11
8392.829581418178
 21
9228.736797361971
 31
0.0
  0
LINE
  5
1B91A
330
747D
100
AcDbEntity
  8
部品1
 48
50.0
100
AcDbLine
 10
8374.829581418174
 20
9263.736797361973
 30
0.0
 11
8374.829581418174
 21
9278.736797361974
 31
0.0
  0
LINE
  5
1B91B
330
747D
100
AcDbEntity
  8
部品1
 48
50.0
100
AcDbLine
 10
8410.829581418175
 20
9263.736797361973
 30
0.0
 11
8410.829581418175
 21
9278.736797361974
 31
0.0
  0
LINE
  5
1B91C
330
747D
100
AcDbEntity
  8
部品1
 48
50.0
100
AcDbLine
 10
8374.829581418168
 20
9278.73679736197
 30
0.0
 11
8412.829581418177
 21
9278.73679736197
 31
0.0
  0
LINE
  5
1B91D
330
747D
100
AcDbEntity
  8
部品1
 62
     2
 48
50.0
100
AcDbLine
 10
8372.829581418175
 20
9233.736797361791
 30
0.0
 11
8372.829581418175
 21
9228.736797361971
 31
0.0
  0
LINE
  5
1B91E
330
747D
100
AcDbEntity
  8
部品1
 62
     2
 48
50.0
100
AcDbLine
 10
8392.829581418174
 20
9228.736797361971
 30
0.0
 11
8372.829581418175
 21
9228.736797361971
 31
0.0
  0
LINE
  5
1B91F
330
747D
100
AcDbEntity
  8
部品1
 62
     2
 48
50.0
100
AcDbLine
 10
8365.329581418171
 20
9263.736797361792
 30
0.0
 11
8365.329581418171
 21
9259.236797361792
 31
0.0
  0
LINE
  5
1B920
330
747D
100
AcDbEntity
  8
部品1
 48
50.0
100
AcDbLine
 10
8427.829581418174
 20
9316.736797361969
 30
0.0
 11
8412.829581418176
 21
9316.736797361969
 31
0.0
  0
LINE
  5
1B921
330
747D
100
AcDbEntity
  8
部品1
 48
50.0
100
AcDbLine
 10
8427.829581418174
 20
9280.736797361969
 30
0.0
 11
8412.829581418176
 21
9280.736797361969
 31
0.0
  0
LINE
  5
1B922
330
747D
100
AcDbEntity
  8
部品1
 48
50.0
100
AcDbLine
 10
8374.829581418172
 20
9263.736797361969
 30
0.0
 11
8427.829581418178
 21
9263.736797361973
 31
0.0
  0
LINE
  5
1B923
330
747D
100
AcDbEntity
  8
部品1
 48
50.0
100
AcDbLine
 10
8427.829581418174
 20
9860.736797361971
 30
0.0
 11
8412.829581418176
 21
9860.736797361971
 31
0.0
  0
LINE
  5
1B924
330
747D
100
AcDbEntity
  8
部品1
 48
50.0
100
AcDbLine
 10
8427.829581418174
 20
9896.73679736197
 30
0.0
 11
8412.829581418176
 21
9896.73679736197
 31
0.0
  0
ARC
  5
1B929
330
747D
100
AcDbEntity
  8
部品1
 48
50.0
100
AcDbCircle
 10
8452.829581418178
 20
9238.736797361973
 30
0.0
 40
10.0
100
AcDbArc
 50
270.0
 51
0.0
  0
LINE
  5
1B92A
330
747D
100
AcDbEntity
  8
部品1
 48
50.0
100
AcDbLine
 10
8462.829581418178
 20
10458.73679736197
 30
0.0
 11
8427.829581418178
 21
10458.73679736197
 31
0.0
  0
DIMENSION
  5
1B92B
330
747D
100
AcDbEntity
  8
寸法
 48
50.0
100
AcDbDimension
  2
*D21
 10
8462.829581418178
 20
11237.51516613338
 30
0.0
 11
8820.388636536289
 21
11237.51516613338
 31
0.0
 12
12716.54707835649
 22
325.4541535900389
 32
0.0
 70
   160
 71
     5
 42
-1.0
  3
INABA_S50G
100
AcDbAlignedDimension
 13
8412.829581418183
 23
10938.76878223262
 33
0.0
 14
8462.829581418178
 24
10518.73679736197
 34
0.0
100
AcDbRotatedDimension
1001
ACAD
1000
DSTYLE
1002
{
1002
}
  0
DIMENSION
  5
1B92C
330
747D
100
AcDbEntity
  8
寸法
 48
50.0
100
AcDbDimension
  2
*D20
 10
8462.829581418178
 20
10938.76878223262
 30
0.0
 11
8725.388636536287
 21
10938.76878223262
 31
0.0
 12
12716.54707835649
 22
325.4541535900389
 32
0.0
 70
   160
 71
     5
 42
-1.0
  3
INABA_S50G
100
AcDbAlignedDimension
 13
8392.829581418178
 23
10528.73679736197
 33
0.0
 14
8462.829581418178
 24
10518.73679736197
 34
0.0
100
AcDbRotatedDimension
1001
ACAD
1000
DSTYLE
1002
{
1002
}
  0
LINE
  5
1B92D
330
747D
100
AcDbEntity
  8
部品1
 48
50.0
100
AcDbLine
 10
7214.829581418171
 20
10493.73679736227
 30
0.0
 11
7214.829581418171
 21
10478.73679736227
 31
0.0
  0
LINE
  5
1B92E
330
747D
100
AcDbEntity
  8
部品1
 48
50.0
100
AcDbLine
 10
7250.82958141817
 20
10493.73679736227
 30
0.0
 11
7250.82958141817
 21
10478.73679736227
 31
0.0
  0
LINE
  5
1B92F
330
747D
100
AcDbEntity
  8
部品1
 48
50.0
100
AcDbLine
 10
7232.829581418172
 20
10493.73679736227
 30
0.0
 11
7232.829581418174
 21
10528.73679736227
 31
0.0
  0
LINE
  5
1B930
330
747D
100
AcDbEntity
  8
部品1
 48
50.0
100
AcDbLine
 10
7830.829581418171
 20
10493.73679736221
 30
0.0
 11
7830.829581418171
 21
10478.73679736221
 31
0.0
  0
LINE
  5
1B931
330
747D
100
AcDbEntity
  8
部品1
 48
50.0
100
AcDbLine
 10
7812.829581418171
 20
10493.73679736221
 30
0.0
 11
7812.829581418175
 21
10528.73679736221
 31
0.0
  0
LINE
  5
1B932
330
747D
100
AcDbEntity
  8
部品1
 48
50.0
100
AcDbLine
 10
7794.829581418172
 20
10493.73679736221
 30
0.0
 11
7794.829581418172
 21
10478.73679736221
 31
0.0
  0
LINE
  5
1B933
330
747D
100
AcDbEntity
  8
部品1
 48
50.0
100
AcDbLine
 10
8392.829581418174
 20
10493.73679736197
 30
0.0
 11
8392.829581418178
 21
10528.73679736197
 31
0.0
  0
LINE
  5
1B934
330
747D
100
AcDbEntity
  8
部品1
 48
50.0
100
AcDbLine
 10
8374.829581418174
 20
10493.73679736197
 30
0.0
 11
8374.829581418174
 21
10478.73679736197
 31
0.0
  0
LINE
  5
1B935
330
747D
100
AcDbEntity
  8
部品1
 48
50.0
100
AcDbLine
 10
8410.829581418175
 20
10493.73679736197
 30
0.0
 11
8410.829581418175
 21
10478.73679736197
 31
0.0
  0
LINE
  5
1B936
330
747D
100
AcDbEntity
  8
部品1
 48
50.0
100
AcDbLine
 10
8427.829581418178
 20
10440.73679736196
 30
0.0
 11
8412.829581418177
 21
10440.73679736196
 31
0.0
  0
LINE
  5
1B937
330
747D
100
AcDbEntity
  8
部品1
 48
50.0
100
AcDbLine
 10
8427.829581418178
 20
10476.73679736196
 30
0.0
 11
8412.829581418177
 21
10476.73679736196
 31
0.0
  0
DIMENSION
  5
1B938
330
747D
100
AcDbEntity
  8
寸法
 48
50.0
100
AcDbDimension
  2
*D34
 10
9274.165333801148
 20
10528.73679736197
 30
0.0
 11
9274.165333801148
 21
10761.29585248008
 31
0.0
 12
12716.54707835649
 22
325.4541535900389
 32
0.0
 70
   160
 71
     5
 42
-1.0
  3
INABA_S50G
100
AcDbAlignedDimension
 13
8462.829581418178
 23
10458.73679736197
 33
0.0
 14
8452.829581418175
 24
10528.73679736197
 34
0.0
 50
90.0
100
AcDbRotatedDimension
1001
ACAD
1000
DSTYLE
1002
{
1002
}
  0
DIMENSION
  5
1B939
330
747D
100
AcDbEntity
  8
寸法
 48
50.0
100
AcDbDimension
  2
*D25
 10
9576.969337719758
 20
10528.73679736197
 30
0.0
 11
9576.969337719758
 21
10886.29585248008
 31
0.0
 12
12716.54707835649
 22
325.4541535900389
 32
0.0
 70
   160
 71
     5
 42
-1.0
  3
INABA_S50G
100
AcDbAlignedDimension
 13
9274.165333801146
 23
10478.73679736197
 33
0.0
 14
8452.829581418175
 24
10528.73679736197
 34
0.0
 50
90.0
100
AcDbRotatedDimension
1001
ACAD
1000
DSTYLE
1002
{
1002
}
  0
ARC
  5
1B93A
330
747D
100
AcDbEntity
  8
部品1
 48
50.0
100
AcDbCircle
 10
8452.829581418175
 20
10518.73679736197
 30
0.0
 40
10.0
100
AcDbArc
 50
0.0
 51
90.0
  0
LINE
  5
1B93B
330
747D
100
AcDbEntity
  8
部品1
 48
50.0
100
AcDbLine
 10
8462.829581418173
 20
5410.000001569558
 30
0.0
 11
8462.829581418175
 21
3140.0
 31
0.0
  0
DIMENSION
  5
1B93C
330
747D
100
AcDbEntity
  8
寸法
 48
50.0
100
AcDbDimension
  2
*D17
 10
9118.934533249726
 20
5302.0
 30
0.0
 11
9018.934533249725
 21
4322.000000000001
 31
0.0
 70
    32
  1
内高 <>
 71
     5
 42
-1.0
  3
INABA_S50G
100
AcDbAlignedDimension
 13
8462.829581418175
 23
3342.0
 33
0.0
 14
8462.829581418173
 24
5302.0
 34
0.0
 50
90.0
100
AcDbRotatedDimension
1001
ACAD
1000
DSTYLE
1002
{
1070
   287
1070
     4
1070
    75
1070
     1
1070
   279
1070
     1
1002
}
  0
LINE
  5
1B93D
330
747D
100
AcDbEntity
  8
部品1
 62
     2
 48
50.0
100
AcDbLine
 10
8398.829581418175
 20
5187.0
 30
0.0
 11
8398.829581418175
 21
3275.0
 31
0.0
  0
LINE
  5
1B93E
330
747D
100
AcDbEntity
  8
部品1
 62
     2
 48
50.0
100
AcDbLine
 10
8374.829581418174
 20
5149.5
 30
0.0
 11
8374.829581418174
 21
3323.999999999999
 31
0.0
  0
LINE
  5
1B93F
330
747D
100
AcDbEntity
  8
部品1
 62
     2
 48
50.0
100
AcDbLine
 10
7830.329581418175
 20
5149.5
 30
0.0
 11
7830.329581418173
 21
3333.0
 31
0.0
  0
LINE
  5
1B940
330
747D
100
AcDbEntity
  8
部品1
 48
50.0
100
AcDbLine
 10
6002.829581418175
 20
5410.000001569567
 30
0.0
 11
6002.829581418175
 21
3140.0
 31
0.0
  0
LINE
  5
1B941
330
747D
100
AcDbEntity
  8
部品1
 48
50.0
100
AcDbLine
 10
6072.829581418175
 20
5275.0
 30
0.0
 11
6072.829581418175
 21
3275.0
 31
0.0
  0
LINE
  5
1B942
330
747D
100
AcDbEntity
  8
部品1
 62
     2
 48
50.0
100
AcDbLine
 10
6646.829581418174
 20
5187.0
 30
0.0
 11
6646.829581418174
 21
3275.0
 31
0.0
  0
LINE
  5
1B943
330
747D
100
AcDbEntity
  8
部品1
 62
     2
 48
50.0
100
AcDbLine
 10
6670.829581418175
 20
5149.5
 30
0.0
 11
6670.829581418172
 21
3323.999999999999
 31
0.0
  0
LINE
  5
1B944
330
747D
100
AcDbEntity
  8
部品1
 62
     2
 48
50.0
100
AcDbLine
 10
7257.829581418175
 20
5149.5
 30
0.0
 11
7257.829581418175
 21
3326.0
 31
0.0
  0
LINE
  5
1B945
330
747D
100
AcDbEntity
  8
部品1
 62
     2
 48
50.0
100
AcDbLine
 10
6670.829581418172
 20
3326.0
 30
0.0
 11
7257.829581418175
 21
3326.0
 31
0.0
  0
LINE
  5
1B946
330
747D
100
AcDbEntity
  8
部品1
 48
50.0
100
AcDbLine
 10
6002.829581418175
 20
3275.0
 30
0.0
 11
8462.829581418176
 21
3275.0
 31
0.0
  0
LINE
  5
1B947
330
747D
100
AcDbEntity
  8
部品1
 62
     2
 48
50.0
100
AcDbLine
 10
6662.829581418174
 20
3323.999999999999
 30
0.0
 11
8382.829581418176
 21
3323.999999999999
 31
0.0
  0
LINE
  5
1B948
330
747D
100
AcDbEntity
  8
破線
 48
5.0
100
AcDbLine
 10
5997.829581418177
 20
3140.0
 30
0.0
 11
5997.829581418177
 21
3030.0
 31
0.0
  0
LINE
  5
1B949
330
747D
100
AcDbEntity
  8
破線
 48
5.0
100
AcDbLine
 10
6102.829581418177
 20
3140.0
 30
0.0
 11
6102.829581418177
 21
2939.999999999999
 31
0.0
  0
LINE
  5
1B94A
330
747D
100
AcDbEntity
  8
破線
 48
5.0
100
AcDbLine
 10
5902.829581418177
 20
3140.0
 30
0.0
 11
5902.829581418177
 21
2939.999999999999
 31
0.0
  0
LINE
  5
1B94B
330
747D
100
AcDbEntity
  8
破線
 48
5.0
100
AcDbLine
 10
5977.829581418177
 20
3030.0
 30
0.0
 11
5997.829581418178
 21
3030.0
 31
0.0
  0
LINE
  5
1B94C
330
747D
100
AcDbEntity
  8
破線
 48
5.0
100
AcDbLine
 10
5902.829581418177
 20
2939.999999999999
 30
0.0
 11
6102.829581418178
 21
2939.999999999999
 31
0.0
  0
LINE
  5
1B94D
330
747D
100
AcDbEntity
  8
部品1
 48
50.0
100
AcDbLine
 10
6072.829581418174
 20
3330.000000000001
 30
0.0
 11
6646.829581418174
 21
3330.000000000001
 31
0.0
  0
LINE
  5
1B94E
330
747D
100
AcDbEntity
  8
部品1
100
AcDbLine
 10
5997.829581418177
 20
3314.999999999999
 30
0.0
 11
5997.829581418177
 21
3140.0
 31
0.0
  0
LINE
  5
1B94F
330
747D
100
AcDbEntity
  8
部品1
 48
50.0
100
AcDbLine
 10
6402.829581418174
 20
3275.0
 30
0.0
 11
6402.829581418174
 21
3140.0
 31
0.0
  0
LINE
  5
1B950
330
747D
100
AcDbEntity
  8
部品1
 62
     2
 48
50.0
100
AcDbLine
 10
6662.829581418174
 20
3323.999999999999
 30
0.0
 11
6662.829581418174
 21
3275.0
 31
0.0
  0
LINE
  5
1B951
330
747D
100
AcDbEntity
  8
部品1
 62
     2
 48
50.0
100
AcDbLine
 10
6756.733368612048
 20
4263.0
 30
0.0
 11
6695.35636804767
 21
4263.0
 31
0.0
  0
ARC
  5
1B952
330
747D
100
AcDbEntity
  8
部品1
 62
     2
 48
50.0
100
AcDbCircle
 10
6695.35636804767
 20
4256.0
 30
0.0
 40
7.0
100
AcDbArc
 50
90.0
 51
170.0163680567111
  0
ARC
  5
1B953
330
747D
100
AcDbEntity
  8
部品1
 62
     2
 48
50.0
100
AcDbCircle
 10
6701.329581418175
 20
4250.0
 30
0.0
 40
3.0
100
AcDbArc
 50
90.00000000000003
 51
180.0000000000027
  0
LINE
  5
1B954
330
747D
100
AcDbEntity
  8
部品1
 62
     2
 48
50.0
100
AcDbLine
 10
6707.329581418173
 20
4253.000000000002
 30
0.0
 11
6701.329581418175
 21
4253.0
 31
0.0
  0
ARC
  5
1B955
330
747D
100
AcDbEntity
  8
部品1
 62
     2
 48
50.0
100
AcDbCircle
 10
6707.329581418173
 20
4250.000000000002
 30
0.0
 40
3.0
100
AcDbArc
 50
0.0
 51
90.00000000000003
  0
ARC
  5
1B956
330
747D
100
AcDbEntity
  8
部品1
 62
     2
 48
50.0
100
AcDbCircle
 10
6728.329581418174
 20
4251.0
 30
0.0
 40
3.0
100
AcDbArc
 50
90.0
 51
179.9999999999992
  0
ARC
  5
1B957
330
747D
100
AcDbEntity
  8
部品1
 62
     2
 48
50.0
100
AcDbCircle
 10
6751.816007727362
 20
4251.0
 30
0.0
 40
3.0
100
AcDbArc
 50
0.9195304176876355
 51
90.0
  0
LINE
  5
1B958
330
747D
100
AcDbEntity
  8
部品1
 62
     2
 48
50.0
100
AcDbLine
 10
6728.329581418174
 20
4254.0
 30
0.0
 11
6751.816007727362
 21
4254.0
 31
0.0
  0
ARC
  5
1B959
330
747D
100
AcDbEntity
  8
部品1
 62
     2
 48
50.0
100
AcDbCircle
 10
6756.733368612048
 20
4256.0
 30
0.0
 40
7.0
100
AcDbArc
 50
0.9901341260309951
 51
90.0
  0
CIRCLE
  5
1B95A
330
747D
100
AcDbEntity
  8
部品1
 62
     2
 48
50.0
100
AcDbCircle
 10
6704.329581418173
 20
4187.0
 30
0.0
 40
17.0
  0
LINE
  5
1B95B
330
747D
100
AcDbEntity
  8
部品1
 62
     2
 48
50.0
100
AcDbLine
 10
6756.733368612048
 20
4111.0
 30
0.0
 11
6695.35636804767
 21
4111.0
 31
0.0
  0
LINE
  5
1B95C
330
747D
100
AcDbEntity
  8
部品1
 62
     2
 48
50.0
100
AcDbLine
 10
6710.329581418173
 20
4124.0
 30
0.0
 11
6710.329581418173
 21
4158.0
 31
0.0
  0
LINE
  5
1B95D
330
747D
100
AcDbEntity
  8
部品1
 62
     2
 48
50.0
100
AcDbLine
 10
6698.329581418175
 20
4124.0
 30
0.0
 11
6698.329581418177
 21
4158.0
 31
0.0
  0
ARC
  5
1B95E
330
747D
100
AcDbEntity
  8
部品1
 62
     2
 48
50.0
100
AcDbCircle
 10
6695.35636804767
 20
4118.0
 30
0.0
 40
7.0
100
AcDbArc
 50
189.983631943288
 51
270.0
  0
ARC
  5
1B95F
330
747D
100
AcDbEntity
  8
部品1
 62
     2
 48
50.0
100
AcDbCircle
 10
6707.329581418173
 20
4124.0
 30
0.0
 40
3.0
100
AcDbArc
 50
270.0
 51
0.0
  0
ARC
  5
1B960
330
747D
100
AcDbEntity
  8
部品1
 62
     2
 48
50.0
100
AcDbCircle
 10
6701.329581418175
 20
4124.0
 30
0.0
 40
3.0
100
AcDbArc
 50
179.9999999999971
 51
270.0
  0
LINE
  5
1B961
330
747D
100
AcDbEntity
  8
部品1
 62
     2
 48
50.0
100
AcDbLine
 10
6707.329581418173
 20
4121.0
 30
0.0
 11
6701.329581418175
 21
4121.0
 31
0.0
  0
ARC
  5
1B962
330
747D
100
AcDbEntity
  8
部品1
 62
     2
 48
50.0
100
AcDbCircle
 10
6701.329581418177
 20
4158.0
 30
0.0
 40
3.0
100
AcDbArc
 50
90.0
 51
179.9999999999974
  0
ARC
  5
1B963
330
747D
100
AcDbEntity
  8
部品1
 62
     2
 48
50.0
100
AcDbCircle
 10
6707.329581418173
 20
4158.0
 30
0.0
 40
3.0
100
AcDbArc
 50
0.0
 51
90.0
  0
LINE
  5
1B964
330
747D
100
AcDbEntity
  8
部品1
 62
     2
 48
50.0
100
AcDbLine
 10
6707.329581418173
 20
4161.0
 30
0.0
 11
6701.329581418177
 21
4161.0
 31
0.0
  0
ARC
  5
1B965
330
747D
100
AcDbEntity
  8
部品1
 62
     2
 48
50.0
100
AcDbCircle
 10
6751.816007727362
 20
4123.000000000001
 30
0.0
 40
3.0
100
AcDbArc
 50
270.0
 51
359.0804695823297
  0
ARC
  5
1B966
330
747D
100
AcDbEntity
  8
部品1
 62
     2
 48
50.0
100
AcDbCircle
 10
6728.329581418174
 20
4123.0
 30
0.0
 40
3.0
100
AcDbArc
 50
179.9999999999996
 51
270.0000000000035
  0
LINE
  5
1B967
330
747D
100
AcDbEntity
  8
部品1
 62
     2
 48
50.0
100
AcDbLine
 10
6728.329581418174
 20
4120.0
 30
0.0
 11
6751.816007727362
 21
4120.000000000001
 31
0.0
  0
ARC
  5
1B968
330
747D
100
AcDbEntity
  8
部品1
 62
     2
 48
50.0
100
AcDbCircle
 10
6756.733368612048
 20
4118.0
 30
0.0
 40
7.0
100
AcDbArc
 50
270.0
 51
359.009865873969
  0
ARC
  5
1B969
330
747D
100
AcDbEntity
  8
部品1
 62
     2
 48
50.0
100
AcDbCircle
 10
6707.329581418173
 20
4216.0
 30
0.0
 40
3.0
100
AcDbArc
 50
270.0
 51
0.0
  0
LINE
  5
1B96A
330
747D
100
AcDbEntity
  8
部品1
 62
     2
 48
50.0
100
AcDbLine
 10
6707.329581418173
 20
4213.0
 30
0.0
 11
6701.329581418177
 21
4213.0
 31
0.0
  0
ARC
  5
1B96B
330
747D
100
AcDbEntity
  8
部品1
 62
     2
 48
50.0
100
AcDbCircle
 10
6701.329581418177
 20
4216.0
 30
0.0
 40
3.0
100
AcDbArc
 50
180.0000000000025
 51
270.0
  0
ARC
  5
1B96C
330
747D
100
AcDbEntity
  8
部品1
 62
     2
 48
50.0
100
AcDbCircle
 10
7087.329581418174
 20
4187.0
 30
0.0
 40
405.0
100
AcDbArc
 50
170.0163680567114
 51
189.9836319432886
  0
LINE
  5
1B96D
330
747D
100
AcDbEntity
  8
部品1
 62
     2
 48
50.0
100
AcDbLine
 10
6725.329581418174
 20
4251.0
 30
0.0
 11
6725.329581418174
 21
4123.0
 31
0.0
  0
ARC
  5
1B96E
330
747D
100
AcDbEntity
  8
部品1
 62
     2
 48
50.0
100
AcDbCircle
 10
2764.329581418174
 20
4187.0
 30
0.0
 40
3991.0
100
AcDbArc
 50
359.0804695823139
 51
0.9195304176861213
  0
ARC
  5
1B96F
330
747D
100
AcDbEntity
  8
部品1
 62
     2
 48
50.0
100
AcDbCircle
 10
2764.329581418174
 20
4187.0
 30
0.0
 40
4000.0
100
AcDbArc
 50
359.0098658739685
 51
0.9901341260314108
  0
LINE
  5
1B970
330
747D
100
AcDbEntity
  8
部品1
 62
     2
 48
50.0
100
AcDbLine
 10
6698.329581418175
 20
4250.0
 30
0.0
 11
6698.329581418177
 21
4216.0
 31
0.0
  0
LINE
  5
1B971
330
747D
100
AcDbEntity
  8
部品1
 62
     2
 48
50.0
100
AcDbLine
 10
6710.329581418173
 20
4250.000000000002
 30
0.0
 11
6710.329581418173
 21
4216.0
 31
0.0
  0
LINE
  5
1B972
330
747D
100
AcDbEntity
  8
破線
 48
5.0
100
AcDbLine
 10
8562.829581418176
 20
2939.999999999999
 30
0.0
 11
8362.829581418173
 21
2939.999999999999
 31
0.0
  0
LINE
  5
1B973
330
747D
100
AcDbEntity
  8
破線
 48
5.0
100
AcDbLine
 10
8362.829581418175
 20
3140.0
 30
0.0
 11
8362.829581418175
 21
2939.999999999999
 31
0.0
  0
LINE
  5
1B974
330
747D
100
AcDbEntity
  8
部品1
 62
     2
 48
50.0
100
AcDbLine
 10
7257.829581418175
 20
3333.0
 30
0.0
 11
8356.329581418174
 21
3332.999999999999
 31
0.0
  0
LINE
  5
1B975
330
747D
100
AcDbEntity
  8
部品1
 48
50.0
100
AcDbLine
 10
7132.829581418175
 20
3275.0
 30
0.0
 11
7132.829581418175
 21
3140.0
 31
0.0
  0
LINE
  5
1B976
330
747D
100
AcDbEntity
  8
部品1
 48
50.0
100
AcDbLine
 10
7532.829581418174
 20
3275.0
 30
0.0
 11
7532.829581418174
 21
3140.0
 31
0.0
  0
LINE
  5
1B977
330
747D
100
AcDbEntity
  8
部品1
 48
50.0
100
AcDbLine
 10
8062.829581418176
 20
3275.0
 30
0.0
 11
8062.829581418176
 21
3140.0
 31
0.0
  0
LINE
  5
1B978
330
747D
100
AcDbEntity
  8
部品1
 62
     2
 48
50.0
100
AcDbLine
 10
8382.829581418176
 20
3323.999999999999
 30
0.0
 11
8382.829581418175
 21
3275.0
 31
0.0
  0
LINE
  5
1B979
330
747D
100
AcDbEntity
  8
部品1
 62
     2
 48
50.0
100
AcDbLine
 10
8356.329581418174
 20
3332.999999999999
 30
0.0
 11
8362.329581418174
 21
3323.999999999999
 31
0.0
  0
LINE
  5
1B97A
330
747D
100
AcDbEntity
  8
破線
 48
5.0
100
AcDbLine
 10
8562.829581418176
 20
3140.0
 30
0.0
 11
8562.829581418176
 21
2939.999999999999
 31
0.0
  0
LINE
  5
1B97B
330
747D
100
AcDbEntity
  8
破線
 48
5.0
100
AcDbLine
 10
8467.829581418175
 20
3140.0
 30
0.0
 11
8467.829581418175
 21
3030.0
 31
0.0
  0
DIMENSION
  5
1B97C
330
747D
100
AcDbEntity
  8
寸法
 48
50.0
100
AcDbDimension
  2
*D18
 10
9118.934533249726
 20
3342.0
 30
0.0
 11
9118.934533249726
 21
2978.697597487494
 31
0.0
 12
12716.54707835649
 22
1485.454153590039
 32
0.0
 70
   160
 71
     5
 42
-1.0
  3
INABA_S50G
100
AcDbAlignedDimension
 13
8462.829581418175
 23
3275.0
 33
0.0
 14
8462.829581418175
 24
3342.0
 34
0.0
 50
90.0
100
AcDbRotatedDimension
  0
LINE
  5
1B97D
330
747D
100
AcDbEntity
  8
破線
 48
5.0
100
AcDbLine
 10
8487.829581418175
 20
3030.0
 30
0.0
 11
8467.829581418174
 21
3030.0
 31
0.0
  0
LINE
  5
1B97E
330
747D
100
AcDbEntity
  8
部品1
100
AcDbLine
 10
8467.829581418175
 20
3314.999999999999
 30
0.0
 11
8467.829581418175
 21
3140.0
 31
0.0
  0
LINE
  5
1B97F
330
747D
100
AcDbEntity
  8
部品1
 48
50.0
100
AcDbLine
 10
8462.829581418175
 20
5275.0
 30
0.0
 11
6002.829581418175
 21
5275.0
 31
0.0
  0
DIMENSION
  5
1B980
330
747D
100
AcDbEntity
  8
寸法
 48
50.0
100
AcDbDimension
  2
*D15
 10
8462.829581418173
 20
6238.281130716521
 30
0.0
 11
7232.829581418174
 21
6338.295894496049
 31
0.0
 70
    32
  1
柱外寸法 <>
 71
     5
 42
-1.0
  3
INABA_S50G
100
AcDbAlignedDimension
 13
6002.829581418175
 23
5545.000000008467
 33
0.0
 14
8462.829581418173
 24
5545.000000008446
 34
0.0
100
AcDbRotatedDimension
1001
ACAD
1000
DSTYLE
1002
{
1070
   287
1070
     4
1070
    75
1070
     1
1070
   279
1070
     1
1002
}
  0
DIMENSION
  5
1B981
330
747D
100
AcDbEntity
  8
寸法
 48
50.0
100
AcDbDimension
  2
*D14
 10
8517.829581418176
 20
6506.068854554546
 30
0.0
 11
6652.829579233261
 21
6606.083618334072
 31
0.0
 12
12716.54707835649
 22
1485.454153590039
 32
0.0
 70
    32
 71
     5
 42
-1.0
  3
INABA_S50G
100
AcDbAlignedDimension
 13
5947.829577048348
 23
5509.000002624809
 33
0.0
 14
8517.829581418176
 24
5509.000002624809
 34
0.0
100
AcDbRotatedDimension
  0
LINE
  5
1B982
330
747D
100
AcDbEntity
  8
細線
100
AcDbLine
 10
8502.329581418177
 20
5524.500002624811
 30
0.0
 11
5965.429712967134
 21
5524.500002624819
 31
0.0
  0
LINE
  5
1B983
330
747D
100
AcDbEntity
  8
部品1
100
AcDbLine
 10
8488.397416958701
 20
5545.000000008446
 30
0.0
 11
5977.261741799082
 21
5545.000000008467
 31
0.0
  0
LINE
  5
1B984
330
747D
100
AcDbEntity
  8
細線
100
AcDbLine
 10
8511.324725755612
 20
5431.045828186498
 30
0.0
 11
5954.334432710914
 21
5431.045828186505
 31
0.0
  0
LINE
  5
1B985
330
747D
100
AcDbEntity
  8
部品1
100
AcDbLine
 10
8493.513641876283
 20
5410.000001569558
 30
0.0
 11
5972.145516590239
 21
5410.000001569567
 31
0.0
  0
LINE
  5
1B986
330
747D
100
AcDbEntity
  8
部品1
 62
     2
 48
50.0
100
AcDbLine
 10
8398.829581418175
 20
5187.0
 30
0.0
 11
6646.829581418174
 21
5187.0
 31
0.0
  0
LINE
  5
1B987
330
747D
100
AcDbEntity
  8
部品1
 62
     2
 48
50.0
100
AcDbLine
 10
8398.829581418175
 20
5149.5
 30
0.0
 11
6646.829581418174
 21
5149.5
 31
0.0
  0
ARC
  5
1B988
330
747D
100
AcDbEntity
  8
部品1
100
AcDbCircle
 10
5953.888253715103
 20
5428.572828826122
 30
0.0
 40
2.5
100
AcDbArc
 50
3.979378091802891
 51
83.07390809407314
  0
LINE
  5
1B989
330
747D
100
AcDbEntity
  8
細線
 48
50.0
100
AcDbLine
 10
5985.829581709431
 20
5410.000001569558
 30
0.0
 11
5985.829581709431
 21
5545.0
 31
0.0
  0
ARC
  5
1B98A
330
747D
100
AcDbEntity
  8
部品1
100
AcDbCircle
 10
5972.145516590239
 20
5425.50000156956
 30
0.0
 40
15.5
100
AcDbArc
 50
183.9793780918396
 51
270.0
  0
LINE
  5
1B98B
330
747D
100
AcDbEntity
  8
部品1
100
AcDbLine
 10
5956.382226446125
 20
5428.746322390583
 30
0.0
 11
5956.682885657892
 21
5424.424341469881
 31
0.0
  0
LINE
  5
1B98C
330
747D
100
AcDbEntity
  8
細線
 48
50.0
100
AcDbLine
 10
6773.829581418175
 20
5319.5
 30
0.0
 11
6531.829581418175
 21
5319.5
 31
0.0
  0
LINE
  5
1B98D
330
747D
100
AcDbEntity
  8
細線
 48
50.0
100
AcDbLine
 10
6788.829581418174
 20
5308.5
 30
0.0
 11
6516.829581418175
 21
5308.5
 31
0.0
  0
LINE
  5
1B98E
330
747D
100
AcDbEntity
  8
細線
 48
50.0
100
AcDbLine
 10
6531.829581418175
 20
5375.5
 30
0.0
 11
6773.829581418175
 21
5375.5
 31
0.0
  0
LINE
  5
1B98F
330
747D
100
AcDbEntity
  8
細線
 48
50.0
100
AcDbLine
 10
6531.829581418175
 20
5390.5
 30
0.0
 11
6773.829581418175
 21
5390.499999999998
 31
0.0
  0
LINE
  5
1B990
330
747D
100
AcDbEntity
  8
細線
 48
50.0
100
AcDbLine
 10
6531.829581418175
 20
5360.500036981837
 30
0.0
 11
6773.829581418175
 21
5360.500036981837
 31
0.0
  0
LINE
  5
1B991
330
747D
100
AcDbEntity
  8
細線
 48
50.0
100
AcDbLine
 10
6531.829581418175
 20
5345.5
 30
0.0
 11
6773.829581418175
 21
5345.5
 31
0.0
  0
LINE
  5
1B992
330
747D
100
AcDbEntity
  8
細線
 48
50.0
100
AcDbLine
 10
6531.829581418175
 20
5330.500036981837
 30
0.0
 11
6773.829581418175
 21
5330.500036981837
 31
0.0
  0
LINE
  5
1B993
330
747D
100
AcDbEntity
  8
細線
 48
50.0
100
AcDbLine
 10
6788.829581418174
 20
5405.500036981838
 30
0.0
 11
6516.829581418175
 21
5405.500036981838
 31
0.0
  0
ARC
  5
1B994
330
747D
100
AcDbEntity
  8
細線
 48
50.0
100
AcDbCircle
 10
6516.829581418175
 20
5395.500036981837
 30
0.0
 40
10.0
100
AcDbArc
 50
90.0
 51
180.0
  0
LINE
  5
1B995
330
747D
100
AcDbEntity
  8
細線
 48
50.0
100
AcDbLine
 10
6531.829581418175
 20
5308.5
 30
0.0
 11
6531.829581418175
 21
5309.0
 31
0.0
  0
ARC
  5
1B996
330
747D
100
AcDbEntity
  8
細線
 48
50.0
100
AcDbCircle
 10
6516.829581418175
 20
5318.5
 30
0.0
 40
10.0
100
AcDbArc
 50
180.0
 51
270.0
  0
LINE
  5
1B997
330
747D
100
AcDbEntity
  8
細線
 48
50.0
100
AcDbLine
 10
6506.829581418175
 20
5395.500036981837
 30
0.0
 11
6506.829581418175
 21
5318.5
 31
0.0
  0
LINE
  5
1B998
330
747D
100
AcDbEntity
  8
細線
 48
50.0
100
AcDbLine
 10
6531.829581418175
 20
5405.500036981838
 30
0.0
 11
6531.829581418175
 21
5308.5
 31
0.0
  0
ARC
  5
1B999
330
747D
100
AcDbEntity
  8
細線
 48
50.0
100
AcDbCircle
 10
6788.829581418174
 20
5395.500036981837
 30
0.0
 40
10.0
100
AcDbArc
 50
359.9999999999998
 51
90.0
  0
LINE
  5
1B99A
330
747D
100
AcDbEntity
  8
細線
 48
50.0
100
AcDbLine
 10
6773.829581418175
 20
5308.5
 30
0.0
 11
6773.829581418175
 21
5309.0
 31
0.0
  0
ARC
  5
1B99B
330
747D
100
AcDbEntity
  8
細線
 48
50.0
100
AcDbCircle
 10
6788.829581418174
 20
5318.5
 30
0.0
 40
10.0
100
AcDbArc
 50
270.0
 51
359.9999999999998
  0
LINE
  5
1B99C
330
747D
100
AcDbEntity
  8
部品1
 48
50.0
100
AcDbLine
 10
6652.829581418174
 20
5275.0
 30
0.0
 11
6652.829581418174
 21
5187.0
 31
0.0
  0
LINE
  5
1B99D
330
747D
100
AcDbEntity
  8
細線
 48
50.0
100
AcDbLine
 10
6692.829581418175
 20
5319.5
 30
0.0
 11
6692.829581418175
 21
5390.5
 31
0.0
  0
LINE
  5
1B99E
330
747D
100
AcDbEntity
  8
細線
 48
50.0
100
AcDbLine
 10
6612.829581418175
 20
5319.5
 30
0.0
 11
6612.829581418175
 21
5390.5
 31
0.0
  0
LINE
  5
1B99F
330
747D
100
AcDbEntity
  8
細線
 48
50.0
100
AcDbLine
 10
6798.829581418175
 20
5395.500036981837
 30
0.0
 11
6798.829581418175
 21
5318.5
 31
0.0
  0
LINE
  5
1B9A0
330
747D
100
AcDbEntity
  8
細線
 48
50.0
100
AcDbLine
 10
6773.829581418175
 20
5405.500036981838
 30
0.0
 11
6773.829581418175
 21
5308.5
 31
0.0
  0
DIMENSION
  5
1B9A1
330
747D
100
AcDbEntity
  8
寸法
 48
50.0
100
AcDbDimension
  2
*D16
 10
6002.829581418175
 20
6238.281130716521
 30
0.0
 11
5622.770526300063
 21
6238.281130716521
 31
0.0
 12
12716.54707835649
 22
1485.454153590039
 32
0.0
 70
   160
 71
     5
 42
-1.0
  3
INABA_S50G
100
AcDbAlignedDimension
 13
5947.829577048348
 23
5509.000002624809
 33
0.0
 14
6002.829581418175
 24
5545.000000008467
 34
0.0
100
AcDbRotatedDimension
  0
ARC
  5
1B9A2
330
747D
100
AcDbEntity
  8
部品1
100
AcDbCircle
 10
5977.261984657895
 20
5541.500000016893
 30
0.0
 40
3.5
100
AcDbArc
 50
90.0
 51
157.4999956391549
  0
ARC
  5
1B9A3
330
747D
100
AcDbEntity
  8
部品1
100
AcDbCircle
 10
5965.429712967134
 20
5526.000002624811
 30
0.0
 40
1.5
100
AcDbArc
 50
270.0000000000002
 51
337.4999956391484
  0
LINE
  5
1B9A4
330
747D
100
AcDbEntity
  8
部品1
100
AcDbLine
 10
5966.81553222221
 20
5525.425977370787
 30
0.0
 11
5974.028406396048
 21
5542.839392276281
 31
0.0
  0
LINE
  5
1B9A5
330
747D
100
AcDbEntity
  8
部品1
 48
50.0
100
AcDbLine
 10
5963.329577048347
 20
5524.500002624809
 30
0.0
 11
5965.429712967134
 21
5524.500002624819
 31
0.0
  0
ARC
  5
1B9A6
330
747D
100
AcDbEntity
  8
部品1
100
AcDbCircle
 10
5963.329577048347
 20
5509.000002624809
 30
0.0
 40
15.5
100
AcDbArc
 50
90.00000000000033
 51
183.979378091838
  0
ARC
  5
1B9A7
330
747D
100
AcDbEntity
  8
部品1
100
AcDbCircle
 10
5954.334432710914
 20
5432.245828186495
 30
0.0
 40
1.199999999999999
100
AcDbArc
 50
183.979378091838
 51
270.0000000000002
  0
LINE
  5
1B9A8
330
747D
100
AcDbEntity
  8
部品1
100
AcDbLine
 10
5947.866946116
 20
5507.92434252513
 30
0.0
 11
5953.137325800022
 21
5432.162551275553
 31
0.0
  0
DIMENSION
  5
1B9A9
330
747D
100
AcDbEntity
  8
寸法
 48
50.0
100
AcDbDimension
  2
*D19
 10
8517.829581418176
 20
6238.281130716521
 30
0.0
 11
8832.888636536287
 21
6238.281130716521
 31
0.0
 12
12716.54707835649
 22
1485.454153590039
 32
0.0
 70
   160
 71
     5
 42
-1.0
  3
INABA_S50G
100
AcDbAlignedDimension
 13
8462.829581418173
 23
5545.000000008446
 33
0.0
 14
8517.829581418176
 24
5509.000002624809
 34
0.0
100
AcDbRotatedDimension
1001
ACAD
1000
DSTYLE
1002
{
1002
}
  0
LINE
  5
1B9AA
330
747D
100
AcDbEntity
  8
細線
 48
50.0
100
AcDbLine
 10
7691.829581418175
 20
5330.500036981837
 30
0.0
 11
7933.829581418175
 21
5330.500036981837
 31
0.0
  0
LINE
  5
1B9AB
330
747D
100
AcDbEntity
  8
細線
 48
50.0
100
AcDbLine
 10
7691.829581418175
 20
5345.5
 30
0.0
 11
7933.829581418175
 21
5345.5
 31
0.0
  0
LINE
  5
1B9AC
330
747D
100
AcDbEntity
  8
細線
 48
50.0
100
AcDbLine
 10
7691.829581418175
 20
5360.500036981837
 30
0.0
 11
7933.829581418175
 21
5360.500036981837
 31
0.0
  0
LINE
  5
1B9AD
330
747D
100
AcDbEntity
  8
細線
 48
50.0
100
AcDbLine
 10
7691.829581418175
 20
5390.5
 30
0.0
 11
7933.829581418175
 21
5390.499999999998
 31
0.0
  0
LINE
  5
1B9AE
330
747D
100
AcDbEntity
  8
細線
 48
50.0
100
AcDbLine
 10
7691.829581418175
 20
5375.5
 30
0.0
 11
7933.829581418175
 21
5375.5
 31
0.0
  0
LINE
  5
1B9AF
330
747D
100
AcDbEntity
  8
細線
 48
50.0
100
AcDbLine
 10
7948.829581418175
 20
5308.5
 30
0.0
 11
7676.829581418175
 21
5308.5
 31
0.0
  0
LINE
  5
1B9B0
330
747D
100
AcDbEntity
  8
細線
 48
50.0
100
AcDbLine
 10
7933.829581418175
 20
5319.5
 30
0.0
 11
7691.829581418175
 21
5319.5
 31
0.0
  0
LINE
  5
1B9B1
330
747D
100
AcDbEntity
  8
細線
 48
50.0
100
AcDbLine
 10
7948.829581418175
 20
5405.500036981838
 30
0.0
 11
7676.829581418175
 21
5405.500036981838
 31
0.0
  0
ARC
  5
1B9B2
330
747D
100
AcDbEntity
  8
細線
 48
50.0
100
AcDbCircle
 10
7676.829581418175
 20
5395.500036981837
 30
0.0
 40
10.0
100
AcDbArc
 50
90.0
 51
180.0
  0
ARC
  5
1B9B3
330
747D
100
AcDbEntity
  8
細線
 48
50.0
100
AcDbCircle
 10
7676.829581418175
 20
5318.5
 30
0.0
 40
10.0
100
AcDbArc
 50
180.0
 51
270.0
  0
LINE
  5
1B9B4
330
747D
100
AcDbEntity
  8
細線
 48
50.0
100
AcDbLine
 10
7691.829581418175
 20
5308.5
 30
0.0
 11
7691.829581418175
 21
5309.0
 31
0.0
  0
LINE
  5
1B9B5
330
747D
100
AcDbEntity
  8
細線
 48
50.0
100
AcDbLine
 10
7772.829581418175
 20
5319.5
 30
0.0
 11
7772.829581418175
 21
5390.5
 31
0.0
  0
LINE
  5
1B9B6
330
747D
100
AcDbEntity
  8
細線
 48
50.0
100
AcDbLine
 10
7691.829581418175
 20
5405.500036981838
 30
0.0
 11
7691.829581418175
 21
5308.5
 31
0.0
  0
LINE
  5
1B9B7
330
747D
100
AcDbEntity
  8
細線
 48
50.0
100
AcDbLine
 10
7666.829581418174
 20
5395.500036981837
 30
0.0
 11
7666.829581418174
 21
5318.5
 31
0.0
  0
ARC
  5
1B9B8
330
747D
100
AcDbEntity
  8
細線
 48
50.0
100
AcDbCircle
 10
7948.829581418175
 20
5395.500036981837
 30
0.0
 40
10.0
100
AcDbArc
 50
359.9999999999998
 51
90.0
  0
ARC
  5
1B9B9
330
747D
100
AcDbEntity
  8
細線
 48
50.0
100
AcDbCircle
 10
7948.829581418175
 20
5318.5
 30
0.0
 40
10.0
100
AcDbArc
 50
270.0
 51
359.9999999999998
  0
LINE
  5
1B9BA
330
747D
100
AcDbEntity
  8
細線
 48
50.0
100
AcDbLine
 10
7933.829581418175
 20
5308.5
 30
0.0
 11
7933.829581418175
 21
5309.0
 31
0.0
  0
LINE
  5
1B9BB
330
747D
100
AcDbEntity
  8
細線
 48
50.0
100
AcDbLine
 10
7852.829581418174
 20
5319.5
 30
0.0
 11
7852.829581418174
 21
5390.5
 31
0.0
  0
LINE
  5
1B9BC
330
747D
100
AcDbEntity
  8
細線
 48
50.0
100
AcDbLine
 10
7933.829581418175
 20
5405.500036981838
 30
0.0
 11
7933.829581418175
 21
5308.5
 31
0.0
  0
LINE
  5
1B9BD
330
747D
100
AcDbEntity
  8
細線
 48
50.0
100
AcDbLine
 10
7958.829581418175
 20
5395.500036981837
 30
0.0
 11
7958.829581418175
 21
5318.5
 31
0.0
  0
LINE
  5
1B9BE
330
747D
100
AcDbEntity
  8
部品1
 48
50.0
100
AcDbLine
 10
8392.829581418174
 20
5275.0
 30
0.0
 11
8392.829581418174
 21
5187.0
 31
0.0
  0
ARC
  5
1B9BF
330
747D
100
AcDbEntity
  8
部品1
100
AcDbCircle
 10
8511.77090475142
 20
5428.572828826122
 30
0.0
 40
2.5
100
AcDbArc
 50
96.92609190592689
 51
176.0206219081971
  0
LINE
  5
1B9C0
330
747D
100
AcDbEntity
  8
細線
 48
50.0
100
AcDbLine
 10
8479.829577048349
 20
5410.000001569558
 30
0.0
 11
8479.829577048349
 21
5545.0
 31
0.0
  0
LINE
  5
1B9C1
330
747D
100
AcDbEntity
  8
部品1
100
AcDbLine
 10
8509.276932020396
 20
5428.746322390583
 30
0.0
 11
8508.976272808631
 21
5424.424341469881
 31
0.0
  0
ARC
  5
1B9C2
330
747D
100
AcDbEntity
  8
部品1
100
AcDbCircle
 10
8493.513641876283
 20
5425.50000156956
 30
0.0
 40
15.5
100
AcDbArc
 50
270.0
 51
356.0206219081603
  0
LINE
  5
1B9C3
330
747D
100
AcDbEntity
  8
部品1
100
AcDbLine
 10
8498.843626244314
 20
5525.425977370787
 30
0.0
 11
8491.630752070475
 21
5542.839392276281
 31
0.0
  0
ARC
  5
1B9C4
330
747D
100
AcDbEntity
  8
部品1
100
AcDbCircle
 10
8488.397173808628
 20
5541.500000016893
 30
0.0
 40
3.5
100
AcDbArc
 50
22.50000436084501
 51
90.0
  0
ARC
  5
1B9C5
330
747D
100
AcDbEntity
  8
部品1
100
AcDbCircle
 10
8500.229445499391
 20
5526.000002624811
 30
0.0
 40
1.5
100
AcDbArc
 50
202.5000043608516
 51
269.9999999999997
  0
ARC
  5
1B9C6
330
747D
100
AcDbEntity
  8
部品1
100
AcDbCircle
 10
8502.329581418177
 20
5509.000002624809
 30
0.0
 40
15.5
100
AcDbArc
 50
356.0206219081619
 51
89.99999999999968
  0
ARC
  5
1B9C7
330
747D
100
AcDbEntity
  8
部品1
100
AcDbCircle
 10
8511.324725755612
 20
5432.245828186495
 30
0.0
 40
1.199999999999999
100
AcDbArc
 50
269.9999999999997
 51
356.0206219081619
  0
LINE
  5
1B9C8
330
747D
100
AcDbEntity
  8
部品1
100
AcDbLine
 10
8517.792212350524
 20
5507.92434252513
 30
0.0
 11
8512.521832666502
 21
5432.162551275553
 31
0.0
  0
DIMENSION
  5
1B9C9
330
747D
100
AcDbEntity
  8
寸法
 48
50.0
100
AcDbDimension
  2
*D13
 10
8362.829581418173
 20
2612.358857715331
 30
0.0
 11
8075.865998741006
 21
2612.358857715331
 31
0.0
 12
12716.54707835649
 22
1485.454153590039
 32
0.0
 70
   160
 71
     5
 42
-1.0
  3
INABA_S50G
100
AcDbAlignedDimension
 13
8562.829581418176
 23
2939.999999999999
 33
0.0
 14
8362.829581418173
 24
2939.999999999999
 34
0.0
100
AcDbRotatedDimension
  0
MTEXT
  5
1BD2F
102
{ACAD_REACTORS
330
1BD30
102
}
330
747D
100
AcDbEntity
  8
部品1
 62
     7
 48
50.0
100
AcDbMText
 10
13299.09060856882
 20
8716.282041753725
 30
0.0
 40
150.0
 41
0.0
 71
     6
 72
     1
  1
\A1;土台中央
  7
STYLE1
 73
     1
 44
1.0
  0
LEADER
  5
1BD30
330
747D
100
AcDbEntity
  8
寸法
 48
50.0
100
AcDbLeader
  3
INABA_S50G
 71
     0
 73
     0
 75
     1
 40
150.0
 41
720.0000000000003
 76
     3
 10
13528.20823510302
 20
9382.720225287021
 30
0.0
 10
13449.09060856882
 20
8616.282041753725
 30
0.0
 10
13324.09060856882
 20
8616.282041753725
 30
0.0
340
1BD2F
1001
ACAD
1000
DSTYLE
1002
{
1070
     6
1000
DOTSMALL
1002
}
  0
MTEXT
  5
1BD31
102
{ACAD_REACTORS
330
1BD32
102
}
330
747D
100
AcDbEntity
  8
部品1
 62
     7
 48
50.0
100
AcDbMText
 10
13941.06372606969
 20
8716.282041753727
 30
0.0
 40
150.0
 41
0.0
 71
     4
 72
     1
  1
\A1;根太
  7
STYLE1
 73
     1
 44
1.0
  0
LEADER
  5
1BD32
330
747D
100
AcDbEntity
  8
寸法
 48
50.0
100
AcDbLeader
  3
INABA_S50G
 71
     0
 73
     0
 74
     0
 75
     1
 40
150.0
 41
330.0
 76
     3
 10
13612.82958141816
 20
9382.720225287025
 30
0.0
 10
13791.06372606969
 20
8616.282041753727
 30
0.0
 10
13916.06372606969
 20
8616.282041753727
 30
0.0
340
1BD31
1001
ACAD
1000
DSTYLE
1002
{
1070
     6
1000
DOTSMALL
1002
}
  0
MTEXT
  5
1BD33
102
{ACAD_REACTORS
330
1BD34
102
}
330
747D
100
AcDbEntity
  8
部品1
 62
     7
 48
50.0
100
AcDbMText
 10
14562.60742434145
 20
8716.282041753727
 30
0.0
 40
150.0
 41
0.0
 71
     4
 72
     1
  1
\A1;ジョイントカバー
  7
STYLE1
 73
     1
 44
1.0
  0
LEADER
  5
1BD34
330
747D
100
AcDbEntity
  8
寸法
 48
50.0
100
AcDbLeader
  3
INABA_S50G
 71
     0
 73
     0
 74
     0
 75
     1
 40
150.0
 41
1397.5
 76
     3
 10
13889.59651289241
 20
9547.434887568501
 30
0.0
 10
14412.60742434145
 20
8616.282041753727
 30
0.0
 10
14537.60742434145
 20
8616.282041753727
 30
0.0
340
1BD33
1001
ACAD
1000
DSTYLE
1002
{
1070
     6
1000
DOTSMALL
1002
}
  0
LINE
  5
1BD35
330
747D
100
AcDbEntity
  8
部品1
100
AcDbLine
 10
14519.05513660853
 20
7709.831477053277
 30
0.0
 11
13246.6040262278
 21
7709.831477053277
 31
0.0
  0
LINE
  5
1BD36
330
747D
100
AcDbEntity
  8
部品1
100
AcDbLine
 10
13246.6040262278
 20
7310.010941144057
 30
0.0
 11
14519.05513660853
 21
7310.010941144057
 31
0.0
  0
LINE
  5
1BD37
330
747D
100
AcDbEntity
  8
部品1
100
AcDbLine
 10
13246.6040262278
 20
7709.831477053277
 30
0.0
 11
13246.6040262278
 21
7310.010941144057
 31
0.0
  0
TEXT
  5
1BD38
330
747D
100
AcDbEntity
  8
部品1
100
AcDbText
 10
13393.41550643053
 20
7389.392837663632
 30
0.0
 40
225.0
  1
断面図
  7
STYLE2
100
AcDbText
  0
LINE
  5
1BD39
330
747D
100
AcDbEntity
  8
部品1
100
AcDbLine
 10
14519.05513660853
 20
7310.010941144057
 30
0.0
 11
14519.05513660853
 21
7709.831477053277
 31
0.0
  0
LINE
  5
1BD3A
330
747D
100
AcDbEntity
  8
細線
 48
50.0
100
AcDbLine
 10
14591.11960145478
 20
11449.80118073938
 30
0.0
 11
14532.82958141817
 21
11450.72836802431
 31
0.0
  0
LINE
  5
1BD3B
330
747D
100
AcDbEntity
  8
部品1
 48
50.0
100
AcDbLine
 10
14537.82958141816
 20
11473.73679736196
 30
0.0
 11
14532.82958141816
 21
11473.73679736196
 31
0.0
  0
DIMENSION
  5
1BD3C
330
747D
100
AcDbEntity
  8
寸法
 48
50.0
100
AcDbDimension
  2
*D36
 10
14627.82958141817
 20
12327.01792807848
 30
0.0
 11
14960.38863653627
 21
12327.01792807848
 31
0.0
 70
   160
 71
     5
 42
-1.0
  3
INABA_S50G
100
AcDbAlignedDimension
 13
14532.82958141817
 23
11576.3631811976
 33
0.0
 14
14627.82958141817
 24
11573.73679736197
 34
0.0
100
AcDbRotatedDimension
1001
ACAD
1000
DSTYLE
1002
{
1002
}
  0
MTEXT
  5
1BD3D
102
{ACAD_REACTORS
330
1BD3E
102
}
330
747D
100
AcDbEntity
  8
寸法
 62
     7
 48
50.0
100
AcDbMText
 10
14803.03052825934
 20
10508.28252840044
 30
0.0
 40
150.0
 41
0.0
 71
     4
 72
     1
  1
\A1;壁パネル
  7
STYLE1
 73
     1
 44
1.0
  0
LEADER
  5
1BD3E
330
747D
100
AcDbEntity
  8
寸法
 48
50.0
100
AcDbLeader
  3
INABA_S50G
 71
     0
 73
     0
 74
     0
 75
     1
 40
150.0
 41
719.9999999999999
 76
     3
 10
14520.64563276007
 20
10204.29303103486
 30
0.0
 10
14653.03052825934
 20
10408.28252840044
 30
0.0
 10
14778.03052825934
 20
10408.28252840044
 30
0.0
340
1BD3D
1001
ACAD
1000
DSTYLE
1002
{
1070
     6
1000
DOTSMALL
1002
}
  0
MTEXT
  5
1BD3F
102
{ACAD_REACTORS
330
1BD40
102
}
330
747D
100
AcDbEntity
  8
寸法
 62
     7
 48
50.0
100
AcDbMText
 10
14900.49506749086
 20
11038.8835600829
 30
0.0
 40
150.0
 41
0.0
 71
     4
 72
     1
  1
\A1;桁後
  7
STYLE1
 73
     1
 44
1.0
  0
LEADER
  5
1BD40
330
747D
100
AcDbEntity
  8
寸法
 48
50.0
100
AcDbLeader
  3
INABA_S50G
 71
     0
 73
     0
 74
     0
 75
     1
 40
150.0
 41
360.0000000000001
 76
     3
 10
14532.82958141817
 20
11432.2065891273
 30
0.0
 10
14750.49506749086
 20
10938.8835600829
 30
0.0
 10
14875.49506749086
 20
10938.8835600829
 30
0.0
340
1BD3F
1001
ACAD
1000
DSTYLE
1002
{
1070
     6
1000
DOTSMALL
1002
}
  0
DIMENSION
  5
1BD41
330
747D
100
AcDbEntity
  8
寸法
 48
50.0
100
AcDbDimension
  2
*D37
 10
14627.82958141817
 20
12643.17369887014
 30
0.0
 11
13862.82958141817
 21
12743.17369887014
 31
0.0
 70
    32
 71
     5
 42
-1.0
  3
INABA_S50G
100
AcDbAlignedDimension
 13
13097.82958141817
 23
11633.73679736197
 33
0.0
 14
14627.82958141817
 24
11573.73679736197
 34
0.0
100
AcDbRotatedDimension
  0
LINE
  5
1BD42
330
747D
100
AcDbEntity
  8
部品1
 48
50.0
100
AcDbLine
 10
13127.34578971423
 20
11633.20342677758
 30
0.0
 11
14602.50261261331
 21
11575.10415954443
 31
0.0
  0
DIMENSION
  5
1BD43
330
747D
100
AcDbEntity
  8
寸法
 48
50.0
100
AcDbDimension
  2
*D38
 10
14532.82958141817
 20
12327.01792807848
 30
0.0
 11
13882.82958141817
 21
12427.01792807848
 31
0.0
 70
    32
  1
柱外寸法 <>
 71
     5
 42
-1.0
  3
INABA_S50G
100
AcDbAlignedDimension
 13
13232.82958141817
 23
11588.73679736197
 33
0.0
 14
14532.82958141817
 24
11576.3631811976
 34
0.0
100
AcDbRotatedDimension
1001
ACAD
1000
DSTYLE
1002
{
1070
   287
1070
     4
1070
    75
1070
     1
1070
   279
1070
     1
1002
}
  0
MTEXT
  5
1BD44
102
{ACAD_REACTORS
330
1BD45
102
}
330
747D
100
AcDbEntity
  8
寸法
 62
     7
 48
50.0
100
AcDbMText
 10
14759.92961912344
 20
10799.0260437633
 30
0.0
 40
150.0
 41
0.0
 71
     4
 72
     1
  1
\A1;天井
  7
STYLE1
 73
     1
 44
1.0
  0
LEADER
  5
1BD45
330
747D
100
AcDbEntity
  8
寸法
 48
50.0
100
AcDbLeader
  3
INABA_S50G
 71
     0
 73
     0
 74
     0
 75
     1
 40
150.0
 41
359.9999999999999
 76
     3
 10
14340.45642047151
 20
11403.41424305313
 30
0.0
 10
14609.92961912344
 20
10699.0260437633
 30
0.0
 10
14734.92961912344
 20
10699.0260437633
 30
0.0
340
1BD44
1001
ACAD
1000
DSTYLE
1002
{
1070
     6
1000
DOTSMALL
1002
}
  0
LINE
  5
1BD46
330
747D
100
AcDbEntity
  8
部品1
 48
50.0
100
AcDbLine
 10
14537.82958141816
 20
11493.73679736196
 30
0.0
 11
14504.32958141816
 21
11493.73679736196
 31
0.0
  0
LINE
  5
1BD47
330
747D
100
AcDbEntity
  8
細線
 48
50.0
100
AcDbLine
 10
13127.61578257115
 20
11627.36225267836
 30
0.0
 11
14580.73684947436
 21
11515.76509804569
 31
0.0
  0
LINE
  5
1BD48
330
747D
100
AcDbEntity
  8
細線
 48
50.0
100
AcDbLine
 10
13125.93118163666
 20
11605.42684477945
 30
0.0
 11
14579.05224853987
 21
11493.82969014678
 31
0.0
  0
MTEXT
  5
1BD49
102
{ACAD_REACTORS
330
1BD4A
102
}
330
747D
100
AcDbEntity
  8
寸法
 62
     7
 48
50.0
100
AcDbMText
 10
14825.21447691743
 20
9692.226294727554
 30
0.0
 40
150.0
 41
0.0
 71
     4
 72
     1
  1
\A1;土台前後
  7
STYLE1
 73
     1
 44
1.0
  0
LEADER
  5
1BD4A
330
747D
100
AcDbEntity
  8
寸法
 48
50.0
100
AcDbLeader
  3
INABA_S50G
 71
     0
 73
     0
 74
     0
 75
     1
 40
150.0
 41
719.9999999999995
 76
     3
 10
14532.82958141817
 20
9388.236797361971
 30
0.0
 10
14675.21447691743
 20
9592.226294727554
 30
0.0
 10
14800.21447691743
 20
9592.226294727554
 30
0.0
340
1BD49
1001
ACAD
1000
DSTYLE
1002
{
1070
     6
1000
DOTSMALL
1002
}
  0
LINE
  5
1BD4B
330
747D
100
AcDbEntity
  8
Ｇ．Ｌ
 48
50.0
100
AcDbLine
 10
11849.2050880862
 20
9228.736797361971
 30
0.0
 11
16316.77176170856
 21
9228.736797361971
 31
0.0
  0
LINE
  5
1BD4C
330
747D
100
AcDbEntity
  8
部品1
 48
50.0
100
AcDbLine
 10
14401.82958141817
 20
9028.73679736197
 30
0.0
 11
14601.82958141817
 21
9028.73679736197
 31
0.0
  0
LINE
  5
1BD4D
330
747D
100
AcDbEntity
  8
細線
 48
50.0
100
AcDbLine
 10
14401.82958141817
 20
9081.994236983929
 30
0.0
 11
14548.5721417962
 21
9228.736797361973
 31
0.0
  0
LINE
  5
1BD4E
330
747D
100
AcDbEntity
  8
細線
 48
50.0
100
AcDbLine
 10
14445.53913320722
 20
9028.73679736197
 30
0.0
 11
14601.82958141817
 21
9185.027245572921
 31
0.0
  0
LINE
  5
1BD4F
330
747D
100
AcDbEntity
  8
細線
 48
50.0
100
AcDbLine
 10
14498.57214179622
 20
9028.73679736197
 30
0.0
 11
14601.82958141817
 21
9131.994236983928
 31
0.0
  0
LINE
  5
1BD50
330
747D
100
AcDbEntity
  8
細線
 48
50.0
100
AcDbLine
 10
14472.05563750172
 20
9028.73679736197
 30
0.0
 11
14601.82958141817
 21
9158.510741278426
 31
0.0
  0
DIMENSION
  5
1BD51
330
747D
100
AcDbEntity
  8
寸法
 48
50.0
100
AcDbDimension
  2
*D39
 10
15844.10991665977
 20
11390.73679736196
 30
0.0
 11
15744.10991665977
 21
10410.73679736196
 31
0.0
 70
    32
  1
内高 <>
 71
     5
 42
-1.0
  3
INABA_S50G
100
AcDbAlignedDimension
 13
14497.32958141817
 23
9430.736797361971
 33
0.0
 14
14532.82958141817
 24
11390.73679736196
 34
0.0
 50
90.0
100
AcDbRotatedDimension
  0
DIMENSION
  5
1BD52
330
747D
100
AcDbEntity
  8
寸法
 48
50.0
100
AcDbDimension
  2
*D40
 10
16157.07164574816
 20
11573.73679736197
 30
0.0
 11
16057.05688196863
 21
10468.73679736197
 31
0.0
 70
    32
 71
     5
 42
-1.0
  3
INABA_S50G
100
AcDbAlignedDimension
 13
14532.82958141817
 23
9363.736797361971
 33
0.0
 14
14627.82958141817
 24
11573.73679736197
 34
0.0
 50
90.0
100
AcDbRotatedDimension
  0
MTEXT
  5
1BD53
102
{ACAD_REACTORS
330
1BD54
102
}
330
747D
100
AcDbEntity
  8
寸法
 62
     7
 48
50.0
100
AcDbMText
 10
14772.3774760777
 20
10099.22034129159
 30
0.0
 40
150.0
 41
0.0
 71
     4
 72
     1
  1
\A1;内壁
  7
STYLE1
 73
     1
 44
1.0
  0
LEADER
  5
1BD54
330
747D
100
AcDbEntity
  8
寸法
 48
50.0
100
AcDbLeader
  3
INABA_S50G
 71
     0
 73
     0
 74
     0
 75
     1
 40
150.0
 41
320.0
 76
     3
 10
14489.99258057843
 20
9795.230843926011
 30
0.0
 10
14622.3774760777
 20
9999.220341291595
 30
0.0
 10
14747.3774760777
 20
9999.220341291595
 30
0.0
340
1BD53
1001
ACAD
1000
DSTYLE
1002
{
1070
     6
1000
DOTSMALL
1002
}
  0
DIMENSION
  5
1BD55
330
747D
100
AcDbEntity
  8
寸法
 48
50.0
100
AcDbDimension
  2
*D41
 10
12008.38013607452
 20
9363.736797361967
 30
0.0
 11
11908.36537229499
 21
10498.73679736196
 31
0.0
 70
    32
 71
     5
 42
-1.0
  3
INABA_S50G
100
AcDbAlignedDimension
 13
13097.82958141816
 23
11633.73679736197
 33
0.0
 14
13232.82958141817
 24
9363.736797361967
 34
0.0
 50
90.0
100
AcDbRotatedDimension
  0
LINE
  5
1BD56
330
747D
100
AcDbEntity
  8
細線
 48
50.0
100
AcDbLine
 10
13267.82958141817
 20
11378.73679736197
 30
0.0
 11
13267.82958141817
 21
9418.736797361971
 31
0.0
  0
LINE
  5
1BD57
330
747D
100
AcDbEntity
  8
部品1
 48
50.0
100
AcDbLine
 10
13319.32958141817
 20
11367.59466173824
 30
0.0
 11
13319.32958141817
 21
9470.73679736197
 31
0.0
  0
LINE
  5
1BD58
330
747D
100
AcDbEntity
  8
部品1
 48
50.0
100
AcDbLine
 10
13283.32958141817
 20
11378.73679736196
 30
0.0
 11
13283.32958141817
 21
9430.736797361971
 31
0.0
  0
LINE
  5
1BD59
330
747D
100
AcDbEntity
  8
部品1
 48
50.0
100
AcDbLine
 10
13232.82958141817
 20
11588.73679736197
 30
0.0
 11
13232.82958141817
 21
9418.736797361971
 31
0.0
  0
DIMENSION
  5
1BD5A
330
747D
100
AcDbEntity
  8
寸法
 48
50.0
100
AcDbDimension
  2
*D42
 10
12342.63480123898
 20
9418.736797361971
 30
0.0
 11
12242.63480123898
 21
10391.23679736196
 31
0.0
 70
    32
 71
     5
 42
-1.0
  3
INABA_S50G
100
AcDbAlignedDimension
 13
13232.82958141817
 23
11363.73679736196
 33
0.0
 14
13232.82958141817
 24
9418.736797361971
 34
0.0
 50
90.0
100
AcDbRotatedDimension
  0
LINE
  5
1BD5B
330
747D
100
AcDbEntity
  8
細線
 48
50.0
100
AcDbLine
 10
14497.82958141817
 20
11378.73679736197
 30
0.0
 11
14497.82958141817
 21
9418.736797361971
 31
0.0
  0
LINE
  5
1BD5C
330
747D
100
AcDbEntity
  8
部品1
 48
50.0
100
AcDbLine
 10
14482.32958141817
 20
11378.73679736196
 30
0.0
 11
14482.32958141817
 21
9430.736797361971
 31
0.0
  0
LINE
  5
1BD5D
330
747D
100
AcDbEntity
  8
部品1
 48
50.0
100
AcDbLine
 10
14446.32958141817
 20
11367.59466173824
 30
0.0
 11
14446.32958141817
 21
9470.73679736197
 31
0.0
  0
LINE
  5
1BD5E
330
747D
100
AcDbEntity
  8
部品1
 48
50.0
100
AcDbLine
 10
13900.82958141817
 20
11063.08847168111
 30
0.0
 11
13900.82958141817
 21
9470.73679736197
 31
0.0
  0
LINE
  5
1BD5F
330
747D
100
AcDbEntity
  8
部品1
 48
50.0
100
AcDbLine
 10
13864.82958141817
 20
11063.08847168111
 30
0.0
 11
13864.82958141817
 21
9470.73679736197
 31
0.0
  0
LINE
  5
1BD60
330
747D
100
AcDbEntity
  8
部品1
 48
50.0
100
AcDbLine
 10
14532.82958141817
 20
11473.73679736196
 30
0.0
 11
14532.82958141817
 21
9418.736797361971
 31
0.0
  0
LINE
  5
1BD61
330
747D
100
AcDbEntity
  8
破線
 48
3.0
100
AcDbLine
 10
13242.82958141817
 20
9122.736797361971
 30
0.0
 11
13284.82958141817
 21
9122.736797361971
 31
0.0
  0
LINE
  5
1BD62
330
747D
100
AcDbEntity
  8
細線
 48
50.0
100
AcDbLine
 10
13330.10352533462
 20
9228.736797361971
 30
0.0
 11
13232.82958141817
 21
9326.010741278425
 31
0.0
  0
LINE
  5
1BD63
330
747D
100
AcDbEntity
  8
細線
 48
50.0
100
AcDbLine
 10
13356.62002962911
 20
9228.736797361971
 30
0.0
 11
13232.82958141817
 21
9352.52724557292
 31
0.0
  0
LINE
  5
1BD64
330
747D
100
AcDbEntity
  8
部品1
 48
50.0
100
AcDbLine
 10
13232.82958141817
 20
9418.736797361971
 30
0.0
 11
13268.32958141817
 21
9418.736797361971
 31
0.0
  0
LINE
  5
1BD65
330
747D
100
AcDbEntity
  8
部品1
 48
50.0
100
AcDbLine
 10
13163.82958141817
 20
9028.73679736197
 30
0.0
 11
13363.82958141817
 21
9028.73679736197
 31
0.0
  0
LINE
  5
1BD66
330
747D
100
AcDbEntity
  8
細線
 48
50.0
100
AcDbLine
 10
13163.82958141817
 20
9108.510741278426
 30
0.0
 11
13284.0556375017
 21
9228.736797361971
 31
0.0
  0
LINE
  5
1BD67
330
747D
100
AcDbEntity
  8
細線
 48
50.0
100
AcDbLine
 10
13163.82958141817
 20
9081.994236983929
 30
0.0
 11
13310.57214179619
 21
9228.736797361973
 31
0.0
  0
LINE
  5
1BD68
330
747D
100
AcDbEntity
  8
細線
 48
50.0
100
AcDbLine
 10
13207.53913320722
 20
9028.73679736197
 30
0.0
 11
13363.82958141817
 21
9185.027245572921
 31
0.0
  0
LINE
  5
1BD69
330
747D
100
AcDbEntity
  8
細線
 48
50.0
100
AcDbLine
 10
13260.57214179622
 20
9028.73679736197
 30
0.0
 11
13363.82958141817
 21
9131.994236983928
 31
0.0
  0
LINE
  5
1BD6A
330
747D
100
AcDbEntity
  8
細線
 48
50.0
100
AcDbLine
 10
13234.05563750172
 20
9028.73679736197
 30
0.0
 11
13363.82958141817
 21
9158.510741278426
 31
0.0
  0
LINE
  5
1BD6B
330
747D
100
AcDbEntity
  8
部品1
 48
50.0
100
AcDbLine
 10
13232.82958141817
 20
9363.736797361971
 30
0.0
 11
14532.82958141817
 21
9363.736797361971
 31
0.0
  0
DIMENSION
  5
1BD6C
330
747D
100
AcDbEntity
  8
寸法
 48
50.0
100
AcDbDimension
  2
*D43
 10
12342.63480123898
 20
9363.736797361971
 30
0.0
 11
12342.63480123898
 21
9089.650458526433
 31
0.0
 70
   160
 71
     5
 42
-1.0
  3
INABA_S50G
100
AcDbAlignedDimension
 13
13232.82958141817
 23
9418.736797361971
 33
0.0
 14
13232.82958141817
 24
9363.736797361971
 34
0.0
 50
90.0
100
AcDbRotatedDimension
  0
LINE
  5
1BD6D
330
747D
100
AcDbEntity
  8
細線
 48
50.0
100
AcDbLine
 10
13163.82958141817
 20
9135.027245572921
 30
0.0
 11
13257.53913320723
 21
9228.736797361971
 31
0.0
  0
LINE
  5
1BD6E
330
747D
100
AcDbEntity
  8
破線
 48
3.0
100
AcDbLine
 10
13242.82958141817
 20
9228.736797361971
 30
0.0
 11
13242.82958141817
 21
9122.736797361971
 31
0.0
  0
LINE
  5
1BD6F
330
747D
100
AcDbEntity
  8
部品1
 48
50.0
100
AcDbLine
 10
13232.82958141817
 20
9363.736797361967
 30
0.0
 11
13232.82958141817
 21
9228.736797361971
 31
0.0
  0
LINE
  5
1BD70
330
747D
100
AcDbEntity
  8
部品1
 48
50.0
100
AcDbLine
 10
13232.82958141817
 20
9412.73679736197
 30
0.0
 11
13238.82958141817
 21
9412.73679736197
 31
0.0
  0
LINE
  5
1BD71
330
747D
100
AcDbEntity
  8
部品1
 48
50.0
100
AcDbLine
 10
13238.82958141817
 20
9412.73679736197
 30
0.0
 11
13238.82958141817
 21
9418.736797361971
 31
0.0
  0
LINE
  5
1BD72
330
747D
100
AcDbEntity
  8
部品1
 48
50.0
100
AcDbLine
 10
13232.82958141817
 20
9412.73679736197
 30
0.0
 11
13232.82958141817
 21
9363.736797361971
 31
0.0
  0
LINE
  5
1BD73
330
747D
100
AcDbEntity
  8
部品1
 48
50.0
100
AcDbLine
 10
13163.82958141817
 20
9228.736797361971
 30
0.0
 11
13163.82958141817
 21
9028.73679736197
 31
0.0
  0
LINE
  5
1BD74
330
747D
100
AcDbEntity
  8
部品1
 48
50.0
100
AcDbLine
 10
13896.82958141816
 20
9418.736797361971
 30
0.0
 11
13902.82958141816
 21
9418.736797361971
 31
0.0
  0
LINE
  5
1BD75
330
747D
100
AcDbEntity
  8
細線
 48
50.0
100
AcDbLine
 10
13283.32958141817
 20
9430.736797361971
 30
0.0
 11
14482.32958141817
 21
9430.736797361971
 31
0.0
  0
LINE
  5
1BD76
330
747D
100
AcDbEntity
  8
細線
 48
50.0
100
AcDbLine
 10
14482.32958141817
 20
9418.736797361971
 30
0.0
 11
13283.32958141817
 21
9418.736797361971
 31
0.0
  0
LINE
  5
1BD77
330
747D
100
AcDbEntity
  8
部品1
 48
50.0
100
AcDbLine
 10
13283.32958141817
 20
9470.73679736197
 30
0.0
 11
14482.32958141817
 21
9470.73679736197
 31
0.0
  0
MTEXT
  5
1BD78
102
{ACAD_REACTORS
330
1BD91
102
}
330
747D
100
AcDbEntity
  8
部品1
 62
     7
 48
50.0
100
AcDbMText
 10
13508.99900614677
 20
9656.775787169863
 30
0.0
 40
150.0
 41
0.0
 71
     4
 72
     1
  1
\A1;床板
  7
STYLE1
 73
     1
 44
1.0
  0
LINE
  5
1BD79
330
747D
100
AcDbEntity
  8
部品1
 48
50.0
100
AcDbLine
 10
13432.82958141817
 20
9363.736797361967
 30
0.0
 11
13432.82958141817
 21
9228.736797361971
 31
0.0
  0
LINE
  5
1BD7A
330
747D
100
AcDbEntity
  8
部品1
 48
50.0
100
AcDbLine
 10
13606.82958141816
 20
9418.736797361971
 30
0.0
 11
13612.82958141816
 21
9418.736797361971
 31
0.0
  0
LINE
  5
1BD7B
330
747D
100
AcDbEntity
  8
部品1
 48
50.0
100
AcDbLine
 10
13572.82958141816
 20
9418.736797361971
 30
0.0
 11
13578.82958141816
 21
9418.736797361971
 31
0.0
  0
LINE
  5
1BD7C
330
747D
100
AcDbEntity
  8
部品1
 48
50.0
100
AcDbLine
 10
13578.82958141816
 20
9412.73679736197
 30
0.0
 11
13606.82958141816
 21
9412.736797361969
 31
0.0
  0
LINE
  5
1BD7D
330
747D
100
AcDbEntity
  8
部品1
 48
50.0
100
AcDbLine
 10
13606.82958141816
 20
9418.736797361971
 30
0.0
 11
13606.82958141816
 21
9412.73679736197
 31
0.0
  0
LINE
  5
1BD7E
330
747D
100
AcDbEntity
  8
部品1
 48
50.0
100
AcDbLine
 10
13578.82958141816
 20
9412.73679736197
 30
0.0
 11
13578.82958141816
 21
9418.736797361971
 31
0.0
  0
LINE
  5
1BD7F
330
747D
100
AcDbEntity
  8
部品1
 48
50.0
100
AcDbLine
 10
13612.82958141816
 20
9418.736797361971
 30
0.0
 11
13612.82958141816
 21
9363.736797361971
 31
0.0
  0
LINE
  5
1BD80
330
747D
100
AcDbEntity
  8
部品1
 48
50.0
100
AcDbLine
 10
13572.82958141816
 20
9363.736797361971
 30
0.0
 11
13572.82958141816
 21
9418.736797361971
 31
0.0
  0
LINE
  5
1BD81
330
747D
100
AcDbEntity
  8
部品1
 48
50.0
100
AcDbLine
 10
13862.82958141816
 20
9363.736797361971
 30
0.0
 11
13862.82958141816
 21
9418.736797361971
 31
0.0
  0
LINE
  5
1BD82
330
747D
100
AcDbEntity
  8
部品1
 48
50.0
100
AcDbLine
 10
13868.82958141816
 20
9412.73679736197
 30
0.0
 11
13868.82958141816
 21
9418.736797361971
 31
0.0
  0
LINE
  5
1BD83
330
747D
100
AcDbEntity
  8
部品1
 48
50.0
100
AcDbLine
 10
13896.82958141816
 20
9418.736797361971
 30
0.0
 11
13896.82958141816
 21
9412.73679736197
 31
0.0
  0
LINE
  5
1BD84
330
747D
100
AcDbEntity
  8
部品1
 48
50.0
100
AcDbLine
 10
13868.82958141816
 20
9412.73679736197
 30
0.0
 11
13896.82958141816
 21
9412.736797361969
 31
0.0
  0
LINE
  5
1BD85
330
747D
100
AcDbEntity
  8
部品1
 48
50.0
100
AcDbLine
 10
13862.82958141816
 20
9418.736797361971
 30
0.0
 11
13868.82958141816
 21
9418.736797361971
 31
0.0
  0
LINE
  5
1BD86
330
747D
100
AcDbEntity
  8
破線
 48
3.0
100
AcDbLine
 10
13284.82958141817
 20
9228.736797361971
 30
0.0
 11
13284.82958141817
 21
9122.736797361971
 31
0.0
  0
LINE
  5
1BD87
330
747D
100
AcDbEntity
  8
部品1
 48
50.0
100
AcDbLine
 10
13268.32958141817
 20
9430.736797361971
 30
0.0
 11
13283.32958141817
 21
9430.736797361971
 31
0.0
  0
LINE
  5
1BD88
330
747D
100
AcDbEntity
  8
部品1
 48
50.0
100
AcDbLine
 10
13268.32958141817
 20
9418.736797361971
 30
0.0
 11
13268.32958141817
 21
9430.736797361971
 31
0.0
  0
LINE
  5
1BD89
330
747D
100
AcDbEntity
  8
部品1
 48
50.0
100
AcDbLine
 10
13292.32958141817
 20
9470.73679736197
 30
0.0
 11
13292.32958141817
 21
9430.736797361971
 31
0.0
  0
LINE
  5
1BD8A
330
747D
100
AcDbEntity
  8
部品1
 48
50.0
100
AcDbLine
 10
13283.32958141817
 20
9430.736797361971
 30
0.0
 11
13283.32958141817
 21
9418.736797361971
 31
0.0
  0
LINE
  5
1BD8B
330
747D
100
AcDbEntity
  8
部品1
 48
50.0
100
AcDbLine
 10
13283.32958141817
 20
9418.736797361971
 30
0.0
 11
13297.32958141817
 21
9418.736797361971
 31
0.0
  0
LINE
  5
1BD8C
330
747D
100
AcDbEntity
  8
部品1
 48
50.0
100
AcDbLine
 10
13297.32958141817
 20
9418.736797361971
 30
0.0
 11
13297.32958141817
 21
9411.736797361971
 31
0.0
  0
LINE
  5
1BD8D
330
747D
100
AcDbEntity
  8
部品1
 48
50.0
100
AcDbLine
 10
13297.32958141817
 20
9411.736797361971
 30
0.0
 11
13321.32958141817
 21
9411.736797361971
 31
0.0
  0
LINE
  5
1BD8E
330
747D
100
AcDbEntity
  8
部品1
 48
50.0
100
AcDbLine
 10
13321.32958141817
 20
9411.736797361971
 30
0.0
 11
13321.32958141817
 21
9363.736797361971
 31
0.0
  0
LINE
  5
1BD8F
330
747D
100
AcDbEntity
  8
部品1
 48
50.0
100
AcDbLine
 10
13292.32958141817
 20
9430.736797361971
 30
0.0
 11
13283.32958141817
 21
9430.736797361971
 31
0.0
  0
LINE
  5
1BD90
330
747D
100
AcDbEntity
  8
部品1
 48
50.0
100
AcDbLine
 10
13283.32958141817
 20
9470.73679736197
 30
0.0
 11
13292.32958141817
 21
9470.73679736197
 31
0.0
  0
LEADER
  5
1BD91
330
747D
100
AcDbEntity
  8
寸法
 48
50.0
100
AcDbLeader
  3
INABA_S50G
 71
     0
 73
     0
 74
     0
 75
     1
 40
150.0
 41
319.9999999999999
 76
     3
 10
13414.01568375584
 20
9425.668860537973
 30
0.0
 10
13358.99900614677
 20
9556.775787169861
 30
0.0
 10
13483.99900614677
 20
9556.775787169861
 30
0.0
340
1BD78
1001
ACAD
1000
DSTYLE
1002
{
1070
     6
1000
DOTSMALL
1002
}
  0
LINE
  5
1BD92
330
747D
100
AcDbEntity
  8
細線
 48
50.0
100
AcDbLine
 10
13432.82958141817
 20
9276.010741278424
 30
0.0
 11
13345.10352533462
 21
9363.736797361973
 31
0.0
  0
LINE
  5
1BD93
330
747D
100
AcDbEntity
  8
細線
 48
50.0
100
AcDbLine
 10
13432.82958141817
 20
9302.527245572919
 30
0.0
 11
13371.62002962911
 21
9363.736797361971
 31
0.0
  0
LINE
  5
1BD94
330
747D
100
AcDbEntity
  8
部品1
 48
50.0
100
AcDbLine
 10
13363.82958141817
 20
9028.73679736197
 30
0.0
 11
13363.82958141817
 21
9228.736797361971
 31
0.0
  0
LINE
  5
1BD95
330
747D
100
AcDbEntity
  8
破線
 48
3.0
100
AcDbLine
 10
14522.82958141817
 20
9228.736797361971
 30
0.0
 11
14522.82958141817
 21
9122.736797361971
 31
0.0
  0
LINE
  5
1BD96
330
747D
100
AcDbEntity
  8
部品1
 48
50.0
100
AcDbLine
 10
14532.82958141817
 20
9363.736797361971
 30
0.0
 11
14532.82958141817
 21
9228.736797361971
 31
0.0
  0
LINE
  5
1BD97
330
747D
100
AcDbEntity
  8
部品1
 48
50.0
100
AcDbLine
 10
14532.82958141817
 20
9412.73679736197
 30
0.0
 11
14526.82958141817
 21
9412.73679736197
 31
0.0
  0
LINE
  5
1BD98
330
747D
100
AcDbEntity
  8
部品1
 48
50.0
100
AcDbLine
 10
14526.82958141817
 20
9412.73679736197
 30
0.0
 11
14526.82958141817
 21
9418.736797361971
 31
0.0
  0
LINE
  5
1BD99
330
747D
100
AcDbEntity
  8
部品1
 48
50.0
100
AcDbLine
 10
14532.82958141817
 20
9412.736797361969
 30
0.0
 11
14532.82958141817
 21
9363.736797361971
 31
0.0
  0
MTEXT
  5
1BD9A
102
{ACAD_REACTORS
330
1BDB2
102
}
330
747D
100
AcDbEntity
  8
寸法
 62
     7
 48
50.0
100
AcDbMText
 10
14263.56909905212
 20
9701.080712269295
 30
0.0
 40
150.0
 41
0.0
 71
     6
 72
     1
  1
\A1;巾木
  7
STYLE1
 73
     1
 44
1.0
  0
LINE
  5
1BD9B
330
747D
100
AcDbEntity
  8
細線
 48
50.0
100
AcDbLine
 10
14401.82958141817
 20
9135.027245572921
 30
0.0
 11
14495.53913320723
 21
9228.736797361971
 31
0.0
  0
LINE
  5
1BD9C
330
747D
100
AcDbEntity
  8
細線
 48
50.0
100
AcDbLine
 10
14430.10352533462
 20
9228.736797361971
 30
0.0
 11
14332.82958141817
 21
9326.010741278425
 31
0.0
  0
LINE
  5
1BD9D
330
747D
100
AcDbEntity
  8
細線
 48
50.0
100
AcDbLine
 10
14456.62002962911
 20
9228.736797361971
 30
0.0
 11
14332.82958141817
 21
9352.52724557292
 31
0.0
  0
LINE
  5
1BD9E
330
747D
100
AcDbEntity
  8
部品1
 48
50.0
100
AcDbLine
 10
14332.82958141817
 20
9363.736797361971
 30
0.0
 11
14332.82958141817
 21
9228.736797361971
 31
0.0
  0
LINE
  5
1BD9F
330
747D
100
AcDbEntity
  8
部品1
 48
50.0
100
AcDbLine
 10
14152.82958141816
 20
9363.736797361971
 30
0.0
 11
14152.82958141816
 21
9418.736797361971
 31
0.0
  0
LINE
  5
1BDA0
330
747D
100
AcDbEntity
  8
部品1
 48
50.0
100
AcDbLine
 10
14192.82958141816
 20
9418.736797361971
 30
0.0
 11
14192.82958141816
 21
9363.736797361971
 31
0.0
  0
LINE
  5
1BDA1
330
747D
100
AcDbEntity
  8
部品1
 48
50.0
100
AcDbLine
 10
14158.82958141816
 20
9412.73679736197
 30
0.0
 11
14158.82958141816
 21
9418.736797361971
 31
0.0
  0
LINE
  5
1BDA2
330
747D
100
AcDbEntity
  8
部品1
 48
50.0
100
AcDbLine
 10
14186.82958141816
 20
9418.736797361971
 30
0.0
 11
14186.82958141816
 21
9412.73679736197
 31
0.0
  0
LINE
  5
1BDA3
330
747D
100
AcDbEntity
  8
部品1
 48
50.0
100
AcDbLine
 10
14158.82958141816
 20
9412.73679736197
 30
0.0
 11
14186.82958141816
 21
9412.736797361969
 31
0.0
  0
LINE
  5
1BDA4
330
747D
100
AcDbEntity
  8
部品1
 48
50.0
100
AcDbLine
 10
14152.82958141816
 20
9418.736797361971
 30
0.0
 11
14158.82958141816
 21
9418.736797361971
 31
0.0
  0
LINE
  5
1BDA5
330
747D
100
AcDbEntity
  8
部品1
 48
50.0
100
AcDbLine
 10
14186.82958141816
 20
9418.736797361971
 30
0.0
 11
14192.82958141816
 21
9418.736797361971
 31
0.0
  0
LINE
  5
1BDA6
330
747D
100
AcDbEntity
  8
破線
 48
3.0
100
AcDbLine
 10
14480.82958141817
 20
9228.736797361971
 30
0.0
 11
14480.82958141817
 21
9122.736797361971
 31
0.0
  0
LINE
  5
1BDA7
330
747D
100
AcDbEntity
  8
部品1
 48
50.0
100
AcDbLine
 10
14473.32958141816
 20
9470.73679736197
 30
0.0
 11
14473.32958141816
 21
9430.736797361971
 31
0.0
  0
LINE
  5
1BDA8
330
747D
100
AcDbEntity
  8
部品1
 48
50.0
100
AcDbLine
 10
14482.32958141817
 20
9430.736797361971
 30
0.0
 11
14482.32958141817
 21
9418.736797361971
 31
0.0
  0
LINE
  5
1BDA9
330
747D
100
AcDbEntity
  8
部品1
 48
50.0
100
AcDbLine
 10
14497.32958141817
 20
9430.736797361971
 30
0.0
 11
14482.32958141817
 21
9430.736797361971
 31
0.0
  0
LINE
  5
1BDAA
330
747D
100
AcDbEntity
  8
部品1
 48
50.0
100
AcDbLine
 10
14497.32958141817
 20
9418.736797361971
 30
0.0
 11
14497.32958141817
 21
9430.736797361971
 31
0.0
  0
LINE
  5
1BDAB
330
747D
100
AcDbEntity
  8
部品1
 48
50.0
100
AcDbLine
 10
14468.32958141817
 20
9418.736797361971
 30
0.0
 11
14468.32958141817
 21
9411.736797361971
 31
0.0
  0
LINE
  5
1BDAC
330
747D
100
AcDbEntity
  8
部品1
 48
50.0
100
AcDbLine
 10
14468.32958141817
 20
9418.736797361971
 30
0.0
 11
14482.32958141817
 21
9418.736797361971
 31
0.0
  0
LINE
  5
1BDAD
330
747D
100
AcDbEntity
  8
部品1
 48
50.0
100
AcDbLine
 10
14473.32958141816
 20
9430.736797361971
 30
0.0
 11
14482.32958141817
 21
9430.736797361971
 31
0.0
  0
LINE
  5
1BDAE
330
747D
100
AcDbEntity
  8
部品1
 48
50.0
100
AcDbLine
 10
14444.32958141817
 20
9411.736797361971
 30
0.0
 11
14444.32958141817
 21
9363.736797361971
 31
0.0
  0
LINE
  5
1BDAF
330
747D
100
AcDbEntity
  8
部品1
 48
50.0
100
AcDbLine
 10
14468.32958141817
 20
9411.736797361971
 30
0.0
 11
14444.32958141817
 21
9411.736797361971
 31
0.0
  0
LINE
  5
1BDB0
330
747D
100
AcDbEntity
  8
部品1
 48
50.0
100
AcDbLine
 10
14482.32958141816
 20
9470.73679736197
 30
0.0
 11
14473.32958141816
 21
9470.73679736197
 31
0.0
  0
LINE
  5
1BDB1
330
747D
100
AcDbEntity
  8
部品1
 48
50.0
100
AcDbLine
 10
13902.82958141816
 20
9418.736797361971
 30
0.0
 11
13902.82958141816
 21
9363.736797361971
 31
0.0
  0
LEADER
  5
1BDB2
330
747D
100
AcDbEntity
  8
寸法
 48
50.0
100
AcDbLeader
  3
INABA_S50G
 71
     0
 73
     0
 75
     1
 40
150.0
 41
310.0
 76
     3
 10
14476.76541320617
 20
9455.070269982758
 30
0.0
 10
14413.56909905212
 20
9601.080712269295
 30
0.0
 10
14288.56909905212
 20
9601.080712269295
 30
0.0
340
1BD9A
1001
ACAD
1000
DSTYLE
1002
{
1070
     6
1000
DOTSMALL
1002
}
  0
LINE
  5
1BDB3
330
747D
100
AcDbEntity
  8
部品1
 48
50.0
100
AcDbLine
 10
14401.82958141817
 20
9228.736797361971
 30
0.0
 11
14401.82958141817
 21
9028.73679736197
 31
0.0
  0
LINE
  5
1BDB4
330
747D
100
AcDbEntity
  8
細線
 48
50.0
100
AcDbLine
 10
14401.82958141817
 20
9108.510741278426
 30
0.0
 11
14522.0556375017
 21
9228.736797361971
 31
0.0
  0
LINE
  5
1BDB5
330
747D
100
AcDbEntity
  8
破線
 48
3.0
100
AcDbLine
 10
14480.82958141817
 20
9122.736797361971
 30
0.0
 11
14522.82958141817
 21
9122.736797361971
 31
0.0
  0
LINE
  5
1BDB6
330
747D
100
AcDbEntity
  8
細線
 48
50.0
100
AcDbLine
 10
14532.82958141817
 20
9302.527245572919
 30
0.0
 11
14471.62002962911
 21
9363.736797361971
 31
0.0
  0
LINE
  5
1BDB7
330
747D
100
AcDbEntity
  8
細線
 48
50.0
100
AcDbLine
 10
14532.82958141817
 20
9276.010741278424
 30
0.0
 11
14445.10352533463
 21
9363.736797361973
 31
0.0
  0
LINE
  5
1BDB8
330
747D
100
AcDbEntity
  8
部品1
 48
50.0
100
AcDbLine
 10
14532.82958141817
 20
9418.736797361971
 30
0.0
 11
14497.32958141817
 21
9418.736797361971
 31
0.0
  0
LINE
  5
1BDB9
330
747D
100
AcDbEntity
  8
部品1
 48
50.0
100
AcDbLine
 10
13261.32958141817
 20
11573.73679736196
 30
0.0
 11
13283.82958141817
 21
11573.73679736196
 31
0.0
  0
LINE
  5
1BDBA
330
747D
100
AcDbEntity
  8
部品1
 48
50.0
100
AcDbLine
 10
13232.82958141817
 20
11378.73679736196
 30
0.0
 11
13282.82958141817
 21
11378.73679736196
 31
0.0
  0
LINE
  5
1BDBB
330
747D
100
AcDbEntity
  8
細線
 48
50.0
100
AcDbLine
 10
13263.52601300255
 20
11594.85980255405
 30
0.0
 11
13262.30084868657
 21
11578.90677862757
 31
0.0
  0
LINE
  5
1BDBC
330
747D
100
AcDbEntity
  8
細線
 48
50.0
100
AcDbLine
 10
13262.30084868657
 20
11578.90677862757
 30
0.0
 11
13282.24212859467
 21
11577.37532323257
 31
0.0
  0
MTEXT
  5
1BDBD
102
{ACAD_REACTORS
330
1BDBE
102
}
330
747D
100
AcDbEntity
  8
寸法
 62
     7
 48
50.0
100
AcDbMText
 10
13102.12439623184
 20
10935.14034439847
 30
0.0
 40
150.0
 41
0.0
 71
     6
 72
     1
  1
\A1;母屋中
  7
STYLE1
 73
     1
 44
1.0
  0
LEADER
  5
1BDBE
330
747D
100
AcDbEntity
  8
寸法
 48
50.0
100
AcDbLeader
  3
INABA_S50G
 71
     0
 73
     0
 75
     1
 40
150.0
 41
540.0000000000002
 76
     3
 10
13857.82958141817
 20
11463.48679736196
 30
0.0
 10
13252.12439623184
 20
10835.14034439847
 30
0.0
 10
13127.12439623184
 20
10835.14034439847
 30
0.0
340
1BDBD
1001
ACAD
1000
DSTYLE
1002
{
1070
     6
1000
DOTSMALL
1002
}
  0
LINE
  5
1BDBF
330
747D
100
AcDbEntity
  8
部品1
 48
50.0
100
AcDbLine
 10
13175.40013937792
 20
11631.31079918743
 30
0.0
 11
13184.79555514413
 21
11603.96990383365
 31
0.0
  0
LINE
  5
1BDC0
330
747D
100
AcDbEntity
  8
部品1
100
AcDbLine
 10
13117.40813407784
 20
11616.54160810821
 30
0.0
 11
13124.10013006798
 21
11631.16076879153
 31
0.0
  0
LINE
  5
1BDC1
330
747D
100
AcDbEntity
  8
細線
 48
50.0
100
AcDbLine
 10
13127.61578257115
 20
11627.36225267836
 30
0.0
 11
13125.93118163666
 21
11605.42684477945
 31
0.0
  0
DIMENSION
  5
1BDC2
330
747D
100
AcDbEntity
  8
寸法
 48
50.0
100
AcDbDimension
  2
*D44
 10
12501.55458482934
 20
11625.7305123677
 30
0.0
 11
12505.65962527941
 21
11883.8044678402
 31
0.0
 70
   160
 71
     5
 42
-1.0
  3
INABA_S50G
100
AcDbAlignedDimension
 13
13118.8404644795
 23
11500.89713798174
 33
0.0
 14
13120.66947485201
 24
11615.88259237079
 34
0.0
 50
89.08870440418592
100
AcDbRotatedDimension
  0
MTEXT
  5
1BDC3
102
{ACAD_REACTORS
330
1BDC4
102
}
330
747D
100
AcDbEntity
  8
寸法
 62
     7
 48
50.0
100
AcDbMText
 10
12779.20278459666
 20
12174.32712616799
 30
0.0
 40
150.0
 41
0.0
 71
     6
 72
     1
  1
\A1;鼻隠シ前
  7
STYLE1
 73
     1
 44
1.0
  0
LEADER
  5
1BDC4
330
747D
100
AcDbEntity
  8
寸法
 48
50.0
100
AcDbLeader
  3
INABA_S50G
 71
     0
 73
     0
 75
     1
 40
150.0
 41
697.5
 76
     3
 10
13098.68985764767
 20
11573.78978150138
 30
0.0
 10
12929.20278459666
 20
12074.32712616799
 30
0.0
 10
12804.20278459666
 20
12074.32712616799
 30
0.0
340
1BDC3
1001
ACAD
1000
DSTYLE
1002
{
1070
     6
1000
DOTSMALL
1002
}
  0
MTEXT
  5
1BDC5
102
{ACAD_REACTORS
330
1BDC6
102
}
330
747D
100
AcDbEntity
  8
寸法
 62
     7
 48
50.0
100
AcDbMText
 10
12893.39443515959
 20
11242.78867508207
 30
0.0
 40
150.0
 41
0.0
 71
     6
 72
     1
  1
\A1;桁前
  7
STYLE1
 73
     1
 44
1.0
  0
LEADER
  5
1BDC6
330
747D
100
AcDbEntity
  8
寸法
 48
50.0
100
AcDbLeader
  3
INABA_S50G
 71
     0
 73
     0
 75
     1
 40
150.0
 41
337.5
 76
     3
 10
13232.82958141817
 20
11430.44622311198
 30
0.0
 10
13043.39443515959
 20
11142.78867508207
 30
0.0
 10
12918.39443515959
 20
11142.78867508207
 30
0.0
340
1BDC5
1001
ACAD
1000
DSTYLE
1002
{
1070
     6
1000
DOTSMALL
1002
}
  0
ARC
  5
1BDC7
330
747D
100
AcDbEntity
  8
部品1
100
AcDbCircle
 10
13113.32958141817
 20
11600.20873825652
 30
0.0
 40
15.5
100
AcDbArc
 50
88.13874351680366
 51
181.8832004883104
  0
LINE
  5
1BDC8
330
747D
100
AcDbEntity
  8
部品1
 48
50.0
100
AcDbLine
 10
13127.83932612733
 20
11500.75399803954
 30
0.0
 11
13118.8404644795
 21
11500.89713798173
 31
0.0
  0
ARC
  5
1BDC9
330
747D
100
AcDbEntity
  8
部品1
 48
50.0
100
AcDbCircle
 10
13130.86280333365
 20
11502.20609500011
 30
0.0
 40
3.0
100
AcDbArc
 50
89.08870440418532
 51
179.0887044041912
  0
LINE
  5
1BDCA
330
747D
100
AcDbEntity
  8
部品1
 48
50.0
100
AcDbLine
 10
13127.83932612733
 20
11500.75399803954
 30
0.0
 11
13127.86318278437
 21
11502.25380831417
 31
0.0
  0
LINE
  5
1BDCB
330
747D
100
AcDbEntity
  8
部品1
 48
50.0
100
AcDbLine
 10
13232.90115138926
 20
11503.5834066249
 30
0.0
 11
13130.91051664771
 21
11505.20571554939
 31
0.0
  0
LINE
  5
1BDCC
330
747D
100
AcDbEntity
  8
細線
 48
50.0
100
AcDbLine
 10
13232.82958141816
 20
11499.08397580098
 30
0.0
 11
13127.83932612733
 21
11500.75399803954
 31
0.0
  0
LINE
  5
1BDCD
330
747D
100
AcDbEntity
  8
部品1
100
AcDbLine
 10
13097.83795305646
 20
11599.69937522019
 30
0.0
 11
13100.38580755856
 21
11522.20962380329
 31
0.0
  0
LINE
  5
1BDCE
330
747D
100
AcDbEntity
  8
部品1
100
AcDbLine
 10
13103.50358129389
 20
11518.67699207427
 30
0.0
 11
13103.59535490713
 21
11515.88581445
 31
0.0
  0
ARC
  5
1BDCF
330
747D
100
AcDbEntity
  8
部品1
100
AcDbCircle
 10
13101.58515943173
 20
11522.24905836094
 30
0.0
 40
1.199999999999999
100
AcDbArc
 50
181.8832004883104
 51
260.9777304905277
  0
ARC
  5
1BDD0
330
747D
100
AcDbEntity
  8
部品1
100
AcDbCircle
 10
13101.00493155814
 20
11518.59483674583
 30
0.0
 40
2.5
100
AcDbArc
 50
1.883200488304429
 51
80.9777304905255
  0
ARC
  5
1BDD1
330
747D
100
AcDbEntity
  8
部品1
100
AcDbCircle
 10
13119.08698326884
 20
11516.39517748634
 30
0.0
 40
15.5
100
AcDbArc
 50
181.8832004883684
 51
269.0887044041854
  0
LINE
  5
1BDD2
330
747D
100
AcDbEntity
  8
部品1
 48
50.0
100
AcDbLine
 10
13232.82958141817
 20
11588.73679736196
 30
0.0
 11
13261.32958141817
 21
11588.73679736196
 31
0.0
  0
LINE
  5
1BDD3
330
747D
100
AcDbEntity
  8
部品1
 48
50.0
100
AcDbLine
 10
13261.32958141817
 20
11588.73679736196
 30
0.0
 11
13261.32958141817
 21
11573.73679736196
 31
0.0
  0
LINE
  5
1BDD4
330
747D
100
AcDbEntity
  8
部品1
 48
50.0
100
AcDbLine
 10
13116.02062901199
 20
11615.66612422279
 30
0.0
 11
13113.83301119891
 21
11615.70056056559
 31
0.0
  0
ARC
  5
1BDD5
330
747D
100
AcDbEntity
  8
部品1
100
AcDbCircle
 10
13116.04423830756
 20
11617.16593841167
 30
0.0
 40
1.5
100
AcDbArc
 50
269.0981540988973
 51
335.4038180356238
  0
ARC
  5
1BDD6
330
747D
100
AcDbEntity
  8
部品1
 48
50.0
100
AcDbCircle
 10
13127.28255353196
 20
11629.70399808346
 30
0.0
 40
3.5
100
AcDbArc
 50
88.96475328401214
 51
155.4038180356338
  0
DIMENSION
  5
1BDD7
330
747D
100
AcDbEntity
  8
寸法
 48
50.0
100
AcDbDimension
  2
*D45
 10
13232.82958141817
 20
12327.01792807849
 30
0.0
 11
12815.27052630005
 21
12327.01792807849
 31
0.0
 70
   160
 71
     5
 42
-1.0
  3
INABA_S50G
100
AcDbAlignedDimension
 13
13097.82958141817
 23
11633.73679736197
 33
0.0
 14
13232.82958141817
 24
11631.29728927309
 34
0.0
100
AcDbRotatedDimension
  0
MTEXT
  5
1BDD8
102
{ACAD_REACTORS
330
1BDD9
102
}
330
747D
100
AcDbEntity
  8
寸法
 62
     7
 48
50.0
100
AcDbMText
 10
14144.83247224645
 20
11805.2915960787
 30
0.0
 40
150.0
 41
0.0
 71
     4
 72
     1
  1
\A1;妻板
  7
STYLE1
 73
     1
 44
1.0
  0
LEADER
  5
1BDD9
330
747D
100
AcDbEntity
  8
寸法
 48
50.0
100
AcDbLeader
  3
INABA_S50G
 71
     0
 73
     0
 74
     0
 75
     1
 40
150.0
 41
319.9999999999998
 76
     3
 10
13949.21710135562
 20
11581.89466159487
 30
0.0
 10
13994.83247224645
 20
11705.2915960787
 30
0.0
 10
14119.83247224645
 20
11705.2915960787
 30
0.0
340
1BDD8
1001
ACAD
1000
DSTYLE
1002
{
1070
     6
1000
DOTSMALL
1002
}
  0
MTEXT
  5
1BDDA
102
{ACAD_REACTORS
330
1BDDB
102
}
330
747D
100
AcDbEntity
  8
部品1
 62
     7
 48
50.0
100
AcDbMText
 10
13561.05948236589
 20
11999.83557484575
 30
0.0
 40
150.0
 41
0.0
 71
     4
 72
     1
  1
\A1;屋根パネル
  7
STYLE1
 73
     1
 44
1.0
  0
LEADER
  5
1BDDB
330
747D
100
AcDbEntity
  8
寸法
 48
50.0
100
AcDbLeader
  3
INABA_S50G
 71
     0
 73
     0
 74
     0
 75
     1
 40
150.0
 41
900.0
 76
     3
 10
13322.07682066774
 20
11600.0347365094
 30
0.0
 10
13411.05948236589
 20
11899.83557484575
 30
0.0
 10
13536.05948236589
 20
11899.83557484575
 30
0.0
340
1BDDA
1001
ACAD
1000
DSTYLE
1002
{
1070
     6
1000
DOTSMALL
1002
}
  0
LINE
  5
1BDDC
330
747D
100
AcDbEntity
  8
部品1
 48
50.0
100
AcDbLine
 10
13887.82958141817
 20
11530.23679736196
 30
0.0
 11
13907.82958141817
 21
11529.23679736196
 31
0.0
  0
LINE
  5
1BDDD
330
747D
100
AcDbEntity
  8
部品1
 48
50.0
100
AcDbLine
 10
13907.82958141817
 20
11413.73679736196
 30
0.0
 11
13857.82958141817
 21
11413.73679736196
 31
0.0
  0
LINE
  5
1BDDE
330
747D
100
AcDbEntity
  8
細線
 48
50.0
100
AcDbLine
 10
13888.15791860227
 20
11530.84205105591
 30
0.0
 11
13908.09919851035
 21
11529.31059566092
 31
0.0
  0
LINE
  5
1BDDF
330
747D
100
AcDbEntity
  8
細線
 48
50.0
100
AcDbLine
 10
13297.82958141817
 20
11393.73679736197
 30
0.0
 11
14467.82958141816
 21
11393.73679736197
 31
0.0
  0
LINE
  5
1BDE0
330
747D
100
AcDbEntity
  8
部品1
 48
50.0
100
AcDbLine
 10
13283.32958141817
 20
11367.59466173824
 30
0.0
 11
14482.32958141817
 21
11367.59466173824
 31
0.0
  0
LINE
  5
1BDE1
330
747D
100
AcDbEntity
  8
細線
 48
50.0
100
AcDbLine
 10
13297.82958141817
 20
11413.73679736196
 30
0.0
 11
14467.82958141816
 21
11413.73679736196
 31
0.0
  0
MTEXT
  5
1BDE2
102
{ACAD_REACTORS
330
1BDE3
102
}
330
747D
100
AcDbEntity
  8
寸法
 62
     7
 48
50.0
100
AcDbMText
 10
14245.28840950222
 20
11192.92239508256
 30
0.0
 40
150.0
 41
0.0
 71
     6
 72
     1
  1
\A1;回リ縁
  7
STYLE1
 73
     1
 44
1.0
  0
LEADER
  5
1BDE3
330
747D
100
AcDbEntity
  8
寸法
 48
50.0
100
AcDbLeader
  3
INABA_S50G
 71
     0
 73
     0
 75
     1
 40
150.0
 41
530.0000000000001
 76
     3
 10
14469.17272716867
 20
11380.57994311248
 30
0.0
 10
14395.28840950222
 20
11092.92239508256
 30
0.0
 10
14270.28840950222
 20
11092.92239508256
 30
0.0
340
1BDE2
1001
ACAD
1000
DSTYLE
1002
{
1070
     6
1000
DOTSMALL
1002
}
  0
LINE
  5
1BDE4
330
747D
100
AcDbEntity
  8
部品1
 48
50.0
100
AcDbLine
 10
13864.82958141817
 20
11367.59466173824
 30
0.0
 11
13864.82958141817
 21
11284.72281612389
 31
0.0
  0
LINE
  5
1BDE5
330
747D
100
AcDbEntity
  8
部品1
 48
50.0
100
AcDbLine
 10
13887.82958141817
 20
11541.23679736196
 30
0.0
 11
13887.82958141817
 21
11530.23679736196
 31
0.0
  0
LINE
  5
1BDE6
330
747D
100
AcDbEntity
  8
部品1
 48
50.0
100
AcDbLine
 10
13857.82958141817
 20
11542.73679736196
 30
0.0
 11
13887.82958141817
 21
11541.23679736196
 31
0.0
  0
LINE
  5
1BDE7
330
747D
100
AcDbEntity
  8
部品1
 48
50.0
100
AcDbLine
 10
13857.82958141817
 20
11413.73679736196
 30
0.0
 11
13857.82958141817
 21
11542.73679736196
 31
0.0
  0
LINE
  5
1BDE8
330
747D
100
AcDbEntity
  8
細線
 48
50.0
100
AcDbLine
 10
13889.38308291825
 20
11546.7950749824
 30
0.0
 11
13888.15791860227
 21
11530.84205105591
 31
0.0
  0
LINE
  5
1BDE9
330
747D
100
AcDbEntity
  8
部品1
100
AcDbLine
 10
13286.32958141817
 20
11367.59466173824
 30
0.0
 11
13293.65800854291
 21
11374.92308887182
 31
0.0
  0
LINE
  5
1BDEA
330
747D
100
AcDbEntity
  8
部品1
100
AcDbLine
 10
13286.32958141817
 20
11367.59466173824
 30
0.0
 11
13283.32958141817
 21
11367.59466173824
 31
0.0
  0
ARC
  5
1BDEB
330
747D
100
AcDbEntity
  8
部品1
100
AcDbCircle
 10
13292.95090176173
 20
11375.63019565301
 30
0.0
 40
1.0
100
AcDbArc
 50
314.9999999999995
 51
44.99999999999885
  0
LINE
  5
1BDEC
330
747D
100
AcDbEntity
  8
部品1
100
AcDbLine
 10
13293.65808760154
 20
11376.33722336673
 30
0.0
 11
13292.95090176173
 21
11377.04440920654
 31
0.0
  0
LINE
  5
1BDED
330
747D
100
AcDbEntity
  8
部品1
100
AcDbLine
 10
13292.95090176173
 20
11377.04440920654
 30
0.0
 11
13300.02196957359
 21
11384.11547701841
 31
0.0
  0
ARC
  5
1BDEE
330
747D
100
AcDbEntity
  8
部品1
100
AcDbCircle
 10
13301.43618313596
 20
11384.11547701841
 30
0.0
 40
1.0
100
AcDbArc
 50
225.0
 51
315.0
  0
LINE
  5
1BDEF
330
747D
100
AcDbEntity
  8
部品1
100
AcDbLine
 10
13302.14328991715
 20
11383.40837023722
 30
0.0
 11
13307.47171704189
 21
11388.73679736197
 31
0.0
  0
LINE
  5
1BDF0
330
747D
100
AcDbEntity
  8
部品1
100
AcDbLine
 10
13300.02196957359
 20
11384.11547701841
 30
0.0
 11
13300.72907635478
 21
11383.40837023722
 31
0.0
  0
LINE
  5
1BDF1
330
747D
100
AcDbEntity
  8
部品1
100
AcDbLine
 10
13306.47171704189
 20
11389.73679736197
 30
0.0
 11
13306.47171704189
 21
11393.73679736197
 31
0.0
  0
LINE
  5
1BDF2
330
747D
100
AcDbEntity
  8
部品1
100
AcDbLine
 10
13307.47171704189
 20
11388.73679736197
 30
0.0
 11
13307.47171704189
 21
11389.73679736197
 31
0.0
  0
LINE
  5
1BDF3
330
747D
100
AcDbEntity
  8
部品1
100
AcDbLine
 10
13307.47171704189
 20
11389.73679736197
 30
0.0
 11
13306.47171704189
 21
11389.73679736197
 31
0.0
  0
LINE
  5
1BDF4
330
747D
100
AcDbEntity
  8
部品1
 48
50.0
100
AcDbLine
 10
13282.82958141817
 20
11378.73679736196
 30
0.0
 11
13297.82958141817
 21
11393.73679736196
 31
0.0
  0
LINE
  5
1BDF5
330
747D
100
AcDbEntity
  8
部品1
 48
50.0
100
AcDbLine
 10
13297.82958141817
 20
11393.73679736196
 30
0.0
 11
13297.82958141817
 21
11413.73679736196
 31
0.0
  0
LINE
  5
1BDF6
330
747D
100
AcDbEntity
  8
部品1
 48
50.0
100
AcDbLine
 10
13297.82958141817
 20
11413.73679736196
 30
0.0
 11
13319.82958141817
 21
11413.73679736196
 31
0.0
  0
LINE
  5
1BDF7
330
747D
100
AcDbEntity
  8
部品1
 48
50.0
100
AcDbLine
 10
13282.82958141817
 20
11378.73679736196
 30
0.0
 11
13283.32958141817
 21
11378.73679736196
 31
0.0
  0
LINE
  5
1BDF8
330
747D
100
AcDbEntity
  8
部品1
 48
50.0
100
AcDbLine
 10
13306.47171704189
 20
11393.73679736197
 30
0.0
 11
13297.82958141817
 21
11393.73679736197
 31
0.0
  0
LINE
  5
1BDF9
330
747D
100
AcDbEntity
  8
部品1
 48
50.0
100
AcDbLine
 10
13297.82958141817
 20
11413.73679736196
 30
0.0
 11
13319.82958141817
 21
11413.73679736196
 31
0.0
  0
LINE
  5
1BDFA
330
747D
100
AcDbEntity
  8
細線
 48
50.0
100
AcDbLine
 10
13283.46729291064
 20
11593.32834715906
 30
0.0
 11
13282.24212859467
 21
11577.37532323258
 31
0.0
  0
LINE
  5
1BDFB
330
747D
100
AcDbEntity
  8
部品1
100
AcDbLine
 10
14532.82958141817
 20
11403.73679736197
 30
0.0
 11
14532.82958141817
 21
11363.73679736197
 31
0.0
  0
LINE
  5
1BDFC
330
747D
100
AcDbEntity
  8
部品1
 48
50.0
100
AcDbLine
 10
14504.32958141816
 20
11478.73679736196
 30
0.0
 11
14480.82958141816
 21
11478.73679736196
 31
0.0
  0
LINE
  5
1BDFD
330
747D
100
AcDbEntity
  8
部品1
 48
50.0
100
AcDbLine
 10
14504.32958141816
 20
11493.73679736196
 30
0.0
 11
14504.32958141816
 21
11478.73679736196
 31
0.0
  0
LINE
  5
1BDFE
330
747D
100
AcDbEntity
  8
部品1
 48
50.0
100
AcDbLine
 10
14482.82958141816
 20
11378.73679736196
 30
0.0
 11
14467.82958141816
 21
11393.73679736196
 31
0.0
  0
LINE
  5
1BDFF
330
747D
100
AcDbEntity
  8
部品1
100
AcDbLine
 10
14479.32958141816
 20
11367.59466173824
 30
0.0
 11
14472.00115429341
 21
11374.92308887182
 31
0.0
  0
LINE
  5
1BE00
330
747D
100
AcDbEntity
  8
部品1
 48
50.0
100
AcDbLine
 10
14482.82958141816
 20
11378.73679736196
 30
0.0
 11
14482.32958141816
 21
11378.73679736196
 31
0.0
  0
LINE
  5
1BE01
330
747D
100
AcDbEntity
  8
部品1
100
AcDbLine
 10
14479.32958141816
 20
11367.59466173824
 30
0.0
 11
14482.32958141816
 21
11367.59466173824
 31
0.0
  0
LINE
  5
1BE02
330
747D
100
AcDbEntity
  8
部品1
 48
50.0
100
AcDbLine
 10
14467.82958141816
 20
11393.73679736196
 30
0.0
 11
14467.82958141816
 21
11413.73679736196
 31
0.0
  0
LINE
  5
1BE03
330
747D
100
AcDbEntity
  8
部品1
100
AcDbLine
 10
14458.18744579443
 20
11389.73679736197
 30
0.0
 11
14459.18744579443
 21
11389.73679736197
 31
0.0
  0
LINE
  5
1BE04
330
747D
100
AcDbEntity
  8
部品1
100
AcDbLine
 10
14458.18744579443
 20
11388.73679736197
 30
0.0
 11
14458.18744579443
 21
11389.73679736197
 31
0.0
  0
LINE
  5
1BE05
330
747D
100
AcDbEntity
  8
部品1
100
AcDbLine
 10
14459.18744579443
 20
11389.73679736197
 30
0.0
 11
14459.18744579443
 21
11393.73679736197
 31
0.0
  0
LINE
  5
1BE06
330
747D
100
AcDbEntity
  8
部品1
100
AcDbLine
 10
14465.63719326273
 20
11384.11547701841
 30
0.0
 11
14464.93008648155
 21
11383.40837023722
 31
0.0
  0
LINE
  5
1BE07
330
747D
100
AcDbEntity
  8
部品1
100
AcDbLine
 10
14463.51587291917
 20
11383.40837023722
 30
0.0
 11
14458.18744579443
 21
11388.73679736197
 31
0.0
  0
ARC
  5
1BE08
330
747D
100
AcDbEntity
  8
部品1
100
AcDbCircle
 10
14464.22297970037
 20
11384.11547701841
 30
0.0
 40
1.0
100
AcDbArc
 50
225.0
 51
315.0
  0
LINE
  5
1BE09
330
747D
100
AcDbEntity
  8
部品1
100
AcDbLine
 10
14472.7082610746
 20
11377.04440920654
 30
0.0
 11
14465.63719326273
 21
11384.11547701841
 31
0.0
  0
LINE
  5
1BE0A
330
747D
100
AcDbEntity
  8
部品1
100
AcDbLine
 10
14472.00107523479
 20
11376.33722336673
 30
0.0
 11
14472.7082610746
 21
11377.04440920654
 31
0.0
  0
ARC
  5
1BE0B
330
747D
100
AcDbEntity
  8
部品1
100
AcDbCircle
 10
14472.7082610746
 20
11375.63019565301
 30
0.0
 40
1.0
100
AcDbArc
 50
135.0000000000011
 51
225.0000000000003
  0
LINE
  5
1BE0C
330
747D
100
AcDbEntity
  8
部品1
 48
50.0
100
AcDbLine
 10
14459.18744579443
 20
11393.73679736197
 30
0.0
 11
14467.82958141816
 21
11393.73679736197
 31
0.0
  0
LINE
  5
1BE0D
330
747D
100
AcDbEntity
  8
部品1
 48
50.0
100
AcDbLine
 10
14467.82958141816
 20
11413.73679736196
 30
0.0
 11
14445.82958141816
 21
11413.73679736196
 31
0.0
  0
LINE
  5
1BE0E
330
747D
100
AcDbEntity
  8
部品1
 48
50.0
100
AcDbLine
 10
14467.82958141816
 20
11413.73679736196
 30
0.0
 11
14445.82958141816
 21
11413.73679736196
 31
0.0
  0
LINE
  5
1BE0F
330
747D
100
AcDbEntity
  8
細線
 48
50.0
100
AcDbLine
 10
14483.10600466041
 20
11485.15107934649
 30
0.0
 11
14503.04728456851
 21
11483.6196239515
 31
0.0
  0
LINE
  5
1BE10
330
747D
100
AcDbEntity
  8
細線
 48
50.0
100
AcDbLine
 10
14484.33116897639
 20
11501.10410327297
 30
0.0
 11
14483.10600466041
 21
11485.15107934649
 31
0.0
  0
LINE
  5
1BE11
330
747D
100
AcDbEntity
  8
細線
 48
50.0
100
AcDbLine
 10
14504.2724488845
 20
11499.57264787798
 30
0.0
 11
14503.04728456851
 21
11483.6196239515
 31
0.0
  0
LINE
  5
1BE12
330
747D
100
AcDbEntity
  8
部品1
 48
50.0
100
AcDbLine
 10
13900.82958141817
 20
11367.59466173824
 30
0.0
 11
13900.82958141817
 21
11284.72281612389
 31
0.0
  0
LINE
  5
1BE13
330
747D
100
AcDbEntity
  8
部品1
 48
50.0
100
AcDbLine
 10
13907.82958141817
 20
11425.73679736196
 30
0.0
 11
13907.82958141817
 21
11413.73679736196
 31
0.0
  0
LINE
  5
1BE14
330
747D
100
AcDbEntity
  8
細線
 48
50.0
100
AcDbLine
 10
13909.32436282635
 20
11545.26361958741
 30
0.0
 11
13908.09919851035
 21
11529.31059566093
 31
0.0
  0
LINE
  5
1BE15
330
747D
100
AcDbEntity
  8
部品1
 48
50.0
100
AcDbLine
 10
14532.82958141816
 20
11378.73679736196
 30
0.0
 11
14482.82958141816
 21
11378.73679736196
 31
0.0
  0
LINE
  5
1BE16
330
747D
100
AcDbEntity
  8
部品1
 48
50.0
100
AcDbLine
 10
14601.82958141817
 20
9028.73679736197
 30
0.0
 11
14601.82958141817
 21
9228.736797361971
 31
0.0
  0
MTEXT
  5
1BE17
102
{ACAD_REACTORS
330
1BE18
102
}
330
747D
100
AcDbEntity
  8
寸法
 62
     7
 48
50.0
100
AcDbMText
 10
14928.68199506883
 20
11896.64748534791
 30
0.0
 40
150.0
 41
0.0
 71
     4
 72
     1
  1
\A1;鼻隠シ後
  7
STYLE1
 73
     1
 44
1.0
  0
LEADER
  5
1BE18
330
747D
100
AcDbEntity
  8
寸法
 48
50.0
100
AcDbLeader
  3
INABA_S50G
 71
     0
 73
     0
 74
     0
 75
     1
 40
150.0
 41
719.9999999999995
 76
     3
 10
14626.65863101425
 20
11555.13210353545
 30
0.0
 10
14778.68199506883
 20
11796.64748534791
 30
0.0
 10
14903.68199506883
 20
11796.64748534791
 30
0.0
340
1BE17
1001
ACAD
1000
DSTYLE
1002
{
1070
     6
1000
DOTSMALL
1002
}
  0
MTEXT
  5
1BE19
102
{ACAD_REACTORS
330
1BE1A
102
}
330
747D
100
AcDbEntity
  8
寸法
 62
     7
 48
50.0
100
AcDbMText
 10
14893.94018070688
 20
11247.92104541549
 30
0.0
 40
150.0
 41
0.0
 71
     4
 72
     1
  1
\A1;雨樋
  7
STYLE1
 73
     1
 44
1.0
  0
LEADER
  5
1BE1A
330
747D
100
AcDbEntity
  8
寸法
 48
50.0
100
AcDbLeader
  3
INABA_S50G
 71
     0
 73
     0
 74
     0
 75
     1
 40
150.0
 41
360.0
 76
     3
 10
14613.82958141817
 20
11409.546036235
 30
0.0
 10
14743.94018070688
 20
11147.92104541549
 30
0.0
 10
14868.94018070688
 20
11147.92104541549
 30
0.0
340
1BE19
1001
ACAD
1000
DSTYLE
1002
{
1070
     6
1000
DOTSMALL
1002
}
  0
LINE
  5
1BE1B
330
747D
100
AcDbEntity
  8
部品1
 48
50.0
100
AcDbLine
 10
14571.39578928962
 20
11518.15851852408
 30
0.0
 11
14555.39840097363
 21
11518.44759821443
 31
0.0
  0
LINE
  5
1BE1C
330
747D
100
AcDbEntity
  8
部品1
 48
50.0
100
AcDbLine
 10
14600.80660766724
 20
11540.63080728955
 30
0.0
 11
14571.39578928962
 21
11518.15851852408
 31
0.0
  0
LINE
  5
1BE1D
330
747D
100
AcDbEntity
  8
部品1
 48
50.0
100
AcDbLine
 10
14626.95242204339
 20
11540.15834117355
 30
0.0
 11
14600.80660766724
 21
11540.63080728955
 31
0.0
  0
ARC
  5
1BE1E
330
747D
100
AcDbEntity
  8
部品1
100
AcDbCircle
 10
14603.82958141817
 20
11409.546036235
 30
0.0
 40
10.0
100
AcDbArc
 50
270.0
 51
0.0
  0
LINE
  5
1BE1F
330
747D
100
AcDbEntity
  8
部品1
100
AcDbLine
 10
14553.82958141817
 20
11448.546036235
 30
0.0
 11
14553.82958141817
 21
11421.546036235
 31
0.0
  0
LINE
  5
1BE20
330
747D
100
AcDbEntity
  8
部品1
100
AcDbLine
 10
14553.82958141816
 20
11450.39433257585
 30
0.0
 11
14553.82958141817
 21
11409.546036235
 31
0.0
  0
ARC
  5
1BE21
330
747D
100
AcDbEntity
  8
部品1
100
AcDbCircle
 10
14563.82958141817
 20
11409.546036235
 30
0.0
 40
10.0
100
AcDbArc
 50
180.0
 51
270.0
  0
LINE
  5
1BE22
330
747D
100
AcDbEntity
  8
部品1
100
AcDbLine
 10
14563.82958141817
 20
11399.546036235
 30
0.0
 11
14603.82958141817
 21
11399.546036235
 31
0.0
  0
LINE
  5
1BE23
330
747D
100
AcDbEntity
  8
部品1
100
AcDbLine
 10
14613.82958141817
 20
11409.546036235
 30
0.0
 11
14613.82958141817
 21
11434.546036235
 31
0.0
  0
LINE
  5
1BE24
330
747D
100
AcDbEntity
  8
部品1
100
AcDbLine
 10
14616.17676303538
 20
11467.26280491307
 30
0.0
 11
14615.77792395764
 21
11463.51558742467
 31
0.0
  0
ARC
  5
1BE25
330
747D
100
AcDbEntity
  8
部品1
 48
50.0
100
AcDbCircle
 10
14618.35118254029
 20
11470.68507021756
 30
0.0
 40
1.199999999999999
100
AcDbArc
 50
274.830006122604
 51
353.924536124901
  0
ARC
  5
1BE26
330
747D
100
AcDbEntity
  8
部品1
 48
50.0
100
AcDbCircle
 10
14618.66272143308
 20
11466.99820928773
 30
0.0
 40
2.5
100
AcDbArc
 50
94.83000612260093
 51
173.9245361249088
  0
ARC
  5
1BE27
330
747D
100
AcDbEntity
  8
部品1
100
AcDbCircle
 10
14600.36498189196
 20
11465.15608030179
 30
0.0
 40
15.5
100
AcDbArc
 50
269.0887044041854
 51
353.9245361249208
  0
LINE
  5
1BE28
330
747D
100
AcDbEntity
  8
部品1
100
AcDbLine
 10
14627.74287520146
 20
11547.58489504698
 30
0.0
 11
14619.54444257119
 21
11470.55806431739
 31
0.0
  0
LINE
  5
1BE29
330
747D
100
AcDbEntity
  8
部品1
100
AcDbLine
 10
14608.33578614471
 20
11565.79220093534
 30
0.0
 11
14605.71977994811
 21
11572.82495737241
 31
0.0
  0
ARC
  5
1BE2A
330
747D
100
AcDbEntity
  8
部品1
100
AcDbCircle
 10
14612.32958141817
 20
11549.22208342743
 30
0.0
 40
15.5
100
AcDbArc
 50
353.924536124901
 51
88.13874351680366
  0
ARC
  5
1BE2B
330
747D
100
AcDbEntity
  8
部品1
100
AcDbCircle
 10
14602.43937643104
 20
11571.60473085031
 30
0.0
 40
3.5
100
AcDbArc
 50
20.40391857757644
 51
88.96475328401214
  0
ARC
  5
1BE2C
330
747D
100
AcDbEntity
  8
部品1
100
AcDbCircle
 10
14609.76128014115
 20
11566.26244516471
 30
0.0
 40
1.5
100
AcDbArc
 50
200.4039185775898
 51
269.0981540988988
  0
LINE
  5
1BE2D
330
747D
100
AcDbEntity
  8
部品1
 48
50.0
100
AcDbLine
 10
14609.73767084557
 20
11564.76263097583
 30
0.0
 11
14612.83301119891
 21
11564.71390573651
 31
0.0
  0
LINE
  5
1BE2E
330
747D
100
AcDbEntity
  8
部品1
100
AcDbLine
 10
14600.11846310262
 20
11449.65804079718
 30
0.0
 11
14591.11960145478
 21
11449.80118073938
 31
0.0
  0
LINE
  5
1BE2F
330
747D
100
AcDbEntity
  8
部品1
 48
50.0
100
AcDbLine
 10
14537.82958141816
 20
11493.73679736196
 30
0.0
 11
14537.82958141816
 21
11473.73679736196
 31
0.0
  0
LINE
  5
1BE30
330
747D
100
AcDbEntity
  8
細線
 48
50.0
100
AcDbLine
 10
14580.73684947436
 20
11515.76509804569
 30
0.0
 11
14579.05224853987
 21
11493.82969014678
 31
0.0
  0
ENDSEC
  0
SECTION
  2
OBJECTS
  0
DICTIONARY
  5
7471
330
0
100
AcDbDictionary
281
     1
  3
ACAD_GROUP
350
7472
  3
ACAD_LAYOUT
350
1BF2A
  3
ACAD_MLINESTYLE
350
7473
  3
ACAD_PLOTSETTINGS
350
1BF2B
  3
ACAD_PLOTSTYLENAME
350
1BF28
  3
ACDBHEADERROUNDTRIPXREC
350
1BFA3
  3
ACDBVARIABLEDICTIONARY
350
123D8
  3
CONTENTDICTIONARY
350
E71C
  3
DRAWINGVARIABLESDICT
350
F3B9
  0
DICTIONARY
  5
1BF5A
330
747D
100
AcDbDictionary
280
     1
281
     1
  3
ACAD_LAYOUTSELFREF
360
1BF5B
  0
DICTIONARY
  5
1BF58
330
747A
100
AcDbDictionary
280
     1
281
     1
  3
ACAD_LAYOUTSELFREF
360
1BF59
  0
DICTIONARY
  5
7472
102
{ACAD_REACTORS
330
7471
102
}
330
7471
100
AcDbDictionary
281
     1
  0
DICTIONARY
  5
1BF2A
102
{ACAD_REACTORS
330
7471
102
}
330
7471
100
AcDbDictionary
281
     1
  3
Model
350
1BF2C
  3
ﾚｲｱｳﾄ1
350
1BF2D
  0
DICTIONARY
  5
7473
102
{ACAD_REACTORS
330
7471
102
}
330
7471
100
AcDbDictionary
281
     1
  3
STANDARD
350
7480
  0
DICTIONARY
  5
1BF2B
102
{ACAD_REACTORS
330
7471
102
}
330
7471
100
AcDbDictionary
281
     1
  0
ACDBDICTIONARYWDFLT
  5
1BF28
102
{ACAD_REACTORS
330
7471
102
}
330
7471
100
AcDbDictionary
281
     1
  3
Normal
350
1BF29
100
AcDbDictionaryWithDefault
340
1BF29
  0
DICTIONARY
  5
1BFA3
102
{ACAD_REACTORS
330
7471
102
}
330
7471
100
AcDbDictionary
281
     1
  3
CEPSNTYPE
350
1BFAD
  3
DIMSTYLEDATA
350
1BFB1
  3
FINGERPRINTGUID
350
1BFAE
  3
HYPERLINKBASE
350
1BFA6
  3
INSUNITS
350
1BFAC
  3
LAYOUTDICT
350
1BFA8
  3
LWETCUNION
350
1BFAB
  3
PLOTSETDICT
350
1BFA9
  3
PLOTSTYLNAMDICT
350
1BFAA
  3
PSVPSCALE
350
1BFB0
  3
PUCSBASE
350
1BFB4
  3
PUCSORGBACK
350
1BFBA
  3
PUCSORGBOTTOM
350
1BFB6
  3
PUCSORGFRONT
350
1BFB9
  3
PUCSORGLEFT
350
1BFB7
  3
PUCSORGRIGHT
350
1BFB8
  3
PUCSORGTOP
350
1BFB5
  3
PUCSORTHOREF
350
1BFB2
  3
PUCSORTHOVIEW
350
1BFB3
  3
STYLESHEET
350
1BFA7
  3
TSTACKALIGN
350
1BFA4
  3
TSTACKSIZE
350
1BFA5
  3
UCSBASE
350
1BFBD
  3
UCSORGBACK
350
1BFC3
  3
UCSORGBOTTOM
350
1BFBF
  3
UCSORGFRONT
350
1BFC2
  3
UCSORGLEFT
350
1BFC0
  3
UCSORGRIGHT
350
1BFC1
  3
UCSORGTOP
350
1BFBE
  3
UCSORTHOREF
350
1BFBB
  3
UCSORTHOVIEW
350
1BFBC
  3
VERSIONGUID
350
1BFAF
  0
DICTIONARY
  5
123D8
102
{ACAD_REACTORS
330
7471
102
}
330
7471
100
AcDbDictionary
281
     1
  3
DIMASSOC
350
1BF9A
  3
SORTENTS
350
123D9
  0
DICTIONARY
  5
E71C
102
{ACAD_REACTORS
330
7471
102
}
330
7471
100
AcDbDictionary
281
     1
  0
DICTIONARY
  5
F3B9
102
{ACAD_REACTORS
330
7471
102
}
330
7471
100
AcDbDictionary
281
     1
1001
DRAWINGVARIABLESXDATA
1000
POLARMODE
1000
1
  0
XRECORD
  5
1BF5B
102
{ACAD_REACTORS
330
1BF5A
102
}
330
1BF5A
100
AcDbXrecord
280
     1
340
747D
  0
XRECORD
  5
1BF59
102
{ACAD_REACTORS
330
1BF58
102
}
330
1BF58
100
AcDbXrecord
280
     1
340
747A
  0
LAYOUT
  5
1BF2C
102
{ACAD_REACTORS
330
1BF2A
102
}
330
1BF2A
100
AcDbPlotSettings
  1

  2
Canon LBP-730
  4

  6

 40
0.0
 41
0.0
 42
0.0
 43
0.0
 44
0.0
 45
0.0
 46
0.0
 47
0.0
 48
0.0
 49
0.0
140
0.0
141
0.0
142
1.0
143
1.0
 70
  1712
 72
     0
 73
     0
 74
     0
  7

 75
     0
147
1.0
148
0.0
149
0.0
100
AcDbLayout
  1
Model
 70
     1
 71
     0
 10
0.0
 20
0.0
 11
12.0
 21
9.0
 12
0.0
 22
0.0
 32
0.0
 14
0.0
 24
0.0
 34
0.0
 15
0.0
 25
0.0
 35
0.0
146
0.0
 13
0.0
 23
0.0
 33
0.0
 16
1.0
 26
0.0
 36
0.0
 17
0.0
 27
1.0
 37
0.0
 76
     0
330
747D
  0
LAYOUT
  5
1BF2D
102
{ACAD_REACTORS
330
1BF2A
102
}
330
1BF2A
100
AcDbPlotSettings
  1

  2
Canon LBP-730
  4

  6

 40
0.0
 41
0.0
 42
0.0
 43
0.0
 44
0.0
 45
0.0
 46
0.0
 47
0.0
 48
0.0
 49
0.0
140
0.0
141
0.0
142
1.0
143
1.0
 70
   688
 72
     0
 73
     0
 74
     5
  7

 75
    16
147
1.0
148
0.0
149
0.0
100
AcDbLayout
  1
ﾚｲｱｳﾄ1
 70
     0
 71
     1
 10
0.0
 20
0.0
 11
420.0
 21
297.0
 12
0.0
 22
0.0
 32
0.0
 14
1.000000000000000E+20
 24
1.000000000000000E+20
 34
1.000000000000000E+20
 15
-1.000000000000000E+20
 25
-1.000000000000000E+20
 35
-1.000000000000000E+20
146
0.0
 13
0.0
 23
0.0
 33
0.0
 16
1.0
 26
0.0
 36
0.0
 17
0.0
 27
1.0
 37
0.0
 76
     0
330
747A
  0
MLINESTYLE
  5
7480
102
{ACAD_REACTORS
330
7473
102
}
330
7473
100
AcDbMlineStyle
  2
STANDARD
 70
     0
  3

 62
     0
 51
90.0
 52
90.0
 71
     2
 49
0.5
 62
   256
  6
BYLAYER
 49
-0.5
 62
   256
  6
BYLAYER
  0
ACDBPLACEHOLDER
  5
1BF29
102
{ACAD_REACTORS
330
1BF28
102
}
330
1BF28
  0
XRECORD
  5
1BFAD
102
{ACAD_REACTORS
330
1BFA3
102
}
330
1BFA3
100
AcDbXrecord
280
     1
 90
        0
  0
XRECORD
  5
1BFB1
102
{ACAD_REACTORS
330
1BFA3
102
}
330
1BFA3
100
AcDbXrecord
280
     1
1000
DSTYLE
1002
{
1070
   341
340
F770
1070
   343
340
F770
1070
   344
340
F770
1002
}
  0
XRECORD
  5
1BFAE
102
{ACAD_REACTORS
330
1BFA3
102
}
330
1BFA3
100
AcDbXrecord
280
     1
  1
{07170798-F8BF-11D6-AF94-00909916878D}
  0
XRECORD
  5
1BFA6
102
{ACAD_REACTORS
330
1BFA3
102
}
330
1BFA3
100
AcDbXrecord
280
     1
  1

  0
XRECORD
  5
1BFAC
102
{ACAD_REACTORS
330
1BFA3
102
}
330
1BFA3
100
AcDbXrecord
280
     1
 90
        0
  0
XRECORD
  5
1BFA8
102
{ACAD_REACTORS
330
1BFA3
102
}
330
1BFA3
100
AcDbXrecord
280
     1
340
1BF2A
  0
XRECORD
  5
1BFAB
102
{ACAD_REACTORS
330
1BFA3
102
}
330
1BFA3
100
AcDbXrecord
280
     1
 90
    14877
  0
XRECORD
  5
1BFA9
102
{ACAD_REACTORS
330
1BFA3
102
}
330
1BFA3
100
AcDbXrecord
280
     1
340
1BF2B
  0
XRECORD
  5
1BFAA
102
{ACAD_REACTORS
330
1BFA3
102
}
330
1BFA3
100
AcDbXrecord
280
     1
340
1BF28
  0
XRECORD
  5
1BFB0
102
{ACAD_REACTORS
330
1BFA3
102
}
330
1BFA3
100
AcDbXrecord
280
     1
 40
0.0
  0
XRECORD
  5
1BFB4
102
{ACAD_REACTORS
330
1BFA3
102
}
330
1BFA3
100
AcDbXrecord
280
     1
340
0
  0
XRECORD
  5
1BFBA
102
{ACAD_REACTORS
330
1BFA3
102
}
330
1BFA3
100
AcDbXrecord
280
     1
 10
0.0
 20
0.0
 30
0.0
  0
XRECORD
  5
1BFB6
102
{ACAD_REACTORS
330
1BFA3
102
}
330
1BFA3
100
AcDbXrecord
280
     1
 10
0.0
 20
0.0
 30
0.0
  0
XRECORD
  5
1BFB9
102
{ACAD_REACTORS
330
1BFA3
102
}
330
1BFA3
100
AcDbXrecord
280
     1
 10
0.0
 20
0.0
 30
0.0
  0
XRECORD
  5
1BFB7
102
{ACAD_REACTORS
330
1BFA3
102
}
330
1BFA3
100
AcDbXrecord
280
     1
 10
0.0
 20
0.0
 30
0.0
  0
XRECORD
  5
1BFB8
102
{ACAD_REACTORS
330
1BFA3
102
}
330
1BFA3
100
AcDbXrecord
280
     1
 10
0.0
 20
0.0
 30
0.0
  0
XRECORD
  5
1BFB5
102
{ACAD_REACTORS
330
1BFA3
102
}
330
1BFA3
100
AcDbXrecord
280
     1
 10
0.0
 20
0.0
 30
0.0
  0
XRECORD
  5
1BFB2
102
{ACAD_REACTORS
330
1BFA3
102
}
330
1BFA3
100
AcDbXrecord
280
     1
340
0
  0
XRECORD
  5
1BFB3
102
{ACAD_REACTORS
330
1BFA3
102
}
330
1BFA3
100
AcDbXrecord
280
     1
 70
     0
  0
XRECORD
  5
1BFA7
102
{ACAD_REACTORS
330
1BFA3
102
}
330
1BFA3
100
AcDbXrecord
280
     1
  1

  0
XRECORD
  5
1BFA4
102
{ACAD_REACTORS
330
1BFA3
102
}
330
1BFA3
100
AcDbXrecord
280
     1
 90
        1
  0
XRECORD
  5
1BFA5
102
{ACAD_REACTORS
330
1BFA3
102
}
330
1BFA3
100
AcDbXrecord
280
     1
 90
       70
  0
XRECORD
  5
1BFBD
102
{ACAD_REACTORS
330
1BFA3
102
}
330
1BFA3
100
AcDbXrecord
280
     1
340
0
  0
XRECORD
  5
1BFC3
102
{ACAD_REACTORS
330
1BFA3
102
}
330
1BFA3
100
AcDbXrecord
280
     1
 10
0.0
 20
0.0
 30
0.0
  0
XRECORD
  5
1BFBF
102
{ACAD_REACTORS
330
1BFA3
102
}
330
1BFA3
100
AcDbXrecord
280
     1
 10
0.0
 20
0.0
 30
0.0
  0
XRECORD
  5
1BFC2
102
{ACAD_REACTORS
330
1BFA3
102
}
330
1BFA3
100
AcDbXrecord
280
     1
 10
0.0
 20
0.0
 30
0.0
  0
XRECORD
  5
1BFC0
102
{ACAD_REACTORS
330
1BFA3
102
}
330
1BFA3
100
AcDbXrecord
280
     1
 10
0.0
 20
0.0
 30
0.0
  0
XRECORD
  5
1BFC1
102
{ACAD_REACTORS
330
1BFA3
102
}
330
1BFA3
100
AcDbXrecord
280
     1
 10
0.0
 20
0.0
 30
0.0
  0
XRECORD
  5
1BFBE
102
{ACAD_REACTORS
330
1BFA3
102
}
330
1BFA3
100
AcDbXrecord
280
     1
 10
0.0
 20
0.0
 30
0.0
  0
XRECORD
  5
1BFBB
102
{ACAD_REACTORS
330
1BFA3
102
}
330
1BFA3
100
AcDbXrecord
280
     1
340
0
  0
XRECORD
  5
1BFBC
102
{ACAD_REACTORS
330
1BFA3
102
}
330
1BFA3
100
AcDbXrecord
280
     1
 70
     0
  0
XRECORD
  5
1BFAF
102
{ACAD_REACTORS
330
1BFA3
102
}
330
1BFA3
100
AcDbXrecord
280
     1
  1
{0717079A-F8BF-11D6-AF94-00909916878D}
  0
DICTIONARYVAR
  5
1BF9A
102
{ACAD_REACTORS
330
123D8
102
}
330
123D8
100
DictionaryVariables
280
     0
  1
1
  0
DICTIONARYVAR
  5
123D9
102
{ACAD_REACTORS
330
123D8
102
}
330
123D8
100
DictionaryVariables
280
     0
  1
96
  0
ENDSEC
  0
EOF
