  0
SECTION
  2
HEADER
  9
$ACADVER
  1
AC1015
  9
$ACADMAINTVER
 70
     6
  9
$DWGCODEPAGE
  3
ANSI_932
  9
$INSBASE
 10
0.0
 20
0.0
 30
0.0
  9
$EXTMIN
 10
174.9999999999993
 20
-0.0000000000001137
 30
0.0
  9
$EXTMAX
 10
20384.0
 20
14262.0
 30
0.0
  9
$LIMMIN
 10
0.0
 20
0.0
  9
$LIMMAX
 10
21000.0
 20
14850.0
  9
$ORTHOMODE
 70
     0
  9
$REGENMODE
 70
     1
  9
$FILLMODE
 70
     1
  9
$QTEXTMODE
 70
     0
  9
$MIRRTEXT
 70
     1
  9
$LTSCALE
 40
20.0
  9
$ATTMODE
 70
     1
  9
$TEXTSIZE
 40
4.0
  9
$TRACEWID
 40
1.0
  9
$TEXTSTYLE
  7
STYLE1
  9
$CLAYER
  8
寸法
  9
$CELTYPE
  6
BYLAYER
  9
$CECOLOR
 62
   256
  9
$CELTSCALE
 40
50.0
  9
$DISPSILH
 70
     0
  9
$DIMSCALE
 40
1.0
  9
$DIMASZ
 40
125.0
  9
$DIMEXO
 40
25.0
  9
$DIMDLI
 40
7.0
  9
$DIMRND
 40
0.0
  9
$DIMDLE
 40
0.0
  9
$DIMEXE
 40
75.0
  9
$DIMTP
 40
0.0
  9
$DIMTM
 40
0.0
  9
$DIMTXT
 40
150.0
  9
$DIMCEN
 40
0.0
  9
$DIMTSZ
 40
0.0
  9
$DIMTOL
 70
     0
  9
$DIMLIM
 70
     0
  9
$DIMTIH
 70
     0
  9
$DIMTOH
 70
     0
  9
$DIMSE1
 70
     0
  9
$DIMSE2
 70
     0
  9
$DIMTAD
 70
     3
  9
$DIMZIN
 70
     8
  9
$DIMBLK
  1

  9
$DIMASO
 70
     1
  9
$DIMSHO
 70
     1
  9
$DIMPOST
  1

  9
$DIMAPOST
  1

  9
$DIMALT
 70
     0
  9
$DIMALTD
 70
     2
  9
$DIMALTF
 40
0.0394
  9
$DIMLFAC
 40
1.0
  9
$DIMTOFL
 70
     1
  9
$DIMTVP
 40
0.0
  9
$DIMTIX
 70
     1
  9
$DIMSOXD
 70
     0
  9
$DIMSAH
 70
     1
  9
$DIMBLK1
  1
DOTSMALL
  9
$DIMBLK2
  1
DOTSMALL
  9
$DIMSTYLE
  2
INABA_S50G
  9
$DIMCLRD
 70
     0
  9
$DIMCLRE
 70
     0
  9
$DIMCLRT
 70
     7
  9
$DIMTFAC
 40
1.0
  9
$DIMGAP
 40
25.0
  9
$DIMJUST
 70
     0
  9
$DIMSD1
 70
     0
  9
$DIMSD2
 70
     0
  9
$DIMTOLJ
 70
     1
  9
$DIMTZIN
 70
     0
  9
$DIMALTZ
 70
     0
  9
$DIMALTTZ
 70
     0
  9
$DIMUPT
 70
     0
  9
$DIMDEC
 70
     1
  9
$DIMTDEC
 70
     4
  9
$DIMALTU
 70
     2
  9
$DIMALTTD
 70
     2
  9
$DIMTXSTY
  7
STYLE1
  9
$DIMAUNIT
 70
     0
  9
$DIMADEC
 70
     0
  9
$DIMALTRND
 40
0.0
  9
$DIMAZIN
 70
     0
  9
$DIMDSEP
 70
    46
  9
$DIMATFIT
 70
     3
  9
$DIMFRAC
 70
     0
  9
$DIMLDRBLK
  1
DOTSMALL
  9
$DIMLUNIT
 70
     2
  9
$DIMLWD
 70
    -2
  9
$DIMLWE
 70
    -2
  9
$DIMTMOVE
 70
     0
  9
$LUNITS
 70
     2
  9
$LUPREC
 70
     1
  9
$SKETCHINC
 40
1.0
  9
$FILLETRAD
 40
3.0
  9
$AUNITS
 70
     0
  9
$AUPREC
 70
     0
  9
$MENU
  1
acad
  9
$ELEVATION
 40
0.0
  9
$PELEVATION
 40
0.0
  9
$THICKNESS
 40
0.0
  9
$LIMCHECK
 70
     0
  9
$CHAMFERA
 40
0.0
  9
$CHAMFERB
 40
0.0
  9
$CHAMFERC
 40
0.0
  9
$CHAMFERD
 40
0.0
  9
$SKPOLY
 70
     0
  9
$TDCREATE
 40
2452335.452219212
  9
$TDUCREATE
 40
2452335.077219213
  9
$TDUPDATE
 40
2452595.551156944
  9
$TDUUPDATE
 40
2452595.176156944
  9
$TDINDWG
 40
1.3799409722
  9
$TDUSRTIMER
 40
1.3799409722
  9
$USRTIMER
 70
     1
  9
$ANGBASE
 50
0.0
  9
$ANGDIR
 70
     0
  9
$PDMODE
 70
     3
  9
$PDSIZE
 40
2.0
  9
$PLINEWID
 40
0.0
  9
$SPLFRAME
 70
     0
  9
$SPLINETYPE
 70
     6
  9
$SPLINESEGS
 70
     8
  9
$HANDSEED
  5
1CB30
  9
$SURFTAB1
 70
     6
  9
$SURFTAB2
 70
     6
  9
$SURFTYPE
 70
     6
  9
$SURFU
 70
     6
  9
$SURFV
 70
     6
  9
$UCSBASE
  2

  9
$UCSNAME
  2

  9
$UCSORG
 10
0.0
 20
0.0
 30
0.0
  9
$UCSXDIR
 10
1.0
 20
0.0
 30
0.0
  9
$UCSYDIR
 10
0.0
 20
1.0
 30
0.0
  9
$UCSORTHOREF
  2

  9
$UCSORTHOVIEW
 70
     0
  9
$UCSORGTOP
 10
0.0
 20
0.0
 30
0.0
  9
$UCSORGBOTTOM
 10
0.0
 20
0.0
 30
0.0
  9
$UCSORGLEFT
 10
0.0
 20
0.0
 30
0.0
  9
$UCSORGRIGHT
 10
0.0
 20
0.0
 30
0.0
  9
$UCSORGFRONT
 10
0.0
 20
0.0
 30
0.0
  9
$UCSORGBACK
 10
0.0
 20
0.0
 30
0.0
  9
$PUCSBASE
  2

  9
$PUCSNAME
  2

  9
$PUCSORG
 10
0.0
 20
0.0
 30
0.0
  9
$PUCSXDIR
 10
1.0
 20
0.0
 30
0.0
  9
$PUCSYDIR
 10
0.0
 20
1.0
 30
0.0
  9
$PUCSORTHOREF
  2

  9
$PUCSORTHOVIEW
 70
     0
  9
$PUCSORGTOP
 10
0.0
 20
0.0
 30
0.0
  9
$PUCSORGBOTTOM
 10
0.0
 20
0.0
 30
0.0
  9
$PUCSORGLEFT
 10
0.0
 20
0.0
 30
0.0
  9
$PUCSORGRIGHT
 10
0.0
 20
0.0
 30
0.0
  9
$PUCSORGFRONT
 10
0.0
 20
0.0
 30
0.0
  9
$PUCSORGBACK
 10
0.0
 20
0.0
 30
0.0
  9
$USERI1
 70
     0
  9
$USERI2
 70
     0
  9
$USERI3
 70
     0
  9
$USERI4
 70
     0
  9
$USERI5
 70
     0
  9
$USERR1
 40
0.0
  9
$USERR2
 40
0.0
  9
$USERR3
 40
0.0
  9
$USERR4
 40
0.0
  9
$USERR5
 40
0.0
  9
$WORLDVIEW
 70
     1
  9
$SHADEDGE
 70
     3
  9
$SHADEDIF
 70
    70
  9
$TILEMODE
 70
     1
  9
$MAXACTVP
 70
    16
  9
$PINSBASE
 10
0.0
 20
0.0
 30
0.0
  9
$PLIMCHECK
 70
     0
  9
$PEXTMIN
 10
1.000000000000000E+20
 20
1.000000000000000E+20
 30
1.000000000000000E+20
  9
$PEXTMAX
 10
-1.000000000000000E+20
 20
-1.000000000000000E+20
 30
-1.000000000000000E+20
  9
$PLIMMIN
 10
0.0
 20
0.0
  9
$PLIMMAX
 10
420.0
 20
297.0
  9
$UNITMODE
 70
     0
  9
$VISRETAIN
 70
     0
  9
$PLINEGEN
 70
     0
  9
$PSLTSCALE
 70
     0
  9
$TREEDEPTH
 70
  3020
  9
$CMLSTYLE
  2
STANDARD
  9
$CMLJUST
 70
     0
  9
$CMLSCALE
 40
1.0
  9
$PROXYGRAPHICS
 70
     1
  9
$MEASUREMENT
 70
     1
  9
$CELWEIGHT
370
    -1
  9
$ENDCAPS
280
     0
  9
$JOINSTYLE
280
     0
  9
$LWDISPLAY
290
     0
  9
$INSUNITS
 70
     0
  9
$HYPERLINKBASE
  1

  9
$STYLESHEET
  1

  9
$XEDIT
290
     1
  9
$CEPSNTYPE
380
     0
  9
$PSTYLEMODE
290
     1
  9
$FINGERPRINTGUID
  2
{697DFE34-F946-11D6-AF94-00909916878D}
  9
$VERSIONGUID
  2
{697DFE36-F946-11D6-AF94-00909916878D}
  9
$EXTNAMES
290
     1
  9
$PSVPSCALE
 40
0.0
  9
$OLESTARTUP
290
     0
  0
ENDSEC
  0
SECTION
  2
CLASSES
  0
CLASS
  1
OLE2FRAME
  2
AcDbOle2Frame
  3
AutoCAD 2000
 90
    32768
280
     0
281
     1
  0
CLASS
  1
LWPOLYLINE
  2
AcDbPolyline
  3
AutoCAD 2000
 90
    32768
280
     0
281
     1
  0
CLASS
  1
HATCH
  2
AcDbHatch
  3
AutoCAD 2000
 90
    32768
280
     0
281
     1
  0
CLASS
  1
DICTIONARYVAR
  2
AcDbDictionaryVar
  3
AutoCAD 2000
 90
        0
280
     0
281
     0
  0
CLASS
  1
ACDBDICTIONARYWDFLT
  2
AcDbDictionaryWithDefault
  3
AutoCAD 2000
 90
        0
280
     0
281
     0
  0
CLASS
  1
ACDBPLACEHOLDER
  2
AcDbPlaceHolder
  3
AutoCAD 2000
 90
        0
280
     0
281
     0
  0
CLASS
  1
LAYOUT
  2
AcDbLayout
  3
AutoCAD 2000
 90
        0
280
     0
281
     0
  0
CLASS
  1
LONG_TRANSACTION
  2
AcDbLongTransaction
  3
AutoCAD 2000
 90
    32768
280
     0
281
     0
  0
CLASS
  1
LWPOLYLINE
  2
AcDbPolyline
  3
AutoCAD 2000
 90
    32768
280
     0
281
     1
  0
CLASS
  1
HATCH
  2
AcDbHatch
  3
AutoCAD 2000
 90
    32768
280
     0
281
     1
  0
CLASS
  1
XRECORD
  2
AcDbXrecord
  3
AutoCAD 2000
 90
    32768
280
     0
281
     0
  0
ENDSEC
  0
SECTION
  2
TABLES
  0
TABLE
  2
VPORT
  5
746D
330
0
100
AcDbSymbolTable
 70
     2
  0
VPORT
  5
1CB0E
330
746D
100
AcDbSymbolTableRecord
100
AcDbViewportTableRecord
  2
*Active
 70
     0
 10
0.0
 20
0.0
 11
1.0
 21
1.0
 12
10500.0
 22
8286.123436339119
 13
0.0
 23
0.0
 14
10.0
 24
10.0
 15
10.0
 25
10.0
 16
0.0
 26
0.0
 36
1.0
 17
0.0
 27
0.0
 37
0.0
 40
16748.20763317997
 41
1.902010050251256
 42
50.0
 43
0.0
 44
0.0
 50
0.0
 51
0.0
 71
     0
 72
     0
 73
     1
 74
     0
 75
     0
 76
     0
 77
     0
 78
     0
281
     0
 65
     1
110
0.0
120
0.0
130
0.0
111
1.0
121
0.0
131
0.0
112
0.0
122
1.0
132
0.0
 79
     0
146
0.0
  0
ENDTAB
  0
TABLE
  2
LTYPE
  5
746A
330
0
100
AcDbSymbolTable
 70
     4
  0
LTYPE
  5
7477
330
746A
100
AcDbSymbolTableRecord
100
AcDbLinetypeTableRecord
  2
BYBLOCK
 70
     0
  3

 72
    65
 73
     0
 40
0.0
  0
LTYPE
  5
7478
330
746A
100
AcDbSymbolTableRecord
100
AcDbLinetypeTableRecord
  2
BYLAYER
 70
     0
  3

 72
    65
 73
     0
 40
0.0
  0
LTYPE
  5
7479
330
746A
100
AcDbSymbolTableRecord
100
AcDbLinetypeTableRecord
  2
CONTINUOUS
 70
     0
  3
Solid line
 72
    65
 73
     0
 40
0.0
  0
LTYPE
  5
7816
330
746A
100
AcDbSymbolTableRecord
100
AcDbLinetypeTableRecord
  2
CENTER
 70
     0
  3
____ _ ____ _ ____ _ ____ _ ____ _ ____ _ ____ 
 72
    65
 73
     4
 40
2.0
 49
1.25
 74
     0
 49
-0.25
 74
     0
 49
0.25
 74
     0
 49
-0.25
 74
     0
  0
LTYPE
  5
781A
330
746A
100
AcDbSymbolTableRecord
100
AcDbLinetypeTableRecord
  2
HIDDEN
 70
     0
  3
__ __ __ __ __ __ __ __ __ __ __ __ __ __ __ __
 72
    65
 73
     2
 40
0.375
 49
0.25
 74
     0
 49
-0.125
 74
     0
  0
LTYPE
  5
781B
330
746A
100
AcDbSymbolTableRecord
100
AcDbLinetypeTableRecord
  2
PHANTOM
 70
     0
  3
______  __  __  ______  __  __  ______  __  __ 
 72
    65
 73
     6
 40
2.5
 49
1.25
 74
     0
 49
-0.25
 74
     0
 49
0.25
 74
     0
 49
-0.25
 74
     0
 49
0.25
 74
     0
 49
-0.25
 74
     0
  0
ENDTAB
  0
TABLE
  2
LAYER
  5
7467
330
0
100
AcDbSymbolTable
 70
    12
  0
LAYER
  5
7474
330
7467
100
AcDbSymbolTableRecord
100
AcDbLayerTableRecord
  2
0
 70
     0
 62
     7
  6
CONTINUOUS
370
    -3
390
1CA83
  0
LAYER
  5
DEB2
330
7467
100
AcDbSymbolTableRecord
100
AcDbLayerTableRecord
  2
センター
 70
     0
 62
     3
  6
CENTER
370
    -3
390
1CA83
  0
LAYER
  5
DEB3
330
7467
100
AcDbSymbolTableRecord
100
AcDbLayerTableRecord
  2
寸法
 70
     0
 62
     4
  6
CONTINUOUS
370
    -3
390
1CA83
  0
LAYER
  5
DEB4
330
7467
100
AcDbSymbolTableRecord
100
AcDbLayerTableRecord
  2
部品1
 70
     0
 62
     7
  6
CONTINUOUS
370
    -3
390
1CA83
  0
LAYER
  5
DEB5
330
7467
100
AcDbSymbolTableRecord
100
AcDbLayerTableRecord
  2
補助
 70
     0
 62
    -1
  6
CONTINUOUS
370
    -3
390
1CA83
  0
LAYER
  5
DEB6
330
7467
100
AcDbSymbolTableRecord
100
AcDbLayerTableRecord
  2
文字
 70
     0
 62
     7
  6
CONTINUOUS
370
    -3
390
1CA83
  0
LAYER
  5
F255
330
7467
100
AcDbSymbolTableRecord
100
AcDbLayerTableRecord
  2
DEFPOINTS
 70
     0
 62
     7
  6
CONTINUOUS
290
     0
370
    -3
390
1CA83
  0
LAYER
  5
10B54
330
7467
100
AcDbSymbolTableRecord
100
AcDbLayerTableRecord
  2
仕様書枠
 70
     0
 62
   230
  6
CONTINUOUS
370
    -3
390
1CA83
  0
LAYER
  5
11729
330
7467
100
AcDbSymbolTableRecord
100
AcDbLayerTableRecord
  2
Ｇ．Ｌ
 70
     0
 62
    30
  6
CONTINUOUS
370
    -3
390
1CA83
  0
LAYER
  5
1173F
330
7467
100
AcDbSymbolTableRecord
100
AcDbLayerTableRecord
  2
細線
 70
     0
 62
     5
  6
CONTINUOUS
370
    -3
390
1CA83
  0
LAYER
  5
15A90
330
7467
100
AcDbSymbolTableRecord
100
AcDbLayerTableRecord
  2
想像線
 70
     0
 62
     6
  6
PHANTOM
370
    -3
390
1CA83
  0
LAYER
  5
188E2
330
7467
100
AcDbSymbolTableRecord
100
AcDbLayerTableRecord
  2
破線
 70
     0
 62
     2
  6
HIDDEN
370
    -3
390
1CA83
  0
ENDTAB
  0
TABLE
  2
STYLE
  5
7468
330
0
100
AcDbSymbolTable
 70
     3
  0
STYLE
  5
7475
330
7468
100
AcDbSymbolTableRecord
100
AcDbTextStyleTableRecord
  2
STANDARD
 70
     0
 40
0.0
 41
1.0
 50
0.0
 71
     0
 42
4.0
  3
txt
  4
C:\AutoCAD LT\bigfont.shx
  0
STYLE
  5
F706
330
7468
100
AcDbSymbolTableRecord
100
AcDbTextStyleTableRecord
  2
STYLE1
 70
     0
 40
0.0
 41
1.0
 50
0.0
 71
     0
 42
4.0
  3
isocp.shx
  4
bigfont.shx
  0
STYLE
  5
103BF
330
7468
100
AcDbSymbolTableRecord
100
AcDbTextStyleTableRecord
  2
STYLE2
 70
     0
 40
0.0
 41
1.0
 50
0.0
 71
     0
 42
100.0
  3
MS PGothic.ttf
  4

1001
ACAD
1000
MS PGothic
1071
    32818
  0
ENDTAB
  0
TABLE
  2
VIEW
  5
746B
330
0
100
AcDbSymbolTable
 70
     0
  0
ENDTAB
  0
TABLE
  2
UCS
  5
746C
330
0
100
AcDbSymbolTable
 70
     0
  0
ENDTAB
  0
TABLE
  2
APPID
  5
746E
330
0
100
AcDbSymbolTable
 70
     6
  0
APPID
  5
7476
330
746E
100
AcDbSymbolTableRecord
100
AcDbRegAppTableRecord
  2
ACAD
 70
     0
  0
APPID
  5
DEA9
330
746E
100
AcDbSymbolTableRecord
100
AcDbRegAppTableRecord
  2
CONTENTBLOCKICON
 70
     0
  0
APPID
  5
DEAA
330
746E
100
AcDbSymbolTableRecord
100
AcDbRegAppTableRecord
  2
CONTENTBLOCKDESCRIPTION
 70
     0
  0
APPID
  5
E71D
330
746E
100
AcDbSymbolTableRecord
100
AcDbRegAppTableRecord
  2
CONTENTTABDATA
 70
     0
  0
APPID
  5
E71E
330
746E
100
AcDbSymbolTableRecord
100
AcDbRegAppTableRecord
  2
CONTENTCURRENTTAB
 70
     0
  0
APPID
  5
F3BA
330
746E
100
AcDbSymbolTableRecord
100
AcDbRegAppTableRecord
  2
DRAWINGVARIABLESXDATA
 70
     0
  0
ENDTAB
  0
TABLE
  2
DIMSTYLE
  5
746F
330
0
100
AcDbSymbolTable
 70
     2
100
AcDbDimStyleTable
 71
     0
  0
DIMSTYLE
105
7484
330
746F
100
AcDbSymbolTableRecord
100
AcDbDimStyleTableRecord
  2
JIS
 70
     0
 41
2.5
 42
1.0
 43
7.0
 44
1.0
 73
     0
 74
     0
 77
     1
 78
     8
140
2.5
141
0.0
143
0.0394
147
0.0
172
     1
174
     1
175
     1
340
7475
  0
DIMSTYLE
105
F71F
102
{ACAD_REACTORS
330
1852D
330
1852B
330
1852F
330
1852C
330
1852E
330
185AE
330
185B1
330
185B4
330
185AD
330
185AF
330
185B3
330
1868C
330
186AF
330
1852A
330
1AE97
330
1AEA6
330
1AEA7
330
1AEE4
330
1AF0E
330
1AF10
330
1AF1A
330
1C351
330
1C350
330
1C2B0
330
1C2AF
330
1C2B9
330
1C2B7
330
1C2BA
330
1C2C8
330
1C2D7
330
1C310
330
1C46F
330
1C496
330
1C53B
330
1C569
330
1C56A
330
1C60C
330
1C840
330
1C841
330
1C849
330
1C84A
330
1C850
330
1C851
330
1C856
330
1C857
330
1C85C
330
1C86A
330
1C86B
330
1C536
102
}
330
746F
100
AcDbSymbolTableRecord
100
AcDbDimStyleTableRecord
  2
INABA_S50G
 70
     0
 41
125.0
 42
25.0
 43
7.0
 44
75.0
 73
     0
 74
     0
 77
     3
 78
     8
140
150.0
141
0.0
143
0.0394
147
25.0
172
     1
173
     1
174
     1
178
     7
271
     1
340
F706
341
F770
343
F770
344
F770
  0
ENDTAB
  0
TABLE
  2
BLOCK_RECORD
  5
7466
330
0
100
AcDbSymbolTable
 70
    54
  0
BLOCK_RECORD
  5
747D
102
{ACAD_XDICTIONARY
360
1CAB4
102
}
330
7466
100
AcDbSymbolTableRecord
100
AcDbBlockTableRecord
  2
*MODEL_SPACE
340
1CA86
  0
BLOCK_RECORD
  5
747A
102
{ACAD_XDICTIONARY
360
1CAB2
102
}
330
7466
100
AcDbSymbolTableRecord
100
AcDbBlockTableRecord
  2
*PAPER_SPACE
340
1CA87
  0
BLOCK_RECORD
  5
F770
330
7466
100
AcDbSymbolTableRecord
100
AcDbBlockTableRecord
  2
_DOTSMALL
340
0
102
{BLKREFS
331
18581
331
18582
331
1B652
331
1B653
331
18599
331
1859A
331
1A4EB
331
1A4EC
331
1B65F
331
1B660
331
1A4D4
331
1A4D5
331
18629
331
1862A
331
1CAC6
331
1CAC7
331
1865B
331
1865C
331
1861D
331
1861E
331
1CABE
331
1CABF
331
1864F
331
18650
331
1C63D
331
1C63E
331
1B647
331
1B648
331
1AF87
331
1AF88
331
1B699
331
1B69A
331
1CACE
331
1CACF
331
1AFA8
331
1AFA9
331
1CAD6
331
1CAD7
331
1C5BA
331
1C5BB
331
1AFCA
331
1AFCB
331
1C3DF
331
1C3E0
331
1C3EB
331
1C3EC
331
1C3F6
331
1C3F7
331
1CADE
331
1CADF
331
1CAE6
331
1CAE7
331
1C415
331
1C416
331
1C421
331
1C422
331
1C42D
331
1C42E
331
1C444
331
1C445
331
1C450
331
1C451
331
1C48C
331
1C48D
331
1C4CD
331
1C4CE
331
1C52D
331
1C52E
331
1C545
331
1C546
331
1CAEE
331
1CAEF
331
1C5C5
331
1C5C6
331
1C631
331
1C632
331
1C667
331
1C668
331
1CAF6
331
1CAF7
331
1CA00
331
1CA01
331
1CA0C
331
1CA0D
331
1CA18
331
1CA19
331
1CA23
331
1CA24
331
1CA2E
331
1CA2F
331
1CAFE
331
1CAFF
331
1CA43
331
1CA44
331
1CA4F
331
1CA50
331
1CA5A
331
1CA5B
331
1CA65
331
1CA66
102
}
  0
BLOCK_RECORD
  5
18530
330
7466
100
AcDbSymbolTableRecord
100
AcDbBlockTableRecord
  2
*D1
340
0
  0
BLOCK_RECORD
  5
1853D
330
7466
100
AcDbSymbolTableRecord
100
AcDbBlockTableRecord
  2
*D2
340
0
  0
BLOCK_RECORD
  5
18549
330
7466
100
AcDbSymbolTableRecord
100
AcDbBlockTableRecord
  2
*D3
340
0
  0
BLOCK_RECORD
  5
18556
330
7466
100
AcDbSymbolTableRecord
100
AcDbBlockTableRecord
  2
*D4
340
0
  0
BLOCK_RECORD
  5
18563
330
7466
100
AcDbSymbolTableRecord
100
AcDbBlockTableRecord
  2
*D5
340
0
  0
BLOCK_RECORD
  5
1856F
330
7466
100
AcDbSymbolTableRecord
100
AcDbBlockTableRecord
  2
*D6
340
0
  0
BLOCK_RECORD
  5
185B5
330
7466
100
AcDbSymbolTableRecord
100
AcDbBlockTableRecord
  2
*D7
340
0
  0
BLOCK_RECORD
  5
185C2
330
7466
100
AcDbSymbolTableRecord
100
AcDbBlockTableRecord
  2
*D8
340
0
  0
BLOCK_RECORD
  5
185E5
330
7466
100
AcDbSymbolTableRecord
100
AcDbBlockTableRecord
  2
*D9
340
0
  0
BLOCK_RECORD
  5
185F2
330
7466
100
AcDbSymbolTableRecord
100
AcDbBlockTableRecord
  2
*D10
340
0
  0
BLOCK_RECORD
  5
185FF
330
7466
100
AcDbSymbolTableRecord
100
AcDbBlockTableRecord
  2
*D11
340
0
  0
BLOCK_RECORD
  5
1860A
330
7466
100
AcDbSymbolTableRecord
100
AcDbBlockTableRecord
  2
*D12
340
0
  0
BLOCK_RECORD
  5
1868D
330
7466
100
AcDbSymbolTableRecord
100
AcDbBlockTableRecord
  2
*D13
340
0
  0
BLOCK_RECORD
  5
186B0
330
7466
100
AcDbSymbolTableRecord
100
AcDbBlockTableRecord
  2
*D14
340
0
  0
BLOCK_RECORD
  5
1AF2C
330
7466
100
AcDbSymbolTableRecord
100
AcDbBlockTableRecord
  2
*D15
340
0
  0
BLOCK_RECORD
  5
1AF39
330
7466
100
AcDbSymbolTableRecord
100
AcDbBlockTableRecord
  2
*D16
340
0
  0
BLOCK_RECORD
  5
1AF45
330
7466
100
AcDbSymbolTableRecord
100
AcDbBlockTableRecord
  2
*D17
340
0
  0
BLOCK_RECORD
  5
1AF50
330
7466
100
AcDbSymbolTableRecord
100
AcDbBlockTableRecord
  2
*D18
340
0
  0
BLOCK_RECORD
  5
1AF5D
330
7466
100
AcDbSymbolTableRecord
100
AcDbBlockTableRecord
  2
*D19
340
0
  0
BLOCK_RECORD
  5
1AF68
330
7466
100
AcDbSymbolTableRecord
100
AcDbBlockTableRecord
  2
*D20
340
0
  0
BLOCK_RECORD
  5
1AF75
330
7466
100
AcDbSymbolTableRecord
100
AcDbBlockTableRecord
  2
*D21
340
0
  0
BLOCK_RECORD
  5
1C352
330
7466
100
AcDbSymbolTableRecord
100
AcDbBlockTableRecord
  2
*D22
340
0
  0
BLOCK_RECORD
  5
1C35F
330
7466
100
AcDbSymbolTableRecord
100
AcDbBlockTableRecord
  2
*D23
340
0
  0
BLOCK_RECORD
  5
1C36C
330
7466
100
AcDbSymbolTableRecord
100
AcDbBlockTableRecord
  2
*D24
340
0
  0
BLOCK_RECORD
  5
1C378
330
7466
100
AcDbSymbolTableRecord
100
AcDbBlockTableRecord
  2
*D25
340
0
  0
BLOCK_RECORD
  5
1C383
330
7466
100
AcDbSymbolTableRecord
100
AcDbBlockTableRecord
  2
*D26
340
0
  0
BLOCK_RECORD
  5
1C38E
330
7466
100
AcDbSymbolTableRecord
100
AcDbBlockTableRecord
  2
*D27
340
0
  0
BLOCK_RECORD
  5
1C39A
330
7466
100
AcDbSymbolTableRecord
100
AcDbBlockTableRecord
  2
*D28
340
0
  0
BLOCK_RECORD
  5
1C3A7
330
7466
100
AcDbSymbolTableRecord
100
AcDbBlockTableRecord
  2
*D29
340
0
  0
BLOCK_RECORD
  5
1C3C1
330
7466
100
AcDbSymbolTableRecord
100
AcDbBlockTableRecord
  2
*D30
340
0
  0
BLOCK_RECORD
  5
1C3CD
330
7466
100
AcDbSymbolTableRecord
100
AcDbBlockTableRecord
  2
*D31
340
0
  0
BLOCK_RECORD
  5
1C470
330
7466
100
AcDbSymbolTableRecord
100
AcDbBlockTableRecord
  2
*D32
340
0
  0
BLOCK_RECORD
  5
1C4BD
330
7466
100
AcDbSymbolTableRecord
100
AcDbBlockTableRecord
  2
*D33
340
0
  0
BLOCK_RECORD
  5
1C528
330
7466
100
AcDbSymbolTableRecord
100
AcDbBlockTableRecord
  2
*D34
340
0
  0
BLOCK_RECORD
  5
1C535
330
7466
100
AcDbSymbolTableRecord
100
AcDbBlockTableRecord
  2
A$C019569EB
340
0
102
{BLKREFS
331
1C539
102
}
  0
BLOCK_RECORD
  5
1C53F
330
7466
100
AcDbSymbolTableRecord
100
AcDbBlockTableRecord
  2
*D36
340
0
  0
BLOCK_RECORD
  5
1C57F
330
7466
100
AcDbSymbolTableRecord
100
AcDbBlockTableRecord
  2
*D37
340
0
  0
BLOCK_RECORD
  5
1C58A
330
7466
100
AcDbSymbolTableRecord
100
AcDbBlockTableRecord
  2
*D38
340
0
  0
BLOCK_RECORD
  5
1C621
330
7466
100
AcDbSymbolTableRecord
100
AcDbBlockTableRecord
  2
*D39
340
0
  0
BLOCK_RECORD
  5
1C662
330
7466
100
AcDbSymbolTableRecord
100
AcDbBlockTableRecord
  2
*D40
340
0
  0
BLOCK_RECORD
  5
1C66F
330
7466
100
AcDbSymbolTableRecord
100
AcDbBlockTableRecord
  2
A$C356B7D95
340
0
102
{BLKREFS
331
1C958
102
}
  0
BLOCK_RECORD
  5
1C673
330
7466
100
AcDbSymbolTableRecord
100
AcDbBlockTableRecord
  2
A$C1453373C
340
0
102
{BLKREFS
331
1C854
102
}
  0
BLOCK_RECORD
  5
1C96D
330
7466
100
AcDbSymbolTableRecord
100
AcDbBlockTableRecord
  2
*D43
340
0
  0
BLOCK_RECORD
  5
1C978
330
7466
100
AcDbSymbolTableRecord
100
AcDbBlockTableRecord
  2
*D44
340
0
  0
BLOCK_RECORD
  5
1C984
330
7466
100
AcDbSymbolTableRecord
100
AcDbBlockTableRecord
  2
*D45
340
0
  0
BLOCK_RECORD
  5
1C991
330
7466
100
AcDbSymbolTableRecord
100
AcDbBlockTableRecord
  2
*D46
340
0
  0
BLOCK_RECORD
  5
1C99E
330
7466
100
AcDbSymbolTableRecord
100
AcDbBlockTableRecord
  2
*D47
340
0
  0
BLOCK_RECORD
  5
1C9AA
330
7466
100
AcDbSymbolTableRecord
100
AcDbBlockTableRecord
  2
*D48
340
0
  0
BLOCK_RECORD
  5
1C9B6
330
7466
100
AcDbSymbolTableRecord
100
AcDbBlockTableRecord
  2
*D49
340
0
  0
BLOCK_RECORD
  5
1C9C1
330
7466
100
AcDbSymbolTableRecord
100
AcDbBlockTableRecord
  2
*D50
340
0
  0
BLOCK_RECORD
  5
1C9CD
330
7466
100
AcDbSymbolTableRecord
100
AcDbBlockTableRecord
  2
*D51
340
0
  0
BLOCK_RECORD
  5
1C9DA
330
7466
100
AcDbSymbolTableRecord
100
AcDbBlockTableRecord
  2
*D52
340
0
  0
BLOCK_RECORD
  5
1C9E6
330
7466
100
AcDbSymbolTableRecord
100
AcDbBlockTableRecord
  2
*D53
340
0
  0
ENDTAB
  0
ENDSEC
  0
SECTION
  2
BLOCKS
  0
BLOCK
  5
7489
330
747D
100
AcDbEntity
  8
0
100
AcDbBlockBegin
  2
*MODEL_SPACE
 70
     0
 10
0.0
 20
0.0
 30
0.0
  3
*MODEL_SPACE
  1

  0
ENDBLK
  5
748A
330
747D
100
AcDbEntity
  8
0
100
AcDbBlockEnd
  0
BLOCK
  5
7487
330
747A
100
AcDbEntity
 67
     1
  8
0
100
AcDbBlockBegin
  2
*PAPER_SPACE
 70
     0
 10
0.0
 20
0.0
 30
0.0
  3
*PAPER_SPACE
  1

  0
ENDBLK
  5
7488
330
747A
100
AcDbEntity
 67
     1
  8
0
100
AcDbBlockEnd
  0
BLOCK
  5
F771
330
F770
100
AcDbEntity
  8
0
 48
50.0
100
AcDbBlockBegin
  2
_DOTSMALL
 70
     0
 10
0.0
 20
0.0
 30
0.0
  3
_DOTSMALL
  1

  0
LWPOLYLINE
  5
F772
330
F770
100
AcDbEntity
  8
0
  6
ByBlock
 62
     0
 48
50.0
100
AcDbPolyline
 90
        2
 70
     1
 43
0.5
 10
-0.0625
 20
0.0
 42
1.0
 10
0.0625
 20
0.0
 42
1.0
  0
ENDBLK
  5
F776
330
F770
100
AcDbEntity
  8
0
 48
50.0
100
AcDbBlockEnd
  0
BLOCK
  5
1857C
330
18530
100
AcDbEntity
  8
0
 48
50.0
100
AcDbBlockBegin
  2
*D1
 70
     1
 10
0.0
 20
0.0
 30
0.0
  3
*D1
  1

  0
LINE
  5
1857D
330
18530
100
AcDbEntity
  8
0
  6
ByBlock
 62
     0
 48
50.0
100
AcDbLine
 10
16722.46242649134
 20
9602.681515694126
 30
0.0
 11
17593.79817887432
 21
9602.681515694126
 31
0.0
  0
LINE
  5
1857E
330
18530
100
AcDbEntity
  8
0
  6
ByBlock
 62
     0
 48
50.0
100
AcDbLine
 10
16732.46242649134
 20
9672.681515694129
 30
0.0
 11
17593.79817887432
 21
9672.681515694129
 31
0.0
  0
LINE
  5
1857F
330
18530
100
AcDbEntity
  8
0
  6
ByBlock
 62
     0
 48
50.0
100
AcDbLine
 10
17518.79817887432
 20
9672.681515694129
 30
0.0
 11
17518.79817887432
 21
9602.681515694126
 31
0.0
  0
LINE
  5
18580
330
18530
100
AcDbEntity
  8
0
  6
ByBlock
 62
     0
 48
50.0
100
AcDbLine
 10
17518.79817887432
 20
9602.681515694126
 30
0.0
 11
17518.79817887432
 21
9262.563405457903
 31
0.0
  0
INSERT
  5
18581
330
18530
100
AcDbEntity
  8
0
  6
ByBlock
 62
     0
 48
50.0
100
AcDbBlockReference
  2
_DOTSMALL
 10
17518.79817887432
 20
9672.681515694129
 30
0.0
 41
125.0
 42
125.0
 43
125.0
 50
90.0
  0
INSERT
  5
18582
330
18530
100
AcDbEntity
  8
0
  6
ByBlock
 62
     0
 48
50.0
100
AcDbBlockReference
  2
_DOTSMALL
 10
17518.79817887432
 20
9602.681515694126
 30
0.0
 41
125.0
 42
125.0
 43
125.0
 50
270.0
  0
MTEXT
  5
18583
330
18530
100
AcDbEntity
  8
0
  6
ByBlock
 62
     7
 48
50.0
100
AcDbMText
 10
17418.79817887432
 20
9370.122460576014
 30
0.0
 40
150.0
 41
0.0
 71
     5
 72
     1
  1
\A1;70
  7
STYLE1
 11
0.0000000000000001
 21
1.0
 31
0.0
 73
     1
 44
1.0
  0
POINT
  5
18584
330
18530
100
AcDbEntity
  8
DEFPOINTS
  6
ByBlock
 62
     0
 48
50.0
100
AcDbPoint
 10
16697.46242649134
 20
9602.681515694126
 30
0.0
  0
POINT
  5
18585
330
18530
100
AcDbEntity
  8
DEFPOINTS
  6
ByBlock
 62
     0
 48
50.0
100
AcDbPoint
 10
16707.46242649134
 20
9672.681515694129
 30
0.0
  0
POINT
  5
18586
330
18530
100
AcDbEntity
  8
DEFPOINTS
  6
ByBlock
 62
     0
 48
50.0
100
AcDbPoint
 10
17518.79817887432
 20
9672.681515694129
 30
0.0
  0
ENDBLK
  5
18587
330
18530
100
AcDbEntity
  8
0
 48
50.0
100
AcDbBlockEnd
  0
BLOCK
  5
1B64E
330
1853D
100
AcDbEntity
  8
0
 48
50.0
100
AcDbBlockBegin
  2
*D2
 70
     1
 10
0.0
 20
0.0
 30
0.0
  3
*D2
  1

  0
LINE
  5
1B64F
330
1853D
100
AcDbEntity
  8
0
  6
ByBlock
 62
     0
 48
50.0
100
AcDbLine
 10
8197.829581418176
 20
9298.736797361975
 30
0.0
 11
9059.165333801145
 21
9298.736797361975
 31
0.0
  0
LINE
  5
1B650
330
1853D
100
AcDbEntity
  8
0
  6
ByBlock
 62
     0
 48
50.0
100
AcDbLine
 10
8197.829581418176
 20
10458.73679736197
 30
0.0
 11
9059.165333801145
 21
10458.73679736197
 31
0.0
  0
LINE
  5
1B651
330
1853D
100
AcDbEntity
  8
0
  6
ByBlock
 62
     0
 48
50.0
100
AcDbLine
 10
8984.165333801144
 20
9298.736797361975
 30
0.0
 11
8984.165333801144
 21
10458.73679736197
 31
0.0
  0
INSERT
  5
1B652
330
1853D
100
AcDbEntity
  8
0
  6
ByBlock
 62
     0
 48
50.0
100
AcDbBlockReference
  2
_DOTSMALL
 10
8984.165333801144
 20
9298.736797361975
 30
0.0
 41
125.0
 42
125.0
 43
125.0
 50
270.0
  0
INSERT
  5
1B653
330
1853D
100
AcDbEntity
  8
0
  6
ByBlock
 62
     0
 48
50.0
100
AcDbBlockReference
  2
_DOTSMALL
 10
8984.165333801144
 20
10458.73679736197
 30
0.0
 41
125.0
 42
125.0
 43
125.0
 50
90.0
  0
MTEXT
  5
1B654
330
1853D
100
AcDbEntity
  8
0
  6
ByBlock
 62
     7
 48
50.0
100
AcDbMText
 10
8884.150570021617
 20
9878.736797361975
 30
0.0
 40
150.0
 41
0.0
 71
     5
 72
     1
  1
\A1;2x580=1160
  7
STYLE1
 11
0.0000000000000001
 21
1.0
 31
0.0
 73
     1
 44
1.0
  0
POINT
  5
1B655
330
1853D
100
AcDbEntity
  8
DEFPOINTS
  6
ByBlock
 62
     0
 48
50.0
100
AcDbPoint
 10
8172.829581418175
 20
9298.736797361975
 30
0.0
  0
POINT
  5
1B656
330
1853D
100
AcDbEntity
  8
DEFPOINTS
  6
ByBlock
 62
     0
 48
50.0
100
AcDbPoint
 10
8172.829581418175
 20
10458.73679736197
 30
0.0
  0
POINT
  5
1B657
330
1853D
100
AcDbEntity
  8
DEFPOINTS
  6
ByBlock
 62
     0
 48
50.0
100
AcDbPoint
 10
8984.165333801144
 20
10458.73679736197
 30
0.0
  0
ENDBLK
  5
1B658
330
1853D
100
AcDbEntity
  8
0
 48
50.0
100
AcDbBlockEnd
  0
BLOCK
  5
18594
330
18549
100
AcDbEntity
  8
0
 48
50.0
100
AcDbBlockBegin
  2
*D3
 70
     1
 10
0.0
 20
0.0
 30
0.0
  3
*D3
  1

  0
LINE
  5
18595
330
18549
100
AcDbEntity
  8
0
  6
ByBlock
 62
     0
 48
50.0
100
AcDbLine
 10
16732.46242649134
 20
12572.68151569412
 30
0.0
 11
17593.79817887431
 21
12572.68151569412
 31
0.0
  0
LINE
  5
18596
330
18549
100
AcDbEntity
  8
0
  6
ByBlock
 62
     0
 48
50.0
100
AcDbLine
 10
16722.46242649134
 20
12642.68151569412
 30
0.0
 11
17593.79817887431
 21
12642.68151569412
 31
0.0
  0
LINE
  5
18597
330
18549
100
AcDbEntity
  8
0
  6
ByBlock
 62
     0
 48
50.0
100
AcDbLine
 10
17518.79817887431
 20
12572.68151569412
 30
0.0
 11
17518.79817887431
 21
12642.68151569412
 31
0.0
  0
LINE
  5
18598
330
18549
100
AcDbEntity
  8
0
  6
ByBlock
 62
     0
 48
50.0
100
AcDbLine
 10
17518.79817887431
 20
12642.68151569412
 30
0.0
 11
17518.79817887431
 21
12982.79962593034
 31
0.0
  0
INSERT
  5
18599
330
18549
100
AcDbEntity
  8
0
  6
ByBlock
 62
     0
 48
50.0
100
AcDbBlockReference
  2
_DOTSMALL
 10
17518.79817887431
 20
12572.68151569412
 30
0.0
 41
125.0
 42
125.0
 43
125.0
 50
270.0
  0
INSERT
  5
1859A
330
18549
100
AcDbEntity
  8
0
  6
ByBlock
 62
     0
 48
50.0
100
AcDbBlockReference
  2
_DOTSMALL
 10
17518.79817887431
 20
12642.68151569412
 30
0.0
 41
125.0
 42
125.0
 43
125.0
 50
90.0
  0
MTEXT
  5
1859B
330
18549
100
AcDbEntity
  8
0
  6
ByBlock
 62
     7
 48
50.0
100
AcDbMText
 10
17418.79817887431
 20
12875.24057081223
 30
0.0
 40
150.0
 41
0.0
 71
     5
 72
     1
  1
\A1;70
  7
STYLE1
 11
0.0000000000000001
 21
1.0
 31
0.0
 73
     1
 44
1.0
  0
POINT
  5
1859C
330
18549
100
AcDbEntity
  8
DEFPOINTS
  6
ByBlock
 62
     0
 48
50.0
100
AcDbPoint
 10
16707.46242649134
 20
12572.68151569412
 30
0.0
  0
POINT
  5
1859D
330
18549
100
AcDbEntity
  8
DEFPOINTS
  6
ByBlock
 62
     0
 48
50.0
100
AcDbPoint
 10
16697.46242649134
 20
12642.68151569412
 30
0.0
  0
POINT
  5
1859E
330
18549
100
AcDbEntity
  8
DEFPOINTS
  6
ByBlock
 62
     0
 48
50.0
100
AcDbPoint
 10
17518.79817887431
 20
12642.68151569412
 30
0.0
  0
ENDBLK
  5
1859F
330
18549
100
AcDbEntity
  8
0
 48
50.0
100
AcDbBlockEnd
  0
BLOCK
  5
1A4E6
330
18556
100
AcDbEntity
  8
0
 48
50.0
100
AcDbBlockBegin
  2
*D4
 70
     1
 10
0.0
 20
0.0
 30
0.0
  3
*D4
  1

  0
LINE
  5
1A4E7
330
18556
100
AcDbEntity
  8
0
  6
ByBlock
 62
     0
 48
50.0
100
AcDbLine
 10
8477.829581418175
 20
9228.736797361971
 30
0.0
 11
9651.969337719759
 21
9228.736797361971
 31
0.0
  0
LINE
  5
1A4E8
330
18556
100
AcDbEntity
  8
0
  6
ByBlock
 62
     0
 48
50.0
100
AcDbLine
 10
9299.165333801147
 20
9278.736797361975
 30
0.0
 11
9651.969337719759
 21
9278.736797361975
 31
0.0
  0
LINE
  5
1A4E9
330
18556
100
AcDbEntity
  8
0
  6
ByBlock
 62
     0
 48
50.0
100
AcDbLine
 10
9576.969337719758
 20
9278.736797361975
 30
0.0
 11
9576.969337719758
 21
9228.736797361971
 31
0.0
  0
LINE
  5
1A4EA
330
18556
100
AcDbEntity
  8
0
  6
ByBlock
 62
     0
 48
50.0
100
AcDbLine
 10
9576.969337719758
 20
9228.736797361971
 30
0.0
 11
9576.969337719758
 21
8884.130498149373
 31
0.0
  0
INSERT
  5
1A4EB
330
18556
100
AcDbEntity
  8
0
  6
ByBlock
 62
     0
 48
50.0
100
AcDbBlockReference
  2
_DOTSMALL
 10
9576.969337719758
 20
9278.736797361975
 30
0.0
 41
125.0
 42
125.0
 43
125.0
 50
90.0
  0
INSERT
  5
1A4EC
330
18556
100
AcDbEntity
  8
0
  6
ByBlock
 62
     0
 48
50.0
100
AcDbBlockReference
  2
_DOTSMALL
 10
9576.969337719758
 20
9228.736797361971
 30
0.0
 41
125.0
 42
125.0
 43
125.0
 50
270.0
  0
MTEXT
  5
1A4ED
330
18556
100
AcDbEntity
  8
0
  6
ByBlock
 62
     7
 48
50.0
100
AcDbMText
 10
9476.969337719758
 20
8991.689553267482
 30
0.0
 40
150.0
 41
0.0
 71
     5
 72
     1
  1
\A1;50
  7
STYLE1
 11
0.0000000000000001
 21
1.0
 31
0.0
 73
     1
 44
1.0
  0
POINT
  5
1A4EE
330
18556
100
AcDbEntity
  8
DEFPOINTS
  6
ByBlock
 62
     0
 48
50.0
100
AcDbPoint
 10
8452.829581418177
 20
9228.736797361971
 30
0.0
  0
POINT
  5
1A4EF
330
18556
100
AcDbEntity
  8
DEFPOINTS
  6
ByBlock
 62
     0
 48
50.0
100
AcDbPoint
 10
9274.165333801148
 20
9278.736797361975
 30
0.0
  0
POINT
  5
1A4F0
330
18556
100
AcDbEntity
  8
DEFPOINTS
  6
ByBlock
 62
     0
 48
50.0
100
AcDbPoint
 10
9576.969337719758
 20
9278.736797361975
 30
0.0
  0
ENDBLK
  5
1A4F1
330
18556
100
AcDbEntity
  8
0
 48
50.0
100
AcDbBlockEnd
  0
BLOCK
  5
1B659
330
18563
100
AcDbEntity
  8
0
 48
50.0
100
AcDbBlockBegin
  2
*D5
 70
     1
 10
0.0
 20
0.0
 30
0.0
  3
*D5
  1

  0
LINE
  5
1B65A
330
18563
100
AcDbEntity
  8
0
  6
ByBlock
 62
     0
 48
50.0
100
AcDbLine
 10
9009.165333801147
 20
9278.736797361975
 30
0.0
 11
9361.969337719754
 21
9278.736797361975
 31
0.0
  0
LINE
  5
1B65B
330
18563
100
AcDbEntity
  8
0
  6
ByBlock
 62
     0
 48
50.0
100
AcDbLine
 10
9009.165333801144
 20
10478.73679736197
 30
0.0
 11
9361.969337719754
 21
10478.73679736197
 31
0.0
  0
LINE
  5
1B65C
330
18563
100
AcDbEntity
  8
0
  6
ByBlock
 62
     0
 48
50.0
100
AcDbLine
 10
9286.969337719753
 20
9278.736797361975
 30
0.0
 11
9286.969337719753
 21
9153.736797361975
 31
0.0
  0
LINE
  5
1B65D
330
18563
100
AcDbEntity
  8
0
  6
ByBlock
 62
     0
 48
50.0
100
AcDbLine
 10
9286.969337719753
 20
10478.73679736197
 30
0.0
 11
9286.969337719753
 21
10603.73679736197
 31
0.0
  0
LINE
  5
1B65E
330
18563
100
AcDbEntity
  8
0
  6
ByBlock
 62
     0
 48
50.0
100
AcDbLine
 10
9286.969337719753
 20
9278.736797361975
 30
0.0
 11
9286.969337719753
 21
10478.73679736197
 31
0.0
  0
INSERT
  5
1B65F
330
18563
100
AcDbEntity
  8
0
  6
ByBlock
 62
     0
 48
50.0
100
AcDbBlockReference
  2
_DOTSMALL
 10
9286.969337719753
 20
9278.736797361975
 30
0.0
 41
125.0
 42
125.0
 43
125.0
 50
90.0
  0
INSERT
  5
1B660
330
18563
100
AcDbEntity
  8
0
  6
ByBlock
 62
     0
 48
50.0
100
AcDbBlockReference
  2
_DOTSMALL
 10
9286.969337719753
 20
10478.73679736197
 30
0.0
 41
125.0
 42
125.0
 43
125.0
 50
270.0
  0
MTEXT
  5
1B661
330
18563
100
AcDbEntity
  8
0
  6
ByBlock
 62
     7
 48
50.0
100
AcDbMText
 10
9186.954573940225
 20
9878.736797361975
 30
0.0
 40
150.0
 41
0.0
 71
     5
 72
     1
  1
\A1;内部寸法 1200
  7
STYLE1
 11
0.0000000000000001
 21
1.0
 31
0.0
 73
     1
 44
1.0
  0
POINT
  5
1B662
330
18563
100
AcDbEntity
  8
DEFPOINTS
  6
ByBlock
 62
     0
 48
50.0
100
AcDbPoint
 10
8984.165333801149
 20
9278.736797361975
 30
0.0
  0
POINT
  5
1B663
330
18563
100
AcDbEntity
  8
DEFPOINTS
  6
ByBlock
 62
     0
 48
50.0
100
AcDbPoint
 10
8984.165333801144
 20
10478.73679736197
 30
0.0
  0
POINT
  5
1B664
330
18563
100
AcDbEntity
  8
DEFPOINTS
  6
ByBlock
 62
     0
 48
50.0
100
AcDbPoint
 10
9286.969337719753
 20
10478.73679736197
 30
0.0
  0
ENDBLK
  5
1B665
330
18563
100
AcDbEntity
  8
0
 48
50.0
100
AcDbBlockEnd
  0
BLOCK
  5
1A4CE
330
1856F
100
AcDbEntity
  8
0
 48
50.0
100
AcDbBlockBegin
  2
*D6
 70
     1
 10
0.0
 20
0.0
 30
0.0
  3
*D6
  1

  0
LINE
  5
1A4CF
330
1856F
100
AcDbEntity
  8
0
  6
ByBlock
 62
     0
 48
50.0
100
AcDbLine
 10
9299.165333801145
 20
12218.73679736197
 30
0.0
 11
9651.969337719755
 21
12218.73679736197
 31
0.0
  0
LINE
  5
1A4D0
330
1856F
100
AcDbEntity
  8
0
  6
ByBlock
 62
     0
 48
50.0
100
AcDbLine
 10
8477.829581418173
 20
12268.73679736197
 30
0.0
 11
9651.969337719755
 21
12268.73679736197
 31
0.0
  0
LINE
  5
1A4D1
330
1856F
100
AcDbEntity
  8
0
  6
ByBlock
 62
     0
 48
50.0
100
AcDbLine
 10
9576.969337719754
 20
12218.73679736197
 30
0.0
 11
9576.969337719754
 21
12093.73679736197
 31
0.0
  0
LINE
  5
1A4D2
330
1856F
100
AcDbEntity
  8
0
  6
ByBlock
 62
     0
 48
50.0
100
AcDbLine
 10
9576.969337719754
 20
12268.73679736197
 30
0.0
 11
9576.969337719754
 21
12733.85490759819
 31
0.0
  0
LINE
  5
1A4D3
330
1856F
100
AcDbEntity
  8
0
  6
ByBlock
 62
     0
 48
50.0
100
AcDbLine
 10
9576.969337719754
 20
12218.73679736197
 30
0.0
 11
9576.969337719754
 21
12268.73679736197
 31
0.0
  0
INSERT
  5
1A4D4
330
1856F
100
AcDbEntity
  8
0
  6
ByBlock
 62
     0
 48
50.0
100
AcDbBlockReference
  2
_DOTSMALL
 10
9576.969337719754
 20
12218.73679736197
 30
0.0
 41
125.0
 42
125.0
 43
125.0
 50
90.0
  0
INSERT
  5
1A4D5
330
1856F
100
AcDbEntity
  8
0
  6
ByBlock
 62
     0
 48
50.0
100
AcDbBlockReference
  2
_DOTSMALL
 10
9576.969337719754
 20
12268.73679736197
 30
0.0
 41
125.0
 42
125.0
 43
125.0
 50
270.0
  0
MTEXT
  5
1A4D6
330
1856F
100
AcDbEntity
  8
0
  6
ByBlock
 62
     7
 48
50.0
100
AcDbMText
 10
9476.969337719754
 20
12626.29585248008
 30
0.0
 40
150.0
 41
0.0
 71
     5
 72
     1
  1
\A1;50
  7
STYLE1
 11
0.0000000000000001
 21
1.0
 31
0.0
 73
     1
 44
1.0
  0
POINT
  5
1A4D7
330
1856F
100
AcDbEntity
  8
DEFPOINTS
  6
ByBlock
 62
     0
 48
50.0
100
AcDbPoint
 10
9274.165333801144
 20
12218.73679736197
 30
0.0
  0
POINT
  5
1A4D8
330
1856F
100
AcDbEntity
  8
DEFPOINTS
  6
ByBlock
 62
     0
 48
50.0
100
AcDbPoint
 10
8452.829581418173
 20
12268.73679736197
 30
0.0
  0
POINT
  5
1A4D9
330
1856F
100
AcDbEntity
  8
DEFPOINTS
  6
ByBlock
 62
     0
 48
50.0
100
AcDbPoint
 10
9576.969337719754
 20
12268.73679736197
 30
0.0
  0
ENDBLK
  5
1A4DA
330
1856F
100
AcDbEntity
  8
0
 48
50.0
100
AcDbBlockEnd
  0
BLOCK
  5
18624
330
185B5
100
AcDbEntity
  8
0
 48
50.0
100
AcDbBlockBegin
  2
*D7
 70
     1
 10
0.0
 20
0.0
 30
0.0
  3
*D7
  1

  0
LINE
  5
18625
330
185B5
100
AcDbEntity
  8
0
  6
ByBlock
 62
     0
 48
50.0
100
AcDbLine
 10
11787.46242649134
 20
12657.68151569412
 30
0.0
 11
11787.46242649134
 21
13127.71350056477
 31
0.0
  0
LINE
  5
18626
330
185B5
100
AcDbEntity
  8
0
  6
ByBlock
 62
     0
 48
50.0
100
AcDbLine
 10
11857.46242649134
 20
12667.68151569412
 30
0.0
 11
11857.46242649134
 21
13127.71350056477
 31
0.0
  0
LINE
  5
18627
330
185B5
100
AcDbEntity
  8
0
  6
ByBlock
 62
     0
 48
50.0
100
AcDbLine
 10
11857.46242649134
 20
13052.71350056477
 30
0.0
 11
11787.46242649134
 21
13052.71350056477
 31
0.0
  0
LINE
  5
18628
330
185B5
100
AcDbEntity
  8
0
  6
ByBlock
 62
     0
 48
50.0
100
AcDbLine
 10
11787.46242649134
 20
13052.71350056477
 30
0.0
 11
11437.34431625512
 21
13052.71350056477
 31
0.0
  0
INSERT
  5
18629
330
185B5
100
AcDbEntity
  8
0
  6
ByBlock
 62
     0
 48
50.0
100
AcDbBlockReference
  2
_DOTSMALL
 10
11857.46242649134
 20
13052.71350056477
 30
0.0
 41
125.0
 42
125.0
 43
125.0
  0
INSERT
  5
1862A
330
185B5
100
AcDbEntity
  8
0
  6
ByBlock
 62
     0
 48
50.0
100
AcDbBlockReference
  2
_DOTSMALL
 10
11787.46242649134
 20
13052.71350056477
 30
0.0
 41
125.0
 42
125.0
 43
125.0
 50
180.0
  0
MTEXT
  5
1862B
330
185B5
100
AcDbEntity
  8
0
  6
ByBlock
 62
     7
 48
50.0
100
AcDbMText
 10
11544.90337137323
 20
13152.71350056477
 30
0.0
 40
150.0
 41
0.0
 71
     5
 72
     1
  1
\A1;70
  7
STYLE1
 73
     1
 44
1.0
  0
POINT
  5
1862C
330
185B5
100
AcDbEntity
  8
DEFPOINTS
  6
ByBlock
 62
     0
 48
50.0
100
AcDbPoint
 10
11787.46242649134
 20
12632.68151569412
 30
0.0
  0
POINT
  5
1862D
330
185B5
100
AcDbEntity
  8
DEFPOINTS
  6
ByBlock
 62
     0
 48
50.0
100
AcDbPoint
 10
11857.46242649134
 20
12642.68151569412
 30
0.0
  0
POINT
  5
1862E
330
185B5
100
AcDbEntity
  8
DEFPOINTS
  6
ByBlock
 62
     0
 48
50.0
100
AcDbPoint
 10
11857.46242649134
 20
13052.71350056477
 30
0.0
  0
ENDBLK
  5
1862F
330
185B5
100
AcDbEntity
  8
0
 48
50.0
100
AcDbBlockEnd
  0
BLOCK
  5
1B6C1
330
185C2
100
AcDbEntity
  8
0
 48
50.0
100
AcDbBlockBegin
  2
*D8
 70
     1
 10
0.0
 20
0.0
 30
0.0
  3
*D8
  1

  0
LINE
  5
1CAC4
330
185C2
100
AcDbEntity
  8
寸法
 62
     0
 48
50.0
100
AcDbLine
 10
13882.82958141817
 20
10553.73679736201
 30
0.0
 11
13882.82958141817
 21
11013.76878223266
 31
0.0
  0
LINE
  5
1CAC5
330
185C2
100
AcDbEntity
  8
寸法
 62
     0
 48
50.0
100
AcDbLine
 10
12722.82958141817
 20
10938.76878223266
 30
0.0
 11
13882.82958141817
 21
10938.76878223266
 31
0.0
  0
INSERT
  5
1CAC6
330
185C2
100
AcDbEntity
  8
寸法
 62
     0
 48
50.0
100
AcDbBlockReference
  2
_DOTSMALL
 10
12722.82958141817
 20
10938.76878223266
 30
0.0
 41
125.0
 42
125.0
 43
125.0
 50
180.0
  0
INSERT
  5
1CAC7
330
185C2
100
AcDbEntity
  8
寸法
 62
     0
 48
50.0
100
AcDbBlockReference
  2
_DOTSMALL
 10
13882.82958141817
 20
10938.76878223266
 30
0.0
 41
125.0
 42
125.0
 43
125.0
  0
MTEXT
  5
1CAC8
330
185C2
100
AcDbEntity
  8
寸法
 62
     7
 48
50.0
100
AcDbMText
 10
13302.82958141817
 20
11038.78354601219
 30
0.0
 40
150.0
 41
0.0
 71
     5
 72
     1
  1
\A1;2x580=1160
  7
STYLE1
 73
     1
 44
1.0
  0
POINT
  5
1CAC9
330
185C2
100
AcDbEntity
  8
DEFPOINTS
 62
     0
 48
50.0
100
AcDbPoint
 10
12722.82958141817
 20
10528.73679736201
 30
0.0
  0
POINT
  5
1CACA
330
185C2
100
AcDbEntity
  8
DEFPOINTS
 62
     0
 48
50.0
100
AcDbPoint
 10
13882.82958141817
 20
10528.73679736201
 30
0.0
  0
POINT
  5
1CACB
330
185C2
100
AcDbEntity
  8
DEFPOINTS
 62
     0
 48
50.0
100
AcDbPoint
 10
13882.82958141817
 20
10938.76878223266
 30
0.0
  0
ENDBLK
  5
1B6CA
330
185C2
100
AcDbEntity
  8
0
 48
50.0
100
AcDbBlockEnd
  0
BLOCK
  5
18656
330
185E5
100
AcDbEntity
  8
0
 48
50.0
100
AcDbBlockBegin
  2
*D9
 70
     1
 10
0.0
 20
0.0
 30
0.0
  3
*D9
  1

  0
LINE
  5
18657
330
185E5
100
AcDbEntity
  8
0
  6
ByBlock
 62
     0
 48
50.0
100
AcDbLine
 10
16637.46242649134
 20
12667.68151569412
 30
0.0
 11
16637.46242649134
 21
13127.71350056477
 31
0.0
  0
LINE
  5
18658
330
185E5
100
AcDbEntity
  8
0
  6
ByBlock
 62
     0
 48
50.0
100
AcDbLine
 10
16707.46242649134
 20
12657.68151569412
 30
0.0
 11
16707.46242649134
 21
13127.71350056477
 31
0.0
  0
LINE
  5
18659
330
185E5
100
AcDbEntity
  8
0
  6
ByBlock
 62
     0
 48
50.0
100
AcDbLine
 10
16637.46242649134
 20
13052.71350056477
 30
0.0
 11
16707.46242649134
 21
13052.71350056477
 31
0.0
  0
LINE
  5
1865A
330
185E5
100
AcDbEntity
  8
0
  6
ByBlock
 62
     0
 48
50.0
100
AcDbLine
 10
16707.46242649134
 20
13052.71350056477
 30
0.0
 11
17077.58053672756
 21
13052.71350056477
 31
0.0
  0
INSERT
  5
1865B
330
185E5
100
AcDbEntity
  8
0
  6
ByBlock
 62
     0
 48
50.0
100
AcDbBlockReference
  2
_DOTSMALL
 10
16637.46242649134
 20
13052.71350056477
 30
0.0
 41
125.0
 42
125.0
 43
125.0
 50
180.0
  0
INSERT
  5
1865C
330
185E5
100
AcDbEntity
  8
0
  6
ByBlock
 62
     0
 48
50.0
100
AcDbBlockReference
  2
_DOTSMALL
 10
16707.46242649134
 20
13052.71350056477
 30
0.0
 41
125.0
 42
125.0
 43
125.0
  0
MTEXT
  5
1865D
330
185E5
100
AcDbEntity
  8
0
  6
ByBlock
 62
     7
 48
50.0
100
AcDbMText
 10
16970.02148160945
 20
13152.71350056477
 30
0.0
 40
150.0
 41
0.0
 71
     5
 72
     1
  1
\A1;70
  7
STYLE1
 73
     1
 44
1.0
  0
POINT
  5
1865E
330
185E5
100
AcDbEntity
  8
DEFPOINTS
  6
ByBlock
 62
     0
 48
50.0
100
AcDbPoint
 10
16637.46242649134
 20
12642.68151569412
 30
0.0
  0
POINT
  5
1865F
330
185E5
100
AcDbEntity
  8
DEFPOINTS
  6
ByBlock
 62
     0
 48
50.0
100
AcDbPoint
 10
16707.46242649134
 20
12632.68151569412
 30
0.0
  0
POINT
  5
18660
330
185E5
100
AcDbEntity
  8
DEFPOINTS
  6
ByBlock
 62
     0
 48
50.0
100
AcDbPoint
 10
16707.46242649134
 20
13052.71350056477
 30
0.0
  0
ENDBLK
  5
18661
330
185E5
100
AcDbEntity
  8
0
 48
50.0
100
AcDbBlockEnd
  0
BLOCK
  5
18617
330
185F2
100
AcDbEntity
  8
0
 48
50.0
100
AcDbBlockBegin
  2
*D10
 70
     1
 10
0.0
 20
0.0
 30
0.0
  3
*D10
  1

  0
LINE
  5
18618
330
185F2
100
AcDbEntity
  8
0
  6
ByBlock
 62
     0
 48
50.0
100
AcDbLine
 10
11787.46242649134
 20
12657.68151569412
 30
0.0
 11
11787.46242649134
 21
13426.45988446553
 31
0.0
  0
LINE
  5
18619
330
185F2
100
AcDbEntity
  8
0
  6
ByBlock
 62
     0
 48
50.0
100
AcDbLine
 10
11837.46242649134
 20
13077.71350056477
 30
0.0
 11
11837.46242649134
 21
13426.45988446553
 31
0.0
  0
LINE
  5
1861A
330
185F2
100
AcDbEntity
  8
0
  6
ByBlock
 62
     0
 48
50.0
100
AcDbLine
 10
11837.46242649134
 20
13351.45988446553
 30
0.0
 11
11962.46242649134
 21
13351.45988446553
 31
0.0
  0
LINE
  5
1861B
330
185F2
100
AcDbEntity
  8
0
  6
ByBlock
 62
     0
 48
50.0
100
AcDbLine
 10
11787.46242649134
 20
13351.45988446553
 30
0.0
 11
11322.34431625512
 21
13351.45988446553
 31
0.0
  0
LINE
  5
1861C
330
185F2
100
AcDbEntity
  8
0
  6
ByBlock
 62
     0
 48
50.0
100
AcDbLine
 10
11837.46242649134
 20
13351.45988446553
 30
0.0
 11
11787.46242649134
 21
13351.45988446553
 31
0.0
  0
INSERT
  5
1861D
330
185F2
100
AcDbEntity
  8
0
  6
ByBlock
 62
     0
 48
50.0
100
AcDbBlockReference
  2
_DOTSMALL
 10
11837.46242649134
 20
13351.45988446553
 30
0.0
 41
125.0
 42
125.0
 43
125.0
 50
180.0
  0
INSERT
  5
1861E
330
185F2
100
AcDbEntity
  8
0
  6
ByBlock
 62
     0
 48
50.0
100
AcDbBlockReference
  2
_DOTSMALL
 10
11787.46242649134
 20
13351.45988446553
 30
0.0
 41
125.0
 42
125.0
 43
125.0
  0
MTEXT
  5
1861F
330
185F2
100
AcDbEntity
  8
0
  6
ByBlock
 62
     7
 48
50.0
100
AcDbMText
 10
11429.90337137323
 20
13451.45988446553
 30
0.0
 40
150.0
 41
0.0
 71
     5
 72
     1
  1
\A1;50
  7
STYLE1
 73
     1
 44
1.0
  0
POINT
  5
18620
330
185F2
100
AcDbEntity
  8
DEFPOINTS
  6
ByBlock
 62
     0
 48
50.0
100
AcDbPoint
 10
11787.46242649134
 20
12632.68151569412
 30
0.0
  0
POINT
  5
18621
330
185F2
100
AcDbEntity
  8
DEFPOINTS
  6
ByBlock
 62
     0
 48
50.0
100
AcDbPoint
 10
11837.46242649134
 20
13052.71350056477
 30
0.0
  0
POINT
  5
18622
330
185F2
100
AcDbEntity
  8
DEFPOINTS
  6
ByBlock
 62
     0
 48
50.0
100
AcDbPoint
 10
11837.46242649134
 20
13351.45988446553
 30
0.0
  0
ENDBLK
  5
18623
330
185F2
100
AcDbEntity
  8
0
 48
50.0
100
AcDbBlockEnd
  0
BLOCK
  5
1B6A0
330
185FF
100
AcDbEntity
  8
0
 48
50.0
100
AcDbBlockBegin
  2
*D11
 70
     1
 10
0.0
 20
0.0
 30
0.0
  3
*D11
  1

  0
LINE
  5
1CABA
330
185FF
100
AcDbEntity
  8
寸法
 62
     0
 48
50.0
100
AcDbLine
 10
13902.82958141818
 20
10963.76878223266
 30
0.0
 11
13902.82958141818
 21
11312.51516613342
 31
0.0
  0
LINE
  5
1CABB
330
185FF
100
AcDbEntity
  8
寸法
 62
     0
 48
50.0
100
AcDbLine
 10
12702.82958141816
 20
11237.51516613342
 30
0.0
 11
12577.82958141816
 21
11237.51516613342
 31
0.0
  0
LINE
  5
1CABC
330
185FF
100
AcDbEntity
  8
寸法
 62
     0
 48
50.0
100
AcDbLine
 10
13902.82958141818
 20
11237.51516613342
 30
0.0
 11
14027.82958141818
 21
11237.51516613342
 31
0.0
  0
LINE
  5
1CABD
330
185FF
100
AcDbEntity
  8
寸法
 62
     0
 48
50.0
100
AcDbLine
 10
12702.82958141816
 20
11237.51516613342
 30
0.0
 11
13902.82958141818
 21
11237.51516613342
 31
0.0
  0
INSERT
  5
1CABE
330
185FF
100
AcDbEntity
  8
寸法
 62
     0
 48
50.0
100
AcDbBlockReference
  2
_DOTSMALL
 10
12702.82958141816
 20
11237.51516613342
 30
0.0
 41
125.0
 42
125.0
 43
125.0
  0
INSERT
  5
1CABF
330
185FF
100
AcDbEntity
  8
寸法
 62
     0
 48
50.0
100
AcDbBlockReference
  2
_DOTSMALL
 10
13902.82958141818
 20
11237.51516613342
 30
0.0
 41
125.0
 42
125.0
 43
125.0
 50
180.0
  0
MTEXT
  5
1CAC0
330
185FF
100
AcDbEntity
  8
寸法
 62
     7
 48
50.0
100
AcDbMText
 10
13302.82958141817
 20
11337.52992991295
 30
0.0
 40
150.0
 41
0.0
 71
     5
 72
     1
  1
\A1;内部寸法 1200
  7
STYLE1
 73
     1
 44
1.0
  0
POINT
  5
1CAC1
330
185FF
100
AcDbEntity
  8
DEFPOINTS
 62
     0
 48
50.0
100
AcDbPoint
 10
12702.82958141816
 20
10938.76878223266
 30
0.0
  0
POINT
  5
1CAC2
330
185FF
100
AcDbEntity
  8
DEFPOINTS
 62
     0
 48
50.0
100
AcDbPoint
 10
13902.82958141818
 20
10938.76878223266
 30
0.0
  0
POINT
  5
1CAC3
330
185FF
100
AcDbEntity
  8
DEFPOINTS
 62
     0
 48
50.0
100
AcDbPoint
 10
13902.82958141818
 20
11237.51516613342
 30
0.0
  0
ENDBLK
  5
1B6AB
330
185FF
100
AcDbEntity
  8
0
 48
50.0
100
AcDbBlockEnd
  0
BLOCK
  5
18649
330
1860A
100
AcDbEntity
  8
0
 48
50.0
100
AcDbBlockBegin
  2
*D12
 70
     1
 10
0.0
 20
0.0
 30
0.0
  3
*D12
  1

  0
LINE
  5
1864A
330
1860A
100
AcDbEntity
  8
0
  6
ByBlock
 62
     0
 48
50.0
100
AcDbLine
 10
16657.46242649135
 20
13077.71350056477
 30
0.0
 11
16657.46242649135
 21
13426.45988446553
 31
0.0
  0
LINE
  5
1864B
330
1860A
100
AcDbEntity
  8
0
  6
ByBlock
 62
     0
 48
50.0
100
AcDbLine
 10
16707.46242649134
 20
12657.68151569412
 30
0.0
 11
16707.46242649134
 21
13426.45988446553
 31
0.0
  0
LINE
  5
1864C
330
1860A
100
AcDbEntity
  8
0
  6
ByBlock
 62
     0
 48
50.0
100
AcDbLine
 10
16657.46242649135
 20
13351.45988446553
 30
0.0
 11
16532.46242649135
 21
13351.45988446553
 31
0.0
  0
LINE
  5
1864D
330
1860A
100
AcDbEntity
  8
0
  6
ByBlock
 62
     0
 48
50.0
100
AcDbLine
 10
16707.46242649134
 20
13351.45988446553
 30
0.0
 11
17172.58053672756
 21
13351.45988446553
 31
0.0
  0
LINE
  5
1864E
330
1860A
100
AcDbEntity
  8
0
  6
ByBlock
 62
     0
 48
50.0
100
AcDbLine
 10
16657.46242649135
 20
13351.45988446553
 30
0.0
 11
16707.46242649134
 21
13351.45988446553
 31
0.0
  0
INSERT
  5
1864F
330
1860A
100
AcDbEntity
  8
0
  6
ByBlock
 62
     0
 48
50.0
100
AcDbBlockReference
  2
_DOTSMALL
 10
16657.46242649135
 20
13351.45988446553
 30
0.0
 41
125.0
 42
125.0
 43
125.0
  0
INSERT
  5
18650
330
1860A
100
AcDbEntity
  8
0
  6
ByBlock
 62
     0
 48
50.0
100
AcDbBlockReference
  2
_DOTSMALL
 10
16707.46242649134
 20
13351.45988446553
 30
0.0
 41
125.0
 42
125.0
 43
125.0
 50
180.0
  0
MTEXT
  5
18651
330
1860A
100
AcDbEntity
  8
0
  6
ByBlock
 62
     7
 48
50.0
100
AcDbMText
 10
17065.02148160945
 20
13451.45988446553
 30
0.0
 40
150.0
 41
0.0
 71
     5
 72
     1
  1
\A1;50
  7
STYLE1
 73
     1
 44
1.0
  0
POINT
  5
18652
330
1860A
100
AcDbEntity
  8
DEFPOINTS
  6
ByBlock
 62
     0
 48
50.0
100
AcDbPoint
 10
16657.46242649135
 20
13052.71350056477
 30
0.0
  0
POINT
  5
18653
330
1860A
100
AcDbEntity
  8
DEFPOINTS
  6
ByBlock
 62
     0
 48
50.0
100
AcDbPoint
 10
16707.46242649134
 20
12632.68151569412
 30
0.0
  0
POINT
  5
18654
330
1860A
100
AcDbEntity
  8
DEFPOINTS
  6
ByBlock
 62
     0
 48
50.0
100
AcDbPoint
 10
16707.46242649134
 20
13351.45988446553
 30
0.0
  0
ENDBLK
  5
18655
330
1860A
100
AcDbEntity
  8
0
 48
50.0
100
AcDbBlockEnd
  0
BLOCK
  5
1C639
330
1868D
100
AcDbEntity
  8
0
 48
50.0
100
AcDbBlockBegin
  2
*D13
 70
     1
 10
0.0
 20
0.0
 30
0.0
  3
*D13
  1

  0
LINE
  5
1C63A
330
1868D
100
AcDbEntity
  8
0
  6
ByBlock
 62
     0
 48
50.0
100
AcDbLine
 10
13232.82958141817
 20
9213.736797362015
 30
0.0
 11
13232.82958141817
 21
8361.498920305903
 31
0.0
  0
LINE
  5
1C63B
330
1868D
100
AcDbEntity
  8
0
  6
ByBlock
 62
     0
 48
50.0
100
AcDbLine
 10
14532.82958141817
 20
9213.736797362017
 30
0.0
 11
14532.82958141817
 21
8361.498920305903
 31
0.0
  0
LINE
  5
1C63C
330
1868D
100
AcDbEntity
  8
0
  6
ByBlock
 62
     0
 48
50.0
100
AcDbLine
 10
13232.82958141817
 20
8436.498920305904
 30
0.0
 11
14532.82958141817
 21
8436.498920305904
 31
0.0
  0
INSERT
  5
1C63D
330
1868D
100
AcDbEntity
  8
0
  6
ByBlock
 62
     0
 48
50.0
100
AcDbBlockReference
  2
_DOTSMALL
 10
13232.82958141817
 20
8436.498920305904
 30
0.0
 41
125.0
 42
125.0
 43
125.0
 50
180.0
  0
INSERT
  5
1C63E
330
1868D
100
AcDbEntity
  8
0
  6
ByBlock
 62
     0
 48
50.0
100
AcDbBlockReference
  2
_DOTSMALL
 10
14532.82958141817
 20
8436.498920305904
 30
0.0
 41
125.0
 42
125.0
 43
125.0
  0
MTEXT
  5
1C63F
330
1868D
100
AcDbEntity
  8
0
  6
ByBlock
 62
     7
 48
50.0
100
AcDbMText
 10
13882.82958141817
 20
8536.498920305904
 30
0.0
 40
150.0
 41
0.0
 71
     5
 72
     1
  1
\A1;1300
  7
STYLE1
 73
     1
 44
1.0
  0
POINT
  5
1C640
330
1868D
100
AcDbEntity
  8
DEFPOINTS
  6
ByBlock
 62
     0
 48
50.0
100
AcDbPoint
 10
13232.82958141817
 20
9238.736797362014
 30
0.0
  0
POINT
  5
1C641
330
1868D
100
AcDbEntity
  8
DEFPOINTS
  6
ByBlock
 62
     0
 48
50.0
100
AcDbPoint
 10
14532.82958141817
 20
9238.736797362017
 30
0.0
  0
POINT
  5
1C642
330
1868D
100
AcDbEntity
  8
DEFPOINTS
  6
ByBlock
 62
     0
 48
50.0
100
AcDbPoint
 10
14532.82958141817
 20
8436.498920305904
 30
0.0
  0
ENDBLK
  5
1C643
330
1868D
100
AcDbEntity
  8
0
 48
50.0
100
AcDbBlockEnd
  0
BLOCK
  5
1B643
330
186B0
100
AcDbEntity
  8
0
 48
50.0
100
AcDbBlockBegin
  2
*D14
 70
     1
 10
0.0
 20
0.0
 30
0.0
  3
*D14
  1

  0
LINE
  5
1B644
330
186B0
100
AcDbEntity
  8
0
  6
ByBlock
 62
     0
 48
50.0
100
AcDbLine
 10
6277.829581418171
 20
10528.73679736197
 30
0.0
 11
5451.198601638504
 21
10528.73679736197
 31
0.0
  0
LINE
  5
1B645
330
186B0
100
AcDbEntity
  8
0
  6
ByBlock
 62
     0
 48
50.0
100
AcDbLine
 10
6277.829581418171
 20
9228.736797361971
 30
0.0
 11
5451.198601638504
 21
9228.736797361971
 31
0.0
  0
LINE
  5
1B646
330
186B0
100
AcDbEntity
  8
0
  6
ByBlock
 62
     0
 48
50.0
100
AcDbLine
 10
5526.198601638504
 20
10528.73679736197
 30
0.0
 11
5526.198601638504
 21
9228.736797361971
 31
0.0
  0
INSERT
  5
1B647
330
186B0
100
AcDbEntity
  8
0
  6
ByBlock
 62
     0
 48
50.0
100
AcDbBlockReference
  2
_DOTSMALL
 10
5526.198601638504
 20
10528.73679736197
 30
0.0
 41
125.0
 42
125.0
 43
125.0
 50
90.0
  0
INSERT
  5
1B648
330
186B0
100
AcDbEntity
  8
0
  6
ByBlock
 62
     0
 48
50.0
100
AcDbBlockReference
  2
_DOTSMALL
 10
5526.198601638504
 20
9228.736797361971
 30
0.0
 41
125.0
 42
125.0
 43
125.0
 50
270.0
  0
MTEXT
  5
1B649
330
186B0
100
AcDbEntity
  8
0
  6
ByBlock
 62
     7
 48
50.0
100
AcDbMText
 10
5426.198601638503
 20
9878.736797361973
 30
0.0
 40
150.0
 41
0.0
 71
     5
 72
     1
  1
\A1;1300
  7
STYLE1
 11
0.0000000000000001
 21
1.0
 31
0.0
 73
     1
 44
1.0
  0
POINT
  5
1B64A
330
186B0
100
AcDbEntity
  8
DEFPOINTS
  6
ByBlock
 62
     0
 48
50.0
100
AcDbPoint
 10
6302.829581418171
 20
10528.73679736197
 30
0.0
  0
POINT
  5
1B64B
330
186B0
100
AcDbEntity
  8
DEFPOINTS
  6
ByBlock
 62
     0
 48
50.0
100
AcDbPoint
 10
6302.829581418171
 20
9228.736797361971
 30
0.0
  0
POINT
  5
1B64C
330
186B0
100
AcDbEntity
  8
DEFPOINTS
  6
ByBlock
 62
     0
 48
50.0
100
AcDbPoint
 10
5526.198601638504
 20
9228.736797361971
 30
0.0
  0
ENDBLK
  5
1B64D
330
186B0
100
AcDbEntity
  8
0
 48
50.0
100
AcDbBlockEnd
  0
BLOCK
  5
1AF82
330
1AF2C
100
AcDbEntity
  8
0
 48
50.0
100
AcDbBlockBegin
  2
*D15
 70
     1
 10
0.0
 20
0.0
 30
0.0
  3
*D15
  1

  0
LINE
  5
1AF83
330
1AF2C
100
AcDbEntity
  8
0
  6
ByBlock
 62
     0
 48
50.0
100
AcDbLine
 10
273.7989405287262
 20
1475.528226376841
 30
0.0
 11
273.7989405287262
 21
1097.887084092173
 31
0.0
  0
LINE
  5
1AF84
330
1AF2C
100
AcDbEntity
  8
0
  6
ByBlock
 62
     0
 48
50.0
100
AcDbLine
 10
73.79894052872441
 20
1475.528226376841
 30
0.0
 11
73.79894052872439
 21
1097.887084092173
 31
0.0
  0
LINE
  5
1AF85
330
1AF2C
100
AcDbEntity
  8
0
  6
ByBlock
 62
     0
 48
50.0
100
AcDbLine
 10
273.7989405287262
 20
1172.887084092173
 30
0.0
 11
73.7989405287244
 21
1172.887084092173
 31
0.0
  0
LINE
  5
1AF86
330
1AF2C
100
AcDbEntity
  8
0
  6
ByBlock
 62
     0
 48
50.0
100
AcDbLine
 10
73.7989405287244
 20
1172.887084092173
 30
0.0
 11
-375.1282248256064
 21
1172.887084092173
 31
0.0
  0
INSERT
  5
1AF87
330
1AF2C
100
AcDbEntity
  8
0
  6
ByBlock
 62
     0
 48
50.0
100
AcDbBlockReference
  2
_DOTSMALL
 10
273.7989405287262
 20
1172.887084092173
 30
0.0
 41
125.0
 42
125.0
 43
125.0
  0
INSERT
  5
1AF88
330
1AF2C
100
AcDbEntity
  8
0
  6
ByBlock
 62
     0
 48
50.0
100
AcDbBlockReference
  2
_DOTSMALL
 10
73.7989405287244
 20
1172.887084092173
 30
0.0
 41
125.0
 42
125.0
 43
125.0
 50
180.0
  0
MTEXT
  5
1AF89
330
1AF2C
100
AcDbEntity
  8
0
  6
ByBlock
 62
     7
 48
50.0
100
AcDbMText
 10
-213.164642148441
 20
1272.901847871701
 30
0.0
 40
150.0
 41
0.0
 71
     5
 72
     1
  1
\A1;200
  7
STYLE1
 73
     1
 44
1.0
  0
POINT
  5
1AF8A
330
1AF2C
100
AcDbEntity
  8
DEFPOINTS
  6
ByBlock
 62
     0
 48
50.0
100
AcDbPoint
 10
273.7989405287262
 20
1500.528226376841
 30
0.0
  0
POINT
  5
1AF8B
330
1AF2C
100
AcDbEntity
  8
DEFPOINTS
  6
ByBlock
 62
     0
 48
50.0
100
AcDbPoint
 10
73.79894052872441
 20
1500.528226376841
 30
0.0
  0
POINT
  5
1AF8C
330
1AF2C
100
AcDbEntity
  8
DEFPOINTS
  6
ByBlock
 62
     0
 48
50.0
100
AcDbPoint
 10
73.7989405287244
 20
1172.887084092173
 30
0.0
  0
ENDBLK
  5
1AF8D
330
1AF2C
100
AcDbEntity
  8
0
 48
50.0
100
AcDbBlockEnd
  0
BLOCK
  5
1B695
330
1AF39
100
AcDbEntity
  8
0
 48
50.0
100
AcDbBlockBegin
  2
*D16
 70
     1
 10
0.0
 20
0.0
 30
0.0
  3
*D16
  1

  0
LINE
  5
1B696
330
1AF39
100
AcDbEntity
  8
0
  6
ByBlock
 62
     0
 48
50.0
100
AcDbLine
 10
6237.829577048348
 20
5534.000002624809
 30
0.0
 11
6237.829577048348
 21
6581.068854554546
 31
0.0
  0
LINE
  5
1B697
330
1AF39
100
AcDbEntity
  8
0
  6
ByBlock
 62
     0
 48
50.0
100
AcDbLine
 10
7647.829581418176
 20
5534.000002624809
 30
0.0
 11
7647.829581418176
 21
6581.068854554546
 31
0.0
  0
LINE
  5
1B698
330
1AF39
100
AcDbEntity
  8
0
  6
ByBlock
 62
     0
 48
50.0
100
AcDbLine
 10
6237.829577048348
 20
6506.068854554546
 30
0.0
 11
7647.829581418176
 21
6506.068854554546
 31
0.0
  0
INSERT
  5
1B699
330
1AF39
100
AcDbEntity
  8
0
  6
ByBlock
 62
     0
 48
50.0
100
AcDbBlockReference
  2
_DOTSMALL
 10
6237.829577048348
 20
6506.068854554546
 30
0.0
 41
125.0
 42
125.0
 43
125.0
 50
180.0
  0
INSERT
  5
1B69A
330
1AF39
100
AcDbEntity
  8
0
  6
ByBlock
 62
     0
 48
50.0
100
AcDbBlockReference
  2
_DOTSMALL
 10
7647.829581418176
 20
6506.068854554546
 30
0.0
 41
125.0
 42
125.0
 43
125.0
  0
MTEXT
  5
1B69B
330
1AF39
100
AcDbEntity
  8
0
  6
ByBlock
 62
     7
 48
50.0
100
AcDbMText
 10
6942.829579233261
 20
6606.068854554546
 30
0.0
 40
150.0
 41
0.0
 71
     5
 72
     1
  1
\A1;1410
  7
STYLE1
 73
     1
 44
1.0
  0
POINT
  5
1B69C
330
1AF39
100
AcDbEntity
  8
DEFPOINTS
  6
ByBlock
 62
     0
 48
50.0
100
AcDbPoint
 10
6237.829577048348
 20
5509.000002624809
 30
0.0
  0
POINT
  5
1B69D
330
1AF39
100
AcDbEntity
  8
DEFPOINTS
  6
ByBlock
 62
     0
 48
50.0
100
AcDbPoint
 10
7647.829581418176
 20
5509.000002624809
 30
0.0
  0
POINT
  5
1B69E
330
1AF39
100
AcDbEntity
  8
DEFPOINTS
  6
ByBlock
 62
     0
 48
50.0
100
AcDbPoint
 10
7647.829581418176
 20
6506.068854554546
 30
0.0
  0
ENDBLK
  5
1B69F
330
1AF39
100
AcDbEntity
  8
0
 48
50.0
100
AcDbBlockEnd
  0
BLOCK
  5
1B68B
330
1AF45
100
AcDbEntity
  8
0
 48
50.0
100
AcDbBlockBegin
  2
*D17
 70
     1
 10
0.0
 20
0.0
 30
0.0
  3
*D17
  1

  0
LINE
  5
1CACC
330
1AF45
100
AcDbEntity
  8
寸法
 62
     0
 48
50.0
100
AcDbLine
 10
13952.82958141817
 20
5570.000000008491
 30
0.0
 11
13952.82958141817
 21
6313.281130716564
 31
0.0
  0
LINE
  5
1CACD
330
1AF45
100
AcDbEntity
  8
寸法
 62
     0
 48
50.0
100
AcDbLine
 10
12652.82958141817
 20
6238.281130716565
 30
0.0
 11
13952.82958141817
 21
6238.281130716565
 31
0.0
  0
INSERT
  5
1CACE
330
1AF45
100
AcDbEntity
  8
寸法
 62
     0
 48
50.0
100
AcDbBlockReference
  2
_DOTSMALL
 10
12652.82958141817
 20
6238.281130716565
 30
0.0
 41
125.0
 42
125.0
 43
125.0
 50
180.0
  0
INSERT
  5
1CACF
330
1AF45
100
AcDbEntity
  8
寸法
 62
     0
 48
50.0
100
AcDbBlockReference
  2
_DOTSMALL
 10
13952.82958141817
 20
6238.281130716565
 30
0.0
 41
125.0
 42
125.0
 43
125.0
  0
MTEXT
  5
1CAD0
330
1AF45
100
AcDbEntity
  8
寸法
 62
     7
 48
50.0
100
AcDbMText
 10
13302.82958141817
 20
6338.281130716564
 30
0.0
 40
150.0
 41
0.0
 71
     5
 72
     1
  1
\A1;柱外寸法 1300
  7
STYLE1
 73
     1
 44
1.0
  0
POINT
  5
1CAD1
330
1AF45
100
AcDbEntity
  8
DEFPOINTS
 62
     0
 48
50.0
100
AcDbPoint
 10
12652.82958141817
 20
5545.000000008511
 30
0.0
  0
POINT
  5
1CAD2
330
1AF45
100
AcDbEntity
  8
DEFPOINTS
 62
     0
 48
50.0
100
AcDbPoint
 10
13952.82958141817
 20
5545.00000000849
 30
0.0
  0
POINT
  5
1CAD3
330
1AF45
100
AcDbEntity
  8
DEFPOINTS
 62
     0
 48
50.0
100
AcDbPoint
 10
13952.82958141817
 20
6238.281130716565
 30
0.0
  0
ENDBLK
  5
1B694
330
1AF45
100
AcDbEntity
  8
0
 48
50.0
100
AcDbBlockEnd
  0
BLOCK
  5
1AFA3
330
1AF50
100
AcDbEntity
  8
0
 48
50.0
100
AcDbBlockBegin
  2
*D18
 70
     1
 10
0.0
 20
0.0
 30
0.0
  3
*D18
  1

  0
LINE
  5
1AFA4
330
1AF50
100
AcDbEntity
  8
0
  6
ByBlock
 62
     0
 48
50.0
100
AcDbLine
 10
-2341.201063841101
 20
4264.52822900165
 30
0.0
 11
-2341.201063841101
 21
5043.809357093363
 31
0.0
  0
LINE
  5
1AFA5
330
1AF50
100
AcDbEntity
  8
0
  6
ByBlock
 62
     0
 48
50.0
100
AcDbLine
 10
-2286.201059471273
 20
4300.528226385309
 30
0.0
 11
-2286.201059471273
 21
5043.809357093363
 31
0.0
  0
LINE
  5
1AFA6
330
1AF50
100
AcDbEntity
  8
0
  6
ByBlock
 62
     0
 48
50.0
100
AcDbLine
 10
-2286.201059471273
 20
4968.809357093363
 30
0.0
 11
-2341.201063841101
 21
4968.809357093363
 31
0.0
  0
LINE
  5
1AFA7
330
1AF50
100
AcDbEntity
  8
0
  6
ByBlock
 62
     0
 48
50.0
100
AcDbLine
 10
-2341.201063841101
 20
4968.809357093363
 30
0.0
 11
-2776.866716307184
 21
4968.809357093363
 31
0.0
  0
INSERT
  5
1AFA8
330
1AF50
100
AcDbEntity
  8
0
  6
ByBlock
 62
     0
 48
50.0
100
AcDbBlockReference
  2
_DOTSMALL
 10
-2286.201059471273
 20
4968.809357093363
 30
0.0
 41
125.0
 42
125.0
 43
125.0
  0
INSERT
  5
1AFA9
330
1AF50
100
AcDbEntity
  8
0
  6
ByBlock
 62
     0
 48
50.0
100
AcDbBlockReference
  2
_DOTSMALL
 10
-2341.201063841101
 20
4968.809357093363
 30
0.0
 41
125.0
 42
125.0
 43
125.0
 50
180.0
  0
MTEXT
  5
1AFAA
330
1AF50
100
AcDbEntity
  8
0
  6
ByBlock
 62
     7
 48
50.0
100
AcDbMText
 10
-2666.260114589386
 20
5068.809357093363
 30
0.0
 40
150.0
 41
0.0
 71
     5
 72
     1
  1
\A1;55
  7
STYLE1
 73
     1
 44
1.0
  0
POINT
  5
1AFAB
330
1AF50
100
AcDbEntity
  8
DEFPOINTS
  6
ByBlock
 62
     0
 48
50.0
100
AcDbPoint
 10
-2341.201063841101
 20
4239.528229001651
 30
0.0
  0
POINT
  5
1AFAC
330
1AF50
100
AcDbEntity
  8
DEFPOINTS
  6
ByBlock
 62
     0
 48
50.0
100
AcDbPoint
 10
-2286.201059471273
 20
4275.52822638531
 30
0.0
  0
POINT
  5
1AFAD
330
1AF50
100
AcDbEntity
  8
DEFPOINTS
  6
ByBlock
 62
     0
 48
50.0
100
AcDbPoint
 10
-2286.201059471273
 20
4968.809357093363
 30
0.0
  0
ENDBLK
  5
1AFAE
330
1AF50
100
AcDbEntity
  8
0
 48
50.0
100
AcDbBlockEnd
  0
BLOCK
  5
1C650
330
1AF5D
100
AcDbEntity
  8
0
 48
50.0
100
AcDbBlockBegin
  2
*D19
 70
     1
 10
0.0
 20
0.0
 30
0.0
  3
*D19
  1

  0
LINE
  5
1CAD4
330
1AF5D
100
AcDbEntity
  8
寸法
 62
     0
 48
50.0
100
AcDbLine
 10
13977.82958141817
 20
5302.000000000044
 30
0.0
 11
15027.97132422847
 21
5302.000000000043
 31
0.0
  0
LINE
  5
1CAD5
330
1AF5D
100
AcDbEntity
  8
寸法
 62
     0
 48
50.0
100
AcDbLine
 10
14952.97132422846
 20
3342.000000000043
 30
0.0
 11
14952.97132422847
 21
5302.000000000043
 31
0.0
  0
INSERT
  5
1CAD6
330
1AF5D
100
AcDbEntity
  8
寸法
 62
     0
 48
50.0
100
AcDbBlockReference
  2
_DOTSMALL
 10
14952.97132422846
 20
3342.000000000043
 30
0.0
 41
125.0
 42
125.0
 43
125.0
 50
270.0
  0
INSERT
  5
1CAD7
330
1AF5D
100
AcDbEntity
  8
寸法
 62
     0
 48
50.0
100
AcDbBlockReference
  2
_DOTSMALL
 10
14952.97132422847
 20
5302.000000000043
 30
0.0
 41
125.0
 42
125.0
 43
125.0
 50
90.0
  0
MTEXT
  5
1CAD8
330
1AF5D
100
AcDbEntity
  8
寸法
 62
     7
 48
50.0
100
AcDbMText
 10
14852.97132422846
 20
4322.000000000045
 30
0.0
 40
150.0
 41
0.0
 71
     5
 72
     1
  1
\A1;内高 1960
  7
STYLE1
 11
0.0000000000000001
 21
1.0
 31
0.0
 73
     1
 44
1.0
  0
POINT
  5
1CAD9
330
1AF5D
100
AcDbEntity
  8
DEFPOINTS
 62
     0
 48
50.0
100
AcDbPoint
 10
13952.82958141817
 20
3342.000000000043
 30
0.0
  0
POINT
  5
1CADA
330
1AF5D
100
AcDbEntity
  8
DEFPOINTS
 62
     0
 48
50.0
100
AcDbPoint
 10
13952.82958141817
 20
5302.000000000044
 30
0.0
  0
POINT
  5
1CADB
330
1AF5D
100
AcDbEntity
  8
DEFPOINTS
 62
     0
 48
50.0
100
AcDbPoint
 10
14952.97132422847
 20
5302.000000000043
 30
0.0
  0
ENDBLK
  5
1C659
330
1AF5D
100
AcDbEntity
  8
0
 48
50.0
100
AcDbBlockEnd
  0
BLOCK
  5
1C5B5
330
1AF68
100
AcDbEntity
  8
0
 48
50.0
100
AcDbBlockBegin
  2
*D20
 70
     1
 10
0.0
 20
0.0
 30
0.0
  3
*D20
  1

  0
LINE
  5
1C5B6
330
1AF68
100
AcDbEntity
  8
0
  6
ByBlock
 62
     0
 48
50.0
100
AcDbLine
 10
14557.82958141817
 20
3275.000000000044
 30
0.0
 11
15607.97132422847
 21
3275.000000000044
 31
0.0
  0
LINE
  5
1C5B7
330
1AF68
100
AcDbEntity
  8
0
  6
ByBlock
 62
     0
 48
50.0
100
AcDbLine
 10
14557.82958141817
 20
3342.000000000043
 30
0.0
 11
15607.97132422847
 21
3342.000000000043
 31
0.0
  0
LINE
  5
1C5B8
330
1AF68
100
AcDbEntity
  8
0
  6
ByBlock
 62
     0
 48
50.0
100
AcDbLine
 10
15532.97132422847
 20
3342.000000000043
 30
0.0
 11
15532.97132422847
 21
3275.000000000044
 31
0.0
  0
LINE
  5
1C5B9
330
1AF68
100
AcDbEntity
  8
0
  6
ByBlock
 62
     0
 48
50.0
100
AcDbLine
 10
15532.97132422847
 20
3275.000000000044
 30
0.0
 11
15532.97132422847
 21
2866.70940851116
 31
0.0
  0
INSERT
  5
1C5BA
330
1AF68
100
AcDbEntity
  8
0
  6
ByBlock
 62
     0
 48
50.0
100
AcDbBlockReference
  2
_DOTSMALL
 10
15532.97132422847
 20
3342.000000000043
 30
0.0
 41
125.0
 42
125.0
 43
125.0
 50
90.0
  0
INSERT
  5
1C5BB
330
1AF68
100
AcDbEntity
  8
0
  6
ByBlock
 62
     0
 48
50.0
100
AcDbBlockReference
  2
_DOTSMALL
 10
15532.97132422847
 20
3275.000000000044
 30
0.0
 41
125.0
 42
125.0
 43
125.0
 50
270.0
  0
MTEXT
  5
1C5BC
330
1AF68
100
AcDbEntity
  8
0
  6
ByBlock
 62
     7
 48
50.0
100
AcDbMText
 10
15432.97132422847
 20
2978.697597487538
 30
0.0
 40
150.0
 41
0.0
 71
     5
 72
     1
  1
\A1;67
  7
STYLE1
 11
0.0000000000000001
 21
1.0
 31
0.0
 73
     1
 44
1.0
  0
POINT
  5
1C5BD
330
1AF68
100
AcDbEntity
  8
DEFPOINTS
  6
ByBlock
 62
     0
 48
50.0
100
AcDbPoint
 10
14532.82958141817
 20
3275.000000000044
 30
0.0
  0
POINT
  5
1C5BE
330
1AF68
100
AcDbEntity
  8
DEFPOINTS
  6
ByBlock
 62
     0
 48
50.0
100
AcDbPoint
 10
14532.82958141817
 20
3342.000000000043
 30
0.0
  0
POINT
  5
1C5BF
330
1AF68
100
AcDbEntity
  8
DEFPOINTS
  6
ByBlock
 62
     0
 48
50.0
100
AcDbPoint
 10
15532.97132422847
 20
3342.000000000043
 30
0.0
  0
ENDBLK
  5
1C5C0
330
1AF68
100
AcDbEntity
  8
0
 48
50.0
100
AcDbBlockEnd
  0
BLOCK
  5
1AFC5
330
1AF75
100
AcDbEntity
  8
0
 48
50.0
100
AcDbBlockBegin
  2
*D21
 70
     1
 10
0.0
 20
0.0
 30
0.0
  3
*D21
  1

  0
LINE
  5
1AFC6
330
1AF75
100
AcDbEntity
  8
0
  6
ByBlock
 62
     0
 48
50.0
100
AcDbLine
 10
173.7989405287244
 20
4300.528226385288
 30
0.0
 11
173.7989405287244
 21
5043.809357093363
 31
0.0
  0
LINE
  5
1AFC7
330
1AF75
100
AcDbEntity
  8
0
  6
ByBlock
 62
     0
 48
50.0
100
AcDbLine
 10
228.798940528728
 20
4264.52822900165
 30
0.0
 11
228.7989405287281
 21
5043.809357093363
 31
0.0
  0
LINE
  5
1AFC8
330
1AF75
100
AcDbEntity
  8
0
  6
ByBlock
 62
     0
 48
50.0
100
AcDbLine
 10
173.7989405287244
 20
4968.809357093363
 30
0.0
 11
228.7989405287281
 21
4968.809357093363
 31
0.0
  0
LINE
  5
1AFC9
330
1AF75
100
AcDbEntity
  8
0
  6
ByBlock
 62
     0
 48
50.0
100
AcDbLine
 10
228.7989405287281
 20
4968.809357093363
 30
0.0
 11
654.4645973646366
 21
4968.809357093363
 31
0.0
  0
INSERT
  5
1AFCA
330
1AF75
100
AcDbEntity
  8
0
  6
ByBlock
 62
     0
 48
50.0
100
AcDbBlockReference
  2
_DOTSMALL
 10
173.7989405287244
 20
4968.809357093363
 30
0.0
 41
125.0
 42
125.0
 43
125.0
 50
180.0
  0
INSERT
  5
1AFCB
330
1AF75
100
AcDbEntity
  8
0
  6
ByBlock
 62
     0
 48
50.0
100
AcDbBlockReference
  2
_DOTSMALL
 10
228.7989405287281
 20
4968.809357093363
 30
0.0
 41
125.0
 42
125.0
 43
125.0
  0
MTEXT
  5
1AFCC
330
1AF75
100
AcDbEntity
  8
0
  6
ByBlock
 62
     7
 48
50.0
100
AcDbMText
 10
543.8579956468384
 20
5068.809357093363
 30
0.0
 40
150.0
 41
0.0
 71
     5
 72
     1
  1
\A1;55
  7
STYLE1
 73
     1
 44
1.0
  0
POINT
  5
1AFCD
330
1AF75
100
AcDbEntity
  8
DEFPOINTS
  6
ByBlock
 62
     0
 48
50.0
100
AcDbPoint
 10
173.7989405287244
 20
4275.528226385287
 30
0.0
  0
POINT
  5
1AFCE
330
1AF75
100
AcDbEntity
  8
DEFPOINTS
  6
ByBlock
 62
     0
 48
50.0
100
AcDbPoint
 10
228.798940528728
 20
4239.528229001651
 30
0.0
  0
POINT
  5
1AFCF
330
1AF75
100
AcDbEntity
  8
DEFPOINTS
  6
ByBlock
 62
     0
 48
50.0
100
AcDbPoint
 10
228.7989405287281
 20
4968.809357093363
 30
0.0
  0
ENDBLK
  5
1AFD0
330
1AF75
100
AcDbEntity
  8
0
 48
50.0
100
AcDbBlockEnd
  0
BLOCK
  5
1C3DA
330
1C352
100
AcDbEntity
  8
0
 48
50.0
100
AcDbBlockBegin
  2
*D22
 70
     1
 10
0.0
 20
0.0
 30
0.0
  3
*D22
  1

  0
LINE
  5
1C3DB
330
1C352
100
AcDbEntity
  8
0
  6
ByBlock
 62
     0
 48
50.0
100
AcDbLine
 10
-150.6704185818234
 20
2940.000000000002
 30
0.0
 11
-599.0055535757036
 21
2940.000000000002
 31
0.0
  0
LINE
  5
1C3DC
330
1C352
100
AcDbEntity
  8
0
  6
ByBlock
 62
     0
 48
50.0
100
AcDbLine
 10
-150.6704185818252
 20
3140.0
 30
0.0
 11
-599.0055535757036
 21
3140.0
 31
0.0
  0
LINE
  5
1C3DD
330
1C352
100
AcDbEntity
  8
0
  6
ByBlock
 62
     0
 48
50.0
100
AcDbLine
 10
-524.0055535757035
 20
3140.0
 30
0.0
 11
-524.0055535757035
 21
2940.000000000002
 31
0.0
  0
LINE
  5
1C3DE
330
1C352
100
AcDbEntity
  8
0
  6
ByBlock
 62
     0
 48
50.0
100
AcDbLine
 10
-524.0055535757035
 20
2940.000000000002
 30
0.0
 11
-524.0055535757037
 21
2491.072834645671
 31
0.0
  0
INSERT
  5
1C3DF
330
1C352
100
AcDbEntity
  8
0
  6
ByBlock
 62
     0
 48
50.0
100
AcDbBlockReference
  2
_DOTSMALL
 10
-524.0055535757035
 20
3140.0
 30
0.0
 41
125.0
 42
125.0
 43
125.0
 50
90.0
  0
INSERT
  5
1C3E0
330
1C352
100
AcDbEntity
  8
0
  6
ByBlock
 62
     0
 48
50.0
100
AcDbBlockReference
  2
_DOTSMALL
 10
-524.0055535757035
 20
2940.000000000002
 30
0.0
 41
125.0
 42
125.0
 43
125.0
 50
270.0
  0
MTEXT
  5
1C3E1
330
1C352
100
AcDbEntity
  8
0
  6
ByBlock
 62
     7
 48
50.0
100
AcDbMText
 10
-624.0203173552313
 20
2653.036417322836
 30
0.0
 40
150.0
 41
0.0
 71
     5
 72
     1
  1
\A1;200
  7
STYLE1
 11
0.0000000000000001
 21
1.0
 31
0.0
 73
     1
 44
1.0
  0
POINT
  5
1C3E2
330
1C352
100
AcDbEntity
  8
DEFPOINTS
  6
ByBlock
 62
     0
 48
50.0
100
AcDbPoint
 10
-125.6704185818234
 20
2940.000000000002
 30
0.0
  0
POINT
  5
1C3E3
330
1C352
100
AcDbEntity
  8
DEFPOINTS
  6
ByBlock
 62
     0
 48
50.0
100
AcDbPoint
 10
-125.6704185818252
 20
3140.0
 30
0.0
  0
POINT
  5
1C3E4
330
1C352
100
AcDbEntity
  8
DEFPOINTS
  6
ByBlock
 62
     0
 48
50.0
100
AcDbPoint
 10
-524.0055535757035
 20
3140.0
 30
0.0
  0
ENDBLK
  5
1C3E5
330
1C352
100
AcDbEntity
  8
0
 48
50.0
100
AcDbBlockEnd
  0
BLOCK
  5
1C3E6
330
1C35F
100
AcDbEntity
  8
0
 48
50.0
100
AcDbBlockBegin
  2
*D23
 70
     1
 10
0.0
 20
0.0
 30
0.0
  3
*D23
  1

  0
LINE
  5
1C3E7
330
1C35F
100
AcDbEntity
  8
0
  6
ByBlock
 62
     0
 48
50.0
100
AcDbLine
 10
-125.6704185818252
 20
2915.000000000002
 30
0.0
 11
-125.6704185818253
 21
2578.952670699626
 31
0.0
  0
LINE
  5
1C3E8
330
1C35F
100
AcDbEntity
  8
0
  6
ByBlock
 62
     0
 48
50.0
100
AcDbLine
 10
74.32958141817653
 20
2915.000000000002
 30
0.0
 11
74.3295814181765
 21
2578.952670699626
 31
0.0
  0
LINE
  5
1C3E9
330
1C35F
100
AcDbEntity
  8
0
  6
ByBlock
 62
     0
 48
50.0
100
AcDbLine
 10
-125.6704185818253
 20
2653.952670699625
 30
0.0
 11
74.32958141817652
 21
2653.952670699625
 31
0.0
  0
LINE
  5
1C3EA
330
1C35F
100
AcDbEntity
  8
0
  6
ByBlock
 62
     0
 48
50.0
100
AcDbLine
 10
74.32958141817652
 20
2653.952670699625
 30
0.0
 11
523.2567467725073
 21
2653.952670699625
 31
0.0
  0
INSERT
  5
1C3EB
330
1C35F
100
AcDbEntity
  8
0
  6
ByBlock
 62
     0
 48
50.0
100
AcDbBlockReference
  2
_DOTSMALL
 10
-125.6704185818253
 20
2653.952670699625
 30
0.0
 41
125.0
 42
125.0
 43
125.0
 50
180.0
  0
INSERT
  5
1C3EC
330
1C35F
100
AcDbEntity
  8
0
  6
ByBlock
 62
     0
 48
50.0
100
AcDbBlockReference
  2
_DOTSMALL
 10
74.32958141817652
 20
2653.952670699625
 30
0.0
 41
125.0
 42
125.0
 43
125.0
  0
MTEXT
  5
1C3ED
330
1C35F
100
AcDbEntity
  8
0
  6
ByBlock
 62
     7
 48
50.0
100
AcDbMText
 10
361.2931640953419
 20
2753.967434479153
 30
0.0
 40
150.0
 41
0.0
 71
     5
 72
     1
  1
\A1;200
  7
STYLE1
 73
     1
 44
1.0
  0
POINT
  5
1C3EE
330
1C35F
100
AcDbEntity
  8
DEFPOINTS
  6
ByBlock
 62
     0
 48
50.0
100
AcDbPoint
 10
-125.6704185818252
 20
2940.000000000002
 30
0.0
  0
POINT
  5
1C3EF
330
1C35F
100
AcDbEntity
  8
DEFPOINTS
  6
ByBlock
 62
     0
 48
50.0
100
AcDbPoint
 10
74.32958141817653
 20
2940.000000000002
 30
0.0
  0
POINT
  5
1C3F0
330
1C35F
100
AcDbEntity
  8
DEFPOINTS
  6
ByBlock
 62
     0
 48
50.0
100
AcDbPoint
 10
74.32958141817652
 20
2653.952670699625
 30
0.0
  0
ENDBLK
  5
1C3F1
330
1C35F
100
AcDbEntity
  8
0
 48
50.0
100
AcDbBlockEnd
  0
BLOCK
  5
1C3F2
330
1C36C
100
AcDbEntity
  8
0
 48
50.0
100
AcDbBlockBegin
  2
*D24
 70
     1
 10
0.0
 20
0.0
 30
0.0
  3
*D24
  1

  0
LINE
  5
1C3F3
330
1C36C
100
AcDbEntity
  8
0
  6
ByBlock
 62
     0
 48
50.0
100
AcDbLine
 10
1367.829581418174
 20
5570.0
 30
0.0
 11
1367.829581418174
 21
6581.068854554546
 31
0.0
  0
LINE
  5
1C3F4
330
1C36C
100
AcDbEntity
  8
0
  6
ByBlock
 62
     0
 48
50.0
100
AcDbLine
 10
-162.1704185818252
 20
5510.0
 30
0.0
 11
-162.1704185818252
 21
6581.068854554546
 31
0.0
  0
LINE
  5
1C3F5
330
1C36C
100
AcDbEntity
  8
0
  6
ByBlock
 62
     0
 48
50.0
100
AcDbLine
 10
1367.829581418174
 20
6506.068854554546
 30
0.0
 11
-162.1704185818252
 21
6506.068854554546
 31
0.0
  0
INSERT
  5
1C3F6
330
1C36C
100
AcDbEntity
  8
0
  6
ByBlock
 62
     0
 48
50.0
100
AcDbBlockReference
  2
_DOTSMALL
 10
1367.829581418174
 20
6506.068854554546
 30
0.0
 41
125.0
 42
125.0
 43
125.0
  0
INSERT
  5
1C3F7
330
1C36C
100
AcDbEntity
  8
0
  6
ByBlock
 62
     0
 48
50.0
100
AcDbBlockReference
  2
_DOTSMALL
 10
-162.1704185818252
 20
6506.068854554546
 30
0.0
 41
125.0
 42
125.0
 43
125.0
 50
180.0
  0
MTEXT
  5
1C3F8
330
1C36C
100
AcDbEntity
  8
0
  6
ByBlock
 62
     7
 48
50.0
100
AcDbMText
 10
602.8295814181746
 20
6606.068854554546
 30
0.0
 40
150.0
 41
0.0
 71
     5
 72
     1
  1
\A1;1530
  7
STYLE1
 73
     1
 44
1.0
  0
POINT
  5
1C3F9
330
1C36C
100
AcDbEntity
  8
DEFPOINTS
  6
ByBlock
 62
     0
 48
50.0
100
AcDbPoint
 10
1367.829581418174
 20
5545.0
 30
0.0
  0
POINT
  5
1C3FA
330
1C36C
100
AcDbEntity
  8
DEFPOINTS
  6
ByBlock
 62
     0
 48
50.0
100
AcDbPoint
 10
-162.1704185818252
 20
5485.0
 30
0.0
  0
POINT
  5
1C3FB
330
1C36C
100
AcDbEntity
  8
DEFPOINTS
  6
ByBlock
 62
     0
 48
50.0
100
AcDbPoint
 10
-162.1704185818252
 20
6506.068854554546
 30
0.0
  0
ENDBLK
  5
1C3FC
330
1C36C
100
AcDbEntity
  8
0
 48
50.0
100
AcDbBlockEnd
  0
BLOCK
  5
1C3FD
330
1C378
100
AcDbEntity
  8
0
 48
50.0
100
AcDbBlockBegin
  2
*D25
 70
     1
 10
0.0
 20
0.0
 30
0.0
  3
*D25
  1

  0
LINE
  5
1CADC
330
1C378
100
AcDbEntity
  8
寸法
 62
     0
 48
50.0
100
AcDbLine
 10
6002.829581418174
 20
5513.337018226884
 30
0.0
 11
6002.829581418174
 21
6313.281130716564
 31
0.0
  0
LINE
  5
1CADD
330
1C378
100
AcDbEntity
  8
寸法
 62
     0
 48
50.0
100
AcDbLine
 10
7302.829581418176
 20
6238.281130716565
 30
0.0
 11
6002.829581418174
 21
6238.281130716565
 31
0.0
  0
INSERT
  5
1CADE
330
1C378
100
AcDbEntity
  8
寸法
 62
     0
 48
50.0
100
AcDbBlockReference
  2
_DOTSMALL
 10
7302.829581418176
 20
6238.281130716565
 30
0.0
 41
125.0
 42
125.0
 43
125.0
  0
INSERT
  5
1CADF
330
1C378
100
AcDbEntity
  8
寸法
 62
     0
 48
50.0
100
AcDbBlockReference
  2
_DOTSMALL
 10
6002.829581418174
 20
6238.281130716565
 30
0.0
 41
125.0
 42
125.0
 43
125.0
 50
180.0
  0
MTEXT
  5
1CAE0
330
1C378
100
AcDbEntity
  8
寸法
 62
     7
 48
50.0
100
AcDbMText
 10
6652.829581418174
 20
6338.281130716564
 30
0.0
 40
150.0
 41
0.0
 71
     5
 72
     1
  1
\A1;柱外寸法 1300
  7
STYLE1
 73
     1
 44
1.0
  0
POINT
  5
1CAE1
330
1C378
100
AcDbEntity
  8
DEFPOINTS
 62
     0
 48
50.0
100
AcDbPoint
 10
7302.829581418176
 20
5541.484603453126
 30
0.0
  0
POINT
  5
1CAE2
330
1C378
100
AcDbEntity
  8
DEFPOINTS
 62
     0
 48
50.0
100
AcDbPoint
 10
6002.829581418174
 20
5488.337018226885
 30
0.0
  0
POINT
  5
1CAE3
330
1C378
100
AcDbEntity
  8
DEFPOINTS
 62
     0
 48
50.0
100
AcDbPoint
 10
6002.829581418174
 20
6238.281130716565
 30
0.0
  0
ENDBLK
  5
1C406
330
1C378
100
AcDbEntity
  8
0
 48
50.0
100
AcDbBlockEnd
  0
BLOCK
  5
1C407
330
1C383
100
AcDbEntity
  8
0
 48
50.0
100
AcDbBlockBegin
  2
*D26
 70
     1
 10
0.0
 20
0.0
 30
0.0
  3
*D26
  1

  0
LINE
  5
1CAE4
330
1C383
100
AcDbEntity
  8
寸法
 62
     0
 48
50.0
100
AcDbLine
 10
7327.829581418175
 20
5275.000000000044
 30
0.0
 11
8103.949297310762
 21
5275.000000000044
 31
0.0
  0
LINE
  5
1CAE5
330
1C383
100
AcDbEntity
  8
寸法
 62
     0
 48
50.0
100
AcDbLine
 10
8028.949297310763
 20
3330.000000000044
 30
0.0
 11
8028.949297310763
 21
5275.000000000044
 31
0.0
  0
INSERT
  5
1CAE6
330
1C383
100
AcDbEntity
  8
寸法
 62
     0
 48
50.0
100
AcDbBlockReference
  2
_DOTSMALL
 10
8028.949297310763
 20
3330.000000000044
 30
0.0
 41
125.0
 42
125.0
 43
125.0
 50
270.0
  0
INSERT
  5
1CAE7
330
1C383
100
AcDbEntity
  8
寸法
 62
     0
 48
50.0
100
AcDbBlockReference
  2
_DOTSMALL
 10
8028.949297310763
 20
5275.000000000044
 30
0.0
 41
125.0
 42
125.0
 43
125.0
 50
90.0
  0
MTEXT
  5
1CAE8
330
1C383
100
AcDbEntity
  8
寸法
 62
     7
 48
50.0
100
AcDbMText
 10
7928.949297310762
 20
4302.500000000044
 30
0.0
 40
150.0
 41
0.0
 71
     5
 72
     1
  1
\A1;1945
  7
STYLE1
 11
0.0000000000000001
 21
1.0
 31
0.0
 73
     1
 44
1.0
  0
POINT
  5
1CAE9
330
1C383
100
AcDbEntity
  8
DEFPOINTS
 62
     0
 48
50.0
100
AcDbPoint
 10
7302.829581418176
 20
3330.000000000044
 30
0.0
  0
POINT
  5
1CAEA
330
1C383
100
AcDbEntity
  8
DEFPOINTS
 62
     0
 48
50.0
100
AcDbPoint
 10
7302.829581418174
 20
5275.000000000044
 30
0.0
  0
POINT
  5
1CAEB
330
1C383
100
AcDbEntity
  8
DEFPOINTS
 62
     0
 48
50.0
100
AcDbPoint
 10
8028.949297310763
 20
5275.000000000044
 30
0.0
  0
ENDBLK
  5
1C410
330
1C383
100
AcDbEntity
  8
0
 48
50.0
100
AcDbBlockEnd
  0
BLOCK
  5
1C411
330
1C38E
100
AcDbEntity
  8
0
 48
50.0
100
AcDbBlockBegin
  2
*D27
 70
     1
 10
0.0
 20
0.0
 30
0.0
  3
*D27
  1

  0
LINE
  5
1C412
330
1C38E
100
AcDbEntity
  8
0
  6
ByBlock
 62
     0
 48
50.0
100
AcDbLine
 10
1392.829581418176
 20
5545.0
 30
0.0
 11
2341.995501716565
 21
5545.0
 31
0.0
  0
LINE
  5
1C413
330
1C38E
100
AcDbEntity
  8
0
  6
ByBlock
 62
     0
 48
50.0
100
AcDbLine
 10
1257.829581418176
 20
3275.0
 30
0.0
 11
2341.995501716565
 21
3275.0
 31
0.0
  0
LINE
  5
1C414
330
1C38E
100
AcDbEntity
  8
0
  6
ByBlock
 62
     0
 48
50.0
100
AcDbLine
 10
2266.995501716565
 20
5545.0
 30
0.0
 11
2266.995501716564
 21
3275.0
 31
0.0
  0
INSERT
  5
1C415
330
1C38E
100
AcDbEntity
  8
0
  6
ByBlock
 62
     0
 48
50.0
100
AcDbBlockReference
  2
_DOTSMALL
 10
2266.995501716565
 20
5545.0
 30
0.0
 41
125.0
 42
125.0
 43
125.0
 50
90.0
  0
INSERT
  5
1C416
330
1C38E
100
AcDbEntity
  8
0
  6
ByBlock
 62
     0
 48
50.0
100
AcDbBlockReference
  2
_DOTSMALL
 10
2266.995501716564
 20
3275.0
 30
0.0
 41
125.0
 42
125.0
 43
125.0
 50
270.0
  0
MTEXT
  5
1C417
330
1C38E
100
AcDbEntity
  8
0
  6
ByBlock
 62
     7
 48
50.0
100
AcDbMText
 10
2166.980737937037
 20
4410.0
 30
0.0
 40
150.0
 41
0.0
 71
     5
 72
     1
  1
\A1;2270
  7
STYLE1
 11
0.0000000000000001
 21
1.0
 31
0.0
 73
     1
 44
1.0
  0
POINT
  5
1C418
330
1C38E
100
AcDbEntity
  8
DEFPOINTS
  6
ByBlock
 62
     0
 48
50.0
100
AcDbPoint
 10
1367.829581418176
 20
5545.0
 30
0.0
  0
POINT
  5
1C419
330
1C38E
100
AcDbEntity
  8
DEFPOINTS
  6
ByBlock
 62
     0
 48
50.0
100
AcDbPoint
 10
1232.829581418176
 20
3275.0
 30
0.0
  0
POINT
  5
1C41A
330
1C38E
100
AcDbEntity
  8
DEFPOINTS
  6
ByBlock
 62
     0
 48
50.0
100
AcDbPoint
 10
2266.995501716564
 20
3275.0
 30
0.0
  0
ENDBLK
  5
1C41B
330
1C38E
100
AcDbEntity
  8
0
 48
50.0
100
AcDbBlockEnd
  0
BLOCK
  5
1C41C
330
1C39A
100
AcDbEntity
  8
0
 48
50.0
100
AcDbBlockBegin
  2
*D28
 70
     1
 10
0.0
 20
0.0
 30
0.0
  3
*D28
  1

  0
LINE
  5
1C41D
330
1C39A
100
AcDbEntity
  8
0
  6
ByBlock
 62
     0
 48
50.0
100
AcDbLine
 10
1257.829581418176
 20
3275.0
 30
0.0
 11
2033.949297310764
 21
3275.0
 31
0.0
  0
LINE
  5
1C41E
330
1C39A
100
AcDbEntity
  8
0
  6
ByBlock
 62
     0
 48
50.0
100
AcDbLine
 10
1257.829581418176
 20
3330.0
 30
0.0
 11
2033.949297310764
 21
3330.0
 31
0.0
  0
LINE
  5
1C41F
330
1C39A
100
AcDbEntity
  8
0
  6
ByBlock
 62
     0
 48
50.0
100
AcDbLine
 10
1958.949297310764
 20
3330.0
 30
0.0
 11
1958.949297310764
 21
3275.0
 31
0.0
  0
LINE
  5
1C420
330
1C39A
100
AcDbEntity
  8
0
  6
ByBlock
 62
     0
 48
50.0
100
AcDbLine
 10
1958.949297310764
 20
3275.0
 30
0.0
 11
1958.949297310764
 21
2853.813892459668
 31
0.0
  0
INSERT
  5
1C421
330
1C39A
100
AcDbEntity
  8
0
  6
ByBlock
 62
     0
 48
50.0
100
AcDbBlockReference
  2
_DOTSMALL
 10
1958.949297310764
 20
3330.0
 30
0.0
 41
125.0
 42
125.0
 43
125.0
 50
90.0
  0
INSERT
  5
1C422
330
1C39A
100
AcDbEntity
  8
0
  6
ByBlock
 62
     0
 48
50.0
100
AcDbBlockReference
  2
_DOTSMALL
 10
1958.949297310764
 20
3275.0
 30
0.0
 41
125.0
 42
125.0
 43
125.0
 50
270.0
  0
MTEXT
  5
1C423
330
1C39A
100
AcDbEntity
  8
0
  6
ByBlock
 62
     7
 48
50.0
100
AcDbMText
 10
1858.949297310764
 20
2964.420494177466
 30
0.0
 40
150.0
 41
0.0
 71
     5
 72
     1
  1
\A1;55
  7
STYLE1
 11
0.0000000000000001
 21
1.0
 31
0.0
 73
     1
 44
1.0
  0
POINT
  5
1C424
330
1C39A
100
AcDbEntity
  8
DEFPOINTS
  6
ByBlock
 62
     0
 48
50.0
100
AcDbPoint
 10
1232.829581418176
 20
3275.0
 30
0.0
  0
POINT
  5
1C425
330
1C39A
100
AcDbEntity
  8
DEFPOINTS
  6
ByBlock
 62
     0
 48
50.0
100
AcDbPoint
 10
1232.829581418176
 20
3330.0
 30
0.0
  0
POINT
  5
1C426
330
1C39A
100
AcDbEntity
  8
DEFPOINTS
  6
ByBlock
 62
     0
 48
50.0
100
AcDbPoint
 10
1958.949297310764
 20
3330.0
 30
0.0
  0
ENDBLK
  5
1C427
330
1C39A
100
AcDbEntity
  8
0
 48
50.0
100
AcDbBlockEnd
  0
BLOCK
  5
1C428
330
1C3A7
100
AcDbEntity
  8
0
 48
50.0
100
AcDbBlockBegin
  2
*D29
 70
     1
 10
0.0
 20
0.0
 30
0.0
  3
*D29
  1

  0
LINE
  5
1C429
330
1C3A7
100
AcDbEntity
  8
0
  6
ByBlock
 62
     0
 48
50.0
100
AcDbLine
 10
1367.829581418176
 20
5570.0
 30
0.0
 11
1367.829581418176
 21
6313.281130716521
 31
0.0
  0
LINE
  5
1C42A
330
1C3A7
100
AcDbEntity
  8
0
  6
ByBlock
 62
     0
 48
50.0
100
AcDbLine
 10
1232.829581418176
 20
5566.484603453082
 30
0.0
 11
1232.829581418176
 21
6313.281130716521
 31
0.0
  0
LINE
  5
1C42B
330
1C3A7
100
AcDbEntity
  8
0
  6
ByBlock
 62
     0
 48
50.0
100
AcDbLine
 10
1232.829581418176
 20
6238.281130716521
 30
0.0
 11
1367.829581418176
 21
6238.281130716521
 31
0.0
  0
LINE
  5
1C42C
330
1C3A7
100
AcDbEntity
  8
0
  6
ByBlock
 62
     0
 48
50.0
100
AcDbLine
 10
1367.829581418176
 20
6238.281130716521
 30
0.0
 11
1789.042784853773
 21
6238.281130716521
 31
0.0
  0
INSERT
  5
1C42D
330
1C3A7
100
AcDbEntity
  8
0
  6
ByBlock
 62
     0
 48
50.0
100
AcDbBlockReference
  2
_DOTSMALL
 10
1232.829581418176
 20
6238.281130716521
 30
0.0
 41
125.0
 42
125.0
 43
125.0
 50
180.0
  0
INSERT
  5
1C42E
330
1C3A7
100
AcDbEntity
  8
0
  6
ByBlock
 62
     0
 48
50.0
100
AcDbBlockReference
  2
_DOTSMALL
 10
1367.829581418176
 20
6238.281130716521
 30
0.0
 41
125.0
 42
125.0
 43
125.0
  0
MTEXT
  5
1C42F
330
1C3A7
100
AcDbEntity
  8
0
  6
ByBlock
 62
     7
 48
50.0
100
AcDbMText
 10
1640.936183135974
 20
6338.281130716521
 30
0.0
 40
150.0
 41
0.0
 71
     5
 72
     1
  1
\A1;135
  7
STYLE1
 73
     1
 44
1.0
  0
POINT
  5
1C430
330
1C3A7
100
AcDbEntity
  8
DEFPOINTS
  6
ByBlock
 62
     0
 48
50.0
100
AcDbPoint
 10
1367.829581418176
 20
5545.0
 30
0.0
  0
POINT
  5
1C431
330
1C3A7
100
AcDbEntity
  8
DEFPOINTS
  6
ByBlock
 62
     0
 48
50.0
100
AcDbPoint
 10
1232.829581418176
 20
5541.484603453081
 30
0.0
  0
POINT
  5
1C432
330
1C3A7
100
AcDbEntity
  8
DEFPOINTS
  6
ByBlock
 62
     0
 48
50.0
100
AcDbPoint
 10
1232.829581418176
 20
6238.281130716521
 30
0.0
  0
ENDBLK
  5
1C433
330
1C3A7
100
AcDbEntity
  8
0
 48
50.0
100
AcDbBlockEnd
  0
BLOCK
  5
1C440
330
1C3C1
100
AcDbEntity
  8
0
 48
50.0
100
AcDbBlockBegin
  2
*D30
 70
     1
 10
0.0
 20
0.0
 30
0.0
  3
*D30
  1

  0
LINE
  5
1C441
330
1C3C1
100
AcDbEntity
  8
0
  6
ByBlock
 62
     0
 48
50.0
100
AcDbLine
 10
-92.17041858182529
 20
3275.0
 30
0.0
 11
-801.6611720032434
 21
3275.0
 31
0.0
  0
LINE
  5
1C442
330
1C3C1
100
AcDbEntity
  8
0
  6
ByBlock
 62
     0
 48
50.0
100
AcDbLine
 10
-187.1704185818252
 20
5485.0
 30
0.0
 11
-801.6611720032432
 21
5485.0
 31
0.0
  0
LINE
  5
1C443
330
1C3C1
100
AcDbEntity
  8
0
  6
ByBlock
 62
     0
 48
50.0
100
AcDbLine
 10
-726.6611720032434
 20
3275.0
 30
0.0
 11
-726.6611720032433
 21
5485.0
 31
0.0
  0
INSERT
  5
1C444
330
1C3C1
100
AcDbEntity
  8
0
  6
ByBlock
 62
     0
 48
50.0
100
AcDbBlockReference
  2
_DOTSMALL
 10
-726.6611720032434
 20
3275.0
 30
0.0
 41
125.0
 42
125.0
 43
125.0
 50
270.0
  0
INSERT
  5
1C445
330
1C3C1
100
AcDbEntity
  8
0
  6
ByBlock
 62
     0
 48
50.0
100
AcDbBlockReference
  2
_DOTSMALL
 10
-726.6611720032433
 20
5485.0
 30
0.0
 41
125.0
 42
125.0
 43
125.0
 50
90.0
  0
MTEXT
  5
1C446
330
1C3C1
100
AcDbEntity
  8
0
  6
ByBlock
 62
     7
 48
50.0
100
AcDbMText
 10
-826.675935782771
 20
4380.0
 30
0.0
 40
150.0
 41
0.0
 71
     5
 72
     1
  1
\A1;2210
  7
STYLE1
 11
0.0000000000000001
 21
1.0
 31
0.0
 73
     1
 44
1.0
  0
POINT
  5
1C447
330
1C3C1
100
AcDbEntity
  8
DEFPOINTS
  6
ByBlock
 62
     0
 48
50.0
100
AcDbPoint
 10
-67.17041858182529
 20
3275.0
 30
0.0
  0
POINT
  5
1C448
330
1C3C1
100
AcDbEntity
  8
DEFPOINTS
  6
ByBlock
 62
     0
 48
50.0
100
AcDbPoint
 10
-162.1704185818252
 20
5485.0
 30
0.0
  0
POINT
  5
1C449
330
1C3C1
100
AcDbEntity
  8
DEFPOINTS
  6
ByBlock
 62
     0
 48
50.0
100
AcDbPoint
 10
-726.6611720032433
 20
5485.0
 30
0.0
  0
ENDBLK
  5
1C44A
330
1C3C1
100
AcDbEntity
  8
0
 48
50.0
100
AcDbBlockEnd
  0
BLOCK
  5
1C44B
330
1C3CD
100
AcDbEntity
  8
0
 48
50.0
100
AcDbBlockBegin
  2
*D31
 70
     1
 10
0.0
 20
0.0
 30
0.0
  3
*D31
  1

  0
LINE
  5
1C44C
330
1C3CD
100
AcDbEntity
  8
0
  6
ByBlock
 62
     0
 48
50.0
100
AcDbLine
 10
-67.17041858182529
 20
5513.337018226841
 30
0.0
 11
-67.17041858182523
 21
6313.281130716521
 31
0.0
  0
LINE
  5
1C44D
330
1C3CD
100
AcDbEntity
  8
0
  6
ByBlock
 62
     0
 48
50.0
100
AcDbLine
 10
-162.1704185818252
 20
5510.0
 30
0.0
 11
-162.1704185818252
 21
6313.281130716521
 31
0.0
  0
LINE
  5
1C44E
330
1C3CD
100
AcDbEntity
  8
0
  6
ByBlock
 62
     0
 48
50.0
100
AcDbLine
 10
-67.17041858182525
 20
6238.281130716521
 30
0.0
 11
-162.1704185818252
 21
6238.281130716521
 31
0.0
  0
LINE
  5
1C44F
330
1C3CD
100
AcDbEntity
  8
0
  6
ByBlock
 62
     0
 48
50.0
100
AcDbLine
 10
-162.1704185818252
 20
6238.281130716521
 30
0.0
 11
-608.4426771355301
 21
6238.281130716521
 31
0.0
  0
INSERT
  5
1C450
330
1C3CD
100
AcDbEntity
  8
0
  6
ByBlock
 62
     0
 48
50.0
100
AcDbBlockReference
  2
_DOTSMALL
 10
-67.17041858182525
 20
6238.281130716521
 30
0.0
 41
125.0
 42
125.0
 43
125.0
  0
INSERT
  5
1C451
330
1C3CD
100
AcDbEntity
  8
0
  6
ByBlock
 62
     0
 48
50.0
100
AcDbBlockReference
  2
_DOTSMALL
 10
-162.1704185818252
 20
6238.281130716521
 30
0.0
 41
125.0
 42
125.0
 43
125.0
 50
180.0
  0
MTEXT
  5
1C452
330
1C3CD
100
AcDbEntity
  8
0
  6
ByBlock
 62
     7
 48
50.0
100
AcDbMText
 10
-494.7294736999338
 20
6338.281130716521
 30
0.0
 40
150.0
 41
0.0
 71
     5
 72
     1
  1
\A1;95
  7
STYLE1
 73
     1
 44
1.0
  0
POINT
  5
1C453
330
1C3CD
100
AcDbEntity
  8
DEFPOINTS
  6
ByBlock
 62
     0
 48
50.0
100
AcDbPoint
 10
-67.17041858182529
 20
5488.33701822684
 30
0.0
  0
POINT
  5
1C454
330
1C3CD
100
AcDbEntity
  8
DEFPOINTS
  6
ByBlock
 62
     0
 48
50.0
100
AcDbPoint
 10
-162.1704185818252
 20
5485.0
 30
0.0
  0
POINT
  5
1C455
330
1C3CD
100
AcDbEntity
  8
DEFPOINTS
  6
ByBlock
 62
     0
 48
50.0
100
AcDbPoint
 10
-162.1704185818252
 20
6238.281130716521
 30
0.0
  0
ENDBLK
  5
1C456
330
1C3CD
100
AcDbEntity
  8
0
 48
50.0
100
AcDbBlockEnd
  0
BLOCK
  5
1C488
330
1C470
100
AcDbEntity
  8
0
 48
50.0
100
AcDbBlockBegin
  2
*D32
 70
     1
 10
0.0
 20
0.0
 30
0.0
  3
*D32
  1

  0
LINE
  5
1C489
330
1C470
100
AcDbEntity
  8
0
  6
ByBlock
 62
     0
 48
50.0
100
AcDbLine
 10
6557.829581418174
 20
3275.000000000044
 30
0.0
 11
6159.899621195021
 21
3275.000000000044
 31
0.0
  0
LINE
  5
1C48A
330
1C470
100
AcDbEntity
  8
0
  6
ByBlock
 62
     0
 48
50.0
100
AcDbLine
 10
6627.829581418173
 20
5170.000000000044
 30
0.0
 11
6159.899621195021
 21
5170.000000000044
 31
0.0
  0
LINE
  5
1C48B
330
1C470
100
AcDbEntity
  8
0
  6
ByBlock
 62
     0
 48
50.0
100
AcDbLine
 10
6234.899621195022
 20
3275.000000000044
 30
0.0
 11
6234.899621195022
 21
5170.000000000044
 31
0.0
  0
INSERT
  5
1C48C
330
1C470
100
AcDbEntity
  8
0
  6
ByBlock
 62
     0
 48
50.0
100
AcDbBlockReference
  2
_DOTSMALL
 10
6234.899621195022
 20
3275.000000000044
 30
0.0
 41
125.0
 42
125.0
 43
125.0
 50
270.0
  0
INSERT
  5
1C48D
330
1C470
100
AcDbEntity
  8
0
  6
ByBlock
 62
     0
 48
50.0
100
AcDbBlockReference
  2
_DOTSMALL
 10
6234.899621195022
 20
5170.000000000044
 30
0.0
 41
125.0
 42
125.0
 43
125.0
 50
90.0
  0
MTEXT
  5
1C48E
330
1C470
100
AcDbEntity
  8
0
  6
ByBlock
 62
     7
 48
50.0
100
AcDbMText
 10
6134.899621195021
 20
4222.500000000043
 30
0.0
 40
150.0
 41
0.0
 71
     5
 72
     1
  1
\A1;1895
  7
STYLE1
 11
0.0000000000000001
 21
1.0
 31
0.0
 73
     1
 44
1.0
  0
POINT
  5
1C48F
330
1C470
100
AcDbEntity
  8
DEFPOINTS
  6
ByBlock
 62
     0
 48
50.0
100
AcDbPoint
 10
6582.829581418174
 20
3275.000000000044
 30
0.0
  0
POINT
  5
1C490
330
1C470
100
AcDbEntity
  8
DEFPOINTS
  6
ByBlock
 62
     0
 48
50.0
100
AcDbPoint
 10
6652.829581418173
 20
5170.000000000044
 30
0.0
  0
POINT
  5
1C491
330
1C470
100
AcDbEntity
  8
DEFPOINTS
  6
ByBlock
 62
     0
 48
50.0
100
AcDbPoint
 10
6234.899621195022
 20
5170.000000000044
 30
0.0
  0
ENDBLK
  5
1C492
330
1C470
100
AcDbEntity
  8
0
 48
50.0
100
AcDbBlockEnd
  0
BLOCK
  5
1C4C9
330
1C4BD
100
AcDbEntity
  8
0
 48
50.0
100
AcDbBlockBegin
  2
*D33
 70
     1
 10
0.0
 20
0.0
 30
0.0
  3
*D33
  1

  0
LINE
  5
1C4CA
330
1C4BD
100
AcDbEntity
  8
0
  6
ByBlock
 62
     0
 48
50.0
100
AcDbLine
 10
10896.1865009216
 20
11716.99740711559
 30
0.0
 11
10411.742815049
 21
11716.99740711559
 31
0.0
  0
LINE
  5
1C4CB
330
1C4BD
100
AcDbEntity
  8
0
  6
ByBlock
 62
     0
 48
50.0
100
AcDbLine
 10
10896.1865009216
 20
10914.99740711558
 30
0.0
 11
10411.742815049
 21
10914.99740711558
 31
0.0
  0
LINE
  5
1C4CC
330
1C4BD
100
AcDbEntity
  8
0
  6
ByBlock
 62
     0
 48
50.0
100
AcDbLine
 10
10486.742815049
 20
11716.99740711559
 30
0.0
 11
10486.742815049
 21
10914.99740711558
 31
0.0
  0
INSERT
  5
1C4CD
330
1C4BD
100
AcDbEntity
  8
0
  6
ByBlock
 62
     0
 48
50.0
100
AcDbBlockReference
  2
_DOTSMALL
 10
10486.742815049
 20
11716.99740711559
 30
0.0
 41
125.0
 42
125.0
 43
125.0
 50
90.0
  0
INSERT
  5
1C4CE
330
1C4BD
100
AcDbEntity
  8
0
  6
ByBlock
 62
     0
 48
50.0
100
AcDbBlockReference
  2
_DOTSMALL
 10
10486.742815049
 20
10914.99740711558
 30
0.0
 41
125.0
 42
125.0
 43
125.0
 50
270.0
  0
MTEXT
  5
1C4CF
330
1C4BD
100
AcDbEntity
  8
0
  6
ByBlock
 62
     7
 48
50.0
100
AcDbMText
 10
10386.72805126947
 20
11315.99740711558
 30
0.0
 40
150.0
 41
0.0
 71
     5
 72
     1
  1
\A1;802
  7
STYLE1
 11
0.0000000000000001
 21
1.0
 31
0.0
 73
     1
 44
1.0
  0
POINT
  5
1C4D0
330
1C4BD
100
AcDbEntity
  8
DEFPOINTS
  6
ByBlock
 62
     0
 48
50.0
100
AcDbPoint
 10
10921.1865009216
 20
11716.99740711559
 30
0.0
  0
POINT
  5
1C4D1
330
1C4BD
100
AcDbEntity
  8
DEFPOINTS
  6
ByBlock
 62
     0
 48
50.0
100
AcDbPoint
 10
10921.1865009216
 20
10914.99740711558
 30
0.0
  0
POINT
  5
1C4D2
330
1C4BD
100
AcDbEntity
  8
DEFPOINTS
  6
ByBlock
 62
     0
 48
50.0
100
AcDbPoint
 10
10486.742815049
 20
10914.99740711558
 30
0.0
  0
ENDBLK
  5
1C4D3
330
1C4BD
100
AcDbEntity
  8
0
 48
50.0
100
AcDbBlockEnd
  0
BLOCK
  5
1C533
330
1C528
100
AcDbEntity
  8
0
 48
50.0
100
AcDbBlockBegin
  2
*D34
 70
     1
 10
0.0
 20
0.0
 30
0.0
  3
*D34
  1

  0
LINE
  5
1C529
330
1C528
100
AcDbEntity
  8
0
  6
ByBlock
 62
     0
 48
50.0
100
AcDbLine
 10
9844.700675670623
 20
6240.518507324279
 30
0.0
 11
10513.89790290454
 21
6240.518507324279
 31
0.0
  0
LINE
  5
1C52A
330
1C528
100
AcDbEntity
  8
0
  6
ByBlock
 62
     0
 48
50.0
100
AcDbLine
 10
9844.700675670623
 20
6125.518507324279
 30
0.0
 11
10513.89790290454
 21
6125.518507324279
 31
0.0
  0
LINE
  5
1C52B
330
1C528
100
AcDbEntity
  8
0
  6
ByBlock
 62
     0
 48
50.0
100
AcDbLine
 10
10438.89790290454
 20
6125.518507324279
 30
0.0
 11
10438.89790290454
 21
6240.518507324279
 31
0.0
  0
LINE
  5
1C52C
330
1C528
100
AcDbEntity
  8
0
  6
ByBlock
 62
     0
 48
50.0
100
AcDbLine
 10
10438.89790290454
 20
6240.518507324279
 30
0.0
 11
10438.89790290454
 21
6631.731710759876
 31
0.0
  0
INSERT
  5
1C52D
330
1C528
100
AcDbEntity
  8
0
  6
ByBlock
 62
     0
 48
50.0
100
AcDbBlockReference
  2
_DOTSMALL
 10
10438.89790290454
 20
6125.518507324279
 30
0.0
 41
125.0
 42
125.0
 43
125.0
 50
270.0
  0
INSERT
  5
1C52E
330
1C528
100
AcDbEntity
  8
0
  6
ByBlock
 62
     0
 48
50.0
100
AcDbBlockReference
  2
_DOTSMALL
 10
10438.89790290454
 20
6240.518507324279
 30
0.0
 41
125.0
 42
125.0
 43
125.0
 50
90.0
  0
MTEXT
  5
1C52F
330
1C528
100
AcDbEntity
  8
0
  6
ByBlock
 62
     7
 48
50.0
100
AcDbMText
 10
10338.89790290454
 20
6498.625109042078
 30
0.0
 40
150.0
 41
0.0
 71
     5
 72
     1
  1
\A1;115
  7
STYLE1
 11
0.0000000000000001
 21
1.0
 31
0.0
 73
     1
 44
1.0
  0
POINT
  5
1C530
330
1C528
100
AcDbEntity
  8
DEFPOINTS
  6
ByBlock
 62
     0
 48
50.0
100
AcDbPoint
 10
9819.700675670624
 20
6240.518507324279
 30
0.0
  0
POINT
  5
1C531
330
1C528
100
AcDbEntity
  8
DEFPOINTS
  6
ByBlock
 62
     0
 48
50.0
100
AcDbPoint
 10
9819.700675670624
 20
6125.518507324279
 30
0.0
  0
POINT
  5
1C532
330
1C528
100
AcDbEntity
  8
DEFPOINTS
  6
ByBlock
 62
     0
 48
50.0
100
AcDbPoint
 10
10438.89790290454
 20
6125.518507324279
 30
0.0
  0
ENDBLK
  5
1C534
330
1C528
100
AcDbEntity
  8
0
 48
50.0
100
AcDbBlockEnd
  0
BLOCK
  5
1C537
330
1C535
100
AcDbEntity
  8
0
 48
50.0
100
AcDbBlockBegin
  2
A$C019569EB
 70
     0
 10
0.0
 20
0.0
 30
0.0
  3
A$C019569EB
  1

  0
DIMENSION
  5
1C536
330
1C535
100
AcDbEntity
  8
寸法
 48
50.0
100
AcDbDimension
  2
*D34
 10
619.1972245496908
 20
15.62500544841896
 30
0.0
 11
619.1972245496908
 21
388.7316071662171
 31
0.0
 12
-9819.70067835485
 22
-6109.89350187586
 32
0.0
 70
   128
 71
     5
 42
-1.0
  3
INABA_S50G
100
AcDbAlignedDimension
 13
-0.0000026842262741
 23
130.6250054484189
 33
0.0
 14
-0.0000026842262741
 24
15.62500544841896
 34
0.0
 50
90.0
100
AcDbRotatedDimension
  0
ENDBLK
  5
1C538
330
1C535
100
AcDbEntity
  8
0
 48
50.0
100
AcDbBlockEnd
  0
BLOCK
  5
1C540
330
1C53F
100
AcDbEntity
  8
0
 48
50.0
100
AcDbBlockBegin
  2
*D36
 70
     1
 10
0.0
 20
0.0
 30
0.0
  3
*D36
  1

  0
LINE
  5
1C541
330
1C53F
100
AcDbEntity
  8
0
  6
ByBlock
 62
     0
 48
50.0
100
AcDbLine
 10
23055.63005514671
 20
16095.53028943426
 30
0.0
 11
23055.63005514671
 21
15746.22151867064
 31
0.0
  0
LINE
  5
1C542
330
1C53F
100
AcDbEntity
  8
0
  6
ByBlock
 62
     0
 48
50.0
100
AcDbLine
 10
23005.63005514671
 20
16230.53028943426
 30
0.0
 11
23005.63005514671
 21
15746.22151867064
 31
0.0
  0
LINE
  5
1C543
330
1C53F
100
AcDbEntity
  8
0
  6
ByBlock
 62
     0
 48
50.0
100
AcDbLine
 10
23055.63005514671
 20
15821.22151867064
 30
0.0
 11
23005.63005514671
 21
15821.22151867064
 31
0.0
  0
LINE
  5
1C544
330
1C53F
100
AcDbEntity
  8
0
  6
ByBlock
 62
     0
 48
50.0
100
AcDbLine
 10
23005.63005514671
 20
15821.22151867064
 30
0.0
 11
22665.51194491048
 21
15821.22151867064
 31
0.0
  0
INSERT
  5
1C545
330
1C53F
100
AcDbEntity
  8
0
  6
ByBlock
 62
     0
 48
50.0
100
AcDbBlockReference
  2
_DOTSMALL
 10
23055.63005514671
 20
15821.22151867064
 30
0.0
 41
125.0
 42
125.0
 43
125.0
  0
INSERT
  5
1C546
330
1C53F
100
AcDbEntity
  8
0
  6
ByBlock
 62
     0
 48
50.0
100
AcDbBlockReference
  2
_DOTSMALL
 10
23005.63005514671
 20
15821.22151867064
 30
0.0
 41
125.0
 42
125.0
 43
125.0
 50
180.0
  0
MTEXT
  5
1C547
330
1C53F
100
AcDbEntity
  8
0
  6
ByBlock
 62
     7
 48
50.0
100
AcDbMText
 10
22773.07100002859
 20
15921.22151867064
 30
0.0
 40
150.0
 41
0.0
 71
     5
 72
     1
  1
\A1;50
  7
STYLE1
 73
     1
 44
1.0
  0
POINT
  5
1C548
330
1C53F
100
AcDbEntity
  8
DEFPOINTS
  6
ByBlock
 62
     0
 48
50.0
100
AcDbPoint
 10
23055.63005514671
 20
16120.53028943426
 30
0.0
  0
POINT
  5
1C549
330
1C53F
100
AcDbEntity
  8
DEFPOINTS
  6
ByBlock
 62
     0
 48
50.0
100
AcDbPoint
 10
23005.63005514671
 20
16255.53028943426
 30
0.0
  0
POINT
  5
1C54A
330
1C53F
100
AcDbEntity
  8
DEFPOINTS
  6
ByBlock
 62
     0
 48
50.0
100
AcDbPoint
 10
23005.63005514671
 20
15821.22151867064
 30
0.0
  0
ENDBLK
  5
1C54B
330
1C53F
100
AcDbEntity
  8
0
 48
50.0
100
AcDbBlockEnd
  0
BLOCK
  5
1C5A1
330
1C57F
100
AcDbEntity
  8
0
 48
50.0
100
AcDbBlockBegin
  2
*D37
 70
     1
 10
0.0
 20
0.0
 30
0.0
  3
*D37
  1

  0
LINE
  5
1CAEC
330
1C57F
100
AcDbEntity
  8
寸法
 62
     0
 48
50.0
100
AcDbLine
 10
13907.82958141817
 20
5130.000000000044
 30
0.0
 11
14673.93453324972
 21
5130.000000000043
 31
0.0
  0
LINE
  5
1CAED
330
1C57F
100
AcDbEntity
  8
寸法
 62
     0
 48
50.0
100
AcDbLine
 10
14598.93453324972
 20
4060.000000000044
 30
0.0
 11
14598.93453324972
 21
5130.000000000043
 31
0.0
  0
INSERT
  5
1CAEE
330
1C57F
100
AcDbEntity
  8
寸法
 62
     0
 48
50.0
100
AcDbBlockReference
  2
_DOTSMALL
 10
14598.93453324972
 20
4060.000000000044
 30
0.0
 41
125.0
 42
125.0
 43
125.0
 50
270.0
  0
INSERT
  5
1CAEF
330
1C57F
100
AcDbEntity
  8
寸法
 62
     0
 48
50.0
100
AcDbBlockReference
  2
_DOTSMALL
 10
14598.93453324972
 20
5130.000000000043
 30
0.0
 41
125.0
 42
125.0
 43
125.0
 50
90.0
  0
MTEXT
  5
1CAF0
330
1C57F
100
AcDbEntity
  8
寸法
 62
     7
 48
50.0
100
AcDbMText
 10
14498.93453324972
 20
4595.000000000045
 30
0.0
 40
150.0
 41
0.0
 71
     5
 72
     1
  1
\A1;1070
  7
STYLE1
 11
0.0000000000000001
 21
1.0
 31
0.0
 73
     1
 44
1.0
  0
POINT
  5
1CAF1
330
1C57F
100
AcDbEntity
  8
DEFPOINTS
 62
     0
 48
50.0
100
AcDbPoint
 10
13882.82958141817
 20
4060.000000000044
 30
0.0
  0
POINT
  5
1CAF2
330
1C57F
100
AcDbEntity
  8
DEFPOINTS
 62
     0
 48
50.0
100
AcDbPoint
 10
13882.82958141817
 20
5130.000000000044
 30
0.0
  0
POINT
  5
1CAF3
330
1C57F
100
AcDbEntity
  8
DEFPOINTS
 62
     0
 48
50.0
100
AcDbPoint
 10
14598.93453324972
 20
5130.000000000043
 30
0.0
  0
ENDBLK
  5
1C5AA
330
1C57F
100
AcDbEntity
  8
0
 48
50.0
100
AcDbBlockEnd
  0
BLOCK
  5
1C5C1
330
1C58A
100
AcDbEntity
  8
0
 48
50.0
100
AcDbBlockBegin
  2
*D38
 70
     1
 10
0.0
 20
0.0
 30
0.0
  3
*D38
  1

  0
LINE
  5
1C5C2
330
1C58A
100
AcDbEntity
  8
0
  6
ByBlock
 62
     0
 48
50.0
100
AcDbLine
 10
14557.82958141817
 20
3275.000000000044
 30
0.0
 11
15253.93453324972
 21
3275.000000000044
 31
0.0
  0
LINE
  5
1C5C3
330
1C58A
100
AcDbEntity
  8
0
  6
ByBlock
 62
     0
 48
50.0
100
AcDbLine
 10
14487.82958141817
 20
4060.000000000044
 30
0.0
 11
15253.93453324972
 21
4060.000000000044
 31
0.0
  0
LINE
  5
1C5C4
330
1C58A
100
AcDbEntity
  8
0
  6
ByBlock
 62
     0
 48
50.0
100
AcDbLine
 10
15178.93453324972
 20
3275.000000000044
 30
0.0
 11
15178.93453324972
 21
4060.000000000044
 31
0.0
  0
INSERT
  5
1C5C5
330
1C58A
100
AcDbEntity
  8
0
  6
ByBlock
 62
     0
 48
50.0
100
AcDbBlockReference
  2
_DOTSMALL
 10
15178.93453324972
 20
3275.000000000044
 30
0.0
 41
125.0
 42
125.0
 43
125.0
 50
270.0
  0
INSERT
  5
1C5C6
330
1C58A
100
AcDbEntity
  8
0
  6
ByBlock
 62
     0
 48
50.0
100
AcDbBlockReference
  2
_DOTSMALL
 10
15178.93453324972
 20
4060.000000000044
 30
0.0
 41
125.0
 42
125.0
 43
125.0
 50
90.0
  0
MTEXT
  5
1C5C7
330
1C58A
100
AcDbEntity
  8
0
  6
ByBlock
 62
     7
 48
50.0
100
AcDbMText
 10
15078.93453324972
 20
3667.500000000043
 30
0.0
 40
150.0
 41
0.0
 71
     5
 72
     1
  1
\A1;785
  7
STYLE1
 11
0.0000000000000001
 21
1.0
 31
0.0
 73
     1
 44
1.0
  0
POINT
  5
1C5C8
330
1C58A
100
AcDbEntity
  8
DEFPOINTS
  6
ByBlock
 62
     0
 48
50.0
100
AcDbPoint
 10
14532.82958141817
 20
3275.000000000044
 30
0.0
  0
POINT
  5
1C5C9
330
1C58A
100
AcDbEntity
  8
DEFPOINTS
  6
ByBlock
 62
     0
 48
50.0
100
AcDbPoint
 10
14462.82958141817
 20
4060.000000000044
 30
0.0
  0
POINT
  5
1C5CA
330
1C58A
100
AcDbEntity
  8
DEFPOINTS
  6
ByBlock
 62
     0
 48
50.0
100
AcDbPoint
 10
15178.93453324972
 20
4060.000000000044
 30
0.0
  0
ENDBLK
  5
1C5CB
330
1C58A
100
AcDbEntity
  8
0
 48
50.0
100
AcDbBlockEnd
  0
BLOCK
  5
1C62D
330
1C621
100
AcDbEntity
  8
0
 48
50.0
100
AcDbBlockBegin
  2
*D39
 70
     1
 10
0.0
 20
0.0
 30
0.0
  3
*D39
  1

  0
LINE
  5
1C62E
330
1C621
100
AcDbEntity
  8
0
  6
ByBlock
 62
     0
 48
50.0
100
AcDbLine
 10
17118.48052464066
 20
7908.790157892814
 30
0.0
 11
17118.48052464066
 21
7374.346472020214
 31
0.0
  0
LINE
  5
1C62F
330
1C621
100
AcDbEntity
  8
0
  6
ByBlock
 62
     0
 48
50.0
100
AcDbLine
 10
18290.48052464066
 20
7908.790157892814
 30
0.0
 11
18290.48052464066
 21
7374.346472020214
 31
0.0
  0
LINE
  5
1C630
330
1C621
100
AcDbEntity
  8
0
  6
ByBlock
 62
     0
 48
50.0
100
AcDbLine
 10
17118.48052464066
 20
7449.346472020214
 30
0.0
 11
18290.48052464066
 21
7449.346472020214
 31
0.0
  0
INSERT
  5
1C631
330
1C621
100
AcDbEntity
  8
0
  6
ByBlock
 62
     0
 48
50.0
100
AcDbBlockReference
  2
_DOTSMALL
 10
17118.48052464066
 20
7449.346472020214
 30
0.0
 41
125.0
 42
125.0
 43
125.0
 50
180.0
  0
INSERT
  5
1C632
330
1C621
100
AcDbEntity
  8
0
  6
ByBlock
 62
     0
 48
50.0
100
AcDbBlockReference
  2
_DOTSMALL
 10
18290.48052464066
 20
7449.346472020214
 30
0.0
 41
125.0
 42
125.0
 43
125.0
  0
MTEXT
  5
1C633
330
1C621
100
AcDbEntity
  8
0
  6
ByBlock
 62
     7
 48
50.0
100
AcDbMText
 10
17704.48052464066
 20
7549.36123579974
 30
0.0
 40
150.0
 41
0.0
 71
     5
 72
     1
  1
\A1;1172
  7
STYLE1
 73
     1
 44
1.0
  0
POINT
  5
1C634
330
1C621
100
AcDbEntity
  8
DEFPOINTS
  6
ByBlock
 62
     0
 48
50.0
100
AcDbPoint
 10
17118.48052464066
 20
7933.790157892814
 30
0.0
  0
POINT
  5
1C635
330
1C621
100
AcDbEntity
  8
DEFPOINTS
  6
ByBlock
 62
     0
 48
50.0
100
AcDbPoint
 10
18290.48052464066
 20
7933.790157892814
 30
0.0
  0
POINT
  5
1C636
330
1C621
100
AcDbEntity
  8
DEFPOINTS
  6
ByBlock
 62
     0
 48
50.0
100
AcDbPoint
 10
18290.48052464066
 20
7449.346472020214
 30
0.0
  0
ENDBLK
  5
1C637
330
1C621
100
AcDbEntity
  8
0
 48
50.0
100
AcDbBlockEnd
  0
BLOCK
  5
1C66D
330
1C662
100
AcDbEntity
  8
0
 48
50.0
100
AcDbBlockBegin
  2
*D40
 70
     1
 10
0.0
 20
0.0
 30
0.0
  3
*D40
  1

  0
LINE
  5
1C663
330
1C662
100
AcDbEntity
  8
0
  6
ByBlock
 62
     0
 48
50.0
100
AcDbLine
 10
44405.89788991325
 20
19731.25355823898
 30
0.0
 11
45075.0910977055
 21
19731.25355823898
 31
0.0
  0
LINE
  5
1C664
330
1C662
100
AcDbEntity
  8
0
  6
ByBlock
 62
     0
 48
50.0
100
AcDbLine
 10
44405.89788991326
 20
19846.25355823898
 30
0.0
 11
45075.0910977055
 21
19846.25355823898
 31
0.0
  0
LINE
  5
1C665
330
1C662
100
AcDbEntity
  8
0
  6
ByBlock
 62
     0
 48
50.0
100
AcDbLine
 10
45000.0910977055
 20
19731.25355823898
 30
0.0
 11
45000.0910977055
 21
19846.25355823898
 31
0.0
  0
LINE
  5
1C666
330
1C662
100
AcDbEntity
  8
0
  6
ByBlock
 62
     0
 48
50.0
100
AcDbLine
 10
45000.0910977055
 20
19846.25355823898
 30
0.0
 11
45000.0910977055
 21
20237.46676167458
 31
0.0
  0
INSERT
  5
1C667
330
1C662
100
AcDbEntity
  8
0
  6
ByBlock
 62
     0
 48
50.0
100
AcDbBlockReference
  2
_DOTSMALL
 10
45000.0910977055
 20
19731.25355823898
 30
0.0
 41
125.0
 42
125.0
 43
125.0
 50
270.0
  0
INSERT
  5
1C668
330
1C662
100
AcDbEntity
  8
0
  6
ByBlock
 62
     0
 48
50.0
100
AcDbBlockReference
  2
_DOTSMALL
 10
45000.0910977055
 20
19846.25355823898
 30
0.0
 41
125.0
 42
125.0
 43
125.0
 50
90.0
  0
MTEXT
  5
1C669
330
1C662
100
AcDbEntity
  8
0
  6
ByBlock
 62
     7
 48
50.0
100
AcDbMText
 10
44900.0910977055
 20
20104.36015995679
 30
0.0
 40
150.0
 41
0.0
 71
     5
 72
     1
  1
\A1;115
  7
STYLE1
 11
0.0000000000000001
 21
1.0
 31
0.0
 73
     1
 44
1.0
  0
POINT
  5
1C66A
330
1C662
100
AcDbEntity
  8
DEFPOINTS
  6
ByBlock
 62
     0
 48
50.0
100
AcDbPoint
 10
44380.89788991326
 20
19731.25355823898
 30
0.0
  0
POINT
  5
1C66B
330
1C662
100
AcDbEntity
  8
DEFPOINTS
  6
ByBlock
 62
     0
 48
50.0
100
AcDbPoint
 10
44380.89788991326
 20
19846.25355823898
 30
0.0
  0
POINT
  5
1C66C
330
1C662
100
AcDbEntity
  8
DEFPOINTS
  6
ByBlock
 62
     0
 48
50.0
100
AcDbPoint
 10
45000.0910977055
 20
19846.25355823898
 30
0.0
  0
ENDBLK
  5
1C66E
330
1C662
100
AcDbEntity
  8
0
 48
50.0
100
AcDbBlockEnd
  0
BLOCK
  5
1C671
330
1C66F
100
AcDbEntity
  8
0
 48
50.0
100
AcDbBlockBegin
  2
A$C356B7D95
 70
     0
 10
0.0
 20
0.0
 30
0.0
  3
A$C356B7D95
  1

  0
DIMENSION
  5
1C670
330
1C66F
100
AcDbEntity
  8
寸法
 48
50.0
100
AcDbDimension
  2
*D40
 10
619.1932440042291
 20
130.6249900073708
 30
0.0
 11
619.1932440042291
 21
388.7315917251762
 31
0.0
 12
-44380.89785370127
 22
-19715.62856823161
 32
0.0
 70
   128
 71
     5
 42
-1.0
  3
INABA_S50G
100
AcDbAlignedDimension
 13
0.0000362119826605
 23
15.62499000737079
 33
0.0
 14
0.0000362119899364
 24
130.6249900073708
 34
0.0
 50
269.9999999999997
100
AcDbRotatedDimension
  0
ENDBLK
  5
1C672
330
1C66F
100
AcDbEntity
  8
0
 48
50.0
100
AcDbBlockEnd
  0
BLOCK
  5
1C681
330
1C673
100
AcDbEntity
  8
0
 48
50.0
100
AcDbBlockBegin
  2
A$C1453373C
 70
     0
 10
0.0
 20
0.0
 30
0.0
  3
A$C1453373C
  1

  0
LINE
  5
1C674
330
1C673
100
AcDbEntity
  8
細線
 48
50.0
100
AcDbLine
 10
0.0000320991093758
 20
38.00000861102308
 30
0.0
 11
1457.400032099118
 21
38.00000861102671
 31
0.0
  0
LINE
  5
1C675
330
1C673
100
AcDbEntity
  8
細線
 48
50.0
100
AcDbLine
 10
0.0000320991093758
 20
16.00000861102307
 30
0.0
 11
1457.40003209911
 21
16.00000861102671
 31
0.0
  0
LINE
  5
1C676
330
1C673
100
AcDbEntity
  8
細線
 48
50.0
100
AcDbLine
 10
0.0000320991093758
 20
38.00000861102308
 30
0.0
 11
0.0000320991093758
 21
16.00000861102307
 31
0.0
  0
LINE
  5
1C677
330
1C673
100
AcDbEntity
  8
細線
 48
50.0
100
AcDbLine
 10
138.000032099102
 20
16.00000861102671
 30
0.0
 11
138.0000320991166
 21
0.0000086110267148
 31
0.0
  0
LINE
  5
1C678
330
1C673
100
AcDbEntity
  8
細線
 48
50.0
100
AcDbLine
 10
158.000032099102
 20
16.00000861102671
 30
0.0
 11
158.0000320991166
 21
0.0000086110267148
 31
0.0
  0
LINE
  5
1C679
330
1C673
100
AcDbEntity
  8
細線
 48
50.0
100
AcDbLine
 10
138.0000320991166
 20
0.0000086110267148
 30
0.0
 11
158.0000320991166
 21
0.0000086110230768
 31
0.0
  0
LINE
  5
1C67A
330
1C673
100
AcDbEntity
  8
細線
 48
50.0
100
AcDbLine
 10
765.7000320991137
 20
16.00000861103035
 30
0.0
 11
765.7000320991137
 21
0.0000086110267148
 31
0.0
  0
LINE
  5
1C67B
330
1C673
100
AcDbEntity
  8
細線
 48
50.0
100
AcDbLine
 10
785.7000320991065
 20
16.00000861102671
 30
0.0
 11
785.7000320990992
 21
0.0000086110303528
 31
0.0
  0
LINE
  5
1C67C
330
1C673
100
AcDbEntity
  8
細線
 48
50.0
100
AcDbLine
 10
765.7000320991137
 20
0.0000086110230768
 30
0.0
 11
785.7000320990992
 21
0.0000086110230768
 31
0.0
  0
LINE
  5
1C67D
330
1C673
100
AcDbEntity
  8
細線
 48
50.0
100
AcDbLine
 10
1362.40003209911
 20
0.0000086110230768
 30
0.0
 11
1382.400032099118
 21
0.0000086110230768
 31
0.0
  0
LINE
  5
1C67E
330
1C673
100
AcDbEntity
  8
細線
 48
50.0
100
AcDbLine
 10
1362.400032099103
 20
16.00000861102671
 30
0.0
 11
1362.40003209911
 21
0.0000086110267148
 31
0.0
  0
LINE
  5
1C67F
330
1C673
100
AcDbEntity
  8
細線
 48
50.0
100
AcDbLine
 10
1382.40003209911
 20
16.00000861102307
 30
0.0
 11
1382.400032099118
 21
0.0000086110267148
 31
0.0
  0
LINE
  5
1C680
330
1C673
100
AcDbEntity
  8
細線
 48
50.0
100
AcDbLine
 10
1457.400032099118
 20
38.00000861102671
 30
0.0
 11
1457.40003209911
 21
16.00000861102671
 31
0.0
  0
ENDBLK
  5
1C682
330
1C673
100
AcDbEntity
  8
0
 48
50.0
100
AcDbBlockEnd
  0
BLOCK
  5
1C9F2
330
1C96D
100
AcDbEntity
  8
0
 48
50.0
100
AcDbBlockBegin
  2
*D43
 70
     1
 10
0.0
 20
0.0
 30
0.0
  3
*D43
  1

  0
LINE
  5
1CAF4
330
1C96D
100
AcDbEntity
  8
寸法
 62
     0
 48
50.0
100
AcDbLine
 10
7327.829581418166
 20
11218.73679736201
 30
0.0
 11
8596.033355093791
 21
11218.73679736201
 31
0.0
  0
LINE
  5
1CAF5
330
1C96D
100
AcDbEntity
  8
寸法
 62
     0
 48
50.0
100
AcDbLine
 10
8521.03335509379
 20
10148.73679736201
 30
0.0
 11
8521.03335509379
 21
11218.73679736201
 31
0.0
  0
INSERT
  5
1CAF6
330
1C96D
100
AcDbEntity
  8
寸法
 62
     0
 48
50.0
100
AcDbBlockReference
  2
_DOTSMALL
 10
8521.03335509379
 20
10148.73679736201
 30
0.0
 41
125.0
 42
125.0
 43
125.0
 50
270.0
  0
INSERT
  5
1CAF7
330
1C96D
100
AcDbEntity
  8
寸法
 62
     0
 48
50.0
100
AcDbBlockReference
  2
_DOTSMALL
 10
8521.03335509379
 20
11218.73679736201
 30
0.0
 41
125.0
 42
125.0
 43
125.0
 50
90.0
  0
MTEXT
  5
1CAF8
330
1C96D
100
AcDbEntity
  8
寸法
 62
     7
 48
50.0
100
AcDbMText
 10
8421.033355093788
 20
10683.73679736201
 30
0.0
 40
150.0
 41
0.0
 71
     5
 72
     1
  1
\A1;1070
  7
STYLE1
 11
0.0000000000000001
 21
1.0
 31
0.0
 73
     1
 44
1.0
  0
POINT
  5
1CAF9
330
1C96D
100
AcDbEntity
  8
DEFPOINTS
 62
     0
 48
50.0
100
AcDbPoint
 10
7302.829581418174
 20
10148.73679736201
 30
0.0
  0
POINT
  5
1CAFA
330
1C96D
100
AcDbEntity
  8
DEFPOINTS
 62
     0
 48
50.0
100
AcDbPoint
 10
7302.829581418166
 20
11218.73679736201
 30
0.0
  0
POINT
  5
1CAFB
330
1C96D
100
AcDbEntity
  8
DEFPOINTS
 62
     0
 48
50.0
100
AcDbPoint
 10
8521.03335509379
 20
11218.73679736201
 30
0.0
  0
ENDBLK
  5
1C9FB
330
1C96D
100
AcDbEntity
  8
0
 48
50.0
100
AcDbBlockEnd
  0
BLOCK
  5
1C9FC
330
1C978
100
AcDbEntity
  8
0
 48
50.0
100
AcDbBlockBegin
  2
*D44
 70
     1
 10
0.0
 20
0.0
 30
0.0
  3
*D44
  1

  0
LINE
  5
1C9FD
330
1C978
100
AcDbEntity
  8
0
  6
ByBlock
 62
     0
 48
50.0
100
AcDbLine
 10
7327.829581418175
 20
9363.736797362014
 30
0.0
 11
8596.033355093791
 21
9363.736797362014
 31
0.0
  0
LINE
  5
1C9FE
330
1C978
100
AcDbEntity
  8
0
  6
ByBlock
 62
     0
 48
50.0
100
AcDbLine
 10
7327.829581418175
 20
10148.73679736201
 30
0.0
 11
8596.033355093791
 21
10148.73679736201
 31
0.0
  0
LINE
  5
1C9FF
330
1C978
100
AcDbEntity
  8
0
  6
ByBlock
 62
     0
 48
50.0
100
AcDbLine
 10
8521.03335509379
 20
9363.736797362014
 30
0.0
 11
8521.03335509379
 21
10148.73679736201
 31
0.0
  0
INSERT
  5
1CA00
330
1C978
100
AcDbEntity
  8
0
  6
ByBlock
 62
     0
 48
50.0
100
AcDbBlockReference
  2
_DOTSMALL
 10
8521.03335509379
 20
9363.736797362014
 30
0.0
 41
125.0
 42
125.0
 43
125.0
 50
270.0
  0
INSERT
  5
1CA01
330
1C978
100
AcDbEntity
  8
0
  6
ByBlock
 62
     0
 48
50.0
100
AcDbBlockReference
  2
_DOTSMALL
 10
8521.03335509379
 20
10148.73679736201
 30
0.0
 41
125.0
 42
125.0
 43
125.0
 50
90.0
  0
MTEXT
  5
1CA02
330
1C978
100
AcDbEntity
  8
0
  6
ByBlock
 62
     7
 48
50.0
100
AcDbMText
 10
8421.03335509379
 20
9756.236797362015
 30
0.0
 40
150.0
 41
0.0
 71
     5
 72
     1
  1
\A1;785
  7
STYLE1
 11
0.0000000000000001
 21
1.0
 31
0.0
 73
     1
 44
1.0
  0
POINT
  5
1CA03
330
1C978
100
AcDbEntity
  8
DEFPOINTS
  6
ByBlock
 62
     0
 48
50.0
100
AcDbPoint
 10
7302.829581418174
 20
9363.736797362014
 30
0.0
  0
POINT
  5
1CA04
330
1C978
100
AcDbEntity
  8
DEFPOINTS
  6
ByBlock
 62
     0
 48
50.0
100
AcDbPoint
 10
7302.829581418174
 20
10148.73679736201
 30
0.0
  0
POINT
  5
1CA05
330
1C978
100
AcDbEntity
  8
DEFPOINTS
  6
ByBlock
 62
     0
 48
50.0
100
AcDbPoint
 10
8521.03335509379
 20
10148.73679736201
 30
0.0
  0
ENDBLK
  5
1CA06
330
1C978
100
AcDbEntity
  8
0
 48
50.0
100
AcDbBlockEnd
  0
BLOCK
  5
1CA07
330
1C984
100
AcDbEntity
  8
0
 48
50.0
100
AcDbBlockBegin
  2
*D45
 70
     1
 10
0.0
 20
0.0
 30
0.0
  3
*D45
  1

  0
LINE
  5
1CA08
330
1C984
100
AcDbEntity
  8
0
  6
ByBlock
 62
     0
 48
50.0
100
AcDbLine
 10
7437.829581418174
 20
11658.73679736201
 30
0.0
 11
7437.829581418174
 21
12402.01792807853
 31
0.0
  0
LINE
  5
1CA09
330
1C984
100
AcDbEntity
  8
0
  6
ByBlock
 62
     0
 48
50.0
100
AcDbLine
 10
7302.829581418174
 20
11656.29728927313
 30
0.0
 11
7302.829581418174
 21
12402.01792807853
 31
0.0
  0
LINE
  5
1CA0A
330
1C984
100
AcDbEntity
  8
0
  6
ByBlock
 62
     0
 48
50.0
100
AcDbLine
 10
7302.829581418174
 20
12327.01792807854
 30
0.0
 11
7437.829581418174
 21
12327.01792807854
 31
0.0
  0
LINE
  5
1CA0B
330
1C984
100
AcDbEntity
  8
0
  6
ByBlock
 62
     0
 48
50.0
100
AcDbLine
 10
7437.829581418174
 20
12327.01792807854
 30
0.0
 11
7868.495238254088
 21
12327.01792807854
 31
0.0
  0
INSERT
  5
1CA0C
330
1C984
100
AcDbEntity
  8
0
  6
ByBlock
 62
     0
 48
50.0
100
AcDbBlockReference
  2
_DOTSMALL
 10
7302.829581418174
 20
12327.01792807854
 30
0.0
 41
125.0
 42
125.0
 43
125.0
 50
180.0
  0
INSERT
  5
1CA0D
330
1C984
100
AcDbEntity
  8
0
  6
ByBlock
 62
     0
 48
50.0
100
AcDbBlockReference
  2
_DOTSMALL
 10
7437.829581418174
 20
12327.01792807854
 30
0.0
 41
125.0
 42
125.0
 43
125.0
  0
MTEXT
  5
1CA0E
330
1C984
100
AcDbEntity
  8
0
  6
ByBlock
 62
     7
 48
50.0
100
AcDbMText
 10
7720.388636536289
 20
12427.01792807854
 30
0.0
 40
150.0
 41
0.0
 71
     5
 72
     1
  1
\A1;135
  7
STYLE1
 73
     1
 44
1.0
  0
POINT
  5
1CA0F
330
1C984
100
AcDbEntity
  8
DEFPOINTS
  6
ByBlock
 62
     0
 48
50.0
100
AcDbPoint
 10
7437.829581418174
 20
11633.73679736201
 30
0.0
  0
POINT
  5
1CA10
330
1C984
100
AcDbEntity
  8
DEFPOINTS
  6
ByBlock
 62
     0
 48
50.0
100
AcDbPoint
 10
7302.829581418174
 20
11631.29728927313
 30
0.0
  0
POINT
  5
1CA11
330
1C984
100
AcDbEntity
  8
DEFPOINTS
  6
ByBlock
 62
     0
 48
50.0
100
AcDbPoint
 10
7302.829581418174
 20
12327.01792807854
 30
0.0
  0
ENDBLK
  5
1CA12
330
1C984
100
AcDbEntity
  8
0
 48
50.0
100
AcDbBlockEnd
  0
BLOCK
  5
1CA13
330
1C991
100
AcDbEntity
  8
0
 48
50.0
100
AcDbBlockBegin
  2
*D46
 70
     1
 10
0.0
 20
0.0
 30
0.0
  3
*D46
  1

  0
LINE
  5
1CA14
330
1C991
100
AcDbEntity
  8
0
  6
ByBlock
 62
     0
 48
50.0
100
AcDbLine
 10
8546.033355093797
 20
9418.736797362015
 30
0.0
 11
8928.235356238893
 21
9418.736797362015
 31
0.0
  0
LINE
  5
1CA15
330
1C991
100
AcDbEntity
  8
0
  6
ByBlock
 62
     0
 48
50.0
100
AcDbLine
 10
7327.829581418175
 20
9363.736797362014
 30
0.0
 11
8928.235356238893
 21
9363.736797362014
 31
0.0
  0
LINE
  5
1CA16
330
1C991
100
AcDbEntity
  8
0
  6
ByBlock
 62
     0
 48
50.0
100
AcDbLine
 10
8853.235356238894
 20
9418.736797362015
 30
0.0
 11
8853.235356238894
 21
9363.736797362014
 31
0.0
  0
LINE
  5
1CA17
330
1C991
100
AcDbEntity
  8
0
  6
ByBlock
 62
     0
 48
50.0
100
AcDbLine
 10
8853.235356238894
 20
9363.736797362014
 30
0.0
 11
8853.235356238894
 21
8998.065646709974
 31
0.0
  0
INSERT
  5
1CA18
330
1C991
100
AcDbEntity
  8
0
  6
ByBlock
 62
     0
 48
50.0
100
AcDbBlockReference
  2
_DOTSMALL
 10
8853.235356238894
 20
9418.736797362015
 30
0.0
 41
125.0
 42
125.0
 43
125.0
 50
90.0
  0
INSERT
  5
1CA19
330
1C991
100
AcDbEntity
  8
0
  6
ByBlock
 62
     0
 48
50.0
100
AcDbBlockReference
  2
_DOTSMALL
 10
8853.235356238894
 20
9363.736797362014
 30
0.0
 41
125.0
 42
125.0
 43
125.0
 50
270.0
  0
MTEXT
  5
1CA1A
330
1C991
100
AcDbEntity
  8
0
  6
ByBlock
 62
     7
 48
50.0
100
AcDbMText
 10
8753.235356238894
 20
9108.672248427772
 30
0.0
 40
150.0
 41
0.0
 71
     5
 72
     1
  1
\A1;55
  7
STYLE1
 11
0.0000000000000001
 21
1.0
 31
0.0
 73
     1
 44
1.0
  0
POINT
  5
1CA1B
330
1C991
100
AcDbEntity
  8
DEFPOINTS
  6
ByBlock
 62
     0
 48
50.0
100
AcDbPoint
 10
8521.033355093797
 20
9418.736797362015
 30
0.0
  0
POINT
  5
1CA1C
330
1C991
100
AcDbEntity
  8
DEFPOINTS
  6
ByBlock
 62
     0
 48
50.0
100
AcDbPoint
 10
7302.829581418174
 20
9363.736797362014
 30
0.0
  0
POINT
  5
1CA1D
330
1C991
100
AcDbEntity
  8
DEFPOINTS
  6
ByBlock
 62
     0
 48
50.0
100
AcDbPoint
 10
8853.235356238894
 20
9363.736797362014
 30
0.0
  0
ENDBLK
  5
1CA1E
330
1C991
100
AcDbEntity
  8
0
 48
50.0
100
AcDbBlockEnd
  0
BLOCK
  5
1CA1F
330
1C99E
100
AcDbEntity
  8
0
 48
50.0
100
AcDbBlockBegin
  2
*D47
 70
     1
 10
0.0
 20
0.0
 30
0.0
  3
*D47
  1

  0
LINE
  5
1CA20
330
1C99E
100
AcDbEntity
  8
0
  6
ByBlock
 62
     0
 48
50.0
100
AcDbLine
 10
7462.829581418181
 20
11633.73679736201
 30
0.0
 11
9262.490021403351
 21
11633.73679736201
 31
0.0
  0
LINE
  5
1CA21
330
1C99E
100
AcDbEntity
  8
0
  6
ByBlock
 62
     0
 48
50.0
100
AcDbLine
 10
7327.829581418175
 20
9363.736797362014
 30
0.0
 11
9262.490021403351
 21
9363.736797362014
 31
0.0
  0
LINE
  5
1CA22
330
1C99E
100
AcDbEntity
  8
0
  6
ByBlock
 62
     0
 48
50.0
100
AcDbLine
 10
9187.490021403352
 20
11633.73679736201
 30
0.0
 11
9187.490021403352
 21
9363.736797362014
 31
0.0
  0
INSERT
  5
1CA23
330
1C99E
100
AcDbEntity
  8
0
  6
ByBlock
 62
     0
 48
50.0
100
AcDbBlockReference
  2
_DOTSMALL
 10
9187.490021403352
 20
11633.73679736201
 30
0.0
 41
125.0
 42
125.0
 43
125.0
 50
90.0
  0
INSERT
  5
1CA24
330
1C99E
100
AcDbEntity
  8
0
  6
ByBlock
 62
     0
 48
50.0
100
AcDbBlockReference
  2
_DOTSMALL
 10
9187.490021403352
 20
9363.736797362014
 30
0.0
 41
125.0
 42
125.0
 43
125.0
 50
270.0
  0
MTEXT
  5
1CA25
330
1C99E
100
AcDbEntity
  8
0
  6
ByBlock
 62
     7
 48
50.0
100
AcDbMText
 10
9087.475257623825
 20
10498.73679736201
 30
0.0
 40
150.0
 41
0.0
 71
     5
 72
     1
  1
\A1;2270
  7
STYLE1
 11
0.0000000000000001
 21
1.0
 31
0.0
 73
     1
 44
1.0
  0
POINT
  5
1CA26
330
1C99E
100
AcDbEntity
  8
DEFPOINTS
  6
ByBlock
 62
     0
 48
50.0
100
AcDbPoint
 10
7437.829581418181
 20
11633.73679736201
 30
0.0
  0
POINT
  5
1CA27
330
1C99E
100
AcDbEntity
  8
DEFPOINTS
  6
ByBlock
 62
     0
 48
50.0
100
AcDbPoint
 10
7302.829581418174
 20
9363.736797362014
 30
0.0
  0
POINT
  5
1CA28
330
1C99E
100
AcDbEntity
  8
DEFPOINTS
  6
ByBlock
 62
     0
 48
50.0
100
AcDbPoint
 10
9187.490021403352
 20
9363.736797362014
 30
0.0
  0
ENDBLK
  5
1CA29
330
1C99E
100
AcDbEntity
  8
0
 48
50.0
100
AcDbBlockEnd
  0
BLOCK
  5
1CA2A
330
1C9AA
100
AcDbEntity
  8
0
 48
50.0
100
AcDbBlockBegin
  2
*D48
 70
     1
 10
0.0
 20
0.0
 30
0.0
  3
*D48
  1

  0
LINE
  5
1CA2B
330
1C9AA
100
AcDbEntity
  8
0
  6
ByBlock
 62
     0
 48
50.0
100
AcDbLine
 10
7327.829581418175
 20
11363.73679736201
 30
0.0
 11
8928.235356238893
 21
11363.73679736201
 31
0.0
  0
LINE
  5
1CA2C
330
1C9AA
100
AcDbEntity
  8
0
  6
ByBlock
 62
     0
 48
50.0
100
AcDbLine
 10
8546.033355093797
 20
9418.736797362015
 30
0.0
 11
8928.235356238893
 21
9418.736797362015
 31
0.0
  0
LINE
  5
1CA2D
330
1C9AA
100
AcDbEntity
  8
0
  6
ByBlock
 62
     0
 48
50.0
100
AcDbLine
 10
8853.235356238894
 20
11363.73679736201
 30
0.0
 11
8853.235356238894
 21
9418.736797362015
 31
0.0
  0
INSERT
  5
1CA2E
330
1C9AA
100
AcDbEntity
  8
0
  6
ByBlock
 62
     0
 48
50.0
100
AcDbBlockReference
  2
_DOTSMALL
 10
8853.235356238894
 20
11363.73679736201
 30
0.0
 41
125.0
 42
125.0
 43
125.0
 50
90.0
  0
INSERT
  5
1CA2F
330
1C9AA
100
AcDbEntity
  8
0
  6
ByBlock
 62
     0
 48
50.0
100
AcDbBlockReference
  2
_DOTSMALL
 10
8853.235356238894
 20
9418.736797362015
 30
0.0
 41
125.0
 42
125.0
 43
125.0
 50
270.0
  0
MTEXT
  5
1CA30
330
1C9AA
100
AcDbEntity
  8
0
  6
ByBlock
 62
     7
 48
50.0
100
AcDbMText
 10
8753.235356238894
 20
10391.23679736201
 30
0.0
 40
150.0
 41
0.0
 71
     5
 72
     1
  1
\A1;1945
  7
STYLE1
 11
0.0000000000000001
 21
1.0
 31
0.0
 73
     1
 44
1.0
  0
POINT
  5
1CA31
330
1C9AA
100
AcDbEntity
  8
DEFPOINTS
  6
ByBlock
 62
     0
 48
50.0
100
AcDbPoint
 10
7302.829581418174
 20
11363.73679736201
 30
0.0
  0
POINT
  5
1CA32
330
1C9AA
100
AcDbEntity
  8
DEFPOINTS
  6
ByBlock
 62
     0
 48
50.0
100
AcDbPoint
 10
8521.033355093797
 20
9418.736797362015
 30
0.0
  0
POINT
  5
1CA33
330
1C9AA
100
AcDbEntity
  8
DEFPOINTS
  6
ByBlock
 62
     0
 48
50.0
100
AcDbPoint
 10
8853.235356238894
 20
9418.736797362015
 30
0.0
  0
ENDBLK
  5
1CA34
330
1C9AA
100
AcDbEntity
  8
0
 48
50.0
100
AcDbBlockEnd
  0
BLOCK
  5
1CA35
330
1C9B6
100
AcDbEntity
  8
0
 48
50.0
100
AcDbBlockBegin
  2
*D49
 70
     1
 10
0.0
 20
0.0
 30
0.0
  3
*D49
  1

  0
LINE
  5
1CAFC
330
1C9B6
100
AcDbEntity
  8
寸法
 62
     0
 48
50.0
100
AcDbLine
 10
6002.829581418174
 20
11601.36318119764
 30
0.0
 11
6002.829581418174
 21
12402.01792807853
 31
0.0
  0
LINE
  5
1CAFD
330
1C9B6
100
AcDbEntity
  8
寸法
 62
     0
 48
50.0
100
AcDbLine
 10
7302.829581418174
 20
12327.01792807853
 30
0.0
 11
6002.829581418174
 21
12327.01792807853
 31
0.0
  0
INSERT
  5
1CAFE
330
1C9B6
100
AcDbEntity
  8
寸法
 62
     0
 48
50.0
100
AcDbBlockReference
  2
_DOTSMALL
 10
7302.829581418174
 20
12327.01792807853
 30
0.0
 41
125.0
 42
125.0
 43
125.0
  0
INSERT
  5
1CAFF
330
1C9B6
100
AcDbEntity
  8
寸法
 62
     0
 48
50.0
100
AcDbBlockReference
  2
_DOTSMALL
 10
6002.829581418174
 20
12327.01792807853
 30
0.0
 41
125.0
 42
125.0
 43
125.0
 50
180.0
  0
MTEXT
  5
1CB00
330
1C9B6
100
AcDbEntity
  8
寸法
 62
     7
 48
50.0
100
AcDbMText
 10
6652.829581418174
 20
12427.01792807853
 30
0.0
 40
150.0
 41
0.0
 71
     5
 72
     1
  1
\A1;柱外寸法 1300
  7
STYLE1
 73
     1
 44
1.0
  0
POINT
  5
1CB01
330
1C9B6
100
AcDbEntity
  8
DEFPOINTS
 62
     0
 48
50.0
100
AcDbPoint
 10
7302.829581418174
 20
11588.73679736201
 30
0.0
  0
POINT
  5
1CB02
330
1C9B6
100
AcDbEntity
  8
DEFPOINTS
 62
     0
 48
50.0
100
AcDbPoint
 10
6002.829581418174
 20
11576.36318119764
 30
0.0
  0
POINT
  5
1CB03
330
1C9B6
100
AcDbEntity
  8
DEFPOINTS
 62
     0
 48
50.0
100
AcDbPoint
 10
6002.829581418174
 20
12327.01792807853
 30
0.0
  0
ENDBLK
  5
1CA3E
330
1C9B6
100
AcDbEntity
  8
0
 48
50.0
100
AcDbBlockEnd
  0
BLOCK
  5
1CA3F
330
1C9C1
100
AcDbEntity
  8
0
 48
50.0
100
AcDbBlockBegin
  2
*D50
 70
     1
 10
0.0
 20
0.0
 30
0.0
  3
*D50
  1

  0
LINE
  5
1CA40
330
1C9C1
100
AcDbEntity
  8
0
  6
ByBlock
 62
     0
 48
50.0
100
AcDbLine
 10
7437.829581418174
 20
11658.73679736201
 30
0.0
 11
7437.829581418174
 21
12718.17369887019
 31
0.0
  0
LINE
  5
1CA41
330
1C9C1
100
AcDbEntity
  8
0
  6
ByBlock
 62
     0
 48
50.0
100
AcDbLine
 10
5907.829581418173
 20
11598.73679736201
 30
0.0
 11
5907.829581418173
 21
12718.17369887019
 31
0.0
  0
LINE
  5
1CA42
330
1C9C1
100
AcDbEntity
  8
0
  6
ByBlock
 62
     0
 48
50.0
100
AcDbLine
 10
7437.829581418174
 20
12643.17369887019
 30
0.0
 11
5907.829581418173
 21
12643.17369887019
 31
0.0
  0
INSERT
  5
1CA43
330
1C9C1
100
AcDbEntity
  8
0
  6
ByBlock
 62
     0
 48
50.0
100
AcDbBlockReference
  2
_DOTSMALL
 10
7437.829581418174
 20
12643.17369887019
 30
0.0
 41
125.0
 42
125.0
 43
125.0
  0
INSERT
  5
1CA44
330
1C9C1
100
AcDbEntity
  8
0
  6
ByBlock
 62
     0
 48
50.0
100
AcDbBlockReference
  2
_DOTSMALL
 10
5907.829581418173
 20
12643.17369887019
 30
0.0
 41
125.0
 42
125.0
 43
125.0
 50
180.0
  0
MTEXT
  5
1CA45
330
1C9C1
100
AcDbEntity
  8
0
  6
ByBlock
 62
     7
 48
50.0
100
AcDbMText
 10
6672.829581418174
 20
12743.17369887019
 30
0.0
 40
150.0
 41
0.0
 71
     5
 72
     1
  1
\A1;1530
  7
STYLE1
 73
     1
 44
1.0
  0
POINT
  5
1CA46
330
1C9C1
100
AcDbEntity
  8
DEFPOINTS
  6
ByBlock
 62
     0
 48
50.0
100
AcDbPoint
 10
7437.829581418174
 20
11633.73679736201
 30
0.0
  0
POINT
  5
1CA47
330
1C9C1
100
AcDbEntity
  8
DEFPOINTS
  6
ByBlock
 62
     0
 48
50.0
100
AcDbPoint
 10
5907.829581418173
 20
11573.73679736201
 30
0.0
  0
POINT
  5
1CA48
330
1C9C1
100
AcDbEntity
  8
DEFPOINTS
  6
ByBlock
 62
     0
 48
50.0
100
AcDbPoint
 10
5907.829581418173
 20
12643.17369887019
 30
0.0
  0
ENDBLK
  5
1CA49
330
1C9C1
100
AcDbEntity
  8
0
 48
50.0
100
AcDbBlockEnd
  0
BLOCK
  5
1CA4A
330
1C9CD
100
AcDbEntity
  8
0
 48
50.0
100
AcDbBlockBegin
  2
*D51
 70
     1
 10
0.0
 20
0.0
 30
0.0
  3
*D51
  1

  0
LINE
  5
1CA4B
330
1C9CD
100
AcDbEntity
  8
0
  6
ByBlock
 62
     0
 48
50.0
100
AcDbLine
 10
6002.829581418174
 20
11601.36318119764
 30
0.0
 11
6002.829581418174
 21
12402.01792807853
 31
0.0
  0
LINE
  5
1CA4C
330
1C9CD
100
AcDbEntity
  8
0
  6
ByBlock
 62
     0
 48
50.0
100
AcDbLine
 10
5907.829581418173
 20
11598.73679736201
 30
0.0
 11
5907.829581418173
 21
12402.01792807853
 31
0.0
  0
LINE
  5
1CA4D
330
1C9CD
100
AcDbEntity
  8
0
  6
ByBlock
 62
     0
 48
50.0
100
AcDbLine
 10
6002.829581418174
 20
12327.01792807853
 30
0.0
 11
5907.829581418173
 21
12327.01792807853
 31
0.0
  0
LINE
  5
1CA4E
330
1C9CD
100
AcDbEntity
  8
0
  6
ByBlock
 62
     0
 48
50.0
100
AcDbLine
 10
5907.829581418173
 20
12327.01792807853
 30
0.0
 11
5461.557322864469
 21
12327.01792807853
 31
0.0
  0
INSERT
  5
1CA4F
330
1C9CD
100
AcDbEntity
  8
0
  6
ByBlock
 62
     0
 48
50.0
100
AcDbBlockReference
  2
_DOTSMALL
 10
6002.829581418174
 20
12327.01792807853
 30
0.0
 41
125.0
 42
125.0
 43
125.0
  0
INSERT
  5
1CA50
330
1C9CD
100
AcDbEntity
  8
0
  6
ByBlock
 62
     0
 48
50.0
100
AcDbBlockReference
  2
_DOTSMALL
 10
5907.829581418173
 20
12327.01792807853
 30
0.0
 41
125.0
 42
125.0
 43
125.0
 50
180.0
  0
MTEXT
  5
1CA51
330
1C9CD
100
AcDbEntity
  8
0
  6
ByBlock
 62
     7
 48
50.0
100
AcDbMText
 10
5575.270526300066
 20
12427.01792807853
 30
0.0
 40
150.0
 41
0.0
 71
     5
 72
     1
  1
\A1;95
  7
STYLE1
 73
     1
 44
1.0
  0
POINT
  5
1CA52
330
1C9CD
100
AcDbEntity
  8
DEFPOINTS
  6
ByBlock
 62
     0
 48
50.0
100
AcDbPoint
 10
6002.829581418174
 20
11576.36318119764
 30
0.0
  0
POINT
  5
1CA53
330
1C9CD
100
AcDbEntity
  8
DEFPOINTS
  6
ByBlock
 62
     0
 48
50.0
100
AcDbPoint
 10
5907.829581418173
 20
11573.73679736201
 30
0.0
  0
POINT
  5
1CA54
330
1C9CD
100
AcDbEntity
  8
DEFPOINTS
  6
ByBlock
 62
     0
 48
50.0
100
AcDbPoint
 10
5907.829581418173
 20
12327.01792807853
 30
0.0
  0
ENDBLK
  5
1CA55
330
1C9CD
100
AcDbEntity
  8
0
 48
50.0
100
AcDbBlockEnd
  0
BLOCK
  5
1CA56
330
1C9DA
100
AcDbEntity
  8
0
 48
50.0
100
AcDbBlockBegin
  2
*D52
 70
     1
 10
0.0
 20
0.0
 30
0.0
  3
*D52
  1

  0
LINE
  5
1CA57
330
1C9DA
100
AcDbEntity
  8
0
  6
ByBlock
 62
     0
 48
50.0
100
AcDbLine
 10
5977.829581418173
 20
9363.736797362014
 30
0.0
 11
4303.587517088181
 21
9363.736797362014
 31
0.0
  0
LINE
  5
1CA58
330
1C9DA
100
AcDbEntity
  8
0
  6
ByBlock
 62
     0
 48
50.0
100
AcDbLine
 10
5882.829581418174
 20
11573.73679736201
 30
0.0
 11
4303.587517088181
 21
11573.73679736201
 31
0.0
  0
LINE
  5
1CA59
330
1C9DA
100
AcDbEntity
  8
0
  6
ByBlock
 62
     0
 48
50.0
100
AcDbLine
 10
4378.587517088181
 20
9363.736797362014
 30
0.0
 11
4378.587517088181
 21
11573.73679736201
 31
0.0
  0
INSERT
  5
1CA5A
330
1C9DA
100
AcDbEntity
  8
0
  6
ByBlock
 62
     0
 48
50.0
100
AcDbBlockReference
  2
_DOTSMALL
 10
4378.587517088181
 20
9363.736797362014
 30
0.0
 41
125.0
 42
125.0
 43
125.0
 50
270.0
  0
INSERT
  5
1CA5B
330
1C9DA
100
AcDbEntity
  8
0
  6
ByBlock
 62
     0
 48
50.0
100
AcDbBlockReference
  2
_DOTSMALL
 10
4378.587517088181
 20
11573.73679736201
 30
0.0
 41
125.0
 42
125.0
 43
125.0
 50
90.0
  0
MTEXT
  5
1CA5C
330
1C9DA
100
AcDbEntity
  8
0
  6
ByBlock
 62
     7
 48
50.0
100
AcDbMText
 10
4278.572753308655
 20
10468.73679736201
 30
0.0
 40
150.0
 41
0.0
 71
     5
 72
     1
  1
\A1;2210
  7
STYLE1
 11
0.0000000000000001
 21
1.0
 31
0.0
 73
     1
 44
1.0
  0
POINT
  5
1CA5D
330
1C9DA
100
AcDbEntity
  8
DEFPOINTS
  6
ByBlock
 62
     0
 48
50.0
100
AcDbPoint
 10
6002.829581418174
 20
9363.736797362014
 30
0.0
  0
POINT
  5
1CA5E
330
1C9DA
100
AcDbEntity
  8
DEFPOINTS
  6
ByBlock
 62
     0
 48
50.0
100
AcDbPoint
 10
5907.829581418173
 20
11573.73679736201
 30
0.0
  0
POINT
  5
1CA5F
330
1C9DA
100
AcDbEntity
  8
DEFPOINTS
  6
ByBlock
 62
     0
 48
50.0
100
AcDbPoint
 10
4378.587517088181
 20
11573.73679736201
 30
0.0
  0
ENDBLK
  5
1CA60
330
1C9DA
100
AcDbEntity
  8
0
 48
50.0
100
AcDbBlockEnd
  0
BLOCK
  5
1CA61
330
1C9E6
100
AcDbEntity
  8
0
 48
50.0
100
AcDbBlockBegin
  2
*D53
 70
     1
 10
0.0
 20
0.0
 30
0.0
  3
*D53
  1

  0
LINE
  5
1CA62
330
1C9E6
100
AcDbEntity
  8
0
  6
ByBlock
 62
     0
 48
50.0
100
AcDbLine
 10
6013.329581418173
 20
9430.736797362014
 30
0.0
 11
4616.549246176572
 21
9430.736797362014
 31
0.0
  0
LINE
  5
1CA63
330
1C9E6
100
AcDbEntity
  8
0
  6
ByBlock
 62
     0
 48
50.0
100
AcDbLine
 10
5977.829581418173
 20
11390.73679736201
 30
0.0
 11
4616.549246176572
 21
11390.73679736201
 31
0.0
  0
LINE
  5
1CA64
330
1C9E6
100
AcDbEntity
  8
0
  6
ByBlock
 62
     0
 48
50.0
100
AcDbLine
 10
4691.549246176572
 20
9430.736797362014
 30
0.0
 11
4691.549246176572
 21
11390.73679736201
 31
0.0
  0
INSERT
  5
1CA65
330
1C9E6
100
AcDbEntity
  8
0
  6
ByBlock
 62
     0
 48
50.0
100
AcDbBlockReference
  2
_DOTSMALL
 10
4691.549246176572
 20
9430.736797362014
 30
0.0
 41
125.0
 42
125.0
 43
125.0
 50
270.0
  0
INSERT
  5
1CA66
330
1C9E6
100
AcDbEntity
  8
0
  6
ByBlock
 62
     0
 48
50.0
100
AcDbBlockReference
  2
_DOTSMALL
 10
4691.549246176572
 20
11390.73679736201
 30
0.0
 41
125.0
 42
125.0
 43
125.0
 50
90.0
  0
MTEXT
  5
1CA67
330
1C9E6
100
AcDbEntity
  8
0
  6
ByBlock
 62
     7
 48
50.0
100
AcDbMText
 10
4591.549246176572
 20
10410.73679736201
 30
0.0
 40
150.0
 41
0.0
 71
     5
 72
     1
  1
\A1;内高 1960
  7
STYLE1
 11
0.0000000000000001
 21
1.0
 31
0.0
 73
     1
 44
1.0
  0
POINT
  5
1CA68
330
1C9E6
100
AcDbEntity
  8
DEFPOINTS
  6
ByBlock
 62
     0
 48
50.0
100
AcDbPoint
 10
6038.329581418174
 20
9430.736797362014
 30
0.0
  0
POINT
  5
1CA69
330
1C9E6
100
AcDbEntity
  8
DEFPOINTS
  6
ByBlock
 62
     0
 48
50.0
100
AcDbPoint
 10
6002.829581418174
 20
11390.73679736201
 30
0.0
  0
POINT
  5
1CA6A
330
1C9E6
100
AcDbEntity
  8
DEFPOINTS
  6
ByBlock
 62
     0
 48
50.0
100
AcDbPoint
 10
4691.549246176572
 20
11390.73679736201
 30
0.0
  0
ENDBLK
  5
1CA6B
330
1C9E6
100
AcDbEntity
  8
0
 48
50.0
100
AcDbBlockEnd
  0
ENDSEC
  0
SECTION
  2
ENTITIES
  0
LINE
  5
10B56
330
747D
100
AcDbEntity
  8
補助
  6
PHANTOM
 62
   230
 48
50.0
100
AcDbLine
 10
175.0
 20
0.0
 30
0.0
 11
174.9999999999993
 21
14262.0
 31
0.0
  0
LINE
  5
10B57
330
747D
100
AcDbEntity
  8
補助
  6
PHANTOM
 62
   230
 48
50.0
100
AcDbLine
 10
174.9999999999993
 20
14262.0
 30
0.0
 11
20384.0
 21
14262.0
 31
0.0
  0
LINE
  5
10B59
330
747D
100
AcDbEntity
  8
仕様書枠
  6
Continuous
 48
50.0
100
AcDbLine
 10
16384.0
 20
1500.0
 30
0.0
 11
16384.0
 21
0.0
 31
0.0
  0
LINE
  5
10B5C
330
747D
100
AcDbEntity
  8
仕様書枠
 48
50.0
100
AcDbLine
 10
20384.0
 20
1500.0
 30
0.0
 11
20384.0
 21
0.0
 31
0.0
  0
LINE
  5
10B5D
330
747D
100
AcDbEntity
  8
仕様書枠
 48
50.0
100
AcDbLine
 10
175.0
 20
0.0
 30
0.0
 11
20384.0
 21
-0.0000000000001137
 31
0.0
  0
LINE
  5
10B5E
330
747D
100
AcDbEntity
  8
補助
  6
PHANTOM
 62
   230
 48
50.0
100
AcDbLine
 10
20384.0
 20
14262.0
 30
0.0
 11
20384.0
 21
1500.0
 31
0.0
  0
LINE
  5
10B6C
330
747D
100
AcDbEntity
  8
仕様書枠
 48
50.0
100
AcDbLine
 10
16384.0
 20
1500.0
 30
0.0
 11
20384.0
 21
1500.0
 31
0.0
  0
LINE
  5
10B6D
330
747D
100
AcDbEntity
  8
補助
  6
PHANTOM
 62
   230
 48
50.0
100
AcDbLine
 10
16384.0
 20
14262.0
 30
0.0
 11
16384.0
 21
6000.0
 31
0.0
  0
LINE
  5
10B6F
330
747D
100
AcDbEntity
  8
補助
  6
PHANTOM
 62
   230
 48
50.0
100
AcDbLine
 10
16384.0
 20
6000.0
 30
0.0
 11
20384.0
 21
6000.0
 31
0.0
  0
LINE
  5
10B72
330
747D
100
AcDbEntity
  8
文字
 62
     7
 48
50.0
100
AcDbLine
 10
16484.0
 20
500.0
 30
0.0
 11
20284.0
 21
500.0
 31
0.0
  0
TEXT
  5
10B73
330
747D
100
AcDbEntity
  8
文字
 62
     7
 48
50.0
100
AcDbText
 10
16453.72382072112
 20
1118.863259287425
 30
0.0
 40
250.0
  1
外 形 図
  7
STYLE2
100
AcDbText
  0
TEXT
  5
10B74
330
747D
100
AcDbEntity
  8
文字
 62
     7
 48
50.0
100
AcDbText
 10
16501.79587498051
 20
596.5925826289068
 30
0.0
 40
200.0
  1
機種名
  7
STYLE2
100
AcDbText
  0
LINE
  5
10B7B
330
747D
100
AcDbEntity
  8
仕様書枠
 48
50.0
100
AcDbLine
 10
16384.0
 20
1000.0
 30
0.0
 11
17814.0
 21
1000.0
 31
0.0
  0
LINE
  5
10B88
330
747D
100
AcDbEntity
  8
仕様書枠
  6
Continuous
 48
50.0
100
AcDbLine
 10
17814.0
 20
1500.0
 30
0.0
 11
17814.0
 21
1000.0
 31
0.0
  0
TEXT
  5
16C77
330
747D
100
AcDbEntity
  8
部品1
100
AcDbText
 10
12813.95758927694
 20
7390.57103287466
 30
0.0
 40
225.0
  1
平面図
  7
STYLE2
100
AcDbText
  0
TEXT
  5
16C79
330
747D
100
AcDbEntity
  8
部品1
100
AcDbText
 10
12807.83460113165
 20
2220.514489657616
 30
0.0
 40
225.0
  1
正面図
  7
STYLE2
100
AcDbText
  0
LINE
  5
17269
330
747D
100
AcDbEntity
  8
部品1
100
AcDbLine
 10
12666.6040262278
 20
7709.831477053322
 30
0.0
 11
12666.6040262278
 21
7310.010941144101
 31
0.0
  0
LINE
  5
1726A
330
747D
100
AcDbEntity
  8
部品1
100
AcDbLine
 10
12666.6040262278
 20
7310.010941144101
 30
0.0
 11
13939.05513660853
 21
7310.010941144101
 31
0.0
  0
LINE
  5
1726B
330
747D
100
AcDbEntity
  8
部品1
100
AcDbLine
 10
13939.05513660853
 20
7310.010941144101
 30
0.0
 11
13939.05513660853
 21
7709.831477053322
 31
0.0
  0
LINE
  5
1726C
330
747D
100
AcDbEntity
  8
部品1
100
AcDbLine
 10
13939.05513660853
 20
7709.831477053322
 30
0.0
 11
12666.6040262278
 21
7709.831477053322
 31
0.0
  0
LINE
  5
1726E
330
747D
100
AcDbEntity
  8
部品1
100
AcDbLine
 10
12666.6040262278
 20
2526.8820778306
 30
0.0
 11
12666.6040262278
 21
2127.061541921379
 31
0.0
  0
LINE
  5
1726F
330
747D
100
AcDbEntity
  8
部品1
100
AcDbLine
 10
12666.6040262278
 20
2127.061541921379
 30
0.0
 11
13939.05513660853
 21
2127.061541921379
 31
0.0
  0
LINE
  5
17270
330
747D
100
AcDbEntity
  8
部品1
100
AcDbLine
 10
13939.05513660853
 20
2127.061541921379
 30
0.0
 11
13939.05513660853
 21
2526.8820778306
 31
0.0
  0
LINE
  5
17271
330
747D
100
AcDbEntity
  8
部品1
100
AcDbLine
 10
13939.05513660853
 20
2526.8820778306
 30
0.0
 11
12666.6040262278
 21
2526.8820778306
 31
0.0
  0
LINE
  5
1837B
330
747D
100
AcDbEntity
  8
部品1
 48
50.0
100
AcDbLine
 10
12652.82958141817
 20
10518.73679736201
 30
0.0
 11
12652.82958141817
 21
10458.73679736201
 31
0.0
  0
LINE
  5
1837D
330
747D
100
AcDbEntity
  8
部品1
 48
50.0
100
AcDbLine
 10
13952.82958141817
 20
9238.736797362017
 30
0.0
 11
13952.82958141817
 21
10518.73679736201
 31
0.0
  0
LINE
  5
1837E
330
747D
100
AcDbEntity
  8
部品1
 48
50.0
100
AcDbLine
 10
13942.82958141817
 20
10528.73679736201
 30
0.0
 11
12662.82958141816
 21
10528.73679736201
 31
0.0
  0
ARC
  5
1837F
330
747D
100
AcDbEntity
  8
部品1
 48
50.0
100
AcDbCircle
 10
13942.82958141817
 20
10518.73679736201
 30
0.0
 40
10.0
100
AcDbArc
 50
0.0
 51
90.0
  0
ARC
  5
18380
330
747D
100
AcDbEntity
  8
部品1
 48
50.0
100
AcDbCircle
 10
13942.82958141817
 20
9238.736797362017
 30
0.0
 40
10.0
100
AcDbArc
 50
270.0
 51
0.0
  0
ARC
  5
18381
330
747D
100
AcDbEntity
  8
部品1
 48
50.0
100
AcDbCircle
 10
12662.82958141816
 20
9238.736797362014
 30
0.0
 40
10.0
100
AcDbArc
 50
180.0
 51
270.0
  0
ARC
  5
18382
330
747D
100
AcDbEntity
  8
部品1
 48
50.0
100
AcDbCircle
 10
12662.82958141816
 20
10518.73679736201
 30
0.0
 40
10.0
100
AcDbArc
 50
90.0
 51
180.0
  0
LINE
  5
18383
330
747D
100
AcDbEntity
  8
部品1
 48
50.0
100
AcDbLine
 10
13902.82958141817
 20
10478.73679736201
 30
0.0
 11
12702.82958141817
 21
10478.73679736201
 31
0.0
  0
LINE
  5
18384
330
747D
100
AcDbEntity
  8
部品1
 48
50.0
100
AcDbLine
 10
12702.82958141817
 20
10478.73679736201
 30
0.0
 11
12702.82958141817
 21
10440.73679736201
 31
0.0
  0
LINE
  5
18386
330
747D
100
AcDbEntity
  8
部品1
 48
50.0
100
AcDbLine
 10
13902.82958141817
 20
9278.736797362014
 30
0.0
 11
13902.82958141817
 21
10478.73679736201
 31
0.0
  0
LINE
  5
18387
330
747D
100
AcDbEntity
  8
部品1
 48
50.0
100
AcDbLine
 10
13917.82958141817
 20
10493.73679736201
 30
0.0
 11
12687.82958141817
 21
10493.73679736201
 31
0.0
  0
LINE
  5
18389
330
747D
100
AcDbEntity
  8
部品1
 48
50.0
100
AcDbLine
 10
12687.82958141817
 20
10493.73679736201
 30
0.0
 11
12687.82958141817
 21
10440.73679736201
 31
0.0
  0
LINE
  5
1838A
330
747D
100
AcDbEntity
  8
部品1
 48
50.0
100
AcDbLine
 10
13917.82958141817
 20
9263.736797362014
 30
0.0
 11
13917.82958141817
 21
10493.73679736201
 31
0.0
  0
LINE
  5
1838B
330
747D
100
AcDbEntity
  8
部品1
 48
50.0
100
AcDbLine
 10
13882.82958141817
 20
10493.73679736201
 30
0.0
 11
13882.82958141817
 21
10528.73679736201
 31
0.0
  0
LINE
  5
1838C
330
747D
100
AcDbEntity
  8
部品1
 48
50.0
100
AcDbLine
 10
13952.82958141817
 20
10458.73679736201
 30
0.0
 11
13917.82958141817
 21
10458.73679736201
 31
0.0
  0
LINE
  5
1838D
330
747D
100
AcDbEntity
  8
部品1
 48
50.0
100
AcDbLine
 10
13864.82958141817
 20
10493.73679736201
 30
0.0
 11
13864.82958141817
 21
10478.73679736201
 31
0.0
  0
LINE
  5
1838E
330
747D
100
AcDbEntity
  8
部品1
 48
50.0
100
AcDbLine
 10
13900.82958141817
 20
10493.73679736201
 30
0.0
 11
13900.82958141817
 21
10478.73679736201
 31
0.0
  0
LINE
  5
1838F
330
747D
100
AcDbEntity
  8
部品1
 48
50.0
100
AcDbLine
 10
13917.82958141817
 20
10440.73679736201
 30
0.0
 11
13902.82958141817
 21
10440.73679736201
 31
0.0
  0
LINE
  5
18390
330
747D
100
AcDbEntity
  8
部品1
 48
50.0
100
AcDbLine
 10
13917.82958141817
 20
10476.73679736201
 30
0.0
 11
13902.82958141817
 21
10476.73679736201
 31
0.0
  0
LINE
  5
18397
330
747D
100
AcDbEntity
  8
部品1
 48
50.0
100
AcDbLine
 10
13952.82958141817
 20
9878.736797362019
 30
0.0
 11
13917.82958141817
 21
9878.736797362016
 31
0.0
  0
LINE
  5
18398
330
747D
100
AcDbEntity
  8
部品1
 48
50.0
100
AcDbLine
 10
13917.82958141817
 20
9860.736797362013
 30
0.0
 11
13902.82958141817
 21
9860.736797362013
 31
0.0
  0
LINE
  5
18399
330
747D
100
AcDbEntity
  8
部品1
 48
50.0
100
AcDbLine
 10
13917.82958141817
 20
9896.736797362013
 30
0.0
 11
13902.82958141817
 21
9896.736797362013
 31
0.0
  0
LINE
  5
1839D
330
747D
100
AcDbEntity
  8
部品1
 48
50.0
100
AcDbLine
 10
13917.82958141817
 20
9316.736797362013
 30
0.0
 11
13902.82958141817
 21
9316.736797362013
 31
0.0
  0
LINE
  5
1839E
330
747D
100
AcDbEntity
  8
部品1
 48
50.0
100
AcDbLine
 10
13917.82958141817
 20
9280.736797362013
 30
0.0
 11
13902.82958141817
 21
9280.736797362013
 31
0.0
  0
LINE
  5
1839F
330
747D
100
AcDbEntity
  8
部品1
 48
50.0
100
AcDbLine
 10
13952.82958141817
 20
9298.736797362018
 30
0.0
 11
13917.82958141817
 21
9298.736797362016
 31
0.0
  0
LINE
  5
183B2
330
747D
100
AcDbEntity
  8
部品1
 48
50.0
100
AcDbLine
 10
13320.82958141816
 20
10493.73679736237
 30
0.0
 11
13320.82958141816
 21
10478.73679736238
 31
0.0
  0
LINE
  5
183B3
330
747D
100
AcDbEntity
  8
部品1
 48
50.0
100
AcDbLine
 10
13302.82958141816
 20
10493.73679736237
 30
0.0
 11
13302.82958141817
 21
10528.73679736238
 31
0.0
  0
LINE
  5
183B4
330
747D
100
AcDbEntity
  8
部品1
 48
50.0
100
AcDbLine
 10
13284.82958141816
 20
10493.73679736237
 30
0.0
 11
13284.82958141816
 21
10478.73679736238
 31
0.0
  0
LINE
  5
183B5
330
747D
100
AcDbEntity
  8
部品1
 48
50.0
100
AcDbLine
 10
12740.82958141816
 20
10493.73679736201
 30
0.0
 11
12740.82958141816
 21
10478.73679736201
 31
0.0
  0
LINE
  5
183B6
330
747D
100
AcDbEntity
  8
部品1
 48
50.0
100
AcDbLine
 10
12722.82958141816
 20
10493.73679736201
 30
0.0
 11
12722.82958141817
 21
10528.73679736201
 31
0.0
  0
LINE
  5
183B7
330
747D
100
AcDbEntity
  8
部品1
 48
50.0
100
AcDbLine
 10
12704.82958141816
 20
10493.73679736201
 30
0.0
 11
12704.82958141816
 21
10478.73679736201
 31
0.0
  0
LINE
  5
183D1
330
747D
100
AcDbEntity
  8
部品1
 48
50.0
100
AcDbLine
 10
12687.82958141817
 20
9686.736797362014
 30
0.0
 11
12702.82958141817
 21
9686.736797362014
 31
0.0
  0
LINE
  5
183D2
330
747D
100
AcDbEntity
  8
部品1
 48
50.0
100
AcDbLine
 10
12687.82958141817
 20
9650.736797362014
 30
0.0
 11
12702.82958141817
 21
9650.736797362014
 31
0.0
  0
LINE
  5
183D3
330
747D
100
AcDbEntity
  8
部品1
 48
50.0
100
AcDbLine
 10
12652.82958141817
 20
9668.736797362019
 30
0.0
 11
12687.82958141817
 21
9668.736797362017
 31
0.0
  0
LINE
  5
183DD
330
747D
100
AcDbEntity
  8
部品1
 48
50.0
100
AcDbLine
 10
12687.82958141817
 20
10476.73679736201
 30
0.0
 11
12702.82958141816
 21
10476.73679736201
 31
0.0
  0
LINE
  5
183DE
330
747D
100
AcDbEntity
  8
部品1
 48
50.0
100
AcDbLine
 10
12687.82958141817
 20
10440.73679736201
 30
0.0
 11
12702.82958141816
 21
10440.73679736201
 31
0.0
  0
LINE
  5
183DF
330
747D
100
AcDbEntity
  8
部品1
 48
50.0
100
AcDbLine
 10
12652.82958141817
 20
10458.73679736201
 30
0.0
 11
12687.82958141817
 21
10458.73679736201
 31
0.0
  0
LINE
  5
183E0
330
747D
100
AcDbEntity
  8
部品1
 48
50.0
100
AcDbLine
 10
12652.82958141817
 20
9298.736797362018
 30
0.0
 11
12687.82958141817
 21
9298.736797362016
 31
0.0
  0
LINE
  5
183E1
330
747D
100
AcDbEntity
  8
部品1
 48
50.0
100
AcDbLine
 10
12687.82958141817
 20
9280.736797362013
 30
0.0
 11
12702.82958141817
 21
9280.736797362013
 31
0.0
  0
LINE
  5
183E2
330
747D
100
AcDbEntity
  8
部品1
 48
50.0
100
AcDbLine
 10
12687.82958141817
 20
9316.736797362013
 30
0.0
 11
12702.82958141817
 21
9316.736797362013
 31
0.0
  0
LINE
  5
183E3
330
747D
100
AcDbEntity
  8
部品1
 48
50.0
100
AcDbLine
 10
12704.82958141816
 20
9263.736797362019
 30
0.0
 11
12704.82958141816
 21
9278.73679736202
 31
0.0
  0
LINE
  5
183E4
330
747D
100
AcDbEntity
  8
部品1
 48
50.0
100
AcDbLine
 10
12740.82958141816
 20
9263.736797362019
 30
0.0
 11
12740.82958141816
 21
9278.73679736202
 31
0.0
  0
LINE
  5
183E5
330
747D
100
AcDbEntity
  8
部品1
 48
50.0
100
AcDbLine
 10
12722.82958141816
 20
9263.736797362019
 30
0.0
 11
12722.82958141817
 21
9228.736797362016
 31
0.0
  0
LINE
  5
183FE
330
747D
100
AcDbEntity
  8
部品1
 48
50.0
100
AcDbLine
 10
13882.82958141817
 20
9263.736797362017
 30
0.0
 11
13882.82958141817
 21
9228.736797362016
 31
0.0
  0
LINE
  5
183FF
330
747D
100
AcDbEntity
  8
部品1
 48
50.0
100
AcDbLine
 10
13864.82958141817
 20
9263.736797362017
 30
0.0
 11
13864.82958141817
 21
9278.736797362016
 31
0.0
  0
LINE
  5
18400
330
747D
100
AcDbEntity
  8
部品1
 48
50.0
100
AcDbLine
 10
13900.82958141817
 20
9263.736797362017
 30
0.0
 11
13900.82958141817
 21
9278.736797362016
 31
0.0
  0
LINE
  5
18401
330
747D
100
AcDbEntity
  8
細線
 48
50.0
100
AcDbLine
 10
13893.82958141817
 20
10469.73679736201
 30
0.0
 11
13893.82958141817
 21
9278.73679736202
 31
0.0
  0
LINE
  5
18402
330
747D
100
AcDbEntity
  8
細線
 48
50.0
100
AcDbLine
 10
13902.82958141817
 20
10469.73679736201
 30
0.0
 11
12711.82958141817
 21
10469.73679736202
 31
0.0
  0
DIMENSION
  5
1852A
330
747D
100
AcDbEntity
  8
寸法
 48
50.0
100
AcDbDimension
  2
*D5
 10
15066.96933771975
 20
10478.73679736201
 30
0.0
 11
15546.95457394022
 21
9878.736797362019
 31
0.0
 12
5779.999999999999
 22
0.0000000000436557
 32
0.0
 70
    32
  1
内部寸法 <>
 71
     5
 42
-1.0
  3
INABA_S50G
100
AcDbAlignedDimension
 13
14764.16533380114
 23
9278.73679736202
 33
0.0
 14
14764.16533380114
 24
10478.73679736201
 34
0.0
 50
90.0
100
AcDbRotatedDimension
1001
ACAD
1000
DSTYLE
1002
{
1002
}
  0
DIMENSION
  5
1852B
330
747D
100
AcDbEntity
  8
寸法
 48
50.0
100
AcDbDimension
  2
*D2
 10
14764.16533380114
 20
10458.73679736201
 30
0.0
 11
15244.15057002161
 21
9878.736797362019
 31
0.0
 12
5779.999999999999
 22
0.0000000000436557
 32
0.0
 70
    32
  1
2x580=<>
 71
     5
 42
-1.0
  3
INABA_S50G
100
AcDbAlignedDimension
 13
13952.82958141817
 23
9298.736797362018
 33
0.0
 14
13952.82958141817
 24
10458.73679736201
 34
0.0
 50
90.0
100
AcDbRotatedDimension
1001
ACAD
1000
DSTYLE
1002
{
1002
}
  0
DIMENSION
  5
1852C
330
747D
100
AcDbEntity
  8
寸法
 48
50.0
100
AcDbDimension
  2
*D4
 10
15066.96933771975
 20
9278.73679736202
 30
0.0
 11
15066.96933771975
 21
8991.689553267526
 31
0.0
 12
5489.999999999999
 22
0.0000000000436557
 32
0.0
 70
   160
 71
     5
 42
-1.0
  3
INABA_S50G
100
AcDbAlignedDimension
 13
13942.82958141817
 23
9228.736797362016
 33
0.0
 14
14764.16533380114
 24
9278.73679736202
 34
0.0
 50
90.0
100
AcDbRotatedDimension
  0
DIMENSION
  5
1852D
330
747D
100
AcDbEntity
  8
寸法
 48
50.0
100
AcDbDimension
  2
*D1
 10
14764.16533380114
 20
9298.736797362018
 30
0.0
 11
14764.16533380114
 21
8996.177742243904
 31
0.0
 12
-2754.632845073174
 22
-373.9447183321099
 32
0.0
 70
   160
 71
     5
 42
-1.0
  3
INABA_S50G
100
AcDbAlignedDimension
 13
13942.82958141817
 23
9228.736797362016
 33
0.0
 14
13952.82958141817
 24
9298.736797362018
 34
0.0
 50
90.0
100
AcDbRotatedDimension
  0
DIMENSION
  5
1852E
330
747D
100
AcDbEntity
  8
寸法
 48
50.0
100
AcDbDimension
  2
*D6
 10
15066.96933771975
 20
10528.73679736201
 30
0.0
 11
15066.96933771975
 21
10886.29585248012
 31
0.0
 12
5489.999999999999
 22
-1739.999999999956
 32
0.0
 70
   160
 71
     5
 42
-1.0
  3
INABA_S50G
100
AcDbAlignedDimension
 13
14764.16533380114
 23
10478.73679736201
 33
0.0
 14
13942.82958141817
 24
10528.73679736201
 34
0.0
 50
90.0
100
AcDbRotatedDimension
1001
ACAD
1000
DSTYLE
1002
{
1002
}
  0
DIMENSION
  5
1852F
330
747D
100
AcDbEntity
  8
寸法
 48
50.0
100
AcDbDimension
  2
*D3
 10
14764.16533380114
 20
10528.73679736201
 30
0.0
 11
14764.16533380114
 21
10761.29585248012
 31
0.0
 12
-2754.632845073174
 22
-2113.944718332109
 32
0.0
 70
   160
 71
     5
 42
-1.0
  3
INABA_S50G
100
AcDbAlignedDimension
 13
13952.82958141817
 23
10458.73679736201
 33
0.0
 14
13942.82958141817
 24
10528.73679736201
 34
0.0
 50
90.0
100
AcDbRotatedDimension
1001
ACAD
1000
DSTYLE
1002
{
1002
}
  0
DIMENSION
  5
185AD
330
747D
100
AcDbEntity
  8
寸法
 48
50.0
100
AcDbDimension
  2
*D10
 10
12702.82958141816
 20
11237.51516613342
 30
0.0
 11
12295.27052630006
 21
11237.51516613342
 31
0.0
 12
865.3671549268256
 22
-2113.944718332109
 32
0.0
 70
   160
 71
     5
 42
-1.0
  3
INABA_S50G
100
AcDbAlignedDimension
 13
12652.82958141817
 23
10518.73679736201
 33
0.0
 14
12702.82958141816
 24
10938.76878223266
 34
0.0
100
AcDbRotatedDimension
  0
DIMENSION
  5
185AE
330
747D
100
AcDbEntity
  8
寸法
 48
50.0
100
AcDbDimension
  2
*D7
 10
12722.82958141817
 20
10938.76878223266
 30
0.0
 11
12410.27052630006
 21
10938.76878223266
 31
0.0
 12
865.3671549268256
 22
-2113.944718332109
 32
0.0
 70
   160
 71
     5
 42
-1.0
  3
INABA_S50G
100
AcDbAlignedDimension
 13
12652.82958141817
 23
10518.73679736201
 33
0.0
 14
12722.82958141817
 24
10528.73679736201
 34
0.0
100
AcDbRotatedDimension
  0
DIMENSION
  5
185AF
330
747D
100
AcDbEntity
  8
寸法
 48
50.0
100
AcDbDimension
  2
*D11
 10
13902.82958141818
 20
11237.51516613342
 30
0.0
 11
13302.82958141817
 21
11337.52992991295
 31
0.0
 70
    32
  1
内部寸法 <>
 71
     5
 42
-1.0
  3
INABA_S50G
100
AcDbAlignedDimension
 13
12702.82958141816
 23
10938.76878223266
 33
0.0
 14
13902.82958141818
 24
10938.76878223266
 34
0.0
100
AcDbRotatedDimension
1001
ACAD
1000
DSTYLE
1002
{
1070
   287
1070
     4
1070
    75
1070
     1
1070
   279
1070
     1
1002
}
  0
DIMENSION
  5
185B1
330
747D
100
AcDbEntity
  8
寸法
 48
50.0
100
AcDbDimension
  2
*D8
 10
13882.82958141817
 20
10938.76878223266
 30
0.0
 11
13302.82958141817
 21
11038.78354601219
 31
0.0
 70
    32
  1
2x580=<>
 71
     5
 42
-1.0
  3
INABA_S50G
100
AcDbAlignedDimension
 13
12722.82958141817
 23
10528.73679736201
 33
0.0
 14
13882.82958141817
 24
10528.73679736201
 34
0.0
100
AcDbRotatedDimension
1001
ACAD
1000
DSTYLE
1002
{
1070
   287
1070
     4
1070
    75
1070
     1
1070
   279
1070
     1
1002
}
  0
DIMENSION
  5
185B3
330
747D
100
AcDbEntity
  8
寸法
 48
50.0
100
AcDbDimension
  2
*D12
 10
13952.82958141817
 20
11237.51516613342
 30
0.0
 11
14310.38863653628
 21
11237.51516613342
 31
0.0
 12
-2754.632845073174
 22
-2113.944718332109
 32
0.0
 70
   160
 71
     5
 42
-1.0
  3
INABA_S50G
100
AcDbAlignedDimension
 13
13902.82958141818
 23
10938.76878223266
 33
0.0
 14
13952.82958141817
 24
10518.73679736201
 34
0.0
100
AcDbRotatedDimension
1001
ACAD
1000
DSTYLE
1002
{
1002
}
  0
DIMENSION
  5
185B4
330
747D
100
AcDbEntity
  8
寸法
 48
50.0
100
AcDbDimension
  2
*D9
 10
13952.82958141817
 20
10938.76878223266
 30
0.0
 11
14215.38863653628
 21
10938.76878223266
 31
0.0
 12
-2754.632845073174
 22
-2113.944718332109
 32
0.0
 70
   160
 71
     5
 42
-1.0
  3
INABA_S50G
100
AcDbAlignedDimension
 13
13882.82958141817
 23
10528.73679736201
 33
0.0
 14
13952.82958141817
 24
10518.73679736201
 34
0.0
100
AcDbRotatedDimension
1001
ACAD
1000
DSTYLE
1002
{
1002
}
  0
DIMENSION
  5
1868C
330
747D
100
AcDbEntity
  8
寸法
 48
50.0
100
AcDbDimension
  2
*D13
 10
13952.82958141817
 20
8436.498920305904
 30
0.0
 11
13302.82958141817
 21
8536.498920305904
 31
0.0
 12
-580.0
 22
0.0
 32
0.0
 70
    32
 71
     5
 42
-1.0
  3
INABA_S50G
100
AcDbAlignedDimension
 13
12652.82958141817
 23
9238.736797362014
 33
0.0
 14
13952.82958141817
 24
9238.736797362017
 34
0.0
100
AcDbRotatedDimension
  0
DIMENSION
  5
186AF
330
747D
100
AcDbEntity
  8
寸法
 48
50.0
100
AcDbDimension
  2
*D14
 10
11886.1986016385
 20
9228.736797362016
 30
0.0
 11
11786.1986016385
 21
9878.736797362016
 31
0.0
 12
6359.999999999999
 22
0.0000000000436557
 32
0.0
 70
    32
 71
     5
 42
-1.0
  3
INABA_S50G
100
AcDbAlignedDimension
 13
12662.82958141816
 23
10528.73679736201
 33
0.0
 14
12662.82958141816
 24
9228.736797362016
 34
0.0
 50
90.0
100
AcDbRotatedDimension
  0
LINE
  5
186ED
330
747D
100
AcDbEntity
  8
部品1
 48
50.0
100
AcDbLine
 10
12662.82958141816
 20
9228.736797362016
 30
0.0
 11
12722.82958141817
 21
9228.736797362019
 31
0.0
  0
LINE
  5
186EE
330
747D
100
AcDbEntity
  8
部品1
 48
50.0
100
AcDbLine
 10
12687.82958141817
 20
9263.736797362017
 30
0.0
 11
12740.82958141817
 21
9263.736797362014
 31
0.0
  0
LINE
  5
186EF
330
747D
100
AcDbEntity
  8
部品1
 48
50.0
100
AcDbLine
 10
12702.82958141816
 20
9278.736797362016
 30
0.0
 11
12740.82958141817
 21
9278.736797362016
 31
0.0
  0
LINE
  5
186FE
330
747D
100
AcDbEntity
  8
細線
 48
50.0
100
AcDbLine
 10
12702.82958141816
 20
9287.736797362015
 30
0.0
 11
12722.82958141817
 21
9287.736797362015
 31
0.0
  0
TEXT
  5
1A95B
330
747D
100
AcDbEntity
  8
文字
 62
     7
 48
50.0
100
AcDbText
 10
17902.30092041603
 20
604.8708912389265
 30
0.0
 40
200.0
  1
ＳＭＫ－１７ＳＧＭ
  7
STYLE2
100
AcDbText
  0
TEXT
  5
1A95C
330
747D
100
AcDbEntity
  8
文字
 62
     7
 48
50.0
100
AcDbText
 10
18386.04187925632
 20
1047.815908841148
 30
0.0
 40
125.0
  1
～一般型･多雪地型～
  7
STYLE2
100
AcDbText
  0
TEXT
  5
1A95D
330
747D
100
AcDbEntity
  8
文字
 62
     7
 48
50.0
100
AcDbText
 10
18155.16479652749
 20
1289.447132864035
 30
0.0
 40
125.0
  1
NO.17     <縮尺> S=1/50
  7
STYLE2
100
AcDbText
  0
TEXT
  5
1A95E
330
747D
100
AcDbEntity
  8
文字
 62
     7
 48
50.0
100
AcDbText
 10
16511.7566802715
 20
270.5931259273529
 30
0.0
 40
100.0
  1
○ドア部有効開口寸法：677×1760 (mm)
  7
STYLE2
100
AcDbText
  0
TEXT
  5
1A95F
330
747D
100
AcDbEntity
  8
文字
 62
     7
 48
50.0
100
AcDbText
 10
16511.7566802715
 20
99.75789836616968
 30
0.0
 40
100.0
  1
○床面積：1.69㎡(0.51坪)
  7
STYLE2
100
AcDbText
  0
DIMENSION
  5
1AE97
330
747D
100
AcDbEntity
  8
寸法
 48
50.0
100
AcDbDimension
  2
*D15
 10
13852.82958141817
 20
2612.358857715375
 30
0.0
 11
13565.865998741
 21
2612.358857715375
 31
0.0
 12
13779.03064088944
 22
1439.471773623201
 32
0.0
 70
   160
 71
     5
 42
-1.0
  3
INABA_S50G
100
AcDbAlignedDimension
 13
14052.82958141817
 23
2940.000000000043
 33
0.0
 14
13852.82958141817
 24
2940.000000000043
 34
0.0
100
AcDbRotatedDimension
  0
LINE
  5
1AEA2
330
747D
100
AcDbEntity
  8
部品1
100
AcDbLine
 10
13983.51364187628
 20
5410.000001569603
 30
0.0
 11
12622.14551659023
 21
5410.000001569612
 31
0.0
  0
LINE
  5
1AEA3
330
747D
100
AcDbEntity
  8
細線
100
AcDbLine
 10
14001.32472575561
 20
5431.045828186541
 30
0.0
 11
12604.33443271091
 21
5431.045828186548
 31
0.0
  0
LINE
  5
1AEA4
330
747D
100
AcDbEntity
  8
部品1
100
AcDbLine
 10
13978.39741695869
 20
5545.000000008489
 30
0.0
 11
12627.26174179908
 21
5545.000000008511
 31
0.0
  0
LINE
  5
1AEA5
330
747D
100
AcDbEntity
  8
細線
100
AcDbLine
 10
13992.32958141817
 20
5524.500002624854
 30
0.0
 11
12615.42971296713
 21
5524.500002624861
 31
0.0
  0
DIMENSION
  5
1AEA6
330
747D
100
AcDbEntity
  8
寸法
 48
50.0
100
AcDbDimension
  2
*D16
 10
14007.82958141817
 20
6506.068854554588
 30
0.0
 11
13012.82957923326
 21
6606.068854554589
 31
0.0
 12
6359.999999999999
 22
0.0000000000436557
 32
0.0
 70
    32
 71
     5
 42
-1.0
  3
INABA_S50G
100
AcDbAlignedDimension
 13
12597.82957704834
 23
5509.000002624852
 33
0.0
 14
14007.82958141817
 24
5509.000002624852
 34
0.0
100
AcDbRotatedDimension
  0
DIMENSION
  5
1AEA7
330
747D
100
AcDbEntity
  8
寸法
 48
50.0
100
AcDbDimension
  2
*D17
 10
13952.82958141817
 20
6238.281130716565
 30
0.0
 11
13302.82958141817
 21
6338.281130716564
 31
0.0
 70
    32
  1
柱外寸法 <>
 71
     5
 42
-1.0
  3
INABA_S50G
100
AcDbAlignedDimension
 13
12652.82958141817
 23
5545.000000008511
 33
0.0
 14
13952.82958141817
 24
5545.00000000849
 34
0.0
100
AcDbRotatedDimension
1001
ACAD
1000
DSTYLE
1002
{
1070
   287
1070
     4
1070
    75
1070
     1
1070
   279
1070
     1
1002
}
  0
LINE
  5
1AEAF
330
747D
100
AcDbEntity
  8
部品1
 48
50.0
100
AcDbLine
 10
13952.82958141817
 20
5275.000000000044
 30
0.0
 11
12652.82958141817
 21
5275.000000000044
 31
0.0
  0
LINE
  5
1AEB0
330
747D
100
AcDbEntity
  8
部品1
 48
50.0
100
AcDbLine
 10
12652.82958141817
 20
3275.000000000044
 30
0.0
 11
13952.82958141817
 21
3275.000000000044
 31
0.0
  0
LINE
  5
1AEB4
330
747D
100
AcDbEntity
  8
部品1
 48
50.0
100
AcDbLine
 10
12722.82958141817
 20
5275.000000000044
 30
0.0
 11
12722.82958141817
 21
3275.000000000044
 31
0.0
  0
LINE
  5
1AEB5
330
747D
100
AcDbEntity
  8
部品1
 48
50.0
100
AcDbLine
 10
12652.82958141817
 20
5410.000001569612
 30
0.0
 11
12652.82958141817
 21
3140.000000000043
 31
0.0
  0
LINE
  5
1AEB8
330
747D
100
AcDbEntity
  8
破線
 48
5.0
100
AcDbLine
 10
12552.82958141817
 20
3140.000000000043
 30
0.0
 11
12552.82958141817
 21
2940.000000000043
 31
0.0
  0
LINE
  5
1AEB9
330
747D
100
AcDbEntity
  8
破線
 48
5.0
100
AcDbLine
 10
12752.82958141817
 20
3140.000000000043
 30
0.0
 11
12752.82958141817
 21
2940.000000000043
 31
0.0
  0
LINE
  5
1AEBA
330
747D
100
AcDbEntity
  8
破線
 48
5.0
100
AcDbLine
 10
12647.82958141817
 20
3140.000000000043
 30
0.0
 11
12647.82958141817
 21
3030.000000000043
 31
0.0
  0
LINE
  5
1AEBB
330
747D
100
AcDbEntity
  8
破線
 48
5.0
100
AcDbLine
 10
12552.82958141817
 20
2940.000000000043
 30
0.0
 11
12752.82958141817
 21
2940.000000000043
 31
0.0
  0
LINE
  5
1AEBC
330
747D
100
AcDbEntity
  8
破線
 48
5.0
100
AcDbLine
 10
12627.82958141817
 20
3030.000000000043
 30
0.0
 11
12647.82958141817
 21
3030.000000000043
 31
0.0
  0
LINE
  5
1AEBD
330
747D
100
AcDbEntity
  8
部品1
100
AcDbLine
 10
12647.82958141817
 20
3315.000000000043
 30
0.0
 11
12647.82958141817
 21
3140.000000000043
 31
0.0
  0
LINE
  5
1AEBF
330
747D
100
AcDbEntity
  8
部品1
 48
50.0
100
AcDbLine
 10
13052.82958141817
 20
3275.000000000044
 30
0.0
 11
13052.82958141817
 21
3140.000000000043
 31
0.0
  0
DIMENSION
  5
1AEE4
330
747D
100
AcDbEntity
  8
寸法
 48
50.0
100
AcDbDimension
  2
*D18
 10
12652.82958141817
 20
6238.281130716565
 30
0.0
 11
12272.77052630006
 21
6238.281130716565
 31
0.0
 12
14939.03064088944
 22
1269.471773623201
 32
0.0
 70
   160
 71
     5
 42
-1.0
  3
INABA_S50G
100
AcDbAlignedDimension
 13
12597.82957704834
 23
5509.000002624852
 33
0.0
 14
12652.82958141817
 24
5545.000000008511
 34
0.0
100
AcDbRotatedDimension
  0
LINE
  5
1AEE5
330
747D
100
AcDbEntity
  8
細線
 48
50.0
100
AcDbLine
 10
12635.82958170943
 20
5410.000001569603
 30
0.0
 11
12635.82958170943
 21
5545.000000000044
 31
0.0
  0
ARC
  5
1AEE6
330
747D
100
AcDbEntity
  8
部品1
100
AcDbCircle
 10
12613.32957704834
 20
5509.000002624852
 30
0.0
 40
15.5
100
AcDbArc
 50
90.00000000000033
 51
183.979378091838
  0
LINE
  5
1AEE7
330
747D
100
AcDbEntity
  8
部品1
100
AcDbLine
 10
12597.86694611599
 20
5507.924342525175
 30
0.0
 11
12603.13732580002
 21
5432.162551275596
 31
0.0
  0
ARC
  5
1AEE8
330
747D
100
AcDbEntity
  8
部品1
100
AcDbCircle
 10
12604.33443271091
 20
5432.245828186538
 30
0.0
 40
1.199999999999999
100
AcDbArc
 50
183.979378091838
 51
270.0000000000002
  0
ARC
  5
1AEE9
330
747D
100
AcDbEntity
  8
部品1
100
AcDbCircle
 10
12603.8882537151
 20
5428.572828826165
 30
0.0
 40
2.5
100
AcDbArc
 50
3.979378091802891
 51
83.07390809407314
  0
LINE
  5
1AEEA
330
747D
100
AcDbEntity
  8
部品1
100
AcDbLine
 10
12606.38222644612
 20
5428.746322390627
 30
0.0
 11
12606.68288565789
 21
5424.424341469925
 31
0.0
  0
ARC
  5
1AEEB
330
747D
100
AcDbEntity
  8
部品1
100
AcDbCircle
 10
12622.14551659023
 20
5425.500001569604
 30
0.0
 40
15.5
100
AcDbArc
 50
183.9793780918396
 51
270.0
  0
LINE
  5
1AEEC
330
747D
100
AcDbEntity
  8
部品1
 48
50.0
100
AcDbLine
 10
12613.32957704834
 20
5524.500002624852
 30
0.0
 11
12615.42971296713
 21
5524.500002624861
 31
0.0
  0
LINE
  5
1AEED
330
747D
100
AcDbEntity
  8
部品1
100
AcDbLine
 10
12616.8155322222
 20
5525.425977370831
 30
0.0
 11
12624.02840639604
 21
5542.839392276324
 31
0.0
  0
ARC
  5
1AEEE
330
747D
100
AcDbEntity
  8
部品1
100
AcDbCircle
 10
12615.42971296713
 20
5526.000002624854
 30
0.0
 40
1.5
100
AcDbArc
 50
270.0000000000002
 51
337.4999956391484
  0
ARC
  5
1AEEF
330
747D
100
AcDbEntity
  8
部品1
100
AcDbCircle
 10
12627.26198465789
 20
5541.500000016936
 30
0.0
 40
3.5
100
AcDbArc
 50
90.0
 51
157.4999956391549
  0
LINE
  5
1AEF0
330
747D
100
AcDbEntity
  8
細線
 48
50.0
100
AcDbLine
 10
13438.82958141817
 20
5405.50003698188
 30
0.0
 11
13166.82958141817
 21
5405.50003698188
 31
0.0
  0
LINE
  5
1AEF1
330
747D
100
AcDbEntity
  8
細線
 48
50.0
100
AcDbLine
 10
13181.82958141817
 20
5330.500036981881
 30
0.0
 11
13423.82958141817
 21
5330.500036981881
 31
0.0
  0
LINE
  5
1AEF2
330
747D
100
AcDbEntity
  8
細線
 48
50.0
100
AcDbLine
 10
13181.82958141817
 20
5345.500000000043
 30
0.0
 11
13423.82958141817
 21
5345.500000000043
 31
0.0
  0
LINE
  5
1AEF3
330
747D
100
AcDbEntity
  8
細線
 48
50.0
100
AcDbLine
 10
13181.82958141817
 20
5360.500036981881
 30
0.0
 11
13423.82958141817
 21
5360.500036981881
 31
0.0
  0
LINE
  5
1AEF4
330
747D
100
AcDbEntity
  8
細線
 48
50.0
100
AcDbLine
 10
13181.82958141817
 20
5390.500000000043
 30
0.0
 11
13423.82958141817
 21
5390.500000000042
 31
0.0
  0
LINE
  5
1AEF5
330
747D
100
AcDbEntity
  8
細線
 48
50.0
100
AcDbLine
 10
13181.82958141817
 20
5375.500000000044
 30
0.0
 11
13423.82958141817
 21
5375.500000000044
 31
0.0
  0
LINE
  5
1AEF6
330
747D
100
AcDbEntity
  8
細線
 48
50.0
100
AcDbLine
 10
13438.82958141817
 20
5308.500000000043
 30
0.0
 11
13166.82958141817
 21
5308.500000000043
 31
0.0
  0
LINE
  5
1AEF7
330
747D
100
AcDbEntity
  8
細線
 48
50.0
100
AcDbLine
 10
13423.82958141817
 20
5319.500000000044
 30
0.0
 11
13181.82958141817
 21
5319.500000000044
 31
0.0
  0
ARC
  5
1AEF8
330
747D
100
AcDbEntity
  8
細線
 48
50.0
100
AcDbCircle
 10
13166.82958141817
 20
5318.500000000043
 30
0.0
 40
10.0
100
AcDbArc
 50
180.0
 51
270.0
  0
LINE
  5
1AEF9
330
747D
100
AcDbEntity
  8
細線
 48
50.0
100
AcDbLine
 10
13181.82958141817
 20
5308.500000000043
 30
0.0
 11
13181.82958141817
 21
5309.000000000043
 31
0.0
  0
ARC
  5
1AEFA
330
747D
100
AcDbEntity
  8
細線
 48
50.0
100
AcDbCircle
 10
13166.82958141817
 20
5395.500036981881
 30
0.0
 40
10.0
100
AcDbArc
 50
90.0
 51
180.0
  0
LINE
  5
1AEFB
330
747D
100
AcDbEntity
  8
細線
 48
50.0
100
AcDbLine
 10
13181.82958141817
 20
5405.50003698188
 30
0.0
 11
13181.82958141817
 21
5308.500000000043
 31
0.0
  0
LINE
  5
1AEFC
330
747D
100
AcDbEntity
  8
細線
 48
50.0
100
AcDbLine
 10
13156.82958141817
 20
5395.500036981881
 30
0.0
 11
13156.82958141817
 21
5318.500000000043
 31
0.0
  0
LINE
  5
1AEFD
330
747D
100
AcDbEntity
  8
部品1
 48
50.0
100
AcDbLine
 10
13882.82958141817
 20
5275.000000000044
 30
0.0
 11
13882.82958141817
 21
3275.000000000044
 31
0.0
  0
LINE
  5
1AEFE
330
747D
100
AcDbEntity
  8
細線
 48
50.0
100
AcDbLine
 10
13262.82958141817
 20
5319.500000000044
 30
0.0
 11
13262.82958141817
 21
5390.500000000043
 31
0.0
  0
LINE
  5
1AEFF
330
747D
100
AcDbEntity
  8
細線
 48
50.0
100
AcDbLine
 10
13342.82958141817
 20
5319.500000000044
 30
0.0
 11
13342.82958141817
 21
5390.500000000043
 31
0.0
  0
ARC
  5
1AF00
330
747D
100
AcDbEntity
  8
細線
 48
50.0
100
AcDbCircle
 10
13438.82958141817
 20
5318.500000000043
 30
0.0
 40
10.0
100
AcDbArc
 50
270.0
 51
359.9999999999998
  0
LINE
  5
1AF01
330
747D
100
AcDbEntity
  8
細線
 48
50.0
100
AcDbLine
 10
13423.82958141817
 20
5308.500000000043
 30
0.0
 11
13423.82958141817
 21
5309.000000000043
 31
0.0
  0
ARC
  5
1AF02
330
747D
100
AcDbEntity
  8
細線
 48
50.0
100
AcDbCircle
 10
13438.82958141817
 20
5395.500036981881
 30
0.0
 40
10.0
100
AcDbArc
 50
359.9999999999998
 51
90.0
  0
LINE
  5
1AF03
330
747D
100
AcDbEntity
  8
細線
 48
50.0
100
AcDbLine
 10
13423.82958141817
 20
5405.50003698188
 30
0.0
 11
13423.82958141817
 21
5308.500000000043
 31
0.0
  0
LINE
  5
1AF04
330
747D
100
AcDbEntity
  8
細線
 48
50.0
100
AcDbLine
 10
13448.82958141817
 20
5395.500036981881
 30
0.0
 11
13448.82958141817
 21
5318.500000000043
 31
0.0
  0
DIMENSION
  5
1AF0E
330
747D
100
AcDbEntity
  8
寸法
 48
50.0
100
AcDbDimension
  2
*D19
 10
14952.97132422847
 20
5302.000000000043
 30
0.0
 11
14852.97132422846
 21
4322.000000000045
 31
0.0
 70
    32
  1
内高 <>
 71
     5
 42
-1.0
  3
INABA_S50G
100
AcDbAlignedDimension
 13
13952.82958141817
 23
3342.000000000043
 33
0.0
 14
13952.82958141817
 24
5302.000000000044
 34
0.0
 50
90.0
100
AcDbRotatedDimension
1001
ACAD
1000
DSTYLE
1002
{
1070
   287
1070
     4
1070
    75
1070
     1
1070
   279
1070
     1
1002
}
  0
LINE
  5
1AF0F
330
747D
100
AcDbEntity
  8
部品1
 48
50.0
100
AcDbLine
 10
13952.82958141817
 20
5410.000001569603
 30
0.0
 11
13952.82958141817
 21
3140.000000000043
 31
0.0
  0
DIMENSION
  5
1AF10
330
747D
100
AcDbEntity
  8
寸法
 48
50.0
100
AcDbDimension
  2
*D20
 10
14952.97132422847
 20
3342.000000000043
 30
0.0
 11
14952.97132422847
 21
2978.697597487538
 31
0.0
 12
-580.0
 22
0.0
 32
0.0
 70
   160
 71
     5
 42
-1.0
  3
INABA_S50G
100
AcDbAlignedDimension
 13
13952.82958141817
 23
3275.000000000044
 33
0.0
 14
13952.82958141817
 24
3342.000000000043
 34
0.0
 50
90.0
100
AcDbRotatedDimension
  0
LINE
  5
1AF11
330
747D
100
AcDbEntity
  8
部品1
 48
50.0
100
AcDbLine
 10
13552.82958141817
 20
3275.000000000044
 30
0.0
 11
13552.82958141817
 21
3140.000000000043
 31
0.0
  0
LINE
  5
1AF12
330
747D
100
AcDbEntity
  8
破線
 48
5.0
100
AcDbLine
 10
13957.82958141817
 20
3140.000000000043
 30
0.0
 11
13957.82958141817
 21
3030.000000000043
 31
0.0
  0
LINE
  5
1AF13
330
747D
100
AcDbEntity
  8
破線
 48
5.0
100
AcDbLine
 10
13852.82958141817
 20
3140.000000000043
 30
0.0
 11
13852.82958141817
 21
2940.000000000043
 31
0.0
  0
LINE
  5
1AF14
330
747D
100
AcDbEntity
  8
破線
 48
5.0
100
AcDbLine
 10
14052.82958141817
 20
3140.000000000043
 30
0.0
 11
14052.82958141817
 21
2940.000000000043
 31
0.0
  0
LINE
  5
1AF15
330
747D
100
AcDbEntity
  8
破線
 48
5.0
100
AcDbLine
 10
14052.82958141817
 20
2940.000000000043
 30
0.0
 11
13852.82958141817
 21
2940.000000000043
 31
0.0
  0
LINE
  5
1AF16
330
747D
100
AcDbEntity
  8
破線
 48
5.0
100
AcDbLine
 10
13977.82958141817
 20
3030.000000000043
 30
0.0
 11
13957.82958141817
 21
3030.000000000043
 31
0.0
  0
LINE
  5
1AF19
330
747D
100
AcDbEntity
  8
部品1
100
AcDbLine
 10
13957.82958141817
 20
3315.000000000043
 30
0.0
 11
13957.82958141817
 21
3140.000000000043
 31
0.0
  0
DIMENSION
  5
1AF1A
330
747D
100
AcDbEntity
  8
寸法
 48
50.0
100
AcDbDimension
  2
*D21
 10
14007.82958141817
 20
6238.281130716565
 30
0.0
 11
14322.88863653628
 21
6238.281130716565
 31
0.0
 12
13779.03064088944
 22
1269.471773623201
 32
0.0
 70
   160
 71
     5
 42
-1.0
  3
INABA_S50G
100
AcDbAlignedDimension
 13
13952.82958141817
 23
5545.000000008489
 33
0.0
 14
14007.82958141817
 24
5509.000002624852
 34
0.0
100
AcDbRotatedDimension
1001
ACAD
1000
DSTYLE
1002
{
1002
}
  0
LINE
  5
1AF1B
330
747D
100
AcDbEntity
  8
細線
 48
50.0
100
AcDbLine
 10
13969.82957704834
 20
5410.000001569603
 30
0.0
 11
13969.82957704834
 21
5545.000000000044
 31
0.0
  0
ARC
  5
1AF1C
330
747D
100
AcDbEntity
  8
部品1
100
AcDbCircle
 10
13992.32958141817
 20
5509.000002624852
 30
0.0
 40
15.5
100
AcDbArc
 50
356.0206219081619
 51
89.99999999999968
  0
LINE
  5
1AF24
330
747D
100
AcDbEntity
  8
部品1
100
AcDbLine
 10
14007.79221235052
 20
5507.924342525175
 30
0.0
 11
14002.5218326665
 21
5432.162551275596
 31
0.0
  0
ARC
  5
1AF25
330
747D
100
AcDbEntity
  8
部品1
100
AcDbCircle
 10
14001.77090475141
 20
5428.572828826165
 30
0.0
 40
2.5
100
AcDbArc
 50
96.92609190592689
 51
176.0206219081971
  0
ARC
  5
1AF26
330
747D
100
AcDbEntity
  8
部品1
100
AcDbCircle
 10
14001.32472575561
 20
5432.245828186538
 30
0.0
 40
1.199999999999999
100
AcDbArc
 50
269.9999999999997
 51
356.0206219081619
  0
ARC
  5
1AF27
330
747D
100
AcDbEntity
  8
部品1
100
AcDbCircle
 10
13983.51364187628
 20
5425.500001569604
 30
0.0
 40
15.5
100
AcDbArc
 50
270.0
 51
356.0206219081603
  0
LINE
  5
1AF28
330
747D
100
AcDbEntity
  8
部品1
100
AcDbLine
 10
13999.27693202039
 20
5428.746322390627
 30
0.0
 11
13998.97627280863
 21
5424.424341469925
 31
0.0
  0
ARC
  5
1AF29
330
747D
100
AcDbEntity
  8
部品1
100
AcDbCircle
 10
13990.22944549939
 20
5526.000002624854
 30
0.0
 40
1.5
100
AcDbArc
 50
202.5000043608516
 51
269.9999999999997
  0
ARC
  5
1AF2A
330
747D
100
AcDbEntity
  8
部品1
100
AcDbCircle
 10
13978.39717380862
 20
5541.500000016936
 30
0.0
 40
3.5
100
AcDbArc
 50
22.50000436084501
 51
90.0
  0
LINE
  5
1AF2B
330
747D
100
AcDbEntity
  8
部品1
100
AcDbLine
 10
13988.84362624431
 20
5525.425977370831
 30
0.0
 11
13981.63075207047
 21
5542.839392276324
 31
0.0
  0
LINE
  5
1B230
330
747D
100
AcDbEntity
  8
細線
 48
50.0
100
AcDbLine
 10
13305.32958141816
 20
9287.736797362015
 30
0.0
 11
13305.32958141816
 21
10469.73679736202
 31
0.0
  0
LINE
  5
1B68A
330
747D
100
AcDbEntity
  8
部品1
 48
50.0
100
AcDbLine
 10
12722.82958141817
 20
3330.000000000044
 30
0.0
 11
13882.82958141817
 21
3330.000000000044
 31
0.0
  0
LINE
  5
1C2AD
330
747D
100
AcDbEntity
  8
部品1
 48
50.0
100
AcDbLine
 10
7232.829581418174
 20
3330.000000000044
 30
0.0
 11
6862.829581418174
 21
3330.000000000044
 31
0.0
  0
LINE
  5
1C2AE
330
747D
100
AcDbEntity
  8
部品1
 48
50.0
100
AcDbLine
 10
7302.829581418174
 20
5275.000000000044
 30
0.0
 11
6002.829581418172
 21
5275.000000000044
 31
0.0
  0
DIMENSION
  5
1C2AF
330
747D
100
AcDbEntity
  8
寸法
 48
50.0
100
AcDbDimension
  2
*D25
 10
6002.829581418174
 20
6238.281130716565
 30
0.0
 11
6652.829581418174
 21
6338.281130716564
 31
0.0
 70
    32
  1
柱外寸法 <>
 71
     5
 42
-1.0
  3
INABA_S50G
100
AcDbAlignedDimension
 13
7302.829581418176
 23
5541.484603453126
 33
0.0
 14
6002.829581418174
 24
5488.337018226885
 34
0.0
100
AcDbRotatedDimension
1001
ACAD
1000
DSTYLE
1002
{
1070
   287
1070
     4
1070
    75
1070
     1
1070
   279
1070
     1
1002
}
  0
DIMENSION
  5
1C2B0
330
747D
100
AcDbEntity
  8
寸法
 48
50.0
100
AcDbDimension
  2
*D24
 10
5907.829581418173
 20
6506.068854554588
 30
0.0
 11
6672.829581418174
 21
6606.068854554589
 31
0.0
 12
6069.999999999999
 22
0.0000000000436557
 32
0.0
 70
    32
 71
     5
 42
-1.0
  3
INABA_S50G
100
AcDbAlignedDimension
 13
7437.829581418174
 23
5545.000000000044
 33
0.0
 14
5907.829581418173
 24
5485.000000000043
 34
0.0
100
AcDbRotatedDimension
  0
LINE
  5
1C2B1
330
747D
100
AcDbEntity
  8
部品1
 48
50.0
100
AcDbLine
 10
7408.313373122108
 20
5544.466629415663
 30
0.0
 11
5933.156550223031
 21
5486.367362182515
 31
0.0
  0
LINE
  5
1C2B2
330
747D
100
AcDbEntity
  8
細線
 48
50.0
100
AcDbLine
 10
5925.921491990759
 20
5476.025833613912
 30
0.0
 11
7419.638533824349
 21
5526.929326860867
 31
0.0
  0
LINE
  5
1C2B3
330
747D
100
AcDbEntity
  8
部品1
 48
50.0
100
AcDbLine
 10
5935.540699733718
 20
5360.921243435263
 30
0.0
 11
7416.81869835684
 21
5412.160340619812
 31
0.0
  0
LINE
  5
1C2B4
330
747D
100
AcDbEntity
  8
細線
 48
50.0
100
AcDbLine
 10
5917.269963592652
 20
5380.746404000631
 30
0.0
 11
7434.195393715983
 21
5432.315572311767
 31
0.0
  0
LINE
  5
1C2B5
330
747D
100
AcDbEntity
  8
部品1
 48
50.0
100
AcDbLine
 10
7240.329581418176
 20
3275.000000000044
 30
0.0
 11
6065.329581418174
 21
3275.000000000044
 31
0.0
  0
LINE
  5
1C2B6
330
747D
100
AcDbEntity
  8
部品1
 48
50.0
100
AcDbLine
 10
7232.829581418174
 20
5275.000000000044
 30
0.0
 11
7232.829581418174
 21
3275.000000000044
 31
0.0
  0
DIMENSION
  5
1C2B7
330
747D
100
AcDbEntity
  8
寸法
 48
50.0
100
AcDbDimension
  2
*D27
 10
8336.995501716563
 20
3275.000000000044
 30
0.0
 11
8236.980737937036
 21
4410.000000000043
 31
0.0
 12
6069.999999999999
 22
0.0000000000436557
 32
0.0
 70
    32
 71
     5
 42
-1.0
  3
INABA_S50G
100
AcDbAlignedDimension
 13
7437.829581418175
 23
5545.000000000044
 33
0.0
 14
7302.829581418176
 24
3275.000000000044
 34
0.0
 50
270.0
100
AcDbRotatedDimension
  0
LINE
  5
1C2B8
330
747D
100
AcDbEntity
  8
部品1
 48
50.0
100
AcDbLine
 10
7302.829581418177
 20
5408.217326920674
 30
0.0
 11
7302.829581418174
 21
3140.000000000043
 31
0.0
  0
DIMENSION
  5
1C2B9
330
747D
100
AcDbEntity
  8
寸法
 48
50.0
100
AcDbDimension
  2
*D26
 10
8028.949297310763
 20
5275.000000000044
 30
0.0
 11
7928.949297310762
 21
4302.500000000044
 31
0.0
 70
    32
 71
     5
 42
-1.0
  3
INABA_S50G
100
AcDbAlignedDimension
 13
7302.829581418176
 23
3330.000000000044
 33
0.0
 14
7302.829581418174
 24
5275.000000000044
 34
0.0
 50
270.0
100
AcDbRotatedDimension
1001
ACAD
1000
DSTYLE
1002
{
1070
   287
1070
     4
1070
    75
1070
     1
1070
   279
1070
     1
1002
}
  0
DIMENSION
  5
1C2BA
330
747D
100
AcDbEntity
  8
寸法
 48
50.0
100
AcDbDimension
  2
*D28
 10
8028.949297310763
 20
3330.000000000044
 30
0.0
 11
8028.949297310763
 21
2964.42049417751
 31
0.0
 12
6069.999999999999
 22
0.0000000000436557
 32
0.0
 70
   160
 71
     5
 42
-1.0
  3
INABA_S50G
100
AcDbAlignedDimension
 13
7302.829581418176
 23
3275.000000000044
 33
0.0
 14
7302.829581418176
 24
3330.000000000044
 34
0.0
 50
270.0
100
AcDbRotatedDimension
  0
LINE
  5
1C2BB
330
747D
100
AcDbEntity
  8
破線
 48
5.0
100
AcDbLine
 10
7161.329581418172
 20
2940.000000000045
 30
0.0
 11
7361.329581418174
 21
2940.000000000045
 31
0.0
  0
LINE
  5
1C2BC
330
747D
100
AcDbEntity
  8
破線
 48
5.0
100
AcDbLine
 10
7361.329581418172
 20
3140.000000000047
 30
0.0
 11
7361.329581418172
 21
2940.000000000045
 31
0.0
  0
LINE
  5
1C2BD
330
747D
100
AcDbEntity
  8
破線
 48
5.0
100
AcDbLine
 10
7240.329581418174
 20
3140.000000000043
 30
0.0
 11
7240.329581418172
 21
3030.000000000043
 31
0.0
  0
LINE
  5
1C2BE
330
747D
100
AcDbEntity
  8
破線
 48
5.0
100
AcDbLine
 10
7282.329581418173
 20
3140.000000000043
 30
0.0
 11
7282.329581418172
 21
3030.000000000043
 31
0.0
  0
LINE
  5
1C2BF
330
747D
100
AcDbEntity
  8
破線
 48
5.0
100
AcDbLine
 10
7282.329581418172
 20
3030.000000000043
 30
0.0
 11
7240.329581418172
 21
3030.000000000043
 31
0.0
  0
LINE
  5
1C2C0
330
747D
100
AcDbEntity
  8
部品1
 48
50.0
100
AcDbLine
 10
7277.329581418173
 20
3315.000000000045
 30
0.0
 11
7245.329581418175
 21
3315.000000000043
 31
0.0
  0
LINE
  5
1C2C1
330
747D
100
AcDbEntity
  8
部品1
 48
50.0
100
AcDbLine
 10
7302.829581418174
 20
3275.000000000044
 30
0.0
 11
7282.329581418176
 21
3275.000000000044
 31
0.0
  0
LINE
  5
1C2C2
330
747D
100
AcDbEntity
  8
部品1
 48
50.0
100
AcDbLine
 10
7282.329581418173
 20
3310.000000000045
 30
0.0
 11
7282.329581418173
 21
3140.000000000043
 31
0.0
  0
ARC
  5
1C2C3
330
747D
100
AcDbEntity
  8
部品1
 48
50.0
100
AcDbCircle
 10
7277.329581418173
 20
3310.000000000045
 30
0.0
 40
5.0
100
AcDbArc
 50
0.0000000000006177
 51
90.0
  0
LINE
  5
1C2C4
330
747D
100
AcDbEntity
  8
部品1
 48
50.0
100
AcDbLine
 10
7240.329581418176
 20
3310.000000000043
 30
0.0
 11
7240.329581418174
 21
3140.000000000043
 31
0.0
  0
ARC
  5
1C2C5
330
747D
100
AcDbEntity
  8
部品1
 48
50.0
100
AcDbCircle
 10
7245.329581418175
 20
3310.000000000043
 30
0.0
 40
5.0
100
AcDbArc
 50
90.0
 51
180.0000000000006
  0
LINE
  5
1C2C6
330
747D
100
AcDbEntity
  8
破線
 48
5.0
100
AcDbLine
 10
7161.329581418172
 20
3140.000000000047
 30
0.0
 11
7161.329581418172
 21
2940.000000000045
 31
0.0
  0
LINE
  5
1C2C7
330
747D
100
AcDbEntity
  8
部品1
 48
50.0
100
AcDbLine
 10
7102.829581418172
 20
3275.000000000044
 30
0.0
 11
7102.829581418174
 21
3140.000000000043
 31
0.0
  0
DIMENSION
  5
1C2C8
330
747D
100
AcDbEntity
  8
寸法
 48
50.0
100
AcDbDimension
  2
*D29
 10
7302.829581418176
 20
6238.281130716565
 30
0.0
 11
7710.936183135975
 21
6238.281130716565
 31
0.0
 12
6069.999999999999
 22
0.0000000000436557
 32
0.0
 70
   160
 71
     5
 42
-1.0
  3
INABA_S50G
100
AcDbAlignedDimension
 13
7437.829581418175
 23
5545.000000000044
 33
0.0
 14
7302.829581418176
 24
5541.484603453126
 34
0.0
100
AcDbRotatedDimension
  0
ARC
  5
1C2CA
330
747D
100
AcDbEntity
  8
部品1
100
AcDbCircle
 10
7422.329581418174
 20
5511.471940894597
 30
0.0
 40
15.5
100
AcDbArc
 50
358.1167995116895
 51
91.86125648319634
  0
LINE
  5
1C2CB
330
747D
100
AcDbEntity
  8
細線
 48
50.0
100
AcDbLine
 10
7399.237958909629
 20
5544.109192899492
 30
0.0
 11
7403.540758495582
 21
5411.701041520255
 31
0.0
  0
LINE
  5
1C2CC
330
747D
100
AcDbEntity
  8
部品1
100
AcDbLine
 10
7437.82120977988
 20
5510.962577858267
 30
0.0
 11
7435.273355277776
 21
5433.472826441368
 31
0.0
  0
LINE
  5
1C2CD
330
747D
100
AcDbEntity
  8
部品1
100
AcDbLine
 10
7432.155581542445
 20
5429.940194712351
 30
0.0
 11
7432.063807929207
 21
5427.149017088079
 31
0.0
  0
ARC
  5
1C2CE
330
747D
100
AcDbEntity
  8
部品1
100
AcDbCircle
 10
7434.07400340461
 20
5433.512260999021
 30
0.0
 40
1.199999999999999
100
AcDbArc
 50
279.0222695094722
 51
358.1167995116895
  0
ARC
  5
1C2CF
330
747D
100
AcDbEntity
  8
部品1
100
AcDbCircle
 10
7434.654231278202
 20
5429.858039383911
 30
0.0
 40
2.5
100
AcDbArc
 50
99.02226950947451
 51
178.1167995116955
  0
ARC
  5
1C2D0
330
747D
100
AcDbEntity
  8
部品1
100
AcDbCircle
 10
7416.572179567501
 20
5427.658380124427
 30
0.0
 40
15.5
100
AcDbArc
 50
270.9112955958145
 51
358.1167995116315
  0
LINE
  5
1C2D1
330
747D
100
AcDbEntity
  8
部品1
100
AcDbLine
 10
7418.251028758496
 20
5527.804810746289
 30
0.0
 11
7411.559032768359
 21
5542.423971429606
 31
0.0
  0
ARC
  5
1C2D2
330
747D
100
AcDbEntity
  8
部品1
 48
50.0
100
AcDbCircle
 10
7408.376609304373
 20
5540.967200721541
 30
0.0
 40
3.5
100
AcDbArc
 50
24.59618196436618
 51
91.03524671598787
  0
LINE
  5
1C2D3
330
747D
100
AcDbEntity
  8
部品1
 48
50.0
100
AcDbLine
 10
7419.638533824349
 20
5526.929326860867
 30
0.0
 11
7421.826151637432
 21
5526.963763203668
 31
0.0
  0
ARC
  5
1C2D4
330
747D
100
AcDbEntity
  8
部品1
100
AcDbCircle
 10
7419.614924528777
 20
5528.429141049747
 30
0.0
 40
1.5
100
AcDbArc
 50
204.5961819643761
 51
270.9018459011026
  0
LINE
  5
1C2D6
330
747D
100
AcDbEntity
  8
部品1
 48
50.0
100
AcDbLine
 10
6072.829581418176
 20
5275.000000000044
 30
0.0
 11
6072.829581418174
 21
3275.000000000044
 31
0.0
  0
DIMENSION
  5
1C2D7
330
747D
100
AcDbEntity
  8
寸法
 48
50.0
100
AcDbDimension
  2
*D30
 10
5343.338827996756
 20
5485.000000000043
 30
0.0
 11
5243.324064217228
 21
4380.000000000044
 31
0.0
 12
6069.999999999999
 22
0.0000000000436557
 32
0.0
 70
    32
 71
     5
 42
-1.0
  3
INABA_S50G
100
AcDbAlignedDimension
 13
6002.829581418174
 23
3275.000000000044
 33
0.0
 14
5907.829581418173
 24
5485.000000000043
 34
0.0
 50
270.0
100
AcDbRotatedDimension
  0
LINE
  5
1C2D8
330
747D
100
AcDbEntity
  8
細線
 48
5.0
100
AcDbLine
 10
5926.829581418174
 20
5232.000000000044
 30
0.0
 11
5926.829581418179
 21
4307.500000000046
 31
0.0
  0
LINE
  5
1C2D9
330
747D
100
AcDbEntity
  8
細線
 48
5.0
100
AcDbLine
 10
5939.829581418173
 20
5232.000000000044
 30
0.0
 11
5939.829581418181
 21
4307.500000000043
 31
0.0
  0
LINE
  5
1C2DA
330
747D
100
AcDbEntity
  8
細線
 48
5.0
100
AcDbLine
 10
5976.829581418174
 20
5232.000000000044
 30
0.0
 11
5976.829581418179
 21
4307.500000000043
 31
0.0
  0
LINE
  5
1C2DB
330
747D
100
AcDbEntity
  8
細線
 48
5.0
100
AcDbLine
 10
5963.829581418174
 20
5232.000000000044
 30
0.0
 11
5963.829581418179
 21
4307.500000000043
 31
0.0
  0
LINE
  5
1C2DC
330
747D
100
AcDbEntity
  8
部品1
 48
50.0
100
AcDbLine
 10
6002.829581418176
 20
5363.24884267813
 30
0.0
 11
6002.829581418174
 21
3140.000000000043
 31
0.0
  0
LINE
  5
1C2DD
330
747D
100
AcDbEntity
  8
細線
 48
5.0
100
AcDbLine
 10
5926.829581418179
 20
4287.500000000044
 30
0.0
 11
5926.829581418185
 21
3363.000000000043
 31
0.0
  0
LINE
  5
1C2DE
330
747D
100
AcDbEntity
  8
細線
 48
5.0
100
AcDbLine
 10
5939.829581418181
 20
4287.500000000044
 30
0.0
 11
5939.829581418186
 21
3363.000000000043
 31
0.0
  0
LINE
  5
1C2DF
330
747D
100
AcDbEntity
  8
細線
 48
5.0
100
AcDbLine
 10
5963.829581418179
 20
4287.500000000044
 30
0.0
 11
5963.829581418185
 21
3363.000000000043
 31
0.0
  0
LINE
  5
1C2E0
330
747D
100
AcDbEntity
  8
細線
 48
5.0
100
AcDbLine
 10
5976.829581418179
 20
4287.500000000044
 30
0.0
 11
5976.829581418185
 21
3363.000000000043
 31
0.0
  0
LINE
  5
1C2E1
330
747D
100
AcDbEntity
  8
細線
 48
5.0
100
AcDbLine
 10
6002.829581418177
 20
3363.000000000043
 30
0.0
 11
5925.629581418173
 21
3363.000000000043
 31
0.0
  0
LINE
  5
1C2E2
330
747D
100
AcDbEntity
  8
細線
 48
5.0
100
AcDbLine
 10
5956.570176668493
 20
3199.20732841167
 30
0.0
 11
5905.545651618274
 21
3190.210327967482
 31
0.0
  0
LINE
  5
1C2E3
330
747D
100
AcDbEntity
  8
細線
 48
5.0
100
AcDbLine
 10
5925.029581418184
 20
3270.000000000043
 30
0.0
 11
5942.329581418182
 21
3270.000000000043
 31
0.0
  0
LINE
  5
1C2E4
330
747D
100
AcDbEntity
  8
細線
 48
5.0
100
AcDbLine
 10
5981.613616867365
 20
3343.000000000044
 30
0.0
 11
5925.629581418173
 21
3343.000000000042
 31
0.0
  0
LINE
  5
1C2E5
330
747D
100
AcDbEntity
  8
破線
 48
5.0
100
AcDbLine
 10
6144.329581418176
 20
3140.000000000047
 30
0.0
 11
6144.329581418176
 21
2940.000000000045
 31
0.0
  0
LINE
  5
1C2E6
330
747D
100
AcDbEntity
  8
破線
 48
5.0
100
AcDbLine
 10
6065.329581418174
 20
3140.000000000043
 30
0.0
 11
6065.329581418176
 21
3030.000000000043
 31
0.0
  0
LINE
  5
1C2E7
330
747D
100
AcDbEntity
  8
破線
 48
5.0
100
AcDbLine
 10
6023.329581418174
 20
3140.000000000043
 30
0.0
 11
6023.329581418176
 21
3030.000000000043
 31
0.0
  0
LINE
  5
1C2E8
330
747D
100
AcDbEntity
  8
破線
 48
5.0
100
AcDbLine
 10
5944.329581418176
 20
3140.000000000047
 30
0.0
 11
5944.329581418176
 21
2940.000000000045
 31
0.0
  0
LINE
  5
1C2E9
330
747D
100
AcDbEntity
  8
破線
 48
5.0
100
AcDbLine
 10
6144.329581418176
 20
2940.000000000045
 30
0.0
 11
5944.329581418173
 21
2940.000000000045
 31
0.0
  0
LINE
  5
1C2EA
330
747D
100
AcDbEntity
  8
破線
 48
5.0
100
AcDbLine
 10
6023.329581418176
 20
3030.000000000043
 30
0.0
 11
6065.329581418176
 21
3030.000000000043
 31
0.0
  0
LINE
  5
1C2EB
330
747D
100
AcDbEntity
  8
部品1
 48
50.0
100
AcDbLine
 10
6202.829581418176
 20
3275.000000000044
 30
0.0
 11
6202.829581418174
 21
3140.000000000043
 31
0.0
  0
ARC
  5
1C2EC
330
747D
100
AcDbEntity
  8
細線
 48
5.0
100
AcDbCircle
 10
5951.829581418183
 20
3226.092580068903
 30
0.0
 40
27.3
100
AcDbArc
 50
280.0
 51
359.9999999999999
  0
ARC
  5
1C2ED
330
747D
100
AcDbEntity
  8
細線
 48
5.0
100
AcDbCircle
 10
5981.613616867365
 20
3340.000000000044
 30
0.0
 40
3.0
100
AcDbArc
 50
45.87245712290256
 51
90.0000000000009
  0
LINE
  5
1C2EE
330
747D
100
AcDbEntity
  8
細線
 48
5.0
100
AcDbLine
 10
6002.829581418174
 20
3323.600000000043
 30
0.0
 11
5983.702390655738
 21
3342.153375039605
 31
0.0
  0
LINE
  5
1C2EF
330
747D
100
AcDbEntity
  8
部品1
 48
50.0
100
AcDbLine
 10
6023.329581418174
 20
3310.000000000045
 30
0.0
 11
6023.329581418174
 21
3140.000000000043
 31
0.0
  0
LINE
  5
1C2F0
330
747D
100
AcDbEntity
  8
部品1
 48
50.0
100
AcDbLine
 10
6065.329581418172
 20
3310.000000000043
 30
0.0
 11
6065.329581418174
 21
3140.000000000043
 31
0.0
  0
ARC
  5
1C2F1
330
747D
100
AcDbEntity
  8
部品1
 48
50.0
100
AcDbCircle
 10
6028.329581418174
 20
3310.000000000045
 30
0.0
 40
5.0
100
AcDbArc
 50
90.0
 51
179.9999999999993
  0
LINE
  5
1C2F2
330
747D
100
AcDbEntity
  8
部品1
 48
50.0
100
AcDbLine
 10
6028.329581418174
 20
3315.000000000045
 30
0.0
 11
6060.329581418172
 21
3315.000000000043
 31
0.0
  0
ARC
  5
1C2F3
330
747D
100
AcDbEntity
  8
部品1
 48
50.0
100
AcDbCircle
 10
6060.329581418172
 20
3310.000000000043
 30
0.0
 40
5.0
100
AcDbArc
 50
359.9999999999993
 51
90.0
  0
LINE
  5
1C2F4
330
747D
100
AcDbEntity
  8
部品1
 48
50.0
100
AcDbLine
 10
6023.329581418174
 20
3275.000000000044
 30
0.0
 11
6002.829581418174
 21
3275.000000000044
 31
0.0
  0
LINE
  5
1C2F5
330
747D
100
AcDbEntity
  8
細線
 48
5.0
100
AcDbLine
 10
5942.829581418183
 20
3269.500000000043
 30
0.0
 11
5942.829581418183
 21
3216.376514579386
 31
0.0
  0
ARC
  5
1C2F6
330
747D
100
AcDbEntity
  8
細線
 48
5.0
100
AcDbCircle
 10
5961.329581418183
 20
3269.500000000043
 30
0.0
 40
0.5
100
AcDbArc
 50
90.0
 51
180.0000000000001
  0
ARC
  5
1C2F7
330
747D
100
AcDbEntity
  8
細線
 48
5.0
100
AcDbCircle
 10
5978.629581418186
 20
3269.500000000043
 30
0.0
 40
0.5
100
AcDbArc
 50
359.9999999999999
 51
90.0
  0
LINE
  5
1C2F8
330
747D
100
AcDbEntity
  8
細線
 48
5.0
100
AcDbLine
 10
5961.329581418183
 20
3270.000000000043
 30
0.0
 11
5978.629581418186
 21
3270.000000000043
 31
0.0
  0
LINE
  5
1C2F9
330
747D
100
AcDbEntity
  8
細線
 48
5.0
100
AcDbLine
 10
5979.129581418185
 20
3269.500000000043
 30
0.0
 11
5979.129581418185
 21
3226.092580068903
 31
0.0
  0
LINE
  5
1C2FA
330
747D
100
AcDbEntity
  8
細線
 48
5.0
100
AcDbLine
 10
5960.829581418183
 20
3269.500000000043
 30
0.0
 11
5960.829581418183
 21
3219.550400232138
 31
0.0
  0
LINE
  5
1C2FB
330
747D
100
AcDbEntity
  8
細線
 48
5.0
100
AcDbLine
 10
5942.329581418182
 20
3270.000000000043
 30
0.0
 11
5961.329581418183
 21
3270.000000000043
 31
0.0
  0
ARC
  5
1C2FC
330
747D
100
AcDbEntity
  8
細線
 48
5.0
100
AcDbCircle
 10
5942.329581418182
 20
3269.500000000043
 30
0.0
 40
0.5
100
AcDbArc
 50
359.9999999999998
 51
90.0
  0
LINE
  5
1C2FD
330
747D
100
AcDbEntity
  8
細線
 48
5.0
100
AcDbLine
 10
5963.829581418185
 20
3343.000000000044
 30
0.0
 11
5963.829581418183
 21
3270.000000000043
 31
0.0
  0
LINE
  5
1C2FE
330
747D
100
AcDbEntity
  8
細線
 48
5.0
100
AcDbLine
 10
5939.829581418185
 20
3343.000000000044
 30
0.0
 11
5939.829581418183
 21
3270.000000000043
 31
0.0
  0
LINE
  5
1C2FF
330
747D
100
AcDbEntity
  8
細線
 48
5.0
100
AcDbLine
 10
5976.829581418185
 20
3343.000000000044
 30
0.0
 11
5976.829581418183
 21
3270.000000000043
 31
0.0
  0
LINE
  5
1C300
330
747D
100
AcDbEntity
  8
細線
 48
5.0
100
AcDbLine
 10
5978.029581418176
 20
3343.000000000044
 30
0.0
 11
5978.029581418178
 21
3363.000000000043
 31
0.0
  0
LINE
  5
1C301
330
747D
100
AcDbEntity
  8
細線
 48
5.0
100
AcDbLine
 10
5899.98524050584
 20
3243.749344184163
 30
0.0
 11
5904.375463606392
 21
3191.11201918293
 31
0.0
  0
ARC
  5
1C302
330
747D
100
AcDbEntity
  8
細線
 48
5.0
100
AcDbCircle
 10
5905.37200344061
 20
3191.195135720496
 30
0.0
 40
1.0
100
AcDbArc
 50
184.7677271218682
 51
280.0
  0
ARC
  5
1C303
330
747D
100
AcDbEntity
  8
細線
 48
5.0
100
AcDbCircle
 10
5925.029581418184
 20
3269.500000000043
 30
0.0
 40
0.5
100
AcDbArc
 50
90.0
 51
179.9999999999998
  0
ARC
  5
1C304
330
747D
100
AcDbEntity
  8
細線
 48
5.0
100
AcDbCircle
 10
5900.981780340057
 20
3243.832460721729
 30
0.0
 40
1.0
100
AcDbArc
 50
100.0000000000001
 51
184.7677271218682
  0
LINE
  5
1C305
330
747D
100
AcDbEntity
  8
細線
 48
5.0
100
AcDbLine
 10
5924.529581418184
 20
3249.000000000043
 30
0.0
 11
5929.270176668491
 21
3222.11474834281
 31
0.0
  0
LINE
  5
1C306
330
747D
100
AcDbEntity
  8
細線
 48
5.0
100
AcDbLine
 10
5924.529581418184
 20
3249.000000000043
 30
0.0
 11
5900.808132162389
 21
3244.81726847474
 31
0.0
  0
LINE
  5
1C307
330
747D
100
AcDbEntity
  8
細線
 48
5.0
100
AcDbLine
 10
5924.529581418184
 20
3269.500000000043
 30
0.0
 11
5924.529581418184
 21
3249.000000000043
 31
0.0
  0
LINE
  5
1C308
330
747D
100
AcDbEntity
  8
細線
 48
5.0
100
AcDbLine
 10
5926.829581418185
 20
3343.000000000044
 30
0.0
 11
5926.829581418183
 21
3270.000000000043
 31
0.0
  0
LINE
  5
1C309
330
747D
100
AcDbEntity
  8
細線
 48
5.0
100
AcDbLine
 10
5925.629581418174
 20
3343.000000000044
 30
0.0
 11
5925.629581418173
 21
3363.000000000043
 31
0.0
  0
LINE
  5
1C30A
330
747D
100
AcDbEntity
  8
細線
 48
5.0
100
AcDbLine
 10
5978.029581418182
 20
4307.500000000043
 30
0.0
 11
5925.629581418171
 21
4307.500000000046
 31
0.0
  0
LINE
  5
1C30B
330
747D
100
AcDbEntity
  8
細線
 48
5.0
100
AcDbLine
 10
5978.02958141818
 20
4287.500000000044
 30
0.0
 11
5925.629581418171
 21
4287.500000000044
 31
0.0
  0
LINE
  5
1C30C
330
747D
100
AcDbEntity
  8
細線
 48
5.0
100
AcDbLine
 10
5978.029581418182
 20
4307.500000000043
 30
0.0
 11
6002.829581418177
 21
4327.500000000044
 31
0.0
  0
LINE
  5
1C30D
330
747D
100
AcDbEntity
  8
細線
 48
5.0
100
AcDbLine
 10
5978.029581418182
 20
4287.500000000044
 30
0.0
 11
6002.829581418177
 21
4267.500000000043
 31
0.0
  0
LINE
  5
1C30E
330
747D
100
AcDbEntity
  8
細線
 48
5.0
100
AcDbLine
 10
5978.02958141818
 20
4307.500000000043
 30
0.0
 11
5978.02958141818
 21
4287.500000000044
 31
0.0
  0
LINE
  5
1C30F
330
747D
100
AcDbEntity
  8
細線
 48
5.0
100
AcDbLine
 10
5925.629581418173
 20
4307.500000000043
 30
0.0
 11
5925.629581418171
 21
4287.500000000044
 31
0.0
  0
DIMENSION
  5
1C310
330
747D
100
AcDbEntity
  8
寸法
 48
50.0
100
AcDbDimension
  2
*D31
 10
5907.829581418173
 20
6238.281130716565
 30
0.0
 11
5575.270526300066
 21
6238.281130716565
 31
0.0
 12
6069.999999999999
 22
0.0000000000436557
 32
0.0
 70
   160
 71
     5
 42
-1.0
  3
INABA_S50G
100
AcDbAlignedDimension
 13
6002.829581418174
 23
5488.337018226885
 33
0.0
 14
5907.829581418173
 24
5485.000000000043
 34
0.0
100
AcDbRotatedDimension
1001
ACAD
1000
DSTYLE
1002
{
1002
}
  0
LINE
  5
1C311
330
747D
100
AcDbEntity
  8
細線
 48
5.0
100
AcDbLine
 10
6002.829581418176
 20
5232.000000000044
 30
0.0
 11
5925.629581418171
 21
5232.000000000044
 31
0.0
  0
LINE
  5
1C312
330
747D
100
AcDbEntity
  8
細線
 48
5.0
100
AcDbLine
 10
5953.129581418177
 20
5330.509238873081
 30
0.0
 11
5933.529581418178
 21
5330.509238873081
 31
0.0
  0
LINE
  5
1C313
330
747D
100
AcDbEntity
  8
細線
 48
5.0
100
AcDbLine
 10
5971.829581418173
 20
5310.80923887308
 30
0.0
 11
5931.829581418174
 21
5310.80923887308
 31
0.0
  0
LINE
  5
1C314
330
747D
100
AcDbEntity
  8
細線
 48
5.0
100
AcDbLine
 10
5978.629581418177
 20
5286.80923887308
 30
0.0
 11
5925.029581418178
 21
5286.80923887308
 31
0.0
  0
ARC
  5
1C315
330
747D
100
AcDbEntity
  8
部品1
100
AcDbCircle
 10
5935.294180944379
 20
5376.419282939874
 30
0.0
 40
15.5
100
AcDbArc
 50
186.0754638750791
 51
270.9112955958145
  0
LINE
  5
1C316
330
747D
100
AcDbEntity
  8
細線
 48
5.0
100
AcDbLine
 10
5981.613616867363
 20
5252.000000000044
 30
0.0
 11
5925.629581418171
 21
5252.000000000044
 31
0.0
  0
LINE
  5
1C317
330
747D
100
AcDbEntity
  8
細線
 48
50.0
100
AcDbLine
 10
5945.182205381527
 20
5486.840994369861
 30
0.0
 11
5949.258734442765
 21
5361.395765918073
 31
0.0
  0
ARC
  5
1C318
330
747D
100
AcDbEntity
  8
細線
 48
5.0
100
AcDbCircle
 10
5983.329581418174
 20
5319.80923887308
 30
0.0
 40
1.0
100
AcDbArc
 50
0.000000000000007
 51
90.0
  0
LINE
  5
1C319
330
747D
100
AcDbEntity
  8
細線
 48
5.0
100
AcDbLine
 10
5979.129581418177
 20
5300.80923887308
 30
0.0
 11
5983.840959583756
 21
5306.245444448752
 31
0.0
  0
ARC
  5
1C31A
330
747D
100
AcDbEntity
  8
細線
 48
5.0
100
AcDbCircle
 10
5971.829581418173
 20
5320.80923887308
 30
0.0
 40
10.0
100
AcDbArc
 50
270.0
 51
0.000000000000007
  0
LINE
  5
1C31B
330
747D
100
AcDbEntity
  8
細線
 48
5.0
100
AcDbLine
 10
6002.829581418174
 20
5360.000000000043
 30
0.0
 11
5981.829581418172
 21
5360.000000000043
 31
0.0
  0
ARC
  5
1C31C
330
747D
100
AcDbEntity
  8
細線
 48
5.0
100
AcDbCircle
 10
5985.829581418173
 20
5308.000000000044
 30
0.0
 40
3.0
100
AcDbArc
 50
222.3153150487441
 51
270.0
  0
LINE
  5
1C31D
330
747D
100
AcDbEntity
  8
細線
 48
5.0
100
AcDbLine
 10
6002.829581418172
 20
5271.400000000046
 30
0.0
 11
5983.702390655736
 21
5252.846624960483
 31
0.0
  0
ARC
  5
1C31E
330
747D
100
AcDbEntity
  8
細線
 48
5.0
100
AcDbCircle
 10
5981.613616867363
 20
5255.000000000044
 30
0.0
 40
3.0
100
AcDbArc
 50
269.999999999999
 51
314.1275428770974
  0
LINE
  5
1C31F
330
747D
100
AcDbEntity
  8
部品1
100
AcDbLine
 10
6002.829581418174
 20
5315.000000000043
 30
0.0
 11
6002.829581418174
 21
5275.000000000044
 31
0.0
  0
ARC
  5
1C320
330
747D
100
AcDbEntity
  8
細線
 48
5.0
100
AcDbCircle
 10
5982.329581418174
 20
5307.555305525588
 30
0.0
 40
2.0
100
AcDbArc
 50
319.085616779975
 51
0.0000000000000579
  0
LINE
  5
1C321
330
747D
100
AcDbEntity
  8
細線
 48
5.0
100
AcDbLine
 10
5984.329581418173
 20
5319.80923887308
 30
0.0
 11
5984.329581418173
 21
5307.555305525588
 31
0.0
  0
LINE
  5
1C322
330
747D
100
AcDbEntity
  8
細線
 48
5.0
100
AcDbLine
 10
6002.829581418174
 20
5305.000000000044
 30
0.0
 11
5985.829581418173
 21
5305.000000000044
 31
0.0
  0
LINE
  5
1C323
330
747D
100
AcDbEntity
  8
細線
 48
5.0
100
AcDbLine
 10
5973.129581418178
 20
5362.221485768896
 30
0.0
 11
5973.129581418177
 21
5350.509238873081
 31
0.0
  0
LINE
  5
1C324
330
747D
100
AcDbEntity
  8
細線
 48
5.0
100
AcDbLine
 10
5983.329581418174
 20
5320.80923887308
 30
0.0
 11
5981.829581418174
 21
5320.80923887308
 31
0.0
  0
LINE
  5
1C325
330
747D
100
AcDbEntity
  8
細線
 48
5.0
100
AcDbLine
 10
5982.329581418174
 20
5320.80923887308
 30
0.0
 11
5982.329581418174
 21
5320.80923887308
 31
0.0
  0
LINE
  5
1C326
330
747D
100
AcDbEntity
  8
細線
 48
5.0
100
AcDbLine
 10
5981.829581418174
 20
5359.80923887308
 30
0.0
 11
5981.829581418174
 21
5332.80923887308
 31
0.0
  0
LINE
  5
1C327
330
747D
100
AcDbEntity
  8
細線
 48
5.0
100
AcDbLine
 10
5981.829581418174
 20
5362.522428701904
 30
0.0
 11
5981.829581418174
 21
5320.80923887308
 31
0.0
  0
ARC
  5
1C328
330
747D
100
AcDbEntity
  8
細線
 48
5.0
100
AcDbCircle
 10
5953.129581418177
 20
5350.509238873081
 30
0.0
 40
20.0
100
AcDbArc
 50
270.0
 51
359.9999999999999
  0
LINE
  5
1C329
330
747D
100
AcDbEntity
  8
細線
 48
5.0
100
AcDbLine
 10
5939.829581418178
 20
5286.80923887308
 30
0.0
 11
5939.829581418173
 21
5252.000000000044
 31
0.0
  0
LINE
  5
1C32A
330
747D
100
AcDbEntity
  8
細線
 48
5.0
100
AcDbLine
 10
5942.829581418173
 20
5290.80923887308
 30
0.0
 11
5942.829581418173
 21
5286.80923887308
 31
0.0
  0
LINE
  5
1C32B
330
747D
100
AcDbEntity
  8
細線
 48
5.0
100
AcDbLine
 10
5957.829581418174
 20
5293.80923887308
 30
0.0
 11
5945.829581418173
 21
5293.80923887308
 31
0.0
  0
LINE
  5
1C32C
330
747D
100
AcDbEntity
  8
細線
 48
5.0
100
AcDbLine
 10
5960.829581418174
 20
5290.80923887308
 30
0.0
 11
5960.829581418174
 21
5286.80923887308
 31
0.0
  0
LINE
  5
1C32D
330
747D
100
AcDbEntity
  8
細線
 48
5.0
100
AcDbLine
 10
5963.829581418174
 20
5286.80923887308
 30
0.0
 11
5963.829581418174
 21
5252.000000000044
 31
0.0
  0
ARC
  5
1C32E
330
747D
100
AcDbEntity
  8
細線
 48
5.0
100
AcDbCircle
 10
5957.829581418174
 20
5290.80923887308
 30
0.0
 40
3.0
100
AcDbArc
 50
0.000000000000007
 51
90.0
  0
ARC
  5
1C32F
330
747D
100
AcDbEntity
  8
細線
 48
5.0
100
AcDbCircle
 10
5978.629581418177
 20
5287.30923887308
 30
0.0
 40
0.5
100
AcDbArc
 50
270.0
 51
0.000000000000007
  0
LINE
  5
1C330
330
747D
100
AcDbEntity
  8
細線
 48
5.0
100
AcDbLine
 10
5976.829581418179
 20
5286.80923887308
 30
0.0
 11
5976.829581418174
 21
5252.000000000044
 31
0.0
  0
LINE
  5
1C331
330
747D
100
AcDbEntity
  8
細線
 48
5.0
100
AcDbLine
 10
5979.129581418177
 20
5300.80923887308
 30
0.0
 11
5979.129581418177
 21
5287.30923887308
 31
0.0
  0
ARC
  5
1C332
330
747D
100
AcDbEntity
  8
細線
 48
5.0
100
AcDbCircle
 10
5945.829581418173
 20
5290.80923887308
 30
0.0
 40
3.0
100
AcDbArc
 50
90.0
 51
180.0
  0
LINE
  5
1C333
330
747D
100
AcDbEntity
  8
細線
 48
5.0
100
AcDbLine
 10
5978.029581418175
 20
5252.000000000044
 30
0.0
 11
5978.029581418176
 21
5232.000000000044
 31
0.0
  0
LINE
  5
1C334
330
747D
100
AcDbEntity
  8
部品1
100
AcDbLine
 10
5907.916287634872
 20
5458.84809768507
 30
0.0
 11
5916.114720265149
 21
5381.821266955478
 31
0.0
  0
LINE
  5
1C335
330
747D
100
AcDbEntity
  8
細線
 48
5.0
100
AcDbLine
 10
5926.829581418178
 20
5345.80923887308
 30
0.0
 11
5921.82958141817
 21
5345.80923887308
 31
0.0
  0
LINE
  5
1C336
330
747D
100
AcDbEntity
  8
細線
 48
5.0
100
AcDbLine
 10
5921.829581418173
 20
5320.80923887308
 30
0.0
 11
5920.329581418173
 21
5320.80923887308
 31
0.0
  0
LINE
  5
1C337
330
747D
100
AcDbEntity
  8
細線
 48
5.0
100
AcDbLine
 10
5926.829581418178
 20
5335.509238873081
 30
0.0
 11
5926.829581418178
 21
5345.80923887308
 31
0.0
  0
LINE
  5
1C338
330
747D
100
AcDbEntity
  8
細線
 48
5.0
100
AcDbLine
 10
5926.829581418178
 20
5345.80923887308
 30
0.0
 11
5926.829581418178
 21
5345.80923887308
 31
0.0
  0
LINE
  5
1C339
330
747D
100
AcDbEntity
  8
細線
 48
5.0
100
AcDbLine
 10
5921.329581418174
 20
5320.80923887308
 30
0.0
 11
5921.329581418174
 21
5320.80923887308
 31
0.0
  0
ARC
  5
1C33A
330
747D
100
AcDbEntity
  8
細線
 48
5.0
100
AcDbCircle
 10
5920.329581418173
 20
5319.80923887308
 30
0.0
 40
1.0
100
AcDbArc
 50
90.0
 51
180.0
  0
LINE
  5
1C33B
330
747D
100
AcDbEntity
  8
細線
 48
5.0
100
AcDbLine
 10
5931.029581418179
 20
5333.009238873081
 30
0.0
 11
5931.029581418179
 21
5333.009238873081
 31
0.0
  0
ARC
  5
1C33C
330
747D
100
AcDbEntity
  8
細線
 48
5.0
100
AcDbCircle
 10
5928.529581418178
 20
5333.009238873081
 30
0.0
 40
2.5
100
AcDbArc
 50
0.000000000000007
 51
90.0
  0
ARC
  5
1C33D
330
747D
100
AcDbEntity
  8
細線
 48
5.0
100
AcDbCircle
 10
5933.529581418178
 20
5333.009238873081
 30
0.0
 40
2.5
100
AcDbArc
 50
180.0
 51
270.0
  0
LINE
  5
1C33E
330
747D
100
AcDbEntity
  8
細線
 48
5.0
100
AcDbLine
 10
5928.529581418178
 20
5335.509238873081
 30
0.0
 11
5926.829581418178
 21
5335.509238873081
 31
0.0
  0
LINE
  5
1C33F
330
747D
100
AcDbEntity
  8
細線
 48
5.0
100
AcDbLine
 10
5921.829581418173
 20
5320.80923887308
 30
0.0
 11
5921.829581418173
 21
5345.80923887308
 31
0.0
  0
LINE
  5
1C340
330
747D
100
AcDbEntity
  8
細線
 48
5.0
100
AcDbLine
 10
5924.529581418178
 20
5300.80923887308
 30
0.0
 11
5919.818203252596
 21
5306.245444448752
 31
0.0
  0
ARC
  5
1C341
330
747D
100
AcDbEntity
  8
細線
 48
5.0
100
AcDbCircle
 10
5921.329581418174
 20
5307.555305525588
 30
0.0
 40
2.0
100
AcDbArc
 50
180.0
 51
220.9143832200251
  0
ARC
  5
1C342
330
747D
100
AcDbEntity
  8
細線
 48
5.0
100
AcDbCircle
 10
5925.029581418178
 20
5287.30923887308
 30
0.0
 40
0.5
100
AcDbArc
 50
180.0
 51
270.0
  0
LINE
  5
1C343
330
747D
100
AcDbEntity
  8
細線
 48
5.0
100
AcDbLine
 10
5926.829581418171
 20
5286.80923887308
 30
0.0
 11
5926.829581418174
 21
5252.000000000044
 31
0.0
  0
LINE
  5
1C344
330
747D
100
AcDbEntity
  8
細線
 48
5.0
100
AcDbLine
 10
5924.529581418178
 20
5300.80923887308
 30
0.0
 11
5924.529581418178
 21
5287.30923887308
 31
0.0
  0
ARC
  5
1C345
330
747D
100
AcDbEntity
  8
細線
 48
5.0
100
AcDbCircle
 10
5931.829581418174
 20
5320.80923887308
 30
0.0
 40
10.0
100
AcDbArc
 50
180.0
 51
270.0
  0
LINE
  5
1C346
330
747D
100
AcDbEntity
  8
細線
 48
5.0
100
AcDbLine
 10
5919.329581418174
 20
5319.80923887308
 30
0.0
 11
5919.329581418174
 21
5307.555305525588
 31
0.0
  0
LINE
  5
1C347
330
747D
100
AcDbEntity
  8
部品1
100
AcDbLine
 10
5919.482399800953
 20
5378.526007551155
 30
0.0
 11
5919.881238878696
 21
5374.778790062752
 31
0.0
  0
ARC
  5
1C348
330
747D
100
AcDbEntity
  8
部品1
 48
50.0
100
AcDbCircle
 10
5917.307980296043
 20
5381.948272855639
 30
0.0
 40
1.199999999999999
100
AcDbArc
 50
186.0754638750989
 51
265.1699938773959
  0
ARC
  5
1C349
330
747D
100
AcDbEntity
  8
部品1
 48
50.0
100
AcDbCircle
 10
5916.996441403259
 20
5378.261411925814
 30
0.0
 40
2.5
100
AcDbArc
 50
6.075463875091184
 51
85.16999387739907
  0
LINE
  5
1C34A
330
747D
100
AcDbEntity
  8
細線
 48
5.0
100
AcDbLine
 10
5925.629581418173
 20
5252.000000000044
 30
0.0
 11
5925.629581418171
 21
5232.000000000044
 31
0.0
  0
LINE
  5
1C34B
330
747D
100
AcDbEntity
  8
部品1
100
AcDbLine
 10
5927.323376691624
 20
5477.05540357342
 30
0.0
 11
5929.939382888232
 21
5484.088160010495
 31
0.0
  0
ARC
  5
1C34C
330
747D
100
AcDbEntity
  8
部品1
100
AcDbCircle
 10
5923.329581418173
 20
5460.485286065516
 30
0.0
 40
15.5
100
AcDbArc
 50
91.86125648319634
 51
186.0754638750989
  0
ARC
  5
1C34D
330
747D
100
AcDbEntity
  8
部品1
100
AcDbCircle
 10
5933.219786405295
 20
5482.867933488392
 30
0.0
 40
3.5
100
AcDbArc
 50
91.03524671598787
 51
159.5960814224235
  0
ARC
  5
1C34E
330
747D
100
AcDbEntity
  8
部品1
100
AcDbCircle
 10
5925.897882695188
 20
5477.525647802791
 30
0.0
 40
1.5
100
AcDbArc
 50
270.9018459011011
 51
339.5960814224101
  0
LINE
  5
1C34F
330
747D
100
AcDbEntity
  8
部品1
 48
50.0
100
AcDbLine
 10
5925.921491990759
 20
5476.025833613912
 30
0.0
 11
5922.826151637425
 21
5475.977108374587
 31
0.0
  0
DIMENSION
  5
1C350
330
747D
100
AcDbEntity
  8
寸法
 48
50.0
100
AcDbDimension
  2
*D23
 10
6144.329581418176
 20
2653.952670699669
 30
0.0
 11
6431.293164095341
 21
2653.952670699669
 31
0.0
 12
6069.999999999999
 22
0.0000000000436557
 32
0.0
 70
   160
 71
     5
 42
-1.0
  3
INABA_S50G
100
AcDbAlignedDimension
 13
5944.329581418173
 23
2940.000000000045
 33
0.0
 14
6144.329581418176
 24
2940.000000000045
 34
0.0
100
AcDbRotatedDimension
  0
DIMENSION
  5
1C351
330
747D
100
AcDbEntity
  8
寸法
 48
50.0
100
AcDbDimension
  2
*D22
 10
5545.994446424295
 20
3140.000000000043
 30
0.0
 11
5545.994446424295
 21
2653.03641732288
 31
0.0
 12
6069.999999999999
 22
0.0000000000436557
 32
0.0
 70
   160
 71
     5
 42
-1.0
  3
INABA_S50G
100
AcDbAlignedDimension
 13
5944.329581418176
 23
2940.000000000045
 33
0.0
 14
5944.329581418173
 24
3140.000000000043
 34
0.0
 50
270.0
100
AcDbRotatedDimension
  0
LINE
  5
1C457
330
747D
100
AcDbEntity
  8
部品1
100
AcDbLine
 10
7289.05513660854
 20
2526.882077830556
 30
0.0
 11
6016.604026227807
 21
2526.882077830556
 31
0.0
  0
LINE
  5
1C458
330
747D
100
AcDbEntity
  8
部品1
100
AcDbLine
 10
6016.604026227807
 20
2526.882077830556
 30
0.0
 11
6016.604026227807
 21
2127.061541921335
 31
0.0
  0
LINE
  5
1C459
330
747D
100
AcDbEntity
  8
部品1
100
AcDbLine
 10
6016.604026227807
 20
2127.061541921335
 30
0.0
 11
7289.05513660854
 21
2127.061541921335
 31
0.0
  0
LINE
  5
1C45A
330
747D
100
AcDbEntity
  8
部品1
100
AcDbLine
 10
7289.05513660854
 20
2127.061541921335
 30
0.0
 11
7289.05513660854
 21
2526.882077830556
 31
0.0
  0
TEXT
  5
1C45C
330
747D
100
AcDbEntity
  8
部品1
100
AcDbText
 10
6179.73495670563
 20
2217.456201220877
 30
0.0
 40
225.0
  1
側面図
  7
STYLE2
100
AcDbText
  0
LINE
  5
1C45D
330
747D
100
AcDbEntity
  8
Ｇ．Ｌ
 48
50.0
100
AcDbLine
 10
4814.693732604355
 20
3140.0
 30
0.0
 11
15234.30626739564
 21
3140.0
 31
0.0
  0
TEXT
  5
1C45E
330
747D
100
AcDbEntity
  8
仕様書枠
 62
     7
 48
50.0
100
AcDbText
 10
4823.500522708389
 20
3170.736447636176
 30
0.0
 40
125.0
  1
▽G.L
  7
STYLE2
100
AcDbText
  0
ARC
  5
1C45F
330
747D
100
AcDbEntity
  8
部品1
 62
     2
 48
50.0
100
AcDbCircle
 10
6164.329581418173
 20
4269.000000000043
 30
0.0
 40
20.0
100
AcDbArc
 50
23.57817800000002
 51
336.4218220000001
  0
ARC
  5
1C460
330
747D
100
AcDbEntity
  8
部品1
 62
     2
 48
50.0
100
AcDbCircle
 10
6164.329581418173
 20
4269.000000000043
 30
0.0
 40
8.0
100
AcDbArc
 50
90.0
 51
270.0
  0
ARC
  5
1C461
330
747D
100
AcDbEntity
  8
部品1
 62
     2
 48
50.0
100
AcDbCircle
 10
6256.329581418181
 20
4269.000000000043
 30
0.0
 40
8.0
100
AcDbArc
 50
270.0
 51
90.0
  0
LINE
  5
1C462
330
747D
100
AcDbEntity
  8
部品1
 62
     2
 48
50.0
100
AcDbLine
 10
6164.329581418173
 20
4277.000000000036
 30
0.0
 11
6256.329581418181
 21
4277.000000000036
 31
0.0
  0
LINE
  5
1C463
330
747D
100
AcDbEntity
  8
部品1
 62
     2
 48
50.0
100
AcDbLine
 10
6256.329581418181
 20
4261.000000000051
 30
0.0
 11
6164.329581418173
 21
4261.000000000051
 31
0.0
  0
CIRCLE
  5
1C464
330
747D
100
AcDbEntity
  8
部品1
 62
     2
 48
50.0
100
AcDbCircle
 10
6164.329581418173
 20
4485.500000000043
 30
0.0
 40
10.0
  0
CIRCLE
  5
1C465
330
747D
100
AcDbEntity
  8
部品1
 62
     2
 48
50.0
100
AcDbCircle
 10
6164.329581418173
 20
4485.500000000043
 30
0.0
 40
20.0
  0
CIRCLE
  5
1C466
330
747D
100
AcDbEntity
  8
部品1
 62
     2
 48
50.0
100
AcDbCircle
 10
6164.329581418173
 20
4334.000000000044
 30
0.0
 40
20.0
  0
CIRCLE
  5
1C467
330
747D
100
AcDbEntity
  8
部品1
 62
     2
 48
50.0
100
AcDbCircle
 10
6164.329581418173
 20
4334.000000000044
 30
0.0
 40
10.0
  0
LINE
  5
1C468
330
747D
100
AcDbEntity
  8
部品1
 62
     2
 48
50.0
100
AcDbLine
 10
6836.329581418173
 20
5139.000000000044
 30
0.0
 11
6100.329581418173
 21
5139.000000000044
 31
0.0
  0
LINE
  5
1C469
330
747D
100
AcDbEntity
  8
部品1
 62
     2
 48
50.0
100
AcDbLine
 10
6862.829581418172
 20
5142.000000000043
 30
0.0
 11
6072.829581418172
 21
5142.000000000043
 31
0.0
  0
LINE
  5
1C46A
330
747D
100
AcDbEntity
  8
部品1
 62
     2
 48
50.0
100
AcDbLine
 10
6862.829581418172
 20
5170.000000000044
 30
0.0
 11
6072.829581418172
 21
5170.000000000044
 31
0.0
  0
LINE
  5
1C46B
330
747D
100
AcDbEntity
  8
部品1
 62
     2
 48
50.0
100
AcDbLine
 10
6836.329581418173
 20
5142.000000000043
 30
0.0
 11
6836.329581418173
 21
3275.000000000044
 31
0.0
  0
LINE
  5
1C46C
330
747D
100
AcDbEntity
  8
部品1
 62
     2
 48
50.0
100
AcDbLine
 10
6100.329581418173
 20
3309.000000000043
 30
0.0
 11
6836.329581418173
 21
3309.000000000043
 31
0.0
  0
LINE
  5
1C46D
330
747D
100
AcDbEntity
  8
部品1
 62
     2
 48
50.0
100
AcDbLine
 10
6100.329581418173
 20
3318.000000000044
 30
0.0
 11
6836.329581418173
 21
3318.000000000044
 31
0.0
  0
LINE
  5
1C46E
330
747D
100
AcDbEntity
  8
部品1
 62
     2
 48
50.0
100
AcDbLine
 10
6100.329581418173
 20
5142.000000000043
 30
0.0
 11
6100.329581418173
 21
3275.000000000044
 31
0.0
  0
DIMENSION
  5
1C46F
330
747D
100
AcDbEntity
  8
寸法
 48
50.0
100
AcDbDimension
  2
*D32
 10
5654.899621195021
 20
5170.000000000044
 30
0.0
 11
5554.899621195022
 21
4222.500000000043
 31
0.0
 12
-580.0
 22
0.0
 32
0.0
 70
    32
 71
     5
 42
-1.0
  3
INABA_S50G
100
AcDbAlignedDimension
 13
6002.829581418174
 23
3275.000000000044
 33
0.0
 14
6072.829581418172
 24
5170.000000000044
 34
0.0
 50
90.0
100
AcDbRotatedDimension
  0
LINE
  5
1C47C
330
747D
100
AcDbEntity
  8
部品1
 48
50.0
100
AcDbLine
 10
6862.829581418175
 20
5275.000000000044
 30
0.0
 11
6862.829581418174
 21
3275.000000000044
 31
0.0
  0
LINE
  5
1C493
330
747D
100
AcDbEntity
  8
部品1
 48
50.0
100
AcDbLine
 10
12687.82958141817
 20
9686.736797362016
 30
0.0
 11
12687.82958141817
 21
9263.736797362014
 31
0.0
  0
LINE
  5
1C494
330
747D
100
AcDbEntity
  8
部品1
 48
50.0
100
AcDbLine
 10
12652.82958141817
 20
9668.736797362022
 30
0.0
 11
12652.82958141817
 21
9238.736797362014
 31
0.0
  0
LINE
  5
1C495
330
747D
100
AcDbEntity
  8
部品1
 48
50.0
100
AcDbLine
 10
12702.82958141816
 20
9686.736797362014
 30
0.0
 11
12702.82958141816
 21
9278.736797362014
 31
0.0
  0
DIMENSION
  5
1C496
330
747D
100
AcDbEntity
  8
寸法
 48
50.0
100
AcDbDimension
  2
*D33
 10
12168.38589554557
 20
9662.736797362015
 30
0.0
 11
12068.37113176604
 21
10063.73679736201
 31
0.0
 12
1681.643080496567
 22
-1252.260609753577
 32
0.0
 70
    32
 71
     5
 42
-1.0
  3
INABA_S50G
100
AcDbAlignedDimension
 13
12602.82958141816
 23
10464.73679736201
 33
0.0
 14
12602.82958141816
 24
9662.736797362015
 34
0.0
 50
270.0
100
AcDbRotatedDimension
  0
LINE
  5
1C497
330
747D
100
AcDbEntity
  8
部品1
 62
     2
100
AcDbLine
 10
12640.82958141816
 20
9691.236797362014
 30
0.0
 11
12640.82958141816
 21
10431.23679736201
 31
0.0
  0
LINE
  5
1C498
330
747D
100
AcDbEntity
  8
部品1
 62
     2
100
AcDbLine
 10
12609.32958141816
 20
9695.236797362014
 30
0.0
 11
12609.32958141816
 21
10431.23679736201
 31
0.0
  0
LINE
  5
1C499
330
747D
100
AcDbEntity
  8
部品1
 62
     2
100
AcDbLine
 10
12602.82958141816
 20
9699.236797362013
 30
0.0
 11
12602.82958141816
 21
10359.23679736202
 31
0.0
  0
LINE
  5
1C49A
330
747D
100
AcDbEntity
  8
部品1
 62
     2
100
AcDbLine
 10
12640.82958141816
 20
9703.736797362013
 30
0.0
 11
12718.32958141817
 21
9703.736797362013
 31
0.0
  0
CIRCLE
  5
1C49B
330
747D
100
AcDbEntity
  8
部品1
 62
     2
100
AcDbCircle
 10
12590.32958141816
 20
9695.236797362014
 30
0.0
 40
9.099999999999999
  0
LINE
  5
1C49C
330
747D
100
AcDbEntity
  8
部品1
 62
     2
100
AcDbLine
 10
12598.50331985293
 20
9691.236797362014
 30
0.0
 11
12640.82958141816
 21
9691.236797362014
 31
0.0
  0
LINE
  5
1C49D
330
747D
100
AcDbEntity
  8
部品1
 62
     2
100
AcDbLine
 10
12598.50331985293
 20
9699.236797362013
 30
0.0
 11
12609.32958141816
 21
9699.236797362013
 31
0.0
  0
LINE
  5
1C49E
330
747D
100
AcDbEntity
  8
部品1
 62
     2
100
AcDbLine
 10
12599.42958141816
 20
9695.236797362014
 30
0.0
 11
12640.82958141816
 21
9695.236797362014
 31
0.0
  0
LINE
  5
1C49F
330
747D
100
AcDbEntity
  8
部品1
 62
     2
100
AcDbLine
 10
12602.82958141816
 20
9662.736797362015
 30
0.0
 11
12602.82958141816
 21
9691.236797362014
 31
0.0
  0
LINE
  5
1C4A0
330
747D
100
AcDbEntity
  8
部品1
 62
     2
100
AcDbLine
 10
12602.82958141816
 20
9691.236797362014
 30
0.0
 11
12652.82958141817
 21
9691.236797362014
 31
0.0
  0
LINE
  5
1C4A1
330
747D
100
AcDbEntity
  8
部品1
 62
     2
100
AcDbLine
 10
12602.82958141816
 20
9662.736797362015
 30
0.0
 11
12652.82958141817
 21
9662.736797362015
 31
0.0
  0
LINE
  5
1C4A2
330
747D
100
AcDbEntity
  8
部品1
 62
     2
100
AcDbLine
 10
12703.32958141817
 20
10423.73679736201
 30
0.0
 11
12703.32958141817
 21
9703.736797362013
 31
0.0
  0
LINE
  5
1C4A3
330
747D
100
AcDbEntity
  8
部品1
 62
     2
100
AcDbLine
 10
12718.32958141817
 20
10423.73679736201
 30
0.0
 11
12718.32958141817
 21
9703.736797362013
 31
0.0
  0
LINE
  5
1C4A4
330
747D
100
AcDbEntity
  8
部品1
 62
     2
100
AcDbLine
 10
12677.82958141816
 20
10276.99179936361
 30
0.0
 11
12677.82958141816
 21
9703.736797362013
 31
0.0
  0
LINE
  5
1C4A5
330
747D
100
AcDbEntity
  8
部品1
 62
     2
100
AcDbLine
 10
12711.82958141817
 20
9650.736797362014
 30
0.0
 11
12711.82958141817
 21
9703.736797362013
 31
0.0
  0
LINE
  5
1C4A6
330
747D
100
AcDbEntity
  8
部品1
 62
     2
100
AcDbLine
 10
12702.82958141816
 20
9650.736797362014
 30
0.0
 11
12711.82958141817
 21
9650.736797362014
 31
0.0
  0
LINE
  5
1C4A7
330
747D
100
AcDbEntity
  8
部品1
 62
     2
100
AcDbLine
 10
12652.82958141817
 20
9703.736797362013
 30
0.0
 11
12652.82958141817
 21
9662.736797362015
 31
0.0
  0
LINE
  5
1C4A8
330
747D
100
AcDbEntity
  8
部品1
 62
     2
100
AcDbLine
 10
12677.82958141816
 20
10423.73679736201
 30
0.0
 11
12677.82958141816
 21
10375.23679736201
 31
0.0
  0
LINE
  5
1C4A9
330
747D
100
AcDbEntity
  8
部品1
 62
     2
100
AcDbLine
 10
12602.82958141816
 20
10375.23679736201
 30
0.0
 11
12602.82958141816
 21
10464.73679736201
 31
0.0
  0
LINE
  5
1C4AA
330
747D
100
AcDbEntity
  8
部品1
 62
     2
100
AcDbLine
 10
12640.82958141816
 20
10375.23679736201
 30
0.0
 11
12680.82958141813
 21
10375.23679736201
 31
0.0
  0
LINE
  5
1C4AB
330
747D
100
AcDbEntity
  8
部品1
 62
     2
100
AcDbLine
 10
12640.82958141816
 20
10359.23679736202
 30
0.0
 11
12674.82958141818
 21
10359.23679736202
 31
0.0
  0
LINE
  5
1C4AC
330
747D
100
AcDbEntity
  8
部品1
 62
     2
100
AcDbLine
 10
12609.32958141816
 20
10375.23679736201
 30
0.0
 11
12569.32958141811
 21
10375.23679736201
 31
0.0
  0
LINE
  5
1C4AD
330
747D
100
AcDbEntity
  8
部品1
 62
     2
100
AcDbLine
 10
12609.32958141816
 20
10359.23679736202
 30
0.0
 11
12575.32958141815
 21
10359.23679736202
 31
0.0
  0
ARC
  5
1C4AE
330
747D
100
AcDbEntity
  8
部品1
 62
     2
100
AcDbCircle
 10
12569.32958141811
 20
10365.23679736197
 30
0.0
 40
10.0
100
AcDbArc
 50
89.99999999999998
 51
180.0
  0
LINE
  5
1C4AF
330
747D
100
AcDbEntity
  8
部品1
 62
     2
100
AcDbLine
 10
12559.32958141817
 20
10365.23679736197
 30
0.0
 11
12559.32958141817
 21
10283.236797362
 31
0.0
  0
LINE
  5
1C4B0
330
747D
100
AcDbEntity
  8
部品1
 62
     2
100
AcDbLine
 10
12575.32958141815
 20
10283.236797362
 30
0.0
 11
12575.32958141815
 21
10359.23679736202
 31
0.0
  0
ARC
  5
1C4B1
330
747D
100
AcDbEntity
  8
部品1
 62
     2
100
AcDbCircle
 10
12567.32958141816
 20
10283.236797362
 30
0.0
 40
8.0
100
AcDbArc
 50
180.0
 51
0.0
  0
ARC
  5
1C4B2
330
747D
100
AcDbEntity
  8
部品1
 62
     2
100
AcDbCircle
 10
12680.82958141813
 20
10365.23679736197
 30
0.0
 40
10.0
100
AcDbArc
 50
0.0
 51
89.99999999999998
  0
LINE
  5
1C4B3
330
747D
100
AcDbEntity
  8
部品1
 62
     2
100
AcDbLine
 10
12674.82958141818
 20
10283.236797362
 30
0.0
 11
12674.82958141818
 21
10359.23679736202
 31
0.0
  0
LINE
  5
1C4B4
330
747D
100
AcDbEntity
  8
部品1
 62
     2
100
AcDbLine
 10
12690.82958141817
 20
10365.23679736197
 30
0.0
 11
12690.82958141817
 21
10283.236797362
 31
0.0
  0
ARC
  5
1C4B5
330
747D
100
AcDbEntity
  8
部品1
 62
     2
100
AcDbCircle
 10
12682.82958141817
 20
10283.236797362
 30
0.0
 40
8.0
100
AcDbArc
 50
180.0
 51
0.0
  0
LINE
  5
1C4B6
330
747D
100
AcDbEntity
  8
部品1
 62
     2
100
AcDbLine
 10
12640.82958141816
 20
10423.73679736201
 30
0.0
 11
12718.32958141817
 21
10423.73679736201
 31
0.0
  0
LINE
  5
1C4B7
330
747D
100
AcDbEntity
  8
部品1
 62
     2
100
AcDbLine
 10
12609.32958141816
 20
10431.23679736201
 30
0.0
 11
12640.82958141816
 21
10431.23679736201
 31
0.0
  0
LINE
  5
1C4B8
330
747D
100
AcDbEntity
  8
部品1
 62
     2
100
AcDbLine
 10
12602.82958141816
 20
10464.73679736201
 30
0.0
 11
12652.82958141817
 21
10464.73679736201
 31
0.0
  0
LINE
  5
1C4B9
330
747D
100
AcDbEntity
  8
部品1
 62
     2
100
AcDbLine
 10
12602.82958141816
 20
10436.23679736201
 30
0.0
 11
12652.82958141817
 21
10436.23679736201
 31
0.0
  0
LINE
  5
1C4BA
330
747D
100
AcDbEntity
  8
部品1
 62
     2
100
AcDbLine
 10
12652.82958141817
 20
10464.73679736201
 30
0.0
 11
12652.82958141817
 21
10423.73679736201
 31
0.0
  0
LINE
  5
1C4BB
330
747D
100
AcDbEntity
  8
部品1
 62
     2
100
AcDbLine
 10
12711.82958141817
 20
10476.73679736201
 30
0.0
 11
12711.82958141817
 21
10423.73679736201
 31
0.0
  0
LINE
  5
1C4BC
330
747D
100
AcDbEntity
  8
部品1
 62
     2
100
AcDbLine
 10
12702.82958141816
 20
10476.73679736201
 30
0.0
 11
12711.82958141817
 21
10476.73679736201
 31
0.0
  0
LINE
  5
1C4D4
330
747D
100
AcDbEntity
  8
細線
 48
50.0
100
AcDbLine
 10
12711.82958141817
 20
9650.736797362014
 30
0.0
 11
12711.82958141817
 21
9287.736797362015
 31
0.0
  0
INSERT
  5
1C539
330
747D
100
AcDbEntity
  8
寸法
 48
50.0
100
AcDbBlockReference
  2
A$C019569EB
 10
7417.433617422941
 20
5396.547439870583
 30
0.0
 50
2.255436934929031
  0
DIMENSION
  5
1C53B
330
747D
100
AcDbEntity
  8
寸法
 48
50.0
100
AcDbDimension
  2
*D36
 10
12602.82958141817
 20
2840.691229236428
 30
0.0
 11
12370.27052630006
 21
2840.691229236428
 31
0.0
 12
-10402.80047372853
 22
-12980.53028943422
 32
0.0
 70
   160
 71
     5
 42
-1.0
  3
INABA_S50G
100
AcDbAlignedDimension
 13
12652.82958141817
 23
3140.000000000043
 33
0.0
 14
12602.82958141817
 24
3275.000000000044
 34
0.0
100
AcDbRotatedDimension
  0
LINE
  5
1C53C
330
747D
100
AcDbEntity
  8
部品1
 62
     2
 48
50.0
100
AcDbLine
 10
12652.82958141817
 20
3275.000000000044
 30
0.0
 11
12602.82958141817
 21
3275.000000000044
 31
0.0
  0
LINE
  5
1C53D
330
747D
100
AcDbEntity
  8
部品1
 62
     2
 48
50.0
100
AcDbLine
 10
12602.82958141817
 20
3275.000000000044
 30
0.0
 11
12602.82958141817
 21
5164.000000000044
 31
0.0
  0
LINE
  5
1C53E
330
747D
100
AcDbEntity
  8
部品1
 62
     2
 48
50.0
100
AcDbLine
 10
12602.82958141817
 20
5164.000000000044
 30
0.0
 11
12652.82958141817
 21
5170.000000000044
 31
0.0
  0
DIMENSION
  5
1C569
330
747D
100
AcDbEntity
  8
寸法
 48
50.0
100
AcDbDimension
  2
*D37
 10
14598.93453324972
 20
5130.000000000043
 30
0.0
 11
14498.93453324972
 21
4595.000000000045
 31
0.0
 70
    32
 71
     5
 42
-1.0
  3
INABA_S50G
100
AcDbAlignedDimension
 13
13882.82958141817
 23
4060.000000000044
 33
0.0
 14
13882.82958141817
 24
5130.000000000044
 34
0.0
 50
90.0
100
AcDbRotatedDimension
1001
ACAD
1000
DSTYLE
1002
{
1070
   287
1070
     4
1070
    75
1070
     1
1070
   279
1070
     1
1002
}
  0
DIMENSION
  5
1C56A
330
747D
100
AcDbEntity
  8
寸法
 48
50.0
100
AcDbDimension
  2
*D38
 10
14598.93453324972
 20
4060.000000000044
 30
0.0
 11
14498.93453324972
 21
3667.500000000043
 31
0.0
 12
-580.0
 22
0.0
 32
0.0
 70
    32
 71
     5
 42
-1.0
  3
INABA_S50G
100
AcDbAlignedDimension
 13
13952.82958141817
 23
3275.000000000044
 33
0.0
 14
13882.82958141817
 24
4060.000000000044
 34
0.0
 50
90.0
100
AcDbRotatedDimension
  0
LINE
  5
1C56B
330
747D
100
AcDbEntity
  8
部品1
 62
     2
 48
50.0
100
AcDbLine
 10
13850.82958141817
 20
5082.500000000043
 30
0.0
 11
13850.82958141817
 21
4060.000000000044
 31
0.0
  0
LINE
  5
1C56C
330
747D
100
AcDbEntity
  8
部品1
 62
     2
 48
50.0
100
AcDbLine
 10
13823.82958141817
 20
5082.500000000043
 30
0.0
 11
13823.82958141817
 21
4103.000000000043
 31
0.0
  0
LINE
  5
1C56D
330
747D
100
AcDbEntity
  8
部品1
 62
     2
 48
50.0
100
AcDbLine
 10
13314.82958141817
 20
5082.500000000043
 30
0.0
 11
13314.82958141817
 21
4103.000000000043
 31
0.0
  0
LINE
  5
1C56E
330
747D
100
AcDbEntity
  8
部品1
 62
     2
 48
50.0
100
AcDbLine
 10
13290.82958141817
 20
5082.500000000043
 30
0.0
 11
13290.82958141817
 21
4103.000000000043
 31
0.0
  0
LINE
  5
1C56F
330
747D
100
AcDbEntity
  8
部品1
 62
     2
 48
50.0
100
AcDbLine
 10
12754.82958141817
 20
5082.500000000043
 30
0.0
 11
12754.82958141817
 21
4060.000000000044
 31
0.0
  0
LINE
  5
1C570
330
747D
100
AcDbEntity
  8
部品1
 62
     2
 48
50.0
100
AcDbLine
 10
12781.82958141817
 20
5082.500000000043
 30
0.0
 11
12781.82958141817
 21
4112.000000000043
 31
0.0
  0
LINE
  5
1C571
330
747D
100
AcDbEntity
  8
部品1
 62
     2
 48
50.0
100
AcDbLine
 10
13290.82958141817
 20
4103.000000000043
 30
0.0
 11
13850.82958141816
 21
4103.000000000043
 31
0.0
  0
LINE
  5
1C572
330
747D
100
AcDbEntity
  8
部品1
 62
     2
 48
50.0
100
AcDbLine
 10
13314.82958141817
 20
4146.000000000043
 30
0.0
 11
13823.82958141817
 21
4146.000000000043
 31
0.0
  0
LINE
  5
1C573
330
747D
100
AcDbEntity
  8
部品1
 62
     2
 48
50.0
100
AcDbLine
 10
12722.82958141817
 20
4060.000000000044
 30
0.0
 11
13882.82958141817
 21
4060.000000000044
 31
0.0
  0
LINE
  5
1C574
330
747D
100
AcDbEntity
  8
部品1
 62
     2
 48
50.0
100
AcDbLine
 10
12754.82958141817
 20
4092.000000000044
 30
0.0
 11
13850.82958141817
 21
4092.000000000044
 31
0.0
  0
LINE
  5
1C575
330
747D
100
AcDbEntity
  8
部品1
 62
     2
 48
50.0
100
AcDbLine
 10
12781.82958141817
 20
4146.000000000043
 30
0.0
 11
13290.82958141817
 21
4146.000000000043
 31
0.0
  0
LINE
  5
1C576
330
747D
100
AcDbEntity
  8
部品1
 62
     2
 48
50.0
100
AcDbLine
 10
12779.82958141817
 20
4112.000000000043
 30
0.0
 11
13290.82958141817
 21
4112.000000000043
 31
0.0
  0
LINE
  5
1C577
330
747D
100
AcDbEntity
  8
部品1
 62
     2
 48
50.0
100
AcDbLine
 10
12754.82958141817
 20
4103.000000000043
 30
0.0
 11
12779.15458141817
 21
4103.000000000043
 31
0.0
  0
LINE
  5
1C578
330
747D
100
AcDbEntity
  8
部品1
 62
     2
 48
50.0
100
AcDbLine
 10
12779.82958141817
 20
4112.000000000043
 30
0.0
 11
12778.32958141817
 21
4092.000000000044
 31
0.0
  0
LINE
  5
1C579
330
747D
100
AcDbEntity
  8
部品1
 62
     2
 48
50.0
100
AcDbLine
 10
12722.82958141817
 20
5112.000000000044
 30
0.0
 11
13882.82958141817
 21
5112.000000000044
 31
0.0
  0
LINE
  5
1C57A
330
747D
100
AcDbEntity
  8
部品1
 62
     2
 48
50.0
100
AcDbLine
 10
12722.82958141817
 20
5130.000000000044
 30
0.0
 11
13882.82958141817
 21
5130.000000000044
 31
0.0
  0
LINE
  5
1C57B
330
747D
100
AcDbEntity
  8
部品1
 62
     2
 48
50.0
100
AcDbLine
 10
12722.82958141817
 20
5082.500000000043
 30
0.0
 11
13882.82958141817
 21
5082.500000000043
 31
0.0
  0
LINE
  5
1C57C
330
747D
100
AcDbEntity
  8
部品1
 62
     2
 48
50.0
100
AcDbLine
 10
13314.82958141817
 20
5052.500000000044
 30
0.0
 11
13823.82958141817
 21
5052.500000000044
 31
0.0
  0
LINE
  5
1C57D
330
747D
100
AcDbEntity
  8
部品1
 62
     2
 48
50.0
100
AcDbLine
 10
12781.82958141817
 20
5052.500000000044
 30
0.0
 11
13290.82958141817
 21
5052.500000000044
 31
0.0
  0
LINE
  5
1C57E
330
747D
100
AcDbEntity
  8
部品1
 48
50.0
100
AcDbLine
 10
13302.82958141817
 20
4060.000000000044
 30
0.0
 11
13302.82958141817
 21
3330.000000000044
 31
0.0
  0
LINE
  5
1C5CC
330
747D
100
AcDbEntity
  8
部品1
 48
50.0
100
AcDbLine
 10
13882.82958141817
 20
9228.736797362019
 30
0.0
 11
13942.82958141817
 21
9228.736797362016
 31
0.0
  0
LINE
  5
1C5CD
330
747D
100
AcDbEntity
  8
部品1
 48
50.0
100
AcDbLine
 10
13864.82958141817
 20
9278.736797362014
 30
0.0
 11
13902.82958141817
 21
9278.736797362014
 31
0.0
  0
LINE
  5
1C5CE
330
747D
100
AcDbEntity
  8
部品1
 48
50.0
100
AcDbLine
 10
13864.82958141817
 20
9263.736797362014
 30
0.0
 11
13917.82958141817
 21
9263.736797362017
 31
0.0
  0
DIMENSION
  5
1C60C
330
747D
100
AcDbEntity
  8
寸法
 48
50.0
100
AcDbDimension
  2
*D39
 10
13888.82958141817
 20
8744.293111489417
 30
0.0
 11
13302.82958141817
 21
8844.307875268945
 31
0.0
 12
-4401.65094322249
 22
1294.946639469204
 32
0.0
 70
    32
 71
     5
 42
-1.0
  3
INABA_S50G
100
AcDbAlignedDimension
 13
12716.82958141817
 23
9228.736797362019
 33
0.0
 14
13888.82958141817
 24
9228.736797362019
 34
0.0
100
AcDbRotatedDimension
  0
LINE
  5
1C60D
330
747D
100
AcDbEntity
  8
部品1
 62
     2
 48
50.0
100
AcDbLine
 10
13850.82958141817
 20
9289.736797362019
 30
0.0
 11
12754.82958141817
 21
9289.736797362019
 31
0.0
  0
LINE
  5
1C60E
330
747D
100
AcDbEntity
  8
部品1
 62
     2
 48
50.0
100
AcDbLine
 10
12722.82958141817
 20
9228.736797362019
 30
0.0
 11
13882.82958141817
 21
9228.736797362019
 31
0.0
  0
LINE
  5
1C60F
330
747D
100
AcDbEntity
  8
部品1
 62
     2
 48
50.0
100
AcDbLine
 10
13882.82958141817
 20
9290.736797362018
 30
0.0
 11
12722.82958141817
 21
9290.736797362018
 31
0.0
  0
LINE
  5
1C610
330
747D
100
AcDbEntity
  8
部品1
 62
     2
 48
50.0
100
AcDbLine
 10
13308.82958141817
 20
9240.236797362014
 30
0.0
 11
13829.82958141817
 21
9240.236797362019
 31
0.0
  0
LINE
  5
1C611
330
747D
100
AcDbEntity
  8
部品1
 62
     2
 48
50.0
100
AcDbLine
 10
13290.82958141817
 20
9251.736797362019
 30
0.0
 11
13850.82958141817
 21
9251.736797362019
 31
0.0
  0
LINE
  5
1C612
330
747D
100
AcDbEntity
  8
部品1
 62
     2
 48
50.0
100
AcDbLine
 10
13823.82958141817
 20
9228.736797362019
 30
0.0
 11
13823.82958141817
 21
9251.736797362019
 31
0.0
  0
LINE
  5
1C613
330
747D
100
AcDbEntity
  8
部品1
 62
     2
 48
50.0
100
AcDbLine
 10
13864.82958141817
 20
9278.73679736202
 30
0.0
 11
13850.82958141817
 21
9278.73679736202
 31
0.0
  0
LINE
  5
1C614
330
747D
100
AcDbEntity
  8
部品1
 62
     2
 48
50.0
100
AcDbLine
 10
13850.82958141817
 20
9228.736797362019
 30
0.0
 11
13850.82958141817
 21
9289.736797362019
 31
0.0
  0
LINE
  5
1C615
330
747D
100
AcDbEntity
  8
部品1
 62
     2
 48
50.0
100
AcDbLine
 10
13882.82958141817
 20
9278.73679736202
 30
0.0
 11
13882.82958141817
 21
9290.736797362018
 31
0.0
  0
LINE
  5
1C616
330
747D
100
AcDbEntity
  8
部品1
 62
     2
 48
50.0
100
AcDbLine
 10
12775.82958141817
 20
9273.536797362018
 30
0.0
 11
13296.82958141817
 21
9273.536797362018
 31
0.0
  0
LINE
  5
1C617
330
747D
100
AcDbEntity
  8
部品1
 62
     2
 48
50.0
100
AcDbLine
 10
12754.82958141817
 20
9285.036797362018
 30
0.0
 11
13314.82958141817
 21
9285.036797362018
 31
0.0
  0
LINE
  5
1C618
330
747D
100
AcDbEntity
  8
部品1
 62
     2
 48
50.0
100
AcDbLine
 10
12754.82958141817
 20
9262.036797362018
 30
0.0
 11
13314.82958141817
 21
9262.036797362018
 31
0.0
  0
LINE
  5
1C619
330
747D
100
AcDbEntity
  8
部品1
 62
     2
 48
50.0
100
AcDbLine
 10
13290.82958141817
 20
9262.036797362004
 30
0.0
 11
13290.82958141817
 21
9285.036797362003
 31
0.0
  0
LINE
  5
1C61A
330
747D
100
AcDbEntity
  8
部品1
 62
     2
 48
50.0
100
AcDbLine
 10
13314.82958141817
 20
9262.036797362018
 30
0.0
 11
13314.82958141817
 21
9285.036797362003
 31
0.0
  0
LINE
  5
1C61B
330
747D
100
AcDbEntity
  8
部品1
 62
     2
 48
50.0
100
AcDbLine
 10
13314.82958141817
 20
9228.736797362019
 30
0.0
 11
13314.82958141817
 21
9251.736797362019
 31
0.0
  0
LINE
  5
1C61C
330
747D
100
AcDbEntity
  8
部品1
 62
     2
 48
50.0
100
AcDbLine
 10
13290.82958141817
 20
9228.736797362019
 30
0.0
 11
13290.82958141817
 21
9251.736797362019
 31
0.0
  0
LINE
  5
1C61D
330
747D
100
AcDbEntity
  8
部品1
 62
     2
 48
50.0
100
AcDbLine
 10
12781.82958141817
 20
9262.036797362018
 30
0.0
 11
12781.82958141817
 21
9285.036797362018
 31
0.0
  0
LINE
  5
1C61E
330
747D
100
AcDbEntity
  8
部品1
 62
     2
 48
50.0
100
AcDbLine
 10
12754.82958141817
 20
9278.73679736202
 30
0.0
 11
12740.82958141817
 21
9278.73679736202
 31
0.0
  0
LINE
  5
1C61F
330
747D
100
AcDbEntity
  8
部品1
 62
     2
 48
50.0
100
AcDbLine
 10
12754.82958141817
 20
9228.736797362019
 30
0.0
 11
12754.82958141817
 21
9289.736797362019
 31
0.0
  0
LINE
  5
1C620
330
747D
100
AcDbEntity
  8
部品1
 62
     2
 48
50.0
100
AcDbLine
 10
12722.82958141817
 20
9278.73679736202
 30
0.0
 11
12722.82958141817
 21
9290.736797362018
 31
0.0
  0
LINE
  5
1C638
330
747D
100
AcDbEntity
  8
細線
 48
50.0
100
AcDbLine
 10
13882.82958141817
 20
9287.736797362015
 30
0.0
 11
13893.82958141817
 21
9287.736797362015
 31
0.0
  0
MTEXT
  5
1C83E
102
{ACAD_REACTORS
330
1C83F
102
}
330
747D
100
AcDbEntity
  8
寸法
 62
     7
 48
50.0
100
AcDbMText
 10
7595.143168490203
 20
10535.24827682981
 30
0.0
 40
150.0
 41
0.0
 71
     4
 72
     1
  1
\A1;ガラス窓
  7
STYLE1
 73
     1
 44
1.0
  0
LEADER
  5
1C83F
330
747D
100
AcDbEntity
  8
寸法
 48
50.0
100
AcDbLeader
  3
INABA_S50G
 71
     0
 73
     0
 74
     0
 75
     1
 40
150.0
 41
709.9999999999998
 76
     3
 10
7295.193960732793
 20
10722.90582485973
 30
0.0
 10
7445.143168490203
 20
10435.24827682981
 30
0.0
 10
7570.143168490203
 20
10435.24827682981
 30
0.0
340
1C83E
1001
ACAD
1000
DSTYLE
1002
{
1070
     6
1000
DOTSMALL
1002
}
  0
DIMENSION
  5
1C840
330
747D
100
AcDbEntity
  8
寸法
 48
50.0
100
AcDbDimension
  2
*D43
 10
8521.03335509379
 20
11218.73679736201
 30
0.0
 11
8421.033355093788
 21
10683.73679736201
 31
0.0
 70
    32
 71
     5
 42
-1.0
  3
INABA_S50G
100
AcDbAlignedDimension
 13
7302.829581418174
 23
10148.73679736201
 33
0.0
 14
7302.829581418166
 24
11218.73679736201
 34
0.0
 50
90.0
100
AcDbRotatedDimension
1001
ACAD
1000
DSTYLE
1002
{
1070
   287
1070
     4
1070
    75
1070
     1
1070
   279
1070
     1
1002
}
  0
DIMENSION
  5
1C841
330
747D
100
AcDbEntity
  8
寸法
 48
50.0
100
AcDbDimension
  2
*D44
 10
8521.03335509379
 20
10148.73679736201
 30
0.0
 11
8421.03335509379
 21
9756.236797362015
 31
0.0
 70
    32
 71
     5
 42
-1.0
  3
INABA_S50G
100
AcDbAlignedDimension
 13
7302.829581418174
 23
9363.736797362014
 33
0.0
 14
7302.829581418174
 24
10148.73679736201
 34
0.0
 50
90.0
100
AcDbRotatedDimension
  0
LINE
  5
1C842
330
747D
100
AcDbEntity
  8
細線
 48
50.0
100
AcDbLine
 10
7311.329581418167
 20
11198.73679736201
 30
0.0
 11
7302.329581418167
 21
11200.73679736201
 31
0.0
  0
LINE
  5
1C843
330
747D
100
AcDbEntity
  8
細線
 48
50.0
100
AcDbLine
 10
7311.329581418181
 20
10162.73679736201
 30
0.0
 11
7271.02958141817
 21
10162.73679736201
 31
0.0
  0
LINE
  5
1C844
330
747D
100
AcDbEntity
  8
細線
 48
50.0
100
AcDbLine
 10
7302.829581418182
 20
10171.63679736201
 30
0.0
 11
7311.329581418167
 21
10171.63679736201
 31
0.0
  0
LINE
  5
1C845
330
747D
100
AcDbEntity
  8
部品1
 48
50.0
100
AcDbLine
 10
7302.758011447081
 20
11503.58340662494
 30
0.0
 11
7404.748646188626
 21
11505.20571554943
 31
0.0
  0
LINE
  5
1C846
330
747D
100
AcDbEntity
  8
細線
 48
50.0
100
AcDbLine
 10
7302.829581418182
 20
11499.08397580102
 30
0.0
 11
7407.819836709006
 21
11500.75399803958
 31
0.0
  0
MTEXT
  5
1C847
102
{ACAD_REACTORS
330
1C848
102
}
330
747D
100
AcDbEntity
  8
寸法
 62
     7
 48
50.0
100
AcDbMText
 10
7668.978774274268
 20
11097.85083763005
 30
0.0
 40
150.0
 41
0.0
 71
     4
 72
     1
  1
\A1;桁前
  7
STYLE1
 73
     1
 44
1.0
  0
LEADER
  5
1C848
330
747D
100
AcDbEntity
  8
寸法
 48
50.0
100
AcDbLeader
  3
INABA_S50G
 71
     0
 73
     0
 74
     0
 75
     1
 40
150.0
 41
337.5
 76
     3
 10
7302.829581418174
 20
11430.44622311203
 30
0.0
 10
7518.978774274268
 20
10997.85083763005
 30
0.0
 10
7643.978774274268
 20
10997.85083763005
 30
0.0
340
1C847
1001
ACAD
1000
DSTYLE
1002
{
1070
     6
1000
DOTSMALL
1002
}
  0
DIMENSION
  5
1C849
330
747D
100
AcDbEntity
  8
寸法
 48
50.0
100
AcDbDimension
  2
*D45
 10
7302.829581418174
 20
12327.01792807854
 30
0.0
 11
7720.388636536289
 21
12327.01792807854
 31
0.0
 70
   160
 71
     5
 42
-1.0
  3
INABA_S50G
100
AcDbAlignedDimension
 13
7437.829581418174
 23
11633.73679736201
 33
0.0
 14
7302.829581418174
 24
11631.29728927313
 34
0.0
100
AcDbRotatedDimension
  0
DIMENSION
  5
1C84A
330
747D
100
AcDbEntity
  8
寸法
 48
50.0
100
AcDbDimension
  2
*D46
 10
8853.235356238894
 20
9363.736797362014
 30
0.0
 11
8853.235356238894
 21
9108.672248427772
 31
0.0
 70
   160
 71
     5
 42
-1.0
  3
INABA_S50G
100
AcDbAlignedDimension
 13
8521.033355093797
 23
9418.736797362015
 33
0.0
 14
7302.829581418174
 24
9363.736797362014
 34
0.0
 50
270.0
100
AcDbRotatedDimension
  0
LINE
  5
1C84B
330
747D
100
AcDbEntity
  8
部品1
 48
50.0
100
AcDbLine
 10
7371.829581418174
 20
9028.736797362014
 30
0.0
 11
7171.829581418174
 21
9028.736797362014
 31
0.0
  0
LINE
  5
1C84C
330
747D
100
AcDbEntity
  8
細線
 48
50.0
100
AcDbLine
 10
7371.829581418174
 20
9108.510741278472
 30
0.0
 11
7251.603525334639
 21
9228.736797362016
 31
0.0
  0
LINE
  5
1C84D
330
747D
100
AcDbEntity
  8
細線
 48
50.0
100
AcDbLine
 10
7371.829581418174
 20
9135.027245572967
 30
0.0
 11
7278.120029629111
 21
9228.736797362016
 31
0.0
  0
LINE
  5
1C84E
330
747D
100
AcDbEntity
  8
細線
 48
50.0
100
AcDbLine
 10
7371.829581418167
 20
9081.994236983971
 30
0.0
 11
7225.087021040145
 21
9228.736797362016
 31
0.0
  0
LINE
  5
1C84F
330
747D
100
AcDbEntity
  8
細線
 48
50.0
100
AcDbLine
 10
7328.120029629118
 20
9028.736797362014
 30
0.0
 11
7171.829581418174
 21
9185.027245572966
 31
0.0
  0
DIMENSION
  5
1C850
330
747D
100
AcDbEntity
  8
寸法
 48
50.0
100
AcDbDimension
  2
*D47
 10
9187.490021403352
 20
9363.736797362014
 30
0.0
 11
9087.475257623825
 21
10498.73679736201
 31
0.0
 70
    32
 71
     5
 42
-1.0
  3
INABA_S50G
100
AcDbAlignedDimension
 13
7437.829581418181
 23
11633.73679736201
 33
0.0
 14
7302.829581418174
 24
9363.736797362014
 34
0.0
 50
270.0
100
AcDbRotatedDimension
  0
DIMENSION
  5
1C851
330
747D
100
AcDbEntity
  8
寸法
 48
50.0
100
AcDbDimension
  2
*D48
 10
8853.235356238894
 20
9418.736797362015
 30
0.0
 11
8753.235356238894
 21
10391.23679736201
 31
0.0
 70
    32
 71
     5
 42
-1.0
  3
INABA_S50G
100
AcDbAlignedDimension
 13
7302.829581418174
 23
11363.73679736201
 33
0.0
 14
8521.033355093797
 24
9418.736797362015
 34
0.0
 50
270.0
100
AcDbRotatedDimension
  0
MTEXT
  5
1C852
102
{ACAD_REACTORS
330
1C853
102
}
330
747D
100
AcDbEntity
  8
部品1
 62
     7
 48
50.0
100
AcDbMText
 10
7358.217536951078
 20
8716.282041753776
 30
0.0
 40
150.0
 41
0.0
 71
     4
 72
     1
  1
\A1;ジョイントカバー
  7
STYLE1
 73
     1
 44
1.0
  0
LEADER
  5
1C853
330
747D
100
AcDbEntity
  8
寸法
 48
50.0
100
AcDbLeader
  3
INABA_S50G
 71
     0
 73
     0
 74
     0
 75
     1
 40
150.0
 41
1397.5
 76
     3
 10
6654.646534488752
 20
9547.434887568547
 30
0.0
 10
7208.217536951078
 20
8616.282041753775
 30
0.0
 10
7333.217536951078
 20
8616.282041753775
 30
0.0
340
1C852
1001
ACAD
1000
DSTYLE
1002
{
1070
     6
1000
DOTSMALL
1002
}
  0
INSERT
  5
1C854
330
747D
100
AcDbEntity
  8
部品1
 48
50.0
100
AcDbBlockReference
  2
A$C1453373C
 10
7411.235406458797
 20
11589.42243460048
 30
0.0
 41
-1.0
 50
4.391595288747645
  0
LINE
  5
1C855
330
747D
100
AcDbEntity
  8
部品1
 48
50.0
100
AcDbLine
 10
7408.313373122114
 20
11633.20342677763
 30
0.0
 11
5933.156550223034
 21
11575.10415954448
 31
0.0
  0
DIMENSION
  5
1C856
330
747D
100
AcDbEntity
  8
寸法
 48
50.0
100
AcDbDimension
  2
*D49
 10
6002.829581418174
 20
12327.01792807853
 30
0.0
 11
6652.829581418174
 21
12427.01792807853
 31
0.0
 70
    32
  1
柱外寸法 <>
 71
     5
 42
-1.0
  3
INABA_S50G
100
AcDbAlignedDimension
 13
7302.829581418174
 23
11588.73679736201
 33
0.0
 14
6002.829581418174
 24
11576.36318119764
 34
0.0
100
AcDbRotatedDimension
1001
ACAD
1000
DSTYLE
1002
{
1070
   287
1070
     4
1070
    75
1070
     1
1070
   279
1070
     1
1002
}
  0
DIMENSION
  5
1C857
330
747D
100
AcDbEntity
  8
寸法
 48
50.0
100
AcDbDimension
  2
*D50
 10
5907.829581418173
 20
12643.17369887019
 30
0.0
 11
6672.829581418174
 21
12743.17369887019
 31
0.0
 70
    32
 71
     5
 42
-1.0
  3
INABA_S50G
100
AcDbAlignedDimension
 13
7437.829581418174
 23
11633.73679736201
 33
0.0
 14
5907.829581418173
 24
11573.73679736201
 34
0.0
100
AcDbRotatedDimension
  0
LINE
  5
1C858
330
747D
100
AcDbEntity
  8
Ｇ．Ｌ
 48
50.0
100
AcDbLine
 10
9346.66506939167
 20
9228.736797362016
 30
0.0
 11
4218.887401127777
 21
9228.736797362016
 31
0.0
  0
MTEXT
  5
1C859
102
{ACAD_REACTORS
330
1C916
102
}
330
747D
100
AcDbEntity
  8
寸法
 62
     7
 48
50.0
100
AcDbMText
 10
6373.493652724222
 20
11769.9755087242
 30
0.0
 40
150.0
 41
0.0
 71
     6
 72
     1
  1
\A1;妻板
  7
STYLE1
 73
     1
 44
1.0
  0
MTEXT
  5
1C85A
102
{ACAD_REACTORS
330
1C85B
102
}
330
747D
100
AcDbEntity
  8
寸法
 62
     7
 48
50.0
100
AcDbMText
 10
5257.416291219711
 20
11900.91283849608
 30
0.0
 40
150.0
 41
0.0
 71
     6
 72
     1
  1
\A1;鼻隠シ後
  7
STYLE1
 73
     1
 44
1.0
  0
LEADER
  5
1C85B
330
747D
100
AcDbEntity
  8
寸法
 48
50.0
100
AcDbLeader
  3
INABA_S50G
 71
     0
 73
     0
 75
     1
 40
150.0
 41
719.9999999999995
 76
     3
 10
5911.637200176603
 20
11559.39745668362
 30
0.0
 10
5407.416291219711
 20
11800.91283849608
 30
0.0
 10
5282.416291219711
 20
11800.91283849608
 30
0.0
340
1C85A
1001
ACAD
1000
DSTYLE
1002
{
1070
     6
1000
DOTSMALL
1002
}
  0
DIMENSION
  5
1C85C
330
747D
100
AcDbEntity
  8
寸法
 48
50.0
100
AcDbDimension
  2
*D51
 10
5907.829581418173
 20
12327.01792807853
 30
0.0
 11
5575.270526300066
 21
12327.01792807853
 31
0.0
 70
   160
 71
     5
 42
-1.0
  3
INABA_S50G
100
AcDbAlignedDimension
 13
6002.829581418174
 23
11576.36318119764
 33
0.0
 14
5907.829581418173
 24
11573.73679736201
 34
0.0
100
AcDbRotatedDimension
1001
ACAD
1000
DSTYLE
1002
{
1002
}
  0
MTEXT
  5
1C85D
102
{ACAD_REACTORS
330
1C85E
102
}
330
747D
100
AcDbEntity
  8
寸法
 62
     7
 48
50.0
100
AcDbMText
 10
6769.979632766427
 20
11982.9180336101
 30
0.0
 40
150.0
 41
0.0
 71
     6
 72
     1
  1
\A1;母屋中
  7
STYLE1
 73
     1
 44
1.0
  0
LEADER
  5
1C85E
330
747D
100
AcDbEntity
  8
寸法
 48
50.0
100
AcDbLeader
  3
INABA_S50G
 71
     0
 73
     0
 75
     1
 40
150.0
 41
540.0000000000002
 76
     3
 10
6677.829581418174
 20
11463.48679736201
 30
0.0
 10
6919.979632766427
 20
11882.9180336101
 30
0.0
 10
6794.979632766427
 20
11882.9180336101
 30
0.0
340
1C85D
1001
ACAD
1000
DSTYLE
1002
{
1070
     6
1000
DOTSMALL
1002
}
  0
MTEXT
  5
1C85F
102
{ACAD_REACTORS
330
1C860
102
}
330
747D
100
AcDbEntity
  8
部品1
 62
     7
 48
50.0
100
AcDbMText
 10
6957.020731453177
 20
12211.73174473969
 30
0.0
 40
150.0
 41
0.0
 71
     6
 72
     1
  1
\A1;屋根パネル
  7
STYLE1
 73
     1
 44
1.0
  0
LEADER
  5
1C860
330
747D
100
AcDbEntity
  8
寸法
 48
50.0
100
AcDbLeader
  3
INABA_S50G
 71
     0
 73
     0
 75
     1
 40
150.0
 41
900.0
 76
     3
 10
7222.281674353062
 20
11600.03473650945
 30
0.0
 10
7107.020731453177
 20
12111.73174473969
 30
0.0
 10
6982.020731453177
 20
12111.73174473969
 30
0.0
340
1C85F
1001
ACAD
1000
DSTYLE
1002
{
1070
     6
1000
DOTSMALL
1002
}
  0
MTEXT
  5
1C861
102
{ACAD_REACTORS
330
1C862
102
}
330
747D
100
AcDbEntity
  8
部品1
 62
     7
 48
50.0
100
AcDbMText
 10
6711.063726069709
 20
8716.282041753776
 30
0.0
 40
150.0
 41
0.0
 71
     4
 72
     1
  1
\A1;根太
  7
STYLE1
 73
     1
 44
1.0
  0
LEADER
  5
1C862
330
747D
100
AcDbEntity
  8
寸法
 48
50.0
100
AcDbLeader
  3
INABA_S50G
 71
     0
 73
     0
 74
     0
 75
     1
 40
150.0
 41
330.0
 76
     3
 10
6382.829581418182
 20
9382.720225287071
 30
0.0
 10
6561.063726069709
 20
8616.282041753775
 30
0.0
 10
6686.063726069709
 20
8616.282041753775
 30
0.0
340
1C861
1001
ACAD
1000
DSTYLE
1002
{
1070
     6
1000
DOTSMALL
1002
}
  0
LINE
  5
1C865
330
747D
100
AcDbEntity
  8
部品1
100
AcDbLine
 10
7289.055136608538
 20
7709.831477053319
 30
0.0
 11
6016.604026227809
 21
7709.831477053319
 31
0.0
  0
LINE
  5
1C866
330
747D
100
AcDbEntity
  8
部品1
100
AcDbLine
 10
6016.604026227809
 20
7310.010941144103
 30
0.0
 11
7289.055136608538
 21
7310.010941144103
 31
0.0
  0
LINE
  5
1C867
330
747D
100
AcDbEntity
  8
部品1
100
AcDbLine
 10
6016.604026227809
 20
7709.831477053319
 30
0.0
 11
6016.604026227809
 21
7310.010941144103
 31
0.0
  0
TEXT
  5
1C868
330
747D
100
AcDbEntity
  8
部品1
100
AcDbText
 10
6179.73495670563
 20
7393.629321311401
 30
0.0
 40
225.0
  1
断面図
  7
STYLE2
100
AcDbText
  0
LINE
  5
1C869
330
747D
100
AcDbEntity
  8
部品1
100
AcDbLine
 10
7289.055136608538
 20
7310.010941144103
 30
0.0
 11
7289.055136608538
 21
7709.831477053319
 31
0.0
  0
DIMENSION
  5
1C86A
330
747D
100
AcDbEntity
  8
寸法
 48
50.0
100
AcDbDimension
  2
*D52
 10
4378.587517088181
 20
11573.73679736201
 30
0.0
 11
4278.572753308655
 21
10468.73679736201
 31
0.0
 70
    32
 71
     5
 42
-1.0
  3
INABA_S50G
100
AcDbAlignedDimension
 13
6002.829581418174
 23
9363.736797362014
 33
0.0
 14
5907.829581418173
 24
11573.73679736201
 34
0.0
 50
270.0
100
AcDbRotatedDimension
  0
DIMENSION
  5
1C86B
330
747D
100
AcDbEntity
  8
寸法
 48
50.0
100
AcDbDimension
  2
*D53
 10
4691.549246176572
 20
11390.73679736201
 30
0.0
 11
4591.549246176572
 21
10410.73679736201
 31
0.0
 70
    32
  1
内高 <>
 71
     5
 42
-1.0
  3
INABA_S50G
100
AcDbAlignedDimension
 13
6038.329581418174
 23
9430.736797362014
 33
0.0
 14
6002.829581418174
 24
11390.73679736201
 34
0.0
 50
270.0
100
AcDbRotatedDimension
  0
MTEXT
  5
1C86C
102
{ACAD_REACTORS
330
1C8D7
102
}
330
747D
100
AcDbEntity
  8
寸法
 62
     7
 48
50.0
100
AcDbMText
 10
7061.391372236784
 20
10202.55187721828
 30
0.0
 40
150.0
 41
0.0
 71
     6
 72
     1
  1
\A1;額縁
  7
STYLE1
 73
     1
 44
1.0
  0
LINE
  5
1C86D
330
747D
100
AcDbEntity
  8
細線
 48
50.0
100
AcDbLine
 10
7246.079581418159
 20
10191.73679736202
 30
0.0
 11
7246.079581418166
 21
11179.23679736202
 31
0.0
  0
LINE
  5
1C86E
330
747D
100
AcDbEntity
  8
細線
 48
50.0
100
AcDbLine
 10
7270.579581418153
 20
10191.73679736202
 30
0.0
 11
7270.579581418195
 21
11179.23679736202
 31
0.0
  0
LINE
  5
1C86F
330
747D
100
AcDbEntity
  8
細線
 48
50.0
100
AcDbLine
 10
7280.129581418177
 20
10191.73679736201
 30
0.0
 11
7280.129581418184
 21
11179.236797362
 31
0.0
  0
LINE
  5
1C870
330
747D
100
AcDbEntity
  8
細線
 48
50.0
100
AcDbLine
 10
7303.129581418168
 20
10191.73679736201
 30
0.0
 11
7303.129581418213
 21
11179.236797362
 31
0.0
  0
LINE
  5
1C871
330
747D
100
AcDbEntity
  8
部品1
 48
50.0
100
AcDbLine
 10
7216.329581418174
 20
11367.59466173828
 30
0.0
 11
7216.329581418174
 21
9470.736797362015
 31
0.0
  0
MTEXT
  5
1C872
102
{ACAD_REACTORS
330
1C873
102
}
330
747D
100
AcDbEntity
  8
寸法
 62
     7
 48
50.0
100
AcDbMText
 10
5753.436727685734
 20
10508.28252840048
 30
0.0
 40
150.0
 41
0.0
 71
     6
 72
     1
  1
\A1;壁パネル
  7
STYLE1
 73
     1
 44
1.0
  0
LEADER
  5
1C873
330
747D
100
AcDbEntity
  8
寸法
 48
50.0
100
AcDbLeader
  3
INABA_S50G
 71
     0
 73
     0
 75
     1
 40
150.0
 41
719.9999999999999
 76
     3
 10
6021.297871013992
 20
10204.2930310349
 30
0.0
 10
5903.436727685734
 20
10408.28252840048
 30
0.0
 10
5778.436727685734
 20
10408.28252840048
 30
0.0
340
1C872
1001
ACAD
1000
DSTYLE
1002
{
1070
     6
1000
DOTSMALL
1002
}
  0
LINE
  5
1C874
330
747D
100
AcDbEntity
  8
部品1
 48
50.0
100
AcDbLine
 10
6002.829581418174
 20
11473.73679736201
 30
0.0
 11
6002.829581418174
 21
9418.736797362015
 31
0.0
  0
LINE
  5
1C875
330
747D
100
AcDbEntity
  8
部品1
 48
50.0
100
AcDbLine
 10
6670.829581418174
 20
11063.08847168116
 30
0.0
 11
6670.829581418174
 21
9470.736797362015
 31
0.0
  0
LINE
  5
1C876
330
747D
100
AcDbEntity
  8
部品1
 48
50.0
100
AcDbLine
 10
6634.829581418173
 20
11063.08847168116
 30
0.0
 11
6634.829581418173
 21
9470.736797362015
 31
0.0
  0
LINE
  5
1C877
330
747D
100
AcDbEntity
  8
部品1
 48
50.0
100
AcDbLine
 10
6089.329581418174
 20
11367.59466173828
 30
0.0
 11
6089.329581418174
 21
9470.736797362015
 31
0.0
  0
LINE
  5
1C878
330
747D
100
AcDbEntity
  8
部品1
 48
50.0
100
AcDbLine
 10
6053.329581418174
 20
11378.73679736201
 30
0.0
 11
6053.329581418174
 21
9430.736797362014
 31
0.0
  0
LINE
  5
1C879
330
747D
100
AcDbEntity
  8
細線
 48
50.0
100
AcDbLine
 10
6037.829581418174
 20
11378.73679736201
 30
0.0
 11
6037.829581418174
 21
9418.736797362015
 31
0.0
  0
MTEXT
  5
1C87A
102
{ACAD_REACTORS
330
1C87B
102
}
330
747D
100
AcDbEntity
  8
寸法
 62
     7
 48
50.0
100
AcDbMText
 10
5775.80855030887
 20
10099.22034129163
 30
0.0
 40
150.0
 41
0.0
 71
     6
 72
     1
  1
\A1;内壁
  7
STYLE1
 73
     1
 44
1.0
  0
LEADER
  5
1C87B
330
747D
100
AcDbEntity
  8
寸法
 48
50.0
100
AcDbLeader
  3
INABA_S50G
 71
     0
 73
     0
 75
     1
 40
150.0
 41
320.0
 76
     3
 10
6046.262048626461
 20
9795.230843926056
 30
0.0
 10
5925.808550308871
 20
9999.220341291637
 30
0.0
 10
5800.808550308871
 20
9999.220341291637
 30
0.0
340
1C87A
1001
ACAD
1000
DSTYLE
1002
{
1070
     6
1000
DOTSMALL
1002
}
  0
LINE
  5
1C87C
330
747D
100
AcDbEntity
  8
部品1
 48
50.0
100
AcDbLine
 10
6002.829581418174
 20
9418.736797362015
 30
0.0
 11
6038.329581418174
 21
9418.736797362015
 31
0.0
  0
LINE
  5
1C87D
330
747D
100
AcDbEntity
  8
細線
 48
50.0
100
AcDbLine
 10
6002.829581418174
 20
9276.010741278474
 30
0.0
 11
6090.555637501716
 21
9363.736797362014
 31
0.0
  0
LINE
  5
1C87E
330
747D
100
AcDbEntity
  8
細線
 48
50.0
100
AcDbLine
 10
6002.829581418174
 20
9302.527245572965
 30
0.0
 11
6064.03913320723
 21
9363.736797362014
 31
0.0
  0
LINE
  5
1C87F
330
747D
100
AcDbEntity
  8
破線
 48
3.0
100
AcDbLine
 10
6054.829581418174
 20
9122.736797362014
 30
0.0
 11
6012.829581418174
 21
9122.736797362014
 31
0.0
  0
LINE
  5
1C880
330
747D
100
AcDbEntity
  8
細線
 48
50.0
100
AcDbLine
 10
6063.603525334624
 20
9028.736797362014
 30
0.0
 11
5933.829581418174
 21
9158.510741278472
 31
0.0
  0
LINE
  5
1C881
330
747D
100
AcDbEntity
  8
細線
 48
50.0
100
AcDbLine
 10
6037.087021040123
 20
9028.736797362014
 30
0.0
 11
5933.829581418174
 21
9131.994236983972
 31
0.0
  0
LINE
  5
1C882
330
747D
100
AcDbEntity
  8
部品1
 48
50.0
100
AcDbLine
 10
6133.829581418174
 20
9028.736797362014
 30
0.0
 11
5933.829581418174
 21
9028.736797362014
 31
0.0
  0
LINE
  5
1C883
330
747D
100
AcDbEntity
  8
細線
 48
50.0
100
AcDbLine
 10
6090.120029629118
 20
9028.736797362014
 30
0.0
 11
5933.829581418174
 21
9185.027245572966
 31
0.0
  0
LINE
  5
1C884
330
747D
100
AcDbEntity
  8
細線
 48
50.0
100
AcDbLine
 10
6133.829581418166
 20
9081.994236983971
 30
0.0
 11
5987.087021040146
 21
9228.736797362016
 31
0.0
  0
LINE
  5
1C885
330
747D
100
AcDbEntity
  8
細線
 48
50.0
100
AcDbLine
 10
6133.829581418174
 20
9108.510741278472
 30
0.0
 11
6013.603525334639
 21
9228.736797362016
 31
0.0
  0
LINE
  5
1C886
330
747D
100
AcDbEntity
  8
部品1
 48
50.0
100
AcDbLine
 10
7302.829581418174
 20
9363.736797362014
 30
0.0
 11
6002.829581418174
 21
9363.736797362014
 31
0.0
  0
MTEXT
  5
1C887
102
{ACAD_REACTORS
330
1C888
102
}
330
747D
100
AcDbEntity
  8
寸法
 62
     7
 48
50.0
100
AcDbMText
 10
5668.442711368498
 20
9692.226294727598
 30
0.0
 40
150.0
 41
0.0
 71
     6
 72
     1
  1
\A1;土台前後
  7
STYLE1
 73
     1
 44
1.0
  0
LEADER
  5
1C888
330
747D
100
AcDbEntity
  8
寸法
 48
50.0
100
AcDbLeader
  3
INABA_S50G
 71
     0
 73
     0
 75
     1
 40
150.0
 41
719.9999999999995
 76
     3
 10
6002.829581418174
 20
9388.236797362015
 30
0.0
 10
5818.4427113685
 20
9592.226294727598
 30
0.0
 10
5693.4427113685
 20
9592.226294727598
 30
0.0
340
1C887
1001
ACAD
1000
DSTYLE
1002
{
1070
     6
1000
DOTSMALL
1002
}
  0
LINE
  5
1C889
330
747D
100
AcDbEntity
  8
部品1
 48
50.0
100
AcDbLine
 10
6002.829581418174
 20
9363.736797362014
 30
0.0
 11
6002.829581418174
 21
9228.736797362016
 31
0.0
  0
LINE
  5
1C88A
330
747D
100
AcDbEntity
  8
部品1
 48
50.0
100
AcDbLine
 10
6002.829581418174
 20
9412.736797362015
 30
0.0
 11
6002.829581418174
 21
9363.736797362014
 31
0.0
  0
LINE
  5
1C88B
330
747D
100
AcDbEntity
  8
部品1
 48
50.0
100
AcDbLine
 10
6008.829581418174
 20
9412.736797362015
 30
0.0
 11
6008.829581418174
 21
9418.736797362015
 31
0.0
  0
LINE
  5
1C88C
330
747D
100
AcDbEntity
  8
部品1
 48
50.0
100
AcDbLine
 10
6002.829581418174
 20
9412.736797362015
 30
0.0
 11
6008.829581418174
 21
9412.736797362015
 31
0.0
  0
LINE
  5
1C88D
330
747D
100
AcDbEntity
  8
部品1
 48
50.0
100
AcDbLine
 10
5933.829581418174
 20
9028.736797362014
 30
0.0
 11
5933.829581418174
 21
9228.736797362016
 31
0.0
  0
LINE
  5
1C88E
330
747D
100
AcDbEntity
  8
破線
 48
3.0
100
AcDbLine
 10
6012.829581418174
 20
9228.736797362016
 30
0.0
 11
6012.829581418174
 21
9122.736797362014
 31
0.0
  0
LINE
  5
1C88F
330
747D
100
AcDbEntity
  8
部品1
 48
50.0
100
AcDbLine
 10
7302.829581418174
 20
10148.73679736201
 30
0.0
 11
7302.829581418174
 21
9418.736797362015
 31
0.0
  0
LINE
  5
1C890
330
747D
100
AcDbEntity
  8
細線
 48
50.0
100
AcDbLine
 10
7267.829581418166
 20
10148.73679736201
 30
0.0
 11
7267.829581418173
 21
9418.736797362015
 31
0.0
  0
LINE
  5
1C891
330
747D
100
AcDbEntity
  8
部品1
 48
50.0
100
AcDbLine
 10
7252.329581418166
 20
10148.73679736201
 30
0.0
 11
7252.329581418173
 21
9430.736797362014
 31
0.0
  0
LINE
  5
1C892
330
747D
100
AcDbEntity
  8
部品1
 48
50.0
100
AcDbLine
 10
7243.329581418173
 20
9470.736797362015
 30
0.0
 11
7243.329581418173
 21
9430.736797362014
 31
0.0
  0
LINE
  5
1C893
330
747D
100
AcDbEntity
  8
部品1
 48
50.0
100
AcDbLine
 10
6062.329581418181
 20
9470.736797362015
 30
0.0
 11
6062.329581418181
 21
9430.736797362014
 31
0.0
  0
MTEXT
  5
1C894
102
{ACAD_REACTORS
330
1C895
102
}
330
747D
100
AcDbEntity
  8
部品1
 62
     7
 48
50.0
100
AcDbMText
 10
6276.830712539658
 20
9656.775787169909
 30
0.0
 40
150.0
 41
0.0
 71
     4
 72
     1
  1
\A1;床板
  7
STYLE1
 73
     1
 44
1.0
  0
LEADER
  5
1C895
330
747D
100
AcDbEntity
  8
寸法
 48
50.0
100
AcDbLeader
  3
INABA_S50G
 71
     0
 73
     0
 74
     0
 75
     1
 40
150.0
 41
319.9999999999999
 76
     3
 10
6181.847390148735
 20
9425.668860538021
 30
0.0
 10
6126.830712539657
 20
9556.775787169909
 30
0.0
 10
6251.830712539658
 20
9556.775787169909
 30
0.0
340
1C894
1001
ACAD
1000
DSTYLE
1002
{
1070
     6
1000
DOTSMALL
1002
}
  0
MTEXT
  5
1C896
102
{ACAD_REACTORS
330
1C897
102
}
330
747D
100
AcDbEntity
  8
寸法
 62
     7
 48
50.0
100
AcDbMText
 10
7030.133267264126
 20
9701.080712269339
 30
0.0
 40
150.0
 41
0.0
 71
     6
 72
     1
  1
\A1;巾木
  7
STYLE1
 73
     1
 44
1.0
  0
LEADER
  5
1C897
330
747D
100
AcDbEntity
  8
寸法
 48
50.0
100
AcDbLeader
  3
INABA_S50G
 71
     0
 73
     0
 75
     1
 40
150.0
 41
310.0
 76
     3
 10
7243.329581418173
 20
9455.070269982805
 30
0.0
 10
7180.133267264126
 20
9601.08071226934
 30
0.0
 10
7055.133267264126
 20
9601.08071226934
 30
0.0
340
1C896
1001
ACAD
1000
DSTYLE
1002
{
1070
     6
1000
DOTSMALL
1002
}
  0
LINE
  5
1C898
330
747D
100
AcDbEntity
  8
部品1
 48
50.0
100
AcDbLine
 10
6672.829581418181
 20
9418.736797362015
 30
0.0
 11
6666.829581418181
 21
9418.736797362015
 31
0.0
  0
LINE
  5
1C899
330
747D
100
AcDbEntity
  8
細線
 48
50.0
100
AcDbLine
 10
6053.329581418174
 20
9418.736797362015
 30
0.0
 11
7252.329581418173
 21
9418.736797362015
 31
0.0
  0
LINE
  5
1C89A
330
747D
100
AcDbEntity
  8
細線
 48
50.0
100
AcDbLine
 10
7252.329581418173
 20
9430.736797362014
 30
0.0
 11
6053.329581418174
 21
9430.736797362014
 31
0.0
  0
LINE
  5
1C89B
330
747D
100
AcDbEntity
  8
部品1
 48
50.0
100
AcDbLine
 10
6638.829581418182
 20
9418.736797362015
 30
0.0
 11
6632.829581418182
 21
9418.736797362015
 31
0.0
  0
LINE
  5
1C89C
330
747D
100
AcDbEntity
  8
部品1
 48
50.0
100
AcDbLine
 10
6666.829581418181
 20
9412.736797362015
 30
0.0
 11
6638.829581418182
 21
9412.736797362015
 31
0.0
  0
LINE
  5
1C89D
330
747D
100
AcDbEntity
  8
部品1
 48
50.0
100
AcDbLine
 10
6638.829581418182
 20
9418.736797362015
 30
0.0
 11
6638.829581418182
 21
9412.736797362015
 31
0.0
  0
LINE
  5
1C89E
330
747D
100
AcDbEntity
  8
部品1
 48
50.0
100
AcDbLine
 10
6666.829581418181
 20
9412.736797362015
 30
0.0
 11
6666.829581418181
 21
9418.736797362015
 31
0.0
  0
LINE
  5
1C89F
330
747D
100
AcDbEntity
  8
部品1
 48
50.0
100
AcDbLine
 10
6632.829581418182
 20
9418.736797362015
 30
0.0
 11
6632.829581418182
 21
9363.736797362014
 31
0.0
  0
LINE
  5
1C8A0
330
747D
100
AcDbEntity
  8
部品1
 48
50.0
100
AcDbLine
 10
6202.829581418174
 20
9363.736797362014
 30
0.0
 11
6202.829581418174
 21
9228.736797362016
 31
0.0
  0
LINE
  5
1C8A1
330
747D
100
AcDbEntity
  8
細線
 48
50.0
100
AcDbLine
 10
6079.039133207229
 20
9228.736797362016
 30
0.0
 11
6202.829581418174
 21
9352.527245572966
 31
0.0
  0
LINE
  5
1C8A2
330
747D
100
AcDbEntity
  8
細線
 48
50.0
100
AcDbLine
 10
6105.555637501723
 20
9228.736797362016
 30
0.0
 11
6202.829581418174
 21
9326.010741278473
 31
0.0
  0
LINE
  5
1C8A3
330
747D
100
AcDbEntity
  8
部品1
 48
50.0
100
AcDbLine
 10
6067.329581418174
 20
9411.736797362015
 30
0.0
 11
6091.329581418174
 21
9411.736797362015
 31
0.0
  0
LINE
  5
1C8A4
330
747D
100
AcDbEntity
  8
部品1
 48
50.0
100
AcDbLine
 10
6091.329581418174
 20
9411.736797362015
 30
0.0
 11
6091.329581418174
 21
9363.736797362014
 31
0.0
  0
LINE
  5
1C8A5
330
747D
100
AcDbEntity
  8
部品1
 48
50.0
100
AcDbLine
 10
6062.329581418181
 20
9430.736797362014
 30
0.0
 11
6053.329581418174
 21
9430.736797362014
 31
0.0
  0
LINE
  5
1C8A6
330
747D
100
AcDbEntity
  8
部品1
 48
50.0
100
AcDbLine
 10
6067.329581418174
 20
9418.736797362015
 30
0.0
 11
6053.329581418174
 21
9418.736797362015
 31
0.0
  0
LINE
  5
1C8A7
330
747D
100
AcDbEntity
  8
部品1
 48
50.0
100
AcDbLine
 10
6067.329581418174
 20
9418.736797362015
 30
0.0
 11
6067.329581418174
 21
9411.736797362015
 31
0.0
  0
LINE
  5
1C8A8
330
747D
100
AcDbEntity
  8
部品1
 48
50.0
100
AcDbLine
 10
6038.329581418174
 20
9418.736797362015
 30
0.0
 11
6038.329581418174
 21
9430.736797362014
 31
0.0
  0
LINE
  5
1C8A9
330
747D
100
AcDbEntity
  8
部品1
 48
50.0
100
AcDbLine
 10
6038.329581418174
 20
9430.736797362014
 30
0.0
 11
6053.329581418174
 21
9430.736797362014
 31
0.0
  0
LINE
  5
1C8AA
330
747D
100
AcDbEntity
  8
部品1
 48
50.0
100
AcDbLine
 10
6053.329581418174
 20
9430.736797362014
 30
0.0
 11
6053.329581418174
 21
9418.736797362015
 31
0.0
  0
LINE
  5
1C8AB
330
747D
100
AcDbEntity
  8
部品1
 48
50.0
100
AcDbLine
 10
6348.829581418181
 20
9418.736797362015
 30
0.0
 11
6342.829581418182
 21
9418.736797362015
 31
0.0
  0
LINE
  5
1C8AC
330
747D
100
AcDbEntity
  8
部品1
 48
50.0
100
AcDbLine
 10
6382.829581418182
 20
9418.736797362015
 30
0.0
 11
6376.829581418181
 21
9418.736797362015
 31
0.0
  0
LINE
  5
1C8AD
330
747D
100
AcDbEntity
  8
部品1
 48
50.0
100
AcDbLine
 10
6376.829581418181
 20
9412.736797362015
 30
0.0
 11
6348.829581418181
 21
9412.736797362015
 31
0.0
  0
LINE
  5
1C8AE
330
747D
100
AcDbEntity
  8
部品1
 48
50.0
100
AcDbLine
 10
6348.829581418181
 20
9418.736797362015
 30
0.0
 11
6348.829581418181
 21
9412.736797362015
 31
0.0
  0
LINE
  5
1C8AF
330
747D
100
AcDbEntity
  8
部品1
 48
50.0
100
AcDbLine
 10
6376.829581418181
 20
9412.736797362015
 30
0.0
 11
6376.829581418181
 21
9418.736797362015
 31
0.0
  0
LINE
  5
1C8B0
330
747D
100
AcDbEntity
  8
部品1
 48
50.0
100
AcDbLine
 10
6342.829581418182
 20
9418.736797362015
 30
0.0
 11
6342.829581418182
 21
9363.736797362014
 31
0.0
  0
LINE
  5
1C8B1
330
747D
100
AcDbEntity
  8
部品1
 48
50.0
100
AcDbLine
 10
6382.829581418182
 20
9363.736797362014
 30
0.0
 11
6382.829581418182
 21
9418.736797362015
 31
0.0
  0
LINE
  5
1C8B2
330
747D
100
AcDbEntity
  8
破線
 48
3.0
100
AcDbLine
 10
6054.829581418174
 20
9228.736797362016
 30
0.0
 11
6054.829581418174
 21
9122.736797362014
 31
0.0
  0
LINE
  5
1C8B3
330
747D
100
AcDbEntity
  8
部品1
 48
50.0
100
AcDbLine
 10
6133.829581418174
 20
9228.736797362016
 30
0.0
 11
6133.829581418174
 21
9028.736797362014
 31
0.0
  0
LINE
  5
1C8B4
330
747D
100
AcDbEntity
  8
細線
 48
50.0
100
AcDbLine
 10
6133.829581418174
 20
9135.027245572967
 30
0.0
 11
6040.120029629111
 21
9228.736797362016
 31
0.0
  0
LINE
  5
1C8B5
330
747D
100
AcDbEntity
  8
部品1
 48
50.0
100
AcDbLine
 10
7102.829581418174
 20
9363.736797362014
 30
0.0
 11
7102.829581418174
 21
9228.736797362016
 31
0.0
  0
LINE
  5
1C8B6
330
747D
100
AcDbEntity
  8
細線
 48
50.0
100
AcDbLine
 10
7205.555637501723
 20
9228.736797362016
 30
0.0
 11
7302.829581418174
 21
9326.010741278473
 31
0.0
  0
LINE
  5
1C8B7
330
747D
100
AcDbEntity
  8
細線
 48
50.0
100
AcDbLine
 10
7179.03913320723
 20
9228.736797362016
 30
0.0
 11
7302.829581418174
 21
9352.527245572966
 31
0.0
  0
LINE
  5
1C8B8
330
747D
100
AcDbEntity
  8
部品1
 48
50.0
100
AcDbLine
 10
7302.829581418174
 20
9363.736797362014
 30
0.0
 11
7302.829581418174
 21
9228.736797362016
 31
0.0
  0
LINE
  5
1C8B9
330
747D
100
AcDbEntity
  8
部品1
 48
50.0
100
AcDbLine
 10
7302.829581418174
 20
9418.736797362015
 30
0.0
 11
7267.329581418174
 21
9418.736797362015
 31
0.0
  0
LINE
  5
1C8BA
330
747D
100
AcDbEntity
  8
部品1
 48
50.0
100
AcDbLine
 10
7267.329581418174
 20
9430.736797362014
 30
0.0
 11
7252.329581418173
 21
9430.736797362014
 31
0.0
  0
LINE
  5
1C8BB
330
747D
100
AcDbEntity
  8
部品1
 48
50.0
100
AcDbLine
 10
7267.329581418174
 20
9418.736797362015
 30
0.0
 11
7267.329581418174
 21
9430.736797362014
 31
0.0
  0
LINE
  5
1C8BC
330
747D
100
AcDbEntity
  8
部品1
 48
50.0
100
AcDbLine
 10
7252.329581418173
 20
9430.736797362014
 30
0.0
 11
7252.329581418173
 21
9418.736797362015
 31
0.0
  0
LINE
  5
1C8BD
330
747D
100
AcDbEntity
  8
部品1
 48
50.0
100
AcDbLine
 10
7252.329581418173
 20
9418.736797362015
 30
0.0
 11
7238.329581418174
 21
9418.736797362015
 31
0.0
  0
LINE
  5
1C8BE
330
747D
100
AcDbEntity
  8
部品1
 48
50.0
100
AcDbLine
 10
7238.329581418174
 20
9418.736797362015
 30
0.0
 11
7238.329581418174
 21
9411.736797362015
 31
0.0
  0
LINE
  5
1C8BF
330
747D
100
AcDbEntity
  8
部品1
 48
50.0
100
AcDbLine
 10
7238.329581418174
 20
9411.736797362015
 30
0.0
 11
7214.329581418174
 21
9411.736797362015
 31
0.0
  0
LINE
  5
1C8C0
330
747D
100
AcDbEntity
  8
部品1
 48
50.0
100
AcDbLine
 10
7214.329581418174
 20
9411.736797362015
 30
0.0
 11
7214.329581418174
 21
9363.736797362014
 31
0.0
  0
LINE
  5
1C8C1
330
747D
100
AcDbEntity
  8
部品1
 48
50.0
100
AcDbLine
 10
7243.329581418173
 20
9430.736797362014
 30
0.0
 11
7252.329581418173
 21
9430.736797362014
 31
0.0
  0
LINE
  5
1C8C2
330
747D
100
AcDbEntity
  8
細線
 48
50.0
100
AcDbLine
 10
7102.829581418174
 20
9276.010741278474
 30
0.0
 11
7190.555637501716
 21
9363.736797362014
 31
0.0
  0
LINE
  5
1C8C3
330
747D
100
AcDbEntity
  8
細線
 48
50.0
100
AcDbLine
 10
7102.829581418174
 20
9302.527245572965
 30
0.0
 11
7164.039133207229
 21
9363.736797362014
 31
0.0
  0
LINE
  5
1C8C4
330
747D
100
AcDbEntity
  8
部品1
 48
50.0
100
AcDbLine
 10
7302.829581418174
 20
9412.736797362015
 30
0.0
 11
7296.829581418174
 21
9412.736797362015
 31
0.0
  0
LINE
  5
1C8C5
330
747D
100
AcDbEntity
  8
部品1
 48
50.0
100
AcDbLine
 10
7296.829581418174
 20
9412.736797362015
 30
0.0
 11
7296.829581418174
 21
9418.736797362015
 31
0.0
  0
LINE
  5
1C8C6
330
747D
100
AcDbEntity
  8
部品1
 48
50.0
100
AcDbLine
 10
7302.829581418174
 20
9412.736797362015
 30
0.0
 11
7302.829581418174
 21
9363.736797362014
 31
0.0
  0
LINE
  5
1C8C7
330
747D
100
AcDbEntity
  8
破線
 48
3.0
100
AcDbLine
 10
7292.829581418174
 20
9122.736797362014
 30
0.0
 11
7250.829581418173
 21
9122.736797362014
 31
0.0
  0
LINE
  5
1C8C8
330
747D
100
AcDbEntity
  8
細線
 48
50.0
100
AcDbLine
 10
7301.603525334624
 20
9028.736797362014
 30
0.0
 11
7171.829581418174
 21
9158.510741278472
 31
0.0
  0
LINE
  5
1C8C9
330
747D
100
AcDbEntity
  8
細線
 48
50.0
100
AcDbLine
 10
7275.087021040123
 20
9028.736797362014
 30
0.0
 11
7171.829581418174
 21
9131.994236983972
 31
0.0
  0
LINE
  5
1C8CA
330
747D
100
AcDbEntity
  8
破線
 48
3.0
100
AcDbLine
 10
7250.829581418173
 20
9228.736797362016
 30
0.0
 11
7250.829581418173
 21
9122.736797362014
 31
0.0
  0
LINE
  5
1C8CB
330
747D
100
AcDbEntity
  8
部品1
 48
50.0
100
AcDbLine
 10
7171.829581418174
 20
9028.736797362014
 30
0.0
 11
7171.829581418174
 21
9228.736797362016
 31
0.0
  0
LINE
  5
1C8CC
330
747D
100
AcDbEntity
  8
破線
 48
3.0
100
AcDbLine
 10
7292.829581418174
 20
9228.736797362016
 30
0.0
 11
7292.829581418174
 21
9122.736797362014
 31
0.0
  0
LINE
  5
1C8CD
330
747D
100
AcDbEntity
  8
部品1
 48
50.0
100
AcDbLine
 10
6672.829581418181
 20
9363.736797362014
 30
0.0
 11
6672.829581418181
 21
9418.736797362015
 31
0.0
  0
LINE
  5
1C8CE
330
747D
100
AcDbEntity
  8
部品1
 48
50.0
100
AcDbLine
 10
6962.829581418181
 20
9363.736797362014
 30
0.0
 11
6962.829581418181
 21
9418.736797362015
 31
0.0
  0
LINE
  5
1C8CF
330
747D
100
AcDbEntity
  8
部品1
 48
50.0
100
AcDbLine
 10
6922.829581418181
 20
9418.736797362015
 30
0.0
 11
6922.829581418181
 21
9363.736797362014
 31
0.0
  0
LINE
  5
1C8D0
330
747D
100
AcDbEntity
  8
部品1
 48
50.0
100
AcDbLine
 10
6956.829581418181
 20
9412.736797362015
 30
0.0
 11
6956.829581418181
 21
9418.736797362015
 31
0.0
  0
LINE
  5
1C8D1
330
747D
100
AcDbEntity
  8
部品1
 48
50.0
100
AcDbLine
 10
6928.829581418181
 20
9418.736797362015
 30
0.0
 11
6928.829581418181
 21
9412.736797362015
 31
0.0
  0
LINE
  5
1C8D2
330
747D
100
AcDbEntity
  8
部品1
 48
50.0
100
AcDbLine
 10
6956.829581418181
 20
9412.736797362015
 30
0.0
 11
6928.829581418181
 21
9412.736797362015
 31
0.0
  0
LINE
  5
1C8D3
330
747D
100
AcDbEntity
  8
部品1
 48
50.0
100
AcDbLine
 10
6962.829581418181
 20
9418.736797362015
 30
0.0
 11
6956.829581418181
 21
9418.736797362015
 31
0.0
  0
LINE
  5
1C8D4
330
747D
100
AcDbEntity
  8
部品1
 48
50.0
100
AcDbLine
 10
6928.829581418181
 20
9418.736797362015
 30
0.0
 11
6922.829581418181
 21
9418.736797362015
 31
0.0
  0
LINE
  5
1C8D5
330
747D
100
AcDbEntity
  8
部品1
 48
50.0
100
AcDbLine
 10
7252.329581418173
 20
9470.736797362015
 30
0.0
 11
6053.329581418174
 21
9470.736797362015
 31
0.0
  0
LINE
  5
1C8D6
330
747D
100
AcDbEntity
  8
部品1
 48
50.0
100
AcDbLine
 10
6053.329581418181
 20
9470.736797362015
 30
0.0
 11
6062.329581418181
 21
9470.736797362015
 31
0.0
  0
LEADER
  5
1C8D7
330
747D
100
AcDbEntity
  8
寸法
 48
50.0
100
AcDbLeader
  3
INABA_S50G
 71
     0
 73
     0
 75
     1
 40
150.0
 41
360.0
 76
     3
 10
7243.329581418173
 20
10156.36369594987
 30
0.0
 10
7211.391372236784
 20
10102.55187721828
 30
0.0
 10
7086.391372236784
 20
10102.55187721828
 30
0.0
340
1C86C
1001
ACAD
1000
DSTYLE
1002
{
1070
     6
1000
DOTSMALL
1002
}
  0
LINE
  5
1C8D8
330
747D
100
AcDbEntity
  8
細線
 48
50.0
100
AcDbLine
 10
7270.579581418153
 20
10191.73679736202
 30
0.0
 11
7246.079581418159
 21
10191.73679736202
 31
0.0
  0
LINE
  5
1C8D9
330
747D
100
AcDbEntity
  8
細線
 48
50.0
100
AcDbLine
 10
7303.129581418168
 20
10191.73679736201
 30
0.0
 11
7280.129581418177
 21
10191.73679736201
 31
0.0
  0
LINE
  5
1C8DA
330
747D
100
AcDbEntity
  8
細線
 48
50.0
100
AcDbLine
 10
7252.329581418173
 20
10136.73679736201
 30
0.0
 11
7240.329581418174
 21
10136.73679736201
 31
0.0
  0
LINE
  5
1C8DB
330
747D
100
AcDbEntity
  8
細線
 48
50.0
100
AcDbLine
 10
7240.329581418174
 20
10136.73679736201
 30
0.0
 11
7240.329581418174
 21
10172.73679736201
 31
0.0
  0
LINE
  5
1C8DC
330
747D
100
AcDbEntity
  8
細線
 48
50.0
100
AcDbLine
 10
7307.129581418177
 20
10144.236797362
 30
0.0
 11
7302.829581418174
 21
10144.236797362
 31
0.0
  0
LINE
  5
1C8DD
330
747D
100
AcDbEntity
  8
細線
 48
50.0
100
AcDbLine
 10
7307.129581418184
 20
10162.73679736201
 30
0.0
 11
7307.129581418184
 21
10144.23679736201
 31
0.0
  0
LINE
  5
1C8DE
330
747D
100
AcDbEntity
  8
細線
 48
50.0
100
AcDbLine
 10
7302.829581418182
 20
10180.73679736201
 30
0.0
 11
7302.829581418182
 21
10162.73679736201
 31
0.0
  0
LINE
  5
1C8DF
330
747D
100
AcDbEntity
  8
細線
 48
50.0
100
AcDbLine
 10
7271.02958141817
 20
10181.73679736201
 30
0.0
 11
7302.829581418182
 21
10180.73679736201
 31
0.0
  0
LINE
  5
1C8E0
330
747D
100
AcDbEntity
  8
細線
 48
50.0
100
AcDbLine
 10
7271.02958141817
 20
10184.23679736201
 30
0.0
 11
7271.029581418178
 21
10148.73679736201
 31
0.0
  0
LINE
  5
1C8E1
330
747D
100
AcDbEntity
  8
細線
 48
50.0
100
AcDbLine
 10
7291.629581418169
 20
10181.08899861987
 30
0.0
 11
7291.629581418177
 21
10201.73679736201
 31
0.0
  0
LINE
  5
1C8E2
330
747D
100
AcDbEntity
  8
細線
 48
50.0
100
AcDbLine
 10
7258.329581418166
 20
10184.66440678962
 30
0.0
 11
7258.329581418173
 21
10201.73679736201
 31
0.0
  0
LINE
  5
1C8E3
330
747D
100
AcDbEntity
  8
細線
 48
50.0
100
AcDbLine
 10
7241.329581418174
 20
10185.23679736201
 30
0.0
 11
7271.02958141817
 21
10184.23679736201
 31
0.0
  0
LINE
  5
1C8E4
330
747D
100
AcDbEntity
  8
細線
 48
50.0
100
AcDbLine
 10
7241.329581418174
 20
10172.73679736201
 30
0.0
 11
7241.329581418174
 21
10200.73679736201
 31
0.0
  0
LINE
  5
1C8E5
330
747D
100
AcDbEntity
  8
細線
 48
50.0
100
AcDbLine
 10
7252.329581418173
 20
10172.73679736201
 30
0.0
 11
7240.329581418174
 21
10172.73679736201
 31
0.0
  0
LINE
  5
1C8E6
330
747D
100
AcDbEntity
  8
細線
 48
50.0
100
AcDbLine
 10
7252.329581418173
 20
10136.73679736201
 30
0.0
 11
7252.329581418173
 21
10172.73679736201
 31
0.0
  0
LINE
  5
1C8E7
330
747D
100
AcDbEntity
  8
細線
 48
50.0
100
AcDbLine
 10
7302.829581418174
 20
10148.73679736201
 30
0.0
 11
7252.329581418173
 21
10148.73679736201
 31
0.0
  0
LINE
  5
1C8E8
330
747D
100
AcDbEntity
  8
部品1
 48
50.0
100
AcDbLine
 10
7252.329581418173
 20
9470.736797362015
 30
0.0
 11
7243.329581418173
 21
9470.736797362015
 31
0.0
  0
LINE
  5
1C8E9
330
747D
100
AcDbEntity
  8
部品1
 48
50.0
100
AcDbLine
 10
6002.829581418181
 20
11378.73679736201
 30
0.0
 11
6052.829581418181
 21
11378.73679736201
 31
0.0
  0
LINE
  5
1C8EA
330
747D
100
AcDbEntity
  8
部品1
 48
50.0
100
AcDbLine
 10
6031.329581418181
 20
11478.73679736201
 30
0.0
 11
6054.829581418181
 21
11478.73679736201
 31
0.0
  0
MTEXT
  5
1C8EB
102
{ACAD_REACTORS
330
1C8EC
102
}
330
747D
100
AcDbEntity
  8
寸法
 62
     7
 48
50.0
100
AcDbMText
 10
5671.002738745976
 20
10799.02604376334
 30
0.0
 40
150.0
 41
0.0
 71
     6
 72
     1
  1
\A1;天井
  7
STYLE1
 73
     1
 44
1.0
  0
LEADER
  5
1C8EC
330
747D
100
AcDbEntity
  8
寸法
 48
50.0
100
AcDbLeader
  3
INABA_S50G
 71
     0
 73
     0
 75
     1
 40
150.0
 41
359.9999999999999
 76
     3
 10
6153.49790173343
 20
11403.41424305317
 30
0.0
 10
5821.002738745975
 20
10699.02604376334
 30
0.0
 10
5696.002738745975
 20
10699.02604376334
 30
0.0
340
1C8EB
1001
ACAD
1000
DSTYLE
1002
{
1070
     6
1000
DOTSMALL
1002
}
  0
MTEXT
  5
1C8ED
102
{ACAD_REACTORS
330
1C8EE
102
}
330
747D
100
AcDbEntity
  8
寸法
 62
     7
 48
50.0
100
AcDbMText
 10
5573.134357941924
 20
11038.88356008295
 30
0.0
 40
150.0
 41
0.0
 71
     6
 72
     1
  1
\A1;桁後
  7
STYLE1
 73
     1
 44
1.0
  0
LEADER
  5
1C8EE
330
747D
100
AcDbEntity
  8
寸法
 48
50.0
100
AcDbLeader
  3
INABA_S50G
 71
     0
 73
     0
 75
     1
 40
150.0
 41
360.0000000000001
 76
     3
 10
6002.829581418174
 20
11432.20658912734
 30
0.0
 10
5723.134357941924
 20
10938.88356008295
 30
0.0
 10
5598.134357941924
 20
10938.88356008295
 30
0.0
340
1C8ED
1001
ACAD
1000
DSTYLE
1002
{
1070
     6
1000
DOTSMALL
1002
}
  0
MTEXT
  5
1C8EF
102
{ACAD_REACTORS
330
1C8F0
102
}
330
747D
100
AcDbEntity
  8
寸法
 62
     7
 48
50.0
100
AcDbMText
 10
5610.044594101983
 20
11247.92104541554
 30
0.0
 40
150.0
 41
0.0
 71
     6
 72
     1
  1
\A1;雨樋
  7
STYLE1
 73
     1
 44
1.0
  0
LEADER
  5
1C8F0
330
747D
100
AcDbEntity
  8
寸法
 48
50.0
100
AcDbLeader
  3
INABA_S50G
 71
     0
 73
     0
 75
     1
 40
150.0
 41
360.0
 76
     3
 10
5921.829581418173
 20
11409.54603623505
 30
0.0
 10
5760.044594101984
 20
11147.92104541554
 30
0.0
 10
5635.044594101984
 20
11147.92104541554
 30
0.0
340
1C8EF
1001
ACAD
1000
DSTYLE
1002
{
1070
     6
1000
DOTSMALL
1002
}
  0
LINE
  5
1C8F1
330
747D
100
AcDbEntity
  8
部品1
100
AcDbLine
 10
5921.829581418173
 20
11409.54603623505
 30
0.0
 11
5921.829581418173
 21
11434.54603623505
 31
0.0
  0
LINE
  5
1C8F2
330
747D
100
AcDbEntity
  8
部品1
100
AcDbLine
 10
5981.829581418181
 20
11450.3943325759
 30
0.0
 11
5981.829581418174
 21
11409.54603623505
 31
0.0
  0
LINE
  5
1C8F3
330
747D
100
AcDbEntity
  8
部品1
100
AcDbLine
 10
5971.829581418173
 20
11399.54603623505
 30
0.0
 11
5931.829581418174
 21
11399.54603623505
 31
0.0
  0
ARC
  5
1C8F4
330
747D
100
AcDbEntity
  8
部品1
100
AcDbCircle
 10
5971.829581418173
 20
11409.54603623505
 30
0.0
 40
10.0
100
AcDbArc
 50
270.0
 51
0.000000000000007
  0
ARC
  5
1C8F5
330
747D
100
AcDbEntity
  8
部品1
100
AcDbCircle
 10
5931.829581418174
 20
11409.54603623505
 30
0.0
 40
10.0
100
AcDbArc
 50
180.0
 51
270.0
  0
LINE
  5
1C8F6
330
747D
100
AcDbEntity
  8
部品1
100
AcDbLine
 10
6002.829581418174
 20
11403.73679736201
 30
0.0
 11
6002.829581418174
 21
11363.73679736201
 31
0.0
  0
LINE
  5
1C8F7
330
747D
100
AcDbEntity
  8
部品1
100
AcDbLine
 10
5935.540699733724
 20
11449.65804079723
 30
0.0
 11
5944.53956138156
 21
11449.80118073943
 31
0.0
  0
LINE
  5
1C8F8
330
747D
100
AcDbEntity
  8
部品1
 48
50.0
100
AcDbLine
 10
5925.921491990766
 20
11564.76263097587
 30
0.0
 11
5922.82615163743
 21
11564.71390573655
 31
0.0
  0
ARC
  5
1C8F9
330
747D
100
AcDbEntity
  8
部品1
100
AcDbCircle
 10
5925.897882695191
 20
11566.26244516475
 30
0.0
 40
1.5
100
AcDbArc
 50
270.9018459011011
 51
339.5960814224101
  0
ARC
  5
1C8FA
330
747D
100
AcDbEntity
  8
部品1
100
AcDbCircle
 10
5923.329581418173
 20
11549.22208342748
 30
0.0
 40
15.5
100
AcDbArc
 50
91.86125648319634
 51
186.0754638750989
  0
LINE
  5
1C8FB
330
747D
100
AcDbEntity
  8
部品1
100
AcDbLine
 10
5927.323376691628
 20
11565.79220093538
 30
0.0
 11
5929.939382888235
 21
11572.82495737246
 31
0.0
  0
LINE
  5
1C8FC
330
747D
100
AcDbEntity
  8
部品1
100
AcDbLine
 10
5907.916287634876
 20
11547.58489504703
 30
0.0
 11
5916.114720265152
 21
11470.55806431744
 31
0.0
  0
ARC
  5
1C8FD
330
747D
100
AcDbEntity
  8
部品1
100
AcDbCircle
 10
5935.294180944385
 20
11465.15608030184
 30
0.0
 40
15.5
100
AcDbArc
 50
186.0754638750791
 51
270.9112955958145
  0
ARC
  5
1C8FE
330
747D
100
AcDbEntity
  8
部品1
 48
50.0
100
AcDbCircle
 10
5916.996441403263
 20
11466.99820928777
 30
0.0
 40
2.5
100
AcDbArc
 50
6.075463875091184
 51
85.16999387739907
  0
ARC
  5
1C8FF
330
747D
100
AcDbEntity
  8
部品1
 48
50.0
100
AcDbCircle
 10
5917.307980296047
 20
11470.68507021761
 30
0.0
 40
1.199999999999999
100
AcDbArc
 50
186.0754638750989
 51
265.1699938773959
  0
LINE
  5
1C900
330
747D
100
AcDbEntity
  8
部品1
100
AcDbLine
 10
5919.482399800957
 20
11467.26280491312
 30
0.0
 11
5919.881238878701
 21
11463.51558742471
 31
0.0
  0
LINE
  5
1C901
330
747D
100
AcDbEntity
  8
部品1
100
AcDbLine
 10
5981.829581418174
 20
11448.54603623505
 30
0.0
 11
5981.829581418174
 21
11421.54603623505
 31
0.0
  0
LINE
  5
1C902
330
747D
100
AcDbEntity
  8
部品1
 48
50.0
100
AcDbLine
 10
5908.706740792947
 20
11540.15834117359
 30
0.0
 11
5934.852555169102
 21
11540.6308072896
 31
0.0
  0
LINE
  5
1C903
330
747D
100
AcDbEntity
  8
部品1
 48
50.0
100
AcDbLine
 10
5934.852555169102
 20
11540.6308072896
 30
0.0
 11
5964.263373546721
 21
11518.15851852413
 31
0.0
  0
LINE
  5
1C904
330
747D
100
AcDbEntity
  8
部品1
 48
50.0
100
AcDbLine
 10
5964.263373546721
 20
11518.15851852413
 30
0.0
 11
5980.260761862712
 21
11518.44759821448
 31
0.0
  0
LINE
  5
1C905
330
747D
100
AcDbEntity
  8
部品1
 48
50.0
100
AcDbLine
 10
5997.829581418181
 20
11473.73679736201
 30
0.0
 11
6002.829581418181
 21
11473.73679736201
 31
0.0
  0
LINE
  5
1C906
330
747D
100
AcDbEntity
  8
部品1
 48
50.0
100
AcDbLine
 10
5997.829581418181
 20
11493.73679736201
 30
0.0
 11
6031.329581418181
 21
11493.73679736201
 31
0.0
  0
LINE
  5
1C907
330
747D
100
AcDbEntity
  8
部品1
 48
50.0
100
AcDbLine
 10
6031.329581418181
 20
11493.73679736201
 30
0.0
 11
6031.329581418181
 21
11478.73679736201
 31
0.0
  0
LINE
  5
1C908
330
747D
100
AcDbEntity
  8
部品1
 48
50.0
100
AcDbLine
 10
5997.829581418181
 20
11493.73679736201
 30
0.0
 11
5997.829581418181
 21
11473.73679736201
 31
0.0
  0
LINE
  5
1C909
330
747D
100
AcDbEntity
  8
細線
 48
50.0
100
AcDbLine
 10
5944.53956138156
 20
11449.80118073943
 30
0.0
 11
6002.829581418174
 21
11450.72836802435
 31
0.0
  0
ARC
  5
1C90A
330
747D
100
AcDbEntity
  8
部品1
100
AcDbCircle
 10
5933.219786405299
 20
11571.60473085036
 30
0.0
 40
3.5
100
AcDbArc
 50
91.03524671598787
 51
159.5960814224235
  0
LINE
  5
1C90B
330
747D
100
AcDbEntity
  8
細線
 48
50.0
100
AcDbLine
 10
7258.329581418159
 20
11147.23679736201
 30
0.0
 11
7258.329581418173
 21
10228.73679736201
 31
0.0
  0
LINE
  5
1C90C
330
747D
100
AcDbEntity
  8
細線
 48
50.0
100
AcDbLine
 10
7291.629581418177
 20
11147.23679736201
 30
0.0
 11
7291.629581418191
 21
10228.73679736201
 31
0.0
  0
LINE
  5
1C90D
330
747D
100
AcDbEntity
  8
細線
 48
50.0
100
AcDbLine
 10
7270.579581418181
 20
10234.73679736203
 30
0.0
 11
7246.079581418159
 21
10234.73679736202
 31
0.0
  0
LINE
  5
1C90E
330
747D
100
AcDbEntity
  8
細線
 48
50.0
100
AcDbLine
 10
7303.129581418199
 20
10234.73679736202
 30
0.0
 11
7280.129581418177
 21
10234.73679736201
 31
0.0
  0
LINE
  5
1C90F
330
747D
100
AcDbEntity
  8
部品1
 48
50.0
100
AcDbLine
 10
6627.829581418175
 20
11413.73679736201
 30
0.0
 11
6677.829581418174
 21
11413.73679736201
 31
0.0
  0
LINE
  5
1C910
330
747D
100
AcDbEntity
  8
部品1
 48
50.0
100
AcDbLine
 10
6677.829581418174
 20
11542.73679736201
 30
0.0
 11
6647.829581418173
 21
11541.23679736201
 31
0.0
  0
MTEXT
  5
1C911
102
{ACAD_REACTORS
330
1C912
102
}
330
747D
100
AcDbEntity
  8
寸法
 62
     7
 48
50.0
100
AcDbMText
 10
6355.826863646912
 20
11192.92239508261
 30
0.0
 40
150.0
 41
0.0
 71
     4
 72
     1
  1
\A1;回リ縁
  7
STYLE1
 73
     1
 44
1.0
  0
LEADER
  5
1C912
330
747D
100
AcDbEntity
  8
寸法
 48
50.0
100
AcDbLeader
  3
INABA_S50G
 71
     0
 73
     0
 74
     0
 75
     1
 40
150.0
 41
530.0000000000001
 76
     3
 10
6066.486435667674
 20
11380.57994311253
 30
0.0
 10
6205.826863646912
 20
11092.92239508261
 30
0.0
 10
6330.826863646912
 20
11092.92239508261
 30
0.0
340
1C911
1001
ACAD
1000
DSTYLE
1002
{
1070
     6
1000
DOTSMALL
1002
}
  0
LINE
  5
1C913
330
747D
100
AcDbEntity
  8
細線
 48
50.0
100
AcDbLine
 10
7237.829581418174
 20
11413.73679736201
 30
0.0
 11
6067.82958141818
 21
11413.73679736201
 31
0.0
  0
LINE
  5
1C914
330
747D
100
AcDbEntity
  8
部品1
 48
50.0
100
AcDbLine
 10
7252.329581418173
 20
11367.59466173828
 30
0.0
 11
6053.329581418174
 21
11367.59466173828
 31
0.0
  0
LINE
  5
1C915
330
747D
100
AcDbEntity
  8
細線
 48
50.0
100
AcDbLine
 10
7237.829581418174
 20
11393.73679736201
 30
0.0
 11
6067.82958141818
 21
11393.73679736201
 31
0.0
  0
LEADER
  5
1C916
330
747D
100
AcDbEntity
  8
寸法
 48
50.0
100
AcDbLeader
  3
INABA_S50G
 71
     0
 73
     0
 75
     1
 40
150.0
 41
319.9999999999998
 76
     3
 10
6559.151879789094
 20
11581.89466159492
 30
0.0
 10
6523.493652724221
 20
11669.9755087242
 30
0.0
 10
6398.493652724222
 20
11669.9755087242
 30
0.0
340
1C859
1001
ACAD
1000
DSTYLE
1002
{
1070
     6
1000
DOTSMALL
1002
}
  0
LINE
  5
1C917
330
747D
100
AcDbEntity
  8
部品1
 48
50.0
100
AcDbLine
 10
6627.829581418175
 20
11425.73679736201
 30
0.0
 11
6627.829581418175
 21
11413.73679736201
 31
0.0
  0
LINE
  5
1C918
330
747D
100
AcDbEntity
  8
部品1
 48
50.0
100
AcDbLine
 10
6634.829581418173
 20
11367.59466173828
 30
0.0
 11
6634.829581418173
 21
11284.72281612393
 31
0.0
  0
LINE
  5
1C919
330
747D
100
AcDbEntity
  8
部品1
 48
50.0
100
AcDbLine
 10
6647.829581418173
 20
11541.23679736201
 30
0.0
 11
6647.829581418173
 21
11530.23679736201
 31
0.0
  0
LINE
  5
1C91A
330
747D
100
AcDbEntity
  8
部品1
 48
50.0
100
AcDbLine
 10
6647.829581418173
 20
11530.23679736201
 30
0.0
 11
6627.829581418175
 21
11529.23679736201
 31
0.0
  0
LINE
  5
1C91B
330
747D
100
AcDbEntity
  8
部品1
 48
50.0
100
AcDbLine
 10
6067.82958141818
 20
11413.73679736201
 30
0.0
 11
6089.829581418181
 21
11413.73679736201
 31
0.0
  0
LINE
  5
1C91C
330
747D
100
AcDbEntity
  8
部品1
 48
50.0
100
AcDbLine
 10
6067.82958141818
 20
11413.73679736201
 30
0.0
 11
6089.829581418181
 21
11413.73679736201
 31
0.0
  0
LINE
  5
1C91D
330
747D
100
AcDbEntity
  8
部品1
 48
50.0
100
AcDbLine
 10
6076.471717041915
 20
11393.73679736201
 30
0.0
 11
6067.82958141818
 21
11393.73679736201
 31
0.0
  0
ARC
  5
1C91E
330
747D
100
AcDbEntity
  8
部品1
100
AcDbCircle
 10
6062.950901761743
 20
11375.63019565306
 30
0.0
 40
1.0
100
AcDbArc
 50
314.9999999999995
 51
44.99999999999886
  0
LINE
  5
1C91F
330
747D
100
AcDbEntity
  8
部品1
100
AcDbLine
 10
6063.658087601555
 20
11376.33722336677
 30
0.0
 11
6062.950901761743
 21
11377.04440920659
 31
0.0
  0
LINE
  5
1C920
330
747D
100
AcDbEntity
  8
部品1
100
AcDbLine
 10
6062.950901761743
 20
11377.04440920659
 30
0.0
 11
6070.021969573605
 21
11384.11547701846
 31
0.0
  0
ARC
  5
1C921
330
747D
100
AcDbEntity
  8
部品1
100
AcDbCircle
 10
6071.436183135975
 20
11384.11547701846
 30
0.0
 40
1.0
100
AcDbArc
 50
225.0
 51
315.0
  0
LINE
  5
1C922
330
747D
100
AcDbEntity
  8
部品1
100
AcDbLine
 10
6072.143289917168
 20
11383.40837023726
 30
0.0
 11
6077.471717041914
 21
11388.73679736201
 31
0.0
  0
LINE
  5
1C923
330
747D
100
AcDbEntity
  8
部品1
100
AcDbLine
 10
6070.021969573605
 20
11384.11547701846
 30
0.0
 11
6070.72907635479
 21
11383.40837023726
 31
0.0
  0
LINE
  5
1C924
330
747D
100
AcDbEntity
  8
部品1
100
AcDbLine
 10
6076.471717041915
 20
11389.73679736201
 30
0.0
 11
6076.471717041915
 21
11393.73679736201
 31
0.0
  0
LINE
  5
1C925
330
747D
100
AcDbEntity
  8
部品1
100
AcDbLine
 10
6077.471717041914
 20
11388.73679736201
 30
0.0
 11
6077.471717041914
 21
11389.73679736201
 31
0.0
  0
LINE
  5
1C926
330
747D
100
AcDbEntity
  8
部品1
100
AcDbLine
 10
6077.471717041914
 20
11389.73679736201
 30
0.0
 11
6076.471717041915
 21
11389.73679736201
 31
0.0
  0
LINE
  5
1C927
330
747D
100
AcDbEntity
  8
部品1
 48
50.0
100
AcDbLine
 10
6067.82958141818
 20
11393.73679736201
 30
0.0
 11
6067.82958141818
 21
11413.73679736201
 31
0.0
  0
LINE
  5
1C928
330
747D
100
AcDbEntity
  8
部品1
100
AcDbLine
 10
6056.329581418181
 20
11367.59466173828
 30
0.0
 11
6053.329581418181
 21
11367.59466173828
 31
0.0
  0
LINE
  5
1C929
330
747D
100
AcDbEntity
  8
部品1
 48
50.0
100
AcDbLine
 10
6052.829581418181
 20
11378.73679736201
 30
0.0
 11
6053.329581418181
 21
11378.73679736201
 31
0.0
  0
LINE
  5
1C92A
330
747D
100
AcDbEntity
  8
部品1
100
AcDbLine
 10
6056.329581418181
 20
11367.59466173828
 30
0.0
 11
6063.658008542928
 21
11374.92308887187
 31
0.0
  0
LINE
  5
1C92B
330
747D
100
AcDbEntity
  8
部品1
 48
50.0
100
AcDbLine
 10
6052.829581418181
 20
11378.73679736201
 30
0.0
 11
6067.82958141818
 21
11393.73679736201
 31
0.0
  0
LINE
  5
1C92C
330
747D
100
AcDbEntity
  8
細線
 48
50.0
100
AcDbLine
 10
7270.579581418188
 20
11179.23679736202
 30
0.0
 11
7246.079581418159
 21
11179.23679736201
 31
0.0
  0
LINE
  5
1C92D
330
747D
100
AcDbEntity
  8
細線
 48
50.0
100
AcDbLine
 10
7270.579581418153
 20
11141.23679736201
 30
0.0
 11
7246.079581418159
 21
11141.23679736201
 31
0.0
  0
LINE
  5
1C92E
330
747D
100
AcDbEntity
  8
細線
 48
50.0
100
AcDbLine
 10
7303.129581418177
 20
11141.23679736201
 30
0.0
 11
7280.129581418177
 21
11141.23679736201
 31
0.0
  0
LINE
  5
1C92F
330
747D
100
AcDbEntity
  8
細線
 48
50.0
100
AcDbLine
 10
7303.129581418206
 20
11179.23679736201
 30
0.0
 11
7280.129581418177
 21
11179.23679736202
 31
0.0
  0
LINE
  5
1C930
330
747D
100
AcDbEntity
  8
細線
 48
50.0
100
AcDbLine
 10
7302.329581418167
 20
11200.73679736201
 30
0.0
 11
7291.629581418162
 21
11200.73679736201
 31
0.0
  0
LINE
  5
1C931
330
747D
100
AcDbEntity
  8
細線
 48
50.0
100
AcDbLine
 10
7267.329581418167
 20
11198.23679736201
 30
0.0
 11
7267.329581418167
 21
11238.73679736201
 31
0.0
  0
LINE
  5
1C932
330
747D
100
AcDbEntity
  8
細線
 48
50.0
100
AcDbLine
 10
7302.329581418167
 20
11200.73679736201
 30
0.0
 11
7302.329581418167
 21
11218.23679736201
 31
0.0
  0
LINE
  5
1C933
330
747D
100
AcDbEntity
  8
細線
 48
50.0
100
AcDbLine
 10
7291.629581418169
 20
11171.23679736201
 30
0.0
 11
7291.629581418169
 21
11200.73679736201
 31
0.0
  0
LINE
  5
1C934
330
747D
100
AcDbEntity
  8
細線
 48
50.0
100
AcDbLine
 10
7258.329581418166
 20
11171.23679736201
 30
0.0
 11
7258.329581418166
 21
11198.23679736201
 31
0.0
  0
LINE
  5
1C935
330
747D
100
AcDbEntity
  8
細線
 48
50.0
100
AcDbLine
 10
7241.329581418167
 20
11198.23679736201
 30
0.0
 11
7291.629581418169
 21
11198.236797362
 31
0.0
  0
LINE
  5
1C936
330
747D
100
AcDbEntity
  8
細線
 48
50.0
100
AcDbLine
 10
7241.329581418167
 20
11173.23679736201
 30
0.0
 11
7241.329581418167
 21
11198.23679736201
 31
0.0
  0
LINE
  5
1C937
330
747D
100
AcDbEntity
  8
細線
 48
50.0
100
AcDbLine
 10
7241.329581418167
 20
11210.73679736201
 30
0.0
 11
7241.329581418167
 21
11173.23679736201
 31
0.0
  0
LINE
  5
1C938
330
747D
100
AcDbEntity
  8
細線
 48
50.0
100
AcDbLine
 10
7252.329581418166
 20
11210.73679736201
 30
0.0
 11
7252.329581418159
 21
11246.73679736201
 31
0.0
  0
LINE
  5
1C939
330
747D
100
AcDbEntity
  8
細線
 48
50.0
100
AcDbLine
 10
7252.329581418173
 20
11238.73679736201
 30
0.0
 11
7267.829581418173
 21
11238.73679736201
 31
0.0
  0
LINE
  5
1C93A
330
747D
100
AcDbEntity
  8
細線
 48
50.0
100
AcDbLine
 10
7302.829581418166
 20
11218.73679736201
 30
0.0
 11
7267.829581418181
 21
11218.73679736201
 31
0.0
  0
LINE
  5
1C93B
330
747D
100
AcDbEntity
  8
細線
 48
50.0
100
AcDbLine
 10
7252.329581418166
 20
11246.73679736201
 30
0.0
 11
7240.329581418166
 21
11246.73679736201
 31
0.0
  0
LINE
  5
1C93C
330
747D
100
AcDbEntity
  8
細線
 48
50.0
100
AcDbLine
 10
7252.329581418166
 20
11210.73679736201
 30
0.0
 11
7240.329581418166
 21
11210.73679736201
 31
0.0
  0
LINE
  5
1C93D
330
747D
100
AcDbEntity
  8
細線
 48
50.0
100
AcDbLine
 10
7240.329581418166
 20
11210.73679736201
 30
0.0
 11
7240.329581418166
 21
11246.73679736201
 31
0.0
  0
LINE
  5
1C93E
330
747D
100
AcDbEntity
  8
部品1
 48
50.0
100
AcDbLine
 10
7302.829581418174
 20
11588.73679736201
 30
0.0
 11
7274.329581418173
 21
11588.73679736201
 31
0.0
  0
LINE
  5
1C93F
330
747D
100
AcDbEntity
  8
部品1
 48
50.0
100
AcDbLine
 10
7274.329581418173
 20
11573.73679736201
 30
0.0
 11
7251.829581418174
 21
11573.73679736201
 31
0.0
  0
LINE
  5
1C940
330
747D
100
AcDbEntity
  8
部品1
 48
50.0
100
AcDbLine
 10
7274.329581418173
 20
11588.73679736201
 30
0.0
 11
7274.329581418173
 21
11573.73679736201
 31
0.0
  0
LINE
  5
1C941
330
747D
100
AcDbEntity
  8
部品1
 48
50.0
100
AcDbLine
 10
7302.829581418174
 20
11378.73679736201
 30
0.0
 11
7252.829581418175
 21
11378.73679736201
 31
0.0
  0
LINE
  5
1C942
330
747D
100
AcDbEntity
  8
部品1
100
AcDbLine
 10
7249.329581418173
 20
11367.59466173828
 30
0.0
 11
7242.001154293427
 21
11374.92308887187
 31
0.0
  0
LINE
  5
1C943
330
747D
100
AcDbEntity
  8
部品1
100
AcDbLine
 10
7249.329581418173
 20
11367.59466173828
 30
0.0
 11
7252.329581418173
 21
11367.59466173828
 31
0.0
  0
ARC
  5
1C944
330
747D
100
AcDbEntity
  8
部品1
100
AcDbCircle
 10
7242.708261074612
 20
11375.63019565306
 30
0.0
 40
1.0
100
AcDbArc
 50
135.0000000000011
 51
225.0000000000003
  0
LINE
  5
1C945
330
747D
100
AcDbEntity
  8
部品1
100
AcDbLine
 10
7242.0010752348
 20
11376.33722336677
 30
0.0
 11
7242.708261074612
 21
11377.04440920659
 31
0.0
  0
LINE
  5
1C946
330
747D
100
AcDbEntity
  8
部品1
100
AcDbLine
 10
7242.708261074612
 20
11377.04440920659
 30
0.0
 11
7235.63719326275
 21
11384.11547701846
 31
0.0
  0
ARC
  5
1C947
330
747D
100
AcDbEntity
  8
部品1
100
AcDbCircle
 10
7234.22297970038
 20
11384.11547701846
 30
0.0
 40
1.0
100
AcDbArc
 50
225.0
 51
315.0
  0
LINE
  5
1C948
330
747D
100
AcDbEntity
  8
部品1
100
AcDbLine
 10
7233.515872919188
 20
11383.40837023726
 30
0.0
 11
7228.187445794448
 21
11388.73679736201
 31
0.0
  0
LINE
  5
1C949
330
747D
100
AcDbEntity
  8
部品1
100
AcDbLine
 10
7235.63719326275
 20
11384.11547701846
 30
0.0
 11
7234.930086481565
 21
11383.40837023726
 31
0.0
  0
LINE
  5
1C94A
330
747D
100
AcDbEntity
  8
部品1
100
AcDbLine
 10
7229.187445794448
 20
11389.73679736201
 30
0.0
 11
7229.187445794448
 21
11393.73679736201
 31
0.0
  0
LINE
  5
1C94B
330
747D
100
AcDbEntity
  8
部品1
100
AcDbLine
 10
7228.187445794448
 20
11388.73679736201
 30
0.0
 11
7228.187445794448
 21
11389.73679736201
 31
0.0
  0
LINE
  5
1C94C
330
747D
100
AcDbEntity
  8
部品1
100
AcDbLine
 10
7228.187445794448
 20
11389.73679736201
 30
0.0
 11
7229.187445794448
 21
11389.73679736201
 31
0.0
  0
LINE
  5
1C94D
330
747D
100
AcDbEntity
  8
部品1
 48
50.0
100
AcDbLine
 10
7252.829581418175
 20
11378.73679736201
 30
0.0
 11
7237.829581418174
 21
11393.73679736201
 31
0.0
  0
LINE
  5
1C94E
330
747D
100
AcDbEntity
  8
部品1
 48
50.0
100
AcDbLine
 10
7237.829581418174
 20
11393.73679736201
 30
0.0
 11
7237.829581418174
 21
11413.73679736201
 31
0.0
  0
LINE
  5
1C94F
330
747D
100
AcDbEntity
  8
部品1
 48
50.0
100
AcDbLine
 10
7237.829581418174
 20
11413.73679736201
 30
0.0
 11
7215.829581418174
 21
11413.73679736201
 31
0.0
  0
LINE
  5
1C950
330
747D
100
AcDbEntity
  8
部品1
 48
50.0
100
AcDbLine
 10
7252.829581418175
 20
11378.73679736201
 30
0.0
 11
7252.329581418173
 21
11378.73679736201
 31
0.0
  0
LINE
  5
1C951
330
747D
100
AcDbEntity
  8
部品1
 48
50.0
100
AcDbLine
 10
7229.187445794448
 20
11393.73679736201
 30
0.0
 11
7237.829581418174
 21
11393.73679736201
 31
0.0
  0
LINE
  5
1C952
330
747D
100
AcDbEntity
  8
部品1
 48
50.0
100
AcDbLine
 10
7237.829581418174
 20
11413.73679736201
 30
0.0
 11
7215.829581418174
 21
11413.73679736201
 31
0.0
  0
LINE
  5
1C953
330
747D
100
AcDbEntity
  8
細線
 48
50.0
100
AcDbLine
 10
7267.829581418173
 20
11378.73679736201
 30
0.0
 11
7267.829581418181
 21
11218.73679736201
 31
0.0
  0
LINE
  5
1C954
330
747D
100
AcDbEntity
  8
部品1
 48
50.0
100
AcDbLine
 10
7252.329581418173
 20
11378.73679736201
 30
0.0
 11
7252.329581418173
 21
11238.73679736202
 31
0.0
  0
LINE
  5
1C955
330
747D
100
AcDbEntity
  8
部品1
 48
50.0
100
AcDbLine
 10
7302.829581418174
 20
11588.73679736201
 30
0.0
 11
7302.829581418174
 21
11200.6256862509
 31
0.0
  0
LINE
  5
1C956
330
747D
100
AcDbEntity
  8
部品1
 48
50.0
100
AcDbLine
 10
6677.829581418174
 20
11413.73679736201
 30
0.0
 11
6677.829581418174
 21
11542.73679736201
 31
0.0
  0
LINE
  5
1C957
330
747D
100
AcDbEntity
  8
部品1
 48
50.0
100
AcDbLine
 10
6670.829581418174
 20
11367.59466173828
 30
0.0
 11
6670.829581418174
 21
11284.72281612393
 31
0.0
  0
INSERT
  5
1C958
330
747D
100
AcDbEntity
  8
部品1
 48
50.0
100
AcDbBlockReference
  2
A$C356B7D95
 10
7417.433577949011
 20
11485.28425113088
 30
0.0
 50
2.255436934929261
  0
MTEXT
  5
1C959
102
{ACAD_REACTORS
330
1C95A
102
}
330
747D
100
AcDbEntity
  8
寸法
 62
     7
 48
50.0
100
AcDbMText
 10
7685.640527615015
 20
12174.04804154403
 30
0.0
 40
150.0
 41
0.0
 71
     4
 72
     1
  1
\A1;鼻隠シ前
  7
STYLE1
 73
     1
 44
1.0
  0
LEADER
  5
1C95A
330
747D
100
AcDbEntity
  8
寸法
 48
50.0
100
AcDbLeader
  3
INABA_S50G
 71
     0
 73
     0
 74
     0
 75
     1
 40
150.0
 41
697.5
 76
     3
 10
7436.960128916934
 20
11573.51069687742
 30
0.0
 10
7535.640527615015
 20
12074.04804154403
 30
0.0
 10
7660.640527615015
 20
12074.04804154403
 30
0.0
340
1C959
1001
ACAD
1000
DSTYLE
1002
{
1070
     6
1000
DOTSMALL
1002
}
  0
LINE
  5
1C95B
330
747D
100
AcDbEntity
  8
部品1
 48
50.0
100
AcDbLine
 10
7371.829581418174
 20
9228.736797362016
 30
0.0
 11
7371.829581418174
 21
9028.736797362014
 31
0.0
  0
LINE
  5
1C95C
330
747D
100
AcDbEntity
  8
細線
 48
50.0
100
AcDbLine
 10
7311.329581418181
 20
10162.73679736201
 30
0.0
 11
7311.329581418181
 21
10159.73679736201
 31
0.0
  0
LINE
  5
1C95D
330
747D
100
AcDbEntity
  8
細線
 48
50.0
100
AcDbLine
 10
7311.329581418167
 20
10171.63679736201
 30
0.0
 11
7311.329581418181
 21
10180.73679736201
 31
0.0
  0
LINE
  5
1C95E
330
747D
100
AcDbEntity
  8
細線
 48
50.0
100
AcDbLine
 10
7311.329581418167
 20
11172.23679736201
 30
0.0
 11
7311.329581418167
 21
11198.73679736201
 31
0.0
  0
LINE
  5
1C95F
330
747D
100
AcDbEntity
  8
部品1
100
AcDbLine
 10
7418.251028758501
 20
11616.54160810826
 30
0.0
 11
7411.559032768358
 21
11631.16076879157
 31
0.0
  0
ARC
  5
1C960
330
747D
100
AcDbEntity
  8
部品1
 48
50.0
100
AcDbCircle
 10
7408.376609304379
 20
11629.70399808351
 30
0.0
 40
3.5
100
AcDbArc
 50
24.59618196436618
 51
91.03524671598787
  0
ARC
  5
1C961
330
747D
100
AcDbEntity
  8
部品1
100
AcDbCircle
 10
7419.614924528779
 20
11617.16593841171
 30
0.0
 40
1.5
100
AcDbArc
 50
204.5961819643761
 51
270.9018459011026
  0
LINE
  5
1C962
330
747D
100
AcDbEntity
  8
部品1
 48
50.0
100
AcDbLine
 10
7360.259023458418
 20
11631.31079918748
 30
0.0
 11
7350.86360769221
 21
11603.9699038337
 31
0.0
  0
ARC
  5
1C963
330
747D
100
AcDbEntity
  8
部品1
100
AcDbCircle
 10
7422.329581418174
 20
11600.20873825656
 30
0.0
 40
15.5
100
AcDbArc
 50
358.1167995116895
 51
91.86125648319634
  0
LINE
  5
1C964
330
747D
100
AcDbEntity
  8
部品1
 48
50.0
100
AcDbLine
 10
7419.638533824353
 20
11615.66612422283
 30
0.0
 11
7421.826151637431
 21
11615.70056056564
 31
0.0
  0
LINE
  5
1C965
330
747D
100
AcDbEntity
  8
部品1
 48
50.0
100
AcDbLine
 10
7407.819836709006
 20
11500.75399803958
 30
0.0
 11
7416.818698356841
 21
11500.89713798178
 31
0.0
  0
ARC
  5
1C966
330
747D
100
AcDbEntity
  8
部品1
 48
50.0
100
AcDbCircle
 10
7404.796359502693
 20
11502.20609500015
 30
0.0
 40
3.0
100
AcDbArc
 50
0.9112955958087358
 51
90.91129559581467
  0
LINE
  5
1C967
330
747D
100
AcDbEntity
  8
部品1
 48
50.0
100
AcDbLine
 10
7407.819836709006
 20
11500.75399803958
 30
0.0
 11
7407.795980051972
 21
11502.25380831422
 31
0.0
  0
LINE
  5
1C968
330
747D
100
AcDbEntity
  8
部品1
100
AcDbLine
 10
7432.155581542449
 20
11518.67699207431
 30
0.0
 11
7432.063807929208
 21
11515.88581445004
 31
0.0
  0
ARC
  5
1C969
330
747D
100
AcDbEntity
  8
部品1
100
AcDbCircle
 10
7434.074003404615
 20
11522.24905836098
 30
0.0
 40
1.199999999999999
100
AcDbArc
 50
279.0222695094722
 51
358.1167995116895
  0
ARC
  5
1C96A
330
747D
100
AcDbEntity
  8
部品1
100
AcDbCircle
 10
7434.654231278202
 20
11518.59483674587
 30
0.0
 40
2.5
100
AcDbArc
 50
99.02226950947451
 51
178.1167995116955
  0
ARC
  5
1C96B
330
747D
100
AcDbEntity
  8
部品1
100
AcDbCircle
 10
7416.572179567502
 20
11516.39517748639
 30
0.0
 40
15.5
100
AcDbArc
 50
270.9112955958145
 51
358.1167995116315
  0
LINE
  5
1C96C
330
747D
100
AcDbEntity
  8
部品1
100
AcDbLine
 10
7437.82120977988
 20
11599.69937522023
 30
0.0
 11
7435.273355277776
 21
11522.20962380333
 31
0.0
  0
ENDSEC
  0
SECTION
  2
OBJECTS
  0
DICTIONARY
  5
7471
330
0
100
AcDbDictionary
281
     1
  3
ACAD_GROUP
350
7472
  3
ACAD_LAYOUT
350
1CA84
  3
ACAD_MLINESTYLE
350
7473
  3
ACAD_PLOTSETTINGS
350
1CA85
  3
ACAD_PLOTSTYLENAME
350
1CA82
  3
ACDBHEADERROUNDTRIPXREC
350
1CB0F
  3
ACDBVARIABLEDICTIONARY
350
123D8
  3
CONTENTDICTIONARY
350
E71C
  3
DRAWINGVARIABLESDICT
350
F3B9
  0
DICTIONARY
  5
1CAB4
330
747D
100
AcDbDictionary
280
     1
281
     1
  3
ACAD_LAYOUTSELFREF
360
1CAB5
  0
DICTIONARY
  5
1CAB2
330
747A
100
AcDbDictionary
280
     1
281
     1
  3
ACAD_LAYOUTSELFREF
360
1CAB3
  0
DICTIONARY
  5
7472
102
{ACAD_REACTORS
330
7471
102
}
330
7471
100
AcDbDictionary
281
     1
  0
DICTIONARY
  5
1CA84
102
{ACAD_REACTORS
330
7471
102
}
330
7471
100
AcDbDictionary
281
     1
  3
Model
350
1CA86
  3
ﾚｲｱｳﾄ1
350
1CA87
  0
DICTIONARY
  5
7473
102
{ACAD_REACTORS
330
7471
102
}
330
7471
100
AcDbDictionary
281
     1
  3
STANDARD
350
7480
  0
DICTIONARY
  5
1CA85
102
{ACAD_REACTORS
330
7471
102
}
330
7471
100
AcDbDictionary
281
     1
  0
ACDBDICTIONARYWDFLT
  5
1CA82
102
{ACAD_REACTORS
330
7471
102
}
330
7471
100
AcDbDictionary
281
     1
  3
Normal
350
1CA83
100
AcDbDictionaryWithDefault
340
1CA83
  0
DICTIONARY
  5
1CB0F
102
{ACAD_REACTORS
330
7471
102
}
330
7471
100
AcDbDictionary
281
     1
  3
CEPSNTYPE
350
1CB19
  3
DIMSTYLEDATA
350
1CB1D
  3
FINGERPRINTGUID
350
1CB1A
  3
HYPERLINKBASE
350
1CB12
  3
INSUNITS
350
1CB18
  3
LAYOUTDICT
350
1CB14
  3
LWETCUNION
350
1CB17
  3
PLOTSETDICT
350
1CB15
  3
PLOTSTYLNAMDICT
350
1CB16
  3
PSVPSCALE
350
1CB1C
  3
PUCSBASE
350
1CB20
  3
PUCSORGBACK
350
1CB26
  3
PUCSORGBOTTOM
350
1CB22
  3
PUCSORGFRONT
350
1CB25
  3
PUCSORGLEFT
350
1CB23
  3
PUCSORGRIGHT
350
1CB24
  3
PUCSORGTOP
350
1CB21
  3
PUCSORTHOREF
350
1CB1E
  3
PUCSORTHOVIEW
350
1CB1F
  3
STYLESHEET
350
1CB13
  3
TSTACKALIGN
350
1CB10
  3
TSTACKSIZE
350
1CB11
  3
UCSBASE
350
1CB29
  3
UCSORGBACK
350
1CB2F
  3
UCSORGBOTTOM
350
1CB2B
  3
UCSORGFRONT
350
1CB2E
  3
UCSORGLEFT
350
1CB2C
  3
UCSORGRIGHT
350
1CB2D
  3
UCSORGTOP
350
1CB2A
  3
UCSORTHOREF
350
1CB27
  3
UCSORTHOVIEW
350
1CB28
  3
VERSIONGUID
350
1CB1B
  0
DICTIONARY
  5
123D8
102
{ACAD_REACTORS
330
7471
102
}
330
7471
100
AcDbDictionary
281
     1
  3
DIMASSOC
350
1CB06
  3
SORTENTS
350
123D9
  0
DICTIONARY
  5
E71C
102
{ACAD_REACTORS
330
7471
102
}
330
7471
100
AcDbDictionary
281
     1
  0
DICTIONARY
  5
F3B9
102
{ACAD_REACTORS
330
7471
102
}
330
7471
100
AcDbDictionary
281
     1
1001
DRAWINGVARIABLESXDATA
1000
POLARMODE
1000
1
  0
XRECORD
  5
1CAB5
102
{ACAD_REACTORS
330
1CAB4
102
}
330
1CAB4
100
AcDbXrecord
280
     1
340
747D
  0
XRECORD
  5
1CAB3
102
{ACAD_REACTORS
330
1CAB2
102
}
330
1CAB2
100
AcDbXrecord
280
     1
340
747A
  0
LAYOUT
  5
1CA86
102
{ACAD_REACTORS
330
1CA84
102
}
330
1CA84
100
AcDbPlotSettings
  1

  2
Canon LBP-730
  4

  6

 40
0.0
 41
0.0
 42
0.0
 43
0.0
 44
0.0
 45
0.0
 46
0.0
 47
0.0
 48
0.0
 49
0.0
140
0.0
141
0.0
142
1.0
143
1.0
 70
  1712
 72
     0
 73
     0
 74
     0
  7

 75
     0
147
1.0
148
0.0
149
0.0
100
AcDbLayout
  1
Model
 70
     1
 71
     0
 10
0.0
 20
0.0
 11
12.0
 21
9.0
 12
0.0
 22
0.0
 32
0.0
 14
0.0
 24
0.0
 34
0.0
 15
0.0
 25
0.0
 35
0.0
146
0.0
 13
0.0
 23
0.0
 33
0.0
 16
1.0
 26
0.0
 36
0.0
 17
0.0
 27
1.0
 37
0.0
 76
     0
330
747D
  0
LAYOUT
  5
1CA87
102
{ACAD_REACTORS
330
1CA84
102
}
330
1CA84
100
AcDbPlotSettings
  1

  2
Canon LBP-730
  4

  6

 40
0.0
 41
0.0
 42
0.0
 43
0.0
 44
0.0
 45
0.0
 46
0.0
 47
0.0
 48
0.0
 49
0.0
140
0.0
141
0.0
142
1.0
143
1.0
 70
   688
 72
     0
 73
     0
 74
     5
  7

 75
    16
147
1.0
148
0.0
149
0.0
100
AcDbLayout
  1
ﾚｲｱｳﾄ1
 70
     0
 71
     1
 10
0.0
 20
0.0
 11
420.0
 21
297.0
 12
0.0
 22
0.0
 32
0.0
 14
1.000000000000000E+20
 24
1.000000000000000E+20
 34
1.000000000000000E+20
 15
-1.000000000000000E+20
 25
-1.000000000000000E+20
 35
-1.000000000000000E+20
146
0.0
 13
0.0
 23
0.0
 33
0.0
 16
1.0
 26
0.0
 36
0.0
 17
0.0
 27
1.0
 37
0.0
 76
     0
330
747A
  0
MLINESTYLE
  5
7480
102
{ACAD_REACTORS
330
7473
102
}
330
7473
100
AcDbMlineStyle
  2
STANDARD
 70
     0
  3

 62
     0
 51
90.0
 52
90.0
 71
     2
 49
0.5
 62
   256
  6
BYLAYER
 49
-0.5
 62
   256
  6
BYLAYER
  0
ACDBPLACEHOLDER
  5
1CA83
102
{ACAD_REACTORS
330
1CA82
102
}
330
1CA82
  0
XRECORD
  5
1CB19
102
{ACAD_REACTORS
330
1CB0F
102
}
330
1CB0F
100
AcDbXrecord
280
     1
 90
        0
  0
XRECORD
  5
1CB1D
102
{ACAD_REACTORS
330
1CB0F
102
}
330
1CB0F
100
AcDbXrecord
280
     1
1000
DSTYLE
1002
{
1070
   341
340
F770
1070
   343
340
F770
1070
   344
340
F770
1002
}
  0
XRECORD
  5
1CB1A
102
{ACAD_REACTORS
330
1CB0F
102
}
330
1CB0F
100
AcDbXrecord
280
     1
  1
{697DFE34-F946-11D6-AF94-00909916878D}
  0
XRECORD
  5
1CB12
102
{ACAD_REACTORS
330
1CB0F
102
}
330
1CB0F
100
AcDbXrecord
280
     1
  1

  0
XRECORD
  5
1CB18
102
{ACAD_REACTORS
330
1CB0F
102
}
330
1CB0F
100
AcDbXrecord
280
     1
 90
        0
  0
XRECORD
  5
1CB14
102
{ACAD_REACTORS
330
1CB0F
102
}
330
1CB0F
100
AcDbXrecord
280
     1
340
1CA84
  0
XRECORD
  5
1CB17
102
{ACAD_REACTORS
330
1CB0F
102
}
330
1CB0F
100
AcDbXrecord
280
     1
 90
    14877
  0
XRECORD
  5
1CB15
102
{ACAD_REACTORS
330
1CB0F
102
}
330
1CB0F
100
AcDbXrecord
280
     1
340
1CA85
  0
XRECORD
  5
1CB16
102
{ACAD_REACTORS
330
1CB0F
102
}
330
1CB0F
100
AcDbXrecord
280
     1
340
1CA82
  0
XRECORD
  5
1CB1C
102
{ACAD_REACTORS
330
1CB0F
102
}
330
1CB0F
100
AcDbXrecord
280
     1
 40
0.0
  0
XRECORD
  5
1CB20
102
{ACAD_REACTORS
330
1CB0F
102
}
330
1CB0F
100
AcDbXrecord
280
     1
340
0
  0
XRECORD
  5
1CB26
102
{ACAD_REACTORS
330
1CB0F
102
}
330
1CB0F
100
AcDbXrecord
280
     1
 10
0.0
 20
0.0
 30
0.0
  0
XRECORD
  5
1CB22
102
{ACAD_REACTORS
330
1CB0F
102
}
330
1CB0F
100
AcDbXrecord
280
     1
 10
0.0
 20
0.0
 30
0.0
  0
XRECORD
  5
1CB25
102
{ACAD_REACTORS
330
1CB0F
102
}
330
1CB0F
100
AcDbXrecord
280
     1
 10
0.0
 20
0.0
 30
0.0
  0
XRECORD
  5
1CB23
102
{ACAD_REACTORS
330
1CB0F
102
}
330
1CB0F
100
AcDbXrecord
280
     1
 10
0.0
 20
0.0
 30
0.0
  0
XRECORD
  5
1CB24
102
{ACAD_REACTORS
330
1CB0F
102
}
330
1CB0F
100
AcDbXrecord
280
     1
 10
0.0
 20
0.0
 30
0.0
  0
XRECORD
  5
1CB21
102
{ACAD_REACTORS
330
1CB0F
102
}
330
1CB0F
100
AcDbXrecord
280
     1
 10
0.0
 20
0.0
 30
0.0
  0
XRECORD
  5
1CB1E
102
{ACAD_REACTORS
330
1CB0F
102
}
330
1CB0F
100
AcDbXrecord
280
     1
340
0
  0
XRECORD
  5
1CB1F
102
{ACAD_REACTORS
330
1CB0F
102
}
330
1CB0F
100
AcDbXrecord
280
     1
 70
     0
  0
XRECORD
  5
1CB13
102
{ACAD_REACTORS
330
1CB0F
102
}
330
1CB0F
100
AcDbXrecord
280
     1
  1

  0
XRECORD
  5
1CB10
102
{ACAD_REACTORS
330
1CB0F
102
}
330
1CB0F
100
AcDbXrecord
280
     1
 90
        1
  0
XRECORD
  5
1CB11
102
{ACAD_REACTORS
330
1CB0F
102
}
330
1CB0F
100
AcDbXrecord
280
     1
 90
       70
  0
XRECORD
  5
1CB29
102
{ACAD_REACTORS
330
1CB0F
102
}
330
1CB0F
100
AcDbXrecord
280
     1
340
0
  0
XRECORD
  5
1CB2F
102
{ACAD_REACTORS
330
1CB0F
102
}
330
1CB0F
100
AcDbXrecord
280
     1
 10
0.0
 20
0.0
 30
0.0
  0
XRECORD
  5
1CB2B
102
{ACAD_REACTORS
330
1CB0F
102
}
330
1CB0F
100
AcDbXrecord
280
     1
 10
0.0
 20
0.0
 30
0.0
  0
XRECORD
  5
1CB2E
102
{ACAD_REACTORS
330
1CB0F
102
}
330
1CB0F
100
AcDbXrecord
280
     1
 10
0.0
 20
0.0
 30
0.0
  0
XRECORD
  5
1CB2C
102
{ACAD_REACTORS
330
1CB0F
102
}
330
1CB0F
100
AcDbXrecord
280
     1
 10
0.0
 20
0.0
 30
0.0
  0
XRECORD
  5
1CB2D
102
{ACAD_REACTORS
330
1CB0F
102
}
330
1CB0F
100
AcDbXrecord
280
     1
 10
0.0
 20
0.0
 30
0.0
  0
XRECORD
  5
1CB2A
102
{ACAD_REACTORS
330
1CB0F
102
}
330
1CB0F
100
AcDbXrecord
280
     1
 10
0.0
 20
0.0
 30
0.0
  0
XRECORD
  5
1CB27
102
{ACAD_REACTORS
330
1CB0F
102
}
330
1CB0F
100
AcDbXrecord
280
     1
340
0
  0
XRECORD
  5
1CB28
102
{ACAD_REACTORS
330
1CB0F
102
}
330
1CB0F
100
AcDbXrecord
280
     1
 70
     0
  0
XRECORD
  5
1CB1B
102
{ACAD_REACTORS
330
1CB0F
102
}
330
1CB0F
100
AcDbXrecord
280
     1
  1
{697DFE36-F946-11D6-AF94-00909916878D}
  0
DICTIONARYVAR
  5
1CB06
102
{ACAD_REACTORS
330
123D8
102
}
330
123D8
100
DictionaryVariables
280
     0
  1
1
  0
DICTIONARYVAR
  5
123D9
102
{ACAD_REACTORS
330
123D8
102
}
330
123D8
100
DictionaryVariables
280
     0
  1
96
  0
ENDSEC
  0
EOF
