  0
SECTION
  2
HEADER
  9
$ACADVER
  1
AC1015
  9
$ACADMAINTVER
 70
    20
  9
$DWGCODEPAGE
  3
ANSI_932
  9
$INSBASE
 10
0.0
 20
0.0
 30
0.0
  9
$EXTMIN
 10
139.196816621341
 20
-0.5436960005536094
 30
-0.0000000000000058
  9
$EXTMAX
 10
16308.32523385566
 20
11409.94830329749
 30
0.0000000000000104
  9
$LIMMIN
 10
0.0
 20
0.0
  9
$LIMMAX
 10
16800.0
 20
11880.0
  9
$ORTHOMODE
 70
     0
  9
$REGENMODE
 70
     1
  9
$FILLMODE
 70
     1
  9
$QTEXTMODE
 70
     0
  9
$MIRRTEXT
 70
     1
  9
$LTSCALE
 40
20.0
  9
$ATTMODE
 70
     1
  9
$TEXTSIZE
 40
100.0
  9
$TRACEWID
 40
1.0
  9
$TEXTSTYLE
  7
STYLE2
  9
$CLAYER
  8
寸法
  9
$CELTYPE
  6
BYLAYER
  9
$CECOLOR
 62
   256
  9
$CELTSCALE
 40
50.0
  9
$DISPSILH
 70
     0
  9
$DIMSCALE
 40
40.0
  9
$DIMASZ
 40
2.5
  9
$DIMEXO
 40
0.5
  9
$DIMDLI
 40
7.0
  9
$DIMRND
 40
0.0
  9
$DIMDLE
 40
0.0
  9
$DIMEXE
 40
1.5
  9
$DIMTP
 40
0.0
  9
$DIMTM
 40
0.0
  9
$DIMTXT
 40
3.0
  9
$DIMCEN
 40
0.0
  9
$DIMTSZ
 40
0.0
  9
$DIMTOL
 70
     0
  9
$DIMLIM
 70
     0
  9
$DIMTIH
 70
     0
  9
$DIMTOH
 70
     0
  9
$DIMSE1
 70
     0
  9
$DIMSE2
 70
     0
  9
$DIMTAD
 70
     3
  9
$DIMZIN
 70
     8
  9
$DIMBLK
  1

  9
$DIMASO
 70
     1
  9
$DIMSHO
 70
     1
  9
$DIMPOST
  1

  9
$DIMAPOST
  1

  9
$DIMALT
 70
     0
  9
$DIMALTD
 70
     2
  9
$DIMALTF
 40
0.0394
  9
$DIMLFAC
 40
1.0
  9
$DIMTOFL
 70
     1
  9
$DIMTVP
 40
0.0
  9
$DIMTIX
 70
     0
  9
$DIMSOXD
 70
     0
  9
$DIMSAH
 70
     1
  9
$DIMBLK1
  1
DOTSMALL
  9
$DIMBLK2
  1
DOTSMALL
  9
$DIMSTYLE
  2
INABA_S40G
  9
$DIMCLRD
 70
     0
  9
$DIMCLRE
 70
     0
  9
$DIMCLRT
 70
     7
  9
$DIMTFAC
 40
1.0
  9
$DIMGAP
 40
1.0
  9
$DIMJUST
 70
     0
  9
$DIMSD1
 70
     0
  9
$DIMSD2
 70
     0
  9
$DIMTOLJ
 70
     1
  9
$DIMTZIN
 70
     0
  9
$DIMALTZ
 70
     0
  9
$DIMALTTZ
 70
     0
  9
$DIMUPT
 70
     0
  9
$DIMDEC
 70
     1
  9
$DIMTDEC
 70
     1
  9
$DIMALTU
 70
     2
  9
$DIMALTTD
 70
     2
  9
$DIMTXSTY
  7
STYLE1
  9
$DIMAUNIT
 70
     0
  9
$DIMADEC
 70
     0
  9
$DIMALTRND
 40
0.0
  9
$DIMAZIN
 70
     0
  9
$DIMDSEP
 70
    46
  9
$DIMATFIT
 70
     3
  9
$DIMFRAC
 70
     0
  9
$DIMLDRBLK
  1

  9
$DIMLUNIT
 70
     2
  9
$DIMLWD
 70
    -2
  9
$DIMLWE
 70
    -2
  9
$DIMTMOVE
 70
     0
  9
$LUNITS
 70
     2
  9
$LUPREC
 70
     1
  9
$SKETCHINC
 40
1.0
  9
$FILLETRAD
 40
0.0
  9
$AUNITS
 70
     0
  9
$AUPREC
 70
     0
  9
$MENU
  1
acad
  9
$ELEVATION
 40
0.0
  9
$PELEVATION
 40
0.0
  9
$THICKNESS
 40
0.0
  9
$LIMCHECK
 70
     0
  9
$CHAMFERA
 40
3.0
  9
$CHAMFERB
 40
3.0
  9
$CHAMFERC
 40
0.0
  9
$CHAMFERD
 40
0.0
  9
$SKPOLY
 70
     0
  9
$TDCREATE
 40
2451368.612993866
  9
$TDUCREATE
 40
2451368.237993866
  9
$TDUPDATE
 40
2456380.849969977
  9
$TDUUPDATE
 40
2456380.474969977
  9
$TDINDWG
 40
1.4291056829
  9
$TDUSRTIMER
 40
1.4291056829
  9
$USRTIMER
 70
     1
  9
$ANGBASE
 50
0.0
  9
$ANGDIR
 70
     0
  9
$PDMODE
 70
     3
  9
$PDSIZE
 40
2.0
  9
$PLINEWID
 40
0.0
  9
$SPLFRAME
 70
     0
  9
$SPLINETYPE
 70
     6
  9
$SPLINESEGS
 70
     8
  9
$HANDSEED
  5
20673
  9
$SURFTAB1
 70
     6
  9
$SURFTAB2
 70
     6
  9
$SURFTYPE
 70
     6
  9
$SURFU
 70
     6
  9
$SURFV
 70
     6
  9
$UCSBASE
  2

  9
$UCSNAME
  2

  9
$UCSORG
 10
0.0
 20
0.0
 30
0.0
  9
$UCSXDIR
 10
1.0
 20
0.0
 30
0.0
  9
$UCSYDIR
 10
0.0
 20
1.0
 30
0.0
  9
$UCSORTHOREF
  2

  9
$UCSORTHOVIEW
 70
     0
  9
$UCSORGTOP
 10
0.0
 20
0.0
 30
0.0
  9
$UCSORGBOTTOM
 10
0.0
 20
0.0
 30
0.0
  9
$UCSORGLEFT
 10
0.0
 20
0.0
 30
0.0
  9
$UCSORGRIGHT
 10
0.0
 20
0.0
 30
0.0
  9
$UCSORGFRONT
 10
0.0
 20
0.0
 30
0.0
  9
$UCSORGBACK
 10
0.0
 20
0.0
 30
0.0
  9
$PUCSBASE
  2

  9
$PUCSNAME
  2

  9
$PUCSORG
 10
0.0
 20
0.0
 30
0.0
  9
$PUCSXDIR
 10
1.0
 20
0.0
 30
0.0
  9
$PUCSYDIR
 10
0.0
 20
1.0
 30
0.0
  9
$PUCSORTHOREF
  2

  9
$PUCSORTHOVIEW
 70
     0
  9
$PUCSORGTOP
 10
0.0
 20
0.0
 30
0.0
  9
$PUCSORGBOTTOM
 10
0.0
 20
0.0
 30
0.0
  9
$PUCSORGLEFT
 10
0.0
 20
0.0
 30
0.0
  9
$PUCSORGRIGHT
 10
0.0
 20
0.0
 30
0.0
  9
$PUCSORGFRONT
 10
0.0
 20
0.0
 30
0.0
  9
$PUCSORGBACK
 10
0.0
 20
0.0
 30
0.0
  9
$USERI1
 70
     0
  9
$USERI2
 70
     0
  9
$USERI3
 70
     0
  9
$USERI4
 70
     0
  9
$USERI5
 70
     0
  9
$USERR1
 40
0.0
  9
$USERR2
 40
0.0
  9
$USERR3
 40
0.0
  9
$USERR4
 40
0.0
  9
$USERR5
 40
0.0
  9
$WORLDVIEW
 70
     1
  9
$SHADEDGE
 70
     3
  9
$SHADEDIF
 70
    70
  9
$TILEMODE
 70
     1
  9
$MAXACTVP
 70
    16
  9
$PINSBASE
 10
0.0
 20
0.0
 30
0.0
  9
$PLIMCHECK
 70
     0
  9
$PEXTMIN
 10
1.000000000000000E+20
 20
1.000000000000000E+20
 30
1.000000000000000E+20
  9
$PEXTMAX
 10
-1.000000000000000E+20
 20
-1.000000000000000E+20
 30
-1.000000000000000E+20
  9
$PLIMMIN
 10
0.0
 20
0.0
  9
$PLIMMAX
 10
420.0
 20
297.0
  9
$UNITMODE
 70
     0
  9
$VISRETAIN
 70
     0
  9
$PLINEGEN
 70
     0
  9
$PSLTSCALE
 70
     0
  9
$TREEDEPTH
 70
  3020
  9
$CMLSTYLE
  2
STANDARD
  9
$CMLJUST
 70
     0
  9
$CMLSCALE
 40
1.0
  9
$PROXYGRAPHICS
 70
     1
  9
$MEASUREMENT
 70
     1
  9
$CELWEIGHT
370
    -1
  9
$ENDCAPS
280
     0
  9
$JOINSTYLE
280
     0
  9
$LWDISPLAY
290
     0
  9
$INSUNITS
 70
     0
  9
$HYPERLINKBASE
  1

  9
$STYLESHEET
  1
inabass.ctb
  9
$XEDIT
290
     1
  9
$CEPSNTYPE
380
     0
  9
$PSTYLEMODE
290
     1
  9
$FINGERPRINTGUID
  2
{3B57B35E-7D77-4BBF-81B7-6C583B9EB24C}
  9
$VERSIONGUID
  2
{15750A3C-E2DF-49FD-9C17-94B81CD1E43A}
  9
$EXTNAMES
290
     1
  9
$PSVPSCALE
 40
0.0
  9
$OLESTARTUP
290
     0
  0
ENDSEC
  0
SECTION
  2
CLASSES
  0
CLASS
  1
ACDBDICTIONARYWDFLT
  2
AcDbDictionaryWithDefault
  3
ObjectDBX Classes
 90
        0
280
     0
281
     0
  0
CLASS
  1
DICTIONARYVAR
  2
AcDbDictionaryVar
  3
ObjectDBX Classes
 90
        0
280
     0
281
     0
  0
CLASS
  1
ACDBPLACEHOLDER
  2
AcDbPlaceHolder
  3
ObjectDBX Classes
 90
        0
280
     0
281
     0
  0
CLASS
  1
LAYOUT
  2
AcDbLayout
  3
ObjectDBX Classes
 90
        0
280
     0
281
     0
  0
ENDSEC
  0
SECTION
  2
TABLES
  0
TABLE
  2
VPORT
  5
746D
330
0
100
AcDbSymbolTable
 70
     3
  0
VPORT
  5
2066B
330
746D
100
AcDbSymbolTableRecord
100
AcDbViewportTableRecord
  2
*Active
 70
     0
 10
0.0
 20
0.0
 11
1.0
 21
1.0
 12
8223.7610252385
 22
5704.702303648471
 13
0.0
 23
0.0
 14
10.0
 24
10.0
 15
10.0
 25
10.0
 16
0.0
 26
0.0
 36
1.0
 17
0.0
 27
0.0
 37
0.0
 40
11503.26022693462
 41
1.706919945725915
 42
50.0
 43
0.0
 44
0.0
 50
0.0
 51
0.0
 71
     0
 72
     0
 73
     1
 74
     0
 75
     0
 76
     0
 77
     0
 78
     0
281
     0
 65
     1
110
0.0
120
0.0
130
0.0
111
1.0
121
0.0
131
0.0
112
0.0
122
1.0
132
0.0
 79
     0
146
0.0
  0
ENDTAB
  0
TABLE
  2
LTYPE
  5
746A
330
0
100
AcDbSymbolTable
 70
     4
  0
LTYPE
  5
7477
330
746A
100
AcDbSymbolTableRecord
100
AcDbLinetypeTableRecord
  2
BYBLOCK
 70
     0
  3

 72
    65
 73
     0
 40
0.0
  0
LTYPE
  5
7478
330
746A
100
AcDbSymbolTableRecord
100
AcDbLinetypeTableRecord
  2
BYLAYER
 70
     0
  3

 72
    65
 73
     0
 40
0.0
  0
LTYPE
  5
7479
330
746A
100
AcDbSymbolTableRecord
100
AcDbLinetypeTableRecord
  2
CONTINUOUS
 70
     0
  3
Solid line
 72
    65
 73
     0
 40
0.0
  0
LTYPE
  5
7816
330
746A
100
AcDbSymbolTableRecord
100
AcDbLinetypeTableRecord
  2
CENTER
 70
     0
  3
____ _ ____ _ ____ _ ____ _ ____ _ ____ _ ____ 
 72
    65
 73
     4
 40
2.0
 49
1.25
 74
     0
 49
-0.25
 74
     0
 49
0.25
 74
     0
 49
-0.25
 74
     0
  0
LTYPE
  5
781A
330
746A
100
AcDbSymbolTableRecord
100
AcDbLinetypeTableRecord
  2
HIDDEN
 70
     0
  3
__ __ __ __ __ __ __ __ __ __ __ __ __ __ __ __
 72
    65
 73
     2
 40
0.375
 49
0.25
 74
     0
 49
-0.125
 74
     0
  0
LTYPE
  5
781B
330
746A
100
AcDbSymbolTableRecord
100
AcDbLinetypeTableRecord
  2
PHANTOM
 70
     0
  3
______  __  __  ______  __  __  ______  __  __ 
 72
    65
 73
     6
 40
2.5
 49
1.25
 74
     0
 49
-0.25
 74
     0
 49
0.25
 74
     0
 49
-0.25
 74
     0
 49
0.25
 74
     0
 49
-0.25
 74
     0
  0
ENDTAB
  0
TABLE
  2
LAYER
  5
7467
102
{ACAD_XDICTIONARY
360
1ED5D
102
}
330
0
100
AcDbSymbolTable
 70
    13
  0
LAYER
  5
7474
330
7467
100
AcDbSymbolTableRecord
100
AcDbLayerTableRecord
  2
0
 70
     0
 62
     7
  6
CONTINUOUS
370
    -3
390
159AE
  0
LAYER
  5
DEB2
330
7467
100
AcDbSymbolTableRecord
100
AcDbLayerTableRecord
  2
センター
 70
     0
 62
     3
  6
CENTER
370
    -3
390
159AE
  0
LAYER
  5
DEB3
330
7467
100
AcDbSymbolTableRecord
100
AcDbLayerTableRecord
  2
寸法
 70
     0
 62
     4
  6
CONTINUOUS
370
    -3
390
159AE
  0
LAYER
  5
DEB4
330
7467
100
AcDbSymbolTableRecord
100
AcDbLayerTableRecord
  2
部品1
 70
     0
 62
     7
  6
CONTINUOUS
370
    -3
390
159AE
  0
LAYER
  5
DEB5
330
7467
100
AcDbSymbolTableRecord
100
AcDbLayerTableRecord
  2
補助
 70
     0
 62
    -1
  6
CONTINUOUS
370
    -3
390
159AE
  0
LAYER
  5
DEB6
330
7467
100
AcDbSymbolTableRecord
100
AcDbLayerTableRecord
  2
文字
 70
     0
 62
     7
  6
CONTINUOUS
370
    -3
390
159AE
  0
LAYER
  5
F255
330
7467
100
AcDbSymbolTableRecord
100
AcDbLayerTableRecord
  2
DEFPOINTS
 70
     0
 62
     7
  6
CONTINUOUS
290
     0
370
    -3
390
159AE
  0
LAYER
  5
10B54
330
7467
100
AcDbSymbolTableRecord
100
AcDbLayerTableRecord
  2
仕様書枠
 70
     0
 62
   230
  6
CONTINUOUS
370
    -3
390
159AE
  0
LAYER
  5
11729
330
7467
100
AcDbSymbolTableRecord
100
AcDbLayerTableRecord
  2
Ｇ．Ｌ
 70
     0
 62
    30
  6
CONTINUOUS
370
    -3
390
159AE
  0
LAYER
  5
1173F
330
7467
100
AcDbSymbolTableRecord
100
AcDbLayerTableRecord
  2
細線
 70
     0
 62
     5
  6
CONTINUOUS
370
    -3
390
159AE
  0
LAYER
  5
12CC4
330
7467
100
AcDbSymbolTableRecord
100
AcDbLayerTableRecord
  2
想像線
 70
     0
 62
     6
  6
PHANTOM
370
    -3
390
159AE
  0
LAYER
  5
142E2
330
7467
100
AcDbSymbolTableRecord
100
AcDbLayerTableRecord
  2
破線
 70
     0
 62
     2
  6
HIDDEN
370
    -3
390
159AE
  0
LAYER
  5
1C644
330
7467
100
AcDbSymbolTableRecord
100
AcDbLayerTableRecord
  2
点線
 70
     0
 62
     2
  6
HIDDEN
370
    -3
390
159AE
  0
ENDTAB
  0
TABLE
  2
STYLE
  5
7468
330
0
100
AcDbSymbolTable
 70
     3
  0
STYLE
  5
7475
330
7468
100
AcDbSymbolTableRecord
100
AcDbTextStyleTableRecord
  2
STANDARD
 70
     0
 40
0.0
 41
1.0
 50
0.0
 71
     0
 42
4.0
  3
txt
  4
C:\AutoCAD LT\bigfont.shx
  0
STYLE
  5
F706
330
7468
100
AcDbSymbolTableRecord
100
AcDbTextStyleTableRecord
  2
STYLE1
 70
     0
 40
0.0
 41
1.0
 50
0.0
 71
     0
 42
100.0
  3
isocp.shx
  4
bigfont.shx
  0
STYLE
  5
103BF
330
7468
100
AcDbSymbolTableRecord
100
AcDbTextStyleTableRecord
  2
STYLE2
 70
     0
 40
0.0
 41
1.0
 50
0.0
 71
     0
 42
100.0
  3
MS PGothic.ttf
  4

1001
ACAD
1000
MS PGothic
1071
    32818
  0
ENDTAB
  0
TABLE
  2
VIEW
  5
746B
330
0
100
AcDbSymbolTable
 70
     0
  0
ENDTAB
  0
TABLE
  2
UCS
  5
746C
330
0
100
AcDbSymbolTable
 70
     0
  0
ENDTAB
  0
TABLE
  2
APPID
  5
746E
330
0
100
AcDbSymbolTable
 70
     6
  0
APPID
  5
7476
330
746E
100
AcDbSymbolTableRecord
100
AcDbRegAppTableRecord
  2
ACAD
 70
     0
  0
APPID
  5
DEA9
330
746E
100
AcDbSymbolTableRecord
100
AcDbRegAppTableRecord
  2
CONTENTBLOCKICON
 70
     0
  0
APPID
  5
DEAA
330
746E
100
AcDbSymbolTableRecord
100
AcDbRegAppTableRecord
  2
CONTENTBLOCKDESCRIPTION
 70
     0
  0
APPID
  5
E71D
330
746E
100
AcDbSymbolTableRecord
100
AcDbRegAppTableRecord
  2
CONTENTTABDATA
 70
     0
  0
APPID
  5
E71E
330
746E
100
AcDbSymbolTableRecord
100
AcDbRegAppTableRecord
  2
CONTENTCURRENTTAB
 70
     0
  0
APPID
  5
F3BA
330
746E
100
AcDbSymbolTableRecord
100
AcDbRegAppTableRecord
  2
DRAWINGVARIABLESXDATA
 70
     0
  0
ENDTAB
  0
TABLE
  2
DIMSTYLE
  5
746F
330
0
100
AcDbSymbolTable
 70
     2
100
AcDbDimStyleTable
 71
     1
340
F71F
  0
DIMSTYLE
105
F71F
102
{ACAD_REACTORS
330
1CAB8
330
1CAB7
330
1CAB6
330
1E8FD
330
1E8FC
330
1E8FB
330
1E8FA
330
1E8F9
330
1E8F8
330
1E9AA
330
1F6EE
330
1F6ED
330
202B4
330
204BF
330
2051C
330
20584
330
205E6
102
}
330
746F
100
AcDbSymbolTableRecord
100
AcDbDimStyleTableRecord
  2
INABA_S40G
 70
     0
 40
40.0
 41
2.5
 42
0.5
 43
7.0
 44
1.5
 73
     0
 74
     0
 77
     3
 78
     8
140
3.0
141
0.0
143
0.0394
147
1.0
172
     1
173
     1
174
     1
178
     7
271
     1
288
     1
340
F706
341
F770
343
F770
344
F770
  0
DIMSTYLE
105
1C645
330
746F
100
AcDbSymbolTableRecord
100
AcDbDimStyleTableRecord
  2
INABA_S50G
 70
     0
 40
0.0
 41
125.0
 42
25.0
 43
7.0
 44
75.0
 73
     0
 74
     0
 77
     3
 78
     8
140
150.0
141
0.0
143
0.0394
147
25.0
172
     1
173
     1
174
     1
178
     7
271
     1
340
F706
341
F770
343
F770
344
F770
  0
ENDTAB
  0
TABLE
  2
BLOCK_RECORD
  5
7466
330
0
100
AcDbSymbolTable
 70
    50
  0
BLOCK_RECORD
  5
747D
330
7466
100
AcDbSymbolTableRecord
100
AcDbBlockTableRecord
  2
*MODEL_SPACE
340
159B3
  0
BLOCK_RECORD
  5
747A
330
7466
100
AcDbSymbolTableRecord
100
AcDbBlockTableRecord
  2
*PAPER_SPACE
340
159B4
  0
BLOCK_RECORD
  5
F770
330
7466
100
AcDbSymbolTableRecord
100
AcDbBlockTableRecord
  2
_DOTSMALL
340
0
102
{BLKREFS
331
1E214
331
1E215
331
1E1AD
331
1E1AE
331
1E1D1
331
1E1D2
331
1E1C6
331
1E1C7
331
1E187
331
1E188
331
1E1BA
331
1E1BB
331
1E1DF
331
1E1E0
331
1E1A1
331
1E1A2
331
1E194
331
1E195
331
1E220
331
1E221
331
1E24F
331
1E250
331
1E1FA
331
1E1FB
331
1E1ED
331
1E1EE
331
1E207
331
1E208
331
1E22B
331
1E22C
331
1E242
331
1E243
331
1E17A
331
1E17B
331
1E16D
331
1E16E
331
1E160
331
1E161
331
1E155
331
1E156
331
1E236
331
1E237
331
1E65F
331
1E660
331
1FE29
331
1FE2A
331
1FE32
331
1FE33
331
1FE3B
331
1FE3C
331
1FE44
331
1FE45
331
1FE4F
331
1FE50
331
1FE5A
331
1FE5B
331
1FE63
331
1FE64
331
1FE6C
331
1FE6D
331
1FE75
331
1FE76
331
1FE92
331
1FE93
331
1FE9B
331
1FE9C
331
20269
331
2026A
331
20272
331
20273
331
2027B
331
2027C
331
20284
331
20285
331
202EF
331
202F0
331
20340
331
20341
331
20334
331
20335
331
20328
331
20329
331
2034C
331
2034D
331
20646
331
20647
331
2064F
331
20650
331
20658
331
20659
331
20661
331
20662
102
}
  0
BLOCK_RECORD
  5
1C530
330
7466
100
AcDbSymbolTableRecord
100
AcDbBlockTableRecord
  2
_NONE
340
0
  0
BLOCK_RECORD
  5
1CDBF
330
7466
100
AcDbSymbolTableRecord
100
AcDbBlockTableRecord
  2
*D2
340
0
  0
BLOCK_RECORD
  5
1CDCD
330
7466
100
AcDbSymbolTableRecord
100
AcDbBlockTableRecord
  2
*D3
340
0
  0
BLOCK_RECORD
  5
1CDD8
330
7466
100
AcDbSymbolTableRecord
100
AcDbBlockTableRecord
  2
*D4
340
0
  0
BLOCK_RECORD
  5
1E151
330
7466
100
AcDbSymbolTableRecord
100
AcDbBlockTableRecord
  2
*D5
340
0
  0
BLOCK_RECORD
  5
1E15C
330
7466
100
AcDbSymbolTableRecord
100
AcDbBlockTableRecord
  2
*D6
340
0
  0
BLOCK_RECORD
  5
1E167
330
7466
100
AcDbSymbolTableRecord
100
AcDbBlockTableRecord
  2
*D7
340
0
  0
BLOCK_RECORD
  5
1E174
330
7466
100
AcDbSymbolTableRecord
100
AcDbBlockTableRecord
  2
*D8
340
0
  0
BLOCK_RECORD
  5
1E181
330
7466
100
AcDbSymbolTableRecord
100
AcDbBlockTableRecord
  2
*D9
340
0
  0
BLOCK_RECORD
  5
1E18E
330
7466
100
AcDbSymbolTableRecord
100
AcDbBlockTableRecord
  2
*D10
340
0
  0
BLOCK_RECORD
  5
1E19B
330
7466
100
AcDbSymbolTableRecord
100
AcDbBlockTableRecord
  2
*D11
340
0
  0
BLOCK_RECORD
  5
1E1A8
330
7466
100
AcDbSymbolTableRecord
100
AcDbBlockTableRecord
  2
*D12
340
0
  0
BLOCK_RECORD
  5
1E1B4
330
7466
100
AcDbSymbolTableRecord
100
AcDbBlockTableRecord
  2
*D13
340
0
  0
BLOCK_RECORD
  5
1E1C1
330
7466
100
AcDbSymbolTableRecord
100
AcDbBlockTableRecord
  2
*D14
340
0
  0
BLOCK_RECORD
  5
1E1CD
330
7466
100
AcDbSymbolTableRecord
100
AcDbBlockTableRecord
  2
*D15
340
0
  0
BLOCK_RECORD
  5
1E1D8
330
7466
100
AcDbSymbolTableRecord
100
AcDbBlockTableRecord
  2
*D16
340
0
  0
BLOCK_RECORD
  5
1E1E6
330
7466
100
AcDbSymbolTableRecord
100
AcDbBlockTableRecord
  2
*D17
340
0
  0
BLOCK_RECORD
  5
1E1F4
330
7466
100
AcDbSymbolTableRecord
100
AcDbBlockTableRecord
  2
*D18
340
0
  0
BLOCK_RECORD
  5
1E201
330
7466
100
AcDbSymbolTableRecord
100
AcDbBlockTableRecord
  2
*D19
340
0
  0
BLOCK_RECORD
  5
1E20E
330
7466
100
AcDbSymbolTableRecord
100
AcDbBlockTableRecord
  2
*D20
340
0
  0
BLOCK_RECORD
  5
1E21B
330
7466
100
AcDbSymbolTableRecord
100
AcDbBlockTableRecord
  2
*D21
340
0
  0
BLOCK_RECORD
  5
1E227
330
7466
100
AcDbSymbolTableRecord
100
AcDbBlockTableRecord
  2
*D22
340
0
  0
BLOCK_RECORD
  5
1E232
330
7466
100
AcDbSymbolTableRecord
100
AcDbBlockTableRecord
  2
*D23
340
0
  0
BLOCK_RECORD
  5
1E23D
330
7466
100
AcDbSymbolTableRecord
100
AcDbBlockTableRecord
  2
*D24
340
0
  0
BLOCK_RECORD
  5
1E249
330
7466
100
AcDbSymbolTableRecord
100
AcDbBlockTableRecord
  2
*D25
340
0
  0
BLOCK_RECORD
  5
1E256
330
7466
100
AcDbSymbolTableRecord
100
AcDbBlockTableRecord
  2
A$C56A41A26
340
0
  0
BLOCK_RECORD
  5
1E8FE
330
7466
100
AcDbSymbolTableRecord
100
AcDbBlockTableRecord
  2
*D27
340
0
  0
BLOCK_RECORD
  5
1E90A
330
7466
100
AcDbSymbolTableRecord
100
AcDbBlockTableRecord
  2
*D28
340
0
  0
BLOCK_RECORD
  5
1E916
330
7466
100
AcDbSymbolTableRecord
100
AcDbBlockTableRecord
  2
*D29
340
0
  0
BLOCK_RECORD
  5
1E922
330
7466
100
AcDbSymbolTableRecord
100
AcDbBlockTableRecord
  2
*D30
340
0
  0
BLOCK_RECORD
  5
1E930
330
7466
100
AcDbSymbolTableRecord
100
AcDbBlockTableRecord
  2
*D31
340
0
  0
BLOCK_RECORD
  5
1E93E
330
7466
100
AcDbSymbolTableRecord
100
AcDbBlockTableRecord
  2
*D32
340
0
  0
BLOCK_RECORD
  5
1E9AB
330
7466
100
AcDbSymbolTableRecord
100
AcDbBlockTableRecord
  2
*D33
340
0
  0
BLOCK_RECORD
  5
1F6EF
330
7466
100
AcDbSymbolTableRecord
100
AcDbBlockTableRecord
  2
*D34
340
0
  0
BLOCK_RECORD
  5
1F6FB
330
7466
100
AcDbSymbolTableRecord
100
AcDbBlockTableRecord
  2
*D35
340
0
  0
BLOCK_RECORD
  5
20211
330
7466
100
AcDbSymbolTableRecord
100
AcDbBlockTableRecord
  2
*D36
340
0
  0
BLOCK_RECORD
  5
2021D
330
7466
100
AcDbSymbolTableRecord
100
AcDbBlockTableRecord
  2
*D37
340
0
  0
BLOCK_RECORD
  5
20229
330
7466
100
AcDbSymbolTableRecord
100
AcDbBlockTableRecord
  2
*D38
340
0
  0
BLOCK_RECORD
  5
20235
330
7466
100
AcDbSymbolTableRecord
100
AcDbBlockTableRecord
  2
*D39
340
0
  0
BLOCK_RECORD
  5
202BA
330
7466
100
AcDbSymbolTableRecord
100
AcDbBlockTableRecord
  2
*D40
340
0
  0
BLOCK_RECORD
  5
20323
330
7466
100
AcDbSymbolTableRecord
100
AcDbBlockTableRecord
  2
*D41
340
0
  0
BLOCK_RECORD
  5
2032F
330
7466
100
AcDbSymbolTableRecord
100
AcDbBlockTableRecord
  2
*D42
340
0
  0
BLOCK_RECORD
  5
2033B
330
7466
100
AcDbSymbolTableRecord
100
AcDbBlockTableRecord
  2
*D43
340
0
  0
BLOCK_RECORD
  5
20347
330
7466
100
AcDbSymbolTableRecord
100
AcDbBlockTableRecord
  2
*D44
340
0
  0
BLOCK_RECORD
  5
20613
330
7466
100
AcDbSymbolTableRecord
100
AcDbBlockTableRecord
  2
*D46
340
0
  0
BLOCK_RECORD
  5
2061F
330
7466
100
AcDbSymbolTableRecord
100
AcDbBlockTableRecord
  2
*D47
340
0
  0
BLOCK_RECORD
  5
2062B
330
7466
100
AcDbSymbolTableRecord
100
AcDbBlockTableRecord
  2
*D48
340
0
  0
BLOCK_RECORD
  5
20637
330
7466
100
AcDbSymbolTableRecord
100
AcDbBlockTableRecord
  2
*D49
340
0
  0
ENDTAB
  0
ENDSEC
  0
SECTION
  2
BLOCKS
  0
BLOCK
  5
7489
330
747D
100
AcDbEntity
  8
0
100
AcDbBlockBegin
  2
*MODEL_SPACE
 70
     0
 10
0.0
 20
0.0
 30
0.0
  3
*MODEL_SPACE
  1

  0
ENDBLK
  5
748A
330
747D
100
AcDbEntity
  8
0
100
AcDbBlockEnd
  0
BLOCK
  5
7487
330
747A
100
AcDbEntity
 67
     1
  8
0
100
AcDbBlockBegin
  2
*PAPER_SPACE
 70
     0
 10
0.0
 20
0.0
 30
0.0
  3
*PAPER_SPACE
  1

  0
ENDBLK
  5
7488
330
747A
100
AcDbEntity
 67
     1
  8
0
100
AcDbBlockEnd
  0
BLOCK
  5
F771
330
F770
100
AcDbEntity
  8
0
 48
50.0
100
AcDbBlockBegin
  2
_DOTSMALL
 70
     0
 10
0.0
 20
0.0
 30
0.0
  3
_DOTSMALL
  1

  0
LWPOLYLINE
  5
F772
330
F770
100
AcDbEntity
  8
0
  6
ByBlock
 62
     0
 48
50.0
100
AcDbPolyline
 90
        2
 70
     1
 43
0.5
 10
-0.0625
 20
0.0
 42
1.0
 10
0.0625
 20
0.0
 42
1.0
  0
ENDBLK
  5
F776
330
F770
100
AcDbEntity
  8
0
 48
50.0
100
AcDbBlockEnd
  0
BLOCK
  5
1C531
330
1C530
100
AcDbEntity
  8
0
 48
50.0
100
AcDbBlockBegin
  2
_NONE
 70
     0
 10
0.0
 20
0.0
 30
0.0
  3
_NONE
  1

  0
CIRCLE
  5
1C532
330
1C530
100
AcDbEntity
  8
0
  6
ByBlock
 62
     0
 48
50.0
100
AcDbCircle
 10
0.0
 20
0.0
 30
0.0
 40
0.25
  0
ENDBLK
  5
1C533
330
1C530
100
AcDbEntity
  8
0
 48
50.0
100
AcDbBlockEnd
  0
BLOCK
  5
1CDCB
330
1CDBF
100
AcDbEntity
  8
0
 48
50.0
100
AcDbBlockBegin
  2
*D2
 70
     1
 10
0.0
 20
0.0
 30
0.0
  3
*D2
  1

  0
LINE
  5
1E65A
330
1CDBF
100
AcDbEntity
  8
寸法
 62
     0
 48
50.0
370
    -2
100
AcDbLine
 10
6887.599999999999
 20
5500.0
 30
0.0
 11
6406.888116550749
 21
5500.0
 31
0.0
  0
LINE
  5
1E65B
330
1CDBF
100
AcDbEntity
  8
寸法
 62
     0
 48
50.0
370
    -2
100
AcDbLine
 10
6837.599999999999
 20
5440.0
 30
0.0
 11
6406.888116550749
 21
5440.0
 31
0.0
  0
LINE
  5
1E65C
330
1CDBF
100
AcDbEntity
  8
寸法
 62
     0
 48
50.0
370
    -2
100
AcDbLine
 10
6466.888116550748
 20
5500.0
 30
0.0
 11
6466.888116550748
 21
5600.0
 31
0.0
  0
LINE
  5
1E65D
330
1CDBF
100
AcDbEntity
  8
寸法
 62
     0
 48
50.0
370
    -2
100
AcDbLine
 10
6466.888116550748
 20
5440.0
 30
0.0
 11
6466.888116550748
 21
5340.0
 31
0.0
  0
LINE
  5
1E65E
330
1CDBF
100
AcDbEntity
  8
寸法
 62
     0
 48
50.0
370
    -2
100
AcDbLine
 10
6466.888116550748
 20
5500.0
 30
0.0
 11
6466.888116550748
 21
5440.0
 31
0.0
  0
INSERT
  5
1E65F
330
1CDBF
100
AcDbEntity
  8
寸法
 62
     0
 48
50.0
370
    -2
100
AcDbBlockReference
  2
_DOTSMALL
 10
6466.888116550748
 20
5500.0
 30
0.0
 41
100.0
 42
100.0
 43
100.0
 50
270.0
  0
INSERT
  5
1E660
330
1CDBF
100
AcDbEntity
  8
寸法
 62
     0
 48
50.0
370
    -2
100
AcDbBlockReference
  2
_DOTSMALL
 10
6466.888116550748
 20
5440.0
 30
0.0
 41
100.0
 42
100.0
 43
100.0
 50
90.0
  0
MTEXT
  5
1E661
330
1CDBF
100
AcDbEntity
  8
寸法
 62
     7
 48
50.0
100
AcDbMText
 10
6366.888116550748
 20
5470.000000000002
 30
0.0
 40
120.0
 41
0.0
 71
     5
 72
     1
  1
\A1;b
  7
STYLE1
 11
0.0000000000000001
 21
1.0
 31
0.0
 73
     1
 44
1.0
1001
ACAD
1000
MTEXTBEGIN
1070
    73
1070
     1
1070
    44
1040
1.0
1070
    74
1070
     0
1000
MTEXTEND
  0
POINT
  5
1E662
330
1CDBF
100
AcDbEntity
  8
DEFPOINTS
 62
     0
 48
50.0
100
AcDbPoint
 10
6907.599999999999
 20
5500.0
 30
0.0
  0
POINT
  5
1E663
330
1CDBF
100
AcDbEntity
  8
DEFPOINTS
 62
     0
 48
50.0
100
AcDbPoint
 10
6857.599999999999
 20
5440.0
 30
0.0
  0
POINT
  5
1E664
330
1CDBF
100
AcDbEntity
  8
DEFPOINTS
 62
     0
 48
50.0
100
AcDbPoint
 10
6466.888116550748
 20
5440.0
 30
0.0
  0
ENDBLK
  5
1CDCC
330
1CDBF
100
AcDbEntity
  8
0
 48
50.0
100
AcDbBlockEnd
  0
BLOCK
  5
1CDD6
330
1CDCD
100
AcDbEntity
  8
0
 48
50.0
100
AcDbBlockBegin
  2
*D3
 70
     1
 10
0.0
 20
0.0
 30
0.0
  3
*D3
  1

  0
LINE
  5
1FE72
330
1CDCD
100
AcDbEntity
  8
寸法
 62
     0
 48
50.0
370
    -2
100
AcDbLine
 10
6887.599999999999
 20
7712.0
 30
0.0
 11
6406.88811655075
 21
7712.0
 31
0.0
  0
LINE
  5
1FE73
330
1CDCD
100
AcDbEntity
  8
寸法
 62
     0
 48
50.0
370
    -2
100
AcDbLine
 10
6887.599999999999
 20
5500.0
 30
0.0
 11
6406.888116550749
 21
5500.0
 31
0.0
  0
LINE
  5
1FE74
330
1CDCD
100
AcDbEntity
  8
寸法
 62
     0
 48
50.0
370
    -2
100
AcDbLine
 10
6466.88811655075
 20
7712.0
 30
0.0
 11
6466.888116550748
 21
5500.0
 31
0.0
  0
INSERT
  5
1FE75
330
1CDCD
100
AcDbEntity
  8
寸法
 62
     0
 48
50.0
370
    -2
100
AcDbBlockReference
  2
_DOTSMALL
 10
6466.88811655075
 20
7712.0
 30
0.0
 41
100.0
 42
100.0
 43
100.0
 50
90.0
  0
INSERT
  5
1FE76
330
1CDCD
100
AcDbEntity
  8
寸法
 62
     0
 48
50.0
370
    -2
100
AcDbBlockReference
  2
_DOTSMALL
 10
6466.888116550748
 20
5500.0
 30
0.0
 41
100.0
 42
100.0
 43
100.0
 50
270.0
  0
MTEXT
  5
1FE77
330
1CDCD
100
AcDbEntity
  8
寸法
 62
     7
 48
50.0
100
AcDbMText
 10
6366.876305527126
 20
6606.000000000001
 30
0.0
 40
120.0
 41
0.0
 71
     5
 72
     1
  1
\A1;2212
  7
STYLE1
 11
0.0000000000000001
 21
1.0
 31
0.0
 73
     1
 44
1.0
1001
ACAD
1000
MTEXTBEGIN
1070
    73
1070
     1
1070
    44
1040
1.0
1070
    74
1070
     0
1000
MTEXTEND
  0
POINT
  5
1FE78
330
1CDCD
100
AcDbEntity
  8
DEFPOINTS
 62
     0
 48
50.0
100
AcDbPoint
 10
6907.599999999999
 20
7712.0
 30
0.0
  0
POINT
  5
1FE79
330
1CDCD
100
AcDbEntity
  8
DEFPOINTS
 62
     0
 48
50.0
100
AcDbPoint
 10
6907.599999999999
 20
5500.0
 30
0.0
  0
POINT
  5
1FE7A
330
1CDCD
100
AcDbEntity
  8
DEFPOINTS
 62
     0
 48
50.0
100
AcDbPoint
 10
6466.888116550748
 20
5500.0
 30
0.0
  0
ENDBLK
  5
1CDD7
330
1CDCD
100
AcDbEntity
  8
0
 48
50.0
100
AcDbBlockEnd
  0
BLOCK
  5
1CDE4
330
1CDD8
100
AcDbEntity
  8
0
 48
50.0
100
AcDbBlockBegin
  2
*D4
 70
     1
 10
0.0
 20
0.0
 30
0.0
  3
*D4
  1

  0
LINE
  5
1FE69
330
1CDD8
100
AcDbEntity
  8
寸法
 62
     0
 48
50.0
370
    -2
100
AcDbLine
 10
6837.599999999999
 20
7792.0
 30
0.0
 11
6406.888116550748
 21
7792.0
 31
0.0
  0
LINE
  5
1FE6A
330
1CDD8
100
AcDbEntity
  8
寸法
 62
     0
 48
50.0
370
    -2
100
AcDbLine
 10
6887.599999999999
 20
7712.0
 30
0.0
 11
6406.888116550748
 21
7712.0
 31
0.0
  0
LINE
  5
1FE6B
330
1CDD8
100
AcDbEntity
  8
寸法
 62
     0
 48
50.0
370
    -2
100
AcDbLine
 10
6466.888116550748
 20
7792.0
 30
0.0
 11
6466.888116550748
 21
7712.0
 31
0.0
  0
INSERT
  5
1FE6C
330
1CDD8
100
AcDbEntity
  8
寸法
 62
     0
 48
50.0
370
    -2
100
AcDbBlockReference
  2
_DOTSMALL
 10
6466.888116550748
 20
7792.0
 30
0.0
 41
100.0
 42
100.0
 43
100.0
 50
90.0
  0
INSERT
  5
1FE6D
330
1CDD8
100
AcDbEntity
  8
寸法
 62
     0
 48
50.0
370
    -2
100
AcDbBlockReference
  2
_DOTSMALL
 10
6466.888116550748
 20
7712.0
 30
0.0
 41
100.0
 42
100.0
 43
100.0
 50
270.0
  0
MTEXT
  5
1FE6E
330
1CDD8
100
AcDbEntity
  8
寸法
 62
     7
 48
50.0
100
AcDbMText
 10
6366.888116550747
 20
7752.000000000002
 30
0.0
 40
120.0
 41
0.0
 71
     5
 72
     1
  1
\A1;c
  7
STYLE1
 11
0.0000000000000001
 21
1.0
 31
0.0
 73
     1
 44
1.0
1001
ACAD
1000
MTEXTBEGIN
1070
    73
1070
     1
1070
    44
1040
1.0
1070
    74
1070
     0
1000
MTEXTEND
  0
POINT
  5
1FE6F
330
1CDD8
100
AcDbEntity
  8
DEFPOINTS
 62
     0
 48
50.0
100
AcDbPoint
 10
6857.599999999999
 20
7792.0
 30
0.0
  0
POINT
  5
1FE70
330
1CDD8
100
AcDbEntity
  8
DEFPOINTS
 62
     0
 48
50.0
100
AcDbPoint
 10
6907.599999999999
 20
7712.0
 30
0.0
  0
POINT
  5
1FE71
330
1CDD8
100
AcDbEntity
  8
DEFPOINTS
 62
     0
 48
50.0
100
AcDbPoint
 10
6466.888116550748
 20
7712.0
 30
0.0
  0
ENDBLK
  5
1CDE5
330
1CDD8
100
AcDbEntity
  8
0
 48
50.0
100
AcDbBlockEnd
  0
BLOCK
  5
1E152
330
1E151
100
AcDbEntity
  8
0
 48
50.0
100
AcDbBlockBegin
  2
*D5
 70
     1
 10
0.0
 20
0.0
 30
0.0
  3
*D5
  1

  0
LINE
  5
1E153
330
1E151
100
AcDbEntity
  8
0
  6
ByBlock
 62
     0
 48
50.0
100
AcDbLine
 10
5296.0
 20
8029.0
 30
0.0
 11
5296.0
 21
9017.667619817153
 31
0.0
  0
LINE
  5
1E154
330
1E151
100
AcDbEntity
  8
0
  6
ByBlock
 62
     0
 48
50.0
100
AcDbLine
 10
3496.0
 20
8942.667619817154
 30
0.0
 11
5296.0
 21
8942.667619817154
 31
0.0
  0
INSERT
  5
1E155
330
1E151
100
AcDbEntity
  8
0
  6
ByBlock
 62
     0
 48
50.0
100
AcDbBlockReference
  2
_DOTSMALL
 10
3496.0
 20
8942.667619817154
 30
0.0
 41
125.0
 42
125.0
 43
125.0
 50
180.0
  0
INSERT
  5
1E156
330
1E151
100
AcDbEntity
  8
0
  6
ByBlock
 62
     0
 48
50.0
100
AcDbBlockReference
  2
_DOTSMALL
 10
5296.0
 20
8942.667619817154
 30
0.0
 41
125.0
 42
125.0
 43
125.0
  0
MTEXT
  5
1E157
330
1E151
100
AcDbEntity
  8
0
  6
ByBlock
 62
     7
 48
50.0
100
AcDbMText
 10
4396.0
 20
9042.667619817153
 30
0.0
 40
150.0
 41
0.0
 71
     5
 72
     1
  1
\A1;1800
  7
STYLE1
 73
     1
 44
1.0
1001
ACAD
1000
MTEXTBEGIN
1070
    73
1070
     1
1070
    44
1040
1.0
1070
    74
1070
     0
1000
MTEXTEND
  0
POINT
  5
1E158
330
1E151
100
AcDbEntity
  8
DEFPOINTS
  6
ByBlock
 62
     0
 48
50.0
100
AcDbPoint
 10
3496.0
 20
8004.0
 30
0.0
  0
POINT
  5
1E159
330
1E151
100
AcDbEntity
  8
DEFPOINTS
  6
ByBlock
 62
     0
 48
50.0
100
AcDbPoint
 10
5296.0
 20
8004.0
 30
0.0
  0
POINT
  5
1E15A
330
1E151
100
AcDbEntity
  8
DEFPOINTS
  6
ByBlock
 62
     0
 48
50.0
100
AcDbPoint
 10
5296.0
 20
8942.667619817154
 30
0.0
  0
ENDBLK
  5
1E15B
330
1E151
100
AcDbEntity
  8
0
 48
50.0
100
AcDbBlockEnd
  0
BLOCK
  5
1E15D
330
1E15C
100
AcDbEntity
  8
0
 48
50.0
100
AcDbBlockBegin
  2
*D6
 70
     1
 10
0.0
 20
0.0
 30
0.0
  3
*D6
  1

  0
LINE
  5
1E15E
330
1E15C
100
AcDbEntity
  8
0
  6
ByBlock
 62
     0
 48
50.0
100
AcDbLine
 10
3619.0
 20
7956.0
 30
0.0
 11
3619.0
 21
8805.206924300318
 31
0.0
  0
LINE
  5
1E15F
330
1E15C
100
AcDbEntity
  8
0
  6
ByBlock
 62
     0
 48
50.0
100
AcDbLine
 10
5173.0
 20
8730.206924300317
 30
0.0
 11
3619.0
 21
8730.206924300317
 31
0.0
  0
INSERT
  5
1E160
330
1E15C
100
AcDbEntity
  8
0
  6
ByBlock
 62
     0
 48
50.0
100
AcDbBlockReference
  2
_DOTSMALL
 10
5173.0
 20
8730.206924300317
 30
0.0
 41
125.0
 42
125.0
 43
125.0
  0
INSERT
  5
1E161
330
1E15C
100
AcDbEntity
  8
0
  6
ByBlock
 62
     0
 48
50.0
100
AcDbBlockReference
  2
_DOTSMALL
 10
3619.0
 20
8730.206924300317
 30
0.0
 41
125.0
 42
125.0
 43
125.0
 50
180.0
  0
MTEXT
  5
1E162
330
1E15C
100
AcDbEntity
  8
0
  6
ByBlock
 62
     7
 48
50.0
100
AcDbMText
 10
4396.0
 20
8830.206924300318
 30
0.0
 40
150.0
 41
0.0
 71
     5
 72
     1
  1
\A1;1554
  7
STYLE1
 73
     1
 44
1.0
1001
ACAD
1000
MTEXTBEGIN
1070
    73
1070
     1
1070
    44
1040
1.0
1070
    74
1070
     0
1000
MTEXTEND
  0
POINT
  5
1E163
330
1E15C
100
AcDbEntity
  8
DEFPOINTS
  6
ByBlock
 62
     0
 48
50.0
100
AcDbPoint
 10
5173.0
 20
7931.0
 30
0.0
  0
POINT
  5
1E164
330
1E15C
100
AcDbEntity
  8
DEFPOINTS
  6
ByBlock
 62
     0
 48
50.0
100
AcDbPoint
 10
3619.0
 20
7931.0
 30
0.0
  0
POINT
  5
1E165
330
1E15C
100
AcDbEntity
  8
DEFPOINTS
  6
ByBlock
 62
     0
 48
50.0
100
AcDbPoint
 10
3619.0
 20
8730.206924300317
 30
0.0
  0
ENDBLK
  5
1E166
330
1E15C
100
AcDbEntity
  8
0
 48
50.0
100
AcDbBlockEnd
  0
BLOCK
  5
1E168
330
1E167
100
AcDbEntity
  8
0
 48
50.0
100
AcDbBlockBegin
  2
*D7
 70
     1
 10
0.0
 20
0.0
 30
0.0
  3
*D7
  1

  0
LINE
  5
1E169
330
1E167
100
AcDbEntity
  8
0
  6
ByBlock
 62
     0
 48
50.0
100
AcDbLine
 10
3751.000000000001
 20
2304.000000000004
 30
0.0
 11
4106.75372407693
 21
2304.000000000004
 31
0.0
  0
LINE
  5
1E16A
330
1E167
100
AcDbEntity
  8
0
  6
ByBlock
 62
     0
 48
50.0
100
AcDbLine
 10
3821.000000000001
 20
2504.000000000007
 30
0.0
 11
4106.75372407693
 21
2504.000000000007
 31
0.0
  0
LINE
  5
1E16B
330
1E167
100
AcDbEntity
  8
0
  6
ByBlock
 62
     0
 48
50.0
100
AcDbLine
 10
4031.753724076931
 20
2304.000000000004
 30
0.0
 11
4031.753724076931
 21
2504.000000000007
 31
0.0
  0
LINE
  5
1E16C
330
1E167
100
AcDbEntity
  8
0
  6
ByBlock
 62
     0
 48
50.0
100
AcDbLine
 10
4031.753724076931
 20
2504.000000000007
 30
0.0
 11
4031.753724076931
 21
2952.927165354338
 31
0.0
  0
INSERT
  5
1E16D
330
1E167
100
AcDbEntity
  8
0
  6
ByBlock
 62
     0
 48
50.0
100
AcDbBlockReference
  2
_DOTSMALL
 10
4031.753724076931
 20
2304.000000000004
 30
0.0
 41
125.0
 42
125.0
 43
125.0
 50
270.0
  0
INSERT
  5
1E16E
330
1E167
100
AcDbEntity
  8
0
  6
ByBlock
 62
     0
 48
50.0
100
AcDbBlockReference
  2
_DOTSMALL
 10
4031.753724076931
 20
2504.000000000007
 30
0.0
 41
125.0
 42
125.0
 43
125.0
 50
90.0
  0
MTEXT
  5
1E16F
330
1E167
100
AcDbEntity
  8
0
  6
ByBlock
 62
     7
 48
50.0
100
AcDbMText
 10
3931.738960297403
 20
2790.963582677173
 30
0.0
 40
150.0
 41
0.0
 71
     5
 72
     1
  1
\A1;200
  7
STYLE1
 11
0.0000000000000001
 21
1.0
 31
0.0
 73
     1
 44
1.0
1001
ACAD
1000
MTEXTBEGIN
1070
    73
1070
     1
1070
    44
1040
1.0
1070
    74
1070
     0
1000
MTEXTEND
  0
POINT
  5
1E170
330
1E167
100
AcDbEntity
  8
DEFPOINTS
  6
ByBlock
 62
     0
 48
50.0
100
AcDbPoint
 10
3726.000000000001
 20
2304.000000000004
 30
0.0
  0
POINT
  5
1E171
330
1E167
100
AcDbEntity
  8
DEFPOINTS
  6
ByBlock
 62
     0
 48
50.0
100
AcDbPoint
 10
3796.000000000001
 20
2504.000000000007
 30
0.0
  0
POINT
  5
1E172
330
1E167
100
AcDbEntity
  8
DEFPOINTS
  6
ByBlock
 62
     0
 48
50.0
100
AcDbPoint
 10
4031.753724076931
 20
2504.000000000007
 30
0.0
  0
ENDBLK
  5
1E173
330
1E167
100
AcDbEntity
  8
0
 48
50.0
100
AcDbBlockEnd
  0
BLOCK
  5
1E175
330
1E174
100
AcDbEntity
  8
0
 48
50.0
100
AcDbBlockBegin
  2
*D8
 70
     1
 10
0.0
 20
0.0
 30
0.0
  3
*D8
  1

  0
LINE
  5
1E176
330
1E174
100
AcDbEntity
  8
0
  6
ByBlock
 62
     0
 48
50.0
100
AcDbLine
 10
3751.000000000001
 20
6724.000000000005
 30
0.0
 11
4106.75372407693
 21
6724.000000000005
 31
0.0
  0
LINE
  5
1E177
330
1E174
100
AcDbEntity
  8
0
  6
ByBlock
 62
     0
 48
50.0
100
AcDbLine
 10
3751.000000000002
 20
6624.000000000002
 30
0.0
 11
4106.75372407693
 21
6624.000000000002
 31
0.0
  0
LINE
  5
1E178
330
1E174
100
AcDbEntity
  8
0
  6
ByBlock
 62
     0
 48
50.0
100
AcDbLine
 10
4031.753724076931
 20
6724.000000000005
 30
0.0
 11
4031.753724076931
 21
6624.000000000002
 31
0.0
  0
LINE
  5
1E179
330
1E174
100
AcDbEntity
  8
0
  6
ByBlock
 62
     0
 48
50.0
100
AcDbLine
 10
4031.753724076931
 20
6624.000000000002
 30
0.0
 11
4031.753724076931
 21
6200.857401609004
 31
0.0
  0
INSERT
  5
1E17A
330
1E174
100
AcDbEntity
  8
0
  6
ByBlock
 62
     0
 48
50.0
100
AcDbBlockReference
  2
_DOTSMALL
 10
4031.753724076931
 20
6724.000000000005
 30
0.0
 41
125.0
 42
125.0
 43
125.0
 50
90.0
  0
INSERT
  5
1E17B
330
1E174
100
AcDbEntity
  8
0
  6
ByBlock
 62
     0
 48
50.0
100
AcDbBlockReference
  2
_DOTSMALL
 10
4031.753724076931
 20
6624.000000000002
 30
0.0
 41
125.0
 42
125.0
 43
125.0
 50
270.0
  0
MTEXT
  5
1E17C
330
1E174
100
AcDbEntity
  8
0
  6
ByBlock
 62
     7
 48
50.0
100
AcDbMText
 10
3931.75372407693
 20
6345.916456727114
 30
0.0
 40
150.0
 41
0.0
 71
     5
 72
     1
  1
\A1;100
  7
STYLE1
 11
0.0000000000000001
 21
1.0
 31
0.0
 73
     1
 44
1.0
1001
ACAD
1000
MTEXTBEGIN
1070
    73
1070
     1
1070
    44
1040
1.0
1070
    74
1070
     0
1000
MTEXTEND
  0
POINT
  5
1E17D
330
1E174
100
AcDbEntity
  8
DEFPOINTS
  6
ByBlock
 62
     0
 48
50.0
100
AcDbPoint
 10
3726.000000000001
 20
6724.000000000005
 30
0.0
  0
POINT
  5
1E17E
330
1E174
100
AcDbEntity
  8
DEFPOINTS
  6
ByBlock
 62
     0
 48
50.0
100
AcDbPoint
 10
3726.000000000002
 20
6624.000000000002
 30
0.0
  0
POINT
  5
1E17F
330
1E174
100
AcDbEntity
  8
DEFPOINTS
  6
ByBlock
 62
     0
 48
50.0
100
AcDbPoint
 10
4031.753724076931
 20
6624.000000000002
 30
0.0
  0
ENDBLK
  5
1E180
330
1E174
100
AcDbEntity
  8
0
 48
50.0
100
AcDbBlockEnd
  0
BLOCK
  5
1E182
330
1E181
100
AcDbEntity
  8
0
 48
50.0
100
AcDbBlockBegin
  2
*D9
 70
     1
 10
0.0
 20
0.0
 30
0.0
  3
*D9
  1

  0
LINE
  5
1E183
330
1E181
100
AcDbEntity
  8
0
  6
ByBlock
 62
     0
 48
50.0
100
AcDbLine
 10
3544.000000000006
 20
6822.000000000001
 30
0.0
 11
2925.057733986177
 21
6822.000000000001
 31
0.0
  0
LINE
  5
1E184
330
1E181
100
AcDbEntity
  8
0
  6
ByBlock
 62
     0
 48
50.0
100
AcDbLine
 10
3471.0
 20
6624.0
 30
0.0
 11
2925.057733986177
 21
6624.0
 31
0.0
  0
LINE
  5
1E185
330
1E181
100
AcDbEntity
  8
0
  6
ByBlock
 62
     0
 48
50.0
100
AcDbLine
 10
3000.057733986178
 20
6822.000000000001
 30
0.0
 11
3000.057733986178
 21
6624.0
 31
0.0
  0
LINE
  5
1E186
330
1E181
100
AcDbEntity
  8
0
  6
ByBlock
 62
     0
 48
50.0
100
AcDbLine
 10
3000.057733986178
 20
6624.0
 30
0.0
 11
3000.057733986178
 21
6143.206976370337
 31
0.0
  0
INSERT
  5
1E187
330
1E181
100
AcDbEntity
  8
0
  6
ByBlock
 62
     0
 48
50.0
100
AcDbBlockReference
  2
_DOTSMALL
 10
3000.057733986178
 20
6822.000000000001
 30
0.0
 41
125.0
 42
125.0
 43
125.0
 50
90.0
  0
INSERT
  5
1E188
330
1E181
100
AcDbEntity
  8
0
  6
ByBlock
 62
     0
 48
50.0
100
AcDbBlockReference
  2
_DOTSMALL
 10
3000.057733986178
 20
6624.0
 30
0.0
 41
125.0
 42
125.0
 43
125.0
 50
270.0
  0
MTEXT
  5
1E189
330
1E181
100
AcDbEntity
  8
0
  6
ByBlock
 62
     7
 48
50.0
100
AcDbMText
 10
2900.057733986177
 20
6288.469051157409
 30
0.0
 40
150.0
 41
0.0
 71
     5
 72
     1
  1
\A1;198
  7
STYLE1
 11
0.0000000000000001
 21
1.0
 31
0.0
 73
     1
 44
1.0
1001
ACAD
1000
MTEXTBEGIN
1070
    73
1070
     1
1070
    44
1040
1.0
1070
    74
1070
     0
1000
MTEXTEND
  0
POINT
  5
1E18A
330
1E181
100
AcDbEntity
  8
DEFPOINTS
  6
ByBlock
 62
     0
 48
50.0
100
AcDbPoint
 10
3569.000000000006
 20
6822.000000000001
 30
0.0
  0
POINT
  5
1E18B
330
1E181
100
AcDbEntity
  8
DEFPOINTS
  6
ByBlock
 62
     0
 48
50.0
100
AcDbPoint
 10
3496.0
 20
6624.0
 30
0.0
  0
POINT
  5
1E18C
330
1E181
100
AcDbEntity
  8
DEFPOINTS
  6
ByBlock
 62
     0
 48
50.0
100
AcDbPoint
 10
3000.057733986178
 20
6624.0
 30
0.0
  0
ENDBLK
  5
1E18D
330
1E181
100
AcDbEntity
  8
0
 48
50.0
100
AcDbBlockEnd
  0
BLOCK
  5
1E18F
330
1E18E
100
AcDbEntity
  8
0
 48
50.0
100
AcDbBlockBegin
  2
*D10
 70
     1
 10
0.0
 20
0.0
 30
0.0
  3
*D10
  1

  0
LINE
  5
1E190
330
1E18E
100
AcDbEntity
  8
0
  6
ByBlock
 62
     0
 48
50.0
100
AcDbLine
 10
3438.740228660987
 20
8755.206924300313
 30
0.0
 11
3438.740228660987
 21
9017.667619817155
 31
0.0
  0
LINE
  5
1E191
330
1E18E
100
AcDbEntity
  8
0
  6
ByBlock
 62
     0
 48
50.0
100
AcDbLine
 10
3496.0
 20
8029.0
 30
0.0
 11
3496.0
 21
9017.667619817155
 31
0.0
  0
LINE
  5
1E192
330
1E18E
100
AcDbEntity
  8
0
  6
ByBlock
 62
     0
 48
50.0
100
AcDbLine
 10
3496.0
 20
8942.667619817155
 30
0.0
 11
3438.740228660987
 21
8942.667619817155
 31
0.0
  0
LINE
  5
1E193
330
1E18E
100
AcDbEntity
  8
0
  6
ByBlock
 62
     0
 48
50.0
100
AcDbLine
 10
3438.740228660987
 20
8942.667619817155
 30
0.0
 11
3198.30367565484
 21
8942.667619817155
 31
0.0
  0
INSERT
  5
1E194
330
1E18E
100
AcDbEntity
  8
0
  6
ByBlock
 62
     0
 48
50.0
100
AcDbBlockReference
  2
_DOTSMALL
 10
3496.0
 20
8942.667619817155
 30
0.0
 41
125.0
 42
125.0
 43
125.0
  0
INSERT
  5
1E195
330
1E18E
100
AcDbEntity
  8
0
  6
ByBlock
 62
     0
 48
50.0
100
AcDbBlockReference
  2
_DOTSMALL
 10
3438.740228660987
 20
8942.667619817155
 30
0.0
 41
125.0
 42
125.0
 43
125.0
 50
180.0
  0
MTEXT
  5
1E196
330
1E18E
100
AcDbEntity
  8
0
  6
ByBlock
 62
     7
 48
50.0
100
AcDbMText
 10
3256.021952157913
 20
9042.667619817155
 30
0.0
 40
150.0
 41
0.0
 71
     5
 72
     1
  1
\A1;a
  7
STYLE1
 73
     1
 44
1.0
1001
ACAD
1000
MTEXTBEGIN
1070
    73
1070
     1
1070
    44
1040
1.0
1070
    74
1070
     0
1000
MTEXTEND
  0
POINT
  5
1E197
330
1E18E
100
AcDbEntity
  8
DEFPOINTS
  6
ByBlock
 62
     0
 48
50.0
100
AcDbPoint
 10
3438.740228660987
 20
8730.206924300313
 30
0.0
  0
POINT
  5
1E198
330
1E18E
100
AcDbEntity
  8
DEFPOINTS
  6
ByBlock
 62
     0
 48
50.0
100
AcDbPoint
 10
3496.0
 20
8004.0
 30
0.0
  0
POINT
  5
1E199
330
1E18E
100
AcDbEntity
  8
DEFPOINTS
  6
ByBlock
 62
     0
 48
50.0
100
AcDbPoint
 10
3496.0
 20
8942.667619817155
 30
0.0
  0
ENDBLK
  5
1E19A
330
1E18E
100
AcDbEntity
  8
0
 48
50.0
100
AcDbBlockEnd
  0
BLOCK
  5
1E19C
330
1E19B
100
AcDbEntity
  8
0
 48
50.0
100
AcDbBlockBegin
  2
*D11
 70
     1
 10
0.0
 20
0.0
 30
0.0
  3
*D11
  1

  0
LINE
  5
1E19D
330
1E19B
100
AcDbEntity
  8
0
  6
ByBlock
 62
     0
 48
50.0
100
AcDbLine
 10
3619.0
 20
7956.0
 30
0.0
 11
3619.0
 21
8805.206924300318
 31
0.0
  0
LINE
  5
1E19E
330
1E19B
100
AcDbEntity
  8
0
  6
ByBlock
 62
     0
 48
50.0
100
AcDbLine
 10
3496.0
 20
8029.0
 30
0.0
 11
3496.0
 21
8805.206924300318
 31
0.0
  0
LINE
  5
1E19F
330
1E19B
100
AcDbEntity
  8
0
  6
ByBlock
 62
     0
 48
50.0
100
AcDbLine
 10
3619.0
 20
8730.206924300317
 30
0.0
 11
3496.0
 21
8730.206924300317
 31
0.0
  0
LINE
  5
1E1A0
330
1E19B
100
AcDbEntity
  8
0
  6
ByBlock
 62
     0
 48
50.0
100
AcDbLine
 10
3496.0
 20
8730.206924300317
 30
0.0
 11
3067.527025225391
 21
8730.206924300317
 31
0.0
  0
INSERT
  5
1E1A1
330
1E19B
100
AcDbEntity
  8
0
  6
ByBlock
 62
     0
 48
50.0
100
AcDbBlockReference
  2
_DOTSMALL
 10
3619.0
 20
8730.206924300317
 30
0.0
 41
125.0
 42
125.0
 43
125.0
  0
INSERT
  5
1E1A2
330
1E19B
100
AcDbEntity
  8
0
  6
ByBlock
 62
     0
 48
50.0
100
AcDbBlockReference
  2
_DOTSMALL
 10
3496.0
 20
8730.206924300317
 30
0.0
 41
125.0
 42
125.0
 43
125.0
 50
180.0
  0
MTEXT
  5
1E1A3
330
1E19B
100
AcDbEntity
  8
0
  6
ByBlock
 62
     7
 48
50.0
100
AcDbMText
 10
3215.633626943189
 20
8830.221688079843
 30
0.0
 40
150.0
 41
0.0
 71
     5
 72
     1
  1
\A1;123
  7
STYLE1
 73
     1
 44
1.0
1001
ACAD
1000
MTEXTBEGIN
1070
    73
1070
     1
1070
    44
1040
1.0
1070
    74
1070
     0
1000
MTEXTEND
  0
POINT
  5
1E1A4
330
1E19B
100
AcDbEntity
  8
DEFPOINTS
  6
ByBlock
 62
     0
 48
50.0
100
AcDbPoint
 10
3619.0
 20
7931.0
 30
0.0
  0
POINT
  5
1E1A5
330
1E19B
100
AcDbEntity
  8
DEFPOINTS
  6
ByBlock
 62
     0
 48
50.0
100
AcDbPoint
 10
3496.0
 20
8004.0
 30
0.0
  0
POINT
  5
1E1A6
330
1E19B
100
AcDbEntity
  8
DEFPOINTS
  6
ByBlock
 62
     0
 48
50.0
100
AcDbPoint
 10
3496.0
 20
8730.206924300317
 30
0.0
  0
ENDBLK
  5
1E1A7
330
1E19B
100
AcDbEntity
  8
0
 48
50.0
100
AcDbBlockEnd
  0
BLOCK
  5
1E1A9
330
1E1A8
100
AcDbEntity
  8
0
 48
50.0
100
AcDbBlockBegin
  2
*D12
 70
     1
 10
0.0
 20
0.0
 30
0.0
  3
*D12
  1

  0
LINE
  5
1E1AA
330
1E1A8
100
AcDbEntity
  8
0
  6
ByBlock
 62
     0
 48
50.0
100
AcDbLine
 10
3544.0
 20
3881.0
 30
0.0
 11
2925.057733986178
 21
3881.0
 31
0.0
  0
LINE
  5
1E1AB
330
1E1A8
100
AcDbEntity
  8
0
  6
ByBlock
 62
     0
 48
50.0
100
AcDbLine
 10
3544.000000000006
 20
2402.000000000002
 30
0.0
 11
2925.057733986177
 21
2402.000000000002
 31
0.0
  0
LINE
  5
1E1AC
330
1E1A8
100
AcDbEntity
  8
0
  6
ByBlock
 62
     0
 48
50.0
100
AcDbLine
 10
3000.057733986178
 20
3881.0
 30
0.0
 11
3000.057733986178
 21
2402.000000000002
 31
0.0
  0
INSERT
  5
1E1AD
330
1E1A8
100
AcDbEntity
  8
0
  6
ByBlock
 62
     0
 48
50.0
100
AcDbBlockReference
  2
_DOTSMALL
 10
3000.057733986178
 20
3881.0
 30
0.0
 41
125.0
 42
125.0
 43
125.0
 50
90.0
  0
INSERT
  5
1E1AE
330
1E1A8
100
AcDbEntity
  8
0
  6
ByBlock
 62
     0
 48
50.0
100
AcDbBlockReference
  2
_DOTSMALL
 10
3000.057733986178
 20
2402.000000000002
 30
0.0
 41
125.0
 42
125.0
 43
125.0
 50
270.0
  0
MTEXT
  5
1E1AF
330
1E1A8
100
AcDbEntity
  8
0
  6
ByBlock
 62
     7
 48
50.0
100
AcDbMText
 10
2900.057733986177
 20
3104.0
 30
0.0
 40
150.0
 41
0.0
 71
     5
 72
     1
  1
\A1;1479
  7
STYLE1
 11
0.0000000000000001
 21
1.0
 31
0.0
 73
     1
 44
1.0
1001
ACAD
1000
MTEXTBEGIN
1070
    73
1070
     1
1070
    44
1040
1.0
1070
    74
1070
     0
1000
MTEXTEND
  0
POINT
  5
1E1B0
330
1E1A8
100
AcDbEntity
  8
DEFPOINTS
  6
ByBlock
 62
     0
 48
50.0
100
AcDbPoint
 10
3569.0
 20
3881.0
 30
0.0
  0
POINT
  5
1E1B1
330
1E1A8
100
AcDbEntity
  8
DEFPOINTS
  6
ByBlock
 62
     0
 48
50.0
100
AcDbPoint
 10
3569.000000000006
 20
2402.000000000002
 30
0.0
  0
POINT
  5
1E1B2
330
1E1A8
100
AcDbEntity
  8
DEFPOINTS
  6
ByBlock
 62
     0
 48
50.0
100
AcDbPoint
 10
3000.057733986178
 20
2402.000000000002
 30
0.0
  0
ENDBLK
  5
1E1B3
330
1E1A8
100
AcDbEntity
  8
0
 48
50.0
100
AcDbBlockEnd
  0
BLOCK
  5
1E1B5
330
1E1B4
100
AcDbEntity
  8
0
 48
50.0
100
AcDbBlockBegin
  2
*D13
 70
     1
 10
0.0
 20
0.0
 30
0.0
  3
*D13
  1

  0
LINE
  5
1E1B6
330
1E1B4
100
AcDbEntity
  8
0
  6
ByBlock
 62
     0
 48
50.0
100
AcDbLine
 10
3471.0
 20
8004.0
 30
0.0
 11
2925.057733986177
 21
8004.0
 31
0.0
  0
LINE
  5
1E1B7
330
1E1B4
100
AcDbEntity
  8
0
  6
ByBlock
 62
     0
 48
50.0
100
AcDbLine
 10
3544.0
 20
7881.0
 30
0.0
 11
2925.057733986177
 21
7881.0
 31
0.0
  0
LINE
  5
1E1B8
330
1E1B4
100
AcDbEntity
  8
0
  6
ByBlock
 62
     0
 48
50.0
100
AcDbLine
 10
3000.057733986178
 20
7881.0
 30
0.0
 11
3000.057733986178
 21
8004.0
 31
0.0
  0
LINE
  5
1E1B9
330
1E1B4
100
AcDbEntity
  8
0
  6
ByBlock
 62
     0
 48
50.0
100
AcDbLine
 10
3000.057733986178
 20
8004.0
 30
0.0
 11
3000.057733986178
 21
8425.213203435596
 31
0.0
  0
INSERT
  5
1E1BA
330
1E1B4
100
AcDbEntity
  8
0
  6
ByBlock
 62
     0
 48
50.0
100
AcDbBlockReference
  2
_DOTSMALL
 10
3000.057733986178
 20
7881.0
 30
0.0
 41
125.0
 42
125.0
 43
125.0
 50
270.0
  0
INSERT
  5
1E1BB
330
1E1B4
100
AcDbEntity
  8
0
  6
ByBlock
 62
     0
 48
50.0
100
AcDbBlockReference
  2
_DOTSMALL
 10
3000.057733986178
 20
8004.0
 30
0.0
 41
125.0
 42
125.0
 43
125.0
 50
90.0
  0
MTEXT
  5
1E1BC
330
1E1B4
100
AcDbEntity
  8
0
  6
ByBlock
 62
     7
 48
50.0
100
AcDbMText
 10
2900.04297020665
 20
8277.106601717798
 30
0.0
 40
150.0
 41
0.0
 71
     5
 72
     1
  1
\A1;123
  7
STYLE1
 11
0.0000000000000001
 21
1.0
 31
0.0
 73
     1
 44
1.0
1001
ACAD
1000
MTEXTBEGIN
1070
    73
1070
     1
1070
    44
1040
1.0
1070
    74
1070
     0
1000
MTEXTEND
  0
POINT
  5
1E1BD
330
1E1B4
100
AcDbEntity
  8
DEFPOINTS
  6
ByBlock
 62
     0
 48
50.0
100
AcDbPoint
 10
3496.0
 20
8004.0
 30
0.0
  0
POINT
  5
1E1BE
330
1E1B4
100
AcDbEntity
  8
DEFPOINTS
  6
ByBlock
 62
     0
 48
50.0
100
AcDbPoint
 10
3569.0
 20
7881.0
 30
0.0
  0
POINT
  5
1E1BF
330
1E1B4
100
AcDbEntity
  8
DEFPOINTS
  6
ByBlock
 62
     0
 48
50.0
100
AcDbPoint
 10
3000.057733986178
 20
7881.0
 30
0.0
  0
ENDBLK
  5
1E1C0
330
1E1B4
100
AcDbEntity
  8
0
 48
50.0
100
AcDbBlockEnd
  0
BLOCK
  5
1E1C2
330
1E1C1
100
AcDbEntity
  8
0
 48
50.0
100
AcDbBlockBegin
  2
*D14
 70
     1
 10
0.0
 20
0.0
 30
0.0
  3
*D14
  1

  0
LINE
  5
1E1C3
330
1E1C1
100
AcDbEntity
  8
0
  6
ByBlock
 62
     0
 48
50.0
100
AcDbLine
 10
3471.0
 20
6624.0
 30
0.0
 11
2679.56493184821
 21
6624.0
 31
0.0
  0
LINE
  5
1E1C4
330
1E1C1
100
AcDbEntity
  8
0
  6
ByBlock
 62
     0
 48
50.0
100
AcDbLine
 10
2975.057733986178
 20
6494.0
 30
0.0
 11
2679.56493184821
 21
6494.0
 31
0.0
  0
LINE
  5
1E1C5
330
1E1C1
100
AcDbEntity
  8
0
  6
ByBlock
 62
     0
 48
50.0
100
AcDbLine
 10
2754.56493184821
 20
6624.0
 30
0.0
 11
2754.56493184821
 21
6494.0
 31
0.0
  0
INSERT
  5
1E1C6
330
1E1C1
100
AcDbEntity
  8
0
  6
ByBlock
 62
     0
 48
50.0
100
AcDbBlockReference
  2
_DOTSMALL
 10
2754.56493184821
 20
6624.0
 30
0.0
 41
125.0
 42
125.0
 43
125.0
 50
90.0
  0
INSERT
  5
1E1C7
330
1E1C1
100
AcDbEntity
  8
0
  6
ByBlock
 62
     0
 48
50.0
100
AcDbBlockReference
  2
_DOTSMALL
 10
2754.56493184821
 20
6494.0
 30
0.0
 41
125.0
 42
125.0
 43
125.0
 50
270.0
  0
MTEXT
  5
1E1C8
330
1E1C1
100
AcDbEntity
  8
0
  6
ByBlock
 62
     7
 48
50.0
100
AcDbMText
 10
2654.56493184821
 20
6559.0
 30
0.0
 40
150.0
 41
0.0
 71
     5
 72
     1
  1
\A1;b
  7
STYLE1
 11
0.0000000000000001
 21
1.0
 31
0.0
 73
     1
 44
1.0
1001
ACAD
1000
MTEXTBEGIN
1070
    73
1070
     1
1070
    44
1040
1.0
1070
    74
1070
     0
1000
MTEXTEND
  0
POINT
  5
1E1C9
330
1E1C1
100
AcDbEntity
  8
DEFPOINTS
  6
ByBlock
 62
     0
 48
50.0
100
AcDbPoint
 10
3496.0
 20
6624.0
 30
0.0
  0
POINT
  5
1E1CA
330
1E1C1
100
AcDbEntity
  8
DEFPOINTS
  6
ByBlock
 62
     0
 48
50.0
100
AcDbPoint
 10
3000.057733986178
 20
6494.0
 30
0.0
  0
POINT
  5
1E1CB
330
1E1C1
100
AcDbEntity
  8
DEFPOINTS
  6
ByBlock
 62
     0
 48
50.0
100
AcDbPoint
 10
2754.56493184821
 20
6494.0
 30
0.0
  0
ENDBLK
  5
1E1CC
330
1E1C1
100
AcDbEntity
  8
0
 48
50.0
100
AcDbBlockEnd
  0
BLOCK
  5
1E1CE
330
1E1CD
100
AcDbEntity
  8
0
 48
50.0
100
AcDbBlockBegin
  2
*D15
 70
     1
 10
0.0
 20
0.0
 30
0.0
  3
*D15
  1

  0
LINE
  5
1E1CF
330
1E1CD
100
AcDbEntity
  8
0
  6
ByBlock
 62
     0
 48
50.0
100
AcDbLine
 10
3471.0
 20
2204.0
 30
0.0
 11
2679.56493184821
 21
2204.0
 31
0.0
  0
LINE
  5
1E1D0
330
1E1CD
100
AcDbEntity
  8
0
  6
ByBlock
 62
     0
 48
50.0
100
AcDbLine
 10
2754.564931848211
 20
4004.0
 30
0.0
 11
2754.56493184821
 21
2204.0
 31
0.0
  0
INSERT
  5
1E1D1
330
1E1CD
100
AcDbEntity
  8
0
  6
ByBlock
 62
     0
 48
50.0
100
AcDbBlockReference
  2
_DOTSMALL
 10
2754.564931848211
 20
4004.0
 30
0.0
 41
125.0
 42
125.0
 43
125.0
 50
90.0
  0
INSERT
  5
1E1D2
330
1E1CD
100
AcDbEntity
  8
0
  6
ByBlock
 62
     0
 48
50.0
100
AcDbBlockReference
  2
_DOTSMALL
 10
2754.56493184821
 20
2204.0
 30
0.0
 41
125.0
 42
125.0
 43
125.0
 50
270.0
  0
MTEXT
  5
1E1D3
330
1E1CD
100
AcDbEntity
  8
0
  6
ByBlock
 62
     7
 48
50.0
100
AcDbMText
 10
2654.56493184821
 20
3104.0
 30
0.0
 40
150.0
 41
0.0
 71
     5
 72
     1
  1
\A1;1800
  7
STYLE1
 11
0.0000000000000001
 21
1.0
 31
0.0
 73
     1
 44
1.0
1001
ACAD
1000
MTEXTBEGIN
1070
    73
1070
     1
1070
    44
1040
1.0
1070
    74
1070
     0
1000
MTEXTEND
  0
POINT
  5
1E1D4
330
1E1CD
100
AcDbEntity
  8
DEFPOINTS
  6
ByBlock
 62
     0
 48
50.0
100
AcDbPoint
 10
3496.0
 20
4004.0
 30
0.0
  0
POINT
  5
1E1D5
330
1E1CD
100
AcDbEntity
  8
DEFPOINTS
  6
ByBlock
 62
     0
 48
50.0
100
AcDbPoint
 10
3496.0
 20
2204.0
 30
0.0
  0
POINT
  5
1E1D6
330
1E1CD
100
AcDbEntity
  8
DEFPOINTS
  6
ByBlock
 62
     0
 48
50.0
100
AcDbPoint
 10
2754.56493184821
 20
2204.0
 30
0.0
  0
ENDBLK
  5
1E1D7
330
1E1CD
100
AcDbEntity
  8
0
 48
50.0
100
AcDbBlockEnd
  0
BLOCK
  5
1E1D9
330
1E1D8
100
AcDbEntity
  8
0
 48
50.0
100
AcDbBlockBegin
  2
*D16
 70
     1
 10
0.0
 20
0.0
 30
0.0
  3
*D16
  1

  0
LINE
  5
1E1DA
330
1E1D8
100
AcDbEntity
  8
0
  6
ByBlock
 62
     0
 48
50.0
100
AcDbLine
 10
2975.057733986178
 20
8093.999999999997
 30
0.0
 11
2679.56493184821
 21
8093.999999999997
 31
0.0
  0
LINE
  5
1E1DB
330
1E1D8
100
AcDbEntity
  8
0
  6
ByBlock
 62
     0
 48
50.0
100
AcDbLine
 10
3471.0
 20
8004.0
 30
0.0
 11
2679.56493184821
 21
8004.0
 31
0.0
  0
LINE
  5
1E1DC
330
1E1D8
100
AcDbEntity
  8
0
  6
ByBlock
 62
     0
 48
50.0
100
AcDbLine
 10
2754.56493184821
 20
8093.999999999997
 30
0.0
 11
2754.56493184821
 21
8218.999999999997
 31
0.0
  0
LINE
  5
1E1DD
330
1E1D8
100
AcDbEntity
  8
0
  6
ByBlock
 62
     0
 48
50.0
100
AcDbLine
 10
2754.56493184821
 20
8004.0
 30
0.0
 11
2754.56493184821
 21
7879.0
 31
0.0
  0
LINE
  5
1E1DE
330
1E1D8
100
AcDbEntity
  8
0
  6
ByBlock
 62
     0
 48
50.0
100
AcDbLine
 10
2754.56493184821
 20
8093.999999999997
 30
0.0
 11
2754.56493184821
 21
8004.0
 31
0.0
  0
INSERT
  5
1E1DF
330
1E1D8
100
AcDbEntity
  8
0
  6
ByBlock
 62
     0
 48
50.0
100
AcDbBlockReference
  2
_DOTSMALL
 10
2754.56493184821
 20
8093.999999999997
 30
0.0
 41
125.0
 42
125.0
 43
125.0
 50
270.0
  0
INSERT
  5
1E1E0
330
1E1D8
100
AcDbEntity
  8
0
  6
ByBlock
 62
     0
 48
50.0
100
AcDbBlockReference
  2
_DOTSMALL
 10
2754.56493184821
 20
8004.0
 30
0.0
 41
125.0
 42
125.0
 43
125.0
 50
90.0
  0
MTEXT
  5
1E1E1
330
1E1D8
100
AcDbEntity
  8
0
  6
ByBlock
 62
     7
 48
50.0
100
AcDbMText
 10
2654.56493184821
 20
8048.999999999997
 30
0.0
 40
150.0
 41
0.0
 71
     5
 72
     1
  1
\A1;c
  7
STYLE1
 11
0.0000000000000001
 21
1.0
 31
0.0
 73
     1
 44
1.0
1001
ACAD
1000
MTEXTBEGIN
1070
    73
1070
     1
1070
    44
1040
1.0
1070
    74
1070
     0
1000
MTEXTEND
  0
POINT
  5
1E1E2
330
1E1D8
100
AcDbEntity
  8
DEFPOINTS
  6
ByBlock
 62
     0
 48
50.0
100
AcDbPoint
 10
3000.057733986178
 20
8093.999999999997
 30
0.0
  0
POINT
  5
1E1E3
330
1E1D8
100
AcDbEntity
  8
DEFPOINTS
  6
ByBlock
 62
     0
 48
50.0
100
AcDbPoint
 10
3496.0
 20
8004.0
 30
0.0
  0
POINT
  5
1E1E4
330
1E1D8
100
AcDbEntity
  8
DEFPOINTS
  6
ByBlock
 62
     0
 48
50.0
100
AcDbPoint
 10
2754.56493184821
 20
8004.0
 30
0.0
  0
ENDBLK
  5
1E1E5
330
1E1D8
100
AcDbEntity
  8
0
 48
50.0
100
AcDbBlockEnd
  0
BLOCK
  5
1E1E7
330
1E1E6
100
AcDbEntity
  8
0
 48
50.0
100
AcDbBlockBegin
  2
*D17
 70
     1
 10
0.0
 20
0.0
 30
0.0
  3
*D17
  1

  0
LINE
  5
1E1E8
330
1E1E6
100
AcDbEntity
  8
0
  6
ByBlock
 62
     0
 48
50.0
100
AcDbLine
 10
5296.0
 20
8029.0
 30
0.0
 11
5296.0
 21
9017.667619817155
 31
0.0
  0
LINE
  5
1E1E9
330
1E1E6
100
AcDbEntity
  8
0
  6
ByBlock
 62
     0
 48
50.0
100
AcDbLine
 10
5338.740228660987
 20
8755.206924300319
 30
0.0
 11
5338.740228660987
 21
9017.667619817155
 31
0.0
  0
LINE
  5
1E1EA
330
1E1E6
100
AcDbEntity
  8
0
  6
ByBlock
 62
     0
 48
50.0
100
AcDbLine
 10
5296.0
 20
8942.667619817155
 30
0.0
 11
5171.0
 21
8942.667619817155
 31
0.0
  0
LINE
  5
1E1EB
330
1E1E6
100
AcDbEntity
  8
0
  6
ByBlock
 62
     0
 48
50.0
100
AcDbLine
 10
5338.740228660987
 20
8942.667619817155
 30
0.0
 11
5704.176781667134
 21
8942.667619817155
 31
0.0
  0
LINE
  5
1E1EC
330
1E1E6
100
AcDbEntity
  8
0
  6
ByBlock
 62
     0
 48
50.0
100
AcDbLine
 10
5296.0
 20
8942.667619817155
 30
0.0
 11
5338.740228660987
 21
8942.667619817155
 31
0.0
  0
INSERT
  5
1E1ED
330
1E1E6
100
AcDbEntity
  8
0
  6
ByBlock
 62
     0
 48
50.0
100
AcDbBlockReference
  2
_DOTSMALL
 10
5296.0
 20
8942.667619817155
 30
0.0
 41
125.0
 42
125.0
 43
125.0
  0
INSERT
  5
1E1EE
330
1E1E6
100
AcDbEntity
  8
0
  6
ByBlock
 62
     0
 48
50.0
100
AcDbBlockReference
  2
_DOTSMALL
 10
5338.740228660987
 20
8942.667619817155
 30
0.0
 41
125.0
 42
125.0
 43
125.0
 50
180.0
  0
MTEXT
  5
1E1EF
330
1E1E6
100
AcDbEntity
  8
0
  6
ByBlock
 62
     7
 48
50.0
100
AcDbMText
 10
5646.45850516406
 20
9042.667619817155
 30
0.0
 40
150.0
 41
0.0
 71
     5
 72
     1
  1
\A1;a
  7
STYLE1
 73
     1
 44
1.0
1001
ACAD
1000
MTEXTBEGIN
1070
    73
1070
     1
1070
    44
1040
1.0
1070
    74
1070
     0
1000
MTEXTEND
  0
POINT
  5
1E1F0
330
1E1E6
100
AcDbEntity
  8
DEFPOINTS
  6
ByBlock
 62
     0
 48
50.0
100
AcDbPoint
 10
5296.0
 20
8004.0
 30
0.0
  0
POINT
  5
1E1F1
330
1E1E6
100
AcDbEntity
  8
DEFPOINTS
  6
ByBlock
 62
     0
 48
50.0
100
AcDbPoint
 10
5338.740228660987
 20
8730.206924300318
 30
0.0
  0
POINT
  5
1E1F2
330
1E1E6
100
AcDbEntity
  8
DEFPOINTS
  6
ByBlock
 62
     0
 48
50.0
100
AcDbPoint
 10
5338.740228660987
 20
8942.667619817155
 30
0.0
  0
ENDBLK
  5
1E1F3
330
1E1E6
100
AcDbEntity
  8
0
 48
50.0
100
AcDbBlockEnd
  0
BLOCK
  5
1E1F5
330
1E1F4
100
AcDbEntity
  8
0
 48
50.0
100
AcDbBlockBegin
  2
*D18
 70
     1
 10
0.0
 20
0.0
 30
0.0
  3
*D18
  1

  0
LINE
  5
1E1F6
330
1E1F4
100
AcDbEntity
  8
0
  6
ByBlock
 62
     0
 48
50.0
100
AcDbLine
 10
5296.0
 20
8029.0
 30
0.0
 11
5296.0
 21
8805.206924300318
 31
0.0
  0
LINE
  5
1E1F7
330
1E1F4
100
AcDbEntity
  8
0
  6
ByBlock
 62
     0
 48
50.0
100
AcDbLine
 10
5173.0
 20
7956.0
 30
0.0
 11
5173.0
 21
8805.206924300318
 31
0.0
  0
LINE
  5
1E1F8
330
1E1F4
100
AcDbEntity
  8
0
  6
ByBlock
 62
     0
 48
50.0
100
AcDbLine
 10
5173.0
 20
8730.206924300317
 30
0.0
 11
5296.0
 21
8730.206924300317
 31
0.0
  0
LINE
  5
1E1F9
330
1E1F4
100
AcDbEntity
  8
0
  6
ByBlock
 62
     0
 48
50.0
100
AcDbLine
 10
5296.0
 20
8730.206924300317
 30
0.0
 11
5717.213203435597
 21
8730.206924300317
 31
0.0
  0
INSERT
  5
1E1FA
330
1E1F4
100
AcDbEntity
  8
0
  6
ByBlock
 62
     0
 48
50.0
100
AcDbBlockReference
  2
_DOTSMALL
 10
5173.0
 20
8730.206924300317
 30
0.0
 41
125.0
 42
125.0
 43
125.0
 50
180.0
  0
INSERT
  5
1E1FB
330
1E1F4
100
AcDbEntity
  8
0
  6
ByBlock
 62
     0
 48
50.0
100
AcDbBlockReference
  2
_DOTSMALL
 10
5296.0
 20
8730.206924300317
 30
0.0
 41
125.0
 42
125.0
 43
125.0
  0
MTEXT
  5
1E1FC
330
1E1F4
100
AcDbEntity
  8
0
  6
ByBlock
 62
     7
 48
50.0
100
AcDbMText
 10
5569.106601717798
 20
8830.221688079843
 30
0.0
 40
150.0
 41
0.0
 71
     5
 72
     1
  1
\A1;123
  7
STYLE1
 73
     1
 44
1.0
1001
ACAD
1000
MTEXTBEGIN
1070
    73
1070
     1
1070
    44
1040
1.0
1070
    74
1070
     0
1000
MTEXTEND
  0
POINT
  5
1E1FD
330
1E1F4
100
AcDbEntity
  8
DEFPOINTS
  6
ByBlock
 62
     0
 48
50.0
100
AcDbPoint
 10
5296.0
 20
8004.0
 30
0.0
  0
POINT
  5
1E1FE
330
1E1F4
100
AcDbEntity
  8
DEFPOINTS
  6
ByBlock
 62
     0
 48
50.0
100
AcDbPoint
 10
5173.0
 20
7931.0
 30
0.0
  0
POINT
  5
1E1FF
330
1E1F4
100
AcDbEntity
  8
DEFPOINTS
  6
ByBlock
 62
     0
 48
50.0
100
AcDbPoint
 10
5173.0
 20
8730.206924300317
 30
0.0
  0
ENDBLK
  5
1E200
330
1E1F4
100
AcDbEntity
  8
0
 48
50.0
100
AcDbBlockEnd
  0
BLOCK
  5
1E202
330
1E201
100
AcDbEntity
  8
0
 48
50.0
100
AcDbBlockBegin
  2
*D19
 70
     1
 10
0.0
 20
0.0
 30
0.0
  3
*D19
  1

  0
LINE
  5
1E203
330
1E201
100
AcDbEntity
  8
0
  6
ByBlock
 62
     0
 48
50.0
100
AcDbLine
 10
4765.91864628953
 20
8004.0
 30
0.0
 11
5028.847448568776
 21
8004.0
 31
0.0
  0
LINE
  5
1E204
330
1E201
100
AcDbEntity
  8
0
  6
ByBlock
 62
     0
 48
50.0
100
AcDbLine
 10
4765.91864628953
 20
7903.999999999998
 30
0.0
 11
5028.847448568776
 21
7903.999999999998
 31
0.0
  0
LINE
  5
1E205
330
1E201
100
AcDbEntity
  8
0
  6
ByBlock
 62
     0
 48
50.0
100
AcDbLine
 10
4953.847448568776
 20
7903.999999999998
 30
0.0
 11
4953.847448568776
 21
8004.0
 31
0.0
  0
LINE
  5
1E206
330
1E201
100
AcDbEntity
  8
0
  6
ByBlock
 62
     0
 48
50.0
100
AcDbLine
 10
4953.847448568776
 20
8004.0
 30
0.0
 11
4953.847448568776
 21
8419.118110236221
 31
0.0
  0
INSERT
  5
1E207
330
1E201
100
AcDbEntity
  8
0
  6
ByBlock
 62
     0
 48
50.0
100
AcDbBlockReference
  2
_DOTSMALL
 10
4953.847448568776
 20
7903.999999999998
 30
0.0
 41
125.0
 42
125.0
 43
125.0
 50
270.0
  0
INSERT
  5
1E208
330
1E201
100
AcDbEntity
  8
0
  6
ByBlock
 62
     0
 48
50.0
100
AcDbBlockReference
  2
_DOTSMALL
 10
4953.847448568776
 20
8004.0
 30
0.0
 41
125.0
 42
125.0
 43
125.0
 50
90.0
  0
MTEXT
  5
1E209
330
1E201
100
AcDbEntity
  8
0
  6
ByBlock
 62
     7
 48
50.0
100
AcDbMText
 10
4853.847448568776
 20
8274.05905511811
 30
0.0
 40
150.0
 41
0.0
 71
     5
 72
     1
  1
\A1;100
  7
STYLE1
 11
0.0000000000000001
 21
1.0
 31
0.0
 73
     1
 44
1.0
1001
ACAD
1000
MTEXTBEGIN
1070
    73
1070
     1
1070
    44
1040
1.0
1070
    74
1070
     0
1000
MTEXTEND
  0
POINT
  5
1E20A
330
1E201
100
AcDbEntity
  8
DEFPOINTS
  6
ByBlock
 62
     0
 48
50.0
100
AcDbPoint
 10
4740.91864628953
 20
8004.0
 30
0.0
  0
POINT
  5
1E20B
330
1E201
100
AcDbEntity
  8
DEFPOINTS
  6
ByBlock
 62
     0
 48
50.0
100
AcDbPoint
 10
4740.91864628953
 20
7903.999999999998
 30
0.0
  0
POINT
  5
1E20C
330
1E201
100
AcDbEntity
  8
DEFPOINTS
  6
ByBlock
 62
     0
 48
50.0
100
AcDbPoint
 10
4953.847448568776
 20
7903.999999999998
 30
0.0
  0
ENDBLK
  5
1E20D
330
1E201
100
AcDbEntity
  8
0
 48
50.0
100
AcDbBlockEnd
  0
BLOCK
  5
1E20F
330
1E20E
100
AcDbEntity
  8
0
 48
50.0
100
AcDbBlockBegin
  2
*D20
 70
     1
 10
0.0
 20
0.0
 30
0.0
  3
*D20
  1

  0
LINE
  5
1E210
330
1E20E
100
AcDbEntity
  8
0
  6
ByBlock
 62
     0
 48
50.0
100
AcDbLine
 10
3796.000000000001
 20
2529.000000000007
 30
0.0
 11
3796.000000000001
 21
2931.6104948313
 31
0.0
  0
LINE
  5
1E211
330
1E20E
100
AcDbEntity
  8
0
  6
ByBlock
 62
     0
 48
50.0
100
AcDbLine
 10
3595.999999999998
 20
2529.000000000004
 30
0.0
 11
3595.999999999998
 21
2931.6104948313
 31
0.0
  0
LINE
  5
1E212
330
1E20E
100
AcDbEntity
  8
0
  6
ByBlock
 62
     0
 48
50.0
100
AcDbLine
 10
3796.000000000001
 20
2856.610494831301
 30
0.0
 11
3595.999999999998
 21
2856.610494831301
 31
0.0
  0
LINE
  5
1E213
330
1E20E
100
AcDbEntity
  8
0
  6
ByBlock
 62
     0
 48
50.0
100
AcDbLine
 10
3595.999999999998
 20
2856.610494831301
 30
0.0
 11
3122.996254565651
 21
2856.610494831301
 31
0.0
  0
INSERT
  5
1E214
330
1E20E
100
AcDbEntity
  8
0
  6
ByBlock
 62
     0
 48
50.0
100
AcDbBlockReference
  2
_DOTSMALL
 10
3796.000000000001
 20
2856.610494831301
 30
0.0
 41
125.0
 42
125.0
 43
125.0
  0
INSERT
  5
1E215
330
1E20E
100
AcDbEntity
  8
0
  6
ByBlock
 62
     0
 48
50.0
100
AcDbBlockReference
  2
_DOTSMALL
 10
3595.999999999998
 20
2856.610494831301
 30
0.0
 41
125.0
 42
125.0
 43
125.0
 50
180.0
  0
MTEXT
  5
1E216
330
1E20E
100
AcDbEntity
  8
0
  6
ByBlock
 62
     7
 48
50.0
100
AcDbMText
 10
3284.959837242816
 20
2956.625258610828
 30
0.0
 40
150.0
 41
0.0
 71
     5
 72
     1
  1
\A1;200
  7
STYLE1
 73
     1
 44
1.0
1001
ACAD
1000
MTEXTBEGIN
1070
    73
1070
     1
1070
    44
1040
1.0
1070
    74
1070
     0
1000
MTEXTEND
  0
POINT
  5
1E217
330
1E20E
100
AcDbEntity
  8
DEFPOINTS
  6
ByBlock
 62
     0
 48
50.0
100
AcDbPoint
 10
3796.000000000001
 20
2504.000000000007
 30
0.0
  0
POINT
  5
1E218
330
1E20E
100
AcDbEntity
  8
DEFPOINTS
  6
ByBlock
 62
     0
 48
50.0
100
AcDbPoint
 10
3595.999999999998
 20
2504.000000000004
 30
0.0
  0
POINT
  5
1E219
330
1E20E
100
AcDbEntity
  8
DEFPOINTS
  6
ByBlock
 62
     0
 48
50.0
100
AcDbPoint
 10
3595.999999999998
 20
2856.610494831301
 30
0.0
  0
ENDBLK
  5
1E21A
330
1E20E
100
AcDbEntity
  8
0
 48
50.0
100
AcDbBlockEnd
  0
BLOCK
  5
1E21C
330
1E21B
100
AcDbEntity
  8
0
 48
50.0
100
AcDbBlockBegin
  2
*D21
 70
     1
 10
0.0
 20
0.0
 30
0.0
  3
*D21
  1

  0
LINE
  5
1E21D
330
1E21B
100
AcDbEntity
  8
0
  6
ByBlock
 62
     0
 48
50.0
100
AcDbLine
 10
4421.0
 20
2204.000000000009
 30
0.0
 11
4870.266817430558
 21
2204.000000000009
 31
0.0
  0
LINE
  5
1E21E
330
1E21B
100
AcDbEntity
  8
0
  6
ByBlock
 62
     0
 48
50.0
100
AcDbLine
 10
4471.0
 20
3104.0
 30
0.0
 11
4870.266817430558
 21
3104.0
 31
0.0
  0
LINE
  5
1E21F
330
1E21B
100
AcDbEntity
  8
0
  6
ByBlock
 62
     0
 48
50.0
100
AcDbLine
 10
4795.266817430558
 20
2204.000000000009
 30
0.0
 11
4795.266817430558
 21
3104.0
 31
0.0
  0
INSERT
  5
1E220
330
1E21B
100
AcDbEntity
  8
0
  6
ByBlock
 62
     0
 48
50.0
100
AcDbBlockReference
  2
_DOTSMALL
 10
4795.266817430558
 20
2204.000000000009
 30
0.0
 41
125.0
 42
125.0
 43
125.0
 50
270.0
  0
INSERT
  5
1E221
330
1E21B
100
AcDbEntity
  8
0
  6
ByBlock
 62
     0
 48
50.0
100
AcDbBlockReference
  2
_DOTSMALL
 10
4795.266817430558
 20
3104.0
 30
0.0
 41
125.0
 42
125.0
 43
125.0
 50
90.0
  0
MTEXT
  5
1E222
330
1E21B
100
AcDbEntity
  8
0
  6
ByBlock
 62
     7
 48
50.0
100
AcDbMText
 10
4695.266817430558
 20
2654.000000000005
 30
0.0
 40
150.0
 41
0.0
 71
     5
 72
     1
  1
\A1;900
  7
STYLE1
 11
0.0000000000000001
 21
1.0
 31
0.0
 73
     1
 44
1.0
1001
ACAD
1000
MTEXTBEGIN
1070
    73
1070
     1
1070
    44
1040
1.0
1070
    74
1070
     0
1000
MTEXTEND
  0
POINT
  5
1E223
330
1E21B
100
AcDbEntity
  8
DEFPOINTS
  6
ByBlock
 62
     0
 48
50.0
100
AcDbPoint
 10
4396.0
 20
2204.000000000009
 30
0.0
  0
POINT
  5
1E224
330
1E21B
100
AcDbEntity
  8
DEFPOINTS
  6
ByBlock
 62
     0
 48
50.0
100
AcDbPoint
 10
4446.0
 20
3104.0
 30
0.0
  0
POINT
  5
1E225
330
1E21B
100
AcDbEntity
  8
DEFPOINTS
  6
ByBlock
 62
     0
 48
50.0
100
AcDbPoint
 10
4795.266817430558
 20
3104.0
 30
0.0
  0
ENDBLK
  5
1E226
330
1E21B
100
AcDbEntity
  8
0
 48
50.0
100
AcDbBlockEnd
  0
BLOCK
  5
1E228
330
1E227
100
AcDbEntity
  8
0
 48
50.0
100
AcDbBlockBegin
  2
*D22
 70
     1
 10
0.0
 20
0.0
 30
0.0
  3
*D22
  1

  0
LINE
  5
1E229
330
1E227
100
AcDbEntity
  8
0
  6
ByBlock
 62
     0
 48
50.0
100
AcDbLine
 10
4421.0
 20
4004.0
 30
0.0
 11
4870.266817430558
 21
4004.0
 31
0.0
  0
LINE
  5
1E22A
330
1E227
100
AcDbEntity
  8
0
  6
ByBlock
 62
     0
 48
50.0
100
AcDbLine
 10
4795.266817430558
 20
3104.0
 30
0.0
 11
4795.266817430558
 21
4004.0
 31
0.0
  0
INSERT
  5
1E22B
330
1E227
100
AcDbEntity
  8
0
  6
ByBlock
 62
     0
 48
50.0
100
AcDbBlockReference
  2
_DOTSMALL
 10
4795.266817430558
 20
3104.0
 30
0.0
 41
125.0
 42
125.0
 43
125.0
 50
270.0
  0
INSERT
  5
1E22C
330
1E227
100
AcDbEntity
  8
0
  6
ByBlock
 62
     0
 48
50.0
100
AcDbBlockReference
  2
_DOTSMALL
 10
4795.266817430558
 20
4004.0
 30
0.0
 41
125.0
 42
125.0
 43
125.0
 50
90.0
  0
MTEXT
  5
1E22D
330
1E227
100
AcDbEntity
  8
0
  6
ByBlock
 62
     7
 48
50.0
100
AcDbMText
 10
4695.266817430558
 20
3554.0
 30
0.0
 40
150.0
 41
0.0
 71
     5
 72
     1
  1
\A1;900
  7
STYLE1
 11
0.0000000000000001
 21
1.0
 31
0.0
 73
     1
 44
1.0
1001
ACAD
1000
MTEXTBEGIN
1070
    73
1070
     1
1070
    44
1040
1.0
1070
    74
1070
     0
1000
MTEXTEND
  0
POINT
  5
1E22E
330
1E227
100
AcDbEntity
  8
DEFPOINTS
  6
ByBlock
 62
     0
 48
50.0
100
AcDbPoint
 10
4446.0
 20
3104.0
 30
0.0
  0
POINT
  5
1E22F
330
1E227
100
AcDbEntity
  8
DEFPOINTS
  6
ByBlock
 62
     0
 48
50.0
100
AcDbPoint
 10
4396.0
 20
4004.0
 30
0.0
  0
POINT
  5
1E230
330
1E227
100
AcDbEntity
  8
DEFPOINTS
  6
ByBlock
 62
     0
 48
50.0
100
AcDbPoint
 10
4795.266817430558
 20
4004.0
 30
0.0
  0
ENDBLK
  5
1E231
330
1E227
100
AcDbEntity
  8
0
 48
50.0
100
AcDbBlockEnd
  0
BLOCK
  5
1E233
330
1E232
100
AcDbEntity
  8
0
 48
50.0
100
AcDbBlockBegin
  2
*D23
 70
     1
 10
0.0
 20
0.0
 30
0.0
  3
*D23
  1

  0
LINE
  5
1E234
330
1E232
100
AcDbEntity
  8
0
  6
ByBlock
 62
     0
 48
50.0
100
AcDbLine
 10
3496.0
 20
4029.0
 30
0.0
 11
3496.0
 21
4605.909765648328
 31
0.0
  0
LINE
  5
1E235
330
1E232
100
AcDbEntity
  8
0
  6
ByBlock
 62
     0
 48
50.0
100
AcDbLine
 10
4396.0
 20
4530.909765648328
 30
0.0
 11
3496.0
 21
4530.909765648328
 31
0.0
  0
INSERT
  5
1E236
330
1E232
100
AcDbEntity
  8
0
  6
ByBlock
 62
     0
 48
50.0
100
AcDbBlockReference
  2
_DOTSMALL
 10
4396.0
 20
4530.909765648328
 30
0.0
 41
125.0
 42
125.0
 43
125.0
  0
INSERT
  5
1E237
330
1E232
100
AcDbEntity
  8
0
  6
ByBlock
 62
     0
 48
50.0
100
AcDbBlockReference
  2
_DOTSMALL
 10
3496.0
 20
4530.909765648328
 30
0.0
 41
125.0
 42
125.0
 43
125.0
 50
180.0
  0
MTEXT
  5
1E238
330
1E232
100
AcDbEntity
  8
0
  6
ByBlock
 62
     7
 48
50.0
100
AcDbMText
 10
3946.0
 20
4630.909765648328
 30
0.0
 40
150.0
 41
0.0
 71
     5
 72
     1
  1
\A1;900
  7
STYLE1
 73
     1
 44
1.0
1001
ACAD
1000
MTEXTBEGIN
1070
    73
1070
     1
1070
    44
1040
1.0
1070
    74
1070
     0
1000
MTEXTEND
  0
POINT
  5
1E239
330
1E232
100
AcDbEntity
  8
DEFPOINTS
  6
ByBlock
 62
     0
 48
50.0
100
AcDbPoint
 10
4396.0
 20
3304.0
 30
0.0
  0
POINT
  5
1E23A
330
1E232
100
AcDbEntity
  8
DEFPOINTS
  6
ByBlock
 62
     0
 48
50.0
100
AcDbPoint
 10
3496.0
 20
4004.0
 30
0.0
  0
POINT
  5
1E23B
330
1E232
100
AcDbEntity
  8
DEFPOINTS
  6
ByBlock
 62
     0
 48
50.0
100
AcDbPoint
 10
3496.0
 20
4530.909765648328
 30
0.0
  0
ENDBLK
  5
1E23C
330
1E232
100
AcDbEntity
  8
0
 48
50.0
100
AcDbBlockEnd
  0
BLOCK
  5
1E23E
330
1E23D
100
AcDbEntity
  8
0
 48
50.0
100
AcDbBlockBegin
  2
*D24
 70
     1
 10
0.0
 20
0.0
 30
0.0
  3
*D24
  1

  0
LINE
  5
1E23F
330
1E23D
100
AcDbEntity
  8
0
  6
ByBlock
 62
     0
 48
50.0
100
AcDbLine
 10
5296.0
 20
4029.0
 30
0.0
 11
5296.0
 21
4605.909765648328
 31
0.0
  0
LINE
  5
1E240
330
1E23D
100
AcDbEntity
  8
0
  6
ByBlock
 62
     0
 48
50.0
100
AcDbLine
 10
4396.0
 20
3329.0
 30
0.0
 11
4396.0
 21
4605.909765648328
 31
0.0
  0
LINE
  5
1E241
330
1E23D
100
AcDbEntity
  8
0
  6
ByBlock
 62
     0
 48
50.0
100
AcDbLine
 10
5296.0
 20
4530.909765648328
 30
0.0
 11
4396.0
 21
4530.909765648328
 31
0.0
  0
INSERT
  5
1E242
330
1E23D
100
AcDbEntity
  8
0
  6
ByBlock
 62
     0
 48
50.0
100
AcDbBlockReference
  2
_DOTSMALL
 10
5296.0
 20
4530.909765648328
 30
0.0
 41
125.0
 42
125.0
 43
125.0
  0
INSERT
  5
1E243
330
1E23D
100
AcDbEntity
  8
0
  6
ByBlock
 62
     0
 48
50.0
100
AcDbBlockReference
  2
_DOTSMALL
 10
4396.0
 20
4530.909765648328
 30
0.0
 41
125.0
 42
125.0
 43
125.0
 50
180.0
  0
MTEXT
  5
1E244
330
1E23D
100
AcDbEntity
  8
0
  6
ByBlock
 62
     7
 48
50.0
100
AcDbMText
 10
4866.91852200628
 20
4630.909765648328
 30
0.0
 40
150.0
 41
0.0
 71
     5
 72
     1
  1
\A1;900
  7
STYLE1
 73
     1
 44
1.0
1001
ACAD
1000
MTEXTBEGIN
1070
    73
1070
     1
1070
    44
1040
1.0
1070
    74
1070
     0
1000
MTEXTEND
  0
POINT
  5
1E245
330
1E23D
100
AcDbEntity
  8
DEFPOINTS
  6
ByBlock
 62
     0
 48
50.0
100
AcDbPoint
 10
5296.0
 20
4004.0
 30
0.0
  0
POINT
  5
1E246
330
1E23D
100
AcDbEntity
  8
DEFPOINTS
  6
ByBlock
 62
     0
 48
50.0
100
AcDbPoint
 10
4396.0
 20
3304.0
 30
0.0
  0
POINT
  5
1E247
330
1E23D
100
AcDbEntity
  8
DEFPOINTS
  6
ByBlock
 62
     0
 48
50.0
100
AcDbPoint
 10
4396.0
 20
4530.909765648328
 30
0.0
  0
ENDBLK
  5
1E248
330
1E23D
100
AcDbEntity
  8
0
 48
50.0
100
AcDbBlockEnd
  0
BLOCK
  5
1E24A
330
1E249
100
AcDbEntity
  8
0
 48
50.0
100
AcDbBlockBegin
  2
*D25
 70
     1
 10
0.0
 20
0.0
 30
0.0
  3
*D25
  1

  0
LINE
  5
1E24B
330
1E249
100
AcDbEntity
  8
0
  6
ByBlock
 62
     0
 48
50.0
100
AcDbLine
 10
5196.0
 20
7079.000000000007
 30
0.0
 11
5196.0
 21
6928.700321064884
 31
0.0
  0
LINE
  5
1E24C
330
1E249
100
AcDbEntity
  8
0
  6
ByBlock
 62
     0
 48
50.0
100
AcDbLine
 10
5296.0
 20
7079.000000000007
 30
0.0
 11
5296.0
 21
6928.700321064884
 31
0.0
  0
LINE
  5
1E24D
330
1E249
100
AcDbEntity
  8
0
  6
ByBlock
 62
     0
 48
50.0
100
AcDbLine
 10
5196.0
 20
7003.700321064883
 30
0.0
 11
5296.0
 21
7003.700321064883
 31
0.0
  0
LINE
  5
1E24E
330
1E249
100
AcDbEntity
  8
0
  6
ByBlock
 62
     0
 48
50.0
100
AcDbLine
 10
5296.0
 20
7003.700321064883
 30
0.0
 11
5711.11811023622
 21
7003.700321064883
 31
0.0
  0
INSERT
  5
1E24F
330
1E249
100
AcDbEntity
  8
0
  6
ByBlock
 62
     0
 48
50.0
100
AcDbBlockReference
  2
_DOTSMALL
 10
5196.0
 20
7003.700321064883
 30
0.0
 41
125.0
 42
125.0
 43
125.0
 50
180.0
  0
INSERT
  5
1E250
330
1E249
100
AcDbEntity
  8
0
  6
ByBlock
 62
     0
 48
50.0
100
AcDbBlockReference
  2
_DOTSMALL
 10
5296.0
 20
7003.700321064883
 30
0.0
 41
125.0
 42
125.0
 43
125.0
  0
MTEXT
  5
1E251
330
1E249
100
AcDbEntity
  8
0
  6
ByBlock
 62
     7
 48
50.0
100
AcDbMText
 10
5566.05905511811
 20
7103.700321064883
 30
0.0
 40
150.0
 41
0.0
 71
     5
 72
     1
  1
\A1;100
  7
STYLE1
 73
     1
 44
1.0
1001
ACAD
1000
MTEXTBEGIN
1070
    73
1070
     1
1070
    44
1040
1.0
1070
    74
1070
     0
1000
MTEXTEND
  0
POINT
  5
1E252
330
1E249
100
AcDbEntity
  8
DEFPOINTS
  6
ByBlock
 62
     0
 48
50.0
100
AcDbPoint
 10
5196.0
 20
7104.000000000008
 30
0.0
  0
POINT
  5
1E253
330
1E249
100
AcDbEntity
  8
DEFPOINTS
  6
ByBlock
 62
     0
 48
50.0
100
AcDbPoint
 10
5296.0
 20
7104.000000000008
 30
0.0
  0
POINT
  5
1E254
330
1E249
100
AcDbEntity
  8
DEFPOINTS
  6
ByBlock
 62
     0
 48
50.0
100
AcDbPoint
 10
5296.0
 20
7003.700321064883
 30
0.0
  0
ENDBLK
  5
1E255
330
1E249
100
AcDbEntity
  8
0
 48
50.0
100
AcDbBlockEnd
  0
BLOCK
  5
1E2A5
330
1E256
100
AcDbEntity
  8
0
 48
50.0
100
AcDbBlockBegin
  2
A$C56A41A26
 70
     0
 10
0.0
 20
0.0
 30
0.0
  3
A$C56A41A26
  1

  0
LINE
  5
1E257
330
1E256
100
AcDbEntity
  8
部品1
 48
50.0
100
AcDbLine
 10
2708.994140400603
 20
2627.271234847374
 30
0.0
 11
908.9941404006022
 21
2627.271234847374
 31
0.0
  0
LINE
  5
1E258
330
1E256
100
AcDbEntity
  8
部品1
 48
50.0
100
AcDbLine
 10
2708.994140400602
 20
2727.271234847376
 30
0.0
 11
908.9941404006022
 21
2727.271234847376
 31
0.0
  0
LINE
  5
1E259
330
1E256
100
AcDbEntity
  8
想像線
 48
10.0
100
AcDbLine
 10
858.9941404005985
 20
2817.271234847376
 30
0.0
 11
2758.994140400606
 21
2817.27123484738
 31
0.0
  0
LINE
  5
1E25A
330
1E256
100
AcDbEntity
  8
想像線
 48
10.0
100
AcDbLine
 10
2758.994140400603
 20
797.2712348473724
 30
0.0
 11
858.9941404006022
 21
797.271234847376
 31
0.0
  0
LINE
  5
1E25B
330
1E256
100
AcDbEntity
  8
部品1
 48
50.0
100
AcDbLine
 10
2708.994140400602
 20
927.2712348473943
 30
0.0
 11
908.9941404006022
 21
927.271234847376
 31
0.0
  0
DIMENSION
  5
1E25C
330
1E256
100
AcDbEntity
  8
寸法
 48
50.0
100
AcDbDimension
  2
*D8
 10
1444.747864477533
 20
927.2712348473778
 30
0.0
 11
1444.747864477533
 21
649.1876915744906
 31
0.0
 12
-2587.005859599398
 22
-5696.728765152624
 32
0.0
 70
   128
 71
     5
 42
-1.0
  3
INABA_S50G
100
AcDbAlignedDimension
 13
1138.994140400603
 23
1027.271234847381
 33
0.0
 14
1138.994140400604
 24
927.2712348473778
 34
0.0
 50
90.0
100
AcDbRotatedDimension
1001
ACAD
1000
DSTYLE
1002
{
1070
   288
1070
     1
1070
    40
1040
1.0
1002
}
  0
LINE
  5
1E25D
330
1E256
100
AcDbEntity
  8
部品1
 48
50.0
100
AcDbLine
 10
2708.994140400603
 20
1027.271234847398
 30
0.0
 11
908.9941404006022
 21
1027.27123484738
 31
0.0
  0
DIMENSION
  5
1E25E
330
1E256
100
AcDbEntity
  8
寸法
 48
50.0
100
AcDbDimension
  2
*D7
 10
1444.747864477533
 20
1227.271234847383
 30
0.0
 11
1444.747864477533
 21
1514.234817524549
 31
0.0
 12
-2587.005859599398
 22
-1276.728765152624
 32
0.0
 70
   128
 71
     5
 42
-1.0
  3
INABA_S50G
100
AcDbAlignedDimension
 13
1138.994140400603
 23
1027.27123484738
 33
0.0
 14
1208.994140400603
 24
1227.271234847383
 34
0.0
 50
90.0
100
AcDbRotatedDimension
1001
ACAD
1000
DSTYLE
1002
{
1070
   288
1070
     1
1070
    40
1040
1.0
1002
}
  0
MTEXT
  5
1E25F
102
{ACAD_REACTORS
330
1E260
102
}
330
1E256
100
AcDbEntity
  8
寸法
 62
     7
 48
50.0
100
AcDbMText
 10
1566.166025099446
 20
2207.190649171135
 30
0.0
 40
150.0
 41
0.0
 71
     6
 72
     1
  1
\A1;C.B
  7
STYLE1
 73
     1
 44
1.0
1001
ACAD
1000
MTEXTBEGIN
1070
    73
1070
     1
1070
    44
1040
1.0
1070
    74
1070
     0
1000
MTEXTEND
  0
LEADER
  5
1E260
330
1E256
100
AcDbEntity
  8
寸法
 48
50.0
100
AcDbLeader
  3
INABA_S50G
 73
     0
 75
     1
 40
150.0
 41
231.9898538650463
 76
     3
 10
1759.920575772113
 20
1978.037610834701
 30
0.0
 10
1716.166025099446
 20
2107.190649171135
 30
0.0
 10
1591.166025099446
 20
2107.190649171135
 30
0.0
340
1E25F
1001
ACAD
1000
DSTYLE
1002
{
1070
    40
1040
1.0
1002
}
  0
DIMENSION
  5
1E261
330
1E256
100
AcDbEntity
  8
寸法
 48
50.0
100
AcDbDimension
  2
*D6
 10
1031.994140400602
 20
3453.478159147693
 30
0.0
 11
1808.994140400602
 21
3553.478159147693
 31
0.0
 12
-2587.005859599398
 22
-5276.728765152624
 32
0.0
 71
     5
 42
-1.0
  3
INABA_S50G
100
AcDbAlignedDimension
 13
2585.994140400603
 23
2654.271234847376
 33
0.0
 14
1031.994140400602
 24
2654.271234847376
 34
0.0
100
AcDbRotatedDimension
1001
ACAD
1000
DSTYLE
1002
{
1070
    40
1040
1.0
1070
    75
1070
     1
1070
   279
1070
     1
1002
}
  0
DIMENSION
  5
1E262
330
1E256
100
AcDbEntity
  8
寸法
 48
50.0
100
AcDbDimension
  2
*D5
 10
2708.994140400602
 20
3665.93885466453
 30
0.0
 11
1808.994140400602
 21
3765.93885466453
 31
0.0
 12
-2587.005859599398
 22
-5276.728765152624
 32
0.0
 71
     5
 42
-1.0
  3
INABA_S50G
100
AcDbAlignedDimension
 13
908.9941404006022
 23
2727.271234847376
 33
0.0
 14
2708.994140400602
 24
2727.271234847376
 34
0.0
100
AcDbRotatedDimension
1001
ACAD
1000
DSTYLE
1002
{
1070
    40
1040
1.0
1070
    75
1070
     1
1070
   279
1070
     1
1002
}
  0
DIMENSION
  5
1E263
330
1E256
100
AcDbEntity
  8
寸法
 48
50.0
100
AcDbDimension
  2
*D23
 10
908.9941404006022
 20
3254.181000495704
 30
0.0
 11
1358.994140400602
 21
3354.181000495704
 31
0.0
 12
-2587.005859599398
 22
-1276.728765152624
 32
0.0
 71
     5
 42
-1.0
  3
INABA_S50G
100
AcDbAlignedDimension
 13
1808.994140400602
 23
2027.271234847376
 33
0.0
 14
908.9941404006022
 24
2727.271234847376
 34
0.0
100
AcDbRotatedDimension
1001
ACAD
1000
DSTYLE
1002
{
1070
    40
1040
1.0
1070
    75
1070
     1
1070
   279
1070
     1
1070
   288
1070
     1
1002
}
  0
DIMENSION
  5
1E264
330
1E256
100
AcDbEntity
  8
寸法
 48
50.0
100
AcDbDimension
  2
*D20
 10
1008.9941404006
 20
1579.881729678676
 30
0.0
 11
697.9539776434176
 21
1579.881729678676
 31
0.0
 12
-2587.005859599398
 22
-1276.728765152624
 32
0.0
 70
   128
 71
     5
 42
-1.0
  3
INABA_S50G
100
AcDbAlignedDimension
 13
1208.994140400603
 23
1227.271234847383
 33
0.0
 14
1008.9941404006
 24
1227.271234847379
 34
0.0
100
AcDbRotatedDimension
1001
ACAD
1000
DSTYLE
1002
{
1070
    40
1040
1.0
1002
}
  0
LINE
  5
1E265
330
1E256
100
AcDbEntity
  8
部品1
 48
50.0
100
AcDbLine
 10
1008.994140400602
 20
1027.27123484738
 30
0.0
 11
1008.994140400602
 21
2627.271234847373
 31
0.0
  0
DIMENSION
  5
1E266
330
1E256
100
AcDbEntity
  8
寸法
 48
50.0
100
AcDbDimension
  2
*D12
 10
413.0518743867797
 20
1125.271234847378
 30
0.0
 11
413.0518743867797
 21
1827.271234847376
 31
0.0
 12
-2587.005859599398
 22
-1276.728765152624
 32
0.0
 70
   128
 71
     5
 42
-1.0
  3
INABA_S50G
100
AcDbAlignedDimension
 13
981.9941404006021
 23
2604.271234847376
 33
0.0
 14
981.9941404006085
 24
1125.271234847378
 34
0.0
 50
90.0
100
AcDbRotatedDimension
1001
ACAD
1000
DSTYLE
1002
{
1070
   288
1070
     1
1070
    40
1040
1.0
1002
}
  0
DIMENSION
  5
1E267
330
1E256
100
AcDbEntity
  8
寸法
 48
50.0
100
AcDbDimension
  2
*D15
 10
167.5590722488123
 20
927.271234847376
 30
0.0
 11
67.5590722488123
 21
1827.271234847376
 31
0.0
 12
-2587.005859599398
 22
-1276.728765152624
 32
0.0
 71
     5
 42
-1.0
  3
INABA_S50G
100
AcDbAlignedDimension
 13
908.9941404006022
 23
2727.271234847376
 33
0.0
 14
908.9941404006022
 24
927.271234847376
 34
0.0
 50
90.0
100
AcDbRotatedDimension
1001
ACAD
1000
DSTYLE
1002
{
1070
    40
1040
1.0
1070
    75
1070
     1
1070
   279
1070
     1
1002
}
  0
LINE
  5
1E268
330
1E256
100
AcDbEntity
  8
想像線
 48
10.0
100
AcDbLine
 10
858.9941404006022
 20
797.271234847376
 30
0.0
 11
858.9941404006022
 21
2817.27123484738
 31
0.0
  0
LINE
  5
1E269
330
1E256
100
AcDbEntity
  8
部品1
 48
50.0
100
AcDbLine
 10
908.9941404006022
 20
927.271234847376
 30
0.0
 11
908.9941404006022
 21
2727.271234847376
 31
0.0
  0
DIMENSION
  5
1E26A
330
1E256
100
AcDbEntity
  8
寸法
 48
50.0
100
AcDbDimension
  2
*D14
 10
167.5590722488123
 20
797.271234847376
 30
0.0
 11
67.5590722488123
 21
1282.271234847376
 31
0.0
 12
-2587.005859599398
 22
-5696.728765152624
 32
0.0
  1
b
 71
     5
 42
-1.0
  3
INABA_S50G
100
AcDbAlignedDimension
 13
908.9941404006022
 23
927.271234847376
 33
0.0
 14
413.0518743867797
 24
797.271234847376
 34
0.0
 50
90.0
100
AcDbRotatedDimension
1001
ACAD
1000
DSTYLE
1002
{
1070
    40
1040
1.0
1002
}
  0
DIMENSION
  5
1E26B
330
1E256
100
AcDbEntity
  8
寸法
 48
50.0
100
AcDbDimension
  2
*D9
 10
413.0518743867797
 20
927.271234847376
 30
0.0
 11
413.0518743867797
 21
591.7402860047841
 31
0.0
 12
-2587.005859599398
 22
-5696.728765152624
 32
0.0
 70
   128
 71
     5
 42
-1.0
  3
INABA_S50G
100
AcDbAlignedDimension
 13
981.9941404006085
 23
1125.271234847378
 33
0.0
 14
908.9941404006022
 24
927.271234847376
 34
0.0
 50
90.0
100
AcDbRotatedDimension
1001
ACAD
1000
DSTYLE
1002
{
1070
    40
1040
1.0
1002
}
  0
LINE
  5
1E26C
330
1E256
100
AcDbEntity
  8
部品1
 48
50.0
100
AcDbLine
 10
1008.994140400602
 20
1427.27123484738
 30
0.0
 11
908.9941404006022
 21
1427.27123484738
 31
0.0
  0
LINE
  5
1E26D
330
1E256
100
AcDbEntity
  8
点線
 48
10.0
100
AcDbLine
 10
1208.994140400603
 20
1027.27123484738
 30
0.0
 11
1208.994140400603
 21
1227.271234847383
 31
0.0
  0
LINE
  5
1E26E
330
1E256
100
AcDbEntity
  8
センター
 48
2.0
100
AcDbLine
 10
981.9941404006085
 20
1125.271234847378
 30
0.0
 11
1081.994140400608
 21
1125.271234847378
 31
0.0
  0
LINE
  5
1E26F
330
1E256
100
AcDbEntity
  8
センター
 48
2.0
100
AcDbLine
 10
1031.994140400608
 20
1175.271234847378
 30
0.0
 11
1031.994140400608
 21
1075.271234847378
 31
0.0
  0
LINE
  5
1E270
330
1E256
100
AcDbEntity
  8
部品1
 48
50.0
100
AcDbLine
 10
1308.994140400602
 20
927.271234847376
 30
0.0
 11
1308.994140400602
 21
1027.271234847383
 31
0.0
  0
LINE
  5
1E271
330
1E256
100
AcDbEntity
  8
点線
 48
10.0
100
AcDbLine
 10
1208.994140400603
 20
1227.271234847383
 30
0.0
 11
1008.9941404006
 21
1227.271234847379
 31
0.0
  0
LINE
  5
1E272
330
1E256
100
AcDbEntity
  8
部品1
 48
50.0
100
AcDbLine
 10
1308.994140400602
 20
2627.271234847374
 30
0.0
 11
1308.994140400602
 21
2727.271234847382
 31
0.0
  0
DIMENSION
  5
1E273
330
1E256
100
AcDbEntity
  8
寸法
 48
50.0
100
AcDbDimension
  2
*D13
 10
413.0518743867797
 20
2604.271234847376
 30
0.0
 11
413.0518743867797
 21
3000.377836565175
 31
0.0
 12
-2587.005859599398
 22
-5276.728765152624
 32
0.0
 70
   128
 71
     5
 42
-1.0
  3
INABA_S50G
100
AcDbAlignedDimension
 13
908.9941404006022
 23
2727.271234847376
 33
0.0
 14
981.9941404006021
 24
2604.271234847376
 34
0.0
 50
90.0
100
AcDbRotatedDimension
1001
ACAD
1000
DSTYLE
1002
{
1070
    40
1040
1.0
1002
}
  0
DIMENSION
  5
1E274
330
1E256
100
AcDbEntity
  8
寸法
 48
50.0
100
AcDbDimension
  2
*D16
 10
167.5590722488123
 20
2727.271234847376
 30
0.0
 11
67.5590722488123
 21
2772.271234847374
 31
0.0
 12
-2587.005859599398
 22
-5276.728765152624
 32
0.0
  1
c
 71
     5
 42
-1.0
  3
INABA_S50G
100
AcDbAlignedDimension
 13
413.0518743867797
 23
2817.271234847373
 33
0.0
 14
908.9941404006022
 24
2727.271234847376
 34
0.0
 50
90.0
100
AcDbRotatedDimension
1001
ACAD
1000
DSTYLE
1002
{
1070
    40
1040
1.0
1002
}
  0
DIMENSION
  5
1E275
330
1E256
100
AcDbEntity
  8
寸法
 48
50.0
100
AcDbDimension
  2
*D11
 10
908.9941404006022
 20
3453.478159147693
 30
0.0
 11
628.6277673437908
 21
3453.478159147693
 31
0.0
 12
-2587.005859599398
 22
-5276.728765152624
 32
0.0
 70
   128
 71
     5
 42
-1.0
  3
INABA_S50G
100
AcDbAlignedDimension
 13
1031.994140400602
 23
2654.271234847376
 33
0.0
 14
908.9941404006022
 24
2727.271234847376
 34
0.0
100
AcDbRotatedDimension
1001
ACAD
1000
DSTYLE
1002
{
1070
    40
1040
1.0
1002
}
  0
LINE
  5
1E276
330
1E256
100
AcDbEntity
  8
部品1
 48
50.0
100
AcDbLine
 10
1008.994140400602
 20
1827.271234847379
 30
0.0
 11
908.9941404006022
 21
1827.271234847379
 31
0.0
  0
LINE
  5
1E277
330
1E256
100
AcDbEntity
  8
部品1
 48
50.0
100
AcDbLine
 10
1008.994140400602
 20
2227.271234847375
 30
0.0
 11
908.9941404006022
 21
2227.271234847374
 31
0.0
  0
LINE
  5
1E278
330
1E256
100
AcDbEntity
  8
点線
 48
10.0
100
AcDbLine
 10
1208.994140400601
 20
2427.271234847373
 30
0.0
 11
1008.994140400602
 21
2427.271234847375
 31
0.0
  0
LINE
  5
1E279
330
1E256
100
AcDbEntity
  8
センター
 48
2.0
100
AcDbLine
 10
1031.994140400602
 20
2654.271234847376
 30
0.0
 11
1031.994140400602
 21
2554.271234847376
 31
0.0
  0
LINE
  5
1E27A
330
1E256
100
AcDbEntity
  8
センター
 48
2.0
100
AcDbLine
 10
981.9941404006021
 20
2604.271234847376
 30
0.0
 11
1081.994140400602
 21
2604.271234847376
 31
0.0
  0
LINE
  5
1E27B
330
1E256
100
AcDbEntity
  8
点線
 48
10.0
100
AcDbLine
 10
1208.994140400601
 20
2427.271234847373
 30
0.0
 11
1208.994140400602
 21
2627.271234847373
 31
0.0
  0
DIMENSION
  5
1E27C
330
1E256
100
AcDbEntity
  8
寸法
 48
50.0
100
AcDbDimension
  2
*D10
 10
908.9941404006022
 20
3665.938854664532
 30
0.0
 11
669.0160925585151
 21
3665.938854664532
 31
0.0
 12
-2587.005859599398
 22
-5276.728765152624
 32
0.0
 70
   128
  1
a
 71
     5
 42
-1.0
  3
INABA_S50G
100
AcDbAlignedDimension
 13
851.734369061589
 23
3453.478159147689
 33
0.0
 14
908.9941404006022
 24
2727.271234847376
 34
0.0
100
AcDbRotatedDimension
1001
ACAD
1000
DSTYLE
1002
{
1070
    40
1040
1.0
1002
}
  0
LINE
  5
1E27D
330
1E256
100
AcDbEntity
  8
部品1
 48
50.0
100
AcDbLine
 10
1312.994140400602
 20
2727.271234847373
 30
0.0
 11
908.9941404006022
 21
2727.271234847376
 31
0.0
  0
LINE
  5
1E27E
330
1E256
100
AcDbEntity
  8
部品1
 48
50.0
100
AcDbLine
 10
2608.994140400602
 20
1027.271234847396
 30
0.0
 11
2608.994140400601
 21
2627.271234847373
 31
0.0
  0
LINE
  5
1E27F
330
1E256
100
AcDbEntity
  8
想像線
 48
10.0
100
AcDbLine
 10
2758.994140400603
 20
2817.27123484738
 30
0.0
 11
2758.994140400606
 21
797.271234847376
 31
0.0
  0
LINE
  5
1E280
330
1E256
100
AcDbEntity
  8
部品1
 48
50.0
100
AcDbLine
 10
2708.994140400602
 20
927.2712348473943
 30
0.0
 11
2708.994140400602
 21
2727.271234847376
 31
0.0
  0
DIMENSION
  5
1E281
330
1E256
100
AcDbEntity
  8
寸法
 48
50.0
100
AcDbDimension
  2
*D21
 10
2208.260957831161
 20
1827.271234847376
 30
0.0
 11
2208.260957831161
 21
1377.271234847381
 31
0.0
 12
-2587.005859599398
 22
-1276.728765152624
 32
0.0
 70
   128
 71
     5
 42
-1.0
  3
INABA_S50G
100
AcDbAlignedDimension
 13
1808.994140400602
 23
927.271234847385
 33
0.0
 14
1858.994140400602
 24
1827.271234847376
 34
0.0
 50
90.0
100
AcDbRotatedDimension
1001
ACAD
1000
DSTYLE
1002
{
1070
   288
1070
     1
1070
    40
1040
1.0
1002
}
  0
DIMENSION
  5
1E282
330
1E256
100
AcDbEntity
  8
寸法
 48
50.0
100
AcDbDimension
  2
*D25
 10
2708.994140400602
 20
1306.97155591226
 30
0.0
 11
2979.053195518713
 21
1306.97155591226
 31
0.0
 12
-2587.005859599398
 22
-5696.728765152624
 32
0.0
 70
   128
 71
     5
 42
-1.0
  3
INABA_S50G
100
AcDbAlignedDimension
 13
2608.994140400602
 23
1407.271234847383
 33
0.0
 14
2708.994140400602
 24
1407.271234847383
 34
0.0
100
AcDbRotatedDimension
1001
ACAD
1000
DSTYLE
1002
{
1070
    40
1040
1.0
1002
}
  0
TEXT
  5
1E283
330
1E256
100
AcDbEntity
  8
寸法
 48
50.0
100
AcDbText
 10
1431.428391756737
 20
210.9080740941899
 30
0.0
 40
150.0
  1
MBW-32
  7
STYLE2
100
AcDbText
  0
TEXT
  5
1E284
330
1E256
100
AcDbEntity
  8
寸法
 48
50.0
100
AcDbText
 10
1431.428391756737
 20
40.90807409418994
 30
0.0
 40
150.0
  1
MBW-32H
  7
STYLE2
100
AcDbText
  0
TEXT
  5
1E285
330
1E256
100
AcDbEntity
  8
寸法
 48
50.0
100
AcDbText
 10
1679.121083237383
 20
648.2218646227884
 30
0.0
 40
120.0
  1
扉面
  7
STYLE1
100
AcDbText
  0
LINE
  5
1E286
330
1E256
100
AcDbEntity
  8
部品1
 48
50.0
100
AcDbLine
 10
1908.994140400602
 20
1127.27123484739
 30
0.0
 11
1708.994140400602
 21
1127.271234847389
 31
0.0
  0
LINE
  5
1E287
330
1E256
100
AcDbEntity
  8
部品1
 48
50.0
100
AcDbLine
 10
1708.994140400602
 20
1127.271234847389
 30
0.0
 11
1708.994140400602
 21
1027.271234847389
 31
0.0
  0
LINE
  5
1E288
330
1E256
100
AcDbEntity
  8
部品1
 48
50.0
100
AcDbLine
 10
1708.994140400602
 20
927.2712348473797
 30
0.0
 11
1708.994140400602
 21
1027.271234847387
 31
0.0
  0
LINE
  5
1E289
330
1E256
100
AcDbEntity
  8
部品1
 48
50.0
100
AcDbLine
 10
1908.994140400602
 20
1127.271234847389
 30
0.0
 11
1908.994140400602
 21
1027.271234847389
 31
0.0
  0
LINE
  5
1E28A
330
1E256
100
AcDbEntity
  8
部品1
 48
50.0
100
AcDbLine
 10
2108.994140400602
 20
927.271234847376
 30
0.0
 11
2108.994140400602
 21
1027.271234847383
 31
0.0
  0
LINE
  5
1E28B
330
1E256
100
AcDbEntity
  8
センター
 48
2.0
100
AcDbLine
 10
2535.994140400609
 20
1125.271234847378
 30
0.0
 11
2635.994140400609
 21
1125.271234847378
 31
0.0
  0
LINE
  5
1E28C
330
1E256
100
AcDbEntity
  8
点線
 48
10.0
100
AcDbLine
 10
2608.9941404006
 20
1227.271234847396
 30
0.0
 11
2408.994140400601
 21
1227.271234847394
 31
0.0
  0
LINE
  5
1E28D
330
1E256
100
AcDbEntity
  8
点線
 48
10.0
100
AcDbLine
 10
2408.994140400603
 20
1027.271234847396
 30
0.0
 11
2408.994140400601
 21
1227.271234847394
 31
0.0
  0
LINE
  5
1E28E
330
1E256
100
AcDbEntity
  8
部品1
 48
50.0
100
AcDbLine
 10
2308.994140400602
 20
927.2712348473943
 30
0.0
 11
2308.994140400602
 21
1027.27123484739
 31
0.0
  0
LINE
  5
1E28F
330
1E256
100
AcDbEntity
  8
センター
 48
2.0
100
AcDbLine
 10
2585.994140400609
 20
1175.271234847378
 30
0.0
 11
2585.994140400609
 21
1075.271234847378
 31
0.0
  0
LINE
  5
1E290
330
1E256
100
AcDbEntity
  8
部品1
 48
50.0
100
AcDbLine
 10
2708.994140400603
 20
1427.271234847398
 30
0.0
 11
2608.994140400601
 21
1427.271234847396
 31
0.0
  0
DIMENSION
  5
1E291
330
1E256
100
AcDbEntity
  8
寸法
 48
50.0
100
AcDbDimension
  2
*D18
 10
2585.994140400603
 20
3453.478159147693
 30
0.0
 11
2982.100742118401
 21
3453.478159147693
 31
0.0
 12
-2587.005859599398
 22
-5276.728765152624
 32
0.0
 70
   128
 71
     5
 42
-1.0
  3
INABA_S50G
100
AcDbAlignedDimension
 13
2708.994140400602
 23
2727.271234847376
 33
0.0
 14
2585.994140400603
 24
2654.271234847376
 34
0.0
100
AcDbRotatedDimension
1001
ACAD
1000
DSTYLE
1002
{
1070
    40
1040
1.0
1002
}
  0
DIMENSION
  5
1E292
330
1E256
100
AcDbEntity
  8
寸法
 48
50.0
100
AcDbDimension
  2
*D17
 10
2751.734369061589
 20
3665.938854664532
 30
0.0
 11
3059.452645564663
 21
3665.938854664532
 31
0.0
 12
-2587.005859599398
 22
-5276.728765152624
 32
0.0
 70
   128
  1
a
 71
     5
 42
-1.0
  3
INABA_S50G
100
AcDbAlignedDimension
 13
2708.994140400602
 23
2727.271234847376
 33
0.0
 14
2751.734369061589
 24
3453.478159147695
 34
0.0
100
AcDbRotatedDimension
1001
ACAD
1000
DSTYLE
1002
{
1070
    40
1040
1.0
1002
}
  0
LINE
  5
1E293
330
1E256
100
AcDbEntity
  8
部品1
 48
50.0
100
AcDbLine
 10
2308.994140400602
 20
2627.271234847392
 30
0.0
 11
2308.994140400602
 21
2727.271234847389
 31
0.0
  0
LINE
  5
1E294
330
1E256
100
AcDbEntity
  8
部品1
 48
50.0
100
AcDbLine
 10
2108.994140400602
 20
2627.271234847374
 30
0.0
 11
2108.994140400602
 21
2727.271234847382
 31
0.0
  0
LINE
  5
1E295
330
1E256
100
AcDbEntity
  8
部品1
 48
50.0
100
AcDbLine
 10
1708.994140400602
 20
2627.271234847378
 30
0.0
 11
1708.994140400602
 21
2727.271234847385
 31
0.0
  0
DIMENSION
  5
1E296
330
1E256
100
AcDbEntity
  8
寸法
 48
50.0
100
AcDbDimension
  2
*D19
 10
2366.841588969379
 20
2627.271234847374
 30
0.0
 11
2366.841588969379
 21
2997.330289965487
 31
0.0
 12
-2587.005859599398
 22
-5276.728765152624
 32
0.0
 70
   128
 71
     5
 42
-1.0
  3
INABA_S50G
100
AcDbAlignedDimension
 13
2153.912786690133
 23
2727.271234847376
 33
0.0
 14
2153.912786690133
 24
2627.271234847374
 34
0.0
 50
90.0
100
AcDbRotatedDimension
1001
ACAD
1000
DSTYLE
1002
{
1070
    40
1040
1.0
1002
}
  0
DIMENSION
  5
1E297
330
1E256
100
AcDbEntity
  8
寸法
 48
50.0
100
AcDbDimension
  2
*D22
 10
2208.260957831161
 20
2727.271234847376
 30
0.0
 11
2108.260957831161
 21
2277.271234847376
 31
0.0
 12
-2587.005859599398
 22
-1276.728765152624
 32
0.0
 71
     5
 42
-1.0
  3
INABA_S50G
100
AcDbAlignedDimension
 13
1858.994140400602
 23
1827.271234847376
 33
0.0
 14
1808.994140400602
 24
2727.271234847376
 34
0.0
 50
90.0
100
AcDbRotatedDimension
1001
ACAD
1000
DSTYLE
1002
{
1070
    40
1040
1.0
1070
    75
1070
     1
1070
   279
1070
     1
1070
   288
1070
     1
1002
}
  0
DIMENSION
  5
1E298
330
1E256
100
AcDbEntity
  8
寸法
 48
50.0
100
AcDbDimension
  2
*D24
 10
1808.994140400602
 20
3254.181000495704
 30
0.0
 11
2279.912662406881
 21
3254.181000495704
 31
0.0
 12
-2587.005859599398
 22
-1276.728765152624
 32
0.0
 70
   128
 71
     5
 42
-1.0
  3
INABA_S50G
100
AcDbAlignedDimension
 13
2708.994140400602
 23
2727.271234847376
 33
0.0
 14
1808.994140400602
 24
2027.271234847376
 34
0.0
100
AcDbRotatedDimension
1001
ACAD
1000
DSTYLE
1002
{
1070
   288
1070
     1
1070
    40
1040
1.0
1002
}
  0
LINE
  5
1E299
330
1E256
100
AcDbEntity
  8
部品1
 48
50.0
100
AcDbLine
 10
1908.994140400602
 20
2027.271234847376
 30
0.0
 11
1708.994140400602
 21
2027.271234847376
 31
0.0
  0
LINE
  5
1E29A
330
1E256
100
AcDbEntity
  8
部品1
 48
50.0
100
AcDbLine
 10
1908.994140400602
 20
1627.271234847374
 30
0.0
 11
1708.994140400602
 21
1627.271234847374
 31
0.0
  0
LINE
  5
1E29B
330
1E256
100
AcDbEntity
  8
センター
 48
2.0
100
AcDbLine
 10
1758.994140400602
 20
1827.271234847376
 30
0.0
 11
1858.994140400602
 21
1827.271234847376
 31
0.0
  0
LINE
  5
1E29C
330
1E256
100
AcDbEntity
  8
部品1
 48
50.0
100
AcDbLine
 10
1708.994140400602
 20
1627.271234847376
 30
0.0
 11
1708.994140400602
 21
2027.271234847376
 31
0.0
  0
LINE
  5
1E29D
330
1E256
100
AcDbEntity
  8
部品1
 48
50.0
100
AcDbLine
 10
1908.994140400602
 20
1627.271234847374
 30
0.0
 11
1908.994140400602
 21
2027.271234847376
 31
0.0
  0
LINE
  5
1E29E
330
1E256
100
AcDbEntity
  8
センター
 48
2.0
100
AcDbLine
 10
1808.994140400602
 20
1877.271234847376
 30
0.0
 11
1808.994140400602
 21
1777.271234847376
 31
0.0
  0
LINE
  5
1E29F
330
1E256
100
AcDbEntity
  8
部品1
 48
50.0
100
AcDbLine
 10
2708.994140400603
 20
1827.271234847398
 30
0.0
 11
2608.994140400601
 21
1827.271234847396
 31
0.0
  0
LINE
  5
1E2A0
330
1E256
100
AcDbEntity
  8
点線
 48
10.0
100
AcDbLine
 10
2608.994140400601
 20
2427.271234847375
 30
0.0
 11
2408.994140400603
 21
2427.271234847375
 31
0.0
  0
LINE
  5
1E2A1
330
1E256
100
AcDbEntity
  8
センター
 48
2.0
100
AcDbLine
 10
2535.994140400602
 20
2604.271234847376
 30
0.0
 11
2635.994140400602
 21
2604.271234847376
 31
0.0
  0
LINE
  5
1E2A2
330
1E256
100
AcDbEntity
  8
点線
 48
10.0
100
AcDbLine
 10
2408.994140400603
 20
2427.271234847375
 30
0.0
 11
2408.994140400601
 21
2627.271234847373
 31
0.0
  0
LINE
  5
1E2A3
330
1E256
100
AcDbEntity
  8
部品1
 48
50.0
100
AcDbLine
 10
2708.994140400603
 20
2227.271234847374
 30
0.0
 11
2608.994140400602
 21
2227.271234847374
 31
0.0
  0
LINE
  5
1E2A4
330
1E256
100
AcDbEntity
  8
センター
 48
2.0
100
AcDbLine
 10
2585.994140400603
 20
2654.271234847376
 30
0.0
 11
2585.994140400603
 21
2554.271234847376
 31
0.0
  0
ENDBLK
  5
1E2A6
330
1E256
100
AcDbEntity
  8
0
 48
50.0
100
AcDbBlockEnd
  0
BLOCK
  5
1E908
330
1E8FE
100
AcDbEntity
  8
0
 48
50.0
100
AcDbBlockBegin
  2
*D27
 70
     1
 10
0.0
 20
0.0
 30
0.0
  3
*D27
  1

  0
LINE
  5
1FE2F
330
1E8FE
100
AcDbEntity
  8
寸法
 62
     0
 48
50.0
370
    -2
100
AcDbLine
 10
8359.600000000002
 20
7732.000000000003
 30
0.0
 11
8359.600000000002
 21
8280.624237135963
 31
0.0
  0
LINE
  5
1FE30
330
1E8FE
100
AcDbEntity
  8
寸法
 62
     0
 48
50.0
370
    -2
100
AcDbLine
 10
9119.599999999998
 20
7732.0
 30
0.0
 11
9119.599999999998
 21
8280.624237135963
 31
0.0
  0
LINE
  5
1FE31
330
1E8FE
100
AcDbEntity
  8
寸法
 62
     0
 48
50.0
370
    -2
100
AcDbLine
 10
8359.600000000002
 20
8220.624237135963
 30
0.0
 11
9119.599999999998
 21
8220.624237135963
 31
0.0
  0
INSERT
  5
1FE32
330
1E8FE
100
AcDbEntity
  8
寸法
 62
     0
 48
50.0
370
    -2
100
AcDbBlockReference
  2
_DOTSMALL
 10
8359.600000000002
 20
8220.624237135963
 30
0.0
 41
100.0
 42
100.0
 43
100.0
 50
180.0
  0
INSERT
  5
1FE33
330
1E8FE
100
AcDbEntity
  8
寸法
 62
     0
 48
50.0
370
    -2
100
AcDbBlockReference
  2
_DOTSMALL
 10
9119.599999999998
 20
8220.624237135963
 30
0.0
 41
100.0
 42
100.0
 43
100.0
  0
MTEXT
  5
1FE34
330
1E8FE
100
AcDbEntity
  8
寸法
 62
     7
 48
50.0
100
AcDbMText
 10
8739.600000000001
 20
8320.624237135962
 30
0.0
 40
120.0
 41
0.0
 71
     5
 72
     1
  1
\A1;760
  7
STYLE1
 73
     1
 44
1.0
1001
ACAD
1000
MTEXTBEGIN
1070
    73
1070
     1
1070
    44
1040
1.0
1070
    74
1070
     0
1000
MTEXTEND
  0
POINT
  5
1FE35
330
1E8FE
100
AcDbEntity
  8
DEFPOINTS
 62
     0
 48
50.0
100
AcDbPoint
 10
8359.600000000002
 20
7712.000000000003
 30
0.0
  0
POINT
  5
1FE36
330
1E8FE
100
AcDbEntity
  8
DEFPOINTS
 62
     0
 48
50.0
100
AcDbPoint
 10
9119.599999999998
 20
7712.0
 30
0.0
  0
POINT
  5
1FE37
330
1E8FE
100
AcDbEntity
  8
DEFPOINTS
 62
     0
 48
50.0
100
AcDbPoint
 10
9119.599999999998
 20
8220.624237135963
 30
0.0
  0
ENDBLK
  5
1E909
330
1E8FE
100
AcDbEntity
  8
0
 48
50.0
100
AcDbBlockEnd
  0
BLOCK
  5
1E914
330
1E90A
100
AcDbEntity
  8
0
 48
50.0
100
AcDbBlockBegin
  2
*D28
 70
     1
 10
0.0
 20
0.0
 30
0.0
  3
*D28
  1

  0
LINE
  5
1FE38
330
1E90A
100
AcDbEntity
  8
寸法
 62
     0
 48
50.0
370
    -2
100
AcDbLine
 10
7667.600000000003
 20
7732.000000000005
 30
0.0
 11
7667.600000000003
 21
8280.624237135963
 31
0.0
  0
LINE
  5
1FE39
330
1E90A
100
AcDbEntity
  8
寸法
 62
     0
 48
50.0
370
    -2
100
AcDbLine
 10
6907.599999999999
 20
7732.0
 30
0.0
 11
6907.599999999999
 21
8280.624237135963
 31
0.0
  0
LINE
  5
1FE3A
330
1E90A
100
AcDbEntity
  8
寸法
 62
     0
 48
50.0
370
    -2
100
AcDbLine
 10
7667.600000000003
 20
8220.624237135963
 30
0.0
 11
6907.599999999999
 21
8220.624237135963
 31
0.0
  0
INSERT
  5
1FE3B
330
1E90A
100
AcDbEntity
  8
寸法
 62
     0
 48
50.0
370
    -2
100
AcDbBlockReference
  2
_DOTSMALL
 10
7667.600000000003
 20
8220.624237135963
 30
0.0
 41
100.0
 42
100.0
 43
100.0
  0
INSERT
  5
1FE3C
330
1E90A
100
AcDbEntity
  8
寸法
 62
     0
 48
50.0
370
    -2
100
AcDbBlockReference
  2
_DOTSMALL
 10
6907.599999999999
 20
8220.624237135963
 30
0.0
 41
100.0
 42
100.0
 43
100.0
 50
180.0
  0
MTEXT
  5
1FE3D
330
1E90A
100
AcDbEntity
  8
寸法
 62
     7
 48
50.0
100
AcDbMText
 10
7287.600000000001
 20
8320.624237135962
 30
0.0
 40
120.0
 41
0.0
 71
     5
 72
     1
  1
\A1;760
  7
STYLE1
 73
     1
 44
1.0
1001
ACAD
1000
MTEXTBEGIN
1070
    73
1070
     1
1070
    44
1040
1.0
1070
    74
1070
     0
1000
MTEXTEND
  0
POINT
  5
1FE3E
330
1E90A
100
AcDbEntity
  8
DEFPOINTS
 62
     0
 48
50.0
100
AcDbPoint
 10
7667.600000000003
 20
7712.000000000006
 30
0.0
  0
POINT
  5
1FE3F
330
1E90A
100
AcDbEntity
  8
DEFPOINTS
 62
     0
 48
50.0
100
AcDbPoint
 10
6907.599999999999
 20
7712.0
 30
0.0
  0
POINT
  5
1FE40
330
1E90A
100
AcDbEntity
  8
DEFPOINTS
 62
     0
 48
50.0
100
AcDbPoint
 10
6907.599999999999
 20
8220.624237135963
 30
0.0
  0
ENDBLK
  5
1E915
330
1E90A
100
AcDbEntity
  8
0
 48
50.0
100
AcDbBlockEnd
  0
BLOCK
  5
1E920
330
1E916
100
AcDbEntity
  8
0
 48
50.0
100
AcDbBlockBegin
  2
*D29
 70
     1
 10
0.0
 20
0.0
 30
0.0
  3
*D29
  1

  0
LINE
  5
1FE41
330
1E916
100
AcDbEntity
  8
寸法
 62
     0
 48
50.0
370
    -2
100
AcDbLine
 10
7667.600000000003
 20
7732.000000000005
 30
0.0
 11
7667.600000000003
 21
8280.624237135963
 31
0.0
  0
LINE
  5
1FE42
330
1E916
100
AcDbEntity
  8
寸法
 62
     0
 48
50.0
370
    -2
100
AcDbLine
 10
8359.600000000002
 20
7732.000000000003
 30
0.0
 11
8359.600000000002
 21
8280.624237135963
 31
0.0
  0
LINE
  5
1FE43
330
1E916
100
AcDbEntity
  8
寸法
 62
     0
 48
50.0
370
    -2
100
AcDbLine
 10
7667.600000000003
 20
8220.624237135963
 30
0.0
 11
8359.600000000002
 21
8220.624237135963
 31
0.0
  0
INSERT
  5
1FE44
330
1E916
100
AcDbEntity
  8
寸法
 62
     0
 48
50.0
370
    -2
100
AcDbBlockReference
  2
_DOTSMALL
 10
7667.600000000003
 20
8220.624237135963
 30
0.0
 41
100.0
 42
100.0
 43
100.0
 50
180.0
  0
INSERT
  5
1FE45
330
1E916
100
AcDbEntity
  8
寸法
 62
     0
 48
50.0
370
    -2
100
AcDbBlockReference
  2
_DOTSMALL
 10
8359.600000000002
 20
8220.624237135963
 30
0.0
 41
100.0
 42
100.0
 43
100.0
  0
MTEXT
  5
1FE46
330
1E916
100
AcDbEntity
  8
寸法
 62
     7
 48
50.0
100
AcDbMText
 10
8013.600000000002
 20
8320.665049700766
 30
0.0
 40
120.0
 41
0.0
 71
     5
 72
     1
  1
\A1;692
  7
STYLE1
 73
     1
 44
1.0
1001
ACAD
1000
MTEXTBEGIN
1070
    73
1070
     1
1070
    44
1040
1.0
1070
    74
1070
     0
1000
MTEXTEND
  0
POINT
  5
1FE47
330
1E916
100
AcDbEntity
  8
DEFPOINTS
 62
     0
 48
50.0
100
AcDbPoint
 10
7667.600000000003
 20
7712.000000000006
 30
0.0
  0
POINT
  5
1FE48
330
1E916
100
AcDbEntity
  8
DEFPOINTS
 62
     0
 48
50.0
100
AcDbPoint
 10
8359.600000000002
 20
7712.000000000003
 30
0.0
  0
POINT
  5
1FE49
330
1E916
100
AcDbEntity
  8
DEFPOINTS
 62
     0
 48
50.0
100
AcDbPoint
 10
8359.600000000002
 20
8220.624237135963
 30
0.0
  0
ENDBLK
  5
1E921
330
1E916
100
AcDbEntity
  8
0
 48
50.0
100
AcDbBlockEnd
  0
BLOCK
  5
1E92E
330
1E922
100
AcDbEntity
  8
0
 48
50.0
100
AcDbBlockBegin
  2
*D30
 70
     1
 10
0.0
 20
0.0
 30
0.0
  3
*D30
  1

  0
LINE
  5
1FE4A
330
1E922
100
AcDbEntity
  8
寸法
 62
     0
 48
50.0
370
    -2
100
AcDbLine
 10
9119.599999999998
 20
7732.0
 30
0.0
 11
9119.599999999998
 21
8538.551625802021
 31
0.0
  0
LINE
  5
1FE4B
330
1E922
100
AcDbEntity
  8
寸法
 62
     0
 48
50.0
370
    -2
100
AcDbLine
 10
9169.599999999999
 20
7812.000000000003
 30
0.0
 11
9169.599999999999
 21
8538.551625802021
 31
0.0
  0
LINE
  5
1FE4C
330
1E922
100
AcDbEntity
  8
寸法
 62
     0
 48
50.0
370
    -2
100
AcDbLine
 10
9119.599999999998
 20
8478.551625802023
 30
0.0
 11
9019.599999999998
 21
8478.551625802023
 31
0.0
  0
LINE
  5
1FE4D
330
1E922
100
AcDbEntity
  8
寸法
 62
     0
 48
50.0
370
    -2
100
AcDbLine
 10
9169.599999999999
 20
8478.551625802023
 30
0.0
 11
9269.599999999998
 21
8478.551625802023
 31
0.0
  0
LINE
  5
1FE4E
330
1E922
100
AcDbEntity
  8
寸法
 62
     0
 48
50.0
370
    -2
100
AcDbLine
 10
9119.599999999998
 20
8478.551625802023
 30
0.0
 11
9169.599999999999
 21
8478.551625802023
 31
0.0
  0
INSERT
  5
1FE4F
330
1E922
100
AcDbEntity
  8
寸法
 62
     0
 48
50.0
370
    -2
100
AcDbBlockReference
  2
_DOTSMALL
 10
9119.599999999998
 20
8478.551625802023
 30
0.0
 41
100.0
 42
100.0
 43
100.0
  0
INSERT
  5
1FE50
330
1E922
100
AcDbEntity
  8
寸法
 62
     0
 48
50.0
370
    -2
100
AcDbBlockReference
  2
_DOTSMALL
 10
9169.599999999999
 20
8478.551625802023
 30
0.0
 41
100.0
 42
100.0
 43
100.0
 50
180.0
  0
MTEXT
  5
1FE51
330
1E922
100
AcDbEntity
  8
寸法
 62
     7
 48
50.0
100
AcDbMText
 10
9144.599999999998
 20
8578.551625802022
 30
0.0
 40
120.0
 41
0.0
 71
     5
 72
     1
  1
\A1;a
  7
STYLE1
 73
     1
 44
1.0
1001
ACAD
1000
MTEXTBEGIN
1070
    73
1070
     1
1070
    44
1040
1.0
1070
    74
1070
     0
1000
MTEXTEND
  0
POINT
  5
1FE52
330
1E922
100
AcDbEntity
  8
DEFPOINTS
 62
     0
 48
50.0
100
AcDbPoint
 10
9119.599999999998
 20
7712.0
 30
0.0
  0
POINT
  5
1FE53
330
1E922
100
AcDbEntity
  8
DEFPOINTS
 62
     0
 48
50.0
100
AcDbPoint
 10
9169.599999999999
 20
7792.000000000005
 30
0.0
  0
POINT
  5
1FE54
330
1E922
100
AcDbEntity
  8
DEFPOINTS
 62
     0
 48
50.0
100
AcDbPoint
 10
9169.599999999999
 20
8478.551625802023
 30
0.0
  0
ENDBLK
  5
1E92F
330
1E922
100
AcDbEntity
  8
0
 48
50.0
100
AcDbBlockEnd
  0
BLOCK
  5
1E93C
330
1E930
100
AcDbEntity
  8
0
 48
50.0
100
AcDbBlockBegin
  2
*D31
 70
     1
 10
0.0
 20
0.0
 30
0.0
  3
*D31
  1

  0
LINE
  5
1FE55
330
1E930
100
AcDbEntity
  8
寸法
 62
     0
 48
50.0
370
    -2
100
AcDbLine
 10
6857.599999999999
 20
7812.0
 30
0.0
 11
6857.599999999999
 21
8538.551625802021
 31
0.0
  0
LINE
  5
1FE56
330
1E930
100
AcDbEntity
  8
寸法
 62
     0
 48
50.0
370
    -2
100
AcDbLine
 10
6907.599999999999
 20
7732.0
 30
0.0
 11
6907.599999999999
 21
8538.551625802021
 31
0.0
  0
LINE
  5
1FE57
330
1E930
100
AcDbEntity
  8
寸法
 62
     0
 48
50.0
370
    -2
100
AcDbLine
 10
6857.599999999999
 20
8478.551625802023
 30
0.0
 11
6757.6
 21
8478.551625802023
 31
0.0
  0
LINE
  5
1FE58
330
1E930
100
AcDbEntity
  8
寸法
 62
     0
 48
50.0
370
    -2
100
AcDbLine
 10
6907.599999999999
 20
8478.551625802023
 30
0.0
 11
7007.6
 21
8478.551625802023
 31
0.0
  0
LINE
  5
1FE59
330
1E930
100
AcDbEntity
  8
寸法
 62
     0
 48
50.0
370
    -2
100
AcDbLine
 10
6857.599999999999
 20
8478.551625802023
 30
0.0
 11
6907.599999999999
 21
8478.551625802023
 31
0.0
  0
INSERT
  5
1FE5A
330
1E930
100
AcDbEntity
  8
寸法
 62
     0
 48
50.0
370
    -2
100
AcDbBlockReference
  2
_DOTSMALL
 10
6857.599999999999
 20
8478.551625802023
 30
0.0
 41
100.0
 42
100.0
 43
100.0
  0
INSERT
  5
1FE5B
330
1E930
100
AcDbEntity
  8
寸法
 62
     0
 48
50.0
370
    -2
100
AcDbBlockReference
  2
_DOTSMALL
 10
6907.599999999999
 20
8478.551625802023
 30
0.0
 41
100.0
 42
100.0
 43
100.0
 50
180.0
  0
MTEXT
  5
1FE5C
330
1E930
100
AcDbEntity
  8
寸法
 62
     7
 48
50.0
100
AcDbMText
 10
6882.6
 20
8578.551625802022
 30
0.0
 40
120.0
 41
0.0
 71
     5
 72
     1
  1
\A1;a
  7
STYLE1
 73
     1
 44
1.0
1001
ACAD
1000
MTEXTBEGIN
1070
    73
1070
     1
1070
    44
1040
1.0
1070
    74
1070
     0
1000
MTEXTEND
  0
POINT
  5
1FE5D
330
1E930
100
AcDbEntity
  8
DEFPOINTS
 62
     0
 48
50.0
100
AcDbPoint
 10
6857.599999999999
 20
7792.0
 30
0.0
  0
POINT
  5
1FE5E
330
1E930
100
AcDbEntity
  8
DEFPOINTS
 62
     0
 48
50.0
100
AcDbPoint
 10
6907.599999999999
 20
7712.0
 30
0.0
  0
POINT
  5
1FE5F
330
1E930
100
AcDbEntity
  8
DEFPOINTS
 62
     0
 48
50.0
100
AcDbPoint
 10
6907.599999999999
 20
8478.551625802023
 30
0.0
  0
ENDBLK
  5
1E93D
330
1E930
100
AcDbEntity
  8
0
 48
50.0
100
AcDbBlockEnd
  0
BLOCK
  5
1E948
330
1E93E
100
AcDbEntity
  8
0
 48
50.0
100
AcDbBlockBegin
  2
*D32
 70
     1
 10
0.0
 20
0.0
 30
0.0
  3
*D32
  1

  0
LINE
  5
1FE60
330
1E93E
100
AcDbEntity
  8
寸法
 62
     0
 48
50.0
370
    -2
100
AcDbLine
 10
6907.599999999999
 20
7732.0
 30
0.0
 11
6907.599999999999
 21
8538.551625802021
 31
0.0
  0
LINE
  5
1FE61
330
1E93E
100
AcDbEntity
  8
寸法
 62
     0
 48
50.0
370
    -2
100
AcDbLine
 10
9119.599999999998
 20
7732.0
 30
0.0
 11
9119.599999999998
 21
8538.551625802021
 31
0.0
  0
LINE
  5
1FE62
330
1E93E
100
AcDbEntity
  8
寸法
 62
     0
 48
50.0
370
    -2
100
AcDbLine
 10
6907.599999999999
 20
8478.551625802023
 30
0.0
 11
9119.599999999998
 21
8478.551625802023
 31
0.0
  0
INSERT
  5
1FE63
330
1E93E
100
AcDbEntity
  8
寸法
 62
     0
 48
50.0
370
    -2
100
AcDbBlockReference
  2
_DOTSMALL
 10
6907.599999999999
 20
8478.551625802023
 30
0.0
 41
100.0
 42
100.0
 43
100.0
 50
180.0
  0
INSERT
  5
1FE64
330
1E93E
100
AcDbEntity
  8
寸法
 62
     0
 48
50.0
370
    -2
100
AcDbBlockReference
  2
_DOTSMALL
 10
9119.599999999998
 20
8478.551625802023
 30
0.0
 41
100.0
 42
100.0
 43
100.0
  0
MTEXT
  5
1FE65
330
1E93E
100
AcDbEntity
  8
寸法
 62
     7
 48
50.0
100
AcDbMText
 10
8001.124470077279
 20
8578.563436825644
 30
0.0
 40
120.0
 41
0.0
 71
     5
 72
     1
  1
\A1;2212
  7
STYLE1
 73
     1
 44
1.0
1001
ACAD
1000
MTEXTBEGIN
1070
    73
1070
     1
1070
    44
1040
1.0
1070
    74
1070
     0
1000
MTEXTEND
  0
POINT
  5
1FE66
330
1E93E
100
AcDbEntity
  8
DEFPOINTS
 62
     0
 48
50.0
100
AcDbPoint
 10
6907.599999999999
 20
7712.0
 30
0.0
  0
POINT
  5
1FE67
330
1E93E
100
AcDbEntity
  8
DEFPOINTS
 62
     0
 48
50.0
100
AcDbPoint
 10
9119.599999999998
 20
7712.0
 30
0.0
  0
POINT
  5
1FE68
330
1E93E
100
AcDbEntity
  8
DEFPOINTS
 62
     0
 48
50.0
100
AcDbPoint
 10
9119.599999999998
 20
8478.551625802023
 30
0.0
  0
ENDBLK
  5
1E949
330
1E93E
100
AcDbEntity
  8
0
 48
50.0
100
AcDbBlockEnd
  0
BLOCK
  5
1E9B5
330
1E9AB
100
AcDbEntity
  8
0
 48
50.0
100
AcDbBlockBegin
  2
*D33
 70
     1
 10
0.0
 20
0.0
 30
0.0
  3
*D33
  1

  0
LINE
  5
1FE26
330
1E9AB
100
AcDbEntity
  8
寸法
 62
     0
 48
50.0
370
    -2
100
AcDbLine
 10
6907.599999999999
 20
7732.0
 30
0.0
 11
6907.599999999999
 21
8538.551625802021
 31
0.0
  0
LINE
  5
1FE27
330
1E9AB
100
AcDbEntity
  8
寸法
 62
     0
 48
50.0
370
    -2
100
AcDbLine
 10
9119.599999999998
 20
7732.0
 30
0.0
 11
9119.599999999998
 21
8538.551625802021
 31
0.0
  0
LINE
  5
1FE28
330
1E9AB
100
AcDbEntity
  8
寸法
 62
     0
 48
50.0
370
    -2
100
AcDbLine
 10
6907.599999999999
 20
8478.551625802023
 30
0.0
 11
9119.599999999998
 21
8478.551625802023
 31
0.0
  0
INSERT
  5
1FE29
330
1E9AB
100
AcDbEntity
  8
寸法
 62
     0
 48
50.0
370
    -2
100
AcDbBlockReference
  2
_DOTSMALL
 10
6907.599999999999
 20
8478.551625802023
 30
0.0
 41
100.0
 42
100.0
 43
100.0
 50
180.0
  0
INSERT
  5
1FE2A
330
1E9AB
100
AcDbEntity
  8
寸法
 62
     0
 48
50.0
370
    -2
100
AcDbBlockReference
  2
_DOTSMALL
 10
9119.599999999998
 20
8478.551625802023
 30
0.0
 41
100.0
 42
100.0
 43
100.0
  0
MTEXT
  5
1FE2B
330
1E9AB
100
AcDbEntity
  8
寸法
 62
     7
 48
50.0
100
AcDbMText
 10
8001.124470077279
 20
8578.563436825644
 30
0.0
 40
120.0
 41
0.0
 71
     5
 72
     1
  1
\A1;2212
  7
STYLE1
 73
     1
 44
1.0
1001
ACAD
1000
MTEXTBEGIN
1070
    73
1070
     1
1070
    44
1040
1.0
1070
    74
1070
     0
1000
MTEXTEND
  0
POINT
  5
1FE2C
330
1E9AB
100
AcDbEntity
  8
DEFPOINTS
 62
     0
 48
50.0
100
AcDbPoint
 10
6907.599999999999
 20
7712.0
 30
0.0
  0
POINT
  5
1FE2D
330
1E9AB
100
AcDbEntity
  8
DEFPOINTS
 62
     0
 48
50.0
100
AcDbPoint
 10
9119.599999999998
 20
7712.0
 30
0.0
  0
POINT
  5
1FE2E
330
1E9AB
100
AcDbEntity
  8
DEFPOINTS
 62
     0
 48
50.0
100
AcDbPoint
 10
9119.599999999998
 20
8478.551625802023
 30
0.0
  0
ENDBLK
  5
1E9B6
330
1E9AB
100
AcDbEntity
  8
0
 48
50.0
100
AcDbBlockEnd
  0
BLOCK
  5
1F6F9
330
1F6EF
100
AcDbEntity
  8
0
 48
50.0
100
AcDbBlockBegin
  2
*D34
 70
     1
 10
0.0
 20
0.0
 30
0.0
  3
*D34
  1

  0
LINE
  5
1FE8F
330
1F6EF
100
AcDbEntity
  8
寸法
 62
     0
 48
50.0
370
    -2
100
AcDbLine
 10
9219.600000000001
 20
5379.999999999992
 30
0.0
 11
9219.600000000001
 21
4866.168926156461
 31
0.0
  0
LINE
  5
1FE90
330
1F6EF
100
AcDbEntity
  8
寸法
 62
     0
 48
50.0
370
    -2
100
AcDbLine
 10
9019.600000000002
 20
5379.999999999992
 30
0.0
 11
9019.600000000002
 21
4866.168926156461
 31
0.0
  0
LINE
  5
1FE91
330
1F6EF
100
AcDbEntity
  8
寸法
 62
     0
 48
50.0
370
    -2
100
AcDbLine
 10
9219.600000000001
 20
4926.16892615646
 30
0.0
 11
9019.600000000002
 21
4926.16892615646
 31
0.0
  0
INSERT
  5
1FE92
330
1F6EF
100
AcDbEntity
  8
寸法
 62
     0
 48
50.0
370
    -2
100
AcDbBlockReference
  2
_DOTSMALL
 10
9219.600000000001
 20
4926.16892615646
 30
0.0
 41
100.0
 42
100.0
 43
100.0
  0
INSERT
  5
1FE93
330
1F6EF
100
AcDbEntity
  8
寸法
 62
     0
 48
50.0
370
    -2
100
AcDbBlockReference
  2
_DOTSMALL
 10
9019.600000000002
 20
4926.16892615646
 30
0.0
 41
100.0
 42
100.0
 43
100.0
 50
180.0
  0
MTEXT
  5
1FE94
330
1F6EF
100
AcDbEntity
  8
寸法
 62
     7
 48
50.0
100
AcDbMText
 10
9119.600000000001
 20
5026.180737180083
 30
0.0
 40
120.0
 41
0.0
 71
     5
 72
     1
  1
\A1;200
  7
STYLE1
 73
     1
 44
1.0
1001
ACAD
1000
MTEXTBEGIN
1070
    73
1070
     1
1070
    44
1040
1.0
1070
    74
1070
     0
1000
MTEXTEND
  0
POINT
  5
1FE95
330
1F6EF
100
AcDbEntity
  8
DEFPOINTS
 62
     0
 48
50.0
100
AcDbPoint
 10
9219.600000000001
 20
5399.999999999993
 30
0.0
  0
POINT
  5
1FE96
330
1F6EF
100
AcDbEntity
  8
DEFPOINTS
 62
     0
 48
50.0
100
AcDbPoint
 10
9019.600000000002
 20
5399.999999999993
 30
0.0
  0
POINT
  5
1FE97
330
1F6EF
100
AcDbEntity
  8
DEFPOINTS
 62
     0
 48
50.0
100
AcDbPoint
 10
9019.600000000002
 20
4926.16892615646
 30
0.0
  0
ENDBLK
  5
1F6FA
330
1F6EF
100
AcDbEntity
  8
0
 48
50.0
100
AcDbBlockEnd
  0
BLOCK
  5
1F705
330
1F6FB
100
AcDbEntity
  8
0
 48
50.0
100
AcDbBlockBegin
  2
*D35
 70
     1
 10
0.0
 20
0.0
 30
0.0
  3
*D35
  1

  0
LINE
  5
1FE98
330
1F6FB
100
AcDbEntity
  8
寸法
 62
     0
 48
50.0
370
    -2
100
AcDbLine
 10
9239.599999999999
 20
5599.999999999993
 30
0.0
 11
9797.840873485114
 21
5599.999999999993
 31
0.0
  0
LINE
  5
1FE99
330
1F6FB
100
AcDbEntity
  8
寸法
 62
     0
 48
50.0
370
    -2
100
AcDbLine
 10
9239.600000000001
 20
5399.999999999993
 30
0.0
 11
9797.840873485114
 21
5399.999999999993
 31
0.0
  0
LINE
  5
1FE9A
330
1F6FB
100
AcDbEntity
  8
寸法
 62
     0
 48
50.0
370
    -2
100
AcDbLine
 10
9737.840873485113
 20
5599.999999999993
 30
0.0
 11
9737.840873485113
 21
5399.999999999993
 31
0.0
  0
INSERT
  5
1FE9B
330
1F6FB
100
AcDbEntity
  8
寸法
 62
     0
 48
50.0
370
    -2
100
AcDbBlockReference
  2
_DOTSMALL
 10
9737.840873485113
 20
5599.999999999993
 30
0.0
 41
100.0
 42
100.0
 43
100.0
 50
90.0
  0
INSERT
  5
1FE9C
330
1F6FB
100
AcDbEntity
  8
寸法
 62
     0
 48
50.0
370
    -2
100
AcDbBlockReference
  2
_DOTSMALL
 10
9737.840873485113
 20
5399.999999999993
 30
0.0
 41
100.0
 42
100.0
 43
100.0
 50
270.0
  0
MTEXT
  5
1FE9D
330
1F6FB
100
AcDbEntity
  8
寸法
 62
     7
 48
50.0
100
AcDbMText
 10
9637.82906246149
 20
5499.999999999993
 30
0.0
 40
120.0
 41
0.0
 71
     5
 72
     1
  1
\A1;200
  7
STYLE1
 11
0.0000000000000001
 21
1.0
 31
0.0
 73
     1
 44
1.0
1001
ACAD
1000
MTEXTBEGIN
1070
    73
1070
     1
1070
    44
1040
1.0
1070
    74
1070
     0
1000
MTEXTEND
  0
POINT
  5
1FE9E
330
1F6FB
100
AcDbEntity
  8
DEFPOINTS
 62
     0
 48
50.0
100
AcDbPoint
 10
9219.599999999998
 20
5599.999999999993
 30
0.0
  0
POINT
  5
1FE9F
330
1F6FB
100
AcDbEntity
  8
DEFPOINTS
 62
     0
 48
50.0
100
AcDbPoint
 10
9219.600000000001
 20
5399.999999999993
 30
0.0
  0
POINT
  5
1FEA0
330
1F6FB
100
AcDbEntity
  8
DEFPOINTS
 62
     0
 48
50.0
100
AcDbPoint
 10
9737.840873485113
 20
5399.999999999993
 30
0.0
  0
ENDBLK
  5
1F706
330
1F6FB
100
AcDbEntity
  8
0
 48
50.0
100
AcDbBlockEnd
  0
BLOCK
  5
2021B
330
20211
100
AcDbEntity
  8
0
 48
50.0
100
AcDbBlockBegin
  2
*D36
 70
     1
 10
0.0
 20
0.0
 30
0.0
  3
*D36
  1

  0
LINE
  5
20281
330
20211
100
AcDbEntity
  8
寸法
 62
     0
 48
50.0
370
    -2
100
AcDbLine
 10
6025.356359188782
 20
1140.760787611754
 30
0.0
 11
5892.026612113252
 21
1140.760787611754
 31
0.0
  0
LINE
  5
20282
330
20211
100
AcDbEntity
  8
寸法
 62
     0
 48
50.0
370
    -2
100
AcDbLine
 10
6175.356359188782
 20
740.7607876117545
 30
0.0
 11
5892.026612113252
 21
740.7607876117545
 31
0.0
  0
LINE
  5
20283
330
20211
100
AcDbEntity
  8
寸法
 62
     0
 48
50.0
370
    -2
100
AcDbLine
 10
5952.026612113252
 20
1140.760787611754
 30
0.0
 11
5952.026612113252
 21
740.7607876117545
 31
0.0
  0
INSERT
  5
20284
330
20211
100
AcDbEntity
  8
寸法
 62
     0
 48
50.0
370
    -2
100
AcDbBlockReference
  2
_DOTSMALL
 10
5952.026612113252
 20
1140.760787611754
 30
0.0
 41
100.0
 42
100.0
 43
100.0
 50
90.0
  0
INSERT
  5
20285
330
20211
100
AcDbEntity
  8
寸法
 62
     0
 48
50.0
370
    -2
100
AcDbBlockReference
  2
_DOTSMALL
 10
5952.026612113252
 20
740.7607876117545
 30
0.0
 41
100.0
 42
100.0
 43
100.0
 50
270.0
  0
MTEXT
  5
20286
330
20211
100
AcDbEntity
  8
寸法
 62
     7
 48
50.0
100
AcDbMText
 10
5852.01480108963
 20
928.3854207276599
 30
0.0
 40
120.0
 41
0.0
 71
     5
 72
     1
  1
\A1;200
  7
STYLE1
 11
0.0000000000000001
 21
1.0
 31
0.0
 73
     1
 44
1.0
1001
ACAD
1000
MTEXTBEGIN
1070
    73
1070
     1
1070
    44
1040
1.0
1070
    74
1070
     0
1000
MTEXTEND
  0
POINT
  5
20287
330
20211
100
AcDbEntity
  8
DEFPOINTS
 62
     0
 48
50.0
100
AcDbPoint
 10
6045.356359188781
 20
1140.760787611754
 30
0.0
  0
POINT
  5
20288
330
20211
100
AcDbEntity
  8
DEFPOINTS
 62
     0
 48
50.0
100
AcDbPoint
 10
6195.356359188782
 20
740.7607876117545
 30
0.0
  0
POINT
  5
20289
330
20211
100
AcDbEntity
  8
DEFPOINTS
 62
     0
 48
50.0
100
AcDbPoint
 10
5952.026612113252
 20
740.7607876117545
 30
0.0
  0
ENDBLK
  5
2021C
330
20211
100
AcDbEntity
  8
0
 48
50.0
100
AcDbBlockEnd
  0
BLOCK
  5
20227
330
2021D
100
AcDbEntity
  8
0
 48
50.0
100
AcDbBlockBegin
  2
*D37
 70
     1
 10
0.0
 20
0.0
 30
0.0
  3
*D37
  1

  0
LINE
  5
20278
330
2021D
100
AcDbEntity
  8
寸法
 62
     0
 48
50.0
370
    -2
100
AcDbLine
 10
8078.96262330739
 20
1340.760787611756
 30
0.0
 11
8341.175870770291
 21
1340.760787611756
 31
0.0
  0
LINE
  5
20279
330
2021D
100
AcDbEntity
  8
寸法
 62
     0
 48
50.0
370
    -2
100
AcDbLine
 10
8098.411860201881
 20
1140.760787611754
 30
0.0
 11
8341.175870770291
 21
1140.760787611754
 31
0.0
  0
LINE
  5
2027A
330
2021D
100
AcDbEntity
  8
寸法
 62
     0
 48
50.0
370
    -2
100
AcDbLine
 10
8281.17587077029
 20
1340.760787611756
 30
0.0
 11
8281.17587077029
 21
1140.760787611754
 31
0.0
  0
INSERT
  5
2027B
330
2021D
100
AcDbEntity
  8
寸法
 62
     0
 48
50.0
370
    -2
100
AcDbBlockReference
  2
_DOTSMALL
 10
8281.17587077029
 20
1340.760787611756
 30
0.0
 41
100.0
 42
100.0
 43
100.0
 50
90.0
  0
INSERT
  5
2027C
330
2021D
100
AcDbEntity
  8
寸法
 62
     0
 48
50.0
370
    -2
100
AcDbBlockReference
  2
_DOTSMALL
 10
8281.17587077029
 20
1140.760787611754
 30
0.0
 41
100.0
 42
100.0
 43
100.0
 50
270.0
  0
MTEXT
  5
2027D
330
2021D
100
AcDbEntity
  8
寸法
 62
     7
 48
50.0
100
AcDbMText
 10
8181.175870770291
 20
1240.760787611757
 30
0.0
 40
120.0
 41
0.0
 71
     5
 72
     1
  1
\A1;b
  7
STYLE1
 11
0.0000000000000001
 21
1.0
 31
0.0
 73
     1
 44
1.0
1001
ACAD
1000
MTEXTBEGIN
1070
    73
1070
     1
1070
    44
1040
1.0
1070
    74
1070
     0
1000
MTEXTEND
  0
POINT
  5
2027E
330
2021D
100
AcDbEntity
  8
DEFPOINTS
 62
     0
 48
50.0
100
AcDbPoint
 10
8058.96262330739
 20
1340.760787611756
 30
0.0
  0
POINT
  5
2027F
330
2021D
100
AcDbEntity
  8
DEFPOINTS
 62
     0
 48
50.0
100
AcDbPoint
 10
8078.41186020188
 20
1140.760787611754
 30
0.0
  0
POINT
  5
20280
330
2021D
100
AcDbEntity
  8
DEFPOINTS
 62
     0
 48
50.0
100
AcDbPoint
 10
8281.17587077029
 20
1140.760787611754
 30
0.0
  0
ENDBLK
  5
20228
330
2021D
100
AcDbEntity
  8
0
 48
50.0
100
AcDbBlockEnd
  0
BLOCK
  5
20233
330
20229
100
AcDbEntity
  8
0
 48
50.0
100
AcDbBlockBegin
  2
*D38
 70
     1
 10
0.0
 20
0.0
 30
0.0
  3
*D38
  1

  0
LINE
  5
2026F
330
20229
100
AcDbEntity
  8
寸法
 62
     0
 48
50.0
370
    -2
100
AcDbLine
 10
9578.85555682453
 20
1440.760787611754
 30
0.0
 11
9821.491110541648
 21
1440.760787611754
 31
0.0
  0
LINE
  5
20270
330
20229
100
AcDbEntity
  8
寸法
 62
     0
 48
50.0
370
    -2
100
AcDbLine
 10
9608.744464914863
 20
1140.760787611754
 30
0.0
 11
9821.491110541648
 21
1140.760787611754
 31
0.0
  0
LINE
  5
20271
330
20229
100
AcDbEntity
  8
寸法
 62
     0
 48
50.0
370
    -2
100
AcDbLine
 10
9761.491110541648
 20
1440.760787611754
 30
0.0
 11
9761.491110541648
 21
1140.760787611754
 31
0.0
  0
INSERT
  5
20272
330
20229
100
AcDbEntity
  8
寸法
 62
     0
 48
50.0
370
    -2
100
AcDbBlockReference
  2
_DOTSMALL
 10
9761.491110541648
 20
1440.760787611754
 30
0.0
 41
100.0
 42
100.0
 43
100.0
 50
90.0
  0
INSERT
  5
20273
330
20229
100
AcDbEntity
  8
寸法
 62
     0
 48
50.0
370
    -2
100
AcDbBlockReference
  2
_DOTSMALL
 10
9761.491110541648
 20
1140.760787611754
 30
0.0
 41
100.0
 42
100.0
 43
100.0
 50
270.0
  0
MTEXT
  5
20274
330
20229
100
AcDbEntity
  8
寸法
 62
     7
 48
50.0
100
AcDbMText
 10
9661.491110541646
 20
1290.760787611756
 30
0.0
 40
120.0
 41
0.0
 71
     5
 72
     1
  1
\A1;c
  7
STYLE1
 11
0.0000000000000001
 21
1.0
 31
0.0
 73
     1
 44
1.0
1001
ACAD
1000
MTEXTBEGIN
1070
    73
1070
     1
1070
    44
1040
1.0
1070
    74
1070
     0
1000
MTEXTEND
  0
POINT
  5
20275
330
20229
100
AcDbEntity
  8
DEFPOINTS
 62
     0
 48
50.0
100
AcDbPoint
 10
9558.85555682453
 20
1440.760787611754
 30
0.0
  0
POINT
  5
20276
330
20229
100
AcDbEntity
  8
DEFPOINTS
 62
     0
 48
50.0
100
AcDbPoint
 10
9588.744464914862
 20
1140.760787611754
 30
0.0
  0
POINT
  5
20277
330
20229
100
AcDbEntity
  8
DEFPOINTS
 62
     0
 48
50.0
100
AcDbPoint
 10
9761.491110541648
 20
1140.760787611754
 30
0.0
  0
ENDBLK
  5
20234
330
20229
100
AcDbEntity
  8
0
 48
50.0
100
AcDbBlockEnd
  0
BLOCK
  5
2023F
330
20235
100
AcDbEntity
  8
0
 48
50.0
100
AcDbBlockBegin
  2
*D39
 70
     1
 10
0.0
 20
0.0
 30
0.0
  3
*D39
  1

  0
LINE
  5
20266
330
20235
100
AcDbEntity
  8
寸法
 62
     0
 48
50.0
370
    -2
100
AcDbLine
 10
6465.356359188783
 20
1340.760787611755
 30
0.0
 11
6753.427363549177
 21
1340.760787611755
 31
0.0
  0
LINE
  5
20267
330
20235
100
AcDbEntity
  8
寸法
 62
     0
 48
50.0
370
    -2
100
AcDbLine
 10
6465.356359188785
 20
1140.760787611754
 30
0.0
 11
6753.427363549177
 21
1140.760787611754
 31
0.0
  0
LINE
  5
20268
330
20235
100
AcDbEntity
  8
寸法
 62
     0
 48
50.0
370
    -2
100
AcDbLine
 10
6693.427363549178
 20
1340.760787611755
 30
0.0
 11
6693.427363549178
 21
1140.760787611754
 31
0.0
  0
INSERT
  5
20269
330
20235
100
AcDbEntity
  8
寸法
 62
     0
 48
50.0
370
    -2
100
AcDbBlockReference
  2
_DOTSMALL
 10
6693.427363549178
 20
1340.760787611755
 30
0.0
 41
100.0
 42
100.0
 43
100.0
 50
90.0
  0
INSERT
  5
2026A
330
20235
100
AcDbEntity
  8
寸法
 62
     0
 48
50.0
370
    -2
100
AcDbBlockReference
  2
_DOTSMALL
 10
6693.427363549178
 20
1140.760787611754
 30
0.0
 41
100.0
 42
100.0
 43
100.0
 50
270.0
  0
MTEXT
  5
2026B
330
20235
100
AcDbEntity
  8
寸法
 62
     7
 48
50.0
100
AcDbMText
 10
6593.427363549178
 20
1240.760787611756
 30
0.0
 40
120.0
 41
0.0
 71
     5
 72
     1
  1
\A1;a
  7
STYLE1
 11
0.0000000000000001
 21
1.0
 31
0.0
 73
     1
 44
1.0
1001
ACAD
1000
MTEXTBEGIN
1070
    73
1070
     1
1070
    44
1040
1.0
1070
    74
1070
     0
1000
MTEXTEND
  0
POINT
  5
2026C
330
20235
100
AcDbEntity
  8
DEFPOINTS
 62
     0
 48
50.0
100
AcDbPoint
 10
6445.356359188783
 20
1340.760787611755
 30
0.0
  0
POINT
  5
2026D
330
20235
100
AcDbEntity
  8
DEFPOINTS
 62
     0
 48
50.0
100
AcDbPoint
 10
6445.356359188785
 20
1140.760787611754
 30
0.0
  0
POINT
  5
2026E
330
20235
100
AcDbEntity
  8
DEFPOINTS
 62
     0
 48
50.0
100
AcDbPoint
 10
6693.427363549178
 20
1140.760787611754
 30
0.0
  0
ENDBLK
  5
20240
330
20235
100
AcDbEntity
  8
0
 48
50.0
100
AcDbBlockEnd
  0
BLOCK
  5
202C6
330
202BA
100
AcDbEntity
  8
0
 48
50.0
100
AcDbBlockBegin
  2
*D40
 70
     1
 10
0.0
 20
0.0
 30
0.0
  3
*D40
  1

  0
LINE
  5
202EA
330
202BA
100
AcDbEntity
  8
寸法
 62
     0
 48
50.0
370
    -2
100
AcDbLine
 10
6916.599999999999
 20
5425.0
 30
0.0
 11
6632.579300538927
 21
5425.0
 31
0.0
  0
LINE
  5
202EB
330
202BA
100
AcDbEntity
  8
寸法
 62
     0
 48
50.0
370
    -2
100
AcDbLine
 10
6850.543893583843
 20
5499.999999999999
 30
0.0
 11
6632.579300538927
 21
5499.999999999999
 31
0.0
  0
LINE
  5
202EC
330
202BA
100
AcDbEntity
  8
寸法
 62
     0
 48
50.0
370
    -2
100
AcDbLine
 10
6692.579300538928
 20
5499.999999999999
 30
0.0
 11
6692.579300538928
 21
5599.999999999998
 31
0.0
  0
LINE
  5
202ED
330
202BA
100
AcDbEntity
  8
寸法
 62
     0
 48
50.0
370
    -2
100
AcDbLine
 10
6692.579300538928
 20
5425.0
 30
0.0
 11
6692.579300538928
 21
4558.029437251522
 31
0.0
  0
LINE
  5
202EE
330
202BA
100
AcDbEntity
  8
寸法
 62
     0
 48
50.0
370
    -2
100
AcDbLine
 10
6692.579300538928
 20
5499.999999999999
 30
0.0
 11
6692.579300538928
 21
5425.0
 31
0.0
  0
INSERT
  5
202EF
330
202BA
100
AcDbEntity
  8
寸法
 62
     0
 48
50.0
370
    -2
100
AcDbBlockReference
  2
_DOTSMALL
 10
6692.579300538928
 20
5499.999999999999
 30
0.0
 41
100.0
 42
100.0
 43
100.0
 50
270.0
  0
INSERT
  5
202F0
330
202BA
100
AcDbEntity
  8
寸法
 62
     0
 48
50.0
370
    -2
100
AcDbBlockReference
  2
_DOTSMALL
 10
6692.579300538928
 20
5425.0
 30
0.0
 41
100.0
 42
100.0
 43
100.0
 50
90.0
  0
MTEXT
  5
202F1
330
202BA
100
AcDbEntity
  8
寸法
 62
     7
 48
50.0
100
AcDbMText
 10
6592.579300538926
 20
4891.514718625764
 30
0.0
 40
120.0
 41
0.0
 71
     5
 72
     1
  1
\A1;扉の出75
  7
STYLE1
 11
0.0000000000000001
 21
1.0
 31
0.0
 73
     1
 44
1.0
1001
ACAD
1000
MTEXTBEGIN
1070
    73
1070
     1
1070
    44
1040
1.0
1070
    74
1070
     0
1000
MTEXTEND
  0
POINT
  5
202F2
330
202BA
100
AcDbEntity
  8
DEFPOINTS
 62
     0
 48
50.0
100
AcDbPoint
 10
6936.6
 20
5425.0
 30
0.0
  0
POINT
  5
202F3
330
202BA
100
AcDbEntity
  8
DEFPOINTS
 62
     0
 48
50.0
100
AcDbPoint
 10
6870.543893583842
 20
5499.999999999999
 30
0.0
  0
POINT
  5
202F4
330
202BA
100
AcDbEntity
  8
DEFPOINTS
 62
     0
 48
50.0
100
AcDbPoint
 10
6692.579300538928
 20
5499.999999999999
 30
0.0
  0
ENDBLK
  5
202C7
330
202BA
100
AcDbEntity
  8
0
 48
50.0
100
AcDbBlockEnd
  0
BLOCK
  5
20324
330
20323
100
AcDbEntity
  8
0
 48
50.0
100
AcDbBlockBegin
  2
*D41
 70
     1
 10
0.0
 20
0.0
 30
0.0
  3
*D41
  1

  0
LINE
  5
20325
330
20323
100
AcDbEntity
  8
寸法
 62
     0
 48
50.0
370
    -2
100
AcDbLine
 10
6399.539401023374
 20
1140.760787611754
 30
0.0
 11
6266.209653947845
 21
1140.760787611754
 31
0.0
  0
LINE
  5
20326
330
20323
100
AcDbEntity
  8
寸法
 62
     0
 48
50.0
370
    -2
100
AcDbLine
 10
6549.539401023373
 20
740.7607876117545
 30
0.0
 11
6266.209653947845
 21
740.7607876117546
 31
0.0
  0
LINE
  5
20327
330
20323
100
AcDbEntity
  8
寸法
 62
     0
 48
50.0
370
    -2
100
AcDbLine
 10
6326.209653947844
 20
1140.760787611754
 30
0.0
 11
6326.209653947844
 21
740.7607876117546
 31
0.0
  0
INSERT
  5
20328
330
20323
100
AcDbEntity
  8
寸法
 62
     0
 48
50.0
370
    -2
100
AcDbBlockReference
  2
_DOTSMALL
 10
6326.209653947844
 20
1140.760787611754
 30
0.0
 41
100.0
 42
100.0
 43
100.0
 50
90.0
  0
INSERT
  5
20329
330
20323
100
AcDbEntity
  8
寸法
 62
     0
 48
50.0
370
    -2
100
AcDbBlockReference
  2
_DOTSMALL
 10
6326.209653947844
 20
740.7607876117546
 30
0.0
 41
100.0
 42
100.0
 43
100.0
 50
270.0
  0
MTEXT
  5
2032A
330
20323
100
AcDbEntity
  8
寸法
 62
     7
 48
50.0
100
AcDbMText
 10
6226.197842924222
 20
928.3854207276599
 30
0.0
 40
120.0
 41
0.0
 71
     5
 72
     1
  1
\A1;200
  7
STYLE1
 11
0.0000000000000001
 21
1.0
 31
0.0
 73
     1
 44
1.0
1001
ACAD
1000
MTEXTBEGIN
1070
    73
1070
     1
1070
    44
1040
1.0
1070
    74
1070
     0
1000
MTEXTEND
  0
POINT
  5
2032B
330
20323
100
AcDbEntity
  8
DEFPOINTS
 62
     0
 48
50.0
100
AcDbPoint
 10
6419.539401023374
 20
1140.760787611754
 30
0.0
  0
POINT
  5
2032C
330
20323
100
AcDbEntity
  8
DEFPOINTS
 62
     0
 48
50.0
100
AcDbPoint
 10
6569.539401023374
 20
740.7607876117545
 30
0.0
  0
POINT
  5
2032D
330
20323
100
AcDbEntity
  8
DEFPOINTS
 62
     0
 48
50.0
100
AcDbPoint
 10
6326.209653947844
 20
740.7607876117546
 30
0.0
  0
ENDBLK
  5
2032E
330
20323
100
AcDbEntity
  8
0
 48
50.0
100
AcDbBlockEnd
  0
BLOCK
  5
20330
330
2032F
100
AcDbEntity
  8
0
 48
50.0
100
AcDbBlockBegin
  2
*D42
 70
     1
 10
0.0
 20
0.0
 30
0.0
  3
*D42
  1

  0
LINE
  5
20331
330
2032F
100
AcDbEntity
  8
寸法
 62
     0
 48
50.0
370
    -2
100
AcDbLine
 10
8453.145665141983
 20
1340.760787611756
 30
0.0
 11
8715.358912604882
 21
1340.760787611756
 31
0.0
  0
LINE
  5
20332
330
2032F
100
AcDbEntity
  8
寸法
 62
     0
 48
50.0
370
    -2
100
AcDbLine
 10
8472.594902036474
 20
1140.760787611754
 30
0.0
 11
8715.358912604882
 21
1140.760787611754
 31
0.0
  0
LINE
  5
20333
330
2032F
100
AcDbEntity
  8
寸法
 62
     0
 48
50.0
370
    -2
100
AcDbLine
 10
8655.358912604883
 20
1340.760787611756
 30
0.0
 11
8655.358912604883
 21
1140.760787611754
 31
0.0
  0
INSERT
  5
20334
330
2032F
100
AcDbEntity
  8
寸法
 62
     0
 48
50.0
370
    -2
100
AcDbBlockReference
  2
_DOTSMALL
 10
8655.358912604883
 20
1340.760787611756
 30
0.0
 41
100.0
 42
100.0
 43
100.0
 50
90.0
  0
INSERT
  5
20335
330
2032F
100
AcDbEntity
  8
寸法
 62
     0
 48
50.0
370
    -2
100
AcDbBlockReference
  2
_DOTSMALL
 10
8655.358912604883
 20
1140.760787611754
 30
0.0
 41
100.0
 42
100.0
 43
100.0
 50
270.0
  0
MTEXT
  5
20336
330
2032F
100
AcDbEntity
  8
寸法
 62
     7
 48
50.0
100
AcDbMText
 10
8555.358912604884
 20
1240.760787611757
 30
0.0
 40
120.0
 41
0.0
 71
     5
 72
     1
  1
\A1;b
  7
STYLE1
 11
0.0000000000000001
 21
1.0
 31
0.0
 73
     1
 44
1.0
1001
ACAD
1000
MTEXTBEGIN
1070
    73
1070
     1
1070
    44
1040
1.0
1070
    74
1070
     0
1000
MTEXTEND
  0
POINT
  5
20337
330
2032F
100
AcDbEntity
  8
DEFPOINTS
 62
     0
 48
50.0
100
AcDbPoint
 10
8433.145665141983
 20
1340.760787611756
 30
0.0
  0
POINT
  5
20338
330
2032F
100
AcDbEntity
  8
DEFPOINTS
 62
     0
 48
50.0
100
AcDbPoint
 10
8452.594902036473
 20
1140.760787611754
 30
0.0
  0
POINT
  5
20339
330
2032F
100
AcDbEntity
  8
DEFPOINTS
 62
     0
 48
50.0
100
AcDbPoint
 10
8655.358912604883
 20
1140.760787611754
 30
0.0
  0
ENDBLK
  5
2033A
330
2032F
100
AcDbEntity
  8
0
 48
50.0
100
AcDbBlockEnd
  0
BLOCK
  5
2033C
330
2033B
100
AcDbEntity
  8
0
 48
50.0
100
AcDbBlockBegin
  2
*D43
 70
     1
 10
0.0
 20
0.0
 30
0.0
  3
*D43
  1

  0
LINE
  5
2033D
330
2033B
100
AcDbEntity
  8
寸法
 62
     0
 48
50.0
370
    -2
100
AcDbLine
 10
9953.038598659123
 20
1440.760787611754
 30
0.0
 11
10195.67415237624
 21
1440.760787611754
 31
0.0
  0
LINE
  5
2033E
330
2033B
100
AcDbEntity
  8
寸法
 62
     0
 48
50.0
370
    -2
100
AcDbLine
 10
9982.927506749454
 20
1140.760787611754
 30
0.0
 11
10195.67415237624
 21
1140.760787611754
 31
0.0
  0
LINE
  5
2033F
330
2033B
100
AcDbEntity
  8
寸法
 62
     0
 48
50.0
370
    -2
100
AcDbLine
 10
10135.67415237624
 20
1440.760787611754
 30
0.0
 11
10135.67415237624
 21
1140.760787611754
 31
0.0
  0
INSERT
  5
20340
330
2033B
100
AcDbEntity
  8
寸法
 62
     0
 48
50.0
370
    -2
100
AcDbBlockReference
  2
_DOTSMALL
 10
10135.67415237624
 20
1440.760787611754
 30
0.0
 41
100.0
 42
100.0
 43
100.0
 50
90.0
  0
INSERT
  5
20341
330
2033B
100
AcDbEntity
  8
寸法
 62
     0
 48
50.0
370
    -2
100
AcDbBlockReference
  2
_DOTSMALL
 10
10135.67415237624
 20
1140.760787611754
 30
0.0
 41
100.0
 42
100.0
 43
100.0
 50
270.0
  0
MTEXT
  5
20342
330
2033B
100
AcDbEntity
  8
寸法
 62
     7
 48
50.0
100
AcDbMText
 10
10035.67415237624
 20
1290.760787611756
 30
0.0
 40
120.0
 41
0.0
 71
     5
 72
     1
  1
\A1;c
  7
STYLE1
 11
0.0000000000000001
 21
1.0
 31
0.0
 73
     1
 44
1.0
1001
ACAD
1000
MTEXTBEGIN
1070
    73
1070
     1
1070
    44
1040
1.0
1070
    74
1070
     0
1000
MTEXTEND
  0
POINT
  5
20343
330
2033B
100
AcDbEntity
  8
DEFPOINTS
 62
     0
 48
50.0
100
AcDbPoint
 10
9933.038598659123
 20
1440.760787611754
 30
0.0
  0
POINT
  5
20344
330
2033B
100
AcDbEntity
  8
DEFPOINTS
 62
     0
 48
50.0
100
AcDbPoint
 10
9962.927506749455
 20
1140.760787611754
 30
0.0
  0
POINT
  5
20345
330
2033B
100
AcDbEntity
  8
DEFPOINTS
 62
     0
 48
50.0
100
AcDbPoint
 10
10135.67415237624
 20
1140.760787611754
 30
0.0
  0
ENDBLK
  5
20346
330
2033B
100
AcDbEntity
  8
0
 48
50.0
100
AcDbBlockEnd
  0
BLOCK
  5
20348
330
20347
100
AcDbEntity
  8
0
 48
50.0
100
AcDbBlockBegin
  2
*D44
 70
     1
 10
0.0
 20
0.0
 30
0.0
  3
*D44
  1

  0
LINE
  5
20349
330
20347
100
AcDbEntity
  8
寸法
 62
     0
 48
50.0
370
    -2
100
AcDbLine
 10
6839.539401023376
 20
1340.760787611755
 30
0.0
 11
7127.610405383769
 21
1340.760787611755
 31
0.0
  0
LINE
  5
2034A
330
20347
100
AcDbEntity
  8
寸法
 62
     0
 48
50.0
370
    -2
100
AcDbLine
 10
6839.539401023377
 20
1140.760787611754
 30
0.0
 11
7127.610405383769
 21
1140.760787611754
 31
0.0
  0
LINE
  5
2034B
330
20347
100
AcDbEntity
  8
寸法
 62
     0
 48
50.0
370
    -2
100
AcDbLine
 10
7067.610405383771
 20
1340.760787611755
 30
0.0
 11
7067.610405383771
 21
1140.760787611754
 31
0.0
  0
INSERT
  5
2034C
330
20347
100
AcDbEntity
  8
寸法
 62
     0
 48
50.0
370
    -2
100
AcDbBlockReference
  2
_DOTSMALL
 10
7067.610405383771
 20
1340.760787611755
 30
0.0
 41
100.0
 42
100.0
 43
100.0
 50
90.0
  0
INSERT
  5
2034D
330
20347
100
AcDbEntity
  8
寸法
 62
     0
 48
50.0
370
    -2
100
AcDbBlockReference
  2
_DOTSMALL
 10
7067.610405383771
 20
1140.760787611754
 30
0.0
 41
100.0
 42
100.0
 43
100.0
 50
270.0
  0
MTEXT
  5
2034E
330
20347
100
AcDbEntity
  8
寸法
 62
     7
 48
50.0
100
AcDbMText
 10
6967.61040538377
 20
1240.760787611756
 30
0.0
 40
120.0
 41
0.0
 71
     5
 72
     1
  1
\A1;a
  7
STYLE1
 11
0.0000000000000001
 21
1.0
 31
0.0
 73
     1
 44
1.0
1001
ACAD
1000
MTEXTBEGIN
1070
    73
1070
     1
1070
    44
1040
1.0
1070
    74
1070
     0
1000
MTEXTEND
  0
POINT
  5
2034F
330
20347
100
AcDbEntity
  8
DEFPOINTS
 62
     0
 48
50.0
100
AcDbPoint
 10
6819.539401023376
 20
1340.760787611755
 30
0.0
  0
POINT
  5
20350
330
20347
100
AcDbEntity
  8
DEFPOINTS
 62
     0
 48
50.0
100
AcDbPoint
 10
6819.539401023378
 20
1140.760787611754
 30
0.0
  0
POINT
  5
20351
330
20347
100
AcDbEntity
  8
DEFPOINTS
 62
     0
 48
50.0
100
AcDbPoint
 10
7067.610405383771
 20
1140.760787611754
 30
0.0
  0
ENDBLK
  5
20352
330
20347
100
AcDbEntity
  8
0
 48
50.0
100
AcDbBlockEnd
  0
BLOCK
  5
2061D
330
20613
100
AcDbEntity
  8
0
 48
50.0
100
AcDbBlockBegin
  2
*D46
 70
     1
 10
0.0
 20
0.0
 30
0.0
  3
*D46
  1

  0
LINE
  5
20643
330
20613
100
AcDbEntity
  8
寸法
 62
     0
 48
50.0
370
    -2
100
AcDbLine
 10
6839.539401023376
 20
1340.760787611755
 30
0.0
 11
7127.610405383769
 21
1340.760787611755
 31
0.0
  0
LINE
  5
20644
330
20613
100
AcDbEntity
  8
寸法
 62
     0
 48
50.0
370
    -2
100
AcDbLine
 10
6839.539401023377
 20
1140.760787611754
 30
0.0
 11
7127.610405383769
 21
1140.760787611754
 31
0.0
  0
LINE
  5
20645
330
20613
100
AcDbEntity
  8
寸法
 62
     0
 48
50.0
370
    -2
100
AcDbLine
 10
7067.610405383771
 20
1340.760787611755
 30
0.0
 11
7067.610405383771
 21
1140.760787611754
 31
0.0
  0
INSERT
  5
20646
330
20613
100
AcDbEntity
  8
寸法
 62
     0
 48
50.0
370
    -2
100
AcDbBlockReference
  2
_DOTSMALL
 10
7067.610405383771
 20
1340.760787611755
 30
0.0
 41
100.0
 42
100.0
 43
100.0
 50
90.0
  0
INSERT
  5
20647
330
20613
100
AcDbEntity
  8
寸法
 62
     0
 48
50.0
370
    -2
100
AcDbBlockReference
  2
_DOTSMALL
 10
7067.610405383771
 20
1140.760787611754
 30
0.0
 41
100.0
 42
100.0
 43
100.0
 50
270.0
  0
MTEXT
  5
20648
330
20613
100
AcDbEntity
  8
寸法
 62
     7
 48
50.0
100
AcDbMText
 10
6967.61040538377
 20
1240.760787611756
 30
0.0
 40
120.0
 41
0.0
 71
     5
 72
     1
  1
\A1;a
  7
STYLE1
 11
0.0000000000000001
 21
1.0
 31
0.0
 73
     1
 44
1.0
1001
ACAD
1000
MTEXTBEGIN
1070
    73
1070
     1
1070
    44
1040
1.0
1070
    74
1070
     0
1000
MTEXTEND
  0
POINT
  5
20649
330
20613
100
AcDbEntity
  8
DEFPOINTS
 62
     0
 48
50.0
100
AcDbPoint
 10
6819.539401023376
 20
1340.760787611755
 30
0.0
  0
POINT
  5
2064A
330
20613
100
AcDbEntity
  8
DEFPOINTS
 62
     0
 48
50.0
100
AcDbPoint
 10
6819.539401023378
 20
1140.760787611754
 30
0.0
  0
POINT
  5
2064B
330
20613
100
AcDbEntity
  8
DEFPOINTS
 62
     0
 48
50.0
100
AcDbPoint
 10
7067.610405383771
 20
1140.760787611754
 30
0.0
  0
ENDBLK
  5
2061E
330
20613
100
AcDbEntity
  8
0
 48
50.0
100
AcDbBlockEnd
  0
BLOCK
  5
20629
330
2061F
100
AcDbEntity
  8
0
 48
50.0
100
AcDbBlockBegin
  2
*D47
 70
     1
 10
0.0
 20
0.0
 30
0.0
  3
*D47
  1

  0
LINE
  5
2064C
330
2061F
100
AcDbEntity
  8
寸法
 62
     0
 48
50.0
370
    -2
100
AcDbLine
 10
9953.038598659123
 20
1440.760787611754
 30
0.0
 11
10195.67415237624
 21
1440.760787611754
 31
0.0
  0
LINE
  5
2064D
330
2061F
100
AcDbEntity
  8
寸法
 62
     0
 48
50.0
370
    -2
100
AcDbLine
 10
9982.927506749454
 20
1140.760787611754
 30
0.0
 11
10195.67415237624
 21
1140.760787611754
 31
0.0
  0
LINE
  5
2064E
330
2061F
100
AcDbEntity
  8
寸法
 62
     0
 48
50.0
370
    -2
100
AcDbLine
 10
10135.67415237624
 20
1440.760787611754
 30
0.0
 11
10135.67415237624
 21
1140.760787611754
 31
0.0
  0
INSERT
  5
2064F
330
2061F
100
AcDbEntity
  8
寸法
 62
     0
 48
50.0
370
    -2
100
AcDbBlockReference
  2
_DOTSMALL
 10
10135.67415237624
 20
1440.760787611754
 30
0.0
 41
100.0
 42
100.0
 43
100.0
 50
90.0
  0
INSERT
  5
20650
330
2061F
100
AcDbEntity
  8
寸法
 62
     0
 48
50.0
370
    -2
100
AcDbBlockReference
  2
_DOTSMALL
 10
10135.67415237624
 20
1140.760787611754
 30
0.0
 41
100.0
 42
100.0
 43
100.0
 50
270.0
  0
MTEXT
  5
20651
330
2061F
100
AcDbEntity
  8
寸法
 62
     7
 48
50.0
100
AcDbMText
 10
10035.67415237624
 20
1290.760787611756
 30
0.0
 40
120.0
 41
0.0
 71
     5
 72
     1
  1
\A1;c
  7
STYLE1
 11
0.0000000000000001
 21
1.0
 31
0.0
 73
     1
 44
1.0
1001
ACAD
1000
MTEXTBEGIN
1070
    73
1070
     1
1070
    44
1040
1.0
1070
    74
1070
     0
1000
MTEXTEND
  0
POINT
  5
20652
330
2061F
100
AcDbEntity
  8
DEFPOINTS
 62
     0
 48
50.0
100
AcDbPoint
 10
9933.038598659123
 20
1440.760787611754
 30
0.0
  0
POINT
  5
20653
330
2061F
100
AcDbEntity
  8
DEFPOINTS
 62
     0
 48
50.0
100
AcDbPoint
 10
9962.927506749455
 20
1140.760787611754
 30
0.0
  0
POINT
  5
20654
330
2061F
100
AcDbEntity
  8
DEFPOINTS
 62
     0
 48
50.0
100
AcDbPoint
 10
10135.67415237624
 20
1140.760787611754
 30
0.0
  0
ENDBLK
  5
2062A
330
2061F
100
AcDbEntity
  8
0
 48
50.0
100
AcDbBlockEnd
  0
BLOCK
  5
20635
330
2062B
100
AcDbEntity
  8
0
 48
50.0
100
AcDbBlockBegin
  2
*D48
 70
     1
 10
0.0
 20
0.0
 30
0.0
  3
*D48
  1

  0
LINE
  5
20655
330
2062B
100
AcDbEntity
  8
寸法
 62
     0
 48
50.0
370
    -2
100
AcDbLine
 10
8453.145665141983
 20
1340.760787611756
 30
0.0
 11
8715.358912604882
 21
1340.760787611756
 31
0.0
  0
LINE
  5
20656
330
2062B
100
AcDbEntity
  8
寸法
 62
     0
 48
50.0
370
    -2
100
AcDbLine
 10
8472.594902036474
 20
1140.760787611754
 30
0.0
 11
8715.358912604882
 21
1140.760787611754
 31
0.0
  0
LINE
  5
20657
330
2062B
100
AcDbEntity
  8
寸法
 62
     0
 48
50.0
370
    -2
100
AcDbLine
 10
8655.358912604883
 20
1340.760787611756
 30
0.0
 11
8655.358912604883
 21
1140.760787611754
 31
0.0
  0
INSERT
  5
20658
330
2062B
100
AcDbEntity
  8
寸法
 62
     0
 48
50.0
370
    -2
100
AcDbBlockReference
  2
_DOTSMALL
 10
8655.358912604883
 20
1340.760787611756
 30
0.0
 41
100.0
 42
100.0
 43
100.0
 50
90.0
  0
INSERT
  5
20659
330
2062B
100
AcDbEntity
  8
寸法
 62
     0
 48
50.0
370
    -2
100
AcDbBlockReference
  2
_DOTSMALL
 10
8655.358912604883
 20
1140.760787611754
 30
0.0
 41
100.0
 42
100.0
 43
100.0
 50
270.0
  0
MTEXT
  5
2065A
330
2062B
100
AcDbEntity
  8
寸法
 62
     7
 48
50.0
100
AcDbMText
 10
8555.358912604884
 20
1240.760787611757
 30
0.0
 40
120.0
 41
0.0
 71
     5
 72
     1
  1
\A1;b
  7
STYLE1
 11
0.0000000000000001
 21
1.0
 31
0.0
 73
     1
 44
1.0
1001
ACAD
1000
MTEXTBEGIN
1070
    73
1070
     1
1070
    44
1040
1.0
1070
    74
1070
     0
1000
MTEXTEND
  0
POINT
  5
2065B
330
2062B
100
AcDbEntity
  8
DEFPOINTS
 62
     0
 48
50.0
100
AcDbPoint
 10
8433.145665141983
 20
1340.760787611756
 30
0.0
  0
POINT
  5
2065C
330
2062B
100
AcDbEntity
  8
DEFPOINTS
 62
     0
 48
50.0
100
AcDbPoint
 10
8452.594902036473
 20
1140.760787611754
 30
0.0
  0
POINT
  5
2065D
330
2062B
100
AcDbEntity
  8
DEFPOINTS
 62
     0
 48
50.0
100
AcDbPoint
 10
8655.358912604883
 20
1140.760787611754
 30
0.0
  0
ENDBLK
  5
20636
330
2062B
100
AcDbEntity
  8
0
 48
50.0
100
AcDbBlockEnd
  0
BLOCK
  5
20641
330
20637
100
AcDbEntity
  8
0
 48
50.0
100
AcDbBlockBegin
  2
*D49
 70
     1
 10
0.0
 20
0.0
 30
0.0
  3
*D49
  1

  0
LINE
  5
2065E
330
20637
100
AcDbEntity
  8
寸法
 62
     0
 48
50.0
370
    -2
100
AcDbLine
 10
6399.539401023374
 20
1140.760787611754
 30
0.0
 11
6266.209653947845
 21
1140.760787611754
 31
0.0
  0
LINE
  5
2065F
330
20637
100
AcDbEntity
  8
寸法
 62
     0
 48
50.0
370
    -2
100
AcDbLine
 10
6549.539401023373
 20
740.7607876117545
 30
0.0
 11
6266.209653947845
 21
740.7607876117546
 31
0.0
  0
LINE
  5
20660
330
20637
100
AcDbEntity
  8
寸法
 62
     0
 48
50.0
370
    -2
100
AcDbLine
 10
6326.209653947844
 20
1140.760787611754
 30
0.0
 11
6326.209653947844
 21
740.7607876117546
 31
0.0
  0
INSERT
  5
20661
330
20637
100
AcDbEntity
  8
寸法
 62
     0
 48
50.0
370
    -2
100
AcDbBlockReference
  2
_DOTSMALL
 10
6326.209653947844
 20
1140.760787611754
 30
0.0
 41
100.0
 42
100.0
 43
100.0
 50
90.0
  0
INSERT
  5
20662
330
20637
100
AcDbEntity
  8
寸法
 62
     0
 48
50.0
370
    -2
100
AcDbBlockReference
  2
_DOTSMALL
 10
6326.209653947844
 20
740.7607876117546
 30
0.0
 41
100.0
 42
100.0
 43
100.0
 50
270.0
  0
MTEXT
  5
20663
330
20637
100
AcDbEntity
  8
寸法
 62
     7
 48
50.0
100
AcDbMText
 10
6226.197842924222
 20
928.3854207276599
 30
0.0
 40
120.0
 41
0.0
 71
     5
 72
     1
  1
\A1;200
  7
STYLE1
 11
0.0000000000000001
 21
1.0
 31
0.0
 73
     1
 44
1.0
1001
ACAD
1000
MTEXTBEGIN
1070
    73
1070
     1
1070
    44
1040
1.0
1070
    74
1070
     0
1000
MTEXTEND
  0
POINT
  5
20664
330
20637
100
AcDbEntity
  8
DEFPOINTS
 62
     0
 48
50.0
100
AcDbPoint
 10
6419.539401023374
 20
1140.760787611754
 30
0.0
  0
POINT
  5
20665
330
20637
100
AcDbEntity
  8
DEFPOINTS
 62
     0
 48
50.0
100
AcDbPoint
 10
6569.539401023374
 20
740.7607876117545
 30
0.0
  0
POINT
  5
20666
330
20637
100
AcDbEntity
  8
DEFPOINTS
 62
     0
 48
50.0
100
AcDbPoint
 10
6326.209653947844
 20
740.7607876117546
 30
0.0
  0
ENDBLK
  5
20642
330
20637
100
AcDbEntity
  8
0
 48
50.0
100
AcDbBlockEnd
  0
ENDSEC
  0
SECTION
  2
ENTITIES
  0
LINE
  5
10B57
330
747D
100
AcDbEntity
  8
補助
  6
PHANTOM
 62
   230
 48
50.0
100
AcDbLine
 10
139.9999999999995
 20
11409.6
 30
0.0
 11
16307.2
 21
11409.6
 31
0.0
  0
LINE
  5
10B59
330
747D
100
AcDbEntity
  8
仕様書枠
  6
Continuous
 48
50.0
100
AcDbLine
 10
13107.2
 20
1200.0
 30
0.0
 11
13107.2
 21
-0.0000000000000729
 31
0.0
  0
LINE
  5
10B5C
330
747D
100
AcDbEntity
  8
仕様書枠
 48
50.0
100
AcDbLine
 10
16307.2
 20
1200.0
 30
0.0
 11
16307.2
 21
-0.0000000000000909
 31
0.0
  0
LINE
  5
10B5D
330
747D
100
AcDbEntity
  8
仕様書枠
 48
50.0
100
AcDbLine
 10
140.0
 20
0.0
 30
0.0
 11
16307.2
 21
-0.0000000000000909
 31
0.0
  0
LINE
  5
10B5E
330
747D
100
AcDbEntity
  8
補助
  6
PHANTOM
 62
   230
 48
50.0
100
AcDbLine
 10
16307.2
 20
11409.6
 30
0.0
 11
16307.2
 21
1200.0
 31
0.0
  0
LINE
  5
10B6C
330
747D
100
AcDbEntity
  8
仕様書枠
 48
50.0
100
AcDbLine
 10
13107.2
 20
1200.0
 30
0.0
 11
16307.2
 21
1200.0
 31
0.0
  0
LINE
  5
10B6D
330
747D
100
AcDbEntity
  8
補助
  6
PHANTOM
 62
   230
 48
50.0
100
AcDbLine
 10
13107.2
 20
11409.6
 30
0.0
 11
13107.2
 21
4800.0
 31
0.0
  0
LINE
  5
10B6F
330
747D
100
AcDbEntity
  8
補助
  6
PHANTOM
 62
   230
 48
50.0
100
AcDbLine
 10
13107.2
 20
4800.0
 30
0.0
 11
16307.2
 21
4800.0
 31
0.0
  0
LINE
  5
10B72
330
747D
100
AcDbEntity
  8
文字
 62
     7
 48
50.0
100
AcDbLine
 10
13187.2
 20
400.0
 30
0.0
 11
16227.2
 21
400.0
 31
0.0
  0
TEXT
  5
10B73
330
747D
100
AcDbEntity
  8
文字
 62
     7
 48
50.0
100
AcDbText
 10
13162.9790565769
 20
895.0906074299405
 30
0.0
 40
200.0
  1
基 礎 図
  7
STYLE2
100
AcDbText
  0
TEXT
  5
10B74
330
747D
100
AcDbEntity
  8
文字
 62
     7
 48
50.0
100
AcDbText
 10
13201.43669998441
 20
477.2740661031255
 30
0.0
 40
160.0
  1
機種名
  7
STYLE2
100
AcDbText
  0
TEXT
  5
10B79
330
747D
100
AcDbEntity
  8
文字
 62
     7
 48
50.0
100
AcDbText
 10
14524.131837222
 20
1031.557706291228
 30
0.0
 40
100.0
  1
NO.05      <縮尺> S=1/40
  7
STYLE2
100
AcDbText
  0
LINE
  5
10B7B
330
747D
100
AcDbEntity
  8
仕様書枠
 48
50.0
100
AcDbLine
 10
13107.2
 20
800.0
 30
0.0
 11
14251.2
 21
800.0
 31
0.0
  0
LINE
  5
10B88
330
747D
100
AcDbEntity
  8
仕様書枠
  6
Continuous
 48
50.0
100
AcDbLine
 10
14251.2
 20
1200.0
 30
0.0
 11
14251.2
 21
800.0
 31
0.0
  0
TEXT
  5
14DEF
330
747D
100
AcDbEntity
  8
文字
 62
     7
 48
50.0
100
AcDbText
 10
14641.2525855784
 20
871.1744590657925
 30
0.0
 40
100.0
  1
～一般型・多雪地型～
  7
STYLE2
100
AcDbText
  0
TEXT
  5
15A76
330
747D
100
AcDbEntity
  8
文字
 62
     7
 48
50.0
100
AcDbText
 10
14343.89382268831
 20
488.1241585855691
 30
0.0
 40
160.0
  1
NXP48ST・HT
  7
STYLE2
100
AcDbText
  0
TEXT
  5
1C9B2
330
747D
100
AcDbEntity
  8
部品1
 48
50.0
100
AcDbText
 10
9487.367337153671
 20
5975.7581817548
 30
0.0
 40
80.0
  1
(a=50,b=60,c=80)
  7
STYLE1
100
AcDbText
  0
TEXT
  5
1C9B3
330
747D
100
AcDbEntity
  8
部品1
 48
50.0
100
AcDbText
 10
9373.667096427722
 20
6109.314707840744
 30
0.0
 40
80.0
  1
※a,b,cは屋根の出幅です。
  7
STYLE1
100
AcDbText
  0
MTEXT
  5
1C9B4
102
{ACAD_REACTORS
330
1C9B5
102
}
330
747D
100
AcDbEntity
  8
部品1
 62
     7
 48
50.0
100
AcDbMText
 10
10239.83718660449
 20
6320.982608040209
 30
0.0
 40
120.0
 41
0.0
 71
     6
 72
     1
  1
\A1;屋根の外寸
  7
STYLE1
 73
     1
 44
1.0
1001
ACAD
1000
MTEXTBEGIN
1070
    73
1070
     1
1070
    44
1040
1.0
1070
    74
1070
     0
1000
MTEXTEND
  0
LEADER
  5
1C9B5
330
747D
100
AcDbEntity
  8
寸法
 48
50.0
100
AcDbLeader
  3
INABA_S50G
 71
     0
 73
     0
 74
     0
 75
     1
 40
120.0
 41
672.0
 76
     3
 10
9169.599999999999
 20
6616.0
 30
0.0
 10
9417.837186604492
 20
6235.98260804021
 30
0.0
 10
9542.837186604492
 20
6235.98260804021
 30
0.0
340
1C9B4
1001
ACAD
1000
DSTYLE
1002
{
1070
   341
1005
1C530
1070
    40
1040
1.0
1070
   343
1005
1C530
1070
   344
1005
1C530
1002
}
  0
LINE
  5
1C9BB
330
747D
100
AcDbEntity
  8
想像線
 48
10.0
100
AcDbLine
 10
9169.6
 20
5439.999999999996
 30
0.0
 11
6860.600000000001
 21
5440.000000000001
 31
0.0
  0
LINE
  5
1C9BC
330
747D
100
AcDbEntity
  8
想像線
 48
10.0
100
AcDbLine
 10
6857.599999999997
 20
7791.999999999998
 30
0.0
 11
9169.599999999993
 21
7792.0
 31
0.0
  0
DIMENSION
  5
1CAB6
330
747D
100
AcDbEntity
  8
寸法
 48
50.0
100
AcDbDimension
  2
*D2
 10
6466.888116550748
 20
5440.0
 30
0.0
 11
6466.888116550748
 21
5470.000000000002
 31
0.0
 70
   160
  1
b
 71
     5
 42
60.0
  3
INABA_S40G
100
AcDbAlignedDimension
 13
6907.599999999999
 23
5500.0
 33
0.0
 14
6857.599999999999
 24
5440.0
 34
0.0
 50
90.0
100
AcDbRotatedDimension
1001
ACAD
1000
DSTYLE
1002
{
1070
   174
1070
     0
1070
   272
1070
     1
1070
   288
1070
     0
1070
   341
1005
0
1002
}
  0
DIMENSION
  5
1CAB7
330
747D
100
AcDbEntity
  8
寸法
 48
50.0
100
AcDbDimension
  2
*D3
 10
6466.888116550748
 20
5500.0
 30
0.0
 11
6366.876305527126
 21
6606.000000000001
 31
0.0
 70
    32
 71
     5
 42
2212.0
  3
INABA_S40G
100
AcDbAlignedDimension
 13
6907.599999999999
 23
7712.0
 33
0.0
 14
6907.599999999999
 24
5500.0
 34
0.0
 50
90.0
100
AcDbRotatedDimension
1001
ACAD
1000
DSTYLE
1002
{
1070
   174
1070
     0
1070
   272
1070
     1
1070
   288
1070
     0
1070
   341
1005
0
1002
}
  0
DIMENSION
  5
1CAB8
330
747D
100
AcDbEntity
  8
寸法
 48
50.0
100
AcDbDimension
  2
*D4
 10
6466.888116550748
 20
7712.0
 30
0.0
 11
6466.888116550747
 21
7752.000000000002
 31
0.0
 70
   160
  1
c
 71
     5
 42
80.0
  3
INABA_S40G
100
AcDbAlignedDimension
 13
6857.599999999999
 23
7792.0
 33
0.0
 14
6907.599999999999
 24
7712.0
 34
0.0
 50
90.0
100
AcDbRotatedDimension
1001
ACAD
1000
DSTYLE
1002
{
1070
   174
1070
     0
1070
   272
1070
     1
1070
   288
1070
     0
1070
   341
1005
0
1002
}
  0
LINE
  5
1CAB9
330
747D
100
AcDbEntity
  8
想像線
 48
10.0
100
AcDbLine
 10
6857.600000000001
 20
5443.000000000001
 30
0.0
 11
6857.599999999997
 21
7791.999999999998
 31
0.0
  0
LINE
  5
1CABA
330
747D
100
AcDbEntity
  8
部品1
 48
50.0
100
AcDbLine
 10
7297.6
 20
5500.000000000003
 30
0.0
 11
6907.599999999999
 21
5500.0
 31
0.0
  0
LINE
  5
1CABB
330
747D
100
AcDbEntity
  8
部品1
 48
50.0
100
AcDbLine
 10
7297.6
 20
5500.0
 30
0.0
 11
6907.599999999999
 21
5500.0
 31
0.0
  0
LINE
  5
1CABC
330
747D
100
AcDbEntity
  8
部品1
 48
50.0
100
AcDbLine
 10
7297.6
 20
5690.0
 30
0.0
 11
6907.599999999999
 21
5690.0
 31
0.0
  0
LINE
  5
1CAC0
330
747D
100
AcDbEntity
  8
部品1
 48
50.0
100
AcDbLine
 10
6907.599999999999
 20
5690.0
 30
0.0
 11
6907.599999999999
 21
5500.0
 31
0.0
  0
LINE
  5
1CAC2
330
747D
100
AcDbEntity
  8
部品1
 48
50.0
100
AcDbLine
 10
7297.6
 20
5690.0
 30
0.0
 11
7297.6
 21
5500.0
 31
0.0
  0
LINE
  5
1CAC3
330
747D
100
AcDbEntity
  8
部品1
 48
50.0
100
AcDbLine
 10
7762.600000000003
 20
5425.000000000006
 30
0.0
 11
7572.600000000003
 21
5425.000000000006
 31
0.0
  0
LINE
  5
1CAC4
330
747D
100
AcDbEntity
  8
部品1
 48
50.0
100
AcDbLine
 10
7762.600000000003
 20
5615.000000000005
 30
0.0
 11
7572.600000000003
 21
5615.000000000005
 31
0.0
  0
LINE
  5
1CAC5
330
747D
100
AcDbEntity
  8
部品1
 48
50.0
100
AcDbLine
 10
7572.600000000003
 20
5425.000000000009
 30
0.0
 11
7572.600000000003
 21
5615.000000000009
 31
0.0
  0
LINE
  5
1CAC6
330
747D
100
AcDbEntity
  8
部品1
 48
50.0
100
AcDbLine
 10
7762.600000000003
 20
5425.000000000009
 30
0.0
 11
7762.600000000003
 21
5615.000000000009
 31
0.0
  0
LINE
  5
1CAC7
330
747D
100
AcDbEntity
  8
部品1
 48
50.0
100
AcDbLine
 10
7297.599999999999
 20
7712.0
 30
0.0
 11
6907.599999999999
 21
7712.0
 31
0.0
  0
LINE
  5
1CAC8
330
747D
100
AcDbEntity
  8
部品1
 48
50.0
100
AcDbLine
 10
7297.599999999999
 20
7711.999999999996
 30
0.0
 11
6907.599999999999
 21
7712.0
 31
0.0
  0
LINE
  5
1CAC9
330
747D
100
AcDbEntity
  8
部品1
 48
50.0
100
AcDbLine
 10
7297.599999999999
 20
7522.0
 30
0.0
 11
6907.599999999999
 21
7522.0
 31
0.0
  0
LINE
  5
1CACE
330
747D
100
AcDbEntity
  8
部品1
 48
50.0
100
AcDbLine
 10
6907.599999999999
 20
7522.0
 30
0.0
 11
6907.599999999999
 21
7712.0
 31
0.0
  0
LINE
  5
1CAD0
330
747D
100
AcDbEntity
  8
部品1
 48
50.0
100
AcDbLine
 10
7297.599999999999
 20
7522.0
 30
0.0
 11
7297.599999999999
 21
7712.0
 31
0.0
  0
LINE
  5
1CAD1
330
747D
100
AcDbEntity
  8
部品1
 48
50.0
100
AcDbLine
 10
7762.600000000002
 20
7712.000000000006
 30
0.0
 11
7572.600000000003
 21
7712.000000000006
 31
0.0
  0
LINE
  5
1CAD2
330
747D
100
AcDbEntity
  8
部品1
 48
50.0
100
AcDbLine
 10
7762.600000000002
 20
7522.000000000005
 30
0.0
 11
7572.600000000003
 21
7522.000000000005
 31
0.0
  0
LINE
  5
1CAD3
330
747D
100
AcDbEntity
  8
部品1
 48
50.0
100
AcDbLine
 10
7572.600000000003
 20
7522.00000000001
 30
0.0
 11
7572.600000000003
 21
7712.000000000009
 31
0.0
  0
LINE
  5
1CAD4
330
747D
100
AcDbEntity
  8
部品1
 48
50.0
100
AcDbLine
 10
7762.600000000002
 20
7522.00000000001
 30
0.0
 11
7762.600000000002
 21
7712.000000000009
 31
0.0
  0
LINE
  5
1CCF0
330
747D
100
AcDbEntity
  8
想像線
 48
10.0
100
AcDbLine
 10
9169.599999999993
 20
7792.0
 30
0.0
 11
9169.600000000004
 21
5440.0
 31
0.0
  0
LINE
  5
1CCF3
330
747D
100
AcDbEntity
  8
部品1
 48
50.0
100
AcDbLine
 10
8729.600000000001
 20
5690.0
 30
0.0
 11
9119.600000000001
 21
5690.0
 31
0.0
  0
LINE
  5
1CCF4
330
747D
100
AcDbEntity
  8
部品1
 48
50.0
100
AcDbLine
 10
8729.600000000001
 20
5500.0
 30
0.0
 11
9119.600000000001
 21
5500.0
 31
0.0
  0
LINE
  5
1CCF5
330
747D
100
AcDbEntity
  8
部品1
 48
50.0
100
AcDbLine
 10
8729.600000000001
 20
5500.000000000003
 30
0.0
 11
9119.600000000001
 21
5500.0
 31
0.0
  0
LINE
  5
1CCF6
330
747D
100
AcDbEntity
  8
部品1
 48
50.0
100
AcDbLine
 10
8729.600000000001
 20
5690.0
 30
0.0
 11
8729.600000000001
 21
5500.0
 31
0.0
  0
LINE
  5
1CCFB
330
747D
100
AcDbEntity
  8
部品1
 48
50.0
100
AcDbLine
 10
9119.600000000001
 20
5690.0
 30
0.0
 11
9119.600000000001
 21
5500.0
 31
0.0
  0
LINE
  5
1CCFF
330
747D
100
AcDbEntity
  8
部品1
 48
50.0
100
AcDbLine
 10
8729.599999999999
 20
7711.999999999996
 30
0.0
 11
9119.599999999998
 21
7712.0
 31
0.0
  0
LINE
  5
1CD00
330
747D
100
AcDbEntity
  8
部品1
 48
50.0
100
AcDbLine
 10
8729.599999999999
 20
7712.0
 30
0.0
 11
9119.599999999998
 21
7712.0
 31
0.0
  0
LINE
  5
1CD01
330
747D
100
AcDbEntity
  8
部品1
 48
50.0
100
AcDbLine
 10
8729.599999999999
 20
7522.0
 30
0.0
 11
9119.599999999998
 21
7522.0
 31
0.0
  0
LINE
  5
1CD02
330
747D
100
AcDbEntity
  8
部品1
 48
50.0
100
AcDbLine
 10
8729.599999999999
 20
7522.0
 30
0.0
 11
8729.599999999999
 21
7712.0
 31
0.0
  0
LINE
  5
1CD04
330
747D
100
AcDbEntity
  8
部品1
 48
50.0
100
AcDbLine
 10
9119.599999999998
 20
7522.0
 30
0.0
 11
9119.599999999998
 21
7712.0
 31
0.0
  0
TEXT
  5
1D002
330
747D
100
AcDbEntity
  8
文字
 62
     7
 48
50.0
100
AcDbText
 10
13188.16259899338
 20
246.7109242801889
 30
0.0
 40
80.0
  1
※寒冷地等は地域の実情に合わせた基礎にして下さい。
  7
STYLE2
100
AcDbText
  0
TEXT
  5
1D6DB
330
747D
100
AcDbEntity
  8
部品1
 48
50.0
100
AcDbText
 10
7877.588787139834
 20
5281.533387806432
 30
0.0
 40
120.0
  1
扉面
  7
STYLE1
 72
     1
 11
8005.588787139833
 21
5265.533387806431
 31
0.0
100
AcDbText
 73
     1
  0
LINE
  5
1E481
330
747D
100
AcDbEntity
  8
部品1
 48
50.0
100
AcDbLine
 10
7572.600000000005
 20
6136.0
 30
0.0
 11
7572.600000000005
 21
6336.0
 31
0.0
  0
LINE
  5
1E482
330
747D
100
AcDbEntity
  8
部品1
 48
50.0
100
AcDbLine
 10
7762.600000000002
 20
6136.0
 30
0.0
 11
7762.600000000003
 21
6336.0
 31
0.0
  0
LINE
  5
1E666
330
747D
100
AcDbEntity
  8
想像線
 48
10.0
100
AcDbLine
 10
6857.600000000001
 20
5443.000000000001
 30
0.0
 11
6860.600000000001
 21
5440.000000000001
 31
0.0
  0
DIMENSION
  5
1E8F8
330
747D
100
AcDbEntity
  8
寸法
 48
50.0
100
AcDbDimension
  2
*D32
 10
9119.599999999998
 20
8478.551625802023
 30
0.0
 11
8001.124470077279
 21
8478.551625802023
 31
0.0
 70
   160
 71
     5
 42
2212.0
  3
INABA_S40G
100
AcDbAlignedDimension
 13
6907.599999999999
 23
7712.0
 33
0.0
 14
9119.599999999998
 24
7712.0
 34
0.0
100
AcDbRotatedDimension
1001
ACAD
1000
DSTYLE
1002
{
1070
   174
1070
     0
1070
   272
1070
     1
1070
   288
1070
     0
1070
   341
1005
0
1002
}
  0
DIMENSION
  5
1E8F9
330
747D
100
AcDbEntity
  8
寸法
 48
50.0
100
AcDbDimension
  2
*D31
 10
6907.599999999999
 20
8478.551625802023
 30
0.0
 11
6882.6
 21
8478.551625802023
 31
0.0
 70
   160
  1
a
 71
     5
 42
50.0
  3
INABA_S40G
100
AcDbAlignedDimension
 13
6857.599999999999
 23
7792.0
 33
0.0
 14
6907.599999999999
 24
7712.0
 34
0.0
100
AcDbRotatedDimension
1001
ACAD
1000
DSTYLE
1002
{
1070
   174
1070
     0
1070
   272
1070
     1
1070
   288
1070
     0
1070
   341
1005
0
1002
}
  0
DIMENSION
  5
1E8FA
330
747D
100
AcDbEntity
  8
寸法
 48
50.0
100
AcDbDimension
  2
*D30
 10
9169.599999999999
 20
8478.551625802023
 30
0.0
 11
9144.599999999998
 21
8478.551625802023
 31
0.0
 70
   160
  1
a
 71
     5
 42
50.0
  3
INABA_S40G
100
AcDbAlignedDimension
 13
9119.599999999998
 23
7712.0
 33
0.0
 14
9169.599999999999
 24
7792.000000000005
 34
0.0
100
AcDbRotatedDimension
1001
ACAD
1000
DSTYLE
1002
{
1070
   174
1070
     0
1070
   272
1070
     1
1070
   288
1070
     0
1070
   341
1005
0
1002
}
  0
DIMENSION
  5
1E8FB
330
747D
100
AcDbEntity
  8
寸法
 48
50.0
100
AcDbDimension
  2
*D29
 10
8359.600000000002
 20
8220.624237135963
 30
0.0
 11
8013.600000000002
 21
8320.665049700766
 31
0.0
 70
    32
 71
     5
 42
692.0
  3
INABA_S40G
100
AcDbAlignedDimension
 13
7667.600000000003
 23
7712.000000000006
 33
0.0
 14
8359.600000000002
 24
7712.000000000003
 34
0.0
100
AcDbRotatedDimension
1001
ACAD
1000
DSTYLE
1002
{
1070
   174
1070
     0
1070
   272
1070
     1
1070
   288
1070
     0
1070
   341
1005
0
1002
}
  0
DIMENSION
  5
1E8FC
330
747D
100
AcDbEntity
  8
寸法
 48
50.0
100
AcDbDimension
  2
*D28
 10
6907.599999999999
 20
8220.624237135963
 30
0.0
 11
7287.600000000001
 21
8320.624237135962
 31
0.0
 70
    32
 71
     5
 42
760.0000000000036
  3
INABA_S40G
100
AcDbAlignedDimension
 13
7667.600000000003
 23
7712.000000000006
 33
0.0
 14
6907.599999999999
 24
7712.0
 34
0.0
100
AcDbRotatedDimension
1001
ACAD
1000
DSTYLE
1002
{
1070
   174
1070
     0
1070
   272
1070
     1
1070
   288
1070
     0
1070
   341
1005
0
1002
}
  0
DIMENSION
  5
1E8FD
330
747D
100
AcDbEntity
  8
寸法
 48
50.0
100
AcDbDimension
  2
*D27
 10
9119.599999999998
 20
8220.624237135963
 30
0.0
 11
8739.600000000001
 21
8320.624237135962
 31
0.0
 70
    32
 71
     5
 42
759.9999999999964
  3
INABA_S40G
100
AcDbAlignedDimension
 13
8359.600000000002
 23
7712.000000000003
 33
0.0
 14
9119.599999999998
 24
7712.0
 34
0.0
100
AcDbRotatedDimension
1001
ACAD
1000
DSTYLE
1002
{
1070
   174
1070
     0
1070
   272
1070
     1
1070
   288
1070
     0
1070
   341
1005
0
1002
}
  0
DIMENSION
  5
1E9AA
330
747D
100
AcDbEntity
  8
寸法
 48
50.0
100
AcDbDimension
  2
*D33
 10
9119.599999999998
 20
8478.551625802023
 30
0.0
 11
8001.124470077279
 21
8478.551625802023
 31
0.0
 70
   160
 71
     5
 42
2212.0
  3
INABA_S40G
100
AcDbAlignedDimension
 13
6907.599999999999
 23
7712.0
 33
0.0
 14
9119.599999999998
 24
7712.0
 34
0.0
100
AcDbRotatedDimension
1001
ACAD
1000
DSTYLE
1002
{
1070
   174
1070
     0
1070
   272
1070
     1
1070
   288
1070
     0
1070
   341
1005
0
1002
}
  0
LINE
  5
1E9C0
330
747D
100
AcDbEntity
  8
部品1
 48
50.0
100
AcDbLine
 10
8454.600000000002
 20
6135.999999999999
 30
0.0
 11
8454.600000000002
 21
6336.0
 31
0.0
  0
LINE
  5
1E9C1
330
747D
100
AcDbEntity
  8
部品1
 48
50.0
100
AcDbLine
 10
8264.600000000006
 20
6136.0
 30
0.0
 11
8264.600000000005
 21
6336.0
 31
0.0
  0
LINE
  5
1E9C4
330
747D
100
AcDbEntity
  8
部品1
 48
50.0
100
AcDbLine
 10
8454.600000000001
 20
7522.000000000007
 30
0.0
 11
8454.600000000001
 21
7712.000000000007
 31
0.0
  0
LINE
  5
1E9C5
330
747D
100
AcDbEntity
  8
部品1
 48
50.0
100
AcDbLine
 10
8264.600000000003
 20
7522.000000000007
 30
0.0
 11
8264.600000000003
 21
7712.000000000007
 31
0.0
  0
LINE
  5
1E9C6
330
747D
100
AcDbEntity
  8
部品1
 48
50.0
100
AcDbLine
 10
8454.600000000001
 20
7522.000000000004
 30
0.0
 11
8264.600000000003
 21
7522.000000000004
 31
0.0
  0
LINE
  5
1E9C7
330
747D
100
AcDbEntity
  8
部品1
 48
50.0
100
AcDbLine
 10
8454.600000000001
 20
7712.000000000003
 30
0.0
 11
8264.600000000003
 21
7712.000000000003
 31
0.0
  0
LINE
  5
1E9C8
330
747D
100
AcDbEntity
  8
部品1
 48
50.0
100
AcDbLine
 10
8454.600000000002
 20
5425.000000000007
 30
0.0
 11
8454.600000000002
 21
5615.000000000008
 31
0.0
  0
LINE
  5
1E9C9
330
747D
100
AcDbEntity
  8
部品1
 48
50.0
100
AcDbLine
 10
8264.600000000003
 20
5425.000000000007
 30
0.0
 11
8264.600000000003
 21
5615.000000000008
 31
0.0
  0
LINE
  5
1E9CA
330
747D
100
AcDbEntity
  8
部品1
 48
50.0
100
AcDbLine
 10
8454.600000000002
 20
5615.000000000003
 30
0.0
 11
8264.600000000003
 21
5615.000000000003
 31
0.0
  0
LINE
  5
1E9CB
330
747D
100
AcDbEntity
  8
部品1
 48
50.0
100
AcDbLine
 10
8454.600000000002
 20
5425.000000000004
 30
0.0
 11
8264.600000000003
 21
5425.000000000004
 31
0.0
  0
LINE
  5
1EA08
330
747D
100
AcDbEntity
  8
部品1
 48
50.0
100
AcDbLine
 10
8264.600000000005
 20
6336.0
 30
0.0
 11
8454.600000000002
 21
6336.0
 31
0.0
  0
LINE
  5
1EA09
330
747D
100
AcDbEntity
  8
部品1
 48
50.0
100
AcDbLine
 10
8264.600000000006
 20
6136.0
 30
0.0
 11
8454.600000000002
 21
6135.999999999999
 31
0.0
  0
LINE
  5
1EA0A
330
747D
100
AcDbEntity
  8
部品1
 48
50.0
100
AcDbLine
 10
7762.600000000002
 20
6136.0
 30
0.0
 11
7572.600000000005
 21
6136.0
 31
0.0
  0
LINE
  5
1EA0B
330
747D
100
AcDbEntity
  8
部品1
 48
50.0
100
AcDbLine
 10
7762.600000000003
 20
6336.0
 30
0.0
 11
7572.600000000005
 21
6336.0
 31
0.0
  0
LEADER
  5
1EB63
330
747D
100
AcDbEntity
  8
寸法
 48
50.0
100
AcDbLeader
  3
INABA_S50G
 71
     0
 73
     0
 74
     0
 75
     1
 40
120.0
 41
1282.349242404918
 76
     3
 10
9214.44068557283
 20
7701.456639287918
 30
0.0
 10
9470.827897155237
 20
7897.800576904058
 30
0.0
 10
9595.827897155237
 20
7897.800576904058
 30
0.0
340
1EB64
1001
ACAD
1000
DSTYLE
1002
{
1070
   341
1005
1C530
1070
    40
1040
1.0
1070
   343
1005
1C530
1070
   344
1005
1C530
1002
}
  0
MTEXT
  5
1EB64
102
{ACAD_REACTORS
330
1EB63
102
}
330
747D
100
AcDbEntity
  8
部品1
 62
     7
 48
50.0
100
AcDbMText
 10
9620.827897155237
 20
7982.800576904057
 30
0.0
 40
120.0
 41
0.0
 71
     4
 72
     1
  1
現場打コンクリート
  7
STYLE1
 73
     1
 44
1.0
1001
ACAD
1000
MTEXTBEGIN
1070
    73
1070
     1
1070
    44
1040
1.0
1070
    74
1070
     0
1000
MTEXTEND
  0
TEXT
  5
1EB65
330
747D
100
AcDbEntity
  8
部品1
 48
50.0
100
AcDbText
 10
9628.951829250341
 20
8109.278165376133
 30
0.0
 40
120.0
  1
組立後
  7
STYLE1
100
AcDbText
  0
LINE
  5
1ECE1
330
747D
100
AcDbEntity
  8
点線
 48
10.0
100
AcDbLine
 10
9219.599999999998
 20
5599.999999999999
 30
0.0
 11
9219.600000000001
 21
5399.999999999999
 31
0.0
  0
LINE
  5
1ECE2
330
747D
100
AcDbEntity
  8
点線
 48
10.0
100
AcDbLine
 10
9019.600000000002
 20
5399.999999999999
 30
0.0
 11
9219.600000000001
 21
5399.999999999999
 31
0.0
  0
LINE
  5
1ECE3
330
747D
100
AcDbEntity
  8
点線
 48
10.0
100
AcDbLine
 10
9019.600000000002
 20
5600.0
 30
0.0
 11
9019.600000000002
 21
5399.999999999999
 31
0.0
  0
LINE
  5
1ECE4
330
747D
100
AcDbEntity
  8
点線
 48
10.0
100
AcDbLine
 10
9019.600000000002
 20
5600.0
 30
0.0
 11
9219.599999999998
 21
5599.999999999999
 31
0.0
  0
LINE
  5
1ECE5
330
747D
100
AcDbEntity
  8
点線
 48
10.0
100
AcDbLine
 10
6807.6
 20
5399.999999999999
 30
0.0
 11
7007.6
 21
5399.999999999999
 31
0.0
  0
LINE
  5
1ECE6
330
747D
100
AcDbEntity
  8
点線
 48
10.0
100
AcDbLine
 10
6807.6
 20
5600.0
 30
0.0
 11
6807.6
 21
5399.999999999999
 31
0.0
  0
LINE
  5
1ECE7
330
747D
100
AcDbEntity
  8
点線
 48
10.0
100
AcDbLine
 10
7007.6
 20
5599.999999999999
 30
0.0
 11
7007.6
 21
5399.999999999999
 31
0.0
  0
LINE
  5
1ECE8
330
747D
100
AcDbEntity
  8
点線
 48
10.0
100
AcDbLine
 10
6807.6
 20
5600.0
 30
0.0
 11
7007.6
 21
5599.999999999999
 31
0.0
  0
LINE
  5
1ED13
330
747D
100
AcDbEntity
  8
点線
 48
10.0
100
AcDbLine
 10
6807.599999999999
 20
7611.999999999992
 30
0.0
 11
7007.6
 21
7611.999999999992
 31
0.0
  0
LINE
  5
1ED14
330
747D
100
AcDbEntity
  8
点線
 48
10.0
100
AcDbLine
 10
7007.599999999996
 20
7811.999999999992
 30
0.0
 11
7007.6
 21
7611.999999999992
 31
0.0
  0
LINE
  5
1ED15
330
747D
100
AcDbEntity
  8
点線
 48
10.0
100
AcDbLine
 10
6807.599999999999
 20
7811.999999999994
 30
0.0
 11
6807.599999999999
 21
7611.999999999992
 31
0.0
  0
LINE
  5
1ED16
330
747D
100
AcDbEntity
  8
点線
 48
10.0
100
AcDbLine
 10
6807.599999999999
 20
7811.999999999994
 30
0.0
 11
7007.599999999996
 21
7811.999999999992
 31
0.0
  0
LINE
  5
1ED17
330
747D
100
AcDbEntity
  8
点線
 48
10.0
100
AcDbLine
 10
9019.599999999998
 20
7811.999999999994
 30
0.0
 11
9019.599999999998
 21
7611.999999999992
 31
0.0
  0
LINE
  5
1ED18
330
747D
100
AcDbEntity
  8
点線
 48
10.0
100
AcDbLine
 10
9019.599999999998
 20
7611.999999999992
 30
0.0
 11
9219.599999999998
 21
7611.999999999992
 31
0.0
  0
LINE
  5
1ED19
330
747D
100
AcDbEntity
  8
点線
 48
10.0
100
AcDbLine
 10
9019.599999999998
 20
7811.999999999994
 30
0.0
 11
9219.599999999998
 21
7811.999999999992
 31
0.0
  0
LINE
  5
1ED1A
330
747D
100
AcDbEntity
  8
点線
 48
10.0
100
AcDbLine
 10
9219.599999999998
 20
7811.999999999992
 30
0.0
 11
9219.599999999998
 21
7611.999999999992
 31
0.0
  0
TEXT
  5
1F34D
330
747D
100
AcDbEntity
  8
文字
 48
50.0
100
AcDbText
 10
7308.552229389291
 20
7187.065264964513
 30
0.0
 40
120.0
  1
100x190x390
  7
STYLE1
100
AcDbText
  0
MTEXT
  5
1F34E
102
{ACAD_REACTORS
330
1F34F
102
}
330
747D
100
AcDbEntity
  8
部品1
 62
     7
 48
50.0
100
AcDbMText
 10
7447.493414253826
 20
7439.563864458134
 30
0.0
 40
120.0
 41
0.0
 71
     4
 72
     1
  1
\A1;C.B
  7
STYLE1
 73
     1
 44
1.0
1001
ACAD
1000
MTEXTBEGIN
1070
    73
1070
     1
1070
    44
1040
1.0
1070
    74
1070
     0
1000
MTEXTEND
  0
LEADER
  5
1F34F
330
747D
100
AcDbEntity
  8
寸法
 48
50.0
100
AcDbLeader
  3
INABA_S50G
 71
     0
 73
     0
 74
     0
 75
     1
 40
120.0
 41
185.591883092037
 76
     3
 10
7229.116701030521
 20
7569.697007727213
 30
0.0
 10
7297.493414253826
 20
7354.563864458135
 30
0.0
 10
7422.493414253826
 20
7354.563864458135
 30
0.0
340
1F34E
1001
ACAD
1000
DSTYLE
1002
{
1070
   341
1005
1C530
1070
    40
1040
1.0
1070
   343
1005
1C530
1070
   344
1005
1C530
1002
}
  0
TEXT
  5
1F6EC
330
747D
100
AcDbEntity
  8
文字
 48
50.0
100
AcDbText
 10
9651.866426480898
 20
7707.363529387935
 30
0.0
 40
120.0
  1
深サ:200
  7
STYLE1
100
AcDbText
  0
DIMENSION
  5
1F6ED
330
747D
100
AcDbEntity
  8
寸法
 48
50.0
100
AcDbDimension
  2
*D35
 10
9737.840873485113
 20
5399.999999999993
 30
0.0
 11
9737.840873485112
 21
5499.999999999993
 31
0.0
 70
   160
 71
     5
 42
200.0
  3
INABA_S40G
100
AcDbAlignedDimension
 13
9219.599999999998
 23
5599.999999999993
 33
0.0
 14
9219.600000000001
 24
5399.999999999993
 34
0.0
 50
90.0
100
AcDbRotatedDimension
1001
ACAD
1000
DSTYLE
1002
{
1070
   174
1070
     0
1070
   272
1070
     1
1070
   288
1070
     0
1070
   341
1005
0
1002
}
  0
DIMENSION
  5
1F6EE
330
747D
100
AcDbEntity
  8
寸法
 48
50.0
100
AcDbDimension
  2
*D34
 10
9019.600000000002
 20
4926.16892615646
 30
0.0
 11
9119.600000000001
 21
4926.16892615646
 31
0.0
 70
   160
 71
     5
 42
200.0
  3
INABA_S40G
100
AcDbAlignedDimension
 13
9219.600000000001
 23
5399.999999999993
 33
0.0
 14
9019.600000000002
 24
5399.999999999993
 34
0.0
100
AcDbRotatedDimension
1001
ACAD
1000
DSTYLE
1002
{
1070
   174
1070
     0
1070
   272
1070
     1
1070
   288
1070
     0
1070
   341
1005
0
1002
}
  0
LINE
  5
1FE7D
330
747D
100
AcDbEntity
  8
部品1
 48
50.0
100
AcDbLine
 10
7762.60000000001
 20
7075.999999999996
 30
0.0
 11
7572.600000000012
 21
7075.999999999996
 31
0.0
  0
LINE
  5
1FE7E
330
747D
100
AcDbEntity
  8
部品1
 48
50.0
100
AcDbLine
 10
7762.600000000009
 20
6875.999999999996
 30
0.0
 11
7572.600000000012
 21
6875.999999999996
 31
0.0
  0
LINE
  5
1FE7F
330
747D
100
AcDbEntity
  8
部品1
 48
50.0
100
AcDbLine
 10
8264.600000000013
 20
6875.999999999996
 30
0.0
 11
8454.600000000009
 21
6875.999999999996
 31
0.0
  0
LINE
  5
1FE80
330
747D
100
AcDbEntity
  8
部品1
 48
50.0
100
AcDbLine
 10
8264.600000000012
 20
7075.999999999996
 30
0.0
 11
8454.600000000009
 21
7075.999999999996
 31
0.0
  0
LINE
  5
1FE81
330
747D
100
AcDbEntity
  8
部品1
 48
50.0
100
AcDbLine
 10
8264.600000000013
 20
6875.999999999996
 30
0.0
 11
8264.600000000012
 21
7075.999999999996
 31
0.0
  0
LINE
  5
1FE82
330
747D
100
AcDbEntity
  8
部品1
 48
50.0
100
AcDbLine
 10
8454.600000000009
 20
6875.999999999996
 30
0.0
 11
8454.600000000009
 21
7075.999999999996
 31
0.0
  0
LINE
  5
1FE85
330
747D
100
AcDbEntity
  8
部品1
 48
50.0
100
AcDbLine
 10
7762.600000000009
 20
6875.999999999996
 30
0.0
 11
7762.60000000001
 21
7075.999999999996
 31
0.0
  0
LINE
  5
1FE86
330
747D
100
AcDbEntity
  8
部品1
 48
50.0
100
AcDbLine
 10
7572.600000000012
 20
6875.999999999996
 30
0.0
 11
7572.600000000012
 21
7075.999999999996
 31
0.0
  0
LINE
  5
1FEBC
330
747D
100
AcDbEntity
  8
寸法
 62
     0
 48
50.0
100
AcDbLine
 10
8929.599999999998
 20
6510.999999999999
 30
0.0
 11
9119.599999999998
 21
6510.999999999999
 31
0.0
  0
LINE
  5
1FEBD
330
747D
100
AcDbEntity
  8
寸法
 62
     0
 48
50.0
100
AcDbLine
 10
8929.599999999998
 20
6700.999999999999
 30
0.0
 11
9119.599999999998
 21
6700.999999999999
 31
0.0
  0
LINE
  5
1FEBE
330
747D
100
AcDbEntity
  8
部品1
 48
50.0
100
AcDbLine
 10
9119.599999999998
 20
6511.0
 30
0.0
 11
9119.599999999998
 21
6700.999999999999
 31
0.0
  0
LINE
  5
1FEBF
330
747D
100
AcDbEntity
  8
部品1
 48
50.0
100
AcDbLine
 10
8929.599999999998
 20
6510.999999999999
 30
0.0
 11
8929.599999999998
 21
6700.999999999999
 31
0.0
  0
LINE
  5
1FEC0
330
747D
100
AcDbEntity
  8
寸法
 62
     0
 48
50.0
100
AcDbLine
 10
6907.599999999999
 20
6701.0
 30
0.0
 11
6907.599999999999
 21
6511.0
 31
0.0
  0
LINE
  5
1FEC1
330
747D
100
AcDbEntity
  8
部品1
 48
50.0
100
AcDbLine
 10
7097.599999999999
 20
6511.000000000001
 30
0.0
 11
7097.599999999999
 21
6701.0
 31
0.0
  0
LINE
  5
1FEC2
330
747D
100
AcDbEntity
  8
寸法
 62
     0
 48
50.0
100
AcDbLine
 10
6907.599999999999
 20
6701.0
 30
0.0
 11
7097.599999999999
 21
6701.0
 31
0.0
  0
LINE
  5
1FEC3
330
747D
100
AcDbEntity
  8
寸法
 62
     0
 48
50.0
100
AcDbLine
 10
6907.599999999999
 20
6511.0
 30
0.0
 11
7097.599999999999
 21
6511.0
 31
0.0
  0
DIMENSION
  5
202B4
330
747D
100
AcDbEntity
  8
寸法
 48
50.0
100
AcDbDimension
  2
*D40
 10
6692.579300538928
 20
5499.999999999999
 30
0.0
 11
6692.579300538927
 21
4891.514718625764
 31
0.0
 70
   160
  1
扉の出<>
 71
     5
 42
74.99999999999818
  3
INABA_S40G
100
AcDbAlignedDimension
 13
6936.6
 23
5425.0
 33
0.0
 14
6870.543893583842
 24
5499.999999999999
 34
0.0
 50
90.0
100
AcDbRotatedDimension
1001
ACAD
1000
DSTYLE
1002
{
1070
   341
1005
0
1002
}
  0
LINE
  5
202B5
102
{ACAD_REACTORS
330
202D3
102
}
330
747D
100
AcDbEntity
  8
想像線
 48
10.0
100
AcDbLine
 10
8670.599999999998
 20
5425.000000000004
 30
0.0
 11
8670.599999999998
 21
5500.0
 31
0.0
  0
LINE
  5
202B6
102
{ACAD_REACTORS
330
202D3
102
}
330
747D
100
AcDbEntity
  8
想像線
 48
10.0
100
AcDbLine
 10
6936.6
 20
5500.0
 30
0.0
 11
8670.599999999998
 21
5500.000000000003
 31
0.0
  0
LINE
  5
202B7
102
{ACAD_REACTORS
330
202D3
102
}
330
747D
100
AcDbEntity
  8
想像線
 48
10.0
100
AcDbLine
 10
6936.6
 20
5425.0
 30
0.0
 11
6936.6
 21
5500.0
 31
0.0
  0
HATCH
  5
202B8
102
{ACAD_REACTORS
330
202D3
102
}
330
747D
100
AcDbEntity
  8
寸法
 48
50.0
100
AcDbHatch
 10
0.0
 20
0.0
 30
0.0
210
0.0
220
0.0
230
1.0
  2
DOTS
 70
     0
 71
     0
 91
        1
 92
        7
 72
     0
 73
     1
 93
        4
 10
8670.599999999998
 20
5500.000000000003
 10
6936.600000000002
 20
5500.0
 10
6936.6
 20
5425.0
 10
8670.599999999998
 20
5425.000000000004
 97
        0
 75
     0
 76
     1
 52
0.0
 41
10.0
 77
     0
 78
     1
 53
0.0
 43
-173.7936156968508
 44
784.8721425423136
 45
7.9375
 46
15.875
 79
     2
 49
0.0
 49
-15.875
 47
3.549710751249138
 98
        1
 10
7555.003986455638
 20
5495.942190535872
  0
LINE
  5
202B9
102
{ACAD_REACTORS
330
202D3
102
}
330
747D
100
AcDbEntity
  8
想像線
 48
10.0
100
AcDbLine
 10
6936.6
 20
5425.0
 30
0.0
 11
8670.599999999998
 21
5425.000000000004
 31
0.0
  0
LINE
  5
204B5
330
747D
100
AcDbEntity
  8
部品1
 48
50.0
100
AcDbLine
 10
6969.539401023372
 20
740.7607876117562
 30
0.0
 11
6569.539401023374
 21
740.7607876117545
 31
0.0
  0
LINE
  5
204B6
330
747D
100
AcDbEntity
  8
部品1
 48
50.0
100
AcDbLine
 10
6969.539401023374
 20
1140.760787611754
 30
0.0
 11
6969.539401023372
 21
740.7607876117562
 31
0.0
  0
LINE
  5
204B7
330
747D
100
AcDbEntity
  8
部品1
 48
50.0
100
AcDbLine
 10
6569.539401023374
 20
740.7607876117545
 30
0.0
 11
6569.539401023374
 21
1140.760787611754
 31
0.0
  0
TEXT
  5
204B8
330
747D
100
AcDbEntity
  8
部品1
100
AcDbText
 10
6173.380976809117
 20
402.0913671270181
 30
0.0
 40
80.0
  1
a寸法：100～150mmに対応
  7
STYLE2
100
AcDbText
  0
TEXT
  5
204B9
330
747D
100
AcDbEntity
  8
部品1
100
AcDbText
 10
9290.785345987952
 20
378.6220795440777
 30
0.0
 40
80.0
  1
  が4本必要になります。
  7
STYLE2
100
AcDbText
  0
TEXT
  5
204BA
330
747D
100
AcDbEntity
  8
部品1
100
AcDbText
 10
9289.421709624315
 20
528.3190492410467
 30
0.0
 40
80.0
  1
\U+203BオールアンカーM10(市販品)
  7
STYLE2
100
AcDbText
  0
TEXT
  5
204BB
330
747D
100
AcDbEntity
  8
部品1
100
AcDbText
 10
9285.330800533406
 20
673.9251098471076
 30
0.0
 40
80.0
  1
c寸法：135～175,190mmに対応
  7
STYLE2
100
AcDbText
  0
TEXT
  5
204BC
330
747D
100
AcDbEntity
  8
部品1
100
AcDbText
 10
7731.908046917862
 20
378.6220795440777
 30
0.0
 40
80.0
  1
  が4本必要になります。
  7
STYLE2
100
AcDbText
  0
TEXT
  5
204BD
330
747D
100
AcDbEntity
  8
部品1
100
AcDbText
 10
7730.544410554225
 20
528.3190492410467
 30
0.0
 40
80.0
  1
\U+203BオールアンカーM10(市販品)
  7
STYLE2
100
AcDbText
  0
TEXT
  5
204BE
330
747D
100
AcDbEntity
  8
部品1
100
AcDbText
 10
7725.99895600877
 20
673.9251098471076
 30
0.0
 40
80.0
  1
b寸法：100～120mmに対応
  7
STYLE2
100
AcDbText
  0
DIMENSION
  5
204BF
330
747D
100
AcDbEntity
  8
寸法
 48
50.0
100
AcDbDimension
  2
*D46
 10
7067.610405383771
 20
1140.760787611754
 30
0.0
 11
6967.61040538377
 21
1240.760787611756
 31
0.0
 70
    32
  1
a
 71
     5
 42
200.0000000000009
  3
INABA_S40G
100
AcDbAlignedDimension
 13
6819.539401023376
 23
1340.760787611755
 33
0.0
 14
6819.539401023378
 24
1140.760787611754
 34
0.0
 50
90.0
100
AcDbRotatedDimension
1001
ACAD
1000
DSTYLE
1002
{
1070
   174
1070
     0
1070
   272
1070
     1
1070
   288
1070
     0
1070
   341
1005
0
1002
}
  0
LINE
  5
204C0
330
747D
100
AcDbEntity
  8
部品1
 48
50.0
100
AcDbLine
 10
10836.83169876017
 20
2600.000000000002
 30
0.0
 11
10836.83169876017
 21
200.0
 31
0.0
  0
TEXT
  5
204C1
330
747D
100
AcDbEntity
  8
部品1
100
AcDbText
 10
8398.176479605451
 20
2175.866049504641
 30
0.0
 40
120.0
  1
地盤がコンクリートの場合
  7
STYLE2
100
AcDbText
  0
LINE
  5
204C2
330
747D
100
AcDbEntity
  8
部品1
100
AcDbLine
 10
9884.927506749455
 20
1469.904381151202
 30
0.0
 11
9884.927506749455
 21
1454.360787611753
 31
0.0
  0
LINE
  5
204C3
330
747D
100
AcDbEntity
  8
部品1
100
AcDbLine
 10
9900.927506749454
 20
1469.904381151202
 30
0.0
 11
9900.927506749454
 21
1454.360787611753
 31
0.0
  0
LINE
  5
204C4
330
747D
100
AcDbEntity
  8
部品1
100
AcDbLine
 10
9932.927506749456
 20
1544.360787611757
 30
0.0
 11
9932.927506749456
 21
1441.006256599767
 31
0.0
  0
LINE
  5
204C5
330
747D
100
AcDbEntity
  8
部品1
100
AcDbLine
 10
9852.927506749455
 20
1544.360787611753
 30
0.0
 11
9852.927506749455
 21
1441.006256599761
 31
0.0
  0
ARC
  5
204C6
330
747D
100
AcDbEntity
  8
部品1
100
AcDbCircle
 10
9892.927506749455
 20
1454.360787611753
 30
0.0
 40
8.0
100
AcDbArc
 50
288.1948723386656
 51
0.0
  0
ARC
  5
204C7
330
747D
100
AcDbEntity
  8
部品1
100
AcDbCircle
 10
9892.927506749455
 20
1454.360787611753
 30
0.0
 40
8.0
100
AcDbArc
 50
180.0
 51
251.8051276613344
  0
ARC
  5
204C8
330
747D
100
AcDbEntity
  8
部品1
100
AcDbCircle
 10
9923.87344726921
 20
1436.760787611751
 30
0.0
 40
10.0
100
AcDbArc
 50
5.684241598181141
 51
90.0
  0
ARC
  5
204C9
330
747D
100
AcDbEntity
  8
部品1
100
AcDbCircle
 10
9861.981566229699
 20
1436.760787611754
 30
0.0
 40
10.0
100
AcDbArc
 50
90.0
 51
174.3157584018188
  0
LINE
  5
204CA
330
747D
100
AcDbEntity
  8
部品1
100
AcDbLine
 10
9861.981566229699
 20
1446.760787611754
 30
0.0
 11
9923.87344726921
 21
1446.760787611751
 31
0.0
  0
CIRCLE
  5
204CB
330
747D
100
AcDbEntity
  8
部品1
100
AcDbCircle
 10
9892.927506749455
 20
1384.360787611753
 30
0.0
 40
16.0
  0
LINE
  5
204CC
330
747D
100
AcDbEntity
  8
細線
100
AcDbLine
 10
9900.927506749454
 20
1424.760787611751
 30
0.0
 11
9900.927506749454
 21
1398.217194072305
 31
0.0
  0
LINE
  5
204CD
330
747D
100
AcDbEntity
  8
細線
100
AcDbLine
 10
9884.927506749455
 20
1424.760787611751
 30
0.0
 11
9884.927506749455
 21
1398.217194072305
 31
0.0
  0
LINE
  5
204CE
330
747D
100
AcDbEntity
  8
細線
100
AcDbLine
 10
9907.927506749455
 20
1360.760787611751
 30
0.0
 11
9907.927506749455
 21
1354.760787611751
 31
0.0
  0
LINE
  5
204CF
330
747D
100
AcDbEntity
  8
細線
100
AcDbLine
 10
9877.927506749456
 20
1360.760787611754
 30
0.0
 11
9877.927506749456
 21
1354.760787611754
 31
0.0
  0
LINE
  5
204D0
330
747D
100
AcDbEntity
  8
細線
100
AcDbLine
 10
9877.927506749456
 20
1360.760787611754
 30
0.0
 11
9907.927506749455
 21
1360.760787611754
 31
0.0
  0
LINE
  5
204D1
330
747D
100
AcDbEntity
  8
細線
100
AcDbLine
 10
9877.927506749456
 20
1354.760787611754
 30
0.0
 11
9907.927506749455
 21
1354.760787611754
 31
0.0
  0
ARC
  5
204D2
330
747D
100
AcDbEntity
  8
細線
100
AcDbCircle
 10
9892.927506749455
 20
1424.760787611751
 30
0.0
 40
8.0
100
AcDbArc
 50
0.0
 51
180.0
  0
CIRCLE
  5
204D3
330
747D
100
AcDbEntity
  8
細線
100
AcDbCircle
 10
9892.927506749455
 20
1524.360787611753
 30
0.0
 40
8.0
  0
CIRCLE
  5
204D4
330
747D
100
AcDbEntity
  8
部品1
100
AcDbCircle
 10
9892.927506749455
 20
1483.760787611754
 30
0.0
 40
16.0
  0
ARC
  5
204D5
330
747D
100
AcDbEntity
  8
部品1
100
AcDbCircle
 10
9892.927506749455
 20
1494.360787611753
 30
0.0
 40
8.0
100
AcDbArc
 50
28.00674301450512
 51
151.9932569854948
  0
ARC
  5
204D6
330
747D
100
AcDbEntity
  8
部品1
100
AcDbCircle
 10
9922.927506749454
 20
1544.360787611757
 30
0.0
 40
10.0
100
AcDbArc
 50
0.0
 51
90.0
  0
ARC
  5
204D7
330
747D
100
AcDbEntity
  8
部品1
100
AcDbCircle
 10
9862.927506749455
 20
1544.360787611753
 30
0.0
 40
10.0
100
AcDbArc
 50
90.0
 51
180.0
  0
LINE
  5
204D8
330
747D
100
AcDbEntity
  8
部品1
100
AcDbLine
 10
9862.927506749455
 20
1554.360787611753
 30
0.0
 11
9922.927506749454
 21
1554.360787611757
 31
0.0
  0
LINE
  5
204D9
330
747D
100
AcDbEntity
  8
細線
100
AcDbLine
 10
9844.848174678796
 20
1367.416722334008
 30
0.0
 11
9771.50410940105
 21
1440.760787611754
 31
0.0
  0
LINE
  5
204DA
330
747D
100
AcDbEntity
  8
細線
100
AcDbLine
 10
9848.779312272432
 20
1405.911991611565
 30
0.0
 11
9813.930516272243
 21
1440.760787611754
 31
0.0
  0
LINE
  5
204DB
330
747D
100
AcDbEntity
  8
部品1
100
AcDbLine
 10
9962.927506749455
 20
1152.760787611754
 30
0.0
 11
9962.927506749455
 21
1140.760787611754
 31
0.0
  0
LINE
  5
204DC
330
747D
100
AcDbEntity
  8
部品1
100
AcDbLine
 10
9902.927506749456
 20
1173.160787611756
 30
0.0
 11
9907.927506749455
 21
1173.160787611756
 31
0.0
  0
LINE
  5
204DD
330
747D
100
AcDbEntity
  8
部品1
100
AcDbLine
 10
9877.927506749456
 20
1207.160787611756
 30
0.0
 11
9907.927506749455
 21
1207.160787611756
 31
0.0
  0
LINE
  5
204DE
330
747D
100
AcDbEntity
  8
部品1
100
AcDbLine
 10
9877.927506749456
 20
1213.160787611756
 30
0.0
 11
9907.927506749455
 21
1213.160787611756
 31
0.0
  0
LINE
  5
204DF
330
747D
100
AcDbEntity
  8
部品1
100
AcDbLine
 10
9877.927506749456
 20
1213.160787611756
 30
0.0
 11
9877.927506749456
 21
1207.160787611756
 31
0.0
  0
LINE
  5
204E0
330
747D
100
AcDbEntity
  8
部品1
100
AcDbLine
 10
9907.927506749455
 20
1213.160787611752
 30
0.0
 11
9907.927506749455
 21
1207.160787611752
 31
0.0
  0
LINE
  5
204E1
330
747D
100
AcDbEntity
  8
部品1
100
AcDbLine
 10
9885.927506749455
 20
1205.013683635414
 30
0.0
 11
9899.927506749456
 21
1205.013683635414
 31
0.0
  0
LINE
  5
204E2
330
747D
100
AcDbEntity
  8
部品1
100
AcDbLine
 10
9882.927506749455
 20
1192.760787611754
 30
0.0
 11
9902.927506749456
 21
1192.760787611754
 31
0.0
  0
LINE
  5
204E3
330
747D
100
AcDbEntity
  8
部品1
100
AcDbLine
 10
9875.927506749455
 20
1171.760787611754
 30
0.0
 11
9872.927506749455
 21
1168.760787611754
 31
0.0
  0
LINE
  5
204E4
330
747D
100
AcDbEntity
  8
部品1
100
AcDbLine
 10
9875.927506749455
 20
1171.760787611754
 30
0.0
 11
9909.927506749454
 21
1171.760787611754
 31
0.0
  0
LINE
  5
204E5
330
747D
100
AcDbEntity
  8
部品1
100
AcDbLine
 10
9909.927506749454
 20
1171.760787611754
 30
0.0
 11
9912.927506749454
 21
1168.760787611754
 31
0.0
  0
LINE
  5
204E6
330
747D
100
AcDbEntity
  8
部品1
100
AcDbLine
 10
9877.927506749456
 20
1173.160787611756
 30
0.0
 11
9877.927506749456
 21
1171.760787611754
 31
0.0
  0
LINE
  5
204E7
330
747D
100
AcDbEntity
  8
部品1
100
AcDbLine
 10
9907.927506749455
 20
1173.160787611752
 30
0.0
 11
9907.927506749455
 21
1171.760787611754
 31
0.0
  0
LINE
  5
204E8
330
747D
100
AcDbEntity
  8
部品1
100
AcDbLine
 10
9862.927506749455
 20
1155.760787611754
 30
0.0
 11
9922.927506749454
 21
1155.760787611758
 31
0.0
  0
LINE
  5
204E9
330
747D
100
AcDbEntity
  8
部品1
100
AcDbLine
 10
9862.927506749455
 20
1152.760787611754
 30
0.0
 11
9862.927506749455
 21
1155.760787611754
 31
0.0
  0
LINE
  5
204EA
330
747D
100
AcDbEntity
  8
部品1
100
AcDbLine
 10
9922.927506749454
 20
1152.760787611754
 30
0.0
 11
9922.927506749454
 21
1155.760787611762
 31
0.0
  0
LINE
  5
204EB
330
747D
100
AcDbEntity
  8
部品1
100
AcDbLine
 10
9872.927506749455
 20
1155.760787611754
 30
0.0
 11
9872.927506749455
 21
1168.760787611754
 31
0.0
  0
LINE
  5
204EC
330
747D
100
AcDbEntity
  8
部品1
100
AcDbLine
 10
9882.927506749455
 20
1155.760787611754
 30
0.0
 11
9882.927506749455
 21
1192.760787611754
 31
0.0
  0
LINE
  5
204ED
330
747D
100
AcDbEntity
  8
部品1
100
AcDbLine
 10
9902.927506749456
 20
1155.760787611754
 30
0.0
 11
9902.927506749456
 21
1192.760787611754
 31
0.0
  0
LINE
  5
204EE
330
747D
100
AcDbEntity
  8
部品1
100
AcDbLine
 10
9912.927506749454
 20
1155.760787611758
 30
0.0
 11
9912.927506749454
 21
1168.760787611754
 31
0.0
  0
LINE
  5
204EF
330
747D
100
AcDbEntity
  8
部品1
100
AcDbLine
 10
9877.927506749456
 20
1173.160787611756
 30
0.0
 11
9882.927506749455
 21
1173.160787611756
 31
0.0
  0
LINE
  5
204F0
330
747D
100
AcDbEntity
  8
部品1
100
AcDbLine
 10
9902.927506749456
 20
1173.160787611756
 30
0.0
 11
9907.927506749455
 21
1173.160787611756
 31
0.0
  0
LINE
  5
204F1
330
747D
100
AcDbEntity
  8
部品1
100
AcDbLine
 10
9872.927506749455
 20
1168.760787611754
 30
0.0
 11
9912.927506749454
 21
1168.760787611754
 31
0.0
  0
ARC
  5
204F2
330
747D
100
AcDbEntity
  8
部品1
100
AcDbCircle
 10
9877.927506749456
 20
1164.246032821436
 30
0.0
 40
6.736691384996243
100
AcDbArc
 50
42.08048849858776
 51
137.9195115014122
  0
ARC
  5
204F3
330
747D
100
AcDbEntity
  8
部品1
100
AcDbCircle
 10
9907.927506749455
 20
1164.246032821436
 30
0.0
 40
6.736691384996243
100
AcDbArc
 50
42.08048849858776
 51
137.9195115014122
  0
ARC
  5
204F4
330
747D
100
AcDbEntity
  8
部品1
100
AcDbCircle
 10
9892.927506749455
 20
1147.672154390937
 30
0.0
 40
23.33946124318486
100
AcDbArc
 50
64.63020194521535
 51
115.3697980547846
  0
LINE
  5
204F5
330
747D
100
AcDbEntity
  8
部品1
100
AcDbLine
 10
9885.927506749455
 20
1201.013683635414
 30
0.0
 11
9899.927506749456
 21
1201.013683635414
 31
0.0
  0
LINE
  5
204F6
330
747D
100
AcDbEntity
  8
部品1
100
AcDbLine
 10
9887.927506749456
 20
1192.760787611754
 30
0.0
 11
9887.927506749456
 21
1201.013683635414
 31
0.0
  0
LINE
  5
204F7
330
747D
100
AcDbEntity
  8
部品1
100
AcDbLine
 10
9897.927506749454
 20
1192.760787611754
 30
0.0
 11
9897.927506749454
 21
1201.013683635414
 31
0.0
  0
LINE
  5
204F8
330
747D
100
AcDbEntity
  8
部品1
100
AcDbLine
 10
9882.927506749455
 20
1140.760787611754
 30
0.0
 11
9882.927506749455
 21
1105.360787611753
 31
0.0
  0
LINE
  5
204F9
330
747D
100
AcDbEntity
  8
部品1
100
AcDbLine
 10
9902.927506749456
 20
1140.760787611754
 30
0.0
 11
9902.927506749456
 21
1105.360787611753
 31
0.0
  0
LINE
  5
204FA
330
747D
100
AcDbEntity
  8
部品1
100
AcDbLine
 10
9891.017006115918
 20
1105.360787611753
 30
0.0
 11
9894.838007382993
 21
1105.360787611753
 31
0.0
  0
LINE
  5
204FB
330
747D
100
AcDbEntity
  8
部品1
100
AcDbLine
 10
9879.597634902197
 20
1083.161641963379
 30
0.0
 11
9887.509125725143
 21
1081.97491833994
 31
0.0
  0
LINE
  5
204FC
330
747D
100
AcDbEntity
  8
部品1
100
AcDbLine
 10
9880.487677619781
 20
1089.09526008059
 30
0.0
 11
9888.399168442722
 21
1087.908536457151
 31
0.0
  0
LINE
  5
204FD
330
747D
100
AcDbEntity
  8
部品1
100
AcDbLine
 10
9881.377720337356
 20
1095.028878197801
 30
0.0
 11
9889.289211160303
 21
1093.842154574358
 31
0.0
  0
LINE
  5
204FE
330
747D
100
AcDbEntity
  8
部品1
100
AcDbLine
 10
9882.26776305494
 20
1100.962496315009
 30
0.0
 11
9890.179253877885
 21
1099.775772691566
 31
0.0
  0
LINE
  5
204FF
330
747D
100
AcDbEntity
  8
部品1
100
AcDbLine
 10
9898.345887773768
 20
1081.97491833994
 30
0.0
 11
9906.257378596713
 21
1083.161641963379
 31
0.0
  0
LINE
  5
20500
330
747D
100
AcDbEntity
  8
部品1
100
AcDbLine
 10
9897.455845056192
 20
1087.908536457151
 30
0.0
 11
9905.367335879137
 21
1089.09526008059
 31
0.0
  0
LINE
  5
20501
330
747D
100
AcDbEntity
  8
部品1
100
AcDbLine
 10
9896.565802338608
 20
1093.842154574358
 30
0.0
 11
9904.477293161555
 21
1095.028878197801
 31
0.0
  0
LINE
  5
20502
330
747D
100
AcDbEntity
  8
部品1
100
AcDbLine
 10
9895.675759621026
 20
1099.775772691566
 30
0.0
 11
9903.587250443971
 21
1100.962496315009
 31
0.0
  0
LINE
  5
20503
330
747D
100
AcDbEntity
  8
部品1
100
AcDbLine
 10
9885.927506749455
 20
1201.013683635414
 30
0.0
 11
9885.927506749455
 21
1205.013683635414
 31
0.0
  0
LINE
  5
20504
330
747D
100
AcDbEntity
  8
部品1
100
AcDbLine
 10
9899.927506749456
 20
1201.013683635414
 30
0.0
 11
9899.927506749456
 21
1205.013683635414
 31
0.0
  0
LINE
  5
20505
330
747D
100
AcDbEntity
  8
部品1
100
AcDbLine
 10
9877.927506749456
 20
1171.760787611754
 30
0.0
 11
9907.927506749455
 21
1171.760787611754
 31
0.0
  0
LINE
  5
20506
330
747D
100
AcDbEntity
  8
部品1
100
AcDbLine
 10
9907.927506749455
 20
1173.160787611752
 30
0.0
 11
9907.927506749455
 21
1171.760787611754
 31
0.0
  0
LINE
  5
20507
330
747D
100
AcDbEntity
  8
部品1
100
AcDbLine
 10
9877.927506749456
 20
1173.160787611756
 30
0.0
 11
9877.927506749456
 21
1171.760787611751
 31
0.0
  0
LINE
  5
20508
330
747D
100
AcDbEntity
  8
部品1
100
AcDbLine
 10
9877.927506749456
 20
1173.160787611756
 30
0.0
 11
9882.927506749455
 21
1173.160787611756
 31
0.0
  0
LINE
  5
20509
330
747D
100
AcDbEntity
  8
部品1
100
AcDbLine
 10
9907.927506749455
 20
1213.160787611752
 30
0.0
 11
9907.927506749455
 21
1207.160787611752
 31
0.0
  0
LINE
  5
2050A
330
747D
100
AcDbEntity
  8
部品1
100
AcDbLine
 10
9877.927506749456
 20
1213.160787611756
 30
0.0
 11
9877.927506749456
 21
1207.160787611756
 31
0.0
  0
LINE
  5
2050B
330
747D
100
AcDbEntity
  8
部品1
100
AcDbLine
 10
9877.927506749456
 20
1213.160787611756
 30
0.0
 11
9907.927506749455
 21
1213.160787611756
 31
0.0
  0
LINE
  5
2050C
330
747D
100
AcDbEntity
  8
部品1
100
AcDbLine
 10
9877.927506749456
 20
1207.160787611756
 30
0.0
 11
9907.927506749455
 21
1207.160787611756
 31
0.0
  0
LINE
  5
2050D
330
747D
100
AcDbEntity
  8
部品1
100
AcDbLine
 10
9822.927506749454
 20
1152.760787611754
 30
0.0
 11
9822.927506749454
 21
1140.760787611754
 31
0.0
  0
LINE
  5
2050E
330
747D
100
AcDbEntity
  8
部品1
100
AcDbLine
 10
9876.927506749455
 20
1065.360787611753
 30
0.0
 11
9884.838997572401
 21
1064.174063988313
 31
0.0
  0
LINE
  5
2050F
330
747D
100
AcDbEntity
  8
部品1
100
AcDbLine
 10
9901.016015926508
 20
1064.174063988313
 30
0.0
 11
9908.927506749456
 21
1065.360787611753
 31
0.0
  0
LINE
  5
20510
330
747D
100
AcDbEntity
  8
部品1
100
AcDbLine
 10
9877.817549467039
 20
1071.294405728964
 30
0.0
 11
9885.729040289984
 21
1070.107682105521
 31
0.0
  0
LINE
  5
20511
330
747D
100
AcDbEntity
  8
部品1
100
AcDbLine
 10
9878.707592184614
 20
1077.228023846172
 30
0.0
 11
9886.619083007559
 21
1076.041300222729
 31
0.0
  0
LINE
  5
20512
330
747D
100
AcDbEntity
  8
部品1
100
AcDbLine
 10
9900.125973208925
 20
1070.107682105521
 30
0.0
 11
9908.037464031876
 21
1071.294405728964
 31
0.0
  0
LINE
  5
20513
330
747D
100
AcDbEntity
  8
部品1
100
AcDbLine
 10
9899.23593049135
 20
1076.041300222729
 30
0.0
 11
9907.147421314297
 21
1077.228023846172
 31
0.0
  0
LINE
  5
20514
330
747D
100
AcDbEntity
  8
部品1
100
AcDbLine
 10
9882.927506749455
 20
1105.360787611753
 30
0.0
 11
9876.927506749455
 21
1065.360787611753
 31
0.0
  0
LINE
  5
20515
330
747D
100
AcDbEntity
  8
部品1
100
AcDbLine
 10
9908.927506749456
 20
1065.360787611753
 30
0.0
 11
9902.927506749456
 21
1105.360787611753
 31
0.0
  0
LINE
  5
20516
330
747D
100
AcDbEntity
  8
部品1
100
AcDbLine
 10
9891.017006115918
 20
1105.360787611753
 30
0.0
 11
9884.838997572401
 21
1064.174063988313
 31
0.0
  0
LINE
  5
20517
330
747D
100
AcDbEntity
  8
部品1
100
AcDbLine
 10
9901.016015926508
 20
1064.174063988313
 30
0.0
 11
9894.838007382993
 21
1105.360787611753
 31
0.0
  0
LINE
  5
20518
330
747D
100
AcDbEntity
  8
部品1
100
AcDbLine
 10
9822.927506749454
 20
1140.760787611754
 30
0.0
 11
9962.927506749455
 21
1140.760787611754
 31
0.0
  0
LINE
  5
20519
330
747D
100
AcDbEntity
  8
部品1
100
AcDbLine
 10
9822.927506749454
 20
1152.760787611754
 30
0.0
 11
9962.927506749455
 21
1152.760787611754
 31
0.0
  0
LINE
  5
2051A
330
747D
100
AcDbEntity
  8
部品1
100
AcDbLine
 10
9933.824275757526
 20
1437.751248310655
 30
0.0
 11
9962.927506749455
 21
1152.760787611754
 31
0.0
  0
LINE
  5
2051B
330
747D
100
AcDbEntity
  8
部品1
100
AcDbLine
 10
9852.030737741387
 20
1437.751248310655
 30
0.0
 11
9822.927506749454
 21
1152.760787611754
 31
0.0
  0
DIMENSION
  5
2051C
330
747D
100
AcDbEntity
  8
寸法
 48
50.0
100
AcDbDimension
  2
*D47
 10
10135.67415237624
 20
1140.760787611754
 30
0.0
 11
10035.67415237624
 21
1290.760787611756
 31
0.0
 70
    32
  1
c
 71
     5
 42
300.0
  3
INABA_S40G
100
AcDbAlignedDimension
 13
9933.038598659123
 23
1440.760787611754
 33
0.0
 14
9962.927506749455
 24
1140.760787611754
 34
0.0
 50
90.0
100
AcDbRotatedDimension
1001
ACAD
1000
DSTYLE
1002
{
1070
   174
1070
     0
1070
   272
1070
     1
1070
   288
1070
     0
1070
   341
1005
0
1002
}
  0
LINE
  5
2051D
330
747D
100
AcDbEntity
  8
細線
 48
10.0
100
AcDbLine
 10
9920.492265040358
 20
833.8425902724702
 30
0.0
 11
10227.41046237963
 21
1140.760787611754
 31
0.0
  0
LINE
  5
2051E
330
747D
100
AcDbEntity
  8
細線
 48
10.0
100
AcDbLine
 10
9948.776536287818
 20
833.8425902724702
 30
0.0
 11
10255.69473362709
 21
1140.760787611754
 31
0.0
  0
LINE
  5
2051F
330
747D
100
AcDbEntity
  8
細線
 48
10.0
100
AcDbLine
 10
9977.060807535275
 20
833.8425902724702
 30
0.0
 11
10283.97900487456
 21
1140.760787611756
 31
0.0
  0
LINE
  5
20520
330
747D
100
AcDbEntity
  8
細線
100
AcDbLine
 10
9618.955769441653
 20
1140.760787611754
 30
0.0
 11
9532.927506749455
 21
1226.789050303954
 31
0.0
  0
LINE
  5
20521
330
747D
100
AcDbEntity
  8
細線
100
AcDbLine
 10
9661.382176312846
 20
1140.760787611754
 30
0.0
 11
9532.927506749455
 21
1269.215457175147
 31
0.0
  0
LINE
  5
20522
330
747D
100
AcDbEntity
  8
部品1
100
AcDbLine
 10
9532.927506749455
 20
1140.760787611751
 30
0.0
 11
9532.927506749455
 21
1440.760787611754
 31
0.0
  0
LINE
  5
20523
330
747D
100
AcDbEntity
  8
細線
 48
10.0
100
AcDbLine
 10
9310.130109950748
 20
1076.797212888527
 30
0.0
 11
9374.093684673972
 21
1140.760787611754
 31
0.0
  0
LINE
  5
20524
330
747D
100
AcDbEntity
  8
細線
 48
10.0
100
AcDbLine
 10
9310.130109950749
 20
1048.512941641072
 30
0.0
 11
9402.377955921426
 21
1140.760787611754
 31
0.0
  0
LINE
  5
20525
330
747D
100
AcDbEntity
  8
細線
 48
10.0
100
AcDbLine
 10
9310.130109950746
 20
1020.228670393613
 30
0.0
 11
9430.662227168879
 21
1140.760787611754
 31
0.0
  0
LINE
  5
20526
330
747D
100
AcDbEntity
  8
細線
 48
10.0
100
AcDbLine
 10
9550.402418682459
 20
833.8425902724702
 30
0.0
 11
9857.320616021718
 21
1140.760787611754
 31
0.0
  0
LINE
  5
20527
330
747D
100
AcDbEntity
  8
細線
 48
10.0
100
AcDbLine
 10
9522.118147434994
 20
833.8425902724702
 30
0.0
 11
9829.036344774266
 21
1140.760787611754
 31
0.0
  0
LINE
  5
20528
330
747D
100
AcDbEntity
  8
細線
 48
10.0
100
AcDbLine
 10
9493.833876187537
 20
833.8425902724702
 30
0.0
 11
9800.75207352681
 21
1140.760787611756
 31
0.0
  0
LINE
  5
20529
330
747D
100
AcDbEntity
  8
細線
100
AcDbLine
 10
9827.813245106375
 20
1200.603888797927
 30
0.0
 11
9587.656346292543
 21
1440.760787611754
 31
0.0
  0
LINE
  5
2052A
330
747D
100
AcDbEntity
  8
細線
100
AcDbLine
 10
9823.882107512737
 20
1162.10861952037
 30
0.0
 11
9545.22993942135
 21
1440.760787611754
 31
0.0
  0
LINE
  5
2052B
330
747D
100
AcDbEntity
  8
部品1
100
AcDbLine
 10
9310.130109950748
 20
1534.760787611756
 30
0.0
 11
9852.927506749459
 21
1534.760787611756
 31
0.0
  0
LINE
  5
2052C
330
747D
100
AcDbEntity
  8
部品1
100
AcDbLine
 10
9310.130109950748
 20
1540.760787611756
 30
0.0
 11
9822.927506749458
 21
1540.760787611756
 31
0.0
  0
LINE
  5
2052D
330
747D
100
AcDbEntity
  8
部品1
100
AcDbLine
 10
9310.130109950748
 20
1440.760787611754
 30
0.0
 11
9852.816414839791
 21
1440.760787611756
 31
0.0
  0
TEXT
  5
2052E
330
747D
100
AcDbEntity
  8
部品1
100
AcDbText
 10
8797.084105304849
 20
1148.666829290658
 30
0.0
 40
120.0
  1
▽G.L
  7
STYLE1
100
AcDbText
  0
LINE
  5
2052F
330
747D
100
AcDbEntity
  8
細線
 48
10.0
100
AcDbLine
 10
8718.10488337222
 20
833.8425902724702
 30
0.0
 11
9025.023080711495
 21
1140.760787611754
 31
0.0
  0
LINE
  5
20530
330
747D
100
AcDbEntity
  8
細線
 48
10.0
100
AcDbLine
 10
8746.389154619681
 20
833.8425902724702
 30
0.0
 11
9053.307351958954
 21
1140.760787611754
 31
0.0
  0
LINE
  5
20531
330
747D
100
AcDbEntity
  8
細線
 48
10.0
100
AcDbLine
 10
8774.673425867144
 20
833.8425902724702
 30
0.0
 11
9081.591623206421
 21
1140.760787611754
 31
0.0
  0
LINE
  5
20532
330
747D
100
AcDbEntity
  8
細線
100
AcDbLine
 10
8397.594902036473
 20
1360.760787611751
 30
0.0
 11
8397.594902036473
 21
1354.760787611751
 31
0.0
  0
LINE
  5
20533
330
747D
100
AcDbEntity
  8
細線
100
AcDbLine
 10
8367.594902036474
 20
1360.760787611756
 30
0.0
 11
8367.594902036474
 21
1354.760787611756
 31
0.0
  0
LINE
  5
20534
330
747D
100
AcDbEntity
  8
細線
100
AcDbLine
 10
8367.594902036474
 20
1354.760787611756
 30
0.0
 11
8397.594902036473
 21
1354.760787611756
 31
0.0
  0
ARC
  5
20535
330
747D
100
AcDbEntity
  8
部品1
100
AcDbCircle
 10
8413.540842556228
 20
1436.760787611753
 30
0.0
 40
10.0
100
AcDbArc
 50
5.684241598181141
 51
90.0
  0
LINE
  5
20536
330
747D
100
AcDbEntity
  8
部品1
100
AcDbLine
 10
8351.648961516717
 20
1446.760787611754
 30
0.0
 11
8413.540842556228
 21
1446.760787611752
 31
0.0
  0
ARC
  5
20537
330
747D
100
AcDbEntity
  8
細線
100
AcDbCircle
 10
8382.594902036473
 20
1424.760787611752
 30
0.0
 40
8.0
100
AcDbArc
 50
0.0
 51
180.0
  0
LINE
  5
20538
330
747D
100
AcDbEntity
  8
細線
100
AcDbLine
 10
8390.594902036474
 20
1424.760787611752
 30
0.0
 11
8390.594902036474
 21
1398.617194072307
 31
0.0
  0
LINE
  5
20539
330
747D
100
AcDbEntity
  8
細線
100
AcDbLine
 10
8374.594902036474
 20
1424.760787611752
 30
0.0
 11
8374.594902036474
 21
1398.617194072307
 31
0.0
  0
LINE
  5
2053A
330
747D
100
AcDbEntity
  8
細線
100
AcDbLine
 10
8367.594902036474
 20
1360.760787611756
 30
0.0
 11
8397.594902036473
 21
1360.760787611756
 31
0.0
  0
CIRCLE
  5
2053B
330
747D
100
AcDbEntity
  8
部品1
100
AcDbCircle
 10
8382.594902036473
 20
1384.760787611754
 30
0.0
 40
16.0
  0
ARC
  5
2053C
330
747D
100
AcDbEntity
  8
部品1
100
AcDbCircle
 10
8351.648961516717
 20
1436.760787611756
 30
0.0
 40
10.0
100
AcDbArc
 50
90.0
 51
174.3157584018188
  0
LINE
  5
2053D
330
747D
100
AcDbEntity
  8
部品1
100
AcDbLine
 10
8385.343154908044
 20
1099.775772691568
 30
0.0
 11
8393.254645730989
 21
1100.962496315011
 31
0.0
  0
LINE
  5
2053E
330
747D
100
AcDbEntity
  8
部品1
100
AcDbLine
 10
8386.233197625626
 20
1093.842154574358
 30
0.0
 11
8394.144688448573
 21
1095.028878197801
 31
0.0
  0
LINE
  5
2053F
330
747D
100
AcDbEntity
  8
部品1
100
AcDbLine
 10
8387.12324034321
 20
1087.908536457153
 30
0.0
 11
8395.034731166155
 21
1089.095260080592
 31
0.0
  0
LINE
  5
20540
330
747D
100
AcDbEntity
  8
部品1
100
AcDbLine
 10
8388.013283060784
 20
1081.97491833994
 30
0.0
 11
8395.924773883733
 21
1083.161641963381
 31
0.0
  0
LINE
  5
20541
330
747D
100
AcDbEntity
  8
部品1
100
AcDbLine
 10
8388.903325778368
 20
1076.04130022273
 30
0.0
 11
8396.814816601315
 21
1077.228023846173
 31
0.0
  0
LINE
  5
20542
330
747D
100
AcDbEntity
  8
部品1
100
AcDbLine
 10
8389.793368495944
 20
1070.107682105521
 30
0.0
 11
8397.704859318897
 21
1071.294405728964
 31
0.0
  0
LINE
  5
20543
330
747D
100
AcDbEntity
  8
部品1
100
AcDbLine
 10
8371.935158341958
 20
1100.962496315011
 30
0.0
 11
8379.846649164903
 21
1099.775772691568
 31
0.0
  0
LINE
  5
20544
330
747D
100
AcDbEntity
  8
部品1
100
AcDbLine
 10
8371.045115624374
 20
1095.028878197801
 30
0.0
 11
8378.956606447321
 21
1093.842154574358
 31
0.0
  0
LINE
  5
20545
330
747D
100
AcDbEntity
  8
部品1
100
AcDbLine
 10
8370.155072906799
 20
1089.095260080592
 30
0.0
 11
8378.066563729744
 21
1087.908536457153
 31
0.0
  0
LINE
  5
20546
330
747D
100
AcDbEntity
  8
部品1
100
AcDbLine
 10
8369.265030189216
 20
1083.161641963381
 30
0.0
 11
8377.176521012161
 21
1081.97491833994
 31
0.0
  0
LINE
  5
20547
330
747D
100
AcDbEntity
  8
部品1
100
AcDbLine
 10
8368.374987471632
 20
1077.228023846173
 30
0.0
 11
8376.286478294579
 21
1076.04130022273
 31
0.0
  0
LINE
  5
20548
330
747D
100
AcDbEntity
  8
部品1
100
AcDbLine
 10
8367.484944754057
 20
1071.294405728964
 30
0.0
 11
8375.396435577002
 21
1070.107682105521
 31
0.0
  0
LINE
  5
20549
330
747D
100
AcDbEntity
  8
部品1
100
AcDbLine
 10
8390.683411213528
 20
1064.174063988315
 30
0.0
 11
8398.594902036473
 21
1065.360787611755
 31
0.0
  0
LINE
  5
2054A
330
747D
100
AcDbEntity
  8
部品1
100
AcDbLine
 10
8366.594902036473
 20
1065.360787611755
 30
0.0
 11
8374.506392859419
 21
1064.174063988315
 31
0.0
  0
LINE
  5
2054B
330
747D
100
AcDbEntity
  8
部品1
100
AcDbLine
 10
8390.683411213528
 20
1064.174063988315
 30
0.0
 11
8384.505402670011
 21
1105.360787611755
 31
0.0
  0
LINE
  5
2054C
330
747D
100
AcDbEntity
  8
部品1
100
AcDbLine
 10
8380.684401402936
 20
1105.360787611755
 30
0.0
 11
8374.506392859419
 21
1064.174063988315
 31
0.0
  0
LINE
  5
2054D
330
747D
100
AcDbEntity
  8
部品1
100
AcDbLine
 10
8398.594902036473
 20
1065.360787611755
 30
0.0
 11
8392.594902036474
 21
1105.360787611755
 31
0.0
  0
LINE
  5
2054E
330
747D
100
AcDbEntity
  8
部品1
100
AcDbLine
 10
8372.594902036473
 20
1105.360787611755
 30
0.0
 11
8366.594902036473
 21
1065.360787611755
 31
0.0
  0
LINE
  5
2054F
330
747D
100
AcDbEntity
  8
部品1
100
AcDbLine
 10
8380.684401402936
 20
1105.360787611755
 30
0.0
 11
8384.505402670011
 21
1105.360787611755
 31
0.0
  0
LINE
  5
20550
330
747D
100
AcDbEntity
  8
部品1
100
AcDbLine
 10
8392.594902036474
 20
1140.760787611754
 30
0.0
 11
8392.594902036474
 21
1105.360787611755
 31
0.0
  0
LINE
  5
20551
330
747D
100
AcDbEntity
  8
部品1
100
AcDbLine
 10
8372.594902036473
 20
1140.760787611754
 30
0.0
 11
8372.594902036473
 21
1105.360787611755
 31
0.0
  0
LINE
  5
20552
330
747D
100
AcDbEntity
  8
部品1
100
AcDbLine
 10
8375.594902036473
 20
1201.013683635416
 30
0.0
 11
8389.594902036474
 21
1201.013683635416
 31
0.0
  0
LINE
  5
20553
330
747D
100
AcDbEntity
  8
部品1
100
AcDbLine
 10
8389.594902036474
 20
1201.013683635416
 30
0.0
 11
8389.594902036474
 21
1205.013683635416
 31
0.0
  0
LINE
  5
20554
330
747D
100
AcDbEntity
  8
部品1
100
AcDbLine
 10
8375.594902036473
 20
1201.013683635416
 30
0.0
 11
8375.594902036473
 21
1205.013683635416
 31
0.0
  0
LINE
  5
20555
330
747D
100
AcDbEntity
  8
部品1
100
AcDbLine
 10
8387.594902036473
 20
1192.760787611756
 30
0.0
 11
8387.594902036473
 21
1201.013683635416
 31
0.0
  0
LINE
  5
20556
330
747D
100
AcDbEntity
  8
部品1
100
AcDbLine
 10
8377.594902036474
 20
1192.760787611756
 30
0.0
 11
8377.594902036474
 21
1201.013683635416
 31
0.0
  0
LINE
  5
20557
330
747D
100
AcDbEntity
  8
部品1
100
AcDbLine
 10
8375.594902036473
 20
1205.013683635416
 30
0.0
 11
8389.594902036474
 21
1205.013683635416
 31
0.0
  0
ARC
  5
20558
330
747D
100
AcDbEntity
  8
部品1
100
AcDbCircle
 10
8382.594902036473
 20
1147.672154390937
 30
0.0
 40
23.33946124318486
100
AcDbArc
 50
64.63020194521535
 51
115.3697980547846
  0
ARC
  5
20559
330
747D
100
AcDbEntity
  8
部品1
100
AcDbCircle
 10
8397.594902036473
 20
1164.246032821438
 30
0.0
 40
6.736691384996243
100
AcDbArc
 50
42.08048849858776
 51
137.9195115014122
  0
ARC
  5
2055A
330
747D
100
AcDbEntity
  8
部品1
100
AcDbCircle
 10
8367.594902036474
 20
1164.246032821438
 30
0.0
 40
6.736691384996243
100
AcDbArc
 50
42.08048849858776
 51
137.9195115014122
  0
LINE
  5
2055B
330
747D
100
AcDbEntity
  8
部品1
100
AcDbLine
 10
8362.594902036473
 20
1168.760787611756
 30
0.0
 11
8402.594902036474
 21
1168.760787611756
 31
0.0
  0
LINE
  5
2055C
330
747D
100
AcDbEntity
  8
部品1
100
AcDbLine
 10
8392.594902036474
 20
1173.160787611758
 30
0.0
 11
8397.594902036473
 21
1173.160787611758
 31
0.0
  0
LINE
  5
2055D
330
747D
100
AcDbEntity
  8
部品1
100
AcDbLine
 10
8412.594902036472
 20
1152.760787611754
 30
0.0
 11
8412.594902036472
 21
1155.760787611763
 31
0.0
  0
LINE
  5
2055E
330
747D
100
AcDbEntity
  8
部品1
100
AcDbLine
 10
8352.594902036473
 20
1152.760787611754
 30
0.0
 11
8352.594902036473
 21
1155.760787611754
 31
0.0
  0
LINE
  5
2055F
330
747D
100
AcDbEntity
  8
部品1
100
AcDbLine
 10
8399.594902036474
 20
1171.760787611756
 30
0.0
 11
8402.594902036474
 21
1168.760787611756
 31
0.0
  0
LINE
  5
20560
330
747D
100
AcDbEntity
  8
部品1
100
AcDbLine
 10
8365.594902036473
 20
1171.760787611756
 30
0.0
 11
8362.594902036473
 21
1168.760787611756
 31
0.0
  0
LINE
  5
20561
330
747D
100
AcDbEntity
  8
部品1
100
AcDbLine
 10
8402.594902036474
 20
1155.76078761176
 30
0.0
 11
8402.594902036474
 21
1168.760787611756
 31
0.0
  0
LINE
  5
20562
330
747D
100
AcDbEntity
  8
部品1
100
AcDbLine
 10
8362.594902036473
 20
1155.760787611754
 30
0.0
 11
8362.594902036473
 21
1168.760787611756
 31
0.0
  0
LINE
  5
20563
330
747D
100
AcDbEntity
  8
部品1
100
AcDbLine
 10
8365.594902036473
 20
1171.760787611756
 30
0.0
 11
8399.594902036474
 21
1171.760787611756
 31
0.0
  0
LINE
  5
20564
330
747D
100
AcDbEntity
  8
部品1
100
AcDbLine
 10
8392.594902036474
 20
1155.760787611754
 30
0.0
 11
8392.594902036474
 21
1192.760787611756
 31
0.0
  0
LINE
  5
20565
330
747D
100
AcDbEntity
  8
部品1
100
AcDbLine
 10
8372.594902036473
 20
1155.760787611754
 30
0.0
 11
8372.594902036473
 21
1192.760787611756
 31
0.0
  0
LINE
  5
20566
330
747D
100
AcDbEntity
  8
部品1
100
AcDbLine
 10
8372.594902036473
 20
1192.760787611756
 30
0.0
 11
8392.594902036474
 21
1192.760787611756
 31
0.0
  0
LINE
  5
20567
330
747D
100
AcDbEntity
  8
部品1
100
AcDbLine
 10
8352.594902036473
 20
1155.760787611754
 30
0.0
 11
8412.594902036472
 21
1155.76078761176
 31
0.0
  0
LINE
  5
20568
330
747D
100
AcDbEntity
  8
部品1
100
AcDbLine
 10
8397.594902036473
 20
1173.160787611752
 30
0.0
 11
8397.594902036473
 21
1171.760787611756
 31
0.0
  0
LINE
  5
20569
330
747D
100
AcDbEntity
  8
部品1
100
AcDbLine
 10
8397.594902036473
 20
1213.160787611754
 30
0.0
 11
8397.594902036473
 21
1207.160787611754
 31
0.0
  0
LINE
  5
2056A
330
747D
100
AcDbEntity
  8
部品1
100
AcDbLine
 10
8452.594902036473
 20
1152.760787611754
 30
0.0
 11
8452.594902036473
 21
1140.760787611754
 31
0.0
  0
LINE
  5
2056B
330
747D
100
AcDbEntity
  8
部品1
100
AcDbLine
 10
8367.594902036474
 20
1173.160787611758
 30
0.0
 11
8367.594902036474
 21
1171.760787611756
 31
0.0
  0
LINE
  5
2056C
330
747D
100
AcDbEntity
  8
部品1
100
AcDbLine
 10
8367.594902036474
 20
1213.160787611758
 30
0.0
 11
8367.594902036474
 21
1207.160787611758
 31
0.0
  0
LINE
  5
2056D
330
747D
100
AcDbEntity
  8
部品1
100
AcDbLine
 10
8367.594902036474
 20
1173.160787611758
 30
0.0
 11
8372.594902036473
 21
1173.160787611758
 31
0.0
  0
LINE
  5
2056E
330
747D
100
AcDbEntity
  8
部品1
100
AcDbLine
 10
8367.594902036474
 20
1213.160787611758
 30
0.0
 11
8397.594902036473
 21
1213.160787611758
 31
0.0
  0
LINE
  5
2056F
330
747D
100
AcDbEntity
  8
部品1
100
AcDbLine
 10
8367.594902036474
 20
1207.160787611758
 30
0.0
 11
8397.594902036473
 21
1207.160787611758
 31
0.0
  0
LINE
  5
20570
330
747D
100
AcDbEntity
  8
部品1
100
AcDbLine
 10
8312.594902036472
 20
1152.760787611754
 30
0.0
 11
8312.594902036472
 21
1140.760787611754
 31
0.0
  0
LINE
  5
20571
330
747D
100
AcDbEntity
  8
部品1
100
AcDbLine
 10
8312.594902036472
 20
1140.760787611754
 30
0.0
 11
8452.594902036473
 21
1140.760787611754
 31
0.0
  0
LINE
  5
20572
330
747D
100
AcDbEntity
  8
部品1
100
AcDbLine
 10
8312.594902036472
 20
1152.760787611754
 30
0.0
 11
8452.594902036473
 21
1152.760787611754
 31
0.0
  0
LINE
  5
20573
330
747D
100
AcDbEntity
  8
部品1
100
AcDbLine
 10
8341.698133028407
 20
1437.751248310656
 30
0.0
 11
8312.594902036472
 21
1152.760787611754
 31
0.0
  0
LINE
  5
20574
330
747D
100
AcDbEntity
  8
部品1
100
AcDbLine
 10
8423.491671044549
 20
1437.751248310656
 30
0.0
 11
8452.594902036473
 21
1152.760787611754
 31
0.0
  0
LINE
  5
20575
330
747D
100
AcDbEntity
  8
細線
100
AcDbLine
 10
8317.480640393393
 20
1200.603888797927
 30
0.0
 11
8177.323741579561
 21
1340.760787611754
 31
0.0
  0
LINE
  5
20576
330
747D
100
AcDbEntity
  8
細線
100
AcDbLine
 10
8313.549502799755
 20
1162.10861952037
 30
0.0
 11
8134.897334708368
 21
1340.760787611754
 31
0.0
  0
LINE
  5
20577
330
747D
100
AcDbEntity
  8
細線
 48
10.0
100
AcDbLine
 10
7707.340468792883
 20
1074.769071004164
 30
0.0
 11
7773.332185400469
 21
1140.760787611754
 31
0.0
  0
LINE
  5
20578
330
747D
100
AcDbEntity
  8
細線
 48
10.0
100
AcDbLine
 10
7707.340468792883
 20
1046.484799756705
 30
0.0
 11
7801.616456647922
 21
1140.760787611754
 31
0.0
  0
LINE
  5
20579
330
747D
100
AcDbEntity
  8
細線
 48
10.0
100
AcDbLine
 10
7707.34046879288
 20
1103.05334225162
 30
0.0
 11
7745.047914153018
 21
1140.760787611754
 31
0.0
  0
LINE
  5
2057A
330
747D
100
AcDbEntity
  8
部品1
100
AcDbLine
 10
8022.594902036473
 20
1140.760787611754
 30
0.0
 11
8022.594902036473
 21
1340.760787611756
 31
0.0
  0
LINE
  5
2057B
330
747D
100
AcDbEntity
  8
細線
100
AcDbLine
 10
8151.049571599864
 20
1140.760787611754
 30
0.0
 11
8022.594902036473
 21
1269.215457175147
 31
0.0
  0
LINE
  5
2057C
330
747D
100
AcDbEntity
  8
細線
100
AcDbLine
 10
8108.623164728671
 20
1140.760787611754
 30
0.0
 11
8022.594902036473
 21
1226.789050303954
 31
0.0
  0
LINE
  5
2057D
330
747D
100
AcDbEntity
  8
部品1
100
AcDbLine
 10
7707.34046879288
 20
1434.760787611758
 30
0.0
 11
8341.392747127839
 21
1434.760787611758
 31
0.0
  0
LINE
  5
2057E
330
747D
100
AcDbEntity
  8
部品1
100
AcDbLine
 10
7707.34046879288
 20
1440.760787611758
 30
0.0
 11
8312.594902036478
 21
1440.760787611756
 31
0.0
  0
LINE
  5
2057F
330
747D
100
AcDbEntity
  8
部品1
100
AcDbLine
 10
7707.34046879288
 20
1340.760787611756
 30
0.0
 11
8331.793465430719
 21
1340.760787611756
 31
0.0
  0
LINE
  5
20580
330
747D
100
AcDbEntity
  8
細線
 48
10.0
100
AcDbLine
 10
7921.356648161502
 20
833.8425902724702
 30
0.0
 11
8228.274845500761
 21
1140.760787611754
 31
0.0
  0
LINE
  5
20581
330
747D
100
AcDbEntity
  8
細線
 48
10.0
100
AcDbLine
 10
7864.788105666578
 20
833.8425902724702
 30
0.0
 11
8171.706303005853
 21
1140.760787611754
 31
0.0
  0
LINE
  5
20582
330
747D
100
AcDbEntity
  8
細線
 48
10.0
100
AcDbLine
 10
7893.07237691404
 20
833.8425902724702
 30
0.0
 11
8199.990574253311
 21
1140.760787611754
 31
0.0
  0
LINE
  5
20583
330
747D
100
AcDbEntity
  8
Ｇ．Ｌ
100
AcDbLine
 10
7707.340468792883
 20
1140.760787611754
 30
0.0
 11
9171.375707557166
 21
1140.760787611754
 31
0.0
  0
DIMENSION
  5
20584
330
747D
100
AcDbEntity
  8
寸法
 48
50.0
100
AcDbDimension
  2
*D48
 10
8655.358912604883
 20
1140.760787611754
 30
0.0
 11
8555.358912604884
 21
1240.760787611757
 31
0.0
 70
    32
  1
b
 71
     5
 42
200.0000000000018
  3
INABA_S40G
100
AcDbAlignedDimension
 13
8433.145665141983
 23
1340.760787611756
 33
0.0
 14
8452.594902036473
 24
1140.760787611754
 34
0.0
 50
90.0
100
AcDbRotatedDimension
1001
ACAD
1000
DSTYLE
1002
{
1070
   174
1070
     0
1070
   272
1070
     1
1070
   288
1070
     0
1070
   341
1005
0
1002
}
  0
LINE
  5
20585
330
747D
100
AcDbEntity
  8
細線
 48
10.0
100
AcDbLine
 10
8348.015037014324
 20
833.8425902724702
 30
0.0
 11
8654.933234353602
 21
1140.760787611754
 31
0.0
  0
LINE
  5
20586
330
747D
100
AcDbEntity
  8
細線
 48
10.0
100
AcDbLine
 10
8291.446494519403
 20
833.8425902724702
 30
0.0
 11
8598.364691858677
 21
1140.760787611754
 31
0.0
  0
LINE
  5
20587
330
747D
100
AcDbEntity
  8
細線
 48
10.0
100
AcDbLine
 10
8319.730765766863
 20
833.8425902724702
 30
0.0
 11
8626.648963106136
 21
1140.760787611754
 31
0.0
  0
LINE
  5
20588
330
747D
100
AcDbEntity
  8
部品1
 48
50.0
100
AcDbLine
 10
9236.831698760175
 20
2120.0
 30
0.0
 11
9236.831698760175
 21
200.0
 31
0.0
  0
LINE
  5
20589
330
747D
100
AcDbEntity
  8
部品1
100
AcDbLine
 10
8422.594902036477
 20
1940.760787611754
 30
0.0
 11
8422.594902036481
 21
1441.006256599761
 31
0.0
  0
LINE
  5
2058A
330
747D
100
AcDbEntity
  8
細線
 48
50.0
100
AcDbLine
 10
7877.594902036474
 20
1940.760787611754
 30
0.0
 11
7877.594902036474
 21
1440.760787611756
 31
0.0
  0
LINE
  5
2058B
330
747D
100
AcDbEntity
  8
細線
 48
50.0
100
AcDbLine
 10
7907.594902036473
 20
1940.760787611754
 30
0.0
 11
7907.594902036473
 21
1440.760787611756
 31
0.0
  0
LINE
  5
2058C
330
747D
100
AcDbEntity
  8
細線
 48
50.0
100
AcDbLine
 10
8157.594902036473
 20
1940.760787611754
 30
0.0
 11
8157.594902036473
 21
1440.760787611756
 31
0.0
  0
LINE
  5
2058D
330
747D
100
AcDbEntity
  8
細線
 48
50.0
100
AcDbLine
 10
8187.594902036472
 20
1940.760787611754
 30
0.0
 11
8187.594902036472
 21
1440.760787611756
 31
0.0
  0
LINE
  5
2058E
330
747D
100
AcDbEntity
  8
部品1
100
AcDbLine
 10
8312.594902036478
 20
1940.760787611754
 30
0.0
 11
8312.594902036481
 21
1434.760787611758
 31
0.0
  0
LINE
  5
2058F
330
747D
100
AcDbEntity
  8
細線
 48
50.0
100
AcDbLine
 10
9697.927506749454
 20
2040.760787611753
 30
0.0
 11
9697.927506749454
 21
1540.760787611756
 31
0.0
  0
LINE
  5
20590
330
747D
100
AcDbEntity
  8
細線
 48
50.0
100
AcDbLine
 10
9667.927506749455
 20
2040.760787611753
 30
0.0
 11
9667.927506749455
 21
1540.760787611756
 31
0.0
  0
LINE
  5
20591
330
747D
100
AcDbEntity
  8
細線
 48
50.0
100
AcDbLine
 10
9417.927506749455
 20
2040.760787611753
 30
0.0
 11
9417.927506749455
 21
1540.760787611756
 31
0.0
  0
LINE
  5
20592
330
747D
100
AcDbEntity
  8
細線
 48
50.0
100
AcDbLine
 10
9387.927506749454
 20
2040.760787611753
 30
0.0
 11
9387.927506749454
 21
1540.760787611756
 31
0.0
  0
LINE
  5
20593
330
747D
100
AcDbEntity
  8
部品1
100
AcDbLine
 10
9932.927506749457
 20
2040.760787611753
 30
0.0
 11
9932.927506749463
 21
1541.006256599761
 31
0.0
  0
LINE
  5
20594
330
747D
100
AcDbEntity
  8
部品1
100
AcDbLine
 10
9822.927506749458
 20
2040.760787611753
 30
0.0
 11
9822.927506749463
 21
1534.760787611756
 31
0.0
  0
LINE
  5
20595
330
747D
100
AcDbEntity
  8
Ｇ．Ｌ
100
AcDbLine
 10
9310.130109950748
 20
1140.760787611754
 30
0.0
 11
10755.02181195589
 21
1140.760787611754
 31
0.0
  0
LINE
  5
20596
330
747D
100
AcDbEntity
  8
細線
 48
10.0
100
AcDbLine
 10
10347.15065389318
 20
833.8425902724702
 30
0.0
 11
10654.06885123246
 21
1140.760787611754
 31
0.0
  0
LINE
  5
20597
330
747D
100
AcDbEntity
  8
細線
 48
10.0
100
AcDbLine
 10
10375.43492514063
 20
833.8425902724702
 30
0.0
 11
10682.35312247991
 21
1140.760787611754
 31
0.0
  0
LINE
  5
20598
330
747D
100
AcDbEntity
  8
細線
 48
10.0
100
AcDbLine
 10
10403.7191963881
 20
833.8425902724702
 30
0.0
 11
10710.63739372738
 21
1140.760787611754
 31
0.0
  0
TEXT
  5
20599
330
747D
100
AcDbEntity
  8
部品1
100
AcDbText
 10
10382.99774140124
 20
1148.666829290658
 30
0.0
 40
120.0
  1
▽G.L
  7
STYLE1
100
AcDbText
  0
TEXT
  5
2059A
330
747D
100
AcDbEntity
  8
部品1
100
AcDbText
 10
6248.985060198744
 20
2178.285116341204
 30
0.0
 40
120.0
  1
地盤が土の場合
  7
STYLE2
100
AcDbText
  0
CIRCLE
  5
2059B
330
747D
100
AcDbEntity
  8
部品1
100
AcDbCircle
 10
6779.539401023374
 20
1384.760787611754
 30
0.0
 40
16.0
  0
ARC
  5
2059C
330
747D
100
AcDbEntity
  8
部品1
100
AcDbCircle
 10
6809.539401023375
 20
1404.760787611754
 30
0.0
 40
10.0
100
AcDbArc
 50
0.0
 51
90.0
  0
LINE
  5
2059D
330
747D
100
AcDbEntity
  8
細線
100
AcDbLine
 10
6787.539401023375
 20
1354.760787611754
 30
0.0
 11
6787.539401023375
 21
1314.760787611754
 31
0.0
  0
LINE
  5
2059E
330
747D
100
AcDbEntity
  8
細線
100
AcDbLine
 10
6771.539401023374
 20
1354.760787611754
 30
0.0
 11
6771.539401023374
 21
1314.760787611754
 31
0.0
  0
ARC
  5
2059F
330
747D
100
AcDbEntity
  8
細線
100
AcDbCircle
 10
6779.539401023374
 20
1314.760787611754
 30
0.0
 40
8.0
100
AcDbArc
 50
180.0
 51
0.0
  0
ARC
  5
205A0
330
747D
100
AcDbEntity
  8
細線
100
AcDbCircle
 10
6779.539401023374
 20
1354.760787611754
 30
0.0
 40
8.0
100
AcDbArc
 50
0.0
 51
180.0
  0
ARC
  5
205A1
330
747D
100
AcDbEntity
  8
部品1
100
AcDbCircle
 10
6749.539401023374
 20
1404.760787611754
 30
0.0
 40
10.0
100
AcDbArc
 50
90.0
 51
180.0
  0
LINE
  5
205A2
330
747D
100
AcDbEntity
  8
部品1
100
AcDbLine
 10
6749.539401023374
 20
1414.760787611754
 30
0.0
 11
6809.539401023375
 21
1414.760787611754
 31
0.0
  0
LINE
  5
205A3
330
747D
100
AcDbEntity
  8
細線
100
AcDbLine
 10
6771.539401023374
 20
1075.904381151204
 30
0.0
 11
6771.539401023374
 21
1050.16078761175
 31
0.0
  0
LINE
  5
205A4
330
747D
100
AcDbEntity
  8
細線
100
AcDbLine
 10
6787.539401023375
 20
1075.904381151204
 30
0.0
 11
6787.539401023375
 21
1050.16078761175
 31
0.0
  0
LINE
  5
205A5
330
747D
100
AcDbEntity
  8
細線
100
AcDbLine
 10
6793.539401023373
 20
1020.160787611756
 30
0.0
 11
6794.539401023374
 21
1020.160787611752
 31
0.0
  0
LINE
  5
205A6
330
747D
100
AcDbEntity
  8
細線
100
AcDbLine
 10
6794.539401023374
 20
1026.16078761175
 30
0.0
 11
6794.539401023374
 21
1020.16078761175
 31
0.0
  0
ARC
  5
205A7
330
747D
100
AcDbEntity
  8
細線
100
AcDbCircle
 10
6787.416295397759
 20
1012.160787611748
 30
0.0
 40
4.0
100
AcDbArc
 50
270.0
 51
345.9637565320528
  0
LINE
  5
205A8
330
747D
100
AcDbEntity
  8
細線
100
AcDbLine
 10
6793.539401023373
 20
1020.16078761175
 30
0.0
 11
6791.296865398336
 21
1011.190645111601
 31
0.0
  0
LINE
  5
205A9
330
747D
100
AcDbEntity
  8
細線
100
AcDbLine
 10
6793.539401023373
 20
1024.760787611751
 30
0.0
 11
6793.539401023373
 21
1020.160787611752
 31
0.0
  0
ARC
  5
205AA
330
747D
100
AcDbEntity
  8
細線
100
AcDbCircle
 10
6771.662506648997
 20
1012.160787611747
 30
0.0
 40
4.0
100
AcDbArc
 50
194.0362434679471
 51
270.0
  0
LINE
  5
205AB
330
747D
100
AcDbEntity
  8
細線
100
AcDbLine
 10
6765.539401023374
 20
1020.16078761175
 30
0.0
 11
6767.781936648413
 21
1011.190645111601
 31
0.0
  0
LINE
  5
205AC
330
747D
100
AcDbEntity
  8
細線
100
AcDbLine
 10
6765.539401023374
 20
1024.760787611749
 30
0.0
 11
6765.539401023374
 21
1020.160787611752
 31
0.0
  0
LINE
  5
205AD
330
747D
100
AcDbEntity
  8
細線
100
AcDbLine
 10
6771.662506648997
 20
1008.160787611745
 30
0.0
 11
6787.416295397759
 21
1008.16078761175
 31
0.0
  0
LINE
  5
205AE
330
747D
100
AcDbEntity
  8
細線
100
AcDbLine
 10
6764.539401023374
 20
1024.760787611749
 30
0.0
 11
6794.539401023374
 21
1024.760787611754
 31
0.0
  0
LINE
  5
205AF
330
747D
100
AcDbEntity
  8
細線
100
AcDbLine
 10
6764.539401023374
 20
1026.160787611756
 30
0.0
 11
6764.539401023374
 21
1020.160787611752
 31
0.0
  0
ARC
  5
205B0
330
747D
100
AcDbEntity
  8
細線
100
AcDbCircle
 10
6779.539401023374
 20
1050.16078761175
 30
0.0
 40
8.0
100
AcDbArc
 50
180.0
 51
0.0
  0
LINE
  5
205B1
330
747D
100
AcDbEntity
  8
細線
100
AcDbLine
 10
6764.539401023374
 20
1026.160787611756
 30
0.0
 11
6794.539401023374
 21
1026.160787611752
 31
0.0
  0
LINE
  5
205B2
330
747D
100
AcDbEntity
  8
細線
100
AcDbLine
 10
6764.539401023374
 20
1020.160787611756
 30
0.0
 11
6765.539401023374
 21
1020.160787611756
 31
0.0
  0
CIRCLE
  5
205B3
330
747D
100
AcDbEntity
  8
細線
100
AcDbCircle
 10
6779.539401023374
 20
1089.760787611754
 30
0.0
 40
16.0
  0
CIRCLE
  5
205B4
330
747D
100
AcDbEntity
  8
細線
100
AcDbCircle
 10
6779.539401023374
 20
1244.760787611756
 30
0.0
 40
7.0
  0
CIRCLE
  5
205B5
330
747D
100
AcDbEntity
  8
細線
100
AcDbCircle
 10
6779.539401023374
 20
1244.760787611756
 30
0.0
 40
6.0
  0
ARC
  5
205B6
330
747D
100
AcDbEntity
  8
部品1
100
AcDbCircle
 10
6810.485341543129
 20
1102.160787611748
 30
0.0
 40
10.0
100
AcDbArc
 50
5.684241598181141
 51
90.0
  0
LINE
  5
205B7
330
747D
100
AcDbEntity
  8
細線
  6
HIDDEN
 48
10.0
100
AcDbLine
 10
6820.086846680261
 20
1104.955621972072
 30
0.0
 11
6855.892012319944
 21
1140.760787611756
 31
0.0
  0
LINE
  5
205B8
330
747D
100
AcDbEntity
  8
細線
  6
HIDDEN
 48
10.0
100
AcDbLine
 10
6819.539401023374
 20
1132.692447562642
 30
0.0
 11
6827.607741072488
 21
1140.760787611754
 31
0.0
  0
ARC
  5
205B9
330
747D
100
AcDbEntity
  8
部品1
100
AcDbCircle
 10
6748.593460503617
 20
1102.160787611752
 30
0.0
 40
10.0
100
AcDbArc
 50
90.0
 51
174.3157584018188
  0
LINE
  5
205BA
330
747D
100
AcDbEntity
  8
部品1
100
AcDbLine
 10
6748.593460503617
 20
1112.160787611754
 30
0.0
 11
6810.485341543129
 21
1112.160787611748
 31
0.0
  0
LINE
  5
205BB
330
747D
100
AcDbEntity
  8
部品1
100
AcDbLine
 10
6739.539401023375
 20
1404.760787611754
 30
0.0
 11
6739.539401023375
 21
1106.406256599763
 31
0.0
  0
LINE
  5
205BC
330
747D
100
AcDbEntity
  8
部品1
100
AcDbLine
 10
6819.539401023374
 20
1403.760787611754
 30
0.0
 11
6819.539401023378
 21
1106.406256599763
 31
0.0
  0
LINE
  5
205BD
330
747D
100
AcDbEntity
  8
細線
100
AcDbLine
 10
6739.539401023375
 20
1175.489627154842
 30
0.0
 11
6574.268240566462
 21
1340.760787611754
 31
0.0
  0
LINE
  5
205BE
330
747D
100
AcDbEntity
  8
細線
100
AcDbLine
 10
6505.567663715573
 20
1140.760787611754
 30
0.0
 11
6419.539401023374
 21
1226.789050303954
 31
0.0
  0
LINE
  5
205BF
330
747D
100
AcDbEntity
  8
部品1
100
AcDbLine
 10
6419.539401023374
 20
1140.760787611754
 30
0.0
 11
6419.539401023374
 21
1340.760787611754
 31
0.0
  0
LINE
  5
205C0
330
747D
100
AcDbEntity
  8
細線
100
AcDbLine
 10
6731.841833695269
 20
1140.760787611754
 30
0.0
 11
6531.841833695269
 21
1340.760787611754
 31
0.0
  0
LINE
  5
205C1
330
747D
100
AcDbEntity
  8
細線
100
AcDbLine
 10
6547.994070586764
 20
1140.760787611754
 30
0.0
 11
6419.539401023374
 21
1269.215457175147
 31
0.0
  0
LINE
  5
205C2
330
747D
100
AcDbEntity
  8
部品1
100
AcDbLine
 10
6849.539401023374
 20
818.160787611754
 30
0.0
 11
6849.539401023374
 21
806.1607876117541
 31
0.0
  0
LINE
  5
205C3
330
747D
100
AcDbEntity
  8
細線
100
AcDbLine
 10
6794.539401023374
 20
876.1607876117487
 30
0.0
 11
6794.539401023374
 21
870.1607876117487
 31
0.0
  0
LINE
  5
205C4
330
747D
100
AcDbEntity
  8
細線
100
AcDbLine
 10
6794.539401023374
 20
836.1607876117505
 30
0.0
 11
6794.539401023374
 21
830.1607876117504
 31
0.0
  0
LINE
  5
205C5
330
747D
100
AcDbEntity
  8
細線
100
AcDbLine
 10
6764.539401023374
 20
876.1607876117578
 30
0.0
 11
6764.539401023374
 21
870.1607876117522
 31
0.0
  0
LINE
  5
205C6
330
747D
100
AcDbEntity
  8
細線
100
AcDbLine
 10
6764.539401023374
 20
836.160787611756
 30
0.0
 11
6764.539401023374
 21
830.1607876117524
 31
0.0
  0
LINE
  5
205C7
330
747D
100
AcDbEntity
  8
細線
100
AcDbLine
 10
6764.539401023374
 20
870.1607876117577
 30
0.0
 11
6794.539401023374
 21
870.1607876117522
 31
0.0
  0
LINE
  5
205C8
330
747D
100
AcDbEntity
  8
細線
100
AcDbLine
 10
6764.539401023374
 20
876.1607876117578
 30
0.0
 11
6794.539401023374
 21
876.1607876117523
 31
0.0
  0
LINE
  5
205C9
330
747D
100
AcDbEntity
  8
細線
100
AcDbLine
 10
6764.539401023374
 20
836.160787611756
 30
0.0
 11
6794.539401023374
 21
836.1607876117522
 31
0.0
  0
LINE
  5
205CA
330
747D
100
AcDbEntity
  8
細線
100
AcDbLine
 10
6764.539401023374
 20
830.1607876117559
 30
0.0
 11
6794.539401023374
 21
830.1607876117524
 31
0.0
  0
LINE
  5
205CB
330
747D
100
AcDbEntity
  8
部品1
100
AcDbLine
 10
6709.539401023374
 20
818.1607876117523
 30
0.0
 11
6709.539401023374
 21
806.1607876117541
 31
0.0
  0
LINE
  5
205CC
330
747D
100
AcDbEntity
  8
部品1
100
AcDbLine
 10
6709.539401023374
 20
806.1607876117541
 30
0.0
 11
6849.539401023374
 21
806.1607876117541
 31
0.0
  0
LINE
  5
205CD
330
747D
100
AcDbEntity
  8
部品1
100
AcDbLine
 10
6709.539401023374
 20
818.160787611754
 30
0.0
 11
6849.539401023374
 21
818.160787611754
 31
0.0
  0
LINE
  5
205CE
330
747D
100
AcDbEntity
  8
部品1
100
AcDbLine
 10
6820.436170031449
 20
1103.151248310656
 30
0.0
 11
6849.539401023374
 21
818.160787611754
 31
0.0
  0
LINE
  5
205CF
330
747D
100
AcDbEntity
  8
部品1
100
AcDbLine
 10
6738.642632015306
 20
1103.151248310656
 30
0.0
 11
6709.539401023374
 21
818.160787611754
 31
0.0
  0
LINE
  5
205D0
330
747D
100
AcDbEntity
  8
細線
  6
HIDDEN
 48
10.0
100
AcDbLine
 10
6569.539401023376
 20
854.408176315168
 30
0.0
 11
6729.584826779998
 21
1014.453602071808
 31
0.0
  0
LINE
  5
205D1
330
747D
100
AcDbEntity
  8
細線
  6
HIDDEN
 48
10.0
100
AcDbLine
 10
6569.539401023374
 20
910.9767188100905
 30
0.0
 11
6736.01862717321
 21
1077.455944959931
 31
0.0
  0
LINE
  5
205D2
330
747D
100
AcDbEntity
  8
細線
  6
HIDDEN
 48
10.0
100
AcDbLine
 10
6569.539401023376
 20
882.6924475626292
 30
0.0
 11
6732.801726976608
 21
1045.954773515872
 31
0.0
  0
LINE
  5
205D3
330
747D
100
AcDbEntity
  8
Ｇ．Ｌ
100
AcDbLine
 10
6819.539401023374
 20
1140.760787611754
 30
0.0
 11
7571.635643261712
 21
1140.760787611754
 31
0.0
  0
LINE
  5
205D4
330
747D
100
AcDbEntity
  8
細線
  6
HIDDEN
 48
10.0
100
AcDbLine
 10
6882.550401172792
 20
740.7607876117562
 30
0.0
 11
6969.539401023372
 21
827.7497874623396
 31
0.0
  0
LINE
  5
205D5
330
747D
100
AcDbEntity
  8
細線
  6
HIDDEN
 48
10.0
100
AcDbLine
 10
6825.981858677869
 20
740.7607876117554
 30
0.0
 11
6969.539401023374
 21
884.3183299572638
 31
0.0
  0
LINE
  5
205D6
330
747D
100
AcDbEntity
  8
細線
  6
HIDDEN
 48
10.0
100
AcDbLine
 10
6854.266129925331
 20
740.7607876117562
 30
0.0
 11
6969.539401023372
 21
856.0340587098036
 31
0.0
  0
TEXT
  5
205D7
330
747D
100
AcDbEntity
  8
部品1
100
AcDbText
 10
7204.102948092985
 20
1148.666829290658
 30
0.0
 40
120.0
  1
▽G.L
  7
STYLE1
100
AcDbText
  0
LINE
  5
205D8
330
747D
100
AcDbEntity
  8
細線
100
AcDbLine
 10
5288.50036857751
 20
1040.760787611754
 30
0.0
 11
5275.102908955954
 21
990.7607876117562
 31
0.0
  0
LINE
  5
205D9
330
747D
100
AcDbEntity
  8
細線
100
AcDbLine
 10
5388.500368577513
 20
1040.760787611754
 30
0.0
 11
5375.102908955954
 21
990.7607876117562
 31
0.0
  0
LINE
  5
205DA
330
747D
100
AcDbEntity
  8
細線
100
AcDbLine
 10
5260.602479042429
 20
1040.760787611754
 30
0.0
 11
5360.602479042426
 21
1140.760787611756
 31
0.0
  0
LINE
  5
205DB
330
747D
100
AcDbEntity
  8
細線
100
AcDbLine
 10
5288.886750289888
 20
1040.760787611754
 30
0.0
 11
5388.886750289888
 21
1140.760787611756
 31
0.0
  0
LINE
  5
205DC
330
747D
100
AcDbEntity
  8
部品1
100
AcDbLine
 10
5361.705449334398
 20
1340.760787611754
 30
0.0
 11
5361.705449334398
 21
1140.760787611756
 31
0.0
  0
TEXT
  5
205DD
330
747D
100
AcDbEntity
  8
部品1
100
AcDbText
 10
5584.958075201829
 20
1148.66682929066
 30
0.0
 40
120.0
  1
▽G.L
  7
STYLE1
100
AcDbText
  0
LINE
  5
205DE
330
747D
100
AcDbEntity
  8
細線
100
AcDbLine
 10
5301.89782819907
 20
890.7607876117545
 30
0.0
 11
5288.50036857751
 21
840.7607876117545
 31
0.0
  0
LINE
  5
205DF
330
747D
100
AcDbEntity
  8
細線
100
AcDbLine
 10
5401.897828199065
 20
890.7607876117545
 30
0.0
 11
5388.500368577513
 21
840.7607876117545
 31
0.0
  0
LINE
  5
205E0
330
747D
100
AcDbEntity
  8
部品1
100
AcDbLine
 10
5461.705449334399
 20
1140.760787611756
 30
0.0
 11
5461.705449334399
 21
840.7607876117545
 31
0.0
  0
LINE
  5
205E1
330
747D
100
AcDbEntity
  8
細線
100
AcDbLine
 10
5261.705449334402
 20
1040.760787611754
 30
0.0
 11
5315.295287820621
 21
840.7607876117507
 31
0.0
  0
LINE
  5
205E2
330
747D
100
AcDbEntity
  8
細線
100
AcDbLine
 10
5361.705449334398
 20
1040.760787611754
 30
0.0
 11
5415.295287820621
 21
840.7607876117545
 31
0.0
  0
LINE
  5
205E3
330
747D
100
AcDbEntity
  8
部品1
100
AcDbLine
 10
6104.28496777978
 20
1440.760787611756
 30
0.0
 11
6709.539401023374
 21
1440.760787611754
 31
0.0
  0
LINE
  5
205E4
330
747D
100
AcDbEntity
  8
部品1
100
AcDbLine
 10
6104.28496777978
 20
1340.760787611754
 30
0.0
 11
6739.539401023375
 21
1340.760787611754
 31
0.0
  0
LINE
  5
205E5
330
747D
100
AcDbEntity
  8
Ｇ．Ｌ
100
AcDbLine
 10
6104.28496777978
 20
1140.760787611754
 30
0.0
 11
6739.539401023375
 21
1140.760787611754
 31
0.0
  0
DIMENSION
  5
205E6
330
747D
100
AcDbEntity
  8
寸法
 48
50.0
100
AcDbDimension
  2
*D49
 10
6326.209653947844
 20
740.7607876117546
 30
0.0
 11
6326.209653947844
 21
928.3854207276599
 31
0.0
 70
   160
  1
200
 71
     5
 42
399.9999999999999
  3
INABA_S40G
100
AcDbAlignedDimension
 13
6419.539401023374
 23
1140.760787611754
 33
0.0
 14
6569.539401023374
 24
740.7607876117545
 34
0.0
 50
90.0
100
AcDbRotatedDimension
1001
ACAD
1000
DSTYLE
1002
{
1070
   174
1070
     0
1070
   272
1070
     1
1070
   288
1070
     0
1070
   341
1005
0
1002
}
  0
LINE
  5
205E7
330
747D
100
AcDbEntity
  8
部品1
100
AcDbLine
 10
6104.28496777978
 20
1434.760787611754
 30
0.0
 11
6819.539401023374
 21
1434.760787611754
 31
0.0
  0
LINE
  5
205E8
330
747D
100
AcDbEntity
  8
部品1
100
AcDbLine
 10
6709.539401023374
 20
1940.760787611752
 30
0.0
 11
6709.539401023377
 21
1434.760787611756
 31
0.0
  0
LINE
  5
205E9
330
747D
100
AcDbEntity
  8
部品1
100
AcDbLine
 10
6819.539401023374
 20
1940.760787611752
 30
0.0
 11
6819.539401023374
 21
1140.760787611754
 31
0.0
  0
LINE
  5
205EA
330
747D
100
AcDbEntity
  8
部品1
 48
50.0
100
AcDbLine
 10
6036.831698760174
 20
2600.0
 30
0.0
 11
6036.831698760174
 21
200.0
 31
0.0
  0
LINE
  5
205EB
330
747D
100
AcDbEntity
  8
部品1
 48
50.0
100
AcDbLine
 10
7636.831698760174
 20
2360.0
 30
0.0
 11
7636.831698760174
 21
200.0
 31
0.0
  0
LINE
  5
205EC
330
747D
100
AcDbEntity
  8
細線
 48
50.0
100
AcDbLine
 10
6554.539401023373
 20
1940.760787611752
 30
0.0
 11
6554.539401023373
 21
1440.760787611754
 31
0.0
  0
LINE
  5
205ED
330
747D
100
AcDbEntity
  8
細線
 48
50.0
100
AcDbLine
 10
6584.539401023374
 20
1940.760787611752
 30
0.0
 11
6584.539401023374
 21
1440.760787611754
 31
0.0
  0
LINE
  5
205EE
330
747D
100
AcDbEntity
  8
細線
 48
50.0
100
AcDbLine
 10
6304.539401023374
 20
1940.760787611752
 30
0.0
 11
6304.539401023374
 21
1440.760787611754
 31
0.0
  0
LINE
  5
205EF
330
747D
100
AcDbEntity
  8
細線
 48
50.0
100
AcDbLine
 10
6274.539401023374
 20
1940.760787611752
 30
0.0
 11
6274.539401023374
 21
1440.760787611754
 31
0.0
  0
LINE
  5
205F0
330
747D
100
AcDbEntity
  8
細線
100
AcDbLine
 10
5188.500368577511
 20
1040.760787611754
 30
0.0
 11
5175.102908955958
 21
990.7607876117562
 31
0.0
  0
LINE
  5
205F1
330
747D
100
AcDbEntity
  8
細線
100
AcDbLine
 10
5088.500368577514
 20
1040.760787611754
 30
0.0
 11
5075.102908955955
 21
990.7607876117562
 31
0.0
  0
LINE
  5
205F2
330
747D
100
AcDbEntity
  8
細線
100
AcDbLine
 10
4888.50036857751
 20
1040.760787611753
 30
0.0
 11
4875.102908955958
 21
990.7607876117507
 31
0.0
  0
LINE
  5
205F3
330
747D
100
AcDbEntity
  8
細線
100
AcDbLine
 10
4988.50036857751
 20
1040.760787611753
 30
0.0
 11
4975.102908955954
 21
990.7607876117507
 31
0.0
  0
LINE
  5
205F4
330
747D
100
AcDbEntity
  8
細線
100
AcDbLine
 10
4932.318207794966
 20
1040.760787611753
 30
0.0
 11
5032.318207794966
 21
1140.760787611756
 31
0.0
  0
LINE
  5
205F5
330
747D
100
AcDbEntity
  8
細線
100
AcDbLine
 10
4960.602479042429
 20
1040.760787611754
 30
0.0
 11
5060.602479042426
 21
1140.760787611756
 31
0.0
  0
LINE
  5
205F6
330
747D
100
AcDbEntity
  8
細線
100
AcDbLine
 10
5081.473487193862
 20
1140.760787611756
 30
0.0
 11
4961.705449334402
 21
1260.528825471216
 31
0.0
  0
LINE
  5
205F7
330
747D
100
AcDbEntity
  8
細線
100
AcDbLine
 10
4988.886750289892
 20
1040.760787611754
 30
0.0
 11
5088.886750289888
 21
1140.760787611756
 31
0.0
  0
LINE
  5
205F8
330
747D
100
AcDbEntity
  8
細線
100
AcDbLine
 10
5123.899894065054
 20
1140.760787611756
 30
0.0
 11
4961.705449334399
 21
1302.955232342408
 31
0.0
  0
LINE
  5
205F9
330
747D
100
AcDbEntity
  8
部品1
100
AcDbLine
 10
4961.705449334402
 20
1140.760787611756
 30
0.0
 11
4961.705449334402
 21
1340.760787611754
 31
0.0
  0
LINE
  5
205FA
330
747D
100
AcDbEntity
  8
細線
100
AcDbLine
 10
5201.897828199065
 20
890.7607876117545
 30
0.0
 11
5188.500368577511
 21
840.7607876117545
 31
0.0
  0
LINE
  5
205FB
330
747D
100
AcDbEntity
  8
細線
100
AcDbLine
 10
5101.897828199065
 20
890.7607876117545
 30
0.0
 11
5088.500368577514
 21
840.7607876117545
 31
0.0
  0
LINE
  5
205FC
330
747D
100
AcDbEntity
  8
細線
100
AcDbLine
 10
4901.897828199065
 20
890.7607876117527
 30
0.0
 11
4888.50036857751
 21
840.7607876117507
 31
0.0
  0
LINE
  5
205FD
330
747D
100
AcDbEntity
  8
細線
100
AcDbLine
 10
5001.897828199069
 20
890.7607876117527
 30
0.0
 11
4988.50036857751
 21
840.7607876117507
 31
0.0
  0
LINE
  5
205FE
330
747D
100
AcDbEntity
  8
部品1
100
AcDbLine
 10
4861.705449334398
 20
840.7607876117507
 30
0.0
 11
4861.705449334398
 21
1140.760787611756
 31
0.0
  0
LINE
  5
205FF
330
747D
100
AcDbEntity
  8
細線
100
AcDbLine
 10
4861.705449334398
 20
1040.760787611753
 30
0.0
 11
4915.295287820625
 21
840.760787611749
 31
0.0
  0
LINE
  5
20600
330
747D
100
AcDbEntity
  8
細線
100
AcDbLine
 10
5161.705449334398
 20
1040.760787611754
 30
0.0
 11
5215.295287820625
 21
840.7607876117507
 31
0.0
  0
LINE
  5
20601
330
747D
100
AcDbEntity
  8
細線
100
AcDbLine
 10
5061.705449334398
 20
1040.760787611754
 30
0.0
 11
5115.295287820622
 21
840.7607876117507
 31
0.0
  0
LINE
  5
20602
330
747D
100
AcDbEntity
  8
細線
100
AcDbLine
 10
4961.705449334402
 20
1040.760787611753
 30
0.0
 11
5015.295287820621
 21
840.760787611749
 31
0.0
  0
LINE
  5
20603
330
747D
100
AcDbEntity
  8
部品1
 48
50.0
100
AcDbLine
 10
4436.831698760173
 20
2600.0
 30
0.0
 11
4436.831698760173
 21
200.0
 31
0.0
  0
LINE
  5
20604
330
747D
100
AcDbEntity
  8
部品1
100
AcDbLine
 10
4861.705449334398
 20
840.7607876117507
 30
0.0
 11
5461.705449334399
 21
840.7607876117545
 31
0.0
  0
LINE
  5
20605
330
747D
100
AcDbEntity
  8
部品1
100
AcDbLine
 10
4861.705449334398
 20
1040.760787611753
 30
0.0
 11
5461.705449334399
 21
1040.760787611754
 31
0.0
  0
LINE
  5
20606
330
747D
100
AcDbEntity
  8
部品1
100
AcDbLine
 10
4961.705449334402
 20
1340.760787611754
 30
0.0
 11
5361.705449334398
 21
1340.760787611754
 31
0.0
  0
LINE
  5
20607
330
747D
100
AcDbEntity
  8
Ｇ．Ｌ
100
AcDbLine
 10
4531.604443289075
 20
1140.760787611756
 30
0.0
 11
5962.497727112236
 21
1140.760787611756
 31
0.0
  0
LINE
  5
20608
330
747D
100
AcDbEntity
  8
細線
100
AcDbLine
 10
5350.174064044748
 20
1140.760787611756
 30
0.0
 11
5150.174064044751
 21
1340.760787611754
 31
0.0
  0
TEXT
  5
20609
330
747D
100
AcDbEntity
  8
部品1
100
AcDbText
 10
4902.431719764972
 20
2307.972217178321
 30
0.0
 40
120.0
  1
基礎詳細
  7
STYLE2
100
AcDbText
  0
MTEXT
  5
2060A
102
{ACAD_REACTORS
330
2060B
102
}
330
747D
100
AcDbEntity
  8
寸法
 62
     7
 48
50.0
100
AcDbMText
 10
5399.237306059188
 20
1638.612705420522
 30
0.0
 40
120.0
 41
1.0
 71
     4
 72
     1
  1
\A1;C.B
  7
STYLE1
 73
     1
 44
1.0
1001
ACAD
1000
MTEXTBEGIN
1070
    73
1070
     1
1070
    44
1040
1.0
1070
    74
1070
     0
1000
MTEXTEND
  0
LEADER
  5
2060B
330
747D
100
AcDbEntity
  8
寸法
 48
50.0
100
AcDbLeader
  3
INABA_S50G
 71
     0
 73
     0
 74
     0
 75
     1
 40
120.0
 41
185.591883092037
 76
     3
 10
5161.705449334401
 20
1340.760787611754
 30
0.0
 10
5316.969031905578
 20
1553.612705420522
 30
0.0
 10
5441.969031905578
 20
1553.612705420522
 30
0.0
340
2060A
213
67.73172584638814
223
0.0
233
0.0
1001
ACAD
1000
DSTYLE
1002
{
1070
    40
1040
1.0
1002
}
  0
LINE
  5
2060C
330
747D
100
AcDbEntity
  8
細線
100
AcDbLine
 10
5307.747657173555
 20
1140.760787611756
 30
0.0
 11
5107.747657173558
 21
1340.760787611754
 31
0.0
  0
LINE
  5
2060D
330
747D
100
AcDbEntity
  8
細線
100
AcDbLine
 10
5232.318207794966
 20
1040.760787611754
 30
0.0
 11
5332.318207794962
 21
1140.760787611756
 31
0.0
  0
TEXT
  5
2060E
330
747D
100
AcDbEntity
  8
部品1
100
AcDbText
 10
7690.559015138866
 20
2414.063814602734
 30
0.0
 40
120.0
  1
アンカー部詳細
  7
STYLE2
100
AcDbText
  0
LINE
  5
2060F
330
747D
100
AcDbEntity
  8
部品1
 48
50.0
100
AcDbLine
 10
4436.831698760173
 20
200.0
 30
0.0
 11
10836.83169876017
 21
200.0
 31
0.0
  0
LINE
  5
20610
330
747D
100
AcDbEntity
  8
部品1
 48
50.0
100
AcDbLine
 10
10836.83169876017
 20
2600.0
 30
0.0
 11
4436.831698760173
 21
2600.000000000002
 31
0.0
  0
LINE
  5
20611
330
747D
100
AcDbEntity
  8
部品1
 48
50.0
100
AcDbLine
 10
10836.83169876017
 20
2360.0
 30
0.0
 11
6036.831698760174
 21
2360.0
 31
0.0
  0
LINE
  5
20612
330
747D
100
AcDbEntity
  8
部品1
 48
50.0
100
AcDbLine
 10
4436.831698760173
 20
2120.0
 30
0.0
 11
10836.83169876017
 21
2120.0
 31
0.0
  0
ENDSEC
  0
SECTION
  2
OBJECTS
  0
DICTIONARY
  5
7471
330
0
100
AcDbDictionary
281
     1
  3
ACAD_COLOR
350
159B0
  3
ACAD_GROUP
350
7472
  3
ACAD_LAYOUT
350
159B1
  3
ACAD_MATERIAL
350
159AF
  3
ACAD_MLINESTYLE
350
7473
  3
ACAD_PLOTSETTINGS
350
159B2
  3
ACAD_PLOTSTYLENAME
350
159AD
  3
ACDBHEADERROUNDTRIPXREC
350
2066C
  3
AcDbVariableDictionary
350
20668
  3
CONTENTDICTIONARY
350
E71C
  3
DRAWINGVARIABLESDICT
350
F3B9
  0
DICTIONARY
  5
1ED5D
330
7467
100
AcDbDictionary
280
     1
281
     1
  3
ACAD_LAYERSTATES
360
1ED5E
  0
DICTIONARY
  5
159B0
102
{ACAD_REACTORS
330
7471
102
}
330
7471
100
AcDbDictionary
281
     1
  0
DICTIONARY
  5
7472
102
{ACAD_REACTORS
330
7471
102
}
330
7471
100
AcDbDictionary
281
     1
  3
*A1
350
202D3
  0
DICTIONARY
  5
159B1
102
{ACAD_REACTORS
330
7471
102
}
330
7471
100
AcDbDictionary
281
     1
  3
Model
350
159B3
  3
レイアウト1
350
159B4
  0
DICTIONARY
  5
159AF
102
{ACAD_REACTORS
330
7471
102
}
330
7471
100
AcDbDictionary
281
     1
  0
DICTIONARY
  5
7473
102
{ACAD_REACTORS
330
7471
102
}
330
7471
100
AcDbDictionary
281
     1
  3
STANDARD
350
7480
  0
DICTIONARY
  5
159B2
102
{ACAD_REACTORS
330
7471
102
}
330
7471
100
AcDbDictionary
281
     1
  0
ACDBDICTIONARYWDFLT
  5
159AD
102
{ACAD_REACTORS
330
7471
102
}
330
7471
100
AcDbDictionary
281
     1
  3
Normal
350
159AE
100
AcDbDictionaryWithDefault
340
159AE
  0
DICTIONARY
  5
2066C
102
{ACAD_REACTORS
330
7471
102
}
330
7471
100
AcDbDictionary
281
     1
  3
COLORDICT
350
2066E
  3
MATERIALDICT
350
2066D
  0
DICTIONARY
  5
20668
102
{ACAD_REACTORS
330
7471
102
}
330
7471
100
AcDbDictionary
281
     1
  3
DIMASSOC
350
20669
  3
PROJECTNAME
350
2066A
  0
DICTIONARY
  5
E71C
102
{ACAD_REACTORS
330
7471
102
}
330
7471
100
AcDbDictionary
281
     1
  0
DICTIONARY
  5
F3B9
102
{ACAD_REACTORS
330
7471
102
}
330
7471
100
AcDbDictionary
281
     1
1001
DRAWINGVARIABLESXDATA
1000
POLARMODE
1000
1
  0
DICTIONARY
  5
1ED5E
102
{ACAD_REACTORS
330
1ED5D
102
}
330
1ED5D
100
AcDbDictionary
281
     1
  0
GROUP
  5
202D3
102
{ACAD_REACTORS
330
7472
102
}
330
7472
100
AcDbGroup
300

 70
     1
 71
     1
340
202B9
340
202B8
340
202B7
340
202B6
340
202B5
  0
LAYOUT
  5
159B3
102
{ACAD_XDICTIONARY
360
2066F
102
}
102
{ACAD_REACTORS
330
159B1
102
}
330
159B1
100
AcDbPlotSettings
  1

  2
iR C3880
  4
A3
  6

 40
5.873749732971191
 41
5.873747825622558
 42
5.873748779296875
 43
5.873748779296875
 44
296.9259948730469
 45
419.9466552734374
 46
0.0
 47
0.0
 48
0.0
 49
0.0
140
0.0
141
0.0
142
1.0
143
41.65811991999086
 70
 11952
 72
     1
 73
     1
 74
     2
  7
inabass.ctb
 75
     0
147
0.0240049239360925
148
0.0
149
0.0
100
AcDbLayout
  1
Model
 70
     1
 71
     0
 10
0.0
 20
0.0
 11
12.0
 21
9.0
 12
0.0
 22
0.0
 32
0.0
 14
0.0
 24
0.0
 34
0.0
 15
0.0
 25
0.0
 35
0.0
146
0.0
 13
0.0
 23
0.0
 33
0.0
 16
1.0
 26
0.0
 36
0.0
 17
0.0
 27
1.0
 37
0.0
 76
     0
330
747D
  0
LAYOUT
  5
159B4
102
{ACAD_XDICTIONARY
360
20671
102
}
102
{ACAD_REACTORS
330
159B1
102
}
330
159B1
100
AcDbPlotSettings
  1

  2
自動 EPSON LP-8400FX (TATENO 上)
  4

  6

 40
0.0
 41
0.0
 42
0.0
 43
0.0
 44
0.0
 45
0.0
 46
0.0
 47
0.0
 48
0.0
 49
0.0
140
0.0
141
0.0
142
1.0
143
1.0
 70
   688
 72
     0
 73
     0
 74
     5
  7
inaba.ctb
 75
    16
147
1.0
148
0.0
149
0.0
100
AcDbLayout
  1
レイアウト1
 70
     0
 71
     1
 10
0.0
 20
0.0
 11
420.0
 21
297.0
 12
0.0
 22
0.0
 32
0.0
 14
1.000000000000000E+20
 24
1.000000000000000E+20
 34
1.000000000000000E+20
 15
-1.000000000000000E+20
 25
-1.000000000000000E+20
 35
-1.000000000000000E+20
146
0.0
 13
0.0
 23
0.0
 33
0.0
 16
1.0
 26
0.0
 36
0.0
 17
0.0
 27
1.0
 37
0.0
 76
     0
330
747A
  0
MLINESTYLE
  5
7480
102
{ACAD_REACTORS
330
7473
102
}
330
7473
100
AcDbMlineStyle
  2
STANDARD
 70
     0
  3

 62
     0
 51
90.0
 52
90.0
 71
     2
 49
0.5
 62
   256
  6
BYLAYER
 49
-0.5
 62
   256
  6
BYLAYER
  0
ACDBPLACEHOLDER
  5
159AE
102
{ACAD_REACTORS
330
159AD
102
}
330
159AD
  0
XRECORD
  5
2066E
102
{ACAD_REACTORS
330
2066C
102
}
330
2066C
100
AcDbXrecord
280
     1
340
159B0
  0
XRECORD
  5
2066D
102
{ACAD_REACTORS
330
2066C
102
}
330
2066C
100
AcDbXrecord
280
     1
340
159AF
  0
DICTIONARYVAR
  5
20669
102
{ACAD_REACTORS
330
20668
102
}
330
20668
100
DictionaryVariables
280
     0
  1
1
  0
DICTIONARYVAR
  5
2066A
102
{ACAD_REACTORS
330
20668
102
}
330
20668
100
DictionaryVariables
280
     0
  1

  0
DICTIONARY
  5
2066F
330
159B3
100
AcDbDictionary
280
     1
281
     1
  3
ACAD_XREC_ROUNDTRIP
360
20670
  0
DICTIONARY
  5
20671
330
159B4
100
AcDbDictionary
280
     1
281
     1
  3
ACAD_XREC_ROUNDTRIP
360
20672
  0
XRECORD
  5
20670
102
{ACAD_REACTORS
330
2066F
102
}
330
2066F
100
AcDbXrecord
280
     1
102
SHADEPLOT
 70
     1
102
SHADEPLOTRESLEVEL
 70
     2
102
SHADEPLOTCUSTOMDPI
 70
   300
  0
XRECORD
  5
20672
102
{ACAD_REACTORS
330
20671
102
}
330
20671
100
AcDbXrecord
280
     1
102
SHADEPLOT
 70
     0
102
SHADEPLOTRESLEVEL
 70
     2
102
SHADEPLOTCUSTOMDPI
 70
   300
  0
ENDSEC
  0
EOF
