  0
SECTION
  2
HEADER
  9
$ACADVER
  1
AC1015
  9
$ACADMAINTVER
 70
    20
  9
$DWGCODEPAGE
  3
ANSI_932
  9
$INSBASE
 10
0.0
 20
0.0
 30
0.0
  9
$EXTMIN
 10
139.196816621341
 20
-0.3623413705354324
 30
-0.0000000000000053
  9
$EXTMAX
 10
16308.32523385566
 20
11409.91961536986
 30
0.0000000000000099
  9
$LIMMIN
 10
0.0
 20
0.0
  9
$LIMMAX
 10
16800.0
 20
11880.0
  9
$ORTHOMODE
 70
     0
  9
$REGENMODE
 70
     1
  9
$FILLMODE
 70
     1
  9
$QTEXTMODE
 70
     0
  9
$MIRRTEXT
 70
     1
  9
$LTSCALE
 40
20.0
  9
$ATTMODE
 70
     1
  9
$TEXTSIZE
 40
100.0
  9
$TRACEWID
 40
1.0
  9
$TEXTSTYLE
  7
STYLE2
  9
$CLAYER
  8
寸法
  9
$CELTYPE
  6
BYLAYER
  9
$CECOLOR
 62
   256
  9
$CELTSCALE
 40
50.0
  9
$DISPSILH
 70
     0
  9
$DIMSCALE
 40
40.0
  9
$DIMASZ
 40
2.5
  9
$DIMEXO
 40
0.5
  9
$DIMDLI
 40
7.0
  9
$DIMRND
 40
0.0
  9
$DIMDLE
 40
0.0
  9
$DIMEXE
 40
1.5
  9
$DIMTP
 40
0.0
  9
$DIMTM
 40
0.0
  9
$DIMTXT
 40
3.0
  9
$DIMCEN
 40
0.0
  9
$DIMTSZ
 40
0.0
  9
$DIMTOL
 70
     0
  9
$DIMLIM
 70
     0
  9
$DIMTIH
 70
     0
  9
$DIMTOH
 70
     0
  9
$DIMSE1
 70
     0
  9
$DIMSE2
 70
     0
  9
$DIMTAD
 70
     3
  9
$DIMZIN
 70
     8
  9
$DIMBLK
  1

  9
$DIMASO
 70
     1
  9
$DIMSHO
 70
     1
  9
$DIMPOST
  1

  9
$DIMAPOST
  1

  9
$DIMALT
 70
     0
  9
$DIMALTD
 70
     2
  9
$DIMALTF
 40
0.0394
  9
$DIMLFAC
 40
1.0
  9
$DIMTOFL
 70
     1
  9
$DIMTVP
 40
0.0
  9
$DIMTIX
 70
     0
  9
$DIMSOXD
 70
     0
  9
$DIMSAH
 70
     1
  9
$DIMBLK1
  1
DOTSMALL
  9
$DIMBLK2
  1
DOTSMALL
  9
$DIMSTYLE
  2
INABA_S40G
  9
$DIMCLRD
 70
     0
  9
$DIMCLRE
 70
     0
  9
$DIMCLRT
 70
     7
  9
$DIMTFAC
 40
1.0
  9
$DIMGAP
 40
1.0
  9
$DIMJUST
 70
     0
  9
$DIMSD1
 70
     0
  9
$DIMSD2
 70
     0
  9
$DIMTOLJ
 70
     1
  9
$DIMTZIN
 70
     0
  9
$DIMALTZ
 70
     0
  9
$DIMALTTZ
 70
     0
  9
$DIMUPT
 70
     0
  9
$DIMDEC
 70
     1
  9
$DIMTDEC
 70
     1
  9
$DIMALTU
 70
     2
  9
$DIMALTTD
 70
     2
  9
$DIMTXSTY
  7
STYLE1
  9
$DIMAUNIT
 70
     0
  9
$DIMADEC
 70
     0
  9
$DIMALTRND
 40
0.0
  9
$DIMAZIN
 70
     0
  9
$DIMDSEP
 70
    46
  9
$DIMATFIT
 70
     3
  9
$DIMFRAC
 70
     0
  9
$DIMLDRBLK
  1

  9
$DIMLUNIT
 70
     2
  9
$DIMLWD
 70
    -2
  9
$DIMLWE
 70
    -2
  9
$DIMTMOVE
 70
     0
  9
$LUNITS
 70
     2
  9
$LUPREC
 70
     1
  9
$SKETCHINC
 40
1.0
  9
$FILLETRAD
 40
0.0
  9
$AUNITS
 70
     0
  9
$AUPREC
 70
     0
  9
$MENU
  1
acad
  9
$ELEVATION
 40
0.0
  9
$PELEVATION
 40
0.0
  9
$THICKNESS
 40
0.0
  9
$LIMCHECK
 70
     0
  9
$CHAMFERA
 40
3.0
  9
$CHAMFERB
 40
3.0
  9
$CHAMFERC
 40
0.0
  9
$CHAMFERD
 40
0.0
  9
$SKPOLY
 70
     0
  9
$TDCREATE
 40
2451368.612993866
  9
$TDUCREATE
 40
2451368.237993866
  9
$TDUPDATE
 40
2456380.843772234
  9
$TDUUPDATE
 40
2456380.468772234
  9
$TDINDWG
 40
1.4314580787
  9
$TDUSRTIMER
 40
1.4314580787
  9
$USRTIMER
 70
     1
  9
$ANGBASE
 50
0.0
  9
$ANGDIR
 70
     0
  9
$PDMODE
 70
     3
  9
$PDSIZE
 40
2.0
  9
$PLINEWID
 40
0.0
  9
$SPLFRAME
 70
     0
  9
$SPLINETYPE
 70
     6
  9
$SPLINESEGS
 70
     8
  9
$HANDSEED
  5
1F9EA
  9
$SURFTAB1
 70
     6
  9
$SURFTAB2
 70
     6
  9
$SURFTYPE
 70
     6
  9
$SURFU
 70
     6
  9
$SURFV
 70
     6
  9
$UCSBASE
  2

  9
$UCSNAME
  2

  9
$UCSORG
 10
0.0
 20
0.0
 30
0.0
  9
$UCSXDIR
 10
1.0
 20
0.0
 30
0.0
  9
$UCSYDIR
 10
0.0
 20
1.0
 30
0.0
  9
$UCSORTHOREF
  2

  9
$UCSORTHOVIEW
 70
     0
  9
$UCSORGTOP
 10
0.0
 20
0.0
 30
0.0
  9
$UCSORGBOTTOM
 10
0.0
 20
0.0
 30
0.0
  9
$UCSORGLEFT
 10
0.0
 20
0.0
 30
0.0
  9
$UCSORGRIGHT
 10
0.0
 20
0.0
 30
0.0
  9
$UCSORGFRONT
 10
0.0
 20
0.0
 30
0.0
  9
$UCSORGBACK
 10
0.0
 20
0.0
 30
0.0
  9
$PUCSBASE
  2

  9
$PUCSNAME
  2

  9
$PUCSORG
 10
0.0
 20
0.0
 30
0.0
  9
$PUCSXDIR
 10
1.0
 20
0.0
 30
0.0
  9
$PUCSYDIR
 10
0.0
 20
1.0
 30
0.0
  9
$PUCSORTHOREF
  2

  9
$PUCSORTHOVIEW
 70
     0
  9
$PUCSORGTOP
 10
0.0
 20
0.0
 30
0.0
  9
$PUCSORGBOTTOM
 10
0.0
 20
0.0
 30
0.0
  9
$PUCSORGLEFT
 10
0.0
 20
0.0
 30
0.0
  9
$PUCSORGRIGHT
 10
0.0
 20
0.0
 30
0.0
  9
$PUCSORGFRONT
 10
0.0
 20
0.0
 30
0.0
  9
$PUCSORGBACK
 10
0.0
 20
0.0
 30
0.0
  9
$USERI1
 70
     0
  9
$USERI2
 70
     0
  9
$USERI3
 70
     0
  9
$USERI4
 70
     0
  9
$USERI5
 70
     0
  9
$USERR1
 40
0.0
  9
$USERR2
 40
0.0
  9
$USERR3
 40
0.0
  9
$USERR4
 40
0.0
  9
$USERR5
 40
0.0
  9
$WORLDVIEW
 70
     1
  9
$SHADEDGE
 70
     3
  9
$SHADEDIF
 70
    70
  9
$TILEMODE
 70
     1
  9
$MAXACTVP
 70
    16
  9
$PINSBASE
 10
0.0
 20
0.0
 30
0.0
  9
$PLIMCHECK
 70
     0
  9
$PEXTMIN
 10
1.000000000000000E+20
 20
1.000000000000000E+20
 30
1.000000000000000E+20
  9
$PEXTMAX
 10
-1.000000000000000E+20
 20
-1.000000000000000E+20
 30
-1.000000000000000E+20
  9
$PLIMMIN
 10
0.0
 20
0.0
  9
$PLIMMAX
 10
420.0
 20
297.0
  9
$UNITMODE
 70
     0
  9
$VISRETAIN
 70
     0
  9
$PLINEGEN
 70
     0
  9
$PSLTSCALE
 70
     0
  9
$TREEDEPTH
 70
  3020
  9
$CMLSTYLE
  2
STANDARD
  9
$CMLJUST
 70
     0
  9
$CMLSCALE
 40
1.0
  9
$PROXYGRAPHICS
 70
     1
  9
$MEASUREMENT
 70
     1
  9
$CELWEIGHT
370
    -1
  9
$ENDCAPS
280
     0
  9
$JOINSTYLE
280
     0
  9
$LWDISPLAY
290
     0
  9
$INSUNITS
 70
     0
  9
$HYPERLINKBASE
  1

  9
$STYLESHEET
  1
inabass.ctb
  9
$XEDIT
290
     1
  9
$CEPSNTYPE
380
     0
  9
$PSTYLEMODE
290
     1
  9
$FINGERPRINTGUID
  2
{3B57B35E-7D77-4BBF-81B7-6C583B9EB24C}
  9
$VERSIONGUID
  2
{29A32470-E78A-44D3-911B-2E4AE682AEDB}
  9
$EXTNAMES
290
     1
  9
$PSVPSCALE
 40
0.0
  9
$OLESTARTUP
290
     0
  0
ENDSEC
  0
SECTION
  2
CLASSES
  0
CLASS
  1
ACDBDICTIONARYWDFLT
  2
AcDbDictionaryWithDefault
  3
ObjectDBX Classes
 90
        0
280
     0
281
     0
  0
CLASS
  1
DICTIONARYVAR
  2
AcDbDictionaryVar
  3
ObjectDBX Classes
 90
        0
280
     0
281
     0
  0
CLASS
  1
ACDBPLACEHOLDER
  2
AcDbPlaceHolder
  3
ObjectDBX Classes
 90
        0
280
     0
281
     0
  0
CLASS
  1
LAYOUT
  2
AcDbLayout
  3
ObjectDBX Classes
 90
        0
280
     0
281
     0
  0
ENDSEC
  0
SECTION
  2
TABLES
  0
TABLE
  2
VPORT
  5
746D
330
0
100
AcDbSymbolTable
 70
     3
  0
VPORT
  5
1F9E2
330
746D
100
AcDbSymbolTableRecord
100
AcDbViewportTableRecord
  2
*Active
 70
     0
 10
0.0
 20
0.0
 11
1.0
 21
1.0
 12
8223.761025238502
 22
5704.778636999662
 13
0.0
 23
0.0
 14
10.0
 24
10.0
 15
10.0
 25
10.0
 16
0.0
 26
0.0
 36
1.0
 17
0.0
 27
0.0
 37
0.0
 40
11503.04847671389
 41
1.706919945725916
 42
50.0
 43
0.0
 44
0.0
 50
0.0
 51
0.0
 71
     0
 72
     0
 73
     1
 74
     0
 75
     0
 76
     0
 77
     0
 78
     0
281
     0
 65
     1
110
0.0
120
0.0
130
0.0
111
1.0
121
0.0
131
0.0
112
0.0
122
1.0
132
0.0
 79
     0
146
0.0
  0
ENDTAB
  0
TABLE
  2
LTYPE
  5
746A
330
0
100
AcDbSymbolTable
 70
     4
  0
LTYPE
  5
7477
330
746A
100
AcDbSymbolTableRecord
100
AcDbLinetypeTableRecord
  2
BYBLOCK
 70
     0
  3

 72
    65
 73
     0
 40
0.0
  0
LTYPE
  5
7478
330
746A
100
AcDbSymbolTableRecord
100
AcDbLinetypeTableRecord
  2
BYLAYER
 70
     0
  3

 72
    65
 73
     0
 40
0.0
  0
LTYPE
  5
7479
330
746A
100
AcDbSymbolTableRecord
100
AcDbLinetypeTableRecord
  2
CONTINUOUS
 70
     0
  3
Solid line
 72
    65
 73
     0
 40
0.0
  0
LTYPE
  5
7816
330
746A
100
AcDbSymbolTableRecord
100
AcDbLinetypeTableRecord
  2
CENTER
 70
     0
  3
____ _ ____ _ ____ _ ____ _ ____ _ ____ _ ____ 
 72
    65
 73
     4
 40
2.0
 49
1.25
 74
     0
 49
-0.25
 74
     0
 49
0.25
 74
     0
 49
-0.25
 74
     0
  0
LTYPE
  5
781A
330
746A
100
AcDbSymbolTableRecord
100
AcDbLinetypeTableRecord
  2
HIDDEN
 70
     0
  3
__ __ __ __ __ __ __ __ __ __ __ __ __ __ __ __
 72
    65
 73
     2
 40
0.375
 49
0.25
 74
     0
 49
-0.125
 74
     0
  0
LTYPE
  5
781B
330
746A
100
AcDbSymbolTableRecord
100
AcDbLinetypeTableRecord
  2
PHANTOM
 70
     0
  3
______  __  __  ______  __  __  ______  __  __ 
 72
    65
 73
     6
 40
2.5
 49
1.25
 74
     0
 49
-0.25
 74
     0
 49
0.25
 74
     0
 49
-0.25
 74
     0
 49
0.25
 74
     0
 49
-0.25
 74
     0
  0
ENDTAB
  0
TABLE
  2
LAYER
  5
7467
102
{ACAD_XDICTIONARY
360
1E67E
102
}
330
0
100
AcDbSymbolTable
 70
    13
  0
LAYER
  5
7474
330
7467
100
AcDbSymbolTableRecord
100
AcDbLayerTableRecord
  2
0
 70
     0
 62
     7
  6
CONTINUOUS
370
    -3
390
159AE
  0
LAYER
  5
DEB2
330
7467
100
AcDbSymbolTableRecord
100
AcDbLayerTableRecord
  2
センター
 70
     0
 62
     3
  6
CENTER
370
    -3
390
159AE
  0
LAYER
  5
DEB3
330
7467
100
AcDbSymbolTableRecord
100
AcDbLayerTableRecord
  2
寸法
 70
     0
 62
     4
  6
CONTINUOUS
370
    -3
390
159AE
  0
LAYER
  5
DEB4
330
7467
100
AcDbSymbolTableRecord
100
AcDbLayerTableRecord
  2
部品1
 70
     0
 62
     7
  6
CONTINUOUS
370
    -3
390
159AE
  0
LAYER
  5
DEB5
330
7467
100
AcDbSymbolTableRecord
100
AcDbLayerTableRecord
  2
補助
 70
     0
 62
    -1
  6
CONTINUOUS
370
    -3
390
159AE
  0
LAYER
  5
DEB6
330
7467
100
AcDbSymbolTableRecord
100
AcDbLayerTableRecord
  2
文字
 70
     0
 62
     7
  6
CONTINUOUS
370
    -3
390
159AE
  0
LAYER
  5
F255
330
7467
100
AcDbSymbolTableRecord
100
AcDbLayerTableRecord
  2
DEFPOINTS
 70
     0
 62
     7
  6
CONTINUOUS
290
     0
370
    -3
390
159AE
  0
LAYER
  5
10B54
330
7467
100
AcDbSymbolTableRecord
100
AcDbLayerTableRecord
  2
仕様書枠
 70
     0
 62
   230
  6
CONTINUOUS
370
    -3
390
159AE
  0
LAYER
  5
11729
330
7467
100
AcDbSymbolTableRecord
100
AcDbLayerTableRecord
  2
Ｇ．Ｌ
 70
     0
 62
    30
  6
CONTINUOUS
370
    -3
390
159AE
  0
LAYER
  5
1173F
330
7467
100
AcDbSymbolTableRecord
100
AcDbLayerTableRecord
  2
細線
 70
     0
 62
     5
  6
CONTINUOUS
370
    -3
390
159AE
  0
LAYER
  5
12CC4
330
7467
100
AcDbSymbolTableRecord
100
AcDbLayerTableRecord
  2
想像線
 70
     0
 62
     6
  6
PHANTOM
370
    -3
390
159AE
  0
LAYER
  5
142E2
330
7467
100
AcDbSymbolTableRecord
100
AcDbLayerTableRecord
  2
破線
 70
     0
 62
     2
  6
HIDDEN
370
    -3
390
159AE
  0
LAYER
  5
1C644
330
7467
100
AcDbSymbolTableRecord
100
AcDbLayerTableRecord
  2
点線
 70
     0
 62
     2
  6
HIDDEN
370
    -3
390
159AE
  0
ENDTAB
  0
TABLE
  2
STYLE
  5
7468
330
0
100
AcDbSymbolTable
 70
     3
  0
STYLE
  5
7475
330
7468
100
AcDbSymbolTableRecord
100
AcDbTextStyleTableRecord
  2
STANDARD
 70
     0
 40
0.0
 41
1.0
 50
0.0
 71
     0
 42
4.0
  3
txt
  4
C:\AutoCAD LT\bigfont.shx
  0
STYLE
  5
F706
330
7468
100
AcDbSymbolTableRecord
100
AcDbTextStyleTableRecord
  2
STYLE1
 70
     0
 40
0.0
 41
1.0
 50
0.0
 71
     0
 42
100.0
  3
isocp.shx
  4
bigfont.shx
  0
STYLE
  5
103BF
330
7468
100
AcDbSymbolTableRecord
100
AcDbTextStyleTableRecord
  2
STYLE2
 70
     0
 40
0.0
 41
1.0
 50
0.0
 71
     0
 42
100.0
  3
MS PGothic.ttf
  4

1001
ACAD
1000
MS PGothic
1071
    32818
  0
ENDTAB
  0
TABLE
  2
VIEW
  5
746B
330
0
100
AcDbSymbolTable
 70
     0
  0
ENDTAB
  0
TABLE
  2
UCS
  5
746C
330
0
100
AcDbSymbolTable
 70
     0
  0
ENDTAB
  0
TABLE
  2
APPID
  5
746E
330
0
100
AcDbSymbolTable
 70
     6
  0
APPID
  5
7476
330
746E
100
AcDbSymbolTableRecord
100
AcDbRegAppTableRecord
  2
ACAD
 70
     0
  0
APPID
  5
DEA9
330
746E
100
AcDbSymbolTableRecord
100
AcDbRegAppTableRecord
  2
CONTENTBLOCKICON
 70
     0
  0
APPID
  5
DEAA
330
746E
100
AcDbSymbolTableRecord
100
AcDbRegAppTableRecord
  2
CONTENTBLOCKDESCRIPTION
 70
     0
  0
APPID
  5
E71D
330
746E
100
AcDbSymbolTableRecord
100
AcDbRegAppTableRecord
  2
CONTENTTABDATA
 70
     0
  0
APPID
  5
E71E
330
746E
100
AcDbSymbolTableRecord
100
AcDbRegAppTableRecord
  2
CONTENTCURRENTTAB
 70
     0
  0
APPID
  5
F3BA
330
746E
100
AcDbSymbolTableRecord
100
AcDbRegAppTableRecord
  2
DRAWINGVARIABLESXDATA
 70
     0
  0
ENDTAB
  0
TABLE
  2
DIMSTYLE
  5
746F
330
0
100
AcDbSymbolTable
 70
     2
100
AcDbDimStyleTable
 71
     1
340
F71F
  0
DIMSTYLE
105
F71F
102
{ACAD_REACTORS
330
1CAB8
330
1CAB7
330
1CAB6
330
1E083
330
1E082
330
1E081
330
1E080
330
1E07F
330
1E07E
330
1EF2F
330
1EF30
330
1F925
330
1F982
330
1F858
330
1F8BD
102
}
330
746F
100
AcDbSymbolTableRecord
100
AcDbDimStyleTableRecord
  2
INABA_S40G
 70
     0
 40
40.0
 41
2.5
 42
0.5
 43
7.0
 44
1.5
 73
     0
 74
     0
 77
     3
 78
     8
140
3.0
141
0.0
143
0.0394
147
1.0
172
     1
173
     1
174
     1
178
     7
271
     1
288
     1
340
F706
341
F770
343
F770
344
F770
  0
DIMSTYLE
105
1C645
330
746F
100
AcDbSymbolTableRecord
100
AcDbDimStyleTableRecord
  2
INABA_S50G
 70
     0
 40
0.0
 41
125.0
 42
25.0
 43
7.0
 44
75.0
 73
     0
 74
     0
 77
     3
 78
     8
140
150.0
141
0.0
143
0.0394
147
25.0
172
     1
173
     1
174
     1
178
     7
271
     1
340
F706
341
F770
343
F770
344
F770
  0
ENDTAB
  0
TABLE
  2
BLOCK_RECORD
  5
7466
330
0
100
AcDbSymbolTable
 70
    26
  0
BLOCK_RECORD
  5
747D
330
7466
100
AcDbSymbolTableRecord
100
AcDbBlockTableRecord
  2
*MODEL_SPACE
340
159B3
  0
BLOCK_RECORD
  5
747A
330
7466
100
AcDbSymbolTableRecord
100
AcDbBlockTableRecord
  2
*PAPER_SPACE
340
159B4
  0
BLOCK_RECORD
  5
F770
330
7466
100
AcDbSymbolTableRecord
100
AcDbBlockTableRecord
  2
_DOTSMALL
340
0
102
{BLKREFS
331
1E059
331
1E05A
331
1E062
331
1E063
331
1E06D
331
1E06E
331
1E0FB
331
1E0FC
331
1F532
331
1F533
331
1F53B
331
1F53C
331
1F544
331
1F545
331
1F54D
331
1F54E
331
1F55F
331
1F560
331
1F568
331
1F569
331
1F57C
331
1F57D
331
1F5A9
331
1F5AA
331
1F5BB
331
1F5BC
331
1F5C4
331
1F5C5
331
1F5CD
331
1F5CE
331
1F69D
331
1F69E
331
1F6B5
331
1F6B6
331
1F6C1
331
1F6C2
331
1F6A9
331
1F6AA
331
1F9BD
331
1F9BE
331
1F9C6
331
1F9C7
331
1F9CF
331
1F9D0
331
1F9D8
331
1F9D9
102
}
  0
BLOCK_RECORD
  5
1C530
330
7466
100
AcDbSymbolTableRecord
100
AcDbBlockTableRecord
  2
_NONE
340
0
  0
BLOCK_RECORD
  5
1CDBF
330
7466
100
AcDbSymbolTableRecord
100
AcDbBlockTableRecord
  2
*D2
340
0
  0
BLOCK_RECORD
  5
1CDCD
330
7466
100
AcDbSymbolTableRecord
100
AcDbBlockTableRecord
  2
*D3
340
0
  0
BLOCK_RECORD
  5
1CDD8
330
7466
100
AcDbSymbolTableRecord
100
AcDbBlockTableRecord
  2
*D4
340
0
  0
BLOCK_RECORD
  5
1E084
330
7466
100
AcDbSymbolTableRecord
100
AcDbBlockTableRecord
  2
*D5
340
0
  0
BLOCK_RECORD
  5
1E090
330
7466
100
AcDbSymbolTableRecord
100
AcDbBlockTableRecord
  2
*D6
340
0
  0
BLOCK_RECORD
  5
1E09C
330
7466
100
AcDbSymbolTableRecord
100
AcDbBlockTableRecord
  2
*D7
340
0
  0
BLOCK_RECORD
  5
1E0A8
330
7466
100
AcDbSymbolTableRecord
100
AcDbBlockTableRecord
  2
*D8
340
0
  0
BLOCK_RECORD
  5
1E0B6
330
7466
100
AcDbSymbolTableRecord
100
AcDbBlockTableRecord
  2
*D9
340
0
  0
BLOCK_RECORD
  5
1E0C4
330
7466
100
AcDbSymbolTableRecord
100
AcDbBlockTableRecord
  2
*D10
340
0
  0
BLOCK_RECORD
  5
1EF31
330
7466
100
AcDbSymbolTableRecord
100
AcDbBlockTableRecord
  2
*D11
340
0
  0
BLOCK_RECORD
  5
1EF3D
330
7466
100
AcDbSymbolTableRecord
100
AcDbBlockTableRecord
  2
*D12
340
0
  0
BLOCK_RECORD
  5
1F443
330
7466
100
AcDbSymbolTableRecord
100
AcDbBlockTableRecord
  2
*D13
340
0
  0
BLOCK_RECORD
  5
1F44F
330
7466
100
AcDbSymbolTableRecord
100
AcDbBlockTableRecord
  2
*D14
340
0
  0
BLOCK_RECORD
  5
1F45B
330
7466
100
AcDbSymbolTableRecord
100
AcDbBlockTableRecord
  2
*D15
340
0
  0
BLOCK_RECORD
  5
1F467
330
7466
100
AcDbSymbolTableRecord
100
AcDbBlockTableRecord
  2
*D16
340
0
  0
BLOCK_RECORD
  5
1F698
330
7466
100
AcDbSymbolTableRecord
100
AcDbBlockTableRecord
  2
*D17
340
0
  0
BLOCK_RECORD
  5
1F6A4
330
7466
100
AcDbSymbolTableRecord
100
AcDbBlockTableRecord
  2
*D18
340
0
  0
BLOCK_RECORD
  5
1F6B0
330
7466
100
AcDbSymbolTableRecord
100
AcDbBlockTableRecord
  2
*D19
340
0
  0
BLOCK_RECORD
  5
1F6BC
330
7466
100
AcDbSymbolTableRecord
100
AcDbBlockTableRecord
  2
*D20
340
0
  0
BLOCK_RECORD
  5
1F98A
330
7466
100
AcDbSymbolTableRecord
100
AcDbBlockTableRecord
  2
*D22
340
0
  0
BLOCK_RECORD
  5
1F996
330
7466
100
AcDbSymbolTableRecord
100
AcDbBlockTableRecord
  2
*D23
340
0
  0
BLOCK_RECORD
  5
1F9A2
330
7466
100
AcDbSymbolTableRecord
100
AcDbBlockTableRecord
  2
*D24
340
0
  0
BLOCK_RECORD
  5
1F9AE
330
7466
100
AcDbSymbolTableRecord
100
AcDbBlockTableRecord
  2
*D25
340
0
  0
ENDTAB
  0
ENDSEC
  0
SECTION
  2
BLOCKS
  0
BLOCK
  5
7489
330
747D
100
AcDbEntity
  8
0
100
AcDbBlockBegin
  2
*MODEL_SPACE
 70
     0
 10
0.0
 20
0.0
 30
0.0
  3
*MODEL_SPACE
  1

  0
ENDBLK
  5
748A
330
747D
100
AcDbEntity
  8
0
100
AcDbBlockEnd
  0
BLOCK
  5
7487
330
747A
100
AcDbEntity
 67
     1
  8
0
100
AcDbBlockBegin
  2
*PAPER_SPACE
 70
     0
 10
0.0
 20
0.0
 30
0.0
  3
*PAPER_SPACE
  1

  0
ENDBLK
  5
7488
330
747A
100
AcDbEntity
 67
     1
  8
0
100
AcDbBlockEnd
  0
BLOCK
  5
F771
330
F770
100
AcDbEntity
  8
0
 48
50.0
100
AcDbBlockBegin
  2
_DOTSMALL
 70
     0
 10
0.0
 20
0.0
 30
0.0
  3
_DOTSMALL
  1

  0
LWPOLYLINE
  5
F772
330
F770
100
AcDbEntity
  8
0
  6
ByBlock
 62
     0
 48
50.0
100
AcDbPolyline
 90
        2
 70
     1
 43
0.5
 10
-0.0625
 20
0.0
 42
1.0
 10
0.0625
 20
0.0
 42
1.0
  0
ENDBLK
  5
F776
330
F770
100
AcDbEntity
  8
0
 48
50.0
100
AcDbBlockEnd
  0
BLOCK
  5
1C531
330
1C530
100
AcDbEntity
  8
0
 48
50.0
100
AcDbBlockBegin
  2
_NONE
 70
     0
 10
0.0
 20
0.0
 30
0.0
  3
_NONE
  1

  0
CIRCLE
  5
1C532
330
1C530
100
AcDbEntity
  8
0
  6
ByBlock
 62
     0
 48
50.0
100
AcDbCircle
 10
0.0
 20
0.0
 30
0.0
 40
0.25
  0
ENDBLK
  5
1C533
330
1C530
100
AcDbEntity
  8
0
 48
50.0
100
AcDbBlockEnd
  0
BLOCK
  5
1CDCB
330
1CDBF
100
AcDbEntity
  8
0
 48
50.0
100
AcDbBlockBegin
  2
*D2
 70
     1
 10
0.0
 20
0.0
 30
0.0
  3
*D2
  1

  0
LINE
  5
1E068
330
1CDBF
100
AcDbEntity
  8
寸法
 62
     0
 48
50.0
370
    -2
100
AcDbLine
 10
6887.6
 20
5499.999999999999
 30
0.0
 11
6406.88811655075
 21
5499.999999999999
 31
0.0
  0
LINE
  5
1E069
330
1CDBF
100
AcDbEntity
  8
寸法
 62
     0
 48
50.0
370
    -2
100
AcDbLine
 10
6837.600000000001
 20
5439.999999999998
 30
0.0
 11
6406.88811655075
 21
5439.999999999998
 31
0.0
  0
LINE
  5
1E06A
330
1CDBF
100
AcDbEntity
  8
寸法
 62
     0
 48
50.0
370
    -2
100
AcDbLine
 10
6466.88811655075
 20
5499.999999999999
 30
0.0
 11
6466.88811655075
 21
5599.999999999998
 31
0.0
  0
LINE
  5
1E06B
330
1CDBF
100
AcDbEntity
  8
寸法
 62
     0
 48
50.0
370
    -2
100
AcDbLine
 10
6466.88811655075
 20
5439.999999999998
 30
0.0
 11
6466.88811655075
 21
5339.999999999998
 31
0.0
  0
LINE
  5
1E06C
330
1CDBF
100
AcDbEntity
  8
寸法
 62
     0
 48
50.0
370
    -2
100
AcDbLine
 10
6466.88811655075
 20
5499.999999999999
 30
0.0
 11
6466.88811655075
 21
5439.999999999998
 31
0.0
  0
INSERT
  5
1E06D
330
1CDBF
100
AcDbEntity
  8
寸法
 62
     0
 48
50.0
370
    -2
100
AcDbBlockReference
  2
_DOTSMALL
 10
6466.88811655075
 20
5499.999999999999
 30
0.0
 41
100.0
 42
100.0
 43
100.0
 50
270.0
  0
INSERT
  5
1E06E
330
1CDBF
100
AcDbEntity
  8
寸法
 62
     0
 48
50.0
370
    -2
100
AcDbBlockReference
  2
_DOTSMALL
 10
6466.88811655075
 20
5439.999999999998
 30
0.0
 41
100.0
 42
100.0
 43
100.0
 50
90.0
  0
MTEXT
  5
1E06F
330
1CDBF
100
AcDbEntity
  8
寸法
 62
     7
 48
50.0
100
AcDbMText
 10
6366.888116550749
 20
5470.0
 30
0.0
 40
120.0
 41
0.0
 71
     5
 72
     1
  1
\A1;b
  7
STYLE1
 11
0.0000000000000001
 21
1.0
 31
0.0
 73
     1
 44
1.0
1001
ACAD
1000
MTEXTBEGIN
1070
    73
1070
     1
1070
    44
1040
1.0
1070
    74
1070
     0
1000
MTEXTEND
  0
POINT
  5
1E070
330
1CDBF
100
AcDbEntity
  8
DEFPOINTS
 62
     0
 48
50.0
100
AcDbPoint
 10
6907.600000000001
 20
5499.999999999999
 30
0.0
  0
POINT
  5
1E071
330
1CDBF
100
AcDbEntity
  8
DEFPOINTS
 62
     0
 48
50.0
100
AcDbPoint
 10
6857.600000000001
 20
5439.999999999998
 30
0.0
  0
POINT
  5
1E072
330
1CDBF
100
AcDbEntity
  8
DEFPOINTS
 62
     0
 48
50.0
100
AcDbPoint
 10
6466.88811655075
 20
5439.999999999998
 30
0.0
  0
ENDBLK
  5
1CDCC
330
1CDBF
100
AcDbEntity
  8
0
 48
50.0
100
AcDbBlockEnd
  0
BLOCK
  5
1CDD6
330
1CDCD
100
AcDbEntity
  8
0
 48
50.0
100
AcDbBlockBegin
  2
*D3
 70
     1
 10
0.0
 20
0.0
 30
0.0
  3
*D3
  1

  0
LINE
  5
1E05F
330
1CDCD
100
AcDbEntity
  8
寸法
 62
     0
 48
50.0
370
    -2
100
AcDbLine
 10
6887.6
 20
6871.999999999998
 30
0.0
 11
6406.88811655075
 21
6871.999999999998
 31
0.0
  0
LINE
  5
1E060
330
1CDCD
100
AcDbEntity
  8
寸法
 62
     0
 48
50.0
370
    -2
100
AcDbLine
 10
6887.6
 20
5499.999999999999
 30
0.0
 11
6406.88811655075
 21
5499.999999999999
 31
0.0
  0
LINE
  5
1E061
330
1CDCD
100
AcDbEntity
  8
寸法
 62
     0
 48
50.0
370
    -2
100
AcDbLine
 10
6466.888116550752
 20
6871.999999999998
 30
0.0
 11
6466.88811655075
 21
5499.999999999999
 31
0.0
  0
INSERT
  5
1E062
330
1CDCD
100
AcDbEntity
  8
寸法
 62
     0
 48
50.0
370
    -2
100
AcDbBlockReference
  2
_DOTSMALL
 10
6466.888116550752
 20
6871.999999999998
 30
0.0
 41
100.0
 42
100.0
 43
100.0
 50
90.0
  0
INSERT
  5
1E063
330
1CDCD
100
AcDbEntity
  8
寸法
 62
     0
 48
50.0
370
    -2
100
AcDbBlockReference
  2
_DOTSMALL
 10
6466.88811655075
 20
5499.999999999999
 30
0.0
 41
100.0
 42
100.0
 43
100.0
 50
270.0
  0
MTEXT
  5
1E064
330
1CDCD
100
AcDbEntity
  8
寸法
 62
     7
 48
50.0
100
AcDbMText
 10
6366.876305527128
 20
6186.0
 30
0.0
 40
120.0
 41
0.0
 71
     5
 72
     1
  1
\A1;1372
  7
STYLE1
 11
0.0000000000000001
 21
1.0
 31
0.0
 73
     1
 44
1.0
1001
ACAD
1000
MTEXTBEGIN
1070
    73
1070
     1
1070
    44
1040
1.0
1070
    74
1070
     0
1000
MTEXTEND
  0
POINT
  5
1E065
330
1CDCD
100
AcDbEntity
  8
DEFPOINTS
 62
     0
 48
50.0
100
AcDbPoint
 10
6907.600000000001
 20
6871.999999999998
 30
0.0
  0
POINT
  5
1E066
330
1CDCD
100
AcDbEntity
  8
DEFPOINTS
 62
     0
 48
50.0
100
AcDbPoint
 10
6907.600000000001
 20
5499.999999999999
 30
0.0
  0
POINT
  5
1E067
330
1CDCD
100
AcDbEntity
  8
DEFPOINTS
 62
     0
 48
50.0
100
AcDbPoint
 10
6466.88811655075
 20
5499.999999999999
 30
0.0
  0
ENDBLK
  5
1CDD7
330
1CDCD
100
AcDbEntity
  8
0
 48
50.0
100
AcDbBlockEnd
  0
BLOCK
  5
1CDE4
330
1CDD8
100
AcDbEntity
  8
0
 48
50.0
100
AcDbBlockBegin
  2
*D4
 70
     1
 10
0.0
 20
0.0
 30
0.0
  3
*D4
  1

  0
LINE
  5
1E056
330
1CDD8
100
AcDbEntity
  8
寸法
 62
     0
 48
50.0
370
    -2
100
AcDbLine
 10
6837.600000000001
 20
6951.999999999998
 30
0.0
 11
6406.88811655075
 21
6951.999999999998
 31
0.0
  0
LINE
  5
1E057
330
1CDD8
100
AcDbEntity
  8
寸法
 62
     0
 48
50.0
370
    -2
100
AcDbLine
 10
6887.6
 20
6871.999999999998
 30
0.0
 11
6406.88811655075
 21
6871.999999999998
 31
0.0
  0
LINE
  5
1E058
330
1CDD8
100
AcDbEntity
  8
寸法
 62
     0
 48
50.0
370
    -2
100
AcDbLine
 10
6466.888116550752
 20
6951.999999999998
 30
0.0
 11
6466.888116550752
 21
6871.999999999998
 31
0.0
  0
INSERT
  5
1E059
330
1CDD8
100
AcDbEntity
  8
寸法
 62
     0
 48
50.0
370
    -2
100
AcDbBlockReference
  2
_DOTSMALL
 10
6466.888116550752
 20
6951.999999999998
 30
0.0
 41
100.0
 42
100.0
 43
100.0
 50
90.0
  0
INSERT
  5
1E05A
330
1CDD8
100
AcDbEntity
  8
寸法
 62
     0
 48
50.0
370
    -2
100
AcDbBlockReference
  2
_DOTSMALL
 10
6466.888116550752
 20
6871.999999999998
 30
0.0
 41
100.0
 42
100.0
 43
100.0
 50
270.0
  0
MTEXT
  5
1E05B
330
1CDD8
100
AcDbEntity
  8
寸法
 62
     7
 48
50.0
100
AcDbMText
 10
6366.888116550749
 20
6912.0
 30
0.0
 40
120.0
 41
0.0
 71
     5
 72
     1
  1
\A1;c
  7
STYLE1
 11
0.0000000000000001
 21
1.0
 31
0.0
 73
     1
 44
1.0
1001
ACAD
1000
MTEXTBEGIN
1070
    73
1070
     1
1070
    44
1040
1.0
1070
    74
1070
     0
1000
MTEXTEND
  0
POINT
  5
1E05C
330
1CDD8
100
AcDbEntity
  8
DEFPOINTS
 62
     0
 48
50.0
100
AcDbPoint
 10
6857.600000000001
 20
6951.999999999998
 30
0.0
  0
POINT
  5
1E05D
330
1CDD8
100
AcDbEntity
  8
DEFPOINTS
 62
     0
 48
50.0
100
AcDbPoint
 10
6907.600000000001
 20
6871.999999999998
 30
0.0
  0
POINT
  5
1E05E
330
1CDD8
100
AcDbEntity
  8
DEFPOINTS
 62
     0
 48
50.0
100
AcDbPoint
 10
6466.888116550752
 20
6871.999999999998
 30
0.0
  0
ENDBLK
  5
1CDE5
330
1CDD8
100
AcDbEntity
  8
0
 48
50.0
100
AcDbBlockEnd
  0
BLOCK
  5
1E08E
330
1E084
100
AcDbEntity
  8
0
 48
50.0
100
AcDbBlockBegin
  2
*D5
 70
     1
 10
0.0
 20
0.0
 30
0.0
  3
*D5
  1

  0
LINE
  5
1F5B8
330
1E084
100
AcDbEntity
  8
寸法
 62
     0
 48
50.0
370
    -2
100
AcDbLine
 10
8638.600000000002
 20
6892.000000000004
 30
0.0
 11
8638.600000000002
 21
7440.624237135962
 31
0.0
  0
LINE
  5
1F5B9
330
1E084
100
AcDbEntity
  8
寸法
 62
     0
 48
50.0
370
    -2
100
AcDbLine
 10
9539.6
 20
6892.0
 30
0.0
 11
9539.6
 21
7440.624237135962
 31
0.0
  0
LINE
  5
1F5BA
330
1E084
100
AcDbEntity
  8
寸法
 62
     0
 48
50.0
370
    -2
100
AcDbLine
 10
8638.600000000002
 20
7380.624237135963
 30
0.0
 11
9539.6
 21
7380.624237135963
 31
0.0
  0
INSERT
  5
1F5BB
330
1E084
100
AcDbEntity
  8
寸法
 62
     0
 48
50.0
370
    -2
100
AcDbBlockReference
  2
_DOTSMALL
 10
8638.600000000002
 20
7380.624237135963
 30
0.0
 41
100.0
 42
100.0
 43
100.0
 50
180.0
  0
INSERT
  5
1F5BC
330
1E084
100
AcDbEntity
  8
寸法
 62
     0
 48
50.0
370
    -2
100
AcDbBlockReference
  2
_DOTSMALL
 10
9539.6
 20
7380.624237135963
 30
0.0
 41
100.0
 42
100.0
 43
100.0
  0
MTEXT
  5
1F5BD
330
1E084
100
AcDbEntity
  8
寸法
 62
     7
 48
50.0
100
AcDbMText
 10
9089.100000000001
 20
7480.624237135963
 30
0.0
 40
120.0
 41
0.0
 71
     5
 72
     1
  1
\A1;901
  7
STYLE1
 73
     1
 44
1.0
1001
ACAD
1000
MTEXTBEGIN
1070
    73
1070
     1
1070
    44
1040
1.0
1070
    74
1070
     0
1000
MTEXTEND
  0
POINT
  5
1F5BE
330
1E084
100
AcDbEntity
  8
DEFPOINTS
 62
     0
 48
50.0
100
AcDbPoint
 10
8638.600000000002
 20
6872.000000000004
 30
0.0
  0
POINT
  5
1F5BF
330
1E084
100
AcDbEntity
  8
DEFPOINTS
 62
     0
 48
50.0
100
AcDbPoint
 10
9539.6
 20
6872.0
 30
0.0
  0
POINT
  5
1F5C0
330
1E084
100
AcDbEntity
  8
DEFPOINTS
 62
     0
 48
50.0
100
AcDbPoint
 10
9539.6
 20
7380.624237135963
 30
0.0
  0
ENDBLK
  5
1E08F
330
1E084
100
AcDbEntity
  8
0
 48
50.0
100
AcDbBlockEnd
  0
BLOCK
  5
1E09A
330
1E090
100
AcDbEntity
  8
0
 48
50.0
100
AcDbBlockBegin
  2
*D6
 70
     1
 10
0.0
 20
0.0
 30
0.0
  3
*D6
  1

  0
LINE
  5
1F5A6
330
1E090
100
AcDbEntity
  8
寸法
 62
     0
 48
50.0
370
    -2
100
AcDbLine
 10
7808.600000000002
 20
6892.000000000002
 30
0.0
 11
7808.600000000002
 21
7440.624237135962
 31
0.0
  0
LINE
  5
1F5A7
330
1E090
100
AcDbEntity
  8
寸法
 62
     0
 48
50.0
370
    -2
100
AcDbLine
 10
6907.600000000001
 20
6892.0
 30
0.0
 11
6907.600000000001
 21
7440.624237135962
 31
0.0
  0
LINE
  5
1F5A8
330
1E090
100
AcDbEntity
  8
寸法
 62
     0
 48
50.0
370
    -2
100
AcDbLine
 10
7808.600000000002
 20
7380.624237135963
 30
0.0
 11
6907.600000000001
 21
7380.624237135963
 31
0.0
  0
INSERT
  5
1F5A9
330
1E090
100
AcDbEntity
  8
寸法
 62
     0
 48
50.0
370
    -2
100
AcDbBlockReference
  2
_DOTSMALL
 10
7808.600000000002
 20
7380.624237135963
 30
0.0
 41
100.0
 42
100.0
 43
100.0
  0
INSERT
  5
1F5AA
330
1E090
100
AcDbEntity
  8
寸法
 62
     0
 48
50.0
370
    -2
100
AcDbBlockReference
  2
_DOTSMALL
 10
6907.600000000001
 20
7380.624237135963
 30
0.0
 41
100.0
 42
100.0
 43
100.0
 50
180.0
  0
MTEXT
  5
1F5AB
330
1E090
100
AcDbEntity
  8
寸法
 62
     7
 48
50.0
100
AcDbMText
 10
7358.100000000002
 20
7480.624237135963
 30
0.0
 40
120.0
 41
0.0
 71
     5
 72
     1
  1
\A1;901
  7
STYLE1
 73
     1
 44
1.0
1001
ACAD
1000
MTEXTBEGIN
1070
    73
1070
     1
1070
    44
1040
1.0
1070
    74
1070
     0
1000
MTEXTEND
  0
POINT
  5
1F5AC
330
1E090
100
AcDbEntity
  8
DEFPOINTS
 62
     0
 48
50.0
100
AcDbPoint
 10
7808.600000000002
 20
6872.000000000001
 30
0.0
  0
POINT
  5
1F5AD
330
1E090
100
AcDbEntity
  8
DEFPOINTS
 62
     0
 48
50.0
100
AcDbPoint
 10
6907.600000000001
 20
6872.0
 30
0.0
  0
POINT
  5
1F5AE
330
1E090
100
AcDbEntity
  8
DEFPOINTS
 62
     0
 48
50.0
100
AcDbPoint
 10
6907.600000000001
 20
7380.624237135963
 30
0.0
  0
ENDBLK
  5
1E09B
330
1E090
100
AcDbEntity
  8
0
 48
50.0
100
AcDbBlockEnd
  0
BLOCK
  5
1E0A6
330
1E09C
100
AcDbEntity
  8
0
 48
50.0
100
AcDbBlockBegin
  2
*D7
 70
     1
 10
0.0
 20
0.0
 30
0.0
  3
*D7
  1

  0
LINE
  5
1F5C1
330
1E09C
100
AcDbEntity
  8
寸法
 62
     0
 48
50.0
370
    -2
100
AcDbLine
 10
7808.600000000002
 20
6892.000000000002
 30
0.0
 11
7808.600000000002
 21
7440.624237135962
 31
0.0
  0
LINE
  5
1F5C2
330
1E09C
100
AcDbEntity
  8
寸法
 62
     0
 48
50.0
370
    -2
100
AcDbLine
 10
8638.600000000002
 20
6892.000000000004
 30
0.0
 11
8638.600000000002
 21
7440.624237135962
 31
0.0
  0
LINE
  5
1F5C3
330
1E09C
100
AcDbEntity
  8
寸法
 62
     0
 48
50.0
370
    -2
100
AcDbLine
 10
7808.600000000002
 20
7380.624237135963
 30
0.0
 11
8638.600000000002
 21
7380.624237135963
 31
0.0
  0
INSERT
  5
1F5C4
330
1E09C
100
AcDbEntity
  8
寸法
 62
     0
 48
50.0
370
    -2
100
AcDbBlockReference
  2
_DOTSMALL
 10
7808.600000000002
 20
7380.624237135963
 30
0.0
 41
100.0
 42
100.0
 43
100.0
 50
180.0
  0
INSERT
  5
1F5C5
330
1E09C
100
AcDbEntity
  8
寸法
 62
     0
 48
50.0
370
    -2
100
AcDbBlockReference
  2
_DOTSMALL
 10
8638.600000000002
 20
7380.624237135963
 30
0.0
 41
100.0
 42
100.0
 43
100.0
  0
MTEXT
  5
1F5C6
330
1E09C
100
AcDbEntity
  8
寸法
 62
     7
 48
50.0
100
AcDbMText
 10
8223.600000000002
 20
7480.624237135963
 30
0.0
 40
120.0
 41
0.0
 71
     5
 72
     1
  1
\A1;830
  7
STYLE1
 73
     1
 44
1.0
1001
ACAD
1000
MTEXTBEGIN
1070
    73
1070
     1
1070
    44
1040
1.0
1070
    74
1070
     0
1000
MTEXTEND
  0
POINT
  5
1F5C7
330
1E09C
100
AcDbEntity
  8
DEFPOINTS
 62
     0
 48
50.0
100
AcDbPoint
 10
7808.600000000002
 20
6872.000000000001
 30
0.0
  0
POINT
  5
1F5C8
330
1E09C
100
AcDbEntity
  8
DEFPOINTS
 62
     0
 48
50.0
100
AcDbPoint
 10
8638.600000000002
 20
6872.000000000004
 30
0.0
  0
POINT
  5
1F5C9
330
1E09C
100
AcDbEntity
  8
DEFPOINTS
 62
     0
 48
50.0
100
AcDbPoint
 10
8638.600000000002
 20
7380.624237135963
 30
0.0
  0
ENDBLK
  5
1E0A7
330
1E09C
100
AcDbEntity
  8
0
 48
50.0
100
AcDbBlockEnd
  0
BLOCK
  5
1E0B4
330
1E0A8
100
AcDbEntity
  8
0
 48
50.0
100
AcDbBlockBegin
  2
*D8
 70
     1
 10
0.0
 20
0.0
 30
0.0
  3
*D8
  1

  0
LINE
  5
1F577
330
1E0A8
100
AcDbEntity
  8
寸法
 62
     0
 48
50.0
370
    -2
100
AcDbLine
 10
9539.6
 20
6892.0
 30
0.0
 11
9539.6
 21
7698.551625802021
 31
0.0
  0
LINE
  5
1F578
330
1E0A8
100
AcDbEntity
  8
寸法
 62
     0
 48
50.0
370
    -2
100
AcDbLine
 10
9589.6
 20
6972.000000000004
 30
0.0
 11
9589.6
 21
7698.551625802021
 31
0.0
  0
LINE
  5
1F579
330
1E0A8
100
AcDbEntity
  8
寸法
 62
     0
 48
50.0
370
    -2
100
AcDbLine
 10
9539.6
 20
7638.551625802022
 30
0.0
 11
9439.6
 21
7638.551625802022
 31
0.0
  0
LINE
  5
1F57A
330
1E0A8
100
AcDbEntity
  8
寸法
 62
     0
 48
50.0
370
    -2
100
AcDbLine
 10
9589.6
 20
7638.551625802022
 30
0.0
 11
9689.6
 21
7638.551625802022
 31
0.0
  0
LINE
  5
1F57B
330
1E0A8
100
AcDbEntity
  8
寸法
 62
     0
 48
50.0
370
    -2
100
AcDbLine
 10
9539.6
 20
7638.551625802022
 30
0.0
 11
9589.6
 21
7638.551625802022
 31
0.0
  0
INSERT
  5
1F57C
330
1E0A8
100
AcDbEntity
  8
寸法
 62
     0
 48
50.0
370
    -2
100
AcDbBlockReference
  2
_DOTSMALL
 10
9539.6
 20
7638.551625802022
 30
0.0
 41
100.0
 42
100.0
 43
100.0
  0
INSERT
  5
1F57D
330
1E0A8
100
AcDbEntity
  8
寸法
 62
     0
 48
50.0
370
    -2
100
AcDbBlockReference
  2
_DOTSMALL
 10
9589.6
 20
7638.551625802022
 30
0.0
 41
100.0
 42
100.0
 43
100.0
 50
180.0
  0
MTEXT
  5
1F57E
330
1E0A8
100
AcDbEntity
  8
寸法
 62
     7
 48
50.0
100
AcDbMText
 10
9564.6
 20
7738.551625802021
 30
0.0
 40
120.0
 41
0.0
 71
     5
 72
     1
  1
\A1;a
  7
STYLE1
 73
     1
 44
1.0
1001
ACAD
1000
MTEXTBEGIN
1070
    73
1070
     1
1070
    44
1040
1.0
1070
    74
1070
     0
1000
MTEXTEND
  0
POINT
  5
1F57F
330
1E0A8
100
AcDbEntity
  8
DEFPOINTS
 62
     0
 48
50.0
100
AcDbPoint
 10
9539.6
 20
6872.0
 30
0.0
  0
POINT
  5
1F580
330
1E0A8
100
AcDbEntity
  8
DEFPOINTS
 62
     0
 48
50.0
100
AcDbPoint
 10
9589.6
 20
6952.000000000004
 30
0.0
  0
POINT
  5
1F581
330
1E0A8
100
AcDbEntity
  8
DEFPOINTS
 62
     0
 48
50.0
100
AcDbPoint
 10
9589.6
 20
7638.551625802022
 30
0.0
  0
ENDBLK
  5
1E0B5
330
1E0A8
100
AcDbEntity
  8
0
 48
50.0
100
AcDbBlockEnd
  0
BLOCK
  5
1E0C2
330
1E0B6
100
AcDbEntity
  8
0
 48
50.0
100
AcDbBlockBegin
  2
*D9
 70
     1
 10
0.0
 20
0.0
 30
0.0
  3
*D9
  1

  0
LINE
  5
1E0F6
330
1E0B6
100
AcDbEntity
  8
寸法
 62
     0
 48
50.0
370
    -2
100
AcDbLine
 10
6857.600000000001
 20
6972.0
 30
0.0
 11
6857.600000000001
 21
7698.551625802021
 31
0.0
  0
LINE
  5
1E0F7
330
1E0B6
100
AcDbEntity
  8
寸法
 62
     0
 48
50.0
370
    -2
100
AcDbLine
 10
6907.600000000001
 20
6892.0
 30
0.0
 11
6907.600000000001
 21
7698.551625802021
 31
0.0
  0
LINE
  5
1E0F8
330
1E0B6
100
AcDbEntity
  8
寸法
 62
     0
 48
50.0
370
    -2
100
AcDbLine
 10
6857.600000000001
 20
7638.551625802022
 30
0.0
 11
6757.6
 21
7638.551625802022
 31
0.0
  0
LINE
  5
1E0F9
330
1E0B6
100
AcDbEntity
  8
寸法
 62
     0
 48
50.0
370
    -2
100
AcDbLine
 10
6907.600000000001
 20
7638.551625802022
 30
0.0
 11
7007.6
 21
7638.551625802022
 31
0.0
  0
LINE
  5
1E0FA
330
1E0B6
100
AcDbEntity
  8
寸法
 62
     0
 48
50.0
370
    -2
100
AcDbLine
 10
6857.600000000001
 20
7638.551625802022
 30
0.0
 11
6907.600000000001
 21
7638.551625802022
 31
0.0
  0
INSERT
  5
1E0FB
330
1E0B6
100
AcDbEntity
  8
寸法
 62
     0
 48
50.0
370
    -2
100
AcDbBlockReference
  2
_DOTSMALL
 10
6857.600000000001
 20
7638.551625802022
 30
0.0
 41
100.0
 42
100.0
 43
100.0
  0
INSERT
  5
1E0FC
330
1E0B6
100
AcDbEntity
  8
寸法
 62
     0
 48
50.0
370
    -2
100
AcDbBlockReference
  2
_DOTSMALL
 10
6907.600000000001
 20
7638.551625802022
 30
0.0
 41
100.0
 42
100.0
 43
100.0
 50
180.0
  0
MTEXT
  5
1E0FD
330
1E0B6
100
AcDbEntity
  8
寸法
 62
     7
 48
50.0
100
AcDbMText
 10
6882.6
 20
7738.551625802021
 30
0.0
 40
120.0
 41
0.0
 71
     5
 72
     1
  1
\A1;a
  7
STYLE1
 73
     1
 44
1.0
1001
ACAD
1000
MTEXTBEGIN
1070
    73
1070
     1
1070
    44
1040
1.0
1070
    74
1070
     0
1000
MTEXTEND
  0
POINT
  5
1E0FE
330
1E0B6
100
AcDbEntity
  8
DEFPOINTS
 62
     0
 48
50.0
100
AcDbPoint
 10
6857.600000000001
 20
6952.0
 30
0.0
  0
POINT
  5
1E0FF
330
1E0B6
100
AcDbEntity
  8
DEFPOINTS
 62
     0
 48
50.0
100
AcDbPoint
 10
6907.600000000001
 20
6872.0
 30
0.0
  0
POINT
  5
1E100
330
1E0B6
100
AcDbEntity
  8
DEFPOINTS
 62
     0
 48
50.0
100
AcDbPoint
 10
6907.600000000001
 20
7638.551625802022
 30
0.0
  0
ENDBLK
  5
1E0C3
330
1E0B6
100
AcDbEntity
  8
0
 48
50.0
100
AcDbBlockEnd
  0
BLOCK
  5
1E0CE
330
1E0C4
100
AcDbEntity
  8
0
 48
50.0
100
AcDbBlockBegin
  2
*D10
 70
     1
 10
0.0
 20
0.0
 30
0.0
  3
*D10
  1

  0
LINE
  5
1F5CA
330
1E0C4
100
AcDbEntity
  8
寸法
 62
     0
 48
50.0
370
    -2
100
AcDbLine
 10
6907.600000000001
 20
6892.0
 30
0.0
 11
6907.600000000001
 21
7698.551625802021
 31
0.0
  0
LINE
  5
1F5CB
330
1E0C4
100
AcDbEntity
  8
寸法
 62
     0
 48
50.0
370
    -2
100
AcDbLine
 10
9539.6
 20
6892.0
 30
0.0
 11
9539.6
 21
7698.551625802021
 31
0.0
  0
LINE
  5
1F5CC
330
1E0C4
100
AcDbEntity
  8
寸法
 62
     0
 48
50.0
370
    -2
100
AcDbLine
 10
6907.600000000001
 20
7638.551625802022
 30
0.0
 11
9539.6
 21
7638.551625802022
 31
0.0
  0
INSERT
  5
1F5CD
330
1E0C4
100
AcDbEntity
  8
寸法
 62
     0
 48
50.0
370
    -2
100
AcDbBlockReference
  2
_DOTSMALL
 10
6907.600000000001
 20
7638.551625802022
 30
0.0
 41
100.0
 42
100.0
 43
100.0
 50
180.0
  0
INSERT
  5
1F5CE
330
1E0C4
100
AcDbEntity
  8
寸法
 62
     0
 48
50.0
370
    -2
100
AcDbBlockReference
  2
_DOTSMALL
 10
9539.6
 20
7638.551625802022
 30
0.0
 41
100.0
 42
100.0
 43
100.0
  0
MTEXT
  5
1F5CF
330
1E0C4
100
AcDbEntity
  8
寸法
 62
     7
 48
50.0
100
AcDbMText
 10
8223.600000000001
 20
7738.563436825643
 30
0.0
 40
120.0
 41
0.0
 71
     5
 72
     1
  1
\A1;2632
  7
STYLE1
 73
     1
 44
1.0
1001
ACAD
1000
MTEXTBEGIN
1070
    73
1070
     1
1070
    44
1040
1.0
1070
    74
1070
     0
1000
MTEXTEND
  0
POINT
  5
1F5D0
330
1E0C4
100
AcDbEntity
  8
DEFPOINTS
 62
     0
 48
50.0
100
AcDbPoint
 10
6907.600000000001
 20
6872.0
 30
0.0
  0
POINT
  5
1F5D1
330
1E0C4
100
AcDbEntity
  8
DEFPOINTS
 62
     0
 48
50.0
100
AcDbPoint
 10
9539.6
 20
6872.0
 30
0.0
  0
POINT
  5
1F5D2
330
1E0C4
100
AcDbEntity
  8
DEFPOINTS
 62
     0
 48
50.0
100
AcDbPoint
 10
9539.6
 20
7638.551625802022
 30
0.0
  0
ENDBLK
  5
1E0CF
330
1E0C4
100
AcDbEntity
  8
0
 48
50.0
100
AcDbBlockEnd
  0
BLOCK
  5
1EF3B
330
1EF31
100
AcDbEntity
  8
0
 48
50.0
100
AcDbBlockBegin
  2
*D11
 70
     1
 10
0.0
 20
0.0
 30
0.0
  3
*D11
  1

  0
LINE
  5
1F565
330
1EF31
100
AcDbEntity
  8
寸法
 62
     0
 48
50.0
370
    -2
100
AcDbLine
 10
9659.599999999999
 20
5599.999999999993
 30
0.0
 11
10217.84087348511
 21
5599.999999999993
 31
0.0
  0
LINE
  5
1F566
330
1EF31
100
AcDbEntity
  8
寸法
 62
     0
 48
50.0
370
    -2
100
AcDbLine
 10
9659.600000000001
 20
5399.999999999993
 30
0.0
 11
10217.84087348511
 21
5399.999999999993
 31
0.0
  0
LINE
  5
1F567
330
1EF31
100
AcDbEntity
  8
寸法
 62
     0
 48
50.0
370
    -2
100
AcDbLine
 10
10157.84087348511
 20
5599.999999999993
 30
0.0
 11
10157.84087348511
 21
5399.999999999993
 31
0.0
  0
INSERT
  5
1F568
330
1EF31
100
AcDbEntity
  8
寸法
 62
     0
 48
50.0
370
    -2
100
AcDbBlockReference
  2
_DOTSMALL
 10
10157.84087348511
 20
5599.999999999993
 30
0.0
 41
100.0
 42
100.0
 43
100.0
 50
90.0
  0
INSERT
  5
1F569
330
1EF31
100
AcDbEntity
  8
寸法
 62
     0
 48
50.0
370
    -2
100
AcDbBlockReference
  2
_DOTSMALL
 10
10157.84087348511
 20
5399.999999999993
 30
0.0
 41
100.0
 42
100.0
 43
100.0
 50
270.0
  0
MTEXT
  5
1F56A
330
1EF31
100
AcDbEntity
  8
寸法
 62
     7
 48
50.0
100
AcDbMText
 10
9951.82906246149
 20
5499.999999999993
 30
0.0
 40
120.0
 41
0.0
 71
     5
 72
     1
  1
\A1;200\P(250)
  7
STYLE1
 11
0.0000000000000001
 21
1.0
 31
0.0
 73
     1
 44
1.0
1001
ACAD
1000
MTEXTBEGIN
1070
    73
1070
     1
1070
    44
1040
1.0
1070
    74
1070
     0
1000
MTEXTEND
  0
POINT
  5
1F56B
330
1EF31
100
AcDbEntity
  8
DEFPOINTS
 62
     0
 48
50.0
100
AcDbPoint
 10
9639.599999999999
 20
5599.999999999993
 30
0.0
  0
POINT
  5
1F56C
330
1EF31
100
AcDbEntity
  8
DEFPOINTS
 62
     0
 48
50.0
100
AcDbPoint
 10
9639.600000000001
 20
5399.999999999993
 30
0.0
  0
POINT
  5
1F56D
330
1EF31
100
AcDbEntity
  8
DEFPOINTS
 62
     0
 48
50.0
100
AcDbPoint
 10
10157.84087348511
 20
5399.999999999993
 30
0.0
  0
ENDBLK
  5
1EF3C
330
1EF31
100
AcDbEntity
  8
0
 48
50.0
100
AcDbBlockEnd
  0
BLOCK
  5
1EF47
330
1EF3D
100
AcDbEntity
  8
0
 48
50.0
100
AcDbBlockBegin
  2
*D12
 70
     1
 10
0.0
 20
0.0
 30
0.0
  3
*D12
  1

  0
LINE
  5
1F55C
330
1EF3D
100
AcDbEntity
  8
寸法
 62
     0
 48
50.0
370
    -2
100
AcDbLine
 10
9639.600000000001
 20
5379.999999999992
 30
0.0
 11
9639.600000000001
 21
4866.168926156461
 31
0.0
  0
LINE
  5
1F55D
330
1EF3D
100
AcDbEntity
  8
寸法
 62
     0
 48
50.0
370
    -2
100
AcDbLine
 10
9439.6
 20
5379.999999999992
 30
0.0
 11
9439.6
 21
4866.168926156461
 31
0.0
  0
LINE
  5
1F55E
330
1EF3D
100
AcDbEntity
  8
寸法
 62
     0
 48
50.0
370
    -2
100
AcDbLine
 10
9639.600000000001
 20
4926.16892615646
 30
0.0
 11
9439.6
 21
4926.16892615646
 31
0.0
  0
INSERT
  5
1F55F
330
1EF3D
100
AcDbEntity
  8
寸法
 62
     0
 48
50.0
370
    -2
100
AcDbBlockReference
  2
_DOTSMALL
 10
9639.600000000001
 20
4926.16892615646
 30
0.0
 41
100.0
 42
100.0
 43
100.0
  0
INSERT
  5
1F560
330
1EF3D
100
AcDbEntity
  8
寸法
 62
     0
 48
50.0
370
    -2
100
AcDbBlockReference
  2
_DOTSMALL
 10
9439.6
 20
4926.16892615646
 30
0.0
 41
100.0
 42
100.0
 43
100.0
 50
180.0
  0
MTEXT
  5
1F561
330
1EF3D
100
AcDbEntity
  8
寸法
 62
     7
 48
50.0
100
AcDbMText
 10
9539.6
 20
5132.180737180082
 30
0.0
 40
120.0
 41
0.0
 71
     5
 72
     1
  1
\A1;200\P(250)
  7
STYLE1
 73
     1
 44
1.0
1001
ACAD
1000
MTEXTBEGIN
1070
    73
1070
     1
1070
    44
1040
1.0
1070
    74
1070
     0
1000
MTEXTEND
  0
POINT
  5
1F562
330
1EF3D
100
AcDbEntity
  8
DEFPOINTS
 62
     0
 48
50.0
100
AcDbPoint
 10
9639.600000000001
 20
5399.999999999993
 30
0.0
  0
POINT
  5
1F563
330
1EF3D
100
AcDbEntity
  8
DEFPOINTS
 62
     0
 48
50.0
100
AcDbPoint
 10
9439.6
 20
5399.999999999993
 30
0.0
  0
POINT
  5
1F564
330
1EF3D
100
AcDbEntity
  8
DEFPOINTS
 62
     0
 48
50.0
100
AcDbPoint
 10
9439.6
 20
4926.16892615646
 30
0.0
  0
ENDBLK
  5
1EF48
330
1EF3D
100
AcDbEntity
  8
0
 48
50.0
100
AcDbBlockEnd
  0
BLOCK
  5
1F44D
330
1F443
100
AcDbEntity
  8
0
 48
50.0
100
AcDbBlockBegin
  2
*D13
 70
     1
 10
0.0
 20
0.0
 30
0.0
  3
*D13
  1

  0
LINE
  5
1F54A
330
1F443
100
AcDbEntity
  8
寸法
 62
     0
 48
50.0
370
    -2
100
AcDbLine
 10
7026.307702263199
 20
1466.844112873077
 30
0.0
 11
7114.416031637215
 21
1466.844112873077
 31
0.0
  0
LINE
  5
1F54B
330
1F443
100
AcDbEntity
  8
寸法
 62
     0
 48
50.0
370
    -2
100
AcDbLine
 10
7086.307702263198
 20
966.8441128730774
 30
0.0
 11
6994.416031637214
 21
966.8441128730774
 31
0.0
  0
LINE
  5
1F54C
330
1F443
100
AcDbEntity
  8
寸法
 62
     0
 48
50.0
370
    -2
100
AcDbLine
 10
7054.416031637214
 20
1466.844112873077
 30
0.0
 11
7054.416031637214
 21
966.8441128730774
 31
0.0
  0
INSERT
  5
1F54D
330
1F443
100
AcDbEntity
  8
寸法
 62
     0
 48
50.0
370
    -2
100
AcDbBlockReference
  2
_DOTSMALL
 10
7054.416031637214
 20
1466.844112873077
 30
0.0
 41
100.0
 42
100.0
 43
100.0
 50
90.0
  0
INSERT
  5
1F54E
330
1F443
100
AcDbEntity
  8
寸法
 62
     0
 48
50.0
370
    -2
100
AcDbBlockReference
  2
_DOTSMALL
 10
7054.416031637214
 20
966.8441128730774
 30
0.0
 41
100.0
 42
100.0
 43
100.0
 50
270.0
  0
MTEXT
  5
1F54F
330
1F443
100
AcDbEntity
  8
寸法
 62
     7
 48
50.0
100
AcDbMText
 10
6848.404220613592
 20
1214.504488251543
 30
0.0
 40
120.0
 41
0.0
 71
     5
 72
     1
  1
\A1;200\P(250)
  7
STYLE1
 11
0.0000000000000001
 21
1.0
 31
0.0
 73
     1
 44
1.0
1001
ACAD
1000
MTEXTBEGIN
1070
    73
1070
     1
1070
    44
1040
1.0
1070
    74
1070
     0
1000
MTEXTEND
  0
POINT
  5
1F550
330
1F443
100
AcDbEntity
  8
DEFPOINTS
 62
     0
 48
50.0
100
AcDbPoint
 10
7006.307702263199
 20
1466.844112873077
 30
0.0
  0
POINT
  5
1F551
330
1F443
100
AcDbEntity
  8
DEFPOINTS
 62
     0
 48
50.0
100
AcDbPoint
 10
7106.307702263198
 20
966.8441128730774
 30
0.0
  0
POINT
  5
1F552
330
1F443
100
AcDbEntity
  8
DEFPOINTS
 62
     0
 48
50.0
100
AcDbPoint
 10
7054.416031637214
 20
966.8441128730774
 30
0.0
  0
ENDBLK
  5
1F44E
330
1F443
100
AcDbEntity
  8
0
 48
50.0
100
AcDbBlockEnd
  0
BLOCK
  5
1F459
330
1F44F
100
AcDbEntity
  8
0
 48
50.0
100
AcDbBlockBegin
  2
*D14
 70
     1
 10
0.0
 20
0.0
 30
0.0
  3
*D14
  1

  0
LINE
  5
1F541
330
1F44F
100
AcDbEntity
  8
寸法
 62
     0
 48
50.0
370
    -2
100
AcDbLine
 10
9039.91396638181
 20
1666.844112873079
 30
0.0
 11
9302.127213844709
 21
1666.844112873079
 31
0.0
  0
LINE
  5
1F542
330
1F44F
100
AcDbEntity
  8
寸法
 62
     0
 48
50.0
370
    -2
100
AcDbLine
 10
9059.363203276298
 20
1466.844112873077
 30
0.0
 11
9302.127213844709
 21
1466.844112873077
 31
0.0
  0
LINE
  5
1F543
330
1F44F
100
AcDbEntity
  8
寸法
 62
     0
 48
50.0
370
    -2
100
AcDbLine
 10
9242.127213844709
 20
1666.844112873079
 30
0.0
 11
9242.127213844709
 21
1466.844112873077
 31
0.0
  0
INSERT
  5
1F544
330
1F44F
100
AcDbEntity
  8
寸法
 62
     0
 48
50.0
370
    -2
100
AcDbBlockReference
  2
_DOTSMALL
 10
9242.127213844709
 20
1666.844112873079
 30
0.0
 41
100.0
 42
100.0
 43
100.0
 50
90.0
  0
INSERT
  5
1F545
330
1F44F
100
AcDbEntity
  8
寸法
 62
     0
 48
50.0
370
    -2
100
AcDbBlockReference
  2
_DOTSMALL
 10
9242.127213844709
 20
1466.844112873077
 30
0.0
 41
100.0
 42
100.0
 43
100.0
 50
270.0
  0
MTEXT
  5
1F546
330
1F44F
100
AcDbEntity
  8
寸法
 62
     7
 48
50.0
100
AcDbMText
 10
9142.127213844709
 20
1566.84411287308
 30
0.0
 40
120.0
 41
0.0
 71
     5
 72
     1
  1
\A1;b
  7
STYLE1
 11
0.0000000000000001
 21
1.0
 31
0.0
 73
     1
 44
1.0
1001
ACAD
1000
MTEXTBEGIN
1070
    73
1070
     1
1070
    44
1040
1.0
1070
    74
1070
     0
1000
MTEXTEND
  0
POINT
  5
1F547
330
1F44F
100
AcDbEntity
  8
DEFPOINTS
 62
     0
 48
50.0
100
AcDbPoint
 10
9019.91396638181
 20
1666.844112873079
 30
0.0
  0
POINT
  5
1F548
330
1F44F
100
AcDbEntity
  8
DEFPOINTS
 62
     0
 48
50.0
100
AcDbPoint
 10
9039.363203276298
 20
1466.844112873077
 30
0.0
  0
POINT
  5
1F549
330
1F44F
100
AcDbEntity
  8
DEFPOINTS
 62
     0
 48
50.0
100
AcDbPoint
 10
9242.127213844709
 20
1466.844112873077
 30
0.0
  0
ENDBLK
  5
1F45A
330
1F44F
100
AcDbEntity
  8
0
 48
50.0
100
AcDbBlockEnd
  0
BLOCK
  5
1F465
330
1F45B
100
AcDbEntity
  8
0
 48
50.0
100
AcDbBlockBegin
  2
*D15
 70
     1
 10
0.0
 20
0.0
 30
0.0
  3
*D15
  1

  0
LINE
  5
1F538
330
1F45B
100
AcDbEntity
  8
寸法
 62
     0
 48
50.0
370
    -2
100
AcDbLine
 10
10539.80689989894
 20
1766.844112873077
 30
0.0
 11
10782.44245361606
 21
1766.844112873077
 31
0.0
  0
LINE
  5
1F539
330
1F45B
100
AcDbEntity
  8
寸法
 62
     0
 48
50.0
370
    -2
100
AcDbLine
 10
10569.69580798928
 20
1466.844112873077
 30
0.0
 11
10782.44245361606
 21
1466.844112873077
 31
0.0
  0
LINE
  5
1F53A
330
1F45B
100
AcDbEntity
  8
寸法
 62
     0
 48
50.0
370
    -2
100
AcDbLine
 10
10722.44245361606
 20
1766.844112873077
 30
0.0
 11
10722.44245361606
 21
1466.844112873077
 31
0.0
  0
INSERT
  5
1F53B
330
1F45B
100
AcDbEntity
  8
寸法
 62
     0
 48
50.0
370
    -2
100
AcDbBlockReference
  2
_DOTSMALL
 10
10722.44245361606
 20
1766.844112873077
 30
0.0
 41
100.0
 42
100.0
 43
100.0
 50
90.0
  0
INSERT
  5
1F53C
330
1F45B
100
AcDbEntity
  8
寸法
 62
     0
 48
50.0
370
    -2
100
AcDbBlockReference
  2
_DOTSMALL
 10
10722.44245361606
 20
1466.844112873077
 30
0.0
 41
100.0
 42
100.0
 43
100.0
 50
270.0
  0
MTEXT
  5
1F53D
330
1F45B
100
AcDbEntity
  8
寸法
 62
     7
 48
50.0
100
AcDbMText
 10
10622.44245361606
 20
1616.844112873079
 30
0.0
 40
120.0
 41
0.0
 71
     5
 72
     1
  1
\A1;c
  7
STYLE1
 11
0.0000000000000001
 21
1.0
 31
0.0
 73
     1
 44
1.0
1001
ACAD
1000
MTEXTBEGIN
1070
    73
1070
     1
1070
    44
1040
1.0
1070
    74
1070
     0
1000
MTEXTEND
  0
POINT
  5
1F53E
330
1F45B
100
AcDbEntity
  8
DEFPOINTS
 62
     0
 48
50.0
100
AcDbPoint
 10
10519.80689989894
 20
1766.844112873077
 30
0.0
  0
POINT
  5
1F53F
330
1F45B
100
AcDbEntity
  8
DEFPOINTS
 62
     0
 48
50.0
100
AcDbPoint
 10
10549.69580798928
 20
1466.844112873077
 30
0.0
  0
POINT
  5
1F540
330
1F45B
100
AcDbEntity
  8
DEFPOINTS
 62
     0
 48
50.0
100
AcDbPoint
 10
10722.44245361606
 20
1466.844112873077
 30
0.0
  0
ENDBLK
  5
1F466
330
1F45B
100
AcDbEntity
  8
0
 48
50.0
100
AcDbBlockEnd
  0
BLOCK
  5
1F471
330
1F467
100
AcDbEntity
  8
0
 48
50.0
100
AcDbBlockBegin
  2
*D16
 70
     1
 10
0.0
 20
0.0
 30
0.0
  3
*D16
  1

  0
LINE
  5
1F52F
330
1F467
100
AcDbEntity
  8
寸法
 62
     0
 48
50.0
370
    -2
100
AcDbLine
 10
7426.307702263203
 20
1666.844112873078
 30
0.0
 11
7714.378706623596
 21
1666.844112873078
 31
0.0
  0
LINE
  5
1F530
330
1F467
100
AcDbEntity
  8
寸法
 62
     0
 48
50.0
370
    -2
100
AcDbLine
 10
7426.307702263203
 20
1466.844112873077
 30
0.0
 11
7714.378706623596
 21
1466.844112873077
 31
0.0
  0
LINE
  5
1F531
330
1F467
100
AcDbEntity
  8
寸法
 62
     0
 48
50.0
370
    -2
100
AcDbLine
 10
7654.378706623596
 20
1666.844112873078
 30
0.0
 11
7654.378706623596
 21
1466.844112873077
 31
0.0
  0
INSERT
  5
1F532
330
1F467
100
AcDbEntity
  8
寸法
 62
     0
 48
50.0
370
    -2
100
AcDbBlockReference
  2
_DOTSMALL
 10
7654.378706623596
 20
1666.844112873078
 30
0.0
 41
100.0
 42
100.0
 43
100.0
 50
90.0
  0
INSERT
  5
1F533
330
1F467
100
AcDbEntity
  8
寸法
 62
     0
 48
50.0
370
    -2
100
AcDbBlockReference
  2
_DOTSMALL
 10
7654.378706623596
 20
1466.844112873077
 30
0.0
 41
100.0
 42
100.0
 43
100.0
 50
270.0
  0
MTEXT
  5
1F534
330
1F467
100
AcDbEntity
  8
寸法
 62
     7
 48
50.0
100
AcDbMText
 10
7554.378706623596
 20
1566.844112873079
 30
0.0
 40
120.0
 41
0.0
 71
     5
 72
     1
  1
\A1;a
  7
STYLE1
 11
0.0000000000000001
 21
1.0
 31
0.0
 73
     1
 44
1.0
1001
ACAD
1000
MTEXTBEGIN
1070
    73
1070
     1
1070
    44
1040
1.0
1070
    74
1070
     0
1000
MTEXTEND
  0
POINT
  5
1F535
330
1F467
100
AcDbEntity
  8
DEFPOINTS
 62
     0
 48
50.0
100
AcDbPoint
 10
7406.307702263203
 20
1666.844112873078
 30
0.0
  0
POINT
  5
1F536
330
1F467
100
AcDbEntity
  8
DEFPOINTS
 62
     0
 48
50.0
100
AcDbPoint
 10
7406.307702263203
 20
1466.844112873077
 30
0.0
  0
POINT
  5
1F537
330
1F467
100
AcDbEntity
  8
DEFPOINTS
 62
     0
 48
50.0
100
AcDbPoint
 10
7654.378706623596
 20
1466.844112873077
 30
0.0
  0
ENDBLK
  5
1F472
330
1F467
100
AcDbEntity
  8
0
 48
50.0
100
AcDbBlockEnd
  0
BLOCK
  5
1F699
330
1F698
100
AcDbEntity
  8
0
 48
50.0
100
AcDbBlockBegin
  2
*D17
 70
     1
 10
0.0
 20
0.0
 30
0.0
  3
*D17
  1

  0
LINE
  5
1F69A
330
1F698
100
AcDbEntity
  8
寸法
 62
     0
 48
50.0
370
    -2
100
AcDbLine
 10
7026.3077022632
 20
1459.959230296372
 30
0.0
 11
7114.416031637215
 21
1459.959230296372
 31
0.0
  0
LINE
  5
1F69B
330
1F698
100
AcDbEntity
  8
寸法
 62
     0
 48
50.0
370
    -2
100
AcDbLine
 10
7086.307702263201
 20
959.9592302963719
 30
0.0
 11
6994.416031637216
 21
959.9592302963719
 31
0.0
  0
LINE
  5
1F69C
330
1F698
100
AcDbEntity
  8
寸法
 62
     0
 48
50.0
370
    -2
100
AcDbLine
 10
7054.416031637216
 20
1459.959230296372
 30
0.0
 11
7054.416031637216
 21
959.9592302963719
 31
0.0
  0
INSERT
  5
1F69D
330
1F698
100
AcDbEntity
  8
寸法
 62
     0
 48
50.0
370
    -2
100
AcDbBlockReference
  2
_DOTSMALL
 10
7054.416031637216
 20
1459.959230296372
 30
0.0
 41
100.0
 42
100.0
 43
100.0
 50
90.0
  0
INSERT
  5
1F69E
330
1F698
100
AcDbEntity
  8
寸法
 62
     0
 48
50.0
370
    -2
100
AcDbBlockReference
  2
_DOTSMALL
 10
7054.416031637216
 20
959.9592302963719
 30
0.0
 41
100.0
 42
100.0
 43
100.0
 50
270.0
  0
MTEXT
  5
1F69F
330
1F698
100
AcDbEntity
  8
寸法
 62
     7
 48
50.0
100
AcDbMText
 10
6848.404220613594
 20
1207.619605674837
 30
0.0
 40
120.0
 41
0.0
 71
     5
 72
     1
  1
\A1;200\P(250)
  7
STYLE1
 11
0.0000000000000001
 21
1.0
 31
0.0
 73
     1
 44
1.0
1001
ACAD
1000
MTEXTBEGIN
1070
    73
1070
     1
1070
    44
1040
1.0
1070
    74
1070
     0
1000
MTEXTEND
  0
POINT
  5
1F6A0
330
1F698
100
AcDbEntity
  8
DEFPOINTS
 62
     0
 48
50.0
100
AcDbPoint
 10
7006.3077022632
 20
1459.959230296372
 30
0.0
  0
POINT
  5
1F6A1
330
1F698
100
AcDbEntity
  8
DEFPOINTS
 62
     0
 48
50.0
100
AcDbPoint
 10
7106.3077022632
 20
959.9592302963719
 30
0.0
  0
POINT
  5
1F6A2
330
1F698
100
AcDbEntity
  8
DEFPOINTS
 62
     0
 48
50.0
100
AcDbPoint
 10
7054.416031637216
 20
959.9592302963719
 30
0.0
  0
ENDBLK
  5
1F6A3
330
1F698
100
AcDbEntity
  8
0
 48
50.0
100
AcDbBlockEnd
  0
BLOCK
  5
1F6A5
330
1F6A4
100
AcDbEntity
  8
0
 48
50.0
100
AcDbBlockBegin
  2
*D18
 70
     1
 10
0.0
 20
0.0
 30
0.0
  3
*D18
  1

  0
LINE
  5
1F6A6
330
1F6A4
100
AcDbEntity
  8
寸法
 62
     0
 48
50.0
370
    -2
100
AcDbLine
 10
7426.307702263203
 20
1659.959230296373
 30
0.0
 11
7714.378706623596
 21
1659.959230296373
 31
0.0
  0
LINE
  5
1F6A7
330
1F6A4
100
AcDbEntity
  8
寸法
 62
     0
 48
50.0
370
    -2
100
AcDbLine
 10
7426.307702263205
 20
1459.959230296372
 30
0.0
 11
7714.378706623596
 21
1459.959230296371
 31
0.0
  0
LINE
  5
1F6A8
330
1F6A4
100
AcDbEntity
  8
寸法
 62
     0
 48
50.0
370
    -2
100
AcDbLine
 10
7654.378706623596
 20
1659.959230296373
 30
0.0
 11
7654.378706623596
 21
1459.959230296372
 31
0.0
  0
INSERT
  5
1F6A9
330
1F6A4
100
AcDbEntity
  8
寸法
 62
     0
 48
50.0
370
    -2
100
AcDbBlockReference
  2
_DOTSMALL
 10
7654.378706623596
 20
1659.959230296373
 30
0.0
 41
100.0
 42
100.0
 43
100.0
 50
90.0
  0
INSERT
  5
1F6AA
330
1F6A4
100
AcDbEntity
  8
寸法
 62
     0
 48
50.0
370
    -2
100
AcDbBlockReference
  2
_DOTSMALL
 10
7654.378706623596
 20
1459.959230296372
 30
0.0
 41
100.0
 42
100.0
 43
100.0
 50
270.0
  0
MTEXT
  5
1F6AB
330
1F6A4
100
AcDbEntity
  8
寸法
 62
     7
 48
50.0
100
AcDbMText
 10
7554.378706623596
 20
1559.959230296374
 30
0.0
 40
120.0
 41
0.0
 71
     5
 72
     1
  1
\A1;a
  7
STYLE1
 11
0.0000000000000001
 21
1.0
 31
0.0
 73
     1
 44
1.0
1001
ACAD
1000
MTEXTBEGIN
1070
    73
1070
     1
1070
    44
1040
1.0
1070
    74
1070
     0
1000
MTEXTEND
  0
POINT
  5
1F6AC
330
1F6A4
100
AcDbEntity
  8
DEFPOINTS
 62
     0
 48
50.0
100
AcDbPoint
 10
7406.307702263203
 20
1659.959230296373
 30
0.0
  0
POINT
  5
1F6AD
330
1F6A4
100
AcDbEntity
  8
DEFPOINTS
 62
     0
 48
50.0
100
AcDbPoint
 10
7406.307702263204
 20
1459.959230296372
 30
0.0
  0
POINT
  5
1F6AE
330
1F6A4
100
AcDbEntity
  8
DEFPOINTS
 62
     0
 48
50.0
100
AcDbPoint
 10
7654.378706623596
 20
1459.959230296372
 30
0.0
  0
ENDBLK
  5
1F6AF
330
1F6A4
100
AcDbEntity
  8
0
 48
50.0
100
AcDbBlockEnd
  0
BLOCK
  5
1F6B1
330
1F6B0
100
AcDbEntity
  8
0
 48
50.0
100
AcDbBlockBegin
  2
*D19
 70
     1
 10
0.0
 20
0.0
 30
0.0
  3
*D19
  1

  0
LINE
  5
1F6B2
330
1F6B0
100
AcDbEntity
  8
寸法
 62
     0
 48
50.0
370
    -2
100
AcDbLine
 10
9039.91396638181
 20
1659.959230296374
 30
0.0
 11
9302.127213844709
 21
1659.959230296374
 31
0.0
  0
LINE
  5
1F6B3
330
1F6B0
100
AcDbEntity
  8
寸法
 62
     0
 48
50.0
370
    -2
100
AcDbLine
 10
9059.363203276298
 20
1459.959230296372
 30
0.0
 11
9302.127213844709
 21
1459.959230296372
 31
0.0
  0
LINE
  5
1F6B4
330
1F6B0
100
AcDbEntity
  8
寸法
 62
     0
 48
50.0
370
    -2
100
AcDbLine
 10
9242.127213844709
 20
1659.959230296374
 30
0.0
 11
9242.127213844709
 21
1459.959230296372
 31
0.0
  0
INSERT
  5
1F6B5
330
1F6B0
100
AcDbEntity
  8
寸法
 62
     0
 48
50.0
370
    -2
100
AcDbBlockReference
  2
_DOTSMALL
 10
9242.127213844709
 20
1659.959230296374
 30
0.0
 41
100.0
 42
100.0
 43
100.0
 50
90.0
  0
INSERT
  5
1F6B6
330
1F6B0
100
AcDbEntity
  8
寸法
 62
     0
 48
50.0
370
    -2
100
AcDbBlockReference
  2
_DOTSMALL
 10
9242.127213844709
 20
1459.959230296372
 30
0.0
 41
100.0
 42
100.0
 43
100.0
 50
270.0
  0
MTEXT
  5
1F6B7
330
1F6B0
100
AcDbEntity
  8
寸法
 62
     7
 48
50.0
100
AcDbMText
 10
9142.127213844709
 20
1559.959230296374
 30
0.0
 40
120.0
 41
0.0
 71
     5
 72
     1
  1
\A1;b
  7
STYLE1
 11
0.0000000000000001
 21
1.0
 31
0.0
 73
     1
 44
1.0
1001
ACAD
1000
MTEXTBEGIN
1070
    73
1070
     1
1070
    44
1040
1.0
1070
    74
1070
     0
1000
MTEXTEND
  0
POINT
  5
1F6B8
330
1F6B0
100
AcDbEntity
  8
DEFPOINTS
 62
     0
 48
50.0
100
AcDbPoint
 10
9019.91396638181
 20
1659.959230296374
 30
0.0
  0
POINT
  5
1F6B9
330
1F6B0
100
AcDbEntity
  8
DEFPOINTS
 62
     0
 48
50.0
100
AcDbPoint
 10
9039.363203276298
 20
1459.959230296372
 30
0.0
  0
POINT
  5
1F6BA
330
1F6B0
100
AcDbEntity
  8
DEFPOINTS
 62
     0
 48
50.0
100
AcDbPoint
 10
9242.127213844709
 20
1459.959230296372
 30
0.0
  0
ENDBLK
  5
1F6BB
330
1F6B0
100
AcDbEntity
  8
0
 48
50.0
100
AcDbBlockEnd
  0
BLOCK
  5
1F6BD
330
1F6BC
100
AcDbEntity
  8
0
 48
50.0
100
AcDbBlockBegin
  2
*D20
 70
     1
 10
0.0
 20
0.0
 30
0.0
  3
*D20
  1

  0
LINE
  5
1F6BE
330
1F6BC
100
AcDbEntity
  8
寸法
 62
     0
 48
50.0
370
    -2
100
AcDbLine
 10
10539.80689989894
 20
1759.959230296372
 30
0.0
 11
10782.44245361606
 21
1759.959230296372
 31
0.0
  0
LINE
  5
1F6BF
330
1F6BC
100
AcDbEntity
  8
寸法
 62
     0
 48
50.0
370
    -2
100
AcDbLine
 10
10569.69580798928
 20
1459.959230296372
 30
0.0
 11
10782.44245361606
 21
1459.959230296371
 31
0.0
  0
LINE
  5
1F6C0
330
1F6BC
100
AcDbEntity
  8
寸法
 62
     0
 48
50.0
370
    -2
100
AcDbLine
 10
10722.44245361606
 20
1759.959230296372
 30
0.0
 11
10722.44245361606
 21
1459.959230296372
 31
0.0
  0
INSERT
  5
1F6C1
330
1F6BC
100
AcDbEntity
  8
寸法
 62
     0
 48
50.0
370
    -2
100
AcDbBlockReference
  2
_DOTSMALL
 10
10722.44245361606
 20
1759.959230296372
 30
0.0
 41
100.0
 42
100.0
 43
100.0
 50
90.0
  0
INSERT
  5
1F6C2
330
1F6BC
100
AcDbEntity
  8
寸法
 62
     0
 48
50.0
370
    -2
100
AcDbBlockReference
  2
_DOTSMALL
 10
10722.44245361606
 20
1459.959230296372
 30
0.0
 41
100.0
 42
100.0
 43
100.0
 50
270.0
  0
MTEXT
  5
1F6C3
330
1F6BC
100
AcDbEntity
  8
寸法
 62
     7
 48
50.0
100
AcDbMText
 10
10622.44245361606
 20
1609.959230296373
 30
0.0
 40
120.0
 41
0.0
 71
     5
 72
     1
  1
\A1;c
  7
STYLE1
 11
0.0000000000000001
 21
1.0
 31
0.0
 73
     1
 44
1.0
1001
ACAD
1000
MTEXTBEGIN
1070
    73
1070
     1
1070
    44
1040
1.0
1070
    74
1070
     0
1000
MTEXTEND
  0
POINT
  5
1F6C4
330
1F6BC
100
AcDbEntity
  8
DEFPOINTS
 62
     0
 48
50.0
100
AcDbPoint
 10
10519.80689989894
 20
1759.959230296372
 30
0.0
  0
POINT
  5
1F6C5
330
1F6BC
100
AcDbEntity
  8
DEFPOINTS
 62
     0
 48
50.0
100
AcDbPoint
 10
10549.69580798928
 20
1459.959230296372
 30
0.0
  0
POINT
  5
1F6C6
330
1F6BC
100
AcDbEntity
  8
DEFPOINTS
 62
     0
 48
50.0
100
AcDbPoint
 10
10722.44245361606
 20
1459.959230296372
 30
0.0
  0
ENDBLK
  5
1F6C7
330
1F6BC
100
AcDbEntity
  8
0
 48
50.0
100
AcDbBlockEnd
  0
BLOCK
  5
1F994
330
1F98A
100
AcDbEntity
  8
0
 48
50.0
100
AcDbBlockBegin
  2
*D22
 70
     1
 10
0.0
 20
0.0
 30
0.0
  3
*D22
  1

  0
LINE
  5
1F9BA
330
1F98A
100
AcDbEntity
  8
寸法
 62
     0
 48
50.0
370
    -2
100
AcDbLine
 10
10539.80689989894
 20
1759.959230296372
 30
0.0
 11
10782.44245361606
 21
1759.959230296372
 31
0.0
  0
LINE
  5
1F9BB
330
1F98A
100
AcDbEntity
  8
寸法
 62
     0
 48
50.0
370
    -2
100
AcDbLine
 10
10569.69580798928
 20
1459.959230296372
 30
0.0
 11
10782.44245361606
 21
1459.959230296371
 31
0.0
  0
LINE
  5
1F9BC
330
1F98A
100
AcDbEntity
  8
寸法
 62
     0
 48
50.0
370
    -2
100
AcDbLine
 10
10722.44245361606
 20
1759.959230296372
 30
0.0
 11
10722.44245361606
 21
1459.959230296372
 31
0.0
  0
INSERT
  5
1F9BD
330
1F98A
100
AcDbEntity
  8
寸法
 62
     0
 48
50.0
370
    -2
100
AcDbBlockReference
  2
_DOTSMALL
 10
10722.44245361606
 20
1759.959230296372
 30
0.0
 41
100.0
 42
100.0
 43
100.0
 50
90.0
  0
INSERT
  5
1F9BE
330
1F98A
100
AcDbEntity
  8
寸法
 62
     0
 48
50.0
370
    -2
100
AcDbBlockReference
  2
_DOTSMALL
 10
10722.44245361606
 20
1459.959230296372
 30
0.0
 41
100.0
 42
100.0
 43
100.0
 50
270.0
  0
MTEXT
  5
1F9BF
330
1F98A
100
AcDbEntity
  8
寸法
 62
     7
 48
50.0
100
AcDbMText
 10
10622.44245361606
 20
1609.959230296373
 30
0.0
 40
120.0
 41
0.0
 71
     5
 72
     1
  1
\A1;c
  7
STYLE1
 11
0.0000000000000001
 21
1.0
 31
0.0
 73
     1
 44
1.0
1001
ACAD
1000
MTEXTBEGIN
1070
    73
1070
     1
1070
    44
1040
1.0
1070
    74
1070
     0
1000
MTEXTEND
  0
POINT
  5
1F9C0
330
1F98A
100
AcDbEntity
  8
DEFPOINTS
 62
     0
 48
50.0
100
AcDbPoint
 10
10519.80689989894
 20
1759.959230296372
 30
0.0
  0
POINT
  5
1F9C1
330
1F98A
100
AcDbEntity
  8
DEFPOINTS
 62
     0
 48
50.0
100
AcDbPoint
 10
10549.69580798928
 20
1459.959230296372
 30
0.0
  0
POINT
  5
1F9C2
330
1F98A
100
AcDbEntity
  8
DEFPOINTS
 62
     0
 48
50.0
100
AcDbPoint
 10
10722.44245361606
 20
1459.959230296372
 30
0.0
  0
ENDBLK
  5
1F995
330
1F98A
100
AcDbEntity
  8
0
 48
50.0
100
AcDbBlockEnd
  0
BLOCK
  5
1F9A0
330
1F996
100
AcDbEntity
  8
0
 48
50.0
100
AcDbBlockBegin
  2
*D23
 70
     1
 10
0.0
 20
0.0
 30
0.0
  3
*D23
  1

  0
LINE
  5
1F9C3
330
1F996
100
AcDbEntity
  8
寸法
 62
     0
 48
50.0
370
    -2
100
AcDbLine
 10
7426.307702263203
 20
1659.959230296373
 30
0.0
 11
7714.378706623596
 21
1659.959230296373
 31
0.0
  0
LINE
  5
1F9C4
330
1F996
100
AcDbEntity
  8
寸法
 62
     0
 48
50.0
370
    -2
100
AcDbLine
 10
7426.307702263205
 20
1459.959230296372
 30
0.0
 11
7714.378706623596
 21
1459.959230296371
 31
0.0
  0
LINE
  5
1F9C5
330
1F996
100
AcDbEntity
  8
寸法
 62
     0
 48
50.0
370
    -2
100
AcDbLine
 10
7654.378706623596
 20
1659.959230296373
 30
0.0
 11
7654.378706623596
 21
1459.959230296372
 31
0.0
  0
INSERT
  5
1F9C6
330
1F996
100
AcDbEntity
  8
寸法
 62
     0
 48
50.0
370
    -2
100
AcDbBlockReference
  2
_DOTSMALL
 10
7654.378706623596
 20
1659.959230296373
 30
0.0
 41
100.0
 42
100.0
 43
100.0
 50
90.0
  0
INSERT
  5
1F9C7
330
1F996
100
AcDbEntity
  8
寸法
 62
     0
 48
50.0
370
    -2
100
AcDbBlockReference
  2
_DOTSMALL
 10
7654.378706623596
 20
1459.959230296372
 30
0.0
 41
100.0
 42
100.0
 43
100.0
 50
270.0
  0
MTEXT
  5
1F9C8
330
1F996
100
AcDbEntity
  8
寸法
 62
     7
 48
50.0
100
AcDbMText
 10
7554.378706623596
 20
1559.959230296374
 30
0.0
 40
120.0
 41
0.0
 71
     5
 72
     1
  1
\A1;a
  7
STYLE1
 11
0.0000000000000001
 21
1.0
 31
0.0
 73
     1
 44
1.0
1001
ACAD
1000
MTEXTBEGIN
1070
    73
1070
     1
1070
    44
1040
1.0
1070
    74
1070
     0
1000
MTEXTEND
  0
POINT
  5
1F9C9
330
1F996
100
AcDbEntity
  8
DEFPOINTS
 62
     0
 48
50.0
100
AcDbPoint
 10
7406.307702263203
 20
1659.959230296373
 30
0.0
  0
POINT
  5
1F9CA
330
1F996
100
AcDbEntity
  8
DEFPOINTS
 62
     0
 48
50.0
100
AcDbPoint
 10
7406.307702263204
 20
1459.959230296372
 30
0.0
  0
POINT
  5
1F9CB
330
1F996
100
AcDbEntity
  8
DEFPOINTS
 62
     0
 48
50.0
100
AcDbPoint
 10
7654.378706623596
 20
1459.959230296372
 30
0.0
  0
ENDBLK
  5
1F9A1
330
1F996
100
AcDbEntity
  8
0
 48
50.0
100
AcDbBlockEnd
  0
BLOCK
  5
1F9AC
330
1F9A2
100
AcDbEntity
  8
0
 48
50.0
100
AcDbBlockBegin
  2
*D24
 70
     1
 10
0.0
 20
0.0
 30
0.0
  3
*D24
  1

  0
LINE
  5
1F9CC
330
1F9A2
100
AcDbEntity
  8
寸法
 62
     0
 48
50.0
370
    -2
100
AcDbLine
 10
7026.3077022632
 20
1459.959230296372
 30
0.0
 11
7114.416031637215
 21
1459.959230296372
 31
0.0
  0
LINE
  5
1F9CD
330
1F9A2
100
AcDbEntity
  8
寸法
 62
     0
 48
50.0
370
    -2
100
AcDbLine
 10
7086.307702263201
 20
959.9592302963719
 30
0.0
 11
6994.416031637216
 21
959.9592302963719
 31
0.0
  0
LINE
  5
1F9CE
330
1F9A2
100
AcDbEntity
  8
寸法
 62
     0
 48
50.0
370
    -2
100
AcDbLine
 10
7054.416031637216
 20
1459.959230296372
 30
0.0
 11
7054.416031637216
 21
959.9592302963719
 31
0.0
  0
INSERT
  5
1F9CF
330
1F9A2
100
AcDbEntity
  8
寸法
 62
     0
 48
50.0
370
    -2
100
AcDbBlockReference
  2
_DOTSMALL
 10
7054.416031637216
 20
1459.959230296372
 30
0.0
 41
100.0
 42
100.0
 43
100.0
 50
90.0
  0
INSERT
  5
1F9D0
330
1F9A2
100
AcDbEntity
  8
寸法
 62
     0
 48
50.0
370
    -2
100
AcDbBlockReference
  2
_DOTSMALL
 10
7054.416031637216
 20
959.9592302963719
 30
0.0
 41
100.0
 42
100.0
 43
100.0
 50
270.0
  0
MTEXT
  5
1F9D1
330
1F9A2
100
AcDbEntity
  8
寸法
 62
     7
 48
50.0
100
AcDbMText
 10
6848.404220613594
 20
1207.619605674837
 30
0.0
 40
120.0
 41
0.0
 71
     5
 72
     1
  1
\A1;200\P(250)
  7
STYLE1
 11
0.0000000000000001
 21
1.0
 31
0.0
 73
     1
 44
1.0
1001
ACAD
1000
MTEXTBEGIN
1070
    73
1070
     1
1070
    44
1040
1.0
1070
    74
1070
     0
1000
MTEXTEND
  0
POINT
  5
1F9D2
330
1F9A2
100
AcDbEntity
  8
DEFPOINTS
 62
     0
 48
50.0
100
AcDbPoint
 10
7006.3077022632
 20
1459.959230296372
 30
0.0
  0
POINT
  5
1F9D3
330
1F9A2
100
AcDbEntity
  8
DEFPOINTS
 62
     0
 48
50.0
100
AcDbPoint
 10
7106.3077022632
 20
959.9592302963719
 30
0.0
  0
POINT
  5
1F9D4
330
1F9A2
100
AcDbEntity
  8
DEFPOINTS
 62
     0
 48
50.0
100
AcDbPoint
 10
7054.416031637216
 20
959.9592302963719
 30
0.0
  0
ENDBLK
  5
1F9AD
330
1F9A2
100
AcDbEntity
  8
0
 48
50.0
100
AcDbBlockEnd
  0
BLOCK
  5
1F9B8
330
1F9AE
100
AcDbEntity
  8
0
 48
50.0
100
AcDbBlockBegin
  2
*D25
 70
     1
 10
0.0
 20
0.0
 30
0.0
  3
*D25
  1

  0
LINE
  5
1F9D5
330
1F9AE
100
AcDbEntity
  8
寸法
 62
     0
 48
50.0
370
    -2
100
AcDbLine
 10
9039.91396638181
 20
1659.959230296374
 30
0.0
 11
9302.127213844709
 21
1659.959230296374
 31
0.0
  0
LINE
  5
1F9D6
330
1F9AE
100
AcDbEntity
  8
寸法
 62
     0
 48
50.0
370
    -2
100
AcDbLine
 10
9059.363203276298
 20
1459.959230296372
 30
0.0
 11
9302.127213844709
 21
1459.959230296372
 31
0.0
  0
LINE
  5
1F9D7
330
1F9AE
100
AcDbEntity
  8
寸法
 62
     0
 48
50.0
370
    -2
100
AcDbLine
 10
9242.127213844709
 20
1659.959230296374
 30
0.0
 11
9242.127213844709
 21
1459.959230296372
 31
0.0
  0
INSERT
  5
1F9D8
330
1F9AE
100
AcDbEntity
  8
寸法
 62
     0
 48
50.0
370
    -2
100
AcDbBlockReference
  2
_DOTSMALL
 10
9242.127213844709
 20
1659.959230296374
 30
0.0
 41
100.0
 42
100.0
 43
100.0
 50
90.0
  0
INSERT
  5
1F9D9
330
1F9AE
100
AcDbEntity
  8
寸法
 62
     0
 48
50.0
370
    -2
100
AcDbBlockReference
  2
_DOTSMALL
 10
9242.127213844709
 20
1459.959230296372
 30
0.0
 41
100.0
 42
100.0
 43
100.0
 50
270.0
  0
MTEXT
  5
1F9DA
330
1F9AE
100
AcDbEntity
  8
寸法
 62
     7
 48
50.0
100
AcDbMText
 10
9142.127213844709
 20
1559.959230296374
 30
0.0
 40
120.0
 41
0.0
 71
     5
 72
     1
  1
\A1;b
  7
STYLE1
 11
0.0000000000000001
 21
1.0
 31
0.0
 73
     1
 44
1.0
1001
ACAD
1000
MTEXTBEGIN
1070
    73
1070
     1
1070
    44
1040
1.0
1070
    74
1070
     0
1000
MTEXTEND
  0
POINT
  5
1F9DB
330
1F9AE
100
AcDbEntity
  8
DEFPOINTS
 62
     0
 48
50.0
100
AcDbPoint
 10
9019.91396638181
 20
1659.959230296374
 30
0.0
  0
POINT
  5
1F9DC
330
1F9AE
100
AcDbEntity
  8
DEFPOINTS
 62
     0
 48
50.0
100
AcDbPoint
 10
9039.363203276298
 20
1459.959230296372
 30
0.0
  0
POINT
  5
1F9DD
330
1F9AE
100
AcDbEntity
  8
DEFPOINTS
 62
     0
 48
50.0
100
AcDbPoint
 10
9242.127213844709
 20
1459.959230296372
 30
0.0
  0
ENDBLK
  5
1F9B9
330
1F9AE
100
AcDbEntity
  8
0
 48
50.0
100
AcDbBlockEnd
  0
ENDSEC
  0
SECTION
  2
ENTITIES
  0
LINE
  5
10B57
330
747D
100
AcDbEntity
  8
補助
  6
PHANTOM
 62
   230
 48
50.0
100
AcDbLine
 10
139.9999999999995
 20
11409.6
 30
0.0
 11
16307.2
 21
11409.6
 31
0.0
  0
LINE
  5
10B59
330
747D
100
AcDbEntity
  8
仕様書枠
  6
Continuous
 48
50.0
100
AcDbLine
 10
13107.2
 20
1200.0
 30
0.0
 11
13107.2
 21
-0.0000000000000729
 31
0.0
  0
LINE
  5
10B5C
330
747D
100
AcDbEntity
  8
仕様書枠
 48
50.0
100
AcDbLine
 10
16307.2
 20
1200.0
 30
0.0
 11
16307.2
 21
-0.0000000000000909
 31
0.0
  0
LINE
  5
10B5D
330
747D
100
AcDbEntity
  8
仕様書枠
 48
50.0
100
AcDbLine
 10
140.0
 20
0.0
 30
0.0
 11
16307.2
 21
-0.0000000000000909
 31
0.0
  0
LINE
  5
10B5E
330
747D
100
AcDbEntity
  8
補助
  6
PHANTOM
 62
   230
 48
50.0
100
AcDbLine
 10
16307.2
 20
11409.6
 30
0.0
 11
16307.2
 21
1200.0
 31
0.0
  0
LINE
  5
10B6C
330
747D
100
AcDbEntity
  8
仕様書枠
 48
50.0
100
AcDbLine
 10
13107.2
 20
1200.0
 30
0.0
 11
16307.2
 21
1200.0
 31
0.0
  0
LINE
  5
10B6D
330
747D
100
AcDbEntity
  8
補助
  6
PHANTOM
 62
   230
 48
50.0
100
AcDbLine
 10
13107.2
 20
11409.6
 30
0.0
 11
13107.2
 21
4800.0
 31
0.0
  0
LINE
  5
10B6F
330
747D
100
AcDbEntity
  8
補助
  6
PHANTOM
 62
   230
 48
50.0
100
AcDbLine
 10
13107.2
 20
4800.0
 30
0.0
 11
16307.2
 21
4800.0
 31
0.0
  0
LINE
  5
10B72
330
747D
100
AcDbEntity
  8
文字
 62
     7
 48
50.0
100
AcDbLine
 10
13187.2
 20
400.0
 30
0.0
 11
16227.2
 21
400.0
 31
0.0
  0
TEXT
  5
10B73
330
747D
100
AcDbEntity
  8
文字
 62
     7
 48
50.0
100
AcDbText
 10
13162.9790565769
 20
895.0906074299405
 30
0.0
 40
200.0
  1
基 礎 図
  7
STYLE2
100
AcDbText
  0
TEXT
  5
10B74
330
747D
100
AcDbEntity
  8
文字
 62
     7
 48
50.0
100
AcDbText
 10
13201.43669998441
 20
477.2740661031255
 30
0.0
 40
160.0
  1
機種名
  7
STYLE2
100
AcDbText
  0
TEXT
  5
10B79
330
747D
100
AcDbEntity
  8
文字
 62
     7
 48
50.0
100
AcDbText
 10
14524.131837222
 20
1031.557706291228
 30
0.0
 40
100.0
  1
NO.15      <縮尺> S=1/40
  7
STYLE2
100
AcDbText
  0
LINE
  5
10B7B
330
747D
100
AcDbEntity
  8
仕様書枠
 48
50.0
100
AcDbLine
 10
13107.2
 20
800.0
 30
0.0
 11
14251.2
 21
800.0
 31
0.0
  0
LINE
  5
10B88
330
747D
100
AcDbEntity
  8
仕様書枠
  6
Continuous
 48
50.0
100
AcDbLine
 10
14251.2
 20
1200.0
 30
0.0
 11
14251.2
 21
800.0
 31
0.0
  0
TEXT
  5
14DEF
330
747D
100
AcDbEntity
  8
文字
 62
     7
 48
50.0
100
AcDbText
 10
14641.2525855784
 20
871.1744590657925
 30
0.0
 40
100.0
  1
～一般型・多雪地型～
  7
STYLE2
100
AcDbText
  0
TEXT
  5
15A76
330
747D
100
AcDbEntity
  8
文字
 62
     7
 48
50.0
100
AcDbText
 10
14343.17725348178
 20
488.1241585855691
 30
0.0
 40
160.0
  1
NXP-36SD・HD
  7
STYLE2
100
AcDbText
  0
TEXT
  5
1C9B2
330
747D
100
AcDbEntity
  8
部品1
 48
50.0
100
AcDbText
 10
9907.367337153676
 20
5748.278480857502
 30
0.0
 40
80.0
  1
(a=50,b=60,c=80)
  7
STYLE1
100
AcDbText
  0
TEXT
  5
1C9B3
330
747D
100
AcDbEntity
  8
部品1
 48
50.0
100
AcDbText
 10
9793.667096427725
 20
5881.835006943446
 30
0.0
 40
80.0
  1
※a,b,cは屋根の出幅です。
  7
STYLE1
100
AcDbText
  0
MTEXT
  5
1C9B4
102
{ACAD_REACTORS
330
1C9B5
102
}
330
747D
100
AcDbEntity
  8
部品1
 62
     7
 48
50.0
100
AcDbMText
 10
10659.83718660449
 20
6093.50290714291
 30
0.0
 40
120.0
 41
0.0
 71
     6
 72
     1
  1
\A1;屋根の外寸
  7
STYLE1
 73
     1
 44
1.0
1001
ACAD
1000
MTEXTBEGIN
1070
    73
1070
     1
1070
    44
1040
1.0
1070
    74
1070
     0
1000
MTEXTEND
  0
LEADER
  5
1C9B5
330
747D
100
AcDbEntity
  8
寸法
 48
50.0
100
AcDbLeader
  3
INABA_S50G
 71
     0
 73
     0
 74
     0
 75
     1
 40
120.0
 41
672.0
 76
     3
 10
9589.600000000002
 20
6388.520299102702
 30
0.0
 10
9837.837186604495
 20
6008.502907142911
 30
0.0
 10
9962.837186604495
 20
6008.502907142911
 30
0.0
340
1C9B4
1001
ACAD
1000
DSTYLE
1002
{
1070
   341
1005
1C530
1070
    40
1040
1.0
1070
   343
1005
1C530
1070
   344
1005
1C530
1002
}
  0
LINE
  5
1C9BB
330
747D
100
AcDbEntity
  8
想像線
 48
10.0
100
AcDbLine
 10
9589.600000000004
 20
5440.0
 30
0.0
 11
6860.600000000001
 21
5440.0
 31
0.0
  0
LINE
  5
1C9BC
330
747D
100
AcDbEntity
  8
想像線
 48
10.0
100
AcDbLine
 10
6860.600000000001
 20
6952.0
 30
0.0
 11
9589.599999999999
 21
6949.000000000004
 31
0.0
  0
DIMENSION
  5
1CAB6
330
747D
100
AcDbEntity
  8
寸法
 48
50.0
100
AcDbDimension
  2
*D2
 10
6466.88811655075
 20
5439.999999999998
 30
0.0
 11
6466.888116550748
 21
5470.0
 31
0.0
 70
   160
  1
b
 71
     5
 42
60.0
  3
INABA_S40G
100
AcDbAlignedDimension
 13
6907.600000000001
 23
5499.999999999999
 33
0.0
 14
6857.600000000001
 24
5439.999999999998
 34
0.0
 50
90.0
100
AcDbRotatedDimension
1001
ACAD
1000
DSTYLE
1002
{
1070
   174
1070
     0
1070
   272
1070
     1
1070
   288
1070
     0
1070
   341
1005
0
1002
}
  0
DIMENSION
  5
1CAB7
330
747D
100
AcDbEntity
  8
寸法
 48
50.0
100
AcDbDimension
  2
*D3
 10
6466.88811655075
 20
5499.999999999999
 30
0.0
 11
6366.876305527128
 21
6186.0
 31
0.0
 70
    32
 71
     5
 42
1372.0
  3
INABA_S40G
100
AcDbAlignedDimension
 13
6907.600000000001
 23
6871.999999999998
 33
0.0
 14
6907.600000000001
 24
5499.999999999999
 34
0.0
 50
90.0
100
AcDbRotatedDimension
1001
ACAD
1000
DSTYLE
1002
{
1070
   174
1070
     0
1070
   272
1070
     1
1070
   288
1070
     0
1070
   341
1005
0
1002
}
  0
DIMENSION
  5
1CAB8
330
747D
100
AcDbEntity
  8
寸法
 48
50.0
100
AcDbDimension
  2
*D4
 10
6466.888116550752
 20
6871.999999999998
 30
0.0
 11
6466.888116550748
 21
6912.0
 31
0.0
 70
   160
  1
c
 71
     5
 42
80.0
  3
INABA_S40G
100
AcDbAlignedDimension
 13
6857.600000000001
 23
6951.999999999998
 33
0.0
 14
6907.600000000001
 24
6871.999999999998
 34
0.0
 50
90.0
100
AcDbRotatedDimension
1001
ACAD
1000
DSTYLE
1002
{
1070
   174
1070
     0
1070
   272
1070
     1
1070
   288
1070
     0
1070
   341
1005
0
1002
}
  0
LINE
  5
1CAB9
330
747D
100
AcDbEntity
  8
想像線
 48
10.0
100
AcDbLine
 10
6857.600000000001
 20
5443.0
 30
0.0
 11
6857.600000000001
 21
6949.0
 31
0.0
  0
LINE
  5
1CABA
330
747D
100
AcDbEntity
  8
部品1
 48
50.0
100
AcDbLine
 10
7297.6
 20
5500.000000000002
 30
0.0
 11
6907.600000000001
 21
5499.999999999999
 31
0.0
  0
LINE
  5
1CABB
330
747D
100
AcDbEntity
  8
部品1
 48
50.0
100
AcDbLine
 10
7297.6
 20
5499.999999999999
 30
0.0
 11
6907.600000000001
 21
5499.999999999999
 31
0.0
  0
LINE
  5
1CABC
330
747D
100
AcDbEntity
  8
部品1
 48
50.0
100
AcDbLine
 10
7297.6
 20
5689.999999999998
 30
0.0
 11
6907.600000000001
 21
5689.999999999998
 31
0.0
  0
LINE
  5
1CAC0
330
747D
100
AcDbEntity
  8
部品1
 48
50.0
100
AcDbLine
 10
6907.600000000001
 20
5689.999999999998
 30
0.0
 11
6907.600000000001
 21
5499.999999999999
 31
0.0
  0
LINE
  5
1CAC2
330
747D
100
AcDbEntity
  8
部品1
 48
50.0
100
AcDbLine
 10
7297.6
 20
5689.999999999998
 30
0.0
 11
7297.6
 21
5499.999999999999
 31
0.0
  0
LINE
  5
1CAC3
330
747D
100
AcDbEntity
  8
部品1
 48
50.0
100
AcDbLine
 10
7903.600000000003
 20
5500.0
 30
0.0
 11
7713.600000000004
 21
5500.0
 31
0.0
  0
LINE
  5
1CAC4
330
747D
100
AcDbEntity
  8
部品1
 48
50.0
100
AcDbLine
 10
7903.600000000003
 20
5690.000000000001
 30
0.0
 11
7713.600000000004
 21
5690.000000000001
 31
0.0
  0
LINE
  5
1CAC5
330
747D
100
AcDbEntity
  8
部品1
 48
50.0
100
AcDbLine
 10
7713.600000000004
 20
5500.000000000005
 30
0.0
 11
7713.600000000004
 21
5690.000000000004
 31
0.0
  0
LINE
  5
1CAC6
330
747D
100
AcDbEntity
  8
部品1
 48
50.0
100
AcDbLine
 10
7903.600000000003
 20
5500.000000000005
 30
0.0
 11
7903.600000000003
 21
5690.000000000004
 31
0.0
  0
LINE
  5
1CAC7
330
747D
100
AcDbEntity
  8
部品1
 48
50.0
100
AcDbLine
 10
7297.6
 20
6871.999999999998
 30
0.0
 11
6907.600000000001
 21
6871.999999999998
 31
0.0
  0
LINE
  5
1CAC8
330
747D
100
AcDbEntity
  8
部品1
 48
50.0
100
AcDbLine
 10
7297.6
 20
6871.999999999994
 30
0.0
 11
6907.600000000001
 21
6871.999999999998
 31
0.0
  0
LINE
  5
1CAC9
330
747D
100
AcDbEntity
  8
部品1
 48
50.0
100
AcDbLine
 10
7297.6
 20
6681.999999999998
 30
0.0
 11
6907.600000000001
 21
6681.999999999998
 31
0.0
  0
LINE
  5
1CACE
330
747D
100
AcDbEntity
  8
部品1
 48
50.0
100
AcDbLine
 10
6907.600000000001
 20
6681.999999999998
 30
0.0
 11
6907.600000000001
 21
6871.999999999998
 31
0.0
  0
LINE
  5
1CAD0
330
747D
100
AcDbEntity
  8
部品1
 48
50.0
100
AcDbLine
 10
7297.6
 20
6681.999999999998
 30
0.0
 11
7297.6
 21
6871.999999999998
 31
0.0
  0
LINE
  5
1CAD1
330
747D
100
AcDbEntity
  8
部品1
 48
50.0
100
AcDbLine
 10
7903.600000000003
 20
6872.000000000001
 30
0.0
 11
7713.600000000004
 21
6872.000000000001
 31
0.0
  0
LINE
  5
1CAD2
330
747D
100
AcDbEntity
  8
部品1
 48
50.0
100
AcDbLine
 10
7903.600000000003
 20
6682.000000000001
 30
0.0
 11
7713.600000000004
 21
6682.000000000001
 31
0.0
  0
LINE
  5
1CAD3
330
747D
100
AcDbEntity
  8
部品1
 48
50.0
100
AcDbLine
 10
7713.600000000004
 20
6682.000000000005
 30
0.0
 11
7713.600000000004
 21
6872.000000000004
 31
0.0
  0
LINE
  5
1CAD4
330
747D
100
AcDbEntity
  8
部品1
 48
50.0
100
AcDbLine
 10
7903.600000000003
 20
6682.000000000005
 30
0.0
 11
7903.600000000003
 21
6872.000000000004
 31
0.0
  0
LINE
  5
1CCF0
330
747D
100
AcDbEntity
  8
想像線
 48
10.0
100
AcDbLine
 10
9589.599999999999
 20
6949.000000000004
 30
0.0
 11
9589.600000000004
 21
5440.0
 31
0.0
  0
LINE
  5
1CCF3
330
747D
100
AcDbEntity
  8
部品1
 48
50.0
100
AcDbLine
 10
9149.600000000001
 20
5690.0
 30
0.0
 11
9539.6
 21
5690.0
 31
0.0
  0
LINE
  5
1CCF4
330
747D
100
AcDbEntity
  8
部品1
 48
50.0
100
AcDbLine
 10
9149.600000000001
 20
5500.0
 30
0.0
 11
9539.6
 21
5500.0
 31
0.0
  0
LINE
  5
1CCF5
330
747D
100
AcDbEntity
  8
部品1
 48
50.0
100
AcDbLine
 10
9149.600000000001
 20
5500.000000000003
 30
0.0
 11
9539.6
 21
5500.0
 31
0.0
  0
LINE
  5
1CCF6
330
747D
100
AcDbEntity
  8
部品1
 48
50.0
100
AcDbLine
 10
9149.600000000001
 20
5690.0
 30
0.0
 11
9149.600000000001
 21
5500.0
 31
0.0
  0
LINE
  5
1CCFB
330
747D
100
AcDbEntity
  8
部品1
 48
50.0
100
AcDbLine
 10
9539.6
 20
5690.0
 30
0.0
 11
9539.6
 21
5500.0
 31
0.0
  0
LINE
  5
1CCFF
330
747D
100
AcDbEntity
  8
部品1
 48
50.0
100
AcDbLine
 10
9149.600000000001
 20
6871.999999999997
 30
0.0
 11
9539.6
 21
6872.0
 31
0.0
  0
LINE
  5
1CD00
330
747D
100
AcDbEntity
  8
部品1
 48
50.0
100
AcDbLine
 10
9149.600000000001
 20
6872.0
 30
0.0
 11
9539.6
 21
6872.0
 31
0.0
  0
LINE
  5
1CD01
330
747D
100
AcDbEntity
  8
部品1
 48
50.0
100
AcDbLine
 10
9149.600000000001
 20
6682.0
 30
0.0
 11
9539.6
 21
6682.0
 31
0.0
  0
LINE
  5
1CD02
330
747D
100
AcDbEntity
  8
部品1
 48
50.0
100
AcDbLine
 10
9149.600000000001
 20
6682.0
 30
0.0
 11
9149.600000000001
 21
6872.0
 31
0.0
  0
LINE
  5
1CD04
330
747D
100
AcDbEntity
  8
部品1
 48
50.0
100
AcDbLine
 10
9539.6
 20
6682.0
 30
0.0
 11
9539.6
 21
6872.0
 31
0.0
  0
TEXT
  5
1D002
330
747D
100
AcDbEntity
  8
文字
 62
     7
 48
50.0
100
AcDbText
 10
13188.16259899338
 20
246.7109242801889
 30
0.0
 40
80.0
  1
※寒冷地等は地域の実情に合わせた基礎にして下さい。
  7
STYLE2
100
AcDbText
  0
LINE
  5
1DD81
330
747D
100
AcDbEntity
  8
想像線
 48
10.0
100
AcDbLine
 10
6860.600000000001
 20
6951.999999999998
 30
0.0
 11
6857.600000000001
 21
6948.999999999998
 31
0.0
  0
LINE
  5
1DD82
330
747D
100
AcDbEntity
  8
想像線
 48
10.0
100
AcDbLine
 10
9586.599999999998
 20
6952.000000000004
 30
0.0
 11
9589.599999999999
 21
6949.000000000004
 31
0.0
  0
LINE
  5
1E073
330
747D
100
AcDbEntity
  8
想像線
 48
10.0
100
AcDbLine
 10
6860.600000000001
 20
6952.0
 30
0.0
 11
6857.600000000001
 21
6949.0
 31
0.0
  0
LINE
  5
1E074
330
747D
100
AcDbEntity
  8
想像線
 48
10.0
100
AcDbLine
 10
6857.600000000001
 20
5443.0
 30
0.0
 11
6860.600000000001
 21
5440.0
 31
0.0
  0
DIMENSION
  5
1E07E
330
747D
100
AcDbEntity
  8
寸法
 48
50.0
100
AcDbDimension
  2
*D10
 10
9539.6
 20
7638.551625802022
 30
0.0
 11
8223.600000000001
 21
7638.551625802022
 31
0.0
 70
   160
 71
     5
 42
2632.0
  3
INABA_S40G
100
AcDbAlignedDimension
 13
6907.600000000001
 23
6872.0
 33
0.0
 14
9539.6
 24
6872.0
 34
0.0
100
AcDbRotatedDimension
1001
ACAD
1000
DSTYLE
1002
{
1070
   174
1070
     0
1070
   272
1070
     1
1070
   288
1070
     0
1070
   341
1005
0
1002
}
  0
DIMENSION
  5
1E07F
330
747D
100
AcDbEntity
  8
寸法
 48
50.0
100
AcDbDimension
  2
*D9
 10
6907.600000000001
 20
7638.551625802022
 30
0.0
 11
6882.6
 21
7638.551625802022
 31
0.0
 70
   160
  1
a
 71
     5
 42
50.0
  3
INABA_S40G
100
AcDbAlignedDimension
 13
6857.600000000001
 23
6952.0
 33
0.0
 14
6907.600000000001
 24
6872.0
 34
0.0
100
AcDbRotatedDimension
1001
ACAD
1000
DSTYLE
1002
{
1070
   174
1070
     0
1070
   272
1070
     1
1070
   288
1070
     0
1070
   341
1005
0
1002
}
  0
DIMENSION
  5
1E080
330
747D
100
AcDbEntity
  8
寸法
 48
50.0
100
AcDbDimension
  2
*D8
 10
9589.6
 20
7638.551625802022
 30
0.0
 11
9564.6
 21
7638.551625802022
 31
0.0
 70
   160
  1
a
 71
     5
 42
50.0
  3
INABA_S40G
100
AcDbAlignedDimension
 13
9539.6
 23
6872.0
 33
0.0
 14
9589.6
 24
6952.000000000004
 34
0.0
100
AcDbRotatedDimension
1001
ACAD
1000
DSTYLE
1002
{
1070
   174
1070
     0
1070
   272
1070
     1
1070
   288
1070
     0
1070
   341
1005
0
1002
}
  0
DIMENSION
  5
1E081
330
747D
100
AcDbEntity
  8
寸法
 48
50.0
100
AcDbDimension
  2
*D7
 10
8638.600000000002
 20
7380.624237135963
 30
0.0
 11
8223.600000000002
 21
7480.624237135963
 31
0.0
 70
    32
 71
     5
 42
829.9999999999991
  3
INABA_S40G
100
AcDbAlignedDimension
 13
7808.600000000002
 23
6872.000000000001
 33
0.0
 14
8638.600000000002
 24
6872.000000000004
 34
0.0
100
AcDbRotatedDimension
1001
ACAD
1000
DSTYLE
1002
{
1070
   174
1070
     0
1070
   272
1070
     1
1070
   288
1070
     0
1070
   341
1005
0
1002
}
  0
DIMENSION
  5
1E082
330
747D
100
AcDbEntity
  8
寸法
 48
50.0
100
AcDbDimension
  2
*D6
 10
6907.600000000001
 20
7380.624237135963
 30
0.0
 11
7358.100000000002
 21
7480.624237135963
 31
0.0
 70
    32
 71
     5
 42
901.0000000000028
  3
INABA_S40G
100
AcDbAlignedDimension
 13
7808.600000000002
 23
6872.000000000001
 33
0.0
 14
6907.600000000001
 24
6872.0
 34
0.0
100
AcDbRotatedDimension
1001
ACAD
1000
DSTYLE
1002
{
1070
   174
1070
     0
1070
   272
1070
     1
1070
   288
1070
     0
1070
   341
1005
0
1002
}
  0
DIMENSION
  5
1E083
330
747D
100
AcDbEntity
  8
寸法
 48
50.0
100
AcDbDimension
  2
*D5
 10
9539.6
 20
7380.624237135963
 30
0.0
 11
9089.100000000001
 21
7480.624237135963
 31
0.0
 70
    32
 71
     5
 42
900.9999999999982
  3
INABA_S40G
100
AcDbAlignedDimension
 13
8638.600000000002
 23
6872.000000000004
 33
0.0
 14
9539.6
 24
6872.0
 34
0.0
100
AcDbRotatedDimension
1001
ACAD
1000
DSTYLE
1002
{
1070
   174
1070
     0
1070
   272
1070
     1
1070
   288
1070
     0
1070
   341
1005
0
1002
}
  0
LINE
  5
1E136
330
747D
100
AcDbEntity
  8
部品1
 48
50.0
100
AcDbLine
 10
8733.600000000002
 20
5500.000000000008
 30
0.0
 11
8733.600000000002
 21
5690.000000000008
 31
0.0
  0
LINE
  5
1E137
330
747D
100
AcDbEntity
  8
部品1
 48
50.0
100
AcDbLine
 10
8543.600000000003
 20
5500.000000000008
 30
0.0
 11
8543.600000000003
 21
5690.000000000008
 31
0.0
  0
LINE
  5
1E138
330
747D
100
AcDbEntity
  8
部品1
 48
50.0
100
AcDbLine
 10
8733.600000000002
 20
5690.000000000004
 30
0.0
 11
8543.600000000003
 21
5690.000000000004
 31
0.0
  0
LINE
  5
1E139
330
747D
100
AcDbEntity
  8
部品1
 48
50.0
100
AcDbLine
 10
8733.600000000002
 20
5500.000000000005
 30
0.0
 11
8543.600000000003
 21
5500.000000000005
 31
0.0
  0
LINE
  5
1E13A
330
747D
100
AcDbEntity
  8
部品1
 48
50.0
100
AcDbLine
 10
8733.600000000002
 20
6682.000000000008
 30
0.0
 11
8733.600000000002
 21
6872.000000000008
 31
0.0
  0
LINE
  5
1E13B
330
747D
100
AcDbEntity
  8
部品1
 48
50.0
100
AcDbLine
 10
8543.600000000003
 20
6682.000000000008
 30
0.0
 11
8543.600000000003
 21
6872.000000000008
 31
0.0
  0
LINE
  5
1E13C
330
747D
100
AcDbEntity
  8
部品1
 48
50.0
100
AcDbLine
 10
8733.600000000002
 20
6682.000000000005
 30
0.0
 11
8543.600000000003
 21
6682.000000000005
 31
0.0
  0
LINE
  5
1E13D
330
747D
100
AcDbEntity
  8
部品1
 48
50.0
100
AcDbLine
 10
8733.600000000002
 20
6872.000000000004
 30
0.0
 11
8543.600000000003
 21
6872.000000000004
 31
0.0
  0
LINE
  5
1E5F6
330
747D
100
AcDbEntity
  8
点線
 48
10.0
100
AcDbLine
 10
9639.599999999999
 20
5599.999999999996
 30
0.0
 11
9639.600000000001
 21
5399.999999999995
 31
0.0
  0
LINE
  5
1E5F7
330
747D
100
AcDbEntity
  8
点線
 48
10.0
100
AcDbLine
 10
9439.6
 20
5399.999999999995
 30
0.0
 11
9639.600000000001
 21
5399.999999999995
 31
0.0
  0
LINE
  5
1E5F8
330
747D
100
AcDbEntity
  8
点線
 48
10.0
100
AcDbLine
 10
9439.6
 20
5599.999999999996
 30
0.0
 11
9439.6
 21
5399.999999999995
 31
0.0
  0
LINE
  5
1E5F9
330
747D
100
AcDbEntity
  8
点線
 48
10.0
100
AcDbLine
 10
9439.6
 20
5599.999999999996
 30
0.0
 11
9639.599999999999
 21
5599.999999999996
 31
0.0
  0
LINE
  5
1E5FA
330
747D
100
AcDbEntity
  8
点線
 48
10.0
100
AcDbLine
 10
6807.6
 20
5399.999999999995
 30
0.0
 11
7007.6
 21
5399.999999999995
 31
0.0
  0
LINE
  5
1E5FB
330
747D
100
AcDbEntity
  8
点線
 48
10.0
100
AcDbLine
 10
6807.6
 20
5599.999999999996
 30
0.0
 11
6807.6
 21
5399.999999999995
 31
0.0
  0
LINE
  5
1E5FC
330
747D
100
AcDbEntity
  8
点線
 48
10.0
100
AcDbLine
 10
7007.6
 20
5599.999999999996
 30
0.0
 11
7007.6
 21
5399.999999999995
 31
0.0
  0
LINE
  5
1E5FD
330
747D
100
AcDbEntity
  8
点線
 48
10.0
100
AcDbLine
 10
6807.6
 20
5599.999999999996
 30
0.0
 11
7007.6
 21
5599.999999999996
 31
0.0
  0
TEXT
  5
1E628
330
747D
100
AcDbEntity
  8
部品1
 48
50.0
100
AcDbText
 10
10048.95182925034
 20
7269.278165376134
 30
0.0
 40
120.0
  1
組立後
  7
STYLE1
100
AcDbText
  0
MTEXT
  5
1E629
102
{ACAD_REACTORS
330
1E62A
102
}
330
747D
100
AcDbEntity
  8
部品1
 62
     7
 48
50.0
100
AcDbMText
 10
10040.82789715524
 20
7142.800576904058
 30
0.0
 40
120.0
 41
0.0
 71
     4
 72
     1
  1
現場打コンクリート
  7
STYLE1
 73
     1
 44
1.0
1001
ACAD
1000
MTEXTBEGIN
1070
    73
1070
     1
1070
    44
1040
1.0
1070
    74
1070
     0
1000
MTEXTEND
  0
LEADER
  5
1E62A
330
747D
100
AcDbEntity
  8
寸法
 48
50.0
100
AcDbLeader
  3
INABA_S50G
 71
     0
 73
     0
 74
     0
 75
     1
 40
120.0
 41
1282.349242404918
 76
     3
 10
9634.440685572833
 20
6861.456639287917
 30
0.0
 10
9890.827897155238
 20
7057.800576904057
 30
0.0
 10
10015.82789715524
 20
7057.800576904057
 30
0.0
340
1E629
1001
ACAD
1000
DSTYLE
1002
{
1070
   341
1005
1C530
1070
    40
1040
1.0
1070
   343
1005
1C530
1070
   344
1005
1C530
1002
}
  0
LINE
  5
1E62B
330
747D
100
AcDbEntity
  8
点線
 48
10.0
100
AcDbLine
 10
9439.6
 20
6971.999999999993
 30
0.0
 11
9439.6
 21
6771.999999999991
 31
0.0
  0
LINE
  5
1E62C
330
747D
100
AcDbEntity
  8
点線
 48
10.0
100
AcDbLine
 10
9439.6
 20
6771.999999999991
 30
0.0
 11
9639.600000000001
 21
6771.999999999991
 31
0.0
  0
LINE
  5
1E62D
330
747D
100
AcDbEntity
  8
点線
 48
10.0
100
AcDbLine
 10
9439.6
 20
6971.999999999993
 30
0.0
 11
9639.599999999999
 21
6971.999999999991
 31
0.0
  0
LINE
  5
1E62E
330
747D
100
AcDbEntity
  8
点線
 48
10.0
100
AcDbLine
 10
9639.599999999999
 20
6971.999999999991
 30
0.0
 11
9639.600000000001
 21
6771.999999999991
 31
0.0
  0
LINE
  5
1E62F
330
747D
100
AcDbEntity
  8
点線
 48
10.0
100
AcDbLine
 10
6807.6
 20
6771.999999999991
 30
0.0
 11
7007.6
 21
6771.999999999991
 31
0.0
  0
LINE
  5
1E630
330
747D
100
AcDbEntity
  8
点線
 48
10.0
100
AcDbLine
 10
6807.6
 20
6971.999999999993
 30
0.0
 11
6807.6
 21
6771.999999999991
 31
0.0
  0
LINE
  5
1E631
330
747D
100
AcDbEntity
  8
点線
 48
10.0
100
AcDbLine
 10
7007.6
 20
6971.999999999991
 30
0.0
 11
7007.6
 21
6771.999999999991
 31
0.0
  0
LINE
  5
1E632
330
747D
100
AcDbEntity
  8
点線
 48
10.0
100
AcDbLine
 10
6807.6
 20
6971.999999999993
 30
0.0
 11
7007.6
 21
6971.999999999991
 31
0.0
  0
TEXT
  5
1EC29
330
747D
100
AcDbEntity
  8
文字
 48
50.0
100
AcDbText
 10
10071.8664264809
 20
6867.363529387934
 30
0.0
 40
120.0
  1
深サ:200(250)
  7
STYLE1
100
AcDbText
  0
LEADER
  5
1EC2A
330
747D
100
AcDbEntity
  8
寸法
 48
50.0
100
AcDbLeader
  3
INABA_S50G
 71
     0
 73
     0
 74
     0
 75
     1
 40
120.0
 41
185.591883092037
 76
     3
 10
7177.173191953271
 20
6797.593703396853
 30
0.0
 10
7245.549905176574
 20
6582.460560127774
 30
0.0
 10
7370.549905176574
 20
6582.460560127774
 30
0.0
340
1EC2B
1001
ACAD
1000
DSTYLE
1002
{
1070
   341
1005
1C530
1070
    40
1040
1.0
1070
   343
1005
1C530
1070
   344
1005
1C530
1002
}
  0
MTEXT
  5
1EC2B
102
{ACAD_REACTORS
330
1EC2A
102
}
330
747D
100
AcDbEntity
  8
部品1
 62
     7
 48
50.0
100
AcDbMText
 10
7395.549905176574
 20
6667.460560127775
 30
0.0
 40
120.0
 41
0.0
 71
     4
 72
     1
  1
\A1;C.B
  7
STYLE1
 73
     1
 44
1.0
1001
ACAD
1000
MTEXTBEGIN
1070
    73
1070
     1
1070
    44
1040
1.0
1070
    74
1070
     0
1000
MTEXTEND
  0
TEXT
  5
1EC2C
330
747D
100
AcDbEntity
  8
文字
 48
50.0
100
AcDbText
 10
7256.608720312039
 20
6414.961960634153
 30
0.0
 40
120.0
  1
100x190x390
  7
STYLE1
100
AcDbText
  0
DIMENSION
  5
1EF2F
330
747D
100
AcDbEntity
  8
寸法
 48
50.0
100
AcDbDimension
  2
*D11
 10
10157.84087348511
 20
5399.999999999993
 30
0.0
 11
10157.84087348511
 21
5499.999999999993
 31
0.0
 70
   160
  1
<>\P(250)
 71
     5
 42
200.0
  3
INABA_S40G
100
AcDbAlignedDimension
 13
9639.599999999999
 23
5599.999999999993
 33
0.0
 14
9639.600000000001
 24
5399.999999999993
 34
0.0
 50
90.0
100
AcDbRotatedDimension
1001
ACAD
1000
DSTYLE
1002
{
1070
   174
1070
     0
1070
   272
1070
     1
1070
   288
1070
     0
1070
   341
1005
0
1002
}
  0
DIMENSION
  5
1EF30
330
747D
100
AcDbEntity
  8
寸法
 48
50.0
100
AcDbDimension
  2
*D12
 10
9439.6
 20
4926.16892615646
 30
0.0
 11
9539.6
 21
4926.16892615646
 31
0.0
 70
   160
  1
<>\P(250)
 71
     5
 42
200.0
  3
INABA_S40G
100
AcDbAlignedDimension
 13
9639.600000000001
 23
5399.999999999993
 33
0.0
 14
9439.6
 24
5399.999999999993
 34
0.0
100
AcDbRotatedDimension
1001
ACAD
1000
DSTYLE
1002
{
1070
   174
1070
     0
1070
   272
1070
     1
1070
   288
1070
     0
1070
   341
1005
0
1002
}
  0
LINE
  5
1F5D3
330
747D
100
AcDbEntity
  8
部品1
 48
50.0
100
AcDbLine
 10
7713.600000000004
 20
6380.999999999998
 30
0.0
 11
7903.600000000003
 21
6380.999999999998
 31
0.0
  0
LINE
  5
1F5D4
330
747D
100
AcDbEntity
  8
部品1
 48
50.0
100
AcDbLine
 10
7713.600000000004
 20
5990.999999999998
 30
0.0
 11
7903.600000000003
 21
5990.999999999998
 31
0.0
  0
LINE
  5
1F5D5
330
747D
100
AcDbEntity
  8
部品1
 48
50.0
100
AcDbLine
 10
7713.600000000004
 20
6380.999999999998
 30
0.0
 11
7713.600000000004
 21
5990.999999999998
 31
0.0
  0
LINE
  5
1F5D6
330
747D
100
AcDbEntity
  8
部品1
 48
50.0
100
AcDbLine
 10
7903.600000000003
 20
6380.999999999998
 30
0.0
 11
7903.600000000003
 21
5990.999999999998
 31
0.0
  0
LINE
  5
1F5D7
330
747D
100
AcDbEntity
  8
部品1
 48
50.0
100
AcDbLine
 10
7903.6
 20
6380.999999999998
 30
0.0
 11
7903.600000000003
 21
5990.999999999998
 31
0.0
  0
LINE
  5
1F5D8
330
747D
100
AcDbEntity
  8
部品1
 48
50.0
100
AcDbLine
 10
8733.599999999999
 20
6381.000000000002
 30
0.0
 11
8733.600000000002
 21
5991.000000000002
 31
0.0
  0
LINE
  5
1F5D9
330
747D
100
AcDbEntity
  8
部品1
 48
50.0
100
AcDbLine
 10
8733.600000000002
 20
6381.000000000002
 30
0.0
 11
8733.600000000002
 21
5991.000000000002
 31
0.0
  0
LINE
  5
1F5DA
330
747D
100
AcDbEntity
  8
部品1
 48
50.0
100
AcDbLine
 10
8543.600000000003
 20
6381.000000000002
 30
0.0
 11
8543.600000000003
 21
5991.000000000002
 31
0.0
  0
LINE
  5
1F5DB
330
747D
100
AcDbEntity
  8
部品1
 48
50.0
100
AcDbLine
 10
8543.600000000003
 20
5991.000000000002
 30
0.0
 11
8733.600000000002
 21
5991.000000000002
 31
0.0
  0
LINE
  5
1F5DC
330
747D
100
AcDbEntity
  8
部品1
 48
50.0
100
AcDbLine
 10
8543.600000000003
 20
6381.000000000002
 30
0.0
 11
8733.600000000002
 21
6381.000000000002
 31
0.0
  0
LINE
  5
1F5F6
330
747D
100
AcDbEntity
  8
寸法
 62
     0
 48
50.0
100
AcDbLine
 10
6907.599999999999
 20
6090.999999999999
 30
0.0
 11
7097.599999999999
 21
6090.999999999999
 31
0.0
  0
LINE
  5
1F5F7
330
747D
100
AcDbEntity
  8
寸法
 62
     0
 48
50.0
100
AcDbLine
 10
6907.599999999999
 20
6280.999999999999
 30
0.0
 11
7097.599999999999
 21
6280.999999999999
 31
0.0
  0
LINE
  5
1F5F8
330
747D
100
AcDbEntity
  8
部品1
 48
50.0
100
AcDbLine
 10
7097.599999999999
 20
6091.0
 30
0.0
 11
7097.599999999999
 21
6280.999999999999
 31
0.0
  0
LINE
  5
1F5F9
330
747D
100
AcDbEntity
  8
部品1
 48
50.0
100
AcDbLine
 10
6907.600000000001
 20
6090.999999999998
 30
0.0
 11
6907.600000000001
 21
6280.999999999999
 31
0.0
  0
LINE
  5
1F5FA
330
747D
100
AcDbEntity
  8
寸法
 62
     0
 48
50.0
100
AcDbLine
 10
9349.599999999998
 20
6280.999999999999
 30
0.0
 11
9349.599999999998
 21
6090.999999999999
 31
0.0
  0
LINE
  5
1F5FB
330
747D
100
AcDbEntity
  8
部品1
 48
50.0
100
AcDbLine
 10
9539.599999999998
 20
6091.0
 30
0.0
 11
9539.599999999998
 21
6280.999999999999
 31
0.0
  0
LINE
  5
1F5FC
330
747D
100
AcDbEntity
  8
寸法
 62
     0
 48
50.0
100
AcDbLine
 10
9349.599999999998
 20
6280.999999999999
 30
0.0
 11
9539.599999999998
 21
6280.999999999999
 31
0.0
  0
LINE
  5
1F5FD
330
747D
100
AcDbEntity
  8
寸法
 62
     0
 48
50.0
100
AcDbLine
 10
9349.599999999998
 20
6090.999999999999
 30
0.0
 11
9539.599999999998
 21
6090.999999999999
 31
0.0
  0
TEXT
  5
1F82B
330
747D
100
AcDbEntity
  8
文字
 62
     7
 48
50.0
100
AcDbText
 10
7379.990658504816
 20
183.6367189148311
 30
0.0
 40
100.0
  1
※ （　）内寸法は３６Ｈを示す
  7
STYLE2
100
AcDbText
  0
LINE
  5
1F82C
330
747D
100
AcDbEntity
  8
部品1
 48
50.0
100
AcDbLine
 10
5023.6
 20
2439.198442684618
 30
0.0
 11
11423.6
 21
2439.198442684618
 31
0.0
  0
LINE
  5
1F82D
330
747D
100
AcDbEntity
  8
部品1
 48
50.0
100
AcDbLine
 10
11423.6
 20
2679.198442684617
 30
0.0
 11
6623.6
 21
2679.198442684617
 31
0.0
  0
LINE
  5
1F82E
330
747D
100
AcDbEntity
  8
部品1
 48
50.0
100
AcDbLine
 10
11423.6
 20
2919.198442684617
 30
0.0
 11
5023.6
 21
2919.198442684619
 31
0.0
  0
LINE
  5
1F82F
330
747D
100
AcDbEntity
  8
部品1
 48
50.0
100
AcDbLine
 10
5023.6
 20
519.1984426846175
 30
0.0
 11
11423.6
 21
519.1984426846175
 31
0.0
  0
TEXT
  5
1F830
330
747D
100
AcDbEntity
  8
部品1
100
AcDbText
 10
8277.327316378691
 20
2733.262257287352
 30
0.0
 40
120.0
  1
アンカー部詳細
  7
STYLE2
100
AcDbText
  0
LINE
  5
1F831
330
747D
100
AcDbEntity
  8
細線
100
AcDbLine
 10
5819.086509034793
 20
1359.959230296372
 30
0.0
 11
5919.086509034789
 21
1459.959230296374
 31
0.0
  0
LINE
  5
1F832
330
747D
100
AcDbEntity
  8
細線
100
AcDbLine
 10
5894.515958413382
 20
1459.959230296374
 30
0.0
 11
5694.515958413385
 21
1659.959230296372
 31
0.0
  0
LEADER
  5
1F833
330
747D
100
AcDbEntity
  8
寸法
 48
50.0
100
AcDbLeader
  3
INABA_S50G
 71
     0
 73
     0
 74
     0
 75
     1
 40
120.0
 41
185.591883092037
 76
     3
 10
5748.473750574227
 20
1659.959230296372
 30
0.0
 10
5903.737333145404
 20
1872.81114810514
 30
0.0
 10
6028.737333145404
 20
1872.81114810514
 30
0.0
340
1F834
213
67.73172584638814
223
0.0
233
0.0
1001
ACAD
1000
DSTYLE
1002
{
1070
    40
1040
1.0
1002
}
  0
MTEXT
  5
1F834
102
{ACAD_REACTORS
330
1F833
102
}
330
747D
100
AcDbEntity
  8
寸法
 62
     7
 48
50.0
100
AcDbMText
 10
5986.005607299015
 20
1957.81114810514
 30
0.0
 40
120.0
 41
1.0
 71
     4
 72
     1
  1
\A1;C.B
  7
STYLE1
 73
     1
 44
1.0
1001
ACAD
1000
MTEXTBEGIN
1070
    73
1070
     1
1070
    44
1040
1.0
1070
    74
1070
     0
1000
MTEXTEND
  0
TEXT
  5
1F835
330
747D
100
AcDbEntity
  8
部品1
100
AcDbText
 10
5489.200021004799
 20
2627.170659862939
 30
0.0
 40
120.0
  1
基礎詳細
  7
STYLE2
100
AcDbText
  0
LINE
  5
1F836
330
747D
100
AcDbEntity
  8
細線
100
AcDbLine
 10
5936.942365284575
 20
1459.959230296374
 30
0.0
 11
5736.942365284578
 21
1659.959230296372
 31
0.0
  0
LINE
  5
1F837
330
747D
100
AcDbEntity
  8
Ｇ．Ｌ
100
AcDbLine
 10
5118.372744528902
 20
1459.959230296374
 30
0.0
 11
6549.266028352062
 21
1459.959230296374
 31
0.0
  0
LINE
  5
1F838
330
747D
100
AcDbEntity
  8
部品1
100
AcDbLine
 10
5548.473750574228
 20
1659.959230296372
 30
0.0
 11
5948.473750574225
 21
1659.959230296372
 31
0.0
  0
LINE
  5
1F839
330
747D
100
AcDbEntity
  8
部品1
100
AcDbLine
 10
5448.473750574225
 20
1359.95923029637
 30
0.0
 11
6048.473750574225
 21
1359.959230296372
 31
0.0
  0
LINE
  5
1F83A
330
747D
100
AcDbEntity
  8
部品1
100
AcDbLine
 10
5448.473750574225
 20
1159.959230296368
 30
0.0
 11
6048.473750574225
 21
1159.959230296372
 31
0.0
  0
LINE
  5
1F83B
330
747D
100
AcDbEntity
  8
部品1
 48
50.0
100
AcDbLine
 10
5023.6
 20
2919.198442684617
 30
0.0
 11
5023.6
 21
519.1984426846175
 31
0.0
  0
LINE
  5
1F83C
330
747D
100
AcDbEntity
  8
細線
100
AcDbLine
 10
5548.473750574228
 20
1359.95923029637
 30
0.0
 11
5602.063589060448
 21
1159.959230296366
 31
0.0
  0
LINE
  5
1F83D
330
747D
100
AcDbEntity
  8
細線
100
AcDbLine
 10
5648.473750574225
 20
1359.959230296372
 30
0.0
 11
5702.063589060448
 21
1159.959230296368
 31
0.0
  0
LINE
  5
1F83E
330
747D
100
AcDbEntity
  8
細線
100
AcDbLine
 10
5748.473750574225
 20
1359.959230296372
 30
0.0
 11
5802.063589060452
 21
1159.959230296368
 31
0.0
  0
LINE
  5
1F83F
330
747D
100
AcDbEntity
  8
細線
100
AcDbLine
 10
5448.473750574225
 20
1359.95923029637
 30
0.0
 11
5502.063589060451
 21
1159.959230296366
 31
0.0
  0
LINE
  5
1F840
330
747D
100
AcDbEntity
  8
部品1
100
AcDbLine
 10
5448.473750574225
 20
1159.959230296368
 30
0.0
 11
5448.473750574225
 21
1459.959230296374
 31
0.0
  0
LINE
  5
1F841
330
747D
100
AcDbEntity
  8
細線
100
AcDbLine
 10
5588.666129438895
 20
1209.95923029637
 30
0.0
 11
5575.268669817337
 21
1159.959230296368
 31
0.0
  0
LINE
  5
1F842
330
747D
100
AcDbEntity
  8
細線
100
AcDbLine
 10
5488.666129438892
 20
1209.95923029637
 30
0.0
 11
5475.268669817336
 21
1159.959230296368
 31
0.0
  0
LINE
  5
1F843
330
747D
100
AcDbEntity
  8
細線
100
AcDbLine
 10
5688.666129438892
 20
1209.959230296372
 30
0.0
 11
5675.268669817341
 21
1159.959230296372
 31
0.0
  0
LINE
  5
1F844
330
747D
100
AcDbEntity
  8
細線
100
AcDbLine
 10
5788.666129438892
 20
1209.959230296372
 30
0.0
 11
5775.268669817336
 21
1159.959230296372
 31
0.0
  0
LINE
  5
1F845
330
747D
100
AcDbEntity
  8
部品1
100
AcDbLine
 10
5548.473750574228
 20
1459.959230296374
 30
0.0
 11
5548.473750574228
 21
1659.959230296372
 31
0.0
  0
LINE
  5
1F846
330
747D
100
AcDbEntity
  8
細線
100
AcDbLine
 10
5710.668195304881
 20
1459.959230296374
 30
0.0
 11
5548.473750574225
 21
1622.153675027026
 31
0.0
  0
LINE
  5
1F847
330
747D
100
AcDbEntity
  8
細線
100
AcDbLine
 10
5575.655051529718
 20
1359.959230296372
 30
0.0
 11
5675.655051529715
 21
1459.959230296374
 31
0.0
  0
LINE
  5
1F848
330
747D
100
AcDbEntity
  8
細線
100
AcDbLine
 10
5668.241788433689
 20
1459.959230296374
 30
0.0
 11
5548.473750574228
 21
1579.727268155833
 31
0.0
  0
LINE
  5
1F849
330
747D
100
AcDbEntity
  8
細線
100
AcDbLine
 10
5547.370780282256
 20
1359.959230296372
 30
0.0
 11
5647.370780282251
 21
1459.959230296374
 31
0.0
  0
LINE
  5
1F84A
330
747D
100
AcDbEntity
  8
細線
100
AcDbLine
 10
5519.086509034792
 20
1359.95923029637
 30
0.0
 11
5619.086509034793
 21
1459.959230296374
 31
0.0
  0
LINE
  5
1F84B
330
747D
100
AcDbEntity
  8
細線
100
AcDbLine
 10
5575.268669817337
 20
1359.95923029637
 30
0.0
 11
5561.871210195781
 21
1309.959230296368
 31
0.0
  0
LINE
  5
1F84C
330
747D
100
AcDbEntity
  8
細線
100
AcDbLine
 10
5475.268669817336
 20
1359.95923029637
 30
0.0
 11
5461.871210195784
 21
1309.959230296368
 31
0.0
  0
LINE
  5
1F84D
330
747D
100
AcDbEntity
  8
細線
100
AcDbLine
 10
5675.268669817341
 20
1359.959230296372
 30
0.0
 11
5661.871210195781
 21
1309.959230296374
 31
0.0
  0
LINE
  5
1F84E
330
747D
100
AcDbEntity
  8
細線
100
AcDbLine
 10
5775.268669817336
 20
1359.959230296372
 30
0.0
 11
5761.871210195785
 21
1309.959230296374
 31
0.0
  0
LINE
  5
1F84F
330
747D
100
AcDbEntity
  8
細線
 48
50.0
100
AcDbLine
 10
6861.307702263201
 20
2259.95923029637
 30
0.0
 11
6861.307702263201
 21
1759.959230296372
 31
0.0
  0
LINE
  5
1F850
330
747D
100
AcDbEntity
  8
細線
 48
50.0
100
AcDbLine
 10
6891.307702263201
 20
2259.95923029637
 30
0.0
 11
6891.307702263201
 21
1759.959230296372
 31
0.0
  0
LINE
  5
1F851
330
747D
100
AcDbEntity
  8
細線
 48
50.0
100
AcDbLine
 10
7171.307702263201
 20
2259.95923029637
 30
0.0
 11
7171.307702263201
 21
1759.959230296372
 31
0.0
  0
LINE
  5
1F852
330
747D
100
AcDbEntity
  8
細線
 48
50.0
100
AcDbLine
 10
7141.307702263201
 20
2259.95923029637
 30
0.0
 11
7141.307702263201
 21
1759.959230296372
 31
0.0
  0
LINE
  5
1F853
330
747D
100
AcDbEntity
  8
部品1
 48
50.0
100
AcDbLine
 10
8223.599999999999
 20
2679.198442684617
 30
0.0
 11
8223.599999999999
 21
519.1984426846175
 31
0.0
  0
LINE
  5
1F854
330
747D
100
AcDbEntity
  8
部品1
 48
50.0
100
AcDbLine
 10
6623.6
 20
2919.198442684617
 30
0.0
 11
6623.6
 21
519.1984426846175
 31
0.0
  0
LINE
  5
1F855
330
747D
100
AcDbEntity
  8
部品1
100
AcDbLine
 10
7406.3077022632
 20
2259.95923029637
 30
0.0
 11
7406.3077022632
 21
1459.959230296372
 31
0.0
  0
LINE
  5
1F856
330
747D
100
AcDbEntity
  8
部品1
100
AcDbLine
 10
7296.307702263201
 20
2259.95923029637
 30
0.0
 11
7296.307702263205
 21
1753.959230296374
 31
0.0
  0
LINE
  5
1F857
330
747D
100
AcDbEntity
  8
部品1
100
AcDbLine
 10
6691.053269019606
 20
1753.959230296372
 30
0.0
 11
7406.3077022632
 21
1753.959230296372
 31
0.0
  0
DIMENSION
  5
1F858
330
747D
100
AcDbEntity
  8
寸法
 48
50.0
100
AcDbDimension
  2
*D24
 10
7054.416031637216
 20
959.9592302963719
 30
0.0
 11
7054.416031637216
 21
1207.619605674837
 31
0.0
 70
   160
  1
200\P(250)
 71
     5
 42
500.0
  3
INABA_S40G
100
AcDbAlignedDimension
 13
7006.3077022632
 23
1459.959230296372
 33
0.0
 14
7106.3077022632
 24
959.9592302963719
 34
0.0
 50
90.0
100
AcDbRotatedDimension
1001
ACAD
1000
DSTYLE
1002
{
1070
   174
1070
     0
1070
   272
1070
     1
1070
   288
1070
     0
1070
   341
1005
0
1002
}
  0
LINE
  5
1F859
330
747D
100
AcDbEntity
  8
Ｇ．Ｌ
100
AcDbLine
 10
6691.053269019606
 20
1459.959230296372
 30
0.0
 11
7326.3077022632
 21
1459.959230296372
 31
0.0
  0
LINE
  5
1F85A
330
747D
100
AcDbEntity
  8
部品1
100
AcDbLine
 10
6691.053269019606
 20
1659.959230296372
 30
0.0
 11
7326.3077022632
 21
1659.959230296372
 31
0.0
  0
LINE
  5
1F85B
330
747D
100
AcDbEntity
  8
部品1
100
AcDbLine
 10
6691.053269019606
 20
1759.959230296374
 30
0.0
 11
7296.307702263201
 21
1759.959230296372
 31
0.0
  0
LINE
  5
1F85C
330
747D
100
AcDbEntity
  8
細線
100
AcDbLine
 10
5948.473750574225
 20
1359.959230296372
 30
0.0
 11
6002.063589060448
 21
1159.959230296372
 31
0.0
  0
LINE
  5
1F85D
330
747D
100
AcDbEntity
  8
細線
100
AcDbLine
 10
5848.473750574228
 20
1359.959230296372
 30
0.0
 11
5902.063589060448
 21
1159.959230296368
 31
0.0
  0
LINE
  5
1F85E
330
747D
100
AcDbEntity
  8
部品1
100
AcDbLine
 10
6048.473750574225
 20
1459.959230296374
 30
0.0
 11
6048.473750574225
 21
1159.959230296372
 31
0.0
  0
LINE
  5
1F85F
330
747D
100
AcDbEntity
  8
細線
100
AcDbLine
 10
5988.666129438892
 20
1209.959230296372
 30
0.0
 11
5975.26866981734
 21
1159.959230296372
 31
0.0
  0
LINE
  5
1F860
330
747D
100
AcDbEntity
  8
細線
100
AcDbLine
 10
5888.666129438895
 20
1209.959230296372
 30
0.0
 11
5875.268669817336
 21
1159.959230296372
 31
0.0
  0
TEXT
  5
1F861
330
747D
100
AcDbEntity
  8
部品1
100
AcDbText
 10
6171.726376441655
 20
1467.865271975277
 30
0.0
 40
120.0
  1
▽G.L
  7
STYLE1
100
AcDbText
  0
LINE
  5
1F862
330
747D
100
AcDbEntity
  8
部品1
100
AcDbLine
 10
5948.473750574225
 20
1659.959230296372
 30
0.0
 11
5948.473750574225
 21
1459.959230296374
 31
0.0
  0
LINE
  5
1F863
330
747D
100
AcDbEntity
  8
細線
100
AcDbLine
 10
5875.655051529715
 20
1359.959230296372
 30
0.0
 11
5975.655051529715
 21
1459.959230296374
 31
0.0
  0
LINE
  5
1F864
330
747D
100
AcDbEntity
  8
細線
100
AcDbLine
 10
5847.370780282256
 20
1359.959230296372
 30
0.0
 11
5947.370780282252
 21
1459.959230296374
 31
0.0
  0
LINE
  5
1F865
330
747D
100
AcDbEntity
  8
細線
100
AcDbLine
 10
5975.26866981734
 20
1359.959230296372
 30
0.0
 11
5961.871210195781
 21
1309.959230296374
 31
0.0
  0
LINE
  5
1F866
330
747D
100
AcDbEntity
  8
細線
100
AcDbLine
 10
5875.268669817336
 20
1359.959230296372
 30
0.0
 11
5861.871210195781
 21
1309.959230296374
 31
0.0
  0
LINE
  5
1F867
330
747D
100
AcDbEntity
  8
部品1
 48
50.0
100
AcDbLine
 10
7606.3077022632
 20
959.9592302963738
 30
0.0
 11
7106.3077022632
 21
959.9592302963719
 31
0.0
  0
TEXT
  5
1F868
330
747D
100
AcDbEntity
  8
部品1
100
AcDbText
 10
7790.871249332811
 20
1467.865271975275
 30
0.0
 40
120.0
  1
▽G.L
  7
STYLE1
100
AcDbText
  0
LINE
  5
1F869
330
747D
100
AcDbEntity
  8
細線
  6
HIDDEN
 48
10.0
100
AcDbLine
 10
7341.034431165159
 20
959.9592302963719
 30
0.0
 11
7606.3077022632
 21
1225.232501394423
 31
0.0
  0
LINE
  5
1F86A
330
747D
100
AcDbEntity
  8
細線
  6
HIDDEN
 48
10.0
100
AcDbLine
 10
7312.750159917699
 20
959.9592302963719
 30
0.0
 11
7606.3077022632
 21
1253.516772641884
 31
0.0
  0
LINE
  5
1F86B
330
747D
100
AcDbEntity
  8
細線
  6
HIDDEN
 48
10.0
100
AcDbLine
 10
7369.318702412619
 20
959.9592302963719
 30
0.0
 11
7606.3077022632
 21
1196.94823014696
 31
0.0
  0
LINE
  5
1F86C
330
747D
100
AcDbEntity
  8
Ｇ．Ｌ
100
AcDbLine
 10
7406.3077022632
 20
1459.959230296372
 30
0.0
 11
8158.403944501539
 21
1459.959230296372
 31
0.0
  0
LINE
  5
1F86D
330
747D
100
AcDbEntity
  8
部品1
 48
50.0
100
AcDbLine
 10
7106.3077022632
 20
959.9592302963719
 30
0.0
 11
7106.3077022632
 21
1459.959230296372
 31
0.0
  0
LINE
  5
1F86E
330
747D
100
AcDbEntity
  8
細線
  6
HIDDEN
 48
10.0
100
AcDbLine
 10
7106.3077022632
 20
1151.890890247245
 30
0.0
 11
7319.570028216434
 21
1365.15321620049
 31
0.0
  0
LINE
  5
1F86F
330
747D
100
AcDbEntity
  8
細線
  6
HIDDEN
 48
10.0
100
AcDbLine
 10
7106.3077022632
 20
1180.175161494704
 30
0.0
 11
7322.786928413037
 21
1396.654387644548
 31
0.0
  0
LINE
  5
1F870
330
747D
100
AcDbEntity
  8
細線
  6
HIDDEN
 48
10.0
100
AcDbLine
 10
7106.3077022632
 20
1123.60661899978
 30
0.0
 11
7316.353128019824
 21
1333.652044756425
 31
0.0
  0
LINE
  5
1F871
330
747D
100
AcDbEntity
  8
部品1
100
AcDbLine
 10
7325.410933255132
 20
1422.349690995274
 30
0.0
 11
7296.307702263201
 21
1137.359230296371
 31
0.0
  0
LINE
  5
1F872
330
747D
100
AcDbEntity
  8
部品1
100
AcDbLine
 10
7407.204471271277
 20
1422.349690995274
 30
0.0
 11
7436.307702263201
 21
1137.359230296371
 31
0.0
  0
LINE
  5
1F873
330
747D
100
AcDbEntity
  8
部品1
100
AcDbLine
 10
7296.307702263201
 20
1137.359230296371
 30
0.0
 11
7436.307702263201
 21
1137.359230296371
 31
0.0
  0
LINE
  5
1F874
330
747D
100
AcDbEntity
  8
部品1
100
AcDbLine
 10
7296.307702263201
 20
1125.359230296371
 30
0.0
 11
7436.307702263201
 21
1125.359230296371
 31
0.0
  0
LINE
  5
1F875
330
747D
100
AcDbEntity
  8
部品1
100
AcDbLine
 10
7296.307702263201
 20
1137.35923029637
 30
0.0
 11
7296.307702263201
 21
1125.359230296371
 31
0.0
  0
LINE
  5
1F876
330
747D
100
AcDbEntity
  8
細線
100
AcDbLine
 10
7351.3077022632
 20
1149.359230296373
 30
0.0
 11
7381.3077022632
 21
1149.359230296369
 31
0.0
  0
LINE
  5
1F877
330
747D
100
AcDbEntity
  8
細線
100
AcDbLine
 10
7351.3077022632
 20
1155.359230296373
 30
0.0
 11
7381.3077022632
 21
1155.35923029637
 31
0.0
  0
LINE
  5
1F878
330
747D
100
AcDbEntity
  8
細線
100
AcDbLine
 10
7351.3077022632
 20
1195.359230296375
 30
0.0
 11
7381.3077022632
 21
1195.35923029637
 31
0.0
  0
LINE
  5
1F879
330
747D
100
AcDbEntity
  8
細線
100
AcDbLine
 10
7351.3077022632
 20
1189.359230296375
 30
0.0
 11
7381.3077022632
 21
1189.35923029637
 31
0.0
  0
LINE
  5
1F87A
330
747D
100
AcDbEntity
  8
細線
100
AcDbLine
 10
7351.3077022632
 20
1155.359230296373
 30
0.0
 11
7351.3077022632
 21
1149.359230296369
 31
0.0
  0
LINE
  5
1F87B
330
747D
100
AcDbEntity
  8
細線
100
AcDbLine
 10
7351.3077022632
 20
1195.359230296375
 30
0.0
 11
7351.3077022632
 21
1189.35923029637
 31
0.0
  0
LINE
  5
1F87C
330
747D
100
AcDbEntity
  8
細線
100
AcDbLine
 10
7381.3077022632
 20
1155.359230296368
 30
0.0
 11
7381.3077022632
 21
1149.359230296368
 31
0.0
  0
LINE
  5
1F87D
330
747D
100
AcDbEntity
  8
細線
100
AcDbLine
 10
7381.3077022632
 20
1195.359230296366
 30
0.0
 11
7381.3077022632
 21
1189.359230296366
 31
0.0
  0
LINE
  5
1F87E
330
747D
100
AcDbEntity
  8
部品1
100
AcDbLine
 10
7436.307702263201
 20
1137.359230296371
 30
0.0
 11
7436.307702263201
 21
1125.359230296371
 31
0.0
  0
LINE
  5
1F87F
330
747D
100
AcDbEntity
  8
細線
100
AcDbLine
 10
7134.762371826592
 20
1459.959230296372
 30
0.0
 11
7006.3077022632
 21
1588.413899859764
 31
0.0
  0
LINE
  5
1F880
330
747D
100
AcDbEntity
  8
細線
100
AcDbLine
 10
7318.610134935096
 20
1459.959230296372
 30
0.0
 11
7118.610134935096
 21
1659.959230296372
 31
0.0
  0
LINE
  5
1F881
330
747D
100
AcDbEntity
  8
部品1
100
AcDbLine
 10
7006.3077022632
 20
1459.959230296372
 30
0.0
 11
7006.3077022632
 21
1659.959230296372
 31
0.0
  0
LINE
  5
1F882
330
747D
100
AcDbEntity
  8
細線
100
AcDbLine
 10
7092.335964955399
 20
1459.959230296372
 30
0.0
 11
7006.3077022632
 21
1545.987492988572
 31
0.0
  0
LINE
  5
1F883
330
747D
100
AcDbEntity
  8
細線
100
AcDbLine
 10
7326.3077022632
 20
1494.68806983946
 30
0.0
 11
7161.036541806288
 21
1659.959230296372
 31
0.0
  0
LINE
  5
1F884
330
747D
100
AcDbEntity
  8
部品1
100
AcDbLine
 10
7406.3077022632
 20
1722.959230296372
 30
0.0
 11
7406.307702263204
 21
1425.60469928438
 31
0.0
  0
LINE
  5
1F885
330
747D
100
AcDbEntity
  8
部品1
100
AcDbLine
 10
7326.3077022632
 20
1723.959230296372
 30
0.0
 11
7326.3077022632
 21
1425.60469928438
 31
0.0
  0
LINE
  5
1F886
330
747D
100
AcDbEntity
  8
部品1
100
AcDbLine
 10
7335.361761743445
 20
1431.359230296371
 30
0.0
 11
7397.253642782956
 21
1431.359230296366
 31
0.0
  0
ARC
  5
1F887
330
747D
100
AcDbEntity
  8
部品1
100
AcDbCircle
 10
7335.361761743445
 20
1421.35923029637
 30
0.0
 40
10.0
100
AcDbArc
 50
90.0
 51
174.3157584018188
  0
LINE
  5
1F888
330
747D
100
AcDbEntity
  8
細線
  6
HIDDEN
 48
10.0
100
AcDbLine
 10
7406.3077022632
 20
1451.890890247259
 30
0.0
 11
7414.376042312316
 21
1459.959230296372
 31
0.0
  0
LINE
  5
1F889
330
747D
100
AcDbEntity
  8
細線
  6
HIDDEN
 48
10.0
100
AcDbLine
 10
7406.855147920089
 20
1424.15406465669
 30
0.0
 11
7442.66031355977
 21
1459.959230296374
 31
0.0
  0
ARC
  5
1F88A
330
747D
100
AcDbEntity
  8
部品1
100
AcDbCircle
 10
7397.253642782956
 20
1421.359230296366
 30
0.0
 40
10.0
100
AcDbArc
 50
5.684241598181141
 51
90.0
  0
CIRCLE
  5
1F88B
330
747D
100
AcDbEntity
  8
細線
100
AcDbCircle
 10
7366.307702263201
 20
1563.959230296374
 30
0.0
 40
6.0
  0
CIRCLE
  5
1F88C
330
747D
100
AcDbEntity
  8
細線
100
AcDbCircle
 10
7366.307702263201
 20
1563.959230296374
 30
0.0
 40
7.0
  0
CIRCLE
  5
1F88D
330
747D
100
AcDbEntity
  8
細線
100
AcDbCircle
 10
7366.307702263201
 20
1408.959230296372
 30
0.0
 40
16.0
  0
LINE
  5
1F88E
330
747D
100
AcDbEntity
  8
細線
100
AcDbLine
 10
7351.3077022632
 20
1339.359230296373
 30
0.0
 11
7352.307702263201
 21
1339.359230296373
 31
0.0
  0
LINE
  5
1F88F
330
747D
100
AcDbEntity
  8
細線
100
AcDbLine
 10
7351.3077022632
 20
1345.359230296373
 30
0.0
 11
7381.3077022632
 21
1345.35923029637
 31
0.0
  0
ARC
  5
1F890
330
747D
100
AcDbEntity
  8
細線
100
AcDbCircle
 10
7366.307702263201
 20
1369.359230296368
 30
0.0
 40
8.0
100
AcDbArc
 50
180.0
 51
0.0
  0
LINE
  5
1F891
330
747D
100
AcDbEntity
  8
細線
100
AcDbLine
 10
7351.3077022632
 20
1345.359230296373
 30
0.0
 11
7351.3077022632
 21
1339.35923029637
 31
0.0
  0
LINE
  5
1F892
330
747D
100
AcDbEntity
  8
細線
100
AcDbLine
 10
7351.3077022632
 20
1343.959230296366
 30
0.0
 11
7381.3077022632
 21
1343.959230296372
 31
0.0
  0
LINE
  5
1F893
330
747D
100
AcDbEntity
  8
細線
100
AcDbLine
 10
7358.430807888822
 20
1327.359230296362
 30
0.0
 11
7374.184596637586
 21
1327.359230296368
 31
0.0
  0
LINE
  5
1F894
330
747D
100
AcDbEntity
  8
細線
100
AcDbLine
 10
7352.307702263201
 20
1343.959230296366
 30
0.0
 11
7352.307702263201
 21
1339.35923029637
 31
0.0
  0
LINE
  5
1F895
330
747D
100
AcDbEntity
  8
細線
100
AcDbLine
 10
7352.307702263201
 20
1339.359230296368
 30
0.0
 11
7354.550237888239
 21
1330.389087796218
 31
0.0
  0
ARC
  5
1F896
330
747D
100
AcDbEntity
  8
細線
100
AcDbCircle
 10
7358.430807888822
 20
1331.359230296364
 30
0.0
 40
4.0
100
AcDbArc
 50
194.0362434679415
 51
270.0
  0
LINE
  5
1F897
330
747D
100
AcDbEntity
  8
細線
100
AcDbLine
 10
7380.307702263201
 20
1343.959230296368
 30
0.0
 11
7380.307702263201
 21
1339.35923029637
 31
0.0
  0
LINE
  5
1F898
330
747D
100
AcDbEntity
  8
細線
100
AcDbLine
 10
7380.307702263201
 20
1339.359230296368
 30
0.0
 11
7378.065166638162
 21
1330.389087796218
 31
0.0
  0
ARC
  5
1F899
330
747D
100
AcDbEntity
  8
細線
100
AcDbCircle
 10
7374.184596637586
 20
1331.359230296366
 30
0.0
 40
4.0
100
AcDbArc
 50
270.0
 51
345.9637565320584
  0
LINE
  5
1F89A
330
747D
100
AcDbEntity
  8
細線
100
AcDbLine
 10
7381.3077022632
 20
1345.359230296368
 30
0.0
 11
7381.3077022632
 21
1339.359230296368
 31
0.0
  0
LINE
  5
1F89B
330
747D
100
AcDbEntity
  8
細線
100
AcDbLine
 10
7380.307702263201
 20
1339.359230296373
 30
0.0
 11
7381.3077022632
 21
1339.35923029637
 31
0.0
  0
LINE
  5
1F89C
330
747D
100
AcDbEntity
  8
細線
100
AcDbLine
 10
7374.307702263201
 20
1395.102823835821
 30
0.0
 11
7374.307702263201
 21
1369.359230296368
 31
0.0
  0
LINE
  5
1F89D
330
747D
100
AcDbEntity
  8
細線
100
AcDbLine
 10
7358.307702263201
 20
1395.102823835821
 30
0.0
 11
7358.307702263201
 21
1369.359230296368
 31
0.0
  0
LINE
  5
1F89E
330
747D
100
AcDbEntity
  8
部品1
100
AcDbLine
 10
7336.307702263201
 20
1733.959230296372
 30
0.0
 11
7396.3077022632
 21
1733.959230296372
 31
0.0
  0
ARC
  5
1F89F
330
747D
100
AcDbEntity
  8
部品1
100
AcDbCircle
 10
7336.307702263201
 20
1723.959230296372
 30
0.0
 40
10.0
100
AcDbArc
 50
90.0
 51
180.0
  0
ARC
  5
1F8A0
330
747D
100
AcDbEntity
  8
細線
100
AcDbCircle
 10
7366.307702263201
 20
1673.959230296372
 30
0.0
 40
8.0
100
AcDbArc
 50
0.0
 51
180.0
  0
ARC
  5
1F8A1
330
747D
100
AcDbEntity
  8
細線
100
AcDbCircle
 10
7366.307702263201
 20
1633.959230296372
 30
0.0
 40
8.0
100
AcDbArc
 50
180.0
 51
0.0
  0
LINE
  5
1F8A2
330
747D
100
AcDbEntity
  8
細線
100
AcDbLine
 10
7358.307702263201
 20
1673.959230296372
 30
0.0
 11
7358.307702263201
 21
1633.959230296372
 31
0.0
  0
LINE
  5
1F8A3
330
747D
100
AcDbEntity
  8
細線
100
AcDbLine
 10
7374.307702263201
 20
1673.959230296372
 30
0.0
 11
7374.307702263201
 21
1633.959230296372
 31
0.0
  0
ARC
  5
1F8A4
330
747D
100
AcDbEntity
  8
部品1
100
AcDbCircle
 10
7396.3077022632
 20
1723.959230296372
 30
0.0
 40
10.0
100
AcDbArc
 50
0.0
 51
90.0
  0
CIRCLE
  5
1F8A5
330
747D
100
AcDbEntity
  8
部品1
100
AcDbCircle
 10
7366.307702263201
 20
1703.959230296372
 30
0.0
 40
16.0
  0
LINE
  5
1F8A6
330
747D
100
AcDbEntity
  8
部品1
 48
50.0
100
AcDbLine
 10
7606.3077022632
 20
1459.959230296372
 30
0.0
 11
7606.3077022632
 21
959.9592302963738
 31
0.0
  0
TEXT
  5
1F8A7
330
747D
100
AcDbEntity
  8
部品1
100
AcDbText
 10
6835.75336143857
 20
2497.483559025821
 30
0.0
 40
120.0
  1
地盤が土の場合
  7
STYLE2
100
AcDbText
  0
TEXT
  5
1F8A8
330
747D
100
AcDbEntity
  8
部品1
100
AcDbText
 10
10969.76604264107
 20
1467.865271975275
 30
0.0
 40
120.0
  1
▽G.L
  7
STYLE1
100
AcDbText
  0
LINE
  5
1F8A9
330
747D
100
AcDbEntity
  8
細線
 48
10.0
100
AcDbLine
 10
10990.48749762792
 20
1153.041032957087
 30
0.0
 11
11297.40569496721
 21
1459.959230296372
 31
0.0
  0
LINE
  5
1F8AA
330
747D
100
AcDbEntity
  8
細線
 48
10.0
100
AcDbLine
 10
10962.20322638046
 20
1153.041032957087
 30
0.0
 11
11269.12142371973
 21
1459.959230296372
 31
0.0
  0
LINE
  5
1F8AB
330
747D
100
AcDbEntity
  8
細線
 48
10.0
100
AcDbLine
 10
10933.918955133
 20
1153.041032957087
 30
0.0
 11
11240.83715247228
 21
1459.959230296372
 31
0.0
  0
LINE
  5
1F8AC
330
747D
100
AcDbEntity
  8
Ｇ．Ｌ
100
AcDbLine
 10
9896.898411190575
 20
1459.959230296372
 30
0.0
 11
11341.79011319572
 21
1459.959230296372
 31
0.0
  0
LINE
  5
1F8AD
330
747D
100
AcDbEntity
  8
部品1
100
AcDbLine
 10
10409.69580798928
 20
2359.95923029637
 30
0.0
 11
10409.69580798928
 21
1853.959230296373
 31
0.0
  0
LINE
  5
1F8AE
330
747D
100
AcDbEntity
  8
部品1
100
AcDbLine
 10
10519.69580798928
 20
2359.95923029637
 30
0.0
 11
10519.69580798928
 21
1860.204699284379
 31
0.0
  0
LINE
  5
1F8AF
330
747D
100
AcDbEntity
  8
細線
 48
50.0
100
AcDbLine
 10
9974.695807989279
 20
2359.95923029637
 30
0.0
 11
9974.695807989279
 21
1859.959230296374
 31
0.0
  0
LINE
  5
1F8B0
330
747D
100
AcDbEntity
  8
細線
 48
50.0
100
AcDbLine
 10
10004.69580798928
 20
2359.95923029637
 30
0.0
 11
10004.69580798928
 21
1859.959230296374
 31
0.0
  0
LINE
  5
1F8B1
330
747D
100
AcDbEntity
  8
細線
 48
50.0
100
AcDbLine
 10
10254.69580798928
 20
2359.95923029637
 30
0.0
 11
10254.69580798928
 21
1859.959230296374
 31
0.0
  0
LINE
  5
1F8B2
330
747D
100
AcDbEntity
  8
細線
 48
50.0
100
AcDbLine
 10
10284.69580798928
 20
2359.95923029637
 30
0.0
 11
10284.69580798928
 21
1859.959230296374
 31
0.0
  0
LINE
  5
1F8B3
330
747D
100
AcDbEntity
  8
部品1
100
AcDbLine
 10
8899.363203276301
 20
2259.959230296372
 30
0.0
 11
8899.363203276307
 21
1753.959230296375
 31
0.0
  0
LINE
  5
1F8B4
330
747D
100
AcDbEntity
  8
細線
 48
50.0
100
AcDbLine
 10
8774.363203276299
 20
2259.959230296372
 30
0.0
 11
8774.363203276299
 21
1759.959230296374
 31
0.0
  0
LINE
  5
1F8B5
330
747D
100
AcDbEntity
  8
細線
 48
50.0
100
AcDbLine
 10
8744.363203276298
 20
2259.959230296372
 30
0.0
 11
8744.363203276298
 21
1759.959230296374
 31
0.0
  0
LINE
  5
1F8B6
330
747D
100
AcDbEntity
  8
細線
 48
50.0
100
AcDbLine
 10
8494.363203276298
 20
2259.959230296372
 30
0.0
 11
8494.363203276298
 21
1759.959230296374
 31
0.0
  0
LINE
  5
1F8B7
330
747D
100
AcDbEntity
  8
細線
 48
50.0
100
AcDbLine
 10
8464.363203276297
 20
2259.959230296372
 30
0.0
 11
8464.363203276297
 21
1759.959230296374
 31
0.0
  0
LINE
  5
1F8B8
330
747D
100
AcDbEntity
  8
部品1
100
AcDbLine
 10
9009.363203276301
 20
2259.959230296372
 30
0.0
 11
9009.363203276306
 21
1760.204699284379
 31
0.0
  0
LINE
  5
1F8B9
330
747D
100
AcDbEntity
  8
部品1
 48
50.0
100
AcDbLine
 10
9823.599999999998
 20
2439.198442684618
 30
0.0
 11
9823.599999999998
 21
519.1984426846175
 31
0.0
  0
LINE
  5
1F8BA
330
747D
100
AcDbEntity
  8
細線
 48
10.0
100
AcDbLine
 10
8906.499067006688
 20
1153.041032957087
 30
0.0
 11
9213.417264345961
 21
1459.959230296372
 31
0.0
  0
LINE
  5
1F8BB
330
747D
100
AcDbEntity
  8
細線
 48
10.0
100
AcDbLine
 10
8878.214795759229
 20
1153.041032957087
 30
0.0
 11
9185.132993098502
 21
1459.959230296372
 31
0.0
  0
LINE
  5
1F8BC
330
747D
100
AcDbEntity
  8
細線
 48
10.0
100
AcDbLine
 10
8934.783338254151
 20
1153.041032957087
 30
0.0
 11
9241.701535593426
 21
1459.959230296372
 31
0.0
  0
DIMENSION
  5
1F8BD
330
747D
100
AcDbEntity
  8
寸法
 48
50.0
100
AcDbDimension
  2
*D25
 10
9242.127213844709
 20
1459.959230296372
 30
0.0
 11
9142.127213844709
 21
1559.959230296374
 31
0.0
 70
    32
  1
b
 71
     5
 42
200.0000000000018
  3
INABA_S40G
100
AcDbAlignedDimension
 13
9019.91396638181
 23
1659.959230296374
 33
0.0
 14
9039.363203276298
 24
1459.959230296372
 34
0.0
 50
90.0
100
AcDbRotatedDimension
1001
ACAD
1000
DSTYLE
1002
{
1070
   174
1070
     0
1070
   272
1070
     1
1070
   288
1070
     0
1070
   341
1005
0
1002
}
  0
LINE
  5
1F8BE
330
747D
100
AcDbEntity
  8
Ｇ．Ｌ
100
AcDbLine
 10
8294.108770032709
 20
1459.959230296372
 30
0.0
 11
9758.144008796989
 21
1459.959230296372
 31
0.0
  0
LINE
  5
1F8BF
330
747D
100
AcDbEntity
  8
細線
 48
10.0
100
AcDbLine
 10
8479.840678153866
 20
1153.041032957087
 30
0.0
 11
8786.758875493134
 21
1459.959230296372
 31
0.0
  0
LINE
  5
1F8C0
330
747D
100
AcDbEntity
  8
細線
 48
10.0
100
AcDbLine
 10
8451.556406906403
 20
1153.041032957087
 30
0.0
 11
8758.474604245678
 21
1459.959230296372
 31
0.0
  0
LINE
  5
1F8C1
330
747D
100
AcDbEntity
  8
細線
 48
10.0
100
AcDbLine
 10
8508.124949401327
 20
1153.041032957087
 30
0.0
 11
8815.043146740586
 21
1459.959230296372
 31
0.0
  0
LINE
  5
1F8C2
330
747D
100
AcDbEntity
  8
部品1
100
AcDbLine
 10
8294.108770032705
 20
1659.959230296374
 30
0.0
 11
8918.561766670544
 21
1659.959230296374
 31
0.0
  0
LINE
  5
1F8C3
330
747D
100
AcDbEntity
  8
部品1
100
AcDbLine
 10
8294.108770032705
 20
1759.959230296376
 30
0.0
 11
8899.363203276301
 21
1759.959230296374
 31
0.0
  0
LINE
  5
1F8C4
330
747D
100
AcDbEntity
  8
部品1
100
AcDbLine
 10
8294.108770032705
 20
1753.959230296375
 30
0.0
 11
8928.161048367662
 21
1753.959230296375
 31
0.0
  0
LINE
  5
1F8C5
330
747D
100
AcDbEntity
  8
細線
100
AcDbLine
 10
8695.391465968496
 20
1459.959230296372
 30
0.0
 11
8609.363203276299
 21
1545.987492988572
 31
0.0
  0
LINE
  5
1F8C6
330
747D
100
AcDbEntity
  8
細線
100
AcDbLine
 10
8737.81787283969
 20
1459.959230296372
 30
0.0
 11
8609.363203276299
 21
1588.413899859764
 31
0.0
  0
LINE
  5
1F8C7
330
747D
100
AcDbEntity
  8
部品1
100
AcDbLine
 10
8609.363203276299
 20
1459.959230296372
 30
0.0
 11
8609.363203276299
 21
1659.959230296374
 31
0.0
  0
LINE
  5
1F8C8
330
747D
100
AcDbEntity
  8
細線
 48
10.0
100
AcDbLine
 10
8294.108770032705
 20
1422.251784936237
 30
0.0
 11
8331.816215392843
 21
1459.959230296372
 31
0.0
  0
LINE
  5
1F8C9
330
747D
100
AcDbEntity
  8
細線
 48
10.0
100
AcDbLine
 10
8294.108770032709
 20
1365.683242441322
 30
0.0
 11
8388.384757887747
 21
1459.959230296372
 31
0.0
  0
LINE
  5
1F8CA
330
747D
100
AcDbEntity
  8
細線
 48
10.0
100
AcDbLine
 10
8294.108770032709
 20
1393.967513688782
 30
0.0
 11
8360.100486640295
 21
1459.959230296372
 31
0.0
  0
LINE
  5
1F8CB
330
747D
100
AcDbEntity
  8
細線
100
AcDbLine
 10
8900.317804039579
 20
1481.307062204987
 30
0.0
 11
8721.665635948193
 21
1659.959230296372
 31
0.0
  0
LINE
  5
1F8CC
330
747D
100
AcDbEntity
  8
細線
100
AcDbLine
 10
8904.248941633218
 20
1519.802331482544
 30
0.0
 11
8764.092042819386
 21
1659.959230296372
 31
0.0
  0
LINE
  5
1F8CD
330
747D
100
AcDbEntity
  8
部品1
100
AcDbLine
 10
9010.259972284373
 20
1756.949690995274
 30
0.0
 11
9039.363203276298
 21
1471.959230296372
 31
0.0
  0
LINE
  5
1F8CE
330
747D
100
AcDbEntity
  8
部品1
100
AcDbLine
 10
8928.46643426823
 20
1756.949690995274
 30
0.0
 11
8899.363203276299
 21
1471.959230296372
 31
0.0
  0
LINE
  5
1F8CF
330
747D
100
AcDbEntity
  8
部品1
100
AcDbLine
 10
8899.363203276299
 20
1471.959230296372
 30
0.0
 11
9039.363203276298
 21
1471.959230296372
 31
0.0
  0
LINE
  5
1F8D0
330
747D
100
AcDbEntity
  8
部品1
100
AcDbLine
 10
8899.363203276299
 20
1459.959230296372
 30
0.0
 11
9039.363203276298
 21
1459.959230296372
 31
0.0
  0
LINE
  5
1F8D1
330
747D
100
AcDbEntity
  8
部品1
100
AcDbLine
 10
8899.363203276299
 20
1471.959230296372
 30
0.0
 11
8899.363203276299
 21
1459.959230296372
 31
0.0
  0
LINE
  5
1F8D2
330
747D
100
AcDbEntity
  8
部品1
100
AcDbLine
 10
8954.363203276299
 20
1526.359230296375
 30
0.0
 11
8984.363203276299
 21
1526.359230296375
 31
0.0
  0
LINE
  5
1F8D3
330
747D
100
AcDbEntity
  8
部品1
100
AcDbLine
 10
8954.363203276299
 20
1532.359230296375
 30
0.0
 11
8984.363203276299
 21
1532.359230296375
 31
0.0
  0
LINE
  5
1F8D4
330
747D
100
AcDbEntity
  8
部品1
100
AcDbLine
 10
8954.363203276299
 20
1492.359230296375
 30
0.0
 11
8959.363203276298
 21
1492.359230296375
 31
0.0
  0
LINE
  5
1F8D5
330
747D
100
AcDbEntity
  8
部品1
100
AcDbLine
 10
8954.363203276299
 20
1532.359230296375
 30
0.0
 11
8954.363203276299
 21
1526.359230296375
 31
0.0
  0
LINE
  5
1F8D6
330
747D
100
AcDbEntity
  8
部品1
100
AcDbLine
 10
8954.363203276299
 20
1492.359230296375
 30
0.0
 11
8954.363203276299
 21
1490.959230296374
 31
0.0
  0
LINE
  5
1F8D7
330
747D
100
AcDbEntity
  8
部品1
100
AcDbLine
 10
9039.363203276298
 20
1471.959230296372
 30
0.0
 11
9039.363203276298
 21
1459.959230296372
 31
0.0
  0
LINE
  5
1F8D8
330
747D
100
AcDbEntity
  8
部品1
100
AcDbLine
 10
8984.363203276299
 20
1532.359230296371
 30
0.0
 11
8984.363203276299
 21
1526.359230296371
 31
0.0
  0
LINE
  5
1F8D9
330
747D
100
AcDbEntity
  8
部品1
100
AcDbLine
 10
8984.363203276299
 20
1492.35923029637
 30
0.0
 11
8984.363203276299
 21
1490.959230296374
 31
0.0
  0
LINE
  5
1F8DA
330
747D
100
AcDbEntity
  8
部品1
100
AcDbLine
 10
8939.363203276299
 20
1474.959230296372
 30
0.0
 11
8999.363203276299
 21
1474.959230296377
 31
0.0
  0
LINE
  5
1F8DB
330
747D
100
AcDbEntity
  8
部品1
100
AcDbLine
 10
8959.363203276298
 20
1511.959230296374
 30
0.0
 11
8979.363203276298
 21
1511.959230296374
 31
0.0
  0
LINE
  5
1F8DC
330
747D
100
AcDbEntity
  8
部品1
100
AcDbLine
 10
8959.363203276298
 20
1474.959230296372
 30
0.0
 11
8959.363203276298
 21
1511.959230296374
 31
0.0
  0
LINE
  5
1F8DD
330
747D
100
AcDbEntity
  8
部品1
100
AcDbLine
 10
8979.363203276298
 20
1474.959230296372
 30
0.0
 11
8979.363203276298
 21
1511.959230296374
 31
0.0
  0
LINE
  5
1F8DE
330
747D
100
AcDbEntity
  8
部品1
100
AcDbLine
 10
8952.363203276297
 20
1490.959230296374
 30
0.0
 11
8986.363203276297
 21
1490.959230296374
 31
0.0
  0
LINE
  5
1F8DF
330
747D
100
AcDbEntity
  8
部品1
100
AcDbLine
 10
8949.363203276298
 20
1474.959230296372
 30
0.0
 11
8949.363203276298
 21
1487.959230296374
 31
0.0
  0
LINE
  5
1F8E0
330
747D
100
AcDbEntity
  8
部品1
100
AcDbLine
 10
8989.363203276298
 20
1474.959230296377
 30
0.0
 11
8989.363203276298
 21
1487.959230296374
 31
0.0
  0
LINE
  5
1F8E1
330
747D
100
AcDbEntity
  8
部品1
100
AcDbLine
 10
8952.363203276297
 20
1490.959230296374
 30
0.0
 11
8949.363203276298
 21
1487.959230296374
 31
0.0
  0
LINE
  5
1F8E2
330
747D
100
AcDbEntity
  8
部品1
100
AcDbLine
 10
8986.363203276297
 20
1490.959230296374
 30
0.0
 11
8989.363203276298
 21
1487.959230296374
 31
0.0
  0
LINE
  5
1F8E3
330
747D
100
AcDbEntity
  8
部品1
100
AcDbLine
 10
8939.363203276299
 20
1471.959230296372
 30
0.0
 11
8939.363203276299
 21
1474.959230296372
 31
0.0
  0
LINE
  5
1F8E4
330
747D
100
AcDbEntity
  8
部品1
100
AcDbLine
 10
8999.363203276299
 20
1471.959230296372
 30
0.0
 11
8999.363203276299
 21
1474.959230296381
 31
0.0
  0
LINE
  5
1F8E5
330
747D
100
AcDbEntity
  8
部品1
100
AcDbLine
 10
8979.363203276298
 20
1492.359230296375
 30
0.0
 11
8984.363203276299
 21
1492.359230296375
 31
0.0
  0
LINE
  5
1F8E6
330
747D
100
AcDbEntity
  8
部品1
100
AcDbLine
 10
8949.363203276298
 20
1487.959230296374
 30
0.0
 11
8989.363203276298
 21
1487.959230296374
 31
0.0
  0
ARC
  5
1F8E7
330
747D
100
AcDbEntity
  8
部品1
100
AcDbCircle
 10
8954.363203276299
 20
1483.444475506056
 30
0.0
 40
6.736691384996243
100
AcDbArc
 50
42.08048849857658
 51
137.9195115014234
  0
ARC
  5
1F8E8
330
747D
100
AcDbEntity
  8
部品1
100
AcDbCircle
 10
8984.363203276299
 20
1483.444475506056
 30
0.0
 40
6.736691384996243
100
AcDbArc
 50
42.08048849857658
 51
137.9195115014234
  0
ARC
  5
1F8E9
330
747D
100
AcDbEntity
  8
部品1
100
AcDbCircle
 10
8969.363203276298
 20
1466.870597075554
 30
0.0
 40
23.33946124318486
100
AcDbArc
 50
64.63020194521458
 51
115.3697980547854
  0
LINE
  5
1F8EA
330
747D
100
AcDbEntity
  8
部品1
100
AcDbLine
 10
8962.363203276298
 20
1524.212126320033
 30
0.0
 11
8976.363203276298
 21
1524.212126320033
 31
0.0
  0
LINE
  5
1F8EB
330
747D
100
AcDbEntity
  8
部品1
100
AcDbLine
 10
8964.363203276297
 20
1511.959230296374
 30
0.0
 11
8964.363203276297
 21
1520.212126320033
 31
0.0
  0
LINE
  5
1F8EC
330
747D
100
AcDbEntity
  8
部品1
100
AcDbLine
 10
8974.363203276299
 20
1511.959230296374
 30
0.0
 11
8974.363203276299
 21
1520.212126320033
 31
0.0
  0
LINE
  5
1F8ED
330
747D
100
AcDbEntity
  8
部品1
100
AcDbLine
 10
8962.363203276298
 20
1520.212126320033
 30
0.0
 11
8962.363203276298
 21
1524.212126320033
 31
0.0
  0
LINE
  5
1F8EE
330
747D
100
AcDbEntity
  8
部品1
100
AcDbLine
 10
8976.363203276298
 20
1520.212126320033
 30
0.0
 11
8976.363203276298
 21
1524.212126320033
 31
0.0
  0
LINE
  5
1F8EF
330
747D
100
AcDbEntity
  8
部品1
100
AcDbLine
 10
8962.363203276298
 20
1520.212126320033
 30
0.0
 11
8976.363203276298
 21
1520.212126320033
 31
0.0
  0
LINE
  5
1F8F0
330
747D
100
AcDbEntity
  8
部品1
100
AcDbLine
 10
8959.363203276298
 20
1459.959230296372
 30
0.0
 11
8959.363203276298
 21
1424.559230296372
 31
0.0
  0
LINE
  5
1F8F1
330
747D
100
AcDbEntity
  8
部品1
100
AcDbLine
 10
8979.363203276298
 20
1459.959230296372
 30
0.0
 11
8979.363203276298
 21
1424.559230296372
 31
0.0
  0
LINE
  5
1F8F2
330
747D
100
AcDbEntity
  8
部品1
100
AcDbLine
 10
8967.452702642761
 20
1424.559230296372
 30
0.0
 11
8971.273703909835
 21
1424.559230296372
 31
0.0
  0
LINE
  5
1F8F3
330
747D
100
AcDbEntity
  8
部品1
100
AcDbLine
 10
8959.363203276298
 20
1424.559230296372
 30
0.0
 11
8953.363203276298
 21
1384.559230296372
 31
0.0
  0
LINE
  5
1F8F4
330
747D
100
AcDbEntity
  8
部品1
100
AcDbLine
 10
8985.363203276298
 20
1384.559230296372
 30
0.0
 11
8979.363203276298
 21
1424.559230296372
 31
0.0
  0
LINE
  5
1F8F5
330
747D
100
AcDbEntity
  8
部品1
100
AcDbLine
 10
8967.452702642761
 20
1424.559230296372
 30
0.0
 11
8961.274694099243
 21
1383.372506672933
 31
0.0
  0
LINE
  5
1F8F6
330
747D
100
AcDbEntity
  8
部品1
100
AcDbLine
 10
8977.451712453351
 20
1383.372506672933
 30
0.0
 11
8971.273703909835
 21
1424.559230296372
 31
0.0
  0
LINE
  5
1F8F7
330
747D
100
AcDbEntity
  8
部品1
100
AcDbLine
 10
8953.363203276298
 20
1384.559230296372
 30
0.0
 11
8961.274694099243
 21
1383.372506672933
 31
0.0
  0
LINE
  5
1F8F8
330
747D
100
AcDbEntity
  8
部品1
100
AcDbLine
 10
8977.451712453351
 20
1383.372506672933
 30
0.0
 11
8985.363203276298
 21
1384.559230296372
 31
0.0
  0
LINE
  5
1F8F9
330
747D
100
AcDbEntity
  8
部品1
100
AcDbLine
 10
8954.25324599388
 20
1390.492848413582
 30
0.0
 11
8962.164736816827
 21
1389.306124790139
 31
0.0
  0
LINE
  5
1F8FA
330
747D
100
AcDbEntity
  8
部品1
100
AcDbLine
 10
8955.143288711457
 20
1396.426466530791
 30
0.0
 11
8963.054779534402
 21
1395.239742907348
 31
0.0
  0
LINE
  5
1F8FB
330
747D
100
AcDbEntity
  8
部品1
100
AcDbLine
 10
8956.03333142904
 20
1402.360084647998
 30
0.0
 11
8963.944822251987
 21
1401.173361024557
 31
0.0
  0
LINE
  5
1F8FC
330
747D
100
AcDbEntity
  8
部品1
100
AcDbLine
 10
8956.923374146624
 20
1408.29370276521
 30
0.0
 11
8964.834864969569
 21
1407.10697914177
 31
0.0
  0
LINE
  5
1F8FD
330
747D
100
AcDbEntity
  8
部品1
100
AcDbLine
 10
8957.813416864199
 20
1414.227320882419
 30
0.0
 11
8965.724907687144
 21
1413.040597258976
 31
0.0
  0
LINE
  5
1F8FE
330
747D
100
AcDbEntity
  8
部品1
100
AcDbLine
 10
8958.703459581782
 20
1420.160938999628
 30
0.0
 11
8966.614950404729
 21
1418.974215376185
 31
0.0
  0
LINE
  5
1F8FF
330
747D
100
AcDbEntity
  8
部品1
100
AcDbLine
 10
8976.561669735769
 20
1389.306124790139
 30
0.0
 11
8984.473160558723
 21
1390.492848413582
 31
0.0
  0
LINE
  5
1F900
330
747D
100
AcDbEntity
  8
部品1
100
AcDbLine
 10
8975.671627018193
 20
1395.239742907348
 30
0.0
 11
8983.58311784114
 21
1396.426466530791
 31
0.0
  0
LINE
  5
1F901
330
747D
100
AcDbEntity
  8
部品1
100
AcDbLine
 10
8974.781584300611
 20
1401.173361024557
 30
0.0
 11
8982.693075123556
 21
1402.360084647998
 31
0.0
  0
LINE
  5
1F902
330
747D
100
AcDbEntity
  8
部品1
100
AcDbLine
 10
8973.891541583034
 20
1407.10697914177
 30
0.0
 11
8981.803032405981
 21
1408.29370276521
 31
0.0
  0
LINE
  5
1F903
330
747D
100
AcDbEntity
  8
部品1
100
AcDbLine
 10
8973.001498865452
 20
1413.040597258976
 30
0.0
 11
8980.912989688397
 21
1414.227320882419
 31
0.0
  0
LINE
  5
1F904
330
747D
100
AcDbEntity
  8
部品1
100
AcDbLine
 10
8972.111456147869
 20
1418.974215376185
 30
0.0
 11
8980.022946970814
 21
1420.160938999628
 31
0.0
  0
ARC
  5
1F905
330
747D
100
AcDbEntity
  8
部品1
100
AcDbCircle
 10
8938.417262756543
 20
1755.959230296374
 30
0.0
 40
10.0
100
AcDbArc
 50
90.0
 51
174.3157584018188
  0
CIRCLE
  5
1F906
330
747D
100
AcDbEntity
  8
部品1
100
AcDbCircle
 10
8969.363203276298
 20
1703.959230296372
 30
0.0
 40
16.0
  0
LINE
  5
1F907
330
747D
100
AcDbEntity
  8
細線
100
AcDbLine
 10
8954.363203276299
 20
1679.959230296374
 30
0.0
 11
8984.363203276299
 21
1679.959230296374
 31
0.0
  0
LINE
  5
1F908
330
747D
100
AcDbEntity
  8
細線
100
AcDbLine
 10
8961.363203276297
 20
1743.95923029637
 30
0.0
 11
8961.363203276297
 21
1717.815636756924
 31
0.0
  0
LINE
  5
1F909
330
747D
100
AcDbEntity
  8
細線
100
AcDbLine
 10
8977.363203276297
 20
1743.95923029637
 30
0.0
 11
8977.363203276297
 21
1717.815636756924
 31
0.0
  0
ARC
  5
1F90A
330
747D
100
AcDbEntity
  8
細線
100
AcDbCircle
 10
8969.363203276298
 20
1743.95923029637
 30
0.0
 40
8.0
100
AcDbArc
 50
0.0
 51
180.0
  0
LINE
  5
1F90B
330
747D
100
AcDbEntity
  8
部品1
100
AcDbLine
 10
8938.417262756543
 20
1765.959230296372
 30
0.0
 11
9000.309143796053
 21
1765.95923029637
 31
0.0
  0
ARC
  5
1F90C
330
747D
100
AcDbEntity
  8
部品1
100
AcDbCircle
 10
9000.309143796053
 20
1755.95923029637
 30
0.0
 40
10.0
100
AcDbArc
 50
5.684241598181141
 51
90.0
  0
LINE
  5
1F90D
330
747D
100
AcDbEntity
  8
細線
100
AcDbLine
 10
8954.363203276299
 20
1673.959230296374
 30
0.0
 11
8984.363203276299
 21
1673.959230296374
 31
0.0
  0
LINE
  5
1F90E
330
747D
100
AcDbEntity
  8
細線
100
AcDbLine
 10
8954.363203276299
 20
1679.959230296374
 30
0.0
 11
8954.363203276299
 21
1673.959230296374
 31
0.0
  0
LINE
  5
1F90F
330
747D
100
AcDbEntity
  8
細線
100
AcDbLine
 10
8984.363203276299
 20
1679.959230296368
 30
0.0
 11
8984.363203276299
 21
1673.959230296368
 31
0.0
  0
LINE
  5
1F910
330
747D
100
AcDbEntity
  8
細線
 48
10.0
100
AcDbLine
 10
9361.441727106969
 20
1153.041032957087
 30
0.0
 11
9668.359924446246
 21
1459.959230296372
 31
0.0
  0
LINE
  5
1F911
330
747D
100
AcDbEntity
  8
細線
 48
10.0
100
AcDbLine
 10
9333.157455859506
 20
1153.041032957087
 30
0.0
 11
9640.075653198779
 21
1459.959230296372
 31
0.0
  0
LINE
  5
1F912
330
747D
100
AcDbEntity
  8
細線
 48
10.0
100
AcDbLine
 10
9304.873184612047
 20
1153.041032957087
 30
0.0
 11
9611.79138195132
 21
1459.959230296372
 31
0.0
  0
TEXT
  5
1F913
330
747D
100
AcDbEntity
  8
部品1
100
AcDbText
 10
9383.852406544674
 20
1467.865271975275
 30
0.0
 40
120.0
  1
▽G.L
  7
STYLE1
100
AcDbText
  0
LINE
  5
1F914
330
747D
100
AcDbEntity
  8
部品1
100
AcDbLine
 10
9896.898411190575
 20
1759.959230296372
 30
0.0
 11
10439.58471607961
 21
1759.959230296374
 31
0.0
  0
LINE
  5
1F915
330
747D
100
AcDbEntity
  8
部品1
100
AcDbLine
 10
9896.898411190575
 20
1859.959230296374
 30
0.0
 11
10409.69580798928
 21
1859.959230296374
 31
0.0
  0
LINE
  5
1F916
330
747D
100
AcDbEntity
  8
部品1
100
AcDbLine
 10
9896.898411190575
 20
1853.959230296373
 30
0.0
 11
10439.69580798928
 21
1853.959230296373
 31
0.0
  0
LINE
  5
1F917
330
747D
100
AcDbEntity
  8
細線
100
AcDbLine
 10
10410.65040875256
 20
1481.307062204987
 30
0.0
 11
10131.99824066117
 21
1759.959230296372
 31
0.0
  0
LINE
  5
1F918
330
747D
100
AcDbEntity
  8
細線
100
AcDbLine
 10
10414.5815463462
 20
1519.802331482544
 30
0.0
 11
10174.42464753236
 21
1759.959230296372
 31
0.0
  0
LINE
  5
1F919
330
747D
100
AcDbEntity
  8
細線
 48
10.0
100
AcDbLine
 10
10080.60217742736
 20
1153.041032957087
 30
0.0
 11
10387.52037476663
 21
1459.959230296374
 31
0.0
  0
LINE
  5
1F91A
330
747D
100
AcDbEntity
  8
細線
 48
10.0
100
AcDbLine
 10
10108.88644867482
 20
1153.041032957087
 30
0.0
 11
10415.80464601409
 21
1459.959230296372
 31
0.0
  0
LINE
  5
1F91B
330
747D
100
AcDbEntity
  8
細線
 48
10.0
100
AcDbLine
 10
10137.17071992228
 20
1153.041032957087
 30
0.0
 11
10444.08891726154
 21
1459.959230296372
 31
0.0
  0
LINE
  5
1F91C
330
747D
100
AcDbEntity
  8
細線
 48
10.0
100
AcDbLine
 10
9896.898411190569
 20
1339.427113078231
 30
0.0
 11
10017.4305284087
 21
1459.959230296372
 31
0.0
  0
LINE
  5
1F91D
330
747D
100
AcDbEntity
  8
細線
 48
10.0
100
AcDbLine
 10
9896.898411190575
 20
1367.711384325689
 30
0.0
 11
9989.146257161252
 21
1459.959230296372
 31
0.0
  0
LINE
  5
1F91E
330
747D
100
AcDbEntity
  8
細線
 48
10.0
100
AcDbLine
 10
9896.898411190575
 20
1395.995655573144
 30
0.0
 11
9960.861985913799
 21
1459.959230296372
 31
0.0
  0
LINE
  5
1F91F
330
747D
100
AcDbEntity
  8
部品1
100
AcDbLine
 10
10119.69580798928
 20
1459.959230296368
 30
0.0
 11
10119.69580798928
 21
1759.959230296372
 31
0.0
  0
LINE
  5
1F920
330
747D
100
AcDbEntity
  8
細線
100
AcDbLine
 10
10248.15047755267
 20
1459.959230296372
 30
0.0
 11
10119.69580798928
 21
1588.413899859764
 31
0.0
  0
LINE
  5
1F921
330
747D
100
AcDbEntity
  8
細線
100
AcDbLine
 10
10205.72407068148
 20
1459.959230296372
 30
0.0
 11
10119.69580798928
 21
1545.987492988572
 31
0.0
  0
LINE
  5
1F922
330
747D
100
AcDbEntity
  8
細線
 48
10.0
100
AcDbLine
 10
10563.8291087751
 20
1153.041032957087
 30
0.0
 11
10870.74730611438
 21
1459.959230296374
 31
0.0
  0
LINE
  5
1F923
330
747D
100
AcDbEntity
  8
細線
 48
10.0
100
AcDbLine
 10
10535.54483752764
 20
1153.041032957087
 30
0.0
 11
10842.46303486691
 21
1459.959230296372
 31
0.0
  0
LINE
  5
1F924
330
747D
100
AcDbEntity
  8
細線
 48
10.0
100
AcDbLine
 10
10507.26056628018
 20
1153.041032957087
 30
0.0
 11
10814.17876361945
 21
1459.959230296372
 31
0.0
  0
DIMENSION
  5
1F925
330
747D
100
AcDbEntity
  8
寸法
 48
50.0
100
AcDbDimension
  2
*D22
 10
10722.44245361606
 20
1459.959230296372
 30
0.0
 11
10622.44245361606
 21
1609.959230296373
 31
0.0
 70
    32
  1
c
 71
     5
 42
300.0
  3
INABA_S40G
100
AcDbAlignedDimension
 13
10519.80689989894
 23
1759.959230296372
 33
0.0
 14
10549.69580798928
 24
1459.959230296372
 34
0.0
 50
90.0
100
AcDbRotatedDimension
1001
ACAD
1000
DSTYLE
1002
{
1070
   174
1070
     0
1070
   272
1070
     1
1070
   288
1070
     0
1070
   341
1005
0
1002
}
  0
LINE
  5
1F926
330
747D
100
AcDbEntity
  8
部品1
100
AcDbLine
 10
10438.79903898121
 20
1756.949690995272
 30
0.0
 11
10409.69580798928
 21
1471.959230296372
 31
0.0
  0
LINE
  5
1F927
330
747D
100
AcDbEntity
  8
部品1
100
AcDbLine
 10
10520.59257699735
 20
1756.949690995272
 30
0.0
 11
10549.69580798928
 21
1471.959230296372
 31
0.0
  0
LINE
  5
1F928
330
747D
100
AcDbEntity
  8
部品1
100
AcDbLine
 10
10409.69580798928
 20
1471.959230296372
 30
0.0
 11
10549.69580798928
 21
1471.959230296372
 31
0.0
  0
LINE
  5
1F929
330
747D
100
AcDbEntity
  8
部品1
100
AcDbLine
 10
10409.69580798928
 20
1459.959230296372
 30
0.0
 11
10549.69580798928
 21
1459.959230296372
 31
0.0
  0
LINE
  5
1F92A
330
747D
100
AcDbEntity
  8
部品1
100
AcDbLine
 10
10487.78431716633
 20
1383.372506672931
 30
0.0
 11
10481.60630862281
 21
1424.55923029637
 31
0.0
  0
LINE
  5
1F92B
330
747D
100
AcDbEntity
  8
部品1
100
AcDbLine
 10
10477.78530735574
 20
1424.55923029637
 30
0.0
 11
10471.60729881222
 21
1383.372506672931
 31
0.0
  0
LINE
  5
1F92C
330
747D
100
AcDbEntity
  8
部品1
100
AcDbLine
 10
10495.69580798928
 20
1384.55923029637
 30
0.0
 11
10489.69580798928
 21
1424.55923029637
 31
0.0
  0
LINE
  5
1F92D
330
747D
100
AcDbEntity
  8
部品1
100
AcDbLine
 10
10469.69580798928
 20
1424.55923029637
 30
0.0
 11
10463.69580798928
 21
1384.55923029637
 31
0.0
  0
LINE
  5
1F92E
330
747D
100
AcDbEntity
  8
部品1
100
AcDbLine
 10
10486.00423173117
 20
1395.239742907346
 30
0.0
 11
10493.91572255412
 21
1396.426466530789
 31
0.0
  0
LINE
  5
1F92F
330
747D
100
AcDbEntity
  8
部品1
100
AcDbLine
 10
10486.89427444875
 20
1389.306124790139
 30
0.0
 11
10494.8057652717
 21
1390.492848413582
 31
0.0
  0
LINE
  5
1F930
330
747D
100
AcDbEntity
  8
部品1
100
AcDbLine
 10
10465.47589342444
 20
1396.426466530789
 30
0.0
 11
10473.38738424738
 21
1395.239742907346
 31
0.0
  0
LINE
  5
1F931
330
747D
100
AcDbEntity
  8
部品1
100
AcDbLine
 10
10464.58585070686
 20
1390.492848413582
 30
0.0
 11
10472.49734152981
 21
1389.306124790139
 31
0.0
  0
LINE
  5
1F932
330
747D
100
AcDbEntity
  8
部品1
100
AcDbLine
 10
10487.78431716633
 20
1383.372506672931
 30
0.0
 11
10495.69580798928
 21
1384.55923029637
 31
0.0
  0
LINE
  5
1F933
330
747D
100
AcDbEntity
  8
部品1
100
AcDbLine
 10
10463.69580798928
 20
1384.55923029637
 30
0.0
 11
10471.60729881222
 21
1383.372506672931
 31
0.0
  0
LINE
  5
1F934
330
747D
100
AcDbEntity
  8
部品1
100
AcDbLine
 10
10409.69580798928
 20
1471.959230296372
 30
0.0
 11
10409.69580798928
 21
1459.959230296372
 31
0.0
  0
LINE
  5
1F935
330
747D
100
AcDbEntity
  8
部品1
100
AcDbLine
 10
10464.69580798928
 20
1526.359230296373
 30
0.0
 11
10494.69580798928
 21
1526.359230296373
 31
0.0
  0
LINE
  5
1F936
330
747D
100
AcDbEntity
  8
部品1
100
AcDbLine
 10
10464.69580798928
 20
1532.359230296373
 30
0.0
 11
10494.69580798928
 21
1532.359230296373
 31
0.0
  0
LINE
  5
1F937
330
747D
100
AcDbEntity
  8
部品1
100
AcDbLine
 10
10464.69580798928
 20
1532.359230296373
 30
0.0
 11
10464.69580798928
 21
1526.359230296373
 31
0.0
  0
LINE
  5
1F938
330
747D
100
AcDbEntity
  8
部品1
100
AcDbLine
 10
10494.69580798928
 20
1532.35923029637
 30
0.0
 11
10494.69580798928
 21
1526.359230296369
 31
0.0
  0
LINE
  5
1F939
330
747D
100
AcDbEntity
  8
部品1
100
AcDbLine
 10
10464.69580798928
 20
1492.359230296373
 30
0.0
 11
10469.69580798928
 21
1492.359230296373
 31
0.0
  0
LINE
  5
1F93A
330
747D
100
AcDbEntity
  8
部品1
100
AcDbLine
 10
10464.69580798928
 20
1492.359230296373
 30
0.0
 11
10464.69580798928
 21
1490.959230296368
 31
0.0
  0
LINE
  5
1F93B
330
747D
100
AcDbEntity
  8
部品1
100
AcDbLine
 10
10494.69580798928
 20
1492.35923029637
 30
0.0
 11
10494.69580798928
 21
1490.959230296372
 31
0.0
  0
LINE
  5
1F93C
330
747D
100
AcDbEntity
  8
部品1
100
AcDbLine
 10
10464.69580798928
 20
1490.959230296372
 30
0.0
 11
10494.69580798928
 21
1490.959230296372
 31
0.0
  0
LINE
  5
1F93D
330
747D
100
AcDbEntity
  8
部品1
100
AcDbLine
 10
10486.69580798928
 20
1520.212126320031
 30
0.0
 11
10486.69580798928
 21
1524.212126320031
 31
0.0
  0
LINE
  5
1F93E
330
747D
100
AcDbEntity
  8
部品1
100
AcDbLine
 10
10472.69580798928
 20
1520.212126320031
 30
0.0
 11
10472.69580798928
 21
1524.212126320031
 31
0.0
  0
LINE
  5
1F93F
330
747D
100
AcDbEntity
  8
部品1
100
AcDbLine
 10
10482.44406086085
 20
1418.974215376183
 30
0.0
 11
10490.35555168379
 21
1420.160938999626
 31
0.0
  0
LINE
  5
1F940
330
747D
100
AcDbEntity
  8
部品1
100
AcDbLine
 10
10483.33410357843
 20
1413.040597258976
 30
0.0
 11
10491.24559440138
 21
1414.227320882419
 31
0.0
  0
LINE
  5
1F941
330
747D
100
AcDbEntity
  8
部品1
100
AcDbLine
 10
10484.22414629601
 20
1407.106979141768
 30
0.0
 11
10492.13563711896
 21
1408.293702765208
 31
0.0
  0
LINE
  5
1F942
330
747D
100
AcDbEntity
  8
部品1
100
AcDbLine
 10
10485.11418901359
 20
1401.173361024557
 30
0.0
 11
10493.02567983654
 21
1402.360084647997
 31
0.0
  0
LINE
  5
1F943
330
747D
100
AcDbEntity
  8
部品1
100
AcDbLine
 10
10469.03606429476
 20
1420.160938999626
 30
0.0
 11
10476.94755511771
 21
1418.974215376183
 31
0.0
  0
LINE
  5
1F944
330
747D
100
AcDbEntity
  8
部品1
100
AcDbLine
 10
10468.14602157718
 20
1414.227320882419
 30
0.0
 11
10476.05751240012
 21
1413.040597258976
 31
0.0
  0
LINE
  5
1F945
330
747D
100
AcDbEntity
  8
部品1
100
AcDbLine
 10
10467.2559788596
 20
1408.293702765208
 30
0.0
 11
10475.16746968254
 21
1407.106979141768
 31
0.0
  0
LINE
  5
1F946
330
747D
100
AcDbEntity
  8
部品1
100
AcDbLine
 10
10466.36593614202
 20
1402.360084647997
 30
0.0
 11
10474.27742696497
 21
1401.173361024557
 31
0.0
  0
LINE
  5
1F947
330
747D
100
AcDbEntity
  8
部品1
100
AcDbLine
 10
10477.78530735574
 20
1424.55923029637
 30
0.0
 11
10481.60630862281
 21
1424.55923029637
 31
0.0
  0
LINE
  5
1F948
330
747D
100
AcDbEntity
  8
部品1
100
AcDbLine
 10
10489.69580798928
 20
1459.959230296372
 30
0.0
 11
10489.69580798928
 21
1424.55923029637
 31
0.0
  0
LINE
  5
1F949
330
747D
100
AcDbEntity
  8
部品1
100
AcDbLine
 10
10469.69580798928
 20
1459.959230296372
 30
0.0
 11
10469.69580798928
 21
1424.55923029637
 31
0.0
  0
LINE
  5
1F94A
330
747D
100
AcDbEntity
  8
部品1
100
AcDbLine
 10
10484.69580798928
 20
1511.959230296372
 30
0.0
 11
10484.69580798928
 21
1520.212126320031
 31
0.0
  0
LINE
  5
1F94B
330
747D
100
AcDbEntity
  8
部品1
100
AcDbLine
 10
10474.69580798928
 20
1511.959230296372
 30
0.0
 11
10474.69580798928
 21
1520.212126320031
 31
0.0
  0
LINE
  5
1F94C
330
747D
100
AcDbEntity
  8
部品1
100
AcDbLine
 10
10472.69580798928
 20
1520.212126320031
 30
0.0
 11
10486.69580798928
 21
1520.212126320031
 31
0.0
  0
ARC
  5
1F94D
330
747D
100
AcDbEntity
  8
部品1
100
AcDbCircle
 10
10479.69580798928
 20
1466.870597075554
 30
0.0
 40
23.33946124318486
100
AcDbArc
 50
64.63020194521458
 51
115.3697980547854
  0
ARC
  5
1F94E
330
747D
100
AcDbEntity
  8
部品1
100
AcDbCircle
 10
10494.69580798928
 20
1483.444475506054
 30
0.0
 40
6.736691384996243
100
AcDbArc
 50
42.08048849857658
 51
137.9195115014234
  0
ARC
  5
1F94F
330
747D
100
AcDbEntity
  8
部品1
100
AcDbCircle
 10
10464.69580798928
 20
1483.444475506054
 30
0.0
 40
6.736691384996243
100
AcDbArc
 50
42.08048849857658
 51
137.9195115014234
  0
LINE
  5
1F950
330
747D
100
AcDbEntity
  8
部品1
100
AcDbLine
 10
10459.69580798928
 20
1487.959230296372
 30
0.0
 11
10499.69580798928
 21
1487.959230296372
 31
0.0
  0
LINE
  5
1F951
330
747D
100
AcDbEntity
  8
部品1
100
AcDbLine
 10
10489.69580798928
 20
1492.359230296373
 30
0.0
 11
10494.69580798928
 21
1492.359230296373
 31
0.0
  0
LINE
  5
1F952
330
747D
100
AcDbEntity
  8
部品1
100
AcDbLine
 10
10464.69580798928
 20
1492.359230296373
 30
0.0
 11
10469.69580798928
 21
1492.359230296373
 31
0.0
  0
LINE
  5
1F953
330
747D
100
AcDbEntity
  8
部品1
100
AcDbLine
 10
10499.69580798928
 20
1474.959230296376
 30
0.0
 11
10499.69580798928
 21
1487.959230296372
 31
0.0
  0
LINE
  5
1F954
330
747D
100
AcDbEntity
  8
部品1
100
AcDbLine
 10
10489.69580798928
 20
1474.959230296372
 30
0.0
 11
10489.69580798928
 21
1511.959230296372
 31
0.0
  0
LINE
  5
1F955
330
747D
100
AcDbEntity
  8
部品1
100
AcDbLine
 10
10469.69580798928
 20
1474.959230296372
 30
0.0
 11
10469.69580798928
 21
1511.959230296372
 31
0.0
  0
LINE
  5
1F956
330
747D
100
AcDbEntity
  8
部品1
100
AcDbLine
 10
10459.69580798928
 20
1474.959230296372
 30
0.0
 11
10459.69580798928
 21
1487.959230296372
 31
0.0
  0
LINE
  5
1F957
330
747D
100
AcDbEntity
  8
部品1
100
AcDbLine
 10
10509.69580798928
 20
1471.959230296372
 30
0.0
 11
10509.69580798928
 21
1474.959230296379
 31
0.0
  0
LINE
  5
1F958
330
747D
100
AcDbEntity
  8
部品1
100
AcDbLine
 10
10449.69580798928
 20
1471.959230296372
 30
0.0
 11
10449.69580798928
 21
1474.959230296372
 31
0.0
  0
LINE
  5
1F959
330
747D
100
AcDbEntity
  8
部品1
100
AcDbLine
 10
10449.69580798928
 20
1474.959230296372
 30
0.0
 11
10509.69580798928
 21
1474.959230296376
 31
0.0
  0
LINE
  5
1F95A
330
747D
100
AcDbEntity
  8
部品1
100
AcDbLine
 10
10494.69580798928
 20
1492.35923029637
 30
0.0
 11
10494.69580798928
 21
1490.959230296372
 31
0.0
  0
LINE
  5
1F95B
330
747D
100
AcDbEntity
  8
部品1
100
AcDbLine
 10
10464.69580798928
 20
1492.359230296373
 30
0.0
 11
10464.69580798928
 21
1490.959230296372
 31
0.0
  0
LINE
  5
1F95C
330
747D
100
AcDbEntity
  8
部品1
100
AcDbLine
 10
10496.69580798928
 20
1490.959230296372
 30
0.0
 11
10499.69580798928
 21
1487.959230296372
 31
0.0
  0
LINE
  5
1F95D
330
747D
100
AcDbEntity
  8
部品1
100
AcDbLine
 10
10462.69580798928
 20
1490.959230296372
 30
0.0
 11
10496.69580798928
 21
1490.959230296372
 31
0.0
  0
LINE
  5
1F95E
330
747D
100
AcDbEntity
  8
部品1
100
AcDbLine
 10
10462.69580798928
 20
1490.959230296372
 30
0.0
 11
10459.69580798928
 21
1487.959230296372
 31
0.0
  0
LINE
  5
1F95F
330
747D
100
AcDbEntity
  8
部品1
100
AcDbLine
 10
10469.69580798928
 20
1511.959230296372
 30
0.0
 11
10489.69580798928
 21
1511.959230296372
 31
0.0
  0
LINE
  5
1F960
330
747D
100
AcDbEntity
  8
部品1
100
AcDbLine
 10
10472.69580798928
 20
1524.212126320031
 30
0.0
 11
10486.69580798928
 21
1524.212126320031
 31
0.0
  0
LINE
  5
1F961
330
747D
100
AcDbEntity
  8
部品1
100
AcDbLine
 10
10494.69580798928
 20
1532.35923029637
 30
0.0
 11
10494.69580798928
 21
1526.359230296369
 31
0.0
  0
LINE
  5
1F962
330
747D
100
AcDbEntity
  8
部品1
100
AcDbLine
 10
10464.69580798928
 20
1532.359230296373
 30
0.0
 11
10464.69580798928
 21
1526.359230296373
 31
0.0
  0
LINE
  5
1F963
330
747D
100
AcDbEntity
  8
部品1
100
AcDbLine
 10
10464.69580798928
 20
1532.359230296373
 30
0.0
 11
10494.69580798928
 21
1532.359230296373
 31
0.0
  0
LINE
  5
1F964
330
747D
100
AcDbEntity
  8
部品1
100
AcDbLine
 10
10464.69580798928
 20
1526.359230296373
 30
0.0
 11
10494.69580798928
 21
1526.359230296373
 31
0.0
  0
LINE
  5
1F965
330
747D
100
AcDbEntity
  8
部品1
100
AcDbLine
 10
10489.69580798928
 20
1492.359230296373
 30
0.0
 11
10494.69580798928
 21
1492.359230296373
 31
0.0
  0
LINE
  5
1F966
330
747D
100
AcDbEntity
  8
部品1
100
AcDbLine
 10
10549.69580798928
 20
1471.959230296372
 30
0.0
 11
10549.69580798928
 21
1459.959230296372
 31
0.0
  0
LINE
  5
1F967
330
747D
100
AcDbEntity
  8
細線
100
AcDbLine
 10
10435.54761351225
 20
1725.110434296183
 30
0.0
 11
10400.69881751207
 21
1759.959230296372
 31
0.0
  0
LINE
  5
1F968
330
747D
100
AcDbEntity
  8
細線
100
AcDbLine
 10
10431.61647591862
 20
1686.615165018626
 30
0.0
 11
10358.27241064087
 21
1759.959230296372
 31
0.0
  0
LINE
  5
1F969
330
747D
100
AcDbEntity
  8
部品1
100
AcDbLine
 10
10449.69580798928
 20
1873.55923029637
 30
0.0
 11
10509.69580798928
 21
1873.559230296374
 31
0.0
  0
ARC
  5
1F96A
330
747D
100
AcDbEntity
  8
部品1
100
AcDbCircle
 10
10449.69580798928
 20
1863.55923029637
 30
0.0
 40
10.0
100
AcDbArc
 50
90.0
 51
180.0
  0
ARC
  5
1F96B
330
747D
100
AcDbEntity
  8
部品1
100
AcDbCircle
 10
10509.69580798928
 20
1863.559230296374
 30
0.0
 40
10.0
100
AcDbArc
 50
0.0
 51
90.0
  0
ARC
  5
1F96C
330
747D
100
AcDbEntity
  8
部品1
100
AcDbCircle
 10
10479.69580798928
 20
1813.55923029637
 30
0.0
 40
8.0
100
AcDbArc
 50
28.00674301448371
 51
151.9932569855163
  0
CIRCLE
  5
1F96D
330
747D
100
AcDbEntity
  8
部品1
100
AcDbCircle
 10
10479.69580798928
 20
1802.959230296372
 30
0.0
 40
16.0
  0
CIRCLE
  5
1F96E
330
747D
100
AcDbEntity
  8
細線
100
AcDbCircle
 10
10479.69580798928
 20
1843.55923029637
 30
0.0
 40
8.0
  0
ARC
  5
1F96F
330
747D
100
AcDbEntity
  8
細線
100
AcDbCircle
 10
10479.69580798928
 20
1743.959230296368
 30
0.0
 40
8.0
100
AcDbArc
 50
0.0
 51
180.0
  0
LINE
  5
1F970
330
747D
100
AcDbEntity
  8
細線
100
AcDbLine
 10
10464.69580798928
 20
1673.959230296372
 30
0.0
 11
10494.69580798928
 21
1673.959230296372
 31
0.0
  0
LINE
  5
1F971
330
747D
100
AcDbEntity
  8
細線
100
AcDbLine
 10
10464.69580798928
 20
1679.959230296372
 30
0.0
 11
10494.69580798928
 21
1679.959230296372
 31
0.0
  0
LINE
  5
1F972
330
747D
100
AcDbEntity
  8
細線
100
AcDbLine
 10
10464.69580798928
 20
1679.959230296372
 30
0.0
 11
10464.69580798928
 21
1673.959230296372
 31
0.0
  0
LINE
  5
1F973
330
747D
100
AcDbEntity
  8
細線
100
AcDbLine
 10
10494.69580798928
 20
1679.959230296368
 30
0.0
 11
10494.69580798928
 21
1673.959230296368
 31
0.0
  0
LINE
  5
1F974
330
747D
100
AcDbEntity
  8
細線
100
AcDbLine
 10
10471.69580798928
 20
1743.959230296368
 30
0.0
 11
10471.69580798928
 21
1717.415636756923
 31
0.0
  0
LINE
  5
1F975
330
747D
100
AcDbEntity
  8
細線
100
AcDbLine
 10
10487.69580798928
 20
1743.959230296368
 30
0.0
 11
10487.69580798928
 21
1717.415636756923
 31
0.0
  0
CIRCLE
  5
1F976
330
747D
100
AcDbEntity
  8
部品1
100
AcDbCircle
 10
10479.69580798928
 20
1703.55923029637
 30
0.0
 40
16.0
  0
LINE
  5
1F977
330
747D
100
AcDbEntity
  8
部品1
100
AcDbLine
 10
10448.74986746952
 20
1765.959230296372
 30
0.0
 11
10510.64174850903
 21
1765.959230296368
 31
0.0
  0
ARC
  5
1F978
330
747D
100
AcDbEntity
  8
部品1
100
AcDbCircle
 10
10448.74986746952
 20
1755.959230296372
 30
0.0
 40
10.0
100
AcDbArc
 50
90.0
 51
174.3157584018188
  0
ARC
  5
1F979
330
747D
100
AcDbEntity
  8
部品1
100
AcDbCircle
 10
10510.64174850903
 20
1755.959230296368
 30
0.0
 40
10.0
100
AcDbArc
 50
5.684241598181141
 51
90.0
  0
ARC
  5
1F97A
330
747D
100
AcDbEntity
  8
部品1
100
AcDbCircle
 10
10479.69580798928
 20
1773.55923029637
 30
0.0
 40
8.0
100
AcDbArc
 50
180.0
 51
251.8051276613341
  0
ARC
  5
1F97B
330
747D
100
AcDbEntity
  8
部品1
100
AcDbCircle
 10
10479.69580798928
 20
1773.55923029637
 30
0.0
 40
8.0
100
AcDbArc
 50
288.1948723386658
 51
0.0
  0
LINE
  5
1F97C
330
747D
100
AcDbEntity
  8
部品1
100
AcDbLine
 10
10439.69580798928
 20
1863.55923029637
 30
0.0
 11
10439.69580798928
 21
1760.204699284379
 31
0.0
  0
LINE
  5
1F97D
330
747D
100
AcDbEntity
  8
部品1
100
AcDbLine
 10
10519.69580798928
 20
1863.559230296374
 30
0.0
 11
10519.69580798928
 21
1760.204699284384
 31
0.0
  0
LINE
  5
1F97E
330
747D
100
AcDbEntity
  8
部品1
100
AcDbLine
 10
10487.69580798928
 20
1789.102823835819
 30
0.0
 11
10487.69580798928
 21
1773.55923029637
 31
0.0
  0
LINE
  5
1F97F
330
747D
100
AcDbEntity
  8
部品1
100
AcDbLine
 10
10471.69580798928
 20
1789.102823835819
 30
0.0
 11
10471.69580798928
 21
1773.55923029637
 31
0.0
  0
TEXT
  5
1F980
330
747D
100
AcDbEntity
  8
部品1
100
AcDbText
 10
8984.944780845275
 20
2495.064492189259
 30
0.0
 40
120.0
  1
地盤がコンクリートの場合
  7
STYLE2
100
AcDbText
  0
LINE
  5
1F981
330
747D
100
AcDbEntity
  8
部品1
 48
50.0
100
AcDbLine
 10
11423.6
 20
2919.198442684619
 30
0.0
 11
11423.6
 21
519.1984426846175
 31
0.0
  0
DIMENSION
  5
1F982
330
747D
100
AcDbEntity
  8
寸法
 48
50.0
100
AcDbDimension
  2
*D23
 10
7654.378706623596
 20
1459.959230296372
 30
0.0
 11
7554.378706623596
 21
1559.959230296374
 31
0.0
 70
    32
  1
a
 71
     5
 42
200.0000000000011
  3
INABA_S40G
100
AcDbAlignedDimension
 13
7406.307702263203
 23
1659.959230296373
 33
0.0
 14
7406.307702263204
 24
1459.959230296372
 34
0.0
 50
90.0
100
AcDbRotatedDimension
1001
ACAD
1000
DSTYLE
1002
{
1070
   174
1070
     0
1070
   272
1070
     1
1070
   288
1070
     0
1070
   341
1005
0
1002
}
  0
TEXT
  5
1F983
330
747D
100
AcDbEntity
  8
部品1
100
AcDbText
 10
8312.767257248598
 20
993.1235525317251
 30
0.0
 40
80.0
  1
b寸法：100～120mmに対応
  7
STYLE2
100
AcDbText
  0
TEXT
  5
1F984
330
747D
100
AcDbEntity
  8
部品1
100
AcDbText
 10
8317.31271179405
 20
847.5174919256646
 30
0.0
 40
80.0
  1
\U+203BオールアンカーM10(市販品)
  7
STYLE2
100
AcDbText
  0
TEXT
  5
1F985
330
747D
100
AcDbEntity
  8
部品1
100
AcDbText
 10
8318.676348157685
 20
697.8205222286951
 30
0.0
 40
80.0
  1
  が4本必要になります。
  7
STYLE2
100
AcDbText
  0
TEXT
  5
1F986
330
747D
100
AcDbEntity
  8
部品1
100
AcDbText
 10
9872.09910177323
 20
993.1235525317251
 30
0.0
 40
80.0
  1
c寸法：135～175,190mmに対応
  7
STYLE2
100
AcDbText
  0
TEXT
  5
1F987
330
747D
100
AcDbEntity
  8
部品1
100
AcDbText
 10
9876.190010864142
 20
847.5174919256646
 30
0.0
 40
80.0
  1
\U+203BオールアンカーM10(市販品)
  7
STYLE2
100
AcDbText
  0
TEXT
  5
1F988
330
747D
100
AcDbEntity
  8
部品1
100
AcDbText
 10
9877.553647227777
 20
697.8205222286951
 30
0.0
 40
80.0
  1
  が4本必要になります。
  7
STYLE2
100
AcDbText
  0
TEXT
  5
1F989
330
747D
100
AcDbEntity
  8
部品1
100
AcDbText
 10
6760.149278048942
 20
769.3825263377375
 30
0.0
 40
80.0
  1
a寸法：100～150mmに対応
  7
STYLE2
100
AcDbText
  0
ENDSEC
  0
SECTION
  2
OBJECTS
  0
DICTIONARY
  5
7471
330
0
100
AcDbDictionary
281
     1
  3
ACAD_COLOR
350
159B0
  3
ACAD_GROUP
350
7472
  3
ACAD_LAYOUT
350
159B1
  3
ACAD_MATERIAL
350
159AF
  3
ACAD_MLINESTYLE
350
7473
  3
ACAD_PLOTSETTINGS
350
159B2
  3
ACAD_PLOTSTYLENAME
350
159AD
  3
ACDBHEADERROUNDTRIPXREC
350
1F9E3
  3
AcDbVariableDictionary
350
1F9DF
  3
CONTENTDICTIONARY
350
E71C
  3
DRAWINGVARIABLESDICT
350
F3B9
  0
DICTIONARY
  5
1E67E
330
7467
100
AcDbDictionary
280
     1
281
     1
  3
ACAD_LAYERSTATES
360
1E67F
  0
DICTIONARY
  5
159B0
102
{ACAD_REACTORS
330
7471
102
}
330
7471
100
AcDbDictionary
281
     1
  0
DICTIONARY
  5
7472
102
{ACAD_REACTORS
330
7471
102
}
330
7471
100
AcDbDictionary
281
     1
  3
*A1
350
1F650
  0
DICTIONARY
  5
159B1
102
{ACAD_REACTORS
330
7471
102
}
330
7471
100
AcDbDictionary
281
     1
  3
Model
350
159B3
  3
レイアウト1
350
159B4
  0
DICTIONARY
  5
159AF
102
{ACAD_REACTORS
330
7471
102
}
330
7471
100
AcDbDictionary
281
     1
  0
DICTIONARY
  5
7473
102
{ACAD_REACTORS
330
7471
102
}
330
7471
100
AcDbDictionary
281
     1
  3
STANDARD
350
7480
  0
DICTIONARY
  5
159B2
102
{ACAD_REACTORS
330
7471
102
}
330
7471
100
AcDbDictionary
281
     1
  0
ACDBDICTIONARYWDFLT
  5
159AD
102
{ACAD_REACTORS
330
7471
102
}
330
7471
100
AcDbDictionary
281
     1
  3
Normal
350
159AE
100
AcDbDictionaryWithDefault
340
159AE
  0
DICTIONARY
  5
1F9E3
102
{ACAD_REACTORS
330
7471
102
}
330
7471
100
AcDbDictionary
281
     1
  3
COLORDICT
350
1F9E5
  3
MATERIALDICT
350
1F9E4
  0
DICTIONARY
  5
1F9DF
102
{ACAD_REACTORS
330
7471
102
}
330
7471
100
AcDbDictionary
281
     1
  3
DIMASSOC
350
1F9E0
  3
PROJECTNAME
350
1F9E1
  0
DICTIONARY
  5
E71C
102
{ACAD_REACTORS
330
7471
102
}
330
7471
100
AcDbDictionary
281
     1
  0
DICTIONARY
  5
F3B9
102
{ACAD_REACTORS
330
7471
102
}
330
7471
100
AcDbDictionary
281
     1
1001
DRAWINGVARIABLESXDATA
1000
POLARMODE
1000
1
  0
DICTIONARY
  5
1E67F
102
{ACAD_REACTORS
330
1E67E
102
}
330
1E67E
100
AcDbDictionary
281
     1
  0
GROUP
  5
1F650
102
{ACAD_REACTORS
330
7472
102
}
330
7472
100
AcDbGroup
300

 70
     1
 71
     1
  0
LAYOUT
  5
159B3
102
{ACAD_XDICTIONARY
360
1F9E6
102
}
102
{ACAD_REACTORS
330
159B1
102
}
330
159B1
100
AcDbPlotSettings
  1

  2
iR C3880
  4
A3
  6

 40
5.873749732971191
 41
5.873747825622558
 42
5.873748779296875
 43
5.873748779296875
 44
296.9259948730469
 45
419.9466552734374
 46
0.0
 47
0.0
 48
0.0
 49
0.0
140
0.0
141
0.0
142
1.0
143
41.65811991999086
 70
 11952
 72
     1
 73
     1
 74
     2
  7
inabass.ctb
 75
     0
147
0.0240049239360925
148
0.0
149
0.0
100
AcDbLayout
  1
Model
 70
     1
 71
     0
 10
0.0
 20
0.0
 11
12.0
 21
9.0
 12
0.0
 22
0.0
 32
0.0
 14
0.0
 24
0.0
 34
0.0
 15
0.0
 25
0.0
 35
0.0
146
0.0
 13
0.0
 23
0.0
 33
0.0
 16
1.0
 26
0.0
 36
0.0
 17
0.0
 27
1.0
 37
0.0
 76
     0
330
747D
  0
LAYOUT
  5
159B4
102
{ACAD_XDICTIONARY
360
1F9E8
102
}
102
{ACAD_REACTORS
330
159B1
102
}
330
159B1
100
AcDbPlotSettings
  1

  2
自動 EPSON LP-8400FX (TATENO 上)
  4

  6

 40
0.0
 41
0.0
 42
0.0
 43
0.0
 44
0.0
 45
0.0
 46
0.0
 47
0.0
 48
0.0
 49
0.0
140
0.0
141
0.0
142
1.0
143
1.0
 70
   688
 72
     0
 73
     0
 74
     5
  7
inaba.ctb
 75
    16
147
1.0
148
0.0
149
0.0
100
AcDbLayout
  1
レイアウト1
 70
     0
 71
     1
 10
0.0
 20
0.0
 11
420.0
 21
297.0
 12
0.0
 22
0.0
 32
0.0
 14
1.000000000000000E+20
 24
1.000000000000000E+20
 34
1.000000000000000E+20
 15
-1.000000000000000E+20
 25
-1.000000000000000E+20
 35
-1.000000000000000E+20
146
0.0
 13
0.0
 23
0.0
 33
0.0
 16
1.0
 26
0.0
 36
0.0
 17
0.0
 27
1.0
 37
0.0
 76
     0
330
747A
  0
MLINESTYLE
  5
7480
102
{ACAD_REACTORS
330
7473
102
}
330
7473
100
AcDbMlineStyle
  2
STANDARD
 70
     0
  3

 62
     0
 51
90.0
 52
90.0
 71
     2
 49
0.5
 62
   256
  6
BYLAYER
 49
-0.5
 62
   256
  6
BYLAYER
  0
ACDBPLACEHOLDER
  5
159AE
102
{ACAD_REACTORS
330
159AD
102
}
330
159AD
  0
XRECORD
  5
1F9E5
102
{ACAD_REACTORS
330
1F9E3
102
}
330
1F9E3
100
AcDbXrecord
280
     1
340
159B0
  0
XRECORD
  5
1F9E4
102
{ACAD_REACTORS
330
1F9E3
102
}
330
1F9E3
100
AcDbXrecord
280
     1
340
159AF
  0
DICTIONARYVAR
  5
1F9E0
102
{ACAD_REACTORS
330
1F9DF
102
}
330
1F9DF
100
DictionaryVariables
280
     0
  1
1
  0
DICTIONARYVAR
  5
1F9E1
102
{ACAD_REACTORS
330
1F9DF
102
}
330
1F9DF
100
DictionaryVariables
280
     0
  1

  0
DICTIONARY
  5
1F9E6
330
159B3
100
AcDbDictionary
280
     1
281
     1
  3
ACAD_XREC_ROUNDTRIP
360
1F9E7
  0
DICTIONARY
  5
1F9E8
330
159B4
100
AcDbDictionary
280
     1
281
     1
  3
ACAD_XREC_ROUNDTRIP
360
1F9E9
  0
XRECORD
  5
1F9E7
102
{ACAD_REACTORS
330
1F9E6
102
}
330
1F9E6
100
AcDbXrecord
280
     1
102
SHADEPLOT
 70
     1
102
SHADEPLOTRESLEVEL
 70
     2
102
SHADEPLOTCUSTOMDPI
 70
   300
  0
XRECORD
  5
1F9E9
102
{ACAD_REACTORS
330
1F9E8
102
}
330
1F9E8
100
AcDbXrecord
280
     1
102
SHADEPLOT
 70
     0
102
SHADEPLOTRESLEVEL
 70
     2
102
SHADEPLOTCUSTOMDPI
 70
   300
  0
ENDSEC
  0
EOF
