  0
SECTION
  2
HEADER
  9
$ACADVER
  1
AC1015
  9
$ACADMAINTVER
 70
    20
  9
$DWGCODEPAGE
  3
ANSI_932
  9
$INSBASE
 10
0.0
 20
0.0
 30
0.0
  9
$EXTMIN
 10
139.196816621341
 20
-0.9062337598370504
 30
-0.000000000000013
  9
$EXTMAX
 10
16308.32523385566
 20
11409.93395955253
 30
0.0000000000000023
  9
$LIMMIN
 10
0.0
 20
0.0
  9
$LIMMAX
 10
16800.0
 20
11880.0
  9
$ORTHOMODE
 70
     0
  9
$REGENMODE
 70
     1
  9
$FILLMODE
 70
     1
  9
$QTEXTMODE
 70
     0
  9
$MIRRTEXT
 70
     1
  9
$LTSCALE
 40
20.0
  9
$ATTMODE
 70
     1
  9
$TEXTSIZE
 40
100.0
  9
$TRACEWID
 40
1.0
  9
$TEXTSTYLE
  7
STYLE2
  9
$CLAYER
  8
寸法
  9
$CELTYPE
  6
BYLAYER
  9
$CECOLOR
 62
   256
  9
$CELTSCALE
 40
50.0
  9
$DISPSILH
 70
     0
  9
$DIMSCALE
 40
40.0
  9
$DIMASZ
 40
2.5
  9
$DIMEXO
 40
0.5
  9
$DIMDLI
 40
7.0
  9
$DIMRND
 40
0.0
  9
$DIMDLE
 40
0.0
  9
$DIMEXE
 40
1.5
  9
$DIMTP
 40
0.0
  9
$DIMTM
 40
0.0
  9
$DIMTXT
 40
3.0
  9
$DIMCEN
 40
0.0
  9
$DIMTSZ
 40
0.0
  9
$DIMTOL
 70
     0
  9
$DIMLIM
 70
     0
  9
$DIMTIH
 70
     0
  9
$DIMTOH
 70
     0
  9
$DIMSE1
 70
     0
  9
$DIMSE2
 70
     0
  9
$DIMTAD
 70
     3
  9
$DIMZIN
 70
     8
  9
$DIMBLK
  1

  9
$DIMASO
 70
     1
  9
$DIMSHO
 70
     1
  9
$DIMPOST
  1

  9
$DIMAPOST
  1

  9
$DIMALT
 70
     0
  9
$DIMALTD
 70
     2
  9
$DIMALTF
 40
0.0394
  9
$DIMLFAC
 40
1.0
  9
$DIMTOFL
 70
     1
  9
$DIMTVP
 40
0.0
  9
$DIMTIX
 70
     0
  9
$DIMSOXD
 70
     0
  9
$DIMSAH
 70
     1
  9
$DIMBLK1
  1
DOTSMALL
  9
$DIMBLK2
  1
DOTSMALL
  9
$DIMSTYLE
  2
INABA_S40G
  9
$DIMCLRD
 70
     0
  9
$DIMCLRE
 70
     0
  9
$DIMCLRT
 70
     7
  9
$DIMTFAC
 40
1.0
  9
$DIMGAP
 40
1.0
  9
$DIMJUST
 70
     0
  9
$DIMSD1
 70
     0
  9
$DIMSD2
 70
     0
  9
$DIMTOLJ
 70
     1
  9
$DIMTZIN
 70
     0
  9
$DIMALTZ
 70
     0
  9
$DIMALTTZ
 70
     0
  9
$DIMUPT
 70
     0
  9
$DIMDEC
 70
     1
  9
$DIMTDEC
 70
     1
  9
$DIMALTU
 70
     2
  9
$DIMALTTD
 70
     2
  9
$DIMTXSTY
  7
STYLE1
  9
$DIMAUNIT
 70
     0
  9
$DIMADEC
 70
     0
  9
$DIMALTRND
 40
0.0
  9
$DIMAZIN
 70
     0
  9
$DIMDSEP
 70
    46
  9
$DIMATFIT
 70
     3
  9
$DIMFRAC
 70
     0
  9
$DIMLDRBLK
  1

  9
$DIMLUNIT
 70
     2
  9
$DIMLWD
 70
    -2
  9
$DIMLWE
 70
    -2
  9
$DIMTMOVE
 70
     0
  9
$LUNITS
 70
     2
  9
$LUPREC
 70
     1
  9
$SKETCHINC
 40
1.0
  9
$FILLETRAD
 40
0.0
  9
$AUNITS
 70
     0
  9
$AUPREC
 70
     0
  9
$MENU
  1
acad
  9
$ELEVATION
 40
0.0
  9
$PELEVATION
 40
0.0
  9
$THICKNESS
 40
0.0
  9
$LIMCHECK
 70
     0
  9
$CHAMFERA
 40
3.0
  9
$CHAMFERB
 40
3.0
  9
$CHAMFERC
 40
0.0
  9
$CHAMFERD
 40
0.0
  9
$SKPOLY
 70
     0
  9
$TDCREATE
 40
2451368.612993866
  9
$TDUCREATE
 40
2451368.237993866
  9
$TDUPDATE
 40
2456380.845038877
  9
$TDUUPDATE
 40
2456380.470038877
  9
$TDINDWG
 40
1.4001199769
  9
$TDUSRTIMER
 40
1.4001199769
  9
$USRTIMER
 70
     1
  9
$ANGBASE
 50
0.0
  9
$ANGDIR
 70
     0
  9
$PDMODE
 70
     3
  9
$PDSIZE
 40
2.0
  9
$PLINEWID
 40
0.0
  9
$SPLFRAME
 70
     0
  9
$SPLINETYPE
 70
     6
  9
$SPLINESEGS
 70
     8
  9
$HANDSEED
  5
1F0F6
  9
$SURFTAB1
 70
     6
  9
$SURFTAB2
 70
     6
  9
$SURFTYPE
 70
     6
  9
$SURFU
 70
     6
  9
$SURFV
 70
     6
  9
$UCSBASE
  2

  9
$UCSNAME
  2

  9
$UCSORG
 10
0.0
 20
0.0
 30
0.0
  9
$UCSXDIR
 10
1.0
 20
0.0
 30
0.0
  9
$UCSYDIR
 10
0.0
 20
1.0
 30
0.0
  9
$UCSORTHOREF
  2

  9
$UCSORTHOVIEW
 70
     0
  9
$UCSORGTOP
 10
0.0
 20
0.0
 30
0.0
  9
$UCSORGBOTTOM
 10
0.0
 20
0.0
 30
0.0
  9
$UCSORGLEFT
 10
0.0
 20
0.0
 30
0.0
  9
$UCSORGRIGHT
 10
0.0
 20
0.0
 30
0.0
  9
$UCSORGFRONT
 10
0.0
 20
0.0
 30
0.0
  9
$UCSORGBACK
 10
0.0
 20
0.0
 30
0.0
  9
$PUCSBASE
  2

  9
$PUCSNAME
  2

  9
$PUCSORG
 10
0.0
 20
0.0
 30
0.0
  9
$PUCSXDIR
 10
1.0
 20
0.0
 30
0.0
  9
$PUCSYDIR
 10
0.0
 20
1.0
 30
0.0
  9
$PUCSORTHOREF
  2

  9
$PUCSORTHOVIEW
 70
     0
  9
$PUCSORGTOP
 10
0.0
 20
0.0
 30
0.0
  9
$PUCSORGBOTTOM
 10
0.0
 20
0.0
 30
0.0
  9
$PUCSORGLEFT
 10
0.0
 20
0.0
 30
0.0
  9
$PUCSORGRIGHT
 10
0.0
 20
0.0
 30
0.0
  9
$PUCSORGFRONT
 10
0.0
 20
0.0
 30
0.0
  9
$PUCSORGBACK
 10
0.0
 20
0.0
 30
0.0
  9
$USERI1
 70
     0
  9
$USERI2
 70
     0
  9
$USERI3
 70
     0
  9
$USERI4
 70
     0
  9
$USERI5
 70
     0
  9
$USERR1
 40
0.0
  9
$USERR2
 40
0.0
  9
$USERR3
 40
0.0
  9
$USERR4
 40
0.0
  9
$USERR5
 40
0.0
  9
$WORLDVIEW
 70
     1
  9
$SHADEDGE
 70
     3
  9
$SHADEDIF
 70
    70
  9
$TILEMODE
 70
     1
  9
$MAXACTVP
 70
    16
  9
$PINSBASE
 10
0.0
 20
0.0
 30
0.0
  9
$PLIMCHECK
 70
     0
  9
$PEXTMIN
 10
1.000000000000000E+20
 20
1.000000000000000E+20
 30
1.000000000000000E+20
  9
$PEXTMAX
 10
-1.000000000000000E+20
 20
-1.000000000000000E+20
 30
-1.000000000000000E+20
  9
$PLIMMIN
 10
0.0
 20
0.0
  9
$PLIMMAX
 10
420.0
 20
297.0
  9
$UNITMODE
 70
     0
  9
$VISRETAIN
 70
     0
  9
$PLINEGEN
 70
     0
  9
$PSLTSCALE
 70
     0
  9
$TREEDEPTH
 70
  3020
  9
$CMLSTYLE
  2
STANDARD
  9
$CMLJUST
 70
     0
  9
$CMLSCALE
 40
1.0
  9
$PROXYGRAPHICS
 70
     1
  9
$MEASUREMENT
 70
     1
  9
$CELWEIGHT
370
    -1
  9
$ENDCAPS
280
     0
  9
$JOINSTYLE
280
     0
  9
$LWDISPLAY
290
     0
  9
$INSUNITS
 70
     0
  9
$HYPERLINKBASE
  1

  9
$STYLESHEET
  1
inabass.ctb
  9
$XEDIT
290
     1
  9
$CEPSNTYPE
380
     0
  9
$PSTYLEMODE
290
     1
  9
$FINGERPRINTGUID
  2
{3B57B35E-7D77-4BBF-81B7-6C583B9EB24C}
  9
$VERSIONGUID
  2
{4EE96619-9390-4649-B2E4-31BA187169C1}
  9
$EXTNAMES
290
     1
  9
$PSVPSCALE
 40
0.0
  9
$OLESTARTUP
290
     0
  0
ENDSEC
  0
SECTION
  2
CLASSES
  0
CLASS
  1
ACDBDICTIONARYWDFLT
  2
AcDbDictionaryWithDefault
  3
ObjectDBX Classes
 90
        0
280
     0
281
     0
  0
CLASS
  1
DICTIONARYVAR
  2
AcDbDictionaryVar
  3
ObjectDBX Classes
 90
        0
280
     0
281
     0
  0
CLASS
  1
ACDBPLACEHOLDER
  2
AcDbPlaceHolder
  3
ObjectDBX Classes
 90
        0
280
     0
281
     0
  0
CLASS
  1
LAYOUT
  2
AcDbLayout
  3
ObjectDBX Classes
 90
        0
280
     0
281
     0
  0
ENDSEC
  0
SECTION
  2
TABLES
  0
TABLE
  2
VPORT
  5
746D
330
0
100
AcDbSymbolTable
 70
     3
  0
VPORT
  5
1F0EE
330
746D
100
AcDbSymbolTableRecord
100
AcDbViewportTableRecord
  2
*Active
 70
     0
 10
0.0
 20
0.0
 11
1.0
 21
1.0
 12
8223.761025238502
 22
5704.513862896348
 13
0.0
 23
0.0
 14
10.0
 24
10.0
 15
10.0
 25
10.0
 16
0.0
 26
0.0
 36
1.0
 17
0.0
 27
0.0
 37
0.0
 40
11503.61125179458
 41
1.706919945725915
 42
50.0
 43
0.0
 44
0.0
 50
0.0
 51
0.0
 71
     0
 72
     0
 73
     1
 74
     0
 75
     0
 76
     0
 77
     0
 78
     0
281
     0
 65
     1
110
0.0
120
0.0
130
0.0
111
1.0
121
0.0
131
0.0
112
0.0
122
1.0
132
0.0
 79
     0
146
0.0
  0
ENDTAB
  0
TABLE
  2
LTYPE
  5
746A
330
0
100
AcDbSymbolTable
 70
     4
  0
LTYPE
  5
7477
330
746A
100
AcDbSymbolTableRecord
100
AcDbLinetypeTableRecord
  2
BYBLOCK
 70
     0
  3

 72
    65
 73
     0
 40
0.0
  0
LTYPE
  5
7478
330
746A
100
AcDbSymbolTableRecord
100
AcDbLinetypeTableRecord
  2
BYLAYER
 70
     0
  3

 72
    65
 73
     0
 40
0.0
  0
LTYPE
  5
7479
330
746A
100
AcDbSymbolTableRecord
100
AcDbLinetypeTableRecord
  2
CONTINUOUS
 70
     0
  3
Solid line
 72
    65
 73
     0
 40
0.0
  0
LTYPE
  5
7816
330
746A
100
AcDbSymbolTableRecord
100
AcDbLinetypeTableRecord
  2
CENTER
 70
     0
  3
____ _ ____ _ ____ _ ____ _ ____ _ ____ _ ____ 
 72
    65
 73
     4
 40
2.0
 49
1.25
 74
     0
 49
-0.25
 74
     0
 49
0.25
 74
     0
 49
-0.25
 74
     0
  0
LTYPE
  5
781A
330
746A
100
AcDbSymbolTableRecord
100
AcDbLinetypeTableRecord
  2
HIDDEN
 70
     0
  3
__ __ __ __ __ __ __ __ __ __ __ __ __ __ __ __
 72
    65
 73
     2
 40
0.375
 49
0.25
 74
     0
 49
-0.125
 74
     0
  0
LTYPE
  5
781B
330
746A
100
AcDbSymbolTableRecord
100
AcDbLinetypeTableRecord
  2
PHANTOM
 70
     0
  3
______  __  __  ______  __  __  ______  __  __ 
 72
    65
 73
     6
 40
2.5
 49
1.25
 74
     0
 49
-0.25
 74
     0
 49
0.25
 74
     0
 49
-0.25
 74
     0
 49
0.25
 74
     0
 49
-0.25
 74
     0
  0
ENDTAB
  0
TABLE
  2
LAYER
  5
7467
102
{ACAD_XDICTIONARY
360
1E749
102
}
330
0
100
AcDbSymbolTable
 70
    13
  0
LAYER
  5
7474
330
7467
100
AcDbSymbolTableRecord
100
AcDbLayerTableRecord
  2
0
 70
     0
 62
     7
  6
CONTINUOUS
370
    -3
390
159AE
  0
LAYER
  5
DEB2
330
7467
100
AcDbSymbolTableRecord
100
AcDbLayerTableRecord
  2
センター
 70
     0
 62
     3
  6
CENTER
370
    -3
390
159AE
  0
LAYER
  5
DEB3
330
7467
100
AcDbSymbolTableRecord
100
AcDbLayerTableRecord
  2
寸法
 70
     0
 62
     4
  6
CONTINUOUS
370
    -3
390
159AE
  0
LAYER
  5
DEB4
330
7467
100
AcDbSymbolTableRecord
100
AcDbLayerTableRecord
  2
部品1
 70
     0
 62
     7
  6
CONTINUOUS
370
    -3
390
159AE
  0
LAYER
  5
DEB5
330
7467
100
AcDbSymbolTableRecord
100
AcDbLayerTableRecord
  2
補助
 70
     0
 62
    -1
  6
CONTINUOUS
370
    -3
390
159AE
  0
LAYER
  5
DEB6
330
7467
100
AcDbSymbolTableRecord
100
AcDbLayerTableRecord
  2
文字
 70
     0
 62
     7
  6
CONTINUOUS
370
    -3
390
159AE
  0
LAYER
  5
F255
330
7467
100
AcDbSymbolTableRecord
100
AcDbLayerTableRecord
  2
DEFPOINTS
 70
     0
 62
     7
  6
CONTINUOUS
290
     0
370
    -3
390
159AE
  0
LAYER
  5
10B54
330
7467
100
AcDbSymbolTableRecord
100
AcDbLayerTableRecord
  2
仕様書枠
 70
     0
 62
   230
  6
CONTINUOUS
370
    -3
390
159AE
  0
LAYER
  5
11729
330
7467
100
AcDbSymbolTableRecord
100
AcDbLayerTableRecord
  2
Ｇ．Ｌ
 70
     0
 62
    30
  6
CONTINUOUS
370
    -3
390
159AE
  0
LAYER
  5
1173F
330
7467
100
AcDbSymbolTableRecord
100
AcDbLayerTableRecord
  2
細線
 70
     0
 62
     5
  6
CONTINUOUS
370
    -3
390
159AE
  0
LAYER
  5
12CC4
330
7467
100
AcDbSymbolTableRecord
100
AcDbLayerTableRecord
  2
想像線
 70
     0
 62
     6
  6
PHANTOM
370
    -3
390
159AE
  0
LAYER
  5
142E2
330
7467
100
AcDbSymbolTableRecord
100
AcDbLayerTableRecord
  2
破線
 70
     0
 62
     2
  6
HIDDEN
370
    -3
390
159AE
  0
LAYER
  5
1C644
330
7467
100
AcDbSymbolTableRecord
100
AcDbLayerTableRecord
  2
点線
 70
     0
 62
     2
  6
HIDDEN
370
    -3
390
159AE
  0
ENDTAB
  0
TABLE
  2
STYLE
  5
7468
330
0
100
AcDbSymbolTable
 70
     3
  0
STYLE
  5
7475
330
7468
100
AcDbSymbolTableRecord
100
AcDbTextStyleTableRecord
  2
STANDARD
 70
     0
 40
0.0
 41
1.0
 50
0.0
 71
     0
 42
4.0
  3
txt
  4
C:\AutoCAD LT\bigfont.shx
  0
STYLE
  5
F706
330
7468
100
AcDbSymbolTableRecord
100
AcDbTextStyleTableRecord
  2
STYLE1
 70
     0
 40
0.0
 41
1.0
 50
0.0
 71
     0
 42
100.0
  3
isocp.shx
  4
bigfont.shx
  0
STYLE
  5
103BF
330
7468
100
AcDbSymbolTableRecord
100
AcDbTextStyleTableRecord
  2
STYLE2
 70
     0
 40
0.0
 41
1.0
 50
0.0
 71
     0
 42
100.0
  3
MS PGothic.ttf
  4

1001
ACAD
1000
MS PGothic
1071
    32818
  0
ENDTAB
  0
TABLE
  2
VIEW
  5
746B
330
0
100
AcDbSymbolTable
 70
     0
  0
ENDTAB
  0
TABLE
  2
UCS
  5
746C
330
0
100
AcDbSymbolTable
 70
     0
  0
ENDTAB
  0
TABLE
  2
APPID
  5
746E
330
0
100
AcDbSymbolTable
 70
     6
  0
APPID
  5
7476
330
746E
100
AcDbSymbolTableRecord
100
AcDbRegAppTableRecord
  2
ACAD
 70
     0
  0
APPID
  5
DEA9
330
746E
100
AcDbSymbolTableRecord
100
AcDbRegAppTableRecord
  2
CONTENTBLOCKICON
 70
     0
  0
APPID
  5
DEAA
330
746E
100
AcDbSymbolTableRecord
100
AcDbRegAppTableRecord
  2
CONTENTBLOCKDESCRIPTION
 70
     0
  0
APPID
  5
E71D
330
746E
100
AcDbSymbolTableRecord
100
AcDbRegAppTableRecord
  2
CONTENTTABDATA
 70
     0
  0
APPID
  5
E71E
330
746E
100
AcDbSymbolTableRecord
100
AcDbRegAppTableRecord
  2
CONTENTCURRENTTAB
 70
     0
  0
APPID
  5
F3BA
330
746E
100
AcDbSymbolTableRecord
100
AcDbRegAppTableRecord
  2
DRAWINGVARIABLESXDATA
 70
     0
  0
ENDTAB
  0
TABLE
  2
DIMSTYLE
  5
746F
330
0
100
AcDbSymbolTable
 70
     2
100
AcDbDimStyleTable
 71
     1
340
F71F
  0
DIMSTYLE
105
F71F
102
{ACAD_REACTORS
330
1CCFC
330
1CACA
330
1C9B8
330
1CAB8
330
1CAB7
330
1CAB6
330
1E6C0
330
1E6BF
330
1EF42
330
1EF9F
330
1F007
330
1F069
102
}
330
746F
100
AcDbSymbolTableRecord
100
AcDbDimStyleTableRecord
  2
INABA_S40G
 70
     0
 40
40.0
 41
2.5
 42
0.5
 43
7.0
 44
1.5
 73
     0
 74
     0
 77
     3
 78
     8
140
3.0
141
0.0
143
0.0394
147
1.0
172
     1
173
     1
174
     1
178
     7
271
     1
288
     1
340
F706
341
F770
343
F770
344
F770
  0
DIMSTYLE
105
1C645
330
746F
100
AcDbSymbolTableRecord
100
AcDbDimStyleTableRecord
  2
INABA_S50G
 70
     0
 40
0.0
 41
125.0
 42
25.0
 43
7.0
 44
75.0
 73
     0
 74
     0
 77
     3
 78
     8
140
150.0
141
0.0
143
0.0394
147
25.0
172
     1
173
     1
174
     1
178
     7
271
     1
340
F706
341
F770
343
F770
344
F770
  0
ENDTAB
  0
TABLE
  2
BLOCK_RECORD
  5
7466
330
0
100
AcDbSymbolTable
 70
    45
  0
BLOCK_RECORD
  5
747D
330
7466
100
AcDbSymbolTableRecord
100
AcDbBlockTableRecord
  2
*MODEL_SPACE
340
159B3
  0
BLOCK_RECORD
  5
747A
330
7466
100
AcDbSymbolTableRecord
100
AcDbBlockTableRecord
  2
*PAPER_SPACE
340
159B4
  0
BLOCK_RECORD
  5
F770
330
7466
100
AcDbSymbolTableRecord
100
AcDbBlockTableRecord
  2
_DOTSMALL
340
0
102
{BLKREFS
331
1D3AA
331
1D3AB
331
1E214
331
1E215
331
1E1AD
331
1E1AE
331
1E1D1
331
1E1D2
331
1E1C6
331
1E1C7
331
1E187
331
1E188
331
1E1BA
331
1E1BB
331
1E1DF
331
1E1E0
331
1E1A1
331
1E1A2
331
1E194
331
1E195
331
1E220
331
1E221
331
1E24F
331
1E250
331
1E1FA
331
1E1FB
331
1E1ED
331
1E1EE
331
1E207
331
1E208
331
1E22B
331
1E22C
331
1E242
331
1E243
331
1E17A
331
1E17B
331
1E16D
331
1E16E
331
1E160
331
1E161
331
1E155
331
1E156
331
1E236
331
1E237
331
1E44F
331
1E450
331
1E45A
331
1E45B
331
1E463
331
1E464
331
1E46C
331
1E46D
331
1E477
331
1E478
331
1E6E4
331
1E6E5
331
1E6ED
331
1E6EE
331
1EA7E
331
1EA7F
331
1EA87
331
1EA88
331
1EA90
331
1EA91
331
1EA99
331
1EA9A
331
1EDC3
331
1EDC4
331
1EDB7
331
1EDB8
331
1EDAB
331
1EDAC
331
1EDCF
331
1EDD0
331
1F0C9
331
1F0CA
331
1F0D2
331
1F0D3
331
1F0DB
331
1F0DC
331
1F0E4
331
1F0E5
102
}
  0
BLOCK_RECORD
  5
1C530
330
7466
100
AcDbSymbolTableRecord
100
AcDbBlockTableRecord
  2
_NONE
340
0
  0
BLOCK_RECORD
  5
1CD8F
330
7466
100
AcDbSymbolTableRecord
100
AcDbBlockTableRecord
  2
*D2
340
0
  0
BLOCK_RECORD
  5
1CD9C
330
7466
100
AcDbSymbolTableRecord
100
AcDbBlockTableRecord
  2
*D3
340
0
  0
BLOCK_RECORD
  5
1CDBF
330
7466
100
AcDbSymbolTableRecord
100
AcDbBlockTableRecord
  2
*D4
340
0
  0
BLOCK_RECORD
  5
1CDCD
330
7466
100
AcDbSymbolTableRecord
100
AcDbBlockTableRecord
  2
*D5
340
0
  0
BLOCK_RECORD
  5
1CDD8
330
7466
100
AcDbSymbolTableRecord
100
AcDbBlockTableRecord
  2
*D6
340
0
  0
BLOCK_RECORD
  5
1CDE6
330
7466
100
AcDbSymbolTableRecord
100
AcDbBlockTableRecord
  2
*D7
340
0
  0
BLOCK_RECORD
  5
1E151
330
7466
100
AcDbSymbolTableRecord
100
AcDbBlockTableRecord
  2
*D8
340
0
  0
BLOCK_RECORD
  5
1E15C
330
7466
100
AcDbSymbolTableRecord
100
AcDbBlockTableRecord
  2
*D9
340
0
  0
BLOCK_RECORD
  5
1E167
330
7466
100
AcDbSymbolTableRecord
100
AcDbBlockTableRecord
  2
*D10
340
0
  0
BLOCK_RECORD
  5
1E174
330
7466
100
AcDbSymbolTableRecord
100
AcDbBlockTableRecord
  2
*D11
340
0
  0
BLOCK_RECORD
  5
1E181
330
7466
100
AcDbSymbolTableRecord
100
AcDbBlockTableRecord
  2
*D12
340
0
  0
BLOCK_RECORD
  5
1E18E
330
7466
100
AcDbSymbolTableRecord
100
AcDbBlockTableRecord
  2
*D13
340
0
  0
BLOCK_RECORD
  5
1E19B
330
7466
100
AcDbSymbolTableRecord
100
AcDbBlockTableRecord
  2
*D14
340
0
  0
BLOCK_RECORD
  5
1E1A8
330
7466
100
AcDbSymbolTableRecord
100
AcDbBlockTableRecord
  2
*D15
340
0
  0
BLOCK_RECORD
  5
1E1B4
330
7466
100
AcDbSymbolTableRecord
100
AcDbBlockTableRecord
  2
*D16
340
0
  0
BLOCK_RECORD
  5
1E1C1
330
7466
100
AcDbSymbolTableRecord
100
AcDbBlockTableRecord
  2
*D17
340
0
  0
BLOCK_RECORD
  5
1E1CD
330
7466
100
AcDbSymbolTableRecord
100
AcDbBlockTableRecord
  2
*D18
340
0
  0
BLOCK_RECORD
  5
1E1D8
330
7466
100
AcDbSymbolTableRecord
100
AcDbBlockTableRecord
  2
*D19
340
0
  0
BLOCK_RECORD
  5
1E1E6
330
7466
100
AcDbSymbolTableRecord
100
AcDbBlockTableRecord
  2
*D20
340
0
  0
BLOCK_RECORD
  5
1E1F4
330
7466
100
AcDbSymbolTableRecord
100
AcDbBlockTableRecord
  2
*D21
340
0
  0
BLOCK_RECORD
  5
1E201
330
7466
100
AcDbSymbolTableRecord
100
AcDbBlockTableRecord
  2
*D22
340
0
  0
BLOCK_RECORD
  5
1E20E
330
7466
100
AcDbSymbolTableRecord
100
AcDbBlockTableRecord
  2
*D23
340
0
  0
BLOCK_RECORD
  5
1E21B
330
7466
100
AcDbSymbolTableRecord
100
AcDbBlockTableRecord
  2
*D24
340
0
  0
BLOCK_RECORD
  5
1E227
330
7466
100
AcDbSymbolTableRecord
100
AcDbBlockTableRecord
  2
*D25
340
0
  0
BLOCK_RECORD
  5
1E232
330
7466
100
AcDbSymbolTableRecord
100
AcDbBlockTableRecord
  2
*D26
340
0
  0
BLOCK_RECORD
  5
1E23D
330
7466
100
AcDbSymbolTableRecord
100
AcDbBlockTableRecord
  2
*D27
340
0
  0
BLOCK_RECORD
  5
1E249
330
7466
100
AcDbSymbolTableRecord
100
AcDbBlockTableRecord
  2
*D28
340
0
  0
BLOCK_RECORD
  5
1E256
330
7466
100
AcDbSymbolTableRecord
100
AcDbBlockTableRecord
  2
A$C56A41A26
340
0
  0
BLOCK_RECORD
  5
1E6C9
330
7466
100
AcDbSymbolTableRecord
100
AcDbBlockTableRecord
  2
*D30
340
0
  0
BLOCK_RECORD
  5
1E6D5
330
7466
100
AcDbSymbolTableRecord
100
AcDbBlockTableRecord
  2
*D31
340
0
  0
BLOCK_RECORD
  5
1EA27
330
7466
100
AcDbSymbolTableRecord
100
AcDbBlockTableRecord
  2
*D32
340
0
  0
BLOCK_RECORD
  5
1EA33
330
7466
100
AcDbSymbolTableRecord
100
AcDbBlockTableRecord
  2
*D33
340
0
  0
BLOCK_RECORD
  5
1EA3F
330
7466
100
AcDbSymbolTableRecord
100
AcDbBlockTableRecord
  2
*D34
340
0
  0
BLOCK_RECORD
  5
1EA4B
330
7466
100
AcDbSymbolTableRecord
100
AcDbBlockTableRecord
  2
*D35
340
0
  0
BLOCK_RECORD
  5
1EDA6
330
7466
100
AcDbSymbolTableRecord
100
AcDbBlockTableRecord
  2
*D36
340
0
  0
BLOCK_RECORD
  5
1EDB2
330
7466
100
AcDbSymbolTableRecord
100
AcDbBlockTableRecord
  2
*D37
340
0
  0
BLOCK_RECORD
  5
1EDBE
330
7466
100
AcDbSymbolTableRecord
100
AcDbBlockTableRecord
  2
*D38
340
0
  0
BLOCK_RECORD
  5
1EDCA
330
7466
100
AcDbSymbolTableRecord
100
AcDbBlockTableRecord
  2
*D39
340
0
  0
BLOCK_RECORD
  5
1F096
330
7466
100
AcDbSymbolTableRecord
100
AcDbBlockTableRecord
  2
*D41
340
0
  0
BLOCK_RECORD
  5
1F0A2
330
7466
100
AcDbSymbolTableRecord
100
AcDbBlockTableRecord
  2
*D42
340
0
  0
BLOCK_RECORD
  5
1F0AE
330
7466
100
AcDbSymbolTableRecord
100
AcDbBlockTableRecord
  2
*D43
340
0
  0
BLOCK_RECORD
  5
1F0BA
330
7466
100
AcDbSymbolTableRecord
100
AcDbBlockTableRecord
  2
*D44
340
0
  0
ENDTAB
  0
ENDSEC
  0
SECTION
  2
BLOCKS
  0
BLOCK
  5
7489
330
747D
100
AcDbEntity
  8
0
100
AcDbBlockBegin
  2
*MODEL_SPACE
 70
     0
 10
0.0
 20
0.0
 30
0.0
  3
*MODEL_SPACE
  1

  0
ENDBLK
  5
748A
330
747D
100
AcDbEntity
  8
0
100
AcDbBlockEnd
  0
BLOCK
  5
7487
330
747A
100
AcDbEntity
 67
     1
  8
0
100
AcDbBlockBegin
  2
*PAPER_SPACE
 70
     0
 10
0.0
 20
0.0
 30
0.0
  3
*PAPER_SPACE
  1

  0
ENDBLK
  5
7488
330
747A
100
AcDbEntity
 67
     1
  8
0
100
AcDbBlockEnd
  0
BLOCK
  5
F771
330
F770
100
AcDbEntity
  8
0
 48
50.0
100
AcDbBlockBegin
  2
_DOTSMALL
 70
     0
 10
0.0
 20
0.0
 30
0.0
  3
_DOTSMALL
  1

  0
LWPOLYLINE
  5
F772
330
F770
100
AcDbEntity
  8
0
  6
ByBlock
 62
     0
 48
50.0
100
AcDbPolyline
 90
        2
 70
     1
 43
0.5
 10
-0.0625
 20
0.0
 42
1.0
 10
0.0625
 20
0.0
 42
1.0
  0
ENDBLK
  5
F776
330
F770
100
AcDbEntity
  8
0
 48
50.0
100
AcDbBlockEnd
  0
BLOCK
  5
1C531
330
1C530
100
AcDbEntity
  8
0
 48
50.0
100
AcDbBlockBegin
  2
_NONE
 70
     0
 10
0.0
 20
0.0
 30
0.0
  3
_NONE
  1

  0
CIRCLE
  5
1C532
330
1C530
100
AcDbEntity
  8
0
  6
ByBlock
 62
     0
 48
50.0
100
AcDbCircle
 10
0.0
 20
0.0
 30
0.0
 40
0.25
  0
ENDBLK
  5
1C533
330
1C530
100
AcDbEntity
  8
0
 48
50.0
100
AcDbBlockEnd
  0
BLOCK
  5
1CD9A
330
1CD8F
100
AcDbEntity
  8
0
 48
50.0
100
AcDbBlockBegin
  2
*D2
 70
     1
 10
0.0
 20
0.0
 30
0.0
  3
*D2
  1

  0
LINE
  5
1E44A
330
1CD8F
100
AcDbEntity
  8
寸法
 62
     0
 48
50.0
370
    -2
100
AcDbLine
 10
9119.599999999998
 20
7312.0
 30
0.0
 11
9119.599999999998
 21
7744.412587671622
 31
0.0
  0
LINE
  5
1E44B
330
1CD8F
100
AcDbEntity
  8
寸法
 62
     0
 48
50.0
370
    -2
100
AcDbLine
 10
9169.599999999999
 20
7392.000000000004
 30
0.0
 11
9169.599999999999
 21
7744.412587671622
 31
0.0
  0
LINE
  5
1E44C
330
1CD8F
100
AcDbEntity
  8
寸法
 62
     0
 48
50.0
370
    -2
100
AcDbLine
 10
9119.599999999998
 20
7684.412587671623
 30
0.0
 11
9019.599999999998
 21
7684.412587671623
 31
0.0
  0
LINE
  5
1E44D
330
1CD8F
100
AcDbEntity
  8
寸法
 62
     0
 48
50.0
370
    -2
100
AcDbLine
 10
9169.599999999999
 20
7684.412587671623
 30
0.0
 11
9269.599999999998
 21
7684.412587671623
 31
0.0
  0
LINE
  5
1E44E
330
1CD8F
100
AcDbEntity
  8
寸法
 62
     0
 48
50.0
370
    -2
100
AcDbLine
 10
9119.599999999998
 20
7684.412587671623
 30
0.0
 11
9169.599999999999
 21
7684.412587671623
 31
0.0
  0
INSERT
  5
1E44F
330
1CD8F
100
AcDbEntity
  8
寸法
 62
     0
 48
50.0
370
    -2
100
AcDbBlockReference
  2
_DOTSMALL
 10
9119.599999999998
 20
7684.412587671623
 30
0.0
 41
100.0
 42
100.0
 43
100.0
  0
INSERT
  5
1E450
330
1CD8F
100
AcDbEntity
  8
寸法
 62
     0
 48
50.0
370
    -2
100
AcDbBlockReference
  2
_DOTSMALL
 10
9169.599999999999
 20
7684.412587671623
 30
0.0
 41
100.0
 42
100.0
 43
100.0
 50
180.0
  0
MTEXT
  5
1E451
330
1CD8F
100
AcDbEntity
  8
寸法
 62
     7
 48
50.0
100
AcDbMText
 10
9144.599999999998
 20
7784.412587671623
 30
0.0
 40
120.0
 41
0.0
 71
     5
 72
     1
  1
\A1;a
  7
STYLE1
 73
     1
 44
1.0
1001
ACAD
1000
MTEXTBEGIN
1070
    73
1070
     1
1070
    44
1040
1.0
1070
    74
1070
     0
1000
MTEXTEND
  0
POINT
  5
1E452
330
1CD8F
100
AcDbEntity
  8
DEFPOINTS
 62
     0
 48
50.0
100
AcDbPoint
 10
9119.599999999998
 20
7292.0
 30
0.0
  0
POINT
  5
1E453
330
1CD8F
100
AcDbEntity
  8
DEFPOINTS
 62
     0
 48
50.0
100
AcDbPoint
 10
9169.599999999999
 20
7372.000000000004
 30
0.0
  0
POINT
  5
1E454
330
1CD8F
100
AcDbEntity
  8
DEFPOINTS
 62
     0
 48
50.0
100
AcDbPoint
 10
9169.599999999999
 20
7684.412587671623
 30
0.0
  0
ENDBLK
  5
1CD9B
330
1CD8F
100
AcDbEntity
  8
0
 48
50.0
100
AcDbBlockEnd
  0
BLOCK
  5
1CDA5
330
1CD9C
100
AcDbEntity
  8
0
 48
50.0
100
AcDbBlockBegin
  2
*D3
 70
     1
 10
0.0
 20
0.0
 30
0.0
  3
*D3
  1

  0
LINE
  5
1E469
330
1CD9C
100
AcDbEntity
  8
寸法
 62
     0
 48
50.0
370
    -2
100
AcDbLine
 10
7327.6
 20
7312.0
 30
0.0
 11
7327.6
 21
7744.412587671622
 31
0.0
  0
LINE
  5
1E46A
330
1CD9C
100
AcDbEntity
  8
寸法
 62
     0
 48
50.0
370
    -2
100
AcDbLine
 10
9119.599999999998
 20
7312.0
 30
0.0
 11
9119.599999999998
 21
7744.412587671622
 31
0.0
  0
LINE
  5
1E46B
330
1CD9C
100
AcDbEntity
  8
寸法
 62
     0
 48
50.0
370
    -2
100
AcDbLine
 10
7327.6
 20
7684.41258767162
 30
0.0
 11
9119.599999999998
 21
7684.41258767162
 31
0.0
  0
INSERT
  5
1E46C
330
1CD9C
100
AcDbEntity
  8
寸法
 62
     0
 48
50.0
370
    -2
100
AcDbBlockReference
  2
_DOTSMALL
 10
7327.6
 20
7684.41258767162
 30
0.0
 41
100.0
 42
100.0
 43
100.0
 50
180.0
  0
INSERT
  5
1E46D
330
1CD9C
100
AcDbEntity
  8
寸法
 62
     0
 48
50.0
370
    -2
100
AcDbBlockReference
  2
_DOTSMALL
 10
9119.599999999998
 20
7684.41258767162
 30
0.0
 41
100.0
 42
100.0
 43
100.0
  0
MTEXT
  5
1E46E
330
1CD9C
100
AcDbEntity
  8
寸法
 62
     7
 48
50.0
100
AcDbMText
 10
8223.599999999999
 20
7784.453400236424
 30
0.0
 40
120.0
 41
0.0
 71
     5
 72
     1
  1
\A1;1792
  7
STYLE1
 73
     1
 44
1.0
1001
ACAD
1000
MTEXTBEGIN
1070
    73
1070
     1
1070
    44
1040
1.0
1070
    74
1070
     0
1000
MTEXTEND
  0
POINT
  5
1E46F
330
1CD9C
100
AcDbEntity
  8
DEFPOINTS
 62
     0
 48
50.0
100
AcDbPoint
 10
7327.6
 20
7292.0
 30
0.0
  0
POINT
  5
1E470
330
1CD9C
100
AcDbEntity
  8
DEFPOINTS
 62
     0
 48
50.0
100
AcDbPoint
 10
9119.599999999998
 20
7292.0
 30
0.0
  0
POINT
  5
1E471
330
1CD9C
100
AcDbEntity
  8
DEFPOINTS
 62
     0
 48
50.0
100
AcDbPoint
 10
9119.599999999998
 20
7684.41258767162
 30
0.0
  0
ENDBLK
  5
1CDA6
330
1CD9C
100
AcDbEntity
  8
0
 48
50.0
100
AcDbBlockEnd
  0
BLOCK
  5
1CDCB
330
1CDBF
100
AcDbEntity
  8
0
 48
50.0
100
AcDbBlockBegin
  2
*D4
 70
     1
 10
0.0
 20
0.0
 30
0.0
  3
*D4
  1

  0
LINE
  5
1D3A5
330
1CDBF
100
AcDbEntity
  8
寸法
 62
     0
 48
50.0
370
    -2
100
AcDbLine
 10
7307.6
 20
5500.0
 30
0.0
 11
6826.888116550751
 21
5500.0
 31
0.0
  0
LINE
  5
1D3A6
330
1CDBF
100
AcDbEntity
  8
寸法
 62
     0
 48
50.0
370
    -2
100
AcDbLine
 10
7257.6
 20
5440.0
 30
0.0
 11
6826.888116550751
 21
5440.0
 31
0.0
  0
LINE
  5
1D3A7
330
1CDBF
100
AcDbEntity
  8
寸法
 62
     0
 48
50.0
370
    -2
100
AcDbLine
 10
6886.88811655075
 20
5500.0
 30
0.0
 11
6886.88811655075
 21
5600.0
 31
0.0
  0
LINE
  5
1D3A8
330
1CDBF
100
AcDbEntity
  8
寸法
 62
     0
 48
50.0
370
    -2
100
AcDbLine
 10
6886.88811655075
 20
5440.0
 30
0.0
 11
6886.88811655075
 21
5340.0
 31
0.0
  0
LINE
  5
1D3A9
330
1CDBF
100
AcDbEntity
  8
寸法
 62
     0
 48
50.0
370
    -2
100
AcDbLine
 10
6886.88811655075
 20
5500.0
 30
0.0
 11
6886.88811655075
 21
5440.0
 31
0.0
  0
INSERT
  5
1D3AA
330
1CDBF
100
AcDbEntity
  8
寸法
 62
     0
 48
50.0
370
    -2
100
AcDbBlockReference
  2
_DOTSMALL
 10
6886.88811655075
 20
5500.0
 30
0.0
 41
100.0
 42
100.0
 43
100.0
 50
270.0
  0
INSERT
  5
1D3AB
330
1CDBF
100
AcDbEntity
  8
寸法
 62
     0
 48
50.0
370
    -2
100
AcDbBlockReference
  2
_DOTSMALL
 10
6886.88811655075
 20
5440.0
 30
0.0
 41
100.0
 42
100.0
 43
100.0
 50
90.0
  0
MTEXT
  5
1D3AC
330
1CDBF
100
AcDbEntity
  8
寸法
 62
     7
 48
50.0
100
AcDbMText
 10
6786.888116550748
 20
5470.000000000002
 30
0.0
 40
120.0
 41
0.0
 71
     5
 72
     1
  1
\A1;b
  7
STYLE1
 11
0.0000000000000001
 21
1.0
 31
0.0
 73
     1
 44
1.0
1001
ACAD
1000
MTEXTBEGIN
1070
    73
1070
     1
1070
    44
1040
1.0
1070
    74
1070
     0
1000
MTEXTEND
  0
POINT
  5
1D3AD
330
1CDBF
100
AcDbEntity
  8
DEFPOINTS
 62
     0
 48
50.0
100
AcDbPoint
 10
7327.600000000001
 20
5500.0
 30
0.0
  0
POINT
  5
1D3AE
330
1CDBF
100
AcDbEntity
  8
DEFPOINTS
 62
     0
 48
50.0
100
AcDbPoint
 10
7277.600000000001
 20
5440.0
 30
0.0
  0
POINT
  5
1D3AF
330
1CDBF
100
AcDbEntity
  8
DEFPOINTS
 62
     0
 48
50.0
100
AcDbPoint
 10
6886.88811655075
 20
5440.0
 30
0.0
  0
ENDBLK
  5
1CDCC
330
1CDBF
100
AcDbEntity
  8
0
 48
50.0
100
AcDbBlockEnd
  0
BLOCK
  5
1CDD6
330
1CDCD
100
AcDbEntity
  8
0
 48
50.0
100
AcDbBlockBegin
  2
*D5
 70
     1
 10
0.0
 20
0.0
 30
0.0
  3
*D5
  1

  0
LINE
  5
1E474
330
1CDCD
100
AcDbEntity
  8
寸法
 62
     0
 48
50.0
370
    -2
100
AcDbLine
 10
7307.599999999999
 20
7292.0
 30
0.0
 11
6826.888116550751
 21
7292.0
 31
0.0
  0
LINE
  5
1E475
330
1CDCD
100
AcDbEntity
  8
寸法
 62
     0
 48
50.0
370
    -2
100
AcDbLine
 10
7307.6
 20
5500.0
 30
0.0
 11
6826.888116550751
 21
5500.0
 31
0.0
  0
LINE
  5
1E476
330
1CDCD
100
AcDbEntity
  8
寸法
 62
     0
 48
50.0
370
    -2
100
AcDbLine
 10
6886.888116550752
 20
7292.0
 30
0.0
 11
6886.88811655075
 21
5500.0
 31
0.0
  0
INSERT
  5
1E477
330
1CDCD
100
AcDbEntity
  8
寸法
 62
     0
 48
50.0
370
    -2
100
AcDbBlockReference
  2
_DOTSMALL
 10
6886.888116550752
 20
7292.0
 30
0.0
 41
100.0
 42
100.0
 43
100.0
 50
90.0
  0
INSERT
  5
1E478
330
1CDCD
100
AcDbEntity
  8
寸法
 62
     0
 48
50.0
370
    -2
100
AcDbBlockReference
  2
_DOTSMALL
 10
6886.88811655075
 20
5500.0
 30
0.0
 41
100.0
 42
100.0
 43
100.0
 50
270.0
  0
MTEXT
  5
1E479
330
1CDCD
100
AcDbEntity
  8
寸法
 62
     7
 48
50.0
100
AcDbMText
 10
6786.847303985945
 20
6396.000000000002
 30
0.0
 40
120.0
 41
0.0
 71
     5
 72
     1
  1
\A1;1792
  7
STYLE1
 11
0.0000000000000001
 21
1.0
 31
0.0
 73
     1
 44
1.0
1001
ACAD
1000
MTEXTBEGIN
1070
    73
1070
     1
1070
    44
1040
1.0
1070
    74
1070
     0
1000
MTEXTEND
  0
POINT
  5
1E47A
330
1CDCD
100
AcDbEntity
  8
DEFPOINTS
 62
     0
 48
50.0
100
AcDbPoint
 10
7327.6
 20
7292.0
 30
0.0
  0
POINT
  5
1E47B
330
1CDCD
100
AcDbEntity
  8
DEFPOINTS
 62
     0
 48
50.0
100
AcDbPoint
 10
7327.600000000001
 20
5500.0
 30
0.0
  0
POINT
  5
1E47C
330
1CDCD
100
AcDbEntity
  8
DEFPOINTS
 62
     0
 48
50.0
100
AcDbPoint
 10
6886.88811655075
 20
5500.0
 30
0.0
  0
ENDBLK
  5
1CDD7
330
1CDCD
100
AcDbEntity
  8
0
 48
50.0
100
AcDbBlockEnd
  0
BLOCK
  5
1CDE4
330
1CDD8
100
AcDbEntity
  8
0
 48
50.0
100
AcDbBlockBegin
  2
*D6
 70
     1
 10
0.0
 20
0.0
 30
0.0
  3
*D6
  1

  0
LINE
  5
1E460
330
1CDD8
100
AcDbEntity
  8
寸法
 62
     0
 48
50.0
370
    -2
100
AcDbLine
 10
7257.6
 20
7372.0
 30
0.0
 11
6826.888116550751
 21
7372.0
 31
0.0
  0
LINE
  5
1E461
330
1CDD8
100
AcDbEntity
  8
寸法
 62
     0
 48
50.0
370
    -2
100
AcDbLine
 10
7307.599999999999
 20
7292.0
 30
0.0
 11
6826.888116550751
 21
7292.0
 31
0.0
  0
LINE
  5
1E462
330
1CDD8
100
AcDbEntity
  8
寸法
 62
     0
 48
50.0
370
    -2
100
AcDbLine
 10
6886.88811655075
 20
7372.0
 30
0.0
 11
6886.88811655075
 21
7292.0
 31
0.0
  0
INSERT
  5
1E463
330
1CDD8
100
AcDbEntity
  8
寸法
 62
     0
 48
50.0
370
    -2
100
AcDbBlockReference
  2
_DOTSMALL
 10
6886.88811655075
 20
7372.0
 30
0.0
 41
100.0
 42
100.0
 43
100.0
 50
90.0
  0
INSERT
  5
1E464
330
1CDD8
100
AcDbEntity
  8
寸法
 62
     0
 48
50.0
370
    -2
100
AcDbBlockReference
  2
_DOTSMALL
 10
6886.88811655075
 20
7292.0
 30
0.0
 41
100.0
 42
100.0
 43
100.0
 50
270.0
  0
MTEXT
  5
1E465
330
1CDD8
100
AcDbEntity
  8
寸法
 62
     7
 48
50.0
100
AcDbMText
 10
6786.888116550748
 20
7332.000000000002
 30
0.0
 40
120.0
 41
0.0
 71
     5
 72
     1
  1
\A1;c
  7
STYLE1
 11
0.0000000000000001
 21
1.0
 31
0.0
 73
     1
 44
1.0
1001
ACAD
1000
MTEXTBEGIN
1070
    73
1070
     1
1070
    44
1040
1.0
1070
    74
1070
     0
1000
MTEXTEND
  0
POINT
  5
1E466
330
1CDD8
100
AcDbEntity
  8
DEFPOINTS
 62
     0
 48
50.0
100
AcDbPoint
 10
7277.599999999999
 20
7372.0
 30
0.0
  0
POINT
  5
1E467
330
1CDD8
100
AcDbEntity
  8
DEFPOINTS
 62
     0
 48
50.0
100
AcDbPoint
 10
7327.6
 20
7292.0
 30
0.0
  0
POINT
  5
1E468
330
1CDD8
100
AcDbEntity
  8
DEFPOINTS
 62
     0
 48
50.0
100
AcDbPoint
 10
6886.88811655075
 20
7292.0
 30
0.0
  0
ENDBLK
  5
1CDE5
330
1CDD8
100
AcDbEntity
  8
0
 48
50.0
100
AcDbBlockEnd
  0
BLOCK
  5
1CDF1
330
1CDE6
100
AcDbEntity
  8
0
 48
50.0
100
AcDbBlockBegin
  2
*D7
 70
     1
 10
0.0
 20
0.0
 30
0.0
  3
*D7
  1

  0
LINE
  5
1E455
330
1CDE6
100
AcDbEntity
  8
寸法
 62
     0
 48
50.0
370
    -2
100
AcDbLine
 10
7277.599999999999
 20
7392.0
 30
0.0
 11
7277.599999999999
 21
7744.412587671622
 31
0.0
  0
LINE
  5
1E456
330
1CDE6
100
AcDbEntity
  8
寸法
 62
     0
 48
50.0
370
    -2
100
AcDbLine
 10
7327.6
 20
7312.0
 30
0.0
 11
7327.6
 21
7744.412587671622
 31
0.0
  0
LINE
  5
1E457
330
1CDE6
100
AcDbEntity
  8
寸法
 62
     0
 48
50.0
370
    -2
100
AcDbLine
 10
7277.599999999999
 20
7684.412587671623
 30
0.0
 11
7177.599999999999
 21
7684.412587671623
 31
0.0
  0
LINE
  5
1E458
330
1CDE6
100
AcDbEntity
  8
寸法
 62
     0
 48
50.0
370
    -2
100
AcDbLine
 10
7327.6
 20
7684.412587671623
 30
0.0
 11
7427.599999999999
 21
7684.412587671623
 31
0.0
  0
LINE
  5
1E459
330
1CDE6
100
AcDbEntity
  8
寸法
 62
     0
 48
50.0
370
    -2
100
AcDbLine
 10
7277.599999999999
 20
7684.412587671623
 30
0.0
 11
7327.6
 21
7684.412587671623
 31
0.0
  0
INSERT
  5
1E45A
330
1CDE6
100
AcDbEntity
  8
寸法
 62
     0
 48
50.0
370
    -2
100
AcDbBlockReference
  2
_DOTSMALL
 10
7277.599999999999
 20
7684.412587671623
 30
0.0
 41
100.0
 42
100.0
 43
100.0
  0
INSERT
  5
1E45B
330
1CDE6
100
AcDbEntity
  8
寸法
 62
     0
 48
50.0
370
    -2
100
AcDbBlockReference
  2
_DOTSMALL
 10
7327.6
 20
7684.412587671623
 30
0.0
 41
100.0
 42
100.0
 43
100.0
 50
180.0
  0
MTEXT
  5
1E45C
330
1CDE6
100
AcDbEntity
  8
寸法
 62
     7
 48
50.0
100
AcDbMText
 10
7302.599999999999
 20
7784.412587671623
 30
0.0
 40
120.0
 41
0.0
 71
     5
 72
     1
  1
\A1;a
  7
STYLE1
 73
     1
 44
1.0
1001
ACAD
1000
MTEXTBEGIN
1070
    73
1070
     1
1070
    44
1040
1.0
1070
    74
1070
     0
1000
MTEXTEND
  0
POINT
  5
1E45D
330
1CDE6
100
AcDbEntity
  8
DEFPOINTS
 62
     0
 48
50.0
100
AcDbPoint
 10
7277.599999999999
 20
7372.0
 30
0.0
  0
POINT
  5
1E45E
330
1CDE6
100
AcDbEntity
  8
DEFPOINTS
 62
     0
 48
50.0
100
AcDbPoint
 10
7327.6
 20
7292.0
 30
0.0
  0
POINT
  5
1E45F
330
1CDE6
100
AcDbEntity
  8
DEFPOINTS
 62
     0
 48
50.0
100
AcDbPoint
 10
7327.6
 20
7684.412587671623
 30
0.0
  0
ENDBLK
  5
1CDF2
330
1CDE6
100
AcDbEntity
  8
0
 48
50.0
100
AcDbBlockEnd
  0
BLOCK
  5
1E152
330
1E151
100
AcDbEntity
  8
0
 48
50.0
100
AcDbBlockBegin
  2
*D8
 70
     1
 10
0.0
 20
0.0
 30
0.0
  3
*D8
  1

  0
LINE
  5
1E153
330
1E151
100
AcDbEntity
  8
0
  6
ByBlock
 62
     0
 48
50.0
100
AcDbLine
 10
5296.0
 20
8029.0
 30
0.0
 11
5296.0
 21
9017.667619817153
 31
0.0
  0
LINE
  5
1E154
330
1E151
100
AcDbEntity
  8
0
  6
ByBlock
 62
     0
 48
50.0
100
AcDbLine
 10
3496.0
 20
8942.667619817154
 30
0.0
 11
5296.0
 21
8942.667619817154
 31
0.0
  0
INSERT
  5
1E155
330
1E151
100
AcDbEntity
  8
0
  6
ByBlock
 62
     0
 48
50.0
100
AcDbBlockReference
  2
_DOTSMALL
 10
3496.0
 20
8942.667619817154
 30
0.0
 41
125.0
 42
125.0
 43
125.0
 50
180.0
  0
INSERT
  5
1E156
330
1E151
100
AcDbEntity
  8
0
  6
ByBlock
 62
     0
 48
50.0
100
AcDbBlockReference
  2
_DOTSMALL
 10
5296.0
 20
8942.667619817154
 30
0.0
 41
125.0
 42
125.0
 43
125.0
  0
MTEXT
  5
1E157
330
1E151
100
AcDbEntity
  8
0
  6
ByBlock
 62
     7
 48
50.0
100
AcDbMText
 10
4396.0
 20
9042.667619817153
 30
0.0
 40
150.0
 41
0.0
 71
     5
 72
     1
  1
\A1;1800
  7
STYLE1
 73
     1
 44
1.0
1001
ACAD
1000
MTEXTBEGIN
1070
    73
1070
     1
1070
    44
1040
1.0
1070
    74
1070
     0
1000
MTEXTEND
  0
POINT
  5
1E158
330
1E151
100
AcDbEntity
  8
DEFPOINTS
  6
ByBlock
 62
     0
 48
50.0
100
AcDbPoint
 10
3496.0
 20
8004.0
 30
0.0
  0
POINT
  5
1E159
330
1E151
100
AcDbEntity
  8
DEFPOINTS
  6
ByBlock
 62
     0
 48
50.0
100
AcDbPoint
 10
5296.0
 20
8004.0
 30
0.0
  0
POINT
  5
1E15A
330
1E151
100
AcDbEntity
  8
DEFPOINTS
  6
ByBlock
 62
     0
 48
50.0
100
AcDbPoint
 10
5296.0
 20
8942.667619817154
 30
0.0
  0
ENDBLK
  5
1E15B
330
1E151
100
AcDbEntity
  8
0
 48
50.0
100
AcDbBlockEnd
  0
BLOCK
  5
1E15D
330
1E15C
100
AcDbEntity
  8
0
 48
50.0
100
AcDbBlockBegin
  2
*D9
 70
     1
 10
0.0
 20
0.0
 30
0.0
  3
*D9
  1

  0
LINE
  5
1E15E
330
1E15C
100
AcDbEntity
  8
0
  6
ByBlock
 62
     0
 48
50.0
100
AcDbLine
 10
3619.0
 20
7956.0
 30
0.0
 11
3619.0
 21
8805.206924300318
 31
0.0
  0
LINE
  5
1E15F
330
1E15C
100
AcDbEntity
  8
0
  6
ByBlock
 62
     0
 48
50.0
100
AcDbLine
 10
5173.0
 20
8730.206924300317
 30
0.0
 11
3619.0
 21
8730.206924300317
 31
0.0
  0
INSERT
  5
1E160
330
1E15C
100
AcDbEntity
  8
0
  6
ByBlock
 62
     0
 48
50.0
100
AcDbBlockReference
  2
_DOTSMALL
 10
5173.0
 20
8730.206924300317
 30
0.0
 41
125.0
 42
125.0
 43
125.0
  0
INSERT
  5
1E161
330
1E15C
100
AcDbEntity
  8
0
  6
ByBlock
 62
     0
 48
50.0
100
AcDbBlockReference
  2
_DOTSMALL
 10
3619.0
 20
8730.206924300317
 30
0.0
 41
125.0
 42
125.0
 43
125.0
 50
180.0
  0
MTEXT
  5
1E162
330
1E15C
100
AcDbEntity
  8
0
  6
ByBlock
 62
     7
 48
50.0
100
AcDbMText
 10
4396.0
 20
8830.206924300318
 30
0.0
 40
150.0
 41
0.0
 71
     5
 72
     1
  1
\A1;1554
  7
STYLE1
 73
     1
 44
1.0
1001
ACAD
1000
MTEXTBEGIN
1070
    73
1070
     1
1070
    44
1040
1.0
1070
    74
1070
     0
1000
MTEXTEND
  0
POINT
  5
1E163
330
1E15C
100
AcDbEntity
  8
DEFPOINTS
  6
ByBlock
 62
     0
 48
50.0
100
AcDbPoint
 10
5173.0
 20
7931.0
 30
0.0
  0
POINT
  5
1E164
330
1E15C
100
AcDbEntity
  8
DEFPOINTS
  6
ByBlock
 62
     0
 48
50.0
100
AcDbPoint
 10
3619.0
 20
7931.0
 30
0.0
  0
POINT
  5
1E165
330
1E15C
100
AcDbEntity
  8
DEFPOINTS
  6
ByBlock
 62
     0
 48
50.0
100
AcDbPoint
 10
3619.0
 20
8730.206924300317
 30
0.0
  0
ENDBLK
  5
1E166
330
1E15C
100
AcDbEntity
  8
0
 48
50.0
100
AcDbBlockEnd
  0
BLOCK
  5
1E168
330
1E167
100
AcDbEntity
  8
0
 48
50.0
100
AcDbBlockBegin
  2
*D10
 70
     1
 10
0.0
 20
0.0
 30
0.0
  3
*D10
  1

  0
LINE
  5
1E169
330
1E167
100
AcDbEntity
  8
0
  6
ByBlock
 62
     0
 48
50.0
100
AcDbLine
 10
3751.000000000001
 20
2304.000000000004
 30
0.0
 11
4106.75372407693
 21
2304.000000000004
 31
0.0
  0
LINE
  5
1E16A
330
1E167
100
AcDbEntity
  8
0
  6
ByBlock
 62
     0
 48
50.0
100
AcDbLine
 10
3821.000000000001
 20
2504.000000000007
 30
0.0
 11
4106.75372407693
 21
2504.000000000007
 31
0.0
  0
LINE
  5
1E16B
330
1E167
100
AcDbEntity
  8
0
  6
ByBlock
 62
     0
 48
50.0
100
AcDbLine
 10
4031.753724076931
 20
2304.000000000004
 30
0.0
 11
4031.753724076931
 21
2504.000000000007
 31
0.0
  0
LINE
  5
1E16C
330
1E167
100
AcDbEntity
  8
0
  6
ByBlock
 62
     0
 48
50.0
100
AcDbLine
 10
4031.753724076931
 20
2504.000000000007
 30
0.0
 11
4031.753724076931
 21
2952.927165354338
 31
0.0
  0
INSERT
  5
1E16D
330
1E167
100
AcDbEntity
  8
0
  6
ByBlock
 62
     0
 48
50.0
100
AcDbBlockReference
  2
_DOTSMALL
 10
4031.753724076931
 20
2304.000000000004
 30
0.0
 41
125.0
 42
125.0
 43
125.0
 50
270.0
  0
INSERT
  5
1E16E
330
1E167
100
AcDbEntity
  8
0
  6
ByBlock
 62
     0
 48
50.0
100
AcDbBlockReference
  2
_DOTSMALL
 10
4031.753724076931
 20
2504.000000000007
 30
0.0
 41
125.0
 42
125.0
 43
125.0
 50
90.0
  0
MTEXT
  5
1E16F
330
1E167
100
AcDbEntity
  8
0
  6
ByBlock
 62
     7
 48
50.0
100
AcDbMText
 10
3931.738960297403
 20
2790.963582677173
 30
0.0
 40
150.0
 41
0.0
 71
     5
 72
     1
  1
\A1;200
  7
STYLE1
 11
0.0000000000000001
 21
1.0
 31
0.0
 73
     1
 44
1.0
1001
ACAD
1000
MTEXTBEGIN
1070
    73
1070
     1
1070
    44
1040
1.0
1070
    74
1070
     0
1000
MTEXTEND
  0
POINT
  5
1E170
330
1E167
100
AcDbEntity
  8
DEFPOINTS
  6
ByBlock
 62
     0
 48
50.0
100
AcDbPoint
 10
3726.000000000001
 20
2304.000000000004
 30
0.0
  0
POINT
  5
1E171
330
1E167
100
AcDbEntity
  8
DEFPOINTS
  6
ByBlock
 62
     0
 48
50.0
100
AcDbPoint
 10
3796.000000000001
 20
2504.000000000007
 30
0.0
  0
POINT
  5
1E172
330
1E167
100
AcDbEntity
  8
DEFPOINTS
  6
ByBlock
 62
     0
 48
50.0
100
AcDbPoint
 10
4031.753724076931
 20
2504.000000000007
 30
0.0
  0
ENDBLK
  5
1E173
330
1E167
100
AcDbEntity
  8
0
 48
50.0
100
AcDbBlockEnd
  0
BLOCK
  5
1E175
330
1E174
100
AcDbEntity
  8
0
 48
50.0
100
AcDbBlockBegin
  2
*D11
 70
     1
 10
0.0
 20
0.0
 30
0.0
  3
*D11
  1

  0
LINE
  5
1E176
330
1E174
100
AcDbEntity
  8
0
  6
ByBlock
 62
     0
 48
50.0
100
AcDbLine
 10
3751.000000000001
 20
6724.000000000005
 30
0.0
 11
4106.75372407693
 21
6724.000000000005
 31
0.0
  0
LINE
  5
1E177
330
1E174
100
AcDbEntity
  8
0
  6
ByBlock
 62
     0
 48
50.0
100
AcDbLine
 10
3751.000000000002
 20
6624.000000000002
 30
0.0
 11
4106.75372407693
 21
6624.000000000002
 31
0.0
  0
LINE
  5
1E178
330
1E174
100
AcDbEntity
  8
0
  6
ByBlock
 62
     0
 48
50.0
100
AcDbLine
 10
4031.753724076931
 20
6724.000000000005
 30
0.0
 11
4031.753724076931
 21
6624.000000000002
 31
0.0
  0
LINE
  5
1E179
330
1E174
100
AcDbEntity
  8
0
  6
ByBlock
 62
     0
 48
50.0
100
AcDbLine
 10
4031.753724076931
 20
6624.000000000002
 30
0.0
 11
4031.753724076931
 21
6200.857401609004
 31
0.0
  0
INSERT
  5
1E17A
330
1E174
100
AcDbEntity
  8
0
  6
ByBlock
 62
     0
 48
50.0
100
AcDbBlockReference
  2
_DOTSMALL
 10
4031.753724076931
 20
6724.000000000005
 30
0.0
 41
125.0
 42
125.0
 43
125.0
 50
90.0
  0
INSERT
  5
1E17B
330
1E174
100
AcDbEntity
  8
0
  6
ByBlock
 62
     0
 48
50.0
100
AcDbBlockReference
  2
_DOTSMALL
 10
4031.753724076931
 20
6624.000000000002
 30
0.0
 41
125.0
 42
125.0
 43
125.0
 50
270.0
  0
MTEXT
  5
1E17C
330
1E174
100
AcDbEntity
  8
0
  6
ByBlock
 62
     7
 48
50.0
100
AcDbMText
 10
3931.75372407693
 20
6345.916456727114
 30
0.0
 40
150.0
 41
0.0
 71
     5
 72
     1
  1
\A1;100
  7
STYLE1
 11
0.0000000000000001
 21
1.0
 31
0.0
 73
     1
 44
1.0
1001
ACAD
1000
MTEXTBEGIN
1070
    73
1070
     1
1070
    44
1040
1.0
1070
    74
1070
     0
1000
MTEXTEND
  0
POINT
  5
1E17D
330
1E174
100
AcDbEntity
  8
DEFPOINTS
  6
ByBlock
 62
     0
 48
50.0
100
AcDbPoint
 10
3726.000000000001
 20
6724.000000000005
 30
0.0
  0
POINT
  5
1E17E
330
1E174
100
AcDbEntity
  8
DEFPOINTS
  6
ByBlock
 62
     0
 48
50.0
100
AcDbPoint
 10
3726.000000000002
 20
6624.000000000002
 30
0.0
  0
POINT
  5
1E17F
330
1E174
100
AcDbEntity
  8
DEFPOINTS
  6
ByBlock
 62
     0
 48
50.0
100
AcDbPoint
 10
4031.753724076931
 20
6624.000000000002
 30
0.0
  0
ENDBLK
  5
1E180
330
1E174
100
AcDbEntity
  8
0
 48
50.0
100
AcDbBlockEnd
  0
BLOCK
  5
1E182
330
1E181
100
AcDbEntity
  8
0
 48
50.0
100
AcDbBlockBegin
  2
*D12
 70
     1
 10
0.0
 20
0.0
 30
0.0
  3
*D12
  1

  0
LINE
  5
1E183
330
1E181
100
AcDbEntity
  8
0
  6
ByBlock
 62
     0
 48
50.0
100
AcDbLine
 10
3544.000000000006
 20
6822.000000000001
 30
0.0
 11
2925.057733986177
 21
6822.000000000001
 31
0.0
  0
LINE
  5
1E184
330
1E181
100
AcDbEntity
  8
0
  6
ByBlock
 62
     0
 48
50.0
100
AcDbLine
 10
3471.0
 20
6624.0
 30
0.0
 11
2925.057733986177
 21
6624.0
 31
0.0
  0
LINE
  5
1E185
330
1E181
100
AcDbEntity
  8
0
  6
ByBlock
 62
     0
 48
50.0
100
AcDbLine
 10
3000.057733986178
 20
6822.000000000001
 30
0.0
 11
3000.057733986178
 21
6624.0
 31
0.0
  0
LINE
  5
1E186
330
1E181
100
AcDbEntity
  8
0
  6
ByBlock
 62
     0
 48
50.0
100
AcDbLine
 10
3000.057733986178
 20
6624.0
 30
0.0
 11
3000.057733986178
 21
6143.206976370337
 31
0.0
  0
INSERT
  5
1E187
330
1E181
100
AcDbEntity
  8
0
  6
ByBlock
 62
     0
 48
50.0
100
AcDbBlockReference
  2
_DOTSMALL
 10
3000.057733986178
 20
6822.000000000001
 30
0.0
 41
125.0
 42
125.0
 43
125.0
 50
90.0
  0
INSERT
  5
1E188
330
1E181
100
AcDbEntity
  8
0
  6
ByBlock
 62
     0
 48
50.0
100
AcDbBlockReference
  2
_DOTSMALL
 10
3000.057733986178
 20
6624.0
 30
0.0
 41
125.0
 42
125.0
 43
125.0
 50
270.0
  0
MTEXT
  5
1E189
330
1E181
100
AcDbEntity
  8
0
  6
ByBlock
 62
     7
 48
50.0
100
AcDbMText
 10
2900.057733986177
 20
6288.469051157409
 30
0.0
 40
150.0
 41
0.0
 71
     5
 72
     1
  1
\A1;198
  7
STYLE1
 11
0.0000000000000001
 21
1.0
 31
0.0
 73
     1
 44
1.0
1001
ACAD
1000
MTEXTBEGIN
1070
    73
1070
     1
1070
    44
1040
1.0
1070
    74
1070
     0
1000
MTEXTEND
  0
POINT
  5
1E18A
330
1E181
100
AcDbEntity
  8
DEFPOINTS
  6
ByBlock
 62
     0
 48
50.0
100
AcDbPoint
 10
3569.000000000006
 20
6822.000000000001
 30
0.0
  0
POINT
  5
1E18B
330
1E181
100
AcDbEntity
  8
DEFPOINTS
  6
ByBlock
 62
     0
 48
50.0
100
AcDbPoint
 10
3496.0
 20
6624.0
 30
0.0
  0
POINT
  5
1E18C
330
1E181
100
AcDbEntity
  8
DEFPOINTS
  6
ByBlock
 62
     0
 48
50.0
100
AcDbPoint
 10
3000.057733986178
 20
6624.0
 30
0.0
  0
ENDBLK
  5
1E18D
330
1E181
100
AcDbEntity
  8
0
 48
50.0
100
AcDbBlockEnd
  0
BLOCK
  5
1E18F
330
1E18E
100
AcDbEntity
  8
0
 48
50.0
100
AcDbBlockBegin
  2
*D13
 70
     1
 10
0.0
 20
0.0
 30
0.0
  3
*D13
  1

  0
LINE
  5
1E190
330
1E18E
100
AcDbEntity
  8
0
  6
ByBlock
 62
     0
 48
50.0
100
AcDbLine
 10
3438.740228660987
 20
8755.206924300313
 30
0.0
 11
3438.740228660987
 21
9017.667619817155
 31
0.0
  0
LINE
  5
1E191
330
1E18E
100
AcDbEntity
  8
0
  6
ByBlock
 62
     0
 48
50.0
100
AcDbLine
 10
3496.0
 20
8029.0
 30
0.0
 11
3496.0
 21
9017.667619817155
 31
0.0
  0
LINE
  5
1E192
330
1E18E
100
AcDbEntity
  8
0
  6
ByBlock
 62
     0
 48
50.0
100
AcDbLine
 10
3496.0
 20
8942.667619817155
 30
0.0
 11
3438.740228660987
 21
8942.667619817155
 31
0.0
  0
LINE
  5
1E193
330
1E18E
100
AcDbEntity
  8
0
  6
ByBlock
 62
     0
 48
50.0
100
AcDbLine
 10
3438.740228660987
 20
8942.667619817155
 30
0.0
 11
3198.30367565484
 21
8942.667619817155
 31
0.0
  0
INSERT
  5
1E194
330
1E18E
100
AcDbEntity
  8
0
  6
ByBlock
 62
     0
 48
50.0
100
AcDbBlockReference
  2
_DOTSMALL
 10
3496.0
 20
8942.667619817155
 30
0.0
 41
125.0
 42
125.0
 43
125.0
  0
INSERT
  5
1E195
330
1E18E
100
AcDbEntity
  8
0
  6
ByBlock
 62
     0
 48
50.0
100
AcDbBlockReference
  2
_DOTSMALL
 10
3438.740228660987
 20
8942.667619817155
 30
0.0
 41
125.0
 42
125.0
 43
125.0
 50
180.0
  0
MTEXT
  5
1E196
330
1E18E
100
AcDbEntity
  8
0
  6
ByBlock
 62
     7
 48
50.0
100
AcDbMText
 10
3256.021952157913
 20
9042.667619817155
 30
0.0
 40
150.0
 41
0.0
 71
     5
 72
     1
  1
\A1;a
  7
STYLE1
 73
     1
 44
1.0
1001
ACAD
1000
MTEXTBEGIN
1070
    73
1070
     1
1070
    44
1040
1.0
1070
    74
1070
     0
1000
MTEXTEND
  0
POINT
  5
1E197
330
1E18E
100
AcDbEntity
  8
DEFPOINTS
  6
ByBlock
 62
     0
 48
50.0
100
AcDbPoint
 10
3438.740228660987
 20
8730.206924300313
 30
0.0
  0
POINT
  5
1E198
330
1E18E
100
AcDbEntity
  8
DEFPOINTS
  6
ByBlock
 62
     0
 48
50.0
100
AcDbPoint
 10
3496.0
 20
8004.0
 30
0.0
  0
POINT
  5
1E199
330
1E18E
100
AcDbEntity
  8
DEFPOINTS
  6
ByBlock
 62
     0
 48
50.0
100
AcDbPoint
 10
3496.0
 20
8942.667619817155
 30
0.0
  0
ENDBLK
  5
1E19A
330
1E18E
100
AcDbEntity
  8
0
 48
50.0
100
AcDbBlockEnd
  0
BLOCK
  5
1E19C
330
1E19B
100
AcDbEntity
  8
0
 48
50.0
100
AcDbBlockBegin
  2
*D14
 70
     1
 10
0.0
 20
0.0
 30
0.0
  3
*D14
  1

  0
LINE
  5
1E19D
330
1E19B
100
AcDbEntity
  8
0
  6
ByBlock
 62
     0
 48
50.0
100
AcDbLine
 10
3619.0
 20
7956.0
 30
0.0
 11
3619.0
 21
8805.206924300318
 31
0.0
  0
LINE
  5
1E19E
330
1E19B
100
AcDbEntity
  8
0
  6
ByBlock
 62
     0
 48
50.0
100
AcDbLine
 10
3496.0
 20
8029.0
 30
0.0
 11
3496.0
 21
8805.206924300318
 31
0.0
  0
LINE
  5
1E19F
330
1E19B
100
AcDbEntity
  8
0
  6
ByBlock
 62
     0
 48
50.0
100
AcDbLine
 10
3619.0
 20
8730.206924300317
 30
0.0
 11
3496.0
 21
8730.206924300317
 31
0.0
  0
LINE
  5
1E1A0
330
1E19B
100
AcDbEntity
  8
0
  6
ByBlock
 62
     0
 48
50.0
100
AcDbLine
 10
3496.0
 20
8730.206924300317
 30
0.0
 11
3067.527025225391
 21
8730.206924300317
 31
0.0
  0
INSERT
  5
1E1A1
330
1E19B
100
AcDbEntity
  8
0
  6
ByBlock
 62
     0
 48
50.0
100
AcDbBlockReference
  2
_DOTSMALL
 10
3619.0
 20
8730.206924300317
 30
0.0
 41
125.0
 42
125.0
 43
125.0
  0
INSERT
  5
1E1A2
330
1E19B
100
AcDbEntity
  8
0
  6
ByBlock
 62
     0
 48
50.0
100
AcDbBlockReference
  2
_DOTSMALL
 10
3496.0
 20
8730.206924300317
 30
0.0
 41
125.0
 42
125.0
 43
125.0
 50
180.0
  0
MTEXT
  5
1E1A3
330
1E19B
100
AcDbEntity
  8
0
  6
ByBlock
 62
     7
 48
50.0
100
AcDbMText
 10
3215.633626943189
 20
8830.221688079843
 30
0.0
 40
150.0
 41
0.0
 71
     5
 72
     1
  1
\A1;123
  7
STYLE1
 73
     1
 44
1.0
1001
ACAD
1000
MTEXTBEGIN
1070
    73
1070
     1
1070
    44
1040
1.0
1070
    74
1070
     0
1000
MTEXTEND
  0
POINT
  5
1E1A4
330
1E19B
100
AcDbEntity
  8
DEFPOINTS
  6
ByBlock
 62
     0
 48
50.0
100
AcDbPoint
 10
3619.0
 20
7931.0
 30
0.0
  0
POINT
  5
1E1A5
330
1E19B
100
AcDbEntity
  8
DEFPOINTS
  6
ByBlock
 62
     0
 48
50.0
100
AcDbPoint
 10
3496.0
 20
8004.0
 30
0.0
  0
POINT
  5
1E1A6
330
1E19B
100
AcDbEntity
  8
DEFPOINTS
  6
ByBlock
 62
     0
 48
50.0
100
AcDbPoint
 10
3496.0
 20
8730.206924300317
 30
0.0
  0
ENDBLK
  5
1E1A7
330
1E19B
100
AcDbEntity
  8
0
 48
50.0
100
AcDbBlockEnd
  0
BLOCK
  5
1E1A9
330
1E1A8
100
AcDbEntity
  8
0
 48
50.0
100
AcDbBlockBegin
  2
*D15
 70
     1
 10
0.0
 20
0.0
 30
0.0
  3
*D15
  1

  0
LINE
  5
1E1AA
330
1E1A8
100
AcDbEntity
  8
0
  6
ByBlock
 62
     0
 48
50.0
100
AcDbLine
 10
3544.0
 20
3881.0
 30
0.0
 11
2925.057733986178
 21
3881.0
 31
0.0
  0
LINE
  5
1E1AB
330
1E1A8
100
AcDbEntity
  8
0
  6
ByBlock
 62
     0
 48
50.0
100
AcDbLine
 10
3544.000000000006
 20
2402.000000000002
 30
0.0
 11
2925.057733986177
 21
2402.000000000002
 31
0.0
  0
LINE
  5
1E1AC
330
1E1A8
100
AcDbEntity
  8
0
  6
ByBlock
 62
     0
 48
50.0
100
AcDbLine
 10
3000.057733986178
 20
3881.0
 30
0.0
 11
3000.057733986178
 21
2402.000000000002
 31
0.0
  0
INSERT
  5
1E1AD
330
1E1A8
100
AcDbEntity
  8
0
  6
ByBlock
 62
     0
 48
50.0
100
AcDbBlockReference
  2
_DOTSMALL
 10
3000.057733986178
 20
3881.0
 30
0.0
 41
125.0
 42
125.0
 43
125.0
 50
90.0
  0
INSERT
  5
1E1AE
330
1E1A8
100
AcDbEntity
  8
0
  6
ByBlock
 62
     0
 48
50.0
100
AcDbBlockReference
  2
_DOTSMALL
 10
3000.057733986178
 20
2402.000000000002
 30
0.0
 41
125.0
 42
125.0
 43
125.0
 50
270.0
  0
MTEXT
  5
1E1AF
330
1E1A8
100
AcDbEntity
  8
0
  6
ByBlock
 62
     7
 48
50.0
100
AcDbMText
 10
2900.057733986177
 20
3104.0
 30
0.0
 40
150.0
 41
0.0
 71
     5
 72
     1
  1
\A1;1479
  7
STYLE1
 11
0.0000000000000001
 21
1.0
 31
0.0
 73
     1
 44
1.0
1001
ACAD
1000
MTEXTBEGIN
1070
    73
1070
     1
1070
    44
1040
1.0
1070
    74
1070
     0
1000
MTEXTEND
  0
POINT
  5
1E1B0
330
1E1A8
100
AcDbEntity
  8
DEFPOINTS
  6
ByBlock
 62
     0
 48
50.0
100
AcDbPoint
 10
3569.0
 20
3881.0
 30
0.0
  0
POINT
  5
1E1B1
330
1E1A8
100
AcDbEntity
  8
DEFPOINTS
  6
ByBlock
 62
     0
 48
50.0
100
AcDbPoint
 10
3569.000000000006
 20
2402.000000000002
 30
0.0
  0
POINT
  5
1E1B2
330
1E1A8
100
AcDbEntity
  8
DEFPOINTS
  6
ByBlock
 62
     0
 48
50.0
100
AcDbPoint
 10
3000.057733986178
 20
2402.000000000002
 30
0.0
  0
ENDBLK
  5
1E1B3
330
1E1A8
100
AcDbEntity
  8
0
 48
50.0
100
AcDbBlockEnd
  0
BLOCK
  5
1E1B5
330
1E1B4
100
AcDbEntity
  8
0
 48
50.0
100
AcDbBlockBegin
  2
*D16
 70
     1
 10
0.0
 20
0.0
 30
0.0
  3
*D16
  1

  0
LINE
  5
1E1B6
330
1E1B4
100
AcDbEntity
  8
0
  6
ByBlock
 62
     0
 48
50.0
100
AcDbLine
 10
3471.0
 20
8004.0
 30
0.0
 11
2925.057733986177
 21
8004.0
 31
0.0
  0
LINE
  5
1E1B7
330
1E1B4
100
AcDbEntity
  8
0
  6
ByBlock
 62
     0
 48
50.0
100
AcDbLine
 10
3544.0
 20
7881.0
 30
0.0
 11
2925.057733986177
 21
7881.0
 31
0.0
  0
LINE
  5
1E1B8
330
1E1B4
100
AcDbEntity
  8
0
  6
ByBlock
 62
     0
 48
50.0
100
AcDbLine
 10
3000.057733986178
 20
7881.0
 30
0.0
 11
3000.057733986178
 21
8004.0
 31
0.0
  0
LINE
  5
1E1B9
330
1E1B4
100
AcDbEntity
  8
0
  6
ByBlock
 62
     0
 48
50.0
100
AcDbLine
 10
3000.057733986178
 20
8004.0
 30
0.0
 11
3000.057733986178
 21
8425.213203435596
 31
0.0
  0
INSERT
  5
1E1BA
330
1E1B4
100
AcDbEntity
  8
0
  6
ByBlock
 62
     0
 48
50.0
100
AcDbBlockReference
  2
_DOTSMALL
 10
3000.057733986178
 20
7881.0
 30
0.0
 41
125.0
 42
125.0
 43
125.0
 50
270.0
  0
INSERT
  5
1E1BB
330
1E1B4
100
AcDbEntity
  8
0
  6
ByBlock
 62
     0
 48
50.0
100
AcDbBlockReference
  2
_DOTSMALL
 10
3000.057733986178
 20
8004.0
 30
0.0
 41
125.0
 42
125.0
 43
125.0
 50
90.0
  0
MTEXT
  5
1E1BC
330
1E1B4
100
AcDbEntity
  8
0
  6
ByBlock
 62
     7
 48
50.0
100
AcDbMText
 10
2900.04297020665
 20
8277.106601717798
 30
0.0
 40
150.0
 41
0.0
 71
     5
 72
     1
  1
\A1;123
  7
STYLE1
 11
0.0000000000000001
 21
1.0
 31
0.0
 73
     1
 44
1.0
1001
ACAD
1000
MTEXTBEGIN
1070
    73
1070
     1
1070
    44
1040
1.0
1070
    74
1070
     0
1000
MTEXTEND
  0
POINT
  5
1E1BD
330
1E1B4
100
AcDbEntity
  8
DEFPOINTS
  6
ByBlock
 62
     0
 48
50.0
100
AcDbPoint
 10
3496.0
 20
8004.0
 30
0.0
  0
POINT
  5
1E1BE
330
1E1B4
100
AcDbEntity
  8
DEFPOINTS
  6
ByBlock
 62
     0
 48
50.0
100
AcDbPoint
 10
3569.0
 20
7881.0
 30
0.0
  0
POINT
  5
1E1BF
330
1E1B4
100
AcDbEntity
  8
DEFPOINTS
  6
ByBlock
 62
     0
 48
50.0
100
AcDbPoint
 10
3000.057733986178
 20
7881.0
 30
0.0
  0
ENDBLK
  5
1E1C0
330
1E1B4
100
AcDbEntity
  8
0
 48
50.0
100
AcDbBlockEnd
  0
BLOCK
  5
1E1C2
330
1E1C1
100
AcDbEntity
  8
0
 48
50.0
100
AcDbBlockBegin
  2
*D17
 70
     1
 10
0.0
 20
0.0
 30
0.0
  3
*D17
  1

  0
LINE
  5
1E1C3
330
1E1C1
100
AcDbEntity
  8
0
  6
ByBlock
 62
     0
 48
50.0
100
AcDbLine
 10
3471.0
 20
6624.0
 30
0.0
 11
2679.56493184821
 21
6624.0
 31
0.0
  0
LINE
  5
1E1C4
330
1E1C1
100
AcDbEntity
  8
0
  6
ByBlock
 62
     0
 48
50.0
100
AcDbLine
 10
2975.057733986178
 20
6494.0
 30
0.0
 11
2679.56493184821
 21
6494.0
 31
0.0
  0
LINE
  5
1E1C5
330
1E1C1
100
AcDbEntity
  8
0
  6
ByBlock
 62
     0
 48
50.0
100
AcDbLine
 10
2754.56493184821
 20
6624.0
 30
0.0
 11
2754.56493184821
 21
6494.0
 31
0.0
  0
INSERT
  5
1E1C6
330
1E1C1
100
AcDbEntity
  8
0
  6
ByBlock
 62
     0
 48
50.0
100
AcDbBlockReference
  2
_DOTSMALL
 10
2754.56493184821
 20
6624.0
 30
0.0
 41
125.0
 42
125.0
 43
125.0
 50
90.0
  0
INSERT
  5
1E1C7
330
1E1C1
100
AcDbEntity
  8
0
  6
ByBlock
 62
     0
 48
50.0
100
AcDbBlockReference
  2
_DOTSMALL
 10
2754.56493184821
 20
6494.0
 30
0.0
 41
125.0
 42
125.0
 43
125.0
 50
270.0
  0
MTEXT
  5
1E1C8
330
1E1C1
100
AcDbEntity
  8
0
  6
ByBlock
 62
     7
 48
50.0
100
AcDbMText
 10
2654.56493184821
 20
6559.0
 30
0.0
 40
150.0
 41
0.0
 71
     5
 72
     1
  1
\A1;b
  7
STYLE1
 11
0.0000000000000001
 21
1.0
 31
0.0
 73
     1
 44
1.0
1001
ACAD
1000
MTEXTBEGIN
1070
    73
1070
     1
1070
    44
1040
1.0
1070
    74
1070
     0
1000
MTEXTEND
  0
POINT
  5
1E1C9
330
1E1C1
100
AcDbEntity
  8
DEFPOINTS
  6
ByBlock
 62
     0
 48
50.0
100
AcDbPoint
 10
3496.0
 20
6624.0
 30
0.0
  0
POINT
  5
1E1CA
330
1E1C1
100
AcDbEntity
  8
DEFPOINTS
  6
ByBlock
 62
     0
 48
50.0
100
AcDbPoint
 10
3000.057733986178
 20
6494.0
 30
0.0
  0
POINT
  5
1E1CB
330
1E1C1
100
AcDbEntity
  8
DEFPOINTS
  6
ByBlock
 62
     0
 48
50.0
100
AcDbPoint
 10
2754.56493184821
 20
6494.0
 30
0.0
  0
ENDBLK
  5
1E1CC
330
1E1C1
100
AcDbEntity
  8
0
 48
50.0
100
AcDbBlockEnd
  0
BLOCK
  5
1E1CE
330
1E1CD
100
AcDbEntity
  8
0
 48
50.0
100
AcDbBlockBegin
  2
*D18
 70
     1
 10
0.0
 20
0.0
 30
0.0
  3
*D18
  1

  0
LINE
  5
1E1CF
330
1E1CD
100
AcDbEntity
  8
0
  6
ByBlock
 62
     0
 48
50.0
100
AcDbLine
 10
3471.0
 20
2204.0
 30
0.0
 11
2679.56493184821
 21
2204.0
 31
0.0
  0
LINE
  5
1E1D0
330
1E1CD
100
AcDbEntity
  8
0
  6
ByBlock
 62
     0
 48
50.0
100
AcDbLine
 10
2754.564931848211
 20
4004.0
 30
0.0
 11
2754.56493184821
 21
2204.0
 31
0.0
  0
INSERT
  5
1E1D1
330
1E1CD
100
AcDbEntity
  8
0
  6
ByBlock
 62
     0
 48
50.0
100
AcDbBlockReference
  2
_DOTSMALL
 10
2754.564931848211
 20
4004.0
 30
0.0
 41
125.0
 42
125.0
 43
125.0
 50
90.0
  0
INSERT
  5
1E1D2
330
1E1CD
100
AcDbEntity
  8
0
  6
ByBlock
 62
     0
 48
50.0
100
AcDbBlockReference
  2
_DOTSMALL
 10
2754.56493184821
 20
2204.0
 30
0.0
 41
125.0
 42
125.0
 43
125.0
 50
270.0
  0
MTEXT
  5
1E1D3
330
1E1CD
100
AcDbEntity
  8
0
  6
ByBlock
 62
     7
 48
50.0
100
AcDbMText
 10
2654.56493184821
 20
3104.0
 30
0.0
 40
150.0
 41
0.0
 71
     5
 72
     1
  1
\A1;1800
  7
STYLE1
 11
0.0000000000000001
 21
1.0
 31
0.0
 73
     1
 44
1.0
1001
ACAD
1000
MTEXTBEGIN
1070
    73
1070
     1
1070
    44
1040
1.0
1070
    74
1070
     0
1000
MTEXTEND
  0
POINT
  5
1E1D4
330
1E1CD
100
AcDbEntity
  8
DEFPOINTS
  6
ByBlock
 62
     0
 48
50.0
100
AcDbPoint
 10
3496.0
 20
4004.0
 30
0.0
  0
POINT
  5
1E1D5
330
1E1CD
100
AcDbEntity
  8
DEFPOINTS
  6
ByBlock
 62
     0
 48
50.0
100
AcDbPoint
 10
3496.0
 20
2204.0
 30
0.0
  0
POINT
  5
1E1D6
330
1E1CD
100
AcDbEntity
  8
DEFPOINTS
  6
ByBlock
 62
     0
 48
50.0
100
AcDbPoint
 10
2754.56493184821
 20
2204.0
 30
0.0
  0
ENDBLK
  5
1E1D7
330
1E1CD
100
AcDbEntity
  8
0
 48
50.0
100
AcDbBlockEnd
  0
BLOCK
  5
1E1D9
330
1E1D8
100
AcDbEntity
  8
0
 48
50.0
100
AcDbBlockBegin
  2
*D19
 70
     1
 10
0.0
 20
0.0
 30
0.0
  3
*D19
  1

  0
LINE
  5
1E1DA
330
1E1D8
100
AcDbEntity
  8
0
  6
ByBlock
 62
     0
 48
50.0
100
AcDbLine
 10
2975.057733986178
 20
8093.999999999997
 30
0.0
 11
2679.56493184821
 21
8093.999999999997
 31
0.0
  0
LINE
  5
1E1DB
330
1E1D8
100
AcDbEntity
  8
0
  6
ByBlock
 62
     0
 48
50.0
100
AcDbLine
 10
3471.0
 20
8004.0
 30
0.0
 11
2679.56493184821
 21
8004.0
 31
0.0
  0
LINE
  5
1E1DC
330
1E1D8
100
AcDbEntity
  8
0
  6
ByBlock
 62
     0
 48
50.0
100
AcDbLine
 10
2754.56493184821
 20
8093.999999999997
 30
0.0
 11
2754.56493184821
 21
8218.999999999997
 31
0.0
  0
LINE
  5
1E1DD
330
1E1D8
100
AcDbEntity
  8
0
  6
ByBlock
 62
     0
 48
50.0
100
AcDbLine
 10
2754.56493184821
 20
8004.0
 30
0.0
 11
2754.56493184821
 21
7879.0
 31
0.0
  0
LINE
  5
1E1DE
330
1E1D8
100
AcDbEntity
  8
0
  6
ByBlock
 62
     0
 48
50.0
100
AcDbLine
 10
2754.56493184821
 20
8093.999999999997
 30
0.0
 11
2754.56493184821
 21
8004.0
 31
0.0
  0
INSERT
  5
1E1DF
330
1E1D8
100
AcDbEntity
  8
0
  6
ByBlock
 62
     0
 48
50.0
100
AcDbBlockReference
  2
_DOTSMALL
 10
2754.56493184821
 20
8093.999999999997
 30
0.0
 41
125.0
 42
125.0
 43
125.0
 50
270.0
  0
INSERT
  5
1E1E0
330
1E1D8
100
AcDbEntity
  8
0
  6
ByBlock
 62
     0
 48
50.0
100
AcDbBlockReference
  2
_DOTSMALL
 10
2754.56493184821
 20
8004.0
 30
0.0
 41
125.0
 42
125.0
 43
125.0
 50
90.0
  0
MTEXT
  5
1E1E1
330
1E1D8
100
AcDbEntity
  8
0
  6
ByBlock
 62
     7
 48
50.0
100
AcDbMText
 10
2654.56493184821
 20
8048.999999999997
 30
0.0
 40
150.0
 41
0.0
 71
     5
 72
     1
  1
\A1;c
  7
STYLE1
 11
0.0000000000000001
 21
1.0
 31
0.0
 73
     1
 44
1.0
1001
ACAD
1000
MTEXTBEGIN
1070
    73
1070
     1
1070
    44
1040
1.0
1070
    74
1070
     0
1000
MTEXTEND
  0
POINT
  5
1E1E2
330
1E1D8
100
AcDbEntity
  8
DEFPOINTS
  6
ByBlock
 62
     0
 48
50.0
100
AcDbPoint
 10
3000.057733986178
 20
8093.999999999997
 30
0.0
  0
POINT
  5
1E1E3
330
1E1D8
100
AcDbEntity
  8
DEFPOINTS
  6
ByBlock
 62
     0
 48
50.0
100
AcDbPoint
 10
3496.0
 20
8004.0
 30
0.0
  0
POINT
  5
1E1E4
330
1E1D8
100
AcDbEntity
  8
DEFPOINTS
  6
ByBlock
 62
     0
 48
50.0
100
AcDbPoint
 10
2754.56493184821
 20
8004.0
 30
0.0
  0
ENDBLK
  5
1E1E5
330
1E1D8
100
AcDbEntity
  8
0
 48
50.0
100
AcDbBlockEnd
  0
BLOCK
  5
1E1E7
330
1E1E6
100
AcDbEntity
  8
0
 48
50.0
100
AcDbBlockBegin
  2
*D20
 70
     1
 10
0.0
 20
0.0
 30
0.0
  3
*D20
  1

  0
LINE
  5
1E1E8
330
1E1E6
100
AcDbEntity
  8
0
  6
ByBlock
 62
     0
 48
50.0
100
AcDbLine
 10
5296.0
 20
8029.0
 30
0.0
 11
5296.0
 21
9017.667619817155
 31
0.0
  0
LINE
  5
1E1E9
330
1E1E6
100
AcDbEntity
  8
0
  6
ByBlock
 62
     0
 48
50.0
100
AcDbLine
 10
5338.740228660987
 20
8755.206924300319
 30
0.0
 11
5338.740228660987
 21
9017.667619817155
 31
0.0
  0
LINE
  5
1E1EA
330
1E1E6
100
AcDbEntity
  8
0
  6
ByBlock
 62
     0
 48
50.0
100
AcDbLine
 10
5296.0
 20
8942.667619817155
 30
0.0
 11
5171.0
 21
8942.667619817155
 31
0.0
  0
LINE
  5
1E1EB
330
1E1E6
100
AcDbEntity
  8
0
  6
ByBlock
 62
     0
 48
50.0
100
AcDbLine
 10
5338.740228660987
 20
8942.667619817155
 30
0.0
 11
5704.176781667134
 21
8942.667619817155
 31
0.0
  0
LINE
  5
1E1EC
330
1E1E6
100
AcDbEntity
  8
0
  6
ByBlock
 62
     0
 48
50.0
100
AcDbLine
 10
5296.0
 20
8942.667619817155
 30
0.0
 11
5338.740228660987
 21
8942.667619817155
 31
0.0
  0
INSERT
  5
1E1ED
330
1E1E6
100
AcDbEntity
  8
0
  6
ByBlock
 62
     0
 48
50.0
100
AcDbBlockReference
  2
_DOTSMALL
 10
5296.0
 20
8942.667619817155
 30
0.0
 41
125.0
 42
125.0
 43
125.0
  0
INSERT
  5
1E1EE
330
1E1E6
100
AcDbEntity
  8
0
  6
ByBlock
 62
     0
 48
50.0
100
AcDbBlockReference
  2
_DOTSMALL
 10
5338.740228660987
 20
8942.667619817155
 30
0.0
 41
125.0
 42
125.0
 43
125.0
 50
180.0
  0
MTEXT
  5
1E1EF
330
1E1E6
100
AcDbEntity
  8
0
  6
ByBlock
 62
     7
 48
50.0
100
AcDbMText
 10
5646.45850516406
 20
9042.667619817155
 30
0.0
 40
150.0
 41
0.0
 71
     5
 72
     1
  1
\A1;a
  7
STYLE1
 73
     1
 44
1.0
1001
ACAD
1000
MTEXTBEGIN
1070
    73
1070
     1
1070
    44
1040
1.0
1070
    74
1070
     0
1000
MTEXTEND
  0
POINT
  5
1E1F0
330
1E1E6
100
AcDbEntity
  8
DEFPOINTS
  6
ByBlock
 62
     0
 48
50.0
100
AcDbPoint
 10
5296.0
 20
8004.0
 30
0.0
  0
POINT
  5
1E1F1
330
1E1E6
100
AcDbEntity
  8
DEFPOINTS
  6
ByBlock
 62
     0
 48
50.0
100
AcDbPoint
 10
5338.740228660987
 20
8730.206924300318
 30
0.0
  0
POINT
  5
1E1F2
330
1E1E6
100
AcDbEntity
  8
DEFPOINTS
  6
ByBlock
 62
     0
 48
50.0
100
AcDbPoint
 10
5338.740228660987
 20
8942.667619817155
 30
0.0
  0
ENDBLK
  5
1E1F3
330
1E1E6
100
AcDbEntity
  8
0
 48
50.0
100
AcDbBlockEnd
  0
BLOCK
  5
1E1F5
330
1E1F4
100
AcDbEntity
  8
0
 48
50.0
100
AcDbBlockBegin
  2
*D21
 70
     1
 10
0.0
 20
0.0
 30
0.0
  3
*D21
  1

  0
LINE
  5
1E1F6
330
1E1F4
100
AcDbEntity
  8
0
  6
ByBlock
 62
     0
 48
50.0
100
AcDbLine
 10
5296.0
 20
8029.0
 30
0.0
 11
5296.0
 21
8805.206924300318
 31
0.0
  0
LINE
  5
1E1F7
330
1E1F4
100
AcDbEntity
  8
0
  6
ByBlock
 62
     0
 48
50.0
100
AcDbLine
 10
5173.0
 20
7956.0
 30
0.0
 11
5173.0
 21
8805.206924300318
 31
0.0
  0
LINE
  5
1E1F8
330
1E1F4
100
AcDbEntity
  8
0
  6
ByBlock
 62
     0
 48
50.0
100
AcDbLine
 10
5173.0
 20
8730.206924300317
 30
0.0
 11
5296.0
 21
8730.206924300317
 31
0.0
  0
LINE
  5
1E1F9
330
1E1F4
100
AcDbEntity
  8
0
  6
ByBlock
 62
     0
 48
50.0
100
AcDbLine
 10
5296.0
 20
8730.206924300317
 30
0.0
 11
5717.213203435597
 21
8730.206924300317
 31
0.0
  0
INSERT
  5
1E1FA
330
1E1F4
100
AcDbEntity
  8
0
  6
ByBlock
 62
     0
 48
50.0
100
AcDbBlockReference
  2
_DOTSMALL
 10
5173.0
 20
8730.206924300317
 30
0.0
 41
125.0
 42
125.0
 43
125.0
 50
180.0
  0
INSERT
  5
1E1FB
330
1E1F4
100
AcDbEntity
  8
0
  6
ByBlock
 62
     0
 48
50.0
100
AcDbBlockReference
  2
_DOTSMALL
 10
5296.0
 20
8730.206924300317
 30
0.0
 41
125.0
 42
125.0
 43
125.0
  0
MTEXT
  5
1E1FC
330
1E1F4
100
AcDbEntity
  8
0
  6
ByBlock
 62
     7
 48
50.0
100
AcDbMText
 10
5569.106601717798
 20
8830.221688079843
 30
0.0
 40
150.0
 41
0.0
 71
     5
 72
     1
  1
\A1;123
  7
STYLE1
 73
     1
 44
1.0
1001
ACAD
1000
MTEXTBEGIN
1070
    73
1070
     1
1070
    44
1040
1.0
1070
    74
1070
     0
1000
MTEXTEND
  0
POINT
  5
1E1FD
330
1E1F4
100
AcDbEntity
  8
DEFPOINTS
  6
ByBlock
 62
     0
 48
50.0
100
AcDbPoint
 10
5296.0
 20
8004.0
 30
0.0
  0
POINT
  5
1E1FE
330
1E1F4
100
AcDbEntity
  8
DEFPOINTS
  6
ByBlock
 62
     0
 48
50.0
100
AcDbPoint
 10
5173.0
 20
7931.0
 30
0.0
  0
POINT
  5
1E1FF
330
1E1F4
100
AcDbEntity
  8
DEFPOINTS
  6
ByBlock
 62
     0
 48
50.0
100
AcDbPoint
 10
5173.0
 20
8730.206924300317
 30
0.0
  0
ENDBLK
  5
1E200
330
1E1F4
100
AcDbEntity
  8
0
 48
50.0
100
AcDbBlockEnd
  0
BLOCK
  5
1E202
330
1E201
100
AcDbEntity
  8
0
 48
50.0
100
AcDbBlockBegin
  2
*D22
 70
     1
 10
0.0
 20
0.0
 30
0.0
  3
*D22
  1

  0
LINE
  5
1E203
330
1E201
100
AcDbEntity
  8
0
  6
ByBlock
 62
     0
 48
50.0
100
AcDbLine
 10
4765.91864628953
 20
8004.0
 30
0.0
 11
5028.847448568776
 21
8004.0
 31
0.0
  0
LINE
  5
1E204
330
1E201
100
AcDbEntity
  8
0
  6
ByBlock
 62
     0
 48
50.0
100
AcDbLine
 10
4765.91864628953
 20
7903.999999999998
 30
0.0
 11
5028.847448568776
 21
7903.999999999998
 31
0.0
  0
LINE
  5
1E205
330
1E201
100
AcDbEntity
  8
0
  6
ByBlock
 62
     0
 48
50.0
100
AcDbLine
 10
4953.847448568776
 20
7903.999999999998
 30
0.0
 11
4953.847448568776
 21
8004.0
 31
0.0
  0
LINE
  5
1E206
330
1E201
100
AcDbEntity
  8
0
  6
ByBlock
 62
     0
 48
50.0
100
AcDbLine
 10
4953.847448568776
 20
8004.0
 30
0.0
 11
4953.847448568776
 21
8419.118110236221
 31
0.0
  0
INSERT
  5
1E207
330
1E201
100
AcDbEntity
  8
0
  6
ByBlock
 62
     0
 48
50.0
100
AcDbBlockReference
  2
_DOTSMALL
 10
4953.847448568776
 20
7903.999999999998
 30
0.0
 41
125.0
 42
125.0
 43
125.0
 50
270.0
  0
INSERT
  5
1E208
330
1E201
100
AcDbEntity
  8
0
  6
ByBlock
 62
     0
 48
50.0
100
AcDbBlockReference
  2
_DOTSMALL
 10
4953.847448568776
 20
8004.0
 30
0.0
 41
125.0
 42
125.0
 43
125.0
 50
90.0
  0
MTEXT
  5
1E209
330
1E201
100
AcDbEntity
  8
0
  6
ByBlock
 62
     7
 48
50.0
100
AcDbMText
 10
4853.847448568776
 20
8274.05905511811
 30
0.0
 40
150.0
 41
0.0
 71
     5
 72
     1
  1
\A1;100
  7
STYLE1
 11
0.0000000000000001
 21
1.0
 31
0.0
 73
     1
 44
1.0
1001
ACAD
1000
MTEXTBEGIN
1070
    73
1070
     1
1070
    44
1040
1.0
1070
    74
1070
     0
1000
MTEXTEND
  0
POINT
  5
1E20A
330
1E201
100
AcDbEntity
  8
DEFPOINTS
  6
ByBlock
 62
     0
 48
50.0
100
AcDbPoint
 10
4740.91864628953
 20
8004.0
 30
0.0
  0
POINT
  5
1E20B
330
1E201
100
AcDbEntity
  8
DEFPOINTS
  6
ByBlock
 62
     0
 48
50.0
100
AcDbPoint
 10
4740.91864628953
 20
7903.999999999998
 30
0.0
  0
POINT
  5
1E20C
330
1E201
100
AcDbEntity
  8
DEFPOINTS
  6
ByBlock
 62
     0
 48
50.0
100
AcDbPoint
 10
4953.847448568776
 20
7903.999999999998
 30
0.0
  0
ENDBLK
  5
1E20D
330
1E201
100
AcDbEntity
  8
0
 48
50.0
100
AcDbBlockEnd
  0
BLOCK
  5
1E20F
330
1E20E
100
AcDbEntity
  8
0
 48
50.0
100
AcDbBlockBegin
  2
*D23
 70
     1
 10
0.0
 20
0.0
 30
0.0
  3
*D23
  1

  0
LINE
  5
1E210
330
1E20E
100
AcDbEntity
  8
0
  6
ByBlock
 62
     0
 48
50.0
100
AcDbLine
 10
3796.000000000001
 20
2529.000000000007
 30
0.0
 11
3796.000000000001
 21
2931.6104948313
 31
0.0
  0
LINE
  5
1E211
330
1E20E
100
AcDbEntity
  8
0
  6
ByBlock
 62
     0
 48
50.0
100
AcDbLine
 10
3595.999999999998
 20
2529.000000000004
 30
0.0
 11
3595.999999999998
 21
2931.6104948313
 31
0.0
  0
LINE
  5
1E212
330
1E20E
100
AcDbEntity
  8
0
  6
ByBlock
 62
     0
 48
50.0
100
AcDbLine
 10
3796.000000000001
 20
2856.610494831301
 30
0.0
 11
3595.999999999998
 21
2856.610494831301
 31
0.0
  0
LINE
  5
1E213
330
1E20E
100
AcDbEntity
  8
0
  6
ByBlock
 62
     0
 48
50.0
100
AcDbLine
 10
3595.999999999998
 20
2856.610494831301
 30
0.0
 11
3122.996254565651
 21
2856.610494831301
 31
0.0
  0
INSERT
  5
1E214
330
1E20E
100
AcDbEntity
  8
0
  6
ByBlock
 62
     0
 48
50.0
100
AcDbBlockReference
  2
_DOTSMALL
 10
3796.000000000001
 20
2856.610494831301
 30
0.0
 41
125.0
 42
125.0
 43
125.0
  0
INSERT
  5
1E215
330
1E20E
100
AcDbEntity
  8
0
  6
ByBlock
 62
     0
 48
50.0
100
AcDbBlockReference
  2
_DOTSMALL
 10
3595.999999999998
 20
2856.610494831301
 30
0.0
 41
125.0
 42
125.0
 43
125.0
 50
180.0
  0
MTEXT
  5
1E216
330
1E20E
100
AcDbEntity
  8
0
  6
ByBlock
 62
     7
 48
50.0
100
AcDbMText
 10
3284.959837242816
 20
2956.625258610828
 30
0.0
 40
150.0
 41
0.0
 71
     5
 72
     1
  1
\A1;200
  7
STYLE1
 73
     1
 44
1.0
1001
ACAD
1000
MTEXTBEGIN
1070
    73
1070
     1
1070
    44
1040
1.0
1070
    74
1070
     0
1000
MTEXTEND
  0
POINT
  5
1E217
330
1E20E
100
AcDbEntity
  8
DEFPOINTS
  6
ByBlock
 62
     0
 48
50.0
100
AcDbPoint
 10
3796.000000000001
 20
2504.000000000007
 30
0.0
  0
POINT
  5
1E218
330
1E20E
100
AcDbEntity
  8
DEFPOINTS
  6
ByBlock
 62
     0
 48
50.0
100
AcDbPoint
 10
3595.999999999998
 20
2504.000000000004
 30
0.0
  0
POINT
  5
1E219
330
1E20E
100
AcDbEntity
  8
DEFPOINTS
  6
ByBlock
 62
     0
 48
50.0
100
AcDbPoint
 10
3595.999999999998
 20
2856.610494831301
 30
0.0
  0
ENDBLK
  5
1E21A
330
1E20E
100
AcDbEntity
  8
0
 48
50.0
100
AcDbBlockEnd
  0
BLOCK
  5
1E21C
330
1E21B
100
AcDbEntity
  8
0
 48
50.0
100
AcDbBlockBegin
  2
*D24
 70
     1
 10
0.0
 20
0.0
 30
0.0
  3
*D24
  1

  0
LINE
  5
1E21D
330
1E21B
100
AcDbEntity
  8
0
  6
ByBlock
 62
     0
 48
50.0
100
AcDbLine
 10
4421.0
 20
2204.000000000009
 30
0.0
 11
4870.266817430558
 21
2204.000000000009
 31
0.0
  0
LINE
  5
1E21E
330
1E21B
100
AcDbEntity
  8
0
  6
ByBlock
 62
     0
 48
50.0
100
AcDbLine
 10
4471.0
 20
3104.0
 30
0.0
 11
4870.266817430558
 21
3104.0
 31
0.0
  0
LINE
  5
1E21F
330
1E21B
100
AcDbEntity
  8
0
  6
ByBlock
 62
     0
 48
50.0
100
AcDbLine
 10
4795.266817430558
 20
2204.000000000009
 30
0.0
 11
4795.266817430558
 21
3104.0
 31
0.0
  0
INSERT
  5
1E220
330
1E21B
100
AcDbEntity
  8
0
  6
ByBlock
 62
     0
 48
50.0
100
AcDbBlockReference
  2
_DOTSMALL
 10
4795.266817430558
 20
2204.000000000009
 30
0.0
 41
125.0
 42
125.0
 43
125.0
 50
270.0
  0
INSERT
  5
1E221
330
1E21B
100
AcDbEntity
  8
0
  6
ByBlock
 62
     0
 48
50.0
100
AcDbBlockReference
  2
_DOTSMALL
 10
4795.266817430558
 20
3104.0
 30
0.0
 41
125.0
 42
125.0
 43
125.0
 50
90.0
  0
MTEXT
  5
1E222
330
1E21B
100
AcDbEntity
  8
0
  6
ByBlock
 62
     7
 48
50.0
100
AcDbMText
 10
4695.266817430558
 20
2654.000000000005
 30
0.0
 40
150.0
 41
0.0
 71
     5
 72
     1
  1
\A1;900
  7
STYLE1
 11
0.0000000000000001
 21
1.0
 31
0.0
 73
     1
 44
1.0
1001
ACAD
1000
MTEXTBEGIN
1070
    73
1070
     1
1070
    44
1040
1.0
1070
    74
1070
     0
1000
MTEXTEND
  0
POINT
  5
1E223
330
1E21B
100
AcDbEntity
  8
DEFPOINTS
  6
ByBlock
 62
     0
 48
50.0
100
AcDbPoint
 10
4396.0
 20
2204.000000000009
 30
0.0
  0
POINT
  5
1E224
330
1E21B
100
AcDbEntity
  8
DEFPOINTS
  6
ByBlock
 62
     0
 48
50.0
100
AcDbPoint
 10
4446.0
 20
3104.0
 30
0.0
  0
POINT
  5
1E225
330
1E21B
100
AcDbEntity
  8
DEFPOINTS
  6
ByBlock
 62
     0
 48
50.0
100
AcDbPoint
 10
4795.266817430558
 20
3104.0
 30
0.0
  0
ENDBLK
  5
1E226
330
1E21B
100
AcDbEntity
  8
0
 48
50.0
100
AcDbBlockEnd
  0
BLOCK
  5
1E228
330
1E227
100
AcDbEntity
  8
0
 48
50.0
100
AcDbBlockBegin
  2
*D25
 70
     1
 10
0.0
 20
0.0
 30
0.0
  3
*D25
  1

  0
LINE
  5
1E229
330
1E227
100
AcDbEntity
  8
0
  6
ByBlock
 62
     0
 48
50.0
100
AcDbLine
 10
4421.0
 20
4004.0
 30
0.0
 11
4870.266817430558
 21
4004.0
 31
0.0
  0
LINE
  5
1E22A
330
1E227
100
AcDbEntity
  8
0
  6
ByBlock
 62
     0
 48
50.0
100
AcDbLine
 10
4795.266817430558
 20
3104.0
 30
0.0
 11
4795.266817430558
 21
4004.0
 31
0.0
  0
INSERT
  5
1E22B
330
1E227
100
AcDbEntity
  8
0
  6
ByBlock
 62
     0
 48
50.0
100
AcDbBlockReference
  2
_DOTSMALL
 10
4795.266817430558
 20
3104.0
 30
0.0
 41
125.0
 42
125.0
 43
125.0
 50
270.0
  0
INSERT
  5
1E22C
330
1E227
100
AcDbEntity
  8
0
  6
ByBlock
 62
     0
 48
50.0
100
AcDbBlockReference
  2
_DOTSMALL
 10
4795.266817430558
 20
4004.0
 30
0.0
 41
125.0
 42
125.0
 43
125.0
 50
90.0
  0
MTEXT
  5
1E22D
330
1E227
100
AcDbEntity
  8
0
  6
ByBlock
 62
     7
 48
50.0
100
AcDbMText
 10
4695.266817430558
 20
3554.0
 30
0.0
 40
150.0
 41
0.0
 71
     5
 72
     1
  1
\A1;900
  7
STYLE1
 11
0.0000000000000001
 21
1.0
 31
0.0
 73
     1
 44
1.0
1001
ACAD
1000
MTEXTBEGIN
1070
    73
1070
     1
1070
    44
1040
1.0
1070
    74
1070
     0
1000
MTEXTEND
  0
POINT
  5
1E22E
330
1E227
100
AcDbEntity
  8
DEFPOINTS
  6
ByBlock
 62
     0
 48
50.0
100
AcDbPoint
 10
4446.0
 20
3104.0
 30
0.0
  0
POINT
  5
1E22F
330
1E227
100
AcDbEntity
  8
DEFPOINTS
  6
ByBlock
 62
     0
 48
50.0
100
AcDbPoint
 10
4396.0
 20
4004.0
 30
0.0
  0
POINT
  5
1E230
330
1E227
100
AcDbEntity
  8
DEFPOINTS
  6
ByBlock
 62
     0
 48
50.0
100
AcDbPoint
 10
4795.266817430558
 20
4004.0
 30
0.0
  0
ENDBLK
  5
1E231
330
1E227
100
AcDbEntity
  8
0
 48
50.0
100
AcDbBlockEnd
  0
BLOCK
  5
1E233
330
1E232
100
AcDbEntity
  8
0
 48
50.0
100
AcDbBlockBegin
  2
*D26
 70
     1
 10
0.0
 20
0.0
 30
0.0
  3
*D26
  1

  0
LINE
  5
1E234
330
1E232
100
AcDbEntity
  8
0
  6
ByBlock
 62
     0
 48
50.0
100
AcDbLine
 10
3496.0
 20
4029.0
 30
0.0
 11
3496.0
 21
4605.909765648328
 31
0.0
  0
LINE
  5
1E235
330
1E232
100
AcDbEntity
  8
0
  6
ByBlock
 62
     0
 48
50.0
100
AcDbLine
 10
4396.0
 20
4530.909765648328
 30
0.0
 11
3496.0
 21
4530.909765648328
 31
0.0
  0
INSERT
  5
1E236
330
1E232
100
AcDbEntity
  8
0
  6
ByBlock
 62
     0
 48
50.0
100
AcDbBlockReference
  2
_DOTSMALL
 10
4396.0
 20
4530.909765648328
 30
0.0
 41
125.0
 42
125.0
 43
125.0
  0
INSERT
  5
1E237
330
1E232
100
AcDbEntity
  8
0
  6
ByBlock
 62
     0
 48
50.0
100
AcDbBlockReference
  2
_DOTSMALL
 10
3496.0
 20
4530.909765648328
 30
0.0
 41
125.0
 42
125.0
 43
125.0
 50
180.0
  0
MTEXT
  5
1E238
330
1E232
100
AcDbEntity
  8
0
  6
ByBlock
 62
     7
 48
50.0
100
AcDbMText
 10
3946.0
 20
4630.909765648328
 30
0.0
 40
150.0
 41
0.0
 71
     5
 72
     1
  1
\A1;900
  7
STYLE1
 73
     1
 44
1.0
1001
ACAD
1000
MTEXTBEGIN
1070
    73
1070
     1
1070
    44
1040
1.0
1070
    74
1070
     0
1000
MTEXTEND
  0
POINT
  5
1E239
330
1E232
100
AcDbEntity
  8
DEFPOINTS
  6
ByBlock
 62
     0
 48
50.0
100
AcDbPoint
 10
4396.0
 20
3304.0
 30
0.0
  0
POINT
  5
1E23A
330
1E232
100
AcDbEntity
  8
DEFPOINTS
  6
ByBlock
 62
     0
 48
50.0
100
AcDbPoint
 10
3496.0
 20
4004.0
 30
0.0
  0
POINT
  5
1E23B
330
1E232
100
AcDbEntity
  8
DEFPOINTS
  6
ByBlock
 62
     0
 48
50.0
100
AcDbPoint
 10
3496.0
 20
4530.909765648328
 30
0.0
  0
ENDBLK
  5
1E23C
330
1E232
100
AcDbEntity
  8
0
 48
50.0
100
AcDbBlockEnd
  0
BLOCK
  5
1E23E
330
1E23D
100
AcDbEntity
  8
0
 48
50.0
100
AcDbBlockBegin
  2
*D27
 70
     1
 10
0.0
 20
0.0
 30
0.0
  3
*D27
  1

  0
LINE
  5
1E23F
330
1E23D
100
AcDbEntity
  8
0
  6
ByBlock
 62
     0
 48
50.0
100
AcDbLine
 10
5296.0
 20
4029.0
 30
0.0
 11
5296.0
 21
4605.909765648328
 31
0.0
  0
LINE
  5
1E240
330
1E23D
100
AcDbEntity
  8
0
  6
ByBlock
 62
     0
 48
50.0
100
AcDbLine
 10
4396.0
 20
3329.0
 30
0.0
 11
4396.0
 21
4605.909765648328
 31
0.0
  0
LINE
  5
1E241
330
1E23D
100
AcDbEntity
  8
0
  6
ByBlock
 62
     0
 48
50.0
100
AcDbLine
 10
5296.0
 20
4530.909765648328
 30
0.0
 11
4396.0
 21
4530.909765648328
 31
0.0
  0
INSERT
  5
1E242
330
1E23D
100
AcDbEntity
  8
0
  6
ByBlock
 62
     0
 48
50.0
100
AcDbBlockReference
  2
_DOTSMALL
 10
5296.0
 20
4530.909765648328
 30
0.0
 41
125.0
 42
125.0
 43
125.0
  0
INSERT
  5
1E243
330
1E23D
100
AcDbEntity
  8
0
  6
ByBlock
 62
     0
 48
50.0
100
AcDbBlockReference
  2
_DOTSMALL
 10
4396.0
 20
4530.909765648328
 30
0.0
 41
125.0
 42
125.0
 43
125.0
 50
180.0
  0
MTEXT
  5
1E244
330
1E23D
100
AcDbEntity
  8
0
  6
ByBlock
 62
     7
 48
50.0
100
AcDbMText
 10
4866.91852200628
 20
4630.909765648328
 30
0.0
 40
150.0
 41
0.0
 71
     5
 72
     1
  1
\A1;900
  7
STYLE1
 73
     1
 44
1.0
1001
ACAD
1000
MTEXTBEGIN
1070
    73
1070
     1
1070
    44
1040
1.0
1070
    74
1070
     0
1000
MTEXTEND
  0
POINT
  5
1E245
330
1E23D
100
AcDbEntity
  8
DEFPOINTS
  6
ByBlock
 62
     0
 48
50.0
100
AcDbPoint
 10
5296.0
 20
4004.0
 30
0.0
  0
POINT
  5
1E246
330
1E23D
100
AcDbEntity
  8
DEFPOINTS
  6
ByBlock
 62
     0
 48
50.0
100
AcDbPoint
 10
4396.0
 20
3304.0
 30
0.0
  0
POINT
  5
1E247
330
1E23D
100
AcDbEntity
  8
DEFPOINTS
  6
ByBlock
 62
     0
 48
50.0
100
AcDbPoint
 10
4396.0
 20
4530.909765648328
 30
0.0
  0
ENDBLK
  5
1E248
330
1E23D
100
AcDbEntity
  8
0
 48
50.0
100
AcDbBlockEnd
  0
BLOCK
  5
1E24A
330
1E249
100
AcDbEntity
  8
0
 48
50.0
100
AcDbBlockBegin
  2
*D28
 70
     1
 10
0.0
 20
0.0
 30
0.0
  3
*D28
  1

  0
LINE
  5
1E24B
330
1E249
100
AcDbEntity
  8
0
  6
ByBlock
 62
     0
 48
50.0
100
AcDbLine
 10
5196.0
 20
7079.000000000007
 30
0.0
 11
5196.0
 21
6928.700321064884
 31
0.0
  0
LINE
  5
1E24C
330
1E249
100
AcDbEntity
  8
0
  6
ByBlock
 62
     0
 48
50.0
100
AcDbLine
 10
5296.0
 20
7079.000000000007
 30
0.0
 11
5296.0
 21
6928.700321064884
 31
0.0
  0
LINE
  5
1E24D
330
1E249
100
AcDbEntity
  8
0
  6
ByBlock
 62
     0
 48
50.0
100
AcDbLine
 10
5196.0
 20
7003.700321064883
 30
0.0
 11
5296.0
 21
7003.700321064883
 31
0.0
  0
LINE
  5
1E24E
330
1E249
100
AcDbEntity
  8
0
  6
ByBlock
 62
     0
 48
50.0
100
AcDbLine
 10
5296.0
 20
7003.700321064883
 30
0.0
 11
5711.11811023622
 21
7003.700321064883
 31
0.0
  0
INSERT
  5
1E24F
330
1E249
100
AcDbEntity
  8
0
  6
ByBlock
 62
     0
 48
50.0
100
AcDbBlockReference
  2
_DOTSMALL
 10
5196.0
 20
7003.700321064883
 30
0.0
 41
125.0
 42
125.0
 43
125.0
 50
180.0
  0
INSERT
  5
1E250
330
1E249
100
AcDbEntity
  8
0
  6
ByBlock
 62
     0
 48
50.0
100
AcDbBlockReference
  2
_DOTSMALL
 10
5296.0
 20
7003.700321064883
 30
0.0
 41
125.0
 42
125.0
 43
125.0
  0
MTEXT
  5
1E251
330
1E249
100
AcDbEntity
  8
0
  6
ByBlock
 62
     7
 48
50.0
100
AcDbMText
 10
5566.05905511811
 20
7103.700321064883
 30
0.0
 40
150.0
 41
0.0
 71
     5
 72
     1
  1
\A1;100
  7
STYLE1
 73
     1
 44
1.0
1001
ACAD
1000
MTEXTBEGIN
1070
    73
1070
     1
1070
    44
1040
1.0
1070
    74
1070
     0
1000
MTEXTEND
  0
POINT
  5
1E252
330
1E249
100
AcDbEntity
  8
DEFPOINTS
  6
ByBlock
 62
     0
 48
50.0
100
AcDbPoint
 10
5196.0
 20
7104.000000000008
 30
0.0
  0
POINT
  5
1E253
330
1E249
100
AcDbEntity
  8
DEFPOINTS
  6
ByBlock
 62
     0
 48
50.0
100
AcDbPoint
 10
5296.0
 20
7104.000000000008
 30
0.0
  0
POINT
  5
1E254
330
1E249
100
AcDbEntity
  8
DEFPOINTS
  6
ByBlock
 62
     0
 48
50.0
100
AcDbPoint
 10
5296.0
 20
7003.700321064883
 30
0.0
  0
ENDBLK
  5
1E255
330
1E249
100
AcDbEntity
  8
0
 48
50.0
100
AcDbBlockEnd
  0
BLOCK
  5
1E2A5
330
1E256
100
AcDbEntity
  8
0
 48
50.0
100
AcDbBlockBegin
  2
A$C56A41A26
 70
     0
 10
0.0
 20
0.0
 30
0.0
  3
A$C56A41A26
  1

  0
LINE
  5
1E257
330
1E256
100
AcDbEntity
  8
部品1
 48
50.0
100
AcDbLine
 10
2708.994140400603
 20
2627.271234847374
 30
0.0
 11
908.9941404006022
 21
2627.271234847374
 31
0.0
  0
LINE
  5
1E258
330
1E256
100
AcDbEntity
  8
部品1
 48
50.0
100
AcDbLine
 10
2708.994140400602
 20
2727.271234847376
 30
0.0
 11
908.9941404006022
 21
2727.271234847376
 31
0.0
  0
LINE
  5
1E259
330
1E256
100
AcDbEntity
  8
想像線
 48
10.0
100
AcDbLine
 10
858.9941404005985
 20
2817.271234847376
 30
0.0
 11
2758.994140400606
 21
2817.27123484738
 31
0.0
  0
LINE
  5
1E25A
330
1E256
100
AcDbEntity
  8
想像線
 48
10.0
100
AcDbLine
 10
2758.994140400603
 20
797.2712348473724
 30
0.0
 11
858.9941404006022
 21
797.271234847376
 31
0.0
  0
LINE
  5
1E25B
330
1E256
100
AcDbEntity
  8
部品1
 48
50.0
100
AcDbLine
 10
2708.994140400602
 20
927.2712348473943
 30
0.0
 11
908.9941404006022
 21
927.271234847376
 31
0.0
  0
DIMENSION
  5
1E25C
330
1E256
100
AcDbEntity
  8
寸法
 48
50.0
100
AcDbDimension
  2
*D11
 10
1444.747864477533
 20
927.2712348473778
 30
0.0
 11
1444.747864477533
 21
649.1876915744906
 31
0.0
 12
-2587.005859599398
 22
-5696.728765152624
 32
0.0
 70
   128
 71
     5
 42
-1.0
  3
INABA_S50G
100
AcDbAlignedDimension
 13
1138.994140400603
 23
1027.271234847381
 33
0.0
 14
1138.994140400604
 24
927.2712348473778
 34
0.0
 50
90.0
100
AcDbRotatedDimension
1001
ACAD
1000
DSTYLE
1002
{
1070
   288
1070
     1
1070
    40
1040
1.0
1002
}
  0
LINE
  5
1E25D
330
1E256
100
AcDbEntity
  8
部品1
 48
50.0
100
AcDbLine
 10
2708.994140400603
 20
1027.271234847398
 30
0.0
 11
908.9941404006022
 21
1027.27123484738
 31
0.0
  0
DIMENSION
  5
1E25E
330
1E256
100
AcDbEntity
  8
寸法
 48
50.0
100
AcDbDimension
  2
*D10
 10
1444.747864477533
 20
1227.271234847383
 30
0.0
 11
1444.747864477533
 21
1514.234817524549
 31
0.0
 12
-2587.005859599398
 22
-1276.728765152624
 32
0.0
 70
   128
 71
     5
 42
-1.0
  3
INABA_S50G
100
AcDbAlignedDimension
 13
1138.994140400603
 23
1027.27123484738
 33
0.0
 14
1208.994140400603
 24
1227.271234847383
 34
0.0
 50
90.0
100
AcDbRotatedDimension
1001
ACAD
1000
DSTYLE
1002
{
1070
   288
1070
     1
1070
    40
1040
1.0
1002
}
  0
MTEXT
  5
1E25F
102
{ACAD_REACTORS
330
1E260
102
}
330
1E256
100
AcDbEntity
  8
寸法
 62
     7
 48
50.0
100
AcDbMText
 10
1566.166025099446
 20
2207.190649171135
 30
0.0
 40
150.0
 41
0.0
 71
     6
 72
     1
  1
\A1;C.B
  7
STYLE1
 73
     1
 44
1.0
1001
ACAD
1000
MTEXTBEGIN
1070
    73
1070
     1
1070
    44
1040
1.0
1070
    74
1070
     0
1000
MTEXTEND
  0
LEADER
  5
1E260
330
1E256
100
AcDbEntity
  8
寸法
 48
50.0
100
AcDbLeader
  3
INABA_S50G
 73
     0
 75
     1
 40
150.0
 41
231.9898538650463
 76
     3
 10
1759.920575772113
 20
1978.037610834701
 30
0.0
 10
1716.166025099446
 20
2107.190649171135
 30
0.0
 10
1591.166025099446
 20
2107.190649171135
 30
0.0
340
1E25F
1001
ACAD
1000
DSTYLE
1002
{
1070
    40
1040
1.0
1002
}
  0
DIMENSION
  5
1E261
330
1E256
100
AcDbEntity
  8
寸法
 48
50.0
100
AcDbDimension
  2
*D9
 10
1031.994140400602
 20
3453.478159147693
 30
0.0
 11
1808.994140400602
 21
3553.478159147693
 31
0.0
 12
-2587.005859599398
 22
-5276.728765152624
 32
0.0
 71
     5
 42
-1.0
  3
INABA_S50G
100
AcDbAlignedDimension
 13
2585.994140400603
 23
2654.271234847376
 33
0.0
 14
1031.994140400602
 24
2654.271234847376
 34
0.0
100
AcDbRotatedDimension
1001
ACAD
1000
DSTYLE
1002
{
1070
    40
1040
1.0
1070
    75
1070
     1
1070
   279
1070
     1
1002
}
  0
DIMENSION
  5
1E262
330
1E256
100
AcDbEntity
  8
寸法
 48
50.0
100
AcDbDimension
  2
*D8
 10
2708.994140400602
 20
3665.93885466453
 30
0.0
 11
1808.994140400602
 21
3765.93885466453
 31
0.0
 12
-2587.005859599398
 22
-5276.728765152624
 32
0.0
 71
     5
 42
-1.0
  3
INABA_S50G
100
AcDbAlignedDimension
 13
908.9941404006022
 23
2727.271234847376
 33
0.0
 14
2708.994140400602
 24
2727.271234847376
 34
0.0
100
AcDbRotatedDimension
1001
ACAD
1000
DSTYLE
1002
{
1070
    40
1040
1.0
1070
    75
1070
     1
1070
   279
1070
     1
1002
}
  0
DIMENSION
  5
1E263
330
1E256
100
AcDbEntity
  8
寸法
 48
50.0
100
AcDbDimension
  2
*D26
 10
908.9941404006022
 20
3254.181000495704
 30
0.0
 11
1358.994140400602
 21
3354.181000495704
 31
0.0
 12
-2587.005859599398
 22
-1276.728765152624
 32
0.0
 71
     5
 42
-1.0
  3
INABA_S50G
100
AcDbAlignedDimension
 13
1808.994140400602
 23
2027.271234847376
 33
0.0
 14
908.9941404006022
 24
2727.271234847376
 34
0.0
100
AcDbRotatedDimension
1001
ACAD
1000
DSTYLE
1002
{
1070
    40
1040
1.0
1070
    75
1070
     1
1070
   279
1070
     1
1070
   288
1070
     1
1002
}
  0
DIMENSION
  5
1E264
330
1E256
100
AcDbEntity
  8
寸法
 48
50.0
100
AcDbDimension
  2
*D23
 10
1008.9941404006
 20
1579.881729678676
 30
0.0
 11
697.9539776434176
 21
1579.881729678676
 31
0.0
 12
-2587.005859599398
 22
-1276.728765152624
 32
0.0
 70
   128
 71
     5
 42
-1.0
  3
INABA_S50G
100
AcDbAlignedDimension
 13
1208.994140400603
 23
1227.271234847383
 33
0.0
 14
1008.9941404006
 24
1227.271234847379
 34
0.0
100
AcDbRotatedDimension
1001
ACAD
1000
DSTYLE
1002
{
1070
    40
1040
1.0
1002
}
  0
LINE
  5
1E265
330
1E256
100
AcDbEntity
  8
部品1
 48
50.0
100
AcDbLine
 10
1008.994140400602
 20
1027.27123484738
 30
0.0
 11
1008.994140400602
 21
2627.271234847373
 31
0.0
  0
DIMENSION
  5
1E266
330
1E256
100
AcDbEntity
  8
寸法
 48
50.0
100
AcDbDimension
  2
*D15
 10
413.0518743867797
 20
1125.271234847378
 30
0.0
 11
413.0518743867797
 21
1827.271234847376
 31
0.0
 12
-2587.005859599398
 22
-1276.728765152624
 32
0.0
 70
   128
 71
     5
 42
-1.0
  3
INABA_S50G
100
AcDbAlignedDimension
 13
981.9941404006021
 23
2604.271234847376
 33
0.0
 14
981.9941404006085
 24
1125.271234847378
 34
0.0
 50
90.0
100
AcDbRotatedDimension
1001
ACAD
1000
DSTYLE
1002
{
1070
   288
1070
     1
1070
    40
1040
1.0
1002
}
  0
DIMENSION
  5
1E267
330
1E256
100
AcDbEntity
  8
寸法
 48
50.0
100
AcDbDimension
  2
*D18
 10
167.5590722488123
 20
927.271234847376
 30
0.0
 11
67.5590722488123
 21
1827.271234847376
 31
0.0
 12
-2587.005859599398
 22
-1276.728765152624
 32
0.0
 71
     5
 42
-1.0
  3
INABA_S50G
100
AcDbAlignedDimension
 13
908.9941404006022
 23
2727.271234847376
 33
0.0
 14
908.9941404006022
 24
927.271234847376
 34
0.0
 50
90.0
100
AcDbRotatedDimension
1001
ACAD
1000
DSTYLE
1002
{
1070
    40
1040
1.0
1070
    75
1070
     1
1070
   279
1070
     1
1002
}
  0
LINE
  5
1E268
330
1E256
100
AcDbEntity
  8
想像線
 48
10.0
100
AcDbLine
 10
858.9941404006022
 20
797.271234847376
 30
0.0
 11
858.9941404006022
 21
2817.27123484738
 31
0.0
  0
LINE
  5
1E269
330
1E256
100
AcDbEntity
  8
部品1
 48
50.0
100
AcDbLine
 10
908.9941404006022
 20
927.271234847376
 30
0.0
 11
908.9941404006022
 21
2727.271234847376
 31
0.0
  0
DIMENSION
  5
1E26A
330
1E256
100
AcDbEntity
  8
寸法
 48
50.0
100
AcDbDimension
  2
*D17
 10
167.5590722488123
 20
797.271234847376
 30
0.0
 11
67.5590722488123
 21
1282.271234847376
 31
0.0
 12
-2587.005859599398
 22
-5696.728765152624
 32
0.0
  1
b
 71
     5
 42
-1.0
  3
INABA_S50G
100
AcDbAlignedDimension
 13
908.9941404006022
 23
927.271234847376
 33
0.0
 14
413.0518743867797
 24
797.271234847376
 34
0.0
 50
90.0
100
AcDbRotatedDimension
1001
ACAD
1000
DSTYLE
1002
{
1070
    40
1040
1.0
1002
}
  0
DIMENSION
  5
1E26B
330
1E256
100
AcDbEntity
  8
寸法
 48
50.0
100
AcDbDimension
  2
*D12
 10
413.0518743867797
 20
927.271234847376
 30
0.0
 11
413.0518743867797
 21
591.7402860047841
 31
0.0
 12
-2587.005859599398
 22
-5696.728765152624
 32
0.0
 70
   128
 71
     5
 42
-1.0
  3
INABA_S50G
100
AcDbAlignedDimension
 13
981.9941404006085
 23
1125.271234847378
 33
0.0
 14
908.9941404006022
 24
927.271234847376
 34
0.0
 50
90.0
100
AcDbRotatedDimension
1001
ACAD
1000
DSTYLE
1002
{
1070
    40
1040
1.0
1002
}
  0
LINE
  5
1E26C
330
1E256
100
AcDbEntity
  8
部品1
 48
50.0
100
AcDbLine
 10
1008.994140400602
 20
1427.27123484738
 30
0.0
 11
908.9941404006022
 21
1427.27123484738
 31
0.0
  0
LINE
  5
1E26D
330
1E256
100
AcDbEntity
  8
点線
 48
10.0
100
AcDbLine
 10
1208.994140400603
 20
1027.27123484738
 30
0.0
 11
1208.994140400603
 21
1227.271234847383
 31
0.0
  0
LINE
  5
1E26E
330
1E256
100
AcDbEntity
  8
センター
 48
2.0
100
AcDbLine
 10
981.9941404006085
 20
1125.271234847378
 30
0.0
 11
1081.994140400608
 21
1125.271234847378
 31
0.0
  0
LINE
  5
1E26F
330
1E256
100
AcDbEntity
  8
センター
 48
2.0
100
AcDbLine
 10
1031.994140400608
 20
1175.271234847378
 30
0.0
 11
1031.994140400608
 21
1075.271234847378
 31
0.0
  0
LINE
  5
1E270
330
1E256
100
AcDbEntity
  8
部品1
 48
50.0
100
AcDbLine
 10
1308.994140400602
 20
927.271234847376
 30
0.0
 11
1308.994140400602
 21
1027.271234847383
 31
0.0
  0
LINE
  5
1E271
330
1E256
100
AcDbEntity
  8
点線
 48
10.0
100
AcDbLine
 10
1208.994140400603
 20
1227.271234847383
 30
0.0
 11
1008.9941404006
 21
1227.271234847379
 31
0.0
  0
LINE
  5
1E272
330
1E256
100
AcDbEntity
  8
部品1
 48
50.0
100
AcDbLine
 10
1308.994140400602
 20
2627.271234847374
 30
0.0
 11
1308.994140400602
 21
2727.271234847382
 31
0.0
  0
DIMENSION
  5
1E273
330
1E256
100
AcDbEntity
  8
寸法
 48
50.0
100
AcDbDimension
  2
*D16
 10
413.0518743867797
 20
2604.271234847376
 30
0.0
 11
413.0518743867797
 21
3000.377836565175
 31
0.0
 12
-2587.005859599398
 22
-5276.728765152624
 32
0.0
 70
   128
 71
     5
 42
-1.0
  3
INABA_S50G
100
AcDbAlignedDimension
 13
908.9941404006022
 23
2727.271234847376
 33
0.0
 14
981.9941404006021
 24
2604.271234847376
 34
0.0
 50
90.0
100
AcDbRotatedDimension
1001
ACAD
1000
DSTYLE
1002
{
1070
    40
1040
1.0
1002
}
  0
DIMENSION
  5
1E274
330
1E256
100
AcDbEntity
  8
寸法
 48
50.0
100
AcDbDimension
  2
*D19
 10
167.5590722488123
 20
2727.271234847376
 30
0.0
 11
67.5590722488123
 21
2772.271234847374
 31
0.0
 12
-2587.005859599398
 22
-5276.728765152624
 32
0.0
  1
c
 71
     5
 42
-1.0
  3
INABA_S50G
100
AcDbAlignedDimension
 13
413.0518743867797
 23
2817.271234847373
 33
0.0
 14
908.9941404006022
 24
2727.271234847376
 34
0.0
 50
90.0
100
AcDbRotatedDimension
1001
ACAD
1000
DSTYLE
1002
{
1070
    40
1040
1.0
1002
}
  0
DIMENSION
  5
1E275
330
1E256
100
AcDbEntity
  8
寸法
 48
50.0
100
AcDbDimension
  2
*D14
 10
908.9941404006022
 20
3453.478159147693
 30
0.0
 11
628.6277673437908
 21
3453.478159147693
 31
0.0
 12
-2587.005859599398
 22
-5276.728765152624
 32
0.0
 70
   128
 71
     5
 42
-1.0
  3
INABA_S50G
100
AcDbAlignedDimension
 13
1031.994140400602
 23
2654.271234847376
 33
0.0
 14
908.9941404006022
 24
2727.271234847376
 34
0.0
100
AcDbRotatedDimension
1001
ACAD
1000
DSTYLE
1002
{
1070
    40
1040
1.0
1002
}
  0
LINE
  5
1E276
330
1E256
100
AcDbEntity
  8
部品1
 48
50.0
100
AcDbLine
 10
1008.994140400602
 20
1827.271234847379
 30
0.0
 11
908.9941404006022
 21
1827.271234847379
 31
0.0
  0
LINE
  5
1E277
330
1E256
100
AcDbEntity
  8
部品1
 48
50.0
100
AcDbLine
 10
1008.994140400602
 20
2227.271234847375
 30
0.0
 11
908.9941404006022
 21
2227.271234847374
 31
0.0
  0
LINE
  5
1E278
330
1E256
100
AcDbEntity
  8
点線
 48
10.0
100
AcDbLine
 10
1208.994140400601
 20
2427.271234847373
 30
0.0
 11
1008.994140400602
 21
2427.271234847375
 31
0.0
  0
LINE
  5
1E279
330
1E256
100
AcDbEntity
  8
センター
 48
2.0
100
AcDbLine
 10
1031.994140400602
 20
2654.271234847376
 30
0.0
 11
1031.994140400602
 21
2554.271234847376
 31
0.0
  0
LINE
  5
1E27A
330
1E256
100
AcDbEntity
  8
センター
 48
2.0
100
AcDbLine
 10
981.9941404006021
 20
2604.271234847376
 30
0.0
 11
1081.994140400602
 21
2604.271234847376
 31
0.0
  0
LINE
  5
1E27B
330
1E256
100
AcDbEntity
  8
点線
 48
10.0
100
AcDbLine
 10
1208.994140400601
 20
2427.271234847373
 30
0.0
 11
1208.994140400602
 21
2627.271234847373
 31
0.0
  0
DIMENSION
  5
1E27C
330
1E256
100
AcDbEntity
  8
寸法
 48
50.0
100
AcDbDimension
  2
*D13
 10
908.9941404006022
 20
3665.938854664532
 30
0.0
 11
669.0160925585151
 21
3665.938854664532
 31
0.0
 12
-2587.005859599398
 22
-5276.728765152624
 32
0.0
 70
   128
  1
a
 71
     5
 42
-1.0
  3
INABA_S50G
100
AcDbAlignedDimension
 13
851.734369061589
 23
3453.478159147689
 33
0.0
 14
908.9941404006022
 24
2727.271234847376
 34
0.0
100
AcDbRotatedDimension
1001
ACAD
1000
DSTYLE
1002
{
1070
    40
1040
1.0
1002
}
  0
LINE
  5
1E27D
330
1E256
100
AcDbEntity
  8
部品1
 48
50.0
100
AcDbLine
 10
1312.994140400602
 20
2727.271234847373
 30
0.0
 11
908.9941404006022
 21
2727.271234847376
 31
0.0
  0
LINE
  5
1E27E
330
1E256
100
AcDbEntity
  8
部品1
 48
50.0
100
AcDbLine
 10
2608.994140400602
 20
1027.271234847396
 30
0.0
 11
2608.994140400601
 21
2627.271234847373
 31
0.0
  0
LINE
  5
1E27F
330
1E256
100
AcDbEntity
  8
想像線
 48
10.0
100
AcDbLine
 10
2758.994140400603
 20
2817.27123484738
 30
0.0
 11
2758.994140400606
 21
797.271234847376
 31
0.0
  0
LINE
  5
1E280
330
1E256
100
AcDbEntity
  8
部品1
 48
50.0
100
AcDbLine
 10
2708.994140400602
 20
927.2712348473943
 30
0.0
 11
2708.994140400602
 21
2727.271234847376
 31
0.0
  0
DIMENSION
  5
1E281
330
1E256
100
AcDbEntity
  8
寸法
 48
50.0
100
AcDbDimension
  2
*D24
 10
2208.260957831161
 20
1827.271234847376
 30
0.0
 11
2208.260957831161
 21
1377.271234847381
 31
0.0
 12
-2587.005859599398
 22
-1276.728765152624
 32
0.0
 70
   128
 71
     5
 42
-1.0
  3
INABA_S50G
100
AcDbAlignedDimension
 13
1808.994140400602
 23
927.271234847385
 33
0.0
 14
1858.994140400602
 24
1827.271234847376
 34
0.0
 50
90.0
100
AcDbRotatedDimension
1001
ACAD
1000
DSTYLE
1002
{
1070
   288
1070
     1
1070
    40
1040
1.0
1002
}
  0
DIMENSION
  5
1E282
330
1E256
100
AcDbEntity
  8
寸法
 48
50.0
100
AcDbDimension
  2
*D28
 10
2708.994140400602
 20
1306.97155591226
 30
0.0
 11
2979.053195518713
 21
1306.97155591226
 31
0.0
 12
-2587.005859599398
 22
-5696.728765152624
 32
0.0
 70
   128
 71
     5
 42
-1.0
  3
INABA_S50G
100
AcDbAlignedDimension
 13
2608.994140400602
 23
1407.271234847383
 33
0.0
 14
2708.994140400602
 24
1407.271234847383
 34
0.0
100
AcDbRotatedDimension
1001
ACAD
1000
DSTYLE
1002
{
1070
    40
1040
1.0
1002
}
  0
TEXT
  5
1E283
330
1E256
100
AcDbEntity
  8
寸法
 48
50.0
100
AcDbText
 10
1431.428391756737
 20
210.9080740941899
 30
0.0
 40
150.0
  1
MBW-32
  7
STYLE2
100
AcDbText
  0
TEXT
  5
1E284
330
1E256
100
AcDbEntity
  8
寸法
 48
50.0
100
AcDbText
 10
1431.428391756737
 20
40.90807409418994
 30
0.0
 40
150.0
  1
MBW-32H
  7
STYLE2
100
AcDbText
  0
TEXT
  5
1E285
330
1E256
100
AcDbEntity
  8
寸法
 48
50.0
100
AcDbText
 10
1679.121083237383
 20
648.2218646227884
 30
0.0
 40
120.0
  1
扉面
  7
STYLE1
100
AcDbText
  0
LINE
  5
1E286
330
1E256
100
AcDbEntity
  8
部品1
 48
50.0
100
AcDbLine
 10
1908.994140400602
 20
1127.27123484739
 30
0.0
 11
1708.994140400602
 21
1127.271234847389
 31
0.0
  0
LINE
  5
1E287
330
1E256
100
AcDbEntity
  8
部品1
 48
50.0
100
AcDbLine
 10
1708.994140400602
 20
1127.271234847389
 30
0.0
 11
1708.994140400602
 21
1027.271234847389
 31
0.0
  0
LINE
  5
1E288
330
1E256
100
AcDbEntity
  8
部品1
 48
50.0
100
AcDbLine
 10
1708.994140400602
 20
927.2712348473797
 30
0.0
 11
1708.994140400602
 21
1027.271234847387
 31
0.0
  0
LINE
  5
1E289
330
1E256
100
AcDbEntity
  8
部品1
 48
50.0
100
AcDbLine
 10
1908.994140400602
 20
1127.271234847389
 30
0.0
 11
1908.994140400602
 21
1027.271234847389
 31
0.0
  0
LINE
  5
1E28A
330
1E256
100
AcDbEntity
  8
部品1
 48
50.0
100
AcDbLine
 10
2108.994140400602
 20
927.271234847376
 30
0.0
 11
2108.994140400602
 21
1027.271234847383
 31
0.0
  0
LINE
  5
1E28B
330
1E256
100
AcDbEntity
  8
センター
 48
2.0
100
AcDbLine
 10
2535.994140400609
 20
1125.271234847378
 30
0.0
 11
2635.994140400609
 21
1125.271234847378
 31
0.0
  0
LINE
  5
1E28C
330
1E256
100
AcDbEntity
  8
点線
 48
10.0
100
AcDbLine
 10
2608.9941404006
 20
1227.271234847396
 30
0.0
 11
2408.994140400601
 21
1227.271234847394
 31
0.0
  0
LINE
  5
1E28D
330
1E256
100
AcDbEntity
  8
点線
 48
10.0
100
AcDbLine
 10
2408.994140400603
 20
1027.271234847396
 30
0.0
 11
2408.994140400601
 21
1227.271234847394
 31
0.0
  0
LINE
  5
1E28E
330
1E256
100
AcDbEntity
  8
部品1
 48
50.0
100
AcDbLine
 10
2308.994140400602
 20
927.2712348473943
 30
0.0
 11
2308.994140400602
 21
1027.27123484739
 31
0.0
  0
LINE
  5
1E28F
330
1E256
100
AcDbEntity
  8
センター
 48
2.0
100
AcDbLine
 10
2585.994140400609
 20
1175.271234847378
 30
0.0
 11
2585.994140400609
 21
1075.271234847378
 31
0.0
  0
LINE
  5
1E290
330
1E256
100
AcDbEntity
  8
部品1
 48
50.0
100
AcDbLine
 10
2708.994140400603
 20
1427.271234847398
 30
0.0
 11
2608.994140400601
 21
1427.271234847396
 31
0.0
  0
DIMENSION
  5
1E291
330
1E256
100
AcDbEntity
  8
寸法
 48
50.0
100
AcDbDimension
  2
*D21
 10
2585.994140400603
 20
3453.478159147693
 30
0.0
 11
2982.100742118401
 21
3453.478159147693
 31
0.0
 12
-2587.005859599398
 22
-5276.728765152624
 32
0.0
 70
   128
 71
     5
 42
-1.0
  3
INABA_S50G
100
AcDbAlignedDimension
 13
2708.994140400602
 23
2727.271234847376
 33
0.0
 14
2585.994140400603
 24
2654.271234847376
 34
0.0
100
AcDbRotatedDimension
1001
ACAD
1000
DSTYLE
1002
{
1070
    40
1040
1.0
1002
}
  0
DIMENSION
  5
1E292
330
1E256
100
AcDbEntity
  8
寸法
 48
50.0
100
AcDbDimension
  2
*D20
 10
2751.734369061589
 20
3665.938854664532
 30
0.0
 11
3059.452645564663
 21
3665.938854664532
 31
0.0
 12
-2587.005859599398
 22
-5276.728765152624
 32
0.0
 70
   128
  1
a
 71
     5
 42
-1.0
  3
INABA_S50G
100
AcDbAlignedDimension
 13
2708.994140400602
 23
2727.271234847376
 33
0.0
 14
2751.734369061589
 24
3453.478159147695
 34
0.0
100
AcDbRotatedDimension
1001
ACAD
1000
DSTYLE
1002
{
1070
    40
1040
1.0
1002
}
  0
LINE
  5
1E293
330
1E256
100
AcDbEntity
  8
部品1
 48
50.0
100
AcDbLine
 10
2308.994140400602
 20
2627.271234847392
 30
0.0
 11
2308.994140400602
 21
2727.271234847389
 31
0.0
  0
LINE
  5
1E294
330
1E256
100
AcDbEntity
  8
部品1
 48
50.0
100
AcDbLine
 10
2108.994140400602
 20
2627.271234847374
 30
0.0
 11
2108.994140400602
 21
2727.271234847382
 31
0.0
  0
LINE
  5
1E295
330
1E256
100
AcDbEntity
  8
部品1
 48
50.0
100
AcDbLine
 10
1708.994140400602
 20
2627.271234847378
 30
0.0
 11
1708.994140400602
 21
2727.271234847385
 31
0.0
  0
DIMENSION
  5
1E296
330
1E256
100
AcDbEntity
  8
寸法
 48
50.0
100
AcDbDimension
  2
*D22
 10
2366.841588969379
 20
2627.271234847374
 30
0.0
 11
2366.841588969379
 21
2997.330289965487
 31
0.0
 12
-2587.005859599398
 22
-5276.728765152624
 32
0.0
 70
   128
 71
     5
 42
-1.0
  3
INABA_S50G
100
AcDbAlignedDimension
 13
2153.912786690133
 23
2727.271234847376
 33
0.0
 14
2153.912786690133
 24
2627.271234847374
 34
0.0
 50
90.0
100
AcDbRotatedDimension
1001
ACAD
1000
DSTYLE
1002
{
1070
    40
1040
1.0
1002
}
  0
DIMENSION
  5
1E297
330
1E256
100
AcDbEntity
  8
寸法
 48
50.0
100
AcDbDimension
  2
*D25
 10
2208.260957831161
 20
2727.271234847376
 30
0.0
 11
2108.260957831161
 21
2277.271234847376
 31
0.0
 12
-2587.005859599398
 22
-1276.728765152624
 32
0.0
 71
     5
 42
-1.0
  3
INABA_S50G
100
AcDbAlignedDimension
 13
1858.994140400602
 23
1827.271234847376
 33
0.0
 14
1808.994140400602
 24
2727.271234847376
 34
0.0
 50
90.0
100
AcDbRotatedDimension
1001
ACAD
1000
DSTYLE
1002
{
1070
    40
1040
1.0
1070
    75
1070
     1
1070
   279
1070
     1
1070
   288
1070
     1
1002
}
  0
DIMENSION
  5
1E298
330
1E256
100
AcDbEntity
  8
寸法
 48
50.0
100
AcDbDimension
  2
*D27
 10
1808.994140400602
 20
3254.181000495704
 30
0.0
 11
2279.912662406881
 21
3254.181000495704
 31
0.0
 12
-2587.005859599398
 22
-1276.728765152624
 32
0.0
 70
   128
 71
     5
 42
-1.0
  3
INABA_S50G
100
AcDbAlignedDimension
 13
2708.994140400602
 23
2727.271234847376
 33
0.0
 14
1808.994140400602
 24
2027.271234847376
 34
0.0
100
AcDbRotatedDimension
1001
ACAD
1000
DSTYLE
1002
{
1070
   288
1070
     1
1070
    40
1040
1.0
1002
}
  0
LINE
  5
1E299
330
1E256
100
AcDbEntity
  8
部品1
 48
50.0
100
AcDbLine
 10
1908.994140400602
 20
2027.271234847376
 30
0.0
 11
1708.994140400602
 21
2027.271234847376
 31
0.0
  0
LINE
  5
1E29A
330
1E256
100
AcDbEntity
  8
部品1
 48
50.0
100
AcDbLine
 10
1908.994140400602
 20
1627.271234847374
 30
0.0
 11
1708.994140400602
 21
1627.271234847374
 31
0.0
  0
LINE
  5
1E29B
330
1E256
100
AcDbEntity
  8
センター
 48
2.0
100
AcDbLine
 10
1758.994140400602
 20
1827.271234847376
 30
0.0
 11
1858.994140400602
 21
1827.271234847376
 31
0.0
  0
LINE
  5
1E29C
330
1E256
100
AcDbEntity
  8
部品1
 48
50.0
100
AcDbLine
 10
1708.994140400602
 20
1627.271234847376
 30
0.0
 11
1708.994140400602
 21
2027.271234847376
 31
0.0
  0
LINE
  5
1E29D
330
1E256
100
AcDbEntity
  8
部品1
 48
50.0
100
AcDbLine
 10
1908.994140400602
 20
1627.271234847374
 30
0.0
 11
1908.994140400602
 21
2027.271234847376
 31
0.0
  0
LINE
  5
1E29E
330
1E256
100
AcDbEntity
  8
センター
 48
2.0
100
AcDbLine
 10
1808.994140400602
 20
1877.271234847376
 30
0.0
 11
1808.994140400602
 21
1777.271234847376
 31
0.0
  0
LINE
  5
1E29F
330
1E256
100
AcDbEntity
  8
部品1
 48
50.0
100
AcDbLine
 10
2708.994140400603
 20
1827.271234847398
 30
0.0
 11
2608.994140400601
 21
1827.271234847396
 31
0.0
  0
LINE
  5
1E2A0
330
1E256
100
AcDbEntity
  8
点線
 48
10.0
100
AcDbLine
 10
2608.994140400601
 20
2427.271234847375
 30
0.0
 11
2408.994140400603
 21
2427.271234847375
 31
0.0
  0
LINE
  5
1E2A1
330
1E256
100
AcDbEntity
  8
センター
 48
2.0
100
AcDbLine
 10
2535.994140400602
 20
2604.271234847376
 30
0.0
 11
2635.994140400602
 21
2604.271234847376
 31
0.0
  0
LINE
  5
1E2A2
330
1E256
100
AcDbEntity
  8
点線
 48
10.0
100
AcDbLine
 10
2408.994140400603
 20
2427.271234847375
 30
0.0
 11
2408.994140400601
 21
2627.271234847373
 31
0.0
  0
LINE
  5
1E2A3
330
1E256
100
AcDbEntity
  8
部品1
 48
50.0
100
AcDbLine
 10
2708.994140400603
 20
2227.271234847374
 30
0.0
 11
2608.994140400602
 21
2227.271234847374
 31
0.0
  0
LINE
  5
1E2A4
330
1E256
100
AcDbEntity
  8
センター
 48
2.0
100
AcDbLine
 10
2585.994140400603
 20
2654.271234847376
 30
0.0
 11
2585.994140400603
 21
2554.271234847376
 31
0.0
  0
ENDBLK
  5
1E2A6
330
1E256
100
AcDbEntity
  8
0
 48
50.0
100
AcDbBlockEnd
  0
BLOCK
  5
1E6D3
330
1E6C9
100
AcDbEntity
  8
0
 48
50.0
100
AcDbBlockBegin
  2
*D30
 70
     1
 10
0.0
 20
0.0
 30
0.0
  3
*D30
  1

  0
LINE
  5
1E6E1
330
1E6C9
100
AcDbEntity
  8
寸法
 62
     0
 48
50.0
370
    -2
100
AcDbLine
 10
9239.599999999999
 20
5599.999999999996
 30
0.0
 11
9544.021227454791
 21
5599.999999999996
 31
0.0
  0
LINE
  5
1E6E2
330
1E6C9
100
AcDbEntity
  8
寸法
 62
     0
 48
50.0
370
    -2
100
AcDbLine
 10
9239.600000000001
 20
5399.999999999995
 30
0.0
 11
9544.021227454791
 21
5399.999999999995
 31
0.0
  0
LINE
  5
1E6E3
330
1E6C9
100
AcDbEntity
  8
寸法
 62
     0
 48
50.0
370
    -2
100
AcDbLine
 10
9484.021227454793
 20
5599.999999999996
 30
0.0
 11
9484.021227454793
 21
5399.999999999995
 31
0.0
  0
INSERT
  5
1E6E4
330
1E6C9
100
AcDbEntity
  8
寸法
 62
     0
 48
50.0
370
    -2
100
AcDbBlockReference
  2
_DOTSMALL
 10
9484.021227454793
 20
5599.999999999996
 30
0.0
 41
100.0
 42
100.0
 43
100.0
 50
90.0
  0
INSERT
  5
1E6E5
330
1E6C9
100
AcDbEntity
  8
寸法
 62
     0
 48
50.0
370
    -2
100
AcDbBlockReference
  2
_DOTSMALL
 10
9484.021227454793
 20
5399.999999999995
 30
0.0
 41
100.0
 42
100.0
 43
100.0
 50
270.0
  0
MTEXT
  5
1E6E6
330
1E6C9
100
AcDbEntity
  8
寸法
 62
     7
 48
50.0
100
AcDbMText
 10
9384.009416431169
 20
5499.999999999996
 30
0.0
 40
120.0
 41
0.0
 71
     5
 72
     1
  1
\A1;200
  7
STYLE1
 11
0.0000000000000001
 21
1.0
 31
0.0
 73
     1
 44
1.0
1001
ACAD
1000
MTEXTBEGIN
1070
    73
1070
     1
1070
    44
1040
1.0
1070
    74
1070
     0
1000
MTEXTEND
  0
POINT
  5
1E6E7
330
1E6C9
100
AcDbEntity
  8
DEFPOINTS
 62
     0
 48
50.0
100
AcDbPoint
 10
9219.599999999998
 20
5599.999999999996
 30
0.0
  0
POINT
  5
1E6E8
330
1E6C9
100
AcDbEntity
  8
DEFPOINTS
 62
     0
 48
50.0
100
AcDbPoint
 10
9219.600000000001
 20
5399.999999999995
 30
0.0
  0
POINT
  5
1E6E9
330
1E6C9
100
AcDbEntity
  8
DEFPOINTS
 62
     0
 48
50.0
100
AcDbPoint
 10
9484.021227454793
 20
5399.999999999995
 30
0.0
  0
ENDBLK
  5
1E6D4
330
1E6C9
100
AcDbEntity
  8
0
 48
50.0
100
AcDbBlockEnd
  0
BLOCK
  5
1E6DF
330
1E6D5
100
AcDbEntity
  8
0
 48
50.0
100
AcDbBlockBegin
  2
*D31
 70
     1
 10
0.0
 20
0.0
 30
0.0
  3
*D31
  1

  0
LINE
  5
1E6EA
330
1E6D5
100
AcDbEntity
  8
寸法
 62
     0
 48
50.0
370
    -2
100
AcDbLine
 10
9219.600000000001
 20
5379.999999999995
 30
0.0
 11
9219.600000000001
 21
5086.674515054531
 31
0.0
  0
LINE
  5
1E6EB
330
1E6D5
100
AcDbEntity
  8
寸法
 62
     0
 48
50.0
370
    -2
100
AcDbLine
 10
9019.600000000002
 20
5379.999999999995
 30
0.0
 11
9019.600000000002
 21
5086.674515054531
 31
0.0
  0
LINE
  5
1E6EC
330
1E6D5
100
AcDbEntity
  8
寸法
 62
     0
 48
50.0
370
    -2
100
AcDbLine
 10
9219.600000000001
 20
5146.674515054531
 30
0.0
 11
9019.600000000002
 21
5146.674515054531
 31
0.0
  0
INSERT
  5
1E6ED
330
1E6D5
100
AcDbEntity
  8
寸法
 62
     0
 48
50.0
370
    -2
100
AcDbBlockReference
  2
_DOTSMALL
 10
9219.600000000001
 20
5146.674515054531
 30
0.0
 41
100.0
 42
100.0
 43
100.0
  0
INSERT
  5
1E6EE
330
1E6D5
100
AcDbEntity
  8
寸法
 62
     0
 48
50.0
370
    -2
100
AcDbBlockReference
  2
_DOTSMALL
 10
9019.600000000002
 20
5146.674515054531
 30
0.0
 41
100.0
 42
100.0
 43
100.0
 50
180.0
  0
MTEXT
  5
1E6EF
330
1E6D5
100
AcDbEntity
  8
寸法
 62
     7
 48
50.0
100
AcDbMText
 10
9119.600000000001
 20
5246.686326078153
 30
0.0
 40
120.0
 41
0.0
 71
     5
 72
     1
  1
\A1;200
  7
STYLE1
 73
     1
 44
1.0
1001
ACAD
1000
MTEXTBEGIN
1070
    73
1070
     1
1070
    44
1040
1.0
1070
    74
1070
     0
1000
MTEXTEND
  0
POINT
  5
1E6F0
330
1E6D5
100
AcDbEntity
  8
DEFPOINTS
 62
     0
 48
50.0
100
AcDbPoint
 10
9219.600000000001
 20
5399.999999999995
 30
0.0
  0
POINT
  5
1E6F1
330
1E6D5
100
AcDbEntity
  8
DEFPOINTS
 62
     0
 48
50.0
100
AcDbPoint
 10
9019.600000000002
 20
5399.999999999995
 30
0.0
  0
POINT
  5
1E6F2
330
1E6D5
100
AcDbEntity
  8
DEFPOINTS
 62
     0
 48
50.0
100
AcDbPoint
 10
9019.600000000002
 20
5146.674515054531
 30
0.0
  0
ENDBLK
  5
1E6E0
330
1E6D5
100
AcDbEntity
  8
0
 48
50.0
100
AcDbBlockEnd
  0
BLOCK
  5
1EA31
330
1EA27
100
AcDbEntity
  8
0
 48
50.0
100
AcDbBlockBegin
  2
*D32
 70
     1
 10
0.0
 20
0.0
 30
0.0
  3
*D32
  1

  0
LINE
  5
1EA96
330
1EA27
100
AcDbEntity
  8
寸法
 62
     0
 48
50.0
370
    -2
100
AcDbLine
 10
7426.307702263203
 20
1340.760787611755
 30
0.0
 11
7714.378706623596
 21
1340.760787611755
 31
0.0
  0
LINE
  5
1EA97
330
1EA27
100
AcDbEntity
  8
寸法
 62
     0
 48
50.0
370
    -2
100
AcDbLine
 10
7426.307702263205
 20
1140.760787611754
 30
0.0
 11
7714.378706623596
 21
1140.760787611754
 31
0.0
  0
LINE
  5
1EA98
330
1EA27
100
AcDbEntity
  8
寸法
 62
     0
 48
50.0
370
    -2
100
AcDbLine
 10
7654.378706623596
 20
1340.760787611755
 30
0.0
 11
7654.378706623596
 21
1140.760787611754
 31
0.0
  0
INSERT
  5
1EA99
330
1EA27
100
AcDbEntity
  8
寸法
 62
     0
 48
50.0
370
    -2
100
AcDbBlockReference
  2
_DOTSMALL
 10
7654.378706623596
 20
1340.760787611755
 30
0.0
 41
100.0
 42
100.0
 43
100.0
 50
90.0
  0
INSERT
  5
1EA9A
330
1EA27
100
AcDbEntity
  8
寸法
 62
     0
 48
50.0
370
    -2
100
AcDbBlockReference
  2
_DOTSMALL
 10
7654.378706623596
 20
1140.760787611754
 30
0.0
 41
100.0
 42
100.0
 43
100.0
 50
270.0
  0
MTEXT
  5
1EA9B
330
1EA27
100
AcDbEntity
  8
寸法
 62
     7
 48
50.0
100
AcDbMText
 10
7554.378706623596
 20
1240.760787611756
 30
0.0
 40
120.0
 41
0.0
 71
     5
 72
     1
  1
\A1;a
  7
STYLE1
 11
0.0000000000000001
 21
1.0
 31
0.0
 73
     1
 44
1.0
1001
ACAD
1000
MTEXTBEGIN
1070
    73
1070
     1
1070
    44
1040
1.0
1070
    74
1070
     0
1000
MTEXTEND
  0
POINT
  5
1EA9C
330
1EA27
100
AcDbEntity
  8
DEFPOINTS
 62
     0
 48
50.0
100
AcDbPoint
 10
7406.307702263203
 20
1340.760787611755
 30
0.0
  0
POINT
  5
1EA9D
330
1EA27
100
AcDbEntity
  8
DEFPOINTS
 62
     0
 48
50.0
100
AcDbPoint
 10
7406.307702263204
 20
1140.760787611754
 30
0.0
  0
POINT
  5
1EA9E
330
1EA27
100
AcDbEntity
  8
DEFPOINTS
 62
     0
 48
50.0
100
AcDbPoint
 10
7654.378706623596
 20
1140.760787611754
 30
0.0
  0
ENDBLK
  5
1EA32
330
1EA27
100
AcDbEntity
  8
0
 48
50.0
100
AcDbBlockEnd
  0
BLOCK
  5
1EA3D
330
1EA33
100
AcDbEntity
  8
0
 48
50.0
100
AcDbBlockBegin
  2
*D33
 70
     1
 10
0.0
 20
0.0
 30
0.0
  3
*D33
  1

  0
LINE
  5
1EA8D
330
1EA33
100
AcDbEntity
  8
寸法
 62
     0
 48
50.0
370
    -2
100
AcDbLine
 10
10539.80689989895
 20
1440.760787611754
 30
0.0
 11
10782.44245361606
 21
1440.760787611754
 31
0.0
  0
LINE
  5
1EA8E
330
1EA33
100
AcDbEntity
  8
寸法
 62
     0
 48
50.0
370
    -2
100
AcDbLine
 10
10569.69580798928
 20
1140.760787611754
 30
0.0
 11
10782.44245361606
 21
1140.760787611754
 31
0.0
  0
LINE
  5
1EA8F
330
1EA33
100
AcDbEntity
  8
寸法
 62
     0
 48
50.0
370
    -2
100
AcDbLine
 10
10722.44245361606
 20
1440.760787611754
 30
0.0
 11
10722.44245361606
 21
1140.760787611754
 31
0.0
  0
INSERT
  5
1EA90
330
1EA33
100
AcDbEntity
  8
寸法
 62
     0
 48
50.0
370
    -2
100
AcDbBlockReference
  2
_DOTSMALL
 10
10722.44245361606
 20
1440.760787611754
 30
0.0
 41
100.0
 42
100.0
 43
100.0
 50
90.0
  0
INSERT
  5
1EA91
330
1EA33
100
AcDbEntity
  8
寸法
 62
     0
 48
50.0
370
    -2
100
AcDbBlockReference
  2
_DOTSMALL
 10
10722.44245361606
 20
1140.760787611754
 30
0.0
 41
100.0
 42
100.0
 43
100.0
 50
270.0
  0
MTEXT
  5
1EA92
330
1EA33
100
AcDbEntity
  8
寸法
 62
     7
 48
50.0
100
AcDbMText
 10
10622.44245361606
 20
1290.760787611756
 30
0.0
 40
120.0
 41
0.0
 71
     5
 72
     1
  1
\A1;c
  7
STYLE1
 11
0.0000000000000001
 21
1.0
 31
0.0
 73
     1
 44
1.0
1001
ACAD
1000
MTEXTBEGIN
1070
    73
1070
     1
1070
    44
1040
1.0
1070
    74
1070
     0
1000
MTEXTEND
  0
POINT
  5
1EA93
330
1EA33
100
AcDbEntity
  8
DEFPOINTS
 62
     0
 48
50.0
100
AcDbPoint
 10
10519.80689989895
 20
1440.760787611754
 30
0.0
  0
POINT
  5
1EA94
330
1EA33
100
AcDbEntity
  8
DEFPOINTS
 62
     0
 48
50.0
100
AcDbPoint
 10
10549.69580798928
 20
1140.760787611754
 30
0.0
  0
POINT
  5
1EA95
330
1EA33
100
AcDbEntity
  8
DEFPOINTS
 62
     0
 48
50.0
100
AcDbPoint
 10
10722.44245361606
 20
1140.760787611754
 30
0.0
  0
ENDBLK
  5
1EA3E
330
1EA33
100
AcDbEntity
  8
0
 48
50.0
100
AcDbBlockEnd
  0
BLOCK
  5
1EA49
330
1EA3F
100
AcDbEntity
  8
0
 48
50.0
100
AcDbBlockBegin
  2
*D34
 70
     1
 10
0.0
 20
0.0
 30
0.0
  3
*D34
  1

  0
LINE
  5
1EA84
330
1EA3F
100
AcDbEntity
  8
寸法
 62
     0
 48
50.0
370
    -2
100
AcDbLine
 10
9039.91396638181
 20
1340.760787611756
 30
0.0
 11
9302.127213844709
 21
1340.760787611756
 31
0.0
  0
LINE
  5
1EA85
330
1EA3F
100
AcDbEntity
  8
寸法
 62
     0
 48
50.0
370
    -2
100
AcDbLine
 10
9059.3632032763
 20
1140.760787611754
 30
0.0
 11
9302.127213844709
 21
1140.760787611754
 31
0.0
  0
LINE
  5
1EA86
330
1EA3F
100
AcDbEntity
  8
寸法
 62
     0
 48
50.0
370
    -2
100
AcDbLine
 10
9242.127213844709
 20
1340.760787611756
 30
0.0
 11
9242.127213844709
 21
1140.760787611754
 31
0.0
  0
INSERT
  5
1EA87
330
1EA3F
100
AcDbEntity
  8
寸法
 62
     0
 48
50.0
370
    -2
100
AcDbBlockReference
  2
_DOTSMALL
 10
9242.127213844709
 20
1340.760787611756
 30
0.0
 41
100.0
 42
100.0
 43
100.0
 50
90.0
  0
INSERT
  5
1EA88
330
1EA3F
100
AcDbEntity
  8
寸法
 62
     0
 48
50.0
370
    -2
100
AcDbBlockReference
  2
_DOTSMALL
 10
9242.127213844709
 20
1140.760787611754
 30
0.0
 41
100.0
 42
100.0
 43
100.0
 50
270.0
  0
MTEXT
  5
1EA89
330
1EA3F
100
AcDbEntity
  8
寸法
 62
     7
 48
50.0
100
AcDbMText
 10
9142.127213844709
 20
1240.760787611757
 30
0.0
 40
120.0
 41
0.0
 71
     5
 72
     1
  1
\A1;b
  7
STYLE1
 11
0.0000000000000001
 21
1.0
 31
0.0
 73
     1
 44
1.0
1001
ACAD
1000
MTEXTBEGIN
1070
    73
1070
     1
1070
    44
1040
1.0
1070
    74
1070
     0
1000
MTEXTEND
  0
POINT
  5
1EA8A
330
1EA3F
100
AcDbEntity
  8
DEFPOINTS
 62
     0
 48
50.0
100
AcDbPoint
 10
9019.91396638181
 20
1340.760787611756
 30
0.0
  0
POINT
  5
1EA8B
330
1EA3F
100
AcDbEntity
  8
DEFPOINTS
 62
     0
 48
50.0
100
AcDbPoint
 10
9039.3632032763
 20
1140.760787611754
 30
0.0
  0
POINT
  5
1EA8C
330
1EA3F
100
AcDbEntity
  8
DEFPOINTS
 62
     0
 48
50.0
100
AcDbPoint
 10
9242.127213844709
 20
1140.760787611754
 30
0.0
  0
ENDBLK
  5
1EA4A
330
1EA3F
100
AcDbEntity
  8
0
 48
50.0
100
AcDbBlockEnd
  0
BLOCK
  5
1EA55
330
1EA4B
100
AcDbEntity
  8
0
 48
50.0
100
AcDbBlockBegin
  2
*D35
 70
     1
 10
0.0
 20
0.0
 30
0.0
  3
*D35
  1

  0
LINE
  5
1EA7B
330
1EA4B
100
AcDbEntity
  8
寸法
 62
     0
 48
50.0
370
    -2
100
AcDbLine
 10
6986.307702263201
 20
1140.760787611754
 30
0.0
 11
6852.977955187672
 21
1140.760787611754
 31
0.0
  0
LINE
  5
1EA7C
330
1EA4B
100
AcDbEntity
  8
寸法
 62
     0
 48
50.0
370
    -2
100
AcDbLine
 10
7136.307702263201
 20
740.7607876117545
 30
0.0
 11
6852.977955187672
 21
740.7607876117546
 31
0.0
  0
LINE
  5
1EA7D
330
1EA4B
100
AcDbEntity
  8
寸法
 62
     0
 48
50.0
370
    -2
100
AcDbLine
 10
6912.97795518767
 20
1140.760787611754
 30
0.0
 11
6912.97795518767
 21
740.7607876117545
 31
0.0
  0
INSERT
  5
1EA7E
330
1EA4B
100
AcDbEntity
  8
寸法
 62
     0
 48
50.0
370
    -2
100
AcDbBlockReference
  2
_DOTSMALL
 10
6912.97795518767
 20
1140.760787611754
 30
0.0
 41
100.0
 42
100.0
 43
100.0
 50
90.0
  0
INSERT
  5
1EA7F
330
1EA4B
100
AcDbEntity
  8
寸法
 62
     0
 48
50.0
370
    -2
100
AcDbBlockReference
  2
_DOTSMALL
 10
6912.97795518767
 20
740.7607876117545
 30
0.0
 41
100.0
 42
100.0
 43
100.0
 50
270.0
  0
MTEXT
  5
1EA80
330
1EA4B
100
AcDbEntity
  8
寸法
 62
     7
 48
50.0
100
AcDbMText
 10
6812.966144164049
 20
928.3854207276599
 30
0.0
 40
120.0
 41
0.0
 71
     5
 72
     1
  1
\A1;200
  7
STYLE1
 11
0.0000000000000001
 21
1.0
 31
0.0
 73
     1
 44
1.0
1001
ACAD
1000
MTEXTBEGIN
1070
    73
1070
     1
1070
    44
1040
1.0
1070
    74
1070
     0
1000
MTEXTEND
  0
POINT
  5
1EA81
330
1EA4B
100
AcDbEntity
  8
DEFPOINTS
 62
     0
 48
50.0
100
AcDbPoint
 10
7006.3077022632
 20
1140.760787611754
 30
0.0
  0
POINT
  5
1EA82
330
1EA4B
100
AcDbEntity
  8
DEFPOINTS
 62
     0
 48
50.0
100
AcDbPoint
 10
7156.3077022632
 20
740.7607876117545
 30
0.0
  0
POINT
  5
1EA83
330
1EA4B
100
AcDbEntity
  8
DEFPOINTS
 62
     0
 48
50.0
100
AcDbPoint
 10
6912.97795518767
 20
740.7607876117545
 30
0.0
  0
ENDBLK
  5
1EA56
330
1EA4B
100
AcDbEntity
  8
0
 48
50.0
100
AcDbBlockEnd
  0
BLOCK
  5
1EDA7
330
1EDA6
100
AcDbEntity
  8
0
 48
50.0
100
AcDbBlockBegin
  2
*D36
 70
     1
 10
0.0
 20
0.0
 30
0.0
  3
*D36
  1

  0
LINE
  5
1EDA8
330
1EDA6
100
AcDbEntity
  8
寸法
 62
     0
 48
50.0
370
    -2
100
AcDbLine
 10
6986.307702263198
 20
1140.760787611754
 30
0.0
 11
6852.977955187668
 21
1140.760787611754
 31
0.0
  0
LINE
  5
1EDA9
330
1EDA6
100
AcDbEntity
  8
寸法
 62
     0
 48
50.0
370
    -2
100
AcDbLine
 10
7136.307702263199
 20
740.7607876117545
 30
0.0
 11
6852.977955187668
 21
740.7607876117546
 31
0.0
  0
LINE
  5
1EDAA
330
1EDA6
100
AcDbEntity
  8
寸法
 62
     0
 48
50.0
370
    -2
100
AcDbLine
 10
6912.977955187669
 20
1140.760787611754
 30
0.0
 11
6912.977955187669
 21
740.7607876117545
 31
0.0
  0
INSERT
  5
1EDAB
330
1EDA6
100
AcDbEntity
  8
寸法
 62
     0
 48
50.0
370
    -2
100
AcDbBlockReference
  2
_DOTSMALL
 10
6912.977955187669
 20
1140.760787611754
 30
0.0
 41
100.0
 42
100.0
 43
100.0
 50
90.0
  0
INSERT
  5
1EDAC
330
1EDA6
100
AcDbEntity
  8
寸法
 62
     0
 48
50.0
370
    -2
100
AcDbBlockReference
  2
_DOTSMALL
 10
6912.977955187669
 20
740.7607876117545
 30
0.0
 41
100.0
 42
100.0
 43
100.0
 50
270.0
  0
MTEXT
  5
1EDAD
330
1EDA6
100
AcDbEntity
  8
寸法
 62
     7
 48
50.0
100
AcDbMText
 10
6812.966144164048
 20
928.3854207276599
 30
0.0
 40
120.0
 41
0.0
 71
     5
 72
     1
  1
\A1;200
  7
STYLE1
 11
0.0000000000000001
 21
1.0
 31
0.0
 73
     1
 44
1.0
1001
ACAD
1000
MTEXTBEGIN
1070
    73
1070
     1
1070
    44
1040
1.0
1070
    74
1070
     0
1000
MTEXTEND
  0
POINT
  5
1EDAE
330
1EDA6
100
AcDbEntity
  8
DEFPOINTS
 62
     0
 48
50.0
100
AcDbPoint
 10
7006.307702263199
 20
1140.760787611754
 30
0.0
  0
POINT
  5
1EDAF
330
1EDA6
100
AcDbEntity
  8
DEFPOINTS
 62
     0
 48
50.0
100
AcDbPoint
 10
7156.307702263198
 20
740.7607876117545
 30
0.0
  0
POINT
  5
1EDB0
330
1EDA6
100
AcDbEntity
  8
DEFPOINTS
 62
     0
 48
50.0
100
AcDbPoint
 10
6912.977955187669
 20
740.7607876117545
 30
0.0
  0
ENDBLK
  5
1EDB1
330
1EDA6
100
AcDbEntity
  8
0
 48
50.0
100
AcDbBlockEnd
  0
BLOCK
  5
1EDB3
330
1EDB2
100
AcDbEntity
  8
0
 48
50.0
100
AcDbBlockBegin
  2
*D37
 70
     1
 10
0.0
 20
0.0
 30
0.0
  3
*D37
  1

  0
LINE
  5
1EDB4
330
1EDB2
100
AcDbEntity
  8
寸法
 62
     0
 48
50.0
370
    -2
100
AcDbLine
 10
9039.913966381808
 20
1340.760787611756
 30
0.0
 11
9302.127213844707
 21
1340.760787611756
 31
0.0
  0
LINE
  5
1EDB5
330
1EDB2
100
AcDbEntity
  8
寸法
 62
     0
 48
50.0
370
    -2
100
AcDbLine
 10
9059.363203276298
 20
1140.760787611754
 30
0.0
 11
9302.127213844707
 21
1140.760787611754
 31
0.0
  0
LINE
  5
1EDB6
330
1EDB2
100
AcDbEntity
  8
寸法
 62
     0
 48
50.0
370
    -2
100
AcDbLine
 10
9242.127213844709
 20
1340.760787611756
 30
0.0
 11
9242.127213844709
 21
1140.760787611754
 31
0.0
  0
INSERT
  5
1EDB7
330
1EDB2
100
AcDbEntity
  8
寸法
 62
     0
 48
50.0
370
    -2
100
AcDbBlockReference
  2
_DOTSMALL
 10
9242.127213844709
 20
1340.760787611756
 30
0.0
 41
100.0
 42
100.0
 43
100.0
 50
90.0
  0
INSERT
  5
1EDB8
330
1EDB2
100
AcDbEntity
  8
寸法
 62
     0
 48
50.0
370
    -2
100
AcDbBlockReference
  2
_DOTSMALL
 10
9242.127213844709
 20
1140.760787611754
 30
0.0
 41
100.0
 42
100.0
 43
100.0
 50
270.0
  0
MTEXT
  5
1EDB9
330
1EDB2
100
AcDbEntity
  8
寸法
 62
     7
 48
50.0
100
AcDbMText
 10
9142.127213844707
 20
1240.760787611757
 30
0.0
 40
120.0
 41
0.0
 71
     5
 72
     1
  1
\A1;b
  7
STYLE1
 11
0.0000000000000001
 21
1.0
 31
0.0
 73
     1
 44
1.0
1001
ACAD
1000
MTEXTBEGIN
1070
    73
1070
     1
1070
    44
1040
1.0
1070
    74
1070
     0
1000
MTEXTEND
  0
POINT
  5
1EDBA
330
1EDB2
100
AcDbEntity
  8
DEFPOINTS
 62
     0
 48
50.0
100
AcDbPoint
 10
9019.913966381807
 20
1340.760787611756
 30
0.0
  0
POINT
  5
1EDBB
330
1EDB2
100
AcDbEntity
  8
DEFPOINTS
 62
     0
 48
50.0
100
AcDbPoint
 10
9039.363203276298
 20
1140.760787611754
 30
0.0
  0
POINT
  5
1EDBC
330
1EDB2
100
AcDbEntity
  8
DEFPOINTS
 62
     0
 48
50.0
100
AcDbPoint
 10
9242.127213844709
 20
1140.760787611754
 30
0.0
  0
ENDBLK
  5
1EDBD
330
1EDB2
100
AcDbEntity
  8
0
 48
50.0
100
AcDbBlockEnd
  0
BLOCK
  5
1EDBF
330
1EDBE
100
AcDbEntity
  8
0
 48
50.0
100
AcDbBlockBegin
  2
*D38
 70
     1
 10
0.0
 20
0.0
 30
0.0
  3
*D38
  1

  0
LINE
  5
1EDC0
330
1EDBE
100
AcDbEntity
  8
寸法
 62
     0
 48
50.0
370
    -2
100
AcDbLine
 10
10539.80689989894
 20
1440.760787611754
 30
0.0
 11
10782.44245361606
 21
1440.760787611754
 31
0.0
  0
LINE
  5
1EDC1
330
1EDBE
100
AcDbEntity
  8
寸法
 62
     0
 48
50.0
370
    -2
100
AcDbLine
 10
10569.69580798928
 20
1140.760787611754
 30
0.0
 11
10782.44245361606
 21
1140.760787611754
 31
0.0
  0
LINE
  5
1EDC2
330
1EDBE
100
AcDbEntity
  8
寸法
 62
     0
 48
50.0
370
    -2
100
AcDbLine
 10
10722.44245361606
 20
1440.760787611754
 30
0.0
 11
10722.44245361606
 21
1140.760787611754
 31
0.0
  0
INSERT
  5
1EDC3
330
1EDBE
100
AcDbEntity
  8
寸法
 62
     0
 48
50.0
370
    -2
100
AcDbBlockReference
  2
_DOTSMALL
 10
10722.44245361606
 20
1440.760787611754
 30
0.0
 41
100.0
 42
100.0
 43
100.0
 50
90.0
  0
INSERT
  5
1EDC4
330
1EDBE
100
AcDbEntity
  8
寸法
 62
     0
 48
50.0
370
    -2
100
AcDbBlockReference
  2
_DOTSMALL
 10
10722.44245361606
 20
1140.760787611754
 30
0.0
 41
100.0
 42
100.0
 43
100.0
 50
270.0
  0
MTEXT
  5
1EDC5
330
1EDBE
100
AcDbEntity
  8
寸法
 62
     7
 48
50.0
100
AcDbMText
 10
10622.44245361606
 20
1290.760787611756
 30
0.0
 40
120.0
 41
0.0
 71
     5
 72
     1
  1
\A1;c
  7
STYLE1
 11
0.0000000000000001
 21
1.0
 31
0.0
 73
     1
 44
1.0
1001
ACAD
1000
MTEXTBEGIN
1070
    73
1070
     1
1070
    44
1040
1.0
1070
    74
1070
     0
1000
MTEXTEND
  0
POINT
  5
1EDC6
330
1EDBE
100
AcDbEntity
  8
DEFPOINTS
 62
     0
 48
50.0
100
AcDbPoint
 10
10519.80689989894
 20
1440.760787611754
 30
0.0
  0
POINT
  5
1EDC7
330
1EDBE
100
AcDbEntity
  8
DEFPOINTS
 62
     0
 48
50.0
100
AcDbPoint
 10
10549.69580798928
 20
1140.760787611754
 30
0.0
  0
POINT
  5
1EDC8
330
1EDBE
100
AcDbEntity
  8
DEFPOINTS
 62
     0
 48
50.0
100
AcDbPoint
 10
10722.44245361606
 20
1140.760787611754
 30
0.0
  0
ENDBLK
  5
1EDC9
330
1EDBE
100
AcDbEntity
  8
0
 48
50.0
100
AcDbBlockEnd
  0
BLOCK
  5
1EDCB
330
1EDCA
100
AcDbEntity
  8
0
 48
50.0
100
AcDbBlockBegin
  2
*D39
 70
     1
 10
0.0
 20
0.0
 30
0.0
  3
*D39
  1

  0
LINE
  5
1EDCC
330
1EDCA
100
AcDbEntity
  8
寸法
 62
     0
 48
50.0
370
    -2
100
AcDbLine
 10
7426.3077022632
 20
1340.760787611755
 30
0.0
 11
7714.378706623595
 21
1340.760787611755
 31
0.0
  0
LINE
  5
1EDCD
330
1EDCA
100
AcDbEntity
  8
寸法
 62
     0
 48
50.0
370
    -2
100
AcDbLine
 10
7426.307702263203
 20
1140.760787611754
 30
0.0
 11
7714.378706623595
 21
1140.760787611754
 31
0.0
  0
LINE
  5
1EDCE
330
1EDCA
100
AcDbEntity
  8
寸法
 62
     0
 48
50.0
370
    -2
100
AcDbLine
 10
7654.378706623595
 20
1340.760787611755
 30
0.0
 11
7654.378706623595
 21
1140.760787611754
 31
0.0
  0
INSERT
  5
1EDCF
330
1EDCA
100
AcDbEntity
  8
寸法
 62
     0
 48
50.0
370
    -2
100
AcDbBlockReference
  2
_DOTSMALL
 10
7654.378706623595
 20
1340.760787611755
 30
0.0
 41
100.0
 42
100.0
 43
100.0
 50
90.0
  0
INSERT
  5
1EDD0
330
1EDCA
100
AcDbEntity
  8
寸法
 62
     0
 48
50.0
370
    -2
100
AcDbBlockReference
  2
_DOTSMALL
 10
7654.378706623595
 20
1140.760787611754
 30
0.0
 41
100.0
 42
100.0
 43
100.0
 50
270.0
  0
MTEXT
  5
1EDD1
330
1EDCA
100
AcDbEntity
  8
寸法
 62
     7
 48
50.0
100
AcDbMText
 10
7554.378706623595
 20
1240.760787611756
 30
0.0
 40
120.0
 41
0.0
 71
     5
 72
     1
  1
\A1;a
  7
STYLE1
 11
0.0000000000000001
 21
1.0
 31
0.0
 73
     1
 44
1.0
1001
ACAD
1000
MTEXTBEGIN
1070
    73
1070
     1
1070
    44
1040
1.0
1070
    74
1070
     0
1000
MTEXTEND
  0
POINT
  5
1EDD2
330
1EDCA
100
AcDbEntity
  8
DEFPOINTS
 62
     0
 48
50.0
100
AcDbPoint
 10
7406.3077022632
 20
1340.760787611755
 30
0.0
  0
POINT
  5
1EDD3
330
1EDCA
100
AcDbEntity
  8
DEFPOINTS
 62
     0
 48
50.0
100
AcDbPoint
 10
7406.307702263203
 20
1140.760787611754
 30
0.0
  0
POINT
  5
1EDD4
330
1EDCA
100
AcDbEntity
  8
DEFPOINTS
 62
     0
 48
50.0
100
AcDbPoint
 10
7654.378706623595
 20
1140.760787611754
 30
0.0
  0
ENDBLK
  5
1EDD5
330
1EDCA
100
AcDbEntity
  8
0
 48
50.0
100
AcDbBlockEnd
  0
BLOCK
  5
1F0A0
330
1F096
100
AcDbEntity
  8
0
 48
50.0
100
AcDbBlockBegin
  2
*D41
 70
     1
 10
0.0
 20
0.0
 30
0.0
  3
*D41
  1

  0
LINE
  5
1F0C6
330
1F096
100
AcDbEntity
  8
寸法
 62
     0
 48
50.0
370
    -2
100
AcDbLine
 10
7426.3077022632
 20
1340.760787611755
 30
0.0
 11
7714.378706623595
 21
1340.760787611755
 31
0.0
  0
LINE
  5
1F0C7
330
1F096
100
AcDbEntity
  8
寸法
 62
     0
 48
50.0
370
    -2
100
AcDbLine
 10
7426.307702263203
 20
1140.760787611754
 30
0.0
 11
7714.378706623595
 21
1140.760787611754
 31
0.0
  0
LINE
  5
1F0C8
330
1F096
100
AcDbEntity
  8
寸法
 62
     0
 48
50.0
370
    -2
100
AcDbLine
 10
7654.378706623595
 20
1340.760787611755
 30
0.0
 11
7654.378706623595
 21
1140.760787611754
 31
0.0
  0
INSERT
  5
1F0C9
330
1F096
100
AcDbEntity
  8
寸法
 62
     0
 48
50.0
370
    -2
100
AcDbBlockReference
  2
_DOTSMALL
 10
7654.378706623595
 20
1340.760787611755
 30
0.0
 41
100.0
 42
100.0
 43
100.0
 50
90.0
  0
INSERT
  5
1F0CA
330
1F096
100
AcDbEntity
  8
寸法
 62
     0
 48
50.0
370
    -2
100
AcDbBlockReference
  2
_DOTSMALL
 10
7654.378706623595
 20
1140.760787611754
 30
0.0
 41
100.0
 42
100.0
 43
100.0
 50
270.0
  0
MTEXT
  5
1F0CB
330
1F096
100
AcDbEntity
  8
寸法
 62
     7
 48
50.0
100
AcDbMText
 10
7554.378706623595
 20
1240.760787611756
 30
0.0
 40
120.0
 41
0.0
 71
     5
 72
     1
  1
\A1;a
  7
STYLE1
 11
0.0000000000000001
 21
1.0
 31
0.0
 73
     1
 44
1.0
1001
ACAD
1000
MTEXTBEGIN
1070
    73
1070
     1
1070
    44
1040
1.0
1070
    74
1070
     0
1000
MTEXTEND
  0
POINT
  5
1F0CC
330
1F096
100
AcDbEntity
  8
DEFPOINTS
 62
     0
 48
50.0
100
AcDbPoint
 10
7406.3077022632
 20
1340.760787611755
 30
0.0
  0
POINT
  5
1F0CD
330
1F096
100
AcDbEntity
  8
DEFPOINTS
 62
     0
 48
50.0
100
AcDbPoint
 10
7406.307702263203
 20
1140.760787611754
 30
0.0
  0
POINT
  5
1F0CE
330
1F096
100
AcDbEntity
  8
DEFPOINTS
 62
     0
 48
50.0
100
AcDbPoint
 10
7654.378706623595
 20
1140.760787611754
 30
0.0
  0
ENDBLK
  5
1F0A1
330
1F096
100
AcDbEntity
  8
0
 48
50.0
100
AcDbBlockEnd
  0
BLOCK
  5
1F0AC
330
1F0A2
100
AcDbEntity
  8
0
 48
50.0
100
AcDbBlockBegin
  2
*D42
 70
     1
 10
0.0
 20
0.0
 30
0.0
  3
*D42
  1

  0
LINE
  5
1F0CF
330
1F0A2
100
AcDbEntity
  8
寸法
 62
     0
 48
50.0
370
    -2
100
AcDbLine
 10
10539.80689989894
 20
1440.760787611754
 30
0.0
 11
10782.44245361606
 21
1440.760787611754
 31
0.0
  0
LINE
  5
1F0D0
330
1F0A2
100
AcDbEntity
  8
寸法
 62
     0
 48
50.0
370
    -2
100
AcDbLine
 10
10569.69580798928
 20
1140.760787611754
 30
0.0
 11
10782.44245361606
 21
1140.760787611754
 31
0.0
  0
LINE
  5
1F0D1
330
1F0A2
100
AcDbEntity
  8
寸法
 62
     0
 48
50.0
370
    -2
100
AcDbLine
 10
10722.44245361606
 20
1440.760787611754
 30
0.0
 11
10722.44245361606
 21
1140.760787611754
 31
0.0
  0
INSERT
  5
1F0D2
330
1F0A2
100
AcDbEntity
  8
寸法
 62
     0
 48
50.0
370
    -2
100
AcDbBlockReference
  2
_DOTSMALL
 10
10722.44245361606
 20
1440.760787611754
 30
0.0
 41
100.0
 42
100.0
 43
100.0
 50
90.0
  0
INSERT
  5
1F0D3
330
1F0A2
100
AcDbEntity
  8
寸法
 62
     0
 48
50.0
370
    -2
100
AcDbBlockReference
  2
_DOTSMALL
 10
10722.44245361606
 20
1140.760787611754
 30
0.0
 41
100.0
 42
100.0
 43
100.0
 50
270.0
  0
MTEXT
  5
1F0D4
330
1F0A2
100
AcDbEntity
  8
寸法
 62
     7
 48
50.0
100
AcDbMText
 10
10622.44245361606
 20
1290.760787611756
 30
0.0
 40
120.0
 41
0.0
 71
     5
 72
     1
  1
\A1;c
  7
STYLE1
 11
0.0000000000000001
 21
1.0
 31
0.0
 73
     1
 44
1.0
1001
ACAD
1000
MTEXTBEGIN
1070
    73
1070
     1
1070
    44
1040
1.0
1070
    74
1070
     0
1000
MTEXTEND
  0
POINT
  5
1F0D5
330
1F0A2
100
AcDbEntity
  8
DEFPOINTS
 62
     0
 48
50.0
100
AcDbPoint
 10
10519.80689989894
 20
1440.760787611754
 30
0.0
  0
POINT
  5
1F0D6
330
1F0A2
100
AcDbEntity
  8
DEFPOINTS
 62
     0
 48
50.0
100
AcDbPoint
 10
10549.69580798928
 20
1140.760787611754
 30
0.0
  0
POINT
  5
1F0D7
330
1F0A2
100
AcDbEntity
  8
DEFPOINTS
 62
     0
 48
50.0
100
AcDbPoint
 10
10722.44245361606
 20
1140.760787611754
 30
0.0
  0
ENDBLK
  5
1F0AD
330
1F0A2
100
AcDbEntity
  8
0
 48
50.0
100
AcDbBlockEnd
  0
BLOCK
  5
1F0B8
330
1F0AE
100
AcDbEntity
  8
0
 48
50.0
100
AcDbBlockBegin
  2
*D43
 70
     1
 10
0.0
 20
0.0
 30
0.0
  3
*D43
  1

  0
LINE
  5
1F0D8
330
1F0AE
100
AcDbEntity
  8
寸法
 62
     0
 48
50.0
370
    -2
100
AcDbLine
 10
9039.913966381808
 20
1340.760787611756
 30
0.0
 11
9302.127213844707
 21
1340.760787611756
 31
0.0
  0
LINE
  5
1F0D9
330
1F0AE
100
AcDbEntity
  8
寸法
 62
     0
 48
50.0
370
    -2
100
AcDbLine
 10
9059.363203276298
 20
1140.760787611754
 30
0.0
 11
9302.127213844707
 21
1140.760787611754
 31
0.0
  0
LINE
  5
1F0DA
330
1F0AE
100
AcDbEntity
  8
寸法
 62
     0
 48
50.0
370
    -2
100
AcDbLine
 10
9242.127213844709
 20
1340.760787611756
 30
0.0
 11
9242.127213844709
 21
1140.760787611754
 31
0.0
  0
INSERT
  5
1F0DB
330
1F0AE
100
AcDbEntity
  8
寸法
 62
     0
 48
50.0
370
    -2
100
AcDbBlockReference
  2
_DOTSMALL
 10
9242.127213844709
 20
1340.760787611756
 30
0.0
 41
100.0
 42
100.0
 43
100.0
 50
90.0
  0
INSERT
  5
1F0DC
330
1F0AE
100
AcDbEntity
  8
寸法
 62
     0
 48
50.0
370
    -2
100
AcDbBlockReference
  2
_DOTSMALL
 10
9242.127213844709
 20
1140.760787611754
 30
0.0
 41
100.0
 42
100.0
 43
100.0
 50
270.0
  0
MTEXT
  5
1F0DD
330
1F0AE
100
AcDbEntity
  8
寸法
 62
     7
 48
50.0
100
AcDbMText
 10
9142.127213844707
 20
1240.760787611757
 30
0.0
 40
120.0
 41
0.0
 71
     5
 72
     1
  1
\A1;b
  7
STYLE1
 11
0.0000000000000001
 21
1.0
 31
0.0
 73
     1
 44
1.0
1001
ACAD
1000
MTEXTBEGIN
1070
    73
1070
     1
1070
    44
1040
1.0
1070
    74
1070
     0
1000
MTEXTEND
  0
POINT
  5
1F0DE
330
1F0AE
100
AcDbEntity
  8
DEFPOINTS
 62
     0
 48
50.0
100
AcDbPoint
 10
9019.913966381807
 20
1340.760787611756
 30
0.0
  0
POINT
  5
1F0DF
330
1F0AE
100
AcDbEntity
  8
DEFPOINTS
 62
     0
 48
50.0
100
AcDbPoint
 10
9039.363203276298
 20
1140.760787611754
 30
0.0
  0
POINT
  5
1F0E0
330
1F0AE
100
AcDbEntity
  8
DEFPOINTS
 62
     0
 48
50.0
100
AcDbPoint
 10
9242.127213844709
 20
1140.760787611754
 30
0.0
  0
ENDBLK
  5
1F0B9
330
1F0AE
100
AcDbEntity
  8
0
 48
50.0
100
AcDbBlockEnd
  0
BLOCK
  5
1F0C4
330
1F0BA
100
AcDbEntity
  8
0
 48
50.0
100
AcDbBlockBegin
  2
*D44
 70
     1
 10
0.0
 20
0.0
 30
0.0
  3
*D44
  1

  0
LINE
  5
1F0E1
330
1F0BA
100
AcDbEntity
  8
寸法
 62
     0
 48
50.0
370
    -2
100
AcDbLine
 10
6986.307702263198
 20
1140.760787611754
 30
0.0
 11
6852.977955187668
 21
1140.760787611754
 31
0.0
  0
LINE
  5
1F0E2
330
1F0BA
100
AcDbEntity
  8
寸法
 62
     0
 48
50.0
370
    -2
100
AcDbLine
 10
7136.307702263199
 20
740.7607876117545
 30
0.0
 11
6852.977955187668
 21
740.7607876117546
 31
0.0
  0
LINE
  5
1F0E3
330
1F0BA
100
AcDbEntity
  8
寸法
 62
     0
 48
50.0
370
    -2
100
AcDbLine
 10
6912.977955187669
 20
1140.760787611754
 30
0.0
 11
6912.977955187669
 21
740.7607876117545
 31
0.0
  0
INSERT
  5
1F0E4
330
1F0BA
100
AcDbEntity
  8
寸法
 62
     0
 48
50.0
370
    -2
100
AcDbBlockReference
  2
_DOTSMALL
 10
6912.977955187669
 20
1140.760787611754
 30
0.0
 41
100.0
 42
100.0
 43
100.0
 50
90.0
  0
INSERT
  5
1F0E5
330
1F0BA
100
AcDbEntity
  8
寸法
 62
     0
 48
50.0
370
    -2
100
AcDbBlockReference
  2
_DOTSMALL
 10
6912.977955187669
 20
740.7607876117545
 30
0.0
 41
100.0
 42
100.0
 43
100.0
 50
270.0
  0
MTEXT
  5
1F0E6
330
1F0BA
100
AcDbEntity
  8
寸法
 62
     7
 48
50.0
100
AcDbMText
 10
6812.966144164048
 20
928.3854207276599
 30
0.0
 40
120.0
 41
0.0
 71
     5
 72
     1
  1
\A1;200
  7
STYLE1
 11
0.0000000000000001
 21
1.0
 31
0.0
 73
     1
 44
1.0
1001
ACAD
1000
MTEXTBEGIN
1070
    73
1070
     1
1070
    44
1040
1.0
1070
    74
1070
     0
1000
MTEXTEND
  0
POINT
  5
1F0E7
330
1F0BA
100
AcDbEntity
  8
DEFPOINTS
 62
     0
 48
50.0
100
AcDbPoint
 10
7006.307702263199
 20
1140.760787611754
 30
0.0
  0
POINT
  5
1F0E8
330
1F0BA
100
AcDbEntity
  8
DEFPOINTS
 62
     0
 48
50.0
100
AcDbPoint
 10
7156.307702263198
 20
740.7607876117545
 30
0.0
  0
POINT
  5
1F0E9
330
1F0BA
100
AcDbEntity
  8
DEFPOINTS
 62
     0
 48
50.0
100
AcDbPoint
 10
6912.977955187669
 20
740.7607876117545
 30
0.0
  0
ENDBLK
  5
1F0C5
330
1F0BA
100
AcDbEntity
  8
0
 48
50.0
100
AcDbBlockEnd
  0
ENDSEC
  0
SECTION
  2
ENTITIES
  0
LINE
  5
10B57
330
747D
100
AcDbEntity
  8
補助
  6
PHANTOM
 62
   230
 48
50.0
100
AcDbLine
 10
139.9999999999995
 20
11409.6
 30
0.0
 11
16307.2
 21
11409.6
 31
0.0
  0
LINE
  5
10B59
330
747D
100
AcDbEntity
  8
仕様書枠
  6
Continuous
 48
50.0
100
AcDbLine
 10
13107.2
 20
1200.0
 30
0.0
 11
13107.2
 21
-0.0000000000000729
 31
0.0
  0
LINE
  5
10B5C
330
747D
100
AcDbEntity
  8
仕様書枠
 48
50.0
100
AcDbLine
 10
16307.2
 20
1200.0
 30
0.0
 11
16307.2
 21
-0.0000000000000909
 31
0.0
  0
LINE
  5
10B5D
330
747D
100
AcDbEntity
  8
仕様書枠
 48
50.0
100
AcDbLine
 10
140.0
 20
0.0
 30
0.0
 11
16307.2
 21
-0.0000000000000909
 31
0.0
  0
LINE
  5
10B5E
330
747D
100
AcDbEntity
  8
補助
  6
PHANTOM
 62
   230
 48
50.0
100
AcDbLine
 10
16307.2
 20
11409.6
 30
0.0
 11
16307.2
 21
1200.0
 31
0.0
  0
LINE
  5
10B6C
330
747D
100
AcDbEntity
  8
仕様書枠
 48
50.0
100
AcDbLine
 10
13107.2
 20
1200.0
 30
0.0
 11
16307.2
 21
1200.0
 31
0.0
  0
LINE
  5
10B6D
330
747D
100
AcDbEntity
  8
補助
  6
PHANTOM
 62
   230
 48
50.0
100
AcDbLine
 10
13107.2
 20
11409.6
 30
0.0
 11
13107.2
 21
4800.0
 31
0.0
  0
LINE
  5
10B6F
330
747D
100
AcDbEntity
  8
補助
  6
PHANTOM
 62
   230
 48
50.0
100
AcDbLine
 10
13107.2
 20
4800.0
 30
0.0
 11
16307.2
 21
4800.0
 31
0.0
  0
LINE
  5
10B72
330
747D
100
AcDbEntity
  8
文字
 62
     7
 48
50.0
100
AcDbLine
 10
13187.2
 20
400.0
 30
0.0
 11
16227.2
 21
400.0
 31
0.0
  0
TEXT
  5
10B73
330
747D
100
AcDbEntity
  8
文字
 62
     7
 48
50.0
100
AcDbText
 10
13162.9790565769
 20
895.0906074299405
 30
0.0
 40
200.0
  1
基 礎 図
  7
STYLE2
100
AcDbText
  0
TEXT
  5
10B74
330
747D
100
AcDbEntity
  8
文字
 62
     7
 48
50.0
100
AcDbText
 10
13201.43669998441
 20
477.2740661031255
 30
0.0
 40
160.0
  1
機種名
  7
STYLE2
100
AcDbText
  0
TEXT
  5
10B79
330
747D
100
AcDbEntity
  8
文字
 62
     7
 48
50.0
100
AcDbText
 10
14524.131837222
 20
1031.557706291228
 30
0.0
 40
100.0
  1
NO.11      <縮尺> S=1/40
  7
STYLE2
100
AcDbText
  0
LINE
  5
10B7B
330
747D
100
AcDbEntity
  8
仕様書枠
 48
50.0
100
AcDbLine
 10
13107.2
 20
800.0
 30
0.0
 11
14251.2
 21
800.0
 31
0.0
  0
LINE
  5
10B88
330
747D
100
AcDbEntity
  8
仕様書枠
  6
Continuous
 48
50.0
100
AcDbLine
 10
14251.2
 20
1200.0
 30
0.0
 11
14251.2
 21
800.0
 31
0.0
  0
TEXT
  5
14DEF
330
747D
100
AcDbEntity
  8
文字
 62
     7
 48
50.0
100
AcDbText
 10
14641.2525855784
 20
871.1744590657925
 30
0.0
 40
100.0
  1
～一般型・多雪地型～
  7
STYLE2
100
AcDbText
  0
TEXT
  5
15A76
330
747D
100
AcDbEntity
  8
文字
 62
     7
 48
50.0
100
AcDbText
 10
14364.31083398985
 20
488.1241585855691
 30
0.0
 40
160.0
  1
NXP-32SD・HD
  7
STYLE2
100
AcDbText
  0
TEXT
  5
1C9B2
330
747D
100
AcDbEntity
  8
部品1
 48
50.0
100
AcDbText
 10
9487.367337153674
 20
6033.812405351646
 30
0.0
 40
80.0
  1
(a=50,b=60,c=80)
  7
STYLE1
100
AcDbText
  0
TEXT
  5
1C9B3
330
747D
100
AcDbEntity
  8
部品1
 48
50.0
100
AcDbText
 10
9373.667096427723
 20
6167.36893143759
 30
0.0
 40
80.0
  1
※a,b,cは屋根の出幅です。
  7
STYLE1
100
AcDbText
  0
MTEXT
  5
1C9B4
102
{ACAD_REACTORS
330
1C9B5
102
}
330
747D
100
AcDbEntity
  8
部品1
 62
     7
 48
50.0
100
AcDbMText
 10
10239.83718660449
 20
6379.036831637056
 30
0.0
 40
120.0
 41
0.0
 71
     6
 72
     1
  1
\A1;屋根の外寸
  7
STYLE1
 73
     1
 44
1.0
1001
ACAD
1000
MTEXTBEGIN
1070
    73
1070
     1
1070
    44
1040
1.0
1070
    74
1070
     0
1000
MTEXTEND
  0
LEADER
  5
1C9B5
330
747D
100
AcDbEntity
  8
寸法
 48
50.0
100
AcDbLeader
  3
INABA_S50G
 71
     0
 73
     0
 74
     0
 75
     1
 40
120.0
 41
672.0
 76
     3
 10
9169.6
 20
6674.054223596847
 30
0.0
 10
9417.837186604492
 20
6294.036831637056
 30
0.0
 10
9542.837186604492
 20
6294.036831637056
 30
0.0
340
1C9B4
1001
ACAD
1000
DSTYLE
1002
{
1070
   341
1005
1C530
1070
    40
1040
1.0
1070
   343
1005
1C530
1070
   344
1005
1C530
1002
}
  0
DIMENSION
  5
1C9B8
330
747D
100
AcDbEntity
  8
寸法
 48
50.0
100
AcDbDimension
  2
*D3
 10
9119.599999999998
 20
7684.41258767162
 30
0.0
 11
8223.599999999999
 21
7784.453400236424
 31
0.0
 70
    32
 71
     5
 42
1791.999999999999
  3
INABA_S40G
100
AcDbAlignedDimension
 13
7327.6
 23
7292.0
 33
0.0
 14
9119.599999999998
 24
7292.0
 34
0.0
100
AcDbRotatedDimension
1001
ACAD
1000
DSTYLE
1002
{
1070
   174
1070
     0
1070
   272
1070
     1
1070
   288
1070
     0
1070
   341
1005
0
1002
}
  0
LINE
  5
1C9BB
330
747D
100
AcDbEntity
  8
想像線
 48
10.0
100
AcDbLine
 10
9169.6
 20
5439.999999999996
 30
0.0
 11
7277.600000000001
 21
5440.0
 31
0.0
  0
LINE
  5
1C9BC
330
747D
100
AcDbEntity
  8
想像線
 48
10.0
100
AcDbLine
 10
7277.600000000001
 20
7371.999999999998
 30
0.0
 11
9169.599999999997
 21
7372.000000000003
 31
0.0
  0
DIMENSION
  5
1CAB6
330
747D
100
AcDbEntity
  8
寸法
 48
50.0
100
AcDbDimension
  2
*D4
 10
6886.88811655075
 20
5440.0
 30
0.0
 11
6886.888116550749
 21
5470.000000000002
 31
0.0
 70
   160
  1
b
 71
     5
 42
60.0
  3
INABA_S40G
100
AcDbAlignedDimension
 13
7327.600000000001
 23
5500.0
 33
0.0
 14
7277.600000000001
 24
5440.0
 34
0.0
 50
90.0
100
AcDbRotatedDimension
1001
ACAD
1000
DSTYLE
1002
{
1070
   174
1070
     0
1070
   272
1070
     1
1070
   288
1070
     0
1070
   341
1005
0
1002
}
  0
DIMENSION
  5
1CAB7
330
747D
100
AcDbEntity
  8
寸法
 48
50.0
100
AcDbDimension
  2
*D5
 10
6886.88811655075
 20
5500.0
 30
0.0
 11
6786.847303985945
 21
6396.000000000002
 31
0.0
 70
    32
 71
     5
 42
1792.0
  3
INABA_S40G
100
AcDbAlignedDimension
 13
7327.6
 23
7292.0
 33
0.0
 14
7327.600000000001
 24
5500.0
 34
0.0
 50
90.0
100
AcDbRotatedDimension
1001
ACAD
1000
DSTYLE
1002
{
1070
   174
1070
     0
1070
   272
1070
     1
1070
   288
1070
     0
1070
   341
1005
0
1002
}
  0
DIMENSION
  5
1CAB8
330
747D
100
AcDbEntity
  8
寸法
 48
50.0
100
AcDbDimension
  2
*D6
 10
6886.88811655075
 20
7292.0
 30
0.0
 11
6886.888116550749
 21
7332.000000000002
 31
0.0
 70
   160
  1
c
 71
     5
 42
80.0
  3
INABA_S40G
100
AcDbAlignedDimension
 13
7277.599999999999
 23
7372.0
 33
0.0
 14
7327.6
 24
7292.0
 34
0.0
 50
90.0
100
AcDbRotatedDimension
1001
ACAD
1000
DSTYLE
1002
{
1070
   174
1070
     0
1070
   272
1070
     1
1070
   288
1070
     0
1070
   341
1005
0
1002
}
  0
LINE
  5
1CAB9
330
747D
100
AcDbEntity
  8
想像線
 48
10.0
100
AcDbLine
 10
7277.600000000001
 20
5440.0
 30
0.0
 11
7277.600000000001
 21
7371.999999999998
 31
0.0
  0
LINE
  5
1CABA
330
747D
100
AcDbEntity
  8
部品1
 48
50.0
100
AcDbLine
 10
7717.6
 20
5500.000000000003
 30
0.0
 11
7327.600000000001
 21
5500.0
 31
0.0
  0
LINE
  5
1CABB
330
747D
100
AcDbEntity
  8
部品1
 48
50.0
100
AcDbLine
 10
7717.6
 20
5500.0
 30
0.0
 11
7327.600000000001
 21
5500.0
 31
0.0
  0
LINE
  5
1CABC
330
747D
100
AcDbEntity
  8
部品1
 48
50.0
100
AcDbLine
 10
7717.6
 20
5690.0
 30
0.0
 11
7327.600000000001
 21
5690.0
 31
0.0
  0
LINE
  5
1CAC0
330
747D
100
AcDbEntity
  8
部品1
 48
50.0
100
AcDbLine
 10
7327.600000000001
 20
5690.0
 30
0.0
 11
7327.600000000001
 21
5500.0
 31
0.0
  0
LINE
  5
1CAC2
330
747D
100
AcDbEntity
  8
部品1
 48
50.0
100
AcDbLine
 10
7717.6
 20
5690.0
 30
0.0
 11
7717.6
 21
5500.0
 31
0.0
  0
LINE
  5
1CAC3
330
747D
100
AcDbEntity
  8
部品1
 48
50.0
100
AcDbLine
 10
8318.600000000001
 20
5500.0
 30
0.0
 11
8128.6
 21
5500.0
 31
0.0
  0
LINE
  5
1CAC4
330
747D
100
AcDbEntity
  8
部品1
 48
50.0
100
AcDbLine
 10
8318.600000000001
 20
5690.0
 30
0.0
 11
8128.6
 21
5690.0
 31
0.0
  0
LINE
  5
1CAC5
330
747D
100
AcDbEntity
  8
部品1
 48
50.0
100
AcDbLine
 10
8128.6
 20
5500.000000000003
 30
0.0
 11
8128.6
 21
5690.000000000003
 31
0.0
  0
LINE
  5
1CAC6
330
747D
100
AcDbEntity
  8
部品1
 48
50.0
100
AcDbLine
 10
8318.600000000001
 20
5500.000000000003
 30
0.0
 11
8318.600000000001
 21
5690.000000000003
 31
0.0
  0
LINE
  5
1CAC7
330
747D
100
AcDbEntity
  8
部品1
 48
50.0
100
AcDbLine
 10
7717.6
 20
7292.0
 30
0.0
 11
7327.6
 21
7292.0
 31
0.0
  0
LINE
  5
1CAC8
330
747D
100
AcDbEntity
  8
部品1
 48
50.0
100
AcDbLine
 10
7717.6
 20
7291.999999999996
 30
0.0
 11
7327.6
 21
7292.0
 31
0.0
  0
LINE
  5
1CAC9
330
747D
100
AcDbEntity
  8
部品1
 48
50.0
100
AcDbLine
 10
7717.6
 20
7102.0
 30
0.0
 11
7327.6
 21
7102.0
 31
0.0
  0
DIMENSION
  5
1CACA
330
747D
100
AcDbEntity
  8
寸法
 48
50.0
100
AcDbDimension
  2
*D7
 10
7327.6
 20
7684.412587671623
 30
0.0
 11
7302.599999999999
 21
7684.412587671623
 31
0.0
 70
   160
  1
a
 71
     5
 42
50.0
  3
INABA_S40G
100
AcDbAlignedDimension
 13
7277.599999999999
 23
7372.0
 33
0.0
 14
7327.6
 24
7292.0
 34
0.0
100
AcDbRotatedDimension
1001
ACAD
1000
DSTYLE
1002
{
1070
   174
1070
     0
1070
   272
1070
     1
1070
   288
1070
     0
1070
   341
1005
0
1002
}
  0
LINE
  5
1CACE
330
747D
100
AcDbEntity
  8
部品1
 48
50.0
100
AcDbLine
 10
7327.6
 20
7102.0
 30
0.0
 11
7327.6
 21
7292.0
 31
0.0
  0
LINE
  5
1CAD0
330
747D
100
AcDbEntity
  8
部品1
 48
50.0
100
AcDbLine
 10
7717.6
 20
7102.0
 30
0.0
 11
7717.6
 21
7292.0
 31
0.0
  0
LINE
  5
1CAD1
330
747D
100
AcDbEntity
  8
部品1
 48
50.0
100
AcDbLine
 10
8318.599999999999
 20
7292.0
 30
0.0
 11
8128.6
 21
7292.0
 31
0.0
  0
LINE
  5
1CAD2
330
747D
100
AcDbEntity
  8
部品1
 48
50.0
100
AcDbLine
 10
8318.599999999999
 20
7102.0
 30
0.0
 11
8128.6
 21
7102.0
 31
0.0
  0
LINE
  5
1CAD3
330
747D
100
AcDbEntity
  8
部品1
 48
50.0
100
AcDbLine
 10
8128.6
 20
7102.000000000003
 30
0.0
 11
8128.6
 21
7292.000000000005
 31
0.0
  0
LINE
  5
1CAD4
330
747D
100
AcDbEntity
  8
部品1
 48
50.0
100
AcDbLine
 10
8318.599999999999
 20
7102.000000000003
 30
0.0
 11
8318.599999999999
 21
7292.000000000005
 31
0.0
  0
LINE
  5
1CCF0
330
747D
100
AcDbEntity
  8
想像線
 48
10.0
100
AcDbLine
 10
9169.599999999997
 20
7372.000000000003
 30
0.0
 11
9169.600000000004
 21
5440.0
 31
0.0
  0
LINE
  5
1CCF3
330
747D
100
AcDbEntity
  8
部品1
 48
50.0
100
AcDbLine
 10
8729.600000000001
 20
5690.0
 30
0.0
 11
9119.600000000001
 21
5690.0
 31
0.0
  0
LINE
  5
1CCF4
330
747D
100
AcDbEntity
  8
部品1
 48
50.0
100
AcDbLine
 10
8729.600000000001
 20
5500.0
 30
0.0
 11
9119.600000000001
 21
5500.0
 31
0.0
  0
LINE
  5
1CCF5
330
747D
100
AcDbEntity
  8
部品1
 48
50.0
100
AcDbLine
 10
8729.600000000001
 20
5500.000000000003
 30
0.0
 11
9119.600000000001
 21
5500.0
 31
0.0
  0
LINE
  5
1CCF6
330
747D
100
AcDbEntity
  8
部品1
 48
50.0
100
AcDbLine
 10
8729.600000000001
 20
5690.0
 30
0.0
 11
8729.600000000001
 21
5500.0
 31
0.0
  0
LINE
  5
1CCFB
330
747D
100
AcDbEntity
  8
部品1
 48
50.0
100
AcDbLine
 10
9119.600000000001
 20
5690.0
 30
0.0
 11
9119.600000000001
 21
5500.0
 31
0.0
  0
DIMENSION
  5
1CCFC
330
747D
100
AcDbEntity
  8
寸法
 48
50.0
100
AcDbDimension
  2
*D2
 10
9169.599999999999
 20
7684.412587671623
 30
0.0
 11
9144.599999999998
 21
7684.412587671623
 31
0.0
 70
   160
  1
a
 71
     5
 42
50.0
  3
INABA_S40G
100
AcDbAlignedDimension
 13
9119.599999999998
 23
7292.0
 33
0.0
 14
9169.599999999999
 24
7372.000000000004
 34
0.0
100
AcDbRotatedDimension
1001
ACAD
1000
DSTYLE
1002
{
1070
   174
1070
     0
1070
   272
1070
     1
1070
   288
1070
     0
1070
   341
1005
0
1002
}
  0
LINE
  5
1CCFF
330
747D
100
AcDbEntity
  8
部品1
 48
50.0
100
AcDbLine
 10
8729.599999999999
 20
7291.999999999996
 30
0.0
 11
9119.599999999998
 21
7292.0
 31
0.0
  0
LINE
  5
1CD00
330
747D
100
AcDbEntity
  8
部品1
 48
50.0
100
AcDbLine
 10
8729.599999999999
 20
7292.0
 30
0.0
 11
9119.599999999998
 21
7292.0
 31
0.0
  0
LINE
  5
1CD01
330
747D
100
AcDbEntity
  8
部品1
 48
50.0
100
AcDbLine
 10
8729.599999999999
 20
7102.0
 30
0.0
 11
9119.599999999998
 21
7102.0
 31
0.0
  0
LINE
  5
1CD02
330
747D
100
AcDbEntity
  8
部品1
 48
50.0
100
AcDbLine
 10
8729.599999999999
 20
7102.0
 30
0.0
 11
8729.599999999999
 21
7292.0
 31
0.0
  0
LINE
  5
1CD04
330
747D
100
AcDbEntity
  8
部品1
 48
50.0
100
AcDbLine
 10
9119.599999999998
 20
7102.0
 30
0.0
 11
9119.599999999998
 21
7292.0
 31
0.0
  0
TEXT
  5
1D002
330
747D
100
AcDbEntity
  8
文字
 62
     7
 48
50.0
100
AcDbText
 10
13188.16259899338
 20
246.7109242801889
 30
0.0
 40
80.0
  1
※寒冷地等は地域の実情に合わせた基礎にして下さい。
  7
STYLE2
100
AcDbText
  0
LINE
  5
1E47D
330
747D
100
AcDbEntity
  8
部品1
 48
50.0
100
AcDbLine
 10
8919.599999999999
 20
6495.999999999996
 30
0.0
 11
9119.599999999998
 21
6495.999999999996
 31
0.0
  0
LINE
  5
1E47E
330
747D
100
AcDbEntity
  8
部品1
 48
50.0
100
AcDbLine
 10
8318.599999999999
 20
6595.999999999998
 30
0.0
 11
8128.6
 21
6595.999999999996
 31
0.0
  0
LINE
  5
1E47F
330
747D
100
AcDbEntity
  8
部品1
 48
50.0
100
AcDbLine
 10
8919.599999999999
 20
6295.999999999996
 30
0.0
 11
9119.599999999998
 21
6295.999999999996
 31
0.0
  0
LINE
  5
1E480
330
747D
100
AcDbEntity
  8
部品1
 48
50.0
100
AcDbLine
 10
8318.600000000001
 20
6195.999999999997
 30
0.0
 11
8128.6
 21
6195.999999999997
 31
0.0
  0
LINE
  5
1E481
330
747D
100
AcDbEntity
  8
部品1
 48
50.0
100
AcDbLine
 10
8128.6
 20
6196.0
 30
0.0
 11
8128.6
 21
6596.0
 31
0.0
  0
LINE
  5
1E482
330
747D
100
AcDbEntity
  8
部品1
 48
50.0
100
AcDbLine
 10
8318.600000000001
 20
6195.999999999997
 30
0.0
 11
8318.599999999999
 21
6595.999999999998
 31
0.0
  0
LINE
  5
1E483
330
747D
100
AcDbEntity
  8
部品1
 48
50.0
100
AcDbLine
 10
9119.599999999998
 20
6296.0
 30
0.0
 11
9119.599999999998
 21
6496.0
 31
0.0
  0
LINE
  5
1E484
330
747D
100
AcDbEntity
  8
部品1
 48
50.0
100
AcDbLine
 10
8919.599999999999
 20
6296.0
 30
0.0
 11
8919.599999999999
 21
6496.0
 31
0.0
  0
LINE
  5
1E487
330
747D
100
AcDbEntity
  8
部品1
 48
50.0
100
AcDbLine
 10
7527.599999999999
 20
6495.999999999996
 30
0.0
 11
7327.6
 21
6495.999999999996
 31
0.0
  0
LINE
  5
1E488
330
747D
100
AcDbEntity
  8
部品1
 48
50.0
100
AcDbLine
 10
7527.599999999999
 20
6295.999999999996
 30
0.0
 11
7327.6
 21
6295.999999999996
 31
0.0
  0
LINE
  5
1E489
330
747D
100
AcDbEntity
  8
部品1
 48
50.0
100
AcDbLine
 10
7527.599999999999
 20
6296.0
 30
0.0
 11
7527.599999999999
 21
6496.0
 31
0.0
  0
LINE
  5
1E48A
330
747D
100
AcDbEntity
  8
部品1
 48
50.0
100
AcDbLine
 10
7327.6
 20
6296.0
 30
0.0
 11
7327.6
 21
6496.0
 31
0.0
  0
DIMENSION
  5
1E6BF
330
747D
100
AcDbEntity
  8
寸法
 48
50.0
100
AcDbDimension
  2
*D31
 10
9019.600000000002
 20
5146.674515054531
 30
0.0
 11
9119.600000000001
 21
5146.674515054531
 31
0.0
 70
   160
 71
     5
 42
200.0
  3
INABA_S40G
100
AcDbAlignedDimension
 13
9219.600000000001
 23
5399.999999999995
 33
0.0
 14
9019.600000000002
 24
5399.999999999995
 34
0.0
100
AcDbRotatedDimension
1001
ACAD
1000
DSTYLE
1002
{
1070
   174
1070
     0
1070
   272
1070
     1
1070
   288
1070
     0
1070
   341
1005
0
1002
}
  0
DIMENSION
  5
1E6C0
330
747D
100
AcDbEntity
  8
寸法
 48
50.0
100
AcDbDimension
  2
*D30
 10
9484.021227454793
 20
5399.999999999995
 30
0.0
 11
9484.021227454791
 21
5499.999999999996
 31
0.0
 70
   160
 71
     5
 42
200.0
  3
INABA_S40G
100
AcDbAlignedDimension
 13
9219.599999999998
 23
5599.999999999996
 33
0.0
 14
9219.600000000001
 24
5399.999999999995
 34
0.0
 50
90.0
100
AcDbRotatedDimension
1001
ACAD
1000
DSTYLE
1002
{
1070
   174
1070
     0
1070
   272
1070
     1
1070
   288
1070
     0
1070
   341
1005
0
1002
}
  0
LINE
  5
1E6C1
330
747D
100
AcDbEntity
  8
点線
 48
10.0
100
AcDbLine
 10
9219.599999999998
 20
5599.999999999996
 30
0.0
 11
9219.600000000001
 21
5399.999999999995
 31
0.0
  0
LINE
  5
1E6C2
330
747D
100
AcDbEntity
  8
点線
 48
10.0
100
AcDbLine
 10
9019.600000000002
 20
5399.999999999995
 30
0.0
 11
9219.600000000001
 21
5399.999999999995
 31
0.0
  0
LINE
  5
1E6C3
330
747D
100
AcDbEntity
  8
点線
 48
10.0
100
AcDbLine
 10
9019.600000000002
 20
5599.999999999996
 30
0.0
 11
9019.600000000002
 21
5399.999999999995
 31
0.0
  0
LINE
  5
1E6C4
330
747D
100
AcDbEntity
  8
点線
 48
10.0
100
AcDbLine
 10
9019.600000000002
 20
5599.999999999996
 30
0.0
 11
9219.599999999998
 21
5599.999999999996
 31
0.0
  0
LINE
  5
1E6C5
330
747D
100
AcDbEntity
  8
点線
 48
10.0
100
AcDbLine
 10
7427.599999999998
 20
5599.999999999996
 30
0.0
 11
7427.600000000001
 21
5399.999999999995
 31
0.0
  0
LINE
  5
1E6C6
330
747D
100
AcDbEntity
  8
点線
 48
10.0
100
AcDbLine
 10
7227.600000000001
 20
5599.999999999996
 30
0.0
 11
7427.599999999998
 21
5599.999999999996
 31
0.0
  0
LINE
  5
1E6C7
330
747D
100
AcDbEntity
  8
点線
 48
10.0
100
AcDbLine
 10
7227.600000000001
 20
5399.999999999995
 30
0.0
 11
7427.600000000001
 21
5399.999999999995
 31
0.0
  0
LINE
  5
1E6C8
330
747D
100
AcDbEntity
  8
点線
 48
10.0
100
AcDbLine
 10
7227.600000000001
 20
5599.999999999996
 30
0.0
 11
7227.600000000001
 21
5399.999999999995
 31
0.0
  0
TEXT
  5
1E6F3
330
747D
100
AcDbEntity
  8
部品1
 48
50.0
100
AcDbText
 10
9628.951829250341
 20
7689.278165376134
 30
0.0
 40
120.0
  1
組立後
  7
STYLE1
100
AcDbText
  0
MTEXT
  5
1E6F4
102
{ACAD_REACTORS
330
1E6F5
102
}
330
747D
100
AcDbEntity
  8
部品1
 62
     7
 48
50.0
100
AcDbMText
 10
9620.827897155237
 20
7562.800576904057
 30
0.0
 40
120.0
 41
0.0
 71
     4
 72
     1
  1
現場打コンクリート
  7
STYLE1
 73
     1
 44
1.0
1001
ACAD
1000
MTEXTBEGIN
1070
    73
1070
     1
1070
    44
1040
1.0
1070
    74
1070
     0
1000
MTEXTEND
  0
LEADER
  5
1E6F5
330
747D
100
AcDbEntity
  8
寸法
 48
50.0
100
AcDbLeader
  3
INABA_S50G
 71
     0
 73
     0
 74
     0
 75
     1
 40
120.0
 41
1282.349242404918
 76
     3
 10
9214.44068557283
 20
7281.456639287917
 30
0.0
 10
9470.827897155237
 20
7477.800576904058
 30
0.0
 10
9595.827897155237
 20
7477.800576904058
 30
0.0
340
1E6F4
1001
ACAD
1000
DSTYLE
1002
{
1070
   341
1005
1C530
1070
    40
1040
1.0
1070
   343
1005
1C530
1070
   344
1005
1C530
1002
}
  0
LINE
  5
1E6F6
330
747D
100
AcDbEntity
  8
点線
 48
10.0
100
AcDbLine
 10
9019.599999999998
 20
7391.999999999995
 30
0.0
 11
9019.599999999998
 21
7191.999999999996
 31
0.0
  0
LINE
  5
1E6F7
330
747D
100
AcDbEntity
  8
点線
 48
10.0
100
AcDbLine
 10
9019.599999999998
 20
7191.999999999996
 30
0.0
 11
9219.599999999998
 21
7191.999999999996
 31
0.0
  0
LINE
  5
1E6F8
330
747D
100
AcDbEntity
  8
点線
 48
10.0
100
AcDbLine
 10
9019.599999999998
 20
7391.999999999995
 30
0.0
 11
9219.599999999998
 21
7391.999999999995
 31
0.0
  0
LINE
  5
1E6F9
330
747D
100
AcDbEntity
  8
点線
 48
10.0
100
AcDbLine
 10
9219.599999999998
 20
7391.999999999995
 30
0.0
 11
9219.599999999998
 21
7191.999999999996
 31
0.0
  0
LINE
  5
1E6FA
330
747D
100
AcDbEntity
  8
点線
 48
10.0
100
AcDbLine
 10
7227.599999999998
 20
7191.999999999996
 30
0.0
 11
7427.599999999998
 21
7191.999999999996
 31
0.0
  0
LINE
  5
1E6FB
330
747D
100
AcDbEntity
  8
点線
 48
10.0
100
AcDbLine
 10
7427.599999999997
 20
7391.999999999995
 30
0.0
 11
7427.599999999998
 21
7191.999999999996
 31
0.0
  0
LINE
  5
1E6FC
330
747D
100
AcDbEntity
  8
点線
 48
10.0
100
AcDbLine
 10
7227.599999999998
 20
7391.999999999995
 30
0.0
 11
7427.599999999997
 21
7391.999999999995
 31
0.0
  0
LINE
  5
1E6FD
330
747D
100
AcDbEntity
  8
点線
 48
10.0
100
AcDbLine
 10
7227.599999999998
 20
7391.999999999995
 30
0.0
 11
7227.599999999998
 21
7191.999999999996
 31
0.0
  0
TEXT
  5
1EBB5
330
747D
100
AcDbEntity
  8
文字
 48
50.0
100
AcDbText
 10
7728.552229389291
 20
6767.065264964509
 30
0.0
 40
120.0
  1
100x190x390
  7
STYLE1
100
AcDbText
  0
MTEXT
  5
1EBB6
102
{ACAD_REACTORS
330
1EBB7
102
}
330
747D
100
AcDbEntity
  8
部品1
 62
     7
 48
50.0
100
AcDbMText
 10
7867.493414253828
 20
7019.563864458131
 30
0.0
 40
120.0
 41
0.0
 71
     4
 72
     1
  1
\A1;C.B
  7
STYLE1
 73
     1
 44
1.0
1001
ACAD
1000
MTEXTBEGIN
1070
    73
1070
     1
1070
    44
1040
1.0
1070
    74
1070
     0
1000
MTEXTEND
  0
LEADER
  5
1EBB7
330
747D
100
AcDbEntity
  8
寸法
 48
50.0
100
AcDbLeader
  3
INABA_S50G
 71
     0
 73
     0
 74
     0
 75
     1
 40
120.0
 41
185.591883092037
 76
     3
 10
7649.116701030523
 20
7149.697007727209
 30
0.0
 10
7717.493414253827
 20
6934.56386445813
 30
0.0
 10
7842.493414253827
 20
6934.56386445813
 30
0.0
340
1EBB6
1001
ACAD
1000
DSTYLE
1002
{
1070
   341
1005
1C530
1070
    40
1040
1.0
1070
   343
1005
1C530
1070
   344
1005
1C530
1002
}
  0
TEXT
  5
1EBB8
330
747D
100
AcDbEntity
  8
文字
 48
50.0
100
AcDbText
 10
9651.866426480898
 20
7287.363529387935
 30
0.0
 40
120.0
  1
深サ:200
  7
STYLE1
100
AcDbText
  0
LINE
  5
1EF38
330
747D
100
AcDbEntity
  8
部品1
 48
50.0
100
AcDbLine
 10
7556.307702263199
 20
740.7607876117562
 30
0.0
 11
7156.307702263198
 21
740.7607876117545
 31
0.0
  0
LINE
  5
1EF39
330
747D
100
AcDbEntity
  8
部品1
 48
50.0
100
AcDbLine
 10
7556.307702263199
 20
1140.760787611754
 30
0.0
 11
7556.307702263199
 21
740.7607876117562
 31
0.0
  0
LINE
  5
1EF3A
330
747D
100
AcDbEntity
  8
部品1
 48
50.0
100
AcDbLine
 10
7156.307702263198
 20
740.7607876117545
 30
0.0
 11
7156.307702263198
 21
1140.760787611754
 31
0.0
  0
TEXT
  5
1EF3B
330
747D
100
AcDbEntity
  8
部品1
100
AcDbText
 10
6760.149278048941
 20
402.0913671270181
 30
0.0
 40
80.0
  1
a寸法：100～150mmに対応
  7
STYLE2
100
AcDbText
  0
TEXT
  5
1EF3C
330
747D
100
AcDbEntity
  8
部品1
100
AcDbText
 10
9877.553647227777
 20
378.6220795440777
 30
0.0
 40
80.0
  1
  が4本必要になります。
  7
STYLE2
100
AcDbText
  0
TEXT
  5
1EF3D
330
747D
100
AcDbEntity
  8
部品1
100
AcDbText
 10
9876.19001086414
 20
528.3190492410467
 30
0.0
 40
80.0
  1
\U+203BオールアンカーM10(市販品)
  7
STYLE2
100
AcDbText
  0
TEXT
  5
1EF3E
330
747D
100
AcDbEntity
  8
部品1
100
AcDbText
 10
9872.09910177323
 20
673.9251098471076
 30
0.0
 40
80.0
  1
c寸法：135～175,190mmに対応
  7
STYLE2
100
AcDbText
  0
TEXT
  5
1EF3F
330
747D
100
AcDbEntity
  8
部品1
100
AcDbText
 10
8318.676348157685
 20
378.6220795440777
 30
0.0
 40
80.0
  1
  が4本必要になります。
  7
STYLE2
100
AcDbText
  0
TEXT
  5
1EF40
330
747D
100
AcDbEntity
  8
部品1
100
AcDbText
 10
8317.31271179405
 20
528.3190492410467
 30
0.0
 40
80.0
  1
\U+203BオールアンカーM10(市販品)
  7
STYLE2
100
AcDbText
  0
TEXT
  5
1EF41
330
747D
100
AcDbEntity
  8
部品1
100
AcDbText
 10
8312.767257248594
 20
673.9251098471076
 30
0.0
 40
80.0
  1
b寸法：100～120mmに対応
  7
STYLE2
100
AcDbText
  0
DIMENSION
  5
1EF42
330
747D
100
AcDbEntity
  8
寸法
 48
50.0
100
AcDbDimension
  2
*D41
 10
7654.378706623595
 20
1140.760787611754
 30
0.0
 11
7554.378706623595
 21
1240.760787611756
 31
0.0
 70
    32
  1
a
 71
     5
 42
200.0000000000009
  3
INABA_S40G
100
AcDbAlignedDimension
 13
7406.3077022632
 23
1340.760787611755
 33
0.0
 14
7406.307702263203
 24
1140.760787611754
 34
0.0
 50
90.0
100
AcDbRotatedDimension
1001
ACAD
1000
DSTYLE
1002
{
1070
   174
1070
     0
1070
   272
1070
     1
1070
   288
1070
     0
1070
   341
1005
0
1002
}
  0
LINE
  5
1EF43
330
747D
100
AcDbEntity
  8
部品1
 48
50.0
100
AcDbLine
 10
11423.6
 20
2600.000000000002
 30
0.0
 11
11423.6
 21
200.0
 31
0.0
  0
TEXT
  5
1EF44
330
747D
100
AcDbEntity
  8
部品1
100
AcDbText
 10
8984.944780845275
 20
2175.866049504641
 30
0.0
 40
120.0
  1
地盤がコンクリートの場合
  7
STYLE2
100
AcDbText
  0
LINE
  5
1EF45
330
747D
100
AcDbEntity
  8
部品1
100
AcDbLine
 10
10471.69580798928
 20
1469.904381151202
 30
0.0
 11
10471.69580798928
 21
1454.360787611753
 31
0.0
  0
LINE
  5
1EF46
330
747D
100
AcDbEntity
  8
部品1
100
AcDbLine
 10
10487.69580798928
 20
1469.904381151202
 30
0.0
 11
10487.69580798928
 21
1454.360787611753
 31
0.0
  0
LINE
  5
1EF47
330
747D
100
AcDbEntity
  8
部品1
100
AcDbLine
 10
10519.69580798928
 20
1544.360787611757
 30
0.0
 11
10519.69580798928
 21
1441.006256599767
 31
0.0
  0
LINE
  5
1EF48
330
747D
100
AcDbEntity
  8
部品1
100
AcDbLine
 10
10439.69580798928
 20
1544.360787611753
 30
0.0
 11
10439.69580798928
 21
1441.006256599761
 31
0.0
  0
ARC
  5
1EF49
330
747D
100
AcDbEntity
  8
部品1
100
AcDbCircle
 10
10479.69580798928
 20
1454.360787611753
 30
0.0
 40
8.0
100
AcDbArc
 50
288.1948723386656
 51
0.0
  0
ARC
  5
1EF4A
330
747D
100
AcDbEntity
  8
部品1
100
AcDbCircle
 10
10479.69580798928
 20
1454.360787611753
 30
0.0
 40
8.0
100
AcDbArc
 50
180.0
 51
251.8051276613344
  0
ARC
  5
1EF4B
330
747D
100
AcDbEntity
  8
部品1
100
AcDbCircle
 10
10510.64174850903
 20
1436.760787611751
 30
0.0
 40
10.0
100
AcDbArc
 50
5.684241598181141
 51
90.0
  0
ARC
  5
1EF4C
330
747D
100
AcDbEntity
  8
部品1
100
AcDbCircle
 10
10448.74986746952
 20
1436.760787611754
 30
0.0
 40
10.0
100
AcDbArc
 50
90.0
 51
174.3157584018188
  0
LINE
  5
1EF4D
330
747D
100
AcDbEntity
  8
部品1
100
AcDbLine
 10
10448.74986746952
 20
1446.760787611754
 30
0.0
 11
10510.64174850903
 21
1446.760787611751
 31
0.0
  0
CIRCLE
  5
1EF4E
330
747D
100
AcDbEntity
  8
部品1
100
AcDbCircle
 10
10479.69580798928
 20
1384.360787611753
 30
0.0
 40
16.0
  0
LINE
  5
1EF4F
330
747D
100
AcDbEntity
  8
細線
100
AcDbLine
 10
10487.69580798928
 20
1424.760787611751
 30
0.0
 11
10487.69580798928
 21
1398.217194072305
 31
0.0
  0
LINE
  5
1EF50
330
747D
100
AcDbEntity
  8
細線
100
AcDbLine
 10
10471.69580798928
 20
1424.760787611751
 30
0.0
 11
10471.69580798928
 21
1398.217194072305
 31
0.0
  0
LINE
  5
1EF51
330
747D
100
AcDbEntity
  8
細線
100
AcDbLine
 10
10494.69580798928
 20
1360.760787611751
 30
0.0
 11
10494.69580798928
 21
1354.760787611751
 31
0.0
  0
LINE
  5
1EF52
330
747D
100
AcDbEntity
  8
細線
100
AcDbLine
 10
10464.69580798928
 20
1360.760787611754
 30
0.0
 11
10464.69580798928
 21
1354.760787611754
 31
0.0
  0
LINE
  5
1EF53
330
747D
100
AcDbEntity
  8
細線
100
AcDbLine
 10
10464.69580798928
 20
1360.760787611754
 30
0.0
 11
10494.69580798928
 21
1360.760787611754
 31
0.0
  0
LINE
  5
1EF54
330
747D
100
AcDbEntity
  8
細線
100
AcDbLine
 10
10464.69580798928
 20
1354.760787611754
 30
0.0
 11
10494.69580798928
 21
1354.760787611754
 31
0.0
  0
ARC
  5
1EF55
330
747D
100
AcDbEntity
  8
細線
100
AcDbCircle
 10
10479.69580798928
 20
1424.760787611751
 30
0.0
 40
8.0
100
AcDbArc
 50
0.0
 51
180.0
  0
CIRCLE
  5
1EF56
330
747D
100
AcDbEntity
  8
細線
100
AcDbCircle
 10
10479.69580798928
 20
1524.360787611753
 30
0.0
 40
8.0
  0
CIRCLE
  5
1EF57
330
747D
100
AcDbEntity
  8
部品1
100
AcDbCircle
 10
10479.69580798928
 20
1483.760787611754
 30
0.0
 40
16.0
  0
ARC
  5
1EF58
330
747D
100
AcDbEntity
  8
部品1
100
AcDbCircle
 10
10479.69580798928
 20
1494.360787611753
 30
0.0
 40
8.0
100
AcDbArc
 50
28.00674301449769
 51
151.9932569855023
  0
ARC
  5
1EF59
330
747D
100
AcDbEntity
  8
部品1
100
AcDbCircle
 10
10509.69580798928
 20
1544.360787611757
 30
0.0
 40
10.0
100
AcDbArc
 50
0.0
 51
90.0
  0
ARC
  5
1EF5A
330
747D
100
AcDbEntity
  8
部品1
100
AcDbCircle
 10
10449.69580798928
 20
1544.360787611753
 30
0.0
 40
10.0
100
AcDbArc
 50
90.0
 51
180.0
  0
LINE
  5
1EF5B
330
747D
100
AcDbEntity
  8
部品1
100
AcDbLine
 10
10449.69580798928
 20
1554.360787611753
 30
0.0
 11
10509.69580798928
 21
1554.360787611757
 31
0.0
  0
LINE
  5
1EF5C
330
747D
100
AcDbEntity
  8
細線
100
AcDbLine
 10
10431.61647591862
 20
1367.416722334008
 30
0.0
 11
10358.27241064087
 21
1440.760787611754
 31
0.0
  0
LINE
  5
1EF5D
330
747D
100
AcDbEntity
  8
細線
100
AcDbLine
 10
10435.54761351225
 20
1405.911991611565
 30
0.0
 11
10400.69881751207
 21
1440.760787611754
 31
0.0
  0
LINE
  5
1EF5E
330
747D
100
AcDbEntity
  8
部品1
100
AcDbLine
 10
10549.69580798928
 20
1152.760787611754
 30
0.0
 11
10549.69580798928
 21
1140.760787611754
 31
0.0
  0
LINE
  5
1EF5F
330
747D
100
AcDbEntity
  8
部品1
100
AcDbLine
 10
10489.69580798928
 20
1173.160787611756
 30
0.0
 11
10494.69580798928
 21
1173.160787611756
 31
0.0
  0
LINE
  5
1EF60
330
747D
100
AcDbEntity
  8
部品1
100
AcDbLine
 10
10464.69580798928
 20
1207.160787611756
 30
0.0
 11
10494.69580798928
 21
1207.160787611756
 31
0.0
  0
LINE
  5
1EF61
330
747D
100
AcDbEntity
  8
部品1
100
AcDbLine
 10
10464.69580798928
 20
1213.160787611756
 30
0.0
 11
10494.69580798928
 21
1213.160787611756
 31
0.0
  0
LINE
  5
1EF62
330
747D
100
AcDbEntity
  8
部品1
100
AcDbLine
 10
10464.69580798928
 20
1213.160787611756
 30
0.0
 11
10464.69580798928
 21
1207.160787611756
 31
0.0
  0
LINE
  5
1EF63
330
747D
100
AcDbEntity
  8
部品1
100
AcDbLine
 10
10494.69580798928
 20
1213.160787611752
 30
0.0
 11
10494.69580798928
 21
1207.160787611752
 31
0.0
  0
LINE
  5
1EF64
330
747D
100
AcDbEntity
  8
部品1
100
AcDbLine
 10
10472.69580798928
 20
1205.013683635414
 30
0.0
 11
10486.69580798928
 21
1205.013683635414
 31
0.0
  0
LINE
  5
1EF65
330
747D
100
AcDbEntity
  8
部品1
100
AcDbLine
 10
10469.69580798928
 20
1192.760787611754
 30
0.0
 11
10489.69580798928
 21
1192.760787611754
 31
0.0
  0
LINE
  5
1EF66
330
747D
100
AcDbEntity
  8
部品1
100
AcDbLine
 10
10462.69580798928
 20
1171.760787611754
 30
0.0
 11
10459.69580798928
 21
1168.760787611754
 31
0.0
  0
LINE
  5
1EF67
330
747D
100
AcDbEntity
  8
部品1
100
AcDbLine
 10
10462.69580798928
 20
1171.760787611754
 30
0.0
 11
10496.69580798928
 21
1171.760787611754
 31
0.0
  0
LINE
  5
1EF68
330
747D
100
AcDbEntity
  8
部品1
100
AcDbLine
 10
10496.69580798928
 20
1171.760787611754
 30
0.0
 11
10499.69580798928
 21
1168.760787611754
 31
0.0
  0
LINE
  5
1EF69
330
747D
100
AcDbEntity
  8
部品1
100
AcDbLine
 10
10464.69580798928
 20
1173.160787611756
 30
0.0
 11
10464.69580798928
 21
1171.760787611754
 31
0.0
  0
LINE
  5
1EF6A
330
747D
100
AcDbEntity
  8
部品1
100
AcDbLine
 10
10494.69580798928
 20
1173.160787611752
 30
0.0
 11
10494.69580798928
 21
1171.760787611754
 31
0.0
  0
LINE
  5
1EF6B
330
747D
100
AcDbEntity
  8
部品1
100
AcDbLine
 10
10449.69580798928
 20
1155.760787611754
 30
0.0
 11
10509.69580798928
 21
1155.760787611758
 31
0.0
  0
LINE
  5
1EF6C
330
747D
100
AcDbEntity
  8
部品1
100
AcDbLine
 10
10449.69580798928
 20
1152.760787611754
 30
0.0
 11
10449.69580798928
 21
1155.760787611754
 31
0.0
  0
LINE
  5
1EF6D
330
747D
100
AcDbEntity
  8
部品1
100
AcDbLine
 10
10509.69580798928
 20
1152.760787611754
 30
0.0
 11
10509.69580798928
 21
1155.760787611762
 31
0.0
  0
LINE
  5
1EF6E
330
747D
100
AcDbEntity
  8
部品1
100
AcDbLine
 10
10459.69580798928
 20
1155.760787611754
 30
0.0
 11
10459.69580798928
 21
1168.760787611754
 31
0.0
  0
LINE
  5
1EF6F
330
747D
100
AcDbEntity
  8
部品1
100
AcDbLine
 10
10469.69580798928
 20
1155.760787611754
 30
0.0
 11
10469.69580798928
 21
1192.760787611754
 31
0.0
  0
LINE
  5
1EF70
330
747D
100
AcDbEntity
  8
部品1
100
AcDbLine
 10
10489.69580798928
 20
1155.760787611754
 30
0.0
 11
10489.69580798928
 21
1192.760787611754
 31
0.0
  0
LINE
  5
1EF71
330
747D
100
AcDbEntity
  8
部品1
100
AcDbLine
 10
10499.69580798928
 20
1155.760787611758
 30
0.0
 11
10499.69580798928
 21
1168.760787611754
 31
0.0
  0
LINE
  5
1EF72
330
747D
100
AcDbEntity
  8
部品1
100
AcDbLine
 10
10464.69580798928
 20
1173.160787611756
 30
0.0
 11
10469.69580798928
 21
1173.160787611756
 31
0.0
  0
LINE
  5
1EF73
330
747D
100
AcDbEntity
  8
部品1
100
AcDbLine
 10
10489.69580798928
 20
1173.160787611756
 30
0.0
 11
10494.69580798928
 21
1173.160787611756
 31
0.0
  0
LINE
  5
1EF74
330
747D
100
AcDbEntity
  8
部品1
100
AcDbLine
 10
10459.69580798928
 20
1168.760787611754
 30
0.0
 11
10499.69580798928
 21
1168.760787611754
 31
0.0
  0
ARC
  5
1EF75
330
747D
100
AcDbEntity
  8
部品1
100
AcDbCircle
 10
10464.69580798928
 20
1164.246032821436
 30
0.0
 40
6.736691384996243
100
AcDbArc
 50
42.08048849858776
 51
137.9195115014122
  0
ARC
  5
1EF76
330
747D
100
AcDbEntity
  8
部品1
100
AcDbCircle
 10
10494.69580798928
 20
1164.246032821436
 30
0.0
 40
6.736691384996243
100
AcDbArc
 50
42.08048849858776
 51
137.9195115014122
  0
ARC
  5
1EF77
330
747D
100
AcDbEntity
  8
部品1
100
AcDbCircle
 10
10479.69580798928
 20
1147.672154390937
 30
0.0
 40
23.33946124318486
100
AcDbArc
 50
64.63020194521535
 51
115.3697980547846
  0
LINE
  5
1EF78
330
747D
100
AcDbEntity
  8
部品1
100
AcDbLine
 10
10472.69580798928
 20
1201.013683635414
 30
0.0
 11
10486.69580798928
 21
1201.013683635414
 31
0.0
  0
LINE
  5
1EF79
330
747D
100
AcDbEntity
  8
部品1
100
AcDbLine
 10
10474.69580798928
 20
1192.760787611754
 30
0.0
 11
10474.69580798928
 21
1201.013683635414
 31
0.0
  0
LINE
  5
1EF7A
330
747D
100
AcDbEntity
  8
部品1
100
AcDbLine
 10
10484.69580798928
 20
1192.760787611754
 30
0.0
 11
10484.69580798928
 21
1201.013683635414
 31
0.0
  0
LINE
  5
1EF7B
330
747D
100
AcDbEntity
  8
部品1
100
AcDbLine
 10
10469.69580798928
 20
1140.760787611754
 30
0.0
 11
10469.69580798928
 21
1105.360787611753
 31
0.0
  0
LINE
  5
1EF7C
330
747D
100
AcDbEntity
  8
部品1
100
AcDbLine
 10
10489.69580798928
 20
1140.760787611754
 30
0.0
 11
10489.69580798928
 21
1105.360787611753
 31
0.0
  0
LINE
  5
1EF7D
330
747D
100
AcDbEntity
  8
部品1
100
AcDbLine
 10
10477.78530735574
 20
1105.360787611753
 30
0.0
 11
10481.60630862281
 21
1105.360787611753
 31
0.0
  0
LINE
  5
1EF7E
330
747D
100
AcDbEntity
  8
部品1
100
AcDbLine
 10
10466.36593614202
 20
1083.161641963379
 30
0.0
 11
10474.27742696497
 21
1081.97491833994
 31
0.0
  0
LINE
  5
1EF7F
330
747D
100
AcDbEntity
  8
部品1
100
AcDbLine
 10
10467.2559788596
 20
1089.09526008059
 30
0.0
 11
10475.16746968254
 21
1087.908536457151
 31
0.0
  0
LINE
  5
1EF80
330
747D
100
AcDbEntity
  8
部品1
100
AcDbLine
 10
10468.14602157718
 20
1095.028878197801
 30
0.0
 11
10476.05751240012
 21
1093.842154574358
 31
0.0
  0
LINE
  5
1EF81
330
747D
100
AcDbEntity
  8
部品1
100
AcDbLine
 10
10469.03606429476
 20
1100.962496315009
 30
0.0
 11
10476.94755511771
 21
1099.775772691566
 31
0.0
  0
LINE
  5
1EF82
330
747D
100
AcDbEntity
  8
部品1
100
AcDbLine
 10
10485.11418901359
 20
1081.97491833994
 30
0.0
 11
10493.02567983654
 21
1083.161641963379
 31
0.0
  0
LINE
  5
1EF83
330
747D
100
AcDbEntity
  8
部品1
100
AcDbLine
 10
10484.22414629601
 20
1087.908536457151
 30
0.0
 11
10492.13563711896
 21
1089.09526008059
 31
0.0
  0
LINE
  5
1EF84
330
747D
100
AcDbEntity
  8
部品1
100
AcDbLine
 10
10483.33410357843
 20
1093.842154574358
 30
0.0
 11
10491.24559440138
 21
1095.028878197801
 31
0.0
  0
LINE
  5
1EF85
330
747D
100
AcDbEntity
  8
部品1
100
AcDbLine
 10
10482.44406086085
 20
1099.775772691566
 30
0.0
 11
10490.35555168379
 21
1100.962496315009
 31
0.0
  0
LINE
  5
1EF86
330
747D
100
AcDbEntity
  8
部品1
100
AcDbLine
 10
10472.69580798928
 20
1201.013683635414
 30
0.0
 11
10472.69580798928
 21
1205.013683635414
 31
0.0
  0
LINE
  5
1EF87
330
747D
100
AcDbEntity
  8
部品1
100
AcDbLine
 10
10486.69580798928
 20
1201.013683635414
 30
0.0
 11
10486.69580798928
 21
1205.013683635414
 31
0.0
  0
LINE
  5
1EF88
330
747D
100
AcDbEntity
  8
部品1
100
AcDbLine
 10
10464.69580798928
 20
1171.760787611754
 30
0.0
 11
10494.69580798928
 21
1171.760787611754
 31
0.0
  0
LINE
  5
1EF89
330
747D
100
AcDbEntity
  8
部品1
100
AcDbLine
 10
10494.69580798928
 20
1173.160787611752
 30
0.0
 11
10494.69580798928
 21
1171.760787611754
 31
0.0
  0
LINE
  5
1EF8A
330
747D
100
AcDbEntity
  8
部品1
100
AcDbLine
 10
10464.69580798928
 20
1173.160787611756
 30
0.0
 11
10464.69580798928
 21
1171.760787611751
 31
0.0
  0
LINE
  5
1EF8B
330
747D
100
AcDbEntity
  8
部品1
100
AcDbLine
 10
10464.69580798928
 20
1173.160787611756
 30
0.0
 11
10469.69580798928
 21
1173.160787611756
 31
0.0
  0
LINE
  5
1EF8C
330
747D
100
AcDbEntity
  8
部品1
100
AcDbLine
 10
10494.69580798928
 20
1213.160787611752
 30
0.0
 11
10494.69580798928
 21
1207.160787611752
 31
0.0
  0
LINE
  5
1EF8D
330
747D
100
AcDbEntity
  8
部品1
100
AcDbLine
 10
10464.69580798928
 20
1213.160787611756
 30
0.0
 11
10464.69580798928
 21
1207.160787611756
 31
0.0
  0
LINE
  5
1EF8E
330
747D
100
AcDbEntity
  8
部品1
100
AcDbLine
 10
10464.69580798928
 20
1213.160787611756
 30
0.0
 11
10494.69580798928
 21
1213.160787611756
 31
0.0
  0
LINE
  5
1EF8F
330
747D
100
AcDbEntity
  8
部品1
100
AcDbLine
 10
10464.69580798928
 20
1207.160787611756
 30
0.0
 11
10494.69580798928
 21
1207.160787611756
 31
0.0
  0
LINE
  5
1EF90
330
747D
100
AcDbEntity
  8
部品1
100
AcDbLine
 10
10409.69580798928
 20
1152.760787611754
 30
0.0
 11
10409.69580798928
 21
1140.760787611754
 31
0.0
  0
LINE
  5
1EF91
330
747D
100
AcDbEntity
  8
部品1
100
AcDbLine
 10
10463.69580798928
 20
1065.360787611753
 30
0.0
 11
10471.60729881222
 21
1064.174063988313
 31
0.0
  0
LINE
  5
1EF92
330
747D
100
AcDbEntity
  8
部品1
100
AcDbLine
 10
10487.78431716633
 20
1064.174063988313
 30
0.0
 11
10495.69580798928
 21
1065.360787611753
 31
0.0
  0
LINE
  5
1EF93
330
747D
100
AcDbEntity
  8
部品1
100
AcDbLine
 10
10464.58585070686
 20
1071.294405728964
 30
0.0
 11
10472.49734152981
 21
1070.107682105521
 31
0.0
  0
LINE
  5
1EF94
330
747D
100
AcDbEntity
  8
部品1
100
AcDbLine
 10
10465.47589342444
 20
1077.228023846172
 30
0.0
 11
10473.38738424738
 21
1076.041300222729
 31
0.0
  0
LINE
  5
1EF95
330
747D
100
AcDbEntity
  8
部品1
100
AcDbLine
 10
10486.89427444875
 20
1070.107682105521
 30
0.0
 11
10494.8057652717
 21
1071.294405728964
 31
0.0
  0
LINE
  5
1EF96
330
747D
100
AcDbEntity
  8
部品1
100
AcDbLine
 10
10486.00423173117
 20
1076.041300222729
 30
0.0
 11
10493.91572255412
 21
1077.228023846172
 31
0.0
  0
LINE
  5
1EF97
330
747D
100
AcDbEntity
  8
部品1
100
AcDbLine
 10
10469.69580798928
 20
1105.360787611753
 30
0.0
 11
10463.69580798928
 21
1065.360787611753
 31
0.0
  0
LINE
  5
1EF98
330
747D
100
AcDbEntity
  8
部品1
100
AcDbLine
 10
10495.69580798928
 20
1065.360787611753
 30
0.0
 11
10489.69580798928
 21
1105.360787611753
 31
0.0
  0
LINE
  5
1EF99
330
747D
100
AcDbEntity
  8
部品1
100
AcDbLine
 10
10477.78530735574
 20
1105.360787611753
 30
0.0
 11
10471.60729881222
 21
1064.174063988313
 31
0.0
  0
LINE
  5
1EF9A
330
747D
100
AcDbEntity
  8
部品1
100
AcDbLine
 10
10487.78431716633
 20
1064.174063988313
 30
0.0
 11
10481.60630862281
 21
1105.360787611753
 31
0.0
  0
LINE
  5
1EF9B
330
747D
100
AcDbEntity
  8
部品1
100
AcDbLine
 10
10409.69580798928
 20
1140.760787611754
 30
0.0
 11
10549.69580798928
 21
1140.760787611754
 31
0.0
  0
LINE
  5
1EF9C
330
747D
100
AcDbEntity
  8
部品1
100
AcDbLine
 10
10409.69580798928
 20
1152.760787611754
 30
0.0
 11
10549.69580798928
 21
1152.760787611754
 31
0.0
  0
LINE
  5
1EF9D
330
747D
100
AcDbEntity
  8
部品1
100
AcDbLine
 10
10520.59257699735
 20
1437.751248310655
 30
0.0
 11
10549.69580798928
 21
1152.760787611754
 31
0.0
  0
LINE
  5
1EF9E
330
747D
100
AcDbEntity
  8
部品1
100
AcDbLine
 10
10438.79903898121
 20
1437.751248310655
 30
0.0
 11
10409.69580798928
 21
1152.760787611754
 31
0.0
  0
DIMENSION
  5
1EF9F
330
747D
100
AcDbEntity
  8
寸法
 48
50.0
100
AcDbDimension
  2
*D42
 10
10722.44245361606
 20
1140.760787611754
 30
0.0
 11
10622.44245361606
 21
1290.760787611756
 31
0.0
 70
    32
  1
c
 71
     5
 42
300.0
  3
INABA_S40G
100
AcDbAlignedDimension
 13
10519.80689989894
 23
1440.760787611754
 33
0.0
 14
10549.69580798928
 24
1140.760787611754
 34
0.0
 50
90.0
100
AcDbRotatedDimension
1001
ACAD
1000
DSTYLE
1002
{
1070
   174
1070
     0
1070
   272
1070
     1
1070
   288
1070
     0
1070
   341
1005
0
1002
}
  0
LINE
  5
1EFA0
330
747D
100
AcDbEntity
  8
細線
 48
10.0
100
AcDbLine
 10
10507.26056628018
 20
833.8425902724702
 30
0.0
 11
10814.17876361945
 21
1140.760787611754
 31
0.0
  0
LINE
  5
1EFA1
330
747D
100
AcDbEntity
  8
細線
 48
10.0
100
AcDbLine
 10
10535.54483752764
 20
833.8425902724702
 30
0.0
 11
10842.46303486691
 21
1140.760787611754
 31
0.0
  0
LINE
  5
1EFA2
330
747D
100
AcDbEntity
  8
細線
 48
10.0
100
AcDbLine
 10
10563.8291087751
 20
833.8425902724702
 30
0.0
 11
10870.74730611438
 21
1140.760787611756
 31
0.0
  0
LINE
  5
1EFA3
330
747D
100
AcDbEntity
  8
細線
100
AcDbLine
 10
10205.72407068148
 20
1140.760787611754
 30
0.0
 11
10119.69580798928
 21
1226.789050303954
 31
0.0
  0
LINE
  5
1EFA4
330
747D
100
AcDbEntity
  8
細線
100
AcDbLine
 10
10248.15047755267
 20
1140.760787611754
 30
0.0
 11
10119.69580798928
 21
1269.215457175147
 31
0.0
  0
LINE
  5
1EFA5
330
747D
100
AcDbEntity
  8
部品1
100
AcDbLine
 10
10119.69580798928
 20
1140.760787611751
 30
0.0
 11
10119.69580798928
 21
1440.760787611754
 31
0.0
  0
LINE
  5
1EFA6
330
747D
100
AcDbEntity
  8
細線
 48
10.0
100
AcDbLine
 10
9896.898411190573
 20
1076.797212888527
 30
0.0
 11
9960.861985913799
 21
1140.760787611754
 31
0.0
  0
LINE
  5
1EFA7
330
747D
100
AcDbEntity
  8
細線
 48
10.0
100
AcDbLine
 10
9896.898411190575
 20
1048.512941641072
 30
0.0
 11
9989.146257161252
 21
1140.760787611754
 31
0.0
  0
LINE
  5
1EFA8
330
747D
100
AcDbEntity
  8
細線
 48
10.0
100
AcDbLine
 10
9896.898411190569
 20
1020.228670393613
 30
0.0
 11
10017.4305284087
 21
1140.760787611754
 31
0.0
  0
LINE
  5
1EFA9
330
747D
100
AcDbEntity
  8
細線
 48
10.0
100
AcDbLine
 10
10137.17071992228
 20
833.8425902724702
 30
0.0
 11
10444.08891726154
 21
1140.760787611754
 31
0.0
  0
LINE
  5
1EFAA
330
747D
100
AcDbEntity
  8
細線
 48
10.0
100
AcDbLine
 10
10108.88644867482
 20
833.8425902724702
 30
0.0
 11
10415.80464601409
 21
1140.760787611754
 31
0.0
  0
LINE
  5
1EFAB
330
747D
100
AcDbEntity
  8
細線
 48
10.0
100
AcDbLine
 10
10080.60217742736
 20
833.8425902724702
 30
0.0
 11
10387.52037476663
 21
1140.760787611756
 31
0.0
  0
LINE
  5
1EFAC
330
747D
100
AcDbEntity
  8
細線
100
AcDbLine
 10
10414.5815463462
 20
1200.603888797927
 30
0.0
 11
10174.42464753236
 21
1440.760787611754
 31
0.0
  0
LINE
  5
1EFAD
330
747D
100
AcDbEntity
  8
細線
100
AcDbLine
 10
10410.65040875256
 20
1162.10861952037
 30
0.0
 11
10131.99824066117
 21
1440.760787611754
 31
0.0
  0
LINE
  5
1EFAE
330
747D
100
AcDbEntity
  8
部品1
100
AcDbLine
 10
9896.898411190573
 20
1534.760787611756
 30
0.0
 11
10439.69580798928
 21
1534.760787611756
 31
0.0
  0
LINE
  5
1EFAF
330
747D
100
AcDbEntity
  8
部品1
100
AcDbLine
 10
9896.898411190573
 20
1540.760787611756
 30
0.0
 11
10409.69580798928
 21
1540.760787611756
 31
0.0
  0
LINE
  5
1EFB0
330
747D
100
AcDbEntity
  8
部品1
100
AcDbLine
 10
9896.898411190573
 20
1440.760787611754
 30
0.0
 11
10439.58471607961
 21
1440.760787611756
 31
0.0
  0
TEXT
  5
1EFB1
330
747D
100
AcDbEntity
  8
部品1
100
AcDbText
 10
9383.852406544674
 20
1148.666829290658
 30
0.0
 40
120.0
  1
▽G.L
  7
STYLE1
100
AcDbText
  0
LINE
  5
1EFB2
330
747D
100
AcDbEntity
  8
細線
 48
10.0
100
AcDbLine
 10
9304.873184612045
 20
833.8425902724702
 30
0.0
 11
9611.79138195132
 21
1140.760787611754
 31
0.0
  0
LINE
  5
1EFB3
330
747D
100
AcDbEntity
  8
細線
 48
10.0
100
AcDbLine
 10
9333.157455859506
 20
833.8425902724702
 30
0.0
 11
9640.075653198779
 21
1140.760787611754
 31
0.0
  0
LINE
  5
1EFB4
330
747D
100
AcDbEntity
  8
細線
 48
10.0
100
AcDbLine
 10
9361.441727106969
 20
833.8425902724702
 30
0.0
 11
9668.359924446246
 21
1140.760787611754
 31
0.0
  0
LINE
  5
1EFB5
330
747D
100
AcDbEntity
  8
細線
100
AcDbLine
 10
8984.363203276299
 20
1360.760787611751
 30
0.0
 11
8984.363203276299
 21
1354.760787611751
 31
0.0
  0
LINE
  5
1EFB6
330
747D
100
AcDbEntity
  8
細線
100
AcDbLine
 10
8954.363203276299
 20
1360.760787611756
 30
0.0
 11
8954.363203276299
 21
1354.760787611756
 31
0.0
  0
LINE
  5
1EFB7
330
747D
100
AcDbEntity
  8
細線
100
AcDbLine
 10
8954.363203276299
 20
1354.760787611756
 30
0.0
 11
8984.363203276299
 21
1354.760787611756
 31
0.0
  0
ARC
  5
1EFB8
330
747D
100
AcDbEntity
  8
部品1
100
AcDbCircle
 10
9000.309143796053
 20
1436.760787611753
 30
0.0
 40
10.0
100
AcDbArc
 50
5.684241598181141
 51
90.0
  0
LINE
  5
1EFB9
330
747D
100
AcDbEntity
  8
部品1
100
AcDbLine
 10
8938.417262756543
 20
1446.760787611754
 30
0.0
 11
9000.309143796053
 21
1446.760787611752
 31
0.0
  0
ARC
  5
1EFBA
330
747D
100
AcDbEntity
  8
細線
100
AcDbCircle
 10
8969.363203276298
 20
1424.760787611752
 30
0.0
 40
8.0
100
AcDbArc
 50
0.0
 51
180.0
  0
LINE
  5
1EFBB
330
747D
100
AcDbEntity
  8
細線
100
AcDbLine
 10
8977.363203276297
 20
1424.760787611752
 30
0.0
 11
8977.363203276297
 21
1398.617194072307
 31
0.0
  0
LINE
  5
1EFBC
330
747D
100
AcDbEntity
  8
細線
100
AcDbLine
 10
8961.363203276297
 20
1424.760787611752
 30
0.0
 11
8961.363203276297
 21
1398.617194072307
 31
0.0
  0
LINE
  5
1EFBD
330
747D
100
AcDbEntity
  8
細線
100
AcDbLine
 10
8954.363203276299
 20
1360.760787611756
 30
0.0
 11
8984.363203276299
 21
1360.760787611756
 31
0.0
  0
CIRCLE
  5
1EFBE
330
747D
100
AcDbEntity
  8
部品1
100
AcDbCircle
 10
8969.363203276298
 20
1384.760787611754
 30
0.0
 40
16.0
  0
ARC
  5
1EFBF
330
747D
100
AcDbEntity
  8
部品1
100
AcDbCircle
 10
8938.417262756543
 20
1436.760787611756
 30
0.0
 40
10.0
100
AcDbArc
 50
90.0
 51
174.3157584018188
  0
LINE
  5
1EFC0
330
747D
100
AcDbEntity
  8
部品1
100
AcDbLine
 10
8972.111456147869
 20
1099.775772691568
 30
0.0
 11
8980.022946970814
 21
1100.962496315011
 31
0.0
  0
LINE
  5
1EFC1
330
747D
100
AcDbEntity
  8
部品1
100
AcDbLine
 10
8973.001498865452
 20
1093.842154574358
 30
0.0
 11
8980.912989688397
 21
1095.028878197801
 31
0.0
  0
LINE
  5
1EFC2
330
747D
100
AcDbEntity
  8
部品1
100
AcDbLine
 10
8973.891541583034
 20
1087.908536457153
 30
0.0
 11
8981.803032405981
 21
1089.095260080592
 31
0.0
  0
LINE
  5
1EFC3
330
747D
100
AcDbEntity
  8
部品1
100
AcDbLine
 10
8974.781584300611
 20
1081.97491833994
 30
0.0
 11
8982.693075123556
 21
1083.161641963381
 31
0.0
  0
LINE
  5
1EFC4
330
747D
100
AcDbEntity
  8
部品1
100
AcDbLine
 10
8975.671627018193
 20
1076.04130022273
 30
0.0
 11
8983.58311784114
 21
1077.228023846173
 31
0.0
  0
LINE
  5
1EFC5
330
747D
100
AcDbEntity
  8
部品1
100
AcDbLine
 10
8976.561669735769
 20
1070.107682105521
 30
0.0
 11
8984.473160558723
 21
1071.294405728964
 31
0.0
  0
LINE
  5
1EFC6
330
747D
100
AcDbEntity
  8
部品1
100
AcDbLine
 10
8958.703459581782
 20
1100.962496315011
 30
0.0
 11
8966.614950404729
 21
1099.775772691568
 31
0.0
  0
LINE
  5
1EFC7
330
747D
100
AcDbEntity
  8
部品1
100
AcDbLine
 10
8957.813416864199
 20
1095.028878197801
 30
0.0
 11
8965.724907687144
 21
1093.842154574358
 31
0.0
  0
LINE
  5
1EFC8
330
747D
100
AcDbEntity
  8
部品1
100
AcDbLine
 10
8956.923374146624
 20
1089.095260080592
 30
0.0
 11
8964.834864969569
 21
1087.908536457153
 31
0.0
  0
LINE
  5
1EFC9
330
747D
100
AcDbEntity
  8
部品1
100
AcDbLine
 10
8956.03333142904
 20
1083.161641963381
 30
0.0
 11
8963.944822251987
 21
1081.97491833994
 31
0.0
  0
LINE
  5
1EFCA
330
747D
100
AcDbEntity
  8
部品1
100
AcDbLine
 10
8955.143288711457
 20
1077.228023846173
 30
0.0
 11
8963.054779534402
 21
1076.04130022273
 31
0.0
  0
LINE
  5
1EFCB
330
747D
100
AcDbEntity
  8
部品1
100
AcDbLine
 10
8954.25324599388
 20
1071.294405728964
 30
0.0
 11
8962.164736816827
 21
1070.107682105521
 31
0.0
  0
LINE
  5
1EFCC
330
747D
100
AcDbEntity
  8
部品1
100
AcDbLine
 10
8977.451712453351
 20
1064.174063988315
 30
0.0
 11
8985.363203276298
 21
1065.360787611755
 31
0.0
  0
LINE
  5
1EFCD
330
747D
100
AcDbEntity
  8
部品1
100
AcDbLine
 10
8953.363203276298
 20
1065.360787611755
 30
0.0
 11
8961.274694099243
 21
1064.174063988315
 31
0.0
  0
LINE
  5
1EFCE
330
747D
100
AcDbEntity
  8
部品1
100
AcDbLine
 10
8977.451712453351
 20
1064.174063988315
 30
0.0
 11
8971.273703909835
 21
1105.360787611755
 31
0.0
  0
LINE
  5
1EFCF
330
747D
100
AcDbEntity
  8
部品1
100
AcDbLine
 10
8967.452702642761
 20
1105.360787611755
 30
0.0
 11
8961.274694099243
 21
1064.174063988315
 31
0.0
  0
LINE
  5
1EFD0
330
747D
100
AcDbEntity
  8
部品1
100
AcDbLine
 10
8985.363203276298
 20
1065.360787611755
 30
0.0
 11
8979.363203276298
 21
1105.360787611755
 31
0.0
  0
LINE
  5
1EFD1
330
747D
100
AcDbEntity
  8
部品1
100
AcDbLine
 10
8959.363203276298
 20
1105.360787611755
 30
0.0
 11
8953.363203276298
 21
1065.360787611755
 31
0.0
  0
LINE
  5
1EFD2
330
747D
100
AcDbEntity
  8
部品1
100
AcDbLine
 10
8967.452702642761
 20
1105.360787611755
 30
0.0
 11
8971.273703909835
 21
1105.360787611755
 31
0.0
  0
LINE
  5
1EFD3
330
747D
100
AcDbEntity
  8
部品1
100
AcDbLine
 10
8979.363203276298
 20
1140.760787611754
 30
0.0
 11
8979.363203276298
 21
1105.360787611755
 31
0.0
  0
LINE
  5
1EFD4
330
747D
100
AcDbEntity
  8
部品1
100
AcDbLine
 10
8959.363203276298
 20
1140.760787611754
 30
0.0
 11
8959.363203276298
 21
1105.360787611755
 31
0.0
  0
LINE
  5
1EFD5
330
747D
100
AcDbEntity
  8
部品1
100
AcDbLine
 10
8962.363203276298
 20
1201.013683635416
 30
0.0
 11
8976.363203276298
 21
1201.013683635416
 31
0.0
  0
LINE
  5
1EFD6
330
747D
100
AcDbEntity
  8
部品1
100
AcDbLine
 10
8976.363203276298
 20
1201.013683635416
 30
0.0
 11
8976.363203276298
 21
1205.013683635416
 31
0.0
  0
LINE
  5
1EFD7
330
747D
100
AcDbEntity
  8
部品1
100
AcDbLine
 10
8962.363203276298
 20
1201.013683635416
 30
0.0
 11
8962.363203276298
 21
1205.013683635416
 31
0.0
  0
LINE
  5
1EFD8
330
747D
100
AcDbEntity
  8
部品1
100
AcDbLine
 10
8974.363203276299
 20
1192.760787611756
 30
0.0
 11
8974.363203276299
 21
1201.013683635416
 31
0.0
  0
LINE
  5
1EFD9
330
747D
100
AcDbEntity
  8
部品1
100
AcDbLine
 10
8964.363203276297
 20
1192.760787611756
 30
0.0
 11
8964.363203276297
 21
1201.013683635416
 31
0.0
  0
LINE
  5
1EFDA
330
747D
100
AcDbEntity
  8
部品1
100
AcDbLine
 10
8962.363203276298
 20
1205.013683635416
 30
0.0
 11
8976.363203276298
 21
1205.013683635416
 31
0.0
  0
ARC
  5
1EFDB
330
747D
100
AcDbEntity
  8
部品1
100
AcDbCircle
 10
8969.363203276298
 20
1147.672154390937
 30
0.0
 40
23.33946124318486
100
AcDbArc
 50
64.63020194521535
 51
115.3697980547846
  0
ARC
  5
1EFDC
330
747D
100
AcDbEntity
  8
部品1
100
AcDbCircle
 10
8984.363203276299
 20
1164.246032821438
 30
0.0
 40
6.736691384996243
100
AcDbArc
 50
42.08048849858776
 51
137.9195115014122
  0
ARC
  5
1EFDD
330
747D
100
AcDbEntity
  8
部品1
100
AcDbCircle
 10
8954.363203276299
 20
1164.246032821438
 30
0.0
 40
6.736691384996243
100
AcDbArc
 50
42.08048849858776
 51
137.9195115014122
  0
LINE
  5
1EFDE
330
747D
100
AcDbEntity
  8
部品1
100
AcDbLine
 10
8949.363203276298
 20
1168.760787611756
 30
0.0
 11
8989.363203276298
 21
1168.760787611756
 31
0.0
  0
LINE
  5
1EFDF
330
747D
100
AcDbEntity
  8
部品1
100
AcDbLine
 10
8979.363203276298
 20
1173.160787611758
 30
0.0
 11
8984.363203276299
 21
1173.160787611758
 31
0.0
  0
LINE
  5
1EFE0
330
747D
100
AcDbEntity
  8
部品1
100
AcDbLine
 10
8999.363203276299
 20
1152.760787611754
 30
0.0
 11
8999.363203276299
 21
1155.760787611763
 31
0.0
  0
LINE
  5
1EFE1
330
747D
100
AcDbEntity
  8
部品1
100
AcDbLine
 10
8939.363203276299
 20
1152.760787611754
 30
0.0
 11
8939.363203276299
 21
1155.760787611754
 31
0.0
  0
LINE
  5
1EFE2
330
747D
100
AcDbEntity
  8
部品1
100
AcDbLine
 10
8986.363203276297
 20
1171.760787611756
 30
0.0
 11
8989.363203276298
 21
1168.760787611756
 31
0.0
  0
LINE
  5
1EFE3
330
747D
100
AcDbEntity
  8
部品1
100
AcDbLine
 10
8952.363203276297
 20
1171.760787611756
 30
0.0
 11
8949.363203276298
 21
1168.760787611756
 31
0.0
  0
LINE
  5
1EFE4
330
747D
100
AcDbEntity
  8
部品1
100
AcDbLine
 10
8989.363203276298
 20
1155.76078761176
 30
0.0
 11
8989.363203276298
 21
1168.760787611756
 31
0.0
  0
LINE
  5
1EFE5
330
747D
100
AcDbEntity
  8
部品1
100
AcDbLine
 10
8949.363203276298
 20
1155.760787611754
 30
0.0
 11
8949.363203276298
 21
1168.760787611756
 31
0.0
  0
LINE
  5
1EFE6
330
747D
100
AcDbEntity
  8
部品1
100
AcDbLine
 10
8952.363203276297
 20
1171.760787611756
 30
0.0
 11
8986.363203276297
 21
1171.760787611756
 31
0.0
  0
LINE
  5
1EFE7
330
747D
100
AcDbEntity
  8
部品1
100
AcDbLine
 10
8979.363203276298
 20
1155.760787611754
 30
0.0
 11
8979.363203276298
 21
1192.760787611756
 31
0.0
  0
LINE
  5
1EFE8
330
747D
100
AcDbEntity
  8
部品1
100
AcDbLine
 10
8959.363203276298
 20
1155.760787611754
 30
0.0
 11
8959.363203276298
 21
1192.760787611756
 31
0.0
  0
LINE
  5
1EFE9
330
747D
100
AcDbEntity
  8
部品1
100
AcDbLine
 10
8959.363203276298
 20
1192.760787611756
 30
0.0
 11
8979.363203276298
 21
1192.760787611756
 31
0.0
  0
LINE
  5
1EFEA
330
747D
100
AcDbEntity
  8
部品1
100
AcDbLine
 10
8939.363203276299
 20
1155.760787611754
 30
0.0
 11
8999.363203276299
 21
1155.76078761176
 31
0.0
  0
LINE
  5
1EFEB
330
747D
100
AcDbEntity
  8
部品1
100
AcDbLine
 10
8984.363203276299
 20
1173.160787611752
 30
0.0
 11
8984.363203276299
 21
1171.760787611756
 31
0.0
  0
LINE
  5
1EFEC
330
747D
100
AcDbEntity
  8
部品1
100
AcDbLine
 10
8984.363203276299
 20
1213.160787611754
 30
0.0
 11
8984.363203276299
 21
1207.160787611754
 31
0.0
  0
LINE
  5
1EFED
330
747D
100
AcDbEntity
  8
部品1
100
AcDbLine
 10
9039.363203276298
 20
1152.760787611754
 30
0.0
 11
9039.363203276298
 21
1140.760787611754
 31
0.0
  0
LINE
  5
1EFEE
330
747D
100
AcDbEntity
  8
部品1
100
AcDbLine
 10
8954.363203276299
 20
1173.160787611758
 30
0.0
 11
8954.363203276299
 21
1171.760787611756
 31
0.0
  0
LINE
  5
1EFEF
330
747D
100
AcDbEntity
  8
部品1
100
AcDbLine
 10
8954.363203276299
 20
1213.160787611758
 30
0.0
 11
8954.363203276299
 21
1207.160787611758
 31
0.0
  0
LINE
  5
1EFF0
330
747D
100
AcDbEntity
  8
部品1
100
AcDbLine
 10
8954.363203276299
 20
1173.160787611758
 30
0.0
 11
8959.363203276298
 21
1173.160787611758
 31
0.0
  0
LINE
  5
1EFF1
330
747D
100
AcDbEntity
  8
部品1
100
AcDbLine
 10
8954.363203276299
 20
1213.160787611758
 30
0.0
 11
8984.363203276299
 21
1213.160787611758
 31
0.0
  0
LINE
  5
1EFF2
330
747D
100
AcDbEntity
  8
部品1
100
AcDbLine
 10
8954.363203276299
 20
1207.160787611758
 30
0.0
 11
8984.363203276299
 21
1207.160787611758
 31
0.0
  0
LINE
  5
1EFF3
330
747D
100
AcDbEntity
  8
部品1
100
AcDbLine
 10
8899.363203276299
 20
1152.760787611754
 30
0.0
 11
8899.363203276299
 21
1140.760787611754
 31
0.0
  0
LINE
  5
1EFF4
330
747D
100
AcDbEntity
  8
部品1
100
AcDbLine
 10
8899.363203276299
 20
1140.760787611754
 30
0.0
 11
9039.363203276298
 21
1140.760787611754
 31
0.0
  0
LINE
  5
1EFF5
330
747D
100
AcDbEntity
  8
部品1
100
AcDbLine
 10
8899.363203276299
 20
1152.760787611754
 30
0.0
 11
9039.363203276298
 21
1152.760787611754
 31
0.0
  0
LINE
  5
1EFF6
330
747D
100
AcDbEntity
  8
部品1
100
AcDbLine
 10
8928.46643426823
 20
1437.751248310656
 30
0.0
 11
8899.363203276299
 21
1152.760787611754
 31
0.0
  0
LINE
  5
1EFF7
330
747D
100
AcDbEntity
  8
部品1
100
AcDbLine
 10
9010.259972284373
 20
1437.751248310656
 30
0.0
 11
9039.363203276298
 21
1152.760787611754
 31
0.0
  0
LINE
  5
1EFF8
330
747D
100
AcDbEntity
  8
細線
100
AcDbLine
 10
8904.248941633218
 20
1200.603888797927
 30
0.0
 11
8764.092042819386
 21
1340.760787611754
 31
0.0
  0
LINE
  5
1EFF9
330
747D
100
AcDbEntity
  8
細線
100
AcDbLine
 10
8900.317804039579
 20
1162.10861952037
 30
0.0
 11
8721.665635948193
 21
1340.760787611754
 31
0.0
  0
LINE
  5
1EFFA
330
747D
100
AcDbEntity
  8
細線
 48
10.0
100
AcDbLine
 10
8294.108770032709
 20
1074.769071004164
 30
0.0
 11
8360.100486640295
 21
1140.760787611754
 31
0.0
  0
LINE
  5
1EFFB
330
747D
100
AcDbEntity
  8
細線
 48
10.0
100
AcDbLine
 10
8294.108770032709
 20
1046.484799756705
 30
0.0
 11
8388.384757887747
 21
1140.760787611754
 31
0.0
  0
LINE
  5
1EFFC
330
747D
100
AcDbEntity
  8
細線
 48
10.0
100
AcDbLine
 10
8294.108770032705
 20
1103.05334225162
 30
0.0
 11
8331.816215392843
 21
1140.760787611754
 31
0.0
  0
LINE
  5
1EFFD
330
747D
100
AcDbEntity
  8
部品1
100
AcDbLine
 10
8609.363203276299
 20
1140.760787611754
 30
0.0
 11
8609.363203276299
 21
1340.760787611756
 31
0.0
  0
LINE
  5
1EFFE
330
747D
100
AcDbEntity
  8
細線
100
AcDbLine
 10
8737.81787283969
 20
1140.760787611754
 30
0.0
 11
8609.363203276299
 21
1269.215457175147
 31
0.0
  0
LINE
  5
1EFFF
330
747D
100
AcDbEntity
  8
細線
100
AcDbLine
 10
8695.391465968496
 20
1140.760787611754
 30
0.0
 11
8609.363203276299
 21
1226.789050303954
 31
0.0
  0
LINE
  5
1F000
330
747D
100
AcDbEntity
  8
部品1
100
AcDbLine
 10
8294.108770032705
 20
1434.760787611758
 30
0.0
 11
8928.161048367662
 21
1434.760787611758
 31
0.0
  0
LINE
  5
1F001
330
747D
100
AcDbEntity
  8
部品1
100
AcDbLine
 10
8294.108770032705
 20
1440.760787611758
 30
0.0
 11
8899.363203276301
 21
1440.760787611756
 31
0.0
  0
LINE
  5
1F002
330
747D
100
AcDbEntity
  8
部品1
100
AcDbLine
 10
8294.108770032705
 20
1340.760787611756
 30
0.0
 11
8918.561766670544
 21
1340.760787611756
 31
0.0
  0
LINE
  5
1F003
330
747D
100
AcDbEntity
  8
細線
 48
10.0
100
AcDbLine
 10
8508.124949401326
 20
833.8425902724702
 30
0.0
 11
8815.043146740586
 21
1140.760787611754
 31
0.0
  0
LINE
  5
1F004
330
747D
100
AcDbEntity
  8
細線
 48
10.0
100
AcDbLine
 10
8451.556406906403
 20
833.8425902724702
 30
0.0
 11
8758.474604245678
 21
1140.760787611754
 31
0.0
  0
LINE
  5
1F005
330
747D
100
AcDbEntity
  8
細線
 48
10.0
100
AcDbLine
 10
8479.840678153866
 20
833.8425902724702
 30
0.0
 11
8786.758875493134
 21
1140.760787611754
 31
0.0
  0
LINE
  5
1F006
330
747D
100
AcDbEntity
  8
Ｇ．Ｌ
100
AcDbLine
 10
8294.108770032709
 20
1140.760787611754
 30
0.0
 11
9758.144008796989
 21
1140.760787611754
 31
0.0
  0
DIMENSION
  5
1F007
330
747D
100
AcDbEntity
  8
寸法
 48
50.0
100
AcDbDimension
  2
*D43
 10
9242.127213844709
 20
1140.760787611754
 30
0.0
 11
9142.127213844707
 21
1240.760787611757
 31
0.0
 70
    32
  1
b
 71
     5
 42
200.0000000000018
  3
INABA_S40G
100
AcDbAlignedDimension
 13
9019.913966381807
 23
1340.760787611756
 33
0.0
 14
9039.363203276298
 24
1140.760787611754
 34
0.0
 50
90.0
100
AcDbRotatedDimension
1001
ACAD
1000
DSTYLE
1002
{
1070
   174
1070
     0
1070
   272
1070
     1
1070
   288
1070
     0
1070
   341
1005
0
1002
}
  0
LINE
  5
1F008
330
747D
100
AcDbEntity
  8
細線
 48
10.0
100
AcDbLine
 10
8934.783338254147
 20
833.8425902724702
 30
0.0
 11
9241.701535593426
 21
1140.760787611754
 31
0.0
  0
LINE
  5
1F009
330
747D
100
AcDbEntity
  8
細線
 48
10.0
100
AcDbLine
 10
8878.214795759229
 20
833.8425902724702
 30
0.0
 11
9185.132993098502
 21
1140.760787611754
 31
0.0
  0
LINE
  5
1F00A
330
747D
100
AcDbEntity
  8
細線
 48
10.0
100
AcDbLine
 10
8906.499067006688
 20
833.8425902724702
 30
0.0
 11
9213.417264345961
 21
1140.760787611754
 31
0.0
  0
LINE
  5
1F00B
330
747D
100
AcDbEntity
  8
部品1
 48
50.0
100
AcDbLine
 10
9823.599999999998
 20
2120.0
 30
0.0
 11
9823.599999999998
 21
200.0
 31
0.0
  0
LINE
  5
1F00C
330
747D
100
AcDbEntity
  8
部品1
100
AcDbLine
 10
9009.363203276301
 20
1940.760787611754
 30
0.0
 11
9009.363203276306
 21
1441.006256599761
 31
0.0
  0
LINE
  5
1F00D
330
747D
100
AcDbEntity
  8
細線
 48
50.0
100
AcDbLine
 10
8464.363203276297
 20
1940.760787611754
 30
0.0
 11
8464.363203276297
 21
1440.760787611756
 31
0.0
  0
LINE
  5
1F00E
330
747D
100
AcDbEntity
  8
細線
 48
50.0
100
AcDbLine
 10
8494.363203276298
 20
1940.760787611754
 30
0.0
 11
8494.363203276298
 21
1440.760787611756
 31
0.0
  0
LINE
  5
1F00F
330
747D
100
AcDbEntity
  8
細線
 48
50.0
100
AcDbLine
 10
8744.363203276298
 20
1940.760787611754
 30
0.0
 11
8744.363203276298
 21
1440.760787611756
 31
0.0
  0
LINE
  5
1F010
330
747D
100
AcDbEntity
  8
細線
 48
50.0
100
AcDbLine
 10
8774.363203276299
 20
1940.760787611754
 30
0.0
 11
8774.363203276299
 21
1440.760787611756
 31
0.0
  0
LINE
  5
1F011
330
747D
100
AcDbEntity
  8
部品1
100
AcDbLine
 10
8899.363203276301
 20
1940.760787611754
 30
0.0
 11
8899.363203276307
 21
1434.760787611758
 31
0.0
  0
LINE
  5
1F012
330
747D
100
AcDbEntity
  8
細線
 48
50.0
100
AcDbLine
 10
10284.69580798928
 20
2040.760787611753
 30
0.0
 11
10284.69580798928
 21
1540.760787611756
 31
0.0
  0
LINE
  5
1F013
330
747D
100
AcDbEntity
  8
細線
 48
50.0
100
AcDbLine
 10
10254.69580798928
 20
2040.760787611753
 30
0.0
 11
10254.69580798928
 21
1540.760787611756
 31
0.0
  0
LINE
  5
1F014
330
747D
100
AcDbEntity
  8
細線
 48
50.0
100
AcDbLine
 10
10004.69580798928
 20
2040.760787611753
 30
0.0
 11
10004.69580798928
 21
1540.760787611756
 31
0.0
  0
LINE
  5
1F015
330
747D
100
AcDbEntity
  8
細線
 48
50.0
100
AcDbLine
 10
9974.695807989279
 20
2040.760787611753
 30
0.0
 11
9974.695807989279
 21
1540.760787611756
 31
0.0
  0
LINE
  5
1F016
330
747D
100
AcDbEntity
  8
部品1
100
AcDbLine
 10
10519.69580798928
 20
2040.760787611753
 30
0.0
 11
10519.69580798928
 21
1541.006256599761
 31
0.0
  0
LINE
  5
1F017
330
747D
100
AcDbEntity
  8
部品1
100
AcDbLine
 10
10409.69580798928
 20
2040.760787611753
 30
0.0
 11
10409.69580798928
 21
1534.760787611756
 31
0.0
  0
LINE
  5
1F018
330
747D
100
AcDbEntity
  8
Ｇ．Ｌ
100
AcDbLine
 10
9896.898411190573
 20
1140.760787611754
 30
0.0
 11
11341.79011319572
 21
1140.760787611754
 31
0.0
  0
LINE
  5
1F019
330
747D
100
AcDbEntity
  8
細線
 48
10.0
100
AcDbLine
 10
10933.918955133
 20
833.8425902724702
 30
0.0
 11
11240.83715247228
 21
1140.760787611754
 31
0.0
  0
LINE
  5
1F01A
330
747D
100
AcDbEntity
  8
細線
 48
10.0
100
AcDbLine
 10
10962.20322638046
 20
833.8425902724702
 30
0.0
 11
11269.12142371973
 21
1140.760787611754
 31
0.0
  0
LINE
  5
1F01B
330
747D
100
AcDbEntity
  8
細線
 48
10.0
100
AcDbLine
 10
10990.48749762792
 20
833.8425902724702
 30
0.0
 11
11297.40569496721
 21
1140.760787611754
 31
0.0
  0
TEXT
  5
1F01C
330
747D
100
AcDbEntity
  8
部品1
100
AcDbText
 10
10969.76604264107
 20
1148.666829290658
 30
0.0
 40
120.0
  1
▽G.L
  7
STYLE1
100
AcDbText
  0
TEXT
  5
1F01D
330
747D
100
AcDbEntity
  8
部品1
100
AcDbText
 10
6835.753361438569
 20
2178.285116341204
 30
0.0
 40
120.0
  1
地盤が土の場合
  7
STYLE2
100
AcDbText
  0
CIRCLE
  5
1F01E
330
747D
100
AcDbEntity
  8
部品1
100
AcDbCircle
 10
7366.307702263199
 20
1384.760787611754
 30
0.0
 40
16.0
  0
ARC
  5
1F01F
330
747D
100
AcDbEntity
  8
部品1
100
AcDbCircle
 10
7396.307702263199
 20
1404.760787611754
 30
0.0
 40
10.0
100
AcDbArc
 50
0.0
 51
90.0
  0
LINE
  5
1F020
330
747D
100
AcDbEntity
  8
細線
100
AcDbLine
 10
7374.307702263199
 20
1354.760787611754
 30
0.0
 11
7374.307702263199
 21
1314.760787611754
 31
0.0
  0
LINE
  5
1F021
330
747D
100
AcDbEntity
  8
細線
100
AcDbLine
 10
7358.307702263198
 20
1354.760787611754
 30
0.0
 11
7358.307702263198
 21
1314.760787611754
 31
0.0
  0
ARC
  5
1F022
330
747D
100
AcDbEntity
  8
細線
100
AcDbCircle
 10
7366.307702263199
 20
1314.760787611754
 30
0.0
 40
8.0
100
AcDbArc
 50
180.0
 51
0.0
  0
ARC
  5
1F023
330
747D
100
AcDbEntity
  8
細線
100
AcDbCircle
 10
7366.307702263199
 20
1354.760787611754
 30
0.0
 40
8.0
100
AcDbArc
 50
0.0
 51
180.0
  0
ARC
  5
1F024
330
747D
100
AcDbEntity
  8
部品1
100
AcDbCircle
 10
7336.307702263198
 20
1404.760787611754
 30
0.0
 40
10.0
100
AcDbArc
 50
90.0
 51
180.0
  0
LINE
  5
1F025
330
747D
100
AcDbEntity
  8
部品1
100
AcDbLine
 10
7336.307702263198
 20
1414.760787611754
 30
0.0
 11
7396.307702263199
 21
1414.760787611754
 31
0.0
  0
LINE
  5
1F026
330
747D
100
AcDbEntity
  8
細線
100
AcDbLine
 10
7358.307702263198
 20
1075.904381151204
 30
0.0
 11
7358.307702263198
 21
1050.16078761175
 31
0.0
  0
LINE
  5
1F027
330
747D
100
AcDbEntity
  8
細線
100
AcDbLine
 10
7374.307702263199
 20
1075.904381151204
 30
0.0
 11
7374.307702263199
 21
1050.16078761175
 31
0.0
  0
LINE
  5
1F028
330
747D
100
AcDbEntity
  8
細線
100
AcDbLine
 10
7380.307702263199
 20
1020.160787611756
 30
0.0
 11
7381.307702263199
 21
1020.160787611752
 31
0.0
  0
LINE
  5
1F029
330
747D
100
AcDbEntity
  8
細線
100
AcDbLine
 10
7381.307702263199
 20
1026.16078761175
 30
0.0
 11
7381.307702263199
 21
1020.16078761175
 31
0.0
  0
ARC
  5
1F02A
330
747D
100
AcDbEntity
  8
細線
100
AcDbCircle
 10
7374.184596637585
 20
1012.160787611748
 30
0.0
 40
4.0
100
AcDbArc
 50
270.0
 51
345.9637565320584
  0
LINE
  5
1F02B
330
747D
100
AcDbEntity
  8
細線
100
AcDbLine
 10
7380.307702263199
 20
1020.16078761175
 30
0.0
 11
7378.06516663816
 21
1011.190645111601
 31
0.0
  0
LINE
  5
1F02C
330
747D
100
AcDbEntity
  8
細線
100
AcDbLine
 10
7380.307702263199
 20
1024.760787611751
 30
0.0
 11
7380.307702263199
 21
1020.160787611752
 31
0.0
  0
ARC
  5
1F02D
330
747D
100
AcDbEntity
  8
細線
100
AcDbCircle
 10
7358.430807888821
 20
1012.160787611747
 30
0.0
 40
4.0
100
AcDbArc
 50
194.0362434679415
 51
270.0
  0
LINE
  5
1F02E
330
747D
100
AcDbEntity
  8
細線
100
AcDbLine
 10
7352.3077022632
 20
1020.16078761175
 30
0.0
 11
7354.550237888237
 21
1011.190645111601
 31
0.0
  0
LINE
  5
1F02F
330
747D
100
AcDbEntity
  8
細線
100
AcDbLine
 10
7352.3077022632
 20
1024.760787611749
 30
0.0
 11
7352.3077022632
 21
1020.160787611752
 31
0.0
  0
LINE
  5
1F030
330
747D
100
AcDbEntity
  8
細線
100
AcDbLine
 10
7358.430807888821
 20
1008.160787611745
 30
0.0
 11
7374.184596637585
 21
1008.16078761175
 31
0.0
  0
LINE
  5
1F031
330
747D
100
AcDbEntity
  8
細線
100
AcDbLine
 10
7351.307702263198
 20
1024.760787611749
 30
0.0
 11
7381.307702263199
 21
1024.760787611754
 31
0.0
  0
LINE
  5
1F032
330
747D
100
AcDbEntity
  8
細線
100
AcDbLine
 10
7351.307702263198
 20
1026.160787611756
 30
0.0
 11
7351.307702263198
 21
1020.160787611752
 31
0.0
  0
ARC
  5
1F033
330
747D
100
AcDbEntity
  8
細線
100
AcDbCircle
 10
7366.307702263199
 20
1050.16078761175
 30
0.0
 40
8.0
100
AcDbArc
 50
180.0
 51
0.0
  0
LINE
  5
1F034
330
747D
100
AcDbEntity
  8
細線
100
AcDbLine
 10
7351.307702263198
 20
1026.160787611756
 30
0.0
 11
7381.307702263199
 21
1026.160787611752
 31
0.0
  0
LINE
  5
1F035
330
747D
100
AcDbEntity
  8
細線
100
AcDbLine
 10
7351.307702263198
 20
1020.160787611756
 30
0.0
 11
7352.3077022632
 21
1020.160787611756
 31
0.0
  0
CIRCLE
  5
1F036
330
747D
100
AcDbEntity
  8
細線
100
AcDbCircle
 10
7366.307702263199
 20
1089.760787611754
 30
0.0
 40
16.0
  0
CIRCLE
  5
1F037
330
747D
100
AcDbEntity
  8
細線
100
AcDbCircle
 10
7366.307702263199
 20
1244.760787611756
 30
0.0
 40
7.0
  0
CIRCLE
  5
1F038
330
747D
100
AcDbEntity
  8
細線
100
AcDbCircle
 10
7366.307702263199
 20
1244.760787611756
 30
0.0
 40
6.0
  0
ARC
  5
1F039
330
747D
100
AcDbEntity
  8
部品1
100
AcDbCircle
 10
7397.253642782955
 20
1102.160787611748
 30
0.0
 40
10.0
100
AcDbArc
 50
5.684241598181141
 51
90.0
  0
LINE
  5
1F03A
330
747D
100
AcDbEntity
  8
細線
  6
HIDDEN
 48
10.0
100
AcDbLine
 10
7406.855147920087
 20
1104.955621972072
 30
0.0
 11
7442.660313559769
 21
1140.760787611756
 31
0.0
  0
LINE
  5
1F03B
330
747D
100
AcDbEntity
  8
細線
  6
HIDDEN
 48
10.0
100
AcDbLine
 10
7406.307702263198
 20
1132.692447562642
 30
0.0
 11
7414.376042312312
 21
1140.760787611754
 31
0.0
  0
ARC
  5
1F03C
330
747D
100
AcDbEntity
  8
部品1
100
AcDbCircle
 10
7335.361761743444
 20
1102.160787611752
 30
0.0
 40
10.0
100
AcDbArc
 50
90.0
 51
174.3157584018188
  0
LINE
  5
1F03D
330
747D
100
AcDbEntity
  8
部品1
100
AcDbLine
 10
7335.361761743444
 20
1112.160787611754
 30
0.0
 11
7397.253642782955
 21
1112.160787611748
 31
0.0
  0
LINE
  5
1F03E
330
747D
100
AcDbEntity
  8
部品1
100
AcDbLine
 10
7326.307702263199
 20
1404.760787611754
 30
0.0
 11
7326.307702263199
 21
1106.406256599763
 31
0.0
  0
LINE
  5
1F03F
330
747D
100
AcDbEntity
  8
部品1
100
AcDbLine
 10
7406.307702263198
 20
1403.760787611754
 30
0.0
 11
7406.307702263203
 21
1106.406256599763
 31
0.0
  0
LINE
  5
1F040
330
747D
100
AcDbEntity
  8
細線
100
AcDbLine
 10
7326.307702263199
 20
1175.489627154842
 30
0.0
 11
7161.036541806287
 21
1340.760787611754
 31
0.0
  0
LINE
  5
1F041
330
747D
100
AcDbEntity
  8
細線
100
AcDbLine
 10
7092.335964955397
 20
1140.760787611754
 30
0.0
 11
7006.307702263199
 21
1226.789050303954
 31
0.0
  0
LINE
  5
1F042
330
747D
100
AcDbEntity
  8
部品1
100
AcDbLine
 10
7006.307702263199
 20
1140.760787611754
 30
0.0
 11
7006.307702263199
 21
1340.760787611754
 31
0.0
  0
LINE
  5
1F043
330
747D
100
AcDbEntity
  8
細線
100
AcDbLine
 10
7318.610134935093
 20
1140.760787611754
 30
0.0
 11
7118.610134935093
 21
1340.760787611754
 31
0.0
  0
LINE
  5
1F044
330
747D
100
AcDbEntity
  8
細線
100
AcDbLine
 10
7134.762371826589
 20
1140.760787611754
 30
0.0
 11
7006.307702263199
 21
1269.215457175147
 31
0.0
  0
LINE
  5
1F045
330
747D
100
AcDbEntity
  8
部品1
100
AcDbLine
 10
7436.307702263198
 20
818.160787611754
 30
0.0
 11
7436.307702263198
 21
806.1607876117541
 31
0.0
  0
LINE
  5
1F046
330
747D
100
AcDbEntity
  8
細線
100
AcDbLine
 10
7381.307702263199
 20
876.1607876117487
 30
0.0
 11
7381.307702263199
 21
870.1607876117487
 31
0.0
  0
LINE
  5
1F047
330
747D
100
AcDbEntity
  8
細線
100
AcDbLine
 10
7381.307702263199
 20
836.1607876117505
 30
0.0
 11
7381.307702263199
 21
830.1607876117504
 31
0.0
  0
LINE
  5
1F048
330
747D
100
AcDbEntity
  8
細線
100
AcDbLine
 10
7351.307702263198
 20
876.1607876117578
 30
0.0
 11
7351.307702263198
 21
870.1607876117522
 31
0.0
  0
LINE
  5
1F049
330
747D
100
AcDbEntity
  8
細線
100
AcDbLine
 10
7351.307702263198
 20
836.160787611756
 30
0.0
 11
7351.307702263198
 21
830.1607876117524
 31
0.0
  0
LINE
  5
1F04A
330
747D
100
AcDbEntity
  8
細線
100
AcDbLine
 10
7351.307702263198
 20
870.1607876117577
 30
0.0
 11
7381.307702263199
 21
870.1607876117522
 31
0.0
  0
LINE
  5
1F04B
330
747D
100
AcDbEntity
  8
細線
100
AcDbLine
 10
7351.307702263198
 20
876.1607876117578
 30
0.0
 11
7381.307702263199
 21
876.1607876117523
 31
0.0
  0
LINE
  5
1F04C
330
747D
100
AcDbEntity
  8
細線
100
AcDbLine
 10
7351.307702263198
 20
836.160787611756
 30
0.0
 11
7381.307702263199
 21
836.1607876117522
 31
0.0
  0
LINE
  5
1F04D
330
747D
100
AcDbEntity
  8
細線
100
AcDbLine
 10
7351.307702263198
 20
830.1607876117559
 30
0.0
 11
7381.307702263199
 21
830.1607876117524
 31
0.0
  0
LINE
  5
1F04E
330
747D
100
AcDbEntity
  8
部品1
100
AcDbLine
 10
7296.307702263199
 20
818.1607876117523
 30
0.0
 11
7296.307702263199
 21
806.1607876117541
 31
0.0
  0
LINE
  5
1F04F
330
747D
100
AcDbEntity
  8
部品1
100
AcDbLine
 10
7296.307702263199
 20
806.1607876117541
 30
0.0
 11
7436.307702263198
 21
806.1607876117541
 31
0.0
  0
LINE
  5
1F050
330
747D
100
AcDbEntity
  8
部品1
100
AcDbLine
 10
7296.307702263199
 20
818.160787611754
 30
0.0
 11
7436.307702263198
 21
818.160787611754
 31
0.0
  0
LINE
  5
1F051
330
747D
100
AcDbEntity
  8
部品1
100
AcDbLine
 10
7407.204471271274
 20
1103.151248310656
 30
0.0
 11
7436.307702263198
 21
818.160787611754
 31
0.0
  0
LINE
  5
1F052
330
747D
100
AcDbEntity
  8
部品1
100
AcDbLine
 10
7325.410933255131
 20
1103.151248310656
 30
0.0
 11
7296.307702263199
 21
818.160787611754
 31
0.0
  0
LINE
  5
1F053
330
747D
100
AcDbEntity
  8
細線
  6
HIDDEN
 48
10.0
100
AcDbLine
 10
7156.3077022632
 20
854.408176315168
 30
0.0
 11
7316.353128019823
 21
1014.453602071808
 31
0.0
  0
LINE
  5
1F054
330
747D
100
AcDbEntity
  8
細線
  6
HIDDEN
 48
10.0
100
AcDbLine
 10
7156.307702263198
 20
910.9767188100905
 30
0.0
 11
7322.786928413036
 21
1077.455944959931
 31
0.0
  0
LINE
  5
1F055
330
747D
100
AcDbEntity
  8
細線
  6
HIDDEN
 48
10.0
100
AcDbLine
 10
7156.3077022632
 20
882.6924475626292
 30
0.0
 11
7319.570028216432
 21
1045.954773515872
 31
0.0
  0
LINE
  5
1F056
330
747D
100
AcDbEntity
  8
Ｇ．Ｌ
100
AcDbLine
 10
7406.307702263198
 20
1140.760787611754
 30
0.0
 11
8158.403944501536
 21
1140.760787611754
 31
0.0
  0
LINE
  5
1F057
330
747D
100
AcDbEntity
  8
細線
  6
HIDDEN
 48
10.0
100
AcDbLine
 10
7469.318702412616
 20
740.7607876117562
 30
0.0
 11
7556.307702263199
 21
827.7497874623396
 31
0.0
  0
LINE
  5
1F058
330
747D
100
AcDbEntity
  8
細線
  6
HIDDEN
 48
10.0
100
AcDbLine
 10
7412.750159917694
 20
740.7607876117554
 30
0.0
 11
7556.307702263199
 21
884.3183299572638
 31
0.0
  0
LINE
  5
1F059
330
747D
100
AcDbEntity
  8
細線
  6
HIDDEN
 48
10.0
100
AcDbLine
 10
7441.034431165156
 20
740.7607876117562
 30
0.0
 11
7556.307702263199
 21
856.0340587098036
 31
0.0
  0
TEXT
  5
1F05A
330
747D
100
AcDbEntity
  8
部品1
100
AcDbText
 10
7790.871249332809
 20
1148.666829290658
 30
0.0
 40
120.0
  1
▽G.L
  7
STYLE1
100
AcDbText
  0
LINE
  5
1F05B
330
747D
100
AcDbEntity
  8
細線
100
AcDbLine
 10
5875.268669817335
 20
1040.760787611754
 30
0.0
 11
5861.871210195779
 21
990.7607876117562
 31
0.0
  0
LINE
  5
1F05C
330
747D
100
AcDbEntity
  8
細線
100
AcDbLine
 10
5975.268669817339
 20
1040.760787611754
 30
0.0
 11
5961.871210195779
 21
990.7607876117562
 31
0.0
  0
LINE
  5
1F05D
330
747D
100
AcDbEntity
  8
細線
100
AcDbLine
 10
5847.370780282254
 20
1040.760787611754
 30
0.0
 11
5947.37078028225
 21
1140.760787611756
 31
0.0
  0
LINE
  5
1F05E
330
747D
100
AcDbEntity
  8
細線
100
AcDbLine
 10
5875.655051529713
 20
1040.760787611754
 30
0.0
 11
5975.655051529713
 21
1140.760787611756
 31
0.0
  0
LINE
  5
1F05F
330
747D
100
AcDbEntity
  8
部品1
100
AcDbLine
 10
5948.473750574223
 20
1340.760787611754
 30
0.0
 11
5948.473750574223
 21
1140.760787611756
 31
0.0
  0
TEXT
  5
1F060
330
747D
100
AcDbEntity
  8
部品1
100
AcDbText
 10
6171.726376441653
 20
1148.66682929066
 30
0.0
 40
120.0
  1
▽G.L
  7
STYLE1
100
AcDbText
  0
LINE
  5
1F061
330
747D
100
AcDbEntity
  8
細線
100
AcDbLine
 10
5888.666129438894
 20
890.7607876117545
 30
0.0
 11
5875.268669817335
 21
840.7607876117545
 31
0.0
  0
LINE
  5
1F062
330
747D
100
AcDbEntity
  8
細線
100
AcDbLine
 10
5988.66612943889
 20
890.7607876117545
 30
0.0
 11
5975.268669817339
 21
840.7607876117545
 31
0.0
  0
LINE
  5
1F063
330
747D
100
AcDbEntity
  8
部品1
100
AcDbLine
 10
6048.473750574223
 20
1140.760787611756
 30
0.0
 11
6048.473750574223
 21
840.7607876117545
 31
0.0
  0
LINE
  5
1F064
330
747D
100
AcDbEntity
  8
細線
100
AcDbLine
 10
5848.473750574227
 20
1040.760787611754
 30
0.0
 11
5902.063589060446
 21
840.7607876117507
 31
0.0
  0
LINE
  5
1F065
330
747D
100
AcDbEntity
  8
細線
100
AcDbLine
 10
5948.473750574223
 20
1040.760787611754
 30
0.0
 11
6002.063589060447
 21
840.7607876117545
 31
0.0
  0
LINE
  5
1F066
330
747D
100
AcDbEntity
  8
部品1
100
AcDbLine
 10
6691.053269019604
 20
1440.760787611756
 30
0.0
 11
7296.307702263199
 21
1440.760787611754
 31
0.0
  0
LINE
  5
1F067
330
747D
100
AcDbEntity
  8
部品1
100
AcDbLine
 10
6691.053269019604
 20
1340.760787611754
 30
0.0
 11
7326.307702263199
 21
1340.760787611754
 31
0.0
  0
LINE
  5
1F068
330
747D
100
AcDbEntity
  8
Ｇ．Ｌ
100
AcDbLine
 10
6691.053269019604
 20
1140.760787611754
 30
0.0
 11
7326.307702263199
 21
1140.760787611754
 31
0.0
  0
DIMENSION
  5
1F069
330
747D
100
AcDbEntity
  8
寸法
 48
50.0
100
AcDbDimension
  2
*D44
 10
6912.977955187669
 20
740.7607876117545
 30
0.0
 11
6912.977955187669
 21
928.3854207276599
 31
0.0
 70
   160
  1
200
 71
     5
 42
400.0
  3
INABA_S40G
100
AcDbAlignedDimension
 13
7006.307702263199
 23
1140.760787611754
 33
0.0
 14
7156.307702263198
 24
740.7607876117545
 34
0.0
 50
90.0
100
AcDbRotatedDimension
1001
ACAD
1000
DSTYLE
1002
{
1070
   174
1070
     0
1070
   272
1070
     1
1070
   288
1070
     0
1070
   341
1005
0
1002
}
  0
LINE
  5
1F06A
330
747D
100
AcDbEntity
  8
部品1
100
AcDbLine
 10
6691.053269019604
 20
1434.760787611754
 30
0.0
 11
7406.307702263198
 21
1434.760787611754
 31
0.0
  0
LINE
  5
1F06B
330
747D
100
AcDbEntity
  8
部品1
100
AcDbLine
 10
7296.307702263199
 20
1940.760787611752
 30
0.0
 11
7296.307702263202
 21
1434.760787611756
 31
0.0
  0
LINE
  5
1F06C
330
747D
100
AcDbEntity
  8
部品1
100
AcDbLine
 10
7406.307702263198
 20
1940.760787611752
 30
0.0
 11
7406.307702263198
 21
1140.760787611754
 31
0.0
  0
LINE
  5
1F06D
330
747D
100
AcDbEntity
  8
部品1
 48
50.0
100
AcDbLine
 10
6623.599999999999
 20
2600.0
 30
0.0
 11
6623.599999999999
 21
200.0
 31
0.0
  0
LINE
  5
1F06E
330
747D
100
AcDbEntity
  8
部品1
 48
50.0
100
AcDbLine
 10
8223.599999999999
 20
2360.0
 30
0.0
 11
8223.599999999999
 21
200.0
 31
0.0
  0
LINE
  5
1F06F
330
747D
100
AcDbEntity
  8
細線
 48
50.0
100
AcDbLine
 10
7141.307702263199
 20
1940.760787611752
 30
0.0
 11
7141.307702263199
 21
1440.760787611754
 31
0.0
  0
LINE
  5
1F070
330
747D
100
AcDbEntity
  8
細線
 48
50.0
100
AcDbLine
 10
7171.307702263199
 20
1940.760787611752
 30
0.0
 11
7171.307702263199
 21
1440.760787611754
 31
0.0
  0
LINE
  5
1F071
330
747D
100
AcDbEntity
  8
細線
 48
50.0
100
AcDbLine
 10
6891.307702263199
 20
1940.760787611752
 30
0.0
 11
6891.307702263199
 21
1440.760787611754
 31
0.0
  0
LINE
  5
1F072
330
747D
100
AcDbEntity
  8
細線
 48
50.0
100
AcDbLine
 10
6861.307702263198
 20
1940.760787611752
 30
0.0
 11
6861.307702263198
 21
1440.760787611754
 31
0.0
  0
LINE
  5
1F073
330
747D
100
AcDbEntity
  8
細線
100
AcDbLine
 10
5775.268669817335
 20
1040.760787611754
 30
0.0
 11
5761.871210195782
 21
990.7607876117562
 31
0.0
  0
LINE
  5
1F074
330
747D
100
AcDbEntity
  8
細線
100
AcDbLine
 10
5675.268669817338
 20
1040.760787611754
 30
0.0
 11
5661.871210195779
 21
990.7607876117562
 31
0.0
  0
LINE
  5
1F075
330
747D
100
AcDbEntity
  8
細線
100
AcDbLine
 10
5475.268669817335
 20
1040.760787611753
 30
0.0
 11
5461.871210195782
 21
990.7607876117507
 31
0.0
  0
LINE
  5
1F076
330
747D
100
AcDbEntity
  8
細線
100
AcDbLine
 10
5575.268669817335
 20
1040.760787611753
 30
0.0
 11
5561.871210195779
 21
990.7607876117507
 31
0.0
  0
LINE
  5
1F077
330
747D
100
AcDbEntity
  8
細線
100
AcDbLine
 10
5519.08650903479
 20
1040.760787611753
 30
0.0
 11
5619.08650903479
 21
1140.760787611756
 31
0.0
  0
LINE
  5
1F078
330
747D
100
AcDbEntity
  8
細線
100
AcDbLine
 10
5547.370780282253
 20
1040.760787611754
 30
0.0
 11
5647.37078028225
 21
1140.760787611756
 31
0.0
  0
LINE
  5
1F079
330
747D
100
AcDbEntity
  8
細線
100
AcDbLine
 10
5668.241788433686
 20
1140.760787611756
 30
0.0
 11
5548.473750574227
 21
1260.528825471216
 31
0.0
  0
LINE
  5
1F07A
330
747D
100
AcDbEntity
  8
細線
100
AcDbLine
 10
5575.655051529717
 20
1040.760787611754
 30
0.0
 11
5675.655051529713
 21
1140.760787611756
 31
0.0
  0
LINE
  5
1F07B
330
747D
100
AcDbEntity
  8
細線
100
AcDbLine
 10
5710.668195304879
 20
1140.760787611756
 30
0.0
 11
5548.473750574223
 21
1302.955232342408
 31
0.0
  0
LINE
  5
1F07C
330
747D
100
AcDbEntity
  8
部品1
100
AcDbLine
 10
5548.473750574227
 20
1140.760787611756
 30
0.0
 11
5548.473750574227
 21
1340.760787611754
 31
0.0
  0
LINE
  5
1F07D
330
747D
100
AcDbEntity
  8
細線
100
AcDbLine
 10
5788.66612943889
 20
890.7607876117545
 30
0.0
 11
5775.268669817335
 21
840.7607876117545
 31
0.0
  0
LINE
  5
1F07E
330
747D
100
AcDbEntity
  8
細線
100
AcDbLine
 10
5688.666129438891
 20
890.7607876117545
 30
0.0
 11
5675.268669817338
 21
840.7607876117545
 31
0.0
  0
LINE
  5
1F07F
330
747D
100
AcDbEntity
  8
細線
100
AcDbLine
 10
5488.66612943889
 20
890.7607876117527
 30
0.0
 11
5475.268669817335
 21
840.7607876117507
 31
0.0
  0
LINE
  5
1F080
330
747D
100
AcDbEntity
  8
細線
100
AcDbLine
 10
5588.666129438895
 20
890.7607876117527
 30
0.0
 11
5575.268669817335
 21
840.7607876117507
 31
0.0
  0
LINE
  5
1F081
330
747D
100
AcDbEntity
  8
部品1
100
AcDbLine
 10
5448.473750574223
 20
840.7607876117507
 30
0.0
 11
5448.473750574223
 21
1140.760787611756
 31
0.0
  0
LINE
  5
1F082
330
747D
100
AcDbEntity
  8
細線
100
AcDbLine
 10
5448.473750574223
 20
1040.760787611753
 30
0.0
 11
5502.06358906045
 21
840.760787611749
 31
0.0
  0
LINE
  5
1F083
330
747D
100
AcDbEntity
  8
細線
100
AcDbLine
 10
5748.473750574223
 20
1040.760787611754
 30
0.0
 11
5802.06358906045
 21
840.7607876117507
 31
0.0
  0
LINE
  5
1F084
330
747D
100
AcDbEntity
  8
細線
100
AcDbLine
 10
5648.473750574223
 20
1040.760787611754
 30
0.0
 11
5702.063589060447
 21
840.7607876117507
 31
0.0
  0
LINE
  5
1F085
330
747D
100
AcDbEntity
  8
細線
100
AcDbLine
 10
5548.473750574227
 20
1040.760787611753
 30
0.0
 11
5602.063589060446
 21
840.760787611749
 31
0.0
  0
LINE
  5
1F086
330
747D
100
AcDbEntity
  8
部品1
 48
50.0
100
AcDbLine
 10
5023.599999999999
 20
2600.0
 30
0.0
 11
5023.599999999999
 21
200.0
 31
0.0
  0
LINE
  5
1F087
330
747D
100
AcDbEntity
  8
部品1
100
AcDbLine
 10
5448.473750574223
 20
840.7607876117507
 30
0.0
 11
6048.473750574223
 21
840.7607876117545
 31
0.0
  0
LINE
  5
1F088
330
747D
100
AcDbEntity
  8
部品1
100
AcDbLine
 10
5448.473750574223
 20
1040.760787611753
 30
0.0
 11
6048.473750574223
 21
1040.760787611754
 31
0.0
  0
LINE
  5
1F089
330
747D
100
AcDbEntity
  8
部品1
100
AcDbLine
 10
5548.473750574227
 20
1340.760787611754
 30
0.0
 11
5948.473750574223
 21
1340.760787611754
 31
0.0
  0
LINE
  5
1F08A
330
747D
100
AcDbEntity
  8
Ｇ．Ｌ
100
AcDbLine
 10
5118.372744528901
 20
1140.760787611756
 30
0.0
 11
6549.266028352061
 21
1140.760787611756
 31
0.0
  0
LINE
  5
1F08B
330
747D
100
AcDbEntity
  8
細線
100
AcDbLine
 10
5936.942365284572
 20
1140.760787611756
 30
0.0
 11
5736.942365284576
 21
1340.760787611754
 31
0.0
  0
TEXT
  5
1F08C
330
747D
100
AcDbEntity
  8
部品1
100
AcDbText
 10
5489.200021004798
 20
2307.972217178321
 30
0.0
 40
120.0
  1
基礎詳細
  7
STYLE2
100
AcDbText
  0
MTEXT
  5
1F08D
102
{ACAD_REACTORS
330
1F08E
102
}
330
747D
100
AcDbEntity
  8
寸法
 62
     7
 48
50.0
100
AcDbMText
 10
5986.005607299014
 20
1638.612705420522
 30
0.0
 40
120.0
 41
1.0
 71
     4
 72
     1
  1
\A1;C.B
  7
STYLE1
 73
     1
 44
1.0
1001
ACAD
1000
MTEXTBEGIN
1070
    73
1070
     1
1070
    44
1040
1.0
1070
    74
1070
     0
1000
MTEXTEND
  0
LEADER
  5
1F08E
330
747D
100
AcDbEntity
  8
寸法
 48
50.0
100
AcDbLeader
  3
INABA_S50G
 71
     0
 73
     0
 74
     0
 75
     1
 40
120.0
 41
185.591883092037
 76
     3
 10
5748.473750574225
 20
1340.760787611754
 30
0.0
 10
5903.737333145402
 20
1553.612705420522
 30
0.0
 10
6028.737333145402
 20
1553.612705420522
 30
0.0
340
1F08D
213
67.73172584638814
223
0.0
233
0.0
1001
ACAD
1000
DSTYLE
1002
{
1070
    40
1040
1.0
1002
}
  0
LINE
  5
1F08F
330
747D
100
AcDbEntity
  8
細線
100
AcDbLine
 10
5894.515958413379
 20
1140.760787611756
 30
0.0
 11
5694.515958413383
 21
1340.760787611754
 31
0.0
  0
LINE
  5
1F090
330
747D
100
AcDbEntity
  8
細線
100
AcDbLine
 10
5819.08650903479
 20
1040.760787611754
 30
0.0
 11
5919.086509034787
 21
1140.760787611756
 31
0.0
  0
TEXT
  5
1F091
330
747D
100
AcDbEntity
  8
部品1
100
AcDbText
 10
8277.327316378691
 20
2414.063814602734
 30
0.0
 40
120.0
  1
アンカー部詳細
  7
STYLE2
100
AcDbText
  0
LINE
  5
1F092
330
747D
100
AcDbEntity
  8
部品1
 48
50.0
100
AcDbLine
 10
5023.599999999999
 20
200.0
 30
0.0
 11
11423.6
 21
200.0
 31
0.0
  0
LINE
  5
1F093
330
747D
100
AcDbEntity
  8
部品1
 48
50.0
100
AcDbLine
 10
11423.6
 20
2600.0
 30
0.0
 11
5023.599999999999
 21
2600.000000000002
 31
0.0
  0
LINE
  5
1F094
330
747D
100
AcDbEntity
  8
部品1
 48
50.0
100
AcDbLine
 10
11423.6
 20
2360.0
 30
0.0
 11
6623.599999999999
 21
2360.0
 31
0.0
  0
LINE
  5
1F095
330
747D
100
AcDbEntity
  8
部品1
 48
50.0
100
AcDbLine
 10
5023.599999999999
 20
2120.0
 30
0.0
 11
11423.6
 21
2120.0
 31
0.0
  0
ENDSEC
  0
SECTION
  2
OBJECTS
  0
DICTIONARY
  5
7471
330
0
100
AcDbDictionary
281
     1
  3
ACAD_COLOR
350
159B0
  3
ACAD_GROUP
350
7472
  3
ACAD_LAYOUT
350
159B1
  3
ACAD_MATERIAL
350
159AF
  3
ACAD_MLINESTYLE
350
7473
  3
ACAD_PLOTSETTINGS
350
159B2
  3
ACAD_PLOTSTYLENAME
350
159AD
  3
ACDBHEADERROUNDTRIPXREC
350
1F0EF
  3
AcDbVariableDictionary
350
1F0EB
  3
CONTENTDICTIONARY
350
E71C
  3
DRAWINGVARIABLESDICT
350
F3B9
  0
DICTIONARY
  5
1E749
330
7467
100
AcDbDictionary
280
     1
281
     1
  3
ACAD_LAYERSTATES
360
1E74A
  0
DICTIONARY
  5
159B0
102
{ACAD_REACTORS
330
7471
102
}
330
7471
100
AcDbDictionary
281
     1
  0
DICTIONARY
  5
7472
102
{ACAD_REACTORS
330
7471
102
}
330
7471
100
AcDbDictionary
281
     1
  3
*A1
350
1ED60
  0
DICTIONARY
  5
159B1
102
{ACAD_REACTORS
330
7471
102
}
330
7471
100
AcDbDictionary
281
     1
  3
Model
350
159B3
  3
レイアウト1
350
159B4
  0
DICTIONARY
  5
159AF
102
{ACAD_REACTORS
330
7471
102
}
330
7471
100
AcDbDictionary
281
     1
  0
DICTIONARY
  5
7473
102
{ACAD_REACTORS
330
7471
102
}
330
7471
100
AcDbDictionary
281
     1
  3
STANDARD
350
7480
  0
DICTIONARY
  5
159B2
102
{ACAD_REACTORS
330
7471
102
}
330
7471
100
AcDbDictionary
281
     1
  0
ACDBDICTIONARYWDFLT
  5
159AD
102
{ACAD_REACTORS
330
7471
102
}
330
7471
100
AcDbDictionary
281
     1
  3
Normal
350
159AE
100
AcDbDictionaryWithDefault
340
159AE
  0
DICTIONARY
  5
1F0EF
102
{ACAD_REACTORS
330
7471
102
}
330
7471
100
AcDbDictionary
281
     1
  3
COLORDICT
350
1F0F1
  3
MATERIALDICT
350
1F0F0
  0
DICTIONARY
  5
1F0EB
102
{ACAD_REACTORS
330
7471
102
}
330
7471
100
AcDbDictionary
281
     1
  3
DIMASSOC
350
1F0EC
  3
PROJECTNAME
350
1F0ED
  0
DICTIONARY
  5
E71C
102
{ACAD_REACTORS
330
7471
102
}
330
7471
100
AcDbDictionary
281
     1
  0
DICTIONARY
  5
F3B9
102
{ACAD_REACTORS
330
7471
102
}
330
7471
100
AcDbDictionary
281
     1
1001
DRAWINGVARIABLESXDATA
1000
POLARMODE
1000
1
  0
DICTIONARY
  5
1E74A
102
{ACAD_REACTORS
330
1E749
102
}
330
1E749
100
AcDbDictionary
281
     1
  0
GROUP
  5
1ED60
102
{ACAD_REACTORS
330
7472
102
}
330
7472
100
AcDbGroup
300

 70
     1
 71
     1
  0
LAYOUT
  5
159B3
102
{ACAD_XDICTIONARY
360
1F0F2
102
}
102
{ACAD_REACTORS
330
159B1
102
}
330
159B1
100
AcDbPlotSettings
  1

  2
iR C3880
  4
A3
  6

 40
5.873749732971191
 41
5.873747825622558
 42
5.873748779296875
 43
5.873748779296875
 44
296.9259948730469
 45
419.9466552734374
 46
0.0
 47
0.0
 48
0.0
 49
0.0
140
0.0
141
0.0
142
1.0
143
41.65811991999086
 70
 11952
 72
     1
 73
     1
 74
     2
  7
inabass.ctb
 75
     0
147
0.0240049239360925
148
0.0
149
0.0
100
AcDbLayout
  1
Model
 70
     1
 71
     0
 10
0.0
 20
0.0
 11
12.0
 21
9.0
 12
0.0
 22
0.0
 32
0.0
 14
0.0
 24
0.0
 34
0.0
 15
0.0
 25
0.0
 35
0.0
146
0.0
 13
0.0
 23
0.0
 33
0.0
 16
1.0
 26
0.0
 36
0.0
 17
0.0
 27
1.0
 37
0.0
 76
     0
330
747D
  0
LAYOUT
  5
159B4
102
{ACAD_XDICTIONARY
360
1F0F4
102
}
102
{ACAD_REACTORS
330
159B1
102
}
330
159B1
100
AcDbPlotSettings
  1

  2
自動 EPSON LP-8400FX (TATENO 上)
  4

  6

 40
0.0
 41
0.0
 42
0.0
 43
0.0
 44
0.0
 45
0.0
 46
0.0
 47
0.0
 48
0.0
 49
0.0
140
0.0
141
0.0
142
1.0
143
1.0
 70
   688
 72
     0
 73
     0
 74
     5
  7
inaba.ctb
 75
    16
147
1.0
148
0.0
149
0.0
100
AcDbLayout
  1
レイアウト1
 70
     0
 71
     1
 10
0.0
 20
0.0
 11
420.0
 21
297.0
 12
0.0
 22
0.0
 32
0.0
 14
1.000000000000000E+20
 24
1.000000000000000E+20
 34
1.000000000000000E+20
 15
-1.000000000000000E+20
 25
-1.000000000000000E+20
 35
-1.000000000000000E+20
146
0.0
 13
0.0
 23
0.0
 33
0.0
 16
1.0
 26
0.0
 36
0.0
 17
0.0
 27
1.0
 37
0.0
 76
     0
330
747A
  0
MLINESTYLE
  5
7480
102
{ACAD_REACTORS
330
7473
102
}
330
7473
100
AcDbMlineStyle
  2
STANDARD
 70
     0
  3

 62
     0
 51
90.0
 52
90.0
 71
     2
 49
0.5
 62
   256
  6
BYLAYER
 49
-0.5
 62
   256
  6
BYLAYER
  0
ACDBPLACEHOLDER
  5
159AE
102
{ACAD_REACTORS
330
159AD
102
}
330
159AD
  0
XRECORD
  5
1F0F1
102
{ACAD_REACTORS
330
1F0EF
102
}
330
1F0EF
100
AcDbXrecord
280
     1
340
159B0
  0
XRECORD
  5
1F0F0
102
{ACAD_REACTORS
330
1F0EF
102
}
330
1F0EF
100
AcDbXrecord
280
     1
340
159AF
  0
DICTIONARYVAR
  5
1F0EC
102
{ACAD_REACTORS
330
1F0EB
102
}
330
1F0EB
100
DictionaryVariables
280
     0
  1
1
  0
DICTIONARYVAR
  5
1F0ED
102
{ACAD_REACTORS
330
1F0EB
102
}
330
1F0EB
100
DictionaryVariables
280
     0
  1

  0
DICTIONARY
  5
1F0F2
330
159B3
100
AcDbDictionary
280
     1
281
     1
  3
ACAD_XREC_ROUNDTRIP
360
1F0F3
  0
DICTIONARY
  5
1F0F4
330
159B4
100
AcDbDictionary
280
     1
281
     1
  3
ACAD_XREC_ROUNDTRIP
360
1F0F5
  0
XRECORD
  5
1F0F3
102
{ACAD_REACTORS
330
1F0F2
102
}
330
1F0F2
100
AcDbXrecord
280
     1
102
SHADEPLOT
 70
     1
102
SHADEPLOTRESLEVEL
 70
     2
102
SHADEPLOTCUSTOMDPI
 70
   300
  0
XRECORD
  5
1F0F5
102
{ACAD_REACTORS
330
1F0F4
102
}
330
1F0F4
100
AcDbXrecord
280
     1
102
SHADEPLOT
 70
     0
102
SHADEPLOTRESLEVEL
 70
     2
102
SHADEPLOTCUSTOMDPI
 70
   300
  0
ENDSEC
  0
EOF
