  0
SECTION
  2
HEADER
  9
$ACADVER
  1
AC1015
  9
$ACADMAINTVER
 70
    20
  9
$DWGCODEPAGE
  3
ANSI_932
  9
$INSBASE
 10
0.0
 20
0.0
 30
0.0
  9
$EXTMIN
 10
139.9999999999995
 20
-0.0000000000000909
 30
0.0
  9
$EXTMAX
 10
16307.2
 20
11409.6
 30
0.0
  9
$LIMMIN
 10
0.0
 20
0.0
  9
$LIMMAX
 10
16800.0
 20
11880.0
  9
$ORTHOMODE
 70
     0
  9
$REGENMODE
 70
     1
  9
$FILLMODE
 70
     1
  9
$QTEXTMODE
 70
     0
  9
$MIRRTEXT
 70
     1
  9
$LTSCALE
 40
20.0
  9
$ATTMODE
 70
     1
  9
$TEXTSIZE
 40
100.0
  9
$TRACEWID
 40
1.0
  9
$TEXTSTYLE
  7
STYLE2
  9
$CLAYER
  8
細線
  9
$CELTYPE
  6
BYLAYER
  9
$CECOLOR
 62
   256
  9
$CELTSCALE
 40
50.0
  9
$DISPSILH
 70
     0
  9
$DIMSCALE
 40
40.0
  9
$DIMASZ
 40
2.5
  9
$DIMEXO
 40
0.5
  9
$DIMDLI
 40
7.0
  9
$DIMRND
 40
0.0
  9
$DIMDLE
 40
0.0
  9
$DIMEXE
 40
1.5
  9
$DIMTP
 40
0.0
  9
$DIMTM
 40
0.0
  9
$DIMTXT
 40
3.0
  9
$DIMCEN
 40
0.0
  9
$DIMTSZ
 40
0.0
  9
$DIMTOL
 70
     0
  9
$DIMLIM
 70
     0
  9
$DIMTIH
 70
     0
  9
$DIMTOH
 70
     0
  9
$DIMSE1
 70
     0
  9
$DIMSE2
 70
     0
  9
$DIMTAD
 70
     3
  9
$DIMZIN
 70
     8
  9
$DIMBLK
  1

  9
$DIMASO
 70
     1
  9
$DIMSHO
 70
     1
  9
$DIMPOST
  1

  9
$DIMAPOST
  1

  9
$DIMALT
 70
     0
  9
$DIMALTD
 70
     2
  9
$DIMALTF
 40
0.0394
  9
$DIMLFAC
 40
1.0
  9
$DIMTOFL
 70
     1
  9
$DIMTVP
 40
0.0
  9
$DIMTIX
 70
     0
  9
$DIMSOXD
 70
     0
  9
$DIMSAH
 70
     1
  9
$DIMBLK1
  1
DOTSMALL
  9
$DIMBLK2
  1
DOTSMALL
  9
$DIMSTYLE
  2
INABA_S40G
  9
$DIMCLRD
 70
     0
  9
$DIMCLRE
 70
     0
  9
$DIMCLRT
 70
     7
  9
$DIMTFAC
 40
1.0
  9
$DIMGAP
 40
1.0
  9
$DIMJUST
 70
     0
  9
$DIMSD1
 70
     0
  9
$DIMSD2
 70
     0
  9
$DIMTOLJ
 70
     1
  9
$DIMTZIN
 70
     0
  9
$DIMALTZ
 70
     0
  9
$DIMALTTZ
 70
     0
  9
$DIMUPT
 70
     0
  9
$DIMDEC
 70
     1
  9
$DIMTDEC
 70
     1
  9
$DIMALTU
 70
     2
  9
$DIMALTTD
 70
     2
  9
$DIMTXSTY
  7
STYLE1
  9
$DIMAUNIT
 70
     0
  9
$DIMADEC
 70
     0
  9
$DIMALTRND
 40
0.0
  9
$DIMAZIN
 70
     0
  9
$DIMDSEP
 70
    46
  9
$DIMATFIT
 70
     3
  9
$DIMFRAC
 70
     0
  9
$DIMLDRBLK
  1

  9
$DIMLUNIT
 70
     2
  9
$DIMLWD
 70
    -2
  9
$DIMLWE
 70
    -2
  9
$DIMTMOVE
 70
     1
  9
$LUNITS
 70
     2
  9
$LUPREC
 70
     1
  9
$SKETCHINC
 40
1.0
  9
$FILLETRAD
 40
2.299999999999999
  9
$AUNITS
 70
     0
  9
$AUPREC
 70
     0
  9
$MENU
  1
acad
  9
$ELEVATION
 40
0.0
  9
$PELEVATION
 40
0.0
  9
$THICKNESS
 40
0.0
  9
$LIMCHECK
 70
     0
  9
$CHAMFERA
 40
3.0
  9
$CHAMFERB
 40
3.0
  9
$CHAMFERC
 40
0.0
  9
$CHAMFERD
 40
0.0
  9
$SKPOLY
 70
     0
  9
$TDCREATE
 40
2451368.612993866
  9
$TDUCREATE
 40
2451368.237993866
  9
$TDUPDATE
 40
2456380.821599387
  9
$TDUUPDATE
 40
2456380.446599387
  9
$TDINDWG
 40
1.7024528819
  9
$TDUSRTIMER
 40
1.7024528819
  9
$USRTIMER
 70
     1
  9
$ANGBASE
 50
0.0
  9
$ANGDIR
 70
     0
  9
$PDMODE
 70
     3
  9
$PDSIZE
 40
2.0
  9
$PLINEWID
 40
0.0
  9
$SPLFRAME
 70
     0
  9
$SPLINETYPE
 70
     6
  9
$SPLINESEGS
 70
     8
  9
$HANDSEED
  5
204D6
  9
$SURFTAB1
 70
     6
  9
$SURFTAB2
 70
     6
  9
$SURFTYPE
 70
     6
  9
$SURFU
 70
     6
  9
$SURFV
 70
     6
  9
$UCSBASE
  2

  9
$UCSNAME
  2

  9
$UCSORG
 10
0.0
 20
0.0
 30
0.0
  9
$UCSXDIR
 10
1.0
 20
0.0
 30
0.0
  9
$UCSYDIR
 10
0.0
 20
1.0
 30
0.0
  9
$UCSORTHOREF
  2

  9
$UCSORTHOVIEW
 70
     0
  9
$UCSORGTOP
 10
0.0
 20
0.0
 30
0.0
  9
$UCSORGBOTTOM
 10
0.0
 20
0.0
 30
0.0
  9
$UCSORGLEFT
 10
0.0
 20
0.0
 30
0.0
  9
$UCSORGRIGHT
 10
0.0
 20
0.0
 30
0.0
  9
$UCSORGFRONT
 10
0.0
 20
0.0
 30
0.0
  9
$UCSORGBACK
 10
0.0
 20
0.0
 30
0.0
  9
$PUCSBASE
  2

  9
$PUCSNAME
  2

  9
$PUCSORG
 10
0.0
 20
0.0
 30
0.0
  9
$PUCSXDIR
 10
1.0
 20
0.0
 30
0.0
  9
$PUCSYDIR
 10
0.0
 20
1.0
 30
0.0
  9
$PUCSORTHOREF
  2

  9
$PUCSORTHOVIEW
 70
     0
  9
$PUCSORGTOP
 10
0.0
 20
0.0
 30
0.0
  9
$PUCSORGBOTTOM
 10
0.0
 20
0.0
 30
0.0
  9
$PUCSORGLEFT
 10
0.0
 20
0.0
 30
0.0
  9
$PUCSORGRIGHT
 10
0.0
 20
0.0
 30
0.0
  9
$PUCSORGFRONT
 10
0.0
 20
0.0
 30
0.0
  9
$PUCSORGBACK
 10
0.0
 20
0.0
 30
0.0
  9
$USERI1
 70
     0
  9
$USERI2
 70
     0
  9
$USERI3
 70
     0
  9
$USERI4
 70
     0
  9
$USERI5
 70
     0
  9
$USERR1
 40
0.0
  9
$USERR2
 40
0.0
  9
$USERR3
 40
0.0
  9
$USERR4
 40
0.0
  9
$USERR5
 40
0.0
  9
$WORLDVIEW
 70
     1
  9
$SHADEDGE
 70
     3
  9
$SHADEDIF
 70
    70
  9
$TILEMODE
 70
     1
  9
$MAXACTVP
 70
    16
  9
$PINSBASE
 10
0.0
 20
0.0
 30
0.0
  9
$PLIMCHECK
 70
     0
  9
$PEXTMIN
 10
1.000000000000000E+20
 20
1.000000000000000E+20
 30
1.000000000000000E+20
  9
$PEXTMAX
 10
-1.000000000000000E+20
 20
-1.000000000000000E+20
 30
-1.000000000000000E+20
  9
$PLIMMIN
 10
0.0
 20
0.0
  9
$PLIMMAX
 10
420.0
 20
297.0
  9
$UNITMODE
 70
     0
  9
$VISRETAIN
 70
     0
  9
$PLINEGEN
 70
     0
  9
$PSLTSCALE
 70
     0
  9
$TREEDEPTH
 70
  3020
  9
$CMLSTYLE
  2
STANDARD
  9
$CMLJUST
 70
     0
  9
$CMLSCALE
 40
1.0
  9
$PROXYGRAPHICS
 70
     1
  9
$MEASUREMENT
 70
     1
  9
$CELWEIGHT
370
    -1
  9
$ENDCAPS
280
     0
  9
$JOINSTYLE
280
     0
  9
$LWDISPLAY
290
     0
  9
$INSUNITS
 70
     0
  9
$HYPERLINKBASE
  1

  9
$STYLESHEET
  1
inabass.ctb
  9
$XEDIT
290
     1
  9
$CEPSNTYPE
380
     0
  9
$PSTYLEMODE
290
     1
  9
$FINGERPRINTGUID
  2
{3B57B35E-7D77-4BBF-81B7-6C583B9EB24C}
  9
$VERSIONGUID
  2
{BD1B7236-1B9E-4708-9D2D-9A196DC74AB1}
  9
$EXTNAMES
290
     1
  9
$PSVPSCALE
 40
0.0
  9
$OLESTARTUP
290
     0
  0
ENDSEC
  0
SECTION
  2
CLASSES
  0
CLASS
  1
ACDBDICTIONARYWDFLT
  2
AcDbDictionaryWithDefault
  3
ObjectDBX Classes
 90
        0
280
     0
281
     0
  0
CLASS
  1
DICTIONARYVAR
  2
AcDbDictionaryVar
  3
ObjectDBX Classes
 90
        0
280
     0
281
     0
  0
CLASS
  1
ACDBPLACEHOLDER
  2
AcDbPlaceHolder
  3
ObjectDBX Classes
 90
        0
280
     0
281
     0
  0
CLASS
  1
LAYOUT
  2
AcDbLayout
  3
ObjectDBX Classes
 90
        0
280
     0
281
     0
  0
ENDSEC
  0
SECTION
  2
TABLES
  0
TABLE
  2
VPORT
  5
746D
330
0
100
AcDbSymbolTable
 70
     2
  0
VPORT
  5
204CE
330
746D
100
AcDbSymbolTableRecord
100
AcDbViewportTableRecord
  2
*Active
 70
     0
 10
0.0
 20
0.0
 11
1.0
 21
1.0
 12
8223.761025238502
 22
5704.778636999662
 13
0.0
 23
0.0
 14
10.0
 24
10.0
 15
10.0
 25
10.0
 16
0.0
 26
0.0
 36
1.0
 17
0.0
 27
0.0
 37
0.0
 40
11503.04847671389
 41
1.706919945725915
 42
50.0
 43
0.0
 44
0.0
 50
0.0
 51
0.0
 71
     0
 72
     0
 73
     1
 74
     0
 75
     0
 76
     0
 77
     0
 78
     0
281
     0
 65
     1
110
0.0
120
0.0
130
0.0
111
1.0
121
0.0
131
0.0
112
0.0
122
1.0
132
0.0
 79
     0
146
0.0
  0
ENDTAB
  0
TABLE
  2
LTYPE
  5
746A
330
0
100
AcDbSymbolTable
 70
     4
  0
LTYPE
  5
7477
330
746A
100
AcDbSymbolTableRecord
100
AcDbLinetypeTableRecord
  2
BYBLOCK
 70
     0
  3

 72
    65
 73
     0
 40
0.0
  0
LTYPE
  5
7478
330
746A
100
AcDbSymbolTableRecord
100
AcDbLinetypeTableRecord
  2
BYLAYER
 70
     0
  3

 72
    65
 73
     0
 40
0.0
  0
LTYPE
  5
7479
330
746A
100
AcDbSymbolTableRecord
100
AcDbLinetypeTableRecord
  2
CONTINUOUS
 70
     0
  3
Solid line
 72
    65
 73
     0
 40
0.0
  0
LTYPE
  5
7816
330
746A
100
AcDbSymbolTableRecord
100
AcDbLinetypeTableRecord
  2
CENTER
 70
     0
  3
____ _ ____ _ ____ _ ____ _ ____ _ ____ _ ____ 
 72
    65
 73
     4
 40
2.0
 49
1.25
 74
     0
 49
-0.25
 74
     0
 49
0.25
 74
     0
 49
-0.25
 74
     0
  0
LTYPE
  5
781A
330
746A
100
AcDbSymbolTableRecord
100
AcDbLinetypeTableRecord
  2
HIDDEN
 70
     0
  3
__ __ __ __ __ __ __ __ __ __ __ __ __ __ __ __
 72
    65
 73
     2
 40
0.375
 49
0.25
 74
     0
 49
-0.125
 74
     0
  0
LTYPE
  5
781B
330
746A
100
AcDbSymbolTableRecord
100
AcDbLinetypeTableRecord
  2
PHANTOM
 70
     0
  3
______  __  __  ______  __  __  ______  __  __ 
 72
    65
 73
     6
 40
2.5
 49
1.25
 74
     0
 49
-0.25
 74
     0
 49
0.25
 74
     0
 49
-0.25
 74
     0
 49
0.25
 74
     0
 49
-0.25
 74
     0
  0
ENDTAB
  0
TABLE
  2
LAYER
  5
7467
102
{ACAD_XDICTIONARY
360
1FA64
102
}
330
0
100
AcDbSymbolTable
 70
    12
  0
LAYER
  5
7474
330
7467
100
AcDbSymbolTableRecord
100
AcDbLayerTableRecord
  2
0
 70
     0
 62
     7
  6
CONTINUOUS
370
    -3
390
159AE
  0
LAYER
  5
DEB2
330
7467
100
AcDbSymbolTableRecord
100
AcDbLayerTableRecord
  2
センター
 70
     0
 62
     3
  6
CENTER
370
    -3
390
159AE
  0
LAYER
  5
DEB3
330
7467
100
AcDbSymbolTableRecord
100
AcDbLayerTableRecord
  2
寸法
 70
     0
 62
     4
  6
CONTINUOUS
370
    -3
390
159AE
  0
LAYER
  5
DEB4
330
7467
100
AcDbSymbolTableRecord
100
AcDbLayerTableRecord
  2
部品1
 70
     0
 62
     7
  6
CONTINUOUS
370
    -3
390
159AE
  0
LAYER
  5
DEB5
330
7467
100
AcDbSymbolTableRecord
100
AcDbLayerTableRecord
  2
補助
 70
     0
 62
    -1
  6
CONTINUOUS
370
    -3
390
159AE
  0
LAYER
  5
DEB6
330
7467
100
AcDbSymbolTableRecord
100
AcDbLayerTableRecord
  2
文字
 70
     0
 62
     7
  6
CONTINUOUS
370
    -3
390
159AE
  0
LAYER
  5
F255
330
7467
100
AcDbSymbolTableRecord
100
AcDbLayerTableRecord
  2
DEFPOINTS
 70
     0
 62
     7
  6
CONTINUOUS
290
     0
370
    -3
390
159AE
  0
LAYER
  5
10B54
330
7467
100
AcDbSymbolTableRecord
100
AcDbLayerTableRecord
  2
仕様書枠
 70
     0
 62
   230
  6
CONTINUOUS
370
    -3
390
159AE
  0
LAYER
  5
11729
330
7467
100
AcDbSymbolTableRecord
100
AcDbLayerTableRecord
  2
Ｇ．Ｌ
 70
     0
 62
    30
  6
CONTINUOUS
370
    -3
390
159AE
  0
LAYER
  5
1173F
330
7467
100
AcDbSymbolTableRecord
100
AcDbLayerTableRecord
  2
細線
 70
     0
 62
     5
  6
CONTINUOUS
370
    -3
390
159AE
  0
LAYER
  5
12CC4
330
7467
100
AcDbSymbolTableRecord
100
AcDbLayerTableRecord
  2
想像線
 70
     0
 62
     6
  6
PHANTOM
370
    -3
390
159AE
  0
LAYER
  5
142E2
330
7467
100
AcDbSymbolTableRecord
100
AcDbLayerTableRecord
  2
破線
 70
     0
 62
     2
  6
HIDDEN
370
    -3
390
159AE
  0
ENDTAB
  0
TABLE
  2
STYLE
  5
7468
330
0
100
AcDbSymbolTable
 70
     3
  0
STYLE
  5
7475
330
7468
100
AcDbSymbolTableRecord
100
AcDbTextStyleTableRecord
  2
STANDARD
 70
     0
 40
0.0
 41
1.0
 50
0.0
 71
     0
 42
4.0
  3
txt
  4
C:\AutoCAD LT\bigfont.shx
  0
STYLE
  5
F706
330
7468
100
AcDbSymbolTableRecord
100
AcDbTextStyleTableRecord
  2
STYLE1
 70
     0
 40
0.0
 41
1.0
 50
0.0
 71
     0
 42
100.0
  3
isocp.shx
  4
bigfont.shx
  0
STYLE
  5
103BF
330
7468
100
AcDbSymbolTableRecord
100
AcDbTextStyleTableRecord
  2
STYLE2
 70
     0
 40
0.0
 41
1.0
 50
0.0
 71
     0
 42
100.0
  3
MS PGothic.ttf
  4

1001
ACAD
1000
MS PGothic
1071
    32818
  0
ENDTAB
  0
TABLE
  2
VIEW
  5
746B
330
0
100
AcDbSymbolTable
 70
     0
  0
ENDTAB
  0
TABLE
  2
UCS
  5
746C
330
0
100
AcDbSymbolTable
 70
     0
  0
ENDTAB
  0
TABLE
  2
APPID
  5
746E
330
0
100
AcDbSymbolTable
 70
     6
  0
APPID
  5
7476
330
746E
100
AcDbSymbolTableRecord
100
AcDbRegAppTableRecord
  2
ACAD
 70
     0
  0
APPID
  5
DEA9
330
746E
100
AcDbSymbolTableRecord
100
AcDbRegAppTableRecord
  2
CONTENTBLOCKICON
 70
     0
  0
APPID
  5
DEAA
330
746E
100
AcDbSymbolTableRecord
100
AcDbRegAppTableRecord
  2
CONTENTBLOCKDESCRIPTION
 70
     0
  0
APPID
  5
E71D
330
746E
100
AcDbSymbolTableRecord
100
AcDbRegAppTableRecord
  2
CONTENTTABDATA
 70
     0
  0
APPID
  5
E71E
330
746E
100
AcDbSymbolTableRecord
100
AcDbRegAppTableRecord
  2
CONTENTCURRENTTAB
 70
     0
  0
APPID
  5
F3BA
330
746E
100
AcDbSymbolTableRecord
100
AcDbRegAppTableRecord
  2
DRAWINGVARIABLESXDATA
 70
     0
  0
ENDTAB
  0
TABLE
  2
DIMSTYLE
  5
746F
330
0
100
AcDbSymbolTable
 70
     2
100
AcDbDimStyleTable
 71
     1
340
F71F
  0
DIMSTYLE
105
F71F
102
{ACAD_REACTORS
330
1D93F
330
1D93E
330
1D926
330
1D925
330
1D920
330
1D91D
330
1D934
330
1D933
330
1D92D
330
1D92C
330
1D927
330
1D91C
330
1D91B
330
1D948
330
1D947
330
1D959
330
1D942
330
1D929
330
1E96D
330
1E98B
330
1F248
330
1F249
330
203B2
330
203B8
330
20412
330
20427
330
20428
330
20431
102
}
330
746F
100
AcDbSymbolTableRecord
100
AcDbDimStyleTableRecord
  2
INABA_S40G
 70
     0
 40
40.0
 41
2.5
 42
0.5
 43
7.0
 44
1.5
 73
     0
 74
     0
 77
     3
 78
     8
140
3.0
141
0.0
143
0.0394
147
1.0
172
     1
173
     1
174
     1
178
     7
271
     1
288
     1
340
F706
341
F770
343
F770
344
F770
  0
DIMSTYLE
105
1C645
330
746F
100
AcDbSymbolTableRecord
100
AcDbDimStyleTableRecord
  2
INABA_S50G
 70
     0
 40
0.0
 41
125.0
 42
25.0
 43
7.0
 44
75.0
 73
     0
 74
     0
 77
     3
 78
     8
140
150.0
141
0.0
143
0.0394
147
25.0
172
     1
173
     1
174
     1
178
     7
271
     1
340
F706
341
F770
343
F770
344
F770
  0
ENDTAB
  0
TABLE
  2
BLOCK_RECORD
  5
7466
330
0
100
AcDbSymbolTable
 70
    49
  0
BLOCK_RECORD
  5
747D
330
7466
100
AcDbSymbolTableRecord
100
AcDbBlockTableRecord
  2
*MODEL_SPACE
340
159B3
  0
BLOCK_RECORD
  5
747A
330
7466
100
AcDbSymbolTableRecord
100
AcDbBlockTableRecord
  2
*PAPER_SPACE
340
159B4
  0
BLOCK_RECORD
  5
F770
330
7466
100
AcDbSymbolTableRecord
100
AcDbBlockTableRecord
  2
_DOTSMALL
340
0
102
{BLKREFS
331
1F387
331
1F388
331
1F868
331
1F869
331
1F872
331
1F873
331
1F87D
331
1F87E
331
1F887
331
1F888
331
1F892
331
1F893
331
1F89C
331
1F89D
331
1F8A5
331
1F8A6
331
1F8AE
331
1F8AF
331
1F912
331
1F913
331
1F96F
331
1F970
331
1F9E0
331
1F9E1
331
1F9EA
331
1F9EB
331
1FE30
331
1FE31
331
1FE39
331
1FE3A
331
1FE42
331
1FE43
331
1FE50
331
1FE51
331
1FE58
331
1FE59
331
1FE62
331
1FE63
331
1FE6C
331
1FE6D
331
1FE76
331
1FE77
331
1FE80
331
1FE81
331
1FECC
331
1FECD
331
1FED5
331
1FED6
331
1FF07
331
1FF08
331
1FFA4
331
1FFA5
331
1FFB7
331
1FFB8
331
1FFE6
331
1FFE7
331
20042
331
20043
331
20034
331
20035
331
20028
331
20029
331
2001C
331
2001D
331
20010
331
20011
331
20004
331
20005
331
201C7
331
201C8
331
201B9
331
201BA
331
201AD
331
201AE
331
201A1
331
201A2
331
20195
331
20196
331
20189
331
2018A
331
20491
331
20492
331
2049A
331
2049B
331
204A3
331
204A4
331
204AC
331
204AD
331
204B5
331
204B6
331
204BE
331
204BF
102
}
  0
BLOCK_RECORD
  5
1C530
330
7466
100
AcDbSymbolTableRecord
100
AcDbBlockTableRecord
  2
_NONE
340
0
  0
BLOCK_RECORD
  5
1DA44
330
7466
100
AcDbSymbolTableRecord
100
AcDbBlockTableRecord
  2
*D2
340
0
  0
BLOCK_RECORD
  5
1DA51
330
7466
100
AcDbSymbolTableRecord
100
AcDbBlockTableRecord
  2
*D3
340
0
  0
BLOCK_RECORD
  5
1DA5E
330
7466
100
AcDbSymbolTableRecord
100
AcDbBlockTableRecord
  2
*D4
340
0
  0
BLOCK_RECORD
  5
1DA69
330
7466
100
AcDbSymbolTableRecord
100
AcDbBlockTableRecord
  2
*D5
340
0
  0
BLOCK_RECORD
  5
1DA74
330
7466
100
AcDbSymbolTableRecord
100
AcDbBlockTableRecord
  2
*D6
340
0
  0
BLOCK_RECORD
  5
1DA81
330
7466
100
AcDbSymbolTableRecord
100
AcDbBlockTableRecord
  2
*D7
340
0
  0
BLOCK_RECORD
  5
1DA8E
330
7466
100
AcDbSymbolTableRecord
100
AcDbBlockTableRecord
  2
*D8
340
0
  0
BLOCK_RECORD
  5
1DA9A
330
7466
100
AcDbSymbolTableRecord
100
AcDbBlockTableRecord
  2
*D9
340
0
  0
BLOCK_RECORD
  5
1DAA5
330
7466
100
AcDbSymbolTableRecord
100
AcDbBlockTableRecord
  2
*D10
340
0
  0
BLOCK_RECORD
  5
1DAB2
330
7466
100
AcDbSymbolTableRecord
100
AcDbBlockTableRecord
  2
*D11
340
0
  0
BLOCK_RECORD
  5
1DABE
330
7466
100
AcDbSymbolTableRecord
100
AcDbBlockTableRecord
  2
*D12
340
0
  0
BLOCK_RECORD
  5
1DACB
330
7466
100
AcDbSymbolTableRecord
100
AcDbBlockTableRecord
  2
*D13
340
0
  0
BLOCK_RECORD
  5
1DAD9
330
7466
100
AcDbSymbolTableRecord
100
AcDbBlockTableRecord
  2
*D14
340
0
  0
BLOCK_RECORD
  5
1DAE6
330
7466
100
AcDbSymbolTableRecord
100
AcDbBlockTableRecord
  2
*D15
340
0
  0
BLOCK_RECORD
  5
1DAF3
330
7466
100
AcDbSymbolTableRecord
100
AcDbBlockTableRecord
  2
*D16
340
0
  0
BLOCK_RECORD
  5
1DB00
330
7466
100
AcDbSymbolTableRecord
100
AcDbBlockTableRecord
  2
*D17
340
0
  0
BLOCK_RECORD
  5
1DB0D
330
7466
100
AcDbSymbolTableRecord
100
AcDbBlockTableRecord
  2
*D18
340
0
  0
BLOCK_RECORD
  5
1DB1A
330
7466
100
AcDbSymbolTableRecord
100
AcDbBlockTableRecord
  2
*D19
340
0
  0
BLOCK_RECORD
  5
1E9D0
330
7466
100
AcDbSymbolTableRecord
100
AcDbBlockTableRecord
  2
*D20
340
0
  0
BLOCK_RECORD
  5
1EA32
330
7466
100
AcDbSymbolTableRecord
100
AcDbBlockTableRecord
  2
*D21
340
0
  0
BLOCK_RECORD
  5
1F24A
330
7466
100
AcDbSymbolTableRecord
100
AcDbBlockTableRecord
  2
*D22
340
0
  0
BLOCK_RECORD
  5
1F255
330
7466
100
AcDbSymbolTableRecord
100
AcDbBlockTableRecord
  2
*D23
340
0
  0
BLOCK_RECORD
  5
1FFFF
330
7466
100
AcDbSymbolTableRecord
100
AcDbBlockTableRecord
  2
*D30
340
0
  0
BLOCK_RECORD
  5
2000B
330
7466
100
AcDbSymbolTableRecord
100
AcDbBlockTableRecord
  2
*D31
340
0
  0
BLOCK_RECORD
  5
20017
330
7466
100
AcDbSymbolTableRecord
100
AcDbBlockTableRecord
  2
*D32
340
0
  0
BLOCK_RECORD
  5
20023
330
7466
100
AcDbSymbolTableRecord
100
AcDbBlockTableRecord
  2
*D33
340
0
  0
BLOCK_RECORD
  5
2002F
330
7466
100
AcDbSymbolTableRecord
100
AcDbBlockTableRecord
  2
*D34
340
0
  0
BLOCK_RECORD
  5
2003B
330
7466
100
AcDbSymbolTableRecord
100
AcDbBlockTableRecord
  2
*D35
340
0
  0
BLOCK_RECORD
  5
20049
330
7466
100
AcDbSymbolTableRecord
100
AcDbBlockTableRecord
  2
A$C47A07969
340
0
  0
BLOCK_RECORD
  5
20442
330
7466
100
AcDbSymbolTableRecord
100
AcDbBlockTableRecord
  2
*D43
340
0
  0
BLOCK_RECORD
  5
20450
330
7466
100
AcDbSymbolTableRecord
100
AcDbBlockTableRecord
  2
*D44
340
0
  0
BLOCK_RECORD
  5
2045C
330
7466
100
AcDbSymbolTableRecord
100
AcDbBlockTableRecord
  2
*D45
340
0
  0
BLOCK_RECORD
  5
20468
330
7466
100
AcDbSymbolTableRecord
100
AcDbBlockTableRecord
  2
*D46
340
0
  0
BLOCK_RECORD
  5
20474
330
7466
100
AcDbSymbolTableRecord
100
AcDbBlockTableRecord
  2
*D47
340
0
  0
BLOCK_RECORD
  5
20480
330
7466
100
AcDbSymbolTableRecord
100
AcDbBlockTableRecord
  2
*D48
340
0
  0
ENDTAB
  0
ENDSEC
  0
SECTION
  2
BLOCKS
  0
BLOCK
  5
7489
330
747D
100
AcDbEntity
  8
0
100
AcDbBlockBegin
  2
*MODEL_SPACE
 70
     0
 10
0.0
 20
0.0
 30
0.0
  3
*MODEL_SPACE
  1

  0
ENDBLK
  5
748A
330
747D
100
AcDbEntity
  8
0
100
AcDbBlockEnd
  0
BLOCK
  5
7487
330
747A
100
AcDbEntity
 67
     1
  8
0
100
AcDbBlockBegin
  2
*PAPER_SPACE
 70
     0
 10
0.0
 20
0.0
 30
0.0
  3
*PAPER_SPACE
  1

  0
ENDBLK
  5
7488
330
747A
100
AcDbEntity
 67
     1
  8
0
100
AcDbBlockEnd
  0
BLOCK
  5
F771
330
F770
100
AcDbEntity
  8
0
 48
50.0
100
AcDbBlockBegin
  2
_DOTSMALL
 70
     0
 10
0.0
 20
0.0
 30
0.0
  3
_DOTSMALL
  1

  0
LWPOLYLINE
  5
F772
330
F770
100
AcDbEntity
  8
0
  6
ByBlock
 62
     0
 48
50.0
100
AcDbPolyline
 90
        2
 70
     1
 43
0.5
 10
-0.0625
 20
0.0
 42
1.0
 10
0.0625
 20
0.0
 42
1.0
  0
ENDBLK
  5
F776
330
F770
100
AcDbEntity
  8
0
 48
50.0
100
AcDbBlockEnd
  0
BLOCK
  5
1C531
330
1C530
100
AcDbEntity
  8
0
 48
50.0
100
AcDbBlockBegin
  2
_NONE
 70
     0
 10
0.0
 20
0.0
 30
0.0
  3
_NONE
  1

  0
CIRCLE
  5
1C532
330
1C530
100
AcDbEntity
  8
0
  6
ByBlock
 62
     0
 48
50.0
100
AcDbCircle
 10
0.0
 20
0.0
 30
0.0
 40
0.25
  0
ENDBLK
  5
1C533
330
1C530
100
AcDbEntity
  8
0
 48
50.0
100
AcDbBlockEnd
  0
BLOCK
  5
1DA4F
330
1DA44
100
AcDbEntity
  8
0
 48
50.0
100
AcDbBlockBegin
  2
*D2
 70
     1
 10
0.0
 20
0.0
 30
0.0
  3
*D2
  1

  0
LINE
  5
1FF03
330
1DA44
100
AcDbEntity
  8
寸法
 62
     0
 48
50.0
370
    -2
100
AcDbLine
 10
7409.514259514151
 20
5842.919036112861
 30
0.0
 11
7666.221509390251
 21
5842.919036112861
 31
0.0
  0
LINE
  5
1FF04
330
1DA44
100
AcDbEntity
  8
寸法
 62
     0
 48
50.0
370
    -2
100
AcDbLine
 10
7409.514259514151
 20
5952.919036112863
 30
0.0
 11
7666.221509390251
 21
5952.919036112863
 31
0.0
  0
LINE
  5
1FF05
330
1DA44
100
AcDbEntity
  8
寸法
 62
     0
 48
50.0
370
    -2
100
AcDbLine
 10
7606.221509390249
 20
5842.919036112861
 30
0.0
 11
7606.221509390249
 21
5952.919036112863
 31
0.0
  0
LINE
  5
1FF06
330
1DA44
100
AcDbEntity
  8
寸法
 62
     0
 48
50.0
370
    -2
100
AcDbLine
 10
7606.221509390249
 20
5952.919036112863
 30
0.0
 11
7606.221509390251
 21
6338.013524301839
 31
0.0
  0
INSERT
  5
1FF07
330
1DA44
100
AcDbEntity
  8
寸法
 62
     0
 48
50.0
370
    -2
100
AcDbBlockReference
  2
_DOTSMALL
 10
7606.221509390249
 20
5842.919036112861
 30
0.0
 41
100.0
 42
100.0
 43
100.0
 50
270.0
  0
INSERT
  5
1FF08
330
1DA44
100
AcDbEntity
  8
寸法
 62
     0
 48
50.0
370
    -2
100
AcDbBlockReference
  2
_DOTSMALL
 10
7606.221509390249
 20
5952.919036112863
 30
0.0
 41
100.0
 42
100.0
 43
100.0
 50
90.0
  0
MTEXT
  5
1FF09
330
1DA44
100
AcDbEntity
  8
寸法
 62
     7
 48
50.0
100
AcDbMText
 10
7506.22150939025
 20
6213.966280207353
 30
0.0
 40
120.0
 41
0.0
 71
     5
 72
     1
  1
\A1;110
  7
STYLE1
 11
0.0000000000000001
 21
1.0
 31
0.0
 73
     1
 44
1.0
1001
ACAD
1000
MTEXTBEGIN
1070
    73
1070
     1
1070
    44
1040
1.0
1070
    74
1070
     0
1000
MTEXTEND
  0
POINT
  5
1FF0A
330
1DA44
100
AcDbEntity
  8
DEFPOINTS
 62
     0
 48
50.0
100
AcDbPoint
 10
7389.514259514152
 20
5842.919036112861
 30
0.0
  0
POINT
  5
1FF0B
330
1DA44
100
AcDbEntity
  8
DEFPOINTS
 62
     0
 48
50.0
100
AcDbPoint
 10
7389.514259514152
 20
5952.919036112863
 30
0.0
  0
POINT
  5
1FF0C
330
1DA44
100
AcDbEntity
  8
DEFPOINTS
 62
     0
 48
50.0
100
AcDbPoint
 10
7606.221509390249
 20
5952.919036112863
 30
0.0
  0
ENDBLK
  5
1DA50
330
1DA44
100
AcDbEntity
  8
0
 48
50.0
100
AcDbBlockEnd
  0
BLOCK
  5
1DA5C
330
1DA51
100
AcDbEntity
  8
0
 48
50.0
100
AcDbBlockBegin
  2
*D3
 70
     1
 10
0.0
 20
0.0
 30
0.0
  3
*D3
  1

  0
LINE
  5
1FFB3
330
1DA51
100
AcDbEntity
  8
寸法
 62
     0
 48
50.0
370
    -2
100
AcDbLine
 10
7409.514259514151
 20
5842.919036112864
 30
0.0
 11
7666.221509390251
 21
5842.919036112864
 31
0.0
  0
LINE
  5
1FFB4
330
1DA51
100
AcDbEntity
  8
寸法
 62
     0
 48
50.0
370
    -2
100
AcDbLine
 10
7409.514259514153
 20
5722.919036112859
 30
0.0
 11
7666.221509390251
 21
5722.919036112859
 31
0.0
  0
LINE
  5
1FFB5
330
1DA51
100
AcDbEntity
  8
寸法
 62
     0
 48
50.0
370
    -2
100
AcDbLine
 10
7606.221509390251
 20
5842.919036112864
 30
0.0
 11
7606.221509390251
 21
5722.919036112859
 31
0.0
  0
LINE
  5
1FFB6
330
1DA51
100
AcDbEntity
  8
寸法
 62
     0
 48
50.0
370
    -2
100
AcDbLine
 10
7606.221509390251
 20
5722.919036112859
 30
0.0
 11
7606.221509390251
 21
5350.824547923883
 31
0.0
  0
INSERT
  5
1FFB7
330
1DA51
100
AcDbEntity
  8
寸法
 62
     0
 48
50.0
370
    -2
100
AcDbBlockReference
  2
_DOTSMALL
 10
7606.221509390251
 20
5842.919036112864
 30
0.0
 41
100.0
 42
100.0
 43
100.0
 50
90.0
  0
INSERT
  5
1FFB8
330
1DA51
100
AcDbEntity
  8
寸法
 62
     0
 48
50.0
370
    -2
100
AcDbBlockReference
  2
_DOTSMALL
 10
7606.221509390251
 20
5722.919036112859
 30
0.0
 41
100.0
 42
100.0
 43
100.0
 50
270.0
  0
MTEXT
  5
1FFB9
330
1DA51
100
AcDbEntity
  8
寸法
 62
     7
 48
50.0
100
AcDbMText
 10
7506.209698366628
 20
5486.871792018372
 30
0.0
 40
120.0
 41
0.0
 71
     5
 72
     1
  1
\A1;120
  7
STYLE1
 11
0.0000000000000001
 21
1.0
 31
0.0
 73
     1
 44
1.0
1001
ACAD
1000
MTEXTBEGIN
1070
    73
1070
     1
1070
    44
1040
1.0
1070
    74
1070
     0
1000
MTEXTEND
  0
POINT
  5
1FFBA
330
1DA51
100
AcDbEntity
  8
DEFPOINTS
 62
     0
 48
50.0
100
AcDbPoint
 10
7389.514259514152
 20
5842.919036112864
 30
0.0
  0
POINT
  5
1FFBB
330
1DA51
100
AcDbEntity
  8
DEFPOINTS
 62
     0
 48
50.0
100
AcDbPoint
 10
7389.514259514154
 20
5722.919036112859
 30
0.0
  0
POINT
  5
1FFBC
330
1DA51
100
AcDbEntity
  8
DEFPOINTS
 62
     0
 48
50.0
100
AcDbPoint
 10
7606.221509390251
 20
5722.919036112859
 30
0.0
  0
ENDBLK
  5
1DA5D
330
1DA51
100
AcDbEntity
  8
0
 48
50.0
100
AcDbBlockEnd
  0
BLOCK
  5
1DA67
330
1DA5E
100
AcDbEntity
  8
0
 48
50.0
100
AcDbBlockBegin
  2
*D4
 70
     1
 10
0.0
 20
0.0
 30
0.0
  3
*D4
  1

  0
LINE
  5
1F8AB
330
1DA5E
100
AcDbEntity
  8
寸法
 62
     0
 48
50.0
370
    -2
100
AcDbLine
 10
8836.514259514151
 20
7469.91903611286
 30
0.0
 11
8836.514259514151
 21
8336.250847072712
 31
0.0
  0
LINE
  5
1F8AC
330
1DA5E
100
AcDbEntity
  8
寸法
 62
     0
 48
50.0
370
    -2
100
AcDbLine
 10
7282.514259514151
 20
7469.91903611286
 30
0.0
 11
7282.514259514151
 21
8336.250847072712
 31
0.0
  0
LINE
  5
1F8AD
330
1DA5E
100
AcDbEntity
  8
寸法
 62
     0
 48
50.0
370
    -2
100
AcDbLine
 10
8836.514259514151
 20
8276.250847072711
 30
0.0
 11
7282.514259514151
 21
8276.250847072711
 31
0.0
  0
INSERT
  5
1F8AE
330
1DA5E
100
AcDbEntity
  8
寸法
 62
     0
 48
50.0
370
    -2
100
AcDbBlockReference
  2
_DOTSMALL
 10
8836.514259514151
 20
8276.250847072711
 30
0.0
 41
100.0
 42
100.0
 43
100.0
  0
INSERT
  5
1F8AF
330
1DA5E
100
AcDbEntity
  8
寸法
 62
     0
 48
50.0
370
    -2
100
AcDbBlockReference
  2
_DOTSMALL
 10
7282.514259514151
 20
8276.250847072711
 30
0.0
 41
100.0
 42
100.0
 43
100.0
 50
180.0
  0
MTEXT
  5
1F8B0
330
1DA5E
100
AcDbEntity
  8
寸法
 62
     7
 48
50.0
100
AcDbMText
 10
8059.51425951415
 20
8376.250847072711
 30
0.0
 40
120.0
 41
0.0
 71
     5
 72
     1
  1
\A1;1554
  7
STYLE1
 73
     1
 44
1.0
1001
ACAD
1000
MTEXTBEGIN
1070
    73
1070
     1
1070
    44
1040
1.0
1070
    74
1070
     0
1000
MTEXTEND
  0
POINT
  5
1F8B1
330
1DA5E
100
AcDbEntity
  8
DEFPOINTS
 62
     0
 48
50.0
100
AcDbPoint
 10
8836.514259514151
 20
7449.919036112861
 30
0.0
  0
POINT
  5
1F8B2
330
1DA5E
100
AcDbEntity
  8
DEFPOINTS
 62
     0
 48
50.0
100
AcDbPoint
 10
7282.514259514151
 20
7449.919036112861
 30
0.0
  0
POINT
  5
1F8B3
330
1DA5E
100
AcDbEntity
  8
DEFPOINTS
 62
     0
 48
50.0
100
AcDbPoint
 10
7282.514259514151
 20
8276.250847072711
 30
0.0
  0
ENDBLK
  5
1DA68
330
1DA5E
100
AcDbEntity
  8
0
 48
50.0
100
AcDbBlockEnd
  0
BLOCK
  5
1DA72
330
1DA69
100
AcDbEntity
  8
0
 48
50.0
100
AcDbBlockBegin
  2
*D5
 70
     1
 10
0.0
 20
0.0
 30
0.0
  3
*D5
  1

  0
LINE
  5
1F8A2
330
1DA69
100
AcDbEntity
  8
寸法
 62
     0
 48
50.0
370
    -2
100
AcDbLine
 10
7159.514259514151
 20
7542.919036112862
 30
0.0
 11
7159.514259514151
 21
8548.711542589549
 31
0.0
  0
LINE
  5
1F8A3
330
1DA69
100
AcDbEntity
  8
寸法
 62
     0
 48
50.0
370
    -2
100
AcDbLine
 10
8959.514259514151
 20
7542.919036112862
 30
0.0
 11
8959.514259514151
 21
8548.711542589549
 31
0.0
  0
LINE
  5
1F8A4
330
1DA69
100
AcDbEntity
  8
寸法
 62
     0
 48
50.0
370
    -2
100
AcDbLine
 10
7159.514259514151
 20
8488.711542589548
 30
0.0
 11
8959.514259514151
 21
8488.711542589548
 31
0.0
  0
INSERT
  5
1F8A5
330
1DA69
100
AcDbEntity
  8
寸法
 62
     0
 48
50.0
370
    -2
100
AcDbBlockReference
  2
_DOTSMALL
 10
7159.514259514151
 20
8488.711542589548
 30
0.0
 41
100.0
 42
100.0
 43
100.0
 50
180.0
  0
INSERT
  5
1F8A6
330
1DA69
100
AcDbEntity
  8
寸法
 62
     0
 48
50.0
370
    -2
100
AcDbBlockReference
  2
_DOTSMALL
 10
8959.514259514151
 20
8488.711542589548
 30
0.0
 41
100.0
 42
100.0
 43
100.0
  0
MTEXT
  5
1F8A7
330
1DA69
100
AcDbEntity
  8
寸法
 62
     7
 48
50.0
100
AcDbMText
 10
8059.51425951415
 20
8588.711542589548
 30
0.0
 40
120.0
 41
0.0
 71
     5
 72
     1
  1
\A1;1800
  7
STYLE1
 73
     1
 44
1.0
1001
ACAD
1000
MTEXTBEGIN
1070
    73
1070
     1
1070
    44
1040
1.0
1070
    74
1070
     0
1000
MTEXTEND
  0
POINT
  5
1F8A8
330
1DA69
100
AcDbEntity
  8
DEFPOINTS
 62
     0
 48
50.0
100
AcDbPoint
 10
7159.514259514151
 20
7522.919036112861
 30
0.0
  0
POINT
  5
1F8A9
330
1DA69
100
AcDbEntity
  8
DEFPOINTS
 62
     0
 48
50.0
100
AcDbPoint
 10
8959.514259514151
 20
7522.919036112861
 30
0.0
  0
POINT
  5
1F8AA
330
1DA69
100
AcDbEntity
  8
DEFPOINTS
 62
     0
 48
50.0
100
AcDbPoint
 10
8959.514259514151
 20
8488.711542589548
 30
0.0
  0
ENDBLK
  5
1DA73
330
1DA69
100
AcDbEntity
  8
0
 48
50.0
100
AcDbBlockEnd
  0
BLOCK
  5
1DA7F
330
1DA74
100
AcDbEntity
  8
0
 48
50.0
100
AcDbBlockBegin
  2
*D6
 70
     1
 10
0.0
 20
0.0
 30
0.0
  3
*D6
  1

  0
LINE
  5
1F898
330
1DA74
100
AcDbEntity
  8
寸法
 62
     0
 48
50.0
370
    -2
100
AcDbLine
 10
7282.514259514151
 20
7469.91903611286
 30
0.0
 11
7282.514259514151
 21
8336.250847072712
 31
0.0
  0
LINE
  5
1F899
330
1DA74
100
AcDbEntity
  8
寸法
 62
     0
 48
50.0
370
    -2
100
AcDbLine
 10
7159.51425951415
 20
7542.919036112859
 30
0.0
 11
7159.51425951415
 21
8336.250847072712
 31
0.0
  0
LINE
  5
1F89A
330
1DA74
100
AcDbEntity
  8
寸法
 62
     0
 48
50.0
370
    -2
100
AcDbLine
 10
7282.514259514151
 20
8276.250847072711
 30
0.0
 11
7159.51425951415
 21
8276.250847072711
 31
0.0
  0
LINE
  5
1F89B
330
1DA74
100
AcDbEntity
  8
寸法
 62
     0
 48
50.0
370
    -2
100
AcDbLine
 10
7159.51425951415
 20
8276.250847072711
 30
0.0
 11
6782.543696765671
 21
8276.250847072711
 31
0.0
  0
INSERT
  5
1F89C
330
1DA74
100
AcDbEntity
  8
寸法
 62
     0
 48
50.0
370
    -2
100
AcDbBlockReference
  2
_DOTSMALL
 10
7282.514259514151
 20
8276.250847072711
 30
0.0
 41
100.0
 42
100.0
 43
100.0
  0
INSERT
  5
1F89D
330
1DA74
100
AcDbEntity
  8
寸法
 62
     0
 48
50.0
370
    -2
100
AcDbBlockReference
  2
_DOTSMALL
 10
7159.51425951415
 20
8276.250847072711
 30
0.0
 41
100.0
 42
100.0
 43
100.0
 50
180.0
  0
MTEXT
  5
1F89E
330
1DA74
100
AcDbEntity
  8
寸法
 62
     7
 48
50.0
100
AcDbMText
 10
6921.028978139911
 20
8376.262658096333
 30
0.0
 40
120.0
 41
0.0
 71
     5
 72
     1
  1
\A1;123
  7
STYLE1
 73
     1
 44
1.0
1001
ACAD
1000
MTEXTBEGIN
1070
    73
1070
     1
1070
    44
1040
1.0
1070
    74
1070
     0
1000
MTEXTEND
  0
POINT
  5
1F89F
330
1DA74
100
AcDbEntity
  8
DEFPOINTS
 62
     0
 48
50.0
100
AcDbPoint
 10
7282.514259514151
 20
7449.919036112861
 30
0.0
  0
POINT
  5
1F8A0
330
1DA74
100
AcDbEntity
  8
DEFPOINTS
 62
     0
 48
50.0
100
AcDbPoint
 10
7159.51425951415
 20
7522.919036112859
 30
0.0
  0
POINT
  5
1F8A1
330
1DA74
100
AcDbEntity
  8
DEFPOINTS
 62
     0
 48
50.0
100
AcDbPoint
 10
7159.51425951415
 20
8276.250847072711
 30
0.0
  0
ENDBLK
  5
1DA80
330
1DA74
100
AcDbEntity
  8
0
 48
50.0
100
AcDbBlockEnd
  0
BLOCK
  5
1DA8C
330
1DA81
100
AcDbEntity
  8
0
 48
50.0
100
AcDbBlockBegin
  2
*D7
 70
     1
 10
0.0
 20
0.0
 30
0.0
  3
*D7
  1

  0
LINE
  5
1F88D
330
1DA81
100
AcDbEntity
  8
寸法
 62
     0
 48
50.0
370
    -2
100
AcDbLine
 10
7114.514259514146
 20
8296.250847072711
 30
0.0
 11
7114.514259514146
 21
8548.711542589549
 31
0.0
  0
LINE
  5
1F88E
330
1DA81
100
AcDbEntity
  8
寸法
 62
     0
 48
50.0
370
    -2
100
AcDbLine
 10
7159.514259514151
 20
7691.190236682782
 30
0.0
 11
7159.514259514151
 21
8548.711542589549
 31
0.0
  0
LINE
  5
1F88F
330
1DA81
100
AcDbEntity
  8
寸法
 62
     0
 48
50.0
370
    -2
100
AcDbLine
 10
7114.514259514146
 20
8488.71154258955
 30
0.0
 11
7014.514259514147
 21
8488.71154258955
 31
0.0
  0
LINE
  5
1F890
330
1DA81
100
AcDbEntity
  8
寸法
 62
     0
 48
50.0
370
    -2
100
AcDbLine
 10
7159.514259514151
 20
8488.71154258955
 30
0.0
 11
7259.514259514151
 21
8488.71154258955
 31
0.0
  0
LINE
  5
1F891
330
1DA81
100
AcDbEntity
  8
寸法
 62
     0
 48
50.0
370
    -2
100
AcDbLine
 10
7114.514259514146
 20
8488.71154258955
 30
0.0
 11
7159.514259514151
 21
8488.71154258955
 31
0.0
  0
INSERT
  5
1F892
330
1DA81
100
AcDbEntity
  8
寸法
 62
     0
 48
50.0
370
    -2
100
AcDbBlockReference
  2
_DOTSMALL
 10
7114.514259514146
 20
8488.71154258955
 30
0.0
 41
100.0
 42
100.0
 43
100.0
  0
INSERT
  5
1F893
330
1DA81
100
AcDbEntity
  8
寸法
 62
     0
 48
50.0
370
    -2
100
AcDbBlockReference
  2
_DOTSMALL
 10
7159.514259514151
 20
8488.71154258955
 30
0.0
 41
100.0
 42
100.0
 43
100.0
 50
180.0
  0
MTEXT
  5
1F894
330
1DA81
100
AcDbEntity
  8
寸法
 62
     7
 48
50.0
100
AcDbMText
 10
7137.014259514149
 20
8588.71154258955
 30
0.0
 40
120.0
 41
0.0
 71
     5
 72
     1
  1
\A1;a
  7
STYLE1
 73
     1
 44
1.0
1001
ACAD
1000
MTEXTBEGIN
1070
    73
1070
     1
1070
    44
1040
1.0
1070
    74
1070
     0
1000
MTEXTEND
  0
POINT
  5
1F895
330
1DA81
100
AcDbEntity
  8
DEFPOINTS
 62
     0
 48
50.0
100
AcDbPoint
 10
7114.514259514146
 20
8276.250847072711
 30
0.0
  0
POINT
  5
1F896
330
1DA81
100
AcDbEntity
  8
DEFPOINTS
 62
     0
 48
50.0
100
AcDbPoint
 10
7159.514259514151
 20
7671.190236682781
 30
0.0
  0
POINT
  5
1F897
330
1DA81
100
AcDbEntity
  8
DEFPOINTS
 62
     0
 48
50.0
100
AcDbPoint
 10
7159.514259514151
 20
8488.71154258955
 30
0.0
  0
ENDBLK
  5
1DA8D
330
1DA81
100
AcDbEntity
  8
0
 48
50.0
100
AcDbBlockEnd
  0
BLOCK
  5
1DA98
330
1DA8E
100
AcDbEntity
  8
0
 48
50.0
100
AcDbBlockBegin
  2
*D8
 70
     1
 10
0.0
 20
0.0
 30
0.0
  3
*D8
  1

  0
LINE
  5
1FED2
330
1DA8E
100
AcDbEntity
  8
寸法
 62
     0
 48
50.0
370
    -2
100
AcDbLine
 10
7212.514259514151
 20
7399.919036112861
 30
0.0
 11
6603.571993500331
 21
7399.919036112861
 31
0.0
  0
LINE
  5
1FED3
330
1DA8E
100
AcDbEntity
  8
寸法
 62
     0
 48
50.0
370
    -2
100
AcDbLine
 10
7212.514259514158
 20
5845.919036112861
 30
0.0
 11
6603.57199350033
 21
5845.919036112861
 31
0.0
  0
LINE
  5
1FED4
330
1DA8E
100
AcDbEntity
  8
寸法
 62
     0
 48
50.0
370
    -2
100
AcDbLine
 10
6663.571993500331
 20
7399.919036112861
 30
0.0
 11
6663.57199350033
 21
5845.919036112861
 31
0.0
  0
INSERT
  5
1FED5
330
1DA8E
100
AcDbEntity
  8
寸法
 62
     0
 48
50.0
370
    -2
100
AcDbBlockReference
  2
_DOTSMALL
 10
6663.571993500331
 20
7399.919036112861
 30
0.0
 41
100.0
 42
100.0
 43
100.0
 50
90.0
  0
INSERT
  5
1FED6
330
1DA8E
100
AcDbEntity
  8
寸法
 62
     0
 48
50.0
370
    -2
100
AcDbBlockReference
  2
_DOTSMALL
 10
6663.57199350033
 20
5845.919036112861
 30
0.0
 41
100.0
 42
100.0
 43
100.0
 50
270.0
  0
MTEXT
  5
1FED7
330
1DA8E
100
AcDbEntity
  8
寸法
 62
     7
 48
50.0
100
AcDbMText
 10
6563.571993500329
 20
6634.05280691343
 30
0.0
 40
120.0
 41
0.0
 71
     5
 72
     1
  1
\A1;1554
  7
STYLE1
 11
0.0000000000000001
 21
1.0
 31
0.0
 73
     1
 44
1.0
1001
ACAD
1000
MTEXTBEGIN
1070
    73
1070
     1
1070
    44
1040
1.0
1070
    74
1070
     0
1000
MTEXTEND
  0
POINT
  5
1FED8
330
1DA8E
100
AcDbEntity
  8
DEFPOINTS
 62
     0
 48
50.0
100
AcDbPoint
 10
7232.514259514151
 20
7399.919036112861
 30
0.0
  0
POINT
  5
1FED9
330
1DA8E
100
AcDbEntity
  8
DEFPOINTS
 62
     0
 48
50.0
100
AcDbPoint
 10
7232.514259514158
 20
5845.919036112861
 30
0.0
  0
POINT
  5
1FEDA
330
1DA8E
100
AcDbEntity
  8
DEFPOINTS
 62
     0
 48
50.0
100
AcDbPoint
 10
6663.57199350033
 20
5845.919036112861
 30
0.0
  0
ENDBLK
  5
1DA99
330
1DA8E
100
AcDbEntity
  8
0
 48
50.0
100
AcDbBlockEnd
  0
BLOCK
  5
1DAA3
330
1DA9A
100
AcDbEntity
  8
0
 48
50.0
100
AcDbBlockBegin
  2
*D9
 70
     1
 10
0.0
 20
0.0
 30
0.0
  3
*D9
  1

  0
LINE
  5
1F90F
330
1DA9A
100
AcDbEntity
  8
寸法
 62
     0
 48
50.0
370
    -2
100
AcDbLine
 10
7139.514259514149
 20
7522.919036112863
 30
0.0
 11
6358.079191362364
 21
7522.919036112863
 31
0.0
  0
LINE
  5
1F910
330
1DA9A
100
AcDbEntity
  8
寸法
 62
     0
 48
50.0
370
    -2
100
AcDbLine
 10
7139.514259514152
 20
5722.919036112859
 30
0.0
 11
6358.079191362364
 21
5722.919036112859
 31
0.0
  0
LINE
  5
1F911
330
1DA9A
100
AcDbEntity
  8
寸法
 62
     0
 48
50.0
370
    -2
100
AcDbLine
 10
6418.079191362365
 20
7522.919036112863
 30
0.0
 11
6418.079191362363
 21
5722.919036112859
 31
0.0
  0
INSERT
  5
1F912
330
1DA9A
100
AcDbEntity
  8
寸法
 62
     0
 48
50.0
370
    -2
100
AcDbBlockReference
  2
_DOTSMALL
 10
6418.079191362365
 20
7522.919036112863
 30
0.0
 41
100.0
 42
100.0
 43
100.0
 50
90.0
  0
INSERT
  5
1F913
330
1DA9A
100
AcDbEntity
  8
寸法
 62
     0
 48
50.0
370
    -2
100
AcDbBlockReference
  2
_DOTSMALL
 10
6418.079191362363
 20
5722.919036112859
 30
0.0
 41
100.0
 42
100.0
 43
100.0
 50
270.0
  0
MTEXT
  5
1F914
330
1DA9A
100
AcDbEntity
  8
寸法
 62
     7
 48
50.0
100
AcDbMText
 10
6318.079191362363
 20
6651.31453344319
 30
0.0
 40
120.0
 41
0.0
 71
     5
 72
     1
  1
\A1;1800
  7
STYLE1
 11
0.0000000000000001
 21
1.0
 31
0.0
 73
     1
 44
1.0
1001
ACAD
1000
MTEXTBEGIN
1070
    73
1070
     1
1070
    44
1040
1.0
1070
    74
1070
     0
1000
MTEXTEND
  0
POINT
  5
1F915
330
1DA9A
100
AcDbEntity
  8
DEFPOINTS
 62
     0
 48
50.0
100
AcDbPoint
 10
7159.51425951415
 20
7522.919036112863
 30
0.0
  0
POINT
  5
1F916
330
1DA9A
100
AcDbEntity
  8
DEFPOINTS
 62
     0
 48
50.0
100
AcDbPoint
 10
7159.514259514151
 20
5722.919036112859
 30
0.0
  0
POINT
  5
1F917
330
1DA9A
100
AcDbEntity
  8
DEFPOINTS
 62
     0
 48
50.0
100
AcDbPoint
 10
6418.079191362363
 20
5722.919036112859
 30
0.0
  0
ENDBLK
  5
1DAA4
330
1DA9A
100
AcDbEntity
  8
0
 48
50.0
100
AcDbBlockEnd
  0
BLOCK
  5
1DAB0
330
1DAA5
100
AcDbEntity
  8
0
 48
50.0
100
AcDbBlockBegin
  2
*D10
 70
     1
 10
0.0
 20
0.0
 30
0.0
  3
*D10
  1

  0
LINE
  5
1FEC8
330
1DAA5
100
AcDbEntity
  8
寸法
 62
     0
 48
50.0
370
    -2
100
AcDbLine
 10
7212.514259514158
 20
5845.919036112861
 30
0.0
 11
6603.57199350033
 21
5845.919036112861
 31
0.0
  0
LINE
  5
1FEC9
330
1DAA5
100
AcDbEntity
  8
寸法
 62
     0
 48
50.0
370
    -2
100
AcDbLine
 10
7139.514259514152
 20
5722.919036112859
 30
0.0
 11
6603.57199350033
 21
5722.919036112859
 31
0.0
  0
LINE
  5
1FECA
330
1DAA5
100
AcDbEntity
  8
寸法
 62
     0
 48
50.0
370
    -2
100
AcDbLine
 10
6663.57199350033
 20
5845.919036112861
 30
0.0
 11
6663.57199350033
 21
5722.919036112859
 31
0.0
  0
LINE
  5
1FECB
330
1DAA5
100
AcDbEntity
  8
寸法
 62
     0
 48
50.0
370
    -2
100
AcDbLine
 10
6663.57199350033
 20
5722.919036112859
 30
0.0
 11
6663.57199350033
 21
5345.948473364382
 31
0.0
  0
INSERT
  5
1FECC
330
1DAA5
100
AcDbEntity
  8
寸法
 62
     0
 48
50.0
370
    -2
100
AcDbBlockReference
  2
_DOTSMALL
 10
6663.57199350033
 20
5845.919036112861
 30
0.0
 41
100.0
 42
100.0
 43
100.0
 50
90.0
  0
INSERT
  5
1FECD
330
1DAA5
100
AcDbEntity
  8
寸法
 62
     0
 48
50.0
370
    -2
100
AcDbBlockReference
  2
_DOTSMALL
 10
6663.57199350033
 20
5722.919036112859
 30
0.0
 41
100.0
 42
100.0
 43
100.0
 50
270.0
  0
MTEXT
  5
1FECE
330
1DAA5
100
AcDbEntity
  8
寸法
 62
     7
 48
50.0
100
AcDbMText
 10
6563.560182476708
 20
5484.433754738623
 30
0.0
 40
120.0
 41
0.0
 71
     5
 72
     1
  1
\A1;123
  7
STYLE1
 11
0.0000000000000001
 21
1.0
 31
0.0
 73
     1
 44
1.0
1001
ACAD
1000
MTEXTBEGIN
1070
    73
1070
     1
1070
    44
1040
1.0
1070
    74
1070
     0
1000
MTEXTEND
  0
POINT
  5
1FECF
330
1DAA5
100
AcDbEntity
  8
DEFPOINTS
 62
     0
 48
50.0
100
AcDbPoint
 10
7232.514259514158
 20
5845.919036112861
 30
0.0
  0
POINT
  5
1FED0
330
1DAA5
100
AcDbEntity
  8
DEFPOINTS
 62
     0
 48
50.0
100
AcDbPoint
 10
7159.514259514151
 20
5722.919036112859
 30
0.0
  0
POINT
  5
1FED1
330
1DAA5
100
AcDbEntity
  8
DEFPOINTS
 62
     0
 48
50.0
100
AcDbPoint
 10
6663.57199350033
 20
5722.919036112859
 30
0.0
  0
ENDBLK
  5
1DAB1
330
1DAA5
100
AcDbEntity
  8
0
 48
50.0
100
AcDbBlockEnd
  0
BLOCK
  5
1DABC
330
1DAB2
100
AcDbEntity
  8
0
 48
50.0
100
AcDbBlockBegin
  2
*D11
 70
     1
 10
0.0
 20
0.0
 30
0.0
  3
*D11
  1

  0
LINE
  5
1F382
330
1DAB2
100
AcDbEntity
  8
寸法
 62
     0
 48
50.0
370
    -2
100
AcDbLine
 10
7139.514259514152
 20
5722.919036112859
 30
0.0
 11
6358.079191362364
 21
5722.919036112859
 31
0.0
  0
LINE
  5
1F383
330
1DAB2
100
AcDbEntity
  8
寸法
 62
     0
 48
50.0
370
    -2
100
AcDbLine
 10
6643.57199350033
 20
5667.919036112859
 30
0.0
 11
6358.079191362364
 21
5667.919036112859
 31
0.0
  0
LINE
  5
1F384
330
1DAB2
100
AcDbEntity
  8
寸法
 62
     0
 48
50.0
370
    -2
100
AcDbLine
 10
6418.079191362363
 20
5722.919036112859
 30
0.0
 11
6418.079191362363
 21
5822.919036112859
 31
0.0
  0
LINE
  5
1F385
330
1DAB2
100
AcDbEntity
  8
寸法
 62
     0
 48
50.0
370
    -2
100
AcDbLine
 10
6418.079191362363
 20
5667.919036112859
 30
0.0
 11
6418.079191362363
 21
5567.91903611286
 31
0.0
  0
LINE
  5
1F386
330
1DAB2
100
AcDbEntity
  8
寸法
 62
     0
 48
50.0
370
    -2
100
AcDbLine
 10
6418.079191362363
 20
5722.919036112859
 30
0.0
 11
6418.079191362363
 21
5667.919036112859
 31
0.0
  0
INSERT
  5
1F387
330
1DAB2
100
AcDbEntity
  8
寸法
 62
     0
 48
50.0
370
    -2
100
AcDbBlockReference
  2
_DOTSMALL
 10
6418.079191362363
 20
5722.919036112859
 30
0.0
 41
100.0
 42
100.0
 43
100.0
 50
270.0
  0
INSERT
  5
1F388
330
1DAB2
100
AcDbEntity
  8
寸法
 62
     0
 48
50.0
370
    -2
100
AcDbBlockReference
  2
_DOTSMALL
 10
6418.079191362363
 20
5667.919036112859
 30
0.0
 41
100.0
 42
100.0
 43
100.0
 50
90.0
  0
MTEXT
  5
1F389
330
1DAB2
100
AcDbEntity
  8
寸法
 62
     7
 48
50.0
100
AcDbMText
 10
6318.079191362363
 20
5695.419036112861
 30
0.0
 40
120.0
 41
0.0
 71
     5
 72
     1
  1
\A1;b
  7
STYLE1
 11
0.0000000000000001
 21
1.0
 31
0.0
 73
     1
 44
1.0
1001
ACAD
1000
MTEXTBEGIN
1070
    73
1070
     1
1070
    44
1040
1.0
1070
    74
1070
     0
1000
MTEXTEND
  0
POINT
  5
1F38A
330
1DAB2
100
AcDbEntity
  8
DEFPOINTS
 62
     0
 48
50.0
100
AcDbPoint
 10
7159.514259514151
 20
5722.919036112859
 30
0.0
  0
POINT
  5
1F38B
330
1DAB2
100
AcDbEntity
  8
DEFPOINTS
 62
     0
 48
50.0
100
AcDbPoint
 10
6663.57199350033
 20
5667.919036112859
 30
0.0
  0
POINT
  5
1F38C
330
1DAB2
100
AcDbEntity
  8
DEFPOINTS
 62
     0
 48
50.0
100
AcDbPoint
 10
6418.079191362363
 20
5667.919036112859
 30
0.0
  0
ENDBLK
  5
1DABD
330
1DAB2
100
AcDbEntity
  8
0
 48
50.0
100
AcDbBlockEnd
  0
BLOCK
  5
1DAC9
330
1DABE
100
AcDbEntity
  8
0
 48
50.0
100
AcDbBlockBegin
  2
*D12
 70
     1
 10
0.0
 20
0.0
 30
0.0
  3
*D12
  1

  0
LINE
  5
1F883
330
1DABE
100
AcDbEntity
  8
寸法
 62
     0
 48
50.0
370
    -2
100
AcDbLine
 10
7139.51425951415
 20
7522.91903611286
 30
0.0
 11
6603.571993500328
 21
7522.91903611286
 31
0.0
  0
LINE
  5
1F884
330
1DABE
100
AcDbEntity
  8
寸法
 62
     0
 48
50.0
370
    -2
100
AcDbLine
 10
7212.514259514151
 20
7399.919036112861
 30
0.0
 11
6603.571993500328
 21
7399.919036112861
 31
0.0
  0
LINE
  5
1F885
330
1DABE
100
AcDbEntity
  8
寸法
 62
     0
 48
50.0
370
    -2
100
AcDbLine
 10
6663.57199350033
 20
7399.919036112861
 30
0.0
 11
6663.57199350033
 21
7522.91903611286
 31
0.0
  0
LINE
  5
1F886
330
1DABE
100
AcDbEntity
  8
寸法
 62
     0
 48
50.0
370
    -2
100
AcDbLine
 10
6663.57199350033
 20
7522.91903611286
 30
0.0
 11
6663.57199350033
 21
7899.889598861339
 31
0.0
  0
INSERT
  5
1F887
330
1DABE
100
AcDbEntity
  8
寸法
 62
     0
 48
50.0
370
    -2
100
AcDbBlockReference
  2
_DOTSMALL
 10
6663.57199350033
 20
7399.919036112861
 30
0.0
 41
100.0
 42
100.0
 43
100.0
 50
270.0
  0
INSERT
  5
1F888
330
1DABE
100
AcDbEntity
  8
寸法
 62
     0
 48
50.0
370
    -2
100
AcDbBlockReference
  2
_DOTSMALL
 10
6663.57199350033
 20
7522.91903611286
 30
0.0
 41
100.0
 42
100.0
 43
100.0
 50
90.0
  0
MTEXT
  5
1F889
330
1DABE
100
AcDbEntity
  8
寸法
 62
     7
 48
50.0
100
AcDbMText
 10
6563.560182476706
 20
7761.4043174871
 30
0.0
 40
120.0
 41
0.0
 71
     5
 72
     1
  1
\A1;123
  7
STYLE1
 11
0.0000000000000001
 21
1.0
 31
0.0
 73
     1
 44
1.0
1001
ACAD
1000
MTEXTBEGIN
1070
    73
1070
     1
1070
    44
1040
1.0
1070
    74
1070
     0
1000
MTEXTEND
  0
POINT
  5
1F88A
330
1DABE
100
AcDbEntity
  8
DEFPOINTS
 62
     0
 48
50.0
100
AcDbPoint
 10
7159.514259514151
 20
7522.91903611286
 30
0.0
  0
POINT
  5
1F88B
330
1DABE
100
AcDbEntity
  8
DEFPOINTS
 62
     0
 48
50.0
100
AcDbPoint
 10
7232.514259514151
 20
7399.919036112861
 30
0.0
  0
POINT
  5
1F88C
330
1DABE
100
AcDbEntity
  8
DEFPOINTS
 62
     0
 48
50.0
100
AcDbPoint
 10
6663.57199350033
 20
7399.919036112861
 30
0.0
  0
ENDBLK
  5
1DACA
330
1DABE
100
AcDbEntity
  8
0
 48
50.0
100
AcDbBlockEnd
  0
BLOCK
  5
1DAD7
330
1DACB
100
AcDbEntity
  8
0
 48
50.0
100
AcDbBlockBegin
  2
*D13
 70
     1
 10
0.0
 20
0.0
 30
0.0
  3
*D13
  1

  0
LINE
  5
1F878
330
1DACB
100
AcDbEntity
  8
寸法
 62
     0
 48
50.0
370
    -2
100
AcDbLine
 10
6643.57199350033
 20
7597.91903611286
 30
0.0
 11
6358.079191362362
 21
7597.91903611286
 31
0.0
  0
LINE
  5
1F879
330
1DACB
100
AcDbEntity
  8
寸法
 62
     0
 48
50.0
370
    -2
100
AcDbLine
 10
7139.51425951415
 20
7522.91903611286
 30
0.0
 11
6358.079191362362
 21
7522.91903611286
 31
0.0
  0
LINE
  5
1F87A
330
1DACB
100
AcDbEntity
  8
寸法
 62
     0
 48
50.0
370
    -2
100
AcDbLine
 10
6418.079191362362
 20
7597.91903611286
 30
0.0
 11
6418.079191362362
 21
7697.91903611286
 31
0.0
  0
LINE
  5
1F87B
330
1DACB
100
AcDbEntity
  8
寸法
 62
     0
 48
50.0
370
    -2
100
AcDbLine
 10
6418.079191362362
 20
7522.91903611286
 30
0.0
 11
6418.079191362362
 21
7422.91903611286
 31
0.0
  0
LINE
  5
1F87C
330
1DACB
100
AcDbEntity
  8
寸法
 62
     0
 48
50.0
370
    -2
100
AcDbLine
 10
6418.079191362362
 20
7597.91903611286
 30
0.0
 11
6418.079191362362
 21
7522.91903611286
 31
0.0
  0
INSERT
  5
1F87D
330
1DACB
100
AcDbEntity
  8
寸法
 62
     0
 48
50.0
370
    -2
100
AcDbBlockReference
  2
_DOTSMALL
 10
6418.079191362362
 20
7597.91903611286
 30
0.0
 41
100.0
 42
100.0
 43
100.0
 50
270.0
  0
INSERT
  5
1F87E
330
1DACB
100
AcDbEntity
  8
寸法
 62
     0
 48
50.0
370
    -2
100
AcDbBlockReference
  2
_DOTSMALL
 10
6418.079191362362
 20
7522.91903611286
 30
0.0
 41
100.0
 42
100.0
 43
100.0
 50
90.0
  0
MTEXT
  5
1F87F
330
1DACB
100
AcDbEntity
  8
寸法
 62
     7
 48
50.0
100
AcDbMText
 10
6318.079191362361
 20
7560.419036112863
 30
0.0
 40
120.0
 41
0.0
 71
     5
 72
     1
  1
\A1;c
  7
STYLE1
 11
0.0000000000000001
 21
1.0
 31
0.0
 73
     1
 44
1.0
1001
ACAD
1000
MTEXTBEGIN
1070
    73
1070
     1
1070
    44
1040
1.0
1070
    74
1070
     0
1000
MTEXTEND
  0
POINT
  5
1F880
330
1DACB
100
AcDbEntity
  8
DEFPOINTS
 62
     0
 48
50.0
100
AcDbPoint
 10
6663.57199350033
 20
7597.91903611286
 30
0.0
  0
POINT
  5
1F881
330
1DACB
100
AcDbEntity
  8
DEFPOINTS
 62
     0
 48
50.0
100
AcDbPoint
 10
7159.514259514151
 20
7522.91903611286
 30
0.0
  0
POINT
  5
1F882
330
1DACB
100
AcDbEntity
  8
DEFPOINTS
 62
     0
 48
50.0
100
AcDbPoint
 10
6418.079191362362
 20
7522.91903611286
 30
0.0
  0
ENDBLK
  5
1DAD8
330
1DACB
100
AcDbEntity
  8
0
 48
50.0
100
AcDbBlockEnd
  0
BLOCK
  5
1DAE4
330
1DAD9
100
AcDbEntity
  8
0
 48
50.0
100
AcDbBlockBegin
  2
*D14
 70
     1
 10
0.0
 20
0.0
 30
0.0
  3
*D14
  1

  0
LINE
  5
1F86E
330
1DAD9
100
AcDbEntity
  8
寸法
 62
     0
 48
50.0
370
    -2
100
AcDbLine
 10
8959.514259514151
 20
7542.919036112862
 30
0.0
 11
8959.514259514151
 21
8336.250847072712
 31
0.0
  0
LINE
  5
1F86F
330
1DAD9
100
AcDbEntity
  8
寸法
 62
     0
 48
50.0
370
    -2
100
AcDbLine
 10
8836.514259514151
 20
7469.91903611286
 30
0.0
 11
8836.514259514151
 21
8336.250847072712
 31
0.0
  0
LINE
  5
1F870
330
1DAD9
100
AcDbEntity
  8
寸法
 62
     0
 48
50.0
370
    -2
100
AcDbLine
 10
8836.514259514151
 20
8276.250847072711
 30
0.0
 11
8959.514259514151
 21
8276.250847072711
 31
0.0
  0
LINE
  5
1F871
330
1DAD9
100
AcDbEntity
  8
寸法
 62
     0
 48
50.0
370
    -2
100
AcDbLine
 10
8959.514259514151
 20
8276.250847072711
 30
0.0
 11
9336.484822262628
 21
8276.250847072711
 31
0.0
  0
INSERT
  5
1F872
330
1DAD9
100
AcDbEntity
  8
寸法
 62
     0
 48
50.0
370
    -2
100
AcDbBlockReference
  2
_DOTSMALL
 10
8836.514259514151
 20
8276.250847072711
 30
0.0
 41
100.0
 42
100.0
 43
100.0
 50
180.0
  0
INSERT
  5
1F873
330
1DAD9
100
AcDbEntity
  8
寸法
 62
     0
 48
50.0
370
    -2
100
AcDbBlockReference
  2
_DOTSMALL
 10
8959.514259514151
 20
8276.250847072711
 30
0.0
 41
100.0
 42
100.0
 43
100.0
  0
MTEXT
  5
1F874
330
1DAD9
100
AcDbEntity
  8
寸法
 62
     7
 48
50.0
100
AcDbMText
 10
9197.999540888389
 20
8376.262658096333
 30
0.0
 40
120.0
 41
0.0
 71
     5
 72
     1
  1
\A1;123
  7
STYLE1
 73
     1
 44
1.0
1001
ACAD
1000
MTEXTBEGIN
1070
    73
1070
     1
1070
    44
1040
1.0
1070
    74
1070
     0
1000
MTEXTEND
  0
POINT
  5
1F875
330
1DAD9
100
AcDbEntity
  8
DEFPOINTS
 62
     0
 48
50.0
100
AcDbPoint
 10
8959.514259514151
 20
7522.919036112861
 30
0.0
  0
POINT
  5
1F876
330
1DAD9
100
AcDbEntity
  8
DEFPOINTS
 62
     0
 48
50.0
100
AcDbPoint
 10
8836.514259514151
 20
7449.919036112861
 30
0.0
  0
POINT
  5
1F877
330
1DAD9
100
AcDbEntity
  8
DEFPOINTS
 62
     0
 48
50.0
100
AcDbPoint
 10
8836.514259514151
 20
8276.250847072711
 30
0.0
  0
ENDBLK
  5
1DAE5
330
1DAD9
100
AcDbEntity
  8
0
 48
50.0
100
AcDbBlockEnd
  0
BLOCK
  5
1DAF1
330
1DAE6
100
AcDbEntity
  8
0
 48
50.0
100
AcDbBlockBegin
  2
*D15
 70
     1
 10
0.0
 20
0.0
 30
0.0
  3
*D15
  1

  0
LINE
  5
1F863
330
1DAE6
100
AcDbEntity
  8
寸法
 62
     0
 48
50.0
370
    -2
100
AcDbLine
 10
8959.514259514151
 20
7691.190236682782
 30
0.0
 11
8959.514259514151
 21
8548.711542589549
 31
0.0
  0
LINE
  5
1F864
330
1DAE6
100
AcDbEntity
  8
寸法
 62
     0
 48
50.0
370
    -2
100
AcDbLine
 10
9004.51425951415
 20
8296.250847072711
 30
0.0
 11
9004.51425951415
 21
8548.711542589549
 31
0.0
  0
LINE
  5
1F865
330
1DAE6
100
AcDbEntity
  8
寸法
 62
     0
 48
50.0
370
    -2
100
AcDbLine
 10
8959.514259514151
 20
8488.711542589548
 30
0.0
 11
8859.514259514151
 21
8488.711542589548
 31
0.0
  0
LINE
  5
1F866
330
1DAE6
100
AcDbEntity
  8
寸法
 62
     0
 48
50.0
370
    -2
100
AcDbLine
 10
9004.51425951415
 20
8488.711542589548
 30
0.0
 11
9104.514259514152
 21
8488.711542589548
 31
0.0
  0
LINE
  5
1F867
330
1DAE6
100
AcDbEntity
  8
寸法
 62
     0
 48
50.0
370
    -2
100
AcDbLine
 10
8959.514259514151
 20
8488.711542589548
 30
0.0
 11
9004.51425951415
 21
8488.711542589548
 31
0.0
  0
INSERT
  5
1F868
330
1DAE6
100
AcDbEntity
  8
寸法
 62
     0
 48
50.0
370
    -2
100
AcDbBlockReference
  2
_DOTSMALL
 10
8959.514259514151
 20
8488.711542589548
 30
0.0
 41
100.0
 42
100.0
 43
100.0
  0
INSERT
  5
1F869
330
1DAE6
100
AcDbEntity
  8
寸法
 62
     0
 48
50.0
370
    -2
100
AcDbBlockReference
  2
_DOTSMALL
 10
9004.51425951415
 20
8488.711542589548
 30
0.0
 41
100.0
 42
100.0
 43
100.0
 50
180.0
  0
MTEXT
  5
1F86A
330
1DAE6
100
AcDbEntity
  8
寸法
 62
     7
 48
50.0
100
AcDbMText
 10
8982.014259514151
 20
8588.711542589548
 30
0.0
 40
120.0
 41
0.0
 71
     5
 72
     1
  1
\A1;a
  7
STYLE1
 73
     1
 44
1.0
1001
ACAD
1000
MTEXTBEGIN
1070
    73
1070
     1
1070
    44
1040
1.0
1070
    74
1070
     0
1000
MTEXTEND
  0
POINT
  5
1F86B
330
1DAE6
100
AcDbEntity
  8
DEFPOINTS
 62
     0
 48
50.0
100
AcDbPoint
 10
8959.514259514151
 20
7671.190236682781
 30
0.0
  0
POINT
  5
1F86C
330
1DAE6
100
AcDbEntity
  8
DEFPOINTS
 62
     0
 48
50.0
100
AcDbPoint
 10
9004.51425951415
 20
8276.250847072711
 30
0.0
  0
POINT
  5
1F86D
330
1DAE6
100
AcDbEntity
  8
DEFPOINTS
 62
     0
 48
50.0
100
AcDbPoint
 10
9004.51425951415
 20
8488.711542589548
 30
0.0
  0
ENDBLK
  5
1DAF2
330
1DAE6
100
AcDbEntity
  8
0
 48
50.0
100
AcDbBlockEnd
  0
BLOCK
  5
1DAFE
330
1DAF3
100
AcDbEntity
  8
0
 48
50.0
100
AcDbBlockBegin
  2
*D16
 70
     1
 10
0.0
 20
0.0
 30
0.0
  3
*D16
  1

  0
LINE
  5
1FE68
330
1DAF3
100
AcDbEntity
  8
寸法
 62
     0
 48
50.0
370
    -2
100
AcDbLine
 10
8959.514259514151
 20
7022.91903611287
 30
0.0
 11
8959.514259514151
 21
6924.422404093454
 31
0.0
  0
LINE
  5
1FE69
330
1DAF3
100
AcDbEntity
  8
寸法
 62
     0
 48
50.0
370
    -2
100
AcDbLine
 10
8839.51425951415
 20
7022.91903611287
 30
0.0
 11
8839.51425951415
 21
6924.422404093454
 31
0.0
  0
LINE
  5
1FE6A
330
1DAF3
100
AcDbEntity
  8
寸法
 62
     0
 48
50.0
370
    -2
100
AcDbLine
 10
8839.51425951415
 20
6984.422404093454
 30
0.0
 11
8959.514259514151
 21
6984.422404093454
 31
0.0
  0
LINE
  5
1FE6B
330
1DAF3
100
AcDbEntity
  8
寸法
 62
     0
 48
50.0
370
    -2
100
AcDbLine
 10
8959.514259514151
 20
6984.422404093454
 30
0.0
 11
9331.608747703128
 21
6984.422404093454
 31
0.0
  0
INSERT
  5
1FE6C
330
1DAF3
100
AcDbEntity
  8
寸法
 62
     0
 48
50.0
370
    -2
100
AcDbBlockReference
  2
_DOTSMALL
 10
8839.51425951415
 20
6984.422404093454
 30
0.0
 41
100.0
 42
100.0
 43
100.0
 50
180.0
  0
INSERT
  5
1FE6D
330
1DAF3
100
AcDbEntity
  8
寸法
 62
     0
 48
50.0
370
    -2
100
AcDbBlockReference
  2
_DOTSMALL
 10
8959.514259514151
 20
6984.422404093454
 30
0.0
 41
100.0
 42
100.0
 43
100.0
  0
MTEXT
  5
1FE6E
330
1DAF3
100
AcDbEntity
  8
寸法
 62
     7
 48
50.0
100
AcDbMText
 10
9195.56150360864
 20
7084.434215117075
 30
0.0
 40
120.0
 41
0.0
 71
     5
 72
     1
  1
\A1;120
  7
STYLE1
 73
     1
 44
1.0
1001
ACAD
1000
MTEXTBEGIN
1070
    73
1070
     1
1070
    44
1040
1.0
1070
    74
1070
     0
1000
MTEXTEND
  0
POINT
  5
1FE6F
330
1DAF3
100
AcDbEntity
  8
DEFPOINTS
 62
     0
 48
50.0
100
AcDbPoint
 10
8959.514259514151
 20
7042.919036112869
 30
0.0
  0
POINT
  5
1FE70
330
1DAF3
100
AcDbEntity
  8
DEFPOINTS
 62
     0
 48
50.0
100
AcDbPoint
 10
8839.51425951415
 20
7042.919036112869
 30
0.0
  0
POINT
  5
1FE71
330
1DAF3
100
AcDbEntity
  8
DEFPOINTS
 62
     0
 48
50.0
100
AcDbPoint
 10
8839.51425951415
 20
6984.422404093454
 30
0.0
  0
ENDBLK
  5
1DAFF
330
1DAF3
100
AcDbEntity
  8
0
 48
50.0
100
AcDbBlockEnd
  0
BLOCK
  5
1DB0B
330
1DB00
100
AcDbEntity
  8
0
 48
50.0
100
AcDbBlockBegin
  2
*D17
 70
     1
 10
0.0
 20
0.0
 30
0.0
  3
*D17
  1

  0
LINE
  5
1FE7C
330
1DB00
100
AcDbEntity
  8
寸法
 62
     0
 48
50.0
370
    -2
100
AcDbLine
 10
7409.514259514151
 20
7402.919036112861
 30
0.0
 11
7680.024443427175
 21
7402.919036112861
 31
0.0
  0
LINE
  5
1FE7D
330
1DB00
100
AcDbEntity
  8
寸法
 62
     0
 48
50.0
370
    -2
100
AcDbLine
 10
7409.514259514151
 20
7292.919036112856
 30
0.0
 11
7680.024443427175
 21
7292.919036112856
 31
0.0
  0
LINE
  5
1FE7E
330
1DB00
100
AcDbEntity
  8
寸法
 62
     0
 48
50.0
370
    -2
100
AcDbLine
 10
7620.024443427175
 20
7402.919036112861
 30
0.0
 11
7620.024443427175
 21
7292.919036112856
 31
0.0
  0
LINE
  5
1FE7F
330
1DB00
100
AcDbEntity
  8
寸法
 62
     0
 48
50.0
370
    -2
100
AcDbLine
 10
7620.024443427175
 20
7292.919036112856
 30
0.0
 11
7620.024443427175
 21
6930.551083440445
 31
0.0
  0
INSERT
  5
1FE80
330
1DB00
100
AcDbEntity
  8
寸法
 62
     0
 48
50.0
370
    -2
100
AcDbBlockReference
  2
_DOTSMALL
 10
7620.024443427175
 20
7402.919036112861
 30
0.0
 41
100.0
 42
100.0
 43
100.0
 50
90.0
  0
INSERT
  5
1FE81
330
1DB00
100
AcDbEntity
  8
寸法
 62
     0
 48
50.0
370
    -2
100
AcDbBlockReference
  2
_DOTSMALL
 10
7620.024443427175
 20
7292.919036112856
 30
0.0
 41
100.0
 42
100.0
 43
100.0
 50
270.0
  0
MTEXT
  5
1FE82
330
1DB00
100
AcDbEntity
  8
寸法
 62
     7
 48
50.0
100
AcDbMText
 10
7520.024443427172
 20
7054.598327534932
 30
0.0
 40
120.0
 41
0.0
 71
     5
 72
     1
  1
\A1;110
  7
STYLE1
 11
0.0000000000000001
 21
1.0
 31
0.0
 73
     1
 44
1.0
1001
ACAD
1000
MTEXTBEGIN
1070
    73
1070
     1
1070
    44
1040
1.0
1070
    74
1070
     0
1000
MTEXTEND
  0
POINT
  5
1FE83
330
1DB00
100
AcDbEntity
  8
DEFPOINTS
 62
     0
 48
50.0
100
AcDbPoint
 10
7389.51425951415
 20
7402.919036112861
 30
0.0
  0
POINT
  5
1FE84
330
1DB00
100
AcDbEntity
  8
DEFPOINTS
 62
     0
 48
50.0
100
AcDbPoint
 10
7389.51425951415
 20
7292.919036112856
 30
0.0
  0
POINT
  5
1FE85
330
1DB00
100
AcDbEntity
  8
DEFPOINTS
 62
     0
 48
50.0
100
AcDbPoint
 10
7620.024443427175
 20
7292.919036112856
 30
0.0
  0
ENDBLK
  5
1DB0C
330
1DB00
100
AcDbEntity
  8
0
 48
50.0
100
AcDbBlockEnd
  0
BLOCK
  5
1DB18
330
1DB0D
100
AcDbEntity
  8
0
 48
50.0
100
AcDbBlockBegin
  2
*D18
 70
     1
 10
0.0
 20
0.0
 30
0.0
  3
*D18
  1

  0
LINE
  5
1FE5E
330
1DB0D
100
AcDbEntity
  8
寸法
 62
     0
 48
50.0
370
    -2
100
AcDbLine
 10
8839.51425951415
 20
7022.91903611287
 30
0.0
 11
8839.51425951415
 21
6924.422404093454
 31
0.0
  0
LINE
  5
1FE5F
330
1DB0D
100
AcDbEntity
  8
寸法
 62
     0
 48
50.0
370
    -2
100
AcDbLine
 10
8729.514259514152
 20
7272.919036112859
 30
0.0
 11
8729.514259514152
 21
6924.422404093454
 31
0.0
  0
LINE
  5
1FE60
330
1DB0D
100
AcDbEntity
  8
寸法
 62
     0
 48
50.0
370
    -2
100
AcDbLine
 10
8839.51425951415
 20
6984.422404093454
 30
0.0
 11
8729.514259514152
 21
6984.422404093454
 31
0.0
  0
LINE
  5
1FE61
330
1DB0D
100
AcDbEntity
  8
寸法
 62
     0
 48
50.0
370
    -2
100
AcDbLine
 10
8729.514259514152
 20
6984.422404093454
 30
0.0
 11
8369.419771325175
 21
6984.422404093454
 31
0.0
  0
INSERT
  5
1FE62
330
1DB0D
100
AcDbEntity
  8
寸法
 62
     0
 48
50.0
370
    -2
100
AcDbBlockReference
  2
_DOTSMALL
 10
8839.51425951415
 20
6984.422404093454
 30
0.0
 41
100.0
 42
100.0
 43
100.0
  0
INSERT
  5
1FE63
330
1DB0D
100
AcDbEntity
  8
寸法
 62
     0
 48
50.0
370
    -2
100
AcDbBlockReference
  2
_DOTSMALL
 10
8729.514259514152
 20
6984.422404093454
 30
0.0
 41
100.0
 42
100.0
 43
100.0
 50
180.0
  0
MTEXT
  5
1FE64
330
1DB0D
100
AcDbEntity
  8
寸法
 62
     7
 48
50.0
100
AcDbMText
 10
8493.467015419662
 20
7084.422404093453
 30
0.0
 40
120.0
 41
0.0
 71
     5
 72
     1
  1
\A1;110
  7
STYLE1
 73
     1
 44
1.0
1001
ACAD
1000
MTEXTBEGIN
1070
    73
1070
     1
1070
    44
1040
1.0
1070
    74
1070
     0
1000
MTEXTEND
  0
POINT
  5
1FE65
330
1DB0D
100
AcDbEntity
  8
DEFPOINTS
 62
     0
 48
50.0
100
AcDbPoint
 10
8839.51425951415
 20
7042.919036112869
 30
0.0
  0
POINT
  5
1FE66
330
1DB0D
100
AcDbEntity
  8
DEFPOINTS
 62
     0
 48
50.0
100
AcDbPoint
 10
8729.514259514152
 20
7292.919036112859
 30
0.0
  0
POINT
  5
1FE67
330
1DB0D
100
AcDbEntity
  8
DEFPOINTS
 62
     0
 48
50.0
100
AcDbPoint
 10
8729.514259514152
 20
6984.422404093454
 30
0.0
  0
ENDBLK
  5
1DB19
330
1DB0D
100
AcDbEntity
  8
0
 48
50.0
100
AcDbBlockEnd
  0
BLOCK
  5
1DB25
330
1DB1A
100
AcDbEntity
  8
0
 48
50.0
100
AcDbBlockBegin
  2
*D19
 70
     1
 10
0.0
 20
0.0
 30
0.0
  3
*D19
  1

  0
LINE
  5
1FE72
330
1DB1A
100
AcDbEntity
  8
寸法
 62
     0
 48
50.0
370
    -2
100
AcDbLine
 10
7381.514259514151
 20
7522.919036112859
 30
0.0
 11
7680.024443427173
 21
7522.919036112859
 31
0.0
  0
LINE
  5
1FE73
330
1DB1A
100
AcDbEntity
  8
寸法
 62
     0
 48
50.0
370
    -2
100
AcDbLine
 10
7409.514259514151
 20
7402.919036112861
 30
0.0
 11
7680.024443427173
 21
7402.919036112861
 31
0.0
  0
LINE
  5
1FE74
330
1DB1A
100
AcDbEntity
  8
寸法
 62
     0
 48
50.0
370
    -2
100
AcDbLine
 10
7620.024443427173
 20
7402.919036112861
 30
0.0
 11
7620.024443427173
 21
7522.919036112859
 31
0.0
  0
LINE
  5
1FE75
330
1DB1A
100
AcDbEntity
  8
寸法
 62
     0
 48
50.0
370
    -2
100
AcDbLine
 10
7620.024443427173
 20
7522.919036112859
 30
0.0
 11
7620.024443427173
 21
7895.013524301837
 31
0.0
  0
INSERT
  5
1FE76
330
1DB1A
100
AcDbEntity
  8
寸法
 62
     0
 48
50.0
370
    -2
100
AcDbBlockReference
  2
_DOTSMALL
 10
7620.024443427173
 20
7402.919036112861
 30
0.0
 41
100.0
 42
100.0
 43
100.0
 50
270.0
  0
INSERT
  5
1FE77
330
1DB1A
100
AcDbEntity
  8
寸法
 62
     0
 48
50.0
370
    -2
100
AcDbBlockReference
  2
_DOTSMALL
 10
7620.024443427173
 20
7522.919036112859
 30
0.0
 41
100.0
 42
100.0
 43
100.0
 50
90.0
  0
MTEXT
  5
1FE78
330
1DB1A
100
AcDbEntity
  8
寸法
 62
     7
 48
50.0
100
AcDbMText
 10
7520.012632403551
 20
7758.96628020735
 30
0.0
 40
120.0
 41
0.0
 71
     5
 72
     1
  1
\A1;120
  7
STYLE1
 11
0.0000000000000001
 21
1.0
 31
0.0
 73
     1
 44
1.0
1001
ACAD
1000
MTEXTBEGIN
1070
    73
1070
     1
1070
    44
1040
1.0
1070
    74
1070
     0
1000
MTEXTEND
  0
POINT
  5
1FE79
330
1DB1A
100
AcDbEntity
  8
DEFPOINTS
 62
     0
 48
50.0
100
AcDbPoint
 10
7361.514259514151
 20
7522.919036112859
 30
0.0
  0
POINT
  5
1FE7A
330
1DB1A
100
AcDbEntity
  8
DEFPOINTS
 62
     0
 48
50.0
100
AcDbPoint
 10
7389.51425951415
 20
7402.919036112861
 30
0.0
  0
POINT
  5
1FE7B
330
1DB1A
100
AcDbEntity
  8
DEFPOINTS
 62
     0
 48
50.0
100
AcDbPoint
 10
7620.024443427173
 20
7402.919036112861
 30
0.0
  0
ENDBLK
  5
1DB26
330
1DB1A
100
AcDbEntity
  8
0
 48
50.0
100
AcDbBlockEnd
  0
BLOCK
  5
1E9D9
330
1E9D0
100
AcDbEntity
  8
0
 48
50.0
100
AcDbBlockBegin
  2
*D20
 70
     1
 10
0.0
 20
0.0
 30
0.0
  3
*D20
  1

  0
LINE
  5
1F96C
330
1E9D0
100
AcDbEntity
  8
寸法
 62
     0
 48
50.0
370
    -2
100
AcDbLine
 10
8129.514259514143
 20
6622.919036112868
 30
0.0
 11
8314.88827706484
 21
6622.919036112868
 31
0.0
  0
LINE
  5
1F96D
330
1E9D0
100
AcDbEntity
  8
寸法
 62
     0
 48
50.0
370
    -2
100
AcDbLine
 10
8079.514259514152
 20
7522.919036112863
 30
0.0
 11
8314.88827706484
 21
7522.919036112863
 31
0.0
  0
LINE
  5
1F96E
330
1E9D0
100
AcDbEntity
  8
寸法
 62
     0
 48
50.0
370
    -2
100
AcDbLine
 10
8254.888277064841
 20
6622.919036112868
 30
0.0
 11
8254.888277064841
 21
7522.919036112863
 31
0.0
  0
INSERT
  5
1F96F
330
1E9D0
100
AcDbEntity
  8
寸法
 62
     0
 48
50.0
370
    -2
100
AcDbBlockReference
  2
_DOTSMALL
 10
8254.888277064841
 20
6622.919036112868
 30
0.0
 41
100.0
 42
100.0
 43
100.0
 50
270.0
  0
INSERT
  5
1F970
330
1E9D0
100
AcDbEntity
  8
寸法
 62
     0
 48
50.0
370
    -2
100
AcDbBlockReference
  2
_DOTSMALL
 10
8254.888277064841
 20
7522.919036112863
 30
0.0
 41
100.0
 42
100.0
 43
100.0
 50
90.0
  0
MTEXT
  5
1F971
330
1E9D0
100
AcDbEntity
  8
寸法
 62
     7
 48
50.0
100
AcDbMText
 10
8154.888277064838
 20
7072.919036112867
 30
0.0
 40
120.0
 41
0.0
 71
     5
 72
     1
  1
\A1;900
  7
STYLE1
 11
0.0000000000000001
 21
1.0
 31
0.0
 73
     1
 44
1.0
1001
ACAD
1000
MTEXTBEGIN
1070
    73
1070
     1
1070
    44
1040
1.0
1070
    74
1070
     0
1000
MTEXTEND
  0
POINT
  5
1F972
330
1E9D0
100
AcDbEntity
  8
DEFPOINTS
 62
     0
 48
50.0
100
AcDbPoint
 10
8109.514259514142
 20
6622.919036112868
 30
0.0
  0
POINT
  5
1F973
330
1E9D0
100
AcDbEntity
  8
DEFPOINTS
 62
     0
 48
50.0
100
AcDbPoint
 10
8059.51425951415
 20
7522.919036112863
 30
0.0
  0
POINT
  5
1F974
330
1E9D0
100
AcDbEntity
  8
DEFPOINTS
 62
     0
 48
50.0
100
AcDbPoint
 10
8254.888277064841
 20
7522.919036112863
 30
0.0
  0
ENDBLK
  5
1E9DA
330
1E9D0
100
AcDbEntity
  8
0
 48
50.0
100
AcDbBlockEnd
  0
BLOCK
  5
1EA3C
330
1EA32
100
AcDbEntity
  8
0
 48
50.0
100
AcDbBlockBegin
  2
*D21
 70
     1
 10
0.0
 20
0.0
 30
0.0
  3
*D21
  1

  0
LINE
  5
1FFA0
330
1EA32
100
AcDbEntity
  8
寸法
 62
     0
 48
50.0
370
    -2
100
AcDbLine
 10
8211.698320491894
 20
5722.919036112859
 30
0.0
 11
8314.88827706485
 21
5722.919036112859
 31
0.0
  0
LINE
  5
1FFA1
330
1EA32
100
AcDbEntity
  8
寸法
 62
     0
 48
50.0
370
    -2
100
AcDbLine
 10
8129.514259514143
 20
6622.919036112868
 30
0.0
 11
8314.88827706485
 21
6622.919036112868
 31
0.0
  0
LINE
  5
1FFA2
330
1EA32
100
AcDbEntity
  8
寸法
 62
     0
 48
50.0
370
    -2
100
AcDbLine
 10
8254.88827706485
 20
5722.919036112859
 30
0.0
 11
8254.88827706485
 21
6622.919036112868
 31
0.0
  0
MTEXT
  5
1FFA3
330
1EA32
100
AcDbEntity
  8
寸法
 62
     7
 48
50.0
100
AcDbMText
 10
8154.888277064848
 20
6097.131811778035
 30
0.0
 40
120.0
 41
0.0
 71
     5
 72
     1
  1
\A1;900
  7
STYLE1
 11
0.0000000000000001
 21
1.0
 31
0.0
 73
     1
 44
1.0
1001
ACAD
1000
MTEXTBEGIN
1070
    73
1070
     1
1070
    44
1040
1.0
1070
    74
1070
     0
1000
MTEXTEND
  0
INSERT
  5
1FFA4
330
1EA32
100
AcDbEntity
  8
寸法
 62
     0
 48
50.0
370
    -2
100
AcDbBlockReference
  2
_DOTSMALL
 10
8254.88827706485
 20
5722.919036112859
 30
0.0
 41
100.0
 42
100.0
 43
100.0
 50
270.0
  0
INSERT
  5
1FFA5
330
1EA32
100
AcDbEntity
  8
寸法
 62
     0
 48
50.0
370
    -2
100
AcDbBlockReference
  2
_DOTSMALL
 10
8254.88827706485
 20
6622.919036112868
 30
0.0
 41
100.0
 42
100.0
 43
100.0
 50
90.0
  0
POINT
  5
1FFA6
330
1EA32
100
AcDbEntity
  8
DEFPOINTS
 62
     0
 48
50.0
100
AcDbPoint
 10
8191.698320491893
 20
5722.919036112859
 30
0.0
  0
POINT
  5
1FFA7
330
1EA32
100
AcDbEntity
  8
DEFPOINTS
 62
     0
 48
50.0
100
AcDbPoint
 10
8109.514259514142
 20
6622.919036112868
 30
0.0
  0
POINT
  5
1FFA8
330
1EA32
100
AcDbEntity
  8
DEFPOINTS
 62
     0
 48
50.0
100
AcDbPoint
 10
8254.88827706485
 20
6622.919036112868
 30
0.0
  0
ENDBLK
  5
1EA3D
330
1EA32
100
AcDbEntity
  8
0
 48
50.0
100
AcDbBlockEnd
  0
BLOCK
  5
1F253
330
1F24A
100
AcDbEntity
  8
0
 48
50.0
100
AcDbBlockBegin
  2
*D22
 70
     1
 10
0.0
 20
0.0
 30
0.0
  3
*D22
  1

  0
LINE
  5
1F9DD
330
1F24A
100
AcDbEntity
  8
寸法
 62
     0
 48
50.0
370
    -2
100
AcDbLine
 10
8059.51425951415
 20
6842.919036112869
 30
0.0
 11
8059.51425951415
 21
8109.828801761191
 31
0.0
  0
LINE
  5
1F9DE
330
1F24A
100
AcDbEntity
  8
寸法
 62
     0
 48
50.0
370
    -2
100
AcDbLine
 10
7159.51425951415
 20
7542.919036112862
 30
0.0
 11
7159.51425951415
 21
8109.828801761191
 31
0.0
  0
LINE
  5
1F9DF
330
1F24A
100
AcDbEntity
  8
寸法
 62
     0
 48
50.0
370
    -2
100
AcDbLine
 10
8059.51425951415
 20
8049.82880176119
 30
0.0
 11
7159.51425951415
 21
8049.82880176119
 31
0.0
  0
INSERT
  5
1F9E0
330
1F24A
100
AcDbEntity
  8
寸法
 62
     0
 48
50.0
370
    -2
100
AcDbBlockReference
  2
_DOTSMALL
 10
8059.51425951415
 20
8049.82880176119
 30
0.0
 41
100.0
 42
100.0
 43
100.0
  0
INSERT
  5
1F9E1
330
1F24A
100
AcDbEntity
  8
寸法
 62
     0
 48
50.0
370
    -2
100
AcDbBlockReference
  2
_DOTSMALL
 10
7159.51425951415
 20
8049.82880176119
 30
0.0
 41
100.0
 42
100.0
 43
100.0
 50
180.0
  0
MTEXT
  5
1F9E2
330
1F24A
100
AcDbEntity
  8
寸法
 62
     7
 48
50.0
100
AcDbMText
 10
7609.514259514149
 20
8149.82880176119
 30
0.0
 40
120.0
 41
0.0
 71
     5
 72
     1
  1
\A1;900
  7
STYLE1
 73
     1
 44
1.0
1001
ACAD
1000
MTEXTBEGIN
1070
    73
1070
     1
1070
    44
1040
1.0
1070
    74
1070
     0
1000
MTEXTEND
  0
POINT
  5
1F9E3
330
1F24A
100
AcDbEntity
  8
DEFPOINTS
 62
     0
 48
50.0
100
AcDbPoint
 10
8059.51425951415
 20
6822.91903611287
 30
0.0
  0
POINT
  5
1F9E4
330
1F24A
100
AcDbEntity
  8
DEFPOINTS
 62
     0
 48
50.0
100
AcDbPoint
 10
7159.51425951415
 20
7522.919036112863
 30
0.0
  0
POINT
  5
1F9E5
330
1F24A
100
AcDbEntity
  8
DEFPOINTS
 62
     0
 48
50.0
100
AcDbPoint
 10
7159.51425951415
 20
8049.82880176119
 30
0.0
  0
ENDBLK
  5
1F254
330
1F24A
100
AcDbEntity
  8
0
 48
50.0
100
AcDbBlockEnd
  0
BLOCK
  5
1F25F
330
1F255
100
AcDbEntity
  8
0
 48
50.0
100
AcDbBlockBegin
  2
*D23
 70
     1
 10
0.0
 20
0.0
 30
0.0
  3
*D23
  1

  0
LINE
  5
1F9E6
330
1F255
100
AcDbEntity
  8
寸法
 62
     0
 48
50.0
370
    -2
100
AcDbLine
 10
8959.514259514149
 20
7542.919036112862
 30
0.0
 11
8959.514259514149
 21
8109.828801761191
 31
0.0
  0
LINE
  5
1F9E7
330
1F255
100
AcDbEntity
  8
寸法
 62
     0
 48
50.0
370
    -2
100
AcDbLine
 10
8059.51425951415
 20
6842.919036112869
 30
0.0
 11
8059.51425951415
 21
8109.828801761191
 31
0.0
  0
LINE
  5
1F9E8
330
1F255
100
AcDbEntity
  8
寸法
 62
     0
 48
50.0
370
    -2
100
AcDbLine
 10
8959.514259514149
 20
8049.82880176119
 30
0.0
 11
8059.51425951415
 21
8049.82880176119
 31
0.0
  0
MTEXT
  5
1F9E9
330
1F255
100
AcDbEntity
  8
寸法
 62
     7
 48
50.0
100
AcDbMText
 10
8530.432781520428
 20
8149.82880176119
 30
0.0
 40
120.0
 41
0.0
 71
     5
 72
     1
  1
\A1;900
  7
STYLE1
 73
     1
 44
1.0
1001
ACAD
1000
MTEXTBEGIN
1070
    73
1070
     1
1070
    44
1040
1.0
1070
    74
1070
     0
1000
MTEXTEND
  0
INSERT
  5
1F9EA
330
1F255
100
AcDbEntity
  8
寸法
 62
     0
 48
50.0
370
    -2
100
AcDbBlockReference
  2
_DOTSMALL
 10
8959.514259514149
 20
8049.82880176119
 30
0.0
 41
100.0
 42
100.0
 43
100.0
  0
INSERT
  5
1F9EB
330
1F255
100
AcDbEntity
  8
寸法
 62
     0
 48
50.0
370
    -2
100
AcDbBlockReference
  2
_DOTSMALL
 10
8059.51425951415
 20
8049.82880176119
 30
0.0
 41
100.0
 42
100.0
 43
100.0
 50
180.0
  0
POINT
  5
1F9EC
330
1F255
100
AcDbEntity
  8
DEFPOINTS
 62
     0
 48
50.0
100
AcDbPoint
 10
8959.514259514149
 20
7522.919036112863
 30
0.0
  0
POINT
  5
1F9ED
330
1F255
100
AcDbEntity
  8
DEFPOINTS
 62
     0
 48
50.0
100
AcDbPoint
 10
8059.51425951415
 20
6822.91903611287
 30
0.0
  0
POINT
  5
1F9EE
330
1F255
100
AcDbEntity
  8
DEFPOINTS
 62
     0
 48
50.0
100
AcDbPoint
 10
8059.51425951415
 20
8049.82880176119
 30
0.0
  0
ENDBLK
  5
1F260
330
1F255
100
AcDbEntity
  8
0
 48
50.0
100
AcDbBlockEnd
  0
BLOCK
  5
20000
330
1FFFF
100
AcDbEntity
  8
0
 48
50.0
100
AcDbBlockBegin
  2
*D30
 70
     1
 10
0.0
 20
0.0
 30
0.0
  3
*D30
  1

  0
LINE
  5
20001
330
1FFFF
100
AcDbEntity
  8
寸法
 62
     0
 48
50.0
370
    -2
100
AcDbLine
 10
6066.6110735628
 20
1953.764973743768
 30
0.0
 11
6066.6110735628
 21
2518.349733639244
 31
0.0
  0
LINE
  5
20002
330
1FFFF
100
AcDbEntity
  8
寸法
 62
     0
 48
50.0
370
    -2
100
AcDbLine
 10
5826.6110735628
 20
1953.764973743768
 30
0.0
 11
5826.6110735628
 21
2518.349733639244
 31
0.0
  0
LINE
  5
20003
330
1FFFF
100
AcDbEntity
  8
寸法
 62
     0
 48
50.0
370
    -2
100
AcDbLine
 10
6066.6110735628
 20
2458.349733639244
 30
0.0
 11
5826.6110735628
 21
2458.349733639244
 31
0.0
  0
INSERT
  5
20004
330
1FFFF
100
AcDbEntity
  8
寸法
 62
     0
 48
50.0
370
    -2
100
AcDbBlockReference
  2
_DOTSMALL
 10
6066.6110735628
 20
2458.349733639244
 30
0.0
 41
100.0
 42
100.0
 43
100.0
  0
INSERT
  5
20005
330
1FFFF
100
AcDbEntity
  8
寸法
 62
     0
 48
50.0
370
    -2
100
AcDbBlockReference
  2
_DOTSMALL
 10
5826.6110735628
 20
2458.349733639244
 30
0.0
 41
100.0
 42
100.0
 43
100.0
 50
180.0
  0
MTEXT
  5
20006
330
1FFFF
100
AcDbEntity
  8
寸法
 62
     7
 48
50.0
100
AcDbMText
 10
5946.6110735628
 20
2558.361544662866
 30
0.0
 40
120.0
 41
0.0
 71
     5
 72
     1
  1
\A1;120
  7
STYLE1
 73
     1
 44
1.0
1001
ACAD
1000
MTEXTBEGIN
1070
    73
1070
     1
1070
    44
1040
1.0
1070
    74
1070
     0
1000
MTEXTEND
  0
POINT
  5
20007
330
1FFFF
100
AcDbEntity
  8
DEFPOINTS
 62
     0
 48
50.0
100
AcDbPoint
 10
6066.6110735628
 20
1933.764973743768
 30
0.0
  0
POINT
  5
20008
330
1FFFF
100
AcDbEntity
  8
DEFPOINTS
 62
     0
 48
50.0
100
AcDbPoint
 10
5826.6110735628
 20
1933.764973743768
 30
0.0
  0
POINT
  5
20009
330
1FFFF
100
AcDbEntity
  8
DEFPOINTS
 62
     0
 48
50.0
100
AcDbPoint
 10
5826.6110735628
 20
2458.349733639244
 30
0.0
  0
ENDBLK
  5
2000A
330
1FFFF
100
AcDbEntity
  8
0
 48
50.0
100
AcDbBlockEnd
  0
BLOCK
  5
2000C
330
2000B
100
AcDbEntity
  8
0
 48
50.0
100
AcDbBlockBegin
  2
*D31
 70
     1
 10
0.0
 20
0.0
 30
0.0
  3
*D31
  1

  0
LINE
  5
2000D
330
2000B
100
AcDbEntity
  8
寸法
 62
     0
 48
50.0
370
    -2
100
AcDbLine
 10
5646.6110735628
 20
1253.764973743767
 30
0.0
 11
5428.585681397226
 21
1253.764973743767
 31
0.0
  0
LINE
  5
2000E
330
2000B
100
AcDbEntity
  8
寸法
 62
     0
 48
50.0
370
    -2
100
AcDbLine
 10
5546.611073562804
 20
953.7649737437668
 30
0.0
 11
5428.585681397226
 21
953.7649737437668
 31
0.0
  0
LINE
  5
2000F
330
2000B
100
AcDbEntity
  8
寸法
 62
     0
 48
50.0
370
    -2
100
AcDbLine
 10
5488.585681397226
 20
1253.764973743767
 30
0.0
 11
5488.585681397226
 21
953.7649737437668
 31
0.0
  0
INSERT
  5
20010
330
2000B
100
AcDbEntity
  8
寸法
 62
     0
 48
50.0
370
    -2
100
AcDbBlockReference
  2
_DOTSMALL
 10
5488.585681397226
 20
1253.764973743767
 30
0.0
 41
100.0
 42
100.0
 43
100.0
 50
90.0
  0
INSERT
  5
20011
330
2000B
100
AcDbEntity
  8
寸法
 62
     0
 48
50.0
370
    -2
100
AcDbBlockReference
  2
_DOTSMALL
 10
5488.585681397226
 20
953.7649737437668
 30
0.0
 41
100.0
 42
100.0
 43
100.0
 50
270.0
  0
MTEXT
  5
20012
330
2000B
100
AcDbEntity
  8
寸法
 62
     7
 48
50.0
100
AcDbMText
 10
5388.585681397226
 20
1103.764973743767
 30
0.0
 40
120.0
 41
0.0
 71
     5
 72
     1
  1
\A1;150
  7
STYLE1
 11
0.0000000000000001
 21
1.0
 31
0.0
 73
     1
 44
1.0
1001
ACAD
1000
MTEXTBEGIN
1070
    73
1070
     1
1070
    44
1040
1.0
1070
    74
1070
     0
1000
MTEXTEND
  0
POINT
  5
20013
330
2000B
100
AcDbEntity
  8
DEFPOINTS
 62
     0
 48
50.0
100
AcDbPoint
 10
5666.6110735628
 20
1253.764973743767
 30
0.0
  0
POINT
  5
20014
330
2000B
100
AcDbEntity
  8
DEFPOINTS
 62
     0
 48
50.0
100
AcDbPoint
 10
5566.611073562804
 20
953.7649737437668
 30
0.0
  0
POINT
  5
20015
330
2000B
100
AcDbEntity
  8
DEFPOINTS
 62
     0
 48
50.0
100
AcDbPoint
 10
5488.585681397226
 20
953.7649737437668
 30
0.0
  0
ENDBLK
  5
20016
330
2000B
100
AcDbEntity
  8
0
 48
50.0
100
AcDbBlockEnd
  0
BLOCK
  5
20018
330
20017
100
AcDbEntity
  8
0
 48
50.0
100
AcDbBlockBegin
  2
*D32
 70
     1
 10
0.0
 20
0.0
 30
0.0
  3
*D32
  1

  0
LINE
  5
20019
330
20017
100
AcDbEntity
  8
寸法
 62
     0
 48
50.0
370
    -2
100
AcDbLine
 10
5806.6110735628
 20
1933.764973743768
 30
0.0
 11
5005.966135526737
 21
1933.764973743768
 31
0.0
  0
LINE
  5
2001A
330
20017
100
AcDbEntity
  8
寸法
 62
     0
 48
50.0
370
    -2
100
AcDbLine
 10
5546.611073562804
 20
953.7649737437668
 30
0.0
 11
5005.966135526737
 21
953.764973743767
 31
0.0
  0
LINE
  5
2001B
330
20017
100
AcDbEntity
  8
寸法
 62
     0
 48
50.0
370
    -2
100
AcDbLine
 10
5065.966135526736
 20
1933.764973743768
 30
0.0
 11
5065.966135526736
 21
953.764973743767
 31
0.0
  0
INSERT
  5
2001C
330
20017
100
AcDbEntity
  8
寸法
 62
     0
 48
50.0
370
    -2
100
AcDbBlockReference
  2
_DOTSMALL
 10
5065.966135526736
 20
1933.764973743768
 30
0.0
 41
100.0
 42
100.0
 43
100.0
 50
90.0
  0
INSERT
  5
2001D
330
20017
100
AcDbEntity
  8
寸法
 62
     0
 48
50.0
370
    -2
100
AcDbBlockReference
  2
_DOTSMALL
 10
5065.966135526736
 20
953.764973743767
 30
0.0
 41
100.0
 42
100.0
 43
100.0
 50
270.0
  0
MTEXT
  5
2001E
330
20017
100
AcDbEntity
  8
寸法
 62
     7
 48
50.0
100
AcDbMText
 10
4965.966135526736
 20
1443.764973743768
 30
0.0
 40
120.0
 41
0.0
 71
     5
 72
     1
  1
\A1;540
  7
STYLE1
 11
0.0000000000000001
 21
1.0
 31
0.0
 73
     1
 44
1.0
1001
ACAD
1000
MTEXTBEGIN
1070
    73
1070
     1
1070
    44
1040
1.0
1070
    74
1070
     0
1000
MTEXTEND
  0
POINT
  5
2001F
330
20017
100
AcDbEntity
  8
DEFPOINTS
 62
     0
 48
50.0
100
AcDbPoint
 10
5826.6110735628
 20
1933.764973743768
 30
0.0
  0
POINT
  5
20020
330
20017
100
AcDbEntity
  8
DEFPOINTS
 62
     0
 48
50.0
100
AcDbPoint
 10
5566.611073562804
 20
953.7649737437668
 30
0.0
  0
POINT
  5
20021
330
20017
100
AcDbEntity
  8
DEFPOINTS
 62
     0
 48
50.0
100
AcDbPoint
 10
5065.966135526736
 20
953.764973743767
 30
0.0
  0
ENDBLK
  5
20022
330
20017
100
AcDbEntity
  8
0
 48
50.0
100
AcDbBlockEnd
  0
BLOCK
  5
20024
330
20023
100
AcDbEntity
  8
0
 48
50.0
100
AcDbBlockBegin
  2
*D33
 70
     1
 10
0.0
 20
0.0
 30
0.0
  3
*D33
  1

  0
LINE
  5
20025
330
20023
100
AcDbEntity
  8
寸法
 62
     0
 48
50.0
370
    -2
100
AcDbLine
 10
5666.6110735628
 20
773.7649737437668
 30
0.0
 11
5666.6110735628
 21
434.8128672878337
 31
0.0
  0
LINE
  5
20026
330
20023
100
AcDbEntity
  8
寸法
 62
     0
 48
50.0
370
    -2
100
AcDbLine
 10
6226.611073562801
 20
773.7649737437668
 30
0.0
 11
6226.611073562801
 21
434.8128672878337
 31
0.0
  0
LINE
  5
20027
330
20023
100
AcDbEntity
  8
寸法
 62
     0
 48
50.0
370
    -2
100
AcDbLine
 10
5666.6110735628
 20
494.8128672878338
 30
0.0
 11
6226.611073562801
 21
494.8128672878338
 31
0.0
  0
INSERT
  5
20028
330
20023
100
AcDbEntity
  8
寸法
 62
     0
 48
50.0
370
    -2
100
AcDbBlockReference
  2
_DOTSMALL
 10
5666.6110735628
 20
494.8128672878338
 30
0.0
 41
100.0
 42
100.0
 43
100.0
 50
180.0
  0
INSERT
  5
20029
330
20023
100
AcDbEntity
  8
寸法
 62
     0
 48
50.0
370
    -2
100
AcDbBlockReference
  2
_DOTSMALL
 10
6226.611073562801
 20
494.8128672878338
 30
0.0
 41
100.0
 42
100.0
 43
100.0
  0
MTEXT
  5
2002A
330
20023
100
AcDbEntity
  8
寸法
 62
     7
 48
50.0
100
AcDbMText
 10
5946.6110735628
 20
594.8128672878338
 30
0.0
 40
120.0
 41
0.0
 71
     5
 72
     1
  1
\A1;300
  7
STYLE1
 73
     1
 44
1.0
1001
ACAD
1000
MTEXTBEGIN
1070
    73
1070
     1
1070
    44
1040
1.0
1070
    74
1070
     0
1000
MTEXTEND
  0
POINT
  5
2002B
330
20023
100
AcDbEntity
  8
DEFPOINTS
 62
     0
 48
50.0
100
AcDbPoint
 10
5666.6110735628
 20
793.7649737437668
 30
0.0
  0
POINT
  5
2002C
330
20023
100
AcDbEntity
  8
DEFPOINTS
 62
     0
 48
50.0
100
AcDbPoint
 10
6226.611073562801
 20
793.7649737437668
 30
0.0
  0
POINT
  5
2002D
330
20023
100
AcDbEntity
  8
DEFPOINTS
 62
     0
 48
50.0
100
AcDbPoint
 10
6226.611073562801
 20
494.8128672878338
 30
0.0
  0
ENDBLK
  5
2002E
330
20023
100
AcDbEntity
  8
0
 48
50.0
100
AcDbBlockEnd
  0
BLOCK
  5
20030
330
2002F
100
AcDbEntity
  8
0
 48
50.0
100
AcDbBlockBegin
  2
*D34
 70
     1
 10
0.0
 20
0.0
 30
0.0
  3
*D34
  1

  0
LINE
  5
20031
330
2002F
100
AcDbEntity
  8
寸法
 62
     0
 48
50.0
370
    -2
100
AcDbLine
 10
8489.160215034294
 20
1933.764973743768
 30
0.0
 11
9156.495964745349
 21
1933.764973743768
 31
0.0
  0
LINE
  5
20032
330
2002F
100
AcDbEntity
  8
寸法
 62
     0
 48
50.0
370
    -2
100
AcDbLine
 10
8489.160215034294
 20
1528.764973743766
 30
0.0
 11
9156.495964745349
 21
1528.764973743766
 31
0.0
  0
LINE
  5
20033
330
2002F
100
AcDbEntity
  8
寸法
 62
     0
 48
50.0
370
    -2
100
AcDbLine
 10
9096.495964745349
 20
1933.764973743768
 30
0.0
 11
9096.495964745349
 21
1528.764973743766
 31
0.0
  0
INSERT
  5
20034
330
2002F
100
AcDbEntity
  8
寸法
 62
     0
 48
50.0
370
    -2
100
AcDbBlockReference
  2
_DOTSMALL
 10
9096.495964745349
 20
1933.764973743768
 30
0.0
 41
100.0
 42
100.0
 43
100.0
 50
90.0
  0
INSERT
  5
20035
330
2002F
100
AcDbEntity
  8
寸法
 62
     0
 48
50.0
370
    -2
100
AcDbBlockReference
  2
_DOTSMALL
 10
9096.495964745349
 20
1528.764973743766
 30
0.0
 41
100.0
 42
100.0
 43
100.0
 50
270.0
  0
MTEXT
  5
20036
330
2002F
100
AcDbEntity
  8
寸法
 62
     7
 48
50.0
100
AcDbMText
 10
8996.495964745347
 20
1731.264973743768
 30
0.0
 40
120.0
 41
0.0
 71
     5
 72
     1
  1
\A1;180
  7
STYLE1
 11
0.0000000000000001
 21
1.0
 31
0.0
 73
     1
 44
1.0
1001
ACAD
1000
MTEXTBEGIN
1070
    73
1070
     1
1070
    44
1040
1.0
1070
    74
1070
     0
1000
MTEXTEND
  0
POINT
  5
20037
330
2002F
100
AcDbEntity
  8
DEFPOINTS
 62
     0
 48
50.0
100
AcDbPoint
 10
8469.160215034293
 20
1933.764973743768
 30
0.0
  0
POINT
  5
20038
330
2002F
100
AcDbEntity
  8
DEFPOINTS
 62
     0
 48
50.0
100
AcDbPoint
 10
8469.160215034293
 20
1528.764973743766
 30
0.0
  0
POINT
  5
20039
330
2002F
100
AcDbEntity
  8
DEFPOINTS
 62
     0
 48
50.0
100
AcDbPoint
 10
9096.495964745349
 20
1528.764973743766
 30
0.0
  0
ENDBLK
  5
2003A
330
2002F
100
AcDbEntity
  8
0
 48
50.0
100
AcDbBlockEnd
  0
BLOCK
  5
2003C
330
2003B
100
AcDbEntity
  8
0
 48
50.0
100
AcDbBlockBegin
  2
*D35
 70
     1
 10
0.0
 20
0.0
 30
0.0
  3
*D35
  1

  0
LINE
  5
2003D
330
2003B
100
AcDbEntity
  8
寸法
 62
     0
 48
50.0
370
    -2
100
AcDbLine
 10
8255.160215034292
 20
1999.714973743768
 30
0.0
 11
9501.564297394132
 21
1999.714973743768
 31
0.0
  0
LINE
  5
2003E
330
2003B
100
AcDbEntity
  8
寸法
 62
     0
 48
50.0
370
    -2
100
AcDbLine
 10
8489.160215034294
 20
1933.764973743768
 30
0.0
 11
9501.564297394132
 21
1933.764973743768
 31
0.0
  0
LINE
  5
2003F
330
2003B
100
AcDbEntity
  8
寸法
 62
     0
 48
50.0
370
    -2
100
AcDbLine
 10
9441.564297394132
 20
1999.714973743768
 30
0.0
 11
9441.564297394132
 21
2099.714973743768
 31
0.0
  0
LINE
  5
20040
330
2003B
100
AcDbEntity
  8
寸法
 62
     0
 48
50.0
370
    -2
100
AcDbLine
 10
9441.564297394132
 20
1933.764973743768
 30
0.0
 11
9441.564297394132
 21
1201.747166900802
 31
0.0
  0
LINE
  5
20041
330
2003B
100
AcDbEntity
  8
寸法
 62
     0
 48
50.0
370
    -2
100
AcDbLine
 10
9441.564297394132
 20
1999.714973743768
 30
0.0
 11
9441.564297394132
 21
1933.764973743768
 31
0.0
  0
INSERT
  5
20042
330
2003B
100
AcDbEntity
  8
寸法
 62
     0
 48
50.0
370
    -2
100
AcDbBlockReference
  2
_DOTSMALL
 10
9441.564297394132
 20
1999.714973743768
 30
0.0
 41
100.0
 42
100.0
 43
100.0
 50
270.0
  0
INSERT
  5
20043
330
2003B
100
AcDbEntity
  8
寸法
 62
     0
 48
50.0
370
    -2
100
AcDbBlockReference
  2
_DOTSMALL
 10
9441.564297394132
 20
1933.764973743768
 30
0.0
 41
100.0
 42
100.0
 43
100.0
 50
90.0
  0
MTEXT
  5
20044
330
2003B
100
AcDbEntity
  8
寸法
 62
     7
 48
50.0
100
AcDbMText
 10
9341.55248637051
 20
1467.756070322286
 30
0.0
 40
120.0
 41
0.0
 71
     5
 72
     1
  1
\A1;20～25
  7
STYLE1
 11
0.0000000000000001
 21
1.0
 31
0.0
 73
     1
 44
1.0
1001
ACAD
1000
MTEXTBEGIN
1070
    73
1070
     1
1070
    44
1040
1.0
1070
    74
1070
     0
1000
MTEXTEND
  0
POINT
  5
20045
330
2003B
100
AcDbEntity
  8
DEFPOINTS
 62
     0
 48
50.0
100
AcDbPoint
 10
8235.160215034294
 20
1999.714973743768
 30
0.0
  0
POINT
  5
20046
330
2003B
100
AcDbEntity
  8
DEFPOINTS
 62
     0
 48
50.0
100
AcDbPoint
 10
8469.160215034293
 20
1933.764973743768
 30
0.0
  0
POINT
  5
20047
330
2003B
100
AcDbEntity
  8
DEFPOINTS
 62
     0
 48
50.0
100
AcDbPoint
 10
9441.564297394132
 20
1933.764973743768
 30
0.0
  0
ENDBLK
  5
20048
330
2003B
100
AcDbEntity
  8
0
 48
50.0
100
AcDbBlockEnd
  0
BLOCK
  5
20182
330
20049
100
AcDbEntity
  8
0
 48
50.0
100
AcDbBlockBegin
  2
A$C47A07969
 70
     0
 10
0.0
 20
0.0
 30
0.0
  3
A$C47A07969
  1

  0
LINE
  5
2004A
330
20049
100
AcDbEntity
  8
細線
 48
50.0
100
AcDbLine
 10
-5347.953568219671
 20
289.1413291770778
 30
0.0
 11
-5355.992043992611
 21
319.1413291770778
 31
0.0
  0
LINE
  5
2004B
330
20049
100
AcDbEntity
  8
細線
100
AcDbLine
 10
-5559.70394971473
 20
319.1413291770823
 30
0.0
 11
-5445.080305148053
 21
433.7649737437677
 31
0.0
  0
LINE
  5
2004C
330
20049
100
AcDbEntity
  8
細線
100
AcDbLine
 10
-5602.130356585922
 20
319.1413291770823
 30
0.0
 11
-5487.506712019242
 21
433.7649737437677
 31
0.0
  0
LINE
  5
2004D
330
20049
100
AcDbEntity
  8
細線
100
AcDbLine
 10
-5517.277542843541
 20
319.1413291770823
 30
0.0
 11
-5402.653898276861
 21
433.7649737437677
 31
0.0
  0
LINE
  5
2004E
330
20049
100
AcDbEntity
  8
細線
 48
50.0
100
AcDbLine
 10
-5545.173680587801
 20
289.14132917708
 30
0.0
 11
-5553.212156360742
 21
319.14132917708
 31
0.0
  0
LINE
  5
2004F
330
20049
100
AcDbEntity
  8
細線
 48
50.0
100
AcDbLine
 10
-5446.563624403733
 20
289.1413291770778
 30
0.0
 11
-5454.602100176671
 21
319.1413291770778
 31
0.0
  0
LINE
  5
20050
330
20049
100
AcDbEntity
  8
部品1
100
AcDbLine
 10
-5443.425849710092
 20
733.7649737437682
 30
0.0
 11
-5443.425849710092
 21
433.7649737437677
 31
0.0
  0
LINE
  5
20051
330
20049
100
AcDbEntity
  8
細線
 48
50.0
100
AcDbLine
 10
-5742.393792955912
 20
289.14132917708
 30
0.0
 11
-5750.432268728842
 21
319.14132917708
 31
0.0
  0
LINE
  5
20052
330
20049
100
AcDbEntity
  8
細線
 48
50.0
100
AcDbLine
 10
-5643.783736771851
 20
289.14132917708
 30
0.0
 11
-5651.822212544781
 21
319.14132917708
 31
0.0
  0
LINE
  5
20053
330
20049
100
AcDbEntity
  8
細線
100
AcDbLine
 10
-6009.70394971473
 20
319.141329177081
 30
0.0
 11
-5895.080305148052
 21
433.7649737437677
 31
0.0
  0
LINE
  5
20054
330
20049
100
AcDbEntity
  8
細線
100
AcDbLine
 10
-5967.277542843541
 20
319.141329177081
 30
0.0
 11
-5852.653898276861
 21
433.7649737437677
 31
0.0
  0
LINE
  5
20055
330
20049
100
AcDbEntity
  8
細線
 48
50.0
100
AcDbLine
 10
-5841.003849139972
 20
289.14132917708
 30
0.0
 11
-5849.042324912901
 21
319.14132917708
 31
0.0
  0
LINE
  5
20056
330
20049
100
AcDbEntity
  8
細線
 48
50.0
100
AcDbLine
 10
-5939.613905324023
 20
289.14132917708
 30
0.0
 11
-5947.652381096961
 21
319.14132917708
 31
0.0
  0
LINE
  5
20057
330
20049
100
AcDbEntity
  8
細線
100
AcDbLine
 10
-5524.362537951351
 20
433.7649737437677
 30
0.0
 11
-5824.36253795135
 21
733.7649737437682
 31
0.0
  0
LINE
  5
20058
330
20049
100
AcDbEntity
  8
細線
100
AcDbLine
 10
-5460.722927644571
 20
433.7649737437695
 30
0.0
 11
-5760.722927644561
 21
733.7649737437682
 31
0.0
  0
LEADER
  5
20059
330
20049
100
AcDbEntity
  8
寸法
 48
50.0
100
AcDbLeader
  3
INABA_S40G
 71
     0
 73
     0
 74
     0
 75
     1
 40
150.0
 41
231.9898538650463
 76
     3
 10
-5530.020335190191
 20
733.7649737437682
 30
0.0
 10
-5441.097576898132
 20
940.19787459519
 30
0.0
 10
-5341.097576898132
 20
940.19787459519
 30
0.0
  0
MTEXT
  5
2005A
102
{ACAD_REACTORS
330
20059
102
}
330
20049
100
AcDbEntity
  8
寸法
 62
     7
 48
50.0
100
AcDbMText
 10
-5301.097576898132
 20
1055.19787459519
 30
0.0
 40
150.0
 41
1.0
 71
     4
 72
     1
  1
\A1;C.B
  7
STYLE1
 73
     1
 44
1.0
1001
ACAD
1000
MTEXTBEGIN
1070
    73
1070
     1
1070
    44
1040
1.0
1070
    74
1070
     0
1000
MTEXTEND
  0
LINE
  5
2005B
330
20049
100
AcDbEntity
  8
細線
 48
50.0
100
AcDbLine
 10
-5374.748487462783
 20
189.1413291770777
 30
0.0
 11
-5366.710011689853
 21
159.1413291770777
 31
0.0
  0
LINE
  5
2005C
330
20049
100
AcDbEntity
  8
細線
 48
50.0
100
AcDbLine
 10
-5571.968599830902
 20
189.14132917708
 30
0.0
 11
-5563.930124057961
 21
159.14132917708
 31
0.0
  0
LINE
  5
2005D
330
20049
100
AcDbEntity
  8
細線
 48
50.0
100
AcDbLine
 10
-5473.358543646842
 20
189.1413291770777
 30
0.0
 11
-5465.320067873912
 21
159.1413291770777
 31
0.0
  0
LINE
  5
2005E
330
20049
100
AcDbEntity
  8
細線
 48
50.0
100
AcDbLine
 10
-5769.188712199022
 20
189.14132917708
 30
0.0
 11
-5761.15023642609
 21
159.14132917708
 31
0.0
  0
LINE
  5
2005F
330
20049
100
AcDbEntity
  8
細線
 48
50.0
100
AcDbLine
 10
-5670.578656014961
 20
189.14132917708
 30
0.0
 11
-5662.540180242031
 21
159.14132917708
 31
0.0
  0
LINE
  5
20060
330
20049
100
AcDbEntity
  8
細線
 48
50.0
100
AcDbLine
 10
-5966.408824567132
 20
189.14132917708
 30
0.0
 11
-5958.370348794202
 21
159.14132917708
 31
0.0
  0
LINE
  5
20061
330
20049
100
AcDbEntity
  8
細線
 48
50.0
100
AcDbLine
 10
-5867.798768383082
 20
189.14132917708
 30
0.0
 11
-5859.760292610141
 21
159.14132917708
 31
0.0
  0
LINE
  5
20062
330
20049
100
AcDbEntity
  8
細線
 48
50.0
100
AcDbLine
 10
-5777.227187971961
 20
159.1413291770777
 30
0.0
 11
-5734.355317182982
 21
319.1413291770778
 31
0.0
  0
LINE
  5
20063
330
20049
100
AcDbEntity
  8
細線
 48
50.0
100
AcDbLine
 10
-5974.447300340073
 20
159.14132917708
 30
0.0
 11
-5931.575429551101
 21
319.14132917708
 31
0.0
  0
LINE
  5
20064
330
20049
100
AcDbEntity
  8
細線
 48
50.0
100
AcDbLine
 10
-5875.837244156023
 20
159.14132917708
 30
0.0
 11
-5832.965373367041
 21
319.1413291770778
 31
0.0
  0
LINE
  5
20065
330
20049
100
AcDbEntity
  8
細線
 48
50.0
100
AcDbLine
 10
-5580.007075603842
 20
159.1413291770777
 30
0.0
 11
-5537.13520481487
 21
319.14132917708
 31
0.0
  0
LINE
  5
20066
330
20049
100
AcDbEntity
  8
細線
 48
50.0
100
AcDbLine
 10
-5678.617131787902
 20
159.14132917708
 30
0.0
 11
-5635.745260998922
 21
319.1413291770778
 31
0.0
  0
LINE
  5
20067
330
20049
100
AcDbEntity
  8
細線
 48
50.0
100
AcDbLine
 10
-5382.78696323573
 20
159.1413291770777
 30
0.0
 11
-5339.915092446741
 21
319.1413291770759
 31
0.0
  0
LINE
  5
20068
330
20049
100
AcDbEntity
  8
細線
 48
50.0
100
AcDbLine
 10
-5481.39701941978
 20
159.1413291770759
 30
0.0
 11
-5438.525148630803
 21
319.1413291770759
 31
0.0
  0
LINE
  5
20069
330
20049
100
AcDbEntity
  8
部品1
100
AcDbLine
 10
-5293.425849710091
 20
433.7649737437677
 30
0.0
 11
-5293.425849710091
 21
159.14132917708
 31
0.0
  0
LINE
  5
2006A
330
20049
100
AcDbEntity
  8
部品1
100
AcDbLine
 10
-4702.914921890951
 20
-874.0900042832654
 30
0.0
 11
-4702.914921890951
 21
2384.979498464825
 31
0.0
  0
TEXT
  5
2006B
330
20049
100
AcDbEntity
  8
部品1
100
AcDbText
 10
-8593.460509472334
 20
2160.539583525538
 30
0.0
 40
150.0
  1
基礎詳細
  7
STYLE2
100
AcDbText
  0
LINE
  5
2006C
330
20049
100
AcDbEntity
  8
細線
 48
50.0
100
AcDbLine
 10
-6038.223961508091
 20
289.14132917708
 30
0.0
 11
-6046.262437281022
 21
319.14132917708
 31
0.0
  0
LINE
  5
2006D
330
20049
100
AcDbEntity
  8
細線
 48
50.0
100
AcDbLine
 10
-6136.834017692152
 20
289.14132917708
 30
0.0
 11
-6144.872493465091
 21
319.14132917708
 31
0.0
  0
LINE
  5
2006E
330
20049
100
AcDbEntity
  8
部品1
100
AcDbLine
 10
-6043.425849710091
 20
433.7649737437677
 30
0.0
 11
-6043.425849710091
 21
733.7649737437682
 31
0.0
  0
LINE
  5
2006F
330
20049
100
AcDbEntity
  8
細線
 48
50.0
100
AcDbLine
 10
-6163.628936935261
 20
189.14132917708
 30
0.0
 11
-6155.590461162332
 21
159.14132917708
 31
0.0
  0
LINE
  5
20070
330
20049
100
AcDbEntity
  8
細線
 48
50.0
100
AcDbLine
 10
-6065.018880751202
 20
189.14132917708
 30
0.0
 11
-6056.980404978272
 21
159.14132917708
 31
0.0
  0
LINE
  5
20071
330
20049
100
AcDbEntity
  8
細線
 48
50.0
100
AcDbLine
 10
-7632.567503475288
 20
-276.235026256234
 30
0.0
 11
-7640.60597924822
 21
-246.2350262562341
 31
0.0
  0
LINE
  5
20072
330
20049
100
AcDbEntity
  8
部品1
 48
50.0
100
AcDbLine
 10
-7578.039784965703
 20
-246.2350262562331
 30
0.0
 11
-7578.039784965703
 21
-406.2350262562331
 31
0.0
  0
LINE
  5
20073
330
20049
100
AcDbEntity
  8
細線
 48
50.0
100
AcDbLine
 10
-6171.667412708202
 20
159.14132917708
 30
0.0
 11
-6128.795541919222
 21
319.14132917708
 31
0.0
  0
LINE
  5
20074
330
20049
100
AcDbEntity
  8
部品1
100
AcDbLine
 10
-6193.425849710092
 20
159.1413291770759
 30
0.0
 11
-6193.425849710092
 21
433.7649737437677
 31
0.0
  0
TEXT
  5
20075
330
20049
100
AcDbEntity
  8
部品1
 48
50.0
100
AcDbText
 10
-6668.76747803539
 20
100.2652979471313
 30
0.0
 40
100.0
  1
ボルトの出
 50
90.0
  7
STYLE2
100
AcDbText
  0
LINE
  5
20076
330
20049
100
AcDbEntity
  8
細線
 48
50.0
100
AcDbLine
 10
-6073.057356524142
 20
159.1413291770777
 30
0.0
 11
-6030.18548573516
 21
319.1413291770778
 31
0.0
  0
LINE
  5
20077
330
20049
100
AcDbEntity
  8
部品1
 48
50.0
100
AcDbLine
 10
-8058.789784965709
 20
1172.359075130196
 30
0.0
 11
-8038.789784965707
 21
1182.359075130196
 31
0.0
  0
LINE
  5
20078
330
20049
100
AcDbEntity
  8
部品1
 48
50.0
100
AcDbLine
 10
-8058.789784965709
 20
1212.359075130196
 30
0.0
 11
-8038.789784965707
 21
1222.359075130198
 31
0.0
  0
LINE
  5
20079
330
20049
100
AcDbEntity
  8
細線
 48
50.0
100
AcDbLine
 10
-8058.789784965709
 20
1172.359075130196
 30
0.0
 11
-8058.789784965709
 21
1212.359075130196
 31
0.0
  0
LINE
  5
2007A
330
20049
100
AcDbEntity
  8
部品1
 48
50.0
100
AcDbLine
 10
-8038.789784965707
 20
1182.359075130196
 30
0.0
 11
-8038.789784965707
 21
1222.359075130198
 31
0.0
  0
LINE
  5
2007B
330
20049
100
AcDbEntity
  8
部品1
 48
50.0
100
AcDbLine
 10
-8058.789784965709
 20
1232.359075130196
 30
0.0
 11
-8038.789784965707
 21
1222.359075130198
 31
0.0
  0
LINE
  5
2007C
330
20049
100
AcDbEntity
  8
部品1
 48
50.0
100
AcDbLine
 10
-8028.789784965708
 20
1058.169084299108
 30
0.0
 11
-8028.789784965708
 21
1070.169084299108
 31
0.0
  0
LINE
  5
2007D
330
20049
100
AcDbEntity
  8
細線
 48
50.0
100
AcDbLine
 10
-8098.789784965708
 20
1172.359075130196
 30
0.0
 11
-8098.789784965708
 21
1212.359075130196
 31
0.0
  0
LINE
  5
2007E
330
20049
100
AcDbEntity
  8
部品1
 48
50.0
100
AcDbLine
 10
-8118.789784965708
 20
1182.359075130196
 30
0.0
 11
-8118.789784965708
 21
1222.359075130198
 31
0.0
  0
LINE
  5
2007F
330
20049
100
AcDbEntity
  8
部品1
 48
50.0
100
AcDbLine
 10
-8118.789784965708
 20
1222.359075130198
 30
0.0
 11
-8098.789784965708
 21
1212.359075130196
 31
0.0
  0
LINE
  5
20080
330
20049
100
AcDbEntity
  8
部品1
 48
50.0
100
AcDbLine
 10
-8118.789784965708
 20
1182.359075130196
 30
0.0
 11
-8098.789784965708
 21
1172.359075130196
 31
0.0
  0
LINE
  5
20081
330
20049
100
AcDbEntity
  8
部品1
 48
50.0
100
AcDbLine
 10
-8118.789784965708
 20
1222.359075130198
 30
0.0
 11
-8098.789784965708
 21
1232.359075130196
 31
0.0
  0
LINE
  5
20082
330
20049
100
AcDbEntity
  8
部品1
100
AcDbLine
 10
-8220.539784965707
 20
805.7649737437682
 30
0.0
 11
-8171.039784965707
 21
805.7649737437682
 31
0.0
  0
ARC
  5
20083
330
20049
100
AcDbEntity
  8
部品1
100
AcDbCircle
 10
-8223.914784965707
 20
869.889973743764
 30
0.0
 40
3.375
100
AcDbArc
 50
0.0
 51
90.0
  0
LINE
  5
20084
330
20049
100
AcDbEntity
  8
部品1
100
AcDbLine
 10
-8220.539784965707
 20
869.889973743764
 30
0.0
 11
-8220.539784965707
 21
805.7649737437682
 31
0.0
  0
LINE
  5
20085
330
20049
100
AcDbEntity
  8
部品1
 48
50.0
100
AcDbLine
 10
-8128.789784965707
 20
1070.169084299108
 30
0.0
 11
-8128.789784965707
 21
1058.169084299108
 31
0.0
  0
LINE
  5
20086
330
20049
100
AcDbEntity
  8
部品1
100
AcDbLine
 10
-8191.289784965707
 20
820.714973743768
 30
0.0
 11
-8156.089784965706
 21
820.714973743768
 31
0.0
  0
ARC
  5
20087
330
20049
100
AcDbEntity
  8
部品1
100
AcDbCircle
 10
-8191.289784965707
 20
817.3399737437694
 30
0.0
 40
3.375
100
AcDbArc
 50
90.0
 51
180.0
  0
ARC
  5
20088
330
20049
100
AcDbEntity
  8
部品1
100
AcDbCircle
 10
-8156.089784965706
 20
817.3399737437694
 30
0.0
 40
3.375
100
AcDbArc
 50
0.0
 51
90.0
  0
LINE
  5
20089
330
20049
100
AcDbEntity
  8
部品1
100
AcDbLine
 10
-8090.039784965709
 20
795.214973743768
 30
0.0
 11
-8067.539784965708
 21
795.214973743768
 31
0.0
  0
LINE
  5
2008A
330
20049
100
AcDbEntity
  8
部品1
100
AcDbLine
 10
-8085.539784965709
 20
799.714973743768
 30
0.0
 11
-8072.039784965708
 21
799.714973743768
 31
0.0
  0
ARC
  5
2008B
330
20049
100
AcDbEntity
  8
部品1
100
AcDbCircle
 10
-8171.039784965707
 20
802.3899737437682
 30
0.0
 40
3.375
100
AcDbArc
 50
0.0
 51
90.0
  0
LINE
  5
2008C
330
20049
100
AcDbEntity
  8
部品1
100
AcDbLine
 10
-8194.664784965707
 20
817.3399737437694
 30
0.0
 11
-8194.664784965707
 21
795.964973743768
 31
0.0
  0
ARC
  5
2008D
330
20049
100
AcDbEntity
  8
部品1
100
AcDbCircle
 10
-8276.789784965707
 20
869.8899737437683
 30
0.0
 40
3.375
100
AcDbArc
 50
90.0
 51
180.0
  0
LINE
  5
2008E
330
20049
100
AcDbEntity
  8
部品1
100
AcDbLine
 10
-8280.164784965707
 20
859.7649737437683
 30
0.0
 11
-8280.164784965707
 21
859.7649737437683
 31
0.0
  0
LINE
  5
2008F
330
20049
100
AcDbEntity
  8
部品1
100
AcDbLine
 10
-8280.164784965707
 20
859.7649737437683
 30
0.0
 11
-8280.164784965707
 21
869.8899737437683
 31
0.0
  0
LINE
  5
20090
330
20049
100
AcDbEntity
  8
部品1
100
AcDbLine
 10
-8283.539784965707
 20
846.2649737437683
 30
0.0
 11
-8283.539784965707
 21
856.3899737437681
 31
0.0
  0
ARC
  5
20091
330
20049
100
AcDbEntity
  8
部品1
100
AcDbCircle
 10
-8280.164784965707
 20
856.3899737437681
 30
0.0
 40
3.375
100
AcDbArc
 50
90.0
 51
180.0
  0
LINE
  5
20092
330
20049
100
AcDbEntity
  8
部品1
100
AcDbLine
 10
-8334.164784965707
 20
832.7649737437681
 30
0.0
 11
-8334.164784965707
 21
842.8899737437681
 31
0.0
  0
ARC
  5
20093
330
20049
100
AcDbEntity
  8
部品1
100
AcDbCircle
 10
-8330.789784965707
 20
842.8899737437681
 30
0.0
 40
3.375
100
AcDbArc
 50
90.0
 51
180.0
  0
ARC
  5
20094
330
20049
100
AcDbEntity
  8
部品1
100
AcDbCircle
 10
-8344.289784965708
 20
826.7548533721528
 30
0.0
 40
3.375
100
AcDbArc
 50
104.0362434679581
 51
180.0
  0
LINE
  5
20095
330
20049
100
AcDbEntity
  8
部品1
100
AcDbLine
 10
-8345.108342700207
 20
830.0290843101434
 30
0.0
 11
-8334.164784965707
 21
832.7649737437681
 31
0.0
  0
LINE
  5
20096
330
20049
100
AcDbEntity
  8
部品1
100
AcDbLine
 10
-8330.789784965707
 20
846.2649737437683
 30
0.0
 11
-8283.539784965707
 21
846.2649737437683
 31
0.0
  0
LINE
  5
20097
330
20049
100
AcDbEntity
  8
部品1
100
AcDbLine
 10
-8276.789784965707
 20
873.2649737437673
 30
0.0
 11
-8223.914784965707
 21
873.2649737437641
 31
0.0
  0
ELLIPSE
  5
20098
330
20049
100
AcDbEntity
  8
部品1
 48
50.0
100
AcDbEllipse
 10
-8078.789784965707
 20
1070.169084299108
 30
0.0
 11
23.0
 21
0.0
 31
0.0
210
0.0
220
0.0
230
1.0
 40
0.3478260869565217
 41
0.0
 42
6.283185307179585
  0
ELLIPSE
  5
20099
330
20049
100
AcDbEntity
  8
部品1
 48
50.0
100
AcDbEllipse
 10
-8078.789784965707
 20
1070.169084299108
 30
0.0
 11
50.0
 21
0.0
 31
0.0
210
0.0
220
0.0
230
1.0
 40
0.4
 41
0.0
 42
6.283185307179585
  0
ELLIPSE
  5
2009A
330
20049
100
AcDbEntity
  8
部品1
 48
50.0
100
AcDbEllipse
 10
-8078.789784965707
 20
1058.169084299108
 30
0.0
 11
50.0
 21
0.0
 31
0.0
210
0.0
220
0.0
230
1.0
 40
0.4
 41
3.141592653589792
 42
6.283185307179585
  0
LINE
  5
2009B
330
20049
100
AcDbEntity
  8
部品1
 48
50.0
100
AcDbLine
 10
-8098.789784965708
 20
1232.359075130196
 30
0.0
 11
-8058.789784965709
 21
1232.359075130196
 31
0.0
  0
ELLIPSE
  5
2009C
330
20049
100
AcDbEntity
  8
細線
 48
50.0
100
AcDbEllipse
 10
-8078.789784965707
 20
1222.359075130197
 30
0.0
 11
18.45838483258558
 21
0.0
 31
0.0
210
0.0
220
0.0
230
1.0
 40
0.2071254069489396
 41
0.0
 42
6.283185307179585
  0
LINE
  5
2009D
330
20049
100
AcDbEntity
  8
部品1
 48
50.0
100
AcDbLine
 10
-8098.789784965708
 20
1172.359075130196
 30
0.0
 11
-8058.789784965709
 21
1172.359075130196
 31
0.0
  0
LINE
  5
2009E
330
20049
100
AcDbEntity
  8
部品1
 48
50.0
100
AcDbLine
 10
-8098.789784965708
 20
1212.359075130196
 30
0.0
 11
-8058.789784965709
 21
1212.359075130196
 31
0.0
  0
LINE
  5
2009F
330
20049
100
AcDbEntity
  8
細線
 48
50.0
100
AcDbLine
 10
-8000.039784965705
 20
535.1753268545035
 30
0.0
 11
-7838.039784965707
 21
697.1753268545021
 31
0.0
  0
LINE
  5
200A0
330
20049
100
AcDbEntity
  8
細線
 48
50.0
100
AcDbLine
 10
-8000.039784965705
 20
501.4993664004824
 30
0.0
 11
-7838.039784965707
 21
663.4993664004782
 31
0.0
  0
LINE
  5
200A1
330
20049
100
AcDbEntity
  8
部品1
100
AcDbLine
 10
-8022.539784965706
 20
430.0149737437668
 30
0.0
 11
-8022.539784965706
 21
452.5149737437677
 31
0.0
  0
LINE
  5
200A2
330
20049
100
AcDbEntity
  8
部品1
100
AcDbLine
 10
-8000.039784965707
 20
328.7649737437669
 30
0.0
 11
-8000.039784965707
 21
733.7649737437682
 31
0.0
  0
LINE
  5
200A3
330
20049
100
AcDbEntity
  8
細線
 48
50.0
100
AcDbLine
 10
-8000.039784965705
 20
467.8234059464653
 30
0.0
 11
-7838.039784965707
 21
629.8234059464548
 31
0.0
  0
LINE
  5
200A4
330
20049
100
AcDbEntity
  8
部品1
100
AcDbLine
 10
-8185.664784965707
 20
745.714973743768
 30
0.0
 11
-8171.039784965707
 21
745.714973743768
 31
0.0
  0
ARC
  5
200A5
330
20049
100
AcDbEntity
  8
部品1
100
AcDbCircle
 10
-8149.339784965714
 20
749.089973743768
 30
0.0
 40
3.375
100
AcDbArc
 50
180.0
 51
270.0
  0
ARC
  5
200A6
330
20049
100
AcDbEntity
  8
部品1
100
AcDbCircle
 10
-8171.039784965707
 20
749.089973743768
 30
0.0
 40
3.375
100
AcDbArc
 50
270.0
 51
0.0
  0
ARC
  5
200A7
330
20049
100
AcDbEntity
  8
部品1
100
AcDbCircle
 10
-8344.289784965708
 20
749.089973743768
 30
0.0
 40
3.375
100
AcDbArc
 50
180.0
 51
270.0
  0
LINE
  5
200A8
330
20049
100
AcDbEntity
  8
細線
 48
50.0
100
AcDbLine
 10
-8355.539784965706
 20
718.4906941186491
 30
0.0
 11
-8340.265505340589
 21
733.7649737437682
 31
0.0
  0
LINE
  5
200A9
330
20049
100
AcDbEntity
  8
部品1
100
AcDbLine
 10
-8344.289784965708
 20
745.714973743768
 30
0.0
 11
-8329.664784965714
 21
745.714973743768
 31
0.0
  0
LINE
  5
200AA
330
20049
100
AcDbEntity
  8
細線
 48
50.0
100
AcDbLine
 10
-8355.539784965706
 20
684.8147336646402
 30
0.0
 11
-8306.589544886575
 21
733.7649737437682
 31
0.0
  0
LINE
  5
200AB
330
20049
100
AcDbEntity
  8
細線
 48
50.0
100
AcDbLine
 10
-8355.539784965706
 20
651.1387732106304
 30
0.0
 11
-8272.91358443257
 21
733.7649737437682
 31
0.0
  0
ARC
  5
200AC
330
20049
100
AcDbEntity
  8
部品1
100
AcDbCircle
 10
-8067.539784965708
 20
452.5149737437677
 30
0.0
 40
22.5
100
AcDbArc
 50
180.0
 51
270.0
  0
LINE
  5
200AD
330
20049
100
AcDbEntity
  8
細線
 48
50.0
100
AcDbLine
 10
-8355.539784965706
 20
381.7310895785563
 30
0.0
 11
-8157.539784965711
 21
579.7310895785463
 31
0.0
  0
LINE
  5
200AE
330
20049
100
AcDbEntity
  8
部品1
100
AcDbLine
 10
-8157.539784965715
 20
328.7649737437669
 30
0.0
 11
-8157.539784965708
 21
733.7649737437682
 31
0.0
  0
LINE
  5
200AF
330
20049
100
AcDbEntity
  8
細線
 48
50.0
100
AcDbLine
 10
-8355.539784965706
 20
449.083010486574
 30
0.0
 11
-8157.53978496571
 21
647.0830104865712
 31
0.0
  0
LINE
  5
200B0
330
20049
100
AcDbEntity
  8
細線
 48
50.0
100
AcDbLine
 10
-8355.539784965706
 20
415.4070500325651
 30
0.0
 11
-8157.53978496571
 21
613.407050032562
 31
0.0
  0
LINE
  5
200B1
330
20049
100
AcDbEntity
  8
部品1
100
AcDbLine
 10
-8000.039784965707
 20
328.7649737437659
 30
0.0
 11
-8157.539784965715
 21
328.7649737437659
 31
0.0
  0
LINE
  5
200B2
330
20049
100
AcDbEntity
  8
部品1
 48
50.0
100
AcDbLine
 10
-8355.539784965706
 20
733.7649737437682
 30
0.0
 11
-7838.039784965705
 21
733.7649737437682
 31
0.0
  0
LINE
  5
200B3
330
20049
100
AcDbEntity
  8
部品1
100
AcDbLine
 10
-8149.339784965714
 20
745.714973743768
 30
0.0
 11
-7897.664784965716
 21
745.714973743768
 31
0.0
  0
LINE
  5
200B4
330
20049
100
AcDbEntity
  8
部品1
100
AcDbLine
 10
-8067.539784965708
 20
430.0149737437668
 30
0.0
 11
-8022.539784965706
 21
430.0149737437668
 31
0.0
  0
LINE
  5
200B5
330
20049
100
AcDbEntity
  8
部品1
100
AcDbLine
 10
-8067.539784965708
 20
452.5149737437677
 30
0.0
 11
-8022.539784965706
 21
452.5149737437677
 31
0.0
  0
LINE
  5
200B6
330
20049
100
AcDbEntity
  8
部品1
100
AcDbLine
 10
-8347.664784965706
 20
749.089973743768
 30
0.0
 11
-8347.664784965706
 21
826.7548533721528
 31
0.0
  0
LINE
  5
200B7
330
20049
100
AcDbEntity
  8
細線
100
AcDbLine
 10
-8072.039784965708
 20
745.714973743768
 30
0.0
 11
-8072.039784965708
 21
799.714973743768
 31
0.0
  0
LINE
  5
200B8
330
20049
100
AcDbEntity
  8
細線
100
AcDbLine
 10
-8085.539784965703
 20
745.714973743768
 30
0.0
 11
-8085.539784965709
 21
799.714973743768
 31
0.0
  0
LINE
  5
200B9
330
20049
100
AcDbEntity
  8
部品1
100
AcDbLine
 10
-8167.664784965706
 20
802.3899737437682
 30
0.0
 11
-8167.664784965706
 21
749.089973743768
 31
0.0
  0
LINE
  5
200BA
330
20049
100
AcDbEntity
  8
部品1
100
AcDbLine
 10
-8152.714784965706
 20
817.3399737437694
 30
0.0
 11
-8152.714784965713
 21
749.089973743768
 31
0.0
  0
LINE
  5
200BB
330
20049
100
AcDbEntity
  8
部品1
100
AcDbLine
 10
-8067.539784965708
 20
452.5149737437677
 30
0.0
 11
-8067.539784965712
 21
795.214973743768
 31
0.0
  0
LINE
  5
200BC
330
20049
100
AcDbEntity
  8
部品1
100
AcDbLine
 10
-8090.039784965709
 20
452.5149737437677
 30
0.0
 11
-8090.039784965711
 21
795.214973743768
 31
0.0
  0
TEXT
  5
200BD
330
20049
100
AcDbEntity
  8
部品1
 48
50.0
100
AcDbText
 10
-8873.214662256904
 20
447.8137140978369
 30
0.0
 40
100.0
  1
▽G.L
  7
STYLE2
100
AcDbText
  0
LWPOLYLINE
  5
200BE
330
20049
100
AcDbEntity
  8
部品1
 48
50.0
100
AcDbPolyline
 90
        2
 70
     0
 43
10.0
 10
-8873.214662256902
 20
433.7649737437695
 10
-8355.539784965706
 20
433.7649737437695
  0
LINE
  5
200BF
330
20049
100
AcDbEntity
  8
部品1
 48
50.0
100
AcDbLine
 10
-7838.039784965707
 20
53.76497374376686
 30
0.0
 11
-7678.039784965708
 21
53.76497374376686
 31
0.0
  0
LINE
  5
200C0
330
20049
100
AcDbEntity
  8
細線
 48
50.0
100
AcDbLine
 10
-7829.787615843419
 20
-276.2350262562322
 30
0.0
 11
-7837.826091616351
 21
-246.2350262562331
 31
0.0
  0
LINE
  5
200C1
330
20049
100
AcDbEntity
  8
細線
 48
50.0
100
AcDbLine
 10
-7731.177559659347
 20
-276.235026256234
 30
0.0
 11
-7739.216035432278
 21
-246.2350262562341
 31
0.0
  0
LINE
  5
200C2
330
20049
100
AcDbEntity
  8
細線
 48
50.0
100
AcDbLine
 10
-8027.007728211522
 20
-276.2350262562322
 30
0.0
 11
-8035.046203984453
 21
-246.2350262562331
 31
0.0
  0
LINE
  5
200C3
330
20049
100
AcDbEntity
  8
細線
 48
50.0
100
AcDbLine
 10
-7928.397672027464
 20
-276.2350262562322
 30
0.0
 11
-7936.436147800397
 21
-246.2350262562331
 31
0.0
  0
LINE
  5
200C4
330
20049
100
AcDbEntity
  8
細線
 48
50.0
100
AcDbLine
 10
-7973.227087180216
 20
-246.2350262562331
 30
0.0
 11
-7678.039784965708
 21
48.95227595827691
 31
0.0
  0
LINE
  5
200C5
330
20049
100
AcDbEntity
  8
細線
 48
50.0
100
AcDbLine
 10
-7939.551126726202
 20
-246.2350262562331
 30
0.0
 11
-7678.039784965708
 21
15.27631550426031
 31
0.0
  0
LINE
  5
200C6
330
20049
100
AcDbEntity
  8
細線
 48
50.0
100
AcDbLine
 10
-7905.875166272197
 20
-246.2350262562331
 30
0.0
 11
-7678.039784965708
 21
-18.39964494973719
 31
0.0
  0
LINE
  5
200C7
330
20049
100
AcDbEntity
  8
部品1
 48
50.0
100
AcDbLine
 10
-7678.039784965708
 20
53.76497374376686
 30
0.0
 11
-7678.039784965708
 21
-246.2350262562331
 31
0.0
  0
LINE
  5
200C8
330
20049
100
AcDbEntity
  8
細線
 48
50.0
100
AcDbLine
 10
-8224.227840579636
 20
-276.2350262562322
 30
0.0
 11
-8232.26631635257
 21
-246.2350262562331
 31
0.0
  0
LINE
  5
200C9
330
20049
100
AcDbEntity
  8
細線
 48
50.0
100
AcDbLine
 10
-8125.617784395579
 20
-276.2350262562322
 30
0.0
 11
-8133.656260168512
 21
-246.2350262562331
 31
0.0
  0
LINE
  5
200CA
330
20049
100
AcDbEntity
  8
細線
 48
50.0
100
AcDbLine
 10
-8421.447952947767
 20
-276.2350262562322
 30
0.0
 11
-8429.4864287207
 21
-246.2350262562331
 31
0.0
  0
LINE
  5
200CB
330
20049
100
AcDbEntity
  8
細線
 48
50.0
100
AcDbLine
 10
-8322.837896763701
 20
-276.2350262562322
 30
0.0
 11
-8330.876372536634
 21
-246.2350262562331
 31
0.0
  0
LINE
  5
200CC
330
20049
100
AcDbEntity
  8
細線
 48
50.0
100
AcDbLine
 10
-8242.634770812291
 20
-246.2350262562331
 30
0.0
 11
-7838.03978496571
 21
158.3599595903502
 31
0.0
  0
LINE
  5
200CD
330
20049
100
AcDbEntity
  8
細線
 48
50.0
100
AcDbLine
 10
-8208.95881035828
 20
-246.2350262562331
 30
0.0
 11
-7838.039784965707
 21
124.6839991363331
 31
0.0
  0
LINE
  5
200CE
330
20049
100
AcDbEntity
  8
細線
 48
50.0
100
AcDbLine
 10
-8175.282849904272
 20
-246.2350262562331
 30
0.0
 11
-7838.039784965707
 21
91.00803868233924
 31
0.0
  0
LINE
  5
200CF
330
20049
100
AcDbEntity
  8
細線
 48
50.0
100
AcDbLine
 10
-7856.582535086518
 20
-376.2350262562331
 30
0.0
 11
-7848.544059313571
 21
-406.2350262562331
 31
0.0
  0
LINE
  5
200D0
330
20049
100
AcDbEntity
  8
細線
 48
50.0
100
AcDbLine
 10
-7757.972478902456
 20
-376.235026256234
 30
0.0
 11
-7749.934003129523
 21
-406.235026256234
 31
0.0
  0
LINE
  5
200D1
330
20049
100
AcDbEntity
  8
細線
 48
50.0
100
AcDbLine
 10
-8053.802647454636
 20
-376.2350262562331
 30
0.0
 11
-8045.7641716817
 21
-406.2350262562331
 31
0.0
  0
LINE
  5
200D2
330
20049
100
AcDbEntity
  8
細線
 48
50.0
100
AcDbLine
 10
-7955.192591270575
 20
-376.2350262562331
 30
0.0
 11
-7947.154115497642
 21
-406.2350262562331
 31
0.0
  0
LINE
  5
200D3
330
20049
100
AcDbEntity
  8
細線
 48
50.0
100
AcDbLine
 10
-8251.022759822749
 20
-376.2350262562331
 30
0.0
 11
-8242.984284049816
 21
-406.2350262562331
 31
0.0
  0
LINE
  5
200D4
330
20049
100
AcDbEntity
  8
細線
 48
50.0
100
AcDbLine
 10
-8152.412703638692
 20
-376.2350262562331
 30
0.0
 11
-8144.374227865759
 21
-406.2350262562331
 31
0.0
  0
LINE
  5
200D5
330
20049
100
AcDbEntity
  8
細線
 48
50.0
100
AcDbLine
 10
-8448.242872190879
 20
-376.2350262562331
 30
0.0
 11
-8440.204396417945
 21
-406.2350262562331
 31
0.0
  0
LINE
  5
200D6
330
20049
100
AcDbEntity
  8
細線
 48
50.0
100
AcDbLine
 10
-8349.632816006813
 20
-376.2350262562331
 30
0.0
 11
-8341.594340233879
 21
-406.2350262562331
 31
0.0
  0
LINE
  5
200D7
330
20049
100
AcDbEntity
  8
細線
 48
50.0
100
AcDbLine
 10
-7864.621010859456
 20
-406.235026256234
 30
0.0
 11
-7821.749140070487
 21
-246.2350262562331
 31
0.0
  0
LINE
  5
200D8
330
20049
100
AcDbEntity
  8
細線
 48
50.0
100
AcDbLine
 10
-7766.010954675394
 20
-406.2350262562358
 30
0.0
 11
-7723.139083886415
 21
-246.2350262562359
 31
0.0
  0
LINE
  5
200D9
330
20049
100
AcDbEntity
  8
細線
 48
50.0
100
AcDbLine
 10
-8061.841123227571
 20
-406.235026256234
 30
0.0
 11
-8018.969252438591
 21
-246.2350262562341
 31
0.0
  0
LINE
  5
200DA
330
20049
100
AcDbEntity
  8
細線
 48
50.0
100
AcDbLine
 10
-8259.061235595689
 20
-406.2350262562331
 30
0.0
 11
-8216.189364806711
 21
-246.2350262562331
 31
0.0
  0
LINE
  5
200DB
330
20049
100
AcDbEntity
  8
細線
 48
50.0
100
AcDbLine
 10
-8160.451179411632
 20
-406.2350262562331
 30
0.0
 11
-8117.57930862265
 21
-246.2350262562341
 31
0.0
  0
LINE
  5
200DC
330
20049
100
AcDbEntity
  8
細線
 48
50.0
100
AcDbLine
 10
-7963.231067043519
 20
-406.2350262562331
 30
0.0
 11
-7920.359196254534
 21
-246.2350262562341
 31
0.0
  0
LINE
  5
200DD
330
20049
100
AcDbEntity
  8
細線
 48
50.0
100
AcDbLine
 10
-8456.281347963813
 20
-406.2350262562331
 30
0.0
 11
-8413.409477174834
 21
-246.2350262562331
 31
0.0
  0
LINE
  5
200DE
330
20049
100
AcDbEntity
  8
細線
 48
50.0
100
AcDbLine
 10
-8357.671291779757
 20
-406.235026256234
 30
0.0
 11
-8314.799420990777
 21
-246.2350262562341
 31
0.0
  0
LINE
  5
200DF
330
20049
100
AcDbEntity
  8
細線
 48
50.0
100
AcDbLine
 10
-8515.539784965715
 20
19.67532685449987
 30
0.0
 11
-8481.450138076439
 21
53.76497374376686
 31
0.0
  0
LINE
  5
200E0
330
20049
100
AcDbEntity
  8
細線
 48
50.0
100
AcDbLine
 10
-8615.539784965708
 20
-264.5601250490081
 30
0.0
 11
-8610.629589542963
 21
-246.2350262562331
 31
0.0
  0
LINE
  5
200E1
330
20049
100
AcDbEntity
  8
細線
 48
50.0
100
AcDbLine
 10
-8520.058009131831
 20
-276.2350262562322
 30
0.0
 11
-8528.096484904764
 21
-246.2350262562331
 31
0.0
  0
LINE
  5
200E2
330
20049
100
AcDbEntity
  8
部品1
 48
50.0
100
AcDbLine
 10
-8515.539784965708
 20
-246.2350262562331
 30
0.0
 11
-8515.539784965708
 21
53.76497374376686
 31
0.0
  0
LINE
  5
200E3
330
20049
100
AcDbEntity
  8
細線
 48
50.0
100
AcDbLine
 10
-8546.852928374944
 20
-376.2350262562331
 30
0.0
 11
-8538.814452602009
 21
-406.2350262562331
 31
0.0
  0
LINE
  5
200E4
330
20049
100
AcDbEntity
  8
部品1
 48
50.0
100
AcDbLine
 10
-8615.539784965703
 20
-406.2350262562331
 30
0.0
 11
-8615.539784965703
 21
-246.2350262562331
 31
0.0
  0
LINE
  5
200E5
330
20049
100
AcDbEntity
  8
細線
 48
50.0
100
AcDbLine
 10
-8554.891404147884
 20
-406.235026256234
 30
0.0
 11
-8512.019533358905
 21
-246.2350262562341
 31
0.0
  0
LINE
  5
200E6
330
20049
100
AcDbEntity
  8
細線
 48
50.0
100
AcDbLine
 10
-8515.539784965715
 20
-14.00063359951309
 30
0.0
 11
-8447.774177622425
 21
53.76497374376686
 31
0.0
  0
LINE
  5
200E7
330
20049
100
AcDbEntity
  8
細線
 48
50.0
100
AcDbLine
 10
-8515.539784965715
 20
-47.67659405351878
 30
0.0
 11
-8414.098217168421
 21
53.76497374376686
 31
0.0
  0
LINE
  5
200E8
330
20049
100
AcDbEntity
  8
部品1
 48
50.0
100
AcDbLine
 10
-8515.539784965708
 20
53.76497374376686
 30
0.0
 11
-8355.539784965706
 21
53.76497374376686
 31
0.0
  0
LINE
  5
200E9
330
20049
100
AcDbEntity
  8
細線
 48
50.0
100
AcDbLine
 10
-8512.042454444365
 20
-246.2350262562331
 30
0.0
 11
-7838.03978496571
 21
427.7676432224243
 31
0.0
  0
LINE
  5
200EA
330
20049
100
AcDbEntity
  8
部品1
100
AcDbLine
 10
-7838.03978496571
 20
53.76497374376686
 30
0.0
 11
-7838.039784965707
 21
733.7649737437682
 31
0.0
  0
LINE
  5
200EB
330
20049
100
AcDbEntity
  8
部品1
 48
50.0
100
AcDbLine
 10
-8355.539784965706
 20
53.76497374376686
 30
0.0
 11
-8355.539784965706
 21
733.7649737437682
 31
0.0
  0
LINE
  5
200EC
330
20049
100
AcDbEntity
  8
細線
 48
50.0
100
AcDbLine
 10
-8355.539784965706
 20
145.9993664004901
 30
0.0
 11
-8157.539784965717
 21
343.999366400476
 31
0.0
  0
LINE
  5
200ED
330
20049
100
AcDbEntity
  8
細線
 48
50.0
100
AcDbLine
 10
-8355.539784965706
 20
112.3234059464812
 30
0.0
 11
-8139.098217168415
 21
328.7649737437659
 31
0.0
  0
LINE
  5
200EE
330
20049
100
AcDbEntity
  8
細線
 48
50.0
100
AcDbLine
 10
-8355.539784965706
 20
179.6753268544998
 30
0.0
 11
-8157.539784965717
 21
377.675326854493
 31
0.0
  0
LINE
  5
200EF
330
20049
100
AcDbEntity
  8
細線
 48
50.0
100
AcDbLine
 10
-8444.690533536347
 20
-246.2350262562331
 30
0.0
 11
-7838.039784965707
 21
360.415722314403
 31
0.0
  0
LINE
  5
200F0
330
20049
100
AcDbEntity
  8
細線
 48
50.0
100
AcDbLine
 10
-8478.366493990355
 20
-246.2350262562331
 30
0.0
 11
-7838.039784965705
 21
394.0916827684109
 31
0.0
  0
TEXT
  5
200F1
330
20049
100
AcDbEntity
  8
部品1
 48
50.0
100
AcDbText
 10
-7832.597804610172
 20
1178.613324696518
 30
0.0
 40
100.0
  1
基礎ボルト(市販品)
  7
STYLE2
100
AcDbText
  0
DIMENSION
  5
200F2
330
20049
100
AcDbEntity
  8
寸法
 48
50.0
100
AcDbDimension
  2
*D35
 10
-6865.635702605868
 20
733.7649737437679
 30
0.0
 11
-6865.635702605868
 21
267.7560703222866
 31
0.0
 12
-16307.2
 22
-1200.0
 32
0.0
 70
   128
  1
20～25
 71
     5
 42
65.94999999999981
  3
INABA_S40G
100
AcDbAlignedDimension
 13
-8072.039784965708
 23
799.714973743768
 33
0.0
 14
-7838.039784965707
 24
733.7649737437682
 34
0.0
 50
90.0
100
AcDbRotatedDimension
  0
LINE
  5
200F3
330
20049
100
AcDbEntity
  8
細線
 48
50.0
100
AcDbLine
 10
-7667.40089849134
 20
-406.235026256234
 30
0.0
 11
-7624.529027702358
 21
-246.2350262562359
 31
0.0
  0
LINE
  5
200F4
330
20049
100
AcDbEntity
  8
部品1
 48
50.0
100
AcDbLine
 10
-7578.039784965703
 20
-406.2350262562331
 30
0.0
 11
-8615.539784965703
 21
-406.2350262562331
 31
0.0
  0
LINE
  5
200F5
330
20049
100
AcDbEntity
  8
細線
 48
50.0
100
AcDbLine
 10
-7659.362422718399
 20
-376.235026256234
 30
0.0
 11
-7651.323946945466
 21
-406.235026256234
 31
0.0
  0
LINE
  5
200F6
330
20049
100
AcDbEntity
  8
部品1
 48
50.0
100
AcDbLine
 10
-7578.039784965703
 20
-246.2350262562331
 30
0.0
 11
-8615.539784965703
 21
-246.2350262562331
 31
0.0
  0
LWPOLYLINE
  5
200F7
330
20049
100
AcDbEntity
  8
部品1
 48
50.0
100
AcDbPolyline
 90
        2
 70
     0
 43
10.0
 10
-7838.039784965707
 20
433.7649737437695
 10
-7470.911705716478
 20
433.7649737437695
  0
DIMENSION
  5
200F8
330
20049
100
AcDbEntity
  8
寸法
 48
50.0
100
AcDbDimension
  2
*D34
 10
-7210.704035254652
 20
328.7649737437657
 30
0.0
 11
-7310.704035254651
 21
531.2649737437684
 31
0.0
 12
-16307.2
 22
-1200.0
 32
0.0
  1
180
 71
     5
 42
405.0000000000022
  3
INABA_S40G
100
AcDbAlignedDimension
 13
-7838.039784965707
 23
733.7649737437682
 33
0.0
 14
-7838.039784965707
 24
328.7649737437659
 34
0.0
 50
90.0
100
AcDbRotatedDimension
  0
MTEXT
  5
200F9
102
{ACAD_REACTORS
330
200FA
102
}
330
20049
100
AcDbEntity
  8
部品1
 62
     7
 48
50.0
100
AcDbMText
 10
-7826.859206941559
 20
1064.244131435306
 30
0.0
 40
100.0
 41
1.0
 71
     4
 72
     1
  1
M10X160
  7
STYLE2
 73
     1
 44
1.0
1001
ACAD
1000
MTEXTBEGIN
1070
    73
1070
     1
1070
    44
1040
1.0
1070
    74
1070
     0
1000
MTEXTEND
  0
LEADER
  5
200FA
330
20049
100
AcDbEntity
  8
寸法
 48
50.0
100
AcDbLeader
  3
INABA_S40G
 71
     0
 73
     0
 74
     0
 75
     1
 40
100.0
 41
543.75
 76
     3
 10
-8067.539784965708
 20
795.214973743768
 30
0.0
 10
-7966.85920694156
 20
974.2441314353058
 30
0.0
 10
-7866.859206941559
 20
974.2441314353058
 30
0.0
  0
LINE
  5
200FB
330
20049
100
AcDbEntity
  8
細線
 48
50.0
100
AcDbLine
 10
-10480.5889264372
 20
684.8147336646402
 30
0.0
 11
-10431.63868635807
 21
733.7649737437682
 31
0.0
  0
LINE
  5
200FC
330
20049
100
AcDbEntity
  8
細線
 48
50.0
100
AcDbLine
 10
-10480.5889264372
 20
651.1387732106304
 30
0.0
 11
-10397.96272590406
 21
733.7649737437682
 31
0.0
  0
LINE
  5
200FD
330
20049
100
AcDbEntity
  8
細線
 48
50.0
100
AcDbLine
 10
-10480.5889264372
 20
718.4906941186491
 30
0.0
 11
-10465.31464681208
 21
733.7649737437682
 31
0.0
  0
ARC
  5
200FE
330
20049
100
AcDbEntity
  8
部品1
 48
50.0
100
AcDbCircle
 10
-10360.5889264372
 20
559.083010486574
 30
0.0
 40
30.0
100
AcDbArc
 50
0.0
 51
180.0
  0
CIRCLE
  5
200FF
330
20049
100
AcDbEntity
  8
部品1
 48
50.0
100
AcDbCircle
 10
-10360.5889264372
 20
559.083010486574
 30
0.0
 40
10.0
  0
LINE
  5
20100
330
20049
100
AcDbEntity
  8
細線
 48
50.0
100
AcDbLine
 10
-10370.5889264372
 20
525.4070500325651
 30
0.0
 11
-10350.5889264372
 21
545.4070500325651
 31
0.0
  0
LINE
  5
20101
330
20049
100
AcDbEntity
  8
細線
 48
50.0
100
AcDbLine
 10
-10330.5889264372
 20
531.7310895785549
 30
0.0
 11
-10240.5889264372
 21
621.7310895785563
 31
0.0
  0
LINE
  5
20102
330
20049
100
AcDbEntity
  8
細線
 48
50.0
100
AcDbLine
 10
-10331.14804235471
 20
564.8479341150451
 30
0.0
 11
-10240.5889264372
 21
655.4070500325651
 31
0.0
  0
LINE
  5
20103
330
20049
100
AcDbEntity
  8
細線
 48
50.0
100
AcDbLine
 10
-10344.97339830911
 20
584.6985386146625
 30
0.0
 11
-10240.5889264372
 21
689.083010486574
 31
0.0
  0
LINE
  5
20104
330
20049
100
AcDbEntity
  8
部品1
 48
50.0
100
AcDbLine
 10
-10480.5889264372
 20
733.7649737437682
 30
0.0
 11
-10240.5889264372
 21
733.7649737437682
 31
0.0
  0
LINE
  5
20105
330
20049
100
AcDbEntity
  8
細線
 48
50.0
100
AcDbLine
 10
-10480.5889264372
 20
381.7310895785563
 30
0.0
 11
-10375.89602390058
 21
486.4239921151711
 31
0.0
  0
LINE
  5
20106
330
20049
100
AcDbEntity
  8
部品1
 48
50.0
100
AcDbLine
 10
-10370.5889264372
 20
486.4239921151711
 30
0.0
 11
-10390.5889264372
 21
486.4239921151752
 31
0.0
  0
LINE
  5
20107
330
20049
100
AcDbEntity
  8
細線
 48
50.0
100
AcDbLine
 10
-10330.58892643719
 20
262.3234059464812
 30
0.0
 11
-10240.58892643721
 21
352.3234059464812
 31
0.0
  0
LINE
  5
20108
330
20049
100
AcDbEntity
  8
細線
 48
50.0
100
AcDbLine
 10
-10330.5889264372
 20
329.675326854499
 30
0.0
 11
-10240.5889264372
 21
419.6753268544998
 31
0.0
  0
LINE
  5
20109
330
20049
100
AcDbEntity
  8
細線
 48
50.0
100
AcDbLine
 10
-10330.58892643719
 20
295.9993664004942
 30
0.0
 11
-10240.58892643721
 21
385.9993664004869
 31
0.0
  0
LINE
  5
2010A
330
20049
100
AcDbEntity
  8
細線
 48
50.0
100
AcDbLine
 10
-10480.5889264372
 20
415.4070500325651
 30
0.0
 11
-10390.5889264372
 21
505.4070500325651
 31
0.0
  0
LINE
  5
2010B
330
20049
100
AcDbEntity
  8
細線
 48
50.0
100
AcDbLine
 10
-10480.5889264372
 20
449.083010486574
 30
0.0
 11
-10390.5889264372
 21
539.083010486574
 31
0.0
  0
LINE
  5
2010C
330
20049
100
AcDbEntity
  8
細線
 48
50.0
100
AcDbLine
 10
-10370.5889264372
 20
491.7310895785562
 30
0.0
 11
-10350.5889264372
 21
511.7310895785562
 31
0.0
  0
LINE
  5
2010D
330
20049
100
AcDbEntity
  8
部品1
 48
50.0
100
AcDbLine
 10
-10390.5889264372
 20
486.4239921151752
 30
0.0
 11
-10390.5889264372
 21
559.083010486574
 31
0.0
  0
LINE
  5
2010E
330
20049
100
AcDbEntity
  8
部品1
 48
50.0
100
AcDbLine
 10
-10370.5889264372
 20
486.4239921151711
 30
0.0
 11
-10370.5889264372
 21
559.083010486574
 31
0.0
  0
LEADER
  5
2010F
330
20049
100
AcDbEntity
  8
寸法
 48
50.0
100
AcDbLeader
  3
INABA_S40G
 71
     0
 73
     0
 74
     0
 75
     1
 40
100.0
 41
222.7272727272727
 76
     3
 10
-10360.5889264372
 20
559.083010486574
 30
0.0
 10
-10261.98150515295
 20
485.3494253674271
 30
0.0
 10
-10161.98150515295
 20
485.3494253674271
 30
0.0
  0
LWPOLYLINE
  5
20110
330
20049
100
AcDbEntity
  8
部品1
 48
50.0
100
AcDbPolyline
 90
        2
 70
     0
 43
10.0
 10
-10240.5889264372
 20
433.7649737437695
 10
-9722.914049146003
 20
433.7649737437695
  0
MTEXT
  5
20111
102
{ACAD_REACTORS
330
2010F
102
}
330
20049
100
AcDbEntity
  8
寸法
 62
     7
 48
50.0
100
AcDbMText
 10
-10136.98150515295
 20
560.3494253674271
 30
0.0
 40
100.0
 41
1.0
 71
     4
 72
     1
  1
D13
  7
STYLE2
 73
     1
 44
1.0
1001
ACAD
1000
MTEXTBEGIN
1070
    73
1070
     1
1070
    44
1040
1.0
1070
    74
1070
     0
1000
MTEXTEND
  0
LINE
  5
20112
330
20049
100
AcDbEntity
  8
細線
 48
50.0
100
AcDbLine
 10
-10053.44681349895
 20
-276.2350262562322
 30
0.0
 11
-10061.48528927189
 21
-246.2350262562331
 31
0.0
  0
LINE
  5
20113
330
20049
100
AcDbEntity
  8
細線
 48
50.0
100
AcDbLine
 10
-10098.27622865171
 20
-246.2350262562331
 30
0.0
 11
-10080.5889264372
 21
-228.547724041724
 31
0.0
  0
MTEXT
  5
20114
102
{ACAD_REACTORS
330
20153
102
}
330
20049
100
AcDbEntity
  8
寸法
 62
     7
 48
50.0
100
AcDbMText
 10
-9951.429351678845
 20
-140.481362434949
 30
0.0
 40
100.0
 41
1.0
 71
     4
 72
     1
  1
D10
  7
STYLE2
 73
     1
 44
1.0
1001
ACAD
1000
MTEXTBEGIN
1070
    73
1070
     1
1070
    44
1040
1.0
1070
    74
1070
     0
1000
MTEXTEND
  0
LINE
  5
20115
330
20049
100
AcDbEntity
  8
部品1
 48
50.0
100
AcDbLine
 10
-10080.5889264372
 20
53.76497374376686
 30
0.0
 11
-10080.5889264372
 21
-246.2350262562331
 31
0.0
  0
LINE
  5
20116
330
20049
100
AcDbEntity
  8
細線
 48
50.0
100
AcDbLine
 10
-10080.24173274207
 20
-376.2350262562331
 30
0.0
 11
-10072.20325696913
 21
-406.2350262562331
 31
0.0
  0
LINE
  5
20117
330
20049
100
AcDbEntity
  8
細線
 48
50.0
100
AcDbLine
 10
-9981.631676558011
 20
-376.2350262562331
 30
0.0
 11
-9980.588926437199
 21
-380.1266226866883
 31
0.0
  0
LINE
  5
20118
330
20049
100
AcDbEntity
  8
細線
 48
50.0
100
AcDbLine
 10
-9989.670152330946
 20
-406.235026256234
 30
0.0
 11
-9980.588926437199
 21
-372.3434298257471
 31
0.0
  0
MTEXT
  5
20119
102
{ACAD_REACTORS
330
20151
102
}
330
20049
100
AcDbEntity
  8
寸法
 62
     7
 48
50.0
100
AcDbMText
 10
-9938.415856610637
 20
-467.9213834214242
 30
0.0
 40
100.0
 41
1.0
 71
     4
 72
     1
  1
\A1;D10@300
  7
STYLE2
 73
     1
 44
1.0
1001
ACAD
1000
MTEXTBEGIN
1070
    73
1070
     1
1070
    44
1040
1.0
1070
    74
1070
     0
1000
MTEXTEND
  0
LINE
  5
2011A
330
20049
100
AcDbEntity
  8
部品1
 48
50.0
100
AcDbLine
 10
-9980.588926437198
 20
-246.2350262562331
 30
0.0
 11
-9980.588926437198
 21
-406.2350262562331
 31
0.0
  0
LINE
  5
2011B
330
20049
100
AcDbEntity
  8
細線
 48
50.0
100
AcDbLine
 10
-10088.28020851501
 20
-406.2350262562331
 30
0.0
 11
-10045.40833772602
 21
-246.2350262562341
 31
0.0
  0
LINE
  5
2011C
330
20049
100
AcDbEntity
  8
部品1
 48
50.0
100
AcDbLine
 10
-10370.5889264372
 20
-23.57600788482887
 30
0.0
 11
-10390.5889264372
 21
-23.57600788482887
 31
0.0
  0
LINE
  5
2011D
330
20049
100
AcDbEntity
  8
細線
 48
50.0
100
AcDbLine
 10
-10380.75661709044
 20
-23.57600788482887
 30
0.0
 11
-10350.58892643719
 21
6.591682768419559
 31
0.0
  0
LINE
  5
2011E
330
20049
100
AcDbEntity
  8
細線
 48
50.0
100
AcDbLine
 10
-10370.5889264372
 20
-47.08427768559386
 30
0.0
 11
-10350.58892643719
 21
-27.08427768559386
 31
0.0
  0
LINE
  5
2011F
330
20049
100
AcDbEntity
  8
細線
 48
50.0
100
AcDbLine
 10
-10330.58892643719
 20
26.59168276841956
 30
0.0
 11
-10240.58892643721
 21
116.5916827684123
 31
0.0
  0
LINE
  5
20120
330
20049
100
AcDbEntity
  8
細線
 48
50.0
100
AcDbLine
 10
-10330.58892643719
 20
60.26764322242934
 30
0.0
 11
-10240.58892643721
 21
150.2676432224252
 31
0.0
  0
LINE
  5
20121
330
20049
100
AcDbEntity
  8
細線
 48
50.0
100
AcDbLine
 10
-10330.58892643719
 20
-7.08427768559386
 30
0.0
 11
-10240.58892643721
 21
82.91572231440614
 31
0.0
  0
LINE
  5
20122
330
20049
100
AcDbEntity
  8
細線
 48
50.0
100
AcDbLine
 10
-10300.33199137576
 20
-246.2350262562331
 30
0.0
 11
-10180.33088156934
 21
-126.233916449808
 31
0.0
  0
LINE
  5
20123
330
20049
100
AcDbEntity
  8
部品1
 48
50.0
100
AcDbLine
 10
-10150.5889264372
 20
-106.2350262562331
 30
0.0
 11
-10150.5889264372
 21
-126.2350262562331
 31
0.0
  0
LINE
  5
20124
330
20049
100
AcDbEntity
  8
細線
 48
50.0
100
AcDbLine
 10
-10152.05686968301
 20
-276.2350262562322
 30
0.0
 11
-10160.09534545595
 21
-246.2350262562331
 31
0.0
  0
CIRCLE
  5
20125
330
20049
100
AcDbEntity
  8
部品1
 48
50.0
100
AcDbCircle
 10
-10200.5889264372
 20
-96.23502625623315
 30
0.0
 40
10.0
  0
LINE
  5
20126
330
20049
100
AcDbEntity
  8
細線
 48
50.0
100
AcDbLine
 10
-10250.66692586707
 20
-276.2350262562322
 30
0.0
 11
-10258.70540164
 21
-246.2350262562331
 31
0.0
  0
ARC
  5
20127
330
20049
100
AcDbEntity
  8
部品1
 48
50.0
100
AcDbCircle
 10
-10360.5889264372
 20
-96.23502625623315
 30
0.0
 40
30.0
100
AcDbArc
 50
340.5287793654919
 51
0.0
  0
LINE
  5
20128
330
20049
100
AcDbEntity
  8
細線
 48
50.0
100
AcDbLine
 10
-10349.27698205113
 20
-276.2350262562322
 30
0.0
 11
-10357.31545782406
 21
-246.2350262562331
 31
0.0
  0
ARC
  5
20129
330
20049
100
AcDbEntity
  8
部品1
 48
50.0
100
AcDbCircle
 10
-10360.5889264372
 20
-96.23502625623315
 30
0.0
 40
30.0
100
AcDbArc
 50
180.0
 51
199.4712206345081
  0
LINE
  5
2012A
330
20049
100
AcDbEntity
  8
細線
 48
50.0
100
AcDbLine
 10
-10447.88703823519
 20
-276.2350262562322
 30
0.0
 11
-10455.92551400813
 21
-246.2350262562331
 31
0.0
  0
CIRCLE
  5
2012B
330
20049
100
AcDbEntity
  8
部品1
 48
50.0
100
AcDbCircle
 10
-10360.5889264372
 20
-96.23502625623315
 30
0.0
 40
10.0
  0
LINE
  5
2012C
330
20049
100
AcDbEntity
  8
細線
 48
50.0
100
AcDbLine
 10
-10334.00795182977
 20
-246.2350262562331
 30
0.0
 11
-10214.00795182977
 21
-126.2350262562331
 31
0.0
  0
LINE
  5
2012D
330
20049
100
AcDbEntity
  8
細線
 48
50.0
100
AcDbLine
 10
-10367.68391228378
 20
-246.2350262562331
 30
0.0
 11
-10247.68391228378
 21
-126.2350262562331
 31
0.0
  0
LINE
  5
2012E
330
20049
100
AcDbEntity
  8
細線
 48
50.0
100
AcDbLine
 10
-10497.09159591585
 20
-106.2350262562331
 30
0.0
 11
-10350.5889264372
 21
40.26764322242525
 31
0.0
  0
LINE
  5
2012F
330
20049
100
AcDbEntity
  8
細線
 48
50.0
100
AcDbLine
 10
-10429.73967500784
 20
-106.2350262562331
 30
0.0
 11
-10390.5889264372
 21
-67.08427768559386
 31
0.0
  0
LINE
  5
20130
330
20049
100
AcDbEntity
  8
部品1
 48
50.0
100
AcDbLine
 10
-10390.5889264372
 20
-23.57600788482887
 30
0.0
 11
-10390.5889264372
 21
-96.23502625623315
 31
0.0
  0
LINE
  5
20131
330
20049
100
AcDbEntity
  8
細線
 48
50.0
100
AcDbLine
 10
-10463.41563546184
 20
-106.2350262562331
 30
0.0
 11
-10390.5889264372
 21
-33.40831723158408
 31
0.0
  0
LINE
  5
20132
330
20049
100
AcDbEntity
  8
部品1
 48
50.0
100
AcDbLine
 10
-10370.5889264372
 20
-23.57600788482887
 30
0.0
 11
-10370.5889264372
 21
-96.23502625623315
 31
0.0
  0
LINE
  5
20133
330
20049
100
AcDbEntity
  8
細線
 48
50.0
100
AcDbLine
 10
-10640.5889264372
 20
-14.00063359951309
 30
0.0
 11
-10572.82331909392
 21
53.76497374376686
 31
0.0
  0
LINE
  5
20134
330
20049
100
AcDbEntity
  8
細線
 48
50.0
100
AcDbLine
 10
-10640.5889264372
 20
19.67532685449987
 30
0.0
 11
-10606.49927954793
 21
53.76497374376686
 31
0.0
  0
LINE
  5
20135
330
20049
100
AcDbEntity
  8
細線
 48
50.0
100
AcDbLine
 10
-10640.5889264372
 20
-47.67659405351878
 30
0.0
 11
-10539.14735863991
 21
53.76497374376686
 31
0.0
  0
LINE
  5
20136
330
20049
100
AcDbEntity
  8
部品1
 48
50.0
100
AcDbLine
 10
-10570.5889264372
 20
-106.2350262562331
 30
0.0
 11
-10570.5889264372
 21
-126.2350262562331
 31
0.0
  0
LINE
  5
20137
330
20049
100
AcDbEntity
  8
細線
 48
50.0
100
AcDbLine
 10
-10546.49709441926
 20
-276.2350262562322
 30
0.0
 11
-10554.53557019219
 21
-246.2350262562331
 31
0.0
  0
LINE
  5
20138
330
20049
100
AcDbEntity
  8
細線
 48
50.0
100
AcDbLine
 10
-10645.10715060332
 20
-276.2350262562322
 30
0.0
 11
-10653.14562637625
 21
-246.2350262562331
 31
0.0
  0
LINE
  5
20139
330
20049
100
AcDbEntity
  8
細線
 48
50.0
100
AcDbLine
 10
-10740.5889264372
 20
-264.5601250490081
 30
0.0
 11
-10735.67873101445
 21
-246.2350262562331
 31
0.0
  0
LINE
  5
2013A
330
20049
100
AcDbEntity
  8
部品1
 48
50.0
100
AcDbLine
 10
-10640.5889264372
 20
-246.2350262562331
 30
0.0
 11
-10640.5889264372
 21
53.76497374376686
 31
0.0
  0
LINE
  5
2013B
330
20049
100
AcDbEntity
  8
部品1
 48
50.0
100
AcDbLine
 10
-10570.5889264372
 20
-126.2350262562331
 30
0.0
 11
-10150.5889264372
 21
-126.2350262562331
 31
0.0
  0
LINE
  5
2013C
330
20049
100
AcDbEntity
  8
部品1
 48
50.0
100
AcDbLine
 10
-10570.5889264372
 20
-106.2350262562331
 30
0.0
 11
-10150.5889264372
 21
-106.2350262562331
 31
0.0
  0
LINE
  5
2013D
330
20049
100
AcDbEntity
  8
細線
 48
50.0
100
AcDbLine
 10
-10569.73967500784
 20
-246.2350262562331
 30
0.0
 11
-10449.73967500784
 21
-126.2350262562331
 31
0.0
  0
CIRCLE
  5
2013E
330
20049
100
AcDbEntity
  8
部品1
 48
50.0
100
AcDbCircle
 10
-10520.5889264372
 20
-96.23502625623315
 30
0.0
 40
10.0
  0
LINE
  5
2013F
330
20049
100
AcDbEntity
  8
細線
 48
50.0
100
AcDbLine
 10
-10603.41563546184
 20
-246.2350262562331
 30
0.0
 11
-10483.41563546184
 21
-126.2350262562331
 31
0.0
  0
LINE
  5
20140
330
20049
100
AcDbEntity
  8
細線
 48
50.0
100
AcDbLine
 10
-10637.09159591585
 20
-246.2350262562331
 30
0.0
 11
-10517.09159591585
 21
-126.2350262562331
 31
0.0
  0
LINE
  5
20141
330
20049
100
AcDbEntity
  8
部品1
 48
50.0
100
AcDbLine
 10
-10640.5889264372
 20
53.76497374376686
 30
0.0
 11
-10480.5889264372
 21
53.76497374376686
 31
0.0
  0
LINE
  5
20142
330
20049
100
AcDbEntity
  8
細線
 48
50.0
100
AcDbLine
 10
-10277.46184511018
 20
-376.2350262562331
 30
0.0
 11
-10269.42336933725
 21
-406.2350262562331
 31
0.0
  0
LINE
  5
20143
330
20049
100
AcDbEntity
  8
細線
 48
50.0
100
AcDbLine
 10
-10178.85178892612
 20
-376.2350262562331
 30
0.0
 11
-10170.81331315319
 21
-406.2350262562331
 31
0.0
  0
LINE
  5
20144
330
20049
100
AcDbEntity
  8
細線
 48
50.0
100
AcDbLine
 10
-10474.6819574783
 20
-376.2350262562331
 30
0.0
 11
-10466.64348170537
 21
-406.2350262562331
 31
0.0
  0
LINE
  5
20145
330
20049
100
AcDbEntity
  8
細線
 48
50.0
100
AcDbLine
 10
-10376.07190129424
 20
-376.2350262562331
 30
0.0
 11
-10368.03342552131
 21
-406.2350262562331
 31
0.0
  0
LINE
  5
20146
330
20049
100
AcDbEntity
  8
細線
 48
50.0
100
AcDbLine
 10
-10671.90206984643
 20
-376.2350262562331
 30
0.0
 11
-10663.8635940735
 21
-406.2350262562331
 31
0.0
  0
LINE
  5
20147
330
20049
100
AcDbEntity
  8
細線
 48
50.0
100
AcDbLine
 10
-10573.29201366237
 20
-376.2350262562331
 30
0.0
 11
-10565.25353788944
 21
-406.2350262562331
 31
0.0
  0
LINE
  5
20148
330
20049
100
AcDbEntity
  8
細線
 48
50.0
100
AcDbLine
 10
-10285.50032088312
 20
-406.2350262562331
 30
0.0
 11
-10242.62845009414
 21
-246.2350262562341
 31
0.0
  0
LINE
  5
20149
330
20049
100
AcDbEntity
  8
細線
 48
50.0
100
AcDbLine
 10
-10581.3304894353
 20
-406.2350262562331
 30
0.0
 11
-10538.45861864632
 21
-246.2350262562331
 31
0.0
  0
LINE
  5
2014A
330
20049
100
AcDbEntity
  8
細線
 48
50.0
100
AcDbLine
 10
-10482.72043325124
 20
-406.235026256234
 30
0.0
 11
-10439.84856246227
 21
-246.2350262562341
 31
0.0
  0
LINE
  5
2014B
330
20049
100
AcDbEntity
  8
細線
 48
50.0
100
AcDbLine
 10
-10679.94054561937
 20
-406.235026256234
 30
0.0
 11
-10637.0686748304
 21
-246.2350262562341
 31
0.0
  0
LINE
  5
2014C
330
20049
100
AcDbEntity
  8
部品1
 48
50.0
100
AcDbLine
 10
-10740.5889264372
 20
-406.2350262562331
 30
0.0
 11
-10740.5889264372
 21
-246.2350262562331
 31
0.0
  0
LINE
  5
2014D
330
20049
100
AcDbEntity
  8
細線
 48
50.0
100
AcDbLine
 10
-10384.11037706718
 20
-406.2350262562331
 30
0.0
 11
-10341.2385062782
 21
-246.2350262562331
 31
0.0
  0
LINE
  5
2014E
330
20049
100
AcDbEntity
  8
細線
 48
50.0
100
AcDbLine
 10
-10186.89026469906
 20
-406.235026256234
 30
0.0
 11
-10144.01839391008
 21
-246.2350262562341
 31
0.0
  0
LINE
  5
2014F
330
20049
100
AcDbEntity
  8
部品1
 48
50.0
100
AcDbLine
 10
-9980.588926437198
 20
-406.2350262562331
 30
0.0
 11
-10740.5889264372
 21
-406.2350262562331
 31
0.0
  0
LINE
  5
20150
330
20049
100
AcDbEntity
  8
部品1
 48
50.0
100
AcDbLine
 10
-9980.588926437198
 20
-246.2350262562331
 30
0.0
 11
-10740.5889264372
 21
-246.2350262562331
 31
0.0
  0
LEADER
  5
20151
330
20049
100
AcDbEntity
  8
寸法
 48
50.0
100
AcDbLeader
  3
INABA_S40G
 71
     0
 73
     0
 74
     0
 75
     1
 40
100.0
 41
540.3409090909091
 76
     3
 10
-10268.15746517073
 20
-117.1606892731397
 30
0.0
 10
-10063.41585661063
 20
-544.1992117667614
 30
0.0
 10
-9963.415856610637
 20
-544.1992117667614
 30
0.0
213
0.0
223
-1.277828345336728
233
0.0
  0
DIMENSION
  5
20152
330
20049
100
AcDbEntity
  8
寸法
 48
50.0
100
AcDbDimension
  2
*D33
 10
-10080.5889264372
 20
-705.1871327121662
 30
0.0
 11
-10360.5889264372
 21
-705.1871327121662
 31
0.0
 12
-16307.2
 22
-1200.0
 32
0.0
 70
   128
  1
300
 71
     5
 42
560.0000000000009
  3
INABA_S40G
100
AcDbAlignedDimension
 13
-10640.5889264372
 23
-406.2350262562331
 33
0.0
 14
-10080.5889264372
 24
-406.2350262562331
 34
0.0
100
AcDbRotatedDimension
  0
LEADER
  5
20153
330
20049
100
AcDbEntity
  8
寸法
 48
50.0
100
AcDbLeader
  3
INABA_S40G
 71
     0
 73
     0
 74
     0
 75
     1
 40
100.0
 41
225.0
 76
     3
 10
-10200.71023599702
 20
-96.23502625623315
 30
0.0
 10
-10076.42935167884
 20
-215.4813624349481
 30
0.0
 10
-9976.429351678845
 20
-215.4813624349481
 30
0.0
  0
LINE
  5
20154
330
20049
100
AcDbEntity
  8
細線
 48
50.0
100
AcDbLine
 10
-10227.68391228379
 20
-106.2350262562331
 30
0.0
 11
-10080.5889264372
 21
40.85995959035017
 31
0.0
  0
LINE
  5
20155
330
20049
100
AcDbEntity
  8
細線
 48
50.0
100
AcDbLine
 10
-10160.33199137576
 20
-106.2350262562331
 30
0.0
 11
-10080.5889264372
 21
-26.49196131766803
 31
0.0
  0
LINE
  5
20156
330
20049
100
AcDbEntity
  8
細線
 48
50.0
100
AcDbLine
 10
-10194.00795182977
 20
-106.2350262562331
 30
0.0
 11
-10080.5889264372
 21
7.183999136341299
 31
0.0
  0
LINE
  5
20157
330
20049
100
AcDbEntity
  8
部品1
 48
50.0
100
AcDbLine
 10
-10240.5889264372
 20
53.76497374376686
 30
0.0
 11
-10080.5889264372
 21
53.76497374376686
 31
0.0
  0
LINE
  5
20158
330
20049
100
AcDbEntity
  8
部品1
 48
50.0
100
AcDbLine
 10
-10330.58892643719
 20
-96.23502625623315
 30
0.0
 11
-10330.5889264372
 21
559.083010486574
 31
0.0
  0
LINE
  5
20159
330
20049
100
AcDbEntity
  8
部品1
 48
50.0
100
AcDbLine
 10
-10350.58892643719
 20
-96.23502625623315
 30
0.0
 11
-10350.5889264372
 21
559.083010486574
 31
0.0
  0
LINE
  5
2015A
330
20049
100
AcDbEntity
  8
部品1
 48
50.0
100
AcDbLine
 10
-10480.5889264372
 20
53.76497374376686
 30
0.0
 11
-10480.5889264372
 21
733.7649737437682
 31
0.0
  0
LINE
  5
2015B
330
20049
100
AcDbEntity
  8
細線
 48
50.0
100
AcDbLine
 10
-10480.5889264372
 20
145.9993664004901
 30
0.0
 11
-10350.58892643719
 21
275.9993664004942
 31
0.0
  0
LINE
  5
2015C
330
20049
100
AcDbEntity
  8
細線
 48
50.0
100
AcDbLine
 10
-10480.5889264372
 20
179.6753268544998
 30
0.0
 11
-10350.5889264372
 21
309.6753268544999
 31
0.0
  0
LINE
  5
2015D
330
20049
100
AcDbEntity
  8
細線
 48
50.0
100
AcDbLine
 10
-10480.5889264372
 20
112.3234059464812
 30
0.0
 11
-10350.58892643719
 21
242.3234059464812
 31
0.0
  0
LINE
  5
2015E
330
20049
100
AcDbEntity
  8
部品1
 48
50.0
100
AcDbLine
 10
-10240.5889264372
 20
733.7649737437682
 30
0.0
 11
-10240.5889264372
 21
53.76497374376686
 31
0.0
  0
MTEXT
  5
2015F
102
{ACAD_REACTORS
330
20160
102
}
330
20049
100
AcDbEntity
  8
寸法
 62
     7
 48
50.0
100
AcDbMText
 10
-10854.25770918119
 20
-350.6383932792778
 30
0.0
 40
100.0
 41
1.0
 71
     6
 72
     1
  1
D10
  7
STYLE2
 73
     1
 44
1.0
1001
ACAD
1000
MTEXTBEGIN
1070
    73
1070
     1
1070
    44
1040
1.0
1070
    74
1070
     0
1000
MTEXTEND
  0
LEADER
  5
20160
330
20049
100
AcDbEntity
  8
寸法
 48
50.0
100
AcDbLeader
  3
INABA_S40G
 71
     0
 73
     0
 75
     1
 40
100.0
 41
225.0
 76
     3
 10
-10520.71023599702
 20
-96.23502625623315
 30
0.0
 10
-10729.25770918119
 20
-425.6383932792777
 30
0.0
 10
-10829.25770918119
 20
-425.6383932792777
 30
0.0
  0
LEADER
  5
20161
330
20049
100
AcDbEntity
  8
寸法
 48
50.0
100
AcDbLeader
  3
INABA_S40G
 71
     0
 73
     0
 75
     1
 40
100.0
 41
222.7272727272727
 76
     3
 10
-10360.5889264372
 20
-96.23502625623315
 30
0.0
 10
-10694.1042997344
 20
-651.0335839535819
 30
0.0
 10
-10794.1042997344
 20
-651.0335839535819
 30
0.0
  0
MTEXT
  5
20162
102
{ACAD_REACTORS
330
20161
102
}
330
20049
100
AcDbEntity
  8
寸法
 62
     7
 48
50.0
100
AcDbMText
 10
-10819.1042997344
 20
-576.0335839535819
 30
0.0
 40
100.0
 41
1.0
 71
     6
 72
     1
  1
D13
  7
STYLE2
 73
     1
 44
1.0
1001
ACAD
1000
MTEXTBEGIN
1070
    73
1070
     1
1070
    44
1040
1.0
1070
    74
1070
     0
1000
MTEXTEND
  0
MTEXT
  5
20163
102
{ACAD_REACTORS
330
20164
102
}
330
20049
100
AcDbEntity
  8
寸法
 62
     7
 48
50.0
100
AcDbMText
 10
-10592.1514942157
 20
235.3907272655879
 30
0.0
 40
100.0
 41
1.0
 71
     6
 72
     1
  1
\A1;D10@300
  7
STYLE2
 73
     1
 44
1.0
1001
ACAD
1000
MTEXTBEGIN
1070
    73
1070
     1
1070
    44
1040
1.0
1070
    74
1070
     0
1000
MTEXTEND
  0
LEADER
  5
20164
330
20049
100
AcDbEntity
  8
寸法
 48
50.0
100
AcDbLeader
  3
INABA_S40G
 71
     0
 73
     0
 75
     1
 40
100.0
 41
540.3409090909091
 76
     3
 10
-10350.5889264372
 20
431.4239921151711
 30
0.0
 10
-10479.31672209807
 20
154.5860814391662
 30
0.0
 10
-10579.31672209807
 20
154.5860814391662
 30
0.0
213
-12.16522788236671
223
-5.804645826423211
233
0.0
  0
LEADER
  5
20165
330
20049
100
AcDbEntity
  8
寸法
 48
50.0
100
AcDbLeader
  3
INABA_S40G
 71
     0
 73
     0
 75
     1
 40
130.1136363636363
 41
651.1363636363636
 76
     3
 10
-10380.5889264372
 20
733.7649737437682
 30
0.0
 10
-10439.50692635548
 20
909.353430564502
 30
0.0
 10
-10539.50692635548
 20
909.353430564502
 30
0.0
  0
MTEXT
  5
20166
102
{ACAD_REACTORS
330
20165
102
}
330
20049
100
AcDbEntity
  8
寸法
 62
     7
 48
50.0
100
AcDbMText
 10
-10564.50692635548
 20
999.410248746321
 30
0.0
 40
100.0
 41
1.0
 71
     6
 72
     1
  1
\A1;金コテ押エ
  7
STYLE2
 73
     1
 44
1.0
1001
ACAD
1000
MTEXTBEGIN
1070
    73
1070
     1
1070
    44
1040
1.0
1070
    74
1070
     0
1000
MTEXTEND
  0
DIMENSION
  5
20167
330
20049
100
AcDbEntity
  8
寸法
 48
50.0
100
AcDbDimension
  2
*D32
 10
-11241.23386447326
 20
-246.235026256233
 30
0.0
 11
-11241.23386447326
 21
243.7649737437677
 31
0.0
 12
-16307.2
 22
-1200.0
 32
0.0
 70
   128
  1
540
 71
     5
 42
980.0000000000014
  3
INABA_S40G
100
AcDbAlignedDimension
 13
-10480.5889264372
 23
733.7649737437682
 33
0.0
 14
-10740.5889264372
 24
-246.2350262562331
 34
0.0
 50
90.0
100
AcDbRotatedDimension
  0
DIMENSION
  5
20168
330
20049
100
AcDbEntity
  8
寸法
 48
50.0
100
AcDbDimension
  2
*D31
 10
-10818.61431860277
 20
-246.2350262562331
 30
0.0
 11
-10818.61431860277
 21
-96.23502625623315
 31
0.0
 12
-16307.2
 22
-1200.0
 32
0.0
 70
   128
  1
150
 71
     5
 42
300.0000000000001
  3
INABA_S40G
100
AcDbAlignedDimension
 13
-10640.5889264372
 23
53.76497374376686
 33
0.0
 14
-10740.5889264372
 24
-246.2350262562331
 34
0.0
 50
90.0
100
AcDbRotatedDimension
  0
LWPOLYLINE
  5
20169
330
20049
100
AcDbEntity
  8
部品1
 48
50.0
100
AcDbPolyline
 90
        2
 70
     0
 43
10.0
 10
-10998.26380372839
 20
433.7649737437695
 10
-10480.5889264372
 20
433.7649737437695
  0
TEXT
  5
2016A
330
20049
100
AcDbEntity
  8
部品1
 48
50.0
100
AcDbText
 10
-10998.26380372839
 20
447.8137140978369
 30
0.0
 40
100.0
  1
▽G.L
  7
STYLE2
100
AcDbText
  0
LEADER
  5
2016B
330
20049
100
AcDbEntity
  8
寸法
 48
50.0
100
AcDbLeader
  3
INABA_S40G
 71
     0
 73
     0
 75
     1
 40
132.9545454545455
 41
1129.404378023068
 76
     3
 10
-8191.289784965707
 20
820.714973743768
 30
0.0
 10
-8299.31987539688
 20
1279.539442139183
 30
0.0
 10
-8399.319875396882
 20
1279.539442139183
 30
0.0
  0
MTEXT
  5
2016C
102
{ACAD_REACTORS
330
2016B
102
}
330
20049
100
AcDbEntity
  8
寸法
 62
     7
 48
50.0
100
AcDbMText
 10
-8439.319875396881
 20
1386.016714866456
 30
0.0
 40
100.0
 41
1.0
 71
     6
 72
     1
  1
アンカープレート {\fArial|b0|i0|c0|p32;U}
  7
STYLE2
 73
     1
 44
1.0
1001
ACAD
1000
MTEXTBEGIN
1070
    73
1070
     1
1070
    44
1040
1.0
1070
    74
1070
     0
1000
MTEXTEND
  0
MTEXT
  5
2016D
102
{ACAD_REACTORS
330
2016E
102
}
330
20049
100
AcDbEntity
  8
部品1
 62
     7
 48
50.0
100
AcDbMText
 10
-7828.347321074009
 20
1840.595543558828
 30
0.0
 40
100.0
 41
1.0
 71
     4
 72
     1
  1
\A1;ナット(市販品)
  7
STYLE2
 73
     1
 44
1.0
1001
ACAD
1000
MTEXTBEGIN
1070
    73
1070
     1
1070
    44
1040
1.0
1070
    74
1070
     0
1000
MTEXTEND
  0
LEADER
  5
2016E
330
20049
100
AcDbEntity
  8
寸法
 48
50.0
100
AcDbLeader
  3
INABA_S40G
 71
     0
 73
     0
 74
     0
 75
     1
 40
127.8409090909091
 41
850.0
 76
     3
 10
-8058.789784965709
 20
1232.359075130196
 30
0.0
 10
-7968.34732107401
 20
1736.675089013373
 30
0.0
 10
-7868.34732107401
 20
1736.675089013373
 30
0.0
  0
MTEXT
  5
2016F
102
{ACAD_REACTORS
330
20170
102
}
330
20049
100
AcDbEntity
  8
部品1
 62
     7
 48
50.0
100
AcDbMText
 10
-7788.950297004657
 20
1609.384190102843
 30
0.0
 40
100.0
 41
1.0
 71
     4
 72
     1
  1
\A1;ワッシャー(市販品)
  7
STYLE2
 73
     1
 44
1.0
1001
ACAD
1000
MTEXTBEGIN
1070
    73
1070
     1
1070
    44
1040
1.0
1070
    74
1070
     0
1000
MTEXTEND
  0
LEADER
  5
20170
330
20049
100
AcDbEntity
  8
寸法
 48
50.0
100
AcDbLeader
  3
INABA_S40G
 71
     0
 73
     0
 74
     0
 75
     1
 40
127.8409090909091
 41
1133.522727272727
 76
     3
 10
-8028.789784965708
 20
1070.169084299118
 30
0.0
 10
-7928.950297004655
 20
1505.463735557388
 30
0.0
 10
-7828.950297004656
 20
1505.463735557388
 30
0.0
  0
DIMENSION
  5
20171
330
20049
100
AcDbEntity
  8
寸法
 48
50.0
100
AcDbDimension
  2
*D30
 10
-10480.5889264372
 20
1258.349733639243
 30
0.0
 11
-10360.5889264372
 21
1258.349733639243
 31
0.0
 12
-16307.2
 22
-1200.0
 32
0.0
 70
   128
  1
120
 71
     5
 42
240.0
  3
INABA_S40G
100
AcDbAlignedDimension
 13
-10240.5889264372
 23
733.7649737437682
 33
0.0
 14
-10480.5889264372
 24
733.7649737437682
 34
0.0
100
AcDbRotatedDimension
  0
LINE
  5
20172
330
20049
100
AcDbEntity
  8
部品1
100
AcDbLine
 10
-11599.38961798898
 20
2384.979498464823
 30
0.0
 11
-11599.38961798898
 21
-874.0900008898643
 31
0.0
  0
MTEXT
  5
20173
102
{ACAD_REACTORS
330
20174
102
}
330
20049
100
AcDbEntity
  8
寸法
 62
     7
 48
50.0
100
AcDbMText
 10
-8472.623633157329
 20
1836.87205475085
 30
0.0
 40
100.0
 41
1.0
 71
     6
 72
     1
  1
\A1;φ70スリーブ
  7
STYLE2
 73
     1
 44
1.0
1001
ACAD
1000
MTEXTBEGIN
1070
    73
1070
     1
1070
    44
1040
1.0
1070
    74
1070
     0
1000
MTEXTEND
  0
LEADER
  5
20174
330
20049
100
AcDbEntity
  8
寸法
 48
50.0
100
AcDbLeader
  3
INABA_S40G
 71
     0
 73
     0
 75
     1
 40
141.4772727272727
 41
760.7954545454546
 76
     3
 10
-8117.868847293147
 20
670.6595654416164
 30
0.0
 10
-8332.62363315733
 20
1726.133418387214
 30
0.0
 10
-8432.62363315733
 20
1726.133418387214
 30
0.0
  0
LINE
  5
20175
330
20049
100
AcDbEntity
  8
部品1
100
AcDbLine
 10
-4702.914921890951
 20
2384.979498464825
 30
0.0
 11
-11599.38961798898
 21
2384.979498464823
 31
0.0
  0
LINE
  5
20176
330
20049
100
AcDbEntity
  8
部品1
100
AcDbLine
 10
-4702.914921890951
 20
2084.979498464823
 30
0.0
 11
-11599.38961798898
 21
2084.979498464823
 31
0.0
  0
LINE
  5
20177
330
20049
100
AcDbEntity
  8
部品1
100
AcDbLine
 10
-11599.38961798898
 20
-874.0900008898643
 30
0.0
 11
-4702.914921890951
 21
-874.0900008898643
 31
0.0
  0
LINE
  5
20178
330
20049
100
AcDbEntity
  8
部品1
100
AcDbLine
 10
-6193.425849710092
 20
159.1413291770759
 30
0.0
 11
-5293.425849710091
 21
159.14132917708
 31
0.0
  0
LINE
  5
20179
330
20049
100
AcDbEntity
  8
部品1
100
AcDbLine
 10
-6193.425849710092
 20
319.14132917708
 30
0.0
 11
-5293.425849710091
 21
319.1413291770832
 31
0.0
  0
LWPOLYLINE
  5
2017A
330
20049
100
AcDbEntity
  8
部品1
 48
50.0
100
AcDbPolyline
 90
        2
 70
     0
 43
15.0
 10
-6524.189927335574
 20
433.7649737437677
 10
-5022.824548421041
 20
433.7649737437677
  0
LINE
  5
2017B
330
20049
100
AcDbEntity
  8
細線
100
AcDbLine
 10
-6052.13035658593
 20
319.14132917708
 30
0.0
 11
-5937.506712019239
 21
433.7649737437669
 31
0.0
  0
LINE
  5
2017C
330
20049
100
AcDbEntity
  8
部品1
100
AcDbLine
 10
-6043.425849710091
 20
733.7649737437682
 30
0.0
 11
-5443.425849710092
 21
733.7649737437682
 31
0.0
  0
LINE
  5
2017D
330
20049
100
AcDbEntity
  8
細線
100
AcDbLine
 10
-5863.773792920902
 20
433.7649737437677
 30
0.0
 11
-6043.425849710091
 21
613.417030532958
 31
0.0
  0
LINE
  5
2017E
330
20049
100
AcDbEntity
  8
細線
100
AcDbLine
 10
-5800.134182614111
 20
433.7649737437677
 30
0.0
 11
-6043.425849710091
 21
677.0566408397463
 31
0.0
  0
MTEXT
  5
2017F
330
20049
100
AcDbEntity
  8
寸法
 62
     7
 48
50.0
100
AcDbMText
 10
-8411.643121524443
 20
1200.689039260351
 30
0.0
 40
100.0
 41
1.0
 71
     6
 72
     1
  1
\U+203B(別売)
  7
STYLE2
 73
     1
 44
1.0
1001
ACAD
1000
MTEXTBEGIN
1070
    73
1070
     1
1070
    44
1040
1.0
1070
    74
1070
     0
1000
MTEXTEND
  0
TEXT
  5
20180
330
20049
100
AcDbEntity
  8
文字
 62
     7
 48
50.0
100
AcDbText
 10
-1665.947414421596
 20
-328.8255409342075
 30
0.0
 40
100.0
  1
～一般型・多雪地型～
  7
STYLE2
100
AcDbText
  0
TEXT
  5
20181
330
20049
100
AcDbEntity
  8
文字
 62
     7
 48
50.0
100
AcDbText
 10
-1783.068162778003
 20
-168.4422937087713
 30
0.0
 40
100.0
  1
NO.10      <縮尺> S=1/40
  7
STYLE2
100
AcDbText
  0
ENDBLK
  5
20183
330
20049
100
AcDbEntity
  8
0
 48
50.0
100
AcDbBlockEnd
  0
BLOCK
  5
2044E
330
20442
100
AcDbEntity
  8
0
 48
50.0
100
AcDbBlockBegin
  2
*D43
 70
     1
 10
0.0
 20
0.0
 30
0.0
  3
*D43
  1

  0
LINE
  5
2048C
330
20442
100
AcDbEntity
  8
寸法
 62
     0
 48
50.0
370
    -2
100
AcDbLine
 10
8255.160215034292
 20
1999.714973743768
 30
0.0
 11
9501.564297394132
 21
1999.714973743768
 31
0.0
  0
LINE
  5
2048D
330
20442
100
AcDbEntity
  8
寸法
 62
     0
 48
50.0
370
    -2
100
AcDbLine
 10
8489.160215034294
 20
1933.764973743768
 30
0.0
 11
9501.564297394132
 21
1933.764973743768
 31
0.0
  0
LINE
  5
2048E
330
20442
100
AcDbEntity
  8
寸法
 62
     0
 48
50.0
370
    -2
100
AcDbLine
 10
9441.564297394132
 20
1999.714973743768
 30
0.0
 11
9441.564297394132
 21
2099.714973743768
 31
0.0
  0
LINE
  5
2048F
330
20442
100
AcDbEntity
  8
寸法
 62
     0
 48
50.0
370
    -2
100
AcDbLine
 10
9441.564297394132
 20
1933.764973743768
 30
0.0
 11
9441.564297394132
 21
1201.7471669008
 31
0.0
  0
LINE
  5
20490
330
20442
100
AcDbEntity
  8
寸法
 62
     0
 48
50.0
370
    -2
100
AcDbLine
 10
9441.564297394132
 20
1999.714973743768
 30
0.0
 11
9441.564297394132
 21
1933.764973743768
 31
0.0
  0
INSERT
  5
20491
330
20442
100
AcDbEntity
  8
寸法
 62
     0
 48
50.0
370
    -2
100
AcDbBlockReference
  2
_DOTSMALL
 10
9441.564297394132
 20
1999.714973743768
 30
0.0
 41
100.0
 42
100.0
 43
100.0
 50
270.0
  0
INSERT
  5
20492
330
20442
100
AcDbEntity
  8
寸法
 62
     0
 48
50.0
370
    -2
100
AcDbBlockReference
  2
_DOTSMALL
 10
9441.564297394132
 20
1933.764973743768
 30
0.0
 41
100.0
 42
100.0
 43
100.0
 50
90.0
  0
MTEXT
  5
20493
330
20442
100
AcDbEntity
  8
寸法
 62
     7
 48
50.0
100
AcDbMText
 10
9341.55248637051
 20
1467.756070322284
 30
0.0
 40
120.0
 41
0.0
 71
     5
 72
     1
  1
\A1;20～25
  7
STYLE1
 11
0.0000000000000001
 21
1.0
 31
0.0
 73
     1
 44
1.0
1001
ACAD
1000
MTEXTBEGIN
1070
    73
1070
     1
1070
    44
1040
1.0
1070
    74
1070
     0
1000
MTEXTEND
  0
POINT
  5
20494
330
20442
100
AcDbEntity
  8
DEFPOINTS
 62
     0
 48
50.0
100
AcDbPoint
 10
8235.160215034294
 20
1999.714973743768
 30
0.0
  0
POINT
  5
20495
330
20442
100
AcDbEntity
  8
DEFPOINTS
 62
     0
 48
50.0
100
AcDbPoint
 10
8469.160215034293
 20
1933.764973743768
 30
0.0
  0
POINT
  5
20496
330
20442
100
AcDbEntity
  8
DEFPOINTS
 62
     0
 48
50.0
100
AcDbPoint
 10
9441.564297394132
 20
1933.764973743768
 30
0.0
  0
ENDBLK
  5
2044F
330
20442
100
AcDbEntity
  8
0
 48
50.0
100
AcDbBlockEnd
  0
BLOCK
  5
2045A
330
20450
100
AcDbEntity
  8
0
 48
50.0
100
AcDbBlockBegin
  2
*D44
 70
     1
 10
0.0
 20
0.0
 30
0.0
  3
*D44
  1

  0
LINE
  5
20497
330
20450
100
AcDbEntity
  8
寸法
 62
     0
 48
50.0
370
    -2
100
AcDbLine
 10
8489.160215034294
 20
1933.764973743768
 30
0.0
 11
9156.495964745349
 21
1933.764973743768
 31
0.0
  0
LINE
  5
20498
330
20450
100
AcDbEntity
  8
寸法
 62
     0
 48
50.0
370
    -2
100
AcDbLine
 10
8489.160215034294
 20
1528.764973743766
 30
0.0
 11
9156.495964745349
 21
1528.764973743766
 31
0.0
  0
LINE
  5
20499
330
20450
100
AcDbEntity
  8
寸法
 62
     0
 48
50.0
370
    -2
100
AcDbLine
 10
9096.495964745349
 20
1933.764973743768
 30
0.0
 11
9096.495964745349
 21
1528.764973743766
 31
0.0
  0
INSERT
  5
2049A
330
20450
100
AcDbEntity
  8
寸法
 62
     0
 48
50.0
370
    -2
100
AcDbBlockReference
  2
_DOTSMALL
 10
9096.495964745349
 20
1933.764973743768
 30
0.0
 41
100.0
 42
100.0
 43
100.0
 50
90.0
  0
INSERT
  5
2049B
330
20450
100
AcDbEntity
  8
寸法
 62
     0
 48
50.0
370
    -2
100
AcDbBlockReference
  2
_DOTSMALL
 10
9096.495964745349
 20
1528.764973743766
 30
0.0
 41
100.0
 42
100.0
 43
100.0
 50
270.0
  0
MTEXT
  5
2049C
330
20450
100
AcDbEntity
  8
寸法
 62
     7
 48
50.0
100
AcDbMText
 10
8996.495964745347
 20
1731.264973743768
 30
0.0
 40
120.0
 41
0.0
 71
     5
 72
     1
  1
\A1;180
  7
STYLE1
 11
0.0000000000000001
 21
1.0
 31
0.0
 73
     1
 44
1.0
1001
ACAD
1000
MTEXTBEGIN
1070
    73
1070
     1
1070
    44
1040
1.0
1070
    74
1070
     0
1000
MTEXTEND
  0
POINT
  5
2049D
330
20450
100
AcDbEntity
  8
DEFPOINTS
 62
     0
 48
50.0
100
AcDbPoint
 10
8469.160215034293
 20
1933.764973743768
 30
0.0
  0
POINT
  5
2049E
330
20450
100
AcDbEntity
  8
DEFPOINTS
 62
     0
 48
50.0
100
AcDbPoint
 10
8469.160215034293
 20
1528.764973743766
 30
0.0
  0
POINT
  5
2049F
330
20450
100
AcDbEntity
  8
DEFPOINTS
 62
     0
 48
50.0
100
AcDbPoint
 10
9096.495964745349
 20
1528.764973743766
 30
0.0
  0
ENDBLK
  5
2045B
330
20450
100
AcDbEntity
  8
0
 48
50.0
100
AcDbBlockEnd
  0
BLOCK
  5
20466
330
2045C
100
AcDbEntity
  8
0
 48
50.0
100
AcDbBlockBegin
  2
*D45
 70
     1
 10
0.0
 20
0.0
 30
0.0
  3
*D45
  1

  0
LINE
  5
204A0
330
2045C
100
AcDbEntity
  8
寸法
 62
     0
 48
50.0
370
    -2
100
AcDbLine
 10
5666.611073562799
 20
773.7649737437668
 30
0.0
 11
5666.611073562799
 21
434.8128672878337
 31
0.0
  0
LINE
  5
204A1
330
2045C
100
AcDbEntity
  8
寸法
 62
     0
 48
50.0
370
    -2
100
AcDbLine
 10
6226.611073562801
 20
773.7649737437668
 30
0.0
 11
6226.611073562801
 21
434.8128672878337
 31
0.0
  0
LINE
  5
204A2
330
2045C
100
AcDbEntity
  8
寸法
 62
     0
 48
50.0
370
    -2
100
AcDbLine
 10
5666.611073562799
 20
494.8128672878338
 30
0.0
 11
6226.611073562801
 21
494.8128672878338
 31
0.0
  0
INSERT
  5
204A3
330
2045C
100
AcDbEntity
  8
寸法
 62
     0
 48
50.0
370
    -2
100
AcDbBlockReference
  2
_DOTSMALL
 10
5666.611073562799
 20
494.8128672878338
 30
0.0
 41
100.0
 42
100.0
 43
100.0
 50
180.0
  0
INSERT
  5
204A4
330
2045C
100
AcDbEntity
  8
寸法
 62
     0
 48
50.0
370
    -2
100
AcDbBlockReference
  2
_DOTSMALL
 10
6226.611073562801
 20
494.8128672878338
 30
0.0
 41
100.0
 42
100.0
 43
100.0
  0
MTEXT
  5
204A5
330
2045C
100
AcDbEntity
  8
寸法
 62
     7
 48
50.0
100
AcDbMText
 10
5946.611073562799
 20
594.8128672878338
 30
0.0
 40
120.0
 41
0.0
 71
     5
 72
     1
  1
\A1;300
  7
STYLE1
 73
     1
 44
1.0
1001
ACAD
1000
MTEXTBEGIN
1070
    73
1070
     1
1070
    44
1040
1.0
1070
    74
1070
     0
1000
MTEXTEND
  0
POINT
  5
204A6
330
2045C
100
AcDbEntity
  8
DEFPOINTS
 62
     0
 48
50.0
100
AcDbPoint
 10
5666.611073562799
 20
793.7649737437668
 30
0.0
  0
POINT
  5
204A7
330
2045C
100
AcDbEntity
  8
DEFPOINTS
 62
     0
 48
50.0
100
AcDbPoint
 10
6226.611073562801
 20
793.7649737437668
 30
0.0
  0
POINT
  5
204A8
330
2045C
100
AcDbEntity
  8
DEFPOINTS
 62
     0
 48
50.0
100
AcDbPoint
 10
6226.611073562801
 20
494.8128672878338
 30
0.0
  0
ENDBLK
  5
20467
330
2045C
100
AcDbEntity
  8
0
 48
50.0
100
AcDbBlockEnd
  0
BLOCK
  5
20472
330
20468
100
AcDbEntity
  8
0
 48
50.0
100
AcDbBlockBegin
  2
*D46
 70
     1
 10
0.0
 20
0.0
 30
0.0
  3
*D46
  1

  0
LINE
  5
204A9
330
20468
100
AcDbEntity
  8
寸法
 62
     0
 48
50.0
370
    -2
100
AcDbLine
 10
5806.611073562799
 20
1933.764973743768
 30
0.0
 11
5005.966135526737
 21
1933.764973743768
 31
0.0
  0
LINE
  5
204AA
330
20468
100
AcDbEntity
  8
寸法
 62
     0
 48
50.0
370
    -2
100
AcDbLine
 10
5546.611073562804
 20
953.7649737437668
 30
0.0
 11
5005.966135526737
 21
953.764973743767
 31
0.0
  0
LINE
  5
204AB
330
20468
100
AcDbEntity
  8
寸法
 62
     0
 48
50.0
370
    -2
100
AcDbLine
 10
5065.966135526736
 20
1933.764973743768
 30
0.0
 11
5065.966135526736
 21
953.764973743767
 31
0.0
  0
INSERT
  5
204AC
330
20468
100
AcDbEntity
  8
寸法
 62
     0
 48
50.0
370
    -2
100
AcDbBlockReference
  2
_DOTSMALL
 10
5065.966135526736
 20
1933.764973743768
 30
0.0
 41
100.0
 42
100.0
 43
100.0
 50
90.0
  0
INSERT
  5
204AD
330
20468
100
AcDbEntity
  8
寸法
 62
     0
 48
50.0
370
    -2
100
AcDbBlockReference
  2
_DOTSMALL
 10
5065.966135526736
 20
953.764973743767
 30
0.0
 41
100.0
 42
100.0
 43
100.0
 50
270.0
  0
MTEXT
  5
204AE
330
20468
100
AcDbEntity
  8
寸法
 62
     7
 48
50.0
100
AcDbMText
 10
4965.966135526736
 20
1443.764973743768
 30
0.0
 40
120.0
 41
0.0
 71
     5
 72
     1
  1
\A1;540
  7
STYLE1
 11
0.0000000000000001
 21
1.0
 31
0.0
 73
     1
 44
1.0
1001
ACAD
1000
MTEXTBEGIN
1070
    73
1070
     1
1070
    44
1040
1.0
1070
    74
1070
     0
1000
MTEXTEND
  0
POINT
  5
204AF
330
20468
100
AcDbEntity
  8
DEFPOINTS
 62
     0
 48
50.0
100
AcDbPoint
 10
5826.611073562799
 20
1933.764973743768
 30
0.0
  0
POINT
  5
204B0
330
20468
100
AcDbEntity
  8
DEFPOINTS
 62
     0
 48
50.0
100
AcDbPoint
 10
5566.611073562804
 20
953.7649737437668
 30
0.0
  0
POINT
  5
204B1
330
20468
100
AcDbEntity
  8
DEFPOINTS
 62
     0
 48
50.0
100
AcDbPoint
 10
5065.966135526736
 20
953.764973743767
 30
0.0
  0
ENDBLK
  5
20473
330
20468
100
AcDbEntity
  8
0
 48
50.0
100
AcDbBlockEnd
  0
BLOCK
  5
2047E
330
20474
100
AcDbEntity
  8
0
 48
50.0
100
AcDbBlockBegin
  2
*D47
 70
     1
 10
0.0
 20
0.0
 30
0.0
  3
*D47
  1

  0
LINE
  5
204B2
330
20474
100
AcDbEntity
  8
寸法
 62
     0
 48
50.0
370
    -2
100
AcDbLine
 10
5646.611073562799
 20
1253.764973743767
 30
0.0
 11
5428.585681397226
 21
1253.764973743767
 31
0.0
  0
LINE
  5
204B3
330
20474
100
AcDbEntity
  8
寸法
 62
     0
 48
50.0
370
    -2
100
AcDbLine
 10
5546.611073562804
 20
953.7649737437668
 30
0.0
 11
5428.585681397226
 21
953.7649737437668
 31
0.0
  0
LINE
  5
204B4
330
20474
100
AcDbEntity
  8
寸法
 62
     0
 48
50.0
370
    -2
100
AcDbLine
 10
5488.585681397226
 20
1253.764973743767
 30
0.0
 11
5488.585681397226
 21
953.7649737437668
 31
0.0
  0
INSERT
  5
204B5
330
20474
100
AcDbEntity
  8
寸法
 62
     0
 48
50.0
370
    -2
100
AcDbBlockReference
  2
_DOTSMALL
 10
5488.585681397226
 20
1253.764973743767
 30
0.0
 41
100.0
 42
100.0
 43
100.0
 50
90.0
  0
INSERT
  5
204B6
330
20474
100
AcDbEntity
  8
寸法
 62
     0
 48
50.0
370
    -2
100
AcDbBlockReference
  2
_DOTSMALL
 10
5488.585681397226
 20
953.7649737437668
 30
0.0
 41
100.0
 42
100.0
 43
100.0
 50
270.0
  0
MTEXT
  5
204B7
330
20474
100
AcDbEntity
  8
寸法
 62
     7
 48
50.0
100
AcDbMText
 10
5388.585681397226
 20
1103.764973743767
 30
0.0
 40
120.0
 41
0.0
 71
     5
 72
     1
  1
\A1;150
  7
STYLE1
 11
0.0000000000000001
 21
1.0
 31
0.0
 73
     1
 44
1.0
1001
ACAD
1000
MTEXTBEGIN
1070
    73
1070
     1
1070
    44
1040
1.0
1070
    74
1070
     0
1000
MTEXTEND
  0
POINT
  5
204B8
330
20474
100
AcDbEntity
  8
DEFPOINTS
 62
     0
 48
50.0
100
AcDbPoint
 10
5666.611073562799
 20
1253.764973743767
 30
0.0
  0
POINT
  5
204B9
330
20474
100
AcDbEntity
  8
DEFPOINTS
 62
     0
 48
50.0
100
AcDbPoint
 10
5566.611073562804
 20
953.7649737437668
 30
0.0
  0
POINT
  5
204BA
330
20474
100
AcDbEntity
  8
DEFPOINTS
 62
     0
 48
50.0
100
AcDbPoint
 10
5488.585681397226
 20
953.7649737437668
 30
0.0
  0
ENDBLK
  5
2047F
330
20474
100
AcDbEntity
  8
0
 48
50.0
100
AcDbBlockEnd
  0
BLOCK
  5
2048A
330
20480
100
AcDbEntity
  8
0
 48
50.0
100
AcDbBlockBegin
  2
*D48
 70
     1
 10
0.0
 20
0.0
 30
0.0
  3
*D48
  1

  0
LINE
  5
204BB
330
20480
100
AcDbEntity
  8
寸法
 62
     0
 48
50.0
370
    -2
100
AcDbLine
 10
6066.611073562799
 20
1953.764973743768
 30
0.0
 11
6066.611073562799
 21
2518.349733639244
 31
0.0
  0
LINE
  5
204BC
330
20480
100
AcDbEntity
  8
寸法
 62
     0
 48
50.0
370
    -2
100
AcDbLine
 10
5826.611073562799
 20
1953.764973743768
 30
0.0
 11
5826.611073562799
 21
2518.349733639244
 31
0.0
  0
LINE
  5
204BD
330
20480
100
AcDbEntity
  8
寸法
 62
     0
 48
50.0
370
    -2
100
AcDbLine
 10
6066.611073562799
 20
2458.349733639244
 30
0.0
 11
5826.611073562799
 21
2458.349733639244
 31
0.0
  0
INSERT
  5
204BE
330
20480
100
AcDbEntity
  8
寸法
 62
     0
 48
50.0
370
    -2
100
AcDbBlockReference
  2
_DOTSMALL
 10
6066.611073562799
 20
2458.349733639244
 30
0.0
 41
100.0
 42
100.0
 43
100.0
  0
INSERT
  5
204BF
330
20480
100
AcDbEntity
  8
寸法
 62
     0
 48
50.0
370
    -2
100
AcDbBlockReference
  2
_DOTSMALL
 10
5826.611073562799
 20
2458.349733639244
 30
0.0
 41
100.0
 42
100.0
 43
100.0
 50
180.0
  0
MTEXT
  5
204C0
330
20480
100
AcDbEntity
  8
寸法
 62
     7
 48
50.0
100
AcDbMText
 10
5946.611073562799
 20
2558.361544662866
 30
0.0
 40
120.0
 41
0.0
 71
     5
 72
     1
  1
\A1;120
  7
STYLE1
 73
     1
 44
1.0
1001
ACAD
1000
MTEXTBEGIN
1070
    73
1070
     1
1070
    44
1040
1.0
1070
    74
1070
     0
1000
MTEXTEND
  0
POINT
  5
204C1
330
20480
100
AcDbEntity
  8
DEFPOINTS
 62
     0
 48
50.0
100
AcDbPoint
 10
6066.611073562799
 20
1933.764973743768
 30
0.0
  0
POINT
  5
204C2
330
20480
100
AcDbEntity
  8
DEFPOINTS
 62
     0
 48
50.0
100
AcDbPoint
 10
5826.611073562799
 20
1933.764973743768
 30
0.0
  0
POINT
  5
204C3
330
20480
100
AcDbEntity
  8
DEFPOINTS
 62
     0
 48
50.0
100
AcDbPoint
 10
5826.611073562799
 20
2458.349733639244
 30
0.0
  0
ENDBLK
  5
2048B
330
20480
100
AcDbEntity
  8
0
 48
50.0
100
AcDbBlockEnd
  0
ENDSEC
  0
SECTION
  2
ENTITIES
  0
LINE
  5
10B57
330
747D
100
AcDbEntity
  8
補助
  6
PHANTOM
 62
   230
 48
50.0
100
AcDbLine
 10
139.9999999999995
 20
11409.6
 30
0.0
 11
16307.2
 21
11409.6
 31
0.0
  0
LINE
  5
10B59
330
747D
100
AcDbEntity
  8
仕様書枠
  6
Continuous
 48
50.0
100
AcDbLine
 10
13107.2
 20
1200.0
 30
0.0
 11
13107.2
 21
-0.0000000000000729
 31
0.0
  0
LINE
  5
10B5C
330
747D
100
AcDbEntity
  8
仕様書枠
 48
50.0
100
AcDbLine
 10
16307.2
 20
1200.0
 30
0.0
 11
16307.2
 21
-0.0000000000000909
 31
0.0
  0
LINE
  5
10B5D
330
747D
100
AcDbEntity
  8
仕様書枠
 48
50.0
100
AcDbLine
 10
140.0
 20
0.0
 30
0.0
 11
16307.2
 21
-0.0000000000000909
 31
0.0
  0
LINE
  5
10B5E
330
747D
100
AcDbEntity
  8
補助
  6
PHANTOM
 62
   230
 48
50.0
100
AcDbLine
 10
16307.2
 20
11409.6
 30
0.0
 11
16307.2
 21
1200.0
 31
0.0
  0
LINE
  5
10B6C
330
747D
100
AcDbEntity
  8
仕様書枠
 48
50.0
100
AcDbLine
 10
13107.2
 20
1200.0
 30
0.0
 11
16307.2
 21
1200.0
 31
0.0
  0
LINE
  5
10B6D
330
747D
100
AcDbEntity
  8
補助
  6
PHANTOM
 62
   230
 48
50.0
100
AcDbLine
 10
13107.2
 20
11409.6
 30
0.0
 11
13107.2
 21
4800.0
 31
0.0
  0
LINE
  5
10B6F
330
747D
100
AcDbEntity
  8
補助
  6
PHANTOM
 62
   230
 48
50.0
100
AcDbLine
 10
13107.2
 20
4800.0
 30
0.0
 11
16307.2
 21
4800.0
 31
0.0
  0
LINE
  5
10B72
330
747D
100
AcDbEntity
  8
文字
 62
     7
 48
50.0
100
AcDbLine
 10
13187.2
 20
400.0
 30
0.0
 11
16227.2
 21
400.0
 31
0.0
  0
TEXT
  5
10B73
330
747D
100
AcDbEntity
  8
文字
 62
     7
 48
50.0
100
AcDbText
 10
13162.9790565769
 20
895.0906074299405
 30
0.0
 40
200.0
  1
基 礎 図
  7
STYLE2
100
AcDbText
  0
TEXT
  5
10B74
330
747D
100
AcDbEntity
  8
文字
 62
     7
 48
50.0
100
AcDbText
 10
13201.43669998441
 20
477.2740661031255
 30
0.0
 40
160.0
  1
機種名
  7
STYLE2
100
AcDbText
  0
LINE
  5
10B7B
330
747D
100
AcDbEntity
  8
仕様書枠
 48
50.0
100
AcDbLine
 10
13107.2
 20
800.0
 30
0.0
 11
14251.2
 21
800.0
 31
0.0
  0
LINE
  5
10B88
330
747D
100
AcDbEntity
  8
仕様書枠
  6
Continuous
 48
50.0
100
AcDbLine
 10
14251.2
 20
1200.0
 30
0.0
 11
14251.2
 21
800.0
 31
0.0
  0
TEXT
  5
15A76
330
747D
100
AcDbEntity
  8
文字
 62
     7
 48
50.0
100
AcDbText
 10
14331.21227452393
 20
489.871288645017
 30
0.0
 40
160.0
  1
NXP-32SD・HD
  7
STYLE2
100
AcDbText
  0
TEXT
  5
1D002
330
747D
100
AcDbEntity
  8
文字
 62
     7
 48
50.0
100
AcDbText
 10
13188.16259899338
 20
246.7109242801889
 30
0.0
 40
80.0
  1
※寒冷地等は地域の実情に合わせた基礎にして下さい。
  7
STYLE2
100
AcDbText
  0
DIMENSION
  5
1D91B
330
747D
100
AcDbEntity
  8
寸法
 48
50.0
100
AcDbDimension
  2
*D2
 10
7606.221509390249
 20
5952.919036112863
 30
0.0
 11
7606.221509390249
 21
6213.966280207353
 31
0.0
 70
   160
 71
     5
 42
110.0000000000018
  3
INABA_S40G
100
AcDbAlignedDimension
 13
7389.514259514152
 23
5842.919036112861
 33
0.0
 14
7389.514259514152
 24
5952.919036112863
 34
0.0
 50
90.0
100
AcDbRotatedDimension
1001
ACAD
1000
DSTYLE
1002
{
1070
   174
1070
     0
1070
   272
1070
     1
1070
   288
1070
     0
1070
   341
1005
0
1002
}
  0
DIMENSION
  5
1D91C
330
747D
100
AcDbEntity
  8
寸法
 48
50.0
100
AcDbDimension
  2
*D3
 10
7606.221509390251
 20
5722.919036112859
 30
0.0
 11
7606.221509390249
 21
5486.871792018372
 31
0.0
 70
   160
 71
     5
 42
120.0000000000036
  3
INABA_S40G
100
AcDbAlignedDimension
 13
7389.514259514152
 23
5842.919036112864
 33
0.0
 14
7389.514259514154
 24
5722.919036112859
 34
0.0
 50
90.0
100
AcDbRotatedDimension
1001
ACAD
1000
DSTYLE
1002
{
1070
   174
1070
     0
1070
   272
1070
     1
1070
   288
1070
     0
1070
   341
1005
0
1002
}
  0
DIMENSION
  5
1D91D
330
747D
100
AcDbEntity
  8
寸法
 48
50.0
100
AcDbDimension
  2
*D4
 10
7282.514259514151
 20
8276.250847072711
 30
0.0
 11
8059.51425951415
 21
8376.250847072711
 31
0.0
 70
    32
 71
     5
 42
1554.000000000001
  3
INABA_S40G
100
AcDbAlignedDimension
 13
8836.514259514151
 23
7449.919036112861
 33
0.0
 14
7282.514259514151
 24
7449.919036112861
 34
0.0
100
AcDbRotatedDimension
1001
ACAD
1000
DSTYLE
1002
{
1070
   174
1070
     0
1070
   272
1070
     1
1070
   288
1070
     0
1070
   341
1005
0
1002
}
  0
LINE
  5
1D91E
102
{ACAD_REACTORS
330
1FFCE
102
}
330
747D
100
AcDbEntity
  8
部品1
 48
50.0
100
AcDbLine
 10
8729.514259514152
 20
5842.919036112876
 30
0.0
 11
7389.514259514152
 21
5842.919036112864
 31
0.0
  0
LINE
  5
1D91F
330
747D
100
AcDbEntity
  8
部品1
 48
50.0
100
AcDbLine
 10
8729.514259514152
 20
7402.919036112859
 30
0.0
 11
7389.51425951415
 21
7402.91903611286
 31
0.0
  0
DIMENSION
  5
1D920
330
747D
100
AcDbEntity
  8
寸法
 48
50.0
100
AcDbDimension
  2
*D5
 10
8959.514259514151
 20
8488.711542589548
 30
0.0
 11
8059.51425951415
 21
8588.711542589548
 31
0.0
 70
    32
 71
     5
 42
1800.000000000001
  3
INABA_S40G
100
AcDbAlignedDimension
 13
7159.514259514151
 23
7522.919036112861
 33
0.0
 14
8959.514259514151
 24
7522.919036112861
 34
0.0
100
AcDbRotatedDimension
1001
ACAD
1000
DSTYLE
1002
{
1070
   174
1070
     0
1070
   272
1070
     1
1070
   288
1070
     0
1070
   341
1005
0
1002
}
  0
LINE
  5
1D922
330
747D
100
AcDbEntity
  8
部品1
 48
50.0
100
AcDbLine
 10
8959.514259514151
 20
7522.919036112863
 30
0.0
 11
7159.514259514152
 21
7522.919036112861
 31
0.0
  0
LINE
  5
1D923
330
747D
100
AcDbEntity
  8
想像線
 48
10.0
100
AcDbLine
 10
9004.51425951415
 20
5667.919036112856
 30
0.0
 11
7114.514259514152
 21
5667.919036112859
 31
0.0
  0
LINE
  5
1D924
330
747D
100
AcDbEntity
  8
想像線
 48
10.0
100
AcDbLine
 10
7114.514259514152
 20
7597.91903611286
 30
0.0
 11
9004.514259514149
 21
7597.919036112864
 31
0.0
  0
DIMENSION
  5
1D925
330
747D
100
AcDbEntity
  8
寸法
 48
50.0
100
AcDbDimension
  2
*D6
 10
7159.51425951415
 20
8276.250847072711
 30
0.0
 11
6921.028978139911
 21
8276.250847072711
 31
0.0
 70
   160
 71
     5
 42
123.0000000000018
  3
INABA_S40G
100
AcDbAlignedDimension
 13
7282.514259514151
 23
7449.919036112861
 33
0.0
 14
7159.51425951415
 24
7522.919036112859
 34
0.0
100
AcDbRotatedDimension
1001
ACAD
1000
DSTYLE
1002
{
1070
   174
1070
     0
1070
   272
1070
     1
1070
   288
1070
     0
1070
   341
1005
0
1002
}
  0
DIMENSION
  5
1D926
330
747D
100
AcDbEntity
  8
寸法
 48
50.0
100
AcDbDimension
  2
*D7
 10
7159.514259514151
 20
8488.71154258955
 30
0.0
 11
7137.014259514149
 21
8488.71154258955
 31
0.0
 70
   160
  1
a
 71
     5
 42
45.00000000000364
  3
INABA_S40G
100
AcDbAlignedDimension
 13
7114.514259514146
 23
8276.250847072711
 33
0.0
 14
7159.514259514151
 24
7671.190236682781
 34
0.0
100
AcDbRotatedDimension
1001
ACAD
1000
DSTYLE
1002
{
1070
   174
1070
     0
1070
   272
1070
     1
1070
   288
1070
     0
1070
   341
1005
0
1002
}
  0
DIMENSION
  5
1D927
330
747D
100
AcDbEntity
  8
寸法
 48
50.0
100
AcDbDimension
  2
*D8
 10
6663.57199350033
 20
5845.919036112861
 30
0.0
 11
6663.57199350033
 21
6634.05280691343
 31
0.0
 70
   160
 71
     5
 42
1553.999999999999
  3
INABA_S40G
100
AcDbAlignedDimension
 13
7232.514259514151
 23
7399.919036112861
 33
0.0
 14
7232.514259514158
 24
5845.919036112861
 34
0.0
 50
90.0
100
AcDbRotatedDimension
1001
ACAD
1000
DSTYLE
1002
{
1070
   174
1070
     0
1070
   272
1070
     1
1070
   288
1070
     0
1070
   341
1005
0
1002
}
  0
LINE
  5
1D928
330
747D
100
AcDbEntity
  8
部品1
 48
50.0
100
AcDbLine
 10
7279.514259514151
 20
5952.919036112861
 30
0.0
 11
7279.514259514151
 21
7292.919036112859
 31
0.0
  0
DIMENSION
  5
1D929
330
747D
100
AcDbEntity
  8
寸法
 48
50.0
100
AcDbDimension
  2
*D9
 10
6418.079191362363
 20
5722.919036112859
 30
0.0
 11
6418.079191362362
 21
6651.31453344319
 31
0.0
 70
   160
 71
     5
 42
1800.000000000003
  3
INABA_S40G
100
AcDbAlignedDimension
 13
7159.51425951415
 23
7522.919036112863
 33
0.0
 14
7159.514259514151
 24
5722.919036112859
 34
0.0
 50
90.0
100
AcDbRotatedDimension
1001
ACAD
1000
DSTYLE
1002
{
1070
   174
1070
     0
1070
   272
1070
     1
1070
   288
1070
     0
1070
   341
1005
0
1002
}
  0
LINE
  5
1D92A
330
747D
100
AcDbEntity
  8
部品1
 48
50.0
100
AcDbLine
 10
7159.514259514151
 20
5722.919036112859
 30
0.0
 11
7159.514259514152
 21
7522.919036112861
 31
0.0
  0
LINE
  5
1D92B
330
747D
100
AcDbEntity
  8
想像線
 48
10.0
100
AcDbLine
 10
7114.514259514152
 20
5667.919036112859
 30
0.0
 11
7114.514259514152
 21
7597.91903611286
 31
0.0
  0
DIMENSION
  5
1D92C
330
747D
100
AcDbEntity
  8
寸法
 48
50.0
100
AcDbDimension
  2
*D10
 10
6663.57199350033
 20
5722.919036112859
 30
0.0
 11
6663.57199350033
 21
5484.433754738623
 31
0.0
 70
   160
 71
     5
 42
123.0000000000018
  3
INABA_S40G
100
AcDbAlignedDimension
 13
7232.514259514158
 23
5845.919036112861
 33
0.0
 14
7159.514259514151
 24
5722.919036112859
 34
0.0
 50
90.0
100
AcDbRotatedDimension
1001
ACAD
1000
DSTYLE
1002
{
1070
   174
1070
     0
1070
   272
1070
     1
1070
   288
1070
     0
1070
   341
1005
0
1002
}
  0
DIMENSION
  5
1D92D
330
747D
100
AcDbEntity
  8
寸法
 48
50.0
100
AcDbDimension
  2
*D11
 10
6418.079191362363
 20
5667.919036112859
 30
0.0
 11
6418.079191362362
 21
5695.419036112861
 31
0.0
 70
   160
  1
b
 71
     5
 42
55.0
  3
INABA_S40G
100
AcDbAlignedDimension
 13
7159.514259514151
 23
5722.919036112859
 33
0.0
 14
6663.57199350033
 24
5667.919036112859
 34
0.0
 50
90.0
100
AcDbRotatedDimension
1001
ACAD
1000
DSTYLE
1002
{
1070
   174
1070
     0
1070
   272
1070
     1
1070
   288
1070
     0
1070
   341
1005
0
1002
}
  0
LINE
  5
1D92E
330
747D
100
AcDbEntity
  8
センター
 48
2.0
100
AcDbLine
 10
7282.514259514158
 20
5895.919036112861
 30
0.0
 11
7282.514259514158
 21
5795.919036112861
 31
0.0
  0
LINE
  5
1D92F
330
747D
100
AcDbEntity
  8
センター
 48
2.0
100
AcDbLine
 10
7232.514259514158
 20
5845.919036112861
 30
0.0
 11
7332.514259514159
 21
5845.919036112861
 31
0.0
  0
CIRCLE
  5
1D930
330
747D
100
AcDbEntity
  8
部品1
 48
50.0
100
AcDbCircle
 10
7282.514259514158
 20
5845.919036112861
 30
0.0
 40
35.0
  0
LINE
  5
1D931
330
747D
100
AcDbEntity
  8
部品1
 48
50.0
100
AcDbLine
 10
7389.514259514152
 20
5952.919036112863
 30
0.0
 11
7279.514259514151
 21
5952.919036112861
 31
0.0
  0
LINE
  5
1D932
330
747D
100
AcDbEntity
  8
部品1
 48
50.0
100
AcDbLine
 10
7389.514259514152
 20
5842.919036112861
 30
0.0
 11
7389.514259514152
 21
5952.919036112863
 31
0.0
  0
DIMENSION
  5
1D933
330
747D
100
AcDbEntity
  8
寸法
 48
50.0
100
AcDbDimension
  2
*D12
 10
6663.57199350033
 20
7399.919036112861
 30
0.0
 11
6663.571993500328
 21
7761.4043174871
 31
0.0
 70
   160
 71
     5
 42
123.0
  3
INABA_S40G
100
AcDbAlignedDimension
 13
7159.514259514151
 23
7522.91903611286
 33
0.0
 14
7232.514259514151
 24
7399.919036112861
 34
0.0
 50
90.0
100
AcDbRotatedDimension
1001
ACAD
1000
DSTYLE
1002
{
1070
   174
1070
     0
1070
   272
1070
     1
1070
   288
1070
     0
1070
   341
1005
0
1002
}
  0
DIMENSION
  5
1D934
330
747D
100
AcDbEntity
  8
寸法
 48
50.0
100
AcDbDimension
  2
*D13
 10
6418.079191362362
 20
7522.91903611286
 30
0.0
 11
6418.079191362361
 21
7560.419036112863
 31
0.0
 70
   160
  1
c
 71
     5
 42
75.0
  3
INABA_S40G
100
AcDbAlignedDimension
 13
6663.57199350033
 23
7597.91903611286
 33
0.0
 14
7159.514259514151
 24
7522.91903611286
 34
0.0
 50
90.0
100
AcDbRotatedDimension
1001
ACAD
1000
DSTYLE
1002
{
1070
   174
1070
     0
1070
   272
1070
     1
1070
   288
1070
     0
1070
   341
1005
0
1002
}
  0
LINE
  5
1D935
330
747D
100
AcDbEntity
  8
部品1
 48
50.0
100
AcDbLine
 10
7279.514259514151
 20
6722.919036112862
 30
0.0
 11
7159.514259514152
 21
6722.91903611286
 31
0.0
  0
LINE
  5
1D936
330
747D
100
AcDbEntity
  8
部品1
 48
50.0
100
AcDbLine
 10
7279.514259514151
 20
6522.91903611286
 30
0.0
 11
7159.514259514152
 21
6522.91903611286
 31
0.0
  0
LINE
  5
1D938
330
747D
100
AcDbEntity
  8
センター
 48
2.0
100
AcDbLine
 10
7282.514259514151
 20
7449.919036112861
 30
0.0
 11
7282.514259514151
 21
7349.919036112861
 31
0.0
  0
LINE
  5
1D939
330
747D
100
AcDbEntity
  8
センター
 48
2.0
100
AcDbLine
 10
7232.514259514151
 20
7399.919036112861
 30
0.0
 11
7332.514259514152
 21
7399.919036112861
 31
0.0
  0
CIRCLE
  5
1D93A
330
747D
100
AcDbEntity
  8
部品1
 48
50.0
100
AcDbCircle
 10
7282.514259514151
 20
7399.919036112861
 30
0.0
 40
35.0
  0
LINE
  5
1D93B
330
747D
100
AcDbEntity
  8
部品1
 48
50.0
100
AcDbLine
 10
7389.51425951415
 20
7292.919036112856
 30
0.0
 11
7279.51425951415
 21
7292.919036112856
 31
0.0
  0
LINE
  5
1D93C
330
747D
100
AcDbEntity
  8
部品1
 48
50.0
100
AcDbLine
 10
7389.51425951415
 20
7292.919036112856
 30
0.0
 11
7389.51425951415
 21
7402.91903611286
 31
0.0
  0
DIMENSION
  5
1D93E
330
747D
100
AcDbEntity
  8
寸法
 48
50.0
100
AcDbDimension
  2
*D14
 10
8836.514259514151
 20
8276.250847072711
 30
0.0
 11
9197.999540888389
 21
8276.250847072711
 31
0.0
 70
   160
 71
     5
 42
123.0
  3
INABA_S40G
100
AcDbAlignedDimension
 13
8959.514259514151
 23
7522.919036112861
 33
0.0
 14
8836.514259514151
 24
7449.919036112861
 34
0.0
100
AcDbRotatedDimension
1001
ACAD
1000
DSTYLE
1002
{
1070
   174
1070
     0
1070
   272
1070
     1
1070
   288
1070
     0
1070
   341
1005
0
1002
}
  0
DIMENSION
  5
1D93F
330
747D
100
AcDbEntity
  8
寸法
 48
50.0
100
AcDbDimension
  2
*D15
 10
9004.51425951415
 20
8488.711542589548
 30
0.0
 11
8982.014259514151
 21
8488.711542589548
 31
0.0
 70
   160
  1
a
 71
     5
 42
45.0
  3
INABA_S40G
100
AcDbAlignedDimension
 13
8959.514259514151
 23
7671.190236682781
 33
0.0
 14
9004.51425951415
 24
8276.250847072711
 34
0.0
100
AcDbRotatedDimension
1001
ACAD
1000
DSTYLE
1002
{
1070
   174
1070
     0
1070
   272
1070
     1
1070
   288
1070
     0
1070
   341
1005
0
1002
}
  0
DIMENSION
  5
1D942
330
747D
100
AcDbEntity
  8
寸法
 48
50.0
100
AcDbDimension
  2
*D16
 10
8839.51425951415
 20
6984.422404093454
 30
0.0
 11
9195.56150360864
 21
6984.422404093454
 31
0.0
 70
   160
 71
     5
 42
120.0000000000018
  3
INABA_S40G
100
AcDbAlignedDimension
 13
8959.514259514151
 23
7042.919036112869
 33
0.0
 14
8839.51425951415
 24
7042.919036112869
 34
0.0
100
AcDbRotatedDimension
1001
ACAD
1000
DSTYLE
1002
{
1070
   174
1070
     0
1070
   272
1070
     1
1070
   288
1070
     0
1070
   341
1005
0
1002
}
  0
TEXT
  5
1D943
330
747D
100
AcDbEntity
  8
部品1
 48
50.0
100
AcDbText
 10
9046.334326192553
 20
5028.032239333586
 30
0.0
 40
80.0
  1
(a=45,b=55,c=75)
  7
STYLE1
100
AcDbText
  0
TEXT
  5
1D944
330
747D
100
AcDbEntity
  8
部品1
 48
50.0
100
AcDbText
 10
8976.45743858767
 20
5147.763285486725
 30
0.0
 40
80.0
  1
※a,b,cは屋根の出幅です。
  7
STYLE1
100
AcDbText
  0
MTEXT
  5
1D945
102
{ACAD_REACTORS
330
1D946
102
}
330
747D
100
AcDbEntity
  8
部品1
 62
     7
 48
50.0
100
AcDbMText
 10
9841.640034052471
 20
5371.901644153068
 30
0.0
 40
120.0
 41
0.0
 71
     6
 72
     1
  1
\A1;屋根の外寸
  7
STYLE1
 73
     1
 44
1.0
1001
ACAD
1000
MTEXTBEGIN
1070
    73
1070
     1
1070
    44
1040
1.0
1070
    74
1070
     0
1000
MTEXTEND
  0
LEADER
  5
1D946
330
747D
100
AcDbEntity
  8
寸法
 48
50.0
100
AcDbLeader
  3
INABA_S50G
 71
     0
 73
     0
 74
     0
 75
     1
 40
120.0
 41
672.0
 76
     3
 10
8771.402847447978
 20
5666.919036112859
 30
0.0
 10
9019.64003405247
 20
5286.901644153068
 30
0.0
 10
9144.64003405247
 20
5286.901644153068
 30
0.0
340
1D945
1001
ACAD
1000
DSTYLE
1002
{
1070
   341
1005
1C530
1070
    40
1040
1.0
1070
   343
1005
1C530
1070
   344
1005
1C530
1002
}
  0
DIMENSION
  5
1D947
330
747D
100
AcDbEntity
  8
寸法
 48
50.0
100
AcDbDimension
  2
*D17
 10
7620.024443427175
 20
7292.919036112856
 30
0.0
 11
7620.024443427173
 21
7054.598327534932
 31
0.0
 70
   160
 71
     5
 42
110.0000000000045
  3
INABA_S40G
100
AcDbAlignedDimension
 13
7389.51425951415
 23
7402.919036112861
 33
0.0
 14
7389.51425951415
 24
7292.919036112856
 34
0.0
 50
90.0
100
AcDbRotatedDimension
1001
ACAD
1000
DSTYLE
1002
{
1070
   174
1070
     0
1070
   272
1070
     1
1070
   288
1070
     0
1070
   341
1005
0
1002
}
  0
DIMENSION
  5
1D948
330
747D
100
AcDbEntity
  8
寸法
 48
50.0
100
AcDbDimension
  2
*D18
 10
8729.514259514152
 20
6984.422404093454
 30
0.0
 11
8493.467015419662
 21
6984.422404093454
 31
0.0
 70
   160
 71
     5
 42
109.9999999999982
  3
INABA_S40G
100
AcDbAlignedDimension
 13
8839.51425951415
 23
7042.919036112869
 33
0.0
 14
8729.514259514152
 24
7292.919036112859
 34
0.0
100
AcDbRotatedDimension
1001
ACAD
1000
DSTYLE
1002
{
1070
   174
1070
     0
1070
   272
1070
     1
1070
   288
1070
     0
1070
   341
1005
0
1002
}
  0
LINE
  5
1D949
330
747D
100
AcDbEntity
  8
部品1
 48
50.0
100
AcDbLine
 10
8839.514259514151
 20
5952.91903611288
 30
0.0
 11
8839.51425951415
 21
7292.919036112862
 31
0.0
  0
LINE
  5
1D94A
330
747D
100
AcDbEntity
  8
部品1
 48
50.0
100
AcDbLine
 10
8959.514259514151
 20
5722.919036112878
 30
0.0
 11
8959.514259514151
 21
7522.919036112863
 31
0.0
  0
LINE
  5
1D94B
330
747D
100
AcDbEntity
  8
想像線
 48
10.0
100
AcDbLine
 10
9004.514259514149
 20
7597.919036112864
 30
0.0
 11
9004.514259514156
 21
5667.919036112859
 31
0.0
  0
LINE
  5
1D94F
102
{ACAD_REACTORS
330
1FFCE
102
}
330
747D
100
AcDbEntity
  8
部品1
 48
50.0
100
AcDbLine
 10
7959.514259514168
 20
5722.919036112862
 30
0.0
 11
7959.514259514167
 21
5842.919036112864
 31
0.0
  0
LINE
  5
1D950
102
{ACAD_REACTORS
330
1FFCE
102
}
330
747D
100
AcDbEntity
  8
部品1
 48
50.0
100
AcDbLine
 10
8159.514259514166
 20
5722.919036112859
 30
0.0
 11
8159.514259514166
 21
5842.919036112867
 31
0.0
  0
LINE
  5
1D951
330
747D
100
AcDbEntity
  8
センター
 48
2.0
100
AcDbLine
 10
8786.514259514159
 20
5845.919036112861
 30
0.0
 11
8886.514259514159
 21
5845.919036112861
 31
0.0
  0
CIRCLE
  5
1D952
330
747D
100
AcDbEntity
  8
部品1
 48
50.0
100
AcDbCircle
 10
8836.514259514158
 20
5845.919036112861
 30
0.0
 40
35.0
  0
LINE
  5
1D953
330
747D
100
AcDbEntity
  8
部品1
 48
50.0
100
AcDbLine
 10
8839.51425951415
 20
5952.919036112877
 30
0.0
 11
8729.514259514152
 21
5952.919036112877
 31
0.0
  0
LINE
  5
1D954
330
747D
100
AcDbEntity
  8
部品1
 48
50.0
100
AcDbLine
 10
8729.514259514152
 20
5842.919036112876
 30
0.0
 11
8729.514259514152
 21
5952.919036112877
 31
0.0
  0
LINE
  5
1D955
330
747D
100
AcDbEntity
  8
センター
 48
2.0
100
AcDbLine
 10
8836.514259514158
 20
5895.919036112861
 30
0.0
 11
8836.514259514158
 21
5795.919036112861
 31
0.0
  0
LINE
  5
1D956
330
747D
100
AcDbEntity
  8
部品1
 48
50.0
100
AcDbLine
 10
8159.514259514152
 20
7402.91903611286
 30
0.0
 11
8159.514259514152
 21
7522.91903611286
 31
0.0
  0
LINE
  5
1D957
330
747D
100
AcDbEntity
  8
部品1
 48
50.0
100
AcDbLine
 10
7959.514259514151
 20
7402.91903611286
 30
0.0
 11
7959.514259514151
 21
7522.91903611286
 31
0.0
  0
DIMENSION
  5
1D959
330
747D
100
AcDbEntity
  8
寸法
 48
50.0
100
AcDbDimension
  2
*D19
 10
7620.024443427173
 20
7402.919036112861
 30
0.0
 11
7620.024443427173
 21
7758.96628020735
 31
0.0
 70
   160
 71
     5
 42
119.9999999999972
  3
INABA_S40G
100
AcDbAlignedDimension
 13
7361.514259514151
 23
7522.919036112859
 33
0.0
 14
7389.51425951415
 24
7402.919036112861
 34
0.0
 50
90.0
100
AcDbRotatedDimension
1001
ACAD
1000
DSTYLE
1002
{
1070
   174
1070
     0
1070
   272
1070
     1
1070
   288
1070
     0
1070
   341
1005
0
1002
}
  0
LINE
  5
1D95A
330
747D
100
AcDbEntity
  8
センター
 48
2.0
100
AcDbLine
 10
8786.514259514152
 20
7399.919036112861
 30
0.0
 11
8886.514259514152
 21
7399.919036112861
 31
0.0
  0
CIRCLE
  5
1D95B
330
747D
100
AcDbEntity
  8
部品1
 48
50.0
100
AcDbCircle
 10
8836.514259514151
 20
7399.919036112861
 30
0.0
 40
35.0
  0
LINE
  5
1D95C
330
747D
100
AcDbEntity
  8
部品1
 48
50.0
100
AcDbLine
 10
8839.514259514151
 20
7292.919036112862
 30
0.0
 11
8729.514259514152
 21
7292.919036112859
 31
0.0
  0
LINE
  5
1D95D
330
747D
100
AcDbEntity
  8
部品1
 48
50.0
100
AcDbLine
 10
8729.514259514152
 20
7292.919036112859
 30
0.0
 11
8729.514259514152
 21
7402.919036112859
 31
0.0
  0
LINE
  5
1D95E
330
747D
100
AcDbEntity
  8
部品1
 48
50.0
100
AcDbLine
 10
8959.514259514154
 20
6722.91903611286
 30
0.0
 11
8839.51425951415
 21
6722.91903611286
 31
0.0
  0
LINE
  5
1D95F
330
747D
100
AcDbEntity
  8
部品1
 48
50.0
100
AcDbLine
 10
8959.514259514154
 20
6522.91903611286
 30
0.0
 11
8839.51425951415
 21
6522.919036112861
 31
0.0
  0
LINE
  5
1D961
330
747D
100
AcDbEntity
  8
センター
 48
2.0
100
AcDbLine
 10
8836.514259514151
 20
7449.919036112861
 30
0.0
 11
8836.514259514151
 21
7349.919036112861
 31
0.0
  0
TEXT
  5
1DEDA
330
747D
100
AcDbEntity
  8
文字
 62
     7
 48
50.0
100
AcDbText
 10
13188.16259899338
 20
79.80631269190325
 30
0.0
 40
80.0
  1
※布基礎には換気口を設けてください。
  7
STYLE2
100
AcDbText
  0
MTEXT
  5
1E700
102
{ACAD_REACTORS
330
1E701
102
}
330
747D
100
AcDbEntity
  8
部品1
 62
     7
 48
50.0
100
AcDbMText
 10
10009.33123895026
 20
7765.944479920811
 30
0.0
 40
120.0
 41
0.0
 71
     6
 72
     1
  1
基礎ボルト芯
  7
STYLE1
 73
     1
 44
1.0
1001
ACAD
1000
MTEXTBEGIN
1070
    73
1070
     1
1070
    44
1040
1.0
1070
    74
1070
     0
1000
MTEXTEND
  0
LEADER
  5
1E701
330
747D
100
AcDbEntity
  8
寸法
 48
50.0
100
AcDbLeader
  3
INABA_S40G
 71
     0
 73
     0
 74
     0
 75
     1
 40
120.0
 41
846.0000000000002
 76
     3
 10
8836.514259514151
 20
7399.919036112861
 30
0.0
 10
9023.331238950257
 20
7665.944479920812
 30
0.0
 10
9123.331238950257
 20
7665.944479920812
 30
0.0
340
1E700
1001
ACAD
1000
DSTYLE
1002
{
1070
   174
1070
     0
1070
   272
1070
     1
1070
   288
1070
     0
1070
   341
1005
0
1002
}
  0
DIMENSION
  5
1E96D
330
747D
100
AcDbEntity
  8
寸法
 48
50.0
100
AcDbDimension
  2
*D20
 10
8254.888277064841
 20
7522.919036112863
 30
0.0
 11
8154.888277064838
 21
7072.919036112867
 31
0.0
 70
    32
 71
     5
 42
899.9999999999936
  3
INABA_S40G
100
AcDbAlignedDimension
 13
8109.514259514142
 23
6622.919036112868
 33
0.0
 14
8059.51425951415
 24
7522.919036112863
 34
0.0
 50
90.0
100
AcDbRotatedDimension
1001
ACAD
1000
DSTYLE
1002
{
1070
   174
1070
     0
1070
   272
1070
     1
1070
   279
1070
     1
1070
   288
1070
     0
1070
   341
1005
0
1002
}
  0
DIMENSION
  5
1E98B
330
747D
100
AcDbEntity
  8
寸法
 48
50.0
100
AcDbDimension
  2
*D21
 10
8254.88827706485
 20
6622.919036112868
 30
0.0
 11
8254.888277064848
 21
6097.131811778035
 31
0.0
 70
   160
 71
     5
 42
900.000000000009
  3
INABA_S40G
100
AcDbAlignedDimension
 13
8191.698320491893
 23
5722.919036112859
 33
0.0
 14
8109.514259514142
 24
6622.919036112868
 34
0.0
 50
90.0
100
AcDbRotatedDimension
1001
ACAD
1000
DSTYLE
1002
{
1070
   174
1070
     0
1070
   272
1070
     1
1070
   279
1070
     1
1070
   288
1070
     0
1070
   341
1005
0
1002
}
  0
MTEXT
  5
1F11B
102
{ACAD_REACTORS
330
1F11C
102
}
330
747D
100
AcDbEntity
  8
部品1
 62
     7
 48
50.0
100
AcDbMText
 10
10029.75144611864
 20
6327.901644153087
 30
0.0
 40
120.0
 41
0.0
 71
     6
 72
     1
  1
床下換気口
  7
STYLE1
 73
     1
 44
1.0
1001
ACAD
1000
MTEXTBEGIN
1070
    73
1070
     1
1070
    44
1040
1.0
1070
    74
1070
     0
1000
MTEXTEND
  0
LEADER
  5
1F11C
330
747D
100
AcDbEntity
  8
寸法
 48
50.0
100
AcDbLeader
  3
INABA_S50G
 71
     0
 73
     0
 74
     0
 75
     1
 40
120.0
 41
720.0000000000001
 76
     3
 10
8959.514259514154
 20
6622.919036112879
 30
0.0
 10
9159.751446118646
 20
6242.901644153088
 30
0.0
 10
9284.751446118646
 20
6242.901644153088
 30
0.0
340
1F11B
1001
ACAD
1000
DSTYLE
1002
{
1070
   341
1005
1C530
1070
    40
1040
1.0
1070
   343
1005
1C530
1070
   344
1005
1C530
1002
}
  0
DIMENSION
  5
1F248
330
747D
100
AcDbEntity
  8
寸法
 48
50.0
100
AcDbDimension
  2
*D23
 10
8059.51425951415
 20
8049.82880176119
 30
0.0
 11
8530.432781520428
 21
8049.82880176119
 31
0.0
 70
   160
 71
     5
 42
899.9999999999991
  3
INABA_S40G
100
AcDbAlignedDimension
 13
8959.514259514149
 23
7522.919036112863
 33
0.0
 14
8059.51425951415
 24
6822.91903611287
 34
0.0
100
AcDbRotatedDimension
1001
ACAD
1000
DSTYLE
1002
{
1070
   174
1070
     0
1070
   272
1070
     1
1070
   279
1070
     1
1070
   288
1070
     0
1070
   341
1005
0
1002
}
  0
DIMENSION
  5
1F249
330
747D
100
AcDbEntity
  8
寸法
 48
50.0
100
AcDbDimension
  2
*D22
 10
7159.51425951415
 20
8049.82880176119
 30
0.0
 11
7609.514259514149
 21
8149.82880176119
 31
0.0
 70
    32
 71
     5
 42
900.0
  3
INABA_S40G
100
AcDbAlignedDimension
 13
8059.51425951415
 23
6822.91903611287
 33
0.0
 14
7159.51425951415
 24
7522.919036112863
 34
0.0
100
AcDbRotatedDimension
1001
ACAD
1000
DSTYLE
1002
{
1070
   174
1070
     0
1070
   272
1070
     1
1070
   279
1070
     1
1070
   288
1070
     0
1070
   341
1005
0
1002
}
  0
LINE
  5
1F940
330
747D
100
AcDbEntity
  8
センター
 48
2.0
100
AcDbLine
 10
8059.514259514143
 20
6672.919036112869
 30
0.0
 11
8059.514259514143
 21
6572.919036112868
 31
0.0
  0
LINE
  5
1F941
330
747D
100
AcDbEntity
  8
部品1
 48
50.0
100
AcDbLine
 10
8159.514259514143
 20
6422.919036112867
 30
0.0
 11
8159.514259514144
 21
6822.91903611287
 31
0.0
  0
LINE
  5
1F942
330
747D
100
AcDbEntity
  8
部品1
 48
50.0
100
AcDbLine
 10
7959.514259514143
 20
6422.919036112867
 30
0.0
 11
7959.514259514143
 21
6822.91903611287
 31
0.0
  0
LINE
  5
1F943
330
747D
100
AcDbEntity
  8
センター
 48
2.0
100
AcDbLine
 10
8009.514259514142
 20
6622.919036112868
 30
0.0
 11
8109.514259514142
 21
6622.919036112868
 31
0.0
  0
LEADER
  5
1F9A5
330
747D
100
AcDbEntity
  8
寸法
 48
50.0
100
AcDbLeader
  3
INABA_S50G
 71
     0
 73
     0
 75
     1
 40
120.0
 41
185.591883092037
 76
     3
 10
8042.108827932336
 20
6447.490509905565
 30
0.0
 10
7974.783336151796
 20
6239.697104093134
 30
0.0
 10
7849.783336151796
 20
6239.697104093134
 30
0.0
340
1F9A6
210
0.0
220
0.0
230
-1.0
213
-42.79594154601909
223
-42.66026254335156
233
0.0
1001
ACAD
1000
DSTYLE
1002
{
1070
   341
1005
1C530
1070
    40
1040
1.0
1070
   343
1005
1C530
1070
   344
1005
1C530
1002
}
  0
MTEXT
  5
1F9A6
102
{ACAD_REACTORS
330
1F9A5
102
}
330
747D
100
AcDbEntity
  8
部品1
 62
     7
 48
50.0
100
AcDbMText
 10
7867.579277697815
 20
6317.357366636485
 30
0.0
 40
120.0
 41
0.0
 71
     6
 72
     1
  1
\A1;C.B
  7
STYLE1
 73
     1
 44
1.0
1001
ACAD
1000
MTEXTBEGIN
1070
    73
1070
     1
1070
    44
1040
1.0
1070
    74
1070
     0
1000
MTEXTEND
  0
LINE
  5
1F9AD
330
747D
100
AcDbEntity
  8
部品1
 48
50.0
100
AcDbLine
 10
8159.514259514143
 20
6422.919036112867
 30
0.0
 11
7959.514259514143
 21
6422.919036112867
 31
0.0
  0
LINE
  5
1F9AE
330
747D
100
AcDbEntity
  8
部品1
 48
50.0
100
AcDbLine
 10
8159.514259514144
 20
6822.91903611287
 30
0.0
 11
7959.514259514143
 21
6822.91903611287
 31
0.0
  0
LINE
  5
1FE86
330
747D
100
AcDbEntity
  8
細線
 48
50.0
100
AcDbLine
 10
8839.51425951415
 20
6677.509306142536
 30
0.0
 11
8884.923989484473
 21
6722.919036112862
 31
0.0
  0
LINE
  5
1FE87
330
747D
100
AcDbEntity
  8
細線
 48
50.0
100
AcDbLine
 10
8839.51425951415
 20
6632.608025537193
 30
0.0
 11
8929.825270089818
 21
6722.91903611286
 31
0.0
  0
LINE
  5
1FE88
330
747D
100
AcDbEntity
  8
細線
 48
50.0
100
AcDbLine
 10
8839.514259514151
 20
6587.70674493185
 30
0.0
 11
8959.514259514154
 21
6707.706744931851
 31
0.0
  0
LINE
  5
1FE89
330
747D
100
AcDbEntity
  8
細線
 48
50.0
100
AcDbLine
 10
8839.514259514151
 20
6542.805464326503
 30
0.0
 11
8959.514259514151
 21
6662.805464326504
 31
0.0
  0
LINE
  5
1FE8A
330
747D
100
AcDbEntity
  8
細線
 48
50.0
100
AcDbLine
 10
8864.529111905852
 20
6522.919036112857
 30
0.0
 11
8959.514259514154
 21
6617.90418372116
 31
0.0
  0
LINE
  5
1FE8B
330
747D
100
AcDbEntity
  8
細線
 48
50.0
100
AcDbLine
 10
8909.430392511195
 20
6522.919036112859
 30
0.0
 11
8959.514259514154
 21
6573.002903115813
 31
0.0
  0
LINE
  5
1FE8C
330
747D
100
AcDbEntity
  8
細線
 48
50.0
100
AcDbLine
 10
8954.331673116547
 20
6522.919036112861
 30
0.0
 11
8959.514259514151
 21
6528.101622510466
 31
0.0
  0
LINE
  5
1FE8D
330
747D
100
AcDbEntity
  8
細線
 48
50.0
100
AcDbLine
 10
7159.514259514151
 20
6697.509306142541
 30
0.0
 11
7184.923989484473
 21
6722.919036112862
 31
0.0
  0
LINE
  5
1FE8E
330
747D
100
AcDbEntity
  8
細線
 48
50.0
100
AcDbLine
 10
7159.514259514151
 20
6652.608025537195
 30
0.0
 11
7229.825270089818
 21
6722.91903611286
 31
0.0
  0
LINE
  5
1FE8F
330
747D
100
AcDbEntity
  8
細線
 48
50.0
100
AcDbLine
 10
7159.514259514151
 20
6607.706744931849
 30
0.0
 11
7274.726550695165
 21
6722.919036112862
 31
0.0
  0
LINE
  5
1FE90
330
747D
100
AcDbEntity
  8
細線
 48
50.0
100
AcDbLine
 10
7159.514259514151
 20
6562.805464326503
 30
0.0
 11
7279.514259514151
 21
6682.805464326506
 31
0.0
  0
LINE
  5
1FE91
330
747D
100
AcDbEntity
  8
細線
 48
50.0
100
AcDbLine
 10
7164.529111905853
 20
6522.919036112857
 30
0.0
 11
7279.514259514151
 21
6637.904183721158
 31
0.0
  0
LINE
  5
1FE92
330
747D
100
AcDbEntity
  8
細線
 48
50.0
100
AcDbLine
 10
7209.4303925112
 20
6522.91903611286
 30
0.0
 11
7279.514259514151
 21
6593.002903115813
 31
0.0
  0
LINE
  5
1FE93
330
747D
100
AcDbEntity
  8
細線
 48
50.0
100
AcDbLine
 10
7254.331673116547
 20
6522.919036112861
 30
0.0
 11
7279.514259514151
 21
6548.101622510471
 31
0.0
  0
LINE
  5
1FE94
330
747D
100
AcDbEntity
  8
細線
 48
50.0
100
AcDbLine
 10
7959.514259514151
 20
7519.646443697578
 30
0.0
 11
7962.786851929433
 21
7522.91903611286
 31
0.0
  0
LINE
  5
1FE95
330
747D
100
AcDbEntity
  8
細線
 48
50.0
100
AcDbLine
 10
7959.514259514151
 20
7474.745163092231
 30
0.0
 11
8007.688132534779
 21
7522.91903611286
 31
0.0
  0
LINE
  5
1FE96
330
747D
100
AcDbEntity
  8
細線
 48
50.0
100
AcDbLine
 10
7959.514259514151
 20
7429.843882486887
 30
0.0
 11
8052.589413140124
 21
7522.91903611286
 31
0.0
  0
LINE
  5
1FE97
330
747D
100
AcDbEntity
  8
細線
 48
50.0
100
AcDbLine
 10
7977.49069374547
 20
7402.91903611286
 30
0.0
 11
8097.49069374547
 21
7522.91903611286
 31
0.0
  0
LINE
  5
1FE98
330
747D
100
AcDbEntity
  8
細線
 48
50.0
100
AcDbLine
 10
8022.391974350815
 20
7402.91903611286
 30
0.0
 11
8142.391974350816
 21
7522.91903611286
 31
0.0
  0
LINE
  5
1FE99
330
747D
100
AcDbEntity
  8
細線
 48
50.0
100
AcDbLine
 10
8067.29325495616
 20
7402.91903611286
 30
0.0
 11
8159.514259514152
 21
7495.140040670849
 31
0.0
  0
LINE
  5
1FE9A
330
747D
100
AcDbEntity
  8
細線
 48
50.0
100
AcDbLine
 10
8112.194535561506
 20
7402.919036112859
 30
0.0
 11
8159.514259514152
 21
7450.238760065504
 31
0.0
  0
LINE
  5
1FF9F
102
{ACAD_REACTORS
330
1FFCE
102
}
330
747D
100
AcDbEntity
  8
部品1
 48
50.0
100
AcDbLine
 10
8959.514259514151
 20
5722.91903611286
 30
0.0
 11
7159.514259514151
 21
5722.919036112859
 31
0.0
  0
HATCH
  5
1FFCE
330
747D
100
AcDbEntity
  8
細線
 48
50.0
100
AcDbHatch
 10
0.0
 20
0.0
 30
0.0
210
0.0
220
0.0
230
1.0
  2
LINE
 70
     0
 71
     1
 91
        1
 92
        7
 72
     0
 73
     1
 93
        4
 10
8159.514259514166
 20
5842.91903611287
 10
7959.514259514165
 20
5842.919036112867
 10
7959.514259514167
 20
5722.91903611286
 10
8159.514259514166
 20
5722.919036112862
 97
        4
330
1D91E
330
1D94F
330
1FF9F
330
1D950
 75
     0
 76
     1
 52
45.0
 41
10.0
 77
     0
 78
     1
 53
45.0
 43
0.0
 44
0.0
 45
-22.45064030267288
 46
22.45064030267288
 79
     0
 47
3.584059470769903
 98
        1
 10
8093.166285133419
 20
5808.222602950067
  0
LINE
  5
2030A
330
747D
100
AcDbEntity
  8
細線
 48
50.0
100
AcDbLine
 10
10959.24643178033
 20
1489.141329177078
 30
0.0
 11
10951.20795600739
 21
1519.141329177078
 31
0.0
  0
LINE
  5
2030B
330
747D
100
AcDbEntity
  8
細線
100
AcDbLine
 10
10747.49605028527
 20
1519.141329177082
 30
0.0
 11
10862.11969485195
 21
1633.764973743768
 31
0.0
  0
LINE
  5
2030C
330
747D
100
AcDbEntity
  8
細線
100
AcDbLine
 10
10705.06964341408
 20
1519.141329177082
 30
0.0
 11
10819.69328798076
 21
1633.764973743768
 31
0.0
  0
LINE
  5
2030D
330
747D
100
AcDbEntity
  8
細線
100
AcDbLine
 10
10789.92245715646
 20
1519.141329177082
 30
0.0
 11
10904.54610172314
 21
1633.764973743768
 31
0.0
  0
LINE
  5
2030E
330
747D
100
AcDbEntity
  8
細線
 48
50.0
100
AcDbLine
 10
10762.0263194122
 20
1489.14132917708
 30
0.0
 11
10753.98784363926
 21
1519.14132917708
 31
0.0
  0
LINE
  5
2030F
330
747D
100
AcDbEntity
  8
細線
 48
50.0
100
AcDbLine
 10
10860.63637559627
 20
1489.141329177078
 30
0.0
 11
10852.59789982333
 21
1519.141329177078
 31
0.0
  0
LINE
  5
20310
330
747D
100
AcDbEntity
  8
部品1
100
AcDbLine
 10
10863.77415028991
 20
1933.764973743768
 30
0.0
 11
10863.77415028991
 21
1633.764973743768
 31
0.0
  0
LINE
  5
20311
330
747D
100
AcDbEntity
  8
細線
 48
50.0
100
AcDbLine
 10
10564.80620704409
 20
1489.14132917708
 30
0.0
 11
10556.76773127116
 21
1519.14132917708
 31
0.0
  0
LINE
  5
20312
330
747D
100
AcDbEntity
  8
細線
 48
50.0
100
AcDbLine
 10
10663.41626322815
 20
1489.14132917708
 30
0.0
 11
10655.37778745522
 21
1519.14132917708
 31
0.0
  0
LINE
  5
20313
330
747D
100
AcDbEntity
  8
細線
100
AcDbLine
 10
10297.49605028527
 20
1519.141329177081
 30
0.0
 11
10412.11969485195
 21
1633.764973743768
 31
0.0
  0
LINE
  5
20314
330
747D
100
AcDbEntity
  8
細線
100
AcDbLine
 10
10339.92245715646
 20
1519.141329177081
 30
0.0
 11
10454.54610172314
 21
1633.764973743768
 31
0.0
  0
LINE
  5
20315
330
747D
100
AcDbEntity
  8
細線
 48
50.0
100
AcDbLine
 10
10466.19615086003
 20
1489.14132917708
 30
0.0
 11
10458.1576750871
 21
1519.14132917708
 31
0.0
  0
LINE
  5
20316
330
747D
100
AcDbEntity
  8
細線
 48
50.0
100
AcDbLine
 10
10367.58609467598
 20
1489.14132917708
 30
0.0
 11
10359.54761890304
 21
1519.14132917708
 31
0.0
  0
LINE
  5
20317
330
747D
100
AcDbEntity
  8
細線
100
AcDbLine
 10
10782.83746204865
 20
1633.764973743768
 30
0.0
 11
10482.83746204865
 21
1933.764973743768
 31
0.0
  0
LINE
  5
20318
330
747D
100
AcDbEntity
  8
細線
100
AcDbLine
 10
10846.47707235543
 20
1633.76497374377
 30
0.0
 11
10546.47707235544
 21
1933.764973743768
 31
0.0
  0
LEADER
  5
20319
330
747D
100
AcDbEntity
  8
寸法
 48
50.0
100
AcDbLeader
  3
INABA_S40G
 71
     0
 73
     0
 74
     0
 75
     1
 40
150.0
 41
231.9898538650463
 76
     3
 10
10777.17966480981
 20
1933.764973743768
 30
0.0
 10
10866.10242310187
 20
2140.19787459519
 30
0.0
 10
10966.10242310187
 20
2140.19787459519
 30
0.0
  0
MTEXT
  5
2031A
102
{ACAD_REACTORS
330
20319
102
}
330
747D
100
AcDbEntity
  8
寸法
 62
     7
 48
50.0
100
AcDbMText
 10
11006.10242310187
 20
2255.19787459519
 30
0.0
 40
150.0
 41
1.0
 71
     4
 72
     1
  1
\A1;C.B
  7
STYLE1
 73
     1
 44
1.0
1001
ACAD
1000
MTEXTBEGIN
1070
    73
1070
     1
1070
    44
1040
1.0
1070
    74
1070
     0
1000
MTEXTEND
  0
LINE
  5
2031B
330
747D
100
AcDbEntity
  8
細線
 48
50.0
100
AcDbLine
 10
10932.45151253722
 20
1389.141329177078
 30
0.0
 11
10940.48998831015
 21
1359.141329177077
 31
0.0
  0
LINE
  5
2031C
330
747D
100
AcDbEntity
  8
細線
 48
50.0
100
AcDbLine
 10
10735.2314001691
 20
1389.14132917708
 30
0.0
 11
10743.26987594204
 21
1359.14132917708
 31
0.0
  0
LINE
  5
2031D
330
747D
100
AcDbEntity
  8
細線
 48
50.0
100
AcDbLine
 10
10833.84145635316
 20
1389.141329177078
 30
0.0
 11
10841.87993212609
 21
1359.141329177077
 31
0.0
  0
LINE
  5
2031E
330
747D
100
AcDbEntity
  8
細線
 48
50.0
100
AcDbLine
 10
10538.01128780098
 20
1389.14132917708
 30
0.0
 11
10546.04976357391
 21
1359.14132917708
 31
0.0
  0
LINE
  5
2031F
330
747D
100
AcDbEntity
  8
細線
 48
50.0
100
AcDbLine
 10
10636.62134398504
 20
1389.14132917708
 30
0.0
 11
10644.65981975797
 21
1359.14132917708
 31
0.0
  0
LINE
  5
20320
330
747D
100
AcDbEntity
  8
細線
 48
50.0
100
AcDbLine
 10
10340.79117543287
 20
1389.14132917708
 30
0.0
 11
10348.8296512058
 21
1359.14132917708
 31
0.0
  0
LINE
  5
20321
330
747D
100
AcDbEntity
  8
細線
 48
50.0
100
AcDbLine
 10
10439.40123161692
 20
1389.14132917708
 30
0.0
 11
10447.43970738986
 21
1359.14132917708
 31
0.0
  0
LINE
  5
20322
330
747D
100
AcDbEntity
  8
細線
 48
50.0
100
AcDbLine
 10
10529.97281202804
 20
1359.141329177077
 30
0.0
 11
10572.84468281702
 21
1519.141329177078
 31
0.0
  0
LINE
  5
20323
330
747D
100
AcDbEntity
  8
細線
 48
50.0
100
AcDbLine
 10
10332.75269965993
 20
1359.14132917708
 30
0.0
 11
10375.6245704489
 21
1519.14132917708
 31
0.0
  0
LINE
  5
20324
330
747D
100
AcDbEntity
  8
細線
 48
50.0
100
AcDbLine
 10
10431.36275584398
 20
1359.14132917708
 30
0.0
 11
10474.23462663296
 21
1519.141329177078
 31
0.0
  0
LINE
  5
20325
330
747D
100
AcDbEntity
  8
細線
 48
50.0
100
AcDbLine
 10
10727.19292439616
 20
1359.141329177077
 30
0.0
 11
10770.06479518513
 21
1519.14132917708
 31
0.0
  0
LINE
  5
20326
330
747D
100
AcDbEntity
  8
細線
 48
50.0
100
AcDbLine
 10
10628.5828682121
 20
1359.14132917708
 30
0.0
 11
10671.45473900108
 21
1519.141329177078
 31
0.0
  0
LINE
  5
20327
330
747D
100
AcDbEntity
  8
細線
 48
50.0
100
AcDbLine
 10
10924.41303676427
 20
1359.141329177077
 30
0.0
 11
10967.28490755326
 21
1519.141329177076
 31
0.0
  0
LINE
  5
20328
330
747D
100
AcDbEntity
  8
細線
 48
50.0
100
AcDbLine
 10
10825.80298058022
 20
1359.141329177076
 30
0.0
 11
10868.67485136919
 21
1519.141329177076
 31
0.0
  0
LINE
  5
20329
330
747D
100
AcDbEntity
  8
部品1
100
AcDbLine
 10
11013.77415028991
 20
1633.764973743768
 30
0.0
 11
11013.77415028991
 21
1359.14132917708
 31
0.0
  0
LINE
  5
2032A
330
747D
100
AcDbEntity
  8
部品1
100
AcDbLine
 10
11604.28507810905
 20
325.9099957167346
 30
0.0
 11
11604.28507810905
 21
3584.979498464825
 31
0.0
  0
TEXT
  5
2032B
330
747D
100
AcDbEntity
  8
部品1
100
AcDbText
 10
7713.739490527665
 20
3360.539583525538
 30
0.0
 40
150.0
  1
基礎詳細
  7
STYLE2
100
AcDbText
  0
LINE
  5
2032C
330
747D
100
AcDbEntity
  8
細線
 48
50.0
100
AcDbLine
 10
10268.97603849191
 20
1489.14132917708
 30
0.0
 11
10260.93756271898
 21
1519.14132917708
 31
0.0
  0
LINE
  5
2032D
330
747D
100
AcDbEntity
  8
細線
 48
50.0
100
AcDbLine
 10
10170.36598230785
 20
1489.14132917708
 30
0.0
 11
10162.32750653491
 21
1519.14132917708
 31
0.0
  0
LINE
  5
2032E
330
747D
100
AcDbEntity
  8
部品1
100
AcDbLine
 10
10263.77415028991
 20
1633.764973743768
 30
0.0
 11
10263.77415028991
 21
1933.764973743768
 31
0.0
  0
LINE
  5
2032F
330
747D
100
AcDbEntity
  8
細線
 48
50.0
100
AcDbLine
 10
10143.57106306474
 20
1389.14132917708
 30
0.0
 11
10151.60953883767
 21
1359.14132917708
 31
0.0
  0
LINE
  5
20330
330
747D
100
AcDbEntity
  8
細線
 48
50.0
100
AcDbLine
 10
10242.1811192488
 20
1389.14132917708
 30
0.0
 11
10250.21959502173
 21
1359.14132917708
 31
0.0
  0
LINE
  5
20331
330
747D
100
AcDbEntity
  8
細線
 48
50.0
100
AcDbLine
 10
8674.632496524713
 20
923.764973743766
 30
0.0
 11
8666.594020751782
 21
953.7649737437659
 31
0.0
  0
LINE
  5
20332
330
747D
100
AcDbEntity
  8
部品1
 48
50.0
100
AcDbLine
 10
8729.160215034296
 20
953.7649737437668
 30
0.0
 11
8729.160215034296
 21
793.7649737437668
 31
0.0
  0
LINE
  5
20333
330
747D
100
AcDbEntity
  8
細線
 48
50.0
100
AcDbLine
 10
10135.5325872918
 20
1359.14132917708
 30
0.0
 11
10178.40445808078
 21
1519.14132917708
 31
0.0
  0
LINE
  5
20334
330
747D
100
AcDbEntity
  8
部品1
100
AcDbLine
 10
10113.77415028991
 20
1359.141329177076
 30
0.0
 11
10113.77415028991
 21
1633.764973743768
 31
0.0
  0
TEXT
  5
20335
330
747D
100
AcDbEntity
  8
部品1
 48
50.0
100
AcDbText
 10
9638.432521964611
 20
1300.265297947131
 30
0.0
 40
100.0
  1
ボルトの出
 50
90.0
  7
STYLE2
100
AcDbText
  0
LINE
  5
20336
330
747D
100
AcDbEntity
  8
細線
 48
50.0
100
AcDbLine
 10
10234.14264347586
 20
1359.141329177077
 30
0.0
 11
10277.01451426484
 21
1519.141329177078
 31
0.0
  0
LINE
  5
20337
330
747D
100
AcDbEntity
  8
部品1
 48
50.0
100
AcDbLine
 10
8248.410215034294
 20
2372.359075130196
 30
0.0
 11
8268.410215034293
 21
2382.359075130196
 31
0.0
  0
LINE
  5
20338
330
747D
100
AcDbEntity
  8
部品1
 48
50.0
100
AcDbLine
 10
8248.410215034294
 20
2412.359075130196
 30
0.0
 11
8268.410215034293
 21
2422.359075130198
 31
0.0
  0
LINE
  5
20339
330
747D
100
AcDbEntity
  8
細線
 48
50.0
100
AcDbLine
 10
8248.410215034294
 20
2372.359075130196
 30
0.0
 11
8248.410215034294
 21
2412.359075130196
 31
0.0
  0
LINE
  5
2033A
330
747D
100
AcDbEntity
  8
部品1
 48
50.0
100
AcDbLine
 10
8268.410215034293
 20
2382.359075130196
 30
0.0
 11
8268.410215034293
 21
2422.359075130198
 31
0.0
  0
LINE
  5
2033B
330
747D
100
AcDbEntity
  8
部品1
 48
50.0
100
AcDbLine
 10
8248.410215034294
 20
2432.359075130196
 30
0.0
 11
8268.410215034293
 21
2422.359075130198
 31
0.0
  0
LINE
  5
2033C
330
747D
100
AcDbEntity
  8
部品1
 48
50.0
100
AcDbLine
 10
8278.410215034293
 20
2258.169084299108
 30
0.0
 11
8278.410215034293
 21
2270.169084299108
 31
0.0
  0
LINE
  5
2033D
330
747D
100
AcDbEntity
  8
細線
 48
50.0
100
AcDbLine
 10
8208.410215034293
 20
2372.359075130196
 30
0.0
 11
8208.410215034293
 21
2412.359075130196
 31
0.0
  0
LINE
  5
2033E
330
747D
100
AcDbEntity
  8
部品1
 48
50.0
100
AcDbLine
 10
8188.410215034293
 20
2382.359075130196
 30
0.0
 11
8188.410215034293
 21
2422.359075130198
 31
0.0
  0
LINE
  5
2033F
330
747D
100
AcDbEntity
  8
部品1
 48
50.0
100
AcDbLine
 10
8188.410215034293
 20
2422.359075130198
 30
0.0
 11
8208.410215034293
 21
2412.359075130196
 31
0.0
  0
LINE
  5
20340
330
747D
100
AcDbEntity
  8
部品1
 48
50.0
100
AcDbLine
 10
8188.410215034293
 20
2382.359075130196
 30
0.0
 11
8208.410215034293
 21
2372.359075130196
 31
0.0
  0
LINE
  5
20341
330
747D
100
AcDbEntity
  8
部品1
 48
50.0
100
AcDbLine
 10
8188.410215034293
 20
2422.359075130198
 30
0.0
 11
8208.410215034293
 21
2432.359075130196
 31
0.0
  0
LINE
  5
20342
330
747D
100
AcDbEntity
  8
部品1
100
AcDbLine
 10
8086.660215034292
 20
2005.764973743768
 30
0.0
 11
8136.160215034292
 21
2005.764973743768
 31
0.0
  0
ARC
  5
20343
330
747D
100
AcDbEntity
  8
部品1
100
AcDbCircle
 10
8083.285215034292
 20
2069.889973743764
 30
0.0
 40
3.375
100
AcDbArc
 50
0.0
 51
90.0
  0
LINE
  5
20344
330
747D
100
AcDbEntity
  8
部品1
100
AcDbLine
 10
8086.660215034292
 20
2069.889973743764
 30
0.0
 11
8086.660215034292
 21
2005.764973743768
 31
0.0
  0
LINE
  5
20345
330
747D
100
AcDbEntity
  8
部品1
 48
50.0
100
AcDbLine
 10
8178.410215034293
 20
2270.169084299108
 30
0.0
 11
8178.410215034293
 21
2258.169084299108
 31
0.0
  0
LINE
  5
20346
330
747D
100
AcDbEntity
  8
部品1
100
AcDbLine
 10
8115.910215034293
 20
2020.714973743768
 30
0.0
 11
8151.110215034297
 21
2020.714973743768
 31
0.0
  0
ARC
  5
20347
330
747D
100
AcDbEntity
  8
部品1
100
AcDbCircle
 10
8115.910215034293
 20
2017.339973743769
 30
0.0
 40
3.375
100
AcDbArc
 50
90.0
 51
180.0
  0
ARC
  5
20348
330
747D
100
AcDbEntity
  8
部品1
100
AcDbCircle
 10
8151.110215034297
 20
2017.339973743769
 30
0.0
 40
3.375
100
AcDbArc
 50
0.0
 51
90.0
  0
LINE
  5
20349
330
747D
100
AcDbEntity
  8
部品1
100
AcDbLine
 10
8217.160215034294
 20
1995.214973743768
 30
0.0
 11
8239.660215034293
 21
1995.214973743768
 31
0.0
  0
LINE
  5
2034A
330
747D
100
AcDbEntity
  8
部品1
100
AcDbLine
 10
8221.660215034294
 20
1999.714973743768
 30
0.0
 11
8235.160215034294
 21
1999.714973743768
 31
0.0
  0
ARC
  5
2034B
330
747D
100
AcDbEntity
  8
部品1
100
AcDbCircle
 10
8136.160215034292
 20
2002.389973743769
 30
0.0
 40
3.375
100
AcDbArc
 50
0.0
 51
90.0
  0
LINE
  5
2034C
330
747D
100
AcDbEntity
  8
部品1
100
AcDbLine
 10
8112.535215034293
 20
2017.339973743769
 30
0.0
 11
8112.535215034293
 21
1995.964973743768
 31
0.0
  0
ARC
  5
2034D
330
747D
100
AcDbEntity
  8
部品1
100
AcDbCircle
 10
8030.410215034292
 20
2069.889973743768
 30
0.0
 40
3.375
100
AcDbArc
 50
90.0
 51
180.0
  0
LINE
  5
2034E
330
747D
100
AcDbEntity
  8
部品1
100
AcDbLine
 10
8027.035215034294
 20
2059.764973743768
 30
0.0
 11
8027.035215034294
 21
2059.764973743768
 31
0.0
  0
LINE
  5
2034F
330
747D
100
AcDbEntity
  8
部品1
100
AcDbLine
 10
8027.035215034294
 20
2059.764973743768
 30
0.0
 11
8027.035215034294
 21
2069.889973743768
 31
0.0
  0
LINE
  5
20350
330
747D
100
AcDbEntity
  8
部品1
100
AcDbLine
 10
8023.660215034293
 20
2046.264973743769
 30
0.0
 11
8023.660215034293
 21
2056.389973743768
 31
0.0
  0
ARC
  5
20351
330
747D
100
AcDbEntity
  8
部品1
100
AcDbCircle
 10
8027.035215034294
 20
2056.389973743768
 30
0.0
 40
3.375
100
AcDbArc
 50
90.0
 51
180.0
  0
LINE
  5
20352
330
747D
100
AcDbEntity
  8
部品1
100
AcDbLine
 10
7973.035215034293
 20
2032.764973743768
 30
0.0
 11
7973.035215034293
 21
2042.889973743768
 31
0.0
  0
ARC
  5
20353
330
747D
100
AcDbEntity
  8
部品1
100
AcDbCircle
 10
7976.410215034293
 20
2042.889973743768
 30
0.0
 40
3.375
100
AcDbArc
 50
90.0
 51
180.0
  0
ARC
  5
20354
330
747D
100
AcDbEntity
  8
部品1
100
AcDbCircle
 10
7962.910215034293
 20
2026.754853372153
 30
0.0
 40
3.375
100
AcDbArc
 50
104.0362434679612
 51
180.0
  0
LINE
  5
20355
330
747D
100
AcDbEntity
  8
部品1
100
AcDbLine
 10
7962.091657299794
 20
2030.029084310143
 30
0.0
 11
7973.035215034293
 21
2032.764973743768
 31
0.0
  0
LINE
  5
20356
330
747D
100
AcDbEntity
  8
部品1
100
AcDbLine
 10
7976.410215034293
 20
2046.264973743769
 30
0.0
 11
8023.660215034293
 21
2046.264973743769
 31
0.0
  0
LINE
  5
20357
330
747D
100
AcDbEntity
  8
部品1
100
AcDbLine
 10
8030.410215034292
 20
2073.264973743767
 30
0.0
 11
8083.285215034292
 21
2073.264973743764
 31
0.0
  0
ELLIPSE
  5
20358
330
747D
100
AcDbEntity
  8
部品1
 48
50.0
100
AcDbEllipse
 10
8228.410215034292
 20
2270.169084299108
 30
0.0
 11
23.0
 21
0.0
 31
0.0
210
0.0
220
0.0
230
1.0
 40
0.3478260869565217
 41
0.0
 42
6.283185307179585
  0
ELLIPSE
  5
20359
330
747D
100
AcDbEntity
  8
部品1
 48
50.0
100
AcDbEllipse
 10
8228.410215034292
 20
2270.169084299108
 30
0.0
 11
50.0
 21
0.0
 31
0.0
210
0.0
220
0.0
230
1.0
 40
0.4
 41
0.0
 42
6.283185307179585
  0
ELLIPSE
  5
2035A
330
747D
100
AcDbEntity
  8
部品1
 48
50.0
100
AcDbEllipse
 10
8228.410215034292
 20
2258.169084299108
 30
0.0
 11
50.0
 21
0.0
 31
0.0
210
0.0
220
0.0
230
1.0
 40
0.4
 41
3.141592653589792
 42
6.283185307179585
  0
LINE
  5
2035B
330
747D
100
AcDbEntity
  8
部品1
 48
50.0
100
AcDbLine
 10
8208.410215034293
 20
2432.359075130196
 30
0.0
 11
8248.410215034294
 21
2432.359075130196
 31
0.0
  0
ELLIPSE
  5
2035C
330
747D
100
AcDbEntity
  8
細線
 48
50.0
100
AcDbEllipse
 10
8228.410215034292
 20
2422.359075130197
 30
0.0
 11
18.45838483258558
 21
0.0
 31
0.0
210
0.0
220
0.0
230
1.0
 40
0.2071254069489396
 41
0.0
 42
6.283185307179585
  0
LINE
  5
2035D
330
747D
100
AcDbEntity
  8
部品1
 48
50.0
100
AcDbLine
 10
8208.410215034293
 20
2372.359075130196
 30
0.0
 11
8248.410215034294
 21
2372.359075130196
 31
0.0
  0
LINE
  5
2035E
330
747D
100
AcDbEntity
  8
部品1
 48
50.0
100
AcDbLine
 10
8208.410215034293
 20
2412.359075130196
 30
0.0
 11
8248.410215034294
 21
2412.359075130196
 31
0.0
  0
LINE
  5
2035F
330
747D
100
AcDbEntity
  8
細線
 48
50.0
100
AcDbLine
 10
8307.160215034295
 20
1735.175326854503
 30
0.0
 11
8469.160215034293
 21
1897.175326854502
 31
0.0
  0
LINE
  5
20360
330
747D
100
AcDbEntity
  8
細線
 48
50.0
100
AcDbLine
 10
8307.160215034295
 20
1701.499366400482
 30
0.0
 11
8469.160215034293
 21
1863.499366400478
 31
0.0
  0
LINE
  5
20361
330
747D
100
AcDbEntity
  8
部品1
100
AcDbLine
 10
8284.660215034293
 20
1630.014973743767
 30
0.0
 11
8284.660215034293
 21
1652.514973743768
 31
0.0
  0
LINE
  5
20362
330
747D
100
AcDbEntity
  8
部品1
100
AcDbLine
 10
8307.160215034294
 20
1528.764973743767
 30
0.0
 11
8307.160215034294
 21
1933.764973743768
 31
0.0
  0
LINE
  5
20363
330
747D
100
AcDbEntity
  8
細線
 48
50.0
100
AcDbLine
 10
8307.160215034295
 20
1667.823405946465
 30
0.0
 11
8469.160215034293
 21
1829.823405946455
 31
0.0
  0
LINE
  5
20364
330
747D
100
AcDbEntity
  8
部品1
100
AcDbLine
 10
8121.535215034294
 20
1945.714973743768
 30
0.0
 11
8136.160215034292
 21
1945.714973743768
 31
0.0
  0
ARC
  5
20365
330
747D
100
AcDbEntity
  8
部品1
100
AcDbCircle
 10
8157.860215034288
 20
1949.089973743768
 30
0.0
 40
3.375
100
AcDbArc
 50
180.0
 51
270.0
  0
ARC
  5
20366
330
747D
100
AcDbEntity
  8
部品1
100
AcDbCircle
 10
8136.160215034292
 20
1949.089973743768
 30
0.0
 40
3.375
100
AcDbArc
 50
270.0
 51
0.0
  0
ARC
  5
20367
330
747D
100
AcDbEntity
  8
部品1
100
AcDbCircle
 10
7962.910215034293
 20
1949.089973743768
 30
0.0
 40
3.375
100
AcDbArc
 50
180.0
 51
270.0
  0
LINE
  5
20368
330
747D
100
AcDbEntity
  8
細線
 48
50.0
100
AcDbLine
 10
7951.660215034293
 20
1918.490694118649
 30
0.0
 11
7966.934494659412
 21
1933.764973743768
 31
0.0
  0
LINE
  5
20369
330
747D
100
AcDbEntity
  8
部品1
100
AcDbLine
 10
7962.910215034293
 20
1945.714973743768
 30
0.0
 11
7977.535215034286
 21
1945.714973743768
 31
0.0
  0
LINE
  5
2036A
330
747D
100
AcDbEntity
  8
細線
 48
50.0
100
AcDbLine
 10
7951.660215034293
 20
1884.81473366464
 30
0.0
 11
8000.610455113426
 21
1933.764973743768
 31
0.0
  0
LINE
  5
2036B
330
747D
100
AcDbEntity
  8
細線
 48
50.0
100
AcDbLine
 10
7951.660215034293
 20
1851.13877321063
 30
0.0
 11
8034.28641556743
 21
1933.764973743768
 31
0.0
  0
ARC
  5
2036C
330
747D
100
AcDbEntity
  8
部品1
100
AcDbCircle
 10
8239.660215034293
 20
1652.514973743768
 30
0.0
 40
22.5
100
AcDbArc
 50
180.0
 51
270.0
  0
LINE
  5
2036D
330
747D
100
AcDbEntity
  8
細線
 48
50.0
100
AcDbLine
 10
7951.660215034293
 20
1581.731089578556
 30
0.0
 11
8149.660215034289
 21
1779.731089578546
 31
0.0
  0
LINE
  5
2036E
330
747D
100
AcDbEntity
  8
部品1
100
AcDbLine
 10
8149.660215034286
 20
1528.764973743767
 30
0.0
 11
8149.660215034293
 21
1933.764973743768
 31
0.0
  0
LINE
  5
2036F
330
747D
100
AcDbEntity
  8
細線
 48
50.0
100
AcDbLine
 10
7951.660215034293
 20
1649.083010486574
 30
0.0
 11
8149.660215034293
 21
1847.083010486571
 31
0.0
  0
LINE
  5
20370
330
747D
100
AcDbEntity
  8
細線
 48
50.0
100
AcDbLine
 10
7951.660215034293
 20
1615.407050032565
 30
0.0
 11
8149.660215034293
 21
1813.407050032562
 31
0.0
  0
LINE
  5
20371
330
747D
100
AcDbEntity
  8
部品1
100
AcDbLine
 10
8307.160215034294
 20
1528.764973743766
 30
0.0
 11
8149.660215034286
 21
1528.764973743766
 31
0.0
  0
LINE
  5
20372
330
747D
100
AcDbEntity
  8
部品1
 48
50.0
100
AcDbLine
 10
7951.660215034293
 20
1933.764973743768
 30
0.0
 11
8469.160215034298
 21
1933.764973743768
 31
0.0
  0
LINE
  5
20373
330
747D
100
AcDbEntity
  8
部品1
100
AcDbLine
 10
8157.860215034288
 20
1945.714973743768
 30
0.0
 11
8409.535215034287
 21
1945.714973743768
 31
0.0
  0
LINE
  5
20374
330
747D
100
AcDbEntity
  8
部品1
100
AcDbLine
 10
8239.660215034293
 20
1630.014973743767
 30
0.0
 11
8284.660215034293
 21
1630.014973743767
 31
0.0
  0
LINE
  5
20375
330
747D
100
AcDbEntity
  8
部品1
100
AcDbLine
 10
8239.660215034293
 20
1652.514973743768
 30
0.0
 11
8284.660215034293
 21
1652.514973743768
 31
0.0
  0
LINE
  5
20376
330
747D
100
AcDbEntity
  8
部品1
100
AcDbLine
 10
7959.535215034293
 20
1949.089973743768
 30
0.0
 11
7959.535215034293
 21
2026.754853372153
 31
0.0
  0
LINE
  5
20377
330
747D
100
AcDbEntity
  8
細線
100
AcDbLine
 10
8235.160215034294
 20
1945.714973743768
 30
0.0
 11
8235.160215034294
 21
1999.714973743768
 31
0.0
  0
LINE
  5
20378
330
747D
100
AcDbEntity
  8
細線
100
AcDbLine
 10
8221.660215034296
 20
1945.714973743768
 30
0.0
 11
8221.660215034294
 21
1999.714973743768
 31
0.0
  0
LINE
  5
20379
330
747D
100
AcDbEntity
  8
部品1
100
AcDbLine
 10
8139.535215034293
 20
2002.389973743769
 30
0.0
 11
8139.535215034293
 21
1949.089973743768
 31
0.0
  0
LINE
  5
2037A
330
747D
100
AcDbEntity
  8
部品1
100
AcDbLine
 10
8154.485215034297
 20
2017.339973743769
 30
0.0
 11
8154.48521503429
 21
1949.089973743768
 31
0.0
  0
LINE
  5
2037B
330
747D
100
AcDbEntity
  8
部品1
100
AcDbLine
 10
8239.660215034293
 20
1652.514973743768
 30
0.0
 11
8239.660215034289
 21
1995.214973743768
 31
0.0
  0
LINE
  5
2037C
330
747D
100
AcDbEntity
  8
部品1
100
AcDbLine
 10
8217.160215034294
 20
1652.514973743768
 30
0.0
 11
8217.160215034288
 21
1995.214973743768
 31
0.0
  0
TEXT
  5
2037D
330
747D
100
AcDbEntity
  8
部品1
 48
50.0
100
AcDbText
 10
7433.985337743097
 20
1647.813714097837
 30
0.0
 40
100.0
  1
▽G.L
  7
STYLE2
100
AcDbText
  0
LWPOLYLINE
  5
2037E
330
747D
100
AcDbEntity
  8
部品1
 48
50.0
100
AcDbPolyline
 90
        2
 70
     0
 43
10.0
 10
7433.985337743099
 20
1633.76497374377
 10
7951.660215034293
 20
1633.76497374377
  0
LINE
  5
2037F
330
747D
100
AcDbEntity
  8
部品1
 48
50.0
100
AcDbLine
 10
8469.160215034293
 20
1253.764973743767
 30
0.0
 11
8629.160215034294
 21
1253.764973743767
 31
0.0
  0
LINE
  5
20380
330
747D
100
AcDbEntity
  8
細線
 48
50.0
100
AcDbLine
 10
8477.412384156581
 20
923.7649737437678
 30
0.0
 11
8469.37390838365
 21
953.7649737437668
 31
0.0
  0
LINE
  5
20381
330
747D
100
AcDbEntity
  8
細線
 48
50.0
100
AcDbLine
 10
8576.022440340654
 20
923.764973743766
 30
0.0
 11
8567.983964567721
 21
953.7649737437659
 31
0.0
  0
LINE
  5
20382
330
747D
100
AcDbEntity
  8
細線
 48
50.0
100
AcDbLine
 10
8280.192271788479
 20
923.7649737437678
 30
0.0
 11
8272.153796015548
 21
953.7649737437668
 31
0.0
  0
LINE
  5
20383
330
747D
100
AcDbEntity
  8
細線
 48
50.0
100
AcDbLine
 10
8378.802327972536
 20
923.7649737437678
 30
0.0
 11
8370.763852199603
 21
953.7649737437668
 31
0.0
  0
LINE
  5
20384
330
747D
100
AcDbEntity
  8
細線
 48
50.0
100
AcDbLine
 10
8333.972912819785
 20
953.7649737437668
 30
0.0
 11
8629.160215034294
 21
1248.952275958277
 31
0.0
  0
LINE
  5
20385
330
747D
100
AcDbEntity
  8
細線
 48
50.0
100
AcDbLine
 10
8367.648873273799
 20
953.7649737437668
 30
0.0
 11
8629.160215034294
 21
1215.27631550426
 31
0.0
  0
LINE
  5
20386
330
747D
100
AcDbEntity
  8
細線
 48
50.0
100
AcDbLine
 10
8401.324833727803
 20
953.7649737437668
 30
0.0
 11
8629.160215034294
 21
1181.600355050263
 31
0.0
  0
LINE
  5
20387
330
747D
100
AcDbEntity
  8
部品1
 48
50.0
100
AcDbLine
 10
8629.160215034294
 20
1253.764973743767
 30
0.0
 11
8629.160215034294
 21
953.7649737437668
 31
0.0
  0
LINE
  5
20388
330
747D
100
AcDbEntity
  8
細線
 48
50.0
100
AcDbLine
 10
8082.972159420362
 20
923.7649737437678
 30
0.0
 11
8074.933683647433
 21
953.7649737437668
 31
0.0
  0
LINE
  5
20389
330
747D
100
AcDbEntity
  8
細線
 48
50.0
100
AcDbLine
 10
8181.582215604422
 20
923.7649737437678
 30
0.0
 11
8173.543739831488
 21
953.7649737437668
 31
0.0
  0
LINE
  5
2038A
330
747D
100
AcDbEntity
  8
細線
 48
50.0
100
AcDbLine
 10
7885.752047052235
 20
923.7649737437678
 30
0.0
 11
7877.713571279301
 21
953.7649737437668
 31
0.0
  0
LINE
  5
2038B
330
747D
100
AcDbEntity
  8
細線
 48
50.0
100
AcDbLine
 10
7984.362103236299
 20
923.7649737437678
 30
0.0
 11
7976.323627463365
 21
953.7649737437668
 31
0.0
  0
LINE
  5
2038C
330
747D
100
AcDbEntity
  8
細線
 48
50.0
100
AcDbLine
 10
8064.565229187712
 20
953.7649737437668
 30
0.0
 11
8469.160215034291
 21
1358.35995959035
 31
0.0
  0
LINE
  5
2038D
330
747D
100
AcDbEntity
  8
細線
 48
50.0
100
AcDbLine
 10
8098.241189641722
 20
953.7649737437668
 30
0.0
 11
8469.160215034293
 21
1324.683999136333
 31
0.0
  0
LINE
  5
2038E
330
747D
100
AcDbEntity
  8
細線
 48
50.0
100
AcDbLine
 10
8131.917150095729
 20
953.7649737437668
 30
0.0
 11
8469.160215034293
 21
1291.008038682339
 31
0.0
  0
LINE
  5
2038F
330
747D
100
AcDbEntity
  8
細線
 48
50.0
100
AcDbLine
 10
8450.617464913483
 20
823.7649737437669
 30
0.0
 11
8458.655940686432
 21
793.7649737437668
 31
0.0
  0
LINE
  5
20390
330
747D
100
AcDbEntity
  8
細線
 48
50.0
100
AcDbLine
 10
8549.227521097543
 20
823.764973743766
 30
0.0
 11
8557.265996870476
 21
793.7649737437659
 31
0.0
  0
LINE
  5
20391
330
747D
100
AcDbEntity
  8
細線
 48
50.0
100
AcDbLine
 10
8253.397352545366
 20
823.7649737437669
 30
0.0
 11
8261.435828318301
 21
793.7649737437668
 31
0.0
  0
LINE
  5
20392
330
747D
100
AcDbEntity
  8
細線
 48
50.0
100
AcDbLine
 10
8352.007408729425
 20
823.7649737437669
 30
0.0
 11
8360.045884502358
 21
793.7649737437668
 31
0.0
  0
LINE
  5
20393
330
747D
100
AcDbEntity
  8
細線
 48
50.0
100
AcDbLine
 10
8056.177240177254
 20
823.7649737437669
 30
0.0
 11
8064.215715950187
 21
793.7649737437668
 31
0.0
  0
LINE
  5
20394
330
747D
100
AcDbEntity
  8
細線
 48
50.0
100
AcDbLine
 10
8154.787296361311
 20
823.7649737437669
 30
0.0
 11
8162.825772134244
 21
793.7649737437668
 31
0.0
  0
LINE
  5
20395
330
747D
100
AcDbEntity
  8
細線
 48
50.0
100
AcDbLine
 10
7858.957127809123
 20
823.7649737437669
 30
0.0
 11
7866.995603582056
 21
793.7649737437668
 31
0.0
  0
LINE
  5
20396
330
747D
100
AcDbEntity
  8
細線
 48
50.0
100
AcDbLine
 10
7957.567183993187
 20
823.7649737437669
 30
0.0
 11
7965.605659766123
 21
793.7649737437668
 31
0.0
  0
LINE
  5
20397
330
747D
100
AcDbEntity
  8
細線
 48
50.0
100
AcDbLine
 10
8442.578989140546
 20
793.7649737437659
 30
0.0
 11
8485.450859929512
 21
953.7649737437668
 31
0.0
  0
LINE
  5
20398
330
747D
100
AcDbEntity
  8
細線
 48
50.0
100
AcDbLine
 10
8541.189045324607
 20
793.7649737437641
 30
0.0
 11
8584.060916113585
 21
953.7649737437641
 31
0.0
  0
LINE
  5
20399
330
747D
100
AcDbEntity
  8
細線
 48
50.0
100
AcDbLine
 10
8245.358876772431
 20
793.7649737437659
 30
0.0
 11
8288.230747561412
 21
953.7649737437659
 31
0.0
  0
LINE
  5
2039A
330
747D
100
AcDbEntity
  8
細線
 48
50.0
100
AcDbLine
 10
8048.138764404312
 20
793.7649737437668
 30
0.0
 11
8091.01063519329
 21
953.7649737437668
 31
0.0
  0
LINE
  5
2039B
330
747D
100
AcDbEntity
  8
細線
 48
50.0
100
AcDbLine
 10
8146.748820588369
 20
793.7649737437668
 30
0.0
 11
8189.620691377351
 21
953.7649737437659
 31
0.0
  0
LINE
  5
2039C
330
747D
100
AcDbEntity
  8
細線
 48
50.0
100
AcDbLine
 10
8343.968932956483
 20
793.7649737437668
 30
0.0
 11
8386.840803745467
 21
953.7649737437659
 31
0.0
  0
LINE
  5
2039D
330
747D
100
AcDbEntity
  8
細線
 48
50.0
100
AcDbLine
 10
7850.918652036189
 20
793.7649737437668
 30
0.0
 11
7893.790522825168
 21
953.7649737437668
 31
0.0
  0
LINE
  5
2039E
330
747D
100
AcDbEntity
  8
細線
 48
50.0
100
AcDbLine
 10
7949.528708220245
 20
793.7649737437659
 30
0.0
 11
7992.400579009225
 21
953.7649737437659
 31
0.0
  0
LINE
  5
2039F
330
747D
100
AcDbEntity
  8
細線
 48
50.0
100
AcDbLine
 10
7791.660215034287
 20
1219.6753268545
 30
0.0
 11
7825.749861923561
 21
1253.764973743767
 31
0.0
  0
LINE
  5
203A0
330
747D
100
AcDbEntity
  8
細線
 48
50.0
100
AcDbLine
 10
7691.660215034294
 20
935.4398749509918
 30
0.0
 11
7696.570410457038
 21
953.7649737437668
 31
0.0
  0
LINE
  5
203A1
330
747D
100
AcDbEntity
  8
細線
 48
50.0
100
AcDbLine
 10
7787.141990868168
 20
923.7649737437678
 30
0.0
 11
7779.103515095235
 21
953.7649737437668
 31
0.0
  0
LINE
  5
203A2
330
747D
100
AcDbEntity
  8
部品1
 48
50.0
100
AcDbLine
 10
7791.660215034294
 20
953.7649737437668
 30
0.0
 11
7791.660215034294
 21
1253.764973743767
 31
0.0
  0
LINE
  5
203A3
330
747D
100
AcDbEntity
  8
細線
 48
50.0
100
AcDbLine
 10
7760.347071625059
 20
823.7649737437669
 30
0.0
 11
7768.385547397992
 21
793.7649737437668
 31
0.0
  0
LINE
  5
203A4
330
747D
100
AcDbEntity
  8
部品1
 48
50.0
100
AcDbLine
 10
7691.660215034296
 20
793.7649737437668
 30
0.0
 11
7691.660215034296
 21
953.7649737437668
 31
0.0
  0
LINE
  5
203A5
330
747D
100
AcDbEntity
  8
細線
 48
50.0
100
AcDbLine
 10
7752.308595852117
 20
793.7649737437659
 30
0.0
 11
7795.180466641095
 21
953.7649737437659
 31
0.0
  0
LINE
  5
203A6
330
747D
100
AcDbEntity
  8
細線
 48
50.0
100
AcDbLine
 10
7791.660215034287
 20
1185.999366400487
 30
0.0
 11
7859.425822377573
 21
1253.764973743767
 31
0.0
  0
LINE
  5
203A7
330
747D
100
AcDbEntity
  8
細線
 48
50.0
100
AcDbLine
 10
7791.660215034287
 20
1152.323405946481
 30
0.0
 11
7893.10178283158
 21
1253.764973743767
 31
0.0
  0
LINE
  5
203A8
330
747D
100
AcDbEntity
  8
部品1
 48
50.0
100
AcDbLine
 10
7791.660215034294
 20
1253.764973743767
 30
0.0
 11
7951.660215034293
 21
1253.764973743767
 31
0.0
  0
LINE
  5
203A9
330
747D
100
AcDbEntity
  8
細線
 48
50.0
100
AcDbLine
 10
7795.157545555636
 20
953.7649737437668
 30
0.0
 11
8469.160215034291
 21
1627.767643222424
 31
0.0
  0
LINE
  5
203AA
330
747D
100
AcDbEntity
  8
部品1
100
AcDbLine
 10
8469.160215034291
 20
1253.764973743767
 30
0.0
 11
8469.160215034293
 21
1933.764973743768
 31
0.0
  0
LINE
  5
203AB
330
747D
100
AcDbEntity
  8
部品1
 48
50.0
100
AcDbLine
 10
7951.660215034293
 20
1253.764973743767
 30
0.0
 11
7951.660215034293
 21
1933.764973743768
 31
0.0
  0
LINE
  5
203AC
330
747D
100
AcDbEntity
  8
細線
 48
50.0
100
AcDbLine
 10
7951.660215034293
 20
1345.99936640049
 30
0.0
 11
8149.660215034284
 21
1543.999366400476
 31
0.0
  0
LINE
  5
203AD
330
747D
100
AcDbEntity
  8
細線
 48
50.0
100
AcDbLine
 10
7951.660215034293
 20
1312.323405946481
 30
0.0
 11
8168.101782831588
 21
1528.764973743766
 31
0.0
  0
LINE
  5
203AE
330
747D
100
AcDbEntity
  8
細線
 48
50.0
100
AcDbLine
 10
7951.660215034293
 20
1379.6753268545
 30
0.0
 11
8149.660215034284
 21
1577.675326854493
 31
0.0
  0
LINE
  5
203AF
330
747D
100
AcDbEntity
  8
細線
 48
50.0
100
AcDbLine
 10
7862.509466463655
 20
953.7649737437668
 30
0.0
 11
8469.160215034293
 21
1560.415722314403
 31
0.0
  0
LINE
  5
203B0
330
747D
100
AcDbEntity
  8
細線
 48
50.0
100
AcDbLine
 10
7828.833506009647
 20
953.7649737437668
 30
0.0
 11
8469.160215034298
 21
1594.091682768411
 31
0.0
  0
TEXT
  5
203B1
330
747D
100
AcDbEntity
  8
部品1
 48
50.0
100
AcDbText
 10
8474.602195389829
 20
2378.613324696518
 30
0.0
 40
100.0
  1
基礎ボルト(市販品)
  7
STYLE2
100
AcDbText
  0
DIMENSION
  5
203B2
330
747D
100
AcDbEntity
  8
寸法
 48
50.0
100
AcDbDimension
  2
*D43
 10
9441.564297394132
 20
1933.764973743768
 30
0.0
 11
9441.564297394132
 21
1467.756070322284
 31
0.0
 70
   160
  1
20～25
 71
     5
 42
65.94999999999981
  3
INABA_S40G
100
AcDbAlignedDimension
 13
8235.160215034294
 23
1999.714973743768
 33
0.0
 14
8469.160215034293
 24
1933.764973743768
 34
0.0
 50
90.0
100
AcDbRotatedDimension
  0
LINE
  5
203B3
330
747D
100
AcDbEntity
  8
細線
 48
50.0
100
AcDbLine
 10
8639.799101508662
 20
793.7649737437659
 30
0.0
 11
8682.670972297643
 21
953.7649737437641
 31
0.0
  0
LINE
  5
203B4
330
747D
100
AcDbEntity
  8
部品1
 48
50.0
100
AcDbLine
 10
8729.160215034296
 20
793.7649737437668
 30
0.0
 11
7691.660215034296
 21
793.7649737437668
 31
0.0
  0
LINE
  5
203B5
330
747D
100
AcDbEntity
  8
細線
 48
50.0
100
AcDbLine
 10
8647.837577281602
 20
823.764973743766
 30
0.0
 11
8655.876053054536
 21
793.7649737437659
 31
0.0
  0
LINE
  5
203B6
330
747D
100
AcDbEntity
  8
部品1
 48
50.0
100
AcDbLine
 10
8729.160215034296
 20
953.7649737437668
 30
0.0
 11
7691.660215034296
 21
953.7649737437668
 31
0.0
  0
LWPOLYLINE
  5
203B7
330
747D
100
AcDbEntity
  8
部品1
 48
50.0
100
AcDbPolyline
 90
        2
 70
     0
 43
10.0
 10
8469.160215034293
 20
1633.76497374377
 10
8836.288294283525
 20
1633.76497374377
  0
DIMENSION
  5
203B8
330
747D
100
AcDbEntity
  8
寸法
 48
50.0
100
AcDbDimension
  2
*D44
 10
9096.495964745349
 20
1528.764973743766
 30
0.0
 11
8996.495964745347
 21
1731.264973743768
 31
0.0
 70
    32
  1
180
 71
     5
 42
405.0000000000022
  3
INABA_S40G
100
AcDbAlignedDimension
 13
8469.160215034293
 23
1933.764973743768
 33
0.0
 14
8469.160215034293
 24
1528.764973743766
 34
0.0
 50
90.0
100
AcDbRotatedDimension
  0
MTEXT
  5
203B9
102
{ACAD_REACTORS
330
203BA
102
}
330
747D
100
AcDbEntity
  8
部品1
 62
     7
 48
50.0
100
AcDbMText
 10
8480.340793058442
 20
2264.244131435306
 30
0.0
 40
100.0
 41
1.0
 71
     4
 72
     1
  1
M10X160
  7
STYLE2
 73
     1
 44
1.0
1001
ACAD
1000
MTEXTBEGIN
1070
    73
1070
     1
1070
    44
1040
1.0
1070
    74
1070
     0
1000
MTEXTEND
  0
LEADER
  5
203BA
330
747D
100
AcDbEntity
  8
寸法
 48
50.0
100
AcDbLeader
  3
INABA_S40G
 71
     0
 73
     0
 74
     0
 75
     1
 40
100.0
 41
543.75
 76
     3
 10
8239.660215034293
 20
1995.214973743768
 30
0.0
 10
8340.340793058443
 20
2174.244131435306
 30
0.0
 10
8440.340793058442
 20
2174.244131435306
 30
0.0
  0
LINE
  5
203BB
330
747D
100
AcDbEntity
  8
細線
 48
50.0
100
AcDbLine
 10
5826.611073562801
 20
1884.81473366464
 30
0.0
 11
5875.561313641933
 21
1933.764973743768
 31
0.0
  0
LINE
  5
203BC
330
747D
100
AcDbEntity
  8
細線
 48
50.0
100
AcDbLine
 10
5826.611073562801
 20
1851.13877321063
 30
0.0
 11
5909.237274095938
 21
1933.764973743768
 31
0.0
  0
LINE
  5
203BD
330
747D
100
AcDbEntity
  8
細線
 48
50.0
100
AcDbLine
 10
5826.611073562801
 20
1918.490694118649
 30
0.0
 11
5841.885353187919
 21
1933.764973743768
 31
0.0
  0
ARC
  5
203BE
330
747D
100
AcDbEntity
  8
部品1
 48
50.0
100
AcDbCircle
 10
5946.611073562801
 20
1759.083010486574
 30
0.0
 40
30.0
100
AcDbArc
 50
0.0
 51
180.0
  0
CIRCLE
  5
203BF
330
747D
100
AcDbEntity
  8
部品1
 48
50.0
100
AcDbCircle
 10
5946.611073562801
 20
1759.083010486574
 30
0.0
 40
10.0
  0
LINE
  5
203C0
330
747D
100
AcDbEntity
  8
細線
 48
50.0
100
AcDbLine
 10
5936.611073562801
 20
1725.407050032565
 30
0.0
 11
5956.6110735628
 21
1745.407050032565
 31
0.0
  0
LINE
  5
203C1
330
747D
100
AcDbEntity
  8
細線
 48
50.0
100
AcDbLine
 10
5976.611073562801
 20
1731.731089578555
 30
0.0
 11
6066.611073562801
 21
1821.731089578556
 31
0.0
  0
LINE
  5
203C2
330
747D
100
AcDbEntity
  8
細線
 48
50.0
100
AcDbLine
 10
5976.051957645284
 20
1764.847934115045
 30
0.0
 11
6066.611073562801
 21
1855.407050032565
 31
0.0
  0
LINE
  5
203C3
330
747D
100
AcDbEntity
  8
細線
 48
50.0
100
AcDbLine
 10
5962.226601690889
 20
1784.698538614662
 30
0.0
 11
6066.611073562801
 21
1889.083010486574
 31
0.0
  0
LINE
  5
203C4
330
747D
100
AcDbEntity
  8
部品1
 48
50.0
100
AcDbLine
 10
5826.611073562801
 20
1933.764973743768
 30
0.0
 11
6066.611073562801
 21
1933.764973743768
 31
0.0
  0
LINE
  5
203C5
330
747D
100
AcDbEntity
  8
細線
 48
50.0
100
AcDbLine
 10
5826.611073562801
 20
1581.731089578556
 30
0.0
 11
5931.30397609942
 21
1686.423992115171
 31
0.0
  0
LINE
  5
203C6
330
747D
100
AcDbEntity
  8
部品1
 48
50.0
100
AcDbLine
 10
5936.611073562801
 20
1686.423992115171
 30
0.0
 11
5916.611073562801
 21
1686.423992115175
 31
0.0
  0
LINE
  5
203C7
330
747D
100
AcDbEntity
  8
細線
 48
50.0
100
AcDbLine
 10
5976.611073562808
 20
1462.323405946481
 30
0.0
 11
6066.611073562794
 21
1552.323405946481
 31
0.0
  0
LINE
  5
203C8
330
747D
100
AcDbEntity
  8
細線
 48
50.0
100
AcDbLine
 10
5976.611073562801
 20
1529.675326854499
 30
0.0
 11
6066.611073562801
 21
1619.6753268545
 31
0.0
  0
LINE
  5
203C9
330
747D
100
AcDbEntity
  8
細線
 48
50.0
100
AcDbLine
 10
5976.611073562808
 20
1495.999366400494
 30
0.0
 11
6066.611073562794
 21
1585.999366400487
 31
0.0
  0
LINE
  5
203CA
330
747D
100
AcDbEntity
  8
細線
 48
50.0
100
AcDbLine
 10
5826.611073562801
 20
1615.407050032565
 30
0.0
 11
5916.611073562801
 21
1705.407050032565
 31
0.0
  0
LINE
  5
203CB
330
747D
100
AcDbEntity
  8
細線
 48
50.0
100
AcDbLine
 10
5826.611073562801
 20
1649.083010486574
 30
0.0
 11
5916.611073562801
 21
1739.083010486574
 31
0.0
  0
LINE
  5
203CC
330
747D
100
AcDbEntity
  8
細線
 48
50.0
100
AcDbLine
 10
5936.611073562801
 20
1691.731089578556
 30
0.0
 11
5956.6110735628
 21
1711.731089578556
 31
0.0
  0
LINE
  5
203CD
330
747D
100
AcDbEntity
  8
部品1
 48
50.0
100
AcDbLine
 10
5916.611073562801
 20
1686.423992115175
 30
0.0
 11
5916.611073562801
 21
1759.083010486574
 31
0.0
  0
LINE
  5
203CE
330
747D
100
AcDbEntity
  8
部品1
 48
50.0
100
AcDbLine
 10
5936.611073562801
 20
1686.423992115171
 30
0.0
 11
5936.611073562801
 21
1759.083010486574
 31
0.0
  0
LEADER
  5
203CF
330
747D
100
AcDbEntity
  8
寸法
 48
50.0
100
AcDbLeader
  3
INABA_S40G
 71
     0
 73
     0
 74
     0
 75
     1
 40
100.0
 41
222.7272727272727
 76
     3
 10
5946.611073562799
 20
1759.083010486574
 30
0.0
 10
6045.218494847044
 20
1685.349425367427
 30
0.0
 10
6145.218494847044
 20
1685.349425367427
 30
0.0
  0
LWPOLYLINE
  5
203D0
330
747D
100
AcDbEntity
  8
部品1
 48
50.0
100
AcDbPolyline
 90
        2
 70
     0
 43
10.0
 10
6066.611073562799
 20
1633.76497374377
 10
6584.285950853999
 20
1633.76497374377
  0
MTEXT
  5
203D1
102
{ACAD_REACTORS
330
203CF
102
}
330
747D
100
AcDbEntity
  8
寸法
 62
     7
 48
50.0
100
AcDbMText
 10
6170.218494847044
 20
1760.349425367427
 30
0.0
 40
100.0
 41
1.0
 71
     4
 72
     1
  1
D13
  7
STYLE2
 73
     1
 44
1.0
1001
ACAD
1000
MTEXTBEGIN
1070
    73
1070
     1
1070
    44
1040
1.0
1070
    74
1070
     0
1000
MTEXTEND
  0
LINE
  5
203D2
330
747D
100
AcDbEntity
  8
細線
 48
50.0
100
AcDbLine
 10
6253.753186501047
 20
923.7649737437678
 30
0.0
 11
6245.714710728111
 21
953.7649737437668
 31
0.0
  0
LINE
  5
203D3
330
747D
100
AcDbEntity
  8
細線
 48
50.0
100
AcDbLine
 10
6208.923771348293
 20
953.7649737437668
 30
0.0
 11
6226.611073562801
 21
971.4522759582759
 31
0.0
  0
MTEXT
  5
203D4
102
{ACAD_REACTORS
330
20413
102
}
330
747D
100
AcDbEntity
  8
寸法
 62
     7
 48
50.0
100
AcDbMText
 10
6355.770648321157
 20
1059.518637565051
 30
0.0
 40
100.0
 41
1.0
 71
     4
 72
     1
  1
D10
  7
STYLE2
 73
     1
 44
1.0
1001
ACAD
1000
MTEXTBEGIN
1070
    73
1070
     1
1070
    44
1040
1.0
1070
    74
1070
     0
1000
MTEXTEND
  0
LINE
  5
203D5
330
747D
100
AcDbEntity
  8
部品1
 48
50.0
100
AcDbLine
 10
6226.611073562801
 20
1253.764973743767
 30
0.0
 11
6226.611073562801
 21
953.7649737437668
 31
0.0
  0
LINE
  5
203D6
330
747D
100
AcDbEntity
  8
細線
 48
50.0
100
AcDbLine
 10
6226.958267257932
 20
823.7649737437669
 30
0.0
 11
6234.996743030865
 21
793.7649737437668
 31
0.0
  0
LINE
  5
203D7
330
747D
100
AcDbEntity
  8
細線
 48
50.0
100
AcDbLine
 10
6325.568323441991
 20
823.7649737437669
 30
0.0
 11
6326.611073562801
 21
819.8733773133117
 31
0.0
  0
LINE
  5
203D8
330
747D
100
AcDbEntity
  8
細線
 48
50.0
100
AcDbLine
 10
6317.529847669055
 20
793.7649737437659
 30
0.0
 11
6326.611073562801
 21
827.6565701742528
 31
0.0
  0
MTEXT
  5
203D9
102
{ACAD_REACTORS
330
20411
102
}
330
747D
100
AcDbEntity
  8
寸法
 62
     7
 48
50.0
100
AcDbMText
 10
6368.784143389365
 20
732.0786165785757
 30
0.0
 40
100.0
 41
1.0
 71
     4
 72
     1
  1
\A1;D10@300
  7
STYLE2
 73
     1
 44
1.0
1001
ACAD
1000
MTEXTBEGIN
1070
    73
1070
     1
1070
    44
1040
1.0
1070
    74
1070
     0
1000
MTEXTEND
  0
LINE
  5
203DA
330
747D
100
AcDbEntity
  8
部品1
 48
50.0
100
AcDbLine
 10
6326.611073562805
 20
953.7649737437668
 30
0.0
 11
6326.611073562805
 21
793.7649737437668
 31
0.0
  0
LINE
  5
203DB
330
747D
100
AcDbEntity
  8
細線
 48
50.0
100
AcDbLine
 10
6218.919791484992
 20
793.7649737437668
 30
0.0
 11
6261.791662273974
 21
953.7649737437659
 31
0.0
  0
LINE
  5
203DC
330
747D
100
AcDbEntity
  8
部品1
 48
50.0
100
AcDbLine
 10
5936.611073562801
 20
1176.423992115171
 30
0.0
 11
5916.611073562801
 21
1176.423992115171
 31
0.0
  0
LINE
  5
203DD
330
747D
100
AcDbEntity
  8
細線
 48
50.0
100
AcDbLine
 10
5926.443382909556
 20
1176.423992115171
 30
0.0
 11
5956.611073562807
 21
1206.591682768419
 31
0.0
  0
LINE
  5
203DE
330
747D
100
AcDbEntity
  8
細線
 48
50.0
100
AcDbLine
 10
5936.611073562801
 20
1152.915722314406
 30
0.0
 11
5956.611073562807
 21
1172.915722314406
 31
0.0
  0
LINE
  5
203DF
330
747D
100
AcDbEntity
  8
細線
 48
50.0
100
AcDbLine
 10
5976.611073562808
 20
1226.591682768419
 30
0.0
 11
6066.611073562794
 21
1316.591682768412
 31
0.0
  0
LINE
  5
203E0
330
747D
100
AcDbEntity
  8
細線
 48
50.0
100
AcDbLine
 10
5976.611073562808
 20
1260.267643222429
 30
0.0
 11
6066.611073562794
 21
1350.267643222425
 31
0.0
  0
LINE
  5
203E1
330
747D
100
AcDbEntity
  8
細線
 48
50.0
100
AcDbLine
 10
5976.611073562808
 20
1192.915722314406
 30
0.0
 11
6066.611073562794
 21
1282.915722314406
 31
0.0
  0
LINE
  5
203E2
330
747D
100
AcDbEntity
  8
細線
 48
50.0
100
AcDbLine
 10
6006.868008624237
 20
953.7649737437668
 30
0.0
 11
6126.869118430658
 21
1073.766083550192
 31
0.0
  0
LINE
  5
203E3
330
747D
100
AcDbEntity
  8
部品1
 48
50.0
100
AcDbLine
 10
6156.611073562801
 20
1093.764973743767
 30
0.0
 11
6156.611073562801
 21
1073.764973743767
 31
0.0
  0
LINE
  5
203E4
330
747D
100
AcDbEntity
  8
細線
 48
50.0
100
AcDbLine
 10
6155.143130316987
 20
923.7649737437678
 30
0.0
 11
6147.104654544053
 21
953.7649737437668
 31
0.0
  0
CIRCLE
  5
203E5
330
747D
100
AcDbEntity
  8
部品1
 48
50.0
100
AcDbCircle
 10
6106.611073562801
 20
1103.764973743767
 30
0.0
 40
10.0
  0
LINE
  5
203E6
330
747D
100
AcDbEntity
  8
細線
 48
50.0
100
AcDbLine
 10
6056.533074132929
 20
923.7649737437678
 30
0.0
 11
6048.494598359996
 21
953.7649737437668
 31
0.0
  0
ARC
  5
203E7
330
747D
100
AcDbEntity
  8
部品1
 48
50.0
100
AcDbCircle
 10
5946.611073562801
 20
1103.764973743767
 30
0.0
 40
30.0
100
AcDbArc
 50
340.5287793654919
 51
0.0
  0
LINE
  5
203E8
330
747D
100
AcDbEntity
  8
細線
 48
50.0
100
AcDbLine
 10
5957.923017948871
 20
923.7649737437678
 30
0.0
 11
5949.884542175937
 21
953.7649737437668
 31
0.0
  0
ARC
  5
203E9
330
747D
100
AcDbEntity
  8
部品1
 48
50.0
100
AcDbCircle
 10
5946.611073562801
 20
1103.764973743767
 30
0.0
 40
30.0
100
AcDbArc
 50
180.0
 51
199.4712206345081
  0
LINE
  5
203EA
330
747D
100
AcDbEntity
  8
細線
 48
50.0
100
AcDbLine
 10
5859.312961764807
 20
923.7649737437678
 30
0.0
 11
5851.274485991873
 21
953.7649737437668
 31
0.0
  0
CIRCLE
  5
203EB
330
747D
100
AcDbEntity
  8
部品1
 48
50.0
100
AcDbCircle
 10
5946.611073562801
 20
1103.764973743767
 30
0.0
 40
10.0
  0
LINE
  5
203EC
330
747D
100
AcDbEntity
  8
細線
 48
50.0
100
AcDbLine
 10
5973.192048170231
 20
953.7649737437668
 30
0.0
 11
6093.192048170231
 21
1073.764973743767
 31
0.0
  0
LINE
  5
203ED
330
747D
100
AcDbEntity
  8
細線
 48
50.0
100
AcDbLine
 10
5939.516087716218
 20
953.7649737437668
 30
0.0
 11
6059.516087716218
 21
1073.764973743767
 31
0.0
  0
LINE
  5
203EE
330
747D
100
AcDbEntity
  8
細線
 48
50.0
100
AcDbLine
 10
5810.108404084143
 20
1093.764973743767
 30
0.0
 11
5956.6110735628
 21
1240.267643222425
 31
0.0
  0
LINE
  5
203EF
330
747D
100
AcDbEntity
  8
細線
 48
50.0
100
AcDbLine
 10
5877.460324992162
 20
1093.764973743767
 30
0.0
 11
5916.611073562801
 21
1132.915722314406
 31
0.0
  0
LINE
  5
203F0
330
747D
100
AcDbEntity
  8
部品1
 48
50.0
100
AcDbLine
 10
5916.611073562801
 20
1176.423992115171
 30
0.0
 11
5916.611073562801
 21
1103.764973743767
 31
0.0
  0
LINE
  5
203F1
330
747D
100
AcDbEntity
  8
細線
 48
50.0
100
AcDbLine
 10
5843.784364538156
 20
1093.764973743767
 30
0.0
 11
5916.611073562801
 21
1166.591682768416
 31
0.0
  0
LINE
  5
203F2
330
747D
100
AcDbEntity
  8
部品1
 48
50.0
100
AcDbLine
 10
5936.611073562801
 20
1176.423992115171
 30
0.0
 11
5936.611073562801
 21
1103.764973743767
 31
0.0
  0
LINE
  5
203F3
330
747D
100
AcDbEntity
  8
細線
 48
50.0
100
AcDbLine
 10
5666.611073562794
 20
1185.999366400487
 30
0.0
 11
5734.376680906081
 21
1253.764973743767
 31
0.0
  0
LINE
  5
203F4
330
747D
100
AcDbEntity
  8
細線
 48
50.0
100
AcDbLine
 10
5666.611073562794
 20
1219.6753268545
 30
0.0
 11
5700.700720452068
 21
1253.764973743767
 31
0.0
  0
LINE
  5
203F5
330
747D
100
AcDbEntity
  8
細線
 48
50.0
100
AcDbLine
 10
5666.611073562794
 20
1152.323405946481
 30
0.0
 11
5768.052641360087
 21
1253.764973743767
 31
0.0
  0
LINE
  5
203F6
330
747D
100
AcDbEntity
  8
部品1
 48
50.0
100
AcDbLine
 10
5736.611073562801
 20
1093.764973743767
 30
0.0
 11
5736.611073562801
 21
1073.764973743767
 31
0.0
  0
LINE
  5
203F7
330
747D
100
AcDbEntity
  8
細線
 48
50.0
100
AcDbLine
 10
5760.702905580742
 20
923.7649737437678
 30
0.0
 11
5752.664429807808
 21
953.7649737437668
 31
0.0
  0
LINE
  5
203F8
330
747D
100
AcDbEntity
  8
細線
 48
50.0
100
AcDbLine
 10
5662.092849396676
 20
923.7649737437678
 30
0.0
 11
5654.054373623743
 21
953.7649737437668
 31
0.0
  0
LINE
  5
203F9
330
747D
100
AcDbEntity
  8
細線
 48
50.0
100
AcDbLine
 10
5566.611073562801
 20
935.4398749509918
 30
0.0
 11
5571.521268985545
 21
953.7649737437668
 31
0.0
  0
LINE
  5
203FA
330
747D
100
AcDbEntity
  8
部品1
 48
50.0
100
AcDbLine
 10
5666.611073562801
 20
953.7649737437668
 30
0.0
 11
5666.611073562801
 21
1253.764973743767
 31
0.0
  0
LINE
  5
203FB
330
747D
100
AcDbEntity
  8
部品1
 48
50.0
100
AcDbLine
 10
5736.611073562801
 20
1073.764973743767
 30
0.0
 11
6156.611073562801
 21
1073.764973743767
 31
0.0
  0
LINE
  5
203FC
330
747D
100
AcDbEntity
  8
部品1
 48
50.0
100
AcDbLine
 10
5736.611073562801
 20
1093.764973743767
 30
0.0
 11
6156.611073562801
 21
1093.764973743767
 31
0.0
  0
LINE
  5
203FD
330
747D
100
AcDbEntity
  8
細線
 48
50.0
100
AcDbLine
 10
5737.460324992162
 20
953.7649737437668
 30
0.0
 11
5857.460324992162
 21
1073.764973743767
 31
0.0
  0
CIRCLE
  5
203FE
330
747D
100
AcDbEntity
  8
部品1
 48
50.0
100
AcDbCircle
 10
5786.611073562801
 20
1103.764973743767
 30
0.0
 40
10.0
  0
LINE
  5
203FF
330
747D
100
AcDbEntity
  8
細線
 48
50.0
100
AcDbLine
 10
5703.784364538156
 20
953.7649737437668
 30
0.0
 11
5823.784364538156
 21
1073.764973743767
 31
0.0
  0
LINE
  5
20400
330
747D
100
AcDbEntity
  8
細線
 48
50.0
100
AcDbLine
 10
5670.108404084143
 20
953.7649737437668
 30
0.0
 11
5790.108404084143
 21
1073.764973743767
 31
0.0
  0
LINE
  5
20401
330
747D
100
AcDbEntity
  8
部品1
 48
50.0
100
AcDbLine
 10
5666.611073562801
 20
1253.764973743767
 30
0.0
 11
5826.611073562801
 21
1253.764973743767
 31
0.0
  0
LINE
  5
20402
330
747D
100
AcDbEntity
  8
細線
 48
50.0
100
AcDbLine
 10
6029.738154889817
 20
823.7649737437669
 30
0.0
 11
6037.776630662751
 21
793.7649737437668
 31
0.0
  0
LINE
  5
20403
330
747D
100
AcDbEntity
  8
細線
 48
50.0
100
AcDbLine
 10
6128.348211073875
 20
823.7649737437669
 30
0.0
 11
6136.386686846808
 21
793.7649737437668
 31
0.0
  0
LINE
  5
20404
330
747D
100
AcDbEntity
  8
細線
 48
50.0
100
AcDbLine
 10
5832.518042521694
 20
823.7649737437669
 30
0.0
 11
5840.556518294628
 21
793.7649737437668
 31
0.0
  0
LINE
  5
20405
330
747D
100
AcDbEntity
  8
細線
 48
50.0
100
AcDbLine
 10
5931.12809870576
 20
823.7649737437669
 30
0.0
 11
5939.166574478694
 21
793.7649737437668
 31
0.0
  0
LINE
  5
20406
330
747D
100
AcDbEntity
  8
細線
 48
50.0
100
AcDbLine
 10
5635.297930153566
 20
823.7649737437669
 30
0.0
 11
5643.336405926499
 21
793.7649737437668
 31
0.0
  0
LINE
  5
20407
330
747D
100
AcDbEntity
  8
細線
 48
50.0
100
AcDbLine
 10
5733.90798633763
 20
823.7649737437669
 30
0.0
 11
5741.946462110564
 21
793.7649737437668
 31
0.0
  0
LINE
  5
20408
330
747D
100
AcDbEntity
  8
細線
 48
50.0
100
AcDbLine
 10
6021.699679116877
 20
793.7649737437668
 30
0.0
 11
6064.571549905859
 21
953.7649737437659
 31
0.0
  0
LINE
  5
20409
330
747D
100
AcDbEntity
  8
細線
 48
50.0
100
AcDbLine
 10
5725.869510564696
 20
793.7649737437668
 30
0.0
 11
5768.741381353675
 21
953.7649737437668
 31
0.0
  0
LINE
  5
2040A
330
747D
100
AcDbEntity
  8
細線
 48
50.0
100
AcDbLine
 10
5824.479566748754
 20
793.7649737437659
 30
0.0
 11
5867.351437537733
 21
953.7649737437659
 31
0.0
  0
LINE
  5
2040B
330
747D
100
AcDbEntity
  8
細線
 48
50.0
100
AcDbLine
 10
5627.259454380624
 20
793.7649737437659
 30
0.0
 11
5670.131325169602
 21
953.7649737437659
 31
0.0
  0
LINE
  5
2040C
330
747D
100
AcDbEntity
  8
部品1
 48
50.0
100
AcDbLine
 10
5566.611073562804
 20
793.7649737437668
 30
0.0
 11
5566.611073562804
 21
953.7649737437668
 31
0.0
  0
LINE
  5
2040D
330
747D
100
AcDbEntity
  8
細線
 48
50.0
100
AcDbLine
 10
5923.08962293282
 20
793.7649737437668
 30
0.0
 11
5965.961493721797
 21
953.7649737437668
 31
0.0
  0
LINE
  5
2040E
330
747D
100
AcDbEntity
  8
細線
 48
50.0
100
AcDbLine
 10
6120.309735300939
 20
793.7649737437659
 30
0.0
 11
6163.181606089916
 21
953.7649737437659
 31
0.0
  0
LINE
  5
2040F
330
747D
100
AcDbEntity
  8
部品1
 48
50.0
100
AcDbLine
 10
6326.611073562805
 20
793.7649737437668
 30
0.0
 11
5566.611073562804
 21
793.7649737437668
 31
0.0
  0
LINE
  5
20410
330
747D
100
AcDbEntity
  8
部品1
 48
50.0
100
AcDbLine
 10
6326.611073562805
 20
953.7649737437668
 30
0.0
 11
5566.611073562804
 21
953.7649737437668
 31
0.0
  0
LEADER
  5
20411
330
747D
100
AcDbEntity
  8
寸法
 48
50.0
100
AcDbLeader
  3
INABA_S40G
 71
     0
 73
     0
 74
     0
 75
     1
 40
100.0
 41
540.3409090909091
 76
     3
 10
6039.042534829269
 20
1082.83931072686
 30
0.0
 10
6243.784143389365
 20
655.8007882332385
 30
0.0
 10
6343.784143389364
 20
655.8007882332385
 30
0.0
213
0.0
223
-1.277828345336728
233
0.0
  0
DIMENSION
  5
20412
330
747D
100
AcDbEntity
  8
寸法
 48
50.0
100
AcDbDimension
  2
*D45
 10
6226.611073562801
 20
494.8128672878338
 30
0.0
 11
5946.611073562799
 21
494.8128672878338
 31
0.0
 70
   160
  1
300
 71
     5
 42
560.0000000000018
  3
INABA_S40G
100
AcDbAlignedDimension
 13
5666.611073562799
 23
793.7649737437668
 33
0.0
 14
6226.611073562801
 24
793.7649737437668
 34
0.0
100
AcDbRotatedDimension
  0
LEADER
  5
20413
330
747D
100
AcDbEntity
  8
寸法
 48
50.0
100
AcDbLeader
  3
INABA_S40G
 71
     0
 73
     0
 74
     0
 75
     1
 40
100.0
 41
225.0
 76
     3
 10
6106.489764002979
 20
1103.764973743767
 30
0.0
 10
6230.770648321157
 20
984.5186375650518
 30
0.0
 10
6330.770648321156
 20
984.5186375650518
 30
0.0
  0
LINE
  5
20414
330
747D
100
AcDbEntity
  8
細線
 48
50.0
100
AcDbLine
 10
6079.516087716211
 20
1093.764973743767
 30
0.0
 11
6226.611073562801
 21
1240.85995959035
 31
0.0
  0
LINE
  5
20415
330
747D
100
AcDbEntity
  8
細線
 48
50.0
100
AcDbLine
 10
6146.868008624236
 20
1093.764973743767
 30
0.0
 11
6226.611073562801
 21
1173.508038682332
 31
0.0
  0
LINE
  5
20416
330
747D
100
AcDbEntity
  8
細線
 48
50.0
100
AcDbLine
 10
6113.192048170231
 20
1093.764973743767
 30
0.0
 11
6226.611073562801
 21
1207.183999136341
 31
0.0
  0
LINE
  5
20417
330
747D
100
AcDbEntity
  8
部品1
 48
50.0
100
AcDbLine
 10
6066.611073562801
 20
1253.764973743767
 30
0.0
 11
6226.611073562801
 21
1253.764973743767
 31
0.0
  0
LINE
  5
20418
330
747D
100
AcDbEntity
  8
部品1
 48
50.0
100
AcDbLine
 10
5976.611073562808
 20
1103.764973743767
 30
0.0
 11
5976.611073562801
 21
1759.083010486574
 31
0.0
  0
LINE
  5
20419
330
747D
100
AcDbEntity
  8
部品1
 48
50.0
100
AcDbLine
 10
5956.611073562807
 20
1103.764973743767
 30
0.0
 11
5956.611073562793
 21
1759.083010486574
 31
0.0
  0
LINE
  5
2041A
330
747D
100
AcDbEntity
  8
部品1
 48
50.0
100
AcDbLine
 10
5826.611073562801
 20
1253.764973743767
 30
0.0
 11
5826.611073562801
 21
1933.764973743768
 31
0.0
  0
LINE
  5
2041B
330
747D
100
AcDbEntity
  8
細線
 48
50.0
100
AcDbLine
 10
5826.611073562801
 20
1345.99936640049
 30
0.0
 11
5956.611073562807
 21
1475.999366400494
 31
0.0
  0
LINE
  5
2041C
330
747D
100
AcDbEntity
  8
細線
 48
50.0
100
AcDbLine
 10
5826.611073562801
 20
1379.6753268545
 30
0.0
 11
5956.6110735628
 21
1509.6753268545
 31
0.0
  0
LINE
  5
2041D
330
747D
100
AcDbEntity
  8
細線
 48
50.0
100
AcDbLine
 10
5826.611073562801
 20
1312.323405946481
 30
0.0
 11
5956.611073562807
 21
1442.323405946481
 31
0.0
  0
LINE
  5
2041E
330
747D
100
AcDbEntity
  8
部品1
 48
50.0
100
AcDbLine
 10
6066.611073562801
 20
1933.764973743768
 30
0.0
 11
6066.611073562801
 21
1253.764973743767
 31
0.0
  0
MTEXT
  5
2041F
102
{ACAD_REACTORS
330
20420
102
}
330
747D
100
AcDbEntity
  8
寸法
 62
     7
 48
50.0
100
AcDbMText
 10
5452.942290818808
 20
849.3616067207222
 30
0.0
 40
100.0
 41
1.0
 71
     6
 72
     1
  1
D10
  7
STYLE2
 73
     1
 44
1.0
1001
ACAD
1000
MTEXTBEGIN
1070
    73
1070
     1
1070
    44
1040
1.0
1070
    74
1070
     0
1000
MTEXTEND
  0
LEADER
  5
20420
330
747D
100
AcDbEntity
  8
寸法
 48
50.0
100
AcDbLeader
  3
INABA_S40G
 71
     0
 73
     0
 75
     1
 40
100.0
 41
225.0
 76
     3
 10
5786.489764002979
 20
1103.764973743767
 30
0.0
 10
5577.942290818806
 20
774.3616067207222
 30
0.0
 10
5477.942290818806
 20
774.3616067207222
 30
0.0
  0
LEADER
  5
20421
330
747D
100
AcDbEntity
  8
寸法
 48
50.0
100
AcDbLeader
  3
INABA_S40G
 71
     0
 73
     0
 75
     1
 40
100.0
 41
222.7272727272727
 76
     3
 10
5946.611073562799
 20
1103.764973743767
 30
0.0
 10
5613.095700265602
 20
548.966416046418
 30
0.0
 10
5513.095700265601
 20
548.966416046418
 30
0.0
  0
MTEXT
  5
20422
102
{ACAD_REACTORS
330
20421
102
}
330
747D
100
AcDbEntity
  8
寸法
 62
     7
 48
50.0
100
AcDbMText
 10
5488.095700265602
 20
623.966416046418
 30
0.0
 40
100.0
 41
1.0
 71
     6
 72
     1
  1
D13
  7
STYLE2
 73
     1
 44
1.0
1001
ACAD
1000
MTEXTBEGIN
1070
    73
1070
     1
1070
    44
1040
1.0
1070
    74
1070
     0
1000
MTEXTEND
  0
MTEXT
  5
20423
102
{ACAD_REACTORS
330
20424
102
}
330
747D
100
AcDbEntity
  8
寸法
 62
     7
 48
50.0
100
AcDbMText
 10
5715.048505784294
 20
1435.390727265588
 30
0.0
 40
100.0
 41
1.0
 71
     6
 72
     1
  1
\A1;D10@300
  7
STYLE2
 73
     1
 44
1.0
1001
ACAD
1000
MTEXTBEGIN
1070
    73
1070
     1
1070
    44
1040
1.0
1070
    74
1070
     0
1000
MTEXTEND
  0
LEADER
  5
20424
330
747D
100
AcDbEntity
  8
寸法
 48
50.0
100
AcDbLeader
  3
INABA_S40G
 71
     0
 73
     0
 75
     1
 40
100.0
 41
540.3409090909091
 76
     3
 10
5956.6110735628
 20
1631.423992115171
 30
0.0
 10
5827.883277901928
 20
1354.586081439166
 30
0.0
 10
5727.883277901929
 20
1354.586081439166
 30
0.0
213
-12.16522788236671
223
-5.804645826423211
233
0.0
  0
LEADER
  5
20425
330
747D
100
AcDbEntity
  8
寸法
 48
50.0
100
AcDbLeader
  3
INABA_S40G
 71
     0
 73
     0
 75
     1
 40
130.1136363636363
 41
651.1363636363636
 76
     3
 10
5926.611073562801
 20
1933.764973743768
 30
0.0
 10
5867.693073644517
 20
2109.353430564502
 30
0.0
 10
5767.693073644517
 20
2109.353430564502
 30
0.0
  0
MTEXT
  5
20426
102
{ACAD_REACTORS
330
20425
102
}
330
747D
100
AcDbEntity
  8
寸法
 62
     7
 48
50.0
100
AcDbMText
 10
5742.693073644517
 20
2199.410248746321
 30
0.0
 40
100.0
 41
1.0
 71
     6
 72
     1
  1
\A1;金コテ押エ
  7
STYLE2
 73
     1
 44
1.0
1001
ACAD
1000
MTEXTBEGIN
1070
    73
1070
     1
1070
    44
1040
1.0
1070
    74
1070
     0
1000
MTEXTEND
  0
DIMENSION
  5
20427
330
747D
100
AcDbEntity
  8
寸法
 48
50.0
100
AcDbDimension
  2
*D46
 10
5065.966135526736
 20
953.764973743767
 30
0.0
 11
5065.966135526736
 21
1443.764973743768
 31
0.0
 70
   160
  1
540
 71
     5
 42
980.0000000000014
  3
INABA_S40G
100
AcDbAlignedDimension
 13
5826.611073562799
 23
1933.764973743768
 33
0.0
 14
5566.611073562804
 24
953.7649737437668
 34
0.0
 50
90.0
100
AcDbRotatedDimension
  0
DIMENSION
  5
20428
330
747D
100
AcDbEntity
  8
寸法
 48
50.0
100
AcDbDimension
  2
*D47
 10
5488.585681397226
 20
953.7649737437668
 30
0.0
 11
5488.585681397226
 21
1103.764973743767
 31
0.0
 70
   160
  1
150
 71
     5
 42
300.0000000000001
  3
INABA_S40G
100
AcDbAlignedDimension
 13
5666.611073562799
 23
1253.764973743767
 33
0.0
 14
5566.611073562804
 24
953.7649737437668
 34
0.0
 50
90.0
100
AcDbRotatedDimension
  0
LWPOLYLINE
  5
20429
330
747D
100
AcDbEntity
  8
部品1
 48
50.0
100
AcDbPolyline
 90
        2
 70
     0
 43
10.0
 10
5308.936196271605
 20
1633.76497374377
 10
5826.611073562799
 20
1633.76497374377
  0
TEXT
  5
2042A
330
747D
100
AcDbEntity
  8
部品1
 48
50.0
100
AcDbText
 10
5308.936196271605
 20
1647.813714097837
 30
0.0
 40
100.0
  1
▽G.L
  7
STYLE2
100
AcDbText
  0
LEADER
  5
2042B
330
747D
100
AcDbEntity
  8
寸法
 48
50.0
100
AcDbLeader
  3
INABA_S40G
 71
     0
 73
     0
 75
     1
 40
132.9545454545455
 41
1129.404378023068
 76
     3
 10
8115.910215034293
 20
2020.714973743768
 30
0.0
 10
8007.88012460312
 20
2479.539442139183
 30
0.0
 10
7907.880124603121
 20
2479.539442139183
 30
0.0
  0
MTEXT
  5
2042C
102
{ACAD_REACTORS
330
2042B
102
}
330
747D
100
AcDbEntity
  8
寸法
 62
     7
 48
50.0
100
AcDbMText
 10
7867.88012460312
 20
2586.016714866457
 30
0.0
 40
100.0
 41
1.0
 71
     6
 72
     1
  1
アンカープレート {\fArial|b0|i0|c0|p32;U}
  7
STYLE2
 73
     1
 44
1.0
1001
ACAD
1000
MTEXTBEGIN
1070
    73
1070
     1
1070
    44
1040
1.0
1070
    74
1070
     0
1000
MTEXTEND
  0
MTEXT
  5
2042D
102
{ACAD_REACTORS
330
2042E
102
}
330
747D
100
AcDbEntity
  8
部品1
 62
     7
 48
50.0
100
AcDbMText
 10
8478.85267892599
 20
3040.595543558828
 30
0.0
 40
100.0
 41
1.0
 71
     4
 72
     1
  1
\A1;ナット(市販品)
  7
STYLE2
 73
     1
 44
1.0
1001
ACAD
1000
MTEXTBEGIN
1070
    73
1070
     1
1070
    44
1040
1.0
1070
    74
1070
     0
1000
MTEXTEND
  0
LEADER
  5
2042E
330
747D
100
AcDbEntity
  8
寸法
 48
50.0
100
AcDbLeader
  3
INABA_S40G
 71
     0
 73
     0
 74
     0
 75
     1
 40
127.8409090909091
 41
850.0
 76
     3
 10
8248.410215034294
 20
2432.359075130197
 30
0.0
 10
8338.85267892599
 20
2936.675089013374
 30
0.0
 10
8438.852678925989
 20
2936.675089013374
 30
0.0
  0
MTEXT
  5
2042F
102
{ACAD_REACTORS
330
20430
102
}
330
747D
100
AcDbEntity
  8
部品1
 62
     7
 48
50.0
100
AcDbMText
 10
8518.249702995346
 20
2809.384190102843
 30
0.0
 40
100.0
 41
1.0
 71
     4
 72
     1
  1
\A1;ワッシャー(市販品)
  7
STYLE2
 73
     1
 44
1.0
1001
ACAD
1000
MTEXTBEGIN
1070
    73
1070
     1
1070
    44
1040
1.0
1070
    74
1070
     0
1000
MTEXTEND
  0
LEADER
  5
20430
330
747D
100
AcDbEntity
  8
寸法
 48
50.0
100
AcDbLeader
  3
INABA_S40G
 71
     0
 73
     0
 74
     0
 75
     1
 40
127.8409090909091
 41
1133.522727272727
 76
     3
 10
8278.410215034293
 20
2270.169084299118
 30
0.0
 10
8378.249702995345
 20
2705.463735557389
 30
0.0
 10
8478.249702995345
 20
2705.463735557389
 30
0.0
  0
DIMENSION
  5
20431
330
747D
100
AcDbEntity
  8
寸法
 48
50.0
100
AcDbDimension
  2
*D48
 10
5826.611073562799
 20
2458.349733639244
 30
0.0
 11
5946.611073562799
 21
2458.349733639244
 31
0.0
 70
   160
  1
120
 71
     5
 42
240.0
  3
INABA_S40G
100
AcDbAlignedDimension
 13
6066.611073562799
 23
1933.764973743768
 33
0.0
 14
5826.611073562799
 24
1933.764973743768
 34
0.0
100
AcDbRotatedDimension
  0
LINE
  5
20432
330
747D
100
AcDbEntity
  8
部品1
100
AcDbLine
 10
4707.810382011021
 20
3584.979498464823
 30
0.0
 11
4707.810382011021
 21
325.9099991101357
 31
0.0
  0
MTEXT
  5
20433
102
{ACAD_REACTORS
330
20434
102
}
330
747D
100
AcDbEntity
  8
寸法
 62
     7
 48
50.0
100
AcDbMText
 10
7834.576366842672
 20
3036.87205475085
 30
0.0
 40
100.0
 41
1.0
 71
     6
 72
     1
  1
\A1;φ70スリーブ
  7
STYLE2
 73
     1
 44
1.0
1001
ACAD
1000
MTEXTBEGIN
1070
    73
1070
     1
1070
    44
1040
1.0
1070
    74
1070
     0
1000
MTEXTEND
  0
LEADER
  5
20434
330
747D
100
AcDbEntity
  8
寸法
 48
50.0
100
AcDbLeader
  3
INABA_S40G
 71
     0
 73
     0
 75
     1
 40
141.4772727272727
 41
760.7954545454546
 76
     3
 10
8189.331152706854
 20
1870.659565441616
 30
0.0
 10
7974.576366842672
 20
2926.133418387214
 30
0.0
 10
7874.576366842672
 20
2926.133418387214
 30
0.0
  0
LINE
  5
20435
330
747D
100
AcDbEntity
  8
部品1
100
AcDbLine
 10
11604.28507810905
 20
3584.979498464825
 30
0.0
 11
4707.810382011017
 21
3584.979498464823
 31
0.0
  0
LINE
  5
20436
330
747D
100
AcDbEntity
  8
部品1
100
AcDbLine
 10
11604.28507810905
 20
3284.979498464823
 30
0.0
 11
4707.810382011017
 21
3284.979498464823
 31
0.0
  0
LINE
  5
20437
330
747D
100
AcDbEntity
  8
部品1
100
AcDbLine
 10
4707.810382011017
 20
325.9099991101357
 30
0.0
 11
11604.28507810905
 21
325.9099991101357
 31
0.0
  0
LINE
  5
20438
330
747D
100
AcDbEntity
  8
部品1
100
AcDbLine
 10
10113.77415028991
 20
1359.141329177076
 30
0.0
 11
11013.77415028991
 21
1359.14132917708
 31
0.0
  0
LINE
  5
20439
330
747D
100
AcDbEntity
  8
部品1
100
AcDbLine
 10
10113.77415028991
 20
1519.14132917708
 30
0.0
 11
11013.77415028991
 21
1519.141329177083
 31
0.0
  0
LWPOLYLINE
  5
2043A
330
747D
100
AcDbEntity
  8
部品1
 48
50.0
100
AcDbPolyline
 90
        2
 70
     0
 43
15.0
 10
9783.010072664428
 20
1633.764973743768
 10
11284.37545157896
 20
1633.764973743768
  0
LINE
  5
2043B
330
747D
100
AcDbEntity
  8
細線
100
AcDbLine
 10
10255.06964341407
 20
1519.14132917708
 30
0.0
 11
10369.69328798076
 21
1633.764973743767
 31
0.0
  0
LINE
  5
2043C
330
747D
100
AcDbEntity
  8
部品1
100
AcDbLine
 10
10263.77415028991
 20
1933.764973743768
 30
0.0
 11
10863.77415028991
 21
1933.764973743768
 31
0.0
  0
LINE
  5
2043D
330
747D
100
AcDbEntity
  8
細線
100
AcDbLine
 10
10443.4262070791
 20
1633.764973743768
 30
0.0
 11
10263.77415028991
 21
1813.417030532958
 31
0.0
  0
LINE
  5
2043E
330
747D
100
AcDbEntity
  8
細線
100
AcDbLine
 10
10507.06581738589
 20
1633.764973743768
 30
0.0
 11
10263.77415028991
 21
1877.056640839746
 31
0.0
  0
MTEXT
  5
2043F
330
747D
100
AcDbEntity
  8
寸法
 62
     7
 48
50.0
100
AcDbMText
 10
7895.556878475558
 20
2400.689039260351
 30
0.0
 40
100.0
 41
1.0
 71
     6
 72
     1
  1
\U+203B(別売)
  7
STYLE2
 73
     1
 44
1.0
1001
ACAD
1000
MTEXTBEGIN
1070
    73
1070
     1
1070
    44
1040
1.0
1070
    74
1070
     0
1000
MTEXTEND
  0
TEXT
  5
20440
330
747D
100
AcDbEntity
  8
文字
 62
     7
 48
50.0
100
AcDbText
 10
14641.2525855784
 20
871.1744590657925
 30
0.0
 40
100.0
  1
～一般型・多雪地型～
  7
STYLE2
100
AcDbText
  0
TEXT
  5
20441
330
747D
100
AcDbEntity
  8
文字
 62
     7
 48
50.0
100
AcDbText
 10
14524.131837222
 20
1031.557706291228
 30
0.0
 40
100.0
  1
NO.11      <縮尺> S=1/40
  7
STYLE2
100
AcDbText
  0
ENDSEC
  0
SECTION
  2
OBJECTS
  0
DICTIONARY
  5
7471
330
0
100
AcDbDictionary
281
     1
  3
ACAD_COLOR
350
159B0
  3
ACAD_GROUP
350
7472
  3
ACAD_LAYOUT
350
159B1
  3
ACAD_MATERIAL
350
159AF
  3
ACAD_MLINESTYLE
350
7473
  3
ACAD_PLOTSETTINGS
350
159B2
  3
ACAD_PLOTSTYLENAME
350
159AD
  3
ACDBHEADERROUNDTRIPXREC
350
204CF
  3
AcDbVariableDictionary
350
1FA10
  3
CONTENTDICTIONARY
350
E71C
  3
DRAWINGVARIABLESDICT
350
F3B9
  0
DICTIONARY
  5
1FA64
330
7467
100
AcDbDictionary
280
     1
281
     1
  3
ACAD_LAYERSTATES
360
1FA65
  0
DICTIONARY
  5
159B0
102
{ACAD_REACTORS
330
7471
102
}
330
7471
100
AcDbDictionary
281
     1
  0
DICTIONARY
  5
7472
102
{ACAD_REACTORS
330
7471
102
}
330
7471
100
AcDbDictionary
281
     1
  0
DICTIONARY
  5
159B1
102
{ACAD_REACTORS
330
7471
102
}
330
7471
100
AcDbDictionary
281
     1
  3
Model
350
159B3
  3
レイアウト1
350
159B4
  0
DICTIONARY
  5
159AF
102
{ACAD_REACTORS
330
7471
102
}
330
7471
100
AcDbDictionary
281
     1
  0
DICTIONARY
  5
7473
102
{ACAD_REACTORS
330
7471
102
}
330
7471
100
AcDbDictionary
281
     1
  3
STANDARD
350
7480
  0
DICTIONARY
  5
159B2
102
{ACAD_REACTORS
330
7471
102
}
330
7471
100
AcDbDictionary
281
     1
  0
ACDBDICTIONARYWDFLT
  5
159AD
102
{ACAD_REACTORS
330
7471
102
}
330
7471
100
AcDbDictionary
281
     1
  3
Normal
350
159AE
100
AcDbDictionaryWithDefault
340
159AE
  0
DICTIONARY
  5
204CF
102
{ACAD_REACTORS
330
7471
102
}
330
7471
100
AcDbDictionary
281
     1
  3
COLORDICT
350
204D1
  3
MATERIALDICT
350
204D0
  0
DICTIONARY
  5
1FA10
102
{ACAD_REACTORS
330
7471
102
}
330
7471
100
AcDbDictionary
281
     1
  3
DIMASSOC
350
1FA11
  3
PROJECTNAME
350
1FA12
  0
DICTIONARY
  5
E71C
102
{ACAD_REACTORS
330
7471
102
}
330
7471
100
AcDbDictionary
281
     1
  0
DICTIONARY
  5
F3B9
102
{ACAD_REACTORS
330
7471
102
}
330
7471
100
AcDbDictionary
281
     1
1001
DRAWINGVARIABLESXDATA
1000
POLARMODE
1000
1
  0
DICTIONARY
  5
1FA65
102
{ACAD_REACTORS
330
1FA64
102
}
330
1FA64
100
AcDbDictionary
281
     1
  0
LAYOUT
  5
159B3
102
{ACAD_XDICTIONARY
360
204D2
102
}
102
{ACAD_REACTORS
330
159B1
102
}
330
159B1
100
AcDbPlotSettings
  1

  2
iR C3880
  4
A3
  6

 40
5.87375
 41
5.873747999999999
 42
5.873749
 43
5.873749
 44
296.925995
 45
419.946655
 46
0.0
 47
0.0
 48
0.0
 49
0.0
140
0.0
141
0.0
142
1.0
143
41.65811997269246
 70
 11952
 72
     1
 73
     1
 74
     2
  7
inabass.ctb
 75
     0
147
0.0240049239057239
148
0.0
149
0.0
100
AcDbLayout
  1
Model
 70
     1
 71
     0
 10
0.0
 20
0.0
 11
12.0
 21
9.0
 12
0.0
 22
0.0
 32
0.0
 14
0.0
 24
0.0
 34
0.0
 15
0.0
 25
0.0
 35
0.0
146
0.0
 13
0.0
 23
0.0
 33
0.0
 16
1.0
 26
0.0
 36
0.0
 17
0.0
 27
1.0
 37
0.0
 76
     0
330
747D
  0
LAYOUT
  5
159B4
102
{ACAD_XDICTIONARY
360
204D4
102
}
102
{ACAD_REACTORS
330
159B1
102
}
330
159B1
100
AcDbPlotSettings
  1

  2
自動 EPSON LP-8400FX (TATENO 上)
  4

  6

 40
0.0
 41
0.0
 42
0.0
 43
0.0
 44
0.0
 45
0.0
 46
0.0
 47
0.0
 48
0.0
 49
0.0
140
0.0
141
0.0
142
1.0
143
1.0
 70
   688
 72
     0
 73
     0
 74
     5
  7
inaba.ctb
 75
    16
147
1.0
148
0.0
149
0.0
100
AcDbLayout
  1
レイアウト1
 70
     0
 71
     1
 10
0.0
 20
0.0
 11
420.0
 21
297.0
 12
0.0
 22
0.0
 32
0.0
 14
1.000000000000000E+20
 24
1.000000000000000E+20
 34
1.000000000000000E+20
 15
-1.000000000000000E+20
 25
-1.000000000000000E+20
 35
-1.000000000000000E+20
146
0.0
 13
0.0
 23
0.0
 33
0.0
 16
1.0
 26
0.0
 36
0.0
 17
0.0
 27
1.0
 37
0.0
 76
     0
330
747A
  0
MLINESTYLE
  5
7480
102
{ACAD_REACTORS
330
7473
102
}
330
7473
100
AcDbMlineStyle
  2
STANDARD
 70
     0
  3

 62
     0
 51
90.0
 52
90.0
 71
     2
 49
0.5
 62
   256
  6
BYLAYER
 49
-0.5
 62
   256
  6
BYLAYER
  0
ACDBPLACEHOLDER
  5
159AE
102
{ACAD_REACTORS
330
159AD
102
}
330
159AD
  0
XRECORD
  5
204D1
102
{ACAD_REACTORS
330
204CF
102
}
330
204CF
100
AcDbXrecord
280
     1
340
159B0
  0
XRECORD
  5
204D0
102
{ACAD_REACTORS
330
204CF
102
}
330
204CF
100
AcDbXrecord
280
     1
340
159AF
  0
DICTIONARYVAR
  5
1FA11
102
{ACAD_REACTORS
330
1FA10
102
}
330
1FA10
100
DictionaryVariables
280
     0
  1
1
  0
DICTIONARYVAR
  5
1FA12
102
{ACAD_REACTORS
330
1FA10
102
}
330
1FA10
100
DictionaryVariables
280
     0
  1

  0
DICTIONARY
  5
204D2
330
159B3
100
AcDbDictionary
280
     1
281
     1
  3
ACAD_XREC_ROUNDTRIP
360
204D3
  0
DICTIONARY
  5
204D4
330
159B4
100
AcDbDictionary
280
     1
281
     1
  3
ACAD_XREC_ROUNDTRIP
360
204D5
  0
XRECORD
  5
204D3
102
{ACAD_REACTORS
330
204D2
102
}
330
204D2
100
AcDbXrecord
280
     1
102
SHADEPLOT
 70
     1
102
SHADEPLOTRESLEVEL
 70
     2
102
SHADEPLOTCUSTOMDPI
 70
   300
  0
XRECORD
  5
204D5
102
{ACAD_REACTORS
330
204D4
102
}
330
204D4
100
AcDbXrecord
280
     1
102
SHADEPLOT
 70
     0
102
SHADEPLOTRESLEVEL
 70
     2
102
SHADEPLOTCUSTOMDPI
 70
   300
  0
ENDSEC
  0
EOF
