  0
SECTION
  2
HEADER
  9
$ACADVER
  1
AC1015
  9
$ACADMAINTVER
 70
    20
  9
$DWGCODEPAGE
  3
ANSI_932
  9
$INSBASE
 10
0.0
 20
0.0
 30
0.0
  9
$EXTMIN
 10
139.9999999999995
 20
-0.0000000000000909
 30
0.0
  9
$EXTMAX
 10
16307.2
 20
11409.6
 30
0.0
  9
$LIMMIN
 10
0.0
 20
0.0
  9
$LIMMAX
 10
16800.0
 20
11880.0
  9
$ORTHOMODE
 70
     0
  9
$REGENMODE
 70
     1
  9
$FILLMODE
 70
     1
  9
$QTEXTMODE
 70
     0
  9
$MIRRTEXT
 70
     1
  9
$LTSCALE
 40
20.0
  9
$ATTMODE
 70
     1
  9
$TEXTSIZE
 40
100.0
  9
$TRACEWID
 40
1.0
  9
$TEXTSTYLE
  7
STYLE2
  9
$CLAYER
  8
寸法
  9
$CELTYPE
  6
BYLAYER
  9
$CECOLOR
 62
   256
  9
$CELTSCALE
 40
50.0
  9
$DISPSILH
 70
     0
  9
$DIMSCALE
 40
40.0
  9
$DIMASZ
 40
2.5
  9
$DIMEXO
 40
0.5
  9
$DIMDLI
 40
7.0
  9
$DIMRND
 40
0.0
  9
$DIMDLE
 40
0.0
  9
$DIMEXE
 40
1.5
  9
$DIMTP
 40
0.0
  9
$DIMTM
 40
0.0
  9
$DIMTXT
 40
3.0
  9
$DIMCEN
 40
0.0
  9
$DIMTSZ
 40
0.0
  9
$DIMTOL
 70
     0
  9
$DIMLIM
 70
     0
  9
$DIMTIH
 70
     0
  9
$DIMTOH
 70
     0
  9
$DIMSE1
 70
     0
  9
$DIMSE2
 70
     0
  9
$DIMTAD
 70
     3
  9
$DIMZIN
 70
     8
  9
$DIMBLK
  1

  9
$DIMASO
 70
     1
  9
$DIMSHO
 70
     1
  9
$DIMPOST
  1

  9
$DIMAPOST
  1

  9
$DIMALT
 70
     0
  9
$DIMALTD
 70
     2
  9
$DIMALTF
 40
0.0394
  9
$DIMLFAC
 40
1.0
  9
$DIMTOFL
 70
     1
  9
$DIMTVP
 40
0.0
  9
$DIMTIX
 70
     0
  9
$DIMSOXD
 70
     0
  9
$DIMSAH
 70
     1
  9
$DIMBLK1
  1
DOTSMALL
  9
$DIMBLK2
  1
DOTSMALL
  9
$DIMSTYLE
  2
INABA_S40G
  9
$DIMCLRD
 70
     0
  9
$DIMCLRE
 70
     0
  9
$DIMCLRT
 70
     7
  9
$DIMTFAC
 40
1.0
  9
$DIMGAP
 40
1.0
  9
$DIMJUST
 70
     0
  9
$DIMSD1
 70
     0
  9
$DIMSD2
 70
     0
  9
$DIMTOLJ
 70
     1
  9
$DIMTZIN
 70
     0
  9
$DIMALTZ
 70
     0
  9
$DIMALTTZ
 70
     0
  9
$DIMUPT
 70
     0
  9
$DIMDEC
 70
     1
  9
$DIMTDEC
 70
     1
  9
$DIMALTU
 70
     2
  9
$DIMALTTD
 70
     2
  9
$DIMTXSTY
  7
STYLE1
  9
$DIMAUNIT
 70
     0
  9
$DIMADEC
 70
     0
  9
$DIMALTRND
 40
0.0
  9
$DIMAZIN
 70
     0
  9
$DIMDSEP
 70
    46
  9
$DIMATFIT
 70
     3
  9
$DIMFRAC
 70
     0
  9
$DIMLDRBLK
  1

  9
$DIMLUNIT
 70
     2
  9
$DIMLWD
 70
    -2
  9
$DIMLWE
 70
    -2
  9
$DIMTMOVE
 70
     0
  9
$LUNITS
 70
     2
  9
$LUPREC
 70
     1
  9
$SKETCHINC
 40
1.0
  9
$FILLETRAD
 40
7.0
  9
$AUNITS
 70
     0
  9
$AUPREC
 70
     0
  9
$MENU
  1
acad
  9
$ELEVATION
 40
0.0
  9
$PELEVATION
 40
0.0
  9
$THICKNESS
 40
0.0
  9
$LIMCHECK
 70
     0
  9
$CHAMFERA
 40
3.0
  9
$CHAMFERB
 40
3.0
  9
$CHAMFERC
 40
0.0
  9
$CHAMFERD
 40
0.0
  9
$SKPOLY
 70
     0
  9
$TDCREATE
 40
2451368.612993866
  9
$TDUCREATE
 40
2451368.237993866
  9
$TDUPDATE
 40
2455575.687031424
  9
$TDUUPDATE
 40
2455575.312031424
  9
$TDINDWG
 40
1.5410592245
  9
$TDUSRTIMER
 40
1.5410592245
  9
$USRTIMER
 70
     1
  9
$ANGBASE
 50
0.0
  9
$ANGDIR
 70
     0
  9
$PDMODE
 70
     3
  9
$PDSIZE
 40
2.0
  9
$PLINEWID
 40
0.0
  9
$SPLFRAME
 70
     0
  9
$SPLINETYPE
 70
     6
  9
$SPLINESEGS
 70
     8
  9
$HANDSEED
  5
2E0C3
  9
$SURFTAB1
 70
     6
  9
$SURFTAB2
 70
     6
  9
$SURFTYPE
 70
     6
  9
$SURFU
 70
     6
  9
$SURFV
 70
     6
  9
$UCSBASE
  2

  9
$UCSNAME
  2

  9
$UCSORG
 10
0.0
 20
0.0
 30
0.0
  9
$UCSXDIR
 10
1.0
 20
0.0
 30
0.0
  9
$UCSYDIR
 10
0.0
 20
1.0
 30
0.0
  9
$UCSORTHOREF
  2

  9
$UCSORTHOVIEW
 70
     0
  9
$UCSORGTOP
 10
0.0
 20
0.0
 30
0.0
  9
$UCSORGBOTTOM
 10
0.0
 20
0.0
 30
0.0
  9
$UCSORGLEFT
 10
0.0
 20
0.0
 30
0.0
  9
$UCSORGRIGHT
 10
0.0
 20
0.0
 30
0.0
  9
$UCSORGFRONT
 10
0.0
 20
0.0
 30
0.0
  9
$UCSORGBACK
 10
0.0
 20
0.0
 30
0.0
  9
$PUCSBASE
  2

  9
$PUCSNAME
  2

  9
$PUCSORG
 10
0.0
 20
0.0
 30
0.0
  9
$PUCSXDIR
 10
1.0
 20
0.0
 30
0.0
  9
$PUCSYDIR
 10
0.0
 20
1.0
 30
0.0
  9
$PUCSORTHOREF
  2

  9
$PUCSORTHOVIEW
 70
     0
  9
$PUCSORGTOP
 10
0.0
 20
0.0
 30
0.0
  9
$PUCSORGBOTTOM
 10
0.0
 20
0.0
 30
0.0
  9
$PUCSORGLEFT
 10
0.0
 20
0.0
 30
0.0
  9
$PUCSORGRIGHT
 10
0.0
 20
0.0
 30
0.0
  9
$PUCSORGFRONT
 10
0.0
 20
0.0
 30
0.0
  9
$PUCSORGBACK
 10
0.0
 20
0.0
 30
0.0
  9
$USERI1
 70
     0
  9
$USERI2
 70
     0
  9
$USERI3
 70
     0
  9
$USERI4
 70
     0
  9
$USERI5
 70
     0
  9
$USERR1
 40
0.0
  9
$USERR2
 40
0.0
  9
$USERR3
 40
0.0
  9
$USERR4
 40
0.0
  9
$USERR5
 40
0.0
  9
$WORLDVIEW
 70
     1
  9
$SHADEDGE
 70
     3
  9
$SHADEDIF
 70
    70
  9
$TILEMODE
 70
     1
  9
$MAXACTVP
 70
    16
  9
$PINSBASE
 10
0.0
 20
0.0
 30
0.0
  9
$PLIMCHECK
 70
     0
  9
$PEXTMIN
 10
1.000000000000000E+20
 20
1.000000000000000E+20
 30
1.000000000000000E+20
  9
$PEXTMAX
 10
-1.000000000000000E+20
 20
-1.000000000000000E+20
 30
-1.000000000000000E+20
  9
$PLIMMIN
 10
0.0
 20
0.0
  9
$PLIMMAX
 10
420.0
 20
297.0
  9
$UNITMODE
 70
     0
  9
$VISRETAIN
 70
     0
  9
$PLINEGEN
 70
     0
  9
$PSLTSCALE
 70
     0
  9
$TREEDEPTH
 70
  3020
  9
$CMLSTYLE
  2
STANDARD
  9
$CMLJUST
 70
     0
  9
$CMLSCALE
 40
1.0
  9
$PROXYGRAPHICS
 70
     1
  9
$MEASUREMENT
 70
     1
  9
$CELWEIGHT
370
    -1
  9
$ENDCAPS
280
     0
  9
$JOINSTYLE
280
     0
  9
$LWDISPLAY
290
     0
  9
$INSUNITS
 70
     0
  9
$HYPERLINKBASE
  1

  9
$STYLESHEET
  1
inaba.ctb
  9
$XEDIT
290
     1
  9
$CEPSNTYPE
380
     0
  9
$PSTYLEMODE
290
     1
  9
$FINGERPRINTGUID
  2
{3B57B35E-7D77-4BBF-81B7-6C583B9EB24C}
  9
$VERSIONGUID
  2
{727FBA0F-5FEF-49F2-B30D-2636F2A1D58A}
  9
$EXTNAMES
290
     1
  9
$PSVPSCALE
 40
0.0
  9
$OLESTARTUP
290
     0
  0
ENDSEC
  0
SECTION
  2
CLASSES
  0
CLASS
  1
ACDBDICTIONARYWDFLT
  2
AcDbDictionaryWithDefault
  3
ObjectDBX Classes
 90
        0
280
     0
281
     0
  0
CLASS
  1
DICTIONARYVAR
  2
AcDbDictionaryVar
  3
ObjectDBX Classes
 90
        0
280
     0
281
     0
  0
CLASS
  1
ACDBPLACEHOLDER
  2
AcDbPlaceHolder
  3
ObjectDBX Classes
 90
        0
280
     0
281
     0
  0
CLASS
  1
LAYOUT
  2
AcDbLayout
  3
ObjectDBX Classes
 90
        0
280
     0
281
     0
  0
ENDSEC
  0
SECTION
  2
TABLES
  0
TABLE
  2
VPORT
  5
746D
330
0
100
AcDbSymbolTable
 70
     2
  0
VPORT
  5
2E0BB
330
746D
100
AcDbSymbolTableRecord
100
AcDbViewportTableRecord
  2
*Active
 70
     0
 10
0.0
 20
0.0
 11
1.0
 21
1.0
 12
8223.761025238504
 22
11204.50207196921
 13
0.0
 23
0.0
 14
10.0
 24
10.0
 15
10.0
 25
10.0
 16
0.0
 26
0.0
 36
1.0
 17
0.0
 27
0.0
 37
0.0
 40
22518.29669160084
 41
0.8677966101694915
 42
50.0
 43
0.0
 44
0.0
 50
0.0
 51
0.0
 71
     0
 72
     0
 73
     1
 74
     0
 75
     0
 76
     0
 77
     0
 78
     0
281
     0
 65
     1
110
0.0
120
0.0
130
0.0
111
1.0
121
0.0
131
0.0
112
0.0
122
1.0
132
0.0
 79
     0
146
0.0
  0
ENDTAB
  0
TABLE
  2
LTYPE
  5
746A
330
0
100
AcDbSymbolTable
 70
     3
  0
LTYPE
  5
7477
330
746A
100
AcDbSymbolTableRecord
100
AcDbLinetypeTableRecord
  2
BYBLOCK
 70
     0
  3

 72
    65
 73
     0
 40
0.0
  0
LTYPE
  5
7478
330
746A
100
AcDbSymbolTableRecord
100
AcDbLinetypeTableRecord
  2
BYLAYER
 70
     0
  3

 72
    65
 73
     0
 40
0.0
  0
LTYPE
  5
7479
330
746A
100
AcDbSymbolTableRecord
100
AcDbLinetypeTableRecord
  2
CONTINUOUS
 70
     0
  3
Solid line
 72
    65
 73
     0
 40
0.0
  0
LTYPE
  5
781A
330
746A
100
AcDbSymbolTableRecord
100
AcDbLinetypeTableRecord
  2
HIDDEN
 70
     0
  3
__ __ __ __ __ __ __ __ __ __ __ __ __ __ __ __
 72
    65
 73
     2
 40
0.375
 49
0.25
 74
     0
 49
-0.125
 74
     0
  0
LTYPE
  5
781B
330
746A
100
AcDbSymbolTableRecord
100
AcDbLinetypeTableRecord
  2
PHANTOM
 70
     0
  3
______  __  __  ______  __  __  ______  __  __ 
 72
    65
 73
     6
 40
2.5
 49
1.25
 74
     0
 49
-0.25
 74
     0
 49
0.25
 74
     0
 49
-0.25
 74
     0
 49
0.25
 74
     0
 49
-0.25
 74
     0
  0
ENDTAB
  0
TABLE
  2
LAYER
  5
7467
102
{ACAD_XDICTIONARY
360
1FFA9
102
}
330
0
100
AcDbSymbolTable
 70
    10
  0
LAYER
  5
7474
330
7467
100
AcDbSymbolTableRecord
100
AcDbLayerTableRecord
  2
0
 70
     0
 62
     7
  6
CONTINUOUS
370
    -3
390
159AE
  0
LAYER
  5
DEB3
330
7467
100
AcDbSymbolTableRecord
100
AcDbLayerTableRecord
  2
寸法
 70
     0
 62
     4
  6
CONTINUOUS
370
    -3
390
159AE
  0
LAYER
  5
DEB4
330
7467
100
AcDbSymbolTableRecord
100
AcDbLayerTableRecord
  2
部品1
 70
     0
 62
     7
  6
CONTINUOUS
370
    -3
390
159AE
  0
LAYER
  5
DEB5
330
7467
100
AcDbSymbolTableRecord
100
AcDbLayerTableRecord
  2
補助
 70
     0
 62
    -1
  6
CONTINUOUS
370
    -3
390
159AE
  0
LAYER
  5
DEB6
330
7467
100
AcDbSymbolTableRecord
100
AcDbLayerTableRecord
  2
文字
 70
     0
 62
     7
  6
CONTINUOUS
370
    -3
390
159AE
  0
LAYER
  5
F255
330
7467
100
AcDbSymbolTableRecord
100
AcDbLayerTableRecord
  2
DEFPOINTS
 70
     0
 62
     7
  6
CONTINUOUS
290
     0
370
    -3
390
159AE
  0
LAYER
  5
10B54
330
7467
100
AcDbSymbolTableRecord
100
AcDbLayerTableRecord
  2
仕様書枠
 70
     0
 62
   230
  6
CONTINUOUS
370
    -3
390
159AE
  0
LAYER
  5
11729
330
7467
100
AcDbSymbolTableRecord
100
AcDbLayerTableRecord
  2
Ｇ．Ｌ
 70
     0
 62
    30
  6
CONTINUOUS
370
    -3
390
159AE
  0
LAYER
  5
1173F
330
7467
100
AcDbSymbolTableRecord
100
AcDbLayerTableRecord
  2
細線
 70
     0
 62
     5
  6
CONTINUOUS
370
    -3
390
159AE
  0
LAYER
  5
142E2
330
7467
100
AcDbSymbolTableRecord
100
AcDbLayerTableRecord
  2
破線
 70
     0
 62
     2
  6
HIDDEN
370
    -3
390
159AE
  0
ENDTAB
  0
TABLE
  2
STYLE
  5
7468
330
0
100
AcDbSymbolTable
 70
     4
  0
STYLE
  5
7475
330
7468
100
AcDbSymbolTableRecord
100
AcDbTextStyleTableRecord
  2
STANDARD
 70
     0
 40
0.0
 41
1.0
 50
0.0
 71
     0
 42
4.0
  3
txt
  4
C:\AutoCAD LT\bigfont.shx
  0
STYLE
  5
F706
330
7468
100
AcDbSymbolTableRecord
100
AcDbTextStyleTableRecord
  2
STYLE1
 70
     0
 40
0.0
 41
1.0
 50
0.0
 71
     0
 42
100.0
  3
isocp.shx
  4
bigfont.shx
  0
STYLE
  5
103BF
330
7468
100
AcDbSymbolTableRecord
100
AcDbTextStyleTableRecord
  2
STYLE2
 70
     0
 40
0.0
 41
1.0
 50
0.0
 71
     0
 42
100.0
  3
MS PGothic.ttf
  4

1001
ACAD
1000
MS PGothic
1071
    32818
  0
STYLE
  5
2E052
330
7468
100
AcDbSymbolTableRecord
100
AcDbTextStyleTableRecord
  2
STYLE3
 70
     0
 40
0.0
 41
1.0
 50
0.0
 71
     0
 42
100.0
  3

  4

1001
ACAD
1000
DFPGothic-EB
1071
    32818
  0
ENDTAB
  0
TABLE
  2
VIEW
  5
746B
330
0
100
AcDbSymbolTable
 70
     0
  0
ENDTAB
  0
TABLE
  2
UCS
  5
746C
330
0
100
AcDbSymbolTable
 70
     0
  0
ENDTAB
  0
TABLE
  2
APPID
  5
746E
330
0
100
AcDbSymbolTable
 70
     6
  0
APPID
  5
7476
330
746E
100
AcDbSymbolTableRecord
100
AcDbRegAppTableRecord
  2
ACAD
 70
     0
  0
APPID
  5
DEA9
330
746E
100
AcDbSymbolTableRecord
100
AcDbRegAppTableRecord
  2
CONTENTBLOCKICON
 70
     0
  0
APPID
  5
DEAA
330
746E
100
AcDbSymbolTableRecord
100
AcDbRegAppTableRecord
  2
CONTENTBLOCKDESCRIPTION
 70
     0
  0
APPID
  5
E71D
330
746E
100
AcDbSymbolTableRecord
100
AcDbRegAppTableRecord
  2
CONTENTTABDATA
 70
     0
  0
APPID
  5
E71E
330
746E
100
AcDbSymbolTableRecord
100
AcDbRegAppTableRecord
  2
CONTENTCURRENTTAB
 70
     0
  0
APPID
  5
F3BA
330
746E
100
AcDbSymbolTableRecord
100
AcDbRegAppTableRecord
  2
DRAWINGVARIABLESXDATA
 70
     0
  0
ENDTAB
  0
TABLE
  2
DIMSTYLE
  5
746F
330
0
100
AcDbSymbolTable
 70
     2
100
AcDbDimStyleTable
 71
     1
340
F71F
  0
DIMSTYLE
105
F71F
102
{ACAD_REACTORS
330
26FDC
330
26FDB
330
26FDA
330
26FD9
330
26FD8
330
26FBC
330
26FBA
330
26FA1
330
26F9F
330
26F86
330
285A3
330
285E3
330
2CA12
330
2CA13
330
2CA14
330
2CA15
330
2CA4A
330
2CA4B
330
2CA51
330
2CA52
330
2CA53
330
2CA7C
330
2CA8B
330
2CA8C
330
2CA90
330
2DDF4
330
2DE20
330
2DE27
330
2DE28
330
2DE30
102
}
330
746F
100
AcDbSymbolTableRecord
100
AcDbDimStyleTableRecord
  2
INABA_S40G
 70
     0
 40
40.0
 41
2.5
 42
0.5
 43
7.0
 44
1.5
 73
     0
 74
     0
 77
     3
 78
     8
140
3.0
141
0.0
143
0.0394
147
1.0
172
     1
173
     1
174
     1
178
     7
271
     1
288
     1
340
F706
341
F770
343
F770
344
F770
  0
DIMSTYLE
105
2E053
330
746F
100
AcDbSymbolTableRecord
100
AcDbDimStyleTableRecord
  2
INABA_S20G
 70
     0
 40
20.0
 41
2.5
 42
0.5
 43
7.0
 44
1.5
 73
     0
 74
     0
 77
     3
 78
     8
140
3.0
141
0.0
143
0.0394
147
1.0
172
     1
173
     1
174
     1
178
     7
271
     1
340
F706
341
F770
343
F770
344
F770
  0
ENDTAB
  0
TABLE
  2
BLOCK_RECORD
  5
7466
330
0
100
AcDbSymbolTable
 70
    32
  0
BLOCK_RECORD
  5
747D
330
7466
100
AcDbSymbolTableRecord
100
AcDbBlockTableRecord
  2
*MODEL_SPACE
340
159B3
  0
BLOCK_RECORD
  5
747A
330
7466
100
AcDbSymbolTableRecord
100
AcDbBlockTableRecord
  2
*PAPER_SPACE
340
159B4
  0
BLOCK_RECORD
  5
F770
330
7466
100
AcDbSymbolTableRecord
100
AcDbBlockTableRecord
  2
_DOTSMALL
340
0
102
{BLKREFS
331
2D818
331
2D819
331
2D821
331
2D822
331
2D82A
331
2D82B
331
2D833
331
2D834
331
2D83E
331
2D83F
331
2D849
331
2D84A
331
2D854
331
2D855
331
2D85F
331
2D860
331
2D868
331
2D869
331
2D871
331
2D872
331
2D87A
331
2D87B
331
2D883
331
2D884
331
2D88C
331
2D88D
331
2D895
331
2D896
331
2D8D1
331
2D8D2
331
2D8DB
331
2D8DC
331
2DF75
331
2DF76
331
2DF80
331
2DF81
331
2DF8B
331
2DF8C
331
2DF94
331
2DF95
331
2DF9D
331
2DF9E
331
2DFB8
331
2DFB9
331
2DFC1
331
2DFC2
331
2DFCA
331
2DFCB
331
2DFD4
331
2DFD5
331
2DFDE
331
2DFDF
331
2DFE7
331
2DFE8
331
2DFF2
331
2DFF3
331
2DFFB
331
2DFFC
331
2E006
331
2E007
102
}
  0
BLOCK_RECORD
  5
27032
330
7466
100
AcDbSymbolTableRecord
100
AcDbBlockTableRecord
  2
*D1
340
0
  0
BLOCK_RECORD
  5
2703E
330
7466
100
AcDbSymbolTableRecord
100
AcDbBlockTableRecord
  2
*D2
340
0
  0
BLOCK_RECORD
  5
2704A
330
7466
100
AcDbSymbolTableRecord
100
AcDbBlockTableRecord
  2
*D3
340
0
  0
BLOCK_RECORD
  5
27058
330
7466
100
AcDbSymbolTableRecord
100
AcDbBlockTableRecord
  2
*D4
340
0
  0
BLOCK_RECORD
  5
27066
330
7466
100
AcDbSymbolTableRecord
100
AcDbBlockTableRecord
  2
*D5
340
0
  0
BLOCK_RECORD
  5
27074
330
7466
100
AcDbSymbolTableRecord
100
AcDbBlockTableRecord
  2
*D6
340
0
  0
BLOCK_RECORD
  5
27082
330
7466
100
AcDbSymbolTableRecord
100
AcDbBlockTableRecord
  2
*D7
340
0
  0
BLOCK_RECORD
  5
2708E
330
7466
100
AcDbSymbolTableRecord
100
AcDbBlockTableRecord
  2
*D8
340
0
  0
BLOCK_RECORD
  5
2709A
330
7466
100
AcDbSymbolTableRecord
100
AcDbBlockTableRecord
  2
*D9
340
0
  0
BLOCK_RECORD
  5
270A6
330
7466
100
AcDbSymbolTableRecord
100
AcDbBlockTableRecord
  2
*D10
340
0
  0
BLOCK_RECORD
  5
285B2
330
7466
100
AcDbSymbolTableRecord
100
AcDbBlockTableRecord
  2
*D11
340
0
  0
BLOCK_RECORD
  5
285E4
330
7466
100
AcDbSymbolTableRecord
100
AcDbBlockTableRecord
  2
*D12
340
0
  0
BLOCK_RECORD
  5
2CA95
330
7466
100
AcDbSymbolTableRecord
100
AcDbBlockTableRecord
  2
*D13
340
0
  0
BLOCK_RECORD
  5
2CAA1
330
7466
100
AcDbSymbolTableRecord
100
AcDbBlockTableRecord
  2
*D14
340
0
  0
BLOCK_RECORD
  5
2CAAD
330
7466
100
AcDbSymbolTableRecord
100
AcDbBlockTableRecord
  2
*D15
340
0
  0
BLOCK_RECORD
  5
2CAB9
330
7466
100
AcDbSymbolTableRecord
100
AcDbBlockTableRecord
  2
*D16
340
0
  0
BLOCK_RECORD
  5
2CAC5
330
7466
100
AcDbSymbolTableRecord
100
AcDbBlockTableRecord
  2
*D17
340
0
  0
BLOCK_RECORD
  5
2CAD2
330
7466
100
AcDbSymbolTableRecord
100
AcDbBlockTableRecord
  2
*D18
340
0
  0
BLOCK_RECORD
  5
2CAE0
330
7466
100
AcDbSymbolTableRecord
100
AcDbBlockTableRecord
  2
*D19
340
0
  0
BLOCK_RECORD
  5
2CAEC
330
7466
100
AcDbSymbolTableRecord
100
AcDbBlockTableRecord
  2
*D20
340
0
  0
BLOCK_RECORD
  5
2CAFA
330
7466
100
AcDbSymbolTableRecord
100
AcDbBlockTableRecord
  2
*D21
340
0
  0
BLOCK_RECORD
  5
2CB06
330
7466
100
AcDbSymbolTableRecord
100
AcDbBlockTableRecord
  2
*D22
340
0
  0
BLOCK_RECORD
  5
2CB13
330
7466
100
AcDbSymbolTableRecord
100
AcDbBlockTableRecord
  2
*D23
340
0
  0
BLOCK_RECORD
  5
2CB20
330
7466
100
AcDbSymbolTableRecord
100
AcDbBlockTableRecord
  2
*D24
340
0
  0
BLOCK_RECORD
  5
2CB2C
330
7466
100
AcDbSymbolTableRecord
100
AcDbBlockTableRecord
  2
*D25
340
0
  0
BLOCK_RECORD
  5
2DCF6
330
7466
100
AcDbSymbolTableRecord
100
AcDbBlockTableRecord
  2
A$C2C0B4020
340
0
  0
BLOCK_RECORD
  5
2DE9E
330
7466
100
AcDbSymbolTableRecord
100
AcDbBlockTableRecord
  2
*D27
340
0
  0
BLOCK_RECORD
  5
2DEAA
330
7466
100
AcDbSymbolTableRecord
100
AcDbBlockTableRecord
  2
*D28
340
0
  0
BLOCK_RECORD
  5
2DEB6
330
7466
100
AcDbSymbolTableRecord
100
AcDbBlockTableRecord
  2
*D29
340
0
  0
BLOCK_RECORD
  5
2DEC4
330
7466
100
AcDbSymbolTableRecord
100
AcDbBlockTableRecord
  2
*D30
340
0
  0
BLOCK_RECORD
  5
2DED2
330
7466
100
AcDbSymbolTableRecord
100
AcDbBlockTableRecord
  2
*D31
340
0
  0
ENDTAB
  0
ENDSEC
  0
SECTION
  2
BLOCKS
  0
BLOCK
  5
7489
330
747D
100
AcDbEntity
  8
0
100
AcDbBlockBegin
  2
*MODEL_SPACE
 70
     0
 10
0.0
 20
0.0
 30
0.0
  3
*MODEL_SPACE
  1

  0
ENDBLK
  5
748A
330
747D
100
AcDbEntity
  8
0
100
AcDbBlockEnd
  0
BLOCK
  5
7487
330
747A
100
AcDbEntity
 67
     1
  8
0
100
AcDbBlockBegin
  2
*PAPER_SPACE
 70
     0
 10
0.0
 20
0.0
 30
0.0
  3
*PAPER_SPACE
  1

  0
ENDBLK
  5
7488
330
747A
100
AcDbEntity
 67
     1
  8
0
100
AcDbBlockEnd
  0
BLOCK
  5
F771
330
F770
100
AcDbEntity
  8
0
 48
50.0
100
AcDbBlockBegin
  2
_DOTSMALL
 70
     0
 10
0.0
 20
0.0
 30
0.0
  3
_DOTSMALL
  1

  0
LWPOLYLINE
  5
F772
330
F770
100
AcDbEntity
  8
0
  6
ByBlock
 62
     0
 48
50.0
100
AcDbPolyline
 90
        2
 70
     1
 43
0.5
 10
-0.0625
 20
0.0
 42
1.0
 10
0.0625
 20
0.0
 42
1.0
  0
ENDBLK
  5
F776
330
F770
100
AcDbEntity
  8
0
 48
50.0
100
AcDbBlockEnd
  0
BLOCK
  5
2703C
330
27032
100
AcDbEntity
  8
0
 48
50.0
100
AcDbBlockBegin
  2
*D1
 70
     1
 10
0.0
 20
0.0
 30
0.0
  3
*D1
  1

  0
LINE
  5
2D827
330
27032
100
AcDbEntity
  8
寸法
 62
     0
 48
50.0
370
    -2
100
AcDbLine
 10
7489.896575107209
 20
10249.1112801517
 30
0.0
 11
8504.217341176497
 21
10249.1112801517
 31
0.0
  0
LINE
  5
2D828
330
27032
100
AcDbEntity
  8
寸法
 62
     0
 48
50.0
370
    -2
100
AcDbLine
 10
7489.896575106977
 20
7199.111280151592
 30
0.0
 11
8504.217341176497
 21
7199.111280151592
 31
0.0
  0
LINE
  5
2D829
330
27032
100
AcDbEntity
  8
寸法
 62
     0
 48
50.0
370
    -2
100
AcDbLine
 10
8444.217341176498
 20
10249.1112801517
 30
0.0
 11
8444.217341176498
 21
7199.111280151592
 31
0.0
  0
INSERT
  5
2D82A
330
27032
100
AcDbEntity
  8
寸法
 62
     0
 48
50.0
370
    -2
100
AcDbBlockReference
  2
_DOTSMALL
 10
8444.217341176498
 20
10249.1112801517
 30
0.0
 41
100.0
 42
100.0
 43
100.0
 50
90.0
  0
INSERT
  5
2D82B
330
27032
100
AcDbEntity
  8
寸法
 62
     0
 48
50.0
370
    -2
100
AcDbBlockReference
  2
_DOTSMALL
 10
8444.217341176498
 20
7199.111280151592
 30
0.0
 41
100.0
 42
100.0
 43
100.0
 50
270.0
  0
MTEXT
  5
2D82C
330
27032
100
AcDbEntity
  8
寸法
 62
     7
 48
50.0
100
AcDbMText
 10
8344.217341176497
 20
8658.56827611725
 30
0.0
 40
120.0
 41
0.0
 71
     5
 72
     1
  1
\A1;3050
  7
STYLE1
 11
0.0000000000000001
 21
1.0
 31
0.0
 73
     1
 44
1.0
1001
ACAD
1000
MTEXTBEGIN
1070
    73
1070
     1
1070
    44
1040
1.0
1070
    74
1070
     0
1000
MTEXTEND
  0
POINT
  5
2D82D
330
27032
100
AcDbEntity
  8
DEFPOINTS
 62
     0
 48
50.0
100
AcDbPoint
 10
7469.89657510721
 20
10249.1112801517
 30
0.0
  0
POINT
  5
2D82E
330
27032
100
AcDbEntity
  8
DEFPOINTS
 62
     0
 48
50.0
100
AcDbPoint
 10
7469.896575106976
 20
7199.111280151592
 30
0.0
  0
POINT
  5
2D82F
330
27032
100
AcDbEntity
  8
DEFPOINTS
 62
     0
 48
50.0
100
AcDbPoint
 10
8444.217341176498
 20
7199.111280151592
 30
0.0
  0
ENDBLK
  5
2703D
330
27032
100
AcDbEntity
  8
0
 48
50.0
100
AcDbBlockEnd
  0
BLOCK
  5
27048
330
2703E
100
AcDbEntity
  8
0
 48
50.0
100
AcDbBlockBegin
  2
*D2
 70
     1
 10
0.0
 20
0.0
 30
0.0
  3
*D2
  1

  0
LINE
  5
2D830
330
2703E
100
AcDbEntity
  8
寸法
 62
     0
 48
50.0
370
    -2
100
AcDbLine
 10
4474.896575107209
 20
10269.11128015172
 30
0.0
 11
4474.896575107209
 21
10589.73831326045
 31
0.0
  0
LINE
  5
2D831
330
2703E
100
AcDbEntity
  8
寸法
 62
     0
 48
50.0
370
    -2
100
AcDbLine
 10
7414.89657510721
 20
10269.1112801517
 30
0.0
 11
7414.89657510721
 21
10589.73831326045
 31
0.0
  0
LINE
  5
2D832
330
2703E
100
AcDbEntity
  8
寸法
 62
     0
 48
50.0
370
    -2
100
AcDbLine
 10
4474.896575107209
 20
10529.73831326045
 30
0.0
 11
7414.89657510721
 21
10529.73831326045
 31
0.0
  0
INSERT
  5
2D833
330
2703E
100
AcDbEntity
  8
寸法
 62
     0
 48
50.0
370
    -2
100
AcDbBlockReference
  2
_DOTSMALL
 10
4474.896575107209
 20
10529.73831326045
 30
0.0
 41
100.0
 42
100.0
 43
100.0
 50
180.0
  0
INSERT
  5
2D834
330
2703E
100
AcDbEntity
  8
寸法
 62
     0
 48
50.0
370
    -2
100
AcDbBlockReference
  2
_DOTSMALL
 10
7414.89657510721
 20
10529.73831326045
 30
0.0
 41
100.0
 42
100.0
 43
100.0
  0
MTEXT
  5
2D835
330
2703E
100
AcDbEntity
  8
寸法
 62
     7
 48
50.0
100
AcDbMText
 10
5899.035897556458
 20
10629.75012428408
 30
0.0
 40
120.0
 41
0.0
 71
     5
 72
     1
  1
\A1;7X420=2940
  7
STYLE1
 73
     1
 44
1.0
1001
ACAD
1000
MTEXTBEGIN
1070
    73
1070
     1
1070
    44
1040
1.0
1070
    74
1070
     0
1000
MTEXTEND
  0
POINT
  5
2D836
330
2703E
100
AcDbEntity
  8
DEFPOINTS
 62
     0
 48
50.0
100
AcDbPoint
 10
4474.896575107209
 20
10249.11128015172
 30
0.0
  0
POINT
  5
2D837
330
2703E
100
AcDbEntity
  8
DEFPOINTS
 62
     0
 48
50.0
100
AcDbPoint
 10
7414.89657510721
 20
10249.1112801517
 30
0.0
  0
POINT
  5
2D838
330
2703E
100
AcDbEntity
  8
DEFPOINTS
 62
     0
 48
50.0
100
AcDbPoint
 10
7414.89657510721
 20
10529.73831326045
 30
0.0
  0
ENDBLK
  5
27049
330
2703E
100
AcDbEntity
  8
0
 48
50.0
100
AcDbBlockEnd
  0
BLOCK
  5
27056
330
2704A
100
AcDbEntity
  8
0
 48
50.0
100
AcDbBlockBegin
  2
*D3
 70
     1
 10
0.0
 20
0.0
 30
0.0
  3
*D3
  1

  0
LINE
  5
2D839
330
2704A
100
AcDbEntity
  8
寸法
 62
     0
 48
50.0
370
    -2
100
AcDbLine
 10
7414.89657510721
 20
10269.1112801517
 30
0.0
 11
7414.89657510721
 21
10589.73831326045
 31
0.0
  0
LINE
  5
2D83A
330
2704A
100
AcDbEntity
  8
寸法
 62
     0
 48
50.0
370
    -2
100
AcDbLine
 10
7469.89657510721
 20
10269.1112801517
 30
0.0
 11
7469.89657510721
 21
10589.73831326045
 31
0.0
  0
LINE
  5
2D83B
330
2704A
100
AcDbEntity
  8
寸法
 62
     0
 48
50.0
370
    -2
100
AcDbLine
 10
7414.89657510721
 20
10529.73831326045
 30
0.0
 11
7314.896575107209
 21
10529.73831326045
 31
0.0
  0
LINE
  5
2D83C
330
2704A
100
AcDbEntity
  8
寸法
 62
     0
 48
50.0
370
    -2
100
AcDbLine
 10
7469.89657510721
 20
10529.73831326045
 30
0.0
 11
7886.867137855687
 21
10529.73831326045
 31
0.0
  0
LINE
  5
2D83D
330
2704A
100
AcDbEntity
  8
寸法
 62
     0
 48
50.0
370
    -2
100
AcDbLine
 10
7414.89657510721
 20
10529.73831326045
 30
0.0
 11
7469.89657510721
 21
10529.73831326045
 31
0.0
  0
INSERT
  5
2D83E
330
2704A
100
AcDbEntity
  8
寸法
 62
     0
 48
50.0
370
    -2
100
AcDbBlockReference
  2
_DOTSMALL
 10
7414.89657510721
 20
10529.73831326045
 30
0.0
 41
100.0
 42
100.0
 43
100.0
  0
INSERT
  5
2D83F
330
2704A
100
AcDbEntity
  8
寸法
 62
     0
 48
50.0
370
    -2
100
AcDbBlockReference
  2
_DOTSMALL
 10
7469.89657510721
 20
10529.73831326045
 30
0.0
 41
100.0
 42
100.0
 43
100.0
 50
180.0
  0
MTEXT
  5
2D840
330
2704A
100
AcDbEntity
  8
寸法
 62
     7
 48
50.0
100
AcDbMText
 10
7778.381856481448
 20
10629.73831326045
 30
0.0
 40
120.0
 41
0.0
 71
     5
 72
     1
  1
\A1;55
  7
STYLE1
 73
     1
 44
1.0
1001
ACAD
1000
MTEXTBEGIN
1070
    73
1070
     1
1070
    44
1040
1.0
1070
    74
1070
     0
1000
MTEXTEND
  0
POINT
  5
2D841
330
2704A
100
AcDbEntity
  8
DEFPOINTS
 62
     0
 48
50.0
100
AcDbPoint
 10
7414.89657510721
 20
10249.1112801517
 30
0.0
  0
POINT
  5
2D842
330
2704A
100
AcDbEntity
  8
DEFPOINTS
 62
     0
 48
50.0
100
AcDbPoint
 10
7469.89657510721
 20
10249.1112801517
 30
0.0
  0
POINT
  5
2D843
330
2704A
100
AcDbEntity
  8
DEFPOINTS
 62
     0
 48
50.0
100
AcDbPoint
 10
7469.89657510721
 20
10529.73831326045
 30
0.0
  0
ENDBLK
  5
27057
330
2704A
100
AcDbEntity
  8
0
 48
50.0
100
AcDbBlockEnd
  0
BLOCK
  5
27064
330
27058
100
AcDbEntity
  8
0
 48
50.0
100
AcDbBlockBegin
  2
*D4
 70
     1
 10
0.0
 20
0.0
 30
0.0
  3
*D4
  1

  0
LINE
  5
2D844
330
27058
100
AcDbEntity
  8
寸法
 62
     0
 48
50.0
370
    -2
100
AcDbLine
 10
7489.896575107209
 20
10249.1112801517
 30
0.0
 11
8177.322920841621
 21
10249.1112801517
 31
0.0
  0
LINE
  5
2D845
330
27058
100
AcDbEntity
  8
寸法
 62
     0
 48
50.0
370
    -2
100
AcDbLine
 10
7489.896575107209
 20
10194.1112801517
 30
0.0
 11
8177.32292084162
 21
10194.1112801517
 31
0.0
  0
LINE
  5
2D846
330
27058
100
AcDbEntity
  8
寸法
 62
     0
 48
50.0
370
    -2
100
AcDbLine
 10
8117.322920841621
 20
10194.1112801517
 30
0.0
 11
8117.322920841621
 21
10094.1112801517
 31
0.0
  0
LINE
  5
2D847
330
27058
100
AcDbEntity
  8
寸法
 62
     0
 48
50.0
370
    -2
100
AcDbLine
 10
8117.322920841621
 20
10249.1112801517
 30
0.0
 11
8117.322920841621
 21
10666.08184290017
 31
0.0
  0
LINE
  5
2D848
330
27058
100
AcDbEntity
  8
寸法
 62
     0
 48
50.0
370
    -2
100
AcDbLine
 10
8117.322920841621
 20
10194.1112801517
 30
0.0
 11
8117.322920841621
 21
10249.1112801517
 31
0.0
  0
INSERT
  5
2D849
330
27058
100
AcDbEntity
  8
寸法
 62
     0
 48
50.0
370
    -2
100
AcDbBlockReference
  2
_DOTSMALL
 10
8117.322920841621
 20
10194.1112801517
 30
0.0
 41
100.0
 42
100.0
 43
100.0
 50
90.0
  0
INSERT
  5
2D84A
330
27058
100
AcDbEntity
  8
寸法
 62
     0
 48
50.0
370
    -2
100
AcDbBlockReference
  2
_DOTSMALL
 10
8117.322920841621
 20
10249.1112801517
 30
0.0
 41
100.0
 42
100.0
 43
100.0
 50
270.0
  0
MTEXT
  5
2D84B
330
27058
100
AcDbEntity
  8
寸法
 62
     7
 48
50.0
100
AcDbMText
 10
8017.322920841619
 20
10557.59656152594
 30
0.0
 40
120.0
 41
0.0
 71
     5
 72
     1
  1
\A1;55
  7
STYLE1
 11
0.0000000000000001
 21
1.0
 31
0.0
 73
     1
 44
1.0
1001
ACAD
1000
MTEXTBEGIN
1070
    73
1070
     1
1070
    44
1040
1.0
1070
    74
1070
     0
1000
MTEXTEND
  0
POINT
  5
2D84C
330
27058
100
AcDbEntity
  8
DEFPOINTS
 62
     0
 48
50.0
100
AcDbPoint
 10
7469.89657510721
 20
10249.1112801517
 30
0.0
  0
POINT
  5
2D84D
330
27058
100
AcDbEntity
  8
DEFPOINTS
 62
     0
 48
50.0
100
AcDbPoint
 10
7469.89657510721
 20
10194.1112801517
 30
0.0
  0
POINT
  5
2D84E
330
27058
100
AcDbEntity
  8
DEFPOINTS
 62
     0
 48
50.0
100
AcDbPoint
 10
8117.322920841621
 20
10194.1112801517
 30
0.0
  0
ENDBLK
  5
27065
330
27058
100
AcDbEntity
  8
0
 48
50.0
100
AcDbBlockEnd
  0
BLOCK
  5
27072
330
27066
100
AcDbEntity
  8
0
 48
50.0
100
AcDbBlockBegin
  2
*D5
 70
     1
 10
0.0
 20
0.0
 30
0.0
  3
*D5
  1

  0
LINE
  5
2D84F
330
27066
100
AcDbEntity
  8
寸法
 62
     0
 48
50.0
370
    -2
100
AcDbLine
 10
4419.896575107173
 20
10269.11128015172
 30
0.0
 11
4419.896575107173
 21
10589.73831326045
 31
0.0
  0
LINE
  5
2D850
330
27066
100
AcDbEntity
  8
寸法
 62
     0
 48
50.0
370
    -2
100
AcDbLine
 10
4474.896575107209
 20
10269.11128015172
 30
0.0
 11
4474.896575107209
 21
10589.73831326045
 31
0.0
  0
LINE
  5
2D851
330
27066
100
AcDbEntity
  8
寸法
 62
     0
 48
50.0
370
    -2
100
AcDbLine
 10
4474.896575107209
 20
10529.73831326045
 30
0.0
 11
4574.896575107209
 21
10529.73831326045
 31
0.0
  0
LINE
  5
2D852
330
27066
100
AcDbEntity
  8
寸法
 62
     0
 48
50.0
370
    -2
100
AcDbLine
 10
4419.896575107173
 20
10529.73831326045
 30
0.0
 11
4002.926012358694
 21
10529.73831326045
 31
0.0
  0
LINE
  5
2D853
330
27066
100
AcDbEntity
  8
寸法
 62
     0
 48
50.0
370
    -2
100
AcDbLine
 10
4474.896575107209
 20
10529.73831326045
 30
0.0
 11
4419.896575107173
 21
10529.73831326045
 31
0.0
  0
INSERT
  5
2D854
330
27066
100
AcDbEntity
  8
寸法
 62
     0
 48
50.0
370
    -2
100
AcDbBlockReference
  2
_DOTSMALL
 10
4474.896575107209
 20
10529.73831326045
 30
0.0
 41
100.0
 42
100.0
 43
100.0
 50
180.0
  0
INSERT
  5
2D855
330
27066
100
AcDbEntity
  8
寸法
 62
     0
 48
50.0
370
    -2
100
AcDbBlockReference
  2
_DOTSMALL
 10
4419.896575107173
 20
10529.73831326045
 30
0.0
 41
100.0
 42
100.0
 43
100.0
  0
MTEXT
  5
2D856
330
27066
100
AcDbEntity
  8
寸法
 62
     7
 48
50.0
100
AcDbMText
 10
4111.411293732934
 20
10629.73831326045
 30
0.0
 40
120.0
 41
0.0
 71
     5
 72
     1
  1
\A1;55
  7
STYLE1
 73
     1
 44
1.0
1001
ACAD
1000
MTEXTBEGIN
1070
    73
1070
     1
1070
    44
1040
1.0
1070
    74
1070
     0
1000
MTEXTEND
  0
POINT
  5
2D857
330
27066
100
AcDbEntity
  8
DEFPOINTS
 62
     0
 48
50.0
100
AcDbPoint
 10
4419.896575107173
 20
10249.11128015172
 30
0.0
  0
POINT
  5
2D858
330
27066
100
AcDbEntity
  8
DEFPOINTS
 62
     0
 48
50.0
100
AcDbPoint
 10
4474.896575107209
 20
10249.11128015172
 30
0.0
  0
POINT
  5
2D859
330
27066
100
AcDbEntity
  8
DEFPOINTS
 62
     0
 48
50.0
100
AcDbPoint
 10
4474.896575107209
 20
10529.73831326045
 30
0.0
  0
ENDBLK
  5
27073
330
27066
100
AcDbEntity
  8
0
 48
50.0
100
AcDbBlockEnd
  0
BLOCK
  5
27080
330
27074
100
AcDbEntity
  8
0
 48
50.0
100
AcDbBlockBegin
  2
*D6
 70
     1
 10
0.0
 20
0.0
 30
0.0
  3
*D6
  1

  0
LINE
  5
2D85A
330
27074
100
AcDbEntity
  8
寸法
 62
     0
 48
50.0
370
    -2
100
AcDbLine
 10
7489.896575106977
 20
7254.111280151588
 30
0.0
 11
8177.322920841389
 21
7254.111280151588
 31
0.0
  0
LINE
  5
2D85B
330
27074
100
AcDbEntity
  8
寸法
 62
     0
 48
50.0
370
    -2
100
AcDbLine
 10
7489.896575106977
 20
7199.111280151592
 30
0.0
 11
8177.322920841389
 21
7199.111280151592
 31
0.0
  0
LINE
  5
2D85C
330
27074
100
AcDbEntity
  8
寸法
 62
     0
 48
50.0
370
    -2
100
AcDbLine
 10
8117.322920841386
 20
7254.111280151588
 30
0.0
 11
8117.322920841386
 21
7354.111280151588
 31
0.0
  0
LINE
  5
2D85D
330
27074
100
AcDbEntity
  8
寸法
 62
     0
 48
50.0
370
    -2
100
AcDbLine
 10
8117.322920841386
 20
7199.111280151592
 30
0.0
 11
8117.322920841386
 21
6712.76453187249
 31
0.0
  0
LINE
  5
2D85E
330
27074
100
AcDbEntity
  8
寸法
 62
     0
 48
50.0
370
    -2
100
AcDbLine
 10
8117.322920841386
 20
7254.111280151588
 30
0.0
 11
8117.322920841386
 21
7199.111280151592
 31
0.0
  0
INSERT
  5
2D85F
330
27074
100
AcDbEntity
  8
寸法
 62
     0
 48
50.0
370
    -2
100
AcDbBlockReference
  2
_DOTSMALL
 10
8117.322920841386
 20
7254.111280151588
 30
0.0
 41
100.0
 42
100.0
 43
100.0
 50
270.0
  0
INSERT
  5
2D860
330
27074
100
AcDbEntity
  8
寸法
 62
     0
 48
50.0
370
    -2
100
AcDbBlockReference
  2
_DOTSMALL
 10
8117.322920841386
 20
7199.111280151592
 30
0.0
 41
100.0
 42
100.0
 43
100.0
 50
90.0
  0
MTEXT
  5
2D861
330
27074
100
AcDbEntity
  8
寸法
 62
     7
 48
50.0
100
AcDbMText
 10
8017.322920841385
 20
6821.24981324673
 30
0.0
 40
120.0
 41
0.0
 71
     5
 72
     1
  1
\A1;55
  7
STYLE1
 11
0.0000000000000001
 21
1.0
 31
0.0
 73
     1
 44
1.0
1001
ACAD
1000
MTEXTBEGIN
1070
    73
1070
     1
1070
    44
1040
1.0
1070
    74
1070
     0
1000
MTEXTEND
  0
POINT
  5
2D862
330
27074
100
AcDbEntity
  8
DEFPOINTS
 62
     0
 48
50.0
100
AcDbPoint
 10
7469.896575106976
 20
7254.111280151588
 30
0.0
  0
POINT
  5
2D863
330
27074
100
AcDbEntity
  8
DEFPOINTS
 62
     0
 48
50.0
100
AcDbPoint
 10
7469.896575106976
 20
7199.111280151592
 30
0.0
  0
POINT
  5
2D864
330
27074
100
AcDbEntity
  8
DEFPOINTS
 62
     0
 48
50.0
100
AcDbPoint
 10
8117.322920841386
 20
7199.111280151592
 30
0.0
  0
ENDBLK
  5
27081
330
27074
100
AcDbEntity
  8
0
 48
50.0
100
AcDbBlockEnd
  0
BLOCK
  5
2708C
330
27082
100
AcDbEntity
  8
0
 48
50.0
100
AcDbBlockBegin
  2
*D7
 70
     1
 10
0.0
 20
0.0
 30
0.0
  3
*D7
  1

  0
LINE
  5
2D865
330
27082
100
AcDbEntity
  8
寸法
 62
     0
 48
50.0
370
    -2
100
AcDbLine
 10
5953.037591258587
 20
9749.111280151751
 30
0.0
 11
5884.81932974702
 21
9494.517262186564
 31
0.0
  0
LINE
  5
2D866
330
27082
100
AcDbEntity
  8
寸法
 62
     0
 48
50.0
370
    -2
100
AcDbLine
 10
7436.037591258598
 20
9749.111280151705
 30
0.0
 11
7367.819329747042
 21
9494.517262186564
 31
0.0
  0
LINE
  5
2D867
330
27082
100
AcDbEntity
  8
寸法
 62
     0
 48
50.0
370
    -2
100
AcDbLine
 10
5900.896281292887
 20
9554.517262186564
 30
0.0
 11
7383.896281292911
 21
9554.517262186564
 31
0.0
  0
INSERT
  5
2D868
330
27082
100
AcDbEntity
  8
寸法
 62
     0
 48
50.0
370
    -2
100
AcDbBlockReference
  2
_DOTSMALL
 10
5900.896281292887
 20
9554.517262186564
 30
0.0
 41
100.0
 42
100.0
 43
100.0
 50
180.0
  0
INSERT
  5
2D869
330
27082
100
AcDbEntity
  8
寸法
 62
     0
 48
50.0
370
    -2
100
AcDbBlockReference
  2
_DOTSMALL
 10
7383.896281292911
 20
9554.517262186564
 30
0.0
 41
100.0
 42
100.0
 43
100.0
  0
MTEXT
  5
2D86A
330
27082
100
AcDbEntity
  8
寸法
 62
     7
 48
50.0
100
AcDbMText
 10
6479.920619403249
 20
9654.517262186566
 30
0.0
 40
120.0
 41
0.0
 71
     5
 72
     1
  1
\A1;1483
  7
STYLE1
 73
     1
 44
1.0
1001
ACAD
1000
MTEXTBEGIN
1070
    73
1070
     1
1070
    44
1040
1.0
1070
    74
1070
     0
1000
MTEXTEND
  0
POINT
  5
2D86B
330
27082
100
AcDbEntity
  8
DEFPOINTS
 62
     0
 48
50.0
100
AcDbPoint
 10
5958.396575107209
 20
9769.111280151753
 30
0.0
  0
POINT
  5
2D86C
330
27082
100
AcDbEntity
  8
DEFPOINTS
 62
     0
 48
50.0
100
AcDbPoint
 10
7441.396575107219
 20
9769.111280151705
 30
0.0
  0
POINT
  5
2D86D
330
27082
100
AcDbEntity
  8
DEFPOINTS
 62
     0
 48
50.0
100
AcDbPoint
 10
7383.896281292911
 20
9554.517262186564
 30
0.0
  0
ENDBLK
  5
2708D
330
27082
100
AcDbEntity
  8
0
 48
50.0
100
AcDbBlockEnd
  0
BLOCK
  5
27098
330
2708E
100
AcDbEntity
  8
0
 48
50.0
100
AcDbBlockBegin
  2
*D8
 70
     1
 10
0.0
 20
0.0
 30
0.0
  3
*D8
  1

  0
LINE
  5
2D86E
330
2708E
100
AcDbEntity
  8
寸法
 62
     0
 48
50.0
370
    -2
100
AcDbLine
 10
7461.396575107208
 20
10213.75229630308
 30
0.0
 11
7856.754300969234
 21
10107.81651293694
 31
0.0
  0
LINE
  5
2D86F
330
2708E
100
AcDbEntity
  8
寸法
 62
     0
 48
50.0
370
    -2
100
AcDbLine
 10
7461.396575107208
 20
9763.752296303083
 30
0.0
 11
7856.754300969234
 21
9657.816512936948
 31
0.0
  0
LINE
  5
2D870
330
2708E
100
AcDbEntity
  8
寸法
 62
     0
 48
50.0
370
    -2
100
AcDbLine
 10
7796.754300969233
 20
10123.89346448281
 30
0.0
 11
7796.754300969233
 21
9673.893464482816
 31
0.0
  0
INSERT
  5
2D871
330
2708E
100
AcDbEntity
  8
寸法
 62
     0
 48
50.0
370
    -2
100
AcDbBlockReference
  2
_DOTSMALL
 10
7796.754300969233
 20
10123.89346448281
 30
0.0
 41
100.0
 42
100.0
 43
100.0
 50
90.0
  0
INSERT
  5
2D872
330
2708E
100
AcDbEntity
  8
寸法
 62
     0
 48
50.0
370
    -2
100
AcDbBlockReference
  2
_DOTSMALL
 10
7796.754300969233
 20
9673.893464482816
 30
0.0
 41
100.0
 42
100.0
 43
100.0
 50
270.0
  0
MTEXT
  5
2D873
330
2708E
100
AcDbEntity
  8
寸法
 62
     7
 48
50.0
100
AcDbMText
 10
7696.754300969233
 20
9898.893464482815
 30
0.0
 40
120.0
 41
0.0
 71
     5
 72
     1
  1
\A1;450
  7
STYLE1
 11
0.0000000000000001
 21
1.0
 31
0.0
 73
     1
 44
1.0
1001
ACAD
1000
MTEXTBEGIN
1070
    73
1070
     1
1070
    44
1040
1.0
1070
    74
1070
     0
1000
MTEXTEND
  0
POINT
  5
2D874
330
2708E
100
AcDbEntity
  8
DEFPOINTS
 62
     0
 48
50.0
100
AcDbPoint
 10
7441.396575107209
 20
10219.1112801517
 30
0.0
  0
POINT
  5
2D875
330
2708E
100
AcDbEntity
  8
DEFPOINTS
 62
     0
 48
50.0
100
AcDbPoint
 10
7441.396575107209
 20
9769.111280151705
 30
0.0
  0
POINT
  5
2D876
330
2708E
100
AcDbEntity
  8
DEFPOINTS
 62
     0
 48
50.0
100
AcDbPoint
 10
7796.754300969233
 20
9673.893464482816
 30
0.0
  0
ENDBLK
  5
27099
330
2708E
100
AcDbEntity
  8
0
 48
50.0
100
AcDbBlockEnd
  0
BLOCK
  5
270A4
330
2709A
100
AcDbEntity
  8
0
 48
50.0
100
AcDbBlockBegin
  2
*D9
 70
     1
 10
0.0
 20
0.0
 30
0.0
  3
*D9
  1

  0
LINE
  5
2D877
330
2709A
100
AcDbEntity
  8
寸法
 62
     0
 48
50.0
370
    -2
100
AcDbLine
 10
7489.896575107057
 20
10194.1112801517
 30
0.0
 11
8177.322920841387
 21
10194.1112801517
 31
0.0
  0
LINE
  5
2D878
330
2709A
100
AcDbEntity
  8
寸法
 62
     0
 48
50.0
370
    -2
100
AcDbLine
 10
7489.896575106977
 20
7254.111280151588
 30
0.0
 11
8177.322920841387
 21
7254.111280151588
 31
0.0
  0
LINE
  5
2D879
330
2709A
100
AcDbEntity
  8
寸法
 62
     0
 48
50.0
370
    -2
100
AcDbLine
 10
8117.322920841386
 20
10194.1112801517
 30
0.0
 11
8117.322920841386
 21
7254.111280151588
 31
0.0
  0
INSERT
  5
2D87A
330
2709A
100
AcDbEntity
  8
寸法
 62
     0
 48
50.0
370
    -2
100
AcDbBlockReference
  2
_DOTSMALL
 10
8117.322920841386
 20
10194.1112801517
 30
0.0
 41
100.0
 42
100.0
 43
100.0
 50
90.0
  0
INSERT
  5
2D87B
330
2709A
100
AcDbEntity
  8
寸法
 62
     0
 48
50.0
370
    -2
100
AcDbBlockReference
  2
_DOTSMALL
 10
8117.322920841386
 20
7254.111280151588
 30
0.0
 41
100.0
 42
100.0
 43
100.0
 50
270.0
  0
MTEXT
  5
2D87C
330
2709A
100
AcDbEntity
  8
寸法
 62
     7
 48
50.0
100
AcDbMText
 10
8017.311109817764
 20
8674.520969013698
 30
0.0
 40
120.0
 41
0.0
 71
     5
 72
     1
  1
\A1;7X420=2940
  7
STYLE1
 11
0.0000000000000001
 21
1.0
 31
0.0
 73
     1
 44
1.0
1001
ACAD
1000
MTEXTBEGIN
1070
    73
1070
     1
1070
    44
1040
1.0
1070
    74
1070
     0
1000
MTEXTEND
  0
POINT
  5
2D87D
330
2709A
100
AcDbEntity
  8
DEFPOINTS
 62
     0
 48
50.0
100
AcDbPoint
 10
7469.896575107059
 20
10194.1112801517
 30
0.0
  0
POINT
  5
2D87E
330
2709A
100
AcDbEntity
  8
DEFPOINTS
 62
     0
 48
50.0
100
AcDbPoint
 10
7469.896575106976
 20
7254.111280151588
 30
0.0
  0
POINT
  5
2D87F
330
2709A
100
AcDbEntity
  8
DEFPOINTS
 62
     0
 48
50.0
100
AcDbPoint
 10
8117.322920841386
 20
7254.111280151588
 30
0.0
  0
ENDBLK
  5
270A5
330
2709A
100
AcDbEntity
  8
0
 48
50.0
100
AcDbBlockEnd
  0
BLOCK
  5
270B0
330
270A6
100
AcDbEntity
  8
0
 48
50.0
100
AcDbBlockBegin
  2
*D10
 70
     1
 10
0.0
 20
0.0
 30
0.0
  3
*D10
  1

  0
LINE
  5
2D880
330
270A6
100
AcDbEntity
  8
寸法
 62
     0
 48
50.0
370
    -2
100
AcDbLine
 10
4443.037591258586
 20
9749.111280151488
 30
0.0
 11
4375.177293111684
 21
9495.853199650476
 31
0.0
  0
LINE
  5
2D881
330
270A6
100
AcDbEntity
  8
寸法
 62
     0
 48
50.0
370
    -2
100
AcDbLine
 10
5926.037591258587
 20
9749.111280151751
 30
0.0
 11
5858.177293111612
 21
9495.853199650476
 31
0.0
  0
LINE
  5
2D882
330
270A6
100
AcDbEntity
  8
寸法
 62
     0
 48
50.0
370
    -2
100
AcDbLine
 10
4391.254244657551
 20
9555.853199650476
 30
0.0
 11
5874.254244657481
 21
9555.853199650476
 31
0.0
  0
INSERT
  5
2D883
330
270A6
100
AcDbEntity
  8
寸法
 62
     0
 48
50.0
370
    -2
100
AcDbBlockReference
  2
_DOTSMALL
 10
4391.254244657551
 20
9555.853199650476
 30
0.0
 41
100.0
 42
100.0
 43
100.0
 50
180.0
  0
INSERT
  5
2D884
330
270A6
100
AcDbEntity
  8
寸法
 62
     0
 48
50.0
370
    -2
100
AcDbBlockReference
  2
_DOTSMALL
 10
5874.254244657481
 20
9555.853199650476
 30
0.0
 41
100.0
 42
100.0
 43
100.0
  0
MTEXT
  5
2D885
330
270A6
100
AcDbEntity
  8
寸法
 62
     7
 48
50.0
100
AcDbMText
 10
5012.644825345375
 20
9655.853199650476
 30
0.0
 40
120.0
 41
0.0
 71
     5
 72
     1
  1
\A1;1483
  7
STYLE1
 73
     1
 44
1.0
1001
ACAD
1000
MTEXTBEGIN
1070
    73
1070
     1
1070
    44
1040
1.0
1070
    74
1070
     0
1000
MTEXTEND
  0
POINT
  5
2D886
330
270A6
100
AcDbEntity
  8
DEFPOINTS
 62
     0
 48
50.0
100
AcDbPoint
 10
4448.396575107209
 20
9769.111280151486
 30
0.0
  0
POINT
  5
2D887
330
270A6
100
AcDbEntity
  8
DEFPOINTS
 62
     0
 48
50.0
100
AcDbPoint
 10
5931.396575107209
 20
9769.111280151753
 30
0.0
  0
POINT
  5
2D888
330
270A6
100
AcDbEntity
  8
DEFPOINTS
 62
     0
 48
50.0
100
AcDbPoint
 10
5874.254244657481
 20
9555.853199650476
 30
0.0
  0
ENDBLK
  5
270B1
330
270A6
100
AcDbEntity
  8
0
 48
50.0
100
AcDbBlockEnd
  0
BLOCK
  5
285BC
330
285B2
100
AcDbEntity
  8
0
 48
50.0
100
AcDbBlockBegin
  2
*D11
 70
     1
 10
0.0
 20
0.0
 30
0.0
  3
*D11
  1

  0
LINE
  5
2D81E
330
285B2
100
AcDbEntity
  8
寸法
 62
     0
 48
50.0
370
    -2
100
AcDbLine
 10
6554.396608092028
 20
7179.111280151559
 30
0.0
 11
6554.396608092028
 21
6584.413708376861
 31
0.0
  0
LINE
  5
2D81F
330
285B2
100
AcDbEntity
  8
寸法
 62
     0
 48
50.0
370
    -2
100
AcDbLine
 10
5247.396608092028
 20
7179.111280151447
 30
0.0
 11
5247.396608092028
 21
6584.413708376861
 31
0.0
  0
LINE
  5
2D820
330
285B2
100
AcDbEntity
  8
寸法
 62
     0
 48
50.0
370
    -2
100
AcDbLine
 10
6554.396608092028
 20
6644.413708376863
 30
0.0
 11
5247.396608092028
 21
6644.413708376863
 31
0.0
  0
INSERT
  5
2D821
330
285B2
100
AcDbEntity
  8
寸法
 62
     0
 48
50.0
370
    -2
100
AcDbBlockReference
  2
_DOTSMALL
 10
6554.396608092028
 20
6644.413708376863
 30
0.0
 41
100.0
 42
100.0
 43
100.0
  0
INSERT
  5
2D822
330
285B2
100
AcDbEntity
  8
寸法
 62
     0
 48
50.0
370
    -2
100
AcDbBlockReference
  2
_DOTSMALL
 10
5247.396608092028
 20
6644.413708376863
 30
0.0
 41
100.0
 42
100.0
 43
100.0
 50
180.0
  0
MTEXT
  5
2D823
330
285B2
100
AcDbEntity
  8
寸法
 62
     7
 48
50.0
100
AcDbMText
 10
5923.898055825319
 20
6844.413708376862
 30
0.0
 40
120.0
 41
0.0
 71
     5
 72
     1
  1
\A1;有効開口部間口\P1307
  7
STYLE1
 73
     1
 44
1.0
1001
ACAD
1000
MTEXTBEGIN
1070
    73
1070
     1
1070
    44
1040
1.0
1070
    74
1070
     0
1000
MTEXTEND
  0
POINT
  5
2D824
330
285B2
100
AcDbEntity
  8
DEFPOINTS
 62
     0
 48
50.0
100
AcDbPoint
 10
6554.396608092028
 20
7199.111280151559
 30
0.0
  0
POINT
  5
2D825
330
285B2
100
AcDbEntity
  8
DEFPOINTS
 62
     0
 48
50.0
100
AcDbPoint
 10
5247.396608092028
 20
7199.111280151448
 30
0.0
  0
POINT
  5
2D826
330
285B2
100
AcDbEntity
  8
DEFPOINTS
 62
     0
 48
50.0
100
AcDbPoint
 10
5247.396608092028
 20
6644.413708376863
 30
0.0
  0
ENDBLK
  5
285BD
330
285B2
100
AcDbEntity
  8
0
 48
50.0
100
AcDbBlockEnd
  0
BLOCK
  5
285EE
330
285E4
100
AcDbEntity
  8
0
 48
50.0
100
AcDbBlockBegin
  2
*D12
 70
     1
 10
0.0
 20
0.0
 30
0.0
  3
*D12
  1

  0
LINE
  5
2D815
330
285E4
100
AcDbEntity
  8
寸法
 62
     0
 48
50.0
370
    -2
100
AcDbLine
 10
4419.896575106995
 20
7179.111280151578
 30
0.0
 11
4419.896575106995
 21
6350.60517159462
 31
0.0
  0
LINE
  5
2D816
330
285E4
100
AcDbEntity
  8
寸法
 62
     0
 48
50.0
370
    -2
100
AcDbLine
 10
7469.896575106976
 20
7179.111280151592
 30
0.0
 11
7469.896575106976
 21
6350.60517159462
 31
0.0
  0
LINE
  5
2D817
330
285E4
100
AcDbEntity
  8
寸法
 62
     0
 48
50.0
370
    -2
100
AcDbLine
 10
4419.896575106995
 20
6410.605171594619
 30
0.0
 11
7469.896575106976
 21
6410.605171594619
 31
0.0
  0
INSERT
  5
2D818
330
285E4
100
AcDbEntity
  8
寸法
 62
     0
 48
50.0
370
    -2
100
AcDbBlockReference
  2
_DOTSMALL
 10
4419.896575106995
 20
6410.605171594619
 30
0.0
 41
100.0
 42
100.0
 43
100.0
 50
180.0
  0
INSERT
  5
2D819
330
285E4
100
AcDbEntity
  8
寸法
 62
     0
 48
50.0
370
    -2
100
AcDbBlockReference
  2
_DOTSMALL
 10
7469.896575106976
 20
6410.605171594619
 30
0.0
 41
100.0
 42
100.0
 43
100.0
  0
MTEXT
  5
2D81A
330
285E4
100
AcDbEntity
  8
寸法
 62
     7
 48
50.0
100
AcDbMText
 10
5982.237605261918
 20
6510.605171594619
 30
0.0
 40
120.0
 41
0.0
 71
     5
 72
     1
  1
\A1;3050
  7
STYLE1
 73
     1
 44
1.0
1001
ACAD
1000
MTEXTBEGIN
1070
    73
1070
     1
1070
    44
1040
1.0
1070
    74
1070
     0
1000
MTEXTEND
  0
POINT
  5
2D81B
330
285E4
100
AcDbEntity
  8
DEFPOINTS
 62
     0
 48
50.0
100
AcDbPoint
 10
4419.896575106995
 20
7199.111280151576
 30
0.0
  0
POINT
  5
2D81C
330
285E4
100
AcDbEntity
  8
DEFPOINTS
 62
     0
 48
50.0
100
AcDbPoint
 10
7469.896575106976
 20
7199.111280151592
 30
0.0
  0
POINT
  5
2D81D
330
285E4
100
AcDbEntity
  8
DEFPOINTS
 62
     0
 48
50.0
100
AcDbPoint
 10
7469.896575106976
 20
6410.605171594619
 30
0.0
  0
ENDBLK
  5
285EF
330
285E4
100
AcDbEntity
  8
0
 48
50.0
100
AcDbBlockEnd
  0
BLOCK
  5
2CA9F
330
2CA95
100
AcDbEntity
  8
0
 48
50.0
100
AcDbBlockBegin
  2
*D13
 70
     1
 10
0.0
 20
0.0
 30
0.0
  3
*D13
  1

  0
LINE
  5
2DFC7
330
2CA95
100
AcDbEntity
  8
寸法
 62
     0
 48
50.0
370
    -2
100
AcDbLine
 10
9534.728445172431
 20
4063.834065208105
 30
0.0
 11
8949.819803775179
 21
4063.834065208105
 31
0.0
  0
LINE
  5
2DFC8
330
2CA95
100
AcDbEntity
  8
寸法
 62
     0
 48
50.0
370
    -2
100
AcDbLine
 10
9534.728445172433
 20
2293.834065208105
 30
0.0
 11
8949.819803775179
 21
2293.834065208105
 31
0.0
  0
LINE
  5
2DFC9
330
2CA95
100
AcDbEntity
  8
寸法
 62
     0
 48
50.0
370
    -2
100
AcDbLine
 10
9009.819803775178
 20
4063.834065208105
 30
0.0
 11
9009.819803775178
 21
2293.834065208105
 31
0.0
  0
INSERT
  5
2DFCA
330
2CA95
100
AcDbEntity
  8
寸法
 62
     0
 48
50.0
370
    -2
100
AcDbBlockReference
  2
_DOTSMALL
 10
9009.819803775178
 20
4063.834065208105
 30
0.0
 41
100.0
 42
100.0
 43
100.0
 50
90.0
  0
INSERT
  5
2DFCB
330
2CA95
100
AcDbEntity
  8
寸法
 62
     0
 48
50.0
370
    -2
100
AcDbBlockReference
  2
_DOTSMALL
 10
9009.819803775178
 20
2293.834065208105
 30
0.0
 41
100.0
 42
100.0
 43
100.0
 50
270.0
  0
MTEXT
  5
2DFCC
330
2CA95
100
AcDbEntity
  8
寸法
 62
     7
 48
50.0
100
AcDbMText
 10
8909.819803775178
 20
3178.834065208107
 30
0.0
 40
120.0
 41
0.0
 71
     5
 72
     1
  1
\A1;有効開口部高サ1770
  7
STYLE1
 11
0.0000000000000001
 21
1.0
 31
0.0
 73
     1
 44
1.0
1001
ACAD
1000
MTEXTBEGIN
1070
    73
1070
     1
1070
    44
1040
1.0
1070
    74
1070
     0
1000
MTEXTEND
  0
POINT
  5
2DFCD
330
2CA95
100
AcDbEntity
  8
DEFPOINTS
 62
     0
 48
50.0
100
AcDbPoint
 10
9554.728445172433
 20
4063.834065208105
 30
0.0
  0
POINT
  5
2DFCE
330
2CA95
100
AcDbEntity
  8
DEFPOINTS
 62
     0
 48
50.0
100
AcDbPoint
 10
9554.728445172434
 20
2293.834065208105
 30
0.0
  0
POINT
  5
2DFCF
330
2CA95
100
AcDbEntity
  8
DEFPOINTS
 62
     0
 48
50.0
100
AcDbPoint
 10
9009.819803775178
 20
2293.834065208105
 30
0.0
  0
ENDBLK
  5
2CAA0
330
2CA95
100
AcDbEntity
  8
0
 48
50.0
100
AcDbBlockEnd
  0
BLOCK
  5
2CAAB
330
2CAA1
100
AcDbEntity
  8
0
 48
50.0
100
AcDbBlockBegin
  2
*D14
 70
     1
 10
0.0
 20
0.0
 30
0.0
  3
*D14
  1

  0
LINE
  5
2DFBE
330
2CAA1
100
AcDbEntity
  8
寸法
 62
     0
 48
50.0
370
    -2
100
AcDbLine
 10
9534.728445172433
 20
4071.834065208106
 30
0.0
 11
8650.978315989174
 21
4071.834065208107
 31
0.0
  0
LINE
  5
2DFBF
330
2CAA1
100
AcDbEntity
  8
寸法
 62
     0
 48
50.0
370
    -2
100
AcDbLine
 10
9534.728445172433
 20
2281.834065208105
 30
0.0
 11
8650.978315989174
 21
2281.834065208105
 31
0.0
  0
LINE
  5
2DFC0
330
2CAA1
100
AcDbEntity
  8
寸法
 62
     0
 48
50.0
370
    -2
100
AcDbLine
 10
8710.978315989175
 20
4071.834065208107
 30
0.0
 11
8710.978315989175
 21
2281.834065208105
 31
0.0
  0
INSERT
  5
2DFC1
330
2CAA1
100
AcDbEntity
  8
寸法
 62
     0
 48
50.0
370
    -2
100
AcDbBlockReference
  2
_DOTSMALL
 10
8710.978315989175
 20
4071.834065208107
 30
0.0
 41
100.0
 42
100.0
 43
100.0
 50
90.0
  0
INSERT
  5
2DFC2
330
2CAA1
100
AcDbEntity
  8
寸法
 62
     0
 48
50.0
370
    -2
100
AcDbBlockReference
  2
_DOTSMALL
 10
8710.978315989175
 20
2281.834065208105
 30
0.0
 41
100.0
 42
100.0
 43
100.0
 50
270.0
  0
MTEXT
  5
2DFC3
330
2CAA1
100
AcDbEntity
  8
寸法
 62
     7
 48
50.0
100
AcDbMText
 10
8610.978315989175
 20
3176.834065208108
 30
0.0
 40
120.0
 41
0.0
 71
     5
 72
     1
  1
\A1;1790
  7
STYLE1
 11
0.0000000000000001
 21
1.0
 31
0.0
 73
     1
 44
1.0
1001
ACAD
1000
MTEXTBEGIN
1070
    73
1070
     1
1070
    44
1040
1.0
1070
    74
1070
     0
1000
MTEXTEND
  0
POINT
  5
2DFC4
330
2CAA1
100
AcDbEntity
  8
DEFPOINTS
 62
     0
 48
50.0
100
AcDbPoint
 10
9554.728445172434
 20
4071.834065208106
 30
0.0
  0
POINT
  5
2DFC5
330
2CAA1
100
AcDbEntity
  8
DEFPOINTS
 62
     0
 48
50.0
100
AcDbPoint
 10
9554.728445172434
 20
2281.834065208105
 30
0.0
  0
POINT
  5
2DFC6
330
2CAA1
100
AcDbEntity
  8
DEFPOINTS
 62
     0
 48
50.0
100
AcDbPoint
 10
8710.978315989175
 20
2281.834065208105
 30
0.0
  0
ENDBLK
  5
2CAAC
330
2CAA1
100
AcDbEntity
  8
0
 48
50.0
100
AcDbBlockEnd
  0
BLOCK
  5
2CAB7
330
2CAAD
100
AcDbEntity
  8
0
 48
50.0
100
AcDbBlockBegin
  2
*D15
 70
     1
 10
0.0
 20
0.0
 30
0.0
  3
*D15
  1

  0
LINE
  5
2DFB5
330
2CAAD
100
AcDbEntity
  8
寸法
 62
     0
 48
50.0
370
    -2
100
AcDbLine
 10
9534.728445172433
 20
2231.834065208105
 30
0.0
 11
8350.978315989172
 21
2231.834065208106
 31
0.0
  0
LINE
  5
2DFB6
330
2CAAD
100
AcDbEntity
  8
寸法
 62
     0
 48
50.0
370
    -2
100
AcDbLine
 10
9474.728445172434
 20
4306.83406520811
 30
0.0
 11
8350.978315989173
 21
4306.83406520811
 31
0.0
  0
LINE
  5
2DFB7
330
2CAAD
100
AcDbEntity
  8
寸法
 62
     0
 48
50.0
370
    -2
100
AcDbLine
 10
8410.978315989172
 20
2231.834065208106
 30
0.0
 11
8410.978315989174
 21
4306.83406520811
 31
0.0
  0
INSERT
  5
2DFB8
330
2CAAD
100
AcDbEntity
  8
寸法
 62
     0
 48
50.0
370
    -2
100
AcDbBlockReference
  2
_DOTSMALL
 10
8410.978315989172
 20
2231.834065208106
 30
0.0
 41
100.0
 42
100.0
 43
100.0
 50
270.0
  0
INSERT
  5
2DFB9
330
2CAAD
100
AcDbEntity
  8
寸法
 62
     0
 48
50.0
370
    -2
100
AcDbBlockReference
  2
_DOTSMALL
 10
8410.978315989174
 20
4306.83406520811
 30
0.0
 41
100.0
 42
100.0
 43
100.0
 50
90.0
  0
MTEXT
  5
2DFBA
330
2CAAD
100
AcDbEntity
  8
寸法
 62
     7
 48
50.0
100
AcDbMText
 10
8310.96650496555
 20
3269.334065208109
 30
0.0
 40
120.0
 41
0.0
 71
     5
 72
     1
  1
\A1;2075
  7
STYLE1
 11
0.0000000000000001
 21
1.0
 31
0.0
 73
     1
 44
1.0
1001
ACAD
1000
MTEXTBEGIN
1070
    73
1070
     1
1070
    44
1040
1.0
1070
    74
1070
     0
1000
MTEXTEND
  0
POINT
  5
2DFBB
330
2CAAD
100
AcDbEntity
  8
DEFPOINTS
 62
     0
 48
50.0
100
AcDbPoint
 10
9554.728445172434
 20
2231.834065208105
 30
0.0
  0
POINT
  5
2DFBC
330
2CAAD
100
AcDbEntity
  8
DEFPOINTS
 62
     0
 48
50.0
100
AcDbPoint
 10
9494.728445172434
 20
4306.83406520811
 30
0.0
  0
POINT
  5
2DFBD
330
2CAAD
100
AcDbEntity
  8
DEFPOINTS
 62
     0
 48
50.0
100
AcDbPoint
 10
8410.978315989174
 20
4306.83406520811
 30
0.0
  0
ENDBLK
  5
2CAB8
330
2CAAD
100
AcDbEntity
  8
0
 48
50.0
100
AcDbBlockEnd
  0
BLOCK
  5
2CAC3
330
2CAB9
100
AcDbEntity
  8
0
 48
50.0
100
AcDbBlockBegin
  2
*D16
 70
     1
 10
0.0
 20
0.0
 30
0.0
  3
*D16
  1

  0
LINE
  5
2E003
330
2CAB9
100
AcDbEntity
  8
寸法
 62
     0
 48
50.0
370
    -2
100
AcDbLine
 10
12624.72844517243
 20
2231.834065208112
 30
0.0
 11
13369.65560314456
 21
2231.834065208111
 31
0.0
  0
LINE
  5
2E004
330
2CAB9
100
AcDbEntity
  8
寸法
 62
     0
 48
50.0
370
    -2
100
AcDbLine
 10
12704.72844517243
 20
4251.834065208111
 30
0.0
 11
13369.65560314456
 21
4251.834065208111
 31
0.0
  0
LINE
  5
2E005
330
2CAB9
100
AcDbEntity
  8
寸法
 62
     0
 48
50.0
370
    -2
100
AcDbLine
 10
13309.65560314456
 20
2231.834065208112
 30
0.0
 11
13309.65560314456
 21
4251.834065208111
 31
0.0
  0
INSERT
  5
2E006
330
2CAB9
100
AcDbEntity
  8
寸法
 62
     0
 48
50.0
370
    -2
100
AcDbBlockReference
  2
_DOTSMALL
 10
13309.65560314456
 20
2231.834065208112
 30
0.0
 41
100.0
 42
100.0
 43
100.0
 50
270.0
  0
INSERT
  5
2E007
330
2CAB9
100
AcDbEntity
  8
寸法
 62
     0
 48
50.0
370
    -2
100
AcDbBlockReference
  2
_DOTSMALL
 10
13309.65560314456
 20
4251.834065208111
 30
0.0
 41
100.0
 42
100.0
 43
100.0
 50
90.0
  0
MTEXT
  5
2E008
330
2CAB9
100
AcDbEntity
  8
寸法
 62
     7
 48
50.0
100
AcDbMText
 10
13209.64379212094
 20
3241.834065208113
 30
0.0
 40
120.0
 41
0.0
 71
     5
 72
     1
  1
\A1;2020
  7
STYLE1
 11
0.0000000000000001
 21
1.0
 31
0.0
 73
     1
 44
1.0
1001
ACAD
1000
MTEXTBEGIN
1070
    73
1070
     1
1070
    44
1040
1.0
1070
    74
1070
     0
1000
MTEXTEND
  0
POINT
  5
2E009
330
2CAB9
100
AcDbEntity
  8
DEFPOINTS
 62
     0
 48
50.0
100
AcDbPoint
 10
12604.72844517243
 20
2231.834065208112
 30
0.0
  0
POINT
  5
2E00A
330
2CAB9
100
AcDbEntity
  8
DEFPOINTS
 62
     0
 48
50.0
100
AcDbPoint
 10
12684.72844517243
 20
4251.834065208111
 30
0.0
  0
POINT
  5
2E00B
330
2CAB9
100
AcDbEntity
  8
DEFPOINTS
 62
     0
 48
50.0
100
AcDbPoint
 10
13309.65560314456
 20
4251.834065208111
 30
0.0
  0
ENDBLK
  5
2CAC4
330
2CAB9
100
AcDbEntity
  8
0
 48
50.0
100
AcDbBlockEnd
  0
BLOCK
  5
2CAD0
330
2CAC5
100
AcDbEntity
  8
0
 48
50.0
100
AcDbBlockBegin
  2
*D17
 70
     1
 10
0.0
 20
0.0
 30
0.0
  3
*D17
  1

  0
LINE
  5
2D8D7
330
2CAC5
100
AcDbEntity
  8
寸法
 62
     0
 48
50.0
370
    -2
100
AcDbLine
 10
9479.728445172433
 20
2231.83406520811
 30
0.0
 11
8350.978315989173
 21
2231.83406520811
 31
0.0
  0
LINE
  5
2D8D8
330
2CAC5
100
AcDbEntity
  8
寸法
 62
     0
 48
50.0
370
    -2
100
AcDbLine
 10
8478.227369277302
 20
2131.83406520811
 30
0.0
 11
8350.978315989173
 21
2131.83406520811
 31
0.0
  0
LINE
  5
2D8D9
330
2CAC5
100
AcDbEntity
  8
寸法
 62
     0
 48
50.0
370
    -2
100
AcDbLine
 10
8410.978315989174
 20
2231.83406520811
 30
0.0
 11
8410.978315989174
 21
2131.83406520811
 31
0.0
  0
LINE
  5
2D8DA
330
2CAC5
100
AcDbEntity
  8
寸法
 62
     0
 48
50.0
370
    -2
100
AcDbLine
 10
8410.978315989174
 20
2131.83406520811
 30
0.0
 11
8410.978315989174
 21
1759.73957701913
 31
0.0
  0
INSERT
  5
2D8DB
330
2CAC5
100
AcDbEntity
  8
寸法
 62
     0
 48
50.0
370
    -2
100
AcDbBlockReference
  2
_DOTSMALL
 10
8410.978315989174
 20
2231.83406520811
 30
0.0
 41
100.0
 42
100.0
 43
100.0
 50
90.0
  0
INSERT
  5
2D8DC
330
2CAC5
100
AcDbEntity
  8
寸法
 62
     0
 48
50.0
370
    -2
100
AcDbBlockReference
  2
_DOTSMALL
 10
8410.978315989174
 20
2131.83406520811
 30
0.0
 41
100.0
 42
100.0
 43
100.0
 50
270.0
  0
MTEXT
  5
2D8DD
330
2CAC5
100
AcDbEntity
  8
寸法
 62
     7
 48
50.0
100
AcDbMText
 10
8310.978315989174
 20
1895.78682111362
 30
0.0
 40
120.0
 41
0.0
 71
     5
 72
     1
  1
\A1;100
  7
STYLE1
 11
0.0000000000000001
 21
1.0
 31
0.0
 73
     1
 44
1.0
1001
ACAD
1000
MTEXTBEGIN
1070
    73
1070
     1
1070
    44
1040
1.0
1070
    74
1070
     0
1000
MTEXTEND
  0
POINT
  5
2D8DE
330
2CAC5
100
AcDbEntity
  8
DEFPOINTS
 62
     0
 48
50.0
100
AcDbPoint
 10
9499.728445172435
 20
2231.83406520811
 30
0.0
  0
POINT
  5
2D8DF
330
2CAC5
100
AcDbEntity
  8
DEFPOINTS
 62
     0
 48
50.0
100
AcDbPoint
 10
8498.227369277302
 20
2131.83406520811
 30
0.0
  0
POINT
  5
2D8E0
330
2CAC5
100
AcDbEntity
  8
DEFPOINTS
 62
     0
 48
50.0
100
AcDbPoint
 10
8410.978315989174
 20
2131.83406520811
 30
0.0
  0
ENDBLK
  5
2CAD1
330
2CAC5
100
AcDbEntity
  8
0
 48
50.0
100
AcDbBlockEnd
  0
BLOCK
  5
2CADE
330
2CAD2
100
AcDbEntity
  8
0
 48
50.0
100
AcDbBlockBegin
  2
*D18
 70
     1
 10
0.0
 20
0.0
 30
0.0
  3
*D18
  1

  0
LINE
  5
2D8CC
330
2CAD2
100
AcDbEntity
  8
寸法
 62
     0
 48
50.0
370
    -2
100
AcDbLine
 10
9534.728445172433
 20
2281.83406520811
 30
0.0
 11
8650.978315989174
 21
2281.83406520811
 31
0.0
  0
LINE
  5
2D8CD
330
2CAD2
100
AcDbEntity
  8
寸法
 62
     0
 48
50.0
370
    -2
100
AcDbLine
 10
9479.728445172433
 20
2231.83406520811
 30
0.0
 11
8650.978315989174
 21
2231.83406520811
 31
0.0
  0
LINE
  5
2D8CE
330
2CAD2
100
AcDbEntity
  8
寸法
 62
     0
 48
50.0
370
    -2
100
AcDbLine
 10
8710.978315989175
 20
2281.83406520811
 30
0.0
 11
8710.978315989175
 21
2381.83406520811
 31
0.0
  0
LINE
  5
2D8CF
330
2CAD2
100
AcDbEntity
  8
寸法
 62
     0
 48
50.0
370
    -2
100
AcDbLine
 10
8710.978315989175
 20
2231.83406520811
 30
0.0
 11
8710.978315989175
 21
1819.73957701913
 31
0.0
  0
LINE
  5
2D8D0
330
2CAD2
100
AcDbEntity
  8
寸法
 62
     0
 48
50.0
370
    -2
100
AcDbLine
 10
8710.978315989175
 20
2281.83406520811
 30
0.0
 11
8710.978315989175
 21
2231.83406520811
 31
0.0
  0
INSERT
  5
2D8D1
330
2CAD2
100
AcDbEntity
  8
寸法
 62
     0
 48
50.0
370
    -2
100
AcDbBlockReference
  2
_DOTSMALL
 10
8710.978315989175
 20
2281.83406520811
 30
0.0
 41
100.0
 42
100.0
 43
100.0
 50
270.0
  0
INSERT
  5
2D8D2
330
2CAD2
100
AcDbEntity
  8
寸法
 62
     0
 48
50.0
370
    -2
100
AcDbBlockReference
  2
_DOTSMALL
 10
8710.978315989175
 20
2231.83406520811
 30
0.0
 41
100.0
 42
100.0
 43
100.0
 50
90.0
  0
MTEXT
  5
2D8D3
330
2CAD2
100
AcDbEntity
  8
寸法
 62
     7
 48
50.0
100
AcDbMText
 10
8610.978315989175
 20
1925.78682111362
 30
0.0
 40
120.0
 41
0.0
 71
     5
 72
     1
  1
\A1;50
  7
STYLE1
 11
0.0000000000000001
 21
1.0
 31
0.0
 73
     1
 44
1.0
1001
ACAD
1000
MTEXTBEGIN
1070
    73
1070
     1
1070
    44
1040
1.0
1070
    74
1070
     0
1000
MTEXTEND
  0
POINT
  5
2D8D4
330
2CAD2
100
AcDbEntity
  8
DEFPOINTS
 62
     0
 48
50.0
100
AcDbPoint
 10
9554.728445172434
 20
2281.83406520811
 30
0.0
  0
POINT
  5
2D8D5
330
2CAD2
100
AcDbEntity
  8
DEFPOINTS
 62
     0
 48
50.0
100
AcDbPoint
 10
9499.728445172435
 20
2231.83406520811
 30
0.0
  0
POINT
  5
2D8D6
330
2CAD2
100
AcDbEntity
  8
DEFPOINTS
 62
     0
 48
50.0
100
AcDbPoint
 10
8710.978315989175
 20
2231.83406520811
 30
0.0
  0
ENDBLK
  5
2CADF
330
2CAD2
100
AcDbEntity
  8
0
 48
50.0
100
AcDbBlockEnd
  0
BLOCK
  5
2CAEA
330
2CAE0
100
AcDbEntity
  8
0
 48
50.0
100
AcDbBlockBegin
  2
*D19
 70
     1
 10
0.0
 20
0.0
 30
0.0
  3
*D19
  1

  0
LINE
  5
2DFF8
330
2CAE0
100
AcDbEntity
  8
寸法
 62
     0
 48
50.0
370
    -2
100
AcDbLine
 10
12604.72844517243
 20
4273.644744819764
 30
0.0
 11
12604.72844517243
 21
4765.491518787416
 31
0.0
  0
LINE
  5
2DFF9
330
2CAE0
100
AcDbEntity
  8
寸法
 62
     0
 48
50.0
370
    -2
100
AcDbLine
 10
9554.728445172434
 20
4322.835683331086
 30
0.0
 11
9554.728445172434
 21
4765.491518787416
 31
0.0
  0
LINE
  5
2DFFA
330
2CAE0
100
AcDbEntity
  8
寸法
 62
     0
 48
50.0
370
    -2
100
AcDbLine
 10
12604.72844517243
 20
4705.491518787416
 30
0.0
 11
9554.728445172434
 21
4705.491518787416
 31
0.0
  0
INSERT
  5
2DFFB
330
2CAE0
100
AcDbEntity
  8
寸法
 62
     0
 48
50.0
370
    -2
100
AcDbBlockReference
  2
_DOTSMALL
 10
12604.72844517243
 20
4705.491518787416
 30
0.0
 41
100.0
 42
100.0
 43
100.0
  0
INSERT
  5
2DFFC
330
2CAE0
100
AcDbEntity
  8
寸法
 62
     0
 48
50.0
370
    -2
100
AcDbBlockReference
  2
_DOTSMALL
 10
9554.728445172434
 20
4705.491518787416
 30
0.0
 41
100.0
 42
100.0
 43
100.0
 50
180.0
  0
MTEXT
  5
2DFFD
330
2CAE0
100
AcDbEntity
  8
寸法
 62
     7
 48
50.0
100
AcDbMText
 10
11124.78681973184
 20
4805.491518787416
 30
0.0
 40
120.0
 41
0.0
 71
     5
 72
     1
  1
\A1;柱外寸法3050
  7
STYLE1
 73
     1
 44
1.0
1001
ACAD
1000
MTEXTBEGIN
1070
    73
1070
     1
1070
    44
1040
1.0
1070
    74
1070
     0
1000
MTEXTEND
  0
POINT
  5
2DFFE
330
2CAE0
100
AcDbEntity
  8
DEFPOINTS
 62
     0
 48
50.0
100
AcDbPoint
 10
12604.72844517243
 20
4253.644744819765
 30
0.0
  0
POINT
  5
2DFFF
330
2CAE0
100
AcDbEntity
  8
DEFPOINTS
 62
     0
 48
50.0
100
AcDbPoint
 10
9554.728445172434
 20
4302.835683331086
 30
0.0
  0
POINT
  5
2E000
330
2CAE0
100
AcDbEntity
  8
DEFPOINTS
 62
     0
 48
50.0
100
AcDbPoint
 10
9554.728445172434
 20
4705.491518787416
 30
0.0
  0
ENDBLK
  5
2CAEB
330
2CAE0
100
AcDbEntity
  8
0
 48
50.0
100
AcDbBlockEnd
  0
BLOCK
  5
2CAF8
330
2CAEC
100
AcDbEntity
  8
0
 48
50.0
100
AcDbBlockBegin
  2
*D20
 70
     1
 10
0.0
 20
0.0
 30
0.0
  3
*D20
  1

  0
LINE
  5
2DFED
330
2CAEC
100
AcDbEntity
  8
寸法
 62
     0
 48
50.0
370
    -2
100
AcDbLine
 10
9554.728445172434
 20
4322.835683331086
 30
0.0
 11
9554.728445172434
 21
4765.491518787413
 31
0.0
  0
LINE
  5
2DFEE
330
2CAEC
100
AcDbEntity
  8
寸法
 62
     0
 48
50.0
370
    -2
100
AcDbLine
 10
9494.728445172434
 20
4326.834065208114
 30
0.0
 11
9494.728445172434
 21
4765.491518787413
 31
0.0
  0
LINE
  5
2DFEF
330
2CAEC
100
AcDbEntity
  8
寸法
 62
     0
 48
50.0
370
    -2
100
AcDbLine
 10
9554.728445172434
 20
4705.491518787414
 30
0.0
 11
9654.728445172434
 21
4705.491518787414
 31
0.0
  0
LINE
  5
2DFF0
330
2CAEC
100
AcDbEntity
  8
寸法
 62
     0
 48
50.0
370
    -2
100
AcDbLine
 10
9494.728445172434
 20
4705.491518787414
 30
0.0
 11
9075.452854621254
 21
4705.491518787414
 31
0.0
  0
LINE
  5
2DFF1
330
2CAEC
100
AcDbEntity
  8
寸法
 62
     0
 48
50.0
370
    -2
100
AcDbLine
 10
9554.728445172434
 20
4705.491518787414
 30
0.0
 11
9494.728445172434
 21
4705.491518787414
 31
0.0
  0
INSERT
  5
2DFF2
330
2CAEC
100
AcDbEntity
  8
寸法
 62
     0
 48
50.0
370
    -2
100
AcDbBlockReference
  2
_DOTSMALL
 10
9554.728445172434
 20
4705.491518787414
 30
0.0
 41
100.0
 42
100.0
 43
100.0
 50
180.0
  0
INSERT
  5
2DFF3
330
2CAEC
100
AcDbEntity
  8
寸法
 62
     0
 48
50.0
370
    -2
100
AcDbBlockReference
  2
_DOTSMALL
 10
9494.728445172434
 20
4705.491518787414
 30
0.0
 41
100.0
 42
100.0
 43
100.0
  0
MTEXT
  5
2DFF4
330
2CAEC
100
AcDbEntity
  8
寸法
 62
     7
 48
50.0
100
AcDbMText
 10
9185.090649896844
 20
4805.491518787414
 30
0.0
 40
120.0
 41
0.0
 71
     5
 72
     1
  1
\A1;60
  7
STYLE1
 73
     1
 44
1.0
1001
ACAD
1000
MTEXTBEGIN
1070
    73
1070
     1
1070
    44
1040
1.0
1070
    74
1070
     0
1000
MTEXTEND
  0
POINT
  5
2DFF5
330
2CAEC
100
AcDbEntity
  8
DEFPOINTS
 62
     0
 48
50.0
100
AcDbPoint
 10
9554.728445172434
 20
4302.835683331086
 30
0.0
  0
POINT
  5
2DFF6
330
2CAEC
100
AcDbEntity
  8
DEFPOINTS
 62
     0
 48
50.0
100
AcDbPoint
 10
9494.728445172434
 20
4306.834065208113
 30
0.0
  0
POINT
  5
2DFF7
330
2CAEC
100
AcDbEntity
  8
DEFPOINTS
 62
     0
 48
50.0
100
AcDbPoint
 10
9494.728445172434
 20
4705.491518787414
 30
0.0
  0
ENDBLK
  5
2CAF9
330
2CAEC
100
AcDbEntity
  8
0
 48
50.0
100
AcDbBlockEnd
  0
BLOCK
  5
2CB04
330
2CAFA
100
AcDbEntity
  8
0
 48
50.0
100
AcDbBlockBegin
  2
*D21
 70
     1
 10
0.0
 20
0.0
 30
0.0
  3
*D21
  1

  0
LINE
  5
2DFE4
330
2CAFA
100
AcDbEntity
  8
寸法
 62
     0
 48
50.0
370
    -2
100
AcDbLine
 10
12684.72844517243
 20
4271.834065208111
 30
0.0
 11
12684.72844517243
 21
4995.605111573691
 31
0.0
  0
LINE
  5
2DFE5
330
2CAFA
100
AcDbEntity
  8
寸法
 62
     0
 48
50.0
370
    -2
100
AcDbLine
 10
9494.728445172434
 20
4326.834065208114
 30
0.0
 11
9494.728445172434
 21
4995.605111573691
 31
0.0
  0
LINE
  5
2DFE6
330
2CAFA
100
AcDbEntity
  8
寸法
 62
     0
 48
50.0
370
    -2
100
AcDbLine
 10
12684.72844517243
 20
4935.605111573692
 30
0.0
 11
9494.728445172434
 21
4935.605111573692
 31
0.0
  0
INSERT
  5
2DFE7
330
2CAFA
100
AcDbEntity
  8
寸法
 62
     0
 48
50.0
370
    -2
100
AcDbBlockReference
  2
_DOTSMALL
 10
12684.72844517243
 20
4935.605111573692
 30
0.0
 41
100.0
 42
100.0
 43
100.0
  0
INSERT
  5
2DFE8
330
2CAFA
100
AcDbEntity
  8
寸法
 62
     0
 48
50.0
370
    -2
100
AcDbBlockReference
  2
_DOTSMALL
 10
9494.728445172434
 20
4935.605111573692
 30
0.0
 41
100.0
 42
100.0
 43
100.0
 50
180.0
  0
MTEXT
  5
2DFE9
330
2CAFA
100
AcDbEntity
  8
寸法
 62
     7
 48
50.0
100
AcDbMText
 10
11166.43425148196
 20
5035.605111573691
 30
0.0
 40
120.0
 41
0.0
 71
     5
 72
     1
  1
\A1;3190
  7
STYLE1
 73
     1
 44
1.0
1001
ACAD
1000
MTEXTBEGIN
1070
    73
1070
     1
1070
    44
1040
1.0
1070
    74
1070
     0
1000
MTEXTEND
  0
POINT
  5
2DFEA
330
2CAFA
100
AcDbEntity
  8
DEFPOINTS
 62
     0
 48
50.0
100
AcDbPoint
 10
12684.72844517243
 20
4251.834065208111
 30
0.0
  0
POINT
  5
2DFEB
330
2CAFA
100
AcDbEntity
  8
DEFPOINTS
 62
     0
 48
50.0
100
AcDbPoint
 10
9494.728445172434
 20
4306.834065208113
 30
0.0
  0
POINT
  5
2DFEC
330
2CAFA
100
AcDbEntity
  8
DEFPOINTS
 62
     0
 48
50.0
100
AcDbPoint
 10
9494.728445172434
 20
4935.605111573692
 30
0.0
  0
ENDBLK
  5
2CB05
330
2CAFA
100
AcDbEntity
  8
0
 48
50.0
100
AcDbBlockEnd
  0
BLOCK
  5
2CB11
330
2CB06
100
AcDbEntity
  8
0
 48
50.0
100
AcDbBlockBegin
  2
*D22
 70
     1
 10
0.0
 20
0.0
 30
0.0
  3
*D22
  1

  0
LINE
  5
2DFDA
330
2CB06
100
AcDbEntity
  8
寸法
 62
     0
 48
50.0
370
    -2
100
AcDbLine
 10
12604.72844517243
 20
4273.644744819764
 30
0.0
 11
12604.72844517243
 21
4765.491518787416
 31
0.0
  0
LINE
  5
2DFDB
330
2CB06
100
AcDbEntity
  8
寸法
 62
     0
 48
50.0
370
    -2
100
AcDbLine
 10
12684.72844517243
 20
4271.834065208113
 30
0.0
 11
12684.72844517243
 21
4765.491518787416
 31
0.0
  0
LINE
  5
2DFDC
330
2CB06
100
AcDbEntity
  8
寸法
 62
     0
 48
50.0
370
    -2
100
AcDbLine
 10
12604.72844517243
 20
4705.491518787416
 30
0.0
 11
12684.72844517243
 21
4705.491518787416
 31
0.0
  0
LINE
  5
2DFDD
330
2CB06
100
AcDbEntity
  8
寸法
 62
     0
 48
50.0
370
    -2
100
AcDbLine
 10
12684.72844517243
 20
4705.491518787416
 30
0.0
 11
12996.82293336141
 21
4705.491518787416
 31
0.0
  0
INSERT
  5
2DFDE
330
2CB06
100
AcDbEntity
  8
寸法
 62
     0
 48
50.0
370
    -2
100
AcDbBlockReference
  2
_DOTSMALL
 10
12604.72844517243
 20
4705.491518787416
 30
0.0
 41
100.0
 42
100.0
 43
100.0
 50
180.0
  0
INSERT
  5
2DFDF
330
2CB06
100
AcDbEntity
  8
寸法
 62
     0
 48
50.0
370
    -2
100
AcDbBlockReference
  2
_DOTSMALL
 10
12684.72844517243
 20
4705.491518787416
 30
0.0
 41
100.0
 42
100.0
 43
100.0
  0
MTEXT
  5
2DFE0
330
2CB06
100
AcDbEntity
  8
寸法
 62
     7
 48
50.0
100
AcDbMText
 10
12890.77568926692
 20
4805.491518787416
 30
0.0
 40
120.0
 41
0.0
 71
     5
 72
     1
  1
\A1;80
  7
STYLE1
 73
     1
 44
1.0
1001
ACAD
1000
MTEXTBEGIN
1070
    73
1070
     1
1070
    44
1040
1.0
1070
    74
1070
     0
1000
MTEXTEND
  0
POINT
  5
2DFE1
330
2CB06
100
AcDbEntity
  8
DEFPOINTS
 62
     0
 48
50.0
100
AcDbPoint
 10
12604.72844517243
 20
4253.644744819765
 30
0.0
  0
POINT
  5
2DFE2
330
2CB06
100
AcDbEntity
  8
DEFPOINTS
 62
     0
 48
50.0
100
AcDbPoint
 10
12684.72844517243
 20
4251.834065208114
 30
0.0
  0
POINT
  5
2DFE3
330
2CB06
100
AcDbEntity
  8
DEFPOINTS
 62
     0
 48
50.0
100
AcDbPoint
 10
12684.72844517243
 20
4705.491518787416
 30
0.0
  0
ENDBLK
  5
2CB12
330
2CB06
100
AcDbEntity
  8
0
 48
50.0
100
AcDbBlockEnd
  0
BLOCK
  5
2CB1E
330
2CB13
100
AcDbEntity
  8
0
 48
50.0
100
AcDbBlockBegin
  2
*D23
 70
     1
 10
0.0
 20
0.0
 30
0.0
  3
*D23
  1

  0
LINE
  5
2DFD0
330
2CB13
100
AcDbEntity
  8
寸法
 62
     0
 48
50.0
370
    -2
100
AcDbLine
 10
9494.132731463535
 20
4306.131772277772
 30
0.0
 11
8878.198292358256
 21
4323.845922552101
 31
0.0
  0
LINE
  5
2DFD1
330
2CB13
100
AcDbEntity
  8
寸法
 62
     0
 48
50.0
370
    -2
100
AcDbLine
 10
9490.079275906907
 20
4165.190048512058
 30
0.0
 11
8874.144836801631
 21
4182.904198786387
 31
0.0
  0
LINE
  5
2DFD2
330
2CB13
100
AcDbEntity
  8
寸法
 62
     0
 48
50.0
370
    -2
100
AcDbLine
 10
8934.12003840406
 20
4181.179324081441
 30
0.0
 11
8938.173493960688
 21
4322.121047847153
 31
0.0
  0
LINE
  5
2DFD3
330
2CB13
100
AcDbEntity
  8
寸法
 62
     0
 48
50.0
370
    -2
100
AcDbLine
 10
8938.173493960688
 20
4322.121047847153
 30
0.0
 11
8948.522742190371
 21
4681.97225746174
 31
0.0
  0
INSERT
  5
2DFD4
330
2CB13
100
AcDbEntity
  8
寸法
 62
     0
 48
50.0
370
    -2
100
AcDbBlockReference
  2
_DOTSMALL
 10
8934.12003840406
 20
4181.179324081441
 30
0.0
 41
100.0
 42
100.0
 43
100.0
 50
268.3526390256378
  0
INSERT
  5
2DFD5
330
2CB13
100
AcDbEntity
  8
寸法
 62
     0
 48
50.0
370
    -2
100
AcDbBlockReference
  2
_DOTSMALL
 10
8938.173493960688
 20
4322.121047847153
 30
0.0
 41
100.0
 42
100.0
 43
100.0
 50
88.35263902563776
  0
MTEXT
  5
2DFD6
330
2CB13
100
AcDbEntity
  8
寸法
 62
     7
 48
50.0
100
AcDbMText
 10
8844.8268443256
 20
4554.900778498053
 30
0.0
 40
120.0
 41
0.0
 71
     5
 72
     1
  1
\A1;141
  7
STYLE1
 11
0.0287479117491237
 21
0.9995866933738488
 31
0.0
 73
     1
 44
1.0
1001
ACAD
1000
MTEXTBEGIN
1070
    73
1070
     1
1070
    44
1040
1.0
1070
    74
1070
     0
1000
MTEXTEND
  0
POINT
  5
2DFD7
330
2CB13
100
AcDbEntity
  8
DEFPOINTS
 62
     0
 48
50.0
100
AcDbPoint
 10
9514.124465331011
 20
4305.556814042789
 30
0.0
  0
POINT
  5
2DFD8
330
2CB13
100
AcDbEntity
  8
DEFPOINTS
 62
     0
 48
50.0
100
AcDbPoint
 10
9510.071009774385
 20
4164.615090277076
 30
0.0
  0
POINT
  5
2DFD9
330
2CB13
100
AcDbEntity
  8
DEFPOINTS
 62
     0
 48
50.0
100
AcDbPoint
 10
8934.12003840406
 20
4181.179324081441
 30
0.0
  0
ENDBLK
  5
2CB1F
330
2CB13
100
AcDbEntity
  8
0
 48
50.0
100
AcDbBlockEnd
  0
BLOCK
  5
2CB2A
330
2CB20
100
AcDbEntity
  8
0
 48
50.0
100
AcDbBlockBegin
  2
*D24
 70
     1
 10
0.0
 20
0.0
 30
0.0
  3
*D24
  1

  0
LINE
  5
2D892
330
2CB20
100
AcDbEntity
  8
寸法
 62
     0
 48
50.0
370
    -2
100
AcDbLine
 10
9462.228445172437
 20
1931.834065208108
 30
0.0
 11
9272.728441925799
 21
1931.834065208108
 31
0.0
  0
LINE
  5
2D893
330
2CB20
100
AcDbEntity
  8
寸法
 62
     0
 48
50.0
370
    -2
100
AcDbLine
 10
9437.228445172435
 20
2131.83406520811
 30
0.0
 11
9272.728441925799
 21
2131.83406520811
 31
0.0
  0
LINE
  5
2D894
330
2CB20
100
AcDbEntity
  8
寸法
 62
     0
 48
50.0
370
    -2
100
AcDbLine
 10
9332.7284419258
 20
1931.834065208108
 30
0.0
 11
9332.7284419258
 21
2131.83406520811
 31
0.0
  0
INSERT
  5
2D895
330
2CB20
100
AcDbEntity
  8
寸法
 62
     0
 48
50.0
370
    -2
100
AcDbBlockReference
  2
_DOTSMALL
 10
9332.7284419258
 20
1931.834065208108
 30
0.0
 41
100.0
 42
100.0
 43
100.0
 50
270.0
  0
INSERT
  5
2D896
330
2CB20
100
AcDbEntity
  8
寸法
 62
     0
 48
50.0
370
    -2
100
AcDbBlockReference
  2
_DOTSMALL
 10
9332.7284419258
 20
2131.83406520811
 30
0.0
 41
100.0
 42
100.0
 43
100.0
 50
90.0
  0
MTEXT
  5
2D897
330
2CB20
100
AcDbEntity
  8
寸法
 62
     7
 48
50.0
100
AcDbMText
 10
9232.716630902178
 20
2031.83406520811
 30
0.0
 40
120.0
 41
0.0
 71
     5
 72
     1
  1
\A1;200
  7
STYLE1
 11
0.0000000000000001
 21
1.0
 31
0.0
 73
     1
 44
1.0
1001
ACAD
1000
MTEXTBEGIN
1070
    73
1070
     1
1070
    44
1040
1.0
1070
    74
1070
     0
1000
MTEXTEND
  0
POINT
  5
2D898
330
2CB20
100
AcDbEntity
  8
DEFPOINTS
 62
     0
 48
50.0
100
AcDbPoint
 10
9482.228445172436
 20
1931.834065208108
 30
0.0
  0
POINT
  5
2D899
330
2CB20
100
AcDbEntity
  8
DEFPOINTS
 62
     0
 48
50.0
100
AcDbPoint
 10
9457.228445172434
 20
2131.83406520811
 30
0.0
  0
POINT
  5
2D89A
330
2CB20
100
AcDbEntity
  8
DEFPOINTS
 62
     0
 48
50.0
100
AcDbPoint
 10
9332.7284419258
 20
2131.83406520811
 30
0.0
  0
ENDBLK
  5
2CB2B
330
2CB20
100
AcDbEntity
  8
0
 48
50.0
100
AcDbBlockEnd
  0
BLOCK
  5
2CB36
330
2CB2C
100
AcDbEntity
  8
0
 48
50.0
100
AcDbBlockBegin
  2
*D25
 70
     1
 10
0.0
 20
0.0
 30
0.0
  3
*D25
  1

  0
LINE
  5
2D889
330
2CB2C
100
AcDbEntity
  8
寸法
 62
     0
 48
50.0
370
    -2
100
AcDbLine
 10
9682.228445172434
 20
1911.834065208108
 30
0.0
 11
9682.228445172434
 21
1585.786735907731
 31
0.0
  0
LINE
  5
2D88A
330
2CB2C
100
AcDbEntity
  8
寸法
 62
     0
 48
50.0
370
    -2
100
AcDbLine
 10
9482.228445172436
 20
1911.834065208108
 30
0.0
 11
9482.228445172436
 21
1585.786735907731
 31
0.0
  0
LINE
  5
2D88B
330
2CB2C
100
AcDbEntity
  8
寸法
 62
     0
 48
50.0
370
    -2
100
AcDbLine
 10
9682.228445172434
 20
1645.786735907732
 30
0.0
 11
9482.228445172436
 21
1645.786735907732
 31
0.0
  0
INSERT
  5
2D88C
330
2CB2C
100
AcDbEntity
  8
寸法
 62
     0
 48
50.0
370
    -2
100
AcDbBlockReference
  2
_DOTSMALL
 10
9682.228445172434
 20
1645.786735907732
 30
0.0
 41
100.0
 42
100.0
 43
100.0
  0
INSERT
  5
2D88D
330
2CB2C
100
AcDbEntity
  8
寸法
 62
     0
 48
50.0
370
    -2
100
AcDbBlockReference
  2
_DOTSMALL
 10
9482.228445172436
 20
1645.786735907732
 30
0.0
 41
100.0
 42
100.0
 43
100.0
 50
180.0
  0
MTEXT
  5
2D88E
330
2CB2C
100
AcDbEntity
  8
寸法
 62
     7
 48
50.0
100
AcDbMText
 10
9582.228445172436
 20
1745.798546931354
 30
0.0
 40
120.0
 41
0.0
 71
     5
 72
     1
  1
\A1;200
  7
STYLE1
 73
     1
 44
1.0
1001
ACAD
1000
MTEXTBEGIN
1070
    73
1070
     1
1070
    44
1040
1.0
1070
    74
1070
     0
1000
MTEXTEND
  0
POINT
  5
2D88F
330
2CB2C
100
AcDbEntity
  8
DEFPOINTS
 62
     0
 48
50.0
100
AcDbPoint
 10
9682.228445172434
 20
1931.834065208108
 30
0.0
  0
POINT
  5
2D890
330
2CB2C
100
AcDbEntity
  8
DEFPOINTS
 62
     0
 48
50.0
100
AcDbPoint
 10
9482.228445172436
 20
1931.834065208108
 30
0.0
  0
POINT
  5
2D891
330
2CB2C
100
AcDbEntity
  8
DEFPOINTS
 62
     0
 48
50.0
100
AcDbPoint
 10
9482.228445172436
 20
1645.786735907732
 30
0.0
  0
ENDBLK
  5
2CB37
330
2CB2C
100
AcDbEntity
  8
0
 48
50.0
100
AcDbBlockEnd
  0
BLOCK
  5
2DCF8
330
2DCF6
100
AcDbEntity
  8
0
 48
50.0
100
AcDbBlockBegin
  2
A$C2C0B4020
 70
     0
 10
0.0
 20
0.0
 30
0.0
  3
A$C2C0B4020
  1

  0
TEXT
  5
2DCF7
330
2DCF6
100
AcDbEntity
  8
文字
 62
     7
 48
50.0
100
AcDbText
 10
102.2053442172
 20
228.5435242569017
 30
0.0
 40
100.0
  1
○有効開口寸法 ： 1307×1770(mm)
  7
STYLE2
100
AcDbText
  0
ENDBLK
  5
2DCF9
330
2DCF6
100
AcDbEntity
  8
0
 48
50.0
100
AcDbBlockEnd
  0
BLOCK
  5
2DEA8
330
2DE9E
100
AcDbEntity
  8
0
 48
50.0
100
AcDbBlockBegin
  2
*D27
 70
     1
 10
0.0
 20
0.0
 30
0.0
  3
*D27
  1

  0
LINE
  5
2DF9A
330
2DE9E
100
AcDbEntity
  8
寸法
 62
     0
 48
50.0
370
    -2
100
AcDbLine
 10
7569.896575107006
 20
1911.834065208109
 30
0.0
 11
7569.896575107006
 21
1585.786735907732
 31
0.0
  0
LINE
  5
2DF9B
330
2DE9E
100
AcDbEntity
  8
寸法
 62
     0
 48
50.0
370
    -2
100
AcDbLine
 10
7369.896575107005
 20
1911.834065208109
 30
0.0
 11
7369.896575107005
 21
1585.786735907732
 31
0.0
  0
LINE
  5
2DF9C
330
2DE9E
100
AcDbEntity
  8
寸法
 62
     0
 48
50.0
370
    -2
100
AcDbLine
 10
7569.896575107006
 20
1645.786735907732
 30
0.0
 11
7369.896575107005
 21
1645.786735907732
 31
0.0
  0
INSERT
  5
2DF9D
330
2DE9E
100
AcDbEntity
  8
寸法
 62
     0
 48
50.0
370
    -2
100
AcDbBlockReference
  2
_DOTSMALL
 10
7569.896575107006
 20
1645.786735907732
 30
0.0
 41
100.0
 42
100.0
 43
100.0
  0
INSERT
  5
2DF9E
330
2DE9E
100
AcDbEntity
  8
寸法
 62
     0
 48
50.0
370
    -2
100
AcDbBlockReference
  2
_DOTSMALL
 10
7369.896575107005
 20
1645.786735907732
 30
0.0
 41
100.0
 42
100.0
 43
100.0
 50
180.0
  0
MTEXT
  5
2DF9F
330
2DE9E
100
AcDbEntity
  8
寸法
 62
     7
 48
50.0
100
AcDbMText
 10
7469.896575107006
 20
1745.798546931354
 30
0.0
 40
120.0
 41
0.0
 71
     5
 72
     1
  1
\A1;200
  7
STYLE1
 73
     1
 44
1.0
1001
ACAD
1000
MTEXTBEGIN
1070
    73
1070
     1
1070
    44
1040
1.0
1070
    74
1070
     0
1000
MTEXTEND
  0
POINT
  5
2DFA0
330
2DE9E
100
AcDbEntity
  8
DEFPOINTS
 62
     0
 48
50.0
100
AcDbPoint
 10
7569.896575107006
 20
1931.834065208109
 30
0.0
  0
POINT
  5
2DFA1
330
2DE9E
100
AcDbEntity
  8
DEFPOINTS
 62
     0
 48
50.0
100
AcDbPoint
 10
7369.896575107005
 20
1931.834065208109
 30
0.0
  0
POINT
  5
2DFA2
330
2DE9E
100
AcDbEntity
  8
DEFPOINTS
 62
     0
 48
50.0
100
AcDbPoint
 10
7369.896575107005
 20
1645.786735907732
 30
0.0
  0
ENDBLK
  5
2DEA9
330
2DE9E
100
AcDbEntity
  8
0
 48
50.0
100
AcDbBlockEnd
  0
BLOCK
  5
2DEB4
330
2DEAA
100
AcDbEntity
  8
0
 48
50.0
100
AcDbBlockBegin
  2
*D28
 70
     1
 10
0.0
 20
0.0
 30
0.0
  3
*D28
  1

  0
LINE
  5
2DF91
330
2DEAA
100
AcDbEntity
  8
寸法
 62
     0
 48
50.0
370
    -2
100
AcDbLine
 10
4369.896575106994
 20
4326.834065208116
 30
0.0
 11
4369.896575106994
 21
4800.280950940106
 31
0.0
  0
LINE
  5
2DF92
330
2DEAA
100
AcDbEntity
  8
寸法
 62
     0
 48
50.0
370
    -2
100
AcDbLine
 10
7519.896575107009
 20
4326.834065208113
 30
0.0
 11
7519.896575107009
 21
4800.280950940106
 31
0.0
  0
LINE
  5
2DF93
330
2DEAA
100
AcDbEntity
  8
寸法
 62
     0
 48
50.0
370
    -2
100
AcDbLine
 10
4369.896575106994
 20
4740.280950940105
 30
0.0
 11
7519.896575107009
 21
4740.280950940105
 31
0.0
  0
INSERT
  5
2DF94
330
2DEAA
100
AcDbEntity
  8
寸法
 62
     0
 48
50.0
370
    -2
100
AcDbBlockReference
  2
_DOTSMALL
 10
4369.896575106994
 20
4740.280950940105
 30
0.0
 41
100.0
 42
100.0
 43
100.0
 50
180.0
  0
INSERT
  5
2DF95
330
2DEAA
100
AcDbEntity
  8
寸法
 62
     0
 48
50.0
370
    -2
100
AcDbBlockReference
  2
_DOTSMALL
 10
7519.896575107009
 20
4740.280950940105
 30
0.0
 41
100.0
 42
100.0
 43
100.0
  0
MTEXT
  5
2DF96
330
2DEAA
100
AcDbEntity
  8
寸法
 62
     7
 48
50.0
100
AcDbMText
 10
5944.429791024755
 20
4840.280950940105
 30
0.0
 40
120.0
 41
0.0
 71
     5
 72
     1
  1
\A1;3150
  7
STYLE1
 73
     1
 44
1.0
1001
ACAD
1000
MTEXTBEGIN
1070
    73
1070
     1
1070
    44
1040
1.0
1070
    74
1070
     0
1000
MTEXTEND
  0
POINT
  5
2DF97
330
2DEAA
100
AcDbEntity
  8
DEFPOINTS
 62
     0
 48
50.0
100
AcDbPoint
 10
4369.896575106994
 20
4306.834065208117
 30
0.0
  0
POINT
  5
2DF98
330
2DEAA
100
AcDbEntity
  8
DEFPOINTS
 62
     0
 48
50.0
100
AcDbPoint
 10
7519.896575107009
 20
4306.834065208113
 30
0.0
  0
POINT
  5
2DF99
330
2DEAA
100
AcDbEntity
  8
DEFPOINTS
 62
     0
 48
50.0
100
AcDbPoint
 10
7519.896575107009
 20
4740.280950940105
 30
0.0
  0
ENDBLK
  5
2DEB5
330
2DEAA
100
AcDbEntity
  8
0
 48
50.0
100
AcDbBlockEnd
  0
BLOCK
  5
2DEC2
330
2DEB6
100
AcDbEntity
  8
0
 48
50.0
100
AcDbBlockBegin
  2
*D29
 70
     1
 10
0.0
 20
0.0
 30
0.0
  3
*D29
  1

  0
LINE
  5
2DF86
330
2DEB6
100
AcDbEntity
  8
寸法
 62
     0
 48
50.0
370
    -2
100
AcDbLine
 10
7519.896575107009
 20
4326.834065208113
 30
0.0
 11
7519.896575107009
 21
4579.375650466354
 31
0.0
  0
LINE
  5
2DF87
330
2DEB6
100
AcDbEntity
  8
寸法
 62
     0
 48
50.0
370
    -2
100
AcDbLine
 10
7469.896575107009
 20
4326.834065208115
 30
0.0
 11
7469.896575107009
 21
4579.375650466354
 31
0.0
  0
LINE
  5
2DF88
330
2DEB6
100
AcDbEntity
  8
寸法
 62
     0
 48
50.0
370
    -2
100
AcDbLine
 10
7469.896575107009
 20
4519.375650466354
 30
0.0
 11
7369.896575107009
 21
4519.375650466354
 31
0.0
  0
LINE
  5
2DF89
330
2DEB6
100
AcDbEntity
  8
寸法
 62
     0
 48
50.0
370
    -2
100
AcDbLine
 10
7519.896575107009
 20
4519.375650466354
 30
0.0
 11
7939.429100575734
 21
4519.375650466354
 31
0.0
  0
LINE
  5
2DF8A
330
2DEB6
100
AcDbEntity
  8
寸法
 62
     0
 48
50.0
370
    -2
100
AcDbLine
 10
7469.896575107009
 20
4519.375650466354
 30
0.0
 11
7519.896575107009
 21
4519.375650466354
 31
0.0
  0
INSERT
  5
2DF8B
330
2DEB6
100
AcDbEntity
  8
寸法
 62
     0
 48
50.0
370
    -2
100
AcDbBlockReference
  2
_DOTSMALL
 10
7469.896575107009
 20
4519.375650466354
 30
0.0
 41
100.0
 42
100.0
 43
100.0
  0
INSERT
  5
2DF8C
330
2DEB6
100
AcDbEntity
  8
寸法
 62
     0
 48
50.0
370
    -2
100
AcDbBlockReference
  2
_DOTSMALL
 10
7519.896575107009
 20
4519.375650466354
 30
0.0
 41
100.0
 42
100.0
 43
100.0
 50
180.0
  0
MTEXT
  5
2DF8D
330
2DEB6
100
AcDbEntity
  8
寸法
 62
     7
 48
50.0
100
AcDbMText
 10
7833.381856481246
 20
4619.375650466355
 30
0.0
 40
120.0
 41
0.0
 71
     5
 72
     1
  1
\A1;50
  7
STYLE1
 73
     1
 44
1.0
1001
ACAD
1000
MTEXTBEGIN
1070
    73
1070
     1
1070
    44
1040
1.0
1070
    74
1070
     0
1000
MTEXTEND
  0
POINT
  5
2DF8E
330
2DEB6
100
AcDbEntity
  8
DEFPOINTS
 62
     0
 48
50.0
100
AcDbPoint
 10
7519.896575107009
 20
4306.834065208113
 30
0.0
  0
POINT
  5
2DF8F
330
2DEB6
100
AcDbEntity
  8
DEFPOINTS
 62
     0
 48
50.0
100
AcDbPoint
 10
7469.896575107009
 20
4306.834065208115
 30
0.0
  0
POINT
  5
2DF90
330
2DEB6
100
AcDbEntity
  8
DEFPOINTS
 62
     0
 48
50.0
100
AcDbPoint
 10
7469.896575107009
 20
4519.375650466354
 30
0.0
  0
ENDBLK
  5
2DEC3
330
2DEB6
100
AcDbEntity
  8
0
 48
50.0
100
AcDbBlockEnd
  0
BLOCK
  5
2DED0
330
2DEC4
100
AcDbEntity
  8
0
 48
50.0
100
AcDbBlockBegin
  2
*D30
 70
     1
 10
0.0
 20
0.0
 30
0.0
  3
*D30
  1

  0
LINE
  5
2DF7B
330
2DEC4
100
AcDbEntity
  8
寸法
 62
     0
 48
50.0
370
    -2
100
AcDbLine
 10
4419.896575106995
 20
4326.834065208118
 30
0.0
 11
4419.896575106995
 21
4579.375650466356
 31
0.0
  0
LINE
  5
2DF7C
330
2DEC4
100
AcDbEntity
  8
寸法
 62
     0
 48
50.0
370
    -2
100
AcDbLine
 10
4369.896575106994
 20
4326.834065208116
 30
0.0
 11
4369.896575106994
 21
4579.375650466356
 31
0.0
  0
LINE
  5
2DF7D
330
2DEC4
100
AcDbEntity
  8
寸法
 62
     0
 48
50.0
370
    -2
100
AcDbLine
 10
4419.896575106995
 20
4519.375650466356
 30
0.0
 11
4519.896575106995
 21
4519.375650466356
 31
0.0
  0
LINE
  5
2DF7E
330
2DEC4
100
AcDbEntity
  8
寸法
 62
     0
 48
50.0
370
    -2
100
AcDbLine
 10
4369.896575106994
 20
4519.375650466356
 30
0.0
 11
3950.364049638259
 21
4519.375650466356
 31
0.0
  0
LINE
  5
2DF7F
330
2DEC4
100
AcDbEntity
  8
寸法
 62
     0
 48
50.0
370
    -2
100
AcDbLine
 10
4419.896575106995
 20
4519.375650466356
 30
0.0
 11
4369.896575106994
 21
4519.375650466356
 31
0.0
  0
INSERT
  5
2DF80
330
2DEC4
100
AcDbEntity
  8
寸法
 62
     0
 48
50.0
370
    -2
100
AcDbBlockReference
  2
_DOTSMALL
 10
4419.896575106995
 20
4519.375650466356
 30
0.0
 41
100.0
 42
100.0
 43
100.0
 50
180.0
  0
INSERT
  5
2DF81
330
2DEC4
100
AcDbEntity
  8
寸法
 62
     0
 48
50.0
370
    -2
100
AcDbBlockReference
  2
_DOTSMALL
 10
4369.896575106994
 20
4519.375650466356
 30
0.0
 41
100.0
 42
100.0
 43
100.0
  0
MTEXT
  5
2DF82
330
2DEC4
100
AcDbEntity
  8
寸法
 62
     7
 48
50.0
100
AcDbMText
 10
4056.411293732747
 20
4619.375650466356
 30
0.0
 40
120.0
 41
0.0
 71
     5
 72
     1
  1
\A1;50
  7
STYLE1
 73
     1
 44
1.0
1001
ACAD
1000
MTEXTBEGIN
1070
    73
1070
     1
1070
    44
1040
1.0
1070
    74
1070
     0
1000
MTEXTEND
  0
POINT
  5
2DF83
330
2DEC4
100
AcDbEntity
  8
DEFPOINTS
 62
     0
 48
50.0
100
AcDbPoint
 10
4419.896575106995
 20
4306.834065208119
 30
0.0
  0
POINT
  5
2DF84
330
2DEC4
100
AcDbEntity
  8
DEFPOINTS
 62
     0
 48
50.0
100
AcDbPoint
 10
4369.896575106994
 20
4306.834065208117
 30
0.0
  0
POINT
  5
2DF85
330
2DEC4
100
AcDbEntity
  8
DEFPOINTS
 62
     0
 48
50.0
100
AcDbPoint
 10
4369.896575106994
 20
4519.375650466356
 30
0.0
  0
ENDBLK
  5
2DED1
330
2DEC4
100
AcDbEntity
  8
0
 48
50.0
100
AcDbBlockEnd
  0
BLOCK
  5
2DEDC
330
2DED2
100
AcDbEntity
  8
0
 48
50.0
100
AcDbBlockBegin
  2
*D31
 70
     1
 10
0.0
 20
0.0
 30
0.0
  3
*D31
  1

  0
LINE
  5
2DF72
330
2DED2
100
AcDbEntity
  8
寸法
 62
     0
 48
50.0
370
    -2
100
AcDbLine
 10
7469.896575107009
 20
4326.834065208115
 30
0.0
 11
7469.896575107009
 21
4579.375650466356
 31
0.0
  0
LINE
  5
2DF73
330
2DED2
100
AcDbEntity
  8
寸法
 62
     0
 48
50.0
370
    -2
100
AcDbLine
 10
4419.896575106995
 20
4326.834065208118
 30
0.0
 11
4419.896575106995
 21
4579.375650466356
 31
0.0
  0
LINE
  5
2DF74
330
2DED2
100
AcDbEntity
  8
寸法
 62
     0
 48
50.0
370
    -2
100
AcDbLine
 10
7469.896575107009
 20
4519.375650466356
 30
0.0
 11
4419.896575106995
 21
4519.375650466356
 31
0.0
  0
INSERT
  5
2DF75
330
2DED2
100
AcDbEntity
  8
寸法
 62
     0
 48
50.0
370
    -2
100
AcDbBlockReference
  2
_DOTSMALL
 10
7469.896575107009
 20
4519.375650466356
 30
0.0
 41
100.0
 42
100.0
 43
100.0
  0
INSERT
  5
2DF76
330
2DED2
100
AcDbEntity
  8
寸法
 62
     0
 48
50.0
370
    -2
100
AcDbBlockReference
  2
_DOTSMALL
 10
4419.896575106995
 20
4519.375650466356
 30
0.0
 41
100.0
 42
100.0
 43
100.0
 50
180.0
  0
MTEXT
  5
2DF77
330
2DED2
100
AcDbEntity
  8
寸法
 62
     7
 48
50.0
100
AcDbMText
 10
5940.683894633504
 20
4619.375650466356
 30
0.0
 40
120.0
 41
0.0
 71
     5
 72
     1
  1
\A1;柱外寸法3050
  7
STYLE1
 73
     1
 44
1.0
1001
ACAD
1000
MTEXTBEGIN
1070
    73
1070
     1
1070
    44
1040
1.0
1070
    74
1070
     0
1000
MTEXTEND
  0
POINT
  5
2DF78
330
2DED2
100
AcDbEntity
  8
DEFPOINTS
 62
     0
 48
50.0
100
AcDbPoint
 10
7469.896575107009
 20
4306.834065208115
 30
0.0
  0
POINT
  5
2DF79
330
2DED2
100
AcDbEntity
  8
DEFPOINTS
 62
     0
 48
50.0
100
AcDbPoint
 10
4419.896575106995
 20
4306.834065208119
 30
0.0
  0
POINT
  5
2DF7A
330
2DED2
100
AcDbEntity
  8
DEFPOINTS
 62
     0
 48
50.0
100
AcDbPoint
 10
4419.896575106995
 20
4519.375650466356
 30
0.0
  0
ENDBLK
  5
2DEDD
330
2DED2
100
AcDbEntity
  8
0
 48
50.0
100
AcDbBlockEnd
  0
ENDSEC
  0
SECTION
  2
ENTITIES
  0
LINE
  5
10B57
330
747D
100
AcDbEntity
  8
補助
  6
PHANTOM
 62
   230
 48
50.0
100
AcDbLine
 10
139.9999999999995
 20
11409.6
 30
0.0
 11
16307.2
 21
11409.6
 31
0.0
  0
LINE
  5
10B59
330
747D
100
AcDbEntity
  8
仕様書枠
  6
Continuous
 48
50.0
100
AcDbLine
 10
13107.2
 20
1200.0
 30
0.0
 11
13107.2
 21
-0.0000000000000729
 31
0.0
  0
LINE
  5
10B5C
330
747D
100
AcDbEntity
  8
仕様書枠
 48
50.0
100
AcDbLine
 10
16307.2
 20
1200.0
 30
0.0
 11
16307.2
 21
-0.0000000000000909
 31
0.0
  0
LINE
  5
10B5D
330
747D
100
AcDbEntity
  8
仕様書枠
 48
50.0
100
AcDbLine
 10
140.0
 20
0.0
 30
0.0
 11
16307.2
 21
-0.0000000000000909
 31
0.0
  0
LINE
  5
10B5E
330
747D
100
AcDbEntity
  8
補助
  6
PHANTOM
 62
   230
 48
50.0
100
AcDbLine
 10
16307.2
 20
11409.6
 30
0.0
 11
16307.2
 21
1200.0
 31
0.0
  0
LINE
  5
10B6C
330
747D
100
AcDbEntity
  8
仕様書枠
 48
50.0
100
AcDbLine
 10
13107.2
 20
1200.0
 30
0.0
 11
16307.2
 21
1200.0
 31
0.0
  0
LINE
  5
10B6D
330
747D
100
AcDbEntity
  8
補助
  6
PHANTOM
 62
   230
 48
50.0
100
AcDbLine
 10
13107.2
 20
11409.6
 30
0.0
 11
13107.2
 21
4800.0
 31
0.0
  0
LINE
  5
10B6F
330
747D
100
AcDbEntity
  8
補助
  6
PHANTOM
 62
   230
 48
50.0
100
AcDbLine
 10
13107.2
 20
4800.0
 30
0.0
 11
16307.2
 21
4800.0
 31
0.0
  0
LINE
  5
10B72
330
747D
100
AcDbEntity
  8
文字
 62
     7
 48
50.0
100
AcDbLine
 10
13187.2
 20
400.0
 30
0.0
 11
16227.2
 21
400.0
 31
0.0
  0
TEXT
  5
10B73
330
747D
100
AcDbEntity
  8
文字
 62
     7
 48
50.0
100
AcDbText
 10
13162.9790565769
 20
895.0906074299405
 30
0.0
 40
200.0
  1
外 形 図
  7
STYLE2
100
AcDbText
  0
TEXT
  5
10B74
330
747D
100
AcDbEntity
  8
文字
 62
     7
 48
50.0
100
AcDbText
 10
13201.43669998441
 20
477.2740661031255
 30
0.0
 40
160.0
  1
機種名
  7
STYLE2
100
AcDbText
  0
TEXT
  5
10B75
330
747D
100
AcDbEntity
  8
文字
 62
     7
 48
50.0
100
AcDbText
 10
13209.4053442172
 20
228.5435242569016
 30
0.0
 40
100.0
  1
○有効開口寸法 ： 1307×1770(mm)
  7
STYLE2
100
AcDbText
  0
TEXT
  5
10B79
330
747D
100
AcDbEntity
  8
文字
 62
     7
 48
50.0
100
AcDbText
 10
14524.131837222
 20
1031.557706291228
 30
0.0
 40
100.0
  1
NO.39      <縮尺> S=1/40
  7
STYLE2
100
AcDbText
  0
LINE
  5
10B7B
330
747D
100
AcDbEntity
  8
仕様書枠
 48
50.0
100
AcDbLine
 10
13107.2
 20
800.0
 30
0.0
 11
14251.2
 21
800.0
 31
0.0
  0
LINE
  5
10B88
330
747D
100
AcDbEntity
  8
仕様書枠
  6
Continuous
 48
50.0
100
AcDbLine
 10
14251.2
 20
1200.0
 30
0.0
 11
14251.2
 21
800.0
 31
0.0
  0
LINE
  5
12765
330
747D
100
AcDbEntity
  8
Ｇ．Ｌ
100
AcDbLine
 10
3641.448298600328
 20
2131.83406520811
 30
0.0
 11
13267.98908712139
 21
2131.83406520811
 31
0.0
  0
LWPOLYLINE
  5
14534
330
747D
100
AcDbEntity
  8
部品1
100
AcDbPolyline
 90
        4
 70
     1
 43
0.0
 10
5563.161241992783
 20
6239.754175665724
 10
5563.161241992783
 20
5999.861854120191
 10
6326.631908221221
 20
5999.861854120191
 10
6326.631908221221
 20
6239.754175665724
  0
TEXT
  5
14535
330
747D
100
AcDbEntity
  8
部品1
100
AcDbText
 10
5653.08085182182
 20
6046.8606464472
 30
0.0
 40
135.0
  1
平面図
  7
STYLE2
100
AcDbText
  0
TEXT
  5
149A1
330
747D
100
AcDbEntity
  8
部品1
100
AcDbText
 10
5653.686645730736
 20
1059.624993014627
 30
0.0
 40
135.0
  1
正面図
  7
STYLE2
100
AcDbText
  0
LWPOLYLINE
  5
149A2
330
747D
100
AcDbEntity
  8
部品1
100
AcDbPolyline
 90
        4
 70
     1
 43
0.0
 10
5563.161241992783
 20
1252.51852223315
 10
5563.161241992783
 20
1012.626200687617
 10
6326.631908221221
 20
1012.626200687617
 10
6326.631908221221
 20
1252.51852223315
  0
TEXT
  5
15A76
330
747D
100
AcDbEntity
  8
文字
 62
     7
 48
50.0
100
AcDbText
 10
14505.34213575793
 20
483.8967129911411
 30
0.0
 40
160.0
  1
ＮＸＮ－９５S
  7
STYLE2
100
AcDbText
  0
TEXT
  5
20CD8
330
747D
100
AcDbEntity
  8
部品1
100
AcDbText
 10
3759.545247166589
 20
2145.787793247336
 30
0.0
 40
125.0
  1
▽G.L
  7
STYLE2
100
AcDbText
  0
MTEXT
  5
26F2B
330
747D
100
AcDbEntity
  8
寸法
 62
     7
 48
50.0
100
AcDbMText
 10
5198.171403115015
 20
9845.750810931093
 30
0.0
 40
96.0
 41
0.0
 71
     5
 72
     1
  1
棚 2段
  7
STYLE1
 73
     1
 44
1.0
1001
ACAD
1000
MTEXTBEGIN
1070
    73
1070
     1
1070
    44
1040
1.0
1070
    74
1070
     0
1000
MTEXTEND
  0
LINE
  5
26F2C
330
747D
100
AcDbEntity
  8
細線
100
AcDbLine
 10
5215.384268457932
 20
7225.111280151548
 30
0.0
 11
5215.384268457932
 21
7220.111280151548
 31
0.0
  0
LINE
  5
26F2D
330
747D
100
AcDbEntity
  8
細線
100
AcDbLine
 10
5914.884268457917
 20
7225.111280151458
 30
0.0
 11
5914.884268457917
 21
7221.111280151458
 31
0.0
  0
LINE
  5
26F2E
330
747D
100
AcDbEntity
  8
細線
100
AcDbLine
 10
5935.884268457918
 20
7206.611280151458
 30
0.0
 11
5935.884268457916
 21
7202.11128015146
 31
0.0
  0
LINE
  5
26F2F
330
747D
100
AcDbEntity
  8
細線
100
AcDbLine
 10
5944.884268457918
 20
7206.611280151458
 30
0.0
 11
5935.884268457918
 21
7206.611280151458
 31
0.0
  0
LINE
  5
26F35
330
747D
100
AcDbEntity
  8
細線
100
AcDbLine
 10
5200.384268457916
 20
7225.111280151455
 30
0.0
 11
5200.384268457914
 21
7232.111280151454
 31
0.0
  0
LINE
  5
26F36
330
747D
100
AcDbEntity
  8
細線
100
AcDbLine
 10
5185.384268457911
 20
7232.111280151459
 30
0.0
 11
5200.384268457914
 21
7232.111280151454
 31
0.0
  0
LINE
  5
26F37
330
747D
100
AcDbEntity
  8
細線
100
AcDbLine
 10
5185.384268457918
 20
7202.111280151459
 30
0.0
 11
5185.384268457911
 21
7232.111280151459
 31
0.0
  0
ARC
  5
26F38
330
747D
100
AcDbEntity
  8
細線
100
AcDbCircle
 10
5530.384261958019
 20
7227.611280151439
 30
0.0
 40
6.0
100
AcDbArc
 50
204.6243183521779
 51
335.3756816478222
  0
LINE
  5
26F39
330
747D
100
AcDbEntity
  8
細線
100
AcDbLine
 10
4533.384268457921
 20
7238.111280151726
 30
0.0
 11
4535.715806748689
 21
7243.111280151712
 31
0.0
  0
LINE
  5
26F3A
330
747D
100
AcDbEntity
  8
細線
100
AcDbLine
 10
4535.715806748689
 20
7243.111280151712
 30
0.0
 11
4601.052730167164
 21
7243.111280151701
 31
0.0
  0
LINE
  5
26F3B
330
747D
100
AcDbEntity
  8
細線
100
AcDbLine
 10
4603.384268457918
 20
7238.111280151745
 30
0.0
 11
4601.052730167149
 21
7243.11128015173
 31
0.0
  0
LINE
  5
26F3C
330
747D
100
AcDbEntity
  8
細線
100
AcDbLine
 10
4603.384268457932
 20
7238.111280151716
 30
0.0
 11
4673.384268457929
 21
7238.111280151716
 31
0.0
  0
LINE
  5
26F3D
330
747D
100
AcDbEntity
  8
細線
100
AcDbLine
 10
5185.384268457918
 20
7202.111280151531
 30
0.0
 11
5285.384268457941
 21
7202.111280151519
 31
0.0
  0
LINE
  5
26F3E
330
747D
100
AcDbEntity
  8
細線
100
AcDbLine
 10
5023.384268457914
 20
7238.111280151698
 30
0.0
 11
5093.388268457919
 21
7238.111280151699
 31
0.0
  0
LINE
  5
26F3F
330
747D
100
AcDbEntity
  8
細線
100
AcDbLine
 10
4883.384268457925
 20
7238.111280151693
 30
0.0
 11
4953.384268457936
 21
7238.111280151693
 31
0.0
  0
LINE
  5
26F40
330
747D
100
AcDbEntity
  8
細線
100
AcDbLine
 10
4743.384268457933
 20
7238.111280151693
 30
0.0
 11
4813.384268457932
 21
7238.111280151693
 31
0.0
  0
LINE
  5
26F41
330
747D
100
AcDbEntity
  8
細線
100
AcDbLine
 10
5023.384268457914
 20
7238.111280151698
 30
0.0
 11
5021.052730167154
 21
7243.11128015167
 31
0.0
  0
LINE
  5
26F42
330
747D
100
AcDbEntity
  8
細線
100
AcDbLine
 10
4953.384268457925
 20
7238.111280151667
 30
0.0
 11
4955.715806748692
 21
7243.111280151651
 31
0.0
  0
LINE
  5
26F43
330
747D
100
AcDbEntity
  8
細線
100
AcDbLine
 10
4955.715806748692
 20
7243.111280151651
 30
0.0
 11
5021.052730167165
 21
7243.111280151641
 31
0.0
  0
LINE
  5
26F44
330
747D
100
AcDbEntity
  8
細線
100
AcDbLine
 10
4883.384268457922
 20
7238.111280151705
 30
0.0
 11
4881.052730167153
 21
7243.111280151691
 31
0.0
  0
LINE
  5
26F45
330
747D
100
AcDbEntity
  8
細線
100
AcDbLine
 10
4813.384268457925
 20
7238.111280151686
 30
0.0
 11
4815.715806748692
 21
7243.111280151672
 31
0.0
  0
LINE
  5
26F46
330
747D
100
AcDbEntity
  8
細線
100
AcDbLine
 10
4815.715806748692
 20
7243.111280151672
 30
0.0
 11
4881.052730167168
 21
7243.111280151662
 31
0.0
  0
LINE
  5
26F47
330
747D
100
AcDbEntity
  8
細線
100
AcDbLine
 10
4743.384268457917
 20
7238.111280151724
 30
0.0
 11
4741.05273016715
 21
7243.11128015171
 31
0.0
  0
LINE
  5
26F48
330
747D
100
AcDbEntity
  8
細線
100
AcDbLine
 10
4675.715806748693
 20
7243.111280151691
 30
0.0
 11
4741.052730167164
 21
7243.111280151682
 31
0.0
  0
LINE
  5
26F49
330
747D
100
AcDbEntity
  8
細線
100
AcDbLine
 10
4673.384268457925
 20
7238.111280151706
 30
0.0
 11
4675.715806748693
 21
7243.111280151691
 31
0.0
  0
ARC
  5
26F4A
330
747D
100
AcDbEntity
  8
部品1
 48
0.01
100
AcDbCircle
 10
5784.384268457925
 20
7201.111280151481
 30
0.0
 40
0.5
100
AcDbArc
 50
180.0
 51
270.0
  0
LINE
  5
26F4B
330
747D
100
AcDbEntity
  8
部品1
 48
0.01
100
AcDbLine
 10
5783.884268457924
 20
7202.111280151481
 30
0.0
 11
5783.884268457924
 21
7201.111280151481
 31
0.0
  0
LINE
  5
26F4C
330
747D
100
AcDbEntity
  8
部品1
 48
0.01
100
AcDbLine
 10
5783.884268457924
 20
7202.111280151481
 30
0.0
 11
5783.884268457924
 21
7201.111280151481
 31
0.0
  0
LINE
  5
26F4D
330
747D
100
AcDbEntity
  8
部品1
 48
0.01
100
AcDbLine
 10
5784.384268457925
 20
7200.611280151481
 30
0.0
 11
5790.996773887986
 21
7200.611280151481
 31
0.0
  0
ARC
  5
26F4E
330
747D
100
AcDbEntity
  8
部品1
100
AcDbCircle
 10
5790.928424335209
 20
7201.611280151481
 30
0.0
 40
1.0
100
AcDbArc
 50
270.0
 51
19.47122063447127
  0
ARC
  5
26F4F
330
747D
100
AcDbEntity
  8
部品1
100
AcDbCircle
 10
5816.384268457925
 20
7210.611280151481
 30
0.0
 40
26.0
100
AcDbArc
 50
180.0
 51
199.4712206344713
  0
LINE
  5
26F50
330
747D
100
AcDbEntity
  8
部品1
100
AcDbLine
 10
5790.384268457925
 20
7210.611280151481
 30
0.0
 11
5790.384268457925
 21
7215.611280151481
 31
0.0
  0
ARC
  5
26F51
330
747D
100
AcDbEntity
  8
部品1
 48
0.01
100
AcDbCircle
 10
5792.384268457925
 20
7215.611280151481
 30
0.0
 40
2.0
100
AcDbArc
 50
90.0
 51
180.0
  0
ARC
  5
26F52
330
747D
100
AcDbEntity
  8
部品1
100
AcDbCircle
 10
5793.992660082735
 20
7214.611280151482
 30
0.0
 40
3.0
100
AcDbArc
 50
38.39304401921268
 51
90.0
  0
LINE
  5
26F53
330
747D
100
AcDbEntity
  8
部品1
 48
0.01
100
AcDbLine
 10
5792.384268457925
 20
7217.61128015148
 30
0.0
 11
5793.992660082735
 21
7217.61128015148
 31
0.0
  0
ARC
  5
26F54
330
747D
100
AcDbEntity
  8
部品1
100
AcDbCircle
 10
5812.454982672196
 20
7213.91128015148
 30
0.0
 40
3.0
100
AcDbArc
 50
270.0
 51
285.9423686056284
  0
ARC
  5
26F55
330
747D
100
AcDbEntity
  8
部品1
100
AcDbCircle
 10
5805.313554243654
 20
7213.91128015148
 30
0.0
 40
3.0
100
AcDbArc
 50
254.0576313943716
 51
270.0
  0
LINE
  5
26F56
330
747D
100
AcDbEntity
  8
部品1
100
AcDbLine
 10
5805.313554243654
 20
7210.91128015148
 30
0.0
 11
5812.454982672196
 21
7210.91128015148
 31
0.0
  0
ARC
  5
26F57
330
747D
100
AcDbEntity
  8
部品1
100
AcDbCircle
 10
5808.884268457925
 20
7226.41128015148
 30
0.0
 40
16.0
100
AcDbArc
 50
218.3930440192126
 51
254.0576313943716
  0
LINE
  5
26F58
330
747D
100
AcDbEntity
  8
部品1
 48
0.01
100
AcDbLine
 10
5825.384268457924
 20
7217.61128015148
 30
0.0
 11
5823.775876833111
 21
7217.61128015148
 31
0.0
  0
ARC
  5
26F59
330
747D
100
AcDbEntity
  8
部品1
100
AcDbCircle
 10
5823.775876833111
 20
7214.611280151482
 30
0.0
 40
3.0
100
AcDbArc
 50
90.0
 51
141.6069559807873
  0
ARC
  5
26F5A
330
747D
100
AcDbEntity
  8
部品1
100
AcDbCircle
 10
5808.884268457925
 20
7226.41128015148
 30
0.0
 40
16.0
100
AcDbArc
 50
285.9423686056284
 51
321.6069559807873
  0
LINE
  5
26F5B
330
747D
100
AcDbEntity
  8
部品1
100
AcDbLine
 10
5827.384268457925
 20
7210.611280151481
 30
0.0
 11
5827.384268457925
 21
7215.611280151481
 31
0.0
  0
ARC
  5
26F5C
330
747D
100
AcDbEntity
  8
部品1
 48
0.01
100
AcDbCircle
 10
5825.384268457924
 20
7215.611280151481
 30
0.0
 40
2.0
100
AcDbArc
 50
0.000000000000007
 51
90.0
  0
ARC
  5
26F5D
330
747D
100
AcDbEntity
  8
部品1
100
AcDbCircle
 10
5801.384268457925
 20
7210.611280151481
 30
0.0
 40
26.0
100
AcDbArc
 50
340.5287793655288
 51
0.000000000000007
  0
ARC
  5
26F5E
330
747D
100
AcDbEntity
  8
部品1
 48
0.01
100
AcDbCircle
 10
5833.384268457925
 20
7201.111280151481
 30
0.0
 40
0.5
100
AcDbArc
 50
270.0
 51
0.000000000000007
  0
LINE
  5
26F5F
330
747D
100
AcDbEntity
  8
部品1
 48
0.01
100
AcDbLine
 10
5833.384268457925
 20
7200.611280151481
 30
0.0
 11
5826.840112580641
 21
7200.611280151481
 31
0.0
  0
LINE
  5
26F60
330
747D
100
AcDbEntity
  8
部品1
 48
0.01
100
AcDbLine
 10
5833.884268457925
 20
7202.111280151481
 30
0.0
 11
5833.884268457925
 21
7201.111280151481
 31
0.0
  0
ARC
  5
26F61
330
747D
100
AcDbEntity
  8
部品1
100
AcDbCircle
 10
5826.840112580641
 20
7201.611280151481
 30
0.0
 40
1.0
100
AcDbArc
 50
160.5287793655287
 51
270.0
  0
LINE
  5
26F62
330
747D
100
AcDbEntity
  8
細線
100
AcDbLine
 10
5788.384268457917
 20
7220.111280151481
 30
0.0
 11
5829.384268457918
 21
7220.111280151478
 31
0.0
  0
LINE
  5
26F63
330
747D
100
AcDbEntity
  8
細線
100
AcDbLine
 10
5829.384268457918
 20
7220.111280151478
 30
0.0
 11
5829.384268457918
 21
7202.111280151459
 31
0.0
  0
LINE
  5
26F64
330
747D
100
AcDbEntity
  8
細線
100
AcDbLine
 10
5788.384268457917
 20
7220.111280151481
 30
0.0
 11
5788.384268457917
 21
7202.111280151459
 31
0.0
  0
LINE
  5
26F65
330
747D
100
AcDbEntity
  8
細線
100
AcDbLine
 10
5635.384268457918
 20
7202.111280151459
 30
0.0
 11
5633.05273016715
 21
7207.111280151444
 31
0.0
  0
LINE
  5
26F66
330
747D
100
AcDbEntity
  8
細線
100
AcDbLine
 10
5565.384268457923
 20
7202.111280151441
 30
0.0
 11
5567.71580674869
 21
7207.111280151426
 31
0.0
  0
LINE
  5
26F67
330
747D
100
AcDbEntity
  8
細線
100
AcDbLine
 10
5567.71580674869
 20
7207.111280151426
 30
0.0
 11
5633.052730167165
 21
7207.111280151415
 31
0.0
  0
LINE
  5
26F68
330
747D
100
AcDbEntity
  8
細線
100
AcDbLine
 10
5495.384268457919
 20
7202.111280151479
 30
0.0
 11
5493.052730167152
 21
7207.111280151464
 31
0.0
  0
LINE
  5
26F69
330
747D
100
AcDbEntity
  8
細線
100
AcDbLine
 10
5425.384268457925
 20
7202.11128015146
 30
0.0
 11
5427.715806748693
 21
7207.111280151446
 31
0.0
  0
LINE
  5
26F6A
330
747D
100
AcDbEntity
  8
細線
100
AcDbLine
 10
5427.715806748691
 20
7207.111280151446
 30
0.0
 11
5493.052730167164
 21
7207.111280151434
 31
0.0
  0
LINE
  5
26F6B
330
747D
100
AcDbEntity
  8
細線
100
AcDbLine
 10
5355.384268457918
 20
7202.111280151498
 30
0.0
 11
5353.052730167149
 21
7207.111280151484
 31
0.0
  0
LINE
  5
26F6C
330
747D
100
AcDbEntity
  8
細線
100
AcDbLine
 10
5635.384268457918
 20
7202.111280151505
 30
0.0
 11
5935.884268457916
 21
7202.11128015146
 31
0.0
  0
LINE
  5
26F6D
330
747D
100
AcDbEntity
  8
細線
100
AcDbLine
 10
5495.384268457918
 20
7202.111280151436
 30
0.0
 11
5565.384268457918
 21
7202.111280151426
 31
0.0
  0
LINE
  5
26F6E
330
747D
100
AcDbEntity
  8
細線
100
AcDbLine
 10
5355.384268457918
 20
7202.111280151455
 30
0.0
 11
5425.384268457918
 21
7202.111280151446
 31
0.0
  0
LINE
  5
26F6F
330
747D
100
AcDbEntity
  8
細線
100
AcDbLine
 10
5287.715806748689
 20
7207.111280151465
 30
0.0
 11
5353.052730167163
 21
7207.111280151455
 31
0.0
  0
LINE
  5
26F70
330
747D
100
AcDbEntity
  8
細線
100
AcDbLine
 10
5285.384268457941
 20
7202.111280151519
 30
0.0
 11
5287.715806748691
 21
7207.111280151465
 31
0.0
  0
LINE
  5
26F71
330
747D
100
AcDbEntity
  8
細線
100
AcDbLine
 10
5944.884268457918
 20
7232.111280151457
 30
0.0
 11
5944.884268457918
 21
7206.611280151458
 31
0.0
  0
LINE
  5
26F72
330
747D
100
AcDbEntity
  8
細線
100
AcDbLine
 10
5500.384268457992
 20
7202.111280151537
 30
0.0
 11
5507.884268457988
 21
7225.111280151466
 31
0.0
  0
LINE
  5
26F73
330
747D
100
AcDbEntity
  8
細線
100
AcDbLine
 10
5560.384268457992
 20
7202.111280151548
 30
0.0
 11
5552.884268457987
 21
7225.111280151466
 31
0.0
  0
LINE
  5
26F74
330
747D
100
AcDbEntity
  8
細線
100
AcDbLine
 10
4917.884268457914
 20
7266.111280151694
 30
0.0
 11
4932.884268457918
 21
7238.111280151698
 31
0.0
  0
LINE
  5
26F75
330
747D
100
AcDbEntity
  8
細線
100
AcDbLine
 10
4902.884268457913
 20
7266.111280151694
 30
0.0
 11
4902.884268457917
 21
7238.111280151698
 31
0.0
  0
LINE
  5
26F77
330
747D
100
AcDbEntity
  8
細線
100
AcDbLine
 10
4479.896542121973
 20
7234.111280151704
 30
0.0
 11
4479.896542121973
 21
7238.111280151696
 31
0.0
  0
LINE
  5
26F7B
330
747D
100
AcDbEntity
  8
細線
100
AcDbLine
 10
4447.896575106992
 20
7266.111280151688
 30
0.0
 11
5226.384268457917
 21
7266.111280151701
 31
0.0
  0
LINE
  5
26F7C
330
747D
100
AcDbEntity
  8
細線
 48
50.0
100
AcDbLine
 10
4479.896575106992
 20
7215.111280151468
 30
0.0
 11
5080.384268457914
 21
7215.111280151468
 31
0.0
  0
LINE
  5
26F7D
330
747D
100
AcDbEntity
  8
細線
100
AcDbLine
 10
4479.896542121973
 20
7238.111280151693
 30
0.0
 11
4533.384268457914
 21
7238.111280151698
 31
0.0
  0
LINE
  5
26F7E
330
747D
100
AcDbEntity
  8
細線
100
AcDbLine
 10
5929.884268457918
 20
7232.111280151457
 30
0.0
 11
5944.884268457918
 21
7232.111280151457
 31
0.0
  0
LINE
  5
26F7F
330
747D
100
AcDbEntity
  8
細線
100
AcDbLine
 10
5929.884268457918
 20
7232.111280151457
 30
0.0
 11
5929.884268457918
 21
7225.111280151458
 31
0.0
  0
LINE
  5
26F80
330
747D
100
AcDbEntity
  8
細線
100
AcDbLine
 10
5200.384268457916
 20
7225.111280151569
 30
0.0
 11
5929.884268457918
 21
7225.111280151458
 31
0.0
  0
LINE
  5
26F81
330
747D
100
AcDbEntity
  8
細線
 48
50.0
100
AcDbLine
 10
5004.896542121972
 20
7215.111280151659
 30
0.0
 11
5185.384268457914
 21
7215.111280151659
 31
0.0
  0
LINE
  5
26F82
330
747D
100
AcDbEntity
  8
細線
100
AcDbLine
 10
5211.384268457917
 20
7266.11128015146
 30
0.0
 11
5211.384268457917
 21
7260.754308749426
 31
0.0
  0
LINE
  5
26F83
330
747D
100
AcDbEntity
  8
細線
100
AcDbLine
 10
4447.896575106992
 20
7266.111280151692
 30
0.0
 11
4447.896575106992
 21
7234.111280151703
 31
0.0
  0
LINE
  5
26F84
330
747D
100
AcDbEntity
  8
細線
100
AcDbLine
 10
7441.896575106979
 20
7266.111280151576
 30
0.0
 11
7441.896575106979
 21
7234.111280151586
 31
0.0
  0
DIMENSION
  5
26F86
330
747D
100
AcDbEntity
  8
寸法
100
AcDbDimension
  2
*D10
 10
5874.254244657481
 20
9555.853199650476
 30
0.0
 11
5012.644825345375
 21
9555.853199650476
 31
0.0
 70
   160
 71
     5
 42
1483.0
  3
INABA_S40G
100
AcDbAlignedDimension
 13
4448.396575107209
 23
9769.111280151486
 33
0.0
 14
5931.396575107209
 24
9769.111280151753
 34
0.0
100
AcDbRotatedDimension
1001
ACAD
1000
DSTYLE
1002
{
1002
}
  0
LINE
  5
26F87
330
747D
100
AcDbEntity
  8
部品1
100
AcDbLine
 10
4479.896575106973
 20
7199.111280151704
 30
0.0
 11
4479.896575106973
 21
7234.111280151707
 31
0.0
  0
LINE
  5
26F88
330
747D
100
AcDbEntity
  8
部品1
100
AcDbLine
 10
4447.896575106973
 20
7234.111280151704
 30
0.0
 11
4479.896575106973
 21
7234.111280151704
 31
0.0
  0
LINE
  5
26F89
330
747D
100
AcDbEntity
  8
部品1
100
AcDbLine
 10
7441.89657510698
 20
7234.111280151589
 30
0.0
 11
7409.896575106976
 21
7234.111280151589
 31
0.0
  0
LINE
  5
26F8A
330
747D
100
AcDbEntity
  8
破線
 48
10.0
100
AcDbLine
 10
5192.396575106958
 20
7353.111280151573
 30
0.0
 11
4499.896575106991
 21
7353.111280151553
 31
0.0
  0
LINE
  5
26F8D
330
747D
100
AcDbEntity
  8
部品1
100
AcDbLine
 10
6574.89657510721
 20
10249.11128015172
 30
0.0
 11
6574.89657510721
 21
10221.11128015172
 31
0.0
  0
LINE
  5
26F8E
330
747D
100
AcDbEntity
  8
部品1
100
AcDbLine
 10
4894.89657510721
 20
10249.11128015149
 30
0.0
 11
4894.89657510721
 21
10221.11128015149
 31
0.0
  0
LINE
  5
26F8F
330
747D
100
AcDbEntity
  8
部品1
100
AcDbLine
 10
4894.89657510721
 20
10249.11128015149
 30
0.0
 11
4894.89657510721
 21
10221.11128015149
 31
0.0
  0
LINE
  5
26F90
330
747D
100
AcDbEntity
  8
部品1
100
AcDbLine
 10
4894.89657510721
 20
10249.1112801516
 30
0.0
 11
4894.89657510721
 21
10221.1112801516
 31
0.0
  0
LINE
  5
26F94
330
747D
100
AcDbEntity
  8
部品1
100
AcDbLine
 10
7414.89657510721
 20
10249.1112801517
 30
0.0
 11
7414.89657510721
 21
10221.1112801517
 31
0.0
  0
LINE
  5
26F95
330
747D
100
AcDbEntity
  8
部品1
100
AcDbLine
 10
7414.89657510721
 20
10249.11128015172
 30
0.0
 11
7414.89657510721
 21
10221.11128015172
 31
0.0
  0
LINE
  5
26F96
330
747D
100
AcDbEntity
  8
部品1
100
AcDbLine
 10
7441.896575107211
 20
10194.1112801517
 30
0.0
 11
7469.896575107211
 21
10194.1112801517
 31
0.0
  0
LINE
  5
26F97
330
747D
100
AcDbEntity
  8
部品1
100
AcDbLine
 10
7441.896575107211
 20
9774.111280151705
 30
0.0
 11
7469.896575107211
 21
9774.111280151705
 31
0.0
  0
LINE
  5
26F98
330
747D
100
AcDbEntity
  8
部品1
100
AcDbLine
 10
7441.396575107209
 20
10219.1112801517
 30
0.0
 11
7441.396575107209
 21
9769.111280151705
 31
0.0
  0
LINE
  5
26F99
330
747D
100
AcDbEntity
  8
部品1
100
AcDbLine
 10
7469.896575106978
 20
7254.111280151588
 30
0.0
 11
7469.896575106978
 21
7199.111280151592
 31
0.0
  0
LINE
  5
26F9A
330
747D
100
AcDbEntity
  8
部品1
 48
50.0
100
AcDbLine
 10
7413.396575106981
 20
7329.611280151763
 30
0.0
 11
7441.896575106977
 21
7301.111280151767
 31
0.0
  0
LINE
  5
26F9B
330
747D
100
AcDbEntity
  8
部品1
100
AcDbLine
 10
7409.896575106976
 20
7199.111280151588
 30
0.0
 11
7409.896575106976
 21
7234.111280151591
 31
0.0
  0
LINE
  5
26F9C
330
747D
100
AcDbEntity
  8
部品1
100
AcDbLine
 10
7469.896575106978
 20
7199.111280151592
 30
0.0
 11
7418.896575106977
 21
7199.111280151592
 31
0.0
  0
LINE
  5
26F9D
330
747D
100
AcDbEntity
  8
部品1
100
AcDbLine
 10
7441.896575106977
 20
7254.111280151588
 30
0.0
 11
7469.896575106978
 21
7254.111280151588
 31
0.0
  0
LINE
  5
26F9E
330
747D
100
AcDbEntity
  8
部品1
100
AcDbLine
 10
7469.896575107061
 20
10249.1112801517
 30
0.0
 11
7469.896575106978
 21
7199.111280151592
 31
0.0
  0
DIMENSION
  5
26F9F
330
747D
100
AcDbEntity
  8
寸法
100
AcDbDimension
  2
*D9
 10
8117.322920841386
 20
7254.111280151588
 30
0.0
 11
8117.322920841386
 21
8674.520969013698
 31
0.0
 70
   160
  1
7X420=<>
 71
     5
 42
2940.000000000117
  3
INABA_S40G
100
AcDbAlignedDimension
 13
7469.896575107059
 23
10194.1112801517
 33
0.0
 14
7469.896575106976
 24
7254.111280151588
 34
0.0
 50
90.0
100
AcDbRotatedDimension
1001
ACAD
1000
DSTYLE
1002
{
1002
}
  0
LINE
  5
26FA0
330
747D
100
AcDbEntity
  8
部品1
100
AcDbLine
 10
7441.89657510705
 20
10221.1112801517
 30
0.0
 11
7441.89657510698
 21
7254.111280151605
 31
0.0
  0
DIMENSION
  5
26FA1
330
747D
100
AcDbEntity
  8
寸法
100
AcDbDimension
  2
*D8
 10
7796.754300969233
 20
9673.893464482816
 30
0.0
 11
7696.754300969233
 21
9898.893464482815
 31
0.0
 70
    32
 71
     5
 42
449.9999999999963
  3
INABA_S40G
100
AcDbAlignedDimension
 13
7441.396575107209
 23
10219.1112801517
 33
0.0
 14
7441.396575107209
 24
9769.111280151705
 34
0.0
 50
90.0
100
AcDbRotatedDimension
1001
ACAD
1000
DSTYLE
1002
{
1002
}
  0
LINE
  5
26FA2
330
747D
100
AcDbEntity
  8
部品1
100
AcDbLine
 10
7413.39657510707
 20
9769.111280151705
 30
0.0
 11
7413.396575106983
 21
7329.611280151763
 31
0.0
  0
LINE
  5
26FA3
330
747D
100
AcDbEntity
  8
破線
 48
10.0
100
AcDbLine
 10
7389.896575107069
 20
9769.111280151705
 30
0.0
 11
7389.896575106982
 21
7329.611280151762
 31
0.0
  0
LINE
  5
26FA4
330
747D
100
AcDbEntity
  8
部品1
100
AcDbLine
 10
6994.896575107211
 20
10249.11128015172
 30
0.0
 11
6994.896575107211
 21
10221.11128015172
 31
0.0
  0
LINE
  5
26FB0
330
747D
100
AcDbEntity
  8
部品1
100
AcDbLine
 10
5314.89657510721
 20
10249.1112801516
 30
0.0
 11
5314.89657510721
 21
10221.1112801516
 31
0.0
  0
LINE
  5
26FB1
330
747D
100
AcDbEntity
  8
部品1
100
AcDbLine
 10
5314.89657510721
 20
10249.11128015149
 30
0.0
 11
5314.89657510721
 21
10221.11128015149
 31
0.0
  0
LINE
  5
26FB2
330
747D
100
AcDbEntity
  8
部品1
100
AcDbLine
 10
5314.89657510721
 20
10249.11128015149
 30
0.0
 11
5314.89657510721
 21
10221.11128015149
 31
0.0
  0
LINE
  5
26FB5
330
747D
100
AcDbEntity
  8
部品1
100
AcDbLine
 10
5957.39657510721
 20
10221.11128015172
 30
0.0
 11
7441.896575107211
 21
10221.1112801517
 31
0.0
  0
LINE
  5
26FB6
330
747D
100
AcDbEntity
  8
細線
 48
50.0
100
AcDbLine
 10
7441.396575107209
 20
9769.111280151705
 30
0.0
 11
5958.39657510721
 21
10219.11128015174
 31
0.0
  0
LINE
  5
26FB7
330
747D
100
AcDbEntity
  8
部品1
100
AcDbLine
 10
5958.39657510721
 20
9769.111280151713
 30
0.0
 11
7441.396575107209
 21
9769.111280151705
 31
0.0
  0
LINE
  5
26FB8
330
747D
100
AcDbEntity
  8
部品1
100
AcDbLine
 10
5958.39657510721
 20
10219.11128015171
 30
0.0
 11
7441.396575107209
 21
10219.1112801517
 31
0.0
  0
LINE
  5
26FB9
330
747D
100
AcDbEntity
  8
細線
 48
50.0
100
AcDbLine
 10
7441.396575107209
 20
10219.1112801517
 30
0.0
 11
5958.39657510721
 21
9769.111280151753
 31
0.0
  0
DIMENSION
  5
26FBA
330
747D
100
AcDbEntity
  8
寸法
100
AcDbDimension
  2
*D7
 10
7383.896281292911
 20
9554.517262186564
 30
0.0
 11
6479.920619403249
 21
9554.517262186564
 31
0.0
 70
   160
 71
     5
 42
1483.000000000011
  3
INABA_S40G
100
AcDbAlignedDimension
 13
5958.396575107209
 23
9769.111280151753
 33
0.0
 14
7441.396575107219
 24
9769.111280151705
 34
0.0
100
AcDbRotatedDimension
1001
ACAD
1000
DSTYLE
1002
{
1002
}
  0
LINE
  5
26FBB
330
747D
100
AcDbEntity
  8
破線
 48
10.0
100
AcDbLine
 10
7389.89657510698
 20
7353.111280151764
 30
0.0
 11
6697.396575106956
 21
7353.111280151731
 31
0.0
  0
DIMENSION
  5
26FBC
330
747D
100
AcDbEntity
  8
寸法
100
AcDbDimension
  2
*D6
 10
8117.322920841386
 20
7199.111280151592
 30
0.0
 11
8117.322920841386
 21
6821.24981324673
 31
0.0
 70
   160
 71
     5
 42
54.99999999999636
  3
INABA_S40G
100
AcDbAlignedDimension
 13
7469.896575106976
 23
7254.111280151588
 33
0.0
 14
7469.896575106976
 24
7199.111280151592
 34
0.0
 50
90.0
100
AcDbRotatedDimension
1001
ACAD
1000
DSTYLE
1002
{
1002
}
  0
LINE
  5
26FBD
330
747D
100
AcDbEntity
  8
部品1
100
AcDbLine
 10
4474.896575107173
 20
10249.11128015169
 30
0.0
 11
4474.896575107177
 21
10221.11128015169
 31
0.0
  0
LINE
  5
26FBE
330
747D
100
AcDbEntity
  8
部品1
100
AcDbLine
 10
4474.89657510721
 20
10249.11128015172
 30
0.0
 11
4474.89657510721
 21
10221.11128015172
 31
0.0
  0
LINE
  5
26FBF
330
747D
100
AcDbEntity
  8
部品1
100
AcDbLine
 10
4447.896575107177
 20
10194.11128015169
 30
0.0
 11
4419.896575107177
 21
10194.11128015169
 31
0.0
  0
LINE
  5
26FC0
330
747D
100
AcDbEntity
  8
部品1
100
AcDbLine
 10
4447.896575107185
 20
9774.111280151693
 30
0.0
 11
4419.896575107184
 21
9774.111280151693
 31
0.0
  0
LINE
  5
26FC1
330
747D
100
AcDbEntity
  8
部品1
 48
50.0
100
AcDbLine
 10
4448.396575107206
 20
10219.11128015149
 30
0.0
 11
4448.396575107209
 21
9769.111280151719
 31
0.0
  0
LINE
  5
26FC2
330
747D
100
AcDbEntity
  8
部品1
 48
50.0
100
AcDbLine
 10
4476.396575106991
 20
7329.611280151879
 30
0.0
 11
4447.896575106992
 21
7301.111280151883
 31
0.0
  0
LINE
  5
26FC3
330
747D
100
AcDbEntity
  8
部品1
100
AcDbLine
 10
4479.896575106973
 20
7199.111280151576
 30
0.0
 11
4419.896575106995
 21
7199.111280151576
 31
0.0
  0
LINE
  5
26FC4
330
747D
100
AcDbEntity
  8
部品1
100
AcDbLine
 10
4447.896575106977
 20
7254.111280151541
 30
0.0
 11
4419.896575106991
 21
7254.111280151541
 31
0.0
  0
LINE
  5
26FC5
330
747D
100
AcDbEntity
  8
部品1
100
AcDbLine
 10
4447.896575106977
 20
7254.111280151578
 30
0.0
 11
4419.896575106991
 21
7254.111280151578
 31
0.0
  0
LINE
  5
26FC6
330
747D
100
AcDbEntity
  8
部品1
100
AcDbLine
 10
4447.896575106992
 20
7254.111280151592
 30
0.0
 11
4419.896575106991
 21
7254.111280151592
 31
0.0
  0
LINE
  5
26FC7
330
747D
100
AcDbEntity
  8
部品1
100
AcDbLine
 10
4419.896575106991
 20
7254.111280151541
 30
0.0
 11
4419.896575106995
 21
7199.111280151544
 31
0.0
  0
LINE
  5
26FC8
330
747D
100
AcDbEntity
  8
部品1
100
AcDbLine
 10
4479.896575106992
 20
7206.111280151578
 30
0.0
 11
4479.896575106992
 21
7234.111280151704
 31
0.0
  0
LINE
  5
26FC9
330
747D
100
AcDbEntity
  8
部品1
100
AcDbLine
 10
4419.896575106897
 20
10249.11128015159
 30
0.0
 11
4419.896575106995
 21
7199.111280151576
 31
0.0
  0
LINE
  5
26FCA
330
747D
100
AcDbEntity
  8
部品1
100
AcDbLine
 10
4447.896575106977
 20
7254.111280151573
 30
0.0
 11
4447.896575107065
 21
10221.1112801516
 31
0.0
  0
LINE
  5
26FCB
330
747D
100
AcDbEntity
  8
部品1
100
AcDbLine
 10
4476.396575106911
 20
9769.111280151571
 30
0.0
 11
4476.396575106991
 21
7329.611280151654
 31
0.0
  0
LINE
  5
26FCC
330
747D
100
AcDbEntity
  8
破線
 48
10.0
100
AcDbLine
 10
4499.896575106888
 20
9769.111280151577
 30
0.0
 11
4499.896575106991
 21
7329.611280151654
 31
0.0
  0
LINE
  5
26FCD
330
747D
100
AcDbEntity
  8
部品1
100
AcDbLine
 10
4474.89657510721
 20
10221.1112801516
 30
0.0
 11
5722.396575107207
 21
10221.1112801516
 31
0.0
  0
LINE
  5
26FCE
330
747D
100
AcDbEntity
  8
部品1
100
AcDbLine
 10
7469.896575106978
 20
7199.111280151592
 30
0.0
 11
4479.896575106973
 21
7199.111280151484
 31
0.0
  0
LINE
  5
26FCF
330
747D
100
AcDbEntity
  8
部品1
100
AcDbLine
 10
4447.89657510721
 20
10221.1112801516
 30
0.0
 11
5932.396575107206
 21
10221.11128015161
 31
0.0
  0
LINE
  5
26FD0
330
747D
100
AcDbEntity
  8
部品1
100
AcDbLine
 10
4419.896575107173
 20
10249.11128015159
 30
0.0
 11
7469.896575107211
 21
10249.1112801517
 31
0.0
  0
LINE
  5
26FD1
330
747D
100
AcDbEntity
  8
部品1
100
AcDbLine
 10
4448.396575107209
 20
9769.11128015157
 30
0.0
 11
5931.396575107211
 21
9769.111280151694
 31
0.0
  0
LINE
  5
26FD2
330
747D
100
AcDbEntity
  8
細線
 48
50.0
100
AcDbLine
 10
5931.396575107211
 20
10219.11128015175
 30
0.0
 11
4448.396575107209
 21
9769.111280151491
 31
0.0
  0
LINE
  5
26FD3
330
747D
100
AcDbEntity
  8
部品1
100
AcDbLine
 10
4448.396575107206
 20
10219.11128015149
 30
0.0
 11
5931.396575107211
 21
10219.11128015161
 31
0.0
  0
LINE
  5
26FD4
330
747D
100
AcDbEntity
  8
細線
 48
50.0
100
AcDbLine
 10
5931.396575107211
 20
9769.111280151753
 30
0.0
 11
4448.396575107206
 21
10219.11128015149
 31
0.0
  0
LINE
  5
26FD5
330
747D
100
AcDbEntity
  8
部品1
100
AcDbLine
 10
7441.896575106977
 20
7301.111280151767
 30
0.0
 11
4447.896575106977
 21
7301.111280151649
 31
0.0
  0
LINE
  5
26FD6
330
747D
100
AcDbEntity
  8
破線
 48
10.0
100
AcDbLine
 10
6647.396575106959
 20
7353.111280151726
 30
0.0
 11
5969.896575106973
 21
7353.111280151704
 31
0.0
  0
LINE
  5
26FD7
330
747D
100
AcDbEntity
  8
部品1
100
AcDbLine
 10
7413.396575106981
 20
7329.611280151763
 30
0.0
 11
4476.396575106991
 21
7329.611280151654
 31
0.0
  0
DIMENSION
  5
26FD8
330
747D
100
AcDbEntity
  8
寸法
100
AcDbDimension
  2
*D5
 10
4474.896575107209
 20
10529.73831326045
 30
0.0
 11
4111.411293732934
 21
10529.73831326045
 31
0.0
 70
   160
 71
     5
 42
55.00000000003637
  3
INABA_S40G
100
AcDbAlignedDimension
 13
4419.896575107173
 23
10249.11128015172
 33
0.0
 14
4474.896575107209
 24
10249.11128015172
 34
0.0
100
AcDbRotatedDimension
1001
ACAD
1000
DSTYLE
1002
{
1002
}
  0
DIMENSION
  5
26FD9
330
747D
100
AcDbEntity
  8
寸法
100
AcDbDimension
  2
*D4
 10
8117.322920841621
 20
10194.1112801517
 30
0.0
 11
8117.322920841619
 21
10557.59656152594
 31
0.0
 70
   160
 71
     5
 42
54.99999999999636
  3
INABA_S40G
100
AcDbAlignedDimension
 13
7469.89657510721
 23
10249.1112801517
 33
0.0
 14
7469.89657510721
 24
10194.1112801517
 34
0.0
 50
90.0
100
AcDbRotatedDimension
1001
ACAD
1000
DSTYLE
1002
{
1002
}
  0
DIMENSION
  5
26FDA
330
747D
100
AcDbEntity
  8
寸法
100
AcDbDimension
  2
*D3
 10
7469.89657510721
 20
10529.73831326045
 30
0.0
 11
7778.381856481448
 21
10529.73831326045
 31
0.0
 70
   160
 71
     5
 42
55.0
  3
INABA_S40G
100
AcDbAlignedDimension
 13
7414.89657510721
 23
10249.1112801517
 33
0.0
 14
7469.89657510721
 24
10249.1112801517
 34
0.0
100
AcDbRotatedDimension
1001
ACAD
1000
DSTYLE
1002
{
1002
}
  0
DIMENSION
  5
26FDB
330
747D
100
AcDbEntity
  8
寸法
100
AcDbDimension
  2
*D2
 10
7414.89657510721
 20
10529.73831326045
 30
0.0
 11
5899.035897556458
 21
10529.73831326045
 31
0.0
 70
   160
  1
7X420=<>
 71
     5
 42
2940.0
  3
INABA_S40G
100
AcDbAlignedDimension
 13
4474.896575107209
 23
10249.11128015172
 33
0.0
 14
7414.89657510721
 24
10249.1112801517
 34
0.0
100
AcDbRotatedDimension
1001
ACAD
1000
DSTYLE
1002
{
1002
}
  0
DIMENSION
  5
26FDC
330
747D
100
AcDbEntity
  8
寸法
100
AcDbDimension
  2
*D1
 10
8444.217341176498
 20
7199.111280151592
 30
0.0
 11
8444.217341176496
 21
8658.56827611725
 31
0.0
 70
   160
 71
     5
 42
3050.000000000109
  3
INABA_S40G
100
AcDbAlignedDimension
 13
7469.89657510721
 23
10249.1112801517
 33
0.0
 14
7469.896575106976
 24
7199.111280151592
 34
0.0
 50
90.0
100
AcDbRotatedDimension
1001
ACAD
1000
DSTYLE
1002
{
1002
}
  0
LINE
  5
26FDE
330
747D
100
AcDbEntity
  8
細線
100
AcDbLine
 10
6689.408881756057
 20
7225.111280151569
 30
0.0
 11
5959.908881756053
 21
7225.111280151458
 31
0.0
  0
LINE
  5
26FDF
330
747D
100
AcDbEntity
  8
部品1
100
AcDbLine
 10
6460.408881756062
 20
7199.111280151313
 30
0.0
 11
6409.408881756061
 21
7199.111280151313
 31
0.0
  0
LINE
  5
26FE0
330
747D
100
AcDbEntity
  8
細線
100
AcDbLine
 10
5959.908881756053
 20
7232.111280151457
 30
0.0
 11
5959.908881756053
 21
7225.111280151458
 31
0.0
  0
LINE
  5
26FE1
330
747D
100
AcDbEntity
  8
細線
100
AcDbLine
 10
5959.908881756053
 20
7232.111280151457
 30
0.0
 11
5944.908881756053
 21
7232.111280151457
 31
0.0
  0
LINE
  5
26FE2
330
747D
100
AcDbEntity
  8
細線
100
AcDbLine
 10
7409.896608092001
 20
7238.111280151577
 30
0.0
 11
7356.408881756054
 21
7238.111280151581
 31
0.0
  0
LINE
  5
26FE3
330
747D
100
AcDbEntity
  8
細線
 48
50.0
100
AcDbLine
 10
7409.896575106976
 20
7215.111280151436
 30
0.0
 11
6704.408881756056
 21
7215.111280151437
 31
0.0
  0
LINE
  5
26FE4
330
747D
100
AcDbEntity
  8
細線
100
AcDbLine
 10
7441.896575106979
 20
7266.111280151573
 30
0.0
 11
6663.408881756055
 21
7266.111280151584
 31
0.0
  0
LINE
  5
26FE8
330
747D
100
AcDbEntity
  8
細線
100
AcDbLine
 10
7409.896608091997
 20
7234.111280151589
 30
0.0
 11
7409.896608092001
 21
7238.11128015158
 31
0.0
  0
LINE
  5
26FEA
330
747D
100
AcDbEntity
  8
細線
100
AcDbLine
 10
6986.908881756055
 20
7266.111280151577
 30
0.0
 11
6986.908881756055
 21
7238.111280151581
 31
0.0
  0
LINE
  5
26FEB
330
747D
100
AcDbEntity
  8
細線
100
AcDbLine
 10
6971.908881756054
 20
7266.111280151577
 30
0.0
 11
6956.908881756056
 21
7238.111280151581
 31
0.0
  0
LINE
  5
26FEC
330
747D
100
AcDbEntity
  8
細線
100
AcDbLine
 10
6329.408881755981
 20
7202.111280151521
 30
0.0
 11
6336.908881755986
 21
7225.111280151439
 31
0.0
  0
LINE
  5
26FED
330
747D
100
AcDbEntity
  8
細線
100
AcDbLine
 10
6389.40888175598
 20
7202.111280151512
 30
0.0
 11
6381.908881755986
 21
7225.111280151439
 31
0.0
  0
LINE
  5
26FEE
330
747D
100
AcDbEntity
  8
細線
100
AcDbLine
 10
5944.908881756053
 20
7232.111280151457
 30
0.0
 11
5944.908881756053
 21
7202.111280151459
 31
0.0
  0
LINE
  5
26FEF
330
747D
100
AcDbEntity
  8
細線
100
AcDbLine
 10
6604.408881756032
 20
7202.111280151491
 30
0.0
 11
6602.077343465282
 21
7207.111280151439
 31
0.0
  0
LINE
  5
26FF0
330
747D
100
AcDbEntity
  8
細線
100
AcDbLine
 10
6602.077343465282
 20
7207.111280151439
 30
0.0
 11
6536.740420046808
 21
7207.111280151429
 31
0.0
  0
LINE
  5
26FF1
330
747D
100
AcDbEntity
  8
細線
100
AcDbLine
 10
6534.408881756053
 20
7202.111280151427
 30
0.0
 11
6464.408881756053
 21
7202.111280151419
 31
0.0
  0
LINE
  5
26FF2
330
747D
100
AcDbEntity
  8
細線
100
AcDbLine
 10
6394.408881756056
 20
7202.11128015141
 30
0.0
 11
6324.408881756055
 21
7202.111280151399
 31
0.0
  0
LINE
  5
26FF3
330
747D
100
AcDbEntity
  8
細線
100
AcDbLine
 10
6254.408881756053
 20
7202.111280151505
 30
0.0
 11
5935.896575107003
 21
7202.111280151457
 31
0.0
  0
LINE
  5
26FF4
330
747D
100
AcDbEntity
  8
細線
100
AcDbLine
 10
6534.408881756054
 20
7202.111280151472
 30
0.0
 11
6536.740420046823
 21
7207.111280151457
 31
0.0
  0
LINE
  5
26FF5
330
747D
100
AcDbEntity
  8
細線
100
AcDbLine
 10
6462.07734346528
 20
7207.111280151419
 30
0.0
 11
6396.740420046807
 21
7207.111280151409
 31
0.0
  0
LINE
  5
26FF6
330
747D
100
AcDbEntity
  8
細線
100
AcDbLine
 10
6464.408881756047
 20
7202.111280151433
 30
0.0
 11
6462.07734346528
 21
7207.111280151419
 31
0.0
  0
LINE
  5
26FF7
330
747D
100
AcDbEntity
  8
細線
100
AcDbLine
 10
6394.408881756053
 20
7202.111280151452
 30
0.0
 11
6396.740420046821
 21
7207.111280151437
 31
0.0
  0
LINE
  5
26FF8
330
747D
100
AcDbEntity
  8
細線
100
AcDbLine
 10
6322.077343465282
 20
7207.111280151399
 30
0.0
 11
6256.740420046808
 21
7207.111280151387
 31
0.0
  0
LINE
  5
26FF9
330
747D
100
AcDbEntity
  8
細線
100
AcDbLine
 10
6324.408881756048
 20
7202.111280151413
 30
0.0
 11
6322.077343465281
 21
7207.111280151399
 31
0.0
  0
LINE
  5
26FFA
330
747D
100
AcDbEntity
  8
細線
100
AcDbLine
 10
6254.408881756053
 20
7202.111280151432
 30
0.0
 11
6256.740420046821
 21
7207.111280151417
 31
0.0
  0
LINE
  5
26FFB
330
747D
100
AcDbEntity
  8
細線
100
AcDbLine
 10
6101.408881756054
 20
7220.111280151481
 30
0.0
 11
6101.408881756054
 21
7202.111280151459
 31
0.0
  0
LINE
  5
26FFC
330
747D
100
AcDbEntity
  8
細線
100
AcDbLine
 10
6060.408881756053
 20
7220.111280151478
 30
0.0
 11
6060.408881756053
 21
7202.111280151459
 31
0.0
  0
LINE
  5
26FFD
330
747D
100
AcDbEntity
  8
細線
100
AcDbLine
 10
6101.408881756054
 20
7220.111280151481
 30
0.0
 11
6060.408881756053
 21
7220.111280151478
 31
0.0
  0
ARC
  5
26FFE
330
747D
100
AcDbEntity
  8
部品1
100
AcDbCircle
 10
6062.953037633331
 20
7201.611280151481
 30
0.0
 40
1.0
100
AcDbArc
 50
270.0
 51
19.47122063447127
  0
LINE
  5
26FFF
330
747D
100
AcDbEntity
  8
部品1
 48
0.01
100
AcDbLine
 10
6055.908881756048
 20
7202.111280151481
 30
0.0
 11
6055.908881756048
 21
7201.111280151481
 31
0.0
  0
LINE
  5
27000
330
747D
100
AcDbEntity
  8
部品1
 48
0.01
100
AcDbLine
 10
6056.408881756048
 20
7200.611280151481
 30
0.0
 11
6062.953037633331
 21
7200.611280151481
 31
0.0
  0
ARC
  5
27001
330
747D
100
AcDbEntity
  8
部品1
 48
0.01
100
AcDbCircle
 10
6056.408881756048
 20
7201.111280151481
 30
0.0
 40
0.5
100
AcDbArc
 50
180.0
 51
270.0
  0
ARC
  5
27002
330
747D
100
AcDbEntity
  8
部品1
100
AcDbCircle
 10
6088.408881756048
 20
7210.611280151481
 30
0.0
 40
26.0
100
AcDbArc
 50
180.0
 51
199.4712206344713
  0
ARC
  5
27003
330
747D
100
AcDbEntity
  8
部品1
 48
0.01
100
AcDbCircle
 10
6064.408881756047
 20
7215.611280151481
 30
0.0
 40
2.0
100
AcDbArc
 50
90.0
 51
180.0
  0
LINE
  5
27004
330
747D
100
AcDbEntity
  8
部品1
100
AcDbLine
 10
6062.408881756048
 20
7210.611280151481
 30
0.0
 11
6062.408881756048
 21
7215.611280151481
 31
0.0
  0
ARC
  5
27005
330
747D
100
AcDbEntity
  8
部品1
100
AcDbCircle
 10
6080.908881756048
 20
7226.41128015148
 30
0.0
 40
16.0
100
AcDbArc
 50
218.3930440192126
 51
254.0576313943716
  0
ARC
  5
27006
330
747D
100
AcDbEntity
  8
部品1
100
AcDbCircle
 10
6066.017273380859
 20
7214.611280151482
 30
0.0
 40
3.0
100
AcDbArc
 50
38.39304401921267
 51
90.0
  0
LINE
  5
27007
330
747D
100
AcDbEntity
  8
部品1
 48
0.01
100
AcDbLine
 10
6064.408881756047
 20
7217.61128015148
 30
0.0
 11
6066.017273380859
 21
7217.61128015148
 31
0.0
  0
ARC
  5
27008
330
747D
100
AcDbEntity
  8
部品1
100
AcDbCircle
 10
6080.908881756048
 20
7226.41128015148
 30
0.0
 40
16.0
100
AcDbArc
 50
285.9423686056284
 51
321.6069559807873
  0
LINE
  5
27009
330
747D
100
AcDbEntity
  8
部品1
100
AcDbLine
 10
6084.479595970319
 20
7210.91128015148
 30
0.0
 11
6077.338167541775
 21
7210.91128015148
 31
0.0
  0
ARC
  5
2700A
330
747D
100
AcDbEntity
  8
部品1
100
AcDbCircle
 10
6084.479595970319
 20
7213.91128015148
 30
0.0
 40
3.0
100
AcDbArc
 50
270.0
 51
285.9423686056284
  0
ARC
  5
2700B
330
747D
100
AcDbEntity
  8
部品1
100
AcDbCircle
 10
6077.338167541775
 20
7213.91128015148
 30
0.0
 40
3.0
100
AcDbArc
 50
254.0576313943716
 51
270.0
  0
LINE
  5
2700C
330
747D
100
AcDbEntity
  8
部品1
 48
0.01
100
AcDbLine
 10
6097.408881756048
 20
7217.61128015148
 30
0.0
 11
6095.800490131236
 21
7217.61128015148
 31
0.0
  0
ARC
  5
2700D
330
747D
100
AcDbEntity
  8
部品1
100
AcDbCircle
 10
6095.800490131236
 20
7214.611280151482
 30
0.0
 40
3.0
100
AcDbArc
 50
90.0
 51
141.6069559807873
  0
ARC
  5
2700E
330
747D
100
AcDbEntity
  8
部品1
 48
0.01
100
AcDbCircle
 10
6097.408881756048
 20
7215.611280151481
 30
0.0
 40
2.0
100
AcDbArc
 50
0.0
 51
90.0
  0
LINE
  5
2700F
330
747D
100
AcDbEntity
  8
部品1
100
AcDbLine
 10
6099.408881756048
 20
7210.611280151481
 30
0.0
 11
6099.408881756048
 21
7215.611280151481
 31
0.0
  0
ARC
  5
27010
330
747D
100
AcDbEntity
  8
部品1
100
AcDbCircle
 10
6073.408881756048
 20
7210.611280151481
 30
0.0
 40
26.0
100
AcDbArc
 50
340.5287793655287
 51
0.0
  0
ARC
  5
27011
330
747D
100
AcDbEntity
  8
部品1
100
AcDbCircle
 10
6098.864725878762
 20
7201.611280151481
 30
0.0
 40
1.0
100
AcDbArc
 50
160.5287793655287
 51
270.0
  0
LINE
  5
27012
330
747D
100
AcDbEntity
  8
部品1
 48
0.01
100
AcDbLine
 10
6105.408881756048
 20
7200.611280151481
 30
0.0
 11
6098.796376325985
 21
7200.611280151481
 31
0.0
  0
LINE
  5
27013
330
747D
100
AcDbEntity
  8
部品1
 48
0.01
100
AcDbLine
 10
6105.908881756048
 20
7202.111280151481
 30
0.0
 11
6105.908881756048
 21
7201.111280151481
 31
0.0
  0
LINE
  5
27014
330
747D
100
AcDbEntity
  8
部品1
 48
0.01
100
AcDbLine
 10
6105.908881756048
 20
7202.111280151481
 30
0.0
 11
6105.908881756048
 21
7201.111280151481
 31
0.0
  0
ARC
  5
27015
330
747D
100
AcDbEntity
  8
部品1
 48
0.01
100
AcDbCircle
 10
6105.408881756048
 20
7201.111280151481
 30
0.0
 40
0.5
100
AcDbArc
 50
270.0
 51
0.0
  0
LINE
  5
27016
330
747D
100
AcDbEntity
  8
細線
100
AcDbLine
 10
7216.408881756045
 20
7238.111280151589
 30
0.0
 11
7214.077343465278
 21
7243.111280151575
 31
0.0
  0
LINE
  5
27017
330
747D
100
AcDbEntity
  8
細線
100
AcDbLine
 10
7214.07734346528
 20
7243.111280151575
 30
0.0
 11
7148.740420046805
 21
7243.111280151565
 31
0.0
  0
LINE
  5
27018
330
747D
100
AcDbEntity
  8
細線
100
AcDbLine
 10
7146.408881756052
 20
7238.111280151608
 30
0.0
 11
7148.740420046819
 21
7243.111280151594
 31
0.0
  0
LINE
  5
27019
330
747D
100
AcDbEntity
  8
細線
100
AcDbLine
 10
7074.077343465276
 20
7243.111280151556
 30
0.0
 11
7008.740420046804
 21
7243.111280151545
 31
0.0
  0
LINE
  5
2701A
330
747D
100
AcDbEntity
  8
細線
100
AcDbLine
 10
7076.408881756044
 20
7238.11128015157
 30
0.0
 11
7074.077343465276
 21
7243.111280151556
 31
0.0
  0
LINE
  5
2701B
330
747D
100
AcDbEntity
  8
細線
100
AcDbLine
 10
7006.40888175605
 20
7238.111280151588
 30
0.0
 11
7008.740420046817
 21
7243.111280151573
 31
0.0
  0
LINE
  5
2701C
330
747D
100
AcDbEntity
  8
細線
100
AcDbLine
 10
6934.077343465279
 20
7243.111280151535
 30
0.0
 11
6868.740420046805
 21
7243.111280151525
 31
0.0
  0
LINE
  5
2701D
330
747D
100
AcDbEntity
  8
細線
100
AcDbLine
 10
6936.408881756044
 20
7238.111280151549
 30
0.0
 11
6934.077343465276
 21
7243.111280151535
 31
0.0
  0
LINE
  5
2701E
330
747D
100
AcDbEntity
  8
細線
100
AcDbLine
 10
6866.408881756055
 20
7238.111280151581
 30
0.0
 11
6868.740420046819
 21
7243.111280151554
 31
0.0
  0
LINE
  5
2701F
330
747D
100
AcDbEntity
  8
細線
100
AcDbLine
 10
7146.408881756037
 20
7238.111280151577
 30
0.0
 11
7076.408881756039
 21
7238.111280151577
 31
0.0
  0
LINE
  5
27020
330
747D
100
AcDbEntity
  8
細線
100
AcDbLine
 10
7006.408881756044
 20
7238.111280151577
 30
0.0
 11
6936.408881756033
 21
7238.111280151577
 31
0.0
  0
LINE
  5
27021
330
747D
100
AcDbEntity
  8
細線
100
AcDbLine
 10
6866.408881756055
 20
7238.111280151581
 30
0.0
 11
6796.404881756053
 21
7238.111280151582
 31
0.0
  0
LINE
  5
27022
330
747D
100
AcDbEntity
  8
細線
100
AcDbLine
 10
6704.408881756053
 20
7202.111280151505
 30
0.0
 11
6604.408881756032
 21
7202.111280151491
 31
0.0
  0
LINE
  5
27023
330
747D
100
AcDbEntity
  8
細線
100
AcDbLine
 10
7286.40888175604
 20
7238.111280151599
 30
0.0
 11
7216.408881756041
 21
7238.111280151599
 31
0.0
  0
LINE
  5
27024
330
747D
100
AcDbEntity
  8
細線
100
AcDbLine
 10
7286.408881756052
 20
7238.111280151628
 30
0.0
 11
7288.740420046821
 21
7243.111280151613
 31
0.0
  0
LINE
  5
27025
330
747D
100
AcDbEntity
  8
細線
100
AcDbLine
 10
7354.077343465281
 20
7243.111280151595
 30
0.0
 11
7288.740420046808
 21
7243.111280151585
 31
0.0
  0
LINE
  5
27026
330
747D
100
AcDbEntity
  8
細線
100
AcDbLine
 10
7356.408881756047
 20
7238.11128015161
 30
0.0
 11
7354.077343465281
 21
7243.111280151595
 31
0.0
  0
ARC
  5
27027
330
747D
100
AcDbEntity
  8
細線
100
AcDbCircle
 10
6359.408888255956
 20
7227.611280151413
 30
0.0
 40
6.0
100
AcDbArc
 50
204.6243183521779
 51
335.3756816478222
  0
LINE
  5
27028
330
747D
100
AcDbEntity
  8
細線
100
AcDbLine
 10
6704.408881756053
 20
7202.111280151432
 30
0.0
 11
6704.408881756062
 21
7232.111280151432
 31
0.0
  0
LINE
  5
27029
330
747D
100
AcDbEntity
  8
細線
100
AcDbLine
 10
6704.40888175606
 20
7232.111280151432
 30
0.0
 11
6689.408881756058
 21
7232.111280151428
 31
0.0
  0
LINE
  5
2702A
330
747D
100
AcDbEntity
  8
細線
100
AcDbLine
 10
6689.408881756057
 20
7225.111280151428
 30
0.0
 11
6689.408881756058
 21
7232.111280151428
 31
0.0
  0
LINE
  5
273BC
330
747D
100
AcDbEntity
  8
部品1
100
AcDbLine
 10
6154.89657510721
 20
10249.11128015176
 30
0.0
 11
6154.89657510721
 21
10221.11128015176
 31
0.0
  0
LINE
  5
273F8
330
747D
100
AcDbEntity
  8
部品1
 48
50.0
100
AcDbLine
 10
5931.396575107211
 20
10219.11128015175
 30
0.0
 11
5931.396575107211
 21
9769.111280151753
 31
0.0
  0
LINE
  5
273F9
330
747D
100
AcDbEntity
  8
部品1
 48
50.0
100
AcDbLine
 10
5958.39657510721
 20
10219.11128015174
 30
0.0
 11
5958.39657510721
 21
9769.111280151753
 31
0.0
  0
LINE
  5
273FA
330
747D
100
AcDbEntity
  8
部品1
 48
50.0
100
AcDbLine
 10
5932.396575107206
 20
10221.11128015176
 30
0.0
 11
5932.39657510721
 21
9769.111280151753
 31
0.0
  0
LINE
  5
273FB
330
747D
100
AcDbEntity
  8
部品1
 48
50.0
100
AcDbLine
 10
5957.39657510721
 20
10221.11128015175
 30
0.0
 11
5957.39657510721
 21
9769.111280151753
 31
0.0
  0
LINE
  5
273FC
330
747D
100
AcDbEntity
  8
部品1
100
AcDbLine
 10
5932.39657510721
 20
9769.111280151753
 30
0.0
 11
5957.39657510721
 21
9769.111280151753
 31
0.0
  0
LINE
  5
273FD
330
747D
100
AcDbEntity
  8
部品1
100
AcDbLine
 10
5909.89657510721
 20
10239.11128015175
 30
0.0
 11
5909.89657510721
 21
10221.11128015175
 31
0.0
  0
LINE
  5
273FE
330
747D
100
AcDbEntity
  8
部品1
100
AcDbLine
 10
5909.89657510721
 20
10239.11128015175
 30
0.0
 11
5915.89657510721
 21
10239.11128015175
 31
0.0
  0
LINE
  5
273FF
330
747D
100
AcDbEntity
  8
部品1
100
AcDbLine
 10
5979.89657510721
 20
10239.11128015175
 30
0.0
 11
5979.89657510721
 21
10221.11128015175
 31
0.0
  0
LINE
  5
27400
330
747D
100
AcDbEntity
  8
部品1
100
AcDbLine
 10
5973.89657510721
 20
10239.11128015175
 30
0.0
 11
5979.89657510721
 21
10239.11128015175
 31
0.0
  0
LINE
  5
27401
330
747D
100
AcDbEntity
  8
部品1
100
AcDbLine
 10
5932.39657510721
 20
10213.11128015174
 30
0.0
 11
5957.39657510721
 21
10213.11128015175
 31
0.0
  0
LINE
  5
27406
330
747D
100
AcDbEntity
  8
部品1
100
AcDbLine
 10
5734.89657510721
 20
10249.1112801518
 30
0.0
 11
5734.89657510721
 21
10221.1112801518
 31
0.0
  0
LINE
  5
275AD
330
747D
100
AcDbEntity
  8
細線
100
AcDbLine
 10
5194.384268457916
 20
7237.41128015146
 30
0.0
 11
5194.384268457916
 21
7238.111280151461
 31
0.0
  0
ARC
  5
275AE
330
747D
100
AcDbEntity
  8
細線
100
AcDbCircle
 10
5196.384268457918
 20
7237.41128015146
 30
0.0
 40
2.0
100
AcDbArc
 50
180.0
 51
270.0
  0
LINE
  5
275AF
330
747D
100
AcDbEntity
  8
細線
100
AcDbLine
 10
5198.384268457916
 20
7235.411280151459
 30
0.0
 11
5196.384268457916
 21
7235.411280151459
 31
0.0
  0
LINE
  5
275B0
330
747D
100
AcDbEntity
  8
細線
100
AcDbLine
 10
5200.384268457916
 20
7237.41128015146
 30
0.0
 11
5200.384268457916
 21
7238.111280151461
 31
0.0
  0
ARC
  5
275B1
330
747D
100
AcDbEntity
  8
細線
100
AcDbCircle
 10
5198.384268457918
 20
7237.41128015146
 30
0.0
 40
2.0
100
AcDbArc
 50
270.0
 51
0.000000000000007
  0
LINE
  5
275B2
330
747D
100
AcDbEntity
  8
細線
100
AcDbLine
 10
5200.384268457916
 20
7238.111280151461
 30
0.0
 11
5206.384268457918
 21
7238.111280151461
 31
0.0
  0
LINE
  5
275B3
330
747D
100
AcDbEntity
  8
細線
100
AcDbLine
 10
5226.384268457917
 20
7230.111280151461
 30
0.0
 11
5226.384268457917
 21
7266.111280151466
 31
0.0
  0
LINE
  5
275B4
330
747D
100
AcDbEntity
  8
細線
100
AcDbLine
 10
5206.384268457918
 20
7230.111280151461
 30
0.0
 11
5226.384268457917
 21
7230.111280151461
 31
0.0
  0
LINE
  5
275B5
330
747D
100
AcDbEntity
  8
細線
100
AcDbLine
 10
5206.384268457918
 20
7230.111280151461
 30
0.0
 11
5206.384268457918
 21
7238.111280151461
 31
0.0
  0
LINE
  5
27944
330
747D
100
AcDbEntity
  8
細線
100
AcDbLine
 10
5163.388268458032
 20
7238.111280151466
 30
0.0
 11
5194.384268457916
 21
7238.111280151466
 31
0.0
  0
LINE
  5
27945
330
747D
100
AcDbEntity
  8
細線
100
AcDbLine
 10
5093.388268457919
 20
7238.111280151699
 30
0.0
 11
5095.719806748686
 21
7243.111280151684
 31
0.0
  0
LINE
  5
27946
330
747D
100
AcDbEntity
  8
細線
100
AcDbLine
 10
5163.388268457907
 20
7238.111280151731
 30
0.0
 11
5161.056730167145
 21
7243.111280151703
 31
0.0
  0
LINE
  5
27947
330
747D
100
AcDbEntity
  8
細線
100
AcDbLine
 10
5095.719806748686
 20
7243.111280151684
 30
0.0
 11
5161.056730167158
 21
7243.111280151673
 31
0.0
  0
LINE
  5
27AEE
330
747D
100
AcDbEntity
  8
細線
100
AcDbLine
 10
6683.408881756055
 20
7230.111280151433
 30
0.0
 11
6663.408881756055
 21
7230.111280151433
 31
0.0
  0
LINE
  5
27AEF
330
747D
100
AcDbEntity
  8
細線
100
AcDbLine
 10
6663.408881756055
 20
7230.111280151433
 30
0.0
 11
6663.408881756055
 21
7266.111280151439
 31
0.0
  0
LINE
  5
27AF0
330
747D
100
AcDbEntity
  8
細線
100
AcDbLine
 10
6683.408881756055
 20
7230.111280151433
 30
0.0
 11
6683.408881756055
 21
7238.111280151433
 31
0.0
  0
LINE
  5
27AF1
330
747D
100
AcDbEntity
  8
細線
100
AcDbLine
 10
6689.408881756055
 20
7238.111280151433
 30
0.0
 11
6683.408881756055
 21
7238.111280151433
 31
0.0
  0
ARC
  5
27AF2
330
747D
100
AcDbEntity
  8
細線
100
AcDbCircle
 10
6691.408881756055
 20
7237.411280151433
 30
0.0
 40
2.0
100
AcDbArc
 50
180.0
 51
270.0
  0
LINE
  5
27AF3
330
747D
100
AcDbEntity
  8
細線
100
AcDbLine
 10
6689.408881756055
 20
7237.411280151433
 30
0.0
 11
6689.408881756055
 21
7238.111280151433
 31
0.0
  0
LINE
  5
27AF4
330
747D
100
AcDbEntity
  8
細線
100
AcDbLine
 10
6691.408881756055
 20
7235.411280151433
 30
0.0
 11
6693.408881756055
 21
7235.411280151433
 31
0.0
  0
ARC
  5
27AF5
330
747D
100
AcDbEntity
  8
細線
100
AcDbCircle
 10
6693.408881756055
 20
7237.411280151433
 30
0.0
 40
2.0
100
AcDbArc
 50
270.0
 51
0.0
  0
LINE
  5
27AF6
330
747D
100
AcDbEntity
  8
細線
100
AcDbLine
 10
6695.408881756055
 20
7237.411280151433
 30
0.0
 11
6695.408881756055
 21
7238.111280151433
 31
0.0
  0
LINE
  5
27AF7
330
747D
100
AcDbEntity
  8
細線
100
AcDbLine
 10
6678.408881756055
 20
7266.111280151434
 30
0.0
 11
6678.408881756055
 21
7260.754308749399
 31
0.0
  0
LINE
  5
27B70
330
747D
100
AcDbEntity
  8
細線
100
AcDbLine
 10
6726.404881756055
 20
7238.111280151581
 30
0.0
 11
6728.736420046819
 21
7243.111280151554
 31
0.0
  0
LINE
  5
27B71
330
747D
100
AcDbEntity
  8
細線
100
AcDbLine
 10
6796.404881756044
 20
7238.111280151549
 30
0.0
 11
6794.073343465275
 21
7243.111280151535
 31
0.0
  0
LINE
  5
27B72
330
747D
100
AcDbEntity
  8
細線
100
AcDbLine
 10
6794.073343465277
 20
7243.111280151535
 30
0.0
 11
6728.736420046804
 21
7243.111280151525
 31
0.0
  0
LINE
  5
27B73
330
747D
100
AcDbEntity
  8
細線
100
AcDbLine
 10
6726.404881756055
 20
7238.111280151581
 30
0.0
 11
6695.408881756055
 21
7238.111280151433
 31
0.0
  0
DIMENSION
  5
285A3
330
747D
100
AcDbEntity
  8
寸法
100
AcDbDimension
  2
*D11
 10
5247.396608092028
 20
6644.413708376863
 30
0.0
 11
5923.898055825319
 21
6644.413708376863
 31
0.0
 70
   160
  1
有効開口部間口\P<>
 71
     5
 42
1307.0
  3
INABA_S40G
100
AcDbAlignedDimension
 13
6554.396608092028
 23
7199.111280151559
 33
0.0
 14
5247.396608092028
 24
7199.111280151448
 34
0.0
100
AcDbRotatedDimension
1001
ACAD
1000
DSTYLE
1002
{
1002
}
  0
LINE
  5
285A4
330
747D
100
AcDbEntity
  8
寸法
 48
50.0
100
AcDbLine
 10
5627.812080714772
 20
7129.43887776497
 30
0.0
 11
5717.096299310193
 21
7153.362512034457
 31
0.0
  0
LINE
  5
285A5
330
747D
100
AcDbEntity
  8
寸法
 48
50.0
100
AcDbLine
 10
5717.096299310193
 20
7153.362512034457
 30
0.0
 11
5717.096299310193
 21
7099.698877452666
 31
0.0
  0
LINE
  5
285A6
330
747D
100
AcDbEntity
  8
寸法
 48
50.0
100
AcDbLine
 10
5846.964020890497
 20
7129.43887776497
 30
0.0
 11
5627.812080714772
 21
7129.43887776497
 31
0.0
  0
LINE
  5
285A7
330
747D
100
AcDbEntity
  8
寸法
 48
50.0
100
AcDbLine
 10
6174.164709243239
 20
7153.362512034457
 30
0.0
 11
6174.164709243239
 21
7099.698877452666
 31
0.0
  0
LINE
  5
285A8
330
747D
100
AcDbEntity
  8
寸法
 48
50.0
100
AcDbLine
 10
6263.448927838661
 20
7129.43887776497
 30
0.0
 11
6174.164709243239
 21
7153.362512034457
 31
0.0
  0
LINE
  5
285A9
330
747D
100
AcDbEntity
  8
寸法
 48
50.0
100
AcDbLine
 10
5919.927500321665
 20
7096.216921279633
 30
0.0
 11
5971.333508231769
 21
7096.216921279633
 31
0.0
  0
LINE
  5
285AA
330
747D
100
AcDbEntity
  8
寸法
 48
50.0
100
AcDbLine
 10
5971.333508231769
 20
7096.216921279633
 30
0.0
 11
5971.333508231769
 21
7127.527079931799
 31
0.0
  0
LINE
  5
285AB
330
747D
100
AcDbEntity
  8
寸法
 48
50.0
100
AcDbLine
 10
5971.333508231769
 20
7127.527079931799
 30
0.0
 11
6001.094840223192
 21
7127.527079931799
 31
0.0
  0
LINE
  5
285AC
330
747D
100
AcDbEntity
  8
寸法
 48
50.0
100
AcDbLine
 10
6001.094840223192
 20
7127.527079931799
 30
0.0
 11
5945.630504276716
 21
7165.106530860412
 31
0.0
  0
LINE
  5
285AD
330
747D
100
AcDbEntity
  8
寸法
 48
50.0
100
AcDbLine
 10
5919.927500321665
 20
7096.216921279633
 30
0.0
 11
5919.927500321665
 21
7127.527079931799
 31
0.0
  0
LINE
  5
285AE
330
747D
100
AcDbEntity
  8
寸法
 48
50.0
100
AcDbLine
 10
5971.333508231769
 20
7096.216921279633
 30
0.0
 11
5919.927500321665
 21
7096.216921279633
 31
0.0
  0
LINE
  5
285AF
330
747D
100
AcDbEntity
  8
寸法
 48
50.0
100
AcDbLine
 10
5890.166168330241
 20
7127.527079931799
 30
0.0
 11
5945.630504276716
 21
7165.106530860412
 31
0.0
  0
LINE
  5
285B0
330
747D
100
AcDbEntity
  8
寸法
 48
50.0
100
AcDbLine
 10
5919.927500321665
 20
7127.527079931799
 30
0.0
 11
5890.166168330241
 21
7127.527079931799
 31
0.0
  0
LINE
  5
285B1
330
747D
100
AcDbEntity
  8
寸法
 48
50.0
100
AcDbLine
 10
6044.296987662936
 20
7129.43887776497
 30
0.0
 11
6263.448927838661
 21
7129.43887776497
 31
0.0
  0
DIMENSION
  5
285E3
330
747D
100
AcDbEntity
  8
寸法
100
AcDbDimension
  2
*D12
 10
7469.896575106976
 20
6410.605171594619
 30
0.0
 11
5982.237605261918
 21
6410.605171594619
 31
0.0
 70
   160
 71
     5
 42
3049.999999999982
  3
INABA_S40G
100
AcDbAlignedDimension
 13
4419.896575106995
 23
7199.111280151576
 33
0.0
 14
7469.896575106976
 24
7199.111280151592
 34
0.0
100
AcDbRotatedDimension
1001
ACAD
1000
DSTYLE
1002
{
1002
}
  0
LINE
  5
291EE
330
747D
100
AcDbEntity
  8
部品1
 48
50.0
100
AcDbLine
 10
5944.896575106941
 20
9769.111280151754
 30
0.0
 11
5944.896575107015
 21
7329.611280151709
 31
0.0
  0
LINE
  5
291EF
330
747D
100
AcDbEntity
  8
破線
 48
10.0
100
AcDbLine
 10
5919.896575106977
 20
7329.611280151707
 30
0.0
 11
5919.896575106981
 21
9769.111280151694
 31
0.0
  0
LINE
  5
291F0
330
747D
100
AcDbEntity
  8
破線
 48
10.0
100
AcDbLine
 10
5969.896575106973
 20
7329.611280151709
 30
0.0
 11
5969.896575106986
 21
9769.111280151713
 31
0.0
  0
LINE
  5
291F1
330
747D
100
AcDbEntity
  8
破線
 48
10.0
100
AcDbLine
 10
6647.396575106959
 20
7329.611280151734
 30
0.0
 11
6647.396575106959
 21
9769.111280151708
 31
0.0
  0
LINE
  5
291F2
330
747D
100
AcDbEntity
  8
破線
 48
10.0
100
AcDbLine
 10
6697.396575106956
 20
7329.611280151737
 30
0.0
 11
6697.396575106961
 21
9769.111280151708
 31
0.0
  0
LINE
  5
291F3
330
747D
100
AcDbEntity
  8
破線
 48
10.0
100
AcDbLine
 10
5192.396575106959
 20
7329.61128015168
 30
0.0
 11
5192.396575106955
 21
9769.111280151633
 31
0.0
  0
LINE
  5
291F4
330
747D
100
AcDbEntity
  8
破線
 48
10.0
100
AcDbLine
 10
5242.396575106955
 20
7329.611280151683
 30
0.0
 11
5242.39657510697
 21
9769.111280151639
 31
0.0
  0
LINE
  5
291F5
330
747D
100
AcDbEntity
  8
破線
 48
10.0
100
AcDbLine
 10
5919.896575106941
 20
7353.111280151731
 30
0.0
 11
5242.396575106955
 21
7353.111280151708
 31
0.0
  0
TEXT
  5
29DF7
330
747D
100
AcDbEntity
  8
文字
 62
     7
 48
50.0
100
AcDbText
 10
13583.11819016568
 20
8720.013745883729
 30
0.0
 40
100.0
  1
アンカープレート
  7
STYLE1
100
AcDbText
  0
TEXT
  5
29DF8
330
747D
100
AcDbEntity
  8
文字
 62
     7
 48
50.0
100
AcDbText
 10
15022.63965474515
 20
8720.013745883724
 30
0.0
 40
100.0
  1
F12            2.3
  7
STYLE1
100
AcDbText
  0
LINE
  5
29DF9
330
747D
100
AcDbEntity
  8
仕様書枠
 48
50.0
100
AcDbLine
 10
16307.2
 20
10049.6
 30
0.0
 11
13127.2
 21
10049.6
 31
0.0
  0
LINE
  5
29DFA
330
747D
100
AcDbEntity
  8
仕様書枠
 48
50.0
100
AcDbLine
 10
16307.2
 20
11409.6
 30
0.0
 11
13127.2
 21
11409.6
 31
0.0
  0
LINE
  5
29DFB
330
747D
100
AcDbEntity
  8
仕様書枠
 48
50.0
100
AcDbLine
 10
16307.19999999999
 20
8349.600000000004
 30
0.0
 11
16307.2
 21
11409.6
 31
0.0
  0
LINE
  5
29DFC
330
747D
100
AcDbEntity
  8
仕様書枠
 48
50.0
100
AcDbLine
 10
14785.2
 20
11409.6
 30
0.0
 11
14785.2
 21
8689.600000000007
 31
0.0
  0
LINE
  5
29DFD
330
747D
100
AcDbEntity
  8
仕様書枠
 48
50.0
100
AcDbLine
 10
13490.2
 20
11409.6
 30
0.0
 11
13490.20000000001
 21
8689.600000000005
 31
0.0
  0
LINE
  5
29DFE
330
747D
100
AcDbEntity
  8
仕様書枠
 48
50.0
100
AcDbLine
 10
16307.2
 20
11239.6
 30
0.0
 11
13127.2
 21
11239.6
 31
0.0
  0
LINE
  5
29DFF
330
747D
100
AcDbEntity
  8
仕様書枠
 48
50.0
100
AcDbLine
 10
16307.2
 20
10899.6
 30
0.0
 11
13127.2
 21
10899.6
 31
0.0
  0
LINE
  5
29E00
330
747D
100
AcDbEntity
  8
仕様書枠
 48
50.0
100
AcDbLine
 10
16307.2
 20
11069.6
 30
0.0
 11
13127.2
 21
11069.6
 31
0.0
  0
LINE
  5
29E01
330
747D
100
AcDbEntity
  8
仕様書枠
 48
50.0
100
AcDbLine
 10
16307.19999999999
 20
10559.6
 30
0.0
 11
13127.2
 21
10559.6
 31
0.0
  0
LINE
  5
29E02
330
747D
100
AcDbEntity
  8
仕様書枠
 48
50.0
100
AcDbLine
 10
16307.19999999999
 20
10389.6
 30
0.0
 11
13127.2
 21
10389.6
 31
0.0
  0
LINE
  5
29E03
330
747D
100
AcDbEntity
  8
仕様書枠
 48
50.0
100
AcDbLine
 10
16307.19999999999
 20
10729.6
 30
0.0
 11
13127.2
 21
10729.6
 31
0.0
  0
TEXT
  5
29E04
330
747D
100
AcDbEntity
  8
文字
 62
     7
 48
50.0
100
AcDbText
 10
13197.42518560407
 20
11270.01374588373
 30
0.0
 40
100.0
  1
品番
  7
STYLE1
100
AcDbText
  0
TEXT
  5
29E05
330
747D
100
AcDbEntity
  8
文字
 62
     7
 48
50.0
100
AcDbText
 10
13271.19032244792
 20
11100.01374588373
 30
0.0
 40
100.0
  1
1
  7
STYLE1
100
AcDbText
  0
TEXT
  5
29E06
330
747D
100
AcDbEntity
  8
文字
 62
     7
 48
50.0
100
AcDbText
 10
13271.19032244792
 20
10930.01374588373
 30
0.0
 40
100.0
  1
2
  7
STYLE1
100
AcDbText
  0
TEXT
  5
29E07
330
747D
100
AcDbEntity
  8
文字
 62
     7
 48
50.0
100
AcDbText
 10
13271.19032244792
 20
10590.01374588373
 30
0.0
 40
100.0
  1
4
  7
STYLE1
100
AcDbText
  0
TEXT
  5
29E08
330
747D
100
AcDbEntity
  8
文字
 62
     7
 48
50.0
100
AcDbText
 10
13271.19032244792
 20
10760.01374588373
 30
0.0
 40
100.0
  1
3
  7
STYLE1
100
AcDbText
  0
TEXT
  5
29E09
330
747D
100
AcDbEntity
  8
文字
 62
     7
 48
50.0
100
AcDbText
 10
13732.03840939434
 20
11270.01374588373
 30
0.0
 40
100.0
  1
部　　品　　名
  7
STYLE1
100
AcDbText
  0
TEXT
  5
29E0A
330
747D
100
AcDbEntity
  8
文字
 62
     7
 48
50.0
100
AcDbText
 10
14859.79774614482
 20
11270.01374588373
 30
0.0
 40
100.0
  1
材料（材質）　　単位mm
  7
STYLE1
100
AcDbText
  0
TEXT
  5
29E0B
330
747D
100
AcDbEntity
  8
文字
 62
     7
 48
50.0
100
AcDbText
 10
13583.11819016569
 20
11100.01374588373
 30
0.0
 40
100.0
  1
土台枠
  7
STYLE1
100
AcDbText
  0
TEXT
  5
29E0C
330
747D
100
AcDbEntity
  8
文字
 62
     7
 48
50.0
100
AcDbText
 10
13583.1181901657
 20
10760.01374588373
 30
0.0
 40
100.0
  1
柱
  7
STYLE1
100
AcDbText
  0
TEXT
  5
29E0D
330
747D
100
AcDbEntity
  8
文字
 62
     7
 48
50.0
100
AcDbText
 10
13583.1181901657
 20
10420.01374588373
 30
0.0
 40
100.0
  1
鴨居
  7
STYLE1
100
AcDbText
  0
TEXT
  5
29E0E
330
747D
100
AcDbEntity
  8
文字
 62
     7
 48
50.0
100
AcDbText
 10
13583.1181901657
 20
10250.01374588373
 30
0.0
 40
100.0
  1
桁後
  7
STYLE1
100
AcDbText
  0
TEXT
  5
29E0F
330
747D
100
AcDbEntity
  8
文字
 62
     7
 48
50.0
100
AcDbText
 10
13271.19032244792
 20
10420.01374588373
 30
0.0
 40
100.0
  1
5
  7
STYLE1
100
AcDbText
  0
TEXT
  5
29E10
330
747D
100
AcDbEntity
  8
文字
 62
     7
 48
50.0
100
AcDbText
 10
13583.1181901657
 20
10080.01374588373
 30
0.0
 40
100.0
  1
妻板左右
  7
STYLE1
100
AcDbText
  0
TEXT
  5
29E11
330
747D
100
AcDbEntity
  8
文字
 62
     7
 48
50.0
100
AcDbText
 10
13248.77747366447
 20
9570.013745883729
 30
0.0
 40
100.0
  1
10
  7
STYLE1
100
AcDbText
  0
TEXT
  5
29E12
330
747D
100
AcDbEntity
  8
文字
 62
     7
 48
50.0
100
AcDbText
 10
13583.11819016568
 20
9400.013745883731
 30
0.0
 40
100.0
  1
壁パネル
  7
STYLE1
100
AcDbText
  0
TEXT
  5
29E13
330
747D
100
AcDbEntity
  8
文字
 62
     7
 48
50.0
100
AcDbText
 10
13583.11819016569
 20
9740.013745883729
 30
0.0
 40
100.0
  1
屋根パネル
  7
STYLE1
100
AcDbText
  0
TEXT
  5
29E14
330
747D
100
AcDbEntity
  8
文字
 62
     7
 48
50.0
100
AcDbText
 10
13583.1181901657
 20
9910.01374588373
 30
0.0
 40
100.0
  1
鼻隠シ前後
  7
STYLE1
100
AcDbText
  0
TEXT
  5
29E15
330
747D
100
AcDbEntity
  8
文字
 62
     7
 48
50.0
100
AcDbText
 10
13271.19032244792
 20
9910.01374588373
 30
0.0
 40
100.0
  1
8
  7
STYLE1
100
AcDbText
  0
TEXT
  5
29E16
330
747D
100
AcDbEntity
  8
文字
 62
     7
 48
50.0
100
AcDbText
 10
13271.19032244792
 20
9740.013745883731
 30
0.0
 40
100.0
  1
9
  7
STYLE1
100
AcDbText
  0
TEXT
  5
29E17
330
747D
100
AcDbEntity
  8
文字
 62
     7
 48
50.0
100
AcDbText
 10
13271.19032244792
 20
10080.01374588373
 30
0.0
 40
100.0
  1
7
  7
STYLE1
100
AcDbText
  0
TEXT
  5
29E18
330
747D
100
AcDbEntity
  8
文字
 62
     7
 48
50.0
100
AcDbText
 10
13271.19032244792
 20
10250.01374588373
 30
0.0
 40
100.0
  1
6
  7
STYLE1
100
AcDbText
  0
LINE
  5
29E19
330
747D
100
AcDbEntity
  8
仕様書枠
 48
50.0
100
AcDbLine
 10
16307.19999999999
 20
9709.600000000001
 30
0.0
 11
13127.2
 21
9709.600000000001
 31
0.0
  0
LINE
  5
29E1A
330
747D
100
AcDbEntity
  8
仕様書枠
 48
50.0
100
AcDbLine
 10
16307.19999999999
 20
9369.600000000001
 30
0.0
 11
13127.2
 21
9369.600000000003
 31
0.0
  0
LINE
  5
29E1B
330
747D
100
AcDbEntity
  8
仕様書枠
 48
50.0
100
AcDbLine
 10
16307.19999999999
 20
9539.6
 30
0.0
 11
13127.2
 21
9539.600000000003
 31
0.0
  0
LINE
  5
29E1C
330
747D
100
AcDbEntity
  8
仕様書枠
 48
50.0
100
AcDbLine
 10
16307.2
 20
10219.6
 30
0.0
 11
13127.2
 21
10219.6
 31
0.0
  0
LINE
  5
29E1D
330
747D
100
AcDbEntity
  8
仕様書枠
 48
50.0
100
AcDbLine
 10
16307.2
 20
9879.600000000001
 30
0.0
 11
13127.2
 21
9879.600000000003
 31
0.0
  0
TEXT
  5
29E1E
330
747D
100
AcDbEntity
  8
文字
 62
     7
 48
50.0
100
AcDbText
 10
13248.77747366447
 20
9400.013745883729
 30
0.0
 40
100.0
  1
11
  7
STYLE1
100
AcDbText
  0
LINE
  5
29E1F
330
747D
100
AcDbEntity
  8
仕様書枠
 48
50.0
100
AcDbLine
 10
16307.19999999999
 20
9199.600000000001
 30
0.0
 11
13127.2
 21
9199.600000000001
 31
0.0
  0
LINE
  5
29E20
330
747D
100
AcDbEntity
  8
仕様書枠
 48
50.0
100
AcDbLine
 10
16307.19999999999
 20
8859.600000000002
 30
0.0
 11
13127.2
 21
8859.600000000005
 31
0.0
  0
TEXT
  5
29E21
330
747D
100
AcDbEntity
  8
文字
 62
     7
 48
50.0
100
AcDbText
 10
13248.77747366447
 20
9060.013745883731
 30
0.0
 40
100.0
  1
13
  7
STYLE1
100
AcDbText
  0
TEXT
  5
29E22
330
747D
100
AcDbEntity
  8
文字
 62
     7
 48
50.0
100
AcDbText
 10
13248.77747366447
 20
9230.013745883731
 30
0.0
 40
100.0
  1
12
  7
STYLE1
100
AcDbText
  0
TEXT
  5
29E23
330
747D
100
AcDbEntity
  8
文字
 62
     7
 48
50.0
100
AcDbText
 10
15022.63965474517
 20
11100.01374588373
 30
0.0
 40
100.0
  1
F12            1.2
  7
STYLE1
100
AcDbText
  0
TEXT
  5
29E24
330
747D
100
AcDbEntity
  8
文字
 62
     7
 48
50.0
100
AcDbText
 10
15022.63965474518
 20
10760.01374588372
 30
0.0
 40
100.0
  1
F12            1.0
  7
STYLE1
100
AcDbText
  0
TEXT
  5
29E25
330
747D
100
AcDbEntity
  8
文字
 62
     7
 48
50.0
100
AcDbText
 10
15022.63965474517
 20
10420.01374588372
 30
0.0
 40
100.0
  1
Y10            1.0
  7
STYLE1
100
AcDbText
  0
TEXT
  5
29E26
330
747D
100
AcDbEntity
  8
文字
 62
     7
 48
50.0
100
AcDbText
 10
15022.63965474517
 20
10250.01374588373
 30
0.0
 40
100.0
  1
Y10            1.0
  7
STYLE1
100
AcDbText
  0
TEXT
  5
29E27
330
747D
100
AcDbEntity
  8
文字
 62
     7
 48
50.0
100
AcDbText
 10
15022.63965474517
 20
10080.01374588372
 30
0.0
 40
100.0
  1
Y10            0.7
  7
STYLE1
100
AcDbText
  0
TEXT
  5
29E28
330
747D
100
AcDbEntity
  8
文字
 62
     7
 48
50.0
100
AcDbText
 10
15022.63965474517
 20
9910.013745883727
 30
0.0
 40
100.0
  1
Y10            0.7
  7
STYLE1
100
AcDbText
  0
TEXT
  5
29E29
330
747D
100
AcDbEntity
  8
文字
 62
     7
 48
50.0
100
AcDbText
 10
15022.63965474517
 20
9740.013745883729
 30
0.0
 40
100.0
  1
Y10            0.5
  7
STYLE1
100
AcDbText
  0
TEXT
  5
29E2A
330
747D
100
AcDbEntity
  8
文字
 62
     7
 48
50.0
100
AcDbText
 10
15022.63965474515
 20
9400.013745883727
 30
0.0
 40
100.0
  1
F12            0.6
  7
STYLE1
100
AcDbText
  0
LINE
  5
29E2B
330
747D
100
AcDbEntity
  8
仕様書枠
 48
50.0
100
AcDbLine
 10
16307.19999999998
 20
8689.600000000003
 30
0.0
 11
13127.19999999999
 21
8689.600000000005
 31
0.0
  0
LINE
  5
29E2C
330
747D
100
AcDbEntity
  8
仕様書枠
 48
50.0
100
AcDbLine
 10
16307.19999999998
 20
8519.600000000004
 30
0.0
 11
13127.19999999999
 21
8519.600000000005
 31
0.0
  0
TEXT
  5
29E2D
330
747D
100
AcDbEntity
  8
文字
 62
     7
 48
50.0
100
AcDbText
 10
13229.83081656553
 20
8550.013745883733
 30
0.0
 40
100.0
  1
F12→溶融亜鉛めっき鋼板(JIS G 3302)
  7
STYLE1
100
AcDbText
  0
TEXT
  5
29E2E
330
747D
100
AcDbEntity
  8
文字
 62
     7
 48
50.0
100
AcDbText
 10
13229.83081656553
 20
8380.013745883733
 30
0.0
 40
100.0
  1
Y10→溶融亜鉛-5％アルミニウム合金めっき鋼板(JIS G 3317)
 41
0.9
  7
STYLE1
100
AcDbText
  0
LINE
  5
29E2F
330
747D
100
AcDbEntity
  8
仕様書枠
 48
50.0
100
AcDbLine
 10
13127.2
 20
11409.6
 30
0.0
 11
13127.19999999999
 21
8349.600000000004
 31
0.0
  0
LINE
  5
29E30
330
747D
100
AcDbEntity
  8
仕様書枠
 48
50.0
100
AcDbLine
 10
16307.19999999999
 20
9029.600000000002
 30
0.0
 11
13127.2
 21
9029.600000000003
 31
0.0
  0
TEXT
  5
29E31
330
747D
100
AcDbEntity
  8
文字
 62
     7
 48
50.0
100
AcDbText
 10
13583.1181901657
 20
10590.01374588373
 30
0.0
 40
100.0
  1
床パネル
 41
0.9
  7
STYLE1
100
AcDbText
  0
TEXT
  5
29E32
330
747D
100
AcDbEntity
  8
文字
 62
     7
 48
50.0
100
AcDbText
 10
13583.11819016569
 20
10930.01374588373
 30
0.0
 40
100.0
  1
根太
  7
STYLE1
100
AcDbText
  0
TEXT
  5
29E33
330
747D
100
AcDbEntity
  8
文字
 62
     7
 48
50.0
100
AcDbText
 10
13248.77747366447
 20
8890.013745883731
 30
0.0
 40
100.0
  1
14
  7
STYLE1
100
AcDbText
  0
TEXT
  5
29E34
330
747D
100
AcDbEntity
  8
文字
 62
     7
 48
50.0
100
AcDbText
 10
15022.63965474516
 20
10930.01374588372
 30
0.0
 40
100.0
  1
F12            1.2
  7
STYLE1
100
AcDbText
  0
TEXT
  5
29E35
330
747D
100
AcDbEntity
  8
文字
 62
     7
 48
50.0
100
AcDbText
 10
15022.63965474517
 20
10590.01374588373
 30
0.0
 40
100.0
  1
F12            1.0
  7
STYLE1
100
AcDbText
  0
TEXT
  5
29E36
330
747D
100
AcDbEntity
  8
文字
 62
     7
 48
50.0
100
AcDbText
 10
15022.63965474515
 20
9230.013745883727
 30
0.0
 40
100.0
  1
F12            0.7
  7
STYLE1
100
AcDbText
  0
TEXT
  5
29E37
330
747D
100
AcDbEntity
  8
文字
 62
     7
 48
50.0
100
AcDbText
 10
13583.11819016568
 20
9230.013745883731
 30
0.0
 40
100.0
  1
正面パネル
  7
STYLE1
100
AcDbText
  0
TEXT
  5
29E38
330
747D
100
AcDbEntity
  8
文字
 62
     7
 48
50.0
100
AcDbText
 10
15022.63965474515
 20
9060.013745883727
 30
0.0
 40
100.0
  1
F12            0.8
  7
STYLE1
100
AcDbText
  0
TEXT
  5
29E39
330
747D
100
AcDbEntity
  8
文字
 62
     7
 48
50.0
100
AcDbText
 10
13583.11819016568
 20
9060.013745883731
 30
0.0
 40
100.0
  1
扉
  7
STYLE1
100
AcDbText
  0
TEXT
  5
29E3A
330
747D
100
AcDbEntity
  8
文字
 62
     7
 48
50.0
100
AcDbText
 10
15022.63965474515
 20
8890.013745883729
 30
0.0
 40
100.0
  1
F12            0.6
  7
STYLE1
100
AcDbText
  0
TEXT
  5
29E3B
330
747D
100
AcDbEntity
  8
文字
 62
     7
 48
50.0
100
AcDbText
 10
13583.11819016568
 20
8890.013745883733
 30
0.0
 40
100.0
  1
棚板
  7
STYLE1
100
AcDbText
  0
LINE
  5
29E3C
330
747D
100
AcDbEntity
  8
仕様書枠
 48
50.0
100
AcDbLine
 10
16307.19999999998
 20
8349.600000000004
 30
0.0
 11
13127.19999999999
 21
8349.600000000007
 31
0.0
  0
TEXT
  5
29E3D
330
747D
100
AcDbEntity
  8
文字
 62
     7
 48
50.0
100
AcDbText
 10
13248.77747366447
 20
8720.013745883733
 30
0.0
 40
100.0
  1
15
  7
STYLE1
100
AcDbText
  0
TEXT
  5
29E3E
330
747D
100
AcDbEntity
  8
文字
 62
     7
 48
50.0
100
AcDbText
 10
13583.11819016569
 20
9570.013745883729
 30
0.0
 40
100.0
  1
母屋中
  7
STYLE1
100
AcDbText
  0
TEXT
  5
29E3F
330
747D
100
AcDbEntity
  8
文字
 62
     7
 48
50.0
100
AcDbText
 10
14838.16434031116
 20
9570.013745883727
 30
0.0
 40
100.0
  1
F12　1.0(多雪地型2.3+1.6)
  7
STYLE1
100
AcDbText
  0
TEXT
  5
29E55
330
747D
100
AcDbEntity
  8
文字
 62
     7
 48
50.0
100
AcDbText
 10
14628.21769513769
 20
860.2518238537575
 30
0.0
 40
100.0
  1
～一般型・多雪地型～
  7
STYLE2
100
AcDbText
  0
LINE
  5
29EF5
330
747D
100
AcDbEntity
  8
部品1
100
AcDbLine
 10
7441.896575107024
 20
7674.111280151618
 30
0.0
 11
7469.896575107025
 21
7674.111280151618
 31
0.0
  0
LINE
  5
29EF6
330
747D
100
AcDbEntity
  8
部品1
100
AcDbLine
 10
4447.896575106999
 20
7674.111280151606
 30
0.0
 11
4419.896575106998
 21
7674.111280151606
 31
0.0
  0
LINE
  5
29EF7
330
747D
100
AcDbEntity
  8
部品1
100
AcDbLine
 10
7413.396575107011
 20
7674.111280151589
 30
0.0
 11
4476.39657510701
 21
7674.11128015149
 31
0.0
  0
LINE
  5
2AFD1
330
747D
100
AcDbEntity
  8
部品1
100
AcDbLine
 10
7413.396575107059
 20
8094.11128015162
 30
0.0
 11
4476.396575107059
 21
8094.111280151519
 31
0.0
  0
LINE
  5
2AFD2
330
747D
100
AcDbEntity
  8
部品1
100
AcDbLine
 10
4447.89657510705
 20
8094.111280151635
 30
0.0
 11
4419.89657510705
 21
8094.111280151635
 31
0.0
  0
LINE
  5
2AFD3
330
747D
100
AcDbEntity
  8
部品1
100
AcDbLine
 10
7441.896575107076
 20
8094.111280151647
 30
0.0
 11
7469.896575107076
 21
8094.111280151647
 31
0.0
  0
LINE
  5
2BC92
330
747D
100
AcDbEntity
  8
部品1
100
AcDbLine
 10
7441.896575107122
 20
8514.111280151675
 30
0.0
 11
7469.896575107123
 21
8514.111280151675
 31
0.0
  0
LINE
  5
2BC93
330
747D
100
AcDbEntity
  8
部品1
100
AcDbLine
 10
4447.896575107097
 20
8514.111280151665
 30
0.0
 11
4419.896575107097
 21
8514.111280151665
 31
0.0
  0
LINE
  5
2BC94
330
747D
100
AcDbEntity
  8
部品1
100
AcDbLine
 10
7413.396575107109
 20
8514.111280151649
 30
0.0
 11
4476.396575107108
 21
8514.111280151549
 31
0.0
  0
DIMENSION
  5
2CA12
330
747D
100
AcDbEntity
  8
寸法
100
AcDbDimension
  2
*D13
 10
9009.819803775178
 20
2293.834065208105
 30
0.0
 11
8909.819803775178
 21
3178.834065208107
 31
0.0
 70
    32
  1
有効開口部高サ<>
 71
     5
 42
1770.0
  3
INABA_S40G
100
AcDbAlignedDimension
 13
9554.728445172433
 23
4063.834065208105
 33
0.0
 14
9554.728445172434
 24
2293.834065208105
 34
0.0
 50
90.0
100
AcDbRotatedDimension
1001
ACAD
1000
DSTYLE
1002
{
1070
   174
1070
     0
1070
   272
1070
     1
1070
   288
1070
     0
1070
   341
1005
0
1002
}
  0
DIMENSION
  5
2CA13
330
747D
100
AcDbEntity
  8
寸法
100
AcDbDimension
  2
*D14
 10
8710.978315989175
 20
2281.834065208105
 30
0.0
 11
8610.978315989175
 21
3176.834065208108
 31
0.0
 70
    32
 71
     5
 42
1790.000000000001
  3
INABA_S40G
100
AcDbAlignedDimension
 13
9554.728445172434
 23
4071.834065208106
 33
0.0
 14
9554.728445172434
 24
2281.834065208105
 34
0.0
 50
90.0
100
AcDbRotatedDimension
1001
ACAD
1000
DSTYLE
1002
{
1070
   174
1070
     0
1070
   272
1070
     1
1070
   288
1070
     0
1070
   341
1005
0
1002
}
  0
DIMENSION
  5
2CA14
330
747D
100
AcDbEntity
  8
寸法
100
AcDbDimension
  2
*D15
 10
8410.978315989174
 20
4306.83406520811
 30
0.0
 11
8310.96650496555
 21
3269.334065208109
 31
0.0
 70
    32
 71
     5
 42
2075.000000000004
  3
INABA_S40G
100
AcDbAlignedDimension
 13
9554.728445172434
 23
2231.834065208105
 33
0.0
 14
9494.728445172434
 24
4306.83406520811
 34
0.0
 50
90.0
100
AcDbRotatedDimension
1001
ACAD
1000
DSTYLE
1002
{
1070
   174
1070
     0
1070
   272
1070
     1
1070
   288
1070
     0
1070
   341
1005
0
1002
}
  0
DIMENSION
  5
2CA15
330
747D
100
AcDbEntity
  8
寸法
100
AcDbDimension
  2
*D16
 10
13309.65560314456
 20
4251.834065208111
 30
0.0
 11
13209.64379212094
 21
3241.834065208113
 31
0.0
 70
    32
 71
     5
 42
2020.0
  3
INABA_S40G
100
AcDbAlignedDimension
 13
12604.72844517243
 23
2231.834065208112
 33
0.0
 14
12684.72844517243
 24
4251.834065208111
 34
0.0
 50
90.0
100
AcDbRotatedDimension
1001
ACAD
1000
DSTYLE
1002
{
1070
   174
1070
     0
1070
   272
1070
     1
1070
   288
1070
     0
1070
   341
1005
0
1002
}
  0
LINE
  5
2CA1A
330
747D
100
AcDbEntity
  8
細線
 48
50.0
100
AcDbLine
 10
11632.22844517243
 20
4071.834065208109
 30
0.0
 11
11632.22844517243
 21
2281.834065208112
 31
0.0
  0
LINE
  5
2CA1B
330
747D
100
AcDbEntity
  8
細線
 48
50.0
100
AcDbLine
 10
11647.22844517243
 20
4071.834065208109
 30
0.0
 11
11647.22844517243
 21
2281.834065208112
 31
0.0
  0
LINE
  5
2CA1C
330
747D
100
AcDbEntity
  8
細線
 48
50.0
100
AcDbLine
 10
11507.22844517243
 20
4071.834065208109
 30
0.0
 11
11507.22844517243
 21
2281.834065208112
 31
0.0
  0
LINE
  5
2CA1D
330
747D
100
AcDbEntity
  8
細線
 48
50.0
100
AcDbLine
 10
11492.22844517243
 20
4071.834065208109
 30
0.0
 11
11492.22844517244
 21
2281.834065208112
 31
0.0
  0
LINE
  5
2CA1E
330
747D
100
AcDbEntity
  8
細線
 48
50.0
100
AcDbLine
 10
11352.22844517243
 20
4071.834065208109
 30
0.0
 11
11352.22844517244
 21
2281.834065208112
 31
0.0
  0
LINE
  5
2CA1F
330
747D
100
AcDbEntity
  8
細線
 48
50.0
100
AcDbLine
 10
11367.22844517243
 20
4071.834065208109
 30
0.0
 11
11367.22844517243
 21
2281.834065208112
 31
0.0
  0
LINE
  5
2CA20
330
747D
100
AcDbEntity
  8
部品1
100
AcDbLine
 10
11289.72844517243
 20
4071.834065208109
 30
0.0
 11
11289.72844517243
 21
2281.834065208112
 31
0.0
  0
LINE
  5
2CA21
330
747D
100
AcDbEntity
  8
部品1
100
AcDbLine
 10
10933.24171769594
 20
4432.038453171127
 30
0.0
 11
11258.69673133898
 21
4414.520394212266
 31
0.0
  0
ARC
  5
2CA22
330
747D
100
AcDbEntity
  8
部品1
100
AcDbCircle
 10
12670.35598098637
 20
4145.857822473902
 30
0.0
 40
0.7
100
AcDbArc
 50
275.0921697642102
 51
354.1866997667087
  0
ARC
  5
2CA23
330
747D
100
AcDbEntity
  8
部品1
100
AcDbCircle
 10
12681.21532673569
 20
4222.901077291826
 30
0.0
 40
0.7
100
AcDbArc
 50
275.0921697642102
 51
354.1866997665532
  0
ARC
  5
2CA24
330
747D
100
AcDbEntity
  8
部品1
100
AcDbCircle
 10
12681.54373197829
 20
4219.215680434737
 30
0.0
 40
3.0
100
AcDbArc
 50
95.0921697642102
 51
174.1866997665532
  0
ARC
  5
2CA25
330
747D
100
AcDbEntity
  8
部品1
100
AcDbCircle
 10
12670.68438622897
 20
4142.172425616812
 30
0.0
 40
3.0
100
AcDbArc
 50
95.0921697642102
 51
174.1866997665532
  0
ARC
  5
2CA26
330
747D
100
AcDbEntity
  8
部品1
 48
50.0
100
AcDbCircle
 10
12659.65625095387
 20
4132.581681012931
 30
0.0
 40
7.0
100
AcDbArc
 50
267.8377559869488
 51
354.1866997665532
  0
ARC
  5
2CA27
330
747D
100
AcDbEntity
  8
部品1
 48
50.0
100
AcDbCircle
 10
12676.97834741838
 20
4243.484228155103
 30
0.0
 40
7.0
100
AcDbArc
 50
354.1866997665532
 51
87.03587545283093
  0
LINE
  5
2CA28
330
747D
100
AcDbEntity
  8
部品1
 48
50.0
100
AcDbLine
 10
12667.69981455836
 20
4142.476287333716
 30
0.0
 11
12666.62025151862
 21
4131.872670340157
 31
0.0
  0
LINE
  5
2CA29
330
747D
100
AcDbEntity
  8
部品1
 48
50.0
100
AcDbLine
 10
12678.55916030768
 20
4219.51954215164
 30
0.0
 11
12671.05238104285
 21
4145.786921406627
 31
0.0
  0
LINE
  5
2CA2A
330
747D
100
AcDbEntity
  8
部品1
 48
50.0
100
AcDbLine
 10
12683.94234798314
 20
4242.775217482328
 30
0.0
 11
12681.91172679217
 21
4222.830176224549
 31
0.0
  0
ARC
  5
2CA2B
330
747D
100
AcDbEntity
  8
部品1
100
AcDbCircle
 10
9500.7655370438
 20
4185.648224167013
 30
0.0
 40
0.7
100
AcDbArc
 50
181.0932240292635
 51
260.1877540314855
  0
ARC
  5
2CA2C
330
747D
100
AcDbEntity
  8
部品1
100
AcDbCircle
 10
9495.99286344619
 20
4278.514002367133
 30
0.0
 40
0.7
100
AcDbArc
 50
181.0932240292114
 51
260.1877540314855
  0
ARC
  5
2CA2D
330
747D
100
AcDbEntity
  8
部品1
100
AcDbCircle
 10
9495.362309043169
 20
4274.868127829735
 30
0.0
 40
3.0
100
AcDbArc
 50
1.093224029315636
 51
80.18775403169708
  0
ARC
  5
2CA2E
330
747D
100
AcDbEntity
  8
部品1
100
AcDbCircle
 10
9500.134982640775
 20
4182.002349629616
 30
0.0
 40
3.0
100
AcDbArc
 50
1.093224029315636
 51
80.18775403169708
  0
ARC
  5
2CA2F
330
747D
100
AcDbEntity
  8
部品1
 48
50.0
100
AcDbCircle
 10
9510.335115015976
 20
4171.610106247135
 30
0.0
 40
7.0
100
AcDbArc
 50
181.0932240293156
 51
267.8377559869488
  0
ARC
  5
2CA30
330
747D
100
AcDbEntity
  8
部品1
 48
50.0
100
AcDbCircle
 10
9501.91145691388
 20
4298.56116578023
 30
0.0
 40
7.0
100
AcDbArc
 50
87.03587545283093
 51
181.0932240293156
  0
LINE
  5
2CA31
330
747D
100
AcDbEntity
  8
部品1
 48
50.0
100
AcDbLine
 10
9503.134436567206
 20
4182.059587232799
 30
0.0
 11
9503.336389187635
 21
4171.476551839707
 31
0.0
  0
LINE
  5
2CA32
330
747D
100
AcDbEntity
  8
細線
 48
50.0
100
AcDbLine
 10
9500.528343510534
 20
4184.989635351608
 30
0.0
 11
12670.53200794117
 21
4145.180316377114
 31
0.0
  0
LINE
  5
2CA33
330
747D
100
AcDbEntity
  8
細線
 48
50.0
100
AcDbLine
 10
9495.767868273247
 20
4277.851147049471
 30
0.0
 11
12681.40385301842
 21
4222.226942408643
 31
0.0
  0
LINE
  5
2CA34
330
747D
100
AcDbEntity
  8
部品1
 48
50.0
100
AcDbLine
 10
9498.361762969599
 20
4274.925365432919
 30
0.0
 11
9500.065664460963
 21
4185.634868726271
 31
0.0
  0
LINE
  5
2CA35
330
747D
100
AcDbEntity
  8
部品1
 48
50.0
100
AcDbLine
 10
9494.912731085539
 20
4298.427611372803
 30
0.0
 11
9495.292990863353
 21
4278.500646926391
 31
0.0
  0
LINE
  5
2CA36
330
747D
100
AcDbEntity
  8
細線
 48
50.0
100
AcDbLine
 10
12651.69772836612
 20
4250.987487687579
 30
0.0
 11
12646.98076228444
 21
4126.055271752663
 31
0.0
  0
LINE
  5
2CA37
330
747D
100
AcDbEntity
  8
細線
 48
50.0
100
AcDbLine
 10
9527.728445172433
 20
4304.233741583515
 30
0.0
 11
9522.439343616927
 21
4164.14810895616
 31
0.0
  0
LINE
  5
2CA38
330
747D
100
AcDbEntity
  8
部品1
100
AcDbLine
 10
9510.071009774387
 20
4164.615090277076
 30
0.0
 11
12659.39214571228
 21
4125.586665042871
 31
0.0
  0
LINE
  5
2CA39
330
747D
100
AcDbEntity
  8
部品1
100
AcDbLine
 10
9502.273431529395
 20
4305.551800542376
 30
0.0
 11
12677.3403220339
 21
4250.474862917249
 31
0.0
  0
LINE
  5
2CA3A
330
747D
100
AcDbEntity
  8
部品1
 48
50.0
100
AcDbLine
 10
10958.69673133898
 20
4430.720394212266
 30
0.0
 11
11258.69673133898
 21
4430.720394212266
 31
0.0
  0
LINE
  5
2CA3B
330
747D
100
AcDbEntity
  8
部品1
 48
50.0
100
AcDbLine
 10
11258.69673133898
 20
4430.720394212266
 30
0.0
 11
11258.69673133898
 21
4414.520394212266
 31
0.0
  0
TEXT
  5
2CA3C
330
747D
100
AcDbEntity
  8
部品1
 48
50.0
100
AcDbText
 10
10946.96456656271
 20
4466.604416364699
 30
0.0
 40
120.0
  1
1000
  7
STYLE1
100
AcDbText
  0
TEXT
  5
2CA3D
330
747D
100
AcDbEntity
  8
部品1
 48
50.0
100
AcDbText
 10
11424.5975892278
 20
4329.103158146416
 30
0.0
 40
120.0
  1
32
 50
90.0
  7
STYLE1
100
AcDbText
  0
LINE
  5
2CA3E
330
747D
100
AcDbEntity
  8
細線
 48
50.0
100
AcDbLine
 10
10947.22844517243
 20
4071.834065208109
 30
0.0
 11
10947.22844517243
 21
2281.83406520811
 31
0.0
  0
LINE
  5
2CA3F
330
747D
100
AcDbEntity
  8
細線
 48
50.0
100
AcDbLine
 10
10932.22844517243
 20
4071.834065208109
 30
0.0
 11
10932.22844517244
 21
2281.83406520811
 31
0.0
  0
LINE
  5
2CA40
330
747D
100
AcDbEntity
  8
細線
 48
50.0
100
AcDbLine
 10
11072.22844517243
 20
4071.834065208109
 30
0.0
 11
11072.22844517244
 21
2281.83406520811
 31
0.0
  0
LINE
  5
2CA41
330
747D
100
AcDbEntity
  8
細線
 48
50.0
100
AcDbLine
 10
11087.22844517243
 20
4071.834065208109
 30
0.0
 11
11087.22844517243
 21
2281.83406520811
 31
0.0
  0
LINE
  5
2CA42
330
747D
100
AcDbEntity
  8
細線
 48
50.0
100
AcDbLine
 10
11227.22844517243
 20
4071.834065208109
 30
0.0
 11
11227.22844517243
 21
2281.83406520811
 31
0.0
  0
LINE
  5
2CA43
330
747D
100
AcDbEntity
  8
細線
 48
50.0
100
AcDbLine
 10
11212.22844517243
 20
4071.834065208109
 30
0.0
 11
11212.22844517244
 21
2281.83406520811
 31
0.0
  0
LINE
  5
2CA44
330
747D
100
AcDbEntity
  8
部品1
100
AcDbLine
 10
12549.72844517242
 20
4071.834065208109
 30
0.0
 11
12549.72844517243
 21
2281.834065208113
 31
0.0
  0
LINE
  5
2CA46
330
747D
100
AcDbEntity
  8
部品1
100
AcDbLine
 10
9554.728445172434
 20
2281.83406520811
 30
0.0
 11
12604.72844517243
 21
2281.834065208111
 31
0.0
  0
LINE
  5
2CA47
330
747D
100
AcDbEntity
  8
部品1
100
AcDbLine
 10
9554.728445172434
 20
2231.83406520811
 30
0.0
 11
9562.228445172435
 21
2231.83406520811
 31
0.0
  0
LINE
  5
2CA48
330
747D
100
AcDbEntity
  8
部品1
100
AcDbLine
 10
9609.728445172432
 20
4071.834065208109
 30
0.0
 11
9609.728445172434
 21
2281.83406520811
 31
0.0
  0
LINE
  5
2CA49
330
747D
100
AcDbEntity
  8
部品1
100
AcDbLine
 10
9554.728445172433
 20
4163.976503136988
 30
0.0
 11
9554.728445172434
 21
2131.83406520811
 31
0.0
  0
DIMENSION
  5
2CA4A
330
747D
100
AcDbEntity
  8
寸法
100
AcDbDimension
  2
*D17
 10
8410.978315989174
 20
2131.83406520811
 30
0.0
 11
8410.978315989174
 21
1895.78682111362
 31
0.0
 70
   160
 71
     5
 42
100.0000000000004
  3
INABA_S40G
100
AcDbAlignedDimension
 13
9499.728445172435
 23
2231.83406520811
 33
0.0
 14
8498.227369277302
 24
2131.83406520811
 34
0.0
 50
90.0
100
AcDbRotatedDimension
1001
ACAD
1000
DSTYLE
1002
{
1070
   174
1070
     0
1070
   272
1070
     1
1070
   288
1070
     0
1070
   341
1005
0
1002
}
  0
DIMENSION
  5
2CA4B
330
747D
100
AcDbEntity
  8
寸法
100
AcDbDimension
  2
*D18
 10
8710.978315989175
 20
2231.83406520811
 30
0.0
 11
8710.978315989175
 21
1925.78682111362
 31
0.0
 70
   160
 71
     5
 42
50.0
  3
INABA_S40G
100
AcDbAlignedDimension
 13
9554.728445172434
 23
2281.83406520811
 33
0.0
 14
9499.728445172435
 24
2231.83406520811
 34
0.0
 50
90.0
100
AcDbRotatedDimension
1001
ACAD
1000
DSTYLE
1002
{
1070
   174
1070
     0
1070
   272
1070
     1
1070
   288
1070
     0
1070
   341
1005
0
1002
}
  0
LINE
  5
2CA4C
330
747D
100
AcDbEntity
  8
部品1
100
AcDbLine
 10
10029.72844517243
 20
4071.834065208109
 30
0.0
 11
10029.72844517243
 21
2281.83406520811
 31
0.0
  0
LINE
  5
2CA4D
330
747D
100
AcDbEntity
  8
部品1
100
AcDbLine
 10
12604.72844517243
 20
4126.26409298923
 30
0.0
 11
12604.72844517243
 21
2131.834065208112
 31
0.0
  0
LINE
  5
2CA4E
330
747D
100
AcDbEntity
  8
部品1
100
AcDbLine
 10
12549.72844517243
 20
4071.834065208109
 30
0.0
 11
12549.72844517243
 21
2281.834065208112
 31
0.0
  0
LINE
  5
2CA4F
330
747D
100
AcDbEntity
  8
部品1
100
AcDbLine
 10
9754.728445172434
 20
2231.83406520811
 30
0.0
 11
9754.728445172434
 21
2131.83406520811
 31
0.0
  0
LINE
  5
2CA50
330
747D
100
AcDbEntity
  8
部品1
100
AcDbLine
 10
12404.72844517243
 20
2231.834065208112
 30
0.0
 11
12404.72844517243
 21
2131.834065208112
 31
0.0
  0
DIMENSION
  5
2CA51
330
747D
100
AcDbEntity
  8
寸法
 48
50.0
100
AcDbDimension
  2
*D19
 10
9554.728445172434
 20
4705.491518787416
 30
0.0
 11
11124.78681973184
 21
4705.491518787416
 31
0.0
 70
   160
  1
柱外寸法<>
 71
     5
 42
3049.999999999997
  3
INABA_S40G
100
AcDbAlignedDimension
 13
12604.72844517243
 23
4253.644744819765
 33
0.0
 14
9554.728445172434
 24
4302.835683331086
 34
0.0
100
AcDbRotatedDimension
1001
ACAD
1000
DSTYLE
1002
{
1070
   174
1070
     0
1070
   272
1070
     1
1070
   288
1070
     0
1070
   341
1005
0
1002
}
  0
DIMENSION
  5
2CA52
330
747D
100
AcDbEntity
  8
寸法
 48
50.0
100
AcDbDimension
  2
*D20
 10
9494.728445172434
 20
4705.491518787414
 30
0.0
 11
9185.090649896844
 21
4705.491518787414
 31
0.0
 70
   160
 71
     5
 42
60.0
  3
INABA_S40G
100
AcDbAlignedDimension
 13
9554.728445172434
 23
4302.835683331086
 33
0.0
 14
9494.728445172434
 24
4306.834065208113
 34
0.0
100
AcDbRotatedDimension
1001
ACAD
1000
DSTYLE
1002
{
1070
   174
1070
     0
1070
   272
1070
     1
1070
   288
1070
     0
1070
   341
1005
0
1002
}
  0
DIMENSION
  5
2CA53
330
747D
100
AcDbEntity
  8
寸法
 48
50.0
100
AcDbDimension
  2
*D21
 10
9494.728445172434
 20
4935.605111573692
 30
0.0
 11
11166.43425148196
 21
4935.605111573692
 31
0.0
 70
   160
 71
     5
 42
3189.999999999996
  3
INABA_S40G
100
AcDbAlignedDimension
 13
12684.72844517243
 23
4251.834065208111
 33
0.0
 14
9494.728445172434
 24
4306.834065208113
 34
0.0
100
AcDbRotatedDimension
1001
ACAD
1000
DSTYLE
1002
{
1070
   174
1070
     0
1070
   272
1070
     1
1070
   288
1070
     0
1070
   341
1005
0
1002
}
  0
LINE
  5
2CA54
330
747D
100
AcDbEntity
  8
破線
  6
HIDDEN
 48
5.0
100
AcDbLine
 10
12612.22844517243
 20
1976.834065208112
 30
0.0
 11
12542.22844517243
 21
1976.834065208112
 31
0.0
  0
LINE
  5
2CA55
330
747D
100
AcDbEntity
  8
破線
  6
HIDDEN
 48
5.0
100
AcDbLine
 10
12557.22844517243
 20
2126.834065208112
 30
0.0
 11
12542.22844517243
 21
1979.134065208112
 31
0.0
  0
LINE
  5
2CA56
330
747D
100
AcDbEntity
  8
破線
  6
HIDDEN
 48
5.0
100
AcDbLine
 10
12542.22844517243
 20
1979.134065208112
 30
0.0
 11
12542.22844517243
 21
1976.834065208112
 31
0.0
  0
LINE
  5
2CA57
330
747D
100
AcDbEntity
  8
破線
  6
HIDDEN
 48
5.0
100
AcDbLine
 10
12597.22844517243
 20
2126.834065208112
 30
0.0
 11
12612.22844517243
 21
1979.134065208112
 31
0.0
  0
LINE
  5
2CA58
330
747D
100
AcDbEntity
  8
破線
  6
HIDDEN
 48
5.0
100
AcDbLine
 10
12612.22844517243
 20
1979.134065208112
 30
0.0
 11
12612.22844517243
 21
1976.834065208112
 31
0.0
  0
LINE
  5
2CA59
330
747D
100
AcDbEntity
  8
破線
  6
HIDDEN
 48
5.0
100
AcDbLine
 10
9547.228445172434
 20
1976.83406520811
 30
0.0
 11
9617.228445172434
 21
1976.83406520811
 31
0.0
  0
LINE
  5
2CA5A
330
747D
100
AcDbEntity
  8
破線
  6
HIDDEN
 48
5.0
100
AcDbLine
 10
9547.228445172434
 20
1979.134065208109
 30
0.0
 11
9547.228445172434
 21
1976.83406520811
 31
0.0
  0
LINE
  5
2CA5B
330
747D
100
AcDbEntity
  8
破線
  6
HIDDEN
 48
5.0
100
AcDbLine
 10
9617.228445172434
 20
1979.134065208109
 30
0.0
 11
9617.228445172434
 21
1976.83406520811
 31
0.0
  0
LINE
  5
2CA5C
330
747D
100
AcDbEntity
  8
破線
  6
HIDDEN
 48
5.0
100
AcDbLine
 10
9562.228445172435
 20
2126.83406520811
 30
0.0
 11
9547.228445172434
 21
1979.134065208109
 31
0.0
  0
LINE
  5
2CA5D
330
747D
100
AcDbEntity
  8
破線
  6
HIDDEN
 48
5.0
100
AcDbLine
 10
9602.228445172434
 20
2126.83406520811
 30
0.0
 11
9617.228445172434
 21
1979.134065208109
 31
0.0
  0
LINE
  5
2CA5E
330
747D
100
AcDbEntity
  8
部品1
 48
50.0
100
AcDbLine
 10
9562.228445172435
 20
2271.83406520811
 30
0.0
 11
9562.228445172435
 21
2131.83406520811
 31
0.0
  0
LINE
  5
2CA5F
330
747D
100
AcDbEntity
  8
部品1
 48
50.0
100
AcDbLine
 10
9602.228445172434
 20
2271.83406520811
 30
0.0
 11
9602.228445172434
 21
2131.83406520811
 31
0.0
  0
LINE
  5
2CA60
330
747D
100
AcDbEntity
  8
部品1
100
AcDbLine
 10
9567.228445172434
 20
2276.83406520811
 30
0.0
 11
9597.228445172433
 21
2276.83406520811
 31
0.0
  0
ARC
  5
2CA61
330
747D
100
AcDbEntity
  8
部品1
 48
50.0
100
AcDbCircle
 10
9567.228445172434
 20
2271.83406520811
 30
0.0
 40
5.0
100
AcDbArc
 50
90.0
 51
180.0
  0
ARC
  5
2CA62
330
747D
100
AcDbEntity
  8
部品1
 48
50.0
100
AcDbCircle
 10
9597.228445172433
 20
2271.83406520811
 30
0.0
 40
5.0
100
AcDbArc
 50
0.0
 51
90.0
  0
LINE
  5
2CA63
330
747D
100
AcDbEntity
  8
部品1
 48
50.0
100
AcDbLine
 10
12557.22844517243
 20
2271.834065208112
 30
0.0
 11
12557.22844517243
 21
2131.834065208112
 31
0.0
  0
LINE
  5
2CA64
330
747D
100
AcDbEntity
  8
部品1
 48
50.0
100
AcDbLine
 10
12597.22844517243
 20
2271.834065208112
 30
0.0
 11
12597.22844517243
 21
2131.834065208112
 31
0.0
  0
LINE
  5
2CA65
330
747D
100
AcDbEntity
  8
部品1
100
AcDbLine
 10
12592.22844517243
 20
2276.834065208112
 30
0.0
 11
12562.22844517243
 21
2276.834065208112
 31
0.0
  0
ARC
  5
2CA66
330
747D
100
AcDbEntity
  8
部品1
 48
50.0
100
AcDbCircle
 10
12562.22844517243
 20
2271.834065208112
 30
0.0
 40
5.0
100
AcDbArc
 50
90.0
 51
180.0
  0
ARC
  5
2CA67
330
747D
100
AcDbEntity
  8
部品1
 48
50.0
100
AcDbCircle
 10
12592.22844517243
 20
2271.834065208112
 30
0.0
 40
5.0
100
AcDbArc
 50
0.0
 51
90.0
  0
LINE
  5
2CA68
330
747D
100
AcDbEntity
  8
破線
  6
HIDDEN
 48
5.0
100
AcDbLine
 10
12557.22844517243
 20
2131.834065208112
 30
0.0
 11
12557.22844517243
 21
2126.834065208112
 31
0.0
  0
LINE
  5
2CA69
330
747D
100
AcDbEntity
  8
破線
  6
HIDDEN
 48
5.0
100
AcDbLine
 10
12597.22844517243
 20
2131.834065208112
 30
0.0
 11
12597.22844517243
 21
2126.834065208112
 31
0.0
  0
LINE
  5
2CA6A
330
747D
100
AcDbEntity
  8
破線
  6
HIDDEN
 48
5.0
100
AcDbLine
 10
9562.228445172442
 20
2131.83406520811
 30
0.0
 11
9562.228445172442
 21
2126.83406520811
 31
0.0
  0
LINE
  5
2CA6B
330
747D
100
AcDbEntity
  8
破線
  6
HIDDEN
 48
5.0
100
AcDbLine
 10
9602.228445172434
 20
2131.83406520811
 30
0.0
 11
9602.228445172434
 21
2126.83406520811
 31
0.0
  0
LINE
  5
2CA6C
330
747D
100
AcDbEntity
  8
部品1
100
AcDbLine
 10
12597.22844517243
 20
2231.834065208112
 30
0.0
 11
12604.72844517243
 21
2231.834065208112
 31
0.0
  0
LINE
  5
2CA6D
330
747D
100
AcDbEntity
  8
部品1
100
AcDbLine
 10
9602.228445172434
 20
2231.83406520811
 30
0.0
 11
12557.22844517243
 21
2231.83406520811
 31
0.0
  0
TEXT
  5
2CA6E
330
747D
100
AcDbEntity
  8
部品1
100
AcDbText
 10
10587.43921348182
 20
1059.624993014627
 30
0.0
 40
135.0
  1
側面図
  7
STYLE2
100
AcDbText
  0
LWPOLYLINE
  5
2CA6F
330
747D
100
AcDbEntity
  8
部品1
100
AcDbPolyline
 90
        4
 70
     1
 43
0.0
 10
10497.99311205821
 20
1252.51852223315
 10
10497.99311205821
 20
1012.626200687617
 10
11261.46377828665
 20
1012.626200687617
 10
11261.46377828665
 20
1252.51852223315
  0
LINE
  5
2CA70
330
747D
100
AcDbEntity
  8
細線
 48
50.0
100
AcDbLine
 10
10107.22844517243
 20
4071.834065208109
 30
0.0
 11
10107.22844517243
 21
2281.83406520811
 31
0.0
  0
LINE
  5
2CA71
330
747D
100
AcDbEntity
  8
細線
 48
50.0
100
AcDbLine
 10
10092.22844517243
 20
4071.834065208109
 30
0.0
 11
10092.22844517243
 21
2281.83406520811
 31
0.0
  0
LINE
  5
2CA72
330
747D
100
AcDbEntity
  8
細線
 48
50.0
100
AcDbLine
 10
10232.22844517243
 20
4071.834065208109
 30
0.0
 11
10232.22844517243
 21
2281.83406520811
 31
0.0
  0
LINE
  5
2CA73
330
747D
100
AcDbEntity
  8
細線
 48
50.0
100
AcDbLine
 10
10247.22844517243
 20
4071.834065208109
 30
0.0
 11
10247.22844517243
 21
2281.83406520811
 31
0.0
  0
LINE
  5
2CA74
330
747D
100
AcDbEntity
  8
細線
 48
50.0
100
AcDbLine
 10
10387.22844517243
 20
4071.834065208109
 30
0.0
 11
10387.22844517243
 21
2281.83406520811
 31
0.0
  0
LINE
  5
2CA75
330
747D
100
AcDbEntity
  8
細線
 48
50.0
100
AcDbLine
 10
10372.22844517243
 20
4071.834065208109
 30
0.0
 11
10372.22844517243
 21
2281.83406520811
 31
0.0
  0
LINE
  5
2CA76
330
747D
100
AcDbEntity
  8
細線
 48
50.0
100
AcDbLine
 10
9952.228445172432
 20
4071.834065208109
 30
0.0
 11
9952.228445172433
 21
2281.83406520811
 31
0.0
  0
LINE
  5
2CA77
330
747D
100
AcDbEntity
  8
細線
 48
50.0
100
AcDbLine
 10
9967.228445172432
 20
4071.834065208109
 30
0.0
 11
9967.228445172434
 21
2281.83406520811
 31
0.0
  0
LINE
  5
2CA78
330
747D
100
AcDbEntity
  8
細線
 48
50.0
100
AcDbLine
 10
9827.228445172432
 20
4071.834065208109
 30
0.0
 11
9827.228445172433
 21
2281.83406520811
 31
0.0
  0
LINE
  5
2CA79
330
747D
100
AcDbEntity
  8
細線
 48
50.0
100
AcDbLine
 10
9812.228445172433
 20
4071.834065208109
 30
0.0
 11
9812.228445172435
 21
2281.83406520811
 31
0.0
  0
LINE
  5
2CA7A
330
747D
100
AcDbEntity
  8
細線
 48
50.0
100
AcDbLine
 10
9672.228445172432
 20
4071.834065208109
 30
0.0
 11
9672.228445172434
 21
2281.83406520811
 31
0.0
  0
LINE
  5
2CA7B
330
747D
100
AcDbEntity
  8
細線
 48
50.0
100
AcDbLine
 10
9687.228445172433
 20
4071.834065208109
 30
0.0
 11
9687.228445172435
 21
2281.83406520811
 31
0.0
  0
DIMENSION
  5
2CA7C
330
747D
100
AcDbEntity
  8
寸法
 48
50.0
100
AcDbDimension
  2
*D22
 10
12684.72844517243
 20
4705.491518787416
 30
0.0
 11
12890.77568926692
 21
4705.491518787416
 31
0.0
 70
   160
 71
     5
 42
80.0
  3
INABA_S40G
100
AcDbAlignedDimension
 13
12604.72844517243
 23
4253.644744819765
 33
0.0
 14
12684.72844517243
 24
4251.834065208114
 34
0.0
100
AcDbRotatedDimension
1001
ACAD
1000
DSTYLE
1002
{
1070
   174
1070
     0
1070
   272
1070
     1
1070
   288
1070
     0
1070
   341
1005
0
1002
}
  0
LINE
  5
2CA7D
330
747D
100
AcDbEntity
  8
部品1
100
AcDbLine
 10
10449.72844517243
 20
4071.834065208109
 30
0.0
 11
10449.72844517243
 21
2281.83406520811
 31
0.0
  0
LINE
  5
2CA7E
330
747D
100
AcDbEntity
  8
細線
 48
50.0
100
AcDbLine
 10
10792.22844517243
 20
4071.834065208109
 30
0.0
 11
10792.22844517244
 21
2281.83406520811
 31
0.0
  0
LINE
  5
2CA7F
330
747D
100
AcDbEntity
  8
細線
 48
50.0
100
AcDbLine
 10
10807.22844517243
 20
4071.834065208109
 30
0.0
 11
10807.22844517244
 21
2281.83406520811
 31
0.0
  0
LINE
  5
2CA80
330
747D
100
AcDbEntity
  8
細線
 48
50.0
100
AcDbLine
 10
10667.22844517243
 20
4071.834065208109
 30
0.0
 11
10667.22844517244
 21
2281.83406520811
 31
0.0
  0
LINE
  5
2CA81
330
747D
100
AcDbEntity
  8
細線
 48
50.0
100
AcDbLine
 10
10652.22844517243
 20
4071.834065208109
 30
0.0
 11
10652.22844517244
 21
2281.83406520811
 31
0.0
  0
LINE
  5
2CA82
330
747D
100
AcDbEntity
  8
細線
 48
50.0
100
AcDbLine
 10
10512.22844517243
 20
4071.834065208109
 30
0.0
 11
10512.22844517244
 21
2281.83406520811
 31
0.0
  0
LINE
  5
2CA83
330
747D
100
AcDbEntity
  8
細線
 48
50.0
100
AcDbLine
 10
10527.22844517243
 20
4071.834065208109
 30
0.0
 11
10527.22844517244
 21
2281.83406520811
 31
0.0
  0
LINE
  5
2CA84
330
747D
100
AcDbEntity
  8
部品1
100
AcDbLine
 10
10869.72844517243
 20
4071.834065208109
 30
0.0
 11
10869.72844517243
 21
2281.83406520811
 31
0.0
  0
LINE
  5
2CA85
330
747D
100
AcDbEntity
  8
細線
 48
50.0
100
AcDbLine
 10
12207.22844517243
 20
4071.834065208109
 30
0.0
 11
12207.22844517243
 21
2281.834065208112
 31
0.0
  0
LINE
  5
2CA86
330
747D
100
AcDbEntity
  8
細線
 48
50.0
100
AcDbLine
 10
12192.22844517243
 20
4071.834065208109
 30
0.0
 11
12192.22844517243
 21
2281.834065208112
 31
0.0
  0
LINE
  5
2CA87
330
747D
100
AcDbEntity
  8
細線
 48
50.0
100
AcDbLine
 10
12332.22844517243
 20
4071.834065208109
 30
0.0
 11
12332.22844517243
 21
2281.834065208112
 31
0.0
  0
LINE
  5
2CA88
330
747D
100
AcDbEntity
  8
細線
 48
50.0
100
AcDbLine
 10
12347.22844517244
 20
4071.834065208109
 30
0.0
 11
12347.22844517244
 21
2281.834065208112
 31
0.0
  0
LINE
  5
2CA89
330
747D
100
AcDbEntity
  8
細線
 48
50.0
100
AcDbLine
 10
12487.22844517244
 20
4071.834065208109
 30
0.0
 11
12487.22844517244
 21
2281.834065208112
 31
0.0
  0
LINE
  5
2CA8A
330
747D
100
AcDbEntity
  8
細線
 48
50.0
100
AcDbLine
 10
12472.22844517243
 20
4071.834065208109
 30
0.0
 11
12472.22844517243
 21
2281.834065208112
 31
0.0
  0
DIMENSION
  5
2CA8B
330
747D
100
AcDbEntity
  8
寸法
 48
50.0
100
AcDbDimension
  2
*D23
 10
8934.12003840406
 20
4181.179324081441
 30
0.0
 11
8944.785513662985
 21
4552.025987323141
 31
0.0
 70
   161
 71
     5
 42
141.0
  3
INABA_S40G
100
AcDbAlignedDimension
 13
9514.124465331013
 23
4305.556814042789
 33
0.0
 14
9510.071009774387
 24
4164.615090277076
 34
0.0
1001
ACAD
1000
DSTYLE
1002
{
1070
   174
1070
     0
1070
   272
1070
     1
1070
   288
1070
     0
1070
   341
1005
0
1002
}
  0
DIMENSION
  5
2CA8C
330
747D
100
AcDbEntity
  8
寸法
 48
50.0
100
AcDbDimension
  2
*D24
 10
9332.7284419258
 20
2131.83406520811
 30
0.0
 11
9332.7284419258
 21
2031.83406520811
 31
0.0
 70
   160
 71
     5
 42
200.000000000002
  3
INABA_S40G
100
AcDbAlignedDimension
 13
9482.228445172436
 23
1931.834065208108
 33
0.0
 14
9457.228445172434
 24
2131.83406520811
 34
0.0
 50
90.0
100
AcDbRotatedDimension
1001
ACAD
1000
DSTYLE
1002
{
1070
   174
1070
     0
1070
   272
1070
     1
1070
   288
1070
     0
1070
   341
1005
0
1002
}
  0
LINE
  5
2CA8D
330
747D
100
AcDbEntity
  8
破線
 48
5.0
100
AcDbLine
 10
9682.228445172434
 20
1931.834065208108
 30
0.0
 11
9482.228445172436
 21
1931.834065208108
 31
0.0
  0
LINE
  5
2CA8E
330
747D
100
AcDbEntity
  8
破線
 48
5.0
100
AcDbLine
 10
9682.228445172434
 20
2131.83406520811
 30
0.0
 11
9682.228445172434
 21
1931.834065208108
 31
0.0
  0
LINE
  5
2CA8F
330
747D
100
AcDbEntity
  8
破線
 48
5.0
100
AcDbLine
 10
9482.228445172435
 20
2131.83406520811
 30
0.0
 11
9482.228445172436
 21
1931.834065208108
 31
0.0
  0
DIMENSION
  5
2CA90
330
747D
100
AcDbEntity
  8
寸法
 48
50.0
100
AcDbDimension
  2
*D25
 10
9482.228445172436
 20
1645.786735907732
 30
0.0
 11
9582.228445172436
 21
1645.786735907732
 31
0.0
 70
   160
 71
     5
 42
199.9999999999963
  3
INABA_S40G
100
AcDbAlignedDimension
 13
9682.228445172434
 23
1931.834065208108
 33
0.0
 14
9482.228445172436
 24
1931.834065208108
 34
0.0
100
AcDbRotatedDimension
  0
LINE
  5
2CA91
330
747D
100
AcDbEntity
  8
破線
 48
5.0
100
AcDbLine
 10
12677.22844517243
 20
2131.834065208112
 30
0.0
 11
12677.22844517243
 21
1931.83406520811
 31
0.0
  0
LINE
  5
2CA92
330
747D
100
AcDbEntity
  8
破線
 48
5.0
100
AcDbLine
 10
12677.22844517243
 20
1931.83406520811
 30
0.0
 11
12477.22844517243
 21
1931.834065208111
 31
0.0
  0
LINE
  5
2CA93
330
747D
100
AcDbEntity
  8
破線
 48
5.0
100
AcDbLine
 10
12477.22844517243
 20
2131.834065208112
 30
0.0
 11
12477.22844517243
 21
1931.834065208111
 31
0.0
  0
LINE
  5
2CD97
330
747D
100
AcDbEntity
  8
部品1
100
AcDbLine
 10
7413.396575107157
 20
8934.111280151677
 30
0.0
 11
4476.396575107157
 21
8934.111280151578
 31
0.0
  0
LINE
  5
2CD98
330
747D
100
AcDbEntity
  8
部品1
100
AcDbLine
 10
4447.896575107148
 20
8934.111280151695
 30
0.0
 11
4419.896575107148
 21
8934.111280151695
 31
0.0
  0
LINE
  5
2CD99
330
747D
100
AcDbEntity
  8
部品1
100
AcDbLine
 10
7441.896575107174
 20
8934.111280151704
 30
0.0
 11
7469.896575107174
 21
8934.111280151704
 31
0.0
  0
TEXT
  5
2D1C0
330
747D
100
AcDbEntity
  8
文字
 62
     7
 48
50.0
100
AcDbText
 10
13209.4053442172
 20
48.21199071778687
 30
0.0
 40
100.0
  1
○床面積 ： 9.30㎡(2.82坪) 　
  7
STYLE2
100
AcDbText
  0
LINE
  5
2D7CA
330
747D
100
AcDbEntity
  8
部品1
100
AcDbLine
 10
7441.896575107334
 20
9354.111280151734
 30
0.0
 11
7469.896575107334
 21
9354.111280151734
 31
0.0
  0
LINE
  5
2D7CB
330
747D
100
AcDbEntity
  8
部品1
100
AcDbLine
 10
4447.896575107308
 20
9354.111280151723
 30
0.0
 11
4419.896575107308
 21
9354.111280151723
 31
0.0
  0
LINE
  5
2D7CC
330
747D
100
AcDbEntity
  8
部品1
100
AcDbLine
 10
7413.396575107317
 20
9354.111280151707
 30
0.0
 11
4476.396575107317
 21
9354.111280151606
 31
0.0
  0
LINE
  5
2D949
330
747D
100
AcDbEntity
  8
部品1
100
AcDbLine
 10
11709.72844517243
 20
4071.834065208109
 30
0.0
 11
11709.72844517242
 21
2281.834065208112
 31
0.0
  0
LINE
  5
2D94A
330
747D
100
AcDbEntity
  8
細線
 48
50.0
100
AcDbLine
 10
11787.22844517243
 20
4071.834065208109
 30
0.0
 11
11787.22844517243
 21
2281.834065208112
 31
0.0
  0
LINE
  5
2D94B
330
747D
100
AcDbEntity
  8
細線
 48
50.0
100
AcDbLine
 10
11772.22844517243
 20
4071.834065208109
 30
0.0
 11
11772.22844517243
 21
2281.834065208112
 31
0.0
  0
LINE
  5
2D94C
330
747D
100
AcDbEntity
  8
細線
 48
50.0
100
AcDbLine
 10
11912.22844517243
 20
4071.834065208109
 30
0.0
 11
11912.22844517243
 21
2281.834065208112
 31
0.0
  0
LINE
  5
2D94D
330
747D
100
AcDbEntity
  8
細線
 48
50.0
100
AcDbLine
 10
11927.22844517243
 20
4071.834065208109
 30
0.0
 11
11927.22844517243
 21
2281.834065208112
 31
0.0
  0
LINE
  5
2D94E
330
747D
100
AcDbEntity
  8
細線
 48
50.0
100
AcDbLine
 10
12067.22844517243
 20
4071.834065208109
 30
0.0
 11
12067.22844517243
 21
2281.834065208112
 31
0.0
  0
LINE
  5
2D94F
330
747D
100
AcDbEntity
  8
細線
 48
50.0
100
AcDbLine
 10
12052.22844517243
 20
4071.834065208109
 30
0.0
 11
12052.22844517243
 21
2281.834065208112
 31
0.0
  0
LINE
  5
2D950
330
747D
100
AcDbEntity
  8
部品1
100
AcDbLine
 10
12129.72844517242
 20
4071.834065208109
 30
0.0
 11
12129.72844517242
 21
2281.834065208113
 31
0.0
  0
LINE
  5
2D95C
330
747D
100
AcDbEntity
  8
部品1
 48
50.0
100
AcDbLine
 10
10264.72844517243
 20
2231.83406520811
 30
0.0
 11
10264.72844517243
 21
2131.83406520811
 31
0.0
  0
LINE
  5
2D95D
330
747D
100
AcDbEntity
  8
部品1
 48
50.0
100
AcDbLine
 10
10464.72844517243
 20
2231.83406520811
 30
0.0
 11
10464.72844517243
 21
2131.83406520811
 31
0.0
  0
LINE
  5
2D95E
330
747D
100
AcDbEntity
  8
部品1
 48
50.0
100
AcDbLine
 10
10979.72844517243
 20
2231.83406520811
 30
0.0
 11
10979.72844517243
 21
2131.83406520811
 31
0.0
  0
LINE
  5
2D95F
330
747D
100
AcDbEntity
  8
部品1
 48
50.0
100
AcDbLine
 10
11179.72844517243
 20
2231.83406520811
 30
0.0
 11
11179.72844517243
 21
2131.83406520811
 31
0.0
  0
LINE
  5
2D960
330
747D
100
AcDbEntity
  8
部品1
 48
50.0
100
AcDbLine
 10
11894.72844517243
 20
2231.83406520811
 30
0.0
 11
11894.72844517243
 21
2131.83406520811
 31
0.0
  0
LINE
  5
2D961
330
747D
100
AcDbEntity
  8
部品1
 48
50.0
100
AcDbLine
 10
11694.72844517243
 20
2231.83406520811
 30
0.0
 11
11694.72844517243
 21
2131.83406520811
 31
0.0
  0
LINE
  5
2DDEE
330
747D
100
AcDbEntity
  8
破線
 48
5.0
100
AcDbLine
 10
4519.896575106995
 20
2131.834065208111
 30
0.0
 11
4519.896575106995
 21
1931.83406520811
 31
0.0
  0
LINE
  5
2DDEF
330
747D
100
AcDbEntity
  8
破線
 48
5.0
100
AcDbLine
 10
4319.896575106995
 20
2131.834065208111
 30
0.0
 11
4319.896575106995
 21
1931.83406520811
 31
0.0
  0
LINE
  5
2DDF0
330
747D
100
AcDbEntity
  8
破線
 48
5.0
100
AcDbLine
 10
4319.896575106995
 20
1931.83406520811
 30
0.0
 11
4519.896575106995
 21
1931.83406520811
 31
0.0
  0
LINE
  5
2DDF1
330
747D
100
AcDbEntity
  8
破線
 48
5.0
100
AcDbLine
 10
7569.896575107006
 20
1931.834065208109
 30
0.0
 11
7369.896575107005
 21
1931.834065208109
 31
0.0
  0
LINE
  5
2DDF2
330
747D
100
AcDbEntity
  8
破線
 48
5.0
100
AcDbLine
 10
7369.896575107006
 20
2131.83406520811
 30
0.0
 11
7369.896575107006
 21
1931.834065208109
 31
0.0
  0
LINE
  5
2DDF3
330
747D
100
AcDbEntity
  8
破線
 48
5.0
100
AcDbLine
 10
7569.896575107006
 20
2131.83406520811
 30
0.0
 11
7569.896575107006
 21
1931.834065208109
 31
0.0
  0
DIMENSION
  5
2DDF4
330
747D
100
AcDbEntity
  8
寸法
 48
50.0
100
AcDbDimension
  2
*D27
 10
7369.896575107005
 20
1645.786735907732
 30
0.0
 11
7469.896575107006
 21
1645.786735907732
 31
0.0
 70
   160
 71
     5
 42
200.0000000000018
  3
INABA_S40G
100
AcDbAlignedDimension
 13
7569.896575107006
 23
1931.834065208109
 33
0.0
 14
7369.896575107005
 24
1931.834065208109
 34
0.0
100
AcDbRotatedDimension
  0
LINE
  5
2DDF5
330
747D
100
AcDbEntity
  8
部品1
 48
50.0
100
AcDbLine
 10
6044.896575106982
 20
2231.83406520811
 30
0.0
 11
6044.896575106982
 21
2131.83406520811
 31
0.0
  0
LINE
  5
2DDF6
330
747D
100
AcDbEntity
  8
部品1
 48
50.0
100
AcDbLine
 10
5844.896575106982
 20
2231.83406520811
 30
0.0
 11
5844.896575106982
 21
2131.83406520811
 31
0.0
  0
LINE
  5
2DDF7
330
747D
100
AcDbEntity
  8
部品1
 48
50.0
100
AcDbLine
 10
5117.896575106982
 20
2231.83406520811
 30
0.0
 11
5117.896575106982
 21
2131.83406520811
 31
0.0
  0
LINE
  5
2DDF8
330
747D
100
AcDbEntity
  8
部品1
 48
50.0
100
AcDbLine
 10
5317.896575106982
 20
2231.83406520811
 30
0.0
 11
5317.896575106982
 21
2131.83406520811
 31
0.0
  0
LINE
  5
2DDF9
330
747D
100
AcDbEntity
  8
部品1
 48
50.0
100
AcDbLine
 10
6771.896575106983
 20
2231.83406520811
 30
0.0
 11
6771.896575106983
 21
2131.83406520811
 31
0.0
  0
LINE
  5
2DDFA
330
747D
100
AcDbEntity
  8
部品1
 48
50.0
100
AcDbLine
 10
6571.896575106983
 20
2231.83406520811
 30
0.0
 11
6571.896575106983
 21
2131.83406520811
 31
0.0
  0
LINE
  5
2DDFB
330
747D
100
AcDbEntity
  8
細線
100
AcDbLine
 10
7356.404881756055
 20
4063.834065208111
 30
0.0
 11
7356.404881756055
 21
2288.334065208131
 31
0.0
  0
LINE
  5
2DDFC
330
747D
100
AcDbEntity
  8
細線
100
AcDbLine
 10
7286.404881756054
 20
4063.834065208111
 30
0.0
 11
7286.404881756054
 21
2288.334065208131
 31
0.0
  0
LINE
  5
2DDFD
330
747D
100
AcDbEntity
  8
細線
100
AcDbLine
 10
4533.38826845803
 20
4063.834065208104
 30
0.0
 11
4533.38826845803
 21
2288.334065208122
 31
0.0
  0
LINE
  5
2DDFE
330
747D
100
AcDbEntity
  8
細線
100
AcDbLine
 10
4603.38826845803
 20
4063.834065208104
 30
0.0
 11
4603.38826845803
 21
2288.334065208122
 31
0.0
  0
LINE
  5
2DDFF
330
747D
100
AcDbEntity
  8
細線
100
AcDbLine
 10
4673.38826845803
 20
4063.834065208104
 30
0.0
 11
4673.38826845803
 21
2288.334065208122
 31
0.0
  0
LINE
  5
2DE00
330
747D
100
AcDbEntity
  8
細線
100
AcDbLine
 10
5163.388268458031
 20
4063.834065208104
 30
0.0
 11
5163.388268458031
 21
2288.334065208122
 31
0.0
  0
LINE
  5
2DE01
330
747D
100
AcDbEntity
  8
細線
100
AcDbLine
 10
5093.38826845803
 20
4063.834065208104
 30
0.0
 11
5093.38826845803
 21
2288.334065208122
 31
0.0
  0
LINE
  5
2DE02
330
747D
100
AcDbEntity
  8
細線
100
AcDbLine
 10
5023.38826845803
 20
4063.834065208104
 30
0.0
 11
5023.38826845803
 21
2288.334065208122
 31
0.0
  0
LINE
  5
2DE03
330
747D
100
AcDbEntity
  8
細線
100
AcDbLine
 10
4953.388268458031
 20
4063.834065208104
 30
0.0
 11
4953.388268458031
 21
2288.334065208122
 31
0.0
  0
LINE
  5
2DE04
330
747D
100
AcDbEntity
  8
細線
100
AcDbLine
 10
4883.38826845803
 20
4063.834065208104
 30
0.0
 11
4883.38826845803
 21
2288.334065208122
 31
0.0
  0
LINE
  5
2DE05
330
747D
100
AcDbEntity
  8
細線
100
AcDbLine
 10
4813.38826845803
 20
4063.834065208104
 30
0.0
 11
4813.38826845803
 21
2288.334065208122
 31
0.0
  0
LINE
  5
2DE06
330
747D
100
AcDbEntity
  8
細線
100
AcDbLine
 10
4743.38826845803
 20
4063.834065208104
 30
0.0
 11
4743.38826845803
 21
2288.334065208122
 31
0.0
  0
LINE
  5
2DE07
330
747D
100
AcDbEntity
  8
細線
100
AcDbLine
 10
7216.404881756054
 20
4063.834065208111
 30
0.0
 11
7216.404881756054
 21
2288.334065208131
 31
0.0
  0
LINE
  5
2DE08
330
747D
100
AcDbEntity
  8
細線
100
AcDbLine
 10
7146.404881756054
 20
4063.834065208111
 30
0.0
 11
7146.404881756054
 21
2288.334065208131
 31
0.0
  0
LINE
  5
2DE09
330
747D
100
AcDbEntity
  8
細線
100
AcDbLine
 10
7076.404881756054
 20
4063.834065208111
 30
0.0
 11
7076.404881756054
 21
2288.334065208131
 31
0.0
  0
LINE
  5
2DE0A
330
747D
100
AcDbEntity
  8
細線
100
AcDbLine
 10
7006.404881756054
 20
4063.834065208111
 30
0.0
 11
7006.404881756054
 21
2288.334065208131
 31
0.0
  0
LINE
  5
2DE0B
330
747D
100
AcDbEntity
  8
細線
100
AcDbLine
 10
6936.404881756054
 20
4063.834065208111
 30
0.0
 11
6936.404881756054
 21
2288.334065208131
 31
0.0
  0
LINE
  5
2DE0C
330
747D
100
AcDbEntity
  8
細線
100
AcDbLine
 10
6866.404881756054
 20
4063.834065208111
 30
0.0
 11
6866.404881756054
 21
2288.334065208131
 31
0.0
  0
LINE
  5
2DE0D
330
747D
100
AcDbEntity
  8
細線
100
AcDbLine
 10
6796.404881756053
 20
4063.834065208111
 30
0.0
 11
6796.404881756053
 21
2288.334065208131
 31
0.0
  0
LINE
  5
2DE0E
330
747D
100
AcDbEntity
  8
細線
100
AcDbLine
 10
6726.404881756055
 20
4063.834065208111
 30
0.0
 11
6726.404881756055
 21
2288.334065208131
 31
0.0
  0
LINE
  5
2DE0F
330
747D
100
AcDbEntity
  8
部品1
100
AcDbLine
 10
4479.896575106994
 20
2288.334065208126
 30
0.0
 11
5185.396575106986
 21
2288.334065208133
 31
0.0
  0
LINE
  5
2DE10
330
747D
100
AcDbEntity
  8
細線
100
AcDbLine
 10
5635.396575106986
 20
4063.834065208109
 30
0.0
 11
5635.396575106986
 21
2280.834065208113
 31
0.0
  0
LINE
  5
2DE11
330
747D
100
AcDbEntity
  8
細線
100
AcDbLine
 10
5565.396575106985
 20
4063.834065208109
 30
0.0
 11
5565.396575106985
 21
2280.834065208113
 31
0.0
  0
LINE
  5
2DE12
330
747D
100
AcDbEntity
  8
細線
100
AcDbLine
 10
5495.396575106986
 20
4063.834065208109
 30
0.0
 11
5495.396575106986
 21
2280.834065208113
 31
0.0
  0
LINE
  5
2DE13
330
747D
100
AcDbEntity
  8
細線
100
AcDbLine
 10
5425.396575106986
 20
4063.834065208109
 30
0.0
 11
5425.396575106986
 21
2280.834065208114
 31
0.0
  0
LINE
  5
2DE14
330
747D
100
AcDbEntity
  8
細線
100
AcDbLine
 10
5355.396575106985
 20
4063.834065208109
 30
0.0
 11
5355.396575106985
 21
2280.834065208114
 31
0.0
  0
LINE
  5
2DE15
330
747D
100
AcDbEntity
  8
細線
100
AcDbLine
 10
5285.396575106986
 20
4063.83406520811
 30
0.0
 11
5285.396575106986
 21
2280.834065208118
 31
0.0
  0
LINE
  5
2DE16
330
747D
100
AcDbEntity
  8
細線
100
AcDbLine
 10
5791.896575107001
 20
4063.834065208111
 30
0.0
 11
5791.896575107003
 21
2280.834065208114
 31
0.0
  0
LINE
  5
2DE17
330
747D
100
AcDbEntity
  8
細線
100
AcDbLine
 10
5825.896575107001
 20
4063.834065208111
 30
0.0
 11
5825.896575107003
 21
2280.834065208116
 31
0.0
  0
LINE
  5
2DE18
330
747D
100
AcDbEntity
  8
部品1
100
AcDbLine
 10
5783.896575107001
 20
4063.834065208111
 30
0.0
 11
5783.896575107003
 21
2280.834065208114
 31
0.0
  0
LINE
  5
2DE19
330
747D
100
AcDbEntity
  8
部品1
100
AcDbLine
 10
5833.896575107001
 20
4063.834065208111
 30
0.0
 11
5833.896575107003
 21
2280.834065208116
 31
0.0
  0
LINE
  5
2DE1A
330
747D
100
AcDbEntity
  8
部品1
 48
50.0
100
AcDbLine
 10
5185.396575106987
 20
4063.834065208114
 30
0.0
 11
5185.396575106985
 21
2280.834065208103
 31
0.0
  0
LINE
  5
2DE1B
330
747D
100
AcDbEntity
  8
部品1
 48
50.0
100
AcDbLine
 10
6704.396575106986
 20
4063.83406520811
 30
0.0
 11
6704.396575106986
 21
2280.834065208118
 31
0.0
  0
LINE
  5
2DE1C
330
747D
100
AcDbEntity
  8
部品1
 48
50.0
100
AcDbLine
 10
5944.896575107001
 20
4071.83406520811
 30
0.0
 11
5944.896575106999
 21
2273.834065208121
 31
0.0
  0
LINE
  5
2DE1D
330
747D
100
AcDbEntity
  8
部品1
100
AcDbLine
 10
4419.896575106995
 20
2231.83406520811
 30
0.0
 11
7469.896575107007
 21
2231.83406520811
 31
0.0
  0
LINE
  5
2DE1E
330
747D
100
AcDbEntity
  8
部品1
100
AcDbLine
 10
4419.896575106995
 20
4071.83406520811
 30
0.0
 11
7469.896575107007
 21
4071.834065208111
 31
0.0
  0
LINE
  5
2DE1F
330
747D
100
AcDbEntity
  8
部品1
100
AcDbLine
 10
5185.396575106985
 20
2280.834065208102
 30
0.0
 11
6704.396575106985
 21
2280.834065208118
 31
0.0
  0
DIMENSION
  5
2DE20
330
747D
100
AcDbEntity
  8
寸法
 48
50.0
100
AcDbDimension
  2
*D28
 10
7519.896575107009
 20
4740.280950940105
 30
0.0
 11
5944.429791024755
 21
4740.280950940105
 31
0.0
 70
   160
 71
     5
 42
3150.000000000015
  3
INABA_S40G
100
AcDbAlignedDimension
 13
4369.896575106994
 23
4306.834065208117
 33
0.0
 14
7519.896575107009
 24
4306.834065208113
 34
0.0
100
AcDbRotatedDimension
  0
LINE
  5
2DE21
330
747D
100
AcDbEntity
  8
部品1
100
AcDbLine
 10
4419.896575106995
 20
4165.834065208115
 30
0.0
 11
4419.896575106995
 21
2131.834065208111
 31
0.0
  0
LINE
  5
2DE22
330
747D
100
AcDbEntity
  8
部品1
100
AcDbLine
 10
7409.896575107009
 20
4071.83406520811
 30
0.0
 11
7409.896575107009
 21
2273.83406520813
 31
0.0
  0
LINE
  5
2DE23
330
747D
100
AcDbEntity
  8
部品1
100
AcDbLine
 10
4479.896575106994
 20
4071.83406520811
 30
0.0
 11
4479.896575106994
 21
2273.834065208115
 31
0.0
  0
LINE
  5
2DE24
330
747D
100
AcDbEntity
  8
部品1
100
AcDbLine
 10
7469.896575107009
 20
4165.834065208113
 30
0.0
 11
7469.896575107009
 21
2131.83406520811
 31
0.0
  0
LINE
  5
2DE25
330
747D
100
AcDbEntity
  8
部品1
100
AcDbLine
 10
7069.896575107009
 20
2231.83406520811
 30
0.0
 11
7069.896575107009
 21
2131.83406520811
 31
0.0
  0
LINE
  5
2DE26
330
747D
100
AcDbEntity
  8
部品1
100
AcDbLine
 10
4819.896575106994
 20
2231.834065208111
 30
0.0
 11
4819.896575106994
 21
2131.834065208111
 31
0.0
  0
DIMENSION
  5
2DE27
330
747D
100
AcDbEntity
  8
寸法
 48
50.0
100
AcDbDimension
  2
*D29
 10
7469.896575107009
 20
4519.375650466354
 30
0.0
 11
7833.381856481246
 21
4519.375650466354
 31
0.0
 70
   160
 71
     5
 42
50.0
  3
INABA_S40G
100
AcDbAlignedDimension
 13
7519.896575107009
 23
4306.834065208113
 33
0.0
 14
7469.896575107009
 24
4306.834065208115
 34
0.0
100
AcDbRotatedDimension
  0
DIMENSION
  5
2DE28
330
747D
100
AcDbEntity
  8
寸法
 48
50.0
100
AcDbDimension
  2
*D30
 10
4369.896575106994
 20
4519.375650466356
 30
0.0
 11
4056.411293732747
 21
4519.375650466356
 31
0.0
 70
   160
 71
     5
 42
50.0
  3
INABA_S40G
100
AcDbAlignedDimension
 13
4419.896575106995
 23
4306.834065208119
 33
0.0
 14
4369.896575106994
 24
4306.834065208117
 34
0.0
100
AcDbRotatedDimension
1001
ACAD
1000
DSTYLE
1002
{
1002
}
  0
LINE
  5
2DE29
330
747D
100
AcDbEntity
  8
部品1
100
AcDbLine
 10
6704.396575106985
 20
2288.334065208127
 30
0.0
 11
7409.896575107009
 21
2288.334065208136
 31
0.0
  0
LINE
  5
2DE2A
330
747D
100
AcDbEntity
  8
部品1
100
AcDbLine
 10
7474.896575107009
 20
2276.83406520811
 30
0.0
 11
7474.896575107009
 21
2131.83406520811
 31
0.0
  0
LINE
  5
2DE2B
330
747D
100
AcDbEntity
  8
破線
 48
5.0
100
AcDbLine
 10
7494.896575107009
 20
1976.83406520811
 30
0.0
 11
7474.896575107006
 21
1976.83406520811
 31
0.0
  0
LINE
  5
2DE2C
330
747D
100
AcDbEntity
  8
部品1
100
AcDbLine
 10
4414.896575106994
 20
2276.834065208113
 30
0.0
 11
4414.896575106994
 21
2131.834065208111
 31
0.0
  0
LINE
  5
2DE2D
330
747D
100
AcDbEntity
  8
破線
 48
5.0
100
AcDbLine
 10
4394.896575106995
 20
1976.834065208111
 30
0.0
 11
4414.896575106994
 21
1976.834065208111
 31
0.0
  0
LINE
  5
2DE2E
330
747D
100
AcDbEntity
  8
破線
 48
5.0
100
AcDbLine
 10
7474.896575107009
 20
2131.83406520811
 30
0.0
 11
7474.896575107009
 21
1976.83406520811
 31
0.0
  0
LINE
  5
2DE2F
330
747D
100
AcDbEntity
  8
破線
 48
5.0
100
AcDbLine
 10
4414.896575106994
 20
2131.834065208111
 30
0.0
 11
4414.896575106994
 21
1976.834065208111
 31
0.0
  0
DIMENSION
  5
2DE30
330
747D
100
AcDbEntity
  8
寸法
 48
50.0
100
AcDbDimension
  2
*D31
 10
4419.896575106995
 20
4519.375650466356
 30
0.0
 11
5940.683894633504
 21
4519.375650466356
 31
0.0
 70
   160
  1
柱外寸法<>
 71
     5
 42
3050.000000000015
  3
INABA_S40G
100
AcDbAlignedDimension
 13
7469.896575107009
 23
4306.834065208115
 33
0.0
 14
4419.896575106995
 24
4306.834065208119
 34
0.0
100
AcDbRotatedDimension
  0
LINE
  5
2DE31
330
747D
100
AcDbEntity
  8
部品1
100
AcDbLine
 10
4419.896575106995
 20
2273.834065208106
 30
0.0
 11
7469.896575107007
 21
2273.834065208134
 31
0.0
  0
LINE
  5
2DE32
330
747D
100
AcDbEntity
  8
細線
100
AcDbLine
 10
4479.896575106994
 20
4063.834065208114
 30
0.0
 11
7409.896575107009
 21
4063.83406520811
 31
0.0
  0
LINE
  5
2DE33
330
747D
100
AcDbEntity
  8
細線
100
AcDbLine
 10
6604.396575106986
 20
4063.83406520811
 30
0.0
 11
6604.396575106986
 21
2280.834065208118
 31
0.0
  0
LINE
  5
2DE34
330
747D
100
AcDbEntity
  8
細線
100
AcDbLine
 10
6534.396575106986
 20
4063.834065208111
 30
0.0
 11
6534.396575106986
 21
2280.834065208117
 31
0.0
  0
LINE
  5
2DE35
330
747D
100
AcDbEntity
  8
細線
100
AcDbLine
 10
6464.396575106985
 20
4063.834065208111
 30
0.0
 11
6464.396575106985
 21
2280.834065208117
 31
0.0
  0
LINE
  5
2DE36
330
747D
100
AcDbEntity
  8
細線
100
AcDbLine
 10
6394.396575106985
 20
4063.834065208111
 30
0.0
 11
6394.396575106985
 21
2280.834065208115
 31
0.0
  0
LINE
  5
2DE37
330
747D
100
AcDbEntity
  8
部品1
100
AcDbLine
 10
6105.896575106998
 20
4063.834065208114
 30
0.0
 11
6105.896575106999
 21
2280.834065208118
 31
0.0
  0
LINE
  5
2DE38
330
747D
100
AcDbEntity
  8
部品1
100
AcDbLine
 10
6055.896575106998
 20
4063.834065208114
 30
0.0
 11
6055.896575106999
 21
2280.834065208116
 31
0.0
  0
LINE
  5
2DE39
330
747D
100
AcDbEntity
  8
細線
100
AcDbLine
 10
6097.896575106997
 20
4063.834065208114
 30
0.0
 11
6097.896575106999
 21
2280.834065208118
 31
0.0
  0
LINE
  5
2DE3A
330
747D
100
AcDbEntity
  8
細線
100
AcDbLine
 10
6063.896575106998
 20
4063.834065208114
 30
0.0
 11
6063.896575106999
 21
2280.834065208116
 31
0.0
  0
LINE
  5
2DE3E
330
747D
100
AcDbEntity
  8
部品1
 48
50.0
100
AcDbLine
 10
5979.896575106999
 20
3237.334065208121
 30
0.0
 11
6032.896575106999
 21
3237.334065208123
 31
0.0
  0
ARC
  5
2DE58
330
747D
100
AcDbEntity
  8
部品1
 48
0.01
100
AcDbCircle
 10
6471.896575107003
 20
4104.334065208109
 30
0.0
 40
2.0
100
AcDbArc
 50
180.0
 51
270.0
  0
ARC
  5
2DE59
330
747D
100
AcDbEntity
  8
部品1
 48
0.01
100
AcDbCircle
 10
6471.896575107003
 20
4135.83406520811
 30
0.0
 40
2.0
100
AcDbArc
 50
90.0
 51
180.0
  0
ARC
  5
2DE5A
330
747D
100
AcDbEntity
  8
部品1
 48
0.01
100
AcDbCircle
 10
6647.896575107004
 20
4104.334065208109
 30
0.0
 40
2.0
100
AcDbArc
 50
270.0
 51
0.0
  0
ARC
  5
2DE5B
330
747D
100
AcDbEntity
  8
部品1
 48
0.01
100
AcDbCircle
 10
6647.896575107004
 20
4135.83406520811
 30
0.0
 40
2.0
100
AcDbArc
 50
0.0
 51
90.0
  0
LINE
  5
2DE5C
330
747D
100
AcDbEntity
  8
細線
100
AcDbLine
 10
6559.896575107003
 20
4108.33406520811
 30
0.0
 11
6485.896575107003
 21
4108.33406520811
 31
0.0
  0
LINE
  5
2DE5D
330
747D
100
AcDbEntity
  8
細線
100
AcDbLine
 10
6559.896575107003
 20
4131.334065208109
 30
0.0
 11
6633.896575107003
 21
4131.334065208109
 31
0.0
  0
LINE
  5
2DE5E
330
747D
100
AcDbEntity
  8
細線
100
AcDbLine
 10
6633.896575107003
 20
4108.33406520811
 30
0.0
 11
6559.896575107003
 21
4108.33406520811
 31
0.0
  0
LINE
  5
2DE5F
330
747D
100
AcDbEntity
  8
細線
100
AcDbLine
 10
6485.896575107003
 20
4131.334065208109
 30
0.0
 11
6559.896575107003
 21
4131.334065208109
 31
0.0
  0
LINE
  5
2DE60
330
747D
100
AcDbEntity
  8
細線
100
AcDbLine
 10
6485.896575107003
 20
4108.33406520811
 30
0.0
 11
6485.896575107003
 21
4131.334065208109
 31
0.0
  0
LINE
  5
2DE61
330
747D
100
AcDbEntity
  8
細線
100
AcDbLine
 10
6633.896575107003
 20
4131.334065208109
 30
0.0
 11
6633.896575107003
 21
4108.33406520811
 31
0.0
  0
LINE
  5
2DE62
330
747D
100
AcDbEntity
  8
部品1
 48
0.01
100
AcDbLine
 10
6469.896575107004
 20
4104.334065208109
 30
0.0
 11
6469.896575107004
 21
4135.83406520811
 31
0.0
  0
LINE
  5
2DE63
330
747D
100
AcDbEntity
  8
部品1
 48
0.01
100
AcDbLine
 10
6647.896575107004
 20
4102.334065208109
 30
0.0
 11
6471.896575107003
 21
4102.334065208109
 31
0.0
  0
LINE
  5
2DE64
330
747D
100
AcDbEntity
  8
部品1
 48
0.01
100
AcDbLine
 10
6649.896575107003
 20
4135.83406520811
 30
0.0
 11
6649.896575107003
 21
4104.334065208109
 31
0.0
  0
LINE
  5
2DE65
330
747D
100
AcDbEntity
  8
部品1
 48
0.01
100
AcDbLine
 10
6471.896575107003
 20
4137.834065208109
 30
0.0
 11
6647.896575107004
 21
4137.834065208109
 31
0.0
  0
LINE
  5
2DE66
330
747D
100
AcDbEntity
  8
細線
100
AcDbLine
 10
6633.896575107003
 20
4125.33406520811
 30
0.0
 11
6559.896575107003
 21
4125.33406520811
 31
0.0
  0
LINE
  5
2DE67
330
747D
100
AcDbEntity
  8
細線
100
AcDbLine
 10
6633.896575107003
 20
4119.33406520811
 30
0.0
 11
6559.896575107003
 21
4119.33406520811
 31
0.0
  0
LINE
  5
2DE68
330
747D
100
AcDbEntity
  8
細線
100
AcDbLine
 10
6633.896575107003
 20
4113.33406520811
 30
0.0
 11
6559.896575107003
 21
4113.33406520811
 31
0.0
  0
LINE
  5
2DE69
330
747D
100
AcDbEntity
  8
細線
100
AcDbLine
 10
6633.896575107003
 20
4125.33406520811
 30
0.0
 11
6564.896575107002
 21
4125.33406520811
 31
0.0
  0
LINE
  5
2DE6A
330
747D
100
AcDbEntity
  8
細線
100
AcDbLine
 10
6485.896575107003
 20
4125.33406520811
 30
0.0
 11
6559.896575107003
 21
4125.33406520811
 31
0.0
  0
LINE
  5
2DE6B
330
747D
100
AcDbEntity
  8
細線
100
AcDbLine
 10
6485.896575107003
 20
4113.33406520811
 30
0.0
 11
6559.896575107003
 21
4113.33406520811
 31
0.0
  0
LINE
  5
2DE6C
330
747D
100
AcDbEntity
  8
細線
100
AcDbLine
 10
6485.896575107003
 20
4119.33406520811
 30
0.0
 11
6559.896575107003
 21
4119.33406520811
 31
0.0
  0
LINE
  5
2DE6D
330
747D
100
AcDbEntity
  8
細線
100
AcDbLine
 10
6559.896575107003
 20
4131.334065208109
 30
0.0
 11
6559.896575107003
 21
4108.33406520811
 31
0.0
  0
LINE
  5
2DE6E
330
747D
100
AcDbEntity
  8
細線
100
AcDbLine
 10
5329.896575107003
 20
4131.334065208109
 30
0.0
 11
5329.896575107
 21
4108.33406520811
 31
0.0
  0
LINE
  5
2DE6F
330
747D
100
AcDbEntity
  8
細線
100
AcDbLine
 10
5403.896575107001
 20
4119.33406520811
 30
0.0
 11
5329.896575107003
 21
4119.33406520811
 31
0.0
  0
LINE
  5
2DE70
330
747D
100
AcDbEntity
  8
細線
100
AcDbLine
 10
5403.896575107001
 20
4113.33406520811
 30
0.0
 11
5329.896575107003
 21
4113.33406520811
 31
0.0
  0
LINE
  5
2DE71
330
747D
100
AcDbEntity
  8
細線
100
AcDbLine
 10
5403.896575107001
 20
4125.33406520811
 30
0.0
 11
5329.896575107003
 21
4125.33406520811
 31
0.0
  0
LINE
  5
2DE72
330
747D
100
AcDbEntity
  8
細線
100
AcDbLine
 10
5255.896575107002
 20
4125.33406520811
 30
0.0
 11
5324.896575107003
 21
4125.33406520811
 31
0.0
  0
LINE
  5
2DE73
330
747D
100
AcDbEntity
  8
細線
100
AcDbLine
 10
5255.896575107001
 20
4113.33406520811
 30
0.0
 11
5329.896575107003
 21
4113.33406520811
 31
0.0
  0
LINE
  5
2DE74
330
747D
100
AcDbEntity
  8
細線
100
AcDbLine
 10
5255.896575107002
 20
4119.33406520811
 30
0.0
 11
5329.896575107003
 21
4119.33406520811
 31
0.0
  0
LINE
  5
2DE75
330
747D
100
AcDbEntity
  8
細線
100
AcDbLine
 10
5255.896575107002
 20
4125.33406520811
 30
0.0
 11
5329.896575107003
 21
4125.33406520811
 31
0.0
  0
LINE
  5
2DE76
330
747D
100
AcDbEntity
  8
部品1
 48
0.01
100
AcDbLine
 10
5417.896575107003
 20
4137.834065208109
 30
0.0
 11
5241.896575107002
 21
4137.834065208109
 31
0.0
  0
LINE
  5
2DE77
330
747D
100
AcDbEntity
  8
部品1
 48
0.01
100
AcDbLine
 10
5239.896575107003
 20
4135.83406520811
 30
0.0
 11
5239.896575107003
 21
4104.334065208109
 31
0.0
  0
LINE
  5
2DE78
330
747D
100
AcDbEntity
  8
部品1
 48
0.01
100
AcDbLine
 10
5241.896575107002
 20
4102.334065208109
 30
0.0
 11
5417.896575107
 21
4102.334065208109
 31
0.0
  0
LINE
  5
2DE79
330
747D
100
AcDbEntity
  8
部品1
 48
0.01
100
AcDbLine
 10
5419.896575107001
 20
4104.334065208109
 30
0.0
 11
5419.896575107003
 21
4135.83406520811
 31
0.0
  0
LINE
  5
2DE7A
330
747D
100
AcDbEntity
  8
細線
100
AcDbLine
 10
5255.896575107002
 20
4131.334065208109
 30
0.0
 11
5255.896575107002
 21
4108.33406520811
 31
0.0
  0
LINE
  5
2DE7B
330
747D
100
AcDbEntity
  8
細線
100
AcDbLine
 10
5403.896575107003
 20
4108.33406520811
 30
0.0
 11
5403.896575107003
 21
4131.334065208109
 31
0.0
  0
LINE
  5
2DE7C
330
747D
100
AcDbEntity
  8
細線
100
AcDbLine
 10
5403.896575107003
 20
4131.334065208109
 30
0.0
 11
5329.896575107003
 21
4131.334065208109
 31
0.0
  0
LINE
  5
2DE7D
330
747D
100
AcDbEntity
  8
細線
100
AcDbLine
 10
5255.896575107002
 20
4108.33406520811
 30
0.0
 11
5329.896575107003
 21
4108.33406520811
 31
0.0
  0
LINE
  5
2DE7E
330
747D
100
AcDbEntity
  8
細線
100
AcDbLine
 10
5329.896575107003
 20
4131.334065208109
 30
0.0
 11
5255.896575107002
 21
4131.334065208109
 31
0.0
  0
LINE
  5
2DE7F
330
747D
100
AcDbEntity
  8
細線
100
AcDbLine
 10
5329.896575107
 20
4108.33406520811
 30
0.0
 11
5403.896575107003
 21
4108.33406520811
 31
0.0
  0
ARC
  5
2DE80
330
747D
100
AcDbEntity
  8
部品1
 48
0.01
100
AcDbCircle
 10
5241.896575107002
 20
4135.83406520811
 30
0.0
 40
2.0
100
AcDbArc
 50
90.0
 51
180.0
  0
ARC
  5
2DE81
330
747D
100
AcDbEntity
  8
部品1
 48
0.01
100
AcDbCircle
 10
5241.896575107002
 20
4104.334065208109
 30
0.0
 40
2.0
100
AcDbArc
 50
180.0
 51
270.0
  0
ARC
  5
2DE82
330
747D
100
AcDbEntity
  8
部品1
 48
0.01
100
AcDbCircle
 10
5417.896575107003
 20
4135.83406520811
 30
0.0
 40
2.0
100
AcDbArc
 50
0.0
 51
90.0
  0
ARC
  5
2DE83
330
747D
100
AcDbEntity
  8
部品1
 48
0.01
100
AcDbCircle
 10
5417.896575107
 20
4104.334065208109
 30
0.0
 40
2.0
100
AcDbArc
 50
270.0
 51
0.0
  0
LINE
  5
2DE84
330
747D
100
AcDbEntity
  8
部品1
 48
50.0
100
AcDbLine
 10
7512.488154000576
 20
4306.834065208113
 30
0.0
 11
4377.304996213426
 21
4306.834065208113
 31
0.0
  0
LINE
  5
2DE85
330
747D
100
AcDbEntity
  8
部品1
 48
50.0
100
AcDbLine
 10
7499.272830539542
 20
4165.834065208115
 30
0.0
 11
4390.520319674457
 21
4165.834065208115
 31
0.0
  0
LINE
  5
2DE86
330
747D
100
AcDbEntity
  8
細線
 48
50.0
100
AcDbLine
 10
7517.737924095093
 20
4278.807307771582
 30
0.0
 11
4372.055226118594
 21
4278.807307771953
 31
0.0
  0
LINE
  5
2DE87
330
747D
100
AcDbEntity
  8
細線
 48
50.0
100
AcDbLine
 10
7509.501893570249
 20
4186.607307771581
 30
0.0
 11
4380.291256643425
 21
4186.60730777195
 31
0.0
  0
LINE
  5
2DE88
330
747D
100
AcDbEntity
  8
部品1
100
AcDbLine
 10
7519.476914091675
 20
4299.437539812873
 30
0.0
 11
7518.34351675933
 21
4279.461411830275
 31
0.0
  0
LINE
  5
2DE89
330
747D
100
AcDbEntity
  8
細線
 48
50.0
100
AcDbLine
 10
7486.896575107009
 20
4306.834065208113
 30
0.0
 11
7486.896575107009
 21
4165.834065208113
 31
0.0
  0
LINE
  5
2DE8A
330
747D
100
AcDbEntity
  8
細線
 48
50.0
100
AcDbLine
 10
4402.896575106995
 20
4306.834065208115
 30
0.0
 11
4402.896575106995
 21
4165.834065208115
 31
0.0
  0
LINE
  5
2DE8B
330
747D
100
AcDbEntity
  8
部品1
100
AcDbLine
 10
7506.906496437753
 20
4183.804004663215
 30
0.0
 11
7506.26159063064
 21
4172.437539812875
 31
0.0
  0
LINE
  5
2DE8C
330
747D
100
AcDbEntity
  8
部品1
100
AcDbLine
 10
7515.142526962597
 20
4276.004004663216
 30
0.0
 11
7510.107486234486
 21
4187.261411830273
 31
0.0
  0
ARC
  5
2DE8D
330
747D
100
AcDbEntity
  8
部品1
 48
50.0
100
AcDbCircle
 10
7518.137709858783
 20
4275.834065208115
 30
0.0
 40
3.0
100
AcDbArc
 50
97.65812720741685
 51
176.7526572096653
  0
ARC
  5
2DE8E
330
747D
100
AcDbEntity
  8
部品1
 48
50.0
100
AcDbCircle
 10
7509.901679333939
 20
4183.634065208113
 30
0.0
 40
3.0
100
AcDbArc
 50
97.65812720736347
 51
176.7526572096653
  0
ARC
  5
2DE8F
330
747D
100
AcDbEntity
  8
部品1
 48
50.0
100
AcDbCircle
 10
7509.408610225378
 20
4187.301064369796
 30
0.0
 40
0.7
100
AcDbArc
 50
277.6581272073635
 51
356.7526572097173
  0
ARC
  5
2DE90
330
747D
100
AcDbEntity
  8
部品1
 48
50.0
100
AcDbCircle
 10
7517.644640750221
 20
4279.5010643698
 30
0.0
 40
0.7
100
AcDbArc
 50
277.6581272073635
 51
356.7526572096132
  0
ARC
  5
2DE91
330
747D
100
AcDbEntity
  8
部品1
100
AcDbCircle
 10
7499.272830539542
 20
4172.834065208115
 30
0.0
 40
7.0
100
AcDbArc
 50
270.0
 51
356.7526572096653
  0
ARC
  5
2DE92
330
747D
100
AcDbEntity
  8
部品1
100
AcDbCircle
 10
7512.488154000576
 20
4299.834065208113
 30
0.0
 40
7.0
100
AcDbArc
 50
356.7526572096653
 51
90.0
  0
ARC
  5
2DE93
330
747D
100
AcDbEntity
  8
部品1
100
AcDbCircle
 10
4377.304996213426
 20
4299.834065208115
 30
0.0
 40
7.0
100
AcDbArc
 50
90.0
 51
183.2473427903347
  0
ARC
  5
2DE94
330
747D
100
AcDbEntity
  8
部品1
100
AcDbCircle
 10
4390.520319674457
 20
4172.834065208117
 30
0.0
 40
7.0
100
AcDbArc
 50
183.2473427903347
 51
270.0
  0
ARC
  5
2DE95
330
747D
100
AcDbEntity
  8
部品1
 48
50.0
100
AcDbCircle
 10
4372.148509463782
 20
4279.501064369802
 30
0.0
 40
0.7
100
AcDbArc
 50
183.2473427903867
 51
262.3418727926365
  0
ARC
  5
2DE96
330
747D
100
AcDbEntity
  8
部品1
 48
50.0
100
AcDbCircle
 10
4380.384539988622
 20
4187.301064369798
 30
0.0
 40
0.7
100
AcDbArc
 50
183.2473427902827
 51
262.3418727926365
  0
ARC
  5
2DE97
330
747D
100
AcDbEntity
  8
部品1
 48
50.0
100
AcDbCircle
 10
4379.891470880061
 20
4183.634065208114
 30
0.0
 40
3.0
100
AcDbArc
 50
3.24734279033473
 51
82.34187279263654
  0
ARC
  5
2DE98
330
747D
100
AcDbEntity
  8
部品1
 48
50.0
100
AcDbCircle
 10
4371.655440355219
 20
4275.834065208117
 30
0.0
 40
3.0
100
AcDbArc
 50
3.24734279033473
 51
82.34187279258314
  0
LINE
  5
2DE99
330
747D
100
AcDbEntity
  8
部品1
100
AcDbLine
 10
4374.650623251403
 20
4276.004004663218
 30
0.0
 11
4379.685663979514
 21
4187.261411830276
 31
0.0
  0
LINE
  5
2DE9A
330
747D
100
AcDbEntity
  8
部品1
100
AcDbLine
 10
4382.88665377625
 20
4183.804004663218
 30
0.0
 11
4383.531559583359
 21
4172.437539812878
 31
0.0
  0
LINE
  5
2DE9B
330
747D
100
AcDbEntity
  8
部品1
100
AcDbLine
 10
4370.316236122326
 20
4299.437539812876
 30
0.0
 11
4371.449633454673
 21
4279.461411830276
 31
0.0
  0
LINE
  5
2DE9C
330
747D
100
AcDbEntity
  8
細線
100
AcDbLine
 10
6324.396575106986
 20
4063.834065208111
 30
0.0
 11
6324.396575106986
 21
2280.834065208115
 31
0.0
  0
LINE
  5
2DE9D
330
747D
100
AcDbEntity
  8
細線
100
AcDbLine
 10
6254.396575106985
 20
4063.834065208111
 30
0.0
 11
6254.396575106985
 21
2280.834065208115
 31
0.0
  0
LINE
  5
2DFA6
330
747D
100
AcDbEntity
  8
部品1
 48
50.0
100
AcDbLine
 10
9554.728445172433
 20
4071.834065208109
 30
0.0
 11
12604.72844517243
 21
4071.834065208109
 31
0.0
  0
MTEXT
  5
2E01B
330
747D
100
AcDbEntity
  8
寸法
 62
     7
 48
50.0
100
AcDbMText
 10
6708.171403115016
 20
9845.7508109312
 30
0.0
 40
96.0
 41
0.0
 71
     5
 72
     1
  1
棚 2段
  7
STYLE1
 73
     1
 44
1.0
1001
ACAD
1000
MTEXTBEGIN
1070
    73
1070
     1
1070
    44
1040
1.0
1070
    74
1070
     0
1000
MTEXTEND
  0
LWPOLYLINE
  5
2E083
330
747D
100
AcDbEntity
  8
部品1
 48
50.0
100
AcDbPolyline
 90
        4
 70
     1
 43
0.0
 10
6004.946575106998
 20
3152.084065208122
 10
6007.846575107
 20
3152.084065208122
 10
6007.846575107
 20
3161.584065208122
 10
6004.946575106998
 20
3161.584065208122
  0
CIRCLE
  5
2E084
330
747D
100
AcDbEntity
  8
部品1
 48
50.0
100
AcDbCircle
 10
6006.396575106999
 20
3156.834065208122
 30
0.0
 40
9.0
  0
ARC
  5
2E085
330
747D
100
AcDbEntity
  8
細線
 48
50.0
100
AcDbCircle
 10
6006.396575106999
 20
3156.834065208122
 30
0.0
 40
4.0
100
AcDbArc
 50
111.2538091853132
 51
248.7461908146868
  0
ARC
  5
2E086
330
747D
100
AcDbEntity
  8
細線
 48
50.0
100
AcDbCircle
 10
6006.396575106999
 20
3156.834065208122
 30
0.0
 40
17.5
100
AcDbArc
 50
306.4837370612677
 51
233.5162629387323
  0
LINE
  5
2E087
330
747D
100
AcDbEntity
  8
細線
 48
50.0
100
AcDbLine
 10
6016.396575106995
 20
3132.975104627239
 30
0.0
 11
6016.396575106999
 21
3141.959590427481
 31
0.0
  0
LINE
  5
2E088
330
747D
100
AcDbEntity
  8
細線
 48
50.0
100
AcDbLine
 10
5996.396575106999
 20
3132.975104627241
 30
0.0
 11
5996.396575106999
 21
3141.959590427477
 31
0.0
  0
ARC
  5
2E089
330
747D
100
AcDbEntity
  8
細線
 48
50.0
100
AcDbCircle
 10
6006.396575106999
 20
3156.834065208122
 30
0.0
 40
26.5
100
AcDbArc
 50
249.3326835063939
 51
290.6673164933835
  0
ARC
  5
2E08A
330
747D
100
AcDbEntity
  8
細線
 48
50.0
100
AcDbCircle
 10
6015.396575106992
 20
3132.975104627239
 30
0.0
 40
1.0
100
AcDbArc
 50
290.6673164936062
 51
359.9999999998958
  0
ARC
  5
2E08B
330
747D
100
AcDbEntity
  8
細線
 48
50.0
100
AcDbCircle
 10
5997.396575106999
 20
3132.975104627241
 30
0.0
 40
1.0
100
AcDbArc
 50
180.0
 51
249.3326835066164
  0
ARC
  5
2E08C
330
747D
100
AcDbEntity
  8
細線
 48
50.0
100
AcDbCircle
 10
5995.396575106999
 20
3141.959590427477
 30
0.0
 40
1.0
100
AcDbArc
 50
0.0
 51
53.51626293873231
  0
ARC
  5
2E08D
330
747D
100
AcDbEntity
  8
細線
 48
50.0
100
AcDbCircle
 10
6017.396575107003
 20
3141.959590427481
 30
0.0
 40
1.0
100
AcDbArc
 50
126.4837370615127
 51
180.0
  0
ARC
  5
2E08E
330
747D
100
AcDbEntity
  8
細線
 48
50.0
100
AcDbCircle
 10
6006.396575106999
 20
3156.834065208122
 30
0.0
 40
21.5
100
AcDbArc
 50
255.8014401250294
 51
284.1985598749706
  0
ARC
  5
2E08F
330
747D
100
AcDbEntity
  8
細線
 48
50.0
100
AcDbCircle
 10
6006.396575106999
 20
3156.834065208122
 30
0.0
 40
16.5
100
AcDbArc
 50
251.9694646069326
 51
288.0305353930674
  0
LINE
  5
2E090
330
747D
100
AcDbEntity
  8
細線
 48
50.0
100
AcDbLine
 10
6011.896575106999
 20
3136.281693082315
 30
0.0
 11
6011.896575106999
 21
3140.859084769652
 31
0.0
  0
LINE
  5
2E091
330
747D
100
AcDbEntity
  8
細線
 48
50.0
100
AcDbLine
 10
6000.896575106999
 20
3136.281693082315
 30
0.0
 11
6000.896575106999
 21
3140.85908476965
 31
0.0
  0
ARC
  5
2E092
330
747D
100
AcDbEntity
  8
細線
 48
50.0
100
AcDbCircle
 10
6001.196575107002
 20
3140.85908476965
 30
0.0
 40
0.3
100
AcDbArc
 50
71.96946460693259
 51
180.0
  0
ARC
  5
2E093
330
747D
100
AcDbEntity
  8
細線
 48
50.0
100
AcDbCircle
 10
6011.596575107
 20
3140.859084769652
 30
0.0
 40
0.3
100
AcDbArc
 50
0.0
 51
108.0305353930674
  0
ARC
  5
2E094
330
747D
100
AcDbEntity
  8
細線
 48
50.0
100
AcDbCircle
 10
6011.596575106996
 20
3136.281693082315
 30
0.0
 40
0.3
100
AcDbArc
 50
284.1985598747622
 51
0.0000000001042204
  0
ARC
  5
2E095
330
747D
100
AcDbEntity
  8
細線
 48
50.0
100
AcDbCircle
 10
6001.196575107002
 20
3136.281693082315
 30
0.0
 40
0.3
100
AcDbArc
 50
180.0
 51
255.8014401248081
  0
CIRCLE
  5
2E096
330
747D
100
AcDbEntity
  8
細線
 48
50.0
100
AcDbCircle
 10
6006.396575106999
 20
3156.834065208122
 30
0.0
 40
12.0
  0
ARC
  5
2E097
330
747D
100
AcDbEntity
  8
部品1
 48
50.0
100
AcDbCircle
 10
6006.396575106999
 20
3206.834065208122
 30
0.0
 40
8.5
100
AcDbArc
 50
114.315739171091
 51
245.684260828909
  0
CIRCLE
  5
2E098
330
747D
100
AcDbEntity
  8
細線
 48
50.0
100
AcDbCircle
 10
6006.396575106999
 20
3206.834065208122
 30
0.0
 40
4.5
  0
LWPOLYLINE
  5
2E099
330
747D
100
AcDbEntity
  8
部品1
 48
50.0
100
AcDbPolyline
 90
        2
 70
     0
 43
0.0
 10
6002.896575106999
 20
3225.508914605105
 10
6002.896575106999
 20
3214.580031900537
  0
CIRCLE
  5
2E09A
330
747D
100
AcDbEntity
  8
部品1
 48
50.0
100
AcDbCircle
 10
6006.396575106999
 20
3206.834065208122
 30
0.0
 40
19.0
  0
LWPOLYLINE
  5
2E09B
330
747D
100
AcDbEntity
  8
部品1
 48
50.0
100
AcDbPolyline
 90
        2
 70
     0
 43
0.0
 10
6002.896575106999
 20
3199.088098515707
 10
6002.896575106999
 20
3188.15921581114
  0
LWPOLYLINE
  5
2E09C
330
747D
100
AcDbEntity
  8
部品1
 48
50.0
100
AcDbPolyline
 90
        2
 70
     0
 43
0.0
 10
6009.896575106999
 20
3214.580031900537
 10
6009.896575106999
 20
3225.508914605105
  0
ARC
  5
2E09D
330
747D
100
AcDbEntity
  8
部品1
 48
50.0
100
AcDbCircle
 10
6006.396575106999
 20
3206.834065208122
 30
0.0
 40
8.5
100
AcDbArc
 50
294.315739171091
 51
65.68426082890896
  0
LWPOLYLINE
  5
2E09E
330
747D
100
AcDbEntity
  8
部品1
 48
50.0
100
AcDbPolyline
 90
        2
 70
     0
 43
0.0
 10
6009.896575106999
 20
3188.15921581114
 10
6009.896575106999
 20
3199.088098515707
  0
ARC
  5
2E09F
330
747D
100
AcDbEntity
  8
細線
 48
50.0
100
AcDbCircle
 10
6006.396575106999
 20
3206.834065208122
 30
0.0
 40
16.5
100
AcDbArc
 50
332.0012352654438
 51
27.99876473455621
  0
ARC
  5
2E0A0
330
747D
100
AcDbEntity
  8
細線
 48
50.0
100
AcDbCircle
 10
6006.396575106999
 20
3206.834065208122
 30
0.0
 40
14.0
100
AcDbArc
 50
326.4074436112986
 51
33.59255638870134
  0
LINE
  5
2E0A1
330
747D
100
AcDbEntity
  8
細線
 48
50.0
100
AcDbLine
 10
5991.827772822667
 20
3214.580031900537
 30
0.0
 11
5994.73467131731
 21
3214.580031900537
 31
0.0
  0
LINE
  5
2E0A2
330
747D
100
AcDbEntity
  8
細線
 48
50.0
100
AcDbLine
 10
5991.827772822667
 20
3199.088098515707
 30
0.0
 11
5994.73467131731
 21
3199.088098515707
 31
0.0
  0
LINE
  5
2E0A3
330
747D
100
AcDbEntity
  8
細線
 48
50.0
100
AcDbLine
 10
6018.058478896688
 20
3214.580031900537
 30
0.0
 11
6020.965377391334
 21
3214.580031900537
 31
0.0
  0
LINE
  5
2E0A4
330
747D
100
AcDbEntity
  8
細線
 48
50.0
100
AcDbLine
 10
6018.058478896688
 20
3199.088098515707
 30
0.0
 11
6020.965377391334
 21
3199.088098515707
 31
0.0
  0
ARC
  5
2E0A5
330
747D
100
AcDbEntity
  8
細線
 48
50.0
100
AcDbCircle
 10
6006.396575106999
 20
3206.834065208122
 30
0.0
 40
14.0
100
AcDbArc
 50
146.4074436112986
 51
213.5925563887013
  0
ARC
  5
2E0A6
330
747D
100
AcDbEntity
  8
細線
 48
50.0
100
AcDbCircle
 10
6006.396575106999
 20
3206.834065208122
 30
0.0
 40
16.5
100
AcDbArc
 50
152.0012352654438
 51
207.9987647345562
  0
ARC
  5
2E0A7
330
747D
100
AcDbEntity
  8
部品1
 48
50.0
100
AcDbCircle
 10
5979.896575106999
 20
3232.334065208122
 30
0.0
 40
5.0
100
AcDbArc
 50
90.0
 51
180.0
  0
ARC
  5
2E0A8
330
747D
100
AcDbEntity
  8
部品1
 48
50.0
100
AcDbCircle
 10
5979.896575106999
 20
3121.334065208122
 30
0.0
 40
5.0
100
AcDbArc
 50
180.0
 51
270.0
  0
ARC
  5
2E0A9
330
747D
100
AcDbEntity
  8
部品1
 48
50.0
100
AcDbCircle
 10
6032.896575106999
 20
3121.334065208122
 30
0.0
 40
5.0
100
AcDbArc
 50
270.0
 51
0.0
  0
ARC
  5
2E0AA
330
747D
100
AcDbEntity
  8
部品1
 48
50.0
100
AcDbCircle
 10
6032.896575106999
 20
3232.334065208122
 30
0.0
 40
5.0
100
AcDbArc
 50
0.0
 51
90.0
  0
LINE
  5
2E0AB
330
747D
100
AcDbEntity
  8
部品1
 48
50.0
100
AcDbLine
 10
5974.896575106999
 20
3121.334065208122
 30
0.0
 11
5974.896575106999
 21
3232.334065208122
 31
0.0
  0
LINE
  5
2E0AC
330
747D
100
AcDbEntity
  8
部品1
 48
50.0
100
AcDbLine
 10
6032.896575106999
 20
3116.334065208122
 30
0.0
 11
5979.896575106999
 21
3116.334065208122
 31
0.0
  0
LINE
  5
2E0AD
330
747D
100
AcDbEntity
  8
部品1
 48
50.0
100
AcDbLine
 10
6037.896575106999
 20
3232.334065208122
 30
0.0
 11
6037.896575106999
 21
3121.334065208122
 31
0.0
  0
ENDSEC
  0
SECTION
  2
OBJECTS
  0
DICTIONARY
  5
7471
330
0
100
AcDbDictionary
281
     1
  3
ACAD_COLOR
350
159B0
  3
ACAD_GROUP
350
7472
  3
ACAD_LAYOUT
350
159B1
  3
ACAD_MATERIAL
350
159AF
  3
ACAD_MLINESTYLE
350
7473
  3
ACAD_PLOTSETTINGS
350
159B2
  3
ACAD_PLOTSTYLENAME
350
159AD
  3
ACDBHEADERROUNDTRIPXREC
350
2E0BC
  3
AcDbVariableDictionary
350
2E0B8
  3
CONTENTDICTIONARY
350
E71C
  3
DRAWINGVARIABLESDICT
350
F3B9
  0
DICTIONARY
  5
1FFA9
330
7467
100
AcDbDictionary
280
     1
281
     1
  3
ACAD_LAYERSTATES
360
1FFAA
  0
DICTIONARY
  5
159B0
102
{ACAD_REACTORS
330
7471
102
}
330
7471
100
AcDbDictionary
281
     1
  0
DICTIONARY
  5
7472
102
{ACAD_REACTORS
330
7471
102
}
330
7471
100
AcDbDictionary
281
     1
  0
DICTIONARY
  5
159B1
102
{ACAD_REACTORS
330
7471
102
}
330
7471
100
AcDbDictionary
281
     1
  3
Model
350
159B3
  3
レイアウト1
350
159B4
  0
DICTIONARY
  5
159AF
102
{ACAD_REACTORS
330
7471
102
}
330
7471
100
AcDbDictionary
281
     1
  0
DICTIONARY
  5
7473
102
{ACAD_REACTORS
330
7471
102
}
330
7471
100
AcDbDictionary
281
     1
  3
STANDARD
350
7480
  0
DICTIONARY
  5
159B2
102
{ACAD_REACTORS
330
7471
102
}
330
7471
100
AcDbDictionary
281
     1
  0
ACDBDICTIONARYWDFLT
  5
159AD
102
{ACAD_REACTORS
330
7471
102
}
330
7471
100
AcDbDictionary
281
     1
  3
Normal
350
159AE
100
AcDbDictionaryWithDefault
340
159AE
  0
DICTIONARY
  5
2E0BC
102
{ACAD_REACTORS
330
7471
102
}
330
7471
100
AcDbDictionary
281
     1
  3
COLORDICT
350
2E0BE
  3
MATERIALDICT
350
2E0BD
  0
DICTIONARY
  5
2E0B8
102
{ACAD_REACTORS
330
7471
102
}
330
7471
100
AcDbDictionary
281
     1
  3
DIMASSOC
350
2E0B9
  3
PROJECTNAME
350
2E0BA
  0
DICTIONARY
  5
E71C
102
{ACAD_REACTORS
330
7471
102
}
330
7471
100
AcDbDictionary
281
     1
  0
DICTIONARY
  5
F3B9
102
{ACAD_REACTORS
330
7471
102
}
330
7471
100
AcDbDictionary
281
     1
1001
DRAWINGVARIABLESXDATA
1000
POLARMODE
1000
1
  0
DICTIONARY
  5
1FFAA
102
{ACAD_REACTORS
330
1FFA9
102
}
330
1FFA9
100
AcDbDictionary
281
     1
  0
LAYOUT
  5
159B3
102
{ACAD_XDICTIONARY
360
2E0BF
102
}
102
{ACAD_REACTORS
330
159B1
102
}
330
159B1
100
AcDbPlotSettings
  1

  2
none_device
  4
Letter_(8.50_x_11.00_Inches)
  6

 40
6.349999904632568
 41
6.349999904632568
 42
6.350006103515625
 43
6.350006103515625
 44
215.8999938964844
 45
279.3999938964844
 46
0.0
 47
0.0
 48
0.0
 49
0.0
140
0.0
141
0.0
142
1.0
143
1.0
 70
 11952
 72
     1
 73
     1
 74
     0
  7

 75
     0
147
1.0
148
-4149.571981164617
149
65.56433826894044
100
AcDbLayout
  1
Model
 70
     1
 71
     0
 10
0.0
 20
0.0
 11
12.0
 21
9.0
 12
0.0
 22
0.0
 32
0.0
 14
0.0
 24
0.0
 34
0.0
 15
0.0
 25
0.0
 35
0.0
146
0.0
 13
0.0
 23
0.0
 33
0.0
 16
1.0
 26
0.0
 36
0.0
 17
0.0
 27
1.0
 37
0.0
 76
     0
330
747D
  0
LAYOUT
  5
159B4
102
{ACAD_XDICTIONARY
360
2E0C1
102
}
102
{ACAD_REACTORS
330
159B1
102
}
330
159B1
100
AcDbPlotSettings
  1

  2
自動 EPSON LP-8400FX (TATENO 上)
  4

  6

 40
0.0
 41
0.0
 42
0.0
 43
0.0
 44
0.0
 45
0.0
 46
0.0
 47
0.0
 48
0.0
 49
0.0
140
0.0
141
0.0
142
1.0
143
1.0
 70
   688
 72
     0
 73
     0
 74
     5
  7
inaba.ctb
 75
    16
147
1.0
148
0.0
149
0.0
100
AcDbLayout
  1
レイアウト1
 70
     0
 71
     1
 10
0.0
 20
0.0
 11
420.0
 21
297.0
 12
0.0
 22
0.0
 32
0.0
 14
1.000000000000000E+20
 24
1.000000000000000E+20
 34
1.000000000000000E+20
 15
-1.000000000000000E+20
 25
-1.000000000000000E+20
 35
-1.000000000000000E+20
146
0.0
 13
0.0
 23
0.0
 33
0.0
 16
1.0
 26
0.0
 36
0.0
 17
0.0
 27
1.0
 37
0.0
 76
     0
330
747A
  0
MLINESTYLE
  5
7480
102
{ACAD_REACTORS
330
7473
102
}
330
7473
100
AcDbMlineStyle
  2
STANDARD
 70
     0
  3

 62
     0
 51
90.0
 52
90.0
 71
     2
 49
0.5
 62
   256
  6
BYLAYER
 49
-0.5
 62
   256
  6
BYLAYER
  0
ACDBPLACEHOLDER
  5
159AE
102
{ACAD_REACTORS
330
159AD
102
}
330
159AD
  0
XRECORD
  5
2E0BE
102
{ACAD_REACTORS
330
2E0BC
102
}
330
2E0BC
100
AcDbXrecord
280
     1
340
159B0
  0
XRECORD
  5
2E0BD
102
{ACAD_REACTORS
330
2E0BC
102
}
330
2E0BC
100
AcDbXrecord
280
     1
340
159AF
  0
DICTIONARYVAR
  5
2E0B9
102
{ACAD_REACTORS
330
2E0B8
102
}
330
2E0B8
100
DictionaryVariables
280
     0
  1
1
  0
DICTIONARYVAR
  5
2E0BA
102
{ACAD_REACTORS
330
2E0B8
102
}
330
2E0B8
100
DictionaryVariables
280
     0
  1

  0
DICTIONARY
  5
2E0BF
330
159B3
100
AcDbDictionary
280
     1
281
     1
  3
ACAD_XREC_ROUNDTRIP
360
2E0C0
  0
DICTIONARY
  5
2E0C1
330
159B4
100
AcDbDictionary
280
     1
281
     1
  3
ACAD_XREC_ROUNDTRIP
360
2E0C2
  0
XRECORD
  5
2E0C0
102
{ACAD_REACTORS
330
2E0BF
102
}
330
2E0BF
100
AcDbXrecord
280
     1
102
SHADEPLOT
 70
     0
102
SHADEPLOTRESLEVEL
 70
     2
102
SHADEPLOTCUSTOMDPI
 70
   300
  0
XRECORD
  5
2E0C2
102
{ACAD_REACTORS
330
2E0C1
102
}
330
2E0C1
100
AcDbXrecord
280
     1
102
SHADEPLOT
 70
     0
102
SHADEPLOTRESLEVEL
 70
     2
102
SHADEPLOTCUSTOMDPI
 70
   300
  0
ENDSEC
  0
EOF
