  0
SECTION
  2
HEADER
  9
$ACADVER
  1
AC1015
  9
$ACADMAINTVER
 70
    20
  9
$DWGCODEPAGE
  3
ANSI_932
  9
$INSBASE
 10
0.0
 20
0.0
 30
0.0
  9
$EXTMIN
 10
139.9999999999995
 20
-0.0000000000000909
 30
0.0
  9
$EXTMAX
 10
16307.2
 20
11409.6
 30
0.0
  9
$LIMMIN
 10
0.0
 20
0.0
  9
$LIMMAX
 10
16800.0
 20
11880.0
  9
$ORTHOMODE
 70
     0
  9
$REGENMODE
 70
     1
  9
$FILLMODE
 70
     1
  9
$QTEXTMODE
 70
     0
  9
$MIRRTEXT
 70
     1
  9
$LTSCALE
 40
20.0
  9
$ATTMODE
 70
     1
  9
$TEXTSIZE
 40
4.0
  9
$TRACEWID
 40
1.0
  9
$TEXTSTYLE
  7
STYLE1
  9
$CLAYER
  8
寸法
  9
$CELTYPE
  6
BYLAYER
  9
$CECOLOR
 62
   256
  9
$CELTSCALE
 40
50.0
  9
$DISPSILH
 70
     0
  9
$DIMSCALE
 40
40.0
  9
$DIMASZ
 40
2.5
  9
$DIMEXO
 40
0.5
  9
$DIMDLI
 40
7.0
  9
$DIMRND
 40
0.0
  9
$DIMDLE
 40
0.0
  9
$DIMEXE
 40
1.5
  9
$DIMTP
 40
0.0
  9
$DIMTM
 40
0.0
  9
$DIMTXT
 40
3.0
  9
$DIMCEN
 40
0.0
  9
$DIMTSZ
 40
0.0
  9
$DIMTOL
 70
     0
  9
$DIMLIM
 70
     0
  9
$DIMTIH
 70
     0
  9
$DIMTOH
 70
     0
  9
$DIMSE1
 70
     0
  9
$DIMSE2
 70
     0
  9
$DIMTAD
 70
     3
  9
$DIMZIN
 70
     8
  9
$DIMBLK
  1

  9
$DIMASO
 70
     1
  9
$DIMSHO
 70
     1
  9
$DIMPOST
  1

  9
$DIMAPOST
  1

  9
$DIMALT
 70
     0
  9
$DIMALTD
 70
     2
  9
$DIMALTF
 40
0.0394
  9
$DIMLFAC
 40
1.0
  9
$DIMTOFL
 70
     1
  9
$DIMTVP
 40
0.0
  9
$DIMTIX
 70
     1
  9
$DIMSOXD
 70
     0
  9
$DIMSAH
 70
     1
  9
$DIMBLK1
  1
DOTSMALL
  9
$DIMBLK2
  1
DOTSMALL
  9
$DIMSTYLE
  2
INABA_S40G
  9
$DIMCLRD
 70
     0
  9
$DIMCLRE
 70
     0
  9
$DIMCLRT
 70
     7
  9
$DIMTFAC
 40
1.0
  9
$DIMGAP
 40
1.0
  9
$DIMJUST
 70
     0
  9
$DIMSD1
 70
     0
  9
$DIMSD2
 70
     0
  9
$DIMTOLJ
 70
     1
  9
$DIMTZIN
 70
     0
  9
$DIMALTZ
 70
     0
  9
$DIMALTTZ
 70
     0
  9
$DIMUPT
 70
     1
  9
$DIMDEC
 70
     1
  9
$DIMTDEC
 70
     4
  9
$DIMALTU
 70
     2
  9
$DIMALTTD
 70
     2
  9
$DIMTXSTY
  7
STYLE1
  9
$DIMAUNIT
 70
     0
  9
$DIMADEC
 70
     0
  9
$DIMALTRND
 40
0.0
  9
$DIMAZIN
 70
     0
  9
$DIMDSEP
 70
    46
  9
$DIMATFIT
 70
     3
  9
$DIMFRAC
 70
     0
  9
$DIMLDRBLK
  1

  9
$DIMLUNIT
 70
     2
  9
$DIMLWD
 70
    -2
  9
$DIMLWE
 70
    -2
  9
$DIMTMOVE
 70
     0
  9
$LUNITS
 70
     2
  9
$LUPREC
 70
     1
  9
$SKETCHINC
 40
1.0
  9
$FILLETRAD
 40
3.0
  9
$AUNITS
 70
     0
  9
$AUPREC
 70
     0
  9
$MENU
  1
acad
  9
$ELEVATION
 40
0.0
  9
$PELEVATION
 40
0.0
  9
$THICKNESS
 40
0.0
  9
$LIMCHECK
 70
     0
  9
$CHAMFERA
 40
0.0
  9
$CHAMFERB
 40
0.0
  9
$CHAMFERC
 40
0.0
  9
$CHAMFERD
 40
0.0
  9
$SKPOLY
 70
     0
  9
$TDCREATE
 40
2451368.612993866
  9
$TDUCREATE
 40
2451368.237993866
  9
$TDUPDATE
 40
2455575.701950047
  9
$TDUUPDATE
 40
2455575.326950046
  9
$TDINDWG
 40
0.6859848148
  9
$TDUSRTIMER
 40
0.6859848148
  9
$USRTIMER
 70
     1
  9
$ANGBASE
 50
0.0
  9
$ANGDIR
 70
     0
  9
$PDMODE
 70
     3
  9
$PDSIZE
 40
2.0
  9
$PLINEWID
 40
0.0
  9
$SPLFRAME
 70
     0
  9
$SPLINETYPE
 70
     6
  9
$SPLINESEGS
 70
     8
  9
$HANDSEED
  5
1ADEE
  9
$SURFTAB1
 70
     6
  9
$SURFTAB2
 70
     6
  9
$SURFTYPE
 70
     6
  9
$SURFU
 70
     6
  9
$SURFV
 70
     6
  9
$UCSBASE
  2

  9
$UCSNAME
  2

  9
$UCSORG
 10
0.0
 20
0.0
 30
0.0
  9
$UCSXDIR
 10
1.0
 20
0.0
 30
0.0
  9
$UCSYDIR
 10
0.0
 20
1.0
 30
0.0
  9
$UCSORTHOREF
  2

  9
$UCSORTHOVIEW
 70
     0
  9
$UCSORGTOP
 10
0.0
 20
0.0
 30
0.0
  9
$UCSORGBOTTOM
 10
0.0
 20
0.0
 30
0.0
  9
$UCSORGLEFT
 10
0.0
 20
0.0
 30
0.0
  9
$UCSORGRIGHT
 10
0.0
 20
0.0
 30
0.0
  9
$UCSORGFRONT
 10
0.0
 20
0.0
 30
0.0
  9
$UCSORGBACK
 10
0.0
 20
0.0
 30
0.0
  9
$PUCSBASE
  2

  9
$PUCSNAME
  2

  9
$PUCSORG
 10
0.0
 20
0.0
 30
0.0
  9
$PUCSXDIR
 10
1.0
 20
0.0
 30
0.0
  9
$PUCSYDIR
 10
0.0
 20
1.0
 30
0.0
  9
$PUCSORTHOREF
  2

  9
$PUCSORTHOVIEW
 70
     0
  9
$PUCSORGTOP
 10
0.0
 20
0.0
 30
0.0
  9
$PUCSORGBOTTOM
 10
0.0
 20
0.0
 30
0.0
  9
$PUCSORGLEFT
 10
0.0
 20
0.0
 30
0.0
  9
$PUCSORGRIGHT
 10
0.0
 20
0.0
 30
0.0
  9
$PUCSORGFRONT
 10
0.0
 20
0.0
 30
0.0
  9
$PUCSORGBACK
 10
0.0
 20
0.0
 30
0.0
  9
$USERI1
 70
     0
  9
$USERI2
 70
     0
  9
$USERI3
 70
     0
  9
$USERI4
 70
     0
  9
$USERI5
 70
     0
  9
$USERR1
 40
0.0
  9
$USERR2
 40
0.0
  9
$USERR3
 40
0.0
  9
$USERR4
 40
0.0
  9
$USERR5
 40
0.0
  9
$WORLDVIEW
 70
     1
  9
$SHADEDGE
 70
     3
  9
$SHADEDIF
 70
    70
  9
$TILEMODE
 70
     1
  9
$MAXACTVP
 70
    16
  9
$PINSBASE
 10
0.0
 20
0.0
 30
0.0
  9
$PLIMCHECK
 70
     0
  9
$PEXTMIN
 10
1.000000000000000E+20
 20
1.000000000000000E+20
 30
1.000000000000000E+20
  9
$PEXTMAX
 10
-1.000000000000000E+20
 20
-1.000000000000000E+20
 30
-1.000000000000000E+20
  9
$PLIMMIN
 10
0.0
 20
0.0
  9
$PLIMMAX
 10
420.0
 20
297.0
  9
$UNITMODE
 70
     0
  9
$VISRETAIN
 70
     0
  9
$PLINEGEN
 70
     0
  9
$PSLTSCALE
 70
     0
  9
$TREEDEPTH
 70
  3020
  9
$CMLSTYLE
  2
STANDARD
  9
$CMLJUST
 70
     0
  9
$CMLSCALE
 40
1.0
  9
$PROXYGRAPHICS
 70
     1
  9
$MEASUREMENT
 70
     1
  9
$CELWEIGHT
370
    -1
  9
$ENDCAPS
280
     0
  9
$JOINSTYLE
280
     0
  9
$LWDISPLAY
290
     0
  9
$INSUNITS
 70
     0
  9
$HYPERLINKBASE
  1

  9
$STYLESHEET
  1

  9
$XEDIT
290
     1
  9
$CEPSNTYPE
380
     0
  9
$PSTYLEMODE
290
     1
  9
$FINGERPRINTGUID
  2
{2123AE13-43C7-4A5F-8E2F-6C58BF9B051B}
  9
$VERSIONGUID
  2
{ABC8028E-707F-459D-90C5-52113C726F73}
  9
$EXTNAMES
290
     1
  9
$PSVPSCALE
 40
0.0
  9
$OLESTARTUP
290
     0
  0
ENDSEC
  0
SECTION
  2
CLASSES
  0
CLASS
  1
ACDBDICTIONARYWDFLT
  2
AcDbDictionaryWithDefault
  3
ObjectDBX Classes
 90
        0
280
     0
281
     0
  0
CLASS
  1
DICTIONARYVAR
  2
AcDbDictionaryVar
  3
ObjectDBX Classes
 90
        0
280
     0
281
     0
  0
CLASS
  1
ACDBPLACEHOLDER
  2
AcDbPlaceHolder
  3
ObjectDBX Classes
 90
        0
280
     0
281
     0
  0
CLASS
  1
LAYOUT
  2
AcDbLayout
  3
ObjectDBX Classes
 90
        0
280
     0
281
     0
  0
ENDSEC
  0
SECTION
  2
TABLES
  0
TABLE
  2
VPORT
  5
746D
330
0
100
AcDbSymbolTable
 70
     2
  0
VPORT
  5
1ADE6
330
746D
100
AcDbSymbolTableRecord
100
AcDbViewportTableRecord
  2
*Active
 70
     0
 10
0.0
 20
0.0
 11
1.0
 21
1.0
 12
8223.761025238502
 22
6348.703162895247
 13
0.0
 23
0.0
 14
10.0
 24
10.0
 15
10.0
 25
10.0
 16
0.0
 26
0.0
 36
1.0
 17
0.0
 27
0.0
 37
0.0
 40
12805.60689082044
 41
1.525925925925925
 42
50.0
 43
0.0
 44
0.0
 50
0.0
 51
0.0
 71
     0
 72
     0
 73
     1
 74
     0
 75
     0
 76
     0
 77
     0
 78
     0
281
     0
 65
     1
110
0.0
120
0.0
130
0.0
111
1.0
121
0.0
131
0.0
112
0.0
122
1.0
132
0.0
 79
     0
146
0.0
  0
ENDTAB
  0
TABLE
  2
LTYPE
  5
746A
330
0
100
AcDbSymbolTable
 70
     5
  0
LTYPE
  5
7477
330
746A
100
AcDbSymbolTableRecord
100
AcDbLinetypeTableRecord
  2
BYBLOCK
 70
     0
  3

 72
    65
 73
     0
 40
0.0
  0
LTYPE
  5
7478
330
746A
100
AcDbSymbolTableRecord
100
AcDbLinetypeTableRecord
  2
BYLAYER
 70
     0
  3

 72
    65
 73
     0
 40
0.0
  0
LTYPE
  5
7479
330
746A
100
AcDbSymbolTableRecord
100
AcDbLinetypeTableRecord
  2
CONTINUOUS
 70
     0
  3
Solid line
 72
    65
 73
     0
 40
0.0
  0
LTYPE
  5
7816
330
746A
100
AcDbSymbolTableRecord
100
AcDbLinetypeTableRecord
  2
CENTER
 70
     0
  3
____ _ ____ _ ____ _ ____ _ ____ _ ____ _ ____ 
 72
    65
 73
     4
 40
2.0
 49
1.25
 74
     0
 49
-0.25
 74
     0
 49
0.25
 74
     0
 49
-0.25
 74
     0
  0
LTYPE
  5
781A
330
746A
100
AcDbSymbolTableRecord
100
AcDbLinetypeTableRecord
  2
HIDDEN
 70
     0
  3
__ __ __ __ __ __ __ __ __ __ __ __ __ __ __ __
 72
    65
 73
     2
 40
0.375
 49
0.25
 74
     0
 49
-0.125
 74
     0
  0
LTYPE
  5
781B
330
746A
100
AcDbSymbolTableRecord
100
AcDbLinetypeTableRecord
  2
PHANTOM
 70
     0
  3
______  __  __  ______  __  __  ______  __  __ 
 72
    65
 73
     6
 40
2.5
 49
1.25
 74
     0
 49
-0.25
 74
     0
 49
0.25
 74
     0
 49
-0.25
 74
     0
 49
0.25
 74
     0
 49
-0.25
 74
     0
  0
LTYPE
  5
12CC3
330
746A
100
AcDbSymbolTableRecord
100
AcDbLinetypeTableRecord
  2
HIDDENX2
 70
     0
  3
Hidden (2x) ____ ____ ____ ____ ____ ____ ____
 72
    65
 73
     2
 40
19.05
 49
12.7
 74
     0
 49
-6.349999999999999
 74
     0
  0
ENDTAB
  0
TABLE
  2
LAYER
  5
7467
102
{ACAD_XDICTIONARY
360
18488
102
}
330
0
100
AcDbSymbolTable
 70
    12
  0
LAYER
  5
7474
330
7467
100
AcDbSymbolTableRecord
100
AcDbLayerTableRecord
  2
0
 70
     0
 62
     7
  6
CONTINUOUS
370
    -3
390
182E5
  0
LAYER
  5
DEB2
330
7467
100
AcDbSymbolTableRecord
100
AcDbLayerTableRecord
  2
センター
 70
     0
 62
     3
  6
CENTER
370
    -3
390
182E5
  0
LAYER
  5
DEB3
330
7467
100
AcDbSymbolTableRecord
100
AcDbLayerTableRecord
  2
寸法
 70
     0
 62
     4
  6
CONTINUOUS
370
    -3
390
182E5
  0
LAYER
  5
DEB4
330
7467
100
AcDbSymbolTableRecord
100
AcDbLayerTableRecord
  2
部品1
 70
     0
 62
     7
  6
CONTINUOUS
370
    -3
390
182E5
  0
LAYER
  5
DEB5
330
7467
100
AcDbSymbolTableRecord
100
AcDbLayerTableRecord
  2
補助
 70
     0
 62
    -1
  6
CONTINUOUS
370
    -3
390
182E5
  0
LAYER
  5
DEB6
330
7467
100
AcDbSymbolTableRecord
100
AcDbLayerTableRecord
  2
文字
 70
     0
 62
     7
  6
CONTINUOUS
370
    -3
390
182E5
  0
LAYER
  5
F255
330
7467
100
AcDbSymbolTableRecord
100
AcDbLayerTableRecord
  2
DEFPOINTS
 70
     0
 62
     7
  6
CONTINUOUS
290
     0
370
    -3
390
182E5
  0
LAYER
  5
10B54
330
7467
100
AcDbSymbolTableRecord
100
AcDbLayerTableRecord
  2
仕様書枠
 70
     0
 62
   230
  6
CONTINUOUS
370
    -3
390
182E5
  0
LAYER
  5
11729
330
7467
100
AcDbSymbolTableRecord
100
AcDbLayerTableRecord
  2
Ｇ．Ｌ
 70
     0
 62
    30
  6
CONTINUOUS
370
    -3
390
182E5
  0
LAYER
  5
1173F
330
7467
100
AcDbSymbolTableRecord
100
AcDbLayerTableRecord
  2
細線
 70
     0
 62
     5
  6
CONTINUOUS
370
    -3
390
182E5
  0
LAYER
  5
12CC4
330
7467
100
AcDbSymbolTableRecord
100
AcDbLayerTableRecord
  2
想像線
 70
     0
 62
     6
  6
PHANTOM
370
    -3
390
182E5
  0
LAYER
  5
142E2
330
7467
100
AcDbSymbolTableRecord
100
AcDbLayerTableRecord
  2
破線
 70
     0
 62
     2
  6
HIDDEN
370
    -3
390
182E5
  0
ENDTAB
  0
TABLE
  2
STYLE
  5
7468
330
0
100
AcDbSymbolTable
 70
     7
  0
STYLE
  5
7475
330
7468
100
AcDbSymbolTableRecord
100
AcDbTextStyleTableRecord
  2
STANDARD
 70
     0
 40
0.0
 41
1.0
 50
0.0
 71
     0
 42
4.0
  3
txt
  4
C:\AutoCAD LT\bigfont.shx
  0
STYLE
  5
763C
330
7468
100
AcDbSymbolTableRecord
100
AcDbTextStyleTableRecord
  2
MSMINCHO
 70
     0
 40
0.0
 41
1.0
 50
0.0
 71
     0
 42
1.199999999999999
  3
C:\AutoCAD LT\msminch2.TTF
  4

  0
STYLE
  5
F706
330
7468
100
AcDbSymbolTableRecord
100
AcDbTextStyleTableRecord
  2
STYLE1
 70
     0
 40
0.0
 41
1.0
 50
0.0
 71
     0
 42
4.0
  3
isocp.shx
  4
bigfont.shx
  0
STYLE
  5
103BF
330
7468
100
AcDbSymbolTableRecord
100
AcDbTextStyleTableRecord
  2
STYLE2
 70
     0
 40
0.0
 41
1.0
 50
0.0
 71
     0
 42
100.0
  3
MS PGothic.ttf
  4

1001
ACAD
1000
MS PGothic
1071
    32818
  0
STYLE
  5
10BAA
330
7468
100
AcDbSymbolTableRecord
100
AcDbTextStyleTableRecord
  2
STYLE3
 70
     0
 40
0.0
 41
1.0
 50
0.0
 71
     0
 42
100.0
  3

  4

1001
ACAD
1000
DFPGothic-EB
1071
    32818
  0
STYLE
  5
11A15
330
7468
100
AcDbSymbolTableRecord
100
AcDbTextStyleTableRecord
  2
MSGOTHIC
 70
     0
 40
0.0
 41
1.0
 50
0.0
 71
     0
 42
3.5
  3
msgothi2.ttf
  4

  0
STYLE
  5
13E96
330
7468
100
AcDbSymbolTableRecord
100
AcDbTextStyleTableRecord
  2
MSPゴシック
 70
     0
 40
0.0
 41
1.0
 50
0.0
 71
     0
 42
4.0
  3
MS PGothic.ttf
  4

1001
ACAD
1000
MS PGothic
1071
    32818
  0
ENDTAB
  0
TABLE
  2
VIEW
  5
746B
330
0
100
AcDbSymbolTable
 70
     0
  0
ENDTAB
  0
TABLE
  2
UCS
  5
746C
330
0
100
AcDbSymbolTable
 70
     0
  0
ENDTAB
  0
TABLE
  2
APPID
  5
746E
330
0
100
AcDbSymbolTable
 70
     6
  0
APPID
  5
7476
330
746E
100
AcDbSymbolTableRecord
100
AcDbRegAppTableRecord
  2
ACAD
 70
     0
  0
APPID
  5
DEA9
330
746E
100
AcDbSymbolTableRecord
100
AcDbRegAppTableRecord
  2
CONTENTBLOCKICON
 70
     0
  0
APPID
  5
DEAA
330
746E
100
AcDbSymbolTableRecord
100
AcDbRegAppTableRecord
  2
CONTENTBLOCKDESCRIPTION
 70
     0
  0
APPID
  5
E71D
330
746E
100
AcDbSymbolTableRecord
100
AcDbRegAppTableRecord
  2
CONTENTTABDATA
 70
     0
  0
APPID
  5
E71E
330
746E
100
AcDbSymbolTableRecord
100
AcDbRegAppTableRecord
  2
CONTENTCURRENTTAB
 70
     0
  0
APPID
  5
F3BA
330
746E
100
AcDbSymbolTableRecord
100
AcDbRegAppTableRecord
  2
DRAWINGVARIABLESXDATA
 70
     0
  0
ENDTAB
  0
TABLE
  2
DIMSTYLE
  5
746F
330
0
100
AcDbSymbolTable
 70
     7
100
AcDbDimStyleTable
 71
     1
340
F71F
  0
DIMSTYLE
105
7484
330
746F
100
AcDbSymbolTableRecord
100
AcDbDimStyleTableRecord
  2
JIS
 70
     0
 41
2.5
 42
1.0
 43
7.0
 44
1.0
 73
     0
 74
     0
 77
     1
 78
     8
140
2.5
141
0.0
143
0.0394
147
0.0
172
     1
174
     1
175
     1
340
7475
  0
DIMSTYLE
105
F236
102
{ACAD_REACTORS
330
19639
330
19AB1
330
19D75
102
}
330
746F
100
AcDbSymbolTableRecord
100
AcDbDimStyleTableRecord
  2
INABA_S40
 70
     0
 40
40.0
 41
2.5
 42
0.5
 43
7.0
 44
1.5
 73
     0
 74
     0
 77
     3
 78
     8
140
3.0
141
0.0
143
0.0394
147
1.0
172
     1
173
     1
174
     1
175
     1
178
     7
289
     0
340
7475
341
DEAC
343
DEAC
344
DEAC
  0
DIMSTYLE
105
F71F
102
{ACAD_REACTORS
330
18765
330
18766
330
18767
330
18768
330
189BB
330
189BD
330
189D7
330
189D8
330
188BC
330
188BE
330
188CA
330
188D7
330
18993
330
18996
330
1899F
330
190D2
330
190D3
330
190D4
330
19109
330
1910A
330
19110
330
19111
330
19112
330
1913B
330
1914A
330
1914B
330
1914F
330
19D74
330
19E8B
330
1A7B3
102
}
330
746F
100
AcDbSymbolTableRecord
100
AcDbDimStyleTableRecord
  2
INABA_S40G
 70
     0
 40
40.0
 41
2.5
 42
0.5
 43
7.0
 44
1.5
 73
     0
 74
     0
 77
     3
 78
     8
140
3.0
141
0.0
143
0.0394
147
1.0
172
     1
173
     1
174
     1
178
     7
271
     1
340
F706
341
F770
343
F770
344
F770
  0
DIMSTYLE
105
142E3
330
746F
100
AcDbSymbolTableRecord
100
AcDbDimStyleTableRecord
  2
INABA_S1
 70
     0
 40
0.0
 41
2.5
 42
0.5
 43
7.0
 44
1.5
 73
     0
 74
     0
 77
     3
 78
     8
140
3.0
141
0.0
143
0.0394
146
0.5
147
0.5
172
     1
173
     1
176
   256
177
   256
178
     7
271
     2
272
     2
284
     8
288
     1
340
7475
341
DEAC
343
DEAC
344
DEAC
  0
DIMSTYLE
105
14463
330
746F
100
AcDbSymbolTableRecord
100
AcDbDimStyleTableRecord
  2
INABA_S30G
 70
     0
 40
30.0
 41
2.5
 42
0.5
 43
7.0
 44
1.5
 73
     0
 74
     0
 77
     3
 78
     8
140
3.0
141
0.0
143
0.0394
147
1.0
172
     1
173
     1
174
     1
175
     1
178
     7
271
     1
340
F706
341
F770
343
F770
344
F770
  0
DIMSTYLE
105
199A7
330
746F
100
AcDbSymbolTableRecord
100
AcDbDimStyleTableRecord
  2
INABA_S50G
 70
     0
 41
125.0
 42
25.0
 43
7.0
 44
75.0
 73
     0
 74
     0
 77
     3
 78
     8
140
150.0
141
0.0
143
0.0394
147
25.0
172
     1
173
     1
174
     1
175
     1
178
     7
271
     1
340
F706
341
F770
343
F770
344
F770
  0
DIMSTYLE
105
1AD7E
330
746F
100
AcDbSymbolTableRecord
100
AcDbDimStyleTableRecord
  2
INABA_S20G
 70
     0
 40
20.0
 41
2.5
 42
0.5
 43
7.0
 44
1.5
 73
     0
 74
     0
 77
     3
 78
     8
140
3.0
141
0.0
143
0.0394
147
1.0
172
     1
173
     1
174
     1
178
     7
271
     1
340
F706
341
F770
343
F770
344
F770
  0
ENDTAB
  0
TABLE
  2
BLOCK_RECORD
  5
7466
330
0
100
AcDbSymbolTable
 70
    36
  0
BLOCK_RECORD
  5
747D
330
7466
100
AcDbSymbolTableRecord
100
AcDbBlockTableRecord
  2
*MODEL_SPACE
340
182EA
  0
BLOCK_RECORD
  5
747A
330
7466
100
AcDbSymbolTableRecord
100
AcDbBlockTableRecord
  2
*PAPER_SPACE
340
182EB
  0
BLOCK_RECORD
  5
DEAC
330
7466
100
AcDbSymbolTableRecord
100
AcDbBlockTableRecord
  2
_OPEN
340
0
  0
BLOCK_RECORD
  5
F770
330
7466
100
AcDbSymbolTableRecord
100
AcDbBlockTableRecord
  2
_DOTSMALL
340
0
102
{BLKREFS
331
19837
331
19838
331
19840
331
19841
331
1987C
331
1987D
331
19886
331
19887
331
1A009
331
1A00A
331
1A01D
331
1A01E
331
1A031
331
1A032
331
1A03C
331
1A03D
331
1A047
331
1A048
331
1A050
331
1A051
331
1A05B
331
1A05C
331
1A064
331
1A065
331
1A06D
331
1A06E
331
1A076
331
1A077
331
1A07F
331
1A080
331
1A088
331
1A089
331
1A091
331
1A092
331
1ABFF
331
1AC00
331
1AC08
331
1AC09
331
1AC11
331
1AC12
331
1AC1C
331
1AC1D
331
1AC27
331
1AC28
331
1ACB2
331
1ACB3
331
1ACBB
331
1ACBC
331
1ACC6
331
1ACC7
331
1ACCF
331
1ACD0
331
1ACD8
331
1ACD9
331
1ACE1
331
1ACE2
331
1ACF3
331
1ACF4
331
1ACFD
331
1ACFE
102
}
  0
BLOCK_RECORD
  5
164B4
330
7466
100
AcDbSymbolTableRecord
100
AcDbBlockTableRecord
  2
_DOT
340
0
102
{BLKREFS
331
1A014
331
1A015
331
1A026
331
1A027
331
1ACEA
331
1ACEB
102
}
  0
BLOCK_RECORD
  5
18A6E
330
7466
100
AcDbSymbolTableRecord
100
AcDbBlockTableRecord
  2
*D3
340
0
  0
BLOCK_RECORD
  5
18A7C
330
7466
100
AcDbSymbolTableRecord
100
AcDbBlockTableRecord
  2
*D4
340
0
  0
BLOCK_RECORD
  5
18A8A
330
7466
100
AcDbSymbolTableRecord
100
AcDbBlockTableRecord
  2
*D5
340
0
  0
BLOCK_RECORD
  5
18A96
330
7466
100
AcDbSymbolTableRecord
100
AcDbBlockTableRecord
  2
*D6
340
0
  0
BLOCK_RECORD
  5
18AAE
330
7466
100
AcDbSymbolTableRecord
100
AcDbBlockTableRecord
  2
*D7
340
0
  0
BLOCK_RECORD
  5
18ABA
330
7466
100
AcDbSymbolTableRecord
100
AcDbBlockTableRecord
  2
*D8
340
0
  0
BLOCK_RECORD
  5
18AC8
330
7466
100
AcDbSymbolTableRecord
100
AcDbBlockTableRecord
  2
*D9
340
0
  0
BLOCK_RECORD
  5
18AD6
330
7466
100
AcDbSymbolTableRecord
100
AcDbBlockTableRecord
  2
*D10
340
0
  0
BLOCK_RECORD
  5
18B47
330
7466
100
AcDbSymbolTableRecord
100
AcDbBlockTableRecord
  2
*D11
340
0
  0
BLOCK_RECORD
  5
18B53
330
7466
100
AcDbSymbolTableRecord
100
AcDbBlockTableRecord
  2
*D12
340
0
  0
BLOCK_RECORD
  5
18B5F
330
7466
100
AcDbSymbolTableRecord
100
AcDbBlockTableRecord
  2
*D13
340
0
  0
BLOCK_RECORD
  5
18B6B
330
7466
100
AcDbSymbolTableRecord
100
AcDbBlockTableRecord
  2
*D14
340
0
  0
BLOCK_RECORD
  5
18B8F
330
7466
100
AcDbSymbolTableRecord
100
AcDbBlockTableRecord
  2
*D15
340
0
  0
BLOCK_RECORD
  5
18B9B
330
7466
100
AcDbSymbolTableRecord
100
AcDbBlockTableRecord
  2
*D16
340
0
  0
BLOCK_RECORD
  5
18BA7
330
7466
100
AcDbSymbolTableRecord
100
AcDbBlockTableRecord
  2
*D17
340
0
  0
BLOCK_RECORD
  5
1921B
330
7466
100
AcDbSymbolTableRecord
100
AcDbBlockTableRecord
  2
*D18
340
0
  0
BLOCK_RECORD
  5
19227
330
7466
100
AcDbSymbolTableRecord
100
AcDbBlockTableRecord
  2
*D19
340
0
  0
BLOCK_RECORD
  5
19233
330
7466
100
AcDbSymbolTableRecord
100
AcDbBlockTableRecord
  2
*D20
340
0
  0
BLOCK_RECORD
  5
1923F
330
7466
100
AcDbSymbolTableRecord
100
AcDbBlockTableRecord
  2
*D21
340
0
  0
BLOCK_RECORD
  5
1924C
330
7466
100
AcDbSymbolTableRecord
100
AcDbBlockTableRecord
  2
*D22
340
0
  0
BLOCK_RECORD
  5
1925A
330
7466
100
AcDbSymbolTableRecord
100
AcDbBlockTableRecord
  2
*D23
340
0
  0
BLOCK_RECORD
  5
19266
330
7466
100
AcDbSymbolTableRecord
100
AcDbBlockTableRecord
  2
*D24
340
0
  0
BLOCK_RECORD
  5
19274
330
7466
100
AcDbSymbolTableRecord
100
AcDbBlockTableRecord
  2
*D25
340
0
  0
BLOCK_RECORD
  5
19280
330
7466
100
AcDbSymbolTableRecord
100
AcDbBlockTableRecord
  2
*D26
340
0
  0
BLOCK_RECORD
  5
1928D
330
7466
100
AcDbSymbolTableRecord
100
AcDbBlockTableRecord
  2
*D27
340
0
  0
BLOCK_RECORD
  5
1929A
330
7466
100
AcDbSymbolTableRecord
100
AcDbBlockTableRecord
  2
*D28
340
0
  0
BLOCK_RECORD
  5
192A6
330
7466
100
AcDbSymbolTableRecord
100
AcDbBlockTableRecord
  2
*D29
340
0
  0
BLOCK_RECORD
  5
1963B
330
7466
100
AcDbSymbolTableRecord
100
AcDbBlockTableRecord
  2
*D30
340
0
  0
BLOCK_RECORD
  5
19B1C
330
7466
100
AcDbSymbolTableRecord
100
AcDbBlockTableRecord
  2
*D31
340
0
  0
BLOCK_RECORD
  5
19E9A
330
7466
100
AcDbSymbolTableRecord
100
AcDbBlockTableRecord
  2
*D32
340
0
  0
BLOCK_RECORD
  5
19EA6
330
7466
100
AcDbSymbolTableRecord
100
AcDbBlockTableRecord
  2
*D33
340
0
  0
BLOCK_RECORD
  5
19F0A
330
7466
100
AcDbSymbolTableRecord
100
AcDbBlockTableRecord
  2
*D34
340
0
  0
BLOCK_RECORD
  5
1A87B
330
7466
100
AcDbSymbolTableRecord
100
AcDbBlockTableRecord
  2
*D35
340
0
  0
ENDTAB
  0
ENDSEC
  0
SECTION
  2
BLOCKS
  0
BLOCK
  5
7489
330
747D
100
AcDbEntity
  8
0
100
AcDbBlockBegin
  2
*MODEL_SPACE
 70
     0
 10
0.0
 20
0.0
 30
0.0
  3
*MODEL_SPACE
  1

  0
ENDBLK
  5
748A
330
747D
100
AcDbEntity
  8
0
100
AcDbBlockEnd
  0
BLOCK
  5
7487
330
747A
100
AcDbEntity
 67
     1
  8
0
100
AcDbBlockBegin
  2
*PAPER_SPACE
 70
     0
 10
0.0
 20
0.0
 30
0.0
  3
*PAPER_SPACE
  1

  0
ENDBLK
  5
7488
330
747A
100
AcDbEntity
 67
     1
  8
0
100
AcDbBlockEnd
  0
BLOCK
  5
DEAD
330
DEAC
100
AcDbEntity
  8
0
100
AcDbBlockBegin
  2
_OPEN
 70
     0
 10
0.0
 20
0.0
 30
0.0
  3
_OPEN
  1

  0
LINE
  5
DEAE
330
DEAC
100
AcDbEntity
  8
0
  6
ByBlock
 62
     0
100
AcDbLine
 10
-1.0
 20
0.1666666666666666
 30
0.0
 11
0.0
 21
0.0
 31
0.0
  0
LINE
  5
DEAF
330
DEAC
100
AcDbEntity
  8
0
  6
ByBlock
 62
     0
100
AcDbLine
 10
0.0
 20
0.0
 30
0.0
 11
-1.0
 21
-0.1666666666666666
 31
0.0
  0
LINE
  5
DEB0
330
DEAC
100
AcDbEntity
  8
0
  6
ByBlock
 62
     0
100
AcDbLine
 10
0.0
 20
0.0
 30
0.0
 11
-1.0
 21
0.0
 31
0.0
  0
ENDBLK
  5
DEB1
330
DEAC
100
AcDbEntity
  8
0
100
AcDbBlockEnd
  0
BLOCK
  5
F771
330
F770
100
AcDbEntity
  8
0
 48
50.0
100
AcDbBlockBegin
  2
_DOTSMALL
 70
     0
 10
0.0
 20
0.0
 30
0.0
  3
_DOTSMALL
  1

  0
LWPOLYLINE
  5
F772
330
F770
100
AcDbEntity
  8
0
  6
ByBlock
 62
     0
 48
50.0
100
AcDbPolyline
 90
        2
 70
     1
 43
0.5
 10
-0.0625
 20
0.0
 42
1.0
 10
0.0625
 20
0.0
 42
1.0
  0
ENDBLK
  5
F776
330
F770
100
AcDbEntity
  8
0
 48
50.0
100
AcDbBlockEnd
  0
BLOCK
  5
164BA
330
164B4
100
AcDbEntity
  8
0
 48
50.0
100
AcDbBlockBegin
  2
_DOT
 70
     0
 10
0.0
 20
0.0
 30
0.0
  3
_DOT
  1

  0
LWPOLYLINE
  5
164B5
330
164B4
100
AcDbEntity
  8
0
  6
ByBlock
 62
     0
 48
50.0
100
AcDbPolyline
 90
        2
 70
     1
 43
0.5
 10
-0.25
 20
0.0
 42
1.0
 10
0.25
 20
0.0
 42
1.0
  0
LINE
  5
164B9
330
164B4
100
AcDbEntity
  8
0
  6
ByBlock
 62
     0
 48
50.0
100
AcDbLine
 10
-0.5
 20
0.0
 30
0.0
 11
-1.0
 21
0.0
 31
0.0
  0
ENDBLK
  5
164BB
330
164B4
100
AcDbEntity
  8
0
 48
50.0
100
AcDbBlockEnd
  0
BLOCK
  5
18A7A
330
18A6E
100
AcDbEntity
  8
0
 48
50.0
100
AcDbBlockBegin
  2
*D3
 70
     1
 10
0.0
 20
0.0
 30
0.0
  3
*D3
  1

  0
LINE
  5
1AC22
330
18A6E
100
AcDbEntity
  8
寸法
 62
     0
 48
50.0
370
    -2
100
AcDbLine
 10
7085.689423619479
 20
4430.724067236471
 30
0.0
 11
7085.689423619479
 21
4683.265652494712
 31
0.0
  0
LINE
  5
1AC23
330
18A6E
100
AcDbEntity
  8
寸法
 62
     0
 48
50.0
370
    -2
100
AcDbLine
 10
7035.689423619479
 20
4430.724067236473
 30
0.0
 11
7035.689423619479
 21
4683.265652494712
 31
0.0
  0
LINE
  5
1AC24
330
18A6E
100
AcDbEntity
  8
寸法
 62
     0
 48
50.0
370
    -2
100
AcDbLine
 10
7035.689423619479
 20
4623.265652494712
 30
0.0
 11
6935.689423619479
 21
4623.265652494712
 31
0.0
  0
LINE
  5
1AC25
330
18A6E
100
AcDbEntity
  8
寸法
 62
     0
 48
50.0
370
    -2
100
AcDbLine
 10
7085.689423619479
 20
4623.265652494712
 30
0.0
 11
7505.221949088202
 21
4623.265652494712
 31
0.0
  0
LINE
  5
1AC26
330
18A6E
100
AcDbEntity
  8
寸法
 62
     0
 48
50.0
370
    -2
100
AcDbLine
 10
7035.689423619479
 20
4623.265652494712
 30
0.0
 11
7085.689423619479
 21
4623.265652494712
 31
0.0
  0
INSERT
  5
1AC27
330
18A6E
100
AcDbEntity
  8
寸法
 62
     0
 48
50.0
370
    -2
100
AcDbBlockReference
  2
_DOTSMALL
 10
7035.689423619479
 20
4623.265652494712
 30
0.0
 41
100.0
 42
100.0
 43
100.0
  0
INSERT
  5
1AC28
330
18A6E
100
AcDbEntity
  8
寸法
 62
     0
 48
50.0
370
    -2
100
AcDbBlockReference
  2
_DOTSMALL
 10
7085.689423619479
 20
4623.265652494712
 30
0.0
 41
100.0
 42
100.0
 43
100.0
 50
180.0
  0
MTEXT
  5
1AC29
330
18A6E
100
AcDbEntity
  8
寸法
 62
     7
 48
50.0
100
AcDbMText
 10
7399.174704993715
 20
4723.265652494712
 30
0.0
 40
120.0
 41
0.0
 71
     5
 72
     1
  1
\A1;50
  7
STYLE1
 73
     1
 44
1.0
1001
ACAD
1000
MTEXTBEGIN
1070
    73
1070
     1
1070
    44
1040
1.0
1070
    74
1070
     0
1000
MTEXTEND
  0
POINT
  5
1AC2A
330
18A6E
100
AcDbEntity
  8
DEFPOINTS
 62
     0
 48
50.0
100
AcDbPoint
 10
7085.689423619479
 20
4410.724067236471
 30
0.0
  0
POINT
  5
1AC2B
330
18A6E
100
AcDbEntity
  8
DEFPOINTS
 62
     0
 48
50.0
100
AcDbPoint
 10
7035.689423619479
 20
4410.724067236473
 30
0.0
  0
POINT
  5
1AC2C
330
18A6E
100
AcDbEntity
  8
DEFPOINTS
 62
     0
 48
50.0
100
AcDbPoint
 10
7035.689423619479
 20
4623.265652494712
 30
0.0
  0
ENDBLK
  5
18A7B
330
18A6E
100
AcDbEntity
  8
0
 48
50.0
100
AcDbBlockEnd
  0
BLOCK
  5
18A88
330
18A7C
100
AcDbEntity
  8
0
 48
50.0
100
AcDbBlockBegin
  2
*D4
 70
     1
 10
0.0
 20
0.0
 30
0.0
  3
*D4
  1

  0
LINE
  5
1AC17
330
18A7C
100
AcDbEntity
  8
寸法
 62
     0
 48
50.0
370
    -2
100
AcDbLine
 10
3565.689423619475
 20
4430.724067236478
 30
0.0
 11
3565.689423619475
 21
4683.265652494715
 31
0.0
  0
LINE
  5
1AC18
330
18A7C
100
AcDbEntity
  8
寸法
 62
     0
 48
50.0
370
    -2
100
AcDbLine
 10
3515.689423619476
 20
4430.724067236476
 30
0.0
 11
3515.689423619476
 21
4683.265652494715
 31
0.0
  0
LINE
  5
1AC19
330
18A7C
100
AcDbEntity
  8
寸法
 62
     0
 48
50.0
370
    -2
100
AcDbLine
 10
3565.689423619475
 20
4623.265652494715
 30
0.0
 11
3665.689423619475
 21
4623.265652494715
 31
0.0
  0
LINE
  5
1AC1A
330
18A7C
100
AcDbEntity
  8
寸法
 62
     0
 48
50.0
370
    -2
100
AcDbLine
 10
3515.689423619476
 20
4623.265652494715
 30
0.0
 11
3096.15689815074
 21
4623.265652494715
 31
0.0
  0
LINE
  5
1AC1B
330
18A7C
100
AcDbEntity
  8
寸法
 62
     0
 48
50.0
370
    -2
100
AcDbLine
 10
3565.689423619475
 20
4623.265652494715
 30
0.0
 11
3515.689423619476
 21
4623.265652494715
 31
0.0
  0
INSERT
  5
1AC1C
330
18A7C
100
AcDbEntity
  8
寸法
 62
     0
 48
50.0
370
    -2
100
AcDbBlockReference
  2
_DOTSMALL
 10
3565.689423619475
 20
4623.265652494715
 30
0.0
 41
100.0
 42
100.0
 43
100.0
 50
180.0
  0
INSERT
  5
1AC1D
330
18A7C
100
AcDbEntity
  8
寸法
 62
     0
 48
50.0
370
    -2
100
AcDbBlockReference
  2
_DOTSMALL
 10
3515.689423619476
 20
4623.265652494715
 30
0.0
 41
100.0
 42
100.0
 43
100.0
  0
MTEXT
  5
1AC1E
330
18A7C
100
AcDbEntity
  8
寸法
 62
     7
 48
50.0
100
AcDbMText
 10
3202.204142245228
 20
4723.265652494715
 30
0.0
 40
120.0
 41
0.0
 71
     5
 72
     1
  1
\A1;50
  7
STYLE1
 73
     1
 44
1.0
1001
ACAD
1000
MTEXTBEGIN
1070
    73
1070
     1
1070
    44
1040
1.0
1070
    74
1070
     0
1000
MTEXTEND
  0
POINT
  5
1AC1F
330
18A7C
100
AcDbEntity
  8
DEFPOINTS
 62
     0
 48
50.0
100
AcDbPoint
 10
3565.689423619475
 20
4410.724067236478
 30
0.0
  0
POINT
  5
1AC20
330
18A7C
100
AcDbEntity
  8
DEFPOINTS
 62
     0
 48
50.0
100
AcDbPoint
 10
3515.689423619476
 20
4410.724067236476
 30
0.0
  0
POINT
  5
1AC21
330
18A7C
100
AcDbEntity
  8
DEFPOINTS
 62
     0
 48
50.0
100
AcDbPoint
 10
3515.689423619476
 20
4623.265652494715
 30
0.0
  0
ENDBLK
  5
18A89
330
18A7C
100
AcDbEntity
  8
0
 48
50.0
100
AcDbBlockEnd
  0
BLOCK
  5
18A94
330
18A8A
100
AcDbEntity
  8
0
 48
50.0
100
AcDbBlockBegin
  2
*D5
 70
     1
 10
0.0
 20
0.0
 30
0.0
  3
*D5
  1

  0
LINE
  5
1AC0E
330
18A8A
100
AcDbEntity
  8
寸法
 62
     0
 48
50.0
370
    -2
100
AcDbLine
 10
3515.689423619476
 20
4430.724067236476
 30
0.0
 11
3515.689423619476
 21
4904.170952968463
 31
0.0
  0
LINE
  5
1AC0F
330
18A8A
100
AcDbEntity
  8
寸法
 62
     0
 48
50.0
370
    -2
100
AcDbLine
 10
7085.689423619479
 20
4430.724067236471
 30
0.0
 11
7085.689423619479
 21
4904.170952968463
 31
0.0
  0
LINE
  5
1AC10
330
18A8A
100
AcDbEntity
  8
寸法
 62
     0
 48
50.0
370
    -2
100
AcDbLine
 10
3515.689423619476
 20
4844.170952968463
 30
0.0
 11
7085.689423619479
 21
4844.170952968463
 31
0.0
  0
INSERT
  5
1AC11
330
18A8A
100
AcDbEntity
  8
寸法
 62
     0
 48
50.0
370
    -2
100
AcDbBlockReference
  2
_DOTSMALL
 10
3515.689423619476
 20
4844.170952968463
 30
0.0
 41
100.0
 42
100.0
 43
100.0
 50
180.0
  0
INSERT
  5
1AC12
330
18A8A
100
AcDbEntity
  8
寸法
 62
     0
 48
50.0
370
    -2
100
AcDbBlockReference
  2
_DOTSMALL
 10
7085.689423619479
 20
4844.170952968463
 30
0.0
 41
100.0
 42
100.0
 43
100.0
  0
MTEXT
  5
1AC13
330
18A8A
100
AcDbEntity
  8
寸法
 62
     7
 48
50.0
100
AcDbMText
 10
5300.689423619482
 20
4944.170952968462
 30
0.0
 40
120.0
 41
0.0
 71
     5
 72
     1
  1
\A1;3570
  7
STYLE1
 73
     1
 44
1.0
1001
ACAD
1000
MTEXTBEGIN
1070
    73
1070
     1
1070
    44
1040
1.0
1070
    74
1070
     0
1000
MTEXTEND
  0
POINT
  5
1AC14
330
18A8A
100
AcDbEntity
  8
DEFPOINTS
 62
     0
 48
50.0
100
AcDbPoint
 10
3515.689423619476
 20
4410.724067236476
 30
0.0
  0
POINT
  5
1AC15
330
18A8A
100
AcDbEntity
  8
DEFPOINTS
 62
     0
 48
50.0
100
AcDbPoint
 10
7085.689423619479
 20
4410.724067236471
 30
0.0
  0
POINT
  5
1AC16
330
18A8A
100
AcDbEntity
  8
DEFPOINTS
 62
     0
 48
50.0
100
AcDbPoint
 10
7085.689423619479
 20
4844.170952968463
 30
0.0
  0
ENDBLK
  5
18A95
330
18A8A
100
AcDbEntity
  8
0
 48
50.0
100
AcDbBlockEnd
  0
BLOCK
  5
18AA0
330
18A96
100
AcDbEntity
  8
0
 48
50.0
100
AcDbBlockBegin
  2
*D6
 70
     1
 10
0.0
 20
0.0
 30
0.0
  3
*D6
  1

  0
LINE
  5
1AC05
330
18A96
100
AcDbEntity
  8
寸法
 62
     0
 48
50.0
370
    -2
100
AcDbLine
 10
7035.689423619479
 20
4430.724067236473
 30
0.0
 11
7035.689423619479
 21
4683.265652494713
 31
0.0
  0
LINE
  5
1AC06
330
18A96
100
AcDbEntity
  8
寸法
 62
     0
 48
50.0
370
    -2
100
AcDbLine
 10
3565.689423619475
 20
4430.724067236478
 30
0.0
 11
3565.689423619475
 21
4683.265652494713
 31
0.0
  0
LINE
  5
1AC07
330
18A96
100
AcDbEntity
  8
寸法
 62
     0
 48
50.0
370
    -2
100
AcDbLine
 10
7035.689423619479
 20
4623.265652494713
 30
0.0
 11
3565.689423619475
 21
4623.265652494713
 31
0.0
  0
INSERT
  5
1AC08
330
18A96
100
AcDbEntity
  8
寸法
 62
     0
 48
50.0
370
    -2
100
AcDbBlockReference
  2
_DOTSMALL
 10
7035.689423619479
 20
4623.265652494713
 30
0.0
 41
100.0
 42
100.0
 43
100.0
  0
INSERT
  5
1AC09
330
18A96
100
AcDbEntity
  8
寸法
 62
     0
 48
50.0
370
    -2
100
AcDbBlockReference
  2
_DOTSMALL
 10
3565.689423619475
 20
4623.265652494713
 30
0.0
 41
100.0
 42
100.0
 43
100.0
 50
180.0
  0
MTEXT
  5
1AC0A
330
18A96
100
AcDbEntity
  8
寸法
 62
     7
 48
50.0
100
AcDbMText
 10
5300.689423619482
 20
4723.265652494712
 30
0.0
 40
120.0
 41
0.0
 71
     5
 72
     1
  1
\A1;柱外寸法3470
  7
STYLE1
 73
     1
 44
1.0
1001
ACAD
1000
MTEXTBEGIN
1070
    73
1070
     1
1070
    44
1040
1.0
1070
    74
1070
     0
1000
MTEXTEND
  0
POINT
  5
1AC0B
330
18A96
100
AcDbEntity
  8
DEFPOINTS
 62
     0
 48
50.0
100
AcDbPoint
 10
7035.689423619479
 20
4410.724067236473
 30
0.0
  0
POINT
  5
1AC0C
330
18A96
100
AcDbEntity
  8
DEFPOINTS
 62
     0
 48
50.0
100
AcDbPoint
 10
3565.689423619475
 20
4410.724067236478
 30
0.0
  0
POINT
  5
1AC0D
330
18A96
100
AcDbEntity
  8
DEFPOINTS
 62
     0
 48
50.0
100
AcDbPoint
 10
3565.689423619475
 20
4623.265652494713
 30
0.0
  0
ENDBLK
  5
18AA1
330
18A96
100
AcDbEntity
  8
0
 48
50.0
100
AcDbBlockEnd
  0
BLOCK
  5
18AB8
330
18AAE
100
AcDbEntity
  8
0
 48
50.0
100
AcDbBlockBegin
  2
*D7
 70
     1
 10
0.0
 20
0.0
 30
0.0
  3
*D7
  1

  0
LINE
  5
1A04D
330
18AAE
100
AcDbEntity
  8
寸法
 62
     0
 48
50.0
370
    -2
100
AcDbLine
 10
3620.689423619482
 20
10079.6876550007
 30
0.0
 11
3620.689423619482
 21
10635.4958746258
 31
0.0
  0
LINE
  5
1A04E
330
18AAE
100
AcDbEntity
  8
寸法
 62
     0
 48
50.0
370
    -2
100
AcDbLine
 10
6980.689423619482
 20
10079.6876550008
 30
0.0
 11
6980.689423619482
 21
10635.4958746258
 31
0.0
  0
LINE
  5
1A04F
330
18AAE
100
AcDbEntity
  8
寸法
 62
     0
 48
50.0
370
    -2
100
AcDbLine
 10
3620.689423619482
 20
10575.4958746258
 30
0.0
 11
6980.689423619482
 21
10575.4958746258
 31
0.0
  0
INSERT
  5
1A050
330
18AAE
100
AcDbEntity
  8
寸法
 62
     0
 48
50.0
370
    -2
100
AcDbBlockReference
  2
_DOTSMALL
 10
3620.689423619482
 20
10575.4958746258
 30
0.0
 41
100.0
 42
100.0
 43
100.0
 50
180.0
  0
INSERT
  5
1A051
330
18AAE
100
AcDbEntity
  8
寸法
 62
     0
 48
50.0
370
    -2
100
AcDbBlockReference
  2
_DOTSMALL
 10
6980.689423619482
 20
10575.4958746258
 30
0.0
 41
100.0
 42
100.0
 43
100.0
  0
MTEXT
  5
1A052
330
18AAE
100
AcDbEntity
  8
寸法
 62
     7
 48
50.0
100
AcDbMText
 10
5300.689423619482
 20
10675.50768564942
 30
0.0
 40
120.0
 41
0.0
 71
     5
 72
     1
  1
\A1;8X420=3360
  7
STYLE1
 73
     1
 44
1.0
1001
ACAD
1000
MTEXTBEGIN
1070
    73
1070
     1
1070
    44
1040
1.0
1070
    74
1070
     0
1000
MTEXTEND
  0
POINT
  5
1A053
330
18AAE
100
AcDbEntity
  8
DEFPOINTS
 62
     0
 48
50.0
100
AcDbPoint
 10
3620.689423619482
 20
10059.6876550007
 30
0.0
  0
POINT
  5
1A054
330
18AAE
100
AcDbEntity
  8
DEFPOINTS
 62
     0
 48
50.0
100
AcDbPoint
 10
6980.689423619482
 20
10059.6876550008
 30
0.0
  0
POINT
  5
1A055
330
18AAE
100
AcDbEntity
  8
DEFPOINTS
 62
     0
 48
50.0
100
AcDbPoint
 10
6980.689423619482
 20
10575.4958746258
 30
0.0
  0
ENDBLK
  5
18AB9
330
18AAE
100
AcDbEntity
  8
0
 48
50.0
100
AcDbBlockEnd
  0
BLOCK
  5
18AC6
330
18ABA
100
AcDbEntity
  8
0
 48
50.0
100
AcDbBlockBegin
  2
*D8
 70
     1
 10
0.0
 20
0.0
 30
0.0
  3
*D8
  1

  0
LINE
  5
1A042
330
18ABA
100
AcDbEntity
  8
寸法
 62
     0
 48
50.0
370
    -2
100
AcDbLine
 10
3565.689423619446
 20
10079.6876550007
 30
0.0
 11
3565.689423619446
 21
10635.49587462568
 31
0.0
  0
LINE
  5
1A043
330
18ABA
100
AcDbEntity
  8
寸法
 62
     0
 48
50.0
370
    -2
100
AcDbLine
 10
3620.689423619482
 20
10079.6876550007
 30
0.0
 11
3620.689423619482
 21
10635.49587462568
 31
0.0
  0
LINE
  5
1A044
330
18ABA
100
AcDbEntity
  8
寸法
 62
     0
 48
50.0
370
    -2
100
AcDbLine
 10
3620.689423619482
 20
10575.49587462568
 30
0.0
 11
3720.689423619482
 21
10575.49587462568
 31
0.0
  0
LINE
  5
1A045
330
18ABA
100
AcDbEntity
  8
寸法
 62
     0
 48
50.0
370
    -2
100
AcDbLine
 10
3565.689423619446
 20
10575.49587462568
 30
0.0
 11
3148.718860870967
 21
10575.49587462568
 31
0.0
  0
LINE
  5
1A046
330
18ABA
100
AcDbEntity
  8
寸法
 62
     0
 48
50.0
370
    -2
100
AcDbLine
 10
3620.689423619482
 20
10575.49587462568
 30
0.0
 11
3565.689423619446
 21
10575.49587462568
 31
0.0
  0
INSERT
  5
1A047
330
18ABA
100
AcDbEntity
  8
寸法
 62
     0
 48
50.0
370
    -2
100
AcDbBlockReference
  2
_DOTSMALL
 10
3620.689423619482
 20
10575.49587462568
 30
0.0
 41
100.0
 42
100.0
 43
100.0
 50
180.0
  0
INSERT
  5
1A048
330
18ABA
100
AcDbEntity
  8
寸法
 62
     0
 48
50.0
370
    -2
100
AcDbBlockReference
  2
_DOTSMALL
 10
3565.689423619446
 20
10575.49587462568
 30
0.0
 41
100.0
 42
100.0
 43
100.0
  0
MTEXT
  5
1A049
330
18ABA
100
AcDbEntity
  8
寸法
 62
     7
 48
50.0
100
AcDbMText
 10
3257.204142245206
 20
10675.49587462568
 30
0.0
 40
120.0
 41
0.0
 71
     5
 72
     1
  1
\A1;55
  7
STYLE1
 73
     1
 44
1.0
1001
ACAD
1000
MTEXTBEGIN
1070
    73
1070
     1
1070
    44
1040
1.0
1070
    74
1070
     0
1000
MTEXTEND
  0
POINT
  5
1A04A
330
18ABA
100
AcDbEntity
  8
DEFPOINTS
 62
     0
 48
50.0
100
AcDbPoint
 10
3565.689423619446
 20
10059.6876550007
 30
0.0
  0
POINT
  5
1A04B
330
18ABA
100
AcDbEntity
  8
DEFPOINTS
 62
     0
 48
50.0
100
AcDbPoint
 10
3620.689423619482
 20
10059.6876550007
 30
0.0
  0
POINT
  5
1A04C
330
18ABA
100
AcDbEntity
  8
DEFPOINTS
 62
     0
 48
50.0
100
AcDbPoint
 10
3620.689423619482
 20
10575.49587462568
 30
0.0
  0
ENDBLK
  5
18AC7
330
18ABA
100
AcDbEntity
  8
0
 48
50.0
100
AcDbBlockEnd
  0
BLOCK
  5
18AD4
330
18AC8
100
AcDbEntity
  8
0
 48
50.0
100
AcDbBlockBegin
  2
*D9
 70
     1
 10
0.0
 20
0.0
 30
0.0
  3
*D9
  1

  0
LINE
  5
1A037
330
18AC8
100
AcDbEntity
  8
寸法
 62
     0
 48
50.0
370
    -2
100
AcDbLine
 10
6980.689423619482
 20
10079.6876550008
 30
0.0
 11
6980.689423619482
 21
10635.49587462578
 31
0.0
  0
LINE
  5
1A038
330
18AC8
100
AcDbEntity
  8
寸法
 62
     0
 48
50.0
370
    -2
100
AcDbLine
 10
7035.689423619482
 20
10079.6876550008
 30
0.0
 11
7035.689423619482
 21
10635.49587462578
 31
0.0
  0
LINE
  5
1A039
330
18AC8
100
AcDbEntity
  8
寸法
 62
     0
 48
50.0
370
    -2
100
AcDbLine
 10
6980.689423619482
 20
10575.49587462578
 30
0.0
 11
6880.689423619482
 21
10575.49587462578
 31
0.0
  0
LINE
  5
1A03A
330
18AC8
100
AcDbEntity
  8
寸法
 62
     0
 48
50.0
370
    -2
100
AcDbLine
 10
7035.689423619482
 20
10575.49587462578
 30
0.0
 11
7452.659986367959
 21
10575.49587462578
 31
0.0
  0
LINE
  5
1A03B
330
18AC8
100
AcDbEntity
  8
寸法
 62
     0
 48
50.0
370
    -2
100
AcDbLine
 10
6980.689423619482
 20
10575.49587462578
 30
0.0
 11
7035.689423619482
 21
10575.49587462578
 31
0.0
  0
INSERT
  5
1A03C
330
18AC8
100
AcDbEntity
  8
寸法
 62
     0
 48
50.0
370
    -2
100
AcDbBlockReference
  2
_DOTSMALL
 10
6980.689423619482
 20
10575.49587462578
 30
0.0
 41
100.0
 42
100.0
 43
100.0
  0
INSERT
  5
1A03D
330
18AC8
100
AcDbEntity
  8
寸法
 62
     0
 48
50.0
370
    -2
100
AcDbBlockReference
  2
_DOTSMALL
 10
7035.689423619482
 20
10575.49587462578
 30
0.0
 41
100.0
 42
100.0
 43
100.0
 50
180.0
  0
MTEXT
  5
1A03E
330
18AC8
100
AcDbEntity
  8
寸法
 62
     7
 48
50.0
100
AcDbMText
 10
7344.17470499372
 20
10675.49587462578
 30
0.0
 40
120.0
 41
0.0
 71
     5
 72
     1
  1
\A1;55
  7
STYLE1
 73
     1
 44
1.0
1001
ACAD
1000
MTEXTBEGIN
1070
    73
1070
     1
1070
    44
1040
1.0
1070
    74
1070
     0
1000
MTEXTEND
  0
POINT
  5
1A03F
330
18AC8
100
AcDbEntity
  8
DEFPOINTS
 62
     0
 48
50.0
100
AcDbPoint
 10
6980.689423619482
 20
10059.6876550008
 30
0.0
  0
POINT
  5
1A040
330
18AC8
100
AcDbEntity
  8
DEFPOINTS
 62
     0
 48
50.0
100
AcDbPoint
 10
7035.689423619482
 20
10059.6876550008
 30
0.0
  0
POINT
  5
1A041
330
18AC8
100
AcDbEntity
  8
DEFPOINTS
 62
     0
 48
50.0
100
AcDbPoint
 10
7035.689423619482
 20
10575.49587462578
 30
0.0
  0
ENDBLK
  5
18AD5
330
18AC8
100
AcDbEntity
  8
0
 48
50.0
100
AcDbBlockEnd
  0
BLOCK
  5
18AE2
330
18AD6
100
AcDbEntity
  8
0
 48
50.0
100
AcDbBlockBegin
  2
*D10
 70
     1
 10
0.0
 20
0.0
 30
0.0
  3
*D10
  1

  0
LINE
  5
1A02C
330
18AD6
100
AcDbEntity
  8
寸法
 62
     0
 48
50.0
370
    -2
100
AcDbLine
 10
7055.689423619482
 20
10059.6876550008
 30
0.0
 11
7743.115769353892
 21
10059.6876550008
 31
0.0
  0
LINE
  5
1A02D
330
18AD6
100
AcDbEntity
  8
寸法
 62
     0
 48
50.0
370
    -2
100
AcDbLine
 10
7055.689423619482
 20
10004.6876550008
 30
0.0
 11
7743.115769353892
 21
10004.6876550008
 31
0.0
  0
LINE
  5
1A02E
330
18AD6
100
AcDbEntity
  8
寸法
 62
     0
 48
50.0
370
    -2
100
AcDbLine
 10
7683.115769353893
 20
10004.6876550008
 30
0.0
 11
7683.115769353893
 21
9904.687655000804
 31
0.0
  0
LINE
  5
1A02F
330
18AD6
100
AcDbEntity
  8
寸法
 62
     0
 48
50.0
370
    -2
100
AcDbLine
 10
7683.115769353893
 20
10059.6876550008
 30
0.0
 11
7683.115769353894
 21
10476.65821774927
 31
0.0
  0
LINE
  5
1A030
330
18AD6
100
AcDbEntity
  8
寸法
 62
     0
 48
50.0
370
    -2
100
AcDbLine
 10
7683.115769353893
 20
10004.6876550008
 30
0.0
 11
7683.115769353893
 21
10059.6876550008
 31
0.0
  0
INSERT
  5
1A031
330
18AD6
100
AcDbEntity
  8
寸法
 62
     0
 48
50.0
370
    -2
100
AcDbBlockReference
  2
_DOTSMALL
 10
7683.115769353893
 20
10004.6876550008
 30
0.0
 41
100.0
 42
100.0
 43
100.0
 50
90.0
  0
INSERT
  5
1A032
330
18AD6
100
AcDbEntity
  8
寸法
 62
     0
 48
50.0
370
    -2
100
AcDbBlockReference
  2
_DOTSMALL
 10
7683.115769353893
 20
10059.6876550008
 30
0.0
 41
100.0
 42
100.0
 43
100.0
 50
270.0
  0
MTEXT
  5
1A033
330
18AD6
100
AcDbEntity
  8
寸法
 62
     7
 48
50.0
100
AcDbMText
 10
7583.115769353891
 20
10368.17293637504
 30
0.0
 40
120.0
 41
0.0
 71
     5
 72
     1
  1
\A1;55
  7
STYLE1
 11
0.0000000000000001
 21
1.0
 31
0.0
 73
     1
 44
1.0
1001
ACAD
1000
MTEXTBEGIN
1070
    73
1070
     1
1070
    44
1040
1.0
1070
    74
1070
     0
1000
MTEXTEND
  0
POINT
  5
1A034
330
18AD6
100
AcDbEntity
  8
DEFPOINTS
 62
     0
 48
50.0
100
AcDbPoint
 10
7035.689423619482
 20
10059.6876550008
 30
0.0
  0
POINT
  5
1A035
330
18AD6
100
AcDbEntity
  8
DEFPOINTS
 62
     0
 48
50.0
100
AcDbPoint
 10
7035.689423619482
 20
10004.6876550008
 30
0.0
  0
POINT
  5
1A036
330
18AD6
100
AcDbEntity
  8
DEFPOINTS
 62
     0
 48
50.0
100
AcDbPoint
 10
7683.115769353893
 20
10004.6876550008
 30
0.0
  0
ENDBLK
  5
18AE3
330
18AD6
100
AcDbEntity
  8
0
 48
50.0
100
AcDbBlockEnd
  0
BLOCK
  5
18B51
330
18B47
100
AcDbEntity
  8
0
 48
50.0
100
AcDbBlockBegin
  2
*D11
 70
     1
 10
0.0
 20
0.0
 30
0.0
  3
*D11
  1

  0
LINE
  5
1A08E
330
18B47
100
AcDbEntity
  8
寸法
 62
     0
 48
50.0
370
    -2
100
AcDbLine
 10
7055.689423619482
 20
10004.6876550008
 30
0.0
 11
7743.115769353895
 21
10004.6876550008
 31
0.0
  0
LINE
  5
1A08F
330
18B47
100
AcDbEntity
  8
寸法
 62
     0
 48
50.0
370
    -2
100
AcDbLine
 10
7055.689423619456
 20
7484.687655000789
 30
0.0
 11
7743.115769353895
 21
7484.687655000789
 31
0.0
  0
LINE
  5
1A090
330
18B47
100
AcDbEntity
  8
寸法
 62
     0
 48
50.0
370
    -2
100
AcDbLine
 10
7683.115769353894
 20
10004.6876550008
 30
0.0
 11
7683.115769353894
 21
7484.687655000789
 31
0.0
  0
INSERT
  5
1A091
330
18B47
100
AcDbEntity
  8
寸法
 62
     0
 48
50.0
370
    -2
100
AcDbBlockReference
  2
_DOTSMALL
 10
7683.115769353894
 20
10004.6876550008
 30
0.0
 41
100.0
 42
100.0
 43
100.0
 50
90.0
  0
INSERT
  5
1A092
330
18B47
100
AcDbEntity
  8
寸法
 62
     0
 48
50.0
370
    -2
100
AcDbBlockReference
  2
_DOTSMALL
 10
7683.115769353894
 20
7484.687655000789
 30
0.0
 41
100.0
 42
100.0
 43
100.0
 50
270.0
  0
MTEXT
  5
1A093
330
18B47
100
AcDbEntity
  8
寸法
 62
     7
 48
50.0
100
AcDbMText
 10
7583.103958330273
 20
8744.687655000793
 30
0.0
 40
120.0
 41
0.0
 71
     5
 72
     1
  1
\A1;6X420=2520
  7
STYLE1
 11
0.0000000000000001
 21
1.0
 31
0.0
 73
     1
 44
1.0
1001
ACAD
1000
MTEXTBEGIN
1070
    73
1070
     1
1070
    44
1040
1.0
1070
    74
1070
     0
1000
MTEXTEND
  0
POINT
  5
1A094
330
18B47
100
AcDbEntity
  8
DEFPOINTS
 62
     0
 48
50.0
100
AcDbPoint
 10
7035.689423619482
 20
10004.6876550008
 30
0.0
  0
POINT
  5
1A095
330
18B47
100
AcDbEntity
  8
DEFPOINTS
 62
     0
 48
50.0
100
AcDbPoint
 10
7035.689423619456
 20
7484.687655000789
 30
0.0
  0
POINT
  5
1A096
330
18B47
100
AcDbEntity
  8
DEFPOINTS
 62
     0
 48
50.0
100
AcDbPoint
 10
7683.115769353894
 20
7484.687655000789
 30
0.0
  0
ENDBLK
  5
18B52
330
18B47
100
AcDbEntity
  8
0
 48
50.0
100
AcDbBlockEnd
  0
BLOCK
  5
18B5D
330
18B53
100
AcDbEntity
  8
0
 48
50.0
100
AcDbBlockBegin
  2
*D12
 70
     1
 10
0.0
 20
0.0
 30
0.0
  3
*D12
  1

  0
LINE
  5
1A085
330
18B53
100
AcDbEntity
  8
寸法
 62
     0
 48
50.0
370
    -2
100
AcDbLine
 10
7027.189423619482
 20
10024.32867115218
 30
0.0
 11
7422.547149481506
 21
9918.392887786044
 31
0.0
  0
LINE
  5
1A086
330
18B53
100
AcDbEntity
  8
寸法
 62
     0
 48
50.0
370
    -2
100
AcDbLine
 10
7027.189423619482
 20
9574.328671152182
 30
0.0
 11
7422.547149481506
 21
9468.392887786047
 31
0.0
  0
LINE
  5
1A087
330
18B53
100
AcDbEntity
  8
寸法
 62
     0
 48
50.0
370
    -2
100
AcDbLine
 10
7362.547149481507
 20
9934.46983933191
 30
0.0
 11
7362.547149481507
 21
9484.469839331914
 31
0.0
  0
INSERT
  5
1A088
330
18B53
100
AcDbEntity
  8
寸法
 62
     0
 48
50.0
370
    -2
100
AcDbBlockReference
  2
_DOTSMALL
 10
7362.547149481507
 20
9934.46983933191
 30
0.0
 41
100.0
 42
100.0
 43
100.0
 50
90.0
  0
INSERT
  5
1A089
330
18B53
100
AcDbEntity
  8
寸法
 62
     0
 48
50.0
370
    -2
100
AcDbBlockReference
  2
_DOTSMALL
 10
7362.547149481507
 20
9484.469839331914
 30
0.0
 41
100.0
 42
100.0
 43
100.0
 50
270.0
  0
MTEXT
  5
1A08A
330
18B53
100
AcDbEntity
  8
寸法
 62
     7
 48
50.0
100
AcDbMText
 10
7262.547149481505
 20
9709.469839331916
 30
0.0
 40
120.0
 41
0.0
 71
     5
 72
     1
  1
\A1;450
  7
STYLE1
 11
0.0000000000000001
 21
1.0
 31
0.0
 73
     1
 44
1.0
1001
ACAD
1000
MTEXTBEGIN
1070
    73
1070
     1
1070
    44
1040
1.0
1070
    74
1070
     0
1000
MTEXTEND
  0
POINT
  5
1A08B
330
18B53
100
AcDbEntity
  8
DEFPOINTS
 62
     0
 48
50.0
100
AcDbPoint
 10
7007.189423619482
 20
10029.6876550008
 30
0.0
  0
POINT
  5
1A08C
330
18B53
100
AcDbEntity
  8
DEFPOINTS
 62
     0
 48
50.0
100
AcDbPoint
 10
7007.189423619482
 20
9579.687655000803
 30
0.0
  0
POINT
  5
1A08D
330
18B53
100
AcDbEntity
  8
DEFPOINTS
 62
     0
 48
50.0
100
AcDbPoint
 10
7362.547149481507
 20
9484.469839331914
 30
0.0
  0
ENDBLK
  5
18B5E
330
18B53
100
AcDbEntity
  8
0
 48
50.0
100
AcDbBlockEnd
  0
BLOCK
  5
18B69
330
18B5F
100
AcDbEntity
  8
0
 48
50.0
100
AcDbBlockBegin
  2
*D13
 70
     1
 10
0.0
 20
0.0
 30
0.0
  3
*D13
  1

  0
LINE
  5
1A07C
330
18B5F
100
AcDbEntity
  8
寸法
 62
     0
 48
50.0
370
    -2
100
AcDbLine
 10
7055.689423619482
 20
10059.6876550008
 30
0.0
 11
8108.222711093532
 21
10059.6876550008
 31
0.0
  0
LINE
  5
1A07D
330
18B5F
100
AcDbEntity
  8
寸法
 62
     0
 48
50.0
370
    -2
100
AcDbLine
 10
7055.689423619456
 20
7429.687655000792
 30
0.0
 11
8108.222711093532
 21
7429.687655000792
 31
0.0
  0
LINE
  5
1A07E
330
18B5F
100
AcDbEntity
  8
寸法
 62
     0
 48
50.0
370
    -2
100
AcDbLine
 10
8048.222711093533
 20
10059.6876550008
 30
0.0
 11
8048.222711093533
 21
7429.687655000792
 31
0.0
  0
INSERT
  5
1A07F
330
18B5F
100
AcDbEntity
  8
寸法
 62
     0
 48
50.0
370
    -2
100
AcDbBlockReference
  2
_DOTSMALL
 10
8048.222711093533
 20
10059.6876550008
 30
0.0
 41
100.0
 42
100.0
 43
100.0
 50
90.0
  0
INSERT
  5
1A080
330
18B5F
100
AcDbEntity
  8
寸法
 62
     0
 48
50.0
370
    -2
100
AcDbBlockReference
  2
_DOTSMALL
 10
8048.222711093533
 20
7429.687655000792
 30
0.0
 41
100.0
 42
100.0
 43
100.0
 50
270.0
  0
MTEXT
  5
1A081
330
18B5F
100
AcDbEntity
  8
寸法
 62
     7
 48
50.0
100
AcDbMText
 10
7948.210900069909
 20
8744.687655000793
 30
0.0
 40
120.0
 41
0.0
 71
     5
 72
     1
  1
\A1;2630
  7
STYLE1
 11
0.0000000000000001
 21
1.0
 31
0.0
 73
     1
 44
1.0
1001
ACAD
1000
MTEXTBEGIN
1070
    73
1070
     1
1070
    44
1040
1.0
1070
    74
1070
     0
1000
MTEXTEND
  0
POINT
  5
1A082
330
18B5F
100
AcDbEntity
  8
DEFPOINTS
 62
     0
 48
50.0
100
AcDbPoint
 10
7035.689423619482
 20
10059.6876550008
 30
0.0
  0
POINT
  5
1A083
330
18B5F
100
AcDbEntity
  8
DEFPOINTS
 62
     0
 48
50.0
100
AcDbPoint
 10
7035.689423619456
 20
7429.687655000792
 30
0.0
  0
POINT
  5
1A084
330
18B5F
100
AcDbEntity
  8
DEFPOINTS
 62
     0
 48
50.0
100
AcDbPoint
 10
8048.222711093533
 20
7429.687655000792
 30
0.0
  0
ENDBLK
  5
18B6A
330
18B5F
100
AcDbEntity
  8
0
 48
50.0
100
AcDbBlockEnd
  0
BLOCK
  5
18B75
330
18B6B
100
AcDbEntity
  8
0
 48
50.0
100
AcDbBlockBegin
  2
*D14
 70
     1
 10
0.0
 20
0.0
 30
0.0
  3
*D14
  1

  0
LINE
  5
1A073
330
18B6B
100
AcDbEntity
  8
寸法
 62
     0
 48
50.0
370
    -2
100
AcDbLine
 10
5938.83043977086
 20
9559.687655000812
 30
0.0
 11
5870.876799075147
 21
9306.081215365132
 31
0.0
  0
LINE
  5
1A074
330
18B6B
100
AcDbEntity
  8
寸法
 62
     0
 48
50.0
370
    -2
100
AcDbLine
 10
7001.83043977087
 20
9559.687655000804
 30
0.0
 11
6933.876799075161
 21
9306.081215365132
 31
0.0
  0
LINE
  5
1A075
330
18B6B
100
AcDbEntity
  8
寸法
 62
     0
 48
50.0
370
    -2
100
AcDbLine
 10
5886.953750621014
 20
9366.081215365133
 30
0.0
 11
6949.953750621027
 21
9366.081215365133
 31
0.0
  0
INSERT
  5
1A076
330
18B6B
100
AcDbEntity
  8
寸法
 62
     0
 48
50.0
370
    -2
100
AcDbBlockReference
  2
_DOTSMALL
 10
5886.953750621014
 20
9366.081215365133
 30
0.0
 41
100.0
 42
100.0
 43
100.0
 50
180.0
  0
INSERT
  5
1A077
330
18B6B
100
AcDbEntity
  8
寸法
 62
     0
 48
50.0
370
    -2
100
AcDbBlockReference
  2
_DOTSMALL
 10
6949.953750621027
 20
9366.081215365133
 30
0.0
 41
100.0
 42
100.0
 43
100.0
  0
MTEXT
  5
1A078
330
18B6B
100
AcDbEntity
  8
寸法
 62
     7
 48
50.0
100
AcDbMText
 10
6467.079378741833
 20
9466.081215365134
 30
0.0
 40
120.0
 41
0.0
 71
     5
 72
     1
  1
\A1;1063
  7
STYLE1
 73
     1
 44
1.0
1001
ACAD
1000
MTEXTBEGIN
1070
    73
1070
     1
1070
    44
1040
1.0
1070
    74
1070
     0
1000
MTEXTEND
  0
POINT
  5
1A079
330
18B6B
100
AcDbEntity
  8
DEFPOINTS
 62
     0
 48
50.0
100
AcDbPoint
 10
5944.189423619482
 20
9579.68765500081
 30
0.0
  0
POINT
  5
1A07A
330
18B6B
100
AcDbEntity
  8
DEFPOINTS
 62
     0
 48
50.0
100
AcDbPoint
 10
7007.189423619493
 20
9579.687655000803
 30
0.0
  0
POINT
  5
1A07B
330
18B6B
100
AcDbEntity
  8
DEFPOINTS
 62
     0
 48
50.0
100
AcDbPoint
 10
6949.953750621027
 20
9366.081215365133
 30
0.0
  0
ENDBLK
  5
18B76
330
18B6B
100
AcDbEntity
  8
0
 48
50.0
100
AcDbBlockEnd
  0
BLOCK
  5
18B99
330
18B8F
100
AcDbEntity
  8
0
 48
50.0
100
AcDbBlockBegin
  2
*D15
 70
     1
 10
0.0
 20
0.0
 30
0.0
  3
*D15
  1

  0
LINE
  5
1A06A
330
18B8F
100
AcDbEntity
  8
寸法
 62
     0
 48
50.0
370
    -2
100
AcDbLine
 10
4679.830439770791
 20
9559.687655000754
 30
0.0
 11
4611.876799075064
 21
9306.081215365024
 31
0.0
  0
LINE
  5
1A06B
330
18B8F
100
AcDbEntity
  8
寸法
 62
     0
 48
50.0
370
    -2
100
AcDbLine
 10
5910.83043977086
 20
9559.687655000745
 30
0.0
 11
5842.876799075136
 21
9306.081215365024
 31
0.0
  0
LINE
  5
1A06C
330
18B8F
100
AcDbEntity
  8
寸法
 62
     0
 48
50.0
370
    -2
100
AcDbLine
 10
4627.953750620931
 20
9366.081215365024
 30
0.0
 11
5858.953750621003
 21
9366.081215365024
 31
0.0
  0
INSERT
  5
1A06D
330
18B8F
100
AcDbEntity
  8
寸法
 62
     0
 48
50.0
370
    -2
100
AcDbBlockReference
  2
_DOTSMALL
 10
4627.953750620931
 20
9366.081215365024
 30
0.0
 41
100.0
 42
100.0
 43
100.0
 50
180.0
  0
INSERT
  5
1A06E
330
18B8F
100
AcDbEntity
  8
寸法
 62
     0
 48
50.0
370
    -2
100
AcDbBlockReference
  2
_DOTSMALL
 10
5858.953750621003
 20
9366.081215365024
 30
0.0
 41
100.0
 42
100.0
 43
100.0
  0
MTEXT
  5
1A06F
330
18B8F
100
AcDbEntity
  8
寸法
 62
     7
 48
50.0
100
AcDbMText
 10
5487.037656833109
 20
9466.093026388646
 30
0.0
 40
120.0
 41
0.0
 71
     5
 72
     1
  1
\A1;1231
  7
STYLE1
 73
     1
 44
1.0
1001
ACAD
1000
MTEXTBEGIN
1070
    73
1070
     1
1070
    44
1040
1.0
1070
    74
1070
     0
1000
MTEXTEND
  0
POINT
  5
1A070
330
18B8F
100
AcDbEntity
  8
DEFPOINTS
 62
     0
 48
50.0
100
AcDbPoint
 10
4685.189423619413
 20
9579.687655000752
 30
0.0
  0
POINT
  5
1A071
330
18B8F
100
AcDbEntity
  8
DEFPOINTS
 62
     0
 48
50.0
100
AcDbPoint
 10
5916.189423619482
 20
9579.687655000745
 30
0.0
  0
POINT
  5
1A072
330
18B8F
100
AcDbEntity
  8
DEFPOINTS
 62
     0
 48
50.0
100
AcDbPoint
 10
5858.953750621003
 20
9366.081215365024
 30
0.0
  0
ENDBLK
  5
18B9A
330
18B8F
100
AcDbEntity
  8
0
 48
50.0
100
AcDbBlockEnd
  0
BLOCK
  5
18BA5
330
18B9B
100
AcDbEntity
  8
0
 48
50.0
100
AcDbBlockBegin
  2
*D16
 70
     1
 10
0.0
 20
0.0
 30
0.0
  3
*D16
  1

  0
LINE
  5
1A061
330
18B9B
100
AcDbEntity
  8
寸法
 62
     0
 48
50.0
370
    -2
100
AcDbLine
 10
3588.83043977086
 20
9559.687655000702
 30
0.0
 11
3520.876799075148
 21
9306.081215365024
 31
0.0
  0
LINE
  5
1A062
330
18B9B
100
AcDbEntity
  8
寸法
 62
     0
 48
50.0
370
    -2
100
AcDbLine
 10
4651.83043977079
 20
9559.687655000756
 30
0.0
 11
4583.876799075063
 21
9306.081215365024
 31
0.0
  0
LINE
  5
1A063
330
18B9B
100
AcDbEntity
  8
寸法
 62
     0
 48
50.0
370
    -2
100
AcDbLine
 10
3536.953750621015
 20
9366.081215365024
 30
0.0
 11
4599.953750620931
 21
9366.081215365024
 31
0.0
  0
INSERT
  5
1A064
330
18B9B
100
AcDbEntity
  8
寸法
 62
     0
 48
50.0
370
    -2
100
AcDbBlockReference
  2
_DOTSMALL
 10
3536.953750621015
 20
9366.081215365024
 30
0.0
 41
100.0
 42
100.0
 43
100.0
 50
180.0
  0
INSERT
  5
1A065
330
18B9B
100
AcDbEntity
  8
寸法
 62
     0
 48
50.0
370
    -2
100
AcDbBlockReference
  2
_DOTSMALL
 10
4599.953750620931
 20
9366.081215365024
 30
0.0
 41
100.0
 42
100.0
 43
100.0
  0
MTEXT
  5
1A066
330
18B9B
100
AcDbEntity
  8
寸法
 62
     7
 48
50.0
100
AcDbMText
 10
4064.779301167789
 20
9466.081215365024
 30
0.0
 40
120.0
 41
0.0
 71
     5
 72
     1
  1
\A1;1063
  7
STYLE1
 73
     1
 44
1.0
1001
ACAD
1000
MTEXTBEGIN
1070
    73
1070
     1
1070
    44
1040
1.0
1070
    74
1070
     0
1000
MTEXTEND
  0
POINT
  5
1A067
330
18B9B
100
AcDbEntity
  8
DEFPOINTS
 62
     0
 48
50.0
100
AcDbPoint
 10
3594.189423619482
 20
9579.687655000702
 30
0.0
  0
POINT
  5
1A068
330
18B9B
100
AcDbEntity
  8
DEFPOINTS
 62
     0
 48
50.0
100
AcDbPoint
 10
4657.189423619413
 20
9579.687655000755
 30
0.0
  0
POINT
  5
1A069
330
18B9B
100
AcDbEntity
  8
DEFPOINTS
 62
     0
 48
50.0
100
AcDbPoint
 10
4599.953750620931
 20
9366.081215365024
 30
0.0
  0
ENDBLK
  5
18BA6
330
18B9B
100
AcDbEntity
  8
0
 48
50.0
100
AcDbBlockEnd
  0
BLOCK
  5
18BB3
330
18BA7
100
AcDbEntity
  8
0
 48
50.0
100
AcDbBlockBegin
  2
*D17
 70
     1
 10
0.0
 20
0.0
 30
0.0
  3
*D17
  1

  0
LINE
  5
1A056
330
18BA7
100
AcDbEntity
  8
寸法
 62
     0
 48
50.0
370
    -2
100
AcDbLine
 10
7055.689423619456
 20
7484.687655000789
 30
0.0
 11
7743.115769353868
 21
7484.687655000789
 31
0.0
  0
LINE
  5
1A057
330
18BA7
100
AcDbEntity
  8
寸法
 62
     0
 48
50.0
370
    -2
100
AcDbLine
 10
7055.689423619456
 20
7429.687655000792
 30
0.0
 11
7743.115769353868
 21
7429.687655000792
 31
0.0
  0
LINE
  5
1A058
330
18BA7
100
AcDbEntity
  8
寸法
 62
     0
 48
50.0
370
    -2
100
AcDbLine
 10
7683.115769353868
 20
7484.687655000789
 30
0.0
 11
7683.115769353868
 21
7584.687655000789
 31
0.0
  0
LINE
  5
1A059
330
18BA7
100
AcDbEntity
  8
寸法
 62
     0
 48
50.0
370
    -2
100
AcDbLine
 10
7683.115769353868
 20
7429.687655000792
 30
0.0
 11
7683.115769353868
 21
7012.71709225231
 31
0.0
  0
LINE
  5
1A05A
330
18BA7
100
AcDbEntity
  8
寸法
 62
     0
 48
50.0
370
    -2
100
AcDbLine
 10
7683.115769353868
 20
7484.687655000789
 30
0.0
 11
7683.115769353868
 21
7429.687655000792
 31
0.0
  0
INSERT
  5
1A05B
330
18BA7
100
AcDbEntity
  8
寸法
 62
     0
 48
50.0
370
    -2
100
AcDbBlockReference
  2
_DOTSMALL
 10
7683.115769353868
 20
7484.687655000789
 30
0.0
 41
100.0
 42
100.0
 43
100.0
 50
270.0
  0
INSERT
  5
1A05C
330
18BA7
100
AcDbEntity
  8
寸法
 62
     0
 48
50.0
370
    -2
100
AcDbBlockReference
  2
_DOTSMALL
 10
7683.115769353868
 20
7429.687655000792
 30
0.0
 41
100.0
 42
100.0
 43
100.0
 50
90.0
  0
MTEXT
  5
1A05D
330
18BA7
100
AcDbEntity
  8
寸法
 62
     7
 48
50.0
100
AcDbMText
 10
7583.115769353866
 20
7121.202373626551
 30
0.0
 40
120.0
 41
0.0
 71
     5
 72
     1
  1
\A1;55
  7
STYLE1
 11
0.0000000000000001
 21
1.0
 31
0.0
 73
     1
 44
1.0
1001
ACAD
1000
MTEXTBEGIN
1070
    73
1070
     1
1070
    44
1040
1.0
1070
    74
1070
     0
1000
MTEXTEND
  0
POINT
  5
1A05E
330
18BA7
100
AcDbEntity
  8
DEFPOINTS
 62
     0
 48
50.0
100
AcDbPoint
 10
7035.689423619456
 20
7484.687655000789
 30
0.0
  0
POINT
  5
1A05F
330
18BA7
100
AcDbEntity
  8
DEFPOINTS
 62
     0
 48
50.0
100
AcDbPoint
 10
7035.689423619456
 20
7429.687655000792
 30
0.0
  0
POINT
  5
1A060
330
18BA7
100
AcDbEntity
  8
DEFPOINTS
 62
     0
 48
50.0
100
AcDbPoint
 10
7683.115769353868
 20
7429.687655000792
 30
0.0
  0
ENDBLK
  5
18BB4
330
18BA7
100
AcDbEntity
  8
0
 48
50.0
100
AcDbBlockEnd
  0
BLOCK
  5
19225
330
1921B
100
AcDbEntity
  8
0
 48
50.0
100
AcDbBlockBegin
  2
*D18
 70
     1
 10
0.0
 20
0.0
 30
0.0
  3
*D18
  1

  0
LINE
  5
1ACDE
330
1921B
100
AcDbEntity
  8
寸法
 62
     0
 48
50.0
370
    -2
100
AcDbLine
 10
10128.55170549079
 20
4175.724067236465
 30
0.0
 11
9244.80157630753
 21
4175.724067236465
 31
0.0
  0
LINE
  5
1ACDF
330
1921B
100
AcDbEntity
  8
寸法
 62
     0
 48
50.0
370
    -2
100
AcDbLine
 10
10128.55170549079
 20
2385.724067236465
 30
0.0
 11
9244.801576307528
 21
2385.724067236465
 31
0.0
  0
LINE
  5
1ACE0
330
1921B
100
AcDbEntity
  8
寸法
 62
     0
 48
50.0
370
    -2
100
AcDbLine
 10
9304.80157630753
 20
4175.724067236465
 30
0.0
 11
9304.80157630753
 21
2385.724067236465
 31
0.0
  0
INSERT
  5
1ACE1
330
1921B
100
AcDbEntity
  8
寸法
 62
     0
 48
50.0
370
    -2
100
AcDbBlockReference
  2
_DOTSMALL
 10
9304.80157630753
 20
4175.724067236465
 30
0.0
 41
100.0
 42
100.0
 43
100.0
 50
90.0
  0
INSERT
  5
1ACE2
330
1921B
100
AcDbEntity
  8
寸法
 62
     0
 48
50.0
370
    -2
100
AcDbBlockReference
  2
_DOTSMALL
 10
9304.80157630753
 20
2385.724067236465
 30
0.0
 41
100.0
 42
100.0
 43
100.0
 50
270.0
  0
MTEXT
  5
1ACE3
330
1921B
100
AcDbEntity
  8
寸法
 62
     7
 48
50.0
100
AcDbMText
 10
9204.801576307529
 20
3280.724067236467
 30
0.0
 40
120.0
 41
0.0
 71
     5
 72
     1
  1
\A1;1790
  7
STYLE1
 11
0.0000000000000001
 21
1.0
 31
0.0
 73
     1
 44
1.0
1001
ACAD
1000
MTEXTBEGIN
1070
    73
1070
     1
1070
    44
1040
1.0
1070
    74
1070
     0
1000
MTEXTEND
  0
POINT
  5
1ACE4
330
1921B
100
AcDbEntity
  8
DEFPOINTS
 62
     0
 48
50.0
100
AcDbPoint
 10
10148.55170549079
 20
4175.724067236465
 30
0.0
  0
POINT
  5
1ACE5
330
1921B
100
AcDbEntity
  8
DEFPOINTS
 62
     0
 48
50.0
100
AcDbPoint
 10
10148.55170549079
 20
2385.724067236465
 30
0.0
  0
POINT
  5
1ACE6
330
1921B
100
AcDbEntity
  8
DEFPOINTS
 62
     0
 48
50.0
100
AcDbPoint
 10
9304.80157630753
 20
2385.724067236465
 30
0.0
  0
ENDBLK
  5
19226
330
1921B
100
AcDbEntity
  8
0
 48
50.0
100
AcDbBlockEnd
  0
BLOCK
  5
19231
330
19227
100
AcDbEntity
  8
0
 48
50.0
100
AcDbBlockBegin
  2
*D19
 70
     1
 10
0.0
 20
0.0
 30
0.0
  3
*D19
  1

  0
LINE
  5
1ACD5
330
19227
100
AcDbEntity
  8
寸法
 62
     0
 48
50.0
370
    -2
100
AcDbLine
 10
10051.55170549078
 20
2335.724067236466
 30
0.0
 11
8944.801576307527
 21
2335.724067236466
 31
0.0
  0
LINE
  5
1ACD6
330
19227
100
AcDbEntity
  8
寸法
 62
     0
 48
50.0
370
    -2
100
AcDbLine
 10
10068.55170549079
 20
4410.724067236469
 30
0.0
 11
8944.801576307529
 21
4410.724067236469
 31
0.0
  0
LINE
  5
1ACD7
330
19227
100
AcDbEntity
  8
寸法
 62
     0
 48
50.0
370
    -2
100
AcDbLine
 10
9004.801576307526
 20
2335.724067236466
 30
0.0
 11
9004.80157630753
 21
4410.724067236469
 31
0.0
  0
INSERT
  5
1ACD8
330
19227
100
AcDbEntity
  8
寸法
 62
     0
 48
50.0
370
    -2
100
AcDbBlockReference
  2
_DOTSMALL
 10
9004.801576307526
 20
2335.724067236466
 30
0.0
 41
100.0
 42
100.0
 43
100.0
 50
270.0
  0
INSERT
  5
1ACD9
330
19227
100
AcDbEntity
  8
寸法
 62
     0
 48
50.0
370
    -2
100
AcDbBlockReference
  2
_DOTSMALL
 10
9004.80157630753
 20
4410.724067236469
 30
0.0
 41
100.0
 42
100.0
 43
100.0
 50
90.0
  0
MTEXT
  5
1ACDA
330
19227
100
AcDbEntity
  8
寸法
 62
     7
 48
50.0
100
AcDbMText
 10
8904.789765283906
 20
3373.224067236469
 30
0.0
 40
120.0
 41
0.0
 71
     5
 72
     1
  1
\A1;2075
  7
STYLE1
 11
0.0000000000000001
 21
1.0
 31
0.0
 73
     1
 44
1.0
1001
ACAD
1000
MTEXTBEGIN
1070
    73
1070
     1
1070
    44
1040
1.0
1070
    74
1070
     0
1000
MTEXTEND
  0
POINT
  5
1ACDB
330
19227
100
AcDbEntity
  8
DEFPOINTS
 62
     0
 48
50.0
100
AcDbPoint
 10
10071.55170549078
 20
2335.724067236466
 30
0.0
  0
POINT
  5
1ACDC
330
19227
100
AcDbEntity
  8
DEFPOINTS
 62
     0
 48
50.0
100
AcDbPoint
 10
10088.55170549079
 20
4410.724067236469
 30
0.0
  0
POINT
  5
1ACDD
330
19227
100
AcDbEntity
  8
DEFPOINTS
 62
     0
 48
50.0
100
AcDbPoint
 10
9004.80157630753
 20
4410.724067236469
 30
0.0
  0
ENDBLK
  5
19232
330
19227
100
AcDbEntity
  8
0
 48
50.0
100
AcDbBlockEnd
  0
BLOCK
  5
1923D
330
19233
100
AcDbEntity
  8
0
 48
50.0
100
AcDbBlockBegin
  2
*D20
 70
     1
 10
0.0
 20
0.0
 30
0.0
  3
*D20
  1

  0
LINE
  5
1ACF0
330
19233
100
AcDbEntity
  8
寸法
 62
     0
 48
50.0
370
    -2
100
AcDbLine
 10
12798.55170549079
 20
2335.724067236471
 30
0.0
 11
13543.47886346291
 21
2335.72406723647
 31
0.0
  0
LINE
  5
1ACF1
330
19233
100
AcDbEntity
  8
寸法
 62
     0
 48
50.0
370
    -2
100
AcDbLine
 10
12878.55170549079
 20
4355.72406723647
 30
0.0
 11
13543.47886346292
 21
4355.72406723647
 31
0.0
  0
LINE
  5
1ACF2
330
19233
100
AcDbEntity
  8
寸法
 62
     0
 48
50.0
370
    -2
100
AcDbLine
 10
13483.47886346291
 20
2335.72406723647
 30
0.0
 11
13483.47886346292
 21
4355.72406723647
 31
0.0
  0
INSERT
  5
1ACF3
330
19233
100
AcDbEntity
  8
寸法
 62
     0
 48
50.0
370
    -2
100
AcDbBlockReference
  2
_DOTSMALL
 10
13483.47886346291
 20
2335.72406723647
 30
0.0
 41
100.0
 42
100.0
 43
100.0
 50
270.0
  0
INSERT
  5
1ACF4
330
19233
100
AcDbEntity
  8
寸法
 62
     0
 48
50.0
370
    -2
100
AcDbBlockReference
  2
_DOTSMALL
 10
13483.47886346292
 20
4355.72406723647
 30
0.0
 41
100.0
 42
100.0
 43
100.0
 50
90.0
  0
MTEXT
  5
1ACF5
330
19233
100
AcDbEntity
  8
寸法
 62
     7
 48
50.0
100
AcDbMText
 10
13383.46705243929
 20
3345.724067236473
 30
0.0
 40
120.0
 41
0.0
 71
     5
 72
     1
  1
\A1;2020
  7
STYLE1
 11
0.0000000000000001
 21
1.0
 31
0.0
 73
     1
 44
1.0
1001
ACAD
1000
MTEXTBEGIN
1070
    73
1070
     1
1070
    44
1040
1.0
1070
    74
1070
     0
1000
MTEXTEND
  0
POINT
  5
1ACF6
330
19233
100
AcDbEntity
  8
DEFPOINTS
 62
     0
 48
50.0
100
AcDbPoint
 10
12778.55170549079
 20
2335.724067236471
 30
0.0
  0
POINT
  5
1ACF7
330
19233
100
AcDbEntity
  8
DEFPOINTS
 62
     0
 48
50.0
100
AcDbPoint
 10
12858.55170549079
 20
4355.72406723647
 30
0.0
  0
POINT
  5
1ACF8
330
19233
100
AcDbEntity
  8
DEFPOINTS
 62
     0
 48
50.0
100
AcDbPoint
 10
13483.47886346292
 20
4355.72406723647
 30
0.0
  0
ENDBLK
  5
1923E
330
19233
100
AcDbEntity
  8
0
 48
50.0
100
AcDbBlockEnd
  0
BLOCK
  5
1924A
330
1923F
100
AcDbEntity
  8
0
 48
50.0
100
AcDbBlockBegin
  2
*D21
 70
     1
 10
0.0
 20
0.0
 30
0.0
  3
*D21
  1

  0
LINE
  5
19882
330
1923F
100
AcDbEntity
  8
寸法
 62
     0
 48
50.0
370
    -2
100
AcDbLine
 10
10051.55170549078
 20
2335.724067236466
 30
0.0
 11
8944.801576307529
 21
2335.724067236466
 31
0.0
  0
LINE
  5
19883
330
1923F
100
AcDbEntity
  8
寸法
 62
     0
 48
50.0
370
    -2
100
AcDbLine
 10
9072.050629595656
 20
2235.724067236469
 30
0.0
 11
8944.801576307529
 21
2235.724067236469
 31
0.0
  0
LINE
  5
19884
330
1923F
100
AcDbEntity
  8
寸法
 62
     0
 48
50.0
370
    -2
100
AcDbLine
 10
9004.80157630753
 20
2335.724067236466
 30
0.0
 11
9004.80157630753
 21
2235.724067236469
 31
0.0
  0
LINE
  5
19885
330
1923F
100
AcDbEntity
  8
寸法
 62
     0
 48
50.0
370
    -2
100
AcDbLine
 10
9004.80157630753
 20
2235.724067236469
 30
0.0
 11
9004.80157630753
 21
1863.62957904749
 31
0.0
  0
INSERT
  5
19886
330
1923F
100
AcDbEntity
  8
寸法
 62
     0
 48
50.0
370
    -2
100
AcDbBlockReference
  2
_DOTSMALL
 10
9004.80157630753
 20
2335.724067236466
 30
0.0
 41
100.0
 42
100.0
 43
100.0
 50
90.0
  0
INSERT
  5
19887
330
1923F
100
AcDbEntity
  8
寸法
 62
     0
 48
50.0
370
    -2
100
AcDbBlockReference
  2
_DOTSMALL
 10
9004.80157630753
 20
2235.724067236469
 30
0.0
 41
100.0
 42
100.0
 43
100.0
 50
270.0
  0
MTEXT
  5
19888
330
1923F
100
AcDbEntity
  8
寸法
 62
     7
 48
50.0
100
AcDbMText
 10
8904.80157630753
 20
1999.67682314198
 30
0.0
 40
120.0
 41
0.0
 71
     5
 72
     1
  1
\A1;100
  7
STYLE1
 11
0.0000000000000001
 21
1.0
 31
0.0
 73
     1
 44
1.0
1001
ACAD
1000
MTEXTBEGIN
1070
    73
1070
     1
1070
    44
1040
1.0
1070
    74
1070
     0
1000
MTEXTEND
  0
POINT
  5
19889
330
1923F
100
AcDbEntity
  8
DEFPOINTS
 62
     0
 48
50.0
100
AcDbPoint
 10
10071.55170549078
 20
2335.724067236466
 30
0.0
  0
POINT
  5
1988A
330
1923F
100
AcDbEntity
  8
DEFPOINTS
 62
     0
 48
50.0
100
AcDbPoint
 10
9092.050629595657
 20
2235.724067236469
 30
0.0
  0
POINT
  5
1988B
330
1923F
100
AcDbEntity
  8
DEFPOINTS
 62
     0
 48
50.0
100
AcDbPoint
 10
9004.80157630753
 20
2235.724067236469
 30
0.0
  0
ENDBLK
  5
1924B
330
1923F
100
AcDbEntity
  8
0
 48
50.0
100
AcDbBlockEnd
  0
BLOCK
  5
19258
330
1924C
100
AcDbEntity
  8
0
 48
50.0
100
AcDbBlockBegin
  2
*D22
 70
     1
 10
0.0
 20
0.0
 30
0.0
  3
*D22
  1

  0
LINE
  5
19877
330
1924C
100
AcDbEntity
  8
寸法
 62
     0
 48
50.0
370
    -2
100
AcDbLine
 10
10128.55170549079
 20
2385.72406723647
 30
0.0
 11
9244.801576307528
 21
2385.72406723647
 31
0.0
  0
LINE
  5
19878
330
1924C
100
AcDbEntity
  8
寸法
 62
     0
 48
50.0
370
    -2
100
AcDbLine
 10
10051.55170549078
 20
2335.724067236466
 30
0.0
 11
9244.801576307528
 21
2335.724067236466
 31
0.0
  0
LINE
  5
19879
330
1924C
100
AcDbEntity
  8
寸法
 62
     0
 48
50.0
370
    -2
100
AcDbLine
 10
9304.80157630753
 20
2385.72406723647
 30
0.0
 11
9304.80157630753
 21
2485.72406723647
 31
0.0
  0
LINE
  5
1987A
330
1924C
100
AcDbEntity
  8
寸法
 62
     0
 48
50.0
370
    -2
100
AcDbLine
 10
9304.80157630753
 20
2335.724067236466
 30
0.0
 11
9304.80157630753
 21
1923.629579047488
 31
0.0
  0
LINE
  5
1987B
330
1924C
100
AcDbEntity
  8
寸法
 62
     0
 48
50.0
370
    -2
100
AcDbLine
 10
9304.80157630753
 20
2385.72406723647
 30
0.0
 11
9304.80157630753
 21
2335.724067236466
 31
0.0
  0
INSERT
  5
1987C
330
1924C
100
AcDbEntity
  8
寸法
 62
     0
 48
50.0
370
    -2
100
AcDbBlockReference
  2
_DOTSMALL
 10
9304.80157630753
 20
2385.72406723647
 30
0.0
 41
100.0
 42
100.0
 43
100.0
 50
270.0
  0
INSERT
  5
1987D
330
1924C
100
AcDbEntity
  8
寸法
 62
     0
 48
50.0
370
    -2
100
AcDbBlockReference
  2
_DOTSMALL
 10
9304.80157630753
 20
2335.724067236466
 30
0.0
 41
100.0
 42
100.0
 43
100.0
 50
90.0
  0
MTEXT
  5
1987E
330
1924C
100
AcDbEntity
  8
寸法
 62
     7
 48
50.0
100
AcDbMText
 10
9204.801576307529
 20
2029.676823141977
 30
0.0
 40
120.0
 41
0.0
 71
     5
 72
     1
  1
\A1;50
  7
STYLE1
 11
0.0000000000000001
 21
1.0
 31
0.0
 73
     1
 44
1.0
1001
ACAD
1000
MTEXTBEGIN
1070
    73
1070
     1
1070
    44
1040
1.0
1070
    74
1070
     0
1000
MTEXTEND
  0
POINT
  5
1987F
330
1924C
100
AcDbEntity
  8
DEFPOINTS
 62
     0
 48
50.0
100
AcDbPoint
 10
10148.55170549079
 20
2385.72406723647
 30
0.0
  0
POINT
  5
19880
330
1924C
100
AcDbEntity
  8
DEFPOINTS
 62
     0
 48
50.0
100
AcDbPoint
 10
10071.55170549078
 20
2335.724067236466
 30
0.0
  0
POINT
  5
19881
330
1924C
100
AcDbEntity
  8
DEFPOINTS
 62
     0
 48
50.0
100
AcDbPoint
 10
9304.80157630753
 20
2335.724067236466
 30
0.0
  0
ENDBLK
  5
19259
330
1924C
100
AcDbEntity
  8
0
 48
50.0
100
AcDbBlockEnd
  0
BLOCK
  5
19264
330
1925A
100
AcDbEntity
  8
0
 48
50.0
100
AcDbBlockBegin
  2
*D23
 70
     1
 10
0.0
 20
0.0
 30
0.0
  3
*D23
  1

  0
LINE
  5
1ACCC
330
1925A
100
AcDbEntity
  8
寸法
 62
     0
 48
50.0
370
    -2
100
AcDbLine
 10
12778.55170549079
 20
4377.534746848124
 30
0.0
 11
12778.55170549079
 21
4869.381520815775
 31
0.0
  0
LINE
  5
1ACCD
330
1925A
100
AcDbEntity
  8
寸法
 62
     0
 48
50.0
370
    -2
100
AcDbLine
 10
10148.55170549079
 20
4426.725685359445
 30
0.0
 11
10148.55170549079
 21
4869.381520815775
 31
0.0
  0
LINE
  5
1ACCE
330
1925A
100
AcDbEntity
  8
寸法
 62
     0
 48
50.0
370
    -2
100
AcDbLine
 10
12778.55170549079
 20
4809.381520815775
 30
0.0
 11
10148.55170549079
 21
4809.381520815775
 31
0.0
  0
INSERT
  5
1ACCF
330
1925A
100
AcDbEntity
  8
寸法
 62
     0
 48
50.0
370
    -2
100
AcDbBlockReference
  2
_DOTSMALL
 10
12778.55170549079
 20
4809.381520815775
 30
0.0
 41
100.0
 42
100.0
 43
100.0
  0
INSERT
  5
1ACD0
330
1925A
100
AcDbEntity
  8
寸法
 62
     0
 48
50.0
370
    -2
100
AcDbBlockReference
  2
_DOTSMALL
 10
10148.55170549079
 20
4809.381520815775
 30
0.0
 41
100.0
 42
100.0
 43
100.0
 50
180.0
  0
MTEXT
  5
1ACD1
330
1925A
100
AcDbEntity
  8
寸法
 62
     7
 48
50.0
100
AcDbMText
 10
11503.32189651998
 20
4909.393331839396
 30
0.0
 40
120.0
 41
0.0
 71
     5
 72
     1
  1
\A1;柱外寸法2630
  7
STYLE1
 73
     1
 44
1.0
1001
ACAD
1000
MTEXTBEGIN
1070
    73
1070
     1
1070
    44
1040
1.0
1070
    74
1070
     0
1000
MTEXTEND
  0
POINT
  5
1ACD2
330
1925A
100
AcDbEntity
  8
DEFPOINTS
 62
     0
 48
50.0
100
AcDbPoint
 10
12778.55170549079
 20
4357.534746848124
 30
0.0
  0
POINT
  5
1ACD3
330
1925A
100
AcDbEntity
  8
DEFPOINTS
 62
     0
 48
50.0
100
AcDbPoint
 10
10148.55170549079
 20
4406.725685359446
 30
0.0
  0
POINT
  5
1ACD4
330
1925A
100
AcDbEntity
  8
DEFPOINTS
 62
     0
 48
50.0
100
AcDbPoint
 10
10148.55170549079
 20
4809.381520815775
 30
0.0
  0
ENDBLK
  5
19265
330
1925A
100
AcDbEntity
  8
0
 48
50.0
100
AcDbBlockEnd
  0
BLOCK
  5
19272
330
19266
100
AcDbEntity
  8
0
 48
50.0
100
AcDbBlockBegin
  2
*D24
 70
     1
 10
0.0
 20
0.0
 30
0.0
  3
*D24
  1

  0
LINE
  5
1ACC1
330
19266
100
AcDbEntity
  8
寸法
 62
     0
 48
50.0
370
    -2
100
AcDbLine
 10
10148.55170549079
 20
4426.725685359445
 30
0.0
 11
10148.55170549079
 21
4869.381520815774
 31
0.0
  0
LINE
  5
1ACC2
330
19266
100
AcDbEntity
  8
寸法
 62
     0
 48
50.0
370
    -2
100
AcDbLine
 10
10088.55170549079
 20
4430.724067236474
 30
0.0
 11
10088.55170549079
 21
4869.381520815774
 31
0.0
  0
LINE
  5
1ACC3
330
19266
100
AcDbEntity
  8
寸法
 62
     0
 48
50.0
370
    -2
100
AcDbLine
 10
10148.55170549079
 20
4809.381520815774
 30
0.0
 11
10248.55170549079
 21
4809.381520815774
 31
0.0
  0
LINE
  5
1ACC4
330
19266
100
AcDbEntity
  8
寸法
 62
     0
 48
50.0
370
    -2
100
AcDbLine
 10
10088.55170549079
 20
4809.381520815774
 30
0.0
 11
9669.276114939609
 21
4809.381520815774
 31
0.0
  0
LINE
  5
1ACC5
330
19266
100
AcDbEntity
  8
寸法
 62
     0
 48
50.0
370
    -2
100
AcDbLine
 10
10148.55170549079
 20
4809.381520815774
 30
0.0
 11
10088.55170549079
 21
4809.381520815774
 31
0.0
  0
INSERT
  5
1ACC6
330
19266
100
AcDbEntity
  8
寸法
 62
     0
 48
50.0
370
    -2
100
AcDbBlockReference
  2
_DOTSMALL
 10
10148.55170549079
 20
4809.381520815774
 30
0.0
 41
100.0
 42
100.0
 43
100.0
 50
180.0
  0
INSERT
  5
1ACC7
330
19266
100
AcDbEntity
  8
寸法
 62
     0
 48
50.0
370
    -2
100
AcDbBlockReference
  2
_DOTSMALL
 10
10088.55170549079
 20
4809.381520815774
 30
0.0
 41
100.0
 42
100.0
 43
100.0
  0
MTEXT
  5
1ACC8
330
19266
100
AcDbEntity
  8
寸法
 62
     7
 48
50.0
100
AcDbMText
 10
9778.9139102152
 20
4909.381520815774
 30
0.0
 40
120.0
 41
0.0
 71
     5
 72
     1
  1
\A1;60
  7
STYLE1
 73
     1
 44
1.0
1001
ACAD
1000
MTEXTBEGIN
1070
    73
1070
     1
1070
    44
1040
1.0
1070
    74
1070
     0
1000
MTEXTEND
  0
POINT
  5
1ACC9
330
19266
100
AcDbEntity
  8
DEFPOINTS
 62
     0
 48
50.0
100
AcDbPoint
 10
10148.55170549079
 20
4406.725685359446
 30
0.0
  0
POINT
  5
1ACCA
330
19266
100
AcDbEntity
  8
DEFPOINTS
 62
     0
 48
50.0
100
AcDbPoint
 10
10088.55170549079
 20
4410.724067236475
 30
0.0
  0
POINT
  5
1ACCB
330
19266
100
AcDbEntity
  8
DEFPOINTS
 62
     0
 48
50.0
100
AcDbPoint
 10
10088.55170549079
 20
4809.381520815774
 30
0.0
  0
ENDBLK
  5
19273
330
19266
100
AcDbEntity
  8
0
 48
50.0
100
AcDbBlockEnd
  0
BLOCK
  5
1927E
330
19274
100
AcDbEntity
  8
0
 48
50.0
100
AcDbBlockBegin
  2
*D25
 70
     1
 10
0.0
 20
0.0
 30
0.0
  3
*D25
  1

  0
LINE
  5
1ACB8
330
19274
100
AcDbEntity
  8
寸法
 62
     0
 48
50.0
370
    -2
100
AcDbLine
 10
12858.55170549079
 20
4375.724067236471
 30
0.0
 11
12858.55170549079
 21
5089.592207547392
 31
0.0
  0
LINE
  5
1ACB9
330
19274
100
AcDbEntity
  8
寸法
 62
     0
 48
50.0
370
    -2
100
AcDbLine
 10
10088.55170549079
 20
4430.724067236474
 30
0.0
 11
10088.55170549079
 21
5089.592207547392
 31
0.0
  0
LINE
  5
1ACBA
330
19274
100
AcDbEntity
  8
寸法
 62
     0
 48
50.0
370
    -2
100
AcDbLine
 10
12858.55170549079
 20
5029.592207547391
 30
0.0
 11
10088.55170549079
 21
5029.592207547391
 31
0.0
  0
INSERT
  5
1ACBB
330
19274
100
AcDbEntity
  8
寸法
 62
     0
 48
50.0
370
    -2
100
AcDbBlockReference
  2
_DOTSMALL
 10
12858.55170549079
 20
5029.592207547391
 30
0.0
 41
100.0
 42
100.0
 43
100.0
  0
INSERT
  5
1ACBC
330
19274
100
AcDbEntity
  8
寸法
 62
     0
 48
50.0
370
    -2
100
AcDbBlockReference
  2
_DOTSMALL
 10
10088.55170549079
 20
5029.592207547391
 30
0.0
 41
100.0
 42
100.0
 43
100.0
 50
180.0
  0
MTEXT
  5
1ACBD
330
19274
100
AcDbEntity
  8
寸法
 62
     7
 48
50.0
100
AcDbMText
 10
11491.91063037816
 20
5129.604018571013
 30
0.0
 40
120.0
 41
0.0
 71
     5
 72
     1
  1
\A1;2770
  7
STYLE1
 73
     1
 44
1.0
1001
ACAD
1000
MTEXTBEGIN
1070
    73
1070
     1
1070
    44
1040
1.0
1070
    74
1070
     0
1000
MTEXTEND
  0
POINT
  5
1ACBE
330
19274
100
AcDbEntity
  8
DEFPOINTS
 62
     0
 48
50.0
100
AcDbPoint
 10
12858.55170549079
 20
4355.724067236471
 30
0.0
  0
POINT
  5
1ACBF
330
19274
100
AcDbEntity
  8
DEFPOINTS
 62
     0
 48
50.0
100
AcDbPoint
 10
10088.55170549079
 20
4410.724067236475
 30
0.0
  0
POINT
  5
1ACC0
330
19274
100
AcDbEntity
  8
DEFPOINTS
 62
     0
 48
50.0
100
AcDbPoint
 10
10088.55170549079
 20
5029.592207547391
 30
0.0
  0
ENDBLK
  5
1927F
330
19274
100
AcDbEntity
  8
0
 48
50.0
100
AcDbBlockEnd
  0
BLOCK
  5
1928B
330
19280
100
AcDbEntity
  8
0
 48
50.0
100
AcDbBlockBegin
  2
*D26
 70
     1
 10
0.0
 20
0.0
 30
0.0
  3
*D26
  1

  0
LINE
  5
1ACAE
330
19280
100
AcDbEntity
  8
寸法
 62
     0
 48
50.0
370
    -2
100
AcDbLine
 10
12778.55170549079
 20
4377.534746848124
 30
0.0
 11
12778.55170549079
 21
4869.381520815775
 31
0.0
  0
LINE
  5
1ACAF
330
19280
100
AcDbEntity
  8
寸法
 62
     0
 48
50.0
370
    -2
100
AcDbLine
 10
12858.55170549079
 20
4375.724067236471
 30
0.0
 11
12858.55170549079
 21
4869.381520815775
 31
0.0
  0
LINE
  5
1ACB0
330
19280
100
AcDbEntity
  8
寸法
 62
     0
 48
50.0
370
    -2
100
AcDbLine
 10
12778.55170549079
 20
4809.381520815775
 30
0.0
 11
12858.55170549079
 21
4809.381520815775
 31
0.0
  0
LINE
  5
1ACB1
330
19280
100
AcDbEntity
  8
寸法
 62
     0
 48
50.0
370
    -2
100
AcDbLine
 10
12858.55170549079
 20
4809.381520815775
 30
0.0
 11
13170.64619367977
 21
4809.381520815775
 31
0.0
  0
INSERT
  5
1ACB2
330
19280
100
AcDbEntity
  8
寸法
 62
     0
 48
50.0
370
    -2
100
AcDbBlockReference
  2
_DOTSMALL
 10
12778.55170549079
 20
4809.381520815775
 30
0.0
 41
100.0
 42
100.0
 43
100.0
 50
180.0
  0
INSERT
  5
1ACB3
330
19280
100
AcDbEntity
  8
寸法
 62
     0
 48
50.0
370
    -2
100
AcDbBlockReference
  2
_DOTSMALL
 10
12858.55170549079
 20
4809.381520815775
 30
0.0
 41
100.0
 42
100.0
 43
100.0
  0
MTEXT
  5
1ACB4
330
19280
100
AcDbEntity
  8
寸法
 62
     7
 48
50.0
100
AcDbMText
 10
13064.59894958528
 20
4909.381520815775
 30
0.0
 40
120.0
 41
0.0
 71
     5
 72
     1
  1
\A1;80
  7
STYLE1
 73
     1
 44
1.0
1001
ACAD
1000
MTEXTBEGIN
1070
    73
1070
     1
1070
    44
1040
1.0
1070
    74
1070
     0
1000
MTEXTEND
  0
POINT
  5
1ACB5
330
19280
100
AcDbEntity
  8
DEFPOINTS
 62
     0
 48
50.0
100
AcDbPoint
 10
12778.55170549079
 20
4357.534746848124
 30
0.0
  0
POINT
  5
1ACB6
330
19280
100
AcDbEntity
  8
DEFPOINTS
 62
     0
 48
50.0
100
AcDbPoint
 10
12858.55170549079
 20
4355.724067236471
 30
0.0
  0
POINT
  5
1ACB7
330
19280
100
AcDbEntity
  8
DEFPOINTS
 62
     0
 48
50.0
100
AcDbPoint
 10
12858.55170549079
 20
4809.381520815775
 30
0.0
  0
ENDBLK
  5
1928C
330
19280
100
AcDbEntity
  8
0
 48
50.0
100
AcDbBlockEnd
  0
BLOCK
  5
19298
330
1928D
100
AcDbEntity
  8
0
 48
50.0
100
AcDbBlockBegin
  2
*D27
 70
     1
 10
0.0
 20
0.0
 30
0.0
  3
*D27
  1

  0
LINE
  5
1ACF9
330
1928D
100
AcDbEntity
  8
寸法
 62
     0
 48
50.0
370
    -2
100
AcDbLine
 10
10087.95599178189
 20
4410.021774306132
 30
0.0
 11
9472.021552676615
 21
4427.735924580461
 31
0.0
  0
LINE
  5
1ACFA
330
1928D
100
AcDbEntity
  8
寸法
 62
     0
 48
50.0
370
    -2
100
AcDbLine
 10
10083.90253622526
 20
4269.080050540419
 30
0.0
 11
9467.968097119989
 21
4286.794200814749
 31
0.0
  0
LINE
  5
1ACFB
330
1928D
100
AcDbEntity
  8
寸法
 62
     0
 48
50.0
370
    -2
100
AcDbLine
 10
9527.943298722419
 20
4285.069326109801
 30
0.0
 11
9531.996754279045
 21
4426.011049875514
 31
0.0
  0
LINE
  5
1ACFC
330
1928D
100
AcDbEntity
  8
寸法
 62
     0
 48
50.0
370
    -2
100
AcDbLine
 10
9531.996754279045
 20
4426.011049875514
 30
0.0
 11
9542.346002508729
 21
4785.862259490099
 31
0.0
  0
INSERT
  5
1ACFD
330
1928D
100
AcDbEntity
  8
寸法
 62
     0
 48
50.0
370
    -2
100
AcDbBlockReference
  2
_DOTSMALL
 10
9527.943298722419
 20
4285.069326109801
 30
0.0
 41
100.0
 42
100.0
 43
100.0
 50
268.3526390256378
  0
INSERT
  5
1ACFE
330
1928D
100
AcDbEntity
  8
寸法
 62
     0
 48
50.0
370
    -2
100
AcDbBlockReference
  2
_DOTSMALL
 10
9531.996754279045
 20
4426.011049875514
 30
0.0
 41
100.0
 42
100.0
 43
100.0
 50
88.35263902563776
  0
MTEXT
  5
1ACFF
330
1928D
100
AcDbEntity
  8
寸法
 62
     7
 48
50.0
100
AcDbMText
 10
9438.65010464396
 20
4658.790780526412
 30
0.0
 40
120.0
 41
0.0
 71
     5
 72
     1
  1
\A1;141
  7
STYLE1
 11
0.0287479117491237
 21
0.9995866933738488
 31
0.0
 73
     1
 44
1.0
1001
ACAD
1000
MTEXTBEGIN
1070
    73
1070
     1
1070
    44
1040
1.0
1070
    74
1070
     0
1000
MTEXTEND
  0
POINT
  5
1AD00
330
1928D
100
AcDbEntity
  8
DEFPOINTS
 62
     0
 48
50.0
100
AcDbPoint
 10
10107.94772564937
 20
4409.446816071149
 30
0.0
  0
POINT
  5
1AD01
330
1928D
100
AcDbEntity
  8
DEFPOINTS
 62
     0
 48
50.0
100
AcDbPoint
 10
10103.89427009274
 20
4268.505092305437
 30
0.0
  0
POINT
  5
1AD02
330
1928D
100
AcDbEntity
  8
DEFPOINTS
 62
     0
 48
50.0
100
AcDbPoint
 10
9527.943298722419
 20
4285.069326109801
 30
0.0
  0
ENDBLK
  5
19299
330
1928D
100
AcDbEntity
  8
0
 48
50.0
100
AcDbBlockEnd
  0
BLOCK
  5
192A4
330
1929A
100
AcDbEntity
  8
0
 48
50.0
100
AcDbBlockBegin
  2
*D28
 70
     1
 10
0.0
 20
0.0
 30
0.0
  3
*D28
  1

  0
LINE
  5
1983D
330
1929A
100
AcDbEntity
  8
寸法
 62
     0
 48
50.0
370
    -2
100
AcDbLine
 10
10056.05170549079
 20
2035.724067236468
 30
0.0
 11
9866.551702244155
 21
2035.724067236468
 31
0.0
  0
LINE
  5
1983E
330
1929A
100
AcDbEntity
  8
寸法
 62
     0
 48
50.0
370
    -2
100
AcDbLine
 10
10031.05170549079
 20
2235.724067236469
 30
0.0
 11
9866.551702244155
 21
2235.724067236469
 31
0.0
  0
LINE
  5
1983F
330
1929A
100
AcDbEntity
  8
寸法
 62
     0
 48
50.0
370
    -2
100
AcDbLine
 10
9926.551702244154
 20
2035.724067236468
 30
0.0
 11
9926.551702244154
 21
2235.724067236469
 31
0.0
  0
INSERT
  5
19840
330
1929A
100
AcDbEntity
  8
寸法
 62
     0
 48
50.0
370
    -2
100
AcDbBlockReference
  2
_DOTSMALL
 10
9926.551702244154
 20
2035.724067236468
 30
0.0
 41
100.0
 42
100.0
 43
100.0
 50
270.0
  0
INSERT
  5
19841
330
1929A
100
AcDbEntity
  8
寸法
 62
     0
 48
50.0
370
    -2
100
AcDbBlockReference
  2
_DOTSMALL
 10
9926.551702244154
 20
2235.724067236469
 30
0.0
 41
100.0
 42
100.0
 43
100.0
 50
90.0
  0
MTEXT
  5
19842
330
1929A
100
AcDbEntity
  8
寸法
 62
     7
 48
50.0
100
AcDbMText
 10
9826.539891220534
 20
2135.724067236471
 30
0.0
 40
120.0
 41
0.0
 71
     5
 72
     1
  1
\A1;200
  7
STYLE1
 11
0.0000000000000001
 21
1.0
 31
0.0
 73
     1
 44
1.0
1001
ACAD
1000
MTEXTBEGIN
1070
    73
1070
     1
1070
    44
1040
1.0
1070
    74
1070
     0
1000
MTEXTEND
  0
POINT
  5
19843
330
1929A
100
AcDbEntity
  8
DEFPOINTS
 62
     0
 48
50.0
100
AcDbPoint
 10
10076.05170549079
 20
2035.724067236468
 30
0.0
  0
POINT
  5
19844
330
1929A
100
AcDbEntity
  8
DEFPOINTS
 62
     0
 48
50.0
100
AcDbPoint
 10
10051.05170549079
 20
2235.724067236469
 30
0.0
  0
POINT
  5
19845
330
1929A
100
AcDbEntity
  8
DEFPOINTS
 62
     0
 48
50.0
100
AcDbPoint
 10
9926.551702244154
 20
2235.724067236469
 30
0.0
  0
ENDBLK
  5
192A5
330
1929A
100
AcDbEntity
  8
0
 48
50.0
100
AcDbBlockEnd
  0
BLOCK
  5
192B0
330
192A6
100
AcDbEntity
  8
0
 48
50.0
100
AcDbBlockBegin
  2
*D29
 70
     1
 10
0.0
 20
0.0
 30
0.0
  3
*D29
  1

  0
LINE
  5
19834
330
192A6
100
AcDbEntity
  8
寸法
 62
     0
 48
50.0
370
    -2
100
AcDbLine
 10
10276.05170549079
 20
2015.724067236468
 30
0.0
 11
10276.05170549079
 21
1689.676737936092
 31
0.0
  0
LINE
  5
19835
330
192A6
100
AcDbEntity
  8
寸法
 62
     0
 48
50.0
370
    -2
100
AcDbLine
 10
10076.05170549079
 20
2015.724067236468
 30
0.0
 11
10076.05170549079
 21
1689.676737936092
 31
0.0
  0
LINE
  5
19836
330
192A6
100
AcDbEntity
  8
寸法
 62
     0
 48
50.0
370
    -2
100
AcDbLine
 10
10276.05170549079
 20
1749.676737936091
 30
0.0
 11
10076.05170549079
 21
1749.676737936091
 31
0.0
  0
INSERT
  5
19837
330
192A6
100
AcDbEntity
  8
寸法
 62
     0
 48
50.0
370
    -2
100
AcDbBlockReference
  2
_DOTSMALL
 10
10276.05170549079
 20
1749.676737936091
 30
0.0
 41
100.0
 42
100.0
 43
100.0
  0
INSERT
  5
19838
330
192A6
100
AcDbEntity
  8
寸法
 62
     0
 48
50.0
370
    -2
100
AcDbBlockReference
  2
_DOTSMALL
 10
10076.05170549079
 20
1749.676737936091
 30
0.0
 41
100.0
 42
100.0
 43
100.0
 50
180.0
  0
MTEXT
  5
19839
330
192A6
100
AcDbEntity
  8
寸法
 62
     7
 48
50.0
100
AcDbMText
 10
10176.05170549079
 20
1849.688548959714
 30
0.0
 40
120.0
 41
0.0
 71
     5
 72
     1
  1
\A1;200
  7
STYLE1
 73
     1
 44
1.0
1001
ACAD
1000
MTEXTBEGIN
1070
    73
1070
     1
1070
    44
1040
1.0
1070
    74
1070
     0
1000
MTEXTEND
  0
POINT
  5
1983A
330
192A6
100
AcDbEntity
  8
DEFPOINTS
 62
     0
 48
50.0
100
AcDbPoint
 10
10276.05170549079
 20
2035.724067236468
 30
0.0
  0
POINT
  5
1983B
330
192A6
100
AcDbEntity
  8
DEFPOINTS
 62
     0
 48
50.0
100
AcDbPoint
 10
10076.05170549079
 20
2035.724067236468
 30
0.0
  0
POINT
  5
1983C
330
192A6
100
AcDbEntity
  8
DEFPOINTS
 62
     0
 48
50.0
100
AcDbPoint
 10
10076.05170549079
 20
1749.676737936091
 30
0.0
  0
ENDBLK
  5
192B1
330
192A6
100
AcDbEntity
  8
0
 48
50.0
100
AcDbBlockEnd
  0
BLOCK
  5
19645
330
1963B
100
AcDbEntity
  8
0
 48
50.0
100
AcDbBlockBegin
  2
*D30
 70
     1
 10
0.0
 20
0.0
 30
0.0
  3
*D30
  1

  0
LINE
  5
1ACE7
330
1963B
100
AcDbEntity
  8
寸法
 62
     0
 48
50.0
370
    -2
100
AcDbLine
 10
10051.55170549079
 20
4126.72406723647
 30
0.0
 11
9563.643064093534
 21
4126.72406723647
 31
0.0
  0
LINE
  5
1ACE8
330
1963B
100
AcDbEntity
  8
寸法
 62
     0
 48
50.0
370
    -2
100
AcDbLine
 10
10051.55170549078
 20
2401.72406723647
 30
0.0
 11
9563.643064093533
 21
2401.72406723647
 31
0.0
  0
LINE
  5
1ACE9
330
1963B
100
AcDbEntity
  8
寸法
 62
     0
 48
50.0
370
    -2
100
AcDbLine
 10
9603.643064093535
 20
4106.724067236469
 30
0.0
 11
9603.643064093532
 21
2421.72406723647
 31
0.0
  0
INSERT
  5
1ACEA
330
1963B
100
AcDbEntity
  8
寸法
 62
     0
 48
50.0
370
    -2
100
AcDbBlockReference
  2
_DOT
 10
9603.643064093535
 20
4126.72406723647
 30
0.0
 41
20.0
 42
20.0
 43
20.0
 50
90.0
  0
INSERT
  5
1ACEB
330
1963B
100
AcDbEntity
  8
寸法
 62
     0
 48
50.0
370
    -2
100
AcDbBlockReference
  2
_DOT
 10
9603.643064093532
 20
2401.72406723647
 30
0.0
 41
20.0
 42
20.0
 43
20.0
 50
270.0
  0
MTEXT
  5
1ACEC
330
1963B
100
AcDbEntity
  8
寸法
 62
     7
 48
50.0
100
AcDbMText
 10
9511.631253069911
 20
3264.224067236471
 30
0.0
 40
120.0
 41
0.0
 71
     5
 72
     1
  1
\A1;有効開口部高サ1725
  7
STYLE1
 11
0.0000000000000001
 21
1.0
 31
0.0
 73
     1
 44
1.0
1001
ACAD
1000
MTEXTBEGIN
1070
    73
1070
     1
1070
    44
1040
1.0
1070
    74
1070
     0
1000
MTEXTEND
  0
POINT
  5
1ACED
330
1963B
100
AcDbEntity
  8
DEFPOINTS
 62
     0
 48
50.0
100
AcDbPoint
 10
10071.55170549079
 20
4126.72406723647
 30
0.0
  0
POINT
  5
1ACEE
330
1963B
100
AcDbEntity
  8
DEFPOINTS
 62
     0
 48
50.0
100
AcDbPoint
 10
10071.55170549078
 20
2401.72406723647
 30
0.0
  0
POINT
  5
1ACEF
330
1963B
100
AcDbEntity
  8
DEFPOINTS
 62
     0
 48
50.0
100
AcDbPoint
 10
9603.643064093532
 20
2401.72406723647
 30
0.0
  0
ENDBLK
  5
19646
330
1963B
100
AcDbEntity
  8
0
 48
50.0
100
AcDbBlockEnd
  0
BLOCK
  5
19B26
330
19B1C
100
AcDbEntity
  8
0
 48
50.0
100
AcDbBlockBegin
  2
*D31
 70
     1
 10
0.0
 20
0.0
 30
0.0
  3
*D31
  1

  0
LINE
  5
1A023
330
19B1C
100
AcDbEntity
  8
寸法
 62
     0
 48
50.0
370
    -2
100
AcDbLine
 10
4472.68942361945
 20
7332.687655000661
 30
0.0
 11
4472.68942361945
 21
6672.784893540804
 31
0.0
  0
LINE
  5
1A024
330
19B1C
100
AcDbEntity
  8
寸法
 62
     0
 48
50.0
370
    -2
100
AcDbLine
 10
5738.689423619451
 20
7332.687655000661
 30
0.0
 11
5738.689423619451
 21
6672.784893540804
 31
0.0
  0
LINE
  5
1A025
330
19B1C
100
AcDbEntity
  8
寸法
 62
     0
 48
50.0
370
    -2
100
AcDbLine
 10
4492.689423619451
 20
6712.784893540804
 30
0.0
 11
5718.68942361945
 21
6712.784893540804
 31
0.0
  0
INSERT
  5
1A026
330
19B1C
100
AcDbEntity
  8
寸法
 62
     0
 48
50.0
370
    -2
100
AcDbBlockReference
  2
_DOT
 10
4472.68942361945
 20
6712.784893540804
 30
0.0
 41
20.0
 42
20.0
 43
20.0
 50
180.0
  0
INSERT
  5
1A027
330
19B1C
100
AcDbEntity
  8
寸法
 62
     0
 48
50.0
370
    -2
100
AcDbBlockReference
  2
_DOT
 10
5738.689423619451
 20
6712.784893540804
 30
0.0
 41
20.0
 42
20.0
 43
20.0
  0
MTEXT
  5
1A028
330
19B1C
100
AcDbEntity
  8
寸法
 62
     7
 48
50.0
100
AcDbMText
 10
5128.529974595396
 20
6904.796704564425
 30
0.0
 40
120.0
 41
0.0
 71
     5
 72
     1
  1
\A1;有効開口部間口\P1266
  7
STYLE1
 73
     1
 44
1.0
1001
ACAD
1000
MTEXTBEGIN
1070
    73
1070
     1
1070
    44
1040
1.0
1070
    74
1070
     0
1000
MTEXTEND
  0
POINT
  5
1A029
330
19B1C
100
AcDbEntity
  8
DEFPOINTS
 62
     0
 48
50.0
100
AcDbPoint
 10
4472.68942361945
 20
7352.687655000662
 30
0.0
  0
POINT
  5
1A02A
330
19B1C
100
AcDbEntity
  8
DEFPOINTS
 62
     0
 48
50.0
100
AcDbPoint
 10
5738.689423619451
 20
7352.687655000662
 30
0.0
  0
POINT
  5
1A02B
330
19B1C
100
AcDbEntity
  8
DEFPOINTS
 62
     0
 48
50.0
100
AcDbPoint
 10
5738.689423619451
 20
6712.784893540804
 30
0.0
  0
ENDBLK
  5
19B27
330
19B1C
100
AcDbEntity
  8
0
 48
50.0
100
AcDbBlockEnd
  0
BLOCK
  5
19EA4
330
19E9A
100
AcDbEntity
  8
0
 48
50.0
100
AcDbBlockBegin
  2
*D32
 70
     1
 10
0.0
 20
0.0
 30
0.0
  3
*D32
  1

  0
LINE
  5
1A01A
330
19E9A
100
AcDbEntity
  8
寸法
 62
     0
 48
50.0
370
    -2
100
AcDbLine
 10
4433.689423619449
 20
7332.687655000698
 30
0.0
 11
4433.689423619449
 21
6372.557939572931
 31
0.0
  0
LINE
  5
1A01B
330
19E9A
100
AcDbEntity
  8
寸法
 62
     0
 48
50.0
370
    -2
100
AcDbLine
 10
6587.689423619448
 20
7332.687655000698
 30
0.0
 11
6587.689423619448
 21
6372.557939572931
 31
0.0
  0
LINE
  5
1A01C
330
19E9A
100
AcDbEntity
  8
寸法
 62
     0
 48
50.0
370
    -2
100
AcDbLine
 10
4433.689423619449
 20
6432.55793957293
 30
0.0
 11
6587.689423619448
 21
6432.55793957293
 31
0.0
  0
INSERT
  5
1A01D
330
19E9A
100
AcDbEntity
  8
寸法
 62
     0
 48
50.0
370
    -2
100
AcDbBlockReference
  2
_DOTSMALL
 10
4433.689423619449
 20
6432.55793957293
 30
0.0
 41
100.0
 42
100.0
 43
100.0
 50
180.0
  0
INSERT
  5
1A01E
330
19E9A
100
AcDbEntity
  8
寸法
 62
     0
 48
50.0
370
    -2
100
AcDbBlockReference
  2
_DOTSMALL
 10
6587.689423619448
 20
6432.55793957293
 30
0.0
 41
100.0
 42
100.0
 43
100.0
  0
MTEXT
  5
1A01F
330
19E9A
100
AcDbEntity
  8
寸法
 62
     7
 48
50.0
100
AcDbMText
 10
5532.822180366762
 20
6532.569750596552
 30
0.0
 40
120.0
 41
0.0
 71
     5
 72
     1
  1
\A1;2154
  7
STYLE1
 73
     1
 44
1.0
1001
ACAD
1000
MTEXTBEGIN
1070
    73
1070
     1
1070
    44
1040
1.0
1070
    74
1070
     0
1000
MTEXTEND
  0
POINT
  5
1A020
330
19E9A
100
AcDbEntity
  8
DEFPOINTS
 62
     0
 48
50.0
100
AcDbPoint
 10
4433.689423619449
 20
7352.687655000699
 30
0.0
  0
POINT
  5
1A021
330
19E9A
100
AcDbEntity
  8
DEFPOINTS
 62
     0
 48
50.0
100
AcDbPoint
 10
6587.689423619448
 20
7352.687655000699
 30
0.0
  0
POINT
  5
1A022
330
19E9A
100
AcDbEntity
  8
DEFPOINTS
 62
     0
 48
50.0
100
AcDbPoint
 10
6587.689423619448
 20
6432.55793957293
 30
0.0
  0
ENDBLK
  5
19EA5
330
19E9A
100
AcDbEntity
  8
0
 48
50.0
100
AcDbBlockEnd
  0
BLOCK
  5
19EB2
330
19EA6
100
AcDbEntity
  8
0
 48
50.0
100
AcDbBlockBegin
  2
*D33
 70
     1
 10
0.0
 20
0.0
 30
0.0
  3
*D33
  1

  0
LINE
  5
1A00F
330
19EA6
100
AcDbEntity
  8
寸法
 62
     0
 48
50.0
370
    -2
100
AcDbLine
 10
4413.689423619449
 20
7429.687655000698
 30
0.0
 11
4185.075455944743
 21
7429.687655000698
 31
0.0
  0
LINE
  5
1A010
330
19EA6
100
AcDbEntity
  8
寸法
 62
     0
 48
50.0
370
    -2
100
AcDbLine
 10
4413.689423619447
 20
7354.687655000666
 30
0.0
 11
4185.075455944743
 21
7354.687655000666
 31
0.0
  0
LINE
  5
1A011
330
19EA6
100
AcDbEntity
  8
寸法
 62
     0
 48
50.0
370
    -2
100
AcDbLine
 10
4225.075455944743
 20
7449.687655000698
 30
0.0
 11
4225.075455944743
 21
7469.687655000699
 31
0.0
  0
LINE
  5
1A012
330
19EA6
100
AcDbEntity
  8
寸法
 62
     0
 48
50.0
370
    -2
100
AcDbLine
 10
4225.075455944743
 20
7334.687655000665
 30
0.0
 11
4225.075455944743
 21
7108.030599678741
 31
0.0
  0
LINE
  5
1A013
330
19EA6
100
AcDbEntity
  8
寸法
 62
     0
 48
50.0
370
    -2
100
AcDbLine
 10
4225.075455944743
 20
7429.687655000698
 30
0.0
 11
4225.075455944743
 21
7354.687655000666
 31
0.0
  0
INSERT
  5
1A014
330
19EA6
100
AcDbEntity
  8
寸法
 62
     0
 48
50.0
370
    -2
100
AcDbBlockReference
  2
_DOT
 10
4225.075455944743
 20
7429.687655000698
 30
0.0
 41
20.0
 42
20.0
 43
20.0
 50
270.0
  0
INSERT
  5
1A015
330
19EA6
100
AcDbEntity
  8
寸法
 62
     0
 48
50.0
370
    -2
100
AcDbBlockReference
  2
_DOT
 10
4225.075455944743
 20
7354.687655000666
 30
0.0
 41
20.0
 42
20.0
 43
20.0
 50
90.0
  0
MTEXT
  5
1A016
330
19EA6
100
AcDbEntity
  8
寸法
 62
     7
 48
50.0
100
AcDbMText
 10
4133.075455944741
 20
7208.515881052981
 30
0.0
 40
120.0
 41
0.0
 71
     5
 72
     1
  1
\A1;75
  7
STYLE1
 11
0.0000000000000001
 21
1.0
 31
0.0
 73
     1
 44
1.0
1001
ACAD
1000
MTEXTBEGIN
1070
    73
1070
     1
1070
    44
1040
1.0
1070
    74
1070
     0
1000
MTEXTEND
  0
POINT
  5
1A017
330
19EA6
100
AcDbEntity
  8
DEFPOINTS
 62
     0
 48
50.0
100
AcDbPoint
 10
4433.689423619449
 20
7429.687655000698
 30
0.0
  0
POINT
  5
1A018
330
19EA6
100
AcDbEntity
  8
DEFPOINTS
 62
     0
 48
50.0
100
AcDbPoint
 10
4433.689423619447
 20
7354.687655000666
 30
0.0
  0
POINT
  5
1A019
330
19EA6
100
AcDbEntity
  8
DEFPOINTS
 62
     0
 48
50.0
100
AcDbPoint
 10
4225.075455944743
 20
7354.687655000666
 30
0.0
  0
ENDBLK
  5
19EB3
330
19EA6
100
AcDbEntity
  8
0
 48
50.0
100
AcDbBlockEnd
  0
BLOCK
  5
19F14
330
19F0A
100
AcDbEntity
  8
0
 48
50.0
100
AcDbBlockBegin
  2
*D34
 70
     1
 10
0.0
 20
0.0
 30
0.0
  3
*D34
  1

  0
LINE
  5
1A006
330
19F0A
100
AcDbEntity
  8
寸法
 62
     0
 48
50.0
370
    -2
100
AcDbLine
 10
3565.689423619475
 20
7409.687655000666
 30
0.0
 11
3565.689423619475
 21
6065.361260054464
 31
0.0
  0
LINE
  5
1A007
330
19F0A
100
AcDbEntity
  8
寸法
 62
     0
 48
50.0
370
    -2
100
AcDbLine
 10
7035.689423619456
 20
7409.687655000793
 30
0.0
 11
7035.689423619456
 21
6065.361260054464
 31
0.0
  0
LINE
  5
1A008
330
19F0A
100
AcDbEntity
  8
寸法
 62
     0
 48
50.0
370
    -2
100
AcDbLine
 10
3565.689423619475
 20
6125.361260054464
 30
0.0
 11
7035.689423619456
 21
6125.361260054464
 31
0.0
  0
INSERT
  5
1A009
330
19F0A
100
AcDbEntity
  8
寸法
 62
     0
 48
50.0
370
    -2
100
AcDbBlockReference
  2
_DOTSMALL
 10
3565.689423619475
 20
6125.361260054464
 30
0.0
 41
100.0
 42
100.0
 43
100.0
 50
180.0
  0
INSERT
  5
1A00A
330
19F0A
100
AcDbEntity
  8
寸法
 62
     0
 48
50.0
370
    -2
100
AcDbBlockReference
  2
_DOTSMALL
 10
7035.689423619456
 20
6125.361260054464
 30
0.0
 41
100.0
 42
100.0
 43
100.0
  0
MTEXT
  5
1A00B
330
19F0A
100
AcDbEntity
  8
寸法
 62
     7
 48
50.0
100
AcDbMText
 10
5367.026175628805
 20
6225.361260054464
 30
0.0
 40
120.0
 41
0.0
 71
     5
 72
     1
  1
\A1;3470
  7
STYLE1
 73
     1
 44
1.0
1001
ACAD
1000
MTEXTBEGIN
1070
    73
1070
     1
1070
    44
1040
1.0
1070
    74
1070
     0
1000
MTEXTEND
  0
POINT
  5
1A00C
330
19F0A
100
AcDbEntity
  8
DEFPOINTS
 62
     0
 48
50.0
100
AcDbPoint
 10
3565.689423619475
 20
7429.687655000666
 30
0.0
  0
POINT
  5
1A00D
330
19F0A
100
AcDbEntity
  8
DEFPOINTS
 62
     0
 48
50.0
100
AcDbPoint
 10
7035.689423619456
 20
7429.687655000792
 30
0.0
  0
POINT
  5
1A00E
330
19F0A
100
AcDbEntity
  8
DEFPOINTS
 62
     0
 48
50.0
100
AcDbPoint
 10
7035.689423619456
 20
6125.361260054464
 30
0.0
  0
ENDBLK
  5
19F15
330
19F0A
100
AcDbEntity
  8
0
 48
50.0
100
AcDbBlockEnd
  0
BLOCK
  5
1A885
330
1A87B
100
AcDbEntity
  8
0
 48
50.0
100
AcDbBlockBegin
  2
*D35
 70
     1
 10
0.0
 20
0.0
 30
0.0
  3
*D35
  1

  0
LINE
  5
1ABFC
330
1A87B
100
AcDbEntity
  8
寸法
 62
     0
 48
50.0
370
    -2
100
AcDbLine
 10
7135.689423619474
 20
2015.724067236468
 30
0.0
 11
7135.689423619474
 21
1689.676737936091
 31
0.0
  0
LINE
  5
1ABFD
330
1A87B
100
AcDbEntity
  8
寸法
 62
     0
 48
50.0
370
    -2
100
AcDbLine
 10
6935.689423619471
 20
2015.724067236468
 30
0.0
 11
6935.689423619471
 21
1689.676737936091
 31
0.0
  0
LINE
  5
1ABFE
330
1A87B
100
AcDbEntity
  8
寸法
 62
     0
 48
50.0
370
    -2
100
AcDbLine
 10
7135.689423619474
 20
1749.676737936091
 30
0.0
 11
6935.689423619471
 21
1749.676737936091
 31
0.0
  0
INSERT
  5
1ABFF
330
1A87B
100
AcDbEntity
  8
寸法
 62
     0
 48
50.0
370
    -2
100
AcDbBlockReference
  2
_DOTSMALL
 10
7135.689423619474
 20
1749.676737936091
 30
0.0
 41
100.0
 42
100.0
 43
100.0
  0
INSERT
  5
1AC00
330
1A87B
100
AcDbEntity
  8
寸法
 62
     0
 48
50.0
370
    -2
100
AcDbBlockReference
  2
_DOTSMALL
 10
6935.689423619471
 20
1749.676737936091
 30
0.0
 41
100.0
 42
100.0
 43
100.0
 50
180.0
  0
MTEXT
  5
1AC01
330
1A87B
100
AcDbEntity
  8
寸法
 62
     7
 48
50.0
100
AcDbMText
 10
7035.689423619473
 20
1849.688548959713
 30
0.0
 40
120.0
 41
0.0
 71
     5
 72
     1
  1
\A1;200
  7
STYLE1
 73
     1
 44
1.0
1001
ACAD
1000
MTEXTBEGIN
1070
    73
1070
     1
1070
    44
1040
1.0
1070
    74
1070
     0
1000
MTEXTEND
  0
POINT
  5
1AC02
330
1A87B
100
AcDbEntity
  8
DEFPOINTS
 62
     0
 48
50.0
100
AcDbPoint
 10
7135.689423619474
 20
2035.724067236468
 30
0.0
  0
POINT
  5
1AC03
330
1A87B
100
AcDbEntity
  8
DEFPOINTS
 62
     0
 48
50.0
100
AcDbPoint
 10
6935.689423619471
 20
2035.724067236468
 30
0.0
  0
POINT
  5
1AC04
330
1A87B
100
AcDbEntity
  8
DEFPOINTS
 62
     0
 48
50.0
100
AcDbPoint
 10
6935.689423619471
 20
1749.676737936091
 30
0.0
  0
ENDBLK
  5
1A886
330
1A87B
100
AcDbEntity
  8
0
 48
50.0
100
AcDbBlockEnd
  0
ENDSEC
  0
SECTION
  2
ENTITIES
  0
MTEXT
  5
763F
330
747D
100
AcDbEntity
  8
0
100
AcDbMText
 10
302.846345836809
 20
280.1983726409901
 30
0.0
 40
3.5
 41
5.323721266742722
 71
     1
 72
     5
  1

  7
MSMINCHO
 73
     1
 44
1.0
1001
ACAD
1000
MTEXTBEGIN
1070
    73
1070
     1
1070
    44
1040
1.0
1070
    74
1070
     0
1000
MTEXTEND
  0
LINE
  5
10B57
330
747D
100
AcDbEntity
  8
補助
  6
PHANTOM
 62
   230
 48
50.0
100
AcDbLine
 10
139.9999999999995
 20
11409.6
 30
0.0
 11
16307.2
 21
11409.6
 31
0.0
  0
LINE
  5
10B59
330
747D
100
AcDbEntity
  8
仕様書枠
  6
Continuous
 48
50.0
100
AcDbLine
 10
13107.2
 20
1200.0
 30
0.0
 11
13107.2
 21
-0.0000000000000729
 31
0.0
  0
LINE
  5
10B5D
330
747D
100
AcDbEntity
  8
仕様書枠
 48
50.0
100
AcDbLine
 10
140.0
 20
0.0
 30
0.0
 11
16307.2
 21
-0.0000000000000909
 31
0.0
  0
LINE
  5
10B5E
330
747D
100
AcDbEntity
  8
補助
  6
PHANTOM
 62
   230
 48
50.0
100
AcDbLine
 10
16307.2
 20
11409.6
 30
0.0
 11
16307.2
 21
1200.0
 31
0.0
  0
LINE
  5
10B6C
330
747D
100
AcDbEntity
  8
仕様書枠
 48
50.0
100
AcDbLine
 10
13107.2
 20
1200.0
 30
0.0
 11
16307.2
 21
1200.0
 31
0.0
  0
LINE
  5
10B6D
330
747D
100
AcDbEntity
  8
補助
  6
PHANTOM
 62
   230
 48
50.0
100
AcDbLine
 10
13107.2
 20
11409.6
 30
0.0
 11
13107.2
 21
4800.0
 31
0.0
  0
LINE
  5
10B6F
330
747D
100
AcDbEntity
  8
補助
  6
PHANTOM
 62
   230
 48
50.0
100
AcDbLine
 10
13107.2
 20
4800.0
 30
0.0
 11
16307.2
 21
4800.0
 31
0.0
  0
LINE
  5
10B72
330
747D
100
AcDbEntity
  8
文字
 62
     7
 48
50.0
100
AcDbLine
 10
13187.2
 20
400.0
 30
0.0
 11
16227.2
 21
400.0
 31
0.0
  0
TEXT
  5
10B73
330
747D
100
AcDbEntity
  8
文字
 62
     7
 48
50.0
100
AcDbText
 10
13162.9790565769
 20
895.0906074299405
 30
0.0
 40
200.0
  1
外 形 図
  7
STYLE2
100
AcDbText
  0
TEXT
  5
10B74
330
747D
100
AcDbEntity
  8
文字
 62
     7
 48
50.0
100
AcDbText
 10
13201.43669998441
 20
477.2740661031255
 30
0.0
 40
160.0
  1
機種名
  7
STYLE2
100
AcDbText
  0
LINE
  5
10B7B
330
747D
100
AcDbEntity
  8
仕様書枠
 48
50.0
100
AcDbLine
 10
13107.2
 20
800.0
 30
0.0
 11
14251.2
 21
800.0
 31
0.0
  0
LINE
  5
10B88
330
747D
100
AcDbEntity
  8
仕様書枠
  6
Continuous
 48
50.0
100
AcDbLine
 10
14251.2
 20
1200.0
 30
0.0
 11
14251.2
 21
800.0
 31
0.0
  0
LINE
  5
16462
330
747D
100
AcDbEntity
  8
仕様書枠
 48
50.0
100
AcDbLine
 10
16307.2
 20
1200.0
 30
0.0
 11
16307.2
 21
-0.0000000000000909
 31
0.0
  0
TEXT
  5
1649E
330
747D
100
AcDbEntity
  8
文字
 62
     7
 48
50.0
100
AcDbText
 10
14524.131837222
 20
1031.557706291228
 30
0.0
 40
100.0
  1
NO.45     <縮尺> S=1/40
  7
STYLE2
100
AcDbText
  0
TEXT
  5
1649F
330
747D
100
AcDbEntity
  8
文字
 62
     7
 48
50.0
100
AcDbText
 10
14883.82156197996
 20
881.2807276968213
 30
0.0
 40
100.0
  1
～一般型～
  7
STYLE2
100
AcDbText
  0
TEXT
  5
164A1
330
747D
100
AcDbEntity
  8
文字
 62
     7
 48
50.0
100
AcDbText
 10
13209.4053442172
 20
76.09434707649348
 30
0.0
 40
100.0
  1
○床面積 ： 9.29㎡(2.81坪) 　
  7
STYLE2
100
AcDbText
  0
DIMENSION
  5
18765
330
747D
100
AcDbEntity
  8
寸法
 48
50.0
100
AcDbDimension
  2
*D3
 10
7035.689423619479
 20
4623.265652494712
 30
0.0
 11
7399.174704993715
 21
4623.265652494712
 31
0.0
 70
   160
 71
     5
 42
50.0
  3
INABA_S40G
100
AcDbAlignedDimension
 13
7085.689423619479
 23
4410.724067236471
 33
0.0
 14
7035.689423619479
 24
4410.724067236473
 34
0.0
100
AcDbRotatedDimension
  0
DIMENSION
  5
18766
330
747D
100
AcDbEntity
  8
寸法
 48
50.0
100
AcDbDimension
  2
*D4
 10
3515.689423619476
 20
4623.265652494715
 30
0.0
 11
3202.204142245228
 21
4623.265652494715
 31
0.0
 70
   160
 71
     5
 42
50.0
  3
INABA_S40G
100
AcDbAlignedDimension
 13
3565.689423619475
 23
4410.724067236478
 33
0.0
 14
3515.689423619476
 24
4410.724067236476
 34
0.0
100
AcDbRotatedDimension
1001
ACAD
1000
DSTYLE
1002
{
1002
}
  0
DIMENSION
  5
18767
330
747D
100
AcDbEntity
  8
寸法
 48
50.0
100
AcDbDimension
  2
*D5
 10
7085.689423619479
 20
4844.170952968463
 30
0.0
 11
5300.689423619482
 21
4844.170952968463
 31
0.0
 70
   160
 71
     5
 42
3570.000000000004
  3
INABA_S40G
100
AcDbAlignedDimension
 13
3515.689423619476
 23
4410.724067236476
 33
0.0
 14
7085.689423619479
 24
4410.724067236471
 34
0.0
100
AcDbRotatedDimension
  0
DIMENSION
  5
18768
330
747D
100
AcDbEntity
  8
寸法
 48
50.0
100
AcDbDimension
  2
*D6
 10
3565.689423619475
 20
4623.265652494713
 30
0.0
 11
5300.689423619482
 21
4623.265652494713
 31
0.0
 70
   160
  1
柱外寸法<>
 71
     5
 42
3470.000000000004
  3
INABA_S40G
100
AcDbAlignedDimension
 13
7035.689423619479
 23
4410.724067236473
 33
0.0
 14
3565.689423619475
 24
4410.724067236478
 34
0.0
100
AcDbRotatedDimension
  0
LINE
  5
1876A
330
747D
100
AcDbEntity
  8
Ｇ．Ｌ
100
AcDbLine
 10
2687.422820948992
 20
2235.724067236469
 30
0.0
 11
13194.81660529572
 21
2235.724067236469
 31
0.0
  0
TEXT
  5
187A7
330
747D
100
AcDbEntity
  8
部品1
100
AcDbText
 10
2965.024774397866
 20
2271.830970842371
 30
0.0
 40
125.0
  1
G.L
  7
MSGOTHIC
100
AcDbText
  0
LINE
  5
187A8
330
747D
100
AcDbEntity
  8
部品1
100
AcDbLine
 10
2936.919832273092
 20
2365.627877804135
 30
0.0
 11
2861.919832273092
 21
2235.724067236469
 31
0.0
  0
LINE
  5
187A9
330
747D
100
AcDbEntity
  8
部品1
100
AcDbLine
 10
2786.919832273092
 20
2365.627877804135
 30
0.0
 11
2936.919832273092
 21
2365.627877804135
 31
0.0
  0
LINE
  5
187AA
330
747D
100
AcDbEntity
  8
部品1
100
AcDbLine
 10
2861.919832273092
 20
2235.724067236469
 30
0.0
 11
2786.919832273092
 21
2365.627877804135
 31
0.0
  0
LWPOLYLINE
  5
187AB
330
747D
100
AcDbEntity
  8
部品1
100
AcDbPolyline
 90
        4
 70
     1
 43
0.0
 10
4918.95409050526
 20
1700.78972649136
 10
4918.95409050526
 20
1460.897404945827
 10
5682.424756733702
 20
1460.897404945827
 10
5682.424756733702
 20
1700.78972649136
  0
TEXT
  5
187AC
330
747D
100
AcDbEntity
  8
部品1
100
AcDbText
 10
5009.479494243216
 20
1507.896197272836
 30
0.0
 40
135.0
  1
正面図
  7
STYLE2
100
AcDbText
  0
TEXT
  5
188AA
330
747D
100
AcDbEntity
  8
文字
 62
     7
 48
50.0
100
AcDbText
 10
13209.4053442172
 20
228.5435242569015
 30
0.0
 40
100.0
  1
○有効開口寸法 ： 1266×1725(mm)
  7
STYLE2
100
AcDbText
  0
TEXT
  5
188B3
330
747D
100
AcDbEntity
  8
文字
 62
     7
 48
50.0
100
AcDbText
 10
14505.34213575793
 20
483.8967129911411
 30
0.0
 40
160.0
  1
ＮＸＮ－９２S
  7
STYLE2
100
AcDbText
  0
LINE
  5
188B4
330
747D
100
AcDbEntity
  8
細線
 48
50.0
100
AcDbLine
 10
4657.189423619413
 20
10029.68765500075
 30
0.0
 11
3594.189423619482
 21
9579.687655000705
 31
0.0
  0
LINE
  5
188B5
330
747D
100
AcDbEntity
  8
細線
 48
50.0
100
AcDbLine
 10
4657.189423619413
 20
9579.687655000755
 30
0.0
 11
3594.189423619482
 21
10029.6876550007
 31
0.0
  0
LINE
  5
188B6
330
747D
100
AcDbEntity
  8
部品1
 48
50.0
100
AcDbLine
 10
4685.189423619413
 20
10029.6876550008
 30
0.0
 11
4685.189423619413
 21
9579.68765500081
 31
0.0
  0
LINE
  5
188B7
330
747D
100
AcDbEntity
  8
部品1
 48
50.0
100
AcDbLine
 10
4657.189423619413
 20
10029.6876550008
 30
0.0
 11
4657.189423619413
 21
9579.68765500081
 31
0.0
  0
LINE
  5
188B8
330
747D
100
AcDbEntity
  8
部品1
 48
50.0
100
AcDbLine
 10
4683.189423619412
 20
10031.68765500081
 30
0.0
 11
4683.189423619412
 21
9579.68765500081
 31
0.0
  0
LINE
  5
188B9
330
747D
100
AcDbEntity
  8
部品1
 48
50.0
100
AcDbLine
 10
4658.189423619413
 20
10031.68765500081
 30
0.0
 11
4658.189423619413
 21
9579.68765500081
 31
0.0
  0
LINE
  5
188BA
330
747D
100
AcDbEntity
  8
部品1
100
AcDbLine
 10
7007.189423619482
 20
10029.6876550008
 30
0.0
 11
7007.189423619482
 21
9579.687655000803
 31
0.0
  0
LINE
  5
188BB
330
747D
100
AcDbEntity
  8
部品1
100
AcDbLine
 10
7035.689423619482
 20
10059.6876550008
 30
0.0
 11
7035.689423619456
 21
7429.687655000792
 31
0.0
  0
DIMENSION
  5
188BC
330
747D
100
AcDbEntity
  8
寸法
100
AcDbDimension
  2
*D11
 10
7683.115769353894
 20
7484.687655000789
 30
0.0
 11
7683.115769353894
 21
8744.687655000793
 31
0.0
 70
   160
  1
6X420=<>
 71
     5
 42
2520.000000000015
  3
INABA_S40G
100
AcDbAlignedDimension
 13
7035.689423619482
 23
10004.6876550008
 33
0.0
 14
7035.689423619456
 24
7484.687655000789
 34
0.0
 50
90.0
100
AcDbRotatedDimension
1001
ACAD
1000
DSTYLE
1002
{
1002
}
  0
LINE
  5
188BD
330
747D
100
AcDbEntity
  8
部品1
100
AcDbLine
 10
7007.689423619481
 20
10031.6876550008
 30
0.0
 11
7007.68942361946
 21
7457.687655000793
 31
0.0
  0
DIMENSION
  5
188BE
330
747D
100
AcDbEntity
  8
寸法
100
AcDbDimension
  2
*D12
 10
7362.547149481507
 20
9484.469839331914
 30
0.0
 11
7262.547149481505
 21
9709.469839331916
 31
0.0
 70
    32
 71
     5
 42
449.9999999999963
  3
INABA_S40G
100
AcDbAlignedDimension
 13
7007.189423619482
 23
10029.6876550008
 33
0.0
 14
7007.189423619482
 24
9579.687655000803
 34
0.0
 50
90.0
100
AcDbRotatedDimension
1001
ACAD
1000
DSTYLE
1002
{
1002
}
  0
LINE
  5
188BF
330
747D
100
AcDbEntity
  8
部品1
 48
50.0
100
AcDbLine
 10
5943.189423619482
 20
10031.68765500081
 30
0.0
 11
5943.189423619482
 21
9579.68765500081
 31
0.0
  0
LINE
  5
188C0
330
747D
100
AcDbEntity
  8
部品1
 48
50.0
100
AcDbLine
 10
5918.18942361948
 20
10031.68765500081
 30
0.0
 11
5918.189423619482
 21
9579.68765500081
 31
0.0
  0
LINE
  5
188C1
330
747D
100
AcDbEntity
  8
部品1
 48
50.0
100
AcDbLine
 10
5944.189423619482
 20
10029.6876550008
 30
0.0
 11
5944.189423619482
 21
9579.68765500081
 31
0.0
  0
LINE
  5
188C2
330
747D
100
AcDbEntity
  8
部品1
 48
50.0
100
AcDbLine
 10
5916.189423619482
 20
10029.6876550008
 30
0.0
 11
5916.189423619482
 21
9579.68765500081
 31
0.0
  0
LINE
  5
188C3
330
747D
100
AcDbEntity
  8
細線
 48
50.0
100
AcDbLine
 10
7007.189423619482
 20
9579.687655000803
 30
0.0
 11
5944.189423619482
 21
10029.6876550008
 31
0.0
  0
LINE
  5
188C4
330
747D
100
AcDbEntity
  8
細線
 48
50.0
100
AcDbLine
 10
7007.189423619482
 20
10029.6876550008
 30
0.0
 11
5944.18942361948
 21
9579.68765500081
 31
0.0
  0
LINE
  5
188C5
330
747D
100
AcDbEntity
  8
部品1
 48
50.0
100
AcDbLine
 10
3594.189423619482
 20
10029.6876550007
 30
0.0
 11
3594.189423619482
 21
9579.687655000702
 31
0.0
  0
LINE
  5
188C6
330
747D
100
AcDbEntity
  8
部品1
100
AcDbLine
 10
3565.689423619446
 20
10059.68765500067
 30
0.0
 11
3565.689423619475
 21
7429.687655000662
 31
0.0
  0
LINE
  5
188C7
330
747D
100
AcDbEntity
  8
部品1
100
AcDbLine
 10
3593.689423619457
 20
7457.687655000753
 30
0.0
 11
3593.689423619482
 21
10031.6876550007
 31
0.0
  0
LINE
  5
188C8
330
747D
100
AcDbEntity
  8
細線
 48
50.0
100
AcDbLine
 10
5916.189423619482
 20
10029.6876550008
 30
0.0
 11
4685.189423619413
 21
9579.687655000755
 31
0.0
  0
LINE
  5
188C9
330
747D
100
AcDbEntity
  8
細線
 48
50.0
100
AcDbLine
 10
5916.18942361948
 20
9579.68765500081
 30
0.0
 11
4685.189423619409
 21
10029.68765500075
 31
0.0
  0
DIMENSION
  5
188CA
330
747D
100
AcDbEntity
  8
寸法
100
AcDbDimension
  2
*D13
 10
8048.222711093533
 20
7429.687655000792
 30
0.0
 11
8048.222711093531
 21
8744.687655000793
 31
0.0
 70
   160
 71
     5
 42
2630.000000000007
  3
INABA_S40G
100
AcDbAlignedDimension
 13
7035.689423619482
 23
10059.6876550008
 33
0.0
 14
7035.689423619456
 24
7429.687655000792
 34
0.0
 50
90.0
100
AcDbRotatedDimension
1001
ACAD
1000
DSTYLE
1002
{
1002
}
  0
LINE
  5
188CB
330
747D
100
AcDbEntity
  8
部品1
100
AcDbLine
 10
6979.189423619468
 20
8744.687655000792
 30
0.0
 11
3622.189423619468
 21
8744.68765500069
 31
0.0
  0
LINE
  5
188D2
330
747D
100
AcDbEntity
  8
部品1
 48
50.0
100
AcDbLine
 10
4460.689423619449
 20
7457.687655000658
 30
0.0
 11
6560.689423619449
 21
7457.687655000661
 31
0.0
  0
LINE
  5
188D3
330
747D
100
AcDbEntity
  8
部品1
100
AcDbLine
 10
3593.689423619457
 20
7457.687655000755
 30
0.0
 11
7007.689423619481
 21
7457.687655000793
 31
0.0
  0
LINE
  5
188D4
330
747D
100
AcDbEntity
  8
部品1
100
AcDbLine
 10
6979.189423619468
 20
7904.687655000777
 30
0.0
 11
3622.189423619468
 21
7904.687655000677
 31
0.0
  0
LINE
  5
188D5
330
747D
100
AcDbEntity
  8
部品1
100
AcDbLine
 10
6979.189423619468
 20
9164.687655000776
 30
0.0
 11
3622.189423619468
 21
9164.687655000676
 31
0.0
  0
LINE
  5
188D6
330
747D
100
AcDbEntity
  8
部品1
100
AcDbLine
 10
5944.18942361948
 20
9579.68765500081
 30
0.0
 11
7007.189423619482
 21
9579.687655000803
 31
0.0
  0
DIMENSION
  5
188D7
330
747D
100
AcDbEntity
  8
寸法
100
AcDbDimension
  2
*D14
 10
6949.953750621027
 20
9366.081215365133
 30
0.0
 11
6467.079378741833
 21
9366.081215365133
 31
0.0
 70
   160
 71
     5
 42
1063.000000000011
  3
INABA_S40G
100
AcDbAlignedDimension
 13
5944.189423619482
 23
9579.68765500081
 33
0.0
 14
7007.189423619493
 24
9579.687655000803
 34
0.0
100
AcDbRotatedDimension
1001
ACAD
1000
DSTYLE
1002
{
1002
}
  0
LINE
  5
188D8
330
747D
100
AcDbEntity
  8
破線
 48
10.0
100
AcDbLine
 10
6955.689423619482
 20
7509.68765500079
 30
0.0
 11
6158.189423619456
 21
7509.687655000719
 31
0.0
  0
LINE
  5
188DA
330
747D
100
AcDbEntity
  8
部品1
100
AcDbLine
 10
6979.189423619482
 20
7486.187655000794
 30
0.0
 11
3622.189423619373
 21
7486.187655000673
 31
0.0
  0
LINE
  5
188DE
330
747D
100
AcDbEntity
  8
部品1
 48
50.0
100
AcDbLine
 10
5300.689423619474
 20
9579.687655000782
 30
0.0
 11
5300.689423619508
 21
7486.187655000691
 31
0.0
  0
LINE
  5
188DF
330
747D
100
AcDbEntity
  8
破線
 48
10.0
100
AcDbLine
 10
6158.189423619456
 20
7486.187655000705
 30
0.0
 11
6158.189423619456
 21
9579.68765500081
 31
0.0
  0
LINE
  5
188E0
330
747D
100
AcDbEntity
  8
破線
 48
10.0
100
AcDbLine
 10
6108.18942361946
 20
7486.187655000702
 30
0.0
 11
6108.189423619457
 21
9579.68765500081
 31
0.0
  0
LINE
  5
188E1
330
747D
100
AcDbEntity
  8
破線
 48
10.0
100
AcDbLine
 10
4493.189423619456
 20
7486.187655000705
 30
0.0
 11
4493.189423619456
 21
9579.68765500081
 31
0.0
  0
LINE
  5
188E2
330
747D
100
AcDbEntity
  8
破線
 48
10.0
100
AcDbLine
 10
4443.18942361946
 20
7486.187655000702
 30
0.0
 11
4443.189423619457
 21
9579.68765500081
 31
0.0
  0
LINE
  5
188E3
330
747D
100
AcDbEntity
  8
破線
 48
10.0
100
AcDbLine
 10
5325.689423619457
 20
7486.187655000705
 30
0.0
 11
5325.689423619457
 21
9579.687655000784
 31
0.0
  0
LINE
  5
188E4
330
747D
100
AcDbEntity
  8
破線
 48
10.0
100
AcDbLine
 10
5275.689423619461
 20
7486.187655000702
 30
0.0
 11
5275.689423619457
 21
9579.687655000782
 31
0.0
  0
LINE
  5
188E5
330
747D
100
AcDbEntity
  8
部品1
100
AcDbLine
 10
3622.18942361946
 20
9579.687655000803
 30
0.0
 11
3622.189423619472
 21
7486.187655000768
 31
0.0
  0
LINE
  5
188E6
330
747D
100
AcDbEntity
  8
破線
 48
10.0
100
AcDbLine
 10
3645.689423619457
 20
9579.687655000803
 30
0.0
 11
3645.689423619471
 21
7509.687655000672
 31
0.0
  0
LINE
  5
188EC
330
747D
100
AcDbEntity
  8
破線
 48
10.0
100
AcDbLine
 10
5275.689423619461
 20
7509.687655000698
 30
0.0
 11
4493.189423619456
 21
7509.68765500067
 31
0.0
  0
LINE
  5
188ED
330
747D
100
AcDbEntity
  8
部品1
 48
50.0
100
AcDbLine
 10
3620.689423619449
 20
7429.687655000662
 30
0.0
 11
4460.689423619449
 21
7429.687655000662
 31
0.0
  0
LINE
  5
188EE
330
747D
100
AcDbEntity
  8
破線
 48
10.0
100
AcDbLine
 10
4443.18942361946
 20
7509.687655000665
 30
0.0
 11
3645.689423619468
 21
7509.687655000672
 31
0.0
  0
LINE
  5
188EF
330
747D
100
AcDbEntity
  8
部品1
100
AcDbLine
 10
3620.689423619449
 20
7429.687655000792
 30
0.0
 11
3620.689423619449
 21
7457.687655000793
 31
0.0
  0
LINE
  5
188F0
330
747D
100
AcDbEntity
  8
部品1
 48
50.0
100
AcDbLine
 10
3622.189423619472
 20
7486.187655000769
 30
0.0
 11
3593.689423619471
 21
7457.687655000771
 31
0.0
  0
LINE
  5
188F1
330
747D
100
AcDbEntity
  8
部品1
100
AcDbLine
 10
3620.689423619449
 20
7429.687655000662
 30
0.0
 11
3565.689423619475
 21
7429.687655000662
 31
0.0
  0
LINE
  5
188F2
330
747D
100
AcDbEntity
  8
部品1
100
AcDbLine
 10
3593.689423619457
 20
7484.687655000626
 30
0.0
 11
3565.689423619475
 21
7484.687655000626
 31
0.0
  0
LINE
  5
188F3
330
747D
100
AcDbEntity
  8
部品1
100
AcDbLine
 10
3593.689423619457
 20
7484.687655000662
 30
0.0
 11
3565.689423619475
 21
7484.687655000662
 31
0.0
  0
LINE
  5
188F4
330
747D
100
AcDbEntity
  8
部品1
100
AcDbLine
 10
3593.689423619475
 20
7484.687655000676
 30
0.0
 11
3565.689423619475
 21
7484.687655000676
 31
0.0
  0
LINE
  5
188F5
330
747D
100
AcDbEntity
  8
部品1
100
AcDbLine
 10
3565.689423619475
 20
7484.687655000626
 30
0.0
 11
3565.689423619475
 21
7429.687655000629
 31
0.0
  0
LINE
  5
188F6
330
747D
100
AcDbEntity
  8
部品1
100
AcDbLine
 10
4040.68942361945
 20
7429.687655000792
 30
0.0
 11
4040.68942361945
 21
7457.687655000793
 31
0.0
  0
LINE
  5
18923
330
747D
100
AcDbEntity
  8
部品1
100
AcDbLine
 10
4460.689423619449
 20
7429.687655000792
 30
0.0
 11
4460.689423619449
 21
7457.687655000793
 31
0.0
  0
LINE
  5
18924
330
747D
100
AcDbEntity
  8
部品1
100
AcDbLine
 10
3593.689423619457
 20
7904.687655000677
 30
0.0
 11
3565.689423619457
 21
7904.687655000677
 31
0.0
  0
LINE
  5
18927
330
747D
100
AcDbEntity
  8
破線
 48
10.0
100
AcDbLine
 10
6108.18942361946
 20
7509.687655000718
 30
0.0
 11
5325.68942361946
 21
7509.687655000703
 31
0.0
  0
DIMENSION
  5
18993
330
747D
100
AcDbEntity
  8
寸法
100
AcDbDimension
  2
*D15
 10
5858.953750621003
 20
9366.081215365024
 30
0.0
 11
5487.037656833109
 21
9366.081215365024
 31
0.0
 70
   160
 71
     5
 42
1231.000000000069
  3
INABA_S40G
100
AcDbAlignedDimension
 13
4685.189423619413
 23
9579.687655000752
 33
0.0
 14
5916.189423619482
 24
9579.687655000745
 34
0.0
100
AcDbRotatedDimension
1001
ACAD
1000
DSTYLE
1002
{
1002
}
  0
LINE
  5
18994
330
747D
100
AcDbEntity
  8
部品1
100
AcDbLine
 10
4685.189423619413
 20
9579.687655000752
 30
0.0
 11
5916.18942361948
 21
9579.68765500081
 31
0.0
  0
LINE
  5
18995
330
747D
100
AcDbEntity
  8
部品1
100
AcDbLine
 10
3593.689423619457
 20
8744.68765500069
 30
0.0
 11
3565.689423619457
 21
8744.68765500069
 31
0.0
  0
DIMENSION
  5
18996
330
747D
100
AcDbEntity
  8
寸法
100
AcDbDimension
  2
*D16
 10
4599.953750620931
 20
9366.081215365024
 30
0.0
 11
4064.779301167789
 21
9366.081215365024
 31
0.0
 70
   160
 71
     5
 42
1062.999999999931
  3
INABA_S40G
100
AcDbAlignedDimension
 13
3594.189423619482
 23
9579.687655000702
 33
0.0
 14
4657.189423619413
 24
9579.687655000755
 34
0.0
100
AcDbRotatedDimension
1001
ACAD
1000
DSTYLE
1002
{
1002
}
  0
LINE
  5
18997
330
747D
100
AcDbEntity
  8
部品1
100
AcDbLine
 10
3594.189423619482
 20
9579.687655000705
 30
0.0
 11
4657.189423619413
 21
9579.687655000755
 31
0.0
  0
LINE
  5
18998
330
747D
100
AcDbEntity
  8
部品1
100
AcDbLine
 10
3593.689423619457
 20
9164.687655000676
 30
0.0
 11
3565.689423619457
 21
9164.687655000676
 31
0.0
  0
LINE
  5
18999
330
747D
100
AcDbEntity
  8
部品1
100
AcDbLine
 10
3593.689423619457
 20
9584.687655000676
 30
0.0
 11
3565.689423619457
 21
9584.687655000676
 31
0.0
  0
LINE
  5
1899A
330
747D
100
AcDbEntity
  8
部品1
100
AcDbLine
 10
4683.189423619412
 20
9579.68765500081
 30
0.0
 11
4658.189423619413
 21
9579.68765500081
 31
0.0
  0
LINE
  5
1899B
330
747D
100
AcDbEntity
  8
部品1
100
AcDbLine
 10
5918.189423619482
 20
9579.68765500081
 30
0.0
 11
5943.189423619482
 21
9579.68765500081
 31
0.0
  0
LINE
  5
1899D
330
747D
100
AcDbEntity
  8
部品1
100
AcDbLine
 10
6979.189423619473
 20
9579.687655000803
 30
0.0
 11
6979.189423619482
 21
7486.187655000794
 31
0.0
  0
LINE
  5
1899E
330
747D
100
AcDbEntity
  8
破線
 48
10.0
100
AcDbLine
 10
6955.689423619475
 20
9579.687655000803
 30
0.0
 11
6955.689423619483
 21
7509.687655000789
 31
0.0
  0
DIMENSION
  5
1899F
330
747D
100
AcDbEntity
  8
寸法
100
AcDbDimension
  2
*D17
 10
7683.115769353868
 20
7429.687655000792
 30
0.0
 11
7683.115769353865
 21
7121.202373626551
 31
0.0
 70
   160
 71
     5
 42
54.99999999999636
  3
INABA_S40G
100
AcDbAlignedDimension
 13
7035.689423619456
 23
7484.687655000789
 33
0.0
 14
7035.689423619456
 24
7429.687655000792
 34
0.0
 50
90.0
100
AcDbRotatedDimension
1001
ACAD
1000
DSTYLE
1002
{
1002
}
  0
LINE
  5
189A1
330
747D
100
AcDbEntity
  8
部品1
100
AcDbLine
 10
7035.689423619456
 20
7429.687655000792
 30
0.0
 11
6560.689423619482
 21
7429.687655000778
 31
0.0
  0
LINE
  5
189AD
330
747D
100
AcDbEntity
  8
部品1
100
AcDbLine
 10
6560.689423619482
 20
7429.687655000778
 30
0.0
 11
6560.689423619482
 21
7457.687655000793
 31
0.0
  0
LINE
  5
189AE
330
747D
100
AcDbEntity
  8
部品1
100
AcDbLine
 10
6980.689423619482
 20
7429.687655000792
 30
0.0
 11
6980.689423619482
 21
7457.687655000793
 31
0.0
  0
LINE
  5
189AF
330
747D
100
AcDbEntity
  8
部品1
100
AcDbLine
 10
7007.689423619481
 20
7484.687655000789
 30
0.0
 11
7035.689423619482
 21
7484.687655000789
 31
0.0
  0
LINE
  5
189B0
330
747D
100
AcDbEntity
  8
部品1
100
AcDbLine
 10
7035.689423619459
 20
7484.687655000789
 30
0.0
 11
7035.689423619456
 21
7429.687655000792
 31
0.0
  0
LINE
  5
189B1
330
747D
100
AcDbEntity
  8
部品1
 48
50.0
100
AcDbLine
 10
6979.189423619482
 20
7486.187655000794
 30
0.0
 11
7007.68942361948
 21
7457.687655000793
 31
0.0
  0
LINE
  5
189B2
330
747D
100
AcDbEntity
  8
部品1
100
AcDbLine
 10
7035.689423619456
 20
7429.687655000792
 30
0.0
 11
6984.689423619457
 21
7429.687655000792
 31
0.0
  0
LINE
  5
189B3
330
747D
100
AcDbEntity
  8
部品1
100
AcDbLine
 10
7007.689423619459
 20
7484.687655000789
 30
0.0
 11
7035.689423619456
 21
7484.687655000789
 31
0.0
  0
LINE
  5
189B4
330
747D
100
AcDbEntity
  8
部品1
100
AcDbLine
 10
7007.689423619481
 20
7904.687655000803
 30
0.0
 11
7035.689423619482
 21
7904.687655000803
 31
0.0
  0
LINE
  5
189B5
330
747D
100
AcDbEntity
  8
部品1
100
AcDbLine
 10
7007.689423619481
 20
8744.687655000818
 30
0.0
 11
7035.689423619482
 21
8744.687655000818
 31
0.0
  0
LINE
  5
189B6
330
747D
100
AcDbEntity
  8
部品1
100
AcDbLine
 10
7007.689423619481
 20
9164.687655000804
 30
0.0
 11
7035.689423619482
 21
9164.687655000804
 31
0.0
  0
LINE
  5
189B7
330
747D
100
AcDbEntity
  8
部品1
100
AcDbLine
 10
7007.689423619481
 20
9584.687655000804
 30
0.0
 11
7035.689423619482
 21
9584.687655000804
 31
0.0
  0
LINE
  5
189B8
330
747D
100
AcDbEntity
  8
部品1
100
AcDbLine
 10
5943.189423619482
 20
10031.68765500082
 30
0.0
 11
7007.689423619481
 21
10031.6876550008
 31
0.0
  0
LINE
  5
189B9
330
747D
100
AcDbEntity
  8
部品1
100
AcDbLine
 10
5944.189423619482
 20
10029.6876550008
 30
0.0
 11
7007.189423619482
 21
10029.6876550008
 31
0.0
  0
LINE
  5
189BA
330
747D
100
AcDbEntity
  8
部品1
100
AcDbLine
 10
3565.689423619482
 20
10059.6876550007
 30
0.0
 11
7035.689423619482
 21
10059.6876550008
 31
0.0
  0
DIMENSION
  5
189BB
330
747D
100
AcDbEntity
  8
寸法
100
AcDbDimension
  2
*D7
 10
6980.689423619482
 20
10575.4958746258
 30
0.0
 11
5300.689423619482
 21
10575.4958746258
 31
0.0
 70
   160
  1
8X420=<>
 71
     5
 42
3360.0
  3
INABA_S40G
100
AcDbAlignedDimension
 13
3620.689423619482
 23
10059.6876550007
 33
0.0
 14
6980.689423619482
 24
10059.6876550008
 34
0.0
100
AcDbRotatedDimension
1001
ACAD
1000
DSTYLE
1002
{
1002
}
  0
DIMENSION
  5
189BD
330
747D
100
AcDbEntity
  8
寸法
100
AcDbDimension
  2
*D8
 10
3620.689423619482
 20
10575.49587462568
 30
0.0
 11
3257.204142245206
 21
10575.49587462568
 31
0.0
 70
   160
 71
     5
 42
55.00000000003637
  3
INABA_S40G
100
AcDbAlignedDimension
 13
3565.689423619446
 23
10059.6876550007
 33
0.0
 14
3620.689423619482
 24
10059.6876550007
 34
0.0
100
AcDbRotatedDimension
1001
ACAD
1000
DSTYLE
1002
{
1002
}
  0
LINE
  5
189BE
330
747D
100
AcDbEntity
  8
部品1
100
AcDbLine
 10
4683.189423619412
 20
10031.68765500082
 30
0.0
 11
5918.189423619478
 21
10031.68765500082
 31
0.0
  0
LINE
  5
189BF
330
747D
100
AcDbEntity
  8
部品1
100
AcDbLine
 10
4685.189423619413
 20
10029.68765500075
 30
0.0
 11
5916.189423619482
 21
10029.68765500081
 31
0.0
  0
LINE
  5
189C1
330
747D
100
AcDbEntity
  8
部品1
100
AcDbLine
 10
3593.689423619482
 20
10031.68765500082
 30
0.0
 11
4658.189423619413
 21
10031.68765500082
 31
0.0
  0
LINE
  5
189C2
330
747D
100
AcDbEntity
  8
部品1
100
AcDbLine
 10
3594.189423619482
 20
10029.6876550007
 30
0.0
 11
4657.189423619409
 21
10029.68765500075
 31
0.0
  0
LINE
  5
189C3
330
747D
100
AcDbEntity
  8
部品1
100
AcDbLine
 10
3620.689423619446
 20
10059.68765500067
 30
0.0
 11
3620.689423619449
 21
10031.68765500067
 31
0.0
  0
LINE
  5
189C4
330
747D
100
AcDbEntity
  8
部品1
100
AcDbLine
 10
3620.689423619482
 20
10059.6876550007
 30
0.0
 11
3620.689423619482
 21
10031.6876550007
 31
0.0
  0
LINE
  5
189C5
330
747D
100
AcDbEntity
  8
部品1
100
AcDbLine
 10
3593.68942361945
 20
10004.68765500067
 30
0.0
 11
3565.68942361945
 21
10004.68765500067
 31
0.0
  0
LINE
  5
189C6
330
747D
100
AcDbEntity
  8
部品1
100
AcDbLine
 10
4040.689423619446
 20
10059.68765500067
 30
0.0
 11
4040.68942361945
 21
10031.68765500067
 31
0.0
  0
LINE
  5
189C7
330
747D
100
AcDbEntity
  8
部品1
100
AcDbLine
 10
4705.689423619413
 20
10049.6876550008
 30
0.0
 11
4705.689423619413
 21
10031.6876550008
 31
0.0
  0
LINE
  5
189C8
330
747D
100
AcDbEntity
  8
部品1
100
AcDbLine
 10
4705.689423619413
 20
10049.6876550008
 30
0.0
 11
4699.689423619413
 21
10049.6876550008
 31
0.0
  0
LINE
  5
189C9
330
747D
100
AcDbEntity
  8
部品1
100
AcDbLine
 10
4683.189423619412
 20
10023.6876550008
 30
0.0
 11
4658.189423619413
 21
10023.68765500081
 31
0.0
  0
LINE
  5
189CA
330
747D
100
AcDbEntity
  8
部品1
100
AcDbLine
 10
4635.689423619413
 20
10049.6876550008
 30
0.0
 11
4635.689423619413
 21
10031.6876550008
 31
0.0
  0
LINE
  5
189CB
330
747D
100
AcDbEntity
  8
部品1
100
AcDbLine
 10
4641.689423619413
 20
10049.6876550008
 30
0.0
 11
4635.689423619413
 21
10049.6876550008
 31
0.0
  0
LINE
  5
189CC
330
747D
100
AcDbEntity
  8
部品1
100
AcDbLine
 10
4460.689423619445
 20
10059.68765500067
 30
0.0
 11
4460.689423619449
 21
10031.68765500067
 31
0.0
  0
LINE
  5
189CE
330
747D
100
AcDbEntity
  8
部品1
100
AcDbLine
 10
4880.689423619446
 20
10059.68765500067
 30
0.0
 11
4880.68942361945
 21
10031.68765500067
 31
0.0
  0
LINE
  5
189CF
330
747D
100
AcDbEntity
  8
部品1
100
AcDbLine
 10
5300.689423619445
 20
10059.68765500067
 30
0.0
 11
5300.689423619449
 21
10031.68765500067
 31
0.0
  0
LINE
  5
189D0
330
747D
100
AcDbEntity
  8
部品1
100
AcDbLine
 10
5720.689423619446
 20
10059.68765500067
 30
0.0
 11
5720.689423619449
 21
10031.68765500067
 31
0.0
  0
LINE
  5
189D1
330
747D
100
AcDbEntity
  8
部品1
100
AcDbLine
 10
5918.189423619482
 20
10023.6876550008
 30
0.0
 11
5943.189423619482
 21
10023.68765500081
 31
0.0
  0
LINE
  5
189D2
330
747D
100
AcDbEntity
  8
部品1
100
AcDbLine
 10
5959.689423619482
 20
10049.6876550008
 30
0.0
 11
5965.689423619482
 21
10049.6876550008
 31
0.0
  0
LINE
  5
189D3
330
747D
100
AcDbEntity
  8
部品1
100
AcDbLine
 10
5965.689423619482
 20
10049.6876550008
 30
0.0
 11
5965.689423619482
 21
10031.6876550008
 31
0.0
  0
LINE
  5
189D4
330
747D
100
AcDbEntity
  8
部品1
100
AcDbLine
 10
5895.689423619482
 20
10049.6876550008
 30
0.0
 11
5901.689423619482
 21
10049.6876550008
 31
0.0
  0
LINE
  5
189D5
330
747D
100
AcDbEntity
  8
部品1
100
AcDbLine
 10
5895.689423619482
 20
10049.6876550008
 30
0.0
 11
5895.689423619482
 21
10031.6876550008
 31
0.0
  0
LINE
  5
189D6
330
747D
100
AcDbEntity
  8
部品1
100
AcDbLine
 10
6140.689423619446
 20
10059.68765500067
 30
0.0
 11
6140.689423619449
 21
10031.68765500067
 31
0.0
  0
DIMENSION
  5
189D7
330
747D
100
AcDbEntity
  8
寸法
100
AcDbDimension
  2
*D9
 10
7035.689423619482
 20
10575.49587462578
 30
0.0
 11
7344.17470499372
 21
10575.49587462578
 31
0.0
 70
   160
 71
     5
 42
55.0
  3
INABA_S40G
100
AcDbAlignedDimension
 13
6980.689423619482
 23
10059.6876550008
 33
0.0
 14
7035.689423619482
 24
10059.6876550008
 34
0.0
100
AcDbRotatedDimension
1001
ACAD
1000
DSTYLE
1002
{
1002
}
  0
DIMENSION
  5
189D8
330
747D
100
AcDbEntity
  8
寸法
100
AcDbDimension
  2
*D10
 10
7683.115769353893
 20
10004.6876550008
 30
0.0
 11
7683.115769353891
 21
10368.17293637504
 31
0.0
 70
   160
 71
     5
 42
54.99999999999636
  3
INABA_S40G
100
AcDbAlignedDimension
 13
7035.689423619482
 23
10059.6876550008
 33
0.0
 14
7035.689423619482
 24
10004.6876550008
 34
0.0
 50
90.0
100
AcDbRotatedDimension
1001
ACAD
1000
DSTYLE
1002
{
1002
}
  0
LINE
  5
189D9
330
747D
100
AcDbEntity
  8
部品1
100
AcDbLine
 10
6560.689423619447
 20
10059.68765500067
 30
0.0
 11
6560.689423619449
 21
10031.68765500067
 31
0.0
  0
LINE
  5
189DA
330
747D
100
AcDbEntity
  8
部品1
100
AcDbLine
 10
6980.689423619482
 20
10059.6876550008
 30
0.0
 11
6980.689423619482
 21
10031.6876550008
 31
0.0
  0
LINE
  5
189DB
330
747D
100
AcDbEntity
  8
部品1
100
AcDbLine
 10
6980.689423619482
 20
10059.68765500082
 30
0.0
 11
6980.689423619482
 21
10031.68765500082
 31
0.0
  0
LINE
  5
189DC
330
747D
100
AcDbEntity
  8
部品1
100
AcDbLine
 10
7007.689423619481
 20
10004.6876550008
 30
0.0
 11
7035.689423619482
 21
10004.6876550008
 31
0.0
  0
LINE
  5
189DD
330
747D
100
AcDbEntity
  8
仕様書枠
 48
50.0
100
AcDbLine
 10
13127.2
 20
11409.6
 30
0.0
 11
13127.19999999999
 21
8009.600000000007
 31
0.0
  0
LINE
  5
189DE
330
747D
100
AcDbEntity
  8
仕様書枠
 48
50.0
100
AcDbLine
 10
13490.2
 20
11409.6
 30
0.0
 11
13490.20000000001
 21
8349.600000000007
 31
0.0
  0
LINE
  5
189DF
330
747D
100
AcDbEntity
  8
仕様書枠
 48
50.0
100
AcDbLine
 10
14785.2
 20
11409.59999999999
 30
0.0
 11
14785.2
 21
8349.600000000004
 31
0.0
  0
LINE
  5
189E0
330
747D
100
AcDbEntity
  8
仕様書枠
 48
50.0
100
AcDbLine
 10
16307.19999999999
 20
8009.600000000004
 30
0.0
 11
16307.2
 21
11409.6
 31
0.0
  0
TEXT
  5
189E1
330
747D
100
AcDbEntity
  8
文字
 62
     7
 48
50.0
100
AcDbText
 10
13583.11819016569
 20
9230.013745883733
 30
0.0
 40
100.0
  1
壁面扉敷居
  7
STYLE1
100
AcDbText
  0
TEXT
  5
189E2
330
747D
100
AcDbEntity
  8
文字
 62
     7
 48
50.0
100
AcDbText
 10
15022.63965474516
 20
8550.013745883729
 30
0.0
 40
100.0
  1
F12            0.6
  7
STYLE1
100
AcDbText
  0
LINE
  5
189E3
330
747D
100
AcDbEntity
  8
仕様書枠
 48
50.0
100
AcDbLine
 10
16307.19999999999
 20
8009.600000000004
 30
0.0
 11
13127.19999999999
 21
8009.600000000007
 31
0.0
  0
TEXT
  5
189E4
330
747D
100
AcDbEntity
  8
文字
 62
     7
 48
50.0
100
AcDbText
 10
15022.63965474516
 20
8720.013745883729
 30
0.0
 40
100.0
  1
F12            0.8
  7
STYLE1
100
AcDbText
  0
TEXT
  5
189E5
330
747D
100
AcDbEntity
  8
文字
 62
     7
 48
50.0
100
AcDbText
 10
15022.63965474515
 20
8890.013745883729
 30
0.0
 40
100.0
  1
F12            0.7
  7
STYLE1
100
AcDbText
  0
LINE
  5
189E6
330
747D
100
AcDbEntity
  8
仕様書枠
 48
50.0
100
AcDbLine
 10
16307.19999999999
 20
9029.6
 30
0.0
 11
13127.2
 21
9029.600000000003
 31
0.0
  0
TEXT
  5
189E7
330
747D
100
AcDbEntity
  8
文字
 62
     7
 48
50.0
100
AcDbText
 10
13229.83081656554
 20
8040.013745883733
 30
0.0
 40
100.0
  1
Y10→溶融亜鉛-5％アルミニウム合金めっき鋼板(JIS G 3317)
 41
0.9
  7
STYLE1
100
AcDbText
  0
LINE
  5
189E8
330
747D
100
AcDbEntity
  8
仕様書枠
 48
50.0
100
AcDbLine
 10
16307.19999999999
 20
8179.600000000005
 30
0.0
 11
13127.19999999999
 21
8179.600000000005
 31
0.0
  0
LINE
  5
189E9
330
747D
100
AcDbEntity
  8
仕様書枠
 48
50.0
100
AcDbLine
 10
16307.19999999999
 20
8349.600000000004
 30
0.0
 11
13127.19999999999
 21
8349.600000000007
 31
0.0
  0
LINE
  5
189EA
330
747D
100
AcDbEntity
  8
仕様書枠
 48
50.0
100
AcDbLine
 10
16307.19999999999
 20
8859.6
 30
0.0
 11
13127.2
 21
8859.600000000005
 31
0.0
  0
LINE
  5
189EB
330
747D
100
AcDbEntity
  8
仕様書枠
 48
50.0
100
AcDbLine
 10
16307.19999999999
 20
9199.600000000001
 30
0.0
 11
13127.2
 21
9199.600000000001
 31
0.0
  0
TEXT
  5
189EC
330
747D
100
AcDbEntity
  8
文字
 62
     7
 48
50.0
100
AcDbText
 10
15022.63965474515
 20
8380.013745883726
 30
0.0
 40
100.0
  1
F12            2.3
  7
STYLE1
100
AcDbText
  0
LINE
  5
189ED
330
747D
100
AcDbEntity
  8
仕様書枠
 48
50.0
100
AcDbLine
 10
16307.19999999999
 20
8519.600000000004
 30
0.0
 11
13127.2
 21
8519.600000000009
 31
0.0
  0
LINE
  5
189EE
330
747D
100
AcDbEntity
  8
仕様書枠
 48
50.0
100
AcDbLine
 10
16307.19999999999
 20
8689.600000000003
 30
0.0
 11
13127.2
 21
8689.600000000007
 31
0.0
  0
TEXT
  5
189EF
330
747D
100
AcDbEntity
  8
文字
 62
     7
 48
50.0
100
AcDbText
 10
15022.63965474517
 20
9060.013745883725
 30
0.0
 40
100.0
  1
F12            1.0
  7
STYLE1
100
AcDbText
  0
TEXT
  5
189F0
330
747D
100
AcDbEntity
  8
文字
 62
     7
 48
50.0
100
AcDbText
 10
13229.83081656554
 20
8210.013745883735
 30
0.0
 40
100.0
  1
F12→溶融亜鉛めっき鋼板(JIS G 3302)
  7
STYLE1
100
AcDbText
  0
TEXT
  5
189F1
330
747D
100
AcDbEntity
  8
文字
 62
     7
 48
50.0
100
AcDbText
 10
13583.11819016569
 20
8380.013745883728
 30
0.0
 40
100.0
  1
アンカープレート
  7
STYLE1
100
AcDbText
  0
TEXT
  5
189F2
330
747D
100
AcDbEntity
  8
文字
 62
     7
 48
50.0
100
AcDbText
 10
13583.11819016569
 20
9060.013745883733
 30
0.0
 40
100.0
  1
壁面扉枠左右
  7
STYLE1
100
AcDbText
  0
TEXT
  5
189F3
330
747D
100
AcDbEntity
  8
文字
 62
     7
 48
50.0
100
AcDbText
 10
13248.77747366447
 20
8380.013745883728
 30
0.0
 40
100.0
  1
17
  7
STYLE1
100
AcDbText
  0
TEXT
  5
189F4
330
747D
100
AcDbEntity
  8
文字
 62
     7
 48
50.0
100
AcDbText
 10
13248.77747366447
 20
8550.013745883729
 30
0.0
 40
100.0
  1
16
  7
STYLE1
100
AcDbText
  0
TEXT
  5
189F5
330
747D
100
AcDbEntity
  8
文字
 62
     7
 48
50.0
100
AcDbText
 10
13583.11819016569
 20
8550.013745883733
 30
0.0
 40
100.0
  1
棚板
  7
STYLE1
100
AcDbText
  0
TEXT
  5
189F6
330
747D
100
AcDbEntity
  8
文字
 62
     7
 48
50.0
100
AcDbText
 10
13248.77747366448
 20
8890.013745883729
 30
0.0
 40
100.0
  1
14
  7
STYLE1
100
AcDbText
  0
TEXT
  5
189F7
330
747D
100
AcDbEntity
  8
文字
 62
     7
 48
50.0
100
AcDbText
 10
13248.77747366447
 20
8720.013745883729
 30
0.0
 40
100.0
  1
15
  7
STYLE1
100
AcDbText
  0
TEXT
  5
189F8
330
747D
100
AcDbEntity
  8
文字
 62
     7
 48
50.0
100
AcDbText
 10
13248.77747366448
 20
9060.013745883729
 30
0.0
 40
100.0
  1
13
  7
STYLE1
100
AcDbText
  0
TEXT
  5
189F9
330
747D
100
AcDbEntity
  8
文字
 62
     7
 48
50.0
100
AcDbText
 10
13583.11819016568
 20
8890.013745883733
 30
0.0
 40
100.0
  1
正面パネル
  7
STYLE1
100
AcDbText
  0
TEXT
  5
189FA
330
747D
100
AcDbEntity
  8
文字
 62
     7
 48
50.0
100
AcDbText
 10
13583.11819016569
 20
8720.013745883733
 30
0.0
 40
100.0
  1
扉
  7
STYLE1
100
AcDbText
  0
TEXT
  5
189FB
330
747D
100
AcDbEntity
  8
文字
 62
     7
 48
50.0
100
AcDbText
 10
15022.63965474515
 20
9740.013745883725
 30
0.0
 40
100.0
  1
F12            1.2
  7
STYLE1
100
AcDbText
  0
TEXT
  5
189FC
330
747D
100
AcDbEntity
  8
文字
 62
     7
 48
50.0
100
AcDbText
 10
15022.63965474517
 20
10590.01374588372
 30
0.0
 40
100.0
  1
F12            1.0
  7
STYLE1
100
AcDbText
  0
TEXT
  5
189FD
330
747D
100
AcDbEntity
  8
文字
 62
     7
 48
50.0
100
AcDbText
 10
15022.63965474516
 20
10930.01374588372
 30
0.0
 40
100.0
  1
F12            1.2
  7
STYLE1
100
AcDbText
  0
TEXT
  5
189FE
330
747D
100
AcDbEntity
  8
文字
 62
     7
 48
50.0
100
AcDbText
 10
15022.63965474515
 20
9570.013745883725
 30
0.0
 40
100.0
  1
F12            0.6
  7
STYLE1
100
AcDbText
  0
TEXT
  5
189FF
330
747D
100
AcDbEntity
  8
文字
 62
     7
 48
50.0
100
AcDbText
 10
15022.63965474517
 20
9910.013745883725
 30
0.0
 40
100.0
  1
Y10            0.5
  7
STYLE1
100
AcDbText
  0
TEXT
  5
18A00
330
747D
100
AcDbEntity
  8
文字
 62
     7
 48
50.0
100
AcDbText
 10
15022.63965474516
 20
10080.01374588372
 30
0.0
 40
100.0
  1
Y10            0.7
  7
STYLE1
100
AcDbText
  0
TEXT
  5
18A01
330
747D
100
AcDbEntity
  8
文字
 62
     7
 48
50.0
100
AcDbText
 10
15022.63965474516
 20
10250.01374588372
 30
0.0
 40
100.0
  1
Y10            0.7
  7
STYLE1
100
AcDbText
  0
TEXT
  5
18A02
330
747D
100
AcDbEntity
  8
文字
 62
     7
 48
50.0
100
AcDbText
 10
15022.63965474516
 20
10420.01374588372
 30
0.0
 40
100.0
  1
Y10            1.0
  7
STYLE1
100
AcDbText
  0
TEXT
  5
18A03
330
747D
100
AcDbEntity
  8
文字
 62
     7
 48
50.0
100
AcDbText
 10
15022.63965474518
 20
10760.01374588372
 30
0.0
 40
100.0
  1
F12            1.0
  7
STYLE1
100
AcDbText
  0
TEXT
  5
18A04
330
747D
100
AcDbEntity
  8
文字
 62
     7
 48
50.0
100
AcDbText
 10
15022.63965474517
 20
11100.01374588372
 30
0.0
 40
100.0
  1
F12            1.2
  7
STYLE1
100
AcDbText
  0
LINE
  5
18A05
330
747D
100
AcDbEntity
  8
仕様書枠
 48
50.0
100
AcDbLine
 10
16307.2
 20
9879.600000000001
 30
0.0
 11
13127.2
 21
9879.600000000001
 31
0.0
  0
LINE
  5
18A06
330
747D
100
AcDbEntity
  8
仕様書枠
 48
50.0
100
AcDbLine
 10
16307.2
 20
10219.6
 30
0.0
 11
13127.2
 21
10219.6
 31
0.0
  0
LINE
  5
18A07
330
747D
100
AcDbEntity
  8
仕様書枠
 48
50.0
100
AcDbLine
 10
16307.19999999999
 20
9539.6
 30
0.0
 11
13127.2
 21
9539.6
 31
0.0
  0
LINE
  5
18A08
330
747D
100
AcDbEntity
  8
仕様書枠
 48
50.0
100
AcDbLine
 10
16307.19999999999
 20
9369.600000000001
 30
0.0
 11
13127.2
 21
9369.600000000001
 31
0.0
  0
LINE
  5
18A09
330
747D
100
AcDbEntity
  8
仕様書枠
 48
50.0
100
AcDbLine
 10
16307.19999999999
 20
9709.600000000001
 30
0.0
 11
13127.2
 21
9709.600000000001
 31
0.0
  0
TEXT
  5
18A0A
330
747D
100
AcDbEntity
  8
文字
 62
     7
 48
50.0
100
AcDbText
 10
14859.79774614482
 20
11270.01374588373
 30
0.0
 40
100.0
  1
材料（材質）　　単位mm
  7
STYLE1
100
AcDbText
  0
LINE
  5
18A0B
330
747D
100
AcDbEntity
  8
仕様書枠
 48
50.0
100
AcDbLine
 10
16307.19999999999
 20
10729.6
 30
0.0
 11
13127.2
 21
10729.6
 31
0.0
  0
LINE
  5
18A0C
330
747D
100
AcDbEntity
  8
仕様書枠
 48
50.0
100
AcDbLine
 10
16307.19999999999
 20
10389.6
 30
0.0
 11
13127.2
 21
10389.6
 31
0.0
  0
LINE
  5
18A0D
330
747D
100
AcDbEntity
  8
仕様書枠
 48
50.0
100
AcDbLine
 10
16307.19999999999
 20
10559.6
 30
0.0
 11
13127.2
 21
10559.6
 31
0.0
  0
LINE
  5
18A0E
330
747D
100
AcDbEntity
  8
仕様書枠
 48
50.0
100
AcDbLine
 10
16307.2
 20
11069.6
 30
0.0
 11
13127.2
 21
11069.6
 31
0.0
  0
LINE
  5
18A0F
330
747D
100
AcDbEntity
  8
仕様書枠
 48
50.0
100
AcDbLine
 10
16307.2
 20
10899.6
 30
0.0
 11
13127.2
 21
10899.6
 31
0.0
  0
LINE
  5
18A10
330
747D
100
AcDbEntity
  8
仕様書枠
 48
50.0
100
AcDbLine
 10
16307.2
 20
11239.6
 30
0.0
 11
13127.2
 21
11239.6
 31
0.0
  0
LINE
  5
18A11
330
747D
100
AcDbEntity
  8
仕様書枠
 48
50.0
100
AcDbLine
 10
16307.2
 20
11409.6
 30
0.0
 11
13127.2
 21
11409.6
 31
0.0
  0
LINE
  5
18A12
330
747D
100
AcDbEntity
  8
仕様書枠
 48
50.0
100
AcDbLine
 10
16307.2
 20
10049.6
 30
0.0
 11
13127.2
 21
10049.6
 31
0.0
  0
TEXT
  5
18A13
330
747D
100
AcDbEntity
  8
文字
 62
     7
 48
50.0
100
AcDbText
 10
15022.63965474515
 20
9400.013745883729
 30
0.0
 40
100.0
  1
F12            0.7
  7
STYLE1
100
AcDbText
  0
TEXT
  5
18A14
330
747D
100
AcDbEntity
  8
文字
 62
     7
 48
50.0
100
AcDbText
 10
15022.63965474517
 20
9230.013745883725
 30
0.0
 40
100.0
  1
F12            1.0
  7
STYLE1
100
AcDbText
  0
TEXT
  5
18A15
330
747D
100
AcDbEntity
  8
文字
 62
     7
 48
50.0
100
AcDbText
 10
13271.19032244792
 20
10250.01374588373
 30
0.0
 40
100.0
  1
6
  7
STYLE1
100
AcDbText
  0
TEXT
  5
18A16
330
747D
100
AcDbEntity
  8
文字
 62
     7
 48
50.0
100
AcDbText
 10
13583.11819016569
 20
10250.01374588373
 30
0.0
 40
100.0
  1
妻板左右
  7
STYLE1
100
AcDbText
  0
TEXT
  5
18A17
330
747D
100
AcDbEntity
  8
文字
 62
     7
 48
50.0
100
AcDbText
 10
13583.11819016569
 20
9740.013745883729
 30
0.0
 40
100.0
  1
母屋中
  7
STYLE1
100
AcDbText
  0
TEXT
  5
18A18
330
747D
100
AcDbEntity
  8
文字
 62
     7
 48
50.0
100
AcDbText
 10
13271.19032244792
 20
9740.013745883729
 30
0.0
 40
100.0
  1
9
  7
STYLE1
100
AcDbText
  0
TEXT
  5
18A19
330
747D
100
AcDbEntity
  8
文字
 62
     7
 48
50.0
100
AcDbText
 10
13248.77747366448
 20
9230.013745883729
 30
0.0
 40
100.0
  1
12
  7
STYLE1
100
AcDbText
  0
TEXT
  5
18A1A
330
747D
100
AcDbEntity
  8
文字
 62
     7
 48
50.0
100
AcDbText
 10
13248.77747366447
 20
9400.013745883729
 30
0.0
 40
100.0
  1
11
  7
STYLE1
100
AcDbText
  0
TEXT
  5
18A1B
330
747D
100
AcDbEntity
  8
文字
 62
     7
 48
50.0
100
AcDbText
 10
13248.77747366447
 20
9570.013745883729
 30
0.0
 40
100.0
  1
10
  7
STYLE1
100
AcDbText
  0
TEXT
  5
18A1C
330
747D
100
AcDbEntity
  8
文字
 62
     7
 48
50.0
100
AcDbText
 10
13583.11819016569
 20
9400.013745883729
 30
0.0
 40
100.0
  1
壁面扉鴨居
  7
STYLE1
100
AcDbText
  0
TEXT
  5
18A1D
330
747D
100
AcDbEntity
  8
文字
 62
     7
 48
50.0
100
AcDbText
 10
13583.11819016568
 20
9570.013745883729
 30
0.0
 40
100.0
  1
壁パネル
  7
STYLE1
100
AcDbText
  0
TEXT
  5
18A1E
330
747D
100
AcDbEntity
  8
文字
 62
     7
 48
50.0
100
AcDbText
 10
13271.19032244792
 20
9910.01374588373
 30
0.0
 40
100.0
  1
8
  7
STYLE1
100
AcDbText
  0
TEXT
  5
18A1F
330
747D
100
AcDbEntity
  8
文字
 62
     7
 48
50.0
100
AcDbText
 10
13271.19032244792
 20
10080.01374588373
 30
0.0
 40
100.0
  1
7
  7
STYLE1
100
AcDbText
  0
TEXT
  5
18A20
330
747D
100
AcDbEntity
  8
文字
 62
     7
 48
50.0
100
AcDbText
 10
13583.11819016569
 20
9910.01374588373
 30
0.0
 40
100.0
  1
屋根パネル
  7
STYLE1
100
AcDbText
  0
TEXT
  5
18A21
330
747D
100
AcDbEntity
  8
文字
 62
     7
 48
50.0
100
AcDbText
 10
13583.11819016569
 20
10080.01374588373
 30
0.0
 40
100.0
  1
鼻隠シ前後
  7
STYLE1
100
AcDbText
  0
TEXT
  5
18A22
330
747D
100
AcDbEntity
  8
文字
 62
     7
 48
50.0
100
AcDbText
 10
13732.03840939434
 20
11270.01374588373
 30
0.0
 40
100.0
  1
部　　品　　名
  7
STYLE1
100
AcDbText
  0
TEXT
  5
18A23
330
747D
100
AcDbEntity
  8
文字
 62
     7
 48
50.0
100
AcDbText
 10
13271.19032244792
 20
10590.01374588373
 30
0.0
 40
100.0
  1
4
  7
STYLE1
100
AcDbText
  0
TEXT
  5
18A24
330
747D
100
AcDbEntity
  8
文字
 62
     7
 48
50.0
100
AcDbText
 10
13271.19032244792
 20
10420.01374588373
 30
0.0
 40
100.0
  1
5
  7
STYLE1
100
AcDbText
  0
TEXT
  5
18A25
330
747D
100
AcDbEntity
  8
文字
 62
     7
 48
50.0
100
AcDbText
 10
13271.19032244792
 20
10760.01374588373
 30
0.0
 40
100.0
  1
3
  7
STYLE1
100
AcDbText
  0
TEXT
  5
18A26
330
747D
100
AcDbEntity
  8
文字
 62
     7
 48
50.0
100
AcDbText
 10
13583.1181901657
 20
10590.01374588373
 30
0.0
 40
100.0
  1
床パネル
 41
0.9
  7
STYLE1
100
AcDbText
  0
TEXT
  5
18A27
330
747D
100
AcDbEntity
  8
文字
 62
     7
 48
50.0
100
AcDbText
 10
13583.11819016569
 20
10420.01374588373
 30
0.0
 40
100.0
  1
桁前後
  7
STYLE1
100
AcDbText
  0
TEXT
  5
18A28
330
747D
100
AcDbEntity
  8
文字
 62
     7
 48
50.0
100
AcDbText
 10
13583.1181901657
 20
10760.01374588373
 30
0.0
 40
100.0
  1
柱
  7
STYLE1
100
AcDbText
  0
TEXT
  5
18A29
330
747D
100
AcDbEntity
  8
文字
 62
     7
 48
50.0
100
AcDbText
 10
13271.19032244792
 20
11100.01374588373
 30
0.0
 40
100.0
  1
1
  7
STYLE1
100
AcDbText
  0
TEXT
  5
18A2A
330
747D
100
AcDbEntity
  8
文字
 62
     7
 48
50.0
100
AcDbText
 10
13271.19032244792
 20
10930.01374588373
 30
0.0
 40
100.0
  1
2
  7
STYLE1
100
AcDbText
  0
TEXT
  5
18A2B
330
747D
100
AcDbEntity
  8
文字
 62
     7
 48
50.0
100
AcDbText
 10
13197.42518560407
 20
11270.01374588373
 30
0.0
 40
100.0
  1
品番
  7
STYLE1
100
AcDbText
  0
TEXT
  5
18A2C
330
747D
100
AcDbEntity
  8
文字
 62
     7
 48
50.0
100
AcDbText
 10
13583.11819016569
 20
11100.01374588373
 30
0.0
 40
100.0
  1
土台枠
  7
STYLE1
100
AcDbText
  0
TEXT
  5
18A2D
330
747D
100
AcDbEntity
  8
文字
 62
     7
 48
50.0
100
AcDbText
 10
13583.11819016569
 20
10930.01374588373
 30
0.0
 40
100.0
  1
根太
  7
STYLE1
100
AcDbText
  0
LINE
  5
18E8D
330
747D
100
AcDbEntity
  8
部品1
100
AcDbLine
 10
7007.689423619481
 20
8324.687655000833
 30
0.0
 11
7035.689423619482
 21
8324.687655000833
 31
0.0
  0
LINE
  5
18E8E
330
747D
100
AcDbEntity
  8
部品1
100
AcDbLine
 10
3593.689423619457
 20
8324.687655000706
 30
0.0
 11
3565.689423619457
 21
8324.687655000706
 31
0.0
  0
LINE
  5
18E8F
330
747D
100
AcDbEntity
  8
部品1
100
AcDbLine
 10
6979.189423619468
 20
8324.687655000806
 30
0.0
 11
3622.189423619468
 21
8324.687655000706
 31
0.0
  0
DIMENSION
  5
190D2
330
747D
100
AcDbEntity
  8
寸法
100
AcDbDimension
  2
*D18
 10
9304.80157630753
 20
2385.724067236465
 30
0.0
 11
9204.801576307529
 21
3280.724067236467
 31
0.0
 70
    32
 71
     5
 42
1790.0
  3
INABA_S40G
100
AcDbAlignedDimension
 13
10148.55170549079
 23
4175.724067236465
 33
0.0
 14
10148.55170549079
 24
2385.724067236465
 34
0.0
 50
90.0
100
AcDbRotatedDimension
1001
ACAD
1000
DSTYLE
1002
{
1070
   174
1070
     0
1070
   272
1070
     1
1070
   288
1070
     0
1070
   341
1005
0
1002
}
  0
DIMENSION
  5
190D3
330
747D
100
AcDbEntity
  8
寸法
100
AcDbDimension
  2
*D19
 10
9004.80157630753
 20
4410.724067236469
 30
0.0
 11
8904.789765283906
 21
3373.224067236469
 31
0.0
 70
    32
 71
     5
 42
2075.000000000004
  3
INABA_S40G
100
AcDbAlignedDimension
 13
10071.55170549078
 23
2335.724067236466
 33
0.0
 14
10088.55170549079
 24
4410.724067236469
 34
0.0
 50
90.0
100
AcDbRotatedDimension
1001
ACAD
1000
DSTYLE
1002
{
1070
   174
1070
     0
1070
   272
1070
     1
1070
   288
1070
     0
1070
   341
1005
0
1002
}
  0
DIMENSION
  5
190D4
330
747D
100
AcDbEntity
  8
寸法
100
AcDbDimension
  2
*D20
 10
13483.47886346292
 20
4355.72406723647
 30
0.0
 11
13383.46705243929
 21
3345.724067236473
 31
0.0
 70
    32
 71
     5
 42
2020.0
  3
INABA_S40G
100
AcDbAlignedDimension
 13
12778.55170549079
 23
2335.724067236471
 33
0.0
 14
12858.55170549079
 24
4355.72406723647
 34
0.0
 50
90.0
100
AcDbRotatedDimension
1001
ACAD
1000
DSTYLE
1002
{
1070
   174
1070
     0
1070
   272
1070
     1
1070
   288
1070
     0
1070
   341
1005
0
1002
}
  0
LINE
  5
190D9
330
747D
100
AcDbEntity
  8
細線
 48
50.0
100
AcDbLine
 10
12226.05170549079
 20
4175.724067236468
 30
0.0
 11
12226.05170549079
 21
2385.724067236472
 31
0.0
  0
LINE
  5
190DA
330
747D
100
AcDbEntity
  8
細線
 48
50.0
100
AcDbLine
 10
12241.05170549079
 20
4175.724067236468
 30
0.0
 11
12241.05170549079
 21
2385.724067236472
 31
0.0
  0
LINE
  5
190DB
330
747D
100
AcDbEntity
  8
細線
 48
50.0
100
AcDbLine
 10
12101.05170549079
 20
4175.724067236468
 30
0.0
 11
12101.05170549079
 21
2385.724067236472
 31
0.0
  0
LINE
  5
190DC
330
747D
100
AcDbEntity
  8
細線
 48
50.0
100
AcDbLine
 10
12086.05170549079
 20
4175.724067236468
 30
0.0
 11
12086.05170549079
 21
2385.724067236472
 31
0.0
  0
LINE
  5
190DD
330
747D
100
AcDbEntity
  8
細線
 48
50.0
100
AcDbLine
 10
11946.05170549079
 20
4175.724067236468
 30
0.0
 11
11946.05170549079
 21
2385.724067236472
 31
0.0
  0
LINE
  5
190DE
330
747D
100
AcDbEntity
  8
細線
 48
50.0
100
AcDbLine
 10
11961.05170549079
 20
4175.724067236468
 30
0.0
 11
11961.05170549079
 21
2385.724067236472
 31
0.0
  0
LINE
  5
190DF
330
747D
100
AcDbEntity
  8
部品1
100
AcDbLine
 10
11883.55170549078
 20
4175.724067236468
 30
0.0
 11
11883.55170549078
 21
2385.724067236472
 31
0.0
  0
LINE
  5
190E0
330
747D
100
AcDbEntity
  8
部品1
100
AcDbLine
 10
11323.77683592003
 20
4535.928455199488
 30
0.0
 11
11649.23184956306
 21
4518.410396240627
 31
0.0
  0
ARC
  5
190E1
330
747D
100
AcDbEntity
  8
部品1
100
AcDbCircle
 10
12844.17924130473
 20
4249.747824502263
 30
0.0
 40
0.7
100
AcDbArc
 50
275.0921697642079
 51
354.1866997667034
  0
ARC
  5
190E2
330
747D
100
AcDbEntity
  8
部品1
100
AcDbCircle
 10
12855.03858705405
 20
4326.791079320186
 30
0.0
 40
0.7
100
AcDbArc
 50
275.0921697642079
 51
354.1866997665479
  0
ARC
  5
190E3
330
747D
100
AcDbEntity
  8
部品1
100
AcDbCircle
 10
12855.36699229665
 20
4323.105682463096
 30
0.0
 40
3.0
100
AcDbArc
 50
95.09216976420788
 51
174.1866997665479
  0
ARC
  5
190E4
330
747D
100
AcDbEntity
  8
部品1
100
AcDbCircle
 10
12844.50764654732
 20
4246.062427645172
 30
0.0
 40
3.0
100
AcDbArc
 50
95.09216976420788
 51
174.1866997665479
  0
ARC
  5
190E5
330
747D
100
AcDbEntity
  8
部品1
 48
50.0
100
AcDbCircle
 10
12833.47951127222
 20
4236.47168304129
 30
0.0
 40
7.0
100
AcDbArc
 50
267.8377559869492
 51
354.1866997665479
  0
ARC
  5
190E6
330
747D
100
AcDbEntity
  8
部品1
 48
50.0
100
AcDbCircle
 10
12850.80160773673
 20
4347.374230183464
 30
0.0
 40
7.0
100
AcDbArc
 50
354.1866997665479
 51
87.03587545283228
  0
LINE
  5
190E7
330
747D
100
AcDbEntity
  8
部品1
 48
50.0
100
AcDbLine
 10
12841.52307487672
 20
4246.366289362075
 30
0.0
 11
12840.44351183698
 21
4235.762672368517
 31
0.0
  0
LINE
  5
190E8
330
747D
100
AcDbEntity
  8
部品1
 48
50.0
100
AcDbLine
 10
12852.38242062604
 20
4323.40954418
 30
0.0
 11
12844.8756413612
 21
4249.676923434988
 31
0.0
  0
LINE
  5
190E9
330
747D
100
AcDbEntity
  8
部品1
 48
50.0
100
AcDbLine
 10
12857.76560830149
 20
4346.665219510689
 30
0.0
 11
12855.73498711052
 21
4326.720178252909
 31
0.0
  0
ARC
  5
190EA
330
747D
100
AcDbEntity
  8
部品1
100
AcDbCircle
 10
10094.58879736215
 20
4289.538226195373
 30
0.0
 40
0.7
100
AcDbArc
 50
181.0932240292635
 51
260.1877540314845
  0
ARC
  5
190EB
330
747D
100
AcDbEntity
  8
部品1
100
AcDbCircle
 10
10089.81612376454
 20
4382.404004395493
 30
0.0
 40
0.7
100
AcDbArc
 50
181.0932240292114
 51
260.1877540314845
  0
ARC
  5
190EC
330
747D
100
AcDbEntity
  8
部品1
100
AcDbCircle
 10
10089.18556936152
 20
4378.758129858095
 30
0.0
 40
3.0
100
AcDbArc
 50
1.093224029315636
 51
80.18775403169875
  0
ARC
  5
190ED
330
747D
100
AcDbEntity
  8
部品1
100
AcDbCircle
 10
10093.95824295913
 20
4285.892351657976
 30
0.0
 40
3.0
100
AcDbArc
 50
1.093224029315636
 51
80.18775403169875
  0
ARC
  5
190EE
330
747D
100
AcDbEntity
  8
部品1
 48
50.0
100
AcDbCircle
 10
10104.15837533433
 20
4275.500108275495
 30
0.0
 40
7.0
100
AcDbArc
 50
181.0932240293156
 51
267.8377559869492
  0
ARC
  5
190EF
330
747D
100
AcDbEntity
  8
部品1
 48
50.0
100
AcDbCircle
 10
10095.73471723223
 20
4402.45116780859
 30
0.0
 40
7.0
100
AcDbArc
 50
87.03587545283228
 51
181.0932240293156
  0
LINE
  5
190F0
330
747D
100
AcDbEntity
  8
部品1
 48
50.0
100
AcDbLine
 10
10096.95769688556
 20
4285.94958926116
 30
0.0
 11
10097.15964950599
 21
4275.366553868066
 31
0.0
  0
LINE
  5
190F1
330
747D
100
AcDbEntity
  8
細線
 48
50.0
100
AcDbLine
 10
10094.35160382889
 20
4288.879637379968
 30
0.0
 11
12844.35526825953
 21
4249.070318405474
 31
0.0
  0
LINE
  5
190F2
330
747D
100
AcDbEntity
  8
細線
 48
50.0
100
AcDbLine
 10
10089.5911285916
 20
4381.741149077831
 30
0.0
 11
12855.22711333677
 21
4326.116944437003
 31
0.0
  0
LINE
  5
190F3
330
747D
100
AcDbEntity
  8
部品1
 48
50.0
100
AcDbLine
 10
10092.18502328795
 20
4378.815367461278
 30
0.0
 11
10093.88892477931
 21
4289.524870754632
 31
0.0
  0
LINE
  5
190F4
330
747D
100
AcDbEntity
  8
部品1
 48
50.0
100
AcDbLine
 10
10088.73599140389
 20
4402.317613401162
 30
0.0
 11
10089.11625118171
 21
4382.390648954751
 31
0.0
  0
LINE
  5
190F5
330
747D
100
AcDbEntity
  8
細線
 48
50.0
100
AcDbLine
 10
12825.52098868448
 20
4354.877489715939
 30
0.0
 11
12820.80402260279
 21
4229.945273781022
 31
0.0
  0
LINE
  5
190F6
330
747D
100
AcDbEntity
  8
細線
 48
50.0
100
AcDbLine
 10
10121.55170549079
 20
4408.123743611874
 30
0.0
 11
10116.26260393528
 21
4268.03811098452
 31
0.0
  0
LINE
  5
190F7
330
747D
100
AcDbEntity
  8
部品1
100
AcDbLine
 10
10103.89427009274
 20
4268.505092305437
 30
0.0
 11
12833.21540603064
 21
4229.476667071231
 31
0.0
  0
LINE
  5
190F8
330
747D
100
AcDbEntity
  8
部品1
100
AcDbLine
 10
10096.09669184775
 20
4409.441802570736
 30
0.0
 11
12851.16358235226
 21
4354.364864945608
 31
0.0
  0
LINE
  5
190F9
330
747D
100
AcDbEntity
  8
部品1
 48
50.0
100
AcDbLine
 10
11349.23184956306
 20
4534.610396240625
 30
0.0
 11
11649.23184956306
 21
4534.610396240625
 31
0.0
  0
LINE
  5
190FA
330
747D
100
AcDbEntity
  8
部品1
 48
50.0
100
AcDbLine
 10
11649.23184956306
 20
4534.610396240625
 30
0.0
 11
11649.23184956306
 21
4518.410396240627
 31
0.0
  0
TEXT
  5
190FB
330
747D
100
AcDbEntity
  8
部品1
 48
50.0
100
AcDbText
 10
11337.49968478679
 20
4570.494418393059
 30
0.0
 40
120.0
  1
1000
  7
STYLE1
100
AcDbText
  0
TEXT
  5
190FC
330
747D
100
AcDbEntity
  8
部品1
 48
50.0
100
AcDbText
 10
11815.13270745188
 20
4432.993160174777
 30
0.0
 40
120.0
  1
37
 50
90.0
  7
STYLE1
100
AcDbText
  0
LINE
  5
190FD
330
747D
100
AcDbEntity
  8
細線
 48
50.0
100
AcDbLine
 10
11541.05170549079
 20
4175.724067236469
 30
0.0
 11
11541.05170549079
 21
2385.72406723647
 31
0.0
  0
LINE
  5
190FE
330
747D
100
AcDbEntity
  8
細線
 48
50.0
100
AcDbLine
 10
11526.05170549079
 20
4175.724067236469
 30
0.0
 11
11526.05170549079
 21
2385.72406723647
 31
0.0
  0
LINE
  5
190FF
330
747D
100
AcDbEntity
  8
細線
 48
50.0
100
AcDbLine
 10
11666.05170549079
 20
4175.724067236469
 30
0.0
 11
11666.05170549079
 21
2385.72406723647
 31
0.0
  0
LINE
  5
19100
330
747D
100
AcDbEntity
  8
細線
 48
50.0
100
AcDbLine
 10
11681.05170549079
 20
4175.724067236469
 30
0.0
 11
11681.05170549079
 21
2385.72406723647
 31
0.0
  0
LINE
  5
19101
330
747D
100
AcDbEntity
  8
細線
 48
50.0
100
AcDbLine
 10
11821.05170549079
 20
4175.724067236469
 30
0.0
 11
11821.05170549079
 21
2385.72406723647
 31
0.0
  0
LINE
  5
19102
330
747D
100
AcDbEntity
  8
細線
 48
50.0
100
AcDbLine
 10
11806.05170549079
 20
4175.724067236469
 30
0.0
 11
11806.05170549079
 21
2385.72406723647
 31
0.0
  0
LINE
  5
19103
330
747D
100
AcDbEntity
  8
部品1
100
AcDbLine
 10
12303.55170549079
 20
4175.724067236469
 30
0.0
 11
12303.55170549079
 21
2385.724067236471
 31
0.0
  0
LINE
  5
19104
330
747D
100
AcDbEntity
  8
部品1
100
AcDbLine
 10
10148.55170549079
 20
4175.724067236469
 30
0.0
 11
12778.55170549079
 21
4175.724067236469
 31
0.0
  0
LINE
  5
19105
330
747D
100
AcDbEntity
  8
部品1
100
AcDbLine
 10
10148.55170549079
 20
2385.72406723647
 30
0.0
 11
12778.55170549079
 21
2385.724067236471
 31
0.0
  0
LINE
  5
19106
330
747D
100
AcDbEntity
  8
部品1
100
AcDbLine
 10
10148.55170549079
 20
2335.72406723647
 30
0.0
 11
10156.05170549079
 21
2335.72406723647
 31
0.0
  0
LINE
  5
19107
330
747D
100
AcDbEntity
  8
部品1
100
AcDbLine
 10
10203.55170549079
 20
4175.724067236469
 30
0.0
 11
10203.55170549079
 21
2385.72406723647
 31
0.0
  0
LINE
  5
19108
330
747D
100
AcDbEntity
  8
部品1
100
AcDbLine
 10
10148.55170549079
 20
4267.866505165348
 30
0.0
 11
10148.55170549079
 21
2235.724067236469
 31
0.0
  0
DIMENSION
  5
19109
330
747D
100
AcDbEntity
  8
寸法
100
AcDbDimension
  2
*D21
 10
9004.80157630753
 20
2235.724067236469
 30
0.0
 11
9004.80157630753
 21
1999.67682314198
 31
0.0
 70
   160
 71
     5
 42
99.99999999999637
  3
INABA_S40G
100
AcDbAlignedDimension
 13
10071.55170549078
 23
2335.724067236466
 33
0.0
 14
9092.050629595657
 24
2235.724067236469
 34
0.0
 50
90.0
100
AcDbRotatedDimension
1001
ACAD
1000
DSTYLE
1002
{
1070
   174
1070
     0
1070
   272
1070
     1
1070
   288
1070
     0
1070
   341
1005
0
1002
}
  0
DIMENSION
  5
1910A
330
747D
100
AcDbEntity
  8
寸法
100
AcDbDimension
  2
*D22
 10
9304.80157630753
 20
2335.724067236466
 30
0.0
 11
9304.80157630753
 21
2029.676823141977
 31
0.0
 70
   160
 71
     5
 42
50.00000000000409
  3
INABA_S40G
100
AcDbAlignedDimension
 13
10148.55170549079
 23
2385.72406723647
 33
0.0
 14
10071.55170549078
 24
2335.724067236466
 34
0.0
 50
90.0
100
AcDbRotatedDimension
1001
ACAD
1000
DSTYLE
1002
{
1070
   174
1070
     0
1070
   272
1070
     1
1070
   288
1070
     0
1070
   341
1005
0
1002
}
  0
LINE
  5
1910B
330
747D
100
AcDbEntity
  8
部品1
100
AcDbLine
 10
10623.55170549079
 20
4175.724067236469
 30
0.0
 11
10623.55170549079
 21
2385.72406723647
 31
0.0
  0
LINE
  5
1910C
330
747D
100
AcDbEntity
  8
部品1
100
AcDbLine
 10
12778.55170549079
 20
4230.258340624208
 30
0.0
 11
12778.55170549079
 21
2235.724067236471
 31
0.0
  0
LINE
  5
1910D
330
747D
100
AcDbEntity
  8
部品1
100
AcDbLine
 10
12723.55170549079
 20
4175.724067236469
 30
0.0
 11
12723.55170549079
 21
2385.724067236471
 31
0.0
  0
DIMENSION
  5
19110
330
747D
100
AcDbEntity
  8
寸法
 48
50.0
100
AcDbDimension
  2
*D23
 10
10148.55170549079
 20
4809.381520815775
 30
0.0
 11
11503.32189651998
 21
4809.381520815775
 31
0.0
 70
   160
  1
柱外寸法<>
 71
     5
 42
2630.0
  3
INABA_S40G
100
AcDbAlignedDimension
 13
12778.55170549079
 23
4357.534746848124
 33
0.0
 14
10148.55170549079
 24
4406.725685359446
 34
0.0
100
AcDbRotatedDimension
1001
ACAD
1000
DSTYLE
1002
{
1070
   174
1070
     0
1070
   272
1070
     1
1070
   288
1070
     0
1070
   341
1005
0
1002
}
  0
DIMENSION
  5
19111
330
747D
100
AcDbEntity
  8
寸法
 48
50.0
100
AcDbDimension
  2
*D24
 10
10088.55170549079
 20
4809.381520815774
 30
0.0
 11
9778.9139102152
 21
4809.381520815774
 31
0.0
 70
   160
 71
     5
 42
60.0
  3
INABA_S40G
100
AcDbAlignedDimension
 13
10148.55170549079
 23
4406.725685359446
 33
0.0
 14
10088.55170549079
 24
4410.724067236475
 34
0.0
100
AcDbRotatedDimension
1001
ACAD
1000
DSTYLE
1002
{
1070
   174
1070
     0
1070
   272
1070
     1
1070
   288
1070
     0
1070
   341
1005
0
1002
}
  0
DIMENSION
  5
19112
330
747D
100
AcDbEntity
  8
寸法
 48
50.0
100
AcDbDimension
  2
*D25
 10
10088.55170549079
 20
5029.592207547391
 30
0.0
 11
11491.91063037816
 21
5029.592207547391
 31
0.0
 70
   160
 71
     5
 42
2770.0
  3
INABA_S40G
100
AcDbAlignedDimension
 13
12858.55170549079
 23
4355.724067236471
 33
0.0
 14
10088.55170549079
 24
4410.724067236475
 34
0.0
100
AcDbRotatedDimension
1001
ACAD
1000
DSTYLE
1002
{
1070
   174
1070
     0
1070
   272
1070
     1
1070
   288
1070
     0
1070
   341
1005
0
1002
}
  0
LINE
  5
19113
330
747D
100
AcDbEntity
  8
破線
  6
HIDDEN
 48
5.0
100
AcDbLine
 10
12786.05170549079
 20
2080.724067236471
 30
0.0
 11
12716.05170549079
 21
2080.724067236471
 31
0.0
  0
LINE
  5
19114
330
747D
100
AcDbEntity
  8
破線
  6
HIDDEN
 48
5.0
100
AcDbLine
 10
12731.05170549079
 20
2230.72406723647
 30
0.0
 11
12716.05170549079
 21
2083.024067236471
 31
0.0
  0
LINE
  5
19115
330
747D
100
AcDbEntity
  8
破線
  6
HIDDEN
 48
5.0
100
AcDbLine
 10
12716.05170549079
 20
2083.024067236471
 30
0.0
 11
12716.05170549079
 21
2080.724067236471
 31
0.0
  0
LINE
  5
19116
330
747D
100
AcDbEntity
  8
破線
  6
HIDDEN
 48
5.0
100
AcDbLine
 10
12771.05170549079
 20
2230.72406723647
 30
0.0
 11
12786.05170549079
 21
2083.024067236471
 31
0.0
  0
LINE
  5
19117
330
747D
100
AcDbEntity
  8
破線
  6
HIDDEN
 48
5.0
100
AcDbLine
 10
12786.05170549079
 20
2083.024067236471
 30
0.0
 11
12786.05170549079
 21
2080.724067236471
 31
0.0
  0
LINE
  5
19118
330
747D
100
AcDbEntity
  8
破線
  6
HIDDEN
 48
5.0
100
AcDbLine
 10
10141.05170549079
 20
2080.72406723647
 30
0.0
 11
10211.05170549079
 21
2080.72406723647
 31
0.0
  0
LINE
  5
19119
330
747D
100
AcDbEntity
  8
破線
  6
HIDDEN
 48
5.0
100
AcDbLine
 10
10141.05170549079
 20
2083.024067236469
 30
0.0
 11
10141.05170549079
 21
2080.72406723647
 31
0.0
  0
LINE
  5
1911A
330
747D
100
AcDbEntity
  8
破線
  6
HIDDEN
 48
5.0
100
AcDbLine
 10
10211.05170549079
 20
2083.024067236469
 30
0.0
 11
10211.05170549079
 21
2080.72406723647
 31
0.0
  0
LINE
  5
1911B
330
747D
100
AcDbEntity
  8
破線
  6
HIDDEN
 48
5.0
100
AcDbLine
 10
10156.05170549079
 20
2230.72406723647
 30
0.0
 11
10141.05170549079
 21
2083.024067236469
 31
0.0
  0
LINE
  5
1911C
330
747D
100
AcDbEntity
  8
破線
  6
HIDDEN
 48
5.0
100
AcDbLine
 10
10196.05170549079
 20
2230.72406723647
 30
0.0
 11
10211.05170549079
 21
2083.024067236469
 31
0.0
  0
LINE
  5
1911D
330
747D
100
AcDbEntity
  8
部品1
 48
50.0
100
AcDbLine
 10
10156.05170549079
 20
2375.72406723647
 30
0.0
 11
10156.05170549079
 21
2235.724067236469
 31
0.0
  0
LINE
  5
1911E
330
747D
100
AcDbEntity
  8
部品1
 48
50.0
100
AcDbLine
 10
10196.05170549079
 20
2375.72406723647
 30
0.0
 11
10196.05170549079
 21
2235.724067236469
 31
0.0
  0
LINE
  5
1911F
330
747D
100
AcDbEntity
  8
部品1
100
AcDbLine
 10
10161.05170549079
 20
2380.72406723647
 30
0.0
 11
10191.05170549079
 21
2380.72406723647
 31
0.0
  0
ARC
  5
19120
330
747D
100
AcDbEntity
  8
部品1
 48
50.0
100
AcDbCircle
 10
10161.05170549079
 20
2375.72406723647
 30
0.0
 40
5.0
100
AcDbArc
 50
90.0
 51
180.0
  0
ARC
  5
19121
330
747D
100
AcDbEntity
  8
部品1
 48
50.0
100
AcDbCircle
 10
10191.05170549079
 20
2375.72406723647
 30
0.0
 40
5.0
100
AcDbArc
 50
0.0
 51
90.0
  0
LINE
  5
19122
330
747D
100
AcDbEntity
  8
部品1
 48
50.0
100
AcDbLine
 10
12731.05170549079
 20
2375.724067236471
 30
0.0
 11
12731.05170549079
 21
2235.724067236471
 31
0.0
  0
LINE
  5
19123
330
747D
100
AcDbEntity
  8
部品1
 48
50.0
100
AcDbLine
 10
12771.05170549079
 20
2375.724067236471
 30
0.0
 11
12771.05170549079
 21
2235.724067236471
 31
0.0
  0
LINE
  5
19124
330
747D
100
AcDbEntity
  8
部品1
100
AcDbLine
 10
12766.05170549079
 20
2380.724067236471
 30
0.0
 11
12736.05170549079
 21
2380.724067236471
 31
0.0
  0
ARC
  5
19125
330
747D
100
AcDbEntity
  8
部品1
 48
50.0
100
AcDbCircle
 10
12736.05170549079
 20
2375.724067236471
 30
0.0
 40
5.0
100
AcDbArc
 50
90.0
 51
180.0
  0
ARC
  5
19126
330
747D
100
AcDbEntity
  8
部品1
 48
50.0
100
AcDbCircle
 10
12766.05170549079
 20
2375.724067236471
 30
0.0
 40
5.0
100
AcDbArc
 50
0.0
 51
90.0
  0
LINE
  5
19127
330
747D
100
AcDbEntity
  8
破線
  6
HIDDEN
 48
5.0
100
AcDbLine
 10
12731.05170549079
 20
2235.724067236471
 30
0.0
 11
12731.05170549079
 21
2230.72406723647
 31
0.0
  0
LINE
  5
19128
330
747D
100
AcDbEntity
  8
破線
  6
HIDDEN
 48
5.0
100
AcDbLine
 10
12771.05170549079
 20
2235.724067236471
 30
0.0
 11
12771.05170549079
 21
2230.72406723647
 31
0.0
  0
LINE
  5
19129
330
747D
100
AcDbEntity
  8
破線
  6
HIDDEN
 48
5.0
100
AcDbLine
 10
10156.05170549079
 20
2235.724067236469
 30
0.0
 11
10156.05170549079
 21
2230.72406723647
 31
0.0
  0
LINE
  5
1912A
330
747D
100
AcDbEntity
  8
破線
  6
HIDDEN
 48
5.0
100
AcDbLine
 10
10196.05170549079
 20
2235.724067236469
 30
0.0
 11
10196.05170549079
 21
2230.72406723647
 31
0.0
  0
LINE
  5
1912B
330
747D
100
AcDbEntity
  8
部品1
100
AcDbLine
 10
12771.05170549079
 20
2335.724067236471
 30
0.0
 11
12778.55170549079
 21
2335.724067236471
 31
0.0
  0
LINE
  5
1912C
330
747D
100
AcDbEntity
  8
部品1
100
AcDbLine
 10
10196.05170549079
 20
2335.72406723647
 30
0.0
 11
12731.05170549079
 21
2335.72406723647
 31
0.0
  0
TEXT
  5
1912D
330
747D
100
AcDbEntity
  8
部品1
100
AcDbText
 10
11181.26247380017
 20
1507.896197272836
 30
0.0
 40
135.0
  1
側面図
  7
STYLE2
100
AcDbText
  0
LWPOLYLINE
  5
1912E
330
747D
100
AcDbEntity
  8
部品1
100
AcDbPolyline
 90
        4
 70
     1
 43
0.0
 10
11091.81637237656
 20
1700.78972649136
 10
11091.81637237656
 20
1460.897404945827
 10
11855.28703860501
 20
1460.897404945827
 10
11855.28703860501
 20
1700.78972649136
  0
LINE
  5
1912F
330
747D
100
AcDbEntity
  8
細線
 48
50.0
100
AcDbLine
 10
10701.05170549079
 20
4175.724067236469
 30
0.0
 11
10701.05170549079
 21
2385.72406723647
 31
0.0
  0
LINE
  5
19130
330
747D
100
AcDbEntity
  8
細線
 48
50.0
100
AcDbLine
 10
10686.05170549079
 20
4175.724067236469
 30
0.0
 11
10686.05170549079
 21
2385.72406723647
 31
0.0
  0
LINE
  5
19131
330
747D
100
AcDbEntity
  8
細線
 48
50.0
100
AcDbLine
 10
10826.05170549079
 20
4175.724067236469
 30
0.0
 11
10826.05170549079
 21
2385.72406723647
 31
0.0
  0
LINE
  5
19132
330
747D
100
AcDbEntity
  8
細線
 48
50.0
100
AcDbLine
 10
10841.05170549079
 20
4175.724067236469
 30
0.0
 11
10841.05170549079
 21
2385.72406723647
 31
0.0
  0
LINE
  5
19133
330
747D
100
AcDbEntity
  8
細線
 48
50.0
100
AcDbLine
 10
10981.05170549079
 20
4175.724067236469
 30
0.0
 11
10981.05170549079
 21
2385.72406723647
 31
0.0
  0
LINE
  5
19134
330
747D
100
AcDbEntity
  8
細線
 48
50.0
100
AcDbLine
 10
10966.05170549079
 20
4175.724067236469
 30
0.0
 11
10966.05170549079
 21
2385.72406723647
 31
0.0
  0
LINE
  5
19135
330
747D
100
AcDbEntity
  8
細線
 48
50.0
100
AcDbLine
 10
10546.05170549079
 20
4175.724067236469
 30
0.0
 11
10546.05170549079
 21
2385.72406723647
 31
0.0
  0
LINE
  5
19136
330
747D
100
AcDbEntity
  8
細線
 48
50.0
100
AcDbLine
 10
10561.05170549079
 20
4175.724067236469
 30
0.0
 11
10561.05170549079
 21
2385.72406723647
 31
0.0
  0
LINE
  5
19137
330
747D
100
AcDbEntity
  8
細線
 48
50.0
100
AcDbLine
 10
10421.05170549079
 20
4175.724067236469
 30
0.0
 11
10421.05170549079
 21
2385.72406723647
 31
0.0
  0
LINE
  5
19138
330
747D
100
AcDbEntity
  8
細線
 48
50.0
100
AcDbLine
 10
10406.05170549079
 20
4175.724067236469
 30
0.0
 11
10406.05170549079
 21
2385.72406723647
 31
0.0
  0
LINE
  5
19139
330
747D
100
AcDbEntity
  8
細線
 48
50.0
100
AcDbLine
 10
10266.05170549079
 20
4175.724067236469
 30
0.0
 11
10266.05170549079
 21
2385.72406723647
 31
0.0
  0
LINE
  5
1913A
330
747D
100
AcDbEntity
  8
細線
 48
50.0
100
AcDbLine
 10
10281.05170549079
 20
4175.724067236469
 30
0.0
 11
10281.05170549079
 21
2385.72406723647
 31
0.0
  0
DIMENSION
  5
1913B
330
747D
100
AcDbEntity
  8
寸法
 48
50.0
100
AcDbDimension
  2
*D26
 10
12858.55170549079
 20
4809.381520815775
 30
0.0
 11
13064.59894958528
 21
4809.381520815775
 31
0.0
 70
   160
 71
     5
 42
80.0
  3
INABA_S40G
100
AcDbAlignedDimension
 13
12778.55170549079
 23
4357.534746848124
 33
0.0
 14
12858.55170549079
 24
4355.724067236471
 34
0.0
100
AcDbRotatedDimension
1001
ACAD
1000
DSTYLE
1002
{
1070
   174
1070
     0
1070
   272
1070
     1
1070
   288
1070
     0
1070
   341
1005
0
1002
}
  0
LINE
  5
1913C
330
747D
100
AcDbEntity
  8
部品1
100
AcDbLine
 10
11043.55170549079
 20
4175.724067236469
 30
0.0
 11
11043.55170549079
 21
2385.72406723647
 31
0.0
  0
LINE
  5
1913D
330
747D
100
AcDbEntity
  8
細線
 48
50.0
100
AcDbLine
 10
11386.05170549079
 20
4175.724067236469
 30
0.0
 11
11386.05170549079
 21
2385.72406723647
 31
0.0
  0
LINE
  5
1913E
330
747D
100
AcDbEntity
  8
細線
 48
50.0
100
AcDbLine
 10
11401.05170549079
 20
4175.724067236469
 30
0.0
 11
11401.05170549079
 21
2385.72406723647
 31
0.0
  0
LINE
  5
1913F
330
747D
100
AcDbEntity
  8
細線
 48
50.0
100
AcDbLine
 10
11261.05170549079
 20
4175.724067236469
 30
0.0
 11
11261.05170549079
 21
2385.72406723647
 31
0.0
  0
LINE
  5
19140
330
747D
100
AcDbEntity
  8
細線
 48
50.0
100
AcDbLine
 10
11246.05170549079
 20
4175.724067236469
 30
0.0
 11
11246.05170549079
 21
2385.72406723647
 31
0.0
  0
LINE
  5
19141
330
747D
100
AcDbEntity
  8
細線
 48
50.0
100
AcDbLine
 10
11106.05170549079
 20
4175.724067236469
 30
0.0
 11
11106.05170549079
 21
2385.72406723647
 31
0.0
  0
LINE
  5
19142
330
747D
100
AcDbEntity
  8
細線
 48
50.0
100
AcDbLine
 10
11121.05170549079
 20
4175.724067236469
 30
0.0
 11
11121.05170549079
 21
2385.72406723647
 31
0.0
  0
LINE
  5
19143
330
747D
100
AcDbEntity
  8
部品1
100
AcDbLine
 10
11463.55170549079
 20
4175.724067236469
 30
0.0
 11
11463.55170549079
 21
2385.72406723647
 31
0.0
  0
LINE
  5
19144
330
747D
100
AcDbEntity
  8
細線
 48
50.0
100
AcDbLine
 10
12381.05170549079
 20
4175.724067236469
 30
0.0
 11
12381.05170549079
 21
2385.724067236471
 31
0.0
  0
LINE
  5
19145
330
747D
100
AcDbEntity
  8
細線
 48
50.0
100
AcDbLine
 10
12366.0517054908
 20
4175.724067236469
 30
0.0
 11
12366.05170549079
 21
2385.724067236471
 31
0.0
  0
LINE
  5
19146
330
747D
100
AcDbEntity
  8
細線
 48
50.0
100
AcDbLine
 10
12506.0517054908
 20
4175.724067236469
 30
0.0
 11
12506.05170549079
 21
2385.724067236471
 31
0.0
  0
LINE
  5
19147
330
747D
100
AcDbEntity
  8
細線
 48
50.0
100
AcDbLine
 10
12521.05170549079
 20
4175.724067236469
 30
0.0
 11
12521.05170549079
 21
2385.724067236471
 31
0.0
  0
LINE
  5
19148
330
747D
100
AcDbEntity
  8
細線
 48
50.0
100
AcDbLine
 10
12661.0517054908
 20
4175.724067236469
 30
0.0
 11
12661.05170549079
 21
2385.724067236471
 31
0.0
  0
LINE
  5
19149
330
747D
100
AcDbEntity
  8
細線
 48
50.0
100
AcDbLine
 10
12646.05170549079
 20
4175.724067236469
 30
0.0
 11
12646.05170549079
 21
2385.724067236471
 31
0.0
  0
DIMENSION
  5
1914A
330
747D
100
AcDbEntity
  8
寸法
 48
50.0
100
AcDbDimension
  2
*D27
 10
9527.943298722419
 20
4285.069326109801
 30
0.0
 11
9538.608773981342
 21
4655.9159893515
 31
0.0
 70
   161
 71
     5
 42
141.0
  3
INABA_S40G
100
AcDbAlignedDimension
 13
10107.94772564937
 23
4409.446816071149
 33
0.0
 14
10103.89427009274
 24
4268.505092305437
 34
0.0
1001
ACAD
1000
DSTYLE
1002
{
1070
   174
1070
     0
1070
   272
1070
     1
1070
   288
1070
     0
1070
   341
1005
0
1002
}
  0
DIMENSION
  5
1914B
330
747D
100
AcDbEntity
  8
寸法
 48
50.0
100
AcDbDimension
  2
*D28
 10
9926.551702244154
 20
2235.724067236469
 30
0.0
 11
9926.551702244154
 21
2135.724067236471
 31
0.0
 70
   160
 71
     5
 42
200.0000000000018
  3
INABA_S40G
100
AcDbAlignedDimension
 13
10076.05170549079
 23
2035.724067236468
 33
0.0
 14
10051.05170549079
 24
2235.724067236469
 34
0.0
 50
90.0
100
AcDbRotatedDimension
1001
ACAD
1000
DSTYLE
1002
{
1070
   174
1070
     0
1070
   272
1070
     1
1070
   288
1070
     0
1070
   341
1005
0
1002
}
  0
LINE
  5
1914C
330
747D
100
AcDbEntity
  8
破線
 48
5.0
100
AcDbLine
 10
10276.05170549079
 20
2035.724067236468
 30
0.0
 11
10076.05170549079
 21
2035.724067236468
 31
0.0
  0
LINE
  5
1914D
330
747D
100
AcDbEntity
  8
破線
 48
5.0
100
AcDbLine
 10
10276.05170549079
 20
2235.724067236469
 30
0.0
 11
10276.05170549079
 21
2035.724067236468
 31
0.0
  0
LINE
  5
1914E
330
747D
100
AcDbEntity
  8
破線
 48
5.0
100
AcDbLine
 10
10076.05170549079
 20
2235.724067236469
 30
0.0
 11
10076.05170549079
 21
2035.724067236468
 31
0.0
  0
DIMENSION
  5
1914F
330
747D
100
AcDbEntity
  8
寸法
 48
50.0
100
AcDbDimension
  2
*D29
 10
10076.05170549079
 20
1749.676737936091
 30
0.0
 11
10176.05170549079
 21
1749.676737936091
 31
0.0
 70
   160
 71
     5
 42
199.9999999999963
  3
INABA_S40G
100
AcDbAlignedDimension
 13
10276.05170549079
 23
2035.724067236468
 33
0.0
 14
10076.05170549079
 24
2035.724067236468
 34
0.0
100
AcDbRotatedDimension
  0
LINE
  5
19150
330
747D
100
AcDbEntity
  8
破線
 48
5.0
100
AcDbLine
 10
12851.05170549079
 20
2235.724067236471
 30
0.0
 11
12851.05170549079
 21
2035.724067236469
 31
0.0
  0
LINE
  5
19151
330
747D
100
AcDbEntity
  8
破線
 48
5.0
100
AcDbLine
 10
12851.05170549079
 20
2035.724067236469
 30
0.0
 11
12651.05170549079
 21
2035.72406723647
 31
0.0
  0
LINE
  5
19152
330
747D
100
AcDbEntity
  8
破線
 48
5.0
100
AcDbLine
 10
12651.05170549079
 20
2235.724067236471
 30
0.0
 11
12651.05170549079
 21
2035.72406723647
 31
0.0
  0
LINE
  5
19637
330
747D
100
AcDbEntity
  8
部品1
100
AcDbLine
 10
10148.55170549078
 20
2335.72406723647
 30
0.0
 11
10071.55170549078
 21
2335.72406723647
 31
0.0
  0
LINE
  5
19638
330
747D
100
AcDbEntity
  8
部品1
100
AcDbLine
 10
10071.55170549079
 20
4161.41117214487
 30
0.0
 11
10071.55170549078
 21
2235.724067236469
 31
0.0
  0
DIMENSION
  5
19639
330
747D
100
AcDbEntity
  8
寸法
 48
50.0
100
AcDbDimension
  2
*D30
 10
9603.643064093532
 20
2401.72406723647
 30
0.0
 11
9511.631253069911
 21
3264.224067236471
 31
0.0
 70
    32
  1
有効開口部高サ<>
 71
     5
 42
1724.999999999999
  3
INABA_S40
100
AcDbAlignedDimension
 13
10071.55170549079
 23
4126.72406723647
 33
0.0
 14
10071.55170549078
 24
2401.72406723647
 34
0.0
 50
90.0
100
AcDbRotatedDimension
1001
ACAD
1000
DSTYLE
1002
{
1070
    41
1040
0.5
1070
    44
1040
1.0
1070
   147
1040
0.8
1070
   271
1070
     2
1070
   272
1070
     2
1070
   289
1070
     3
1070
   340
1005
F706
1070
   343
1005
164B4
1070
   344
1005
164B4
1002
}
  0
LINE
  5
1963A
330
747D
100
AcDbEntity
  8
部品1
100
AcDbLine
 10
10071.55170549079
 20
4161.41117214487
 30
0.0
 11
10148.55170549078
 21
4175.724067236469
 31
0.0
  0
LINE
  5
19976
330
747D
100
AcDbEntity
  8
補助
  6
PHANTOM
 62
   230
 48
50.0
100
AcDbLine
 10
140.0
 20
0.0
 30
0.0
 11
140.0
 21
11409.6
 31
0.0
  0
LINE
  5
19A5F
330
747D
100
AcDbEntity
  8
寸法
 48
50.0
100
AcDbLine
 10
4895.892429901294
 20
7207.724406569525
 30
0.0
 11
4844.486421991192
 21
7207.724406569525
 31
0.0
  0
LINE
  5
19A60
330
747D
100
AcDbEntity
  8
寸法
 48
50.0
100
AcDbLine
 10
4844.486421991192
 20
7207.724406569525
 30
0.0
 11
4844.486421991192
 21
7239.03456522169
 31
0.0
  0
LINE
  5
19A61
330
747D
100
AcDbEntity
  8
寸法
 48
50.0
100
AcDbLine
 10
4844.486421991192
 20
7239.03456522169
 30
0.0
 11
4814.725089999768
 21
7239.03456522169
 31
0.0
  0
LINE
  5
19A62
330
747D
100
AcDbEntity
  8
寸法
 48
50.0
100
AcDbLine
 10
4814.725089999768
 20
7239.03456522169
 30
0.0
 11
4870.189425946243
 21
7276.614016150301
 31
0.0
  0
LINE
  5
19A63
330
747D
100
AcDbEntity
  8
寸法
 48
50.0
100
AcDbLine
 10
4925.653761892719
 20
7239.03456522169
 30
0.0
 11
4870.189425946243
 21
7276.614016150301
 31
0.0
  0
LINE
  5
19A64
330
747D
100
AcDbEntity
  8
寸法
 48
50.0
100
AcDbLine
 10
4895.892429901294
 20
7239.03456522169
 30
0.0
 11
4925.653761892719
 21
7239.03456522169
 31
0.0
  0
LINE
  5
19A65
330
747D
100
AcDbEntity
  8
寸法
 48
50.0
100
AcDbLine
 10
4895.892429901294
 20
7207.724406569525
 30
0.0
 11
4895.892429901294
 21
7239.03456522169
 31
0.0
  0
LINE
  5
19A66
330
747D
100
AcDbEntity
  8
寸法
 48
50.0
100
AcDbLine
 10
4844.486421991192
 20
7207.724406569525
 30
0.0
 11
4895.892429901294
 21
7207.724406569525
 31
0.0
  0
LINE
  5
19A67
330
747D
100
AcDbEntity
  8
寸法
 48
50.0
100
AcDbLine
 10
5175.057964178153
 20
7264.869997324348
 30
0.0
 11
5175.057964178153
 21
7211.206362742558
 31
0.0
  0
LINE
  5
19A68
330
747D
100
AcDbEntity
  8
寸法
 48
50.0
100
AcDbLine
 10
5264.342182773574
 20
7240.946363054861
 30
0.0
 11
5175.057964178153
 21
7264.869997324348
 31
0.0
  0
LINE
  5
19A69
330
747D
100
AcDbEntity
  8
寸法
 48
50.0
100
AcDbLine
 10
5045.190242597849
 20
7240.946363054861
 30
0.0
 11
5264.342182773574
 21
7240.946363054861
 31
0.0
  0
LINE
  5
19A6A
330
747D
100
AcDbEntity
  8
細線
 48
50.0
100
AcDbLine
 10
5921.689423619454
 20
7406.187769949387
 30
0.0
 11
6548.68942361945
 21
7406.187769949387
 31
0.0
  0
LINE
  5
19A6B
330
747D
100
AcDbEntity
  8
細線
 48
50.0
100
AcDbLine
 10
5267.68942827304
 20
7372.479001395311
 30
0.0
 11
6548.68942361945
 21
7372.479001395311
 31
0.0
  0
LINE
  5
19A6C
330
747D
100
AcDbEntity
  8
細線
 48
50.0
100
AcDbLine
 10
5226.689428273044
 20
7401.883909391564
 30
0.0
 11
4472.68942361945
 21
7401.883909391561
 31
0.0
  0
LINE
  5
19A6D
330
747D
100
AcDbEntity
  8
細線
100
AcDbLine
 10
6324.439414202994
 20
7425.687669914395
 30
0.0
 11
6326.770953724803
 21
7430.687672554357
 31
0.0
  0
LINE
  5
19A6E
330
747D
100
AcDbEntity
  8
細線
100
AcDbLine
 10
6394.439423619451
 20
7425.687655000662
 30
0.0
 11
6392.107877143264
 21
7430.687672554343
 31
0.0
  0
LINE
  5
19A6F
330
747D
100
AcDbEntity
  8
細線
100
AcDbLine
 10
6392.107877143264
 20
7430.687672554343
 30
0.0
 11
6326.770953724788
 21
7430.687672554327
 31
0.0
  0
LINE
  5
19A70
330
747D
100
AcDbEntity
  8
細線
100
AcDbLine
 10
6252.107877143264
 20
7430.687672554343
 30
0.0
 11
6186.770953724789
 21
7430.687672554327
 31
0.0
  0
LINE
  5
19A71
330
747D
100
AcDbEntity
  8
細線
100
AcDbLine
 10
6254.439423619452
 20
7425.687655000662
 30
0.0
 11
6252.107877143264
 21
7430.687672554343
 31
0.0
  0
LINE
  5
19A72
330
747D
100
AcDbEntity
  8
細線
100
AcDbLine
 10
6184.439414202994
 20
7425.687669914395
 30
0.0
 11
6186.770953724803
 21
7430.687672554357
 31
0.0
  0
LINE
  5
19A73
330
747D
100
AcDbEntity
  8
細線
100
AcDbLine
 10
6044.439423619451
 20
7425.687655000662
 30
0.0
 11
6046.770963141264
 21
7430.687657640622
 31
0.0
  0
LINE
  5
19A74
330
747D
100
AcDbEntity
  8
細線
100
AcDbLine
 10
6114.439433035911
 20
7425.687640086927
 30
0.0
 11
6112.107886559721
 21
7430.687657640608
 31
0.0
  0
LINE
  5
19A75
330
747D
100
AcDbEntity
  8
細線
100
AcDbLine
 10
6112.107886559725
 20
7430.687657640608
 30
0.0
 11
6046.770963141248
 21
7430.687657640594
 31
0.0
  0
LINE
  5
19A76
330
747D
100
AcDbEntity
  8
細線
100
AcDbLine
 10
5816.857907808557
 20
7396.68769433799
 30
0.0
 11
5751.520984390082
 21
7396.687694337976
 31
0.0
  0
LINE
  5
19A77
330
747D
100
AcDbEntity
  8
細線
100
AcDbLine
 10
5819.189454284745
 20
7391.687676784309
 30
0.0
 11
5816.857907808557
 21
7396.68769433799
 31
0.0
  0
LINE
  5
19A78
330
747D
100
AcDbEntity
  8
細線
100
AcDbLine
 10
5749.189444868288
 20
7391.687691698044
 30
0.0
 11
5751.520984390097
 21
7396.687694338004
 31
0.0
  0
LINE
  5
19A79
330
747D
100
AcDbEntity
  8
細線
 48
50.0
100
AcDbLine
 10
5590.572802867465
 20
7409.958518153742
 30
0.0
 11
5596.328320450132
 21
7391.687666863255
 31
0.0
  0
LINE
  5
19A7A
330
747D
100
AcDbEntity
  8
細線
 48
50.0
100
AcDbLine
 10
5579.644354387035
 20
7409.958518153742
 30
0.0
 11
5590.572802867465
 21
7409.958518153742
 31
0.0
  0
ARC
  5
19A7B
330
747D
100
AcDbEntity
  8
細線
 48
50.0
100
AcDbCircle
 10
5574.189998329712
 20
7411.458518153742
 30
0.0
 40
5.0
100
AcDbArc
 50
204.6243183521264
 51
335.3756816478736
  0
ARC
  5
19A7C
330
747D
100
AcDbEntity
  8
細線
 48
50.0
100
AcDbCircle
 10
5579.644354387035
 20
7408.958518153743
 30
0.0
 40
1.0
100
AcDbArc
 50
90.0
 51
155.3756816478736
  0
ARC
  5
19A7D
330
747D
100
AcDbEntity
  8
細線
 48
50.0
100
AcDbCircle
 10
5568.735642272398
 20
7408.958518153743
 30
0.0
 40
1.0
100
AcDbArc
 50
24.62431835212641
 51
90.0
  0
LINE
  5
19A7E
330
747D
100
AcDbEntity
  8
細線
 48
50.0
100
AcDbLine
 10
5557.807193791964
 20
7409.958518153742
 30
0.0
 11
5568.735642272398
 21
7409.958518153742
 31
0.0
  0
LINE
  5
19A7F
330
747D
100
AcDbEntity
  8
細線
 48
50.0
100
AcDbLine
 10
5552.051676209297
 20
7391.687666863248
 30
0.0
 11
5557.807193791964
 21
7409.958518153742
 31
0.0
  0
LINE
  5
19A80
330
747D
100
AcDbEntity
  8
細線
100
AcDbLine
 10
5609.189446099328
 20
7391.687664229053
 30
0.0
 11
5611.520985621141
 21
7396.687666869013
 31
0.0
  0
LINE
  5
19A81
330
747D
100
AcDbEntity
  8
細線
100
AcDbLine
 10
5679.189455515789
 20
7391.687649315318
 30
0.0
 11
5676.857909039599
 21
7396.687666868999
 31
0.0
  0
LINE
  5
19A82
330
747D
100
AcDbEntity
  8
細線
100
AcDbLine
 10
5676.857909039599
 20
7396.687666868999
 30
0.0
 11
5611.520985621126
 21
7396.687666868984
 31
0.0
  0
LINE
  5
19A83
330
747D
100
AcDbEntity
  8
細線
100
AcDbLine
 10
5536.857880675082
 20
7396.687666863219
 30
0.0
 11
5471.520957256607
 21
7396.687666863205
 31
0.0
  0
LINE
  5
19A84
330
747D
100
AcDbEntity
  8
細線
100
AcDbLine
 10
5539.189427151269
 20
7391.687649309538
 30
0.0
 11
5536.857880675082
 21
7396.687666863219
 31
0.0
  0
LINE
  5
19A85
330
747D
100
AcDbEntity
  8
細線
100
AcDbLine
 10
5469.189418965854
 20
7391.687666863248
 30
0.0
 11
5471.520957256621
 21
7396.687666863233
 31
0.0
  0
LINE
  5
19A86
330
747D
100
AcDbEntity
  8
細線
100
AcDbLine
 10
5329.189454284745
 20
7391.687675050618
 30
0.0
 11
5331.520992575512
 21
7396.687675050603
 31
0.0
  0
LINE
  5
19A87
330
747D
100
AcDbEntity
  8
細線
100
AcDbLine
 10
5399.189462470161
 20
7391.687657496908
 30
0.0
 11
5396.857915993973
 21
7396.687675050586
 31
0.0
  0
LINE
  5
19A88
330
747D
100
AcDbEntity
  8
細線
100
AcDbLine
 10
5396.857915993973
 20
7396.687675050586
 30
0.0
 11
5331.520992575498
 21
7396.687675050575
 31
0.0
  0
LINE
  5
19A89
330
747D
100
AcDbEntity
  8
細線
100
AcDbLine
 10
4957.689420087624
 20
7357.68784673133
 30
0.0
 11
4960.020958378391
 21
7362.687846731316
 31
0.0
  0
LINE
  5
19A8A
330
747D
100
AcDbEntity
  8
細線
100
AcDbLine
 10
5027.68942827304
 20
7357.687829177618
 30
0.0
 11
5025.357881796853
 21
7362.687846731295
 31
0.0
  0
LINE
  5
19A8B
330
747D
100
AcDbEntity
  8
細線
100
AcDbLine
 10
5025.357881796853
 20
7362.687846731295
 30
0.0
 11
4960.020958378381
 21
7362.687846731287
 31
0.0
  0
LINE
  5
19A8C
330
747D
100
AcDbEntity
  8
細線
100
AcDbLine
 10
5165.357881796853
 20
7362.687846731295
 30
0.0
 11
5100.02095837838
 21
7362.687846731287
 31
0.0
  0
LINE
  5
19A8D
330
747D
100
AcDbEntity
  8
細線
100
AcDbLine
 10
5167.68942827304
 20
7357.687829177618
 30
0.0
 11
5165.357881796853
 21
7362.687846731295
 31
0.0
  0
LINE
  5
19A8E
330
747D
100
AcDbEntity
  8
細線
100
AcDbLine
 10
5097.689420087625
 20
7357.68784673133
 30
0.0
 11
5100.020958378392
 21
7362.687846731316
 31
0.0
  0
LINE
  5
19A8F
330
747D
100
AcDbEntity
  8
細線
100
AcDbLine
 10
4885.357881796853
 20
7362.687846731295
 30
0.0
 11
4820.020958378381
 21
7362.687846731283
 31
0.0
  0
LINE
  5
19A90
330
747D
100
AcDbEntity
  8
細線
100
AcDbLine
 10
4887.68942827304
 20
7357.687829177618
 30
0.0
 11
4885.357881796853
 21
7362.687846731295
 31
0.0
  0
LINE
  5
19A91
330
747D
100
AcDbEntity
  8
細線
100
AcDbLine
 10
4817.689420087624
 20
7357.687846731328
 30
0.0
 11
4820.020958378392
 21
7362.687846731313
 31
0.0
  0
LINE
  5
19A92
330
747D
100
AcDbEntity
  8
細線
100
AcDbLine
 10
4677.68942827304
 20
7357.68784673133
 30
0.0
 11
4680.020966563808
 21
7362.687846731316
 31
0.0
  0
LINE
  5
19A93
330
747D
100
AcDbEntity
  8
細線
100
AcDbLine
 10
4747.689436458456
 20
7357.687829177618
 30
0.0
 11
4745.357889982268
 21
7362.687846731295
 31
0.0
  0
LINE
  5
19A94
330
747D
100
AcDbEntity
  8
細線
100
AcDbLine
 10
4745.357889982268
 20
7362.687846731295
 30
0.0
 11
4680.020966563796
 21
7362.687846731287
 31
0.0
  0
ARC
  5
19A95
330
747D
100
AcDbEntity
  8
部品1
 48
0.01
100
AcDbCircle
 10
4633.189317020705
 20
7356.686724546259
 30
0.0
 40
0.5
100
AcDbArc
 50
270.0
 51
0.0
  0
LINE
  5
19A96
330
747D
100
AcDbEntity
  8
部品1
 48
0.01
100
AcDbLine
 10
4633.689317020705
 20
7357.686724546258
 30
0.0
 11
4633.689317020705
 21
7356.686724546259
 31
0.0
  0
LINE
  5
19A97
330
747D
100
AcDbEntity
  8
部品1
 48
0.01
100
AcDbLine
 10
4633.689317020705
 20
7357.686724546258
 30
0.0
 11
4633.689317020705
 21
7356.686724546259
 31
0.0
  0
LINE
  5
19A98
330
747D
100
AcDbEntity
  8
部品1
 48
0.01
100
AcDbLine
 10
4633.189317020705
 20
7356.186724546258
 30
0.0
 11
4626.57681159064
 21
7356.186724546258
 31
0.0
  0
ARC
  5
19A99
330
747D
100
AcDbEntity
  8
部品1
100
AcDbCircle
 10
4626.645161143421
 20
7357.186724546258
 30
0.0
 40
1.0
100
AcDbArc
 50
160.5287793655822
 51
270.0
  0
ARC
  5
19A9A
330
747D
100
AcDbEntity
  8
部品1
100
AcDbCircle
 10
4601.189317020705
 20
7366.186724546259
 30
0.0
 40
26.0
100
AcDbArc
 50
340.5287793655822
 51
0.0
  0
LINE
  5
19A9B
330
747D
100
AcDbEntity
  8
部品1
100
AcDbLine
 10
4627.189317020705
 20
7366.186724546259
 30
0.0
 11
4627.189317020705
 21
7371.186724546259
 31
0.0
  0
ARC
  5
19A9C
330
747D
100
AcDbEntity
  8
部品1
 48
0.01
100
AcDbCircle
 10
4625.189317020704
 20
7371.186724546259
 30
0.0
 40
2.0
100
AcDbArc
 50
0.0
 51
90.0
  0
ARC
  5
19A9D
330
747D
100
AcDbEntity
  8
部品1
100
AcDbCircle
 10
4623.580925395895
 20
7370.186724546258
 30
0.0
 40
3.0
100
AcDbArc
 50
90.0
 51
141.6069559807873
  0
LINE
  5
19A9E
330
747D
100
AcDbEntity
  8
部品1
 48
0.01
100
AcDbLine
 10
4625.189317020704
 20
7373.186724546258
 30
0.0
 11
4623.580925395895
 21
7373.186724546258
 31
0.0
  0
ARC
  5
19A9F
330
747D
100
AcDbEntity
  8
部品1
100
AcDbCircle
 10
4605.118602806434
 20
7369.486724546262
 30
0.0
 40
3.0
100
AcDbArc
 50
254.0576313943183
 51
270.0
  0
ARC
  5
19AA0
330
747D
100
AcDbEntity
  8
部品1
100
AcDbCircle
 10
4612.260031234976
 20
7369.486724546262
 30
0.0
 40
3.0
100
AcDbArc
 50
270.0
 51
285.9423686056817
  0
LINE
  5
19AA1
330
747D
100
AcDbEntity
  8
部品1
100
AcDbLine
 10
4612.260031234976
 20
7366.486724546262
 30
0.0
 11
4605.118602806434
 21
7366.486724546262
 31
0.0
  0
ARC
  5
19AA2
330
747D
100
AcDbEntity
  8
部品1
100
AcDbCircle
 10
4608.689317020704
 20
7381.986724546262
 30
0.0
 40
16.0
100
AcDbArc
 50
285.9423686056817
 51
321.6069559807873
  0
LINE
  5
19AA3
330
747D
100
AcDbEntity
  8
部品1
 48
0.01
100
AcDbLine
 10
4592.189317020705
 20
7373.186724546258
 30
0.0
 11
4593.797708645515
 21
7373.186724546258
 31
0.0
  0
ARC
  5
19AA4
330
747D
100
AcDbEntity
  8
部品1
100
AcDbCircle
 10
4593.797708645515
 20
7370.186724546258
 30
0.0
 40
3.0
100
AcDbArc
 50
38.39304401921267
 51
90.0
  0
ARC
  5
19AA5
330
747D
100
AcDbEntity
  8
部品1
100
AcDbCircle
 10
4608.689317020704
 20
7381.986724546262
 30
0.0
 40
16.0
100
AcDbArc
 50
218.3930440192126
 51
254.0576313943183
  0
LINE
  5
19AA6
330
747D
100
AcDbEntity
  8
部品1
100
AcDbLine
 10
4590.189317020705
 20
7366.186724546259
 30
0.0
 11
4590.189317020705
 21
7371.186724546259
 31
0.0
  0
ARC
  5
19AA7
330
747D
100
AcDbEntity
  8
部品1
 48
0.01
100
AcDbCircle
 10
4592.189317020705
 20
7371.186724546259
 30
0.0
 40
2.0
100
AcDbArc
 50
90.0
 51
180.0
  0
ARC
  5
19AA8
330
747D
100
AcDbEntity
  8
部品1
100
AcDbCircle
 10
4616.189317020705
 20
7366.186724546259
 30
0.0
 40
26.0
100
AcDbArc
 50
180.0
 51
199.4712206344178
  0
ARC
  5
19AA9
330
747D
100
AcDbEntity
  8
部品1
 48
0.01
100
AcDbCircle
 10
4584.189317020705
 20
7356.686724546259
 30
0.0
 40
0.5
100
AcDbArc
 50
180.0
 51
270.0
  0
LINE
  5
19AAA
330
747D
100
AcDbEntity
  8
部品1
 48
0.01
100
AcDbLine
 10
4584.189317020705
 20
7356.186724546258
 30
0.0
 11
4590.733472897988
 21
7356.186724546258
 31
0.0
  0
LINE
  5
19AAB
330
747D
100
AcDbEntity
  8
部品1
 48
0.01
100
AcDbLine
 10
4583.689317020705
 20
7357.686724546258
 30
0.0
 11
4583.689317020705
 21
7356.686724546259
 31
0.0
  0
ARC
  5
19AAC
330
747D
100
AcDbEntity
  8
部品1
100
AcDbCircle
 10
4590.733472897988
 20
7357.186724546258
 30
0.0
 40
1.0
100
AcDbArc
 50
270.0
 51
19.4712206344178
  0
LINE
  5
19AAD
330
747D
100
AcDbEntity
  8
細線
100
AcDbLine
 10
4629.189317020713
 20
7375.686724546262
 30
0.0
 11
4588.189317020712
 21
7375.686724546254
 31
0.0
  0
LINE
  5
19AAE
330
747D
100
AcDbEntity
  8
細線
100
AcDbLine
 10
4588.189317020712
 20
7375.686724546254
 30
0.0
 11
4588.189317020712
 21
7357.686724546237
 31
0.0
  0
LINE
  5
19AAF
330
747D
100
AcDbEntity
  8
細線
100
AcDbLine
 10
4629.189317020713
 20
7375.686724546262
 30
0.0
 11
4629.189317020713
 21
7357.686724546237
 31
0.0
  0
LINE
  5
19AB0
330
747D
100
AcDbEntity
  8
細線
100
AcDbLine
 10
4472.68942361945
 20
7361.687655000662
 30
0.0
 11
4472.68942361945
 21
7357.687655000709
 31
0.0
  0
DIMENSION
  5
19AB1
330
747D
100
AcDbEntity
  8
寸法
 48
50.0
100
AcDbDimension
  2
*D31
 10
5738.689423619451
 20
6712.784893540804
 30
0.0
 11
5128.529974595396
 21
6712.784893540804
 31
0.0
 70
   160
  1
有効開口部間口\P<>
 71
     5
 42
1266.0
  3
INABA_S40
100
AcDbAlignedDimension
 13
4472.68942361945
 23
7352.687655000662
 33
0.0
 14
5738.689423619451
 24
7352.687655000662
 34
0.0
100
AcDbRotatedDimension
1001
ACAD
1000
DSTYLE
1002
{
1070
    41
1040
0.5
1070
    44
1040
1.0
1070
   147
1040
0.8
1070
   271
1070
     2
1070
   272
1070
     2
1070
   289
1070
     3
1070
   340
1005
F706
1070
   343
1005
164B4
1070
   344
1005
164B4
1002
}
  0
LINE
  5
19AB2
330
747D
100
AcDbEntity
  8
部品1
100
AcDbLine
 10
6560.68942361945
 20
7429.687655000662
 30
0.0
 11
6587.68942361945
 21
7429.687655000662
 31
0.0
  0
LINE
  5
19AB4
330
747D
100
AcDbEntity
  8
部品1
100
AcDbLine
 10
6587.68942361945
 20
7352.687655000662
 30
0.0
 11
6587.68942361945
 21
7429.687655000662
 31
0.0
  0
LINE
  5
19AB5
330
747D
100
AcDbEntity
  8
部品1
100
AcDbLine
 10
6548.68942361945
 20
7425.687655000662
 30
0.0
 11
6560.68942361945
 21
7425.687655000662
 31
0.0
  0
LINE
  5
19AB6
330
747D
100
AcDbEntity
  8
部品1
100
AcDbLine
 10
6557.68942361945
 20
7361.687655000662
 30
0.0
 11
6557.68942361945
 21
7352.687655000662
 31
0.0
  0
LINE
  5
19AB7
330
747D
100
AcDbEntity
  8
部品1
100
AcDbLine
 10
6548.68942361945
 20
7361.687655000662
 30
0.0
 11
6557.68942361945
 21
7361.687655000662
 31
0.0
  0
LINE
  5
19AB8
330
747D
100
AcDbEntity
  8
部品1
100
AcDbLine
 10
6548.68942361945
 20
7425.687655000662
 30
0.0
 11
6548.68942361945
 21
7361.687655000662
 31
0.0
  0
LINE
  5
19AB9
330
747D
100
AcDbEntity
  8
部品1
100
AcDbLine
 10
6560.68942361945
 20
7456.687655000663
 30
0.0
 11
6560.68942361945
 21
7425.687655000662
 31
0.0
  0
LINE
  5
19ABA
330
747D
100
AcDbEntity
  8
部品1
100
AcDbLine
 10
4472.68942361945
 20
7425.687655000662
 30
0.0
 11
4460.68942361945
 21
7425.687655000662
 31
0.0
  0
LINE
  5
19ABB
330
747D
100
AcDbEntity
  8
部品1
100
AcDbLine
 10
4433.68942361945
 20
7429.687655000662
 30
0.0
 11
4460.689423619449
 21
7429.687655000662
 31
0.0
  0
LINE
  5
19ABC
330
747D
100
AcDbEntity
  8
部品1
100
AcDbLine
 10
4463.68942361945
 20
7361.687655000662
 30
0.0
 11
4463.68942361945
 21
7352.687655000662
 31
0.0
  0
LINE
  5
19ABD
330
747D
100
AcDbEntity
  8
部品1
100
AcDbLine
 10
4472.68942361945
 20
7361.687655000662
 30
0.0
 11
4463.68942361945
 21
7361.687655000662
 31
0.0
  0
LINE
  5
19ABE
330
747D
100
AcDbEntity
  8
部品1
100
AcDbLine
 10
4463.68942361945
 20
7352.687655000662
 30
0.0
 11
4433.68942361945
 21
7352.687655000662
 31
0.0
  0
LINE
  5
19ABF
330
747D
100
AcDbEntity
  8
部品1
100
AcDbLine
 10
4433.68942361945
 20
7352.687655000662
 30
0.0
 11
4433.68942361945
 21
7429.687655000662
 31
0.0
  0
LINE
  5
19AC0
330
747D
100
AcDbEntity
  8
部品1
100
AcDbLine
 10
4472.68942361945
 20
7425.687655000662
 30
0.0
 11
4472.68942361945
 21
7361.687655000662
 31
0.0
  0
LINE
  5
19AC1
330
747D
100
AcDbEntity
  8
部品1
100
AcDbLine
 10
4460.689423619449
 20
7456.687655000658
 30
0.0
 11
4460.68942361945
 21
7425.687655000662
 31
0.0
  0
LINE
  5
19AC2
330
747D
100
AcDbEntity
  8
部品1
100
AcDbLine
 10
4460.689423619449
 20
7456.687655000658
 30
0.0
 11
6560.68942361945
 21
7456.687655000663
 31
0.0
  0
LINE
  5
19AC3
330
747D
100
AcDbEntity
  8
部品1
100
AcDbLine
 10
6557.68942361945
 20
7352.687655000662
 30
0.0
 11
6587.68942361945
 21
7352.687655000662
 31
0.0
  0
LINE
  5
19AC4
330
747D
100
AcDbEntity
  8
部品1
100
AcDbLine
 10
4463.68942361945
 20
7352.687655000662
 30
0.0
 11
6560.68942361945
 21
7352.687655000662
 31
0.0
  0
LINE
  5
19AC5
330
747D
100
AcDbEntity
  8
細線
  6
Continuous
 62
     5
100
AcDbLine
 10
5839.689423619454
 20
7391.687655000658
 30
0.0
 11
5839.689423619454
 21
7391.687655000658
 31
0.0
  0
LINE
  5
19AC6
330
747D
100
AcDbEntity
  8
細線
  6
Continuous
 62
     5
100
AcDbLine
 10
5832.189458938345
 20
7391.687664921716
 30
0.0
 11
5832.189458938345
 21
7391.687664921716
 31
0.0
  0
LINE
  5
19AC7
330
747D
100
AcDbEntity
  8
細線
  6
Continuous
 62
     5
100
AcDbLine
 10
5826.189458938346
 20
7391.687664921716
 30
0.0
 11
5826.189458938346
 21
7391.687664921716
 31
0.0
  0
LINE
  5
19AC8
330
747D
100
AcDbEntity
  8
細線
  6
Continuous
 62
     5
100
AcDbLine
 10
5893.689423619454
 20
7410.687655000659
 30
0.0
 11
5893.689423619454
 21
7410.687655000659
 31
0.0
  0
LINE
  5
19AC9
330
747D
100
AcDbEntity
  8
細線
 48
50.0
100
AcDbLine
 10
4486.689428273043
 20
7378.287829177615
 30
0.0
 11
4486.689428273043
 21
7386.683979585256
 31
0.0
  0
LINE
  5
19ACA
330
747D
100
AcDbEntity
  8
細線
 48
50.0
100
AcDbLine
 10
4486.689428273043
 20
7386.683979585256
 30
0.0
 11
4472.68942361945
 21
7386.683979585253
 31
0.0
  0
LINE
  5
19ACB
330
747D
100
AcDbEntity
  8
細線
 48
50.0
100
AcDbLine
 10
5237.68942827304
 20
7374.837829177614
 30
0.0
 11
5237.68942827304
 21
7379.687829177618
 31
0.0
  0
LINE
  5
19ACC
330
747D
100
AcDbEntity
  8
細線
 48
50.0
100
AcDbLine
 10
5237.68942827304
 20
7379.687829177618
 30
0.0
 11
5252.68942827304
 21
7379.687829177618
 31
0.0
  0
LINE
  5
19ACD
330
747D
100
AcDbEntity
  8
細線
 48
50.0
100
AcDbLine
 10
5252.68942827304
 20
7379.687829177618
 30
0.0
 11
5252.689428273043
 21
7386.687829177617
 31
0.0
  0
LINE
  5
19ACE
330
747D
100
AcDbEntity
  8
細線
 48
50.0
100
AcDbLine
 10
5252.689428273043
 20
7386.687829177617
 30
0.0
 11
5267.68942827304
 21
7386.687829177617
 31
0.0
  0
LINE
  5
19ACF
330
747D
100
AcDbEntity
  8
細線
 48
50.0
100
AcDbLine
 10
5267.68942827304
 20
7386.687829177617
 30
0.0
 11
5267.68942827304
 21
7357.687829177618
 31
0.0
  0
LINE
  5
19AD0
330
747D
100
AcDbEntity
  8
細線
 48
50.0
100
AcDbLine
 10
4463.68942361945
 20
7357.685163521086
 30
0.0
 11
4677.68942827304
 21
7357.68784673133
 31
0.0
  0
LINE
  5
19AD1
330
747D
100
AcDbEntity
  8
細線
 48
50.0
100
AcDbLine
 10
5167.68942827304
 20
7357.687829177618
 30
0.0
 11
5267.68942827304
 21
7357.687829177618
 31
0.0
  0
LINE
  5
19AD2
330
747D
100
AcDbEntity
  8
細線
 48
50.0
100
AcDbLine
 10
4887.68942827304
 20
7357.687829177618
 30
0.0
 11
4957.68942827304
 21
7357.687829177618
 31
0.0
  0
LINE
  5
19AD3
330
747D
100
AcDbEntity
  8
細線
 48
50.0
100
AcDbLine
 10
4900.551393285569
 20
7357.687829177618
 30
0.0
 11
4906.306910868237
 21
7375.958680468112
 31
0.0
  0
LINE
  5
19AD4
330
747D
100
AcDbEntity
  8
細線
 48
50.0
100
AcDbLine
 10
4906.306910868237
 20
7375.958680468112
 30
0.0
 11
4917.23535934867
 21
7375.958680468108
 31
0.0
  0
ARC
  5
19AD5
330
747D
100
AcDbEntity
  8
細線
 48
50.0
100
AcDbCircle
 10
4917.23535934867
 20
7374.958680468107
 30
0.0
 40
1.0
100
AcDbArc
 50
24.62431835212641
 51
90.0
  0
ARC
  5
19AD6
330
747D
100
AcDbEntity
  8
細線
 48
50.0
100
AcDbCircle
 10
4928.144071463304
 20
7374.958680468107
 30
0.0
 40
1.0
100
AcDbArc
 50
90.0
 51
155.3756816478736
  0
ARC
  5
19AD7
330
747D
100
AcDbEntity
  8
細線
 48
50.0
100
AcDbCircle
 10
4922.689715405986
 20
7377.458680468108
 30
0.0
 40
5.0
100
AcDbArc
 50
204.6243183521264
 51
335.3756816478736
  0
LINE
  5
19AD8
330
747D
100
AcDbEntity
  8
細線
 48
50.0
100
AcDbLine
 10
4928.144071463304
 20
7375.958680468108
 30
0.0
 11
4939.072519943738
 21
7375.958680468112
 31
0.0
  0
LINE
  5
19AD9
330
747D
100
AcDbEntity
  8
細線
 48
50.0
100
AcDbLine
 10
4939.072519943738
 20
7375.958680468112
 30
0.0
 11
4944.828037526405
 21
7357.687829177618
 31
0.0
  0
LINE
  5
19ADA
330
747D
100
AcDbEntity
  8
細線
 48
50.0
100
AcDbLine
 10
5237.68942827304
 20
7378.287829177615
 30
0.0
 11
4486.689428273043
 21
7378.287829177615
 31
0.0
  0
LINE
  5
19ADB
330
747D
100
AcDbEntity
  8
細線
 48
50.0
100
AcDbLine
 10
5097.68942827304
 20
7357.687829177618
 30
0.0
 11
5027.68942827304
 21
7357.687829177618
 31
0.0
  0
LINE
  5
19ADC
330
747D
100
AcDbEntity
  8
細線
100
AcDbLine
 10
4817.68942827304
 20
7357.687829177618
 30
0.0
 11
4747.689436458456
 21
7357.687829177618
 31
0.0
  0
LINE
  5
19ADD
330
747D
100
AcDbEntity
  8
細線
 48
50.0
100
AcDbLine
 10
5891.689418965864
 20
7412.287873035484
 30
0.0
 11
5256.68942827304
 21
7412.287873035481
 31
0.0
  0
LINE
  5
19ADE
330
747D
100
AcDbEntity
  8
細線
 48
50.0
100
AcDbLine
 10
5256.68942827304
 20
7409.184023443124
 30
0.0
 11
5256.68942827304
 21
7413.684023443123
 31
0.0
  0
LINE
  5
19ADF
330
747D
100
AcDbEntity
  8
細線
 48
50.0
100
AcDbLine
 10
5256.68942827304
 20
7413.684023443123
 30
0.0
 11
5241.689428273041
 21
7413.684023443123
 31
0.0
  0
LINE
  5
19AE0
330
747D
100
AcDbEntity
  8
細線
 48
50.0
100
AcDbLine
 10
5241.689428273041
 20
7413.684023443123
 30
0.0
 11
5241.689428273041
 21
7420.684023443124
 31
0.0
  0
LINE
  5
19AE1
330
747D
100
AcDbEntity
  8
細線
 48
50.0
100
AcDbLine
 10
5241.689428273041
 20
7420.684023443124
 30
0.0
 11
5226.689428273044
 21
7420.684023443119
 31
0.0
  0
LINE
  5
19AE2
330
747D
100
AcDbEntity
  8
細線
 48
50.0
100
AcDbLine
 10
5226.689428273044
 20
7420.684023443119
 30
0.0
 11
5226.689428273044
 21
7383.083795340009
 31
0.0
  0
LINE
  5
19AE3
330
747D
100
AcDbEntity
  8
細線
 48
50.0
100
AcDbLine
 10
5226.689428273044
 20
7383.083795340009
 30
0.0
 11
5246.689435574216
 21
7383.083836889551
 31
0.0
  0
LINE
  5
19AE4
330
747D
100
AcDbEntity
  8
細線
 48
50.0
100
AcDbLine
 10
5246.689390705274
 20
7391.687298525359
 30
0.0
 11
5246.689435574216
 21
7383.083836889551
 31
0.0
  0
LINE
  5
19AE5
330
747D
100
AcDbEntity
  8
細線
 48
50.0
100
AcDbLine
 10
5891.689418965864
 20
7408.837873035484
 30
0.0
 11
5891.689418965864
 21
7413.687873035482
 31
0.0
  0
LINE
  5
19AE6
330
747D
100
AcDbEntity
  8
細線
 48
50.0
100
AcDbLine
 10
5891.689418965864
 20
7413.687873035482
 30
0.0
 11
5906.689418965861
 21
7413.687873035482
 31
0.0
  0
LINE
  5
19AE7
330
747D
100
AcDbEntity
  8
細線
 48
50.0
100
AcDbLine
 10
5906.689418965861
 20
7413.687873035482
 30
0.0
 11
5906.689430599836
 21
7420.687873035525
 31
0.0
  0
LINE
  5
19AE8
330
747D
100
AcDbEntity
  8
細線
 48
50.0
100
AcDbLine
 10
5906.689430599836
 20
7420.687873035525
 30
0.0
 11
5921.689428770367
 21
7420.687873035525
 31
0.0
  0
LINE
  5
19AE9
330
747D
100
AcDbEntity
  8
細線
 48
50.0
100
AcDbLine
 10
5921.689428770367
 20
7420.687873035525
 30
0.0
 11
5921.689418468545
 21
7391.687666863252
 31
0.0
  0
LINE
  5
19AEA
330
747D
100
AcDbEntity
  8
細線
 48
50.0
100
AcDbLine
 10
5609.189446099328
 20
7391.687675050618
 30
0.0
 11
5539.189698181745
 21
7391.68766961328
 31
0.0
  0
LINE
  5
19AEB
330
747D
100
AcDbEntity
  8
細線
 48
50.0
100
AcDbLine
 10
5246.689390705274
 20
7391.687298525359
 30
0.0
 11
5257.922080059984
 21
7391.687481478506
 31
0.0
  0
ARC
  5
19AEC
330
747D
100
AcDbEntity
  8
細線
 48
50.0
100
AcDbCircle
 10
5264.504372367319
 20
7390.487645392119
 30
0.0
 40
1.8
100
AcDbArc
 50
270.0006665777295
 51
345.0005554812979
  0
LINE
  5
19AED
330
747D
100
AcDbEntity
  8
細線
 48
50.0
100
AcDbLine
 10
5266.4908058134
 20
7390.946485849397
 30
0.0
 11
5266.243043371201
 21
7390.021787967291
 31
0.0
  0
LINE
  5
19AEE
330
747D
100
AcDbEntity
  8
細線
 48
50.0
100
AcDbLine
 10
5264.504393308476
 20
7388.68764539224
 30
0.0
 11
5260.874465889706
 21
7388.687603161759
 31
0.0
  0
ARC
  5
19AEF
330
747D
100
AcDbEntity
  8
細線
 48
50.0
100
AcDbCircle
 10
5260.874444948554
 20
7390.487603161638
 30
0.0
 40
1.8
100
AcDbArc
 50
195.0010443049453
 51
270.0006665777295
  0
LINE
  5
19AF0
330
747D
100
AcDbEntity
  8
細線
 48
50.0
100
AcDbLine
 10
5258.888017456296
 20
7390.946318129202
 30
0.0
 11
5259.135786952808
 21
7390.021697190622
 31
0.0
  0
ARC
  5
19AF1
330
747D
100
AcDbEntity
  8
細線
 48
50.0
100
AcDbCircle
 10
5257.922096347546
 20
7390.68748147864
 30
0.0
 40
1.0
100
AcDbArc
 50
15.00104430494533
 51
90.00093320877969
  0
LINE
  5
19AF2
330
747D
100
AcDbEntity
  8
細線
 48
50.0
100
AcDbLine
 10
5267.456727168502
 20
7391.687676168911
 30
0.0
 11
5268.398487319407
 21
7391.68768274276
 31
0.0
  0
ARC
  5
19AF3
330
747D
100
AcDbEntity
  8
細線
 48
50.0
100
AcDbCircle
 10
5267.456734148888
 20
7390.687676168936
 30
0.0
 40
1.0
100
AcDbArc
 50
90.0003999466794
 51
165.0005554812978
  0
LINE
  5
19AF4
330
747D
100
AcDbEntity
  8
細線
 48
50.0
100
AcDbLine
 10
5819.189418965853
 20
7391.687666863252
 30
0.0
 11
5921.689418468545
 21
7391.687666863252
 31
0.0
  0
LINE
  5
19AF5
330
747D
100
AcDbEntity
  8
細線
 48
50.0
100
AcDbLine
 10
5329.189454284745
 20
7391.687675050618
 30
0.0
 11
5268.089393057825
 21
7391.68768274276
 31
0.0
  0
LINE
  5
19AF6
330
747D
100
AcDbEntity
  8
細線
 48
50.0
100
AcDbLine
 10
5749.189454284745
 20
7391.687711891702
 30
0.0
 11
5679.189447330359
 21
7391.687666869033
 31
0.0
  0
LINE
  5
19AF7
330
747D
100
AcDbEntity
  8
細線
 48
50.0
100
AcDbLine
 10
5469.189418965854
 20
7391.687666863248
 30
0.0
 11
5399.189401677978
 21
7391.687666863255
 31
0.0
  0
ARC
  5
19AF8
330
747D
100
AcDbEntity
  8
細線
 48
50.0
100
AcDbCircle
 10
5905.889423619462
 20
7424.887655000663
 30
0.0
 40
0.8
100
AcDbArc
 50
359.9997333689499
 51
89.99986668437072
  0
ARC
  5
19AF9
330
747D
100
AcDbEntity
  8
細線
 48
50.0
100
AcDbCircle
 10
5913.489430444556
 20
7424.887666169279
 30
0.0
 40
0.8
100
AcDbArc
 50
90.00014387753465
 51
179.9997333689498
  0
LINE
  5
19AFA
330
747D
100
AcDbEntity
  8
細線
 48
50.0
100
AcDbLine
 10
5905.889425480896
 20
7425.687655000662
 30
0.0
 11
5900.68942361945
 21
7425.687655000662
 31
0.0
  0
ARC
  5
19AFB
330
747D
100
AcDbEntity
  8
細線
 48
50.0
100
AcDbCircle
 10
5907.389423619451
 20
7423.387655000663
 30
0.0
 40
0.7
100
AcDbArc
 50
180.0
 51
270.0
  0
ARC
  5
19AFC
330
747D
100
AcDbEntity
  8
細線
 48
50.0
100
AcDbCircle
 10
5911.989423619453
 20
7423.387655000663
 30
0.0
 40
0.7
100
AcDbArc
 50
270.0
 51
0.0
  0
LINE
  5
19AFD
330
747D
100
AcDbEntity
  8
細線
 48
50.0
100
AcDbLine
 10
5912.68942361945
 20
7423.387655000663
 30
0.0
 11
5912.689430444568
 21
7424.88766989215
 31
0.0
  0
LINE
  5
19AFE
330
747D
100
AcDbEntity
  8
細線
 48
50.0
100
AcDbLine
 10
5907.389423619451
 20
7422.687655000662
 30
0.0
 11
5911.989423619453
 21
7422.687655000662
 31
0.0
  0
LINE
  5
19AFF
330
747D
100
AcDbEntity
  8
細線
 48
50.0
100
AcDbLine
 10
5906.68942361945
 20
7424.887655000663
 30
0.0
 11
5906.68942361945
 21
7423.387655000663
 31
0.0
  0
LINE
  5
19B00
330
747D
100
AcDbEntity
  8
細線
 48
50.0
100
AcDbLine
 10
6532.289423619456
 20
7455.687655000662
 30
0.0
 11
5895.68942361945
 21
7455.687655000658
 31
0.0
  0
LINE
  5
19B01
330
747D
100
AcDbEntity
  8
細線
 48
50.0
100
AcDbLine
 10
6558.18942361945
 20
7450.687655000665
 30
0.0
 11
6542.289423619457
 21
7450.687655000662
 31
0.0
  0
LINE
  5
19B02
330
747D
100
AcDbEntity
  8
細線
 48
50.0
100
AcDbLine
 10
6542.289423619452
 20
7450.687655000662
 30
0.0
 11
6532.289423619456
 21
7455.687655000662
 31
0.0
  0
LINE
  5
19B03
330
747D
100
AcDbEntity
  8
細線
100
AcDbLine
 10
6143.189423619451
 20
7425.687655000662
 30
0.0
 11
6143.189423619451
 21
7454.987655000661
 31
0.0
  0
LINE
  5
19B04
330
747D
100
AcDbEntity
  8
細線
100
AcDbLine
 10
6143.189423619451
 20
7454.987655000661
 30
0.0
 11
6163.189423619451
 21
7454.987655000661
 31
0.0
  0
LINE
  5
19B05
330
747D
100
AcDbEntity
  8
細線
100
AcDbLine
 10
6163.189423619451
 20
7425.687655000662
 30
0.0
 11
6163.189423619451
 21
7454.987655000661
 31
0.0
  0
LINE
  5
19B06
330
747D
100
AcDbEntity
  8
細線
100
AcDbLine
 10
6324.439423619452
 20
7425.687655000662
 30
0.0
 11
6254.439423619452
 21
7425.687655000662
 31
0.0
  0
LINE
  5
19B07
330
747D
100
AcDbEntity
  8
細線
 48
50.0
100
AcDbLine
 10
6044.439423619451
 20
7425.687655000662
 30
0.0
 11
5913.485203192294
 21
7425.687655000662
 31
0.0
  0
LINE
  5
19B08
330
747D
100
AcDbEntity
  8
細線
100
AcDbLine
 10
6184.439423619451
 20
7425.687655000662
 30
0.0
 11
6114.439423619451
 21
7425.687655000662
 31
0.0
  0
LINE
  5
19B09
330
747D
100
AcDbEntity
  8
細線
 48
50.0
100
AcDbLine
 10
5900.68942361945
 20
7417.687655000662
 30
0.0
 11
5900.68942361945
 21
7425.687655000662
 31
0.0
  0
LINE
  5
19B0A
330
747D
100
AcDbEntity
  8
細線
 48
50.0
100
AcDbLine
 10
5880.68942361945
 20
7417.687655000666
 30
0.0
 11
5900.68942361945
 21
7417.687655000662
 31
0.0
  0
LINE
  5
19B0B
330
747D
100
AcDbEntity
  8
細線
 48
50.0
100
AcDbLine
 10
5895.68942361945
 20
7455.687655000662
 30
0.0
 11
5895.68942361945
 21
7450.687655000662
 31
0.0
  0
LINE
  5
19B0C
330
747D
100
AcDbEntity
  8
細線
 48
50.0
100
AcDbLine
 10
5880.68942361945
 20
7455.687655000658
 30
0.0
 11
5895.68942361945
 21
7455.687655000662
 31
0.0
  0
LINE
  5
19B0D
330
747D
100
AcDbEntity
  8
細線
 48
50.0
100
AcDbLine
 10
5880.68942361945
 20
7417.687655000666
 30
0.0
 11
5880.68942361945
 21
7455.687655000658
 31
0.0
  0
LINE
  5
19B0E
330
747D
100
AcDbEntity
  8
細線
100
AcDbLine
 10
6548.68942361945
 20
7425.687655000662
 30
0.0
 11
6394.439423619451
 21
7425.687655000662
 31
0.0
  0
LINE
  5
19B0F
330
747D
100
AcDbEntity
  8
細線
 48
50.0
100
AcDbLine
 10
6558.18942361945
 20
7450.687655000665
 30
0.0
 11
6558.18942361945
 21
7425.687655000662
 31
0.0
  0
DIMENSION
  5
19D74
330
747D
100
AcDbEntity
  8
寸法
 48
50.0
100
AcDbDimension
  2
*D32
 10
6587.689423619448
 20
6432.55793957293
 30
0.0
 11
5532.822180366762
 21
6432.55793957293
 31
0.0
 70
   160
 71
     5
 42
2154.0
  3
INABA_S40G
100
AcDbAlignedDimension
 13
4433.689423619449
 23
7352.687655000699
 33
0.0
 14
6587.689423619448
 24
7352.687655000699
 34
0.0
100
AcDbRotatedDimension
1001
ACAD
1000
DSTYLE
1002
{
1070
   341
1005
0
1002
}
  0
DIMENSION
  5
19D75
330
747D
100
AcDbEntity
  8
寸法
100
AcDbDimension
  2
*D33
 10
4225.075455944743
 20
7354.687655000666
 30
0.0
 11
4225.075455944741
 21
7208.515881052981
 31
0.0
 70
   160
 71
     5
 42
75.00000000003274
  3
INABA_S40
100
AcDbAlignedDimension
 13
4433.689423619449
 23
7429.687655000698
 33
0.0
 14
4433.689423619447
 24
7354.687655000666
 34
0.0
 50
90.0
100
AcDbRotatedDimension
1001
ACAD
1000
DSTYLE
1002
{
1070
    41
1040
0.5
1070
    44
1040
1.0
1070
   147
1040
0.8
1070
   271
1070
     2
1070
   272
1070
     2
1070
   289
1070
     3
1070
   340
1005
F706
1070
   343
1005
164B4
1070
   344
1005
164B4
1002
}
  0
TEXT
  5
19E29
330
747D
100
AcDbEntity
  8
部品1
100
AcDbText
 10
5008.873700334318
 20
5676.765655912952
 30
0.0
 40
135.0
  1
平面図
  7
STYLE2
100
AcDbText
  0
LWPOLYLINE
  5
19E2A
330
747D
100
AcDbEntity
  8
部品1
100
AcDbPolyline
 90
        4
 70
     1
 43
0.0
 10
4918.954090505277
 20
5869.659185131474
 10
4918.954090505277
 20
5629.766863585943
 10
5682.424756733717
 20
5629.766863585943
 10
5682.424756733717
 20
5869.659185131474
  0
DIMENSION
  5
19E8B
330
747D
100
AcDbEntity
  8
寸法
100
AcDbDimension
  2
*D34
 10
7035.689423619456
 20
6125.361260054464
 30
0.0
 11
5367.026175628805
 21
6125.361260054464
 31
0.0
 70
   160
 71
     5
 42
3469.999999999982
  3
INABA_S40G
100
AcDbAlignedDimension
 13
3565.689423619475
 23
7429.687655000666
 33
0.0
 14
7035.689423619456
 24
7429.687655000792
 34
0.0
100
AcDbRotatedDimension
1001
ACAD
1000
DSTYLE
1002
{
1070
   341
1005
0
1002
}
  0
LINE
  5
1A5C1
330
747D
100
AcDbEntity
  8
細線
100
AcDbLine
 10
4460.689423619478
 20
4235.224067236467
 30
0.0
 11
4460.689423619474
 21
4212.224067236467
 31
0.0
  0
LINE
  5
1A5C2
330
747D
100
AcDbEntity
  8
細線
100
AcDbLine
 10
4534.689423619474
 20
4223.224067236467
 30
0.0
 11
4460.689423619478
 21
4223.224067236467
 31
0.0
  0
LINE
  5
1A5C3
330
747D
100
AcDbEntity
  8
細線
100
AcDbLine
 10
4534.689423619474
 20
4217.224067236467
 30
0.0
 11
4460.689423619478
 21
4217.224067236467
 31
0.0
  0
LINE
  5
1A5C4
330
747D
100
AcDbEntity
  8
細線
100
AcDbLine
 10
4534.689423619474
 20
4229.224067236467
 30
0.0
 11
4460.689423619478
 21
4229.224067236467
 31
0.0
  0
LINE
  5
1A5C5
330
747D
100
AcDbEntity
  8
細線
100
AcDbLine
 10
4386.689423619478
 20
4229.224067236467
 30
0.0
 11
4455.689423619478
 21
4229.224067236467
 31
0.0
  0
LINE
  5
1A5C6
330
747D
100
AcDbEntity
  8
細線
100
AcDbLine
 10
4386.689423619475
 20
4217.224067236467
 30
0.0
 11
4460.689423619478
 21
4217.224067236467
 31
0.0
  0
LINE
  5
1A5C7
330
747D
100
AcDbEntity
  8
細線
100
AcDbLine
 10
4386.689423619478
 20
4223.224067236467
 30
0.0
 11
4460.689423619478
 21
4223.224067236467
 31
0.0
  0
LINE
  5
1A5C8
330
747D
100
AcDbEntity
  8
細線
100
AcDbLine
 10
4386.689423619478
 20
4229.224067236467
 30
0.0
 11
4460.689423619478
 21
4229.224067236467
 31
0.0
  0
LINE
  5
1A5C9
330
747D
100
AcDbEntity
  8
部品1
 48
0.01
100
AcDbLine
 10
4548.689423619478
 20
4241.724067236467
 30
0.0
 11
4372.689423619479
 21
4241.724067236467
 31
0.0
  0
LINE
  5
1A5CA
330
747D
100
AcDbEntity
  8
部品1
 48
0.01
100
AcDbLine
 10
4370.689423619478
 20
4239.724067236466
 30
0.0
 11
4370.689423619478
 21
4208.224067236467
 31
0.0
  0
LINE
  5
1A5CB
330
747D
100
AcDbEntity
  8
部品1
 48
0.01
100
AcDbLine
 10
4372.689423619479
 20
4206.224067236467
 30
0.0
 11
4548.689423619475
 21
4206.224067236467
 31
0.0
  0
LINE
  5
1A5CC
330
747D
100
AcDbEntity
  8
部品1
 48
0.01
100
AcDbLine
 10
4550.689423619474
 20
4208.224067236467
 30
0.0
 11
4550.689423619479
 21
4239.724067236466
 31
0.0
  0
LINE
  5
1A5CD
330
747D
100
AcDbEntity
  8
細線
100
AcDbLine
 10
4386.689423619478
 20
4235.224067236467
 30
0.0
 11
4386.689423619478
 21
4212.224067236467
 31
0.0
  0
LINE
  5
1A5CE
330
747D
100
AcDbEntity
  8
細線
100
AcDbLine
 10
4534.689423619478
 20
4212.224067236467
 30
0.0
 11
4534.689423619478
 21
4235.224067236467
 31
0.0
  0
LINE
  5
1A5CF
330
747D
100
AcDbEntity
  8
細線
100
AcDbLine
 10
4534.689423619478
 20
4235.224067236467
 30
0.0
 11
4460.689423619478
 21
4235.224067236467
 31
0.0
  0
LINE
  5
1A5D0
330
747D
100
AcDbEntity
  8
細線
100
AcDbLine
 10
4386.689423619478
 20
4212.224067236467
 30
0.0
 11
4460.689423619478
 21
4212.224067236467
 31
0.0
  0
LINE
  5
1A5D1
330
747D
100
AcDbEntity
  8
細線
100
AcDbLine
 10
4460.689423619478
 20
4235.224067236467
 30
0.0
 11
4386.689423619478
 21
4235.224067236467
 31
0.0
  0
LINE
  5
1A5D2
330
747D
100
AcDbEntity
  8
細線
100
AcDbLine
 10
4460.689423619474
 20
4212.224067236467
 30
0.0
 11
4534.689423619478
 21
4212.224067236467
 31
0.0
  0
ARC
  5
1A5D3
330
747D
100
AcDbEntity
  8
部品1
 48
0.01
100
AcDbCircle
 10
4372.689423619479
 20
4239.724067236466
 30
0.0
 40
2.0
100
AcDbArc
 50
90.0
 51
180.0
  0
ARC
  5
1A5D4
330
747D
100
AcDbEntity
  8
部品1
 48
0.01
100
AcDbCircle
 10
4372.689423619479
 20
4208.224067236467
 30
0.0
 40
2.0
100
AcDbArc
 50
180.0
 51
270.0
  0
ARC
  5
1A5D5
330
747D
100
AcDbEntity
  8
部品1
 48
0.01
100
AcDbCircle
 10
4548.689423619478
 20
4239.724067236466
 30
0.0
 40
2.0
100
AcDbArc
 50
0.0
 51
90.0
  0
ARC
  5
1A5D6
330
747D
100
AcDbEntity
  8
部品1
 48
0.01
100
AcDbCircle
 10
4548.689423619475
 20
4208.224067236467
 30
0.0
 40
2.0
100
AcDbArc
 50
270.0
 51
0.0
  0
ARC
  5
1A5D7
330
747D
100
AcDbEntity
  8
部品1
 48
0.01
100
AcDbCircle
 10
6052.689423619479
 20
4208.224067236467
 30
0.0
 40
2.0
100
AcDbArc
 50
180.0
 51
270.0
  0
ARC
  5
1A5D8
330
747D
100
AcDbEntity
  8
部品1
 48
0.01
100
AcDbCircle
 10
6052.689423619479
 20
4239.724067236466
 30
0.0
 40
2.0
100
AcDbArc
 50
90.0
 51
180.0
  0
ARC
  5
1A5D9
330
747D
100
AcDbEntity
  8
部品1
 48
0.01
100
AcDbCircle
 10
6228.689423619478
 20
4208.224067236467
 30
0.0
 40
2.0
100
AcDbArc
 50
270.0
 51
0.0
  0
ARC
  5
1A5DA
330
747D
100
AcDbEntity
  8
部品1
 48
0.01
100
AcDbCircle
 10
6228.689423619478
 20
4239.724067236466
 30
0.0
 40
2.0
100
AcDbArc
 50
0.0
 51
90.0
  0
LINE
  5
1A5DB
330
747D
100
AcDbEntity
  8
細線
100
AcDbLine
 10
6140.689423619479
 20
4212.224067236467
 30
0.0
 11
6066.689423619479
 21
4212.224067236467
 31
0.0
  0
LINE
  5
1A5DC
330
747D
100
AcDbEntity
  8
細線
100
AcDbLine
 10
6140.689423619479
 20
4235.224067236467
 30
0.0
 11
6214.689423619478
 21
4235.224067236467
 31
0.0
  0
LINE
  5
1A5DD
330
747D
100
AcDbEntity
  8
細線
100
AcDbLine
 10
6214.689423619478
 20
4212.224067236467
 30
0.0
 11
6140.689423619479
 21
4212.224067236467
 31
0.0
  0
LINE
  5
1A5DE
330
747D
100
AcDbEntity
  8
細線
100
AcDbLine
 10
6066.689423619479
 20
4235.224067236467
 30
0.0
 11
6140.689423619479
 21
4235.224067236467
 31
0.0
  0
LINE
  5
1A5DF
330
747D
100
AcDbEntity
  8
細線
100
AcDbLine
 10
6066.689423619479
 20
4212.224067236467
 30
0.0
 11
6066.689423619479
 21
4235.224067236467
 31
0.0
  0
LINE
  5
1A5E0
330
747D
100
AcDbEntity
  8
細線
100
AcDbLine
 10
6214.689423619478
 20
4235.224067236467
 30
0.0
 11
6214.689423619478
 21
4212.224067236467
 31
0.0
  0
LINE
  5
1A5E1
330
747D
100
AcDbEntity
  8
部品1
 48
0.01
100
AcDbLine
 10
6050.689423619479
 20
4208.224067236467
 30
0.0
 11
6050.689423619479
 21
4239.724067236466
 31
0.0
  0
LINE
  5
1A5E2
330
747D
100
AcDbEntity
  8
部品1
 48
0.01
100
AcDbLine
 10
6228.689423619478
 20
4206.224067236467
 30
0.0
 11
6052.689423619479
 21
4206.224067236467
 31
0.0
  0
LINE
  5
1A5E3
330
747D
100
AcDbEntity
  8
部品1
 48
0.01
100
AcDbLine
 10
6230.689423619478
 20
4239.724067236466
 30
0.0
 11
6230.689423619478
 21
4208.224067236467
 31
0.0
  0
LINE
  5
1A5E4
330
747D
100
AcDbEntity
  8
部品1
 48
0.01
100
AcDbLine
 10
6052.689423619479
 20
4241.724067236467
 30
0.0
 11
6228.689423619478
 21
4241.724067236467
 31
0.0
  0
LINE
  5
1A5E5
330
747D
100
AcDbEntity
  8
細線
100
AcDbLine
 10
6214.689423619478
 20
4229.224067236467
 30
0.0
 11
6140.689423619479
 21
4229.224067236467
 31
0.0
  0
LINE
  5
1A5E6
330
747D
100
AcDbEntity
  8
細線
100
AcDbLine
 10
6214.689423619478
 20
4223.224067236467
 30
0.0
 11
6140.689423619479
 21
4223.224067236467
 31
0.0
  0
LINE
  5
1A5E7
330
747D
100
AcDbEntity
  8
細線
100
AcDbLine
 10
6214.689423619478
 20
4217.224067236467
 30
0.0
 11
6140.689423619479
 21
4217.224067236467
 31
0.0
  0
LINE
  5
1A5E8
330
747D
100
AcDbEntity
  8
細線
100
AcDbLine
 10
6214.689423619478
 20
4229.224067236467
 30
0.0
 11
6145.689423619479
 21
4229.224067236467
 31
0.0
  0
LINE
  5
1A5E9
330
747D
100
AcDbEntity
  8
細線
100
AcDbLine
 10
6066.689423619479
 20
4229.224067236467
 30
0.0
 11
6140.689423619479
 21
4229.224067236467
 31
0.0
  0
LINE
  5
1A5EA
330
747D
100
AcDbEntity
  8
細線
100
AcDbLine
 10
6066.689423619479
 20
4217.224067236467
 30
0.0
 11
6140.689423619479
 21
4217.224067236467
 31
0.0
  0
LINE
  5
1A5EB
330
747D
100
AcDbEntity
  8
細線
100
AcDbLine
 10
6066.689423619479
 20
4223.224067236467
 30
0.0
 11
6140.689423619479
 21
4223.224067236467
 31
0.0
  0
LINE
  5
1A5EC
330
747D
100
AcDbEntity
  8
細線
100
AcDbLine
 10
6140.689423619479
 20
4235.224067236467
 30
0.0
 11
6140.689423619479
 21
4212.224067236467
 31
0.0
  0
LINE
  5
1A5F0
330
747D
100
AcDbEntity
  8
部品1
100
AcDbLine
 10
6587.689423619474
 20
2385.724067236486
 30
0.0
 11
7035.689423619475
 21
2385.724067236488
 31
0.0
  0
LINE
  5
1A5F1
330
747D
100
AcDbEntity
  8
部品1
 48
50.0
100
AcDbLine
 10
5261.689423619476
 20
4118.724067236469
 30
0.0
 11
5261.689423619476
 21
2385.724067236469
 31
0.0
  0
LINE
  5
1A5F2
330
747D
100
AcDbEntity
  8
部品1
 48
50.0
100
AcDbLine
 10
6587.689423619474
 20
2335.724067236469
 30
0.0
 11
6587.689423619474
 21
4170.724067236469
 31
0.0
  0
LINE
  5
1A5F3
330
747D
100
AcDbEntity
  8
細線
 48
50.0
100
AcDbLine
 10
6557.689423619475
 20
2335.724067236469
 30
0.0
 11
6557.689423619475
 21
4128.224067236469
 31
0.0
  0
LINE
  5
1A5F4
330
747D
100
AcDbEntity
  8
部品1
 48
50.0
100
AcDbLine
 10
6548.689423619475
 20
2382.724067236469
 30
0.0
 11
6548.689423619475
 21
4118.724067236469
 31
0.0
  0
LINE
  5
1A5F5
330
747D
100
AcDbEntity
  8
部品1
 48
50.0
100
AcDbLine
 10
4433.689423619475
 20
4170.724067236469
 30
0.0
 11
4433.689423619475
 21
2335.724067236469
 31
0.0
  0
LINE
  5
1A5F6
330
747D
100
AcDbEntity
  8
細線
 48
50.0
100
AcDbLine
 10
4463.689423619475
 20
4128.224067236469
 30
0.0
 11
4463.689423619475
 21
2335.724067236469
 31
0.0
  0
LINE
  5
1A5F7
330
747D
100
AcDbEntity
  8
部品1
 48
50.0
100
AcDbLine
 10
4463.689423619475
 20
2385.724067236469
 30
0.0
 11
4463.689423619475
 21
4118.724067236469
 31
0.0
  0
LINE
  5
1A5F8
330
747D
100
AcDbEntity
  8
細線
 48
50.0
100
AcDbLine
 10
5261.689423619476
 20
2393.224067236469
 30
0.0
 11
6531.689423619475
 21
2393.224067236469
 31
0.0
  0
LINE
  5
1A5F9
330
747D
100
AcDbEntity
  8
細線
 48
50.0
100
AcDbLine
 10
4463.689423619475
 20
2382.724067236469
 30
0.0
 11
6557.689423619475
 21
2382.724067236469
 31
0.0
  0
LINE
  5
1A5FA
330
747D
100
AcDbEntity
  8
細線
 48
50.0
100
AcDbLine
 10
4463.689423619475
 20
2378.724067236469
 30
0.0
 11
6557.689423619475
 21
2378.724067236469
 31
0.0
  0
LINE
  5
1A5FB
330
747D
100
AcDbEntity
  8
部品1
 48
50.0
100
AcDbLine
 10
4433.689423619475
 20
2335.724067236469
 30
0.0
 11
6587.689423619474
 21
2335.724067236469
 31
0.0
  0
LINE
  5
1A5FC
330
747D
100
AcDbEntity
  8
部品1
 48
50.0
100
AcDbLine
 10
4463.689423619475
 20
2385.724067236469
 30
0.0
 11
5261.689423619476
 21
2385.724067236469
 31
0.0
  0
LINE
  5
1A5FD
330
747D
100
AcDbEntity
  8
部品1
 48
50.0
100
AcDbLine
 10
4472.689423619475
 20
2385.724067236469
 30
0.0
 11
4472.689423619475
 21
2382.724067236469
 31
0.0
  0
LINE
  5
1A5FE
330
747D
100
AcDbEntity
  8
細線
 48
50.0
100
AcDbLine
 10
6535.689423619475
 20
2382.724067236469
 30
0.0
 11
6531.689423619475
 21
2393.224067236469
 31
0.0
  0
LINE
  5
1A5FF
330
747D
100
AcDbEntity
  8
細線
 48
50.0
100
AcDbLine
 10
6557.689423619475
 20
4128.224067236469
 30
0.0
 11
4463.689423619475
 21
4128.224067236469
 31
0.0
  0
LINE
  5
1A600
330
747D
100
AcDbEntity
  8
細線
 48
50.0
100
AcDbLine
 10
6557.689423619475
 20
4118.724067236469
 30
0.0
 11
4463.689423619475
 21
4118.724067236469
 31
0.0
  0
LINE
  5
1A601
330
747D
100
AcDbEntity
  8
細線
 48
50.0
100
AcDbLine
 10
6587.689423619474
 20
4160.724067236468
 30
0.0
 11
4433.689423619475
 21
4160.724067236468
 31
0.0
  0
LINE
  5
1A602
330
747D
100
AcDbEntity
  8
部品1
 48
50.0
100
AcDbLine
 10
6587.689423619474
 20
4170.724067236469
 30
0.0
 11
4433.689423619475
 21
4170.724067236469
 31
0.0
  0
LINE
  5
1A603
330
747D
100
AcDbEntity
  8
部品1
 48
50.0
100
AcDbLine
 10
4460.689423619474
 20
4170.724067236469
 30
0.0
 11
4460.689423619474
 21
4175.724067236468
 31
0.0
  0
LINE
  5
1A604
330
747D
100
AcDbEntity
  8
部品1
 48
50.0
100
AcDbLine
 10
4463.689423619475
 20
4126.724067236469
 30
0.0
 11
4433.689423619475
 21
4126.724067236469
 31
0.0
  0
LINE
  5
1A605
330
747D
100
AcDbEntity
  8
部品1
 48
50.0
100
AcDbLine
 10
6587.689423619474
 20
4126.724067236469
 30
0.0
 11
6557.689423619475
 21
4126.724067236469
 31
0.0
  0
LINE
  5
1A606
330
747D
100
AcDbEntity
  8
部品1
100
AcDbLine
 10
5912.689423619472
 20
4118.724067236469
 30
0.0
 11
5912.689423619472
 21
2393.224067236483
 31
0.0
  0
LINE
  5
1A607
330
747D
100
AcDbEntity
  8
細線
100
AcDbLine
 10
5167.689423619474
 20
4118.724067236469
 30
0.0
 11
5167.689423619474
 21
2385.724067236476
 31
0.0
  0
LINE
  5
1A608
330
747D
100
AcDbEntity
  8
細線
100
AcDbLine
 10
5097.689423619475
 20
4118.724067236469
 30
0.0
 11
5097.689423619475
 21
2385.724067236476
 31
0.0
  0
LINE
  5
1A609
330
747D
100
AcDbEntity
  8
細線
100
AcDbLine
 10
5027.689423619475
 20
4118.724067236469
 30
0.0
 11
5027.689423619475
 21
2385.724067236473
 31
0.0
  0
LINE
  5
1A60A
330
747D
100
AcDbEntity
  8
細線
100
AcDbLine
 10
4957.689423619474
 20
4118.724067236469
 30
0.0
 11
4957.689423619474
 21
2385.724067236473
 31
0.0
  0
LINE
  5
1A60B
330
747D
100
AcDbEntity
  8
細線
100
AcDbLine
 10
4887.689423619475
 20
4118.724067236469
 30
0.0
 11
4887.689423619475
 21
2385.724067236473
 31
0.0
  0
LINE
  5
1A60C
330
747D
100
AcDbEntity
  8
細線
100
AcDbLine
 10
4817.689423619475
 20
4118.724067236469
 30
0.0
 11
4817.689423619475
 21
2385.724067236473
 31
0.0
  0
LINE
  5
1A60D
330
747D
100
AcDbEntity
  8
部品1
100
AcDbLine
 10
4633.689423619475
 20
4118.724067236469
 30
0.0
 11
4633.689423619475
 21
2385.724067236473
 31
0.0
  0
LINE
  5
1A60E
330
747D
100
AcDbEntity
  8
部品1
100
AcDbLine
 10
4583.689423619475
 20
4118.724067236469
 30
0.0
 11
4583.689423619475
 21
2385.724067236473
 31
0.0
  0
LINE
  5
1A60F
330
747D
100
AcDbEntity
  8
細線
100
AcDbLine
 10
4625.689423619474
 20
4118.724067236469
 30
0.0
 11
4625.689423619474
 21
2385.724067236473
 31
0.0
  0
LINE
  5
1A610
330
747D
100
AcDbEntity
  8
細線
100
AcDbLine
 10
4591.689423619475
 20
4118.724067236469
 30
0.0
 11
4591.689423619475
 21
2385.724067236473
 31
0.0
  0
LINE
  5
1A611
330
747D
100
AcDbEntity
  8
細線
100
AcDbLine
 10
5811.689423619475
 20
4118.724067236469
 30
0.0
 11
5811.689423619475
 21
2393.22406723648
 31
0.0
  0
LINE
  5
1A612
330
747D
100
AcDbEntity
  8
細線
100
AcDbLine
 10
5741.689423619475
 20
4118.724067236469
 30
0.0
 11
5741.689423619475
 21
2393.22406723648
 31
0.0
  0
LINE
  5
1A613
330
747D
100
AcDbEntity
  8
細線
100
AcDbLine
 10
5671.689423619475
 20
4118.724067236469
 30
0.0
 11
5671.689423619475
 21
2393.22406723648
 31
0.0
  0
LINE
  5
1A614
330
747D
100
AcDbEntity
  8
細線
100
AcDbLine
 10
5601.689423619475
 20
4118.724067236469
 30
0.0
 11
5601.689423619475
 21
2393.22406723648
 31
0.0
  0
LINE
  5
1A615
330
747D
100
AcDbEntity
  8
細線
100
AcDbLine
 10
5531.689423619475
 20
4118.724067236469
 30
0.0
 11
5531.689423619475
 21
2393.22406723648
 31
0.0
  0
LINE
  5
1A616
330
747D
100
AcDbEntity
  8
細線
100
AcDbLine
 10
5461.689423619475
 20
4118.724067236469
 30
0.0
 11
5461.689423619475
 21
2393.22406723648
 31
0.0
  0
LINE
  5
1A617
330
747D
100
AcDbEntity
  8
細線
100
AcDbLine
 10
6397.189423619475
 20
4118.724067236469
 30
0.0
 11
6397.189423619475
 21
2393.224067236487
 31
0.0
  0
LINE
  5
1A618
330
747D
100
AcDbEntity
  8
細線
100
AcDbLine
 10
6327.189423619475
 20
4118.724067236469
 30
0.0
 11
6327.189423619475
 21
2393.224067236487
 31
0.0
  0
LINE
  5
1A619
330
747D
100
AcDbEntity
  8
細線
100
AcDbLine
 10
6257.189423619475
 20
4118.724067236469
 30
0.0
 11
6257.189423619475
 21
2393.224067236487
 31
0.0
  0
LINE
  5
1A61A
330
747D
100
AcDbEntity
  8
細線
100
AcDbLine
 10
6187.189423619475
 20
4118.724067236469
 30
0.0
 11
6187.189423619475
 21
2393.224067236487
 31
0.0
  0
LINE
  5
1A61B
330
747D
100
AcDbEntity
  8
細線
100
AcDbLine
 10
6117.189423619475
 20
4118.724067236469
 30
0.0
 11
6117.189423619475
 21
2393.224067236487
 31
0.0
  0
LINE
  5
1A61F
330
747D
100
AcDbEntity
  8
部品1
 48
50.0
100
AcDbLine
 10
4507.689423619474
 20
3317.224067236469
 30
0.0
 11
4560.689423619474
 21
3317.224067236469
 31
0.0
  0
LINE
  5
1A639
330
747D
100
AcDbEntity
  8
細線
100
AcDbLine
 10
4747.689423619475
 20
4118.724067236469
 30
0.0
 11
4747.689423619475
 21
2385.724067236473
 31
0.0
  0
LINE
  5
1A63A
330
747D
100
AcDbEntity
  8
細線
100
AcDbLine
 10
4677.689423619475
 20
4118.724067236469
 30
0.0
 11
4677.689423619475
 21
2385.724067236473
 31
0.0
  0
LINE
  5
1A63B
330
747D
100
AcDbEntity
  8
細線
100
AcDbLine
 10
5391.689423619475
 20
4118.724067236469
 30
0.0
 11
5391.689423619475
 21
2393.22406723648
 31
0.0
  0
LINE
  5
1A63C
330
747D
100
AcDbEntity
  8
細線
100
AcDbLine
 10
5321.689423619474
 20
4118.724067236469
 30
0.0
 11
5321.689423619474
 21
2393.22406723648
 31
0.0
  0
LINE
  5
1A63D
330
747D
100
AcDbEntity
  8
細線
100
AcDbLine
 10
6047.189423619474
 20
4118.724067236469
 30
0.0
 11
6047.189423619474
 21
2393.224067236487
 31
0.0
  0
LINE
  5
1A63E
330
747D
100
AcDbEntity
  8
細線
 48
50.0
100
AcDbLine
 10
6638.189423619478
 20
4175.724067236468
 30
0.0
 11
6638.189423619483
 21
2385.724067236473
 31
0.0
  0
LINE
  5
1A63F
330
747D
100
AcDbEntity
  8
細線
 48
50.0
100
AcDbLine
 10
6623.189423619479
 20
4175.724067236468
 30
0.0
 11
6623.189423619482
 21
2385.724067236473
 31
0.0
  0
LINE
  5
1A640
330
747D
100
AcDbEntity
  8
細線
 48
50.0
100
AcDbLine
 10
6763.189423619478
 20
4175.724067236468
 30
0.0
 11
6763.189423619483
 21
2385.724067236474
 31
0.0
  0
LINE
  5
1A641
330
747D
100
AcDbEntity
  8
細線
 48
50.0
100
AcDbLine
 10
6778.189423619479
 20
4175.724067236468
 30
0.0
 11
6778.189423619481
 21
2385.724067236474
 31
0.0
  0
LINE
  5
1A642
330
747D
100
AcDbEntity
  8
細線
 48
50.0
100
AcDbLine
 10
6918.189423619479
 20
4175.724067236468
 30
0.0
 11
6918.189423619482
 21
2385.724067236474
 31
0.0
  0
LINE
  5
1A643
330
747D
100
AcDbEntity
  8
細線
 48
50.0
100
AcDbLine
 10
6903.189423619479
 20
4175.724067236468
 30
0.0
 11
6903.189423619481
 21
2385.724067236474
 31
0.0
  0
LINE
  5
1A644
330
747D
100
AcDbEntity
  8
細線
 48
50.0
100
AcDbLine
 10
4383.189423619478
 20
4175.724067236468
 30
0.0
 11
4383.189423619482
 21
2385.724067236474
 31
0.0
  0
LINE
  5
1A645
330
747D
100
AcDbEntity
  8
細線
 48
50.0
100
AcDbLine
 10
4398.189423619478
 20
4175.724067236468
 30
0.0
 11
4398.189423619482
 21
2385.724067236474
 31
0.0
  0
LINE
  5
1A646
330
747D
100
AcDbEntity
  8
細線
 48
50.0
100
AcDbLine
 10
4258.189423619478
 20
4175.724067236468
 30
0.0
 11
4258.189423619482
 21
2385.724067236474
 31
0.0
  0
LINE
  5
1A647
330
747D
100
AcDbEntity
  8
細線
 48
50.0
100
AcDbLine
 10
4243.189423619479
 20
4175.724067236468
 30
0.0
 11
4243.189423619482
 21
2385.724067236474
 31
0.0
  0
LINE
  5
1A648
330
747D
100
AcDbEntity
  8
細線
 48
50.0
100
AcDbLine
 10
4103.189423619478
 20
4175.724067236468
 30
0.0
 11
4103.189423619482
 21
2385.724067236473
 31
0.0
  0
LINE
  5
1A649
330
747D
100
AcDbEntity
  8
細線
 48
50.0
100
AcDbLine
 10
4118.189423619479
 20
4175.724067236468
 30
0.0
 11
4118.189423619482
 21
2385.724067236473
 31
0.0
  0
LINE
  5
1A64A
330
747D
100
AcDbEntity
  8
細線
 48
50.0
100
AcDbLine
 10
3698.189423619479
 20
4175.724067236468
 30
0.0
 11
3698.189423619483
 21
2385.724067236473
 31
0.0
  0
LINE
  5
1A64B
330
747D
100
AcDbEntity
  8
細線
 48
50.0
100
AcDbLine
 10
3683.189423619479
 20
4175.724067236468
 30
0.0
 11
3683.189423619483
 21
2385.724067236473
 31
0.0
  0
LINE
  5
1A64C
330
747D
100
AcDbEntity
  8
細線
 48
50.0
100
AcDbLine
 10
3823.189423619479
 20
4175.724067236468
 30
0.0
 11
3823.189423619483
 21
2385.724067236474
 31
0.0
  0
LINE
  5
1A64D
330
747D
100
AcDbEntity
  8
細線
 48
50.0
100
AcDbLine
 10
3838.189423619479
 20
4175.724067236468
 30
0.0
 11
3838.189423619482
 21
2385.724067236474
 31
0.0
  0
LINE
  5
1A64E
330
747D
100
AcDbEntity
  8
細線
 48
50.0
100
AcDbLine
 10
3978.189423619479
 20
4175.724067236468
 30
0.0
 11
3978.189423619483
 21
2385.724067236474
 31
0.0
  0
LINE
  5
1A64F
330
747D
100
AcDbEntity
  8
細線
 48
50.0
100
AcDbLine
 10
3963.189423619479
 20
4175.724067236468
 30
0.0
 11
3963.189423619482
 21
2385.724067236474
 31
0.0
  0
LINE
  5
1A650
330
747D
100
AcDbEntity
  8
部品1
100
AcDbLine
 10
6560.689423619475
 20
4175.724067236468
 30
0.0
 11
6560.689423619475
 21
4170.724067236469
 31
0.0
  0
LINE
  5
1A651
330
747D
100
AcDbEntity
  8
部品1
100
AcDbLine
 10
7085.269762604145
 20
4403.327541841231
 30
0.0
 11
7084.136365271799
 21
4383.351413858632
 31
0.0
  0
LINE
  5
1A652
330
747D
100
AcDbEntity
  8
細線
 48
50.0
100
AcDbLine
 10
7052.689423619479
 20
4410.72406723647
 30
0.0
 11
7052.689423619479
 21
4269.72406723647
 31
0.0
  0
LINE
  5
1A653
330
747D
100
AcDbEntity
  8
部品1
100
AcDbLine
 10
7072.699344950223
 20
4287.694006691572
 30
0.0
 11
7072.05443914311
 21
4276.327541841233
 31
0.0
  0
LINE
  5
1A654
330
747D
100
AcDbEntity
  8
部品1
100
AcDbLine
 10
7080.935375475066
 20
4379.894006691574
 30
0.0
 11
7075.900334746956
 21
4291.151413858631
 31
0.0
  0
ARC
  5
1A655
330
747D
100
AcDbEntity
  8
部品1
 48
50.0
100
AcDbCircle
 10
7083.930558371251
 20
4379.724067236472
 30
0.0
 40
3.0
100
AcDbArc
 50
97.65812720736377
 51
176.752657209665
  0
ARC
  5
1A656
330
747D
100
AcDbEntity
  8
部品1
 48
50.0
100
AcDbCircle
 10
7075.694527846408
 20
4287.52406723647
 30
0.0
 40
3.0
100
AcDbArc
 50
97.65812720736377
 51
176.752657209665
  0
ARC
  5
1A657
330
747D
100
AcDbEntity
  8
部品1
 48
50.0
100
AcDbCircle
 10
7075.201458737847
 20
4291.191066398154
 30
0.0
 40
0.7
100
AcDbArc
 50
277.6581272073638
 51
356.7526572097169
  0
ARC
  5
1A658
330
747D
100
AcDbEntity
  8
部品1
 48
50.0
100
AcDbCircle
 10
7083.437489262691
 20
4383.391066398157
 30
0.0
 40
0.7
100
AcDbArc
 50
277.6581272073638
 51
356.7526572096132
  0
ARC
  5
1A659
330
747D
100
AcDbEntity
  8
部品1
100
AcDbCircle
 10
7065.065679052011
 20
4276.724067236472
 30
0.0
 40
7.0
100
AcDbArc
 50
270.0
 51
356.7526572096651
  0
ARC
  5
1A65A
330
747D
100
AcDbEntity
  8
部品1
100
AcDbCircle
 10
7078.281002513046
 20
4403.72406723647
 30
0.0
 40
7.0
100
AcDbArc
 50
356.7526572096651
 51
90.0
  0
LINE
  5
1A65C
330
747D
100
AcDbEntity
  8
細線
 48
50.0
100
AcDbLine
 10
3548.689423619475
 20
4410.724067236473
 30
0.0
 11
3548.689423619475
 21
4269.724067236473
 31
0.0
  0
ARC
  5
1A65D
330
747D
100
AcDbEntity
  8
部品1
100
AcDbCircle
 10
3523.097844725905
 20
4403.724067236473
 30
0.0
 40
7.0
100
AcDbArc
 50
90.0
 51
183.2473427903349
  0
ARC
  5
1A65E
330
747D
100
AcDbEntity
  8
部品1
100
AcDbCircle
 10
3536.313168186938
 20
4276.724067236474
 30
0.0
 40
7.0
100
AcDbArc
 50
183.2473427903349
 51
270.0
  0
ARC
  5
1A65F
330
747D
100
AcDbEntity
  8
部品1
 48
50.0
100
AcDbCircle
 10
3517.941357976263
 20
4383.39106639816
 30
0.0
 40
0.7
100
AcDbArc
 50
183.2473427903867
 51
262.3418727926362
  0
ARC
  5
1A660
330
747D
100
AcDbEntity
  8
部品1
 48
50.0
100
AcDbCircle
 10
3526.177388501103
 20
4291.191066398156
 30
0.0
 40
0.7
100
AcDbArc
 50
183.247342790283
 51
262.3418727926362
  0
ARC
  5
1A661
330
747D
100
AcDbEntity
  8
部品1
 48
50.0
100
AcDbCircle
 10
3525.684319392542
 20
4287.524067236472
 30
0.0
 40
3.0
100
AcDbArc
 50
3.247342790334935
 51
82.34187279263622
  0
ARC
  5
1A662
330
747D
100
AcDbEntity
  8
部品1
 48
50.0
100
AcDbCircle
 10
3517.448288867699
 20
4379.724067236475
 30
0.0
 40
3.0
100
AcDbArc
 50
3.247342790334935
 51
82.34187279263622
  0
LINE
  5
1A663
330
747D
100
AcDbEntity
  8
部品1
100
AcDbLine
 10
3520.443471763884
 20
4379.894006691577
 30
0.0
 11
3525.478512491995
 21
4291.151413858633
 31
0.0
  0
LINE
  5
1A664
330
747D
100
AcDbEntity
  8
部品1
100
AcDbLine
 10
3528.679502288731
 20
4287.694006691576
 30
0.0
 11
3529.32440809584
 21
4276.327541841236
 31
0.0
  0
LINE
  5
1A665
330
747D
100
AcDbEntity
  8
部品1
100
AcDbLine
 10
3516.109084634806
 20
4403.327541841234
 30
0.0
 11
3517.242481967155
 21
4383.351413858634
 31
0.0
  0
LINE
  5
1A666
330
747D
100
AcDbEntity
  8
部品1
 48
50.0
100
AcDbLine
 10
7078.281002513046
 20
4410.724067236469
 30
0.0
 11
3523.097844725905
 21
4410.72406723647
 31
0.0
  0
LINE
  5
1A667
330
747D
100
AcDbEntity
  8
細線
 48
50.0
100
AcDbLine
 10
7083.530772605962
 20
4382.697309800049
 30
0.0
 11
3517.848074629889
 21
4382.69730980047
 31
0.0
  0
LINE
  5
1A668
330
747D
100
AcDbEntity
  8
細線
 48
50.0
100
AcDbLine
 10
7075.294742081132
 20
4290.497309800048
 30
0.0
 11
3526.084105154722
 21
4290.497309800468
 31
0.0
  0
LINE
  5
1A669
330
747D
100
AcDbEntity
  8
部品1
 48
50.0
100
AcDbLine
 10
7065.065679052011
 20
4269.724067236472
 30
0.0
 11
3536.313168186938
 21
4269.724067236473
 31
0.0
  0
LINE
  5
1A75A
330
747D
100
AcDbEntity
  8
部品1
100
AcDbLine
 10
4040.689423619475
 20
4175.724067236468
 30
0.0
 11
4040.689423619475
 21
2385.724067236469
 31
0.0
  0
LINE
  5
1A766
330
747D
100
AcDbEntity
  8
部品1
 48
50.0
100
AcDbLine
 10
5400.689423619475
 20
2335.724067236468
 30
0.0
 11
5400.689423619475
 21
2235.724067236468
 31
0.0
  0
LINE
  5
1A767
330
747D
100
AcDbEntity
  8
部品1
 48
50.0
100
AcDbLine
 10
5200.689423619475
 20
2335.724067236468
 30
0.0
 11
5200.689423619475
 21
2235.724067236468
 31
0.0
  0
LINE
  5
1A76F
330
747D
100
AcDbEntity
  8
部品1
 48
50.0
100
AcDbLine
 10
4368.689423619478
 20
2335.724067236469
 30
0.0
 11
4368.689423619478
 21
2235.724067236469
 31
0.0
  0
LINE
  5
1A770
330
747D
100
AcDbEntity
  8
部品1
 48
50.0
100
AcDbLine
 10
4568.689423619479
 20
2335.724067236469
 30
0.0
 11
4568.689423619479
 21
2235.724067236469
 31
0.0
  0
LINE
  5
1A7B2
330
747D
100
AcDbEntity
  8
部品1
100
AcDbLine
 10
3565.689423619475
 20
2385.724067236473
 30
0.0
 11
4433.689423619475
 21
2385.724067236476
 31
0.0
  0
DIMENSION
  5
1A7B3
330
747D
100
AcDbEntity
  8
寸法
 48
50.0
100
AcDbDimension
  2
*D35
 10
6935.689423619471
 20
1749.676737936091
 30
0.0
 11
7035.689423619473
 21
1749.676737936091
 31
0.0
 70
   160
 71
     5
 42
200.0000000000036
  3
INABA_S40G
100
AcDbAlignedDimension
 13
7135.689423619474
 23
2035.724067236468
 33
0.0
 14
6935.689423619471
 24
2035.724067236468
 34
0.0
100
AcDbRotatedDimension
  0
LINE
  5
1A7B4
330
747D
100
AcDbEntity
  8
破線
 48
5.0
100
AcDbLine
 10
3560.689423619475
 20
2235.724067236469
 30
0.0
 11
3560.689423619475
 21
2080.72406723647
 31
0.0
  0
LINE
  5
1A7B5
330
747D
100
AcDbEntity
  8
破線
 48
5.0
100
AcDbLine
 10
7040.689423619475
 20
2235.724067236469
 30
0.0
 11
7040.689423619475
 21
2080.724067236469
 31
0.0
  0
LINE
  5
1A7B6
330
747D
100
AcDbEntity
  8
破線
 48
5.0
100
AcDbLine
 10
3665.689423619475
 20
2235.724067236469
 30
0.0
 11
3665.689423619475
 21
2035.724067236469
 31
0.0
  0
LINE
  5
1A7B7
330
747D
100
AcDbEntity
  8
破線
 48
5.0
100
AcDbLine
 10
3540.689423619475
 20
2080.72406723647
 30
0.0
 11
3560.689423619479
 21
2080.72406723647
 31
0.0
  0
LINE
  5
1A7B8
330
747D
100
AcDbEntity
  8
破線
 48
5.0
100
AcDbLine
 10
3465.689423619475
 20
2235.724067236469
 30
0.0
 11
3465.689423619475
 21
2035.724067236469
 31
0.0
  0
LINE
  5
1A7B9
330
747D
100
AcDbEntity
  8
破線
 48
5.0
100
AcDbLine
 10
3465.689423619475
 20
2035.724067236469
 30
0.0
 11
3665.689423619479
 21
2035.724067236469
 31
0.0
  0
LINE
  5
1A7BA
330
747D
100
AcDbEntity
  8
部品1
100
AcDbLine
 10
3560.689423619475
 20
2380.724067236471
 30
0.0
 11
3560.689423619475
 21
2235.724067236469
 31
0.0
  0
LINE
  5
1A7BB
330
747D
100
AcDbEntity
  8
破線
 48
5.0
100
AcDbLine
 10
7060.689423619475
 20
2080.724067236469
 30
0.0
 11
7040.689423619472
 21
2080.724067236469
 31
0.0
  0
LINE
  5
1A7BC
330
747D
100
AcDbEntity
  8
破線
 48
5.0
100
AcDbLine
 10
7135.689423619474
 20
2235.724067236469
 30
0.0
 11
7135.689423619474
 21
2035.724067236468
 31
0.0
  0
LINE
  5
1A7BD
330
747D
100
AcDbEntity
  8
破線
 48
5.0
100
AcDbLine
 10
6935.689423619475
 20
2235.724067236469
 30
0.0
 11
6935.689423619475
 21
2035.724067236468
 31
0.0
  0
LINE
  5
1A7BE
330
747D
100
AcDbEntity
  8
破線
 48
5.0
100
AcDbLine
 10
7135.689423619474
 20
2035.724067236468
 30
0.0
 11
6935.689423619471
 21
2035.724067236468
 31
0.0
  0
LINE
  5
1A7BF
330
747D
100
AcDbEntity
  8
部品1
100
AcDbLine
 10
7040.689423619475
 20
2380.72406723647
 30
0.0
 11
7040.689423619475
 21
2235.724067236469
 31
0.0
  0
LINE
  5
1A7C0
330
747D
100
AcDbEntity
  8
部品1
 48
50.0
100
AcDbLine
 10
6232.689423619475
 20
2335.724067236469
 30
0.0
 11
6232.689423619475
 21
2235.724067236469
 31
0.0
  0
LINE
  5
1A7C1
330
747D
100
AcDbEntity
  8
部品1
 48
50.0
100
AcDbLine
 10
6032.689423619475
 20
2335.724067236469
 30
0.0
 11
6032.689423619475
 21
2235.724067236469
 31
0.0
  0
LINE
  5
1A7C2
330
747D
100
AcDbEntity
  8
部品1
100
AcDbLine
 10
3965.689423619475
 20
2335.724067236468
 30
0.0
 11
3965.689423619475
 21
2235.724067236469
 31
0.0
  0
LINE
  5
1A7C3
330
747D
100
AcDbEntity
  8
部品1
100
AcDbLine
 10
6635.689423619474
 20
2335.724067236468
 30
0.0
 11
6635.689423619474
 21
2235.724067236469
 31
0.0
  0
LINE
  5
1A7C4
330
747D
100
AcDbEntity
  8
部品1
100
AcDbLine
 10
7035.689423619475
 20
4269.724067236472
 30
0.0
 11
7035.689423619475
 21
2235.724067236469
 31
0.0
  0
LINE
  5
1A7C5
330
747D
100
AcDbEntity
  8
部品1
100
AcDbLine
 10
3620.689423619476
 20
4175.724067236468
 30
0.0
 11
3620.689423619476
 21
2385.724067236473
 31
0.0
  0
LINE
  5
1A7C6
330
747D
100
AcDbEntity
  8
部品1
100
AcDbLine
 10
6980.689423619475
 20
4175.724067236468
 30
0.0
 11
6980.689423619475
 21
2385.724067236489
 31
0.0
  0
LINE
  5
1A7C7
330
747D
100
AcDbEntity
  8
部品1
100
AcDbLine
 10
3565.689423619475
 20
4269.724067236473
 30
0.0
 11
3565.689423619475
 21
2235.724067236469
 31
0.0
  0
LINE
  5
1A7C8
330
747D
100
AcDbEntity
  8
部品1
100
AcDbLine
 10
3565.689423619475
 20
4175.724067236468
 30
0.0
 11
7035.689423619475
 21
4175.724067236468
 31
0.0
  0
LINE
  5
1A7C9
330
747D
100
AcDbEntity
  8
部品1
100
AcDbLine
 10
3565.689423619475
 20
2335.724067236469
 30
0.0
 11
7035.689423619475
 21
2335.724067236469
 31
0.0
  0
LINE
  5
1AD21
330
747D
100
AcDbEntity
  8
部品1
100
AcDbLine
 10
10348.55170549079
 20
2335.724067236471
 30
0.0
 11
10348.55170549079
 21
2235.724067236469
 31
0.0
  0
LINE
  5
1AD22
330
747D
100
AcDbEntity
  8
部品1
 48
50.0
100
AcDbLine
 10
10957.55170549079
 20
2335.724067236471
 30
0.0
 11
10957.55170549079
 21
2235.724067236471
 31
0.0
  0
LINE
  5
1AD23
330
747D
100
AcDbEntity
  8
部品1
 48
50.0
100
AcDbLine
 10
11157.55170549079
 20
2335.724067236471
 30
0.0
 11
11157.55170549079
 21
2235.724067236471
 31
0.0
  0
LINE
  5
1AD24
330
747D
100
AcDbEntity
  8
部品1
 48
50.0
100
AcDbLine
 10
11769.55170549079
 20
2335.724067236471
 30
0.0
 11
11769.55170549079
 21
2235.724067236471
 31
0.0
  0
LINE
  5
1AD25
330
747D
100
AcDbEntity
  8
部品1
 48
50.0
100
AcDbLine
 10
11969.55170549079
 20
2335.724067236471
 30
0.0
 11
11969.55170549079
 21
2235.724067236471
 31
0.0
  0
LINE
  5
1AD26
330
747D
100
AcDbEntity
  8
部品1
100
AcDbLine
 10
12578.55170549079
 20
2335.724067236471
 30
0.0
 11
12578.55170549079
 21
2235.724067236471
 31
0.0
  0
MTEXT
  5
1AD40
330
747D
100
AcDbEntity
  8
寸法
 62
     7
 48
50.0
100
AcDbMText
 10
4140.969221230086
 20
9655.522814960132
 30
0.0
 40
96.0
 41
0.0
 71
     5
 72
     1
  1
棚 2段
  7
STYLE1
 73
     1
 44
1.0
1001
ACAD
1000
MTEXTBEGIN
1070
    73
1070
     1
1070
    44
1040
1.0
1070
    74
1070
     0
1000
MTEXTEND
  0
MTEXT
  5
1AD46
330
747D
100
AcDbEntity
  8
寸法
 62
     7
 48
50.0
100
AcDbMText
 10
5315.969221230088
 20
9655.522814960185
 30
0.0
 40
96.0
 41
0.0
 71
     5
 72
     1
  1
棚 2段
  7
STYLE1
 73
     1
 44
1.0
1001
ACAD
1000
MTEXTBEGIN
1070
    73
1070
     1
1070
    44
1040
1.0
1070
    74
1070
     0
1000
MTEXTEND
  0
MTEXT
  5
1AD4C
330
747D
100
AcDbEntity
  8
寸法
 62
     7
 48
50.0
100
AcDbMText
 10
6490.969221230122
 20
9655.522814960207
 30
0.0
 40
96.0
 41
0.0
 71
     5
 72
     1
  1
棚 2段
  7
STYLE1
 73
     1
 44
1.0
1001
ACAD
1000
MTEXTBEGIN
1070
    73
1070
     1
1070
    44
1040
1.0
1070
    74
1070
     0
1000
MTEXTEND
  0
LWPOLYLINE
  5
1ADAE
330
747D
100
AcDbEntity
  8
部品1
 48
50.0
100
AcDbPolyline
 90
        4
 70
     1
 43
0.0
 10
4532.739423619474
 20
3231.974067236469
 10
4535.639423619476
 20
3231.974067236469
 10
4535.639423619476
 20
3241.474067236469
 10
4532.739423619474
 20
3241.474067236469
  0
CIRCLE
  5
1ADAF
330
747D
100
AcDbEntity
  8
部品1
 48
50.0
100
AcDbCircle
 10
4534.189423619475
 20
3236.724067236469
 30
0.0
 40
9.0
  0
ARC
  5
1ADB0
330
747D
100
AcDbEntity
  8
細線
 48
50.0
100
AcDbCircle
 10
4534.189423619475
 20
3236.724067236469
 30
0.0
 40
4.0
100
AcDbArc
 50
111.2538091853132
 51
248.7461908146868
  0
ARC
  5
1ADB1
330
747D
100
AcDbEntity
  8
細線
 48
50.0
100
AcDbCircle
 10
4534.189423619475
 20
3236.724067236469
 30
0.0
 40
17.5
100
AcDbArc
 50
306.4837370612677
 51
233.5162629387323
  0
LINE
  5
1ADB2
330
747D
100
AcDbEntity
  8
細線
 48
50.0
100
AcDbLine
 10
4544.189423619471
 20
3212.865106655586
 30
0.0
 11
4544.189423619474
 21
3221.849592455828
 31
0.0
  0
LINE
  5
1ADB3
330
747D
100
AcDbEntity
  8
細線
 48
50.0
100
AcDbLine
 10
4524.189423619474
 20
3212.865106655588
 30
0.0
 11
4524.189423619474
 21
3221.849592455824
 31
0.0
  0
ARC
  5
1ADB4
330
747D
100
AcDbEntity
  8
細線
 48
50.0
100
AcDbCircle
 10
4534.189423619475
 20
3236.724067236469
 30
0.0
 40
26.5
100
AcDbArc
 50
249.3326835063939
 51
290.6673164933835
  0
ARC
  5
1ADB5
330
747D
100
AcDbEntity
  8
細線
 48
50.0
100
AcDbCircle
 10
4543.189423619468
 20
3212.865106655586
 30
0.0
 40
1.0
100
AcDbArc
 50
290.6673164936062
 51
359.9999999998958
  0
ARC
  5
1ADB6
330
747D
100
AcDbEntity
  8
細線
 48
50.0
100
AcDbCircle
 10
4525.189423619475
 20
3212.865106655588
 30
0.0
 40
1.0
100
AcDbArc
 50
180.0
 51
249.3326835066164
  0
ARC
  5
1ADB7
330
747D
100
AcDbEntity
  8
細線
 48
50.0
100
AcDbCircle
 10
4523.189423619474
 20
3221.849592455824
 30
0.0
 40
1.0
100
AcDbArc
 50
0.0
 51
53.51626293873231
  0
ARC
  5
1ADB8
330
747D
100
AcDbEntity
  8
細線
 48
50.0
100
AcDbCircle
 10
4545.189423619478
 20
3221.849592455828
 30
0.0
 40
1.0
100
AcDbArc
 50
126.4837370615127
 51
180.0
  0
ARC
  5
1ADB9
330
747D
100
AcDbEntity
  8
細線
 48
50.0
100
AcDbCircle
 10
4534.189423619475
 20
3236.724067236469
 30
0.0
 40
21.5
100
AcDbArc
 50
255.8014401250294
 51
284.1985598749706
  0
ARC
  5
1ADBA
330
747D
100
AcDbEntity
  8
細線
 48
50.0
100
AcDbCircle
 10
4534.189423619475
 20
3236.724067236469
 30
0.0
 40
16.5
100
AcDbArc
 50
251.9694646069326
 51
288.0305353930674
  0
LINE
  5
1ADBB
330
747D
100
AcDbEntity
  8
細線
 48
50.0
100
AcDbLine
 10
4539.689423619474
 20
3216.171695110662
 30
0.0
 11
4539.689423619474
 21
3220.749086797999
 31
0.0
  0
LINE
  5
1ADBC
330
747D
100
AcDbEntity
  8
細線
 48
50.0
100
AcDbLine
 10
4528.689423619474
 20
3216.171695110662
 30
0.0
 11
4528.689423619474
 21
3220.749086797997
 31
0.0
  0
ARC
  5
1ADBD
330
747D
100
AcDbEntity
  8
細線
 48
50.0
100
AcDbCircle
 10
4528.989423619477
 20
3220.749086797997
 30
0.0
 40
0.3
100
AcDbArc
 50
71.96946460693259
 51
180.0
  0
ARC
  5
1ADBE
330
747D
100
AcDbEntity
  8
細線
 48
50.0
100
AcDbCircle
 10
4539.389423619475
 20
3220.749086797999
 30
0.0
 40
0.3
100
AcDbArc
 50
0.0
 51
108.0305353930674
  0
ARC
  5
1ADBF
330
747D
100
AcDbEntity
  8
細線
 48
50.0
100
AcDbCircle
 10
4539.389423619471
 20
3216.171695110662
 30
0.0
 40
0.3
100
AcDbArc
 50
284.1985598747622
 51
0.0000000001042204
  0
ARC
  5
1ADC0
330
747D
100
AcDbEntity
  8
細線
 48
50.0
100
AcDbCircle
 10
4528.989423619477
 20
3216.171695110662
 30
0.0
 40
0.3
100
AcDbArc
 50
180.0
 51
255.8014401248081
  0
CIRCLE
  5
1ADC1
330
747D
100
AcDbEntity
  8
細線
 48
50.0
100
AcDbCircle
 10
4534.189423619475
 20
3236.724067236469
 30
0.0
 40
12.0
  0
ARC
  5
1ADC2
330
747D
100
AcDbEntity
  8
部品1
 48
50.0
100
AcDbCircle
 10
4534.189423619475
 20
3286.724067236469
 30
0.0
 40
8.5
100
AcDbArc
 50
114.315739171091
 51
245.684260828909
  0
CIRCLE
  5
1ADC3
330
747D
100
AcDbEntity
  8
細線
 48
50.0
100
AcDbCircle
 10
4534.189423619475
 20
3286.724067236469
 30
0.0
 40
4.5
  0
LWPOLYLINE
  5
1ADC4
330
747D
100
AcDbEntity
  8
部品1
 48
50.0
100
AcDbPolyline
 90
        2
 70
     0
 43
0.0
 10
4530.689423619475
 20
3305.398916633452
 10
4530.689423619475
 20
3294.470033928884
  0
CIRCLE
  5
1ADC5
330
747D
100
AcDbEntity
  8
部品1
 48
50.0
100
AcDbCircle
 10
4534.189423619475
 20
3286.724067236469
 30
0.0
 40
19.0
  0
LWPOLYLINE
  5
1ADC6
330
747D
100
AcDbEntity
  8
部品1
 48
50.0
100
AcDbPolyline
 90
        2
 70
     0
 43
0.0
 10
4530.689423619475
 20
3278.978100544054
 10
4530.689423619475
 20
3268.049217839486
  0
LWPOLYLINE
  5
1ADC7
330
747D
100
AcDbEntity
  8
部品1
 48
50.0
100
AcDbPolyline
 90
        2
 70
     0
 43
0.0
 10
4537.689423619474
 20
3294.470033928884
 10
4537.689423619474
 20
3305.398916633452
  0
ARC
  5
1ADC8
330
747D
100
AcDbEntity
  8
部品1
 48
50.0
100
AcDbCircle
 10
4534.189423619475
 20
3286.724067236469
 30
0.0
 40
8.5
100
AcDbArc
 50
294.315739171091
 51
65.68426082890896
  0
LWPOLYLINE
  5
1ADC9
330
747D
100
AcDbEntity
  8
部品1
 48
50.0
100
AcDbPolyline
 90
        2
 70
     0
 43
0.0
 10
4537.689423619474
 20
3268.049217839486
 10
4537.689423619474
 20
3278.978100544054
  0
ARC
  5
1ADCA
330
747D
100
AcDbEntity
  8
細線
 48
50.0
100
AcDbCircle
 10
4534.189423619475
 20
3286.724067236469
 30
0.0
 40
16.5
100
AcDbArc
 50
332.0012352654438
 51
27.99876473455621
  0
ARC
  5
1ADCB
330
747D
100
AcDbEntity
  8
細線
 48
50.0
100
AcDbCircle
 10
4534.189423619475
 20
3286.724067236469
 30
0.0
 40
14.0
100
AcDbArc
 50
326.4074436112986
 51
33.59255638870134
  0
LINE
  5
1ADCC
330
747D
100
AcDbEntity
  8
細線
 48
50.0
100
AcDbLine
 10
4519.620621335143
 20
3294.470033928884
 30
0.0
 11
4522.527519829785
 21
3294.470033928884
 31
0.0
  0
LINE
  5
1ADCD
330
747D
100
AcDbEntity
  8
細線
 48
50.0
100
AcDbLine
 10
4519.620621335143
 20
3278.978100544054
 30
0.0
 11
4522.527519829785
 21
3278.978100544054
 31
0.0
  0
LINE
  5
1ADCE
330
747D
100
AcDbEntity
  8
細線
 48
50.0
100
AcDbLine
 10
4545.851327409163
 20
3294.470033928884
 30
0.0
 11
4548.758225903809
 21
3294.470033928884
 31
0.0
  0
LINE
  5
1ADCF
330
747D
100
AcDbEntity
  8
細線
 48
50.0
100
AcDbLine
 10
4545.851327409163
 20
3278.978100544054
 30
0.0
 11
4548.758225903809
 21
3278.978100544054
 31
0.0
  0
ARC
  5
1ADD0
330
747D
100
AcDbEntity
  8
細線
 48
50.0
100
AcDbCircle
 10
4534.189423619475
 20
3286.724067236469
 30
0.0
 40
14.0
100
AcDbArc
 50
146.4074436112986
 51
213.5925563887013
  0
ARC
  5
1ADD1
330
747D
100
AcDbEntity
  8
細線
 48
50.0
100
AcDbCircle
 10
4534.189423619475
 20
3286.724067236469
 30
0.0
 40
16.5
100
AcDbArc
 50
152.0012352654438
 51
207.9987647345562
  0
ARC
  5
1ADD2
330
747D
100
AcDbEntity
  8
部品1
 48
50.0
100
AcDbCircle
 10
4507.689423619474
 20
3312.224067236469
 30
0.0
 40
5.0
100
AcDbArc
 50
90.0
 51
180.0
  0
ARC
  5
1ADD3
330
747D
100
AcDbEntity
  8
部品1
 48
50.0
100
AcDbCircle
 10
4507.689423619474
 20
3201.224067236469
 30
0.0
 40
5.0
100
AcDbArc
 50
180.0
 51
270.0
  0
ARC
  5
1ADD4
330
747D
100
AcDbEntity
  8
部品1
 48
50.0
100
AcDbCircle
 10
4560.689423619474
 20
3201.224067236469
 30
0.0
 40
5.0
100
AcDbArc
 50
270.0
 51
0.0
  0
ARC
  5
1ADD5
330
747D
100
AcDbEntity
  8
部品1
 48
50.0
100
AcDbCircle
 10
4560.689423619474
 20
3312.224067236469
 30
0.0
 40
5.0
100
AcDbArc
 50
0.0
 51
90.0
  0
LINE
  5
1ADD6
330
747D
100
AcDbEntity
  8
部品1
 48
50.0
100
AcDbLine
 10
4502.689423619474
 20
3201.224067236469
 30
0.0
 11
4502.689423619474
 21
3312.224067236469
 31
0.0
  0
LINE
  5
1ADD7
330
747D
100
AcDbEntity
  8
部品1
 48
50.0
100
AcDbLine
 10
4560.689423619474
 20
3196.224067236469
 30
0.0
 11
4507.689423619474
 21
3196.224067236469
 31
0.0
  0
LINE
  5
1ADD8
330
747D
100
AcDbEntity
  8
部品1
 48
50.0
100
AcDbLine
 10
4565.689423619475
 20
3312.224067236469
 30
0.0
 11
4565.689423619475
 21
3201.224067236469
 31
0.0
  0
ENDSEC
  0
SECTION
  2
OBJECTS
  0
DICTIONARY
  5
7471
330
0
100
AcDbDictionary
281
     1
  3
ACAD_COLOR
350
182E7
  3
ACAD_GROUP
350
7472
  3
ACAD_LAYOUT
350
182E8
  3
ACAD_MATERIAL
350
182E6
  3
ACAD_MLINESTYLE
350
7473
  3
ACAD_PLOTSETTINGS
350
182E9
  3
ACAD_PLOTSTYLENAME
350
182E4
  3
ACDBHEADERROUNDTRIPXREC
350
1ADE7
  3
AcDbVariableDictionary
350
1ADE3
  3
CONTENTDICTIONARY
350
E71C
  3
DRAWINGVARIABLESDICT
350
F3B9
  0
DICTIONARY
  5
18488
330
7467
100
AcDbDictionary
280
     1
281
     1
  3
ACAD_LAYERSTATES
360
18489
  0
DICTIONARY
  5
182E7
102
{ACAD_REACTORS
330
7471
102
}
330
7471
100
AcDbDictionary
281
     1
  0
DICTIONARY
  5
7472
102
{ACAD_REACTORS
330
7471
102
}
330
7471
100
AcDbDictionary
281
     1
  3
*A1
350
1AAB8
  3
*A2
350
1AC2D
  0
DICTIONARY
  5
182E8
102
{ACAD_REACTORS
330
7471
102
}
330
7471
100
AcDbDictionary
281
     1
  3
Model
350
182EA
  3
レイアウト1
350
182EB
  0
DICTIONARY
  5
182E6
102
{ACAD_REACTORS
330
7471
102
}
330
7471
100
AcDbDictionary
281
     1
  0
DICTIONARY
  5
7473
102
{ACAD_REACTORS
330
7471
102
}
330
7471
100
AcDbDictionary
281
     1
  3
STANDARD
350
7480
  0
DICTIONARY
  5
182E9
102
{ACAD_REACTORS
330
7471
102
}
330
7471
100
AcDbDictionary
281
     1
  0
ACDBDICTIONARYWDFLT
  5
182E4
102
{ACAD_REACTORS
330
7471
102
}
330
7471
100
AcDbDictionary
281
     1
  3
Normal
350
182E5
100
AcDbDictionaryWithDefault
340
182E5
  0
DICTIONARY
  5
1ADE7
102
{ACAD_REACTORS
330
7471
102
}
330
7471
100
AcDbDictionary
281
     1
  3
COLORDICT
350
1ADE9
  3
MATERIALDICT
350
1ADE8
  0
DICTIONARY
  5
1ADE3
102
{ACAD_REACTORS
330
7471
102
}
330
7471
100
AcDbDictionary
281
     1
  3
DIMASSOC
350
1ADE4
  3
PROJECTNAME
350
1ADE5
  0
DICTIONARY
  5
E71C
102
{ACAD_REACTORS
330
7471
102
}
330
7471
100
AcDbDictionary
281
     1
  0
DICTIONARY
  5
F3B9
102
{ACAD_REACTORS
330
7471
102
}
330
7471
100
AcDbDictionary
281
     1
1001
DRAWINGVARIABLESXDATA
1000
POLARMODE
1000
1
  0
DICTIONARY
  5
18489
102
{ACAD_REACTORS
330
18488
102
}
330
18488
100
AcDbDictionary
281
     1
  0
GROUP
  5
1AAB8
102
{ACAD_REACTORS
330
7472
102
}
330
7472
100
AcDbGroup
300

 70
     1
 71
     1
  0
GROUP
  5
1AC2D
102
{ACAD_REACTORS
330
7472
102
}
330
7472
100
AcDbGroup
300

 70
     1
 71
     1
  0
LAYOUT
  5
182EA
102
{ACAD_XDICTIONARY
360
1ADEA
102
}
102
{ACAD_REACTORS
330
182E8
102
}
330
182E8
100
AcDbPlotSettings
  1

  2
Microsoft Office Document Image Writer
  4

  6

 40
0.0
 41
0.0
 42
0.0
 43
0.0
 44
0.0
 45
0.0
 46
0.0
 47
0.0
 48
0.0
 49
0.0
140
0.0
141
0.0
142
1.0
143
1.0
 70
  1712
 72
     0
 73
     0
 74
     0
  7

 75
     0
147
1.0
148
0.0
149
0.0
100
AcDbLayout
  1
Model
 70
     1
 71
     0
 10
0.0
 20
0.0
 11
12.0
 21
9.0
 12
0.0
 22
0.0
 32
0.0
 14
0.0
 24
0.0
 34
0.0
 15
0.0
 25
0.0
 35
0.0
146
0.0
 13
0.0
 23
0.0
 33
0.0
 16
1.0
 26
0.0
 36
0.0
 17
0.0
 27
1.0
 37
0.0
 76
     0
330
747D
  0
LAYOUT
  5
182EB
102
{ACAD_XDICTIONARY
360
1ADEC
102
}
102
{ACAD_REACTORS
330
182E8
102
}
330
182E8
100
AcDbPlotSettings
  1

  2
Microsoft Office Document Image Writer
  4

  6

 40
0.0
 41
0.0
 42
0.0
 43
0.0
 44
0.0
 45
0.0
 46
0.0
 47
0.0
 48
0.0
 49
0.0
140
0.0
141
0.0
142
1.0
143
1.0
 70
   688
 72
     0
 73
     0
 74
     5
  7

 75
    16
147
1.0
148
0.0
149
0.0
100
AcDbLayout
  1
レイアウト1
 70
     0
 71
     1
 10
0.0
 20
0.0
 11
420.0
 21
297.0
 12
0.0
 22
0.0
 32
0.0
 14
1.000000000000000E+20
 24
1.000000000000000E+20
 34
1.000000000000000E+20
 15
-1.000000000000000E+20
 25
-1.000000000000000E+20
 35
-1.000000000000000E+20
146
0.0
 13
0.0
 23
0.0
 33
0.0
 16
1.0
 26
0.0
 36
0.0
 17
0.0
 27
1.0
 37
0.0
 76
     0
330
747A
  0
MLINESTYLE
  5
7480
102
{ACAD_REACTORS
330
7473
102
}
330
7473
100
AcDbMlineStyle
  2
STANDARD
 70
     0
  3

 62
     0
 51
90.0
 52
90.0
 71
     2
 49
0.5
 62
   256
  6
BYLAYER
 49
-0.5
 62
   256
  6
BYLAYER
  0
ACDBPLACEHOLDER
  5
182E5
102
{ACAD_REACTORS
330
182E4
102
}
330
182E4
  0
XRECORD
  5
1ADE9
102
{ACAD_REACTORS
330
1ADE7
102
}
330
1ADE7
100
AcDbXrecord
280
     1
340
182E7
  0
XRECORD
  5
1ADE8
102
{ACAD_REACTORS
330
1ADE7
102
}
330
1ADE7
100
AcDbXrecord
280
     1
340
182E6
  0
DICTIONARYVAR
  5
1ADE4
102
{ACAD_REACTORS
330
1ADE3
102
}
330
1ADE3
100
DictionaryVariables
280
     0
  1
1
  0
DICTIONARYVAR
  5
1ADE5
102
{ACAD_REACTORS
330
1ADE3
102
}
330
1ADE3
100
DictionaryVariables
280
     0
  1

  0
DICTIONARY
  5
1ADEA
330
182EA
100
AcDbDictionary
280
     1
281
     1
  3
ACAD_XREC_ROUNDTRIP
360
1ADEB
  0
DICTIONARY
  5
1ADEC
330
182EB
100
AcDbDictionary
280
     1
281
     1
  3
ACAD_XREC_ROUNDTRIP
360
1ADED
  0
XRECORD
  5
1ADEB
102
{ACAD_REACTORS
330
1ADEA
102
}
330
1ADEA
100
AcDbXrecord
280
     1
102
SHADEPLOT
 70
     0
102
SHADEPLOTRESLEVEL
 70
     2
102
SHADEPLOTCUSTOMDPI
 70
   300
  0
XRECORD
  5
1ADED
102
{ACAD_REACTORS
330
1ADEC
102
}
330
1ADEC
100
AcDbXrecord
280
     1
102
SHADEPLOT
 70
     0
102
SHADEPLOTRESLEVEL
 70
     2
102
SHADEPLOTCUSTOMDPI
 70
   300
  0
ENDSEC
  0
EOF
