  0
SECTION
  2
HEADER
  9
$ACADVER
  1
AC1015
  9
$ACADMAINTVER
 70
    20
  9
$DWGCODEPAGE
  3
ANSI_932
  9
$INSBASE
 10
0.0
 20
0.0
 30
0.0
  9
$EXTMIN
 10
139.9999999999995
 20
-0.0000000000000909
 30
0.0
  9
$EXTMAX
 10
16307.2
 20
11409.6
 30
0.0
  9
$LIMMIN
 10
0.0
 20
0.0
  9
$LIMMAX
 10
16800.0
 20
11880.0
  9
$ORTHOMODE
 70
     0
  9
$REGENMODE
 70
     1
  9
$FILLMODE
 70
     1
  9
$QTEXTMODE
 70
     0
  9
$MIRRTEXT
 70
     1
  9
$LTSCALE
 40
20.0
  9
$ATTMODE
 70
     1
  9
$TEXTSIZE
 40
4.0
  9
$TRACEWID
 40
1.0
  9
$TEXTSTYLE
  7
STYLE1
  9
$CLAYER
  8
部品1
  9
$CELTYPE
  6
BYLAYER
  9
$CECOLOR
 62
   256
  9
$CELTSCALE
 40
50.0
  9
$DISPSILH
 70
     0
  9
$DIMSCALE
 40
40.0
  9
$DIMASZ
 40
2.5
  9
$DIMEXO
 40
0.5
  9
$DIMDLI
 40
7.0
  9
$DIMRND
 40
0.0
  9
$DIMDLE
 40
0.0
  9
$DIMEXE
 40
1.5
  9
$DIMTP
 40
0.0
  9
$DIMTM
 40
0.0
  9
$DIMTXT
 40
3.0
  9
$DIMCEN
 40
0.0
  9
$DIMTSZ
 40
0.0
  9
$DIMTOL
 70
     0
  9
$DIMLIM
 70
     0
  9
$DIMTIH
 70
     0
  9
$DIMTOH
 70
     0
  9
$DIMSE1
 70
     0
  9
$DIMSE2
 70
     0
  9
$DIMTAD
 70
     3
  9
$DIMZIN
 70
     8
  9
$DIMBLK
  1

  9
$DIMASO
 70
     1
  9
$DIMSHO
 70
     1
  9
$DIMPOST
  1

  9
$DIMAPOST
  1

  9
$DIMALT
 70
     0
  9
$DIMALTD
 70
     2
  9
$DIMALTF
 40
0.0394
  9
$DIMLFAC
 40
1.0
  9
$DIMTOFL
 70
     1
  9
$DIMTVP
 40
0.0
  9
$DIMTIX
 70
     1
  9
$DIMSOXD
 70
     0
  9
$DIMSAH
 70
     1
  9
$DIMBLK1
  1
DOTSMALL
  9
$DIMBLK2
  1
DOTSMALL
  9
$DIMSTYLE
  2
INABA_S40G
  9
$DIMCLRD
 70
     0
  9
$DIMCLRE
 70
     0
  9
$DIMCLRT
 70
     7
  9
$DIMTFAC
 40
1.0
  9
$DIMGAP
 40
1.0
  9
$DIMJUST
 70
     0
  9
$DIMSD1
 70
     0
  9
$DIMSD2
 70
     0
  9
$DIMTOLJ
 70
     1
  9
$DIMTZIN
 70
     0
  9
$DIMALTZ
 70
     0
  9
$DIMALTTZ
 70
     0
  9
$DIMUPT
 70
     0
  9
$DIMDEC
 70
     1
  9
$DIMTDEC
 70
     4
  9
$DIMALTU
 70
     2
  9
$DIMALTTD
 70
     2
  9
$DIMTXSTY
  7
STYLE1
  9
$DIMAUNIT
 70
     0
  9
$DIMADEC
 70
     0
  9
$DIMALTRND
 40
0.0
  9
$DIMAZIN
 70
     0
  9
$DIMDSEP
 70
    46
  9
$DIMATFIT
 70
     3
  9
$DIMFRAC
 70
     0
  9
$DIMLDRBLK
  1

  9
$DIMLUNIT
 70
     2
  9
$DIMLWD
 70
    -2
  9
$DIMLWE
 70
    -2
  9
$DIMTMOVE
 70
     0
  9
$LUNITS
 70
     2
  9
$LUPREC
 70
     1
  9
$SKETCHINC
 40
1.0
  9
$FILLETRAD
 40
3.0
  9
$AUNITS
 70
     0
  9
$AUPREC
 70
     0
  9
$MENU
  1
acad
  9
$ELEVATION
 40
0.0
  9
$PELEVATION
 40
0.0
  9
$THICKNESS
 40
0.0
  9
$LIMCHECK
 70
     0
  9
$CHAMFERA
 40
0.0
  9
$CHAMFERB
 40
0.0
  9
$CHAMFERC
 40
0.0
  9
$CHAMFERD
 40
0.0
  9
$SKPOLY
 70
     0
  9
$TDCREATE
 40
2451368.612993866
  9
$TDUCREATE
 40
2451368.237993866
  9
$TDUPDATE
 40
2455575.686569364
  9
$TDUUPDATE
 40
2455575.311569363
  9
$TDINDWG
 40
0.7651736921
  9
$TDUSRTIMER
 40
0.7651736921
  9
$USRTIMER
 70
     1
  9
$ANGBASE
 50
0.0
  9
$ANGDIR
 70
     0
  9
$PDMODE
 70
     3
  9
$PDSIZE
 40
2.0
  9
$PLINEWID
 40
0.0
  9
$SPLFRAME
 70
     0
  9
$SPLINETYPE
 70
     6
  9
$SPLINESEGS
 70
     8
  9
$HANDSEED
  5
1B1A1
  9
$SURFTAB1
 70
     6
  9
$SURFTAB2
 70
     6
  9
$SURFTYPE
 70
     6
  9
$SURFU
 70
     6
  9
$SURFV
 70
     6
  9
$UCSBASE
  2

  9
$UCSNAME
  2

  9
$UCSORG
 10
0.0
 20
0.0
 30
0.0
  9
$UCSXDIR
 10
1.0
 20
0.0
 30
0.0
  9
$UCSYDIR
 10
0.0
 20
1.0
 30
0.0
  9
$UCSORTHOREF
  2

  9
$UCSORTHOVIEW
 70
     0
  9
$UCSORGTOP
 10
0.0
 20
0.0
 30
0.0
  9
$UCSORGBOTTOM
 10
0.0
 20
0.0
 30
0.0
  9
$UCSORGLEFT
 10
0.0
 20
0.0
 30
0.0
  9
$UCSORGRIGHT
 10
0.0
 20
0.0
 30
0.0
  9
$UCSORGFRONT
 10
0.0
 20
0.0
 30
0.0
  9
$UCSORGBACK
 10
0.0
 20
0.0
 30
0.0
  9
$PUCSBASE
  2

  9
$PUCSNAME
  2

  9
$PUCSORG
 10
0.0
 20
0.0
 30
0.0
  9
$PUCSXDIR
 10
1.0
 20
0.0
 30
0.0
  9
$PUCSYDIR
 10
0.0
 20
1.0
 30
0.0
  9
$PUCSORTHOREF
  2

  9
$PUCSORTHOVIEW
 70
     0
  9
$PUCSORGTOP
 10
0.0
 20
0.0
 30
0.0
  9
$PUCSORGBOTTOM
 10
0.0
 20
0.0
 30
0.0
  9
$PUCSORGLEFT
 10
0.0
 20
0.0
 30
0.0
  9
$PUCSORGRIGHT
 10
0.0
 20
0.0
 30
0.0
  9
$PUCSORGFRONT
 10
0.0
 20
0.0
 30
0.0
  9
$PUCSORGBACK
 10
0.0
 20
0.0
 30
0.0
  9
$USERI1
 70
     0
  9
$USERI2
 70
     0
  9
$USERI3
 70
     0
  9
$USERI4
 70
     0
  9
$USERI5
 70
     0
  9
$USERR1
 40
0.0
  9
$USERR2
 40
0.0
  9
$USERR3
 40
0.0
  9
$USERR4
 40
0.0
  9
$USERR5
 40
0.0
  9
$WORLDVIEW
 70
     1
  9
$SHADEDGE
 70
     3
  9
$SHADEDIF
 70
    70
  9
$TILEMODE
 70
     1
  9
$MAXACTVP
 70
    16
  9
$PINSBASE
 10
0.0
 20
0.0
 30
0.0
  9
$PLIMCHECK
 70
     0
  9
$PEXTMIN
 10
1.000000000000000E+20
 20
1.000000000000000E+20
 30
1.000000000000000E+20
  9
$PEXTMAX
 10
-1.000000000000000E+20
 20
-1.000000000000000E+20
 30
-1.000000000000000E+20
  9
$PLIMMIN
 10
0.0
 20
0.0
  9
$PLIMMAX
 10
420.0
 20
297.0
  9
$UNITMODE
 70
     0
  9
$VISRETAIN
 70
     0
  9
$PLINEGEN
 70
     0
  9
$PSLTSCALE
 70
     0
  9
$TREEDEPTH
 70
  3020
  9
$CMLSTYLE
  2
STANDARD
  9
$CMLJUST
 70
     0
  9
$CMLSCALE
 40
1.0
  9
$PROXYGRAPHICS
 70
     1
  9
$MEASUREMENT
 70
     1
  9
$CELWEIGHT
370
    -1
  9
$ENDCAPS
280
     0
  9
$JOINSTYLE
280
     0
  9
$LWDISPLAY
290
     0
  9
$INSUNITS
 70
     0
  9
$HYPERLINKBASE
  1

  9
$STYLESHEET
  1

  9
$XEDIT
290
     1
  9
$CEPSNTYPE
380
     0
  9
$PSTYLEMODE
290
     1
  9
$FINGERPRINTGUID
  2
{050B1D86-8D44-4F68-AE13-D622226A3B68}
  9
$VERSIONGUID
  2
{B799A0BB-F756-417A-8605-A0E4AAC81740}
  9
$EXTNAMES
290
     1
  9
$PSVPSCALE
 40
0.0
  9
$OLESTARTUP
290
     0
  0
ENDSEC
  0
SECTION
  2
CLASSES
  0
CLASS
  1
ACDBDICTIONARYWDFLT
  2
AcDbDictionaryWithDefault
  3
ObjectDBX Classes
 90
        0
280
     0
281
     0
  0
CLASS
  1
DICTIONARYVAR
  2
AcDbDictionaryVar
  3
ObjectDBX Classes
 90
        0
280
     0
281
     0
  0
CLASS
  1
ACDBPLACEHOLDER
  2
AcDbPlaceHolder
  3
ObjectDBX Classes
 90
        0
280
     0
281
     0
  0
CLASS
  1
LAYOUT
  2
AcDbLayout
  3
ObjectDBX Classes
 90
        0
280
     0
281
     0
  0
ENDSEC
  0
SECTION
  2
TABLES
  0
TABLE
  2
VPORT
  5
746D
330
0
100
AcDbSymbolTable
 70
     2
  0
VPORT
  5
1B199
330
746D
100
AcDbSymbolTableRecord
100
AcDbViewportTableRecord
  2
*Active
 70
     0
 10
0.0
 20
0.0
 11
1.0
 21
1.0
 12
8223.761025238502
 22
6348.703162895247
 13
0.0
 23
0.0
 14
10.0
 24
10.0
 15
10.0
 25
10.0
 16
0.0
 26
0.0
 36
1.0
 17
0.0
 27
0.0
 37
0.0
 40
12805.60689082044
 41
1.525925925925925
 42
50.0
 43
0.0
 44
0.0
 50
0.0
 51
0.0
 71
     0
 72
     0
 73
     1
 74
     0
 75
     0
 76
     0
 77
     0
 78
     0
281
     0
 65
     1
110
0.0
120
0.0
130
0.0
111
1.0
121
0.0
131
0.0
112
0.0
122
1.0
132
0.0
 79
     0
146
0.0
  0
ENDTAB
  0
TABLE
  2
LTYPE
  5
746A
330
0
100
AcDbSymbolTable
 70
     4
  0
LTYPE
  5
7477
330
746A
100
AcDbSymbolTableRecord
100
AcDbLinetypeTableRecord
  2
BYBLOCK
 70
     0
  3

 72
    65
 73
     0
 40
0.0
  0
LTYPE
  5
7478
330
746A
100
AcDbSymbolTableRecord
100
AcDbLinetypeTableRecord
  2
BYLAYER
 70
     0
  3

 72
    65
 73
     0
 40
0.0
  0
LTYPE
  5
7479
330
746A
100
AcDbSymbolTableRecord
100
AcDbLinetypeTableRecord
  2
CONTINUOUS
 70
     0
  3
Solid line
 72
    65
 73
     0
 40
0.0
  0
LTYPE
  5
7816
330
746A
100
AcDbSymbolTableRecord
100
AcDbLinetypeTableRecord
  2
CENTER
 70
     0
  3
____ _ ____ _ ____ _ ____ _ ____ _ ____ _ ____ 
 72
    65
 73
     4
 40
2.0
 49
1.25
 74
     0
 49
-0.25
 74
     0
 49
0.25
 74
     0
 49
-0.25
 74
     0
  0
LTYPE
  5
781A
330
746A
100
AcDbSymbolTableRecord
100
AcDbLinetypeTableRecord
  2
HIDDEN
 70
     0
  3
__ __ __ __ __ __ __ __ __ __ __ __ __ __ __ __
 72
    65
 73
     2
 40
0.375
 49
0.25
 74
     0
 49
-0.125
 74
     0
  0
LTYPE
  5
781B
330
746A
100
AcDbSymbolTableRecord
100
AcDbLinetypeTableRecord
  2
PHANTOM
 70
     0
  3
______  __  __  ______  __  __  ______  __  __ 
 72
    65
 73
     6
 40
2.5
 49
1.25
 74
     0
 49
-0.25
 74
     0
 49
0.25
 74
     0
 49
-0.25
 74
     0
 49
0.25
 74
     0
 49
-0.25
 74
     0
  0
ENDTAB
  0
TABLE
  2
LAYER
  5
7467
102
{ACAD_XDICTIONARY
360
199C6
102
}
330
0
100
AcDbSymbolTable
 70
    12
  0
LAYER
  5
7474
330
7467
100
AcDbSymbolTableRecord
100
AcDbLayerTableRecord
  2
0
 70
     0
 62
     7
  6
CONTINUOUS
370
    -3
390
1981D
  0
LAYER
  5
DEB2
330
7467
100
AcDbSymbolTableRecord
100
AcDbLayerTableRecord
  2
センター
 70
     0
 62
     3
  6
CENTER
370
    -3
390
1981D
  0
LAYER
  5
DEB3
330
7467
100
AcDbSymbolTableRecord
100
AcDbLayerTableRecord
  2
寸法
 70
     0
 62
     4
  6
CONTINUOUS
370
    -3
390
1981D
  0
LAYER
  5
DEB4
330
7467
100
AcDbSymbolTableRecord
100
AcDbLayerTableRecord
  2
部品1
 70
     0
 62
     7
  6
CONTINUOUS
370
    -3
390
1981D
  0
LAYER
  5
DEB5
330
7467
100
AcDbSymbolTableRecord
100
AcDbLayerTableRecord
  2
補助
 70
     0
 62
    -1
  6
CONTINUOUS
370
    -3
390
1981D
  0
LAYER
  5
DEB6
330
7467
100
AcDbSymbolTableRecord
100
AcDbLayerTableRecord
  2
文字
 70
     0
 62
     7
  6
CONTINUOUS
370
    -3
390
1981D
  0
LAYER
  5
F255
330
7467
100
AcDbSymbolTableRecord
100
AcDbLayerTableRecord
  2
DEFPOINTS
 70
     0
 62
     7
  6
CONTINUOUS
290
     0
370
    -3
390
1981D
  0
LAYER
  5
10B54
330
7467
100
AcDbSymbolTableRecord
100
AcDbLayerTableRecord
  2
仕様書枠
 70
     0
 62
   230
  6
CONTINUOUS
370
    -3
390
1981D
  0
LAYER
  5
11729
330
7467
100
AcDbSymbolTableRecord
100
AcDbLayerTableRecord
  2
Ｇ．Ｌ
 70
     0
 62
    30
  6
CONTINUOUS
370
    -3
390
1981D
  0
LAYER
  5
1173F
330
7467
100
AcDbSymbolTableRecord
100
AcDbLayerTableRecord
  2
細線
 70
     0
 62
     5
  6
CONTINUOUS
370
    -3
390
1981D
  0
LAYER
  5
12CC4
330
7467
100
AcDbSymbolTableRecord
100
AcDbLayerTableRecord
  2
想像線
 70
     0
 62
     6
  6
PHANTOM
370
    -3
390
1981D
  0
LAYER
  5
142E2
330
7467
100
AcDbSymbolTableRecord
100
AcDbLayerTableRecord
  2
破線
 70
     0
 62
     2
  6
HIDDEN
370
    -3
390
1981D
  0
ENDTAB
  0
TABLE
  2
STYLE
  5
7468
330
0
100
AcDbSymbolTable
 70
     4
  0
STYLE
  5
7475
330
7468
100
AcDbSymbolTableRecord
100
AcDbTextStyleTableRecord
  2
STANDARD
 70
     0
 40
0.0
 41
1.0
 50
0.0
 71
     0
 42
4.0
  3
txt
  4
C:\AutoCAD LT\bigfont.shx
  0
STYLE
  5
F706
330
7468
100
AcDbSymbolTableRecord
100
AcDbTextStyleTableRecord
  2
STYLE1
 70
     0
 40
0.0
 41
1.0
 50
0.0
 71
     0
 42
4.0
  3
isocp.shx
  4
bigfont.shx
  0
STYLE
  5
103BF
330
7468
100
AcDbSymbolTableRecord
100
AcDbTextStyleTableRecord
  2
STYLE2
 70
     0
 40
0.0
 41
1.0
 50
0.0
 71
     0
 42
100.0
  3
MS PGothic.ttf
  4

1001
ACAD
1000
MS PGothic
1071
    32818
  0
STYLE
  5
1AA8B
330
7468
100
AcDbSymbolTableRecord
100
AcDbTextStyleTableRecord
  2
STYLE3
 70
     0
 40
0.0
 41
1.0
 50
0.0
 71
     0
 42
100.0
  3

  4

1001
ACAD
1000
DFPGothic-EB
1071
    32818
  0
ENDTAB
  0
TABLE
  2
VIEW
  5
746B
330
0
100
AcDbSymbolTable
 70
     0
  0
ENDTAB
  0
TABLE
  2
UCS
  5
746C
330
0
100
AcDbSymbolTable
 70
     0
  0
ENDTAB
  0
TABLE
  2
APPID
  5
746E
330
0
100
AcDbSymbolTable
 70
     6
  0
APPID
  5
7476
330
746E
100
AcDbSymbolTableRecord
100
AcDbRegAppTableRecord
  2
ACAD
 70
     0
  0
APPID
  5
DEA9
330
746E
100
AcDbSymbolTableRecord
100
AcDbRegAppTableRecord
  2
CONTENTBLOCKICON
 70
     0
  0
APPID
  5
DEAA
330
746E
100
AcDbSymbolTableRecord
100
AcDbRegAppTableRecord
  2
CONTENTBLOCKDESCRIPTION
 70
     0
  0
APPID
  5
E71D
330
746E
100
AcDbSymbolTableRecord
100
AcDbRegAppTableRecord
  2
CONTENTTABDATA
 70
     0
  0
APPID
  5
E71E
330
746E
100
AcDbSymbolTableRecord
100
AcDbRegAppTableRecord
  2
CONTENTCURRENTTAB
 70
     0
  0
APPID
  5
F3BA
330
746E
100
AcDbSymbolTableRecord
100
AcDbRegAppTableRecord
  2
DRAWINGVARIABLESXDATA
 70
     0
  0
ENDTAB
  0
TABLE
  2
DIMSTYLE
  5
746F
330
0
100
AcDbSymbolTable
 70
     5
100
AcDbDimStyleTable
 71
     0
  0
DIMSTYLE
105
7484
330
746F
100
AcDbSymbolTableRecord
100
AcDbDimStyleTableRecord
  2
JIS
 70
     0
 41
2.5
 42
1.0
 43
7.0
 44
1.0
 73
     0
 74
     0
 77
     1
 78
     8
140
2.5
141
0.0
143
0.0394
147
0.0
172
     1
174
     1
175
     1
340
7475
  0
DIMSTYLE
105
F71F
102
{ACAD_REACTORS
330
19E9B
330
19E9C
330
19E9D
330
19E9E
330
19E9F
330
19EA0
330
19EBE
330
19EBF
330
19EC0
330
19EC1
330
19EC2
330
19ECC
330
19ECD
330
19ECE
330
19ED9
330
19EDA
330
19EDC
330
19F11
330
19F14
330
19F19
330
19F21
330
19F26
330
19F4F
330
1A5B6
330
1A5BA
330
1A5F9
330
1A5FA
330
1A5FB
330
1A636
330
1AE34
330
1AF37
102
}
330
746F
100
AcDbSymbolTableRecord
100
AcDbDimStyleTableRecord
  2
INABA_S40G
 70
     0
 40
40.0
 41
2.5
 42
0.5
 43
7.0
 44
1.5
 73
     0
 74
     0
 77
     3
 78
     8
140
3.0
141
0.0
143
0.0394
147
1.0
172
     1
173
     1
174
     1
178
     7
271
     1
340
F706
341
F770
343
F770
344
F770
  0
DIMSTYLE
105
199C5
102
{ACAD_REACTORS
330
1AB97
330
1AE33
102
}
330
746F
100
AcDbSymbolTableRecord
100
AcDbDimStyleTableRecord
  2
INABA_S40
 70
     0
 40
40.0
 41
2.5
 42
0.5
 43
7.0
 44
1.5
 73
     0
 74
     0
 77
     3
 78
     8
140
3.0
141
0.0
143
0.0394
147
1.0
172
     1
173
     1
174
     1
175
     1
178
     7
340
7475
  0
DIMSTYLE
105
1AA8C
330
746F
100
AcDbSymbolTableRecord
100
AcDbDimStyleTableRecord
  2
INABA_S50G
 70
     0
 41
125.0
 42
25.0
 43
7.0
 44
75.0
 73
     0
 74
     0
 77
     3
 78
     8
140
150.0
141
0.0
143
0.0394
147
25.0
172
     1
173
     1
174
     1
175
     1
178
     7
271
     1
340
F706
341
F770
343
F770
344
F770
  0
DIMSTYLE
105
1B12F
330
746F
100
AcDbSymbolTableRecord
100
AcDbDimStyleTableRecord
  2
INABA_S20G
 70
     0
 40
20.0
 41
2.5
 42
0.5
 43
7.0
 44
1.5
 73
     0
 74
     0
 77
     3
 78
     8
140
3.0
141
0.0
143
0.0394
147
1.0
172
     1
173
     1
174
     1
178
     7
271
     1
340
F706
341
F770
343
F770
344
F770
  0
ENDTAB
  0
TABLE
  2
BLOCK_RECORD
  5
7466
330
0
100
AcDbSymbolTable
 70
    35
  0
BLOCK_RECORD
  5
747D
330
7466
100
AcDbSymbolTableRecord
100
AcDbBlockTableRecord
  2
*MODEL_SPACE
340
19822
  0
BLOCK_RECORD
  5
747A
330
7466
100
AcDbSymbolTableRecord
100
AcDbBlockTableRecord
  2
*PAPER_SPACE
340
19823
  0
BLOCK_RECORD
  5
F770
330
7466
100
AcDbSymbolTableRecord
100
AcDbBlockTableRecord
  2
_DOTSMALL
340
0
102
{BLKREFS
331
1A928
331
1A929
331
1A931
331
1A932
331
1A93C
331
1A93D
331
1A945
331
1A946
331
1A94E
331
1A94F
331
1A957
331
1A958
331
1A960
331
1A961
331
1A969
331
1A96A
331
1A9DD
331
1A9DE
331
1A9E6
331
1A9E7
331
1A9F0
331
1A9F1
331
1A9FB
331
1A9FC
331
1AA05
331
1AA06
331
1AA0E
331
1AA0F
331
1AA18
331
1AA19
331
1AA21
331
1AA22
331
1AA2A
331
1AA2B
331
1AA35
331
1AA36
331
1AA3F
331
1AA40
331
1B0A1
331
1B0A2
331
1B0AA
331
1B0AB
331
1B0C9
331
1B0CA
331
1B0D2
331
1B0D3
331
1B0DB
331
1B0DC
331
1B0E4
331
1B0E5
331
1B0ED
331
1B0EE
331
1B0F6
331
1B0F7
331
1B101
331
1B102
331
1B10C
331
1B10D
331
1B117
331
1B118
331
1B120
331
1B121
102
}
  0
BLOCK_RECORD
  5
1982A
330
7466
100
AcDbSymbolTableRecord
100
AcDbBlockTableRecord
  2
_DOT
340
0
102
{BLKREFS
331
1B0B5
331
1B0B6
331
1B0BE
331
1B0BF
102
}
  0
BLOCK_RECORD
  5
19F8E
330
7466
100
AcDbSymbolTableRecord
100
AcDbBlockTableRecord
  2
*D2
340
0
  0
BLOCK_RECORD
  5
19F9B
330
7466
100
AcDbSymbolTableRecord
100
AcDbBlockTableRecord
  2
*D3
340
0
  0
BLOCK_RECORD
  5
19FA9
330
7466
100
AcDbSymbolTableRecord
100
AcDbBlockTableRecord
  2
*D4
340
0
  0
BLOCK_RECORD
  5
19FB5
330
7466
100
AcDbSymbolTableRecord
100
AcDbBlockTableRecord
  2
*D5
340
0
  0
BLOCK_RECORD
  5
19FC1
330
7466
100
AcDbSymbolTableRecord
100
AcDbBlockTableRecord
  2
*D6
340
0
  0
BLOCK_RECORD
  5
19FCE
330
7466
100
AcDbSymbolTableRecord
100
AcDbBlockTableRecord
  2
*D7
340
0
  0
BLOCK_RECORD
  5
19FDA
330
7466
100
AcDbSymbolTableRecord
100
AcDbBlockTableRecord
  2
*D8
340
0
  0
BLOCK_RECORD
  5
19FE7
330
7466
100
AcDbSymbolTableRecord
100
AcDbBlockTableRecord
  2
*D9
340
0
  0
BLOCK_RECORD
  5
19FF5
330
7466
100
AcDbSymbolTableRecord
100
AcDbBlockTableRecord
  2
*D10
340
0
  0
BLOCK_RECORD
  5
1A002
330
7466
100
AcDbSymbolTableRecord
100
AcDbBlockTableRecord
  2
*D11
340
0
  0
BLOCK_RECORD
  5
1A00E
330
7466
100
AcDbSymbolTableRecord
100
AcDbBlockTableRecord
  2
*D12
340
0
  0
BLOCK_RECORD
  5
1A01A
330
7466
100
AcDbSymbolTableRecord
100
AcDbBlockTableRecord
  2
*D13
340
0
  0
BLOCK_RECORD
  5
1A026
330
7466
100
AcDbSymbolTableRecord
100
AcDbBlockTableRecord
  2
*D14
340
0
  0
BLOCK_RECORD
  5
1A034
330
7466
100
AcDbSymbolTableRecord
100
AcDbBlockTableRecord
  2
*D15
340
0
  0
BLOCK_RECORD
  5
1A042
330
7466
100
AcDbSymbolTableRecord
100
AcDbBlockTableRecord
  2
*D16
340
0
  0
BLOCK_RECORD
  5
1A050
330
7466
100
AcDbSymbolTableRecord
100
AcDbBlockTableRecord
  2
*D17
340
0
  0
BLOCK_RECORD
  5
1A05C
330
7466
100
AcDbSymbolTableRecord
100
AcDbBlockTableRecord
  2
*D18
340
0
  0
BLOCK_RECORD
  5
1A068
330
7466
100
AcDbSymbolTableRecord
100
AcDbBlockTableRecord
  2
*D19
340
0
  0
BLOCK_RECORD
  5
1A074
330
7466
100
AcDbSymbolTableRecord
100
AcDbBlockTableRecord
  2
*D20
340
0
  0
BLOCK_RECORD
  5
1A08C
330
7466
100
AcDbSymbolTableRecord
100
AcDbBlockTableRecord
  2
*D21
340
0
  0
BLOCK_RECORD
  5
1A098
330
7466
100
AcDbSymbolTableRecord
100
AcDbBlockTableRecord
  2
*D22
340
0
  0
BLOCK_RECORD
  5
1A0A6
330
7466
100
AcDbSymbolTableRecord
100
AcDbBlockTableRecord
  2
*D23
340
0
  0
BLOCK_RECORD
  5
1A0B2
330
7466
100
AcDbSymbolTableRecord
100
AcDbBlockTableRecord
  2
*D24
340
0
  0
BLOCK_RECORD
  5
1A6E2
330
7466
100
AcDbSymbolTableRecord
100
AcDbBlockTableRecord
  2
*D25
340
0
  0
BLOCK_RECORD
  5
1A6EE
330
7466
100
AcDbSymbolTableRecord
100
AcDbBlockTableRecord
  2
*D26
340
0
  0
BLOCK_RECORD
  5
1A6FA
330
7466
100
AcDbSymbolTableRecord
100
AcDbBlockTableRecord
  2
*D27
340
0
  0
BLOCK_RECORD
  5
1A706
330
7466
100
AcDbSymbolTableRecord
100
AcDbBlockTableRecord
  2
*D28
340
0
  0
BLOCK_RECORD
  5
1A714
330
7466
100
AcDbSymbolTableRecord
100
AcDbBlockTableRecord
  2
*D29
340
0
  0
BLOCK_RECORD
  5
1A720
330
7466
100
AcDbSymbolTableRecord
100
AcDbBlockTableRecord
  2
*D30
340
0
  0
BLOCK_RECORD
  5
1AC02
330
7466
100
AcDbSymbolTableRecord
100
AcDbBlockTableRecord
  2
*D31
340
0
  0
BLOCK_RECORD
  5
1AF47
330
7466
100
AcDbSymbolTableRecord
100
AcDbBlockTableRecord
  2
*D32
340
0
  0
BLOCK_RECORD
  5
1AF55
330
7466
100
AcDbSymbolTableRecord
100
AcDbBlockTableRecord
  2
*D33
340
0
  0
BLOCK_RECORD
  5
1AFD3
330
7466
100
AcDbSymbolTableRecord
100
AcDbBlockTableRecord
  2
*D34
340
0
  0
ENDTAB
  0
ENDSEC
  0
SECTION
  2
BLOCKS
  0
BLOCK
  5
7489
330
747D
100
AcDbEntity
  8
0
100
AcDbBlockBegin
  2
*MODEL_SPACE
 70
     0
 10
0.0
 20
0.0
 30
0.0
  3
*MODEL_SPACE
  1

  0
ENDBLK
  5
748A
330
747D
100
AcDbEntity
  8
0
100
AcDbBlockEnd
  0
BLOCK
  5
7487
330
747A
100
AcDbEntity
 67
     1
  8
0
100
AcDbBlockBegin
  2
*PAPER_SPACE
 70
     0
 10
0.0
 20
0.0
 30
0.0
  3
*PAPER_SPACE
  1

  0
ENDBLK
  5
7488
330
747A
100
AcDbEntity
 67
     1
  8
0
100
AcDbBlockEnd
  0
BLOCK
  5
F771
330
F770
100
AcDbEntity
  8
0
 48
50.0
100
AcDbBlockBegin
  2
_DOTSMALL
 70
     0
 10
0.0
 20
0.0
 30
0.0
  3
_DOTSMALL
  1

  0
LWPOLYLINE
  5
F772
330
F770
100
AcDbEntity
  8
0
  6
ByBlock
 62
     0
 48
50.0
100
AcDbPolyline
 90
        2
 70
     1
 43
0.5
 10
-0.0625
 20
0.0
 42
1.0
 10
0.0625
 20
0.0
 42
1.0
  0
ENDBLK
  5
F776
330
F770
100
AcDbEntity
  8
0
 48
50.0
100
AcDbBlockEnd
  0
BLOCK
  5
1982B
330
1982A
100
AcDbEntity
  8
0
 48
50.0
100
AcDbBlockBegin
  2
_DOT
 70
     0
 10
0.0
 20
0.0
 30
0.0
  3
_DOT
  1

  0
LWPOLYLINE
  5
1982C
330
1982A
100
AcDbEntity
  8
0
  6
ByBlock
 62
     0
 48
50.0
100
AcDbPolyline
 90
        2
 70
     1
 43
0.5
 10
-0.25
 20
0.0
 42
1.0
 10
0.25
 20
0.0
 42
1.0
  0
LINE
  5
1982D
330
1982A
100
AcDbEntity
  8
0
  6
ByBlock
 62
     0
 48
50.0
100
AcDbLine
 10
-0.5
 20
0.0
 30
0.0
 11
-1.0
 21
0.0
 31
0.0
  0
ENDBLK
  5
1982E
330
1982A
100
AcDbEntity
  8
0
 48
50.0
100
AcDbBlockEnd
  0
BLOCK
  5
19F99
330
19F8E
100
AcDbEntity
  8
0
 48
50.0
100
AcDbBlockBegin
  2
*D2
 70
     1
 10
0.0
 20
0.0
 30
0.0
  3
*D2
  1

  0
LINE
  5
1AA3B
330
19F8E
100
AcDbEntity
  8
寸法
 62
     0
 48
50.0
370
    -2
100
AcDbLine
 10
8156.509523854973
 20
2168.097711289661
 30
0.0
 11
7262.870141925614
 21
2168.097711289661
 31
0.0
  0
LINE
  5
1AA3C
330
19F8E
100
AcDbEntity
  8
寸法
 62
     0
 48
50.0
370
    -2
100
AcDbLine
 10
7587.856814696675
 20
2068.097711289661
 30
0.0
 11
7262.870141925614
 21
2068.097711289661
 31
0.0
  0
LINE
  5
1AA3D
330
19F8E
100
AcDbEntity
  8
寸法
 62
     0
 48
50.0
370
    -2
100
AcDbLine
 10
7322.870141925616
 20
2168.097711289661
 30
0.0
 11
7322.870141925616
 21
2068.097711289661
 31
0.0
  0
LINE
  5
1AA3E
330
19F8E
100
AcDbEntity
  8
寸法
 62
     0
 48
50.0
370
    -2
100
AcDbLine
 10
7322.870141925616
 20
2068.097711289661
 30
0.0
 11
7322.870141925614
 21
1696.003223100681
 31
0.0
  0
INSERT
  5
1AA3F
330
19F8E
100
AcDbEntity
  8
寸法
 62
     0
 48
50.0
370
    -2
100
AcDbBlockReference
  2
_DOTSMALL
 10
7322.870141925616
 20
2168.097711289661
 30
0.0
 41
100.0
 42
100.0
 43
100.0
 50
90.0
  0
INSERT
  5
1AA40
330
19F8E
100
AcDbEntity
  8
寸法
 62
     0
 48
50.0
370
    -2
100
AcDbBlockReference
  2
_DOTSMALL
 10
7322.870141925616
 20
2068.097711289661
 30
0.0
 41
100.0
 42
100.0
 43
100.0
 50
270.0
  0
MTEXT
  5
1AA41
330
19F8E
100
AcDbEntity
  8
寸法
 62
     7
 48
50.0
100
AcDbMText
 10
7222.870141925614
 20
1832.05046719517
 30
0.0
 40
120.0
 41
0.0
 71
     5
 72
     1
  1
\A1;100
  7
STYLE1
 11
0.0000000000000001
 21
1.0
 31
0.0
 73
     1
 44
1.0
1001
ACAD
1000
MTEXTBEGIN
1070
    73
1070
     1
1070
    44
1040
1.0
1070
    74
1070
     0
1000
MTEXTEND
  0
POINT
  5
1AA42
330
19F8E
100
AcDbEntity
  8
DEFPOINTS
 62
     0
 48
50.0
100
AcDbPoint
 10
8176.509523854972
 20
2168.097711289661
 30
0.0
  0
POINT
  5
1AA43
330
19F8E
100
AcDbEntity
  8
DEFPOINTS
 62
     0
 48
50.0
100
AcDbPoint
 10
7607.856814696676
 20
2068.097711289661
 30
0.0
  0
POINT
  5
1AA44
330
19F8E
100
AcDbEntity
  8
DEFPOINTS
 62
     0
 48
50.0
100
AcDbPoint
 10
7322.870141925616
 20
2068.097711289661
 30
0.0
  0
ENDBLK
  5
19F9A
330
19F8E
100
AcDbEntity
  8
0
 48
50.0
100
AcDbBlockEnd
  0
BLOCK
  5
19FA7
330
19F9B
100
AcDbEntity
  8
0
 48
50.0
100
AcDbBlockBegin
  2
*D3
 70
     1
 10
0.0
 20
0.0
 30
0.0
  3
*D3
  1

  0
LINE
  5
1AA30
330
19F9B
100
AcDbEntity
  8
寸法
 62
     0
 48
50.0
370
    -2
100
AcDbLine
 10
8211.509523854973
 20
2218.097711289661
 30
0.0
 11
7547.856814696676
 21
2218.097711289661
 31
0.0
  0
LINE
  5
1AA31
330
19F9B
100
AcDbEntity
  8
寸法
 62
     0
 48
50.0
370
    -2
100
AcDbLine
 10
8156.509523854973
 20
2168.097711289661
 30
0.0
 11
7547.856814696676
 21
2168.097711289661
 31
0.0
  0
LINE
  5
1AA32
330
19F9B
100
AcDbEntity
  8
寸法
 62
     0
 48
50.0
370
    -2
100
AcDbLine
 10
7607.856814696676
 20
2218.097711289661
 30
0.0
 11
7607.856814696676
 21
2318.097711289661
 31
0.0
  0
LINE
  5
1AA33
330
19F9B
100
AcDbEntity
  8
寸法
 62
     0
 48
50.0
370
    -2
100
AcDbLine
 10
7607.856814696676
 20
2168.097711289661
 30
0.0
 11
7607.856814696676
 21
1756.003223100681
 31
0.0
  0
LINE
  5
1AA34
330
19F9B
100
AcDbEntity
  8
寸法
 62
     0
 48
50.0
370
    -2
100
AcDbLine
 10
7607.856814696676
 20
2218.097711289661
 30
0.0
 11
7607.856814696676
 21
2168.097711289661
 31
0.0
  0
INSERT
  5
1AA35
330
19F9B
100
AcDbEntity
  8
寸法
 62
     0
 48
50.0
370
    -2
100
AcDbBlockReference
  2
_DOTSMALL
 10
7607.856814696676
 20
2218.097711289661
 30
0.0
 41
100.0
 42
100.0
 43
100.0
 50
270.0
  0
INSERT
  5
1AA36
330
19F9B
100
AcDbEntity
  8
寸法
 62
     0
 48
50.0
370
    -2
100
AcDbBlockReference
  2
_DOTSMALL
 10
7607.856814696676
 20
2168.097711289661
 30
0.0
 41
100.0
 42
100.0
 43
100.0
 50
90.0
  0
MTEXT
  5
1AA37
330
19F9B
100
AcDbEntity
  8
寸法
 62
     7
 48
50.0
100
AcDbMText
 10
7507.856814696676
 20
1862.05046719517
 30
0.0
 40
120.0
 41
0.0
 71
     5
 72
     1
  1
\A1;50
  7
STYLE1
 11
0.0000000000000001
 21
1.0
 31
0.0
 73
     1
 44
1.0
1001
ACAD
1000
MTEXTBEGIN
1070
    73
1070
     1
1070
    44
1040
1.0
1070
    74
1070
     0
1000
MTEXTEND
  0
POINT
  5
1AA38
330
19F9B
100
AcDbEntity
  8
DEFPOINTS
 62
     0
 48
50.0
100
AcDbPoint
 10
8231.509523854972
 20
2218.097711289661
 30
0.0
  0
POINT
  5
1AA39
330
19F9B
100
AcDbEntity
  8
DEFPOINTS
 62
     0
 48
50.0
100
AcDbPoint
 10
8176.509523854972
 20
2168.097711289661
 30
0.0
  0
POINT
  5
1AA3A
330
19F9B
100
AcDbEntity
  8
DEFPOINTS
 62
     0
 48
50.0
100
AcDbPoint
 10
7607.856814696676
 20
2168.097711289661
 30
0.0
  0
ENDBLK
  5
19FA8
330
19F9B
100
AcDbEntity
  8
0
 48
50.0
100
AcDbBlockEnd
  0
BLOCK
  5
19FB3
330
19FA9
100
AcDbEntity
  8
0
 48
50.0
100
AcDbBlockBegin
  2
*D4
 70
     1
 10
0.0
 20
0.0
 30
0.0
  3
*D4
  1

  0
LINE
  5
1AA27
330
19FA9
100
AcDbEntity
  8
寸法
 62
     0
 48
50.0
370
    -2
100
AcDbLine
 10
8211.509523854973
 20
4008.097711289661
 30
0.0
 11
7547.856814696676
 21
4008.097711289661
 31
0.0
  0
LINE
  5
1AA28
330
19FA9
100
AcDbEntity
  8
寸法
 62
     0
 48
50.0
370
    -2
100
AcDbLine
 10
8211.509523854973
 20
2218.097711289661
 30
0.0
 11
7547.856814696676
 21
2218.097711289661
 31
0.0
  0
LINE
  5
1AA29
330
19FA9
100
AcDbEntity
  8
寸法
 62
     0
 48
50.0
370
    -2
100
AcDbLine
 10
7607.856814696676
 20
4008.097711289661
 30
0.0
 11
7607.856814696676
 21
2218.097711289661
 31
0.0
  0
INSERT
  5
1AA2A
330
19FA9
100
AcDbEntity
  8
寸法
 62
     0
 48
50.0
370
    -2
100
AcDbBlockReference
  2
_DOTSMALL
 10
7607.856814696676
 20
4008.097711289661
 30
0.0
 41
100.0
 42
100.0
 43
100.0
 50
90.0
  0
INSERT
  5
1AA2B
330
19FA9
100
AcDbEntity
  8
寸法
 62
     0
 48
50.0
370
    -2
100
AcDbBlockReference
  2
_DOTSMALL
 10
7607.856814696676
 20
2218.097711289661
 30
0.0
 41
100.0
 42
100.0
 43
100.0
 50
270.0
  0
MTEXT
  5
1AA2C
330
19FA9
100
AcDbEntity
  8
寸法
 62
     7
 48
50.0
100
AcDbMText
 10
7507.856814696676
 20
3108.552009831619
 30
0.0
 40
120.0
 41
0.0
 71
     5
 72
     1
  1
\A1;1790
  7
STYLE1
 11
0.0000000000000001
 21
1.0
 31
0.0
 73
     1
 44
1.0
1001
ACAD
1000
MTEXTBEGIN
1070
    73
1070
     1
1070
    44
1040
1.0
1070
    74
1070
     0
1000
MTEXTEND
  0
POINT
  5
1AA2D
330
19FA9
100
AcDbEntity
  8
DEFPOINTS
 62
     0
 48
50.0
100
AcDbPoint
 10
8231.509523854972
 20
4008.097711289661
 30
0.0
  0
POINT
  5
1AA2E
330
19FA9
100
AcDbEntity
  8
DEFPOINTS
 62
     0
 48
50.0
100
AcDbPoint
 10
8231.509523854972
 20
2218.097711289661
 30
0.0
  0
POINT
  5
1AA2F
330
19FA9
100
AcDbEntity
  8
DEFPOINTS
 62
     0
 48
50.0
100
AcDbPoint
 10
7607.856814696676
 20
2218.097711289661
 30
0.0
  0
ENDBLK
  5
19FB4
330
19FA9
100
AcDbEntity
  8
0
 48
50.0
100
AcDbBlockEnd
  0
BLOCK
  5
19FBF
330
19FB5
100
AcDbEntity
  8
0
 48
50.0
100
AcDbBlockBegin
  2
*D5
 70
     1
 10
0.0
 20
0.0
 30
0.0
  3
*D5
  1

  0
LINE
  5
1AA1E
330
19FB5
100
AcDbEntity
  8
寸法
 62
     0
 48
50.0
370
    -2
100
AcDbLine
 10
8211.509523854973
 20
2168.097711289661
 30
0.0
 11
7262.870141925614
 21
2168.097711289661
 31
0.0
  0
LINE
  5
1AA1F
330
19FB5
100
AcDbEntity
  8
寸法
 62
     0
 48
50.0
370
    -2
100
AcDbLine
 10
8151.509523854974
 20
4243.097711289666
 30
0.0
 11
7262.870141925614
 21
4243.097711289666
 31
0.0
  0
LINE
  5
1AA20
330
19FB5
100
AcDbEntity
  8
寸法
 62
     0
 48
50.0
370
    -2
100
AcDbLine
 10
7322.870141925616
 20
2168.097711289661
 30
0.0
 11
7322.870141925616
 21
4243.097711289666
 31
0.0
  0
INSERT
  5
1AA21
330
19FB5
100
AcDbEntity
  8
寸法
 62
     0
 48
50.0
370
    -2
100
AcDbBlockReference
  2
_DOTSMALL
 10
7322.870141925616
 20
2168.097711289661
 30
0.0
 41
100.0
 42
100.0
 43
100.0
 50
270.0
  0
INSERT
  5
1AA22
330
19FB5
100
AcDbEntity
  8
寸法
 62
     0
 48
50.0
370
    -2
100
AcDbBlockReference
  2
_DOTSMALL
 10
7322.870141925616
 20
4243.097711289666
 30
0.0
 41
100.0
 42
100.0
 43
100.0
 50
90.0
  0
MTEXT
  5
1AA23
330
19FB5
100
AcDbEntity
  8
寸法
 62
     7
 48
50.0
100
AcDbMText
 10
7222.858330901992
 20
3162.303588782771
 30
0.0
 40
120.0
 41
0.0
 71
     5
 72
     1
  1
\A1;2075
  7
STYLE1
 11
0.0000000000000001
 21
1.0
 31
0.0
 73
     1
 44
1.0
1001
ACAD
1000
MTEXTBEGIN
1070
    73
1070
     1
1070
    44
1040
1.0
1070
    74
1070
     0
1000
MTEXTEND
  0
POINT
  5
1AA24
330
19FB5
100
AcDbEntity
  8
DEFPOINTS
 62
     0
 48
50.0
100
AcDbPoint
 10
8231.509523854972
 20
2168.097711289661
 30
0.0
  0
POINT
  5
1AA25
330
19FB5
100
AcDbEntity
  8
DEFPOINTS
 62
     0
 48
50.0
100
AcDbPoint
 10
8171.509523854973
 20
4243.097711289666
 30
0.0
  0
POINT
  5
1AA26
330
19FB5
100
AcDbEntity
  8
DEFPOINTS
 62
     0
 48
50.0
100
AcDbPoint
 10
7322.870141925616
 20
4243.097711289666
 30
0.0
  0
ENDBLK
  5
19FC0
330
19FB5
100
AcDbEntity
  8
0
 48
50.0
100
AcDbBlockEnd
  0
BLOCK
  5
19FCC
330
19FC1
100
AcDbEntity
  8
0
 48
50.0
100
AcDbBlockBegin
  2
*D6
 70
     1
 10
0.0
 20
0.0
 30
0.0
  3
*D6
  1

  0
LINE
  5
1AA14
330
19FC1
100
AcDbEntity
  8
寸法
 62
     0
 48
50.0
370
    -2
100
AcDbLine
 10
8170.913810146075
 20
4242.395418359322
 30
0.0
 11
7554.979371040798
 21
4260.109568633651
 31
0.0
  0
LINE
  5
1AA15
330
19FC1
100
AcDbEntity
  8
寸法
 62
     0
 48
50.0
370
    -2
100
AcDbLine
 10
8166.860354589449
 20
4101.453694593607
 30
0.0
 11
7550.925915484171
 21
4119.167844867937
 31
0.0
  0
LINE
  5
1AA16
330
19FC1
100
AcDbEntity
  8
寸法
 62
     0
 48
50.0
370
    -2
100
AcDbLine
 10
7610.901117086602
 20
4117.442970162989
 30
0.0
 11
7614.954572643229
 21
4258.384693928704
 31
0.0
  0
LINE
  5
1AA17
330
19FC1
100
AcDbEntity
  8
寸法
 62
     0
 48
50.0
370
    -2
100
AcDbLine
 10
7614.954572643229
 20
4258.384693928704
 30
0.0
 11
7625.303820872914
 21
4618.2359035433
 31
0.0
  0
INSERT
  5
1AA18
330
19FC1
100
AcDbEntity
  8
寸法
 62
     0
 48
50.0
370
    -2
100
AcDbBlockReference
  2
_DOTSMALL
 10
7610.901117086602
 20
4117.442970162989
 30
0.0
 41
100.0
 42
100.0
 43
100.0
 50
268.3526390256379
  0
INSERT
  5
1AA19
330
19FC1
100
AcDbEntity
  8
寸法
 62
     0
 48
50.0
370
    -2
100
AcDbBlockReference
  2
_DOTSMALL
 10
7614.954572643229
 20
4258.384693928704
 30
0.0
 41
100.0
 42
100.0
 43
100.0
 50
88.35263902563784
  0
MTEXT
  5
1AA1A
330
19FC1
100
AcDbEntity
  8
寸法
 62
     7
 48
50.0
100
AcDbMText
 10
7521.607923008144
 20
4491.164424579611
 30
0.0
 40
120.0
 41
0.0
 71
     5
 72
     1
  1
\A1;141
  7
STYLE1
 11
0.0287479117491228
 21
0.9995866933738486
 31
0.0
 73
     1
 44
1.0
1001
ACAD
1000
MTEXTBEGIN
1070
    73
1070
     1
1070
    44
1040
1.0
1070
    74
1070
     0
1000
MTEXTEND
  0
POINT
  5
1AA1B
330
19FC1
100
AcDbEntity
  8
DEFPOINTS
 62
     0
 48
50.0
100
AcDbPoint
 10
8190.905544013551
 20
4241.82046012434
 30
0.0
  0
POINT
  5
1AA1C
330
19FC1
100
AcDbEntity
  8
DEFPOINTS
 62
     0
 48
50.0
100
AcDbPoint
 10
8186.852088456925
 20
4100.878736358625
 30
0.0
  0
POINT
  5
1AA1D
330
19FC1
100
AcDbEntity
  8
DEFPOINTS
 62
     0
 48
50.0
100
AcDbPoint
 10
7610.901117086602
 20
4117.442970162989
 30
0.0
  0
ENDBLK
  5
19FCD
330
19FC1
100
AcDbEntity
  8
0
 48
50.0
100
AcDbBlockEnd
  0
BLOCK
  5
19FD8
330
19FCE
100
AcDbEntity
  8
0
 48
50.0
100
AcDbBlockBegin
  2
*D7
 70
     1
 10
0.0
 20
0.0
 30
0.0
  3
*D7
  1

  0
LINE
  5
1AA0B
330
19FCE
100
AcDbEntity
  8
寸法
 62
     0
 48
50.0
370
    -2
100
AcDbLine
 10
8659.509523854975
 20
3951.097711289661
 30
0.0
 11
7879.036834275584
 21
3951.097711289661
 31
0.0
  0
LINE
  5
1AA0C
330
19FCE
100
AcDbEntity
  8
寸法
 62
     0
 48
50.0
370
    -2
100
AcDbLine
 10
8659.509523854975
 20
2226.09771128966
 30
0.0
 11
7879.036834275584
 21
2226.09771128966
 31
0.0
  0
LINE
  5
1AA0D
330
19FCE
100
AcDbEntity
  8
寸法
 62
     0
 48
50.0
370
    -2
100
AcDbLine
 10
7939.036834275583
 20
3951.097711289661
 30
0.0
 11
7939.036834275583
 21
2226.09771128966
 31
0.0
  0
INSERT
  5
1AA0E
330
19FCE
100
AcDbEntity
  8
寸法
 62
     0
 48
50.0
370
    -2
100
AcDbBlockReference
  2
_DOTSMALL
 10
7939.036834275583
 20
3951.097711289661
 30
0.0
 41
100.0
 42
100.0
 43
100.0
 50
90.0
  0
INSERT
  5
1AA0F
330
19FCE
100
AcDbEntity
  8
寸法
 62
     0
 48
50.0
370
    -2
100
AcDbBlockReference
  2
_DOTSMALL
 10
7939.036834275583
 20
2226.09771128966
 30
0.0
 41
100.0
 42
100.0
 43
100.0
 50
270.0
  0
MTEXT
  5
1AA10
330
19FCE
100
AcDbEntity
  8
寸法
 62
     7
 48
50.0
100
AcDbMText
 10
7839.025023251962
 20
3067.544930807951
 30
0.0
 40
120.0
 41
0.0
 71
     5
 72
     1
  1
\A1;有効開口部高サ1725
  7
STYLE1
 11
0.0000000000000001
 21
1.0
 31
0.0
 73
     1
 44
1.0
1001
ACAD
1000
MTEXTBEGIN
1070
    73
1070
     1
1070
    44
1040
1.0
1070
    74
1070
     0
1000
MTEXTEND
  0
POINT
  5
1AA11
330
19FCE
100
AcDbEntity
  8
DEFPOINTS
 62
     0
 48
50.0
100
AcDbPoint
 10
8679.509523854974
 20
3951.097711289661
 30
0.0
  0
POINT
  5
1AA12
330
19FCE
100
AcDbEntity
  8
DEFPOINTS
 62
     0
 48
50.0
100
AcDbPoint
 10
8679.509523854974
 20
2226.09771128966
 30
0.0
  0
POINT
  5
1AA13
330
19FCE
100
AcDbEntity
  8
DEFPOINTS
 62
     0
 48
50.0
100
AcDbPoint
 10
7939.036834275583
 20
2226.09771128966
 30
0.0
  0
ENDBLK
  5
19FD9
330
19FCE
100
AcDbEntity
  8
0
 48
50.0
100
AcDbBlockEnd
  0
BLOCK
  5
19FE5
330
19FDA
100
AcDbEntity
  8
0
 48
50.0
100
AcDbBlockBegin
  2
*D8
 70
     1
 10
0.0
 20
0.0
 30
0.0
  3
*D8
  1

  0
LINE
  5
1AA01
330
19FDA
100
AcDbEntity
  8
寸法
 62
     0
 48
50.0
370
    -2
100
AcDbLine
 10
8170.913810146076
 20
4242.395418359325
 30
0.0
 11
7554.979371040797
 21
4260.109568633654
 31
0.0
  0
LINE
  5
1AA02
330
19FDA
100
AcDbEntity
  8
寸法
 62
     0
 48
50.0
370
    -2
100
AcDbLine
 10
8166.86035458945
 20
4101.453694593612
 30
0.0
 11
7550.92591548417
 21
4119.167844867942
 31
0.0
  0
LINE
  5
1AA03
330
19FDA
100
AcDbEntity
  8
寸法
 62
     0
 48
50.0
370
    -2
100
AcDbLine
 10
7610.901117086601
 20
4117.442970162995
 30
0.0
 11
7614.954572643227
 21
4258.384693928707
 31
0.0
  0
LINE
  5
1AA04
330
19FDA
100
AcDbEntity
  8
寸法
 62
     0
 48
50.0
370
    -2
100
AcDbLine
 10
7614.954572643227
 20
4258.384693928707
 30
0.0
 11
7625.303820872912
 21
4618.235903543293
 31
0.0
  0
INSERT
  5
1AA05
330
19FDA
100
AcDbEntity
  8
寸法
 62
     0
 48
50.0
370
    -2
100
AcDbBlockReference
  2
_DOTSMALL
 10
7610.901117086601
 20
4117.442970162995
 30
0.0
 41
100.0
 42
100.0
 43
100.0
 50
268.3526390256378
  0
INSERT
  5
1AA06
330
19FDA
100
AcDbEntity
  8
寸法
 62
     0
 48
50.0
370
    -2
100
AcDbBlockReference
  2
_DOTSMALL
 10
7614.954572643227
 20
4258.384693928707
 30
0.0
 41
100.0
 42
100.0
 43
100.0
 50
88.35263902563776
  0
MTEXT
  5
1AA07
330
19FDA
100
AcDbEntity
  8
寸法
 62
     7
 48
50.0
100
AcDbMText
 10
7521.607923008142
 20
4491.164424579605
 30
0.0
 40
120.0
 41
0.0
 71
     5
 72
     1
  1
\A1;141
  7
STYLE1
 11
0.0287479117491237
 21
0.9995866933738488
 31
0.0
 73
     1
 44
1.0
1001
ACAD
1000
MTEXTBEGIN
1070
    73
1070
     1
1070
    44
1040
1.0
1070
    74
1070
     0
1000
MTEXTEND
  0
POINT
  5
1AA08
330
19FDA
100
AcDbEntity
  8
DEFPOINTS
 62
     0
 48
50.0
100
AcDbPoint
 10
8190.905544013553
 20
4241.820460124343
 30
0.0
  0
POINT
  5
1AA09
330
19FDA
100
AcDbEntity
  8
DEFPOINTS
 62
     0
 48
50.0
100
AcDbPoint
 10
8186.852088456927
 20
4100.87873635863
 30
0.0
  0
POINT
  5
1AA0A
330
19FDA
100
AcDbEntity
  8
DEFPOINTS
 62
     0
 48
50.0
100
AcDbPoint
 10
7610.901117086601
 20
4117.442970162995
 30
0.0
  0
ENDBLK
  5
19FE6
330
19FDA
100
AcDbEntity
  8
0
 48
50.0
100
AcDbBlockEnd
  0
BLOCK
  5
19FF3
330
19FE7
100
AcDbEntity
  8
0
 48
50.0
100
AcDbBlockBegin
  2
*D9
 70
     1
 10
0.0
 20
0.0
 30
0.0
  3
*D9
  1

  0
LINE
  5
1A9F6
330
19FE7
100
AcDbEntity
  8
寸法
 62
     0
 48
50.0
370
    -2
100
AcDbLine
 10
8231.509523854972
 20
4259.09932941264
 30
0.0
 11
8231.509523854972
 21
4701.755164868967
 31
0.0
  0
LINE
  5
1A9F7
330
19FE7
100
AcDbEntity
  8
寸法
 62
     0
 48
50.0
370
    -2
100
AcDbLine
 10
8171.509523854973
 20
4263.097711289668
 30
0.0
 11
8171.509523854973
 21
4701.755164868967
 31
0.0
  0
LINE
  5
1A9F8
330
19FE7
100
AcDbEntity
  8
寸法
 62
     0
 48
50.0
370
    -2
100
AcDbLine
 10
8231.509523854972
 20
4641.755164868968
 30
0.0
 11
8331.509523854974
 21
4641.755164868968
 31
0.0
  0
LINE
  5
1A9F9
330
19FE7
100
AcDbEntity
  8
寸法
 62
     0
 48
50.0
370
    -2
100
AcDbLine
 10
8171.509523854973
 20
4641.755164868968
 30
0.0
 11
7752.233933303791
 21
4641.755164868968
 31
0.0
  0
LINE
  5
1A9FA
330
19FE7
100
AcDbEntity
  8
寸法
 62
     0
 48
50.0
370
    -2
100
AcDbLine
 10
8231.509523854972
 20
4641.755164868968
 30
0.0
 11
8171.509523854973
 21
4641.755164868968
 31
0.0
  0
INSERT
  5
1A9FB
330
19FE7
100
AcDbEntity
  8
寸法
 62
     0
 48
50.0
370
    -2
100
AcDbBlockReference
  2
_DOTSMALL
 10
8231.509523854972
 20
4641.755164868968
 30
0.0
 41
100.0
 42
100.0
 43
100.0
 50
180.0
  0
INSERT
  5
1A9FC
330
19FE7
100
AcDbEntity
  8
寸法
 62
     0
 48
50.0
370
    -2
100
AcDbBlockReference
  2
_DOTSMALL
 10
8171.509523854973
 20
4641.755164868968
 30
0.0
 41
100.0
 42
100.0
 43
100.0
  0
MTEXT
  5
1A9FD
330
19FE7
100
AcDbEntity
  8
寸法
 62
     7
 48
50.0
100
AcDbMText
 10
7861.871728579384
 20
4741.755164868968
 30
0.0
 40
120.0
 41
0.0
 71
     5
 72
     1
  1
\A1;60
  7
STYLE1
 73
     1
 44
1.0
1001
ACAD
1000
MTEXTBEGIN
1070
    73
1070
     1
1070
    44
1040
1.0
1070
    74
1070
     0
1000
MTEXTEND
  0
POINT
  5
1A9FE
330
19FE7
100
AcDbEntity
  8
DEFPOINTS
 62
     0
 48
50.0
100
AcDbPoint
 10
8231.509523854972
 20
4239.09932941264
 30
0.0
  0
POINT
  5
1A9FF
330
19FE7
100
AcDbEntity
  8
DEFPOINTS
 62
     0
 48
50.0
100
AcDbPoint
 10
8171.509523854973
 20
4243.097711289668
 30
0.0
  0
POINT
  5
1AA00
330
19FE7
100
AcDbEntity
  8
DEFPOINTS
 62
     0
 48
50.0
100
AcDbPoint
 10
8171.509523854973
 20
4641.755164868968
 30
0.0
  0
ENDBLK
  5
19FF4
330
19FE7
100
AcDbEntity
  8
0
 48
50.0
100
AcDbBlockEnd
  0
BLOCK
  5
1A000
330
19FF5
100
AcDbEntity
  8
0
 48
50.0
100
AcDbBlockBegin
  2
*D10
 70
     1
 10
0.0
 20
0.0
 30
0.0
  3
*D10
  1

  0
LINE
  5
1A9EC
330
19FF5
100
AcDbEntity
  8
寸法
 62
     0
 48
50.0
370
    -2
100
AcDbLine
 10
11281.50952385497
 20
4209.908390901318
 30
0.0
 11
11281.50952385497
 21
4701.755164868969
 31
0.0
  0
LINE
  5
1A9ED
330
19FF5
100
AcDbEntity
  8
寸法
 62
     0
 48
50.0
370
    -2
100
AcDbLine
 10
11361.50952385497
 20
4208.097711289666
 30
0.0
 11
11361.50952385497
 21
4701.755164868969
 31
0.0
  0
LINE
  5
1A9EE
330
19FF5
100
AcDbEntity
  8
寸法
 62
     0
 48
50.0
370
    -2
100
AcDbLine
 10
11281.50952385497
 20
4641.755164868969
 30
0.0
 11
11361.50952385497
 21
4641.755164868969
 31
0.0
  0
LINE
  5
1A9EF
330
19FF5
100
AcDbEntity
  8
寸法
 62
     0
 48
50.0
370
    -2
100
AcDbLine
 10
11361.50952385497
 20
4641.755164868969
 30
0.0
 11
11673.60401204395
 21
4641.755164868969
 31
0.0
  0
INSERT
  5
1A9F0
330
19FF5
100
AcDbEntity
  8
寸法
 62
     0
 48
50.0
370
    -2
100
AcDbBlockReference
  2
_DOTSMALL
 10
11281.50952385497
 20
4641.755164868969
 30
0.0
 41
100.0
 42
100.0
 43
100.0
 50
180.0
  0
INSERT
  5
1A9F1
330
19FF5
100
AcDbEntity
  8
寸法
 62
     0
 48
50.0
370
    -2
100
AcDbBlockReference
  2
_DOTSMALL
 10
11361.50952385497
 20
4641.755164868969
 30
0.0
 41
100.0
 42
100.0
 43
100.0
  0
MTEXT
  5
1A9F2
330
19FF5
100
AcDbEntity
  8
寸法
 62
     7
 48
50.0
100
AcDbMText
 10
11567.55676794946
 20
4741.755164868969
 30
0.0
 40
120.0
 41
0.0
 71
     5
 72
     1
  1
\A1;80
  7
STYLE1
 73
     1
 44
1.0
1001
ACAD
1000
MTEXTBEGIN
1070
    73
1070
     1
1070
    44
1040
1.0
1070
    74
1070
     0
1000
MTEXTEND
  0
POINT
  5
1A9F3
330
19FF5
100
AcDbEntity
  8
DEFPOINTS
 62
     0
 48
50.0
100
AcDbPoint
 10
11281.50952385497
 20
4189.908390901319
 30
0.0
  0
POINT
  5
1A9F4
330
19FF5
100
AcDbEntity
  8
DEFPOINTS
 62
     0
 48
50.0
100
AcDbPoint
 10
11361.50952385497
 20
4188.097711289667
 30
0.0
  0
POINT
  5
1A9F5
330
19FF5
100
AcDbEntity
  8
DEFPOINTS
 62
     0
 48
50.0
100
AcDbPoint
 10
11361.50952385497
 20
4641.755164868969
 30
0.0
  0
ENDBLK
  5
1A001
330
19FF5
100
AcDbEntity
  8
0
 48
50.0
100
AcDbBlockEnd
  0
BLOCK
  5
1A00C
330
1A002
100
AcDbEntity
  8
0
 48
50.0
100
AcDbBlockBegin
  2
*D11
 70
     1
 10
0.0
 20
0.0
 30
0.0
  3
*D11
  1

  0
LINE
  5
1A9E3
330
1A002
100
AcDbEntity
  8
寸法
 62
     0
 48
50.0
370
    -2
100
AcDbLine
 10
11361.50952385497
 20
4208.097711289665
 30
0.0
 11
11361.50952385497
 21
4931.868757655245
 31
0.0
  0
LINE
  5
1A9E4
330
1A002
100
AcDbEntity
  8
寸法
 62
     0
 48
50.0
370
    -2
100
AcDbLine
 10
8171.509523854973
 20
4263.097711289668
 30
0.0
 11
8171.509523854973
 21
4931.868757655245
 31
0.0
  0
LINE
  5
1A9E5
330
1A002
100
AcDbEntity
  8
寸法
 62
     0
 48
50.0
370
    -2
100
AcDbLine
 10
11361.50952385497
 20
4871.868757655246
 30
0.0
 11
8171.509523854973
 21
4871.868757655246
 31
0.0
  0
INSERT
  5
1A9E6
330
1A002
100
AcDbEntity
  8
寸法
 62
     0
 48
50.0
370
    -2
100
AcDbBlockReference
  2
_DOTSMALL
 10
11361.50952385497
 20
4871.868757655246
 30
0.0
 41
100.0
 42
100.0
 43
100.0
  0
INSERT
  5
1A9E7
330
1A002
100
AcDbEntity
  8
寸法
 62
     0
 48
50.0
370
    -2
100
AcDbBlockReference
  2
_DOTSMALL
 10
8171.509523854973
 20
4871.868757655246
 30
0.0
 41
100.0
 42
100.0
 43
100.0
 50
180.0
  0
MTEXT
  5
1A9E8
330
1A002
100
AcDbEntity
  8
寸法
 62
     7
 48
50.0
100
AcDbMText
 10
9843.215330164497
 20
4971.868757655245
 30
0.0
 40
120.0
 41
0.0
 71
     5
 72
     1
  1
\A1;3190
  7
STYLE1
 73
     1
 44
1.0
1001
ACAD
1000
MTEXTBEGIN
1070
    73
1070
     1
1070
    44
1040
1.0
1070
    74
1070
     0
1000
MTEXTEND
  0
POINT
  5
1A9E9
330
1A002
100
AcDbEntity
  8
DEFPOINTS
 62
     0
 48
50.0
100
AcDbPoint
 10
11361.50952385497
 20
4188.097711289665
 30
0.0
  0
POINT
  5
1A9EA
330
1A002
100
AcDbEntity
  8
DEFPOINTS
 62
     0
 48
50.0
100
AcDbPoint
 10
8171.509523854973
 20
4243.097711289668
 30
0.0
  0
POINT
  5
1A9EB
330
1A002
100
AcDbEntity
  8
DEFPOINTS
 62
     0
 48
50.0
100
AcDbPoint
 10
8171.509523854973
 20
4871.868757655246
 30
0.0
  0
ENDBLK
  5
1A00D
330
1A002
100
AcDbEntity
  8
0
 48
50.0
100
AcDbBlockEnd
  0
BLOCK
  5
1A018
330
1A00E
100
AcDbEntity
  8
0
 48
50.0
100
AcDbBlockBegin
  2
*D12
 70
     1
 10
0.0
 20
0.0
 30
0.0
  3
*D12
  1

  0
LINE
  5
1A9DA
330
1A00E
100
AcDbEntity
  8
寸法
 62
     0
 48
50.0
370
    -2
100
AcDbLine
 10
11281.50952385497
 20
4209.908390901318
 30
0.0
 11
11281.50952385497
 21
4701.755164868969
 31
0.0
  0
LINE
  5
1A9DB
330
1A00E
100
AcDbEntity
  8
寸法
 62
     0
 48
50.0
370
    -2
100
AcDbLine
 10
8231.509523854972
 20
4259.09932941264
 30
0.0
 11
8231.509523854972
 21
4701.755164868969
 31
0.0
  0
LINE
  5
1A9DC
330
1A00E
100
AcDbEntity
  8
寸法
 62
     0
 48
50.0
370
    -2
100
AcDbLine
 10
11281.50952385497
 20
4641.755164868969
 30
0.0
 11
8231.509523854972
 21
4641.755164868969
 31
0.0
  0
INSERT
  5
1A9DD
330
1A00E
100
AcDbEntity
  8
寸法
 62
     0
 48
50.0
370
    -2
100
AcDbBlockReference
  2
_DOTSMALL
 10
11281.50952385497
 20
4641.755164868969
 30
0.0
 41
100.0
 42
100.0
 43
100.0
  0
INSERT
  5
1A9DE
330
1A00E
100
AcDbEntity
  8
寸法
 62
     0
 48
50.0
370
    -2
100
AcDbBlockReference
  2
_DOTSMALL
 10
8231.509523854972
 20
4641.755164868969
 30
0.0
 41
100.0
 42
100.0
 43
100.0
 50
180.0
  0
MTEXT
  5
1A9DF
330
1A00E
100
AcDbEntity
  8
寸法
 62
     7
 48
50.0
100
AcDbMText
 10
9801.567898414385
 20
4741.755164868969
 30
0.0
 40
120.0
 41
0.0
 71
     5
 72
     1
  1
\A1;柱外寸法3050
  7
STYLE1
 73
     1
 44
1.0
1001
ACAD
1000
MTEXTBEGIN
1070
    73
1070
     1
1070
    44
1040
1.0
1070
    74
1070
     0
1000
MTEXTEND
  0
POINT
  5
1A9E0
330
1A00E
100
AcDbEntity
  8
DEFPOINTS
 62
     0
 48
50.0
100
AcDbPoint
 10
11281.50952385497
 20
4189.908390901319
 30
0.0
  0
POINT
  5
1A9E1
330
1A00E
100
AcDbEntity
  8
DEFPOINTS
 62
     0
 48
50.0
100
AcDbPoint
 10
8231.509523854972
 20
4239.09932941264
 30
0.0
  0
POINT
  5
1A9E2
330
1A00E
100
AcDbEntity
  8
DEFPOINTS
 62
     0
 48
50.0
100
AcDbPoint
 10
8231.509523854972
 20
4641.755164868969
 30
0.0
  0
ENDBLK
  5
1A019
330
1A00E
100
AcDbEntity
  8
0
 48
50.0
100
AcDbBlockEnd
  0
BLOCK
  5
1A024
330
1A01A
100
AcDbEntity
  8
0
 48
50.0
100
AcDbBlockBegin
  2
*D13
 70
     1
 10
0.0
 20
0.0
 30
0.0
  3
*D13
  1

  0
LINE
  5
1B11D
330
1A01A
100
AcDbEntity
  8
寸法
 62
     0
 48
50.0
370
    -2
100
AcDbLine
 10
11273.00952385497
 20
9929.366043065989
 30
0.0
 11
11741.50952385496
 21
9803.831846412009
 31
0.0
  0
LINE
  5
1B11E
330
1A01A
100
AcDbEntity
  8
寸法
 62
     0
 48
50.0
370
    -2
100
AcDbLine
 10
11273.00952385497
 20
9479.366043065992
 30
0.0
 11
11741.50952385496
 21
9353.831846412013
 31
0.0
  0
LINE
  5
1B11F
330
1A01A
100
AcDbEntity
  8
寸法
 62
     0
 48
50.0
370
    -2
100
AcDbLine
 10
11681.50952385496
 20
9819.908797957877
 30
0.0
 11
11681.50952385496
 21
9369.908797957881
 31
0.0
  0
INSERT
  5
1B120
330
1A01A
100
AcDbEntity
  8
寸法
 62
     0
 48
50.0
370
    -2
100
AcDbBlockReference
  2
_DOTSMALL
 10
11681.50952385496
 20
9819.908797957877
 30
0.0
 41
100.0
 42
100.0
 43
100.0
 50
90.0
  0
INSERT
  5
1B121
330
1A01A
100
AcDbEntity
  8
寸法
 62
     0
 48
50.0
370
    -2
100
AcDbBlockReference
  2
_DOTSMALL
 10
11681.50952385496
 20
9369.908797957881
 30
0.0
 41
100.0
 42
100.0
 43
100.0
 50
270.0
  0
MTEXT
  5
1B122
330
1A01A
100
AcDbEntity
  8
寸法
 62
     7
 48
50.0
100
AcDbMText
 10
11581.50952385496
 20
9594.908797957877
 30
0.0
 40
120.0
 41
0.0
 71
     5
 72
     1
  1
\A1;450
  7
STYLE1
 11
0.0000000000000001
 21
1.0
 31
0.0
 73
     1
 44
1.0
1001
ACAD
1000
MTEXTBEGIN
1070
    73
1070
     1
1070
    44
1040
1.0
1070
    74
1070
     0
1000
MTEXTEND
  0
POINT
  5
1B123
330
1A01A
100
AcDbEntity
  8
DEFPOINTS
 62
     0
 48
50.0
100
AcDbPoint
 10
11253.00952385497
 20
9934.725026914613
 30
0.0
  0
POINT
  5
1B124
330
1A01A
100
AcDbEntity
  8
DEFPOINTS
 62
     0
 48
50.0
100
AcDbPoint
 10
11253.00952385497
 20
9484.725026914615
 30
0.0
  0
POINT
  5
1B125
330
1A01A
100
AcDbEntity
  8
DEFPOINTS
 62
     0
 48
50.0
100
AcDbPoint
 10
11681.50952385496
 20
9369.908797957881
 30
0.0
  0
ENDBLK
  5
1A025
330
1A01A
100
AcDbEntity
  8
0
 48
50.0
100
AcDbBlockEnd
  0
BLOCK
  5
1A032
330
1A026
100
AcDbEntity
  8
0
 48
50.0
100
AcDbBlockBegin
  2
*D14
 70
     1
 10
0.0
 20
0.0
 30
0.0
  3
*D14
  1

  0
LINE
  5
1B112
330
1A026
100
AcDbEntity
  8
寸法
 62
     0
 48
50.0
370
    -2
100
AcDbLine
 10
11226.50952385497
 20
9984.725026914611
 30
0.0
 11
11226.50952385497
 21
10324.72502691461
 31
0.0
  0
LINE
  5
1B113
330
1A026
100
AcDbEntity
  8
寸法
 62
     0
 48
50.0
370
    -2
100
AcDbLine
 10
11281.50952385497
 20
9984.725026914611
 30
0.0
 11
11281.50952385497
 21
10324.72502691461
 31
0.0
  0
LINE
  5
1B114
330
1A026
100
AcDbEntity
  8
寸法
 62
     0
 48
50.0
370
    -2
100
AcDbLine
 10
11226.50952385497
 20
10264.72502691461
 30
0.0
 11
11126.50952385497
 21
10264.72502691461
 31
0.0
  0
LINE
  5
1B115
330
1A026
100
AcDbEntity
  8
寸法
 62
     0
 48
50.0
370
    -2
100
AcDbLine
 10
11281.50952385497
 20
10264.72502691461
 30
0.0
 11
11698.48008660344
 21
10264.72502691461
 31
0.0
  0
LINE
  5
1B116
330
1A026
100
AcDbEntity
  8
寸法
 62
     0
 48
50.0
370
    -2
100
AcDbLine
 10
11226.50952385497
 20
10264.72502691461
 30
0.0
 11
11281.50952385497
 21
10264.72502691461
 31
0.0
  0
INSERT
  5
1B117
330
1A026
100
AcDbEntity
  8
寸法
 62
     0
 48
50.0
370
    -2
100
AcDbBlockReference
  2
_DOTSMALL
 10
11226.50952385497
 20
10264.72502691461
 30
0.0
 41
100.0
 42
100.0
 43
100.0
  0
INSERT
  5
1B118
330
1A026
100
AcDbEntity
  8
寸法
 62
     0
 48
50.0
370
    -2
100
AcDbBlockReference
  2
_DOTSMALL
 10
11281.50952385497
 20
10264.72502691461
 30
0.0
 41
100.0
 42
100.0
 43
100.0
 50
180.0
  0
MTEXT
  5
1B119
330
1A026
100
AcDbEntity
  8
寸法
 62
     7
 48
50.0
100
AcDbMText
 10
11589.9948052292
 20
10364.72502691461
 30
0.0
 40
120.0
 41
0.0
 71
     5
 72
     1
  1
\A1;55
  7
STYLE1
 73
     1
 44
1.0
1001
ACAD
1000
MTEXTBEGIN
1070
    73
1070
     1
1070
    44
1040
1.0
1070
    74
1070
     0
1000
MTEXTEND
  0
POINT
  5
1B11A
330
1A026
100
AcDbEntity
  8
DEFPOINTS
 62
     0
 48
50.0
100
AcDbPoint
 10
11226.50952385497
 20
9964.725026914612
 30
0.0
  0
POINT
  5
1B11B
330
1A026
100
AcDbEntity
  8
DEFPOINTS
 62
     0
 48
50.0
100
AcDbPoint
 10
11281.50952385497
 20
9964.725026914612
 30
0.0
  0
POINT
  5
1B11C
330
1A026
100
AcDbEntity
  8
DEFPOINTS
 62
     0
 48
50.0
100
AcDbPoint
 10
11281.50952385497
 20
10264.72502691461
 30
0.0
  0
ENDBLK
  5
1A033
330
1A026
100
AcDbEntity
  8
0
 48
50.0
100
AcDbBlockEnd
  0
BLOCK
  5
1A040
330
1A034
100
AcDbEntity
  8
0
 48
50.0
100
AcDbBlockBegin
  2
*D15
 70
     1
 10
0.0
 20
0.0
 30
0.0
  3
*D15
  1

  0
LINE
  5
1B107
330
1A034
100
AcDbEntity
  8
寸法
 62
     0
 48
50.0
370
    -2
100
AcDbLine
 10
11301.50952385497
 20
9964.725026914612
 30
0.0
 11
12041.50952385497
 21
9964.725026914612
 31
0.0
  0
LINE
  5
1B108
330
1A034
100
AcDbEntity
  8
寸法
 62
     0
 48
50.0
370
    -2
100
AcDbLine
 10
11301.50952385497
 20
9909.725026914616
 30
0.0
 11
12041.50952385497
 21
9909.725026914616
 31
0.0
  0
LINE
  5
1B109
330
1A034
100
AcDbEntity
  8
寸法
 62
     0
 48
50.0
370
    -2
100
AcDbLine
 10
11981.50952385497
 20
9909.725026914616
 30
0.0
 11
11981.50952385497
 21
9809.725026914616
 31
0.0
  0
LINE
  5
1B10A
330
1A034
100
AcDbEntity
  8
寸法
 62
     0
 48
50.0
370
    -2
100
AcDbLine
 10
11981.50952385497
 20
9964.725026914612
 30
0.0
 11
11981.50952385497
 21
10381.69558966309
 31
0.0
  0
LINE
  5
1B10B
330
1A034
100
AcDbEntity
  8
寸法
 62
     0
 48
50.0
370
    -2
100
AcDbLine
 10
11981.50952385497
 20
9909.725026914616
 30
0.0
 11
11981.50952385497
 21
9964.725026914612
 31
0.0
  0
INSERT
  5
1B10C
330
1A034
100
AcDbEntity
  8
寸法
 62
     0
 48
50.0
370
    -2
100
AcDbBlockReference
  2
_DOTSMALL
 10
11981.50952385497
 20
9909.725026914616
 30
0.0
 41
100.0
 42
100.0
 43
100.0
 50
90.0
  0
INSERT
  5
1B10D
330
1A034
100
AcDbEntity
  8
寸法
 62
     0
 48
50.0
370
    -2
100
AcDbBlockReference
  2
_DOTSMALL
 10
11981.50952385497
 20
9964.725026914612
 30
0.0
 41
100.0
 42
100.0
 43
100.0
 50
270.0
  0
MTEXT
  5
1B10E
330
1A034
100
AcDbEntity
  8
寸法
 62
     7
 48
50.0
100
AcDbMText
 10
11881.50952385496
 20
10273.21030828885
 30
0.0
 40
120.0
 41
0.0
 71
     5
 72
     1
  1
\A1;55
  7
STYLE1
 11
0.0000000000000001
 21
1.0
 31
0.0
 73
     1
 44
1.0
1001
ACAD
1000
MTEXTBEGIN
1070
    73
1070
     1
1070
    44
1040
1.0
1070
    74
1070
     0
1000
MTEXTEND
  0
POINT
  5
1B10F
330
1A034
100
AcDbEntity
  8
DEFPOINTS
 62
     0
 48
50.0
100
AcDbPoint
 10
11281.50952385497
 20
9964.725026914612
 30
0.0
  0
POINT
  5
1B110
330
1A034
100
AcDbEntity
  8
DEFPOINTS
 62
     0
 48
50.0
100
AcDbPoint
 10
11281.50952385497
 20
9909.725026914616
 30
0.0
  0
POINT
  5
1B111
330
1A034
100
AcDbEntity
  8
DEFPOINTS
 62
     0
 48
50.0
100
AcDbPoint
 10
11981.50952385497
 20
9909.725026914616
 30
0.0
  0
ENDBLK
  5
1A041
330
1A034
100
AcDbEntity
  8
0
 48
50.0
100
AcDbBlockEnd
  0
BLOCK
  5
1A04E
330
1A042
100
AcDbEntity
  8
0
 48
50.0
100
AcDbBlockBegin
  2
*D16
 70
     1
 10
0.0
 20
0.0
 30
0.0
  3
*D16
  1

  0
LINE
  5
1B0FC
330
1A042
100
AcDbEntity
  8
寸法
 62
     0
 48
50.0
370
    -2
100
AcDbLine
 10
11301.50952385494
 20
7389.725026914601
 30
0.0
 11
12041.50952385494
 21
7389.725026914601
 31
0.0
  0
LINE
  5
1B0FD
330
1A042
100
AcDbEntity
  8
寸法
 62
     0
 48
50.0
370
    -2
100
AcDbLine
 10
11301.50952385494
 20
7334.725026914604
 30
0.0
 11
12041.50952385494
 21
7334.725026914604
 31
0.0
  0
LINE
  5
1B0FE
330
1A042
100
AcDbEntity
  8
寸法
 62
     0
 48
50.0
370
    -2
100
AcDbLine
 10
11981.50952385494
 20
7389.725026914601
 30
0.0
 11
11981.50952385494
 21
7489.725026914602
 31
0.0
  0
LINE
  5
1B0FF
330
1A042
100
AcDbEntity
  8
寸法
 62
     0
 48
50.0
370
    -2
100
AcDbLine
 10
11981.50952385494
 20
7334.725026914604
 30
0.0
 11
11981.50952385494
 21
6917.754464166124
 31
0.0
  0
LINE
  5
1B100
330
1A042
100
AcDbEntity
  8
寸法
 62
     0
 48
50.0
370
    -2
100
AcDbLine
 10
11981.50952385494
 20
7389.725026914601
 30
0.0
 11
11981.50952385494
 21
7334.725026914604
 31
0.0
  0
INSERT
  5
1B101
330
1A042
100
AcDbEntity
  8
寸法
 62
     0
 48
50.0
370
    -2
100
AcDbBlockReference
  2
_DOTSMALL
 10
11981.50952385494
 20
7389.725026914601
 30
0.0
 41
100.0
 42
100.0
 43
100.0
 50
270.0
  0
INSERT
  5
1B102
330
1A042
100
AcDbEntity
  8
寸法
 62
     0
 48
50.0
370
    -2
100
AcDbBlockReference
  2
_DOTSMALL
 10
11981.50952385494
 20
7334.725026914604
 30
0.0
 41
100.0
 42
100.0
 43
100.0
 50
90.0
  0
MTEXT
  5
1B103
330
1A042
100
AcDbEntity
  8
寸法
 62
     7
 48
50.0
100
AcDbMText
 10
11881.50952385494
 20
7026.239745540364
 30
0.0
 40
120.0
 41
0.0
 71
     5
 72
     1
  1
\A1;55
  7
STYLE1
 11
0.0000000000000001
 21
1.0
 31
0.0
 73
     1
 44
1.0
1001
ACAD
1000
MTEXTBEGIN
1070
    73
1070
     1
1070
    44
1040
1.0
1070
    74
1070
     0
1000
MTEXTEND
  0
POINT
  5
1B104
330
1A042
100
AcDbEntity
  8
DEFPOINTS
 62
     0
 48
50.0
100
AcDbPoint
 10
11281.50952385494
 20
7389.725026914601
 30
0.0
  0
POINT
  5
1B105
330
1A042
100
AcDbEntity
  8
DEFPOINTS
 62
     0
 48
50.0
100
AcDbPoint
 10
11281.50952385494
 20
7334.725026914604
 30
0.0
  0
POINT
  5
1B106
330
1A042
100
AcDbEntity
  8
DEFPOINTS
 62
     0
 48
50.0
100
AcDbPoint
 10
11981.50952385494
 20
7334.725026914604
 30
0.0
  0
ENDBLK
  5
1A04F
330
1A042
100
AcDbEntity
  8
0
 48
50.0
100
AcDbBlockEnd
  0
BLOCK
  5
1A05A
330
1A050
100
AcDbEntity
  8
0
 48
50.0
100
AcDbBlockBegin
  2
*D17
 70
     1
 10
0.0
 20
0.0
 30
0.0
  3
*D17
  1

  0
LINE
  5
1B0F3
330
1A050
100
AcDbEntity
  8
寸法
 62
     0
 48
50.0
370
    -2
100
AcDbLine
 10
11301.50952385497
 20
9964.725026914612
 30
0.0
 11
12341.50952385496
 21
9964.72502691461
 31
0.0
  0
LINE
  5
1B0F4
330
1A050
100
AcDbEntity
  8
寸法
 62
     0
 48
50.0
370
    -2
100
AcDbLine
 10
11301.50952385494
 20
7334.725026914604
 30
0.0
 11
12341.50952385496
 21
7334.725026914604
 31
0.0
  0
LINE
  5
1B0F5
330
1A050
100
AcDbEntity
  8
寸法
 62
     0
 48
50.0
370
    -2
100
AcDbLine
 10
12281.50952385496
 20
9964.725026914612
 30
0.0
 11
12281.50952385496
 21
7334.725026914604
 31
0.0
  0
INSERT
  5
1B0F6
330
1A050
100
AcDbEntity
  8
寸法
 62
     0
 48
50.0
370
    -2
100
AcDbBlockReference
  2
_DOTSMALL
 10
12281.50952385496
 20
9964.725026914612
 30
0.0
 41
100.0
 42
100.0
 43
100.0
 50
90.0
  0
INSERT
  5
1B0F7
330
1A050
100
AcDbEntity
  8
寸法
 62
     0
 48
50.0
370
    -2
100
AcDbBlockReference
  2
_DOTSMALL
 10
12281.50952385496
 20
7334.725026914604
 30
0.0
 41
100.0
 42
100.0
 43
100.0
 50
270.0
  0
MTEXT
  5
1B0F8
330
1A050
100
AcDbEntity
  8
寸法
 62
     7
 48
50.0
100
AcDbMText
 10
12181.49771283134
 20
8649.725026914607
 30
0.0
 40
120.0
 41
0.0
 71
     5
 72
     1
  1
\A1;2630
  7
STYLE1
 11
0.0000000000000001
 21
1.0
 31
0.0
 73
     1
 44
1.0
1001
ACAD
1000
MTEXTBEGIN
1070
    73
1070
     1
1070
    44
1040
1.0
1070
    74
1070
     0
1000
MTEXTEND
  0
POINT
  5
1B0F9
330
1A050
100
AcDbEntity
  8
DEFPOINTS
 62
     0
 48
50.0
100
AcDbPoint
 10
11281.50952385497
 20
9964.725026914612
 30
0.0
  0
POINT
  5
1B0FA
330
1A050
100
AcDbEntity
  8
DEFPOINTS
 62
     0
 48
50.0
100
AcDbPoint
 10
11281.50952385494
 20
7334.725026914604
 30
0.0
  0
POINT
  5
1B0FB
330
1A050
100
AcDbEntity
  8
DEFPOINTS
 62
     0
 48
50.0
100
AcDbPoint
 10
12281.50952385496
 20
7334.725026914604
 30
0.0
  0
ENDBLK
  5
1A05B
330
1A050
100
AcDbEntity
  8
0
 48
50.0
100
AcDbBlockEnd
  0
BLOCK
  5
1A066
330
1A05C
100
AcDbEntity
  8
0
 48
50.0
100
AcDbBlockBegin
  2
*D18
 70
     1
 10
0.0
 20
0.0
 30
0.0
  3
*D18
  1

  0
LINE
  5
1B0EA
330
1A05C
100
AcDbEntity
  8
寸法
 62
     0
 48
50.0
370
    -2
100
AcDbLine
 10
11301.50952385497
 20
9909.725026914616
 30
0.0
 11
12041.50952385496
 21
9909.725026914616
 31
0.0
  0
LINE
  5
1B0EB
330
1A05C
100
AcDbEntity
  8
寸法
 62
     0
 48
50.0
370
    -2
100
AcDbLine
 10
11301.50952385494
 20
7389.725026914601
 30
0.0
 11
12041.50952385496
 21
7389.725026914601
 31
0.0
  0
LINE
  5
1B0EC
330
1A05C
100
AcDbEntity
  8
寸法
 62
     0
 48
50.0
370
    -2
100
AcDbLine
 10
11981.50952385496
 20
9909.725026914616
 30
0.0
 11
11981.50952385496
 21
7389.725026914601
 31
0.0
  0
INSERT
  5
1B0ED
330
1A05C
100
AcDbEntity
  8
寸法
 62
     0
 48
50.0
370
    -2
100
AcDbBlockReference
  2
_DOTSMALL
 10
11981.50952385496
 20
9909.725026914616
 30
0.0
 41
100.0
 42
100.0
 43
100.0
 50
90.0
  0
INSERT
  5
1B0EE
330
1A05C
100
AcDbEntity
  8
寸法
 62
     0
 48
50.0
370
    -2
100
AcDbBlockReference
  2
_DOTSMALL
 10
11981.50952385496
 20
7389.725026914601
 30
0.0
 41
100.0
 42
100.0
 43
100.0
 50
270.0
  0
MTEXT
  5
1B0EF
330
1A05C
100
AcDbEntity
  8
寸法
 62
     7
 48
50.0
100
AcDbMText
 10
11881.49771283133
 20
8649.725026914607
 30
0.0
 40
120.0
 41
0.0
 71
     5
 72
     1
  1
\A1;6X420=2520
  7
STYLE1
 11
0.0000000000000001
 21
1.0
 31
0.0
 73
     1
 44
1.0
1001
ACAD
1000
MTEXTBEGIN
1070
    73
1070
     1
1070
    44
1040
1.0
1070
    74
1070
     0
1000
MTEXTEND
  0
POINT
  5
1B0F0
330
1A05C
100
AcDbEntity
  8
DEFPOINTS
 62
     0
 48
50.0
100
AcDbPoint
 10
11281.50952385497
 20
9909.725026914616
 30
0.0
  0
POINT
  5
1B0F1
330
1A05C
100
AcDbEntity
  8
DEFPOINTS
 62
     0
 48
50.0
100
AcDbPoint
 10
11281.50952385494
 20
7389.725026914601
 30
0.0
  0
POINT
  5
1B0F2
330
1A05C
100
AcDbEntity
  8
DEFPOINTS
 62
     0
 48
50.0
100
AcDbPoint
 10
11981.50952385496
 20
7389.725026914601
 30
0.0
  0
ENDBLK
  5
1A067
330
1A05C
100
AcDbEntity
  8
0
 48
50.0
100
AcDbBlockEnd
  0
BLOCK
  5
1A072
330
1A068
100
AcDbEntity
  8
0
 48
50.0
100
AcDbBlockBegin
  2
*D19
 70
     1
 10
0.0
 20
0.0
 30
0.0
  3
*D19
  1

  0
LINE
  5
1B0E1
330
1A068
100
AcDbEntity
  8
寸法
 62
     0
 48
50.0
370
    -2
100
AcDbLine
 10
8254.650540006267
 20
9464.72502691463
 30
0.0
 11
8152.980671402293
 21
9085.28791168575
 31
0.0
  0
LINE
  5
1B0E2
330
1A068
100
AcDbEntity
  8
寸法
 62
     0
 48
50.0
370
    -2
100
AcDbLine
 10
9737.650540006338
 20
9464.725026914623
 30
0.0
 11
9635.980671402364
 21
9085.28791168575
 31
0.0
  0
LINE
  5
1B0E3
330
1A068
100
AcDbEntity
  8
寸法
 62
     0
 48
50.0
370
    -2
100
AcDbLine
 10
8169.057622948161
 20
9145.287911685748
 30
0.0
 11
9652.057622948234
 21
9145.287911685748
 31
0.0
  0
INSERT
  5
1B0E4
330
1A068
100
AcDbEntity
  8
寸法
 62
     0
 48
50.0
370
    -2
100
AcDbBlockReference
  2
_DOTSMALL
 10
8169.057622948161
 20
9145.287911685748
 30
0.0
 41
100.0
 42
100.0
 43
100.0
 50
180.0
  0
INSERT
  5
1B0E5
330
1A068
100
AcDbEntity
  8
寸法
 62
     0
 48
50.0
370
    -2
100
AcDbBlockReference
  2
_DOTSMALL
 10
9652.057622948234
 20
9145.287911685748
 30
0.0
 41
100.0
 42
100.0
 43
100.0
  0
MTEXT
  5
1B0E6
330
1A068
100
AcDbEntity
  8
寸法
 62
     7
 48
50.0
100
AcDbMText
 10
8817.750015242445
 20
9245.287911685748
 30
0.0
 40
120.0
 41
0.0
 71
     5
 72
     1
  1
\A1;1483
  7
STYLE1
 73
     1
 44
1.0
1001
ACAD
1000
MTEXTBEGIN
1070
    73
1070
     1
1070
    44
1040
1.0
1070
    74
1070
     0
1000
MTEXTEND
  0
POINT
  5
1B0E7
330
1A068
100
AcDbEntity
  8
DEFPOINTS
 62
     0
 48
50.0
100
AcDbPoint
 10
8260.009523854888
 20
9484.725026914629
 30
0.0
  0
POINT
  5
1B0E8
330
1A068
100
AcDbEntity
  8
DEFPOINTS
 62
     0
 48
50.0
100
AcDbPoint
 10
9743.00952385496
 20
9484.725026914622
 30
0.0
  0
POINT
  5
1B0E9
330
1A068
100
AcDbEntity
  8
DEFPOINTS
 62
     0
 48
50.0
100
AcDbPoint
 10
9652.057622948234
 20
9145.287911685748
 30
0.0
  0
ENDBLK
  5
1A073
330
1A068
100
AcDbEntity
  8
0
 48
50.0
100
AcDbBlockEnd
  0
BLOCK
  5
1A07E
330
1A074
100
AcDbEntity
  8
0
 48
50.0
100
AcDbBlockBegin
  2
*D20
 70
     1
 10
0.0
 20
0.0
 30
0.0
  3
*D20
  1

  0
LINE
  5
1B0D8
330
1A074
100
AcDbEntity
  8
寸法
 62
     0
 48
50.0
370
    -2
100
AcDbLine
 10
8286.509523854965
 20
9984.725026914517
 30
0.0
 11
8286.509523854965
 21
10324.72502691456
 31
0.0
  0
LINE
  5
1B0D9
330
1A074
100
AcDbEntity
  8
寸法
 62
     0
 48
50.0
370
    -2
100
AcDbLine
 10
11226.50952385497
 20
9984.725026914611
 30
0.0
 11
11226.50952385497
 21
10324.72502691456
 31
0.0
  0
LINE
  5
1B0DA
330
1A074
100
AcDbEntity
  8
寸法
 62
     0
 48
50.0
370
    -2
100
AcDbLine
 10
8286.509523854965
 20
10264.72502691456
 30
0.0
 11
11226.50952385497
 21
10264.72502691456
 31
0.0
  0
INSERT
  5
1B0DB
330
1A074
100
AcDbEntity
  8
寸法
 62
     0
 48
50.0
370
    -2
100
AcDbBlockReference
  2
_DOTSMALL
 10
8286.509523854965
 20
10264.72502691456
 30
0.0
 41
100.0
 42
100.0
 43
100.0
 50
180.0
  0
INSERT
  5
1B0DC
330
1A074
100
AcDbEntity
  8
寸法
 62
     0
 48
50.0
370
    -2
100
AcDbBlockReference
  2
_DOTSMALL
 10
11226.50952385497
 20
10264.72502691456
 30
0.0
 41
100.0
 42
100.0
 43
100.0
  0
MTEXT
  5
1B0DD
330
1A074
100
AcDbEntity
  8
寸法
 62
     7
 48
50.0
100
AcDbMText
 10
9756.509523854965
 20
10364.73683793818
 30
0.0
 40
120.0
 41
0.0
 71
     5
 72
     1
  1
\A1;7X420=2940
  7
STYLE1
 73
     1
 44
1.0
1001
ACAD
1000
MTEXTBEGIN
1070
    73
1070
     1
1070
    44
1040
1.0
1070
    74
1070
     0
1000
MTEXTEND
  0
POINT
  5
1B0DE
330
1A074
100
AcDbEntity
  8
DEFPOINTS
 62
     0
 48
50.0
100
AcDbPoint
 10
8286.509523854965
 20
9964.725026914518
 30
0.0
  0
POINT
  5
1B0DF
330
1A074
100
AcDbEntity
  8
DEFPOINTS
 62
     0
 48
50.0
100
AcDbPoint
 10
11226.50952385497
 20
9964.725026914612
 30
0.0
  0
POINT
  5
1B0E0
330
1A074
100
AcDbEntity
  8
DEFPOINTS
 62
     0
 48
50.0
100
AcDbPoint
 10
11226.50952385497
 20
10264.72502691456
 30
0.0
  0
ENDBLK
  5
1A07F
330
1A074
100
AcDbEntity
  8
0
 48
50.0
100
AcDbBlockEnd
  0
BLOCK
  5
1A096
330
1A08C
100
AcDbEntity
  8
0
 48
50.0
100
AcDbBlockBegin
  2
*D21
 70
     1
 10
0.0
 20
0.0
 30
0.0
  3
*D21
  1

  0
LINE
  5
1B0CF
330
1A08C
100
AcDbEntity
  8
寸法
 62
     0
 48
50.0
370
    -2
100
AcDbLine
 10
9764.650540006336
 20
9464.725026914688
 30
0.0
 11
9662.980671402348
 21
9085.28791168575
 31
0.0
  0
LINE
  5
1B0D0
330
1A08C
100
AcDbEntity
  8
寸法
 62
     0
 48
50.0
370
    -2
100
AcDbLine
 10
11247.65054000635
 20
9464.725026914681
 30
0.0
 11
11145.98067140236
 21
9085.28791168575
 31
0.0
  0
LINE
  5
1B0D1
330
1A08C
100
AcDbEntity
  8
寸法
 62
     0
 48
50.0
370
    -2
100
AcDbLine
 10
9679.057622948214
 20
9145.287911685748
 30
0.0
 11
11162.05762294823
 21
9145.287911685748
 31
0.0
  0
INSERT
  5
1B0D2
330
1A08C
100
AcDbEntity
  8
寸法
 62
     0
 48
50.0
370
    -2
100
AcDbBlockReference
  2
_DOTSMALL
 10
9679.057622948214
 20
9145.287911685748
 30
0.0
 41
100.0
 42
100.0
 43
100.0
 50
180.0
  0
INSERT
  5
1B0D3
330
1A08C
100
AcDbEntity
  8
寸法
 62
     0
 48
50.0
370
    -2
100
AcDbBlockReference
  2
_DOTSMALL
 10
11162.05762294823
 20
9145.287911685748
 30
0.0
 41
100.0
 42
100.0
 43
100.0
  0
MTEXT
  5
1B0D4
330
1A08C
100
AcDbEntity
  8
寸法
 62
     7
 48
50.0
100
AcDbMText
 10
10268.73227936772
 20
9245.287911685748
 30
0.0
 40
120.0
 41
0.0
 71
     5
 72
     1
  1
\A1;1483
  7
STYLE1
 73
     1
 44
1.0
1001
ACAD
1000
MTEXTBEGIN
1070
    73
1070
     1
1070
    44
1040
1.0
1070
    74
1070
     0
1000
MTEXTEND
  0
POINT
  5
1B0D5
330
1A08C
100
AcDbEntity
  8
DEFPOINTS
 62
     0
 48
50.0
100
AcDbPoint
 10
9770.009523854959
 20
9484.725026914688
 30
0.0
  0
POINT
  5
1B0D6
330
1A08C
100
AcDbEntity
  8
DEFPOINTS
 62
     0
 48
50.0
100
AcDbPoint
 10
11253.00952385497
 20
9484.725026914681
 30
0.0
  0
POINT
  5
1B0D7
330
1A08C
100
AcDbEntity
  8
DEFPOINTS
 62
     0
 48
50.0
100
AcDbPoint
 10
11162.05762294823
 20
9145.287911685748
 30
0.0
  0
ENDBLK
  5
1A097
330
1A08C
100
AcDbEntity
  8
0
 48
50.0
100
AcDbBlockEnd
  0
BLOCK
  5
1A0A4
330
1A098
100
AcDbEntity
  8
0
 48
50.0
100
AcDbBlockBegin
  2
*D22
 70
     1
 10
0.0
 20
0.0
 30
0.0
  3
*D22
  1

  0
LINE
  5
1B0C4
330
1A098
100
AcDbEntity
  8
寸法
 62
     0
 48
50.0
370
    -2
100
AcDbLine
 10
8231.509523854933
 20
9984.725026914517
 30
0.0
 11
8231.509523854933
 21
10324.72502691452
 31
0.0
  0
LINE
  5
1B0C5
330
1A098
100
AcDbEntity
  8
寸法
 62
     0
 48
50.0
370
    -2
100
AcDbLine
 10
8286.509523854965
 20
9984.725026914517
 30
0.0
 11
8286.509523854965
 21
10324.72502691452
 31
0.0
  0
LINE
  5
1B0C6
330
1A098
100
AcDbEntity
  8
寸法
 62
     0
 48
50.0
370
    -2
100
AcDbLine
 10
8286.509523854965
 20
10264.72502691452
 30
0.0
 11
8386.509523854966
 21
10264.72502691452
 31
0.0
  0
LINE
  5
1B0C7
330
1A098
100
AcDbEntity
  8
寸法
 62
     0
 48
50.0
370
    -2
100
AcDbLine
 10
8231.509523854933
 20
10264.72502691452
 30
0.0
 11
7814.538961106454
 21
10264.72502691452
 31
0.0
  0
LINE
  5
1B0C8
330
1A098
100
AcDbEntity
  8
寸法
 62
     0
 48
50.0
370
    -2
100
AcDbLine
 10
8286.509523854965
 20
10264.72502691452
 30
0.0
 11
8231.509523854933
 21
10264.72502691452
 31
0.0
  0
INSERT
  5
1B0C9
330
1A098
100
AcDbEntity
  8
寸法
 62
     0
 48
50.0
370
    -2
100
AcDbBlockReference
  2
_DOTSMALL
 10
8286.509523854965
 20
10264.72502691452
 30
0.0
 41
100.0
 42
100.0
 43
100.0
 50
180.0
  0
INSERT
  5
1B0CA
330
1A098
100
AcDbEntity
  8
寸法
 62
     0
 48
50.0
370
    -2
100
AcDbBlockReference
  2
_DOTSMALL
 10
8231.509523854933
 20
10264.72502691452
 30
0.0
 41
100.0
 42
100.0
 43
100.0
  0
MTEXT
  5
1B0CB
330
1A098
100
AcDbEntity
  8
寸法
 62
     7
 48
50.0
100
AcDbMText
 10
7923.024242480693
 20
10364.72502691452
 30
0.0
 40
120.0
 41
0.0
 71
     5
 72
     1
  1
\A1;55
  7
STYLE1
 73
     1
 44
1.0
1001
ACAD
1000
MTEXTBEGIN
1070
    73
1070
     1
1070
    44
1040
1.0
1070
    74
1070
     0
1000
MTEXTEND
  0
POINT
  5
1B0CC
330
1A098
100
AcDbEntity
  8
DEFPOINTS
 62
     0
 48
50.0
100
AcDbPoint
 10
8231.509523854933
 20
9964.725026914518
 30
0.0
  0
POINT
  5
1B0CD
330
1A098
100
AcDbEntity
  8
DEFPOINTS
 62
     0
 48
50.0
100
AcDbPoint
 10
8286.509523854965
 20
9964.725026914518
 30
0.0
  0
POINT
  5
1B0CE
330
1A098
100
AcDbEntity
  8
DEFPOINTS
 62
     0
 48
50.0
100
AcDbPoint
 10
8286.509523854965
 20
10264.72502691452
 30
0.0
  0
ENDBLK
  5
1A0A5
330
1A098
100
AcDbEntity
  8
0
 48
50.0
100
AcDbBlockEnd
  0
BLOCK
  5
1A0B0
330
1A0A6
100
AcDbEntity
  8
0
 48
50.0
100
AcDbBlockBegin
  2
*D23
 70
     1
 10
0.0
 20
0.0
 30
0.0
  3
*D23
  1

  0
LINE
  5
1A966
330
1A0A6
100
AcDbEntity
  8
寸法
 62
     0
 48
50.0
370
    -2
100
AcDbLine
 10
11301.50952385497
 20
2168.09771128966
 30
0.0
 11
12032.72310284104
 21
2168.09771128966
 31
0.0
  0
LINE
  5
1A967
330
1A0A6
100
AcDbEntity
  8
寸法
 62
     0
 48
50.0
370
    -2
100
AcDbLine
 10
11381.50952385498
 20
4188.09771128966
 30
0.0
 11
12032.72310284104
 21
4188.09771128966
 31
0.0
  0
LINE
  5
1A968
330
1A0A6
100
AcDbEntity
  8
寸法
 62
     0
 48
50.0
370
    -2
100
AcDbLine
 10
11972.72310284104
 20
2168.09771128966
 30
0.0
 11
11972.72310284104
 21
4188.09771128966
 31
0.0
  0
INSERT
  5
1A969
330
1A0A6
100
AcDbEntity
  8
寸法
 62
     0
 48
50.0
370
    -2
100
AcDbBlockReference
  2
_DOTSMALL
 10
11972.72310284104
 20
2168.09771128966
 30
0.0
 41
100.0
 42
100.0
 43
100.0
 50
270.0
  0
INSERT
  5
1A96A
330
1A0A6
100
AcDbEntity
  8
寸法
 62
     0
 48
50.0
370
    -2
100
AcDbBlockReference
  2
_DOTSMALL
 10
11972.72310284104
 20
4188.09771128966
 30
0.0
 41
100.0
 42
100.0
 43
100.0
 50
90.0
  0
MTEXT
  5
1A96B
330
1A0A6
100
AcDbEntity
  8
寸法
 62
     7
 48
50.0
100
AcDbMText
 10
11872.71129181741
 20
3178.097711289662
 30
0.0
 40
120.0
 41
0.0
 71
     5
 72
     1
  1
\A1;2020
  7
STYLE1
 11
0.0000000000000001
 21
1.0
 31
0.0
 73
     1
 44
1.0
1001
ACAD
1000
MTEXTBEGIN
1070
    73
1070
     1
1070
    44
1040
1.0
1070
    74
1070
     0
1000
MTEXTEND
  0
POINT
  5
1A96C
330
1A0A6
100
AcDbEntity
  8
DEFPOINTS
 62
     0
 48
50.0
100
AcDbPoint
 10
11281.50952385497
 20
2168.09771128966
 30
0.0
  0
POINT
  5
1A96D
330
1A0A6
100
AcDbEntity
  8
DEFPOINTS
 62
     0
 48
50.0
100
AcDbPoint
 10
11361.50952385498
 20
4188.09771128966
 30
0.0
  0
POINT
  5
1A96E
330
1A0A6
100
AcDbEntity
  8
DEFPOINTS
 62
     0
 48
50.0
100
AcDbPoint
 10
11972.72310284104
 20
4188.09771128966
 30
0.0
  0
ENDBLK
  5
1A0B1
330
1A0A6
100
AcDbEntity
  8
0
 48
50.0
100
AcDbBlockEnd
  0
BLOCK
  5
1A0BC
330
1A0B2
100
AcDbEntity
  8
0
 48
50.0
100
AcDbBlockBegin
  2
*D24
 70
     1
 10
0.0
 20
0.0
 30
0.0
  3
*D24
  1

  0
LINE
  5
1A95D
330
1A0B2
100
AcDbEntity
  8
寸法
 62
     0
 48
50.0
370
    -2
100
AcDbLine
 10
8331.509523854974
 20
1848.09771128966
 30
0.0
 11
8331.509523854974
 21
1522.050381989282
 31
0.0
  0
LINE
  5
1A95E
330
1A0B2
100
AcDbEntity
  8
寸法
 62
     0
 48
50.0
370
    -2
100
AcDbLine
 10
8131.509523854973
 20
1848.09771128966
 30
0.0
 11
8131.509523854973
 21
1522.050381989282
 31
0.0
  0
LINE
  5
1A95F
330
1A0B2
100
AcDbEntity
  8
寸法
 62
     0
 48
50.0
370
    -2
100
AcDbLine
 10
8331.509523854974
 20
1582.050381989282
 30
0.0
 11
8131.509523854973
 21
1582.050381989282
 31
0.0
  0
INSERT
  5
1A960
330
1A0B2
100
AcDbEntity
  8
寸法
 62
     0
 48
50.0
370
    -2
100
AcDbBlockReference
  2
_DOTSMALL
 10
8331.509523854974
 20
1582.050381989282
 30
0.0
 41
100.0
 42
100.0
 43
100.0
  0
INSERT
  5
1A961
330
1A0B2
100
AcDbEntity
  8
寸法
 62
     0
 48
50.0
370
    -2
100
AcDbBlockReference
  2
_DOTSMALL
 10
8131.509523854973
 20
1582.050381989282
 30
0.0
 41
100.0
 42
100.0
 43
100.0
 50
180.0
  0
MTEXT
  5
1A962
330
1A0B2
100
AcDbEntity
  8
寸法
 62
     7
 48
50.0
100
AcDbMText
 10
8231.509523854972
 20
1682.062193012904
 30
0.0
 40
120.0
 41
0.0
 71
     5
 72
     1
  1
\A1;200
  7
STYLE1
 73
     1
 44
1.0
1001
ACAD
1000
MTEXTBEGIN
1070
    73
1070
     1
1070
    44
1040
1.0
1070
    74
1070
     0
1000
MTEXTEND
  0
POINT
  5
1A963
330
1A0B2
100
AcDbEntity
  8
DEFPOINTS
 62
     0
 48
50.0
100
AcDbPoint
 10
8331.509523854974
 20
1868.09771128966
 30
0.0
  0
POINT
  5
1A964
330
1A0B2
100
AcDbEntity
  8
DEFPOINTS
 62
     0
 48
50.0
100
AcDbPoint
 10
8131.509523854973
 20
1868.09771128966
 30
0.0
  0
POINT
  5
1A965
330
1A0B2
100
AcDbEntity
  8
DEFPOINTS
 62
     0
 48
50.0
100
AcDbPoint
 10
8131.509523854973
 20
1582.050381989282
 30
0.0
  0
ENDBLK
  5
1A0BD
330
1A0B2
100
AcDbEntity
  8
0
 48
50.0
100
AcDbBlockEnd
  0
BLOCK
  5
1A6EC
330
1A6E2
100
AcDbEntity
  8
0
 48
50.0
100
AcDbBlockBegin
  2
*D25
 70
     1
 10
0.0
 20
0.0
 30
0.0
  3
*D25
  1

  0
LINE
  5
1A954
330
1A6E2
100
AcDbEntity
  8
寸法
 62
     0
 48
50.0
370
    -2
100
AcDbLine
 10
3426.912494517725
 20
1868.097711289658
 30
0.0
 11
3237.412491271091
 21
1868.097711289658
 31
0.0
  0
LINE
  5
1A955
330
1A6E2
100
AcDbEntity
  8
寸法
 62
     0
 48
50.0
370
    -2
100
AcDbLine
 10
3401.912494517725
 20
2068.097711289658
 30
0.0
 11
3237.412491271091
 21
2068.097711289658
 31
0.0
  0
LINE
  5
1A956
330
1A6E2
100
AcDbEntity
  8
寸法
 62
     0
 48
50.0
370
    -2
100
AcDbLine
 10
3297.412491271091
 20
1868.097711289658
 30
0.0
 11
3297.412491271091
 21
2068.097711289658
 31
0.0
  0
INSERT
  5
1A957
330
1A6E2
100
AcDbEntity
  8
寸法
 62
     0
 48
50.0
370
    -2
100
AcDbBlockReference
  2
_DOTSMALL
 10
3297.412491271091
 20
1868.097711289658
 30
0.0
 41
100.0
 42
100.0
 43
100.0
 50
270.0
  0
INSERT
  5
1A958
330
1A6E2
100
AcDbEntity
  8
寸法
 62
     0
 48
50.0
370
    -2
100
AcDbBlockReference
  2
_DOTSMALL
 10
3297.412491271091
 20
2068.097711289658
 30
0.0
 41
100.0
 42
100.0
 43
100.0
 50
90.0
  0
MTEXT
  5
1A959
330
1A6E2
100
AcDbEntity
  8
寸法
 62
     7
 48
50.0
100
AcDbMText
 10
3197.400680247469
 20
1968.097711289659
 30
0.0
 40
120.0
 41
0.0
 71
     5
 72
     1
  1
\A1;200
  7
STYLE1
 11
0.0000000000000001
 21
1.0
 31
0.0
 73
     1
 44
1.0
1001
ACAD
1000
MTEXTBEGIN
1070
    73
1070
     1
1070
    44
1040
1.0
1070
    74
1070
     0
1000
MTEXTEND
  0
POINT
  5
1A95A
330
1A6E2
100
AcDbEntity
  8
DEFPOINTS
 62
     0
 48
50.0
100
AcDbPoint
 10
3446.912494517725
 20
1868.097711289658
 30
0.0
  0
POINT
  5
1A95B
330
1A6E2
100
AcDbEntity
  8
DEFPOINTS
 62
     0
 48
50.0
100
AcDbPoint
 10
3421.912494517725
 20
2068.097711289658
 30
0.0
  0
POINT
  5
1A95C
330
1A6E2
100
AcDbEntity
  8
DEFPOINTS
 62
     0
 48
50.0
100
AcDbPoint
 10
3297.412491271091
 20
2068.097711289658
 30
0.0
  0
ENDBLK
  5
1A6ED
330
1A6E2
100
AcDbEntity
  8
0
 48
50.0
100
AcDbBlockEnd
  0
BLOCK
  5
1A6F8
330
1A6EE
100
AcDbEntity
  8
0
 48
50.0
100
AcDbBlockBegin
  2
*D26
 70
     1
 10
0.0
 20
0.0
 30
0.0
  3
*D26
  1

  0
LINE
  5
1A94B
330
1A6EE
100
AcDbEntity
  8
寸法
 62
     0
 48
50.0
370
    -2
100
AcDbLine
 10
3646.912494517725
 20
1848.097711289654
 30
0.0
 11
3646.912494517725
 21
1522.05038198928
 31
0.0
  0
LINE
  5
1A94C
330
1A6EE
100
AcDbEntity
  8
寸法
 62
     0
 48
50.0
370
    -2
100
AcDbLine
 10
3446.912494517725
 20
1848.097711289658
 30
0.0
 11
3446.912494517725
 21
1522.05038198928
 31
0.0
  0
LINE
  5
1A94D
330
1A6EE
100
AcDbEntity
  8
寸法
 62
     0
 48
50.0
370
    -2
100
AcDbLine
 10
3646.912494517725
 20
1582.05038198928
 30
0.0
 11
3446.912494517725
 21
1582.05038198928
 31
0.0
  0
INSERT
  5
1A94E
330
1A6EE
100
AcDbEntity
  8
寸法
 62
     0
 48
50.0
370
    -2
100
AcDbBlockReference
  2
_DOTSMALL
 10
3646.912494517725
 20
1582.05038198928
 30
0.0
 41
100.0
 42
100.0
 43
100.0
  0
INSERT
  5
1A94F
330
1A6EE
100
AcDbEntity
  8
寸法
 62
     0
 48
50.0
370
    -2
100
AcDbBlockReference
  2
_DOTSMALL
 10
3446.912494517725
 20
1582.05038198928
 30
0.0
 41
100.0
 42
100.0
 43
100.0
 50
180.0
  0
MTEXT
  5
1A950
330
1A6EE
100
AcDbEntity
  8
寸法
 62
     7
 48
50.0
100
AcDbMText
 10
3546.912494517725
 20
1682.062193012902
 30
0.0
 40
120.0
 41
0.0
 71
     5
 72
     1
  1
\A1;200
  7
STYLE1
 73
     1
 44
1.0
1001
ACAD
1000
MTEXTBEGIN
1070
    73
1070
     1
1070
    44
1040
1.0
1070
    74
1070
     0
1000
MTEXTEND
  0
POINT
  5
1A951
330
1A6EE
100
AcDbEntity
  8
DEFPOINTS
 62
     0
 48
50.0
100
AcDbPoint
 10
3646.912494517725
 20
1868.097711289654
 30
0.0
  0
POINT
  5
1A952
330
1A6EE
100
AcDbEntity
  8
DEFPOINTS
 62
     0
 48
50.0
100
AcDbPoint
 10
3446.912494517725
 20
1868.097711289658
 30
0.0
  0
POINT
  5
1A953
330
1A6EE
100
AcDbEntity
  8
DEFPOINTS
 62
     0
 48
50.0
100
AcDbPoint
 10
3446.912494517725
 20
1582.05038198928
 30
0.0
  0
ENDBLK
  5
1A6F9
330
1A6EE
100
AcDbEntity
  8
0
 48
50.0
100
AcDbBlockEnd
  0
BLOCK
  5
1A704
330
1A6FA
100
AcDbEntity
  8
0
 48
50.0
100
AcDbBlockBegin
  2
*D27
 70
     1
 10
0.0
 20
0.0
 30
0.0
  3
*D27
  1

  0
LINE
  5
1A942
330
1A6FA
100
AcDbEntity
  8
寸法
 62
     0
 48
50.0
370
    -2
100
AcDbLine
 10
3469.412494517725
 20
4263.097711289661
 30
0.0
 11
3469.412494517725
 21
4917.311845138382
 31
0.0
  0
LINE
  5
1A943
330
1A6FA
100
AcDbEntity
  8
寸法
 62
     0
 48
50.0
370
    -2
100
AcDbLine
 10
6199.412494517728
 20
4263.09771128966
 30
0.0
 11
6199.412494517728
 21
4917.311845138382
 31
0.0
  0
LINE
  5
1A944
330
1A6FA
100
AcDbEntity
  8
寸法
 62
     0
 48
50.0
370
    -2
100
AcDbLine
 10
3469.412494517725
 20
4857.311845138382
 30
0.0
 11
6199.412494517728
 21
4857.311845138382
 31
0.0
  0
INSERT
  5
1A945
330
1A6FA
100
AcDbEntity
  8
寸法
 62
     0
 48
50.0
370
    -2
100
AcDbBlockReference
  2
_DOTSMALL
 10
3469.412494517725
 20
4857.311845138382
 30
0.0
 41
100.0
 42
100.0
 43
100.0
 50
180.0
  0
INSERT
  5
1A946
330
1A6FA
100
AcDbEntity
  8
寸法
 62
     0
 48
50.0
370
    -2
100
AcDbBlockReference
  2
_DOTSMALL
 10
6199.412494517728
 20
4857.311845138382
 30
0.0
 41
100.0
 42
100.0
 43
100.0
  0
MTEXT
  5
1A947
330
1A6FA
100
AcDbEntity
  8
寸法
 62
     7
 48
50.0
100
AcDbMText
 10
4834.412494517724
 20
4957.323656162003
 30
0.0
 40
120.0
 41
0.0
 71
     5
 72
     1
  1
\A1;2730
  7
STYLE1
 73
     1
 44
1.0
1001
ACAD
1000
MTEXTBEGIN
1070
    73
1070
     1
1070
    44
1040
1.0
1070
    74
1070
     0
1000
MTEXTEND
  0
POINT
  5
1A948
330
1A6FA
100
AcDbEntity
  8
DEFPOINTS
 62
     0
 48
50.0
100
AcDbPoint
 10
3469.412494517725
 20
4243.097711289662
 30
0.0
  0
POINT
  5
1A949
330
1A6FA
100
AcDbEntity
  8
DEFPOINTS
 62
     0
 48
50.0
100
AcDbPoint
 10
6199.412494517728
 20
4243.097711289659
 30
0.0
  0
POINT
  5
1A94A
330
1A6FA
100
AcDbEntity
  8
DEFPOINTS
 62
     0
 48
50.0
100
AcDbPoint
 10
6199.412494517728
 20
4857.311845138382
 30
0.0
  0
ENDBLK
  5
1A705
330
1A6FA
100
AcDbEntity
  8
0
 48
50.0
100
AcDbBlockEnd
  0
BLOCK
  5
1A712
330
1A706
100
AcDbEntity
  8
0
 48
50.0
100
AcDbBlockBegin
  2
*D28
 70
     1
 10
0.0
 20
0.0
 30
0.0
  3
*D28
  1

  0
LINE
  5
1A937
330
1A706
100
AcDbEntity
  8
寸法
 62
     0
 48
50.0
370
    -2
100
AcDbLine
 10
3519.412494517724
 20
4263.097711289663
 30
0.0
 11
3519.412494517724
 21
4707.71797071693
 31
0.0
  0
LINE
  5
1A938
330
1A706
100
AcDbEntity
  8
寸法
 62
     0
 48
50.0
370
    -2
100
AcDbLine
 10
3469.412494517725
 20
4263.097711289661
 30
0.0
 11
3469.412494517725
 21
4707.71797071693
 31
0.0
  0
LINE
  5
1A939
330
1A706
100
AcDbEntity
  8
寸法
 62
     0
 48
50.0
370
    -2
100
AcDbLine
 10
3519.412494517724
 20
4647.71797071693
 30
0.0
 11
3619.412494517725
 21
4647.71797071693
 31
0.0
  0
LINE
  5
1A93A
330
1A706
100
AcDbEntity
  8
寸法
 62
     0
 48
50.0
370
    -2
100
AcDbLine
 10
3469.412494517725
 20
4647.71797071693
 30
0.0
 11
3049.879969048989
 21
4647.71797071693
 31
0.0
  0
LINE
  5
1A93B
330
1A706
100
AcDbEntity
  8
寸法
 62
     0
 48
50.0
370
    -2
100
AcDbLine
 10
3519.412494517724
 20
4647.71797071693
 30
0.0
 11
3469.412494517725
 21
4647.71797071693
 31
0.0
  0
INSERT
  5
1A93C
330
1A706
100
AcDbEntity
  8
寸法
 62
     0
 48
50.0
370
    -2
100
AcDbBlockReference
  2
_DOTSMALL
 10
3519.412494517724
 20
4647.71797071693
 30
0.0
 41
100.0
 42
100.0
 43
100.0
 50
180.0
  0
INSERT
  5
1A93D
330
1A706
100
AcDbEntity
  8
寸法
 62
     0
 48
50.0
370
    -2
100
AcDbBlockReference
  2
_DOTSMALL
 10
3469.412494517725
 20
4647.71797071693
 30
0.0
 41
100.0
 42
100.0
 43
100.0
  0
MTEXT
  5
1A93E
330
1A706
100
AcDbEntity
  8
寸法
 62
     7
 48
50.0
100
AcDbMText
 10
3155.927213143478
 20
4747.71797071693
 30
0.0
 40
120.0
 41
0.0
 71
     5
 72
     1
  1
\A1;50
  7
STYLE1
 73
     1
 44
1.0
1001
ACAD
1000
MTEXTBEGIN
1070
    73
1070
     1
1070
    44
1040
1.0
1070
    74
1070
     0
1000
MTEXTEND
  0
POINT
  5
1A93F
330
1A706
100
AcDbEntity
  8
DEFPOINTS
 62
     0
 48
50.0
100
AcDbPoint
 10
3519.412494517724
 20
4243.097711289663
 30
0.0
  0
POINT
  5
1A940
330
1A706
100
AcDbEntity
  8
DEFPOINTS
 62
     0
 48
50.0
100
AcDbPoint
 10
3469.412494517725
 20
4243.097711289662
 30
0.0
  0
POINT
  5
1A941
330
1A706
100
AcDbEntity
  8
DEFPOINTS
 62
     0
 48
50.0
100
AcDbPoint
 10
3469.412494517725
 20
4647.71797071693
 30
0.0
  0
ENDBLK
  5
1A713
330
1A706
100
AcDbEntity
  8
0
 48
50.0
100
AcDbBlockEnd
  0
BLOCK
  5
1A71E
330
1A714
100
AcDbEntity
  8
0
 48
50.0
100
AcDbBlockBegin
  2
*D29
 70
     1
 10
0.0
 20
0.0
 30
0.0
  3
*D29
  1

  0
LINE
  5
1A92E
330
1A714
100
AcDbEntity
  8
寸法
 62
     0
 48
50.0
370
    -2
100
AcDbLine
 10
6149.412494517728
 20
4263.097711289661
 30
0.0
 11
6149.412494517728
 21
4707.71797071693
 31
0.0
  0
LINE
  5
1A92F
330
1A714
100
AcDbEntity
  8
寸法
 62
     0
 48
50.0
370
    -2
100
AcDbLine
 10
3519.412494517724
 20
4263.097711289663
 30
0.0
 11
3519.412494517724
 21
4707.71797071693
 31
0.0
  0
LINE
  5
1A930
330
1A714
100
AcDbEntity
  8
寸法
 62
     0
 48
50.0
370
    -2
100
AcDbLine
 10
6149.412494517728
 20
4647.71797071693
 30
0.0
 11
3519.412494517724
 21
4647.71797071693
 31
0.0
  0
INSERT
  5
1A931
330
1A714
100
AcDbEntity
  8
寸法
 62
     0
 48
50.0
370
    -2
100
AcDbBlockReference
  2
_DOTSMALL
 10
6149.412494517728
 20
4647.71797071693
 30
0.0
 41
100.0
 42
100.0
 43
100.0
  0
INSERT
  5
1A932
330
1A714
100
AcDbEntity
  8
寸法
 62
     0
 48
50.0
370
    -2
100
AcDbBlockReference
  2
_DOTSMALL
 10
3519.412494517724
 20
4647.71797071693
 30
0.0
 41
100.0
 42
100.0
 43
100.0
 50
180.0
  0
MTEXT
  5
1A933
330
1A714
100
AcDbEntity
  8
寸法
 62
     7
 48
50.0
100
AcDbMText
 10
4834.412494517724
 20
4747.729781740552
 30
0.0
 40
120.0
 41
0.0
 71
     5
 72
     1
  1
\A1;柱外寸法2630
  7
STYLE1
 73
     1
 44
1.0
1001
ACAD
1000
MTEXTBEGIN
1070
    73
1070
     1
1070
    44
1040
1.0
1070
    74
1070
     0
1000
MTEXTEND
  0
POINT
  5
1A934
330
1A714
100
AcDbEntity
  8
DEFPOINTS
 62
     0
 48
50.0
100
AcDbPoint
 10
6149.412494517728
 20
4243.097711289662
 30
0.0
  0
POINT
  5
1A935
330
1A714
100
AcDbEntity
  8
DEFPOINTS
 62
     0
 48
50.0
100
AcDbPoint
 10
3519.412494517724
 20
4243.097711289663
 30
0.0
  0
POINT
  5
1A936
330
1A714
100
AcDbEntity
  8
DEFPOINTS
 62
     0
 48
50.0
100
AcDbPoint
 10
3519.412494517724
 20
4647.71797071693
 30
0.0
  0
ENDBLK
  5
1A71F
330
1A714
100
AcDbEntity
  8
0
 48
50.0
100
AcDbBlockEnd
  0
BLOCK
  5
1A72C
330
1A720
100
AcDbEntity
  8
0
 48
50.0
100
AcDbBlockBegin
  2
*D30
 70
     1
 10
0.0
 20
0.0
 30
0.0
  3
*D30
  1

  0
LINE
  5
1A923
330
1A720
100
AcDbEntity
  8
寸法
 62
     0
 48
50.0
370
    -2
100
AcDbLine
 10
6199.412494517728
 20
4263.09771128966
 30
0.0
 11
6199.412494517728
 21
4707.71797071693
 31
0.0
  0
LINE
  5
1A924
330
1A720
100
AcDbEntity
  8
寸法
 62
     0
 48
50.0
370
    -2
100
AcDbLine
 10
6149.412494517728
 20
4263.097711289661
 30
0.0
 11
6149.412494517728
 21
4707.71797071693
 31
0.0
  0
LINE
  5
1A925
330
1A720
100
AcDbEntity
  8
寸法
 62
     0
 48
50.0
370
    -2
100
AcDbLine
 10
6149.412494517728
 20
4647.71797071693
 30
0.0
 11
6049.412494517728
 21
4647.71797071693
 31
0.0
  0
LINE
  5
1A926
330
1A720
100
AcDbEntity
  8
寸法
 62
     0
 48
50.0
370
    -2
100
AcDbLine
 10
6199.412494517728
 20
4647.71797071693
 30
0.0
 11
6618.945019986457
 21
4647.71797071693
 31
0.0
  0
LINE
  5
1A927
330
1A720
100
AcDbEntity
  8
寸法
 62
     0
 48
50.0
370
    -2
100
AcDbLine
 10
6149.412494517728
 20
4647.71797071693
 30
0.0
 11
6199.412494517728
 21
4647.71797071693
 31
0.0
  0
INSERT
  5
1A928
330
1A720
100
AcDbEntity
  8
寸法
 62
     0
 48
50.0
370
    -2
100
AcDbBlockReference
  2
_DOTSMALL
 10
6149.412494517728
 20
4647.71797071693
 30
0.0
 41
100.0
 42
100.0
 43
100.0
  0
INSERT
  5
1A929
330
1A720
100
AcDbEntity
  8
寸法
 62
     0
 48
50.0
370
    -2
100
AcDbBlockReference
  2
_DOTSMALL
 10
6199.412494517728
 20
4647.71797071693
 30
0.0
 41
100.0
 42
100.0
 43
100.0
 50
180.0
  0
MTEXT
  5
1A92A
330
1A720
100
AcDbEntity
  8
寸法
 62
     7
 48
50.0
100
AcDbMText
 10
6512.897775891969
 20
4747.71797071693
 30
0.0
 40
120.0
 41
0.0
 71
     5
 72
     1
  1
\A1;50
  7
STYLE1
 73
     1
 44
1.0
1001
ACAD
1000
MTEXTBEGIN
1070
    73
1070
     1
1070
    44
1040
1.0
1070
    74
1070
     0
1000
MTEXTEND
  0
POINT
  5
1A92B
330
1A720
100
AcDbEntity
  8
DEFPOINTS
 62
     0
 48
50.0
100
AcDbPoint
 10
6199.412494517728
 20
4243.097711289659
 30
0.0
  0
POINT
  5
1A92C
330
1A720
100
AcDbEntity
  8
DEFPOINTS
 62
     0
 48
50.0
100
AcDbPoint
 10
6149.412494517728
 20
4243.097711289662
 30
0.0
  0
POINT
  5
1A92D
330
1A720
100
AcDbEntity
  8
DEFPOINTS
 62
     0
 48
50.0
100
AcDbPoint
 10
6149.412494517728
 20
4647.71797071693
 30
0.0
  0
ENDBLK
  5
1A72D
330
1A720
100
AcDbEntity
  8
0
 48
50.0
100
AcDbBlockEnd
  0
BLOCK
  5
1AC0C
330
1AC02
100
AcDbEntity
  8
0
 48
50.0
100
AcDbBlockBegin
  2
*D31
 70
     1
 10
0.0
 20
0.0
 30
0.0
  3
*D31
  1

  0
LINE
  5
1B0BB
330
1AC02
100
AcDbEntity
  8
寸法
 62
     0
 48
50.0
370
    -2
100
AcDbLine
 10
8718.509523854937
 20
7237.725026914474
 30
0.0
 11
8718.509523854937
 21
6576.591398968457
 31
0.0
  0
LINE
  5
1B0BC
330
1AC02
100
AcDbEntity
  8
寸法
 62
     0
 48
50.0
370
    -2
100
AcDbLine
 10
9984.509523854937
 20
7237.725026914474
 30
0.0
 11
9984.509523854937
 21
6576.591398968457
 31
0.0
  0
LINE
  5
1B0BD
330
1AC02
100
AcDbEntity
  8
寸法
 62
     0
 48
50.0
370
    -2
100
AcDbLine
 10
8738.509523854936
 20
6616.591398968456
 30
0.0
 11
9964.509523854937
 21
6616.591398968456
 31
0.0
  0
INSERT
  5
1B0BE
330
1AC02
100
AcDbEntity
  8
寸法
 62
     0
 48
50.0
370
    -2
100
AcDbBlockReference
  2
_DOT
 10
8718.509523854937
 20
6616.591398968456
 30
0.0
 41
20.0
 42
20.0
 43
20.0
 50
180.0
  0
INSERT
  5
1B0BF
330
1AC02
100
AcDbEntity
  8
寸法
 62
     0
 48
50.0
370
    -2
100
AcDbBlockReference
  2
_DOT
 10
9984.509523854937
 20
6616.591398968456
 30
0.0
 41
20.0
 42
20.0
 43
20.0
  0
MTEXT
  5
1B0C0
330
1AC02
100
AcDbEntity
  8
寸法
 62
     7
 48
50.0
100
AcDbMText
 10
9370.782742403667
 20
6808.603209992077
 30
0.0
 40
120.0
 41
0.0
 71
     5
 72
     1
  1
\A1;有効開口部間口\P1266
  7
STYLE1
 73
     1
 44
1.0
1001
ACAD
1000
MTEXTBEGIN
1070
    73
1070
     1
1070
    44
1040
1.0
1070
    74
1070
     0
1000
MTEXTEND
  0
POINT
  5
1B0C1
330
1AC02
100
AcDbEntity
  8
DEFPOINTS
 62
     0
 48
50.0
100
AcDbPoint
 10
8718.509523854937
 20
7257.725026914474
 30
0.0
  0
POINT
  5
1B0C2
330
1AC02
100
AcDbEntity
  8
DEFPOINTS
 62
     0
 48
50.0
100
AcDbPoint
 10
9984.509523854937
 20
7257.725026914474
 30
0.0
  0
POINT
  5
1B0C3
330
1AC02
100
AcDbEntity
  8
DEFPOINTS
 62
     0
 48
50.0
100
AcDbPoint
 10
9984.509523854937
 20
6616.591398968456
 30
0.0
  0
ENDBLK
  5
1AC0D
330
1AC02
100
AcDbEntity
  8
0
 48
50.0
100
AcDbBlockEnd
  0
BLOCK
  5
1AF53
330
1AF47
100
AcDbEntity
  8
0
 48
50.0
100
AcDbBlockBegin
  2
*D32
 70
     1
 10
0.0
 20
0.0
 30
0.0
  3
*D32
  1

  0
LINE
  5
1B0B0
330
1AF47
100
AcDbEntity
  8
寸法
 62
     0
 48
50.0
370
    -2
100
AcDbLine
 10
8211.50952385496
 20
7334.725026914441
 30
0.0
 11
7896.898278228244
 21
7334.725026914441
 31
0.0
  0
LINE
  5
1B0B1
330
1AF47
100
AcDbEntity
  8
寸法
 62
     0
 48
50.0
370
    -2
100
AcDbLine
 10
8659.509523854934
 20
7259.725026914441
 30
0.0
 11
7896.898278228244
 21
7259.725026914441
 31
0.0
  0
LINE
  5
1B0B2
330
1AF47
100
AcDbEntity
  8
寸法
 62
     0
 48
50.0
370
    -2
100
AcDbLine
 10
7936.898278228245
 20
7354.725026914441
 30
0.0
 11
7936.898278228245
 21
7374.72502691444
 31
0.0
  0
LINE
  5
1B0B3
330
1AF47
100
AcDbEntity
  8
寸法
 62
     0
 48
50.0
370
    -2
100
AcDbLine
 10
7936.898278228245
 20
7239.725026914441
 30
0.0
 11
7936.898278228245
 21
7018.754464165962
 31
0.0
  0
LINE
  5
1B0B4
330
1AF47
100
AcDbEntity
  8
寸法
 62
     0
 48
50.0
370
    -2
100
AcDbLine
 10
7936.898278228245
 20
7334.725026914441
 30
0.0
 11
7936.898278228245
 21
7259.725026914441
 31
0.0
  0
INSERT
  5
1B0B5
330
1AF47
100
AcDbEntity
  8
寸法
 62
     0
 48
50.0
370
    -2
100
AcDbBlockReference
  2
_DOT
 10
7936.898278228245
 20
7334.725026914441
 30
0.0
 41
20.0
 42
20.0
 43
20.0
 50
270.0
  0
INSERT
  5
1B0B6
330
1AF47
100
AcDbEntity
  8
寸法
 62
     0
 48
50.0
370
    -2
100
AcDbBlockReference
  2
_DOT
 10
7936.898278228245
 20
7259.725026914441
 30
0.0
 41
20.0
 42
20.0
 43
20.0
 50
90.0
  0
MTEXT
  5
1B0B7
330
1AF47
100
AcDbEntity
  8
寸法
 62
     7
 48
50.0
100
AcDbMText
 10
7844.898278228241
 20
7119.239745540203
 30
0.0
 40
120.0
 41
0.0
 71
     5
 72
     1
  1
\A1;75
  7
STYLE1
 11
0.0000000000000001
 21
1.0
 31
0.0
 73
     1
 44
1.0
1001
ACAD
1000
MTEXTBEGIN
1070
    73
1070
     1
1070
    44
1040
1.0
1070
    74
1070
     0
1000
MTEXTEND
  0
POINT
  5
1B0B8
330
1AF47
100
AcDbEntity
  8
DEFPOINTS
 62
     0
 48
50.0
100
AcDbPoint
 10
8231.50952385496
 20
7334.725026914441
 30
0.0
  0
POINT
  5
1B0B9
330
1AF47
100
AcDbEntity
  8
DEFPOINTS
 62
     0
 48
50.0
100
AcDbPoint
 10
8679.509523854935
 20
7259.725026914441
 30
0.0
  0
POINT
  5
1B0BA
330
1AF47
100
AcDbEntity
  8
DEFPOINTS
 62
     0
 48
50.0
100
AcDbPoint
 10
7936.898278228245
 20
7259.725026914441
 30
0.0
  0
ENDBLK
  5
1AF54
330
1AF47
100
AcDbEntity
  8
0
 48
50.0
100
AcDbBlockEnd
  0
BLOCK
  5
1AF5F
330
1AF55
100
AcDbEntity
  8
0
 48
50.0
100
AcDbBlockBegin
  2
*D33
 70
     1
 10
0.0
 20
0.0
 30
0.0
  3
*D33
  1

  0
LINE
  5
1B0A7
330
1AF55
100
AcDbEntity
  8
寸法
 62
     0
 48
50.0
370
    -2
100
AcDbLine
 10
8679.509523854937
 20
7237.725026914474
 30
0.0
 11
8679.509523854937
 21
6277.595311486705
 31
0.0
  0
LINE
  5
1B0A8
330
1AF55
100
AcDbEntity
  8
寸法
 62
     0
 48
50.0
370
    -2
100
AcDbLine
 10
10833.50952385493
 20
7237.725026914474
 30
0.0
 11
10833.50952385493
 21
6277.595311486705
 31
0.0
  0
LINE
  5
1B0A9
330
1AF55
100
AcDbEntity
  8
寸法
 62
     0
 48
50.0
370
    -2
100
AcDbLine
 10
8679.509523854937
 20
6337.595311486705
 30
0.0
 11
10833.50952385493
 21
6337.595311486705
 31
0.0
  0
INSERT
  5
1B0AA
330
1AF55
100
AcDbEntity
  8
寸法
 62
     0
 48
50.0
370
    -2
100
AcDbBlockReference
  2
_DOTSMALL
 10
8679.509523854937
 20
6337.595311486705
 30
0.0
 41
100.0
 42
100.0
 43
100.0
 50
180.0
  0
INSERT
  5
1B0AB
330
1AF55
100
AcDbEntity
  8
寸法
 62
     0
 48
50.0
370
    -2
100
AcDbBlockReference
  2
_DOTSMALL
 10
10833.50952385493
 20
6337.595311486705
 30
0.0
 41
100.0
 42
100.0
 43
100.0
  0
MTEXT
  5
1B0AC
330
1AF55
100
AcDbEntity
  8
寸法
 62
     7
 48
50.0
100
AcDbMText
 10
9778.64228060225
 20
6437.607122510327
 30
0.0
 40
120.0
 41
0.0
 71
     5
 72
     1
  1
\A1;2154
  7
STYLE1
 73
     1
 44
1.0
1001
ACAD
1000
MTEXTBEGIN
1070
    73
1070
     1
1070
    44
1040
1.0
1070
    74
1070
     0
1000
MTEXTEND
  0
POINT
  5
1B0AD
330
1AF55
100
AcDbEntity
  8
DEFPOINTS
 62
     0
 48
50.0
100
AcDbPoint
 10
8679.509523854937
 20
7257.725026914474
 30
0.0
  0
POINT
  5
1B0AE
330
1AF55
100
AcDbEntity
  8
DEFPOINTS
 62
     0
 48
50.0
100
AcDbPoint
 10
10833.50952385493
 20
7257.725026914474
 30
0.0
  0
POINT
  5
1B0AF
330
1AF55
100
AcDbEntity
  8
DEFPOINTS
 62
     0
 48
50.0
100
AcDbPoint
 10
10833.50952385493
 20
6337.595311486705
 30
0.0
  0
ENDBLK
  5
1AF60
330
1AF55
100
AcDbEntity
  8
0
 48
50.0
100
AcDbBlockEnd
  0
BLOCK
  5
1AFDD
330
1AFD3
100
AcDbEntity
  8
0
 48
50.0
100
AcDbBlockBegin
  2
*D34
 70
     1
 10
0.0
 20
0.0
 30
0.0
  3
*D34
  1

  0
LINE
  5
1B09E
330
1AFD3
100
AcDbEntity
  8
寸法
 62
     0
 48
50.0
370
    -2
100
AcDbLine
 10
8231.50952385496
 20
7314.725026914441
 30
0.0
 11
8231.50952385496
 21
5990.620161360144
 31
0.0
  0
LINE
  5
1B09F
330
1AFD3
100
AcDbEntity
  8
寸法
 62
     0
 48
50.0
370
    -2
100
AcDbLine
 10
11281.50952385494
 20
7314.725026914604
 30
0.0
 11
11281.50952385494
 21
5990.620161360144
 31
0.0
  0
LINE
  5
1B0A0
330
1AFD3
100
AcDbEntity
  8
寸法
 62
     0
 48
50.0
370
    -2
100
AcDbLine
 10
8231.50952385496
 20
6050.620161360144
 30
0.0
 11
11281.50952385494
 21
6050.620161360144
 31
0.0
  0
INSERT
  5
1B0A1
330
1AFD3
100
AcDbEntity
  8
寸法
 62
     0
 48
50.0
370
    -2
100
AcDbBlockReference
  2
_DOTSMALL
 10
8231.50952385496
 20
6050.620161360144
 30
0.0
 41
100.0
 42
100.0
 43
100.0
 50
180.0
  0
INSERT
  5
1B0A2
330
1AFD3
100
AcDbEntity
  8
寸法
 62
     0
 48
50.0
370
    -2
100
AcDbBlockReference
  2
_DOTSMALL
 10
11281.50952385494
 20
6050.620161360144
 30
0.0
 41
100.0
 42
100.0
 43
100.0
  0
MTEXT
  5
1B0A3
330
1AFD3
100
AcDbEntity
  8
寸法
 62
     7
 48
50.0
100
AcDbMText
 10
9776.225354228893
 20
6150.620161360144
 30
0.0
 40
120.0
 41
0.0
 71
     5
 72
     1
  1
\A1;3050
  7
STYLE1
 73
     1
 44
1.0
1001
ACAD
1000
MTEXTBEGIN
1070
    73
1070
     1
1070
    44
1040
1.0
1070
    74
1070
     0
1000
MTEXTEND
  0
POINT
  5
1B0A4
330
1AFD3
100
AcDbEntity
  8
DEFPOINTS
 62
     0
 48
50.0
100
AcDbPoint
 10
8231.50952385496
 20
7334.725026914441
 30
0.0
  0
POINT
  5
1B0A5
330
1AFD3
100
AcDbEntity
  8
DEFPOINTS
 62
     0
 48
50.0
100
AcDbPoint
 10
11281.50952385494
 20
7334.725026914604
 30
0.0
  0
POINT
  5
1B0A6
330
1AFD3
100
AcDbEntity
  8
DEFPOINTS
 62
     0
 48
50.0
100
AcDbPoint
 10
11281.50952385494
 20
6050.620161360144
 30
0.0
  0
ENDBLK
  5
1AFDE
330
1AFD3
100
AcDbEntity
  8
0
 48
50.0
100
AcDbBlockEnd
  0
ENDSEC
  0
SECTION
  2
ENTITIES
  0
LINE
  5
10B57
330
747D
100
AcDbEntity
  8
補助
  6
PHANTOM
 62
   230
 48
50.0
100
AcDbLine
 10
139.9999999999995
 20
11409.6
 30
0.0
 11
16307.2
 21
11409.6
 31
0.0
  0
LINE
  5
10B59
330
747D
100
AcDbEntity
  8
仕様書枠
  6
Continuous
 48
50.0
100
AcDbLine
 10
13107.2
 20
1200.0
 30
0.0
 11
13107.2
 21
-0.0000000000000729
 31
0.0
  0
LINE
  5
10B5C
330
747D
100
AcDbEntity
  8
仕様書枠
 48
50.0
100
AcDbLine
 10
16307.2
 20
1200.0
 30
0.0
 11
16307.2
 21
-0.0000000000000909
 31
0.0
  0
LINE
  5
10B5D
330
747D
100
AcDbEntity
  8
仕様書枠
 48
50.0
100
AcDbLine
 10
140.0
 20
0.0
 30
0.0
 11
16307.2
 21
-0.0000000000000909
 31
0.0
  0
LINE
  5
10B5E
330
747D
100
AcDbEntity
  8
補助
  6
PHANTOM
 62
   230
 48
50.0
100
AcDbLine
 10
16307.2
 20
11409.6
 30
0.0
 11
16307.2
 21
1200.0
 31
0.0
  0
LINE
  5
10B6C
330
747D
100
AcDbEntity
  8
仕様書枠
 48
50.0
100
AcDbLine
 10
13107.2
 20
1200.0
 30
0.0
 11
16307.2
 21
1200.0
 31
0.0
  0
LINE
  5
10B6D
330
747D
100
AcDbEntity
  8
補助
  6
PHANTOM
 62
   230
 48
50.0
100
AcDbLine
 10
13107.2
 20
11409.6
 30
0.0
 11
13107.2
 21
4800.0
 31
0.0
  0
LINE
  5
10B6F
330
747D
100
AcDbEntity
  8
補助
  6
PHANTOM
 62
   230
 48
50.0
100
AcDbLine
 10
13107.2
 20
4800.0
 30
0.0
 11
16307.2
 21
4800.0
 31
0.0
  0
LINE
  5
10B72
330
747D
100
AcDbEntity
  8
文字
 62
     7
 48
50.0
100
AcDbLine
 10
13187.2
 20
400.0
 30
0.0
 11
16227.2
 21
400.0
 31
0.0
  0
TEXT
  5
10B73
330
747D
100
AcDbEntity
  8
文字
 62
     7
 48
50.0
100
AcDbText
 10
13162.9790565769
 20
895.0906074299405
 30
0.0
 40
200.0
  1
外 形 図
  7
STYLE2
100
AcDbText
  0
TEXT
  5
10B74
330
747D
100
AcDbEntity
  8
文字
 62
     7
 48
50.0
100
AcDbText
 10
13201.43669998441
 20
477.2740661031255
 30
0.0
 40
160.0
  1
機種名
  7
STYLE2
100
AcDbText
  0
TEXT
  5
10B76
330
747D
100
AcDbEntity
  8
文字
 62
     7
 48
50.0
100
AcDbText
 10
13209.4053442172
 20
76.09434707649343
 30
0.0
 40
100.0
  1
○床面積 ： 8.19㎡(2.48坪) 　
  7
STYLE2
100
AcDbText
  0
TEXT
  5
10B79
330
747D
100
AcDbEntity
  8
文字
 62
     7
 48
50.0
100
AcDbText
 10
14524.131837222
 20
1031.557706291228
 30
0.0
 40
100.0
  1
NO.31     <縮尺> S=1/40
  7
STYLE2
100
AcDbText
  0
LINE
  5
10B7B
330
747D
100
AcDbEntity
  8
仕様書枠
 48
50.0
100
AcDbLine
 10
13107.2
 20
800.0
 30
0.0
 11
14251.2
 21
800.0
 31
0.0
  0
LINE
  5
10B88
330
747D
100
AcDbEntity
  8
仕様書枠
  6
Continuous
 48
50.0
100
AcDbLine
 10
14251.2
 20
1200.0
 30
0.0
 11
14251.2
 21
800.0
 31
0.0
  0
TEXT
  5
15729
330
747D
100
AcDbEntity
  8
文字
 62
     7
 48
50.0
100
AcDbText
 10
14618.88250366568
 20
869.7247441969318
 30
0.0
 40
100.0
  1
～一般型・多雪地型～
  7
STYLE2
100
AcDbText
  0
LINE
  5
19C94
330
747D
100
AcDbEntity
  8
部品1
100
AcDbLine
 10
11253.50952385496
 20
8229.725026914614
 30
0.0
 11
11281.50952385497
 21
8229.725026914614
 31
0.0
  0
LINE
  5
19C95
330
747D
100
AcDbEntity
  8
部品1
100
AcDbLine
 10
8259.509523854941
 20
8229.725026914488
 30
0.0
 11
8231.50952385494
 21
8229.725026914488
 31
0.0
  0
LINE
  5
19C96
330
747D
100
AcDbEntity
  8
部品1
100
AcDbLine
 10
11225.00952385495
 20
8229.725026914588
 30
0.0
 11
8288.009523854951
 21
8229.725026914488
 31
0.0
  0
TEXT
  5
19C97
330
747D
100
AcDbEntity
  8
文字
 62
     7
 48
50.0
100
AcDbText
 10
14798.72402257234
 20
9740.013745883725
 30
0.0
 40
100.0
  1
F12(一般型1.2/多雪地型2.3)
  7
STYLE1
100
AcDbText
  0
TEXT
  5
19C98
330
747D
100
AcDbEntity
  8
文字
 62
     7
 48
50.0
100
AcDbText
 10
13248.77747366447
 20
8380.013745883728
 30
0.0
 40
100.0
  1
17
  7
STYLE1
100
AcDbText
  0
TEXT
  5
19C99
330
747D
100
AcDbEntity
  8
文字
 62
     7
 48
50.0
100
AcDbText
 10
13248.77747366447
 20
8550.013745883729
 30
0.0
 40
100.0
  1
16
  7
STYLE1
100
AcDbText
  0
TEXT
  5
19C9A
330
747D
100
AcDbEntity
  8
文字
 62
     7
 48
50.0
100
AcDbText
 10
15022.63965474517
 20
9060.013745883725
 30
0.0
 40
100.0
  1
F12            1.0
  7
STYLE1
100
AcDbText
  0
TEXT
  5
19C9B
330
747D
100
AcDbEntity
  8
文字
 62
     7
 48
50.0
100
AcDbText
 10
13583.11819016569
 20
9060.013745883733
 30
0.0
 40
100.0
  1
壁面扉枠左右
  7
STYLE1
100
AcDbText
  0
TEXT
  5
19C9C
330
747D
100
AcDbEntity
  8
文字
 62
     7
 48
50.0
100
AcDbText
 10
15022.63965474517
 20
9230.013745883725
 30
0.0
 40
100.0
  1
F12            1.0
  7
STYLE1
100
AcDbText
  0
TEXT
  5
19C9D
330
747D
100
AcDbEntity
  8
文字
 62
     7
 48
50.0
100
AcDbText
 10
15022.63965474515
 20
9400.013745883727
 30
0.0
 40
100.0
  1
F12            0.7
  7
STYLE1
100
AcDbText
  0
TEXT
  5
19C9E
330
747D
100
AcDbEntity
  8
文字
 62
     7
 48
50.0
100
AcDbText
 10
13583.11819016569
 20
9230.013745883733
 30
0.0
 40
100.0
  1
壁面扉敷居
  7
STYLE1
100
AcDbText
  0
TEXT
  5
19C9F
330
747D
100
AcDbEntity
  8
文字
 62
     7
 48
50.0
100
AcDbText
 10
13583.11819016569
 20
9400.013745883729
 30
0.0
 40
100.0
  1
壁面扉鴨居
  7
STYLE1
100
AcDbText
  0
LINE
  5
19CA0
330
747D
100
AcDbEntity
  8
仕様書枠
 48
50.0
100
AcDbLine
 10
16307.19999999999
 20
8689.600000000003
 30
0.0
 11
13127.2
 21
8689.600000000005
 31
0.0
  0
LINE
  5
19CA1
330
747D
100
AcDbEntity
  8
仕様書枠
 48
50.0
100
AcDbLine
 10
16307.19999999999
 20
8519.600000000004
 30
0.0
 11
13127.2
 21
8519.600000000005
 31
0.0
  0
TEXT
  5
19CA2
330
747D
100
AcDbEntity
  8
文字
 62
     7
 48
50.0
100
AcDbText
 10
13583.11819016569
 20
8380.013745883728
 30
0.0
 40
100.0
  1
アンカープレート
  7
STYLE1
100
AcDbText
  0
TEXT
  5
19CA3
330
747D
100
AcDbEntity
  8
文字
 62
     7
 48
50.0
100
AcDbText
 10
15022.63965474515
 20
8380.013745883724
 30
0.0
 40
100.0
  1
F12            2.3
  7
STYLE1
100
AcDbText
  0
LINE
  5
19CA4
330
747D
100
AcDbEntity
  8
仕様書枠
 48
50.0
100
AcDbLine
 10
16307.2
 20
10049.6
 30
0.0
 11
13127.2
 21
10049.6
 31
0.0
  0
LINE
  5
19CA5
330
747D
100
AcDbEntity
  8
仕様書枠
 48
50.0
100
AcDbLine
 10
16307.2
 20
11409.59999999999
 30
0.0
 11
13127.2
 21
11409.6
 31
0.0
  0
LINE
  5
19CA6
330
747D
100
AcDbEntity
  8
仕様書枠
 48
50.0
100
AcDbLine
 10
16307.19999999999
 20
8009.600000000004
 30
0.0
 11
16307.2
 21
11409.6
 31
0.0
  0
LINE
  5
19CA7
330
747D
100
AcDbEntity
  8
仕様書枠
 48
50.0
100
AcDbLine
 10
14785.2
 20
11409.59999999999
 30
0.0
 11
14785.2
 21
8349.600000000004
 31
0.0
  0
LINE
  5
19CA8
330
747D
100
AcDbEntity
  8
仕様書枠
 48
50.0
100
AcDbLine
 10
13490.2
 20
11409.59999999999
 30
0.0
 11
13490.20000000001
 21
8349.600000000007
 31
0.0
  0
LINE
  5
19CA9
330
747D
100
AcDbEntity
  8
仕様書枠
 48
50.0
100
AcDbLine
 10
16307.2
 20
11239.59999999999
 30
0.0
 11
13127.2
 21
11239.6
 31
0.0
  0
LINE
  5
19CAA
330
747D
100
AcDbEntity
  8
仕様書枠
 48
50.0
100
AcDbLine
 10
16307.2
 20
10899.6
 30
0.0
 11
13127.2
 21
10899.6
 31
0.0
  0
LINE
  5
19CAB
330
747D
100
AcDbEntity
  8
仕様書枠
 48
50.0
100
AcDbLine
 10
16307.2
 20
11069.59999999999
 30
0.0
 11
13127.2
 21
11069.6
 31
0.0
  0
LINE
  5
19CAC
330
747D
100
AcDbEntity
  8
仕様書枠
 48
50.0
100
AcDbLine
 10
16307.19999999999
 20
10559.6
 30
0.0
 11
13127.2
 21
10559.6
 31
0.0
  0
LINE
  5
19CAD
330
747D
100
AcDbEntity
  8
仕様書枠
 48
50.0
100
AcDbLine
 10
16307.19999999999
 20
10389.6
 30
0.0
 11
13127.2
 21
10389.6
 31
0.0
  0
LINE
  5
19CAE
330
747D
100
AcDbEntity
  8
仕様書枠
 48
50.0
100
AcDbLine
 10
16307.19999999999
 20
10729.59999999999
 30
0.0
 11
13127.2
 21
10729.6
 31
0.0
  0
TEXT
  5
19CAF
330
747D
100
AcDbEntity
  8
文字
 62
     7
 48
50.0
100
AcDbText
 10
13197.42518560407
 20
11270.01374588372
 30
0.0
 40
100.0
  1
品番
  7
STYLE1
100
AcDbText
  0
TEXT
  5
19CB0
330
747D
100
AcDbEntity
  8
文字
 62
     7
 48
50.0
100
AcDbText
 10
13271.19032244792
 20
11100.01374588373
 30
0.0
 40
100.0
  1
1
  7
STYLE1
100
AcDbText
  0
TEXT
  5
19CB1
330
747D
100
AcDbEntity
  8
文字
 62
     7
 48
50.0
100
AcDbText
 10
13271.19032244792
 20
10930.01374588373
 30
0.0
 40
100.0
  1
2
  7
STYLE1
100
AcDbText
  0
TEXT
  5
19CB2
330
747D
100
AcDbEntity
  8
文字
 62
     7
 48
50.0
100
AcDbText
 10
13271.19032244792
 20
10590.01374588373
 30
0.0
 40
100.0
  1
4
  7
STYLE1
100
AcDbText
  0
TEXT
  5
19CB3
330
747D
100
AcDbEntity
  8
文字
 62
     7
 48
50.0
100
AcDbText
 10
13271.19032244792
 20
10760.01374588373
 30
0.0
 40
100.0
  1
3
  7
STYLE1
100
AcDbText
  0
TEXT
  5
19CB4
330
747D
100
AcDbEntity
  8
文字
 62
     7
 48
50.0
100
AcDbText
 10
13732.03840939434
 20
11270.01374588372
 30
0.0
 40
100.0
  1
部　　品　　名
  7
STYLE1
100
AcDbText
  0
TEXT
  5
19CB5
330
747D
100
AcDbEntity
  8
文字
 62
     7
 48
50.0
100
AcDbText
 10
14859.79774614482
 20
11270.01374588372
 30
0.0
 40
100.0
  1
材料（材質）　　単位mm
  7
STYLE1
100
AcDbText
  0
TEXT
  5
19CB6
330
747D
100
AcDbEntity
  8
文字
 62
     7
 48
50.0
100
AcDbText
 10
13583.11819016569
 20
11100.01374588372
 30
0.0
 40
100.0
  1
土台枠
  7
STYLE1
100
AcDbText
  0
TEXT
  5
19CB7
330
747D
100
AcDbEntity
  8
文字
 62
     7
 48
50.0
100
AcDbText
 10
13583.1181901657
 20
10760.01374588372
 30
0.0
 40
100.0
  1
柱
  7
STYLE1
100
AcDbText
  0
TEXT
  5
19CB8
330
747D
100
AcDbEntity
  8
文字
 62
     7
 48
50.0
100
AcDbText
 10
13583.11819016569
 20
10420.01374588373
 30
0.0
 40
100.0
  1
桁前後
  7
STYLE1
100
AcDbText
  0
TEXT
  5
19CB9
330
747D
100
AcDbEntity
  8
文字
 62
     7
 48
50.0
100
AcDbText
 10
13271.19032244792
 20
10420.01374588372
 30
0.0
 40
100.0
  1
5
  7
STYLE1
100
AcDbText
  0
TEXT
  5
19CBA
330
747D
100
AcDbEntity
  8
文字
 62
     7
 48
50.0
100
AcDbText
 10
13583.11819016569
 20
10250.01374588373
 30
0.0
 40
100.0
  1
妻板左右
  7
STYLE1
100
AcDbText
  0
TEXT
  5
19CBB
330
747D
100
AcDbEntity
  8
文字
 62
     7
 48
50.0
100
AcDbText
 10
13248.77747366447
 20
9570.013745883727
 30
0.0
 40
100.0
  1
10
  7
STYLE1
100
AcDbText
  0
TEXT
  5
19CBC
330
747D
100
AcDbEntity
  8
文字
 62
     7
 48
50.0
100
AcDbText
 10
13583.11819016568
 20
9570.013745883729
 30
0.0
 40
100.0
  1
壁パネル
  7
STYLE1
100
AcDbText
  0
TEXT
  5
19CBD
330
747D
100
AcDbEntity
  8
文字
 62
     7
 48
50.0
100
AcDbText
 10
13583.11819016569
 20
9910.013745883727
 30
0.0
 40
100.0
  1
屋根パネル
  7
STYLE1
100
AcDbText
  0
TEXT
  5
19CBE
330
747D
100
AcDbEntity
  8
文字
 62
     7
 48
50.0
100
AcDbText
 10
13583.11819016569
 20
10080.01374588372
 30
0.0
 40
100.0
  1
鼻隠シ前後
  7
STYLE1
100
AcDbText
  0
TEXT
  5
19CBF
330
747D
100
AcDbEntity
  8
文字
 62
     7
 48
50.0
100
AcDbText
 10
13271.19032244792
 20
9910.01374588373
 30
0.0
 40
100.0
  1
8
  7
STYLE1
100
AcDbText
  0
TEXT
  5
19CC0
330
747D
100
AcDbEntity
  8
文字
 62
     7
 48
50.0
100
AcDbText
 10
13271.19032244792
 20
9740.013745883729
 30
0.0
 40
100.0
  1
9
  7
STYLE1
100
AcDbText
  0
TEXT
  5
19CC1
330
747D
100
AcDbEntity
  8
文字
 62
     7
 48
50.0
100
AcDbText
 10
13271.19032244792
 20
10080.01374588373
 30
0.0
 40
100.0
  1
7
  7
STYLE1
100
AcDbText
  0
TEXT
  5
19CC2
330
747D
100
AcDbEntity
  8
文字
 62
     7
 48
50.0
100
AcDbText
 10
13271.19032244792
 20
10250.01374588373
 30
0.0
 40
100.0
  1
6
  7
STYLE1
100
AcDbText
  0
LINE
  5
19CC3
330
747D
100
AcDbEntity
  8
仕様書枠
 48
50.0
100
AcDbLine
 10
16307.19999999999
 20
9709.6
 30
0.0
 11
13127.2
 21
9709.600000000001
 31
0.0
  0
LINE
  5
19CC4
330
747D
100
AcDbEntity
  8
仕様書枠
 48
50.0
100
AcDbLine
 10
16307.19999999999
 20
9369.599999999998
 30
0.0
 11
13127.2
 21
9369.600000000001
 31
0.0
  0
LINE
  5
19CC5
330
747D
100
AcDbEntity
  8
仕様書枠
 48
50.0
100
AcDbLine
 10
16307.19999999999
 20
9539.599999999998
 30
0.0
 11
13127.2
 21
9539.6
 31
0.0
  0
LINE
  5
19CC6
330
747D
100
AcDbEntity
  8
仕様書枠
 48
50.0
100
AcDbLine
 10
16307.2
 20
10219.6
 30
0.0
 11
13127.2
 21
10219.6
 31
0.0
  0
LINE
  5
19CC7
330
747D
100
AcDbEntity
  8
仕様書枠
 48
50.0
100
AcDbLine
 10
16307.2
 20
9879.599999999999
 30
0.0
 11
13127.2
 21
9879.600000000001
 31
0.0
  0
TEXT
  5
19CC8
330
747D
100
AcDbEntity
  8
文字
 62
     7
 48
50.0
100
AcDbText
 10
13248.77747366447
 20
9400.013745883727
 30
0.0
 40
100.0
  1
11
  7
STYLE1
100
AcDbText
  0
LINE
  5
19CC9
330
747D
100
AcDbEntity
  8
仕様書枠
 48
50.0
100
AcDbLine
 10
16307.19999999999
 20
9199.599999999998
 30
0.0
 11
13127.2
 21
9199.600000000001
 31
0.0
  0
LINE
  5
19CCA
330
747D
100
AcDbEntity
  8
仕様書枠
 48
50.0
100
AcDbLine
 10
16307.19999999999
 20
8859.6
 30
0.0
 11
13127.2
 21
8859.600000000002
 31
0.0
  0
TEXT
  5
19CCB
330
747D
100
AcDbEntity
  8
文字
 62
     7
 48
50.0
100
AcDbText
 10
13248.77747366448
 20
9060.013745883727
 30
0.0
 40
100.0
  1
13
  7
STYLE1
100
AcDbText
  0
TEXT
  5
19CCC
330
747D
100
AcDbEntity
  8
文字
 62
     7
 48
50.0
100
AcDbText
 10
13248.77747366448
 20
9230.013745883727
 30
0.0
 40
100.0
  1
12
  7
STYLE1
100
AcDbText
  0
TEXT
  5
19CCD
330
747D
100
AcDbEntity
  8
文字
 62
     7
 48
50.0
100
AcDbText
 10
15022.63965474517
 20
11100.01374588372
 30
0.0
 40
100.0
  1
F12            1.2
  7
STYLE1
100
AcDbText
  0
TEXT
  5
19CCE
330
747D
100
AcDbEntity
  8
文字
 62
     7
 48
50.0
100
AcDbText
 10
15022.63965474518
 20
10760.01374588372
 30
0.0
 40
100.0
  1
F12            1.0
  7
STYLE1
100
AcDbText
  0
TEXT
  5
19CCF
330
747D
100
AcDbEntity
  8
文字
 62
     7
 48
50.0
100
AcDbText
 10
15022.63965474516
 20
10420.01374588372
 30
0.0
 40
100.0
  1
Y10            1.0
  7
STYLE1
100
AcDbText
  0
TEXT
  5
19CD0
330
747D
100
AcDbEntity
  8
文字
 62
     7
 48
50.0
100
AcDbText
 10
15022.63965474516
 20
10250.01374588372
 30
0.0
 40
100.0
  1
Y10            0.7
  7
STYLE1
100
AcDbText
  0
TEXT
  5
19CD1
330
747D
100
AcDbEntity
  8
文字
 62
     7
 48
50.0
100
AcDbText
 10
15022.63965474516
 20
10080.01374588372
 30
0.0
 40
100.0
  1
Y10            0.7
  7
STYLE1
100
AcDbText
  0
TEXT
  5
19CD2
330
747D
100
AcDbEntity
  8
文字
 62
     7
 48
50.0
100
AcDbText
 10
15022.63965474517
 20
9910.013745883725
 30
0.0
 40
100.0
  1
Y10            0.5
  7
STYLE1
100
AcDbText
  0
TEXT
  5
19CD3
330
747D
100
AcDbEntity
  8
文字
 62
     7
 48
50.0
100
AcDbText
 10
15022.63965474515
 20
9570.013745883725
 30
0.0
 40
100.0
  1
F12            0.6
  7
STYLE1
100
AcDbText
  0
LINE
  5
19CD4
330
747D
100
AcDbEntity
  8
仕様書枠
 48
50.0
100
AcDbLine
 10
16307.19999999999
 20
8349.600000000004
 30
0.0
 11
13127.19999999999
 21
8349.600000000007
 31
0.0
  0
LINE
  5
19CD5
330
747D
100
AcDbEntity
  8
仕様書枠
 48
50.0
100
AcDbLine
 10
16307.19999999999
 20
8179.600000000004
 30
0.0
 11
13127.19999999999
 21
8179.600000000005
 31
0.0
  0
TEXT
  5
19CD6
330
747D
100
AcDbEntity
  8
文字
 62
     7
 48
50.0
100
AcDbText
 10
13229.83081656554
 20
8210.013745883733
 30
0.0
 40
100.0
  1
F12→溶融亜鉛めっき鋼板(JIS G 3302)
  7
STYLE1
100
AcDbText
  0
TEXT
  5
19CD7
330
747D
100
AcDbEntity
  8
文字
 62
     7
 48
50.0
100
AcDbText
 10
13229.83081656554
 20
8040.013745883731
 30
0.0
 40
100.0
  1
Y10→溶融亜鉛-5％アルミニウム合金めっき鋼板(JIS G 3317)
 41
0.9
  7
STYLE1
100
AcDbText
  0
LINE
  5
19CD8
330
747D
100
AcDbEntity
  8
仕様書枠
 48
50.0
100
AcDbLine
 10
13127.2
 20
11409.6
 30
0.0
 11
13127.19999999999
 21
8009.600000000006
 31
0.0
  0
LINE
  5
19CD9
330
747D
100
AcDbEntity
  8
仕様書枠
 48
50.0
100
AcDbLine
 10
16307.19999999999
 20
9029.6
 30
0.0
 11
13127.2
 21
9029.600000000002
 31
0.0
  0
TEXT
  5
19CDA
330
747D
100
AcDbEntity
  8
文字
 62
     7
 48
50.0
100
AcDbText
 10
13583.1181901657
 20
10590.01374588372
 30
0.0
 40
100.0
  1
床パネル
 41
0.9
  7
STYLE1
100
AcDbText
  0
TEXT
  5
19CDB
330
747D
100
AcDbEntity
  8
文字
 62
     7
 48
50.0
100
AcDbText
 10
13583.11819016569
 20
10930.01374588372
 30
0.0
 40
100.0
  1
根太
  7
STYLE1
100
AcDbText
  0
TEXT
  5
19CDC
330
747D
100
AcDbEntity
  8
文字
 62
     7
 48
50.0
100
AcDbText
 10
13248.77747366448
 20
8890.013745883727
 30
0.0
 40
100.0
  1
14
  7
STYLE1
100
AcDbText
  0
TEXT
  5
19CDD
330
747D
100
AcDbEntity
  8
文字
 62
     7
 48
50.0
100
AcDbText
 10
15022.63965474516
 20
10930.01374588372
 30
0.0
 40
100.0
  1
F12            1.2
  7
STYLE1
100
AcDbText
  0
TEXT
  5
19CDE
330
747D
100
AcDbEntity
  8
文字
 62
     7
 48
50.0
100
AcDbText
 10
15022.63965474517
 20
10590.01374588372
 30
0.0
 40
100.0
  1
F12            1.0
  7
STYLE1
100
AcDbText
  0
TEXT
  5
19CDF
330
747D
100
AcDbEntity
  8
文字
 62
     7
 48
50.0
100
AcDbText
 10
15022.63965474515
 20
8890.013745883727
 30
0.0
 40
100.0
  1
F12            0.7
  7
STYLE1
100
AcDbText
  0
TEXT
  5
19CE0
330
747D
100
AcDbEntity
  8
文字
 62
     7
 48
50.0
100
AcDbText
 10
13583.11819016568
 20
8890.013745883731
 30
0.0
 40
100.0
  1
正面パネル
  7
STYLE1
100
AcDbText
  0
TEXT
  5
19CE1
330
747D
100
AcDbEntity
  8
文字
 62
     7
 48
50.0
100
AcDbText
 10
15022.63965474516
 20
8720.013745883727
 30
0.0
 40
100.0
  1
F12            0.8
  7
STYLE1
100
AcDbText
  0
TEXT
  5
19CE2
330
747D
100
AcDbEntity
  8
文字
 62
     7
 48
50.0
100
AcDbText
 10
13583.11819016569
 20
8720.013745883731
 30
0.0
 40
100.0
  1
扉
  7
STYLE1
100
AcDbText
  0
LINE
  5
19CE3
330
747D
100
AcDbEntity
  8
仕様書枠
 48
50.0
100
AcDbLine
 10
16307.19999999999
 20
8009.600000000004
 30
0.0
 11
13127.19999999999
 21
8009.600000000006
 31
0.0
  0
TEXT
  5
19CE4
330
747D
100
AcDbEntity
  8
文字
 62
     7
 48
50.0
100
AcDbText
 10
13248.77747366447
 20
8720.013745883729
 30
0.0
 40
100.0
  1
15
  7
STYLE1
100
AcDbText
  0
TEXT
  5
19CE5
330
747D
100
AcDbEntity
  8
文字
 62
     7
 48
50.0
100
AcDbText
 10
13583.11819016569
 20
9740.013745883729
 30
0.0
 40
100.0
  1
母屋中
  7
STYLE1
100
AcDbText
  0
TEXT
  5
19CE6
330
747D
100
AcDbEntity
  8
文字
 62
     7
 48
50.0
100
AcDbText
 10
15022.63965474516
 20
8550.013745883727
 30
0.0
 40
100.0
  1
F12            0.6
  7
STYLE1
100
AcDbText
  0
TEXT
  5
19CE7
330
747D
100
AcDbEntity
  8
文字
 62
     7
 48
50.0
100
AcDbText
 10
13583.11819016569
 20
8550.013745883731
 30
0.0
 40
100.0
  1
棚板
  7
STYLE1
100
AcDbText
  0
MTEXT
  5
19E3C
330
747D
100
AcDbEntity
  8
寸法
 62
     7
 48
50.0
100
AcDbMText
 10
10526.61206094811
 20
9550.959845111924
 30
0.0
 40
96.0
 41
0.0
 71
     5
 72
     1
  1
棚 2段
  7
STYLE1
 73
     1
 44
1.0
1001
ACAD
1000
MTEXTBEGIN
1070
    73
1070
     1
1070
    44
1040
1.0
1070
    74
1070
     0
1000
MTEXTEND
  0
MTEXT
  5
19E3D
330
747D
100
AcDbEntity
  8
寸法
 62
     7
 48
50.0
100
AcDbMText
 10
9016.612060948073
 20
9550.959845111899
 30
0.0
 40
96.0
 41
0.0
 71
     5
 72
     1
  1
棚 2段
  7
STYLE1
 73
     1
 44
1.0
1001
ACAD
1000
MTEXTBEGIN
1070
    73
1070
     1
1070
    44
1040
1.0
1070
    74
1070
     0
1000
MTEXTEND
  0
LINE
  5
19E3E
330
747D
100
AcDbEntity
  8
細線
 48
50.0
100
AcDbLine
 10
8364.009523854972
 20
4008.09771128966
 30
0.0
 11
8364.009523854969
 21
2218.09771128966
 31
0.0
  0
LINE
  5
19E3F
330
747D
100
AcDbEntity
  8
細線
 48
50.0
100
AcDbLine
 10
8349.009523854972
 20
4008.09771128966
 30
0.0
 11
8349.00952385497
 21
2218.09771128966
 31
0.0
  0
LINE
  5
19E40
330
747D
100
AcDbEntity
  8
細線
 48
50.0
100
AcDbLine
 10
8489.009523854972
 20
4008.09771128966
 30
0.0
 11
8489.009523854969
 21
2218.09771128966
 31
0.0
  0
LINE
  5
19E41
330
747D
100
AcDbEntity
  8
細線
 48
50.0
100
AcDbLine
 10
8504.009523854971
 20
4008.09771128966
 30
0.0
 11
8504.009523854969
 21
2218.09771128966
 31
0.0
  0
LINE
  5
19E42
330
747D
100
AcDbEntity
  8
細線
 48
50.0
100
AcDbLine
 10
8644.009523854972
 20
4008.09771128966
 30
0.0
 11
8644.009523854968
 21
2218.09771128966
 31
0.0
  0
LINE
  5
19E43
330
747D
100
AcDbEntity
  8
細線
 48
50.0
100
AcDbLine
 10
8629.009523854971
 20
4008.09771128966
 30
0.0
 11
8629.009523854969
 21
2218.09771128966
 31
0.0
  0
LINE
  5
19E44
330
747D
100
AcDbEntity
  8
細線
 48
50.0
100
AcDbLine
 10
11149.00952385498
 20
4008.097711289662
 30
0.0
 11
11149.00952385498
 21
2218.09771128966
 31
0.0
  0
LINE
  5
19E45
330
747D
100
AcDbEntity
  8
細線
 48
50.0
100
AcDbLine
 10
11164.00952385498
 20
4008.097711289662
 30
0.0
 11
11164.00952385498
 21
2218.09771128966
 31
0.0
  0
LINE
  5
19E46
330
747D
100
AcDbEntity
  8
細線
 48
50.0
100
AcDbLine
 10
11024.00952385498
 20
4008.097711289662
 30
0.0
 11
11024.00952385498
 21
2218.09771128966
 31
0.0
  0
LINE
  5
19E47
330
747D
100
AcDbEntity
  8
細線
 48
50.0
100
AcDbLine
 10
11009.00952385498
 20
4008.097711289662
 30
0.0
 11
11009.00952385498
 21
2218.09771128966
 31
0.0
  0
LINE
  5
19E48
330
747D
100
AcDbEntity
  8
細線
 48
50.0
100
AcDbLine
 10
10869.00952385498
 20
4008.097711289662
 30
0.0
 11
10869.00952385498
 21
2218.09771128966
 31
0.0
  0
LINE
  5
19E49
330
747D
100
AcDbEntity
  8
細線
 48
50.0
100
AcDbLine
 10
10884.00952385498
 20
4008.097711289662
 30
0.0
 11
10884.00952385498
 21
2218.09771128966
 31
0.0
  0
LINE
  5
19E4A
330
747D
100
AcDbEntity
  8
部品1
 48
50.0
100
AcDbLine
 10
11226.50952385497
 20
2218.09771128966
 30
0.0
 11
11226.50952385497
 21
4008.09771128966
 31
0.0
  0
LINE
  5
19E4B
330
747D
100
AcDbEntity
  8
部品1
100
AcDbLine
 10
8706.509523854972
 20
4008.09771128966
 30
0.0
 11
8706.509523854974
 21
4003.09771128966
 31
0.0
  0
LINE
  5
19E4C
330
747D
100
AcDbEntity
  8
部品1
 48
50.0
100
AcDbLine
 10
10833.50952385497
 20
3959.09771128966
 30
0.0
 11
10803.50952385497
 21
3959.09771128966
 31
0.0
  0
LINE
  5
19E4D
330
747D
100
AcDbEntity
  8
部品1
 48
50.0
100
AcDbLine
 10
10833.50952385497
 20
4003.09771128966
 30
0.0
 11
8679.509523854969
 21
4003.09771128966
 31
0.0
  0
LINE
  5
19E4E
330
747D
100
AcDbEntity
  8
細線
 48
50.0
100
AcDbLine
 10
10833.50952385497
 20
3993.09771128966
 30
0.0
 11
8679.509523854969
 21
3993.09771128966
 31
0.0
  0
LINE
  5
19E4F
330
747D
100
AcDbEntity
  8
細線
 48
50.0
100
AcDbLine
 10
10803.50952385497
 20
3951.09771128966
 30
0.0
 11
8709.509523854968
 21
3951.09771128966
 31
0.0
  0
LINE
  5
19E50
330
747D
100
AcDbEntity
  8
細線
 48
50.0
100
AcDbLine
 10
10803.50952385497
 20
3960.59771128966
 30
0.0
 11
8709.509523854968
 21
3960.59771128966
 31
0.0
  0
LINE
  5
19E51
330
747D
100
AcDbEntity
  8
部品1
 48
50.0
100
AcDbLine
 10
8709.509523854968
 20
3959.09771128966
 30
0.0
 11
8679.509523854969
 21
3959.09771128966
 31
0.0
  0
LINE
  5
19E52
330
747D
100
AcDbEntity
  8
部品1
 48
50.0
100
AcDbLine
 10
8679.509523854969
 20
2168.09771128966
 30
0.0
 11
10833.50952385497
 21
2168.09771128966
 31
0.0
  0
LINE
  5
19E53
330
747D
100
AcDbEntity
  8
部品1
 48
50.0
100
AcDbLine
 10
8679.509523854969
 20
2168.09771128966
 30
0.0
 11
10833.50952385497
 21
2168.09771128966
 31
0.0
  0
LINE
  5
19E54
330
747D
100
AcDbEntity
  8
細線
 48
50.0
100
AcDbLine
 10
8709.509523854968
 20
2211.09771128966
 30
0.0
 11
10803.50952385497
 21
2211.09771128966
 31
0.0
  0
LINE
  5
19E55
330
747D
100
AcDbEntity
  8
細線
 48
50.0
100
AcDbLine
 10
8709.509523854968
 20
2215.09771128966
 30
0.0
 11
10803.50952385497
 21
2215.09771128966
 31
0.0
  0
LINE
  5
19E56
330
747D
100
AcDbEntity
  8
細線
 48
50.0
100
AcDbLine
 10
9513.509523854969
 20
2225.59771128966
 30
0.0
 11
10777.50952385497
 21
2225.59771128966
 31
0.0
  0
LINE
  5
19E57
330
747D
100
AcDbEntity
  8
部品1
 48
50.0
100
AcDbLine
 10
8709.509523854968
 20
2218.09771128966
 30
0.0
 11
9513.509523854965
 21
2218.097711289656
 31
0.0
  0
LINE
  5
19E58
330
747D
100
AcDbEntity
  8
部品1
 48
50.0
100
AcDbLine
 10
8718.509523854969
 20
2218.09771128966
 30
0.0
 11
8718.509523854969
 21
2215.09771128966
 31
0.0
  0
LINE
  5
19E59
330
747D
100
AcDbEntity
  8
細線
 48
50.0
100
AcDbLine
 10
10781.50952385497
 20
2215.09771128966
 30
0.0
 11
10777.50952385497
 21
2225.59771128966
 31
0.0
  0
LINE
  5
19E5D
330
747D
100
AcDbEntity
  8
部品1
 48
50.0
100
AcDbLine
 10
8753.509523854971
 20
3149.59771128966
 30
0.0
 11
8806.509523854968
 21
3149.59771128966
 31
0.0
  0
LINE
  5
19E77
330
747D
100
AcDbEntity
  8
部品1
 48
50.0
100
AcDbLine
 10
8709.509523854968
 20
2218.09771128966
 30
0.0
 11
8709.509523854968
 21
3951.09771128966
 31
0.0
  0
LINE
  5
19E78
330
747D
100
AcDbEntity
  8
細線
 48
50.0
100
AcDbLine
 10
8709.509523854968
 20
3960.59771128966
 30
0.0
 11
8709.509523854968
 21
2168.09771128966
 31
0.0
  0
LINE
  5
19E79
330
747D
100
AcDbEntity
  8
部品1
 48
50.0
100
AcDbLine
 10
8679.509523854969
 20
4003.09771128966
 30
0.0
 11
8679.509523854969
 21
2168.09771128966
 31
0.0
  0
LINE
  5
19E7A
330
747D
100
AcDbEntity
  8
部品1
 48
50.0
100
AcDbLine
 10
9513.509523854969
 20
3951.097711314427
 30
0.0
 11
9513.509523854969
 21
2218.097711314428
 31
0.0
  0
LINE
  5
19E7B
330
747D
100
AcDbEntity
  8
部品1
 48
50.0
100
AcDbLine
 10
10794.50952385497
 20
2215.09771128966
 30
0.0
 11
10794.50952385497
 21
3951.09771128966
 31
0.0
  0
LINE
  5
19E7C
330
747D
100
AcDbEntity
  8
細線
 48
50.0
100
AcDbLine
 10
10803.50952385497
 20
2168.09771128966
 30
0.0
 11
10803.50952385497
 21
3960.59771128966
 31
0.0
  0
LINE
  5
19E7D
330
747D
100
AcDbEntity
  8
部品1
 48
50.0
100
AcDbLine
 10
10833.50952385497
 20
2168.09771128966
 30
0.0
 11
10833.50952385497
 21
4003.09771128966
 31
0.0
  0
LINE
  5
19E7E
330
747D
100
AcDbEntity
  8
部品1
 48
50.0
100
AcDbLine
 10
10167.50951415983
 20
3951.097711326808
 30
0.0
 11
10167.50951415983
 21
2225.597711326807
 31
0.0
  0
LINE
  5
19E7F
330
747D
100
AcDbEntity
  8
細線
100
AcDbLine
 10
10290.25952385497
 20
3951.09771128966
 30
0.0
 11
10290.25952385497
 21
2225.597711289678
 31
0.0
  0
LINE
  5
19E80
330
747D
100
AcDbEntity
  8
細線
100
AcDbLine
 10
9575.009533605213
 20
3951.09771128966
 30
0.0
 11
9575.009533605213
 21
2225.597711289671
 31
0.0
  0
LINE
  5
19E81
330
747D
100
AcDbEntity
  8
細線
100
AcDbLine
 10
9645.009533605213
 20
3951.09771128966
 30
0.0
 11
9645.009533605213
 21
2225.597711289671
 31
0.0
  0
LINE
  5
19E82
330
747D
100
AcDbEntity
  8
細線
100
AcDbLine
 10
8923.509523854969
 20
3951.09771128966
 30
0.0
 11
8923.509523854965
 21
2218.097711289663
 31
0.0
  0
LINE
  5
19E83
330
747D
100
AcDbEntity
  8
細線
100
AcDbLine
 10
8993.509523854969
 20
3951.09771128966
 30
0.0
 11
8993.509523854966
 21
2218.097711289663
 31
0.0
  0
LINE
  5
19E84
330
747D
100
AcDbEntity
  8
細線
100
AcDbLine
 10
10360.25952385497
 20
3951.09771128966
 30
0.0
 11
10360.25952385497
 21
2225.597711289678
 31
0.0
  0
LINE
  5
19E85
330
747D
100
AcDbEntity
  8
細線
100
AcDbLine
 10
10430.25952385497
 20
3951.09771128966
 30
0.0
 11
10430.25952385497
 21
2225.597711289678
 31
0.0
  0
LINE
  5
19E86
330
747D
100
AcDbEntity
  8
細線
100
AcDbLine
 10
10500.25952385497
 20
3951.09771128966
 30
0.0
 11
10500.25952385497
 21
2225.597711289678
 31
0.0
  0
LINE
  5
19E87
330
747D
100
AcDbEntity
  8
細線
100
AcDbLine
 10
10570.25952385497
 20
3951.09771128966
 30
0.0
 11
10570.25952385497
 21
2225.597711289678
 31
0.0
  0
LINE
  5
19E88
330
747D
100
AcDbEntity
  8
細線
100
AcDbLine
 10
10640.25952385497
 20
3951.09771128966
 30
0.0
 11
10640.25952385497
 21
2225.597711289678
 31
0.0
  0
LINE
  5
19E89
330
747D
100
AcDbEntity
  8
細線
100
AcDbLine
 10
9715.009533605213
 20
3951.09771128966
 30
0.0
 11
9715.009533605213
 21
2225.597711289671
 31
0.0
  0
LINE
  5
19E8A
330
747D
100
AcDbEntity
  8
細線
100
AcDbLine
 10
9785.009533605213
 20
3951.09771128966
 30
0.0
 11
9785.009533605213
 21
2225.597711289671
 31
0.0
  0
LINE
  5
19E8B
330
747D
100
AcDbEntity
  8
細線
100
AcDbLine
 10
9855.009533605212
 20
3951.09771128966
 30
0.0
 11
9855.009533605212
 21
2225.597711289671
 31
0.0
  0
LINE
  5
19E8C
330
747D
100
AcDbEntity
  8
細線
100
AcDbLine
 10
9925.009533605212
 20
3951.09771128966
 30
0.0
 11
9925.009533605212
 21
2225.597711289671
 31
0.0
  0
LINE
  5
19E8D
330
747D
100
AcDbEntity
  8
細線
100
AcDbLine
 10
9995.009533605212
 20
3951.09771128966
 30
0.0
 11
9995.009533605212
 21
2225.597711289671
 31
0.0
  0
LINE
  5
19E8E
330
747D
100
AcDbEntity
  8
細線
100
AcDbLine
 10
10065.00953360521
 20
3951.09771128966
 30
0.0
 11
10065.00953360521
 21
2225.597711289671
 31
0.0
  0
LINE
  5
19E8F
330
747D
100
AcDbEntity
  8
細線
100
AcDbLine
 10
8837.509523854967
 20
3951.09771128966
 30
0.0
 11
8837.509523854969
 21
2218.097711289663
 31
0.0
  0
LINE
  5
19E90
330
747D
100
AcDbEntity
  8
細線
100
AcDbLine
 10
8871.509523854966
 20
3951.09771128966
 30
0.0
 11
8871.509523854969
 21
2218.097711289663
 31
0.0
  0
LINE
  5
19E91
330
747D
100
AcDbEntity
  8
部品1
100
AcDbLine
 10
8829.509523854966
 20
3951.09771128966
 30
0.0
 11
8829.509523854969
 21
2218.097711289663
 31
0.0
  0
LINE
  5
19E92
330
747D
100
AcDbEntity
  8
部品1
100
AcDbLine
 10
8879.509523854967
 20
3951.09771128966
 30
0.0
 11
8879.509523854968
 21
2218.097711289663
 31
0.0
  0
LINE
  5
19E93
330
747D
100
AcDbEntity
  8
細線
100
AcDbLine
 10
9063.509523854969
 20
3951.09771128966
 30
0.0
 11
9063.509523854966
 21
2218.097711289663
 31
0.0
  0
LINE
  5
19E94
330
747D
100
AcDbEntity
  8
細線
100
AcDbLine
 10
9133.50952385497
 20
3951.09771128966
 30
0.0
 11
9133.509523854966
 21
2218.097711289663
 31
0.0
  0
LINE
  5
19E95
330
747D
100
AcDbEntity
  8
細線
100
AcDbLine
 10
9203.50952385497
 20
3951.09771128966
 30
0.0
 11
9203.509523854966
 21
2218.097711289663
 31
0.0
  0
LINE
  5
19E96
330
747D
100
AcDbEntity
  8
細線
100
AcDbLine
 10
9273.509523854968
 20
3951.09771128966
 30
0.0
 11
9273.509523854967
 21
2218.097711289663
 31
0.0
  0
LINE
  5
19E97
330
747D
100
AcDbEntity
  8
細線
100
AcDbLine
 10
9343.509523854969
 20
3951.09771128966
 30
0.0
 11
9343.509523854967
 21
2218.097711289667
 31
0.0
  0
LINE
  5
19E98
330
747D
100
AcDbEntity
  8
細線
100
AcDbLine
 10
9413.509523854969
 20
3951.09771128966
 30
0.0
 11
9413.509523854965
 21
2218.097711289667
 31
0.0
  0
LINE
  5
19E99
330
747D
100
AcDbEntity
  8
部品1
100
AcDbLine
 10
10167.50951415982
 20
3951.097711326811
 30
0.0
 11
10167.50951415982
 21
2225.597711326825
 31
0.0
  0
LINE
  5
19E9A
330
747D
100
AcDbEntity
  8
部品1
 48
50.0
100
AcDbLine
 10
9513.509523854969
 20
3951.097711314427
 30
0.0
 11
9513.509523854965
 21
2218.097711289656
 31
0.0
  0
DIMENSION
  5
19E9B
330
747D
100
AcDbEntity
  8
寸法
100
AcDbDimension
  2
*D2
 10
7322.870141925616
 20
2068.097711289661
 30
0.0
 11
7322.870141925614
 21
1832.05046719517
 31
0.0
 70
   160
 71
     5
 42
100.0
  3
INABA_S40G
100
AcDbAlignedDimension
 13
8176.509523854972
 23
2168.097711289661
 33
0.0
 14
7607.856814696676
 24
2068.097711289661
 34
0.0
 50
90.0
100
AcDbRotatedDimension
1001
ACAD
1000
DSTYLE
1002
{
1070
   174
1070
     0
1070
   272
1070
     1
1070
   288
1070
     0
1070
   341
1005
0
1002
}
  0
DIMENSION
  5
19E9C
330
747D
100
AcDbEntity
  8
寸法
100
AcDbDimension
  2
*D3
 10
7607.856814696676
 20
2168.097711289661
 30
0.0
 11
7607.856814696676
 21
1862.05046719517
 31
0.0
 70
   160
 71
     5
 42
50.0
  3
INABA_S40G
100
AcDbAlignedDimension
 13
8231.509523854972
 23
2218.097711289661
 33
0.0
 14
8176.509523854972
 24
2168.097711289661
 34
0.0
 50
90.0
100
AcDbRotatedDimension
1001
ACAD
1000
DSTYLE
1002
{
1070
   174
1070
     0
1070
   272
1070
     1
1070
   288
1070
     0
1070
   341
1005
0
1002
}
  0
DIMENSION
  5
19E9D
330
747D
100
AcDbEntity
  8
寸法
100
AcDbDimension
  2
*D4
 10
7607.856814696676
 20
2218.097711289661
 30
0.0
 11
7607.856814696676
 21
3108.552009831619
 31
0.0
 70
   160
 71
     5
 42
1790.0
  3
INABA_S40G
100
AcDbAlignedDimension
 13
8231.509523854972
 23
4008.097711289661
 33
0.0
 14
8231.509523854972
 24
2218.097711289661
 34
0.0
 50
90.0
100
AcDbRotatedDimension
1001
ACAD
1000
DSTYLE
1002
{
1070
   174
1070
     0
1070
   272
1070
     1
1070
   288
1070
     0
1070
   341
1005
0
1002
}
  0
DIMENSION
  5
19E9E
330
747D
100
AcDbEntity
  8
寸法
100
AcDbDimension
  2
*D5
 10
7322.870141925616
 20
4243.097711289666
 30
0.0
 11
7322.870141925614
 21
3162.303588782771
 31
0.0
 70
   160
 71
     5
 42
2075.000000000005
  3
INABA_S40G
100
AcDbAlignedDimension
 13
8231.509523854972
 23
2168.097711289661
 33
0.0
 14
8171.509523854973
 24
4243.097711289666
 34
0.0
 50
90.0
100
AcDbRotatedDimension
1001
ACAD
1000
DSTYLE
1002
{
1070
   174
1070
     0
1070
   272
1070
     1
1070
   288
1070
     0
1070
   341
1005
0
1002
}
  0
DIMENSION
  5
19E9F
330
747D
100
AcDbEntity
  8
寸法
 48
50.0
100
AcDbDimension
  2
*D6
 10
7610.901117086602
 20
4117.442970162989
 30
0.0
 11
7621.566592345527
 21
4488.289633404699
 31
0.0
 70
   161
 71
     5
 42
141.0000000000018
  3
INABA_S40G
100
AcDbAlignedDimension
 13
8190.905544013553
 23
4241.82046012434
 33
0.0
 14
8186.852088456927
 24
4100.878736358626
 34
0.0
1001
ACAD
1000
DSTYLE
1002
{
1070
   174
1070
     0
1070
   272
1070
     1
1070
   288
1070
     0
1070
   341
1005
0
1002
}
  0
DIMENSION
  5
19EA0
330
747D
100
AcDbEntity
  8
寸法
 48
50.0
100
AcDbDimension
  2
*D7
 10
7939.036834275583
 20
2226.09771128966
 30
0.0
 11
7939.036834275583
 21
3067.544930807951
 31
0.0
 70
   160
  1
有効開口部高サ<>
 71
     5
 42
1725.000000000001
  3
INABA_S40G
100
AcDbAlignedDimension
 13
8679.509523854974
 23
3951.097711289661
 33
0.0
 14
8679.509523854974
 24
2226.09771128966
 34
0.0
 50
90.0
100
AcDbRotatedDimension
  0
LINE
  5
19EA1
330
747D
100
AcDbEntity
  8
細線
 48
50.0
100
AcDbLine
 10
11328.47880704866
 20
4187.251133769133
 30
0.0
 11
11323.76184096697
 21
4062.318917834216
 31
0.0
  0
LINE
  5
19EA2
330
747D
100
AcDbEntity
  8
部品1
 48
50.0
100
AcDbLine
 10
11360.72342666567
 20
4179.038863563882
 30
0.0
 11
11358.69280547471
 21
4159.093822306103
 31
0.0
  0
LINE
  5
19EA3
330
747D
100
AcDbEntity
  8
部品1
 48
50.0
100
AcDbLine
 10
11355.34023899022
 20
4155.783188233193
 30
0.0
 11
11347.83345972539
 21
4082.050567488181
 31
0.0
  0
LINE
  5
19EA4
330
747D
100
AcDbEntity
  8
部品1
 48
50.0
100
AcDbLine
 10
11344.4808932409
 20
4078.73993341527
 30
0.0
 11
11343.40133020116
 21
4068.136316421711
 31
0.0
  0
ARC
  5
19EA5
330
747D
100
AcDbEntity
  8
部品1
 48
50.0
100
AcDbCircle
 10
11353.75942610092
 20
4179.747874236658
 30
0.0
 40
7.0
100
AcDbArc
 50
354.1866997665532
 51
87.03587545283093
  0
ARC
  5
19EA6
330
747D
100
AcDbEntity
  8
部品1
 48
50.0
100
AcDbCircle
 10
11336.4373296364
 20
4068.845327094485
 30
0.0
 40
7.0
100
AcDbArc
 50
267.8377559869492
 51
354.1866997665532
  0
ARC
  5
19EA7
330
747D
100
AcDbEntity
  8
部品1
100
AcDbCircle
 10
11347.46546491151
 20
4078.436071698366
 30
0.0
 40
3.0
100
AcDbArc
 50
95.0921697642102
 51
174.1866997665532
  0
ARC
  5
19EA8
330
747D
100
AcDbEntity
  8
部品1
100
AcDbCircle
 10
11358.32481066084
 20
4155.479326516291
 30
0.0
 40
3.0
100
AcDbArc
 50
95.0921697642102
 51
174.1866997665532
  0
ARC
  5
19EA9
330
747D
100
AcDbEntity
  8
部品1
100
AcDbCircle
 10
11357.99640541823
 20
4159.16472337338
 30
0.0
 40
0.7
100
AcDbArc
 50
275.0921697642102
 51
354.1866997665532
  0
ARC
  5
19EAA
330
747D
100
AcDbEntity
  8
部品1
100
AcDbCircle
 10
11347.13705966891
 20
4082.121468555457
 30
0.0
 40
0.7
100
AcDbArc
 50
275.0921697642102
 51
354.1866997667087
  0
LINE
  5
19EAB
330
747D
100
AcDbEntity
  8
細線
 48
50.0
100
AcDbLine
 10
8204.509523854973
 20
4240.497387665068
 30
0.0
 11
8199.220422299466
 21
4100.411755037714
 31
0.0
  0
LINE
  5
19EAC
330
747D
100
AcDbEntity
  8
部品1
 48
50.0
100
AcDbLine
 10
8171.693809768079
 20
4234.691257454357
 30
0.0
 11
8172.074069545891
 21
4214.764293007944
 31
0.0
  0
LINE
  5
19EAD
330
747D
100
AcDbEntity
  8
部品1
 48
50.0
100
AcDbLine
 10
8175.142841652137
 20
4211.189011514473
 30
0.0
 11
8176.846743143503
 21
4121.898514807825
 31
0.0
  0
LINE
  5
19EAE
330
747D
100
AcDbEntity
  8
部品1
 48
50.0
100
AcDbLine
 10
8179.915515249744
 20
4118.323233314353
 30
0.0
 11
8180.117467870175
 21
4107.740197921261
 31
0.0
  0
ARC
  5
19EAF
330
747D
100
AcDbEntity
  8
部品1
 48
50.0
100
AcDbCircle
 10
8178.69253559642
 20
4234.824811861783
 30
0.0
 40
7.0
100
AcDbArc
 50
87.03587545283093
 51
181.0932240293156
  0
ARC
  5
19EB0
330
747D
100
AcDbEntity
  8
部品1
 48
50.0
100
AcDbCircle
 10
8187.116193698516
 20
4107.873752328688
 30
0.0
 40
7.0
100
AcDbArc
 50
181.0932240293156
 51
267.8377559869492
  0
ARC
  5
19EB1
330
747D
100
AcDbEntity
  8
部品1
100
AcDbCircle
 10
8176.916061323314
 20
4118.26599571117
 30
0.0
 40
3.0
100
AcDbArc
 50
1.093224029315636
 51
80.18775403169875
  0
ARC
  5
19EB2
330
747D
100
AcDbEntity
  8
部品1
100
AcDbCircle
 10
8172.143387725709
 20
4211.131773911289
 30
0.0
 40
3.0
100
AcDbArc
 50
1.093224029315636
 51
80.18775403169875
  0
ARC
  5
19EB3
330
747D
100
AcDbEntity
  8
部品1
100
AcDbCircle
 10
8172.773942128729
 20
4214.777648448687
 30
0.0
 40
0.7
100
AcDbArc
 50
181.0932240292114
 51
260.1877540314845
  0
ARC
  5
19EB4
330
747D
100
AcDbEntity
  8
部品1
100
AcDbCircle
 10
8177.54661572634
 20
4121.911870248567
 30
0.0
 40
0.7
100
AcDbArc
 50
181.0932240292635
 51
260.1877540314845
  0
LINE
  5
19EB5
330
747D
100
AcDbEntity
  8
部品1
100
AcDbLine
 10
8179.054510211937
 20
4241.81544662393
 30
0.0
 11
11354.12140071644
 21
4186.738508998803
 31
0.0
  0
LINE
  5
19EB6
330
747D
100
AcDbEntity
  8
部品1
100
AcDbLine
 10
8186.852088456927
 20
4100.87873635863
 30
0.0
 11
11336.17322439482
 21
4061.850311124425
 31
0.0
  0
LINE
  5
19EB7
330
747D
100
AcDbEntity
  8
細線
 48
50.0
100
AcDbLine
 10
8172.548946955787
 20
4214.114793131025
 30
0.0
 11
11358.18493170096
 21
4158.490588490197
 31
0.0
  0
LINE
  5
19EB8
330
747D
100
AcDbEntity
  8
細線
 48
50.0
100
AcDbLine
 10
8177.309422193074
 20
4121.253281433161
 30
0.0
 11
11347.31308662371
 21
4081.443962458668
 31
0.0
  0
TEXT
  5
19EB9
330
747D
100
AcDbEntity
  8
部品1
 48
50.0
100
AcDbText
 10
10101.37866791034
 20
4265.36680422797
 30
0.0
 40
120.0
  1
32
 50
90.0
  7
STYLE1
100
AcDbText
  0
TEXT
  5
19EBA
330
747D
100
AcDbEntity
  8
部品1
 48
50.0
100
AcDbText
 10
9623.74564524525
 20
4402.868062446254
 30
0.0
 40
120.0
  1
1000
  7
STYLE1
100
AcDbText
  0
LINE
  5
19EBB
330
747D
100
AcDbEntity
  8
部品1
 48
50.0
100
AcDbLine
 10
9935.477810021524
 20
4366.98404029382
 30
0.0
 11
9935.477810021524
 21
4350.78404029382
 31
0.0
  0
LINE
  5
19EBC
330
747D
100
AcDbEntity
  8
部品1
 48
50.0
100
AcDbLine
 10
9635.477810021523
 20
4366.98404029382
 30
0.0
 11
9935.477810021524
 21
4366.98404029382
 31
0.0
  0
LINE
  5
19EBD
330
747D
100
AcDbEntity
  8
部品1
100
AcDbLine
 10
9610.022796378487
 20
4368.302099252682
 30
0.0
 11
9935.477810021524
 21
4350.78404029382
 31
0.0
  0
DIMENSION
  5
19EBE
330
747D
100
AcDbEntity
  8
寸法
 48
50.0
100
AcDbDimension
  2
*D8
 10
7610.901117086601
 20
4117.442970162995
 30
0.0
 11
7621.566592345526
 21
4488.289633404693
 31
0.0
 70
   161
 71
     5
 42
141.0
  3
INABA_S40G
100
AcDbAlignedDimension
 13
8190.905544013553
 23
4241.820460124343
 33
0.0
 14
8186.852088456927
 24
4100.87873635863
 34
0.0
1001
ACAD
1000
DSTYLE
1002
{
1070
   174
1070
     0
1070
   272
1070
     1
1070
   288
1070
     0
1070
   341
1005
0
1002
}
  0
DIMENSION
  5
19EBF
330
747D
100
AcDbEntity
  8
寸法
 48
50.0
100
AcDbDimension
  2
*D9
 10
8171.509523854973
 20
4641.755164868968
 30
0.0
 11
7861.871728579384
 21
4641.755164868968
 31
0.0
 70
   160
 71
     5
 42
60.0
  3
INABA_S40G
100
AcDbAlignedDimension
 13
8231.509523854972
 23
4239.09932941264
 33
0.0
 14
8171.509523854973
 24
4243.097711289668
 34
0.0
100
AcDbRotatedDimension
1001
ACAD
1000
DSTYLE
1002
{
1070
   174
1070
     0
1070
   272
1070
     1
1070
   288
1070
     0
1070
   341
1005
0
1002
}
  0
DIMENSION
  5
19EC0
330
747D
100
AcDbEntity
  8
寸法
 48
50.0
100
AcDbDimension
  2
*D10
 10
11361.50952385497
 20
4641.755164868969
 30
0.0
 11
11567.55676794946
 21
4641.755164868969
 31
0.0
 70
   160
 71
     5
 42
80.0
  3
INABA_S40G
100
AcDbAlignedDimension
 13
11281.50952385497
 23
4189.908390901319
 33
0.0
 14
11361.50952385497
 24
4188.097711289667
 34
0.0
100
AcDbRotatedDimension
1001
ACAD
1000
DSTYLE
1002
{
1070
   174
1070
     0
1070
   272
1070
     1
1070
   288
1070
     0
1070
   341
1005
0
1002
}
  0
DIMENSION
  5
19EC1
330
747D
100
AcDbEntity
  8
寸法
 48
50.0
100
AcDbDimension
  2
*D11
 10
8171.509523854973
 20
4871.868757655246
 30
0.0
 11
9843.215330164497
 21
4871.868757655246
 31
0.0
 70
   160
 71
     5
 42
3189.999999999996
  3
INABA_S40G
100
AcDbAlignedDimension
 13
11361.50952385497
 23
4188.097711289665
 33
0.0
 14
8171.509523854973
 24
4243.097711289668
 34
0.0
100
AcDbRotatedDimension
1001
ACAD
1000
DSTYLE
1002
{
1070
   174
1070
     0
1070
   272
1070
     1
1070
   288
1070
     0
1070
   341
1005
0
1002
}
  0
DIMENSION
  5
19EC2
330
747D
100
AcDbEntity
  8
寸法
 48
50.0
100
AcDbDimension
  2
*D12
 10
8231.509523854972
 20
4641.755164868969
 30
0.0
 11
9801.567898414385
 21
4641.755164868969
 31
0.0
 70
   160
  1
柱外寸法<>
 71
     5
 42
3049.999999999997
  3
INABA_S40G
100
AcDbAlignedDimension
 13
11281.50952385497
 23
4189.908390901319
 33
0.0
 14
8231.509523854972
 24
4239.09932941264
 34
0.0
100
AcDbRotatedDimension
1001
ACAD
1000
DSTYLE
1002
{
1070
   174
1070
     0
1070
   272
1070
     1
1070
   288
1070
     0
1070
   341
1005
0
1002
}
  0
TEXT
  5
19EC3
330
747D
100
AcDbEntity
  8
文字
 62
     7
 48
50.0
100
AcDbText
 10
13209.4053442172
 20
228.5435242569015
 30
0.0
 40
100.0
  1
○有効開口寸法 ： 1266×1725(mm)
  7
STYLE2
100
AcDbText
  0
TEXT
  5
19EC4
330
747D
100
AcDbEntity
  8
文字
 62
     7
 48
50.0
100
AcDbText
 10
14491.96323844892
 20
483.8967129911416
 30
0.0
 40
160.0
  1
ＮＸＮ－８０ＳＢ
  7
STYLE2
100
AcDbText
  0
LINE
  5
19EC5
330
747D
100
AcDbEntity
  8
部品1
100
AcDbLine
 10
11226.50952385497
 20
9964.725026914635
 30
0.0
 11
11226.50952385497
 21
9936.725026914634
 31
0.0
  0
LINE
  5
19EC6
330
747D
100
AcDbEntity
  8
部品1
100
AcDbLine
 10
11226.50952385497
 20
9964.725026914612
 30
0.0
 11
11226.50952385497
 21
9936.725026914611
 31
0.0
  0
LINE
  5
19EC7
330
747D
100
AcDbEntity
  8
部品1
100
AcDbLine
 10
11253.50952385496
 20
9909.725026914616
 30
0.0
 11
11281.50952385497
 21
9909.725026914616
 31
0.0
  0
LINE
  5
19EC8
330
747D
100
AcDbEntity
  8
部品1
100
AcDbLine
 10
10806.50952385493
 20
9964.725026914486
 30
0.0
 11
10806.50952385493
 21
9936.725026914485
 31
0.0
  0
LINE
  5
19EC9
330
747D
100
AcDbEntity
  8
部品1
100
AcDbLine
 10
11253.50952385496
 20
9489.725026914616
 30
0.0
 11
11281.50952385497
 21
9489.725026914616
 31
0.0
  0
LINE
  5
19ECA
330
747D
100
AcDbEntity
  8
部品1
100
AcDbLine
 10
11253.50952385496
 20
9936.725026914611
 30
0.0
 11
11253.50952385496
 21
9484.225026914488
 31
0.0
  0
LINE
  5
19ECB
330
747D
100
AcDbEntity
  8
部品1
100
AcDbLine
 10
11253.00952385497
 20
9934.725026914613
 30
0.0
 11
11253.00952385497
 21
9484.725026914615
 31
0.0
  0
DIMENSION
  5
19ECC
330
747D
100
AcDbEntity
  8
寸法
100
AcDbDimension
  2
*D13
 10
11681.50952385496
 20
9369.908797957881
 30
0.0
 11
11681.50952385496
 21
9594.908797957877
 31
0.0
 70
   160
 71
     5
 42
449.9999999999963
  3
INABA_S40G
100
AcDbAlignedDimension
 13
11253.00952385497
 23
9934.725026914613
 33
0.0
 14
11253.00952385497
 24
9484.725026914615
 34
0.0
 50
90.0
100
AcDbRotatedDimension
1001
ACAD
1000
DSTYLE
1002
{
1002
}
  0
DIMENSION
  5
19ECD
330
747D
100
AcDbEntity
  8
寸法
100
AcDbDimension
  2
*D14
 10
11281.50952385497
 20
10264.72502691461
 30
0.0
 11
11589.9948052292
 21
10264.72502691461
 31
0.0
 70
   160
 71
     5
 42
55.0
  3
INABA_S40G
100
AcDbAlignedDimension
 13
11226.50952385497
 23
9964.725026914612
 33
0.0
 14
11281.50952385497
 24
9964.725026914612
 34
0.0
100
AcDbRotatedDimension
1001
ACAD
1000
DSTYLE
1002
{
1002
}
  0
DIMENSION
  5
19ECE
330
747D
100
AcDbEntity
  8
寸法
100
AcDbDimension
  2
*D15
 10
11981.50952385497
 20
9909.725026914616
 30
0.0
 11
11981.50952385496
 21
10273.21030828885
 31
0.0
 70
   160
 71
     5
 42
54.99999999999636
  3
INABA_S40G
100
AcDbAlignedDimension
 13
11281.50952385497
 23
9964.725026914612
 33
0.0
 14
11281.50952385497
 24
9909.725026914616
 34
0.0
 50
90.0
100
AcDbRotatedDimension
1001
ACAD
1000
DSTYLE
1002
{
1002
}
  0
LINE
  5
19ECF
330
747D
100
AcDbEntity
  8
部品1
100
AcDbLine
 10
11253.50952385496
 20
9069.725026914616
 30
0.0
 11
11281.50952385497
 21
9069.725026914616
 31
0.0
  0
LINE
  5
19ED0
330
747D
100
AcDbEntity
  8
部品1
100
AcDbLine
 10
11253.50952385494
 20
7389.725026914601
 30
0.0
 11
11281.50952385494
 21
7389.725026914601
 31
0.0
  0
LINE
  5
19ED1
330
747D
100
AcDbEntity
  8
部品1
100
AcDbLine
 10
11281.50952385494
 20
7334.725026914604
 30
0.0
 11
11230.50952385494
 21
7334.725026914604
 31
0.0
  0
LINE
  5
19ED2
330
747D
100
AcDbEntity
  8
部品1
 48
50.0
100
AcDbLine
 10
11225.00952385496
 20
7391.225026914604
 30
0.0
 11
11253.50952385496
 21
7362.725026914604
 31
0.0
  0
LINE
  5
19ED3
330
747D
100
AcDbEntity
  8
部品1
100
AcDbLine
 10
11281.50952385494
 20
7389.725026914601
 30
0.0
 11
11281.50952385494
 21
7334.725026914604
 31
0.0
  0
LINE
  5
19ED4
330
747D
100
AcDbEntity
  8
部品1
100
AcDbLine
 10
11253.50952385496
 20
7389.725026914601
 30
0.0
 11
11281.50952385497
 21
7389.725026914601
 31
0.0
  0
LINE
  5
19ED5
330
747D
100
AcDbEntity
  8
部品1
100
AcDbLine
 10
11226.50952385497
 20
7334.725026914604
 30
0.0
 11
11226.50952385497
 21
7362.725026914604
 31
0.0
  0
LINE
  5
19ED6
330
747D
100
AcDbEntity
  8
部品1
100
AcDbLine
 10
10806.50952385497
 20
7334.725026914604
 30
0.0
 11
10806.50952385497
 21
7362.725026914604
 31
0.0
  0
LINE
  5
19ED8
330
747D
100
AcDbEntity
  8
部品1
100
AcDbLine
 10
11281.50952385494
 20
7334.725026914604
 30
0.0
 11
10806.50952385497
 21
7334.72502691459
 31
0.0
  0
DIMENSION
  5
19ED9
330
747D
100
AcDbEntity
  8
寸法
100
AcDbDimension
  2
*D16
 10
11981.50952385494
 20
7334.725026914604
 30
0.0
 11
11981.50952385494
 21
7026.239745540364
 31
0.0
 70
   160
 71
     5
 42
54.99999999999636
  3
INABA_S40G
100
AcDbAlignedDimension
 13
11281.50952385494
 23
7389.725026914601
 33
0.0
 14
11281.50952385494
 24
7334.725026914604
 34
0.0
 50
90.0
100
AcDbRotatedDimension
1001
ACAD
1000
DSTYLE
1002
{
1002
}
  0
DIMENSION
  5
19EDA
330
747D
100
AcDbEntity
  8
寸法
100
AcDbDimension
  2
*D17
 10
12281.50952385496
 20
7334.725026914604
 30
0.0
 11
12281.50952385496
 21
8649.725026914607
 31
0.0
 70
   160
 71
     5
 42
2630.000000000006
  3
INABA_S40G
100
AcDbAlignedDimension
 13
11281.50952385497
 23
9964.725026914612
 33
0.0
 14
11281.50952385494
 24
7334.725026914604
 34
0.0
 50
90.0
100
AcDbRotatedDimension
1001
ACAD
1000
DSTYLE
1002
{
1002
}
  0
LINE
  5
19EDB
330
747D
100
AcDbEntity
  8
破線
 48
10.0
100
AcDbLine
 10
11201.50952385496
 20
9484.725026914615
 30
0.0
 11
11201.50952385497
 21
7414.725026914601
 31
0.0
  0
DIMENSION
  5
19EDC
330
747D
100
AcDbEntity
  8
寸法
100
AcDbDimension
  2
*D18
 10
11981.50952385496
 20
7389.725026914601
 30
0.0
 11
11981.50952385496
 21
8649.725026914607
 31
0.0
 70
   160
  1
6X420=<>
 71
     5
 42
2520.000000000014
  3
INABA_S40G
100
AcDbAlignedDimension
 13
11281.50952385497
 23
9909.725026914616
 33
0.0
 14
11281.50952385494
 24
7389.725026914601
 34
0.0
 50
90.0
100
AcDbRotatedDimension
1001
ACAD
1000
DSTYLE
1002
{
1002
}
  0
LINE
  5
19EDD
330
747D
100
AcDbEntity
  8
部品1
100
AcDbLine
 10
11281.50952385497
 20
9964.725026914612
 30
0.0
 11
11281.50952385494
 21
7334.725026914604
 31
0.0
  0
LINE
  5
19EDE
330
747D
100
AcDbEntity
  8
部品1
100
AcDbLine
 10
11225.00952385496
 20
9484.725026914615
 30
0.0
 11
11225.00952385496
 21
7391.225026914604
 31
0.0
  0
LINE
  5
19EDF
330
747D
100
AcDbEntity
  8
部品1
100
AcDbLine
 10
11253.50952385496
 20
9489.725026914616
 30
0.0
 11
11253.50952385494
 21
7362.725026914604
 31
0.0
  0
LINE
  5
19EE0
330
747D
100
AcDbEntity
  8
部品1
100
AcDbLine
 10
10386.50952385493
 20
9964.725026914486
 30
0.0
 11
10386.50952385493
 21
9936.725026914485
 31
0.0
  0
LINE
  5
19EE1
330
747D
100
AcDbEntity
  8
部品1
100
AcDbLine
 10
9966.509523854933
 20
9964.725026914486
 30
0.0
 11
9966.509523854933
 21
9936.725026914485
 31
0.0
  0
LINE
  5
19EE2
330
747D
100
AcDbEntity
  8
部品1
100
AcDbLine
 10
9721.509523854967
 20
9954.725026914619
 30
0.0
 11
9721.509523854967
 21
9936.72502691462
 31
0.0
  0
LINE
  5
19EE3
330
747D
100
AcDbEntity
  8
部品1
100
AcDbLine
 10
9721.509523854967
 20
9954.725026914619
 30
0.0
 11
9727.509523854966
 21
9954.725026914619
 31
0.0
  0
LINE
  5
19EE4
330
747D
100
AcDbEntity
  8
部品1
100
AcDbLine
 10
9791.509523854966
 20
9954.725026914619
 30
0.0
 11
9791.509523854966
 21
9936.72502691462
 31
0.0
  0
LINE
  5
19EE5
330
747D
100
AcDbEntity
  8
部品1
100
AcDbLine
 10
9785.509523854967
 20
9954.725026914619
 30
0.0
 11
9791.509523854966
 21
9954.725026914619
 31
0.0
  0
LINE
  5
19EE6
330
747D
100
AcDbEntity
  8
部品1
100
AcDbLine
 10
9744.009523854966
 20
9928.725026914616
 30
0.0
 11
9769.009523854967
 21
9928.725026914619
 31
0.0
  0
LINE
  5
19EE7
330
747D
100
AcDbEntity
  8
部品1
100
AcDbLine
 10
9546.509523854933
 20
9964.725026914486
 30
0.0
 11
9546.509523854933
 21
9936.725026914485
 31
0.0
  0
LINE
  5
19EE8
330
747D
100
AcDbEntity
  8
部品1
100
AcDbLine
 10
9744.009523854966
 20
9484.725026914622
 30
0.0
 11
9769.009523854967
 21
9484.725026914622
 31
0.0
  0
LINE
  5
19EE9
330
747D
100
AcDbEntity
  8
部品1
 48
50.0
100
AcDbLine
 10
9743.009523854965
 20
9934.72502691462
 30
0.0
 11
9743.009523854965
 21
9484.725026914622
 31
0.0
  0
LINE
  5
19EEA
330
747D
100
AcDbEntity
  8
部品1
 48
50.0
100
AcDbLine
 10
9770.009523854966
 20
9934.725026914616
 30
0.0
 11
9770.009523854966
 21
9484.725026914622
 31
0.0
  0
LINE
  5
19EEB
330
747D
100
AcDbEntity
  8
部品1
 48
50.0
100
AcDbLine
 10
9744.009523854966
 20
9936.725026914627
 30
0.0
 11
9744.009523854966
 21
9484.725026914622
 31
0.0
  0
LINE
  5
19EEC
330
747D
100
AcDbEntity
  8
部品1
 48
50.0
100
AcDbLine
 10
9769.009523854967
 20
9936.725026914622
 30
0.0
 11
9769.009523854967
 21
9484.725026914622
 31
0.0
  0
LINE
  5
19EED
330
747D
100
AcDbEntity
  8
部品1
100
AcDbLine
 10
9126.509523854933
 20
9964.725026914486
 30
0.0
 11
9126.509523854933
 21
9936.725026914485
 31
0.0
  0
LINE
  5
19EEE
330
747D
100
AcDbEntity
  8
部品1
100
AcDbLine
 10
8706.509523854933
 20
9964.725026914486
 30
0.0
 11
8706.509523854933
 21
9936.725026914485
 31
0.0
  0
LINE
  5
19EEF
330
747D
100
AcDbEntity
  8
部品1
100
AcDbLine
 10
8286.509523854965
 20
9964.725026914518
 30
0.0
 11
8286.509523854965
 21
9936.725026914517
 31
0.0
  0
LINE
  5
19EF0
330
747D
100
AcDbEntity
  8
部品1
100
AcDbLine
 10
8286.509523854933
 20
9964.725026914486
 30
0.0
 11
8286.509523854933
 21
9936.725026914485
 31
0.0
  0
LINE
  5
19EF1
330
747D
100
AcDbEntity
  8
部品1
100
AcDbLine
 10
8259.509523854934
 20
9909.725026914488
 30
0.0
 11
8231.509523854933
 21
9909.725026914488
 31
0.0
  0
LINE
  5
19EF2
330
747D
100
AcDbEntity
  8
部品1
100
AcDbLine
 10
8259.509523854941
 20
9489.725026914488
 30
0.0
 11
8231.50952385494
 21
9489.725026914488
 31
0.0
  0
LINE
  5
19EF3
330
747D
100
AcDbEntity
  8
部品1
 48
50.0
100
AcDbLine
 10
8260.009523854897
 20
9934.72502691462
 30
0.0
 11
8260.009523854897
 21
9484.725026914622
 31
0.0
  0
LINE
  5
19EF4
330
747D
100
AcDbEntity
  8
部品1
100
AcDbLine
 10
8259.509523854958
 20
9484.225026914488
 30
0.0
 11
8259.509523854966
 21
9936.725026914517
 31
0.0
  0
LINE
  5
19EF5
330
747D
100
AcDbEntity
  8
部品1
100
AcDbLine
 10
8259.509523854966
 20
9936.725026914517
 30
0.0
 11
9231.509523854965
 21
9936.725026914521
 31
0.0
  0
LINE
  5
19EF6
330
747D
100
AcDbEntity
  8
細線
 48
50.0
100
AcDbLine
 10
9743.009523854965
 20
9484.725026914622
 30
0.0
 11
8260.009523854897
 21
9934.725026914566
 31
0.0
  0
LINE
  5
19EF7
330
747D
100
AcDbEntity
  8
細線
 48
50.0
100
AcDbLine
 10
9743.009523854965
 20
9934.72502691462
 30
0.0
 11
8260.009523854897
 21
9484.725026914565
 31
0.0
  0
LINE
  5
19EF8
330
747D
100
AcDbEntity
  8
部品1
100
AcDbLine
 10
8286.509523854965
 20
9936.725026914634
 30
0.0
 11
9744.009523854966
 21
9936.725026914634
 31
0.0
  0
LINE
  5
19EF9
330
747D
100
AcDbEntity
  8
部品1
100
AcDbLine
 10
8260.009523854897
 20
9934.725026914565
 30
0.0
 11
9743.009523854965
 21
9934.725026914623
 31
0.0
  0
LINE
  5
19EFA
330
747D
100
AcDbEntity
  8
部品1
100
AcDbLine
 10
8260.009523854897
 20
9484.725026914565
 30
0.0
 11
9743.009523854965
 21
9484.725026914622
 31
0.0
  0
LINE
  5
19EFB
330
747D
100
AcDbEntity
  8
破線
 48
10.0
100
AcDbLine
 10
10459.00952385494
 20
7414.72502691453
 30
0.0
 11
9781.509523854944
 21
7414.725026914517
 31
0.0
  0
LINE
  5
19EFC
330
747D
100
AcDbEntity
  8
部品1
100
AcDbLine
 10
8706.509523854935
 20
7334.725026914604
 30
0.0
 11
8706.509523854935
 21
7362.725026914604
 31
0.0
  0
LINE
  5
19EFE
330
747D
100
AcDbEntity
  8
部品1
100
AcDbLine
 10
8259.509523854941
 20
9069.725026914488
 30
0.0
 11
8231.50952385494
 21
9069.725026914488
 31
0.0
  0
LINE
  5
19EFF
330
747D
100
AcDbEntity
  8
部品1
100
AcDbLine
 10
8231.509523854958
 20
7389.725026914437
 30
0.0
 11
8231.50952385496
 21
7334.725026914441
 31
0.0
  0
LINE
  5
19F00
330
747D
100
AcDbEntity
  8
部品1
100
AcDbLine
 10
8259.509523854958
 20
7389.725026914487
 30
0.0
 11
8231.509523854958
 21
7389.725026914487
 31
0.0
  0
LINE
  5
19F01
330
747D
100
AcDbEntity
  8
部品1
100
AcDbLine
 10
8259.509523854942
 20
7389.725026914473
 30
0.0
 11
8231.509523854958
 21
7389.725026914473
 31
0.0
  0
LINE
  5
19F02
330
747D
100
AcDbEntity
  8
部品1
100
AcDbLine
 10
8259.509523854942
 20
7389.725026914437
 30
0.0
 11
8231.509523854958
 21
7389.725026914437
 31
0.0
  0
LINE
  5
19F03
330
747D
100
AcDbEntity
  8
部品1
 48
50.0
100
AcDbLine
 10
8288.009523854954
 20
7391.225026914582
 30
0.0
 11
8259.509523854958
 21
7362.725026914583
 31
0.0
  0
LINE
  5
19F04
330
747D
100
AcDbEntity
  8
部品1
100
AcDbLine
 10
8286.509523854935
 20
7334.725026914604
 30
0.0
 11
8286.509523854935
 21
7362.725026914604
 31
0.0
  0
LINE
  5
19F05
330
747D
100
AcDbEntity
  8
部品1
100
AcDbLine
 10
8706.509523854936
 20
7334.725026914473
 30
0.0
 11
8231.50952385496
 21
7334.725026914473
 31
0.0
  0
LINE
  5
19F06
330
747D
100
AcDbEntity
  8
破線
 48
10.0
100
AcDbLine
 10
9004.009523854945
 20
7414.725026914473
 30
0.0
 11
8311.509523854953
 21
7414.725026914485
 31
0.0
  0
LINE
  5
19F07
330
747D
100
AcDbEntity
  8
破線
 48
10.0
100
AcDbLine
 10
9731.509523854946
 20
7414.725026914514
 30
0.0
 11
9054.00952385494
 21
7414.725026914492
 31
0.0
  0
LINE
  5
19F08
330
747D
100
AcDbEntity
  8
破線
 48
10.0
100
AcDbLine
 10
8311.509523854942
 20
9484.725026914615
 30
0.0
 11
8311.509523854955
 21
7414.725026914485
 31
0.0
  0
LINE
  5
19F09
330
747D
100
AcDbEntity
  8
部品1
100
AcDbLine
 10
8259.509523854941
 20
7362.725026914564
 30
0.0
 11
8259.509523854958
 21
9489.725026914488
 31
0.0
  0
LINE
  5
19F0A
330
747D
100
AcDbEntity
  8
部品1
100
AcDbLine
 10
8231.509523854933
 20
9964.725026914486
 30
0.0
 11
8231.50952385496
 21
7334.725026914473
 31
0.0
  0
LINE
  5
19F0B
330
747D
100
AcDbEntity
  8
破線
 48
10.0
100
AcDbLine
 10
9731.509523854946
 20
7391.225026914513
 30
0.0
 11
9731.509523854937
 21
9484.725026914622
 31
0.0
  0
LINE
  5
19F0C
330
747D
100
AcDbEntity
  8
破線
 48
10.0
100
AcDbLine
 10
9781.509523854943
 20
7391.225026914518
 30
0.0
 11
9781.509523854936
 21
9484.725026914622
 31
0.0
  0
LINE
  5
19F0D
330
747D
100
AcDbEntity
  8
破線
 48
10.0
100
AcDbLine
 10
9004.009523854945
 20
7391.225026914513
 30
0.0
 11
9004.009523854945
 21
9484.725026914622
 31
0.0
  0
LINE
  5
19F0E
330
747D
100
AcDbEntity
  8
破線
 48
10.0
100
AcDbLine
 10
9054.009523854942
 20
7391.225026914518
 30
0.0
 11
9054.009523854944
 21
9484.725026914622
 31
0.0
  0
LINE
  5
19F0F
330
747D
100
AcDbEntity
  8
破線
 48
10.0
100
AcDbLine
 10
10459.00952385494
 20
7391.225026914513
 30
0.0
 11
10459.00952385494
 21
9484.725026914622
 31
0.0
  0
LINE
  5
19F10
330
747D
100
AcDbEntity
  8
破線
 48
10.0
100
AcDbLine
 10
10509.00952385494
 20
7391.225026914518
 30
0.0
 11
10509.00952385494
 21
9484.725026914622
 31
0.0
  0
DIMENSION
  5
19F11
330
747D
100
AcDbEntity
  8
寸法
100
AcDbDimension
  2
*D19
 10
9652.057622948234
 20
9145.287911685748
 30
0.0
 11
8817.750015242445
 21
9145.287911685748
 31
0.0
 70
   160
 71
     5
 42
1483.000000000071
  3
INABA_S40G
100
AcDbAlignedDimension
 13
8260.009523854888
 23
9484.725026914629
 33
0.0
 14
9743.00952385496
 24
9484.725026914622
 34
0.0
100
AcDbRotatedDimension
1001
ACAD
1000
DSTYLE
1002
{
1002
}
  0
LINE
  5
19F12
330
747D
100
AcDbEntity
  8
部品1
 48
50.0
100
AcDbLine
 10
9756.509523854967
 20
9484.725026914624
 30
0.0
 11
9756.509523854994
 21
7391.225026914502
 31
0.0
  0
LINE
  5
19F13
330
747D
100
AcDbEntity
  8
部品1
100
AcDbLine
 10
8288.009523854944
 20
9484.725026914565
 30
0.0
 11
8288.009523854954
 21
7391.225026914579
 31
0.0
  0
DIMENSION
  5
19F14
330
747D
100
AcDbEntity
  8
寸法
100
AcDbDimension
  2
*D20
 10
11226.50952385497
 20
10264.72502691456
 30
0.0
 11
9756.509523854965
 21
10264.72502691456
 31
0.0
 70
   160
  1
7X420=<>
 71
     5
 42
2940.000000000002
  3
INABA_S40G
100
AcDbAlignedDimension
 13
8286.509523854965
 23
9964.725026914518
 33
0.0
 14
11226.50952385497
 24
9964.725026914612
 34
0.0
100
AcDbRotatedDimension
1001
ACAD
1000
DSTYLE
1002
{
1002
}
  0
LINE
  5
19F15
330
747D
100
AcDbEntity
  8
部品1
100
AcDbLine
 10
11225.00952385496
 20
7391.225026914604
 30
0.0
 11
8288.00952385486
 21
7391.225026914485
 31
0.0
  0
LINE
  5
19F16
330
747D
100
AcDbEntity
  8
部品1
100
AcDbLine
 10
8231.509523854965
 20
9964.725026914518
 30
0.0
 11
11281.50952385497
 21
9964.725026914612
 31
0.0
  0
LINE
  5
19F18
330
747D
100
AcDbEntity
  8
破線
 48
10.0
100
AcDbLine
 10
11201.50952385497
 20
7414.725026914602
 30
0.0
 11
10509.00952385494
 21
7414.725026914543
 31
0.0
  0
DIMENSION
  5
19F19
330
747D
100
AcDbEntity
  8
寸法
100
AcDbDimension
  2
*D21
 10
11162.05762294823
 20
9145.287911685748
 30
0.0
 11
10268.73227936772
 21
9145.287911685748
 31
0.0
 70
   160
 71
     5
 42
1483.000000000013
  3
INABA_S40G
100
AcDbAlignedDimension
 13
9770.009523854959
 23
9484.725026914688
 33
0.0
 14
11253.00952385497
 24
9484.725026914681
 34
0.0
100
AcDbRotatedDimension
1001
ACAD
1000
DSTYLE
1002
{
1002
}
  0
LINE
  5
19F1A
330
747D
100
AcDbEntity
  8
細線
 48
50.0
100
AcDbLine
 10
11253.00952385497
 20
9934.725026914613
 30
0.0
 11
9770.009523854966
 21
9484.725026914622
 31
0.0
  0
LINE
  5
19F1B
330
747D
100
AcDbEntity
  8
部品1
100
AcDbLine
 10
9770.009523854966
 20
9934.72502691462
 30
0.0
 11
11253.00952385497
 21
9934.725026914613
 31
0.0
  0
LINE
  5
19F1C
330
747D
100
AcDbEntity
  8
部品1
100
AcDbLine
 10
9770.009523854966
 20
9484.725026914622
 30
0.0
 11
11253.00952385497
 21
9484.725026914615
 31
0.0
  0
LINE
  5
19F1D
330
747D
100
AcDbEntity
  8
細線
 48
50.0
100
AcDbLine
 10
11253.00952385497
 20
9484.725026914615
 30
0.0
 11
9770.009523854966
 21
9934.725026914616
 31
0.0
  0
LINE
  5
19F1E
330
747D
100
AcDbEntity
  8
部品1
100
AcDbLine
 10
9769.009523854967
 20
9936.725026914629
 30
0.0
 11
11253.50952385496
 21
9936.725026914611
 31
0.0
  0
LINE
  5
19F1F
330
747D
100
AcDbEntity
  8
部品1
100
AcDbLine
 10
11225.00952385495
 20
9069.725026914587
 30
0.0
 11
8288.009523854951
 21
9069.725026914488
 31
0.0
  0
LINE
  5
19F20
330
747D
100
AcDbEntity
  8
部品1
 48
50.0
100
AcDbLine
 10
8259.509523854962
 20
7362.725026914586
 30
0.0
 11
11253.50952385498
 21
7362.72502691459
 31
0.0
  0
DIMENSION
  5
19F21
330
747D
100
AcDbEntity
  8
寸法
100
AcDbDimension
  2
*D22
 10
8286.509523854965
 20
10264.72502691452
 30
0.0
 11
7923.024242480693
 21
10264.72502691452
 31
0.0
 70
   160
 71
     5
 42
55.00000000003274
  3
INABA_S40G
100
AcDbAlignedDimension
 13
8231.509523854933
 23
9964.725026914518
 33
0.0
 14
8286.509523854965
 24
9964.725026914518
 34
0.0
100
AcDbRotatedDimension
1001
ACAD
1000
DSTYLE
1002
{
1002
}
  0
LINE
  5
19F22
330
747D
100
AcDbEntity
  8
破線
 48
5.0
100
AcDbLine
 10
11286.50952385497
 20
2068.09771128966
 30
0.0
 11
11286.50952385497
 21
1913.09771128966
 31
0.0
  0
LINE
  5
19F23
330
747D
100
AcDbEntity
  8
破線
 48
5.0
100
AcDbLine
 10
11306.50952385497
 20
1913.09771128966
 30
0.0
 11
11286.50952385497
 21
1913.09771128966
 31
0.0
  0
LINE
  5
19F24
330
747D
100
AcDbEntity
  8
部品1
100
AcDbLine
 10
11286.50952385497
 20
2213.097711289661
 30
0.0
 11
11286.50952385497
 21
2068.09771128966
 31
0.0
  0
LINE
  5
19F25
330
747D
100
AcDbEntity
  8
部品1
100
AcDbLine
 10
10806.50952385497
 20
4008.09771128966
 30
0.0
 11
10806.50952385497
 21
4003.09771128966
 31
0.0
  0
DIMENSION
  5
19F26
330
747D
100
AcDbEntity
  8
寸法
 48
50.0
100
AcDbDimension
  2
*D23
 10
11972.72310284104
 20
4188.09771128966
 30
0.0
 11
11872.71129181741
 21
3178.097711289662
 31
0.0
 70
    32
 71
     5
 42
2020.0
  3
INABA_S40G
100
AcDbAlignedDimension
 13
11281.50952385497
 23
2168.09771128966
 33
0.0
 14
11361.50952385498
 24
4188.09771128966
 34
0.0
 50
90.0
100
AcDbRotatedDimension
1001
ACAD
1000
DSTYLE
1002
{
1002
}
  0
LINE
  5
19F27
330
747D
100
AcDbEntity
  8
部品1
100
AcDbLine
 10
11281.50952385497
 20
4062.527739070784
 30
0.0
 11
11281.50952385497
 21
2068.09771128966
 31
0.0
  0
LINE
  5
19F28
330
747D
100
AcDbEntity
  8
部品1
 48
50.0
100
AcDbLine
 10
10383.50952385497
 20
2168.09771128966
 30
0.0
 11
10383.50952385497
 21
2068.09771128966
 31
0.0
  0
LINE
  5
19F29
330
747D
100
AcDbEntity
  8
部品1
 48
50.0
100
AcDbLine
 10
10583.50952385497
 20
2168.09771128966
 30
0.0
 11
10583.50952385497
 21
2068.09771128966
 31
0.0
  0
LINE
  5
19F2A
330
747D
100
AcDbEntity
  8
部品1
100
AcDbLine
 10
10881.50952385497
 20
2168.09771128966
 30
0.0
 11
10881.50952385497
 21
2068.09771128966
 31
0.0
  0
LINE
  5
19F2B
330
747D
100
AcDbEntity
  8
部品1
 48
50.0
100
AcDbLine
 10
9856.509523854972
 20
2168.09771128966
 30
0.0
 11
9856.509523854972
 21
2068.09771128966
 31
0.0
  0
LINE
  5
19F2C
330
747D
100
AcDbEntity
  8
部品1
 48
50.0
100
AcDbLine
 10
9129.50952385497
 20
2168.09771128966
 30
0.0
 11
9129.50952385497
 21
2068.09771128966
 31
0.0
  0
LINE
  5
19F2D
330
747D
100
AcDbEntity
  8
部品1
 48
50.0
100
AcDbLine
 10
9656.509523854971
 20
2168.09771128966
 30
0.0
 11
9656.509523854971
 21
2068.09771128966
 31
0.0
  0
LINE
  5
19F2E
330
747D
100
AcDbEntity
  8
部品1
100
AcDbLine
 10
8631.509523854971
 20
2168.09771128966
 30
0.0
 11
8631.509523854971
 21
2068.09771128966
 31
0.0
  0
LINE
  5
19F2F
330
747D
100
AcDbEntity
  8
部品1
 48
50.0
100
AcDbLine
 10
8929.509523854971
 20
2168.09771128966
 30
0.0
 11
8929.509523854971
 21
2068.09771128966
 31
0.0
  0
LINE
  5
19F30
330
747D
100
AcDbEntity
  8
部品1
100
AcDbLine
 10
10833.50952385497
 20
2218.09771128966
 30
0.0
 11
11281.50952385497
 21
2218.09771128966
 31
0.0
  0
LINE
  5
19F31
330
747D
100
AcDbEntity
  8
破線
 48
5.0
100
AcDbLine
 10
8226.509523854973
 20
2068.09771128966
 30
0.0
 11
8226.509523854973
 21
1913.097711289661
 31
0.0
  0
LINE
  5
19F32
330
747D
100
AcDbEntity
  8
破線
 48
5.0
100
AcDbLine
 10
8206.509523854974
 20
1913.097711289661
 30
0.0
 11
8226.509523854975
 21
1913.097711289661
 31
0.0
  0
LINE
  5
19F33
330
747D
100
AcDbEntity
  8
破線
  6
HIDDEN
 48
5.0
100
AcDbLine
 10
8224.009523854972
 20
1915.397711289659
 30
0.0
 11
8224.009523854972
 21
1913.09771128966
 31
0.0
  0
LINE
  5
19F34
330
747D
100
AcDbEntity
  8
部品1
100
AcDbLine
 10
8226.509523854973
 20
2213.097711289662
 30
0.0
 11
8226.509523854973
 21
2068.09771128966
 31
0.0
  0
LINE
  5
19F35
330
747D
100
AcDbEntity
  8
部品1
100
AcDbLine
 10
8286.509523854972
 20
4008.09771128966
 30
0.0
 11
8286.509523854972
 21
2218.09771128966
 31
0.0
  0
LINE
  5
19F36
330
747D
100
AcDbEntity
  8
部品1
100
AcDbLine
 10
8231.509523854972
 20
4100.325312524301
 30
0.0
 11
8231.509523854972
 21
2068.09771128966
 31
0.0
  0
LINE
  5
19F37
330
747D
100
AcDbEntity
  8
部品1
100
AcDbLine
 10
8231.509523854972
 20
2168.097711289661
 30
0.0
 11
11281.50952385497
 21
2168.09771128966
 31
0.0
  0
LINE
  5
19F38
330
747D
100
AcDbEntity
  8
部品1
100
AcDbLine
 10
8231.509523854972
 20
2218.09771128966
 30
0.0
 11
8679.509523854969
 21
2218.09771128966
 31
0.0
  0
LINE
  5
19F39
330
747D
100
AcDbEntity
  8
部品1
100
AcDbLine
 10
8231.509523854972
 20
4008.09771128966
 30
0.0
 11
11281.50952385497
 21
4008.09771128966
 31
0.0
  0
LINE
  5
19F3A
330
747D
100
AcDbEntity
  8
部品1
100
AcDbLine
 10
10161.99485711482
 20
1413.271107845177
 30
0.0
 11
9398.524190886382
 21
1413.271107845177
 31
0.0
  0
LINE
  5
19F3B
330
747D
100
AcDbEntity
  8
部品1
100
AcDbLine
 10
10161.99485711482
 20
1173.378786299645
 30
0.0
 11
10161.99485711482
 21
1413.271107845177
 31
0.0
  0
LINE
  5
19F3C
330
747D
100
AcDbEntity
  8
部品1
100
AcDbLine
 10
9398.524190886382
 20
1173.378786299645
 30
0.0
 11
10161.99485711482
 21
1173.378786299645
 31
0.0
  0
LINE
  5
19F3D
330
747D
100
AcDbEntity
  8
部品1
100
AcDbLine
 10
9398.524190886382
 20
1413.271107845177
 30
0.0
 11
9398.524190886382
 21
1173.378786299645
 31
0.0
  0
TEXT
  5
19F43
330
747D
100
AcDbEntity
  8
部品1
100
AcDbText
 10
9489.049594624338
 20
1220.377578626654
 30
0.0
 40
135.0
  1
正面図
  7
STYLE2
100
AcDbText
  0
LINE
  5
19F44
330
747D
100
AcDbEntity
  8
Ｇ．Ｌ
100
AcDbLine
 10
2334.823819342659
 20
2068.09771128966
 30
0.0
 11
12078.8595286519
 21
2068.09771128966
 31
0.0
  0
LINE
  5
19F45
330
747D
100
AcDbEntity
  8
部品1
100
AcDbLine
 10
11225.00952385495
 20
7809.725026914588
 30
0.0
 11
8288.009523854951
 21
7809.725026914488
 31
0.0
  0
LINE
  5
19F46
330
747D
100
AcDbEntity
  8
部品1
100
AcDbLine
 10
8259.509523854941
 20
7809.725026914488
 30
0.0
 11
8231.50952385494
 21
7809.725026914488
 31
0.0
  0
LINE
  5
19F47
330
747D
100
AcDbEntity
  8
部品1
100
AcDbLine
 10
11253.50952385496
 20
7809.725026914616
 30
0.0
 11
11281.50952385497
 21
7809.725026914616
 31
0.0
  0
LINE
  5
19F48
330
747D
100
AcDbEntity
  8
破線
 48
5.0
100
AcDbLine
 10
11381.50952385497
 20
2068.09771128966
 30
0.0
 11
11381.50952385497
 21
1868.09771128966
 31
0.0
  0
LINE
  5
19F49
330
747D
100
AcDbEntity
  8
破線
 48
5.0
100
AcDbLine
 10
11181.50952385497
 20
2068.09771128966
 30
0.0
 11
11181.50952385497
 21
1868.09771128966
 31
0.0
  0
LINE
  5
19F4A
330
747D
100
AcDbEntity
  8
破線
 48
5.0
100
AcDbLine
 10
8206.509523854974
 20
1913.09771128966
 30
0.0
 11
8226.509523854975
 21
1913.09771128966
 31
0.0
  0
LINE
  5
19F4B
330
747D
100
AcDbEntity
  8
破線
 48
5.0
100
AcDbLine
 10
8331.509523854974
 20
2068.09771128966
 30
0.0
 11
8331.509523854974
 21
1868.09771128966
 31
0.0
  0
LINE
  5
19F4C
330
747D
100
AcDbEntity
  8
破線
 48
5.0
100
AcDbLine
 10
11381.50952385497
 20
1868.09771128966
 30
0.0
 11
11181.50952385497
 21
1868.09771128966
 31
0.0
  0
LINE
  5
19F4D
330
747D
100
AcDbEntity
  8
破線
 48
5.0
100
AcDbLine
 10
8131.509523854973
 20
2068.09771128966
 30
0.0
 11
8131.509523854973
 21
1868.09771128966
 31
0.0
  0
LINE
  5
19F4E
330
747D
100
AcDbEntity
  8
破線
 48
5.0
100
AcDbLine
 10
8131.509523854973
 20
1868.09771128966
 30
0.0
 11
8331.509523854974
 21
1868.09771128966
 31
0.0
  0
DIMENSION
  5
19F4F
330
747D
100
AcDbEntity
  8
寸法
 48
50.0
100
AcDbDimension
  2
*D24
 10
8131.509523854973
 20
1582.050381989282
 30
0.0
 11
8231.509523854972
 21
1582.050381989282
 31
0.0
 70
   160
 71
     5
 42
200.0000000000018
  3
INABA_S40G
100
AcDbAlignedDimension
 13
8331.509523854974
 23
1868.09771128966
 33
0.0
 14
8131.509523854973
 24
1868.09771128966
 34
0.0
100
AcDbRotatedDimension
  0
LINE
  5
1A228
330
747D
100
AcDbEntity
  8
補助
  6
PHANTOM
 62
   230
 48
50.0
100
AcDbLine
 10
140.0
 20
0.0
 30
0.0
 11
140.0
 21
11409.6
 31
0.0
  0
TEXT
  5
1A594
330
747D
100
AcDbEntity
  8
部品1
100
AcDbText
 10
2463.508378432766
 20
2104.204614895559
 30
0.0
 40
125.0
  1
▽G.L
  7
STYLE2
100
AcDbText
  0
TEXT
  5
1A595
330
747D
100
AcDbEntity
  8
部品1
100
AcDbText
 10
4552.12326282711
 20
1220.377578626652
 30
0.0
 40
135.0
  1
側面図
  7
STYLE2
100
AcDbText
  0
LINE
  5
1A596
330
747D
100
AcDbEntity
  8
部品1
100
AcDbLine
 10
4462.677161403502
 20
1413.271107845177
 30
0.0
 11
4462.677161403502
 21
1173.378786299645
 31
0.0
  0
LINE
  5
1A597
330
747D
100
AcDbEntity
  8
部品1
100
AcDbLine
 10
4462.677161403502
 20
1173.378786299645
 30
0.0
 11
5226.147827631947
 21
1173.378786299645
 31
0.0
  0
LINE
  5
1A598
330
747D
100
AcDbEntity
  8
部品1
100
AcDbLine
 10
5226.147827631947
 20
1173.378786299645
 30
0.0
 11
5226.147827631947
 21
1413.271107845177
 31
0.0
  0
LINE
  5
1A599
330
747D
100
AcDbEntity
  8
部品1
100
AcDbLine
 10
5226.147827631947
 20
1413.271107845177
 30
0.0
 11
4462.677161403502
 21
1413.271107845177
 31
0.0
  0
LINE
  5
1A59A
330
747D
100
AcDbEntity
  8
部品1
100
AcDbLine
 10
6141.912494517728
 20
2168.097711289658
 30
0.0
 11
6149.412494517728
 21
2168.097711289658
 31
0.0
  0
LINE
  5
1A59B
330
747D
100
AcDbEntity
  8
部品1
100
AcDbLine
 10
3519.412494517724
 20
2168.097711289658
 30
0.0
 11
3526.912494517725
 21
2168.097711289658
 31
0.0
  0
LINE
  5
1A59C
330
747D
100
AcDbEntity
  8
部品1
100
AcDbLine
 10
3519.412494517724
 20
2168.097711289658
 30
0.0
 11
3526.912494517725
 21
2168.097711289658
 31
0.0
  0
LINE
  5
1A59D
330
747D
100
AcDbEntity
  8
破線
  6
HIDDEN
 48
5.0
100
AcDbLine
 10
6156.912494517729
 20
1913.097711289658
 30
0.0
 11
6086.912494517728
 21
1913.097711289658
 31
0.0
  0
LINE
  5
1A59E
330
747D
100
AcDbEntity
  8
破線
  6
HIDDEN
 48
5.0
100
AcDbLine
 10
6101.912494517728
 20
2063.097711289658
 30
0.0
 11
6086.912494517728
 21
1915.397711289657
 31
0.0
  0
LINE
  5
1A59F
330
747D
100
AcDbEntity
  8
破線
  6
HIDDEN
 48
5.0
100
AcDbLine
 10
6086.912494517728
 20
1915.397711289657
 30
0.0
 11
6086.912494517728
 21
1913.097711289658
 31
0.0
  0
LINE
  5
1A5A0
330
747D
100
AcDbEntity
  8
破線
  6
HIDDEN
 48
5.0
100
AcDbLine
 10
6141.912494517728
 20
2063.097711289658
 30
0.0
 11
6156.912494517729
 21
1915.397711289657
 31
0.0
  0
LINE
  5
1A5A1
330
747D
100
AcDbEntity
  8
破線
  6
HIDDEN
 48
5.0
100
AcDbLine
 10
6156.912494517729
 20
1915.397711289657
 30
0.0
 11
6156.912494517729
 21
1913.097711289658
 31
0.0
  0
LINE
  5
1A5A2
330
747D
100
AcDbEntity
  8
破線
  6
HIDDEN
 48
5.0
100
AcDbLine
 10
3511.912494517725
 20
1913.097711289658
 30
0.0
 11
3581.912494517724
 21
1913.097711289658
 31
0.0
  0
LINE
  5
1A5A3
330
747D
100
AcDbEntity
  8
破線
  6
HIDDEN
 48
5.0
100
AcDbLine
 10
3511.912494517725
 20
1915.397711289657
 30
0.0
 11
3511.912494517725
 21
1913.097711289658
 31
0.0
  0
LINE
  5
1A5A4
330
747D
100
AcDbEntity
  8
破線
  6
HIDDEN
 48
5.0
100
AcDbLine
 10
3581.912494517724
 20
1915.397711289657
 30
0.0
 11
3581.912494517724
 21
1913.097711289658
 31
0.0
  0
LINE
  5
1A5A5
330
747D
100
AcDbEntity
  8
破線
  6
HIDDEN
 48
5.0
100
AcDbLine
 10
3526.912494517725
 20
2063.097711289658
 30
0.0
 11
3511.912494517725
 21
1915.397711289657
 31
0.0
  0
LINE
  5
1A5A6
330
747D
100
AcDbEntity
  8
破線
  6
HIDDEN
 48
5.0
100
AcDbLine
 10
3566.912494517725
 20
2063.097711289658
 30
0.0
 11
3581.912494517724
 21
1915.397711289657
 31
0.0
  0
LINE
  5
1A5A7
330
747D
100
AcDbEntity
  8
部品1
 48
50.0
100
AcDbLine
 10
3526.912494517725
 20
2208.097711289658
 30
0.0
 11
3526.912494517725
 21
2068.097711289658
 31
0.0
  0
LINE
  5
1A5A8
330
747D
100
AcDbEntity
  8
部品1
 48
50.0
100
AcDbLine
 10
3566.912494517725
 20
2208.097711289658
 30
0.0
 11
3566.912494517725
 21
2068.097711289658
 31
0.0
  0
LINE
  5
1A5A9
330
747D
100
AcDbEntity
  8
部品1
100
AcDbLine
 10
3531.912494517725
 20
2213.097711289658
 30
0.0
 11
3561.912494517725
 21
2213.097711289658
 31
0.0
  0
ARC
  5
1A5AA
330
747D
100
AcDbEntity
  8
部品1
 48
50.0
100
AcDbCircle
 10
3531.912494517725
 20
2208.097711289658
 30
0.0
 40
5.0
100
AcDbArc
 50
90.0
 51
180.0
  0
ARC
  5
1A5AB
330
747D
100
AcDbEntity
  8
部品1
 48
50.0
100
AcDbCircle
 10
3561.912494517725
 20
2208.097711289658
 30
0.0
 40
5.0
100
AcDbArc
 50
0.0
 51
90.0
  0
LINE
  5
1A5AC
330
747D
100
AcDbEntity
  8
部品1
 48
50.0
100
AcDbLine
 10
6101.912494517728
 20
2208.097711289658
 30
0.0
 11
6101.912494517728
 21
2068.097711289658
 31
0.0
  0
LINE
  5
1A5AD
330
747D
100
AcDbEntity
  8
部品1
 48
50.0
100
AcDbLine
 10
6141.912494517728
 20
2208.097711289658
 30
0.0
 11
6141.912494517728
 21
2068.097711289658
 31
0.0
  0
LINE
  5
1A5AE
330
747D
100
AcDbEntity
  8
部品1
100
AcDbLine
 10
6136.912494517728
 20
2213.097711289658
 30
0.0
 11
6106.912494517729
 21
2213.097711289658
 31
0.0
  0
ARC
  5
1A5AF
330
747D
100
AcDbEntity
  8
部品1
 48
50.0
100
AcDbCircle
 10
6106.912494517729
 20
2208.097711289658
 30
0.0
 40
5.0
100
AcDbArc
 50
90.0
 51
180.0
  0
ARC
  5
1A5B0
330
747D
100
AcDbEntity
  8
部品1
 48
50.0
100
AcDbCircle
 10
6136.912494517728
 20
2208.097711289658
 30
0.0
 40
5.0
100
AcDbArc
 50
0.0
 51
90.0
  0
LINE
  5
1A5B1
330
747D
100
AcDbEntity
  8
破線
  6
HIDDEN
 48
5.0
100
AcDbLine
 10
6101.912494517728
 20
2068.097711289658
 30
0.0
 11
6101.912494517728
 21
2063.097711289658
 31
0.0
  0
LINE
  5
1A5B2
330
747D
100
AcDbEntity
  8
破線
  6
HIDDEN
 48
5.0
100
AcDbLine
 10
6141.912494517728
 20
2068.097711289658
 30
0.0
 11
6141.912494517728
 21
2063.097711289658
 31
0.0
  0
LINE
  5
1A5B3
330
747D
100
AcDbEntity
  8
破線
  6
HIDDEN
 48
5.0
100
AcDbLine
 10
3526.912494517732
 20
2068.097711289658
 30
0.0
 11
3526.912494517732
 21
2063.097711289658
 31
0.0
  0
LINE
  5
1A5B4
330
747D
100
AcDbEntity
  8
破線
  6
HIDDEN
 48
5.0
100
AcDbLine
 10
3566.912494517725
 20
2068.097711289658
 30
0.0
 11
3566.912494517725
 21
2063.097711289658
 31
0.0
  0
LINE
  5
1A5B5
330
747D
100
AcDbEntity
  8
部品1
100
AcDbLine
 10
6141.912494517728
 20
2168.097711289658
 30
0.0
 11
6149.412494517728
 21
2168.097711289658
 31
0.0
  0
DIMENSION
  5
1A5B6
330
747D
100
AcDbEntity
  8
寸法
 48
50.0
100
AcDbDimension
  2
*D25
 10
3297.412491271091
 20
2068.097711289658
 30
0.0
 11
3297.412491271091
 21
1968.097711289659
 31
0.0
 70
   160
 71
     5
 42
200.0000000000002
  3
INABA_S40G
100
AcDbAlignedDimension
 13
3446.912494517725
 23
1868.097711289658
 33
0.0
 14
3421.912494517725
 24
2068.097711289658
 34
0.0
 50
90.0
100
AcDbRotatedDimension
1001
ACAD
1000
DSTYLE
1002
{
1070
   174
1070
     0
1070
   272
1070
     1
1070
   288
1070
     0
1070
   341
1005
0
1002
}
  0
LINE
  5
1A5B7
330
747D
100
AcDbEntity
  8
破線
 48
5.0
100
AcDbLine
 10
3646.912494517725
 20
1868.097711289654
 30
0.0
 11
3446.912494517725
 21
1868.097711289654
 31
0.0
  0
LINE
  5
1A5B8
330
747D
100
AcDbEntity
  8
破線
 48
5.0
100
AcDbLine
 10
3646.912494517725
 20
2068.097711289658
 30
0.0
 11
3646.912494517725
 21
1868.097711289654
 31
0.0
  0
LINE
  5
1A5B9
330
747D
100
AcDbEntity
  8
破線
 48
5.0
100
AcDbLine
 10
3446.912494517725
 20
2068.097711289658
 30
0.0
 11
3446.912494517725
 21
1868.097711289654
 31
0.0
  0
DIMENSION
  5
1A5BA
330
747D
100
AcDbEntity
  8
寸法
 48
50.0
100
AcDbDimension
  2
*D26
 10
3446.912494517725
 20
1582.05038198928
 30
0.0
 11
3546.912494517725
 21
1582.05038198928
 31
0.0
 70
   160
 71
     5
 42
200.0
  3
INABA_S40G
100
AcDbAlignedDimension
 13
3646.912494517725
 23
1868.097711289654
 33
0.0
 14
3446.912494517725
 24
1868.097711289658
 34
0.0
100
AcDbRotatedDimension
  0
LINE
  5
1A5BB
330
747D
100
AcDbEntity
  8
破線
 48
5.0
100
AcDbLine
 10
6221.912494517735
 20
2068.097711289658
 30
0.0
 11
6221.912494517728
 21
1868.097711289654
 31
0.0
  0
LINE
  5
1A5BC
330
747D
100
AcDbEntity
  8
破線
 48
5.0
100
AcDbLine
 10
6221.912494517728
 20
1868.097711289654
 30
0.0
 11
6021.912494517732
 21
1868.097711289658
 31
0.0
  0
LINE
  5
1A5BD
330
747D
100
AcDbEntity
  8
破線
 48
5.0
100
AcDbLine
 10
6021.912494517732
 20
2068.097711289658
 30
0.0
 11
6021.912494517732
 21
1868.097711289658
 31
0.0
  0
LINE
  5
1A5BE
330
747D
100
AcDbEntity
  8
部品1
 48
50.0
100
AcDbLine
 10
6149.412494517728
 20
4003.097711289657
 30
0.0
 11
6226.412494517728
 21
3993.097711289658
 31
0.0
  0
LINE
  5
1A5BF
330
747D
100
AcDbEntity
  8
部品1
 48
50.0
100
AcDbLine
 10
6226.412494517728
 20
3993.097711289658
 30
0.0
 11
6226.412494517728
 21
2068.097711289658
 31
0.0
  0
LINE
  5
1A5C0
330
747D
100
AcDbEntity
  8
部品1
 48
50.0
100
AcDbLine
 10
6226.412494517728
 20
2168.097711289658
 30
0.0
 11
6141.912494517728
 21
2168.097711289658
 31
0.0
  0
LINE
  5
1A5C1
330
747D
100
AcDbEntity
  8
部品1
100
AcDbLine
 10
5949.412494517725
 20
2168.097711289658
 30
0.0
 11
5949.412494517725
 21
2068.097711289658
 31
0.0
  0
LINE
  5
1A5C2
330
747D
100
AcDbEntity
  8
部品1
100
AcDbLine
 10
3719.412494517725
 20
2168.097711289658
 30
0.0
 11
3719.412494517725
 21
2068.097711289658
 31
0.0
  0
LINE
  5
1A5C3
330
747D
100
AcDbEntity
  8
細線
 48
50.0
100
AcDbLine
 10
6016.912494517732
 20
4008.09771128966
 30
0.0
 11
6016.912494517732
 21
2218.09771128966
 31
0.0
  0
LINE
  5
1A5C4
330
747D
100
AcDbEntity
  8
細線
 48
50.0
100
AcDbLine
 10
6031.912494517732
 20
4008.09771128966
 30
0.0
 11
6031.912494517732
 21
2218.09771128966
 31
0.0
  0
LINE
  5
1A5C5
330
747D
100
AcDbEntity
  8
細線
 48
50.0
100
AcDbLine
 10
5891.912494517732
 20
4008.09771128966
 30
0.0
 11
5891.912494517732
 21
2218.09771128966
 31
0.0
  0
LINE
  5
1A5C6
330
747D
100
AcDbEntity
  8
細線
 48
50.0
100
AcDbLine
 10
5876.912494517732
 20
4008.09771128966
 30
0.0
 11
5876.912494517732
 21
2218.09771128966
 31
0.0
  0
LINE
  5
1A5C7
330
747D
100
AcDbEntity
  8
細線
 48
50.0
100
AcDbLine
 10
5736.912494517731
 20
4008.09771128966
 30
0.0
 11
5736.912494517731
 21
2218.09771128966
 31
0.0
  0
LINE
  5
1A5C8
330
747D
100
AcDbEntity
  8
細線
 48
50.0
100
AcDbLine
 10
5751.912494517732
 20
4008.09771128966
 30
0.0
 11
5751.912494517732
 21
2218.09771128966
 31
0.0
  0
LINE
  5
1A5C9
330
747D
100
AcDbEntity
  8
部品1
100
AcDbLine
 10
4834.412494517724
 20
4008.097711289658
 30
0.0
 11
4834.412494517724
 21
2218.097711289658
 31
0.0
  0
LINE
  5
1A5CA
330
747D
100
AcDbEntity
  8
細線
 48
50.0
100
AcDbLine
 10
4491.912494517724
 20
4008.097711289658
 30
0.0
 11
4491.912494517724
 21
2218.097711289658
 31
0.0
  0
LINE
  5
1A5CB
330
747D
100
AcDbEntity
  8
細線
 48
50.0
100
AcDbLine
 10
4476.912494517724
 20
4008.097711289658
 30
0.0
 11
4476.912494517724
 21
2218.097711289658
 31
0.0
  0
LINE
  5
1A5CC
330
747D
100
AcDbEntity
  8
細線
 48
50.0
100
AcDbLine
 10
4616.912494517724
 20
4008.097711289658
 30
0.0
 11
4616.912494517724
 21
2218.097711289658
 31
0.0
  0
LINE
  5
1A5CD
330
747D
100
AcDbEntity
  8
細線
 48
50.0
100
AcDbLine
 10
4631.912494517724
 20
4008.097711289658
 30
0.0
 11
4631.912494517724
 21
2218.097711289658
 31
0.0
  0
LINE
  5
1A5CE
330
747D
100
AcDbEntity
  8
細線
 48
50.0
100
AcDbLine
 10
4771.912494517724
 20
4008.097711289658
 30
0.0
 11
4771.912494517724
 21
2218.097711289658
 31
0.0
  0
LINE
  5
1A5CF
330
747D
100
AcDbEntity
  8
細線
 48
50.0
100
AcDbLine
 10
4756.912494517724
 20
4008.097711289658
 30
0.0
 11
4756.912494517724
 21
2218.097711289658
 31
0.0
  0
LINE
  5
1A5D0
330
747D
100
AcDbEntity
  8
部品1
100
AcDbLine
 10
4414.412494517724
 20
4008.097711289658
 30
0.0
 11
4414.412494517724
 21
2218.097711289658
 31
0.0
  0
LINE
  5
1A5D1
330
747D
100
AcDbEntity
  8
細線
 48
50.0
100
AcDbLine
 10
3651.912494517725
 20
4008.097711289658
 30
0.0
 11
3651.912494517725
 21
2218.097711289658
 31
0.0
  0
LINE
  5
1A5D2
330
747D
100
AcDbEntity
  8
細線
 48
50.0
100
AcDbLine
 10
3636.912494517725
 20
4008.097711289658
 30
0.0
 11
3636.912494517725
 21
2218.097711289658
 31
0.0
  0
LINE
  5
1A5D3
330
747D
100
AcDbEntity
  8
細線
 48
50.0
100
AcDbLine
 10
3776.912494517725
 20
4008.097711289658
 30
0.0
 11
3776.912494517725
 21
2218.097711289658
 31
0.0
  0
LINE
  5
1A5D4
330
747D
100
AcDbEntity
  8
細線
 48
50.0
100
AcDbLine
 10
3791.912494517724
 20
4008.097711289658
 30
0.0
 11
3791.912494517724
 21
2218.097711289658
 31
0.0
  0
LINE
  5
1A5D5
330
747D
100
AcDbEntity
  8
細線
 48
50.0
100
AcDbLine
 10
3931.912494517725
 20
4008.097711289658
 30
0.0
 11
3931.912494517725
 21
2218.097711289658
 31
0.0
  0
LINE
  5
1A5D6
330
747D
100
AcDbEntity
  8
細線
 48
50.0
100
AcDbLine
 10
3916.912494517724
 20
4008.097711289658
 30
0.0
 11
3916.912494517724
 21
2218.097711289658
 31
0.0
  0
LINE
  5
1A5D7
330
747D
100
AcDbEntity
  8
細線
 48
50.0
100
AcDbLine
 10
4336.912494517725
 20
4008.097711289658
 30
0.0
 11
4336.912494517725
 21
2218.097711289658
 31
0.0
  0
LINE
  5
1A5D8
330
747D
100
AcDbEntity
  8
細線
 48
50.0
100
AcDbLine
 10
4351.912494517724
 20
4008.097711289658
 30
0.0
 11
4351.912494517724
 21
2218.097711289658
 31
0.0
  0
LINE
  5
1A5D9
330
747D
100
AcDbEntity
  8
細線
 48
50.0
100
AcDbLine
 10
4211.912494517725
 20
4008.097711289658
 30
0.0
 11
4211.912494517725
 21
2218.097711289658
 31
0.0
  0
LINE
  5
1A5DA
330
747D
100
AcDbEntity
  8
細線
 48
50.0
100
AcDbLine
 10
4196.912494517724
 20
4008.097711289658
 30
0.0
 11
4196.912494517724
 21
2218.097711289658
 31
0.0
  0
LINE
  5
1A5DB
330
747D
100
AcDbEntity
  8
細線
 48
50.0
100
AcDbLine
 10
4056.912494517724
 20
4008.097711289658
 30
0.0
 11
4056.912494517724
 21
2218.097711289658
 31
0.0
  0
LINE
  5
1A5DC
330
747D
100
AcDbEntity
  8
細線
 48
50.0
100
AcDbLine
 10
4071.912494517724
 20
4008.097711289658
 30
0.0
 11
4071.912494517724
 21
2218.097711289658
 31
0.0
  0
LINE
  5
1A5DD
330
747D
100
AcDbEntity
  8
部品1
100
AcDbLine
 10
3519.412494517724
 20
2168.097711289658
 30
0.0
 11
3526.912494517725
 21
2168.097711289658
 31
0.0
  0
LINE
  5
1A5DE
330
747D
100
AcDbEntity
  8
部品1
100
AcDbLine
 10
6094.412494517729
 20
4008.09771128966
 30
0.0
 11
6094.412494517729
 21
2218.09771128966
 31
0.0
  0
LINE
  5
1A5DF
330
747D
100
AcDbEntity
  8
部品1
100
AcDbLine
 10
6149.412494517721
 20
4102.097711289664
 30
0.0
 11
6149.412494517728
 21
2068.09771128966
 31
0.0
  0
LINE
  5
1A5E0
330
747D
100
AcDbEntity
  8
部品1
100
AcDbLine
 10
3994.412494517725
 20
4008.097711289658
 30
0.0
 11
3994.412494517725
 21
2218.097711289658
 31
0.0
  0
LINE
  5
1A5E1
330
747D
100
AcDbEntity
  8
部品1
100
AcDbLine
 10
3519.412494517724
 20
4102.097711289661
 30
0.0
 11
3519.412494517724
 21
2068.097711289658
 31
0.0
  0
LINE
  5
1A5E2
330
747D
100
AcDbEntity
  8
部品1
100
AcDbLine
 10
3574.412494517725
 20
4008.097711289658
 30
0.0
 11
3574.412494517725
 21
2218.097711289658
 31
0.0
  0
LINE
  5
1A5E3
330
747D
100
AcDbEntity
  8
部品1
100
AcDbLine
 10
3519.412494517724
 20
2218.097711289658
 30
0.0
 11
6149.412494517728
 21
2218.09771128966
 31
0.0
  0
LINE
  5
1A5E4
330
747D
100
AcDbEntity
  8
部品1
100
AcDbLine
 10
3519.412494517724
 20
4008.097711289658
 30
0.0
 11
6149.412494517728
 21
4008.097711289658
 31
0.0
  0
LINE
  5
1A5E5
330
747D
100
AcDbEntity
  8
部品1
100
AcDbLine
 10
5674.412494517724
 20
4008.09771128966
 30
0.0
 11
5674.412494517724
 21
2218.09771128966
 31
0.0
  0
LINE
  5
1A5E6
330
747D
100
AcDbEntity
  8
細線
 48
50.0
100
AcDbLine
 10
5176.912494517725
 20
4008.097711289658
 30
0.0
 11
5176.912494517725
 21
2218.097711289658
 31
0.0
  0
LINE
  5
1A5E7
330
747D
100
AcDbEntity
  8
細線
 48
50.0
100
AcDbLine
 10
5191.912494517724
 20
4008.097711289658
 30
0.0
 11
5191.912494517724
 21
2218.097711289658
 31
0.0
  0
LINE
  5
1A5E8
330
747D
100
AcDbEntity
  8
細線
 48
50.0
100
AcDbLine
 10
5051.912494517725
 20
4008.097711289658
 30
0.0
 11
5051.912494517725
 21
2218.097711289658
 31
0.0
  0
LINE
  5
1A5E9
330
747D
100
AcDbEntity
  8
細線
 48
50.0
100
AcDbLine
 10
5036.912494517725
 20
4008.097711289658
 30
0.0
 11
5036.912494517725
 21
2218.097711289658
 31
0.0
  0
LINE
  5
1A5EA
330
747D
100
AcDbEntity
  8
細線
 48
50.0
100
AcDbLine
 10
4896.912494517724
 20
4008.097711289658
 30
0.0
 11
4896.912494517724
 21
2218.097711289658
 31
0.0
  0
LINE
  5
1A5EB
330
747D
100
AcDbEntity
  8
細線
 48
50.0
100
AcDbLine
 10
4911.912494517725
 20
4008.097711289658
 30
0.0
 11
4911.912494517725
 21
2218.097711289658
 31
0.0
  0
LINE
  5
1A5EC
330
747D
100
AcDbEntity
  8
部品1
100
AcDbLine
 10
5254.412494517717
 20
4008.097711289662
 30
0.0
 11
5254.412494517717
 21
2218.097711289662
 31
0.0
  0
LINE
  5
1A5ED
330
747D
100
AcDbEntity
  8
細線
 48
50.0
100
AcDbLine
 10
5331.912494517724
 20
4008.097711289662
 30
0.0
 11
5331.912494517724
 21
2218.097711289662
 31
0.0
  0
LINE
  5
1A5EE
330
747D
100
AcDbEntity
  8
細線
 48
50.0
100
AcDbLine
 10
5316.912494517724
 20
4008.097711289662
 30
0.0
 11
5316.912494517724
 21
2218.097711289662
 31
0.0
  0
LINE
  5
1A5EF
330
747D
100
AcDbEntity
  8
細線
 48
50.0
100
AcDbLine
 10
5456.912494517724
 20
4008.097711289662
 30
0.0
 11
5456.912494517724
 21
2218.097711289662
 31
0.0
  0
LINE
  5
1A5F0
330
747D
100
AcDbEntity
  8
細線
 48
50.0
100
AcDbLine
 10
5471.912494517725
 20
4008.097711289662
 30
0.0
 11
5471.912494517725
 21
2218.097711289662
 31
0.0
  0
LINE
  5
1A5F1
330
747D
100
AcDbEntity
  8
細線
 48
50.0
100
AcDbLine
 10
5611.912494517724
 20
4008.097711289662
 30
0.0
 11
5611.912494517724
 21
2218.097711289662
 31
0.0
  0
LINE
  5
1A5F2
330
747D
100
AcDbEntity
  8
細線
 48
50.0
100
AcDbLine
 10
5596.912494517725
 20
4008.097711289662
 30
0.0
 11
5596.912494517725
 21
2218.097711289662
 31
0.0
  0
LINE
  5
1A5F3
330
747D
100
AcDbEntity
  8
部品1
100
AcDbLine
 10
6141.912494517728
 20
2168.097711289658
 30
0.0
 11
6149.412494517728
 21
2168.097711289658
 31
0.0
  0
LINE
  5
1A5F4
330
747D
100
AcDbEntity
  8
部品1
100
AcDbLine
 10
3566.912494517725
 20
2168.097711289658
 30
0.0
 11
6101.912494517728
 21
2168.097711289658
 31
0.0
  0
LINE
  5
1A5F5
330
747D
100
AcDbEntity
  8
部品1
 48
50.0
100
AcDbLine
 10
5349.412494517725
 20
2168.097711289658
 30
0.0
 11
5349.412494517725
 21
2068.097711289658
 31
0.0
  0
LINE
  5
1A5F6
330
747D
100
AcDbEntity
  8
部品1
 48
50.0
100
AcDbLine
 10
5149.412494517725
 20
2168.097711289658
 30
0.0
 11
5149.412494517725
 21
2068.097711289658
 31
0.0
  0
LINE
  5
1A5F7
330
747D
100
AcDbEntity
  8
部品1
 48
50.0
100
AcDbLine
 10
4519.412494517724
 20
2168.097711289658
 30
0.0
 11
4519.412494517724
 21
2068.097711289658
 31
0.0
  0
LINE
  5
1A5F8
330
747D
100
AcDbEntity
  8
部品1
 48
50.0
100
AcDbLine
 10
4319.412494517724
 20
2168.097711289658
 30
0.0
 11
4319.412494517724
 21
2068.097711289658
 31
0.0
  0
DIMENSION
  5
1A5F9
330
747D
100
AcDbEntity
  8
寸法
 48
50.0
100
AcDbDimension
  2
*D27
 10
6199.412494517728
 20
4857.311845138382
 30
0.0
 11
4834.412494517724
 21
4857.311845138382
 31
0.0
 70
   160
 71
     5
 42
2730.000000000004
  3
INABA_S40G
100
AcDbAlignedDimension
 13
3469.412494517725
 23
4243.097711289662
 33
0.0
 14
6199.412494517728
 24
4243.097711289659
 34
0.0
100
AcDbRotatedDimension
  0
DIMENSION
  5
1A5FA
330
747D
100
AcDbEntity
  8
寸法
 48
50.0
100
AcDbDimension
  2
*D28
 10
3469.412494517725
 20
4647.71797071693
 30
0.0
 11
3155.927213143478
 21
4647.71797071693
 31
0.0
 70
   160
 71
     5
 42
50.0
  3
INABA_S40G
100
AcDbAlignedDimension
 13
3519.412494517724
 23
4243.097711289663
 33
0.0
 14
3469.412494517725
 24
4243.097711289662
 34
0.0
100
AcDbRotatedDimension
1001
ACAD
1000
DSTYLE
1002
{
1002
}
  0
DIMENSION
  5
1A5FB
330
747D
100
AcDbEntity
  8
寸法
 48
50.0
100
AcDbDimension
  2
*D29
 10
3519.412494517724
 20
4647.71797071693
 30
0.0
 11
4834.412494517724
 21
4647.71797071693
 31
0.0
 70
   160
  1
柱外寸法<>
 71
     5
 42
2630.000000000004
  3
INABA_S40G
100
AcDbAlignedDimension
 13
6149.412494517728
 23
4243.097711289662
 33
0.0
 14
3519.412494517724
 24
4243.097711289663
 34
0.0
100
AcDbRotatedDimension
  0
LINE
  5
1A5FC
330
747D
100
AcDbEntity
  8
部品1
 48
50.0
100
AcDbLine
 10
6192.004073411288
 20
4243.097711289662
 30
0.0
 11
3476.820915624158
 21
4243.097711289663
 31
0.0
  0
LINE
  5
1A5FD
330
747D
100
AcDbEntity
  8
部品1
 48
50.0
100
AcDbLine
 10
6178.788749950258
 20
4102.097711289664
 30
0.0
 11
3490.036239085188
 21
4102.097711289661
 31
0.0
  0
LINE
  5
1A5FE
330
747D
100
AcDbEntity
  8
細線
 48
50.0
100
AcDbLine
 10
6197.372956296288
 20
4215.097711289661
 30
0.0
 11
3471.452032739165
 21
4215.09771128966
 31
0.0
  0
LINE
  5
1A5FF
330
747D
100
AcDbEntity
  8
細線
 48
50.0
100
AcDbLine
 10
6189.136925771435
 20
4122.897711289657
 30
0.0
 11
3479.688063263995
 21
4122.897711289662
 31
0.0
  0
LINE
  5
1A600
330
747D
100
AcDbEntity
  8
細線
 48
50.0
100
AcDbLine
 10
3502.412494517725
 20
4243.097711289662
 30
0.0
 11
3502.412494517725
 21
4102.097711289661
 31
0.0
  0
ARC
  5
1A601
330
747D
100
AcDbEntity
  8
部品1
100
AcDbCircle
 10
3476.820915624158
 20
4236.097711289661
 30
0.0
 40
7.0
100
AcDbArc
 50
90.0
 51
183.2473427903317
  0
ARC
  5
1A602
330
747D
100
AcDbEntity
  8
部品1
100
AcDbCircle
 10
3490.036239085188
 20
4109.097711289663
 30
0.0
 40
7.0
100
AcDbArc
 50
183.2473427903317
 51
270.0
  0
ARC
  5
1A603
330
747D
100
AcDbEntity
  8
部品1
 48
50.0
100
AcDbCircle
 10
3471.664428874516
 20
4215.764710451347
 30
0.0
 40
0.7
100
AcDbArc
 50
183.2473427904417
 51
262.3418727926349
  0
ARC
  5
1A604
330
747D
100
AcDbEntity
  8
部品1
 48
50.0
100
AcDbCircle
 10
3479.900459399352
 20
4123.564710451344
 30
0.0
 40
0.7
100
AcDbArc
 50
183.2473427903317
 51
262.3418727926349
  0
ARC
  5
1A605
330
747D
100
AcDbEntity
  8
部品1
 48
50.0
100
AcDbCircle
 10
3479.407390290791
 20
4119.897711289659
 30
0.0
 40
3.0
100
AcDbArc
 50
3.247342790331777
 51
82.3418727926348
  0
ARC
  5
1A606
330
747D
100
AcDbEntity
  8
部品1
 48
50.0
100
AcDbCircle
 10
3471.171359765948
 20
4212.097711289663
 30
0.0
 40
3.0
100
AcDbArc
 50
3.247342790331777
 51
82.3418727926348
  0
LINE
  5
1A607
330
747D
100
AcDbEntity
  8
部品1
100
AcDbLine
 10
3474.166542662133
 20
4212.267650744765
 30
0.0
 11
3479.201583390248
 21
4123.52505791182
 31
0.0
  0
LINE
  5
1A608
330
747D
100
AcDbEntity
  8
部品1
100
AcDbLine
 10
3482.402573186984
 20
4120.067650744762
 30
0.0
 11
3483.047478994093
 21
4108.701185894422
 31
0.0
  0
LINE
  5
1A609
330
747D
100
AcDbEntity
  8
部品1
100
AcDbLine
 10
3469.832155533055
 20
4235.701185894423
 30
0.0
 11
3470.965552865404
 21
4215.725057911822
 31
0.0
  0
ARC
  5
1A60A
330
747D
100
AcDbEntity
  8
部品1
 48
0.01
100
AcDbCircle
 10
5361.412494517725
 20
4072.097711289658
 30
0.0
 40
2.0
100
AcDbArc
 50
90.0
 51
180.0
  0
ARC
  5
1A60B
330
747D
100
AcDbEntity
  8
部品1
 48
0.01
100
AcDbCircle
 10
5537.412494517724
 20
4072.097711289658
 30
0.0
 40
2.0
100
AcDbArc
 50
0.0
 51
90.0
  0
LINE
  5
1A60C
330
747D
100
AcDbEntity
  8
細線
100
AcDbLine
 10
5449.412494517725
 20
4044.597711289657
 30
0.0
 11
5375.412494517725
 21
4044.597711289657
 31
0.0
  0
LINE
  5
1A60D
330
747D
100
AcDbEntity
  8
細線
100
AcDbLine
 10
5449.412494517725
 20
4067.597711289658
 30
0.0
 11
5523.412494517724
 21
4067.597711289658
 31
0.0
  0
LINE
  5
1A60E
330
747D
100
AcDbEntity
  8
細線
100
AcDbLine
 10
5523.412494517724
 20
4044.597711289657
 30
0.0
 11
5449.412494517725
 21
4044.597711289657
 31
0.0
  0
LINE
  5
1A60F
330
747D
100
AcDbEntity
  8
細線
100
AcDbLine
 10
5375.412494517725
 20
4067.597711289658
 30
0.0
 11
5449.412494517725
 21
4067.597711289658
 31
0.0
  0
LINE
  5
1A610
330
747D
100
AcDbEntity
  8
細線
100
AcDbLine
 10
5375.412494517725
 20
4044.597711289657
 30
0.0
 11
5375.412494517725
 21
4067.597711289658
 31
0.0
  0
LINE
  5
1A611
330
747D
100
AcDbEntity
  8
細線
100
AcDbLine
 10
5523.412494517724
 20
4067.597711289658
 30
0.0
 11
5523.412494517724
 21
4044.597711289657
 31
0.0
  0
LINE
  5
1A612
330
747D
100
AcDbEntity
  8
部品1
 48
0.01
100
AcDbLine
 10
5361.412494517725
 20
4074.097711289658
 30
0.0
 11
5537.412494517724
 21
4074.097711289658
 31
0.0
  0
LINE
  5
1A613
330
747D
100
AcDbEntity
  8
細線
100
AcDbLine
 10
5523.412494517724
 20
4061.597711289658
 30
0.0
 11
5449.412494517725
 21
4061.597711289658
 31
0.0
  0
LINE
  5
1A614
330
747D
100
AcDbEntity
  8
細線
100
AcDbLine
 10
5523.412494517724
 20
4055.597711289657
 30
0.0
 11
5449.412494517725
 21
4055.597711289657
 31
0.0
  0
LINE
  5
1A615
330
747D
100
AcDbEntity
  8
細線
100
AcDbLine
 10
5523.412494517724
 20
4049.597711289658
 30
0.0
 11
5449.412494517725
 21
4049.597711289658
 31
0.0
  0
LINE
  5
1A616
330
747D
100
AcDbEntity
  8
細線
100
AcDbLine
 10
5523.412494517724
 20
4061.597711289658
 30
0.0
 11
5454.412494517725
 21
4061.597711289658
 31
0.0
  0
LINE
  5
1A617
330
747D
100
AcDbEntity
  8
細線
100
AcDbLine
 10
5375.412494517725
 20
4061.597711289656
 30
0.0
 11
5449.412494517725
 21
4061.597711289658
 31
0.0
  0
LINE
  5
1A618
330
747D
100
AcDbEntity
  8
細線
100
AcDbLine
 10
5375.412494517725
 20
4049.597711289655
 30
0.0
 11
5449.412494517725
 21
4049.597711289658
 31
0.0
  0
LINE
  5
1A619
330
747D
100
AcDbEntity
  8
細線
100
AcDbLine
 10
5375.412494517725
 20
4055.597711289657
 30
0.0
 11
5449.412494517725
 21
4055.597711289657
 31
0.0
  0
LINE
  5
1A61A
330
747D
100
AcDbEntity
  8
細線
100
AcDbLine
 10
5449.412494517725
 20
4067.597711289658
 30
0.0
 11
5449.412494517725
 21
4044.597711289657
 31
0.0
  0
ARC
  5
1A61B
330
747D
100
AcDbEntity
  8
部品1
 48
0.01
100
AcDbCircle
 10
5361.412494517725
 20
4040.597711289658
 30
0.0
 40
2.0
100
AcDbArc
 50
180.0
 51
270.0
  0
ARC
  5
1A61C
330
747D
100
AcDbEntity
  8
部品1
 48
0.01
100
AcDbCircle
 10
5537.412494517724
 20
4040.597711289658
 30
0.0
 40
2.0
100
AcDbArc
 50
270.0
 51
0.0
  0
LINE
  5
1A61D
330
747D
100
AcDbEntity
  8
部品1
 48
0.01
100
AcDbLine
 10
5359.412494517725
 20
4040.597711289658
 30
0.0
 11
5359.412494517725
 21
4072.097711289658
 31
0.0
  0
LINE
  5
1A61E
330
747D
100
AcDbEntity
  8
部品1
 48
0.01
100
AcDbLine
 10
5537.412494517724
 20
4038.597711289658
 30
0.0
 11
5361.412494517725
 21
4038.597711289658
 31
0.0
  0
LINE
  5
1A61F
330
747D
100
AcDbEntity
  8
部品1
 48
0.01
100
AcDbLine
 10
5539.412494517724
 20
4072.097711289658
 30
0.0
 11
5539.412494517724
 21
4040.597711289658
 31
0.0
  0
LINE
  5
1A620
330
747D
100
AcDbEntity
  8
細線
100
AcDbLine
 10
4219.412494517724
 20
4067.597711289658
 30
0.0
 11
4219.412494517724
 21
4044.597711289657
 31
0.0
  0
LINE
  5
1A621
330
747D
100
AcDbEntity
  8
細線
100
AcDbLine
 10
4293.412494517724
 20
4055.597711289657
 30
0.0
 11
4219.412494517724
 21
4055.597711289657
 31
0.0
  0
LINE
  5
1A622
330
747D
100
AcDbEntity
  8
細線
100
AcDbLine
 10
4293.412494517724
 20
4049.597711289655
 30
0.0
 11
4219.412494517724
 21
4049.597711289658
 31
0.0
  0
LINE
  5
1A623
330
747D
100
AcDbEntity
  8
細線
100
AcDbLine
 10
4293.412494517724
 20
4061.597711289656
 30
0.0
 11
4219.412494517724
 21
4061.597711289658
 31
0.0
  0
LINE
  5
1A624
330
747D
100
AcDbEntity
  8
細線
100
AcDbLine
 10
4145.412494517724
 20
4061.597711289658
 30
0.0
 11
4214.412494517724
 21
4061.597711289658
 31
0.0
  0
LINE
  5
1A625
330
747D
100
AcDbEntity
  8
細線
100
AcDbLine
 10
4145.412494517724
 20
4049.597711289658
 30
0.0
 11
4219.412494517724
 21
4049.597711289658
 31
0.0
  0
LINE
  5
1A626
330
747D
100
AcDbEntity
  8
細線
100
AcDbLine
 10
4145.412494517724
 20
4055.597711289657
 30
0.0
 11
4219.412494517724
 21
4055.597711289657
 31
0.0
  0
LINE
  5
1A627
330
747D
100
AcDbEntity
  8
細線
100
AcDbLine
 10
4145.412494517724
 20
4061.597711289658
 30
0.0
 11
4219.412494517724
 21
4061.597711289658
 31
0.0
  0
LINE
  5
1A628
330
747D
100
AcDbEntity
  8
部品1
 48
0.01
100
AcDbLine
 10
4307.412494517724
 20
4074.097711289658
 30
0.0
 11
4131.412494517724
 21
4074.097711289658
 31
0.0
  0
LINE
  5
1A629
330
747D
100
AcDbEntity
  8
部品1
 48
0.01
100
AcDbLine
 10
4129.412494517724
 20
4072.097711289658
 30
0.0
 11
4129.412494517724
 21
4040.597711289658
 31
0.0
  0
LINE
  5
1A62A
330
747D
100
AcDbEntity
  8
部品1
 48
0.01
100
AcDbLine
 10
4131.412494517724
 20
4038.597711289658
 30
0.0
 11
4307.412494517724
 21
4038.597711289658
 31
0.0
  0
LINE
  5
1A62B
330
747D
100
AcDbEntity
  8
部品1
 48
0.01
100
AcDbLine
 10
4309.412494517725
 20
4040.597711289658
 30
0.0
 11
4309.412494517725
 21
4072.097711289658
 31
0.0
  0
LINE
  5
1A62C
330
747D
100
AcDbEntity
  8
細線
100
AcDbLine
 10
4145.412494517724
 20
4067.597711289658
 30
0.0
 11
4145.412494517724
 21
4044.597711289657
 31
0.0
  0
LINE
  5
1A62D
330
747D
100
AcDbEntity
  8
細線
100
AcDbLine
 10
4293.412494517724
 20
4044.597711289657
 30
0.0
 11
4293.412494517724
 21
4067.597711289658
 31
0.0
  0
LINE
  5
1A62E
330
747D
100
AcDbEntity
  8
細線
100
AcDbLine
 10
4293.412494517724
 20
4067.597711289658
 30
0.0
 11
4219.412494517724
 21
4067.597711289658
 31
0.0
  0
LINE
  5
1A62F
330
747D
100
AcDbEntity
  8
細線
100
AcDbLine
 10
4145.412494517724
 20
4044.597711289657
 30
0.0
 11
4219.412494517724
 21
4044.597711289657
 31
0.0
  0
LINE
  5
1A630
330
747D
100
AcDbEntity
  8
細線
100
AcDbLine
 10
4219.412494517724
 20
4067.597711289658
 30
0.0
 11
4145.412494517724
 21
4067.597711289658
 31
0.0
  0
LINE
  5
1A631
330
747D
100
AcDbEntity
  8
細線
100
AcDbLine
 10
4219.412494517724
 20
4044.597711289657
 30
0.0
 11
4293.412494517724
 21
4044.597711289657
 31
0.0
  0
ARC
  5
1A632
330
747D
100
AcDbEntity
  8
部品1
 48
0.01
100
AcDbCircle
 10
4131.412494517724
 20
4072.097711289658
 30
0.0
 40
2.0
100
AcDbArc
 50
90.0
 51
180.0
  0
ARC
  5
1A633
330
747D
100
AcDbEntity
  8
部品1
 48
0.01
100
AcDbCircle
 10
4131.412494517724
 20
4040.597711289658
 30
0.0
 40
2.0
100
AcDbArc
 50
180.0
 51
270.0
  0
ARC
  5
1A634
330
747D
100
AcDbEntity
  8
部品1
 48
0.01
100
AcDbCircle
 10
4307.412494517724
 20
4072.097711289658
 30
0.0
 40
2.0
100
AcDbArc
 50
0.0
 51
90.0
  0
ARC
  5
1A635
330
747D
100
AcDbEntity
  8
部品1
 48
0.01
100
AcDbCircle
 10
4307.412494517724
 20
4040.597711289658
 30
0.0
 40
2.0
100
AcDbArc
 50
270.0
 51
0.0
  0
DIMENSION
  5
1A636
330
747D
100
AcDbEntity
  8
寸法
 48
50.0
100
AcDbDimension
  2
*D30
 10
6149.412494517728
 20
4647.71797071693
 30
0.0
 11
6512.897775891969
 21
4647.71797071693
 31
0.0
 70
   160
 71
     5
 42
50.0
  3
INABA_S40G
100
AcDbAlignedDimension
 13
6199.412494517728
 23
4243.097711289659
 33
0.0
 14
6149.412494517728
 24
4243.097711289662
 34
0.0
100
AcDbRotatedDimension
  0
LINE
  5
1A637
330
747D
100
AcDbEntity
  8
部品1
100
AcDbLine
 10
6198.992833502391
 20
4235.701185894423
 30
0.0
 11
6197.859436170041
 21
4215.725057911822
 31
0.0
  0
LINE
  5
1A638
330
747D
100
AcDbEntity
  8
細線
 48
50.0
100
AcDbLine
 10
6166.412494517722
 20
4243.097711289662
 30
0.0
 11
6166.412494517722
 21
4102.097711289661
 31
0.0
  0
LINE
  5
1A639
330
747D
100
AcDbEntity
  8
部品1
100
AcDbLine
 10
6186.422415848468
 20
4120.067650744762
 30
0.0
 11
6185.777510041353
 21
4108.701185894422
 31
0.0
  0
LINE
  5
1A63A
330
747D
100
AcDbEntity
  8
部品1
100
AcDbLine
 10
6194.658446373312
 20
4212.267650744765
 30
0.0
 11
6189.623405645198
 21
4123.52505791182
 31
0.0
  0
ARC
  5
1A63B
330
747D
100
AcDbEntity
  8
部品1
 48
50.0
100
AcDbCircle
 10
6197.653629269498
 20
4212.097711289663
 30
0.0
 40
3.0
100
AcDbArc
 50
97.65812720736519
 51
176.7526572096682
  0
ARC
  5
1A63C
330
747D
100
AcDbEntity
  8
部品1
 48
50.0
100
AcDbCircle
 10
6189.417598744654
 20
4119.897711289659
 30
0.0
 40
3.0
100
AcDbArc
 50
97.65812720736519
 51
176.7526572096682
  0
ARC
  5
1A63D
330
747D
100
AcDbEntity
  8
部品1
 48
50.0
100
AcDbCircle
 10
6188.924529636093
 20
4123.564710451344
 30
0.0
 40
0.7
100
AcDbArc
 50
277.6581272073652
 51
356.7526572096682
  0
ARC
  5
1A63E
330
747D
100
AcDbEntity
  8
部品1
 48
50.0
100
AcDbCircle
 10
6197.160560160938
 20
4215.764710451347
 30
0.0
 40
0.7
100
AcDbArc
 50
277.6581272073652
 51
356.7526572095583
  0
ARC
  5
1A63F
330
747D
100
AcDbEntity
  8
部品1
100
AcDbCircle
 10
6178.788749950258
 20
4109.097711289663
 30
0.0
 40
7.0
100
AcDbArc
 50
270.0
 51
356.7526572096682
  0
ARC
  5
1A640
330
747D
100
AcDbEntity
  8
部品1
100
AcDbCircle
 10
6192.004073411288
 20
4236.097711289661
 30
0.0
 40
7.0
100
AcDbArc
 50
356.7526572096682
 51
90.0
  0
LINE
  5
1A903
330
747D
100
AcDbEntity
  8
部品1
100
AcDbLine
 10
11225.00952385495
 20
8649.725026914587
 30
0.0
 11
8288.009523854951
 21
8649.725026914488
 31
0.0
  0
LINE
  5
1A904
330
747D
100
AcDbEntity
  8
部品1
100
AcDbLine
 10
8259.509523854941
 20
8649.725026914488
 30
0.0
 11
8231.50952385494
 21
8649.725026914488
 31
0.0
  0
LINE
  5
1A905
330
747D
100
AcDbEntity
  8
部品1
100
AcDbLine
 10
11253.50952385496
 20
8649.725026914614
 30
0.0
 11
11281.50952385497
 21
8649.725026914614
 31
0.0
  0
LINE
  5
1AB45
330
747D
100
AcDbEntity
  8
寸法
 48
50.0
100
AcDbLine
 10
9141.712530136782
 20
7112.761778483336
 30
0.0
 11
9090.306522226677
 21
7112.761778483336
 31
0.0
  0
LINE
  5
1AB46
330
747D
100
AcDbEntity
  8
寸法
 48
50.0
100
AcDbLine
 10
9090.306522226677
 20
7112.761778483336
 30
0.0
 11
9090.306522226677
 21
7144.071937135503
 31
0.0
  0
LINE
  5
1AB47
330
747D
100
AcDbEntity
  8
寸法
 48
50.0
100
AcDbLine
 10
9090.306522226677
 20
7144.071937135503
 30
0.0
 11
9060.545190235254
 21
7144.071937135503
 31
0.0
  0
LINE
  5
1AB48
330
747D
100
AcDbEntity
  8
寸法
 48
50.0
100
AcDbLine
 10
9060.545190235254
 20
7144.071937135503
 30
0.0
 11
9116.009526181731
 21
7181.651388064112
 31
0.0
  0
LINE
  5
1AB49
330
747D
100
AcDbEntity
  8
寸法
 48
50.0
100
AcDbLine
 10
9171.473862128205
 20
7144.071937135503
 30
0.0
 11
9116.009526181731
 21
7181.651388064112
 31
0.0
  0
LINE
  5
1AB4A
330
747D
100
AcDbEntity
  8
寸法
 48
50.0
100
AcDbLine
 10
9141.712530136782
 20
7144.071937135503
 30
0.0
 11
9171.473862128205
 21
7144.071937135503
 31
0.0
  0
LINE
  5
1AB4B
330
747D
100
AcDbEntity
  8
寸法
 48
50.0
100
AcDbLine
 10
9141.712530136782
 20
7112.761778483336
 30
0.0
 11
9141.712530136782
 21
7144.071937135503
 31
0.0
  0
LINE
  5
1AB4C
330
747D
100
AcDbEntity
  8
寸法
 48
50.0
100
AcDbLine
 10
9090.306522226677
 20
7112.761778483336
 30
0.0
 11
9141.712530136782
 21
7112.761778483336
 31
0.0
  0
LINE
  5
1AB4D
330
747D
100
AcDbEntity
  8
寸法
 48
50.0
100
AcDbLine
 10
9420.878064413638
 20
7169.907369238159
 30
0.0
 11
9420.878064413638
 21
7116.243734656369
 31
0.0
  0
LINE
  5
1AB4E
330
747D
100
AcDbEntity
  8
寸法
 48
50.0
100
AcDbLine
 10
9510.16228300906
 20
7145.983734968673
 30
0.0
 11
9420.878064413638
 21
7169.907369238159
 31
0.0
  0
LINE
  5
1AB4F
330
747D
100
AcDbEntity
  8
寸法
 48
50.0
100
AcDbLine
 10
9291.010342833336
 20
7145.983734968673
 30
0.0
 11
9510.16228300906
 21
7145.983734968673
 31
0.0
  0
LINE
  5
1AB50
330
747D
100
AcDbEntity
  8
細線
 48
50.0
100
AcDbLine
 10
10167.50952385494
 20
7311.225141863198
 30
0.0
 11
10794.50952385493
 21
7311.225141863198
 31
0.0
  0
LINE
  5
1AB51
330
747D
100
AcDbEntity
  8
細線
 48
50.0
100
AcDbLine
 10
9513.509528508526
 20
7277.516373309123
 30
0.0
 11
10794.50952385493
 21
7277.516373309123
 31
0.0
  0
LINE
  5
1AB52
330
747D
100
AcDbEntity
  8
細線
 48
50.0
100
AcDbLine
 10
9472.509528508529
 20
7306.921281305377
 30
0.0
 11
8718.509523854937
 21
7306.921281305372
 31
0.0
  0
LINE
  5
1AB53
330
747D
100
AcDbEntity
  8
細線
100
AcDbLine
 10
10570.25951443848
 20
7330.725041828208
 30
0.0
 11
10572.59105396029
 21
7335.725044468168
 31
0.0
  0
LINE
  5
1AB54
330
747D
100
AcDbEntity
  8
細線
100
AcDbLine
 10
10640.25952385494
 20
7330.725026914473
 30
0.0
 11
10637.92797737875
 21
7335.725044468154
 31
0.0
  0
LINE
  5
1AB55
330
747D
100
AcDbEntity
  8
細線
100
AcDbLine
 10
10637.92797737875
 20
7335.725044468154
 30
0.0
 11
10572.59105396027
 21
7335.72504446814
 31
0.0
  0
LINE
  5
1AB56
330
747D
100
AcDbEntity
  8
細線
100
AcDbLine
 10
10497.92797737875
 20
7335.725044468154
 30
0.0
 11
10432.59105396027
 21
7335.72504446814
 31
0.0
  0
LINE
  5
1AB57
330
747D
100
AcDbEntity
  8
細線
100
AcDbLine
 10
10500.25952385494
 20
7330.725026914473
 30
0.0
 11
10497.92797737875
 21
7335.725044468154
 31
0.0
  0
LINE
  5
1AB58
330
747D
100
AcDbEntity
  8
細線
100
AcDbLine
 10
10430.25951443848
 20
7330.725041828208
 30
0.0
 11
10432.59105396029
 21
7335.725044468168
 31
0.0
  0
LINE
  5
1AB59
330
747D
100
AcDbEntity
  8
細線
100
AcDbLine
 10
10290.25952385493
 20
7330.725026914473
 30
0.0
 11
10292.59106337675
 21
7335.725029554435
 31
0.0
  0
LINE
  5
1AB5A
330
747D
100
AcDbEntity
  8
細線
100
AcDbLine
 10
10360.2595332714
 20
7330.72501200074
 30
0.0
 11
10357.92798679521
 21
7335.725029554421
 31
0.0
  0
LINE
  5
1AB5B
330
747D
100
AcDbEntity
  8
細線
100
AcDbLine
 10
10357.92798679521
 20
7335.725029554421
 30
0.0
 11
10292.59106337673
 21
7335.725029554406
 31
0.0
  0
LINE
  5
1AB5C
330
747D
100
AcDbEntity
  8
細線
100
AcDbLine
 10
10062.67800804404
 20
7301.725066251802
 30
0.0
 11
9997.341084625569
 21
7301.725066251787
 31
0.0
  0
LINE
  5
1AB5D
330
747D
100
AcDbEntity
  8
細線
100
AcDbLine
 10
10065.00955452023
 20
7296.725048698121
 30
0.0
 11
10062.67800804404
 21
7301.725066251802
 31
0.0
  0
LINE
  5
1AB5E
330
747D
100
AcDbEntity
  8
細線
100
AcDbLine
 10
9995.009545103775
 20
7296.725063611855
 30
0.0
 11
9997.341084625583
 21
7301.725066251816
 31
0.0
  0
LINE
  5
1AB5F
330
747D
100
AcDbEntity
  8
細線
 48
50.0
100
AcDbLine
 10
9836.392903102952
 20
7314.995890067554
 30
0.0
 11
9842.148420685619
 21
7296.725038777068
 31
0.0
  0
LINE
  5
1AB60
330
747D
100
AcDbEntity
  8
細線
 48
50.0
100
AcDbLine
 10
9825.464454622521
 20
7314.995890067554
 30
0.0
 11
9836.392903102952
 21
7314.995890067554
 31
0.0
  0
ARC
  5
1AB61
330
747D
100
AcDbEntity
  8
細線
 48
50.0
100
AcDbCircle
 10
9820.010098565198
 20
7316.495890067554
 30
0.0
 40
5.0
100
AcDbArc
 50
204.6243183521304
 51
335.3756816478695
  0
ARC
  5
1AB62
330
747D
100
AcDbEntity
  8
細線
 48
50.0
100
AcDbCircle
 10
9825.464454622521
 20
7313.995890067554
 30
0.0
 40
1.0
100
AcDbArc
 50
90.0
 51
155.3756816478695
  0
ARC
  5
1AB63
330
747D
100
AcDbEntity
  8
細線
 48
50.0
100
AcDbCircle
 10
9814.555742507884
 20
7313.995890067554
 30
0.0
 40
1.0
100
AcDbArc
 50
24.62431835213048
 51
90.0
  0
LINE
  5
1AB64
330
747D
100
AcDbEntity
  8
細線
 48
50.0
100
AcDbLine
 10
9803.62729402745
 20
7314.995890067554
 30
0.0
 11
9814.555742507884
 21
7314.995890067554
 31
0.0
  0
LINE
  5
1AB65
330
747D
100
AcDbEntity
  8
細線
 48
50.0
100
AcDbLine
 10
9797.871776444784
 20
7296.725038777061
 30
0.0
 11
9803.62729402745
 21
7314.995890067554
 31
0.0
  0
LINE
  5
1AB66
330
747D
100
AcDbEntity
  8
細線
100
AcDbLine
 10
9855.009546334816
 20
7296.725036142864
 30
0.0
 11
9857.341085856628
 21
7301.725038782826
 31
0.0
  0
LINE
  5
1AB67
330
747D
100
AcDbEntity
  8
細線
100
AcDbLine
 10
9925.009555751277
 20
7296.72502122913
 30
0.0
 11
9922.678009275086
 21
7301.725038782811
 31
0.0
  0
LINE
  5
1AB68
330
747D
100
AcDbEntity
  8
細線
100
AcDbLine
 10
9922.678009275086
 20
7301.725038782811
 30
0.0
 11
9857.341085856614
 21
7301.725038782795
 31
0.0
  0
LINE
  5
1AB69
330
747D
100
AcDbEntity
  8
細線
100
AcDbLine
 10
9782.67798091057
 20
7301.725038777032
 30
0.0
 11
9717.341057492092
 21
7301.725038777016
 31
0.0
  0
LINE
  5
1AB6A
330
747D
100
AcDbEntity
  8
細線
100
AcDbLine
 10
9785.009527386755
 20
7296.725021223351
 30
0.0
 11
9782.67798091057
 21
7301.725038777032
 31
0.0
  0
LINE
  5
1AB6B
330
747D
100
AcDbEntity
  8
細線
100
AcDbLine
 10
9715.009519201339
 20
7296.725038777061
 30
0.0
 11
9717.341057492108
 21
7301.725038777046
 31
0.0
  0
LINE
  5
1AB6C
330
747D
100
AcDbEntity
  8
細線
100
AcDbLine
 10
9575.009554520232
 20
7296.72504696443
 30
0.0
 11
9577.341092811
 21
7301.725046964415
 31
0.0
  0
LINE
  5
1AB6D
330
747D
100
AcDbEntity
  8
細線
100
AcDbLine
 10
9645.009562705647
 20
7296.72502941072
 30
0.0
 11
9642.67801622946
 21
7301.725046964397
 31
0.0
  0
LINE
  5
1AB6E
330
747D
100
AcDbEntity
  8
細線
100
AcDbLine
 10
9642.67801622946
 20
7301.725046964397
 30
0.0
 11
9577.341092810984
 21
7301.725046964385
 31
0.0
  0
LINE
  5
1AB6F
330
747D
100
AcDbEntity
  8
細線
100
AcDbLine
 10
9203.509520323111
 20
7262.725218645143
 30
0.0
 11
9205.841058613877
 21
7267.725218645129
 31
0.0
  0
LINE
  5
1AB70
330
747D
100
AcDbEntity
  8
細線
100
AcDbLine
 10
9273.509528508526
 20
7262.725201091429
 30
0.0
 11
9271.177982032339
 21
7267.725218645106
 31
0.0
  0
LINE
  5
1AB71
330
747D
100
AcDbEntity
  8
細線
100
AcDbLine
 10
9271.177982032339
 20
7267.725218645106
 30
0.0
 11
9205.841058613868
 21
7267.725218645098
 31
0.0
  0
LINE
  5
1AB72
330
747D
100
AcDbEntity
  8
細線
100
AcDbLine
 10
9411.17798203234
 20
7267.725218645106
 30
0.0
 11
9345.841058613867
 21
7267.725218645098
 31
0.0
  0
LINE
  5
1AB73
330
747D
100
AcDbEntity
  8
細線
100
AcDbLine
 10
9413.509528508527
 20
7262.725201091429
 30
0.0
 11
9411.17798203234
 21
7267.725218645106
 31
0.0
  0
LINE
  5
1AB74
330
747D
100
AcDbEntity
  8
細線
100
AcDbLine
 10
9343.509520323109
 20
7262.725218645143
 30
0.0
 11
9345.841058613878
 21
7267.725218645129
 31
0.0
  0
LINE
  5
1AB75
330
747D
100
AcDbEntity
  8
細線
100
AcDbLine
 10
9131.177982032339
 20
7267.725218645106
 30
0.0
 11
9065.841058613868
 21
7267.725218645096
 31
0.0
  0
LINE
  5
1AB76
330
747D
100
AcDbEntity
  8
細線
100
AcDbLine
 10
9133.509528508525
 20
7262.725201091429
 30
0.0
 11
9131.177982032339
 21
7267.725218645106
 31
0.0
  0
LINE
  5
1AB77
330
747D
100
AcDbEntity
  8
細線
100
AcDbLine
 10
9063.50952032311
 20
7262.725218645138
 30
0.0
 11
9065.841058613878
 21
7267.725218645124
 31
0.0
  0
LINE
  5
1AB78
330
747D
100
AcDbEntity
  8
細線
100
AcDbLine
 10
8923.509528508526
 20
7262.725218645143
 30
0.0
 11
8925.841066799295
 21
7267.725218645129
 31
0.0
  0
LINE
  5
1AB79
330
747D
100
AcDbEntity
  8
細線
100
AcDbLine
 10
8993.509536693942
 20
7262.725201091429
 30
0.0
 11
8991.177990217755
 21
7267.725218645106
 31
0.0
  0
LINE
  5
1AB7A
330
747D
100
AcDbEntity
  8
細線
100
AcDbLine
 10
8991.177990217755
 20
7267.725218645106
 30
0.0
 11
8925.841066799284
 21
7267.725218645098
 31
0.0
  0
ARC
  5
1AB7B
330
747D
100
AcDbEntity
  8
部品1
 48
0.01
100
AcDbCircle
 10
8879.00941725619
 20
7261.72409646007
 30
0.0
 40
0.5
100
AcDbArc
 50
270.0
 51
0.0
  0
LINE
  5
1AB7C
330
747D
100
AcDbEntity
  8
部品1
 48
0.01
100
AcDbLine
 10
8879.509417256192
 20
7262.72409646007
 30
0.0
 11
8879.509417256192
 21
7261.72409646007
 31
0.0
  0
LINE
  5
1AB7D
330
747D
100
AcDbEntity
  8
部品1
 48
0.01
100
AcDbLine
 10
8879.509417256192
 20
7262.72409646007
 30
0.0
 11
8879.509417256192
 21
7261.72409646007
 31
0.0
  0
LINE
  5
1AB7E
330
747D
100
AcDbEntity
  8
部品1
 48
0.01
100
AcDbLine
 10
8879.00941725619
 20
7261.22409646007
 30
0.0
 11
8872.396911826127
 21
7261.22409646007
 31
0.0
  0
ARC
  5
1AB7F
330
747D
100
AcDbEntity
  8
部品1
100
AcDbCircle
 10
8872.465261378907
 20
7262.224096460069
 30
0.0
 40
1.0
100
AcDbArc
 50
160.5287793655778
 51
270.0
  0
ARC
  5
1AB80
330
747D
100
AcDbEntity
  8
部品1
100
AcDbCircle
 10
8847.009417256192
 20
7271.22409646007
 30
0.0
 40
26.0
100
AcDbArc
 50
340.5287793655779
 51
0.0
  0
LINE
  5
1AB81
330
747D
100
AcDbEntity
  8
部品1
100
AcDbLine
 10
8873.009417256191
 20
7271.22409646007
 30
0.0
 11
8873.009417256191
 21
7276.224096460069
 31
0.0
  0
ARC
  5
1AB82
330
747D
100
AcDbEntity
  8
部品1
 48
0.01
100
AcDbCircle
 10
8871.009417256191
 20
7276.224096460069
 30
0.0
 40
2.0
100
AcDbArc
 50
0.0
 51
90.0
  0
ARC
  5
1AB83
330
747D
100
AcDbEntity
  8
部品1
100
AcDbCircle
 10
8869.401025631381
 20
7275.22409646007
 30
0.0
 40
3.0
100
AcDbArc
 50
90.0
 51
141.6069559807873
  0
LINE
  5
1AB84
330
747D
100
AcDbEntity
  8
部品1
 48
0.01
100
AcDbLine
 10
8871.009417256191
 20
7278.22409646007
 30
0.0
 11
8869.401025631381
 21
7278.22409646007
 31
0.0
  0
ARC
  5
1AB85
330
747D
100
AcDbEntity
  8
部品1
100
AcDbCircle
 10
8850.93870304192
 20
7274.524096460073
 30
0.0
 40
3.0
100
AcDbArc
 50
254.0576313943215
 51
270.0
  0
ARC
  5
1AB86
330
747D
100
AcDbEntity
  8
部品1
100
AcDbCircle
 10
8858.080131470464
 20
7274.524096460073
 30
0.0
 40
3.0
100
AcDbArc
 50
270.0
 51
285.9423686056786
  0
LINE
  5
1AB87
330
747D
100
AcDbEntity
  8
部品1
100
AcDbLine
 10
8858.080131470464
 20
7271.524096460073
 30
0.0
 11
8850.93870304192
 21
7271.524096460073
 31
0.0
  0
ARC
  5
1AB88
330
747D
100
AcDbEntity
  8
部品1
100
AcDbCircle
 10
8854.509417256192
 20
7287.024096460072
 30
0.0
 40
16.0
100
AcDbArc
 50
285.9423686056786
 51
321.6069559807873
  0
LINE
  5
1AB89
330
747D
100
AcDbEntity
  8
部品1
 48
0.01
100
AcDbLine
 10
8838.009417256191
 20
7278.22409646007
 30
0.0
 11
8839.617808881001
 21
7278.22409646007
 31
0.0
  0
ARC
  5
1AB8A
330
747D
100
AcDbEntity
  8
部品1
100
AcDbCircle
 10
8839.617808881001
 20
7275.22409646007
 30
0.0
 40
3.0
100
AcDbArc
 50
38.39304401921267
 51
90.0
  0
ARC
  5
1AB8B
330
747D
100
AcDbEntity
  8
部品1
100
AcDbCircle
 10
8854.509417256192
 20
7287.024096460072
 30
0.0
 40
16.0
100
AcDbArc
 50
218.3930440192126
 51
254.0576313943215
  0
LINE
  5
1AB8C
330
747D
100
AcDbEntity
  8
部品1
100
AcDbLine
 10
8836.009417256191
 20
7271.22409646007
 30
0.0
 11
8836.009417256191
 21
7276.224096460069
 31
0.0
  0
ARC
  5
1AB8D
330
747D
100
AcDbEntity
  8
部品1
 48
0.01
100
AcDbCircle
 10
8838.009417256191
 20
7276.224096460069
 30
0.0
 40
2.0
100
AcDbArc
 50
90.0
 51
180.0
  0
ARC
  5
1AB8E
330
747D
100
AcDbEntity
  8
部品1
100
AcDbCircle
 10
8862.009417256192
 20
7271.22409646007
 30
0.0
 40
26.0
100
AcDbArc
 50
180.0
 51
199.4712206344221
  0
ARC
  5
1AB8F
330
747D
100
AcDbEntity
  8
部品1
 48
0.01
100
AcDbCircle
 10
8830.00941725619
 20
7261.72409646007
 30
0.0
 40
0.5
100
AcDbArc
 50
180.0
 51
270.0
  0
LINE
  5
1AB90
330
747D
100
AcDbEntity
  8
部品1
 48
0.01
100
AcDbLine
 10
8830.00941725619
 20
7261.22409646007
 30
0.0
 11
8836.553573133475
 21
7261.22409646007
 31
0.0
  0
LINE
  5
1AB91
330
747D
100
AcDbEntity
  8
部品1
 48
0.01
100
AcDbLine
 10
8829.509417256192
 20
7262.72409646007
 30
0.0
 11
8829.509417256192
 21
7261.72409646007
 31
0.0
  0
ARC
  5
1AB92
330
747D
100
AcDbEntity
  8
部品1
100
AcDbCircle
 10
8836.553573133475
 20
7262.224096460069
 30
0.0
 40
1.0
100
AcDbArc
 50
270.0
 51
19.47122063442214
  0
LINE
  5
1AB93
330
747D
100
AcDbEntity
  8
細線
100
AcDbLine
 10
8875.009417256199
 20
7280.724096460073
 30
0.0
 11
8834.009417256199
 21
7280.724096460066
 31
0.0
  0
LINE
  5
1AB94
330
747D
100
AcDbEntity
  8
細線
100
AcDbLine
 10
8834.009417256199
 20
7280.724096460066
 30
0.0
 11
8834.009417256199
 21
7262.724096460047
 31
0.0
  0
LINE
  5
1AB95
330
747D
100
AcDbEntity
  8
細線
100
AcDbLine
 10
8875.009417256199
 20
7280.724096460073
 30
0.0
 11
8875.009417256199
 21
7262.724096460047
 31
0.0
  0
LINE
  5
1AB96
330
747D
100
AcDbEntity
  8
細線
100
AcDbLine
 10
8718.509523854937
 20
7266.725026914473
 30
0.0
 11
8718.509523854937
 21
7262.72502691452
 31
0.0
  0
DIMENSION
  5
1AB97
330
747D
100
AcDbEntity
  8
寸法
 48
50.0
100
AcDbDimension
  2
*D31
 10
9984.509523854937
 20
6616.591398968456
 30
0.0
 11
9370.782742403667
 21
6616.591398968456
 31
0.0
 70
   160
  1
有効開口部間口\P<>
 71
     5
 42
1266.0
  3
INABA_S40
100
AcDbAlignedDimension
 13
8718.509523854937
 23
7257.725026914474
 33
0.0
 14
9984.509523854937
 24
7257.725026914474
 34
0.0
100
AcDbRotatedDimension
1001
ACAD
1000
DSTYLE
1002
{
1070
    41
1040
0.5
1070
    44
1040
1.0
1070
   147
1040
0.8
1070
   271
1070
     2
1070
   272
1070
     2
1070
   289
1070
     3
1070
   340
1005
F706
1070
   343
1005
1982A
1070
   344
1005
1982A
1002
}
  0
LINE
  5
1AB98
330
747D
100
AcDbEntity
  8
部品1
100
AcDbLine
 10
10806.50952385493
 20
7334.725026914473
 30
0.0
 11
10833.50952385493
 21
7334.725026914473
 31
0.0
  0
LINE
  5
1AB9A
330
747D
100
AcDbEntity
  8
部品1
100
AcDbLine
 10
10833.50952385493
 20
7257.725026914474
 30
0.0
 11
10833.50952385493
 21
7334.725026914473
 31
0.0
  0
LINE
  5
1AB9B
330
747D
100
AcDbEntity
  8
部品1
100
AcDbLine
 10
10794.50952385493
 20
7330.725026914473
 30
0.0
 11
10806.50952385493
 21
7330.725026914473
 31
0.0
  0
LINE
  5
1AB9C
330
747D
100
AcDbEntity
  8
部品1
100
AcDbLine
 10
10803.50952385493
 20
7266.725026914473
 30
0.0
 11
10803.50952385493
 21
7257.725026914474
 31
0.0
  0
LINE
  5
1AB9D
330
747D
100
AcDbEntity
  8
部品1
100
AcDbLine
 10
10794.50952385493
 20
7266.725026914473
 30
0.0
 11
10803.50952385493
 21
7266.725026914473
 31
0.0
  0
LINE
  5
1AB9E
330
747D
100
AcDbEntity
  8
部品1
100
AcDbLine
 10
10794.50952385493
 20
7330.725026914473
 30
0.0
 11
10794.50952385493
 21
7266.725026914473
 31
0.0
  0
LINE
  5
1AB9F
330
747D
100
AcDbEntity
  8
部品1
100
AcDbLine
 10
10806.50952385493
 20
7361.725026914474
 30
0.0
 11
10806.50952385493
 21
7330.725026914473
 31
0.0
  0
LINE
  5
1ABA0
330
747D
100
AcDbEntity
  8
部品1
100
AcDbLine
 10
8718.509523854937
 20
7330.725026914473
 30
0.0
 11
8706.509523854936
 21
7330.725026914473
 31
0.0
  0
LINE
  5
1ABA1
330
747D
100
AcDbEntity
  8
部品1
100
AcDbLine
 10
8679.509523854937
 20
7334.725026914473
 30
0.0
 11
8706.509523854936
 21
7334.725026914473
 31
0.0
  0
LINE
  5
1ABA2
330
747D
100
AcDbEntity
  8
部品1
100
AcDbLine
 10
8709.509523854936
 20
7266.725026914473
 30
0.0
 11
8709.509523854936
 21
7257.725026914474
 31
0.0
  0
LINE
  5
1ABA3
330
747D
100
AcDbEntity
  8
部品1
100
AcDbLine
 10
8718.509523854937
 20
7266.725026914473
 30
0.0
 11
8709.509523854936
 21
7266.725026914473
 31
0.0
  0
LINE
  5
1ABA4
330
747D
100
AcDbEntity
  8
部品1
100
AcDbLine
 10
8709.509523854936
 20
7257.725026914474
 30
0.0
 11
8679.509523854937
 21
7257.725026914474
 31
0.0
  0
LINE
  5
1ABA5
330
747D
100
AcDbEntity
  8
部品1
100
AcDbLine
 10
8679.509523854937
 20
7257.725026914474
 30
0.0
 11
8679.509523854937
 21
7334.725026914473
 31
0.0
  0
LINE
  5
1ABA6
330
747D
100
AcDbEntity
  8
部品1
100
AcDbLine
 10
8718.509523854937
 20
7330.725026914473
 30
0.0
 11
8718.509523854937
 21
7266.725026914473
 31
0.0
  0
LINE
  5
1ABA7
330
747D
100
AcDbEntity
  8
部品1
100
AcDbLine
 10
8706.509523854936
 20
7361.72502691447
 30
0.0
 11
8706.509523854936
 21
7330.725026914473
 31
0.0
  0
LINE
  5
1ABA8
330
747D
100
AcDbEntity
  8
部品1
100
AcDbLine
 10
8706.509523854936
 20
7361.72502691447
 30
0.0
 11
10806.50952385493
 21
7361.725026914474
 31
0.0
  0
LINE
  5
1ABA9
330
747D
100
AcDbEntity
  8
部品1
100
AcDbLine
 10
10803.50952385493
 20
7257.725026914474
 30
0.0
 11
10833.50952385493
 21
7257.725026914474
 31
0.0
  0
LINE
  5
1ABAA
330
747D
100
AcDbEntity
  8
部品1
100
AcDbLine
 10
8709.509523854936
 20
7257.725026914474
 30
0.0
 11
10806.50952385493
 21
7257.725026914474
 31
0.0
  0
LINE
  5
1ABAB
330
747D
100
AcDbEntity
  8
細線
  6
Continuous
 62
     5
100
AcDbLine
 10
10085.50952385494
 20
7296.72502691447
 30
0.0
 11
10085.50952385494
 21
7296.72502691447
 31
0.0
  0
LINE
  5
1ABAC
330
747D
100
AcDbEntity
  8
細線
  6
Continuous
 62
     5
100
AcDbLine
 10
10078.00955917383
 20
7296.725036835526
 30
0.0
 11
10078.00955917383
 21
7296.725036835526
 31
0.0
  0
LINE
  5
1ABAD
330
747D
100
AcDbEntity
  8
細線
  6
Continuous
 62
     5
100
AcDbLine
 10
10072.00955917383
 20
7296.725036835526
 30
0.0
 11
10072.00955917383
 21
7296.725036835526
 31
0.0
  0
LINE
  5
1ABAE
330
747D
100
AcDbEntity
  8
細線
  6
Continuous
 62
     5
100
AcDbLine
 10
10139.50952385494
 20
7315.72502691447
 30
0.0
 11
10139.50952385494
 21
7315.72502691447
 31
0.0
  0
LINE
  5
1ABAF
330
747D
100
AcDbEntity
  8
細線
 48
50.0
100
AcDbLine
 10
8732.509528508529
 20
7283.325201091428
 30
0.0
 11
8732.509528508529
 21
7291.721351499067
 31
0.0
  0
LINE
  5
1ABB0
330
747D
100
AcDbEntity
  8
細線
 48
50.0
100
AcDbLine
 10
8732.509528508529
 20
7291.721351499067
 30
0.0
 11
8718.509523854937
 21
7291.721351499063
 31
0.0
  0
LINE
  5
1ABB1
330
747D
100
AcDbEntity
  8
細線
 48
50.0
100
AcDbLine
 10
9483.509528508525
 20
7279.875201091427
 30
0.0
 11
9483.509528508525
 21
7284.725201091429
 31
0.0
  0
LINE
  5
1ABB2
330
747D
100
AcDbEntity
  8
細線
 48
50.0
100
AcDbLine
 10
9483.509528508525
 20
7284.725201091429
 30
0.0
 11
9498.509528508526
 21
7284.725201091429
 31
0.0
  0
LINE
  5
1ABB3
330
747D
100
AcDbEntity
  8
細線
 48
50.0
100
AcDbLine
 10
9498.509528508526
 20
7284.725201091429
 30
0.0
 11
9498.509528508531
 21
7291.72520109143
 31
0.0
  0
LINE
  5
1ABB4
330
747D
100
AcDbEntity
  8
細線
 48
50.0
100
AcDbLine
 10
9498.509528508531
 20
7291.72520109143
 30
0.0
 11
9513.509528508526
 21
7291.72520109143
 31
0.0
  0
LINE
  5
1ABB5
330
747D
100
AcDbEntity
  8
細線
 48
50.0
100
AcDbLine
 10
9513.509528508526
 20
7291.72520109143
 30
0.0
 11
9513.509528508526
 21
7262.725201091429
 31
0.0
  0
LINE
  5
1ABB6
330
747D
100
AcDbEntity
  8
細線
 48
50.0
100
AcDbLine
 10
8709.509523854936
 20
7262.722535434898
 30
0.0
 11
8923.509528508526
 21
7262.725218645143
 31
0.0
  0
LINE
  5
1ABB7
330
747D
100
AcDbEntity
  8
細線
 48
50.0
100
AcDbLine
 10
9413.509528508527
 20
7262.725201091429
 30
0.0
 11
9513.509528508526
 21
7262.725201091429
 31
0.0
  0
LINE
  5
1ABB8
330
747D
100
AcDbEntity
  8
細線
 48
50.0
100
AcDbLine
 10
9133.509528508525
 20
7262.725201091429
 30
0.0
 11
9203.509528508526
 21
7262.725201091429
 31
0.0
  0
LINE
  5
1ABB9
330
747D
100
AcDbEntity
  8
細線
 48
50.0
100
AcDbLine
 10
9146.371493521057
 20
7262.725201091429
 30
0.0
 11
9152.127011103722
 21
7280.996052381922
 31
0.0
  0
LINE
  5
1ABBA
330
747D
100
AcDbEntity
  8
細線
 48
50.0
100
AcDbLine
 10
9152.127011103722
 20
7280.996052381922
 30
0.0
 11
9163.055459584157
 21
7280.996052381919
 31
0.0
  0
ARC
  5
1ABBB
330
747D
100
AcDbEntity
  8
細線
 48
50.0
100
AcDbCircle
 10
9163.055459584157
 20
7279.996052381919
 30
0.0
 40
1.0
100
AcDbArc
 50
24.62431835213048
 51
90.0
  0
ARC
  5
1ABBC
330
747D
100
AcDbEntity
  8
細線
 48
50.0
100
AcDbCircle
 10
9173.96417169879
 20
7279.996052381919
 30
0.0
 40
1.0
100
AcDbArc
 50
90.0
 51
155.3756816478695
  0
ARC
  5
1ABBD
330
747D
100
AcDbEntity
  8
細線
 48
50.0
100
AcDbCircle
 10
9168.509815641471
 20
7282.496052381919
 30
0.0
 40
5.0
100
AcDbArc
 50
204.6243183521304
 51
335.3756816478695
  0
LINE
  5
1ABBE
330
747D
100
AcDbEntity
  8
細線
 48
50.0
100
AcDbLine
 10
9173.96417169879
 20
7280.996052381919
 30
0.0
 11
9184.892620179224
 21
7280.996052381922
 31
0.0
  0
LINE
  5
1ABBF
330
747D
100
AcDbEntity
  8
細線
 48
50.0
100
AcDbLine
 10
9184.892620179224
 20
7280.996052381922
 30
0.0
 11
9190.648137761892
 21
7262.725201091429
 31
0.0
  0
LINE
  5
1ABC0
330
747D
100
AcDbEntity
  8
細線
 48
50.0
100
AcDbLine
 10
9483.509528508525
 20
7283.325201091428
 30
0.0
 11
8732.509528508529
 21
7283.325201091428
 31
0.0
  0
LINE
  5
1ABC1
330
747D
100
AcDbEntity
  8
細線
 48
50.0
100
AcDbLine
 10
9343.509528508526
 20
7262.725201091429
 30
0.0
 11
9273.509528508526
 21
7262.725201091429
 31
0.0
  0
LINE
  5
1ABC2
330
747D
100
AcDbEntity
  8
細線
100
AcDbLine
 10
9063.509528508527
 20
7262.725201091429
 30
0.0
 11
8993.509536693942
 21
7262.725201091429
 31
0.0
  0
LINE
  5
1ABC3
330
747D
100
AcDbEntity
  8
細線
 48
50.0
100
AcDbLine
 10
10137.50951920135
 20
7317.325244949296
 30
0.0
 11
9502.509528508527
 21
7317.325244949292
 31
0.0
  0
LINE
  5
1ABC4
330
747D
100
AcDbEntity
  8
細線
 48
50.0
100
AcDbLine
 10
9502.509528508527
 20
7314.221395356935
 30
0.0
 11
9502.509528508527
 21
7318.721395356935
 31
0.0
  0
LINE
  5
1ABC5
330
747D
100
AcDbEntity
  8
細線
 48
50.0
100
AcDbLine
 10
9502.509528508527
 20
7318.721395356935
 30
0.0
 11
9487.509528508526
 21
7318.721395356935
 31
0.0
  0
LINE
  5
1ABC6
330
747D
100
AcDbEntity
  8
細線
 48
50.0
100
AcDbLine
 10
9487.509528508526
 20
7318.721395356935
 30
0.0
 11
9487.509528508526
 21
7325.721395356935
 31
0.0
  0
LINE
  5
1ABC7
330
747D
100
AcDbEntity
  8
細線
 48
50.0
100
AcDbLine
 10
9487.509528508526
 20
7325.721395356935
 30
0.0
 11
9472.509528508529
 21
7325.721395356932
 31
0.0
  0
LINE
  5
1ABC8
330
747D
100
AcDbEntity
  8
細線
 48
50.0
100
AcDbLine
 10
9472.509528508529
 20
7325.721395356932
 30
0.0
 11
9472.509528508529
 21
7288.121167253821
 31
0.0
  0
LINE
  5
1ABC9
330
747D
100
AcDbEntity
  8
細線
 48
50.0
100
AcDbLine
 10
9472.509528508529
 20
7288.121167253821
 30
0.0
 11
9492.509535809702
 21
7288.121208803362
 31
0.0
  0
LINE
  5
1ABCA
330
747D
100
AcDbEntity
  8
細線
 48
50.0
100
AcDbLine
 10
9492.50949094076
 20
7296.724670439171
 30
0.0
 11
9492.509535809702
 21
7288.121208803362
 31
0.0
  0
LINE
  5
1ABCB
330
747D
100
AcDbEntity
  8
細線
 48
50.0
100
AcDbLine
 10
10137.50951920135
 20
7313.875244949295
 30
0.0
 11
10137.50951920135
 21
7318.725244949293
 31
0.0
  0
LINE
  5
1ABCC
330
747D
100
AcDbEntity
  8
細線
 48
50.0
100
AcDbLine
 10
10137.50951920135
 20
7318.725244949293
 30
0.0
 11
10152.50951920134
 21
7318.725244949293
 31
0.0
  0
LINE
  5
1ABCD
330
747D
100
AcDbEntity
  8
細線
 48
50.0
100
AcDbLine
 10
10152.50951920134
 20
7318.725244949293
 30
0.0
 11
10152.50953083532
 21
7325.725244949338
 31
0.0
  0
LINE
  5
1ABCE
330
747D
100
AcDbEntity
  8
細線
 48
50.0
100
AcDbLine
 10
10152.50953083532
 20
7325.725244949338
 30
0.0
 11
10167.50952900585
 21
7325.725244949338
 31
0.0
  0
LINE
  5
1ABCF
330
747D
100
AcDbEntity
  8
細線
 48
50.0
100
AcDbLine
 10
10167.50952900585
 20
7325.725244949338
 30
0.0
 11
10167.50951870403
 21
7296.725038777063
 31
0.0
  0
LINE
  5
1ABD0
330
747D
100
AcDbEntity
  8
細線
 48
50.0
100
AcDbLine
 10
9855.009546334816
 20
7296.72504696443
 30
0.0
 11
9785.009798417233
 21
7296.725041527093
 31
0.0
  0
LINE
  5
1ABD1
330
747D
100
AcDbEntity
  8
細線
 48
50.0
100
AcDbLine
 10
9492.50949094076
 20
7296.724670439171
 30
0.0
 11
9503.742180295471
 21
7296.724853392318
 31
0.0
  0
ARC
  5
1ABD2
330
747D
100
AcDbEntity
  8
細線
 48
50.0
100
AcDbCircle
 10
9510.324472602807
 20
7295.52501730593
 30
0.0
 40
1.8
100
AcDbArc
 50
270.0006665777295
 51
345.0005554812987
  0
LINE
  5
1ABD3
330
747D
100
AcDbEntity
  8
細線
 48
50.0
100
AcDbLine
 10
9512.310906048886
 20
7295.98385776321
 30
0.0
 11
9512.063143606686
 21
7295.059159881103
 31
0.0
  0
LINE
  5
1ABD4
330
747D
100
AcDbEntity
  8
細線
 48
50.0
100
AcDbLine
 10
9510.324493543961
 20
7293.725017306051
 30
0.0
 11
9506.694566125192
 21
7293.724975075571
 31
0.0
  0
ARC
  5
1ABD5
330
747D
100
AcDbEntity
  8
細線
 48
50.0
100
AcDbCircle
 10
9506.694545184039
 20
7295.52497507545
 30
0.0
 40
1.8
100
AcDbArc
 50
195.0010443049394
 51
270.0006665777295
  0
LINE
  5
1ABD6
330
747D
100
AcDbEntity
  8
細線
 48
50.0
100
AcDbLine
 10
9504.708117691782
 20
7295.983690043015
 30
0.0
 11
9504.955887188295
 21
7295.059069104432
 31
0.0
  0
ARC
  5
1ABD7
330
747D
100
AcDbEntity
  8
細線
 48
50.0
100
AcDbCircle
 10
9503.742196583033
 20
7295.724853392453
 30
0.0
 40
1.0
100
AcDbArc
 50
15.00104430493943
 51
90.00093320877969
  0
LINE
  5
1ABD8
330
747D
100
AcDbEntity
  8
細線
 48
50.0
100
AcDbLine
 10
9513.27682740399
 20
7296.725048082723
 30
0.0
 11
9514.218587554893
 21
7296.725054656572
 31
0.0
  0
ARC
  5
1ABD9
330
747D
100
AcDbEntity
  8
細線
 48
50.0
100
AcDbCircle
 10
9513.276834384376
 20
7295.725048082748
 30
0.0
 40
1.0
100
AcDbArc
 50
90.0003999466794
 51
165.0005554812987
  0
LINE
  5
1ABDA
330
747D
100
AcDbEntity
  8
細線
 48
50.0
100
AcDbLine
 10
10065.00951920134
 20
7296.725038777063
 30
0.0
 11
10167.50951870403
 21
7296.725038777063
 31
0.0
  0
LINE
  5
1ABDB
330
747D
100
AcDbEntity
  8
細線
 48
50.0
100
AcDbLine
 10
9575.009554520232
 20
7296.72504696443
 30
0.0
 11
9513.909493293311
 21
7296.725054656572
 31
0.0
  0
LINE
  5
1ABDC
330
747D
100
AcDbEntity
  8
細線
 48
50.0
100
AcDbLine
 10
9995.009554520231
 20
7296.725083805512
 30
0.0
 11
9925.009547565846
 21
7296.725038782844
 31
0.0
  0
LINE
  5
1ABDD
330
747D
100
AcDbEntity
  8
細線
 48
50.0
100
AcDbLine
 10
9715.009519201339
 20
7296.725038777061
 30
0.0
 11
9645.009501913465
 21
7296.725038777068
 31
0.0
  0
ARC
  5
1ABDE
330
747D
100
AcDbEntity
  8
細線
 48
50.0
100
AcDbCircle
 10
10151.70952385495
 20
7329.925026914473
 30
0.0
 40
0.8
100
AcDbArc
 50
359.9997333689499
 51
89.99986668437072
  0
ARC
  5
1ABDF
330
747D
100
AcDbEntity
  8
細線
 48
50.0
100
AcDbCircle
 10
10159.30953068004
 20
7329.925038083091
 30
0.0
 40
0.8
100
AcDbArc
 50
90.00014387753465
 51
179.9997333689498
  0
LINE
  5
1ABE0
330
747D
100
AcDbEntity
  8
細線
 48
50.0
100
AcDbLine
 10
10151.70952571638
 20
7330.725026914473
 30
0.0
 11
10146.50952385493
 21
7330.725026914473
 31
0.0
  0
ARC
  5
1ABE1
330
747D
100
AcDbEntity
  8
細線
 48
50.0
100
AcDbCircle
 10
10153.20952385494
 20
7328.425026914475
 30
0.0
 40
0.7
100
AcDbArc
 50
180.0
 51
270.0
  0
ARC
  5
1ABE2
330
747D
100
AcDbEntity
  8
細線
 48
50.0
100
AcDbCircle
 10
10157.80952385494
 20
7328.425026914475
 30
0.0
 40
0.7
100
AcDbArc
 50
270.0
 51
0.0
  0
LINE
  5
1ABE3
330
747D
100
AcDbEntity
  8
細線
 48
50.0
100
AcDbLine
 10
10158.50952385493
 20
7328.425026914475
 30
0.0
 11
10158.50953068005
 21
7329.925041805961
 31
0.0
  0
LINE
  5
1ABE4
330
747D
100
AcDbEntity
  8
細線
 48
50.0
100
AcDbLine
 10
10153.20952385494
 20
7327.725026914473
 30
0.0
 11
10157.80952385494
 21
7327.725026914473
 31
0.0
  0
LINE
  5
1ABE5
330
747D
100
AcDbEntity
  8
細線
 48
50.0
100
AcDbLine
 10
10152.50952385494
 20
7329.925026914473
 30
0.0
 11
10152.50952385494
 21
7328.425026914475
 31
0.0
  0
LINE
  5
1ABE6
330
747D
100
AcDbEntity
  8
細線
 48
50.0
100
AcDbLine
 10
10778.10952385494
 20
7360.725026914472
 30
0.0
 11
10141.50952385493
 21
7360.72502691447
 31
0.0
  0
LINE
  5
1ABE7
330
747D
100
AcDbEntity
  8
細線
 48
50.0
100
AcDbLine
 10
10804.00952385493
 20
7355.725026914477
 30
0.0
 11
10788.10952385494
 21
7355.725026914473
 31
0.0
  0
LINE
  5
1ABE8
330
747D
100
AcDbEntity
  8
細線
 48
50.0
100
AcDbLine
 10
10788.10952385494
 20
7355.725026914473
 30
0.0
 11
10778.10952385494
 21
7360.725026914472
 31
0.0
  0
LINE
  5
1ABE9
330
747D
100
AcDbEntity
  8
細線
100
AcDbLine
 10
10389.00952385493
 20
7330.725026914473
 30
0.0
 11
10389.00952385493
 21
7360.025026914472
 31
0.0
  0
LINE
  5
1ABEA
330
747D
100
AcDbEntity
  8
細線
100
AcDbLine
 10
10389.00952385493
 20
7360.025026914472
 30
0.0
 11
10409.00952385493
 21
7360.025026914472
 31
0.0
  0
LINE
  5
1ABEB
330
747D
100
AcDbEntity
  8
細線
100
AcDbLine
 10
10409.00952385493
 20
7330.725026914473
 30
0.0
 11
10409.00952385493
 21
7360.025026914472
 31
0.0
  0
LINE
  5
1ABEC
330
747D
100
AcDbEntity
  8
細線
100
AcDbLine
 10
10570.25952385493
 20
7330.725026914473
 30
0.0
 11
10500.25952385494
 21
7330.725026914473
 31
0.0
  0
LINE
  5
1ABED
330
747D
100
AcDbEntity
  8
細線
 48
50.0
100
AcDbLine
 10
10290.25952385493
 20
7330.725026914473
 30
0.0
 11
10159.30530342778
 21
7330.725026914473
 31
0.0
  0
LINE
  5
1ABEE
330
747D
100
AcDbEntity
  8
細線
100
AcDbLine
 10
10430.25952385493
 20
7330.725026914473
 30
0.0
 11
10360.25952385493
 21
7330.725026914473
 31
0.0
  0
LINE
  5
1ABEF
330
747D
100
AcDbEntity
  8
細線
 48
50.0
100
AcDbLine
 10
10146.50952385493
 20
7322.725026914473
 30
0.0
 11
10146.50952385493
 21
7330.725026914473
 31
0.0
  0
LINE
  5
1ABF0
330
747D
100
AcDbEntity
  8
細線
 48
50.0
100
AcDbLine
 10
10126.50952385493
 20
7322.725026914477
 30
0.0
 11
10146.50952385493
 21
7322.725026914473
 31
0.0
  0
LINE
  5
1ABF1
330
747D
100
AcDbEntity
  8
細線
 48
50.0
100
AcDbLine
 10
10141.50952385493
 20
7360.725026914472
 30
0.0
 11
10141.50952385493
 21
7355.725026914473
 31
0.0
  0
LINE
  5
1ABF2
330
747D
100
AcDbEntity
  8
細線
 48
50.0
100
AcDbLine
 10
10126.50952385493
 20
7360.72502691447
 30
0.0
 11
10141.50952385493
 21
7360.725026914472
 31
0.0
  0
LINE
  5
1ABF3
330
747D
100
AcDbEntity
  8
細線
 48
50.0
100
AcDbLine
 10
10126.50952385493
 20
7322.725026914477
 30
0.0
 11
10126.50952385493
 21
7360.72502691447
 31
0.0
  0
LINE
  5
1ABF4
330
747D
100
AcDbEntity
  8
細線
100
AcDbLine
 10
10794.50952385493
 20
7330.725026914473
 30
0.0
 11
10640.25952385494
 21
7330.725026914473
 31
0.0
  0
LINE
  5
1ABF5
330
747D
100
AcDbEntity
  8
細線
 48
50.0
100
AcDbLine
 10
10804.00952385493
 20
7355.725026914477
 30
0.0
 11
10804.00952385493
 21
7330.725026914473
 31
0.0
  0
DIMENSION
  5
1AE33
330
747D
100
AcDbEntity
  8
寸法
100
AcDbDimension
  2
*D32
 10
7936.898278228245
 20
7259.725026914441
 30
0.0
 11
7936.898278228241
 21
7119.239745540203
 31
0.0
 70
   160
 71
     5
 42
75.0
  3
INABA_S40
100
AcDbAlignedDimension
 13
8231.50952385496
 23
7334.725026914441
 33
0.0
 14
8679.509523854935
 24
7259.725026914441
 34
0.0
 50
90.0
100
AcDbRotatedDimension
1001
ACAD
1000
DSTYLE
1002
{
1070
    41
1040
0.5
1070
    44
1040
1.0
1070
   147
1040
0.8
1070
   271
1070
     2
1070
   272
1070
     2
1070
   289
1070
     3
1070
   340
1005
F706
1070
   343
1005
1982A
1070
   344
1005
1982A
1002
}
  0
DIMENSION
  5
1AE34
330
747D
100
AcDbEntity
  8
寸法
 48
50.0
100
AcDbDimension
  2
*D33
 10
10833.50952385493
 20
6337.595311486705
 30
0.0
 11
9778.64228060225
 21
6337.595311486705
 31
0.0
 70
   160
 71
     5
 42
2154.0
  3
INABA_S40G
100
AcDbAlignedDimension
 13
8679.509523854937
 23
7257.725026914474
 33
0.0
 14
10833.50952385493
 24
7257.725026914474
 34
0.0
100
AcDbRotatedDimension
1001
ACAD
1000
DSTYLE
1002
{
1070
   341
1005
0
1002
}
  0
DIMENSION
  5
1AF37
330
747D
100
AcDbEntity
  8
寸法
100
AcDbDimension
  2
*D34
 10
11281.50952385494
 20
6050.620161360144
 30
0.0
 11
9776.225354228893
 21
6050.620161360144
 31
0.0
 70
   160
 71
     5
 42
3049.999999999982
  3
INABA_S40G
100
AcDbAlignedDimension
 13
8231.50952385496
 23
7334.725026914441
 33
0.0
 14
11281.50952385494
 24
7334.725026914604
 34
0.0
100
AcDbRotatedDimension
1001
ACAD
1000
DSTYLE
1002
{
1002
}
  0
LINE
  5
1AF42
330
747D
100
AcDbEntity
  8
部品1
100
AcDbLine
 10
10138.24485696917
 20
5720.704382324224
 30
0.0
 11
9374.77419074074
 21
5720.704382324224
 31
0.0
  0
LINE
  5
1AF43
330
747D
100
AcDbEntity
  8
部品1
100
AcDbLine
 10
10138.24485696917
 20
5480.812060778692
 30
0.0
 11
10138.24485696917
 21
5720.704382324224
 31
0.0
  0
LINE
  5
1AF44
330
747D
100
AcDbEntity
  8
部品1
100
AcDbLine
 10
9374.77419074074
 20
5480.812060778692
 30
0.0
 11
10138.24485696917
 21
5480.812060778692
 31
0.0
  0
LINE
  5
1AF45
330
747D
100
AcDbEntity
  8
部品1
100
AcDbLine
 10
9374.77419074074
 20
5720.704382324224
 30
0.0
 11
9374.77419074074
 21
5480.812060778692
 31
0.0
  0
TEXT
  5
1AF46
330
747D
100
AcDbEntity
  8
部品1
100
AcDbText
 10
9464.693800569778
 20
5527.810853105701
 30
0.0
 40
135.0
  1
平面図
  7
STYLE2
100
AcDbText
  0
LWPOLYLINE
  5
1B160
330
747D
100
AcDbEntity
  8
部品1
 48
50.0
100
AcDbPolyline
 90
        4
 70
     1
 43
0.0
 10
8778.559523854969
 20
3064.34771128966
 10
8781.459523854969
 20
3064.34771128966
 10
8781.459523854969
 20
3073.84771128966
 10
8778.559523854969
 20
3073.84771128966
  0
CIRCLE
  5
1B161
330
747D
100
AcDbEntity
  8
部品1
 48
50.0
100
AcDbCircle
 10
8780.009523854969
 20
3069.09771128966
 30
0.0
 40
9.0
  0
ARC
  5
1B162
330
747D
100
AcDbEntity
  8
細線
 48
50.0
100
AcDbCircle
 10
8780.009523854969
 20
3069.09771128966
 30
0.0
 40
4.0
100
AcDbArc
 50
111.2538091853132
 51
248.7461908146868
  0
ARC
  5
1B163
330
747D
100
AcDbEntity
  8
細線
 48
50.0
100
AcDbCircle
 10
8780.009523854969
 20
3069.09771128966
 30
0.0
 40
17.5
100
AcDbArc
 50
306.4837370612677
 51
233.5162629387323
  0
LINE
  5
1B164
330
747D
100
AcDbEntity
  8
細線
 48
50.0
100
AcDbLine
 10
8790.009523854966
 20
3045.238750708777
 30
0.0
 11
8790.009523854969
 21
3054.223236509019
 31
0.0
  0
LINE
  5
1B165
330
747D
100
AcDbEntity
  8
細線
 48
50.0
100
AcDbLine
 10
8770.00952385497
 20
3045.238750708779
 30
0.0
 11
8770.00952385497
 21
3054.223236509015
 31
0.0
  0
ARC
  5
1B166
330
747D
100
AcDbEntity
  8
細線
 48
50.0
100
AcDbCircle
 10
8780.009523854969
 20
3069.09771128966
 30
0.0
 40
26.5
100
AcDbArc
 50
249.3326835063939
 51
290.6673164933835
  0
ARC
  5
1B167
330
747D
100
AcDbEntity
  8
細線
 48
50.0
100
AcDbCircle
 10
8789.009523854963
 20
3045.238750708777
 30
0.0
 40
1.0
100
AcDbArc
 50
290.6673164936062
 51
359.9999999998958
  0
ARC
  5
1B168
330
747D
100
AcDbEntity
  8
細線
 48
50.0
100
AcDbCircle
 10
8771.009523854969
 20
3045.238750708779
 30
0.0
 40
1.0
100
AcDbArc
 50
180.0
 51
249.3326835066164
  0
ARC
  5
1B169
330
747D
100
AcDbEntity
  8
細線
 48
50.0
100
AcDbCircle
 10
8769.009523854968
 20
3054.223236509015
 30
0.0
 40
1.0
100
AcDbArc
 50
0.0
 51
53.51626293873231
  0
ARC
  5
1B16A
330
747D
100
AcDbEntity
  8
細線
 48
50.0
100
AcDbCircle
 10
8791.009523854972
 20
3054.223236509019
 30
0.0
 40
1.0
100
AcDbArc
 50
126.4837370615127
 51
180.0
  0
ARC
  5
1B16B
330
747D
100
AcDbEntity
  8
細線
 48
50.0
100
AcDbCircle
 10
8780.009523854969
 20
3069.09771128966
 30
0.0
 40
21.5
100
AcDbArc
 50
255.8014401250294
 51
284.1985598749706
  0
ARC
  5
1B16C
330
747D
100
AcDbEntity
  8
細線
 48
50.0
100
AcDbCircle
 10
8780.009523854969
 20
3069.09771128966
 30
0.0
 40
16.5
100
AcDbArc
 50
251.9694646069326
 51
288.0305353930674
  0
LINE
  5
1B16D
330
747D
100
AcDbEntity
  8
細線
 48
50.0
100
AcDbLine
 10
8785.509523854969
 20
3048.545339163853
 30
0.0
 11
8785.509523854969
 21
3053.12273085119
 31
0.0
  0
LINE
  5
1B16E
330
747D
100
AcDbEntity
  8
細線
 48
50.0
100
AcDbLine
 10
8774.50952385497
 20
3048.545339163853
 30
0.0
 11
8774.50952385497
 21
3053.122730851188
 31
0.0
  0
ARC
  5
1B16F
330
747D
100
AcDbEntity
  8
細線
 48
50.0
100
AcDbCircle
 10
8774.809523854973
 20
3053.122730851188
 30
0.0
 40
0.3
100
AcDbArc
 50
71.96946460693259
 51
180.0
  0
ARC
  5
1B170
330
747D
100
AcDbEntity
  8
細線
 48
50.0
100
AcDbCircle
 10
8785.209523854971
 20
3053.12273085119
 30
0.0
 40
0.3
100
AcDbArc
 50
0.0
 51
108.0305353930674
  0
ARC
  5
1B171
330
747D
100
AcDbEntity
  8
細線
 48
50.0
100
AcDbCircle
 10
8785.209523854966
 20
3048.545339163853
 30
0.0
 40
0.3
100
AcDbArc
 50
284.1985598747622
 51
0.0000000001042204
  0
ARC
  5
1B172
330
747D
100
AcDbEntity
  8
細線
 48
50.0
100
AcDbCircle
 10
8774.809523854973
 20
3048.545339163853
 30
0.0
 40
0.3
100
AcDbArc
 50
180.0
 51
255.8014401248081
  0
CIRCLE
  5
1B173
330
747D
100
AcDbEntity
  8
細線
 48
50.0
100
AcDbCircle
 10
8780.009523854969
 20
3069.09771128966
 30
0.0
 40
12.0
  0
ARC
  5
1B174
330
747D
100
AcDbEntity
  8
部品1
 48
50.0
100
AcDbCircle
 10
8780.009523854969
 20
3119.09771128966
 30
0.0
 40
8.5
100
AcDbArc
 50
114.315739171091
 51
245.684260828909
  0
CIRCLE
  5
1B175
330
747D
100
AcDbEntity
  8
細線
 48
50.0
100
AcDbCircle
 10
8780.009523854969
 20
3119.09771128966
 30
0.0
 40
4.5
  0
LWPOLYLINE
  5
1B176
330
747D
100
AcDbEntity
  8
部品1
 48
50.0
100
AcDbPolyline
 90
        2
 70
     0
 43
0.0
 10
8776.509523854969
 20
3137.772560686642
 10
8776.509523854969
 20
3126.843677982075
  0
CIRCLE
  5
1B177
330
747D
100
AcDbEntity
  8
部品1
 48
50.0
100
AcDbCircle
 10
8780.009523854969
 20
3119.09771128966
 30
0.0
 40
19.0
  0
LWPOLYLINE
  5
1B178
330
747D
100
AcDbEntity
  8
部品1
 48
50.0
100
AcDbPolyline
 90
        2
 70
     0
 43
0.0
 10
8776.509523854969
 20
3111.351744597245
 10
8776.509523854969
 20
3100.422861892678
  0
LWPOLYLINE
  5
1B179
330
747D
100
AcDbEntity
  8
部品1
 48
50.0
100
AcDbPolyline
 90
        2
 70
     0
 43
0.0
 10
8783.50952385497
 20
3126.843677982075
 10
8783.50952385497
 20
3137.772560686642
  0
ARC
  5
1B17A
330
747D
100
AcDbEntity
  8
部品1
 48
50.0
100
AcDbCircle
 10
8780.009523854969
 20
3119.09771128966
 30
0.0
 40
8.5
100
AcDbArc
 50
294.315739171091
 51
65.68426082890896
  0
LWPOLYLINE
  5
1B17B
330
747D
100
AcDbEntity
  8
部品1
 48
50.0
100
AcDbPolyline
 90
        2
 70
     0
 43
0.0
 10
8783.50952385497
 20
3100.422861892678
 10
8783.50952385497
 20
3111.351744597245
  0
ARC
  5
1B17C
330
747D
100
AcDbEntity
  8
細線
 48
50.0
100
AcDbCircle
 10
8780.009523854969
 20
3119.09771128966
 30
0.0
 40
16.5
100
AcDbArc
 50
332.0012352654438
 51
27.99876473455621
  0
ARC
  5
1B17D
330
747D
100
AcDbEntity
  8
細線
 48
50.0
100
AcDbCircle
 10
8780.009523854969
 20
3119.09771128966
 30
0.0
 40
14.0
100
AcDbArc
 50
326.4074436112986
 51
33.59255638870134
  0
LINE
  5
1B17E
330
747D
100
AcDbEntity
  8
細線
 48
50.0
100
AcDbLine
 10
8765.440721570639
 20
3126.843677982075
 30
0.0
 11
8768.347620065281
 21
3126.843677982075
 31
0.0
  0
LINE
  5
1B17F
330
747D
100
AcDbEntity
  8
細線
 48
50.0
100
AcDbLine
 10
8765.440721570639
 20
3111.351744597245
 30
0.0
 11
8768.347620065281
 21
3111.351744597245
 31
0.0
  0
LINE
  5
1B180
330
747D
100
AcDbEntity
  8
細線
 48
50.0
100
AcDbLine
 10
8791.671427644658
 20
3126.843677982075
 30
0.0
 11
8794.578326139305
 21
3126.843677982075
 31
0.0
  0
LINE
  5
1B181
330
747D
100
AcDbEntity
  8
細線
 48
50.0
100
AcDbLine
 10
8791.671427644658
 20
3111.351744597245
 30
0.0
 11
8794.578326139305
 21
3111.351744597245
 31
0.0
  0
ARC
  5
1B182
330
747D
100
AcDbEntity
  8
細線
 48
50.0
100
AcDbCircle
 10
8780.009523854969
 20
3119.09771128966
 30
0.0
 40
14.0
100
AcDbArc
 50
146.4074436112986
 51
213.5925563887013
  0
ARC
  5
1B183
330
747D
100
AcDbEntity
  8
細線
 48
50.0
100
AcDbCircle
 10
8780.009523854969
 20
3119.09771128966
 30
0.0
 40
16.5
100
AcDbArc
 50
152.0012352654438
 51
207.9987647345562
  0
ARC
  5
1B184
330
747D
100
AcDbEntity
  8
部品1
 48
50.0
100
AcDbCircle
 10
8753.509523854971
 20
3144.59771128966
 30
0.0
 40
5.0
100
AcDbArc
 50
90.0
 51
180.0
  0
ARC
  5
1B185
330
747D
100
AcDbEntity
  8
部品1
 48
50.0
100
AcDbCircle
 10
8753.509523854971
 20
3033.59771128966
 30
0.0
 40
5.0
100
AcDbArc
 50
180.0
 51
270.0
  0
ARC
  5
1B186
330
747D
100
AcDbEntity
  8
部品1
 48
50.0
100
AcDbCircle
 10
8806.509523854968
 20
3033.59771128966
 30
0.0
 40
5.0
100
AcDbArc
 50
270.0
 51
0.0
  0
ARC
  5
1B187
330
747D
100
AcDbEntity
  8
部品1
 48
50.0
100
AcDbCircle
 10
8806.509523854968
 20
3144.59771128966
 30
0.0
 40
5.0
100
AcDbArc
 50
0.0
 51
90.0
  0
LINE
  5
1B189
330
747D
100
AcDbEntity
  8
部品1
 48
50.0
100
AcDbLine
 10
8748.509523854968
 20
3033.59771128966
 30
0.0
 11
8748.509523854968
 21
3144.59771128966
 31
0.0
  0
LINE
  5
1B18A
330
747D
100
AcDbEntity
  8
部品1
 48
50.0
100
AcDbLine
 10
8806.509523854968
 20
3028.59771128966
 30
0.0
 11
8753.509523854971
 21
3028.59771128966
 31
0.0
  0
LINE
  5
1B18B
330
747D
100
AcDbEntity
  8
部品1
 48
50.0
100
AcDbLine
 10
8811.50952385497
 20
3144.59771128966
 30
0.0
 11
8811.50952385497
 21
3033.59771128966
 31
0.0
  0
ENDSEC
  0
SECTION
  2
OBJECTS
  0
DICTIONARY
  5
7471
330
0
100
AcDbDictionary
281
     1
  3
ACAD_COLOR
350
1981F
  3
ACAD_GROUP
350
7472
  3
ACAD_LAYOUT
350
19820
  3
ACAD_MATERIAL
350
1981E
  3
ACAD_MLINESTYLE
350
7473
  3
ACAD_PLOTSETTINGS
350
19821
  3
ACAD_PLOTSTYLENAME
350
1981C
  3
ACDBHEADERROUNDTRIPXREC
350
1B19A
  3
AcDbVariableDictionary
350
1B196
  3
CONTENTDICTIONARY
350
E71C
  3
DRAWINGVARIABLESDICT
350
F3B9
  0
DICTIONARY
  5
199C6
330
7467
100
AcDbDictionary
280
     1
281
     1
  3
ACAD_LAYERSTATES
360
199C7
  0
DICTIONARY
  5
1981F
102
{ACAD_REACTORS
330
7471
102
}
330
7471
100
AcDbDictionary
281
     1
  0
DICTIONARY
  5
7472
102
{ACAD_REACTORS
330
7471
102
}
330
7471
100
AcDbDictionary
281
     1
  0
DICTIONARY
  5
19820
102
{ACAD_REACTORS
330
7471
102
}
330
7471
100
AcDbDictionary
281
     1
  3
Model
350
19822
  3
レイアウト1
350
19823
  0
DICTIONARY
  5
1981E
102
{ACAD_REACTORS
330
7471
102
}
330
7471
100
AcDbDictionary
281
     1
  0
DICTIONARY
  5
7473
102
{ACAD_REACTORS
330
7471
102
}
330
7471
100
AcDbDictionary
281
     1
  3
STANDARD
350
7480
  0
DICTIONARY
  5
19821
102
{ACAD_REACTORS
330
7471
102
}
330
7471
100
AcDbDictionary
281
     1
  0
ACDBDICTIONARYWDFLT
  5
1981C
102
{ACAD_REACTORS
330
7471
102
}
330
7471
100
AcDbDictionary
281
     1
  3
Normal
350
1981D
100
AcDbDictionaryWithDefault
340
1981D
  0
DICTIONARY
  5
1B19A
102
{ACAD_REACTORS
330
7471
102
}
330
7471
100
AcDbDictionary
281
     1
  3
COLORDICT
350
1B19C
  3
MATERIALDICT
350
1B19B
  0
DICTIONARY
  5
1B196
102
{ACAD_REACTORS
330
7471
102
}
330
7471
100
AcDbDictionary
281
     1
  3
DIMASSOC
350
1B197
  3
PROJECTNAME
350
1B198
  0
DICTIONARY
  5
E71C
102
{ACAD_REACTORS
330
7471
102
}
330
7471
100
AcDbDictionary
281
     1
  0
DICTIONARY
  5
F3B9
102
{ACAD_REACTORS
330
7471
102
}
330
7471
100
AcDbDictionary
281
     1
1001
DRAWINGVARIABLESXDATA
1000
POLARMODE
1000
1
  0
DICTIONARY
  5
199C7
102
{ACAD_REACTORS
330
199C6
102
}
330
199C6
100
AcDbDictionary
281
     1
  0
LAYOUT
  5
19822
102
{ACAD_XDICTIONARY
360
1B19D
102
}
102
{ACAD_REACTORS
330
19820
102
}
330
19820
100
AcDbPlotSettings
  1

  2
Microsoft Office Document Image Writer
  4

  6

 40
0.0
 41
0.0
 42
0.0
 43
0.0
 44
0.0
 45
0.0
 46
0.0
 47
0.0
 48
0.0
 49
0.0
140
0.0
141
0.0
142
1.0
143
1.0
 70
  1712
 72
     0
 73
     0
 74
     0
  7

 75
     0
147
1.0
148
0.0
149
0.0
100
AcDbLayout
  1
Model
 70
     1
 71
     0
 10
0.0
 20
0.0
 11
12.0
 21
9.0
 12
0.0
 22
0.0
 32
0.0
 14
0.0
 24
0.0
 34
0.0
 15
0.0
 25
0.0
 35
0.0
146
0.0
 13
0.0
 23
0.0
 33
0.0
 16
1.0
 26
0.0
 36
0.0
 17
0.0
 27
1.0
 37
0.0
 76
     0
330
747D
  0
LAYOUT
  5
19823
102
{ACAD_XDICTIONARY
360
1B19F
102
}
102
{ACAD_REACTORS
330
19820
102
}
330
19820
100
AcDbPlotSettings
  1

  2
Microsoft Office Document Image Writer
  4

  6

 40
0.0
 41
0.0
 42
0.0
 43
0.0
 44
0.0
 45
0.0
 46
0.0
 47
0.0
 48
0.0
 49
0.0
140
0.0
141
0.0
142
1.0
143
1.0
 70
   688
 72
     0
 73
     0
 74
     5
  7

 75
    16
147
1.0
148
0.0
149
0.0
100
AcDbLayout
  1
レイアウト1
 70
     0
 71
     1
 10
0.0
 20
0.0
 11
420.0
 21
297.0
 12
0.0
 22
0.0
 32
0.0
 14
1.000000000000000E+20
 24
1.000000000000000E+20
 34
1.000000000000000E+20
 15
-1.000000000000000E+20
 25
-1.000000000000000E+20
 35
-1.000000000000000E+20
146
0.0
 13
0.0
 23
0.0
 33
0.0
 16
1.0
 26
0.0
 36
0.0
 17
0.0
 27
1.0
 37
0.0
 76
     0
330
747A
  0
MLINESTYLE
  5
7480
102
{ACAD_REACTORS
330
7473
102
}
330
7473
100
AcDbMlineStyle
  2
STANDARD
 70
     0
  3

 62
     0
 51
90.0
 52
90.0
 71
     2
 49
0.5
 62
   256
  6
BYLAYER
 49
-0.5
 62
   256
  6
BYLAYER
  0
ACDBPLACEHOLDER
  5
1981D
102
{ACAD_REACTORS
330
1981C
102
}
330
1981C
  0
XRECORD
  5
1B19C
102
{ACAD_REACTORS
330
1B19A
102
}
330
1B19A
100
AcDbXrecord
280
     1
340
1981F
  0
XRECORD
  5
1B19B
102
{ACAD_REACTORS
330
1B19A
102
}
330
1B19A
100
AcDbXrecord
280
     1
340
1981E
  0
DICTIONARYVAR
  5
1B197
102
{ACAD_REACTORS
330
1B196
102
}
330
1B196
100
DictionaryVariables
280
     0
  1
1
  0
DICTIONARYVAR
  5
1B198
102
{ACAD_REACTORS
330
1B196
102
}
330
1B196
100
DictionaryVariables
280
     0
  1

  0
DICTIONARY
  5
1B19D
330
19822
100
AcDbDictionary
280
     1
281
     1
  3
ACAD_XREC_ROUNDTRIP
360
1B19E
  0
DICTIONARY
  5
1B19F
330
19823
100
AcDbDictionary
280
     1
281
     1
  3
ACAD_XREC_ROUNDTRIP
360
1B1A0
  0
XRECORD
  5
1B19E
102
{ACAD_REACTORS
330
1B19D
102
}
330
1B19D
100
AcDbXrecord
280
     1
102
SHADEPLOT
 70
     0
102
SHADEPLOTRESLEVEL
 70
     2
102
SHADEPLOTCUSTOMDPI
 70
   300
  0
XRECORD
  5
1B1A0
102
{ACAD_REACTORS
330
1B19F
102
}
330
1B19F
100
AcDbXrecord
280
     1
102
SHADEPLOT
 70
     0
102
SHADEPLOTRESLEVEL
 70
     2
102
SHADEPLOTCUSTOMDPI
 70
   300
  0
ENDSEC
  0
EOF
