  0
SECTION
  2
HEADER
  9
$ACADVER
  1
AC1015
  9
$ACADMAINTVER
 70
    20
  9
$DWGCODEPAGE
  3
ANSI_932
  9
$INSBASE
 10
0.0
 20
0.0
 30
0.0
  9
$EXTMIN
 10
139.9999999999995
 20
-0.0000000000000909
 30
0.0
  9
$EXTMAX
 10
16307.2
 20
11409.6
 30
0.0
  9
$LIMMIN
 10
0.0
 20
0.0
  9
$LIMMAX
 10
16800.0
 20
11880.0
  9
$ORTHOMODE
 70
     0
  9
$REGENMODE
 70
     1
  9
$FILLMODE
 70
     1
  9
$QTEXTMODE
 70
     0
  9
$MIRRTEXT
 70
     1
  9
$LTSCALE
 40
20.0
  9
$ATTMODE
 70
     1
  9
$TEXTSIZE
 40
4.0
  9
$TRACEWID
 40
1.0
  9
$TEXTSTYLE
  7
STYLE1
  9
$CLAYER
  8
寸法
  9
$CELTYPE
  6
BYLAYER
  9
$CECOLOR
 62
   256
  9
$CELTSCALE
 40
50.0
  9
$DISPSILH
 70
     0
  9
$DIMSCALE
 40
40.0
  9
$DIMASZ
 40
2.5
  9
$DIMEXO
 40
0.5
  9
$DIMDLI
 40
7.0
  9
$DIMRND
 40
0.0
  9
$DIMDLE
 40
0.0
  9
$DIMEXE
 40
1.5
  9
$DIMTP
 40
0.0
  9
$DIMTM
 40
0.0
  9
$DIMTXT
 40
3.0
  9
$DIMCEN
 40
0.0
  9
$DIMTSZ
 40
0.0
  9
$DIMTOL
 70
     0
  9
$DIMLIM
 70
     0
  9
$DIMTIH
 70
     0
  9
$DIMTOH
 70
     0
  9
$DIMSE1
 70
     0
  9
$DIMSE2
 70
     0
  9
$DIMTAD
 70
     3
  9
$DIMZIN
 70
     8
  9
$DIMBLK
  1

  9
$DIMASO
 70
     1
  9
$DIMSHO
 70
     1
  9
$DIMPOST
  1

  9
$DIMAPOST
  1

  9
$DIMALT
 70
     0
  9
$DIMALTD
 70
     2
  9
$DIMALTF
 40
0.0394
  9
$DIMLFAC
 40
1.0
  9
$DIMTOFL
 70
     1
  9
$DIMTVP
 40
0.0
  9
$DIMTIX
 70
     1
  9
$DIMSOXD
 70
     0
  9
$DIMSAH
 70
     1
  9
$DIMBLK1
  1
DOTSMALL
  9
$DIMBLK2
  1
DOTSMALL
  9
$DIMSTYLE
  2
INABA_S40G
  9
$DIMCLRD
 70
     0
  9
$DIMCLRE
 70
     0
  9
$DIMCLRT
 70
     7
  9
$DIMTFAC
 40
1.0
  9
$DIMGAP
 40
1.0
  9
$DIMJUST
 70
     0
  9
$DIMSD1
 70
     0
  9
$DIMSD2
 70
     0
  9
$DIMTOLJ
 70
     1
  9
$DIMTZIN
 70
     0
  9
$DIMALTZ
 70
     0
  9
$DIMALTTZ
 70
     0
  9
$DIMUPT
 70
     0
  9
$DIMDEC
 70
     1
  9
$DIMTDEC
 70
     4
  9
$DIMALTU
 70
     2
  9
$DIMALTTD
 70
     2
  9
$DIMTXSTY
  7
STYLE1
  9
$DIMAUNIT
 70
     0
  9
$DIMADEC
 70
     0
  9
$DIMALTRND
 40
0.0
  9
$DIMAZIN
 70
     0
  9
$DIMDSEP
 70
    46
  9
$DIMATFIT
 70
     3
  9
$DIMFRAC
 70
     0
  9
$DIMLDRBLK
  1

  9
$DIMLUNIT
 70
     2
  9
$DIMLWD
 70
    -2
  9
$DIMLWE
 70
    -2
  9
$DIMTMOVE
 70
     0
  9
$LUNITS
 70
     2
  9
$LUPREC
 70
     1
  9
$SKETCHINC
 40
1.0
  9
$FILLETRAD
 40
3.0
  9
$AUNITS
 70
     0
  9
$AUPREC
 70
     0
  9
$MENU
  1
acad
  9
$ELEVATION
 40
0.0
  9
$PELEVATION
 40
0.0
  9
$THICKNESS
 40
0.0
  9
$LIMCHECK
 70
     0
  9
$CHAMFERA
 40
0.0
  9
$CHAMFERB
 40
0.0
  9
$CHAMFERC
 40
0.0
  9
$CHAMFERD
 40
0.0
  9
$SKPOLY
 70
     0
  9
$TDCREATE
 40
2451368.612993866
  9
$TDUCREATE
 40
2451368.237993866
  9
$TDUPDATE
 40
2455575.701919479
  9
$TDUUPDATE
 40
2455575.326919479
  9
$TDINDWG
 40
0.5831913657
  9
$TDUSRTIMER
 40
0.5831913657
  9
$USRTIMER
 70
     1
  9
$ANGBASE
 50
0.0
  9
$ANGDIR
 70
     0
  9
$PDMODE
 70
     3
  9
$PDSIZE
 40
2.0
  9
$PLINEWID
 40
0.0
  9
$SPLFRAME
 70
     0
  9
$SPLINETYPE
 70
     6
  9
$SPLINESEGS
 70
     8
  9
$HANDSEED
  5
195DE
  9
$SURFTAB1
 70
     6
  9
$SURFTAB2
 70
     6
  9
$SURFTYPE
 70
     6
  9
$SURFU
 70
     6
  9
$SURFV
 70
     6
  9
$UCSBASE
  2

  9
$UCSNAME
  2

  9
$UCSORG
 10
0.0
 20
0.0
 30
0.0
  9
$UCSXDIR
 10
1.0
 20
0.0
 30
0.0
  9
$UCSYDIR
 10
0.0
 20
1.0
 30
0.0
  9
$UCSORTHOREF
  2

  9
$UCSORTHOVIEW
 70
     0
  9
$UCSORGTOP
 10
0.0
 20
0.0
 30
0.0
  9
$UCSORGBOTTOM
 10
0.0
 20
0.0
 30
0.0
  9
$UCSORGLEFT
 10
0.0
 20
0.0
 30
0.0
  9
$UCSORGRIGHT
 10
0.0
 20
0.0
 30
0.0
  9
$UCSORGFRONT
 10
0.0
 20
0.0
 30
0.0
  9
$UCSORGBACK
 10
0.0
 20
0.0
 30
0.0
  9
$PUCSBASE
  2

  9
$PUCSNAME
  2

  9
$PUCSORG
 10
0.0
 20
0.0
 30
0.0
  9
$PUCSXDIR
 10
1.0
 20
0.0
 30
0.0
  9
$PUCSYDIR
 10
0.0
 20
1.0
 30
0.0
  9
$PUCSORTHOREF
  2

  9
$PUCSORTHOVIEW
 70
     0
  9
$PUCSORGTOP
 10
0.0
 20
0.0
 30
0.0
  9
$PUCSORGBOTTOM
 10
0.0
 20
0.0
 30
0.0
  9
$PUCSORGLEFT
 10
0.0
 20
0.0
 30
0.0
  9
$PUCSORGRIGHT
 10
0.0
 20
0.0
 30
0.0
  9
$PUCSORGFRONT
 10
0.0
 20
0.0
 30
0.0
  9
$PUCSORGBACK
 10
0.0
 20
0.0
 30
0.0
  9
$USERI1
 70
     0
  9
$USERI2
 70
     0
  9
$USERI3
 70
     0
  9
$USERI4
 70
     0
  9
$USERI5
 70
     0
  9
$USERR1
 40
0.0
  9
$USERR2
 40
0.0
  9
$USERR3
 40
0.0
  9
$USERR4
 40
0.0
  9
$USERR5
 40
0.0
  9
$WORLDVIEW
 70
     1
  9
$SHADEDGE
 70
     3
  9
$SHADEDIF
 70
    70
  9
$TILEMODE
 70
     1
  9
$MAXACTVP
 70
    16
  9
$PINSBASE
 10
0.0
 20
0.0
 30
0.0
  9
$PLIMCHECK
 70
     0
  9
$PEXTMIN
 10
1.000000000000000E+20
 20
1.000000000000000E+20
 30
1.000000000000000E+20
  9
$PEXTMAX
 10
-1.000000000000000E+20
 20
-1.000000000000000E+20
 30
-1.000000000000000E+20
  9
$PLIMMIN
 10
0.0
 20
0.0
  9
$PLIMMAX
 10
420.0
 20
297.0
  9
$UNITMODE
 70
     0
  9
$VISRETAIN
 70
     0
  9
$PLINEGEN
 70
     0
  9
$PSLTSCALE
 70
     0
  9
$TREEDEPTH
 70
  3020
  9
$CMLSTYLE
  2
STANDARD
  9
$CMLJUST
 70
     0
  9
$CMLSCALE
 40
1.0
  9
$PROXYGRAPHICS
 70
     1
  9
$MEASUREMENT
 70
     1
  9
$CELWEIGHT
370
    -1
  9
$ENDCAPS
280
     0
  9
$JOINSTYLE
280
     0
  9
$LWDISPLAY
290
     0
  9
$INSUNITS
 70
     0
  9
$HYPERLINKBASE
  1

  9
$STYLESHEET
  1

  9
$XEDIT
290
     1
  9
$CEPSNTYPE
380
     0
  9
$PSTYLEMODE
290
     1
  9
$FINGERPRINTGUID
  2
{F361493B-4AB6-45CF-A13A-5062D2093F69}
  9
$VERSIONGUID
  2
{4332948C-BEBC-430B-BAF3-1B5F8ADC0049}
  9
$EXTNAMES
290
     1
  9
$PSVPSCALE
 40
0.0
  9
$OLESTARTUP
290
     0
  0
ENDSEC
  0
SECTION
  2
CLASSES
  0
CLASS
  1
DICTIONARYVAR
  2
AcDbDictionaryVar
  3
ObjectDBX Classes
 90
        0
280
     0
281
     0
  0
CLASS
  1
ACDBDICTIONARYWDFLT
  2
AcDbDictionaryWithDefault
  3
ObjectDBX Classes
 90
        0
280
     0
281
     0
  0
CLASS
  1
ACDBPLACEHOLDER
  2
AcDbPlaceHolder
  3
ObjectDBX Classes
 90
        0
280
     0
281
     0
  0
CLASS
  1
LAYOUT
  2
AcDbLayout
  3
ObjectDBX Classes
 90
        0
280
     0
281
     0
  0
ENDSEC
  0
SECTION
  2
TABLES
  0
TABLE
  2
VPORT
  5
746D
330
0
100
AcDbSymbolTable
 70
     2
  0
VPORT
  5
195D6
330
746D
100
AcDbSymbolTableRecord
100
AcDbViewportTableRecord
  2
*Active
 70
     0
 10
0.0
 20
0.0
 11
1.0
 21
1.0
 12
8223.761025238502
 22
6348.767642148464
 13
0.0
 23
0.0
 14
10.0
 24
10.0
 15
10.0
 25
10.0
 16
0.0
 26
0.0
 36
1.0
 17
0.0
 27
0.0
 37
0.0
 40
12805.3711672054
 41
1.525925925925925
 42
50.0
 43
0.0
 44
0.0
 50
0.0
 51
0.0
 71
     0
 72
     0
 73
     1
 74
     0
 75
     0
 76
     0
 77
     0
 78
     0
281
     0
 65
     1
110
0.0
120
0.0
130
0.0
111
1.0
121
0.0
131
0.0
112
0.0
122
1.0
132
0.0
 79
     0
146
0.0
  0
ENDTAB
  0
TABLE
  2
LTYPE
  5
746A
330
0
100
AcDbSymbolTable
 70
     5
  0
LTYPE
  5
7477
330
746A
100
AcDbSymbolTableRecord
100
AcDbLinetypeTableRecord
  2
BYBLOCK
 70
     0
  3

 72
    65
 73
     0
 40
0.0
  0
LTYPE
  5
7478
330
746A
100
AcDbSymbolTableRecord
100
AcDbLinetypeTableRecord
  2
BYLAYER
 70
     0
  3

 72
    65
 73
     0
 40
0.0
  0
LTYPE
  5
7479
330
746A
100
AcDbSymbolTableRecord
100
AcDbLinetypeTableRecord
  2
CONTINUOUS
 70
     0
  3
Solid line
 72
    65
 73
     0
 40
0.0
  0
LTYPE
  5
7816
330
746A
100
AcDbSymbolTableRecord
100
AcDbLinetypeTableRecord
  2
CENTER
 70
     0
  3
____ _ ____ _ ____ _ ____ _ ____ _ ____ _ ____ 
 72
    65
 73
     4
 40
2.0
 49
1.25
 74
     0
 49
-0.25
 74
     0
 49
0.25
 74
     0
 49
-0.25
 74
     0
  0
LTYPE
  5
781A
330
746A
100
AcDbSymbolTableRecord
100
AcDbLinetypeTableRecord
  2
HIDDEN
 70
     0
  3
__ __ __ __ __ __ __ __ __ __ __ __ __ __ __ __
 72
    65
 73
     2
 40
0.375
 49
0.25
 74
     0
 49
-0.125
 74
     0
  0
LTYPE
  5
781B
330
746A
100
AcDbSymbolTableRecord
100
AcDbLinetypeTableRecord
  2
PHANTOM
 70
     0
  3
______  __  __  ______  __  __  ______  __  __ 
 72
    65
 73
     6
 40
2.5
 49
1.25
 74
     0
 49
-0.25
 74
     0
 49
0.25
 74
     0
 49
-0.25
 74
     0
 49
0.25
 74
     0
 49
-0.25
 74
     0
  0
LTYPE
  5
12CC3
330
746A
100
AcDbSymbolTableRecord
100
AcDbLinetypeTableRecord
  2
HIDDENX2
 70
     0
  3
Hidden (2x) ____ ____ ____ ____ ____ ____ ____
 72
    65
 73
     2
 40
19.05
 49
12.7
 74
     0
 49
-6.349999999999999
 74
     0
  0
ENDTAB
  0
TABLE
  2
LAYER
  5
7467
102
{ACAD_XDICTIONARY
360
1766B
102
}
330
0
100
AcDbSymbolTable
 70
    12
  0
LAYER
  5
7474
330
7467
100
AcDbSymbolTableRecord
100
AcDbLayerTableRecord
  2
0
 70
     0
 62
     7
  6
CONTINUOUS
370
    -3
390
174C7
  0
LAYER
  5
DEB2
330
7467
100
AcDbSymbolTableRecord
100
AcDbLayerTableRecord
  2
センター
 70
     0
 62
     3
  6
CENTER
370
    -3
390
174C7
  0
LAYER
  5
DEB3
330
7467
100
AcDbSymbolTableRecord
100
AcDbLayerTableRecord
  2
寸法
 70
     0
 62
     4
  6
CONTINUOUS
370
    -3
390
174C7
  0
LAYER
  5
DEB4
330
7467
100
AcDbSymbolTableRecord
100
AcDbLayerTableRecord
  2
部品1
 70
     0
 62
     7
  6
CONTINUOUS
370
    -3
390
174C7
  0
LAYER
  5
DEB5
330
7467
100
AcDbSymbolTableRecord
100
AcDbLayerTableRecord
  2
補助
 70
     0
 62
    -1
  6
CONTINUOUS
370
    -3
390
174C7
  0
LAYER
  5
DEB6
330
7467
100
AcDbSymbolTableRecord
100
AcDbLayerTableRecord
  2
文字
 70
     0
 62
     7
  6
CONTINUOUS
370
    -3
390
174C7
  0
LAYER
  5
F255
330
7467
100
AcDbSymbolTableRecord
100
AcDbLayerTableRecord
  2
DEFPOINTS
 70
     0
 62
     7
  6
CONTINUOUS
290
     0
370
    -3
390
174C7
  0
LAYER
  5
10B54
330
7467
100
AcDbSymbolTableRecord
100
AcDbLayerTableRecord
  2
仕様書枠
 70
     0
 62
   230
  6
CONTINUOUS
370
    -3
390
174C7
  0
LAYER
  5
11729
330
7467
100
AcDbSymbolTableRecord
100
AcDbLayerTableRecord
  2
Ｇ．Ｌ
 70
     0
 62
    30
  6
CONTINUOUS
370
    -3
390
174C7
  0
LAYER
  5
1173F
330
7467
100
AcDbSymbolTableRecord
100
AcDbLayerTableRecord
  2
細線
 70
     0
 62
     5
  6
CONTINUOUS
370
    -3
390
174C7
  0
LAYER
  5
12CC4
330
7467
100
AcDbSymbolTableRecord
100
AcDbLayerTableRecord
  2
想像線
 70
     0
 62
     6
  6
PHANTOM
370
    -3
390
174C7
  0
LAYER
  5
142E2
330
7467
100
AcDbSymbolTableRecord
100
AcDbLayerTableRecord
  2
破線
 70
     0
 62
     2
  6
HIDDEN
370
    -3
390
174C7
  0
ENDTAB
  0
TABLE
  2
STYLE
  5
7468
330
0
100
AcDbSymbolTable
 70
     7
  0
STYLE
  5
7475
330
7468
100
AcDbSymbolTableRecord
100
AcDbTextStyleTableRecord
  2
STANDARD
 70
     0
 40
0.0
 41
1.0
 50
0.0
 71
     0
 42
4.0
  3
txt
  4
C:\AutoCAD LT\bigfont.shx
  0
STYLE
  5
763C
330
7468
100
AcDbSymbolTableRecord
100
AcDbTextStyleTableRecord
  2
MSMINCHO
 70
     0
 40
0.0
 41
1.0
 50
0.0
 71
     0
 42
1.199999999999999
  3
C:\AutoCAD LT\msminch2.TTF
  4

  0
STYLE
  5
F706
330
7468
100
AcDbSymbolTableRecord
100
AcDbTextStyleTableRecord
  2
STYLE1
 70
     0
 40
0.0
 41
1.0
 50
0.0
 71
     0
 42
4.0
  3
isocp.shx
  4
bigfont.shx
  0
STYLE
  5
103BF
330
7468
100
AcDbSymbolTableRecord
100
AcDbTextStyleTableRecord
  2
STYLE2
 70
     0
 40
0.0
 41
1.0
 50
0.0
 71
     0
 42
100.0
  3
MS PGothic.ttf
  4

1001
ACAD
1000
MS PGothic
1071
    32818
  0
STYLE
  5
10BAA
330
7468
100
AcDbSymbolTableRecord
100
AcDbTextStyleTableRecord
  2
STYLE3
 70
     0
 40
0.0
 41
1.0
 50
0.0
 71
     0
 42
100.0
  3

  4

1001
ACAD
1000
DFPGothic-EB
1071
    32818
  0
STYLE
  5
11A15
330
7468
100
AcDbSymbolTableRecord
100
AcDbTextStyleTableRecord
  2
MSGOTHIC
 70
     0
 40
0.0
 41
1.0
 50
0.0
 71
     0
 42
3.5
  3
msgothi2.ttf
  4

  0
STYLE
  5
13E96
330
7468
100
AcDbSymbolTableRecord
100
AcDbTextStyleTableRecord
  2
MSPゴシック
 70
     0
 40
0.0
 41
1.0
 50
0.0
 71
     0
 42
4.0
  3
MS PGothic.ttf
  4

1001
ACAD
1000
MS PGothic
1071
    32818
  0
ENDTAB
  0
TABLE
  2
VIEW
  5
746B
330
0
100
AcDbSymbolTable
 70
     0
  0
ENDTAB
  0
TABLE
  2
UCS
  5
746C
330
0
100
AcDbSymbolTable
 70
     0
  0
ENDTAB
  0
TABLE
  2
APPID
  5
746E
330
0
100
AcDbSymbolTable
 70
     6
  0
APPID
  5
7476
330
746E
100
AcDbSymbolTableRecord
100
AcDbRegAppTableRecord
  2
ACAD
 70
     0
  0
APPID
  5
DEA9
330
746E
100
AcDbSymbolTableRecord
100
AcDbRegAppTableRecord
  2
CONTENTBLOCKICON
 70
     0
  0
APPID
  5
DEAA
330
746E
100
AcDbSymbolTableRecord
100
AcDbRegAppTableRecord
  2
CONTENTBLOCKDESCRIPTION
 70
     0
  0
APPID
  5
E71D
330
746E
100
AcDbSymbolTableRecord
100
AcDbRegAppTableRecord
  2
CONTENTTABDATA
 70
     0
  0
APPID
  5
E71E
330
746E
100
AcDbSymbolTableRecord
100
AcDbRegAppTableRecord
  2
CONTENTCURRENTTAB
 70
     0
  0
APPID
  5
F3BA
330
746E
100
AcDbSymbolTableRecord
100
AcDbRegAppTableRecord
  2
DRAWINGVARIABLESXDATA
 70
     0
  0
ENDTAB
  0
TABLE
  2
DIMSTYLE
  5
746F
330
0
100
AcDbSymbolTable
 70
     7
100
AcDbDimStyleTable
 71
     0
  0
DIMSTYLE
105
7484
330
746F
100
AcDbSymbolTableRecord
100
AcDbDimStyleTableRecord
  2
JIS
 70
     0
 41
2.5
 42
1.0
 43
7.0
 44
1.0
 73
     0
 74
     0
 77
     1
 78
     8
140
2.5
141
0.0
143
0.0394
147
0.0
172
     1
174
     1
175
     1
340
7475
  0
DIMSTYLE
105
F236
102
{ACAD_REACTORS
330
18810
330
18FDE
330
19299
102
}
330
746F
100
AcDbSymbolTableRecord
100
AcDbDimStyleTableRecord
  2
INABA_S40
 70
     0
 40
40.0
 41
2.5
 42
0.5
 43
7.0
 44
1.5
 73
     0
 74
     0
 77
     3
 78
     8
140
3.0
141
0.0
143
0.0394
147
1.0
172
     1
173
     1
174
     1
175
     1
178
     7
289
     0
340
7475
341
DEAC
343
DEAC
344
DEAC
  0
DIMSTYLE
105
F71F
102
{ACAD_REACTORS
330
17955
330
17957
330
17958
330
17959
330
1795A
330
1795B
330
17975
330
17977
330
1798B
330
1798D
330
1799B
330
179C7
330
17B49
330
17B4A
330
17B4B
330
17B5A
330
18841
330
18842
330
18848
330
18849
330
1884A
330
18871
330
18880
330
18881
330
18885
330
18889
330
1888A
330
1888B
330
19298
330
193AF
102
}
330
746F
100
AcDbSymbolTableRecord
100
AcDbDimStyleTableRecord
  2
INABA_S40G
 70
     0
 40
40.0
 41
2.5
 42
0.5
 43
7.0
 44
1.5
 73
     0
 74
     0
 77
     3
 78
     8
140
3.0
141
0.0
143
0.0394
147
1.0
172
     1
173
     1
174
     1
178
     7
271
     1
340
F706
341
F770
343
F770
344
F770
  0
DIMSTYLE
105
142E3
330
746F
100
AcDbSymbolTableRecord
100
AcDbDimStyleTableRecord
  2
INABA_S1
 70
     0
 40
0.0
 41
2.5
 42
0.5
 43
7.0
 44
1.5
 73
     0
 74
     0
 77
     3
 78
     8
140
3.0
141
0.0
143
0.0394
146
0.5
147
0.5
172
     1
173
     1
176
   256
177
   256
178
     7
271
     2
272
     2
284
     8
288
     1
340
7475
341
DEAC
343
DEAC
344
DEAC
  0
DIMSTYLE
105
14463
330
746F
100
AcDbSymbolTableRecord
100
AcDbDimStyleTableRecord
  2
INABA_S30G
 70
     0
 40
30.0
 41
2.5
 42
0.5
 43
7.0
 44
1.5
 73
     0
 74
     0
 77
     3
 78
     8
140
3.0
141
0.0
143
0.0394
147
1.0
172
     1
173
     1
174
     1
175
     1
178
     7
271
     1
340
F706
341
F770
343
F770
344
F770
  0
DIMSTYLE
105
18ED4
330
746F
100
AcDbSymbolTableRecord
100
AcDbDimStyleTableRecord
  2
INABA_S50G
 70
     0
 41
125.0
 42
25.0
 43
7.0
 44
75.0
 73
     0
 74
     0
 77
     3
 78
     8
140
150.0
141
0.0
143
0.0394
147
25.0
172
     1
173
     1
174
     1
175
     1
178
     7
271
     1
340
F706
341
F770
343
F770
344
F770
  0
DIMSTYLE
105
1956F
330
746F
100
AcDbSymbolTableRecord
100
AcDbDimStyleTableRecord
  2
INABA_S20G
 70
     0
 40
20.0
 41
2.5
 42
0.5
 43
7.0
 44
1.5
 73
     0
 74
     0
 77
     3
 78
     8
140
3.0
141
0.0
143
0.0394
147
1.0
172
     1
173
     1
174
     1
178
     7
271
     1
340
F706
341
F770
343
F770
344
F770
  0
ENDTAB
  0
TABLE
  2
BLOCK_RECORD
  5
7466
330
0
100
AcDbSymbolTable
 70
    36
  0
BLOCK_RECORD
  5
747D
330
7466
100
AcDbSymbolTableRecord
100
AcDbBlockTableRecord
  2
*MODEL_SPACE
340
174CC
  0
BLOCK_RECORD
  5
747A
330
7466
100
AcDbSymbolTableRecord
100
AcDbBlockTableRecord
  2
*PAPER_SPACE
340
174CD
  0
BLOCK_RECORD
  5
DEAC
330
7466
100
AcDbSymbolTableRecord
100
AcDbBlockTableRecord
  2
_OPEN
340
0
  0
BLOCK_RECORD
  5
F770
330
7466
100
AcDbSymbolTableRecord
100
AcDbBlockTableRecord
  2
_DOTSMALL
340
0
102
{BLKREFS
331
181D6
331
181D7
331
181DF
331
181E0
331
181EA
331
181EB
331
1820E
331
1820F
331
18241
331
18242
331
18272
331
18273
331
1827B
331
1827C
331
18284
331
18285
331
1828D
331
1828E
331
182A8
331
182A9
331
182B3
331
182B4
331
182C7
331
182C8
331
182D0
331
182D1
331
182DB
331
182DC
331
182E6
331
182E7
331
182F1
331
182F2
331
18E15
331
18E16
331
18E1F
331
18E20
331
18E29
331
18E2A
331
18E34
331
18E35
331
18E46
331
18E47
331
18E4F
331
18E50
331
18E58
331
18E59
331
18E61
331
18E62
331
18E6A
331
18E6B
331
18E74
331
18E75
331
18E7D
331
18E7E
331
18E88
331
18E89
331
19510
331
19511
331
19519
331
1951A
102
}
  0
BLOCK_RECORD
  5
164B4
330
7466
100
AcDbSymbolTableRecord
100
AcDbBlockTableRecord
  2
_DOT
340
0
102
{BLKREFS
331
18E3D
331
18E3E
331
190A0
331
190A1
331
19524
331
19525
102
}
  0
BLOCK_RECORD
  5
17BFF
330
7466
100
AcDbSymbolTableRecord
100
AcDbBlockTableRecord
  2
*D3
340
0
  0
BLOCK_RECORD
  5
17C0B
330
7466
100
AcDbSymbolTableRecord
100
AcDbBlockTableRecord
  2
*D4
340
0
  0
BLOCK_RECORD
  5
17C17
330
7466
100
AcDbSymbolTableRecord
100
AcDbBlockTableRecord
  2
*D5
340
0
  0
BLOCK_RECORD
  5
17C23
330
7466
100
AcDbSymbolTableRecord
100
AcDbBlockTableRecord
  2
*D6
340
0
  0
BLOCK_RECORD
  5
17C31
330
7466
100
AcDbSymbolTableRecord
100
AcDbBlockTableRecord
  2
*D7
340
0
  0
BLOCK_RECORD
  5
17C3F
330
7466
100
AcDbSymbolTableRecord
100
AcDbBlockTableRecord
  2
*D8
340
0
  0
BLOCK_RECORD
  5
17C59
330
7466
100
AcDbSymbolTableRecord
100
AcDbBlockTableRecord
  2
*D9
340
0
  0
BLOCK_RECORD
  5
17C67
330
7466
100
AcDbSymbolTableRecord
100
AcDbBlockTableRecord
  2
*D10
340
0
  0
BLOCK_RECORD
  5
17C73
330
7466
100
AcDbSymbolTableRecord
100
AcDbBlockTableRecord
  2
*D11
340
0
  0
BLOCK_RECORD
  5
17C7F
330
7466
100
AcDbSymbolTableRecord
100
AcDbBlockTableRecord
  2
*D12
340
0
  0
BLOCK_RECORD
  5
17C8B
330
7466
100
AcDbSymbolTableRecord
100
AcDbBlockTableRecord
  2
*D13
340
0
  0
BLOCK_RECORD
  5
17C97
330
7466
100
AcDbSymbolTableRecord
100
AcDbBlockTableRecord
  2
*D14
340
0
  0
BLOCK_RECORD
  5
17D61
330
7466
100
AcDbSymbolTableRecord
100
AcDbBlockTableRecord
  2
*D15
340
0
  0
BLOCK_RECORD
  5
17D6D
330
7466
100
AcDbSymbolTableRecord
100
AcDbBlockTableRecord
  2
*D16
340
0
  0
BLOCK_RECORD
  5
17D79
330
7466
100
AcDbSymbolTableRecord
100
AcDbBlockTableRecord
  2
*D17
340
0
  0
BLOCK_RECORD
  5
17D87
330
7466
100
AcDbSymbolTableRecord
100
AcDbBlockTableRecord
  2
*D18
340
0
  0
BLOCK_RECORD
  5
18ACC
330
7466
100
AcDbSymbolTableRecord
100
AcDbBlockTableRecord
  2
*D19
340
0
  0
BLOCK_RECORD
  5
18AD8
330
7466
100
AcDbSymbolTableRecord
100
AcDbBlockTableRecord
  2
*D20
340
0
  0
BLOCK_RECORD
  5
18AE5
330
7466
100
AcDbSymbolTableRecord
100
AcDbBlockTableRecord
  2
*D21
340
0
  0
BLOCK_RECORD
  5
18AF3
330
7466
100
AcDbSymbolTableRecord
100
AcDbBlockTableRecord
  2
*D22
340
0
  0
BLOCK_RECORD
  5
18AFF
330
7466
100
AcDbSymbolTableRecord
100
AcDbBlockTableRecord
  2
*D23
340
0
  0
BLOCK_RECORD
  5
18B0D
330
7466
100
AcDbSymbolTableRecord
100
AcDbBlockTableRecord
  2
*D24
340
0
  0
BLOCK_RECORD
  5
18B19
330
7466
100
AcDbSymbolTableRecord
100
AcDbBlockTableRecord
  2
*D25
340
0
  0
BLOCK_RECORD
  5
18B26
330
7466
100
AcDbSymbolTableRecord
100
AcDbBlockTableRecord
  2
*D26
340
0
  0
BLOCK_RECORD
  5
18B33
330
7466
100
AcDbSymbolTableRecord
100
AcDbBlockTableRecord
  2
*D27
340
0
  0
BLOCK_RECORD
  5
18B3F
330
7466
100
AcDbSymbolTableRecord
100
AcDbBlockTableRecord
  2
*D28
340
0
  0
BLOCK_RECORD
  5
18B4B
330
7466
100
AcDbSymbolTableRecord
100
AcDbBlockTableRecord
  2
*D29
340
0
  0
BLOCK_RECORD
  5
18B57
330
7466
100
AcDbSymbolTableRecord
100
AcDbBlockTableRecord
  2
*D30
340
0
  0
BLOCK_RECORD
  5
18B63
330
7466
100
AcDbSymbolTableRecord
100
AcDbBlockTableRecord
  2
*D31
340
0
  0
BLOCK_RECORD
  5
19049
330
7466
100
AcDbSymbolTableRecord
100
AcDbBlockTableRecord
  2
*D32
340
0
  0
BLOCK_RECORD
  5
193BE
330
7466
100
AcDbSymbolTableRecord
100
AcDbBlockTableRecord
  2
*D33
340
0
  0
BLOCK_RECORD
  5
193CA
330
7466
100
AcDbSymbolTableRecord
100
AcDbBlockTableRecord
  2
*D34
340
0
  0
BLOCK_RECORD
  5
1942E
330
7466
100
AcDbSymbolTableRecord
100
AcDbBlockTableRecord
  2
*D35
340
0
  0
ENDTAB
  0
ENDSEC
  0
SECTION
  2
BLOCKS
  0
BLOCK
  5
7489
330
747D
100
AcDbEntity
  8
0
100
AcDbBlockBegin
  2
*MODEL_SPACE
 70
     0
 10
0.0
 20
0.0
 30
0.0
  3
*MODEL_SPACE
  1

  0
ENDBLK
  5
748A
330
747D
100
AcDbEntity
  8
0
100
AcDbBlockEnd
  0
BLOCK
  5
7487
330
747A
100
AcDbEntity
 67
     1
  8
0
100
AcDbBlockBegin
  2
*PAPER_SPACE
 70
     0
 10
0.0
 20
0.0
 30
0.0
  3
*PAPER_SPACE
  1

  0
ENDBLK
  5
7488
330
747A
100
AcDbEntity
 67
     1
  8
0
100
AcDbBlockEnd
  0
BLOCK
  5
DEAD
330
DEAC
100
AcDbEntity
  8
0
100
AcDbBlockBegin
  2
_OPEN
 70
     0
 10
0.0
 20
0.0
 30
0.0
  3
_OPEN
  1

  0
LINE
  5
DEAE
330
DEAC
100
AcDbEntity
  8
0
  6
ByBlock
 62
     0
100
AcDbLine
 10
-1.0
 20
0.1666666666666666
 30
0.0
 11
0.0
 21
0.0
 31
0.0
  0
LINE
  5
DEAF
330
DEAC
100
AcDbEntity
  8
0
  6
ByBlock
 62
     0
100
AcDbLine
 10
0.0
 20
0.0
 30
0.0
 11
-1.0
 21
-0.1666666666666666
 31
0.0
  0
LINE
  5
DEB0
330
DEAC
100
AcDbEntity
  8
0
  6
ByBlock
 62
     0
100
AcDbLine
 10
0.0
 20
0.0
 30
0.0
 11
-1.0
 21
0.0
 31
0.0
  0
ENDBLK
  5
DEB1
330
DEAC
100
AcDbEntity
  8
0
100
AcDbBlockEnd
  0
BLOCK
  5
F771
330
F770
100
AcDbEntity
  8
0
 48
50.0
100
AcDbBlockBegin
  2
_DOTSMALL
 70
     0
 10
0.0
 20
0.0
 30
0.0
  3
_DOTSMALL
  1

  0
LWPOLYLINE
  5
F772
330
F770
100
AcDbEntity
  8
0
  6
ByBlock
 62
     0
 48
50.0
100
AcDbPolyline
 90
        2
 70
     1
 43
0.5
 10
-0.0625
 20
0.0
 42
1.0
 10
0.0625
 20
0.0
 42
1.0
  0
ENDBLK
  5
F776
330
F770
100
AcDbEntity
  8
0
 48
50.0
100
AcDbBlockEnd
  0
BLOCK
  5
164BA
330
164B4
100
AcDbEntity
  8
0
 48
50.0
100
AcDbBlockBegin
  2
_DOT
 70
     0
 10
0.0
 20
0.0
 30
0.0
  3
_DOT
  1

  0
LWPOLYLINE
  5
164B5
330
164B4
100
AcDbEntity
  8
0
  6
ByBlock
 62
     0
 48
50.0
100
AcDbPolyline
 90
        2
 70
     1
 43
0.5
 10
-0.25
 20
0.0
 42
1.0
 10
0.25
 20
0.0
 42
1.0
  0
LINE
  5
164B9
330
164B4
100
AcDbEntity
  8
0
  6
ByBlock
 62
     0
 48
50.0
100
AcDbLine
 10
-0.5
 20
0.0
 30
0.0
 11
-1.0
 21
0.0
 31
0.0
  0
ENDBLK
  5
164BB
330
164B4
100
AcDbEntity
  8
0
 48
50.0
100
AcDbBlockEnd
  0
BLOCK
  5
17C09
330
17BFF
100
AcDbEntity
  8
0
 48
50.0
100
AcDbBlockBegin
  2
*D3
 70
     1
 10
0.0
 20
0.0
 30
0.0
  3
*D3
  1

  0
LINE
  5
1820B
330
17BFF
100
AcDbEntity
  8
寸法
 62
     0
 48
50.0
370
    -2
100
AcDbLine
 10
7154.193777925069
 20
1969.51969899155
 30
0.0
 11
7154.193777925069
 21
1643.472369691173
 31
0.0
  0
LINE
  5
1820C
330
17BFF
100
AcDbEntity
  8
寸法
 62
     0
 48
50.0
370
    -2
100
AcDbLine
 10
6954.193777925067
 20
1969.51969899155
 30
0.0
 11
6954.193777925067
 21
1643.472369691173
 31
0.0
  0
LINE
  5
1820D
330
17BFF
100
AcDbEntity
  8
寸法
 62
     0
 48
50.0
370
    -2
100
AcDbLine
 10
7154.193777925069
 20
1703.472369691173
 30
0.0
 11
6954.193777925067
 21
1703.472369691173
 31
0.0
  0
INSERT
  5
1820E
330
17BFF
100
AcDbEntity
  8
寸法
 62
     0
 48
50.0
370
    -2
100
AcDbBlockReference
  2
_DOTSMALL
 10
7154.193777925069
 20
1703.472369691173
 30
0.0
 41
100.0
 42
100.0
 43
100.0
  0
INSERT
  5
1820F
330
17BFF
100
AcDbEntity
  8
寸法
 62
     0
 48
50.0
370
    -2
100
AcDbBlockReference
  2
_DOTSMALL
 10
6954.193777925067
 20
1703.472369691173
 30
0.0
 41
100.0
 42
100.0
 43
100.0
 50
180.0
  0
MTEXT
  5
18210
330
17BFF
100
AcDbEntity
  8
寸法
 62
     7
 48
50.0
100
AcDbMText
 10
7054.193777925068
 20
1803.484180714795
 30
0.0
 40
120.0
 41
0.0
 71
     5
 72
     1
  1
\A1;200
  7
STYLE1
 73
     1
 44
1.0
1001
ACAD
1000
MTEXTBEGIN
1070
    73
1070
     1
1070
    44
1040
1.0
1070
    74
1070
     0
1000
MTEXTEND
  0
POINT
  5
18211
330
17BFF
100
AcDbEntity
  8
DEFPOINTS
 62
     0
 48
50.0
100
AcDbPoint
 10
7154.193777925069
 20
1989.51969899155
 30
0.0
  0
POINT
  5
18212
330
17BFF
100
AcDbEntity
  8
DEFPOINTS
 62
     0
 48
50.0
100
AcDbPoint
 10
6954.193777925067
 20
1989.51969899155
 30
0.0
  0
POINT
  5
18213
330
17BFF
100
AcDbEntity
  8
DEFPOINTS
 62
     0
 48
50.0
100
AcDbPoint
 10
6954.193777925067
 20
1703.472369691173
 30
0.0
  0
ENDBLK
  5
17C0A
330
17BFF
100
AcDbEntity
  8
0
 48
50.0
100
AcDbBlockEnd
  0
BLOCK
  5
17C15
330
17C0B
100
AcDbEntity
  8
0
 48
50.0
100
AcDbBlockBegin
  2
*D4
 70
     1
 10
0.0
 20
0.0
 30
0.0
  3
*D4
  1

  0
LINE
  5
18278
330
17C0B
100
AcDbEntity
  8
寸法
 62
     0
 48
50.0
370
    -2
100
AcDbLine
 10
7074.193777925076
 20
9701.068732668215
 30
0.0
 11
8126.727065399125
 21
9701.068732668215
 31
0.0
  0
LINE
  5
18279
330
17C0B
100
AcDbEntity
  8
寸法
 62
     0
 48
50.0
370
    -2
100
AcDbLine
 10
7074.19377792505
 20
7491.068732668208
 30
0.0
 11
8126.727065399125
 21
7491.068732668208
 31
0.0
  0
LINE
  5
1827A
330
17C0B
100
AcDbEntity
  8
寸法
 62
     0
 48
50.0
370
    -2
100
AcDbLine
 10
8066.727065399126
 20
9701.068732668215
 30
0.0
 11
8066.727065399126
 21
7491.068732668208
 31
0.0
  0
INSERT
  5
1827B
330
17C0B
100
AcDbEntity
  8
寸法
 62
     0
 48
50.0
370
    -2
100
AcDbBlockReference
  2
_DOTSMALL
 10
8066.727065399126
 20
9701.068732668215
 30
0.0
 41
100.0
 42
100.0
 43
100.0
 50
90.0
  0
INSERT
  5
1827C
330
17C0B
100
AcDbEntity
  8
寸法
 62
     0
 48
50.0
370
    -2
100
AcDbBlockReference
  2
_DOTSMALL
 10
8066.727065399126
 20
7491.068732668208
 30
0.0
 41
100.0
 42
100.0
 43
100.0
 50
270.0
  0
MTEXT
  5
1827D
330
17C0B
100
AcDbEntity
  8
寸法
 62
     7
 48
50.0
100
AcDbMText
 10
7966.715254375502
 20
8596.068732668211
 30
0.0
 40
120.0
 41
0.0
 71
     5
 72
     1
  1
\A1;2210
  7
STYLE1
 11
0.0000000000000001
 21
1.0
 31
0.0
 73
     1
 44
1.0
1001
ACAD
1000
MTEXTBEGIN
1070
    73
1070
     1
1070
    44
1040
1.0
1070
    74
1070
     0
1000
MTEXTEND
  0
POINT
  5
1827E
330
17C0B
100
AcDbEntity
  8
DEFPOINTS
 62
     0
 48
50.0
100
AcDbPoint
 10
7054.193777925077
 20
9701.068732668215
 30
0.0
  0
POINT
  5
1827F
330
17C0B
100
AcDbEntity
  8
DEFPOINTS
 62
     0
 48
50.0
100
AcDbPoint
 10
7054.193777925052
 20
7491.068732668208
 30
0.0
  0
POINT
  5
18280
330
17C0B
100
AcDbEntity
  8
DEFPOINTS
 62
     0
 48
50.0
100
AcDbPoint
 10
8066.727065399126
 20
7491.068732668208
 30
0.0
  0
ENDBLK
  5
17C16
330
17C0B
100
AcDbEntity
  8
0
 48
50.0
100
AcDbBlockEnd
  0
BLOCK
  5
17C21
330
17C17
100
AcDbEntity
  8
0
 48
50.0
100
AcDbBlockBegin
  2
*D5
 70
     1
 10
0.0
 20
0.0
 30
0.0
  3
*D5
  1

  0
LINE
  5
182CD
330
17C17
100
AcDbEntity
  8
寸法
 62
     0
 48
50.0
370
    -2
100
AcDbLine
 10
3639.193777925077
 20
9721.06873266812
 30
0.0
 11
3639.193777925077
 21
10276.87695229322
 31
0.0
  0
LINE
  5
182CE
330
17C17
100
AcDbEntity
  8
寸法
 62
     0
 48
50.0
370
    -2
100
AcDbLine
 10
6999.193777925076
 20
9721.068732668214
 30
0.0
 11
6999.193777925076
 21
10276.87695229322
 31
0.0
  0
LINE
  5
182CF
330
17C17
100
AcDbEntity
  8
寸法
 62
     0
 48
50.0
370
    -2
100
AcDbLine
 10
3639.193777925077
 20
10216.87695229322
 30
0.0
 11
6999.193777925076
 21
10216.87695229322
 31
0.0
  0
INSERT
  5
182D0
330
17C17
100
AcDbEntity
  8
寸法
 62
     0
 48
50.0
370
    -2
100
AcDbBlockReference
  2
_DOTSMALL
 10
3639.193777925077
 20
10216.87695229322
 30
0.0
 41
100.0
 42
100.0
 43
100.0
 50
180.0
  0
INSERT
  5
182D1
330
17C17
100
AcDbEntity
  8
寸法
 62
     0
 48
50.0
370
    -2
100
AcDbBlockReference
  2
_DOTSMALL
 10
6999.193777925076
 20
10216.87695229322
 30
0.0
 41
100.0
 42
100.0
 43
100.0
  0
MTEXT
  5
182D2
330
17C17
100
AcDbEntity
  8
寸法
 62
     7
 48
50.0
100
AcDbMText
 10
5319.193777925075
 20
10316.88876331684
 30
0.0
 40
120.0
 41
0.0
 71
     5
 72
     1
  1
\A1;8X420=3360
  7
STYLE1
 73
     1
 44
1.0
1001
ACAD
1000
MTEXTBEGIN
1070
    73
1070
     1
1070
    44
1040
1.0
1070
    74
1070
     0
1000
MTEXTEND
  0
POINT
  5
182D3
330
17C17
100
AcDbEntity
  8
DEFPOINTS
 62
     0
 48
50.0
100
AcDbPoint
 10
3639.193777925077
 20
9701.068732668121
 30
0.0
  0
POINT
  5
182D4
330
17C17
100
AcDbEntity
  8
DEFPOINTS
 62
     0
 48
50.0
100
AcDbPoint
 10
6999.193777925076
 20
9701.068732668215
 30
0.0
  0
POINT
  5
182D5
330
17C17
100
AcDbEntity
  8
DEFPOINTS
 62
     0
 48
50.0
100
AcDbPoint
 10
6999.193777925076
 20
10216.87695229322
 30
0.0
  0
ENDBLK
  5
17C22
330
17C17
100
AcDbEntity
  8
0
 48
50.0
100
AcDbBlockEnd
  0
BLOCK
  5
17C2F
330
17C23
100
AcDbEntity
  8
0
 48
50.0
100
AcDbBlockBegin
  2
*D6
 70
     1
 10
0.0
 20
0.0
 30
0.0
  3
*D6
  1

  0
LINE
  5
182EC
330
17C23
100
AcDbEntity
  8
寸法
 62
     0
 48
50.0
370
    -2
100
AcDbLine
 10
6999.193777925076
 20
9721.068732668214
 30
0.0
 11
6999.193777925076
 21
10276.8769522932
 31
0.0
  0
LINE
  5
182ED
330
17C23
100
AcDbEntity
  8
寸法
 62
     0
 48
50.0
370
    -2
100
AcDbLine
 10
7054.193777925077
 20
9721.068732668214
 30
0.0
 11
7054.193777925077
 21
10276.8769522932
 31
0.0
  0
LINE
  5
182EE
330
17C23
100
AcDbEntity
  8
寸法
 62
     0
 48
50.0
370
    -2
100
AcDbLine
 10
6999.193777925076
 20
10216.8769522932
 30
0.0
 11
6899.193777925076
 21
10216.8769522932
 31
0.0
  0
LINE
  5
182EF
330
17C23
100
AcDbEntity
  8
寸法
 62
     0
 48
50.0
370
    -2
100
AcDbLine
 10
7054.193777925077
 20
10216.8769522932
 30
0.0
 11
7471.164340673555
 21
10216.8769522932
 31
0.0
  0
LINE
  5
182F0
330
17C23
100
AcDbEntity
  8
寸法
 62
     0
 48
50.0
370
    -2
100
AcDbLine
 10
6999.193777925076
 20
10216.8769522932
 30
0.0
 11
7054.193777925077
 21
10216.8769522932
 31
0.0
  0
INSERT
  5
182F1
330
17C23
100
AcDbEntity
  8
寸法
 62
     0
 48
50.0
370
    -2
100
AcDbBlockReference
  2
_DOTSMALL
 10
6999.193777925076
 20
10216.8769522932
 30
0.0
 41
100.0
 42
100.0
 43
100.0
  0
INSERT
  5
182F2
330
17C23
100
AcDbEntity
  8
寸法
 62
     0
 48
50.0
370
    -2
100
AcDbBlockReference
  2
_DOTSMALL
 10
7054.193777925077
 20
10216.8769522932
 30
0.0
 41
100.0
 42
100.0
 43
100.0
 50
180.0
  0
MTEXT
  5
182F3
330
17C23
100
AcDbEntity
  8
寸法
 62
     7
 48
50.0
100
AcDbMText
 10
7362.679059299314
 20
10316.8769522932
 30
0.0
 40
120.0
 41
0.0
 71
     5
 72
     1
  1
\A1;55
  7
STYLE1
 73
     1
 44
1.0
1001
ACAD
1000
MTEXTBEGIN
1070
    73
1070
     1
1070
    44
1040
1.0
1070
    74
1070
     0
1000
MTEXTEND
  0
POINT
  5
182F4
330
17C23
100
AcDbEntity
  8
DEFPOINTS
 62
     0
 48
50.0
100
AcDbPoint
 10
6999.193777925076
 20
9701.068732668215
 30
0.0
  0
POINT
  5
182F5
330
17C23
100
AcDbEntity
  8
DEFPOINTS
 62
     0
 48
50.0
100
AcDbPoint
 10
7054.193777925077
 20
9701.068732668215
 30
0.0
  0
POINT
  5
182F6
330
17C23
100
AcDbEntity
  8
DEFPOINTS
 62
     0
 48
50.0
100
AcDbPoint
 10
7054.193777925077
 20
10216.8769522932
 30
0.0
  0
ENDBLK
  5
17C30
330
17C23
100
AcDbEntity
  8
0
 48
50.0
100
AcDbBlockEnd
  0
BLOCK
  5
17C3D
330
17C31
100
AcDbEntity
  8
0
 48
50.0
100
AcDbBlockBegin
  2
*D7
 70
     1
 10
0.0
 20
0.0
 30
0.0
  3
*D7
  1

  0
LINE
  5
182E1
330
17C31
100
AcDbEntity
  8
寸法
 62
     0
 48
50.0
370
    -2
100
AcDbLine
 10
7074.193777925076
 20
9701.068732668215
 30
0.0
 11
7761.620123659487
 21
9701.068732668215
 31
0.0
  0
LINE
  5
182E2
330
17C31
100
AcDbEntity
  8
寸法
 62
     0
 48
50.0
370
    -2
100
AcDbLine
 10
7074.193777925076
 20
9646.068732668219
 30
0.0
 11
7761.620123659487
 21
9646.068732668219
 31
0.0
  0
LINE
  5
182E3
330
17C31
100
AcDbEntity
  8
寸法
 62
     0
 48
50.0
370
    -2
100
AcDbLine
 10
7701.620123659487
 20
9646.068732668219
 30
0.0
 11
7701.620123659487
 21
9546.068732668219
 31
0.0
  0
LINE
  5
182E4
330
17C31
100
AcDbEntity
  8
寸法
 62
     0
 48
50.0
370
    -2
100
AcDbLine
 10
7701.620123659487
 20
9701.068732668215
 30
0.0
 11
7701.620123659487
 21
10118.03929541669
 31
0.0
  0
LINE
  5
182E5
330
17C31
100
AcDbEntity
  8
寸法
 62
     0
 48
50.0
370
    -2
100
AcDbLine
 10
7701.620123659487
 20
9646.068732668219
 30
0.0
 11
7701.620123659487
 21
9701.068732668215
 31
0.0
  0
INSERT
  5
182E6
330
17C31
100
AcDbEntity
  8
寸法
 62
     0
 48
50.0
370
    -2
100
AcDbBlockReference
  2
_DOTSMALL
 10
7701.620123659487
 20
9646.068732668219
 30
0.0
 41
100.0
 42
100.0
 43
100.0
 50
90.0
  0
INSERT
  5
182E7
330
17C31
100
AcDbEntity
  8
寸法
 62
     0
 48
50.0
370
    -2
100
AcDbBlockReference
  2
_DOTSMALL
 10
7701.620123659487
 20
9701.068732668215
 30
0.0
 41
100.0
 42
100.0
 43
100.0
 50
270.0
  0
MTEXT
  5
182E8
330
17C31
100
AcDbEntity
  8
寸法
 62
     7
 48
50.0
100
AcDbMText
 10
7601.620123659486
 20
10009.55401404245
 30
0.0
 40
120.0
 41
0.0
 71
     5
 72
     1
  1
\A1;55
  7
STYLE1
 11
0.0000000000000001
 21
1.0
 31
0.0
 73
     1
 44
1.0
1001
ACAD
1000
MTEXTBEGIN
1070
    73
1070
     1
1070
    44
1040
1.0
1070
    74
1070
     0
1000
MTEXTEND
  0
POINT
  5
182E9
330
17C31
100
AcDbEntity
  8
DEFPOINTS
 62
     0
 48
50.0
100
AcDbPoint
 10
7054.193777925077
 20
9701.068732668215
 30
0.0
  0
POINT
  5
182EA
330
17C31
100
AcDbEntity
  8
DEFPOINTS
 62
     0
 48
50.0
100
AcDbPoint
 10
7054.193777925077
 20
9646.068732668219
 30
0.0
  0
POINT
  5
182EB
330
17C31
100
AcDbEntity
  8
DEFPOINTS
 62
     0
 48
50.0
100
AcDbPoint
 10
7701.620123659487
 20
9646.068732668219
 30
0.0
  0
ENDBLK
  5
17C3E
330
17C31
100
AcDbEntity
  8
0
 48
50.0
100
AcDbBlockEnd
  0
BLOCK
  5
17C4B
330
17C3F
100
AcDbEntity
  8
0
 48
50.0
100
AcDbBlockBegin
  2
*D8
 70
     1
 10
0.0
 20
0.0
 30
0.0
  3
*D8
  1

  0
LINE
  5
182D6
330
17C3F
100
AcDbEntity
  8
寸法
 62
     0
 48
50.0
370
    -2
100
AcDbLine
 10
3584.19377792504
 20
9721.06873266812
 30
0.0
 11
3584.19377792504
 21
10276.8769522931
 31
0.0
  0
LINE
  5
182D7
330
17C3F
100
AcDbEntity
  8
寸法
 62
     0
 48
50.0
370
    -2
100
AcDbLine
 10
3639.193777925077
 20
9721.06873266812
 30
0.0
 11
3639.193777925077
 21
10276.8769522931
 31
0.0
  0
LINE
  5
182D8
330
17C3F
100
AcDbEntity
  8
寸法
 62
     0
 48
50.0
370
    -2
100
AcDbLine
 10
3639.193777925077
 20
10216.8769522931
 30
0.0
 11
3739.193777925077
 21
10216.8769522931
 31
0.0
  0
LINE
  5
182D9
330
17C3F
100
AcDbEntity
  8
寸法
 62
     0
 48
50.0
370
    -2
100
AcDbLine
 10
3584.19377792504
 20
10216.8769522931
 30
0.0
 11
3167.223215176562
 21
10216.8769522931
 31
0.0
  0
LINE
  5
182DA
330
17C3F
100
AcDbEntity
  8
寸法
 62
     0
 48
50.0
370
    -2
100
AcDbLine
 10
3639.193777925077
 20
10216.8769522931
 30
0.0
 11
3584.19377792504
 21
10216.8769522931
 31
0.0
  0
INSERT
  5
182DB
330
17C3F
100
AcDbEntity
  8
寸法
 62
     0
 48
50.0
370
    -2
100
AcDbBlockReference
  2
_DOTSMALL
 10
3639.193777925077
 20
10216.8769522931
 30
0.0
 41
100.0
 42
100.0
 43
100.0
 50
180.0
  0
INSERT
  5
182DC
330
17C3F
100
AcDbEntity
  8
寸法
 62
     0
 48
50.0
370
    -2
100
AcDbBlockReference
  2
_DOTSMALL
 10
3584.19377792504
 20
10216.8769522931
 30
0.0
 41
100.0
 42
100.0
 43
100.0
  0
MTEXT
  5
182DD
330
17C3F
100
AcDbEntity
  8
寸法
 62
     7
 48
50.0
100
AcDbMText
 10
3275.7084965508
 20
10316.8769522931
 30
0.0
 40
120.0
 41
0.0
 71
     5
 72
     1
  1
\A1;55
  7
STYLE1
 73
     1
 44
1.0
1001
ACAD
1000
MTEXTBEGIN
1070
    73
1070
     1
1070
    44
1040
1.0
1070
    74
1070
     0
1000
MTEXTEND
  0
POINT
  5
182DE
330
17C3F
100
AcDbEntity
  8
DEFPOINTS
 62
     0
 48
50.0
100
AcDbPoint
 10
3584.19377792504
 20
9701.068732668121
 30
0.0
  0
POINT
  5
182DF
330
17C3F
100
AcDbEntity
  8
DEFPOINTS
 62
     0
 48
50.0
100
AcDbPoint
 10
3639.193777925077
 20
9701.068732668121
 30
0.0
  0
POINT
  5
182E0
330
17C3F
100
AcDbEntity
  8
DEFPOINTS
 62
     0
 48
50.0
100
AcDbPoint
 10
3639.193777925077
 20
10216.8769522931
 30
0.0
  0
ENDBLK
  5
17C4C
330
17C3F
100
AcDbEntity
  8
0
 48
50.0
100
AcDbBlockEnd
  0
BLOCK
  5
17C65
330
17C59
100
AcDbEntity
  8
0
 48
50.0
100
AcDbBlockBegin
  2
*D9
 70
     1
 10
0.0
 20
0.0
 30
0.0
  3
*D9
  1

  0
LINE
  5
182AE
330
17C59
100
AcDbEntity
  8
寸法
 62
     0
 48
50.0
370
    -2
100
AcDbLine
 10
7074.19377792505
 20
7546.068732668203
 30
0.0
 11
7761.620123659461
 21
7546.068732668203
 31
0.0
  0
LINE
  5
182AF
330
17C59
100
AcDbEntity
  8
寸法
 62
     0
 48
50.0
370
    -2
100
AcDbLine
 10
7074.19377792505
 20
7491.068732668208
 30
0.0
 11
7761.620123659461
 21
7491.068732668208
 31
0.0
  0
LINE
  5
182B0
330
17C59
100
AcDbEntity
  8
寸法
 62
     0
 48
50.0
370
    -2
100
AcDbLine
 10
7701.620123659463
 20
7546.068732668203
 30
0.0
 11
7701.620123659463
 21
7646.068732668203
 31
0.0
  0
LINE
  5
182B1
330
17C59
100
AcDbEntity
  8
寸法
 62
     0
 48
50.0
370
    -2
100
AcDbLine
 10
7701.620123659463
 20
7491.068732668208
 30
0.0
 11
7701.620123659463
 21
7074.098169919728
 31
0.0
  0
LINE
  5
182B2
330
17C59
100
AcDbEntity
  8
寸法
 62
     0
 48
50.0
370
    -2
100
AcDbLine
 10
7701.620123659463
 20
7546.068732668203
 30
0.0
 11
7701.620123659463
 21
7491.068732668208
 31
0.0
  0
INSERT
  5
182B3
330
17C59
100
AcDbEntity
  8
寸法
 62
     0
 48
50.0
370
    -2
100
AcDbBlockReference
  2
_DOTSMALL
 10
7701.620123659463
 20
7546.068732668203
 30
0.0
 41
100.0
 42
100.0
 43
100.0
 50
270.0
  0
INSERT
  5
182B4
330
17C59
100
AcDbEntity
  8
寸法
 62
     0
 48
50.0
370
    -2
100
AcDbBlockReference
  2
_DOTSMALL
 10
7701.620123659463
 20
7491.068732668208
 30
0.0
 41
100.0
 42
100.0
 43
100.0
 50
90.0
  0
MTEXT
  5
182B5
330
17C59
100
AcDbEntity
  8
寸法
 62
     7
 48
50.0
100
AcDbMText
 10
7601.620123659461
 20
7182.583451293968
 30
0.0
 40
120.0
 41
0.0
 71
     5
 72
     1
  1
\A1;55
  7
STYLE1
 11
0.0000000000000001
 21
1.0
 31
0.0
 73
     1
 44
1.0
1001
ACAD
1000
MTEXTBEGIN
1070
    73
1070
     1
1070
    44
1040
1.0
1070
    74
1070
     0
1000
MTEXTEND
  0
POINT
  5
182B6
330
17C59
100
AcDbEntity
  8
DEFPOINTS
 62
     0
 48
50.0
100
AcDbPoint
 10
7054.193777925052
 20
7546.068732668203
 30
0.0
  0
POINT
  5
182B7
330
17C59
100
AcDbEntity
  8
DEFPOINTS
 62
     0
 48
50.0
100
AcDbPoint
 10
7054.193777925052
 20
7491.068732668208
 30
0.0
  0
POINT
  5
182B8
330
17C59
100
AcDbEntity
  8
DEFPOINTS
 62
     0
 48
50.0
100
AcDbPoint
 10
7701.620123659463
 20
7491.068732668208
 30
0.0
  0
ENDBLK
  5
17C66
330
17C59
100
AcDbEntity
  8
0
 48
50.0
100
AcDbBlockEnd
  0
BLOCK
  5
17C71
330
17C67
100
AcDbEntity
  8
0
 48
50.0
100
AcDbBlockBegin
  2
*D10
 70
     1
 10
0.0
 20
0.0
 30
0.0
  3
*D10
  1

  0
LINE
  5
182C4
330
17C67
100
AcDbEntity
  8
寸法
 62
     0
 48
50.0
370
    -2
100
AcDbLine
 10
5957.334794076454
 20
9201.068732668225
 30
0.0
 11
5889.381153380742
 21
8947.462293032549
 31
0.0
  0
LINE
  5
182C5
330
17C67
100
AcDbEntity
  8
寸法
 62
     0
 48
50.0
370
    -2
100
AcDbLine
 10
7020.334794076465
 20
9201.068732668218
 30
0.0
 11
6952.381153380755
 21
8947.462293032549
 31
0.0
  0
LINE
  5
182C6
330
17C67
100
AcDbEntity
  8
寸法
 62
     0
 48
50.0
370
    -2
100
AcDbLine
 10
5905.458104926609
 20
9007.462293032547
 30
0.0
 11
6968.458104926622
 21
9007.462293032547
 31
0.0
  0
INSERT
  5
182C7
330
17C67
100
AcDbEntity
  8
寸法
 62
     0
 48
50.0
370
    -2
100
AcDbBlockReference
  2
_DOTSMALL
 10
5905.458104926609
 20
9007.462293032547
 30
0.0
 41
100.0
 42
100.0
 43
100.0
 50
180.0
  0
INSERT
  5
182C8
330
17C67
100
AcDbEntity
  8
寸法
 62
     0
 48
50.0
370
    -2
100
AcDbBlockReference
  2
_DOTSMALL
 10
6968.458104926622
 20
9007.462293032547
 30
0.0
 41
100.0
 42
100.0
 43
100.0
  0
MTEXT
  5
182C9
330
17C67
100
AcDbEntity
  8
寸法
 62
     7
 48
50.0
100
AcDbMText
 10
6485.583733047427
 20
9107.462293032547
 30
0.0
 40
120.0
 41
0.0
 71
     5
 72
     1
  1
\A1;1063
  7
STYLE1
 73
     1
 44
1.0
1001
ACAD
1000
MTEXTBEGIN
1070
    73
1070
     1
1070
    44
1040
1.0
1070
    74
1070
     0
1000
MTEXTEND
  0
POINT
  5
182CA
330
17C67
100
AcDbEntity
  8
DEFPOINTS
 62
     0
 48
50.0
100
AcDbPoint
 10
5962.693777925077
 20
9221.068732668227
 30
0.0
  0
POINT
  5
182CB
330
17C67
100
AcDbEntity
  8
DEFPOINTS
 62
     0
 48
50.0
100
AcDbPoint
 10
7025.693777925088
 20
9221.06873266822
 30
0.0
  0
POINT
  5
182CC
330
17C67
100
AcDbEntity
  8
DEFPOINTS
 62
     0
 48
50.0
100
AcDbPoint
 10
6968.458104926622
 20
9007.462293032547
 30
0.0
  0
ENDBLK
  5
17C72
330
17C67
100
AcDbEntity
  8
0
 48
50.0
100
AcDbBlockEnd
  0
BLOCK
  5
17C7D
330
17C73
100
AcDbEntity
  8
0
 48
50.0
100
AcDbBlockBegin
  2
*D11
 70
     1
 10
0.0
 20
0.0
 30
0.0
  3
*D11
  1

  0
LINE
  5
1826F
330
17C73
100
AcDbEntity
  8
寸法
 62
     0
 48
50.0
370
    -2
100
AcDbLine
 10
7045.693777925077
 20
9665.709748819594
 30
0.0
 11
7441.0515037871
 21
9559.773965453457
 31
0.0
  0
LINE
  5
18270
330
17C73
100
AcDbEntity
  8
寸法
 62
     0
 48
50.0
370
    -2
100
AcDbLine
 10
7045.693777925077
 20
9215.709748819596
 30
0.0
 11
7441.0515037871
 21
9109.773965453461
 31
0.0
  0
LINE
  5
18271
330
17C73
100
AcDbEntity
  8
寸法
 62
     0
 48
50.0
370
    -2
100
AcDbLine
 10
7381.051503787102
 20
9575.850916999325
 30
0.0
 11
7381.051503787102
 21
9125.850916999329
 31
0.0
  0
INSERT
  5
18272
330
17C73
100
AcDbEntity
  8
寸法
 62
     0
 48
50.0
370
    -2
100
AcDbBlockReference
  2
_DOTSMALL
 10
7381.051503787102
 20
9575.850916999325
 30
0.0
 41
100.0
 42
100.0
 43
100.0
 50
90.0
  0
INSERT
  5
18273
330
17C73
100
AcDbEntity
  8
寸法
 62
     0
 48
50.0
370
    -2
100
AcDbBlockReference
  2
_DOTSMALL
 10
7381.051503787102
 20
9125.850916999329
 30
0.0
 41
100.0
 42
100.0
 43
100.0
 50
270.0
  0
MTEXT
  5
18274
330
17C73
100
AcDbEntity
  8
寸法
 62
     7
 48
50.0
100
AcDbMText
 10
7281.0515037871
 20
9350.850916999329
 30
0.0
 40
120.0
 41
0.0
 71
     5
 72
     1
  1
\A1;450
  7
STYLE1
 11
0.0000000000000001
 21
1.0
 31
0.0
 73
     1
 44
1.0
1001
ACAD
1000
MTEXTBEGIN
1070
    73
1070
     1
1070
    44
1040
1.0
1070
    74
1070
     0
1000
MTEXTEND
  0
POINT
  5
18275
330
17C73
100
AcDbEntity
  8
DEFPOINTS
 62
     0
 48
50.0
100
AcDbPoint
 10
7025.693777925076
 20
9671.068732668215
 30
0.0
  0
POINT
  5
18276
330
17C73
100
AcDbEntity
  8
DEFPOINTS
 62
     0
 48
50.0
100
AcDbPoint
 10
7025.693777925076
 20
9221.06873266822
 30
0.0
  0
POINT
  5
18277
330
17C73
100
AcDbEntity
  8
DEFPOINTS
 62
     0
 48
50.0
100
AcDbPoint
 10
7381.051503787102
 20
9125.850916999329
 30
0.0
  0
ENDBLK
  5
17C7E
330
17C73
100
AcDbEntity
  8
0
 48
50.0
100
AcDbBlockEnd
  0
BLOCK
  5
17C89
330
17C7F
100
AcDbEntity
  8
0
 48
50.0
100
AcDbBlockBegin
  2
*D12
 70
     1
 10
0.0
 20
0.0
 30
0.0
  3
*D12
  1

  0
LINE
  5
18281
330
17C7F
100
AcDbEntity
  8
寸法
 62
     0
 48
50.0
370
    -2
100
AcDbLine
 10
7074.193777925076
 20
9646.068732668219
 30
0.0
 11
7761.620123659487
 21
9646.068732668219
 31
0.0
  0
LINE
  5
18282
330
17C7F
100
AcDbEntity
  8
寸法
 62
     0
 48
50.0
370
    -2
100
AcDbLine
 10
7074.19377792505
 20
7546.068732668203
 30
0.0
 11
7761.620123659487
 21
7546.068732668203
 31
0.0
  0
LINE
  5
18283
330
17C7F
100
AcDbEntity
  8
寸法
 62
     0
 48
50.0
370
    -2
100
AcDbLine
 10
7701.620123659487
 20
9646.068732668219
 30
0.0
 11
7701.620123659487
 21
7546.068732668203
 31
0.0
  0
INSERT
  5
18284
330
17C7F
100
AcDbEntity
  8
寸法
 62
     0
 48
50.0
370
    -2
100
AcDbBlockReference
  2
_DOTSMALL
 10
7701.620123659487
 20
9646.068732668219
 30
0.0
 41
100.0
 42
100.0
 43
100.0
 50
90.0
  0
INSERT
  5
18285
330
17C7F
100
AcDbEntity
  8
寸法
 62
     0
 48
50.0
370
    -2
100
AcDbBlockReference
  2
_DOTSMALL
 10
7701.620123659487
 20
7546.068732668203
 30
0.0
 41
100.0
 42
100.0
 43
100.0
 50
270.0
  0
MTEXT
  5
18286
330
17C7F
100
AcDbEntity
  8
寸法
 62
     7
 48
50.0
100
AcDbMText
 10
7601.608312635865
 20
8596.068732668211
 30
0.0
 40
120.0
 41
0.0
 71
     5
 72
     1
  1
\A1;5X420=2100
  7
STYLE1
 11
0.0000000000000001
 21
1.0
 31
0.0
 73
     1
 44
1.0
1001
ACAD
1000
MTEXTBEGIN
1070
    73
1070
     1
1070
    44
1040
1.0
1070
    74
1070
     0
1000
MTEXTEND
  0
POINT
  5
18287
330
17C7F
100
AcDbEntity
  8
DEFPOINTS
 62
     0
 48
50.0
100
AcDbPoint
 10
7054.193777925077
 20
9646.068732668219
 30
0.0
  0
POINT
  5
18288
330
17C7F
100
AcDbEntity
  8
DEFPOINTS
 62
     0
 48
50.0
100
AcDbPoint
 10
7054.193777925052
 20
7546.068732668203
 30
0.0
  0
POINT
  5
18289
330
17C7F
100
AcDbEntity
  8
DEFPOINTS
 62
     0
 48
50.0
100
AcDbPoint
 10
7701.620123659487
 20
7546.068732668203
 30
0.0
  0
ENDBLK
  5
17C8A
330
17C7F
100
AcDbEntity
  8
0
 48
50.0
100
AcDbBlockEnd
  0
BLOCK
  5
17C95
330
17C8B
100
AcDbEntity
  8
0
 48
50.0
100
AcDbBlockBegin
  2
*D13
 70
     1
 10
0.0
 20
0.0
 30
0.0
  3
*D13
  1

  0
LINE
  5
182A5
330
17C8B
100
AcDbEntity
  8
寸法
 62
     0
 48
50.0
370
    -2
100
AcDbLine
 10
3607.334794076454
 20
9201.068732668117
 30
0.0
 11
3539.381153380741
 21
8947.462293032439
 31
0.0
  0
LINE
  5
182A6
330
17C8B
100
AcDbEntity
  8
寸法
 62
     0
 48
50.0
370
    -2
100
AcDbLine
 10
4670.334794076385
 20
9201.068732668169
 30
0.0
 11
4602.381153380658
 21
8947.462293032439
 31
0.0
  0
LINE
  5
182A7
330
17C8B
100
AcDbEntity
  8
寸法
 62
     0
 48
50.0
370
    -2
100
AcDbLine
 10
3555.458104926609
 20
9007.462293032437
 30
0.0
 11
4618.458104926526
 21
9007.462293032437
 31
0.0
  0
INSERT
  5
182A8
330
17C8B
100
AcDbEntity
  8
寸法
 62
     0
 48
50.0
370
    -2
100
AcDbBlockReference
  2
_DOTSMALL
 10
3555.458104926609
 20
9007.462293032437
 30
0.0
 41
100.0
 42
100.0
 43
100.0
 50
180.0
  0
INSERT
  5
182A9
330
17C8B
100
AcDbEntity
  8
寸法
 62
     0
 48
50.0
370
    -2
100
AcDbBlockReference
  2
_DOTSMALL
 10
4618.458104926526
 20
9007.462293032437
 30
0.0
 41
100.0
 42
100.0
 43
100.0
  0
MTEXT
  5
182AA
330
17C8B
100
AcDbEntity
  8
寸法
 62
     7
 48
50.0
100
AcDbMText
 10
4083.283655473383
 20
9107.462293032439
 30
0.0
 40
120.0
 41
0.0
 71
     5
 72
     1
  1
\A1;1063
  7
STYLE1
 73
     1
 44
1.0
1001
ACAD
1000
MTEXTBEGIN
1070
    73
1070
     1
1070
    44
1040
1.0
1070
    74
1070
     0
1000
MTEXTEND
  0
POINT
  5
182AB
330
17C8B
100
AcDbEntity
  8
DEFPOINTS
 62
     0
 48
50.0
100
AcDbPoint
 10
3612.693777925077
 20
9221.068732668117
 30
0.0
  0
POINT
  5
182AC
330
17C8B
100
AcDbEntity
  8
DEFPOINTS
 62
     0
 48
50.0
100
AcDbPoint
 10
4675.693777925007
 20
9221.06873266817
 30
0.0
  0
POINT
  5
182AD
330
17C8B
100
AcDbEntity
  8
DEFPOINTS
 62
     0
 48
50.0
100
AcDbPoint
 10
4618.458104926526
 20
9007.462293032437
 30
0.0
  0
ENDBLK
  5
17C96
330
17C8B
100
AcDbEntity
  8
0
 48
50.0
100
AcDbBlockEnd
  0
BLOCK
  5
17CA1
330
17C97
100
AcDbEntity
  8
0
 48
50.0
100
AcDbBlockBegin
  2
*D14
 70
     1
 10
0.0
 20
0.0
 30
0.0
  3
*D14
  1

  0
LINE
  5
1828A
330
17C97
100
AcDbEntity
  8
寸法
 62
     0
 48
50.0
370
    -2
100
AcDbLine
 10
4698.334794076385
 20
9201.068732668167
 30
0.0
 11
4630.381153380659
 21
8947.462293032439
 31
0.0
  0
LINE
  5
1828B
330
17C97
100
AcDbEntity
  8
寸法
 62
     0
 48
50.0
370
    -2
100
AcDbLine
 10
5929.334794076454
 20
9201.06873266816
 30
0.0
 11
5861.38115338073
 21
8947.462293032439
 31
0.0
  0
LINE
  5
1828C
330
17C97
100
AcDbEntity
  8
寸法
 62
     0
 48
50.0
370
    -2
100
AcDbLine
 10
4646.458104926526
 20
9007.462293032437
 30
0.0
 11
5877.458104926597
 21
9007.462293032437
 31
0.0
  0
INSERT
  5
1828D
330
17C97
100
AcDbEntity
  8
寸法
 62
     0
 48
50.0
370
    -2
100
AcDbBlockReference
  2
_DOTSMALL
 10
4646.458104926526
 20
9007.462293032437
 30
0.0
 41
100.0
 42
100.0
 43
100.0
 50
180.0
  0
INSERT
  5
1828E
330
17C97
100
AcDbEntity
  8
寸法
 62
     0
 48
50.0
370
    -2
100
AcDbBlockReference
  2
_DOTSMALL
 10
5877.458104926597
 20
9007.462293032437
 30
0.0
 41
100.0
 42
100.0
 43
100.0
  0
MTEXT
  5
1828F
330
17C97
100
AcDbEntity
  8
寸法
 62
     7
 48
50.0
100
AcDbMText
 10
5505.542011138703
 20
9107.474104056061
 30
0.0
 40
120.0
 41
0.0
 71
     5
 72
     1
  1
\A1;1231
  7
STYLE1
 73
     1
 44
1.0
1001
ACAD
1000
MTEXTBEGIN
1070
    73
1070
     1
1070
    44
1040
1.0
1070
    74
1070
     0
1000
MTEXTEND
  0
POINT
  5
18290
330
17C97
100
AcDbEntity
  8
DEFPOINTS
 62
     0
 48
50.0
100
AcDbPoint
 10
4703.693777925007
 20
9221.068732668168
 30
0.0
  0
POINT
  5
18291
330
17C97
100
AcDbEntity
  8
DEFPOINTS
 62
     0
 48
50.0
100
AcDbPoint
 10
5934.693777925076
 20
9221.068732668161
 30
0.0
  0
POINT
  5
18292
330
17C97
100
AcDbEntity
  8
DEFPOINTS
 62
     0
 48
50.0
100
AcDbPoint
 10
5877.458104926597
 20
9007.462293032437
 30
0.0
  0
ENDBLK
  5
17CA2
330
17C97
100
AcDbEntity
  8
0
 48
50.0
100
AcDbBlockEnd
  0
BLOCK
  5
17D6B
330
17D61
100
AcDbEntity
  8
0
 48
50.0
100
AcDbBlockBegin
  2
*D15
 70
     1
 10
0.0
 20
0.0
 30
0.0
  3
*D15
  1

  0
LINE
  5
181DC
330
17D61
100
AcDbEntity
  8
寸法
 62
     0
 48
50.0
370
    -2
100
AcDbLine
 10
7054.193777925073
 20
4684.519698991555
 30
0.0
 11
7054.193777925073
 21
4937.061284249795
 31
0.0
  0
LINE
  5
181DD
330
17D61
100
AcDbEntity
  8
寸法
 62
     0
 48
50.0
370
    -2
100
AcDbLine
 10
3584.193777925069
 20
4684.519698991559
 30
0.0
 11
3584.193777925069
 21
4937.061284249795
 31
0.0
  0
LINE
  5
181DE
330
17D61
100
AcDbEntity
  8
寸法
 62
     0
 48
50.0
370
    -2
100
AcDbLine
 10
7054.193777925073
 20
4877.061284249794
 30
0.0
 11
3584.193777925069
 21
4877.061284249794
 31
0.0
  0
INSERT
  5
181DF
330
17D61
100
AcDbEntity
  8
寸法
 62
     0
 48
50.0
370
    -2
100
AcDbBlockReference
  2
_DOTSMALL
 10
7054.193777925073
 20
4877.061284249794
 30
0.0
 41
100.0
 42
100.0
 43
100.0
  0
INSERT
  5
181E0
330
17D61
100
AcDbEntity
  8
寸法
 62
     0
 48
50.0
370
    -2
100
AcDbBlockReference
  2
_DOTSMALL
 10
3584.193777925069
 20
4877.061284249794
 30
0.0
 41
100.0
 42
100.0
 43
100.0
 50
180.0
  0
MTEXT
  5
181E1
330
17D61
100
AcDbEntity
  8
寸法
 62
     7
 48
50.0
100
AcDbMText
 10
5319.193777925076
 20
4977.061284249795
 30
0.0
 40
120.0
 41
0.0
 71
     5
 72
     1
  1
\A1;柱外寸法3470
  7
STYLE1
 73
     1
 44
1.0
1001
ACAD
1000
MTEXTBEGIN
1070
    73
1070
     1
1070
    44
1040
1.0
1070
    74
1070
     0
1000
MTEXTEND
  0
POINT
  5
181E2
330
17D61
100
AcDbEntity
  8
DEFPOINTS
 62
     0
 48
50.0
100
AcDbPoint
 10
7054.193777925073
 20
4664.519698991554
 30
0.0
  0
POINT
  5
181E3
330
17D61
100
AcDbEntity
  8
DEFPOINTS
 62
     0
 48
50.0
100
AcDbPoint
 10
3584.193777925069
 20
4664.51969899156
 30
0.0
  0
POINT
  5
181E4
330
17D61
100
AcDbEntity
  8
DEFPOINTS
 62
     0
 48
50.0
100
AcDbPoint
 10
3584.193777925069
 20
4877.061284249794
 30
0.0
  0
ENDBLK
  5
17D6C
330
17D61
100
AcDbEntity
  8
0
 48
50.0
100
AcDbBlockEnd
  0
BLOCK
  5
17D77
330
17D6D
100
AcDbEntity
  8
0
 48
50.0
100
AcDbBlockBegin
  2
*D16
 70
     1
 10
0.0
 20
0.0
 30
0.0
  3
*D16
  1

  0
LINE
  5
181D3
330
17D6D
100
AcDbEntity
  8
寸法
 62
     0
 48
50.0
370
    -2
100
AcDbLine
 10
3534.193777925069
 20
4684.519698991557
 30
0.0
 11
3534.193777925069
 21
5157.966584723545
 31
0.0
  0
LINE
  5
181D4
330
17D6D
100
AcDbEntity
  8
寸法
 62
     0
 48
50.0
370
    -2
100
AcDbLine
 10
7104.193777925073
 20
4684.519698991553
 30
0.0
 11
7104.193777925073
 21
5157.966584723545
 31
0.0
  0
LINE
  5
181D5
330
17D6D
100
AcDbEntity
  8
寸法
 62
     0
 48
50.0
370
    -2
100
AcDbLine
 10
3534.193777925069
 20
5097.966584723544
 30
0.0
 11
7104.193777925073
 21
5097.966584723544
 31
0.0
  0
INSERT
  5
181D6
330
17D6D
100
AcDbEntity
  8
寸法
 62
     0
 48
50.0
370
    -2
100
AcDbBlockReference
  2
_DOTSMALL
 10
3534.193777925069
 20
5097.966584723544
 30
0.0
 41
100.0
 42
100.0
 43
100.0
 50
180.0
  0
INSERT
  5
181D7
330
17D6D
100
AcDbEntity
  8
寸法
 62
     0
 48
50.0
370
    -2
100
AcDbBlockReference
  2
_DOTSMALL
 10
7104.193777925073
 20
5097.966584723544
 30
0.0
 41
100.0
 42
100.0
 43
100.0
  0
MTEXT
  5
181D8
330
17D6D
100
AcDbEntity
  8
寸法
 62
     7
 48
50.0
100
AcDbMText
 10
5319.193777925076
 20
5197.966584723545
 30
0.0
 40
120.0
 41
0.0
 71
     5
 72
     1
  1
\A1;3570
  7
STYLE1
 73
     1
 44
1.0
1001
ACAD
1000
MTEXTBEGIN
1070
    73
1070
     1
1070
    44
1040
1.0
1070
    74
1070
     0
1000
MTEXTEND
  0
POINT
  5
181D9
330
17D6D
100
AcDbEntity
  8
DEFPOINTS
 62
     0
 48
50.0
100
AcDbPoint
 10
3534.193777925069
 20
4664.519698991557
 30
0.0
  0
POINT
  5
181DA
330
17D6D
100
AcDbEntity
  8
DEFPOINTS
 62
     0
 48
50.0
100
AcDbPoint
 10
7104.193777925073
 20
4664.519698991553
 30
0.0
  0
POINT
  5
181DB
330
17D6D
100
AcDbEntity
  8
DEFPOINTS
 62
     0
 48
50.0
100
AcDbPoint
 10
7104.193777925073
 20
5097.966584723544
 30
0.0
  0
ENDBLK
  5
17D78
330
17D6D
100
AcDbEntity
  8
0
 48
50.0
100
AcDbBlockEnd
  0
BLOCK
  5
17D85
330
17D79
100
AcDbEntity
  8
0
 48
50.0
100
AcDbBlockBegin
  2
*D17
 70
     1
 10
0.0
 20
0.0
 30
0.0
  3
*D17
  1

  0
LINE
  5
181E5
330
17D79
100
AcDbEntity
  8
寸法
 62
     0
 48
50.0
370
    -2
100
AcDbLine
 10
3584.193777925069
 20
4684.519698991559
 30
0.0
 11
3584.193777925069
 21
4937.061284249796
 31
0.0
  0
LINE
  5
181E6
330
17D79
100
AcDbEntity
  8
寸法
 62
     0
 48
50.0
370
    -2
100
AcDbLine
 10
3534.193777925069
 20
4684.519698991557
 30
0.0
 11
3534.193777925069
 21
4937.061284249796
 31
0.0
  0
LINE
  5
181E7
330
17D79
100
AcDbEntity
  8
寸法
 62
     0
 48
50.0
370
    -2
100
AcDbLine
 10
3584.193777925069
 20
4877.061284249797
 30
0.0
 11
3684.193777925069
 21
4877.061284249797
 31
0.0
  0
LINE
  5
181E8
330
17D79
100
AcDbEntity
  8
寸法
 62
     0
 48
50.0
370
    -2
100
AcDbLine
 10
3534.193777925069
 20
4877.061284249797
 30
0.0
 11
3114.661252456334
 21
4877.061284249797
 31
0.0
  0
LINE
  5
181E9
330
17D79
100
AcDbEntity
  8
寸法
 62
     0
 48
50.0
370
    -2
100
AcDbLine
 10
3584.193777925069
 20
4877.061284249797
 30
0.0
 11
3534.193777925069
 21
4877.061284249797
 31
0.0
  0
INSERT
  5
181EA
330
17D79
100
AcDbEntity
  8
寸法
 62
     0
 48
50.0
370
    -2
100
AcDbBlockReference
  2
_DOTSMALL
 10
3584.193777925069
 20
4877.061284249797
 30
0.0
 41
100.0
 42
100.0
 43
100.0
 50
180.0
  0
INSERT
  5
181EB
330
17D79
100
AcDbEntity
  8
寸法
 62
     0
 48
50.0
370
    -2
100
AcDbBlockReference
  2
_DOTSMALL
 10
3534.193777925069
 20
4877.061284249797
 30
0.0
 41
100.0
 42
100.0
 43
100.0
  0
MTEXT
  5
181EC
330
17D79
100
AcDbEntity
  8
寸法
 62
     7
 48
50.0
100
AcDbMText
 10
3220.708496550822
 20
4977.061284249796
 30
0.0
 40
120.0
 41
0.0
 71
     5
 72
     1
  1
\A1;50
  7
STYLE1
 73
     1
 44
1.0
1001
ACAD
1000
MTEXTBEGIN
1070
    73
1070
     1
1070
    44
1040
1.0
1070
    74
1070
     0
1000
MTEXTEND
  0
POINT
  5
181ED
330
17D79
100
AcDbEntity
  8
DEFPOINTS
 62
     0
 48
50.0
100
AcDbPoint
 10
3584.193777925069
 20
4664.51969899156
 30
0.0
  0
POINT
  5
181EE
330
17D79
100
AcDbEntity
  8
DEFPOINTS
 62
     0
 48
50.0
100
AcDbPoint
 10
3534.193777925069
 20
4664.519698991557
 30
0.0
  0
POINT
  5
181EF
330
17D79
100
AcDbEntity
  8
DEFPOINTS
 62
     0
 48
50.0
100
AcDbPoint
 10
3534.193777925069
 20
4877.061284249797
 30
0.0
  0
ENDBLK
  5
17D86
330
17D79
100
AcDbEntity
  8
0
 48
50.0
100
AcDbBlockEnd
  0
BLOCK
  5
17D93
330
17D87
100
AcDbEntity
  8
0
 48
50.0
100
AcDbBlockBegin
  2
*D18
 70
     1
 10
0.0
 20
0.0
 30
0.0
  3
*D18
  1

  0
LINE
  5
1823C
330
17D87
100
AcDbEntity
  8
寸法
 62
     0
 48
50.0
370
    -2
100
AcDbLine
 10
7104.193777925073
 20
4684.519698991553
 30
0.0
 11
7104.193777925073
 21
4937.061284249794
 31
0.0
  0
LINE
  5
1823D
330
17D87
100
AcDbEntity
  8
寸法
 62
     0
 48
50.0
370
    -2
100
AcDbLine
 10
7054.193777925073
 20
4684.519698991555
 30
0.0
 11
7054.193777925073
 21
4937.061284249794
 31
0.0
  0
LINE
  5
1823E
330
17D87
100
AcDbEntity
  8
寸法
 62
     0
 48
50.0
370
    -2
100
AcDbLine
 10
7054.193777925073
 20
4877.061284249794
 30
0.0
 11
6954.193777925073
 21
4877.061284249794
 31
0.0
  0
LINE
  5
1823F
330
17D87
100
AcDbEntity
  8
寸法
 62
     0
 48
50.0
370
    -2
100
AcDbLine
 10
7104.193777925073
 20
4877.061284249794
 30
0.0
 11
7523.726303393797
 21
4877.061284249794
 31
0.0
  0
LINE
  5
18240
330
17D87
100
AcDbEntity
  8
寸法
 62
     0
 48
50.0
370
    -2
100
AcDbLine
 10
7054.193777925073
 20
4877.061284249794
 30
0.0
 11
7104.193777925073
 21
4877.061284249794
 31
0.0
  0
INSERT
  5
18241
330
17D87
100
AcDbEntity
  8
寸法
 62
     0
 48
50.0
370
    -2
100
AcDbBlockReference
  2
_DOTSMALL
 10
7054.193777925073
 20
4877.061284249794
 30
0.0
 41
100.0
 42
100.0
 43
100.0
  0
INSERT
  5
18242
330
17D87
100
AcDbEntity
  8
寸法
 62
     0
 48
50.0
370
    -2
100
AcDbBlockReference
  2
_DOTSMALL
 10
7104.193777925073
 20
4877.061284249794
 30
0.0
 41
100.0
 42
100.0
 43
100.0
 50
180.0
  0
MTEXT
  5
18243
330
17D87
100
AcDbEntity
  8
寸法
 62
     7
 48
50.0
100
AcDbMText
 10
7417.67905929931
 20
4977.061284249794
 30
0.0
 40
120.0
 41
0.0
 71
     5
 72
     1
  1
\A1;50
  7
STYLE1
 73
     1
 44
1.0
1001
ACAD
1000
MTEXTBEGIN
1070
    73
1070
     1
1070
    44
1040
1.0
1070
    74
1070
     0
1000
MTEXTEND
  0
POINT
  5
18244
330
17D87
100
AcDbEntity
  8
DEFPOINTS
 62
     0
 48
50.0
100
AcDbPoint
 10
7104.193777925073
 20
4664.519698991553
 30
0.0
  0
POINT
  5
18245
330
17D87
100
AcDbEntity
  8
DEFPOINTS
 62
     0
 48
50.0
100
AcDbPoint
 10
7054.193777925073
 20
4664.519698991554
 30
0.0
  0
POINT
  5
18246
330
17D87
100
AcDbEntity
  8
DEFPOINTS
 62
     0
 48
50.0
100
AcDbPoint
 10
7054.193777925073
 20
4877.061284249794
 30
0.0
  0
ENDBLK
  5
17D94
330
17D87
100
AcDbEntity
  8
0
 48
50.0
100
AcDbBlockEnd
  0
BLOCK
  5
18AD6
330
18ACC
100
AcDbEntity
  8
0
 48
50.0
100
AcDbBlockBegin
  2
*D19
 70
     1
 10
0.0
 20
0.0
 30
0.0
  3
*D19
  1

  0
LINE
  5
18E3A
330
18ACC
100
AcDbEntity
  8
寸法
 62
     0
 48
50.0
370
    -2
100
AcDbLine
 10
10070.05605979638
 20
4380.519698991551
 30
0.0
 11
9582.147418399129
 21
4380.519698991551
 31
0.0
  0
LINE
  5
18E3B
330
18ACC
100
AcDbEntity
  8
寸法
 62
     0
 48
50.0
370
    -2
100
AcDbLine
 10
10070.05605979638
 20
2355.519698991551
 30
0.0
 11
9582.147418399127
 21
2355.519698991551
 31
0.0
  0
LINE
  5
18E3C
330
18ACC
100
AcDbEntity
  8
寸法
 62
     0
 48
50.0
370
    -2
100
AcDbLine
 10
9622.14741839913
 20
4360.519698991551
 30
0.0
 11
9622.147418399128
 21
2375.519698991551
 31
0.0
  0
INSERT
  5
18E3D
330
18ACC
100
AcDbEntity
  8
寸法
 62
     0
 48
50.0
370
    -2
100
AcDbBlockReference
  2
_DOT
 10
9622.14741839913
 20
4380.519698991551
 30
0.0
 41
20.0
 42
20.0
 43
20.0
 50
90.0
  0
INSERT
  5
18E3E
330
18ACC
100
AcDbEntity
  8
寸法
 62
     0
 48
50.0
370
    -2
100
AcDbBlockReference
  2
_DOT
 10
9622.147418399128
 20
2355.519698991551
 30
0.0
 41
20.0
 42
20.0
 43
20.0
 50
270.0
  0
MTEXT
  5
18E3F
330
18ACC
100
AcDbEntity
  8
寸法
 62
     7
 48
50.0
100
AcDbMText
 10
9530.135607375505
 20
3368.019698991553
 30
0.0
 40
120.0
 41
0.0
 71
     5
 72
     1
  1
\A1;有効開口部高サ2025
  7
STYLE1
 11
0.0000000000000001
 21
1.0
 31
0.0
 73
     1
 44
1.0
1001
ACAD
1000
MTEXTBEGIN
1070
    73
1070
     1
1070
    44
1040
1.0
1070
    74
1070
     0
1000
MTEXTEND
  0
POINT
  5
18E40
330
18ACC
100
AcDbEntity
  8
DEFPOINTS
 62
     0
 48
50.0
100
AcDbPoint
 10
10090.05605979638
 20
4380.519698991551
 30
0.0
  0
POINT
  5
18E41
330
18ACC
100
AcDbEntity
  8
DEFPOINTS
 62
     0
 48
50.0
100
AcDbPoint
 10
10090.05605979638
 20
2355.519698991551
 30
0.0
  0
POINT
  5
18E42
330
18ACC
100
AcDbEntity
  8
DEFPOINTS
 62
     0
 48
50.0
100
AcDbPoint
 10
9622.147418399128
 20
2355.519698991551
 30
0.0
  0
ENDBLK
  5
18AD7
330
18ACC
100
AcDbEntity
  8
0
 48
50.0
100
AcDbBlockEnd
  0
BLOCK
  5
18AE3
330
18AD8
100
AcDbEntity
  8
0
 48
50.0
100
AcDbBlockBegin
  2
*D20
 70
     1
 10
0.0
 20
0.0
 30
0.0
  3
*D20
  1

  0
LINE
  5
18E25
330
18AD8
100
AcDbEntity
  8
寸法
 62
     0
 48
50.0
370
    -2
100
AcDbLine
 10
10092.05605979638
 20
2289.519698991552
 30
0.0
 11
8963.305930613124
 21
2289.519698991552
 31
0.0
  0
LINE
  5
18E26
330
18AD8
100
AcDbEntity
  8
寸法
 62
     0
 48
50.0
370
    -2
100
AcDbLine
 10
9090.554983901251
 20
2189.519698991551
 30
0.0
 11
8963.305930613124
 21
2189.519698991551
 31
0.0
  0
LINE
  5
18E27
330
18AD8
100
AcDbEntity
  8
寸法
 62
     0
 48
50.0
370
    -2
100
AcDbLine
 10
9023.305930613124
 20
2289.519698991552
 30
0.0
 11
9023.305930613124
 21
2189.519698991551
 31
0.0
  0
LINE
  5
18E28
330
18AD8
100
AcDbEntity
  8
寸法
 62
     0
 48
50.0
370
    -2
100
AcDbLine
 10
9023.305930613124
 20
2189.519698991551
 30
0.0
 11
9023.305930613124
 21
1817.425210802572
 31
0.0
  0
INSERT
  5
18E29
330
18AD8
100
AcDbEntity
  8
寸法
 62
     0
 48
50.0
370
    -2
100
AcDbBlockReference
  2
_DOTSMALL
 10
9023.305930613124
 20
2289.519698991552
 30
0.0
 41
100.0
 42
100.0
 43
100.0
 50
90.0
  0
INSERT
  5
18E2A
330
18AD8
100
AcDbEntity
  8
寸法
 62
     0
 48
50.0
370
    -2
100
AcDbBlockReference
  2
_DOTSMALL
 10
9023.305930613124
 20
2189.519698991551
 30
0.0
 41
100.0
 42
100.0
 43
100.0
 50
270.0
  0
MTEXT
  5
18E2B
330
18AD8
100
AcDbEntity
  8
寸法
 62
     7
 48
50.0
100
AcDbMText
 10
8923.305930613123
 20
1953.472454897062
 30
0.0
 40
120.0
 41
0.0
 71
     5
 72
     1
  1
\A1;100
  7
STYLE1
 11
0.0000000000000001
 21
1.0
 31
0.0
 73
     1
 44
1.0
1001
ACAD
1000
MTEXTBEGIN
1070
    73
1070
     1
1070
    44
1040
1.0
1070
    74
1070
     0
1000
MTEXTEND
  0
POINT
  5
18E2C
330
18AD8
100
AcDbEntity
  8
DEFPOINTS
 62
     0
 48
50.0
100
AcDbPoint
 10
10112.05605979638
 20
2289.519698991552
 30
0.0
  0
POINT
  5
18E2D
330
18AD8
100
AcDbEntity
  8
DEFPOINTS
 62
     0
 48
50.0
100
AcDbPoint
 10
9110.55498390125
 20
2189.519698991551
 30
0.0
  0
POINT
  5
18E2E
330
18AD8
100
AcDbEntity
  8
DEFPOINTS
 62
     0
 48
50.0
100
AcDbPoint
 10
9023.305930613124
 20
2189.519698991551
 30
0.0
  0
ENDBLK
  5
18AE4
330
18AD8
100
AcDbEntity
  8
0
 48
50.0
100
AcDbBlockEnd
  0
BLOCK
  5
18AF1
330
18AE5
100
AcDbEntity
  8
0
 48
50.0
100
AcDbBlockBegin
  2
*D21
 70
     1
 10
0.0
 20
0.0
 30
0.0
  3
*D21
  1

  0
LINE
  5
18E2F
330
18AE5
100
AcDbEntity
  8
寸法
 62
     0
 48
50.0
370
    -2
100
AcDbLine
 10
10147.05605979638
 20
2339.519698991551
 30
0.0
 11
9263.305930613125
 21
2339.519698991551
 31
0.0
  0
LINE
  5
18E30
330
18AE5
100
AcDbEntity
  8
寸法
 62
     0
 48
50.0
370
    -2
100
AcDbLine
 10
10092.05605979638
 20
2289.519698991552
 30
0.0
 11
9263.305930613125
 21
2289.519698991552
 31
0.0
  0
LINE
  5
18E31
330
18AE5
100
AcDbEntity
  8
寸法
 62
     0
 48
50.0
370
    -2
100
AcDbLine
 10
9323.305930613123
 20
2339.519698991551
 30
0.0
 11
9323.305930613123
 21
2439.519698991552
 31
0.0
  0
LINE
  5
18E32
330
18AE5
100
AcDbEntity
  8
寸法
 62
     0
 48
50.0
370
    -2
100
AcDbLine
 10
9323.305930613123
 20
2289.519698991552
 30
0.0
 11
9323.305930613123
 21
1877.425210802573
 31
0.0
  0
LINE
  5
18E33
330
18AE5
100
AcDbEntity
  8
寸法
 62
     0
 48
50.0
370
    -2
100
AcDbLine
 10
9323.305930613123
 20
2339.519698991551
 30
0.0
 11
9323.305930613123
 21
2289.519698991552
 31
0.0
  0
INSERT
  5
18E34
330
18AE5
100
AcDbEntity
  8
寸法
 62
     0
 48
50.0
370
    -2
100
AcDbBlockReference
  2
_DOTSMALL
 10
9323.305930613123
 20
2339.519698991551
 30
0.0
 41
100.0
 42
100.0
 43
100.0
 50
270.0
  0
INSERT
  5
18E35
330
18AE5
100
AcDbEntity
  8
寸法
 62
     0
 48
50.0
370
    -2
100
AcDbBlockReference
  2
_DOTSMALL
 10
9323.305930613123
 20
2289.519698991552
 30
0.0
 41
100.0
 42
100.0
 43
100.0
 50
90.0
  0
MTEXT
  5
18E36
330
18AE5
100
AcDbEntity
  8
寸法
 62
     7
 48
50.0
100
AcDbMText
 10
9223.305930613124
 20
1983.472454897062
 30
0.0
 40
120.0
 41
0.0
 71
     5
 72
     1
  1
\A1;50
  7
STYLE1
 11
0.0000000000000001
 21
1.0
 31
0.0
 73
     1
 44
1.0
1001
ACAD
1000
MTEXTBEGIN
1070
    73
1070
     1
1070
    44
1040
1.0
1070
    74
1070
     0
1000
MTEXTEND
  0
POINT
  5
18E37
330
18AE5
100
AcDbEntity
  8
DEFPOINTS
 62
     0
 48
50.0
100
AcDbPoint
 10
10167.05605979638
 20
2339.519698991551
 30
0.0
  0
POINT
  5
18E38
330
18AE5
100
AcDbEntity
  8
DEFPOINTS
 62
     0
 48
50.0
100
AcDbPoint
 10
10112.05605979638
 20
2289.519698991552
 30
0.0
  0
POINT
  5
18E39
330
18AE5
100
AcDbEntity
  8
DEFPOINTS
 62
     0
 48
50.0
100
AcDbPoint
 10
9323.305930613123
 20
2289.519698991552
 30
0.0
  0
ENDBLK
  5
18AF2
330
18AE5
100
AcDbEntity
  8
0
 48
50.0
100
AcDbBlockEnd
  0
BLOCK
  5
18AFD
330
18AF3
100
AcDbEntity
  8
0
 48
50.0
100
AcDbBlockBegin
  2
*D22
 70
     1
 10
0.0
 20
0.0
 30
0.0
  3
*D22
  1

  0
LINE
  5
18E7A
330
18AF3
100
AcDbEntity
  8
寸法
 62
     0
 48
50.0
370
    -2
100
AcDbLine
 10
12377.05605979638
 20
4631.330378603204
 30
0.0
 11
12377.05605979638
 21
5123.177152570855
 31
0.0
  0
LINE
  5
18E7B
330
18AF3
100
AcDbEntity
  8
寸法
 62
     0
 48
50.0
370
    -2
100
AcDbLine
 10
10167.05605979638
 20
4680.521317114528
 30
0.0
 11
10167.05605979638
 21
5123.177152570855
 31
0.0
  0
LINE
  5
18E7C
330
18AF3
100
AcDbEntity
  8
寸法
 62
     0
 48
50.0
370
    -2
100
AcDbLine
 10
12377.05605979638
 20
5063.177152570855
 30
0.0
 11
10167.05605979638
 21
5063.177152570855
 31
0.0
  0
INSERT
  5
18E7D
330
18AF3
100
AcDbEntity
  8
寸法
 62
     0
 48
50.0
370
    -2
100
AcDbBlockReference
  2
_DOTSMALL
 10
12377.05605979638
 20
5063.177152570855
 30
0.0
 41
100.0
 42
100.0
 43
100.0
  0
INSERT
  5
18E7E
330
18AF3
100
AcDbEntity
  8
寸法
 62
     0
 48
50.0
370
    -2
100
AcDbBlockReference
  2
_DOTSMALL
 10
10167.05605979638
 20
5063.177152570855
 30
0.0
 41
100.0
 42
100.0
 43
100.0
 50
180.0
  0
MTEXT
  5
18E7F
330
18AF3
100
AcDbEntity
  8
寸法
 62
     7
 48
50.0
100
AcDbMText
 10
11261.7007968669
 20
5163.188963594477
 30
0.0
 40
120.0
 41
0.0
 71
     5
 72
     1
  1
\A1;柱外寸法2210
  7
STYLE1
 73
     1
 44
1.0
1001
ACAD
1000
MTEXTBEGIN
1070
    73
1070
     1
1070
    44
1040
1.0
1070
    74
1070
     0
1000
MTEXTEND
  0
POINT
  5
18E80
330
18AF3
100
AcDbEntity
  8
DEFPOINTS
 62
     0
 48
50.0
100
AcDbPoint
 10
12377.05605979638
 20
4611.330378603205
 30
0.0
  0
POINT
  5
18E81
330
18AF3
100
AcDbEntity
  8
DEFPOINTS
 62
     0
 48
50.0
100
AcDbPoint
 10
10167.05605979638
 20
4660.521317114528
 30
0.0
  0
POINT
  5
18E82
330
18AF3
100
AcDbEntity
  8
DEFPOINTS
 62
     0
 48
50.0
100
AcDbPoint
 10
10167.05605979638
 20
5063.177152570855
 30
0.0
  0
ENDBLK
  5
18AFE
330
18AF3
100
AcDbEntity
  8
0
 48
50.0
100
AcDbBlockEnd
  0
BLOCK
  5
18B0B
330
18AFF
100
AcDbEntity
  8
0
 48
50.0
100
AcDbBlockBegin
  2
*D23
 70
     1
 10
0.0
 20
0.0
 30
0.0
  3
*D23
  1

  0
LINE
  5
18E83
330
18AFF
100
AcDbEntity
  8
寸法
 62
     0
 48
50.0
370
    -2
100
AcDbLine
 10
10167.05605979638
 20
4680.521317114528
 30
0.0
 11
10167.05605979638
 21
5123.177152570855
 31
0.0
  0
LINE
  5
18E84
330
18AFF
100
AcDbEntity
  8
寸法
 62
     0
 48
50.0
370
    -2
100
AcDbLine
 10
10107.05605979638
 20
4684.519698991556
 30
0.0
 11
10107.05605979638
 21
5123.177152570855
 31
0.0
  0
LINE
  5
18E85
330
18AFF
100
AcDbEntity
  8
寸法
 62
     0
 48
50.0
370
    -2
100
AcDbLine
 10
10167.05605979638
 20
5063.177152570855
 30
0.0
 11
10267.05605979638
 21
5063.177152570855
 31
0.0
  0
LINE
  5
18E86
330
18AFF
100
AcDbEntity
  8
寸法
 62
     0
 48
50.0
370
    -2
100
AcDbLine
 10
10107.05605979638
 20
5063.177152570855
 30
0.0
 11
9687.780469245204
 21
5063.177152570855
 31
0.0
  0
LINE
  5
18E87
330
18AFF
100
AcDbEntity
  8
寸法
 62
     0
 48
50.0
370
    -2
100
AcDbLine
 10
10167.05605979638
 20
5063.177152570855
 30
0.0
 11
10107.05605979638
 21
5063.177152570855
 31
0.0
  0
INSERT
  5
18E88
330
18AFF
100
AcDbEntity
  8
寸法
 62
     0
 48
50.0
370
    -2
100
AcDbBlockReference
  2
_DOTSMALL
 10
10167.05605979638
 20
5063.177152570855
 30
0.0
 41
100.0
 42
100.0
 43
100.0
 50
180.0
  0
INSERT
  5
18E89
330
18AFF
100
AcDbEntity
  8
寸法
 62
     0
 48
50.0
370
    -2
100
AcDbBlockReference
  2
_DOTSMALL
 10
10107.05605979638
 20
5063.177152570855
 30
0.0
 41
100.0
 42
100.0
 43
100.0
  0
MTEXT
  5
18E8A
330
18AFF
100
AcDbEntity
  8
寸法
 62
     7
 48
50.0
100
AcDbMText
 10
9797.418264520793
 20
5163.177152570856
 30
0.0
 40
120.0
 41
0.0
 71
     5
 72
     1
  1
\A1;60
  7
STYLE1
 73
     1
 44
1.0
1001
ACAD
1000
MTEXTBEGIN
1070
    73
1070
     1
1070
    44
1040
1.0
1070
    74
1070
     0
1000
MTEXTEND
  0
POINT
  5
18E8B
330
18AFF
100
AcDbEntity
  8
DEFPOINTS
 62
     0
 48
50.0
100
AcDbPoint
 10
10167.05605979638
 20
4660.521317114528
 30
0.0
  0
POINT
  5
18E8C
330
18AFF
100
AcDbEntity
  8
DEFPOINTS
 62
     0
 48
50.0
100
AcDbPoint
 10
10107.05605979638
 20
4664.519698991557
 30
0.0
  0
POINT
  5
18E8D
330
18AFF
100
AcDbEntity
  8
DEFPOINTS
 62
     0
 48
50.0
100
AcDbPoint
 10
10107.05605979638
 20
5063.177152570855
 30
0.0
  0
ENDBLK
  5
18B0C
330
18AFF
100
AcDbEntity
  8
0
 48
50.0
100
AcDbBlockEnd
  0
BLOCK
  5
18B17
330
18B0D
100
AcDbEntity
  8
0
 48
50.0
100
AcDbBlockBegin
  2
*D24
 70
     1
 10
0.0
 20
0.0
 30
0.0
  3
*D24
  1

  0
LINE
  5
18E12
330
18B0D
100
AcDbEntity
  8
寸法
 62
     0
 48
50.0
370
    -2
100
AcDbLine
 10
12457.05605979638
 20
4629.519698991553
 30
0.0
 11
12457.05605979638
 21
5342.378986245147
 31
0.0
  0
LINE
  5
18E13
330
18B0D
100
AcDbEntity
  8
寸法
 62
     0
 48
50.0
370
    -2
100
AcDbLine
 10
10107.05605979638
 20
4684.519698991556
 30
0.0
 11
10107.05605979638
 21
5342.378986245147
 31
0.0
  0
LINE
  5
18E14
330
18B0D
100
AcDbEntity
  8
寸法
 62
     0
 48
50.0
370
    -2
100
AcDbLine
 10
12457.05605979638
 20
5282.378986245147
 30
0.0
 11
10107.05605979638
 21
5282.378986245147
 31
0.0
  0
INSERT
  5
18E15
330
18B0D
100
AcDbEntity
  8
寸法
 62
     0
 48
50.0
370
    -2
100
AcDbBlockReference
  2
_DOTSMALL
 10
12457.05605979638
 20
5282.378986245147
 30
0.0
 41
100.0
 42
100.0
 43
100.0
  0
INSERT
  5
18E16
330
18B0D
100
AcDbEntity
  8
寸法
 62
     0
 48
50.0
370
    -2
100
AcDbBlockReference
  2
_DOTSMALL
 10
10107.05605979638
 20
5282.378986245147
 30
0.0
 41
100.0
 42
100.0
 43
100.0
 50
180.0
  0
MTEXT
  5
18E17
330
18B0D
100
AcDbEntity
  8
寸法
 62
     7
 48
50.0
100
AcDbMText
 10
11341.39991388885
 20
5382.390797268769
 30
0.0
 40
120.0
 41
0.0
 71
     5
 72
     1
  1
\A1;2350
  7
STYLE1
 73
     1
 44
1.0
1001
ACAD
1000
MTEXTBEGIN
1070
    73
1070
     1
1070
    44
1040
1.0
1070
    74
1070
     0
1000
MTEXTEND
  0
POINT
  5
18E18
330
18B0D
100
AcDbEntity
  8
DEFPOINTS
 62
     0
 48
50.0
100
AcDbPoint
 10
12457.05605979638
 20
4609.519698991553
 30
0.0
  0
POINT
  5
18E19
330
18B0D
100
AcDbEntity
  8
DEFPOINTS
 62
     0
 48
50.0
100
AcDbPoint
 10
10107.05605979638
 20
4664.519698991557
 30
0.0
  0
POINT
  5
18E1A
330
18B0D
100
AcDbEntity
  8
DEFPOINTS
 62
     0
 48
50.0
100
AcDbPoint
 10
10107.05605979638
 20
5282.378986245147
 30
0.0
  0
ENDBLK
  5
18B18
330
18B0D
100
AcDbEntity
  8
0
 48
50.0
100
AcDbBlockEnd
  0
BLOCK
  5
18B24
330
18B19
100
AcDbEntity
  8
0
 48
50.0
100
AcDbBlockBegin
  2
*D25
 70
     1
 10
0.0
 20
0.0
 30
0.0
  3
*D25
  1

  0
LINE
  5
18E70
330
18B19
100
AcDbEntity
  8
寸法
 62
     0
 48
50.0
370
    -2
100
AcDbLine
 10
12377.05605979638
 20
4631.330378603204
 30
0.0
 11
12377.05605979638
 21
5123.177152570855
 31
0.0
  0
LINE
  5
18E71
330
18B19
100
AcDbEntity
  8
寸法
 62
     0
 48
50.0
370
    -2
100
AcDbLine
 10
12457.05605979638
 20
4629.519698991553
 30
0.0
 11
12457.05605979638
 21
5123.177152570855
 31
0.0
  0
LINE
  5
18E72
330
18B19
100
AcDbEntity
  8
寸法
 62
     0
 48
50.0
370
    -2
100
AcDbLine
 10
12377.05605979638
 20
5063.177152570855
 30
0.0
 11
12457.05605979638
 21
5063.177152570855
 31
0.0
  0
LINE
  5
18E73
330
18B19
100
AcDbEntity
  8
寸法
 62
     0
 48
50.0
370
    -2
100
AcDbLine
 10
12457.05605979638
 20
5063.177152570855
 30
0.0
 11
12769.15054798536
 21
5063.177152570855
 31
0.0
  0
INSERT
  5
18E74
330
18B19
100
AcDbEntity
  8
寸法
 62
     0
 48
50.0
370
    -2
100
AcDbBlockReference
  2
_DOTSMALL
 10
12377.05605979638
 20
5063.177152570855
 30
0.0
 41
100.0
 42
100.0
 43
100.0
 50
180.0
  0
INSERT
  5
18E75
330
18B19
100
AcDbEntity
  8
寸法
 62
     0
 48
50.0
370
    -2
100
AcDbBlockReference
  2
_DOTSMALL
 10
12457.05605979638
 20
5063.177152570855
 30
0.0
 41
100.0
 42
100.0
 43
100.0
  0
MTEXT
  5
18E76
330
18B19
100
AcDbEntity
  8
寸法
 62
     7
 48
50.0
100
AcDbMText
 10
12663.10330389087
 20
5163.177152570856
 30
0.0
 40
120.0
 41
0.0
 71
     5
 72
     1
  1
\A1;80
  7
STYLE1
 73
     1
 44
1.0
1001
ACAD
1000
MTEXTBEGIN
1070
    73
1070
     1
1070
    44
1040
1.0
1070
    74
1070
     0
1000
MTEXTEND
  0
POINT
  5
18E77
330
18B19
100
AcDbEntity
  8
DEFPOINTS
 62
     0
 48
50.0
100
AcDbPoint
 10
12377.05605979638
 20
4611.330378603205
 30
0.0
  0
POINT
  5
18E78
330
18B19
100
AcDbEntity
  8
DEFPOINTS
 62
     0
 48
50.0
100
AcDbPoint
 10
12457.05605979638
 20
4609.519698991553
 30
0.0
  0
POINT
  5
18E79
330
18B19
100
AcDbEntity
  8
DEFPOINTS
 62
     0
 48
50.0
100
AcDbPoint
 10
12457.05605979638
 20
5063.177152570855
 30
0.0
  0
ENDBLK
  5
18B25
330
18B19
100
AcDbEntity
  8
0
 48
50.0
100
AcDbBlockEnd
  0
BLOCK
  5
18B31
330
18B26
100
AcDbEntity
  8
0
 48
50.0
100
AcDbBlockBegin
  2
*D26
 70
     1
 10
0.0
 20
0.0
 30
0.0
  3
*D26
  1

  0
LINE
  5
18E1B
330
18B26
100
AcDbEntity
  8
寸法
 62
     0
 48
50.0
370
    -2
100
AcDbLine
 10
10106.46034608748
 20
4663.817406061213
 30
0.0
 11
9490.525906982197
 21
4681.531556335543
 31
0.0
  0
LINE
  5
18E1C
330
18B26
100
AcDbEntity
  8
寸法
 62
     0
 48
50.0
370
    -2
100
AcDbLine
 10
10102.40689053086
 20
4522.8756822955
 30
0.0
 11
9486.472451425571
 21
4540.58983256983
 31
0.0
  0
LINE
  5
18E1D
330
18B26
100
AcDbEntity
  8
寸法
 62
     0
 48
50.0
370
    -2
100
AcDbLine
 10
9546.447653028002
 20
4538.864957864883
 30
0.0
 11
9550.501108584628
 21
4679.806681630596
 31
0.0
  0
LINE
  5
18E1E
330
18B26
100
AcDbEntity
  8
寸法
 62
     0
 48
50.0
370
    -2
100
AcDbLine
 10
9550.501108584628
 20
4679.806681630596
 30
0.0
 11
9560.850356814313
 21
5039.657891245181
 31
0.0
  0
INSERT
  5
18E1F
330
18B26
100
AcDbEntity
  8
寸法
 62
     0
 48
50.0
370
    -2
100
AcDbBlockReference
  2
_DOTSMALL
 10
9546.447653028002
 20
4538.864957864883
 30
0.0
 41
100.0
 42
100.0
 43
100.0
 50
268.3526390256378
  0
INSERT
  5
18E20
330
18B26
100
AcDbEntity
  8
寸法
 62
     0
 48
50.0
370
    -2
100
AcDbBlockReference
  2
_DOTSMALL
 10
9550.501108584628
 20
4679.806681630596
 30
0.0
 41
100.0
 42
100.0
 43
100.0
 50
88.35263902563776
  0
MTEXT
  5
18E21
330
18B26
100
AcDbEntity
  8
寸法
 62
     7
 48
50.0
100
AcDbMText
 10
9457.154458949544
 20
4912.586412281495
 30
0.0
 40
120.0
 41
0.0
 71
     5
 72
     1
  1
\A1;141
  7
STYLE1
 11
0.0287479117491237
 21
0.9995866933738488
 31
0.0
 73
     1
 44
1.0
1001
ACAD
1000
MTEXTBEGIN
1070
    73
1070
     1
1070
    44
1040
1.0
1070
    74
1070
     0
1000
MTEXTEND
  0
POINT
  5
18E22
330
18B26
100
AcDbEntity
  8
DEFPOINTS
 62
     0
 48
50.0
100
AcDbPoint
 10
10126.45207995496
 20
4663.24244782623
 30
0.0
  0
POINT
  5
18E23
330
18B26
100
AcDbEntity
  8
DEFPOINTS
 62
     0
 48
50.0
100
AcDbPoint
 10
10122.39862439833
 20
4522.300724060517
 30
0.0
  0
POINT
  5
18E24
330
18B26
100
AcDbEntity
  8
DEFPOINTS
 62
     0
 48
50.0
100
AcDbPoint
 10
9546.447653028002
 20
4538.864957864883
 30
0.0
  0
ENDBLK
  5
18B32
330
18B26
100
AcDbEntity
  8
0
 48
50.0
100
AcDbBlockEnd
  0
BLOCK
  5
18B3D
330
18B33
100
AcDbEntity
  8
0
 48
50.0
100
AcDbBlockBegin
  2
*D27
 70
     1
 10
0.0
 20
0.0
 30
0.0
  3
*D27
  1

  0
LINE
  5
18E5E
330
18B33
100
AcDbEntity
  8
寸法
 62
     0
 48
50.0
370
    -2
100
AcDbLine
 10
10074.55605979638
 20
1989.51969899155
 30
0.0
 11
9885.05605654975
 21
1989.51969899155
 31
0.0
  0
LINE
  5
18E5F
330
18B33
100
AcDbEntity
  8
寸法
 62
     0
 48
50.0
370
    -2
100
AcDbLine
 10
10049.55605979638
 20
2189.519698991551
 30
0.0
 11
9885.05605654975
 21
2189.519698991551
 31
0.0
  0
LINE
  5
18E60
330
18B33
100
AcDbEntity
  8
寸法
 62
     0
 48
50.0
370
    -2
100
AcDbLine
 10
9945.05605654975
 20
1989.51969899155
 30
0.0
 11
9945.05605654975
 21
2189.519698991551
 31
0.0
  0
INSERT
  5
18E61
330
18B33
100
AcDbEntity
  8
寸法
 62
     0
 48
50.0
370
    -2
100
AcDbBlockReference
  2
_DOTSMALL
 10
9945.05605654975
 20
1989.51969899155
 30
0.0
 41
100.0
 42
100.0
 43
100.0
 50
270.0
  0
INSERT
  5
18E62
330
18B33
100
AcDbEntity
  8
寸法
 62
     0
 48
50.0
370
    -2
100
AcDbBlockReference
  2
_DOTSMALL
 10
9945.05605654975
 20
2189.519698991551
 30
0.0
 41
100.0
 42
100.0
 43
100.0
 50
90.0
  0
MTEXT
  5
18E63
330
18B33
100
AcDbEntity
  8
寸法
 62
     7
 48
50.0
100
AcDbMText
 10
9845.044245526128
 20
2089.519698991553
 30
0.0
 40
120.0
 41
0.0
 71
     5
 72
     1
  1
\A1;200
  7
STYLE1
 11
0.0000000000000001
 21
1.0
 31
0.0
 73
     1
 44
1.0
1001
ACAD
1000
MTEXTBEGIN
1070
    73
1070
     1
1070
    44
1040
1.0
1070
    74
1070
     0
1000
MTEXTEND
  0
POINT
  5
18E64
330
18B33
100
AcDbEntity
  8
DEFPOINTS
 62
     0
 48
50.0
100
AcDbPoint
 10
10094.55605979638
 20
1989.51969899155
 30
0.0
  0
POINT
  5
18E65
330
18B33
100
AcDbEntity
  8
DEFPOINTS
 62
     0
 48
50.0
100
AcDbPoint
 10
10069.55605979638
 20
2189.519698991551
 30
0.0
  0
POINT
  5
18E66
330
18B33
100
AcDbEntity
  8
DEFPOINTS
 62
     0
 48
50.0
100
AcDbPoint
 10
9945.05605654975
 20
2189.519698991551
 30
0.0
  0
ENDBLK
  5
18B3E
330
18B33
100
AcDbEntity
  8
0
 48
50.0
100
AcDbBlockEnd
  0
BLOCK
  5
18B49
330
18B3F
100
AcDbEntity
  8
0
 48
50.0
100
AcDbBlockBegin
  2
*D28
 70
     1
 10
0.0
 20
0.0
 30
0.0
  3
*D28
  1

  0
LINE
  5
18E67
330
18B3F
100
AcDbEntity
  8
寸法
 62
     0
 48
50.0
370
    -2
100
AcDbLine
 10
10294.55605979638
 20
1969.519698991549
 30
0.0
 11
10294.55605979638
 21
1643.472369691173
 31
0.0
  0
LINE
  5
18E68
330
18B3F
100
AcDbEntity
  8
寸法
 62
     0
 48
50.0
370
    -2
100
AcDbLine
 10
10094.55605979638
 20
1969.51969899155
 30
0.0
 11
10094.55605979638
 21
1643.472369691173
 31
0.0
  0
LINE
  5
18E69
330
18B3F
100
AcDbEntity
  8
寸法
 62
     0
 48
50.0
370
    -2
100
AcDbLine
 10
10294.55605979638
 20
1703.472369691173
 30
0.0
 11
10094.55605979638
 21
1703.472369691173
 31
0.0
  0
INSERT
  5
18E6A
330
18B3F
100
AcDbEntity
  8
寸法
 62
     0
 48
50.0
370
    -2
100
AcDbBlockReference
  2
_DOTSMALL
 10
10294.55605979638
 20
1703.472369691173
 30
0.0
 41
100.0
 42
100.0
 43
100.0
  0
INSERT
  5
18E6B
330
18B3F
100
AcDbEntity
  8
寸法
 62
     0
 48
50.0
370
    -2
100
AcDbBlockReference
  2
_DOTSMALL
 10
10094.55605979638
 20
1703.472369691173
 30
0.0
 41
100.0
 42
100.0
 43
100.0
 50
180.0
  0
MTEXT
  5
18E6C
330
18B3F
100
AcDbEntity
  8
寸法
 62
     7
 48
50.0
100
AcDbMText
 10
10194.55605979638
 20
1803.484180714795
 30
0.0
 40
120.0
 41
0.0
 71
     5
 72
     1
  1
\A1;200
  7
STYLE1
 73
     1
 44
1.0
1001
ACAD
1000
MTEXTBEGIN
1070
    73
1070
     1
1070
    44
1040
1.0
1070
    74
1070
     0
1000
MTEXTEND
  0
POINT
  5
18E6D
330
18B3F
100
AcDbEntity
  8
DEFPOINTS
 62
     0
 48
50.0
100
AcDbPoint
 10
10294.55605979638
 20
1989.519698991549
 30
0.0
  0
POINT
  5
18E6E
330
18B3F
100
AcDbEntity
  8
DEFPOINTS
 62
     0
 48
50.0
100
AcDbPoint
 10
10094.55605979638
 20
1989.51969899155
 30
0.0
  0
POINT
  5
18E6F
330
18B3F
100
AcDbEntity
  8
DEFPOINTS
 62
     0
 48
50.0
100
AcDbPoint
 10
10094.55605979638
 20
1703.472369691173
 30
0.0
  0
ENDBLK
  5
18B4A
330
18B3F
100
AcDbEntity
  8
0
 48
50.0
100
AcDbBlockEnd
  0
BLOCK
  5
18B55
330
18B4B
100
AcDbEntity
  8
0
 48
50.0
100
AcDbBlockBegin
  2
*D29
 70
     1
 10
0.0
 20
0.0
 30
0.0
  3
*D29
  1

  0
LINE
  5
18E55
330
18B4B
100
AcDbEntity
  8
寸法
 62
     0
 48
50.0
370
    -2
100
AcDbLine
 10
12397.05605979638
 20
2289.519698991552
 30
0.0
 11
13141.98321776851
 21
2289.519698991552
 31
0.0
  0
LINE
  5
18E56
330
18B4B
100
AcDbEntity
  8
寸法
 62
     0
 48
50.0
370
    -2
100
AcDbLine
 10
12477.05605979638
 20
4609.519698991553
 30
0.0
 11
13141.98321776851
 21
4609.519698991553
 31
0.0
  0
LINE
  5
18E57
330
18B4B
100
AcDbEntity
  8
寸法
 62
     0
 48
50.0
370
    -2
100
AcDbLine
 10
13081.98321776851
 20
2289.519698991552
 30
0.0
 11
13081.98321776851
 21
4609.519698991553
 31
0.0
  0
INSERT
  5
18E58
330
18B4B
100
AcDbEntity
  8
寸法
 62
     0
 48
50.0
370
    -2
100
AcDbBlockReference
  2
_DOTSMALL
 10
13081.98321776851
 20
2289.519698991552
 30
0.0
 41
100.0
 42
100.0
 43
100.0
 50
270.0
  0
INSERT
  5
18E59
330
18B4B
100
AcDbEntity
  8
寸法
 62
     0
 48
50.0
370
    -2
100
AcDbBlockReference
  2
_DOTSMALL
 10
13081.98321776851
 20
4609.519698991553
 30
0.0
 41
100.0
 42
100.0
 43
100.0
 50
90.0
  0
MTEXT
  5
18E5A
330
18B4B
100
AcDbEntity
  8
寸法
 62
     7
 48
50.0
100
AcDbMText
 10
12981.97140674488
 20
3449.519698991554
 30
0.0
 40
120.0
 41
0.0
 71
     5
 72
     1
  1
\A1;2320
  7
STYLE1
 11
0.0000000000000001
 21
1.0
 31
0.0
 73
     1
 44
1.0
1001
ACAD
1000
MTEXTBEGIN
1070
    73
1070
     1
1070
    44
1040
1.0
1070
    74
1070
     0
1000
MTEXTEND
  0
POINT
  5
18E5B
330
18B4B
100
AcDbEntity
  8
DEFPOINTS
 62
     0
 48
50.0
100
AcDbPoint
 10
12377.05605979638
 20
2289.519698991552
 30
0.0
  0
POINT
  5
18E5C
330
18B4B
100
AcDbEntity
  8
DEFPOINTS
 62
     0
 48
50.0
100
AcDbPoint
 10
12457.05605979638
 20
4609.519698991553
 30
0.0
  0
POINT
  5
18E5D
330
18B4B
100
AcDbEntity
  8
DEFPOINTS
 62
     0
 48
50.0
100
AcDbPoint
 10
13081.98321776851
 20
4609.519698991553
 30
0.0
  0
ENDBLK
  5
18B56
330
18B4B
100
AcDbEntity
  8
0
 48
50.0
100
AcDbBlockEnd
  0
BLOCK
  5
18B61
330
18B57
100
AcDbEntity
  8
0
 48
50.0
100
AcDbBlockBegin
  2
*D30
 70
     1
 10
0.0
 20
0.0
 30
0.0
  3
*D30
  1

  0
LINE
  5
18E43
330
18B57
100
AcDbEntity
  8
寸法
 62
     0
 48
50.0
370
    -2
100
AcDbLine
 10
10147.05605979638
 20
2289.519698991552
 30
0.0
 11
8963.305930613122
 21
2289.519698991552
 31
0.0
  0
LINE
  5
18E44
330
18B57
100
AcDbEntity
  8
寸法
 62
     0
 48
50.0
370
    -2
100
AcDbLine
 10
10087.05605979638
 20
4664.519698991557
 30
0.0
 11
8963.305930613124
 21
4664.519698991557
 31
0.0
  0
LINE
  5
18E45
330
18B57
100
AcDbEntity
  8
寸法
 62
     0
 48
50.0
370
    -2
100
AcDbLine
 10
9023.305930613123
 20
2289.519698991552
 30
0.0
 11
9023.305930613124
 21
4664.519698991557
 31
0.0
  0
INSERT
  5
18E46
330
18B57
100
AcDbEntity
  8
寸法
 62
     0
 48
50.0
370
    -2
100
AcDbBlockReference
  2
_DOTSMALL
 10
9023.305930613123
 20
2289.519698991552
 30
0.0
 41
100.0
 42
100.0
 43
100.0
 50
270.0
  0
INSERT
  5
18E47
330
18B57
100
AcDbEntity
  8
寸法
 62
     0
 48
50.0
370
    -2
100
AcDbBlockReference
  2
_DOTSMALL
 10
9023.305930613124
 20
4664.519698991557
 30
0.0
 41
100.0
 42
100.0
 43
100.0
 50
90.0
  0
MTEXT
  5
18E48
330
18B57
100
AcDbEntity
  8
寸法
 62
     7
 48
50.0
100
AcDbMText
 10
8923.294119589501
 20
3477.019698991556
 30
0.0
 40
120.0
 41
0.0
 71
     5
 72
     1
  1
\A1;2375
  7
STYLE1
 11
0.0000000000000001
 21
1.0
 31
0.0
 73
     1
 44
1.0
1001
ACAD
1000
MTEXTBEGIN
1070
    73
1070
     1
1070
    44
1040
1.0
1070
    74
1070
     0
1000
MTEXTEND
  0
POINT
  5
18E49
330
18B57
100
AcDbEntity
  8
DEFPOINTS
 62
     0
 48
50.0
100
AcDbPoint
 10
10167.05605979638
 20
2289.519698991552
 30
0.0
  0
POINT
  5
18E4A
330
18B57
100
AcDbEntity
  8
DEFPOINTS
 62
     0
 48
50.0
100
AcDbPoint
 10
10107.05605979638
 20
4664.519698991557
 30
0.0
  0
POINT
  5
18E4B
330
18B57
100
AcDbEntity
  8
DEFPOINTS
 62
     0
 48
50.0
100
AcDbPoint
 10
9023.305930613124
 20
4664.519698991557
 30
0.0
  0
ENDBLK
  5
18B62
330
18B57
100
AcDbEntity
  8
0
 48
50.0
100
AcDbBlockEnd
  0
BLOCK
  5
18B6D
330
18B63
100
AcDbEntity
  8
0
 48
50.0
100
AcDbBlockBegin
  2
*D31
 70
     1
 10
0.0
 20
0.0
 30
0.0
  3
*D31
  1

  0
LINE
  5
18E4C
330
18B63
100
AcDbEntity
  8
寸法
 62
     0
 48
50.0
370
    -2
100
AcDbLine
 10
10147.05605979638
 20
4429.51969899155
 30
0.0
 11
9263.305930613126
 21
4429.51969899155
 31
0.0
  0
LINE
  5
18E4D
330
18B63
100
AcDbEntity
  8
寸法
 62
     0
 48
50.0
370
    -2
100
AcDbLine
 10
10147.05605979638
 20
2339.519698991551
 30
0.0
 11
9263.305930613125
 21
2339.519698991551
 31
0.0
  0
LINE
  5
18E4E
330
18B63
100
AcDbEntity
  8
寸法
 62
     0
 48
50.0
370
    -2
100
AcDbLine
 10
9323.305930613125
 20
4429.51969899155
 30
0.0
 11
9323.305930613123
 21
2339.519698991551
 31
0.0
  0
INSERT
  5
18E4F
330
18B63
100
AcDbEntity
  8
寸法
 62
     0
 48
50.0
370
    -2
100
AcDbBlockReference
  2
_DOTSMALL
 10
9323.305930613125
 20
4429.51969899155
 30
0.0
 41
100.0
 42
100.0
 43
100.0
 50
90.0
  0
INSERT
  5
18E50
330
18B63
100
AcDbEntity
  8
寸法
 62
     0
 48
50.0
370
    -2
100
AcDbBlockReference
  2
_DOTSMALL
 10
9323.305930613123
 20
2339.519698991551
 30
0.0
 41
100.0
 42
100.0
 43
100.0
 50
270.0
  0
MTEXT
  5
18E51
330
18B63
100
AcDbEntity
  8
寸法
 62
     7
 48
50.0
100
AcDbMText
 10
9223.294119589501
 20
3384.519698991553
 30
0.0
 40
120.0
 41
0.0
 71
     5
 72
     1
  1
\A1;2090
  7
STYLE1
 11
0.0000000000000001
 21
1.0
 31
0.0
 73
     1
 44
1.0
1001
ACAD
1000
MTEXTBEGIN
1070
    73
1070
     1
1070
    44
1040
1.0
1070
    74
1070
     0
1000
MTEXTEND
  0
POINT
  5
18E52
330
18B63
100
AcDbEntity
  8
DEFPOINTS
 62
     0
 48
50.0
100
AcDbPoint
 10
10167.05605979638
 20
4429.51969899155
 30
0.0
  0
POINT
  5
18E53
330
18B63
100
AcDbEntity
  8
DEFPOINTS
 62
     0
 48
50.0
100
AcDbPoint
 10
10167.05605979638
 20
2339.519698991551
 30
0.0
  0
POINT
  5
18E54
330
18B63
100
AcDbEntity
  8
DEFPOINTS
 62
     0
 48
50.0
100
AcDbPoint
 10
9323.305930613123
 20
2339.519698991551
 30
0.0
  0
ENDBLK
  5
18B6E
330
18B63
100
AcDbEntity
  8
0
 48
50.0
100
AcDbBlockEnd
  0
BLOCK
  5
19053
330
19049
100
AcDbEntity
  8
0
 48
50.0
100
AcDbBlockBegin
  2
*D32
 70
     1
 10
0.0
 20
0.0
 30
0.0
  3
*D32
  1

  0
LINE
  5
1909D
330
19049
100
AcDbEntity
  8
寸法
 62
     0
 48
50.0
370
    -2
100
AcDbLine
 10
4491.193777925045
 20
7394.068732668076
 30
0.0
 11
4491.193777925045
 21
6722.924121630298
 31
0.0
  0
LINE
  5
1909E
330
19049
100
AcDbEntity
  8
寸法
 62
     0
 48
50.0
370
    -2
100
AcDbLine
 10
5757.193777925045
 20
7394.068732668076
 30
0.0
 11
5757.193777925045
 21
6722.924121630298
 31
0.0
  0
LINE
  5
1909F
330
19049
100
AcDbEntity
  8
寸法
 62
     0
 48
50.0
370
    -2
100
AcDbLine
 10
4511.193777925044
 20
6762.924121630298
 30
0.0
 11
5737.193777925045
 21
6762.924121630298
 31
0.0
  0
INSERT
  5
190A0
330
19049
100
AcDbEntity
  8
寸法
 62
     0
 48
50.0
370
    -2
100
AcDbBlockReference
  2
_DOT
 10
4491.193777925045
 20
6762.924121630298
 30
0.0
 41
20.0
 42
20.0
 43
20.0
 50
180.0
  0
INSERT
  5
190A1
330
19049
100
AcDbEntity
  8
寸法
 62
     0
 48
50.0
370
    -2
100
AcDbBlockReference
  2
_DOT
 10
5757.193777925045
 20
6762.924121630298
 30
0.0
 41
20.0
 42
20.0
 43
20.0
  0
MTEXT
  5
190A2
330
19049
100
AcDbEntity
  8
寸法
 62
     7
 48
50.0
100
AcDbMText
 10
5153.835004044769
 20
6954.935932653921
 30
0.0
 40
120.0
 41
0.0
 71
     5
 72
     1
  1
\A1;有効開口部間口\P1266
  7
STYLE1
 73
     1
 44
1.0
1001
ACAD
1000
MTEXTBEGIN
1070
    73
1070
     1
1070
    44
1040
1.0
1070
    74
1070
     0
1000
MTEXTEND
  0
POINT
  5
190A3
330
19049
100
AcDbEntity
  8
DEFPOINTS
 62
     0
 48
50.0
100
AcDbPoint
 10
4491.193777925045
 20
7414.068732668076
 30
0.0
  0
POINT
  5
190A4
330
19049
100
AcDbEntity
  8
DEFPOINTS
 62
     0
 48
50.0
100
AcDbPoint
 10
5757.193777925045
 20
7414.068732668076
 30
0.0
  0
POINT
  5
190A5
330
19049
100
AcDbEntity
  8
DEFPOINTS
 62
     0
 48
50.0
100
AcDbPoint
 10
5757.193777925045
 20
6762.924121630298
 30
0.0
  0
ENDBLK
  5
19054
330
19049
100
AcDbEntity
  8
0
 48
50.0
100
AcDbBlockEnd
  0
BLOCK
  5
193C8
330
193BE
100
AcDbEntity
  8
0
 48
50.0
100
AcDbBlockBegin
  2
*D33
 70
     1
 10
0.0
 20
0.0
 30
0.0
  3
*D33
  1

  0
LINE
  5
19516
330
193BE
100
AcDbEntity
  8
寸法
 62
     0
 48
50.0
370
    -2
100
AcDbLine
 10
4452.193777925043
 20
7394.068732668113
 30
0.0
 11
4452.193777925043
 21
6433.939017240344
 31
0.0
  0
LINE
  5
19517
330
193BE
100
AcDbEntity
  8
寸法
 62
     0
 48
50.0
370
    -2
100
AcDbLine
 10
6606.193777925044
 20
7394.068732668113
 30
0.0
 11
6606.193777925044
 21
6433.939017240344
 31
0.0
  0
LINE
  5
19518
330
193BE
100
AcDbEntity
  8
寸法
 62
     0
 48
50.0
370
    -2
100
AcDbLine
 10
4452.193777925043
 20
6493.939017240345
 30
0.0
 11
6606.193777925044
 21
6493.939017240345
 31
0.0
  0
INSERT
  5
19519
330
193BE
100
AcDbEntity
  8
寸法
 62
     0
 48
50.0
370
    -2
100
AcDbBlockReference
  2
_DOTSMALL
 10
4452.193777925043
 20
6493.939017240345
 30
0.0
 41
100.0
 42
100.0
 43
100.0
 50
180.0
  0
INSERT
  5
1951A
330
193BE
100
AcDbEntity
  8
寸法
 62
     0
 48
50.0
370
    -2
100
AcDbBlockReference
  2
_DOTSMALL
 10
6606.193777925044
 20
6493.939017240345
 30
0.0
 41
100.0
 42
100.0
 43
100.0
  0
MTEXT
  5
1951B
330
193BE
100
AcDbEntity
  8
寸法
 62
     7
 48
50.0
100
AcDbMText
 10
5551.326534672356
 20
6593.950828263967
 30
0.0
 40
120.0
 41
0.0
 71
     5
 72
     1
  1
\A1;2154
  7
STYLE1
 73
     1
 44
1.0
1001
ACAD
1000
MTEXTBEGIN
1070
    73
1070
     1
1070
    44
1040
1.0
1070
    74
1070
     0
1000
MTEXTEND
  0
POINT
  5
1951C
330
193BE
100
AcDbEntity
  8
DEFPOINTS
 62
     0
 48
50.0
100
AcDbPoint
 10
4452.193777925043
 20
7414.068732668113
 30
0.0
  0
POINT
  5
1951D
330
193BE
100
AcDbEntity
  8
DEFPOINTS
 62
     0
 48
50.0
100
AcDbPoint
 10
6606.193777925044
 20
7414.068732668113
 30
0.0
  0
POINT
  5
1951E
330
193BE
100
AcDbEntity
  8
DEFPOINTS
 62
     0
 48
50.0
100
AcDbPoint
 10
6606.193777925044
 20
6493.939017240345
 30
0.0
  0
ENDBLK
  5
193C9
330
193BE
100
AcDbEntity
  8
0
 48
50.0
100
AcDbBlockEnd
  0
BLOCK
  5
193D6
330
193CA
100
AcDbEntity
  8
0
 48
50.0
100
AcDbBlockBegin
  2
*D34
 70
     1
 10
0.0
 20
0.0
 30
0.0
  3
*D34
  1

  0
LINE
  5
1951F
330
193CA
100
AcDbEntity
  8
寸法
 62
     0
 48
50.0
370
    -2
100
AcDbLine
 10
4432.193777925044
 20
7491.068732668113
 30
0.0
 11
4203.579810250338
 21
7491.068732668113
 31
0.0
  0
LINE
  5
19520
330
193CA
100
AcDbEntity
  8
寸法
 62
     0
 48
50.0
370
    -2
100
AcDbLine
 10
4432.193777925042
 20
7416.06873266808
 30
0.0
 11
4203.579810250338
 21
7416.06873266808
 31
0.0
  0
LINE
  5
19521
330
193CA
100
AcDbEntity
  8
寸法
 62
     0
 48
50.0
370
    -2
100
AcDbLine
 10
4243.579810250337
 20
7511.068732668113
 30
0.0
 11
4243.579810250337
 21
7531.068732668114
 31
0.0
  0
LINE
  5
19522
330
193CA
100
AcDbEntity
  8
寸法
 62
     0
 48
50.0
370
    -2
100
AcDbLine
 10
4243.579810250337
 20
7396.06873266808
 30
0.0
 11
4243.579810250337
 21
7169.411677346156
 31
0.0
  0
LINE
  5
19523
330
193CA
100
AcDbEntity
  8
寸法
 62
     0
 48
50.0
370
    -2
100
AcDbLine
 10
4243.579810250337
 20
7491.068732668113
 30
0.0
 11
4243.579810250337
 21
7416.06873266808
 31
0.0
  0
INSERT
  5
19524
330
193CA
100
AcDbEntity
  8
寸法
 62
     0
 48
50.0
370
    -2
100
AcDbBlockReference
  2
_DOT
 10
4243.579810250337
 20
7491.068732668113
 30
0.0
 41
20.0
 42
20.0
 43
20.0
 50
270.0
  0
INSERT
  5
19525
330
193CA
100
AcDbEntity
  8
寸法
 62
     0
 48
50.0
370
    -2
100
AcDbBlockReference
  2
_DOT
 10
4243.579810250337
 20
7416.06873266808
 30
0.0
 41
20.0
 42
20.0
 43
20.0
 50
90.0
  0
MTEXT
  5
19526
330
193CA
100
AcDbEntity
  8
寸法
 62
     7
 48
50.0
100
AcDbMText
 10
4151.579810250336
 20
7269.896958720396
 30
0.0
 40
120.0
 41
0.0
 71
     5
 72
     1
  1
\A1;75
  7
STYLE1
 11
0.0000000000000001
 21
1.0
 31
0.0
 73
     1
 44
1.0
1001
ACAD
1000
MTEXTBEGIN
1070
    73
1070
     1
1070
    44
1040
1.0
1070
    74
1070
     0
1000
MTEXTEND
  0
POINT
  5
19527
330
193CA
100
AcDbEntity
  8
DEFPOINTS
 62
     0
 48
50.0
100
AcDbPoint
 10
4452.193777925043
 20
7491.068732668113
 30
0.0
  0
POINT
  5
19528
330
193CA
100
AcDbEntity
  8
DEFPOINTS
 62
     0
 48
50.0
100
AcDbPoint
 10
4452.193777925042
 20
7416.06873266808
 30
0.0
  0
POINT
  5
19529
330
193CA
100
AcDbEntity
  8
DEFPOINTS
 62
     0
 48
50.0
100
AcDbPoint
 10
4243.579810250337
 20
7416.06873266808
 30
0.0
  0
ENDBLK
  5
193D7
330
193CA
100
AcDbEntity
  8
0
 48
50.0
100
AcDbBlockEnd
  0
BLOCK
  5
19438
330
1942E
100
AcDbEntity
  8
0
 48
50.0
100
AcDbBlockBegin
  2
*D35
 70
     1
 10
0.0
 20
0.0
 30
0.0
  3
*D35
  1

  0
LINE
  5
1950D
330
1942E
100
AcDbEntity
  8
寸法
 62
     0
 48
50.0
370
    -2
100
AcDbLine
 10
3584.193777925069
 20
7471.068732668079
 30
0.0
 11
3584.193777925069
 21
6126.742337721879
 31
0.0
  0
LINE
  5
1950E
330
1942E
100
AcDbEntity
  8
寸法
 62
     0
 48
50.0
370
    -2
100
AcDbLine
 10
7054.193777925052
 20
7471.068732668207
 30
0.0
 11
7054.193777925052
 21
6126.742337721879
 31
0.0
  0
LINE
  5
1950F
330
1942E
100
AcDbEntity
  8
寸法
 62
     0
 48
50.0
370
    -2
100
AcDbLine
 10
3584.193777925069
 20
6186.742337721878
 30
0.0
 11
7054.193777925052
 21
6186.742337721878
 31
0.0
  0
INSERT
  5
19510
330
1942E
100
AcDbEntity
  8
寸法
 62
     0
 48
50.0
370
    -2
100
AcDbBlockReference
  2
_DOTSMALL
 10
3584.193777925069
 20
6186.742337721878
 30
0.0
 41
100.0
 42
100.0
 43
100.0
 50
180.0
  0
INSERT
  5
19511
330
1942E
100
AcDbEntity
  8
寸法
 62
     0
 48
50.0
370
    -2
100
AcDbBlockReference
  2
_DOTSMALL
 10
7054.193777925052
 20
6186.742337721878
 30
0.0
 41
100.0
 42
100.0
 43
100.0
  0
MTEXT
  5
19512
330
1942E
100
AcDbEntity
  8
寸法
 62
     7
 48
50.0
100
AcDbMText
 10
5385.5305299344
 20
6286.742337721879
 30
0.0
 40
120.0
 41
0.0
 71
     5
 72
     1
  1
\A1;3470
  7
STYLE1
 73
     1
 44
1.0
1001
ACAD
1000
MTEXTBEGIN
1070
    73
1070
     1
1070
    44
1040
1.0
1070
    74
1070
     0
1000
MTEXTEND
  0
POINT
  5
19513
330
1942E
100
AcDbEntity
  8
DEFPOINTS
 62
     0
 48
50.0
100
AcDbPoint
 10
3584.193777925069
 20
7491.06873266808
 30
0.0
  0
POINT
  5
19514
330
1942E
100
AcDbEntity
  8
DEFPOINTS
 62
     0
 48
50.0
100
AcDbPoint
 10
7054.193777925052
 20
7491.068732668208
 30
0.0
  0
POINT
  5
19515
330
1942E
100
AcDbEntity
  8
DEFPOINTS
 62
     0
 48
50.0
100
AcDbPoint
 10
7054.193777925052
 20
6186.742337721878
 30
0.0
  0
ENDBLK
  5
19439
330
1942E
100
AcDbEntity
  8
0
 48
50.0
100
AcDbBlockEnd
  0
ENDSEC
  0
SECTION
  2
ENTITIES
  0
MTEXT
  5
763F
330
747D
100
AcDbEntity
  8
0
100
AcDbMText
 10
302.846345836809
 20
280.1983726409901
 30
0.0
 40
3.5
 41
5.323721266742722
 71
     1
 72
     5
  1

  7
MSMINCHO
 73
     1
 44
1.0
1001
ACAD
1000
MTEXTBEGIN
1070
    73
1070
     1
1070
    44
1040
1.0
1070
    74
1070
     0
1000
MTEXTEND
  0
LINE
  5
10B57
330
747D
100
AcDbEntity
  8
補助
  6
PHANTOM
 62
   230
 48
50.0
100
AcDbLine
 10
139.9999999999995
 20
11409.6
 30
0.0
 11
16307.2
 21
11409.6
 31
0.0
  0
LINE
  5
10B59
330
747D
100
AcDbEntity
  8
仕様書枠
  6
Continuous
 48
50.0
100
AcDbLine
 10
13107.2
 20
1200.0
 30
0.0
 11
13107.2
 21
-0.0000000000000729
 31
0.0
  0
LINE
  5
10B5D
330
747D
100
AcDbEntity
  8
仕様書枠
 48
50.0
100
AcDbLine
 10
140.0
 20
0.0
 30
0.0
 11
16307.2
 21
-0.0000000000000909
 31
0.0
  0
LINE
  5
10B5E
330
747D
100
AcDbEntity
  8
補助
  6
PHANTOM
 62
   230
 48
50.0
100
AcDbLine
 10
16307.2
 20
11409.6
 30
0.0
 11
16307.2
 21
1200.0
 31
0.0
  0
LINE
  5
10B6C
330
747D
100
AcDbEntity
  8
仕様書枠
 48
50.0
100
AcDbLine
 10
13107.2
 20
1200.0
 30
0.0
 11
16307.2
 21
1200.0
 31
0.0
  0
LINE
  5
10B6D
330
747D
100
AcDbEntity
  8
補助
  6
PHANTOM
 62
   230
 48
50.0
100
AcDbLine
 10
13107.2
 20
11409.6
 30
0.0
 11
13107.2
 21
4800.0
 31
0.0
  0
LINE
  5
10B6F
330
747D
100
AcDbEntity
  8
補助
  6
PHANTOM
 62
   230
 48
50.0
100
AcDbLine
 10
13107.2
 20
4800.0
 30
0.0
 11
16307.2
 21
4800.0
 31
0.0
  0
LINE
  5
10B72
330
747D
100
AcDbEntity
  8
文字
 62
     7
 48
50.0
100
AcDbLine
 10
13187.2
 20
400.0
 30
0.0
 11
16227.2
 21
400.0
 31
0.0
  0
TEXT
  5
10B73
330
747D
100
AcDbEntity
  8
文字
 62
     7
 48
50.0
100
AcDbText
 10
13162.9790565769
 20
895.0906074299405
 30
0.0
 40
200.0
  1
外 形 図
  7
STYLE2
100
AcDbText
  0
TEXT
  5
10B74
330
747D
100
AcDbEntity
  8
文字
 62
     7
 48
50.0
100
AcDbText
 10
13201.43669998441
 20
477.2740661031255
 30
0.0
 40
160.0
  1
機種名
  7
STYLE2
100
AcDbText
  0
LINE
  5
10B7B
330
747D
100
AcDbEntity
  8
仕様書枠
 48
50.0
100
AcDbLine
 10
13107.2
 20
800.0
 30
0.0
 11
14251.2
 21
800.0
 31
0.0
  0
LINE
  5
10B88
330
747D
100
AcDbEntity
  8
仕様書枠
  6
Continuous
 48
50.0
100
AcDbLine
 10
14251.2
 20
1200.0
 30
0.0
 11
14251.2
 21
800.0
 31
0.0
  0
LINE
  5
16462
330
747D
100
AcDbEntity
  8
仕様書枠
 48
50.0
100
AcDbLine
 10
16307.2
 20
1200.0
 30
0.0
 11
16307.2
 21
-0.0000000000000909
 31
0.0
  0
TEXT
  5
1649E
330
747D
100
AcDbEntity
  8
文字
 62
     7
 48
50.0
100
AcDbText
 10
14524.131837222
 20
1031.557706291228
 30
0.0
 40
100.0
  1
NO.44     <縮尺> S=1/40
  7
STYLE2
100
AcDbText
  0
TEXT
  5
1649F
330
747D
100
AcDbEntity
  8
文字
 62
     7
 48
50.0
100
AcDbText
 10
14883.82156197996
 20
881.2807276968213
 30
0.0
 40
100.0
  1
～一般型～
  7
STYLE2
100
AcDbText
  0
TEXT
  5
164A1
330
747D
100
AcDbEntity
  8
文字
 62
     7
 48
50.0
100
AcDbText
 10
13209.4053442172
 20
76.09434707649348
 30
0.0
 40
100.0
  1
○床面積 ： 7.83㎡(2.37坪) 　
  7
STYLE2
100
AcDbText
  0
MTEXT
  5
17938
330
747D
100
AcDbEntity
  8
寸法
 62
     7
 48
50.0
100
AcDbMText
 10
6509.473575535711
 20
9296.903892627623
 30
0.0
 40
96.0
 41
0.0
 71
     5
 72
     1
  1
棚 3段
  7
STYLE1
 73
     1
 44
1.0
1001
ACAD
1000
MTEXTBEGIN
1070
    73
1070
     1
1070
    44
1040
1.0
1070
    74
1070
     0
1000
MTEXTEND
  0
MTEXT
  5
17939
330
747D
100
AcDbEntity
  8
寸法
 62
     7
 48
50.0
100
AcDbMText
 10
5334.473575535679
 20
9296.903892627598
 30
0.0
 40
96.0
 41
0.0
 71
     5
 72
     1
  1
棚 3段
  7
STYLE1
 73
     1
 44
1.0
1001
ACAD
1000
MTEXTBEGIN
1070
    73
1070
     1
1070
    44
1040
1.0
1070
    74
1070
     0
1000
MTEXTEND
  0
LINE
  5
1793A
330
747D
100
AcDbEntity
  8
Ｇ．Ｌ
100
AcDbLine
 10
2705.927175254587
 20
2189.519698991551
 30
0.0
 11
13213.32095960132
 21
2189.519698991551
 31
0.0
  0
LINE
  5
1793B
330
747D
100
AcDbEntity
  8
部品1
100
AcDbLine
 10
2805.424186578687
 20
2319.423509559216
 30
0.0
 11
2955.424186578687
 21
2319.423509559216
 31
0.0
  0
LINE
  5
1793C
330
747D
100
AcDbEntity
  8
部品1
100
AcDbLine
 10
2880.424186578686
 20
2189.519698991551
 30
0.0
 11
2805.424186578687
 21
2319.423509559216
 31
0.0
  0
TEXT
  5
1793D
330
747D
100
AcDbEntity
  8
部品1
100
AcDbText
 10
2983.52912870346
 20
2225.626602597453
 30
0.0
 40
125.0
  1
G.L
  7
MSGOTHIC
100
AcDbText
  0
LINE
  5
1793E
330
747D
100
AcDbEntity
  8
部品1
100
AcDbLine
 10
2955.424186578687
 20
2319.423509559216
 30
0.0
 11
2880.424186578686
 21
2189.519698991551
 31
0.0
  0
LINE
  5
1793F
330
747D
100
AcDbEntity
  8
部品1
100
AcDbLine
 10
3584.193777925069
 20
2289.519698991551
 30
0.0
 11
7054.193777925068
 21
2289.519698991551
 31
0.0
  0
LINE
  5
17940
330
747D
100
AcDbEntity
  8
部品1
100
AcDbLine
 10
3584.193777925069
 20
4429.51969899155
 30
0.0
 11
7054.193777925068
 21
4429.51969899155
 31
0.0
  0
LINE
  5
17941
330
747D
100
AcDbEntity
  8
部品1
100
AcDbLine
 10
3584.193777925069
 20
4523.519698991555
 30
0.0
 11
3584.193777925069
 21
2189.519698991551
 31
0.0
  0
LINE
  5
17942
330
747D
100
AcDbEntity
  8
部品1
100
AcDbLine
 10
6999.193777925069
 20
4429.51969899155
 30
0.0
 11
6999.193777925069
 21
2339.519698991571
 31
0.0
  0
LINE
  5
17943
330
747D
100
AcDbEntity
  8
部品1
100
AcDbLine
 10
3639.19377792507
 20
4429.51969899155
 30
0.0
 11
3639.19377792507
 21
2339.519698991555
 31
0.0
  0
LINE
  5
17944
330
747D
100
AcDbEntity
  8
部品1
100
AcDbLine
 10
7054.193777925068
 20
4523.519698991554
 30
0.0
 11
7054.193777925068
 21
2189.519698991551
 31
0.0
  0
LINE
  5
17945
330
747D
100
AcDbEntity
  8
部品1
100
AcDbLine
 10
6654.193777925069
 20
2289.519698991551
 30
0.0
 11
6654.193777925069
 21
2189.519698991551
 31
0.0
  0
LINE
  5
17946
330
747D
100
AcDbEntity
  8
部品1
100
AcDbLine
 10
3984.193777925069
 20
2289.519698991551
 30
0.0
 11
3984.193777925069
 21
2189.519698991551
 31
0.0
  0
LINE
  5
17947
330
747D
100
AcDbEntity
  8
部品1
 48
50.0
100
AcDbLine
 10
6051.193777925069
 20
2289.519698991551
 30
0.0
 11
6051.193777925069
 21
2189.519698991551
 31
0.0
  0
LINE
  5
17948
330
747D
100
AcDbEntity
  8
部品1
 48
50.0
100
AcDbLine
 10
6251.193777925069
 20
2289.519698991551
 30
0.0
 11
6251.193777925069
 21
2189.519698991551
 31
0.0
  0
LINE
  5
17949
330
747D
100
AcDbEntity
  8
部品1
100
AcDbLine
 10
7059.19377792507
 20
2334.519698991552
 30
0.0
 11
7059.19377792507
 21
2189.519698991551
 31
0.0
  0
LINE
  5
1794A
330
747D
100
AcDbEntity
  8
破線
 48
5.0
100
AcDbLine
 10
7154.193777925069
 20
1989.51969899155
 30
0.0
 11
6954.193777925067
 21
1989.51969899155
 31
0.0
  0
LINE
  5
1794B
330
747D
100
AcDbEntity
  8
破線
 48
5.0
100
AcDbLine
 10
6954.193777925069
 20
2189.519698991551
 30
0.0
 11
6954.193777925069
 21
1989.51969899155
 31
0.0
  0
LINE
  5
1794C
330
747D
100
AcDbEntity
  8
破線
 48
5.0
100
AcDbLine
 10
7154.193777925069
 20
2189.519698991551
 30
0.0
 11
7154.193777925069
 21
1989.51969899155
 31
0.0
  0
LINE
  5
1794D
330
747D
100
AcDbEntity
  8
破線
 48
5.0
100
AcDbLine
 10
7079.193777925069
 20
2034.519698991551
 30
0.0
 11
7059.193777925067
 21
2034.519698991551
 31
0.0
  0
LINE
  5
1794E
330
747D
100
AcDbEntity
  8
部品1
100
AcDbLine
 10
3579.19377792507
 20
2334.519698991553
 30
0.0
 11
3579.19377792507
 21
2189.519698991551
 31
0.0
  0
LINE
  5
1794F
330
747D
100
AcDbEntity
  8
破線
 48
5.0
100
AcDbLine
 10
3484.19377792507
 20
1989.519698991551
 30
0.0
 11
3684.193777925071
 21
1989.519698991551
 31
0.0
  0
LINE
  5
17950
330
747D
100
AcDbEntity
  8
破線
 48
5.0
100
AcDbLine
 10
3484.19377792507
 20
2189.519698991552
 30
0.0
 11
3484.19377792507
 21
1989.519698991551
 31
0.0
  0
LINE
  5
17951
330
747D
100
AcDbEntity
  8
破線
 48
5.0
100
AcDbLine
 10
3559.193777925069
 20
2034.519698991552
 30
0.0
 11
3579.193777925071
 21
2034.519698991552
 31
0.0
  0
LINE
  5
17952
330
747D
100
AcDbEntity
  8
破線
 48
5.0
100
AcDbLine
 10
3684.193777925069
 20
2189.519698991552
 30
0.0
 11
3684.193777925069
 21
1989.519698991551
 31
0.0
  0
LINE
  5
17953
330
747D
100
AcDbEntity
  8
破線
 48
5.0
100
AcDbLine
 10
7059.19377792507
 20
2189.519698991551
 30
0.0
 11
7059.19377792507
 21
2034.519698991551
 31
0.0
  0
LINE
  5
17954
330
747D
100
AcDbEntity
  8
破線
 48
5.0
100
AcDbLine
 10
3579.19377792507
 20
2189.519698991551
 30
0.0
 11
3579.19377792507
 21
2034.519698991552
 31
0.0
  0
DIMENSION
  5
17955
330
747D
100
AcDbEntity
  8
寸法
 48
50.0
100
AcDbDimension
  2
*D3
 10
6954.193777925067
 20
1703.472369691173
 30
0.0
 11
7054.193777925068
 21
1703.472369691173
 31
0.0
 70
   160
 71
     5
 42
200.0000000000018
  3
INABA_S40G
100
AcDbAlignedDimension
 13
7154.193777925069
 23
1989.51969899155
 33
0.0
 14
6954.193777925067
 24
1989.51969899155
 34
0.0
100
AcDbRotatedDimension
  0
LINE
  5
17956
330
747D
100
AcDbEntity
  8
部品1
100
AcDbLine
 10
3584.193777925069
 20
2339.519698991555
 30
0.0
 11
4452.193777925069
 21
2339.519698991558
 31
0.0
  0
DIMENSION
  5
17957
330
747D
100
AcDbEntity
  8
寸法
100
AcDbDimension
  2
*D4
 10
8066.727065399126
 20
7491.068732668208
 30
0.0
 11
8066.727065399124
 21
8596.068732668211
 31
0.0
 70
   160
 71
     5
 42
2210.000000000007
  3
INABA_S40G
100
AcDbAlignedDimension
 13
7054.193777925077
 23
9701.068732668215
 33
0.0
 14
7054.193777925052
 24
7491.068732668208
 34
0.0
 50
90.0
100
AcDbRotatedDimension
1001
ACAD
1000
DSTYLE
1002
{
1002
}
  0
DIMENSION
  5
17958
330
747D
100
AcDbEntity
  8
寸法
100
AcDbDimension
  2
*D5
 10
6999.193777925076
 20
10216.87695229322
 30
0.0
 11
5319.193777925075
 21
10216.87695229322
 31
0.0
 70
   160
  1
8X420=<>
 71
     5
 42
3360.0
  3
INABA_S40G
100
AcDbAlignedDimension
 13
3639.193777925077
 23
9701.068732668121
 33
0.0
 14
6999.193777925076
 24
9701.068732668215
 34
0.0
100
AcDbRotatedDimension
1001
ACAD
1000
DSTYLE
1002
{
1002
}
  0
DIMENSION
  5
17959
330
747D
100
AcDbEntity
  8
寸法
100
AcDbDimension
  2
*D6
 10
7054.193777925077
 20
10216.8769522932
 30
0.0
 11
7362.679059299314
 21
10216.8769522932
 31
0.0
 70
   160
 71
     5
 42
55.0
  3
INABA_S40G
100
AcDbAlignedDimension
 13
6999.193777925076
 23
9701.068732668215
 33
0.0
 14
7054.193777925077
 24
9701.068732668215
 34
0.0
100
AcDbRotatedDimension
1001
ACAD
1000
DSTYLE
1002
{
1002
}
  0
DIMENSION
  5
1795A
330
747D
100
AcDbEntity
  8
寸法
100
AcDbDimension
  2
*D7
 10
7701.620123659487
 20
9646.068732668219
 30
0.0
 11
7701.620123659487
 21
10009.55401404245
 31
0.0
 70
   160
 71
     5
 42
54.99999999999636
  3
INABA_S40G
100
AcDbAlignedDimension
 13
7054.193777925077
 23
9701.068732668215
 33
0.0
 14
7054.193777925077
 24
9646.068732668219
 34
0.0
 50
90.0
100
AcDbRotatedDimension
1001
ACAD
1000
DSTYLE
1002
{
1002
}
  0
DIMENSION
  5
1795B
330
747D
100
AcDbEntity
  8
寸法
100
AcDbDimension
  2
*D8
 10
3639.193777925077
 20
10216.8769522931
 30
0.0
 11
3275.7084965508
 21
10216.8769522931
 31
0.0
 70
   160
 71
     5
 42
55.00000000003637
  3
INABA_S40G
100
AcDbAlignedDimension
 13
3584.19377792504
 23
9701.068732668121
 33
0.0
 14
3639.193777925077
 24
9701.068732668121
 34
0.0
100
AcDbRotatedDimension
1001
ACAD
1000
DSTYLE
1002
{
1002
}
  0
LINE
  5
1795C
330
747D
100
AcDbEntity
  8
部品1
100
AcDbLine
 10
6997.693777925076
 20
7547.568732668207
 30
0.0
 11
3640.693777924969
 21
7547.568732668087
 31
0.0
  0
LINE
  5
1795D
330
747D
100
AcDbEntity
  8
破線
 48
10.0
100
AcDbLine
 10
5294.193777925055
 20
7571.068732668113
 30
0.0
 11
4511.693777925051
 21
7571.068732668084
 31
0.0
  0
LINE
  5
1795E
330
747D
100
AcDbEntity
  8
細線
 48
50.0
100
AcDbLine
 10
5934.693777925075
 20
9221.068732668227
 30
0.0
 11
4703.693777925006
 21
9671.068732668169
 31
0.0
  0
LINE
  5
1795F
330
747D
100
AcDbEntity
  8
部品1
100
AcDbLine
 10
3612.693777925075
 20
9671.068732668119
 30
0.0
 11
4675.693777925006
 21
9671.068732668169
 31
0.0
  0
LINE
  5
17960
330
747D
100
AcDbEntity
  8
細線
 48
50.0
100
AcDbLine
 10
5934.693777925076
 20
9671.068732668222
 30
0.0
 11
4703.693777925007
 21
9221.06873266817
 31
0.0
  0
LINE
  5
17961
330
747D
100
AcDbEntity
  8
部品1
100
AcDbLine
 10
3612.693777925077
 20
9221.06873266812
 30
0.0
 11
4675.693777925007
 21
9221.06873266817
 31
0.0
  0
LINE
  5
17962
330
747D
100
AcDbEntity
  8
部品1
100
AcDbLine
 10
3584.193777925076
 20
9701.068732668121
 30
0.0
 11
7054.193777925077
 21
9701.068732668215
 31
0.0
  0
LINE
  5
17963
330
747D
100
AcDbEntity
  8
部品1
100
AcDbLine
 10
7054.193777925052
 20
7491.068732668208
 30
0.0
 11
6579.193777925077
 21
7491.068732668193
 31
0.0
  0
LINE
  5
17964
330
747D
100
AcDbEntity
  8
部品1
100
AcDbLine
 10
3612.193777925077
 20
9673.068732668234
 30
0.0
 11
4676.693777925008
 21
9673.068732668237
 31
0.0
  0
LINE
  5
17966
330
747D
100
AcDbEntity
  8
破線
 48
10.0
100
AcDbLine
 10
3664.193777925051
 20
9221.06873266822
 30
0.0
 11
3664.193777925066
 21
7571.068732668087
 31
0.0
  0
LINE
  5
17967
330
747D
100
AcDbEntity
  8
部品1
100
AcDbLine
 10
3640.693777925053
 20
9221.06873266822
 30
0.0
 11
3640.693777925065
 21
7547.568732668182
 31
0.0
  0
LINE
  5
17968
330
747D
100
AcDbEntity
  8
部品1
100
AcDbLine
 10
3612.193777925051
 20
7519.068732668166
 30
0.0
 11
3612.193777925077
 21
9673.06873266812
 31
0.0
  0
LINE
  5
17969
330
747D
100
AcDbEntity
  8
部品1
100
AcDbLine
 10
3584.19377792504
 20
9701.068732668089
 30
0.0
 11
3584.193777925069
 21
7491.068732668075
 31
0.0
  0
LINE
  5
1796A
330
747D
100
AcDbEntity
  8
部品1
100
AcDbLine
 10
3584.193777925068
 20
7546.06873266804
 30
0.0
 11
3584.193777925069
 21
7491.068732668043
 31
0.0
  0
LINE
  5
1796B
330
747D
100
AcDbEntity
  8
部品1
100
AcDbLine
 10
3612.193777925068
 20
7546.068732668091
 30
0.0
 11
3584.193777925068
 21
7546.068732668091
 31
0.0
  0
LINE
  5
1796C
330
747D
100
AcDbEntity
  8
部品1
100
AcDbLine
 10
3612.193777925051
 20
7546.068732668077
 30
0.0
 11
3584.193777925068
 21
7546.068732668077
 31
0.0
  0
LINE
  5
1796D
330
747D
100
AcDbEntity
  8
部品1
100
AcDbLine
 10
3612.193777925051
 20
7546.06873266804
 30
0.0
 11
3584.193777925068
 21
7546.06873266804
 31
0.0
  0
LINE
  5
1796E
330
747D
100
AcDbEntity
  8
部品1
100
AcDbLine
 10
3639.193777925044
 20
7491.068732668075
 30
0.0
 11
3584.193777925069
 21
7491.068732668075
 31
0.0
  0
LINE
  5
1796F
330
747D
100
AcDbEntity
  8
部品1
 48
50.0
100
AcDbLine
 10
3640.693777925065
 20
7547.568732668183
 30
0.0
 11
3612.193777925066
 21
7519.068732668185
 31
0.0
  0
LINE
  5
17970
330
747D
100
AcDbEntity
  8
部品1
 48
50.0
100
AcDbLine
 10
3612.693777925075
 20
9671.068732668118
 30
0.0
 11
3612.693777925077
 21
9221.068732668117
 31
0.0
  0
LINE
  5
17971
330
747D
100
AcDbEntity
  8
部品1
100
AcDbLine
 10
3612.193777925051
 20
9226.068732668091
 30
0.0
 11
3584.193777925051
 21
9226.068732668091
 31
0.0
  0
LINE
  5
17972
330
747D
100
AcDbEntity
  8
部品1
100
AcDbLine
 10
3612.193777925044
 20
9646.068732668091
 30
0.0
 11
3584.193777925044
 21
9646.068732668091
 31
0.0
  0
LINE
  5
17973
330
747D
100
AcDbEntity
  8
部品1
100
AcDbLine
 10
3639.193777925077
 20
9701.068732668121
 30
0.0
 11
3639.193777925077
 21
9673.06873266812
 31
0.0
  0
LINE
  5
17974
330
747D
100
AcDbEntity
  8
部品1
100
AcDbLine
 10
3639.19377792504
 20
9701.068732668089
 30
0.0
 11
3639.193777925044
 21
9673.068732668088
 31
0.0
  0
DIMENSION
  5
17975
330
747D
100
AcDbEntity
  8
寸法
100
AcDbDimension
  2
*D9
 10
7701.620123659463
 20
7491.068732668208
 30
0.0
 11
7701.620123659461
 21
7182.583451293968
 31
0.0
 70
   160
 71
     5
 42
54.99999999999636
  3
INABA_S40G
100
AcDbAlignedDimension
 13
7054.193777925052
 23
7546.068732668203
 33
0.0
 14
7054.193777925052
 24
7491.068732668208
 34
0.0
 50
90.0
100
AcDbRotatedDimension
1001
ACAD
1000
DSTYLE
1002
{
1002
}
  0
LINE
  5
17976
330
747D
100
AcDbEntity
  8
破線
 48
10.0
100
AcDbLine
 10
6974.193777925076
 20
7571.068732668206
 30
0.0
 11
6176.693777925051
 21
7571.068732668135
 31
0.0
  0
DIMENSION
  5
17977
330
747D
100
AcDbEntity
  8
寸法
100
AcDbDimension
  2
*D10
 10
6968.458104926622
 20
9007.462293032547
 30
0.0
 11
6485.583733047427
 21
9007.462293032547
 31
0.0
 70
   160
 71
     5
 42
1063.000000000011
  3
INABA_S40G
100
AcDbAlignedDimension
 13
5962.693777925077
 23
9221.068732668227
 33
0.0
 14
7025.693777925088
 24
9221.06873266822
 34
0.0
100
AcDbRotatedDimension
1001
ACAD
1000
DSTYLE
1002
{
1002
}
  0
LINE
  5
17978
330
747D
100
AcDbEntity
  8
細線
 48
50.0
100
AcDbLine
 10
7025.693777925076
 20
9671.068732668215
 30
0.0
 11
5962.693777925075
 21
9221.068732668227
 31
0.0
  0
LINE
  5
17979
330
747D
100
AcDbEntity
  8
部品1
100
AcDbLine
 10
5962.693777925077
 20
9671.068732668222
 30
0.0
 11
7025.693777925076
 21
9671.068732668215
 31
0.0
  0
LINE
  5
1797A
330
747D
100
AcDbEntity
  8
部品1
100
AcDbLine
 10
5962.693777925075
 20
9221.068732668227
 30
0.0
 11
7025.693777925076
 21
9221.06873266822
 31
0.0
  0
LINE
  5
1797B
330
747D
100
AcDbEntity
  8
細線
 48
50.0
100
AcDbLine
 10
7025.693777925076
 20
9221.06873266822
 30
0.0
 11
5962.693777925077
 21
9671.068732668219
 31
0.0
  0
LINE
  5
1797C
330
747D
100
AcDbEntity
  8
部品1
100
AcDbLine
 10
5961.693777925077
 20
9673.068732668234
 30
0.0
 11
7026.193777925077
 21
9673.068732668214
 31
0.0
  0
LINE
  5
1797D
330
747D
100
AcDbEntity
  8
破線
 48
10.0
100
AcDbLine
 10
5294.193777925055
 20
7547.568732668117
 30
0.0
 11
5294.193777925051
 21
9221.068732668197
 31
0.0
  0
LINE
  5
1797E
330
747D
100
AcDbEntity
  8
破線
 48
10.0
100
AcDbLine
 10
5344.193777925051
 20
7547.56873266812
 30
0.0
 11
5344.193777925051
 21
9221.068732668198
 31
0.0
  0
LINE
  5
1797F
330
747D
100
AcDbEntity
  8
部品1
 48
50.0
100
AcDbLine
 10
5934.693777925076
 20
9671.068732668222
 30
0.0
 11
5934.693777925076
 21
9221.068732668227
 31
0.0
  0
LINE
  5
17980
330
747D
100
AcDbEntity
  8
部品1
 48
50.0
100
AcDbLine
 10
5962.693777925077
 20
9671.068732668219
 30
0.0
 11
5962.693777925077
 21
9221.068732668227
 31
0.0
  0
LINE
  5
17981
330
747D
100
AcDbEntity
  8
部品1
 48
50.0
100
AcDbLine
 10
5936.693777925075
 20
9673.06873266823
 30
0.0
 11
5936.693777925077
 21
9221.068732668227
 31
0.0
  0
LINE
  5
17982
330
747D
100
AcDbEntity
  8
部品1
 48
50.0
100
AcDbLine
 10
5961.693777925077
 20
9673.068732668227
 30
0.0
 11
5961.693777925077
 21
9221.068732668227
 31
0.0
  0
LINE
  5
17983
330
747D
100
AcDbEntity
  8
部品1
100
AcDbLine
 10
5936.693777925077
 20
9221.068732668227
 30
0.0
 11
5961.693777925077
 21
9221.068732668227
 31
0.0
  0
LINE
  5
17984
330
747D
100
AcDbEntity
  8
部品1
100
AcDbLine
 10
5914.193777925077
 20
9691.068732668222
 30
0.0
 11
5914.193777925077
 21
9673.068732668221
 31
0.0
  0
LINE
  5
17985
330
747D
100
AcDbEntity
  8
部品1
100
AcDbLine
 10
5914.193777925077
 20
9691.068732668222
 30
0.0
 11
5920.193777925077
 21
9691.068732668222
 31
0.0
  0
LINE
  5
17986
330
747D
100
AcDbEntity
  8
部品1
100
AcDbLine
 10
5984.193777925077
 20
9691.068732668222
 30
0.0
 11
5984.193777925077
 21
9673.068732668221
 31
0.0
  0
LINE
  5
17987
330
747D
100
AcDbEntity
  8
部品1
100
AcDbLine
 10
5978.193777925077
 20
9691.068732668222
 30
0.0
 11
5984.193777925077
 21
9691.068732668222
 31
0.0
  0
LINE
  5
17988
330
747D
100
AcDbEntity
  8
部品1
100
AcDbLine
 10
5936.693777925077
 20
9665.068732668219
 30
0.0
 11
5961.693777925077
 21
9665.068732668222
 31
0.0
  0
LINE
  5
17989
330
747D
100
AcDbEntity
  8
破線
 48
10.0
100
AcDbLine
 10
6974.193777925069
 20
9221.06873266822
 30
0.0
 11
6974.193777925079
 21
7571.068732668203
 31
0.0
  0
LINE
  5
1798A
330
747D
100
AcDbEntity
  8
部品1
100
AcDbLine
 10
6997.693777925068
 20
9221.06873266822
 30
0.0
 11
6997.693777925076
 21
7547.568732668207
 31
0.0
  0
DIMENSION
  5
1798B
330
747D
100
AcDbEntity
  8
寸法
100
AcDbDimension
  2
*D11
 10
7381.051503787102
 20
9125.850916999329
 30
0.0
 11
7281.0515037871
 21
9350.850916999329
 31
0.0
 70
    32
 71
     5
 42
449.9999999999963
  3
INABA_S40G
100
AcDbAlignedDimension
 13
7025.693777925076
 23
9671.068732668215
 33
0.0
 14
7025.693777925076
 24
9221.06873266822
 34
0.0
 50
90.0
100
AcDbRotatedDimension
1001
ACAD
1000
DSTYLE
1002
{
1002
}
  0
LINE
  5
1798C
330
747D
100
AcDbEntity
  8
部品1
100
AcDbLine
 10
7026.193777925077
 20
9673.068732668214
 30
0.0
 11
7026.193777925055
 21
7519.068732668208
 31
0.0
  0
DIMENSION
  5
1798D
330
747D
100
AcDbEntity
  8
寸法
100
AcDbDimension
  2
*D12
 10
7701.620123659487
 20
7546.068732668203
 30
0.0
 11
7701.620123659487
 21
8596.068732668211
 31
0.0
 70
   160
  1
5X420=<>
 71
     5
 42
2100.000000000015
  3
INABA_S40G
100
AcDbAlignedDimension
 13
7054.193777925077
 23
9646.068732668219
 33
0.0
 14
7054.193777925052
 24
7546.068732668203
 34
0.0
 50
90.0
100
AcDbRotatedDimension
1001
ACAD
1000
DSTYLE
1002
{
1002
}
  0
LINE
  5
1798E
330
747D
100
AcDbEntity
  8
部品1
100
AcDbLine
 10
7054.193777925077
 20
9701.068732668215
 30
0.0
 11
7054.193777925052
 21
7491.068732668208
 31
0.0
  0
LINE
  5
1798F
330
747D
100
AcDbEntity
  8
部品1
100
AcDbLine
 10
7026.193777925053
 20
7546.068732668203
 30
0.0
 11
7054.193777925052
 21
7546.068732668203
 31
0.0
  0
LINE
  5
17990
330
747D
100
AcDbEntity
  8
部品1
100
AcDbLine
 10
7054.193777925052
 20
7491.068732668208
 30
0.0
 11
7003.193777925051
 21
7491.068732668208
 31
0.0
  0
LINE
  5
17991
330
747D
100
AcDbEntity
  8
部品1
 48
50.0
100
AcDbLine
 10
6997.693777925076
 20
7547.568732668207
 30
0.0
 11
7026.193777925074
 21
7519.068732668208
 31
0.0
  0
LINE
  5
17992
330
747D
100
AcDbEntity
  8
部品1
100
AcDbLine
 10
7054.193777925053
 20
7546.068732668203
 30
0.0
 11
7054.193777925052
 21
7491.068732668208
 31
0.0
  0
LINE
  5
17993
330
747D
100
AcDbEntity
  8
部品1
100
AcDbLine
 10
7025.693777925076
 20
9671.068732668215
 30
0.0
 11
7025.693777925076
 21
9221.06873266822
 31
0.0
  0
LINE
  5
17994
330
747D
100
AcDbEntity
  8
部品1
100
AcDbLine
 10
7026.193777925077
 20
9226.068732668219
 30
0.0
 11
7054.193777925077
 21
9226.068732668219
 31
0.0
  0
LINE
  5
17995
330
747D
100
AcDbEntity
  8
部品1
100
AcDbLine
 10
7026.193777925077
 20
9646.068732668219
 30
0.0
 11
7054.193777925077
 21
9646.068732668219
 31
0.0
  0
LINE
  5
17996
330
747D
100
AcDbEntity
  8
部品1
100
AcDbLine
 10
6999.193777925076
 20
9701.068732668238
 30
0.0
 11
6999.193777925076
 21
9673.068732668237
 31
0.0
  0
LINE
  5
17997
330
747D
100
AcDbEntity
  8
部品1
100
AcDbLine
 10
6999.193777925076
 20
9701.068732668215
 30
0.0
 11
6999.193777925076
 21
9673.068732668214
 31
0.0
  0
LINE
  5
17998
330
747D
100
AcDbEntity
  8
部品1
 48
50.0
100
AcDbLine
 10
4587.193777925071
 20
2289.519698991551
 30
0.0
 11
4587.193777925071
 21
2189.519698991551
 31
0.0
  0
LINE
  5
17999
330
747D
100
AcDbEntity
  8
部品1
 48
50.0
100
AcDbLine
 10
4387.193777925071
 20
2289.519698991551
 30
0.0
 11
4387.193777925071
 21
2189.519698991551
 31
0.0
  0
LINE
  5
1799A
330
747D
100
AcDbEntity
  8
破線
 48
10.0
100
AcDbLine
 10
4461.693777925055
 20
7571.06873266808
 30
0.0
 11
3664.193777925062
 21
7571.068732668087
 31
0.0
  0
DIMENSION
  5
1799B
330
747D
100
AcDbEntity
  8
寸法
100
AcDbDimension
  2
*D13
 10
4618.458104926526
 20
9007.462293032437
 30
0.0
 11
4083.283655473383
 21
9007.462293032437
 31
0.0
 70
   160
 71
     5
 42
1062.999999999931
  3
INABA_S40G
100
AcDbAlignedDimension
 13
3612.693777925077
 23
9221.068732668117
 33
0.0
 14
4675.693777925007
 24
9221.06873266817
 34
0.0
100
AcDbRotatedDimension
1001
ACAD
1000
DSTYLE
1002
{
1002
}
  0
LINE
  5
1799C
330
747D
100
AcDbEntity
  8
破線
 48
10.0
100
AcDbLine
 10
4461.693777925055
 20
7547.568732668117
 30
0.0
 11
4461.693777925051
 21
9221.068732668227
 31
0.0
  0
LINE
  5
1799D
330
747D
100
AcDbEntity
  8
破線
 48
10.0
100
AcDbLine
 10
4511.693777925051
 20
7547.56873266812
 30
0.0
 11
4511.693777925051
 21
9221.068732668227
 31
0.0
  0
LINE
  5
1799E
330
747D
100
AcDbEntity
  8
破線
 48
10.0
100
AcDbLine
 10
6126.693777925055
 20
7547.568732668117
 30
0.0
 11
6126.693777925051
 21
9221.068732668227
 31
0.0
  0
LINE
  5
1799F
330
747D
100
AcDbEntity
  8
破線
 48
10.0
100
AcDbLine
 10
6176.693777925051
 20
7547.56873266812
 30
0.0
 11
6176.693777925051
 21
9221.068732668227
 31
0.0
  0
LINE
  5
179A0
330
747D
100
AcDbEntity
  8
破線
 48
10.0
100
AcDbLine
 10
6126.693777925055
 20
7571.068732668132
 30
0.0
 11
5344.193777925053
 21
7571.068732668116
 31
0.0
  0
LINE
  5
179A1
330
747D
100
AcDbEntity
  8
部品1
 48
50.0
100
AcDbLine
 10
5219.193777925069
 20
2289.519698991551
 30
0.0
 11
5219.193777925069
 21
2189.519698991551
 31
0.0
  0
LINE
  5
179A2
330
747D
100
AcDbEntity
  8
部品1
 48
50.0
100
AcDbLine
 10
5419.19377792507
 20
2289.519698991551
 30
0.0
 11
5419.19377792507
 21
2189.519698991551
 31
0.0
  0
LINE
  5
179A3
330
747D
100
AcDbEntity
  8
部品1
 48
50.0
100
AcDbLine
 10
5319.193777925072
 20
9221.068732668197
 30
0.0
 11
5319.193777925102
 21
7547.568732668105
 31
0.0
  0
LINE
  5
179A4
330
747D
100
AcDbEntity
  8
部品1
100
AcDbLine
 10
7026.193777925077
 20
8806.068732668219
 30
0.0
 11
7054.193777925077
 21
8806.068732668219
 31
0.0
  0
LINE
  5
179A5
330
747D
100
AcDbEntity
  8
部品1
100
AcDbLine
 10
3612.193777925051
 20
8806.068732668091
 30
0.0
 11
3584.193777925051
 21
8806.068732668091
 31
0.0
  0
LINE
  5
179A6
330
747D
100
AcDbEntity
  8
部品1
100
AcDbLine
 10
6997.693777925062
 20
8806.068732668192
 30
0.0
 11
3640.69377792506
 21
8806.068732668091
 31
0.0
  0
LINE
  5
179A7
330
747D
100
AcDbEntity
  8
部品1
100
AcDbLine
 10
6997.693777925062
 20
7966.06873266819
 30
0.0
 11
3640.69377792506
 21
7966.068732668091
 31
0.0
  0
LINE
  5
179A8
330
747D
100
AcDbEntity
  8
部品1
100
AcDbLine
 10
3612.193777925051
 20
7966.068732668091
 30
0.0
 11
3584.193777925051
 21
7966.068732668091
 31
0.0
  0
LINE
  5
179A9
330
747D
100
AcDbEntity
  8
部品1
100
AcDbLine
 10
7026.193777925077
 20
7966.068732668218
 30
0.0
 11
7054.193777925077
 21
7966.068732668218
 31
0.0
  0
LINE
  5
179AA
330
747D
100
AcDbEntity
  8
部品1
100
AcDbLine
 10
4059.193777925069
 20
4429.51969899155
 30
0.0
 11
4059.193777925069
 21
2339.519698991551
 31
0.0
  0
LINE
  5
179AB
330
747D
100
AcDbEntity
  8
部品1
100
AcDbLine
 10
7026.193777925077
 20
7546.068732668203
 30
0.0
 11
7054.193777925077
 21
7546.068732668203
 31
0.0
  0
LINE
  5
179AC
330
747D
100
AcDbEntity
  8
部品1
100
AcDbLine
 10
6999.193777925076
 20
7491.068732668208
 30
0.0
 11
6999.193777925076
 21
7519.068732668208
 31
0.0
  0
LINE
  5
179AD
330
747D
100
AcDbEntity
  8
部品1
100
AcDbLine
 10
3612.193777925051
 20
7519.06873266817
 30
0.0
 11
7026.193777925077
 21
7519.068732668208
 31
0.0
  0
LINE
  5
179AE
330
747D
100
AcDbEntity
  8
部品1
100
AcDbLine
 10
3639.193777925044
 20
7491.068732668208
 30
0.0
 11
3639.193777925044
 21
7519.068732668208
 31
0.0
  0
LINE
  5
179AF
330
747D
100
AcDbEntity
  8
部品1
100
AcDbLine
 10
4059.19377792504
 20
9701.068732668089
 30
0.0
 11
4059.193777925043
 21
9673.068732668088
 31
0.0
  0
LINE
  5
179B0
330
747D
100
AcDbEntity
  8
部品1
100
AcDbLine
 10
4479.19377792504
 20
9701.068732668089
 30
0.0
 11
4479.193777925043
 21
9673.068732668088
 31
0.0
  0
LINE
  5
179B1
330
747D
100
AcDbEntity
  8
部品1
100
AcDbLine
 10
4899.193777925041
 20
9701.068732668089
 30
0.0
 11
4899.193777925044
 21
9673.068732668088
 31
0.0
  0
LINE
  5
179B2
330
747D
100
AcDbEntity
  8
部品1
100
AcDbLine
 10
5319.19377792504
 20
9701.068732668089
 30
0.0
 11
5319.193777925043
 21
9673.068732668088
 31
0.0
  0
LINE
  5
179B3
330
747D
100
AcDbEntity
  8
部品1
100
AcDbLine
 10
6159.19377792504
 20
9701.068732668089
 30
0.0
 11
6159.193777925043
 21
9673.068732668088
 31
0.0
  0
LINE
  5
179B4
330
747D
100
AcDbEntity
  8
部品1
100
AcDbLine
 10
5739.193777925041
 20
9701.068732668089
 30
0.0
 11
5739.193777925044
 21
9673.068732668088
 31
0.0
  0
LINE
  5
179B5
330
747D
100
AcDbEntity
  8
部品1
100
AcDbLine
 10
6579.19377792504
 20
9701.068732668089
 30
0.0
 11
6579.193777925045
 21
9673.068732668088
 31
0.0
  0
LINE
  5
179B6
330
747D
100
AcDbEntity
  8
部品1
100
AcDbLine
 10
4059.193777925043
 20
7491.068732668208
 30
0.0
 11
4059.193777925043
 21
7519.068732668208
 31
0.0
  0
LINE
  5
179B7
330
747D
100
AcDbEntity
  8
部品1
100
AcDbLine
 10
4479.193777925043
 20
7491.068732668208
 30
0.0
 11
4479.193777925043
 21
7519.068732668208
 31
0.0
  0
LINE
  5
179B8
330
747D
100
AcDbEntity
  8
部品1
100
AcDbLine
 10
6579.193777925077
 20
7491.068732668193
 30
0.0
 11
6579.193777925077
 21
7519.068732668208
 31
0.0
  0
LINE
  5
179B9
330
747D
100
AcDbEntity
  8
部品1
 48
50.0
100
AcDbLine
 10
4676.693777925008
 20
9673.068732668227
 30
0.0
 11
4676.693777925008
 21
9221.068732668227
 31
0.0
  0
LINE
  5
179BA
330
747D
100
AcDbEntity
  8
部品1
 48
50.0
100
AcDbLine
 10
4701.693777925007
 20
9673.06873266823
 30
0.0
 11
4701.693777925007
 21
9221.068732668227
 31
0.0
  0
LINE
  5
179BB
330
747D
100
AcDbEntity
  8
部品1
 48
50.0
100
AcDbLine
 10
4675.693777925007
 20
9671.068732668219
 30
0.0
 11
4675.693777925007
 21
9221.068732668227
 31
0.0
  0
LINE
  5
179BC
330
747D
100
AcDbEntity
  8
部品1
 48
50.0
100
AcDbLine
 10
4703.693777925007
 20
9671.068732668222
 30
0.0
 11
4703.693777925007
 21
9221.068732668227
 31
0.0
  0
LINE
  5
179BD
330
747D
100
AcDbEntity
  8
部品1
100
AcDbLine
 10
4701.693777925007
 20
9221.068732668227
 30
0.0
 11
4676.693777925008
 21
9221.068732668227
 31
0.0
  0
LINE
  5
179BE
330
747D
100
AcDbEntity
  8
部品1
100
AcDbLine
 10
4660.193777925007
 20
9691.068732668222
 30
0.0
 11
4654.193777925008
 21
9691.068732668222
 31
0.0
  0
LINE
  5
179BF
330
747D
100
AcDbEntity
  8
部品1
100
AcDbLine
 10
4654.193777925008
 20
9691.068732668222
 30
0.0
 11
4654.193777925008
 21
9673.068732668221
 31
0.0
  0
LINE
  5
179C0
330
747D
100
AcDbEntity
  8
部品1
100
AcDbLine
 10
4701.693777925007
 20
9665.068732668219
 30
0.0
 11
4676.693777925008
 21
9665.068732668222
 31
0.0
  0
LINE
  5
179C1
330
747D
100
AcDbEntity
  8
部品1
100
AcDbLine
 10
4724.193777925007
 20
9691.068732668222
 30
0.0
 11
4718.193777925008
 21
9691.068732668222
 31
0.0
  0
LINE
  5
179C2
330
747D
100
AcDbEntity
  8
部品1
100
AcDbLine
 10
4724.193777925007
 20
9691.068732668222
 30
0.0
 11
4724.193777925007
 21
9673.068732668221
 31
0.0
  0
LINE
  5
179C3
330
747D
100
AcDbEntity
  8
細線
 48
50.0
100
AcDbLine
 10
4675.693777925007
 20
9221.06873266817
 30
0.0
 11
3612.693777925075
 21
9671.068732668119
 31
0.0
  0
LINE
  5
179C4
330
747D
100
AcDbEntity
  8
細線
 48
50.0
100
AcDbLine
 10
4675.693777925007
 20
9671.068732668169
 30
0.0
 11
3612.693777925077
 21
9221.06873266812
 31
0.0
  0
LINE
  5
179C5
330
747D
100
AcDbEntity
  8
部品1
100
AcDbLine
 10
4703.693777925007
 20
9671.068732668167
 30
0.0
 11
5934.693777925076
 21
9671.068732668226
 31
0.0
  0
LINE
  5
179C6
330
747D
100
AcDbEntity
  8
部品1
100
AcDbLine
 10
4703.693777925007
 20
9221.068732668168
 30
0.0
 11
5934.693777925075
 21
9221.068732668227
 31
0.0
  0
DIMENSION
  5
179C7
330
747D
100
AcDbEntity
  8
寸法
100
AcDbDimension
  2
*D14
 10
5877.458104926597
 20
9007.462293032437
 30
0.0
 11
5505.542011138703
 21
9007.462293032437
 31
0.0
 70
   160
 71
     5
 42
1231.000000000069
  3
INABA_S40G
100
AcDbAlignedDimension
 13
4703.693777925007
 23
9221.068732668168
 33
0.0
 14
5934.693777925076
 24
9221.068732668161
 34
0.0
100
AcDbRotatedDimension
1001
ACAD
1000
DSTYLE
1002
{
1002
}
  0
LINE
  5
179C8
330
747D
100
AcDbEntity
  8
部品1
 48
50.0
100
AcDbLine
 10
3639.193777925044
 20
7491.068732668075
 30
0.0
 11
4479.193777925043
 21
7491.068732668075
 31
0.0
  0
LINE
  5
179C9
330
747D
100
AcDbEntity
  8
部品1
 48
50.0
100
AcDbLine
 10
4479.193777925043
 20
7519.068732668073
 30
0.0
 11
6579.193777925045
 21
7519.068732668076
 31
0.0
  0
LINE
  5
179CA
330
747D
100
AcDbEntity
  8
部品1
100
AcDbLine
 10
4701.693777925007
 20
9673.068732668237
 30
0.0
 11
5936.693777925073
 21
9673.068732668237
 31
0.0
  0
TEXT
  5
17A07
330
747D
100
AcDbEntity
  8
文字
 62
     7
 48
50.0
100
AcDbText
 10
13248.77747366447
 20
8380.013745883728
 30
0.0
 40
100.0
  1
17
  7
STYLE1
100
AcDbText
  0
TEXT
  5
17A08
330
747D
100
AcDbEntity
  8
文字
 62
     7
 48
50.0
100
AcDbText
 10
13248.77747366447
 20
8550.013745883729
 30
0.0
 40
100.0
  1
16
  7
STYLE1
100
AcDbText
  0
TEXT
  5
17A09
330
747D
100
AcDbEntity
  8
文字
 62
     7
 48
50.0
100
AcDbText
 10
15022.63965474517
 20
9060.013745883725
 30
0.0
 40
100.0
  1
F12            1.0
  7
STYLE1
100
AcDbText
  0
TEXT
  5
17A0A
330
747D
100
AcDbEntity
  8
文字
 62
     7
 48
50.0
100
AcDbText
 10
13583.11819016569
 20
9060.013745883733
 30
0.0
 40
100.0
  1
壁面扉枠左右
  7
STYLE1
100
AcDbText
  0
TEXT
  5
17A0B
330
747D
100
AcDbEntity
  8
文字
 62
     7
 48
50.0
100
AcDbText
 10
15022.63965474517
 20
9230.013745883725
 30
0.0
 40
100.0
  1
F12            1.0
  7
STYLE1
100
AcDbText
  0
TEXT
  5
17A0C
330
747D
100
AcDbEntity
  8
文字
 62
     7
 48
50.0
100
AcDbText
 10
15022.63965474515
 20
9400.013745883729
 30
0.0
 40
100.0
  1
F12            0.7
  7
STYLE1
100
AcDbText
  0
TEXT
  5
17A0D
330
747D
100
AcDbEntity
  8
文字
 62
     7
 48
50.0
100
AcDbText
 10
13583.11819016569
 20
9230.013745883733
 30
0.0
 40
100.0
  1
壁面扉敷居
  7
STYLE1
100
AcDbText
  0
TEXT
  5
17A0E
330
747D
100
AcDbEntity
  8
文字
 62
     7
 48
50.0
100
AcDbText
 10
13583.11819016569
 20
9400.013745883729
 30
0.0
 40
100.0
  1
壁面扉鴨居
  7
STYLE1
100
AcDbText
  0
LINE
  5
17A0F
330
747D
100
AcDbEntity
  8
仕様書枠
 48
50.0
100
AcDbLine
 10
16307.19999999999
 20
8689.600000000003
 30
0.0
 11
13127.2
 21
8689.600000000007
 31
0.0
  0
LINE
  5
17A10
330
747D
100
AcDbEntity
  8
仕様書枠
 48
50.0
100
AcDbLine
 10
16307.19999999999
 20
8519.600000000004
 30
0.0
 11
13127.2
 21
8519.600000000009
 31
0.0
  0
TEXT
  5
17A13
330
747D
100
AcDbEntity
  8
部品1
100
AcDbText
 10
5027.983848548813
 20
1461.691829027917
 30
0.0
 40
135.0
  1
正面図
  7
STYLE2
100
AcDbText
  0
LWPOLYLINE
  5
17A14
330
747D
100
AcDbEntity
  8
部品1
100
AcDbPolyline
 90
        4
 70
     1
 43
0.0
 10
4937.458444810856
 20
1654.585358246441
 10
4937.458444810856
 20
1414.693036700909
 10
5700.929111039297
 20
1414.693036700909
 10
5700.929111039297
 20
1654.585358246441
  0
TEXT
  5
17A15
330
747D
100
AcDbEntity
  8
文字
 62
     7
 48
50.0
100
AcDbText
 10
14505.34213575793
 20
483.8967129911411
 30
0.0
 40
160.0
  1
ＮＸＮ－７７Ｈ
  7
STYLE2
100
AcDbText
  0
TEXT
  5
17A16
330
747D
100
AcDbEntity
  8
文字
 62
     7
 48
50.0
100
AcDbText
 10
13583.11819016569
 20
8380.013745883728
 30
0.0
 40
100.0
  1
アンカープレート
  7
STYLE1
100
AcDbText
  0
TEXT
  5
17A17
330
747D
100
AcDbEntity
  8
文字
 62
     7
 48
50.0
100
AcDbText
 10
15022.63965474515
 20
8380.013745883726
 30
0.0
 40
100.0
  1
F12            2.3
  7
STYLE1
100
AcDbText
  0
LINE
  5
17A18
330
747D
100
AcDbEntity
  8
仕様書枠
 48
50.0
100
AcDbLine
 10
16307.2
 20
10049.6
 30
0.0
 11
13127.2
 21
10049.6
 31
0.0
  0
LINE
  5
17A19
330
747D
100
AcDbEntity
  8
仕様書枠
 48
50.0
100
AcDbLine
 10
16307.2
 20
11409.6
 30
0.0
 11
13127.2
 21
11409.6
 31
0.0
  0
LINE
  5
17A1A
330
747D
100
AcDbEntity
  8
仕様書枠
 48
50.0
100
AcDbLine
 10
16307.19999999999
 20
8009.600000000004
 30
0.0
 11
16307.2
 21
11409.6
 31
0.0
  0
LINE
  5
17A1B
330
747D
100
AcDbEntity
  8
仕様書枠
 48
50.0
100
AcDbLine
 10
14785.2
 20
11409.59999999999
 30
0.0
 11
14785.2
 21
8349.600000000004
 31
0.0
  0
LINE
  5
17A1C
330
747D
100
AcDbEntity
  8
仕様書枠
 48
50.0
100
AcDbLine
 10
13490.2
 20
11409.6
 30
0.0
 11
13490.20000000001
 21
8349.600000000007
 31
0.0
  0
LINE
  5
17A1D
330
747D
100
AcDbEntity
  8
仕様書枠
 48
50.0
100
AcDbLine
 10
16307.2
 20
11239.6
 30
0.0
 11
13127.2
 21
11239.6
 31
0.0
  0
LINE
  5
17A1E
330
747D
100
AcDbEntity
  8
仕様書枠
 48
50.0
100
AcDbLine
 10
16307.2
 20
10899.6
 30
0.0
 11
13127.2
 21
10899.6
 31
0.0
  0
LINE
  5
17A1F
330
747D
100
AcDbEntity
  8
仕様書枠
 48
50.0
100
AcDbLine
 10
16307.2
 20
11069.6
 30
0.0
 11
13127.2
 21
11069.6
 31
0.0
  0
LINE
  5
17A20
330
747D
100
AcDbEntity
  8
仕様書枠
 48
50.0
100
AcDbLine
 10
16307.19999999999
 20
10559.6
 30
0.0
 11
13127.2
 21
10559.6
 31
0.0
  0
LINE
  5
17A21
330
747D
100
AcDbEntity
  8
仕様書枠
 48
50.0
100
AcDbLine
 10
16307.19999999999
 20
10389.6
 30
0.0
 11
13127.2
 21
10389.6
 31
0.0
  0
LINE
  5
17A22
330
747D
100
AcDbEntity
  8
仕様書枠
 48
50.0
100
AcDbLine
 10
16307.19999999999
 20
10729.6
 30
0.0
 11
13127.2
 21
10729.6
 31
0.0
  0
TEXT
  5
17A23
330
747D
100
AcDbEntity
  8
文字
 62
     7
 48
50.0
100
AcDbText
 10
13197.42518560407
 20
11270.01374588373
 30
0.0
 40
100.0
  1
品番
  7
STYLE1
100
AcDbText
  0
TEXT
  5
17A24
330
747D
100
AcDbEntity
  8
文字
 62
     7
 48
50.0
100
AcDbText
 10
13271.19032244792
 20
11100.01374588373
 30
0.0
 40
100.0
  1
1
  7
STYLE1
100
AcDbText
  0
TEXT
  5
17A25
330
747D
100
AcDbEntity
  8
文字
 62
     7
 48
50.0
100
AcDbText
 10
13271.19032244792
 20
10930.01374588373
 30
0.0
 40
100.0
  1
2
  7
STYLE1
100
AcDbText
  0
TEXT
  5
17A26
330
747D
100
AcDbEntity
  8
文字
 62
     7
 48
50.0
100
AcDbText
 10
13271.19032244792
 20
10590.01374588373
 30
0.0
 40
100.0
  1
4
  7
STYLE1
100
AcDbText
  0
TEXT
  5
17A27
330
747D
100
AcDbEntity
  8
文字
 62
     7
 48
50.0
100
AcDbText
 10
13271.19032244792
 20
10760.01374588373
 30
0.0
 40
100.0
  1
3
  7
STYLE1
100
AcDbText
  0
TEXT
  5
17A28
330
747D
100
AcDbEntity
  8
文字
 62
     7
 48
50.0
100
AcDbText
 10
13732.03840939434
 20
11270.01374588373
 30
0.0
 40
100.0
  1
部　　品　　名
  7
STYLE1
100
AcDbText
  0
TEXT
  5
17A29
330
747D
100
AcDbEntity
  8
文字
 62
     7
 48
50.0
100
AcDbText
 10
14859.79774614482
 20
11270.01374588373
 30
0.0
 40
100.0
  1
材料（材質）　　単位mm
  7
STYLE1
100
AcDbText
  0
TEXT
  5
17A2A
330
747D
100
AcDbEntity
  8
文字
 62
     7
 48
50.0
100
AcDbText
 10
13583.11819016569
 20
11100.01374588373
 30
0.0
 40
100.0
  1
土台枠
  7
STYLE1
100
AcDbText
  0
TEXT
  5
17A2B
330
747D
100
AcDbEntity
  8
文字
 62
     7
 48
50.0
100
AcDbText
 10
13583.1181901657
 20
10760.01374588373
 30
0.0
 40
100.0
  1
柱
  7
STYLE1
100
AcDbText
  0
TEXT
  5
17A2C
330
747D
100
AcDbEntity
  8
文字
 62
     7
 48
50.0
100
AcDbText
 10
13583.11819016569
 20
10420.01374588373
 30
0.0
 40
100.0
  1
桁前後
  7
STYLE1
100
AcDbText
  0
TEXT
  5
17A2D
330
747D
100
AcDbEntity
  8
文字
 62
     7
 48
50.0
100
AcDbText
 10
13271.19032244792
 20
10420.01374588373
 30
0.0
 40
100.0
  1
5
  7
STYLE1
100
AcDbText
  0
TEXT
  5
17A2E
330
747D
100
AcDbEntity
  8
文字
 62
     7
 48
50.0
100
AcDbText
 10
13583.11819016569
 20
10250.01374588373
 30
0.0
 40
100.0
  1
妻板左右
  7
STYLE1
100
AcDbText
  0
TEXT
  5
17A2F
330
747D
100
AcDbEntity
  8
文字
 62
     7
 48
50.0
100
AcDbText
 10
13248.77747366447
 20
9570.013745883729
 30
0.0
 40
100.0
  1
10
  7
STYLE1
100
AcDbText
  0
TEXT
  5
17A30
330
747D
100
AcDbEntity
  8
文字
 62
     7
 48
50.0
100
AcDbText
 10
13583.11819016568
 20
9570.013745883729
 30
0.0
 40
100.0
  1
壁パネル
  7
STYLE1
100
AcDbText
  0
TEXT
  5
17A31
330
747D
100
AcDbEntity
  8
文字
 62
     7
 48
50.0
100
AcDbText
 10
13583.11819016569
 20
9910.01374588373
 30
0.0
 40
100.0
  1
屋根パネル
  7
STYLE1
100
AcDbText
  0
TEXT
  5
17A32
330
747D
100
AcDbEntity
  8
文字
 62
     7
 48
50.0
100
AcDbText
 10
13583.11819016569
 20
10080.01374588373
 30
0.0
 40
100.0
  1
鼻隠シ前後
  7
STYLE1
100
AcDbText
  0
TEXT
  5
17A33
330
747D
100
AcDbEntity
  8
文字
 62
     7
 48
50.0
100
AcDbText
 10
13271.19032244792
 20
9910.01374588373
 30
0.0
 40
100.0
  1
8
  7
STYLE1
100
AcDbText
  0
TEXT
  5
17A34
330
747D
100
AcDbEntity
  8
文字
 62
     7
 48
50.0
100
AcDbText
 10
13271.19032244792
 20
9740.013745883729
 30
0.0
 40
100.0
  1
9
  7
STYLE1
100
AcDbText
  0
TEXT
  5
17A35
330
747D
100
AcDbEntity
  8
文字
 62
     7
 48
50.0
100
AcDbText
 10
13271.19032244792
 20
10080.01374588373
 30
0.0
 40
100.0
  1
7
  7
STYLE1
100
AcDbText
  0
TEXT
  5
17A36
330
747D
100
AcDbEntity
  8
文字
 62
     7
 48
50.0
100
AcDbText
 10
13271.19032244792
 20
10250.01374588373
 30
0.0
 40
100.0
  1
6
  7
STYLE1
100
AcDbText
  0
LINE
  5
17A37
330
747D
100
AcDbEntity
  8
仕様書枠
 48
50.0
100
AcDbLine
 10
16307.19999999999
 20
9709.600000000001
 30
0.0
 11
13127.2
 21
9709.600000000001
 31
0.0
  0
LINE
  5
17A38
330
747D
100
AcDbEntity
  8
仕様書枠
 48
50.0
100
AcDbLine
 10
16307.19999999999
 20
9369.600000000001
 30
0.0
 11
13127.2
 21
9369.600000000001
 31
0.0
  0
LINE
  5
17A39
330
747D
100
AcDbEntity
  8
仕様書枠
 48
50.0
100
AcDbLine
 10
16307.19999999999
 20
9539.6
 30
0.0
 11
13127.2
 21
9539.6
 31
0.0
  0
LINE
  5
17A3A
330
747D
100
AcDbEntity
  8
仕様書枠
 48
50.0
100
AcDbLine
 10
16307.2
 20
10219.6
 30
0.0
 11
13127.2
 21
10219.6
 31
0.0
  0
LINE
  5
17A3B
330
747D
100
AcDbEntity
  8
仕様書枠
 48
50.0
100
AcDbLine
 10
16307.2
 20
9879.600000000001
 30
0.0
 11
13127.2
 21
9879.600000000001
 31
0.0
  0
TEXT
  5
17A3C
330
747D
100
AcDbEntity
  8
文字
 62
     7
 48
50.0
100
AcDbText
 10
13248.77747366447
 20
9400.013745883729
 30
0.0
 40
100.0
  1
11
  7
STYLE1
100
AcDbText
  0
LINE
  5
17A3D
330
747D
100
AcDbEntity
  8
仕様書枠
 48
50.0
100
AcDbLine
 10
16307.19999999999
 20
9199.600000000001
 30
0.0
 11
13127.2
 21
9199.600000000001
 31
0.0
  0
LINE
  5
17A3E
330
747D
100
AcDbEntity
  8
仕様書枠
 48
50.0
100
AcDbLine
 10
16307.19999999999
 20
8859.6
 30
0.0
 11
13127.2
 21
8859.600000000005
 31
0.0
  0
TEXT
  5
17A3F
330
747D
100
AcDbEntity
  8
文字
 62
     7
 48
50.0
100
AcDbText
 10
13248.77747366448
 20
9060.013745883729
 30
0.0
 40
100.0
  1
13
  7
STYLE1
100
AcDbText
  0
TEXT
  5
17A40
330
747D
100
AcDbEntity
  8
文字
 62
     7
 48
50.0
100
AcDbText
 10
13248.77747366448
 20
9230.013745883729
 30
0.0
 40
100.0
  1
12
  7
STYLE1
100
AcDbText
  0
TEXT
  5
17A41
330
747D
100
AcDbEntity
  8
文字
 62
     7
 48
50.0
100
AcDbText
 10
15022.63965474517
 20
11100.01374588372
 30
0.0
 40
100.0
  1
F12            1.2
  7
STYLE1
100
AcDbText
  0
TEXT
  5
17A42
330
747D
100
AcDbEntity
  8
文字
 62
     7
 48
50.0
100
AcDbText
 10
15022.63965474518
 20
10760.01374588372
 30
0.0
 40
100.0
  1
F12            1.0
  7
STYLE1
100
AcDbText
  0
TEXT
  5
17A43
330
747D
100
AcDbEntity
  8
文字
 62
     7
 48
50.0
100
AcDbText
 10
15022.63965474516
 20
10420.01374588372
 30
0.0
 40
100.0
  1
Y10            1.0
  7
STYLE1
100
AcDbText
  0
TEXT
  5
17A44
330
747D
100
AcDbEntity
  8
文字
 62
     7
 48
50.0
100
AcDbText
 10
15022.63965474516
 20
10250.01374588372
 30
0.0
 40
100.0
  1
Y10            0.7
  7
STYLE1
100
AcDbText
  0
TEXT
  5
17A45
330
747D
100
AcDbEntity
  8
文字
 62
     7
 48
50.0
100
AcDbText
 10
15022.63965474516
 20
10080.01374588372
 30
0.0
 40
100.0
  1
Y10            0.7
  7
STYLE1
100
AcDbText
  0
TEXT
  5
17A46
330
747D
100
AcDbEntity
  8
文字
 62
     7
 48
50.0
100
AcDbText
 10
15022.63965474517
 20
9910.013745883725
 30
0.0
 40
100.0
  1
Y10            0.5
  7
STYLE1
100
AcDbText
  0
TEXT
  5
17A47
330
747D
100
AcDbEntity
  8
文字
 62
     7
 48
50.0
100
AcDbText
 10
15022.63965474515
 20
9570.013745883725
 30
0.0
 40
100.0
  1
F12            0.7
  7
STYLE1
100
AcDbText
  0
LINE
  5
17A48
330
747D
100
AcDbEntity
  8
仕様書枠
 48
50.0
100
AcDbLine
 10
16307.19999999999
 20
8349.600000000004
 30
0.0
 11
13127.19999999999
 21
8349.600000000007
 31
0.0
  0
LINE
  5
17A49
330
747D
100
AcDbEntity
  8
仕様書枠
 48
50.0
100
AcDbLine
 10
16307.19999999999
 20
8179.600000000005
 30
0.0
 11
13127.19999999999
 21
8179.600000000005
 31
0.0
  0
TEXT
  5
17A4A
330
747D
100
AcDbEntity
  8
文字
 62
     7
 48
50.0
100
AcDbText
 10
13229.83081656554
 20
8210.013745883735
 30
0.0
 40
100.0
  1
F12→溶融亜鉛めっき鋼板(JIS G 3302)
  7
STYLE1
100
AcDbText
  0
TEXT
  5
17A4B
330
747D
100
AcDbEntity
  8
文字
 62
     7
 48
50.0
100
AcDbText
 10
13229.83081656554
 20
8040.013745883733
 30
0.0
 40
100.0
  1
Y10→溶融亜鉛-5％アルミニウム合金めっき鋼板(JIS G 3317)
 41
0.9
  7
STYLE1
100
AcDbText
  0
LINE
  5
17A4C
330
747D
100
AcDbEntity
  8
仕様書枠
 48
50.0
100
AcDbLine
 10
13127.2
 20
11409.6
 30
0.0
 11
13127.19999999999
 21
8009.600000000007
 31
0.0
  0
LINE
  5
17A4D
330
747D
100
AcDbEntity
  8
仕様書枠
 48
50.0
100
AcDbLine
 10
16307.19999999999
 20
9029.6
 30
0.0
 11
13127.2
 21
9029.600000000003
 31
0.0
  0
TEXT
  5
17A4E
330
747D
100
AcDbEntity
  8
文字
 62
     7
 48
50.0
100
AcDbText
 10
13583.1181901657
 20
10590.01374588373
 30
0.0
 40
100.0
  1
床パネル
 41
0.9
  7
STYLE1
100
AcDbText
  0
TEXT
  5
17A4F
330
747D
100
AcDbEntity
  8
文字
 62
     7
 48
50.0
100
AcDbText
 10
13583.11819016569
 20
10930.01374588373
 30
0.0
 40
100.0
  1
根太
  7
STYLE1
100
AcDbText
  0
TEXT
  5
17A50
330
747D
100
AcDbEntity
  8
文字
 62
     7
 48
50.0
100
AcDbText
 10
13248.77747366448
 20
8890.013745883729
 30
0.0
 40
100.0
  1
14
  7
STYLE1
100
AcDbText
  0
TEXT
  5
17A51
330
747D
100
AcDbEntity
  8
文字
 62
     7
 48
50.0
100
AcDbText
 10
15022.63965474516
 20
10930.01374588372
 30
0.0
 40
100.0
  1
F12            1.2
  7
STYLE1
100
AcDbText
  0
TEXT
  5
17A52
330
747D
100
AcDbEntity
  8
文字
 62
     7
 48
50.0
100
AcDbText
 10
15022.63965474517
 20
10590.01374588372
 30
0.0
 40
100.0
  1
F12            1.0
  7
STYLE1
100
AcDbText
  0
TEXT
  5
17A53
330
747D
100
AcDbEntity
  8
文字
 62
     7
 48
50.0
100
AcDbText
 10
15022.63965474515
 20
8890.013745883729
 30
0.0
 40
100.0
  1
F12            0.7
  7
STYLE1
100
AcDbText
  0
TEXT
  5
17A54
330
747D
100
AcDbEntity
  8
文字
 62
     7
 48
50.0
100
AcDbText
 10
13583.11819016568
 20
8890.013745883733
 30
0.0
 40
100.0
  1
正面パネル
  7
STYLE1
100
AcDbText
  0
TEXT
  5
17A55
330
747D
100
AcDbEntity
  8
文字
 62
     7
 48
50.0
100
AcDbText
 10
15022.63965474516
 20
8720.013745883729
 30
0.0
 40
100.0
  1
F12            0.8
  7
STYLE1
100
AcDbText
  0
TEXT
  5
17A56
330
747D
100
AcDbEntity
  8
文字
 62
     7
 48
50.0
100
AcDbText
 10
13583.11819016569
 20
8720.013745883733
 30
0.0
 40
100.0
  1
扉
  7
STYLE1
100
AcDbText
  0
LINE
  5
17A57
330
747D
100
AcDbEntity
  8
仕様書枠
 48
50.0
100
AcDbLine
 10
16307.19999999999
 20
8009.600000000004
 30
0.0
 11
13127.19999999999
 21
8009.600000000007
 31
0.0
  0
TEXT
  5
17A58
330
747D
100
AcDbEntity
  8
文字
 62
     7
 48
50.0
100
AcDbText
 10
13248.77747366447
 20
8720.013745883729
 30
0.0
 40
100.0
  1
15
  7
STYLE1
100
AcDbText
  0
TEXT
  5
17A59
330
747D
100
AcDbEntity
  8
文字
 62
     7
 48
50.0
100
AcDbText
 10
13583.11819016569
 20
9740.013745883729
 30
0.0
 40
100.0
  1
母屋中
  7
STYLE1
100
AcDbText
  0
TEXT
  5
17A94
330
747D
100
AcDbEntity
  8
文字
 62
     7
 48
50.0
100
AcDbText
 10
13209.4053442172
 20
228.5435242569015
 30
0.0
 40
100.0
  1
○有効開口寸法 ： 1266×2025(mm)
  7
STYLE2
100
AcDbText
  0
TEXT
  5
17A95
330
747D
100
AcDbEntity
  8
文字
 62
     7
 48
50.0
100
AcDbText
 10
15022.63965474515
 20
9740.013745883725
 30
0.0
 40
100.0
  1
F12            1.2
  7
STYLE1
100
AcDbText
  0
TEXT
  5
17A96
330
747D
100
AcDbEntity
  8
文字
 62
     7
 48
50.0
100
AcDbText
 10
15022.63965474516
 20
8550.013745883729
 30
0.0
 40
100.0
  1
F12            0.6
  7
STYLE1
100
AcDbText
  0
TEXT
  5
17A97
330
747D
100
AcDbEntity
  8
文字
 62
     7
 48
50.0
100
AcDbText
 10
13583.11819016569
 20
8550.013745883733
 30
0.0
 40
100.0
  1
棚板
  7
STYLE1
100
AcDbText
  0
DIMENSION
  5
17B49
330
747D
100
AcDbEntity
  8
寸法
 48
50.0
100
AcDbDimension
  2
*D15
 10
3584.193777925069
 20
4877.061284249794
 30
0.0
 11
5319.193777925076
 21
4877.061284249794
 31
0.0
 70
   160
  1
柱外寸法<>
 71
     5
 42
3470.000000000004
  3
INABA_S40G
100
AcDbAlignedDimension
 13
7054.193777925073
 23
4664.519698991554
 33
0.0
 14
3584.193777925069
 24
4664.51969899156
 34
0.0
100
AcDbRotatedDimension
  0
DIMENSION
  5
17B4A
330
747D
100
AcDbEntity
  8
寸法
 48
50.0
100
AcDbDimension
  2
*D16
 10
7104.193777925073
 20
5097.966584723544
 30
0.0
 11
5319.193777925076
 21
5097.966584723544
 31
0.0
 70
   160
 71
     5
 42
3570.000000000004
  3
INABA_S40G
100
AcDbAlignedDimension
 13
3534.193777925069
 23
4664.519698991557
 33
0.0
 14
7104.193777925073
 24
4664.519698991553
 34
0.0
100
AcDbRotatedDimension
  0
DIMENSION
  5
17B4B
330
747D
100
AcDbEntity
  8
寸法
 48
50.0
100
AcDbDimension
  2
*D17
 10
3534.193777925069
 20
4877.061284249797
 30
0.0
 11
3220.708496550822
 21
4877.061284249797
 31
0.0
 70
   160
 71
     5
 42
50.0
  3
INABA_S40G
100
AcDbAlignedDimension
 13
3584.193777925069
 23
4664.51969899156
 33
0.0
 14
3534.193777925069
 24
4664.519698991557
 34
0.0
100
AcDbRotatedDimension
1001
ACAD
1000
DSTYLE
1002
{
1002
}
  0
LINE
  5
17B4C
330
747D
100
AcDbEntity
  8
部品1
 48
50.0
100
AcDbLine
 10
7083.570033357606
 20
4523.519698991555
 30
0.0
 11
3554.817522492533
 21
4523.519698991555
 31
0.0
  0
LINE
  5
17B4D
330
747D
100
AcDbEntity
  8
細線
 48
50.0
100
AcDbLine
 10
7093.799096386726
 20
4544.292941555132
 30
0.0
 11
3544.588459460316
 21
4544.292941555551
 31
0.0
  0
LINE
  5
17B4E
330
747D
100
AcDbEntity
  8
細線
 48
50.0
100
AcDbLine
 10
7102.035126911556
 20
4636.492941555132
 30
0.0
 11
3536.352428935483
 21
4636.492941555553
 31
0.0
  0
LINE
  5
17B4F
330
747D
100
AcDbEntity
  8
部品1
 48
50.0
100
AcDbLine
 10
7096.78535681864
 20
4664.519698991552
 30
0.0
 11
3541.602199031499
 21
4664.519698991553
 31
0.0
  0
LINE
  5
17B50
330
747D
100
AcDbEntity
  8
部品1
100
AcDbLine
 10
3534.6134389404
 20
4657.123173596317
 30
0.0
 11
3535.746836272749
 21
4637.147045613716
 31
0.0
  0
LINE
  5
17B51
330
747D
100
AcDbEntity
  8
部品1
100
AcDbLine
 10
3547.183856594325
 20
4541.489638446658
 30
0.0
 11
3547.828762401433
 21
4530.123173596318
 31
0.0
  0
LINE
  5
17B52
330
747D
100
AcDbEntity
  8
部品1
100
AcDbLine
 10
3538.947826069478
 20
4633.689638446659
 30
0.0
 11
3543.982866797589
 21
4544.947045613716
 31
0.0
  0
ARC
  5
17B53
330
747D
100
AcDbEntity
  8
部品1
 48
50.0
100
AcDbCircle
 10
3535.952643173292
 20
4633.519698991557
 30
0.0
 40
3.0
100
AcDbArc
 50
3.247342790337682
 51
82.34187279263654
  0
ARC
  5
17B54
330
747D
100
AcDbEntity
  8
部品1
 48
50.0
100
AcDbCircle
 10
3544.188673698136
 20
4541.319698991554
 30
0.0
 40
3.0
100
AcDbArc
 50
3.247342790337682
 51
82.34187279263654
  0
ARC
  5
17B55
330
747D
100
AcDbEntity
  8
部品1
 48
50.0
100
AcDbCircle
 10
3544.681742806697
 20
4544.986698153238
 30
0.0
 40
0.7
100
AcDbArc
 50
183.2473427902856
 51
262.3418727926365
  0
ARC
  5
17B56
330
747D
100
AcDbEntity
  8
部品1
 48
50.0
100
AcDbCircle
 10
3536.445712281857
 20
4637.186698153242
 30
0.0
 40
0.7
100
AcDbArc
 50
183.2473427903897
 51
262.3418727926365
  0
ARC
  5
17B57
330
747D
100
AcDbEntity
  8
部品1
100
AcDbCircle
 10
3554.817522492533
 20
4530.519698991557
 30
0.0
 40
7.0
100
AcDbArc
 50
183.2473427903377
 51
270.0
  0
ARC
  5
17B58
330
747D
100
AcDbEntity
  8
部品1
100
AcDbCircle
 10
3541.602199031499
 20
4657.519698991555
 30
0.0
 40
7.0
100
AcDbArc
 50
90.0
 51
183.2473427903377
  0
LINE
  5
17B59
330
747D
100
AcDbEntity
  8
細線
 48
50.0
100
AcDbLine
 10
3567.193777925069
 20
4664.519698991556
 30
0.0
 11
3567.193777925069
 21
4523.519698991555
 31
0.0
  0
DIMENSION
  5
17B5A
330
747D
100
AcDbEntity
  8
寸法
 48
50.0
100
AcDbDimension
  2
*D18
 10
7054.193777925073
 20
4877.061284249794
 30
0.0
 11
7417.67905929931
 21
4877.061284249794
 31
0.0
 70
   160
 71
     5
 42
50.0
  3
INABA_S40G
100
AcDbAlignedDimension
 13
7104.193777925073
 23
4664.519698991553
 33
0.0
 14
7054.193777925073
 24
4664.519698991554
 34
0.0
100
AcDbRotatedDimension
  0
ARC
  5
17B5B
330
747D
100
AcDbEntity
  8
部品1
100
AcDbCircle
 10
7096.78535681864
 20
4657.519698991553
 30
0.0
 40
7.0
100
AcDbArc
 50
356.7526572096623
 51
90.0
  0
ARC
  5
17B5C
330
747D
100
AcDbEntity
  8
部品1
100
AcDbCircle
 10
7083.570033357606
 20
4530.519698991555
 30
0.0
 40
7.0
100
AcDbArc
 50
270.0
 51
356.7526572096623
  0
ARC
  5
17B5D
330
747D
100
AcDbEntity
  8
部品1
 48
50.0
100
AcDbCircle
 10
7101.941843568285
 20
4637.18669815324
 30
0.0
 40
0.7
100
AcDbArc
 50
277.6581272073635
 51
356.7526572096103
  0
ARC
  5
17B5E
330
747D
100
AcDbEntity
  8
部品1
 48
50.0
100
AcDbCircle
 10
7093.705813043442
 20
4544.986698153236
 30
0.0
 40
0.7
100
AcDbArc
 50
277.6581272073635
 51
356.7526572097143
  0
ARC
  5
17B5F
330
747D
100
AcDbEntity
  8
部品1
 48
50.0
100
AcDbCircle
 10
7094.198882152003
 20
4541.319698991553
 30
0.0
 40
3.0
100
AcDbArc
 50
97.65812720736347
 51
176.7526572096623
  0
ARC
  5
17B60
330
747D
100
AcDbEntity
  8
部品1
 48
50.0
100
AcDbCircle
 10
7102.434912676847
 20
4633.519698991555
 30
0.0
 40
3.0
100
AcDbArc
 50
97.65812720736347
 51
176.7526572096623
  0
LINE
  5
17B61
330
747D
100
AcDbEntity
  8
部品1
100
AcDbLine
 10
7099.439729780661
 20
4633.689638446656
 30
0.0
 11
7094.40468905255
 21
4544.947045613713
 31
0.0
  0
LINE
  5
17B62
330
747D
100
AcDbEntity
  8
部品1
100
AcDbLine
 10
7091.203699255817
 20
4541.489638446655
 30
0.0
 11
7090.558793448704
 21
4530.123173596315
 31
0.0
  0
LINE
  5
17B63
330
747D
100
AcDbEntity
  8
細線
 48
50.0
100
AcDbLine
 10
7071.193777925073
 20
4664.519698991553
 30
0.0
 11
7071.193777925073
 21
4523.519698991552
 31
0.0
  0
LINE
  5
17B64
330
747D
100
AcDbEntity
  8
部品1
100
AcDbLine
 10
7103.774116909739
 20
4657.123173596313
 30
0.0
 11
7102.640719577394
 21
4637.147045613714
 31
0.0
  0
LINE
  5
17B65
330
747D
100
AcDbEntity
  8
部品1
100
AcDbLine
 10
6579.193777925069
 20
4429.51969899155
 30
0.0
 11
6579.193777925069
 21
4424.519698991551
 31
0.0
  0
LINE
  5
17B66
330
747D
100
AcDbEntity
  8
細線
 48
50.0
100
AcDbLine
 10
3981.693777925073
 20
4429.51969899155
 30
0.0
 11
3981.693777925077
 21
2339.519698991557
 31
0.0
  0
LINE
  5
17B67
330
747D
100
AcDbEntity
  8
細線
 48
50.0
100
AcDbLine
 10
3996.693777925073
 20
4429.51969899155
 30
0.0
 11
3996.693777925076
 21
2339.519698991557
 31
0.0
  0
LINE
  5
17B68
330
747D
100
AcDbEntity
  8
細線
 48
50.0
100
AcDbLine
 10
3856.693777925073
 20
4429.51969899155
 30
0.0
 11
3856.693777925077
 21
2339.519698991557
 31
0.0
  0
LINE
  5
17B69
330
747D
100
AcDbEntity
  8
細線
 48
50.0
100
AcDbLine
 10
3841.693777925073
 20
4429.51969899155
 30
0.0
 11
3841.693777925076
 21
2339.519698991557
 31
0.0
  0
LINE
  5
17B6A
330
747D
100
AcDbEntity
  8
細線
 48
50.0
100
AcDbLine
 10
3701.693777925073
 20
4429.51969899155
 30
0.0
 11
3701.693777925077
 21
2339.519698991555
 31
0.0
  0
LINE
  5
17B6B
330
747D
100
AcDbEntity
  8
細線
 48
50.0
100
AcDbLine
 10
3716.693777925073
 20
4429.51969899155
 30
0.0
 11
3716.693777925077
 21
2339.519698991555
 31
0.0
  0
LINE
  5
17B6C
330
747D
100
AcDbEntity
  8
細線
 48
50.0
100
AcDbLine
 10
4136.693777925073
 20
4429.51969899155
 30
0.0
 11
4136.693777925077
 21
2339.519698991555
 31
0.0
  0
LINE
  5
17B6D
330
747D
100
AcDbEntity
  8
細線
 48
50.0
100
AcDbLine
 10
4121.693777925073
 20
4429.51969899155
 30
0.0
 11
4121.693777925076
 21
2339.519698991555
 31
0.0
  0
LINE
  5
17B6E
330
747D
100
AcDbEntity
  8
細線
 48
50.0
100
AcDbLine
 10
4261.693777925073
 20
4429.51969899155
 30
0.0
 11
4261.693777925077
 21
2339.519698991557
 31
0.0
  0
LINE
  5
17B6F
330
747D
100
AcDbEntity
  8
細線
 48
50.0
100
AcDbLine
 10
4276.693777925073
 20
4429.51969899155
 30
0.0
 11
4276.693777925077
 21
2339.519698991557
 31
0.0
  0
LINE
  5
17B70
330
747D
100
AcDbEntity
  8
細線
 48
50.0
100
AcDbLine
 10
4416.693777925073
 20
4429.51969899155
 30
0.0
 11
4416.693777925076
 21
2339.519698991557
 31
0.0
  0
LINE
  5
17B71
330
747D
100
AcDbEntity
  8
細線
 48
50.0
100
AcDbLine
 10
4401.693777925073
 20
4429.51969899155
 30
0.0
 11
4401.693777925077
 21
2339.519698991557
 31
0.0
  0
LINE
  5
17B72
330
747D
100
AcDbEntity
  8
細線
 48
50.0
100
AcDbLine
 10
6921.693777925073
 20
4429.51969899155
 30
0.0
 11
6921.693777925077
 21
2339.519698991557
 31
0.0
  0
LINE
  5
17B73
330
747D
100
AcDbEntity
  8
細線
 48
50.0
100
AcDbLine
 10
6936.693777925073
 20
4429.51969899155
 30
0.0
 11
6936.693777925076
 21
2339.519698991557
 31
0.0
  0
LINE
  5
17B74
330
747D
100
AcDbEntity
  8
細線
 48
50.0
100
AcDbLine
 10
6796.693777925073
 20
4429.51969899155
 30
0.0
 11
6796.693777925077
 21
2339.519698991557
 31
0.0
  0
LINE
  5
17B75
330
747D
100
AcDbEntity
  8
細線
 48
50.0
100
AcDbLine
 10
6781.693777925074
 20
4429.51969899155
 30
0.0
 11
6781.693777925076
 21
2339.519698991557
 31
0.0
  0
LINE
  5
17B76
330
747D
100
AcDbEntity
  8
細線
 48
50.0
100
AcDbLine
 10
6641.693777925073
 20
4429.51969899155
 30
0.0
 11
6641.693777925077
 21
2339.519698991555
 31
0.0
  0
LINE
  5
17B77
330
747D
100
AcDbEntity
  8
細線
 48
50.0
100
AcDbLine
 10
6656.693777925074
 20
4429.51969899155
 30
0.0
 11
6656.693777925076
 21
2339.519698991555
 31
0.0
  0
LINE
  5
17B78
330
747D
100
AcDbEntity
  8
細線
100
AcDbLine
 10
6065.693777925069
 20
4372.519698991551
 30
0.0
 11
6065.693777925069
 21
2347.019698991569
 31
0.0
  0
LINE
  5
17B79
330
747D
100
AcDbEntity
  8
細線
100
AcDbLine
 10
5340.193777925069
 20
4372.519698991551
 30
0.0
 11
5340.193777925069
 21
2347.019698991562
 31
0.0
  0
LINE
  5
17B7A
330
747D
100
AcDbEntity
  8
細線
100
AcDbLine
 10
5410.193777925069
 20
4372.519698991551
 30
0.0
 11
5410.193777925069
 21
2347.019698991562
 31
0.0
  0
LINE
  5
17B7B
330
747D
100
AcDbEntity
  8
細線
100
AcDbLine
 10
4696.19377792507
 20
4372.519698991551
 30
0.0
 11
4696.19377792507
 21
2339.519698991555
 31
0.0
  0
LINE
  5
17B7C
330
747D
100
AcDbEntity
  8
細線
100
AcDbLine
 10
4766.193777925069
 20
4372.519698991551
 30
0.0
 11
4766.193777925069
 21
2339.519698991555
 31
0.0
  0
LINE
  5
17B96
330
747D
100
AcDbEntity
  8
部品1
 48
50.0
100
AcDbLine
 10
4526.193777925069
 20
3421.019698991551
 30
0.0
 11
4579.193777925069
 21
3421.019698991551
 31
0.0
  0
LINE
  5
17B9A
330
747D
100
AcDbEntity
  8
細線
100
AcDbLine
 10
6135.693777925069
 20
4372.519698991551
 30
0.0
 11
6135.693777925069
 21
2347.019698991569
 31
0.0
  0
LINE
  5
17B9B
330
747D
100
AcDbEntity
  8
細線
100
AcDbLine
 10
6205.69377792507
 20
4372.519698991551
 30
0.0
 11
6205.69377792507
 21
2347.019698991569
 31
0.0
  0
LINE
  5
17B9C
330
747D
100
AcDbEntity
  8
細線
100
AcDbLine
 10
6275.693777925069
 20
4372.519698991551
 30
0.0
 11
6275.693777925069
 21
2347.019698991569
 31
0.0
  0
LINE
  5
17B9D
330
747D
100
AcDbEntity
  8
細線
100
AcDbLine
 10
6345.693777925069
 20
4372.519698991551
 30
0.0
 11
6345.693777925069
 21
2347.019698991569
 31
0.0
  0
LINE
  5
17B9E
330
747D
100
AcDbEntity
  8
細線
100
AcDbLine
 10
6415.69377792507
 20
4372.519698991551
 30
0.0
 11
6415.69377792507
 21
2347.019698991569
 31
0.0
  0
LINE
  5
17B9F
330
747D
100
AcDbEntity
  8
細線
100
AcDbLine
 10
5480.19377792507
 20
4372.519698991551
 30
0.0
 11
5480.19377792507
 21
2347.019698991562
 31
0.0
  0
LINE
  5
17BA0
330
747D
100
AcDbEntity
  8
細線
100
AcDbLine
 10
5550.19377792507
 20
4372.519698991551
 30
0.0
 11
5550.19377792507
 21
2347.019698991562
 31
0.0
  0
LINE
  5
17BA1
330
747D
100
AcDbEntity
  8
細線
100
AcDbLine
 10
5620.193777925069
 20
4372.519698991551
 30
0.0
 11
5620.193777925069
 21
2347.019698991562
 31
0.0
  0
LINE
  5
17BA2
330
747D
100
AcDbEntity
  8
細線
100
AcDbLine
 10
5690.193777925069
 20
4372.519698991551
 30
0.0
 11
5690.193777925069
 21
2347.019698991562
 31
0.0
  0
LINE
  5
17BA3
330
747D
100
AcDbEntity
  8
細線
100
AcDbLine
 10
5760.19377792507
 20
4372.519698991551
 30
0.0
 11
5760.19377792507
 21
2347.019698991562
 31
0.0
  0
LINE
  5
17BA4
330
747D
100
AcDbEntity
  8
細線
100
AcDbLine
 10
5830.193777925069
 20
4372.519698991551
 30
0.0
 11
5830.193777925069
 21
2347.019698991562
 31
0.0
  0
LINE
  5
17BA5
330
747D
100
AcDbEntity
  8
細線
100
AcDbLine
 10
4610.193777925069
 20
4372.519698991551
 30
0.0
 11
4610.193777925069
 21
2339.519698991555
 31
0.0
  0
LINE
  5
17BA6
330
747D
100
AcDbEntity
  8
細線
100
AcDbLine
 10
4644.193777925069
 20
4372.519698991551
 30
0.0
 11
4644.193777925069
 21
2339.519698991555
 31
0.0
  0
LINE
  5
17BA7
330
747D
100
AcDbEntity
  8
部品1
100
AcDbLine
 10
4602.193777925069
 20
4372.519698991551
 30
0.0
 11
4602.193777925069
 21
2339.519698991555
 31
0.0
  0
LINE
  5
17BA8
330
747D
100
AcDbEntity
  8
部品1
100
AcDbLine
 10
4652.193777925069
 20
4372.519698991551
 30
0.0
 11
4652.193777925069
 21
2339.519698991555
 31
0.0
  0
LINE
  5
17BA9
330
747D
100
AcDbEntity
  8
細線
100
AcDbLine
 10
4836.193777925069
 20
4372.519698991551
 30
0.0
 11
4836.193777925069
 21
2339.519698991555
 31
0.0
  0
LINE
  5
17BAA
330
747D
100
AcDbEntity
  8
細線
100
AcDbLine
 10
4906.193777925069
 20
4372.519698991551
 30
0.0
 11
4906.193777925069
 21
2339.519698991555
 31
0.0
  0
LINE
  5
17BAB
330
747D
100
AcDbEntity
  8
細線
100
AcDbLine
 10
4976.193777925069
 20
4372.519698991551
 30
0.0
 11
4976.193777925069
 21
2339.519698991555
 31
0.0
  0
LINE
  5
17BAC
330
747D
100
AcDbEntity
  8
細線
100
AcDbLine
 10
5046.193777925069
 20
4372.519698991551
 30
0.0
 11
5046.193777925069
 21
2339.519698991555
 31
0.0
  0
LINE
  5
17BAD
330
747D
100
AcDbEntity
  8
細線
100
AcDbLine
 10
5116.193777925069
 20
4372.519698991551
 30
0.0
 11
5116.193777925069
 21
2339.519698991558
 31
0.0
  0
LINE
  5
17BAE
330
747D
100
AcDbEntity
  8
細線
100
AcDbLine
 10
5186.193777925069
 20
4372.519698991551
 30
0.0
 11
5186.193777925069
 21
2339.519698991558
 31
0.0
  0
LINE
  5
17BAF
330
747D
100
AcDbEntity
  8
部品1
100
AcDbLine
 10
5931.193777925066
 20
4372.519698991551
 30
0.0
 11
5931.193777925066
 21
2347.019698991566
 31
0.0
  0
LINE
  5
17BB0
330
747D
100
AcDbEntity
  8
部品1
 48
50.0
100
AcDbLine
 10
6606.19377792507
 20
4380.519698991551
 30
0.0
 11
6576.19377792507
 21
4380.519698991551
 31
0.0
  0
LINE
  5
17BB1
330
747D
100
AcDbEntity
  8
部品1
 48
50.0
100
AcDbLine
 10
4482.193777925069
 20
4380.519698991551
 30
0.0
 11
4452.193777925069
 21
4380.519698991551
 31
0.0
  0
LINE
  5
17BB2
330
747D
100
AcDbEntity
  8
部品1
 48
50.0
100
AcDbLine
 10
4479.193777925069
 20
4424.519698991551
 30
0.0
 11
4479.193777925069
 21
4429.51969899155
 31
0.0
  0
LINE
  5
17BB3
330
747D
100
AcDbEntity
  8
部品1
 48
50.0
100
AcDbLine
 10
6606.19377792507
 20
4424.519698991551
 30
0.0
 11
4452.193777925069
 21
4424.519698991551
 31
0.0
  0
LINE
  5
17BB4
330
747D
100
AcDbEntity
  8
細線
 48
50.0
100
AcDbLine
 10
6606.19377792507
 20
4414.519698991551
 30
0.0
 11
4452.193777925069
 21
4414.519698991551
 31
0.0
  0
LINE
  5
17BB5
330
747D
100
AcDbEntity
  8
細線
 48
50.0
100
AcDbLine
 10
6576.19377792507
 20
4372.519698991551
 30
0.0
 11
4482.193777925069
 21
4372.519698991551
 31
0.0
  0
LINE
  5
17BB6
330
747D
100
AcDbEntity
  8
細線
 48
50.0
100
AcDbLine
 10
6576.19377792507
 20
4382.019698991551
 30
0.0
 11
4482.193777925069
 21
4382.019698991551
 31
0.0
  0
LINE
  5
17BB7
330
747D
100
AcDbEntity
  8
細線
 48
50.0
100
AcDbLine
 10
6554.193777925068
 20
2336.519698991551
 30
0.0
 11
6550.19377792507
 21
2347.019698991551
 31
0.0
  0
LINE
  5
17BB8
330
747D
100
AcDbEntity
  8
部品1
 48
50.0
100
AcDbLine
 10
4491.193777925069
 20
2339.519698991551
 30
0.0
 11
4491.193777925069
 21
2336.519698991551
 31
0.0
  0
LINE
  5
17BB9
330
747D
100
AcDbEntity
  8
部品1
 48
50.0
100
AcDbLine
 10
4482.193777925069
 20
2339.519698991551
 30
0.0
 11
5280.193777925069
 21
2339.519698991551
 31
0.0
  0
LINE
  5
17BBA
330
747D
100
AcDbEntity
  8
部品1
 48
50.0
100
AcDbLine
 10
4452.193777925069
 20
2289.519698991551
 30
0.0
 11
6606.19377792507
 21
2289.519698991551
 31
0.0
  0
LINE
  5
17BBB
330
747D
100
AcDbEntity
  8
細線
 48
50.0
100
AcDbLine
 10
4482.193777925069
 20
2332.519698991551
 30
0.0
 11
6576.19377792507
 21
2332.519698991551
 31
0.0
  0
LINE
  5
17BBC
330
747D
100
AcDbEntity
  8
細線
 48
50.0
100
AcDbLine
 10
4482.193777925069
 20
2336.519698991551
 30
0.0
 11
6576.19377792507
 21
2336.519698991551
 31
0.0
  0
LINE
  5
17BBD
330
747D
100
AcDbEntity
  8
細線
 48
50.0
100
AcDbLine
 10
5280.193777925069
 20
2347.019698991551
 30
0.0
 11
6550.19377792507
 21
2347.019698991551
 31
0.0
  0
LINE
  5
17BBE
330
747D
100
AcDbEntity
  8
部品1
 48
50.0
100
AcDbLine
 10
4482.193777925069
 20
2339.519698991551
 30
0.0
 11
4482.193777925069
 21
4372.519698991551
 31
0.0
  0
LINE
  5
17BBF
330
747D
100
AcDbEntity
  8
細線
 48
50.0
100
AcDbLine
 10
4482.193777925069
 20
4382.019698991551
 30
0.0
 11
4482.193777925069
 21
2289.519698991551
 31
0.0
  0
LINE
  5
17BC0
330
747D
100
AcDbEntity
  8
部品1
 48
50.0
100
AcDbLine
 10
4452.193777925069
 20
4424.519698991551
 30
0.0
 11
4452.193777925069
 21
2289.519698991551
 31
0.0
  0
LINE
  5
17BC1
330
747D
100
AcDbEntity
  8
部品1
 48
50.0
100
AcDbLine
 10
6567.193777925069
 20
2336.519698991551
 30
0.0
 11
6567.193777925069
 21
4372.519698991551
 31
0.0
  0
LINE
  5
17BC2
330
747D
100
AcDbEntity
  8
細線
 48
50.0
100
AcDbLine
 10
6576.19377792507
 20
2289.519698991551
 30
0.0
 11
6576.19377792507
 21
4382.019698991551
 31
0.0
  0
LINE
  5
17BC3
330
747D
100
AcDbEntity
  8
部品1
 48
50.0
100
AcDbLine
 10
6606.19377792507
 20
2289.519698991551
 30
0.0
 11
6606.19377792507
 21
4424.519698991551
 31
0.0
  0
LINE
  5
17BC4
330
747D
100
AcDbEntity
  8
部品1
 48
50.0
100
AcDbLine
 10
5280.193777925069
 20
4372.519698991551
 30
0.0
 11
5280.193777925069
 21
2339.519698991551
 31
0.0
  0
LINE
  5
17BC5
330
747D
100
AcDbEntity
  8
部品1
100
AcDbLine
 10
6606.19377792507
 20
2339.519698991569
 30
0.0
 11
7054.193777925068
 21
2339.519698991571
 31
0.0
  0
MTEXT
  5
17BC6
330
747D
100
AcDbEntity
  8
寸法
 62
     7
 48
50.0
100
AcDbMText
 10
4159.473575535681
 20
9296.903892627545
 30
0.0
 40
96.0
 41
0.0
 71
     5
 72
     1
  1
棚 3段
  7
STYLE1
 73
     1
 44
1.0
1001
ACAD
1000
MTEXTBEGIN
1070
    73
1070
     1
1070
    44
1040
1.0
1070
    74
1070
     0
1000
MTEXTEND
  0
LINE
  5
17BC7
330
747D
100
AcDbEntity
  8
細線
100
AcDbLine
 10
6159.193777925072
 20
4489.019698991549
 30
0.0
 11
6159.193777925072
 21
4466.01969899155
 31
0.0
  0
LINE
  5
17BC8
330
747D
100
AcDbEntity
  8
細線
100
AcDbLine
 10
6085.193777925071
 20
4477.01969899155
 30
0.0
 11
6159.193777925072
 21
4477.01969899155
 31
0.0
  0
LINE
  5
17BC9
330
747D
100
AcDbEntity
  8
細線
100
AcDbLine
 10
6085.193777925071
 20
4471.01969899155
 30
0.0
 11
6159.193777925072
 21
4471.01969899155
 31
0.0
  0
LINE
  5
17BCA
330
747D
100
AcDbEntity
  8
細線
100
AcDbLine
 10
6085.193777925071
 20
4483.019698991549
 30
0.0
 11
6159.193777925072
 21
4483.019698991549
 31
0.0
  0
LINE
  5
17BCB
330
747D
100
AcDbEntity
  8
細線
100
AcDbLine
 10
6233.193777925071
 20
4483.019698991549
 30
0.0
 11
6164.193777925071
 21
4483.019698991549
 31
0.0
  0
LINE
  5
17BCC
330
747D
100
AcDbEntity
  8
細線
100
AcDbLine
 10
6233.193777925071
 20
4471.01969899155
 30
0.0
 11
6159.193777925072
 21
4471.01969899155
 31
0.0
  0
LINE
  5
17BCD
330
747D
100
AcDbEntity
  8
細線
100
AcDbLine
 10
6233.193777925071
 20
4477.01969899155
 30
0.0
 11
6159.193777925072
 21
4477.01969899155
 31
0.0
  0
LINE
  5
17BCE
330
747D
100
AcDbEntity
  8
細線
100
AcDbLine
 10
6233.193777925071
 20
4483.019698991549
 30
0.0
 11
6159.193777925072
 21
4483.019698991549
 31
0.0
  0
LINE
  5
17BCF
330
747D
100
AcDbEntity
  8
部品1
 48
0.01
100
AcDbLine
 10
6071.193777925071
 20
4495.519698991549
 30
0.0
 11
6247.193777925072
 21
4495.519698991549
 31
0.0
  0
LINE
  5
17BD0
330
747D
100
AcDbEntity
  8
部品1
 48
0.01
100
AcDbLine
 10
6249.193777925071
 20
4493.51969899155
 30
0.0
 11
6249.193777925071
 21
4462.019698991549
 31
0.0
  0
LINE
  5
17BD1
330
747D
100
AcDbEntity
  8
部品1
 48
0.01
100
AcDbLine
 10
6247.193777925072
 20
4460.019698991549
 30
0.0
 11
6071.193777925071
 21
4460.019698991549
 31
0.0
  0
LINE
  5
17BD2
330
747D
100
AcDbEntity
  8
部品1
 48
0.01
100
AcDbLine
 10
6069.193777925072
 20
4462.019698991549
 30
0.0
 11
6069.193777925072
 21
4493.51969899155
 31
0.0
  0
LINE
  5
17BD3
330
747D
100
AcDbEntity
  8
細線
100
AcDbLine
 10
6233.193777925071
 20
4489.019698991549
 30
0.0
 11
6233.193777925071
 21
4466.01969899155
 31
0.0
  0
LINE
  5
17BD4
330
747D
100
AcDbEntity
  8
細線
100
AcDbLine
 10
6085.193777925071
 20
4466.01969899155
 30
0.0
 11
6085.193777925071
 21
4489.019698991549
 31
0.0
  0
LINE
  5
17BD5
330
747D
100
AcDbEntity
  8
細線
100
AcDbLine
 10
6085.193777925071
 20
4489.019698991549
 30
0.0
 11
6159.193777925072
 21
4489.019698991549
 31
0.0
  0
LINE
  5
17BD6
330
747D
100
AcDbEntity
  8
細線
100
AcDbLine
 10
6233.193777925071
 20
4466.01969899155
 30
0.0
 11
6159.193777925072
 21
4466.01969899155
 31
0.0
  0
LINE
  5
17BD7
330
747D
100
AcDbEntity
  8
細線
100
AcDbLine
 10
6159.193777925072
 20
4489.019698991549
 30
0.0
 11
6233.193777925071
 21
4489.019698991549
 31
0.0
  0
LINE
  5
17BD8
330
747D
100
AcDbEntity
  8
細線
100
AcDbLine
 10
6159.193777925072
 20
4466.01969899155
 30
0.0
 11
6085.193777925071
 21
4466.01969899155
 31
0.0
  0
ARC
  5
17BD9
330
747D
100
AcDbEntity
  8
部品1
 48
0.01
100
AcDbCircle
 10
6247.193777925072
 20
4493.51969899155
 30
0.0
 40
2.0
100
AcDbArc
 50
0.0
 51
90.0
  0
ARC
  5
17BDA
330
747D
100
AcDbEntity
  8
部品1
 48
0.01
100
AcDbCircle
 10
6247.193777925072
 20
4462.019698991549
 30
0.0
 40
2.0
100
AcDbArc
 50
270.0
 51
0.0
  0
ARC
  5
17BDB
330
747D
100
AcDbEntity
  8
部品1
 48
0.01
100
AcDbCircle
 10
6071.193777925071
 20
4493.51969899155
 30
0.0
 40
2.0
100
AcDbArc
 50
90.0
 51
180.0
  0
ARC
  5
17BDC
330
747D
100
AcDbEntity
  8
部品1
 48
0.01
100
AcDbCircle
 10
6071.193777925071
 20
4462.019698991549
 30
0.0
 40
2.0
100
AcDbArc
 50
180.0
 51
270.0
  0
ARC
  5
17BDD
330
747D
100
AcDbEntity
  8
部品1
 48
0.01
100
AcDbCircle
 10
4567.193777925068
 20
4462.019698991549
 30
0.0
 40
2.0
100
AcDbArc
 50
270.0
 51
0.0
  0
ARC
  5
17BDE
330
747D
100
AcDbEntity
  8
部品1
 48
0.01
100
AcDbCircle
 10
4567.193777925071
 20
4493.51969899155
 30
0.0
 40
2.0
100
AcDbArc
 50
0.0
 51
90.0
  0
ARC
  5
17BDF
330
747D
100
AcDbEntity
  8
部品1
 48
0.01
100
AcDbCircle
 10
4391.193777925071
 20
4462.019698991549
 30
0.0
 40
2.0
100
AcDbArc
 50
180.0
 51
270.0
  0
ARC
  5
17BE0
330
747D
100
AcDbEntity
  8
部品1
 48
0.01
100
AcDbCircle
 10
4391.193777925071
 20
4493.51969899155
 30
0.0
 40
2.0
100
AcDbArc
 50
90.0
 51
180.0
  0
LINE
  5
17BE1
330
747D
100
AcDbEntity
  8
細線
100
AcDbLine
 10
4479.193777925069
 20
4466.01969899155
 30
0.0
 11
4553.193777925071
 21
4466.01969899155
 31
0.0
  0
LINE
  5
17BE2
330
747D
100
AcDbEntity
  8
細線
100
AcDbLine
 10
4479.193777925071
 20
4489.019698991549
 30
0.0
 11
4405.193777925071
 21
4489.019698991549
 31
0.0
  0
LINE
  5
17BE3
330
747D
100
AcDbEntity
  8
細線
100
AcDbLine
 10
4405.193777925071
 20
4466.01969899155
 30
0.0
 11
4479.193777925071
 21
4466.01969899155
 31
0.0
  0
LINE
  5
17BE4
330
747D
100
AcDbEntity
  8
細線
100
AcDbLine
 10
4553.193777925071
 20
4489.019698991549
 30
0.0
 11
4479.193777925071
 21
4489.019698991549
 31
0.0
  0
LINE
  5
17BE5
330
747D
100
AcDbEntity
  8
細線
100
AcDbLine
 10
4553.193777925071
 20
4466.01969899155
 30
0.0
 11
4553.193777925071
 21
4489.019698991549
 31
0.0
  0
LINE
  5
17BE6
330
747D
100
AcDbEntity
  8
細線
100
AcDbLine
 10
4405.193777925071
 20
4489.019698991549
 30
0.0
 11
4405.193777925071
 21
4466.01969899155
 31
0.0
  0
LINE
  5
17BE7
330
747D
100
AcDbEntity
  8
部品1
 48
0.01
100
AcDbLine
 10
4569.193777925069
 20
4462.019698991549
 30
0.0
 11
4569.193777925071
 21
4493.51969899155
 31
0.0
  0
LINE
  5
17BE8
330
747D
100
AcDbEntity
  8
部品1
 48
0.01
100
AcDbLine
 10
4391.193777925071
 20
4460.019698991549
 30
0.0
 11
4567.193777925068
 21
4460.019698991549
 31
0.0
  0
LINE
  5
17BE9
330
747D
100
AcDbEntity
  8
部品1
 48
0.01
100
AcDbLine
 10
4389.193777925071
 20
4493.51969899155
 30
0.0
 11
4389.193777925071
 21
4462.019698991549
 31
0.0
  0
LINE
  5
17BEA
330
747D
100
AcDbEntity
  8
部品1
 48
0.01
100
AcDbLine
 10
4567.193777925071
 20
4495.519698991549
 30
0.0
 11
4391.193777925071
 21
4495.519698991549
 31
0.0
  0
LINE
  5
17BEB
330
747D
100
AcDbEntity
  8
細線
100
AcDbLine
 10
4405.193777925071
 20
4483.019698991549
 30
0.0
 11
4479.193777925071
 21
4483.019698991549
 31
0.0
  0
LINE
  5
17BEC
330
747D
100
AcDbEntity
  8
細線
100
AcDbLine
 10
4405.193777925071
 20
4477.01969899155
 30
0.0
 11
4479.193777925071
 21
4477.01969899155
 31
0.0
  0
LINE
  5
17BED
330
747D
100
AcDbEntity
  8
細線
100
AcDbLine
 10
4405.193777925069
 20
4471.01969899155
 30
0.0
 11
4479.193777925071
 21
4471.01969899155
 31
0.0
  0
LINE
  5
17BEE
330
747D
100
AcDbEntity
  8
細線
100
AcDbLine
 10
4405.193777925071
 20
4483.019698991549
 30
0.0
 11
4474.193777925071
 21
4483.019698991549
 31
0.0
  0
LINE
  5
17BEF
330
747D
100
AcDbEntity
  8
細線
100
AcDbLine
 10
4553.193777925069
 20
4483.019698991549
 30
0.0
 11
4479.193777925071
 21
4483.019698991549
 31
0.0
  0
LINE
  5
17BF0
330
747D
100
AcDbEntity
  8
細線
100
AcDbLine
 10
4553.193777925069
 20
4471.01969899155
 30
0.0
 11
4479.193777925071
 21
4471.01969899155
 31
0.0
  0
LINE
  5
17BF1
330
747D
100
AcDbEntity
  8
細線
100
AcDbLine
 10
4553.193777925069
 20
4477.01969899155
 30
0.0
 11
4479.193777925071
 21
4477.01969899155
 31
0.0
  0
LINE
  5
17BF2
330
747D
100
AcDbEntity
  8
細線
100
AcDbLine
 10
4479.193777925071
 20
4489.019698991549
 30
0.0
 11
4479.193777925069
 21
4466.01969899155
 31
0.0
  0
LINE
  5
1806B
330
747D
100
AcDbEntity
  8
部品1
100
AcDbLine
 10
6997.693777925062
 20
8386.068732668205
 30
0.0
 11
3640.69377792506
 21
8386.068732668105
 31
0.0
  0
LINE
  5
1806C
330
747D
100
AcDbEntity
  8
部品1
100
AcDbLine
 10
3612.193777925051
 20
8386.068732668105
 30
0.0
 11
3584.193777925051
 21
8386.068732668105
 31
0.0
  0
LINE
  5
1806D
330
747D
100
AcDbEntity
  8
部品1
100
AcDbLine
 10
7026.193777925077
 20
8386.068732668233
 30
0.0
 11
7054.193777925077
 21
8386.068732668233
 31
0.0
  0
DIMENSION
  5
18810
330
747D
100
AcDbEntity
  8
寸法
 48
50.0
100
AcDbDimension
  2
*D19
 10
9622.147418399128
 20
2355.519698991551
 30
0.0
 11
9530.135607375505
 21
3368.019698991553
 31
0.0
 70
    32
  1
有効開口部高サ<>
 71
     5
 42
2025.0
  3
INABA_S40
100
AcDbAlignedDimension
 13
10090.05605979638
 23
4380.519698991551
 33
0.0
 14
10090.05605979638
 24
2355.519698991551
 34
0.0
 50
90.0
100
AcDbRotatedDimension
1001
ACAD
1000
DSTYLE
1002
{
1070
    41
1040
0.5
1070
    44
1040
1.0
1070
   147
1040
0.8
1070
   271
1070
     2
1070
   272
1070
     2
1070
   289
1070
     3
1070
   340
1005
F706
1070
   343
1005
164B4
1070
   344
1005
164B4
1002
}
  0
LINE
  5
18811
330
747D
100
AcDbEntity
  8
部品1
100
AcDbLine
 10
10167.05605979638
 20
2289.519698991551
 30
0.0
 11
10090.05605979638
 21
2289.519698991551
 31
0.0
  0
LINE
  5
18812
330
747D
100
AcDbEntity
  8
部品1
100
AcDbLine
 10
10090.05605979638
 20
4415.206803899951
 30
0.0
 11
10167.05605979638
 21
4429.51969899155
 31
0.0
  0
LINE
  5
18813
330
747D
100
AcDbEntity
  8
部品1
100
AcDbLine
 10
10090.05605979638
 20
4415.206803899951
 30
0.0
 11
10090.05605979638
 21
2189.519698991551
 31
0.0
  0
LWPOLYLINE
  5
18814
330
747D
100
AcDbEntity
  8
部品1
100
AcDbPolyline
 90
        4
 70
     1
 43
0.0
 10
10900.32072668216
 20
1654.585358246442
 10
10900.32072668216
 20
1414.69303670091
 10
11663.7913929106
 20
1414.69303670091
 10
11663.7913929106
 20
1654.585358246442
  0
TEXT
  5
18815
330
747D
100
AcDbEntity
  8
部品1
100
AcDbText
 10
10989.76682810577
 20
1461.691829027919
 30
0.0
 40
135.0
  1
側面図
  7
STYLE2
100
AcDbText
  0
LINE
  5
18816
330
747D
100
AcDbEntity
  8
部品1
100
AcDbLine
 10
11096.60104615334
 20
4796.270181291524
 30
0.0
 11
11422.05605979638
 21
4778.752122332664
 31
0.0
  0
LINE
  5
18817
330
747D
100
AcDbEntity
  8
部品1
 48
50.0
100
AcDbLine
 10
11372.05605979638
 20
2289.519698991552
 30
0.0
 11
11372.05605979638
 21
2189.519698991551
 31
0.0
  0
LINE
  5
18818
330
747D
100
AcDbEntity
  8
部品1
 48
50.0
100
AcDbLine
 10
11172.05605979638
 20
2289.519698991552
 30
0.0
 11
11172.05605979638
 21
2189.519698991551
 31
0.0
  0
ARC
  5
18819
330
747D
100
AcDbEntity
  8
部品1
100
AcDbCircle
 10
12442.68359561032
 20
4503.543456257345
 30
0.0
 40
0.7
100
AcDbArc
 50
275.0921697642102
 51
354.1866997666828
  0
ARC
  5
1881A
330
747D
100
AcDbEntity
  8
部品1
100
AcDbCircle
 10
12453.54294135964
 20
4580.586711075268
 30
0.0
 40
0.7
100
AcDbArc
 50
275.0921697642102
 51
354.1866997665273
  0
ARC
  5
1881B
330
747D
100
AcDbEntity
  8
部品1
100
AcDbCircle
 10
12453.87134660224
 20
4576.901314218178
 30
0.0
 40
3.0
100
AcDbArc
 50
95.0921697642102
 51
174.1866997665272
  0
ARC
  5
1881C
330
747D
100
AcDbEntity
  8
部品1
100
AcDbCircle
 10
12443.01200085292
 20
4499.858059400254
 30
0.0
 40
3.0
100
AcDbArc
 50
95.0921697642102
 51
174.1866997665272
  0
ARC
  5
1881D
330
747D
100
AcDbEntity
  8
部品1
 48
50.0
100
AcDbCircle
 10
12431.98386557782
 20
4490.267314796372
 30
0.0
 40
7.0
100
AcDbArc
 50
267.8377559869492
 51
354.1866997665273
  0
ARC
  5
1881E
330
747D
100
AcDbEntity
  8
部品1
 48
50.0
100
AcDbCircle
 10
12449.30596204233
 20
4601.169861938544
 30
0.0
 40
7.0
100
AcDbArc
 50
354.1866997665273
 51
87.03587545283093
  0
LINE
  5
1881F
330
747D
100
AcDbEntity
  8
部品1
 48
50.0
100
AcDbLine
 10
12440.02742918231
 20
4500.161921117157
 30
0.0
 11
12438.94786614257
 21
4489.558304123598
 31
0.0
  0
LINE
  5
18820
330
747D
100
AcDbEntity
  8
部品1
 48
50.0
100
AcDbLine
 10
12450.88677493163
 20
4577.205175935081
 30
0.0
 11
12443.3799956668
 21
4503.472555190068
 31
0.0
  0
LINE
  5
18821
330
747D
100
AcDbEntity
  8
部品1
 48
50.0
100
AcDbLine
 10
12456.26996260709
 20
4600.46085126577
 30
0.0
 11
12454.23934141612
 21
4580.51581000799
 31
0.0
  0
ARC
  5
18822
330
747D
100
AcDbEntity
  8
部品1
100
AcDbCircle
 10
10113.09315166775
 20
4543.333857950456
 30
0.0
 40
0.7
100
AcDbArc
 50
181.0932240292375
 51
260.187754031489
  0
ARC
  5
18823
330
747D
100
AcDbEntity
  8
部品1
100
AcDbCircle
 10
10108.32047807014
 20
4636.199636150575
 30
0.0
 40
0.7
100
AcDbArc
 50
181.0932240292114
 51
260.187754031489
  0
ARC
  5
18824
330
747D
100
AcDbEntity
  8
部品1
100
AcDbCircle
 10
10107.68992366712
 20
4632.553761613176
 30
0.0
 40
3.0
100
AcDbArc
 50
1.093224029289586
 51
80.18775403169431
  0
ARC
  5
18825
330
747D
100
AcDbEntity
  8
部品1
100
AcDbCircle
 10
10112.46259726472
 20
4539.687983413058
 30
0.0
 40
3.0
100
AcDbArc
 50
1.093224029289586
 51
80.18775403169431
  0
ARC
  5
18826
330
747D
100
AcDbEntity
  8
部品1
 48
50.0
100
AcDbCircle
 10
10122.66272963992
 20
4529.295740030576
 30
0.0
 40
7.0
100
AcDbArc
 50
181.0932240292895
 51
267.8377559869492
  0
ARC
  5
18827
330
747D
100
AcDbEntity
  8
部品1
 48
50.0
100
AcDbCircle
 10
10114.23907153783
 20
4656.246799563672
 30
0.0
 40
7.0
100
AcDbArc
 50
87.03587545283093
 51
181.0932240292895
  0
LINE
  5
18828
330
747D
100
AcDbEntity
  8
部品1
 48
50.0
100
AcDbLine
 10
10115.46205119115
 20
4539.745221016241
 30
0.0
 11
10115.66400381158
 21
4529.162185623149
 31
0.0
  0
LINE
  5
18829
330
747D
100
AcDbEntity
  8
細線
 48
50.0
100
AcDbLine
 10
10112.85595813448
 20
4542.67526913505
 30
0.0
 11
12442.85962256512
 21
4502.865950160556
 31
0.0
  0
LINE
  5
1882A
330
747D
100
AcDbEntity
  8
細線
 48
50.0
100
AcDbLine
 10
10108.09548289719
 20
4635.536780832913
 30
0.0
 11
12453.73146764237
 21
4579.912576192086
 31
0.0
  0
LINE
  5
1882B
330
747D
100
AcDbEntity
  8
部品1
 48
50.0
100
AcDbLine
 10
10110.68937759355
 20
4632.610999216359
 30
0.0
 11
10112.39327908491
 21
4543.320502509714
 31
0.0
  0
LINE
  5
1882C
330
747D
100
AcDbEntity
  8
部品1
 48
50.0
100
AcDbLine
 10
10107.24034570949
 20
4656.113245156244
 30
0.0
 11
10107.6206054873
 21
4636.186280709833
 31
0.0
  0
LINE
  5
1882D
330
747D
100
AcDbEntity
  8
細線
 48
50.0
100
AcDbLine
 10
12424.05605979638
 20
4609.486678026847
 30
0.0
 11
12419.30837690839
 21
4483.740905536104
 31
0.0
  0
LINE
  5
1882E
330
747D
100
AcDbEntity
  8
細線
 48
50.0
100
AcDbLine
 10
10140.05605979638
 20
4661.919375366957
 30
0.0
 11
10134.76695824087
 21
4521.833742739601
 31
0.0
  0
LINE
  5
1882F
330
747D
100
AcDbEntity
  8
部品1
100
AcDbLine
 10
10122.39862439833
 20
4522.300724060518
 30
0.0
 11
12431.71976033623
 21
4483.272298826314
 31
0.0
  0
LINE
  5
18830
330
747D
100
AcDbEntity
  8
部品1
100
AcDbLine
 10
10114.60104615334
 20
4663.237434325817
 30
0.0
 11
12449.66793665785
 21
4608.160496700691
 31
0.0
  0
LINE
  5
18831
330
747D
100
AcDbEntity
  8
部品1
 48
50.0
100
AcDbLine
 10
11122.05605979638
 20
4794.952122332662
 30
0.0
 11
11422.05605979638
 21
4794.952122332662
 31
0.0
  0
LINE
  5
18832
330
747D
100
AcDbEntity
  8
部品1
 48
50.0
100
AcDbLine
 10
11422.05605979638
 20
4794.952122332662
 30
0.0
 11
11422.05605979638
 21
4778.752122332664
 31
0.0
  0
TEXT
  5
18833
330
747D
100
AcDbEntity
  8
部品1
 48
50.0
100
AcDbText
 10
11110.32389502011
 20
4830.836144485096
 30
0.0
 40
120.0
  1
1000
  7
STYLE1
100
AcDbText
  0
TEXT
  5
18834
330
747D
100
AcDbEntity
  8
部品1
 48
50.0
100
AcDbText
 10
11587.9569176852
 20
4693.334886266813
 30
0.0
 40
120.0
  1
44
 50
90.0
  7
STYLE1
100
AcDbText
  0
LINE
  5
18835
330
747D
100
AcDbEntity
  8
細線
 48
50.0
100
AcDbLine
 10
11559.55605979638
 20
4429.51969899155
 30
0.0
 11
11559.55605979638
 21
2339.519698991551
 31
0.0
  0
LINE
  5
18836
330
747D
100
AcDbEntity
  8
細線
 48
50.0
100
AcDbLine
 10
11544.55605979638
 20
4429.51969899155
 30
0.0
 11
11544.55605979638
 21
2339.519698991551
 31
0.0
  0
LINE
  5
18837
330
747D
100
AcDbEntity
  8
細線
 48
50.0
100
AcDbLine
 10
11684.55605979638
 20
4429.51969899155
 30
0.0
 11
11684.55605979638
 21
2339.519698991551
 31
0.0
  0
LINE
  5
18838
330
747D
100
AcDbEntity
  8
細線
 48
50.0
100
AcDbLine
 10
11699.55605979638
 20
4429.51969899155
 30
0.0
 11
11699.55605979638
 21
2339.519698991551
 31
0.0
  0
LINE
  5
18839
330
747D
100
AcDbEntity
  8
細線
 48
50.0
100
AcDbLine
 10
11839.55605979639
 20
4429.51969899155
 30
0.0
 11
11839.55605979639
 21
2339.519698991551
 31
0.0
  0
LINE
  5
1883A
330
747D
100
AcDbEntity
  8
細線
 48
50.0
100
AcDbLine
 10
11824.55605979638
 20
4429.51969899155
 30
0.0
 11
11824.55605979638
 21
2339.519698991551
 31
0.0
  0
LINE
  5
1883B
330
747D
100
AcDbEntity
  8
部品1
100
AcDbLine
 10
11902.05605979638
 20
4429.51969899155
 30
0.0
 11
11902.05605979638
 21
2339.519698991551
 31
0.0
  0
LINE
  5
1883C
330
747D
100
AcDbEntity
  8
部品1
100
AcDbLine
 10
10167.05605979638
 20
4429.51969899155
 30
0.0
 11
12377.05605979638
 21
4429.51969899155
 31
0.0
  0
LINE
  5
1883D
330
747D
100
AcDbEntity
  8
部品1
100
AcDbLine
 10
10167.05605979638
 20
2339.519698991551
 30
0.0
 11
12377.05605979638
 21
2339.519698991553
 31
0.0
  0
LINE
  5
1883E
330
747D
100
AcDbEntity
  8
部品1
100
AcDbLine
 10
10167.05605979638
 20
2289.519698991552
 30
0.0
 11
10174.55605979638
 21
2289.519698991551
 31
0.0
  0
LINE
  5
1883F
330
747D
100
AcDbEntity
  8
部品1
100
AcDbLine
 10
10222.05605979638
 20
4429.51969899155
 30
0.0
 11
10222.05605979638
 21
2339.519698991551
 31
0.0
  0
LINE
  5
18840
330
747D
100
AcDbEntity
  8
部品1
100
AcDbLine
 10
10167.05605979638
 20
4521.545996036138
 30
0.0
 11
10167.05605979638
 21
2189.519698991551
 31
0.0
  0
DIMENSION
  5
18841
330
747D
100
AcDbEntity
  8
寸法
100
AcDbDimension
  2
*D20
 10
9023.305930613124
 20
2189.519698991551
 30
0.0
 11
9023.305930613124
 21
1953.472454897062
 31
0.0
 70
   160
 71
     5
 42
100.0000000000004
  3
INABA_S40G
100
AcDbAlignedDimension
 13
10112.05605979638
 23
2289.519698991552
 33
0.0
 14
9110.55498390125
 24
2189.519698991551
 34
0.0
 50
90.0
100
AcDbRotatedDimension
1001
ACAD
1000
DSTYLE
1002
{
1070
   174
1070
     0
1070
   272
1070
     1
1070
   288
1070
     0
1070
   341
1005
0
1002
}
  0
DIMENSION
  5
18842
330
747D
100
AcDbEntity
  8
寸法
100
AcDbDimension
  2
*D21
 10
9323.305930613123
 20
2289.519698991552
 30
0.0
 11
9323.305930613123
 21
1983.472454897062
 31
0.0
 70
   160
 71
     5
 42
50.0
  3
INABA_S40G
100
AcDbAlignedDimension
 13
10167.05605979638
 23
2339.519698991551
 33
0.0
 14
10112.05605979638
 24
2289.519698991552
 34
0.0
 50
90.0
100
AcDbRotatedDimension
1001
ACAD
1000
DSTYLE
1002
{
1070
   174
1070
     0
1070
   272
1070
     1
1070
   288
1070
     0
1070
   341
1005
0
1002
}
  0
LINE
  5
18843
330
747D
100
AcDbEntity
  8
部品1
100
AcDbLine
 10
10642.05605979638
 20
4429.51969899155
 30
0.0
 11
10642.05605979638
 21
2339.519698991551
 31
0.0
  0
LINE
  5
18844
330
747D
100
AcDbEntity
  8
部品1
100
AcDbLine
 10
12377.05605979638
 20
4484.196136622773
 30
0.0
 11
12377.05605979638
 21
2189.519698991551
 31
0.0
  0
LINE
  5
18845
330
747D
100
AcDbEntity
  8
部品1
100
AcDbLine
 10
12322.05605979638
 20
4429.51969899155
 30
0.0
 11
12322.05605979638
 21
2339.519698991551
 31
0.0
  0
LINE
  5
18846
330
747D
100
AcDbEntity
  8
部品1
100
AcDbLine
 10
10367.05605979638
 20
2289.519698991552
 30
0.0
 11
10367.05605979638
 21
2189.519698991551
 31
0.0
  0
LINE
  5
18847
330
747D
100
AcDbEntity
  8
部品1
100
AcDbLine
 10
12177.05605979638
 20
2289.519698991552
 30
0.0
 11
12177.05605979638
 21
2189.519698991551
 31
0.0
  0
DIMENSION
  5
18848
330
747D
100
AcDbEntity
  8
寸法
 48
50.0
100
AcDbDimension
  2
*D22
 10
10167.05605979638
 20
5063.177152570855
 30
0.0
 11
11261.7007968669
 21
5063.177152570855
 31
0.0
 70
   160
  1
柱外寸法<>
 71
     5
 42
2210.0
  3
INABA_S40G
100
AcDbAlignedDimension
 13
12377.05605979638
 23
4611.330378603205
 33
0.0
 14
10167.05605979638
 24
4660.521317114528
 34
0.0
100
AcDbRotatedDimension
1001
ACAD
1000
DSTYLE
1002
{
1070
   174
1070
     0
1070
   272
1070
     1
1070
   288
1070
     0
1070
   341
1005
0
1002
}
  0
DIMENSION
  5
18849
330
747D
100
AcDbEntity
  8
寸法
 48
50.0
100
AcDbDimension
  2
*D23
 10
10107.05605979638
 20
5063.177152570855
 30
0.0
 11
9797.418264520793
 21
5063.177152570855
 31
0.0
 70
   160
 71
     5
 42
60.0
  3
INABA_S40G
100
AcDbAlignedDimension
 13
10167.05605979638
 23
4660.521317114528
 33
0.0
 14
10107.05605979638
 24
4664.519698991557
 34
0.0
100
AcDbRotatedDimension
1001
ACAD
1000
DSTYLE
1002
{
1070
   174
1070
     0
1070
   272
1070
     1
1070
   288
1070
     0
1070
   341
1005
0
1002
}
  0
DIMENSION
  5
1884A
330
747D
100
AcDbEntity
  8
寸法
 48
50.0
100
AcDbDimension
  2
*D24
 10
10107.05605979638
 20
5282.378986245147
 30
0.0
 11
11341.39991388885
 21
5282.378986245147
 31
0.0
 70
   160
 71
     5
 42
2350.0
  3
INABA_S40G
100
AcDbAlignedDimension
 13
12457.05605979638
 23
4609.519698991553
 33
0.0
 14
10107.05605979638
 24
4664.519698991557
 34
0.0
100
AcDbRotatedDimension
1001
ACAD
1000
DSTYLE
1002
{
1070
   174
1070
     0
1070
   272
1070
     1
1070
   288
1070
     0
1070
   341
1005
0
1002
}
  0
LINE
  5
1884B
330
747D
100
AcDbEntity
  8
破線
  6
HIDDEN
 48
5.0
100
AcDbLine
 10
12384.55605979638
 20
2034.519698991552
 30
0.0
 11
12314.55605979638
 21
2034.519698991552
 31
0.0
  0
LINE
  5
1884C
330
747D
100
AcDbEntity
  8
破線
  6
HIDDEN
 48
5.0
100
AcDbLine
 10
12329.55605979638
 20
2184.519698991552
 30
0.0
 11
12314.55605979638
 21
2036.819698991552
 31
0.0
  0
LINE
  5
1884D
330
747D
100
AcDbEntity
  8
破線
  6
HIDDEN
 48
5.0
100
AcDbLine
 10
12314.55605979638
 20
2036.819698991552
 30
0.0
 11
12314.55605979638
 21
2034.519698991552
 31
0.0
  0
LINE
  5
1884E
330
747D
100
AcDbEntity
  8
破線
  6
HIDDEN
 48
5.0
100
AcDbLine
 10
12369.55605979638
 20
2184.519698991552
 30
0.0
 11
12384.55605979638
 21
2036.819698991552
 31
0.0
  0
LINE
  5
1884F
330
747D
100
AcDbEntity
  8
破線
  6
HIDDEN
 48
5.0
100
AcDbLine
 10
12384.55605979638
 20
2036.819698991552
 30
0.0
 11
12384.55605979638
 21
2034.519698991552
 31
0.0
  0
LINE
  5
18850
330
747D
100
AcDbEntity
  8
破線
  6
HIDDEN
 48
5.0
100
AcDbLine
 10
10159.55605979638
 20
2034.519698991551
 30
0.0
 11
10229.55605979638
 21
2034.519698991551
 31
0.0
  0
LINE
  5
18851
330
747D
100
AcDbEntity
  8
破線
  6
HIDDEN
 48
5.0
100
AcDbLine
 10
10159.55605979638
 20
2036.819698991552
 30
0.0
 11
10159.55605979638
 21
2034.519698991551
 31
0.0
  0
LINE
  5
18852
330
747D
100
AcDbEntity
  8
破線
  6
HIDDEN
 48
5.0
100
AcDbLine
 10
10229.55605979638
 20
2036.819698991552
 30
0.0
 11
10229.55605979638
 21
2034.519698991551
 31
0.0
  0
LINE
  5
18853
330
747D
100
AcDbEntity
  8
破線
  6
HIDDEN
 48
5.0
100
AcDbLine
 10
10174.55605979638
 20
2184.519698991552
 30
0.0
 11
10159.55605979638
 21
2036.819698991552
 31
0.0
  0
LINE
  5
18854
330
747D
100
AcDbEntity
  8
破線
  6
HIDDEN
 48
5.0
100
AcDbLine
 10
10214.55605979638
 20
2184.519698991551
 30
0.0
 11
10229.55605979638
 21
2036.819698991552
 31
0.0
  0
LINE
  5
18855
330
747D
100
AcDbEntity
  8
部品1
 48
50.0
100
AcDbLine
 10
10174.55605979638
 20
2329.519698991552
 30
0.0
 11
10174.55605979638
 21
2189.519698991551
 31
0.0
  0
LINE
  5
18856
330
747D
100
AcDbEntity
  8
部品1
 48
50.0
100
AcDbLine
 10
10214.55605979638
 20
2329.519698991552
 30
0.0
 11
10214.55605979638
 21
2189.519698991551
 31
0.0
  0
LINE
  5
18857
330
747D
100
AcDbEntity
  8
部品1
100
AcDbLine
 10
10179.55605979638
 20
2334.519698991552
 30
0.0
 11
10209.55605979638
 21
2334.519698991551
 31
0.0
  0
ARC
  5
18858
330
747D
100
AcDbEntity
  8
部品1
 48
50.0
100
AcDbCircle
 10
10179.55605979638
 20
2329.519698991552
 30
0.0
 40
5.0
100
AcDbArc
 50
90.0
 51
180.0
  0
ARC
  5
18859
330
747D
100
AcDbEntity
  8
部品1
 48
50.0
100
AcDbCircle
 10
10209.55605979638
 20
2329.519698991552
 30
0.0
 40
5.0
100
AcDbArc
 50
0.0
 51
90.0
  0
LINE
  5
1885A
330
747D
100
AcDbEntity
  8
部品1
 48
50.0
100
AcDbLine
 10
12329.55605979638
 20
2329.519698991552
 30
0.0
 11
12329.55605979638
 21
2189.519698991551
 31
0.0
  0
LINE
  5
1885B
330
747D
100
AcDbEntity
  8
部品1
 48
50.0
100
AcDbLine
 10
12369.55605979638
 20
2329.519698991552
 30
0.0
 11
12369.55605979638
 21
2189.519698991551
 31
0.0
  0
LINE
  5
1885C
330
747D
100
AcDbEntity
  8
部品1
100
AcDbLine
 10
12364.55605979638
 20
2334.519698991552
 30
0.0
 11
12334.55605979638
 21
2334.519698991552
 31
0.0
  0
ARC
  5
1885D
330
747D
100
AcDbEntity
  8
部品1
 48
50.0
100
AcDbCircle
 10
12334.55605979638
 20
2329.519698991552
 30
0.0
 40
5.0
100
AcDbArc
 50
90.0
 51
180.0
  0
ARC
  5
1885E
330
747D
100
AcDbEntity
  8
部品1
 48
50.0
100
AcDbCircle
 10
12364.55605979638
 20
2329.519698991552
 30
0.0
 40
5.0
100
AcDbArc
 50
0.0
 51
90.0
  0
LINE
  5
1885F
330
747D
100
AcDbEntity
  8
破線
  6
HIDDEN
 48
5.0
100
AcDbLine
 10
12329.55605979638
 20
2189.519698991551
 30
0.0
 11
12329.55605979638
 21
2184.519698991552
 31
0.0
  0
LINE
  5
18860
330
747D
100
AcDbEntity
  8
破線
  6
HIDDEN
 48
5.0
100
AcDbLine
 10
12369.55605979638
 20
2189.519698991551
 30
0.0
 11
12369.55605979638
 21
2184.519698991552
 31
0.0
  0
LINE
  5
18861
330
747D
100
AcDbEntity
  8
破線
  6
HIDDEN
 48
5.0
100
AcDbLine
 10
10174.55605979639
 20
2189.519698991551
 30
0.0
 11
10174.55605979639
 21
2184.519698991552
 31
0.0
  0
LINE
  5
18862
330
747D
100
AcDbEntity
  8
破線
  6
HIDDEN
 48
5.0
100
AcDbLine
 10
10214.55605979638
 20
2189.519698991551
 30
0.0
 11
10214.55605979638
 21
2184.519698991551
 31
0.0
  0
LINE
  5
18863
330
747D
100
AcDbEntity
  8
部品1
100
AcDbLine
 10
12369.55605979638
 20
2289.519698991552
 30
0.0
 11
12377.05605979638
 21
2289.519698991552
 31
0.0
  0
LINE
  5
18864
330
747D
100
AcDbEntity
  8
部品1
100
AcDbLine
 10
10214.55605979638
 20
2289.519698991552
 30
0.0
 11
12329.55605979638
 21
2289.519698991552
 31
0.0
  0
LINE
  5
18865
330
747D
100
AcDbEntity
  8
細線
 48
50.0
100
AcDbLine
 10
10719.55605979638
 20
4429.51969899155
 30
0.0
 11
10719.55605979638
 21
2339.519698991551
 31
0.0
  0
LINE
  5
18866
330
747D
100
AcDbEntity
  8
細線
 48
50.0
100
AcDbLine
 10
10704.55605979638
 20
4429.51969899155
 30
0.0
 11
10704.55605979638
 21
2339.519698991551
 31
0.0
  0
LINE
  5
18867
330
747D
100
AcDbEntity
  8
細線
 48
50.0
100
AcDbLine
 10
10844.55605979638
 20
4429.51969899155
 30
0.0
 11
10844.55605979638
 21
2339.519698991551
 31
0.0
  0
LINE
  5
18868
330
747D
100
AcDbEntity
  8
細線
 48
50.0
100
AcDbLine
 10
10859.55605979638
 20
4429.51969899155
 30
0.0
 11
10859.55605979638
 21
2339.519698991551
 31
0.0
  0
LINE
  5
18869
330
747D
100
AcDbEntity
  8
細線
 48
50.0
100
AcDbLine
 10
10999.55605979638
 20
4429.51969899155
 30
0.0
 11
10999.55605979638
 21
2339.519698991551
 31
0.0
  0
LINE
  5
1886A
330
747D
100
AcDbEntity
  8
細線
 48
50.0
100
AcDbLine
 10
10984.55605979638
 20
4429.51969899155
 30
0.0
 11
10984.55605979638
 21
2339.519698991551
 31
0.0
  0
LINE
  5
1886B
330
747D
100
AcDbEntity
  8
細線
 48
50.0
100
AcDbLine
 10
10564.55605979639
 20
4429.51969899155
 30
0.0
 11
10564.55605979638
 21
2339.519698991551
 31
0.0
  0
LINE
  5
1886C
330
747D
100
AcDbEntity
  8
細線
 48
50.0
100
AcDbLine
 10
10579.55605979638
 20
4429.51969899155
 30
0.0
 11
10579.55605979638
 21
2339.519698991551
 31
0.0
  0
LINE
  5
1886D
330
747D
100
AcDbEntity
  8
細線
 48
50.0
100
AcDbLine
 10
10439.55605979638
 20
4429.51969899155
 30
0.0
 11
10439.55605979638
 21
2339.519698991551
 31
0.0
  0
LINE
  5
1886E
330
747D
100
AcDbEntity
  8
細線
 48
50.0
100
AcDbLine
 10
10424.55605979639
 20
4429.51969899155
 30
0.0
 11
10424.55605979638
 21
2339.519698991551
 31
0.0
  0
LINE
  5
1886F
330
747D
100
AcDbEntity
  8
細線
 48
50.0
100
AcDbLine
 10
10284.55605979639
 20
4429.51969899155
 30
0.0
 11
10284.55605979638
 21
2339.519698991551
 31
0.0
  0
LINE
  5
18870
330
747D
100
AcDbEntity
  8
細線
 48
50.0
100
AcDbLine
 10
10299.55605979638
 20
4429.51969899155
 30
0.0
 11
10299.55605979638
 21
2339.519698991551
 31
0.0
  0
DIMENSION
  5
18871
330
747D
100
AcDbEntity
  8
寸法
 48
50.0
100
AcDbDimension
  2
*D25
 10
12457.05605979638
 20
5063.177152570855
 30
0.0
 11
12663.10330389087
 21
5063.177152570855
 31
0.0
 70
   160
 71
     5
 42
80.0
  3
INABA_S40G
100
AcDbAlignedDimension
 13
12377.05605979638
 23
4611.330378603205
 33
0.0
 14
12457.05605979638
 24
4609.519698991553
 34
0.0
100
AcDbRotatedDimension
1001
ACAD
1000
DSTYLE
1002
{
1070
   174
1070
     0
1070
   272
1070
     1
1070
   288
1070
     0
1070
   341
1005
0
1002
}
  0
LINE
  5
18872
330
747D
100
AcDbEntity
  8
部品1
100
AcDbLine
 10
11062.05605979638
 20
4429.51969899155
 30
0.0
 11
11062.05605979638
 21
2339.519698991551
 31
0.0
  0
LINE
  5
18873
330
747D
100
AcDbEntity
  8
細線
 48
50.0
100
AcDbLine
 10
11404.55605979638
 20
4429.51969899155
 30
0.0
 11
11404.55605979638
 21
2339.519698991551
 31
0.0
  0
LINE
  5
18874
330
747D
100
AcDbEntity
  8
細線
 48
50.0
100
AcDbLine
 10
11419.55605979638
 20
4429.51969899155
 30
0.0
 11
11419.55605979638
 21
2339.519698991551
 31
0.0
  0
LINE
  5
18875
330
747D
100
AcDbEntity
  8
細線
 48
50.0
100
AcDbLine
 10
11279.55605979638
 20
4429.51969899155
 30
0.0
 11
11279.55605979638
 21
2339.519698991551
 31
0.0
  0
LINE
  5
18876
330
747D
100
AcDbEntity
  8
細線
 48
50.0
100
AcDbLine
 10
11264.55605979638
 20
4429.51969899155
 30
0.0
 11
11264.55605979638
 21
2339.519698991551
 31
0.0
  0
LINE
  5
18877
330
747D
100
AcDbEntity
  8
細線
 48
50.0
100
AcDbLine
 10
11124.55605979638
 20
4429.51969899155
 30
0.0
 11
11124.55605979638
 21
2339.519698991551
 31
0.0
  0
LINE
  5
18878
330
747D
100
AcDbEntity
  8
細線
 48
50.0
100
AcDbLine
 10
11139.55605979638
 20
4429.51969899155
 30
0.0
 11
11139.55605979638
 21
2339.519698991551
 31
0.0
  0
LINE
  5
18879
330
747D
100
AcDbEntity
  8
部品1
100
AcDbLine
 10
11482.05605979638
 20
4429.51969899155
 30
0.0
 11
11482.05605979638
 21
2339.519698991551
 31
0.0
  0
LINE
  5
1887A
330
747D
100
AcDbEntity
  8
細線
 48
50.0
100
AcDbLine
 10
11979.55605979639
 20
4429.51969899155
 30
0.0
 11
11979.55605979639
 21
2339.519698991551
 31
0.0
  0
LINE
  5
1887B
330
747D
100
AcDbEntity
  8
細線
 48
50.0
100
AcDbLine
 10
11964.55605979639
 20
4429.51969899155
 30
0.0
 11
11964.55605979639
 21
2339.519698991551
 31
0.0
  0
LINE
  5
1887C
330
747D
100
AcDbEntity
  8
細線
 48
50.0
100
AcDbLine
 10
12104.55605979639
 20
4429.51969899155
 30
0.0
 11
12104.55605979639
 21
2339.519698991551
 31
0.0
  0
LINE
  5
1887D
330
747D
100
AcDbEntity
  8
細線
 48
50.0
100
AcDbLine
 10
12119.55605979639
 20
4429.51969899155
 30
0.0
 11
12119.55605979639
 21
2339.519698991551
 31
0.0
  0
LINE
  5
1887E
330
747D
100
AcDbEntity
  8
細線
 48
50.0
100
AcDbLine
 10
12259.55605979639
 20
4429.51969899155
 30
0.0
 11
12259.55605979639
 21
2339.519698991551
 31
0.0
  0
LINE
  5
1887F
330
747D
100
AcDbEntity
  8
細線
 48
50.0
100
AcDbLine
 10
12244.55605979639
 20
4429.51969899155
 30
0.0
 11
12244.55605979639
 21
2339.519698991551
 31
0.0
  0
DIMENSION
  5
18880
330
747D
100
AcDbEntity
  8
寸法
 48
50.0
100
AcDbDimension
  2
*D26
 10
9546.447653028002
 20
4538.864957864883
 30
0.0
 11
9557.113128286927
 21
4909.711621106582
 31
0.0
 70
   161
 71
     5
 42
141.0000000000009
  3
INABA_S40G
100
AcDbAlignedDimension
 13
10126.45207995496
 23
4663.24244782623
 33
0.0
 14
10122.39862439833
 24
4522.300724060518
 34
0.0
1001
ACAD
1000
DSTYLE
1002
{
1070
   174
1070
     0
1070
   272
1070
     1
1070
   288
1070
     0
1070
   341
1005
0
1002
}
  0
DIMENSION
  5
18881
330
747D
100
AcDbEntity
  8
寸法
 48
50.0
100
AcDbDimension
  2
*D27
 10
9945.05605654975
 20
2189.519698991551
 30
0.0
 11
9945.05605654975
 21
2089.519698991553
 31
0.0
 70
   160
 71
     5
 42
200.0000000000009
  3
INABA_S40G
100
AcDbAlignedDimension
 13
10094.55605979638
 23
1989.51969899155
 33
0.0
 14
10069.55605979638
 24
2189.519698991551
 34
0.0
 50
90.0
100
AcDbRotatedDimension
1001
ACAD
1000
DSTYLE
1002
{
1070
   174
1070
     0
1070
   272
1070
     1
1070
   288
1070
     0
1070
   341
1005
0
1002
}
  0
LINE
  5
18882
330
747D
100
AcDbEntity
  8
破線
 48
5.0
100
AcDbLine
 10
10294.55605979638
 20
1989.519698991549
 30
0.0
 11
10094.55605979638
 21
1989.51969899155
 31
0.0
  0
LINE
  5
18883
330
747D
100
AcDbEntity
  8
破線
 48
5.0
100
AcDbLine
 10
10294.55605979638
 20
2189.519698991551
 30
0.0
 11
10294.55605979638
 21
1989.519698991549
 31
0.0
  0
LINE
  5
18884
330
747D
100
AcDbEntity
  8
破線
 48
5.0
100
AcDbLine
 10
10094.55605979638
 20
2189.519698991551
 30
0.0
 11
10094.55605979638
 21
1989.51969899155
 31
0.0
  0
DIMENSION
  5
18885
330
747D
100
AcDbEntity
  8
寸法
 48
50.0
100
AcDbDimension
  2
*D28
 10
10094.55605979638
 20
1703.472369691173
 30
0.0
 11
10194.55605979638
 21
1703.472369691173
 31
0.0
 70
   160
 71
     5
 42
199.9999999999963
  3
INABA_S40G
100
AcDbAlignedDimension
 13
10294.55605979638
 23
1989.519698991549
 33
0.0
 14
10094.55605979638
 24
1989.51969899155
 34
0.0
100
AcDbRotatedDimension
  0
LINE
  5
18886
330
747D
100
AcDbEntity
  8
破線
 48
5.0
100
AcDbLine
 10
12449.55605979639
 20
2189.519698991551
 30
0.0
 11
12449.55605979638
 21
1989.51969899155
 31
0.0
  0
LINE
  5
18887
330
747D
100
AcDbEntity
  8
破線
 48
5.0
100
AcDbLine
 10
12449.55605979638
 20
1989.51969899155
 30
0.0
 11
12249.55605979639
 21
1989.519698991551
 31
0.0
  0
LINE
  5
18888
330
747D
100
AcDbEntity
  8
破線
 48
5.0
100
AcDbLine
 10
12249.55605979639
 20
2189.519698991551
 30
0.0
 11
12249.55605979639
 21
1989.519698991551
 31
0.0
  0
DIMENSION
  5
18889
330
747D
100
AcDbEntity
  8
寸法
100
AcDbDimension
  2
*D29
 10
13081.98321776851
 20
4609.519698991553
 30
0.0
 11
12981.97140674488
 21
3449.519698991554
 31
0.0
 70
    32
 71
     5
 42
2320.000000000002
  3
INABA_S40G
100
AcDbAlignedDimension
 13
12377.05605979638
 23
2289.519698991552
 33
0.0
 14
12457.05605979638
 24
4609.519698991553
 34
0.0
 50
90.0
100
AcDbRotatedDimension
1001
ACAD
1000
DSTYLE
1002
{
1070
   174
1070
     0
1070
   272
1070
     1
1070
   288
1070
     0
1070
   341
1005
0
1002
}
  0
DIMENSION
  5
1888A
330
747D
100
AcDbEntity
  8
寸法
100
AcDbDimension
  2
*D30
 10
9023.305930613124
 20
4664.519698991557
 30
0.0
 11
8923.294119589501
 21
3477.019698991556
 31
0.0
 70
    32
 71
     5
 42
2375.000000000005
  3
INABA_S40G
100
AcDbAlignedDimension
 13
10167.05605979638
 23
2289.519698991552
 33
0.0
 14
10107.05605979638
 24
4664.519698991557
 34
0.0
 50
90.0
100
AcDbRotatedDimension
1001
ACAD
1000
DSTYLE
1002
{
1070
   174
1070
     0
1070
   272
1070
     1
1070
   288
1070
     0
1070
   341
1005
0
1002
}
  0
DIMENSION
  5
1888B
330
747D
100
AcDbEntity
  8
寸法
100
AcDbDimension
  2
*D31
 10
9323.305930613123
 20
2339.519698991551
 30
0.0
 11
9223.294119589501
 21
3384.519698991553
 31
0.0
 70
    32
 71
     5
 42
2089.999999999999
  3
INABA_S40G
100
AcDbAlignedDimension
 13
10167.05605979638
 23
4429.51969899155
 33
0.0
 14
10167.05605979638
 24
2339.519698991551
 34
0.0
 50
90.0
100
AcDbRotatedDimension
1001
ACAD
1000
DSTYLE
1002
{
1070
   174
1070
     0
1070
   272
1070
     1
1070
   288
1070
     0
1070
   341
1005
0
1002
}
  0
LINE
  5
18EA3
330
747D
100
AcDbEntity
  8
補助
  6
PHANTOM
 62
   230
 48
50.0
100
AcDbLine
 10
140.0
 20
0.0
 30
0.0
 11
139.9999999999995
 21
11409.6
 31
0.0
  0
LINE
  5
18F8C
330
747D
100
AcDbEntity
  8
寸法
 48
50.0
100
AcDbLine
 10
4914.396784206889
 20
7269.10548423694
 30
0.0
 11
4862.990776296786
 21
7269.10548423694
 31
0.0
  0
LINE
  5
18F8D
330
747D
100
AcDbEntity
  8
寸法
 48
50.0
100
AcDbLine
 10
4862.990776296786
 20
7269.10548423694
 30
0.0
 11
4862.990776296786
 21
7300.415642889105
 31
0.0
  0
LINE
  5
18F8E
330
747D
100
AcDbEntity
  8
寸法
 48
50.0
100
AcDbLine
 10
4862.990776296786
 20
7300.415642889105
 30
0.0
 11
4833.229444305363
 21
7300.415642889105
 31
0.0
  0
LINE
  5
18F8F
330
747D
100
AcDbEntity
  8
寸法
 48
50.0
100
AcDbLine
 10
4833.229444305363
 20
7300.415642889105
 30
0.0
 11
4888.693780251838
 21
7337.995093817716
 31
0.0
  0
LINE
  5
18F90
330
747D
100
AcDbEntity
  8
寸法
 48
50.0
100
AcDbLine
 10
4944.158116198313
 20
7300.415642889105
 30
0.0
 11
4888.693780251838
 21
7337.995093817716
 31
0.0
  0
LINE
  5
18F91
330
747D
100
AcDbEntity
  8
寸法
 48
50.0
100
AcDbLine
 10
4914.396784206889
 20
7300.415642889105
 30
0.0
 11
4944.158116198313
 21
7300.415642889105
 31
0.0
  0
LINE
  5
18F92
330
747D
100
AcDbEntity
  8
寸法
 48
50.0
100
AcDbLine
 10
4914.396784206889
 20
7269.10548423694
 30
0.0
 11
4914.396784206889
 21
7300.415642889105
 31
0.0
  0
LINE
  5
18F93
330
747D
100
AcDbEntity
  8
寸法
 48
50.0
100
AcDbLine
 10
4862.990776296786
 20
7269.10548423694
 30
0.0
 11
4914.396784206889
 21
7269.10548423694
 31
0.0
  0
LINE
  5
18F94
330
747D
100
AcDbEntity
  8
寸法
 48
50.0
100
AcDbLine
 10
5193.562318483746
 20
7326.251074991763
 30
0.0
 11
5193.562318483746
 21
7272.587440409973
 31
0.0
  0
LINE
  5
18F95
330
747D
100
AcDbEntity
  8
寸法
 48
50.0
100
AcDbLine
 10
5282.846537079168
 20
7302.327440722276
 30
0.0
 11
5193.562318483746
 21
7326.251074991763
 31
0.0
  0
LINE
  5
18F96
330
747D
100
AcDbEntity
  8
寸法
 48
50.0
100
AcDbLine
 10
5063.694596903443
 20
7302.327440722276
 30
0.0
 11
5282.846537079168
 21
7302.327440722276
 31
0.0
  0
LINE
  5
18F97
330
747D
100
AcDbEntity
  8
細線
 48
50.0
100
AcDbLine
 10
5940.193777925049
 20
7467.568847616802
 30
0.0
 11
6567.193777925044
 21
7467.568847616802
 31
0.0
  0
LINE
  5
18F98
330
747D
100
AcDbEntity
  8
細線
 48
50.0
100
AcDbLine
 10
5286.193782578635
 20
7433.860079062727
 30
0.0
 11
6567.193777925044
 21
7433.860079062727
 31
0.0
  0
LINE
  5
18F99
330
747D
100
AcDbEntity
  8
細線
 48
50.0
100
AcDbLine
 10
5245.193782578638
 20
7463.26498705898
 30
0.0
 11
4491.193777925045
 21
7463.264987058976
 31
0.0
  0
LINE
  5
18F9A
330
747D
100
AcDbEntity
  8
細線
100
AcDbLine
 10
6342.943768508589
 20
7487.06874758181
 30
0.0
 11
6345.275308030398
 21
7492.068750221772
 31
0.0
  0
LINE
  5
18F9B
330
747D
100
AcDbEntity
  8
細線
100
AcDbLine
 10
6412.943777925045
 20
7487.068732668077
 30
0.0
 11
6410.612231448858
 21
7492.068750221758
 31
0.0
  0
LINE
  5
18F9C
330
747D
100
AcDbEntity
  8
細線
100
AcDbLine
 10
6410.612231448858
 20
7492.068750221758
 30
0.0
 11
6345.275308030383
 21
7492.068750221744
 31
0.0
  0
LINE
  5
18F9D
330
747D
100
AcDbEntity
  8
細線
100
AcDbLine
 10
6270.612231448859
 20
7492.068750221758
 30
0.0
 11
6205.275308030383
 21
7492.068750221744
 31
0.0
  0
LINE
  5
18F9E
330
747D
100
AcDbEntity
  8
細線
100
AcDbLine
 10
6272.943777925046
 20
7487.068732668077
 30
0.0
 11
6270.612231448859
 21
7492.068750221758
 31
0.0
  0
LINE
  5
18F9F
330
747D
100
AcDbEntity
  8
細線
100
AcDbLine
 10
6202.943768508589
 20
7487.06874758181
 30
0.0
 11
6205.275308030397
 21
7492.068750221772
 31
0.0
  0
LINE
  5
18FA0
330
747D
100
AcDbEntity
  8
細線
100
AcDbLine
 10
6062.943777925045
 20
7487.068732668077
 30
0.0
 11
6065.275317446857
 21
7492.068735308038
 31
0.0
  0
LINE
  5
18FA1
330
747D
100
AcDbEntity
  8
細線
100
AcDbLine
 10
6132.943787341506
 20
7487.068717754343
 30
0.0
 11
6130.612240865315
 21
7492.068735308023
 31
0.0
  0
LINE
  5
18FA2
330
747D
100
AcDbEntity
  8
細線
100
AcDbLine
 10
6130.612240865319
 20
7492.068735308023
 30
0.0
 11
6065.275317446843
 21
7492.068735308008
 31
0.0
  0
LINE
  5
18FA3
330
747D
100
AcDbEntity
  8
細線
100
AcDbLine
 10
5835.362262114152
 20
7458.068772005404
 30
0.0
 11
5770.025338695677
 21
7458.06877200539
 31
0.0
  0
LINE
  5
18FA4
330
747D
100
AcDbEntity
  8
細線
100
AcDbLine
 10
5837.69380859034
 20
7453.068754451725
 30
0.0
 11
5835.362262114152
 21
7458.068772005404
 31
0.0
  0
LINE
  5
18FA5
330
747D
100
AcDbEntity
  8
細線
100
AcDbLine
 10
5767.693799173883
 20
7453.068769365458
 30
0.0
 11
5770.025338695691
 21
7458.06877200542
 31
0.0
  0
LINE
  5
18FA6
330
747D
100
AcDbEntity
  8
細線
 48
50.0
100
AcDbLine
 10
5609.077157173059
 20
7471.339595821156
 30
0.0
 11
5614.832674755727
 21
7453.068744530671
 31
0.0
  0
LINE
  5
18FA7
330
747D
100
AcDbEntity
  8
細線
 48
50.0
100
AcDbLine
 10
5598.14870869263
 20
7471.339595821156
 30
0.0
 11
5609.077157173059
 21
7471.339595821156
 31
0.0
  0
ARC
  5
18FA8
330
747D
100
AcDbEntity
  8
細線
 48
50.0
100
AcDbCircle
 10
5592.694352635307
 20
7472.839595821156
 30
0.0
 40
5.0
100
AcDbArc
 50
204.6243183521264
 51
335.3756816478736
  0
ARC
  5
18FA9
330
747D
100
AcDbEntity
  8
細線
 48
50.0
100
AcDbCircle
 10
5598.14870869263
 20
7470.339595821157
 30
0.0
 40
1.0
100
AcDbArc
 50
90.0
 51
155.3756816478736
  0
ARC
  5
18FAA
330
747D
100
AcDbEntity
  8
細線
 48
50.0
100
AcDbCircle
 10
5587.239996577992
 20
7470.339595821157
 30
0.0
 40
1.0
100
AcDbArc
 50
24.62431835212641
 51
90.0
  0
LINE
  5
18FAB
330
747D
100
AcDbEntity
  8
細線
 48
50.0
100
AcDbLine
 10
5576.311548097558
 20
7471.339595821156
 30
0.0
 11
5587.239996577992
 21
7471.339595821156
 31
0.0
  0
LINE
  5
18FAC
330
747D
100
AcDbEntity
  8
細線
 48
50.0
100
AcDbLine
 10
5570.556030514891
 20
7453.068744530662
 30
0.0
 11
5576.311548097558
 21
7471.339595821156
 31
0.0
  0
LINE
  5
18FAD
330
747D
100
AcDbEntity
  8
細線
100
AcDbLine
 10
5627.693800404923
 20
7453.068741896467
 30
0.0
 11
5630.025339926736
 21
7458.068744536429
 31
0.0
  0
LINE
  5
18FAE
330
747D
100
AcDbEntity
  8
細線
100
AcDbLine
 10
5697.693809821384
 20
7453.068726982734
 30
0.0
 11
5695.362263345193
 21
7458.068744536413
 31
0.0
  0
LINE
  5
18FAF
330
747D
100
AcDbEntity
  8
細線
100
AcDbLine
 10
5695.362263345193
 20
7458.068744536413
 30
0.0
 11
5630.025339926721
 21
7458.068744536399
 31
0.0
  0
LINE
  5
18FB0
330
747D
100
AcDbEntity
  8
細線
100
AcDbLine
 10
5555.362234980677
 20
7458.068744530634
 30
0.0
 11
5490.025311562201
 21
7458.06874453062
 31
0.0
  0
LINE
  5
18FB1
330
747D
100
AcDbEntity
  8
細線
100
AcDbLine
 10
5557.693781456864
 20
7453.068726976953
 30
0.0
 11
5555.362234980677
 21
7458.068744530634
 31
0.0
  0
LINE
  5
18FB2
330
747D
100
AcDbEntity
  8
細線
100
AcDbLine
 10
5487.693773271448
 20
7453.068744530662
 30
0.0
 11
5490.025311562216
 21
7458.068744530648
 31
0.0
  0
LINE
  5
18FB3
330
747D
100
AcDbEntity
  8
細線
100
AcDbLine
 10
5347.693808590339
 20
7453.068752718033
 30
0.0
 11
5350.025346881107
 21
7458.068752718019
 31
0.0
  0
LINE
  5
18FB4
330
747D
100
AcDbEntity
  8
細線
100
AcDbLine
 10
5417.693816775756
 20
7453.068735164322
 30
0.0
 11
5415.362270299568
 21
7458.068752718
 31
0.0
  0
LINE
  5
18FB5
330
747D
100
AcDbEntity
  8
細線
100
AcDbLine
 10
5415.362270299568
 20
7458.068752718
 30
0.0
 11
5350.025346881093
 21
7458.068752717989
 31
0.0
  0
LINE
  5
18FB6
330
747D
100
AcDbEntity
  8
細線
100
AcDbLine
 10
4976.193774393219
 20
7419.068924398745
 30
0.0
 11
4978.525312683986
 21
7424.068924398731
 31
0.0
  0
LINE
  5
18FB7
330
747D
100
AcDbEntity
  8
細線
100
AcDbLine
 10
5046.193782578634
 20
7419.068906845033
 30
0.0
 11
5043.862236102447
 21
7424.068924398709
 31
0.0
  0
LINE
  5
18FB8
330
747D
100
AcDbEntity
  8
細線
100
AcDbLine
 10
5043.862236102447
 20
7424.068924398709
 30
0.0
 11
4978.525312683975
 21
7424.068924398702
 31
0.0
  0
LINE
  5
18FB9
330
747D
100
AcDbEntity
  8
細線
100
AcDbLine
 10
5183.862236102448
 20
7424.068924398709
 30
0.0
 11
5118.525312683975
 21
7424.068924398702
 31
0.0
  0
LINE
  5
18FBA
330
747D
100
AcDbEntity
  8
細線
100
AcDbLine
 10
5186.193782578635
 20
7419.068906845033
 30
0.0
 11
5183.862236102448
 21
7424.068924398709
 31
0.0
  0
LINE
  5
18FBB
330
747D
100
AcDbEntity
  8
細線
100
AcDbLine
 10
5116.193774393218
 20
7419.068924398745
 30
0.0
 11
5118.525312683986
 21
7424.068924398731
 31
0.0
  0
LINE
  5
18FBC
330
747D
100
AcDbEntity
  8
細線
100
AcDbLine
 10
4903.862236102447
 20
7424.068924398709
 30
0.0
 11
4838.525312683976
 21
7424.068924398698
 31
0.0
  0
LINE
  5
18FBD
330
747D
100
AcDbEntity
  8
細線
100
AcDbLine
 10
4906.193782578634
 20
7419.068906845033
 30
0.0
 11
4903.862236102447
 21
7424.068924398709
 31
0.0
  0
LINE
  5
18FBE
330
747D
100
AcDbEntity
  8
細線
100
AcDbLine
 10
4836.193774393219
 20
7419.068924398742
 30
0.0
 11
4838.525312683986
 21
7424.068924398728
 31
0.0
  0
LINE
  5
18FBF
330
747D
100
AcDbEntity
  8
細線
100
AcDbLine
 10
4696.193782578634
 20
7419.068924398745
 30
0.0
 11
4698.525320869402
 21
7424.068924398731
 31
0.0
  0
LINE
  5
18FC0
330
747D
100
AcDbEntity
  8
細線
100
AcDbLine
 10
4766.193790764051
 20
7419.068906845033
 30
0.0
 11
4763.862244287863
 21
7424.068924398709
 31
0.0
  0
LINE
  5
18FC1
330
747D
100
AcDbEntity
  8
細線
100
AcDbLine
 10
4763.862244287863
 20
7424.068924398709
 30
0.0
 11
4698.525320869391
 21
7424.068924398702
 31
0.0
  0
ARC
  5
18FC2
330
747D
100
AcDbEntity
  8
部品1
 48
0.01
100
AcDbCircle
 10
4651.693671326299
 20
7418.067802213673
 30
0.0
 40
0.5
100
AcDbArc
 50
270.0
 51
0.0
  0
LINE
  5
18FC3
330
747D
100
AcDbEntity
  8
部品1
 48
0.01
100
AcDbLine
 10
4652.193671326299
 20
7419.067802213672
 30
0.0
 11
4652.193671326299
 21
7418.067802213673
 31
0.0
  0
LINE
  5
18FC4
330
747D
100
AcDbEntity
  8
部品1
 48
0.01
100
AcDbLine
 10
4652.193671326299
 20
7419.067802213672
 30
0.0
 11
4652.193671326299
 21
7418.067802213673
 31
0.0
  0
LINE
  5
18FC5
330
747D
100
AcDbEntity
  8
部品1
 48
0.01
100
AcDbLine
 10
4651.693671326299
 20
7417.567802213672
 30
0.0
 11
4645.081165896235
 21
7417.567802213672
 31
0.0
  0
ARC
  5
18FC6
330
747D
100
AcDbEntity
  8
部品1
100
AcDbCircle
 10
4645.149515449015
 20
7418.567802213672
 30
0.0
 40
1.0
100
AcDbArc
 50
160.5287793655822
 51
270.0
  0
ARC
  5
18FC7
330
747D
100
AcDbEntity
  8
部品1
100
AcDbCircle
 10
4619.693671326299
 20
7427.567802213673
 30
0.0
 40
26.0
100
AcDbArc
 50
340.5287793655822
 51
0.0
  0
LINE
  5
18FC8
330
747D
100
AcDbEntity
  8
部品1
100
AcDbLine
 10
4645.693671326299
 20
7427.567802213673
 30
0.0
 11
4645.693671326299
 21
7432.567802213672
 31
0.0
  0
ARC
  5
18FC9
330
747D
100
AcDbEntity
  8
部品1
 48
0.01
100
AcDbCircle
 10
4643.693671326299
 20
7432.567802213672
 30
0.0
 40
2.0
100
AcDbArc
 50
0.0
 51
90.0
  0
ARC
  5
18FCA
330
747D
100
AcDbEntity
  8
部品1
100
AcDbCircle
 10
4642.085279701489
 20
7431.567802213672
 30
0.0
 40
3.0
100
AcDbArc
 50
90.0
 51
141.6069559807873
  0
LINE
  5
18FCB
330
747D
100
AcDbEntity
  8
部品1
 48
0.01
100
AcDbLine
 10
4643.693671326299
 20
7434.567802213672
 30
0.0
 11
4642.085279701489
 21
7434.567802213672
 31
0.0
  0
ARC
  5
18FCC
330
747D
100
AcDbEntity
  8
部品1
100
AcDbCircle
 10
4623.622957112028
 20
7430.867802213676
 30
0.0
 40
3.0
100
AcDbArc
 50
254.0576313943183
 51
270.0
  0
ARC
  5
18FCD
330
747D
100
AcDbEntity
  8
部品1
100
AcDbCircle
 10
4630.764385540571
 20
7430.867802213676
 30
0.0
 40
3.0
100
AcDbArc
 50
270.0
 51
285.9423686056817
  0
LINE
  5
18FCE
330
747D
100
AcDbEntity
  8
部品1
100
AcDbLine
 10
4630.764385540571
 20
7427.867802213675
 30
0.0
 11
4623.622957112028
 21
7427.867802213675
 31
0.0
  0
ARC
  5
18FCF
330
747D
100
AcDbEntity
  8
部品1
100
AcDbCircle
 10
4627.193671326299
 20
7443.367802213676
 30
0.0
 40
16.0
100
AcDbArc
 50
285.9423686056817
 51
321.6069559807873
  0
LINE
  5
18FD0
330
747D
100
AcDbEntity
  8
部品1
 48
0.01
100
AcDbLine
 10
4610.693671326299
 20
7434.567802213672
 30
0.0
 11
4612.302062951109
 21
7434.567802213672
 31
0.0
  0
ARC
  5
18FD1
330
747D
100
AcDbEntity
  8
部品1
100
AcDbCircle
 10
4612.302062951109
 20
7431.567802213672
 30
0.0
 40
3.0
100
AcDbArc
 50
38.39304401921267
 51
90.0
  0
ARC
  5
18FD2
330
747D
100
AcDbEntity
  8
部品1
100
AcDbCircle
 10
4627.193671326299
 20
7443.367802213676
 30
0.0
 40
16.0
100
AcDbArc
 50
218.3930440192126
 51
254.0576313943183
  0
LINE
  5
18FD3
330
747D
100
AcDbEntity
  8
部品1
100
AcDbLine
 10
4608.693671326299
 20
7427.567802213673
 30
0.0
 11
4608.693671326299
 21
7432.567802213672
 31
0.0
  0
ARC
  5
18FD4
330
747D
100
AcDbEntity
  8
部品1
 48
0.01
100
AcDbCircle
 10
4610.693671326299
 20
7432.567802213672
 30
0.0
 40
2.0
100
AcDbArc
 50
90.0
 51
180.0
  0
ARC
  5
18FD5
330
747D
100
AcDbEntity
  8
部品1
100
AcDbCircle
 10
4634.693671326299
 20
7427.567802213673
 30
0.0
 40
26.0
100
AcDbArc
 50
180.0
 51
199.4712206344178
  0
ARC
  5
18FD6
330
747D
100
AcDbEntity
  8
部品1
 48
0.01
100
AcDbCircle
 10
4602.693671326299
 20
7418.067802213673
 30
0.0
 40
0.5
100
AcDbArc
 50
180.0
 51
270.0
  0
LINE
  5
18FD7
330
747D
100
AcDbEntity
  8
部品1
 48
0.01
100
AcDbLine
 10
4602.693671326299
 20
7417.567802213672
 30
0.0
 11
4609.237827203583
 21
7417.567802213672
 31
0.0
  0
LINE
  5
18FD8
330
747D
100
AcDbEntity
  8
部品1
 48
0.01
100
AcDbLine
 10
4602.1936713263
 20
7419.067802213672
 30
0.0
 11
4602.1936713263
 21
7418.067802213673
 31
0.0
  0
ARC
  5
18FD9
330
747D
100
AcDbEntity
  8
部品1
100
AcDbCircle
 10
4609.237827203583
 20
7418.567802213672
 30
0.0
 40
1.0
100
AcDbArc
 50
270.0
 51
19.4712206344178
  0
LINE
  5
18FDA
330
747D
100
AcDbEntity
  8
細線
100
AcDbLine
 10
4647.693671326306
 20
7437.067802213675
 30
0.0
 11
4606.693671326307
 21
7437.067802213668
 31
0.0
  0
LINE
  5
18FDB
330
747D
100
AcDbEntity
  8
細線
100
AcDbLine
 10
4606.693671326307
 20
7437.067802213668
 30
0.0
 11
4606.693671326307
 21
7419.067802213651
 31
0.0
  0
LINE
  5
18FDC
330
747D
100
AcDbEntity
  8
細線
100
AcDbLine
 10
4647.693671326306
 20
7437.067802213675
 30
0.0
 11
4647.693671326306
 21
7419.067802213651
 31
0.0
  0
LINE
  5
18FDD
330
747D
100
AcDbEntity
  8
細線
100
AcDbLine
 10
4491.193777925045
 20
7423.068732668077
 30
0.0
 11
4491.193777925045
 21
7419.068732668124
 31
0.0
  0
DIMENSION
  5
18FDE
330
747D
100
AcDbEntity
  8
寸法
 48
50.0
100
AcDbDimension
  2
*D32
 10
5757.193777925045
 20
6762.924121630298
 30
0.0
 11
5153.835004044769
 21
6762.924121630298
 31
0.0
 70
   160
  1
有効開口部間口\P<>
 71
     5
 42
1266.0
  3
INABA_S40
100
AcDbAlignedDimension
 13
4491.193777925045
 23
7414.068732668076
 33
0.0
 14
5757.193777925045
 24
7414.068732668076
 34
0.0
100
AcDbRotatedDimension
1001
ACAD
1000
DSTYLE
1002
{
1070
    41
1040
0.5
1070
    44
1040
1.0
1070
   147
1040
0.8
1070
   271
1070
     2
1070
   272
1070
     2
1070
   289
1070
     3
1070
   340
1005
F706
1070
   343
1005
164B4
1070
   344
1005
164B4
1002
}
  0
LINE
  5
18FDF
330
747D
100
AcDbEntity
  8
部品1
100
AcDbLine
 10
6579.193777925045
 20
7491.068732668075
 30
0.0
 11
6606.193777925044
 21
7491.068732668075
 31
0.0
  0
LINE
  5
18FE1
330
747D
100
AcDbEntity
  8
部品1
100
AcDbLine
 10
6606.193777925044
 20
7414.068732668076
 30
0.0
 11
6606.193777925044
 21
7491.068732668075
 31
0.0
  0
LINE
  5
18FE2
330
747D
100
AcDbEntity
  8
部品1
100
AcDbLine
 10
6567.193777925044
 20
7487.068732668077
 30
0.0
 11
6579.193777925045
 21
7487.068732668077
 31
0.0
  0
LINE
  5
18FE3
330
747D
100
AcDbEntity
  8
部品1
100
AcDbLine
 10
6576.193777925045
 20
7423.068732668077
 30
0.0
 11
6576.193777925045
 21
7414.068732668076
 31
0.0
  0
LINE
  5
18FE4
330
747D
100
AcDbEntity
  8
部品1
100
AcDbLine
 10
6567.193777925044
 20
7423.068732668077
 30
0.0
 11
6576.193777925045
 21
7423.068732668077
 31
0.0
  0
LINE
  5
18FE5
330
747D
100
AcDbEntity
  8
部品1
100
AcDbLine
 10
6567.193777925044
 20
7487.068732668077
 30
0.0
 11
6567.193777925044
 21
7423.068732668077
 31
0.0
  0
LINE
  5
18FE6
330
747D
100
AcDbEntity
  8
部品1
100
AcDbLine
 10
6579.193777925045
 20
7518.068732668076
 30
0.0
 11
6579.193777925045
 21
7487.068732668077
 31
0.0
  0
LINE
  5
18FE7
330
747D
100
AcDbEntity
  8
部品1
100
AcDbLine
 10
4491.193777925045
 20
7487.068732668077
 30
0.0
 11
4479.193777925044
 21
7487.068732668077
 31
0.0
  0
LINE
  5
18FE8
330
747D
100
AcDbEntity
  8
部品1
100
AcDbLine
 10
4452.193777925045
 20
7491.068732668075
 30
0.0
 11
4479.193777925043
 21
7491.068732668075
 31
0.0
  0
LINE
  5
18FE9
330
747D
100
AcDbEntity
  8
部品1
100
AcDbLine
 10
4482.193777925044
 20
7423.068732668077
 30
0.0
 11
4482.193777925044
 21
7414.068732668076
 31
0.0
  0
LINE
  5
18FEA
330
747D
100
AcDbEntity
  8
部品1
100
AcDbLine
 10
4491.193777925045
 20
7423.068732668077
 30
0.0
 11
4482.193777925044
 21
7423.068732668077
 31
0.0
  0
LINE
  5
18FEB
330
747D
100
AcDbEntity
  8
部品1
100
AcDbLine
 10
4482.193777925044
 20
7414.068732668076
 30
0.0
 11
4452.193777925045
 21
7414.068732668076
 31
0.0
  0
LINE
  5
18FEC
330
747D
100
AcDbEntity
  8
部品1
100
AcDbLine
 10
4452.193777925045
 20
7414.068732668076
 30
0.0
 11
4452.193777925045
 21
7491.068732668075
 31
0.0
  0
LINE
  5
18FED
330
747D
100
AcDbEntity
  8
部品1
100
AcDbLine
 10
4491.193777925045
 20
7487.068732668077
 30
0.0
 11
4491.193777925045
 21
7423.068732668077
 31
0.0
  0
LINE
  5
18FEE
330
747D
100
AcDbEntity
  8
部品1
100
AcDbLine
 10
4479.193777925043
 20
7518.068732668073
 30
0.0
 11
4479.193777925044
 21
7487.068732668077
 31
0.0
  0
LINE
  5
18FEF
330
747D
100
AcDbEntity
  8
部品1
100
AcDbLine
 10
4479.193777925043
 20
7518.068732668073
 30
0.0
 11
6579.193777925045
 21
7518.068732668076
 31
0.0
  0
LINE
  5
18FF0
330
747D
100
AcDbEntity
  8
部品1
100
AcDbLine
 10
6576.193777925045
 20
7414.068732668076
 30
0.0
 11
6606.193777925044
 21
7414.068732668076
 31
0.0
  0
LINE
  5
18FF1
330
747D
100
AcDbEntity
  8
部品1
100
AcDbLine
 10
4482.193777925044
 20
7414.068732668076
 30
0.0
 11
6579.193777925045
 21
7414.068732668076
 31
0.0
  0
LINE
  5
18FF2
330
747D
100
AcDbEntity
  8
細線
  6
Continuous
 62
     5
100
AcDbLine
 10
5858.193777925048
 20
7453.068732668073
 30
0.0
 11
5858.193777925048
 21
7453.068732668073
 31
0.0
  0
LINE
  5
18FF3
330
747D
100
AcDbEntity
  8
細線
  6
Continuous
 62
     5
100
AcDbLine
 10
5850.69381324394
 20
7453.06874258913
 30
0.0
 11
5850.69381324394
 21
7453.06874258913
 31
0.0
  0
LINE
  5
18FF4
330
747D
100
AcDbEntity
  8
細線
  6
Continuous
 62
     5
100
AcDbLine
 10
5844.69381324394
 20
7453.06874258913
 30
0.0
 11
5844.69381324394
 21
7453.06874258913
 31
0.0
  0
LINE
  5
18FF5
330
747D
100
AcDbEntity
  8
細線
  6
Continuous
 62
     5
100
AcDbLine
 10
5912.193777925049
 20
7472.068732668073
 30
0.0
 11
5912.193777925049
 21
7472.068732668073
 31
0.0
  0
LINE
  5
18FF6
330
747D
100
AcDbEntity
  8
細線
 48
50.0
100
AcDbLine
 10
4505.193782578638
 20
7439.66890684503
 30
0.0
 11
4505.193782578638
 21
7448.065057252669
 31
0.0
  0
LINE
  5
18FF7
330
747D
100
AcDbEntity
  8
細線
 48
50.0
100
AcDbLine
 10
4505.193782578638
 20
7448.065057252669
 30
0.0
 11
4491.193777925045
 21
7448.065057252667
 31
0.0
  0
LINE
  5
18FF8
330
747D
100
AcDbEntity
  8
細線
 48
50.0
100
AcDbLine
 10
5256.193782578634
 20
7436.218906845031
 30
0.0
 11
5256.193782578634
 21
7441.068906845032
 31
0.0
  0
LINE
  5
18FF9
330
747D
100
AcDbEntity
  8
細線
 48
50.0
100
AcDbLine
 10
5256.193782578634
 20
7441.068906845032
 30
0.0
 11
5271.193782578635
 21
7441.068906845032
 31
0.0
  0
LINE
  5
18FFA
330
747D
100
AcDbEntity
  8
細線
 48
50.0
100
AcDbLine
 10
5271.193782578635
 20
7441.068906845032
 30
0.0
 11
5271.193782578638
 21
7448.068906845032
 31
0.0
  0
LINE
  5
18FFB
330
747D
100
AcDbEntity
  8
細線
 48
50.0
100
AcDbLine
 10
5271.193782578638
 20
7448.068906845032
 30
0.0
 11
5286.193782578635
 21
7448.068906845032
 31
0.0
  0
LINE
  5
18FFC
330
747D
100
AcDbEntity
  8
細線
 48
50.0
100
AcDbLine
 10
5286.193782578635
 20
7448.068906845032
 30
0.0
 11
5286.193782578635
 21
7419.068906845033
 31
0.0
  0
LINE
  5
18FFD
330
747D
100
AcDbEntity
  8
細線
 48
50.0
100
AcDbLine
 10
4482.193777925044
 20
7419.0662411885
 30
0.0
 11
4696.193782578634
 21
7419.068924398745
 31
0.0
  0
LINE
  5
18FFE
330
747D
100
AcDbEntity
  8
細線
 48
50.0
100
AcDbLine
 10
5186.193782578635
 20
7419.068906845033
 30
0.0
 11
5286.193782578635
 21
7419.068906845033
 31
0.0
  0
LINE
  5
18FFF
330
747D
100
AcDbEntity
  8
細線
 48
50.0
100
AcDbLine
 10
4906.193782578634
 20
7419.068906845033
 30
0.0
 11
4976.193782578635
 21
7419.068906845033
 31
0.0
  0
LINE
  5
19000
330
747D
100
AcDbEntity
  8
細線
 48
50.0
100
AcDbLine
 10
4919.055747591164
 20
7419.068906845033
 30
0.0
 11
4924.811265173831
 21
7437.339758135526
 31
0.0
  0
LINE
  5
19001
330
747D
100
AcDbEntity
  8
細線
 48
50.0
100
AcDbLine
 10
4924.811265173831
 20
7437.339758135526
 30
0.0
 11
4935.739713654265
 21
7437.339758135522
 31
0.0
  0
ARC
  5
19002
330
747D
100
AcDbEntity
  8
細線
 48
50.0
100
AcDbCircle
 10
4935.739713654265
 20
7436.339758135521
 30
0.0
 40
1.0
100
AcDbArc
 50
24.62431835212641
 51
90.0
  0
ARC
  5
19003
330
747D
100
AcDbEntity
  8
細線
 48
50.0
100
AcDbCircle
 10
4946.648425768898
 20
7436.339758135521
 30
0.0
 40
1.0
100
AcDbArc
 50
90.0
 51
155.3756816478736
  0
ARC
  5
19004
330
747D
100
AcDbEntity
  8
細線
 48
50.0
100
AcDbCircle
 10
4941.194069711579
 20
7438.839758135522
 30
0.0
 40
5.0
100
AcDbArc
 50
204.6243183521264
 51
335.3756816478736
  0
LINE
  5
19005
330
747D
100
AcDbEntity
  8
細線
 48
50.0
100
AcDbLine
 10
4946.648425768898
 20
7437.339758135522
 30
0.0
 11
4957.576874249332
 21
7437.339758135526
 31
0.0
  0
LINE
  5
19006
330
747D
100
AcDbEntity
  8
細線
 48
50.0
100
AcDbLine
 10
4957.576874249332
 20
7437.339758135526
 30
0.0
 11
4963.332391832
 21
7419.068906845033
 31
0.0
  0
LINE
  5
19007
330
747D
100
AcDbEntity
  8
細線
 48
50.0
100
AcDbLine
 10
5256.193782578634
 20
7439.66890684503
 30
0.0
 11
4505.193782578638
 21
7439.66890684503
 31
0.0
  0
LINE
  5
19008
330
747D
100
AcDbEntity
  8
細線
 48
50.0
100
AcDbLine
 10
5116.193782578634
 20
7419.068906845033
 30
0.0
 11
5046.193782578634
 21
7419.068906845033
 31
0.0
  0
LINE
  5
19009
330
747D
100
AcDbEntity
  8
細線
100
AcDbLine
 10
4836.193782578635
 20
7419.068906845033
 30
0.0
 11
4766.193790764051
 21
7419.068906845033
 31
0.0
  0
LINE
  5
1900A
330
747D
100
AcDbEntity
  8
細線
 48
50.0
100
AcDbLine
 10
5910.193773271458
 20
7473.668950702898
 30
0.0
 11
5275.193782578634
 21
7473.668950702895
 31
0.0
  0
LINE
  5
1900B
330
747D
100
AcDbEntity
  8
細線
 48
50.0
100
AcDbLine
 10
5275.193782578634
 20
7470.565101110539
 30
0.0
 11
5275.193782578634
 21
7475.065101110539
 31
0.0
  0
LINE
  5
1900C
330
747D
100
AcDbEntity
  8
細線
 48
50.0
100
AcDbLine
 10
5275.193782578634
 20
7475.065101110539
 30
0.0
 11
5260.193782578634
 21
7475.065101110539
 31
0.0
  0
LINE
  5
1900D
330
747D
100
AcDbEntity
  8
細線
 48
50.0
100
AcDbLine
 10
5260.193782578634
 20
7475.065101110539
 30
0.0
 11
5260.193782578634
 21
7482.065101110539
 31
0.0
  0
LINE
  5
1900E
330
747D
100
AcDbEntity
  8
細線
 48
50.0
100
AcDbLine
 10
5260.193782578634
 20
7482.065101110539
 30
0.0
 11
5245.193782578638
 21
7482.065101110535
 31
0.0
  0
LINE
  5
1900F
330
747D
100
AcDbEntity
  8
細線
 48
50.0
100
AcDbLine
 10
5245.193782578638
 20
7482.065101110535
 30
0.0
 11
5245.193782578638
 21
7444.464873007425
 31
0.0
  0
LINE
  5
19010
330
747D
100
AcDbEntity
  8
細線
 48
50.0
100
AcDbLine
 10
5245.193782578638
 20
7444.464873007425
 30
0.0
 11
5265.193789879811
 21
7444.464914556966
 31
0.0
  0
LINE
  5
19011
330
747D
100
AcDbEntity
  8
細線
 48
50.0
100
AcDbLine
 10
5265.193745010869
 20
7453.068376192774
 30
0.0
 11
5265.193789879811
 21
7444.464914556966
 31
0.0
  0
LINE
  5
19012
330
747D
100
AcDbEntity
  8
細線
 48
50.0
100
AcDbLine
 10
5910.193773271458
 20
7470.218950702897
 30
0.0
 11
5910.193773271458
 21
7475.068950702897
 31
0.0
  0
LINE
  5
19013
330
747D
100
AcDbEntity
  8
細線
 48
50.0
100
AcDbLine
 10
5910.193773271458
 20
7475.068950702897
 30
0.0
 11
5925.193773271455
 21
7475.068950702897
 31
0.0
  0
LINE
  5
19014
330
747D
100
AcDbEntity
  8
細線
 48
50.0
100
AcDbLine
 10
5925.193773271455
 20
7475.068950702897
 30
0.0
 11
5925.193784905431
 21
7482.06895070294
 31
0.0
  0
LINE
  5
19015
330
747D
100
AcDbEntity
  8
細線
 48
50.0
100
AcDbLine
 10
5925.193784905431
 20
7482.06895070294
 30
0.0
 11
5940.193783075961
 21
7482.06895070294
 31
0.0
  0
LINE
  5
19016
330
747D
100
AcDbEntity
  8
細線
 48
50.0
100
AcDbLine
 10
5940.193783075961
 20
7482.06895070294
 30
0.0
 11
5940.19377277414
 21
7453.068744530667
 31
0.0
  0
LINE
  5
19017
330
747D
100
AcDbEntity
  8
細線
 48
50.0
100
AcDbLine
 10
5627.693800404923
 20
7453.068752718033
 30
0.0
 11
5557.69405248734
 21
7453.068747280695
 31
0.0
  0
LINE
  5
19018
330
747D
100
AcDbEntity
  8
細線
 48
50.0
100
AcDbLine
 10
5265.193745010869
 20
7453.068376192774
 30
0.0
 11
5276.426434365578
 21
7453.06855914592
 31
0.0
  0
ARC
  5
19019
330
747D
100
AcDbEntity
  8
細線
 48
50.0
100
AcDbCircle
 10
5283.008726672914
 20
7451.868723059533
 30
0.0
 40
1.8
100
AcDbArc
 50
270.0006665777295
 51
345.0005554812979
  0
LINE
  5
1901A
330
747D
100
AcDbEntity
  8
細線
 48
50.0
100
AcDbLine
 10
5284.995160118994
 20
7452.327563516812
 30
0.0
 11
5284.747397676795
 21
7451.402865634705
 31
0.0
  0
LINE
  5
1901B
330
747D
100
AcDbEntity
  8
細線
 48
50.0
100
AcDbLine
 10
5283.008747614069
 20
7450.068723059654
 30
0.0
 11
5279.378820195301
 21
7450.068680829175
 31
0.0
  0
ARC
  5
1901C
330
747D
100
AcDbEntity
  8
細線
 48
50.0
100
AcDbCircle
 10
5279.378799254148
 20
7451.868680829054
 30
0.0
 40
1.8
100
AcDbArc
 50
195.0010443049453
 51
270.0006665777295
  0
LINE
  5
1901D
330
747D
100
AcDbEntity
  8
細線
 48
50.0
100
AcDbLine
 10
5277.39237176189
 20
7452.327395796618
 30
0.0
 11
5277.640141258403
 21
7451.402774858036
 31
0.0
  0
ARC
  5
1901E
330
747D
100
AcDbEntity
  8
細線
 48
50.0
100
AcDbCircle
 10
5276.426450653141
 20
7452.068559146055
 30
0.0
 40
1.0
100
AcDbArc
 50
15.00104430494533
 51
90.00093320877969
  0
LINE
  5
1901F
330
747D
100
AcDbEntity
  8
細線
 48
50.0
100
AcDbLine
 10
5285.961081474096
 20
7453.068753836325
 30
0.0
 11
5286.902841625001
 21
7453.068760410175
 31
0.0
  0
ARC
  5
19020
330
747D
100
AcDbEntity
  8
細線
 48
50.0
100
AcDbCircle
 10
5285.961088454483
 20
7452.06875383635
 30
0.0
 40
1.0
100
AcDbArc
 50
90.0003999466794
 51
165.0005554812978
  0
LINE
  5
19021
330
747D
100
AcDbEntity
  8
細線
 48
50.0
100
AcDbLine
 10
5837.693773271448
 20
7453.068744530667
 30
0.0
 11
5940.19377277414
 21
7453.068744530667
 31
0.0
  0
LINE
  5
19022
330
747D
100
AcDbEntity
  8
細線
 48
50.0
100
AcDbLine
 10
5347.693808590339
 20
7453.068752718033
 30
0.0
 11
5286.593747363419
 21
7453.068760410175
 31
0.0
  0
LINE
  5
19023
330
747D
100
AcDbEntity
  8
細線
 48
50.0
100
AcDbLine
 10
5767.693808590339
 20
7453.068789559115
 30
0.0
 11
5697.693801635954
 21
7453.068744536448
 31
0.0
  0
LINE
  5
19024
330
747D
100
AcDbEntity
  8
細線
 48
50.0
100
AcDbLine
 10
5487.693773271448
 20
7453.068744530662
 30
0.0
 11
5417.693755983572
 21
7453.068744530671
 31
0.0
  0
ARC
  5
19025
330
747D
100
AcDbEntity
  8
細線
 48
50.0
100
AcDbCircle
 10
5924.393777925057
 20
7486.268732668077
 30
0.0
 40
0.8
100
AcDbArc
 50
359.9997333689499
 51
89.99986668437072
  0
ARC
  5
19026
330
747D
100
AcDbEntity
  8
細線
 48
50.0
100
AcDbCircle
 10
5931.993784750151
 20
7486.268743836693
 30
0.0
 40
0.8
100
AcDbArc
 50
90.00014387753465
 51
179.9997333689498
  0
LINE
  5
19027
330
747D
100
AcDbEntity
  8
細線
 48
50.0
100
AcDbLine
 10
5924.39377978649
 20
7487.068732668077
 30
0.0
 11
5919.193777925045
 21
7487.068732668077
 31
0.0
  0
ARC
  5
19028
330
747D
100
AcDbEntity
  8
細線
 48
50.0
100
AcDbCircle
 10
5925.893777925046
 20
7484.768732668077
 30
0.0
 40
0.7
100
AcDbArc
 50
180.0
 51
270.0
  0
ARC
  5
19029
330
747D
100
AcDbEntity
  8
細線
 48
50.0
100
AcDbCircle
 10
5930.493777925048
 20
7484.768732668077
 30
0.0
 40
0.7
100
AcDbArc
 50
270.0
 51
0.0
  0
LINE
  5
1902A
330
747D
100
AcDbEntity
  8
細線
 48
50.0
100
AcDbLine
 10
5931.193777925045
 20
7484.768732668077
 30
0.0
 11
5931.193784750163
 21
7486.268747559565
 31
0.0
  0
LINE
  5
1902B
330
747D
100
AcDbEntity
  8
細線
 48
50.0
100
AcDbLine
 10
5925.893777925046
 20
7484.068732668077
 30
0.0
 11
5930.493777925048
 21
7484.068732668077
 31
0.0
  0
LINE
  5
1902C
330
747D
100
AcDbEntity
  8
細線
 48
50.0
100
AcDbLine
 10
5925.193777925045
 20
7486.268732668077
 30
0.0
 11
5925.193777925045
 21
7484.768732668077
 31
0.0
  0
LINE
  5
1902D
330
747D
100
AcDbEntity
  8
細線
 48
50.0
100
AcDbLine
 10
6550.793777925051
 20
7517.068732668076
 30
0.0
 11
5914.193777925045
 21
7517.068732668073
 31
0.0
  0
LINE
  5
1902E
330
747D
100
AcDbEntity
  8
細線
 48
50.0
100
AcDbLine
 10
6576.693777925045
 20
7512.06873266808
 30
0.0
 11
6560.79377792505
 21
7512.068732668076
 31
0.0
  0
LINE
  5
1902F
330
747D
100
AcDbEntity
  8
細線
 48
50.0
100
AcDbLine
 10
6560.793777925048
 20
7512.068732668076
 30
0.0
 11
6550.793777925051
 21
7517.068732668076
 31
0.0
  0
LINE
  5
19030
330
747D
100
AcDbEntity
  8
細線
100
AcDbLine
 10
6161.693777925045
 20
7487.068732668077
 30
0.0
 11
6161.693777925045
 21
7516.368732668076
 31
0.0
  0
LINE
  5
19031
330
747D
100
AcDbEntity
  8
細線
100
AcDbLine
 10
6161.693777925045
 20
7516.368732668076
 30
0.0
 11
6181.693777925046
 21
7516.368732668076
 31
0.0
  0
LINE
  5
19032
330
747D
100
AcDbEntity
  8
細線
100
AcDbLine
 10
6181.693777925046
 20
7487.068732668077
 30
0.0
 11
6181.693777925046
 21
7516.368732668076
 31
0.0
  0
LINE
  5
19033
330
747D
100
AcDbEntity
  8
細線
100
AcDbLine
 10
6342.943777925046
 20
7487.068732668077
 30
0.0
 11
6272.943777925046
 21
7487.068732668077
 31
0.0
  0
LINE
  5
19034
330
747D
100
AcDbEntity
  8
細線
 48
50.0
100
AcDbLine
 10
6062.943777925045
 20
7487.068732668077
 30
0.0
 11
5931.989557497889
 21
7487.068732668077
 31
0.0
  0
LINE
  5
19035
330
747D
100
AcDbEntity
  8
細線
100
AcDbLine
 10
6202.943777925046
 20
7487.068732668077
 30
0.0
 11
6132.943777925046
 21
7487.068732668077
 31
0.0
  0
LINE
  5
19036
330
747D
100
AcDbEntity
  8
細線
 48
50.0
100
AcDbLine
 10
5919.193777925045
 20
7479.068732668077
 30
0.0
 11
5919.193777925045
 21
7487.068732668077
 31
0.0
  0
LINE
  5
19037
330
747D
100
AcDbEntity
  8
細線
 48
50.0
100
AcDbLine
 10
5899.193777925045
 20
7479.068732668079
 30
0.0
 11
5919.193777925045
 21
7479.068732668077
 31
0.0
  0
LINE
  5
19038
330
747D
100
AcDbEntity
  8
細線
 48
50.0
100
AcDbLine
 10
5914.193777925045
 20
7517.068732668076
 30
0.0
 11
5914.193777925045
 21
7512.068732668076
 31
0.0
  0
LINE
  5
19039
330
747D
100
AcDbEntity
  8
細線
 48
50.0
100
AcDbLine
 10
5899.193777925045
 20
7517.068732668073
 30
0.0
 11
5914.193777925045
 21
7517.068732668076
 31
0.0
  0
LINE
  5
1903A
330
747D
100
AcDbEntity
  8
細線
 48
50.0
100
AcDbLine
 10
5899.193777925045
 20
7479.068732668079
 30
0.0
 11
5899.193777925045
 21
7517.068732668073
 31
0.0
  0
LINE
  5
1903B
330
747D
100
AcDbEntity
  8
細線
100
AcDbLine
 10
6567.193777925044
 20
7487.068732668077
 30
0.0
 11
6412.943777925045
 21
7487.068732668077
 31
0.0
  0
LINE
  5
1903C
330
747D
100
AcDbEntity
  8
細線
 48
50.0
100
AcDbLine
 10
6576.693777925045
 20
7512.06873266808
 30
0.0
 11
6576.693777925045
 21
7487.068732668077
 31
0.0
  0
DIMENSION
  5
19298
330
747D
100
AcDbEntity
  8
寸法
 48
50.0
100
AcDbDimension
  2
*D33
 10
6606.193777925044
 20
6493.939017240345
 30
0.0
 11
5551.326534672356
 21
6493.939017240345
 31
0.0
 70
   160
 71
     5
 42
2154.0
  3
INABA_S40G
100
AcDbAlignedDimension
 13
4452.193777925043
 23
7414.068732668113
 33
0.0
 14
6606.193777925044
 24
7414.068732668113
 34
0.0
100
AcDbRotatedDimension
1001
ACAD
1000
DSTYLE
1002
{
1070
   341
1005
0
1002
}
  0
DIMENSION
  5
19299
330
747D
100
AcDbEntity
  8
寸法
100
AcDbDimension
  2
*D34
 10
4243.579810250337
 20
7416.06873266808
 30
0.0
 11
4243.579810250336
 21
7269.896958720396
 31
0.0
 70
   160
 71
     5
 42
75.00000000003274
  3
INABA_S40
100
AcDbAlignedDimension
 13
4452.193777925043
 23
7491.068732668113
 33
0.0
 14
4452.193777925042
 24
7416.06873266808
 34
0.0
 50
90.0
100
AcDbRotatedDimension
1001
ACAD
1000
DSTYLE
1002
{
1070
    41
1040
0.5
1070
    44
1040
1.0
1070
   147
1040
0.8
1070
   271
1070
     2
1070
   272
1070
     2
1070
   289
1070
     3
1070
   340
1005
F706
1070
   343
1005
164B4
1070
   344
1005
164B4
1002
}
  0
TEXT
  5
1934D
330
747D
100
AcDbEntity
  8
部品1
100
AcDbText
 10
5027.378054639912
 20
5738.146733580366
 30
0.0
 40
135.0
  1
平面図
  7
STYLE2
100
AcDbText
  0
LWPOLYLINE
  5
1934E
330
747D
100
AcDbEntity
  8
部品1
100
AcDbPolyline
 90
        4
 70
     1
 43
0.0
 10
4937.458444810871
 20
5931.04026279889
 10
4937.458444810871
 20
5691.147941253357
 10
5700.929111039311
 20
5691.147941253357
 10
5700.929111039311
 20
5931.04026279889
  0
DIMENSION
  5
193AF
330
747D
100
AcDbEntity
  8
寸法
100
AcDbDimension
  2
*D35
 10
7054.193777925052
 20
6186.742337721878
 30
0.0
 11
5385.5305299344
 21
6186.742337721878
 31
0.0
 70
   160
 71
     5
 42
3469.999999999982
  3
INABA_S40G
100
AcDbAlignedDimension
 13
3584.193777925069
 23
7491.06873266808
 33
0.0
 14
7054.193777925052
 24
7491.068732668208
 34
0.0
100
AcDbRotatedDimension
1001
ACAD
1000
DSTYLE
1002
{
1070
   341
1005
0
1002
}
  0
LWPOLYLINE
  5
1959F
330
747D
100
AcDbEntity
  8
部品1
 48
50.0
100
AcDbPolyline
 90
        4
 70
     1
 43
0.0
 10
4551.243777925068
 20
3335.769698991551
 10
4554.143777925069
 20
3335.769698991551
 10
4554.143777925069
 20
3345.269698991551
 10
4551.243777925068
 20
3345.269698991551
  0
CIRCLE
  5
195A0
330
747D
100
AcDbEntity
  8
部品1
 48
50.0
100
AcDbCircle
 10
4552.693777925069
 20
3340.519698991551
 30
0.0
 40
9.0
  0
ARC
  5
195A1
330
747D
100
AcDbEntity
  8
細線
 48
50.0
100
AcDbCircle
 10
4552.693777925069
 20
3340.519698991551
 30
0.0
 40
4.0
100
AcDbArc
 50
111.2538091853132
 51
248.7461908146868
  0
ARC
  5
195A2
330
747D
100
AcDbEntity
  8
細線
 48
50.0
100
AcDbCircle
 10
4552.693777925069
 20
3340.519698991551
 30
0.0
 40
17.5
100
AcDbArc
 50
306.4837370612677
 51
233.5162629387323
  0
LINE
  5
195A3
330
747D
100
AcDbEntity
  8
細線
 48
50.0
100
AcDbLine
 10
4562.693777925066
 20
3316.660738410668
 30
0.0
 11
4562.693777925069
 21
3325.64522421091
 31
0.0
  0
LINE
  5
195A4
330
747D
100
AcDbEntity
  8
細線
 48
50.0
100
AcDbLine
 10
4542.693777925069
 20
3316.66073841067
 30
0.0
 11
4542.693777925069
 21
3325.645224210906
 31
0.0
  0
ARC
  5
195A5
330
747D
100
AcDbEntity
  8
細線
 48
50.0
100
AcDbCircle
 10
4552.693777925069
 20
3340.519698991551
 30
0.0
 40
26.5
100
AcDbArc
 50
249.3326835063939
 51
290.6673164933835
  0
ARC
  5
195A6
330
747D
100
AcDbEntity
  8
細線
 48
50.0
100
AcDbCircle
 10
4561.693777925062
 20
3316.660738410668
 30
0.0
 40
1.0
100
AcDbArc
 50
290.6673164936062
 51
359.9999999998958
  0
ARC
  5
195A7
330
747D
100
AcDbEntity
  8
細線
 48
50.0
100
AcDbCircle
 10
4543.693777925069
 20
3316.66073841067
 30
0.0
 40
1.0
100
AcDbArc
 50
180.0
 51
249.3326835066164
  0
ARC
  5
195A8
330
747D
100
AcDbEntity
  8
細線
 48
50.0
100
AcDbCircle
 10
4541.693777925069
 20
3325.645224210906
 30
0.0
 40
1.0
100
AcDbArc
 50
0.0
 51
53.51626293873231
  0
ARC
  5
195A9
330
747D
100
AcDbEntity
  8
細線
 48
50.0
100
AcDbCircle
 10
4563.693777925073
 20
3325.64522421091
 30
0.0
 40
1.0
100
AcDbArc
 50
126.4837370615127
 51
180.0
  0
ARC
  5
195AA
330
747D
100
AcDbEntity
  8
細線
 48
50.0
100
AcDbCircle
 10
4552.693777925069
 20
3340.519698991551
 30
0.0
 40
21.5
100
AcDbArc
 50
255.8014401250294
 51
284.1985598749706
  0
ARC
  5
195AB
330
747D
100
AcDbEntity
  8
細線
 48
50.0
100
AcDbCircle
 10
4552.693777925069
 20
3340.519698991551
 30
0.0
 40
16.5
100
AcDbArc
 50
251.9694646069326
 51
288.0305353930674
  0
LINE
  5
195AC
330
747D
100
AcDbEntity
  8
細線
 48
50.0
100
AcDbLine
 10
4558.193777925069
 20
3319.967326865744
 30
0.0
 11
4558.193777925069
 21
3324.544718553081
 31
0.0
  0
LINE
  5
195AD
330
747D
100
AcDbEntity
  8
細線
 48
50.0
100
AcDbLine
 10
4547.193777925069
 20
3319.967326865744
 30
0.0
 11
4547.193777925069
 21
3324.54471855308
 31
0.0
  0
ARC
  5
195AE
330
747D
100
AcDbEntity
  8
細線
 48
50.0
100
AcDbCircle
 10
4547.493777925072
 20
3324.54471855308
 30
0.0
 40
0.3
100
AcDbArc
 50
71.96946460693259
 51
180.0
  0
ARC
  5
195AF
330
747D
100
AcDbEntity
  8
細線
 48
50.0
100
AcDbCircle
 10
4557.89377792507
 20
3324.544718553081
 30
0.0
 40
0.3
100
AcDbArc
 50
0.0
 51
108.0305353930674
  0
ARC
  5
195B0
330
747D
100
AcDbEntity
  8
細線
 48
50.0
100
AcDbCircle
 10
4557.893777925066
 20
3319.967326865744
 30
0.0
 40
0.3
100
AcDbArc
 50
284.1985598747622
 51
0.0000000001042204
  0
ARC
  5
195B1
330
747D
100
AcDbEntity
  8
細線
 48
50.0
100
AcDbCircle
 10
4547.493777925072
 20
3319.967326865744
 30
0.0
 40
0.3
100
AcDbArc
 50
180.0
 51
255.8014401248081
  0
CIRCLE
  5
195B2
330
747D
100
AcDbEntity
  8
細線
 48
50.0
100
AcDbCircle
 10
4552.693777925069
 20
3340.519698991551
 30
0.0
 40
12.0
  0
ARC
  5
195B3
330
747D
100
AcDbEntity
  8
部品1
 48
50.0
100
AcDbCircle
 10
4552.693777925069
 20
3390.519698991551
 30
0.0
 40
8.5
100
AcDbArc
 50
114.315739171091
 51
245.684260828909
  0
CIRCLE
  5
195B4
330
747D
100
AcDbEntity
  8
細線
 48
50.0
100
AcDbCircle
 10
4552.693777925069
 20
3390.519698991551
 30
0.0
 40
4.5
  0
LWPOLYLINE
  5
195B5
330
747D
100
AcDbEntity
  8
部品1
 48
50.0
100
AcDbPolyline
 90
        2
 70
     0
 43
0.0
 10
4549.193777925069
 20
3409.194548388534
 10
4549.193777925069
 20
3398.265665683967
  0
CIRCLE
  5
195B6
330
747D
100
AcDbEntity
  8
部品1
 48
50.0
100
AcDbCircle
 10
4552.693777925069
 20
3390.519698991551
 30
0.0
 40
19.0
  0
LWPOLYLINE
  5
195B7
330
747D
100
AcDbEntity
  8
部品1
 48
50.0
100
AcDbPolyline
 90
        2
 70
     0
 43
0.0
 10
4549.193777925069
 20
3382.773732299136
 10
4549.193777925069
 20
3371.844849594569
  0
LWPOLYLINE
  5
195B8
330
747D
100
AcDbEntity
  8
部品1
 48
50.0
100
AcDbPolyline
 90
        2
 70
     0
 43
0.0
 10
4556.193777925069
 20
3398.265665683967
 10
4556.193777925069
 20
3409.194548388534
  0
ARC
  5
195B9
330
747D
100
AcDbEntity
  8
部品1
 48
50.0
100
AcDbCircle
 10
4552.693777925069
 20
3390.519698991551
 30
0.0
 40
8.5
100
AcDbArc
 50
294.315739171091
 51
65.68426082890896
  0
LWPOLYLINE
  5
195BA
330
747D
100
AcDbEntity
  8
部品1
 48
50.0
100
AcDbPolyline
 90
        2
 70
     0
 43
0.0
 10
4556.193777925069
 20
3371.844849594569
 10
4556.193777925069
 20
3382.773732299136
  0
ARC
  5
195BB
330
747D
100
AcDbEntity
  8
細線
 48
50.0
100
AcDbCircle
 10
4552.693777925069
 20
3390.519698991551
 30
0.0
 40
16.5
100
AcDbArc
 50
332.0012352654438
 51
27.99876473455621
  0
ARC
  5
195BC
330
747D
100
AcDbEntity
  8
細線
 48
50.0
100
AcDbCircle
 10
4552.693777925069
 20
3390.519698991551
 30
0.0
 40
14.0
100
AcDbArc
 50
326.4074436112986
 51
33.59255638870134
  0
LINE
  5
195BD
330
747D
100
AcDbEntity
  8
細線
 48
50.0
100
AcDbLine
 10
4538.124975640737
 20
3398.265665683967
 30
0.0
 11
4541.03187413538
 21
3398.265665683967
 31
0.0
  0
LINE
  5
195BE
330
747D
100
AcDbEntity
  8
細線
 48
50.0
100
AcDbLine
 10
4538.124975640737
 20
3382.773732299136
 30
0.0
 11
4541.03187413538
 21
3382.773732299136
 31
0.0
  0
LINE
  5
195BF
330
747D
100
AcDbEntity
  8
細線
 48
50.0
100
AcDbLine
 10
4564.355681714758
 20
3398.265665683967
 30
0.0
 11
4567.262580209404
 21
3398.265665683967
 31
0.0
  0
LINE
  5
195C0
330
747D
100
AcDbEntity
  8
細線
 48
50.0
100
AcDbLine
 10
4564.355681714758
 20
3382.773732299136
 30
0.0
 11
4567.262580209404
 21
3382.773732299136
 31
0.0
  0
ARC
  5
195C1
330
747D
100
AcDbEntity
  8
細線
 48
50.0
100
AcDbCircle
 10
4552.693777925069
 20
3390.519698991551
 30
0.0
 40
14.0
100
AcDbArc
 50
146.4074436112986
 51
213.5925563887013
  0
ARC
  5
195C2
330
747D
100
AcDbEntity
  8
細線
 48
50.0
100
AcDbCircle
 10
4552.693777925069
 20
3390.519698991551
 30
0.0
 40
16.5
100
AcDbArc
 50
152.0012352654438
 51
207.9987647345562
  0
ARC
  5
195C3
330
747D
100
AcDbEntity
  8
部品1
 48
50.0
100
AcDbCircle
 10
4526.193777925069
 20
3416.019698991551
 30
0.0
 40
5.0
100
AcDbArc
 50
90.0
 51
180.0
  0
ARC
  5
195C4
330
747D
100
AcDbEntity
  8
部品1
 48
50.0
100
AcDbCircle
 10
4526.193777925069
 20
3305.019698991551
 30
0.0
 40
5.0
100
AcDbArc
 50
180.0
 51
270.0
  0
ARC
  5
195C5
330
747D
100
AcDbEntity
  8
部品1
 48
50.0
100
AcDbCircle
 10
4579.193777925069
 20
3305.019698991551
 30
0.0
 40
5.0
100
AcDbArc
 50
270.0
 51
0.0
  0
ARC
  5
195C6
330
747D
100
AcDbEntity
  8
部品1
 48
50.0
100
AcDbCircle
 10
4579.193777925069
 20
3416.019698991551
 30
0.0
 40
5.0
100
AcDbArc
 50
0.0
 51
90.0
  0
LINE
  5
195C7
330
747D
100
AcDbEntity
  8
部品1
 48
50.0
100
AcDbLine
 10
4521.193777925069
 20
3305.019698991551
 30
0.0
 11
4521.193777925069
 21
3416.019698991551
 31
0.0
  0
LINE
  5
195C8
330
747D
100
AcDbEntity
  8
部品1
 48
50.0
100
AcDbLine
 10
4579.193777925069
 20
3300.019698991552
 30
0.0
 11
4526.193777925069
 21
3300.019698991552
 31
0.0
  0
LINE
  5
195C9
330
747D
100
AcDbEntity
  8
部品1
 48
50.0
100
AcDbLine
 10
4584.193777925069
 20
3416.019698991551
 30
0.0
 11
4584.193777925069
 21
3305.019698991551
 31
0.0
  0
ENDSEC
  0
SECTION
  2
OBJECTS
  0
DICTIONARY
  5
7471
330
0
100
AcDbDictionary
281
     1
  3
ACAD_COLOR
350
174C9
  3
ACAD_GROUP
350
7472
  3
ACAD_LAYOUT
350
174CA
  3
ACAD_MATERIAL
350
174C8
  3
ACAD_MLINESTYLE
350
7473
  3
ACAD_PLOTSETTINGS
350
174CB
  3
ACAD_PLOTSTYLENAME
350
174C6
  3
ACDBHEADERROUNDTRIPXREC
350
195D7
  3
ACDBVARIABLEDICTIONARY
350
17436
  3
CONTENTDICTIONARY
350
E71C
  3
DRAWINGVARIABLESDICT
350
F3B9
  0
DICTIONARY
  5
1766B
330
7467
100
AcDbDictionary
280
     1
281
     1
  3
ACAD_LAYERSTATES
360
1766C
  0
DICTIONARY
  5
174C9
102
{ACAD_REACTORS
330
7471
102
}
330
7471
100
AcDbDictionary
281
     1
  0
DICTIONARY
  5
7472
102
{ACAD_REACTORS
330
7471
102
}
330
7471
100
AcDbDictionary
281
     1
  0
DICTIONARY
  5
174CA
102
{ACAD_REACTORS
330
7471
102
}
330
7471
100
AcDbDictionary
281
     1
  3
Model
350
174CC
  3
レイアウト1
350
174CD
  0
DICTIONARY
  5
174C8
102
{ACAD_REACTORS
330
7471
102
}
330
7471
100
AcDbDictionary
281
     1
  0
DICTIONARY
  5
7473
102
{ACAD_REACTORS
330
7471
102
}
330
7471
100
AcDbDictionary
281
     1
  3
STANDARD
350
7480
  0
DICTIONARY
  5
174CB
102
{ACAD_REACTORS
330
7471
102
}
330
7471
100
AcDbDictionary
281
     1
  0
ACDBDICTIONARYWDFLT
  5
174C6
102
{ACAD_REACTORS
330
7471
102
}
330
7471
100
AcDbDictionary
281
     1
  3
Normal
350
174C7
100
AcDbDictionaryWithDefault
340
174C7
  0
DICTIONARY
  5
195D7
102
{ACAD_REACTORS
330
7471
102
}
330
7471
100
AcDbDictionary
281
     1
  3
COLORDICT
350
195D9
  3
MATERIALDICT
350
195D8
  0
DICTIONARY
  5
17436
102
{ACAD_REACTORS
330
7471
102
}
330
7471
100
AcDbDictionary
281
     1
  3
DIMASSOC
350
195D4
  3
PROJECTNAME
350
195D5
  3
SORTENTS
350
17437
  0
DICTIONARY
  5
E71C
102
{ACAD_REACTORS
330
7471
102
}
330
7471
100
AcDbDictionary
281
     1
  0
DICTIONARY
  5
F3B9
102
{ACAD_REACTORS
330
7471
102
}
330
7471
100
AcDbDictionary
281
     1
1001
DRAWINGVARIABLESXDATA
1000
POLARMODE
1000
1
  0
DICTIONARY
  5
1766C
102
{ACAD_REACTORS
330
1766B
102
}
330
1766B
100
AcDbDictionary
281
     1
  0
LAYOUT
  5
174CC
102
{ACAD_XDICTIONARY
360
195DA
102
}
102
{ACAD_REACTORS
330
174CA
102
}
330
174CA
100
AcDbPlotSettings
  1

  2
Microsoft Office Document Image Writer
  4

  6

 40
0.0
 41
0.0
 42
0.0
 43
0.0
 44
0.0
 45
0.0
 46
0.0
 47
0.0
 48
0.0
 49
0.0
140
0.0
141
0.0
142
1.0
143
1.0
 70
  1712
 72
     0
 73
     0
 74
     0
  7

 75
     0
147
1.0
148
0.0
149
0.0
100
AcDbLayout
  1
Model
 70
     1
 71
     0
 10
0.0
 20
0.0
 11
12.0
 21
9.0
 12
0.0
 22
0.0
 32
0.0
 14
0.0
 24
0.0
 34
0.0
 15
0.0
 25
0.0
 35
0.0
146
0.0
 13
0.0
 23
0.0
 33
0.0
 16
1.0
 26
0.0
 36
0.0
 17
0.0
 27
1.0
 37
0.0
 76
     0
330
747D
  0
LAYOUT
  5
174CD
102
{ACAD_XDICTIONARY
360
195DC
102
}
102
{ACAD_REACTORS
330
174CA
102
}
330
174CA
100
AcDbPlotSettings
  1

  2
Microsoft Office Document Image Writer
  4

  6

 40
0.0
 41
0.0
 42
0.0
 43
0.0
 44
0.0
 45
0.0
 46
0.0
 47
0.0
 48
0.0
 49
0.0
140
0.0
141
0.0
142
1.0
143
1.0
 70
   688
 72
     0
 73
     0
 74
     5
  7

 75
    16
147
1.0
148
0.0
149
0.0
100
AcDbLayout
  1
レイアウト1
 70
     0
 71
     1
 10
0.0
 20
0.0
 11
420.0
 21
297.0
 12
0.0
 22
0.0
 32
0.0
 14
1.000000000000000E+20
 24
1.000000000000000E+20
 34
1.000000000000000E+20
 15
-1.000000000000000E+20
 25
-1.000000000000000E+20
 35
-1.000000000000000E+20
146
0.0
 13
0.0
 23
0.0
 33
0.0
 16
1.0
 26
0.0
 36
0.0
 17
0.0
 27
1.0
 37
0.0
 76
     0
330
747A
  0
MLINESTYLE
  5
7480
102
{ACAD_REACTORS
330
7473
102
}
330
7473
100
AcDbMlineStyle
  2
STANDARD
 70
     0
  3

 62
     0
 51
90.0
 52
90.0
 71
     2
 49
0.5
 62
   256
  6
BYLAYER
 49
-0.5
 62
   256
  6
BYLAYER
  0
ACDBPLACEHOLDER
  5
174C7
102
{ACAD_REACTORS
330
174C6
102
}
330
174C6
  0
XRECORD
  5
195D9
102
{ACAD_REACTORS
330
195D7
102
}
330
195D7
100
AcDbXrecord
280
     1
340
174C9
  0
XRECORD
  5
195D8
102
{ACAD_REACTORS
330
195D7
102
}
330
195D7
100
AcDbXrecord
280
     1
340
174C8
  0
DICTIONARYVAR
  5
195D4
102
{ACAD_REACTORS
330
17436
102
}
330
17436
100
DictionaryVariables
280
     0
  1
1
  0
DICTIONARYVAR
  5
195D5
102
{ACAD_REACTORS
330
17436
102
}
330
17436
100
DictionaryVariables
280
     0
  1

  0
DICTIONARYVAR
  5
17437
102
{ACAD_REACTORS
330
17436
102
}
330
17436
100
DictionaryVariables
280
     0
  1
96
  0
DICTIONARY
  5
195DA
330
174CC
100
AcDbDictionary
280
     1
281
     1
  3
ACAD_XREC_ROUNDTRIP
360
195DB
  0
DICTIONARY
  5
195DC
330
174CD
100
AcDbDictionary
280
     1
281
     1
  3
ACAD_XREC_ROUNDTRIP
360
195DD
  0
XRECORD
  5
195DB
102
{ACAD_REACTORS
330
195DA
102
}
330
195DA
100
AcDbXrecord
280
     1
102
SHADEPLOT
 70
     0
102
SHADEPLOTRESLEVEL
 70
     2
102
SHADEPLOTCUSTOMDPI
 70
   300
  0
XRECORD
  5
195DD
102
{ACAD_REACTORS
330
195DC
102
}
330
195DC
100
AcDbXrecord
280
     1
102
SHADEPLOT
 70
     0
102
SHADEPLOTRESLEVEL
 70
     2
102
SHADEPLOTCUSTOMDPI
 70
   300
  0
ENDSEC
  0
EOF
