  0
SECTION
  2
HEADER
  9
$ACADVER
  1
AC1015
  9
$ACADMAINTVER
 70
    20
  9
$DWGCODEPAGE
  3
ANSI_932
  9
$INSBASE
 10
0.0
 20
0.0
 30
0.0
  9
$EXTMIN
 10
139.9999999999995
 20
-0.0000000000000909
 30
0.0
  9
$EXTMAX
 10
16307.2
 20
11409.6
 30
0.0
  9
$LIMMIN
 10
-25.79074261211281
 20
-125.8223078213959
  9
$LIMMAX
 10
16471.10331197129
 20
11496.44801950658
  9
$ORTHOMODE
 70
     0
  9
$REGENMODE
 70
     1
  9
$FILLMODE
 70
     1
  9
$QTEXTMODE
 70
     0
  9
$MIRRTEXT
 70
     1
  9
$LTSCALE
 40
20.0
  9
$ATTMODE
 70
     1
  9
$TEXTSIZE
 40
4.0
  9
$TRACEWID
 40
1.0
  9
$TEXTSTYLE
  7
STYLE1
  9
$CLAYER
  8
寸法
  9
$CELTYPE
  6
BYLAYER
  9
$CECOLOR
 62
   256
  9
$CELTSCALE
 40
50.0
  9
$DISPSILH
 70
     0
  9
$DIMSCALE
 40
40.0
  9
$DIMASZ
 40
2.5
  9
$DIMEXO
 40
0.5
  9
$DIMDLI
 40
7.0
  9
$DIMRND
 40
0.0
  9
$DIMDLE
 40
0.0
  9
$DIMEXE
 40
1.5
  9
$DIMTP
 40
0.0
  9
$DIMTM
 40
0.0
  9
$DIMTXT
 40
3.0
  9
$DIMCEN
 40
0.0
  9
$DIMTSZ
 40
0.0
  9
$DIMTOL
 70
     0
  9
$DIMLIM
 70
     0
  9
$DIMTIH
 70
     0
  9
$DIMTOH
 70
     0
  9
$DIMSE1
 70
     0
  9
$DIMSE2
 70
     0
  9
$DIMTAD
 70
     3
  9
$DIMZIN
 70
     8
  9
$DIMBLK
  1

  9
$DIMASO
 70
     1
  9
$DIMSHO
 70
     1
  9
$DIMPOST
  1

  9
$DIMAPOST
  1

  9
$DIMALT
 70
     0
  9
$DIMALTD
 70
     2
  9
$DIMALTF
 40
0.0394
  9
$DIMLFAC
 40
1.0
  9
$DIMTOFL
 70
     1
  9
$DIMTVP
 40
0.0
  9
$DIMTIX
 70
     1
  9
$DIMSOXD
 70
     0
  9
$DIMSAH
 70
     1
  9
$DIMBLK1
  1
DOTSMALL
  9
$DIMBLK2
  1
DOTSMALL
  9
$DIMSTYLE
  2
INABA_S40G
  9
$DIMCLRD
 70
     0
  9
$DIMCLRE
 70
     0
  9
$DIMCLRT
 70
     7
  9
$DIMTFAC
 40
1.0
  9
$DIMGAP
 40
1.0
  9
$DIMJUST
 70
     0
  9
$DIMSD1
 70
     0
  9
$DIMSD2
 70
     0
  9
$DIMTOLJ
 70
     1
  9
$DIMTZIN
 70
     0
  9
$DIMALTZ
 70
     0
  9
$DIMALTTZ
 70
     0
  9
$DIMUPT
 70
     0
  9
$DIMDEC
 70
     1
  9
$DIMTDEC
 70
     4
  9
$DIMALTU
 70
     2
  9
$DIMALTTD
 70
     2
  9
$DIMTXSTY
  7
STYLE1
  9
$DIMAUNIT
 70
     0
  9
$DIMADEC
 70
     0
  9
$DIMALTRND
 40
0.0
  9
$DIMAZIN
 70
     0
  9
$DIMDSEP
 70
    46
  9
$DIMATFIT
 70
     3
  9
$DIMFRAC
 70
     0
  9
$DIMLDRBLK
  1

  9
$DIMLUNIT
 70
     2
  9
$DIMLWD
 70
    -2
  9
$DIMLWE
 70
    -2
  9
$DIMTMOVE
 70
     0
  9
$LUNITS
 70
     2
  9
$LUPREC
 70
     1
  9
$SKETCHINC
 40
1.0
  9
$FILLETRAD
 40
3.0
  9
$AUNITS
 70
     0
  9
$AUPREC
 70
     0
  9
$MENU
  1
acad
  9
$ELEVATION
 40
0.0
  9
$PELEVATION
 40
0.0
  9
$THICKNESS
 40
0.0
  9
$LIMCHECK
 70
     0
  9
$CHAMFERA
 40
0.0
  9
$CHAMFERB
 40
0.0
  9
$CHAMFERC
 40
0.0
  9
$CHAMFERD
 40
0.0
  9
$SKPOLY
 70
     0
  9
$TDCREATE
 40
2451368.612993866
  9
$TDUCREATE
 40
2451368.237993866
  9
$TDUPDATE
 40
2455575.683049769
  9
$TDUUPDATE
 40
2455575.308049769
  9
$TDINDWG
 40
0.5296766088
  9
$TDUSRTIMER
 40
0.5296766088
  9
$USRTIMER
 70
     1
  9
$ANGBASE
 50
0.0
  9
$ANGDIR
 70
     0
  9
$PDMODE
 70
     3
  9
$PDSIZE
 40
2.0
  9
$PLINEWID
 40
0.0
  9
$SPLFRAME
 70
     0
  9
$SPLINETYPE
 70
     6
  9
$SPLINESEGS
 70
     8
  9
$HANDSEED
  5
18E9E
  9
$SURFTAB1
 70
     6
  9
$SURFTAB2
 70
     6
  9
$SURFTYPE
 70
     6
  9
$SURFU
 70
     6
  9
$SURFV
 70
     6
  9
$UCSBASE
  2

  9
$UCSNAME
  2

  9
$UCSORG
 10
0.0
 20
0.0
 30
0.0
  9
$UCSXDIR
 10
1.0
 20
0.0
 30
0.0
  9
$UCSYDIR
 10
0.0
 20
1.0
 30
0.0
  9
$UCSORTHOREF
  2

  9
$UCSORTHOVIEW
 70
     0
  9
$UCSORGTOP
 10
0.0
 20
0.0
 30
0.0
  9
$UCSORGBOTTOM
 10
0.0
 20
0.0
 30
0.0
  9
$UCSORGLEFT
 10
0.0
 20
0.0
 30
0.0
  9
$UCSORGRIGHT
 10
0.0
 20
0.0
 30
0.0
  9
$UCSORGFRONT
 10
0.0
 20
0.0
 30
0.0
  9
$UCSORGBACK
 10
0.0
 20
0.0
 30
0.0
  9
$PUCSBASE
  2

  9
$PUCSNAME
  2

  9
$PUCSORG
 10
0.0
 20
0.0
 30
0.0
  9
$PUCSXDIR
 10
1.0
 20
0.0
 30
0.0
  9
$PUCSYDIR
 10
0.0
 20
1.0
 30
0.0
  9
$PUCSORTHOREF
  2

  9
$PUCSORTHOVIEW
 70
     0
  9
$PUCSORGTOP
 10
0.0
 20
0.0
 30
0.0
  9
$PUCSORGBOTTOM
 10
0.0
 20
0.0
 30
0.0
  9
$PUCSORGLEFT
 10
0.0
 20
0.0
 30
0.0
  9
$PUCSORGRIGHT
 10
0.0
 20
0.0
 30
0.0
  9
$PUCSORGFRONT
 10
0.0
 20
0.0
 30
0.0
  9
$PUCSORGBACK
 10
0.0
 20
0.0
 30
0.0
  9
$USERI1
 70
     0
  9
$USERI2
 70
     0
  9
$USERI3
 70
     0
  9
$USERI4
 70
     0
  9
$USERI5
 70
     0
  9
$USERR1
 40
0.0
  9
$USERR2
 40
0.0
  9
$USERR3
 40
0.0
  9
$USERR4
 40
0.0
  9
$USERR5
 40
0.0
  9
$WORLDVIEW
 70
     1
  9
$SHADEDGE
 70
     3
  9
$SHADEDIF
 70
    70
  9
$TILEMODE
 70
     1
  9
$MAXACTVP
 70
    16
  9
$PINSBASE
 10
0.0
 20
0.0
 30
0.0
  9
$PLIMCHECK
 70
     0
  9
$PEXTMIN
 10
1.000000000000000E+20
 20
1.000000000000000E+20
 30
1.000000000000000E+20
  9
$PEXTMAX
 10
-1.000000000000000E+20
 20
-1.000000000000000E+20
 30
-1.000000000000000E+20
  9
$PLIMMIN
 10
0.0
 20
0.0
  9
$PLIMMAX
 10
420.0
 20
297.0
  9
$UNITMODE
 70
     0
  9
$VISRETAIN
 70
     0
  9
$PLINEGEN
 70
     0
  9
$PSLTSCALE
 70
     0
  9
$TREEDEPTH
 70
  3020
  9
$CMLSTYLE
  2
STANDARD
  9
$CMLJUST
 70
     0
  9
$CMLSCALE
 40
1.0
  9
$PROXYGRAPHICS
 70
     1
  9
$MEASUREMENT
 70
     1
  9
$CELWEIGHT
370
    -1
  9
$ENDCAPS
280
     0
  9
$JOINSTYLE
280
     0
  9
$LWDISPLAY
290
     0
  9
$INSUNITS
 70
     0
  9
$HYPERLINKBASE
  1

  9
$STYLESHEET
  1
inaba.ctb
  9
$XEDIT
290
     1
  9
$CEPSNTYPE
380
     0
  9
$PSTYLEMODE
290
     1
  9
$FINGERPRINTGUID
  2
{7C41E287-A244-4468-B2FD-1B2FFCF954B4}
  9
$VERSIONGUID
  2
{23D37C2E-5DD9-46E3-9965-7A7B36295E5C}
  9
$EXTNAMES
290
     1
  9
$PSVPSCALE
 40
0.0
  9
$OLESTARTUP
290
     0
  0
ENDSEC
  0
SECTION
  2
CLASSES
  0
CLASS
  1
ACDBDICTIONARYWDFLT
  2
AcDbDictionaryWithDefault
  3
ObjectDBX Classes
 90
        0
280
     0
281
     0
  0
CLASS
  1
DICTIONARYVAR
  2
AcDbDictionaryVar
  3
ObjectDBX Classes
 90
        0
280
     0
281
     0
  0
CLASS
  1
ACDBPLACEHOLDER
  2
AcDbPlaceHolder
  3
ObjectDBX Classes
 90
        0
280
     0
281
     0
  0
CLASS
  1
LAYOUT
  2
AcDbLayout
  3
ObjectDBX Classes
 90
        0
280
     0
281
     0
  0
ENDSEC
  0
SECTION
  2
TABLES
  0
TABLE
  2
VPORT
  5
746D
330
0
100
AcDbSymbolTable
 70
     2
  0
VPORT
  5
18E96
330
746D
100
AcDbSymbolTableRecord
100
AcDbViewportTableRecord
  2
*Active
 70
     0
 10
0.0
 20
0.0
 11
1.0
 21
1.0
 12
8223.761025238504
 22
5704.608037261908
 13
0.0
 23
0.0
 14
10.0
 24
10.0
 15
10.0
 25
10.0
 16
0.0
 26
0.0
 36
1.0
 17
0.0
 27
0.0
 37
0.0
 40
11495.08541324274
 41
1.525925925925925
 42
50.0
 43
0.0
 44
0.0
 50
0.0
 51
0.0
 71
     0
 72
     0
 73
     1
 74
     0
 75
     0
 76
     0
 77
     0
 78
     0
281
     0
 65
     1
110
0.0
120
0.0
130
0.0
111
1.0
121
0.0
131
0.0
112
0.0
122
1.0
132
0.0
 79
     0
146
0.0
  0
ENDTAB
  0
TABLE
  2
LTYPE
  5
746A
330
0
100
AcDbSymbolTable
 70
     4
  0
LTYPE
  5
7477
330
746A
100
AcDbSymbolTableRecord
100
AcDbLinetypeTableRecord
  2
BYBLOCK
 70
     0
  3

 72
    65
 73
     0
 40
0.0
  0
LTYPE
  5
7478
330
746A
100
AcDbSymbolTableRecord
100
AcDbLinetypeTableRecord
  2
BYLAYER
 70
     0
  3

 72
    65
 73
     0
 40
0.0
  0
LTYPE
  5
7479
330
746A
100
AcDbSymbolTableRecord
100
AcDbLinetypeTableRecord
  2
CONTINUOUS
 70
     0
  3
Solid line
 72
    65
 73
     0
 40
0.0
  0
LTYPE
  5
7816
330
746A
100
AcDbSymbolTableRecord
100
AcDbLinetypeTableRecord
  2
CENTER
 70
     0
  3
____ _ ____ _ ____ _ ____ _ ____ _ ____ _ ____ 
 72
    65
 73
     4
 40
2.0
 49
1.25
 74
     0
 49
-0.25
 74
     0
 49
0.25
 74
     0
 49
-0.25
 74
     0
  0
LTYPE
  5
781A
330
746A
100
AcDbSymbolTableRecord
100
AcDbLinetypeTableRecord
  2
HIDDEN
 70
     0
  3
__ __ __ __ __ __ __ __ __ __ __ __ __ __ __ __
 72
    65
 73
     2
 40
0.375
 49
0.25
 74
     0
 49
-0.125
 74
     0
  0
LTYPE
  5
781B
330
746A
100
AcDbSymbolTableRecord
100
AcDbLinetypeTableRecord
  2
PHANTOM
 70
     0
  3
______  __  __  ______  __  __  ______  __  __ 
 72
    65
 73
     6
 40
2.5
 49
1.25
 74
     0
 49
-0.25
 74
     0
 49
0.25
 74
     0
 49
-0.25
 74
     0
 49
0.25
 74
     0
 49
-0.25
 74
     0
  0
ENDTAB
  0
TABLE
  2
LAYER
  5
7467
102
{ACAD_XDICTIONARY
360
176E0
102
}
330
0
100
AcDbSymbolTable
 70
    12
  0
LAYER
  5
7474
330
7467
100
AcDbSymbolTableRecord
100
AcDbLayerTableRecord
  2
0
 70
     0
 62
     7
  6
CONTINUOUS
370
    -3
390
17543
  0
LAYER
  5
DEB2
330
7467
100
AcDbSymbolTableRecord
100
AcDbLayerTableRecord
  2
センター
 70
     0
 62
     3
  6
CENTER
370
    -3
390
17543
  0
LAYER
  5
DEB3
330
7467
100
AcDbSymbolTableRecord
100
AcDbLayerTableRecord
  2
寸法
 70
     0
 62
     4
  6
CONTINUOUS
370
    -3
390
17543
  0
LAYER
  5
DEB4
330
7467
100
AcDbSymbolTableRecord
100
AcDbLayerTableRecord
  2
部品1
 70
     0
 62
     7
  6
CONTINUOUS
370
    -3
390
17543
  0
LAYER
  5
DEB5
330
7467
100
AcDbSymbolTableRecord
100
AcDbLayerTableRecord
  2
補助
 70
     0
 62
    -1
  6
CONTINUOUS
370
    -3
390
17543
  0
LAYER
  5
DEB6
330
7467
100
AcDbSymbolTableRecord
100
AcDbLayerTableRecord
  2
文字
 70
     0
 62
     7
  6
CONTINUOUS
370
    -3
390
17543
  0
LAYER
  5
F255
330
7467
100
AcDbSymbolTableRecord
100
AcDbLayerTableRecord
  2
DEFPOINTS
 70
     0
 62
     7
  6
CONTINUOUS
290
     0
370
    -3
390
17543
  0
LAYER
  5
10B54
330
7467
100
AcDbSymbolTableRecord
100
AcDbLayerTableRecord
  2
仕様書枠
 70
     0
 62
   230
  6
CONTINUOUS
370
    -3
390
17543
  0
LAYER
  5
11729
330
7467
100
AcDbSymbolTableRecord
100
AcDbLayerTableRecord
  2
Ｇ．Ｌ
 70
     0
 62
    30
  6
CONTINUOUS
370
    -3
390
17543
  0
LAYER
  5
1173F
330
7467
100
AcDbSymbolTableRecord
100
AcDbLayerTableRecord
  2
細線
 70
     0
 62
     5
  6
CONTINUOUS
370
    -3
390
17543
  0
LAYER
  5
12CC4
330
7467
100
AcDbSymbolTableRecord
100
AcDbLayerTableRecord
  2
想像線
 70
     0
 62
     6
  6
PHANTOM
370
    -3
390
17543
  0
LAYER
  5
142E2
330
7467
100
AcDbSymbolTableRecord
100
AcDbLayerTableRecord
  2
破線
 70
     0
 62
     2
  6
HIDDEN
370
    -3
390
17543
  0
ENDTAB
  0
TABLE
  2
STYLE
  5
7468
330
0
100
AcDbSymbolTable
 70
     4
  0
STYLE
  5
7475
330
7468
100
AcDbSymbolTableRecord
100
AcDbTextStyleTableRecord
  2
STANDARD
 70
     0
 40
0.0
 41
1.0
 50
0.0
 71
     0
 42
4.0
  3
txt
  4
C:\AutoCAD LT\bigfont.shx
  0
STYLE
  5
F706
330
7468
100
AcDbSymbolTableRecord
100
AcDbTextStyleTableRecord
  2
STYLE1
 70
     0
 40
0.0
 41
1.0
 50
0.0
 71
     0
 42
4.0
  3
isocp.shx
  4
bigfont.shx
  0
STYLE
  5
103BF
330
7468
100
AcDbSymbolTableRecord
100
AcDbTextStyleTableRecord
  2
STYLE2
 70
     0
 40
0.0
 41
1.0
 50
0.0
 71
     0
 42
100.0
  3
MS PGothic.ttf
  4

1001
ACAD
1000
MS PGothic
1071
    32818
  0
STYLE
  5
18785
330
7468
100
AcDbSymbolTableRecord
100
AcDbTextStyleTableRecord
  2
STYLE3
 70
     0
 40
0.0
 41
1.0
 50
0.0
 71
     0
 42
100.0
  3
DFPGothic-EB.ttf
  4

1001
ACAD
1000
DFPGothic-EB
1071
    32818
  0
ENDTAB
  0
TABLE
  2
VIEW
  5
746B
330
0
100
AcDbSymbolTable
 70
     0
  0
ENDTAB
  0
TABLE
  2
UCS
  5
746C
330
0
100
AcDbSymbolTable
 70
     0
  0
ENDTAB
  0
TABLE
  2
APPID
  5
746E
330
0
100
AcDbSymbolTable
 70
     6
  0
APPID
  5
7476
330
746E
100
AcDbSymbolTableRecord
100
AcDbRegAppTableRecord
  2
ACAD
 70
     0
  0
APPID
  5
DEA9
330
746E
100
AcDbSymbolTableRecord
100
AcDbRegAppTableRecord
  2
CONTENTBLOCKICON
 70
     0
  0
APPID
  5
DEAA
330
746E
100
AcDbSymbolTableRecord
100
AcDbRegAppTableRecord
  2
CONTENTBLOCKDESCRIPTION
 70
     0
  0
APPID
  5
E71D
330
746E
100
AcDbSymbolTableRecord
100
AcDbRegAppTableRecord
  2
CONTENTTABDATA
 70
     0
  0
APPID
  5
E71E
330
746E
100
AcDbSymbolTableRecord
100
AcDbRegAppTableRecord
  2
CONTENTCURRENTTAB
 70
     0
  0
APPID
  5
F3BA
330
746E
100
AcDbSymbolTableRecord
100
AcDbRegAppTableRecord
  2
DRAWINGVARIABLESXDATA
 70
     0
  0
ENDTAB
  0
TABLE
  2
DIMSTYLE
  5
746F
330
0
100
AcDbSymbolTable
 70
     5
100
AcDbDimStyleTable
 71
     0
  0
DIMSTYLE
105
7484
330
746F
100
AcDbSymbolTableRecord
100
AcDbDimStyleTableRecord
  2
JIS
 70
     0
 41
2.5
 42
1.0
 43
7.0
 44
1.0
 73
     0
 74
     0
 77
     1
 78
     8
140
2.5
141
0.0
143
0.0394
147
0.0
172
     1
174
     1
175
     1
340
7475
  0
DIMSTYLE
105
F71F
102
{ACAD_REACTORS
330
17B39
330
17B3A
330
17B3B
330
17C94
330
17C95
330
17CA0
330
17CA4
330
17CA5
330
17CDC
330
17CE0
330
17CE1
330
17CE2
330
17CE3
330
17D02
330
17D03
330
17ABC
330
182B4
330
182B5
330
182B6
330
182B7
330
182D1
330
182D2
330
182D6
330
182ED
330
182FB
330
182FC
330
182FD
330
182FE
330
18B26
330
18C27
102
}
330
746F
100
AcDbSymbolTableRecord
100
AcDbDimStyleTableRecord
  2
INABA_S40G
 70
     0
 40
40.0
 41
2.5
 42
0.5
 43
7.0
 44
1.5
 73
     0
 74
     0
 77
     3
 78
     8
140
3.0
141
0.0
143
0.0394
147
1.0
172
     1
173
     1
174
     1
178
     7
271
     1
340
F706
341
F770
343
F770
344
F770
  0
DIMSTYLE
105
176DF
102
{ACAD_REACTORS
330
18891
330
18B27
102
}
330
746F
100
AcDbSymbolTableRecord
100
AcDbDimStyleTableRecord
  2
INABA_S40
 70
     0
 40
40.0
 41
2.5
 42
0.5
 43
7.0
 44
1.5
 73
     0
 74
     0
 77
     3
 78
     8
140
3.0
141
0.0
143
0.0394
147
1.0
172
     1
173
     1
174
     1
175
     1
178
     7
340
7475
  0
DIMSTYLE
105
18786
330
746F
100
AcDbSymbolTableRecord
100
AcDbDimStyleTableRecord
  2
INABA_S50G
 70
     0
 41
125.0
 42
25.0
 43
7.0
 44
75.0
 73
     0
 74
     0
 77
     3
 78
     8
140
150.0
141
0.0
143
0.0394
147
25.0
172
     1
173
     1
174
     1
175
     1
178
     7
271
     1
340
F706
341
F770
343
F770
344
F770
  0
DIMSTYLE
105
18E1C
330
746F
100
AcDbSymbolTableRecord
100
AcDbDimStyleTableRecord
  2
INABA_S20G
 70
     0
 40
20.0
 41
2.5
 42
0.5
 43
7.0
 44
1.5
 73
     0
 74
     0
 77
     3
 78
     8
140
3.0
141
0.0
143
0.0394
147
1.0
172
     1
173
     1
174
     1
178
     7
271
     1
340
F706
341
F770
343
F770
344
F770
  0
ENDTAB
  0
TABLE
  2
BLOCK_RECORD
  5
7466
330
0
100
AcDbSymbolTable
 70
    34
  0
BLOCK_RECORD
  5
747D
330
7466
100
AcDbSymbolTableRecord
100
AcDbBlockTableRecord
  2
*MODEL_SPACE
340
17548
  0
BLOCK_RECORD
  5
747A
330
7466
100
AcDbSymbolTableRecord
100
AcDbBlockTableRecord
  2
*PAPER_SPACE
340
17549
  0
BLOCK_RECORD
  5
F770
330
7466
100
AcDbSymbolTableRecord
100
AcDbBlockTableRecord
  2
_DOTSMALL
340
0
102
{BLKREFS
331
1862D
331
1862E
331
18636
331
18637
331
18641
331
18642
331
1864A
331
1864B
331
18654
331
18655
331
1865D
331
1865E
331
18666
331
18667
331
18670
331
18671
331
1867B
331
1867C
331
18685
331
18686
331
1868E
331
1868F
331
18697
331
18698
331
186A0
331
186A1
331
186A9
331
186AA
331
18726
331
18727
331
18731
331
18732
331
1873A
331
1873B
331
18745
331
18746
331
18D8D
331
18D8E
331
18DA1
331
18DA2
331
18DB5
331
18DB6
331
18DBE
331
18DBF
331
18DC9
331
18DCA
331
18DD2
331
18DD3
331
18DDB
331
18DDC
331
18DE4
331
18DE5
331
18DED
331
18DEE
331
18DF8
331
18DF9
331
18E01
331
18E02
331
18E0C
331
18E0D
102
}
  0
BLOCK_RECORD
  5
17551
330
7466
100
AcDbSymbolTableRecord
100
AcDbBlockTableRecord
  2
_DOT
340
0
102
{BLKREFS
331
18D98
331
18D99
331
18DAA
331
18DAB
102
}
  0
BLOCK_RECORD
  5
17D1E
330
7466
100
AcDbSymbolTableRecord
100
AcDbBlockTableRecord
  2
*D2
340
0
  0
BLOCK_RECORD
  5
17D2A
330
7466
100
AcDbSymbolTableRecord
100
AcDbBlockTableRecord
  2
*D3
340
0
  0
BLOCK_RECORD
  5
17D38
330
7466
100
AcDbSymbolTableRecord
100
AcDbBlockTableRecord
  2
*D4
340
0
  0
BLOCK_RECORD
  5
17D50
330
7466
100
AcDbSymbolTableRecord
100
AcDbBlockTableRecord
  2
*D5
340
0
  0
BLOCK_RECORD
  5
17D5E
330
7466
100
AcDbSymbolTableRecord
100
AcDbBlockTableRecord
  2
*D6
340
0
  0
BLOCK_RECORD
  5
17D6A
330
7466
100
AcDbSymbolTableRecord
100
AcDbBlockTableRecord
  2
*D7
340
0
  0
BLOCK_RECORD
  5
17D78
330
7466
100
AcDbSymbolTableRecord
100
AcDbBlockTableRecord
  2
*D8
340
0
  0
BLOCK_RECORD
  5
17D84
330
7466
100
AcDbSymbolTableRecord
100
AcDbBlockTableRecord
  2
*D9
340
0
  0
BLOCK_RECORD
  5
17D90
330
7466
100
AcDbSymbolTableRecord
100
AcDbBlockTableRecord
  2
*D10
340
0
  0
BLOCK_RECORD
  5
17DA8
330
7466
100
AcDbSymbolTableRecord
100
AcDbBlockTableRecord
  2
*D11
340
0
  0
BLOCK_RECORD
  5
17DB4
330
7466
100
AcDbSymbolTableRecord
100
AcDbBlockTableRecord
  2
*D12
340
0
  0
BLOCK_RECORD
  5
17DC2
330
7466
100
AcDbSymbolTableRecord
100
AcDbBlockTableRecord
  2
*D13
340
0
  0
BLOCK_RECORD
  5
17DCE
330
7466
100
AcDbSymbolTableRecord
100
AcDbBlockTableRecord
  2
*D14
340
0
  0
BLOCK_RECORD
  5
17DDC
330
7466
100
AcDbSymbolTableRecord
100
AcDbBlockTableRecord
  2
*D15
340
0
  0
BLOCK_RECORD
  5
17DE8
330
7466
100
AcDbSymbolTableRecord
100
AcDbBlockTableRecord
  2
*D16
340
0
  0
BLOCK_RECORD
  5
17E99
330
7466
100
AcDbSymbolTableRecord
100
AcDbBlockTableRecord
  2
*D17
340
0
  0
BLOCK_RECORD
  5
18426
330
7466
100
AcDbSymbolTableRecord
100
AcDbBlockTableRecord
  2
*D18
340
0
  0
BLOCK_RECORD
  5
18432
330
7466
100
AcDbSymbolTableRecord
100
AcDbBlockTableRecord
  2
*D19
340
0
  0
BLOCK_RECORD
  5
1843E
330
7466
100
AcDbSymbolTableRecord
100
AcDbBlockTableRecord
  2
*D20
340
0
  0
BLOCK_RECORD
  5
1844B
330
7466
100
AcDbSymbolTableRecord
100
AcDbBlockTableRecord
  2
*D21
340
0
  0
BLOCK_RECORD
  5
18459
330
7466
100
AcDbSymbolTableRecord
100
AcDbBlockTableRecord
  2
*D22
340
0
  0
BLOCK_RECORD
  5
18466
330
7466
100
AcDbSymbolTableRecord
100
AcDbBlockTableRecord
  2
*D23
340
0
  0
BLOCK_RECORD
  5
18472
330
7466
100
AcDbSymbolTableRecord
100
AcDbBlockTableRecord
  2
*D24
340
0
  0
BLOCK_RECORD
  5
1847E
330
7466
100
AcDbSymbolTableRecord
100
AcDbBlockTableRecord
  2
*D25
340
0
  0
BLOCK_RECORD
  5
1848B
330
7466
100
AcDbSymbolTableRecord
100
AcDbBlockTableRecord
  2
*D26
340
0
  0
BLOCK_RECORD
  5
18497
330
7466
100
AcDbSymbolTableRecord
100
AcDbBlockTableRecord
  2
*D27
340
0
  0
BLOCK_RECORD
  5
184A5
330
7466
100
AcDbSymbolTableRecord
100
AcDbBlockTableRecord
  2
*D28
340
0
  0
BLOCK_RECORD
  5
184B1
330
7466
100
AcDbSymbolTableRecord
100
AcDbBlockTableRecord
  2
*D29
340
0
  0
BLOCK_RECORD
  5
188FC
330
7466
100
AcDbSymbolTableRecord
100
AcDbBlockTableRecord
  2
*D30
340
0
  0
BLOCK_RECORD
  5
18C33
330
7466
100
AcDbSymbolTableRecord
100
AcDbBlockTableRecord
  2
*D31
340
0
  0
BLOCK_RECORD
  5
18C3F
330
7466
100
AcDbSymbolTableRecord
100
AcDbBlockTableRecord
  2
*D32
340
0
  0
BLOCK_RECORD
  5
18CA5
330
7466
100
AcDbSymbolTableRecord
100
AcDbBlockTableRecord
  2
*D33
340
0
  0
ENDTAB
  0
ENDSEC
  0
SECTION
  2
BLOCKS
  0
BLOCK
  5
7489
330
747D
100
AcDbEntity
  8
0
100
AcDbBlockBegin
  2
*MODEL_SPACE
 70
     0
 10
0.0
 20
0.0
 30
0.0
  3
*MODEL_SPACE
  1

  0
ENDBLK
  5
748A
330
747D
100
AcDbEntity
  8
0
100
AcDbBlockEnd
  0
BLOCK
  5
7487
330
747A
100
AcDbEntity
 67
     1
  8
0
100
AcDbBlockBegin
  2
*PAPER_SPACE
 70
     0
 10
0.0
 20
0.0
 30
0.0
  3
*PAPER_SPACE
  1

  0
ENDBLK
  5
7488
330
747A
100
AcDbEntity
 67
     1
  8
0
100
AcDbBlockEnd
  0
BLOCK
  5
F771
330
F770
100
AcDbEntity
  8
0
 48
50.0
100
AcDbBlockBegin
  2
_DOTSMALL
 70
     0
 10
0.0
 20
0.0
 30
0.0
  3
_DOTSMALL
  1

  0
LWPOLYLINE
  5
F772
330
F770
100
AcDbEntity
  8
0
  6
ByBlock
 62
     0
 48
50.0
100
AcDbPolyline
 90
        2
 70
     1
 43
0.5
 10
-0.0625
 20
0.0
 42
1.0
 10
0.0625
 20
0.0
 42
1.0
  0
ENDBLK
  5
F776
330
F770
100
AcDbEntity
  8
0
 48
50.0
100
AcDbBlockEnd
  0
BLOCK
  5
17552
330
17551
100
AcDbEntity
  8
0
 48
50.0
100
AcDbBlockBegin
  2
_DOT
 70
     0
 10
0.0
 20
0.0
 30
0.0
  3
_DOT
  1

  0
LWPOLYLINE
  5
17553
330
17551
100
AcDbEntity
  8
0
  6
ByBlock
 62
     0
 48
50.0
100
AcDbPolyline
 90
        2
 70
     1
 43
0.5
 10
-0.25
 20
0.0
 42
1.0
 10
0.25
 20
0.0
 42
1.0
  0
LINE
  5
17554
330
17551
100
AcDbEntity
  8
0
  6
ByBlock
 62
     0
 48
50.0
100
AcDbLine
 10
-0.5
 20
0.0
 30
0.0
 11
-1.0
 21
0.0
 31
0.0
  0
ENDBLK
  5
17555
330
17551
100
AcDbEntity
  8
0
 48
50.0
100
AcDbBlockEnd
  0
BLOCK
  5
17D28
330
17D1E
100
AcDbEntity
  8
0
 48
50.0
100
AcDbBlockBegin
  2
*D2
 70
     1
 10
0.0
 20
0.0
 30
0.0
  3
*D2
  1

  0
LINE
  5
18737
330
17D1E
100
AcDbEntity
  8
寸法
 62
     0
 48
50.0
370
    -2
100
AcDbLine
 10
8497.744506215727
 20
4432.653589224076
 30
0.0
 11
8497.744506215727
 21
5088.272858181992
 31
0.0
  0
LINE
  5
18738
330
17D1E
100
AcDbEntity
  8
寸法
 62
     0
 48
50.0
370
    -2
100
AcDbLine
 10
11227.74450621572
 20
4432.653589224076
 30
0.0
 11
11227.74450621572
 21
5088.272858181992
 31
0.0
  0
LINE
  5
18739
330
17D1E
100
AcDbEntity
  8
寸法
 62
     0
 48
50.0
370
    -2
100
AcDbLine
 10
8497.744506215727
 20
5028.272858181992
 30
0.0
 11
11227.74450621572
 21
5028.272858181992
 31
0.0
  0
INSERT
  5
1873A
330
17D1E
100
AcDbEntity
  8
寸法
 62
     0
 48
50.0
370
    -2
100
AcDbBlockReference
  2
_DOTSMALL
 10
8497.744506215727
 20
5028.272858181992
 30
0.0
 41
100.0
 42
100.0
 43
100.0
 50
180.0
  0
INSERT
  5
1873B
330
17D1E
100
AcDbEntity
  8
寸法
 62
     0
 48
50.0
370
    -2
100
AcDbBlockReference
  2
_DOTSMALL
 10
11227.74450621572
 20
5028.272858181992
 30
0.0
 41
100.0
 42
100.0
 43
100.0
  0
MTEXT
  5
1873C
330
17D1E
100
AcDbEntity
  8
寸法
 62
     7
 48
50.0
100
AcDbMText
 10
9862.744506215728
 20
5128.284669205614
 30
0.0
 40
120.0
 41
0.0
 71
     5
 72
     1
  1
\A1;2730
  7
STYLE1
 73
     1
 44
1.0
1001
ACAD
1000
MTEXTBEGIN
1070
    73
1070
     1
1070
    44
1040
1.0
1070
    74
1070
     0
1000
MTEXTEND
  0
POINT
  5
1873D
330
17D1E
100
AcDbEntity
  8
DEFPOINTS
 62
     0
 48
50.0
100
AcDbPoint
 10
8497.744506215727
 20
4412.653589224077
 30
0.0
  0
POINT
  5
1873E
330
17D1E
100
AcDbEntity
  8
DEFPOINTS
 62
     0
 48
50.0
100
AcDbPoint
 10
11227.74450621572
 20
4412.653589224077
 30
0.0
  0
POINT
  5
1873F
330
17D1E
100
AcDbEntity
  8
DEFPOINTS
 62
     0
 48
50.0
100
AcDbPoint
 10
11227.74450621572
 20
5028.272858181992
 30
0.0
  0
ENDBLK
  5
17D29
330
17D1E
100
AcDbEntity
  8
0
 48
50.0
100
AcDbBlockEnd
  0
BLOCK
  5
17D36
330
17D2A
100
AcDbEntity
  8
0
 48
50.0
100
AcDbBlockBegin
  2
*D3
 70
     1
 10
0.0
 20
0.0
 30
0.0
  3
*D3
  1

  0
LINE
  5
1872C
330
17D2A
100
AcDbEntity
  8
寸法
 62
     0
 48
50.0
370
    -2
100
AcDbLine
 10
8547.744506215726
 20
4432.653589224081
 30
0.0
 11
8547.744506215726
 21
4871.746758563547
 31
0.0
  0
LINE
  5
1872D
330
17D2A
100
AcDbEntity
  8
寸法
 62
     0
 48
50.0
370
    -2
100
AcDbLine
 10
8497.744506215727
 20
4432.653589224076
 30
0.0
 11
8497.744506215727
 21
4871.746758563547
 31
0.0
  0
LINE
  5
1872E
330
17D2A
100
AcDbEntity
  8
寸法
 62
     0
 48
50.0
370
    -2
100
AcDbLine
 10
8547.744506215726
 20
4811.746758563548
 30
0.0
 11
8647.744506215728
 21
4811.746758563548
 31
0.0
  0
LINE
  5
1872F
330
17D2A
100
AcDbEntity
  8
寸法
 62
     0
 48
50.0
370
    -2
100
AcDbLine
 10
8497.744506215727
 20
4811.746758563548
 30
0.0
 11
8078.211980746992
 21
4811.746758563548
 31
0.0
  0
LINE
  5
18730
330
17D2A
100
AcDbEntity
  8
寸法
 62
     0
 48
50.0
370
    -2
100
AcDbLine
 10
8547.744506215726
 20
4811.746758563548
 30
0.0
 11
8497.744506215727
 21
4811.746758563548
 31
0.0
  0
INSERT
  5
18731
330
17D2A
100
AcDbEntity
  8
寸法
 62
     0
 48
50.0
370
    -2
100
AcDbBlockReference
  2
_DOTSMALL
 10
8547.744506215726
 20
4811.746758563548
 30
0.0
 41
100.0
 42
100.0
 43
100.0
 50
180.0
  0
INSERT
  5
18732
330
17D2A
100
AcDbEntity
  8
寸法
 62
     0
 48
50.0
370
    -2
100
AcDbBlockReference
  2
_DOTSMALL
 10
8497.744506215727
 20
4811.746758563548
 30
0.0
 41
100.0
 42
100.0
 43
100.0
  0
MTEXT
  5
18733
330
17D2A
100
AcDbEntity
  8
寸法
 62
     7
 48
50.0
100
AcDbMText
 10
8184.259224841481
 20
4911.746758563548
 30
0.0
 40
120.0
 41
0.0
 71
     5
 72
     1
  1
\A1;50
  7
STYLE1
 73
     1
 44
1.0
1001
ACAD
1000
MTEXTBEGIN
1070
    73
1070
     1
1070
    44
1040
1.0
1070
    74
1070
     0
1000
MTEXTEND
  0
POINT
  5
18734
330
17D2A
100
AcDbEntity
  8
DEFPOINTS
 62
     0
 48
50.0
100
AcDbPoint
 10
8547.744506215726
 20
4412.65358922408
 30
0.0
  0
POINT
  5
18735
330
17D2A
100
AcDbEntity
  8
DEFPOINTS
 62
     0
 48
50.0
100
AcDbPoint
 10
8497.744506215727
 20
4412.653589224077
 30
0.0
  0
POINT
  5
18736
330
17D2A
100
AcDbEntity
  8
DEFPOINTS
 62
     0
 48
50.0
100
AcDbPoint
 10
8497.744506215727
 20
4811.746758563548
 30
0.0
  0
ENDBLK
  5
17D37
330
17D2A
100
AcDbEntity
  8
0
 48
50.0
100
AcDbBlockEnd
  0
BLOCK
  5
17D42
330
17D38
100
AcDbEntity
  8
0
 48
50.0
100
AcDbBlockBegin
  2
*D4
 70
     1
 10
0.0
 20
0.0
 30
0.0
  3
*D4
  1

  0
LINE
  5
18723
330
17D38
100
AcDbEntity
  8
寸法
 62
     0
 48
50.0
370
    -2
100
AcDbLine
 10
11177.74450621572
 20
4432.653589224076
 30
0.0
 11
11177.74450621572
 21
4871.746758563544
 31
0.0
  0
LINE
  5
18724
330
17D38
100
AcDbEntity
  8
寸法
 62
     0
 48
50.0
370
    -2
100
AcDbLine
 10
8547.744506215726
 20
4432.653589224081
 30
0.0
 11
8547.744506215726
 21
4871.746758563544
 31
0.0
  0
LINE
  5
18725
330
17D38
100
AcDbEntity
  8
寸法
 62
     0
 48
50.0
370
    -2
100
AcDbLine
 10
11177.74450621572
 20
4811.746758563543
 30
0.0
 11
8547.744506215726
 21
4811.746758563543
 31
0.0
  0
INSERT
  5
18726
330
17D38
100
AcDbEntity
  8
寸法
 62
     0
 48
50.0
370
    -2
100
AcDbBlockReference
  2
_DOTSMALL
 10
11177.74450621572
 20
4811.746758563543
 30
0.0
 41
100.0
 42
100.0
 43
100.0
  0
INSERT
  5
18727
330
17D38
100
AcDbEntity
  8
寸法
 62
     0
 48
50.0
370
    -2
100
AcDbBlockReference
  2
_DOTSMALL
 10
8547.744506215726
 20
4811.746758563543
 30
0.0
 41
100.0
 42
100.0
 43
100.0
 50
180.0
  0
MTEXT
  5
18728
330
17D38
100
AcDbEntity
  8
寸法
 62
     7
 48
50.0
100
AcDbMText
 10
9862.744506215726
 20
4911.758569587166
 30
0.0
 40
120.0
 41
0.0
 71
     5
 72
     1
  1
\A1;柱外寸法2630
  7
STYLE1
 73
     1
 44
1.0
1001
ACAD
1000
MTEXTBEGIN
1070
    73
1070
     1
1070
    44
1040
1.0
1070
    74
1070
     0
1000
MTEXTEND
  0
POINT
  5
18729
330
17D38
100
AcDbEntity
  8
DEFPOINTS
 62
     0
 48
50.0
100
AcDbPoint
 10
11177.74450621572
 20
4412.653589224077
 30
0.0
  0
POINT
  5
1872A
330
17D38
100
AcDbEntity
  8
DEFPOINTS
 62
     0
 48
50.0
100
AcDbPoint
 10
8547.744506215726
 20
4412.65358922408
 30
0.0
  0
POINT
  5
1872B
330
17D38
100
AcDbEntity
  8
DEFPOINTS
 62
     0
 48
50.0
100
AcDbPoint
 10
8547.744506215726
 20
4811.746758563543
 30
0.0
  0
ENDBLK
  5
17D43
330
17D38
100
AcDbEntity
  8
0
 48
50.0
100
AcDbBlockEnd
  0
BLOCK
  5
17D5C
330
17D50
100
AcDbEntity
  8
0
 48
50.0
100
AcDbBlockBegin
  2
*D5
 70
     1
 10
0.0
 20
0.0
 30
0.0
  3
*D5
  1

  0
LINE
  5
18E07
330
17D50
100
AcDbEntity
  8
寸法
 62
     0
 48
50.0
370
    -2
100
AcDbLine
 10
11197.74450621574
 20
10009.59570747249
 30
0.0
 11
11937.74450621573
 21
10009.59570747249
 31
0.0
  0
LINE
  5
18E08
330
17D50
100
AcDbEntity
  8
寸法
 62
     0
 48
50.0
370
    -2
100
AcDbLine
 10
11197.74450621574
 20
9954.595707472496
 30
0.0
 11
11937.74450621573
 21
9954.595707472496
 31
0.0
  0
LINE
  5
18E09
330
17D50
100
AcDbEntity
  8
寸法
 62
     0
 48
50.0
370
    -2
100
AcDbLine
 10
11877.74450621573
 20
9954.595707472496
 30
0.0
 11
11877.74450621573
 21
9854.595707472496
 31
0.0
  0
LINE
  5
18E0A
330
17D50
100
AcDbEntity
  8
寸法
 62
     0
 48
50.0
370
    -2
100
AcDbLine
 10
11877.74450621573
 20
10009.59570747249
 30
0.0
 11
11877.74450621573
 21
10426.56627022097
 31
0.0
  0
LINE
  5
18E0B
330
17D50
100
AcDbEntity
  8
寸法
 62
     0
 48
50.0
370
    -2
100
AcDbLine
 10
11877.74450621573
 20
9954.595707472496
 30
0.0
 11
11877.74450621573
 21
10009.59570747249
 31
0.0
  0
INSERT
  5
18E0C
330
17D50
100
AcDbEntity
  8
寸法
 62
     0
 48
50.0
370
    -2
100
AcDbBlockReference
  2
_DOTSMALL
 10
11877.74450621573
 20
9954.595707472496
 30
0.0
 41
100.0
 42
100.0
 43
100.0
 50
90.0
  0
INSERT
  5
18E0D
330
17D50
100
AcDbEntity
  8
寸法
 62
     0
 48
50.0
370
    -2
100
AcDbBlockReference
  2
_DOTSMALL
 10
11877.74450621573
 20
10009.59570747249
 30
0.0
 41
100.0
 42
100.0
 43
100.0
 50
270.0
  0
MTEXT
  5
18E0E
330
17D50
100
AcDbEntity
  8
寸法
 62
     7
 48
50.0
100
AcDbMText
 10
11777.74450621573
 20
10318.08098884673
 30
0.0
 40
120.0
 41
0.0
 71
     5
 72
     1
  1
\A1;55
  7
STYLE1
 11
0.0000000000000001
 21
1.0
 31
0.0
 73
     1
 44
1.0
1001
ACAD
1000
MTEXTBEGIN
1070
    73
1070
     1
1070
    44
1040
1.0
1070
    74
1070
     0
1000
MTEXTEND
  0
POINT
  5
18E0F
330
17D50
100
AcDbEntity
  8
DEFPOINTS
 62
     0
 48
50.0
100
AcDbPoint
 10
11177.74450621574
 20
10009.59570747249
 30
0.0
  0
POINT
  5
18E10
330
17D50
100
AcDbEntity
  8
DEFPOINTS
 62
     0
 48
50.0
100
AcDbPoint
 10
11177.74450621574
 20
9954.595707472496
 30
0.0
  0
POINT
  5
18E11
330
17D50
100
AcDbEntity
  8
DEFPOINTS
 62
     0
 48
50.0
100
AcDbPoint
 10
11877.74450621573
 20
9954.595707472496
 30
0.0
  0
ENDBLK
  5
17D5D
330
17D50
100
AcDbEntity
  8
0
 48
50.0
100
AcDbBlockEnd
  0
BLOCK
  5
17D68
330
17D5E
100
AcDbEntity
  8
0
 48
50.0
100
AcDbBlockBegin
  2
*D6
 70
     1
 10
0.0
 20
0.0
 30
0.0
  3
*D6
  1

  0
LINE
  5
18DFE
330
17D5E
100
AcDbEntity
  8
寸法
 62
     0
 48
50.0
370
    -2
100
AcDbLine
 10
11169.24450621574
 20
9974.236723623869
 30
0.0
 11
11637.74450621573
 21
9848.702526969891
 31
0.0
  0
LINE
  5
18DFF
330
17D5E
100
AcDbEntity
  8
寸法
 62
     0
 48
50.0
370
    -2
100
AcDbLine
 10
11169.24450621574
 20
9524.236723623873
 30
0.0
 11
11637.74450621573
 21
9398.702526969893
 31
0.0
  0
LINE
  5
18E00
330
17D5E
100
AcDbEntity
  8
寸法
 62
     0
 48
50.0
370
    -2
100
AcDbLine
 10
11577.74450621573
 20
9864.779478515757
 30
0.0
 11
11577.74450621573
 21
9414.779478515759
 31
0.0
  0
INSERT
  5
18E01
330
17D5E
100
AcDbEntity
  8
寸法
 62
     0
 48
50.0
370
    -2
100
AcDbBlockReference
  2
_DOTSMALL
 10
11577.74450621573
 20
9864.779478515757
 30
0.0
 41
100.0
 42
100.0
 43
100.0
 50
90.0
  0
INSERT
  5
18E02
330
17D5E
100
AcDbEntity
  8
寸法
 62
     0
 48
50.0
370
    -2
100
AcDbBlockReference
  2
_DOTSMALL
 10
11577.74450621573
 20
9414.779478515759
 30
0.0
 41
100.0
 42
100.0
 43
100.0
 50
270.0
  0
MTEXT
  5
18E03
330
17D5E
100
AcDbEntity
  8
寸法
 62
     7
 48
50.0
100
AcDbMText
 10
11477.74450621573
 20
9639.779478515759
 30
0.0
 40
120.0
 41
0.0
 71
     5
 72
     1
  1
\A1;450
  7
STYLE1
 11
0.0000000000000001
 21
1.0
 31
0.0
 73
     1
 44
1.0
1001
ACAD
1000
MTEXTBEGIN
1070
    73
1070
     1
1070
    44
1040
1.0
1070
    74
1070
     0
1000
MTEXTEND
  0
POINT
  5
18E04
330
17D5E
100
AcDbEntity
  8
DEFPOINTS
 62
     0
 48
50.0
100
AcDbPoint
 10
11149.24450621574
 20
9979.595707472492
 30
0.0
  0
POINT
  5
18E05
330
17D5E
100
AcDbEntity
  8
DEFPOINTS
 62
     0
 48
50.0
100
AcDbPoint
 10
11149.24450621574
 20
9529.595707472495
 30
0.0
  0
POINT
  5
18E06
330
17D5E
100
AcDbEntity
  8
DEFPOINTS
 62
     0
 48
50.0
100
AcDbPoint
 10
11577.74450621573
 20
9414.779478515759
 30
0.0
  0
ENDBLK
  5
17D69
330
17D5E
100
AcDbEntity
  8
0
 48
50.0
100
AcDbBlockEnd
  0
BLOCK
  5
17D76
330
17D6A
100
AcDbEntity
  8
0
 48
50.0
100
AcDbBlockBegin
  2
*D7
 70
     1
 10
0.0
 20
0.0
 30
0.0
  3
*D7
  1

  0
LINE
  5
18DF3
330
17D6A
100
AcDbEntity
  8
寸法
 62
     0
 48
50.0
370
    -2
100
AcDbLine
 10
11197.74450621571
 20
7434.595707472478
 30
0.0
 11
11937.74450621571
 21
7434.595707472478
 31
0.0
  0
LINE
  5
18DF4
330
17D6A
100
AcDbEntity
  8
寸法
 62
     0
 48
50.0
370
    -2
100
AcDbLine
 10
11197.74450621571
 20
7379.595707472481
 30
0.0
 11
11937.74450621571
 21
7379.595707472481
 31
0.0
  0
LINE
  5
18DF5
330
17D6A
100
AcDbEntity
  8
寸法
 62
     0
 48
50.0
370
    -2
100
AcDbLine
 10
11877.74450621571
 20
7434.595707472478
 30
0.0
 11
11877.74450621571
 21
7534.595707472478
 31
0.0
  0
LINE
  5
18DF6
330
17D6A
100
AcDbEntity
  8
寸法
 62
     0
 48
50.0
370
    -2
100
AcDbLine
 10
11877.74450621571
 20
7379.595707472481
 30
0.0
 11
11877.74450621571
 21
6962.62514472399
 31
0.0
  0
LINE
  5
18DF7
330
17D6A
100
AcDbEntity
  8
寸法
 62
     0
 48
50.0
370
    -2
100
AcDbLine
 10
11877.74450621571
 20
7434.595707472478
 30
0.0
 11
11877.74450621571
 21
7379.595707472481
 31
0.0
  0
INSERT
  5
18DF8
330
17D6A
100
AcDbEntity
  8
寸法
 62
     0
 48
50.0
370
    -2
100
AcDbBlockReference
  2
_DOTSMALL
 10
11877.74450621571
 20
7434.595707472478
 30
0.0
 41
100.0
 42
100.0
 43
100.0
 50
270.0
  0
INSERT
  5
18DF9
330
17D6A
100
AcDbEntity
  8
寸法
 62
     0
 48
50.0
370
    -2
100
AcDbBlockReference
  2
_DOTSMALL
 10
11877.74450621571
 20
7379.595707472481
 30
0.0
 41
100.0
 42
100.0
 43
100.0
 50
90.0
  0
MTEXT
  5
18DFA
330
17D6A
100
AcDbEntity
  8
寸法
 62
     7
 48
50.0
100
AcDbMText
 10
11777.74450621571
 20
7071.110426098231
 30
0.0
 40
120.0
 41
0.0
 71
     5
 72
     1
  1
\A1;55
  7
STYLE1
 11
0.0000000000000001
 21
1.0
 31
0.0
 73
     1
 44
1.0
1001
ACAD
1000
MTEXTBEGIN
1070
    73
1070
     1
1070
    44
1040
1.0
1070
    74
1070
     0
1000
MTEXTEND
  0
POINT
  5
18DFB
330
17D6A
100
AcDbEntity
  8
DEFPOINTS
 62
     0
 48
50.0
100
AcDbPoint
 10
11177.74450621571
 20
7434.595707472478
 30
0.0
  0
POINT
  5
18DFC
330
17D6A
100
AcDbEntity
  8
DEFPOINTS
 62
     0
 48
50.0
100
AcDbPoint
 10
11177.74450621571
 20
7379.595707472481
 30
0.0
  0
POINT
  5
18DFD
330
17D6A
100
AcDbEntity
  8
DEFPOINTS
 62
     0
 48
50.0
100
AcDbPoint
 10
11877.74450621571
 20
7379.595707472481
 30
0.0
  0
ENDBLK
  5
17D77
330
17D6A
100
AcDbEntity
  8
0
 48
50.0
100
AcDbBlockEnd
  0
BLOCK
  5
17D82
330
17D78
100
AcDbEntity
  8
0
 48
50.0
100
AcDbBlockBegin
  2
*D8
 70
     1
 10
0.0
 20
0.0
 30
0.0
  3
*D8
  1

  0
LINE
  5
18DEA
330
17D78
100
AcDbEntity
  8
寸法
 62
     0
 48
50.0
370
    -2
100
AcDbLine
 10
11197.74450621574
 20
9954.595707472496
 30
0.0
 11
11937.74450621573
 21
9954.595707472496
 31
0.0
  0
LINE
  5
18DEB
330
17D78
100
AcDbEntity
  8
寸法
 62
     0
 48
50.0
370
    -2
100
AcDbLine
 10
11197.74450621571
 20
7434.595707472478
 30
0.0
 11
11937.74450621573
 21
7434.595707472478
 31
0.0
  0
LINE
  5
18DEC
330
17D78
100
AcDbEntity
  8
寸法
 62
     0
 48
50.0
370
    -2
100
AcDbLine
 10
11877.74450621573
 20
9954.595707472496
 30
0.0
 11
11877.74450621573
 21
7434.595707472478
 31
0.0
  0
INSERT
  5
18DED
330
17D78
100
AcDbEntity
  8
寸法
 62
     0
 48
50.0
370
    -2
100
AcDbBlockReference
  2
_DOTSMALL
 10
11877.74450621573
 20
9954.595707472496
 30
0.0
 41
100.0
 42
100.0
 43
100.0
 50
90.0
  0
INSERT
  5
18DEE
330
17D78
100
AcDbEntity
  8
寸法
 62
     0
 48
50.0
370
    -2
100
AcDbBlockReference
  2
_DOTSMALL
 10
11877.74450621573
 20
7434.595707472478
 30
0.0
 41
100.0
 42
100.0
 43
100.0
 50
270.0
  0
MTEXT
  5
18DEF
330
17D78
100
AcDbEntity
  8
寸法
 62
     7
 48
50.0
100
AcDbMText
 10
11777.7326951921
 20
8694.595707472487
 30
0.0
 40
120.0
 41
0.0
 71
     5
 72
     1
  1
\A1;6X420=2520
  7
STYLE1
 11
0.0000000000000001
 21
1.0
 31
0.0
 73
     1
 44
1.0
1001
ACAD
1000
MTEXTBEGIN
1070
    73
1070
     1
1070
    44
1040
1.0
1070
    74
1070
     0
1000
MTEXTEND
  0
POINT
  5
18DF0
330
17D78
100
AcDbEntity
  8
DEFPOINTS
 62
     0
 48
50.0
100
AcDbPoint
 10
11177.74450621574
 20
9954.595707472496
 30
0.0
  0
POINT
  5
18DF1
330
17D78
100
AcDbEntity
  8
DEFPOINTS
 62
     0
 48
50.0
100
AcDbPoint
 10
11177.74450621571
 20
7434.595707472478
 30
0.0
  0
POINT
  5
18DF2
330
17D78
100
AcDbEntity
  8
DEFPOINTS
 62
     0
 48
50.0
100
AcDbPoint
 10
11877.74450621573
 20
7434.595707472478
 30
0.0
  0
ENDBLK
  5
17D83
330
17D78
100
AcDbEntity
  8
0
 48
50.0
100
AcDbBlockEnd
  0
BLOCK
  5
17D8E
330
17D84
100
AcDbEntity
  8
0
 48
50.0
100
AcDbBlockBegin
  2
*D9
 70
     1
 10
0.0
 20
0.0
 30
0.0
  3
*D9
  1

  0
LINE
  5
18DE1
330
17D84
100
AcDbEntity
  8
寸法
 62
     0
 48
50.0
370
    -2
100
AcDbLine
 10
11197.74450621574
 20
10009.59570747249
 30
0.0
 11
12237.74450621574
 21
10009.59570747249
 31
0.0
  0
LINE
  5
18DE2
330
17D84
100
AcDbEntity
  8
寸法
 62
     0
 48
50.0
370
    -2
100
AcDbLine
 10
11197.74450621571
 20
7379.595707472481
 30
0.0
 11
12237.74450621574
 21
7379.595707472481
 31
0.0
  0
LINE
  5
18DE3
330
17D84
100
AcDbEntity
  8
寸法
 62
     0
 48
50.0
370
    -2
100
AcDbLine
 10
12177.74450621574
 20
10009.59570747249
 30
0.0
 11
12177.74450621574
 21
7379.595707472481
 31
0.0
  0
INSERT
  5
18DE4
330
17D84
100
AcDbEntity
  8
寸法
 62
     0
 48
50.0
370
    -2
100
AcDbBlockReference
  2
_DOTSMALL
 10
12177.74450621574
 20
10009.59570747249
 30
0.0
 41
100.0
 42
100.0
 43
100.0
 50
90.0
  0
INSERT
  5
18DE5
330
17D84
100
AcDbEntity
  8
寸法
 62
     0
 48
50.0
370
    -2
100
AcDbBlockReference
  2
_DOTSMALL
 10
12177.74450621574
 20
7379.595707472481
 30
0.0
 41
100.0
 42
100.0
 43
100.0
 50
270.0
  0
MTEXT
  5
18DE6
330
17D84
100
AcDbEntity
  8
寸法
 62
     7
 48
50.0
100
AcDbMText
 10
12077.73269519212
 20
8694.595707472487
 30
0.0
 40
120.0
 41
0.0
 71
     5
 72
     1
  1
\A1;2630
  7
STYLE1
 11
0.0000000000000001
 21
1.0
 31
0.0
 73
     1
 44
1.0
1001
ACAD
1000
MTEXTBEGIN
1070
    73
1070
     1
1070
    44
1040
1.0
1070
    74
1070
     0
1000
MTEXTEND
  0
POINT
  5
18DE7
330
17D84
100
AcDbEntity
  8
DEFPOINTS
 62
     0
 48
50.0
100
AcDbPoint
 10
11177.74450621574
 20
10009.59570747249
 30
0.0
  0
POINT
  5
18DE8
330
17D84
100
AcDbEntity
  8
DEFPOINTS
 62
     0
 48
50.0
100
AcDbPoint
 10
11177.74450621571
 20
7379.595707472481
 30
0.0
  0
POINT
  5
18DE9
330
17D84
100
AcDbEntity
  8
DEFPOINTS
 62
     0
 48
50.0
100
AcDbPoint
 10
12177.74450621574
 20
7379.595707472481
 30
0.0
  0
ENDBLK
  5
17D8F
330
17D84
100
AcDbEntity
  8
0
 48
50.0
100
AcDbBlockEnd
  0
BLOCK
  5
17D9A
330
17D90
100
AcDbEntity
  8
0
 48
50.0
100
AcDbBlockBegin
  2
*D10
 70
     1
 10
0.0
 20
0.0
 30
0.0
  3
*D10
  1

  0
LINE
  5
18DD8
330
17D90
100
AcDbEntity
  8
寸法
 62
     0
 48
50.0
370
    -2
100
AcDbLine
 10
9869.885522367116
 20
9509.595707472504
 30
0.0
 11
9773.433622833856
 21
9149.632317927846
 31
0.0
  0
LINE
  5
18DD9
330
17D90
100
AcDbEntity
  8
寸法
 62
     0
 48
50.0
370
    -2
100
AcDbLine
 10
11142.88552236712
 20
9509.595707472497
 30
0.0
 11
11046.43362283386
 21
9149.632317927846
 31
0.0
  0
LINE
  5
18DDA
330
17D90
100
AcDbEntity
  8
寸法
 62
     0
 48
50.0
370
    -2
100
AcDbLine
 10
9789.510574379724
 20
9209.632317927846
 30
0.0
 11
11062.51057437973
 21
9209.632317927846
 31
0.0
  0
INSERT
  5
18DDB
330
17D90
100
AcDbEntity
  8
寸法
 62
     0
 48
50.0
370
    -2
100
AcDbBlockReference
  2
_DOTSMALL
 10
9789.510574379724
 20
9209.632317927846
 30
0.0
 41
100.0
 42
100.0
 43
100.0
 50
180.0
  0
INSERT
  5
18DDC
330
17D90
100
AcDbEntity
  8
寸法
 62
     0
 48
50.0
370
    -2
100
AcDbBlockReference
  2
_DOTSMALL
 10
11062.51057437973
 20
9209.632317927846
 30
0.0
 41
100.0
 42
100.0
 43
100.0
  0
MTEXT
  5
18DDD
330
17D90
100
AcDbEntity
  8
寸法
 62
     7
 48
50.0
100
AcDbMText
 10
10495.63241352975
 20
9309.644128951468
 30
0.0
 40
120.0
 41
0.0
 71
     5
 72
     1
  1
\A1;1273
  7
STYLE1
 73
     1
 44
1.0
1001
ACAD
1000
MTEXTBEGIN
1070
    73
1070
     1
1070
    44
1040
1.0
1070
    74
1070
     0
1000
MTEXTEND
  0
POINT
  5
18DDE
330
17D90
100
AcDbEntity
  8
DEFPOINTS
 62
     0
 48
50.0
100
AcDbPoint
 10
9875.244506215739
 20
9529.595707472502
 30
0.0
  0
POINT
  5
18DDF
330
17D90
100
AcDbEntity
  8
DEFPOINTS
 62
     0
 48
50.0
100
AcDbPoint
 10
11148.24450621575
 20
9529.595707472495
 30
0.0
  0
POINT
  5
18DE0
330
17D90
100
AcDbEntity
  8
DEFPOINTS
 62
     0
 48
50.0
100
AcDbPoint
 10
11062.51057437973
 20
9209.632317927846
 30
0.0
  0
ENDBLK
  5
17D9B
330
17D90
100
AcDbEntity
  8
0
 48
50.0
100
AcDbBlockEnd
  0
BLOCK
  5
17DB2
330
17DA8
100
AcDbEntity
  8
0
 48
50.0
100
AcDbBlockBegin
  2
*D11
 70
     1
 10
0.0
 20
0.0
 30
0.0
  3
*D11
  1

  0
LINE
  5
18DCF
330
17DA8
100
AcDbEntity
  8
寸法
 62
     0
 48
50.0
370
    -2
100
AcDbLine
 10
8602.744506215739
 20
10029.5957074724
 30
0.0
 11
8602.744506215739
 21
10369.5957074724
 31
0.0
  0
LINE
  5
18DD0
330
17DA8
100
AcDbEntity
  8
寸法
 62
     0
 48
50.0
370
    -2
100
AcDbLine
 10
11122.74450621574
 20
10029.59570747249
 30
0.0
 11
11122.74450621574
 21
10369.5957074724
 31
0.0
  0
LINE
  5
18DD1
330
17DA8
100
AcDbEntity
  8
寸法
 62
     0
 48
50.0
370
    -2
100
AcDbLine
 10
8602.744506215739
 20
10309.5957074724
 30
0.0
 11
11122.74450621574
 21
10309.5957074724
 31
0.0
  0
INSERT
  5
18DD2
330
17DA8
100
AcDbEntity
  8
寸法
 62
     0
 48
50.0
370
    -2
100
AcDbBlockReference
  2
_DOTSMALL
 10
8602.744506215739
 20
10309.5957074724
 30
0.0
 41
100.0
 42
100.0
 43
100.0
 50
180.0
  0
INSERT
  5
18DD3
330
17DA8
100
AcDbEntity
  8
寸法
 62
     0
 48
50.0
370
    -2
100
AcDbBlockReference
  2
_DOTSMALL
 10
11122.74450621574
 20
10309.5957074724
 30
0.0
 41
100.0
 42
100.0
 43
100.0
  0
MTEXT
  5
18DD4
330
17DA8
100
AcDbEntity
  8
寸法
 62
     7
 48
50.0
100
AcDbMText
 10
9862.744506215735
 20
10409.60751849602
 30
0.0
 40
120.0
 41
0.0
 71
     5
 72
     1
  1
\A1;6X420=2520
  7
STYLE1
 73
     1
 44
1.0
1001
ACAD
1000
MTEXTBEGIN
1070
    73
1070
     1
1070
    44
1040
1.0
1070
    74
1070
     0
1000
MTEXTEND
  0
POINT
  5
18DD5
330
17DA8
100
AcDbEntity
  8
DEFPOINTS
 62
     0
 48
50.0
100
AcDbPoint
 10
8602.744506215739
 20
10009.5957074724
 30
0.0
  0
POINT
  5
18DD6
330
17DA8
100
AcDbEntity
  8
DEFPOINTS
 62
     0
 48
50.0
100
AcDbPoint
 10
11122.74450621574
 20
10009.59570747249
 30
0.0
  0
POINT
  5
18DD7
330
17DA8
100
AcDbEntity
  8
DEFPOINTS
 62
     0
 48
50.0
100
AcDbPoint
 10
11122.74450621574
 20
10309.5957074724
 30
0.0
  0
ENDBLK
  5
17DB3
330
17DA8
100
AcDbEntity
  8
0
 48
50.0
100
AcDbBlockEnd
  0
BLOCK
  5
17DC0
330
17DB4
100
AcDbEntity
  8
0
 48
50.0
100
AcDbBlockBegin
  2
*D12
 70
     1
 10
0.0
 20
0.0
 30
0.0
  3
*D12
  1

  0
LINE
  5
18DC4
330
17DB4
100
AcDbEntity
  8
寸法
 62
     0
 48
50.0
370
    -2
100
AcDbLine
 10
11122.74450621574
 20
10029.59570747249
 30
0.0
 11
11122.74450621574
 21
10369.5957074724
 31
0.0
  0
LINE
  5
18DC5
330
17DB4
100
AcDbEntity
  8
寸法
 62
     0
 48
50.0
370
    -2
100
AcDbLine
 10
11177.74450621574
 20
10029.59570747249
 30
0.0
 11
11177.74450621574
 21
10369.5957074724
 31
0.0
  0
LINE
  5
18DC6
330
17DB4
100
AcDbEntity
  8
寸法
 62
     0
 48
50.0
370
    -2
100
AcDbLine
 10
11122.74450621574
 20
10309.5957074724
 30
0.0
 11
11022.74450621574
 21
10309.5957074724
 31
0.0
  0
LINE
  5
18DC7
330
17DB4
100
AcDbEntity
  8
寸法
 62
     0
 48
50.0
370
    -2
100
AcDbLine
 10
11177.74450621574
 20
10309.5957074724
 30
0.0
 11
11594.71506896421
 21
10309.5957074724
 31
0.0
  0
LINE
  5
18DC8
330
17DB4
100
AcDbEntity
  8
寸法
 62
     0
 48
50.0
370
    -2
100
AcDbLine
 10
11122.74450621574
 20
10309.5957074724
 30
0.0
 11
11177.74450621574
 21
10309.5957074724
 31
0.0
  0
INSERT
  5
18DC9
330
17DB4
100
AcDbEntity
  8
寸法
 62
     0
 48
50.0
370
    -2
100
AcDbBlockReference
  2
_DOTSMALL
 10
11122.74450621574
 20
10309.5957074724
 30
0.0
 41
100.0
 42
100.0
 43
100.0
  0
INSERT
  5
18DCA
330
17DB4
100
AcDbEntity
  8
寸法
 62
     0
 48
50.0
370
    -2
100
AcDbBlockReference
  2
_DOTSMALL
 10
11177.74450621574
 20
10309.5957074724
 30
0.0
 41
100.0
 42
100.0
 43
100.0
 50
180.0
  0
MTEXT
  5
18DCB
330
17DB4
100
AcDbEntity
  8
寸法
 62
     7
 48
50.0
100
AcDbMText
 10
11486.22978758998
 20
10409.5957074724
 30
0.0
 40
120.0
 41
0.0
 71
     5
 72
     1
  1
\A1;55
  7
STYLE1
 73
     1
 44
1.0
1001
ACAD
1000
MTEXTBEGIN
1070
    73
1070
     1
1070
    44
1040
1.0
1070
    74
1070
     0
1000
MTEXTEND
  0
POINT
  5
18DCC
330
17DB4
100
AcDbEntity
  8
DEFPOINTS
 62
     0
 48
50.0
100
AcDbPoint
 10
11122.74450621574
 20
10009.59570747249
 30
0.0
  0
POINT
  5
18DCD
330
17DB4
100
AcDbEntity
  8
DEFPOINTS
 62
     0
 48
50.0
100
AcDbPoint
 10
11177.74450621574
 20
10009.59570747249
 30
0.0
  0
POINT
  5
18DCE
330
17DB4
100
AcDbEntity
  8
DEFPOINTS
 62
     0
 48
50.0
100
AcDbPoint
 10
11177.74450621574
 20
10309.5957074724
 30
0.0
  0
ENDBLK
  5
17DC1
330
17DB4
100
AcDbEntity
  8
0
 48
50.0
100
AcDbBlockEnd
  0
BLOCK
  5
17DCC
330
17DC2
100
AcDbEntity
  8
0
 48
50.0
100
AcDbBlockBegin
  2
*D13
 70
     1
 10
0.0
 20
0.0
 30
0.0
  3
*D13
  1

  0
LINE
  5
18DBB
330
17DC2
100
AcDbEntity
  8
寸法
 62
     0
 48
50.0
370
    -2
100
AcDbLine
 10
8569.885522367048
 20
9509.595707472445
 30
0.0
 11
8473.433622833802
 21
9149.632317927846
 31
0.0
  0
LINE
  5
18DBC
330
17DC2
100
AcDbEntity
  8
寸法
 62
     0
 48
50.0
370
    -2
100
AcDbLine
 10
9842.885522367117
 20
9509.595707472438
 30
0.0
 11
9746.433622833873
 21
9149.632317927846
 31
0.0
  0
LINE
  5
18DBD
330
17DC2
100
AcDbEntity
  8
寸法
 62
     0
 48
50.0
370
    -2
100
AcDbLine
 10
8489.51057437967
 20
9209.632317927846
 30
0.0
 11
9762.510574379739
 21
9209.632317927846
 31
0.0
  0
INSERT
  5
18DBE
330
17DC2
100
AcDbEntity
  8
寸法
 62
     0
 48
50.0
370
    -2
100
AcDbBlockReference
  2
_DOTSMALL
 10
8489.51057437967
 20
9209.632317927846
 30
0.0
 41
100.0
 42
100.0
 43
100.0
 50
180.0
  0
INSERT
  5
18DBF
330
17DC2
100
AcDbEntity
  8
寸法
 62
     0
 48
50.0
370
    -2
100
AcDbBlockReference
  2
_DOTSMALL
 10
9762.510574379739
 20
9209.632317927846
 30
0.0
 41
100.0
 42
100.0
 43
100.0
  0
MTEXT
  5
18DC0
330
17DC2
100
AcDbEntity
  8
寸法
 62
     7
 48
50.0
100
AcDbMText
 10
9126.010574379705
 20
9309.644128951468
 30
0.0
 40
120.0
 41
0.0
 71
     5
 72
     1
  1
\A1;1273
  7
STYLE1
 73
     1
 44
1.0
1001
ACAD
1000
MTEXTBEGIN
1070
    73
1070
     1
1070
    44
1040
1.0
1070
    74
1070
     0
1000
MTEXTEND
  0
POINT
  5
18DC1
330
17DC2
100
AcDbEntity
  8
DEFPOINTS
 62
     0
 48
50.0
100
AcDbPoint
 10
8575.244506215669
 20
9529.595707472445
 30
0.0
  0
POINT
  5
18DC2
330
17DC2
100
AcDbEntity
  8
DEFPOINTS
 62
     0
 48
50.0
100
AcDbPoint
 10
9848.244506215738
 20
9529.595707472436
 30
0.0
  0
POINT
  5
18DC3
330
17DC2
100
AcDbEntity
  8
DEFPOINTS
 62
     0
 48
50.0
100
AcDbPoint
 10
9762.510574379739
 20
9209.632317927846
 30
0.0
  0
ENDBLK
  5
17DCD
330
17DC2
100
AcDbEntity
  8
0
 48
50.0
100
AcDbBlockEnd
  0
BLOCK
  5
17DDA
330
17DCE
100
AcDbEntity
  8
0
 48
50.0
100
AcDbBlockBegin
  2
*D14
 70
     1
 10
0.0
 20
0.0
 30
0.0
  3
*D14
  1

  0
LINE
  5
18DB0
330
17DCE
100
AcDbEntity
  8
寸法
 62
     0
 48
50.0
370
    -2
100
AcDbLine
 10
8547.744506215702
 20
10029.5957074724
 30
0.0
 11
8547.744506215702
 21
10369.5957074724
 31
0.0
  0
LINE
  5
18DB1
330
17DCE
100
AcDbEntity
  8
寸法
 62
     0
 48
50.0
370
    -2
100
AcDbLine
 10
8602.744506215739
 20
10029.5957074724
 30
0.0
 11
8602.744506215739
 21
10369.5957074724
 31
0.0
  0
LINE
  5
18DB2
330
17DCE
100
AcDbEntity
  8
寸法
 62
     0
 48
50.0
370
    -2
100
AcDbLine
 10
8602.744506215739
 20
10309.5957074724
 30
0.0
 11
8702.744506215738
 21
10309.5957074724
 31
0.0
  0
LINE
  5
18DB3
330
17DCE
100
AcDbEntity
  8
寸法
 62
     0
 48
50.0
370
    -2
100
AcDbLine
 10
8547.744506215702
 20
10309.5957074724
 30
0.0
 11
8130.773943467225
 21
10309.5957074724
 31
0.0
  0
LINE
  5
18DB4
330
17DCE
100
AcDbEntity
  8
寸法
 62
     0
 48
50.0
370
    -2
100
AcDbLine
 10
8602.744506215739
 20
10309.5957074724
 30
0.0
 11
8547.744506215702
 21
10309.5957074724
 31
0.0
  0
INSERT
  5
18DB5
330
17DCE
100
AcDbEntity
  8
寸法
 62
     0
 48
50.0
370
    -2
100
AcDbBlockReference
  2
_DOTSMALL
 10
8602.744506215739
 20
10309.5957074724
 30
0.0
 41
100.0
 42
100.0
 43
100.0
 50
180.0
  0
INSERT
  5
18DB6
330
17DCE
100
AcDbEntity
  8
寸法
 62
     0
 48
50.0
370
    -2
100
AcDbBlockReference
  2
_DOTSMALL
 10
8547.744506215702
 20
10309.5957074724
 30
0.0
 41
100.0
 42
100.0
 43
100.0
  0
MTEXT
  5
18DB7
330
17DCE
100
AcDbEntity
  8
寸法
 62
     7
 48
50.0
100
AcDbMText
 10
8239.259224841465
 20
10409.5957074724
 30
0.0
 40
120.0
 41
0.0
 71
     5
 72
     1
  1
\A1;55
  7
STYLE1
 73
     1
 44
1.0
1001
ACAD
1000
MTEXTBEGIN
1070
    73
1070
     1
1070
    44
1040
1.0
1070
    74
1070
     0
1000
MTEXTEND
  0
POINT
  5
18DB8
330
17DCE
100
AcDbEntity
  8
DEFPOINTS
 62
     0
 48
50.0
100
AcDbPoint
 10
8547.744506215702
 20
10009.5957074724
 30
0.0
  0
POINT
  5
18DB9
330
17DCE
100
AcDbEntity
  8
DEFPOINTS
 62
     0
 48
50.0
100
AcDbPoint
 10
8602.744506215739
 20
10009.5957074724
 30
0.0
  0
POINT
  5
18DBA
330
17DCE
100
AcDbEntity
  8
DEFPOINTS
 62
     0
 48
50.0
100
AcDbPoint
 10
8602.744506215739
 20
10309.5957074724
 30
0.0
  0
ENDBLK
  5
17DDB
330
17DCE
100
AcDbEntity
  8
0
 48
50.0
100
AcDbBlockEnd
  0
BLOCK
  5
17DE6
330
17DDC
100
AcDbEntity
  8
0
 48
50.0
100
AcDbBlockBegin
  2
*D15
 70
     1
 10
0.0
 20
0.0
 30
0.0
  3
*D15
  1

  0
LINE
  5
186A6
330
17DDC
100
AcDbEntity
  8
寸法
 62
     0
 48
50.0
370
    -2
100
AcDbLine
 10
8647.74450621573
 20
2017.653589224074
 30
0.0
 11
8647.74450621573
 21
1691.606259923696
 31
0.0
  0
LINE
  5
186A7
330
17DDC
100
AcDbEntity
  8
寸法
 62
     0
 48
50.0
370
    -2
100
AcDbLine
 10
8447.744506215727
 20
2017.653589224074
 30
0.0
 11
8447.744506215727
 21
1691.606259923696
 31
0.0
  0
LINE
  5
186A8
330
17DDC
100
AcDbEntity
  8
寸法
 62
     0
 48
50.0
370
    -2
100
AcDbLine
 10
8647.74450621573
 20
1751.606259923695
 30
0.0
 11
8447.744506215727
 21
1751.606259923695
 31
0.0
  0
INSERT
  5
186A9
330
17DDC
100
AcDbEntity
  8
寸法
 62
     0
 48
50.0
370
    -2
100
AcDbBlockReference
  2
_DOTSMALL
 10
8647.74450621573
 20
1751.606259923695
 30
0.0
 41
100.0
 42
100.0
 43
100.0
  0
INSERT
  5
186AA
330
17DDC
100
AcDbEntity
  8
寸法
 62
     0
 48
50.0
370
    -2
100
AcDbBlockReference
  2
_DOTSMALL
 10
8447.744506215727
 20
1751.606259923695
 30
0.0
 41
100.0
 42
100.0
 43
100.0
 50
180.0
  0
MTEXT
  5
186AB
330
17DDC
100
AcDbEntity
  8
寸法
 62
     7
 48
50.0
100
AcDbMText
 10
8547.744506215726
 20
1851.618070947318
 30
0.0
 40
120.0
 41
0.0
 71
     5
 72
     1
  1
\A1;200
  7
STYLE1
 73
     1
 44
1.0
1001
ACAD
1000
MTEXTBEGIN
1070
    73
1070
     1
1070
    44
1040
1.0
1070
    74
1070
     0
1000
MTEXTEND
  0
POINT
  5
186AC
330
17DDC
100
AcDbEntity
  8
DEFPOINTS
 62
     0
 48
50.0
100
AcDbPoint
 10
8647.74450621573
 20
2037.653589224074
 30
0.0
  0
POINT
  5
186AD
330
17DDC
100
AcDbEntity
  8
DEFPOINTS
 62
     0
 48
50.0
100
AcDbPoint
 10
8447.744506215727
 20
2037.653589224074
 30
0.0
  0
POINT
  5
186AE
330
17DDC
100
AcDbEntity
  8
DEFPOINTS
 62
     0
 48
50.0
100
AcDbPoint
 10
8447.744506215727
 20
1751.606259923695
 30
0.0
  0
ENDBLK
  5
17DE7
330
17DDC
100
AcDbEntity
  8
0
 48
50.0
100
AcDbBlockEnd
  0
BLOCK
  5
17DF2
330
17DE8
100
AcDbEntity
  8
0
 48
50.0
100
AcDbBlockBegin
  2
*D16
 70
     1
 10
0.0
 20
0.0
 30
0.0
  3
*D16
  1

  0
LINE
  5
1869D
330
17DE8
100
AcDbEntity
  8
寸法
 62
     0
 48
50.0
370
    -2
100
AcDbLine
 10
8975.744506215731
 20
4120.653589224073
 30
0.0
 11
8154.361133996722
 21
4120.653589224073
 31
0.0
  0
LINE
  5
1869E
330
17DE8
100
AcDbEntity
  8
寸法
 62
     0
 48
50.0
370
    -2
100
AcDbLine
 10
8975.744506215731
 20
2395.653589224074
 30
0.0
 11
8154.361133996722
 21
2395.653589224074
 31
0.0
  0
LINE
  5
1869F
330
17DE8
100
AcDbEntity
  8
寸法
 62
     0
 48
50.0
370
    -2
100
AcDbLine
 10
8214.361133996723
 20
4120.653589224073
 30
0.0
 11
8214.361133996721
 21
2395.653589224074
 31
0.0
  0
INSERT
  5
186A0
330
17DE8
100
AcDbEntity
  8
寸法
 62
     0
 48
50.0
370
    -2
100
AcDbBlockReference
  2
_DOTSMALL
 10
8214.361133996723
 20
4120.653589224073
 30
0.0
 41
100.0
 42
100.0
 43
100.0
 50
90.0
  0
INSERT
  5
186A1
330
17DE8
100
AcDbEntity
  8
寸法
 62
     0
 48
50.0
370
    -2
100
AcDbBlockReference
  2
_DOTSMALL
 10
8214.361133996721
 20
2395.653589224074
 30
0.0
 41
100.0
 42
100.0
 43
100.0
 50
270.0
  0
MTEXT
  5
186A2
330
17DE8
100
AcDbEntity
  8
寸法
 62
     7
 48
50.0
100
AcDbMText
 10
8114.349322973099
 20
3252.602533425814
 30
0.0
 40
120.0
 41
0.0
 71
     5
 72
     1
  1
\A1;有効開口部高サ1725
  7
STYLE1
 11
0.0000000000000001
 21
1.0
 31
0.0
 73
     1
 44
1.0
1001
ACAD
1000
MTEXTBEGIN
1070
    73
1070
     1
1070
    44
1040
1.0
1070
    74
1070
     0
1000
MTEXTEND
  0
POINT
  5
186A3
330
17DE8
100
AcDbEntity
  8
DEFPOINTS
 62
     0
 48
50.0
100
AcDbPoint
 10
8995.744506215729
 20
4120.653589224073
 30
0.0
  0
POINT
  5
186A4
330
17DE8
100
AcDbEntity
  8
DEFPOINTS
 62
     0
 48
50.0
100
AcDbPoint
 10
8995.744506215729
 20
2395.653589224074
 30
0.0
  0
POINT
  5
186A5
330
17DE8
100
AcDbEntity
  8
DEFPOINTS
 62
     0
 48
50.0
100
AcDbPoint
 10
8214.361133996721
 20
2395.653589224074
 30
0.0
  0
ENDBLK
  5
17DF3
330
17DE8
100
AcDbEntity
  8
0
 48
50.0
100
AcDbBlockEnd
  0
BLOCK
  5
17EA5
330
17E99
100
AcDbEntity
  8
0
 48
50.0
100
AcDbBlockBegin
  2
*D17
 70
     1
 10
0.0
 20
0.0
 30
0.0
  3
*D17
  1

  0
LINE
  5
18740
330
17E99
100
AcDbEntity
  8
寸法
 62
     0
 48
50.0
370
    -2
100
AcDbLine
 10
11227.74450621572
 20
4432.653589224076
 30
0.0
 11
11227.74450621572
 21
4871.746758563547
 31
0.0
  0
LINE
  5
18741
330
17E99
100
AcDbEntity
  8
寸法
 62
     0
 48
50.0
370
    -2
100
AcDbLine
 10
11177.74450621572
 20
4432.653589224076
 30
0.0
 11
11177.74450621572
 21
4871.746758563547
 31
0.0
  0
LINE
  5
18742
330
17E99
100
AcDbEntity
  8
寸法
 62
     0
 48
50.0
370
    -2
100
AcDbLine
 10
11177.74450621572
 20
4811.746758563548
 30
0.0
 11
11077.74450621572
 21
4811.746758563548
 31
0.0
  0
LINE
  5
18743
330
17E99
100
AcDbEntity
  8
寸法
 62
     0
 48
50.0
370
    -2
100
AcDbLine
 10
11227.74450621572
 20
4811.746758563548
 30
0.0
 11
11647.27703168445
 21
4811.746758563548
 31
0.0
  0
LINE
  5
18744
330
17E99
100
AcDbEntity
  8
寸法
 62
     0
 48
50.0
370
    -2
100
AcDbLine
 10
11177.74450621572
 20
4811.746758563548
 30
0.0
 11
11227.74450621572
 21
4811.746758563548
 31
0.0
  0
INSERT
  5
18745
330
17E99
100
AcDbEntity
  8
寸法
 62
     0
 48
50.0
370
    -2
100
AcDbBlockReference
  2
_DOTSMALL
 10
11177.74450621572
 20
4811.746758563548
 30
0.0
 41
100.0
 42
100.0
 43
100.0
  0
INSERT
  5
18746
330
17E99
100
AcDbEntity
  8
寸法
 62
     0
 48
50.0
370
    -2
100
AcDbBlockReference
  2
_DOTSMALL
 10
11227.74450621572
 20
4811.746758563548
 30
0.0
 41
100.0
 42
100.0
 43
100.0
 50
180.0
  0
MTEXT
  5
18747
330
17E99
100
AcDbEntity
  8
寸法
 62
     7
 48
50.0
100
AcDbMText
 10
11541.22978758996
 20
4911.746758563548
 30
0.0
 40
120.0
 41
0.0
 71
     5
 72
     1
  1
\A1;50
  7
STYLE1
 73
     1
 44
1.0
1001
ACAD
1000
MTEXTBEGIN
1070
    73
1070
     1
1070
    44
1040
1.0
1070
    74
1070
     0
1000
MTEXTEND
  0
POINT
  5
18748
330
17E99
100
AcDbEntity
  8
DEFPOINTS
 62
     0
 48
50.0
100
AcDbPoint
 10
11227.74450621572
 20
4412.653589224077
 30
0.0
  0
POINT
  5
18749
330
17E99
100
AcDbEntity
  8
DEFPOINTS
 62
     0
 48
50.0
100
AcDbPoint
 10
11177.74450621572
 20
4412.653589224077
 30
0.0
  0
POINT
  5
1874A
330
17E99
100
AcDbEntity
  8
DEFPOINTS
 62
     0
 48
50.0
100
AcDbPoint
 10
11177.74450621572
 20
4811.746758563548
 30
0.0
  0
ENDBLK
  5
17EA6
330
17E99
100
AcDbEntity
  8
0
 48
50.0
100
AcDbBlockEnd
  0
BLOCK
  5
18430
330
18426
100
AcDbEntity
  8
0
 48
50.0
100
AcDbBlockBegin
  2
*D18
 70
     1
 10
0.0
 20
0.0
 30
0.0
  3
*D18
  1

  0
LINE
  5
18694
330
18426
100
AcDbEntity
  8
寸法
 62
     0
 48
50.0
370
    -2
100
AcDbLine
 10
3805.647476878481
 20
4177.653589224073
 30
0.0
 11
3141.994767720185
 21
4177.653589224073
 31
0.0
  0
LINE
  5
18695
330
18426
100
AcDbEntity
  8
寸法
 62
     0
 48
50.0
370
    -2
100
AcDbLine
 10
3805.647476878481
 20
2387.653589224073
 30
0.0
 11
3141.994767720184
 21
2387.653589224073
 31
0.0
  0
LINE
  5
18696
330
18426
100
AcDbEntity
  8
寸法
 62
     0
 48
50.0
370
    -2
100
AcDbLine
 10
3201.994767720184
 20
4177.653589224073
 30
0.0
 11
3201.994767720184
 21
2387.653589224073
 31
0.0
  0
INSERT
  5
18697
330
18426
100
AcDbEntity
  8
寸法
 62
     0
 48
50.0
370
    -2
100
AcDbBlockReference
  2
_DOTSMALL
 10
3201.994767720184
 20
4177.653589224073
 30
0.0
 41
100.0
 42
100.0
 43
100.0
 50
90.0
  0
INSERT
  5
18698
330
18426
100
AcDbEntity
  8
寸法
 62
     0
 48
50.0
370
    -2
100
AcDbBlockReference
  2
_DOTSMALL
 10
3201.994767720184
 20
2387.653589224073
 30
0.0
 41
100.0
 42
100.0
 43
100.0
 50
270.0
  0
MTEXT
  5
18699
330
18426
100
AcDbEntity
  8
寸法
 62
     7
 48
50.0
100
AcDbMText
 10
3101.994767720184
 20
3278.107887766031
 30
0.0
 40
120.0
 41
0.0
 71
     5
 72
     1
  1
\A1;1790
  7
STYLE1
 11
0.0000000000000001
 21
1.0
 31
0.0
 73
     1
 44
1.0
1001
ACAD
1000
MTEXTBEGIN
1070
    73
1070
     1
1070
    44
1040
1.0
1070
    74
1070
     0
1000
MTEXTEND
  0
POINT
  5
1869A
330
18426
100
AcDbEntity
  8
DEFPOINTS
 62
     0
 48
50.0
100
AcDbPoint
 10
3825.647476878481
 20
4177.653589224073
 30
0.0
  0
POINT
  5
1869B
330
18426
100
AcDbEntity
  8
DEFPOINTS
 62
     0
 48
50.0
100
AcDbPoint
 10
3825.647476878481
 20
2387.653589224073
 30
0.0
  0
POINT
  5
1869C
330
18426
100
AcDbEntity
  8
DEFPOINTS
 62
     0
 48
50.0
100
AcDbPoint
 10
3201.994767720184
 20
2387.653589224073
 30
0.0
  0
ENDBLK
  5
18431
330
18426
100
AcDbEntity
  8
0
 48
50.0
100
AcDbBlockEnd
  0
BLOCK
  5
1843C
330
18432
100
AcDbEntity
  8
0
 48
50.0
100
AcDbBlockBegin
  2
*D19
 70
     1
 10
0.0
 20
0.0
 30
0.0
  3
*D19
  1

  0
LINE
  5
1868B
330
18432
100
AcDbEntity
  8
寸法
 62
     0
 48
50.0
370
    -2
100
AcDbLine
 10
3805.647476878481
 20
2337.653589224073
 30
0.0
 11
2857.008094949123
 21
2337.653589224073
 31
0.0
  0
LINE
  5
1868C
330
18432
100
AcDbEntity
  8
寸法
 62
     0
 48
50.0
370
    -2
100
AcDbLine
 10
3745.647476878481
 20
4412.653589224077
 30
0.0
 11
2857.008094949123
 21
4412.653589224077
 31
0.0
  0
LINE
  5
1868D
330
18432
100
AcDbEntity
  8
寸法
 62
     0
 48
50.0
370
    -2
100
AcDbLine
 10
2917.008094949123
 20
2337.653589224073
 30
0.0
 11
2917.008094949123
 21
4412.653589224077
 31
0.0
  0
INSERT
  5
1868E
330
18432
100
AcDbEntity
  8
寸法
 62
     0
 48
50.0
370
    -2
100
AcDbBlockReference
  2
_DOTSMALL
 10
2917.008094949123
 20
2337.653589224073
 30
0.0
 41
100.0
 42
100.0
 43
100.0
 50
270.0
  0
INSERT
  5
1868F
330
18432
100
AcDbEntity
  8
寸法
 62
     0
 48
50.0
370
    -2
100
AcDbBlockReference
  2
_DOTSMALL
 10
2917.008094949123
 20
4412.653589224077
 30
0.0
 41
100.0
 42
100.0
 43
100.0
 50
90.0
  0
MTEXT
  5
18690
330
18432
100
AcDbEntity
  8
寸法
 62
     7
 48
50.0
100
AcDbMText
 10
2816.9962839255
 20
3331.859466717183
 30
0.0
 40
120.0
 41
0.0
 71
     5
 72
     1
  1
\A1;2075
  7
STYLE1
 11
0.0000000000000001
 21
1.0
 31
0.0
 73
     1
 44
1.0
1001
ACAD
1000
MTEXTBEGIN
1070
    73
1070
     1
1070
    44
1040
1.0
1070
    74
1070
     0
1000
MTEXTEND
  0
POINT
  5
18691
330
18432
100
AcDbEntity
  8
DEFPOINTS
 62
     0
 48
50.0
100
AcDbPoint
 10
3825.647476878481
 20
2337.653589224073
 30
0.0
  0
POINT
  5
18692
330
18432
100
AcDbEntity
  8
DEFPOINTS
 62
     0
 48
50.0
100
AcDbPoint
 10
3765.647476878481
 20
4412.653589224077
 30
0.0
  0
POINT
  5
18693
330
18432
100
AcDbEntity
  8
DEFPOINTS
 62
     0
 48
50.0
100
AcDbPoint
 10
2917.008094949123
 20
4412.653589224077
 30
0.0
  0
ENDBLK
  5
1843D
330
18432
100
AcDbEntity
  8
0
 48
50.0
100
AcDbBlockEnd
  0
BLOCK
  5
18449
330
1843E
100
AcDbEntity
  8
0
 48
50.0
100
AcDbBlockBegin
  2
*D20
 70
     1
 10
0.0
 20
0.0
 30
0.0
  3
*D20
  1

  0
LINE
  5
18681
330
1843E
100
AcDbEntity
  8
寸法
 62
     0
 48
50.0
370
    -2
100
AcDbLine
 10
3750.647476878481
 20
2337.653589224073
 30
0.0
 11
2857.008094949123
 21
2337.653589224073
 31
0.0
  0
LINE
  5
18682
330
1843E
100
AcDbEntity
  8
寸法
 62
     0
 48
50.0
370
    -2
100
AcDbLine
 10
3181.994767720184
 20
2237.653589224073
 30
0.0
 11
2857.008094949123
 21
2237.653589224073
 31
0.0
  0
LINE
  5
18683
330
1843E
100
AcDbEntity
  8
寸法
 62
     0
 48
50.0
370
    -2
100
AcDbLine
 10
2917.008094949123
 20
2337.653589224073
 30
0.0
 11
2917.008094949123
 21
2237.653589224073
 31
0.0
  0
LINE
  5
18684
330
1843E
100
AcDbEntity
  8
寸法
 62
     0
 48
50.0
370
    -2
100
AcDbLine
 10
2917.008094949123
 20
2237.653589224073
 30
0.0
 11
2917.008094949123
 21
1865.559101035091
 31
0.0
  0
INSERT
  5
18685
330
1843E
100
AcDbEntity
  8
寸法
 62
     0
 48
50.0
370
    -2
100
AcDbBlockReference
  2
_DOTSMALL
 10
2917.008094949123
 20
2337.653589224073
 30
0.0
 41
100.0
 42
100.0
 43
100.0
 50
90.0
  0
INSERT
  5
18686
330
1843E
100
AcDbEntity
  8
寸法
 62
     0
 48
50.0
370
    -2
100
AcDbBlockReference
  2
_DOTSMALL
 10
2917.008094949123
 20
2237.653589224073
 30
0.0
 41
100.0
 42
100.0
 43
100.0
 50
270.0
  0
MTEXT
  5
18687
330
1843E
100
AcDbEntity
  8
寸法
 62
     7
 48
50.0
100
AcDbMText
 10
2817.008094949122
 20
2001.60634512958
 30
0.0
 40
120.0
 41
0.0
 71
     5
 72
     1
  1
\A1;100
  7
STYLE1
 11
0.0000000000000001
 21
1.0
 31
0.0
 73
     1
 44
1.0
1001
ACAD
1000
MTEXTBEGIN
1070
    73
1070
     1
1070
    44
1040
1.0
1070
    74
1070
     0
1000
MTEXTEND
  0
POINT
  5
18688
330
1843E
100
AcDbEntity
  8
DEFPOINTS
 62
     0
 48
50.0
100
AcDbPoint
 10
3770.647476878481
 20
2337.653589224073
 30
0.0
  0
POINT
  5
18689
330
1843E
100
AcDbEntity
  8
DEFPOINTS
 62
     0
 48
50.0
100
AcDbPoint
 10
3201.994767720183
 20
2237.653589224073
 30
0.0
  0
POINT
  5
1868A
330
1843E
100
AcDbEntity
  8
DEFPOINTS
 62
     0
 48
50.0
100
AcDbPoint
 10
2917.008094949123
 20
2237.653589224073
 30
0.0
  0
ENDBLK
  5
1844A
330
1843E
100
AcDbEntity
  8
0
 48
50.0
100
AcDbBlockEnd
  0
BLOCK
  5
18457
330
1844B
100
AcDbEntity
  8
0
 48
50.0
100
AcDbBlockBegin
  2
*D21
 70
     1
 10
0.0
 20
0.0
 30
0.0
  3
*D21
  1

  0
LINE
  5
18676
330
1844B
100
AcDbEntity
  8
寸法
 62
     0
 48
50.0
370
    -2
100
AcDbLine
 10
3805.647476878481
 20
2387.653589224073
 30
0.0
 11
3141.994767720184
 21
2387.653589224073
 31
0.0
  0
LINE
  5
18677
330
1844B
100
AcDbEntity
  8
寸法
 62
     0
 48
50.0
370
    -2
100
AcDbLine
 10
3750.647476878481
 20
2337.653589224073
 30
0.0
 11
3141.994767720184
 21
2337.653589224073
 31
0.0
  0
LINE
  5
18678
330
1844B
100
AcDbEntity
  8
寸法
 62
     0
 48
50.0
370
    -2
100
AcDbLine
 10
3201.994767720184
 20
2387.653589224073
 30
0.0
 11
3201.994767720184
 21
2487.653589224073
 31
0.0
  0
LINE
  5
18679
330
1844B
100
AcDbEntity
  8
寸法
 62
     0
 48
50.0
370
    -2
100
AcDbLine
 10
3201.994767720184
 20
2337.653589224073
 30
0.0
 11
3201.994767720184
 21
1925.559101035091
 31
0.0
  0
LINE
  5
1867A
330
1844B
100
AcDbEntity
  8
寸法
 62
     0
 48
50.0
370
    -2
100
AcDbLine
 10
3201.994767720184
 20
2387.653589224073
 30
0.0
 11
3201.994767720184
 21
2337.653589224073
 31
0.0
  0
INSERT
  5
1867B
330
1844B
100
AcDbEntity
  8
寸法
 62
     0
 48
50.0
370
    -2
100
AcDbBlockReference
  2
_DOTSMALL
 10
3201.994767720184
 20
2387.653589224073
 30
0.0
 41
100.0
 42
100.0
 43
100.0
 50
270.0
  0
INSERT
  5
1867C
330
1844B
100
AcDbEntity
  8
寸法
 62
     0
 48
50.0
370
    -2
100
AcDbBlockReference
  2
_DOTSMALL
 10
3201.994767720184
 20
2337.653589224073
 30
0.0
 41
100.0
 42
100.0
 43
100.0
 50
90.0
  0
MTEXT
  5
1867D
330
1844B
100
AcDbEntity
  8
寸法
 62
     7
 48
50.0
100
AcDbMText
 10
3101.994767720184
 20
2031.60634512958
 30
0.0
 40
120.0
 41
0.0
 71
     5
 72
     1
  1
\A1;50
  7
STYLE1
 11
0.0000000000000001
 21
1.0
 31
0.0
 73
     1
 44
1.0
1001
ACAD
1000
MTEXTBEGIN
1070
    73
1070
     1
1070
    44
1040
1.0
1070
    74
1070
     0
1000
MTEXTEND
  0
POINT
  5
1867E
330
1844B
100
AcDbEntity
  8
DEFPOINTS
 62
     0
 48
50.0
100
AcDbPoint
 10
3825.647476878481
 20
2387.653589224073
 30
0.0
  0
POINT
  5
1867F
330
1844B
100
AcDbEntity
  8
DEFPOINTS
 62
     0
 48
50.0
100
AcDbPoint
 10
3770.647476878481
 20
2337.653589224073
 30
0.0
  0
POINT
  5
18680
330
1844B
100
AcDbEntity
  8
DEFPOINTS
 62
     0
 48
50.0
100
AcDbPoint
 10
3201.994767720184
 20
2337.653589224073
 30
0.0
  0
ENDBLK
  5
18458
330
1844B
100
AcDbEntity
  8
0
 48
50.0
100
AcDbBlockEnd
  0
BLOCK
  5
18464
330
18459
100
AcDbEntity
  8
0
 48
50.0
100
AcDbBlockBegin
  2
*D22
 70
     1
 10
0.0
 20
0.0
 30
0.0
  3
*D22
  1

  0
LINE
  5
1866C
330
18459
100
AcDbEntity
  8
寸法
 62
     0
 48
50.0
370
    -2
100
AcDbLine
 10
3765.051763169584
 20
4411.951296293735
 30
0.0
 11
3149.117324064322
 21
4429.665446568064
 31
0.0
  0
LINE
  5
1866D
330
18459
100
AcDbEntity
  8
寸法
 62
     0
 48
50.0
370
    -2
100
AcDbLine
 10
3760.998307612958
 20
4271.009572528022
 30
0.0
 11
3145.063868507696
 21
4288.723722802351
 31
0.0
  0
LINE
  5
1866E
330
18459
100
AcDbEntity
  8
寸法
 62
     0
 48
50.0
370
    -2
100
AcDbLine
 10
3205.039070110127
 20
4286.998848097404
 30
0.0
 11
3209.092525666753
 21
4427.940571863117
 31
0.0
  0
LINE
  5
1866F
330
18459
100
AcDbEntity
  8
寸法
 62
     0
 48
50.0
370
    -2
100
AcDbLine
 10
3209.092525666753
 20
4427.940571863117
 30
0.0
 11
3219.441773896438
 21
4787.791781477702
 31
0.0
  0
INSERT
  5
18670
330
18459
100
AcDbEntity
  8
寸法
 62
     0
 48
50.0
370
    -2
100
AcDbBlockReference
  2
_DOTSMALL
 10
3205.039070110127
 20
4286.998848097404
 30
0.0
 41
100.0
 42
100.0
 43
100.0
 50
268.3526390256378
  0
INSERT
  5
18671
330
18459
100
AcDbEntity
  8
寸法
 62
     0
 48
50.0
370
    -2
100
AcDbBlockReference
  2
_DOTSMALL
 10
3209.092525666753
 20
4427.940571863117
 30
0.0
 41
100.0
 42
100.0
 43
100.0
 50
88.35263902563776
  0
MTEXT
  5
18672
330
18459
100
AcDbEntity
  8
寸法
 62
     7
 48
50.0
100
AcDbMText
 10
3115.745876031667
 20
4660.720302514014
 30
0.0
 40
120.0
 41
0.0
 71
     5
 72
     1
  1
\A1;141
  7
STYLE1
 11
0.0287479117491237
 21
0.9995866933738488
 31
0.0
 73
     1
 44
1.0
1001
ACAD
1000
MTEXTBEGIN
1070
    73
1070
     1
1070
    44
1040
1.0
1070
    74
1070
     0
1000
MTEXTEND
  0
POINT
  5
18673
330
18459
100
AcDbEntity
  8
DEFPOINTS
 62
     0
 48
50.0
100
AcDbPoint
 10
3785.04349703706
 20
4411.376338058753
 30
0.0
  0
POINT
  5
18674
330
18459
100
AcDbEntity
  8
DEFPOINTS
 62
     0
 48
50.0
100
AcDbPoint
 10
3780.990041480434
 20
4270.43461429304
 30
0.0
  0
POINT
  5
18675
330
18459
100
AcDbEntity
  8
DEFPOINTS
 62
     0
 48
50.0
100
AcDbPoint
 10
3205.039070110127
 20
4286.998848097404
 30
0.0
  0
ENDBLK
  5
18465
330
18459
100
AcDbEntity
  8
0
 48
50.0
100
AcDbBlockEnd
  0
BLOCK
  5
18470
330
18466
100
AcDbEntity
  8
0
 48
50.0
100
AcDbBlockBegin
  2
*D23
 70
     1
 10
0.0
 20
0.0
 30
0.0
  3
*D23
  1

  0
LINE
  5
18663
330
18466
100
AcDbEntity
  8
寸法
 62
     0
 48
50.0
370
    -2
100
AcDbLine
 10
3733.147476878485
 20
2037.653589224072
 30
0.0
 11
3543.647473631847
 21
2037.653589224072
 31
0.0
  0
LINE
  5
18664
330
18466
100
AcDbEntity
  8
寸法
 62
     0
 48
50.0
370
    -2
100
AcDbLine
 10
3708.147476878481
 20
2237.653589224072
 30
0.0
 11
3543.647473631847
 21
2237.653589224072
 31
0.0
  0
LINE
  5
18665
330
18466
100
AcDbEntity
  8
寸法
 62
     0
 48
50.0
370
    -2
100
AcDbLine
 10
3603.647473631848
 20
2037.653589224072
 30
0.0
 11
3603.647473631848
 21
2237.653589224072
 31
0.0
  0
INSERT
  5
18666
330
18466
100
AcDbEntity
  8
寸法
 62
     0
 48
50.0
370
    -2
100
AcDbBlockReference
  2
_DOTSMALL
 10
3603.647473631848
 20
2037.653589224072
 30
0.0
 41
100.0
 42
100.0
 43
100.0
 50
270.0
  0
INSERT
  5
18667
330
18466
100
AcDbEntity
  8
寸法
 62
     0
 48
50.0
370
    -2
100
AcDbBlockReference
  2
_DOTSMALL
 10
3603.647473631848
 20
2237.653589224072
 30
0.0
 41
100.0
 42
100.0
 43
100.0
 50
90.0
  0
MTEXT
  5
18668
330
18466
100
AcDbEntity
  8
寸法
 62
     7
 48
50.0
100
AcDbMText
 10
3503.635662608225
 20
2137.653589224073
 30
0.0
 40
120.0
 41
0.0
 71
     5
 72
     1
  1
\A1;200
  7
STYLE1
 11
0.0000000000000001
 21
1.0
 31
0.0
 73
     1
 44
1.0
1001
ACAD
1000
MTEXTBEGIN
1070
    73
1070
     1
1070
    44
1040
1.0
1070
    74
1070
     0
1000
MTEXTEND
  0
POINT
  5
18669
330
18466
100
AcDbEntity
  8
DEFPOINTS
 62
     0
 48
50.0
100
AcDbPoint
 10
3753.147476878485
 20
2037.653589224072
 30
0.0
  0
POINT
  5
1866A
330
18466
100
AcDbEntity
  8
DEFPOINTS
 62
     0
 48
50.0
100
AcDbPoint
 10
3728.147476878481
 20
2237.653589224072
 30
0.0
  0
POINT
  5
1866B
330
18466
100
AcDbEntity
  8
DEFPOINTS
 62
     0
 48
50.0
100
AcDbPoint
 10
3603.647473631848
 20
2237.653589224072
 30
0.0
  0
ENDBLK
  5
18471
330
18466
100
AcDbEntity
  8
0
 48
50.0
100
AcDbBlockEnd
  0
BLOCK
  5
1847C
330
18472
100
AcDbEntity
  8
0
 48
50.0
100
AcDbBlockBegin
  2
*D24
 70
     1
 10
0.0
 20
0.0
 30
0.0
  3
*D24
  1

  0
LINE
  5
1865A
330
18472
100
AcDbEntity
  8
寸法
 62
     0
 48
50.0
370
    -2
100
AcDbLine
 10
3953.147476878481
 20
2017.65358922407
 30
0.0
 11
3953.147476878481
 21
1691.606259923694
 31
0.0
  0
LINE
  5
1865B
330
18472
100
AcDbEntity
  8
寸法
 62
     0
 48
50.0
370
    -2
100
AcDbLine
 10
3753.147476878485
 20
2017.653589224072
 30
0.0
 11
3753.147476878485
 21
1691.606259923694
 31
0.0
  0
LINE
  5
1865C
330
18472
100
AcDbEntity
  8
寸法
 62
     0
 48
50.0
370
    -2
100
AcDbLine
 10
3953.147476878481
 20
1751.606259923694
 30
0.0
 11
3753.147476878485
 21
1751.606259923694
 31
0.0
  0
INSERT
  5
1865D
330
18472
100
AcDbEntity
  8
寸法
 62
     0
 48
50.0
370
    -2
100
AcDbBlockReference
  2
_DOTSMALL
 10
3953.147476878481
 20
1751.606259923694
 30
0.0
 41
100.0
 42
100.0
 43
100.0
  0
INSERT
  5
1865E
330
18472
100
AcDbEntity
  8
寸法
 62
     0
 48
50.0
370
    -2
100
AcDbBlockReference
  2
_DOTSMALL
 10
3753.147476878485
 20
1751.606259923694
 30
0.0
 41
100.0
 42
100.0
 43
100.0
 50
180.0
  0
MTEXT
  5
1865F
330
18472
100
AcDbEntity
  8
寸法
 62
     7
 48
50.0
100
AcDbMText
 10
3853.147476878483
 20
1851.618070947316
 30
0.0
 40
120.0
 41
0.0
 71
     5
 72
     1
  1
\A1;200
  7
STYLE1
 73
     1
 44
1.0
1001
ACAD
1000
MTEXTBEGIN
1070
    73
1070
     1
1070
    44
1040
1.0
1070
    74
1070
     0
1000
MTEXTEND
  0
POINT
  5
18660
330
18472
100
AcDbEntity
  8
DEFPOINTS
 62
     0
 48
50.0
100
AcDbPoint
 10
3953.147476878481
 20
2037.65358922407
 30
0.0
  0
POINT
  5
18661
330
18472
100
AcDbEntity
  8
DEFPOINTS
 62
     0
 48
50.0
100
AcDbPoint
 10
3753.147476878485
 20
2037.653589224072
 30
0.0
  0
POINT
  5
18662
330
18472
100
AcDbEntity
  8
DEFPOINTS
 62
     0
 48
50.0
100
AcDbPoint
 10
3753.147476878485
 20
1751.606259923694
 30
0.0
  0
ENDBLK
  5
1847D
330
18472
100
AcDbEntity
  8
0
 48
50.0
100
AcDbBlockEnd
  0
BLOCK
  5
18489
330
1847E
100
AcDbEntity
  8
0
 48
50.0
100
AcDbBlockBegin
  2
*D25
 70
     1
 10
0.0
 20
0.0
 30
0.0
  3
*D25
  1

  0
LINE
  5
18650
330
1847E
100
AcDbEntity
  8
寸法
 62
     0
 48
50.0
370
    -2
100
AcDbLine
 10
6455.647476878481
 20
4379.464268835728
 30
0.0
 11
6455.647476878481
 21
4871.311042803379
 31
0.0
  0
LINE
  5
18651
330
1847E
100
AcDbEntity
  8
寸法
 62
     0
 48
50.0
370
    -2
100
AcDbLine
 10
6535.64747687848
 20
4377.653589224075
 30
0.0
 11
6535.64747687848
 21
4871.311042803379
 31
0.0
  0
LINE
  5
18652
330
1847E
100
AcDbEntity
  8
寸法
 62
     0
 48
50.0
370
    -2
100
AcDbLine
 10
6455.647476878481
 20
4811.311042803379
 30
0.0
 11
6535.64747687848
 21
4811.311042803379
 31
0.0
  0
LINE
  5
18653
330
1847E
100
AcDbEntity
  8
寸法
 62
     0
 48
50.0
370
    -2
100
AcDbLine
 10
6535.64747687848
 20
4811.311042803379
 30
0.0
 11
6847.741965067459
 21
4811.311042803379
 31
0.0
  0
INSERT
  5
18654
330
1847E
100
AcDbEntity
  8
寸法
 62
     0
 48
50.0
370
    -2
100
AcDbBlockReference
  2
_DOTSMALL
 10
6455.647476878481
 20
4811.311042803379
 30
0.0
 41
100.0
 42
100.0
 43
100.0
 50
180.0
  0
INSERT
  5
18655
330
1847E
100
AcDbEntity
  8
寸法
 62
     0
 48
50.0
370
    -2
100
AcDbBlockReference
  2
_DOTSMALL
 10
6535.64747687848
 20
4811.311042803379
 30
0.0
 41
100.0
 42
100.0
 43
100.0
  0
MTEXT
  5
18656
330
1847E
100
AcDbEntity
  8
寸法
 62
     7
 48
50.0
100
AcDbMText
 10
6741.694720972971
 20
4911.311042803379
 30
0.0
 40
120.0
 41
0.0
 71
     5
 72
     1
  1
\A1;80
  7
STYLE1
 73
     1
 44
1.0
1001
ACAD
1000
MTEXTBEGIN
1070
    73
1070
     1
1070
    44
1040
1.0
1070
    74
1070
     0
1000
MTEXTEND
  0
POINT
  5
18657
330
1847E
100
AcDbEntity
  8
DEFPOINTS
 62
     0
 48
50.0
100
AcDbPoint
 10
6455.647476878481
 20
4359.464268835728
 30
0.0
  0
POINT
  5
18658
330
1847E
100
AcDbEntity
  8
DEFPOINTS
 62
     0
 48
50.0
100
AcDbPoint
 10
6535.64747687848
 20
4357.653589224075
 30
0.0
  0
POINT
  5
18659
330
1847E
100
AcDbEntity
  8
DEFPOINTS
 62
     0
 48
50.0
100
AcDbPoint
 10
6535.64747687848
 20
4811.311042803379
 30
0.0
  0
ENDBLK
  5
1848A
330
1847E
100
AcDbEntity
  8
0
 48
50.0
100
AcDbBlockEnd
  0
BLOCK
  5
18495
330
1848B
100
AcDbEntity
  8
0
 48
50.0
100
AcDbBlockBegin
  2
*D26
 70
     1
 10
0.0
 20
0.0
 30
0.0
  3
*D26
  1

  0
LINE
  5
18647
330
1848B
100
AcDbEntity
  8
寸法
 62
     0
 48
50.0
370
    -2
100
AcDbLine
 10
6535.64747687848
 20
4377.653589224075
 30
0.0
 11
6535.64747687848
 21
5091.521729534996
 31
0.0
  0
LINE
  5
18648
330
1848B
100
AcDbEntity
  8
寸法
 62
     0
 48
50.0
370
    -2
100
AcDbLine
 10
3765.647476878481
 20
4432.653589224078
 30
0.0
 11
3765.647476878481
 21
5091.521729534996
 31
0.0
  0
LINE
  5
18649
330
1848B
100
AcDbEntity
  8
寸法
 62
     0
 48
50.0
370
    -2
100
AcDbLine
 10
6535.64747687848
 20
5031.521729534996
 30
0.0
 11
3765.647476878481
 21
5031.521729534996
 31
0.0
  0
INSERT
  5
1864A
330
1848B
100
AcDbEntity
  8
寸法
 62
     0
 48
50.0
370
    -2
100
AcDbBlockReference
  2
_DOTSMALL
 10
6535.64747687848
 20
5031.521729534996
 30
0.0
 41
100.0
 42
100.0
 43
100.0
  0
INSERT
  5
1864B
330
1848B
100
AcDbEntity
  8
寸法
 62
     0
 48
50.0
370
    -2
100
AcDbBlockReference
  2
_DOTSMALL
 10
3765.647476878481
 20
5031.521729534996
 30
0.0
 41
100.0
 42
100.0
 43
100.0
 50
180.0
  0
MTEXT
  5
1864C
330
1848B
100
AcDbEntity
  8
寸法
 62
     7
 48
50.0
100
AcDbMText
 10
5169.006401765857
 20
5131.533540558617
 30
0.0
 40
120.0
 41
0.0
 71
     5
 72
     1
  1
\A1;2770
  7
STYLE1
 73
     1
 44
1.0
1001
ACAD
1000
MTEXTBEGIN
1070
    73
1070
     1
1070
    44
1040
1.0
1070
    74
1070
     0
1000
MTEXTEND
  0
POINT
  5
1864D
330
1848B
100
AcDbEntity
  8
DEFPOINTS
 62
     0
 48
50.0
100
AcDbPoint
 10
6535.64747687848
 20
4357.653589224075
 30
0.0
  0
POINT
  5
1864E
330
1848B
100
AcDbEntity
  8
DEFPOINTS
 62
     0
 48
50.0
100
AcDbPoint
 10
3765.647476878481
 20
4412.653589224078
 30
0.0
  0
POINT
  5
1864F
330
1848B
100
AcDbEntity
  8
DEFPOINTS
 62
     0
 48
50.0
100
AcDbPoint
 10
3765.647476878481
 20
5031.521729534996
 30
0.0
  0
ENDBLK
  5
18496
330
1848B
100
AcDbEntity
  8
0
 48
50.0
100
AcDbBlockEnd
  0
BLOCK
  5
184A3
330
18497
100
AcDbEntity
  8
0
 48
50.0
100
AcDbBlockBegin
  2
*D27
 70
     1
 10
0.0
 20
0.0
 30
0.0
  3
*D27
  1

  0
LINE
  5
1863C
330
18497
100
AcDbEntity
  8
寸法
 62
     0
 48
50.0
370
    -2
100
AcDbLine
 10
3825.647476878481
 20
4428.65520734705
 30
0.0
 11
3825.647476878481
 21
4871.311042803378
 31
0.0
  0
LINE
  5
1863D
330
18497
100
AcDbEntity
  8
寸法
 62
     0
 48
50.0
370
    -2
100
AcDbLine
 10
3765.647476878481
 20
4432.653589224078
 30
0.0
 11
3765.647476878481
 21
4871.311042803378
 31
0.0
  0
LINE
  5
1863E
330
18497
100
AcDbEntity
  8
寸法
 62
     0
 48
50.0
370
    -2
100
AcDbLine
 10
3825.647476878481
 20
4811.311042803378
 30
0.0
 11
3925.647476878481
 21
4811.311042803378
 31
0.0
  0
LINE
  5
1863F
330
18497
100
AcDbEntity
  8
寸法
 62
     0
 48
50.0
370
    -2
100
AcDbLine
 10
3765.647476878481
 20
4811.311042803378
 30
0.0
 11
3346.3718863273
 21
4811.311042803378
 31
0.0
  0
LINE
  5
18640
330
18497
100
AcDbEntity
  8
寸法
 62
     0
 48
50.0
370
    -2
100
AcDbLine
 10
3825.647476878481
 20
4811.311042803378
 30
0.0
 11
3765.647476878481
 21
4811.311042803378
 31
0.0
  0
INSERT
  5
18641
330
18497
100
AcDbEntity
  8
寸法
 62
     0
 48
50.0
370
    -2
100
AcDbBlockReference
  2
_DOTSMALL
 10
3825.647476878481
 20
4811.311042803378
 30
0.0
 41
100.0
 42
100.0
 43
100.0
 50
180.0
  0
INSERT
  5
18642
330
18497
100
AcDbEntity
  8
寸法
 62
     0
 48
50.0
370
    -2
100
AcDbBlockReference
  2
_DOTSMALL
 10
3765.647476878481
 20
4811.311042803378
 30
0.0
 41
100.0
 42
100.0
 43
100.0
  0
MTEXT
  5
18643
330
18497
100
AcDbEntity
  8
寸法
 62
     7
 48
50.0
100
AcDbMText
 10
3456.00968160289
 20
4911.311042803378
 30
0.0
 40
120.0
 41
0.0
 71
     5
 72
     1
  1
\A1;60
  7
STYLE1
 73
     1
 44
1.0
1001
ACAD
1000
MTEXTBEGIN
1070
    73
1070
     1
1070
    44
1040
1.0
1070
    74
1070
     0
1000
MTEXTEND
  0
POINT
  5
18644
330
18497
100
AcDbEntity
  8
DEFPOINTS
 62
     0
 48
50.0
100
AcDbPoint
 10
3825.647476878481
 20
4408.65520734705
 30
0.0
  0
POINT
  5
18645
330
18497
100
AcDbEntity
  8
DEFPOINTS
 62
     0
 48
50.0
100
AcDbPoint
 10
3765.647476878481
 20
4412.653589224078
 30
0.0
  0
POINT
  5
18646
330
18497
100
AcDbEntity
  8
DEFPOINTS
 62
     0
 48
50.0
100
AcDbPoint
 10
3765.647476878481
 20
4811.311042803378
 30
0.0
  0
ENDBLK
  5
184A4
330
18497
100
AcDbEntity
  8
0
 48
50.0
100
AcDbBlockEnd
  0
BLOCK
  5
184AF
330
184A5
100
AcDbEntity
  8
0
 48
50.0
100
AcDbBlockBegin
  2
*D28
 70
     1
 10
0.0
 20
0.0
 30
0.0
  3
*D28
  1

  0
LINE
  5
18633
330
184A5
100
AcDbEntity
  8
寸法
 62
     0
 48
50.0
370
    -2
100
AcDbLine
 10
6455.647476878481
 20
4379.464268835728
 30
0.0
 11
6455.647476878481
 21
4871.311042803379
 31
0.0
  0
LINE
  5
18634
330
184A5
100
AcDbEntity
  8
寸法
 62
     0
 48
50.0
370
    -2
100
AcDbLine
 10
3825.647476878481
 20
4428.65520734705
 30
0.0
 11
3825.647476878481
 21
4871.311042803379
 31
0.0
  0
LINE
  5
18635
330
184A5
100
AcDbEntity
  8
寸法
 62
     0
 48
50.0
370
    -2
100
AcDbLine
 10
6455.647476878481
 20
4811.311042803379
 30
0.0
 11
3825.647476878481
 21
4811.311042803379
 31
0.0
  0
INSERT
  5
18636
330
184A5
100
AcDbEntity
  8
寸法
 62
     0
 48
50.0
370
    -2
100
AcDbBlockReference
  2
_DOTSMALL
 10
6455.647476878481
 20
4811.311042803379
 30
0.0
 41
100.0
 42
100.0
 43
100.0
  0
INSERT
  5
18637
330
184A5
100
AcDbEntity
  8
寸法
 62
     0
 48
50.0
370
    -2
100
AcDbBlockReference
  2
_DOTSMALL
 10
3825.647476878481
 20
4811.311042803379
 30
0.0
 41
100.0
 42
100.0
 43
100.0
 50
180.0
  0
MTEXT
  5
18638
330
184A5
100
AcDbEntity
  8
寸法
 62
     7
 48
50.0
100
AcDbMText
 10
5180.417667907676
 20
4911.322853827001
 30
0.0
 40
120.0
 41
0.0
 71
     5
 72
     1
  1
\A1;柱外寸法2630
  7
STYLE1
 73
     1
 44
1.0
1001
ACAD
1000
MTEXTBEGIN
1070
    73
1070
     1
1070
    44
1040
1.0
1070
    74
1070
     0
1000
MTEXTEND
  0
POINT
  5
18639
330
184A5
100
AcDbEntity
  8
DEFPOINTS
 62
     0
 48
50.0
100
AcDbPoint
 10
6455.647476878481
 20
4359.464268835728
 30
0.0
  0
POINT
  5
1863A
330
184A5
100
AcDbEntity
  8
DEFPOINTS
 62
     0
 48
50.0
100
AcDbPoint
 10
3825.647476878481
 20
4408.65520734705
 30
0.0
  0
POINT
  5
1863B
330
184A5
100
AcDbEntity
  8
DEFPOINTS
 62
     0
 48
50.0
100
AcDbPoint
 10
3825.647476878481
 20
4811.311042803379
 30
0.0
  0
ENDBLK
  5
184B0
330
184A5
100
AcDbEntity
  8
0
 48
50.0
100
AcDbBlockEnd
  0
BLOCK
  5
184BB
330
184B1
100
AcDbEntity
  8
0
 48
50.0
100
AcDbBlockBegin
  2
*D29
 70
     1
 10
0.0
 20
0.0
 30
0.0
  3
*D29
  1

  0
LINE
  5
1862A
330
184B1
100
AcDbEntity
  8
寸法
 62
     0
 48
50.0
370
    -2
100
AcDbLine
 10
6552.647476878485
 20
2337.653589224075
 30
0.0
 11
7220.574634850613
 21
2337.653589224074
 31
0.0
  0
LINE
  5
1862B
330
184B1
100
AcDbEntity
  8
寸法
 62
     0
 48
50.0
370
    -2
100
AcDbLine
 10
6555.647476878481
 20
4357.653589224075
 30
0.0
 11
7220.574634850613
 21
4357.653589224075
 31
0.0
  0
LINE
  5
1862C
330
184B1
100
AcDbEntity
  8
寸法
 62
     0
 48
50.0
370
    -2
100
AcDbLine
 10
7160.574634850613
 20
2337.653589224075
 30
0.0
 11
7160.574634850613
 21
4357.653589224075
 31
0.0
  0
INSERT
  5
1862D
330
184B1
100
AcDbEntity
  8
寸法
 62
     0
 48
50.0
370
    -2
100
AcDbBlockReference
  2
_DOTSMALL
 10
7160.574634850613
 20
2337.653589224075
 30
0.0
 41
100.0
 42
100.0
 43
100.0
 50
270.0
  0
INSERT
  5
1862E
330
184B1
100
AcDbEntity
  8
寸法
 62
     0
 48
50.0
370
    -2
100
AcDbBlockReference
  2
_DOTSMALL
 10
7160.574634850613
 20
4357.653589224075
 30
0.0
 41
100.0
 42
100.0
 43
100.0
 50
90.0
  0
MTEXT
  5
1862F
330
184B1
100
AcDbEntity
  8
寸法
 62
     7
 48
50.0
100
AcDbMText
 10
7060.56282382699
 20
3347.653589224076
 30
0.0
 40
120.0
 41
0.0
 71
     5
 72
     1
  1
\A1;2020
  7
STYLE1
 11
0.0000000000000001
 21
1.0
 31
0.0
 73
     1
 44
1.0
1001
ACAD
1000
MTEXTBEGIN
1070
    73
1070
     1
1070
    44
1040
1.0
1070
    74
1070
     0
1000
MTEXTEND
  0
POINT
  5
18630
330
184B1
100
AcDbEntity
  8
DEFPOINTS
 62
     0
 48
50.0
100
AcDbPoint
 10
6532.647476878485
 20
2337.653589224075
 30
0.0
  0
POINT
  5
18631
330
184B1
100
AcDbEntity
  8
DEFPOINTS
 62
     0
 48
50.0
100
AcDbPoint
 10
6535.64747687848
 20
4357.653589224075
 30
0.0
  0
POINT
  5
18632
330
184B1
100
AcDbEntity
  8
DEFPOINTS
 62
     0
 48
50.0
100
AcDbPoint
 10
7160.574634850613
 20
4357.653589224075
 30
0.0
  0
ENDBLK
  5
184BC
330
184B1
100
AcDbEntity
  8
0
 48
50.0
100
AcDbBlockEnd
  0
BLOCK
  5
18906
330
188FC
100
AcDbEntity
  8
0
 48
50.0
100
AcDbBlockBegin
  2
*D30
 70
     1
 10
0.0
 20
0.0
 30
0.0
  3
*D30
  1

  0
LINE
  5
18DA7
330
188FC
100
AcDbEntity
  8
寸法
 62
     0
 48
50.0
370
    -2
100
AcDbLine
 10
9034.744506215707
 20
7282.595707472356
 30
0.0
 11
9034.744506215707
 21
6608.72916228613
 31
0.0
  0
LINE
  5
18DA8
330
188FC
100
AcDbEntity
  8
寸法
 62
     0
 48
50.0
370
    -2
100
AcDbLine
 10
10300.7445062157
 20
7282.595707472356
 30
0.0
 11
10300.7445062157
 21
6608.72916228613
 31
0.0
  0
LINE
  5
18DA9
330
188FC
100
AcDbEntity
  8
寸法
 62
     0
 48
50.0
370
    -2
100
AcDbLine
 10
9054.744506215705
 20
6648.72916228613
 30
0.0
 11
10280.7445062157
 21
6648.72916228613
 31
0.0
  0
INSERT
  5
18DAA
330
188FC
100
AcDbEntity
  8
寸法
 62
     0
 48
50.0
370
    -2
100
AcDbBlockReference
  2
_DOT
 10
9034.744506215707
 20
6648.72916228613
 30
0.0
 41
20.0
 42
20.0
 43
20.0
 50
180.0
  0
INSERT
  5
18DAB
330
188FC
100
AcDbEntity
  8
寸法
 62
     0
 48
50.0
370
    -2
100
AcDbBlockReference
  2
_DOT
 10
10300.7445062157
 20
6648.72916228613
 30
0.0
 41
20.0
 42
20.0
 43
20.0
  0
MTEXT
  5
18DAC
330
188FC
100
AcDbEntity
  8
寸法
 62
     7
 48
50.0
100
AcDbMText
 10
9692.060889349859
 20
6840.740973309753
 30
0.0
 40
120.0
 41
0.0
 71
     5
 72
     1
  1
\A1;有効開口部間口\P1266
  7
STYLE1
 73
     1
 44
1.0
1001
ACAD
1000
MTEXTBEGIN
1070
    73
1070
     1
1070
    44
1040
1.0
1070
    74
1070
     0
1000
MTEXTEND
  0
POINT
  5
18DAD
330
188FC
100
AcDbEntity
  8
DEFPOINTS
 62
     0
 48
50.0
100
AcDbPoint
 10
9034.744506215707
 20
7302.595707472356
 30
0.0
  0
POINT
  5
18DAE
330
188FC
100
AcDbEntity
  8
DEFPOINTS
 62
     0
 48
50.0
100
AcDbPoint
 10
10300.7445062157
 20
7302.595707472356
 30
0.0
  0
POINT
  5
18DAF
330
188FC
100
AcDbEntity
  8
DEFPOINTS
 62
     0
 48
50.0
100
AcDbPoint
 10
10300.7445062157
 20
6648.72916228613
 30
0.0
  0
ENDBLK
  5
18907
330
188FC
100
AcDbEntity
  8
0
 48
50.0
100
AcDbBlockEnd
  0
BLOCK
  5
18C3D
330
18C33
100
AcDbEntity
  8
0
 48
50.0
100
AcDbBlockBegin
  2
*D31
 70
     1
 10
0.0
 20
0.0
 30
0.0
  3
*D31
  1

  0
LINE
  5
18D9E
330
18C33
100
AcDbEntity
  8
寸法
 62
     0
 48
50.0
370
    -2
100
AcDbLine
 10
8995.744506215705
 20
7282.59570747235
 30
0.0
 11
8995.744506215705
 21
6304.740338083025
 31
0.0
  0
LINE
  5
18D9F
330
18C33
100
AcDbEntity
  8
寸法
 62
     0
 48
50.0
370
    -2
100
AcDbLine
 10
11149.7445062157
 20
7282.59570747235
 30
0.0
 11
11149.7445062157
 21
6304.740338083025
 31
0.0
  0
LINE
  5
18DA0
330
18C33
100
AcDbEntity
  8
寸法
 62
     0
 48
50.0
370
    -2
100
AcDbLine
 10
8995.744506215705
 20
6364.740338083024
 30
0.0
 11
11149.7445062157
 21
6364.740338083024
 31
0.0
  0
INSERT
  5
18DA1
330
18C33
100
AcDbEntity
  8
寸法
 62
     0
 48
50.0
370
    -2
100
AcDbBlockReference
  2
_DOTSMALL
 10
8995.744506215705
 20
6364.740338083024
 30
0.0
 41
100.0
 42
100.0
 43
100.0
 50
180.0
  0
INSERT
  5
18DA2
330
18C33
100
AcDbEntity
  8
寸法
 62
     0
 48
50.0
370
    -2
100
AcDbBlockReference
  2
_DOTSMALL
 10
11149.7445062157
 20
6364.740338083024
 30
0.0
 41
100.0
 42
100.0
 43
100.0
  0
MTEXT
  5
18DA3
330
18C33
100
AcDbEntity
  8
寸法
 62
     7
 48
50.0
100
AcDbMText
 10
10074.54447748615
 20
6464.752149106647
 30
0.0
 40
120.0
 41
0.0
 71
     5
 72
     1
  1
\A1;2154
  7
STYLE1
 73
     1
 44
1.0
1001
ACAD
1000
MTEXTBEGIN
1070
    73
1070
     1
1070
    44
1040
1.0
1070
    74
1070
     0
1000
MTEXTEND
  0
POINT
  5
18DA4
330
18C33
100
AcDbEntity
  8
DEFPOINTS
 62
     0
 48
50.0
100
AcDbPoint
 10
8995.744506215705
 20
7302.595707472351
 30
0.0
  0
POINT
  5
18DA5
330
18C33
100
AcDbEntity
  8
DEFPOINTS
 62
     0
 48
50.0
100
AcDbPoint
 10
11149.7445062157
 20
7302.595707472351
 30
0.0
  0
POINT
  5
18DA6
330
18C33
100
AcDbEntity
  8
DEFPOINTS
 62
     0
 48
50.0
100
AcDbPoint
 10
11149.7445062157
 20
6364.740338083024
 30
0.0
  0
ENDBLK
  5
18C3E
330
18C33
100
AcDbEntity
  8
0
 48
50.0
100
AcDbBlockEnd
  0
BLOCK
  5
18C4B
330
18C3F
100
AcDbEntity
  8
0
 48
50.0
100
AcDbBlockBegin
  2
*D32
 70
     1
 10
0.0
 20
0.0
 30
0.0
  3
*D32
  1

  0
LINE
  5
18D93
330
18C3F
100
AcDbEntity
  8
寸法
 62
     0
 48
50.0
370
    -2
100
AcDbLine
 10
8527.74450621573
 20
7379.595707472349
 30
0.0
 11
8213.133260589016
 21
7379.595707472349
 31
0.0
  0
LINE
  5
18D94
330
18C3F
100
AcDbEntity
  8
寸法
 62
     0
 48
50.0
370
    -2
100
AcDbLine
 10
8975.744506215706
 20
7304.595707472349
 30
0.0
 11
8213.133260589016
 21
7304.595707472349
 31
0.0
  0
LINE
  5
18D95
330
18C3F
100
AcDbEntity
  8
寸法
 62
     0
 48
50.0
370
    -2
100
AcDbLine
 10
8253.133260589015
 20
7399.595707472347
 30
0.0
 11
8253.133260589015
 21
7419.595707472348
 31
0.0
  0
LINE
  5
18D96
330
18C3F
100
AcDbEntity
  8
寸法
 62
     0
 48
50.0
370
    -2
100
AcDbLine
 10
8253.133260589015
 20
7284.595707472348
 30
0.0
 11
8253.133260589015
 21
7063.625144723871
 31
0.0
  0
LINE
  5
18D97
330
18C3F
100
AcDbEntity
  8
寸法
 62
     0
 48
50.0
370
    -2
100
AcDbLine
 10
8253.133260589015
 20
7379.595707472349
 30
0.0
 11
8253.133260589015
 21
7304.595707472349
 31
0.0
  0
INSERT
  5
18D98
330
18C3F
100
AcDbEntity
  8
寸法
 62
     0
 48
50.0
370
    -2
100
AcDbBlockReference
  2
_DOT
 10
8253.133260589015
 20
7379.595707472349
 30
0.0
 41
20.0
 42
20.0
 43
20.0
 50
270.0
  0
INSERT
  5
18D99
330
18C3F
100
AcDbEntity
  8
寸法
 62
     0
 48
50.0
370
    -2
100
AcDbBlockReference
  2
_DOT
 10
8253.133260589015
 20
7304.595707472349
 30
0.0
 41
20.0
 42
20.0
 43
20.0
 50
90.0
  0
MTEXT
  5
18D9A
330
18C3F
100
AcDbEntity
  8
寸法
 62
     7
 48
50.0
100
AcDbMText
 10
8161.133260589013
 20
7164.110426098111
 30
0.0
 40
120.0
 41
0.0
 71
     5
 72
     1
  1
\A1;75
  7
STYLE1
 11
0.0000000000000001
 21
1.0
 31
0.0
 73
     1
 44
1.0
1001
ACAD
1000
MTEXTBEGIN
1070
    73
1070
     1
1070
    44
1040
1.0
1070
    74
1070
     0
1000
MTEXTEND
  0
POINT
  5
18D9B
330
18C3F
100
AcDbEntity
  8
DEFPOINTS
 62
     0
 48
50.0
100
AcDbPoint
 10
8547.744506215732
 20
7379.595707472349
 30
0.0
  0
POINT
  5
18D9C
330
18C3F
100
AcDbEntity
  8
DEFPOINTS
 62
     0
 48
50.0
100
AcDbPoint
 10
8995.744506215705
 20
7304.595707472349
 30
0.0
  0
POINT
  5
18D9D
330
18C3F
100
AcDbEntity
  8
DEFPOINTS
 62
     0
 48
50.0
100
AcDbPoint
 10
8253.133260589015
 20
7304.595707472349
 30
0.0
  0
ENDBLK
  5
18C4C
330
18C3F
100
AcDbEntity
  8
0
 48
50.0
100
AcDbBlockEnd
  0
BLOCK
  5
18CAF
330
18CA5
100
AcDbEntity
  8
0
 48
50.0
100
AcDbBlockBegin
  2
*D33
 70
     1
 10
0.0
 20
0.0
 30
0.0
  3
*D33
  1

  0
LINE
  5
18D8A
330
18CA5
100
AcDbEntity
  8
寸法
 62
     0
 48
50.0
370
    -2
100
AcDbLine
 10
8547.744506215732
 20
7359.595707472315
 30
0.0
 11
8547.744506215732
 21
6038.398750191346
 31
0.0
  0
LINE
  5
18D8B
330
18CA5
100
AcDbEntity
  8
寸法
 62
     0
 48
50.0
370
    -2
100
AcDbLine
 10
11177.74450621571
 20
7359.595707472479
 30
0.0
 11
11177.74450621571
 21
6038.398750191346
 31
0.0
  0
LINE
  5
18D8C
330
18CA5
100
AcDbEntity
  8
寸法
 62
     0
 48
50.0
370
    -2
100
AcDbLine
 10
8547.744506215732
 20
6098.398750191346
 30
0.0
 11
11177.74450621571
 21
6098.398750191346
 31
0.0
  0
INSERT
  5
18D8D
330
18CA5
100
AcDbEntity
  8
寸法
 62
     0
 48
50.0
370
    -2
100
AcDbBlockReference
  2
_DOTSMALL
 10
8547.744506215732
 20
6098.398750191346
 30
0.0
 41
100.0
 42
100.0
 43
100.0
 50
180.0
  0
INSERT
  5
18D8E
330
18CA5
100
AcDbEntity
  8
寸法
 62
     0
 48
50.0
370
    -2
100
AcDbBlockReference
  2
_DOTSMALL
 10
11177.74450621571
 20
6098.398750191346
 30
0.0
 41
100.0
 42
100.0
 43
100.0
  0
MTEXT
  5
18D8F
330
18CA5
100
AcDbEntity
  8
寸法
 62
     7
 48
50.0
100
AcDbMText
 10
9847.183850918254
 20
6198.410561214968
 30
0.0
 40
120.0
 41
0.0
 71
     5
 72
     1
  1
\A1;2630
  7
STYLE1
 73
     1
 44
1.0
1001
ACAD
1000
MTEXTBEGIN
1070
    73
1070
     1
1070
    44
1040
1.0
1070
    74
1070
     0
1000
MTEXTEND
  0
POINT
  5
18D90
330
18CA5
100
AcDbEntity
  8
DEFPOINTS
 62
     0
 48
50.0
100
AcDbPoint
 10
8547.744506215732
 20
7379.595707472316
 30
0.0
  0
POINT
  5
18D91
330
18CA5
100
AcDbEntity
  8
DEFPOINTS
 62
     0
 48
50.0
100
AcDbPoint
 10
11177.74450621571
 20
7379.595707472479
 30
0.0
  0
POINT
  5
18D92
330
18CA5
100
AcDbEntity
  8
DEFPOINTS
 62
     0
 48
50.0
100
AcDbPoint
 10
11177.74450621571
 20
6098.398750191346
 30
0.0
  0
ENDBLK
  5
18CB0
330
18CA5
100
AcDbEntity
  8
0
 48
50.0
100
AcDbBlockEnd
  0
ENDSEC
  0
SECTION
  2
ENTITIES
  0
LINE
  5
10B57
330
747D
100
AcDbEntity
  8
補助
  6
PHANTOM
 62
   230
 48
50.0
100
AcDbLine
 10
139.9999999999995
 20
11409.6
 30
0.0
 11
16307.2
 21
11409.6
 31
0.0
  0
LINE
  5
10B59
330
747D
100
AcDbEntity
  8
仕様書枠
  6
Continuous
 48
50.0
100
AcDbLine
 10
13107.2
 20
1200.0
 30
0.0
 11
13107.2
 21
-0.0000000000000729
 31
0.0
  0
LINE
  5
10B5C
330
747D
100
AcDbEntity
  8
仕様書枠
 48
50.0
100
AcDbLine
 10
16307.2
 20
1200.0
 30
0.0
 11
16307.2
 21
-0.0000000000000909
 31
0.0
  0
LINE
  5
10B5D
330
747D
100
AcDbEntity
  8
仕様書枠
 48
50.0
100
AcDbLine
 10
140.0
 20
0.0
 30
0.0
 11
16307.2
 21
-0.0000000000000909
 31
0.0
  0
LINE
  5
10B5E
330
747D
100
AcDbEntity
  8
補助
  6
PHANTOM
 62
   230
 48
50.0
100
AcDbLine
 10
16307.2
 20
11409.6
 30
0.0
 11
16307.2
 21
1200.0
 31
0.0
  0
LINE
  5
10B6C
330
747D
100
AcDbEntity
  8
仕様書枠
 48
50.0
100
AcDbLine
 10
13107.2
 20
1200.0
 30
0.0
 11
16307.2
 21
1200.0
 31
0.0
  0
LINE
  5
10B6D
330
747D
100
AcDbEntity
  8
補助
  6
PHANTOM
 62
   230
 48
50.0
100
AcDbLine
 10
13107.2
 20
11409.6
 30
0.0
 11
13107.2
 21
4800.0
 31
0.0
  0
LINE
  5
10B6F
330
747D
100
AcDbEntity
  8
補助
  6
PHANTOM
 62
   230
 48
50.0
100
AcDbLine
 10
13107.2
 20
4800.0
 30
0.0
 11
16307.2
 21
4800.0
 31
0.0
  0
LINE
  5
10B72
330
747D
100
AcDbEntity
  8
文字
 62
     7
 48
50.0
100
AcDbLine
 10
13187.2
 20
400.0
 30
0.0
 11
16227.2
 21
400.0
 31
0.0
  0
TEXT
  5
10B73
330
747D
100
AcDbEntity
  8
文字
 62
     7
 48
50.0
100
AcDbText
 10
13162.9790565769
 20
895.0906074299405
 30
0.0
 40
200.0
  1
外 形 図
  7
STYLE2
100
AcDbText
  0
TEXT
  5
10B74
330
747D
100
AcDbEntity
  8
文字
 62
     7
 48
50.0
100
AcDbText
 10
13201.43669998441
 20
477.2740661031255
 30
0.0
 40
160.0
  1
機種名
  7
STYLE2
100
AcDbText
  0
TEXT
  5
10B76
330
747D
100
AcDbEntity
  8
文字
 62
     7
 48
50.0
100
AcDbText
 10
13209.4053442172
 20
76.09434707649343
 30
0.0
 40
100.0
  1
○床面積 ： 7.08㎡(2.15坪) 　
  7
STYLE2
100
AcDbText
  0
TEXT
  5
10B79
330
747D
100
AcDbEntity
  8
文字
 62
     7
 48
50.0
100
AcDbText
 10
14524.131837222
 20
1031.557706291228
 30
0.0
 40
100.0
  1
NO.24      <縮尺> S=1/40
  7
STYLE2
100
AcDbText
  0
LINE
  5
10B7B
330
747D
100
AcDbEntity
  8
仕様書枠
 48
50.0
100
AcDbLine
 10
13107.2
 20
800.0
 30
0.0
 11
14251.2
 21
800.0
 31
0.0
  0
LINE
  5
10B88
330
747D
100
AcDbEntity
  8
仕様書枠
  6
Continuous
 48
50.0
100
AcDbLine
 10
14251.2
 20
1200.0
 30
0.0
 11
14251.2
 21
800.0
 31
0.0
  0
TEXT
  5
154D3
330
747D
100
AcDbEntity
  8
文字
 62
     7
 48
50.0
100
AcDbText
 10
14643.63059855437
 20
863.0097378581719
 30
0.0
 40
100.0
  1
～一般型・多雪地型～
  7
STYLE2
100
AcDbText
  0
LINE
  5
17550
330
747D
100
AcDbEntity
  8
補助
  6
PHANTOM
 62
   230
 48
50.0
100
AcDbLine
 10
140.0
 20
0.0
 30
0.0
 11
139.9999999999995
 21
11409.6
 31
0.0
  0
LINE
  5
17A02
330
747D
100
AcDbEntity
  8
部品1
100
AcDbLine
 10
11149.74450621574
 20
8694.595707472494
 30
0.0
 11
11177.74450621574
 21
8694.595707472494
 31
0.0
  0
LINE
  5
17A03
330
747D
100
AcDbEntity
  8
部品1
100
AcDbLine
 10
8575.744506215713
 20
8694.595707472371
 30
0.0
 11
8547.744506215712
 21
8694.595707472371
 31
0.0
  0
LINE
  5
17A04
330
747D
100
AcDbEntity
  8
部品1
100
AcDbLine
 10
11121.24450621572
 20
8694.595707472464
 30
0.0
 11
8604.244506215723
 21
8694.595707472371
 31
0.0
  0
LINE
  5
17A87
330
747D
100
AcDbEntity
  8
細線
 48
50.0
100
AcDbLine
 10
8945.244506215729
 20
4177.653589224074
 30
0.0
 11
8945.244506215729
 21
2387.653589224074
 31
0.0
  0
LINE
  5
17A88
330
747D
100
AcDbEntity
  8
細線
 48
50.0
100
AcDbLine
 10
8960.24450621573
 20
4177.653589224074
 30
0.0
 11
8960.24450621573
 21
2387.653589224074
 31
0.0
  0
LINE
  5
17A89
330
747D
100
AcDbEntity
  8
細線
 48
50.0
100
AcDbLine
 10
8820.244506215729
 20
4177.653589224074
 30
0.0
 11
8820.244506215729
 21
2387.653589224074
 31
0.0
  0
LINE
  5
17A8A
330
747D
100
AcDbEntity
  8
細線
 48
50.0
100
AcDbLine
 10
8805.244506215728
 20
4177.653589224074
 30
0.0
 11
8805.244506215728
 21
2387.653589224074
 31
0.0
  0
LINE
  5
17A8B
330
747D
100
AcDbEntity
  8
細線
 48
50.0
100
AcDbLine
 10
8665.24450621573
 20
4177.653589224074
 30
0.0
 11
8665.24450621573
 21
2387.653589224074
 31
0.0
  0
LINE
  5
17A8C
330
747D
100
AcDbEntity
  8
細線
 48
50.0
100
AcDbLine
 10
8680.244506215728
 20
4177.653589224074
 30
0.0
 11
8680.244506215728
 21
2387.653589224074
 31
0.0
  0
LINE
  5
17A8D
330
747D
100
AcDbEntity
  8
部品1
100
AcDbLine
 10
11094.24450621572
 20
4388.253589232545
 30
0.0
 11
10982.74450621573
 21
4388.253589232545
 31
0.0
  0
LINE
  5
17A8E
330
747D
100
AcDbEntity
  8
部品1
100
AcDbLine
 10
10970.74450621573
 20
4407.653589232561
 30
0.0
 11
10970.74450621573
 21
4310.242521723989
 31
0.0
  0
LINE
  5
17A8F
330
747D
100
AcDbEntity
  8
部品1
100
AcDbLine
 10
10945.74450621573
 20
4407.653589232561
 30
0.0
 11
10945.74450621573
 21
4310.242521723989
 31
0.0
  0
LINE
  5
17A90
330
747D
100
AcDbEntity
  8
部品1
100
AcDbLine
 10
10872.74450621573
 20
4407.653589232561
 30
0.0
 11
10872.74450621573
 21
4310.242521723989
 31
0.0
  0
LINE
  5
17A91
330
747D
100
AcDbEntity
  8
部品1
100
AcDbLine
 10
10897.74450621572
 20
4407.653589232561
 30
0.0
 11
10897.74450621572
 21
4310.242521723989
 31
0.0
  0
LINE
  5
17A92
330
747D
100
AcDbEntity
  8
部品1
 48
50.0
100
AcDbLine
 10
10944.24450621572
 20
4407.653589232564
 30
0.0
 11
10972.24450621572
 21
4407.653589232564
 31
0.0
  0
LINE
  5
17A93
330
747D
100
AcDbEntity
  8
部品1
 48
50.0
100
AcDbLine
 10
10972.24450621572
 20
4407.653589232564
 30
0.0
 11
10982.74450621572
 21
4388.253589232563
 31
0.0
  0
LINE
  5
17A94
330
747D
100
AcDbEntity
  8
部品1
 48
50.0
100
AcDbLine
 10
10944.24450621572
 20
4407.653589232564
 30
0.0
 11
10933.74450621572
 21
4388.253589232563
 31
0.0
  0
LINE
  5
17A95
330
747D
100
AcDbEntity
  8
部品1
 48
50.0
100
AcDbLine
 10
10871.24450621572
 20
4407.653589232564
 30
0.0
 11
10899.24450621571
 21
4407.653589232564
 31
0.0
  0
LINE
  5
17A96
330
747D
100
AcDbEntity
  8
部品1
 48
50.0
100
AcDbLine
 10
10871.24450621572
 20
4407.653589232564
 30
0.0
 11
10860.74450621572
 21
4388.253589232563
 31
0.0
  0
LINE
  5
17A97
330
747D
100
AcDbEntity
  8
部品1
 48
50.0
100
AcDbLine
 10
10899.24450621572
 20
4407.653589232564
 30
0.0
 11
10909.74450621572
 21
4388.253589232563
 31
0.0
  0
LINE
  5
17A98
330
747D
100
AcDbEntity
  8
部品1
100
AcDbLine
 10
10933.74450621571
 20
4388.25358923256
 30
0.0
 11
10909.74450621572
 21
4388.25358923256
 31
0.0
  0
LINE
  5
17A99
330
747D
100
AcDbEntity
  8
部品1
100
AcDbLine
 10
10860.74450621572
 20
4388.25358923256
 30
0.0
 11
10717.24450621571
 21
4388.25358923256
 31
0.0
  0
LINE
  5
17A9A
330
747D
100
AcDbEntity
  8
部品1
 48
50.0
100
AcDbLine
 10
10714.74450621572
 20
4407.653589232561
 30
0.0
 11
10717.24450621572
 21
4388.25358923256
 31
0.0
  0
LINE
  5
17A9B
330
747D
100
AcDbEntity
  8
部品1
 48
50.0
100
AcDbLine
 10
10675.53316600953
 20
4398.253589232559
 30
0.0
 11
10674.24450621572
 21
4388.25358923256
 31
0.0
  0
LINE
  5
17A9C
330
747D
100
AcDbEntity
  8
部品1
 48
50.0
100
AcDbLine
 10
10675.53316600953
 20
4398.253589232559
 30
0.0
 11
10689.53316600953
 21
4398.253589232559
 31
0.0
  0
LINE
  5
17A9D
330
747D
100
AcDbEntity
  8
部品1
 48
50.0
100
AcDbLine
 10
10690.74450621572
 20
4407.653589232561
 30
0.0
 11
10689.53316600953
 21
4398.253589232559
 31
0.0
  0
LINE
  5
17A9E
330
747D
100
AcDbEntity
  8
部品1
 48
50.0
100
AcDbLine
 10
10690.74450621572
 20
4407.653589232561
 30
0.0
 11
10714.74450621572
 21
4407.653589232561
 31
0.0
  0
LINE
  5
17A9F
330
747D
100
AcDbEntity
  8
部品1
100
AcDbLine
 10
10711.74450621571
 20
4407.653589232561
 30
0.0
 11
10711.74450621571
 21
4310.242521723985
 31
0.0
  0
LINE
  5
17AA0
330
747D
100
AcDbEntity
  8
部品1
100
AcDbLine
 10
10693.74450621571
 20
4407.65358923255
 30
0.0
 11
10693.74450621571
 21
4310.242521723985
 31
0.0
  0
LINE
  5
17AA1
330
747D
100
AcDbEntity
  8
部品1
100
AcDbLine
 10
11177.81513420892
 20
4388.253589232541
 30
0.0
 11
11137.24450621571
 21
4388.253589232541
 31
0.0
  0
LINE
  5
17AA2
330
747D
100
AcDbEntity
  8
部品1
 48
50.0
100
AcDbLine
 10
11134.74450621571
 20
4407.653589232547
 30
0.0
 11
11137.24450621571
 21
4388.253589232545
 31
0.0
  0
LINE
  5
17AA3
330
747D
100
AcDbEntity
  8
部品1
 48
50.0
100
AcDbLine
 10
11095.53316600953
 20
4398.253589232544
 30
0.0
 11
11094.24450621572
 21
4388.253589232545
 31
0.0
  0
LINE
  5
17AA4
330
747D
100
AcDbEntity
  8
部品1
 48
50.0
100
AcDbLine
 10
11095.53316600953
 20
4398.253589232544
 30
0.0
 11
11109.53316600953
 21
4398.253589232544
 31
0.0
  0
LINE
  5
17AA5
330
747D
100
AcDbEntity
  8
部品1
 48
50.0
100
AcDbLine
 10
11110.74450621571
 20
4407.653589232547
 30
0.0
 11
11109.53316600953
 21
4398.253589232544
 31
0.0
  0
LINE
  5
17AA6
330
747D
100
AcDbEntity
  8
細線
 48
50.0
100
AcDbLine
 10
11177.81513420892
 20
4329.625421972023
 30
0.0
 11
11225.87837549287
 21
4329.62542197203
 31
0.0
  0
LINE
  5
17AA7
330
747D
100
AcDbEntity
  8
細線
 48
50.0
100
AcDbLine
 10
11195.25559612
 20
4357.653589224073
 30
0.0
 11
11195.25559612
 21
4231.153589224073
 31
0.0
  0
ARC
  5
17AA8
330
747D
100
AcDbEntity
  8
部品1
100
AcDbCircle
 10
11220.75846239851
 20
4405.653589240972
 30
0.0
 40
7.0
100
AcDbArc
 50
356.3813705198688
 51
90.0
  0
LINE
  5
17AA9
330
747D
100
AcDbEntity
  8
部品1
100
AcDbLine
 10
11182.81513420892
 20
4412.653589240972
 30
0.0
 11
11220.75846239851
 21
4412.653589240972
 31
0.0
  0
ARC
  5
17AAA
330
747D
100
AcDbEntity
  8
部品1
100
AcDbCircle
 10
11182.81513420892
 20
4407.653589240972
 30
0.0
 40
5.0
100
AcDbArc
 50
90.0
 51
180.0
  0
LINE
  5
17AAB
330
747D
100
AcDbEntity
  8
部品1
 48
50.0
100
AcDbLine
 10
11227.74450621571
 20
4350.211784081484
 30
0.0
 11
11227.74450621571
 21
4405.211784098383
 31
0.0
  0
LINE
  5
17AAC
330
747D
100
AcDbEntity
  8
部品1
100
AcDbLine
 10
11177.81513420892
 20
4407.653589240972
 30
0.0
 11
11177.81513420892
 21
4310.24252172397
 31
0.0
  0
ARC
  5
17AAD
330
747D
100
AcDbEntity
  8
部品1
100
AcDbCircle
 10
11182.81513420892
 20
4352.653589224074
 30
0.0
 40
5.0
100
AcDbArc
 50
90.0
 51
180.0
  0
LINE
  5
17AAE
330
747D
100
AcDbEntity
  8
部品1
100
AcDbLine
 10
11182.81513420892
 20
4357.653589224073
 30
0.0
 11
11220.75846239851
 21
4357.653589224073
 31
0.0
  0
LINE
  5
17AAF
330
747D
100
AcDbEntity
  8
部品1
100
AcDbLine
 10
11226.48396815715
 20
4330.279526030403
 30
0.0
 11
11227.74450621571
 21
4350.211784081484
 31
0.0
  0
LINE
  5
17AB0
330
747D
100
AcDbEntity
  8
部品1
100
AcDbLine
 10
11214.61789536974
 20
4237.711784081485
 30
0.0
 11
11215.29022107433
 21
4248.342934285187
 31
0.0
  0
ARC
  5
17AB1
330
747D
100
AcDbEntity
  8
部品1
100
AcDbCircle
 10
11220.75846239851
 20
4350.653589224073
 30
0.0
 40
7.0
100
AcDbArc
 50
356.3813705198688
 51
90.0
  0
ARC
  5
17AB2
330
747D
100
AcDbEntity
  8
部品1
100
AcDbCircle
 10
11207.63185155253
 20
4238.153589224073
 30
0.0
 40
7.0
100
AcDbArc
 50
270.0
 51
356.3813705198688
  0
ARC
  5
17AB3
330
747D
100
AcDbEntity
  8
部品1
100
AcDbCircle
 10
11218.28423985313
 20
4248.153589224073
 30
0.0
 40
3.0
100
AcDbArc
 50
90.0
 51
176.3813705198687
  0
ARC
  5
17AB4
330
747D
100
AcDbEntity
  8
部品1
100
AcDbCircle
 10
11217.81494372793
 20
4251.823706544665
 30
0.0
 40
0.7
100
AcDbArc
 50
277.2868405166456
 51
356.3813705198688
  0
LINE
  5
17AB5
330
747D
100
AcDbEntity
  8
部品1
100
AcDbLine
 10
11223.26064112182
 20
4326.842934285187
 30
0.0
 11
11218.51354810966
 21
4251.779526030403
 31
0.0
  0
ARC
  5
17AB6
330
747D
100
AcDbEntity
  8
部品1
100
AcDbCircle
 10
11226.25465990062
 20
4326.653589224074
 30
0.0
 40
3.0
100
AcDbArc
 50
90.0
 51
176.3813705198687
  0
ARC
  5
17AB7
330
747D
100
AcDbEntity
  8
部品1
100
AcDbCircle
 10
11225.78536377543
 20
4330.323706544664
 30
0.0
 40
0.7
100
AcDbArc
 50
277.2868405166456
 51
356.3813705198688
  0
LINE
  5
17AB8
330
747D
100
AcDbEntity
  8
部品1
 48
50.0
100
AcDbLine
 10
11182.81513420892
 20
4357.653589224073
 30
0.0
 11
11220.75846239851
 21
4357.653589224073
 31
0.0
  0
LINE
  5
17AB9
330
747D
100
AcDbEntity
  8
部品1
 48
50.0
100
AcDbLine
 10
11110.74450621571
 20
4407.653589232547
 30
0.0
 11
11134.74450621571
 21
4407.653589232547
 31
0.0
  0
LINE
  5
17ABA
330
747D
100
AcDbEntity
  8
部品1
100
AcDbLine
 10
11131.74450621571
 20
4407.653589232547
 30
0.0
 11
11131.74450621571
 21
4310.24252172397
 31
0.0
  0
LINE
  5
17ABB
330
747D
100
AcDbEntity
  8
部品1
100
AcDbLine
 10
11113.74450621571
 20
4407.653589232535
 30
0.0
 11
11113.74450621571
 21
4310.24252172397
 31
0.0
  0
DIMENSION
  5
17ABC
330
747D
100
AcDbEntity
  8
寸法
 48
50.0
100
AcDbDimension
  2
*D17
 10
11177.74450621572
 20
4811.746758563548
 30
0.0
 11
11541.22978758996
 21
4811.746758563548
 31
0.0
 70
   160
 71
     5
 42
50.0
  3
INABA_S40G
100
AcDbAlignedDimension
 13
11227.74450621572
 23
4412.653589224077
 33
0.0
 14
11177.74450621572
 24
4412.653589224077
 34
0.0
100
AcDbRotatedDimension
  0
LINE
  5
17ABD
330
747D
100
AcDbEntity
  8
部品1
100
AcDbLine
 10
10273.74450621573
 20
4407.653589232539
 30
0.0
 11
10273.74450621573
 21
4310.242521723973
 31
0.0
  0
LINE
  5
17ABE
330
747D
100
AcDbEntity
  8
部品1
100
AcDbLine
 10
10291.74450621573
 20
4407.65358923255
 30
0.0
 11
10291.74450621573
 21
4310.242521723973
 31
0.0
  0
LINE
  5
17ABF
330
747D
100
AcDbEntity
  8
部品1
 48
50.0
100
AcDbLine
 10
10270.74450621574
 20
4407.65358923255
 30
0.0
 11
10294.74450621574
 21
4407.65358923255
 31
0.0
  0
LINE
  5
17AC0
330
747D
100
AcDbEntity
  8
部品1
 48
50.0
100
AcDbLine
 10
10270.74450621574
 20
4407.65358923255
 30
0.0
 11
10269.53316600955
 21
4398.253589232548
 31
0.0
  0
LINE
  5
17AC1
330
747D
100
AcDbEntity
  8
部品1
 48
50.0
100
AcDbLine
 10
10255.53316600955
 20
4398.253589232548
 30
0.0
 11
10269.53316600955
 21
4398.253589232548
 31
0.0
  0
LINE
  5
17AC2
330
747D
100
AcDbEntity
  8
部品1
 48
50.0
100
AcDbLine
 10
10255.53316600955
 20
4398.253589232548
 30
0.0
 11
10254.24450621574
 21
4388.253589232548
 31
0.0
  0
LINE
  5
17AC3
330
747D
100
AcDbEntity
  8
部品1
 48
50.0
100
AcDbLine
 10
10294.74450621574
 20
4407.65358923255
 30
0.0
 11
10297.24450621574
 21
4388.253589232548
 31
0.0
  0
LINE
  5
17AC4
330
747D
100
AcDbEntity
  8
部品1
100
AcDbLine
 10
10440.74450621573
 20
4388.253589232548
 30
0.0
 11
10297.24450621573
 21
4388.253589232548
 31
0.0
  0
LINE
  5
17AC5
330
747D
100
AcDbEntity
  8
部品1
100
AcDbLine
 10
10513.74450621573
 20
4388.253589232548
 30
0.0
 11
10489.74450621574
 21
4388.253589232548
 31
0.0
  0
LINE
  5
17AC6
330
747D
100
AcDbEntity
  8
部品1
 48
50.0
100
AcDbLine
 10
10479.24450621574
 20
4407.653589232554
 30
0.0
 11
10489.74450621574
 21
4388.253589232552
 31
0.0
  0
LINE
  5
17AC7
330
747D
100
AcDbEntity
  8
部品1
 48
50.0
100
AcDbLine
 10
10451.24450621574
 20
4407.653589232554
 30
0.0
 11
10440.74450621574
 21
4388.253589232552
 31
0.0
  0
LINE
  5
17AC8
330
747D
100
AcDbEntity
  8
部品1
 48
50.0
100
AcDbLine
 10
10451.24450621574
 20
4407.653589232554
 30
0.0
 11
10479.24450621573
 21
4407.653589232554
 31
0.0
  0
LINE
  5
17AC9
330
747D
100
AcDbEntity
  8
部品1
 48
50.0
100
AcDbLine
 10
10524.24450621574
 20
4407.653589232554
 30
0.0
 11
10513.74450621574
 21
4388.253589232552
 31
0.0
  0
LINE
  5
17ACA
330
747D
100
AcDbEntity
  8
部品1
 48
50.0
100
AcDbLine
 10
10552.24450621574
 20
4407.653589232554
 30
0.0
 11
10562.74450621574
 21
4388.253589232552
 31
0.0
  0
LINE
  5
17ACB
330
747D
100
AcDbEntity
  8
部品1
 48
50.0
100
AcDbLine
 10
10524.24450621574
 20
4407.653589232554
 30
0.0
 11
10552.24450621573
 21
4407.653589232554
 31
0.0
  0
LINE
  5
17ACC
330
747D
100
AcDbEntity
  8
部品1
100
AcDbLine
 10
10477.74450621574
 20
4407.65358923255
 30
0.0
 11
10477.74450621574
 21
4310.242521723977
 31
0.0
  0
LINE
  5
17ACD
330
747D
100
AcDbEntity
  8
部品1
100
AcDbLine
 10
10452.74450621574
 20
4407.65358923255
 30
0.0
 11
10452.74450621574
 21
4310.242521723977
 31
0.0
  0
LINE
  5
17ACE
330
747D
100
AcDbEntity
  8
部品1
100
AcDbLine
 10
10525.74450621574
 20
4407.65358923255
 30
0.0
 11
10525.74450621575
 21
4310.242521723977
 31
0.0
  0
LINE
  5
17ACF
330
747D
100
AcDbEntity
  8
部品1
100
AcDbLine
 10
10550.74450621574
 20
4407.65358923255
 30
0.0
 11
10550.74450621575
 21
4310.242521723977
 31
0.0
  0
LINE
  5
17AD0
330
747D
100
AcDbEntity
  8
部品1
100
AcDbLine
 10
10674.24450621573
 20
4388.253589232534
 30
0.0
 11
10562.74450621574
 21
4388.253589232534
 31
0.0
  0
LINE
  5
17AD1
330
747D
100
AcDbEntity
  8
部品1
100
AcDbLine
 10
10130.74450621574
 20
4407.653589232547
 30
0.0
 11
10130.74450621574
 21
4310.242521723973
 31
0.0
  0
LINE
  5
17AD2
330
747D
100
AcDbEntity
  8
部品1
100
AcDbLine
 10
10105.74450621574
 20
4407.653589232547
 30
0.0
 11
10105.74450621574
 21
4310.242521723973
 31
0.0
  0
LINE
  5
17AD3
330
747D
100
AcDbEntity
  8
部品1
100
AcDbLine
 10
10032.74450621574
 20
4407.653589232547
 30
0.0
 11
10032.74450621574
 21
4310.242521723973
 31
0.0
  0
LINE
  5
17AD4
330
747D
100
AcDbEntity
  8
部品1
100
AcDbLine
 10
10057.74450621574
 20
4407.653589232547
 30
0.0
 11
10057.74450621574
 21
4310.242521723973
 31
0.0
  0
LINE
  5
17AD5
330
747D
100
AcDbEntity
  8
部品1
100
AcDbLine
 10
10020.74450621573
 20
4388.253589232545
 30
0.0
 11
9877.244506215733
 21
4388.253589232545
 31
0.0
  0
LINE
  5
17AD6
330
747D
100
AcDbEntity
  8
部品1
100
AcDbLine
 10
10254.24450621573
 20
4388.25358923253
 30
0.0
 11
10142.74450621574
 21
4388.25358923253
 31
0.0
  0
LINE
  5
17AD7
330
747D
100
AcDbEntity
  8
部品1
 48
50.0
100
AcDbLine
 10
10104.24450621574
 20
4407.65358923255
 30
0.0
 11
10132.24450621573
 21
4407.65358923255
 31
0.0
  0
LINE
  5
17AD8
330
747D
100
AcDbEntity
  8
部品1
 48
50.0
100
AcDbLine
 10
10132.24450621573
 20
4407.65358923255
 30
0.0
 11
10142.74450621573
 21
4388.253589232548
 31
0.0
  0
LINE
  5
17AD9
330
747D
100
AcDbEntity
  8
部品1
 48
50.0
100
AcDbLine
 10
10104.24450621574
 20
4407.65358923255
 30
0.0
 11
10093.74450621574
 21
4388.253589232548
 31
0.0
  0
LINE
  5
17ADA
330
747D
100
AcDbEntity
  8
部品1
 48
50.0
100
AcDbLine
 10
10031.24450621573
 20
4407.65358923255
 30
0.0
 11
10059.24450621573
 21
4407.65358923255
 31
0.0
  0
LINE
  5
17ADB
330
747D
100
AcDbEntity
  8
部品1
 48
50.0
100
AcDbLine
 10
10031.24450621573
 20
4407.65358923255
 30
0.0
 11
10020.74450621573
 21
4388.253589232548
 31
0.0
  0
LINE
  5
17ADC
330
747D
100
AcDbEntity
  8
部品1
 48
50.0
100
AcDbLine
 10
10059.24450621573
 20
4407.65358923255
 30
0.0
 11
10069.74450621573
 21
4388.253589232548
 31
0.0
  0
LINE
  5
17ADD
330
747D
100
AcDbEntity
  8
部品1
100
AcDbLine
 10
10093.74450621573
 20
4388.253589232545
 30
0.0
 11
10069.74450621573
 21
4388.253589232545
 31
0.0
  0
LINE
  5
17ADE
330
747D
100
AcDbEntity
  8
部品1
 48
50.0
100
AcDbLine
 10
8530.233416311453
 20
4310.24252172397
 30
0.0
 11
11195.25559612
 21
4310.242521723973
 31
0.0
  0
LINE
  5
17ADF
330
747D
100
AcDbEntity
  8
部品1
 48
50.0
100
AcDbLine
 10
9874.744506215737
 20
4407.653589232547
 30
0.0
 11
9877.244506215738
 21
4388.253589232545
 31
0.0
  0
LINE
  5
17AE0
330
747D
100
AcDbEntity
  8
部品1
 48
50.0
100
AcDbLine
 10
9835.533166009552
 20
4398.253589232544
 30
0.0
 11
9834.244506215737
 21
4388.253589232545
 31
0.0
  0
LINE
  5
17AE1
330
747D
100
AcDbEntity
  8
部品1
 48
50.0
100
AcDbLine
 10
9835.533166009552
 20
4398.253589232544
 30
0.0
 11
9849.533166009551
 21
4398.253589232544
 31
0.0
  0
LINE
  5
17AE2
330
747D
100
AcDbEntity
  8
部品1
 48
50.0
100
AcDbLine
 10
9850.744506215738
 20
4407.653589232547
 30
0.0
 11
9849.533166009551
 21
4398.253589232544
 31
0.0
  0
LINE
  5
17AE3
330
747D
100
AcDbEntity
  8
部品1
 48
50.0
100
AcDbLine
 10
9850.744506215738
 20
4407.653589232547
 30
0.0
 11
9874.744506215737
 21
4407.653589232547
 31
0.0
  0
LINE
  5
17AE4
330
747D
100
AcDbEntity
  8
部品1
100
AcDbLine
 10
9871.74450621573
 20
4407.653589232547
 30
0.0
 11
9871.74450621573
 21
4310.24252172397
 31
0.0
  0
LINE
  5
17AE5
330
747D
100
AcDbEntity
  8
部品1
100
AcDbLine
 10
9853.744506215731
 20
4407.653589232535
 30
0.0
 11
9853.744506215731
 21
4310.24252172397
 31
0.0
  0
LINE
  5
17AE6
330
747D
100
AcDbEntity
  8
細線
 48
50.0
100
AcDbLine
 10
8547.673878222528
 20
4329.625421972023
 30
0.0
 11
8499.610636938582
 21
4329.62542197203
 31
0.0
  0
LINE
  5
17AE7
330
747D
100
AcDbEntity
  8
細線
 48
50.0
100
AcDbLine
 10
8530.233416311451
 20
4357.653589224073
 30
0.0
 11
8530.233416311451
 21
4231.153589224073
 31
0.0
  0
LINE
  5
17AE8
330
747D
100
AcDbEntity
  8
細線
 48
50.0
100
AcDbLine
 10
11218.52286388879
 20
4251.926831787858
 30
0.0
 11
8507.628097848254
 21
4251.926831787858
 31
0.0
  0
ARC
  5
17AE9
330
747D
100
AcDbEntity
  8
部品1
100
AcDbCircle
 10
8504.730550032945
 20
4405.653589240972
 30
0.0
 40
7.0
100
AcDbArc
 50
90.0
 51
183.6186294801312
  0
LINE
  5
17AEA
330
747D
100
AcDbEntity
  8
部品1
100
AcDbLine
 10
8542.673878222529
 20
4412.653589240972
 30
0.0
 11
8504.730550032945
 21
4412.653589240972
 31
0.0
  0
ARC
  5
17AEB
330
747D
100
AcDbEntity
  8
部品1
100
AcDbCircle
 10
8542.673878222529
 20
4407.653589240972
 30
0.0
 40
5.0
100
AcDbArc
 50
0.0
 51
90.0
  0
LINE
  5
17AEC
330
747D
100
AcDbEntity
  8
部品1
 48
50.0
100
AcDbLine
 10
8497.744506215735
 20
4350.211784081484
 30
0.0
 11
8497.744506215735
 21
4405.211784098383
 31
0.0
  0
LINE
  5
17AED
330
747D
100
AcDbEntity
  8
部品1
100
AcDbLine
 10
11207.63185155253
 20
4231.153589224073
 30
0.0
 11
8517.857160878916
 21
4231.153589224073
 31
0.0
  0
LINE
  5
17AEE
330
747D
100
AcDbEntity
  8
部品1
100
AcDbLine
 10
8547.67387822253
 20
4407.653589240972
 30
0.0
 11
8547.673878222528
 21
4310.249560551403
 31
0.0
  0
ARC
  5
17AEF
330
747D
100
AcDbEntity
  8
部品1
100
AcDbCircle
 10
8542.673878222529
 20
4352.653589224074
 30
0.0
 40
5.0
100
AcDbArc
 50
0.0
 51
90.0
  0
LINE
  5
17AF0
330
747D
100
AcDbEntity
  8
部品1
100
AcDbLine
 10
8542.673878222529
 20
4357.653589224073
 30
0.0
 11
8504.730550032945
 21
4357.653589224073
 31
0.0
  0
LINE
  5
17AF1
330
747D
100
AcDbEntity
  8
部品1
100
AcDbLine
 10
8499.005044274301
 20
4330.279526030403
 30
0.0
 11
8497.744506215735
 21
4350.211784081484
 31
0.0
  0
LINE
  5
17AF2
330
747D
100
AcDbEntity
  8
部品1
100
AcDbLine
 10
8510.871117061707
 20
4237.711784081485
 30
0.0
 11
8510.198791357124
 21
4248.342934285187
 31
0.0
  0
ARC
  5
17AF3
330
747D
100
AcDbEntity
  8
部品1
100
AcDbCircle
 10
8504.730550032945
 20
4350.653589224073
 30
0.0
 40
7.0
100
AcDbArc
 50
90.0
 51
183.6186294801312
  0
ARC
  5
17AF4
330
747D
100
AcDbEntity
  8
部品1
100
AcDbCircle
 10
8517.857160878916
 20
4238.153589224073
 30
0.0
 40
7.0
100
AcDbArc
 50
183.6186294801312
 51
270.0
  0
ARC
  5
17AF5
330
747D
100
AcDbEntity
  8
部品1
100
AcDbCircle
 10
8507.204772578319
 20
4248.153589224073
 30
0.0
 40
3.0
100
AcDbArc
 50
3.61862948013121
 51
90.0
  0
ARC
  5
17AF6
330
747D
100
AcDbEntity
  8
部品1
100
AcDbCircle
 10
8507.674068703513
 20
4251.823706544665
 30
0.0
 40
0.7
100
AcDbArc
 50
183.6186294801312
 51
262.7131594833544
  0
LINE
  5
17AF7
330
747D
100
AcDbEntity
  8
部品1
100
AcDbLine
 10
8502.228371309632
 20
4326.842934285187
 30
0.0
 11
8506.975464321794
 21
4251.779526030403
 31
0.0
  0
ARC
  5
17AF8
330
747D
100
AcDbEntity
  8
部品1
100
AcDbCircle
 10
8499.234352530828
 20
4326.653589224074
 30
0.0
 40
3.0
100
AcDbArc
 50
3.61862948013121
 51
90.0
  0
ARC
  5
17AF9
330
747D
100
AcDbEntity
  8
部品1
100
AcDbCircle
 10
8499.703648656023
 20
4330.323706544664
 30
0.0
 40
0.7
100
AcDbArc
 50
183.6186294801312
 51
262.7131594833544
  0
LINE
  5
17AFA
330
747D
100
AcDbEntity
  8
部品1
 48
50.0
100
AcDbLine
 10
8542.673878222529
 20
4357.653589224073
 30
0.0
 11
8504.730550032945
 21
4357.653589224073
 31
0.0
  0
LINE
  5
17AFB
330
747D
100
AcDbEntity
  8
部品1
100
AcDbLine
 10
9834.244506215732
 20
4388.253589232527
 30
0.0
 11
9722.744506215743
 21
4388.253589232527
 31
0.0
  0
LINE
  5
17AFC
330
747D
100
AcDbEntity
  8
部品1
100
AcDbLine
 10
11182.81484351036
 20
4412.653589232521
 30
0.0
 11
8522.176666596642
 21
4412.653589232546
 31
0.0
  0
LINE
  5
17AFD
330
747D
100
AcDbEntity
  8
部品1
 48
50.0
100
AcDbLine
 10
8995.533166009547
 20
4398.253589232544
 30
0.0
 11
9009.533166009546
 21
4398.253589232544
 31
0.0
  0
LINE
  5
17AFE
330
747D
100
AcDbEntity
  8
部品1
100
AcDbLine
 10
8760.744506215734
 20
4388.253589232541
 30
0.0
 11
8617.244506215735
 21
4388.253589232545
 31
0.0
  0
LINE
  5
17AFF
330
747D
100
AcDbEntity
  8
部品1
 48
50.0
100
AcDbLine
 10
8614.744506215734
 20
4407.653589232547
 30
0.0
 11
8590.744506215735
 21
4407.653589232547
 31
0.0
  0
LINE
  5
17B00
330
747D
100
AcDbEntity
  8
部品1
 48
50.0
100
AcDbLine
 10
8590.744506215735
 20
4407.653589232547
 30
0.0
 11
8589.533166009548
 21
4398.253589232544
 31
0.0
  0
LINE
  5
17B01
330
747D
100
AcDbEntity
  8
部品1
 48
50.0
100
AcDbLine
 10
8575.533166009547
 20
4398.253589232544
 30
0.0
 11
8574.244506215734
 21
4388.253589232545
 31
0.0
  0
LINE
  5
17B02
330
747D
100
AcDbEntity
  8
部品1
 48
50.0
100
AcDbLine
 10
8575.533166009547
 20
4398.253589232544
 30
0.0
 11
8589.533166009548
 21
4398.253589232544
 31
0.0
  0
LINE
  5
17B03
330
747D
100
AcDbEntity
  8
部品1
100
AcDbLine
 10
8574.244506215734
 20
4388.253589232545
 30
0.0
 11
8547.744506215734
 21
4388.253589232545
 31
0.0
  0
LINE
  5
17B04
330
747D
100
AcDbEntity
  8
部品1
 48
50.0
100
AcDbLine
 10
8614.744506215734
 20
4407.653589232547
 30
0.0
 11
8617.244506215735
 21
4388.253589232545
 31
0.0
  0
LINE
  5
17B05
330
747D
100
AcDbEntity
  8
部品1
100
AcDbLine
 10
8593.744506215742
 20
4407.653589232547
 30
0.0
 11
8593.744506215744
 21
4310.24252172397
 31
0.0
  0
LINE
  5
17B06
330
747D
100
AcDbEntity
  8
部品1
100
AcDbLine
 10
8611.744506215742
 20
4407.653589232535
 30
0.0
 11
8611.744506215742
 21
4310.24252172397
 31
0.0
  0
LINE
  5
17B07
330
747D
100
AcDbEntity
  8
部品1
 48
50.0
100
AcDbLine
 10
8844.244506215735
 20
4407.653589232547
 30
0.0
 11
8833.744506215735
 21
4388.253589232545
 31
0.0
  0
LINE
  5
17B08
330
747D
100
AcDbEntity
  8
部品1
 48
50.0
100
AcDbLine
 10
8771.244506215735
 20
4407.653589232547
 30
0.0
 11
8799.244506215732
 21
4407.653589232547
 31
0.0
  0
LINE
  5
17B09
330
747D
100
AcDbEntity
  8
部品1
 48
50.0
100
AcDbLine
 10
8771.244506215735
 20
4407.653589232547
 30
0.0
 11
8760.744506215734
 21
4388.253589232545
 31
0.0
  0
LINE
  5
17B0A
330
747D
100
AcDbEntity
  8
部品1
100
AcDbLine
 10
8772.744506215742
 20
4407.653589232543
 30
0.0
 11
8772.74450621574
 21
4310.24252172397
 31
0.0
  0
LINE
  5
17B0B
330
747D
100
AcDbEntity
  8
部品1
 48
50.0
100
AcDbLine
 10
8799.244506215734
 20
4407.653589232547
 30
0.0
 11
8809.744506215734
 21
4388.253589232545
 31
0.0
  0
LINE
  5
17B0C
330
747D
100
AcDbEntity
  8
部品1
100
AcDbLine
 10
8797.744506215742
 20
4407.653589232543
 30
0.0
 11
8797.744506215744
 21
4310.24252172397
 31
0.0
  0
LINE
  5
17B0D
330
747D
100
AcDbEntity
  8
部品1
100
AcDbLine
 10
8833.744506215731
 20
4388.253589232541
 30
0.0
 11
8809.744506215734
 21
4388.253589232545
 31
0.0
  0
LINE
  5
17B0E
330
747D
100
AcDbEntity
  8
部品1
 48
50.0
100
AcDbLine
 10
8995.533166009547
 20
4398.253589232544
 30
0.0
 11
8994.244506215734
 21
4388.253589232545
 31
0.0
  0
LINE
  5
17B0F
330
747D
100
AcDbEntity
  8
部品1
 48
50.0
100
AcDbLine
 10
8844.244506215735
 20
4407.653589232547
 30
0.0
 11
8872.244506215732
 21
4407.653589232547
 31
0.0
  0
LINE
  5
17B10
330
747D
100
AcDbEntity
  8
部品1
 48
50.0
100
AcDbLine
 10
8872.244506215734
 20
4407.653589232547
 30
0.0
 11
8882.744506215734
 21
4388.253589232545
 31
0.0
  0
LINE
  5
17B11
330
747D
100
AcDbEntity
  8
部品1
100
AcDbLine
 10
8870.744506215741
 20
4407.653589232543
 30
0.0
 11
8870.744506215741
 21
4310.24252172397
 31
0.0
  0
LINE
  5
17B12
330
747D
100
AcDbEntity
  8
部品1
100
AcDbLine
 10
8845.744506215742
 20
4407.653589232543
 30
0.0
 11
8845.744506215742
 21
4310.24252172397
 31
0.0
  0
LINE
  5
17B13
330
747D
100
AcDbEntity
  8
部品1
100
AcDbLine
 10
8994.244506215734
 20
4388.253589232541
 30
0.0
 11
8882.744506215734
 21
4388.253589232541
 31
0.0
  0
LINE
  5
17B14
330
747D
100
AcDbEntity
  8
部品1
100
AcDbLine
 10
9673.744506215733
 20
4388.253589232541
 30
0.0
 11
9649.744506215736
 21
4388.253589232541
 31
0.0
  0
LINE
  5
17B15
330
747D
100
AcDbEntity
  8
部品1
100
AcDbLine
 10
9414.244506215736
 20
4388.253589232541
 30
0.0
 11
9302.744506215736
 21
4388.253589232541
 31
0.0
  0
LINE
  5
17B16
330
747D
100
AcDbEntity
  8
部品1
100
AcDbLine
 10
9180.744506215731
 20
4388.253589232541
 30
0.0
 11
9037.244506215731
 21
4388.253589232541
 31
0.0
  0
LINE
  5
17B17
330
747D
100
AcDbEntity
  8
部品1
 48
50.0
100
AcDbLine
 10
9034.744506215735
 20
4407.653589232547
 30
0.0
 11
9037.244506215735
 21
4388.253589232545
 31
0.0
  0
LINE
  5
17B18
330
747D
100
AcDbEntity
  8
部品1
 48
50.0
100
AcDbLine
 10
9010.744506215734
 20
4407.653589232547
 30
0.0
 11
9009.533166009546
 21
4398.253589232544
 31
0.0
  0
LINE
  5
17B19
330
747D
100
AcDbEntity
  8
部品1
 48
50.0
100
AcDbLine
 10
9034.744506215735
 20
4407.653589232547
 30
0.0
 11
9010.744506215734
 21
4407.653589232547
 31
0.0
  0
LINE
  5
17B1A
330
747D
100
AcDbEntity
  8
部品1
100
AcDbLine
 10
9013.744506215742
 20
4407.653589232535
 30
0.0
 11
9013.744506215743
 21
4310.24252172397
 31
0.0
  0
LINE
  5
17B1B
330
747D
100
AcDbEntity
  8
部品1
100
AcDbLine
 10
9031.744506215742
 20
4407.653589232535
 30
0.0
 11
9031.744506215744
 21
4310.24252172397
 31
0.0
  0
LINE
  5
17B1C
330
747D
100
AcDbEntity
  8
部品1
 48
50.0
100
AcDbLine
 10
9264.244506215735
 20
4407.653589232547
 30
0.0
 11
9292.24450621573
 21
4407.653589232547
 31
0.0
  0
LINE
  5
17B1D
330
747D
100
AcDbEntity
  8
部品1
 48
50.0
100
AcDbLine
 10
9191.244506215735
 20
4407.653589232547
 30
0.0
 11
9219.244506215732
 21
4407.653589232547
 31
0.0
  0
LINE
  5
17B1E
330
747D
100
AcDbEntity
  8
部品1
 48
50.0
100
AcDbLine
 10
9264.244506215735
 20
4407.653589232547
 30
0.0
 11
9253.744506215735
 21
4388.253589232545
 31
0.0
  0
LINE
  5
17B1F
330
747D
100
AcDbEntity
  8
部品1
 48
50.0
100
AcDbLine
 10
9219.244506215735
 20
4407.653589232547
 30
0.0
 11
9229.744506215736
 21
4388.253589232545
 31
0.0
  0
LINE
  5
17B20
330
747D
100
AcDbEntity
  8
部品1
100
AcDbLine
 10
9253.744506215731
 20
4388.253589232541
 30
0.0
 11
9229.744506215736
 21
4388.253589232541
 31
0.0
  0
LINE
  5
17B21
330
747D
100
AcDbEntity
  8
部品1
 48
50.0
100
AcDbLine
 10
9191.244506215735
 20
4407.653589232547
 30
0.0
 11
9180.744506215736
 21
4388.253589232545
 31
0.0
  0
LINE
  5
17B22
330
747D
100
AcDbEntity
  8
部品1
100
AcDbLine
 10
9265.744506215742
 20
4407.653589232543
 30
0.0
 11
9265.744506215742
 21
4310.24252172397
 31
0.0
  0
LINE
  5
17B23
330
747D
100
AcDbEntity
  8
部品1
100
AcDbLine
 10
9217.744506215742
 20
4407.653589232543
 30
0.0
 11
9217.744506215742
 21
4310.24252172397
 31
0.0
  0
LINE
  5
17B24
330
747D
100
AcDbEntity
  8
部品1
100
AcDbLine
 10
9192.744506215742
 20
4407.653589232543
 30
0.0
 11
9192.744506215742
 21
4310.24252172397
 31
0.0
  0
LINE
  5
17B25
330
747D
100
AcDbEntity
  8
部品1
 48
50.0
100
AcDbLine
 10
9292.244506215736
 20
4407.653589232547
 30
0.0
 11
9302.744506215736
 21
4388.253589232545
 31
0.0
  0
LINE
  5
17B26
330
747D
100
AcDbEntity
  8
部品1
100
AcDbLine
 10
9290.744506215743
 20
4407.653589232543
 30
0.0
 11
9290.744506215743
 21
4310.24252172397
 31
0.0
  0
LINE
  5
17B27
330
747D
100
AcDbEntity
  8
部品1
100
AcDbLine
 10
9600.744506215733
 20
4388.253589232541
 30
0.0
 11
9457.244506215731
 21
4388.253589232541
 31
0.0
  0
LINE
  5
17B28
330
747D
100
AcDbEntity
  8
部品1
 48
50.0
100
AcDbLine
 10
9454.744506215735
 20
4407.653589232547
 30
0.0
 11
9430.744506215736
 21
4407.653589232547
 31
0.0
  0
LINE
  5
17B29
330
747D
100
AcDbEntity
  8
部品1
 48
50.0
100
AcDbLine
 10
9430.744506215736
 20
4407.653589232547
 30
0.0
 11
9429.533166009546
 21
4398.253589232544
 31
0.0
  0
LINE
  5
17B2A
330
747D
100
AcDbEntity
  8
部品1
 48
50.0
100
AcDbLine
 10
9415.533166009547
 20
4398.253589232544
 30
0.0
 11
9429.533166009546
 21
4398.253589232544
 31
0.0
  0
LINE
  5
17B2B
330
747D
100
AcDbEntity
  8
部品1
 48
50.0
100
AcDbLine
 10
9415.533166009547
 20
4398.253589232544
 30
0.0
 11
9414.244506215736
 21
4388.253589232545
 31
0.0
  0
LINE
  5
17B2C
330
747D
100
AcDbEntity
  8
部品1
100
AcDbLine
 10
9433.744506215743
 20
4407.653589232535
 30
0.0
 11
9433.744506215743
 21
4310.24252172397
 31
0.0
  0
LINE
  5
17B2D
330
747D
100
AcDbEntity
  8
部品1
 48
50.0
100
AcDbLine
 10
9454.744506215735
 20
4407.653589232547
 30
0.0
 11
9457.244506215735
 21
4388.253589232545
 31
0.0
  0
LINE
  5
17B2E
330
747D
100
AcDbEntity
  8
部品1
100
AcDbLine
 10
9451.744506215742
 20
4407.653589232535
 30
0.0
 11
9451.744506215744
 21
4310.24252172397
 31
0.0
  0
LINE
  5
17B2F
330
747D
100
AcDbEntity
  8
部品1
 48
50.0
100
AcDbLine
 10
9639.244506215735
 20
4407.653589232547
 30
0.0
 11
9649.744506215736
 21
4388.253589232545
 31
0.0
  0
LINE
  5
17B30
330
747D
100
AcDbEntity
  8
部品1
100
AcDbLine
 10
9637.744506215742
 20
4407.653589232543
 30
0.0
 11
9637.744506215742
 21
4310.24252172397
 31
0.0
  0
LINE
  5
17B31
330
747D
100
AcDbEntity
  8
部品1
 48
50.0
100
AcDbLine
 10
9611.244506215735
 20
4407.653589232547
 30
0.0
 11
9600.744506215734
 21
4388.253589232545
 31
0.0
  0
LINE
  5
17B32
330
747D
100
AcDbEntity
  8
部品1
100
AcDbLine
 10
9612.744506215742
 20
4407.653589232543
 30
0.0
 11
9612.744506215742
 21
4310.24252172397
 31
0.0
  0
LINE
  5
17B33
330
747D
100
AcDbEntity
  8
部品1
 48
50.0
100
AcDbLine
 10
9611.244506215735
 20
4407.653589232547
 30
0.0
 11
9639.244506215732
 21
4407.653589232547
 31
0.0
  0
LINE
  5
17B34
330
747D
100
AcDbEntity
  8
部品1
 48
50.0
100
AcDbLine
 10
9684.244506215735
 20
4407.653589232547
 30
0.0
 11
9673.744506215735
 21
4388.253589232545
 31
0.0
  0
LINE
  5
17B35
330
747D
100
AcDbEntity
  8
部品1
 48
50.0
100
AcDbLine
 10
9712.244506215736
 20
4407.653589232547
 30
0.0
 11
9722.744506215736
 21
4388.253589232545
 31
0.0
  0
LINE
  5
17B36
330
747D
100
AcDbEntity
  8
部品1
 48
50.0
100
AcDbLine
 10
9684.244506215735
 20
4407.653589232547
 30
0.0
 11
9712.244506215732
 21
4407.653589232547
 31
0.0
  0
LINE
  5
17B37
330
747D
100
AcDbEntity
  8
部品1
100
AcDbLine
 10
9685.744506215742
 20
4407.653589232543
 30
0.0
 11
9685.744506215744
 21
4310.24252172397
 31
0.0
  0
LINE
  5
17B38
330
747D
100
AcDbEntity
  8
部品1
100
AcDbLine
 10
9710.744506215743
 20
4407.653589232543
 30
0.0
 11
9710.744506215744
 21
4310.24252172397
 31
0.0
  0
DIMENSION
  5
17B39
330
747D
100
AcDbEntity
  8
寸法
 48
50.0
100
AcDbDimension
  2
*D2
 10
11227.74450621572
 20
5028.272858181992
 30
0.0
 11
9862.744506215728
 21
5028.272858181992
 31
0.0
 70
   160
 71
     5
 42
2729.999999999999
  3
INABA_S40G
100
AcDbAlignedDimension
 13
8497.744506215727
 23
4412.653589224077
 33
0.0
 14
11227.74450621572
 24
4412.653589224077
 34
0.0
100
AcDbRotatedDimension
  0
DIMENSION
  5
17B3A
330
747D
100
AcDbEntity
  8
寸法
 48
50.0
100
AcDbDimension
  2
*D3
 10
8497.744506215727
 20
4811.746758563548
 30
0.0
 11
8184.259224841481
 21
4811.746758563548
 31
0.0
 70
   160
 71
     5
 42
50.0
  3
INABA_S40G
100
AcDbAlignedDimension
 13
8547.744506215726
 23
4412.65358922408
 33
0.0
 14
8497.744506215727
 24
4412.653589224077
 34
0.0
100
AcDbRotatedDimension
1001
ACAD
1000
DSTYLE
1002
{
1002
}
  0
DIMENSION
  5
17B3B
330
747D
100
AcDbEntity
  8
寸法
 48
50.0
100
AcDbDimension
  2
*D4
 10
8547.744506215726
 20
4811.746758563543
 30
0.0
 11
9862.744506215726
 21
4811.746758563543
 31
0.0
 70
   160
  1
柱外寸法<>
 71
     5
 42
2629.999999999999
  3
INABA_S40G
100
AcDbAlignedDimension
 13
11177.74450621572
 23
4412.653589224077
 33
0.0
 14
8547.744506215726
 24
4412.65358922408
 34
0.0
100
AcDbRotatedDimension
  0
LINE
  5
17BEC
330
747D
100
AcDbEntity
  8
部品1
 48
50.0
100
AcDbLine
 10
9829.744506215728
 20
4120.653589248841
 30
0.0
 11
9829.744506215726
 21
2387.65358922407
 31
0.0
  0
LINE
  5
17BED
330
747D
100
AcDbEntity
  8
部品1
100
AcDbLine
 10
10483.74449652058
 20
4120.653589261224
 30
0.0
 11
10483.74449652059
 21
2395.153589261239
 31
0.0
  0
LINE
  5
17BEE
330
747D
100
AcDbEntity
  8
細線
100
AcDbLine
 10
9729.74450621573
 20
4120.653589224073
 30
0.0
 11
9729.744506215727
 21
2387.653589224081
 31
0.0
  0
LINE
  5
17BEF
330
747D
100
AcDbEntity
  8
細線
100
AcDbLine
 10
9659.74450621573
 20
4120.653589224073
 30
0.0
 11
9659.744506215727
 21
2387.653589224081
 31
0.0
  0
LINE
  5
17BF0
330
747D
100
AcDbEntity
  8
細線
100
AcDbLine
 10
9589.74450621573
 20
4120.653589224073
 30
0.0
 11
9589.744506215726
 21
2387.653589224077
 31
0.0
  0
LINE
  5
17BF1
330
747D
100
AcDbEntity
  8
細線
100
AcDbLine
 10
9519.744506215729
 20
4120.653589224073
 30
0.0
 11
9519.744506215726
 21
2387.653589224077
 31
0.0
  0
LINE
  5
17BF2
330
747D
100
AcDbEntity
  8
細線
100
AcDbLine
 10
9449.744506215729
 20
4120.653589224073
 30
0.0
 11
9449.744506215726
 21
2387.653589224077
 31
0.0
  0
LINE
  5
17BF3
330
747D
100
AcDbEntity
  8
細線
100
AcDbLine
 10
9379.744506215729
 20
4120.653589224073
 30
0.0
 11
9379.744506215727
 21
2387.653589224077
 31
0.0
  0
LINE
  5
17BF4
330
747D
100
AcDbEntity
  8
部品1
100
AcDbLine
 10
9195.744506215726
 20
4120.653589224073
 30
0.0
 11
9195.74450621573
 21
2387.653589224077
 31
0.0
  0
LINE
  5
17BF5
330
747D
100
AcDbEntity
  8
部品1
100
AcDbLine
 10
9145.744506215725
 20
4120.653589224073
 30
0.0
 11
9145.744506215729
 21
2387.653589224077
 31
0.0
  0
LINE
  5
17BF6
330
747D
100
AcDbEntity
  8
細線
100
AcDbLine
 10
9187.744506215727
 20
4120.653589224073
 30
0.0
 11
9187.744506215729
 21
2387.653589224077
 31
0.0
  0
LINE
  5
17BF7
330
747D
100
AcDbEntity
  8
細線
100
AcDbLine
 10
9153.744506215726
 20
4120.653589224073
 30
0.0
 11
9153.744506215728
 21
2387.653589224077
 31
0.0
  0
LINE
  5
17BF8
330
747D
100
AcDbEntity
  8
細線
100
AcDbLine
 10
10381.24451596597
 20
4120.653589224073
 30
0.0
 11
10381.24451596597
 21
2395.153589224085
 31
0.0
  0
LINE
  5
17BF9
330
747D
100
AcDbEntity
  8
細線
100
AcDbLine
 10
10311.24451596597
 20
4120.653589224073
 30
0.0
 11
10311.24451596597
 21
2395.153589224085
 31
0.0
  0
LINE
  5
17BFA
330
747D
100
AcDbEntity
  8
細線
100
AcDbLine
 10
10241.24451596597
 20
4120.653589224073
 30
0.0
 11
10241.24451596597
 21
2395.153589224085
 31
0.0
  0
LINE
  5
17BFB
330
747D
100
AcDbEntity
  8
細線
100
AcDbLine
 10
10171.24451596597
 20
4120.653589224073
 30
0.0
 11
10171.24451596597
 21
2395.153589224085
 31
0.0
  0
LINE
  5
17BFC
330
747D
100
AcDbEntity
  8
細線
100
AcDbLine
 10
10101.24451596597
 20
4120.653589224073
 30
0.0
 11
10101.24451596597
 21
2395.153589224085
 31
0.0
  0
LINE
  5
17BFD
330
747D
100
AcDbEntity
  8
細線
100
AcDbLine
 10
10031.24451596597
 20
4120.653589224073
 30
0.0
 11
10031.24451596597
 21
2395.153589224085
 31
0.0
  0
LINE
  5
17BFE
330
747D
100
AcDbEntity
  8
細線
100
AcDbLine
 10
10956.49450621573
 20
4120.653589224073
 30
0.0
 11
10956.49450621573
 21
2395.153589224092
 31
0.0
  0
LINE
  5
17BFF
330
747D
100
AcDbEntity
  8
細線
100
AcDbLine
 10
10886.49450621573
 20
4120.653589224073
 30
0.0
 11
10886.49450621573
 21
2395.153589224092
 31
0.0
  0
LINE
  5
17C00
330
747D
100
AcDbEntity
  8
細線
100
AcDbLine
 10
10816.49450621573
 20
4120.653589224073
 30
0.0
 11
10816.49450621573
 21
2395.153589224092
 31
0.0
  0
LINE
  5
17C01
330
747D
100
AcDbEntity
  8
細線
100
AcDbLine
 10
10746.49450621573
 20
4120.653589224073
 30
0.0
 11
10746.49450621573
 21
2395.153589224092
 31
0.0
  0
LINE
  5
17C02
330
747D
100
AcDbEntity
  8
細線
100
AcDbLine
 10
10676.49450621573
 20
4120.653589224073
 30
0.0
 11
10676.49450621573
 21
2395.153589224092
 31
0.0
  0
LINE
  5
17C03
330
747D
100
AcDbEntity
  8
細線
100
AcDbLine
 10
9309.744506215729
 20
4120.653589224073
 30
0.0
 11
9309.744506215727
 21
2387.653589224077
 31
0.0
  0
LINE
  5
17C04
330
747D
100
AcDbEntity
  8
細線
100
AcDbLine
 10
9239.74450621573
 20
4120.653589224073
 30
0.0
 11
9239.744506215727
 21
2387.653589224077
 31
0.0
  0
LINE
  5
17C05
330
747D
100
AcDbEntity
  8
細線
100
AcDbLine
 10
9961.244515965972
 20
4120.653589224073
 30
0.0
 11
9961.244515965972
 21
2395.153589224085
 31
0.0
  0
LINE
  5
17C06
330
747D
100
AcDbEntity
  8
細線
100
AcDbLine
 10
9891.244515965972
 20
4120.653589224073
 30
0.0
 11
9891.244515965972
 21
2395.153589224085
 31
0.0
  0
LINE
  5
17C07
330
747D
100
AcDbEntity
  8
細線
100
AcDbLine
 10
10606.49450621573
 20
4120.653589224073
 30
0.0
 11
10606.49450621573
 21
2395.153589224092
 31
0.0
  0
LINE
  5
17C08
330
747D
100
AcDbEntity
  8
部品1
 48
50.0
100
AcDbLine
 10
11149.74450621573
 20
4128.653589224073
 30
0.0
 11
11119.74450621573
 21
4128.653589224073
 31
0.0
  0
LINE
  5
17C09
330
747D
100
AcDbEntity
  8
細線
 48
50.0
100
AcDbLine
 10
11097.74450621573
 20
2384.653589224074
 30
0.0
 11
11093.74450621573
 21
2395.153589224074
 31
0.0
  0
LINE
  5
17C0A
330
747D
100
AcDbEntity
  8
部品1
 48
50.0
100
AcDbLine
 10
10483.74449652059
 20
4120.653589261221
 30
0.0
 11
10483.74449652059
 21
2395.153589261221
 31
0.0
  0
LINE
  5
17C0B
330
747D
100
AcDbEntity
  8
部品1
 48
50.0
100
AcDbLine
 10
11149.74450621573
 20
2337.653589224073
 30
0.0
 11
11149.74450621573
 21
4172.653589224074
 31
0.0
  0
LINE
  5
17C0C
330
747D
100
AcDbEntity
  8
細線
 48
50.0
100
AcDbLine
 10
11119.74450621573
 20
2337.653589224073
 30
0.0
 11
11119.74450621573
 21
4130.153589224073
 31
0.0
  0
LINE
  5
17C0D
330
747D
100
AcDbEntity
  8
部品1
 48
50.0
100
AcDbLine
 10
11110.74450621573
 20
2384.653589224074
 30
0.0
 11
11110.74450621573
 21
4120.653589224073
 31
0.0
  0
LINE
  5
17C0E
330
747D
100
AcDbEntity
  8
部品1
 48
50.0
100
AcDbLine
 10
9025.74450621573
 20
4128.653589224073
 30
0.0
 11
8995.744506215729
 21
4128.653589224073
 31
0.0
  0
LINE
  5
17C0F
330
747D
100
AcDbEntity
  8
部品1
 48
50.0
100
AcDbLine
 10
9034.744506215728
 20
2387.653589224074
 30
0.0
 11
9034.744506215728
 21
2384.653589224074
 31
0.0
  0
LINE
  5
17C10
330
747D
100
AcDbEntity
  8
部品1
 48
50.0
100
AcDbLine
 10
9025.74450621573
 20
2387.653589224074
 30
0.0
 11
9829.744506215726
 21
2387.65358922407
 31
0.0
  0
LINE
  5
17C11
330
747D
100
AcDbEntity
  8
部品1
 48
50.0
100
AcDbLine
 10
9829.744506215728
 20
4120.653589248841
 30
0.0
 11
9829.744506215728
 21
2387.653589248841
 31
0.0
  0
LINE
  5
17C12
330
747D
100
AcDbEntity
  8
部品1
 48
50.0
100
AcDbLine
 10
8995.744506215729
 20
4172.653589224074
 30
0.0
 11
8995.744506215729
 21
2337.653589224073
 31
0.0
  0
LINE
  5
17C13
330
747D
100
AcDbEntity
  8
細線
 48
50.0
100
AcDbLine
 10
9025.74450621573
 20
4130.153589224073
 30
0.0
 11
9025.74450621573
 21
2337.653589224073
 31
0.0
  0
LINE
  5
17C14
330
747D
100
AcDbEntity
  8
部品1
 48
50.0
100
AcDbLine
 10
9025.74450621573
 20
2387.653589224074
 30
0.0
 11
9025.74450621573
 21
4120.653589224073
 31
0.0
  0
LINE
  5
17C15
330
747D
100
AcDbEntity
  8
細線
 48
50.0
100
AcDbLine
 10
9829.744506215728
 20
2395.153589224074
 30
0.0
 11
11093.74450621573
 21
2395.153589224074
 31
0.0
  0
LINE
  5
17C16
330
747D
100
AcDbEntity
  8
細線
 48
50.0
100
AcDbLine
 10
9025.74450621573
 20
2384.653589224074
 30
0.0
 11
11119.74450621573
 21
2384.653589224074
 31
0.0
  0
LINE
  5
17C17
330
747D
100
AcDbEntity
  8
細線
 48
50.0
100
AcDbLine
 10
9025.74450621573
 20
2380.653589224074
 30
0.0
 11
11119.74450621573
 21
2380.653589224074
 31
0.0
  0
LINE
  5
17C18
330
747D
100
AcDbEntity
  8
部品1
 48
50.0
100
AcDbLine
 10
8995.744506215729
 20
2337.653589224073
 30
0.0
 11
11149.74450621573
 21
2337.653589224073
 31
0.0
  0
LINE
  5
17C19
330
747D
100
AcDbEntity
  8
細線
 48
50.0
100
AcDbLine
 10
11119.74450621573
 20
4130.153589224073
 30
0.0
 11
9025.74450621573
 21
4130.153589224073
 31
0.0
  0
LINE
  5
17C1A
330
747D
100
AcDbEntity
  8
細線
 48
50.0
100
AcDbLine
 10
11119.74450621573
 20
4120.653589224073
 30
0.0
 11
9025.74450621573
 21
4120.653589224073
 31
0.0
  0
LINE
  5
17C1B
330
747D
100
AcDbEntity
  8
細線
 48
50.0
100
AcDbLine
 10
11149.74450621573
 20
4162.653589224073
 30
0.0
 11
8995.744506215729
 21
4162.653589224073
 31
0.0
  0
LINE
  5
17C1C
330
747D
100
AcDbEntity
  8
部品1
 48
50.0
100
AcDbLine
 10
11149.74450621573
 20
4172.653589224074
 30
0.0
 11
8995.744506215729
 21
4172.653589224074
 31
0.0
  0
LINE
  5
17C36
330
747D
100
AcDbEntity
  8
部品1
 48
50.0
100
AcDbLine
 10
9069.74450621573
 20
3319.153589224074
 30
0.0
 11
9122.744506215729
 21
3319.153589224074
 31
0.0
  0
MTEXT
  5
17C3A
330
747D
100
AcDbEntity
  8
寸法
 62
     7
 48
50.0
100
AcDbMText
 10
10527.84704330887
 20
9595.830525669802
 30
0.0
 40
96.0
 41
0.0
 71
     5
 72
     1
  1
棚 2段
  7
STYLE1
 73
     1
 44
1.0
1001
ACAD
1000
MTEXTBEGIN
1070
    73
1070
     1
1070
    44
1040
1.0
1070
    74
1070
     0
1000
MTEXTEND
  0
MTEXT
  5
17C3B
330
747D
100
AcDbEntity
  8
寸法
 62
     7
 48
50.0
100
AcDbMText
 10
9227.847043308843
 20
9595.830525669777
 30
0.0
 40
96.0
 41
0.0
 71
     5
 72
     1
  1
棚 2段
  7
STYLE1
 73
     1
 44
1.0
1001
ACAD
1000
MTEXTBEGIN
1070
    73
1070
     1
1070
    44
1040
1.0
1070
    74
1070
     0
1000
MTEXTEND
  0
TEXT
  5
17C3C
330
747D
100
AcDbEntity
  8
文字
 62
     7
 48
50.0
100
AcDbText
 10
13209.4053442172
 20
243.7062907158852
 30
0.0
 40
100.0
  1
○有効開口寸法 ： 1266×1725(mm)
  7
STYLE2
100
AcDbText
  0
TEXT
  5
17C3D
330
747D
100
AcDbEntity
  8
文字
 62
     7
 48
50.0
100
AcDbText
 10
14491.96323844892
 20
483.8967129911416
 30
0.0
 40
160.0
  1
ＮＸＮ－７０ＳＡ
  7
STYLE2
100
AcDbText
  0
TEXT
  5
17C3E
330
747D
100
AcDbEntity
  8
文字
 62
     7
 48
50.0
100
AcDbText
 10
14798.72402257234
 20
9740.013745883729
 30
0.0
 40
100.0
  1
F12(一般型1.2/多雪地型2.3)
  7
STYLE1
100
AcDbText
  0
TEXT
  5
17C3F
330
747D
100
AcDbEntity
  8
文字
 62
     7
 48
50.0
100
AcDbText
 10
13248.77747366447
 20
8380.013745883728
 30
0.0
 40
100.0
  1
17
  7
STYLE1
100
AcDbText
  0
TEXT
  5
17C40
330
747D
100
AcDbEntity
  8
文字
 62
     7
 48
50.0
100
AcDbText
 10
13248.77747366447
 20
8550.013745883729
 30
0.0
 40
100.0
  1
16
  7
STYLE1
100
AcDbText
  0
TEXT
  5
17C41
330
747D
100
AcDbEntity
  8
文字
 62
     7
 48
50.0
100
AcDbText
 10
15022.63965474517
 20
9060.013745883729
 30
0.0
 40
100.0
  1
F12            1.0
  7
STYLE1
100
AcDbText
  0
TEXT
  5
17C42
330
747D
100
AcDbEntity
  8
文字
 62
     7
 48
50.0
100
AcDbText
 10
13583.11819016569
 20
9060.013745883736
 30
0.0
 40
100.0
  1
壁面扉枠左右
  7
STYLE1
100
AcDbText
  0
TEXT
  5
17C43
330
747D
100
AcDbEntity
  8
文字
 62
     7
 48
50.0
100
AcDbText
 10
15022.63965474517
 20
9230.013745883729
 30
0.0
 40
100.0
  1
F12            1.0
  7
STYLE1
100
AcDbText
  0
TEXT
  5
17C44
330
747D
100
AcDbEntity
  8
文字
 62
     7
 48
50.0
100
AcDbText
 10
15022.63965474515
 20
9400.013745883729
 30
0.0
 40
100.0
  1
F12            0.7
  7
STYLE1
100
AcDbText
  0
TEXT
  5
17C45
330
747D
100
AcDbEntity
  8
文字
 62
     7
 48
50.0
100
AcDbText
 10
13583.11819016569
 20
9230.013745883736
 30
0.0
 40
100.0
  1
壁面扉敷居
  7
STYLE1
100
AcDbText
  0
TEXT
  5
17C46
330
747D
100
AcDbEntity
  8
文字
 62
     7
 48
50.0
100
AcDbText
 10
13583.11819016569
 20
9400.013745883729
 30
0.0
 40
100.0
  1
壁面扉鴨居
  7
STYLE1
100
AcDbText
  0
LINE
  5
17C47
330
747D
100
AcDbEntity
  8
仕様書枠
 48
50.0
100
AcDbLine
 10
16307.19999999999
 20
8689.600000000007
 30
0.0
 11
13127.2
 21
8689.600000000007
 31
0.0
  0
LINE
  5
17C48
330
747D
100
AcDbEntity
  8
仕様書枠
 48
50.0
100
AcDbLine
 10
16307.19999999999
 20
8519.600000000009
 30
0.0
 11
13127.2
 21
8519.600000000009
 31
0.0
  0
TEXT
  5
17C49
330
747D
100
AcDbEntity
  8
文字
 62
     7
 48
50.0
100
AcDbText
 10
13583.11819016569
 20
8380.013745883728
 30
0.0
 40
100.0
  1
アンカープレート
  7
STYLE1
100
AcDbText
  0
TEXT
  5
17C4A
330
747D
100
AcDbEntity
  8
文字
 62
     7
 48
50.0
100
AcDbText
 10
15022.63965474515
 20
8380.013745883726
 30
0.0
 40
100.0
  1
F12            2.3
  7
STYLE1
100
AcDbText
  0
LINE
  5
17C4B
330
747D
100
AcDbEntity
  8
仕様書枠
 48
50.0
100
AcDbLine
 10
16307.2
 20
10049.6
 30
0.0
 11
13127.2
 21
10049.6
 31
0.0
  0
LINE
  5
17C4C
330
747D
100
AcDbEntity
  8
仕様書枠
 48
50.0
100
AcDbLine
 10
16307.2
 20
11409.6
 30
0.0
 11
13127.2
 21
11409.6
 31
0.0
  0
LINE
  5
17C4D
330
747D
100
AcDbEntity
  8
仕様書枠
 48
50.0
100
AcDbLine
 10
16307.19999999999
 20
8009.600000000007
 30
0.0
 11
16307.2
 21
11409.6
 31
0.0
  0
LINE
  5
17C4E
330
747D
100
AcDbEntity
  8
仕様書枠
 48
50.0
100
AcDbLine
 10
14785.2
 20
11409.6
 30
0.0
 11
14785.2
 21
8349.600000000007
 31
0.0
  0
LINE
  5
17C4F
330
747D
100
AcDbEntity
  8
仕様書枠
 48
50.0
100
AcDbLine
 10
13490.2
 20
11409.6
 30
0.0
 11
13490.20000000001
 21
8349.600000000007
 31
0.0
  0
LINE
  5
17C50
330
747D
100
AcDbEntity
  8
仕様書枠
 48
50.0
100
AcDbLine
 10
16307.2
 20
11239.6
 30
0.0
 11
13127.2
 21
11239.6
 31
0.0
  0
LINE
  5
17C51
330
747D
100
AcDbEntity
  8
仕様書枠
 48
50.0
100
AcDbLine
 10
16307.2
 20
10899.6
 30
0.0
 11
13127.2
 21
10899.6
 31
0.0
  0
LINE
  5
17C52
330
747D
100
AcDbEntity
  8
仕様書枠
 48
50.0
100
AcDbLine
 10
16307.2
 20
11069.6
 30
0.0
 11
13127.2
 21
11069.6
 31
0.0
  0
LINE
  5
17C53
330
747D
100
AcDbEntity
  8
仕様書枠
 48
50.0
100
AcDbLine
 10
16307.19999999999
 20
10559.6
 30
0.0
 11
13127.2
 21
10559.6
 31
0.0
  0
LINE
  5
17C54
330
747D
100
AcDbEntity
  8
仕様書枠
 48
50.0
100
AcDbLine
 10
16307.19999999999
 20
10389.6
 30
0.0
 11
13127.2
 21
10389.6
 31
0.0
  0
LINE
  5
17C55
330
747D
100
AcDbEntity
  8
仕様書枠
 48
50.0
100
AcDbLine
 10
16307.19999999999
 20
10729.6
 30
0.0
 11
13127.2
 21
10729.6
 31
0.0
  0
TEXT
  5
17C56
330
747D
100
AcDbEntity
  8
文字
 62
     7
 48
50.0
100
AcDbText
 10
13197.42518560407
 20
11270.01374588373
 30
0.0
 40
100.0
  1
品番
  7
STYLE1
100
AcDbText
  0
TEXT
  5
17C57
330
747D
100
AcDbEntity
  8
文字
 62
     7
 48
50.0
100
AcDbText
 10
13271.19032244792
 20
11100.01374588373
 30
0.0
 40
100.0
  1
1
  7
STYLE1
100
AcDbText
  0
TEXT
  5
17C58
330
747D
100
AcDbEntity
  8
文字
 62
     7
 48
50.0
100
AcDbText
 10
13271.19032244792
 20
10930.01374588373
 30
0.0
 40
100.0
  1
2
  7
STYLE1
100
AcDbText
  0
TEXT
  5
17C59
330
747D
100
AcDbEntity
  8
文字
 62
     7
 48
50.0
100
AcDbText
 10
13271.19032244792
 20
10590.01374588373
 30
0.0
 40
100.0
  1
4
  7
STYLE1
100
AcDbText
  0
TEXT
  5
17C5A
330
747D
100
AcDbEntity
  8
文字
 62
     7
 48
50.0
100
AcDbText
 10
13271.19032244792
 20
10760.01374588373
 30
0.0
 40
100.0
  1
3
  7
STYLE1
100
AcDbText
  0
TEXT
  5
17C5B
330
747D
100
AcDbEntity
  8
文字
 62
     7
 48
50.0
100
AcDbText
 10
13732.03840939434
 20
11270.01374588373
 30
0.0
 40
100.0
  1
部　　品　　名
  7
STYLE1
100
AcDbText
  0
TEXT
  5
17C5C
330
747D
100
AcDbEntity
  8
文字
 62
     7
 48
50.0
100
AcDbText
 10
14859.79774614482
 20
11270.01374588373
 30
0.0
 40
100.0
  1
材料（材質）　　単位mm
  7
STYLE1
100
AcDbText
  0
TEXT
  5
17C5D
330
747D
100
AcDbEntity
  8
文字
 62
     7
 48
50.0
100
AcDbText
 10
13583.11819016569
 20
11100.01374588373
 30
0.0
 40
100.0
  1
土台枠
  7
STYLE1
100
AcDbText
  0
TEXT
  5
17C5E
330
747D
100
AcDbEntity
  8
文字
 62
     7
 48
50.0
100
AcDbText
 10
13583.1181901657
 20
10760.01374588373
 30
0.0
 40
100.0
  1
柱
  7
STYLE1
100
AcDbText
  0
TEXT
  5
17C5F
330
747D
100
AcDbEntity
  8
文字
 62
     7
 48
50.0
100
AcDbText
 10
13583.11819016569
 20
10420.01374588373
 30
0.0
 40
100.0
  1
桁前後
  7
STYLE1
100
AcDbText
  0
TEXT
  5
17C60
330
747D
100
AcDbEntity
  8
文字
 62
     7
 48
50.0
100
AcDbText
 10
13271.19032244792
 20
10420.01374588373
 30
0.0
 40
100.0
  1
5
  7
STYLE1
100
AcDbText
  0
TEXT
  5
17C61
330
747D
100
AcDbEntity
  8
文字
 62
     7
 48
50.0
100
AcDbText
 10
13583.11819016569
 20
10250.01374588373
 30
0.0
 40
100.0
  1
妻板左右
  7
STYLE1
100
AcDbText
  0
TEXT
  5
17C62
330
747D
100
AcDbEntity
  8
文字
 62
     7
 48
50.0
100
AcDbText
 10
13248.77747366447
 20
9570.013745883729
 30
0.0
 40
100.0
  1
10
  7
STYLE1
100
AcDbText
  0
TEXT
  5
17C63
330
747D
100
AcDbEntity
  8
文字
 62
     7
 48
50.0
100
AcDbText
 10
13583.11819016568
 20
9570.013745883729
 30
0.0
 40
100.0
  1
壁パネル
  7
STYLE1
100
AcDbText
  0
TEXT
  5
17C64
330
747D
100
AcDbEntity
  8
文字
 62
     7
 48
50.0
100
AcDbText
 10
13583.11819016569
 20
9910.01374588373
 30
0.0
 40
100.0
  1
屋根パネル
  7
STYLE1
100
AcDbText
  0
TEXT
  5
17C65
330
747D
100
AcDbEntity
  8
文字
 62
     7
 48
50.0
100
AcDbText
 10
13583.11819016569
 20
10080.01374588373
 30
0.0
 40
100.0
  1
鼻隠シ前後
  7
STYLE1
100
AcDbText
  0
TEXT
  5
17C66
330
747D
100
AcDbEntity
  8
文字
 62
     7
 48
50.0
100
AcDbText
 10
13271.19032244792
 20
9910.01374588373
 30
0.0
 40
100.0
  1
8
  7
STYLE1
100
AcDbText
  0
TEXT
  5
17C67
330
747D
100
AcDbEntity
  8
文字
 62
     7
 48
50.0
100
AcDbText
 10
13271.19032244792
 20
9740.013745883729
 30
0.0
 40
100.0
  1
9
  7
STYLE1
100
AcDbText
  0
TEXT
  5
17C68
330
747D
100
AcDbEntity
  8
文字
 62
     7
 48
50.0
100
AcDbText
 10
13271.19032244792
 20
10080.01374588373
 30
0.0
 40
100.0
  1
7
  7
STYLE1
100
AcDbText
  0
TEXT
  5
17C69
330
747D
100
AcDbEntity
  8
文字
 62
     7
 48
50.0
100
AcDbText
 10
13271.19032244792
 20
10250.01374588373
 30
0.0
 40
100.0
  1
6
  7
STYLE1
100
AcDbText
  0
LINE
  5
17C6A
330
747D
100
AcDbEntity
  8
仕様書枠
 48
50.0
100
AcDbLine
 10
16307.19999999999
 20
9709.600000000001
 30
0.0
 11
13127.2
 21
9709.600000000001
 31
0.0
  0
LINE
  5
17C6B
330
747D
100
AcDbEntity
  8
仕様書枠
 48
50.0
100
AcDbLine
 10
16307.19999999999
 20
9369.600000000001
 30
0.0
 11
13127.2
 21
9369.600000000001
 31
0.0
  0
LINE
  5
17C6C
330
747D
100
AcDbEntity
  8
仕様書枠
 48
50.0
100
AcDbLine
 10
16307.19999999999
 20
9539.6
 30
0.0
 11
13127.2
 21
9539.6
 31
0.0
  0
LINE
  5
17C6D
330
747D
100
AcDbEntity
  8
仕様書枠
 48
50.0
100
AcDbLine
 10
16307.2
 20
10219.6
 30
0.0
 11
13127.2
 21
10219.6
 31
0.0
  0
LINE
  5
17C6E
330
747D
100
AcDbEntity
  8
仕様書枠
 48
50.0
100
AcDbLine
 10
16307.2
 20
9879.600000000001
 30
0.0
 11
13127.2
 21
9879.600000000001
 31
0.0
  0
TEXT
  5
17C6F
330
747D
100
AcDbEntity
  8
文字
 62
     7
 48
50.0
100
AcDbText
 10
13248.77747366447
 20
9400.013745883729
 30
0.0
 40
100.0
  1
11
  7
STYLE1
100
AcDbText
  0
LINE
  5
17C70
330
747D
100
AcDbEntity
  8
仕様書枠
 48
50.0
100
AcDbLine
 10
16307.19999999999
 20
9199.600000000001
 30
0.0
 11
13127.2
 21
9199.600000000001
 31
0.0
  0
LINE
  5
17C71
330
747D
100
AcDbEntity
  8
仕様書枠
 48
50.0
100
AcDbLine
 10
16307.19999999999
 20
8859.6
 30
0.0
 11
13127.2
 21
8859.600000000005
 31
0.0
  0
TEXT
  5
17C72
330
747D
100
AcDbEntity
  8
文字
 62
     7
 48
50.0
100
AcDbText
 10
13248.77747366448
 20
9060.013745883729
 30
0.0
 40
100.0
  1
13
  7
STYLE1
100
AcDbText
  0
TEXT
  5
17C73
330
747D
100
AcDbEntity
  8
文字
 62
     7
 48
50.0
100
AcDbText
 10
13248.77747366448
 20
9230.013745883729
 30
0.0
 40
100.0
  1
12
  7
STYLE1
100
AcDbText
  0
TEXT
  5
17C74
330
747D
100
AcDbEntity
  8
文字
 62
     7
 48
50.0
100
AcDbText
 10
15022.63965474517
 20
11100.01374588373
 30
0.0
 40
100.0
  1
F12            1.2
  7
STYLE1
100
AcDbText
  0
TEXT
  5
17C75
330
747D
100
AcDbEntity
  8
文字
 62
     7
 48
50.0
100
AcDbText
 10
15022.63965474518
 20
10760.01374588373
 30
0.0
 40
100.0
  1
F12            1.0
  7
STYLE1
100
AcDbText
  0
TEXT
  5
17C76
330
747D
100
AcDbEntity
  8
文字
 62
     7
 48
50.0
100
AcDbText
 10
15022.63965474516
 20
10420.01374588373
 30
0.0
 40
100.0
  1
Y10            1.0
  7
STYLE1
100
AcDbText
  0
TEXT
  5
17C77
330
747D
100
AcDbEntity
  8
文字
 62
     7
 48
50.0
100
AcDbText
 10
15022.63965474516
 20
10250.01374588373
 30
0.0
 40
100.0
  1
Y10            0.7
  7
STYLE1
100
AcDbText
  0
TEXT
  5
17C78
330
747D
100
AcDbEntity
  8
文字
 62
     7
 48
50.0
100
AcDbText
 10
15022.63965474516
 20
10080.01374588373
 30
0.0
 40
100.0
  1
Y10            0.7
  7
STYLE1
100
AcDbText
  0
TEXT
  5
17C79
330
747D
100
AcDbEntity
  8
文字
 62
     7
 48
50.0
100
AcDbText
 10
15022.63965474517
 20
9910.01374588373
 30
0.0
 40
100.0
  1
Y10            0.5
  7
STYLE1
100
AcDbText
  0
TEXT
  5
17C7A
330
747D
100
AcDbEntity
  8
文字
 62
     7
 48
50.0
100
AcDbText
 10
15022.63965474515
 20
9570.013745883729
 30
0.0
 40
100.0
  1
F12            0.6
  7
STYLE1
100
AcDbText
  0
LINE
  5
17C7B
330
747D
100
AcDbEntity
  8
仕様書枠
 48
50.0
100
AcDbLine
 10
16307.19999999999
 20
8349.600000000007
 30
0.0
 11
13127.19999999999
 21
8349.600000000007
 31
0.0
  0
LINE
  5
17C7C
330
747D
100
AcDbEntity
  8
仕様書枠
 48
50.0
100
AcDbLine
 10
16307.19999999999
 20
8179.600000000007
 30
0.0
 11
13127.19999999999
 21
8179.600000000007
 31
0.0
  0
TEXT
  5
17C7D
330
747D
100
AcDbEntity
  8
文字
 62
     7
 48
50.0
100
AcDbText
 10
13229.83081656554
 20
8210.013745883737
 30
0.0
 40
100.0
  1
F12→溶融亜鉛めっき鋼板(JIS G 3302)
  7
STYLE1
100
AcDbText
  0
TEXT
  5
17C7E
330
747D
100
AcDbEntity
  8
文字
 62
     7
 48
50.0
100
AcDbText
 10
13229.83081656554
 20
8040.013745883737
 30
0.0
 40
100.0
  1
Y10→溶融亜鉛-5％アルミニウム合金めっき鋼板(JIS G 3317)
 41
0.9
  7
STYLE1
100
AcDbText
  0
LINE
  5
17C7F
330
747D
100
AcDbEntity
  8
仕様書枠
 48
50.0
100
AcDbLine
 10
13127.2
 20
11409.6
 30
0.0
 11
13127.19999999999
 21
8009.600000000007
 31
0.0
  0
LINE
  5
17C80
330
747D
100
AcDbEntity
  8
仕様書枠
 48
50.0
100
AcDbLine
 10
16307.19999999999
 20
9029.6
 30
0.0
 11
13127.2
 21
9029.600000000003
 31
0.0
  0
TEXT
  5
17C81
330
747D
100
AcDbEntity
  8
文字
 62
     7
 48
50.0
100
AcDbText
 10
13583.1181901657
 20
10590.01374588373
 30
0.0
 40
100.0
  1
床パネル
 41
0.9
  7
STYLE1
100
AcDbText
  0
TEXT
  5
17C82
330
747D
100
AcDbEntity
  8
文字
 62
     7
 48
50.0
100
AcDbText
 10
13583.11819016569
 20
10930.01374588373
 30
0.0
 40
100.0
  1
根太
  7
STYLE1
100
AcDbText
  0
TEXT
  5
17C83
330
747D
100
AcDbEntity
  8
文字
 62
     7
 48
50.0
100
AcDbText
 10
13248.77747366448
 20
8890.013745883729
 30
0.0
 40
100.0
  1
14
  7
STYLE1
100
AcDbText
  0
TEXT
  5
17C84
330
747D
100
AcDbEntity
  8
文字
 62
     7
 48
50.0
100
AcDbText
 10
15022.63965474516
 20
10930.01374588373
 30
0.0
 40
100.0
  1
F12            1.2
  7
STYLE1
100
AcDbText
  0
TEXT
  5
17C85
330
747D
100
AcDbEntity
  8
文字
 62
     7
 48
50.0
100
AcDbText
 10
15022.63965474517
 20
10590.01374588373
 30
0.0
 40
100.0
  1
F12            1.0
  7
STYLE1
100
AcDbText
  0
TEXT
  5
17C86
330
747D
100
AcDbEntity
  8
文字
 62
     7
 48
50.0
100
AcDbText
 10
15022.63965474515
 20
8890.013745883729
 30
0.0
 40
100.0
  1
F12            0.7
  7
STYLE1
100
AcDbText
  0
TEXT
  5
17C87
330
747D
100
AcDbEntity
  8
文字
 62
     7
 48
50.0
100
AcDbText
 10
13583.11819016568
 20
8890.013745883733
 30
0.0
 40
100.0
  1
正面パネル
  7
STYLE1
100
AcDbText
  0
TEXT
  5
17C88
330
747D
100
AcDbEntity
  8
文字
 62
     7
 48
50.0
100
AcDbText
 10
15022.63965474516
 20
8720.013745883729
 30
0.0
 40
100.0
  1
F12            0.8
  7
STYLE1
100
AcDbText
  0
TEXT
  5
17C89
330
747D
100
AcDbEntity
  8
文字
 62
     7
 48
50.0
100
AcDbText
 10
13583.11819016569
 20
8720.013745883733
 30
0.0
 40
100.0
  1
扉
  7
STYLE1
100
AcDbText
  0
LINE
  5
17C8A
330
747D
100
AcDbEntity
  8
仕様書枠
 48
50.0
100
AcDbLine
 10
16307.19999999999
 20
8009.600000000007
 30
0.0
 11
13127.19999999999
 21
8009.600000000007
 31
0.0
  0
TEXT
  5
17C8B
330
747D
100
AcDbEntity
  8
文字
 62
     7
 48
50.0
100
AcDbText
 10
13248.77747366447
 20
8720.013745883729
 30
0.0
 40
100.0
  1
15
  7
STYLE1
100
AcDbText
  0
TEXT
  5
17C8C
330
747D
100
AcDbEntity
  8
文字
 62
     7
 48
50.0
100
AcDbText
 10
13583.11819016569
 20
9740.013745883729
 30
0.0
 40
100.0
  1
母屋中
  7
STYLE1
100
AcDbText
  0
TEXT
  5
17C8D
330
747D
100
AcDbEntity
  8
文字
 62
     7
 48
50.0
100
AcDbText
 10
15022.63965474516
 20
8550.013745883729
 30
0.0
 40
100.0
  1
F12            0.6
  7
STYLE1
100
AcDbText
  0
TEXT
  5
17C8E
330
747D
100
AcDbEntity
  8
文字
 62
     7
 48
50.0
100
AcDbText
 10
13583.11819016569
 20
8550.013745883733
 30
0.0
 40
100.0
  1
棚板
  7
STYLE1
100
AcDbText
  0
LINE
  5
17C8F
330
747D
100
AcDbEntity
  8
部品1
100
AcDbLine
 10
11122.74450621574
 20
10009.59570747249
 30
0.0
 11
11122.74450621574
 21
9981.595707472493
 31
0.0
  0
LINE
  5
17C90
330
747D
100
AcDbEntity
  8
部品1
100
AcDbLine
 10
11122.74450621574
 20
10009.59570747251
 30
0.0
 11
11122.74450621574
 21
9981.595707472516
 31
0.0
  0
LINE
  5
17C91
330
747D
100
AcDbEntity
  8
部品1
100
AcDbLine
 10
11149.74450621574
 20
9954.595707472494
 30
0.0
 11
11177.74450621574
 21
9954.595707472494
 31
0.0
  0
LINE
  5
17C92
330
747D
100
AcDbEntity
  8
部品1
100
AcDbLine
 10
11149.74450621574
 20
9534.595707472494
 30
0.0
 11
11177.74450621574
 21
9534.595707472494
 31
0.0
  0
LINE
  5
17C93
330
747D
100
AcDbEntity
  8
部品1
100
AcDbLine
 10
11149.74450621574
 20
9114.595707472494
 30
0.0
 11
11177.74450621574
 21
9114.595707472494
 31
0.0
  0
DIMENSION
  5
17C94
330
747D
100
AcDbEntity
  8
寸法
100
AcDbDimension
  2
*D5
 10
11877.74450621573
 20
9954.595707472496
 30
0.0
 11
11877.74450621573
 21
10318.08098884673
 31
0.0
 70
   160
 71
     5
 42
54.99999999999636
  3
INABA_S40G
100
AcDbAlignedDimension
 13
11177.74450621574
 23
10009.59570747249
 33
0.0
 14
11177.74450621574
 24
9954.595707472496
 34
0.0
 50
90.0
100
AcDbRotatedDimension
1001
ACAD
1000
DSTYLE
1002
{
1002
}
  0
DIMENSION
  5
17C95
330
747D
100
AcDbEntity
  8
寸法
100
AcDbDimension
  2
*D6
 10
11577.74450621573
 20
9414.779478515759
 30
0.0
 11
11577.74450621573
 21
9639.779478515759
 31
0.0
 70
   160
 71
     5
 42
449.9999999999963
  3
INABA_S40G
100
AcDbAlignedDimension
 13
11149.24450621574
 23
9979.595707472492
 33
0.0
 14
11149.24450621574
 24
9529.595707472495
 34
0.0
 50
90.0
100
AcDbRotatedDimension
1001
ACAD
1000
DSTYLE
1002
{
1002
}
  0
LINE
  5
17C96
330
747D
100
AcDbEntity
  8
部品1
100
AcDbLine
 10
11149.24450621574
 20
9979.595707472494
 30
0.0
 11
11149.24450621574
 21
9529.595707472493
 31
0.0
  0
LINE
  5
17C97
330
747D
100
AcDbEntity
  8
部品1
100
AcDbLine
 10
11149.74450621574
 20
9981.595707472493
 30
0.0
 11
11149.74450621573
 21
9529.09570747237
 31
0.0
  0
LINE
  5
17C99
330
747D
100
AcDbEntity
  8
部品1
 48
50.0
100
AcDbLine
 10
11122.74450621574
 20
7379.595707472472
 30
0.0
 11
11122.74450621574
 21
7407.595707472473
 31
0.0
  0
LINE
  5
17C9A
330
747D
100
AcDbEntity
  8
部品1
100
AcDbLine
 10
11149.74450621574
 20
7434.595707472479
 30
0.0
 11
11177.74450621574
 21
7434.595707472479
 31
0.0
  0
LINE
  5
17C9B
330
747D
100
AcDbEntity
  8
部品1
100
AcDbLine
 10
11177.74450621571
 20
7434.595707472479
 30
0.0
 11
11177.74450621571
 21
7379.595707472479
 31
0.0
  0
LINE
  5
17C9C
330
747D
100
AcDbEntity
  8
部品1
 48
50.0
100
AcDbLine
 10
11121.24450621574
 20
7436.095707472479
 30
0.0
 11
11149.74450621574
 21
7407.595707472487
 31
0.0
  0
LINE
  5
17C9D
330
747D
100
AcDbEntity
  8
部品1
100
AcDbLine
 10
11177.74450621571
 20
7379.595707472479
 30
0.0
 11
11126.74450621571
 21
7379.595707472479
 31
0.0
  0
LINE
  5
17C9E
330
747D
100
AcDbEntity
  8
部品1
100
AcDbLine
 10
11149.74450621571
 20
7434.595707472479
 30
0.0
 11
11177.74450621571
 21
7434.595707472479
 31
0.0
  0
LINE
  5
17C9F
330
747D
100
AcDbEntity
  8
部品1
100
AcDbLine
 10
11177.74450621571
 20
7379.595707472479
 30
0.0
 11
11122.74450621574
 21
7379.595707472472
 31
0.0
  0
DIMENSION
  5
17CA0
330
747D
100
AcDbEntity
  8
寸法
100
AcDbDimension
  2
*D7
 10
11877.74450621571
 20
7379.595707472481
 30
0.0
 11
11877.74450621571
 21
7071.110426098231
 31
0.0
 70
   160
 71
     5
 42
54.99999999999636
  3
INABA_S40G
100
AcDbAlignedDimension
 13
11177.74450621571
 23
7434.595707472478
 33
0.0
 14
11177.74450621571
 24
7379.595707472481
 34
0.0
 50
90.0
100
AcDbRotatedDimension
1001
ACAD
1000
DSTYLE
1002
{
1002
}
  0
LINE
  5
17CA1
330
747D
100
AcDbEntity
  8
部品1
100
AcDbLine
 10
11149.74450621573
 20
9534.595707472494
 30
0.0
 11
11149.74450621571
 21
7407.595707472487
 31
0.0
  0
LINE
  5
17CA2
330
747D
100
AcDbEntity
  8
部品1
100
AcDbLine
 10
11121.24450621573
 20
9529.595707472493
 30
0.0
 11
11121.24450621574
 21
7436.095707472479
 31
0.0
  0
LINE
  5
17CA3
330
747D
100
AcDbEntity
  8
部品1
100
AcDbLine
 10
11177.74450621574
 20
10009.59570747249
 30
0.0
 11
11177.74450621571
 21
7379.595707472479
 31
0.0
  0
DIMENSION
  5
17CA4
330
747D
100
AcDbEntity
  8
寸法
100
AcDbDimension
  2
*D8
 10
11877.74450621573
 20
7434.595707472478
 30
0.0
 11
11877.74450621573
 21
8694.595707472487
 31
0.0
 70
   160
  1
6X420=<>
 71
     5
 42
2520.000000000017
  3
INABA_S40G
100
AcDbAlignedDimension
 13
11177.74450621574
 23
9954.595707472496
 33
0.0
 14
11177.74450621571
 24
7434.595707472478
 34
0.0
 50
90.0
100
AcDbRotatedDimension
1001
ACAD
1000
DSTYLE
1002
{
1002
}
  0
DIMENSION
  5
17CA5
330
747D
100
AcDbEntity
  8
寸法
100
AcDbDimension
  2
*D9
 10
12177.74450621574
 20
7379.595707472481
 30
0.0
 11
12177.74450621574
 21
8694.595707472487
 31
0.0
 70
   160
 71
     5
 42
2630.00000000001
  3
INABA_S40G
100
AcDbAlignedDimension
 13
11177.74450621574
 23
10009.59570747249
 33
0.0
 14
11177.74450621571
 24
7379.595707472481
 34
0.0
 50
90.0
100
AcDbRotatedDimension
1001
ACAD
1000
DSTYLE
1002
{
1002
}
  0
LINE
  5
17CA6
330
747D
100
AcDbEntity
  8
部品1
100
AcDbLine
 10
10702.7445062157
 20
10009.59570747236
 30
0.0
 11
10702.7445062157
 21
9981.595707472363
 31
0.0
  0
LINE
  5
17CA7
330
747D
100
AcDbEntity
  8
部品1
100
AcDbLine
 10
10282.7445062157
 20
10009.59570747236
 30
0.0
 11
10282.7445062157
 21
9981.595707472363
 31
0.0
  0
LINE
  5
17CA8
330
747D
100
AcDbEntity
  8
部品1
100
AcDbLine
 10
9862.744506215703
 20
10009.59570747236
 30
0.0
 11
9862.744506215706
 21
9981.595707472363
 31
0.0
  0
LINE
  5
17CA9
330
747D
100
AcDbEntity
  8
部品1
100
AcDbLine
 10
9891.744506215738
 20
9999.595707472501
 30
0.0
 11
9897.744506215738
 21
9999.595707472501
 31
0.0
  0
LINE
  5
17CAA
330
747D
100
AcDbEntity
  8
部品1
100
AcDbLine
 10
9897.744506215738
 20
9999.595707472501
 30
0.0
 11
9897.744506215738
 21
9981.595707472502
 31
0.0
  0
LINE
  5
17CAB
330
747D
100
AcDbEntity
  8
部品1
100
AcDbLine
 10
9827.744506215738
 20
9999.595707472501
 30
0.0
 11
9833.744506215738
 21
9999.595707472501
 31
0.0
  0
LINE
  5
17CAC
330
747D
100
AcDbEntity
  8
部品1
100
AcDbLine
 10
9827.744506215738
 20
9999.595707472501
 30
0.0
 11
9827.744506215738
 21
9981.595707472502
 31
0.0
  0
LINE
  5
17CAD
330
747D
100
AcDbEntity
  8
部品1
100
AcDbLine
 10
9850.244506215739
 20
9973.595707472494
 30
0.0
 11
9875.244506215739
 21
9973.595707472501
 31
0.0
  0
LINE
  5
17CAE
330
747D
100
AcDbEntity
  8
部品1
100
AcDbLine
 10
9850.244506215739
 20
9529.5957074725
 30
0.0
 11
9875.244506215739
 21
9529.5957074725
 31
0.0
  0
LINE
  5
17CAF
330
747D
100
AcDbEntity
  8
部品1
 48
50.0
100
AcDbLine
 10
9875.244506215739
 20
9981.595707472502
 30
0.0
 11
9875.244506215739
 21
9529.5957074725
 31
0.0
  0
LINE
  5
17CB0
330
747D
100
AcDbEntity
  8
部品1
 48
50.0
100
AcDbLine
 10
9850.244506215737
 20
9981.595707472509
 30
0.0
 11
9850.244506215739
 21
9529.5957074725
 31
0.0
  0
LINE
  5
17CB1
330
747D
100
AcDbEntity
  8
部品1
 48
50.0
100
AcDbLine
 10
9876.244506215739
 20
9979.595707472494
 30
0.0
 11
9876.244506215739
 21
9529.5957074725
 31
0.0
  0
LINE
  5
17CB2
330
747D
100
AcDbEntity
  8
部品1
 48
50.0
100
AcDbLine
 10
9849.24450621574
 20
9979.595707472501
 30
0.0
 11
9849.24450621574
 21
9529.5957074725
 31
0.0
  0
LINE
  5
17CB3
330
747D
100
AcDbEntity
  8
部品1
100
AcDbLine
 10
9442.744506215701
 20
10009.59570747236
 30
0.0
 11
9442.744506215706
 21
9981.595707472363
 31
0.0
  0
LINE
  5
17CB4
330
747D
100
AcDbEntity
  8
部品1
100
AcDbLine
 10
9022.744506215701
 20
10009.59570747236
 30
0.0
 11
9022.744506215707
 21
9981.595707472363
 31
0.0
  0
LINE
  5
17CB5
330
747D
100
AcDbEntity
  8
部品1
100
AcDbLine
 10
8602.744506215703
 20
10009.59570747236
 30
0.0
 11
8602.744506215705
 21
9981.595707472363
 31
0.0
  0
LINE
  5
17CB6
330
747D
100
AcDbEntity
  8
部品1
100
AcDbLine
 10
8602.744506215739
 20
10009.5957074724
 30
0.0
 11
8602.744506215739
 21
9981.595707472401
 31
0.0
  0
LINE
  5
17CB7
330
747D
100
AcDbEntity
  8
部品1
100
AcDbLine
 10
8575.744506215706
 20
9954.595707472371
 30
0.0
 11
8547.744506215705
 21
9954.595707472371
 31
0.0
  0
LINE
  5
17CB8
330
747D
100
AcDbEntity
  8
部品1
100
AcDbLine
 10
8575.744506215713
 20
9534.595707472369
 30
0.0
 11
8547.744506215712
 21
9534.595707472369
 31
0.0
  0
LINE
  5
17CB9
330
747D
100
AcDbEntity
  8
部品1
100
AcDbLine
 10
8575.744506215713
 20
9114.59570747237
 30
0.0
 11
8547.744506215712
 21
9114.59570747237
 31
0.0
  0
LINE
  5
17CBA
330
747D
100
AcDbEntity
  8
部品1
100
AcDbLine
 10
8575.744506215727
 20
9529.09570747237
 30
0.0
 11
8575.744506215739
 21
9981.595707472401
 31
0.0
  0
LINE
  5
17CBB
330
747D
100
AcDbEntity
  8
部品1
 48
50.0
100
AcDbLine
 10
8576.244506215671
 20
9979.595707472501
 30
0.0
 11
8576.244506215671
 21
9529.5957074725
 31
0.0
  0
LINE
  5
17CBC
330
747D
100
AcDbEntity
  8
部品1
100
AcDbLine
 10
8576.244506215671
 20
9529.595707472443
 30
0.0
 11
9849.244506215738
 21
9529.5957074725
 31
0.0
  0
LINE
  5
17CBD
330
747D
100
AcDbEntity
  8
部品1
100
AcDbLine
 10
8576.244506215671
 20
9979.595707472443
 30
0.0
 11
9849.24450621574
 21
9979.595707472501
 31
0.0
  0
LINE
  5
17CBE
330
747D
100
AcDbEntity
  8
部品1
100
AcDbLine
 10
8575.744506215739
 20
9981.595707472509
 30
0.0
 11
9850.244506215735
 21
9981.595707472516
 31
0.0
  0
LINE
  5
17CBF
330
747D
100
AcDbEntity
  8
細線
 48
50.0
100
AcDbLine
 10
9849.24450621574
 20
9979.595707472501
 30
0.0
 11
8576.244506215671
 21
9529.595707472443
 31
0.0
  0
LINE
  5
17CC0
330
747D
100
AcDbEntity
  8
細線
 48
50.0
100
AcDbLine
 10
9849.244506215738
 20
9529.5957074725
 30
0.0
 11
8576.244506215667
 21
9979.595707472443
 31
0.0
  0
LINE
  5
17CC1
330
747D
100
AcDbEntity
  8
破線
 48
10.0
100
AcDbLine
 10
11097.74450621574
 20
7459.595707472479
 30
0.0
 11
10303.24450621571
 21
7459.595707472304
 31
0.0
  0
LINE
  5
17CC2
330
747D
100
AcDbEntity
  8
部品1
100
AcDbLine
 10
9022.744506215707
 20
7379.595707472486
 30
0.0
 11
9022.744506215707
 21
7407.595707472487
 31
0.0
  0
LINE
  5
17CC3
330
747D
100
AcDbEntity
  8
部品1
 48
50.0
100
AcDbLine
 10
8604.244506215728
 20
7436.095707472458
 30
0.0
 11
8575.744506215727
 21
7407.595707472466
 31
0.0
  0
LINE
  5
17CC4
330
747D
100
AcDbEntity
  8
部品1
100
AcDbLine
 10
8602.744506215705
 20
7379.595707472486
 30
0.0
 11
8602.744506215705
 21
7407.595707472487
 31
0.0
  0
LINE
  5
17CC5
330
747D
100
AcDbEntity
  8
部品1
100
AcDbLine
 10
8575.744506215713
 20
7434.595707472318
 30
0.0
 11
8547.74450621573
 21
7434.595707472318
 31
0.0
  0
LINE
  5
17CC6
330
747D
100
AcDbEntity
  8
部品1
100
AcDbLine
 10
8575.744506215713
 20
7434.595707472348
 30
0.0
 11
8547.74450621573
 21
7434.595707472348
 31
0.0
  0
LINE
  5
17CC7
330
747D
100
AcDbEntity
  8
部品1
100
AcDbLine
 10
8575.74450621573
 20
7434.595707472363
 30
0.0
 11
8547.74450621573
 21
7434.595707472363
 31
0.0
  0
LINE
  5
17CC8
330
747D
100
AcDbEntity
  8
部品1
100
AcDbLine
 10
8547.74450621573
 20
7434.595707472318
 30
0.0
 11
8547.744506215732
 21
7379.595707472319
 31
0.0
  0
LINE
  5
17CC9
330
747D
100
AcDbEntity
  8
部品1
100
AcDbLine
 10
9022.744506215707
 20
7379.595707472356
 30
0.0
 11
8547.744506215732
 21
7379.595707472356
 31
0.0
  0
LINE
  5
17CCA
330
747D
100
AcDbEntity
  8
破線
 48
10.0
100
AcDbLine
 10
9422.244506215717
 20
7459.595707472349
 30
0.0
 11
8627.744506215725
 21
7459.595707472363
 31
0.0
  0
LINE
  5
17CCB
330
747D
100
AcDbEntity
  8
破線
 48
10.0
100
AcDbLine
 10
10253.24450621571
 20
7459.595707472399
 30
0.0
 11
9472.244506215714
 21
7459.595707472377
 31
0.0
  0
LINE
  5
17CCC
330
747D
100
AcDbEntity
  8
破線
 48
10.0
100
AcDbLine
 10
10253.24450621571
 20
7436.095707472393
 30
0.0
 11
10253.24450621571
 21
9529.5957074725
 31
0.0
  0
LINE
  5
17CCD
330
747D
100
AcDbEntity
  8
破線
 48
10.0
100
AcDbLine
 10
10303.24450621571
 20
7436.0957074724
 30
0.0
 11
10303.24450621571
 21
9529.5957074725
 31
0.0
  0
LINE
  5
17CCE
330
747D
100
AcDbEntity
  8
部品1
100
AcDbLine
 10
8604.244506215716
 20
9529.595707472443
 30
0.0
 11
8604.244506215728
 21
7436.095707472458
 31
0.0
  0
LINE
  5
17CCF
330
747D
100
AcDbEntity
  8
破線
 48
10.0
100
AcDbLine
 10
9472.244506215714
 20
7436.0957074724
 30
0.0
 11
9472.244506215714
 21
9529.5957074725
 31
0.0
  0
LINE
  5
17CD0
330
747D
100
AcDbEntity
  8
破線
 48
10.0
100
AcDbLine
 10
9422.244506215717
 20
7436.095707472393
 30
0.0
 11
9422.244506215713
 21
9529.5957074725
 31
0.0
  0
LINE
  5
17CD1
330
747D
100
AcDbEntity
  8
部品1
100
AcDbLine
 10
8547.744506215702
 20
10009.59570747236
 30
0.0
 11
8547.744506215732
 21
7379.595707472356
 31
0.0
  0
LINE
  5
17CD2
330
747D
100
AcDbEntity
  8
部品1
100
AcDbLine
 10
8575.744506215713
 20
7407.595707472443
 30
0.0
 11
8575.744506215732
 21
9534.595707472369
 31
0.0
  0
LINE
  5
17CD3
330
747D
100
AcDbEntity
  8
破線
 48
10.0
100
AcDbLine
 10
8627.744506215712
 20
9529.595707472493
 30
0.0
 11
8627.744506215728
 21
7459.595707472363
 31
0.0
  0
LINE
  5
17CD4
330
747D
100
AcDbEntity
  8
破線
 48
10.0
100
AcDbLine
 10
11097.74450621573
 20
9529.595707472493
 30
0.0
 11
11097.74450621574
 21
7459.595707472479
 31
0.0
  0
LINE
  5
17CD5
330
747D
100
AcDbEntity
  8
部品1
 48
50.0
100
AcDbLine
 10
8575.744506215732
 20
7407.595707472466
 30
0.0
 11
11149.74450621575
 21
7407.595707472473
 31
0.0
  0
LINE
  5
17CD6
330
747D
100
AcDbEntity
  8
部品1
100
AcDbLine
 10
11121.24450621572
 20
9114.595707472465
 30
0.0
 11
8604.244506215723
 21
9114.59570747237
 31
0.0
  0
LINE
  5
17CD7
330
747D
100
AcDbEntity
  8
部品1
100
AcDbLine
 10
9875.244506215739
 20
9981.595707472509
 30
0.0
 11
11149.74450621574
 21
9981.595707472493
 31
0.0
  0
LINE
  5
17CD8
330
747D
100
AcDbEntity
  8
細線
 48
50.0
100
AcDbLine
 10
11149.24450621574
 20
9529.595707472493
 30
0.0
 11
9876.244506215739
 21
9979.595707472494
 31
0.0
  0
LINE
  5
17CD9
330
747D
100
AcDbEntity
  8
部品1
100
AcDbLine
 10
9876.244506215737
 20
9529.5957074725
 30
0.0
 11
11149.24450621574
 21
9529.595707472493
 31
0.0
  0
LINE
  5
17CDA
330
747D
100
AcDbEntity
  8
部品1
100
AcDbLine
 10
9876.244506215739
 20
9979.595707472501
 30
0.0
 11
11149.24450621574
 21
9979.595707472494
 31
0.0
  0
LINE
  5
17CDB
330
747D
100
AcDbEntity
  8
細線
 48
50.0
100
AcDbLine
 10
11149.24450621574
 20
9979.595707472494
 30
0.0
 11
9876.244506215737
 21
9529.5957074725
 31
0.0
  0
DIMENSION
  5
17CDC
330
747D
100
AcDbEntity
  8
寸法
100
AcDbDimension
  2
*D10
 10
11062.51057437973
 20
9209.632317927846
 30
0.0
 11
10495.63241352975
 21
9209.632317927846
 31
0.0
 70
   160
 71
     5
 42
1273.000000000011
  3
INABA_S40G
100
AcDbAlignedDimension
 13
9875.244506215739
 23
9529.595707472502
 33
0.0
 14
11148.24450621575
 24
9529.595707472495
 34
0.0
100
AcDbRotatedDimension
1001
ACAD
1000
DSTYLE
1002
{
1002
}
  0
LINE
  5
17CDE
330
747D
100
AcDbEntity
  8
部品1
100
AcDbLine
 10
8547.744506215739
 20
10009.5957074724
 30
0.0
 11
11177.74450621574
 21
10009.59570747249
 31
0.0
  0
LINE
  5
17CDF
330
747D
100
AcDbEntity
  8
部品1
100
AcDbLine
 10
11121.24450621574
 20
7436.095707472479
 30
0.0
 11
8604.244506215632
 21
7436.095707472363
 31
0.0
  0
DIMENSION
  5
17CE0
330
747D
100
AcDbEntity
  8
寸法
100
AcDbDimension
  2
*D11
 10
11122.74450621574
 20
10309.5957074724
 30
0.0
 11
9862.744506215735
 21
10309.5957074724
 31
0.0
 70
   160
  1
6X420=<>
 71
     5
 42
2520.0
  3
INABA_S40G
100
AcDbAlignedDimension
 13
8602.744506215739
 23
10009.5957074724
 33
0.0
 14
11122.74450621574
 24
10009.59570747249
 34
0.0
100
AcDbRotatedDimension
1001
ACAD
1000
DSTYLE
1002
{
1002
}
  0
DIMENSION
  5
17CE1
330
747D
100
AcDbEntity
  8
寸法
100
AcDbDimension
  2
*D12
 10
11177.74450621574
 20
10309.5957074724
 30
0.0
 11
11486.22978758998
 21
10309.5957074724
 31
0.0
 70
   160
 71
     5
 42
55.0
  3
INABA_S40G
100
AcDbAlignedDimension
 13
11122.74450621574
 23
10009.59570747249
 33
0.0
 14
11177.74450621574
 24
10009.59570747249
 34
0.0
100
AcDbRotatedDimension
1001
ACAD
1000
DSTYLE
1002
{
1002
}
  0
DIMENSION
  5
17CE2
330
747D
100
AcDbEntity
  8
寸法
100
AcDbDimension
  2
*D13
 10
9762.510574379739
 20
9209.632317927846
 30
0.0
 11
9126.010574379705
 21
9209.632317927846
 31
0.0
 70
   160
 71
     5
 42
1273.000000000069
  3
INABA_S40G
100
AcDbAlignedDimension
 13
8575.244506215669
 23
9529.595707472445
 33
0.0
 14
9848.244506215738
 24
9529.595707472436
 34
0.0
100
AcDbRotatedDimension
1001
ACAD
1000
DSTYLE
1002
{
1002
}
  0
DIMENSION
  5
17CE3
330
747D
100
AcDbEntity
  8
寸法
100
AcDbDimension
  2
*D14
 10
8602.744506215739
 20
10309.5957074724
 30
0.0
 11
8239.259224841465
 21
10309.5957074724
 31
0.0
 70
   160
 71
     5
 42
55.00000000003637
  3
INABA_S40G
100
AcDbAlignedDimension
 13
8547.744506215702
 23
10009.5957074724
 33
0.0
 14
8602.744506215739
 24
10009.5957074724
 34
0.0
100
AcDbRotatedDimension
1001
ACAD
1000
DSTYLE
1002
{
1002
}
  0
LINE
  5
17CE4
330
747D
100
AcDbEntity
  8
部品1
 48
50.0
100
AcDbLine
 10
11122.74450621573
 20
4172.653589224074
 30
0.0
 11
11122.74450621573
 21
4177.653589224074
 31
0.0
  0
LINE
  5
17CE5
330
747D
100
AcDbEntity
  8
部品1
100
AcDbLine
 10
11149.74450621573
 20
2387.653589224094
 30
0.0
 11
11177.74450621572
 21
2387.653589224094
 31
0.0
  0
LINE
  5
17CE6
330
747D
100
AcDbEntity
  8
破線
 48
5.0
100
AcDbLine
 10
11202.74450621572
 20
2082.653589224074
 30
0.0
 11
11182.74450621572
 21
2082.653589224074
 31
0.0
  0
LINE
  5
17CE7
330
747D
100
AcDbEntity
  8
破線
 48
5.0
100
AcDbLine
 10
11277.74450621572
 20
2237.653589224073
 30
0.0
 11
11277.74450621572
 21
2037.653589224074
 31
0.0
  0
LINE
  5
17CE8
330
747D
100
AcDbEntity
  8
破線
 48
5.0
100
AcDbLine
 10
11182.74450621572
 20
2237.653589224073
 30
0.0
 11
11182.74450621572
 21
2082.653589224074
 31
0.0
  0
LINE
  5
17CE9
330
747D
100
AcDbEntity
  8
部品1
100
AcDbLine
 10
11182.74450621572
 20
2382.653589224074
 30
0.0
 11
11182.74450621572
 21
2237.653589224073
 31
0.0
  0
LINE
  5
17CEA
330
747D
100
AcDbEntity
  8
部品1
100
AcDbLine
 10
11177.74450621573
 20
4231.153589224073
 30
0.0
 11
11177.74450621572
 21
2237.653589224073
 31
0.0
  0
LINE
  5
17CEB
330
747D
100
AcDbEntity
  8
部品1
 48
50.0
100
AcDbLine
 10
9022.74450621573
 20
4172.653589224074
 30
0.0
 11
9022.74450621573
 21
4177.653589224074
 31
0.0
  0
LINE
  5
17CEC
330
747D
100
AcDbEntity
  8
破線
 48
5.0
100
AcDbLine
 10
11077.74450621572
 20
2237.653589224073
 30
0.0
 11
11077.74450621572
 21
2037.653589224074
 31
0.0
  0
LINE
  5
17CED
330
747D
100
AcDbEntity
  8
部品1
100
AcDbLine
 10
10777.74450621572
 20
2337.653589224073
 30
0.0
 11
10777.74450621572
 21
2237.653589224073
 31
0.0
  0
LINE
  5
17CEE
330
747D
100
AcDbEntity
  8
部品1
 48
50.0
100
AcDbLine
 10
10377.74450621573
 20
2337.653589224073
 30
0.0
 11
10377.74450621573
 21
2237.653589224073
 31
0.0
  0
LINE
  5
17CEF
330
747D
100
AcDbEntity
  8
部品1
 48
50.0
100
AcDbLine
 10
10177.74450621573
 20
2337.653589224073
 30
0.0
 11
10177.74450621573
 21
2237.653589224073
 31
0.0
  0
LINE
  5
17CF0
330
747D
100
AcDbEntity
  8
部品1
 48
50.0
100
AcDbLine
 10
9547.744506215726
 20
2337.653589224073
 30
0.0
 11
9547.744506215726
 21
2237.653589224073
 31
0.0
  0
LINE
  5
17CF1
330
747D
100
AcDbEntity
  8
部品1
 48
50.0
100
AcDbLine
 10
9347.744506215727
 20
2337.653589224073
 30
0.0
 11
9347.744506215727
 21
2237.653589224073
 31
0.0
  0
LINE
  5
17CF2
330
747D
100
AcDbEntity
  8
部品1
100
AcDbLine
 10
8547.744506215726
 20
2387.653589224094
 30
0.0
 11
8995.744506215729
 21
2387.653589224094
 31
0.0
  0
LINE
  5
17CF3
330
747D
100
AcDbEntity
  8
部品1
100
AcDbLine
 10
8947.744506215727
 20
2337.653589224073
 30
0.0
 11
8947.744506215727
 21
2237.653589224073
 31
0.0
  0
LINE
  5
17CF4
330
747D
100
AcDbEntity
  8
破線
 48
5.0
100
AcDbLine
 10
8522.744506215728
 20
2082.653589224074
 30
0.0
 11
8542.744506215729
 21
2082.653589224074
 31
0.0
  0
LINE
  5
17CF5
330
747D
100
AcDbEntity
  8
破線
 48
5.0
100
AcDbLine
 10
8647.744506215728
 20
2237.653589224073
 30
0.0
 11
8647.744506215728
 21
2037.653589224074
 31
0.0
  0
LINE
  5
17CF6
330
747D
100
AcDbEntity
  8
破線
 48
5.0
100
AcDbLine
 10
8542.744506215727
 20
2237.653589224073
 30
0.0
 11
8542.744506215727
 21
2082.653589224074
 31
0.0
  0
LINE
  5
17CF7
330
747D
100
AcDbEntity
  8
部品1
100
AcDbLine
 10
8542.744506215727
 20
2382.653589224076
 30
0.0
 11
8542.744506215727
 21
2237.653589224073
 31
0.0
  0
LINE
  5
17CF8
330
747D
100
AcDbEntity
  8
部品1
100
AcDbLine
 10
8547.744506215726
 20
4231.153589224073
 30
0.0
 11
8547.744506215726
 21
2237.653589224073
 31
0.0
  0
LINE
  5
17CF9
330
747D
100
AcDbEntity
  8
部品1
 48
50.0
100
AcDbLine
 10
8602.74450621573
 20
2387.653589224094
 30
0.0
 11
8602.74450621573
 21
4177.653589224074
 31
0.0
  0
LINE
  5
17CFA
330
747D
100
AcDbEntity
  8
部品1
100
AcDbLine
 10
8547.744506215726
 20
2337.653589224073
 30
0.0
 11
11177.74450621572
 21
2337.653589224073
 31
0.0
  0
LINE
  5
17CFB
330
747D
100
AcDbEntity
  8
部品1
100
AcDbLine
 10
8547.744506215726
 20
4177.653589224074
 30
0.0
 11
11177.74450621572
 21
4177.653589224074
 31
0.0
  0
LINE
  5
17CFC
330
747D
100
AcDbEntity
  8
破線
 48
5.0
100
AcDbLine
 10
11277.74450621572
 20
2037.653589224074
 30
0.0
 11
11077.74450621572
 21
2037.653589224074
 31
0.0
  0
LINE
  5
17CFD
330
747D
100
AcDbEntity
  8
部品1
 48
50.0
100
AcDbLine
 10
8575.74450621573
 20
2337.653589224073
 30
0.0
 11
11149.74450621573
 21
2337.653589224073
 31
0.0
  0
LINE
  5
17CFE
330
747D
100
AcDbEntity
  8
部品1
 48
50.0
100
AcDbLine
 10
8995.744506215729
 20
2337.653589224073
 30
0.0
 11
11149.74450621573
 21
2337.653589224073
 31
0.0
  0
LINE
  5
17CFF
330
747D
100
AcDbEntity
  8
部品1
100
AcDbLine
 10
8547.744506215726
 20
4177.653589224074
 30
0.0
 11
11177.74450621572
 21
4177.653589224074
 31
0.0
  0
LINE
  5
17D00
330
747D
100
AcDbEntity
  8
破線
 48
5.0
100
AcDbLine
 10
8447.744506215727
 20
2237.653589224073
 30
0.0
 11
8447.744506215727
 21
2037.653589224074
 31
0.0
  0
LINE
  5
17D01
330
747D
100
AcDbEntity
  8
破線
 48
5.0
100
AcDbLine
 10
8447.744506215727
 20
2037.653589224074
 30
0.0
 11
8647.74450621573
 21
2037.653589224074
 31
0.0
  0
DIMENSION
  5
17D02
330
747D
100
AcDbEntity
  8
寸法
 48
50.0
100
AcDbDimension
  2
*D15
 10
8447.744506215727
 20
1751.606259923695
 30
0.0
 11
8547.744506215726
 21
1751.606259923695
 31
0.0
 70
   160
 71
     5
 42
200.0000000000018
  3
INABA_S40G
100
AcDbAlignedDimension
 13
8647.74450621573
 23
2037.653589224074
 33
0.0
 14
8447.744506215727
 24
2037.653589224074
 34
0.0
100
AcDbRotatedDimension
  0
DIMENSION
  5
17D03
330
747D
100
AcDbEntity
  8
寸法
 48
50.0
100
AcDbDimension
  2
*D16
 10
8214.361133996721
 20
2395.653589224074
 30
0.0
 11
8214.361133996721
 21
3252.602533425814
 31
0.0
 70
   160
  1
有効開口部高サ<>
 71
     5
 42
1725.0
  3
INABA_S40G
100
AcDbAlignedDimension
 13
8995.744506215729
 23
4120.653589224073
 33
0.0
 14
8995.744506215729
 24
2395.653589224074
 34
0.0
 50
90.0
100
AcDbRotatedDimension
  0
LINE
  5
17D04
330
747D
100
AcDbEntity
  8
部品1
100
AcDbLine
 10
10244.47983932994
 20
1548.615326246663
 30
0.0
 11
9481.00917310151
 21
1548.615326246663
 31
0.0
  0
LINE
  5
17D05
330
747D
100
AcDbEntity
  8
部品1
100
AcDbLine
 10
10244.47983932994
 20
1308.723004701131
 30
0.0
 11
10244.47983932994
 21
1548.615326246663
 31
0.0
  0
LINE
  5
17D06
330
747D
100
AcDbEntity
  8
部品1
100
AcDbLine
 10
9481.00917310151
 20
1308.723004701131
 30
0.0
 11
10244.47983932994
 21
1308.723004701131
 31
0.0
  0
LINE
  5
17D07
330
747D
100
AcDbEntity
  8
部品1
100
AcDbLine
 10
9481.00917310151
 20
1548.615326246663
 30
0.0
 11
9481.00917310151
 21
1308.723004701131
 31
0.0
  0
TEXT
  5
17D0D
330
747D
100
AcDbEntity
  8
部品1
100
AcDbText
 10
9571.534576839464
 20
1355.72179702814
 30
0.0
 40
135.0
  1
正面図
  7
STYLE2
100
AcDbText
  0
LINE
  5
17D0E
330
747D
100
AcDbEntity
  8
Ｇ．Ｌ
100
AcDbLine
 10
1940.013325178552
 20
2237.653589224073
 30
0.0
 11
11827.25705924457
 21
2237.653589224073
 31
0.0
  0
LINE
  5
17D0F
330
747D
100
AcDbEntity
  8
部品1
100
AcDbLine
 10
11121.24450621572
 20
7854.595707472466
 30
0.0
 11
8604.244506215723
 21
7854.59570747237
 31
0.0
  0
LINE
  5
17D10
330
747D
100
AcDbEntity
  8
部品1
100
AcDbLine
 10
8575.744506215713
 20
7854.59570747237
 30
0.0
 11
8547.744506215712
 21
7854.59570747237
 31
0.0
  0
LINE
  5
17D11
330
747D
100
AcDbEntity
  8
部品1
100
AcDbLine
 10
11149.74450621574
 20
7854.595707472494
 30
0.0
 11
11177.74450621574
 21
7854.595707472494
 31
0.0
  0
LINE
  5
1802A
330
747D
100
AcDbEntity
  8
部品1
100
AcDbLine
 10
11121.24450621572
 20
8274.595707472464
 30
0.0
 11
8604.244506215723
 21
8274.59570747237
 31
0.0
  0
LINE
  5
1802B
330
747D
100
AcDbEntity
  8
部品1
100
AcDbLine
 10
8575.744506215713
 20
8274.59570747237
 30
0.0
 11
8547.744506215712
 21
8274.59570747237
 31
0.0
  0
LINE
  5
1802C
330
747D
100
AcDbEntity
  8
部品1
100
AcDbLine
 10
11149.74450621574
 20
8274.595707472494
 30
0.0
 11
11177.74450621574
 21
8274.595707472494
 31
0.0
  0
TEXT
  5
182AB
330
747D
100
AcDbEntity
  8
部品1
100
AcDbText
 10
2004.228376914136
 20
2273.760492829975
 30
0.0
 40
125.0
  1
▽G.L
  7
STYLE2
100
AcDbText
  0
TEXT
  5
182AC
330
747D
100
AcDbEntity
  8
部品1
100
AcDbText
 10
4858.358245187869
 20
1355.72179702814
 30
0.0
 40
135.0
  1
側面図
  7
STYLE2
100
AcDbText
  0
LINE
  5
182AD
330
747D
100
AcDbEntity
  8
部品1
100
AcDbLine
 10
4768.91214376426
 20
1548.615326246663
 30
0.0
 11
4768.91214376426
 21
1308.723004701131
 31
0.0
  0
LINE
  5
182AE
330
747D
100
AcDbEntity
  8
部品1
100
AcDbLine
 10
4768.91214376426
 20
1308.723004701131
 30
0.0
 11
5532.382809992701
 21
1308.723004701131
 31
0.0
  0
LINE
  5
182AF
330
747D
100
AcDbEntity
  8
部品1
100
AcDbLine
 10
5532.382809992701
 20
1308.723004701131
 30
0.0
 11
5532.382809992701
 21
1548.615326246663
 31
0.0
  0
LINE
  5
182B0
330
747D
100
AcDbEntity
  8
部品1
100
AcDbLine
 10
5532.382809992701
 20
1548.615326246663
 30
0.0
 11
4768.91214376426
 21
1548.615326246663
 31
0.0
  0
LINE
  5
182B1
330
747D
100
AcDbEntity
  8
部品1
100
AcDbLine
 10
6448.147476878481
 20
2337.653589224073
 30
0.0
 11
6455.647476878485
 21
2337.653589224073
 31
0.0
  0
LINE
  5
182B2
330
747D
100
AcDbEntity
  8
部品1
100
AcDbLine
 10
3825.647476878481
 20
2337.653589224073
 30
0.0
 11
3833.147476878481
 21
2337.653589224073
 31
0.0
  0
LINE
  5
182B3
330
747D
100
AcDbEntity
  8
部品1
100
AcDbLine
 10
3825.647476878481
 20
2337.653589224073
 30
0.0
 11
3833.147476878481
 21
2337.653589224073
 31
0.0
  0
DIMENSION
  5
182B4
330
747D
100
AcDbEntity
  8
寸法
100
AcDbDimension
  2
*D18
 10
3201.994767720184
 20
2387.653589224073
 30
0.0
 11
3201.994767720183
 21
3278.107887766031
 31
0.0
 70
   160
 71
     5
 42
1790.0
  3
INABA_S40G
100
AcDbAlignedDimension
 13
3825.647476878481
 23
4177.653589224073
 33
0.0
 14
3825.647476878481
 24
2387.653589224073
 34
0.0
 50
90.0
100
AcDbRotatedDimension
1001
ACAD
1000
DSTYLE
1002
{
1070
   174
1070
     0
1070
   272
1070
     1
1070
   288
1070
     0
1070
   341
1005
0
1002
}
  0
DIMENSION
  5
182B5
330
747D
100
AcDbEntity
  8
寸法
100
AcDbDimension
  2
*D19
 10
2917.008094949123
 20
4412.653589224077
 30
0.0
 11
2917.008094949122
 21
3331.859466717183
 31
0.0
 70
   160
 71
     5
 42
2075.000000000005
  3
INABA_S40G
100
AcDbAlignedDimension
 13
3825.647476878481
 23
2337.653589224073
 33
0.0
 14
3765.647476878481
 24
4412.653589224077
 34
0.0
 50
90.0
100
AcDbRotatedDimension
1001
ACAD
1000
DSTYLE
1002
{
1070
   174
1070
     0
1070
   272
1070
     1
1070
   288
1070
     0
1070
   341
1005
0
1002
}
  0
DIMENSION
  5
182B6
330
747D
100
AcDbEntity
  8
寸法
100
AcDbDimension
  2
*D20
 10
2917.008094949123
 20
2237.653589224073
 30
0.0
 11
2917.008094949122
 21
2001.60634512958
 31
0.0
 70
   160
 71
     5
 42
100.0
  3
INABA_S40G
100
AcDbAlignedDimension
 13
3770.647476878481
 23
2337.653589224073
 33
0.0
 14
3201.994767720183
 24
2237.653589224073
 34
0.0
 50
90.0
100
AcDbRotatedDimension
1001
ACAD
1000
DSTYLE
1002
{
1070
   174
1070
     0
1070
   272
1070
     1
1070
   288
1070
     0
1070
   341
1005
0
1002
}
  0
DIMENSION
  5
182B7
330
747D
100
AcDbEntity
  8
寸法
100
AcDbDimension
  2
*D21
 10
3201.994767720184
 20
2337.653589224073
 30
0.0
 11
3201.994767720183
 21
2031.60634512958
 31
0.0
 70
   160
 71
     5
 42
50.0
  3
INABA_S40G
100
AcDbAlignedDimension
 13
3825.647476878481
 23
2387.653589224073
 33
0.0
 14
3770.647476878481
 24
2337.653589224073
 34
0.0
 50
90.0
100
AcDbRotatedDimension
1001
ACAD
1000
DSTYLE
1002
{
1070
   174
1070
     0
1070
   272
1070
     1
1070
   288
1070
     0
1070
   341
1005
0
1002
}
  0
LINE
  5
182B8
330
747D
100
AcDbEntity
  8
破線
  6
HIDDEN
 48
5.0
100
AcDbLine
 10
6463.147476878481
 20
2082.653589224074
 30
0.0
 11
6393.147476878481
 21
2082.653589224074
 31
0.0
  0
LINE
  5
182B9
330
747D
100
AcDbEntity
  8
破線
  6
HIDDEN
 48
5.0
100
AcDbLine
 10
6408.147476878482
 20
2232.653589224074
 30
0.0
 11
6393.147476878481
 21
2084.953589224073
 31
0.0
  0
LINE
  5
182BA
330
747D
100
AcDbEntity
  8
破線
  6
HIDDEN
 48
5.0
100
AcDbLine
 10
6393.147476878481
 20
2084.953589224073
 30
0.0
 11
6393.147476878481
 21
2082.653589224074
 31
0.0
  0
LINE
  5
182BB
330
747D
100
AcDbEntity
  8
破線
  6
HIDDEN
 48
5.0
100
AcDbLine
 10
6448.147476878481
 20
2232.653589224074
 30
0.0
 11
6463.147476878481
 21
2084.953589224073
 31
0.0
  0
LINE
  5
182BC
330
747D
100
AcDbEntity
  8
破線
  6
HIDDEN
 48
5.0
100
AcDbLine
 10
6463.147476878481
 20
2084.953589224073
 30
0.0
 11
6463.147476878481
 21
2082.653589224074
 31
0.0
  0
LINE
  5
182BD
330
747D
100
AcDbEntity
  8
破線
  6
HIDDEN
 48
5.0
100
AcDbLine
 10
3818.147476878481
 20
2082.653589224074
 30
0.0
 11
3888.147476878481
 21
2082.653589224074
 31
0.0
  0
LINE
  5
182BE
330
747D
100
AcDbEntity
  8
破線
  6
HIDDEN
 48
5.0
100
AcDbLine
 10
3818.147476878481
 20
2084.953589224073
 30
0.0
 11
3818.147476878481
 21
2082.653589224074
 31
0.0
  0
LINE
  5
182BF
330
747D
100
AcDbEntity
  8
破線
  6
HIDDEN
 48
5.0
100
AcDbLine
 10
3888.147476878481
 20
2084.953589224073
 30
0.0
 11
3888.147476878481
 21
2082.653589224074
 31
0.0
  0
LINE
  5
182C0
330
747D
100
AcDbEntity
  8
破線
  6
HIDDEN
 48
5.0
100
AcDbLine
 10
3833.147476878481
 20
2232.653589224074
 30
0.0
 11
3818.147476878481
 21
2084.953589224073
 31
0.0
  0
LINE
  5
182C1
330
747D
100
AcDbEntity
  8
破線
  6
HIDDEN
 48
5.0
100
AcDbLine
 10
3873.147476878481
 20
2232.653589224074
 30
0.0
 11
3888.147476878481
 21
2084.953589224073
 31
0.0
  0
LINE
  5
182C2
330
747D
100
AcDbEntity
  8
部品1
 48
50.0
100
AcDbLine
 10
3833.147476878481
 20
2377.653589224074
 30
0.0
 11
3833.147476878481
 21
2237.653589224073
 31
0.0
  0
LINE
  5
182C3
330
747D
100
AcDbEntity
  8
部品1
 48
50.0
100
AcDbLine
 10
3873.147476878481
 20
2377.653589224074
 30
0.0
 11
3873.147476878481
 21
2237.653589224073
 31
0.0
  0
LINE
  5
182C4
330
747D
100
AcDbEntity
  8
部品1
100
AcDbLine
 10
3838.147476878481
 20
2382.653589224074
 30
0.0
 11
3868.147476878481
 21
2382.653589224074
 31
0.0
  0
ARC
  5
182C5
330
747D
100
AcDbEntity
  8
部品1
 48
50.0
100
AcDbCircle
 10
3838.147476878481
 20
2377.653589224074
 30
0.0
 40
5.0
100
AcDbArc
 50
90.0
 51
180.0
  0
ARC
  5
182C6
330
747D
100
AcDbEntity
  8
部品1
 48
50.0
100
AcDbCircle
 10
3868.147476878481
 20
2377.653589224074
 30
0.0
 40
5.0
100
AcDbArc
 50
0.0
 51
90.0
  0
LINE
  5
182C7
330
747D
100
AcDbEntity
  8
部品1
 48
50.0
100
AcDbLine
 10
6408.147476878482
 20
2377.653589224074
 30
0.0
 11
6408.147476878482
 21
2237.653589224073
 31
0.0
  0
LINE
  5
182C8
330
747D
100
AcDbEntity
  8
部品1
 48
50.0
100
AcDbLine
 10
6448.147476878481
 20
2377.653589224074
 30
0.0
 11
6448.147476878481
 21
2237.653589224073
 31
0.0
  0
LINE
  5
182C9
330
747D
100
AcDbEntity
  8
部品1
100
AcDbLine
 10
6443.147476878481
 20
2382.653589224074
 30
0.0
 11
6413.147476878481
 21
2382.653589224074
 31
0.0
  0
ARC
  5
182CA
330
747D
100
AcDbEntity
  8
部品1
 48
50.0
100
AcDbCircle
 10
6413.147476878481
 20
2377.653589224074
 30
0.0
 40
5.0
100
AcDbArc
 50
90.0
 51
180.0
  0
ARC
  5
182CB
330
747D
100
AcDbEntity
  8
部品1
 48
50.0
100
AcDbCircle
 10
6443.147476878481
 20
2377.653589224074
 30
0.0
 40
5.0
100
AcDbArc
 50
0.0
 51
90.0
  0
LINE
  5
182CC
330
747D
100
AcDbEntity
  8
破線
  6
HIDDEN
 48
5.0
100
AcDbLine
 10
6408.147476878482
 20
2237.653589224073
 30
0.0
 11
6408.147476878482
 21
2232.653589224074
 31
0.0
  0
LINE
  5
182CD
330
747D
100
AcDbEntity
  8
破線
  6
HIDDEN
 48
5.0
100
AcDbLine
 10
6448.147476878481
 20
2237.653589224073
 30
0.0
 11
6448.147476878481
 21
2232.653589224074
 31
0.0
  0
LINE
  5
182CE
330
747D
100
AcDbEntity
  8
破線
  6
HIDDEN
 48
5.0
100
AcDbLine
 10
3833.147476878489
 20
2237.653589224073
 30
0.0
 11
3833.147476878489
 21
2232.653589224074
 31
0.0
  0
LINE
  5
182CF
330
747D
100
AcDbEntity
  8
破線
  6
HIDDEN
 48
5.0
100
AcDbLine
 10
3873.147476878481
 20
2237.653589224073
 30
0.0
 11
3873.147476878481
 21
2232.653589224074
 31
0.0
  0
LINE
  5
182D0
330
747D
100
AcDbEntity
  8
部品1
100
AcDbLine
 10
6448.147476878481
 20
2337.653589224073
 30
0.0
 11
6455.647476878485
 21
2337.653589224073
 31
0.0
  0
DIMENSION
  5
182D1
330
747D
100
AcDbEntity
  8
寸法
 48
50.0
100
AcDbDimension
  2
*D22
 10
3205.039070110127
 20
4286.998848097404
 30
0.0
 11
3215.704545369052
 21
4657.845511339102
 31
0.0
 70
   161
 71
     5
 42
141.0
  3
INABA_S40G
100
AcDbAlignedDimension
 13
3785.043497037061
 23
4411.376338058753
 33
0.0
 14
3780.990041480435
 24
4270.43461429304
 34
0.0
1001
ACAD
1000
DSTYLE
1002
{
1070
   174
1070
     0
1070
   272
1070
     1
1070
   288
1070
     0
1070
   341
1005
0
1002
}
  0
DIMENSION
  5
182D2
330
747D
100
AcDbEntity
  8
寸法
 48
50.0
100
AcDbDimension
  2
*D23
 10
3603.647473631848
 20
2237.653589224072
 30
0.0
 11
3603.647473631847
 21
2137.653589224073
 31
0.0
 70
   160
 71
     5
 42
200.0
  3
INABA_S40G
100
AcDbAlignedDimension
 13
3753.147476878485
 23
2037.653589224072
 33
0.0
 14
3728.147476878481
 24
2237.653589224072
 34
0.0
 50
90.0
100
AcDbRotatedDimension
1001
ACAD
1000
DSTYLE
1002
{
1070
   174
1070
     0
1070
   272
1070
     1
1070
   288
1070
     0
1070
   341
1005
0
1002
}
  0
LINE
  5
182D3
330
747D
100
AcDbEntity
  8
破線
 48
5.0
100
AcDbLine
 10
3953.147476878481
 20
2037.65358922407
 30
0.0
 11
3753.147476878485
 21
2037.65358922407
 31
0.0
  0
LINE
  5
182D4
330
747D
100
AcDbEntity
  8
破線
 48
5.0
100
AcDbLine
 10
3953.147476878481
 20
2237.653589224073
 30
0.0
 11
3953.147476878481
 21
2037.65358922407
 31
0.0
  0
LINE
  5
182D5
330
747D
100
AcDbEntity
  8
破線
 48
5.0
100
AcDbLine
 10
3753.147476878481
 20
2237.653589224073
 30
0.0
 11
3753.147476878485
 21
2037.65358922407
 31
0.0
  0
DIMENSION
  5
182D6
330
747D
100
AcDbEntity
  8
寸法
 48
50.0
100
AcDbDimension
  2
*D24
 10
3753.147476878485
 20
1751.606259923694
 30
0.0
 11
3853.147476878483
 21
1751.606259923694
 31
0.0
 70
   160
 71
     5
 42
199.9999999999963
  3
INABA_S40G
100
AcDbAlignedDimension
 13
3953.147476878481
 23
2037.65358922407
 33
0.0
 14
3753.147476878485
 24
2037.653589224072
 34
0.0
100
AcDbRotatedDimension
  0
LINE
  5
182D7
330
747D
100
AcDbEntity
  8
破線
 48
5.0
100
AcDbLine
 10
6528.147476878489
 20
2237.653589224073
 30
0.0
 11
6528.147476878484
 21
2037.65358922407
 31
0.0
  0
LINE
  5
182D8
330
747D
100
AcDbEntity
  8
破線
 48
5.0
100
AcDbLine
 10
6528.147476878484
 20
2037.65358922407
 30
0.0
 11
6328.147476878488
 21
2037.653589224074
 31
0.0
  0
LINE
  5
182D9
330
747D
100
AcDbEntity
  8
破線
 48
5.0
100
AcDbLine
 10
6328.147476878488
 20
2237.653589224073
 30
0.0
 11
6328.147476878488
 21
2037.653589224074
 31
0.0
  0
LINE
  5
182DA
330
747D
100
AcDbEntity
  8
部品1
 48
50.0
100
AcDbLine
 10
6455.647476878485
 20
4172.653589224074
 30
0.0
 11
6532.647476878485
 21
4162.653589224073
 31
0.0
  0
LINE
  5
182DB
330
747D
100
AcDbEntity
  8
部品1
 48
50.0
100
AcDbLine
 10
6532.647476878485
 20
4162.653589224073
 30
0.0
 11
6532.647476878485
 21
2237.653589224073
 31
0.0
  0
LINE
  5
182DC
330
747D
100
AcDbEntity
  8
部品1
 48
50.0
100
AcDbLine
 10
6532.647476878485
 20
2337.653589224073
 30
0.0
 11
6448.147476878485
 21
2337.653589224073
 31
0.0
  0
LINE
  5
182DD
330
747D
100
AcDbEntity
  8
部品1
100
AcDbLine
 10
6255.647476878481
 20
2337.653589224073
 30
0.0
 11
6255.647476878481
 21
2237.653589224073
 31
0.0
  0
LINE
  5
182DE
330
747D
100
AcDbEntity
  8
部品1
100
AcDbLine
 10
4025.647476878481
 20
2337.653589224073
 30
0.0
 11
4025.647476878481
 21
2237.653589224073
 31
0.0
  0
LINE
  5
182DF
330
747D
100
AcDbEntity
  8
細線
 48
50.0
100
AcDbLine
 10
6323.147476878489
 20
4177.653589224074
 30
0.0
 11
6323.147476878489
 21
2387.653589224075
 31
0.0
  0
LINE
  5
182E0
330
747D
100
AcDbEntity
  8
細線
 48
50.0
100
AcDbLine
 10
6338.147476878488
 20
4177.653589224074
 30
0.0
 11
6338.147476878488
 21
2387.653589224075
 31
0.0
  0
LINE
  5
182E1
330
747D
100
AcDbEntity
  8
細線
 48
50.0
100
AcDbLine
 10
6198.147476878489
 20
4177.653589224074
 30
0.0
 11
6198.147476878489
 21
2387.653589224075
 31
0.0
  0
LINE
  5
182E2
330
747D
100
AcDbEntity
  8
細線
 48
50.0
100
AcDbLine
 10
6183.147476878488
 20
4177.653589224074
 30
0.0
 11
6183.147476878488
 21
2387.653589224075
 31
0.0
  0
LINE
  5
182E3
330
747D
100
AcDbEntity
  8
細線
 48
50.0
100
AcDbLine
 10
6043.147476878488
 20
4177.653589224074
 30
0.0
 11
6043.147476878488
 21
2387.653589224075
 31
0.0
  0
LINE
  5
182E4
330
747D
100
AcDbEntity
  8
細線
 48
50.0
100
AcDbLine
 10
6058.147476878488
 20
4177.653589224074
 30
0.0
 11
6058.147476878488
 21
2387.653589224075
 31
0.0
  0
LINE
  5
182E5
330
747D
100
AcDbEntity
  8
部品1
100
AcDbLine
 10
5140.647476878481
 20
4177.653589224074
 30
0.0
 11
5140.647476878481
 21
2387.653589224074
 31
0.0
  0
LINE
  5
182E6
330
747D
100
AcDbEntity
  8
細線
 48
50.0
100
AcDbLine
 10
4798.147476878485
 20
4177.653589224074
 30
0.0
 11
4798.147476878485
 21
2387.653589224074
 31
0.0
  0
LINE
  5
182E7
330
747D
100
AcDbEntity
  8
細線
 48
50.0
100
AcDbLine
 10
4783.147476878485
 20
4177.653589224074
 30
0.0
 11
4783.147476878485
 21
2387.653589224074
 31
0.0
  0
LINE
  5
182E8
330
747D
100
AcDbEntity
  8
細線
 48
50.0
100
AcDbLine
 10
4923.147476878485
 20
4177.653589224074
 30
0.0
 11
4923.147476878485
 21
2387.653589224074
 31
0.0
  0
LINE
  5
182E9
330
747D
100
AcDbEntity
  8
細線
 48
50.0
100
AcDbLine
 10
4938.147476878484
 20
4177.653589224074
 30
0.0
 11
4938.147476878484
 21
2387.653589224074
 31
0.0
  0
LINE
  5
182EA
330
747D
100
AcDbEntity
  8
細線
 48
50.0
100
AcDbLine
 10
5078.147476878484
 20
4177.653589224074
 30
0.0
 11
5078.147476878484
 21
2387.653589224074
 31
0.0
  0
LINE
  5
182EB
330
747D
100
AcDbEntity
  8
細線
 48
50.0
100
AcDbLine
 10
5063.147476878484
 20
4177.653589224074
 30
0.0
 11
5063.147476878484
 21
2387.653589224074
 31
0.0
  0
LINE
  5
182EC
330
747D
100
AcDbEntity
  8
部品1
100
AcDbLine
 10
4720.647476878481
 20
4177.653589224074
 30
0.0
 11
4720.647476878481
 21
2387.653589224074
 31
0.0
  0
DIMENSION
  5
182ED
330
747D
100
AcDbEntity
  8
寸法
 48
50.0
100
AcDbDimension
  2
*D25
 10
6535.64747687848
 20
4811.311042803379
 30
0.0
 11
6741.694720972971
 21
4811.311042803379
 31
0.0
 70
   160
 71
     5
 42
80.0
  3
INABA_S40G
100
AcDbAlignedDimension
 13
6455.647476878481
 23
4359.464268835728
 33
0.0
 14
6535.64747687848
 24
4357.653589224075
 34
0.0
100
AcDbRotatedDimension
1001
ACAD
1000
DSTYLE
1002
{
1070
   174
1070
     0
1070
   272
1070
     1
1070
   288
1070
     0
1070
   341
1005
0
1002
}
  0
LINE
  5
182EE
330
747D
100
AcDbEntity
  8
細線
 48
50.0
100
AcDbLine
 10
3958.147476878481
 20
4177.653589224074
 30
0.0
 11
3958.147476878481
 21
2387.653589224074
 31
0.0
  0
LINE
  5
182EF
330
747D
100
AcDbEntity
  8
細線
 48
50.0
100
AcDbLine
 10
3943.147476878481
 20
4177.653589224074
 30
0.0
 11
3943.147476878481
 21
2387.653589224074
 31
0.0
  0
LINE
  5
182F0
330
747D
100
AcDbEntity
  8
細線
 48
50.0
100
AcDbLine
 10
4083.147476878481
 20
4177.653589224074
 30
0.0
 11
4083.147476878481
 21
2387.653589224074
 31
0.0
  0
LINE
  5
182F1
330
747D
100
AcDbEntity
  8
細線
 48
50.0
100
AcDbLine
 10
4098.147476878481
 20
4177.653589224074
 30
0.0
 11
4098.147476878481
 21
2387.653589224074
 31
0.0
  0
LINE
  5
182F2
330
747D
100
AcDbEntity
  8
細線
 48
50.0
100
AcDbLine
 10
4238.147476878481
 20
4177.653589224074
 30
0.0
 11
4238.147476878481
 21
2387.653589224074
 31
0.0
  0
LINE
  5
182F3
330
747D
100
AcDbEntity
  8
細線
 48
50.0
100
AcDbLine
 10
4223.147476878481
 20
4177.653589224074
 30
0.0
 11
4223.147476878481
 21
2387.653589224074
 31
0.0
  0
LINE
  5
182F4
330
747D
100
AcDbEntity
  8
細線
 48
50.0
100
AcDbLine
 10
4643.147476878481
 20
4177.653589224074
 30
0.0
 11
4643.147476878481
 21
2387.653589224074
 31
0.0
  0
LINE
  5
182F5
330
747D
100
AcDbEntity
  8
細線
 48
50.0
100
AcDbLine
 10
4658.147476878481
 20
4177.653589224074
 30
0.0
 11
4658.147476878481
 21
2387.653589224074
 31
0.0
  0
LINE
  5
182F6
330
747D
100
AcDbEntity
  8
細線
 48
50.0
100
AcDbLine
 10
4518.147476878481
 20
4177.653589224074
 30
0.0
 11
4518.147476878481
 21
2387.653589224074
 31
0.0
  0
LINE
  5
182F7
330
747D
100
AcDbEntity
  8
細線
 48
50.0
100
AcDbLine
 10
4503.14747687848
 20
4177.653589224074
 30
0.0
 11
4503.14747687848
 21
2387.653589224074
 31
0.0
  0
LINE
  5
182F8
330
747D
100
AcDbEntity
  8
細線
 48
50.0
100
AcDbLine
 10
4363.147476878481
 20
4177.653589224074
 30
0.0
 11
4363.147476878481
 21
2387.653589224074
 31
0.0
  0
LINE
  5
182F9
330
747D
100
AcDbEntity
  8
細線
 48
50.0
100
AcDbLine
 10
4378.14747687848
 20
4177.653589224074
 30
0.0
 11
4378.14747687848
 21
2387.653589224074
 31
0.0
  0
LINE
  5
182FA
330
747D
100
AcDbEntity
  8
部品1
100
AcDbLine
 10
3825.647476878481
 20
2337.653589224073
 30
0.0
 11
3833.147476878483
 21
2337.653589224073
 31
0.0
  0
DIMENSION
  5
182FB
330
747D
100
AcDbEntity
  8
寸法
 48
50.0
100
AcDbDimension
  2
*D26
 10
3765.647476878481
 20
5031.521729534996
 30
0.0
 11
5169.006401765857
 21
5031.521729534996
 31
0.0
 70
   160
 71
     5
 42
2770.0
  3
INABA_S40G
100
AcDbAlignedDimension
 13
6535.64747687848
 23
4357.653589224075
 33
0.0
 14
3765.647476878481
 24
4412.653589224078
 34
0.0
100
AcDbRotatedDimension
1001
ACAD
1000
DSTYLE
1002
{
1070
   174
1070
     0
1070
   272
1070
     1
1070
   288
1070
     0
1070
   341
1005
0
1002
}
  0
DIMENSION
  5
182FC
330
747D
100
AcDbEntity
  8
寸法
 48
50.0
100
AcDbDimension
  2
*D27
 10
3765.647476878481
 20
4811.311042803378
 30
0.0
 11
3456.00968160289
 21
4811.311042803378
 31
0.0
 70
   160
 71
     5
 42
60.0
  3
INABA_S40G
100
AcDbAlignedDimension
 13
3825.647476878481
 23
4408.65520734705
 33
0.0
 14
3765.647476878481
 24
4412.653589224078
 34
0.0
100
AcDbRotatedDimension
1001
ACAD
1000
DSTYLE
1002
{
1070
   174
1070
     0
1070
   272
1070
     1
1070
   288
1070
     0
1070
   341
1005
0
1002
}
  0
DIMENSION
  5
182FD
330
747D
100
AcDbEntity
  8
寸法
 48
50.0
100
AcDbDimension
  2
*D28
 10
3825.647476878481
 20
4811.311042803379
 30
0.0
 11
5180.417667907676
 21
4811.311042803379
 31
0.0
 70
   160
  1
柱外寸法<>
 71
     5
 42
2630.0
  3
INABA_S40G
100
AcDbAlignedDimension
 13
6455.647476878481
 23
4359.464268835728
 33
0.0
 14
3825.647476878481
 24
4408.65520734705
 34
0.0
100
AcDbRotatedDimension
1001
ACAD
1000
DSTYLE
1002
{
1070
   174
1070
     0
1070
   272
1070
     1
1070
   288
1070
     0
1070
   341
1005
0
1002
}
  0
DIMENSION
  5
182FE
330
747D
100
AcDbEntity
  8
寸法
100
AcDbDimension
  2
*D29
 10
7160.574634850613
 20
4357.653589224075
 30
0.0
 11
7060.56282382699
 21
3347.653589224076
 31
0.0
 70
    32
 71
     5
 42
2020.000000000001
  3
INABA_S40G
100
AcDbAlignedDimension
 13
6532.647476878485
 23
2337.653589224075
 33
0.0
 14
6535.64747687848
 24
4357.653589224075
 34
0.0
 50
90.0
100
AcDbRotatedDimension
1001
ACAD
1000
DSTYLE
1002
{
1070
   174
1070
     0
1070
   272
1070
     1
1070
   288
1070
     0
1070
   341
1005
0
1002
}
  0
LINE
  5
182FF
330
747D
100
AcDbEntity
  8
部品1
100
AcDbLine
 10
6400.647476878484
 20
4177.653589224074
 30
0.0
 11
6400.647476878484
 21
2387.653589224075
 31
0.0
  0
LINE
  5
18300
330
747D
100
AcDbEntity
  8
部品1
100
AcDbLine
 10
6455.647476878479
 20
4232.187862611811
 30
0.0
 11
6455.647476878485
 21
2237.653589224075
 31
0.0
  0
LINE
  5
18301
330
747D
100
AcDbEntity
  8
部品1
100
AcDbLine
 10
4300.647476878481
 20
4177.653589224074
 30
0.0
 11
4300.647476878481
 21
2387.653589224074
 31
0.0
  0
LINE
  5
18302
330
747D
100
AcDbEntity
  8
部品1
100
AcDbLine
 10
3825.647476878481
 20
4269.512108666321
 30
0.0
 11
3825.647476878481
 21
2237.653589224073
 31
0.0
  0
LINE
  5
18303
330
747D
100
AcDbEntity
  8
部品1
100
AcDbLine
 10
3880.647476878481
 20
4177.653589224074
 30
0.0
 11
3880.647476878481
 21
2387.653589224074
 31
0.0
  0
LINE
  5
18304
330
747D
100
AcDbEntity
  8
部品1
100
AcDbLine
 10
3825.647476878481
 20
2387.653589224074
 30
0.0
 11
6455.647476878485
 21
2387.653589224075
 31
0.0
  0
LINE
  5
18305
330
747D
100
AcDbEntity
  8
部品1
100
AcDbLine
 10
3825.647476878481
 20
4177.653589224074
 30
0.0
 11
6455.647476878481
 21
4177.653589224074
 31
0.0
  0
LINE
  5
18306
330
747D
100
AcDbEntity
  8
部品1
100
AcDbLine
 10
5980.64747687848
 20
4177.653589224074
 30
0.0
 11
5980.64747687848
 21
2387.653589224075
 31
0.0
  0
LINE
  5
18307
330
747D
100
AcDbEntity
  8
細線
 48
50.0
100
AcDbLine
 10
5483.147476878485
 20
4177.653589224074
 30
0.0
 11
5483.147476878485
 21
2387.653589224074
 31
0.0
  0
LINE
  5
18308
330
747D
100
AcDbEntity
  8
細線
 48
50.0
100
AcDbLine
 10
5498.147476878485
 20
4177.653589224074
 30
0.0
 11
5498.147476878485
 21
2387.653589224074
 31
0.0
  0
LINE
  5
18309
330
747D
100
AcDbEntity
  8
細線
 48
50.0
100
AcDbLine
 10
5358.147476878485
 20
4177.653589224074
 30
0.0
 11
5358.147476878485
 21
2387.653589224074
 31
0.0
  0
LINE
  5
1830A
330
747D
100
AcDbEntity
  8
細線
 48
50.0
100
AcDbLine
 10
5343.147476878485
 20
4177.653589224074
 30
0.0
 11
5343.147476878485
 21
2387.653589224074
 31
0.0
  0
LINE
  5
1830B
330
747D
100
AcDbEntity
  8
細線
 48
50.0
100
AcDbLine
 10
5203.147476878484
 20
4177.653589224074
 30
0.0
 11
5203.147476878484
 21
2387.653589224074
 31
0.0
  0
LINE
  5
1830C
330
747D
100
AcDbEntity
  8
細線
 48
50.0
100
AcDbLine
 10
5218.147476878485
 20
4177.653589224074
 30
0.0
 11
5218.147476878485
 21
2387.653589224074
 31
0.0
  0
TEXT
  5
1830D
330
747D
100
AcDbEntity
  8
部品1
 48
50.0
100
AcDbText
 10
5492.228478839575
 20
4434.922682162381
 30
0.0
 40
120.0
  1
37
 50
90.0
  7
STYLE1
100
AcDbText
  0
TEXT
  5
1830E
330
747D
100
AcDbEntity
  8
部品1
 48
50.0
100
AcDbText
 10
5014.595456174486
 20
4572.423940380663
 30
0.0
 40
120.0
  1
1000
  7
STYLE1
100
AcDbText
  0
LINE
  5
1830F
330
747D
100
AcDbEntity
  8
部品1
 48
50.0
100
AcDbLine
 10
5326.327620950759
 20
4536.53991822823
 30
0.0
 11
5326.327620950759
 21
4520.339918228231
 31
0.0
  0
LINE
  5
18310
330
747D
100
AcDbEntity
  8
部品1
 48
50.0
100
AcDbLine
 10
5026.327620950759
 20
4536.53991822823
 30
0.0
 11
5326.327620950759
 21
4536.53991822823
 31
0.0
  0
LINE
  5
18311
330
747D
100
AcDbEntity
  8
部品1
100
AcDbLine
 10
3773.192463235444
 20
4411.371324558341
 30
0.0
 11
6528.259353739947
 21
4356.294386933213
 31
0.0
  0
LINE
  5
18312
330
747D
100
AcDbEntity
  8
部品1
100
AcDbLine
 10
3780.990041480435
 20
4270.434614293041
 30
0.0
 11
6510.31117741833
 21
4231.406189058835
 31
0.0
  0
LINE
  5
18313
330
747D
100
AcDbEntity
  8
細線
 48
50.0
100
AcDbLine
 10
3798.647476878481
 20
4410.053265599478
 30
0.0
 11
3793.358375322974
 21
4269.967632972124
 31
0.0
  0
LINE
  5
18314
330
747D
100
AcDbEntity
  8
細線
 48
50.0
100
AcDbLine
 10
6502.616760072171
 20
4356.807011703543
 30
0.0
 11
6497.899793990486
 21
4231.874795768626
 31
0.0
  0
LINE
  5
18315
330
747D
100
AcDbEntity
  8
部品1
 48
50.0
100
AcDbLine
 10
3765.831762791588
 20
4404.247135388767
 30
0.0
 11
3766.2120225694
 21
4384.320170942355
 31
0.0
  0
LINE
  5
18316
330
747D
100
AcDbEntity
  8
部品1
 48
50.0
100
AcDbLine
 10
3769.280794675646
 20
4380.744889448883
 30
0.0
 11
3770.984696167011
 21
4291.454392742235
 31
0.0
  0
LINE
  5
18317
330
747D
100
AcDbEntity
  8
細線
 48
50.0
100
AcDbLine
 10
3766.686899979295
 20
4383.670671065435
 30
0.0
 11
6532.322884724468
 21
4328.046466424607
 31
0.0
  0
LINE
  5
18318
330
747D
100
AcDbEntity
  8
細線
 48
50.0
100
AcDbLine
 10
3771.447375216582
 20
4290.809159367571
 30
0.0
 11
6521.451039647222
 21
4250.999840393078
 31
0.0
  0
LINE
  5
18319
330
747D
100
AcDbEntity
  8
部品1
 48
50.0
100
AcDbLine
 10
3774.053468273252
 20
4287.879111248763
 30
0.0
 11
3774.255420893684
 21
4277.296075855671
 31
0.0
  0
ARC
  5
1831A
330
747D
100
AcDbEntity
  8
部品1
 48
50.0
100
AcDbCircle
 10
3772.830488619927
 20
4404.380689796194
 30
0.0
 40
7.0
100
AcDbArc
 50
87.03587545293366
 51
181.0932240293156
  0
ARC
  5
1831B
330
747D
100
AcDbEntity
  8
部品1
 48
50.0
100
AcDbCircle
 10
3781.254146722023
 20
4277.429630263099
 30
0.0
 40
7.0
100
AcDbArc
 50
181.0932240293156
 51
267.8377559870533
  0
ARC
  5
1831C
330
747D
100
AcDbEntity
  8
部品1
100
AcDbCircle
 10
3771.054014346822
 20
4287.821873645579
 30
0.0
 40
3.0
100
AcDbArc
 50
1.093224029315636
 51
80.18775403158718
  0
ARC
  5
1831D
330
747D
100
AcDbEntity
  8
部品1
100
AcDbCircle
 10
3766.281340749216
 20
4380.6876518457
 30
0.0
 40
3.0
100
AcDbArc
 50
1.093224029315636
 51
80.18775403158718
  0
ARC
  5
1831E
330
747D
100
AcDbEntity
  8
部品1
100
AcDbCircle
 10
3766.911895152238
 20
4384.333526383096
 30
0.0
 40
0.7
100
AcDbArc
 50
181.0932240292114
 51
260.1877540315872
  0
ARC
  5
1831F
330
747D
100
AcDbEntity
  8
部品1
100
AcDbCircle
 10
3771.684568749849
 20
4291.467748182977
 30
0.0
 40
0.7
100
AcDbArc
 50
181.0932240292114
 51
260.1877540315872
  0
LINE
  5
18320
330
747D
100
AcDbEntity
  8
部品1
 48
50.0
100
AcDbLine
 10
6534.861379689186
 20
4348.594741498293
 30
0.0
 11
6532.830758498215
 21
4328.649700240513
 31
0.0
  0
LINE
  5
18321
330
747D
100
AcDbEntity
  8
部品1
 48
50.0
100
AcDbLine
 10
6529.478192013733
 20
4325.339066167604
 30
0.0
 11
6521.971412748897
 21
4251.606445422591
 31
0.0
  0
LINE
  5
18322
330
747D
100
AcDbEntity
  8
部品1
 48
50.0
100
AcDbLine
 10
6518.618846264411
 20
4248.29581134968
 30
0.0
 11
6517.539283224671
 21
4237.692194356121
 31
0.0
  0
ARC
  5
18323
330
747D
100
AcDbEntity
  8
部品1
 48
50.0
100
AcDbCircle
 10
6527.897379124429
 20
4349.303752171067
 30
0.0
 40
7.0
100
AcDbArc
 50
354.1866997664495
 51
87.03587545293366
  0
ARC
  5
18324
330
747D
100
AcDbEntity
  8
部品1
 48
50.0
100
AcDbCircle
 10
6510.575282659914
 20
4238.401205028895
 30
0.0
 40
7.0
100
AcDbArc
 50
267.8377559870533
 51
354.1866997664495
  0
ARC
  5
18325
330
747D
100
AcDbEntity
  8
部品1
100
AcDbCircle
 10
6521.603417935018
 20
4247.991949632776
 30
0.0
 40
3.0
100
AcDbArc
 50
95.09216976420788
 51
174.1866997664495
  0
ARC
  5
18326
330
747D
100
AcDbEntity
  8
部品1
100
AcDbCircle
 10
6532.462763684346
 20
4325.035204450701
 30
0.0
 40
3.0
100
AcDbArc
 50
95.09216976431169
 51
174.1866997664495
  0
ARC
  5
18327
330
747D
100
AcDbEntity
  8
部品1
100
AcDbCircle
 10
6532.134358441743
 20
4328.72060130779
 30
0.0
 40
0.7
100
AcDbArc
 50
275.0921697642079
 51
354.1866997664495
  0
ARC
  5
18328
330
747D
100
AcDbEntity
  8
部品1
100
AcDbCircle
 10
6521.275012692424
 20
4251.677346489866
 30
0.0
 40
0.7
100
AcDbArc
 50
275.0921697642079
 51
354.1866997666569
  0
LINE
  5
18329
330
747D
100
AcDbEntity
  8
部品1
100
AcDbLine
 10
5000.872607307721
 20
4537.857977187091
 30
0.0
 11
5326.327620950759
 21
4520.339918228231
 31
0.0
  0
LINE
  5
1832A
330
747D
100
AcDbEntity
  8
部品1
100
AcDbLine
 10
5560.647476878478
 20
4177.653589224075
 30
0.0
 11
5560.647476878478
 21
2387.653589224076
 31
0.0
  0
LINE
  5
1832B
330
747D
100
AcDbEntity
  8
細線
 48
50.0
100
AcDbLine
 10
5638.147476878485
 20
4177.653589224075
 30
0.0
 11
5638.147476878485
 21
2387.653589224076
 31
0.0
  0
LINE
  5
1832C
330
747D
100
AcDbEntity
  8
細線
 48
50.0
100
AcDbLine
 10
5623.147476878485
 20
4177.653589224075
 30
0.0
 11
5623.147476878485
 21
2387.653589224076
 31
0.0
  0
LINE
  5
1832D
330
747D
100
AcDbEntity
  8
細線
 48
50.0
100
AcDbLine
 10
5763.147476878485
 20
4177.653589224075
 30
0.0
 11
5763.147476878485
 21
2387.653589224076
 31
0.0
  0
LINE
  5
1832E
330
747D
100
AcDbEntity
  8
細線
 48
50.0
100
AcDbLine
 10
5778.147476878484
 20
4177.653589224075
 30
0.0
 11
5778.147476878484
 21
2387.653589224076
 31
0.0
  0
LINE
  5
1832F
330
747D
100
AcDbEntity
  8
細線
 48
50.0
100
AcDbLine
 10
5918.147476878484
 20
4177.653589224075
 30
0.0
 11
5918.147476878484
 21
2387.653589224076
 31
0.0
  0
LINE
  5
18330
330
747D
100
AcDbEntity
  8
細線
 48
50.0
100
AcDbLine
 10
5903.147476878484
 20
4177.653589224075
 30
0.0
 11
5903.147476878484
 21
2387.653589224076
 31
0.0
  0
LINE
  5
18331
330
747D
100
AcDbEntity
  8
部品1
100
AcDbLine
 10
6448.147476878481
 20
2337.653589224073
 30
0.0
 11
6455.647476878485
 21
2337.653589224073
 31
0.0
  0
LINE
  5
18332
330
747D
100
AcDbEntity
  8
部品1
100
AcDbLine
 10
3873.147476878483
 20
2337.653589224073
 30
0.0
 11
6408.147476878482
 21
2337.653589224073
 31
0.0
  0
LINE
  5
18333
330
747D
100
AcDbEntity
  8
部品1
 48
50.0
100
AcDbLine
 10
5655.647476878483
 20
2337.653589224073
 30
0.0
 11
5655.647476878483
 21
2237.653589224073
 31
0.0
  0
LINE
  5
18334
330
747D
100
AcDbEntity
  8
部品1
 48
50.0
100
AcDbLine
 10
5455.647476878483
 20
2337.653589224073
 30
0.0
 11
5455.647476878483
 21
2237.653589224073
 31
0.0
  0
LINE
  5
18335
330
747D
100
AcDbEntity
  8
部品1
 48
50.0
100
AcDbLine
 10
4825.647476878483
 20
2337.653589224073
 30
0.0
 11
4825.647476878483
 21
2237.653589224073
 31
0.0
  0
LINE
  5
18336
330
747D
100
AcDbEntity
  8
部品1
 48
50.0
100
AcDbLine
 10
4625.647476878483
 20
2337.653589224073
 30
0.0
 11
4625.647476878483
 21
2237.653589224073
 31
0.0
  0
LINE
  5
1883F
330
747D
100
AcDbEntity
  8
寸法
 48
50.0
100
AcDbLine
 10
9457.94751249755
 20
7157.632459041218
 30
0.0
 11
9406.541504587448
 21
7157.632459041218
 31
0.0
  0
LINE
  5
18840
330
747D
100
AcDbEntity
  8
寸法
 48
50.0
100
AcDbLine
 10
9406.541504587448
 20
7157.632459041218
 30
0.0
 11
9406.541504587448
 21
7188.942617693385
 31
0.0
  0
LINE
  5
18841
330
747D
100
AcDbEntity
  8
寸法
 48
50.0
100
AcDbLine
 10
9406.541504587448
 20
7188.942617693385
 30
0.0
 11
9376.780172596024
 21
7188.942617693385
 31
0.0
  0
LINE
  5
18842
330
747D
100
AcDbEntity
  8
寸法
 48
50.0
100
AcDbLine
 10
9376.780172596024
 20
7188.942617693385
 30
0.0
 11
9432.244508542499
 21
7226.522068621995
 31
0.0
  0
LINE
  5
18843
330
747D
100
AcDbEntity
  8
寸法
 48
50.0
100
AcDbLine
 10
9487.708844488974
 20
7188.942617693385
 30
0.0
 11
9432.244508542499
 21
7226.522068621995
 31
0.0
  0
LINE
  5
18844
330
747D
100
AcDbEntity
  8
寸法
 48
50.0
100
AcDbLine
 10
9457.94751249755
 20
7188.942617693385
 30
0.0
 11
9487.708844488974
 21
7188.942617693385
 31
0.0
  0
LINE
  5
18845
330
747D
100
AcDbEntity
  8
寸法
 48
50.0
100
AcDbLine
 10
9457.94751249755
 20
7157.632459041218
 30
0.0
 11
9457.94751249755
 21
7188.942617693385
 31
0.0
  0
LINE
  5
18846
330
747D
100
AcDbEntity
  8
寸法
 48
50.0
100
AcDbLine
 10
9406.541504587448
 20
7157.632459041218
 30
0.0
 11
9457.94751249755
 21
7157.632459041218
 31
0.0
  0
LINE
  5
18847
330
747D
100
AcDbEntity
  8
寸法
 48
50.0
100
AcDbLine
 10
9737.113046774409
 20
7214.778049796041
 30
0.0
 11
9737.113046774409
 21
7161.114415214251
 31
0.0
  0
LINE
  5
18848
330
747D
100
AcDbEntity
  8
寸法
 48
50.0
100
AcDbLine
 10
9826.397265369829
 20
7190.854415526556
 30
0.0
 11
9737.113046774409
 21
7214.778049796041
 31
0.0
  0
LINE
  5
18849
330
747D
100
AcDbEntity
  8
寸法
 48
50.0
100
AcDbLine
 10
9607.245325194105
 20
7190.854415526556
 30
0.0
 11
9826.397265369829
 21
7190.854415526556
 31
0.0
  0
LINE
  5
1884A
330
747D
100
AcDbEntity
  8
細線
 48
50.0
100
AcDbLine
 10
10483.74450621571
 20
7356.095822421081
 30
0.0
 11
11110.7445062157
 21
7356.095822421081
 31
0.0
  0
LINE
  5
1884B
330
747D
100
AcDbEntity
  8
細線
 48
50.0
100
AcDbLine
 10
9829.744510869296
 20
7322.387053867005
 30
0.0
 11
11110.7445062157
 21
7322.387053867005
 31
0.0
  0
LINE
  5
1884C
330
747D
100
AcDbEntity
  8
細線
 48
50.0
100
AcDbLine
 10
9788.7445108693
 20
7351.791961863259
 30
0.0
 11
9034.744506215707
 21
7351.791961863255
 31
0.0
  0
LINE
  5
1884D
330
747D
100
AcDbEntity
  8
細線
100
AcDbLine
 10
10886.49449679925
 20
7375.595722386091
 30
0.0
 11
10888.82603632105
 21
7380.595725026051
 31
0.0
  0
LINE
  5
1884E
330
747D
100
AcDbEntity
  8
細線
100
AcDbLine
 10
10956.4945062157
 20
7375.595707472355
 30
0.0
 11
10954.16295973952
 21
7380.595725026037
 31
0.0
  0
LINE
  5
1884F
330
747D
100
AcDbEntity
  8
細線
100
AcDbLine
 10
10954.16295973952
 20
7380.595725026037
 30
0.0
 11
10888.82603632104
 21
7380.595725026022
 31
0.0
  0
LINE
  5
18850
330
747D
100
AcDbEntity
  8
細線
100
AcDbLine
 10
10814.16295973952
 20
7380.595725026037
 30
0.0
 11
10748.82603632104
 21
7380.595725026022
 31
0.0
  0
LINE
  5
18851
330
747D
100
AcDbEntity
  8
細線
100
AcDbLine
 10
10816.4945062157
 20
7375.595707472355
 30
0.0
 11
10814.16295973952
 21
7380.595725026037
 31
0.0
  0
LINE
  5
18852
330
747D
100
AcDbEntity
  8
細線
100
AcDbLine
 10
10746.49449679925
 20
7375.595722386091
 30
0.0
 11
10748.82603632105
 21
7380.595725026051
 31
0.0
  0
LINE
  5
18853
330
747D
100
AcDbEntity
  8
細線
100
AcDbLine
 10
10606.4945062157
 20
7375.595707472355
 30
0.0
 11
10608.82604573752
 21
7380.595710112316
 31
0.0
  0
LINE
  5
18854
330
747D
100
AcDbEntity
  8
細線
100
AcDbLine
 10
10676.49451563216
 20
7375.595692558622
 30
0.0
 11
10674.16296915597
 21
7380.595710112302
 31
0.0
  0
LINE
  5
18855
330
747D
100
AcDbEntity
  8
細線
100
AcDbLine
 10
10674.16296915598
 20
7380.595710112302
 30
0.0
 11
10608.8260457375
 21
7380.595710112287
 31
0.0
  0
LINE
  5
18856
330
747D
100
AcDbEntity
  8
細線
100
AcDbLine
 10
10378.91299040481
 20
7346.595746809684
 30
0.0
 11
10313.57606698634
 21
7346.595746809668
 31
0.0
  0
LINE
  5
18857
330
747D
100
AcDbEntity
  8
細線
100
AcDbLine
 10
10381.244536881
 20
7341.595729256003
 30
0.0
 11
10378.91299040481
 21
7346.595746809684
 31
0.0
  0
LINE
  5
18858
330
747D
100
AcDbEntity
  8
細線
100
AcDbLine
 10
10311.24452746454
 20
7341.595744169737
 30
0.0
 11
10313.57606698635
 21
7346.595746809699
 31
0.0
  0
LINE
  5
18859
330
747D
100
AcDbEntity
  8
細線
 48
50.0
100
AcDbLine
 10
10152.62788546372
 20
7359.866570625436
 30
0.0
 11
10158.38340304638
 21
7341.59571933495
 31
0.0
  0
LINE
  5
1885A
330
747D
100
AcDbEntity
  8
細線
 48
50.0
100
AcDbLine
 10
10141.69943698329
 20
7359.866570625436
 30
0.0
 11
10152.62788546372
 21
7359.866570625436
 31
0.0
  0
ARC
  5
1885B
330
747D
100
AcDbEntity
  8
細線
 48
50.0
100
AcDbCircle
 10
10136.24508092597
 20
7361.366570625436
 30
0.0
 40
5.0
100
AcDbArc
 50
204.6243183521304
 51
335.3756816478695
  0
ARC
  5
1885C
330
747D
100
AcDbEntity
  8
細線
 48
50.0
100
AcDbCircle
 10
10141.69943698329
 20
7358.866570625436
 30
0.0
 40
1.0
100
AcDbArc
 50
90.0
 51
155.3756816478695
  0
ARC
  5
1885D
330
747D
100
AcDbEntity
  8
細線
 48
50.0
100
AcDbCircle
 10
10130.79072486865
 20
7358.866570625436
 30
0.0
 40
1.0
100
AcDbArc
 50
24.62431835213048
 51
90.0
  0
LINE
  5
1885E
330
747D
100
AcDbEntity
  8
細線
 48
50.0
100
AcDbLine
 10
10119.86227638822
 20
7359.866570625436
 30
0.0
 11
10130.79072486865
 21
7359.866570625436
 31
0.0
  0
LINE
  5
1885F
330
747D
100
AcDbEntity
  8
細線
 48
50.0
100
AcDbLine
 10
10114.10675880555
 20
7341.595719334943
 30
0.0
 11
10119.86227638822
 21
7359.866570625436
 31
0.0
  0
LINE
  5
18860
330
747D
100
AcDbEntity
  8
細線
100
AcDbLine
 10
10171.24452869558
 20
7341.595716700746
 30
0.0
 11
10173.5760682174
 21
7346.595719340708
 31
0.0
  0
LINE
  5
18861
330
747D
100
AcDbEntity
  8
細線
100
AcDbLine
 10
10241.24453811204
 20
7341.595701787013
 30
0.0
 11
10238.91299163585
 21
7346.595719340694
 31
0.0
  0
LINE
  5
18862
330
747D
100
AcDbEntity
  8
細線
100
AcDbLine
 10
10238.91299163585
 20
7346.595719340694
 30
0.0
 11
10173.57606821738
 21
7346.595719340678
 31
0.0
  0
LINE
  5
18863
330
747D
100
AcDbEntity
  8
細線
100
AcDbLine
 10
10098.91296327134
 20
7346.595719334913
 30
0.0
 11
10033.57603985286
 21
7346.595719334898
 31
0.0
  0
LINE
  5
18864
330
747D
100
AcDbEntity
  8
細線
100
AcDbLine
 10
10101.24450974752
 20
7341.595701781233
 30
0.0
 11
10098.91296327134
 21
7346.595719334913
 31
0.0
  0
LINE
  5
18865
330
747D
100
AcDbEntity
  8
細線
100
AcDbLine
 10
10031.24450156211
 20
7341.595719334943
 30
0.0
 11
10033.57603985287
 21
7346.595719334928
 31
0.0
  0
LINE
  5
18866
330
747D
100
AcDbEntity
  8
細線
100
AcDbLine
 10
9891.244536881002
 20
7341.595727522312
 30
0.0
 11
9893.576075171768
 21
7346.595727522298
 31
0.0
  0
LINE
  5
18867
330
747D
100
AcDbEntity
  8
細線
100
AcDbLine
 10
9961.244545066417
 20
7341.595709968602
 30
0.0
 11
9958.912998590228
 21
7346.595727522279
 31
0.0
  0
LINE
  5
18868
330
747D
100
AcDbEntity
  8
細線
100
AcDbLine
 10
9958.912998590228
 20
7346.595727522279
 30
0.0
 11
9893.576075171754
 21
7346.595727522267
 31
0.0
  0
LINE
  5
18869
330
747D
100
AcDbEntity
  8
細線
100
AcDbLine
 10
9519.744502683879
 20
7307.595899203025
 30
0.0
 11
9522.076040974647
 21
7312.59589920301
 31
0.0
  0
LINE
  5
1886A
330
747D
100
AcDbEntity
  8
細線
100
AcDbLine
 10
9589.744510869296
 20
7307.595881649311
 30
0.0
 11
9587.412964393108
 21
7312.595899202988
 31
0.0
  0
LINE
  5
1886B
330
747D
100
AcDbEntity
  8
細線
100
AcDbLine
 10
9587.412964393108
 20
7312.595899202988
 30
0.0
 11
9522.076040974637
 21
7312.595899202981
 31
0.0
  0
LINE
  5
1886C
330
747D
100
AcDbEntity
  8
細線
100
AcDbLine
 10
9727.41296439311
 20
7312.595899202988
 30
0.0
 11
9662.076040974637
 21
7312.595899202981
 31
0.0
  0
LINE
  5
1886D
330
747D
100
AcDbEntity
  8
細線
100
AcDbLine
 10
9729.744510869295
 20
7307.595881649311
 30
0.0
 11
9727.41296439311
 21
7312.595899202988
 31
0.0
  0
LINE
  5
1886E
330
747D
100
AcDbEntity
  8
細線
100
AcDbLine
 10
9659.74450268388
 20
7307.595899203025
 30
0.0
 11
9662.076040974648
 21
7312.59589920301
 31
0.0
  0
LINE
  5
1886F
330
747D
100
AcDbEntity
  8
細線
100
AcDbLine
 10
9447.412964393107
 20
7312.595899202988
 30
0.0
 11
9382.076040974636
 21
7312.595899202978
 31
0.0
  0
LINE
  5
18870
330
747D
100
AcDbEntity
  8
細線
100
AcDbLine
 10
9449.744510869296
 20
7307.595881649311
 30
0.0
 11
9447.412964393107
 21
7312.595899202988
 31
0.0
  0
LINE
  5
18871
330
747D
100
AcDbEntity
  8
細線
100
AcDbLine
 10
9379.74450268388
 20
7307.595899203021
 30
0.0
 11
9382.076040974647
 21
7312.595899203007
 31
0.0
  0
LINE
  5
18872
330
747D
100
AcDbEntity
  8
細線
100
AcDbLine
 10
9239.744510869297
 20
7307.595899203025
 30
0.0
 11
9242.076049160063
 21
7312.59589920301
 31
0.0
  0
LINE
  5
18873
330
747D
100
AcDbEntity
  8
細線
100
AcDbLine
 10
9309.744519054712
 20
7307.595881649311
 30
0.0
 11
9307.412972578523
 21
7312.595899202988
 31
0.0
  0
LINE
  5
18874
330
747D
100
AcDbEntity
  8
細線
100
AcDbLine
 10
9307.412972578523
 20
7312.595899202988
 30
0.0
 11
9242.076049160052
 21
7312.595899202981
 31
0.0
  0
ARC
  5
18875
330
747D
100
AcDbEntity
  8
部品1
 48
0.01
100
AcDbCircle
 10
9195.24439961696
 20
7306.594777017952
 30
0.0
 40
0.5
100
AcDbArc
 50
270.0
 51
0.0
  0
LINE
  5
18876
330
747D
100
AcDbEntity
  8
部品1
 48
0.01
100
AcDbLine
 10
9195.744399616961
 20
7307.594777017953
 30
0.0
 11
9195.744399616961
 21
7306.594777017952
 31
0.0
  0
LINE
  5
18877
330
747D
100
AcDbEntity
  8
部品1
 48
0.01
100
AcDbLine
 10
9195.744399616961
 20
7307.594777017953
 30
0.0
 11
9195.744399616961
 21
7306.594777017952
 31
0.0
  0
LINE
  5
18878
330
747D
100
AcDbEntity
  8
部品1
 48
0.01
100
AcDbLine
 10
9195.24439961696
 20
7306.094777017952
 30
0.0
 11
9188.631894186896
 21
7306.094777017952
 31
0.0
  0
ARC
  5
18879
330
747D
100
AcDbEntity
  8
部品1
100
AcDbCircle
 10
9188.700243739678
 20
7307.094777017951
 30
0.0
 40
1.0
100
AcDbArc
 50
160.5287793655778
 51
270.0
  0
ARC
  5
1887A
330
747D
100
AcDbEntity
  8
部品1
100
AcDbCircle
 10
9163.244399616962
 20
7316.094777017951
 30
0.0
 40
26.0
100
AcDbArc
 50
340.5287793655779
 51
0.0
  0
LINE
  5
1887B
330
747D
100
AcDbEntity
  8
部品1
100
AcDbLine
 10
9189.24439961696
 20
7316.094777017951
 30
0.0
 11
9189.24439961696
 21
7321.094777017951
 31
0.0
  0
ARC
  5
1887C
330
747D
100
AcDbEntity
  8
部品1
 48
0.01
100
AcDbCircle
 10
9187.244399616961
 20
7321.094777017951
 30
0.0
 40
2.0
100
AcDbArc
 50
0.0
 51
90.0
  0
ARC
  5
1887D
330
747D
100
AcDbEntity
  8
部品1
100
AcDbCircle
 10
9185.636007992149
 20
7320.094777017953
 30
0.0
 40
3.0
100
AcDbArc
 50
90.0
 51
141.6069559807873
  0
LINE
  5
1887E
330
747D
100
AcDbEntity
  8
部品1
 48
0.01
100
AcDbLine
 10
9187.244399616961
 20
7323.094777017953
 30
0.0
 11
9185.636007992149
 21
7323.094777017953
 31
0.0
  0
ARC
  5
1887F
330
747D
100
AcDbEntity
  8
部品1
100
AcDbCircle
 10
9167.173685402689
 20
7319.394777017954
 30
0.0
 40
3.0
100
AcDbArc
 50
254.0576313943215
 51
270.0
  0
ARC
  5
18880
330
747D
100
AcDbEntity
  8
部品1
100
AcDbCircle
 10
9174.315113831232
 20
7319.394777017954
 30
0.0
 40
3.0
100
AcDbArc
 50
270.0
 51
285.9423686056786
  0
LINE
  5
18881
330
747D
100
AcDbEntity
  8
部品1
100
AcDbLine
 10
9174.315113831232
 20
7316.394777017954
 30
0.0
 11
9167.173685402689
 21
7316.394777017954
 31
0.0
  0
ARC
  5
18882
330
747D
100
AcDbEntity
  8
部品1
100
AcDbCircle
 10
9170.74439961696
 20
7331.894777017955
 30
0.0
 40
16.0
100
AcDbArc
 50
285.9423686056786
 51
321.6069559807873
  0
LINE
  5
18883
330
747D
100
AcDbEntity
  8
部品1
 48
0.01
100
AcDbLine
 10
9154.244399616962
 20
7323.094777017953
 30
0.0
 11
9155.85279124177
 21
7323.094777017953
 31
0.0
  0
ARC
  5
18884
330
747D
100
AcDbEntity
  8
部品1
100
AcDbCircle
 10
9155.85279124177
 20
7320.094777017953
 30
0.0
 40
3.0
100
AcDbArc
 50
38.39304401921267
 51
90.0
  0
ARC
  5
18885
330
747D
100
AcDbEntity
  8
部品1
100
AcDbCircle
 10
9170.74439961696
 20
7331.894777017955
 30
0.0
 40
16.0
100
AcDbArc
 50
218.3930440192126
 51
254.0576313943215
  0
LINE
  5
18886
330
747D
100
AcDbEntity
  8
部品1
100
AcDbLine
 10
9152.244399616959
 20
7316.094777017951
 30
0.0
 11
9152.244399616959
 21
7321.094777017951
 31
0.0
  0
ARC
  5
18887
330
747D
100
AcDbEntity
  8
部品1
 48
0.01
100
AcDbCircle
 10
9154.244399616962
 20
7321.094777017951
 30
0.0
 40
2.0
100
AcDbArc
 50
90.0
 51
180.0
  0
ARC
  5
18888
330
747D
100
AcDbEntity
  8
部品1
100
AcDbCircle
 10
9178.244399616961
 20
7316.094777017951
 30
0.0
 40
26.0
100
AcDbArc
 50
180.0
 51
199.4712206344221
  0
ARC
  5
18889
330
747D
100
AcDbEntity
  8
部品1
 48
0.01
100
AcDbCircle
 10
9146.244399616961
 20
7306.594777017952
 30
0.0
 40
0.5
100
AcDbArc
 50
180.0
 51
270.0
  0
LINE
  5
1888A
330
747D
100
AcDbEntity
  8
部品1
 48
0.01
100
AcDbLine
 10
9146.244399616961
 20
7306.094777017952
 30
0.0
 11
9152.788555494245
 21
7306.094777017952
 31
0.0
  0
LINE
  5
1888B
330
747D
100
AcDbEntity
  8
部品1
 48
0.01
100
AcDbLine
 10
9145.74439961696
 20
7307.594777017953
 30
0.0
 11
9145.74439961696
 21
7306.594777017952
 31
0.0
  0
ARC
  5
1888C
330
747D
100
AcDbEntity
  8
部品1
100
AcDbCircle
 10
9152.788555494245
 20
7307.094777017951
 30
0.0
 40
1.0
100
AcDbArc
 50
270.0
 51
19.47122063442214
  0
LINE
  5
1888D
330
747D
100
AcDbEntity
  8
細線
100
AcDbLine
 10
9191.244399616968
 20
7325.594777017956
 30
0.0
 11
9150.244399616967
 21
7325.594777017949
 31
0.0
  0
LINE
  5
1888E
330
747D
100
AcDbEntity
  8
細線
100
AcDbLine
 10
9150.244399616967
 20
7325.594777017949
 30
0.0
 11
9150.244399616967
 21
7307.594777017929
 31
0.0
  0
LINE
  5
1888F
330
747D
100
AcDbEntity
  8
細線
100
AcDbLine
 10
9191.244399616968
 20
7325.594777017956
 30
0.0
 11
9191.244399616968
 21
7307.594777017929
 31
0.0
  0
LINE
  5
18890
330
747D
100
AcDbEntity
  8
細線
100
AcDbLine
 10
9034.744506215707
 20
7311.595707472355
 30
0.0
 11
9034.744506215707
 21
7307.595707472403
 31
0.0
  0
DIMENSION
  5
18891
330
747D
100
AcDbEntity
  8
寸法
 48
50.0
100
AcDbDimension
  2
*D30
 10
10300.7445062157
 20
6648.72916228613
 30
0.0
 11
9692.060889349859
 21
6648.72916228613
 31
0.0
 70
   160
  1
有効開口部間口\P<>
 71
     5
 42
1266.0
  3
INABA_S40
100
AcDbAlignedDimension
 13
9034.744506215707
 23
7302.595707472356
 33
0.0
 14
10300.7445062157
 24
7302.595707472356
 34
0.0
100
AcDbRotatedDimension
1001
ACAD
1000
DSTYLE
1002
{
1070
    41
1040
0.5
1070
    44
1040
1.0
1070
   147
1040
0.8
1070
   271
1070
     2
1070
   272
1070
     2
1070
   289
1070
     3
1070
   340
1005
F706
1070
   343
1005
17551
1070
   344
1005
17551
1002
}
  0
LINE
  5
18892
330
747D
100
AcDbEntity
  8
部品1
100
AcDbLine
 10
11122.7445062157
 20
7379.595707472356
 30
0.0
 11
11149.7445062157
 21
7379.595707472356
 31
0.0
  0
LINE
  5
18894
330
747D
100
AcDbEntity
  8
部品1
100
AcDbLine
 10
11149.7445062157
 20
7302.595707472356
 30
0.0
 11
11149.7445062157
 21
7379.595707472356
 31
0.0
  0
LINE
  5
18895
330
747D
100
AcDbEntity
  8
部品1
100
AcDbLine
 10
11110.7445062157
 20
7375.595707472355
 30
0.0
 11
11122.7445062157
 21
7375.595707472355
 31
0.0
  0
LINE
  5
18896
330
747D
100
AcDbEntity
  8
部品1
100
AcDbLine
 10
11119.7445062157
 20
7311.595707472355
 30
0.0
 11
11119.7445062157
 21
7302.595707472356
 31
0.0
  0
LINE
  5
18897
330
747D
100
AcDbEntity
  8
部品1
100
AcDbLine
 10
11110.7445062157
 20
7311.595707472355
 30
0.0
 11
11119.7445062157
 21
7311.595707472355
 31
0.0
  0
LINE
  5
18898
330
747D
100
AcDbEntity
  8
部品1
100
AcDbLine
 10
11110.7445062157
 20
7375.595707472355
 30
0.0
 11
11110.7445062157
 21
7311.595707472355
 31
0.0
  0
LINE
  5
18899
330
747D
100
AcDbEntity
  8
部品1
100
AcDbLine
 10
11122.7445062157
 20
7406.595707472355
 30
0.0
 11
11122.7445062157
 21
7375.595707472355
 31
0.0
  0
LINE
  5
1889A
330
747D
100
AcDbEntity
  8
部品1
100
AcDbLine
 10
9034.744506215707
 20
7375.595707472355
 30
0.0
 11
9022.744506215707
 21
7375.595707472355
 31
0.0
  0
LINE
  5
1889B
330
747D
100
AcDbEntity
  8
部品1
100
AcDbLine
 10
8995.744506215705
 20
7379.595707472356
 30
0.0
 11
9022.744506215707
 21
7379.595707472356
 31
0.0
  0
LINE
  5
1889C
330
747D
100
AcDbEntity
  8
部品1
100
AcDbLine
 10
9025.744506215707
 20
7311.595707472355
 30
0.0
 11
9025.744506215707
 21
7302.595707472356
 31
0.0
  0
LINE
  5
1889D
330
747D
100
AcDbEntity
  8
部品1
100
AcDbLine
 10
9034.744506215707
 20
7311.595707472355
 30
0.0
 11
9025.744506215707
 21
7311.595707472355
 31
0.0
  0
LINE
  5
1889E
330
747D
100
AcDbEntity
  8
部品1
100
AcDbLine
 10
9025.744506215707
 20
7302.595707472356
 30
0.0
 11
8995.744506215705
 21
7302.595707472356
 31
0.0
  0
LINE
  5
1889F
330
747D
100
AcDbEntity
  8
部品1
100
AcDbLine
 10
8995.744506215705
 20
7302.595707472356
 30
0.0
 11
8995.744506215705
 21
7379.595707472356
 31
0.0
  0
LINE
  5
188A0
330
747D
100
AcDbEntity
  8
部品1
100
AcDbLine
 10
9034.744506215707
 20
7375.595707472355
 30
0.0
 11
9034.744506215707
 21
7311.595707472355
 31
0.0
  0
LINE
  5
188A1
330
747D
100
AcDbEntity
  8
部品1
100
AcDbLine
 10
9022.744506215707
 20
7406.595707472352
 30
0.0
 11
9022.744506215707
 21
7375.595707472355
 31
0.0
  0
LINE
  5
188A2
330
747D
100
AcDbEntity
  8
部品1
100
AcDbLine
 10
9022.744506215707
 20
7406.595707472352
 30
0.0
 11
11122.7445062157
 21
7406.595707472355
 31
0.0
  0
LINE
  5
188A3
330
747D
100
AcDbEntity
  8
部品1
100
AcDbLine
 10
11119.7445062157
 20
7302.595707472356
 30
0.0
 11
11149.7445062157
 21
7302.595707472356
 31
0.0
  0
LINE
  5
188A4
330
747D
100
AcDbEntity
  8
部品1
100
AcDbLine
 10
9025.744506215707
 20
7302.595707472356
 30
0.0
 11
11122.7445062157
 21
7302.595707472356
 31
0.0
  0
LINE
  5
188A5
330
747D
100
AcDbEntity
  8
細線
  6
Continuous
 62
     5
100
AcDbLine
 10
10401.74450621571
 20
7341.595707472352
 30
0.0
 11
10401.74450621571
 21
7341.595707472352
 31
0.0
  0
LINE
  5
188A6
330
747D
100
AcDbEntity
  8
細線
  6
Continuous
 62
     5
100
AcDbLine
 10
10394.2445415346
 20
7341.595717393409
 30
0.0
 11
10394.2445415346
 21
7341.595717393409
 31
0.0
  0
LINE
  5
188A7
330
747D
100
AcDbEntity
  8
細線
  6
Continuous
 62
     5
100
AcDbLine
 10
10388.2445415346
 20
7341.595717393409
 30
0.0
 11
10388.2445415346
 21
7341.595717393409
 31
0.0
  0
LINE
  5
188A8
330
747D
100
AcDbEntity
  8
細線
  6
Continuous
 62
     5
100
AcDbLine
 10
10455.74450621571
 20
7360.595707472352
 30
0.0
 11
10455.74450621571
 21
7360.595707472352
 31
0.0
  0
LINE
  5
188A9
330
747D
100
AcDbEntity
  8
細線
 48
50.0
100
AcDbLine
 10
9048.744510869299
 20
7328.19588164931
 30
0.0
 11
9048.744510869299
 21
7336.59203205695
 31
0.0
  0
LINE
  5
188AA
330
747D
100
AcDbEntity
  8
細線
 48
50.0
100
AcDbLine
 10
9048.744510869299
 20
7336.59203205695
 30
0.0
 11
9034.744506215707
 21
7336.592032056945
 31
0.0
  0
LINE
  5
188AB
330
747D
100
AcDbEntity
  8
細線
 48
50.0
100
AcDbLine
 10
9799.744510869295
 20
7324.74588164931
 30
0.0
 11
9799.744510869295
 21
7329.595881649311
 31
0.0
  0
LINE
  5
188AC
330
747D
100
AcDbEntity
  8
細線
 48
50.0
100
AcDbLine
 10
9799.744510869295
 20
7329.595881649311
 30
0.0
 11
9814.744510869296
 21
7329.595881649311
 31
0.0
  0
LINE
  5
188AD
330
747D
100
AcDbEntity
  8
細線
 48
50.0
100
AcDbLine
 10
9814.744510869296
 20
7329.595881649311
 30
0.0
 11
9814.744510869299
 21
7336.595881649312
 31
0.0
  0
LINE
  5
188AE
330
747D
100
AcDbEntity
  8
細線
 48
50.0
100
AcDbLine
 10
9814.744510869299
 20
7336.595881649312
 30
0.0
 11
9829.744510869296
 21
7336.595881649312
 31
0.0
  0
LINE
  5
188AF
330
747D
100
AcDbEntity
  8
細線
 48
50.0
100
AcDbLine
 10
9829.744510869296
 20
7336.595881649312
 30
0.0
 11
9829.744510869296
 21
7307.595881649311
 31
0.0
  0
LINE
  5
188B0
330
747D
100
AcDbEntity
  8
細線
 48
50.0
100
AcDbLine
 10
9025.744506215707
 20
7307.59321599278
 30
0.0
 11
9239.744510869297
 21
7307.595899203025
 31
0.0
  0
LINE
  5
188B1
330
747D
100
AcDbEntity
  8
細線
 48
50.0
100
AcDbLine
 10
9729.744510869295
 20
7307.595881649311
 30
0.0
 11
9829.744510869296
 21
7307.595881649311
 31
0.0
  0
LINE
  5
188B2
330
747D
100
AcDbEntity
  8
細線
 48
50.0
100
AcDbLine
 10
9449.744510869296
 20
7307.595881649311
 30
0.0
 11
9519.744510869296
 21
7307.595881649311
 31
0.0
  0
LINE
  5
188B3
330
747D
100
AcDbEntity
  8
細線
 48
50.0
100
AcDbLine
 10
9462.606475881825
 20
7307.595881649311
 30
0.0
 11
9468.361993464492
 21
7325.866732939805
 31
0.0
  0
LINE
  5
188B4
330
747D
100
AcDbEntity
  8
細線
 48
50.0
100
AcDbLine
 10
9468.361993464492
 20
7325.866732939805
 30
0.0
 11
9479.290441944925
 21
7325.8667329398
 31
0.0
  0
ARC
  5
188B5
330
747D
100
AcDbEntity
  8
細線
 48
50.0
100
AcDbCircle
 10
9479.290441944925
 20
7324.866732939802
 30
0.0
 40
1.0
100
AcDbArc
 50
24.62431835213048
 51
90.0
  0
ARC
  5
188B6
330
747D
100
AcDbEntity
  8
細線
 48
50.0
100
AcDbCircle
 10
9490.199154059558
 20
7324.866732939802
 30
0.0
 40
1.0
100
AcDbArc
 50
90.0
 51
155.3756816478695
  0
ARC
  5
188B7
330
747D
100
AcDbEntity
  8
細線
 48
50.0
100
AcDbCircle
 10
9484.744798002241
 20
7327.3667329398
 30
0.0
 40
5.0
100
AcDbArc
 50
204.6243183521304
 51
335.3756816478695
  0
LINE
  5
188B8
330
747D
100
AcDbEntity
  8
細線
 48
50.0
100
AcDbLine
 10
9490.199154059558
 20
7325.8667329398
 30
0.0
 11
9501.127602539993
 21
7325.866732939805
 31
0.0
  0
LINE
  5
188B9
330
747D
100
AcDbEntity
  8
細線
 48
50.0
100
AcDbLine
 10
9501.127602539993
 20
7325.866732939805
 30
0.0
 11
9506.88312012266
 21
7307.595881649311
 31
0.0
  0
LINE
  5
188BA
330
747D
100
AcDbEntity
  8
細線
 48
50.0
100
AcDbLine
 10
9799.744510869295
 20
7328.19588164931
 30
0.0
 11
9048.744510869299
 21
7328.19588164931
 31
0.0
  0
LINE
  5
188BB
330
747D
100
AcDbEntity
  8
細線
 48
50.0
100
AcDbLine
 10
9659.744510869295
 20
7307.595881649311
 30
0.0
 11
9589.744510869296
 21
7307.595881649311
 31
0.0
  0
LINE
  5
188BC
330
747D
100
AcDbEntity
  8
細線
100
AcDbLine
 10
9379.744510869295
 20
7307.595881649311
 30
0.0
 11
9309.744519054712
 21
7307.595881649311
 31
0.0
  0
LINE
  5
188BD
330
747D
100
AcDbEntity
  8
細線
 48
50.0
100
AcDbLine
 10
10453.74450156212
 20
7362.195925507179
 30
0.0
 11
9818.744510869295
 21
7362.195925507174
 31
0.0
  0
LINE
  5
188BE
330
747D
100
AcDbEntity
  8
細線
 48
50.0
100
AcDbLine
 10
9818.744510869295
 20
7359.092075914817
 30
0.0
 11
9818.744510869295
 21
7363.592075914818
 31
0.0
  0
LINE
  5
188BF
330
747D
100
AcDbEntity
  8
細線
 48
50.0
100
AcDbLine
 10
9818.744510869295
 20
7363.592075914818
 30
0.0
 11
9803.744510869297
 21
7363.592075914818
 31
0.0
  0
LINE
  5
188C0
330
747D
100
AcDbEntity
  8
細線
 48
50.0
100
AcDbLine
 10
9803.744510869297
 20
7363.592075914818
 30
0.0
 11
9803.744510869297
 21
7370.592075914817
 31
0.0
  0
LINE
  5
188C1
330
747D
100
AcDbEntity
  8
細線
 48
50.0
100
AcDbLine
 10
9803.744510869297
 20
7370.592075914817
 30
0.0
 11
9788.7445108693
 21
7370.592075914814
 31
0.0
  0
LINE
  5
188C2
330
747D
100
AcDbEntity
  8
細線
 48
50.0
100
AcDbLine
 10
9788.7445108693
 20
7370.592075914814
 30
0.0
 11
9788.7445108693
 21
7332.991847811704
 31
0.0
  0
LINE
  5
188C3
330
747D
100
AcDbEntity
  8
細線
 48
50.0
100
AcDbLine
 10
9788.7445108693
 20
7332.991847811704
 30
0.0
 11
9808.744518170472
 21
7332.991889361244
 31
0.0
  0
LINE
  5
188C4
330
747D
100
AcDbEntity
  8
細線
 48
50.0
100
AcDbLine
 10
9808.74447330153
 20
7341.595350997053
 30
0.0
 11
9808.744518170472
 21
7332.991889361244
 31
0.0
  0
LINE
  5
188C5
330
747D
100
AcDbEntity
  8
細線
 48
50.0
100
AcDbLine
 10
10453.74450156212
 20
7358.745925507178
 30
0.0
 11
10453.74450156212
 21
7363.595925507175
 31
0.0
  0
LINE
  5
188C6
330
747D
100
AcDbEntity
  8
細線
 48
50.0
100
AcDbLine
 10
10453.74450156212
 20
7363.595925507175
 30
0.0
 11
10468.74450156211
 21
7363.595925507175
 31
0.0
  0
LINE
  5
188C7
330
747D
100
AcDbEntity
  8
細線
 48
50.0
100
AcDbLine
 10
10468.74450156211
 20
7363.595925507175
 30
0.0
 11
10468.74451319609
 21
7370.59592550722
 31
0.0
  0
LINE
  5
188C8
330
747D
100
AcDbEntity
  8
細線
 48
50.0
100
AcDbLine
 10
10468.74451319609
 20
7370.59592550722
 30
0.0
 11
10483.74451136662
 21
7370.59592550722
 31
0.0
  0
LINE
  5
188C9
330
747D
100
AcDbEntity
  8
細線
 48
50.0
100
AcDbLine
 10
10483.74451136662
 20
7370.59592550722
 30
0.0
 11
10483.7445010648
 21
7341.595719334946
 31
0.0
  0
LINE
  5
188CA
330
747D
100
AcDbEntity
  8
細線
 48
50.0
100
AcDbLine
 10
10171.24452869558
 20
7341.595727522312
 30
0.0
 11
10101.244780778
 21
7341.595722084974
 31
0.0
  0
LINE
  5
188CB
330
747D
100
AcDbEntity
  8
細線
 48
50.0
100
AcDbLine
 10
9808.74447330153
 20
7341.595350997053
 30
0.0
 11
9819.97716265624
 21
7341.595533950201
 31
0.0
  0
ARC
  5
188CC
330
747D
100
AcDbEntity
  8
細線
 48
50.0
100
AcDbCircle
 10
9826.559454963575
 20
7340.395697863812
 30
0.0
 40
1.8
100
AcDbArc
 50
270.0006665777295
 51
345.0005554812987
  0
LINE
  5
188CD
330
747D
100
AcDbEntity
  8
細線
 48
50.0
100
AcDbLine
 10
9828.545888409657
 20
7340.854538321092
 30
0.0
 11
9828.298125967457
 21
7339.929840438985
 31
0.0
  0
LINE
  5
188CE
330
747D
100
AcDbEntity
  8
細線
 48
50.0
100
AcDbLine
 10
9826.55947590473
 20
7338.595697863933
 30
0.0
 11
9822.929548485962
 21
7338.595655633453
 31
0.0
  0
ARC
  5
188CF
330
747D
100
AcDbEntity
  8
細線
 48
50.0
100
AcDbCircle
 10
9822.929527544809
 20
7340.395655633333
 30
0.0
 40
1.8
100
AcDbArc
 50
195.0010443049394
 51
270.0006665777295
  0
LINE
  5
188D0
330
747D
100
AcDbEntity
  8
細線
 48
50.0
100
AcDbLine
 10
9820.943100052552
 20
7340.854370600897
 30
0.0
 11
9821.190869549063
 21
7339.929749662315
 31
0.0
  0
ARC
  5
188D1
330
747D
100
AcDbEntity
  8
細線
 48
50.0
100
AcDbCircle
 10
9819.977178943801
 20
7340.595533950335
 30
0.0
 40
1.0
100
AcDbArc
 50
15.00104430493943
 51
90.00093320877969
  0
LINE
  5
188D2
330
747D
100
AcDbEntity
  8
細線
 48
50.0
100
AcDbLine
 10
9829.511809764758
 20
7341.595728640605
 30
0.0
 11
9830.453569915663
 21
7341.595735214454
 31
0.0
  0
ARC
  5
188D3
330
747D
100
AcDbEntity
  8
細線
 48
50.0
100
AcDbCircle
 10
9829.511816745144
 20
7340.59572864063
 30
0.0
 40
1.0
100
AcDbArc
 50
90.0003999466794
 51
165.0005554812987
  0
LINE
  5
188D4
330
747D
100
AcDbEntity
  8
細線
 48
50.0
100
AcDbLine
 10
10381.24450156211
 20
7341.595719334946
 30
0.0
 11
10483.7445010648
 21
7341.595719334946
 31
0.0
  0
LINE
  5
188D5
330
747D
100
AcDbEntity
  8
細線
 48
50.0
100
AcDbLine
 10
9891.244536881002
 20
7341.595727522312
 30
0.0
 11
9830.14447565408
 21
7341.595735214454
 31
0.0
  0
LINE
  5
188D6
330
747D
100
AcDbEntity
  8
細線
 48
50.0
100
AcDbLine
 10
10311.244536881
 20
7341.595764363394
 30
0.0
 11
10241.24452992661
 21
7341.595719340727
 31
0.0
  0
LINE
  5
188D7
330
747D
100
AcDbEntity
  8
細線
 48
50.0
100
AcDbLine
 10
10031.24450156211
 20
7341.595719334943
 30
0.0
 11
9961.244484274233
 21
7341.59571933495
 31
0.0
  0
ARC
  5
188D8
330
747D
100
AcDbEntity
  8
細線
 48
50.0
100
AcDbCircle
 10
10467.94450621572
 20
7374.795707472356
 30
0.0
 40
0.8
100
AcDbArc
 50
359.9997333689499
 51
89.99986668437072
  0
ARC
  5
188D9
330
747D
100
AcDbEntity
  8
細線
 48
50.0
100
AcDbCircle
 10
10475.54451304081
 20
7374.795718640974
 30
0.0
 40
0.8
100
AcDbArc
 50
90.00014387753465
 51
179.9997333689498
  0
LINE
  5
188DA
330
747D
100
AcDbEntity
  8
細線
 48
50.0
100
AcDbLine
 10
10467.94450807715
 20
7375.595707472355
 30
0.0
 11
10462.7445062157
 21
7375.595707472355
 31
0.0
  0
ARC
  5
188DB
330
747D
100
AcDbEntity
  8
細線
 48
50.0
100
AcDbCircle
 10
10469.4445062157
 20
7373.295707472355
 30
0.0
 40
0.7
100
AcDbArc
 50
180.0
 51
270.0
  0
ARC
  5
188DC
330
747D
100
AcDbEntity
  8
細線
 48
50.0
100
AcDbCircle
 10
10474.04450621571
 20
7373.295707472355
 30
0.0
 40
0.7
100
AcDbArc
 50
270.0
 51
0.0
  0
LINE
  5
188DD
330
747D
100
AcDbEntity
  8
細線
 48
50.0
100
AcDbLine
 10
10474.7445062157
 20
7373.295707472355
 30
0.0
 11
10474.74451304082
 21
7374.795722363844
 31
0.0
  0
LINE
  5
188DE
330
747D
100
AcDbEntity
  8
細線
 48
50.0
100
AcDbLine
 10
10469.4445062157
 20
7372.595707472355
 30
0.0
 11
10474.04450621571
 21
7372.595707472355
 31
0.0
  0
LINE
  5
188DF
330
747D
100
AcDbEntity
  8
細線
 48
50.0
100
AcDbLine
 10
10468.7445062157
 20
7374.795707472356
 30
0.0
 11
10468.7445062157
 21
7373.295707472355
 31
0.0
  0
LINE
  5
188E0
330
747D
100
AcDbEntity
  8
細線
 48
50.0
100
AcDbLine
 10
11094.34450621571
 20
7405.595707472355
 30
0.0
 11
10457.7445062157
 21
7405.595707472352
 31
0.0
  0
LINE
  5
188E1
330
747D
100
AcDbEntity
  8
細線
 48
50.0
100
AcDbLine
 10
11120.2445062157
 20
7400.595707472359
 30
0.0
 11
11104.34450621571
 21
7400.595707472355
 31
0.0
  0
LINE
  5
188E2
330
747D
100
AcDbEntity
  8
細線
 48
50.0
100
AcDbLine
 10
11104.34450621571
 20
7400.595707472355
 30
0.0
 11
11094.34450621571
 21
7405.595707472355
 31
0.0
  0
LINE
  5
188E3
330
747D
100
AcDbEntity
  8
細線
100
AcDbLine
 10
10705.2445062157
 20
7375.595707472355
 30
0.0
 11
10705.2445062157
 21
7404.895707472355
 31
0.0
  0
LINE
  5
188E4
330
747D
100
AcDbEntity
  8
細線
100
AcDbLine
 10
10705.2445062157
 20
7404.895707472355
 30
0.0
 11
10725.2445062157
 21
7404.895707472355
 31
0.0
  0
LINE
  5
188E5
330
747D
100
AcDbEntity
  8
細線
100
AcDbLine
 10
10725.2445062157
 20
7375.595707472355
 30
0.0
 11
10725.2445062157
 21
7404.895707472355
 31
0.0
  0
LINE
  5
188E6
330
747D
100
AcDbEntity
  8
細線
100
AcDbLine
 10
10886.4945062157
 20
7375.595707472355
 30
0.0
 11
10816.4945062157
 21
7375.595707472355
 31
0.0
  0
LINE
  5
188E7
330
747D
100
AcDbEntity
  8
細線
 48
50.0
100
AcDbLine
 10
10606.4945062157
 20
7375.595707472355
 30
0.0
 11
10475.54028578855
 21
7375.595707472355
 31
0.0
  0
LINE
  5
188E8
330
747D
100
AcDbEntity
  8
細線
100
AcDbLine
 10
10746.4945062157
 20
7375.595707472355
 30
0.0
 11
10676.4945062157
 21
7375.595707472355
 31
0.0
  0
LINE
  5
188E9
330
747D
100
AcDbEntity
  8
細線
 48
50.0
100
AcDbLine
 10
10462.7445062157
 20
7367.595707472355
 30
0.0
 11
10462.7445062157
 21
7375.595707472355
 31
0.0
  0
LINE
  5
188EA
330
747D
100
AcDbEntity
  8
細線
 48
50.0
100
AcDbLine
 10
10442.7445062157
 20
7367.59570747236
 30
0.0
 11
10462.7445062157
 21
7367.595707472355
 31
0.0
  0
LINE
  5
188EB
330
747D
100
AcDbEntity
  8
細線
 48
50.0
100
AcDbLine
 10
10457.7445062157
 20
7405.595707472355
 30
0.0
 11
10457.7445062157
 21
7400.595707472355
 31
0.0
  0
LINE
  5
188EC
330
747D
100
AcDbEntity
  8
細線
 48
50.0
100
AcDbLine
 10
10442.7445062157
 20
7405.595707472352
 30
0.0
 11
10457.7445062157
 21
7405.595707472355
 31
0.0
  0
LINE
  5
188ED
330
747D
100
AcDbEntity
  8
細線
 48
50.0
100
AcDbLine
 10
10442.7445062157
 20
7367.59570747236
 30
0.0
 11
10442.7445062157
 21
7405.595707472352
 31
0.0
  0
LINE
  5
188EE
330
747D
100
AcDbEntity
  8
細線
100
AcDbLine
 10
11110.7445062157
 20
7375.595707472355
 30
0.0
 11
10956.4945062157
 21
7375.595707472355
 31
0.0
  0
LINE
  5
188EF
330
747D
100
AcDbEntity
  8
細線
 48
50.0
100
AcDbLine
 10
11120.2445062157
 20
7400.595707472359
 30
0.0
 11
11120.2445062157
 21
7375.595707472355
 31
0.0
  0
DIMENSION
  5
18B26
330
747D
100
AcDbEntity
  8
寸法
 48
50.0
100
AcDbDimension
  2
*D31
 10
11149.7445062157
 20
6364.740338083024
 30
0.0
 11
10074.54447748615
 21
6364.740338083024
 31
0.0
 70
   160
 71
     5
 42
2154.0
  3
INABA_S40G
100
AcDbAlignedDimension
 13
8995.744506215705
 23
7302.595707472351
 33
0.0
 14
11149.7445062157
 24
7302.595707472351
 34
0.0
100
AcDbRotatedDimension
1001
ACAD
1000
DSTYLE
1002
{
1070
   341
1005
0
1002
}
  0
DIMENSION
  5
18B27
330
747D
100
AcDbEntity
  8
寸法
100
AcDbDimension
  2
*D32
 10
8253.133260589015
 20
7304.595707472349
 30
0.0
 11
8253.133260589013
 21
7164.110426098111
 31
0.0
 70
   160
 71
     5
 42
75.0
  3
INABA_S40
100
AcDbAlignedDimension
 13
8547.744506215732
 23
7379.595707472349
 33
0.0
 14
8995.744506215705
 24
7304.595707472349
 34
0.0
 50
90.0
100
AcDbRotatedDimension
1001
ACAD
1000
DSTYLE
1002
{
1070
    41
1040
0.5
1070
    44
1040
1.0
1070
   147
1040
0.8
1070
   271
1070
     2
1070
   272
1070
     2
1070
   289
1070
     3
1070
   340
1005
F706
1070
   343
1005
17551
1070
   344
1005
17551
1002
}
  0
DIMENSION
  5
18C27
330
747D
100
AcDbEntity
  8
寸法
100
AcDbDimension
  2
*D33
 10
11177.74450621571
 20
6098.398750191346
 30
0.0
 11
9847.183850918254
 21
6098.398750191346
 31
0.0
 70
   160
 71
     5
 42
2629.999999999982
  3
INABA_S40G
100
AcDbAlignedDimension
 13
8547.744506215732
 23
7379.595707472316
 33
0.0
 14
11177.74450621571
 24
7379.595707472479
 34
0.0
100
AcDbRotatedDimension
1001
ACAD
1000
DSTYLE
1002
{
1002
}
  0
LINE
  5
18C2E
330
747D
100
AcDbEntity
  8
部品1
100
AcDbLine
 10
10244.47983932994
 20
5929.045290304389
 30
0.0
 11
9481.00917310151
 21
5929.045290304389
 31
0.0
  0
LINE
  5
18C2F
330
747D
100
AcDbEntity
  8
部品1
100
AcDbLine
 10
10244.47983932994
 20
5689.152968758857
 30
0.0
 11
10244.47983932994
 21
5929.045290304389
 31
0.0
  0
LINE
  5
18C30
330
747D
100
AcDbEntity
  8
部品1
100
AcDbLine
 10
9481.00917310151
 20
5689.152968758857
 30
0.0
 11
10244.47983932994
 21
5689.152968758857
 31
0.0
  0
LINE
  5
18C31
330
747D
100
AcDbEntity
  8
部品1
100
AcDbLine
 10
9481.00917310151
 20
5929.045290304389
 30
0.0
 11
9481.00917310151
 21
5689.152968758857
 31
0.0
  0
TEXT
  5
18C32
330
747D
100
AcDbEntity
  8
部品1
100
AcDbText
 10
9570.928782930547
 20
5736.151761085865
 30
0.0
 40
135.0
  1
平面図
  7
STYLE2
100
AcDbText
  0
LWPOLYLINE
  5
18E4D
330
747D
100
AcDbEntity
  8
部品1
 48
50.0
100
AcDbPolyline
 90
        4
 70
     1
 43
0.0
 10
9094.794506215729
 20
3233.903589224074
 10
9097.694506215729
 20
3233.903589224074
 10
9097.694506215729
 20
3243.403589224074
 10
9094.794506215729
 20
3243.403589224074
  0
CIRCLE
  5
18E4E
330
747D
100
AcDbEntity
  8
部品1
 48
50.0
100
AcDbCircle
 10
9096.244506215731
 20
3238.653589224074
 30
0.0
 40
9.0
  0
ARC
  5
18E4F
330
747D
100
AcDbEntity
  8
細線
 48
50.0
100
AcDbCircle
 10
9096.244506215731
 20
3238.653589224074
 30
0.0
 40
4.0
100
AcDbArc
 50
111.2538091853132
 51
248.7461908146868
  0
ARC
  5
18E50
330
747D
100
AcDbEntity
  8
細線
 48
50.0
100
AcDbCircle
 10
9096.244506215731
 20
3238.653589224074
 30
0.0
 40
17.5
100
AcDbArc
 50
306.4837370612677
 51
233.5162629387323
  0
LINE
  5
18E51
330
747D
100
AcDbEntity
  8
細線
 48
50.0
100
AcDbLine
 10
9106.244506215727
 20
3214.794628643191
 30
0.0
 11
9106.244506215729
 21
3223.779114443433
 31
0.0
  0
LINE
  5
18E52
330
747D
100
AcDbEntity
  8
細線
 48
50.0
100
AcDbLine
 10
9086.244506215729
 20
3214.794628643192
 30
0.0
 11
9086.244506215729
 21
3223.779114443429
 31
0.0
  0
ARC
  5
18E53
330
747D
100
AcDbEntity
  8
細線
 48
50.0
100
AcDbCircle
 10
9096.244506215731
 20
3238.653589224074
 30
0.0
 40
26.5
100
AcDbArc
 50
249.3326835063939
 51
290.6673164933835
  0
ARC
  5
18E54
330
747D
100
AcDbEntity
  8
細線
 48
50.0
100
AcDbCircle
 10
9105.244506215722
 20
3214.794628643191
 30
0.0
 40
1.0
100
AcDbArc
 50
290.6673164936062
 51
359.9999999998958
  0
ARC
  5
18E55
330
747D
100
AcDbEntity
  8
細線
 48
50.0
100
AcDbCircle
 10
9087.24450621573
 20
3214.794628643192
 30
0.0
 40
1.0
100
AcDbArc
 50
180.0
 51
249.3326835066164
  0
ARC
  5
18E56
330
747D
100
AcDbEntity
  8
細線
 48
50.0
100
AcDbCircle
 10
9085.24450621573
 20
3223.779114443429
 30
0.0
 40
1.0
100
AcDbArc
 50
0.0
 51
53.51626293873231
  0
ARC
  5
18E57
330
747D
100
AcDbEntity
  8
細線
 48
50.0
100
AcDbCircle
 10
9107.244506215733
 20
3223.779114443433
 30
0.0
 40
1.0
100
AcDbArc
 50
126.4837370615127
 51
180.0
  0
ARC
  5
18E58
330
747D
100
AcDbEntity
  8
細線
 48
50.0
100
AcDbCircle
 10
9096.244506215731
 20
3238.653589224074
 30
0.0
 40
21.5
100
AcDbArc
 50
255.8014401250294
 51
284.1985598749706
  0
ARC
  5
18E59
330
747D
100
AcDbEntity
  8
細線
 48
50.0
100
AcDbCircle
 10
9096.244506215731
 20
3238.653589224074
 30
0.0
 40
16.5
100
AcDbArc
 50
251.9694646069326
 51
288.0305353930674
  0
LINE
  5
18E5A
330
747D
100
AcDbEntity
  8
細線
 48
50.0
100
AcDbLine
 10
9101.744506215728
 20
3218.101217098267
 30
0.0
 11
9101.744506215728
 21
3222.678608785603
 31
0.0
  0
LINE
  5
18E5B
330
747D
100
AcDbEntity
  8
細線
 48
50.0
100
AcDbLine
 10
9090.744506215729
 20
3218.101217098267
 30
0.0
 11
9090.744506215729
 21
3222.678608785602
 31
0.0
  0
ARC
  5
18E5C
330
747D
100
AcDbEntity
  8
細線
 48
50.0
100
AcDbCircle
 10
9091.044506215732
 20
3222.678608785602
 30
0.0
 40
0.3
100
AcDbArc
 50
71.96946460693259
 51
180.0
  0
ARC
  5
18E5D
330
747D
100
AcDbEntity
  8
細線
 48
50.0
100
AcDbCircle
 10
9101.444506215731
 20
3222.678608785603
 30
0.0
 40
0.3
100
AcDbArc
 50
0.0
 51
108.0305353930674
  0
ARC
  5
18E5E
330
747D
100
AcDbEntity
  8
細線
 48
50.0
100
AcDbCircle
 10
9101.444506215726
 20
3218.101217098267
 30
0.0
 40
0.3
100
AcDbArc
 50
284.1985598747622
 51
0.0000000001042204
  0
ARC
  5
18E5F
330
747D
100
AcDbEntity
  8
細線
 48
50.0
100
AcDbCircle
 10
9091.044506215732
 20
3218.101217098267
 30
0.0
 40
0.3
100
AcDbArc
 50
180.0
 51
255.8014401248081
  0
CIRCLE
  5
18E60
330
747D
100
AcDbEntity
  8
細線
 48
50.0
100
AcDbCircle
 10
9096.244506215731
 20
3238.653589224074
 30
0.0
 40
12.0
  0
ARC
  5
18E61
330
747D
100
AcDbEntity
  8
部品1
 48
50.0
100
AcDbCircle
 10
9096.244506215731
 20
3288.653589224074
 30
0.0
 40
8.5
100
AcDbArc
 50
114.315739171091
 51
245.684260828909
  0
CIRCLE
  5
18E62
330
747D
100
AcDbEntity
  8
細線
 48
50.0
100
AcDbCircle
 10
9096.244506215731
 20
3288.653589224074
 30
0.0
 40
4.5
  0
LWPOLYLINE
  5
18E63
330
747D
100
AcDbEntity
  8
部品1
 48
50.0
100
AcDbPolyline
 90
        2
 70
     0
 43
0.0
 10
9092.744506215728
 20
3307.328438621056
 10
9092.744506215728
 20
3296.399555916489
  0
CIRCLE
  5
18E64
330
747D
100
AcDbEntity
  8
部品1
 48
50.0
100
AcDbCircle
 10
9096.244506215731
 20
3288.653589224074
 30
0.0
 40
19.0
  0
LWPOLYLINE
  5
18E65
330
747D
100
AcDbEntity
  8
部品1
 48
50.0
100
AcDbPolyline
 90
        2
 70
     0
 43
0.0
 10
9092.744506215728
 20
3280.907622531659
 10
9092.744506215728
 20
3269.978739827092
  0
LWPOLYLINE
  5
18E66
330
747D
100
AcDbEntity
  8
部品1
 48
50.0
100
AcDbPolyline
 90
        2
 70
     0
 43
0.0
 10
9099.74450621573
 20
3296.399555916489
 10
9099.74450621573
 20
3307.328438621056
  0
ARC
  5
18E67
330
747D
100
AcDbEntity
  8
部品1
 48
50.0
100
AcDbCircle
 10
9096.244506215731
 20
3288.653589224074
 30
0.0
 40
8.5
100
AcDbArc
 50
294.315739171091
 51
65.68426082890896
  0
LWPOLYLINE
  5
18E68
330
747D
100
AcDbEntity
  8
部品1
 48
50.0
100
AcDbPolyline
 90
        2
 70
     0
 43
0.0
 10
9099.74450621573
 20
3269.978739827092
 10
9099.74450621573
 20
3280.907622531659
  0
ARC
  5
18E69
330
747D
100
AcDbEntity
  8
細線
 48
50.0
100
AcDbCircle
 10
9096.244506215731
 20
3288.653589224074
 30
0.0
 40
16.5
100
AcDbArc
 50
332.0012352654438
 51
27.99876473455621
  0
ARC
  5
18E6A
330
747D
100
AcDbEntity
  8
細線
 48
50.0
100
AcDbCircle
 10
9096.244506215731
 20
3288.653589224074
 30
0.0
 40
14.0
100
AcDbArc
 50
326.4074436112986
 51
33.59255638870134
  0
LINE
  5
18E6B
330
747D
100
AcDbEntity
  8
細線
 48
50.0
100
AcDbLine
 10
9081.675703931399
 20
3296.399555916489
 30
0.0
 11
9084.58260242604
 21
3296.399555916489
 31
0.0
  0
LINE
  5
18E6C
330
747D
100
AcDbEntity
  8
細線
 48
50.0
100
AcDbLine
 10
9081.675703931399
 20
3280.907622531659
 30
0.0
 11
9084.58260242604
 21
3280.907622531659
 31
0.0
  0
LINE
  5
18E6D
330
747D
100
AcDbEntity
  8
細線
 48
50.0
100
AcDbLine
 10
9107.906410005417
 20
3296.399555916489
 30
0.0
 11
9110.813308500064
 21
3296.399555916489
 31
0.0
  0
LINE
  5
18E6E
330
747D
100
AcDbEntity
  8
細線
 48
50.0
100
AcDbLine
 10
9107.906410005417
 20
3280.907622531659
 30
0.0
 11
9110.813308500064
 21
3280.907622531659
 31
0.0
  0
ARC
  5
18E6F
330
747D
100
AcDbEntity
  8
細線
 48
50.0
100
AcDbCircle
 10
9096.244506215731
 20
3288.653589224074
 30
0.0
 40
14.0
100
AcDbArc
 50
146.4074436112986
 51
213.5925563887013
  0
ARC
  5
18E70
330
747D
100
AcDbEntity
  8
細線
 48
50.0
100
AcDbCircle
 10
9096.244506215731
 20
3288.653589224074
 30
0.0
 40
16.5
100
AcDbArc
 50
152.0012352654438
 51
207.9987647345562
  0
ARC
  5
18E71
330
747D
100
AcDbEntity
  8
部品1
 48
50.0
100
AcDbCircle
 10
9069.74450621573
 20
3314.153589224074
 30
0.0
 40
5.0
100
AcDbArc
 50
90.0
 51
180.0
  0
ARC
  5
18E72
330
747D
100
AcDbEntity
  8
部品1
 48
50.0
100
AcDbCircle
 10
9069.74450621573
 20
3203.153589224074
 30
0.0
 40
5.0
100
AcDbArc
 50
180.0
 51
270.0
  0
ARC
  5
18E73
330
747D
100
AcDbEntity
  8
部品1
 48
50.0
100
AcDbCircle
 10
9122.744506215729
 20
3203.153589224074
 30
0.0
 40
5.0
100
AcDbArc
 50
270.0
 51
0.0
  0
ARC
  5
18E74
330
747D
100
AcDbEntity
  8
部品1
 48
50.0
100
AcDbCircle
 10
9122.744506215729
 20
3314.153589224074
 30
0.0
 40
5.0
100
AcDbArc
 50
0.0
 51
90.0
  0
LINE
  5
18E76
330
747D
100
AcDbEntity
  8
部品1
 48
50.0
100
AcDbLine
 10
9064.744506215729
 20
3203.153589224074
 30
0.0
 11
9064.744506215729
 21
3314.153589224074
 31
0.0
  0
LINE
  5
18E77
330
747D
100
AcDbEntity
  8
部品1
 48
50.0
100
AcDbLine
 10
9122.744506215729
 20
3198.153589224074
 30
0.0
 11
9069.74450621573
 21
3198.153589224074
 31
0.0
  0
LINE
  5
18E78
330
747D
100
AcDbEntity
  8
部品1
 48
50.0
100
AcDbLine
 10
9127.74450621573
 20
3314.153589224074
 30
0.0
 11
9127.74450621573
 21
3203.153589224074
 31
0.0
  0
ENDSEC
  0
SECTION
  2
OBJECTS
  0
DICTIONARY
  5
7471
330
0
100
AcDbDictionary
281
     1
  3
ACAD_COLOR
350
17545
  3
ACAD_GROUP
350
7472
  3
ACAD_LAYOUT
350
17546
  3
ACAD_MATERIAL
350
17544
  3
ACAD_MLINESTYLE
350
7473
  3
ACAD_PLOTSETTINGS
350
17547
  3
ACAD_PLOTSTYLENAME
350
17542
  3
ACDBHEADERROUNDTRIPXREC
350
18E97
  3
AcDbVariableDictionary
350
18E93
  3
CONTENTDICTIONARY
350
E71C
  3
DRAWINGVARIABLESDICT
350
F3B9
  0
DICTIONARY
  5
176E0
330
7467
100
AcDbDictionary
280
     1
281
     1
  3
ACAD_LAYERSTATES
360
176E1
  0
DICTIONARY
  5
17545
102
{ACAD_REACTORS
330
7471
102
}
330
7471
100
AcDbDictionary
281
     1
  0
DICTIONARY
  5
7472
102
{ACAD_REACTORS
330
7471
102
}
330
7471
100
AcDbDictionary
281
     1
  0
DICTIONARY
  5
17546
102
{ACAD_REACTORS
330
7471
102
}
330
7471
100
AcDbDictionary
281
     1
  3
Model
350
17548
  3
レイアウト1
350
17549
  0
DICTIONARY
  5
17544
102
{ACAD_REACTORS
330
7471
102
}
330
7471
100
AcDbDictionary
281
     1
  0
DICTIONARY
  5
7473
102
{ACAD_REACTORS
330
7471
102
}
330
7471
100
AcDbDictionary
281
     1
  3
STANDARD
350
7480
  0
DICTIONARY
  5
17547
102
{ACAD_REACTORS
330
7471
102
}
330
7471
100
AcDbDictionary
281
     1
  0
ACDBDICTIONARYWDFLT
  5
17542
102
{ACAD_REACTORS
330
7471
102
}
330
7471
100
AcDbDictionary
281
     1
  3
Normal
350
17543
100
AcDbDictionaryWithDefault
340
17543
  0
DICTIONARY
  5
18E97
102
{ACAD_REACTORS
330
7471
102
}
330
7471
100
AcDbDictionary
281
     1
  3
COLORDICT
350
18E99
  3
MATERIALDICT
350
18E98
  0
DICTIONARY
  5
18E93
102
{ACAD_REACTORS
330
7471
102
}
330
7471
100
AcDbDictionary
281
     1
  3
DIMASSOC
350
18E94
  3
PROJECTNAME
350
18E95
  0
DICTIONARY
  5
E71C
102
{ACAD_REACTORS
330
7471
102
}
330
7471
100
AcDbDictionary
281
     1
  0
DICTIONARY
  5
F3B9
102
{ACAD_REACTORS
330
7471
102
}
330
7471
100
AcDbDictionary
281
     1
1001
DRAWINGVARIABLESXDATA
1000
POLARMODE
1000
1
  0
DICTIONARY
  5
176E1
102
{ACAD_REACTORS
330
176E0
102
}
330
176E0
100
AcDbDictionary
281
     1
  0
LAYOUT
  5
17548
102
{ACAD_XDICTIONARY
360
18E9A
102
}
102
{ACAD_REACTORS
330
17546
102
}
330
17546
100
AcDbPlotSettings
  1

  2
クセロPDF
  4
A3
  6

 40
3.174999952316284
 41
3.174999952316284
 42
3.17498779296875
 43
3.17498779296875
 44
419.9466552734374
 45
296.9259948730469
 46
0.0
 47
0.0
 48
3.619013395666115
 49
-4.192117100517862
140
820.022926294543
141
573.2392198881443
142
1.0
143
39.99735023620806
 70
 11952
 72
     1
 73
     0
 74
     2
  7
inaba.ctb
 75
     0
147
0.0250016562120842
148
25.79074261211281
149
125.8223078213959
100
AcDbLayout
  1
Model
 70
     1
 71
     0
 10
0.0
 20
0.0
 11
12.0
 21
9.0
 12
0.0
 22
0.0
 32
0.0
 14
0.0
 24
0.0
 34
0.0
 15
0.0
 25
0.0
 35
0.0
146
0.0
 13
0.0
 23
0.0
 33
0.0
 16
1.0
 26
0.0
 36
0.0
 17
0.0
 27
1.0
 37
0.0
 76
     0
330
747D
  0
LAYOUT
  5
17549
102
{ACAD_XDICTIONARY
360
18E9C
102
}
102
{ACAD_REACTORS
330
17546
102
}
330
17546
100
AcDbPlotSettings
  1

  2
Microsoft Office Document Image Writer
  4

  6

 40
0.0
 41
0.0
 42
0.0
 43
0.0
 44
0.0
 45
0.0
 46
0.0
 47
0.0
 48
0.0
 49
0.0
140
0.0
141
0.0
142
1.0
143
1.0
 70
   688
 72
     0
 73
     0
 74
     5
  7

 75
    16
147
1.0
148
0.0
149
0.0
100
AcDbLayout
  1
レイアウト1
 70
     0
 71
     1
 10
0.0
 20
0.0
 11
420.0
 21
297.0
 12
0.0
 22
0.0
 32
0.0
 14
1.000000000000000E+20
 24
1.000000000000000E+20
 34
1.000000000000000E+20
 15
-1.000000000000000E+20
 25
-1.000000000000000E+20
 35
-1.000000000000000E+20
146
0.0
 13
0.0
 23
0.0
 33
0.0
 16
1.0
 26
0.0
 36
0.0
 17
0.0
 27
1.0
 37
0.0
 76
     0
330
747A
  0
MLINESTYLE
  5
7480
102
{ACAD_REACTORS
330
7473
102
}
330
7473
100
AcDbMlineStyle
  2
STANDARD
 70
     0
  3

 62
     0
 51
90.0
 52
90.0
 71
     2
 49
0.5
 62
   256
  6
BYLAYER
 49
-0.5
 62
   256
  6
BYLAYER
  0
ACDBPLACEHOLDER
  5
17543
102
{ACAD_REACTORS
330
17542
102
}
330
17542
  0
XRECORD
  5
18E99
102
{ACAD_REACTORS
330
18E97
102
}
330
18E97
100
AcDbXrecord
280
     1
340
17545
  0
XRECORD
  5
18E98
102
{ACAD_REACTORS
330
18E97
102
}
330
18E97
100
AcDbXrecord
280
     1
340
17544
  0
DICTIONARYVAR
  5
18E94
102
{ACAD_REACTORS
330
18E93
102
}
330
18E93
100
DictionaryVariables
280
     0
  1
1
  0
DICTIONARYVAR
  5
18E95
102
{ACAD_REACTORS
330
18E93
102
}
330
18E93
100
DictionaryVariables
280
     0
  1

  0
DICTIONARY
  5
18E9A
330
17548
100
AcDbDictionary
280
     1
281
     1
  3
ACAD_XREC_ROUNDTRIP
360
18E9B
  0
DICTIONARY
  5
18E9C
330
17549
100
AcDbDictionary
280
     1
281
     1
  3
ACAD_XREC_ROUNDTRIP
360
18E9D
  0
XRECORD
  5
18E9B
102
{ACAD_REACTORS
330
18E9A
102
}
330
18E9A
100
AcDbXrecord
280
     1
102
SHADEPLOT
 70
     0
102
SHADEPLOTRESLEVEL
 70
     2
102
SHADEPLOTCUSTOMDPI
 70
   150
  0
XRECORD
  5
18E9D
102
{ACAD_REACTORS
330
18E9C
102
}
330
18E9C
100
AcDbXrecord
280
     1
102
SHADEPLOT
 70
     0
102
SHADEPLOTRESLEVEL
 70
     2
102
SHADEPLOTCUSTOMDPI
 70
   300
  0
ENDSEC
  0
EOF
