  0
SECTION
  2
HEADER
  9
$ACADVER
  1
AC1015
  9
$ACADMAINTVER
 70
    20
  9
$DWGCODEPAGE
  3
ANSI_932
  9
$INSBASE
 10
0.0
 20
0.0
 30
0.0
  9
$EXTMIN
 10
139.9999999999995
 20
-0.0000000000000909
 30
0.0
  9
$EXTMAX
 10
16307.2
 20
11409.6
 30
0.0
  9
$LIMMIN
 10
0.0
 20
0.0
  9
$LIMMAX
 10
16800.0
 20
11880.0
  9
$ORTHOMODE
 70
     0
  9
$REGENMODE
 70
     1
  9
$FILLMODE
 70
     1
  9
$QTEXTMODE
 70
     0
  9
$MIRRTEXT
 70
     1
  9
$LTSCALE
 40
20.0
  9
$ATTMODE
 70
     1
  9
$TEXTSIZE
 40
4.0
  9
$TRACEWID
 40
1.0
  9
$TEXTSTYLE
  7
STYLE1
  9
$CLAYER
  8
部品1
  9
$CELTYPE
  6
BYLAYER
  9
$CECOLOR
 62
   256
  9
$CELTSCALE
 40
50.0
  9
$DISPSILH
 70
     0
  9
$DIMSCALE
 40
40.0
  9
$DIMASZ
 40
2.5
  9
$DIMEXO
 40
0.5
  9
$DIMDLI
 40
7.0
  9
$DIMRND
 40
0.0
  9
$DIMDLE
 40
0.0
  9
$DIMEXE
 40
1.5
  9
$DIMTP
 40
0.0
  9
$DIMTM
 40
0.0
  9
$DIMTXT
 40
3.0
  9
$DIMCEN
 40
0.0
  9
$DIMTSZ
 40
0.0
  9
$DIMTOL
 70
     0
  9
$DIMLIM
 70
     0
  9
$DIMTIH
 70
     0
  9
$DIMTOH
 70
     0
  9
$DIMSE1
 70
     0
  9
$DIMSE2
 70
     0
  9
$DIMTAD
 70
     3
  9
$DIMZIN
 70
     8
  9
$DIMBLK
  1

  9
$DIMASO
 70
     1
  9
$DIMSHO
 70
     1
  9
$DIMPOST
  1

  9
$DIMAPOST
  1

  9
$DIMALT
 70
     0
  9
$DIMALTD
 70
     2
  9
$DIMALTF
 40
0.0394
  9
$DIMLFAC
 40
1.0
  9
$DIMTOFL
 70
     1
  9
$DIMTVP
 40
0.0
  9
$DIMTIX
 70
     1
  9
$DIMSOXD
 70
     0
  9
$DIMSAH
 70
     1
  9
$DIMBLK1
  1
DOTSMALL
  9
$DIMBLK2
  1
DOTSMALL
  9
$DIMSTYLE
  2
INABA_S40G
  9
$DIMCLRD
 70
     0
  9
$DIMCLRE
 70
     0
  9
$DIMCLRT
 70
     7
  9
$DIMTFAC
 40
1.0
  9
$DIMGAP
 40
1.0
  9
$DIMJUST
 70
     0
  9
$DIMSD1
 70
     0
  9
$DIMSD2
 70
     0
  9
$DIMTOLJ
 70
     1
  9
$DIMTZIN
 70
     0
  9
$DIMALTZ
 70
     0
  9
$DIMALTTZ
 70
     0
  9
$DIMUPT
 70
     0
  9
$DIMDEC
 70
     1
  9
$DIMTDEC
 70
     4
  9
$DIMALTU
 70
     2
  9
$DIMALTTD
 70
     2
  9
$DIMTXSTY
  7
STYLE1
  9
$DIMAUNIT
 70
     0
  9
$DIMADEC
 70
     0
  9
$DIMALTRND
 40
0.0
  9
$DIMAZIN
 70
     0
  9
$DIMDSEP
 70
    46
  9
$DIMATFIT
 70
     3
  9
$DIMFRAC
 70
     0
  9
$DIMLDRBLK
  1

  9
$DIMLUNIT
 70
     2
  9
$DIMLWD
 70
    -2
  9
$DIMLWE
 70
    -2
  9
$DIMTMOVE
 70
     0
  9
$LUNITS
 70
     2
  9
$LUPREC
 70
     1
  9
$SKETCHINC
 40
1.0
  9
$FILLETRAD
 40
3.0
  9
$AUNITS
 70
     0
  9
$AUPREC
 70
     0
  9
$MENU
  1
acad
  9
$ELEVATION
 40
0.0
  9
$PELEVATION
 40
0.0
  9
$THICKNESS
 40
0.0
  9
$LIMCHECK
 70
     0
  9
$CHAMFERA
 40
0.0
  9
$CHAMFERB
 40
0.0
  9
$CHAMFERC
 40
0.0
  9
$CHAMFERD
 40
0.0
  9
$SKPOLY
 70
     0
  9
$TDCREATE
 40
2451368.612993866
  9
$TDUCREATE
 40
2451368.237993866
  9
$TDUPDATE
 40
2455575.686507153
  9
$TDUUPDATE
 40
2455575.311507153
  9
$TDINDWG
 40
0.8159894329
  9
$TDUSRTIMER
 40
0.8159894329
  9
$USRTIMER
 70
     1
  9
$ANGBASE
 50
0.0
  9
$ANGDIR
 70
     0
  9
$PDMODE
 70
     3
  9
$PDSIZE
 40
2.0
  9
$PLINEWID
 40
0.0
  9
$SPLFRAME
 70
     0
  9
$SPLINETYPE
 70
     6
  9
$SPLINESEGS
 70
     8
  9
$HANDSEED
  5
1ABB3
  9
$SURFTAB1
 70
     6
  9
$SURFTAB2
 70
     6
  9
$SURFTYPE
 70
     6
  9
$SURFU
 70
     6
  9
$SURFV
 70
     6
  9
$UCSBASE
  2

  9
$UCSNAME
  2

  9
$UCSORG
 10
0.0
 20
0.0
 30
0.0
  9
$UCSXDIR
 10
1.0
 20
0.0
 30
0.0
  9
$UCSYDIR
 10
0.0
 20
1.0
 30
0.0
  9
$UCSORTHOREF
  2

  9
$UCSORTHOVIEW
 70
     0
  9
$UCSORGTOP
 10
0.0
 20
0.0
 30
0.0
  9
$UCSORGBOTTOM
 10
0.0
 20
0.0
 30
0.0
  9
$UCSORGLEFT
 10
0.0
 20
0.0
 30
0.0
  9
$UCSORGRIGHT
 10
0.0
 20
0.0
 30
0.0
  9
$UCSORGFRONT
 10
0.0
 20
0.0
 30
0.0
  9
$UCSORGBACK
 10
0.0
 20
0.0
 30
0.0
  9
$PUCSBASE
  2

  9
$PUCSNAME
  2

  9
$PUCSORG
 10
0.0
 20
0.0
 30
0.0
  9
$PUCSXDIR
 10
1.0
 20
0.0
 30
0.0
  9
$PUCSYDIR
 10
0.0
 20
1.0
 30
0.0
  9
$PUCSORTHOREF
  2

  9
$PUCSORTHOVIEW
 70
     0
  9
$PUCSORGTOP
 10
0.0
 20
0.0
 30
0.0
  9
$PUCSORGBOTTOM
 10
0.0
 20
0.0
 30
0.0
  9
$PUCSORGLEFT
 10
0.0
 20
0.0
 30
0.0
  9
$PUCSORGRIGHT
 10
0.0
 20
0.0
 30
0.0
  9
$PUCSORGFRONT
 10
0.0
 20
0.0
 30
0.0
  9
$PUCSORGBACK
 10
0.0
 20
0.0
 30
0.0
  9
$USERI1
 70
     0
  9
$USERI2
 70
     0
  9
$USERI3
 70
     0
  9
$USERI4
 70
     0
  9
$USERI5
 70
     0
  9
$USERR1
 40
0.0
  9
$USERR2
 40
0.0
  9
$USERR3
 40
0.0
  9
$USERR4
 40
0.0
  9
$USERR5
 40
0.0
  9
$WORLDVIEW
 70
     1
  9
$SHADEDGE
 70
     3
  9
$SHADEDIF
 70
    70
  9
$TILEMODE
 70
     1
  9
$MAXACTVP
 70
    16
  9
$PINSBASE
 10
0.0
 20
0.0
 30
0.0
  9
$PLIMCHECK
 70
     0
  9
$PEXTMIN
 10
1.000000000000000E+20
 20
1.000000000000000E+20
 30
1.000000000000000E+20
  9
$PEXTMAX
 10
-1.000000000000000E+20
 20
-1.000000000000000E+20
 30
-1.000000000000000E+20
  9
$PLIMMIN
 10
0.0
 20
0.0
  9
$PLIMMAX
 10
420.0
 20
297.0
  9
$UNITMODE
 70
     0
  9
$VISRETAIN
 70
     0
  9
$PLINEGEN
 70
     0
  9
$PSLTSCALE
 70
     0
  9
$TREEDEPTH
 70
  3020
  9
$CMLSTYLE
  2
STANDARD
  9
$CMLJUST
 70
     0
  9
$CMLSCALE
 40
1.0
  9
$PROXYGRAPHICS
 70
     1
  9
$MEASUREMENT
 70
     1
  9
$CELWEIGHT
370
    -1
  9
$ENDCAPS
280
     0
  9
$JOINSTYLE
280
     0
  9
$LWDISPLAY
290
     0
  9
$INSUNITS
 70
     0
  9
$HYPERLINKBASE
  1

  9
$STYLESHEET
  1

  9
$XEDIT
290
     1
  9
$CEPSNTYPE
380
     0
  9
$PSTYLEMODE
290
     1
  9
$FINGERPRINTGUID
  2
{779C9855-FAC6-4B8E-B7A7-4CD811DE3E9A}
  9
$VERSIONGUID
  2
{136D86D0-28AE-404D-807C-943F66A66AF6}
  9
$EXTNAMES
290
     1
  9
$PSVPSCALE
 40
0.0
  9
$OLESTARTUP
290
     0
  0
ENDSEC
  0
SECTION
  2
CLASSES
  0
CLASS
  1
ACDBDICTIONARYWDFLT
  2
AcDbDictionaryWithDefault
  3
ObjectDBX Classes
 90
        0
280
     0
281
     0
  0
CLASS
  1
DICTIONARYVAR
  2
AcDbDictionaryVar
  3
ObjectDBX Classes
 90
        0
280
     0
281
     0
  0
CLASS
  1
ACDBPLACEHOLDER
  2
AcDbPlaceHolder
  3
ObjectDBX Classes
 90
        0
280
     0
281
     0
  0
CLASS
  1
LAYOUT
  2
AcDbLayout
  3
ObjectDBX Classes
 90
        0
280
     0
281
     0
  0
ENDSEC
  0
SECTION
  2
TABLES
  0
TABLE
  2
VPORT
  5
746D
330
0
100
AcDbSymbolTable
 70
     2
  0
VPORT
  5
1ABAB
330
746D
100
AcDbSymbolTableRecord
100
AcDbViewportTableRecord
  2
*Active
 70
     0
 10
0.0
 20
0.0
 11
1.0
 21
1.0
 12
8223.761025238502
 22
6348.703162895247
 13
0.0
 23
0.0
 14
10.0
 24
10.0
 15
10.0
 25
10.0
 16
0.0
 26
0.0
 36
1.0
 17
0.0
 27
0.0
 37
0.0
 40
12805.60689082044
 41
1.525925925925925
 42
50.0
 43
0.0
 44
0.0
 50
0.0
 51
0.0
 71
     0
 72
     0
 73
     1
 74
     0
 75
     0
 76
     0
 77
     0
 78
     0
281
     0
 65
     1
110
0.0
120
0.0
130
0.0
111
1.0
121
0.0
131
0.0
112
0.0
122
1.0
132
0.0
 79
     0
146
0.0
  0
ENDTAB
  0
TABLE
  2
LTYPE
  5
746A
330
0
100
AcDbSymbolTable
 70
     4
  0
LTYPE
  5
7477
330
746A
100
AcDbSymbolTableRecord
100
AcDbLinetypeTableRecord
  2
BYBLOCK
 70
     0
  3

 72
    65
 73
     0
 40
0.0
  0
LTYPE
  5
7478
330
746A
100
AcDbSymbolTableRecord
100
AcDbLinetypeTableRecord
  2
BYLAYER
 70
     0
  3

 72
    65
 73
     0
 40
0.0
  0
LTYPE
  5
7479
330
746A
100
AcDbSymbolTableRecord
100
AcDbLinetypeTableRecord
  2
CONTINUOUS
 70
     0
  3
Solid line
 72
    65
 73
     0
 40
0.0
  0
LTYPE
  5
7816
330
746A
100
AcDbSymbolTableRecord
100
AcDbLinetypeTableRecord
  2
CENTER
 70
     0
  3
____ _ ____ _ ____ _ ____ _ ____ _ ____ _ ____ 
 72
    65
 73
     4
 40
2.0
 49
1.25
 74
     0
 49
-0.25
 74
     0
 49
0.25
 74
     0
 49
-0.25
 74
     0
  0
LTYPE
  5
781A
330
746A
100
AcDbSymbolTableRecord
100
AcDbLinetypeTableRecord
  2
HIDDEN
 70
     0
  3
__ __ __ __ __ __ __ __ __ __ __ __ __ __ __ __
 72
    65
 73
     2
 40
0.375
 49
0.25
 74
     0
 49
-0.125
 74
     0
  0
LTYPE
  5
781B
330
746A
100
AcDbSymbolTableRecord
100
AcDbLinetypeTableRecord
  2
PHANTOM
 70
     0
  3
______  __  __  ______  __  __  ______  __  __ 
 72
    65
 73
     6
 40
2.5
 49
1.25
 74
     0
 49
-0.25
 74
     0
 49
0.25
 74
     0
 49
-0.25
 74
     0
 49
0.25
 74
     0
 49
-0.25
 74
     0
  0
ENDTAB
  0
TABLE
  2
LAYER
  5
7467
102
{ACAD_XDICTIONARY
360
1922B
102
}
330
0
100
AcDbSymbolTable
 70
    12
  0
LAYER
  5
7474
330
7467
100
AcDbSymbolTableRecord
100
AcDbLayerTableRecord
  2
0
 70
     0
 62
     7
  6
CONTINUOUS
370
    -3
390
19082
  0
LAYER
  5
DEB2
330
7467
100
AcDbSymbolTableRecord
100
AcDbLayerTableRecord
  2
センター
 70
     0
 62
     3
  6
CENTER
370
    -3
390
19082
  0
LAYER
  5
DEB3
330
7467
100
AcDbSymbolTableRecord
100
AcDbLayerTableRecord
  2
寸法
 70
     0
 62
     4
  6
CONTINUOUS
370
    -3
390
19082
  0
LAYER
  5
DEB4
330
7467
100
AcDbSymbolTableRecord
100
AcDbLayerTableRecord
  2
部品1
 70
     0
 62
     7
  6
CONTINUOUS
370
    -3
390
19082
  0
LAYER
  5
DEB5
330
7467
100
AcDbSymbolTableRecord
100
AcDbLayerTableRecord
  2
補助
 70
     0
 62
    -1
  6
CONTINUOUS
370
    -3
390
19082
  0
LAYER
  5
DEB6
330
7467
100
AcDbSymbolTableRecord
100
AcDbLayerTableRecord
  2
文字
 70
     0
 62
     7
  6
CONTINUOUS
370
    -3
390
19082
  0
LAYER
  5
F255
330
7467
100
AcDbSymbolTableRecord
100
AcDbLayerTableRecord
  2
DEFPOINTS
 70
     0
 62
     7
  6
CONTINUOUS
290
     0
370
    -3
390
19082
  0
LAYER
  5
10B54
330
7467
100
AcDbSymbolTableRecord
100
AcDbLayerTableRecord
  2
仕様書枠
 70
     0
 62
   230
  6
CONTINUOUS
370
    -3
390
19082
  0
LAYER
  5
11729
330
7467
100
AcDbSymbolTableRecord
100
AcDbLayerTableRecord
  2
Ｇ．Ｌ
 70
     0
 62
    30
  6
CONTINUOUS
370
    -3
390
19082
  0
LAYER
  5
1173F
330
7467
100
AcDbSymbolTableRecord
100
AcDbLayerTableRecord
  2
細線
 70
     0
 62
     5
  6
CONTINUOUS
370
    -3
390
19082
  0
LAYER
  5
12CC4
330
7467
100
AcDbSymbolTableRecord
100
AcDbLayerTableRecord
  2
想像線
 70
     0
 62
     6
  6
PHANTOM
370
    -3
390
19082
  0
LAYER
  5
142E2
330
7467
100
AcDbSymbolTableRecord
100
AcDbLayerTableRecord
  2
破線
 70
     0
 62
     2
  6
HIDDEN
370
    -3
390
19082
  0
ENDTAB
  0
TABLE
  2
STYLE
  5
7468
330
0
100
AcDbSymbolTable
 70
     4
  0
STYLE
  5
7475
330
7468
100
AcDbSymbolTableRecord
100
AcDbTextStyleTableRecord
  2
STANDARD
 70
     0
 40
0.0
 41
1.0
 50
0.0
 71
     0
 42
4.0
  3
txt
  4
C:\AutoCAD LT\bigfont.shx
  0
STYLE
  5
F706
330
7468
100
AcDbSymbolTableRecord
100
AcDbTextStyleTableRecord
  2
STYLE1
 70
     0
 40
0.0
 41
1.0
 50
0.0
 71
     0
 42
4.0
  3
isocp.shx
  4
bigfont.shx
  0
STYLE
  5
103BF
330
7468
100
AcDbSymbolTableRecord
100
AcDbTextStyleTableRecord
  2
STYLE2
 70
     0
 40
0.0
 41
1.0
 50
0.0
 71
     0
 42
100.0
  3
MS PGothic.ttf
  4

1001
ACAD
1000
MS PGothic
1071
    32818
  0
STYLE
  5
1A49D
330
7468
100
AcDbSymbolTableRecord
100
AcDbTextStyleTableRecord
  2
STYLE3
 70
     0
 40
0.0
 41
1.0
 50
0.0
 71
     0
 42
100.0
  3

  4

1001
ACAD
1000
DFPGothic-EB
1071
    32818
  0
ENDTAB
  0
TABLE
  2
VIEW
  5
746B
330
0
100
AcDbSymbolTable
 70
     0
  0
ENDTAB
  0
TABLE
  2
UCS
  5
746C
330
0
100
AcDbSymbolTable
 70
     0
  0
ENDTAB
  0
TABLE
  2
APPID
  5
746E
330
0
100
AcDbSymbolTable
 70
     6
  0
APPID
  5
7476
330
746E
100
AcDbSymbolTableRecord
100
AcDbRegAppTableRecord
  2
ACAD
 70
     0
  0
APPID
  5
DEA9
330
746E
100
AcDbSymbolTableRecord
100
AcDbRegAppTableRecord
  2
CONTENTBLOCKICON
 70
     0
  0
APPID
  5
DEAA
330
746E
100
AcDbSymbolTableRecord
100
AcDbRegAppTableRecord
  2
CONTENTBLOCKDESCRIPTION
 70
     0
  0
APPID
  5
E71D
330
746E
100
AcDbSymbolTableRecord
100
AcDbRegAppTableRecord
  2
CONTENTTABDATA
 70
     0
  0
APPID
  5
E71E
330
746E
100
AcDbSymbolTableRecord
100
AcDbRegAppTableRecord
  2
CONTENTCURRENTTAB
 70
     0
  0
APPID
  5
F3BA
330
746E
100
AcDbSymbolTableRecord
100
AcDbRegAppTableRecord
  2
DRAWINGVARIABLESXDATA
 70
     0
  0
ENDTAB
  0
TABLE
  2
DIMSTYLE
  5
746F
330
0
100
AcDbSymbolTable
 70
     5
100
AcDbDimStyleTable
 71
     0
  0
DIMSTYLE
105
7484
330
746F
100
AcDbSymbolTableRecord
100
AcDbDimStyleTableRecord
  2
JIS
 70
     0
 41
2.5
 42
1.0
 43
7.0
 44
1.0
 73
     0
 74
     0
 77
     1
 78
     8
140
2.5
141
0.0
143
0.0394
147
0.0
172
     1
174
     1
175
     1
340
7475
  0
DIMSTYLE
105
F71F
102
{ACAD_REACTORS
330
194ED
330
195AF
330
195B4
330
195BC
330
195C1
330
195C4
330
195F9
330
195FB
330
195FC
330
19607
330
19608
330
19609
330
19664
330
19665
330
19666
330
19667
330
19668
330
19686
330
19687
330
19688
330
19689
330
1968A
330
1968B
330
19CEA
330
19CEE
330
19CFA
330
19CFB
330
19CFC
330
19D37
330
1A846
330
1A949
102
}
330
746F
100
AcDbSymbolTableRecord
100
AcDbDimStyleTableRecord
  2
INABA_S40G
 70
     0
 40
40.0
 41
2.5
 42
0.5
 43
7.0
 44
1.5
 73
     0
 74
     0
 77
     3
 78
     8
140
3.0
141
0.0
143
0.0394
147
1.0
172
     1
173
     1
174
     1
178
     7
271
     1
340
F706
341
F770
343
F770
344
F770
  0
DIMSTYLE
105
1922A
102
{ACAD_REACTORS
330
1A5A9
330
1A845
102
}
330
746F
100
AcDbSymbolTableRecord
100
AcDbDimStyleTableRecord
  2
INABA_S40
 70
     0
 40
40.0
 41
2.5
 42
0.5
 43
7.0
 44
1.5
 73
     0
 74
     0
 77
     3
 78
     8
140
3.0
141
0.0
143
0.0394
147
1.0
172
     1
173
     1
174
     1
175
     1
178
     7
340
7475
  0
DIMSTYLE
105
1A49E
330
746F
100
AcDbSymbolTableRecord
100
AcDbDimStyleTableRecord
  2
INABA_S50G
 70
     0
 41
125.0
 42
25.0
 43
7.0
 44
75.0
 73
     0
 74
     0
 77
     3
 78
     8
140
150.0
141
0.0
143
0.0394
147
25.0
172
     1
173
     1
174
     1
175
     1
178
     7
271
     1
340
F706
341
F770
343
F770
344
F770
  0
DIMSTYLE
105
1AB41
330
746F
100
AcDbSymbolTableRecord
100
AcDbDimStyleTableRecord
  2
INABA_S20G
 70
     0
 40
20.0
 41
2.5
 42
0.5
 43
7.0
 44
1.5
 73
     0
 74
     0
 77
     3
 78
     8
140
3.0
141
0.0
143
0.0394
147
1.0
172
     1
173
     1
174
     1
178
     7
271
     1
340
F706
341
F770
343
F770
344
F770
  0
ENDTAB
  0
TABLE
  2
BLOCK_RECORD
  5
7466
330
0
100
AcDbSymbolTable
 70
    35
  0
BLOCK_RECORD
  5
747D
330
7466
100
AcDbSymbolTableRecord
100
AcDbBlockTableRecord
  2
*MODEL_SPACE
340
19087
  0
BLOCK_RECORD
  5
747A
330
7466
100
AcDbSymbolTableRecord
100
AcDbBlockTableRecord
  2
*PAPER_SPACE
340
19088
  0
BLOCK_RECORD
  5
F770
330
7466
100
AcDbSymbolTableRecord
100
AcDbBlockTableRecord
  2
_DOTSMALL
340
0
102
{BLKREFS
331
1A33D
331
1A33E
331
1A346
331
1A347
331
1A351
331
1A352
331
1A35A
331
1A35B
331
1A363
331
1A364
331
1A36C
331
1A36D
331
1A38A
331
1A38B
331
1A395
331
1A396
331
1A39E
331
1A39F
331
1A3A7
331
1A3A8
331
1A3B1
331
1A3B2
331
1A3BA
331
1A3BB
331
1A3C4
331
1A3C5
331
1A3CF
331
1A3D0
331
1A3D9
331
1A3DA
331
1A3E2
331
1A3E3
331
1A3EB
331
1A3EC
331
1A45F
331
1A460
331
1A468
331
1A469
331
1AAB3
331
1AAB4
331
1AABC
331
1AABD
331
1AAD9
331
1AADA
331
1AAE4
331
1AAE5
331
1AAEF
331
1AAF0
331
1AAFA
331
1AAFB
331
1AB03
331
1AB04
331
1AB0C
331
1AB0D
331
1AB15
331
1AB16
331
1AB1E
331
1AB1F
331
1AB27
331
1AB28
331
1AB32
331
1AB33
102
}
  0
BLOCK_RECORD
  5
1908F
330
7466
100
AcDbSymbolTableRecord
100
AcDbBlockTableRecord
  2
_DOT
340
0
102
{BLKREFS
331
1AAC7
331
1AAC8
331
1AAD0
331
1AAD1
102
}
  0
BLOCK_RECORD
  5
197A9
330
7466
100
AcDbSymbolTableRecord
100
AcDbBlockTableRecord
  2
*D2
340
0
  0
BLOCK_RECORD
  5
19801
330
7466
100
AcDbSymbolTableRecord
100
AcDbBlockTableRecord
  2
*D3
340
0
  0
BLOCK_RECORD
  5
1980D
330
7466
100
AcDbSymbolTableRecord
100
AcDbBlockTableRecord
  2
*D4
340
0
  0
BLOCK_RECORD
  5
1981B
330
7466
100
AcDbSymbolTableRecord
100
AcDbBlockTableRecord
  2
*D5
340
0
  0
BLOCK_RECORD
  5
19833
330
7466
100
AcDbSymbolTableRecord
100
AcDbBlockTableRecord
  2
*D6
340
0
  0
BLOCK_RECORD
  5
1983F
330
7466
100
AcDbSymbolTableRecord
100
AcDbBlockTableRecord
  2
*D7
340
0
  0
BLOCK_RECORD
  5
1984B
330
7466
100
AcDbSymbolTableRecord
100
AcDbBlockTableRecord
  2
*D8
340
0
  0
BLOCK_RECORD
  5
19857
330
7466
100
AcDbSymbolTableRecord
100
AcDbBlockTableRecord
  2
*D9
340
0
  0
BLOCK_RECORD
  5
19863
330
7466
100
AcDbSymbolTableRecord
100
AcDbBlockTableRecord
  2
*D10
340
0
  0
BLOCK_RECORD
  5
19871
330
7466
100
AcDbSymbolTableRecord
100
AcDbBlockTableRecord
  2
*D11
340
0
  0
BLOCK_RECORD
  5
1987F
330
7466
100
AcDbSymbolTableRecord
100
AcDbBlockTableRecord
  2
*D12
340
0
  0
BLOCK_RECORD
  5
1988D
330
7466
100
AcDbSymbolTableRecord
100
AcDbBlockTableRecord
  2
*D13
340
0
  0
BLOCK_RECORD
  5
19899
330
7466
100
AcDbSymbolTableRecord
100
AcDbBlockTableRecord
  2
*D14
340
0
  0
BLOCK_RECORD
  5
198A5
330
7466
100
AcDbSymbolTableRecord
100
AcDbBlockTableRecord
  2
*D15
340
0
  0
BLOCK_RECORD
  5
198B1
330
7466
100
AcDbSymbolTableRecord
100
AcDbBlockTableRecord
  2
*D16
340
0
  0
BLOCK_RECORD
  5
198BE
330
7466
100
AcDbSymbolTableRecord
100
AcDbBlockTableRecord
  2
*D17
340
0
  0
BLOCK_RECORD
  5
198CC
330
7466
100
AcDbSymbolTableRecord
100
AcDbBlockTableRecord
  2
*D18
340
0
  0
BLOCK_RECORD
  5
198D9
330
7466
100
AcDbSymbolTableRecord
100
AcDbBlockTableRecord
  2
*D19
340
0
  0
BLOCK_RECORD
  5
198E5
330
7466
100
AcDbSymbolTableRecord
100
AcDbBlockTableRecord
  2
*D20
340
0
  0
BLOCK_RECORD
  5
198F2
330
7466
100
AcDbSymbolTableRecord
100
AcDbBlockTableRecord
  2
*D21
340
0
  0
BLOCK_RECORD
  5
198FE
330
7466
100
AcDbSymbolTableRecord
100
AcDbBlockTableRecord
  2
*D22
340
0
  0
BLOCK_RECORD
  5
1990A
330
7466
100
AcDbSymbolTableRecord
100
AcDbBlockTableRecord
  2
*D23
340
0
  0
BLOCK_RECORD
  5
19918
330
7466
100
AcDbSymbolTableRecord
100
AcDbBlockTableRecord
  2
*D24
340
0
  0
BLOCK_RECORD
  5
19DEF
330
7466
100
AcDbSymbolTableRecord
100
AcDbBlockTableRecord
  2
*D25
340
0
  0
BLOCK_RECORD
  5
19DFB
330
7466
100
AcDbSymbolTableRecord
100
AcDbBlockTableRecord
  2
*D26
340
0
  0
BLOCK_RECORD
  5
19E07
330
7466
100
AcDbSymbolTableRecord
100
AcDbBlockTableRecord
  2
*D27
340
0
  0
BLOCK_RECORD
  5
19E13
330
7466
100
AcDbSymbolTableRecord
100
AcDbBlockTableRecord
  2
*D28
340
0
  0
BLOCK_RECORD
  5
19E21
330
7466
100
AcDbSymbolTableRecord
100
AcDbBlockTableRecord
  2
*D29
340
0
  0
BLOCK_RECORD
  5
19E2D
330
7466
100
AcDbSymbolTableRecord
100
AcDbBlockTableRecord
  2
*D30
340
0
  0
BLOCK_RECORD
  5
1A614
330
7466
100
AcDbSymbolTableRecord
100
AcDbBlockTableRecord
  2
*D31
340
0
  0
BLOCK_RECORD
  5
1A959
330
7466
100
AcDbSymbolTableRecord
100
AcDbBlockTableRecord
  2
*D32
340
0
  0
BLOCK_RECORD
  5
1A967
330
7466
100
AcDbSymbolTableRecord
100
AcDbBlockTableRecord
  2
*D33
340
0
  0
BLOCK_RECORD
  5
1A9E5
330
7466
100
AcDbSymbolTableRecord
100
AcDbBlockTableRecord
  2
*D34
340
0
  0
ENDTAB
  0
ENDSEC
  0
SECTION
  2
BLOCKS
  0
BLOCK
  5
7489
330
747D
100
AcDbEntity
  8
0
100
AcDbBlockBegin
  2
*MODEL_SPACE
 70
     0
 10
0.0
 20
0.0
 30
0.0
  3
*MODEL_SPACE
  1

  0
ENDBLK
  5
748A
330
747D
100
AcDbEntity
  8
0
100
AcDbBlockEnd
  0
BLOCK
  5
7487
330
747A
100
AcDbEntity
 67
     1
  8
0
100
AcDbBlockBegin
  2
*PAPER_SPACE
 70
     0
 10
0.0
 20
0.0
 30
0.0
  3
*PAPER_SPACE
  1

  0
ENDBLK
  5
7488
330
747A
100
AcDbEntity
 67
     1
  8
0
100
AcDbBlockEnd
  0
BLOCK
  5
F771
330
F770
100
AcDbEntity
  8
0
 48
50.0
100
AcDbBlockBegin
  2
_DOTSMALL
 70
     0
 10
0.0
 20
0.0
 30
0.0
  3
_DOTSMALL
  1

  0
LWPOLYLINE
  5
F772
330
F770
100
AcDbEntity
  8
0
  6
ByBlock
 62
     0
 48
50.0
100
AcDbPolyline
 90
        2
 70
     1
 43
0.5
 10
-0.0625
 20
0.0
 42
1.0
 10
0.0625
 20
0.0
 42
1.0
  0
ENDBLK
  5
F776
330
F770
100
AcDbEntity
  8
0
 48
50.0
100
AcDbBlockEnd
  0
BLOCK
  5
19090
330
1908F
100
AcDbEntity
  8
0
 48
50.0
100
AcDbBlockBegin
  2
_DOT
 70
     0
 10
0.0
 20
0.0
 30
0.0
  3
_DOT
  1

  0
LWPOLYLINE
  5
19091
330
1908F
100
AcDbEntity
  8
0
  6
ByBlock
 62
     0
 48
50.0
100
AcDbPolyline
 90
        2
 70
     1
 43
0.5
 10
-0.25
 20
0.0
 42
1.0
 10
0.25
 20
0.0
 42
1.0
  0
LINE
  5
19092
330
1908F
100
AcDbEntity
  8
0
  6
ByBlock
 62
     0
 48
50.0
100
AcDbLine
 10
-0.5
 20
0.0
 30
0.0
 11
-1.0
 21
0.0
 31
0.0
  0
ENDBLK
  5
19093
330
1908F
100
AcDbEntity
  8
0
 48
50.0
100
AcDbBlockEnd
  0
BLOCK
  5
197B3
330
197A9
100
AcDbEntity
  8
0
 48
50.0
100
AcDbBlockBegin
  2
*D2
 70
     1
 10
0.0
 20
0.0
 30
0.0
  3
*D2
  1

  0
LINE
  5
1A465
330
197A9
100
AcDbEntity
  8
寸法
 62
     0
 48
50.0
370
    -2
100
AcDbLine
 10
8611.977651852297
 20
1817.505395881099
 30
0.0
 11
8611.977651852297
 21
1491.458066580721
 31
0.0
  0
LINE
  5
1A466
330
197A9
100
AcDbEntity
  8
寸法
 62
     0
 48
50.0
370
    -2
100
AcDbLine
 10
8411.977651852295
 20
1817.505395881099
 30
0.0
 11
8411.977651852295
 21
1491.458066580721
 31
0.0
  0
LINE
  5
1A467
330
197A9
100
AcDbEntity
  8
寸法
 62
     0
 48
50.0
370
    -2
100
AcDbLine
 10
8611.977651852297
 20
1551.45806658072
 30
0.0
 11
8411.977651852295
 21
1551.45806658072
 31
0.0
  0
INSERT
  5
1A468
330
197A9
100
AcDbEntity
  8
寸法
 62
     0
 48
50.0
370
    -2
100
AcDbBlockReference
  2
_DOTSMALL
 10
8611.977651852297
 20
1551.45806658072
 30
0.0
 41
100.0
 42
100.0
 43
100.0
  0
INSERT
  5
1A469
330
197A9
100
AcDbEntity
  8
寸法
 62
     0
 48
50.0
370
    -2
100
AcDbBlockReference
  2
_DOTSMALL
 10
8411.977651852295
 20
1551.45806658072
 30
0.0
 41
100.0
 42
100.0
 43
100.0
 50
180.0
  0
MTEXT
  5
1A46A
330
197A9
100
AcDbEntity
  8
寸法
 62
     7
 48
50.0
100
AcDbMText
 10
8511.977651852296
 20
1651.469877604343
 30
0.0
 40
120.0
 41
0.0
 71
     5
 72
     1
  1
\A1;200
  7
STYLE1
 73
     1
 44
1.0
1001
ACAD
1000
MTEXTBEGIN
1070
    73
1070
     1
1070
    44
1040
1.0
1070
    74
1070
     0
1000
MTEXTEND
  0
POINT
  5
1A46B
330
197A9
100
AcDbEntity
  8
DEFPOINTS
 62
     0
 48
50.0
100
AcDbPoint
 10
8611.977651852297
 20
1837.505395881098
 30
0.0
  0
POINT
  5
1A46C
330
197A9
100
AcDbEntity
  8
DEFPOINTS
 62
     0
 48
50.0
100
AcDbPoint
 10
8411.977651852295
 20
1837.505395881098
 30
0.0
  0
POINT
  5
1A46D
330
197A9
100
AcDbEntity
  8
DEFPOINTS
 62
     0
 48
50.0
100
AcDbPoint
 10
8411.977651852295
 20
1551.45806658072
 30
0.0
  0
ENDBLK
  5
197B4
330
197A9
100
AcDbEntity
  8
0
 48
50.0
100
AcDbBlockEnd
  0
BLOCK
  5
1980B
330
19801
100
AcDbEntity
  8
0
 48
50.0
100
AcDbBlockBegin
  2
*D3
 70
     1
 10
0.0
 20
0.0
 30
0.0
  3
*D3
  1

  0
LINE
  5
1A45C
330
19801
100
AcDbEntity
  8
寸法
 62
     0
 48
50.0
370
    -2
100
AcDbLine
 10
11581.97765185229
 20
2137.505395881099
 30
0.0
 11
12313.19123083836
 21
2137.505395881099
 31
0.0
  0
LINE
  5
1A45D
330
19801
100
AcDbEntity
  8
寸法
 62
     0
 48
50.0
370
    -2
100
AcDbLine
 10
11661.9776518523
 20
4157.505395881099
 30
0.0
 11
12313.19123083836
 21
4157.505395881099
 31
0.0
  0
LINE
  5
1A45E
330
19801
100
AcDbEntity
  8
寸法
 62
     0
 48
50.0
370
    -2
100
AcDbLine
 10
12253.19123083836
 20
2137.505395881099
 30
0.0
 11
12253.19123083836
 21
4157.505395881099
 31
0.0
  0
INSERT
  5
1A45F
330
19801
100
AcDbEntity
  8
寸法
 62
     0
 48
50.0
370
    -2
100
AcDbBlockReference
  2
_DOTSMALL
 10
12253.19123083836
 20
2137.505395881099
 30
0.0
 41
100.0
 42
100.0
 43
100.0
 50
270.0
  0
INSERT
  5
1A460
330
19801
100
AcDbEntity
  8
寸法
 62
     0
 48
50.0
370
    -2
100
AcDbBlockReference
  2
_DOTSMALL
 10
12253.19123083836
 20
4157.505395881099
 30
0.0
 41
100.0
 42
100.0
 43
100.0
 50
90.0
  0
MTEXT
  5
1A461
330
19801
100
AcDbEntity
  8
寸法
 62
     7
 48
50.0
100
AcDbMText
 10
12153.17941981474
 20
3147.505395881101
 30
0.0
 40
120.0
 41
0.0
 71
     5
 72
     1
  1
\A1;2020
  7
STYLE1
 11
0.0000000000000001
 21
1.0
 31
0.0
 73
     1
 44
1.0
1001
ACAD
1000
MTEXTBEGIN
1070
    73
1070
     1
1070
    44
1040
1.0
1070
    74
1070
     0
1000
MTEXTEND
  0
POINT
  5
1A462
330
19801
100
AcDbEntity
  8
DEFPOINTS
 62
     0
 48
50.0
100
AcDbPoint
 10
11561.97765185229
 20
2137.505395881099
 30
0.0
  0
POINT
  5
1A463
330
19801
100
AcDbEntity
  8
DEFPOINTS
 62
     0
 48
50.0
100
AcDbPoint
 10
11641.9776518523
 20
4157.505395881099
 30
0.0
  0
POINT
  5
1A464
330
19801
100
AcDbEntity
  8
DEFPOINTS
 62
     0
 48
50.0
100
AcDbPoint
 10
12253.19123083836
 20
4157.505395881099
 30
0.0
  0
ENDBLK
  5
1980C
330
19801
100
AcDbEntity
  8
0
 48
50.0
100
AcDbBlockEnd
  0
BLOCK
  5
19819
330
1980D
100
AcDbEntity
  8
0
 48
50.0
100
AcDbBlockBegin
  2
*D4
 70
     1
 10
0.0
 20
0.0
 30
0.0
  3
*D4
  1

  0
LINE
  5
1AB2D
330
1980D
100
AcDbEntity
  8
寸法
 62
     0
 48
50.0
370
    -2
100
AcDbLine
 10
8511.977651852255
 20
9510.478983118463
 30
0.0
 11
8511.977651852255
 21
9850.478983118463
 31
0.0
  0
LINE
  5
1AB2E
330
1980D
100
AcDbEntity
  8
寸法
 62
     0
 48
50.0
370
    -2
100
AcDbLine
 10
8566.977651852289
 20
9510.478983118463
 30
0.0
 11
8566.977651852289
 21
9850.478983118463
 31
0.0
  0
LINE
  5
1AB2F
330
1980D
100
AcDbEntity
  8
寸法
 62
     0
 48
50.0
370
    -2
100
AcDbLine
 10
8566.977651852289
 20
9790.478983118463
 30
0.0
 11
8666.977651852288
 21
9790.478983118463
 31
0.0
  0
LINE
  5
1AB30
330
1980D
100
AcDbEntity
  8
寸法
 62
     0
 48
50.0
370
    -2
100
AcDbLine
 10
8511.977651852255
 20
9790.478983118463
 30
0.0
 11
8095.007089103777
 21
9790.478983118463
 31
0.0
  0
LINE
  5
1AB31
330
1980D
100
AcDbEntity
  8
寸法
 62
     0
 48
50.0
370
    -2
100
AcDbLine
 10
8566.977651852289
 20
9790.478983118463
 30
0.0
 11
8511.977651852255
 21
9790.478983118463
 31
0.0
  0
INSERT
  5
1AB32
330
1980D
100
AcDbEntity
  8
寸法
 62
     0
 48
50.0
370
    -2
100
AcDbBlockReference
  2
_DOTSMALL
 10
8566.977651852289
 20
9790.478983118463
 30
0.0
 41
100.0
 42
100.0
 43
100.0
 50
180.0
  0
INSERT
  5
1AB33
330
1980D
100
AcDbEntity
  8
寸法
 62
     0
 48
50.0
370
    -2
100
AcDbBlockReference
  2
_DOTSMALL
 10
8511.977651852255
 20
9790.478983118463
 30
0.0
 41
100.0
 42
100.0
 43
100.0
  0
MTEXT
  5
1AB34
330
1980D
100
AcDbEntity
  8
寸法
 62
     7
 48
50.0
100
AcDbMText
 10
8203.492370478015
 20
9890.478983118462
 30
0.0
 40
120.0
 41
0.0
 71
     5
 72
     1
  1
\A1;55
  7
STYLE1
 73
     1
 44
1.0
1001
ACAD
1000
MTEXTBEGIN
1070
    73
1070
     1
1070
    44
1040
1.0
1070
    74
1070
     0
1000
MTEXTEND
  0
POINT
  5
1AB35
330
1980D
100
AcDbEntity
  8
DEFPOINTS
 62
     0
 48
50.0
100
AcDbPoint
 10
8511.977651852255
 20
9490.478983118462
 30
0.0
  0
POINT
  5
1AB36
330
1980D
100
AcDbEntity
  8
DEFPOINTS
 62
     0
 48
50.0
100
AcDbPoint
 10
8566.977651852289
 20
9490.478983118462
 30
0.0
  0
POINT
  5
1AB37
330
1980D
100
AcDbEntity
  8
DEFPOINTS
 62
     0
 48
50.0
100
AcDbPoint
 10
8566.977651852289
 20
9790.478983118463
 30
0.0
  0
ENDBLK
  5
1981A
330
1980D
100
AcDbEntity
  8
0
 48
50.0
100
AcDbBlockEnd
  0
BLOCK
  5
19825
330
1981B
100
AcDbEntity
  8
0
 48
50.0
100
AcDbBlockBegin
  2
*D5
 70
     1
 10
0.0
 20
0.0
 30
0.0
  3
*D5
  1

  0
LINE
  5
1AB24
330
1981B
100
AcDbEntity
  8
寸法
 62
     0
 48
50.0
370
    -2
100
AcDbLine
 10
10045.11866800366
 20
8990.478983118633
 30
0.0
 11
9943.44879939967
 21
8611.041867889694
 31
0.0
  0
LINE
  5
1AB25
330
1981B
100
AcDbEntity
  8
寸法
 62
     0
 48
50.0
370
    -2
100
AcDbLine
 10
11528.11866800367
 20
8990.478983118626
 30
0.0
 11
11426.44879939968
 21
8611.041867889694
 31
0.0
  0
LINE
  5
1AB26
330
1981B
100
AcDbEntity
  8
寸法
 62
     0
 48
50.0
370
    -2
100
AcDbLine
 10
9959.525750945537
 20
8671.041867889696
 30
0.0
 11
11442.52575094555
 21
8671.041867889696
 31
0.0
  0
INSERT
  5
1AB27
330
1981B
100
AcDbEntity
  8
寸法
 62
     0
 48
50.0
370
    -2
100
AcDbBlockReference
  2
_DOTSMALL
 10
9959.525750945537
 20
8671.041867889696
 30
0.0
 41
100.0
 42
100.0
 43
100.0
 50
180.0
  0
INSERT
  5
1AB28
330
1981B
100
AcDbEntity
  8
寸法
 62
     0
 48
50.0
370
    -2
100
AcDbBlockReference
  2
_DOTSMALL
 10
11442.52575094555
 20
8671.041867889696
 30
0.0
 41
100.0
 42
100.0
 43
100.0
  0
MTEXT
  5
1AB29
330
1981B
100
AcDbEntity
  8
寸法
 62
     7
 48
50.0
100
AcDbMText
 10
10549.20040736504
 20
8771.041867889696
 30
0.0
 40
120.0
 41
0.0
 71
     5
 72
     1
  1
\A1;1483
  7
STYLE1
 73
     1
 44
1.0
1001
ACAD
1000
MTEXTBEGIN
1070
    73
1070
     1
1070
    44
1040
1.0
1070
    74
1070
     0
1000
MTEXTEND
  0
POINT
  5
1AB2A
330
1981B
100
AcDbEntity
  8
DEFPOINTS
 62
     0
 48
50.0
100
AcDbPoint
 10
10050.47765185228
 20
9010.478983118634
 30
0.0
  0
POINT
  5
1AB2B
330
1981B
100
AcDbEntity
  8
DEFPOINTS
 62
     0
 48
50.0
100
AcDbPoint
 10
11533.47765185229
 20
9010.478983118627
 30
0.0
  0
POINT
  5
1AB2C
330
1981B
100
AcDbEntity
  8
DEFPOINTS
 62
     0
 48
50.0
100
AcDbPoint
 10
11442.52575094555
 20
8671.041867889696
 30
0.0
  0
ENDBLK
  5
19826
330
1981B
100
AcDbEntity
  8
0
 48
50.0
100
AcDbBlockEnd
  0
BLOCK
  5
1983D
330
19833
100
AcDbEntity
  8
0
 48
50.0
100
AcDbBlockBegin
  2
*D6
 70
     1
 10
0.0
 20
0.0
 30
0.0
  3
*D6
  1

  0
LINE
  5
1AB1B
330
19833
100
AcDbEntity
  8
寸法
 62
     0
 48
50.0
370
    -2
100
AcDbLine
 10
8566.977651852289
 20
9510.478983118463
 30
0.0
 11
8566.977651852289
 21
9850.478983118511
 31
0.0
  0
LINE
  5
1AB1C
330
19833
100
AcDbEntity
  8
寸法
 62
     0
 48
50.0
370
    -2
100
AcDbLine
 10
11506.97765185229
 20
9510.478983118558
 30
0.0
 11
11506.97765185229
 21
9850.478983118511
 31
0.0
  0
LINE
  5
1AB1D
330
19833
100
AcDbEntity
  8
寸法
 62
     0
 48
50.0
370
    -2
100
AcDbLine
 10
8566.977651852289
 20
9790.478983118511
 30
0.0
 11
11506.97765185229
 21
9790.478983118511
 31
0.0
  0
INSERT
  5
1AB1E
330
19833
100
AcDbEntity
  8
寸法
 62
     0
 48
50.0
370
    -2
100
AcDbBlockReference
  2
_DOTSMALL
 10
8566.977651852289
 20
9790.478983118511
 30
0.0
 41
100.0
 42
100.0
 43
100.0
 50
180.0
  0
INSERT
  5
1AB1F
330
19833
100
AcDbEntity
  8
寸法
 62
     0
 48
50.0
370
    -2
100
AcDbBlockReference
  2
_DOTSMALL
 10
11506.97765185229
 20
9790.478983118511
 30
0.0
 41
100.0
 42
100.0
 43
100.0
  0
MTEXT
  5
1AB20
330
19833
100
AcDbEntity
  8
寸法
 62
     7
 48
50.0
100
AcDbMText
 10
10036.97765185229
 20
9890.490794142131
 30
0.0
 40
120.0
 41
0.0
 71
     5
 72
     1
  1
\A1;7X420=2940
  7
STYLE1
 73
     1
 44
1.0
1001
ACAD
1000
MTEXTBEGIN
1070
    73
1070
     1
1070
    44
1040
1.0
1070
    74
1070
     0
1000
MTEXTEND
  0
POINT
  5
1AB21
330
19833
100
AcDbEntity
  8
DEFPOINTS
 62
     0
 48
50.0
100
AcDbPoint
 10
8566.977651852289
 20
9490.478983118462
 30
0.0
  0
POINT
  5
1AB22
330
19833
100
AcDbEntity
  8
DEFPOINTS
 62
     0
 48
50.0
100
AcDbPoint
 10
11506.97765185229
 20
9490.478983118556
 30
0.0
  0
POINT
  5
1AB23
330
19833
100
AcDbEntity
  8
DEFPOINTS
 62
     0
 48
50.0
100
AcDbPoint
 10
11506.97765185229
 20
9790.478983118511
 30
0.0
  0
ENDBLK
  5
1983E
330
19833
100
AcDbEntity
  8
0
 48
50.0
100
AcDbBlockEnd
  0
BLOCK
  5
19849
330
1983F
100
AcDbEntity
  8
0
 48
50.0
100
AcDbBlockBegin
  2
*D7
 70
     1
 10
0.0
 20
0.0
 30
0.0
  3
*D7
  1

  0
LINE
  5
1AB12
330
1983F
100
AcDbEntity
  8
寸法
 62
     0
 48
50.0
370
    -2
100
AcDbLine
 10
8535.118668003589
 20
8990.478983118576
 30
0.0
 11
8433.448799399615
 21
8611.041867889694
 31
0.0
  0
LINE
  5
1AB13
330
1983F
100
AcDbEntity
  8
寸法
 62
     0
 48
50.0
370
    -2
100
AcDbLine
 10
10018.11866800366
 20
8990.478983118569
 30
0.0
 11
9916.448799399688
 21
8611.041867889694
 31
0.0
  0
LINE
  5
1AB14
330
1983F
100
AcDbEntity
  8
寸法
 62
     0
 48
50.0
370
    -2
100
AcDbLine
 10
8449.525750945483
 20
8671.041867889696
 30
0.0
 11
9932.525750945558
 21
8671.041867889696
 31
0.0
  0
INSERT
  5
1AB15
330
1983F
100
AcDbEntity
  8
寸法
 62
     0
 48
50.0
370
    -2
100
AcDbBlockReference
  2
_DOTSMALL
 10
8449.525750945483
 20
8671.041867889696
 30
0.0
 41
100.0
 42
100.0
 43
100.0
 50
180.0
  0
INSERT
  5
1AB16
330
1983F
100
AcDbEntity
  8
寸法
 62
     0
 48
50.0
370
    -2
100
AcDbBlockReference
  2
_DOTSMALL
 10
9932.525750945558
 20
8671.041867889696
 30
0.0
 41
100.0
 42
100.0
 43
100.0
  0
MTEXT
  5
1AB17
330
1983F
100
AcDbEntity
  8
寸法
 62
     7
 48
50.0
100
AcDbMText
 10
9098.218143239767
 20
8771.041867889696
 30
0.0
 40
120.0
 41
0.0
 71
     5
 72
     1
  1
\A1;1483
  7
STYLE1
 73
     1
 44
1.0
1001
ACAD
1000
MTEXTBEGIN
1070
    73
1070
     1
1070
    44
1040
1.0
1070
    74
1070
     0
1000
MTEXTEND
  0
POINT
  5
1AB18
330
1983F
100
AcDbEntity
  8
DEFPOINTS
 62
     0
 48
50.0
100
AcDbPoint
 10
8540.477651852212
 20
9010.478983118575
 30
0.0
  0
POINT
  5
1AB19
330
1983F
100
AcDbEntity
  8
DEFPOINTS
 62
     0
 48
50.0
100
AcDbPoint
 10
10023.47765185228
 20
9010.478983118568
 30
0.0
  0
POINT
  5
1AB1A
330
1983F
100
AcDbEntity
  8
DEFPOINTS
 62
     0
 48
50.0
100
AcDbPoint
 10
9932.525750945558
 20
8671.041867889696
 30
0.0
  0
ENDBLK
  5
1984A
330
1983F
100
AcDbEntity
  8
0
 48
50.0
100
AcDbBlockEnd
  0
BLOCK
  5
19855
330
1984B
100
AcDbEntity
  8
0
 48
50.0
100
AcDbBlockBegin
  2
*D8
 70
     1
 10
0.0
 20
0.0
 30
0.0
  3
*D8
  1

  0
LINE
  5
1AB09
330
1984B
100
AcDbEntity
  8
寸法
 62
     0
 48
50.0
370
    -2
100
AcDbLine
 10
11581.97765185229
 20
9435.478983118562
 30
0.0
 11
12321.97765185228
 21
9435.478983118558
 31
0.0
  0
LINE
  5
1AB0A
330
1984B
100
AcDbEntity
  8
寸法
 62
     0
 48
50.0
370
    -2
100
AcDbLine
 10
11581.97765185226
 20
7335.478983118547
 30
0.0
 11
12321.97765185228
 21
7335.478983118547
 31
0.0
  0
LINE
  5
1AB0B
330
1984B
100
AcDbEntity
  8
寸法
 62
     0
 48
50.0
370
    -2
100
AcDbLine
 10
12261.97765185228
 20
9435.478983118562
 30
0.0
 11
12261.97765185228
 21
7335.478983118547
 31
0.0
  0
INSERT
  5
1AB0C
330
1984B
100
AcDbEntity
  8
寸法
 62
     0
 48
50.0
370
    -2
100
AcDbBlockReference
  2
_DOTSMALL
 10
12261.97765185228
 20
9435.478983118562
 30
0.0
 41
100.0
 42
100.0
 43
100.0
 50
90.0
  0
INSERT
  5
1AB0D
330
1984B
100
AcDbEntity
  8
寸法
 62
     0
 48
50.0
370
    -2
100
AcDbBlockReference
  2
_DOTSMALL
 10
12261.97765185228
 20
7335.478983118547
 30
0.0
 41
100.0
 42
100.0
 43
100.0
 50
270.0
  0
MTEXT
  5
1AB0E
330
1984B
100
AcDbEntity
  8
寸法
 62
     7
 48
50.0
100
AcDbMText
 10
12161.96584082866
 20
8385.478983118554
 30
0.0
 40
120.0
 41
0.0
 71
     5
 72
     1
  1
\A1;5X420=2100
  7
STYLE1
 11
0.0000000000000001
 21
1.0
 31
0.0
 73
     1
 44
1.0
1001
ACAD
1000
MTEXTBEGIN
1070
    73
1070
     1
1070
    44
1040
1.0
1070
    74
1070
     0
1000
MTEXTEND
  0
POINT
  5
1AB0F
330
1984B
100
AcDbEntity
  8
DEFPOINTS
 62
     0
 48
50.0
100
AcDbPoint
 10
11561.97765185229
 20
9435.478983118562
 30
0.0
  0
POINT
  5
1AB10
330
1984B
100
AcDbEntity
  8
DEFPOINTS
 62
     0
 48
50.0
100
AcDbPoint
 10
11561.97765185226
 20
7335.478983118547
 30
0.0
  0
POINT
  5
1AB11
330
1984B
100
AcDbEntity
  8
DEFPOINTS
 62
     0
 48
50.0
100
AcDbPoint
 10
12261.97765185228
 20
7335.478983118547
 30
0.0
  0
ENDBLK
  5
19856
330
1984B
100
AcDbEntity
  8
0
 48
50.0
100
AcDbBlockEnd
  0
BLOCK
  5
19861
330
19857
100
AcDbEntity
  8
0
 48
50.0
100
AcDbBlockBegin
  2
*D9
 70
     1
 10
0.0
 20
0.0
 30
0.0
  3
*D9
  1

  0
LINE
  5
1AB00
330
19857
100
AcDbEntity
  8
寸法
 62
     0
 48
50.0
370
    -2
100
AcDbLine
 10
11581.97765185229
 20
9490.478983118556
 30
0.0
 11
12621.97765185228
 21
9490.478983118554
 31
0.0
  0
LINE
  5
1AB01
330
19857
100
AcDbEntity
  8
寸法
 62
     0
 48
50.0
370
    -2
100
AcDbLine
 10
11581.97765185226
 20
7280.47898311855
 30
0.0
 11
12621.97765185228
 21
7280.47898311855
 31
0.0
  0
LINE
  5
1AB02
330
19857
100
AcDbEntity
  8
寸法
 62
     0
 48
50.0
370
    -2
100
AcDbLine
 10
12561.97765185228
 20
9490.478983118554
 30
0.0
 11
12561.97765185228
 21
7280.47898311855
 31
0.0
  0
INSERT
  5
1AB03
330
19857
100
AcDbEntity
  8
寸法
 62
     0
 48
50.0
370
    -2
100
AcDbBlockReference
  2
_DOTSMALL
 10
12561.97765185228
 20
9490.478983118554
 30
0.0
 41
100.0
 42
100.0
 43
100.0
 50
90.0
  0
INSERT
  5
1AB04
330
19857
100
AcDbEntity
  8
寸法
 62
     0
 48
50.0
370
    -2
100
AcDbBlockReference
  2
_DOTSMALL
 10
12561.97765185228
 20
7280.47898311855
 30
0.0
 41
100.0
 42
100.0
 43
100.0
 50
270.0
  0
MTEXT
  5
1AB05
330
19857
100
AcDbEntity
  8
寸法
 62
     7
 48
50.0
100
AcDbMText
 10
12461.96584082866
 20
8385.478983118554
 30
0.0
 40
120.0
 41
0.0
 71
     5
 72
     1
  1
\A1;2210
  7
STYLE1
 11
0.0000000000000001
 21
1.0
 31
0.0
 73
     1
 44
1.0
1001
ACAD
1000
MTEXTBEGIN
1070
    73
1070
     1
1070
    44
1040
1.0
1070
    74
1070
     0
1000
MTEXTEND
  0
POINT
  5
1AB06
330
19857
100
AcDbEntity
  8
DEFPOINTS
 62
     0
 48
50.0
100
AcDbPoint
 10
11561.97765185229
 20
9490.478983118556
 30
0.0
  0
POINT
  5
1AB07
330
19857
100
AcDbEntity
  8
DEFPOINTS
 62
     0
 48
50.0
100
AcDbPoint
 10
11561.97765185226
 20
7280.47898311855
 30
0.0
  0
POINT
  5
1AB08
330
19857
100
AcDbEntity
  8
DEFPOINTS
 62
     0
 48
50.0
100
AcDbPoint
 10
12561.97765185228
 20
7280.47898311855
 30
0.0
  0
ENDBLK
  5
19862
330
19857
100
AcDbEntity
  8
0
 48
50.0
100
AcDbBlockEnd
  0
BLOCK
  5
1986F
330
19863
100
AcDbEntity
  8
0
 48
50.0
100
AcDbBlockBegin
  2
*D10
 70
     1
 10
0.0
 20
0.0
 30
0.0
  3
*D10
  1

  0
LINE
  5
1AAF5
330
19863
100
AcDbEntity
  8
寸法
 62
     0
 48
50.0
370
    -2
100
AcDbLine
 10
11581.97765185226
 20
7335.478983118547
 30
0.0
 11
12321.97765185226
 21
7335.478983118547
 31
0.0
  0
LINE
  5
1AAF6
330
19863
100
AcDbEntity
  8
寸法
 62
     0
 48
50.0
370
    -2
100
AcDbLine
 10
11581.97765185226
 20
7280.47898311855
 30
0.0
 11
12321.97765185226
 21
7280.47898311855
 31
0.0
  0
LINE
  5
1AAF7
330
19863
100
AcDbEntity
  8
寸法
 62
     0
 48
50.0
370
    -2
100
AcDbLine
 10
12261.97765185226
 20
7335.478983118547
 30
0.0
 11
12261.97765185226
 21
7435.478983118547
 31
0.0
  0
LINE
  5
1AAF8
330
19863
100
AcDbEntity
  8
寸法
 62
     0
 48
50.0
370
    -2
100
AcDbLine
 10
12261.97765185226
 20
7280.47898311855
 30
0.0
 11
12261.97765185226
 21
6863.508420370068
 31
0.0
  0
LINE
  5
1AAF9
330
19863
100
AcDbEntity
  8
寸法
 62
     0
 48
50.0
370
    -2
100
AcDbLine
 10
12261.97765185226
 20
7335.478983118547
 30
0.0
 11
12261.97765185226
 21
7280.47898311855
 31
0.0
  0
INSERT
  5
1AAFA
330
19863
100
AcDbEntity
  8
寸法
 62
     0
 48
50.0
370
    -2
100
AcDbBlockReference
  2
_DOTSMALL
 10
12261.97765185226
 20
7335.478983118547
 30
0.0
 41
100.0
 42
100.0
 43
100.0
 50
270.0
  0
INSERT
  5
1AAFB
330
19863
100
AcDbEntity
  8
寸法
 62
     0
 48
50.0
370
    -2
100
AcDbBlockReference
  2
_DOTSMALL
 10
12261.97765185226
 20
7280.47898311855
 30
0.0
 41
100.0
 42
100.0
 43
100.0
 50
90.0
  0
MTEXT
  5
1AAFC
330
19863
100
AcDbEntity
  8
寸法
 62
     7
 48
50.0
100
AcDbMText
 10
12161.97765185226
 20
6971.99370174431
 30
0.0
 40
120.0
 41
0.0
 71
     5
 72
     1
  1
\A1;55
  7
STYLE1
 11
0.0000000000000001
 21
1.0
 31
0.0
 73
     1
 44
1.0
1001
ACAD
1000
MTEXTBEGIN
1070
    73
1070
     1
1070
    44
1040
1.0
1070
    74
1070
     0
1000
MTEXTEND
  0
POINT
  5
1AAFD
330
19863
100
AcDbEntity
  8
DEFPOINTS
 62
     0
 48
50.0
100
AcDbPoint
 10
11561.97765185226
 20
7335.478983118547
 30
0.0
  0
POINT
  5
1AAFE
330
19863
100
AcDbEntity
  8
DEFPOINTS
 62
     0
 48
50.0
100
AcDbPoint
 10
11561.97765185226
 20
7280.47898311855
 30
0.0
  0
POINT
  5
1AAFF
330
19863
100
AcDbEntity
  8
DEFPOINTS
 62
     0
 48
50.0
100
AcDbPoint
 10
12261.97765185226
 20
7280.47898311855
 30
0.0
  0
ENDBLK
  5
19870
330
19863
100
AcDbEntity
  8
0
 48
50.0
100
AcDbBlockEnd
  0
BLOCK
  5
1987D
330
19871
100
AcDbEntity
  8
0
 48
50.0
100
AcDbBlockBegin
  2
*D11
 70
     1
 10
0.0
 20
0.0
 30
0.0
  3
*D11
  1

  0
LINE
  5
1AAEA
330
19871
100
AcDbEntity
  8
寸法
 62
     0
 48
50.0
370
    -2
100
AcDbLine
 10
11581.97765185229
 20
9490.478983118556
 30
0.0
 11
12321.97765185229
 21
9490.478983118554
 31
0.0
  0
LINE
  5
1AAEB
330
19871
100
AcDbEntity
  8
寸法
 62
     0
 48
50.0
370
    -2
100
AcDbLine
 10
11581.97765185229
 20
9435.478983118562
 30
0.0
 11
12321.97765185229
 21
9435.478983118558
 31
0.0
  0
LINE
  5
1AAEC
330
19871
100
AcDbEntity
  8
寸法
 62
     0
 48
50.0
370
    -2
100
AcDbLine
 10
12261.97765185229
 20
9435.478983118562
 30
0.0
 11
12261.97765185229
 21
9335.47898311856
 31
0.0
  0
LINE
  5
1AAED
330
19871
100
AcDbEntity
  8
寸法
 62
     0
 48
50.0
370
    -2
100
AcDbLine
 10
12261.97765185229
 20
9490.478983118556
 30
0.0
 11
12261.97765185229
 21
9907.449545867034
 31
0.0
  0
LINE
  5
1AAEE
330
19871
100
AcDbEntity
  8
寸法
 62
     0
 48
50.0
370
    -2
100
AcDbLine
 10
12261.97765185229
 20
9435.478983118562
 30
0.0
 11
12261.97765185229
 21
9490.478983118556
 31
0.0
  0
INSERT
  5
1AAEF
330
19871
100
AcDbEntity
  8
寸法
 62
     0
 48
50.0
370
    -2
100
AcDbBlockReference
  2
_DOTSMALL
 10
12261.97765185229
 20
9435.478983118562
 30
0.0
 41
100.0
 42
100.0
 43
100.0
 50
90.0
  0
INSERT
  5
1AAF0
330
19871
100
AcDbEntity
  8
寸法
 62
     0
 48
50.0
370
    -2
100
AcDbBlockReference
  2
_DOTSMALL
 10
12261.97765185229
 20
9490.478983118556
 30
0.0
 41
100.0
 42
100.0
 43
100.0
 50
270.0
  0
MTEXT
  5
1AAF1
330
19871
100
AcDbEntity
  8
寸法
 62
     7
 48
50.0
100
AcDbMText
 10
12161.97765185229
 20
9798.964264492797
 30
0.0
 40
120.0
 41
0.0
 71
     5
 72
     1
  1
\A1;55
  7
STYLE1
 11
0.0000000000000001
 21
1.0
 31
0.0
 73
     1
 44
1.0
1001
ACAD
1000
MTEXTBEGIN
1070
    73
1070
     1
1070
    44
1040
1.0
1070
    74
1070
     0
1000
MTEXTEND
  0
POINT
  5
1AAF2
330
19871
100
AcDbEntity
  8
DEFPOINTS
 62
     0
 48
50.0
100
AcDbPoint
 10
11561.97765185229
 20
9490.478983118556
 30
0.0
  0
POINT
  5
1AAF3
330
19871
100
AcDbEntity
  8
DEFPOINTS
 62
     0
 48
50.0
100
AcDbPoint
 10
11561.97765185229
 20
9435.478983118562
 30
0.0
  0
POINT
  5
1AAF4
330
19871
100
AcDbEntity
  8
DEFPOINTS
 62
     0
 48
50.0
100
AcDbPoint
 10
12261.97765185229
 20
9435.478983118562
 30
0.0
  0
ENDBLK
  5
1987E
330
19871
100
AcDbEntity
  8
0
 48
50.0
100
AcDbBlockEnd
  0
BLOCK
  5
1988B
330
1987F
100
AcDbEntity
  8
0
 48
50.0
100
AcDbBlockBegin
  2
*D12
 70
     1
 10
0.0
 20
0.0
 30
0.0
  3
*D12
  1

  0
LINE
  5
1AADF
330
1987F
100
AcDbEntity
  8
寸法
 62
     0
 48
50.0
370
    -2
100
AcDbLine
 10
11506.97765185229
 20
9510.478983118558
 30
0.0
 11
11506.97765185229
 21
9850.478983118557
 31
0.0
  0
LINE
  5
1AAE0
330
1987F
100
AcDbEntity
  8
寸法
 62
     0
 48
50.0
370
    -2
100
AcDbLine
 10
11561.97765185229
 20
9510.478983118558
 30
0.0
 11
11561.97765185229
 21
9850.478983118557
 31
0.0
  0
LINE
  5
1AAE1
330
1987F
100
AcDbEntity
  8
寸法
 62
     0
 48
50.0
370
    -2
100
AcDbLine
 10
11506.97765185229
 20
9790.478983118557
 30
0.0
 11
11406.97765185229
 21
9790.478983118557
 31
0.0
  0
LINE
  5
1AAE2
330
1987F
100
AcDbEntity
  8
寸法
 62
     0
 48
50.0
370
    -2
100
AcDbLine
 10
11561.97765185229
 20
9790.478983118557
 30
0.0
 11
11978.94821460076
 21
9790.478983118557
 31
0.0
  0
LINE
  5
1AAE3
330
1987F
100
AcDbEntity
  8
寸法
 62
     0
 48
50.0
370
    -2
100
AcDbLine
 10
11506.97765185229
 20
9790.478983118557
 30
0.0
 11
11561.97765185229
 21
9790.478983118557
 31
0.0
  0
INSERT
  5
1AAE4
330
1987F
100
AcDbEntity
  8
寸法
 62
     0
 48
50.0
370
    -2
100
AcDbBlockReference
  2
_DOTSMALL
 10
11506.97765185229
 20
9790.478983118557
 30
0.0
 41
100.0
 42
100.0
 43
100.0
  0
INSERT
  5
1AAE5
330
1987F
100
AcDbEntity
  8
寸法
 62
     0
 48
50.0
370
    -2
100
AcDbBlockReference
  2
_DOTSMALL
 10
11561.97765185229
 20
9790.478983118557
 30
0.0
 41
100.0
 42
100.0
 43
100.0
 50
180.0
  0
MTEXT
  5
1AAE6
330
1987F
100
AcDbEntity
  8
寸法
 62
     7
 48
50.0
100
AcDbMText
 10
11870.46293322653
 20
9890.478983118557
 30
0.0
 40
120.0
 41
0.0
 71
     5
 72
     1
  1
\A1;55
  7
STYLE1
 73
     1
 44
1.0
1001
ACAD
1000
MTEXTBEGIN
1070
    73
1070
     1
1070
    44
1040
1.0
1070
    74
1070
     0
1000
MTEXTEND
  0
POINT
  5
1AAE7
330
1987F
100
AcDbEntity
  8
DEFPOINTS
 62
     0
 48
50.0
100
AcDbPoint
 10
11506.97765185229
 20
9490.478983118556
 30
0.0
  0
POINT
  5
1AAE8
330
1987F
100
AcDbEntity
  8
DEFPOINTS
 62
     0
 48
50.0
100
AcDbPoint
 10
11561.97765185229
 20
9490.478983118556
 30
0.0
  0
POINT
  5
1AAE9
330
1987F
100
AcDbEntity
  8
DEFPOINTS
 62
     0
 48
50.0
100
AcDbPoint
 10
11561.97765185229
 20
9790.478983118557
 30
0.0
  0
ENDBLK
  5
1988C
330
1987F
100
AcDbEntity
  8
0
 48
50.0
100
AcDbBlockEnd
  0
BLOCK
  5
19897
330
1988D
100
AcDbEntity
  8
0
 48
50.0
100
AcDbBlockBegin
  2
*D13
 70
     1
 10
0.0
 20
0.0
 30
0.0
  3
*D13
  1

  0
LINE
  5
1AAD6
330
1988D
100
AcDbEntity
  8
寸法
 62
     0
 48
50.0
370
    -2
100
AcDbLine
 10
11553.47765185229
 20
9455.119999269935
 30
0.0
 11
12021.97765185228
 21
9329.585802615955
 31
0.0
  0
LINE
  5
1AAD7
330
1988D
100
AcDbEntity
  8
寸法
 62
     0
 48
50.0
370
    -2
100
AcDbLine
 10
11553.47765185229
 20
9005.119999269938
 30
0.0
 11
12021.97765185228
 21
8879.585802615959
 31
0.0
  0
LINE
  5
1AAD8
330
1988D
100
AcDbEntity
  8
寸法
 62
     0
 48
50.0
370
    -2
100
AcDbLine
 10
11961.97765185228
 20
9345.662754161821
 30
0.0
 11
11961.97765185228
 21
8895.662754161826
 31
0.0
  0
INSERT
  5
1AAD9
330
1988D
100
AcDbEntity
  8
寸法
 62
     0
 48
50.0
370
    -2
100
AcDbBlockReference
  2
_DOTSMALL
 10
11961.97765185228
 20
9345.662754161821
 30
0.0
 41
100.0
 42
100.0
 43
100.0
 50
90.0
  0
INSERT
  5
1AADA
330
1988D
100
AcDbEntity
  8
寸法
 62
     0
 48
50.0
370
    -2
100
AcDbBlockReference
  2
_DOTSMALL
 10
11961.97765185228
 20
8895.662754161826
 30
0.0
 41
100.0
 42
100.0
 43
100.0
 50
270.0
  0
MTEXT
  5
1AADB
330
1988D
100
AcDbEntity
  8
寸法
 62
     7
 48
50.0
100
AcDbMText
 10
11861.97765185228
 20
9120.662754161823
 30
0.0
 40
120.0
 41
0.0
 71
     5
 72
     1
  1
\A1;450
  7
STYLE1
 11
0.0000000000000001
 21
1.0
 31
0.0
 73
     1
 44
1.0
1001
ACAD
1000
MTEXTBEGIN
1070
    73
1070
     1
1070
    44
1040
1.0
1070
    74
1070
     0
1000
MTEXTEND
  0
POINT
  5
1AADC
330
1988D
100
AcDbEntity
  8
DEFPOINTS
 62
     0
 48
50.0
100
AcDbPoint
 10
11533.47765185229
 20
9460.478983118557
 30
0.0
  0
POINT
  5
1AADD
330
1988D
100
AcDbEntity
  8
DEFPOINTS
 62
     0
 48
50.0
100
AcDbPoint
 10
11533.47765185229
 20
9010.478983118561
 30
0.0
  0
POINT
  5
1AADE
330
1988D
100
AcDbEntity
  8
DEFPOINTS
 62
     0
 48
50.0
100
AcDbPoint
 10
11961.97765185228
 20
8895.662754161826
 30
0.0
  0
ENDBLK
  5
19898
330
1988D
100
AcDbEntity
  8
0
 48
50.0
100
AcDbBlockEnd
  0
BLOCK
  5
198A3
330
19899
100
AcDbEntity
  8
0
 48
50.0
100
AcDbBlockBegin
  2
*D14
 70
     1
 10
0.0
 20
0.0
 30
0.0
  3
*D14
  1

  0
LINE
  5
1A3E8
330
19899
100
AcDbEntity
  8
寸法
 62
     0
 48
50.0
370
    -2
100
AcDbLine
 10
11561.97765185229
 20
4179.316075492757
 30
0.0
 11
11561.97765185229
 21
4671.162849460408
 31
0.0
  0
LINE
  5
1A3E9
330
19899
100
AcDbEntity
  8
寸法
 62
     0
 48
50.0
370
    -2
100
AcDbLine
 10
8511.977651852296
 20
4228.507014004079
 30
0.0
 11
8511.977651852296
 21
4671.162849460408
 31
0.0
  0
LINE
  5
1A3EA
330
19899
100
AcDbEntity
  8
寸法
 62
     0
 48
50.0
370
    -2
100
AcDbLine
 10
11561.97765185229
 20
4611.162849460408
 30
0.0
 11
8511.977651852296
 21
4611.162849460408
 31
0.0
  0
INSERT
  5
1A3EB
330
19899
100
AcDbEntity
  8
寸法
 62
     0
 48
50.0
370
    -2
100
AcDbBlockReference
  2
_DOTSMALL
 10
11561.97765185229
 20
4611.162849460408
 30
0.0
 41
100.0
 42
100.0
 43
100.0
  0
INSERT
  5
1A3EC
330
19899
100
AcDbEntity
  8
寸法
 62
     0
 48
50.0
370
    -2
100
AcDbBlockReference
  2
_DOTSMALL
 10
8511.977651852296
 20
4611.162849460408
 30
0.0
 41
100.0
 42
100.0
 43
100.0
 50
180.0
  0
MTEXT
  5
1A3ED
330
19899
100
AcDbEntity
  8
寸法
 62
     7
 48
50.0
100
AcDbMText
 10
10082.03602641171
 20
4711.162849460408
 30
0.0
 40
120.0
 41
0.0
 71
     5
 72
     1
  1
\A1;柱外寸法3050
  7
STYLE1
 73
     1
 44
1.0
1001
ACAD
1000
MTEXTBEGIN
1070
    73
1070
     1
1070
    44
1040
1.0
1070
    74
1070
     0
1000
MTEXTEND
  0
POINT
  5
1A3EE
330
19899
100
AcDbEntity
  8
DEFPOINTS
 62
     0
 48
50.0
100
AcDbPoint
 10
11561.97765185229
 20
4159.316075492757
 30
0.0
  0
POINT
  5
1A3EF
330
19899
100
AcDbEntity
  8
DEFPOINTS
 62
     0
 48
50.0
100
AcDbPoint
 10
8511.977651852296
 20
4208.507014004079
 30
0.0
  0
POINT
  5
1A3F0
330
19899
100
AcDbEntity
  8
DEFPOINTS
 62
     0
 48
50.0
100
AcDbPoint
 10
8511.977651852296
 20
4611.162849460408
 30
0.0
  0
ENDBLK
  5
198A4
330
19899
100
AcDbEntity
  8
0
 48
50.0
100
AcDbBlockEnd
  0
BLOCK
  5
198AF
330
198A5
100
AcDbEntity
  8
0
 48
50.0
100
AcDbBlockBegin
  2
*D15
 70
     1
 10
0.0
 20
0.0
 30
0.0
  3
*D15
  1

  0
LINE
  5
1A3DF
330
198A5
100
AcDbEntity
  8
寸法
 62
     0
 48
50.0
370
    -2
100
AcDbLine
 10
11641.97765185229
 20
4177.505395881104
 30
0.0
 11
11641.97765185229
 21
4901.276442246684
 31
0.0
  0
LINE
  5
1A3E0
330
198A5
100
AcDbEntity
  8
寸法
 62
     0
 48
50.0
370
    -2
100
AcDbLine
 10
8451.977651852295
 20
4232.505395881107
 30
0.0
 11
8451.977651852295
 21
4901.276442246684
 31
0.0
  0
LINE
  5
1A3E1
330
198A5
100
AcDbEntity
  8
寸法
 62
     0
 48
50.0
370
    -2
100
AcDbLine
 10
11641.97765185229
 20
4841.276442246684
 30
0.0
 11
8451.977651852295
 21
4841.276442246684
 31
0.0
  0
INSERT
  5
1A3E2
330
198A5
100
AcDbEntity
  8
寸法
 62
     0
 48
50.0
370
    -2
100
AcDbBlockReference
  2
_DOTSMALL
 10
11641.97765185229
 20
4841.276442246684
 30
0.0
 41
100.0
 42
100.0
 43
100.0
  0
INSERT
  5
1A3E3
330
198A5
100
AcDbEntity
  8
寸法
 62
     0
 48
50.0
370
    -2
100
AcDbBlockReference
  2
_DOTSMALL
 10
8451.977651852295
 20
4841.276442246684
 30
0.0
 41
100.0
 42
100.0
 43
100.0
 50
180.0
  0
MTEXT
  5
1A3E4
330
198A5
100
AcDbEntity
  8
寸法
 62
     7
 48
50.0
100
AcDbMText
 10
10123.68345816182
 20
4941.276442246684
 30
0.0
 40
120.0
 41
0.0
 71
     5
 72
     1
  1
\A1;3190
  7
STYLE1
 73
     1
 44
1.0
1001
ACAD
1000
MTEXTBEGIN
1070
    73
1070
     1
1070
    44
1040
1.0
1070
    74
1070
     0
1000
MTEXTEND
  0
POINT
  5
1A3E5
330
198A5
100
AcDbEntity
  8
DEFPOINTS
 62
     0
 48
50.0
100
AcDbPoint
 10
11641.97765185229
 20
4157.505395881104
 30
0.0
  0
POINT
  5
1A3E6
330
198A5
100
AcDbEntity
  8
DEFPOINTS
 62
     0
 48
50.0
100
AcDbPoint
 10
8451.977651852295
 20
4212.505395881106
 30
0.0
  0
POINT
  5
1A3E7
330
198A5
100
AcDbEntity
  8
DEFPOINTS
 62
     0
 48
50.0
100
AcDbPoint
 10
8451.977651852295
 20
4841.276442246684
 30
0.0
  0
ENDBLK
  5
198B0
330
198A5
100
AcDbEntity
  8
0
 48
50.0
100
AcDbBlockEnd
  0
BLOCK
  5
198BC
330
198B1
100
AcDbEntity
  8
0
 48
50.0
100
AcDbBlockBegin
  2
*D16
 70
     1
 10
0.0
 20
0.0
 30
0.0
  3
*D16
  1

  0
LINE
  5
1A3D5
330
198B1
100
AcDbEntity
  8
寸法
 62
     0
 48
50.0
370
    -2
100
AcDbLine
 10
11561.97765185229
 20
4179.316075492757
 30
0.0
 11
11561.97765185229
 21
4671.162849460408
 31
0.0
  0
LINE
  5
1A3D6
330
198B1
100
AcDbEntity
  8
寸法
 62
     0
 48
50.0
370
    -2
100
AcDbLine
 10
11641.97765185229
 20
4177.505395881105
 30
0.0
 11
11641.97765185229
 21
4671.162849460408
 31
0.0
  0
LINE
  5
1A3D7
330
198B1
100
AcDbEntity
  8
寸法
 62
     0
 48
50.0
370
    -2
100
AcDbLine
 10
11561.97765185229
 20
4611.162849460408
 30
0.0
 11
11641.97765185229
 21
4611.162849460408
 31
0.0
  0
LINE
  5
1A3D8
330
198B1
100
AcDbEntity
  8
寸法
 62
     0
 48
50.0
370
    -2
100
AcDbLine
 10
11641.97765185229
 20
4611.162849460408
 30
0.0
 11
11954.07214004127
 21
4611.162849460408
 31
0.0
  0
INSERT
  5
1A3D9
330
198B1
100
AcDbEntity
  8
寸法
 62
     0
 48
50.0
370
    -2
100
AcDbBlockReference
  2
_DOTSMALL
 10
11561.97765185229
 20
4611.162849460408
 30
0.0
 41
100.0
 42
100.0
 43
100.0
 50
180.0
  0
INSERT
  5
1A3DA
330
198B1
100
AcDbEntity
  8
寸法
 62
     0
 48
50.0
370
    -2
100
AcDbBlockReference
  2
_DOTSMALL
 10
11641.97765185229
 20
4611.162849460408
 30
0.0
 41
100.0
 42
100.0
 43
100.0
  0
MTEXT
  5
1A3DB
330
198B1
100
AcDbEntity
  8
寸法
 62
     7
 48
50.0
100
AcDbMText
 10
11848.02489594678
 20
4711.162849460408
 30
0.0
 40
120.0
 41
0.0
 71
     5
 72
     1
  1
\A1;80
  7
STYLE1
 73
     1
 44
1.0
1001
ACAD
1000
MTEXTBEGIN
1070
    73
1070
     1
1070
    44
1040
1.0
1070
    74
1070
     0
1000
MTEXTEND
  0
POINT
  5
1A3DC
330
198B1
100
AcDbEntity
  8
DEFPOINTS
 62
     0
 48
50.0
100
AcDbPoint
 10
11561.97765185229
 20
4159.316075492757
 30
0.0
  0
POINT
  5
1A3DD
330
198B1
100
AcDbEntity
  8
DEFPOINTS
 62
     0
 48
50.0
100
AcDbPoint
 10
11641.97765185229
 20
4157.505395881106
 30
0.0
  0
POINT
  5
1A3DE
330
198B1
100
AcDbEntity
  8
DEFPOINTS
 62
     0
 48
50.0
100
AcDbPoint
 10
11641.97765185229
 20
4611.162849460408
 30
0.0
  0
ENDBLK
  5
198BD
330
198B1
100
AcDbEntity
  8
0
 48
50.0
100
AcDbBlockEnd
  0
BLOCK
  5
198CA
330
198BE
100
AcDbEntity
  8
0
 48
50.0
100
AcDbBlockBegin
  2
*D17
 70
     1
 10
0.0
 20
0.0
 30
0.0
  3
*D17
  1

  0
LINE
  5
1A3CA
330
198BE
100
AcDbEntity
  8
寸法
 62
     0
 48
50.0
370
    -2
100
AcDbLine
 10
8511.977651852296
 20
4228.507014004079
 30
0.0
 11
8511.977651852296
 21
4671.162849460406
 31
0.0
  0
LINE
  5
1A3CB
330
198BE
100
AcDbEntity
  8
寸法
 62
     0
 48
50.0
370
    -2
100
AcDbLine
 10
8451.977651852295
 20
4232.505395881107
 30
0.0
 11
8451.977651852295
 21
4671.162849460406
 31
0.0
  0
LINE
  5
1A3CC
330
198BE
100
AcDbEntity
  8
寸法
 62
     0
 48
50.0
370
    -2
100
AcDbLine
 10
8511.977651852296
 20
4611.162849460407
 30
0.0
 11
8611.977651852296
 21
4611.162849460407
 31
0.0
  0
LINE
  5
1A3CD
330
198BE
100
AcDbEntity
  8
寸法
 62
     0
 48
50.0
370
    -2
100
AcDbLine
 10
8451.977651852295
 20
4611.162849460407
 30
0.0
 11
8032.702061301113
 21
4611.162849460407
 31
0.0
  0
LINE
  5
1A3CE
330
198BE
100
AcDbEntity
  8
寸法
 62
     0
 48
50.0
370
    -2
100
AcDbLine
 10
8511.977651852296
 20
4611.162849460407
 30
0.0
 11
8451.977651852295
 21
4611.162849460407
 31
0.0
  0
INSERT
  5
1A3CF
330
198BE
100
AcDbEntity
  8
寸法
 62
     0
 48
50.0
370
    -2
100
AcDbBlockReference
  2
_DOTSMALL
 10
8511.977651852296
 20
4611.162849460407
 30
0.0
 41
100.0
 42
100.0
 43
100.0
 50
180.0
  0
INSERT
  5
1A3D0
330
198BE
100
AcDbEntity
  8
寸法
 62
     0
 48
50.0
370
    -2
100
AcDbBlockReference
  2
_DOTSMALL
 10
8451.977651852295
 20
4611.162849460407
 30
0.0
 41
100.0
 42
100.0
 43
100.0
  0
MTEXT
  5
1A3D1
330
198BE
100
AcDbEntity
  8
寸法
 62
     7
 48
50.0
100
AcDbMText
 10
8142.339856576706
 20
4711.162849460406
 30
0.0
 40
120.0
 41
0.0
 71
     5
 72
     1
  1
\A1;60
  7
STYLE1
 73
     1
 44
1.0
1001
ACAD
1000
MTEXTBEGIN
1070
    73
1070
     1
1070
    44
1040
1.0
1070
    74
1070
     0
1000
MTEXTEND
  0
POINT
  5
1A3D2
330
198BE
100
AcDbEntity
  8
DEFPOINTS
 62
     0
 48
50.0
100
AcDbPoint
 10
8511.977651852296
 20
4208.507014004079
 30
0.0
  0
POINT
  5
1A3D3
330
198BE
100
AcDbEntity
  8
DEFPOINTS
 62
     0
 48
50.0
100
AcDbPoint
 10
8451.977651852295
 20
4212.505395881106
 30
0.0
  0
POINT
  5
1A3D4
330
198BE
100
AcDbEntity
  8
DEFPOINTS
 62
     0
 48
50.0
100
AcDbPoint
 10
8451.977651852295
 20
4611.162849460407
 30
0.0
  0
ENDBLK
  5
198CB
330
198BE
100
AcDbEntity
  8
0
 48
50.0
100
AcDbBlockEnd
  0
BLOCK
  5
198D7
330
198CC
100
AcDbEntity
  8
0
 48
50.0
100
AcDbBlockBegin
  2
*D18
 70
     1
 10
0.0
 20
0.0
 30
0.0
  3
*D18
  1

  0
LINE
  5
1A3C0
330
198CC
100
AcDbEntity
  8
寸法
 62
     0
 48
50.0
370
    -2
100
AcDbLine
 10
8451.381938143397
 20
4211.803102950764
 30
0.0
 11
7835.447499038121
 21
4229.517253225094
 31
0.0
  0
LINE
  5
1A3C1
330
198CC
100
AcDbEntity
  8
寸法
 62
     0
 48
50.0
370
    -2
100
AcDbLine
 10
8447.328482586772
 20
4070.861379185051
 30
0.0
 11
7831.394043481494
 21
4088.57552945938
 31
0.0
  0
LINE
  5
1A3C2
330
198CC
100
AcDbEntity
  8
寸法
 62
     0
 48
50.0
370
    -2
100
AcDbLine
 10
7891.369245083925
 20
4086.850654754432
 30
0.0
 11
7895.42270064055
 21
4227.792378520146
 31
0.0
  0
LINE
  5
1A3C3
330
198CC
100
AcDbEntity
  8
寸法
 62
     0
 48
50.0
370
    -2
100
AcDbLine
 10
7895.42270064055
 20
4227.792378520146
 30
0.0
 11
7905.771948870235
 21
4587.643588134731
 31
0.0
  0
INSERT
  5
1A3C4
330
198CC
100
AcDbEntity
  8
寸法
 62
     0
 48
50.0
370
    -2
100
AcDbBlockReference
  2
_DOTSMALL
 10
7891.369245083925
 20
4086.850654754432
 30
0.0
 41
100.0
 42
100.0
 43
100.0
 50
268.3526390256378
  0
INSERT
  5
1A3C5
330
198CC
100
AcDbEntity
  8
寸法
 62
     0
 48
50.0
370
    -2
100
AcDbBlockReference
  2
_DOTSMALL
 10
7895.42270064055
 20
4227.792378520146
 30
0.0
 41
100.0
 42
100.0
 43
100.0
 50
88.35263902563776
  0
MTEXT
  5
1A3C6
330
198CC
100
AcDbEntity
  8
寸法
 62
     7
 48
50.0
100
AcDbMText
 10
7802.076051005464
 20
4460.572109171045
 30
0.0
 40
120.0
 41
0.0
 71
     5
 72
     1
  1
\A1;141
  7
STYLE1
 11
0.0287479117491237
 21
0.9995866933738488
 31
0.0
 73
     1
 44
1.0
1001
ACAD
1000
MTEXTBEGIN
1070
    73
1070
     1
1070
    44
1040
1.0
1070
    74
1070
     0
1000
MTEXTEND
  0
POINT
  5
1A3C7
330
198CC
100
AcDbEntity
  8
DEFPOINTS
 62
     0
 48
50.0
100
AcDbPoint
 10
8471.373672010875
 20
4211.228144715781
 30
0.0
  0
POINT
  5
1A3C8
330
198CC
100
AcDbEntity
  8
DEFPOINTS
 62
     0
 48
50.0
100
AcDbPoint
 10
8467.320216454249
 20
4070.286420950068
 30
0.0
  0
POINT
  5
1A3C9
330
198CC
100
AcDbEntity
  8
DEFPOINTS
 62
     0
 48
50.0
100
AcDbPoint
 10
7891.369245083925
 20
4086.850654754432
 30
0.0
  0
ENDBLK
  5
198D8
330
198CC
100
AcDbEntity
  8
0
 48
50.0
100
AcDbBlockEnd
  0
BLOCK
  5
198E3
330
198D9
100
AcDbEntity
  8
0
 48
50.0
100
AcDbBlockBegin
  2
*D19
 70
     1
 10
0.0
 20
0.0
 30
0.0
  3
*D19
  1

  0
LINE
  5
1A3B7
330
198D9
100
AcDbEntity
  8
寸法
 62
     0
 48
50.0
370
    -2
100
AcDbLine
 10
8939.977651852299
 20
3920.505395881099
 30
0.0
 11
8159.504962272906
 21
3920.505395881099
 31
0.0
  0
LINE
  5
1A3B8
330
198D9
100
AcDbEntity
  8
寸法
 62
     0
 48
50.0
370
    -2
100
AcDbLine
 10
8939.977651852299
 20
2195.505395881099
 30
0.0
 11
8159.504962272906
 21
2195.505395881099
 31
0.0
  0
LINE
  5
1A3B9
330
198D9
100
AcDbEntity
  8
寸法
 62
     0
 48
50.0
370
    -2
100
AcDbLine
 10
8219.504962272905
 20
3920.505395881099
 30
0.0
 11
8219.504962272905
 21
2195.505395881099
 31
0.0
  0
INSERT
  5
1A3BA
330
198D9
100
AcDbEntity
  8
寸法
 62
     0
 48
50.0
370
    -2
100
AcDbBlockReference
  2
_DOTSMALL
 10
8219.504962272905
 20
3920.505395881099
 30
0.0
 41
100.0
 42
100.0
 43
100.0
 50
90.0
  0
INSERT
  5
1A3BB
330
198D9
100
AcDbEntity
  8
寸法
 62
     0
 48
50.0
370
    -2
100
AcDbBlockReference
  2
_DOTSMALL
 10
8219.504962272905
 20
2195.505395881099
 30
0.0
 41
100.0
 42
100.0
 43
100.0
 50
270.0
  0
MTEXT
  5
1A3BC
330
198D9
100
AcDbEntity
  8
寸法
 62
     7
 48
50.0
100
AcDbMText
 10
8119.493151249285
 20
3036.95261539939
 30
0.0
 40
120.0
 41
0.0
 71
     5
 72
     1
  1
\A1;有効開口部高サ1725
  7
STYLE1
 11
0.0000000000000001
 21
1.0
 31
0.0
 73
     1
 44
1.0
1001
ACAD
1000
MTEXTBEGIN
1070
    73
1070
     1
1070
    44
1040
1.0
1070
    74
1070
     0
1000
MTEXTEND
  0
POINT
  5
1A3BD
330
198D9
100
AcDbEntity
  8
DEFPOINTS
 62
     0
 48
50.0
100
AcDbPoint
 10
8959.977651852296
 20
3920.505395881099
 30
0.0
  0
POINT
  5
1A3BE
330
198D9
100
AcDbEntity
  8
DEFPOINTS
 62
     0
 48
50.0
100
AcDbPoint
 10
8959.977651852296
 20
2195.505395881099
 30
0.0
  0
POINT
  5
1A3BF
330
198D9
100
AcDbEntity
  8
DEFPOINTS
 62
     0
 48
50.0
100
AcDbPoint
 10
8219.504962272905
 20
2195.505395881099
 30
0.0
  0
ENDBLK
  5
198E4
330
198D9
100
AcDbEntity
  8
0
 48
50.0
100
AcDbBlockEnd
  0
BLOCK
  5
198F0
330
198E5
100
AcDbEntity
  8
0
 48
50.0
100
AcDbBlockBegin
  2
*D20
 70
     1
 10
0.0
 20
0.0
 30
0.0
  3
*D20
  1

  0
LINE
  5
1A3AD
330
198E5
100
AcDbEntity
  8
寸法
 62
     0
 48
50.0
370
    -2
100
AcDbLine
 10
8451.381938143397
 20
4211.803102950761
 30
0.0
 11
7835.447499038124
 21
4229.51725322509
 31
0.0
  0
LINE
  5
1A3AE
330
198E5
100
AcDbEntity
  8
寸法
 62
     0
 48
50.0
370
    -2
100
AcDbLine
 10
8447.328482586772
 20
4070.861379185046
 30
0.0
 11
7831.394043481498
 21
4088.575529459375
 31
0.0
  0
LINE
  5
1A3AF
330
198E5
100
AcDbEntity
  8
寸法
 62
     0
 48
50.0
370
    -2
100
AcDbLine
 10
7891.369245083928
 20
4086.850654754427
 30
0.0
 11
7895.422700640555
 21
4227.792378520143
 31
0.0
  0
LINE
  5
1A3B0
330
198E5
100
AcDbEntity
  8
寸法
 62
     0
 48
50.0
370
    -2
100
AcDbLine
 10
7895.422700640555
 20
4227.792378520143
 30
0.0
 11
7905.77194887024
 21
4587.643588134733
 31
0.0
  0
INSERT
  5
1A3B1
330
198E5
100
AcDbEntity
  8
寸法
 62
     0
 48
50.0
370
    -2
100
AcDbBlockReference
  2
_DOTSMALL
 10
7891.369245083928
 20
4086.850654754427
 30
0.0
 41
100.0
 42
100.0
 43
100.0
 50
268.3526390256379
  0
INSERT
  5
1A3B2
330
198E5
100
AcDbEntity
  8
寸法
 62
     0
 48
50.0
370
    -2
100
AcDbBlockReference
  2
_DOTSMALL
 10
7895.422700640555
 20
4227.792378520143
 30
0.0
 41
100.0
 42
100.0
 43
100.0
 50
88.35263902563784
  0
MTEXT
  5
1A3B3
330
198E5
100
AcDbEntity
  8
寸法
 62
     7
 48
50.0
100
AcDbMText
 10
7802.076051005468
 20
4460.572109171046
 30
0.0
 40
120.0
 41
0.0
 71
     5
 72
     1
  1
\A1;141
  7
STYLE1
 11
0.0287479117491228
 21
0.9995866933738486
 31
0.0
 73
     1
 44
1.0
1001
ACAD
1000
MTEXTBEGIN
1070
    73
1070
     1
1070
    44
1040
1.0
1070
    74
1070
     0
1000
MTEXTEND
  0
POINT
  5
1A3B4
330
198E5
100
AcDbEntity
  8
DEFPOINTS
 62
     0
 48
50.0
100
AcDbPoint
 10
8471.373672010875
 20
4211.228144715778
 30
0.0
  0
POINT
  5
1A3B5
330
198E5
100
AcDbEntity
  8
DEFPOINTS
 62
     0
 48
50.0
100
AcDbPoint
 10
8467.320216454249
 20
4070.286420950064
 30
0.0
  0
POINT
  5
1A3B6
330
198E5
100
AcDbEntity
  8
DEFPOINTS
 62
     0
 48
50.0
100
AcDbPoint
 10
7891.369245083928
 20
4086.850654754427
 30
0.0
  0
ENDBLK
  5
198F1
330
198E5
100
AcDbEntity
  8
0
 48
50.0
100
AcDbBlockEnd
  0
BLOCK
  5
198FC
330
198F2
100
AcDbEntity
  8
0
 48
50.0
100
AcDbBlockBegin
  2
*D21
 70
     1
 10
0.0
 20
0.0
 30
0.0
  3
*D21
  1

  0
LINE
  5
1A3A4
330
198F2
100
AcDbEntity
  8
寸法
 62
     0
 48
50.0
370
    -2
100
AcDbLine
 10
8491.977651852296
 20
2137.505395881099
 30
0.0
 11
7543.338269922938
 21
2137.505395881099
 31
0.0
  0
LINE
  5
1A3A5
330
198F2
100
AcDbEntity
  8
寸法
 62
     0
 48
50.0
370
    -2
100
AcDbLine
 10
8431.977651852296
 20
4212.505395881104
 30
0.0
 11
7543.338269922938
 21
4212.505395881104
 31
0.0
  0
LINE
  5
1A3A6
330
198F2
100
AcDbEntity
  8
寸法
 62
     0
 48
50.0
370
    -2
100
AcDbLine
 10
7603.338269922938
 20
2137.505395881099
 30
0.0
 11
7603.338269922938
 21
4212.505395881104
 31
0.0
  0
INSERT
  5
1A3A7
330
198F2
100
AcDbEntity
  8
寸法
 62
     0
 48
50.0
370
    -2
100
AcDbBlockReference
  2
_DOTSMALL
 10
7603.338269922938
 20
2137.505395881099
 30
0.0
 41
100.0
 42
100.0
 43
100.0
 50
270.0
  0
INSERT
  5
1A3A8
330
198F2
100
AcDbEntity
  8
寸法
 62
     0
 48
50.0
370
    -2
100
AcDbBlockReference
  2
_DOTSMALL
 10
7603.338269922938
 20
4212.505395881104
 30
0.0
 41
100.0
 42
100.0
 43
100.0
 50
90.0
  0
MTEXT
  5
1A3A9
330
198F2
100
AcDbEntity
  8
寸法
 62
     7
 48
50.0
100
AcDbMText
 10
7503.326458899315
 20
3131.71127337421
 30
0.0
 40
120.0
 41
0.0
 71
     5
 72
     1
  1
\A1;2075
  7
STYLE1
 11
0.0000000000000001
 21
1.0
 31
0.0
 73
     1
 44
1.0
1001
ACAD
1000
MTEXTBEGIN
1070
    73
1070
     1
1070
    44
1040
1.0
1070
    74
1070
     0
1000
MTEXTEND
  0
POINT
  5
1A3AA
330
198F2
100
AcDbEntity
  8
DEFPOINTS
 62
     0
 48
50.0
100
AcDbPoint
 10
8511.977651852296
 20
2137.505395881099
 30
0.0
  0
POINT
  5
1A3AB
330
198F2
100
AcDbEntity
  8
DEFPOINTS
 62
     0
 48
50.0
100
AcDbPoint
 10
8451.977651852295
 20
4212.505395881104
 30
0.0
  0
POINT
  5
1A3AC
330
198F2
100
AcDbEntity
  8
DEFPOINTS
 62
     0
 48
50.0
100
AcDbPoint
 10
7603.338269922938
 20
4212.505395881104
 30
0.0
  0
ENDBLK
  5
198FD
330
198F2
100
AcDbEntity
  8
0
 48
50.0
100
AcDbBlockEnd
  0
BLOCK
  5
19908
330
198FE
100
AcDbEntity
  8
0
 48
50.0
100
AcDbBlockBegin
  2
*D22
 70
     1
 10
0.0
 20
0.0
 30
0.0
  3
*D22
  1

  0
LINE
  5
1A39B
330
198FE
100
AcDbEntity
  8
寸法
 62
     0
 48
50.0
370
    -2
100
AcDbLine
 10
8491.977651852296
 20
3977.505395881099
 30
0.0
 11
7828.324942693999
 21
3977.505395881099
 31
0.0
  0
LINE
  5
1A39C
330
198FE
100
AcDbEntity
  8
寸法
 62
     0
 48
50.0
370
    -2
100
AcDbLine
 10
8491.977651852296
 20
2187.5053958811
 30
0.0
 11
7828.324942693999
 21
2187.5053958811
 31
0.0
  0
LINE
  5
1A39D
330
198FE
100
AcDbEntity
  8
寸法
 62
     0
 48
50.0
370
    -2
100
AcDbLine
 10
7888.324942694
 20
3977.505395881099
 30
0.0
 11
7888.324942694
 21
2187.5053958811
 31
0.0
  0
INSERT
  5
1A39E
330
198FE
100
AcDbEntity
  8
寸法
 62
     0
 48
50.0
370
    -2
100
AcDbBlockReference
  2
_DOTSMALL
 10
7888.324942694
 20
3977.505395881099
 30
0.0
 41
100.0
 42
100.0
 43
100.0
 50
90.0
  0
INSERT
  5
1A39F
330
198FE
100
AcDbEntity
  8
寸法
 62
     0
 48
50.0
370
    -2
100
AcDbBlockReference
  2
_DOTSMALL
 10
7888.324942694
 20
2187.5053958811
 30
0.0
 41
100.0
 42
100.0
 43
100.0
 50
270.0
  0
MTEXT
  5
1A3A0
330
198FE
100
AcDbEntity
  8
寸法
 62
     7
 48
50.0
100
AcDbMText
 10
7788.324942693998
 20
3077.959694423058
 30
0.0
 40
120.0
 41
0.0
 71
     5
 72
     1
  1
\A1;1790
  7
STYLE1
 11
0.0000000000000001
 21
1.0
 31
0.0
 73
     1
 44
1.0
1001
ACAD
1000
MTEXTBEGIN
1070
    73
1070
     1
1070
    44
1040
1.0
1070
    74
1070
     0
1000
MTEXTEND
  0
POINT
  5
1A3A1
330
198FE
100
AcDbEntity
  8
DEFPOINTS
 62
     0
 48
50.0
100
AcDbPoint
 10
8511.977651852296
 20
3977.505395881099
 30
0.0
  0
POINT
  5
1A3A2
330
198FE
100
AcDbEntity
  8
DEFPOINTS
 62
     0
 48
50.0
100
AcDbPoint
 10
8511.977651852296
 20
2187.5053958811
 30
0.0
  0
POINT
  5
1A3A3
330
198FE
100
AcDbEntity
  8
DEFPOINTS
 62
     0
 48
50.0
100
AcDbPoint
 10
7888.324942694
 20
2187.5053958811
 30
0.0
  0
ENDBLK
  5
19909
330
198FE
100
AcDbEntity
  8
0
 48
50.0
100
AcDbBlockEnd
  0
BLOCK
  5
19916
330
1990A
100
AcDbEntity
  8
0
 48
50.0
100
AcDbBlockBegin
  2
*D23
 70
     1
 10
0.0
 20
0.0
 30
0.0
  3
*D23
  1

  0
LINE
  5
1A390
330
1990A
100
AcDbEntity
  8
寸法
 62
     0
 48
50.0
370
    -2
100
AcDbLine
 10
8491.977651852296
 20
2187.5053958811
 30
0.0
 11
7828.324942693999
 21
2187.5053958811
 31
0.0
  0
LINE
  5
1A391
330
1990A
100
AcDbEntity
  8
寸法
 62
     0
 48
50.0
370
    -2
100
AcDbLine
 10
8436.977651852295
 20
2137.505395881099
 30
0.0
 11
7828.324942693999
 21
2137.505395881099
 31
0.0
  0
LINE
  5
1A392
330
1990A
100
AcDbEntity
  8
寸法
 62
     0
 48
50.0
370
    -2
100
AcDbLine
 10
7888.324942694
 20
2187.5053958811
 30
0.0
 11
7888.324942694
 21
2287.505395881099
 31
0.0
  0
LINE
  5
1A393
330
1990A
100
AcDbEntity
  8
寸法
 62
     0
 48
50.0
370
    -2
100
AcDbLine
 10
7888.324942694
 20
2137.505395881099
 30
0.0
 11
7888.324942693998
 21
1725.410907692119
 31
0.0
  0
LINE
  5
1A394
330
1990A
100
AcDbEntity
  8
寸法
 62
     0
 48
50.0
370
    -2
100
AcDbLine
 10
7888.324942694
 20
2187.5053958811
 30
0.0
 11
7888.324942694
 21
2137.505395881099
 31
0.0
  0
INSERT
  5
1A395
330
1990A
100
AcDbEntity
  8
寸法
 62
     0
 48
50.0
370
    -2
100
AcDbBlockReference
  2
_DOTSMALL
 10
7888.324942694
 20
2187.5053958811
 30
0.0
 41
100.0
 42
100.0
 43
100.0
 50
270.0
  0
INSERT
  5
1A396
330
1990A
100
AcDbEntity
  8
寸法
 62
     0
 48
50.0
370
    -2
100
AcDbBlockReference
  2
_DOTSMALL
 10
7888.324942694
 20
2137.505395881099
 30
0.0
 41
100.0
 42
100.0
 43
100.0
 50
90.0
  0
MTEXT
  5
1A397
330
1990A
100
AcDbEntity
  8
寸法
 62
     7
 48
50.0
100
AcDbMText
 10
7788.324942693998
 20
1831.458151786609
 30
0.0
 40
120.0
 41
0.0
 71
     5
 72
     1
  1
\A1;50
  7
STYLE1
 11
0.0000000000000001
 21
1.0
 31
0.0
 73
     1
 44
1.0
1001
ACAD
1000
MTEXTBEGIN
1070
    73
1070
     1
1070
    44
1040
1.0
1070
    74
1070
     0
1000
MTEXTEND
  0
POINT
  5
1A398
330
1990A
100
AcDbEntity
  8
DEFPOINTS
 62
     0
 48
50.0
100
AcDbPoint
 10
8511.977651852296
 20
2187.5053958811
 30
0.0
  0
POINT
  5
1A399
330
1990A
100
AcDbEntity
  8
DEFPOINTS
 62
     0
 48
50.0
100
AcDbPoint
 10
8456.977651852296
 20
2137.505395881099
 30
0.0
  0
POINT
  5
1A39A
330
1990A
100
AcDbEntity
  8
DEFPOINTS
 62
     0
 48
50.0
100
AcDbPoint
 10
7888.324942694
 20
2137.505395881099
 30
0.0
  0
ENDBLK
  5
19917
330
1990A
100
AcDbEntity
  8
0
 48
50.0
100
AcDbBlockEnd
  0
BLOCK
  5
19923
330
19918
100
AcDbEntity
  8
0
 48
50.0
100
AcDbBlockBegin
  2
*D24
 70
     1
 10
0.0
 20
0.0
 30
0.0
  3
*D24
  1

  0
LINE
  5
1A386
330
19918
100
AcDbEntity
  8
寸法
 62
     0
 48
50.0
370
    -2
100
AcDbLine
 10
8436.977651852295
 20
2137.505395881099
 30
0.0
 11
7543.338269922938
 21
2137.505395881099
 31
0.0
  0
LINE
  5
1A387
330
19918
100
AcDbEntity
  8
寸法
 62
     0
 48
50.0
370
    -2
100
AcDbLine
 10
7868.324942693998
 20
2037.505395881099
 30
0.0
 11
7543.338269922937
 21
2037.5053958811
 31
0.0
  0
LINE
  5
1A388
330
19918
100
AcDbEntity
  8
寸法
 62
     0
 48
50.0
370
    -2
100
AcDbLine
 10
7603.338269922938
 20
2137.505395881099
 30
0.0
 11
7603.338269922936
 21
2037.5053958811
 31
0.0
  0
LINE
  5
1A389
330
19918
100
AcDbEntity
  8
寸法
 62
     0
 48
50.0
370
    -2
100
AcDbLine
 10
7603.338269922936
 20
2037.5053958811
 30
0.0
 11
7603.338269922936
 21
1665.41090769212
 31
0.0
  0
INSERT
  5
1A38A
330
19918
100
AcDbEntity
  8
寸法
 62
     0
 48
50.0
370
    -2
100
AcDbBlockReference
  2
_DOTSMALL
 10
7603.338269922938
 20
2137.505395881099
 30
0.0
 41
100.0
 42
100.0
 43
100.0
 50
90.0
  0
INSERT
  5
1A38B
330
19918
100
AcDbEntity
  8
寸法
 62
     0
 48
50.0
370
    -2
100
AcDbBlockReference
  2
_DOTSMALL
 10
7603.338269922936
 20
2037.5053958811
 30
0.0
 41
100.0
 42
100.0
 43
100.0
 50
270.0
  0
MTEXT
  5
1A38C
330
19918
100
AcDbEntity
  8
寸法
 62
     7
 48
50.0
100
AcDbMText
 10
7503.338269922936
 20
1801.458151786609
 30
0.0
 40
120.0
 41
0.0
 71
     5
 72
     1
  1
\A1;100
  7
STYLE1
 11
0.0000000000000001
 21
1.0
 31
0.0
 73
     1
 44
1.0
1001
ACAD
1000
MTEXTBEGIN
1070
    73
1070
     1
1070
    44
1040
1.0
1070
    74
1070
     0
1000
MTEXTEND
  0
POINT
  5
1A38D
330
19918
100
AcDbEntity
  8
DEFPOINTS
 62
     0
 48
50.0
100
AcDbPoint
 10
8456.977651852296
 20
2137.505395881099
 30
0.0
  0
POINT
  5
1A38E
330
19918
100
AcDbEntity
  8
DEFPOINTS
 62
     0
 48
50.0
100
AcDbPoint
 10
7888.324942693998
 20
2037.505395881099
 30
0.0
  0
POINT
  5
1A38F
330
19918
100
AcDbEntity
  8
DEFPOINTS
 62
     0
 48
50.0
100
AcDbPoint
 10
7603.338269922936
 20
2037.5053958811
 30
0.0
  0
ENDBLK
  5
19924
330
19918
100
AcDbEntity
  8
0
 48
50.0
100
AcDbBlockEnd
  0
BLOCK
  5
19DF9
330
19DEF
100
AcDbEntity
  8
0
 48
50.0
100
AcDbBlockBegin
  2
*D25
 70
     1
 10
0.0
 20
0.0
 30
0.0
  3
*D25
  1

  0
LINE
  5
1A369
330
19DEF
100
AcDbEntity
  8
寸法
 62
     0
 48
50.0
370
    -2
100
AcDbLine
 10
4107.38062251504
 20
1837.505395881099
 30
0.0
 11
3917.880619268403
 21
1837.505395881099
 31
0.0
  0
LINE
  5
1A36A
330
19DEF
100
AcDbEntity
  8
寸法
 62
     0
 48
50.0
370
    -2
100
AcDbLine
 10
4082.380622515037
 20
2037.505395881099
 30
0.0
 11
3917.880619268403
 21
2037.505395881099
 31
0.0
  0
LINE
  5
1A36B
330
19DEF
100
AcDbEntity
  8
寸法
 62
     0
 48
50.0
370
    -2
100
AcDbLine
 10
3977.880619268403
 20
1837.505395881099
 30
0.0
 11
3977.880619268403
 21
2037.505395881099
 31
0.0
  0
INSERT
  5
1A36C
330
19DEF
100
AcDbEntity
  8
寸法
 62
     0
 48
50.0
370
    -2
100
AcDbBlockReference
  2
_DOTSMALL
 10
3977.880619268403
 20
1837.505395881099
 30
0.0
 41
100.0
 42
100.0
 43
100.0
 50
270.0
  0
INSERT
  5
1A36D
330
19DEF
100
AcDbEntity
  8
寸法
 62
     0
 48
50.0
370
    -2
100
AcDbBlockReference
  2
_DOTSMALL
 10
3977.880619268403
 20
2037.505395881099
 30
0.0
 41
100.0
 42
100.0
 43
100.0
 50
90.0
  0
MTEXT
  5
1A36E
330
19DEF
100
AcDbEntity
  8
寸法
 62
     7
 48
50.0
100
AcDbMText
 10
3877.86880824478
 20
1937.5053958811
 30
0.0
 40
120.0
 41
0.0
 71
     5
 72
     1
  1
\A1;200
  7
STYLE1
 11
0.0000000000000001
 21
1.0
 31
0.0
 73
     1
 44
1.0
1001
ACAD
1000
MTEXTBEGIN
1070
    73
1070
     1
1070
    44
1040
1.0
1070
    74
1070
     0
1000
MTEXTEND
  0
POINT
  5
1A36F
330
19DEF
100
AcDbEntity
  8
DEFPOINTS
 62
     0
 48
50.0
100
AcDbPoint
 10
4127.38062251504
 20
1837.505395881099
 30
0.0
  0
POINT
  5
1A370
330
19DEF
100
AcDbEntity
  8
DEFPOINTS
 62
     0
 48
50.0
100
AcDbPoint
 10
4102.380622515036
 20
2037.505395881099
 30
0.0
  0
POINT
  5
1A371
330
19DEF
100
AcDbEntity
  8
DEFPOINTS
 62
     0
 48
50.0
100
AcDbPoint
 10
3977.880619268403
 20
2037.505395881099
 30
0.0
  0
ENDBLK
  5
19DFA
330
19DEF
100
AcDbEntity
  8
0
 48
50.0
100
AcDbBlockEnd
  0
BLOCK
  5
19E05
330
19DFB
100
AcDbEntity
  8
0
 48
50.0
100
AcDbBlockBegin
  2
*D26
 70
     1
 10
0.0
 20
0.0
 30
0.0
  3
*D26
  1

  0
LINE
  5
1A360
330
19DFB
100
AcDbEntity
  8
寸法
 62
     0
 48
50.0
370
    -2
100
AcDbLine
 10
4327.380622515036
 20
1817.505395881098
 30
0.0
 11
4327.380622515036
 21
1491.458066580721
 31
0.0
  0
LINE
  5
1A361
330
19DFB
100
AcDbEntity
  8
寸法
 62
     0
 48
50.0
370
    -2
100
AcDbLine
 10
4127.38062251504
 20
1817.505395881099
 30
0.0
 11
4127.38062251504
 21
1491.458066580721
 31
0.0
  0
LINE
  5
1A362
330
19DFB
100
AcDbEntity
  8
寸法
 62
     0
 48
50.0
370
    -2
100
AcDbLine
 10
4327.380622515036
 20
1551.458066580721
 30
0.0
 11
4127.38062251504
 21
1551.458066580721
 31
0.0
  0
INSERT
  5
1A363
330
19DFB
100
AcDbEntity
  8
寸法
 62
     0
 48
50.0
370
    -2
100
AcDbBlockReference
  2
_DOTSMALL
 10
4327.380622515036
 20
1551.458066580721
 30
0.0
 41
100.0
 42
100.0
 43
100.0
  0
INSERT
  5
1A364
330
19DFB
100
AcDbEntity
  8
寸法
 62
     0
 48
50.0
370
    -2
100
AcDbBlockReference
  2
_DOTSMALL
 10
4127.38062251504
 20
1551.458066580721
 30
0.0
 41
100.0
 42
100.0
 43
100.0
 50
180.0
  0
MTEXT
  5
1A365
330
19DFB
100
AcDbEntity
  8
寸法
 62
     7
 48
50.0
100
AcDbMText
 10
4227.380622515038
 20
1651.469877604344
 30
0.0
 40
120.0
 41
0.0
 71
     5
 72
     1
  1
\A1;200
  7
STYLE1
 73
     1
 44
1.0
1001
ACAD
1000
MTEXTBEGIN
1070
    73
1070
     1
1070
    44
1040
1.0
1070
    74
1070
     0
1000
MTEXTEND
  0
POINT
  5
1A366
330
19DFB
100
AcDbEntity
  8
DEFPOINTS
 62
     0
 48
50.0
100
AcDbPoint
 10
4327.380622515036
 20
1837.505395881098
 30
0.0
  0
POINT
  5
1A367
330
19DFB
100
AcDbEntity
  8
DEFPOINTS
 62
     0
 48
50.0
100
AcDbPoint
 10
4127.38062251504
 20
1837.505395881099
 30
0.0
  0
POINT
  5
1A368
330
19DFB
100
AcDbEntity
  8
DEFPOINTS
 62
     0
 48
50.0
100
AcDbPoint
 10
4127.38062251504
 20
1551.458066580721
 30
0.0
  0
ENDBLK
  5
19E06
330
19DFB
100
AcDbEntity
  8
0
 48
50.0
100
AcDbBlockEnd
  0
BLOCK
  5
19E11
330
19E07
100
AcDbEntity
  8
0
 48
50.0
100
AcDbBlockBegin
  2
*D27
 70
     1
 10
0.0
 20
0.0
 30
0.0
  3
*D27
  1

  0
LINE
  5
1A357
330
19E07
100
AcDbEntity
  8
寸法
 62
     0
 48
50.0
370
    -2
100
AcDbLine
 10
4149.880622515037
 20
4232.505395881104
 30
0.0
 11
4149.880622515037
 21
4886.719529729822
 31
0.0
  0
LINE
  5
1A358
330
19E07
100
AcDbEntity
  8
寸法
 62
     0
 48
50.0
370
    -2
100
AcDbLine
 10
6459.88062251504
 20
4232.5053958811
 30
0.0
 11
6459.88062251504
 21
4886.719529729822
 31
0.0
  0
LINE
  5
1A359
330
19E07
100
AcDbEntity
  8
寸法
 62
     0
 48
50.0
370
    -2
100
AcDbLine
 10
4149.880622515037
 20
4826.719529729821
 30
0.0
 11
6459.88062251504
 21
4826.719529729821
 31
0.0
  0
INSERT
  5
1A35A
330
19E07
100
AcDbEntity
  8
寸法
 62
     0
 48
50.0
370
    -2
100
AcDbBlockReference
  2
_DOTSMALL
 10
4149.880622515037
 20
4826.719529729821
 30
0.0
 41
100.0
 42
100.0
 43
100.0
 50
180.0
  0
INSERT
  5
1A35B
330
19E07
100
AcDbEntity
  8
寸法
 62
     0
 48
50.0
370
    -2
100
AcDbBlockReference
  2
_DOTSMALL
 10
6459.88062251504
 20
4826.719529729821
 30
0.0
 41
100.0
 42
100.0
 43
100.0
  0
MTEXT
  5
1A35C
330
19E07
100
AcDbEntity
  8
寸法
 62
     7
 48
50.0
100
AcDbMText
 10
5304.880622515036
 20
4926.731340753443
 30
0.0
 40
120.0
 41
0.0
 71
     5
 72
     1
  1
\A1;2310
  7
STYLE1
 73
     1
 44
1.0
1001
ACAD
1000
MTEXTBEGIN
1070
    73
1070
     1
1070
    44
1040
1.0
1070
    74
1070
     0
1000
MTEXTEND
  0
POINT
  5
1A35D
330
19E07
100
AcDbEntity
  8
DEFPOINTS
 62
     0
 48
50.0
100
AcDbPoint
 10
4149.880622515037
 20
4212.505395881104
 30
0.0
  0
POINT
  5
1A35E
330
19E07
100
AcDbEntity
  8
DEFPOINTS
 62
     0
 48
50.0
100
AcDbPoint
 10
6459.88062251504
 20
4212.505395881101
 30
0.0
  0
POINT
  5
1A35F
330
19E07
100
AcDbEntity
  8
DEFPOINTS
 62
     0
 48
50.0
100
AcDbPoint
 10
6459.88062251504
 20
4826.719529729821
 30
0.0
  0
ENDBLK
  5
19E12
330
19E07
100
AcDbEntity
  8
0
 48
50.0
100
AcDbBlockEnd
  0
BLOCK
  5
19E1F
330
19E13
100
AcDbEntity
  8
0
 48
50.0
100
AcDbBlockBegin
  2
*D28
 70
     1
 10
0.0
 20
0.0
 30
0.0
  3
*D28
  1

  0
LINE
  5
1A34C
330
19E13
100
AcDbEntity
  8
寸法
 62
     0
 48
50.0
370
    -2
100
AcDbLine
 10
4199.880622515037
 20
4232.505395881104
 30
0.0
 11
4199.880622515037
 21
4677.12565530837
 31
0.0
  0
LINE
  5
1A34D
330
19E13
100
AcDbEntity
  8
寸法
 62
     0
 48
50.0
370
    -2
100
AcDbLine
 10
4149.880622515037
 20
4232.505395881104
 30
0.0
 11
4149.880622515037
 21
4677.12565530837
 31
0.0
  0
LINE
  5
1A34E
330
19E13
100
AcDbEntity
  8
寸法
 62
     0
 48
50.0
370
    -2
100
AcDbLine
 10
4199.880622515037
 20
4617.125655308369
 30
0.0
 11
4299.880622515036
 21
4617.125655308369
 31
0.0
  0
LINE
  5
1A34F
330
19E13
100
AcDbEntity
  8
寸法
 62
     0
 48
50.0
370
    -2
100
AcDbLine
 10
4149.880622515037
 20
4617.125655308369
 30
0.0
 11
3730.348097046301
 21
4617.125655308369
 31
0.0
  0
LINE
  5
1A350
330
19E13
100
AcDbEntity
  8
寸法
 62
     0
 48
50.0
370
    -2
100
AcDbLine
 10
4199.880622515037
 20
4617.125655308369
 30
0.0
 11
4149.880622515037
 21
4617.125655308369
 31
0.0
  0
INSERT
  5
1A351
330
19E13
100
AcDbEntity
  8
寸法
 62
     0
 48
50.0
370
    -2
100
AcDbBlockReference
  2
_DOTSMALL
 10
4199.880622515037
 20
4617.125655308369
 30
0.0
 41
100.0
 42
100.0
 43
100.0
 50
180.0
  0
INSERT
  5
1A352
330
19E13
100
AcDbEntity
  8
寸法
 62
     0
 48
50.0
370
    -2
100
AcDbBlockReference
  2
_DOTSMALL
 10
4149.880622515037
 20
4617.125655308369
 30
0.0
 41
100.0
 42
100.0
 43
100.0
  0
MTEXT
  5
1A353
330
19E13
100
AcDbEntity
  8
寸法
 62
     7
 48
50.0
100
AcDbMText
 10
3836.395341140789
 20
4717.12565530837
 30
0.0
 40
120.0
 41
0.0
 71
     5
 72
     1
  1
\A1;50
  7
STYLE1
 73
     1
 44
1.0
1001
ACAD
1000
MTEXTBEGIN
1070
    73
1070
     1
1070
    44
1040
1.0
1070
    74
1070
     0
1000
MTEXTEND
  0
POINT
  5
1A354
330
19E13
100
AcDbEntity
  8
DEFPOINTS
 62
     0
 48
50.0
100
AcDbPoint
 10
4199.880622515037
 20
4212.505395881104
 30
0.0
  0
POINT
  5
1A355
330
19E13
100
AcDbEntity
  8
DEFPOINTS
 62
     0
 48
50.0
100
AcDbPoint
 10
4149.880622515037
 20
4212.505395881104
 30
0.0
  0
POINT
  5
1A356
330
19E13
100
AcDbEntity
  8
DEFPOINTS
 62
     0
 48
50.0
100
AcDbPoint
 10
4149.880622515037
 20
4617.125655308369
 30
0.0
  0
ENDBLK
  5
19E20
330
19E13
100
AcDbEntity
  8
0
 48
50.0
100
AcDbBlockEnd
  0
BLOCK
  5
19E2B
330
19E21
100
AcDbEntity
  8
0
 48
50.0
100
AcDbBlockBegin
  2
*D29
 70
     1
 10
0.0
 20
0.0
 30
0.0
  3
*D29
  1

  0
LINE
  5
1A343
330
19E21
100
AcDbEntity
  8
寸法
 62
     0
 48
50.0
370
    -2
100
AcDbLine
 10
6409.880622515039
 20
4232.505395881104
 30
0.0
 11
6409.880622515039
 21
4677.12565530837
 31
0.0
  0
LINE
  5
1A344
330
19E21
100
AcDbEntity
  8
寸法
 62
     0
 48
50.0
370
    -2
100
AcDbLine
 10
4199.880622515037
 20
4232.505395881104
 30
0.0
 11
4199.880622515037
 21
4677.12565530837
 31
0.0
  0
LINE
  5
1A345
330
19E21
100
AcDbEntity
  8
寸法
 62
     0
 48
50.0
370
    -2
100
AcDbLine
 10
6409.880622515039
 20
4617.125655308369
 30
0.0
 11
4199.880622515037
 21
4617.125655308369
 31
0.0
  0
INSERT
  5
1A346
330
19E21
100
AcDbEntity
  8
寸法
 62
     0
 48
50.0
370
    -2
100
AcDbBlockReference
  2
_DOTSMALL
 10
6409.880622515039
 20
4617.125655308369
 30
0.0
 41
100.0
 42
100.0
 43
100.0
  0
INSERT
  5
1A347
330
19E21
100
AcDbEntity
  8
寸法
 62
     0
 48
50.0
370
    -2
100
AcDbBlockReference
  2
_DOTSMALL
 10
4199.880622515037
 20
4617.125655308369
 30
0.0
 41
100.0
 42
100.0
 43
100.0
 50
180.0
  0
MTEXT
  5
1A348
330
19E21
100
AcDbEntity
  8
寸法
 62
     7
 48
50.0
100
AcDbMText
 10
5304.880622515036
 20
4717.137466331992
 30
0.0
 40
120.0
 41
0.0
 71
     5
 72
     1
  1
\A1;柱外寸法2210
  7
STYLE1
 73
     1
 44
1.0
1001
ACAD
1000
MTEXTBEGIN
1070
    73
1070
     1
1070
    44
1040
1.0
1070
    74
1070
     0
1000
MTEXTEND
  0
POINT
  5
1A349
330
19E21
100
AcDbEntity
  8
DEFPOINTS
 62
     0
 48
50.0
100
AcDbPoint
 10
6409.880622515039
 20
4212.505395881104
 30
0.0
  0
POINT
  5
1A34A
330
19E21
100
AcDbEntity
  8
DEFPOINTS
 62
     0
 48
50.0
100
AcDbPoint
 10
4199.880622515037
 20
4212.505395881104
 30
0.0
  0
POINT
  5
1A34B
330
19E21
100
AcDbEntity
  8
DEFPOINTS
 62
     0
 48
50.0
100
AcDbPoint
 10
4199.880622515037
 20
4617.125655308369
 30
0.0
  0
ENDBLK
  5
19E2C
330
19E21
100
AcDbEntity
  8
0
 48
50.0
100
AcDbBlockEnd
  0
BLOCK
  5
19E39
330
19E2D
100
AcDbEntity
  8
0
 48
50.0
100
AcDbBlockBegin
  2
*D30
 70
     1
 10
0.0
 20
0.0
 30
0.0
  3
*D30
  1

  0
LINE
  5
1A338
330
19E2D
100
AcDbEntity
  8
寸法
 62
     0
 48
50.0
370
    -2
100
AcDbLine
 10
6459.88062251504
 20
4232.5053958811
 30
0.0
 11
6459.88062251504
 21
4677.12565530837
 31
0.0
  0
LINE
  5
1A339
330
19E2D
100
AcDbEntity
  8
寸法
 62
     0
 48
50.0
370
    -2
100
AcDbLine
 10
6409.880622515039
 20
4232.505395881104
 30
0.0
 11
6409.880622515039
 21
4677.12565530837
 31
0.0
  0
LINE
  5
1A33A
330
19E2D
100
AcDbEntity
  8
寸法
 62
     0
 48
50.0
370
    -2
100
AcDbLine
 10
6409.880622515039
 20
4617.125655308369
 30
0.0
 11
6309.880622515041
 21
4617.125655308369
 31
0.0
  0
LINE
  5
1A33B
330
19E2D
100
AcDbEntity
  8
寸法
 62
     0
 48
50.0
370
    -2
100
AcDbLine
 10
6459.88062251504
 20
4617.125655308369
 30
0.0
 11
6879.41314798376
 21
4617.125655308369
 31
0.0
  0
LINE
  5
1A33C
330
19E2D
100
AcDbEntity
  8
寸法
 62
     0
 48
50.0
370
    -2
100
AcDbLine
 10
6409.880622515039
 20
4617.125655308369
 30
0.0
 11
6459.88062251504
 21
4617.125655308369
 31
0.0
  0
INSERT
  5
1A33D
330
19E2D
100
AcDbEntity
  8
寸法
 62
     0
 48
50.0
370
    -2
100
AcDbBlockReference
  2
_DOTSMALL
 10
6409.880622515039
 20
4617.125655308369
 30
0.0
 41
100.0
 42
100.0
 43
100.0
  0
INSERT
  5
1A33E
330
19E2D
100
AcDbEntity
  8
寸法
 62
     0
 48
50.0
370
    -2
100
AcDbBlockReference
  2
_DOTSMALL
 10
6459.88062251504
 20
4617.125655308369
 30
0.0
 41
100.0
 42
100.0
 43
100.0
 50
180.0
  0
MTEXT
  5
1A33F
330
19E2D
100
AcDbEntity
  8
寸法
 62
     7
 48
50.0
100
AcDbMText
 10
6773.365903889272
 20
4717.12565530837
 30
0.0
 40
120.0
 41
0.0
 71
     5
 72
     1
  1
\A1;50
  7
STYLE1
 73
     1
 44
1.0
1001
ACAD
1000
MTEXTBEGIN
1070
    73
1070
     1
1070
    44
1040
1.0
1070
    74
1070
     0
1000
MTEXTEND
  0
POINT
  5
1A340
330
19E2D
100
AcDbEntity
  8
DEFPOINTS
 62
     0
 48
50.0
100
AcDbPoint
 10
6459.88062251504
 20
4212.505395881101
 30
0.0
  0
POINT
  5
1A341
330
19E2D
100
AcDbEntity
  8
DEFPOINTS
 62
     0
 48
50.0
100
AcDbPoint
 10
6409.880622515039
 20
4212.505395881104
 30
0.0
  0
POINT
  5
1A342
330
19E2D
100
AcDbEntity
  8
DEFPOINTS
 62
     0
 48
50.0
100
AcDbPoint
 10
6409.880622515039
 20
4617.125655308369
 30
0.0
  0
ENDBLK
  5
19E3A
330
19E2D
100
AcDbEntity
  8
0
 48
50.0
100
AcDbBlockEnd
  0
BLOCK
  5
1A61E
330
1A614
100
AcDbEntity
  8
0
 48
50.0
100
AcDbBlockBegin
  2
*D31
 70
     1
 10
0.0
 20
0.0
 30
0.0
  3
*D31
  1

  0
LINE
  5
1AACD
330
1A614
100
AcDbEntity
  8
寸法
 62
     0
 48
50.0
370
    -2
100
AcDbLine
 10
8998.977651852257
 20
7183.478983118419
 30
0.0
 11
8998.977651852257
 21
6513.869364594794
 31
0.0
  0
LINE
  5
1AACE
330
1A614
100
AcDbEntity
  8
寸法
 62
     0
 48
50.0
370
    -2
100
AcDbLine
 10
10264.97765185226
 20
7183.478983118419
 30
0.0
 11
10264.97765185226
 21
6513.869364594794
 31
0.0
  0
LINE
  5
1AACF
330
1A614
100
AcDbEntity
  8
寸法
 62
     0
 48
50.0
370
    -2
100
AcDbLine
 10
9018.977651852258
 20
6553.869364594793
 30
0.0
 11
10244.97765185226
 21
6553.869364594793
 31
0.0
  0
INSERT
  5
1AAD0
330
1A614
100
AcDbEntity
  8
寸法
 62
     0
 48
50.0
370
    -2
100
AcDbBlockReference
  2
_DOT
 10
8998.977651852257
 20
6553.869364594793
 30
0.0
 41
20.0
 42
20.0
 43
20.0
 50
180.0
  0
INSERT
  5
1AAD1
330
1A614
100
AcDbEntity
  8
寸法
 62
     0
 48
50.0
370
    -2
100
AcDbBlockReference
  2
_DOT
 10
10264.97765185226
 20
6553.869364594793
 30
0.0
 41
20.0
 42
20.0
 43
20.0
  0
MTEXT
  5
1AAD2
330
1A614
100
AcDbEntity
  8
寸法
 62
     7
 48
50.0
100
AcDbMText
 10
9654.373266026844
 20
6745.881175618414
 30
0.0
 40
120.0
 41
0.0
 71
     5
 72
     1
  1
\A1;有効開口部間口\P1266
  7
STYLE1
 73
     1
 44
1.0
1001
ACAD
1000
MTEXTBEGIN
1070
    73
1070
     1
1070
    44
1040
1.0
1070
    74
1070
     0
1000
MTEXTEND
  0
POINT
  5
1AAD3
330
1A614
100
AcDbEntity
  8
DEFPOINTS
 62
     0
 48
50.0
100
AcDbPoint
 10
8998.977651852257
 20
7203.478983118419
 30
0.0
  0
POINT
  5
1AAD4
330
1A614
100
AcDbEntity
  8
DEFPOINTS
 62
     0
 48
50.0
100
AcDbPoint
 10
10264.97765185226
 20
7203.478983118419
 30
0.0
  0
POINT
  5
1AAD5
330
1A614
100
AcDbEntity
  8
DEFPOINTS
 62
     0
 48
50.0
100
AcDbPoint
 10
10264.97765185226
 20
6553.869364594793
 30
0.0
  0
ENDBLK
  5
1A61F
330
1A614
100
AcDbEntity
  8
0
 48
50.0
100
AcDbBlockEnd
  0
BLOCK
  5
1A965
330
1A959
100
AcDbEntity
  8
0
 48
50.0
100
AcDbBlockBegin
  2
*D32
 70
     1
 10
0.0
 20
0.0
 30
0.0
  3
*D32
  1

  0
LINE
  5
1AAC2
330
1A959
100
AcDbEntity
  8
寸法
 62
     0
 48
50.0
370
    -2
100
AcDbLine
 10
8491.977651852284
 20
7280.478983118387
 30
0.0
 11
8177.366406225566
 21
7280.478983118387
 31
0.0
  0
LINE
  5
1AAC3
330
1A959
100
AcDbEntity
  8
寸法
 62
     0
 48
50.0
370
    -2
100
AcDbLine
 10
8939.977651852258
 20
7205.478983118386
 30
0.0
 11
8177.366406225566
 21
7205.478983118386
 31
0.0
  0
LINE
  5
1AAC4
330
1A959
100
AcDbEntity
  8
寸法
 62
     0
 48
50.0
370
    -2
100
AcDbLine
 10
8217.366406225567
 20
7300.478983118385
 30
0.0
 11
8217.366406225567
 21
7320.478983118386
 31
0.0
  0
LINE
  5
1AAC5
330
1A959
100
AcDbEntity
  8
寸法
 62
     0
 48
50.0
370
    -2
100
AcDbLine
 10
8217.366406225567
 20
7185.478983118386
 30
0.0
 11
8217.366406225567
 21
6964.508420369909
 31
0.0
  0
LINE
  5
1AAC6
330
1A959
100
AcDbEntity
  8
寸法
 62
     0
 48
50.0
370
    -2
100
AcDbLine
 10
8217.366406225567
 20
7280.478983118387
 30
0.0
 11
8217.366406225567
 21
7205.478983118386
 31
0.0
  0
INSERT
  5
1AAC7
330
1A959
100
AcDbEntity
  8
寸法
 62
     0
 48
50.0
370
    -2
100
AcDbBlockReference
  2
_DOT
 10
8217.366406225567
 20
7280.478983118387
 30
0.0
 41
20.0
 42
20.0
 43
20.0
 50
270.0
  0
INSERT
  5
1AAC8
330
1A959
100
AcDbEntity
  8
寸法
 62
     0
 48
50.0
370
    -2
100
AcDbBlockReference
  2
_DOT
 10
8217.366406225567
 20
7205.478983118386
 30
0.0
 41
20.0
 42
20.0
 43
20.0
 50
90.0
  0
MTEXT
  5
1AAC9
330
1A959
100
AcDbEntity
  8
寸法
 62
     7
 48
50.0
100
AcDbMText
 10
8125.366406225564
 20
7064.993701744149
 30
0.0
 40
120.0
 41
0.0
 71
     5
 72
     1
  1
\A1;75
  7
STYLE1
 11
0.0000000000000001
 21
1.0
 31
0.0
 73
     1
 44
1.0
1001
ACAD
1000
MTEXTBEGIN
1070
    73
1070
     1
1070
    44
1040
1.0
1070
    74
1070
     0
1000
MTEXTEND
  0
POINT
  5
1AACA
330
1A959
100
AcDbEntity
  8
DEFPOINTS
 62
     0
 48
50.0
100
AcDbPoint
 10
8511.977651852282
 20
7280.478983118387
 30
0.0
  0
POINT
  5
1AACB
330
1A959
100
AcDbEntity
  8
DEFPOINTS
 62
     0
 48
50.0
100
AcDbPoint
 10
8959.977651852257
 20
7205.478983118386
 30
0.0
  0
POINT
  5
1AACC
330
1A959
100
AcDbEntity
  8
DEFPOINTS
 62
     0
 48
50.0
100
AcDbPoint
 10
8217.366406225567
 20
7205.478983118386
 30
0.0
  0
ENDBLK
  5
1A966
330
1A959
100
AcDbEntity
  8
0
 48
50.0
100
AcDbBlockEnd
  0
BLOCK
  5
1A971
330
1A967
100
AcDbEntity
  8
0
 48
50.0
100
AcDbBlockBegin
  2
*D33
 70
     1
 10
0.0
 20
0.0
 30
0.0
  3
*D33
  1

  0
LINE
  5
1AAB9
330
1A967
100
AcDbEntity
  8
寸法
 62
     0
 48
50.0
370
    -2
100
AcDbLine
 10
8959.977651852261
 20
7183.478983118419
 30
0.0
 11
8959.977651852261
 21
6223.34926769065
 31
0.0
  0
LINE
  5
1AABA
330
1A967
100
AcDbEntity
  8
寸法
 62
     0
 48
50.0
370
    -2
100
AcDbLine
 10
11113.97765185226
 20
7183.478983118419
 30
0.0
 11
11113.97765185226
 21
6223.34926769065
 31
0.0
  0
LINE
  5
1AABB
330
1A967
100
AcDbEntity
  8
寸法
 62
     0
 48
50.0
370
    -2
100
AcDbLine
 10
8959.977651852261
 20
6283.349267690651
 30
0.0
 11
11113.97765185226
 21
6283.349267690651
 31
0.0
  0
INSERT
  5
1AABC
330
1A967
100
AcDbEntity
  8
寸法
 62
     0
 48
50.0
370
    -2
100
AcDbBlockReference
  2
_DOTSMALL
 10
8959.977651852261
 20
6283.349267690651
 30
0.0
 41
100.0
 42
100.0
 43
100.0
 50
180.0
  0
INSERT
  5
1AABD
330
1A967
100
AcDbEntity
  8
寸法
 62
     0
 48
50.0
370
    -2
100
AcDbBlockReference
  2
_DOTSMALL
 10
11113.97765185226
 20
6283.349267690651
 30
0.0
 41
100.0
 42
100.0
 43
100.0
  0
MTEXT
  5
1AABE
330
1A967
100
AcDbEntity
  8
寸法
 62
     7
 48
50.0
100
AcDbMText
 10
10059.11040859957
 20
6383.361078714273
 30
0.0
 40
120.0
 41
0.0
 71
     5
 72
     1
  1
\A1;2154
  7
STYLE1
 73
     1
 44
1.0
1001
ACAD
1000
MTEXTBEGIN
1070
    73
1070
     1
1070
    44
1040
1.0
1070
    74
1070
     0
1000
MTEXTEND
  0
POINT
  5
1AABF
330
1A967
100
AcDbEntity
  8
DEFPOINTS
 62
     0
 48
50.0
100
AcDbPoint
 10
8959.977651852261
 20
7203.478983118419
 30
0.0
  0
POINT
  5
1AAC0
330
1A967
100
AcDbEntity
  8
DEFPOINTS
 62
     0
 48
50.0
100
AcDbPoint
 10
11113.97765185226
 20
7203.478983118419
 30
0.0
  0
POINT
  5
1AAC1
330
1A967
100
AcDbEntity
  8
DEFPOINTS
 62
     0
 48
50.0
100
AcDbPoint
 10
11113.97765185226
 20
6283.349267690651
 30
0.0
  0
ENDBLK
  5
1A972
330
1A967
100
AcDbEntity
  8
0
 48
50.0
100
AcDbBlockEnd
  0
BLOCK
  5
1A9EF
330
1A9E5
100
AcDbEntity
  8
0
 48
50.0
100
AcDbBlockBegin
  2
*D34
 70
     1
 10
0.0
 20
0.0
 30
0.0
  3
*D34
  1

  0
LINE
  5
1AAB0
330
1A9E5
100
AcDbEntity
  8
寸法
 62
     0
 48
50.0
370
    -2
100
AcDbLine
 10
8511.977651852282
 20
7260.478983118386
 30
0.0
 11
8511.977651852282
 21
5936.374117564089
 31
0.0
  0
LINE
  5
1AAB1
330
1A9E5
100
AcDbEntity
  8
寸法
 62
     0
 48
50.0
370
    -2
100
AcDbLine
 10
11561.97765185226
 20
7260.47898311855
 30
0.0
 11
11561.97765185226
 21
5936.374117564089
 31
0.0
  0
LINE
  5
1AAB2
330
1A9E5
100
AcDbEntity
  8
寸法
 62
     0
 48
50.0
370
    -2
100
AcDbLine
 10
8511.977651852282
 20
5996.37411756409
 30
0.0
 11
11561.97765185226
 21
5996.37411756409
 31
0.0
  0
INSERT
  5
1AAB3
330
1A9E5
100
AcDbEntity
  8
寸法
 62
     0
 48
50.0
370
    -2
100
AcDbBlockReference
  2
_DOTSMALL
 10
8511.977651852282
 20
5996.37411756409
 30
0.0
 41
100.0
 42
100.0
 43
100.0
 50
180.0
  0
INSERT
  5
1AAB4
330
1A9E5
100
AcDbEntity
  8
寸法
 62
     0
 48
50.0
370
    -2
100
AcDbBlockReference
  2
_DOTSMALL
 10
11561.97765185226
 20
5996.37411756409
 30
0.0
 41
100.0
 42
100.0
 43
100.0
  0
MTEXT
  5
1AAB5
330
1A9E5
100
AcDbEntity
  8
寸法
 62
     7
 48
50.0
100
AcDbMText
 10
10056.69348222621
 20
6096.374117564089
 30
0.0
 40
120.0
 41
0.0
 71
     5
 72
     1
  1
\A1;3050
  7
STYLE1
 73
     1
 44
1.0
1001
ACAD
1000
MTEXTBEGIN
1070
    73
1070
     1
1070
    44
1040
1.0
1070
    74
1070
     0
1000
MTEXTEND
  0
POINT
  5
1AAB6
330
1A9E5
100
AcDbEntity
  8
DEFPOINTS
 62
     0
 48
50.0
100
AcDbPoint
 10
8511.977651852282
 20
7280.478983118387
 30
0.0
  0
POINT
  5
1AAB7
330
1A9E5
100
AcDbEntity
  8
DEFPOINTS
 62
     0
 48
50.0
100
AcDbPoint
 10
11561.97765185226
 20
7280.47898311855
 30
0.0
  0
POINT
  5
1AAB8
330
1A9E5
100
AcDbEntity
  8
DEFPOINTS
 62
     0
 48
50.0
100
AcDbPoint
 10
11561.97765185226
 20
5996.37411756409
 30
0.0
  0
ENDBLK
  5
1A9F0
330
1A9E5
100
AcDbEntity
  8
0
 48
50.0
100
AcDbBlockEnd
  0
ENDSEC
  0
SECTION
  2
ENTITIES
  0
LINE
  5
10B57
330
747D
100
AcDbEntity
  8
補助
  6
PHANTOM
 62
   230
 48
50.0
100
AcDbLine
 10
139.9999999999995
 20
11409.6
 30
0.0
 11
16307.2
 21
11409.6
 31
0.0
  0
LINE
  5
10B59
330
747D
100
AcDbEntity
  8
仕様書枠
  6
Continuous
 48
50.0
100
AcDbLine
 10
13107.2
 20
1200.0
 30
0.0
 11
13107.2
 21
-0.0000000000000729
 31
0.0
  0
LINE
  5
10B5C
330
747D
100
AcDbEntity
  8
仕様書枠
 48
50.0
100
AcDbLine
 10
16307.2
 20
1200.0
 30
0.0
 11
16307.2
 21
-0.0000000000000909
 31
0.0
  0
LINE
  5
10B5D
330
747D
100
AcDbEntity
  8
仕様書枠
 48
50.0
100
AcDbLine
 10
140.0
 20
0.0
 30
0.0
 11
16307.2
 21
-0.0000000000000909
 31
0.0
  0
LINE
  5
10B5E
330
747D
100
AcDbEntity
  8
補助
  6
PHANTOM
 62
   230
 48
50.0
100
AcDbLine
 10
16307.2
 20
11409.6
 30
0.0
 11
16307.2
 21
1200.0
 31
0.0
  0
LINE
  5
10B6C
330
747D
100
AcDbEntity
  8
仕様書枠
 48
50.0
100
AcDbLine
 10
13107.2
 20
1200.0
 30
0.0
 11
16307.2
 21
1200.0
 31
0.0
  0
LINE
  5
10B6D
330
747D
100
AcDbEntity
  8
補助
  6
PHANTOM
 62
   230
 48
50.0
100
AcDbLine
 10
13107.2
 20
11409.6
 30
0.0
 11
13107.2
 21
4800.0
 31
0.0
  0
LINE
  5
10B6F
330
747D
100
AcDbEntity
  8
補助
  6
PHANTOM
 62
   230
 48
50.0
100
AcDbLine
 10
13107.2
 20
4800.0
 30
0.0
 11
16307.2
 21
4800.0
 31
0.0
  0
LINE
  5
10B72
330
747D
100
AcDbEntity
  8
文字
 62
     7
 48
50.0
100
AcDbLine
 10
13187.2
 20
400.0
 30
0.0
 11
16227.2
 21
400.0
 31
0.0
  0
TEXT
  5
10B73
330
747D
100
AcDbEntity
  8
文字
 62
     7
 48
50.0
100
AcDbText
 10
13162.9790565769
 20
895.0906074299405
 30
0.0
 40
200.0
  1
外 形 図
  7
STYLE2
100
AcDbText
  0
TEXT
  5
10B74
330
747D
100
AcDbEntity
  8
文字
 62
     7
 48
50.0
100
AcDbText
 10
13201.43669998441
 20
477.2740661031255
 30
0.0
 40
160.0
  1
機種名
  7
STYLE2
100
AcDbText
  0
TEXT
  5
10B76
330
747D
100
AcDbEntity
  8
文字
 62
     7
 48
50.0
100
AcDbText
 10
13209.4053442172
 20
76.09434707649343
 30
0.0
 40
100.0
  1
○床面積 ： 6.91㎡(2.09坪) 　
  7
STYLE2
100
AcDbText
  0
TEXT
  5
10B79
330
747D
100
AcDbEntity
  8
文字
 62
     7
 48
50.0
100
AcDbText
 10
14524.131837222
 20
1031.557706291228
 30
0.0
 40
100.0
  1
NO.29     <縮尺> S=1/40
  7
STYLE2
100
AcDbText
  0
LINE
  5
10B7B
330
747D
100
AcDbEntity
  8
仕様書枠
 48
50.0
100
AcDbLine
 10
13107.2
 20
800.0
 30
0.0
 11
14251.2
 21
800.0
 31
0.0
  0
LINE
  5
10B88
330
747D
100
AcDbEntity
  8
仕様書枠
  6
Continuous
 48
50.0
100
AcDbLine
 10
14251.2
 20
1200.0
 30
0.0
 11
14251.2
 21
800.0
 31
0.0
  0
TEXT
  5
15729
330
747D
100
AcDbEntity
  8
文字
 62
     7
 48
50.0
100
AcDbText
 10
14629.37128141949
 20
869.7247441969318
 30
0.0
 40
100.0
  1
～一般型・多雪地型～
  7
STYLE2
100
AcDbText
  0
DIMENSION
  5
194ED
330
747D
100
AcDbEntity
  8
寸法
 48
50.0
100
AcDbDimension
  2
*D2
 10
8411.977651852295
 20
1551.45806658072
 30
0.0
 11
8511.977651852296
 21
1551.45806658072
 31
0.0
 70
   160
 71
     5
 42
200.0000000000018
  3
INABA_S40G
100
AcDbAlignedDimension
 13
8611.977651852297
 23
1837.505395881098
 33
0.0
 14
8411.977651852295
 24
1837.505395881098
 34
0.0
100
AcDbRotatedDimension
  0
LINE
  5
194EE
330
747D
100
AcDbEntity
  8
破線
 48
5.0
100
AcDbLine
 10
8411.977651852295
 20
1837.505395881098
 30
0.0
 11
8611.977651852297
 21
1837.505395881098
 31
0.0
  0
LINE
  5
194EF
330
747D
100
AcDbEntity
  8
破線
 48
5.0
100
AcDbLine
 10
8411.977651852295
 20
2037.505395881099
 30
0.0
 11
8411.977651852295
 21
1837.505395881098
 31
0.0
  0
LINE
  5
194F0
330
747D
100
AcDbEntity
  8
破線
 48
5.0
100
AcDbLine
 10
11661.97765185229
 20
1837.505395881098
 30
0.0
 11
11461.97765185229
 21
1837.505395881098
 31
0.0
  0
LINE
  5
194F1
330
747D
100
AcDbEntity
  8
破線
 48
5.0
100
AcDbLine
 10
8611.977651852296
 20
2037.505395881099
 30
0.0
 11
8611.977651852296
 21
1837.505395881098
 31
0.0
  0
LINE
  5
194F2
330
747D
100
AcDbEntity
  8
破線
 48
5.0
100
AcDbLine
 10
8486.977651852296
 20
1882.505395881098
 30
0.0
 11
8506.977651852297
 21
1882.505395881098
 31
0.0
  0
LINE
  5
194F3
330
747D
100
AcDbEntity
  8
破線
 48
5.0
100
AcDbLine
 10
11461.97765185229
 20
2037.505395881099
 30
0.0
 11
11461.97765185229
 21
1837.505395881098
 31
0.0
  0
LINE
  5
194F4
330
747D
100
AcDbEntity
  8
破線
 48
5.0
100
AcDbLine
 10
11661.97765185229
 20
2037.505395881099
 30
0.0
 11
11661.97765185229
 21
1837.505395881098
 31
0.0
  0
LINE
  5
194F5
330
747D
100
AcDbEntity
  8
部品1
100
AcDbLine
 10
11533.97765185229
 20
7755.478983118561
 30
0.0
 11
11561.97765185229
 21
7755.478983118561
 31
0.0
  0
LINE
  5
194F6
330
747D
100
AcDbEntity
  8
部品1
100
AcDbLine
 10
8539.977651852263
 20
7755.478983118433
 30
0.0
 11
8511.977651852262
 21
7755.478983118433
 31
0.0
  0
LINE
  5
194F7
330
747D
100
AcDbEntity
  8
部品1
100
AcDbLine
 10
11505.47765185227
 20
7755.478983118533
 30
0.0
 11
8568.477651852274
 21
7755.478983118433
 31
0.0
  0
LINE
  5
19591
330
747D
100
AcDbEntity
  8
Ｇ．Ｌ
100
AcDbLine
 10
2959.372110141201
 20
2037.505395881099
 30
0.0
 11
12359.32765664922
 21
2037.505395881099
 31
0.0
  0
TEXT
  5
19592
330
747D
100
AcDbEntity
  8
部品1
100
AcDbText
 10
9769.517722621664
 20
1155.573603685167
 30
0.0
 40
135.0
  1
正面図
  7
STYLE2
100
AcDbText
  0
LINE
  5
19598
330
747D
100
AcDbEntity
  8
部品1
100
AcDbLine
 10
9678.992318883707
 20
1348.46713290369
 30
0.0
 11
9678.992318883707
 21
1108.574811358157
 31
0.0
  0
LINE
  5
19599
330
747D
100
AcDbEntity
  8
部品1
100
AcDbLine
 10
9678.992318883707
 20
1108.574811358157
 30
0.0
 11
10442.46298511214
 21
1108.574811358157
 31
0.0
  0
LINE
  5
1959A
330
747D
100
AcDbEntity
  8
部品1
100
AcDbLine
 10
10442.46298511214
 20
1108.574811358157
 30
0.0
 11
10442.46298511214
 21
1348.46713290369
 31
0.0
  0
LINE
  5
1959B
330
747D
100
AcDbEntity
  8
部品1
100
AcDbLine
 10
10442.46298511214
 20
1348.46713290369
 30
0.0
 11
9678.992318883707
 21
1348.46713290369
 31
0.0
  0
LINE
  5
1959C
330
747D
100
AcDbEntity
  8
部品1
100
AcDbLine
 10
8511.977651852296
 20
3977.505395881099
 30
0.0
 11
11561.97765185229
 21
3977.505395881099
 31
0.0
  0
LINE
  5
1959D
330
747D
100
AcDbEntity
  8
部品1
100
AcDbLine
 10
8511.977651852296
 20
2187.505395881099
 30
0.0
 11
8959.977651852293
 21
2187.505395881099
 31
0.0
  0
LINE
  5
1959E
330
747D
100
AcDbEntity
  8
部品1
100
AcDbLine
 10
8511.977651852296
 20
2137.505395881099
 30
0.0
 11
11561.97765185229
 21
2137.505395881099
 31
0.0
  0
LINE
  5
1959F
330
747D
100
AcDbEntity
  8
部品1
100
AcDbLine
 10
8511.977651852296
 20
4069.732997115739
 30
0.0
 11
8511.977651852296
 21
2037.505395881099
 31
0.0
  0
LINE
  5
195A0
330
747D
100
AcDbEntity
  8
部品1
100
AcDbLine
 10
8566.977651852294
 20
3977.505395881099
 30
0.0
 11
8566.977651852294
 21
2187.505395881099
 31
0.0
  0
LINE
  5
195A1
330
747D
100
AcDbEntity
  8
部品1
100
AcDbLine
 10
8506.977651852295
 20
2182.505395881101
 30
0.0
 11
8506.977651852295
 21
2037.505395881099
 31
0.0
  0
LINE
  5
195A2
330
747D
100
AcDbEntity
  8
破線
  6
HIDDEN
 48
5.0
100
AcDbLine
 10
8504.477651852296
 20
1884.805395881098
 30
0.0
 11
8504.477651852296
 21
1882.505395881098
 31
0.0
  0
LINE
  5
195A3
330
747D
100
AcDbEntity
  8
破線
 48
5.0
100
AcDbLine
 10
8486.977651852296
 20
1882.505395881099
 30
0.0
 11
8506.977651852297
 21
1882.505395881099
 31
0.0
  0
LINE
  5
195A4
330
747D
100
AcDbEntity
  8
破線
 48
5.0
100
AcDbLine
 10
8506.977651852295
 20
2037.505395881099
 30
0.0
 11
8506.977651852295
 21
1882.505395881099
 31
0.0
  0
LINE
  5
195A5
330
747D
100
AcDbEntity
  8
部品1
100
AcDbLine
 10
11113.97765185229
 20
2187.505395881099
 30
0.0
 11
11561.97765185229
 21
2187.505395881099
 31
0.0
  0
LINE
  5
195A6
330
747D
100
AcDbEntity
  8
部品1
 48
50.0
100
AcDbLine
 10
9209.977651852295
 20
2137.505395881099
 30
0.0
 11
9209.977651852295
 21
2037.505395881099
 31
0.0
  0
LINE
  5
195A7
330
747D
100
AcDbEntity
  8
部品1
100
AcDbLine
 10
8911.977651852295
 20
2137.505395881099
 30
0.0
 11
8911.977651852295
 21
2037.505395881099
 31
0.0
  0
LINE
  5
195A8
330
747D
100
AcDbEntity
  8
部品1
 48
50.0
100
AcDbLine
 10
9936.977651852295
 20
2137.505395881099
 30
0.0
 11
9936.977651852295
 21
2037.505395881099
 31
0.0
  0
LINE
  5
195A9
330
747D
100
AcDbEntity
  8
部品1
 48
50.0
100
AcDbLine
 10
9409.977651852294
 20
2137.505395881099
 30
0.0
 11
9409.977651852294
 21
2037.505395881099
 31
0.0
  0
LINE
  5
195AA
330
747D
100
AcDbEntity
  8
部品1
 48
50.0
100
AcDbLine
 10
10136.97765185229
 20
2137.505395881099
 30
0.0
 11
10136.97765185229
 21
2037.505395881099
 31
0.0
  0
LINE
  5
195AB
330
747D
100
AcDbEntity
  8
部品1
100
AcDbLine
 10
11161.97765185229
 20
2137.505395881099
 30
0.0
 11
11161.97765185229
 21
2037.505395881099
 31
0.0
  0
LINE
  5
195AC
330
747D
100
AcDbEntity
  8
部品1
 48
50.0
100
AcDbLine
 10
10863.97765185229
 20
2137.505395881099
 30
0.0
 11
10863.97765185229
 21
2037.505395881099
 31
0.0
  0
LINE
  5
195AD
330
747D
100
AcDbEntity
  8
部品1
 48
50.0
100
AcDbLine
 10
10663.97765185229
 20
2137.505395881099
 30
0.0
 11
10663.97765185229
 21
2037.505395881099
 31
0.0
  0
LINE
  5
195AE
330
747D
100
AcDbEntity
  8
部品1
100
AcDbLine
 10
11561.97765185229
 20
4031.935423662223
 30
0.0
 11
11561.97765185229
 21
2037.505395881099
 31
0.0
  0
DIMENSION
  5
195AF
330
747D
100
AcDbEntity
  8
寸法
 48
50.0
100
AcDbDimension
  2
*D3
 10
12253.19123083836
 20
4157.505395881099
 30
0.0
 11
12153.17941981474
 21
3147.505395881101
 31
0.0
 70
    32
 71
     5
 42
2020.0
  3
INABA_S40G
100
AcDbAlignedDimension
 13
11561.97765185229
 23
2137.505395881099
 33
0.0
 14
11641.9776518523
 24
4157.505395881099
 34
0.0
 50
90.0
100
AcDbRotatedDimension
1001
ACAD
1000
DSTYLE
1002
{
1002
}
  0
LINE
  5
195B0
330
747D
100
AcDbEntity
  8
部品1
100
AcDbLine
 10
11086.97765185229
 20
3977.505395881099
 30
0.0
 11
11086.97765185229
 21
3972.505395881099
 31
0.0
  0
LINE
  5
195B1
330
747D
100
AcDbEntity
  8
部品1
100
AcDbLine
 10
11566.97765185229
 20
2182.505395881099
 30
0.0
 11
11566.97765185229
 21
2037.505395881099
 31
0.0
  0
LINE
  5
195B2
330
747D
100
AcDbEntity
  8
破線
 48
5.0
100
AcDbLine
 10
11586.97765185229
 20
1882.505395881098
 30
0.0
 11
11566.97765185229
 21
1882.505395881098
 31
0.0
  0
LINE
  5
195B3
330
747D
100
AcDbEntity
  8
破線
 48
5.0
100
AcDbLine
 10
11566.97765185229
 20
2037.505395881099
 30
0.0
 11
11566.97765185229
 21
1882.505395881098
 31
0.0
  0
DIMENSION
  5
195B4
330
747D
100
AcDbEntity
  8
寸法
100
AcDbDimension
  2
*D4
 10
8566.977651852289
 20
9790.478983118463
 30
0.0
 11
8203.492370478015
 21
9790.478983118463
 31
0.0
 70
   160
 71
     5
 42
55.00000000003274
  3
INABA_S40G
100
AcDbAlignedDimension
 13
8511.977651852255
 23
9490.478983118462
 33
0.0
 14
8566.977651852289
 24
9490.478983118462
 34
0.0
100
AcDbRotatedDimension
1001
ACAD
1000
DSTYLE
1002
{
1002
}
  0
LINE
  5
195B5
330
747D
100
AcDbEntity
  8
部品1
 48
50.0
100
AcDbLine
 10
8539.977651852286
 20
7308.478983118532
 30
0.0
 11
11533.9776518523
 21
7308.478983118536
 31
0.0
  0
LINE
  5
195B6
330
747D
100
AcDbEntity
  8
部品1
100
AcDbLine
 10
11505.47765185227
 20
8595.478983118534
 30
0.0
 11
8568.477651852274
 21
8595.478983118434
 31
0.0
  0
LINE
  5
195B7
330
747D
100
AcDbEntity
  8
部品1
100
AcDbLine
 10
10049.47765185229
 20
9462.478983118575
 30
0.0
 11
11533.97765185229
 21
9462.478983118556
 31
0.0
  0
LINE
  5
195B8
330
747D
100
AcDbEntity
  8
細線
 48
50.0
100
AcDbLine
 10
11533.47765185229
 20
9010.478983118561
 30
0.0
 11
10050.47765185229
 21
9460.47898311856
 31
0.0
  0
LINE
  5
195B9
330
747D
100
AcDbEntity
  8
部品1
100
AcDbLine
 10
10050.47765185229
 20
9010.478983118568
 30
0.0
 11
11533.47765185229
 21
9010.478983118561
 31
0.0
  0
LINE
  5
195BA
330
747D
100
AcDbEntity
  8
部品1
100
AcDbLine
 10
10050.47765185229
 20
9460.478983118564
 30
0.0
 11
11533.47765185229
 21
9460.478983118557
 31
0.0
  0
LINE
  5
195BB
330
747D
100
AcDbEntity
  8
細線
 48
50.0
100
AcDbLine
 10
11533.47765185229
 20
9460.478983118557
 30
0.0
 11
10050.47765185229
 21
9010.478983118568
 31
0.0
  0
DIMENSION
  5
195BC
330
747D
100
AcDbEntity
  8
寸法
100
AcDbDimension
  2
*D5
 10
11442.52575094555
 20
8671.041867889696
 30
0.0
 11
10549.20040736504
 21
8671.041867889696
 31
0.0
 70
   160
 71
     5
 42
1483.000000000013
  3
INABA_S40G
100
AcDbAlignedDimension
 13
10050.47765185228
 23
9010.478983118634
 33
0.0
 14
11533.47765185229
 24
9010.478983118627
 34
0.0
100
AcDbRotatedDimension
1001
ACAD
1000
DSTYLE
1002
{
1002
}
  0
LINE
  5
195BD
330
747D
100
AcDbEntity
  8
破線
 48
10.0
100
AcDbLine
 10
11481.97765185229
 20
7360.478983118548
 30
0.0
 11
10789.47765185226
 21
7360.478983118489
 31
0.0
  0
LINE
  5
195BF
330
747D
100
AcDbEntity
  8
部品1
100
AcDbLine
 10
8511.977651852289
 20
9490.478983118462
 30
0.0
 11
11561.97765185229
 21
9490.478983118556
 31
0.0
  0
LINE
  5
195C0
330
747D
100
AcDbEntity
  8
部品1
100
AcDbLine
 10
11505.47765185229
 20
7336.97898311855
 30
0.0
 11
8568.477651852182
 21
7336.978983118431
 31
0.0
  0
DIMENSION
  5
195C1
330
747D
100
AcDbEntity
  8
寸法
100
AcDbDimension
  2
*D6
 10
11506.97765185229
 20
9790.478983118511
 30
0.0
 11
10036.97765185229
 21
9790.478983118511
 31
0.0
 70
   160
  1
7X420=<>
 71
     5
 42
2940.000000000002
  3
INABA_S40G
100
AcDbAlignedDimension
 13
8566.977651852289
 23
9490.478983118462
 33
0.0
 14
11506.97765185229
 24
9490.478983118556
 34
0.0
100
AcDbRotatedDimension
1001
ACAD
1000
DSTYLE
1002
{
1002
}
  0
LINE
  5
195C2
330
747D
100
AcDbEntity
  8
部品1
100
AcDbLine
 10
8568.477651852267
 20
9010.47898311851
 30
0.0
 11
8568.477651852278
 21
7336.978983118524
 31
0.0
  0
LINE
  5
195C3
330
747D
100
AcDbEntity
  8
部品1
 48
50.0
100
AcDbLine
 10
10036.97765185229
 20
9010.47898311857
 30
0.0
 11
10036.97765185232
 21
7336.978983118448
 31
0.0
  0
DIMENSION
  5
195C4
330
747D
100
AcDbEntity
  8
寸法
100
AcDbDimension
  2
*D7
 10
9932.525750945558
 20
8671.041867889696
 30
0.0
 11
9098.218143239767
 21
8671.041867889696
 31
0.0
 70
   160
 71
     5
 42
1483.000000000071
  3
INABA_S40G
100
AcDbAlignedDimension
 13
8540.477651852212
 23
9010.478983118575
 33
0.0
 14
10023.47765185228
 24
9010.478983118568
 34
0.0
100
AcDbRotatedDimension
1001
ACAD
1000
DSTYLE
1002
{
1002
}
  0
LINE
  5
195C5
330
747D
100
AcDbEntity
  8
破線
 48
10.0
100
AcDbLine
 10
10789.47765185226
 20
7336.978983118463
 30
0.0
 11
10789.47765185226
 21
9010.478983118568
 31
0.0
  0
LINE
  5
195C6
330
747D
100
AcDbEntity
  8
破線
 48
10.0
100
AcDbLine
 10
10739.47765185226
 20
7336.978983118459
 30
0.0
 11
10739.47765185226
 21
9010.478983118568
 31
0.0
  0
LINE
  5
195C7
330
747D
100
AcDbEntity
  8
破線
 48
10.0
100
AcDbLine
 10
9334.477651852266
 20
7336.978983118463
 30
0.0
 11
9334.477651852266
 21
9010.478983118568
 31
0.0
  0
LINE
  5
195C8
330
747D
100
AcDbEntity
  8
破線
 48
10.0
100
AcDbLine
 10
9284.477651852267
 20
7336.978983118459
 30
0.0
 11
9284.477651852267
 21
9010.478983118568
 31
0.0
  0
LINE
  5
195C9
330
747D
100
AcDbEntity
  8
破線
 48
10.0
100
AcDbLine
 10
10061.97765185226
 20
7336.978983118463
 30
0.0
 11
10061.97765185226
 21
9010.478983118566
 31
0.0
  0
LINE
  5
195CA
330
747D
100
AcDbEntity
  8
破線
 48
10.0
100
AcDbLine
 10
10011.97765185226
 20
7336.978983118459
 30
0.0
 11
10011.97765185226
 21
9010.478983118568
 31
0.0
  0
LINE
  5
195CB
330
747D
100
AcDbEntity
  8
部品1
100
AcDbLine
 10
8511.977651852255
 20
9490.47898311843
 30
0.0
 11
8511.977651852282
 21
7280.47898311842
 31
0.0
  0
LINE
  5
195CC
330
747D
100
AcDbEntity
  8
部品1
100
AcDbLine
 10
8539.977651852263
 20
7308.478983118511
 30
0.0
 11
8539.97765185228
 21
9015.478983118432
 31
0.0
  0
LINE
  5
195CD
330
747D
100
AcDbEntity
  8
破線
 48
10.0
100
AcDbLine
 10
8591.977651852266
 20
9010.478983118561
 30
0.0
 11
8591.977651852278
 21
7360.47898311843
 31
0.0
  0
LINE
  5
195CE
330
747D
100
AcDbEntity
  8
破線
 48
10.0
100
AcDbLine
 10
10011.97765185226
 20
7360.47898311846
 30
0.0
 11
9334.477651852264
 21
7360.478983118437
 31
0.0
  0
LINE
  5
195CF
330
747D
100
AcDbEntity
  8
破線
 48
10.0
100
AcDbLine
 10
9284.477651852267
 20
7360.478983118419
 30
0.0
 11
8591.977651852277
 21
7360.47898311843
 31
0.0
  0
LINE
  5
195D0
330
747D
100
AcDbEntity
  8
部品1
100
AcDbLine
 10
8986.97765185226
 20
7280.47898311842
 30
0.0
 11
8511.977651852282
 21
7280.47898311842
 31
0.0
  0
LINE
  5
195D1
330
747D
100
AcDbEntity
  8
部品1
100
AcDbLine
 10
8566.977651852258
 20
7280.47898311855
 30
0.0
 11
8566.977651852258
 21
7308.478983118551
 31
0.0
  0
LINE
  5
195D2
330
747D
100
AcDbEntity
  8
部品1
 48
50.0
100
AcDbLine
 10
8568.477651852278
 20
7336.978983118526
 30
0.0
 11
8539.97765185228
 21
7308.478983118527
 31
0.0
  0
LINE
  5
195D3
330
747D
100
AcDbEntity
  8
部品1
100
AcDbLine
 10
8539.977651852266
 20
7335.478983118382
 30
0.0
 11
8511.977651852282
 21
7335.478983118382
 31
0.0
  0
LINE
  5
195D4
330
747D
100
AcDbEntity
  8
部品1
100
AcDbLine
 10
8539.977651852266
 20
7335.478983118419
 30
0.0
 11
8511.977651852282
 21
7335.478983118419
 31
0.0
  0
LINE
  5
195D5
330
747D
100
AcDbEntity
  8
部品1
100
AcDbLine
 10
8539.97765185228
 20
7335.478983118433
 30
0.0
 11
8511.977651852282
 21
7335.478983118433
 31
0.0
  0
LINE
  5
195D6
330
747D
100
AcDbEntity
  8
部品1
100
AcDbLine
 10
8511.977651852282
 20
7335.478983118382
 30
0.0
 11
8511.977651852282
 21
7280.478983118387
 31
0.0
  0
LINE
  5
195D7
330
747D
100
AcDbEntity
  8
部品1
100
AcDbLine
 10
8539.977651852263
 20
8595.478983118434
 30
0.0
 11
8511.977651852262
 21
8595.478983118434
 31
0.0
  0
LINE
  5
195D9
330
747D
100
AcDbEntity
  8
部品1
100
AcDbLine
 10
8986.977651852258
 20
7280.47898311855
 30
0.0
 11
8986.977651852258
 21
7308.478983118551
 31
0.0
  0
LINE
  5
195DA
330
747D
100
AcDbEntity
  8
破線
 48
10.0
100
AcDbLine
 10
10739.47765185226
 20
7360.478983118476
 30
0.0
 11
10061.97765185226
 21
7360.478983118463
 31
0.0
  0
LINE
  5
195DB
330
747D
100
AcDbEntity
  8
部品1
100
AcDbLine
 10
8540.477651852219
 20
9010.47898311851
 30
0.0
 11
10023.47765185229
 21
9010.478983118568
 31
0.0
  0
LINE
  5
195DC
330
747D
100
AcDbEntity
  8
部品1
100
AcDbLine
 10
8540.477651852219
 20
9460.478983118511
 30
0.0
 11
10023.47765185229
 21
9460.478983118568
 31
0.0
  0
LINE
  5
195DD
330
747D
100
AcDbEntity
  8
部品1
100
AcDbLine
 10
8566.977651852289
 20
9462.478983118579
 30
0.0
 11
10024.47765185229
 21
9462.478983118579
 31
0.0
  0
LINE
  5
195DE
330
747D
100
AcDbEntity
  8
細線
 48
50.0
100
AcDbLine
 10
10023.47765185229
 20
9460.478983118564
 30
0.0
 11
8540.477651852219
 21
9010.478983118511
 31
0.0
  0
LINE
  5
195DF
330
747D
100
AcDbEntity
  8
細線
 48
50.0
100
AcDbLine
 10
10023.47765185229
 20
9010.478983118568
 30
0.0
 11
8540.477651852219
 21
9460.478983118511
 31
0.0
  0
LINE
  5
195E0
330
747D
100
AcDbEntity
  8
部品1
100
AcDbLine
 10
8539.977651852288
 20
9462.478983118463
 30
0.0
 11
9511.977651852289
 21
9462.478983118465
 31
0.0
  0
LINE
  5
195E1
330
747D
100
AcDbEntity
  8
部品1
100
AcDbLine
 10
8539.97765185228
 20
9009.978983118434
 30
0.0
 11
8539.977651852288
 21
9462.478983118463
 31
0.0
  0
LINE
  5
195E2
330
747D
100
AcDbEntity
  8
部品1
 48
50.0
100
AcDbLine
 10
8540.477651852219
 20
9460.478983118564
 30
0.0
 11
8540.477651852219
 21
9010.478983118568
 31
0.0
  0
LINE
  5
195E3
330
747D
100
AcDbEntity
  8
部品1
100
AcDbLine
 10
8539.977651852263
 20
9015.478983118432
 30
0.0
 11
8511.977651852262
 21
9015.478983118432
 31
0.0
  0
LINE
  5
195E4
330
747D
100
AcDbEntity
  8
部品1
100
AcDbLine
 10
8539.977651852256
 20
9435.478983118434
 30
0.0
 11
8511.977651852255
 21
9435.478983118434
 31
0.0
  0
LINE
  5
195E5
330
747D
100
AcDbEntity
  8
部品1
100
AcDbLine
 10
8566.977651852255
 20
9490.47898311843
 30
0.0
 11
8566.977651852255
 21
9462.47898311843
 31
0.0
  0
LINE
  5
195E6
330
747D
100
AcDbEntity
  8
部品1
100
AcDbLine
 10
8566.977651852289
 20
9490.478983118462
 30
0.0
 11
8566.977651852289
 21
9462.478983118463
 31
0.0
  0
LINE
  5
195E7
330
747D
100
AcDbEntity
  8
部品1
100
AcDbLine
 10
8986.977651852255
 20
9490.47898311843
 30
0.0
 11
8986.977651852255
 21
9462.47898311843
 31
0.0
  0
LINE
  5
195E8
330
747D
100
AcDbEntity
  8
部品1
100
AcDbLine
 10
9406.977651852256
 20
9490.47898311843
 30
0.0
 11
9406.977651852256
 21
9462.47898311843
 31
0.0
  0
LINE
  5
195E9
330
747D
100
AcDbEntity
  8
部品1
 48
50.0
100
AcDbLine
 10
10049.47765185229
 20
9462.478983118568
 30
0.0
 11
10049.47765185229
 21
9010.478983118568
 31
0.0
  0
LINE
  5
195EA
330
747D
100
AcDbEntity
  8
部品1
 48
50.0
100
AcDbLine
 10
10024.47765185229
 20
9462.478983118572
 30
0.0
 11
10024.47765185229
 21
9010.478983118568
 31
0.0
  0
LINE
  5
195EB
330
747D
100
AcDbEntity
  8
部品1
 48
50.0
100
AcDbLine
 10
10050.47765185229
 20
9460.47898311856
 30
0.0
 11
10050.47765185229
 21
9010.478983118568
 31
0.0
  0
LINE
  5
195EC
330
747D
100
AcDbEntity
  8
部品1
 48
50.0
100
AcDbLine
 10
10023.47765185229
 20
9460.478983118564
 30
0.0
 11
10023.47765185229
 21
9010.478983118568
 31
0.0
  0
LINE
  5
195ED
330
747D
100
AcDbEntity
  8
部品1
100
AcDbLine
 10
10024.47765185229
 20
9010.478983118568
 30
0.0
 11
10049.47765185229
 21
9010.478983118568
 31
0.0
  0
LINE
  5
195EE
330
747D
100
AcDbEntity
  8
部品1
100
AcDbLine
 10
9826.977651852256
 20
9490.47898311843
 30
0.0
 11
9826.977651852256
 21
9462.47898311843
 31
0.0
  0
LINE
  5
195EF
330
747D
100
AcDbEntity
  8
部品1
100
AcDbLine
 10
10024.47765185229
 20
9454.47898311856
 30
0.0
 11
10049.47765185229
 21
9454.478983118564
 31
0.0
  0
LINE
  5
195F0
330
747D
100
AcDbEntity
  8
部品1
100
AcDbLine
 10
10065.97765185229
 20
9480.478983118564
 30
0.0
 11
10071.97765185229
 21
9480.478983118564
 31
0.0
  0
LINE
  5
195F1
330
747D
100
AcDbEntity
  8
部品1
100
AcDbLine
 10
10071.97765185229
 20
9480.478983118564
 30
0.0
 11
10071.97765185229
 21
9462.478983118565
 31
0.0
  0
LINE
  5
195F2
330
747D
100
AcDbEntity
  8
部品1
100
AcDbLine
 10
10001.97765185229
 20
9480.478983118564
 30
0.0
 11
10007.97765185229
 21
9480.478983118564
 31
0.0
  0
LINE
  5
195F3
330
747D
100
AcDbEntity
  8
部品1
100
AcDbLine
 10
10001.97765185229
 20
9480.478983118564
 30
0.0
 11
10001.97765185229
 21
9462.478983118565
 31
0.0
  0
LINE
  5
195F4
330
747D
100
AcDbEntity
  8
部品1
100
AcDbLine
 10
10246.97765185225
 20
9490.47898311843
 30
0.0
 11
10246.97765185225
 21
9462.47898311843
 31
0.0
  0
LINE
  5
195F5
330
747D
100
AcDbEntity
  8
部品1
100
AcDbLine
 10
10666.97765185225
 20
9490.47898311843
 30
0.0
 11
10666.97765185225
 21
9462.47898311843
 31
0.0
  0
LINE
  5
195F6
330
747D
100
AcDbEntity
  8
部品1
100
AcDbLine
 10
11533.97765185228
 20
9015.47898311856
 30
0.0
 11
11533.97765185226
 21
7308.478983118551
 31
0.0
  0
LINE
  5
195F7
330
747D
100
AcDbEntity
  8
部品1
100
AcDbLine
 10
11505.47765185228
 20
9010.478983118561
 30
0.0
 11
11505.47765185229
 21
7336.97898311855
 31
0.0
  0
LINE
  5
195F8
330
747D
100
AcDbEntity
  8
部品1
100
AcDbLine
 10
11561.97765185229
 20
9490.478983118556
 30
0.0
 11
11561.97765185226
 21
7280.47898311855
 31
0.0
  0
DIMENSION
  5
195F9
330
747D
100
AcDbEntity
  8
寸法
100
AcDbDimension
  2
*D8
 10
12261.97765185228
 20
7335.478983118547
 30
0.0
 11
12261.97765185228
 21
8385.478983118554
 31
0.0
 70
   160
  1
5X420=<>
 71
     5
 42
2100.000000000014
  3
INABA_S40G
100
AcDbAlignedDimension
 13
11561.97765185229
 23
9435.478983118562
 33
0.0
 14
11561.97765185226
 24
7335.478983118547
 34
0.0
 50
90.0
100
AcDbRotatedDimension
1001
ACAD
1000
DSTYLE
1002
{
1002
}
  0
LINE
  5
195FA
330
747D
100
AcDbEntity
  8
破線
 48
10.0
100
AcDbLine
 10
11481.97765185228
 20
9010.478983118561
 30
0.0
 11
11481.97765185229
 21
7360.478983118547
 31
0.0
  0
DIMENSION
  5
195FB
330
747D
100
AcDbEntity
  8
寸法
100
AcDbDimension
  2
*D9
 10
12561.97765185228
 20
7280.47898311855
 30
0.0
 11
12561.97765185228
 21
8385.478983118554
 31
0.0
 70
   160
 71
     5
 42
2210.000000000007
  3
INABA_S40G
100
AcDbAlignedDimension
 13
11561.97765185229
 23
9490.478983118556
 33
0.0
 14
11561.97765185226
 24
7280.47898311855
 34
0.0
 50
90.0
100
AcDbRotatedDimension
1001
ACAD
1000
DSTYLE
1002
{
1002
}
  0
DIMENSION
  5
195FC
330
747D
100
AcDbEntity
  8
寸法
100
AcDbDimension
  2
*D10
 10
12261.97765185226
 20
7280.47898311855
 30
0.0
 11
12261.97765185226
 21
6971.99370174431
 31
0.0
 70
   160
 71
     5
 42
54.99999999999636
  3
INABA_S40G
100
AcDbAlignedDimension
 13
11561.97765185226
 23
7335.478983118547
 33
0.0
 14
11561.97765185226
 24
7280.47898311855
 34
0.0
 50
90.0
100
AcDbRotatedDimension
1001
ACAD
1000
DSTYLE
1002
{
1002
}
  0
LINE
  5
195FD
330
747D
100
AcDbEntity
  8
部品1
100
AcDbLine
 10
11561.97765185226
 20
7280.47898311855
 30
0.0
 11
11086.97765185229
 21
7280.478983118536
 31
0.0
  0
LINE
  5
195FF
330
747D
100
AcDbEntity
  8
部品1
100
AcDbLine
 10
11086.97765185229
 20
7280.47898311855
 30
0.0
 11
11086.97765185229
 21
7308.478983118551
 31
0.0
  0
LINE
  5
19600
330
747D
100
AcDbEntity
  8
部品1
100
AcDbLine
 10
11506.97765185229
 20
7280.47898311855
 30
0.0
 11
11506.97765185229
 21
7308.478983118551
 31
0.0
  0
LINE
  5
19601
330
747D
100
AcDbEntity
  8
部品1
100
AcDbLine
 10
11533.97765185229
 20
7335.478983118547
 30
0.0
 11
11561.97765185229
 21
7335.478983118547
 31
0.0
  0
LINE
  5
19602
330
747D
100
AcDbEntity
  8
部品1
100
AcDbLine
 10
11561.97765185226
 20
7335.478983118547
 30
0.0
 11
11561.97765185226
 21
7280.47898311855
 31
0.0
  0
LINE
  5
19603
330
747D
100
AcDbEntity
  8
部品1
 48
50.0
100
AcDbLine
 10
11505.47765185229
 20
7336.97898311855
 30
0.0
 11
11533.97765185229
 21
7308.478983118551
 31
0.0
  0
LINE
  5
19604
330
747D
100
AcDbEntity
  8
部品1
100
AcDbLine
 10
11561.97765185226
 20
7280.47898311855
 30
0.0
 11
11510.97765185226
 21
7280.47898311855
 31
0.0
  0
LINE
  5
19605
330
747D
100
AcDbEntity
  8
部品1
100
AcDbLine
 10
11533.97765185226
 20
7335.478983118547
 30
0.0
 11
11561.97765185226
 21
7335.478983118547
 31
0.0
  0
LINE
  5
19606
330
747D
100
AcDbEntity
  8
部品1
100
AcDbLine
 10
11533.97765185229
 20
8595.47898311856
 30
0.0
 11
11561.97765185229
 21
8595.47898311856
 31
0.0
  0
DIMENSION
  5
19607
330
747D
100
AcDbEntity
  8
寸法
100
AcDbDimension
  2
*D11
 10
12261.97765185229
 20
9435.478983118562
 30
0.0
 11
12261.97765185229
 21
9798.964264492797
 31
0.0
 70
   160
 71
     5
 42
54.99999999999636
  3
INABA_S40G
100
AcDbAlignedDimension
 13
11561.97765185229
 23
9490.478983118556
 33
0.0
 14
11561.97765185229
 24
9435.478983118562
 34
0.0
 50
90.0
100
AcDbRotatedDimension
1001
ACAD
1000
DSTYLE
1002
{
1002
}
  0
DIMENSION
  5
19608
330
747D
100
AcDbEntity
  8
寸法
100
AcDbDimension
  2
*D12
 10
11561.97765185229
 20
9790.478983118557
 30
0.0
 11
11870.46293322653
 21
9790.478983118557
 31
0.0
 70
   160
 71
     5
 42
55.0
  3
INABA_S40G
100
AcDbAlignedDimension
 13
11506.97765185229
 23
9490.478983118556
 33
0.0
 14
11561.97765185229
 24
9490.478983118556
 34
0.0
100
AcDbRotatedDimension
1001
ACAD
1000
DSTYLE
1002
{
1002
}
  0
DIMENSION
  5
19609
330
747D
100
AcDbEntity
  8
寸法
100
AcDbDimension
  2
*D13
 10
11961.97765185228
 20
8895.662754161826
 30
0.0
 11
11961.97765185228
 21
9120.662754161823
 31
0.0
 70
   160
 71
     5
 42
449.9999999999963
  3
INABA_S40G
100
AcDbAlignedDimension
 13
11533.47765185229
 23
9460.478983118557
 33
0.0
 14
11533.47765185229
 24
9010.478983118561
 34
0.0
 50
90.0
100
AcDbRotatedDimension
1001
ACAD
1000
DSTYLE
1002
{
1002
}
  0
LINE
  5
1960A
330
747D
100
AcDbEntity
  8
部品1
100
AcDbLine
 10
11533.47765185229
 20
9460.478983118557
 30
0.0
 11
11533.47765185229
 21
9010.478983118561
 31
0.0
  0
LINE
  5
1960B
330
747D
100
AcDbEntity
  8
部品1
100
AcDbLine
 10
11533.97765185229
 20
9462.478983118556
 30
0.0
 11
11533.97765185228
 21
9009.978983118434
 31
0.0
  0
LINE
  5
1960C
330
747D
100
AcDbEntity
  8
部品1
100
AcDbLine
 10
11533.97765185229
 20
9015.47898311856
 30
0.0
 11
11561.97765185229
 21
9015.47898311856
 31
0.0
  0
LINE
  5
1960D
330
747D
100
AcDbEntity
  8
部品1
100
AcDbLine
 10
11086.97765185225
 20
9490.47898311843
 30
0.0
 11
11086.97765185225
 21
9462.47898311843
 31
0.0
  0
LINE
  5
1960E
330
747D
100
AcDbEntity
  8
部品1
100
AcDbLine
 10
11533.97765185229
 20
9435.478983118562
 30
0.0
 11
11561.97765185229
 21
9435.478983118562
 31
0.0
  0
LINE
  5
1960F
330
747D
100
AcDbEntity
  8
部品1
100
AcDbLine
 10
11506.97765185229
 20
9490.478983118556
 30
0.0
 11
11506.97765185229
 21
9462.478983118556
 31
0.0
  0
LINE
  5
19610
330
747D
100
AcDbEntity
  8
部品1
100
AcDbLine
 10
11506.97765185229
 20
9490.478983118579
 30
0.0
 11
11506.97765185229
 21
9462.478983118579
 31
0.0
  0
TEXT
  5
19611
330
747D
100
AcDbEntity
  8
文字
 62
     7
 48
50.0
100
AcDbText
 10
14491.96323844892
 20
483.8967129911416
 30
0.0
 40
160.0
  1
ＮＸＮ－６５ＳＢ
  7
STYLE2
100
AcDbText
  0
TEXT
  5
19612
330
747D
100
AcDbEntity
  8
文字
 62
     7
 48
50.0
100
AcDbText
 10
13209.4053442172
 20
228.5435242569015
 30
0.0
 40
100.0
  1
○有効開口寸法 ： 1266×1725(mm)
  7
STYLE2
100
AcDbText
  0
DIMENSION
  5
19664
330
747D
100
AcDbEntity
  8
寸法
 48
50.0
100
AcDbDimension
  2
*D14
 10
8511.977651852296
 20
4611.162849460408
 30
0.0
 11
10082.03602641171
 21
4611.162849460408
 31
0.0
 70
   160
  1
柱外寸法<>
 71
     5
 42
3049.999999999997
  3
INABA_S40G
100
AcDbAlignedDimension
 13
11561.97765185229
 23
4159.316075492757
 33
0.0
 14
8511.977651852296
 24
4208.507014004079
 34
0.0
100
AcDbRotatedDimension
1001
ACAD
1000
DSTYLE
1002
{
1070
   174
1070
     0
1070
   272
1070
     1
1070
   288
1070
     0
1070
   341
1005
0
1002
}
  0
DIMENSION
  5
19665
330
747D
100
AcDbEntity
  8
寸法
 48
50.0
100
AcDbDimension
  2
*D15
 10
8451.977651852295
 20
4841.276442246684
 30
0.0
 11
10123.68345816182
 21
4841.276442246684
 31
0.0
 70
   160
 71
     5
 42
3189.999999999996
  3
INABA_S40G
100
AcDbAlignedDimension
 13
11641.97765185229
 23
4157.505395881104
 33
0.0
 14
8451.977651852295
 24
4212.505395881106
 34
0.0
100
AcDbRotatedDimension
1001
ACAD
1000
DSTYLE
1002
{
1070
   174
1070
     0
1070
   272
1070
     1
1070
   288
1070
     0
1070
   341
1005
0
1002
}
  0
DIMENSION
  5
19666
330
747D
100
AcDbEntity
  8
寸法
 48
50.0
100
AcDbDimension
  2
*D16
 10
11641.97765185229
 20
4611.162849460408
 30
0.0
 11
11848.02489594678
 21
4611.162849460408
 31
0.0
 70
   160
 71
     5
 42
80.0
  3
INABA_S40G
100
AcDbAlignedDimension
 13
11561.97765185229
 23
4159.316075492757
 33
0.0
 14
11641.97765185229
 24
4157.505395881106
 34
0.0
100
AcDbRotatedDimension
1001
ACAD
1000
DSTYLE
1002
{
1070
   174
1070
     0
1070
   272
1070
     1
1070
   288
1070
     0
1070
   341
1005
0
1002
}
  0
DIMENSION
  5
19667
330
747D
100
AcDbEntity
  8
寸法
 48
50.0
100
AcDbDimension
  2
*D17
 10
8451.977651852295
 20
4611.162849460407
 30
0.0
 11
8142.339856576706
 21
4611.162849460407
 31
0.0
 70
   160
 71
     5
 42
60.0
  3
INABA_S40G
100
AcDbAlignedDimension
 13
8511.977651852296
 23
4208.507014004079
 33
0.0
 14
8451.977651852295
 24
4212.505395881106
 34
0.0
100
AcDbRotatedDimension
1001
ACAD
1000
DSTYLE
1002
{
1070
   174
1070
     0
1070
   272
1070
     1
1070
   288
1070
     0
1070
   341
1005
0
1002
}
  0
DIMENSION
  5
19668
330
747D
100
AcDbEntity
  8
寸法
 48
50.0
100
AcDbDimension
  2
*D18
 10
7891.369245083925
 20
4086.850654754432
 30
0.0
 11
7902.03472034285
 21
4457.697317996132
 31
0.0
 70
   161
 71
     5
 42
141.0000000000009
  3
INABA_S40G
100
AcDbAlignedDimension
 13
8471.373672010875
 23
4211.228144715781
 33
0.0
 14
8467.320216454249
 24
4070.286420950069
 34
0.0
1001
ACAD
1000
DSTYLE
1002
{
1070
   174
1070
     0
1070
   272
1070
     1
1070
   288
1070
     0
1070
   341
1005
0
1002
}
  0
LINE
  5
19669
330
747D
100
AcDbEntity
  8
部品1
100
AcDbLine
 10
9890.490924375809
 20
4337.709783844121
 30
0.0
 11
10215.94593801884
 21
4320.191724885259
 31
0.0
  0
LINE
  5
1966A
330
747D
100
AcDbEntity
  8
部品1
 48
50.0
100
AcDbLine
 10
9915.945938018845
 20
4336.391724885259
 30
0.0
 11
10215.94593801884
 21
4336.391724885259
 31
0.0
  0
LINE
  5
1966B
330
747D
100
AcDbEntity
  8
部品1
 48
50.0
100
AcDbLine
 10
10215.94593801884
 20
4336.391724885259
 30
0.0
 11
10215.94593801884
 21
4320.191724885259
 31
0.0
  0
TEXT
  5
1966C
330
747D
100
AcDbEntity
  8
部品1
 48
50.0
100
AcDbText
 10
9904.213773242574
 20
4372.275747037693
 30
0.0
 40
120.0
  1
1000
  7
STYLE1
100
AcDbText
  0
TEXT
  5
1966D
330
747D
100
AcDbEntity
  8
部品1
 48
50.0
100
AcDbText
 10
10381.84679590766
 20
4234.774488819409
 30
0.0
 40
120.0
  1
32
 50
90.0
  7
STYLE1
100
AcDbText
  0
LINE
  5
1966E
330
747D
100
AcDbEntity
  8
細線
 48
50.0
100
AcDbLine
 10
8457.777550190396
 20
4090.6609660246
 30
0.0
 11
11627.78121462104
 21
4050.851647050107
 31
0.0
  0
LINE
  5
1966F
330
747D
100
AcDbEntity
  8
細線
 48
50.0
100
AcDbLine
 10
8453.017074953109
 20
4183.522477722464
 30
0.0
 11
11638.65305969828
 21
4127.898273081636
 31
0.0
  0
LINE
  5
19670
330
747D
100
AcDbEntity
  8
部品1
100
AcDbLine
 10
8467.320216454249
 20
4070.286420950069
 30
0.0
 11
11616.64135239214
 21
4031.257995715864
 31
0.0
  0
LINE
  5
19671
330
747D
100
AcDbEntity
  8
部品1
100
AcDbLine
 10
8459.522638209259
 20
4211.223131215368
 30
0.0
 11
11634.58952871376
 21
4156.146193590241
 31
0.0
  0
ARC
  5
19672
330
747D
100
AcDbEntity
  8
部品1
100
AcDbCircle
 10
8458.014743723664
 20
4091.319554840006
 30
0.0
 40
0.7
100
AcDbArc
 50
181.0932240292635
 51
260.1877540314845
  0
ARC
  5
19673
330
747D
100
AcDbEntity
  8
部品1
100
AcDbCircle
 10
8453.242070126053
 20
4184.185333040125
 30
0.0
 40
0.7
100
AcDbArc
 50
181.0932240292114
 51
260.1877540314845
  0
ARC
  5
19674
330
747D
100
AcDbEntity
  8
部品1
100
AcDbCircle
 10
8452.611515723031
 20
4180.539458502727
 30
0.0
 40
3.0
100
AcDbArc
 50
1.093224029315636
 51
80.18775403169875
  0
ARC
  5
19675
330
747D
100
AcDbEntity
  8
部品1
100
AcDbCircle
 10
8457.384189320638
 20
4087.673680302609
 30
0.0
 40
3.0
100
AcDbArc
 50
1.093224029315636
 51
80.18775403169875
  0
ARC
  5
19676
330
747D
100
AcDbEntity
  8
部品1
 48
50.0
100
AcDbCircle
 10
8467.584321695838
 20
4077.281436920127
 30
0.0
 40
7.0
100
AcDbArc
 50
181.0932240293156
 51
267.8377559869492
  0
ARC
  5
19677
330
747D
100
AcDbEntity
  8
部品1
 48
50.0
100
AcDbCircle
 10
8459.160663593742
 20
4204.232496453222
 30
0.0
 40
7.0
100
AcDbArc
 50
87.03587545283093
 51
181.0932240293156
  0
LINE
  5
19678
330
747D
100
AcDbEntity
  8
部品1
 48
50.0
100
AcDbLine
 10
8460.383643247068
 20
4087.730917905792
 30
0.0
 11
8460.585595867497
 21
4077.1478825127
 31
0.0
  0
LINE
  5
19679
330
747D
100
AcDbEntity
  8
部品1
 48
50.0
100
AcDbLine
 10
8455.610969649461
 20
4180.596696105911
 30
0.0
 11
8457.314871140825
 21
4091.306199399264
 31
0.0
  0
LINE
  5
1967A
330
747D
100
AcDbEntity
  8
部品1
 48
50.0
100
AcDbLine
 10
8452.161937765401
 20
4204.098942045795
 30
0.0
 11
8452.542197543214
 21
4184.171977599383
 31
0.0
  0
LINE
  5
1967B
330
747D
100
AcDbEntity
  8
細線
 48
50.0
100
AcDbLine
 10
8484.977651852295
 20
4209.905072256507
 30
0.0
 11
8479.68855029679
 21
4069.819439629152
 31
0.0
  0
ARC
  5
1967C
330
747D
100
AcDbEntity
  8
部品1
100
AcDbCircle
 10
11627.60518766624
 20
4051.529153146895
 30
0.0
 40
0.7
100
AcDbArc
 50
275.0921697642102
 51
354.1866997667087
  0
ARC
  5
1967D
330
747D
100
AcDbEntity
  8
部品1
100
AcDbCircle
 10
11638.46453341556
 20
4128.572407964819
 30
0.0
 40
0.7
100
AcDbArc
 50
275.0921697642102
 51
354.1866997665532
  0
ARC
  5
1967E
330
747D
100
AcDbEntity
  8
部品1
100
AcDbCircle
 10
11638.79293865816
 20
4124.88701110773
 30
0.0
 40
3.0
100
AcDbArc
 50
95.0921697642102
 51
174.1866997665532
  0
ARC
  5
1967F
330
747D
100
AcDbEntity
  8
部品1
100
AcDbCircle
 10
11627.93359290883
 20
4047.843756289805
 30
0.0
 40
3.0
100
AcDbArc
 50
95.0921697642102
 51
174.1866997665532
  0
ARC
  5
19680
330
747D
100
AcDbEntity
  8
部品1
 48
50.0
100
AcDbCircle
 10
11616.90545763373
 20
4038.253011685923
 30
0.0
 40
7.0
100
AcDbArc
 50
267.8377559869492
 51
354.1866997665532
  0
ARC
  5
19681
330
747D
100
AcDbEntity
  8
部品1
 48
50.0
100
AcDbCircle
 10
11634.22755409824
 20
4149.155558828096
 30
0.0
 40
7.0
100
AcDbArc
 50
354.1866997665532
 51
87.03587545283093
  0
LINE
  5
19682
330
747D
100
AcDbEntity
  8
部品1
 48
50.0
100
AcDbLine
 10
11624.94902123822
 20
4048.147618006708
 30
0.0
 11
11623.86945819848
 21
4037.54400101315
 31
0.0
  0
LINE
  5
19683
330
747D
100
AcDbEntity
  8
部品1
 48
50.0
100
AcDbLine
 10
11635.80836698755
 20
4125.190872824632
 30
0.0
 11
11628.30158772271
 21
4051.45825207962
 31
0.0
  0
LINE
  5
19684
330
747D
100
AcDbEntity
  8
部品1
 48
50.0
100
AcDbLine
 10
11641.191554663
 20
4148.446548155321
 30
0.0
 11
11639.16093347203
 21
4128.501506897541
 31
0.0
  0
LINE
  5
19685
330
747D
100
AcDbEntity
  8
細線
 48
50.0
100
AcDbLine
 10
11608.94693504598
 20
4156.658818360571
 30
0.0
 11
11604.2299689643
 21
4031.726602425655
 31
0.0
  0
DIMENSION
  5
19686
330
747D
100
AcDbEntity
  8
寸法
 48
50.0
100
AcDbDimension
  2
*D19
 10
8219.504962272905
 20
2195.505395881099
 30
0.0
 11
8219.504962272905
 21
3036.95261539939
 31
0.0
 70
   160
  1
有効開口部高サ<>
 71
     5
 42
1725.000000000001
  3
INABA_S40G
100
AcDbAlignedDimension
 13
8959.977651852296
 23
3920.505395881099
 33
0.0
 14
8959.977651852296
 24
2195.505395881099
 34
0.0
 50
90.0
100
AcDbRotatedDimension
  0
DIMENSION
  5
19687
330
747D
100
AcDbEntity
  8
寸法
 48
50.0
100
AcDbDimension
  2
*D20
 10
7891.369245083928
 20
4086.850654754427
 30
0.0
 11
7902.034720342854
 21
4457.697317996134
 31
0.0
 70
   161
 71
     5
 42
141.0000000000018
  3
INABA_S40G
100
AcDbAlignedDimension
 13
8471.373672010875
 23
4211.228144715779
 33
0.0
 14
8467.320216454249
 24
4070.286420950065
 34
0.0
1001
ACAD
1000
DSTYLE
1002
{
1070
   174
1070
     0
1070
   272
1070
     1
1070
   288
1070
     0
1070
   341
1005
0
1002
}
  0
DIMENSION
  5
19688
330
747D
100
AcDbEntity
  8
寸法
100
AcDbDimension
  2
*D21
 10
7603.338269922938
 20
4212.505395881104
 30
0.0
 11
7603.338269922936
 21
3131.71127337421
 31
0.0
 70
   160
 71
     5
 42
2075.000000000005
  3
INABA_S40G
100
AcDbAlignedDimension
 13
8511.977651852296
 23
2137.505395881099
 33
0.0
 14
8451.977651852295
 24
4212.505395881104
 34
0.0
 50
90.0
100
AcDbRotatedDimension
1001
ACAD
1000
DSTYLE
1002
{
1070
   174
1070
     0
1070
   272
1070
     1
1070
   288
1070
     0
1070
   341
1005
0
1002
}
  0
DIMENSION
  5
19689
330
747D
100
AcDbEntity
  8
寸法
100
AcDbDimension
  2
*D22
 10
7888.324942694
 20
2187.5053958811
 30
0.0
 11
7888.324942693998
 21
3077.959694423058
 31
0.0
 70
   160
 71
     5
 42
1790.0
  3
INABA_S40G
100
AcDbAlignedDimension
 13
8511.977651852296
 23
3977.505395881099
 33
0.0
 14
8511.977651852296
 24
2187.5053958811
 34
0.0
 50
90.0
100
AcDbRotatedDimension
1001
ACAD
1000
DSTYLE
1002
{
1070
   174
1070
     0
1070
   272
1070
     1
1070
   288
1070
     0
1070
   341
1005
0
1002
}
  0
DIMENSION
  5
1968A
330
747D
100
AcDbEntity
  8
寸法
100
AcDbDimension
  2
*D23
 10
7888.324942694
 20
2137.505395881099
 30
0.0
 11
7888.324942693998
 21
1831.458151786609
 31
0.0
 70
   160
 71
     5
 42
50.0
  3
INABA_S40G
100
AcDbAlignedDimension
 13
8511.977651852296
 23
2187.5053958811
 33
0.0
 14
8456.977651852296
 24
2137.505395881099
 34
0.0
 50
90.0
100
AcDbRotatedDimension
1001
ACAD
1000
DSTYLE
1002
{
1070
   174
1070
     0
1070
   272
1070
     1
1070
   288
1070
     0
1070
   341
1005
0
1002
}
  0
DIMENSION
  5
1968B
330
747D
100
AcDbEntity
  8
寸法
100
AcDbDimension
  2
*D24
 10
7603.338269922936
 20
2037.5053958811
 30
0.0
 11
7603.338269922936
 21
1801.458151786609
 31
0.0
 70
   160
 71
     5
 42
100.0
  3
INABA_S40G
100
AcDbAlignedDimension
 13
8456.977651852296
 23
2137.505395881099
 33
0.0
 14
7888.324942693998
 24
2037.505395881099
 34
0.0
 50
90.0
100
AcDbRotatedDimension
1001
ACAD
1000
DSTYLE
1002
{
1070
   174
1070
     0
1070
   272
1070
     1
1070
   288
1070
     0
1070
   341
1005
0
1002
}
  0
LINE
  5
1968C
330
747D
100
AcDbEntity
  8
部品1
 48
50.0
100
AcDbLine
 10
9793.977651852291
 20
3920.505395905866
 30
0.0
 11
9793.977651852289
 21
2187.505395881095
 31
0.0
  0
LINE
  5
1968D
330
747D
100
AcDbEntity
  8
部品1
100
AcDbLine
 10
10447.97764215714
 20
3920.50539591825
 30
0.0
 11
10447.97764215715
 21
2195.005395918264
 31
0.0
  0
LINE
  5
1968E
330
747D
100
AcDbEntity
  8
細線
100
AcDbLine
 10
9693.977651852293
 20
3920.505395881099
 30
0.0
 11
9693.977651852289
 21
2187.505395881106
 31
0.0
  0
LINE
  5
1968F
330
747D
100
AcDbEntity
  8
細線
100
AcDbLine
 10
9623.977651852293
 20
3920.505395881099
 30
0.0
 11
9623.977651852289
 21
2187.505395881106
 31
0.0
  0
LINE
  5
19690
330
747D
100
AcDbEntity
  8
細線
100
AcDbLine
 10
9553.977651852292
 20
3920.505395881099
 30
0.0
 11
9553.977651852289
 21
2187.505395881102
 31
0.0
  0
LINE
  5
19691
330
747D
100
AcDbEntity
  8
細線
100
AcDbLine
 10
9483.977651852292
 20
3920.505395881099
 30
0.0
 11
9483.977651852288
 21
2187.505395881102
 31
0.0
  0
LINE
  5
19692
330
747D
100
AcDbEntity
  8
細線
100
AcDbLine
 10
9413.977651852292
 20
3920.505395881099
 30
0.0
 11
9413.97765185229
 21
2187.505395881102
 31
0.0
  0
LINE
  5
19693
330
747D
100
AcDbEntity
  8
細線
100
AcDbLine
 10
9343.977651852291
 20
3920.505395881099
 30
0.0
 11
9343.97765185229
 21
2187.505395881102
 31
0.0
  0
LINE
  5
19694
330
747D
100
AcDbEntity
  8
部品1
100
AcDbLine
 10
9159.977651852289
 20
3920.505395881099
 30
0.0
 11
9159.977651852292
 21
2187.505395881102
 31
0.0
  0
LINE
  5
19695
330
747D
100
AcDbEntity
  8
部品1
100
AcDbLine
 10
9109.977651852288
 20
3920.505395881099
 30
0.0
 11
9109.977651852293
 21
2187.505395881102
 31
0.0
  0
LINE
  5
19696
330
747D
100
AcDbEntity
  8
細線
100
AcDbLine
 10
9151.977651852289
 20
3920.505395881099
 30
0.0
 11
9151.977651852291
 21
2187.505395881102
 31
0.0
  0
LINE
  5
19697
330
747D
100
AcDbEntity
  8
細線
100
AcDbLine
 10
9117.977651852289
 20
3920.505395881099
 30
0.0
 11
9117.977651852292
 21
2187.505395881102
 31
0.0
  0
LINE
  5
19698
330
747D
100
AcDbEntity
  8
細線
100
AcDbLine
 10
10345.47766160253
 20
3920.505395881099
 30
0.0
 11
10345.47766160253
 21
2195.00539588111
 31
0.0
  0
LINE
  5
19699
330
747D
100
AcDbEntity
  8
細線
100
AcDbLine
 10
10275.47766160253
 20
3920.505395881099
 30
0.0
 11
10275.47766160253
 21
2195.00539588111
 31
0.0
  0
LINE
  5
1969A
330
747D
100
AcDbEntity
  8
細線
100
AcDbLine
 10
10205.47766160253
 20
3920.505395881099
 30
0.0
 11
10205.47766160253
 21
2195.00539588111
 31
0.0
  0
LINE
  5
1969B
330
747D
100
AcDbEntity
  8
細線
100
AcDbLine
 10
10135.47766160253
 20
3920.505395881099
 30
0.0
 11
10135.47766160253
 21
2195.00539588111
 31
0.0
  0
LINE
  5
1969C
330
747D
100
AcDbEntity
  8
細線
100
AcDbLine
 10
10065.47766160253
 20
3920.505395881099
 30
0.0
 11
10065.47766160253
 21
2195.00539588111
 31
0.0
  0
LINE
  5
1969D
330
747D
100
AcDbEntity
  8
細線
100
AcDbLine
 10
9995.477661602535
 20
3920.505395881099
 30
0.0
 11
9995.477661602535
 21
2195.00539588111
 31
0.0
  0
LINE
  5
1969E
330
747D
100
AcDbEntity
  8
細線
100
AcDbLine
 10
10920.72765185229
 20
3920.505395881099
 30
0.0
 11
10920.72765185229
 21
2195.005395881117
 31
0.0
  0
LINE
  5
1969F
330
747D
100
AcDbEntity
  8
細線
100
AcDbLine
 10
10850.72765185229
 20
3920.505395881099
 30
0.0
 11
10850.72765185229
 21
2195.005395881117
 31
0.0
  0
LINE
  5
196A0
330
747D
100
AcDbEntity
  8
細線
100
AcDbLine
 10
10780.72765185229
 20
3920.505395881099
 30
0.0
 11
10780.72765185229
 21
2195.005395881117
 31
0.0
  0
LINE
  5
196A1
330
747D
100
AcDbEntity
  8
細線
100
AcDbLine
 10
10710.72765185229
 20
3920.505395881099
 30
0.0
 11
10710.72765185229
 21
2195.005395881117
 31
0.0
  0
LINE
  5
196A2
330
747D
100
AcDbEntity
  8
細線
100
AcDbLine
 10
10640.72765185229
 20
3920.505395881099
 30
0.0
 11
10640.72765185229
 21
2195.005395881117
 31
0.0
  0
LINE
  5
196A3
330
747D
100
AcDbEntity
  8
細線
100
AcDbLine
 10
9273.977651852293
 20
3920.505395881099
 30
0.0
 11
9273.977651852289
 21
2187.505395881102
 31
0.0
  0
LINE
  5
196A4
330
747D
100
AcDbEntity
  8
細線
100
AcDbLine
 10
9203.977651852293
 20
3920.505395881099
 30
0.0
 11
9203.977651852289
 21
2187.505395881102
 31
0.0
  0
LINE
  5
196A5
330
747D
100
AcDbEntity
  8
細線
100
AcDbLine
 10
9925.477661602535
 20
3920.505395881099
 30
0.0
 11
9925.477661602535
 21
2195.00539588111
 31
0.0
  0
LINE
  5
196A6
330
747D
100
AcDbEntity
  8
細線
100
AcDbLine
 10
9855.477661602536
 20
3920.505395881099
 30
0.0
 11
9855.477661602536
 21
2195.00539588111
 31
0.0
  0
LINE
  5
196A7
330
747D
100
AcDbEntity
  8
細線
100
AcDbLine
 10
10570.72765185229
 20
3920.505395881099
 30
0.0
 11
10570.72765185229
 21
2195.005395881117
 31
0.0
  0
LINE
  5
196A8
330
747D
100
AcDbEntity
  8
部品1
 48
50.0
100
AcDbLine
 10
10447.97764215715
 20
3920.505395918246
 30
0.0
 11
10447.97764215715
 21
2195.005395918246
 31
0.0
  0
LINE
  5
196A9
330
747D
100
AcDbEntity
  8
部品1
 48
50.0
100
AcDbLine
 10
11113.97765185229
 20
2137.505395881099
 30
0.0
 11
11113.97765185229
 21
3972.505395881099
 31
0.0
  0
LINE
  5
196AA
330
747D
100
AcDbEntity
  8
細線
 48
50.0
100
AcDbLine
 10
11083.97765185229
 20
2137.505395881099
 30
0.0
 11
11083.97765185229
 21
3930.005395881098
 31
0.0
  0
LINE
  5
196AB
330
747D
100
AcDbEntity
  8
部品1
 48
50.0
100
AcDbLine
 10
11074.97765185229
 20
2184.505395881099
 30
0.0
 11
11074.97765185229
 21
3920.505395881099
 31
0.0
  0
LINE
  5
196AC
330
747D
100
AcDbEntity
  8
部品1
 48
50.0
100
AcDbLine
 10
9793.977651852291
 20
3920.505395905866
 30
0.0
 11
9793.977651852291
 21
2187.505395905866
 31
0.0
  0
LINE
  5
196AD
330
747D
100
AcDbEntity
  8
部品1
 48
50.0
100
AcDbLine
 10
8959.977651852293
 20
3972.505395881099
 30
0.0
 11
8959.977651852293
 21
2137.505395881099
 31
0.0
  0
LINE
  5
196AE
330
747D
100
AcDbEntity
  8
細線
 48
50.0
100
AcDbLine
 10
8989.977651852292
 20
3930.005395881098
 30
0.0
 11
8989.977651852292
 21
2137.505395881099
 31
0.0
  0
LINE
  5
196AF
330
747D
100
AcDbEntity
  8
部品1
 48
50.0
100
AcDbLine
 10
8989.977651852292
 20
2187.505395881099
 30
0.0
 11
8989.977651852292
 21
3920.505395881099
 31
0.0
  0
LINE
  5
196C9
330
747D
100
AcDbEntity
  8
部品1
 48
50.0
100
AcDbLine
 10
9033.977651852293
 20
3119.005395881099
 30
0.0
 11
9086.977651852292
 21
3119.005395881099
 31
0.0
  0
LINE
  5
196CD
330
747D
100
AcDbEntity
  8
細線
 48
50.0
100
AcDbLine
 10
11061.97765185229
 20
2184.505395881099
 30
0.0
 11
11057.97765185229
 21
2195.005395881099
 31
0.0
  0
LINE
  5
196CE
330
747D
100
AcDbEntity
  8
部品1
 48
50.0
100
AcDbLine
 10
8998.977651852293
 20
2187.505395881099
 30
0.0
 11
8998.977651852293
 21
2184.505395881099
 31
0.0
  0
LINE
  5
196CF
330
747D
100
AcDbEntity
  8
部品1
 48
50.0
100
AcDbLine
 10
8989.977651852292
 20
2187.505395881099
 30
0.0
 11
9793.977651852289
 21
2187.505395881095
 31
0.0
  0
LINE
  5
196D0
330
747D
100
AcDbEntity
  8
細線
 48
50.0
100
AcDbLine
 10
9793.977651852291
 20
2195.005395881099
 30
0.0
 11
11057.97765185229
 21
2195.005395881099
 31
0.0
  0
LINE
  5
196D1
330
747D
100
AcDbEntity
  8
細線
 48
50.0
100
AcDbLine
 10
8989.977651852292
 20
2184.505395881099
 30
0.0
 11
11083.97765185229
 21
2184.505395881099
 31
0.0
  0
LINE
  5
196D2
330
747D
100
AcDbEntity
  8
細線
 48
50.0
100
AcDbLine
 10
8989.977651852292
 20
2180.505395881099
 30
0.0
 11
11083.97765185229
 21
2180.505395881099
 31
0.0
  0
LINE
  5
196D3
330
747D
100
AcDbEntity
  8
部品1
 48
50.0
100
AcDbLine
 10
8959.977651852293
 20
2137.505395881099
 30
0.0
 11
11113.97765185229
 21
2137.505395881099
 31
0.0
  0
LINE
  5
196D4
330
747D
100
AcDbEntity
  8
部品1
 48
50.0
100
AcDbLine
 10
8959.977651852293
 20
2137.505395881099
 30
0.0
 11
11113.97765185229
 21
2137.505395881099
 31
0.0
  0
LINE
  5
196D5
330
747D
100
AcDbEntity
  8
部品1
 48
50.0
100
AcDbLine
 10
8989.977651852292
 20
3928.505395881098
 30
0.0
 11
8959.977651852293
 21
3928.505395881098
 31
0.0
  0
LINE
  5
196D6
330
747D
100
AcDbEntity
  8
細線
 48
50.0
100
AcDbLine
 10
11083.97765185229
 20
3930.005395881098
 30
0.0
 11
8989.977651852292
 21
3930.005395881098
 31
0.0
  0
LINE
  5
196D7
330
747D
100
AcDbEntity
  8
細線
 48
50.0
100
AcDbLine
 10
11083.97765185229
 20
3920.505395881099
 30
0.0
 11
8989.977651852292
 21
3920.505395881099
 31
0.0
  0
LINE
  5
196D8
330
747D
100
AcDbEntity
  8
細線
 48
50.0
100
AcDbLine
 10
11113.97765185229
 20
3962.505395881099
 30
0.0
 11
8959.977651852293
 21
3962.505395881099
 31
0.0
  0
LINE
  5
196D9
330
747D
100
AcDbEntity
  8
部品1
 48
50.0
100
AcDbLine
 10
11113.97765185229
 20
3972.505395881099
 30
0.0
 11
8959.977651852293
 21
3972.505395881099
 31
0.0
  0
LINE
  5
196DA
330
747D
100
AcDbEntity
  8
部品1
 48
50.0
100
AcDbLine
 10
11113.97765185229
 20
3928.505395881098
 30
0.0
 11
11083.97765185229
 21
3928.505395881098
 31
0.0
  0
LINE
  5
196DB
330
747D
100
AcDbEntity
  8
部品1
100
AcDbLine
 10
8986.977651852294
 20
3977.505395881099
 30
0.0
 11
8986.977651852296
 21
3972.505395881099
 31
0.0
  0
LINE
  5
196DC
330
747D
100
AcDbEntity
  8
部品1
 48
50.0
100
AcDbLine
 10
11506.97765185229
 20
2187.505395881099
 30
0.0
 11
11506.97765185229
 21
3977.505395881099
 31
0.0
  0
LINE
  5
196DD
330
747D
100
AcDbEntity
  8
細線
 48
50.0
100
AcDbLine
 10
11164.4776518523
 20
3977.505395881101
 30
0.0
 11
11164.4776518523
 21
2187.505395881099
 31
0.0
  0
LINE
  5
196DE
330
747D
100
AcDbEntity
  8
細線
 48
50.0
100
AcDbLine
 10
11149.4776518523
 20
3977.505395881101
 30
0.0
 11
11149.4776518523
 21
2187.505395881099
 31
0.0
  0
LINE
  5
196DF
330
747D
100
AcDbEntity
  8
細線
 48
50.0
100
AcDbLine
 10
11289.4776518523
 20
3977.505395881101
 30
0.0
 11
11289.4776518523
 21
2187.505395881099
 31
0.0
  0
LINE
  5
196E0
330
747D
100
AcDbEntity
  8
細線
 48
50.0
100
AcDbLine
 10
11304.4776518523
 20
3977.505395881101
 30
0.0
 11
11304.4776518523
 21
2187.505395881099
 31
0.0
  0
LINE
  5
196E1
330
747D
100
AcDbEntity
  8
細線
 48
50.0
100
AcDbLine
 10
11444.4776518523
 20
3977.505395881101
 30
0.0
 11
11444.4776518523
 21
2187.505395881099
 31
0.0
  0
LINE
  5
196E2
330
747D
100
AcDbEntity
  8
細線
 48
50.0
100
AcDbLine
 10
11429.4776518523
 20
3977.505395881101
 30
0.0
 11
11429.4776518523
 21
2187.505395881099
 31
0.0
  0
LINE
  5
196E3
330
747D
100
AcDbEntity
  8
細線
 48
50.0
100
AcDbLine
 10
8909.477651852295
 20
3977.505395881099
 30
0.0
 11
8909.477651852292
 21
2187.505395881099
 31
0.0
  0
LINE
  5
196E4
330
747D
100
AcDbEntity
  8
細線
 48
50.0
100
AcDbLine
 10
8924.477651852294
 20
3977.505395881099
 30
0.0
 11
8924.477651852292
 21
2187.505395881099
 31
0.0
  0
LINE
  5
196E5
330
747D
100
AcDbEntity
  8
細線
 48
50.0
100
AcDbLine
 10
8784.477651852295
 20
3977.505395881099
 30
0.0
 11
8784.477651852292
 21
2187.505395881099
 31
0.0
  0
LINE
  5
196E6
330
747D
100
AcDbEntity
  8
細線
 48
50.0
100
AcDbLine
 10
8769.477651852294
 20
3977.505395881099
 30
0.0
 11
8769.477651852293
 21
2187.505395881099
 31
0.0
  0
LINE
  5
196E7
330
747D
100
AcDbEntity
  8
細線
 48
50.0
100
AcDbLine
 10
8629.477651852294
 20
3977.505395881099
 30
0.0
 11
8629.477651852292
 21
2187.505395881099
 31
0.0
  0
LINE
  5
196E8
330
747D
100
AcDbEntity
  8
細線
 48
50.0
100
AcDbLine
 10
8644.477651852294
 20
3977.505395881099
 30
0.0
 11
8644.477651852293
 21
2187.505395881099
 31
0.0
  0
MTEXT
  5
196E9
330
747D
100
AcDbEntity
  8
寸法
 62
     7
 48
50.0
100
AcDbMText
 10
9297.080188945397
 20
9076.713801315845
 30
0.0
 40
96.0
 41
0.0
 71
     5
 72
     1
  1
棚 2段
  7
STYLE1
 73
     1
 44
1.0
1001
ACAD
1000
MTEXTBEGIN
1070
    73
1070
     1
1070
    44
1040
1.0
1070
    74
1070
     0
1000
MTEXTEND
  0
MTEXT
  5
196EA
330
747D
100
AcDbEntity
  8
寸法
 62
     7
 48
50.0
100
AcDbMText
 10
10807.08018894543
 20
9076.71380131587
 30
0.0
 40
96.0
 41
0.0
 71
     5
 72
     1
  1
棚 2段
  7
STYLE1
 73
     1
 44
1.0
1001
ACAD
1000
MTEXTBEGIN
1070
    73
1070
     1
1070
    44
1040
1.0
1070
    74
1070
     0
1000
MTEXTEND
  0
LINE
  5
19A75
330
747D
100
AcDbEntity
  8
補助
  6
PHANTOM
 62
   230
 48
50.0
100
AcDbLine
 10
140.0
 20
0.0
 30
0.0
 11
140.0
 21
11409.6
 31
0.0
  0
LINE
  5
19CA0
330
747D
100
AcDbEntity
  8
部品1
100
AcDbLine
 10
6402.380622515036
 20
2137.505395881101
 30
0.0
 11
6409.880622515039
 21
2137.505395881101
 31
0.0
  0
LINE
  5
19CA1
330
747D
100
AcDbEntity
  8
部品1
100
AcDbLine
 10
4247.380622515037
 20
2137.505395881101
 30
0.0
 11
6362.380622515036
 21
2137.505395881101
 31
0.0
  0
LINE
  5
19CA2
330
747D
100
AcDbEntity
  8
細線
 48
50.0
100
AcDbLine
 10
5592.38062251504
 20
3977.505395881101
 30
0.0
 11
5592.38062251504
 21
2187.505395881101
 31
0.0
  0
LINE
  5
19CA3
330
747D
100
AcDbEntity
  8
細線
 48
50.0
100
AcDbLine
 10
5577.38062251504
 20
3977.505395881101
 30
0.0
 11
5577.38062251504
 21
2187.505395881101
 31
0.0
  0
LINE
  5
19CA4
330
747D
100
AcDbEntity
  8
細線
 48
50.0
100
AcDbLine
 10
5717.38062251504
 20
3977.505395881101
 30
0.0
 11
5717.38062251504
 21
2187.505395881101
 31
0.0
  0
LINE
  5
19CA5
330
747D
100
AcDbEntity
  8
細線
 48
50.0
100
AcDbLine
 10
5732.380622515041
 20
3977.505395881101
 30
0.0
 11
5732.380622515041
 21
2187.505395881101
 31
0.0
  0
LINE
  5
19CA6
330
747D
100
AcDbEntity
  8
細線
 48
50.0
100
AcDbLine
 10
5872.380622515041
 20
3977.505395881101
 30
0.0
 11
5872.380622515041
 21
2187.505395881101
 31
0.0
  0
LINE
  5
19CA7
330
747D
100
AcDbEntity
  8
細線
 48
50.0
100
AcDbLine
 10
5857.380622515041
 20
3977.505395881101
 30
0.0
 11
5857.380622515041
 21
2187.505395881101
 31
0.0
  0
LINE
  5
19CA8
330
747D
100
AcDbEntity
  8
部品1
100
AcDbLine
 10
5934.880622515037
 20
3977.505395881101
 30
0.0
 11
5934.880622515037
 21
2187.505395881101
 31
0.0
  0
LINE
  5
19CA9
330
747D
100
AcDbEntity
  8
部品1
100
AcDbLine
 10
4199.880622515037
 20
3977.505395881101
 30
0.0
 11
6409.880622515039
 21
3977.505395881101
 31
0.0
  0
LINE
  5
19CAA
330
747D
100
AcDbEntity
  8
部品1
100
AcDbLine
 10
4199.880622515037
 20
2187.505395881101
 30
0.0
 11
6409.880622515039
 21
2187.505395881101
 31
0.0
  0
LINE
  5
19CAB
330
747D
100
AcDbEntity
  8
部品1
100
AcDbLine
 10
4254.880622515036
 20
3977.505395881101
 30
0.0
 11
4254.880622515036
 21
2187.505395881101
 31
0.0
  0
LINE
  5
19CAC
330
747D
100
AcDbEntity
  8
部品1
100
AcDbLine
 10
4199.88062251504
 20
4071.505395881104
 30
0.0
 11
4199.880622515037
 21
2037.505395881101
 31
0.0
  0
LINE
  5
19CAD
330
747D
100
AcDbEntity
  8
部品1
100
AcDbLine
 10
4674.880622515036
 20
3977.505395881101
 30
0.0
 11
4674.880622515036
 21
2187.505395881101
 31
0.0
  0
LINE
  5
19CAE
330
747D
100
AcDbEntity
  8
部品1
100
AcDbLine
 10
6409.880622515037
 20
4071.505395881109
 30
0.0
 11
6409.880622515039
 21
2037.505395881101
 31
0.0
  0
LINE
  5
19CAF
330
747D
100
AcDbEntity
  8
部品1
100
AcDbLine
 10
6354.88062251504
 20
3977.505395881101
 30
0.0
 11
6354.88062251504
 21
2187.505395881101
 31
0.0
  0
LINE
  5
19CB0
330
747D
100
AcDbEntity
  8
部品1
100
AcDbLine
 10
4199.880622515037
 20
2137.505395881101
 30
0.0
 11
4207.380622515036
 21
2137.505395881101
 31
0.0
  0
LINE
  5
19CB1
330
747D
100
AcDbEntity
  8
細線
 48
50.0
100
AcDbLine
 10
4752.380622515036
 20
3977.505395881101
 30
0.0
 11
4752.380622515036
 21
2187.505395881101
 31
0.0
  0
LINE
  5
19CB2
330
747D
100
AcDbEntity
  8
細線
 48
50.0
100
AcDbLine
 10
4737.380622515036
 20
3977.505395881101
 30
0.0
 11
4737.380622515036
 21
2187.505395881101
 31
0.0
  0
LINE
  5
19CB3
330
747D
100
AcDbEntity
  8
細線
 48
50.0
100
AcDbLine
 10
4877.380622515037
 20
3977.505395881101
 30
0.0
 11
4877.380622515037
 21
2187.505395881101
 31
0.0
  0
LINE
  5
19CB4
330
747D
100
AcDbEntity
  8
細線
 48
50.0
100
AcDbLine
 10
4892.380622515037
 20
3977.505395881101
 30
0.0
 11
4892.380622515037
 21
2187.505395881101
 31
0.0
  0
LINE
  5
19CB5
330
747D
100
AcDbEntity
  8
細線
 48
50.0
100
AcDbLine
 10
5032.380622515036
 20
3977.505395881101
 30
0.0
 11
5032.380622515036
 21
2187.505395881101
 31
0.0
  0
LINE
  5
19CB6
330
747D
100
AcDbEntity
  8
細線
 48
50.0
100
AcDbLine
 10
5017.380622515037
 20
3977.505395881101
 30
0.0
 11
5017.380622515037
 21
2187.505395881101
 31
0.0
  0
LINE
  5
19CB7
330
747D
100
AcDbEntity
  8
細線
 48
50.0
100
AcDbLine
 10
4597.380622515037
 20
3977.505395881101
 30
0.0
 11
4597.380622515037
 21
2187.505395881101
 31
0.0
  0
LINE
  5
19CB8
330
747D
100
AcDbEntity
  8
細線
 48
50.0
100
AcDbLine
 10
4612.380622515036
 20
3977.505395881101
 30
0.0
 11
4612.380622515036
 21
2187.505395881101
 31
0.0
  0
LINE
  5
19CB9
330
747D
100
AcDbEntity
  8
細線
 48
50.0
100
AcDbLine
 10
4472.380622515037
 20
3977.505395881101
 30
0.0
 11
4472.380622515037
 21
2187.505395881101
 31
0.0
  0
LINE
  5
19CBA
330
747D
100
AcDbEntity
  8
細線
 48
50.0
100
AcDbLine
 10
4457.380622515036
 20
3977.505395881101
 30
0.0
 11
4457.380622515036
 21
2187.505395881101
 31
0.0
  0
LINE
  5
19CBB
330
747D
100
AcDbEntity
  8
細線
 48
50.0
100
AcDbLine
 10
4317.380622515036
 20
3977.505395881101
 30
0.0
 11
4317.380622515036
 21
2187.505395881101
 31
0.0
  0
LINE
  5
19CBC
330
747D
100
AcDbEntity
  8
細線
 48
50.0
100
AcDbLine
 10
4332.380622515036
 20
3977.505395881101
 30
0.0
 11
4332.380622515036
 21
2187.505395881101
 31
0.0
  0
LINE
  5
19CBD
330
747D
100
AcDbEntity
  8
部品1
100
AcDbLine
 10
5094.880622515036
 20
3977.505395881101
 30
0.0
 11
5094.880622515036
 21
2187.505395881101
 31
0.0
  0
LINE
  5
19CBE
330
747D
100
AcDbEntity
  8
細線
 48
50.0
100
AcDbLine
 10
5437.38062251504
 20
3977.505395881101
 30
0.0
 11
5437.38062251504
 21
2187.505395881101
 31
0.0
  0
LINE
  5
19CBF
330
747D
100
AcDbEntity
  8
細線
 48
50.0
100
AcDbLine
 10
5452.38062251504
 20
3977.505395881101
 30
0.0
 11
5452.38062251504
 21
2187.505395881101
 31
0.0
  0
LINE
  5
19CC0
330
747D
100
AcDbEntity
  8
細線
 48
50.0
100
AcDbLine
 10
5312.38062251504
 20
3977.505395881101
 30
0.0
 11
5312.38062251504
 21
2187.505395881101
 31
0.0
  0
LINE
  5
19CC1
330
747D
100
AcDbEntity
  8
細線
 48
50.0
100
AcDbLine
 10
5297.38062251504
 20
3977.505395881101
 30
0.0
 11
5297.38062251504
 21
2187.505395881101
 31
0.0
  0
LINE
  5
19CC2
330
747D
100
AcDbEntity
  8
細線
 48
50.0
100
AcDbLine
 10
5157.380622515041
 20
3977.505395881101
 30
0.0
 11
5157.380622515041
 21
2187.505395881101
 31
0.0
  0
LINE
  5
19CC3
330
747D
100
AcDbEntity
  8
細線
 48
50.0
100
AcDbLine
 10
5172.38062251504
 20
3977.505395881101
 30
0.0
 11
5172.38062251504
 21
2187.505395881101
 31
0.0
  0
LINE
  5
19CC4
330
747D
100
AcDbEntity
  8
部品1
100
AcDbLine
 10
5514.880622515036
 20
3977.505395881101
 30
0.0
 11
5514.880622515036
 21
2187.505395881101
 31
0.0
  0
LINE
  5
19CC5
330
747D
100
AcDbEntity
  8
細線
 48
50.0
100
AcDbLine
 10
6012.380622515044
 20
3977.505395881101
 30
0.0
 11
6012.380622515044
 21
2187.505395881101
 31
0.0
  0
LINE
  5
19CC6
330
747D
100
AcDbEntity
  8
細線
 48
50.0
100
AcDbLine
 10
5997.380622515044
 20
3977.505395881101
 30
0.0
 11
5997.380622515044
 21
2187.505395881101
 31
0.0
  0
LINE
  5
19CC7
330
747D
100
AcDbEntity
  8
細線
 48
50.0
100
AcDbLine
 10
6137.380622515044
 20
3977.505395881101
 30
0.0
 11
6137.380622515044
 21
2187.505395881101
 31
0.0
  0
LINE
  5
19CC8
330
747D
100
AcDbEntity
  8
細線
 48
50.0
100
AcDbLine
 10
6152.380622515043
 20
3977.505395881101
 30
0.0
 11
6152.380622515043
 21
2187.505395881101
 31
0.0
  0
LINE
  5
19CC9
330
747D
100
AcDbEntity
  8
細線
 48
50.0
100
AcDbLine
 10
6292.380622515043
 20
3977.505395881101
 30
0.0
 11
6292.380622515043
 21
2187.505395881101
 31
0.0
  0
LINE
  5
19CCA
330
747D
100
AcDbEntity
  8
細線
 48
50.0
100
AcDbLine
 10
6277.380622515043
 20
3977.505395881101
 30
0.0
 11
6277.380622515043
 21
2187.505395881101
 31
0.0
  0
TEXT
  5
19CCB
330
747D
100
AcDbEntity
  8
部品1
100
AcDbText
 10
5012.591390824425
 20
1155.573603685166
 30
0.0
 40
135.0
  1
側面図
  7
STYLE2
100
AcDbText
  0
LINE
  5
19CCC
330
747D
100
AcDbEntity
  8
部品1
100
AcDbLine
 10
4923.145289400817
 20
1348.467132903691
 30
0.0
 11
4923.145289400817
 21
1108.574811358158
 31
0.0
  0
LINE
  5
19CCD
330
747D
100
AcDbEntity
  8
部品1
100
AcDbLine
 10
4923.145289400817
 20
1108.574811358158
 30
0.0
 11
5686.615955629255
 21
1108.574811358158
 31
0.0
  0
LINE
  5
19CCE
330
747D
100
AcDbEntity
  8
部品1
100
AcDbLine
 10
5686.615955629255
 20
1108.574811358158
 30
0.0
 11
5686.615955629255
 21
1348.467132903691
 31
0.0
  0
LINE
  5
19CCF
330
747D
100
AcDbEntity
  8
部品1
100
AcDbLine
 10
5686.615955629255
 20
1348.467132903691
 30
0.0
 11
4923.145289400817
 21
1348.467132903691
 31
0.0
  0
LINE
  5
19CD0
330
747D
100
AcDbEntity
  8
部品1
100
AcDbLine
 10
4199.880622515037
 20
2137.505395881101
 30
0.0
 11
4207.380622515036
 21
2137.505395881101
 31
0.0
  0
LINE
  5
19CD1
330
747D
100
AcDbEntity
  8
破線
  6
HIDDEN
 48
5.0
100
AcDbLine
 10
6417.380622515037
 20
1882.505395881101
 30
0.0
 11
6347.380622515037
 21
1882.505395881101
 31
0.0
  0
LINE
  5
19CD2
330
747D
100
AcDbEntity
  8
破線
  6
HIDDEN
 48
5.0
100
AcDbLine
 10
6362.380622515036
 20
2032.505395881102
 30
0.0
 11
6347.380622515037
 21
1884.805395881101
 31
0.0
  0
LINE
  5
19CD3
330
747D
100
AcDbEntity
  8
破線
  6
HIDDEN
 48
5.0
100
AcDbLine
 10
6347.380622515037
 20
1884.805395881101
 30
0.0
 11
6347.380622515037
 21
1882.505395881101
 31
0.0
  0
LINE
  5
19CD4
330
747D
100
AcDbEntity
  8
破線
  6
HIDDEN
 48
5.0
100
AcDbLine
 10
6402.380622515036
 20
2032.505395881102
 30
0.0
 11
6417.380622515037
 21
1884.805395881101
 31
0.0
  0
LINE
  5
19CD5
330
747D
100
AcDbEntity
  8
破線
  6
HIDDEN
 48
5.0
100
AcDbLine
 10
6417.380622515037
 20
1884.805395881101
 30
0.0
 11
6417.380622515037
 21
1882.505395881101
 31
0.0
  0
LINE
  5
19CD6
330
747D
100
AcDbEntity
  8
破線
  6
HIDDEN
 48
5.0
100
AcDbLine
 10
4192.380622515036
 20
1882.505395881101
 30
0.0
 11
4262.380622515037
 21
1882.505395881101
 31
0.0
  0
LINE
  5
19CD7
330
747D
100
AcDbEntity
  8
破線
  6
HIDDEN
 48
5.0
100
AcDbLine
 10
4192.380622515036
 20
1884.805395881101
 30
0.0
 11
4192.380622515036
 21
1882.505395881101
 31
0.0
  0
LINE
  5
19CD8
330
747D
100
AcDbEntity
  8
破線
  6
HIDDEN
 48
5.0
100
AcDbLine
 10
4262.380622515037
 20
1884.805395881101
 30
0.0
 11
4262.380622515037
 21
1882.505395881101
 31
0.0
  0
LINE
  5
19CD9
330
747D
100
AcDbEntity
  8
破線
  6
HIDDEN
 48
5.0
100
AcDbLine
 10
4207.380622515036
 20
2032.505395881102
 30
0.0
 11
4192.380622515036
 21
1884.805395881101
 31
0.0
  0
LINE
  5
19CDA
330
747D
100
AcDbEntity
  8
破線
  6
HIDDEN
 48
5.0
100
AcDbLine
 10
4247.380622515037
 20
2032.505395881102
 30
0.0
 11
4262.380622515037
 21
1884.805395881101
 31
0.0
  0
LINE
  5
19CDB
330
747D
100
AcDbEntity
  8
部品1
 48
50.0
100
AcDbLine
 10
4207.380622515036
 20
2177.505395881102
 30
0.0
 11
4207.380622515036
 21
2037.505395881101
 31
0.0
  0
LINE
  5
19CDC
330
747D
100
AcDbEntity
  8
部品1
 48
50.0
100
AcDbLine
 10
4247.380622515037
 20
2177.505395881102
 30
0.0
 11
4247.380622515037
 21
2037.505395881101
 31
0.0
  0
LINE
  5
19CDD
330
747D
100
AcDbEntity
  8
部品1
100
AcDbLine
 10
4212.380622515037
 20
2182.505395881102
 30
0.0
 11
4242.380622515036
 21
2182.505395881102
 31
0.0
  0
ARC
  5
19CDE
330
747D
100
AcDbEntity
  8
部品1
 48
50.0
100
AcDbCircle
 10
4212.380622515037
 20
2177.505395881102
 30
0.0
 40
5.0
100
AcDbArc
 50
90.0
 51
180.0
  0
ARC
  5
19CDF
330
747D
100
AcDbEntity
  8
部品1
 48
50.0
100
AcDbCircle
 10
4242.380622515036
 20
2177.505395881102
 30
0.0
 40
5.0
100
AcDbArc
 50
0.0
 51
90.0
  0
LINE
  5
19CE0
330
747D
100
AcDbEntity
  8
部品1
 48
50.0
100
AcDbLine
 10
6362.380622515036
 20
2177.505395881102
 30
0.0
 11
6362.380622515036
 21
2037.505395881101
 31
0.0
  0
LINE
  5
19CE1
330
747D
100
AcDbEntity
  8
部品1
 48
50.0
100
AcDbLine
 10
6402.380622515036
 20
2177.505395881102
 30
0.0
 11
6402.380622515036
 21
2037.505395881101
 31
0.0
  0
LINE
  5
19CE2
330
747D
100
AcDbEntity
  8
部品1
100
AcDbLine
 10
6397.380622515036
 20
2182.505395881102
 30
0.0
 11
6367.380622515036
 21
2182.505395881102
 31
0.0
  0
ARC
  5
19CE3
330
747D
100
AcDbEntity
  8
部品1
 48
50.0
100
AcDbCircle
 10
6367.380622515036
 20
2177.505395881102
 30
0.0
 40
5.0
100
AcDbArc
 50
90.0
 51
180.0
  0
ARC
  5
19CE4
330
747D
100
AcDbEntity
  8
部品1
 48
50.0
100
AcDbCircle
 10
6397.380622515036
 20
2177.505395881102
 30
0.0
 40
5.0
100
AcDbArc
 50
0.0
 51
90.0
  0
LINE
  5
19CE5
330
747D
100
AcDbEntity
  8
破線
  6
HIDDEN
 48
5.0
100
AcDbLine
 10
6362.380622515036
 20
2037.505395881101
 30
0.0
 11
6362.380622515036
 21
2032.505395881102
 31
0.0
  0
LINE
  5
19CE6
330
747D
100
AcDbEntity
  8
破線
  6
HIDDEN
 48
5.0
100
AcDbLine
 10
6402.380622515036
 20
2037.505395881101
 30
0.0
 11
6402.380622515036
 21
2032.505395881102
 31
0.0
  0
LINE
  5
19CE7
330
747D
100
AcDbEntity
  8
破線
  6
HIDDEN
 48
5.0
100
AcDbLine
 10
4207.380622515044
 20
2037.505395881101
 30
0.0
 11
4207.380622515044
 21
2032.505395881102
 31
0.0
  0
LINE
  5
19CE8
330
747D
100
AcDbEntity
  8
破線
  6
HIDDEN
 48
5.0
100
AcDbLine
 10
4247.380622515037
 20
2037.505395881101
 30
0.0
 11
4247.380622515037
 21
2032.505395881102
 31
0.0
  0
LINE
  5
19CE9
330
747D
100
AcDbEntity
  8
部品1
100
AcDbLine
 10
6402.380622515036
 20
2137.505395881101
 30
0.0
 11
6409.880622515039
 21
2137.505395881101
 31
0.0
  0
DIMENSION
  5
19CEA
330
747D
100
AcDbEntity
  8
寸法
 48
50.0
100
AcDbDimension
  2
*D25
 10
3977.880619268403
 20
2037.505395881099
 30
0.0
 11
3977.880619268402
 21
1937.5053958811
 31
0.0
 70
   160
 71
     5
 42
200.0
  3
INABA_S40G
100
AcDbAlignedDimension
 13
4127.38062251504
 23
1837.505395881099
 33
0.0
 14
4102.380622515036
 24
2037.505395881099
 34
0.0
 50
90.0
100
AcDbRotatedDimension
1001
ACAD
1000
DSTYLE
1002
{
1070
   174
1070
     0
1070
   272
1070
     1
1070
   288
1070
     0
1070
   341
1005
0
1002
}
  0
LINE
  5
19CEB
330
747D
100
AcDbEntity
  8
破線
 48
5.0
100
AcDbLine
 10
4327.380622515036
 20
1837.505395881098
 30
0.0
 11
4127.38062251504
 21
1837.505395881098
 31
0.0
  0
LINE
  5
19CEC
330
747D
100
AcDbEntity
  8
破線
 48
5.0
100
AcDbLine
 10
4327.380622515036
 20
2037.505395881101
 30
0.0
 11
4327.380622515036
 21
1837.505395881098
 31
0.0
  0
LINE
  5
19CED
330
747D
100
AcDbEntity
  8
破線
 48
5.0
100
AcDbLine
 10
4127.380622515036
 20
2037.505395881101
 30
0.0
 11
4127.38062251504
 21
1837.505395881098
 31
0.0
  0
DIMENSION
  5
19CEE
330
747D
100
AcDbEntity
  8
寸法
 48
50.0
100
AcDbDimension
  2
*D26
 10
4127.38062251504
 20
1551.458066580721
 30
0.0
 11
4227.380622515038
 21
1551.458066580721
 31
0.0
 70
   160
 71
     5
 42
199.9999999999963
  3
INABA_S40G
100
AcDbAlignedDimension
 13
4327.380622515036
 23
1837.505395881098
 33
0.0
 14
4127.38062251504
 24
1837.505395881099
 34
0.0
100
AcDbRotatedDimension
  0
LINE
  5
19CEF
330
747D
100
AcDbEntity
  8
破線
 48
5.0
100
AcDbLine
 10
6482.380622515043
 20
2037.505395881101
 30
0.0
 11
6482.380622515041
 21
1837.505395881098
 31
0.0
  0
LINE
  5
19CF0
330
747D
100
AcDbEntity
  8
破線
 48
5.0
100
AcDbLine
 10
6482.380622515041
 20
1837.505395881098
 30
0.0
 11
6282.380622515044
 21
1837.505395881101
 31
0.0
  0
LINE
  5
19CF1
330
747D
100
AcDbEntity
  8
破線
 48
5.0
100
AcDbLine
 10
6282.380622515044
 20
2037.505395881101
 30
0.0
 11
6282.380622515044
 21
1837.505395881101
 31
0.0
  0
LINE
  5
19CF2
330
747D
100
AcDbEntity
  8
部品1
 48
50.0
100
AcDbLine
 10
6409.880622515039
 20
3972.505395881102
 30
0.0
 11
6486.880622515041
 21
3962.505395881102
 31
0.0
  0
LINE
  5
19CF3
330
747D
100
AcDbEntity
  8
部品1
 48
50.0
100
AcDbLine
 10
6486.880622515041
 20
3962.505395881102
 30
0.0
 11
6486.880622515041
 21
2037.505395881101
 31
0.0
  0
LINE
  5
19CF4
330
747D
100
AcDbEntity
  8
部品1
 48
50.0
100
AcDbLine
 10
6486.880622515041
 20
2137.505395881101
 30
0.0
 11
6402.380622515041
 21
2137.505395881101
 31
0.0
  0
LINE
  5
19CF5
330
747D
100
AcDbEntity
  8
部品1
100
AcDbLine
 10
6209.880622515036
 20
2137.505395881101
 30
0.0
 11
6209.880622515036
 21
2037.505395881101
 31
0.0
  0
LINE
  5
19CF6
330
747D
100
AcDbEntity
  8
部品1
 48
50.0
100
AcDbLine
 10
5404.880622515037
 20
2137.505395881101
 30
0.0
 11
5404.880622515037
 21
2037.505395881101
 31
0.0
  0
LINE
  5
19CF7
330
747D
100
AcDbEntity
  8
部品1
 48
50.0
100
AcDbLine
 10
5204.880622515037
 20
2137.505395881101
 30
0.0
 11
5204.880622515037
 21
2037.505395881101
 31
0.0
  0
LINE
  5
19CF8
330
747D
100
AcDbEntity
  8
部品1
100
AcDbLine
 10
4399.880622515037
 20
2137.505395881101
 30
0.0
 11
4399.880622515037
 21
2037.505395881101
 31
0.0
  0
TEXT
  5
19CF9
330
747D
100
AcDbEntity
  8
部品1
100
AcDbText
 10
3080.041318319556
 20
2073.612299487003
 30
0.0
 40
125.0
  1
▽G.L
  7
STYLE2
100
AcDbText
  0
DIMENSION
  5
19CFA
330
747D
100
AcDbEntity
  8
寸法
 48
50.0
100
AcDbDimension
  2
*D27
 10
6459.88062251504
 20
4826.719529729821
 30
0.0
 11
5304.880622515036
 21
4826.719529729821
 31
0.0
 70
   160
 71
     5
 42
2310.000000000004
  3
INABA_S40G
100
AcDbAlignedDimension
 13
4149.880622515037
 23
4212.505395881104
 33
0.0
 14
6459.88062251504
 24
4212.505395881101
 34
0.0
100
AcDbRotatedDimension
  0
DIMENSION
  5
19CFB
330
747D
100
AcDbEntity
  8
寸法
 48
50.0
100
AcDbDimension
  2
*D28
 10
4149.880622515037
 20
4617.125655308369
 30
0.0
 11
3836.395341140789
 21
4617.125655308369
 31
0.0
 70
   160
 71
     5
 42
50.0
  3
INABA_S40G
100
AcDbAlignedDimension
 13
4199.880622515037
 23
4212.505395881104
 33
0.0
 14
4149.880622515037
 24
4212.505395881104
 34
0.0
100
AcDbRotatedDimension
1001
ACAD
1000
DSTYLE
1002
{
1002
}
  0
DIMENSION
  5
19CFC
330
747D
100
AcDbEntity
  8
寸法
 48
50.0
100
AcDbDimension
  2
*D29
 10
4199.880622515037
 20
4617.125655308369
 30
0.0
 11
5304.880622515036
 21
4617.125655308369
 31
0.0
 70
   160
  1
柱外寸法<>
 71
     5
 42
2210.000000000004
  3
INABA_S40G
100
AcDbAlignedDimension
 13
6409.880622515039
 23
4212.505395881104
 33
0.0
 14
4199.880622515037
 24
4212.505395881104
 34
0.0
100
AcDbRotatedDimension
  0
LINE
  5
19CFD
330
747D
100
AcDbEntity
  8
部品1
 48
50.0
100
AcDbLine
 10
6452.472201408608
 20
4212.505395881101
 30
0.0
 11
4157.289043621466
 21
4212.505395881104
 31
0.0
  0
LINE
  5
19CFE
330
747D
100
AcDbEntity
  8
部品1
 48
50.0
100
AcDbLine
 10
6439.25687794757
 20
4071.505395881109
 30
0.0
 11
4170.504367082499
 21
4071.505395881104
 31
0.0
  0
LINE
  5
19CFF
330
747D
100
AcDbEntity
  8
細線
 48
50.0
100
AcDbLine
 10
6457.841084293599
 20
4184.505395881105
 30
0.0
 11
4151.920160736474
 21
4184.505395881101
 31
0.0
  0
LINE
  5
19D00
330
747D
100
AcDbEntity
  8
細線
 48
50.0
100
AcDbLine
 10
6449.605053768753
 20
4092.3053958811
 30
0.0
 11
4160.156191261303
 21
4092.305395881104
 31
0.0
  0
LINE
  5
19D01
330
747D
100
AcDbEntity
  8
細線
 48
50.0
100
AcDbLine
 10
4182.880622515036
 20
4212.505395881104
 30
0.0
 11
4182.880622515036
 21
4071.505395881104
 31
0.0
  0
ARC
  5
19D02
330
747D
100
AcDbEntity
  8
部品1
100
AcDbCircle
 10
4157.289043621466
 20
4205.505395881105
 30
0.0
 40
7.0
100
AcDbArc
 50
90.0
 51
183.2473427903317
  0
ARC
  5
19D03
330
747D
100
AcDbEntity
  8
部品1
100
AcDbCircle
 10
4170.504367082499
 20
4078.505395881104
 30
0.0
 40
7.0
100
AcDbArc
 50
183.2473427903317
 51
270.0
  0
ARC
  5
19D04
330
747D
100
AcDbEntity
  8
部品1
 48
50.0
100
AcDbCircle
 10
4152.132556871824
 20
4185.172395042789
 30
0.0
 40
0.7
100
AcDbArc
 50
183.2473427904417
 51
262.3418727926349
  0
ARC
  5
19D05
330
747D
100
AcDbEntity
  8
部品1
 48
50.0
100
AcDbCircle
 10
4160.368587396663
 20
4092.972395042788
 30
0.0
 40
0.7
100
AcDbArc
 50
183.2473427903317
 51
262.3418727926349
  0
ARC
  5
19D06
330
747D
100
AcDbEntity
  8
部品1
 48
50.0
100
AcDbCircle
 10
4159.875518288103
 20
4089.3053958811
 30
0.0
 40
3.0
100
AcDbArc
 50
3.247342790331777
 51
82.3418727926348
  0
ARC
  5
19D07
330
747D
100
AcDbEntity
  8
部品1
 48
50.0
100
AcDbCircle
 10
4151.639487763262
 20
4181.505395881105
 30
0.0
 40
3.0
100
AcDbArc
 50
3.247342790331777
 51
82.3418727926348
  0
LINE
  5
19D08
330
747D
100
AcDbEntity
  8
部品1
100
AcDbLine
 10
4154.634670659445
 20
4181.675335336207
 30
0.0
 11
4159.669711387556
 21
4092.932742503261
 31
0.0
  0
LINE
  5
19D09
330
747D
100
AcDbEntity
  8
部品1
100
AcDbLine
 10
4162.870701184292
 20
4089.475335336204
 30
0.0
 11
4163.515606991401
 21
4078.108870485864
 31
0.0
  0
LINE
  5
19D0A
330
747D
100
AcDbEntity
  8
部品1
100
AcDbLine
 10
4150.30028353037
 20
4205.108870485864
 30
0.0
 11
4151.433680862715
 21
4185.132742503266
 31
0.0
  0
ARC
  5
19D0B
330
747D
100
AcDbEntity
  8
部品1
 48
0.01
100
AcDbCircle
 10
5831.880622515036
 20
4041.505395881102
 30
0.0
 40
2.0
100
AcDbArc
 50
90.0
 51
180.0
  0
ARC
  5
19D0C
330
747D
100
AcDbEntity
  8
部品1
 48
0.01
100
AcDbCircle
 10
6007.880622515036
 20
4041.505395881102
 30
0.0
 40
2.0
100
AcDbArc
 50
0.0
 51
90.0
  0
LINE
  5
19D0D
330
747D
100
AcDbEntity
  8
細線
100
AcDbLine
 10
5919.880622515036
 20
4014.005395881102
 30
0.0
 11
5845.880622515037
 21
4014.005395881102
 31
0.0
  0
LINE
  5
19D0E
330
747D
100
AcDbEntity
  8
細線
100
AcDbLine
 10
5919.880622515036
 20
4037.005395881101
 30
0.0
 11
5993.880622515036
 21
4037.005395881101
 31
0.0
  0
LINE
  5
19D0F
330
747D
100
AcDbEntity
  8
細線
100
AcDbLine
 10
5993.880622515036
 20
4014.005395881102
 30
0.0
 11
5919.880622515036
 21
4014.005395881102
 31
0.0
  0
LINE
  5
19D10
330
747D
100
AcDbEntity
  8
細線
100
AcDbLine
 10
5845.880622515037
 20
4037.005395881101
 30
0.0
 11
5919.880622515036
 21
4037.005395881101
 31
0.0
  0
LINE
  5
19D11
330
747D
100
AcDbEntity
  8
細線
100
AcDbLine
 10
5845.880622515037
 20
4014.005395881102
 30
0.0
 11
5845.880622515037
 21
4037.005395881101
 31
0.0
  0
LINE
  5
19D12
330
747D
100
AcDbEntity
  8
細線
100
AcDbLine
 10
5993.880622515036
 20
4037.005395881101
 30
0.0
 11
5993.880622515036
 21
4014.005395881102
 31
0.0
  0
LINE
  5
19D13
330
747D
100
AcDbEntity
  8
部品1
 48
0.01
100
AcDbLine
 10
5831.880622515036
 20
4043.5053958811
 30
0.0
 11
6007.880622515036
 21
4043.5053958811
 31
0.0
  0
LINE
  5
19D14
330
747D
100
AcDbEntity
  8
細線
100
AcDbLine
 10
5993.880622515036
 20
4031.005395881101
 30
0.0
 11
5919.880622515036
 21
4031.005395881101
 31
0.0
  0
LINE
  5
19D15
330
747D
100
AcDbEntity
  8
細線
100
AcDbLine
 10
5993.880622515036
 20
4025.005395881101
 30
0.0
 11
5919.880622515036
 21
4025.005395881101
 31
0.0
  0
LINE
  5
19D16
330
747D
100
AcDbEntity
  8
細線
100
AcDbLine
 10
5993.880622515036
 20
4019.005395881101
 30
0.0
 11
5919.880622515036
 21
4019.005395881101
 31
0.0
  0
LINE
  5
19D17
330
747D
100
AcDbEntity
  8
細線
100
AcDbLine
 10
5993.880622515036
 20
4031.005395881101
 30
0.0
 11
5924.880622515036
 21
4031.005395881101
 31
0.0
  0
LINE
  5
19D18
330
747D
100
AcDbEntity
  8
細線
100
AcDbLine
 10
5845.880622515037
 20
4031.005395881098
 30
0.0
 11
5919.880622515036
 21
4031.005395881101
 31
0.0
  0
LINE
  5
19D19
330
747D
100
AcDbEntity
  8
細線
100
AcDbLine
 10
5845.880622515037
 20
4019.005395881097
 30
0.0
 11
5919.880622515036
 21
4019.005395881101
 31
0.0
  0
LINE
  5
19D1A
330
747D
100
AcDbEntity
  8
細線
100
AcDbLine
 10
5845.880622515037
 20
4025.005395881101
 30
0.0
 11
5919.880622515036
 21
4025.005395881101
 31
0.0
  0
LINE
  5
19D1B
330
747D
100
AcDbEntity
  8
細線
100
AcDbLine
 10
5919.880622515036
 20
4037.005395881101
 30
0.0
 11
5919.880622515036
 21
4014.005395881102
 31
0.0
  0
ARC
  5
19D1C
330
747D
100
AcDbEntity
  8
部品1
 48
0.01
100
AcDbCircle
 10
5831.880622515036
 20
4010.005395881101
 30
0.0
 40
2.0
100
AcDbArc
 50
180.0
 51
270.0
  0
ARC
  5
19D1D
330
747D
100
AcDbEntity
  8
部品1
 48
0.01
100
AcDbCircle
 10
6007.880622515036
 20
4010.005395881101
 30
0.0
 40
2.0
100
AcDbArc
 50
270.0
 51
0.0
  0
LINE
  5
19D1E
330
747D
100
AcDbEntity
  8
部品1
 48
0.01
100
AcDbLine
 10
5829.880622515037
 20
4010.005395881101
 30
0.0
 11
5829.880622515037
 21
4041.505395881102
 31
0.0
  0
LINE
  5
19D1F
330
747D
100
AcDbEntity
  8
部品1
 48
0.01
100
AcDbLine
 10
6007.880622515036
 20
4008.005395881101
 30
0.0
 11
5831.880622515036
 21
4008.005395881101
 31
0.0
  0
LINE
  5
19D20
330
747D
100
AcDbEntity
  8
部品1
 48
0.01
100
AcDbLine
 10
6009.880622515037
 20
4041.505395881102
 30
0.0
 11
6009.880622515037
 21
4010.005395881101
 31
0.0
  0
LINE
  5
19D21
330
747D
100
AcDbEntity
  8
細線
100
AcDbLine
 10
4689.880622515036
 20
4037.005395881101
 30
0.0
 11
4689.880622515032
 21
4014.005395881102
 31
0.0
  0
LINE
  5
19D22
330
747D
100
AcDbEntity
  8
細線
100
AcDbLine
 10
4763.880622515033
 20
4025.005395881101
 30
0.0
 11
4689.880622515036
 21
4025.005395881101
 31
0.0
  0
LINE
  5
19D23
330
747D
100
AcDbEntity
  8
細線
100
AcDbLine
 10
4763.880622515033
 20
4019.005395881097
 30
0.0
 11
4689.880622515036
 21
4019.005395881101
 31
0.0
  0
LINE
  5
19D24
330
747D
100
AcDbEntity
  8
細線
100
AcDbLine
 10
4763.880622515033
 20
4031.005395881098
 30
0.0
 11
4689.880622515036
 21
4031.005395881101
 31
0.0
  0
LINE
  5
19D25
330
747D
100
AcDbEntity
  8
細線
100
AcDbLine
 10
4615.880622515036
 20
4031.005395881101
 30
0.0
 11
4684.880622515037
 21
4031.005395881101
 31
0.0
  0
LINE
  5
19D26
330
747D
100
AcDbEntity
  8
細線
100
AcDbLine
 10
4615.880622515033
 20
4019.005395881101
 30
0.0
 11
4689.880622515036
 21
4019.005395881101
 31
0.0
  0
LINE
  5
19D27
330
747D
100
AcDbEntity
  8
細線
100
AcDbLine
 10
4615.880622515036
 20
4025.005395881101
 30
0.0
 11
4689.880622515036
 21
4025.005395881101
 31
0.0
  0
LINE
  5
19D28
330
747D
100
AcDbEntity
  8
細線
100
AcDbLine
 10
4615.880622515036
 20
4031.005395881101
 30
0.0
 11
4689.880622515036
 21
4031.005395881101
 31
0.0
  0
LINE
  5
19D29
330
747D
100
AcDbEntity
  8
部品1
 48
0.01
100
AcDbLine
 10
4777.880622515037
 20
4043.5053958811
 30
0.0
 11
4601.880622515036
 21
4043.5053958811
 31
0.0
  0
LINE
  5
19D2A
330
747D
100
AcDbEntity
  8
部品1
 48
0.01
100
AcDbLine
 10
4599.880622515036
 20
4041.505395881102
 30
0.0
 11
4599.880622515036
 21
4010.005395881101
 31
0.0
  0
LINE
  5
19D2B
330
747D
100
AcDbEntity
  8
部品1
 48
0.01
100
AcDbLine
 10
4601.880622515036
 20
4008.005395881101
 30
0.0
 11
4777.880622515032
 21
4008.005395881101
 31
0.0
  0
LINE
  5
19D2C
330
747D
100
AcDbEntity
  8
部品1
 48
0.01
100
AcDbLine
 10
4779.880622515032
 20
4010.005395881101
 30
0.0
 11
4779.880622515036
 21
4041.505395881102
 31
0.0
  0
LINE
  5
19D2D
330
747D
100
AcDbEntity
  8
細線
100
AcDbLine
 10
4615.880622515036
 20
4037.005395881101
 30
0.0
 11
4615.880622515036
 21
4014.005395881102
 31
0.0
  0
LINE
  5
19D2E
330
747D
100
AcDbEntity
  8
細線
100
AcDbLine
 10
4763.880622515037
 20
4014.005395881102
 30
0.0
 11
4763.880622515037
 21
4037.005395881101
 31
0.0
  0
LINE
  5
19D2F
330
747D
100
AcDbEntity
  8
細線
100
AcDbLine
 10
4763.880622515037
 20
4037.005395881101
 30
0.0
 11
4689.880622515036
 21
4037.005395881101
 31
0.0
  0
LINE
  5
19D30
330
747D
100
AcDbEntity
  8
細線
100
AcDbLine
 10
4615.880622515036
 20
4014.005395881102
 30
0.0
 11
4689.880622515036
 21
4014.005395881102
 31
0.0
  0
LINE
  5
19D31
330
747D
100
AcDbEntity
  8
細線
100
AcDbLine
 10
4689.880622515036
 20
4037.005395881101
 30
0.0
 11
4615.880622515036
 21
4037.005395881101
 31
0.0
  0
LINE
  5
19D32
330
747D
100
AcDbEntity
  8
細線
100
AcDbLine
 10
4689.880622515032
 20
4014.005395881102
 30
0.0
 11
4763.880622515037
 21
4014.005395881102
 31
0.0
  0
ARC
  5
19D33
330
747D
100
AcDbEntity
  8
部品1
 48
0.01
100
AcDbCircle
 10
4601.880622515036
 20
4041.505395881102
 30
0.0
 40
2.0
100
AcDbArc
 50
90.0
 51
180.0
  0
ARC
  5
19D34
330
747D
100
AcDbEntity
  8
部品1
 48
0.01
100
AcDbCircle
 10
4601.880622515036
 20
4010.005395881101
 30
0.0
 40
2.0
100
AcDbArc
 50
180.0
 51
270.0
  0
ARC
  5
19D35
330
747D
100
AcDbEntity
  8
部品1
 48
0.01
100
AcDbCircle
 10
4777.880622515037
 20
4041.505395881102
 30
0.0
 40
2.0
100
AcDbArc
 50
0.0
 51
90.0
  0
ARC
  5
19D36
330
747D
100
AcDbEntity
  8
部品1
 48
0.01
100
AcDbCircle
 10
4777.880622515032
 20
4010.005395881101
 30
0.0
 40
2.0
100
AcDbArc
 50
270.0
 51
0.0
  0
DIMENSION
  5
19D37
330
747D
100
AcDbEntity
  8
寸法
 48
50.0
100
AcDbDimension
  2
*D30
 10
6409.880622515039
 20
4617.125655308369
 30
0.0
 11
6773.365903889272
 21
4617.125655308369
 31
0.0
 70
   160
 71
     5
 42
50.0
  3
INABA_S40G
100
AcDbAlignedDimension
 13
6459.88062251504
 23
4212.505395881101
 33
0.0
 14
6409.880622515039
 24
4212.505395881104
 34
0.0
100
AcDbRotatedDimension
  0
LINE
  5
19D38
330
747D
100
AcDbEntity
  8
部品1
100
AcDbLine
 10
6459.460961499702
 20
4205.108870485864
 30
0.0
 11
6458.327564167361
 21
4185.132742503266
 31
0.0
  0
LINE
  5
19D39
330
747D
100
AcDbEntity
  8
細線
 48
50.0
100
AcDbLine
 10
6426.88062251504
 20
4212.505395881104
 30
0.0
 11
6426.88062251504
 21
4071.505395881104
 31
0.0
  0
LINE
  5
19D3A
330
747D
100
AcDbEntity
  8
部品1
100
AcDbLine
 10
6446.890543845781
 20
4089.475335336204
 30
0.0
 11
6446.245638038672
 21
4078.108870485864
 31
0.0
  0
LINE
  5
19D3B
330
747D
100
AcDbEntity
  8
部品1
100
AcDbLine
 10
6455.126574370623
 20
4181.675335336207
 30
0.0
 11
6450.091533642517
 21
4092.932742503261
 31
0.0
  0
ARC
  5
19D3C
330
747D
100
AcDbEntity
  8
部品1
 48
50.0
100
AcDbCircle
 10
6458.121757266811
 20
4181.505395881105
 30
0.0
 40
3.0
100
AcDbArc
 50
97.65812720736519
 51
176.7526572096682
  0
ARC
  5
19D3D
330
747D
100
AcDbEntity
  8
部品1
 48
50.0
100
AcDbCircle
 10
6449.885726741967
 20
4089.3053958811
 30
0.0
 40
3.0
100
AcDbArc
 50
97.65812720736519
 51
176.7526572096682
  0
ARC
  5
19D3E
330
747D
100
AcDbEntity
  8
部品1
 48
50.0
100
AcDbCircle
 10
6449.392657633405
 20
4092.972395042788
 30
0.0
 40
0.7
100
AcDbArc
 50
277.6581272073652
 51
356.7526572096682
  0
ARC
  5
19D3F
330
747D
100
AcDbEntity
  8
部品1
 48
50.0
100
AcDbCircle
 10
6457.628688158249
 20
4185.172395042789
 30
0.0
 40
0.7
100
AcDbArc
 50
277.6581272073652
 51
356.7526572095583
  0
ARC
  5
19D40
330
747D
100
AcDbEntity
  8
部品1
100
AcDbCircle
 10
6439.25687794757
 20
4078.505395881104
 30
0.0
 40
7.0
100
AcDbArc
 50
270.0
 51
356.7526572096682
  0
ARC
  5
19D41
330
747D
100
AcDbEntity
  8
部品1
100
AcDbCircle
 10
6452.472201408608
 20
4205.505395881105
 30
0.0
 40
7.0
100
AcDbArc
 50
356.7526572096682
 51
90.0
  0
TEXT
  5
1A13B
330
747D
100
AcDbEntity
  8
文字
 62
     7
 48
50.0
100
AcDbText
 10
13583.11819016569
 20
8550.013745883731
 30
0.0
 40
100.0
  1
棚板
  7
STYLE1
100
AcDbText
  0
TEXT
  5
1A13C
330
747D
100
AcDbEntity
  8
文字
 62
     7
 48
50.0
100
AcDbText
 10
15022.63965474516
 20
8550.013745883727
 30
0.0
 40
100.0
  1
F12            0.6
  7
STYLE1
100
AcDbText
  0
TEXT
  5
1A13D
330
747D
100
AcDbEntity
  8
文字
 62
     7
 48
50.0
100
AcDbText
 10
13583.11819016569
 20
9740.013745883729
 30
0.0
 40
100.0
  1
母屋中
  7
STYLE1
100
AcDbText
  0
TEXT
  5
1A13E
330
747D
100
AcDbEntity
  8
文字
 62
     7
 48
50.0
100
AcDbText
 10
13248.77747366447
 20
8720.013745883729
 30
0.0
 40
100.0
  1
15
  7
STYLE1
100
AcDbText
  0
LINE
  5
1A13F
330
747D
100
AcDbEntity
  8
仕様書枠
 48
50.0
100
AcDbLine
 10
16307.19999999999
 20
8009.600000000004
 30
0.0
 11
13127.19999999999
 21
8009.600000000006
 31
0.0
  0
TEXT
  5
1A140
330
747D
100
AcDbEntity
  8
文字
 62
     7
 48
50.0
100
AcDbText
 10
13583.11819016569
 20
8720.013745883731
 30
0.0
 40
100.0
  1
扉
  7
STYLE1
100
AcDbText
  0
TEXT
  5
1A141
330
747D
100
AcDbEntity
  8
文字
 62
     7
 48
50.0
100
AcDbText
 10
15022.63965474516
 20
8720.013745883727
 30
0.0
 40
100.0
  1
F12            0.8
  7
STYLE1
100
AcDbText
  0
TEXT
  5
1A142
330
747D
100
AcDbEntity
  8
文字
 62
     7
 48
50.0
100
AcDbText
 10
13583.11819016568
 20
8890.013745883731
 30
0.0
 40
100.0
  1
正面パネル
  7
STYLE1
100
AcDbText
  0
TEXT
  5
1A143
330
747D
100
AcDbEntity
  8
文字
 62
     7
 48
50.0
100
AcDbText
 10
15022.63965474515
 20
8890.013745883727
 30
0.0
 40
100.0
  1
F12            0.7
  7
STYLE1
100
AcDbText
  0
TEXT
  5
1A144
330
747D
100
AcDbEntity
  8
文字
 62
     7
 48
50.0
100
AcDbText
 10
15022.63965474517
 20
10590.01374588372
 30
0.0
 40
100.0
  1
F12            1.0
  7
STYLE1
100
AcDbText
  0
TEXT
  5
1A145
330
747D
100
AcDbEntity
  8
文字
 62
     7
 48
50.0
100
AcDbText
 10
15022.63965474516
 20
10930.01374588372
 30
0.0
 40
100.0
  1
F12            1.2
  7
STYLE1
100
AcDbText
  0
TEXT
  5
1A146
330
747D
100
AcDbEntity
  8
文字
 62
     7
 48
50.0
100
AcDbText
 10
13248.77747366448
 20
8890.013745883727
 30
0.0
 40
100.0
  1
14
  7
STYLE1
100
AcDbText
  0
TEXT
  5
1A147
330
747D
100
AcDbEntity
  8
文字
 62
     7
 48
50.0
100
AcDbText
 10
13583.11819016569
 20
10930.01374588372
 30
0.0
 40
100.0
  1
根太
  7
STYLE1
100
AcDbText
  0
TEXT
  5
1A148
330
747D
100
AcDbEntity
  8
文字
 62
     7
 48
50.0
100
AcDbText
 10
13583.1181901657
 20
10590.01374588372
 30
0.0
 40
100.0
  1
床パネル
 41
0.9
  7
STYLE1
100
AcDbText
  0
LINE
  5
1A149
330
747D
100
AcDbEntity
  8
仕様書枠
 48
50.0
100
AcDbLine
 10
16307.19999999999
 20
9029.6
 30
0.0
 11
13127.2
 21
9029.600000000002
 31
0.0
  0
LINE
  5
1A14A
330
747D
100
AcDbEntity
  8
仕様書枠
 48
50.0
100
AcDbLine
 10
13127.2
 20
11409.6
 30
0.0
 11
13127.19999999999
 21
8009.600000000006
 31
0.0
  0
TEXT
  5
1A14B
330
747D
100
AcDbEntity
  8
文字
 62
     7
 48
50.0
100
AcDbText
 10
13229.83081656554
 20
8040.013745883731
 30
0.0
 40
100.0
  1
Y10→溶融亜鉛-5％アルミニウム合金めっき鋼板(JIS G 3317)
 41
0.9
  7
STYLE1
100
AcDbText
  0
TEXT
  5
1A14C
330
747D
100
AcDbEntity
  8
文字
 62
     7
 48
50.0
100
AcDbText
 10
13229.83081656554
 20
8210.013745883733
 30
0.0
 40
100.0
  1
F12→溶融亜鉛めっき鋼板(JIS G 3302)
  7
STYLE1
100
AcDbText
  0
LINE
  5
1A14D
330
747D
100
AcDbEntity
  8
仕様書枠
 48
50.0
100
AcDbLine
 10
16307.19999999999
 20
8179.600000000004
 30
0.0
 11
13127.19999999999
 21
8179.600000000005
 31
0.0
  0
LINE
  5
1A14E
330
747D
100
AcDbEntity
  8
仕様書枠
 48
50.0
100
AcDbLine
 10
16307.19999999999
 20
8349.600000000004
 30
0.0
 11
13127.19999999999
 21
8349.600000000007
 31
0.0
  0
TEXT
  5
1A14F
330
747D
100
AcDbEntity
  8
文字
 62
     7
 48
50.0
100
AcDbText
 10
15022.63965474515
 20
9570.013745883725
 30
0.0
 40
100.0
  1
F12            0.6
  7
STYLE1
100
AcDbText
  0
TEXT
  5
1A150
330
747D
100
AcDbEntity
  8
文字
 62
     7
 48
50.0
100
AcDbText
 10
15022.63965474517
 20
9910.013745883725
 30
0.0
 40
100.0
  1
Y10            0.5
  7
STYLE1
100
AcDbText
  0
TEXT
  5
1A151
330
747D
100
AcDbEntity
  8
文字
 62
     7
 48
50.0
100
AcDbText
 10
15022.63965474516
 20
10080.01374588372
 30
0.0
 40
100.0
  1
Y10            0.7
  7
STYLE1
100
AcDbText
  0
TEXT
  5
1A152
330
747D
100
AcDbEntity
  8
文字
 62
     7
 48
50.0
100
AcDbText
 10
15022.63965474516
 20
10250.01374588372
 30
0.0
 40
100.0
  1
Y10            0.7
  7
STYLE1
100
AcDbText
  0
TEXT
  5
1A153
330
747D
100
AcDbEntity
  8
文字
 62
     7
 48
50.0
100
AcDbText
 10
15022.63965474516
 20
10420.01374588372
 30
0.0
 40
100.0
  1
Y10            1.0
  7
STYLE1
100
AcDbText
  0
TEXT
  5
1A154
330
747D
100
AcDbEntity
  8
文字
 62
     7
 48
50.0
100
AcDbText
 10
15022.63965474518
 20
10760.01374588372
 30
0.0
 40
100.0
  1
F12            1.0
  7
STYLE1
100
AcDbText
  0
TEXT
  5
1A155
330
747D
100
AcDbEntity
  8
文字
 62
     7
 48
50.0
100
AcDbText
 10
15022.63965474517
 20
11100.01374588372
 30
0.0
 40
100.0
  1
F12            1.2
  7
STYLE1
100
AcDbText
  0
TEXT
  5
1A156
330
747D
100
AcDbEntity
  8
文字
 62
     7
 48
50.0
100
AcDbText
 10
13248.77747366448
 20
9230.013745883727
 30
0.0
 40
100.0
  1
12
  7
STYLE1
100
AcDbText
  0
TEXT
  5
1A157
330
747D
100
AcDbEntity
  8
文字
 62
     7
 48
50.0
100
AcDbText
 10
13248.77747366448
 20
9060.013745883727
 30
0.0
 40
100.0
  1
13
  7
STYLE1
100
AcDbText
  0
LINE
  5
1A158
330
747D
100
AcDbEntity
  8
仕様書枠
 48
50.0
100
AcDbLine
 10
16307.19999999999
 20
8859.6
 30
0.0
 11
13127.2
 21
8859.600000000002
 31
0.0
  0
LINE
  5
1A159
330
747D
100
AcDbEntity
  8
仕様書枠
 48
50.0
100
AcDbLine
 10
16307.19999999999
 20
9199.599999999998
 30
0.0
 11
13127.2
 21
9199.600000000001
 31
0.0
  0
TEXT
  5
1A15A
330
747D
100
AcDbEntity
  8
文字
 62
     7
 48
50.0
100
AcDbText
 10
13248.77747366447
 20
9400.013745883727
 30
0.0
 40
100.0
  1
11
  7
STYLE1
100
AcDbText
  0
LINE
  5
1A15B
330
747D
100
AcDbEntity
  8
仕様書枠
 48
50.0
100
AcDbLine
 10
16307.2
 20
9879.599999999999
 30
0.0
 11
13127.2
 21
9879.600000000001
 31
0.0
  0
LINE
  5
1A15C
330
747D
100
AcDbEntity
  8
仕様書枠
 48
50.0
100
AcDbLine
 10
16307.2
 20
10219.6
 30
0.0
 11
13127.2
 21
10219.6
 31
0.0
  0
LINE
  5
1A15D
330
747D
100
AcDbEntity
  8
仕様書枠
 48
50.0
100
AcDbLine
 10
16307.19999999999
 20
9539.599999999998
 30
0.0
 11
13127.2
 21
9539.6
 31
0.0
  0
LINE
  5
1A15E
330
747D
100
AcDbEntity
  8
仕様書枠
 48
50.0
100
AcDbLine
 10
16307.19999999999
 20
9369.599999999998
 30
0.0
 11
13127.2
 21
9369.600000000001
 31
0.0
  0
LINE
  5
1A15F
330
747D
100
AcDbEntity
  8
仕様書枠
 48
50.0
100
AcDbLine
 10
16307.19999999999
 20
9709.6
 30
0.0
 11
13127.2
 21
9709.600000000001
 31
0.0
  0
TEXT
  5
1A160
330
747D
100
AcDbEntity
  8
文字
 62
     7
 48
50.0
100
AcDbText
 10
13271.19032244792
 20
10250.01374588373
 30
0.0
 40
100.0
  1
6
  7
STYLE1
100
AcDbText
  0
TEXT
  5
1A161
330
747D
100
AcDbEntity
  8
文字
 62
     7
 48
50.0
100
AcDbText
 10
13271.19032244792
 20
10080.01374588373
 30
0.0
 40
100.0
  1
7
  7
STYLE1
100
AcDbText
  0
TEXT
  5
1A162
330
747D
100
AcDbEntity
  8
文字
 62
     7
 48
50.0
100
AcDbText
 10
13271.19032244792
 20
9740.013745883729
 30
0.0
 40
100.0
  1
9
  7
STYLE1
100
AcDbText
  0
TEXT
  5
1A163
330
747D
100
AcDbEntity
  8
文字
 62
     7
 48
50.0
100
AcDbText
 10
13271.19032244792
 20
9910.01374588373
 30
0.0
 40
100.0
  1
8
  7
STYLE1
100
AcDbText
  0
TEXT
  5
1A164
330
747D
100
AcDbEntity
  8
文字
 62
     7
 48
50.0
100
AcDbText
 10
13583.11819016569
 20
10080.01374588372
 30
0.0
 40
100.0
  1
鼻隠シ前後
  7
STYLE1
100
AcDbText
  0
TEXT
  5
1A165
330
747D
100
AcDbEntity
  8
文字
 62
     7
 48
50.0
100
AcDbText
 10
13583.11819016569
 20
9910.013745883727
 30
0.0
 40
100.0
  1
屋根パネル
  7
STYLE1
100
AcDbText
  0
TEXT
  5
1A166
330
747D
100
AcDbEntity
  8
文字
 62
     7
 48
50.0
100
AcDbText
 10
13583.11819016568
 20
9570.013745883729
 30
0.0
 40
100.0
  1
壁パネル
  7
STYLE1
100
AcDbText
  0
TEXT
  5
1A167
330
747D
100
AcDbEntity
  8
文字
 62
     7
 48
50.0
100
AcDbText
 10
13248.77747366447
 20
9570.013745883727
 30
0.0
 40
100.0
  1
10
  7
STYLE1
100
AcDbText
  0
TEXT
  5
1A168
330
747D
100
AcDbEntity
  8
文字
 62
     7
 48
50.0
100
AcDbText
 10
13583.11819016569
 20
10250.01374588373
 30
0.0
 40
100.0
  1
妻板左右
  7
STYLE1
100
AcDbText
  0
TEXT
  5
1A169
330
747D
100
AcDbEntity
  8
文字
 62
     7
 48
50.0
100
AcDbText
 10
13271.19032244792
 20
10420.01374588372
 30
0.0
 40
100.0
  1
5
  7
STYLE1
100
AcDbText
  0
TEXT
  5
1A16A
330
747D
100
AcDbEntity
  8
文字
 62
     7
 48
50.0
100
AcDbText
 10
13583.11819016569
 20
10420.01374588373
 30
0.0
 40
100.0
  1
桁前後
  7
STYLE1
100
AcDbText
  0
TEXT
  5
1A16B
330
747D
100
AcDbEntity
  8
文字
 62
     7
 48
50.0
100
AcDbText
 10
13583.1181901657
 20
10760.01374588372
 30
0.0
 40
100.0
  1
柱
  7
STYLE1
100
AcDbText
  0
TEXT
  5
1A16C
330
747D
100
AcDbEntity
  8
文字
 62
     7
 48
50.0
100
AcDbText
 10
13583.11819016569
 20
11100.01374588372
 30
0.0
 40
100.0
  1
土台枠
  7
STYLE1
100
AcDbText
  0
TEXT
  5
1A16D
330
747D
100
AcDbEntity
  8
文字
 62
     7
 48
50.0
100
AcDbText
 10
14859.79774614482
 20
11270.01374588372
 30
0.0
 40
100.0
  1
材料（材質）　　単位mm
  7
STYLE1
100
AcDbText
  0
TEXT
  5
1A16E
330
747D
100
AcDbEntity
  8
文字
 62
     7
 48
50.0
100
AcDbText
 10
13732.03840939434
 20
11270.01374588372
 30
0.0
 40
100.0
  1
部　　品　　名
  7
STYLE1
100
AcDbText
  0
TEXT
  5
1A16F
330
747D
100
AcDbEntity
  8
文字
 62
     7
 48
50.0
100
AcDbText
 10
13271.19032244792
 20
10760.01374588373
 30
0.0
 40
100.0
  1
3
  7
STYLE1
100
AcDbText
  0
TEXT
  5
1A170
330
747D
100
AcDbEntity
  8
文字
 62
     7
 48
50.0
100
AcDbText
 10
13271.19032244792
 20
10590.01374588373
 30
0.0
 40
100.0
  1
4
  7
STYLE1
100
AcDbText
  0
TEXT
  5
1A171
330
747D
100
AcDbEntity
  8
文字
 62
     7
 48
50.0
100
AcDbText
 10
13271.19032244792
 20
10930.01374588373
 30
0.0
 40
100.0
  1
2
  7
STYLE1
100
AcDbText
  0
TEXT
  5
1A172
330
747D
100
AcDbEntity
  8
文字
 62
     7
 48
50.0
100
AcDbText
 10
13271.19032244792
 20
11100.01374588373
 30
0.0
 40
100.0
  1
1
  7
STYLE1
100
AcDbText
  0
TEXT
  5
1A173
330
747D
100
AcDbEntity
  8
文字
 62
     7
 48
50.0
100
AcDbText
 10
13197.42518560407
 20
11270.01374588372
 30
0.0
 40
100.0
  1
品番
  7
STYLE1
100
AcDbText
  0
LINE
  5
1A174
330
747D
100
AcDbEntity
  8
仕様書枠
 48
50.0
100
AcDbLine
 10
16307.19999999999
 20
10729.59999999999
 30
0.0
 11
13127.2
 21
10729.6
 31
0.0
  0
LINE
  5
1A175
330
747D
100
AcDbEntity
  8
仕様書枠
 48
50.0
100
AcDbLine
 10
16307.19999999999
 20
10389.6
 30
0.0
 11
13127.2
 21
10389.6
 31
0.0
  0
LINE
  5
1A176
330
747D
100
AcDbEntity
  8
仕様書枠
 48
50.0
100
AcDbLine
 10
16307.19999999999
 20
10559.6
 30
0.0
 11
13127.2
 21
10559.6
 31
0.0
  0
LINE
  5
1A177
330
747D
100
AcDbEntity
  8
仕様書枠
 48
50.0
100
AcDbLine
 10
16307.2
 20
11069.59999999999
 30
0.0
 11
13127.2
 21
11069.6
 31
0.0
  0
LINE
  5
1A178
330
747D
100
AcDbEntity
  8
仕様書枠
 48
50.0
100
AcDbLine
 10
16307.2
 20
10899.6
 30
0.0
 11
13127.2
 21
10899.6
 31
0.0
  0
LINE
  5
1A179
330
747D
100
AcDbEntity
  8
仕様書枠
 48
50.0
100
AcDbLine
 10
16307.2
 20
11239.59999999999
 30
0.0
 11
13127.2
 21
11239.6
 31
0.0
  0
LINE
  5
1A17A
330
747D
100
AcDbEntity
  8
仕様書枠
 48
50.0
100
AcDbLine
 10
13490.2
 20
11409.59999999999
 30
0.0
 11
13490.20000000001
 21
8349.600000000007
 31
0.0
  0
LINE
  5
1A17B
330
747D
100
AcDbEntity
  8
仕様書枠
 48
50.0
100
AcDbLine
 10
14785.2
 20
11409.59999999999
 30
0.0
 11
14785.2
 21
8349.600000000004
 31
0.0
  0
LINE
  5
1A17C
330
747D
100
AcDbEntity
  8
仕様書枠
 48
50.0
100
AcDbLine
 10
16307.19999999999
 20
8009.600000000004
 30
0.0
 11
16307.2
 21
11409.6
 31
0.0
  0
LINE
  5
1A17D
330
747D
100
AcDbEntity
  8
仕様書枠
 48
50.0
100
AcDbLine
 10
16307.2
 20
11409.59999999999
 30
0.0
 11
13127.2
 21
11409.6
 31
0.0
  0
LINE
  5
1A17E
330
747D
100
AcDbEntity
  8
仕様書枠
 48
50.0
100
AcDbLine
 10
16307.2
 20
10049.6
 30
0.0
 11
13127.2
 21
10049.6
 31
0.0
  0
TEXT
  5
1A17F
330
747D
100
AcDbEntity
  8
文字
 62
     7
 48
50.0
100
AcDbText
 10
15022.63965474515
 20
8380.013745883724
 30
0.0
 40
100.0
  1
F12            2.3
  7
STYLE1
100
AcDbText
  0
TEXT
  5
1A180
330
747D
100
AcDbEntity
  8
文字
 62
     7
 48
50.0
100
AcDbText
 10
13583.11819016569
 20
8380.013745883728
 30
0.0
 40
100.0
  1
アンカープレート
  7
STYLE1
100
AcDbText
  0
LINE
  5
1A181
330
747D
100
AcDbEntity
  8
仕様書枠
 48
50.0
100
AcDbLine
 10
16307.19999999999
 20
8519.600000000004
 30
0.0
 11
13127.2
 21
8519.600000000005
 31
0.0
  0
LINE
  5
1A182
330
747D
100
AcDbEntity
  8
仕様書枠
 48
50.0
100
AcDbLine
 10
16307.19999999999
 20
8689.600000000003
 30
0.0
 11
13127.2
 21
8689.600000000005
 31
0.0
  0
TEXT
  5
1A183
330
747D
100
AcDbEntity
  8
文字
 62
     7
 48
50.0
100
AcDbText
 10
13583.11819016569
 20
9400.013745883729
 30
0.0
 40
100.0
  1
壁面扉鴨居
  7
STYLE1
100
AcDbText
  0
TEXT
  5
1A184
330
747D
100
AcDbEntity
  8
文字
 62
     7
 48
50.0
100
AcDbText
 10
13583.11819016569
 20
9230.013745883733
 30
0.0
 40
100.0
  1
壁面扉敷居
  7
STYLE1
100
AcDbText
  0
TEXT
  5
1A185
330
747D
100
AcDbEntity
  8
文字
 62
     7
 48
50.0
100
AcDbText
 10
15022.63965474515
 20
9400.013745883727
 30
0.0
 40
100.0
  1
F12            0.7
  7
STYLE1
100
AcDbText
  0
TEXT
  5
1A186
330
747D
100
AcDbEntity
  8
文字
 62
     7
 48
50.0
100
AcDbText
 10
15022.63965474517
 20
9230.013745883725
 30
0.0
 40
100.0
  1
F12            1.0
  7
STYLE1
100
AcDbText
  0
TEXT
  5
1A187
330
747D
100
AcDbEntity
  8
文字
 62
     7
 48
50.0
100
AcDbText
 10
13583.11819016569
 20
9060.013745883733
 30
0.0
 40
100.0
  1
壁面扉枠左右
  7
STYLE1
100
AcDbText
  0
TEXT
  5
1A188
330
747D
100
AcDbEntity
  8
文字
 62
     7
 48
50.0
100
AcDbText
 10
15022.63965474517
 20
9060.013745883725
 30
0.0
 40
100.0
  1
F12            1.0
  7
STYLE1
100
AcDbText
  0
TEXT
  5
1A189
330
747D
100
AcDbEntity
  8
文字
 62
     7
 48
50.0
100
AcDbText
 10
13248.77747366447
 20
8550.013745883729
 30
0.0
 40
100.0
  1
16
  7
STYLE1
100
AcDbText
  0
TEXT
  5
1A18A
330
747D
100
AcDbEntity
  8
文字
 62
     7
 48
50.0
100
AcDbText
 10
13248.77747366447
 20
8380.013745883728
 30
0.0
 40
100.0
  1
17
  7
STYLE1
100
AcDbText
  0
TEXT
  5
1A18B
330
747D
100
AcDbEntity
  8
文字
 62
     7
 48
50.0
100
AcDbText
 10
14798.72402257234
 20
9740.013745883725
 30
0.0
 40
100.0
  1
F12(一般型1.0/多雪地型2.3)
  7
STYLE1
100
AcDbText
  0
LINE
  5
1A1E3
330
747D
100
AcDbEntity
  8
部品1
100
AcDbLine
 10
11505.47765185227
 20
8175.478983118534
 30
0.0
 11
8568.477651852274
 21
8175.478983118434
 31
0.0
  0
LINE
  5
1A1E4
330
747D
100
AcDbEntity
  8
部品1
100
AcDbLine
 10
8539.977651852263
 20
8175.478983118434
 30
0.0
 11
8511.977651852262
 21
8175.478983118434
 31
0.0
  0
LINE
  5
1A1E5
330
747D
100
AcDbEntity
  8
部品1
100
AcDbLine
 10
11533.97765185229
 20
8175.47898311856
 30
0.0
 11
11561.97765185229
 21
8175.47898311856
 31
0.0
  0
LINE
  5
1A557
330
747D
100
AcDbEntity
  8
寸法
 48
50.0
100
AcDbLine
 10
9422.180658134102
 20
7058.515734687282
 30
0.0
 11
9370.774650223998
 21
7058.515734687282
 31
0.0
  0
LINE
  5
1A558
330
747D
100
AcDbEntity
  8
寸法
 48
50.0
100
AcDbLine
 10
9370.774650223998
 20
7058.515734687282
 30
0.0
 11
9370.774650223998
 21
7089.825893339448
 31
0.0
  0
LINE
  5
1A559
330
747D
100
AcDbEntity
  8
寸法
 48
50.0
100
AcDbLine
 10
9370.774650223998
 20
7089.825893339448
 30
0.0
 11
9341.013318232574
 21
7089.825893339448
 31
0.0
  0
LINE
  5
1A55A
330
747D
100
AcDbEntity
  8
寸法
 48
50.0
100
AcDbLine
 10
9341.013318232574
 20
7089.825893339448
 30
0.0
 11
9396.477654179051
 21
7127.405344268058
 31
0.0
  0
LINE
  5
1A55B
330
747D
100
AcDbEntity
  8
寸法
 48
50.0
100
AcDbLine
 10
9451.941990125526
 20
7089.825893339448
 30
0.0
 11
9396.477654179051
 21
7127.405344268058
 31
0.0
  0
LINE
  5
1A55C
330
747D
100
AcDbEntity
  8
寸法
 48
50.0
100
AcDbLine
 10
9422.180658134102
 20
7089.825893339448
 30
0.0
 11
9451.941990125526
 21
7089.825893339448
 31
0.0
  0
LINE
  5
1A55D
330
747D
100
AcDbEntity
  8
寸法
 48
50.0
100
AcDbLine
 10
9422.180658134102
 20
7058.515734687282
 30
0.0
 11
9422.180658134102
 21
7089.825893339448
 31
0.0
  0
LINE
  5
1A55E
330
747D
100
AcDbEntity
  8
寸法
 48
50.0
100
AcDbLine
 10
9370.774650223998
 20
7058.515734687282
 30
0.0
 11
9422.180658134102
 21
7058.515734687282
 31
0.0
  0
LINE
  5
1A55F
330
747D
100
AcDbEntity
  8
寸法
 48
50.0
100
AcDbLine
 10
9701.34619241096
 20
7115.661325442104
 30
0.0
 11
9701.34619241096
 21
7061.997690860315
 31
0.0
  0
LINE
  5
1A560
330
747D
100
AcDbEntity
  8
寸法
 48
50.0
100
AcDbLine
 10
9790.630411006382
 20
7091.737691172619
 30
0.0
 11
9701.34619241096
 21
7115.661325442104
 31
0.0
  0
LINE
  5
1A561
330
747D
100
AcDbEntity
  8
寸法
 48
50.0
100
AcDbLine
 10
9571.478470830657
 20
7091.737691172619
 30
0.0
 11
9790.630411006382
 21
7091.737691172619
 31
0.0
  0
LINE
  5
1A562
330
747D
100
AcDbEntity
  8
細線
 48
50.0
100
AcDbLine
 10
10447.97765185226
 20
7256.979098067144
 30
0.0
 11
11074.97765185226
 21
7256.979098067144
 31
0.0
  0
LINE
  5
1A563
330
747D
100
AcDbEntity
  8
細線
 48
50.0
100
AcDbLine
 10
9793.977656505848
 20
7223.270329513069
 30
0.0
 11
11074.97765185226
 21
7223.270329513069
 31
0.0
  0
LINE
  5
1A564
330
747D
100
AcDbEntity
  8
細線
 48
50.0
100
AcDbLine
 10
9752.977656505851
 20
7252.675237509322
 30
0.0
 11
8998.977651852257
 21
7252.675237509318
 31
0.0
  0
LINE
  5
1A565
330
747D
100
AcDbEntity
  8
細線
100
AcDbLine
 10
10850.7276424358
 20
7276.478998032153
 30
0.0
 11
10853.05918195761
 21
7281.479000672113
 31
0.0
  0
LINE
  5
1A566
330
747D
100
AcDbEntity
  8
細線
100
AcDbLine
 10
10920.72765185226
 20
7276.478983118419
 30
0.0
 11
10918.39610537607
 21
7281.479000672099
 31
0.0
  0
LINE
  5
1A567
330
747D
100
AcDbEntity
  8
細線
100
AcDbLine
 10
10918.39610537607
 20
7281.479000672099
 30
0.0
 11
10853.05918195759
 21
7281.479000672085
 31
0.0
  0
LINE
  5
1A568
330
747D
100
AcDbEntity
  8
細線
100
AcDbLine
 10
10778.39610537607
 20
7281.479000672099
 30
0.0
 11
10713.0591819576
 21
7281.479000672085
 31
0.0
  0
LINE
  5
1A569
330
747D
100
AcDbEntity
  8
細線
100
AcDbLine
 10
10780.72765185226
 20
7276.478983118419
 30
0.0
 11
10778.39610537607
 21
7281.479000672099
 31
0.0
  0
LINE
  5
1A56A
330
747D
100
AcDbEntity
  8
細線
100
AcDbLine
 10
10710.7276424358
 20
7276.478998032153
 30
0.0
 11
10713.05918195761
 21
7281.479000672113
 31
0.0
  0
LINE
  5
1A56B
330
747D
100
AcDbEntity
  8
細線
100
AcDbLine
 10
10570.72765185226
 20
7276.478983118419
 30
0.0
 11
10573.05919137407
 21
7281.47898575838
 31
0.0
  0
LINE
  5
1A56C
330
747D
100
AcDbEntity
  8
細線
100
AcDbLine
 10
10640.72766126872
 20
7276.478968204685
 30
0.0
 11
10638.39611479253
 21
7281.478985758366
 31
0.0
  0
LINE
  5
1A56D
330
747D
100
AcDbEntity
  8
細線
100
AcDbLine
 10
10638.39611479253
 20
7281.478985758366
 30
0.0
 11
10573.05919137405
 21
7281.478985758351
 31
0.0
  0
LINE
  5
1A56E
330
747D
100
AcDbEntity
  8
細線
100
AcDbLine
 10
10343.14613604136
 20
7247.479022455748
 30
0.0
 11
10277.80921262289
 21
7247.479022455732
 31
0.0
  0
LINE
  5
1A56F
330
747D
100
AcDbEntity
  8
細線
100
AcDbLine
 10
10345.47768251755
 20
7242.479004902067
 30
0.0
 11
10343.14613604136
 21
7247.479022455748
 31
0.0
  0
LINE
  5
1A570
330
747D
100
AcDbEntity
  8
細線
100
AcDbLine
 10
10275.47767310109
 20
7242.4790198158
 30
0.0
 11
10277.8092126229
 21
7247.479022455762
 31
0.0
  0
LINE
  5
1A571
330
747D
100
AcDbEntity
  8
細線
 48
50.0
100
AcDbLine
 10
10116.86103110027
 20
7260.7498462715
 30
0.0
 11
10122.61654868294
 21
7242.478994981013
 31
0.0
  0
LINE
  5
1A572
330
747D
100
AcDbEntity
  8
細線
 48
50.0
100
AcDbLine
 10
10105.93258261984
 20
7260.7498462715
 30
0.0
 11
10116.86103110027
 21
7260.7498462715
 31
0.0
  0
ARC
  5
1A573
330
747D
100
AcDbEntity
  8
細線
 48
50.0
100
AcDbCircle
 10
10100.47822656252
 20
7262.2498462715
 30
0.0
 40
5.0
100
AcDbArc
 50
204.6243183521304
 51
335.3756816478695
  0
ARC
  5
1A574
330
747D
100
AcDbEntity
  8
細線
 48
50.0
100
AcDbCircle
 10
10105.93258261984
 20
7259.7498462715
 30
0.0
 40
1.0
100
AcDbArc
 50
90.0
 51
155.3756816478695
  0
ARC
  5
1A575
330
747D
100
AcDbEntity
  8
細線
 48
50.0
100
AcDbCircle
 10
10095.0238705052
 20
7259.7498462715
 30
0.0
 40
1.0
100
AcDbArc
 50
24.62431835213048
 51
90.0
  0
LINE
  5
1A576
330
747D
100
AcDbEntity
  8
細線
 48
50.0
100
AcDbLine
 10
10084.09542202477
 20
7260.7498462715
 30
0.0
 11
10095.0238705052
 21
7260.7498462715
 31
0.0
  0
LINE
  5
1A577
330
747D
100
AcDbEntity
  8
細線
 48
50.0
100
AcDbLine
 10
10078.3399044421
 20
7242.478994981006
 30
0.0
 11
10084.09542202477
 21
7260.7498462715
 31
0.0
  0
LINE
  5
1A578
330
747D
100
AcDbEntity
  8
細線
100
AcDbLine
 10
10135.47767433213
 20
7242.47899234681
 30
0.0
 11
10137.80921385395
 21
7247.478994986771
 31
0.0
  0
LINE
  5
1A579
330
747D
100
AcDbEntity
  8
細線
100
AcDbLine
 10
10205.4776837486
 20
7242.478977433076
 30
0.0
 11
10203.1461372724
 21
7247.478994986757
 31
0.0
  0
LINE
  5
1A57A
330
747D
100
AcDbEntity
  8
細線
100
AcDbLine
 10
10203.1461372724
 20
7247.478994986757
 30
0.0
 11
10137.80921385393
 21
7247.478994986741
 31
0.0
  0
LINE
  5
1A57B
330
747D
100
AcDbEntity
  8
細線
100
AcDbLine
 10
10063.14610890789
 20
7247.478994980976
 30
0.0
 11
9997.809185489415
 21
7247.478994980962
 31
0.0
  0
LINE
  5
1A57C
330
747D
100
AcDbEntity
  8
細線
100
AcDbLine
 10
10065.47765538407
 20
7242.478977427296
 30
0.0
 11
10063.14610890789
 21
7247.478994980976
 31
0.0
  0
LINE
  5
1A57D
330
747D
100
AcDbEntity
  8
細線
100
AcDbLine
 10
9995.477647198661
 20
7242.478994981006
 30
0.0
 11
9997.80918548943
 21
7247.478994980991
 31
0.0
  0
LINE
  5
1A57E
330
747D
100
AcDbEntity
  8
細線
100
AcDbLine
 10
9855.477682517552
 20
7242.479003168376
 30
0.0
 11
9857.80922080832
 21
7247.479003168361
 31
0.0
  0
LINE
  5
1A57F
330
747D
100
AcDbEntity
  8
細線
100
AcDbLine
 10
9925.477690702969
 20
7242.478985614666
 30
0.0
 11
9923.146144226782
 21
7247.479003168343
 31
0.0
  0
LINE
  5
1A580
330
747D
100
AcDbEntity
  8
細線
100
AcDbLine
 10
9923.146144226782
 20
7247.479003168343
 30
0.0
 11
9857.809220808306
 21
7247.479003168331
 31
0.0
  0
LINE
  5
1A581
330
747D
100
AcDbEntity
  8
細線
100
AcDbLine
 10
9483.977648320431
 20
7208.479174849088
 30
0.0
 11
9486.309186611199
 21
7213.479174849074
 31
0.0
  0
LINE
  5
1A582
330
747D
100
AcDbEntity
  8
細線
100
AcDbLine
 10
9553.977656505848
 20
7208.479157295375
 30
0.0
 11
9551.646110029661
 21
7213.479174849052
 31
0.0
  0
LINE
  5
1A583
330
747D
100
AcDbEntity
  8
細線
100
AcDbLine
 10
9551.646110029661
 20
7213.479174849052
 30
0.0
 11
9486.309186611189
 21
7213.479174849044
 31
0.0
  0
LINE
  5
1A584
330
747D
100
AcDbEntity
  8
細線
100
AcDbLine
 10
9691.64611002966
 20
7213.479174849052
 30
0.0
 11
9626.309186611187
 21
7213.479174849044
 31
0.0
  0
LINE
  5
1A585
330
747D
100
AcDbEntity
  8
細線
100
AcDbLine
 10
9693.977656505849
 20
7208.479157295375
 30
0.0
 11
9691.64611002966
 21
7213.479174849052
 31
0.0
  0
LINE
  5
1A586
330
747D
100
AcDbEntity
  8
細線
100
AcDbLine
 10
9623.977648320432
 20
7208.479174849088
 30
0.0
 11
9626.3091866112
 21
7213.479174849074
 31
0.0
  0
LINE
  5
1A587
330
747D
100
AcDbEntity
  8
細線
100
AcDbLine
 10
9411.646110029661
 20
7213.479174849052
 30
0.0
 11
9346.309186611188
 21
7213.479174849041
 31
0.0
  0
LINE
  5
1A588
330
747D
100
AcDbEntity
  8
細線
100
AcDbLine
 10
9413.977656505847
 20
7208.479157295375
 30
0.0
 11
9411.646110029661
 21
7213.479174849052
 31
0.0
  0
LINE
  5
1A589
330
747D
100
AcDbEntity
  8
細線
100
AcDbLine
 10
9343.97764832043
 20
7208.479174849085
 30
0.0
 11
9346.309186611199
 21
7213.479174849069
 31
0.0
  0
LINE
  5
1A58A
330
747D
100
AcDbEntity
  8
細線
100
AcDbLine
 10
9203.977656505847
 20
7208.479174849088
 30
0.0
 11
9206.309194796615
 21
7213.479174849074
 31
0.0
  0
LINE
  5
1A58B
330
747D
100
AcDbEntity
  8
細線
100
AcDbLine
 10
9273.977664691264
 20
7208.479157295375
 30
0.0
 11
9271.646118215077
 21
7213.479174849052
 31
0.0
  0
LINE
  5
1A58C
330
747D
100
AcDbEntity
  8
細線
100
AcDbLine
 10
9271.646118215077
 20
7213.479174849052
 30
0.0
 11
9206.309194796604
 21
7213.479174849044
 31
0.0
  0
ARC
  5
1A58D
330
747D
100
AcDbEntity
  8
部品1
 48
0.01
100
AcDbCircle
 10
9159.477545253514
 20
7207.478052664015
 30
0.0
 40
0.5
100
AcDbArc
 50
270.0
 51
0.0
  0
LINE
  5
1A58E
330
747D
100
AcDbEntity
  8
部品1
 48
0.01
100
AcDbLine
 10
9159.977545253513
 20
7208.478052664016
 30
0.0
 11
9159.977545253513
 21
7207.478052664015
 31
0.0
  0
LINE
  5
1A58F
330
747D
100
AcDbEntity
  8
部品1
 48
0.01
100
AcDbLine
 10
9159.977545253513
 20
7208.478052664016
 30
0.0
 11
9159.977545253513
 21
7207.478052664015
 31
0.0
  0
LINE
  5
1A590
330
747D
100
AcDbEntity
  8
部品1
 48
0.01
100
AcDbLine
 10
9159.477545253514
 20
7206.978052664016
 30
0.0
 11
9152.865039823447
 21
7206.978052664016
 31
0.0
  0
ARC
  5
1A591
330
747D
100
AcDbEntity
  8
部品1
100
AcDbCircle
 10
9152.933389376228
 20
7207.978052664015
 30
0.0
 40
1.0
100
AcDbArc
 50
160.5287793655778
 51
270.0
  0
ARC
  5
1A592
330
747D
100
AcDbEntity
  8
部品1
100
AcDbCircle
 10
9127.477545253512
 20
7216.978052664015
 30
0.0
 40
26.0
100
AcDbArc
 50
340.5287793655779
 51
0.0
  0
LINE
  5
1A593
330
747D
100
AcDbEntity
  8
部品1
100
AcDbLine
 10
9153.477545253513
 20
7216.978052664015
 30
0.0
 11
9153.477545253513
 21
7221.978052664015
 31
0.0
  0
ARC
  5
1A594
330
747D
100
AcDbEntity
  8
部品1
 48
0.01
100
AcDbCircle
 10
9151.477545253511
 20
7221.978052664015
 30
0.0
 40
2.0
100
AcDbArc
 50
0.0
 51
90.0
  0
ARC
  5
1A595
330
747D
100
AcDbEntity
  8
部品1
100
AcDbCircle
 10
9149.869153628703
 20
7220.978052664015
 30
0.0
 40
3.0
100
AcDbArc
 50
90.0
 51
141.6069559807873
  0
LINE
  5
1A596
330
747D
100
AcDbEntity
  8
部品1
 48
0.01
100
AcDbLine
 10
9151.477545253511
 20
7223.978052664016
 30
0.0
 11
9149.869153628703
 21
7223.978052664016
 31
0.0
  0
ARC
  5
1A597
330
747D
100
AcDbEntity
  8
部品1
100
AcDbCircle
 10
9131.406831039241
 20
7220.278052664018
 30
0.0
 40
3.0
100
AcDbArc
 50
254.0576313943215
 51
270.0
  0
ARC
  5
1A598
330
747D
100
AcDbEntity
  8
部品1
100
AcDbCircle
 10
9138.548259467784
 20
7220.278052664018
 30
0.0
 40
3.0
100
AcDbArc
 50
270.0
 51
285.9423686056786
  0
LINE
  5
1A599
330
747D
100
AcDbEntity
  8
部品1
100
AcDbLine
 10
9138.548259467784
 20
7217.278052664018
 30
0.0
 11
9131.406831039241
 21
7217.278052664018
 31
0.0
  0
ARC
  5
1A59A
330
747D
100
AcDbEntity
  8
部品1
100
AcDbCircle
 10
9134.977545253512
 20
7232.778052664018
 30
0.0
 40
16.0
100
AcDbArc
 50
285.9423686056786
 51
321.6069559807873
  0
LINE
  5
1A59B
330
747D
100
AcDbEntity
  8
部品1
 48
0.01
100
AcDbLine
 10
9118.477545253512
 20
7223.978052664016
 30
0.0
 11
9120.085936878323
 21
7223.978052664016
 31
0.0
  0
ARC
  5
1A59C
330
747D
100
AcDbEntity
  8
部品1
100
AcDbCircle
 10
9120.085936878323
 20
7220.978052664015
 30
0.0
 40
3.0
100
AcDbArc
 50
38.39304401921267
 51
90.0
  0
ARC
  5
1A59D
330
747D
100
AcDbEntity
  8
部品1
100
AcDbCircle
 10
9134.977545253512
 20
7232.778052664018
 30
0.0
 40
16.0
100
AcDbArc
 50
218.3930440192126
 51
254.0576313943215
  0
LINE
  5
1A59E
330
747D
100
AcDbEntity
  8
部品1
100
AcDbLine
 10
9116.477545253513
 20
7216.978052664015
 30
0.0
 11
9116.477545253513
 21
7221.978052664015
 31
0.0
  0
ARC
  5
1A59F
330
747D
100
AcDbEntity
  8
部品1
 48
0.01
100
AcDbCircle
 10
9118.477545253512
 20
7221.978052664015
 30
0.0
 40
2.0
100
AcDbArc
 50
90.0
 51
180.0
  0
ARC
  5
1A5A0
330
747D
100
AcDbEntity
  8
部品1
100
AcDbCircle
 10
9142.477545253512
 20
7216.978052664015
 30
0.0
 40
26.0
100
AcDbArc
 50
180.0
 51
199.4712206344221
  0
ARC
  5
1A5A1
330
747D
100
AcDbEntity
  8
部品1
 48
0.01
100
AcDbCircle
 10
9110.477545253512
 20
7207.478052664015
 30
0.0
 40
0.5
100
AcDbArc
 50
180.0
 51
270.0
  0
LINE
  5
1A5A2
330
747D
100
AcDbEntity
  8
部品1
 48
0.01
100
AcDbLine
 10
9110.477545253512
 20
7206.978052664016
 30
0.0
 11
9117.021701130795
 21
7206.978052664016
 31
0.0
  0
LINE
  5
1A5A3
330
747D
100
AcDbEntity
  8
部品1
 48
0.01
100
AcDbLine
 10
9109.977545253512
 20
7208.478052664016
 30
0.0
 11
9109.977545253512
 21
7207.478052664015
 31
0.0
  0
ARC
  5
1A5A4
330
747D
100
AcDbEntity
  8
部品1
100
AcDbCircle
 10
9117.021701130795
 20
7207.978052664015
 30
0.0
 40
1.0
100
AcDbArc
 50
270.0
 51
19.47122063442214
  0
LINE
  5
1A5A5
330
747D
100
AcDbEntity
  8
細線
100
AcDbLine
 10
9155.477545253519
 20
7226.478052664019
 30
0.0
 11
9114.477545253519
 21
7226.478052664012
 31
0.0
  0
LINE
  5
1A5A6
330
747D
100
AcDbEntity
  8
細線
100
AcDbLine
 10
9114.477545253519
 20
7226.478052664012
 30
0.0
 11
9114.477545253519
 21
7208.478052663993
 31
0.0
  0
LINE
  5
1A5A7
330
747D
100
AcDbEntity
  8
細線
100
AcDbLine
 10
9155.477545253519
 20
7226.478052664019
 30
0.0
 11
9155.477545253519
 21
7208.478052663993
 31
0.0
  0
LINE
  5
1A5A8
330
747D
100
AcDbEntity
  8
細線
100
AcDbLine
 10
8998.977651852257
 20
7212.478983118419
 30
0.0
 11
8998.977651852257
 21
7208.478983118467
 31
0.0
  0
DIMENSION
  5
1A5A9
330
747D
100
AcDbEntity
  8
寸法
 48
50.0
100
AcDbDimension
  2
*D31
 10
10264.97765185226
 20
6553.869364594793
 30
0.0
 11
9654.373266026844
 21
6553.869364594793
 31
0.0
 70
   160
  1
有効開口部間口\P<>
 71
     5
 42
1266.0
  3
INABA_S40
100
AcDbAlignedDimension
 13
8998.977651852257
 23
7203.478983118419
 33
0.0
 14
10264.97765185226
 24
7203.478983118419
 34
0.0
100
AcDbRotatedDimension
1001
ACAD
1000
DSTYLE
1002
{
1070
    41
1040
0.5
1070
    44
1040
1.0
1070
   147
1040
0.8
1070
   271
1070
     2
1070
   272
1070
     2
1070
   289
1070
     3
1070
   340
1005
F706
1070
   343
1005
1908F
1070
   344
1005
1908F
1002
}
  0
LINE
  5
1A5AA
330
747D
100
AcDbEntity
  8
部品1
100
AcDbLine
 10
11086.97765185226
 20
7280.47898311842
 30
0.0
 11
11113.97765185226
 21
7280.47898311842
 31
0.0
  0
LINE
  5
1A5AC
330
747D
100
AcDbEntity
  8
部品1
100
AcDbLine
 10
11113.97765185226
 20
7203.478983118419
 30
0.0
 11
11113.97765185226
 21
7280.47898311842
 31
0.0
  0
LINE
  5
1A5AD
330
747D
100
AcDbEntity
  8
部品1
100
AcDbLine
 10
11074.97765185226
 20
7276.478983118419
 30
0.0
 11
11086.97765185226
 21
7276.478983118419
 31
0.0
  0
LINE
  5
1A5AE
330
747D
100
AcDbEntity
  8
部品1
100
AcDbLine
 10
11083.97765185226
 20
7212.478983118419
 30
0.0
 11
11083.97765185226
 21
7203.478983118419
 31
0.0
  0
LINE
  5
1A5AF
330
747D
100
AcDbEntity
  8
部品1
100
AcDbLine
 10
11074.97765185226
 20
7212.478983118419
 30
0.0
 11
11083.97765185226
 21
7212.478983118419
 31
0.0
  0
LINE
  5
1A5B0
330
747D
100
AcDbEntity
  8
部品1
100
AcDbLine
 10
11074.97765185226
 20
7276.478983118419
 30
0.0
 11
11074.97765185226
 21
7212.478983118419
 31
0.0
  0
LINE
  5
1A5B1
330
747D
100
AcDbEntity
  8
部品1
100
AcDbLine
 10
11086.97765185226
 20
7307.478983118419
 30
0.0
 11
11086.97765185226
 21
7276.478983118419
 31
0.0
  0
LINE
  5
1A5B2
330
747D
100
AcDbEntity
  8
部品1
100
AcDbLine
 10
8998.977651852257
 20
7276.478983118419
 30
0.0
 11
8986.977651852258
 21
7276.478983118419
 31
0.0
  0
LINE
  5
1A5B3
330
747D
100
AcDbEntity
  8
部品1
100
AcDbLine
 10
8959.977651852257
 20
7280.47898311842
 30
0.0
 11
8986.977651852258
 21
7280.47898311842
 31
0.0
  0
LINE
  5
1A5B4
330
747D
100
AcDbEntity
  8
部品1
100
AcDbLine
 10
8989.977651852257
 20
7212.478983118419
 30
0.0
 11
8989.977651852257
 21
7203.478983118419
 31
0.0
  0
LINE
  5
1A5B5
330
747D
100
AcDbEntity
  8
部品1
100
AcDbLine
 10
8998.977651852257
 20
7212.478983118419
 30
0.0
 11
8989.977651852257
 21
7212.478983118419
 31
0.0
  0
LINE
  5
1A5B6
330
747D
100
AcDbEntity
  8
部品1
100
AcDbLine
 10
8989.977651852257
 20
7203.478983118419
 30
0.0
 11
8959.977651852257
 21
7203.478983118419
 31
0.0
  0
LINE
  5
1A5B7
330
747D
100
AcDbEntity
  8
部品1
100
AcDbLine
 10
8959.977651852257
 20
7203.478983118419
 30
0.0
 11
8959.977651852257
 21
7280.47898311842
 31
0.0
  0
LINE
  5
1A5B8
330
747D
100
AcDbEntity
  8
部品1
100
AcDbLine
 10
8998.977651852257
 20
7276.478983118419
 30
0.0
 11
8998.977651852257
 21
7212.478983118419
 31
0.0
  0
LINE
  5
1A5B9
330
747D
100
AcDbEntity
  8
部品1
100
AcDbLine
 10
8986.977651852258
 20
7307.478983118414
 30
0.0
 11
8986.977651852258
 21
7276.478983118419
 31
0.0
  0
LINE
  5
1A5BA
330
747D
100
AcDbEntity
  8
部品1
100
AcDbLine
 10
8986.977651852258
 20
7307.478983118414
 30
0.0
 11
11086.97765185226
 21
7307.478983118419
 31
0.0
  0
LINE
  5
1A5BB
330
747D
100
AcDbEntity
  8
部品1
100
AcDbLine
 10
11083.97765185226
 20
7203.478983118419
 30
0.0
 11
11113.97765185226
 21
7203.478983118419
 31
0.0
  0
LINE
  5
1A5BC
330
747D
100
AcDbEntity
  8
部品1
100
AcDbLine
 10
8989.977651852257
 20
7203.478983118419
 30
0.0
 11
11086.97765185226
 21
7203.478983118419
 31
0.0
  0
LINE
  5
1A5BD
330
747D
100
AcDbEntity
  8
細線
  6
Continuous
 62
     5
100
AcDbLine
 10
10365.97765185226
 20
7242.478983118416
 30
0.0
 11
10365.97765185226
 21
7242.478983118416
 31
0.0
  0
LINE
  5
1A5BE
330
747D
100
AcDbEntity
  8
細線
  6
Continuous
 62
     5
100
AcDbLine
 10
10358.47768717115
 20
7242.478993039473
 30
0.0
 11
10358.47768717115
 21
7242.478993039473
 31
0.0
  0
LINE
  5
1A5BF
330
747D
100
AcDbEntity
  8
細線
  6
Continuous
 62
     5
100
AcDbLine
 10
10352.47768717115
 20
7242.478993039473
 30
0.0
 11
10352.47768717115
 21
7242.478993039473
 31
0.0
  0
LINE
  5
1A5C0
330
747D
100
AcDbEntity
  8
細線
  6
Continuous
 62
     5
100
AcDbLine
 10
10419.97765185226
 20
7261.478983118415
 30
0.0
 11
10419.97765185226
 21
7261.478983118415
 31
0.0
  0
LINE
  5
1A5C1
330
747D
100
AcDbEntity
  8
細線
 48
50.0
100
AcDbLine
 10
9012.977656505851
 20
7229.079157295373
 30
0.0
 11
9012.977656505851
 21
7237.475307703014
 31
0.0
  0
LINE
  5
1A5C2
330
747D
100
AcDbEntity
  8
細線
 48
50.0
100
AcDbLine
 10
9012.977656505851
 20
7237.475307703014
 30
0.0
 11
8998.977651852257
 21
7237.475307703009
 31
0.0
  0
LINE
  5
1A5C3
330
747D
100
AcDbEntity
  8
細線
 48
50.0
100
AcDbLine
 10
9763.977656505847
 20
7225.629157295372
 30
0.0
 11
9763.977656505847
 21
7230.479157295374
 31
0.0
  0
LINE
  5
1A5C4
330
747D
100
AcDbEntity
  8
細線
 48
50.0
100
AcDbLine
 10
9763.977656505847
 20
7230.479157295374
 30
0.0
 11
9778.977656505848
 21
7230.479157295374
 31
0.0
  0
LINE
  5
1A5C5
330
747D
100
AcDbEntity
  8
細線
 48
50.0
100
AcDbLine
 10
9778.977656505848
 20
7230.479157295374
 30
0.0
 11
9778.977656505851
 21
7237.479157295375
 31
0.0
  0
LINE
  5
1A5C6
330
747D
100
AcDbEntity
  8
細線
 48
50.0
100
AcDbLine
 10
9778.977656505851
 20
7237.479157295375
 30
0.0
 11
9793.977656505848
 21
7237.479157295375
 31
0.0
  0
LINE
  5
1A5C7
330
747D
100
AcDbEntity
  8
細線
 48
50.0
100
AcDbLine
 10
9793.977656505848
 20
7237.479157295375
 30
0.0
 11
9793.977656505848
 21
7208.479157295375
 31
0.0
  0
LINE
  5
1A5C8
330
747D
100
AcDbEntity
  8
細線
 48
50.0
100
AcDbLine
 10
8989.977651852257
 20
7208.476491638844
 30
0.0
 11
9203.977656505847
 21
7208.479174849088
 31
0.0
  0
LINE
  5
1A5C9
330
747D
100
AcDbEntity
  8
細線
 48
50.0
100
AcDbLine
 10
9693.977656505849
 20
7208.479157295375
 30
0.0
 11
9793.977656505848
 21
7208.479157295375
 31
0.0
  0
LINE
  5
1A5CA
330
747D
100
AcDbEntity
  8
細線
 48
50.0
100
AcDbLine
 10
9413.977656505847
 20
7208.479157295375
 30
0.0
 11
9483.977656505848
 21
7208.479157295375
 31
0.0
  0
LINE
  5
1A5CB
330
747D
100
AcDbEntity
  8
細線
 48
50.0
100
AcDbLine
 10
9426.839621518377
 20
7208.479157295375
 30
0.0
 11
9432.595139101044
 21
7226.750008585868
 31
0.0
  0
LINE
  5
1A5CC
330
747D
100
AcDbEntity
  8
細線
 48
50.0
100
AcDbLine
 10
9432.595139101044
 20
7226.750008585868
 30
0.0
 11
9443.523587581479
 21
7226.750008585864
 31
0.0
  0
ARC
  5
1A5CD
330
747D
100
AcDbEntity
  8
細線
 48
50.0
100
AcDbCircle
 10
9443.523587581479
 20
7225.750008585865
 30
0.0
 40
1.0
100
AcDbArc
 50
24.62431835213048
 51
90.0
  0
ARC
  5
1A5CE
330
747D
100
AcDbEntity
  8
細線
 48
50.0
100
AcDbCircle
 10
9454.432299696112
 20
7225.750008585865
 30
0.0
 40
1.0
100
AcDbArc
 50
90.0
 51
155.3756816478695
  0
ARC
  5
1A5CF
330
747D
100
AcDbEntity
  8
細線
 48
50.0
100
AcDbCircle
 10
9448.977943638793
 20
7228.250008585864
 30
0.0
 40
5.0
100
AcDbArc
 50
204.6243183521304
 51
335.3756816478695
  0
LINE
  5
1A5D0
330
747D
100
AcDbEntity
  8
細線
 48
50.0
100
AcDbLine
 10
9454.432299696112
 20
7226.750008585864
 30
0.0
 11
9465.360748176545
 21
7226.750008585868
 31
0.0
  0
LINE
  5
1A5D1
330
747D
100
AcDbEntity
  8
細線
 48
50.0
100
AcDbLine
 10
9465.360748176545
 20
7226.750008585868
 30
0.0
 11
9471.116265759212
 21
7208.479157295375
 31
0.0
  0
LINE
  5
1A5D2
330
747D
100
AcDbEntity
  8
細線
 48
50.0
100
AcDbLine
 10
9763.977656505847
 20
7229.079157295373
 30
0.0
 11
9012.977656505851
 21
7229.079157295373
 31
0.0
  0
LINE
  5
1A5D3
330
747D
100
AcDbEntity
  8
細線
 48
50.0
100
AcDbLine
 10
9623.977656505848
 20
7208.479157295375
 30
0.0
 11
9553.977656505848
 21
7208.479157295375
 31
0.0
  0
LINE
  5
1A5D4
330
747D
100
AcDbEntity
  8
細線
100
AcDbLine
 10
9343.977656505847
 20
7208.479157295375
 30
0.0
 11
9273.977664691264
 21
7208.479157295375
 31
0.0
  0
LINE
  5
1A5D5
330
747D
100
AcDbEntity
  8
細線
 48
50.0
100
AcDbLine
 10
10417.97764719867
 20
7263.079201153242
 30
0.0
 11
9782.977656505849
 21
7263.079201153238
 31
0.0
  0
LINE
  5
1A5D6
330
747D
100
AcDbEntity
  8
細線
 48
50.0
100
AcDbLine
 10
9782.977656505849
 20
7259.975351560881
 30
0.0
 11
9782.977656505849
 21
7264.475351560881
 31
0.0
  0
LINE
  5
1A5D7
330
747D
100
AcDbEntity
  8
細線
 48
50.0
100
AcDbLine
 10
9782.977656505849
 20
7264.475351560881
 30
0.0
 11
9767.977656505848
 21
7264.475351560881
 31
0.0
  0
LINE
  5
1A5D8
330
747D
100
AcDbEntity
  8
細線
 48
50.0
100
AcDbLine
 10
9767.977656505848
 20
7264.475351560881
 30
0.0
 11
9767.977656505848
 21
7271.47535156088
 31
0.0
  0
LINE
  5
1A5D9
330
747D
100
AcDbEntity
  8
細線
 48
50.0
100
AcDbLine
 10
9767.977656505848
 20
7271.47535156088
 30
0.0
 11
9752.977656505851
 21
7271.475351560877
 31
0.0
  0
LINE
  5
1A5DA
330
747D
100
AcDbEntity
  8
細線
 48
50.0
100
AcDbLine
 10
9752.977656505851
 20
7271.475351560877
 30
0.0
 11
9752.977656505851
 21
7233.875123457767
 31
0.0
  0
LINE
  5
1A5DB
330
747D
100
AcDbEntity
  8
細線
 48
50.0
100
AcDbLine
 10
9752.977656505851
 20
7233.875123457767
 30
0.0
 11
9772.977663807024
 21
7233.875165007308
 31
0.0
  0
LINE
  5
1A5DC
330
747D
100
AcDbEntity
  8
細線
 48
50.0
100
AcDbLine
 10
9772.977618938082
 20
7242.478626643117
 30
0.0
 11
9772.977663807024
 21
7233.875165007308
 31
0.0
  0
LINE
  5
1A5DD
330
747D
100
AcDbEntity
  8
細線
 48
50.0
100
AcDbLine
 10
10417.97764719867
 20
7259.629201153241
 30
0.0
 11
10417.97764719867
 21
7264.479201153239
 31
0.0
  0
LINE
  5
1A5DE
330
747D
100
AcDbEntity
  8
細線
 48
50.0
100
AcDbLine
 10
10417.97764719867
 20
7264.479201153239
 30
0.0
 11
10432.97764719867
 21
7264.479201153239
 31
0.0
  0
LINE
  5
1A5DF
330
747D
100
AcDbEntity
  8
細線
 48
50.0
100
AcDbLine
 10
10432.97764719867
 20
7264.479201153239
 30
0.0
 11
10432.97765883264
 21
7271.479201153282
 31
0.0
  0
LINE
  5
1A5E0
330
747D
100
AcDbEntity
  8
細線
 48
50.0
100
AcDbLine
 10
10432.97765883264
 20
7271.479201153282
 30
0.0
 11
10447.97765700317
 21
7271.479201153282
 31
0.0
  0
LINE
  5
1A5E1
330
747D
100
AcDbEntity
  8
細線
 48
50.0
100
AcDbLine
 10
10447.97765700317
 20
7271.479201153282
 30
0.0
 11
10447.97764670135
 21
7242.478994981009
 31
0.0
  0
LINE
  5
1A5E2
330
747D
100
AcDbEntity
  8
細線
 48
50.0
100
AcDbLine
 10
10135.47767433213
 20
7242.479003168376
 30
0.0
 11
10065.47792641455
 21
7242.478997731038
 31
0.0
  0
LINE
  5
1A5E3
330
747D
100
AcDbEntity
  8
細線
 48
50.0
100
AcDbLine
 10
9772.977618938082
 20
7242.478626643117
 30
0.0
 11
9784.210308292792
 21
7242.478809596263
 31
0.0
  0
ARC
  5
1A5E4
330
747D
100
AcDbEntity
  8
細線
 48
50.0
100
AcDbCircle
 10
9790.792600600127
 20
7241.278973509875
 30
0.0
 40
1.8
100
AcDbArc
 50
270.0006665777295
 51
345.0005554812987
  0
LINE
  5
1A5E5
330
747D
100
AcDbEntity
  8
細線
 48
50.0
100
AcDbLine
 10
9792.779034046207
 20
7241.737813967154
 30
0.0
 11
9792.531271604008
 21
7240.813116085049
 31
0.0
  0
LINE
  5
1A5E6
330
747D
100
AcDbEntity
  8
細線
 48
50.0
100
AcDbLine
 10
9790.792621541283
 20
7239.478973509996
 30
0.0
 11
9787.162694122514
 21
7239.478931279517
 31
0.0
  0
ARC
  5
1A5E7
330
747D
100
AcDbEntity
  8
細線
 48
50.0
100
AcDbCircle
 10
9787.162673181363
 20
7241.278931279396
 30
0.0
 40
1.8
100
AcDbArc
 50
195.0010443049394
 51
270.0006665777295
  0
LINE
  5
1A5E8
330
747D
100
AcDbEntity
  8
細線
 48
50.0
100
AcDbLine
 10
9785.176245689104
 20
7241.73764624696
 30
0.0
 11
9785.424015185617
 21
7240.813025308378
 31
0.0
  0
ARC
  5
1A5E9
330
747D
100
AcDbEntity
  8
細線
 48
50.0
100
AcDbCircle
 10
9784.210324580355
 20
7241.478809596398
 30
0.0
 40
1.0
100
AcDbArc
 50
15.00104430493943
 51
90.00093320877969
  0
LINE
  5
1A5EA
330
747D
100
AcDbEntity
  8
細線
 48
50.0
100
AcDbLine
 10
9793.74495540131
 20
7242.479004286668
 30
0.0
 11
9794.686715552215
 21
7242.479010860518
 31
0.0
  0
ARC
  5
1A5EB
330
747D
100
AcDbEntity
  8
細線
 48
50.0
100
AcDbCircle
 10
9793.744962381696
 20
7241.479004286694
 30
0.0
 40
1.0
100
AcDbArc
 50
90.0003999466794
 51
165.0005554812987
  0
LINE
  5
1A5EC
330
747D
100
AcDbEntity
  8
細線
 48
50.0
100
AcDbLine
 10
10345.47764719866
 20
7242.478994981009
 30
0.0
 11
10447.97764670135
 21
7242.478994981009
 31
0.0
  0
LINE
  5
1A5ED
330
747D
100
AcDbEntity
  8
細線
 48
50.0
100
AcDbLine
 10
9855.477682517552
 20
7242.479003168376
 30
0.0
 11
9794.377621290633
 21
7242.479010860518
 31
0.0
  0
LINE
  5
1A5EE
330
747D
100
AcDbEntity
  8
細線
 48
50.0
100
AcDbLine
 10
10275.47768251755
 20
7242.479040009458
 30
0.0
 11
10205.47767556316
 21
7242.47899498679
 31
0.0
  0
LINE
  5
1A5EF
330
747D
100
AcDbEntity
  8
細線
 48
50.0
100
AcDbLine
 10
9995.477647198661
 20
7242.478994981006
 30
0.0
 11
9925.477629910787
 21
7242.478994981013
 31
0.0
  0
ARC
  5
1A5F0
330
747D
100
AcDbEntity
  8
細線
 48
50.0
100
AcDbCircle
 10
10432.17765185227
 20
7275.678983118419
 30
0.0
 40
0.8
100
AcDbArc
 50
359.9997333689499
 51
89.99986668437072
  0
ARC
  5
1A5F1
330
747D
100
AcDbEntity
  8
細線
 48
50.0
100
AcDbCircle
 10
10439.77765867736
 20
7275.678994287037
 30
0.0
 40
0.8
100
AcDbArc
 50
90.00014387753465
 51
179.9997333689498
  0
LINE
  5
1A5F2
330
747D
100
AcDbEntity
  8
細線
 48
50.0
100
AcDbLine
 10
10432.1776537137
 20
7276.478983118419
 30
0.0
 11
10426.97765185226
 21
7276.478983118419
 31
0.0
  0
ARC
  5
1A5F3
330
747D
100
AcDbEntity
  8
細線
 48
50.0
100
AcDbCircle
 10
10433.67765185226
 20
7274.178983118419
 30
0.0
 40
0.7
100
AcDbArc
 50
180.0
 51
270.0
  0
ARC
  5
1A5F4
330
747D
100
AcDbEntity
  8
細線
 48
50.0
100
AcDbCircle
 10
10438.27765185226
 20
7274.178983118419
 30
0.0
 40
0.7
100
AcDbArc
 50
270.0
 51
0.0
  0
LINE
  5
1A5F5
330
747D
100
AcDbEntity
  8
細線
 48
50.0
100
AcDbLine
 10
10438.97765185226
 20
7274.178983118419
 30
0.0
 11
10438.97765867737
 21
7275.678998009907
 31
0.0
  0
LINE
  5
1A5F6
330
747D
100
AcDbEntity
  8
細線
 48
50.0
100
AcDbLine
 10
10433.67765185226
 20
7273.478983118419
 30
0.0
 11
10438.27765185226
 21
7273.478983118419
 31
0.0
  0
LINE
  5
1A5F7
330
747D
100
AcDbEntity
  8
細線
 48
50.0
100
AcDbLine
 10
10432.97765185225
 20
7275.678983118419
 30
0.0
 11
10432.97765185225
 21
7274.178983118419
 31
0.0
  0
LINE
  5
1A5F8
330
747D
100
AcDbEntity
  8
細線
 48
50.0
100
AcDbLine
 10
11058.57765185226
 20
7306.478983118418
 30
0.0
 11
10421.97765185226
 21
7306.478983118416
 31
0.0
  0
LINE
  5
1A5F9
330
747D
100
AcDbEntity
  8
細線
 48
50.0
100
AcDbLine
 10
11084.47765185226
 20
7301.478983118423
 30
0.0
 11
11068.57765185226
 21
7301.478983118419
 31
0.0
  0
LINE
  5
1A5FA
330
747D
100
AcDbEntity
  8
細線
 48
50.0
100
AcDbLine
 10
11068.57765185226
 20
7301.478983118419
 30
0.0
 11
11058.57765185226
 21
7306.478983118418
 31
0.0
  0
LINE
  5
1A5FB
330
747D
100
AcDbEntity
  8
細線
100
AcDbLine
 10
10669.47765185226
 20
7276.478983118419
 30
0.0
 11
10669.47765185226
 21
7305.778983118418
 31
0.0
  0
LINE
  5
1A5FC
330
747D
100
AcDbEntity
  8
細線
100
AcDbLine
 10
10669.47765185226
 20
7305.778983118418
 30
0.0
 11
10689.47765185226
 21
7305.778983118418
 31
0.0
  0
LINE
  5
1A5FD
330
747D
100
AcDbEntity
  8
細線
100
AcDbLine
 10
10689.47765185226
 20
7276.478983118419
 30
0.0
 11
10689.47765185226
 21
7305.778983118418
 31
0.0
  0
LINE
  5
1A5FE
330
747D
100
AcDbEntity
  8
細線
100
AcDbLine
 10
10850.72765185226
 20
7276.478983118419
 30
0.0
 11
10780.72765185226
 21
7276.478983118419
 31
0.0
  0
LINE
  5
1A5FF
330
747D
100
AcDbEntity
  8
細線
 48
50.0
100
AcDbLine
 10
10570.72765185226
 20
7276.478983118419
 30
0.0
 11
10439.7734314251
 21
7276.478983118419
 31
0.0
  0
LINE
  5
1A600
330
747D
100
AcDbEntity
  8
細線
100
AcDbLine
 10
10710.72765185226
 20
7276.478983118419
 30
0.0
 11
10640.72765185226
 21
7276.478983118419
 31
0.0
  0
LINE
  5
1A601
330
747D
100
AcDbEntity
  8
細線
 48
50.0
100
AcDbLine
 10
10426.97765185226
 20
7268.478983118419
 30
0.0
 11
10426.97765185226
 21
7276.478983118419
 31
0.0
  0
LINE
  5
1A602
330
747D
100
AcDbEntity
  8
細線
 48
50.0
100
AcDbLine
 10
10406.97765185226
 20
7268.478983118423
 30
0.0
 11
10426.97765185226
 21
7268.478983118419
 31
0.0
  0
LINE
  5
1A603
330
747D
100
AcDbEntity
  8
細線
 48
50.0
100
AcDbLine
 10
10421.97765185226
 20
7306.478983118418
 30
0.0
 11
10421.97765185226
 21
7301.478983118419
 31
0.0
  0
LINE
  5
1A604
330
747D
100
AcDbEntity
  8
細線
 48
50.0
100
AcDbLine
 10
10406.97765185226
 20
7306.478983118416
 30
0.0
 11
10421.97765185226
 21
7306.478983118418
 31
0.0
  0
LINE
  5
1A605
330
747D
100
AcDbEntity
  8
細線
 48
50.0
100
AcDbLine
 10
10406.97765185226
 20
7268.478983118423
 30
0.0
 11
10406.97765185226
 21
7306.478983118416
 31
0.0
  0
LINE
  5
1A606
330
747D
100
AcDbEntity
  8
細線
100
AcDbLine
 10
11074.97765185226
 20
7276.478983118419
 30
0.0
 11
10920.72765185226
 21
7276.478983118419
 31
0.0
  0
LINE
  5
1A607
330
747D
100
AcDbEntity
  8
細線
 48
50.0
100
AcDbLine
 10
11084.47765185226
 20
7301.478983118423
 30
0.0
 11
11084.47765185226
 21
7276.478983118419
 31
0.0
  0
DIMENSION
  5
1A845
330
747D
100
AcDbEntity
  8
寸法
100
AcDbDimension
  2
*D32
 10
8217.366406225567
 20
7205.478983118386
 30
0.0
 11
8217.366406225565
 21
7064.993701744149
 31
0.0
 70
   160
 71
     5
 42
75.0
  3
INABA_S40
100
AcDbAlignedDimension
 13
8511.977651852282
 23
7280.478983118387
 33
0.0
 14
8959.977651852257
 24
7205.478983118386
 34
0.0
 50
90.0
100
AcDbRotatedDimension
1001
ACAD
1000
DSTYLE
1002
{
1070
    41
1040
0.5
1070
    44
1040
1.0
1070
   147
1040
0.8
1070
   271
1070
     2
1070
   272
1070
     2
1070
   289
1070
     3
1070
   340
1005
F706
1070
   343
1005
1908F
1070
   344
1005
1908F
1002
}
  0
DIMENSION
  5
1A846
330
747D
100
AcDbEntity
  8
寸法
 48
50.0
100
AcDbDimension
  2
*D33
 10
11113.97765185226
 20
6283.349267690651
 30
0.0
 11
10059.11040859957
 21
6283.349267690651
 31
0.0
 70
   160
 71
     5
 42
2154.0
  3
INABA_S40G
100
AcDbAlignedDimension
 13
8959.977651852261
 23
7203.478983118419
 33
0.0
 14
11113.97765185226
 24
7203.478983118419
 34
0.0
100
AcDbRotatedDimension
1001
ACAD
1000
DSTYLE
1002
{
1070
   341
1005
0
1002
}
  0
DIMENSION
  5
1A949
330
747D
100
AcDbEntity
  8
寸法
100
AcDbDimension
  2
*D34
 10
11561.97765185226
 20
5996.37411756409
 30
0.0
 11
10056.69348222621
 21
5996.37411756409
 31
0.0
 70
   160
 71
     5
 42
3049.999999999982
  3
INABA_S40G
100
AcDbAlignedDimension
 13
8511.977651852282
 23
7280.478983118387
 33
0.0
 14
11561.97765185226
 24
7280.47898311855
 34
0.0
100
AcDbRotatedDimension
1001
ACAD
1000
DSTYLE
1002
{
1002
}
  0
LINE
  5
1A954
330
747D
100
AcDbEntity
  8
部品1
100
AcDbLine
 10
10418.7129849665
 20
5666.458338528169
 30
0.0
 11
9655.242318738062
 21
5666.458338528169
 31
0.0
  0
LINE
  5
1A955
330
747D
100
AcDbEntity
  8
部品1
100
AcDbLine
 10
10418.7129849665
 20
5426.566016982636
 30
0.0
 11
10418.7129849665
 21
5666.458338528169
 31
0.0
  0
LINE
  5
1A956
330
747D
100
AcDbEntity
  8
部品1
100
AcDbLine
 10
9655.242318738062
 20
5426.566016982636
 30
0.0
 11
10418.7129849665
 21
5426.566016982636
 31
0.0
  0
LINE
  5
1A957
330
747D
100
AcDbEntity
  8
部品1
100
AcDbLine
 10
9655.242318738062
 20
5666.458338528169
 30
0.0
 11
9655.242318738062
 21
5426.566016982636
 31
0.0
  0
TEXT
  5
1A958
330
747D
100
AcDbEntity
  8
部品1
100
AcDbText
 10
9745.1619285671
 20
5473.564809309646
 30
0.0
 40
135.0
  1
平面図
  7
STYLE2
100
AcDbText
  0
LWPOLYLINE
  5
1AB72
330
747D
100
AcDbEntity
  8
部品1
 48
50.0
100
AcDbPolyline
 90
        4
 70
     1
 43
0.0
 10
9059.027651852291
 20
3033.755395881099
 10
9061.927651852293
 20
3033.755395881099
 10
9061.927651852293
 20
3043.255395881099
 10
9059.027651852291
 20
3043.255395881099
  0
CIRCLE
  5
1AB73
330
747D
100
AcDbEntity
  8
部品1
 48
50.0
100
AcDbCircle
 10
9060.477651852293
 20
3038.505395881099
 30
0.0
 40
9.0
  0
ARC
  5
1AB74
330
747D
100
AcDbEntity
  8
細線
 48
50.0
100
AcDbCircle
 10
9060.477651852293
 20
3038.505395881099
 30
0.0
 40
4.0
100
AcDbArc
 50
111.2538091853132
 51
248.7461908146868
  0
ARC
  5
1AB75
330
747D
100
AcDbEntity
  8
細線
 48
50.0
100
AcDbCircle
 10
9060.477651852293
 20
3038.505395881099
 30
0.0
 40
17.5
100
AcDbArc
 50
306.4837370612677
 51
233.5162629387323
  0
LINE
  5
1AB76
330
747D
100
AcDbEntity
  8
細線
 48
50.0
100
AcDbLine
 10
9070.477651852289
 20
3014.646435300216
 30
0.0
 11
9070.477651852291
 21
3023.630921100457
 31
0.0
  0
LINE
  5
1AB77
330
747D
100
AcDbEntity
  8
細線
 48
50.0
100
AcDbLine
 10
9050.477651852292
 20
3014.646435300218
 30
0.0
 11
9050.477651852292
 21
3023.630921100454
 31
0.0
  0
ARC
  5
1AB78
330
747D
100
AcDbEntity
  8
細線
 48
50.0
100
AcDbCircle
 10
9060.477651852293
 20
3038.505395881099
 30
0.0
 40
26.5
100
AcDbArc
 50
249.3326835063939
 51
290.6673164933835
  0
ARC
  5
1AB79
330
747D
100
AcDbEntity
  8
細線
 48
50.0
100
AcDbCircle
 10
9069.477651852286
 20
3014.646435300216
 30
0.0
 40
1.0
100
AcDbArc
 50
290.6673164936062
 51
359.9999999998958
  0
ARC
  5
1AB7A
330
747D
100
AcDbEntity
  8
細線
 48
50.0
100
AcDbCircle
 10
9051.477651852293
 20
3014.646435300218
 30
0.0
 40
1.0
100
AcDbArc
 50
180.0
 51
249.3326835066164
  0
ARC
  5
1AB7B
330
747D
100
AcDbEntity
  8
細線
 48
50.0
100
AcDbCircle
 10
9049.477651852292
 20
3023.630921100454
 30
0.0
 40
1.0
100
AcDbArc
 50
0.0
 51
53.51626293873231
  0
ARC
  5
1AB7C
330
747D
100
AcDbEntity
  8
細線
 48
50.0
100
AcDbCircle
 10
9071.477651852296
 20
3023.630921100457
 30
0.0
 40
1.0
100
AcDbArc
 50
126.4837370615127
 51
180.0
  0
ARC
  5
1AB7D
330
747D
100
AcDbEntity
  8
細線
 48
50.0
100
AcDbCircle
 10
9060.477651852293
 20
3038.505395881099
 30
0.0
 40
21.5
100
AcDbArc
 50
255.8014401250294
 51
284.1985598749706
  0
ARC
  5
1AB7E
330
747D
100
AcDbEntity
  8
細線
 48
50.0
100
AcDbCircle
 10
9060.477651852293
 20
3038.505395881099
 30
0.0
 40
16.5
100
AcDbArc
 50
251.9694646069326
 51
288.0305353930674
  0
LINE
  5
1AB7F
330
747D
100
AcDbEntity
  8
細線
 48
50.0
100
AcDbLine
 10
9065.977651852291
 20
3017.953023755292
 30
0.0
 11
9065.977651852291
 21
3022.530415442629
 31
0.0
  0
LINE
  5
1AB80
330
747D
100
AcDbEntity
  8
細線
 48
50.0
100
AcDbLine
 10
9054.977651852292
 20
3017.953023755292
 30
0.0
 11
9054.977651852292
 21
3022.530415442627
 31
0.0
  0
ARC
  5
1AB81
330
747D
100
AcDbEntity
  8
細線
 48
50.0
100
AcDbCircle
 10
9055.277651852295
 20
3022.530415442627
 30
0.0
 40
0.3
100
AcDbArc
 50
71.96946460693259
 51
180.0
  0
ARC
  5
1AB82
330
747D
100
AcDbEntity
  8
細線
 48
50.0
100
AcDbCircle
 10
9065.677651852293
 20
3022.530415442629
 30
0.0
 40
0.3
100
AcDbArc
 50
0.0
 51
108.0305353930674
  0
ARC
  5
1AB83
330
747D
100
AcDbEntity
  8
細線
 48
50.0
100
AcDbCircle
 10
9065.677651852288
 20
3017.953023755292
 30
0.0
 40
0.3
100
AcDbArc
 50
284.1985598747622
 51
0.0000000001042204
  0
ARC
  5
1AB84
330
747D
100
AcDbEntity
  8
細線
 48
50.0
100
AcDbCircle
 10
9055.277651852295
 20
3017.953023755292
 30
0.0
 40
0.3
100
AcDbArc
 50
180.0
 51
255.8014401248081
  0
CIRCLE
  5
1AB85
330
747D
100
AcDbEntity
  8
細線
 48
50.0
100
AcDbCircle
 10
9060.477651852293
 20
3038.505395881099
 30
0.0
 40
12.0
  0
ARC
  5
1AB86
330
747D
100
AcDbEntity
  8
部品1
 48
50.0
100
AcDbCircle
 10
9060.477651852293
 20
3088.505395881099
 30
0.0
 40
8.5
100
AcDbArc
 50
114.315739171091
 51
245.684260828909
  0
CIRCLE
  5
1AB87
330
747D
100
AcDbEntity
  8
細線
 48
50.0
100
AcDbCircle
 10
9060.477651852293
 20
3088.505395881099
 30
0.0
 40
4.5
  0
LWPOLYLINE
  5
1AB88
330
747D
100
AcDbEntity
  8
部品1
 48
50.0
100
AcDbPolyline
 90
        2
 70
     0
 43
0.0
 10
9056.977651852292
 20
3107.180245278081
 10
9056.977651852292
 20
3096.251362573514
  0
CIRCLE
  5
1AB89
330
747D
100
AcDbEntity
  8
部品1
 48
50.0
100
AcDbCircle
 10
9060.477651852293
 20
3088.505395881099
 30
0.0
 40
19.0
  0
LWPOLYLINE
  5
1AB8A
330
747D
100
AcDbEntity
  8
部品1
 48
50.0
100
AcDbPolyline
 90
        2
 70
     0
 43
0.0
 10
9056.977651852292
 20
3080.759429188684
 10
9056.977651852292
 20
3069.830546484116
  0
LWPOLYLINE
  5
1AB8B
330
747D
100
AcDbEntity
  8
部品1
 48
50.0
100
AcDbPolyline
 90
        2
 70
     0
 43
0.0
 10
9063.977651852292
 20
3096.251362573514
 10
9063.977651852292
 20
3107.180245278081
  0
ARC
  5
1AB8C
330
747D
100
AcDbEntity
  8
部品1
 48
50.0
100
AcDbCircle
 10
9060.477651852293
 20
3088.505395881099
 30
0.0
 40
8.5
100
AcDbArc
 50
294.315739171091
 51
65.68426082890896
  0
LWPOLYLINE
  5
1AB8D
330
747D
100
AcDbEntity
  8
部品1
 48
50.0
100
AcDbPolyline
 90
        2
 70
     0
 43
0.0
 10
9063.977651852292
 20
3069.830546484116
 10
9063.977651852292
 20
3080.759429188684
  0
ARC
  5
1AB8E
330
747D
100
AcDbEntity
  8
細線
 48
50.0
100
AcDbCircle
 10
9060.477651852293
 20
3088.505395881099
 30
0.0
 40
16.5
100
AcDbArc
 50
332.0012352654438
 51
27.99876473455621
  0
ARC
  5
1AB8F
330
747D
100
AcDbEntity
  8
細線
 48
50.0
100
AcDbCircle
 10
9060.477651852293
 20
3088.505395881099
 30
0.0
 40
14.0
100
AcDbArc
 50
326.4074436112986
 51
33.59255638870134
  0
LINE
  5
1AB90
330
747D
100
AcDbEntity
  8
細線
 48
50.0
100
AcDbLine
 10
9045.908849567961
 20
3096.251362573514
 30
0.0
 11
9048.815748062603
 21
3096.251362573514
 31
0.0
  0
LINE
  5
1AB91
330
747D
100
AcDbEntity
  8
細線
 48
50.0
100
AcDbLine
 10
9045.908849567961
 20
3080.759429188684
 30
0.0
 11
9048.815748062603
 21
3080.759429188684
 31
0.0
  0
LINE
  5
1AB92
330
747D
100
AcDbEntity
  8
細線
 48
50.0
100
AcDbLine
 10
9072.13955564198
 20
3096.251362573514
 30
0.0
 11
9075.046454136627
 21
3096.251362573514
 31
0.0
  0
LINE
  5
1AB93
330
747D
100
AcDbEntity
  8
細線
 48
50.0
100
AcDbLine
 10
9072.13955564198
 20
3080.759429188684
 30
0.0
 11
9075.046454136627
 21
3080.759429188684
 31
0.0
  0
ARC
  5
1AB94
330
747D
100
AcDbEntity
  8
細線
 48
50.0
100
AcDbCircle
 10
9060.477651852293
 20
3088.505395881099
 30
0.0
 40
14.0
100
AcDbArc
 50
146.4074436112986
 51
213.5925563887013
  0
ARC
  5
1AB95
330
747D
100
AcDbEntity
  8
細線
 48
50.0
100
AcDbCircle
 10
9060.477651852293
 20
3088.505395881099
 30
0.0
 40
16.5
100
AcDbArc
 50
152.0012352654438
 51
207.9987647345562
  0
ARC
  5
1AB96
330
747D
100
AcDbEntity
  8
部品1
 48
50.0
100
AcDbCircle
 10
9033.977651852293
 20
3114.005395881099
 30
0.0
 40
5.0
100
AcDbArc
 50
90.0
 51
180.0
  0
ARC
  5
1AB97
330
747D
100
AcDbEntity
  8
部品1
 48
50.0
100
AcDbCircle
 10
9033.977651852293
 20
3003.005395881098
 30
0.0
 40
5.0
100
AcDbArc
 50
180.0
 51
270.0
  0
ARC
  5
1AB98
330
747D
100
AcDbEntity
  8
部品1
 48
50.0
100
AcDbCircle
 10
9086.977651852292
 20
3003.005395881098
 30
0.0
 40
5.0
100
AcDbArc
 50
270.0
 51
0.0
  0
ARC
  5
1AB99
330
747D
100
AcDbEntity
  8
部品1
 48
50.0
100
AcDbCircle
 10
9086.977651852292
 20
3114.005395881099
 30
0.0
 40
5.0
100
AcDbArc
 50
0.0
 51
90.0
  0
LINE
  5
1AB9B
330
747D
100
AcDbEntity
  8
部品1
 48
50.0
100
AcDbLine
 10
9028.977651852292
 20
3003.005395881098
 30
0.0
 11
9028.977651852292
 21
3114.005395881099
 31
0.0
  0
LINE
  5
1AB9C
330
747D
100
AcDbEntity
  8
部品1
 48
50.0
100
AcDbLine
 10
9086.977651852292
 20
2998.005395881099
 30
0.0
 11
9033.977651852293
 21
2998.005395881099
 31
0.0
  0
LINE
  5
1AB9D
330
747D
100
AcDbEntity
  8
部品1
 48
50.0
100
AcDbLine
 10
9091.977651852293
 20
3114.005395881099
 30
0.0
 11
9091.977651852293
 21
3003.005395881098
 31
0.0
  0
ENDSEC
  0
SECTION
  2
OBJECTS
  0
DICTIONARY
  5
7471
330
0
100
AcDbDictionary
281
     1
  3
ACAD_COLOR
350
19084
  3
ACAD_GROUP
350
7472
  3
ACAD_LAYOUT
350
19085
  3
ACAD_MATERIAL
350
19083
  3
ACAD_MLINESTYLE
350
7473
  3
ACAD_PLOTSETTINGS
350
19086
  3
ACAD_PLOTSTYLENAME
350
19081
  3
ACDBHEADERROUNDTRIPXREC
350
1ABAC
  3
AcDbVariableDictionary
350
1ABA8
  3
CONTENTDICTIONARY
350
E71C
  3
DRAWINGVARIABLESDICT
350
F3B9
  0
DICTIONARY
  5
1922B
330
7467
100
AcDbDictionary
280
     1
281
     1
  3
ACAD_LAYERSTATES
360
1922C
  0
DICTIONARY
  5
19084
102
{ACAD_REACTORS
330
7471
102
}
330
7471
100
AcDbDictionary
281
     1
  0
DICTIONARY
  5
7472
102
{ACAD_REACTORS
330
7471
102
}
330
7471
100
AcDbDictionary
281
     1
  0
DICTIONARY
  5
19085
102
{ACAD_REACTORS
330
7471
102
}
330
7471
100
AcDbDictionary
281
     1
  3
Model
350
19087
  3
レイアウト1
350
19088
  0
DICTIONARY
  5
19083
102
{ACAD_REACTORS
330
7471
102
}
330
7471
100
AcDbDictionary
281
     1
  0
DICTIONARY
  5
7473
102
{ACAD_REACTORS
330
7471
102
}
330
7471
100
AcDbDictionary
281
     1
  3
STANDARD
350
7480
  0
DICTIONARY
  5
19086
102
{ACAD_REACTORS
330
7471
102
}
330
7471
100
AcDbDictionary
281
     1
  0
ACDBDICTIONARYWDFLT
  5
19081
102
{ACAD_REACTORS
330
7471
102
}
330
7471
100
AcDbDictionary
281
     1
  3
Normal
350
19082
100
AcDbDictionaryWithDefault
340
19082
  0
DICTIONARY
  5
1ABAC
102
{ACAD_REACTORS
330
7471
102
}
330
7471
100
AcDbDictionary
281
     1
  3
COLORDICT
350
1ABAE
  3
MATERIALDICT
350
1ABAD
  0
DICTIONARY
  5
1ABA8
102
{ACAD_REACTORS
330
7471
102
}
330
7471
100
AcDbDictionary
281
     1
  3
DIMASSOC
350
1ABA9
  3
PROJECTNAME
350
1ABAA
  0
DICTIONARY
  5
E71C
102
{ACAD_REACTORS
330
7471
102
}
330
7471
100
AcDbDictionary
281
     1
  0
DICTIONARY
  5
F3B9
102
{ACAD_REACTORS
330
7471
102
}
330
7471
100
AcDbDictionary
281
     1
1001
DRAWINGVARIABLESXDATA
1000
POLARMODE
1000
1
  0
DICTIONARY
  5
1922C
102
{ACAD_REACTORS
330
1922B
102
}
330
1922B
100
AcDbDictionary
281
     1
  0
LAYOUT
  5
19087
102
{ACAD_XDICTIONARY
360
1ABAF
102
}
102
{ACAD_REACTORS
330
19085
102
}
330
19085
100
AcDbPlotSettings
  1

  2
Microsoft Office Document Image Writer
  4

  6

 40
0.0
 41
0.0
 42
0.0
 43
0.0
 44
0.0
 45
0.0
 46
0.0
 47
0.0
 48
0.0
 49
0.0
140
0.0
141
0.0
142
1.0
143
1.0
 70
  1712
 72
     0
 73
     0
 74
     0
  7

 75
     0
147
1.0
148
0.0
149
0.0
100
AcDbLayout
  1
Model
 70
     1
 71
     0
 10
0.0
 20
0.0
 11
12.0
 21
9.0
 12
0.0
 22
0.0
 32
0.0
 14
0.0
 24
0.0
 34
0.0
 15
0.0
 25
0.0
 35
0.0
146
0.0
 13
0.0
 23
0.0
 33
0.0
 16
1.0
 26
0.0
 36
0.0
 17
0.0
 27
1.0
 37
0.0
 76
     0
330
747D
  0
LAYOUT
  5
19088
102
{ACAD_XDICTIONARY
360
1ABB1
102
}
102
{ACAD_REACTORS
330
19085
102
}
330
19085
100
AcDbPlotSettings
  1

  2
Microsoft Office Document Image Writer
  4

  6

 40
0.0
 41
0.0
 42
0.0
 43
0.0
 44
0.0
 45
0.0
 46
0.0
 47
0.0
 48
0.0
 49
0.0
140
0.0
141
0.0
142
1.0
143
1.0
 70
   688
 72
     0
 73
     0
 74
     5
  7

 75
    16
147
1.0
148
0.0
149
0.0
100
AcDbLayout
  1
レイアウト1
 70
     0
 71
     1
 10
0.0
 20
0.0
 11
420.0
 21
297.0
 12
0.0
 22
0.0
 32
0.0
 14
1.000000000000000E+20
 24
1.000000000000000E+20
 34
1.000000000000000E+20
 15
-1.000000000000000E+20
 25
-1.000000000000000E+20
 35
-1.000000000000000E+20
146
0.0
 13
0.0
 23
0.0
 33
0.0
 16
1.0
 26
0.0
 36
0.0
 17
0.0
 27
1.0
 37
0.0
 76
     0
330
747A
  0
MLINESTYLE
  5
7480
102
{ACAD_REACTORS
330
7473
102
}
330
7473
100
AcDbMlineStyle
  2
STANDARD
 70
     0
  3

 62
     0
 51
90.0
 52
90.0
 71
     2
 49
0.5
 62
   256
  6
BYLAYER
 49
-0.5
 62
   256
  6
BYLAYER
  0
ACDBPLACEHOLDER
  5
19082
102
{ACAD_REACTORS
330
19081
102
}
330
19081
  0
XRECORD
  5
1ABAE
102
{ACAD_REACTORS
330
1ABAC
102
}
330
1ABAC
100
AcDbXrecord
280
     1
340
19084
  0
XRECORD
  5
1ABAD
102
{ACAD_REACTORS
330
1ABAC
102
}
330
1ABAC
100
AcDbXrecord
280
     1
340
19083
  0
DICTIONARYVAR
  5
1ABA9
102
{ACAD_REACTORS
330
1ABA8
102
}
330
1ABA8
100
DictionaryVariables
280
     0
  1
1
  0
DICTIONARYVAR
  5
1ABAA
102
{ACAD_REACTORS
330
1ABA8
102
}
330
1ABA8
100
DictionaryVariables
280
     0
  1

  0
DICTIONARY
  5
1ABAF
330
19087
100
AcDbDictionary
280
     1
281
     1
  3
ACAD_XREC_ROUNDTRIP
360
1ABB0
  0
DICTIONARY
  5
1ABB1
330
19088
100
AcDbDictionary
280
     1
281
     1
  3
ACAD_XREC_ROUNDTRIP
360
1ABB2
  0
XRECORD
  5
1ABB0
102
{ACAD_REACTORS
330
1ABAF
102
}
330
1ABAF
100
AcDbXrecord
280
     1
102
SHADEPLOT
 70
     0
102
SHADEPLOTRESLEVEL
 70
     2
102
SHADEPLOTCUSTOMDPI
 70
   300
  0
XRECORD
  5
1ABB2
102
{ACAD_REACTORS
330
1ABB1
102
}
330
1ABB1
100
AcDbXrecord
280
     1
102
SHADEPLOT
 70
     0
102
SHADEPLOTRESLEVEL
 70
     2
102
SHADEPLOTCUSTOMDPI
 70
   300
  0
ENDSEC
  0
EOF
