  0
SECTION
  2
HEADER
  9
$ACADVER
  1
AC1015
  9
$ACADMAINTVER
 70
    20
  9
$DWGCODEPAGE
  3
ANSI_932
  9
$INSBASE
 10
0.0
 20
0.0
 30
0.0
  9
$EXTMIN
 10
139.9999999999995
 20
-0.0000000000000909
 30
0.0
  9
$EXTMAX
 10
16307.2
 20
11409.6
 30
0.0
  9
$LIMMIN
 10
0.0
 20
0.0
  9
$LIMMAX
 10
16800.0
 20
11880.0
  9
$ORTHOMODE
 70
     0
  9
$REGENMODE
 70
     1
  9
$FILLMODE
 70
     1
  9
$QTEXTMODE
 70
     0
  9
$MIRRTEXT
 70
     1
  9
$LTSCALE
 40
20.0
  9
$ATTMODE
 70
     1
  9
$TEXTSIZE
 40
4.0
  9
$TRACEWID
 40
1.0
  9
$TEXTSTYLE
  7
STYLE1
  9
$CLAYER
  8
部品1
  9
$CELTYPE
  6
BYLAYER
  9
$CECOLOR
 62
   256
  9
$CELTSCALE
 40
50.0
  9
$DISPSILH
 70
     0
  9
$DIMSCALE
 40
40.0
  9
$DIMASZ
 40
2.5
  9
$DIMEXO
 40
0.5
  9
$DIMDLI
 40
7.0
  9
$DIMRND
 40
0.0
  9
$DIMDLE
 40
0.0
  9
$DIMEXE
 40
1.5
  9
$DIMTP
 40
0.0
  9
$DIMTM
 40
0.0
  9
$DIMTXT
 40
3.0
  9
$DIMCEN
 40
0.0
  9
$DIMTSZ
 40
0.0
  9
$DIMTOL
 70
     0
  9
$DIMLIM
 70
     0
  9
$DIMTIH
 70
     0
  9
$DIMTOH
 70
     0
  9
$DIMSE1
 70
     0
  9
$DIMSE2
 70
     0
  9
$DIMTAD
 70
     3
  9
$DIMZIN
 70
     8
  9
$DIMBLK
  1

  9
$DIMASO
 70
     1
  9
$DIMSHO
 70
     1
  9
$DIMPOST
  1

  9
$DIMAPOST
  1

  9
$DIMALT
 70
     0
  9
$DIMALTD
 70
     2
  9
$DIMALTF
 40
0.0394
  9
$DIMLFAC
 40
1.0
  9
$DIMTOFL
 70
     1
  9
$DIMTVP
 40
0.0
  9
$DIMTIX
 70
     1
  9
$DIMSOXD
 70
     0
  9
$DIMSAH
 70
     1
  9
$DIMBLK1
  1
DOTSMALL
  9
$DIMBLK2
  1
DOTSMALL
  9
$DIMSTYLE
  2
INABA_S40G
  9
$DIMCLRD
 70
     0
  9
$DIMCLRE
 70
     0
  9
$DIMCLRT
 70
     7
  9
$DIMTFAC
 40
1.0
  9
$DIMGAP
 40
1.0
  9
$DIMJUST
 70
     0
  9
$DIMSD1
 70
     0
  9
$DIMSD2
 70
     0
  9
$DIMTOLJ
 70
     1
  9
$DIMTZIN
 70
     0
  9
$DIMALTZ
 70
     0
  9
$DIMALTTZ
 70
     0
  9
$DIMUPT
 70
     0
  9
$DIMDEC
 70
     1
  9
$DIMTDEC
 70
     4
  9
$DIMALTU
 70
     2
  9
$DIMALTTD
 70
     2
  9
$DIMTXSTY
  7
STYLE1
  9
$DIMAUNIT
 70
     0
  9
$DIMADEC
 70
     0
  9
$DIMALTRND
 40
0.0
  9
$DIMAZIN
 70
     0
  9
$DIMDSEP
 70
    46
  9
$DIMATFIT
 70
     3
  9
$DIMFRAC
 70
     0
  9
$DIMLDRBLK
  1

  9
$DIMLUNIT
 70
     2
  9
$DIMLWD
 70
    -2
  9
$DIMLWE
 70
    -2
  9
$DIMTMOVE
 70
     0
  9
$LUNITS
 70
     2
  9
$LUPREC
 70
     1
  9
$SKETCHINC
 40
1.0
  9
$FILLETRAD
 40
3.0
  9
$AUNITS
 70
     0
  9
$AUPREC
 70
     0
  9
$MENU
  1
acad
  9
$ELEVATION
 40
0.0
  9
$PELEVATION
 40
0.0
  9
$THICKNESS
 40
0.0
  9
$LIMCHECK
 70
     0
  9
$CHAMFERA
 40
0.0
  9
$CHAMFERB
 40
0.0
  9
$CHAMFERC
 40
0.0
  9
$CHAMFERD
 40
0.0
  9
$SKPOLY
 70
     0
  9
$TDCREATE
 40
2451368.612993866
  9
$TDUCREATE
 40
2451368.237993866
  9
$TDUPDATE
 40
2455575.686538264
  9
$TDUUPDATE
 40
2455575.311538264
  9
$TDINDWG
 40
0.7581745833
  9
$TDUSRTIMER
 40
0.7581745833
  9
$USRTIMER
 70
     1
  9
$ANGBASE
 50
0.0
  9
$ANGDIR
 70
     0
  9
$PDMODE
 70
     3
  9
$PDSIZE
 40
2.0
  9
$PLINEWID
 40
0.0
  9
$SPLFRAME
 70
     0
  9
$SPLINETYPE
 70
     6
  9
$SPLINESEGS
 70
     8
  9
$HANDSEED
  5
1AA26
  9
$SURFTAB1
 70
     6
  9
$SURFTAB2
 70
     6
  9
$SURFTYPE
 70
     6
  9
$SURFU
 70
     6
  9
$SURFV
 70
     6
  9
$UCSBASE
  2

  9
$UCSNAME
  2

  9
$UCSORG
 10
0.0
 20
0.0
 30
0.0
  9
$UCSXDIR
 10
1.0
 20
0.0
 30
0.0
  9
$UCSYDIR
 10
0.0
 20
1.0
 30
0.0
  9
$UCSORTHOREF
  2

  9
$UCSORTHOVIEW
 70
     0
  9
$UCSORGTOP
 10
0.0
 20
0.0
 30
0.0
  9
$UCSORGBOTTOM
 10
0.0
 20
0.0
 30
0.0
  9
$UCSORGLEFT
 10
0.0
 20
0.0
 30
0.0
  9
$UCSORGRIGHT
 10
0.0
 20
0.0
 30
0.0
  9
$UCSORGFRONT
 10
0.0
 20
0.0
 30
0.0
  9
$UCSORGBACK
 10
0.0
 20
0.0
 30
0.0
  9
$PUCSBASE
  2

  9
$PUCSNAME
  2

  9
$PUCSORG
 10
0.0
 20
0.0
 30
0.0
  9
$PUCSXDIR
 10
1.0
 20
0.0
 30
0.0
  9
$PUCSYDIR
 10
0.0
 20
1.0
 30
0.0
  9
$PUCSORTHOREF
  2

  9
$PUCSORTHOVIEW
 70
     0
  9
$PUCSORGTOP
 10
0.0
 20
0.0
 30
0.0
  9
$PUCSORGBOTTOM
 10
0.0
 20
0.0
 30
0.0
  9
$PUCSORGLEFT
 10
0.0
 20
0.0
 30
0.0
  9
$PUCSORGRIGHT
 10
0.0
 20
0.0
 30
0.0
  9
$PUCSORGFRONT
 10
0.0
 20
0.0
 30
0.0
  9
$PUCSORGBACK
 10
0.0
 20
0.0
 30
0.0
  9
$USERI1
 70
     0
  9
$USERI2
 70
     0
  9
$USERI3
 70
     0
  9
$USERI4
 70
     0
  9
$USERI5
 70
     0
  9
$USERR1
 40
0.0
  9
$USERR2
 40
0.0
  9
$USERR3
 40
0.0
  9
$USERR4
 40
0.0
  9
$USERR5
 40
0.0
  9
$WORLDVIEW
 70
     1
  9
$SHADEDGE
 70
     3
  9
$SHADEDIF
 70
    70
  9
$TILEMODE
 70
     1
  9
$MAXACTVP
 70
    16
  9
$PINSBASE
 10
0.0
 20
0.0
 30
0.0
  9
$PLIMCHECK
 70
     0
  9
$PEXTMIN
 10
1.000000000000000E+20
 20
1.000000000000000E+20
 30
1.000000000000000E+20
  9
$PEXTMAX
 10
-1.000000000000000E+20
 20
-1.000000000000000E+20
 30
-1.000000000000000E+20
  9
$PLIMMIN
 10
0.0
 20
0.0
  9
$PLIMMAX
 10
420.0
 20
297.0
  9
$UNITMODE
 70
     0
  9
$VISRETAIN
 70
     0
  9
$PLINEGEN
 70
     0
  9
$PSLTSCALE
 70
     0
  9
$TREEDEPTH
 70
  3020
  9
$CMLSTYLE
  2
STANDARD
  9
$CMLJUST
 70
     0
  9
$CMLSCALE
 40
1.0
  9
$PROXYGRAPHICS
 70
     1
  9
$MEASUREMENT
 70
     1
  9
$CELWEIGHT
370
    -1
  9
$ENDCAPS
280
     0
  9
$JOINSTYLE
280
     0
  9
$LWDISPLAY
290
     0
  9
$INSUNITS
 70
     0
  9
$HYPERLINKBASE
  1

  9
$STYLESHEET
  1

  9
$XEDIT
290
     1
  9
$CEPSNTYPE
380
     0
  9
$PSTYLEMODE
290
     1
  9
$FINGERPRINTGUID
  2
{7CF6EEB9-2EF9-4D4B-A14C-99867DBAACB7}
  9
$VERSIONGUID
  2
{1A9F582A-24DE-4122-8B3F-C7CC2BA8F819}
  9
$EXTNAMES
290
     1
  9
$PSVPSCALE
 40
0.0
  9
$OLESTARTUP
290
     0
  0
ENDSEC
  0
SECTION
  2
CLASSES
  0
CLASS
  1
ACDBDICTIONARYWDFLT
  2
AcDbDictionaryWithDefault
  3
ObjectDBX Classes
 90
        0
280
     0
281
     0
  0
CLASS
  1
DICTIONARYVAR
  2
AcDbDictionaryVar
  3
ObjectDBX Classes
 90
        0
280
     0
281
     0
  0
CLASS
  1
ACDBPLACEHOLDER
  2
AcDbPlaceHolder
  3
ObjectDBX Classes
 90
        0
280
     0
281
     0
  0
CLASS
  1
LAYOUT
  2
AcDbLayout
  3
ObjectDBX Classes
 90
        0
280
     0
281
     0
  0
ENDSEC
  0
SECTION
  2
TABLES
  0
TABLE
  2
VPORT
  5
746D
330
0
100
AcDbSymbolTable
 70
     2
  0
VPORT
  5
1AA1C
330
746D
100
AcDbSymbolTableRecord
100
AcDbViewportTableRecord
  2
*Active
 70
     0
 10
0.0
 20
0.0
 11
1.0
 21
1.0
 12
8223.761025238502
 22
6348.703162895247
 13
0.0
 23
0.0
 14
10.0
 24
10.0
 15
10.0
 25
10.0
 16
0.0
 26
0.0
 36
1.0
 17
0.0
 27
0.0
 37
0.0
 40
12805.60689082044
 41
1.525925925925925
 42
50.0
 43
0.0
 44
0.0
 50
0.0
 51
0.0
 71
     0
 72
     0
 73
     1
 74
     0
 75
     0
 76
     0
 77
     0
 78
     0
281
     0
 65
     1
110
0.0
120
0.0
130
0.0
111
1.0
121
0.0
131
0.0
112
0.0
122
1.0
132
0.0
 79
     0
146
0.0
  0
ENDTAB
  0
TABLE
  2
LTYPE
  5
746A
330
0
100
AcDbSymbolTable
 70
     4
  0
LTYPE
  5
7477
330
746A
100
AcDbSymbolTableRecord
100
AcDbLinetypeTableRecord
  2
BYBLOCK
 70
     0
  3

 72
    65
 73
     0
 40
0.0
  0
LTYPE
  5
7478
330
746A
100
AcDbSymbolTableRecord
100
AcDbLinetypeTableRecord
  2
BYLAYER
 70
     0
  3

 72
    65
 73
     0
 40
0.0
  0
LTYPE
  5
7479
330
746A
100
AcDbSymbolTableRecord
100
AcDbLinetypeTableRecord
  2
CONTINUOUS
 70
     0
  3
Solid line
 72
    65
 73
     0
 40
0.0
  0
LTYPE
  5
7816
330
746A
100
AcDbSymbolTableRecord
100
AcDbLinetypeTableRecord
  2
CENTER
 70
     0
  3
____ _ ____ _ ____ _ ____ _ ____ _ ____ _ ____ 
 72
    65
 73
     4
 40
2.0
 49
1.25
 74
     0
 49
-0.25
 74
     0
 49
0.25
 74
     0
 49
-0.25
 74
     0
  0
LTYPE
  5
781A
330
746A
100
AcDbSymbolTableRecord
100
AcDbLinetypeTableRecord
  2
HIDDEN
 70
     0
  3
__ __ __ __ __ __ __ __ __ __ __ __ __ __ __ __
 72
    65
 73
     2
 40
0.375
 49
0.25
 74
     0
 49
-0.125
 74
     0
  0
LTYPE
  5
781B
330
746A
100
AcDbSymbolTableRecord
100
AcDbLinetypeTableRecord
  2
PHANTOM
 70
     0
  3
______  __  __  ______  __  __  ______  __  __ 
 72
    65
 73
     6
 40
2.5
 49
1.25
 74
     0
 49
-0.25
 74
     0
 49
0.25
 74
     0
 49
-0.25
 74
     0
 49
0.25
 74
     0
 49
-0.25
 74
     0
  0
ENDTAB
  0
TABLE
  2
LAYER
  5
7467
102
{ACAD_XDICTIONARY
360
195FD
102
}
330
0
100
AcDbSymbolTable
 70
    12
  0
LAYER
  5
7474
330
7467
100
AcDbSymbolTableRecord
100
AcDbLayerTableRecord
  2
0
 70
     0
 62
     7
  6
CONTINUOUS
370
    -3
390
19454
  0
LAYER
  5
DEB2
330
7467
100
AcDbSymbolTableRecord
100
AcDbLayerTableRecord
  2
センター
 70
     0
 62
     3
  6
CENTER
370
    -3
390
19454
  0
LAYER
  5
DEB3
330
7467
100
AcDbSymbolTableRecord
100
AcDbLayerTableRecord
  2
寸法
 70
     0
 62
     4
  6
CONTINUOUS
370
    -3
390
19454
  0
LAYER
  5
DEB4
330
7467
100
AcDbSymbolTableRecord
100
AcDbLayerTableRecord
  2
部品1
 70
     0
 62
     7
  6
CONTINUOUS
370
    -3
390
19454
  0
LAYER
  5
DEB5
330
7467
100
AcDbSymbolTableRecord
100
AcDbLayerTableRecord
  2
補助
 70
     0
 62
    -1
  6
CONTINUOUS
370
    -3
390
19454
  0
LAYER
  5
DEB6
330
7467
100
AcDbSymbolTableRecord
100
AcDbLayerTableRecord
  2
文字
 70
     0
 62
     7
  6
CONTINUOUS
370
    -3
390
19454
  0
LAYER
  5
F255
330
7467
100
AcDbSymbolTableRecord
100
AcDbLayerTableRecord
  2
DEFPOINTS
 70
     0
 62
     7
  6
CONTINUOUS
290
     0
370
    -3
390
19454
  0
LAYER
  5
10B54
330
7467
100
AcDbSymbolTableRecord
100
AcDbLayerTableRecord
  2
仕様書枠
 70
     0
 62
   230
  6
CONTINUOUS
370
    -3
390
19454
  0
LAYER
  5
11729
330
7467
100
AcDbSymbolTableRecord
100
AcDbLayerTableRecord
  2
Ｇ．Ｌ
 70
     0
 62
    30
  6
CONTINUOUS
370
    -3
390
19454
  0
LAYER
  5
1173F
330
7467
100
AcDbSymbolTableRecord
100
AcDbLayerTableRecord
  2
細線
 70
     0
 62
     5
  6
CONTINUOUS
370
    -3
390
19454
  0
LAYER
  5
12CC4
330
7467
100
AcDbSymbolTableRecord
100
AcDbLayerTableRecord
  2
想像線
 70
     0
 62
     6
  6
PHANTOM
370
    -3
390
19454
  0
LAYER
  5
142E2
330
7467
100
AcDbSymbolTableRecord
100
AcDbLayerTableRecord
  2
破線
 70
     0
 62
     2
  6
HIDDEN
370
    -3
390
19454
  0
ENDTAB
  0
TABLE
  2
STYLE
  5
7468
330
0
100
AcDbSymbolTable
 70
     4
  0
STYLE
  5
7475
330
7468
100
AcDbSymbolTableRecord
100
AcDbTextStyleTableRecord
  2
STANDARD
 70
     0
 40
0.0
 41
1.0
 50
0.0
 71
     0
 42
4.0
  3
txt
  4
C:\AutoCAD LT\bigfont.shx
  0
STYLE
  5
F706
330
7468
100
AcDbSymbolTableRecord
100
AcDbTextStyleTableRecord
  2
STYLE1
 70
     0
 40
0.0
 41
1.0
 50
0.0
 71
     0
 42
4.0
  3
isocp.shx
  4
bigfont.shx
  0
STYLE
  5
103BF
330
7468
100
AcDbSymbolTableRecord
100
AcDbTextStyleTableRecord
  2
STYLE2
 70
     0
 40
0.0
 41
1.0
 50
0.0
 71
     0
 42
100.0
  3
MS PGothic.ttf
  4

1001
ACAD
1000
MS PGothic
1071
    32818
  0
STYLE
  5
1A0C5
330
7468
100
AcDbSymbolTableRecord
100
AcDbTextStyleTableRecord
  2
STYLE3
 70
     0
 40
0.0
 41
1.0
 50
0.0
 71
     0
 42
100.0
  3

  4

1001
ACAD
1000
DFPGothic-EB
1071
    32818
  0
ENDTAB
  0
TABLE
  2
VIEW
  5
746B
330
0
100
AcDbSymbolTable
 70
     0
  0
ENDTAB
  0
TABLE
  2
UCS
  5
746C
330
0
100
AcDbSymbolTable
 70
     0
  0
ENDTAB
  0
TABLE
  2
APPID
  5
746E
330
0
100
AcDbSymbolTable
 70
     6
  0
APPID
  5
7476
330
746E
100
AcDbSymbolTableRecord
100
AcDbRegAppTableRecord
  2
ACAD
 70
     0
  0
APPID
  5
DEA9
330
746E
100
AcDbSymbolTableRecord
100
AcDbRegAppTableRecord
  2
CONTENTBLOCKICON
 70
     0
  0
APPID
  5
DEAA
330
746E
100
AcDbSymbolTableRecord
100
AcDbRegAppTableRecord
  2
CONTENTBLOCKDESCRIPTION
 70
     0
  0
APPID
  5
E71D
330
746E
100
AcDbSymbolTableRecord
100
AcDbRegAppTableRecord
  2
CONTENTTABDATA
 70
     0
  0
APPID
  5
E71E
330
746E
100
AcDbSymbolTableRecord
100
AcDbRegAppTableRecord
  2
CONTENTCURRENTTAB
 70
     0
  0
APPID
  5
F3BA
330
746E
100
AcDbSymbolTableRecord
100
AcDbRegAppTableRecord
  2
DRAWINGVARIABLESXDATA
 70
     0
  0
ENDTAB
  0
TABLE
  2
DIMSTYLE
  5
746F
330
0
100
AcDbSymbolTable
 70
     5
100
AcDbDimStyleTable
 71
     0
  0
DIMSTYLE
105
7484
330
746F
100
AcDbSymbolTableRecord
100
AcDbDimStyleTableRecord
  2
JIS
 70
     0
 41
2.5
 42
1.0
 43
7.0
 44
1.0
 73
     0
 74
     0
 77
     1
 78
     8
140
2.5
141
0.0
143
0.0394
147
0.0
172
     1
174
     1
175
     1
340
7475
  0
DIMSTYLE
105
F71F
102
{ACAD_REACTORS
330
19B5D
330
19B86
330
19AD2
330
19AD3
330
19AD4
330
19AD5
330
19AD6
330
19AD7
330
19AF5
330
19AF6
330
19AF7
330
19AF8
330
19AF9
330
19B03
330
19B04
330
19B05
330
19B10
330
19B11
330
19B13
330
19B48
330
19B4B
330
19B50
330
19B58
330
19929
330
19964
330
19965
330
19966
330
19972
330
19976
330
1A6B3
330
1A7B6
102
}
330
746F
100
AcDbSymbolTableRecord
100
AcDbDimStyleTableRecord
  2
INABA_S40G
 70
     0
 40
40.0
 41
2.5
 42
0.5
 43
7.0
 44
1.5
 73
     0
 74
     0
 77
     3
 78
     8
140
3.0
141
0.0
143
0.0394
147
1.0
172
     1
173
     1
174
     1
178
     7
271
     1
340
F706
341
F770
343
F770
344
F770
  0
DIMSTYLE
105
195FC
102
{ACAD_REACTORS
330
1A414
330
1A6B2
102
}
330
746F
100
AcDbSymbolTableRecord
100
AcDbDimStyleTableRecord
  2
INABA_S40
 70
     0
 40
40.0
 41
2.5
 42
0.5
 43
7.0
 44
1.5
 73
     0
 74
     0
 77
     3
 78
     8
140
3.0
141
0.0
143
0.0394
147
1.0
172
     1
173
     1
174
     1
175
     1
178
     7
340
7475
  0
DIMSTYLE
105
1A0C6
330
746F
100
AcDbSymbolTableRecord
100
AcDbDimStyleTableRecord
  2
INABA_S50G
 70
     0
 41
125.0
 42
25.0
 43
7.0
 44
75.0
 73
     0
 74
     0
 77
     3
 78
     8
140
150.0
141
0.0
143
0.0394
147
25.0
172
     1
173
     1
174
     1
175
     1
178
     7
271
     1
340
F706
341
F770
343
F770
344
F770
  0
DIMSTYLE
105
1A9B0
330
746F
100
AcDbSymbolTableRecord
100
AcDbDimStyleTableRecord
  2
INABA_S20G
 70
     0
 40
20.0
 41
2.5
 42
0.5
 43
7.0
 44
1.5
 73
     0
 74
     0
 77
     3
 78
     8
140
3.0
141
0.0
143
0.0394
147
1.0
172
     1
173
     1
174
     1
178
     7
271
     1
340
F706
341
F770
343
F770
344
F770
  0
ENDTAB
  0
TABLE
  2
BLOCK_RECORD
  5
7466
330
0
100
AcDbSymbolTable
 70
    35
  0
BLOCK_RECORD
  5
747D
330
7466
100
AcDbSymbolTableRecord
100
AcDbBlockTableRecord
  2
*MODEL_SPACE
340
19459
  0
BLOCK_RECORD
  5
747A
330
7466
100
AcDbSymbolTableRecord
100
AcDbBlockTableRecord
  2
*PAPER_SPACE
340
1945A
  0
BLOCK_RECORD
  5
F770
330
7466
100
AcDbSymbolTableRecord
100
AcDbBlockTableRecord
  2
_DOTSMALL
340
0
102
{BLKREFS
331
1A1A5
331
1A1A6
331
1A1AE
331
1A1AF
331
1A222
331
1A223
331
1A22B
331
1A22C
331
1A235
331
1A236
331
1A240
331
1A241
331
1A24A
331
1A24B
331
1A253
331
1A254
331
1A25D
331
1A25E
331
1A266
331
1A267
331
1A26F
331
1A270
331
1A27A
331
1A27B
331
1A284
331
1A285
331
1A2A1
331
1A2A2
331
1A2AA
331
1A2AB
331
1A2B3
331
1A2B4
331
1A2BE
331
1A2BF
331
1A2C7
331
1A2C8
331
1A2D2
331
1A2D3
331
1A920
331
1A921
331
1A929
331
1A92A
331
1A948
331
1A949
331
1A951
331
1A952
331
1A95A
331
1A95B
331
1A963
331
1A964
331
1A96C
331
1A96D
331
1A975
331
1A976
331
1A980
331
1A981
331
1A98B
331
1A98C
331
1A996
331
1A997
331
1A99F
331
1A9A0
102
}
  0
BLOCK_RECORD
  5
19461
330
7466
100
AcDbSymbolTableRecord
100
AcDbBlockTableRecord
  2
_DOT
340
0
102
{BLKREFS
331
1A934
331
1A935
331
1A93D
331
1A93E
102
}
  0
BLOCK_RECORD
  5
19B93
330
7466
100
AcDbSymbolTableRecord
100
AcDbBlockTableRecord
  2
*D2
340
0
  0
BLOCK_RECORD
  5
19B9F
330
7466
100
AcDbSymbolTableRecord
100
AcDbBlockTableRecord
  2
*D3
340
0
  0
BLOCK_RECORD
  5
19BC5
330
7466
100
AcDbSymbolTableRecord
100
AcDbBlockTableRecord
  2
*D4
340
0
  0
BLOCK_RECORD
  5
19BD2
330
7466
100
AcDbSymbolTableRecord
100
AcDbBlockTableRecord
  2
*D5
340
0
  0
BLOCK_RECORD
  5
19BE0
330
7466
100
AcDbSymbolTableRecord
100
AcDbBlockTableRecord
  2
*D6
340
0
  0
BLOCK_RECORD
  5
19BEC
330
7466
100
AcDbSymbolTableRecord
100
AcDbBlockTableRecord
  2
*D7
340
0
  0
BLOCK_RECORD
  5
19BF8
330
7466
100
AcDbSymbolTableRecord
100
AcDbBlockTableRecord
  2
*D8
340
0
  0
BLOCK_RECORD
  5
19C05
330
7466
100
AcDbSymbolTableRecord
100
AcDbBlockTableRecord
  2
*D9
340
0
  0
BLOCK_RECORD
  5
19C11
330
7466
100
AcDbSymbolTableRecord
100
AcDbBlockTableRecord
  2
*D10
340
0
  0
BLOCK_RECORD
  5
19C1E
330
7466
100
AcDbSymbolTableRecord
100
AcDbBlockTableRecord
  2
*D11
340
0
  0
BLOCK_RECORD
  5
19C2C
330
7466
100
AcDbSymbolTableRecord
100
AcDbBlockTableRecord
  2
*D12
340
0
  0
BLOCK_RECORD
  5
19C39
330
7466
100
AcDbSymbolTableRecord
100
AcDbBlockTableRecord
  2
*D13
340
0
  0
BLOCK_RECORD
  5
19C45
330
7466
100
AcDbSymbolTableRecord
100
AcDbBlockTableRecord
  2
*D14
340
0
  0
BLOCK_RECORD
  5
19C51
330
7466
100
AcDbSymbolTableRecord
100
AcDbBlockTableRecord
  2
*D15
340
0
  0
BLOCK_RECORD
  5
19C5D
330
7466
100
AcDbSymbolTableRecord
100
AcDbBlockTableRecord
  2
*D16
340
0
  0
BLOCK_RECORD
  5
19C6B
330
7466
100
AcDbSymbolTableRecord
100
AcDbBlockTableRecord
  2
*D17
340
0
  0
BLOCK_RECORD
  5
19C79
330
7466
100
AcDbSymbolTableRecord
100
AcDbBlockTableRecord
  2
*D18
340
0
  0
BLOCK_RECORD
  5
19C87
330
7466
100
AcDbSymbolTableRecord
100
AcDbBlockTableRecord
  2
*D19
340
0
  0
BLOCK_RECORD
  5
19C93
330
7466
100
AcDbSymbolTableRecord
100
AcDbBlockTableRecord
  2
*D20
340
0
  0
BLOCK_RECORD
  5
19C9F
330
7466
100
AcDbSymbolTableRecord
100
AcDbBlockTableRecord
  2
*D21
340
0
  0
BLOCK_RECORD
  5
19CAB
330
7466
100
AcDbSymbolTableRecord
100
AcDbBlockTableRecord
  2
*D22
340
0
  0
BLOCK_RECORD
  5
19CC3
330
7466
100
AcDbSymbolTableRecord
100
AcDbBlockTableRecord
  2
*D23
340
0
  0
BLOCK_RECORD
  5
19CCF
330
7466
100
AcDbSymbolTableRecord
100
AcDbBlockTableRecord
  2
*D24
340
0
  0
BLOCK_RECORD
  5
19CDD
330
7466
100
AcDbSymbolTableRecord
100
AcDbBlockTableRecord
  2
*D25
340
0
  0
BLOCK_RECORD
  5
19CEB
330
7466
100
AcDbSymbolTableRecord
100
AcDbBlockTableRecord
  2
*D26
340
0
  0
BLOCK_RECORD
  5
19CF7
330
7466
100
AcDbSymbolTableRecord
100
AcDbBlockTableRecord
  2
*D27
340
0
  0
BLOCK_RECORD
  5
19D05
330
7466
100
AcDbSymbolTableRecord
100
AcDbBlockTableRecord
  2
*D28
340
0
  0
BLOCK_RECORD
  5
19D11
330
7466
100
AcDbSymbolTableRecord
100
AcDbBlockTableRecord
  2
*D29
340
0
  0
BLOCK_RECORD
  5
19D1D
330
7466
100
AcDbSymbolTableRecord
100
AcDbBlockTableRecord
  2
*D30
340
0
  0
BLOCK_RECORD
  5
1A47F
330
7466
100
AcDbSymbolTableRecord
100
AcDbBlockTableRecord
  2
*D31
340
0
  0
BLOCK_RECORD
  5
1A7C6
330
7466
100
AcDbSymbolTableRecord
100
AcDbBlockTableRecord
  2
*D32
340
0
  0
BLOCK_RECORD
  5
1A7D4
330
7466
100
AcDbSymbolTableRecord
100
AcDbBlockTableRecord
  2
*D33
340
0
  0
BLOCK_RECORD
  5
1A852
330
7466
100
AcDbSymbolTableRecord
100
AcDbBlockTableRecord
  2
*D34
340
0
  0
ENDTAB
  0
ENDSEC
  0
SECTION
  2
BLOCKS
  0
BLOCK
  5
7489
330
747D
100
AcDbEntity
  8
0
100
AcDbBlockBegin
  2
*MODEL_SPACE
 70
     0
 10
0.0
 20
0.0
 30
0.0
  3
*MODEL_SPACE
  1

  0
ENDBLK
  5
748A
330
747D
100
AcDbEntity
  8
0
100
AcDbBlockEnd
  0
BLOCK
  5
7487
330
747A
100
AcDbEntity
 67
     1
  8
0
100
AcDbBlockBegin
  2
*PAPER_SPACE
 70
     0
 10
0.0
 20
0.0
 30
0.0
  3
*PAPER_SPACE
  1

  0
ENDBLK
  5
7488
330
747A
100
AcDbEntity
 67
     1
  8
0
100
AcDbBlockEnd
  0
BLOCK
  5
F771
330
F770
100
AcDbEntity
  8
0
 48
50.0
100
AcDbBlockBegin
  2
_DOTSMALL
 70
     0
 10
0.0
 20
0.0
 30
0.0
  3
_DOTSMALL
  1

  0
LWPOLYLINE
  5
F772
330
F770
100
AcDbEntity
  8
0
  6
ByBlock
 62
     0
 48
50.0
100
AcDbPolyline
 90
        2
 70
     1
 43
0.5
 10
-0.0625
 20
0.0
 42
1.0
 10
0.0625
 20
0.0
 42
1.0
  0
ENDBLK
  5
F776
330
F770
100
AcDbEntity
  8
0
 48
50.0
100
AcDbBlockEnd
  0
BLOCK
  5
19462
330
19461
100
AcDbEntity
  8
0
 48
50.0
100
AcDbBlockBegin
  2
_DOT
 70
     0
 10
0.0
 20
0.0
 30
0.0
  3
_DOT
  1

  0
LWPOLYLINE
  5
19463
330
19461
100
AcDbEntity
  8
0
  6
ByBlock
 62
     0
 48
50.0
100
AcDbPolyline
 90
        2
 70
     1
 43
0.5
 10
-0.25
 20
0.0
 42
1.0
 10
0.25
 20
0.0
 42
1.0
  0
LINE
  5
19464
330
19461
100
AcDbEntity
  8
0
  6
ByBlock
 62
     0
 48
50.0
100
AcDbLine
 10
-0.5
 20
0.0
 30
0.0
 11
-1.0
 21
0.0
 31
0.0
  0
ENDBLK
  5
19465
330
19461
100
AcDbEntity
  8
0
 48
50.0
100
AcDbBlockEnd
  0
BLOCK
  5
19B9D
330
19B93
100
AcDbEntity
  8
0
 48
50.0
100
AcDbBlockBegin
  2
*D2
 70
     1
 10
0.0
 20
0.0
 30
0.0
  3
*D2
  1

  0
LINE
  5
1A1AB
330
19B93
100
AcDbEntity
  8
寸法
 62
     0
 48
50.0
370
    -2
100
AcDbLine
 10
11265.68534248609
 20
2353.446857236487
 30
0.0
 11
11996.89892147216
 21
2353.446857236487
 31
0.0
  0
LINE
  5
1A1AC
330
19B93
100
AcDbEntity
  8
寸法
 62
     0
 48
50.0
370
    -2
100
AcDbLine
 10
11345.6853424861
 20
4673.446857236487
 30
0.0
 11
11996.89892147216
 21
4673.446857236487
 31
0.0
  0
LINE
  5
1A1AD
330
19B93
100
AcDbEntity
  8
寸法
 62
     0
 48
50.0
370
    -2
100
AcDbLine
 10
11936.89892147216
 20
2353.446857236487
 30
0.0
 11
11936.89892147216
 21
4673.446857236487
 31
0.0
  0
INSERT
  5
1A1AE
330
19B93
100
AcDbEntity
  8
寸法
 62
     0
 48
50.0
370
    -2
100
AcDbBlockReference
  2
_DOTSMALL
 10
11936.89892147216
 20
2353.446857236487
 30
0.0
 41
100.0
 42
100.0
 43
100.0
 50
270.0
  0
INSERT
  5
1A1AF
330
19B93
100
AcDbEntity
  8
寸法
 62
     0
 48
50.0
370
    -2
100
AcDbBlockReference
  2
_DOTSMALL
 10
11936.89892147216
 20
4673.446857236487
 30
0.0
 41
100.0
 42
100.0
 43
100.0
 50
90.0
  0
MTEXT
  5
1A1B0
330
19B93
100
AcDbEntity
  8
寸法
 62
     7
 48
50.0
100
AcDbMText
 10
11836.88711044853
 20
3513.44685723649
 30
0.0
 40
120.0
 41
0.0
 71
     5
 72
     1
  1
\A1;2320
  7
STYLE1
 11
0.0000000000000001
 21
1.0
 31
0.0
 73
     1
 44
1.0
1001
ACAD
1000
MTEXTBEGIN
1070
    73
1070
     1
1070
    44
1040
1.0
1070
    74
1070
     0
1000
MTEXTEND
  0
POINT
  5
1A1B1
330
19B93
100
AcDbEntity
  8
DEFPOINTS
 62
     0
 48
50.0
100
AcDbPoint
 10
11245.68534248609
 20
2353.446857236487
 30
0.0
  0
POINT
  5
1A1B2
330
19B93
100
AcDbEntity
  8
DEFPOINTS
 62
     0
 48
50.0
100
AcDbPoint
 10
11325.6853424861
 20
4673.446857236487
 30
0.0
  0
POINT
  5
1A1B3
330
19B93
100
AcDbEntity
  8
DEFPOINTS
 62
     0
 48
50.0
100
AcDbPoint
 10
11936.89892147216
 20
4673.446857236487
 30
0.0
  0
ENDBLK
  5
19B9E
330
19B93
100
AcDbEntity
  8
0
 48
50.0
100
AcDbBlockEnd
  0
BLOCK
  5
19BA9
330
19B9F
100
AcDbEntity
  8
0
 48
50.0
100
AcDbBlockBegin
  2
*D3
 70
     1
 10
0.0
 20
0.0
 30
0.0
  3
*D3
  1

  0
LINE
  5
1A1A2
330
19B9F
100
AcDbEntity
  8
寸法
 62
     0
 48
50.0
370
    -2
100
AcDbLine
 10
8295.685342486095
 20
2033.446857236488
 30
0.0
 11
8295.685342486095
 21
1707.399527936109
 31
0.0
  0
LINE
  5
1A1A3
330
19B9F
100
AcDbEntity
  8
寸法
 62
     0
 48
50.0
370
    -2
100
AcDbLine
 10
8095.685342486092
 20
2033.446857236488
 30
0.0
 11
8095.685342486092
 21
1707.399527936109
 31
0.0
  0
LINE
  5
1A1A4
330
19B9F
100
AcDbEntity
  8
寸法
 62
     0
 48
50.0
370
    -2
100
AcDbLine
 10
8295.685342486095
 20
1767.39952793611
 30
0.0
 11
8095.685342486092
 21
1767.39952793611
 31
0.0
  0
INSERT
  5
1A1A5
330
19B9F
100
AcDbEntity
  8
寸法
 62
     0
 48
50.0
370
    -2
100
AcDbBlockReference
  2
_DOTSMALL
 10
8295.685342486095
 20
1767.39952793611
 30
0.0
 41
100.0
 42
100.0
 43
100.0
  0
INSERT
  5
1A1A6
330
19B9F
100
AcDbEntity
  8
寸法
 62
     0
 48
50.0
370
    -2
100
AcDbBlockReference
  2
_DOTSMALL
 10
8095.685342486092
 20
1767.39952793611
 30
0.0
 41
100.0
 42
100.0
 43
100.0
 50
180.0
  0
MTEXT
  5
1A1A7
330
19B9F
100
AcDbEntity
  8
寸法
 62
     7
 48
50.0
100
AcDbMText
 10
8195.685342486092
 20
1867.411338959732
 30
0.0
 40
120.0
 41
0.0
 71
     5
 72
     1
  1
\A1;200
  7
STYLE1
 73
     1
 44
1.0
1001
ACAD
1000
MTEXTBEGIN
1070
    73
1070
     1
1070
    44
1040
1.0
1070
    74
1070
     0
1000
MTEXTEND
  0
POINT
  5
1A1A8
330
19B9F
100
AcDbEntity
  8
DEFPOINTS
 62
     0
 48
50.0
100
AcDbPoint
 10
8295.685342486095
 20
2053.446857236488
 30
0.0
  0
POINT
  5
1A1A9
330
19B9F
100
AcDbEntity
  8
DEFPOINTS
 62
     0
 48
50.0
100
AcDbPoint
 10
8095.685342486092
 20
2053.446857236488
 30
0.0
  0
POINT
  5
1A1AA
330
19B9F
100
AcDbEntity
  8
DEFPOINTS
 62
     0
 48
50.0
100
AcDbPoint
 10
8095.685342486092
 20
1767.39952793611
 30
0.0
  0
ENDBLK
  5
19BAA
330
19B9F
100
AcDbEntity
  8
0
 48
50.0
100
AcDbBlockEnd
  0
BLOCK
  5
19BD0
330
19BC5
100
AcDbEntity
  8
0
 48
50.0
100
AcDbBlockBegin
  2
*D4
 70
     1
 10
0.0
 20
0.0
 30
0.0
  3
*D4
  1

  0
LINE
  5
1A280
330
19BC5
100
AcDbEntity
  8
寸法
 62
     0
 48
50.0
370
    -2
100
AcDbLine
 10
8120.685342486092
 20
2353.446857236489
 30
0.0
 11
7227.045960556735
 21
2353.446857236489
 31
0.0
  0
LINE
  5
1A281
330
19BC5
100
AcDbEntity
  8
寸法
 62
     0
 48
50.0
370
    -2
100
AcDbLine
 10
7552.032633327795
 20
2253.44685723649
 30
0.0
 11
7227.045960556735
 21
2253.44685723649
 31
0.0
  0
LINE
  5
1A282
330
19BC5
100
AcDbEntity
  8
寸法
 62
     0
 48
50.0
370
    -2
100
AcDbLine
 10
7287.045960556735
 20
2353.446857236489
 30
0.0
 11
7287.045960556735
 21
2253.44685723649
 31
0.0
  0
LINE
  5
1A283
330
19BC5
100
AcDbEntity
  8
寸法
 62
     0
 48
50.0
370
    -2
100
AcDbLine
 10
7287.045960556735
 20
2253.44685723649
 30
0.0
 11
7287.045960556735
 21
1881.35236904751
 31
0.0
  0
INSERT
  5
1A284
330
19BC5
100
AcDbEntity
  8
寸法
 62
     0
 48
50.0
370
    -2
100
AcDbBlockReference
  2
_DOTSMALL
 10
7287.045960556735
 20
2353.446857236489
 30
0.0
 41
100.0
 42
100.0
 43
100.0
 50
90.0
  0
INSERT
  5
1A285
330
19BC5
100
AcDbEntity
  8
寸法
 62
     0
 48
50.0
370
    -2
100
AcDbBlockReference
  2
_DOTSMALL
 10
7287.045960556735
 20
2253.44685723649
 30
0.0
 41
100.0
 42
100.0
 43
100.0
 50
270.0
  0
MTEXT
  5
1A286
330
19BC5
100
AcDbEntity
  8
寸法
 62
     7
 48
50.0
100
AcDbMText
 10
7187.045960556734
 20
2017.399613141999
 30
0.0
 40
120.0
 41
0.0
 71
     5
 72
     1
  1
\A1;100
  7
STYLE1
 11
0.0000000000000001
 21
1.0
 31
0.0
 73
     1
 44
1.0
1001
ACAD
1000
MTEXTBEGIN
1070
    73
1070
     1
1070
    44
1040
1.0
1070
    74
1070
     0
1000
MTEXTEND
  0
POINT
  5
1A287
330
19BC5
100
AcDbEntity
  8
DEFPOINTS
 62
     0
 48
50.0
100
AcDbPoint
 10
8140.685342486092
 20
2353.446857236489
 30
0.0
  0
POINT
  5
1A288
330
19BC5
100
AcDbEntity
  8
DEFPOINTS
 62
     0
 48
50.0
100
AcDbPoint
 10
7572.032633327795
 20
2253.44685723649
 30
0.0
  0
POINT
  5
1A289
330
19BC5
100
AcDbEntity
  8
DEFPOINTS
 62
     0
 48
50.0
100
AcDbPoint
 10
7287.045960556735
 20
2253.44685723649
 30
0.0
  0
ENDBLK
  5
19BD1
330
19BC5
100
AcDbEntity
  8
0
 48
50.0
100
AcDbBlockEnd
  0
BLOCK
  5
19BDE
330
19BD2
100
AcDbEntity
  8
0
 48
50.0
100
AcDbBlockBegin
  2
*D5
 70
     1
 10
0.0
 20
0.0
 30
0.0
  3
*D5
  1

  0
LINE
  5
1A275
330
19BD2
100
AcDbEntity
  8
寸法
 62
     0
 48
50.0
370
    -2
100
AcDbLine
 10
8175.685342486094
 20
2403.446857236489
 30
0.0
 11
7512.032633327796
 21
2403.446857236489
 31
0.0
  0
LINE
  5
1A276
330
19BD2
100
AcDbEntity
  8
寸法
 62
     0
 48
50.0
370
    -2
100
AcDbLine
 10
8120.685342486092
 20
2353.446857236489
 30
0.0
 11
7512.032633327796
 21
2353.446857236489
 31
0.0
  0
LINE
  5
1A277
330
19BD2
100
AcDbEntity
  8
寸法
 62
     0
 48
50.0
370
    -2
100
AcDbLine
 10
7572.032633327797
 20
2403.446857236489
 30
0.0
 11
7572.032633327797
 21
2503.44685723649
 31
0.0
  0
LINE
  5
1A278
330
19BD2
100
AcDbEntity
  8
寸法
 62
     0
 48
50.0
370
    -2
100
AcDbLine
 10
7572.032633327797
 20
2353.446857236489
 30
0.0
 11
7572.032633327795
 21
1941.35236904751
 31
0.0
  0
LINE
  5
1A279
330
19BD2
100
AcDbEntity
  8
寸法
 62
     0
 48
50.0
370
    -2
100
AcDbLine
 10
7572.032633327797
 20
2403.446857236489
 30
0.0
 11
7572.032633327797
 21
2353.446857236489
 31
0.0
  0
INSERT
  5
1A27A
330
19BD2
100
AcDbEntity
  8
寸法
 62
     0
 48
50.0
370
    -2
100
AcDbBlockReference
  2
_DOTSMALL
 10
7572.032633327797
 20
2403.446857236489
 30
0.0
 41
100.0
 42
100.0
 43
100.0
 50
270.0
  0
INSERT
  5
1A27B
330
19BD2
100
AcDbEntity
  8
寸法
 62
     0
 48
50.0
370
    -2
100
AcDbBlockReference
  2
_DOTSMALL
 10
7572.032633327797
 20
2353.446857236489
 30
0.0
 41
100.0
 42
100.0
 43
100.0
 50
90.0
  0
MTEXT
  5
1A27C
330
19BD2
100
AcDbEntity
  8
寸法
 62
     7
 48
50.0
100
AcDbMText
 10
7472.032633327795
 20
2047.399613141999
 30
0.0
 40
120.0
 41
0.0
 71
     5
 72
     1
  1
\A1;50
  7
STYLE1
 11
0.0000000000000001
 21
1.0
 31
0.0
 73
     1
 44
1.0
1001
ACAD
1000
MTEXTBEGIN
1070
    73
1070
     1
1070
    44
1040
1.0
1070
    74
1070
     0
1000
MTEXTEND
  0
POINT
  5
1A27D
330
19BD2
100
AcDbEntity
  8
DEFPOINTS
 62
     0
 48
50.0
100
AcDbPoint
 10
8195.685342486092
 20
2403.446857236489
 30
0.0
  0
POINT
  5
1A27E
330
19BD2
100
AcDbEntity
  8
DEFPOINTS
 62
     0
 48
50.0
100
AcDbPoint
 10
8140.685342486092
 20
2353.446857236489
 30
0.0
  0
POINT
  5
1A27F
330
19BD2
100
AcDbEntity
  8
DEFPOINTS
 62
     0
 48
50.0
100
AcDbPoint
 10
7572.032633327797
 20
2353.446857236489
 30
0.0
  0
ENDBLK
  5
19BDF
330
19BD2
100
AcDbEntity
  8
0
 48
50.0
100
AcDbBlockEnd
  0
BLOCK
  5
19BEA
330
19BE0
100
AcDbEntity
  8
0
 48
50.0
100
AcDbBlockBegin
  2
*D6
 70
     1
 10
0.0
 20
0.0
 30
0.0
  3
*D6
  1

  0
LINE
  5
1A26C
330
19BE0
100
AcDbEntity
  8
寸法
 62
     0
 48
50.0
370
    -2
100
AcDbLine
 10
8175.685342486092
 20
4493.446857236489
 30
0.0
 11
7512.032633327797
 21
4493.446857236489
 31
0.0
  0
LINE
  5
1A26D
330
19BE0
100
AcDbEntity
  8
寸法
 62
     0
 48
50.0
370
    -2
100
AcDbLine
 10
8175.685342486094
 20
2403.446857236489
 30
0.0
 11
7512.032633327797
 21
2403.446857236489
 31
0.0
  0
LINE
  5
1A26E
330
19BE0
100
AcDbEntity
  8
寸法
 62
     0
 48
50.0
370
    -2
100
AcDbLine
 10
7572.032633327797
 20
4493.446857236489
 30
0.0
 11
7572.032633327797
 21
2403.446857236489
 31
0.0
  0
INSERT
  5
1A26F
330
19BE0
100
AcDbEntity
  8
寸法
 62
     0
 48
50.0
370
    -2
100
AcDbBlockReference
  2
_DOTSMALL
 10
7572.032633327797
 20
4493.446857236489
 30
0.0
 41
100.0
 42
100.0
 43
100.0
 50
90.0
  0
INSERT
  5
1A270
330
19BE0
100
AcDbEntity
  8
寸法
 62
     0
 48
50.0
370
    -2
100
AcDbBlockReference
  2
_DOTSMALL
 10
7572.032633327797
 20
2403.446857236489
 30
0.0
 41
100.0
 42
100.0
 43
100.0
 50
270.0
  0
MTEXT
  5
1A271
330
19BE0
100
AcDbEntity
  8
寸法
 62
     7
 48
50.0
100
AcDbMText
 10
7472.020822304175
 20
3423.946857236489
 30
0.0
 40
120.0
 41
0.0
 71
     5
 72
     1
  1
\A1;2090
  7
STYLE1
 11
0.0000000000000001
 21
1.0
 31
0.0
 73
     1
 44
1.0
1001
ACAD
1000
MTEXTBEGIN
1070
    73
1070
     1
1070
    44
1040
1.0
1070
    74
1070
     0
1000
MTEXTEND
  0
POINT
  5
1A272
330
19BE0
100
AcDbEntity
  8
DEFPOINTS
 62
     0
 48
50.0
100
AcDbPoint
 10
8195.685342486092
 20
4493.446857236489
 30
0.0
  0
POINT
  5
1A273
330
19BE0
100
AcDbEntity
  8
DEFPOINTS
 62
     0
 48
50.0
100
AcDbPoint
 10
8195.685342486092
 20
2403.446857236489
 30
0.0
  0
POINT
  5
1A274
330
19BE0
100
AcDbEntity
  8
DEFPOINTS
 62
     0
 48
50.0
100
AcDbPoint
 10
7572.032633327797
 20
2403.446857236489
 30
0.0
  0
ENDBLK
  5
19BEB
330
19BE0
100
AcDbEntity
  8
0
 48
50.0
100
AcDbBlockEnd
  0
BLOCK
  5
19BF6
330
19BEC
100
AcDbEntity
  8
0
 48
50.0
100
AcDbBlockBegin
  2
*D7
 70
     1
 10
0.0
 20
0.0
 30
0.0
  3
*D7
  1

  0
LINE
  5
1A263
330
19BEC
100
AcDbEntity
  8
寸法
 62
     0
 48
50.0
370
    -2
100
AcDbLine
 10
8175.685342486094
 20
2353.446857236489
 30
0.0
 11
7227.045960556735
 21
2353.446857236489
 31
0.0
  0
LINE
  5
1A264
330
19BEC
100
AcDbEntity
  8
寸法
 62
     0
 48
50.0
370
    -2
100
AcDbLine
 10
8115.685342486093
 20
4728.446857236493
 30
0.0
 11
7227.045960556735
 21
4728.446857236493
 31
0.0
  0
LINE
  5
1A265
330
19BEC
100
AcDbEntity
  8
寸法
 62
     0
 48
50.0
370
    -2
100
AcDbLine
 10
7287.045960556736
 20
2353.446857236489
 30
0.0
 11
7287.045960556736
 21
4728.446857236493
 31
0.0
  0
INSERT
  5
1A266
330
19BEC
100
AcDbEntity
  8
寸法
 62
     0
 48
50.0
370
    -2
100
AcDbBlockReference
  2
_DOTSMALL
 10
7287.045960556736
 20
2353.446857236489
 30
0.0
 41
100.0
 42
100.0
 43
100.0
 50
270.0
  0
INSERT
  5
1A267
330
19BEC
100
AcDbEntity
  8
寸法
 62
     0
 48
50.0
370
    -2
100
AcDbBlockReference
  2
_DOTSMALL
 10
7287.045960556736
 20
4728.446857236493
 30
0.0
 41
100.0
 42
100.0
 43
100.0
 50
90.0
  0
MTEXT
  5
1A268
330
19BEC
100
AcDbEntity
  8
寸法
 62
     7
 48
50.0
100
AcDbMText
 10
7187.034149533113
 20
3423.946857236489
 30
0.0
 40
120.0
 41
0.0
 71
     5
 72
     1
  1
\A1;2375
  7
STYLE1
 11
0.0000000000000001
 21
1.0
 31
0.0
 73
     1
 44
1.0
1001
ACAD
1000
MTEXTBEGIN
1070
    73
1070
     1
1070
    44
1040
1.0
1070
    74
1070
     0
1000
MTEXTEND
  0
POINT
  5
1A269
330
19BEC
100
AcDbEntity
  8
DEFPOINTS
 62
     0
 48
50.0
100
AcDbPoint
 10
8195.685342486092
 20
2353.446857236489
 30
0.0
  0
POINT
  5
1A26A
330
19BEC
100
AcDbEntity
  8
DEFPOINTS
 62
     0
 48
50.0
100
AcDbPoint
 10
8135.685342486093
 20
4728.446857236493
 30
0.0
  0
POINT
  5
1A26B
330
19BEC
100
AcDbEntity
  8
DEFPOINTS
 62
     0
 48
50.0
100
AcDbPoint
 10
7287.045960556736
 20
4728.446857236493
 30
0.0
  0
ENDBLK
  5
19BF7
330
19BEC
100
AcDbEntity
  8
0
 48
50.0
100
AcDbBlockEnd
  0
BLOCK
  5
19C03
330
19BF8
100
AcDbEntity
  8
0
 48
50.0
100
AcDbBlockBegin
  2
*D8
 70
     1
 10
0.0
 20
0.0
 30
0.0
  3
*D8
  1

  0
LINE
  5
1A259
330
19BF8
100
AcDbEntity
  8
寸法
 62
     0
 48
50.0
370
    -2
100
AcDbLine
 10
8135.089628777194
 20
4727.744564306152
 30
0.0
 11
7519.155189671922
 21
4745.458714580481
 31
0.0
  0
LINE
  5
1A25A
330
19BF8
100
AcDbEntity
  8
寸法
 62
     0
 48
50.0
370
    -2
100
AcDbLine
 10
8131.036173220568
 20
4586.802840540436
 30
0.0
 11
7515.101734115295
 21
4604.516990814765
 31
0.0
  0
LINE
  5
1A25B
330
19BF8
100
AcDbEntity
  8
寸法
 62
     0
 48
50.0
370
    -2
100
AcDbLine
 10
7575.076935717728
 20
4602.792116109817
 30
0.0
 11
7579.130391274353
 21
4743.733839875533
 31
0.0
  0
LINE
  5
1A25C
330
19BF8
100
AcDbEntity
  8
寸法
 62
     0
 48
50.0
370
    -2
100
AcDbLine
 10
7579.130391274353
 20
4743.733839875533
 30
0.0
 11
7589.479639504038
 21
5103.585049490127
 31
0.0
  0
INSERT
  5
1A25D
330
19BF8
100
AcDbEntity
  8
寸法
 62
     0
 48
50.0
370
    -2
100
AcDbBlockReference
  2
_DOTSMALL
 10
7575.076935717728
 20
4602.792116109817
 30
0.0
 41
100.0
 42
100.0
 43
100.0
 50
268.3526390256379
  0
INSERT
  5
1A25E
330
19BF8
100
AcDbEntity
  8
寸法
 62
     0
 48
50.0
370
    -2
100
AcDbBlockReference
  2
_DOTSMALL
 10
7579.130391274353
 20
4743.733839875533
 30
0.0
 41
100.0
 42
100.0
 43
100.0
 50
88.35263902563784
  0
MTEXT
  5
1A25F
330
19BF8
100
AcDbEntity
  8
寸法
 62
     7
 48
50.0
100
AcDbMText
 10
7485.783741639266
 20
4976.51357052644
 30
0.0
 40
120.0
 41
0.0
 71
     5
 72
     1
  1
\A1;141
  7
STYLE1
 11
0.0287479117491228
 21
0.9995866933738486
 31
0.0
 73
     1
 44
1.0
1001
ACAD
1000
MTEXTBEGIN
1070
    73
1070
     1
1070
    44
1040
1.0
1070
    74
1070
     0
1000
MTEXTEND
  0
POINT
  5
1A260
330
19BF8
100
AcDbEntity
  8
DEFPOINTS
 62
     0
 48
50.0
100
AcDbPoint
 10
8155.08136264467
 20
4727.169606071169
 30
0.0
  0
POINT
  5
1A261
330
19BF8
100
AcDbEntity
  8
DEFPOINTS
 62
     0
 48
50.0
100
AcDbPoint
 10
8151.027907088046
 20
4586.227882305453
 30
0.0
  0
POINT
  5
1A262
330
19BF8
100
AcDbEntity
  8
DEFPOINTS
 62
     0
 48
50.0
100
AcDbPoint
 10
7575.076935717728
 20
4602.792116109817
 30
0.0
  0
ENDBLK
  5
19C04
330
19BF8
100
AcDbEntity
  8
0
 48
50.0
100
AcDbBlockEnd
  0
BLOCK
  5
19C0F
330
19C05
100
AcDbEntity
  8
0
 48
50.0
100
AcDbBlockBegin
  2
*D9
 70
     1
 10
0.0
 20
0.0
 30
0.0
  3
*D9
  1

  0
LINE
  5
1A250
330
19C05
100
AcDbEntity
  8
寸法
 62
     0
 48
50.0
370
    -2
100
AcDbLine
 10
8623.685342486096
 20
4436.446857236489
 30
0.0
 11
7843.212652906704
 21
4436.446857236489
 31
0.0
  0
LINE
  5
1A251
330
19C05
100
AcDbEntity
  8
寸法
 62
     0
 48
50.0
370
    -2
100
AcDbLine
 10
8623.685342486096
 20
2411.446857236488
 30
0.0
 11
7843.212652906704
 21
2411.446857236488
 31
0.0
  0
LINE
  5
1A252
330
19C05
100
AcDbEntity
  8
寸法
 62
     0
 48
50.0
370
    -2
100
AcDbLine
 10
7903.212652906704
 20
4436.446857236489
 30
0.0
 11
7903.212652906704
 21
2411.446857236488
 31
0.0
  0
INSERT
  5
1A253
330
19C05
100
AcDbEntity
  8
寸法
 62
     0
 48
50.0
370
    -2
100
AcDbBlockReference
  2
_DOTSMALL
 10
7903.212652906704
 20
4436.446857236489
 30
0.0
 41
100.0
 42
100.0
 43
100.0
 50
90.0
  0
INSERT
  5
1A254
330
19C05
100
AcDbEntity
  8
寸法
 62
     0
 48
50.0
370
    -2
100
AcDbBlockReference
  2
_DOTSMALL
 10
7903.212652906704
 20
2411.446857236488
 30
0.0
 41
100.0
 42
100.0
 43
100.0
 50
270.0
  0
MTEXT
  5
1A255
330
19C05
100
AcDbEntity
  8
寸法
 62
     7
 48
50.0
100
AcDbMText
 10
7803.200841883082
 20
3423.946857236489
 30
0.0
 40
120.0
 41
0.0
 71
     5
 72
     1
  1
\A1;有効開口部高サ2025
  7
STYLE1
 11
0.0000000000000001
 21
1.0
 31
0.0
 73
     1
 44
1.0
1001
ACAD
1000
MTEXTBEGIN
1070
    73
1070
     1
1070
    44
1040
1.0
1070
    74
1070
     0
1000
MTEXTEND
  0
POINT
  5
1A256
330
19C05
100
AcDbEntity
  8
DEFPOINTS
 62
     0
 48
50.0
100
AcDbPoint
 10
8643.685342486094
 20
4436.446857236489
 30
0.0
  0
POINT
  5
1A257
330
19C05
100
AcDbEntity
  8
DEFPOINTS
 62
     0
 48
50.0
100
AcDbPoint
 10
8643.685342486094
 20
2411.446857236488
 30
0.0
  0
POINT
  5
1A258
330
19C05
100
AcDbEntity
  8
DEFPOINTS
 62
     0
 48
50.0
100
AcDbPoint
 10
7903.212652906704
 20
2411.446857236488
 30
0.0
  0
ENDBLK
  5
19C10
330
19C05
100
AcDbEntity
  8
0
 48
50.0
100
AcDbBlockEnd
  0
BLOCK
  5
19C1C
330
19C11
100
AcDbEntity
  8
0
 48
50.0
100
AcDbBlockBegin
  2
*D10
 70
     1
 10
0.0
 20
0.0
 30
0.0
  3
*D10
  1

  0
LINE
  5
1A246
330
19C11
100
AcDbEntity
  8
寸法
 62
     0
 48
50.0
370
    -2
100
AcDbLine
 10
8135.089628777194
 20
4727.744564306154
 30
0.0
 11
7519.155189671916
 21
4745.458714580483
 31
0.0
  0
LINE
  5
1A247
330
19C11
100
AcDbEntity
  8
寸法
 62
     0
 48
50.0
370
    -2
100
AcDbLine
 10
8131.03617322057
 20
4586.80284054044
 30
0.0
 11
7515.101734115289
 21
4604.51699081477
 31
0.0
  0
LINE
  5
1A248
330
19C11
100
AcDbEntity
  8
寸法
 62
     0
 48
50.0
370
    -2
100
AcDbLine
 10
7575.076935717721
 20
4602.792116109823
 30
0.0
 11
7579.130391274347
 21
4743.733839875536
 31
0.0
  0
LINE
  5
1A249
330
19C11
100
AcDbEntity
  8
寸法
 62
     0
 48
50.0
370
    -2
100
AcDbLine
 10
7579.130391274347
 20
4743.733839875536
 30
0.0
 11
7589.479639504031
 21
5103.585049490122
 31
0.0
  0
INSERT
  5
1A24A
330
19C11
100
AcDbEntity
  8
寸法
 62
     0
 48
50.0
370
    -2
100
AcDbBlockReference
  2
_DOTSMALL
 10
7575.076935717721
 20
4602.792116109823
 30
0.0
 41
100.0
 42
100.0
 43
100.0
 50
268.3526390256378
  0
INSERT
  5
1A24B
330
19C11
100
AcDbEntity
  8
寸法
 62
     0
 48
50.0
370
    -2
100
AcDbBlockReference
  2
_DOTSMALL
 10
7579.130391274347
 20
4743.733839875536
 30
0.0
 41
100.0
 42
100.0
 43
100.0
 50
88.35263902563776
  0
MTEXT
  5
1A24C
330
19C11
100
AcDbEntity
  8
寸法
 62
     7
 48
50.0
100
AcDbMText
 10
7485.783741639259
 20
4976.513570526434
 30
0.0
 40
120.0
 41
0.0
 71
     5
 72
     1
  1
\A1;141
  7
STYLE1
 11
0.0287479117491237
 21
0.9995866933738488
 31
0.0
 73
     1
 44
1.0
1001
ACAD
1000
MTEXTBEGIN
1070
    73
1070
     1
1070
    44
1040
1.0
1070
    74
1070
     0
1000
MTEXTEND
  0
POINT
  5
1A24D
330
19C11
100
AcDbEntity
  8
DEFPOINTS
 62
     0
 48
50.0
100
AcDbPoint
 10
8155.08136264467
 20
4727.16960607117
 30
0.0
  0
POINT
  5
1A24E
330
19C11
100
AcDbEntity
  8
DEFPOINTS
 62
     0
 48
50.0
100
AcDbPoint
 10
8151.027907088046
 20
4586.227882305457
 30
0.0
  0
POINT
  5
1A24F
330
19C11
100
AcDbEntity
  8
DEFPOINTS
 62
     0
 48
50.0
100
AcDbPoint
 10
7575.076935717721
 20
4602.792116109823
 30
0.0
  0
ENDBLK
  5
19C1D
330
19C11
100
AcDbEntity
  8
0
 48
50.0
100
AcDbBlockEnd
  0
BLOCK
  5
19C2A
330
19C1E
100
AcDbEntity
  8
0
 48
50.0
100
AcDbBlockBegin
  2
*D11
 70
     1
 10
0.0
 20
0.0
 30
0.0
  3
*D11
  1

  0
LINE
  5
1A23B
330
19C1E
100
AcDbEntity
  8
寸法
 62
     0
 48
50.0
370
    -2
100
AcDbLine
 10
8195.685342486092
 20
4744.448475359468
 30
0.0
 11
8195.685342486092
 21
5187.104310815795
 31
0.0
  0
LINE
  5
1A23C
330
19C1E
100
AcDbEntity
  8
寸法
 62
     0
 48
50.0
370
    -2
100
AcDbLine
 10
8135.685342486093
 20
4748.446857236497
 30
0.0
 11
8135.685342486093
 21
5187.104310815795
 31
0.0
  0
LINE
  5
1A23D
330
19C1E
100
AcDbEntity
  8
寸法
 62
     0
 48
50.0
370
    -2
100
AcDbLine
 10
8195.685342486092
 20
5127.104310815795
 30
0.0
 11
8295.685342486093
 21
5127.104310815795
 31
0.0
  0
LINE
  5
1A23E
330
19C1E
100
AcDbEntity
  8
寸法
 62
     0
 48
50.0
370
    -2
100
AcDbLine
 10
8135.685342486093
 20
5127.104310815795
 30
0.0
 11
7716.409751934911
 21
5127.104310815795
 31
0.0
  0
LINE
  5
1A23F
330
19C1E
100
AcDbEntity
  8
寸法
 62
     0
 48
50.0
370
    -2
100
AcDbLine
 10
8195.685342486092
 20
5127.104310815795
 30
0.0
 11
8135.685342486093
 21
5127.104310815795
 31
0.0
  0
INSERT
  5
1A240
330
19C1E
100
AcDbEntity
  8
寸法
 62
     0
 48
50.0
370
    -2
100
AcDbBlockReference
  2
_DOTSMALL
 10
8195.685342486092
 20
5127.104310815795
 30
0.0
 41
100.0
 42
100.0
 43
100.0
 50
180.0
  0
INSERT
  5
1A241
330
19C1E
100
AcDbEntity
  8
寸法
 62
     0
 48
50.0
370
    -2
100
AcDbBlockReference
  2
_DOTSMALL
 10
8135.685342486093
 20
5127.104310815795
 30
0.0
 41
100.0
 42
100.0
 43
100.0
  0
MTEXT
  5
1A242
330
19C1E
100
AcDbEntity
  8
寸法
 62
     7
 48
50.0
100
AcDbMText
 10
7826.047547210503
 20
5227.104310815795
 30
0.0
 40
120.0
 41
0.0
 71
     5
 72
     1
  1
\A1;60
  7
STYLE1
 73
     1
 44
1.0
1001
ACAD
1000
MTEXTBEGIN
1070
    73
1070
     1
1070
    44
1040
1.0
1070
    74
1070
     0
1000
MTEXTEND
  0
POINT
  5
1A243
330
19C1E
100
AcDbEntity
  8
DEFPOINTS
 62
     0
 48
50.0
100
AcDbPoint
 10
8195.685342486092
 20
4724.448475359468
 30
0.0
  0
POINT
  5
1A244
330
19C1E
100
AcDbEntity
  8
DEFPOINTS
 62
     0
 48
50.0
100
AcDbPoint
 10
8135.685342486093
 20
4728.446857236496
 30
0.0
  0
POINT
  5
1A245
330
19C1E
100
AcDbEntity
  8
DEFPOINTS
 62
     0
 48
50.0
100
AcDbPoint
 10
8135.685342486093
 20
5127.104310815795
 30
0.0
  0
ENDBLK
  5
19C2B
330
19C1E
100
AcDbEntity
  8
0
 48
50.0
100
AcDbBlockEnd
  0
BLOCK
  5
19C37
330
19C2C
100
AcDbEntity
  8
0
 48
50.0
100
AcDbBlockBegin
  2
*D12
 70
     1
 10
0.0
 20
0.0
 30
0.0
  3
*D12
  1

  0
LINE
  5
1A231
330
19C2C
100
AcDbEntity
  8
寸法
 62
     0
 48
50.0
370
    -2
100
AcDbLine
 10
11245.68534248609
 20
4695.257536848147
 30
0.0
 11
11245.68534248609
 21
5187.104310815797
 31
0.0
  0
LINE
  5
1A232
330
19C2C
100
AcDbEntity
  8
寸法
 62
     0
 48
50.0
370
    -2
100
AcDbLine
 10
11325.68534248609
 20
4693.446857236494
 30
0.0
 11
11325.68534248609
 21
5187.104310815797
 31
0.0
  0
LINE
  5
1A233
330
19C2C
100
AcDbEntity
  8
寸法
 62
     0
 48
50.0
370
    -2
100
AcDbLine
 10
11245.68534248609
 20
5127.104310815798
 30
0.0
 11
11325.68534248609
 21
5127.104310815798
 31
0.0
  0
LINE
  5
1A234
330
19C2C
100
AcDbEntity
  8
寸法
 62
     0
 48
50.0
370
    -2
100
AcDbLine
 10
11325.68534248609
 20
5127.104310815798
 30
0.0
 11
11637.77983067507
 21
5127.104310815798
 31
0.0
  0
INSERT
  5
1A235
330
19C2C
100
AcDbEntity
  8
寸法
 62
     0
 48
50.0
370
    -2
100
AcDbBlockReference
  2
_DOTSMALL
 10
11245.68534248609
 20
5127.104310815798
 30
0.0
 41
100.0
 42
100.0
 43
100.0
 50
180.0
  0
INSERT
  5
1A236
330
19C2C
100
AcDbEntity
  8
寸法
 62
     0
 48
50.0
370
    -2
100
AcDbBlockReference
  2
_DOTSMALL
 10
11325.68534248609
 20
5127.104310815798
 30
0.0
 41
100.0
 42
100.0
 43
100.0
  0
MTEXT
  5
1A237
330
19C2C
100
AcDbEntity
  8
寸法
 62
     7
 48
50.0
100
AcDbMText
 10
11531.73258658058
 20
5227.104310815797
 30
0.0
 40
120.0
 41
0.0
 71
     5
 72
     1
  1
\A1;80
  7
STYLE1
 73
     1
 44
1.0
1001
ACAD
1000
MTEXTBEGIN
1070
    73
1070
     1
1070
    44
1040
1.0
1070
    74
1070
     0
1000
MTEXTEND
  0
POINT
  5
1A238
330
19C2C
100
AcDbEntity
  8
DEFPOINTS
 62
     0
 48
50.0
100
AcDbPoint
 10
11245.68534248609
 20
4675.257536848146
 30
0.0
  0
POINT
  5
1A239
330
19C2C
100
AcDbEntity
  8
DEFPOINTS
 62
     0
 48
50.0
100
AcDbPoint
 10
11325.68534248609
 20
4673.446857236495
 30
0.0
  0
POINT
  5
1A23A
330
19C2C
100
AcDbEntity
  8
DEFPOINTS
 62
     0
 48
50.0
100
AcDbPoint
 10
11325.68534248609
 20
5127.104310815798
 30
0.0
  0
ENDBLK
  5
19C38
330
19C2C
100
AcDbEntity
  8
0
 48
50.0
100
AcDbBlockEnd
  0
BLOCK
  5
19C43
330
19C39
100
AcDbEntity
  8
0
 48
50.0
100
AcDbBlockBegin
  2
*D13
 70
     1
 10
0.0
 20
0.0
 30
0.0
  3
*D13
  1

  0
LINE
  5
1A228
330
19C39
100
AcDbEntity
  8
寸法
 62
     0
 48
50.0
370
    -2
100
AcDbLine
 10
11325.68534248609
 20
4693.446857236494
 30
0.0
 11
11325.68534248609
 21
5417.217903602074
 31
0.0
  0
LINE
  5
1A229
330
19C39
100
AcDbEntity
  8
寸法
 62
     0
 48
50.0
370
    -2
100
AcDbLine
 10
8135.685342486093
 20
4748.446857236497
 30
0.0
 11
8135.685342486093
 21
5417.217903602074
 31
0.0
  0
LINE
  5
1A22A
330
19C39
100
AcDbEntity
  8
寸法
 62
     0
 48
50.0
370
    -2
100
AcDbLine
 10
11325.68534248609
 20
5357.217903602073
 30
0.0
 11
8135.685342486093
 21
5357.217903602073
 31
0.0
  0
INSERT
  5
1A22B
330
19C39
100
AcDbEntity
  8
寸法
 62
     0
 48
50.0
370
    -2
100
AcDbBlockReference
  2
_DOTSMALL
 10
11325.68534248609
 20
5357.217903602073
 30
0.0
 41
100.0
 42
100.0
 43
100.0
  0
INSERT
  5
1A22C
330
19C39
100
AcDbEntity
  8
寸法
 62
     0
 48
50.0
370
    -2
100
AcDbBlockReference
  2
_DOTSMALL
 10
8135.685342486093
 20
5357.217903602073
 30
0.0
 41
100.0
 42
100.0
 43
100.0
 50
180.0
  0
MTEXT
  5
1A22D
330
19C39
100
AcDbEntity
  8
寸法
 62
     7
 48
50.0
100
AcDbMText
 10
9807.391148795618
 20
5457.217903602074
 30
0.0
 40
120.0
 41
0.0
 71
     5
 72
     1
  1
\A1;3190
  7
STYLE1
 73
     1
 44
1.0
1001
ACAD
1000
MTEXTBEGIN
1070
    73
1070
     1
1070
    44
1040
1.0
1070
    74
1070
     0
1000
MTEXTEND
  0
POINT
  5
1A22E
330
19C39
100
AcDbEntity
  8
DEFPOINTS
 62
     0
 48
50.0
100
AcDbPoint
 10
11325.68534248609
 20
4673.446857236493
 30
0.0
  0
POINT
  5
1A22F
330
19C39
100
AcDbEntity
  8
DEFPOINTS
 62
     0
 48
50.0
100
AcDbPoint
 10
8135.685342486093
 20
4728.446857236496
 30
0.0
  0
POINT
  5
1A230
330
19C39
100
AcDbEntity
  8
DEFPOINTS
 62
     0
 48
50.0
100
AcDbPoint
 10
8135.685342486093
 20
5357.217903602073
 30
0.0
  0
ENDBLK
  5
19C44
330
19C39
100
AcDbEntity
  8
0
 48
50.0
100
AcDbBlockEnd
  0
BLOCK
  5
19C4F
330
19C45
100
AcDbEntity
  8
0
 48
50.0
100
AcDbBlockBegin
  2
*D14
 70
     1
 10
0.0
 20
0.0
 30
0.0
  3
*D14
  1

  0
LINE
  5
1A21F
330
19C45
100
AcDbEntity
  8
寸法
 62
     0
 48
50.0
370
    -2
100
AcDbLine
 10
11245.68534248609
 20
4695.257536848147
 30
0.0
 11
11245.68534248609
 21
5187.104310815797
 31
0.0
  0
LINE
  5
1A220
330
19C45
100
AcDbEntity
  8
寸法
 62
     0
 48
50.0
370
    -2
100
AcDbLine
 10
8195.685342486092
 20
4744.448475359468
 30
0.0
 11
8195.685342486092
 21
5187.104310815797
 31
0.0
  0
LINE
  5
1A221
330
19C45
100
AcDbEntity
  8
寸法
 62
     0
 48
50.0
370
    -2
100
AcDbLine
 10
11245.68534248609
 20
5127.104310815798
 30
0.0
 11
8195.685342486092
 21
5127.104310815798
 31
0.0
  0
INSERT
  5
1A222
330
19C45
100
AcDbEntity
  8
寸法
 62
     0
 48
50.0
370
    -2
100
AcDbBlockReference
  2
_DOTSMALL
 10
11245.68534248609
 20
5127.104310815798
 30
0.0
 41
100.0
 42
100.0
 43
100.0
  0
INSERT
  5
1A223
330
19C45
100
AcDbEntity
  8
寸法
 62
     0
 48
50.0
370
    -2
100
AcDbBlockReference
  2
_DOTSMALL
 10
8195.685342486092
 20
5127.104310815798
 30
0.0
 41
100.0
 42
100.0
 43
100.0
 50
180.0
  0
MTEXT
  5
1A224
330
19C45
100
AcDbEntity
  8
寸法
 62
     7
 48
50.0
100
AcDbMText
 10
9765.743717045506
 20
5227.104310815797
 30
0.0
 40
120.0
 41
0.0
 71
     5
 72
     1
  1
\A1;柱外寸法3050
  7
STYLE1
 73
     1
 44
1.0
1001
ACAD
1000
MTEXTBEGIN
1070
    73
1070
     1
1070
    44
1040
1.0
1070
    74
1070
     0
1000
MTEXTEND
  0
POINT
  5
1A225
330
19C45
100
AcDbEntity
  8
DEFPOINTS
 62
     0
 48
50.0
100
AcDbPoint
 10
11245.68534248609
 20
4675.257536848146
 30
0.0
  0
POINT
  5
1A226
330
19C45
100
AcDbEntity
  8
DEFPOINTS
 62
     0
 48
50.0
100
AcDbPoint
 10
8195.685342486092
 20
4724.448475359468
 30
0.0
  0
POINT
  5
1A227
330
19C45
100
AcDbEntity
  8
DEFPOINTS
 62
     0
 48
50.0
100
AcDbPoint
 10
8195.685342486092
 20
5127.104310815798
 30
0.0
  0
ENDBLK
  5
19C50
330
19C45
100
AcDbEntity
  8
0
 48
50.0
100
AcDbBlockEnd
  0
BLOCK
  5
19C5B
330
19C51
100
AcDbEntity
  8
0
 48
50.0
100
AcDbBlockBegin
  2
*D15
 70
     1
 10
0.0
 20
0.0
 30
0.0
  3
*D15
  1

  0
LINE
  5
1A99C
330
19C51
100
AcDbEntity
  8
寸法
 62
     0
 48
50.0
370
    -2
100
AcDbLine
 10
11237.18534248609
 20
10089.47987776713
 30
0.0
 11
11705.68534248608
 21
9963.945681113148
 31
0.0
  0
LINE
  5
1A99D
330
19C51
100
AcDbEntity
  8
寸法
 62
     0
 48
50.0
370
    -2
100
AcDbLine
 10
11237.18534248609
 20
9639.479877767129
 30
0.0
 11
11705.68534248608
 21
9513.945681113147
 31
0.0
  0
LINE
  5
1A99E
330
19C51
100
AcDbEntity
  8
寸法
 62
     0
 48
50.0
370
    -2
100
AcDbLine
 10
11645.68534248608
 20
9980.022632659014
 30
0.0
 11
11645.68534248608
 21
9530.022632659015
 31
0.0
  0
INSERT
  5
1A99F
330
19C51
100
AcDbEntity
  8
寸法
 62
     0
 48
50.0
370
    -2
100
AcDbBlockReference
  2
_DOTSMALL
 10
11645.68534248608
 20
9980.022632659014
 30
0.0
 41
100.0
 42
100.0
 43
100.0
 50
90.0
  0
INSERT
  5
1A9A0
330
19C51
100
AcDbEntity
  8
寸法
 62
     0
 48
50.0
370
    -2
100
AcDbBlockReference
  2
_DOTSMALL
 10
11645.68534248608
 20
9530.022632659015
 30
0.0
 41
100.0
 42
100.0
 43
100.0
 50
270.0
  0
MTEXT
  5
1A9A1
330
19C51
100
AcDbEntity
  8
寸法
 62
     7
 48
50.0
100
AcDbMText
 10
11545.68534248608
 20
9755.022632659017
 30
0.0
 40
120.0
 41
0.0
 71
     5
 72
     1
  1
\A1;450
  7
STYLE1
 11
0.0000000000000001
 21
1.0
 31
0.0
 73
     1
 44
1.0
1001
ACAD
1000
MTEXTBEGIN
1070
    73
1070
     1
1070
    44
1040
1.0
1070
    74
1070
     0
1000
MTEXTEND
  0
POINT
  5
1A9A2
330
19C51
100
AcDbEntity
  8
DEFPOINTS
 62
     0
 48
50.0
100
AcDbPoint
 10
11217.18534248609
 20
10094.83886161575
 30
0.0
  0
POINT
  5
1A9A3
330
19C51
100
AcDbEntity
  8
DEFPOINTS
 62
     0
 48
50.0
100
AcDbPoint
 10
11217.18534248609
 20
9644.838861615751
 30
0.0
  0
POINT
  5
1A9A4
330
19C51
100
AcDbEntity
  8
DEFPOINTS
 62
     0
 48
50.0
100
AcDbPoint
 10
11645.68534248608
 20
9530.022632659015
 30
0.0
  0
ENDBLK
  5
19C5C
330
19C51
100
AcDbEntity
  8
0
 48
50.0
100
AcDbBlockEnd
  0
BLOCK
  5
19C69
330
19C5D
100
AcDbEntity
  8
0
 48
50.0
100
AcDbBlockBegin
  2
*D16
 70
     1
 10
0.0
 20
0.0
 30
0.0
  3
*D16
  1

  0
LINE
  5
1A991
330
19C5D
100
AcDbEntity
  8
寸法
 62
     0
 48
50.0
370
    -2
100
AcDbLine
 10
11190.68534248609
 20
10144.83886161575
 30
0.0
 11
11190.68534248609
 21
10484.83886161575
 31
0.0
  0
LINE
  5
1A992
330
19C5D
100
AcDbEntity
  8
寸法
 62
     0
 48
50.0
370
    -2
100
AcDbLine
 10
11245.68534248608
 20
10144.83886161575
 30
0.0
 11
11245.68534248608
 21
10484.83886161575
 31
0.0
  0
LINE
  5
1A993
330
19C5D
100
AcDbEntity
  8
寸法
 62
     0
 48
50.0
370
    -2
100
AcDbLine
 10
11190.68534248609
 20
10424.83886161575
 30
0.0
 11
11090.68534248609
 21
10424.83886161575
 31
0.0
  0
LINE
  5
1A994
330
19C5D
100
AcDbEntity
  8
寸法
 62
     0
 48
50.0
370
    -2
100
AcDbLine
 10
11245.68534248608
 20
10424.83886161575
 30
0.0
 11
11662.65590523456
 21
10424.83886161575
 31
0.0
  0
LINE
  5
1A995
330
19C5D
100
AcDbEntity
  8
寸法
 62
     0
 48
50.0
370
    -2
100
AcDbLine
 10
11190.68534248609
 20
10424.83886161575
 30
0.0
 11
11245.68534248608
 21
10424.83886161575
 31
0.0
  0
INSERT
  5
1A996
330
19C5D
100
AcDbEntity
  8
寸法
 62
     0
 48
50.0
370
    -2
100
AcDbBlockReference
  2
_DOTSMALL
 10
11190.68534248609
 20
10424.83886161575
 30
0.0
 41
100.0
 42
100.0
 43
100.0
  0
INSERT
  5
1A997
330
19C5D
100
AcDbEntity
  8
寸法
 62
     0
 48
50.0
370
    -2
100
AcDbBlockReference
  2
_DOTSMALL
 10
11245.68534248608
 20
10424.83886161575
 30
0.0
 41
100.0
 42
100.0
 43
100.0
 50
180.0
  0
MTEXT
  5
1A998
330
19C5D
100
AcDbEntity
  8
寸法
 62
     7
 48
50.0
100
AcDbMText
 10
11554.17062386032
 20
10524.83886161575
 30
0.0
 40
120.0
 41
0.0
 71
     5
 72
     1
  1
\A1;55
  7
STYLE1
 73
     1
 44
1.0
1001
ACAD
1000
MTEXTBEGIN
1070
    73
1070
     1
1070
    44
1040
1.0
1070
    74
1070
     0
1000
MTEXTEND
  0
POINT
  5
1A999
330
19C5D
100
AcDbEntity
  8
DEFPOINTS
 62
     0
 48
50.0
100
AcDbPoint
 10
11190.68534248609
 20
10124.83886161575
 30
0.0
  0
POINT
  5
1A99A
330
19C5D
100
AcDbEntity
  8
DEFPOINTS
 62
     0
 48
50.0
100
AcDbPoint
 10
11245.68534248608
 20
10124.83886161575
 30
0.0
  0
POINT
  5
1A99B
330
19C5D
100
AcDbEntity
  8
DEFPOINTS
 62
     0
 48
50.0
100
AcDbPoint
 10
11245.68534248608
 20
10424.83886161575
 30
0.0
  0
ENDBLK
  5
19C6A
330
19C5D
100
AcDbEntity
  8
0
 48
50.0
100
AcDbBlockEnd
  0
BLOCK
  5
19C77
330
19C6B
100
AcDbEntity
  8
0
 48
50.0
100
AcDbBlockBegin
  2
*D17
 70
     1
 10
0.0
 20
0.0
 30
0.0
  3
*D17
  1

  0
LINE
  5
1A986
330
19C6B
100
AcDbEntity
  8
寸法
 62
     0
 48
50.0
370
    -2
100
AcDbLine
 10
11265.68534248608
 20
10124.83886161575
 30
0.0
 11
12005.68534248609
 21
10124.83886161575
 31
0.0
  0
LINE
  5
1A987
330
19C6B
100
AcDbEntity
  8
寸法
 62
     0
 48
50.0
370
    -2
100
AcDbLine
 10
11265.68534248608
 20
10069.83886161575
 30
0.0
 11
12005.68534248609
 21
10069.83886161575
 31
0.0
  0
LINE
  5
1A988
330
19C6B
100
AcDbEntity
  8
寸法
 62
     0
 48
50.0
370
    -2
100
AcDbLine
 10
11945.68534248609
 20
10069.83886161575
 30
0.0
 11
11945.68534248609
 21
9969.83886161575
 31
0.0
  0
LINE
  5
1A989
330
19C6B
100
AcDbEntity
  8
寸法
 62
     0
 48
50.0
370
    -2
100
AcDbLine
 10
11945.68534248609
 20
10124.83886161575
 30
0.0
 11
11945.68534248609
 21
10541.80942436422
 31
0.0
  0
LINE
  5
1A98A
330
19C6B
100
AcDbEntity
  8
寸法
 62
     0
 48
50.0
370
    -2
100
AcDbLine
 10
11945.68534248609
 20
10069.83886161575
 30
0.0
 11
11945.68534248609
 21
10124.83886161575
 31
0.0
  0
INSERT
  5
1A98B
330
19C6B
100
AcDbEntity
  8
寸法
 62
     0
 48
50.0
370
    -2
100
AcDbBlockReference
  2
_DOTSMALL
 10
11945.68534248609
 20
10069.83886161575
 30
0.0
 41
100.0
 42
100.0
 43
100.0
 50
90.0
  0
INSERT
  5
1A98C
330
19C6B
100
AcDbEntity
  8
寸法
 62
     0
 48
50.0
370
    -2
100
AcDbBlockReference
  2
_DOTSMALL
 10
11945.68534248609
 20
10124.83886161575
 30
0.0
 41
100.0
 42
100.0
 43
100.0
 50
270.0
  0
MTEXT
  5
1A98D
330
19C6B
100
AcDbEntity
  8
寸法
 62
     7
 48
50.0
100
AcDbMText
 10
11845.68534248608
 20
10433.32414298999
 30
0.0
 40
120.0
 41
0.0
 71
     5
 72
     1
  1
\A1;55
  7
STYLE1
 11
0.0000000000000001
 21
1.0
 31
0.0
 73
     1
 44
1.0
1001
ACAD
1000
MTEXTBEGIN
1070
    73
1070
     1
1070
    44
1040
1.0
1070
    74
1070
     0
1000
MTEXTEND
  0
POINT
  5
1A98E
330
19C6B
100
AcDbEntity
  8
DEFPOINTS
 62
     0
 48
50.0
100
AcDbPoint
 10
11245.68534248608
 20
10124.83886161575
 30
0.0
  0
POINT
  5
1A98F
330
19C6B
100
AcDbEntity
  8
DEFPOINTS
 62
     0
 48
50.0
100
AcDbPoint
 10
11245.68534248608
 20
10069.83886161575
 30
0.0
  0
POINT
  5
1A990
330
19C6B
100
AcDbEntity
  8
DEFPOINTS
 62
     0
 48
50.0
100
AcDbPoint
 10
11945.68534248609
 20
10069.83886161575
 30
0.0
  0
ENDBLK
  5
19C78
330
19C6B
100
AcDbEntity
  8
0
 48
50.0
100
AcDbBlockEnd
  0
BLOCK
  5
19C85
330
19C79
100
AcDbEntity
  8
0
 48
50.0
100
AcDbBlockBegin
  2
*D18
 70
     1
 10
0.0
 20
0.0
 30
0.0
  3
*D18
  1

  0
LINE
  5
1A97B
330
19C79
100
AcDbEntity
  8
寸法
 62
     0
 48
50.0
370
    -2
100
AcDbLine
 10
11265.68534248606
 20
7969.838861615738
 30
0.0
 11
12005.68534248606
 21
7969.838861615738
 31
0.0
  0
LINE
  5
1A97C
330
19C79
100
AcDbEntity
  8
寸法
 62
     0
 48
50.0
370
    -2
100
AcDbLine
 10
11265.68534248606
 20
7914.838861615741
 30
0.0
 11
12005.68534248606
 21
7914.838861615741
 31
0.0
  0
LINE
  5
1A97D
330
19C79
100
AcDbEntity
  8
寸法
 62
     0
 48
50.0
370
    -2
100
AcDbLine
 10
11945.68534248606
 20
7969.838861615738
 30
0.0
 11
11945.68534248606
 21
8069.838861615737
 31
0.0
  0
LINE
  5
1A97E
330
19C79
100
AcDbEntity
  8
寸法
 62
     0
 48
50.0
370
    -2
100
AcDbLine
 10
11945.68534248606
 20
7914.838861615741
 30
0.0
 11
11945.68534248606
 21
7497.86829886726
 31
0.0
  0
LINE
  5
1A97F
330
19C79
100
AcDbEntity
  8
寸法
 62
     0
 48
50.0
370
    -2
100
AcDbLine
 10
11945.68534248606
 20
7969.838861615738
 30
0.0
 11
11945.68534248606
 21
7914.838861615741
 31
0.0
  0
INSERT
  5
1A980
330
19C79
100
AcDbEntity
  8
寸法
 62
     0
 48
50.0
370
    -2
100
AcDbBlockReference
  2
_DOTSMALL
 10
11945.68534248606
 20
7969.838861615738
 30
0.0
 41
100.0
 42
100.0
 43
100.0
 50
270.0
  0
INSERT
  5
1A981
330
19C79
100
AcDbEntity
  8
寸法
 62
     0
 48
50.0
370
    -2
100
AcDbBlockReference
  2
_DOTSMALL
 10
11945.68534248606
 20
7914.838861615741
 30
0.0
 41
100.0
 42
100.0
 43
100.0
 50
90.0
  0
MTEXT
  5
1A982
330
19C79
100
AcDbEntity
  8
寸法
 62
     7
 48
50.0
100
AcDbMText
 10
11845.68534248606
 20
7606.3535802415
 30
0.0
 40
120.0
 41
0.0
 71
     5
 72
     1
  1
\A1;55
  7
STYLE1
 11
0.0000000000000001
 21
1.0
 31
0.0
 73
     1
 44
1.0
1001
ACAD
1000
MTEXTBEGIN
1070
    73
1070
     1
1070
    44
1040
1.0
1070
    74
1070
     0
1000
MTEXTEND
  0
POINT
  5
1A983
330
19C79
100
AcDbEntity
  8
DEFPOINTS
 62
     0
 48
50.0
100
AcDbPoint
 10
11245.68534248606
 20
7969.838861615738
 30
0.0
  0
POINT
  5
1A984
330
19C79
100
AcDbEntity
  8
DEFPOINTS
 62
     0
 48
50.0
100
AcDbPoint
 10
11245.68534248606
 20
7914.838861615741
 30
0.0
  0
POINT
  5
1A985
330
19C79
100
AcDbEntity
  8
DEFPOINTS
 62
     0
 48
50.0
100
AcDbPoint
 10
11945.68534248606
 20
7914.838861615741
 30
0.0
  0
ENDBLK
  5
19C86
330
19C79
100
AcDbEntity
  8
0
 48
50.0
100
AcDbBlockEnd
  0
BLOCK
  5
19C91
330
19C87
100
AcDbEntity
  8
0
 48
50.0
100
AcDbBlockBegin
  2
*D19
 70
     1
 10
0.0
 20
0.0
 30
0.0
  3
*D19
  1

  0
LINE
  5
1A972
330
19C87
100
AcDbEntity
  8
寸法
 62
     0
 48
50.0
370
    -2
100
AcDbLine
 10
11265.68534248608
 20
10124.83886161575
 30
0.0
 11
12305.68534248608
 21
10124.83886161575
 31
0.0
  0
LINE
  5
1A973
330
19C87
100
AcDbEntity
  8
寸法
 62
     0
 48
50.0
370
    -2
100
AcDbLine
 10
11265.68534248606
 20
7914.838861615741
 30
0.0
 11
12305.68534248608
 21
7914.838861615741
 31
0.0
  0
LINE
  5
1A974
330
19C87
100
AcDbEntity
  8
寸法
 62
     0
 48
50.0
370
    -2
100
AcDbLine
 10
12245.68534248608
 20
10124.83886161575
 30
0.0
 11
12245.68534248608
 21
7914.838861615741
 31
0.0
  0
INSERT
  5
1A975
330
19C87
100
AcDbEntity
  8
寸法
 62
     0
 48
50.0
370
    -2
100
AcDbBlockReference
  2
_DOTSMALL
 10
12245.68534248608
 20
10124.83886161575
 30
0.0
 41
100.0
 42
100.0
 43
100.0
 50
90.0
  0
INSERT
  5
1A976
330
19C87
100
AcDbEntity
  8
寸法
 62
     0
 48
50.0
370
    -2
100
AcDbBlockReference
  2
_DOTSMALL
 10
12245.68534248608
 20
7914.838861615741
 30
0.0
 41
100.0
 42
100.0
 43
100.0
 50
270.0
  0
MTEXT
  5
1A977
330
19C87
100
AcDbEntity
  8
寸法
 62
     7
 48
50.0
100
AcDbMText
 10
12145.67353146245
 20
9019.838861615744
 30
0.0
 40
120.0
 41
0.0
 71
     5
 72
     1
  1
\A1;2210
  7
STYLE1
 11
0.0000000000000001
 21
1.0
 31
0.0
 73
     1
 44
1.0
1001
ACAD
1000
MTEXTBEGIN
1070
    73
1070
     1
1070
    44
1040
1.0
1070
    74
1070
     0
1000
MTEXTEND
  0
POINT
  5
1A978
330
19C87
100
AcDbEntity
  8
DEFPOINTS
 62
     0
 48
50.0
100
AcDbPoint
 10
11245.68534248608
 20
10124.83886161575
 30
0.0
  0
POINT
  5
1A979
330
19C87
100
AcDbEntity
  8
DEFPOINTS
 62
     0
 48
50.0
100
AcDbPoint
 10
11245.68534248606
 20
7914.838861615741
 30
0.0
  0
POINT
  5
1A97A
330
19C87
100
AcDbEntity
  8
DEFPOINTS
 62
     0
 48
50.0
100
AcDbPoint
 10
12245.68534248608
 20
7914.838861615741
 30
0.0
  0
ENDBLK
  5
19C92
330
19C87
100
AcDbEntity
  8
0
 48
50.0
100
AcDbBlockEnd
  0
BLOCK
  5
19C9D
330
19C93
100
AcDbEntity
  8
0
 48
50.0
100
AcDbBlockBegin
  2
*D20
 70
     1
 10
0.0
 20
0.0
 30
0.0
  3
*D20
  1

  0
LINE
  5
1A969
330
19C93
100
AcDbEntity
  8
寸法
 62
     0
 48
50.0
370
    -2
100
AcDbLine
 10
11265.68534248608
 20
10069.83886161575
 30
0.0
 11
12005.68534248608
 21
10069.83886161575
 31
0.0
  0
LINE
  5
1A96A
330
19C93
100
AcDbEntity
  8
寸法
 62
     0
 48
50.0
370
    -2
100
AcDbLine
 10
11265.68534248606
 20
7969.838861615738
 30
0.0
 11
12005.68534248608
 21
7969.838861615738
 31
0.0
  0
LINE
  5
1A96B
330
19C93
100
AcDbEntity
  8
寸法
 62
     0
 48
50.0
370
    -2
100
AcDbLine
 10
11945.68534248608
 20
10069.83886161575
 30
0.0
 11
11945.68534248608
 21
7969.838861615738
 31
0.0
  0
INSERT
  5
1A96C
330
19C93
100
AcDbEntity
  8
寸法
 62
     0
 48
50.0
370
    -2
100
AcDbBlockReference
  2
_DOTSMALL
 10
11945.68534248608
 20
10069.83886161575
 30
0.0
 41
100.0
 42
100.0
 43
100.0
 50
90.0
  0
INSERT
  5
1A96D
330
19C93
100
AcDbEntity
  8
寸法
 62
     0
 48
50.0
370
    -2
100
AcDbBlockReference
  2
_DOTSMALL
 10
11945.68534248608
 20
7969.838861615738
 30
0.0
 41
100.0
 42
100.0
 43
100.0
 50
270.0
  0
MTEXT
  5
1A96E
330
19C93
100
AcDbEntity
  8
寸法
 62
     7
 48
50.0
100
AcDbMText
 10
11845.67353146245
 20
9019.838861615744
 30
0.0
 40
120.0
 41
0.0
 71
     5
 72
     1
  1
\A1;5X420=2100
  7
STYLE1
 11
0.0000000000000001
 21
1.0
 31
0.0
 73
     1
 44
1.0
1001
ACAD
1000
MTEXTBEGIN
1070
    73
1070
     1
1070
    44
1040
1.0
1070
    74
1070
     0
1000
MTEXTEND
  0
POINT
  5
1A96F
330
19C93
100
AcDbEntity
  8
DEFPOINTS
 62
     0
 48
50.0
100
AcDbPoint
 10
11245.68534248608
 20
10069.83886161575
 30
0.0
  0
POINT
  5
1A970
330
19C93
100
AcDbEntity
  8
DEFPOINTS
 62
     0
 48
50.0
100
AcDbPoint
 10
11245.68534248606
 20
7969.838861615738
 30
0.0
  0
POINT
  5
1A971
330
19C93
100
AcDbEntity
  8
DEFPOINTS
 62
     0
 48
50.0
100
AcDbPoint
 10
11945.68534248608
 20
7969.838861615738
 30
0.0
  0
ENDBLK
  5
19C9E
330
19C93
100
AcDbEntity
  8
0
 48
50.0
100
AcDbBlockEnd
  0
BLOCK
  5
19CA9
330
19C9F
100
AcDbEntity
  8
0
 48
50.0
100
AcDbBlockBegin
  2
*D21
 70
     1
 10
0.0
 20
0.0
 30
0.0
  3
*D21
  1

  0
LINE
  5
1A960
330
19C9F
100
AcDbEntity
  8
寸法
 62
     0
 48
50.0
370
    -2
100
AcDbLine
 10
8218.826358637386
 20
9624.838861615764
 30
0.0
 11
8117.156490033414
 21
9245.401746386887
 31
0.0
  0
LINE
  5
1A961
330
19C9F
100
AcDbEntity
  8
寸法
 62
     0
 48
50.0
370
    -2
100
AcDbLine
 10
9701.826358637459
 20
9624.838861615756
 30
0.0
 11
9600.156490033485
 21
9245.401746386887
 31
0.0
  0
LINE
  5
1A962
330
19C9F
100
AcDbEntity
  8
寸法
 62
     0
 48
50.0
370
    -2
100
AcDbLine
 10
8133.23344157928
 20
9305.401746386886
 30
0.0
 11
9616.233441579353
 21
9305.401746386886
 31
0.0
  0
INSERT
  5
1A963
330
19C9F
100
AcDbEntity
  8
寸法
 62
     0
 48
50.0
370
    -2
100
AcDbBlockReference
  2
_DOTSMALL
 10
8133.23344157928
 20
9305.401746386886
 30
0.0
 41
100.0
 42
100.0
 43
100.0
 50
180.0
  0
INSERT
  5
1A964
330
19C9F
100
AcDbEntity
  8
寸法
 62
     0
 48
50.0
370
    -2
100
AcDbBlockReference
  2
_DOTSMALL
 10
9616.233441579353
 20
9305.401746386886
 30
0.0
 41
100.0
 42
100.0
 43
100.0
  0
MTEXT
  5
1A965
330
19C9F
100
AcDbEntity
  8
寸法
 62
     7
 48
50.0
100
AcDbMText
 10
8781.925833873565
 20
9405.401746386885
 30
0.0
 40
120.0
 41
0.0
 71
     5
 72
     1
  1
\A1;1483
  7
STYLE1
 73
     1
 44
1.0
1001
ACAD
1000
MTEXTBEGIN
1070
    73
1070
     1
1070
    44
1040
1.0
1070
    74
1070
     0
1000
MTEXTEND
  0
POINT
  5
1A966
330
19C9F
100
AcDbEntity
  8
DEFPOINTS
 62
     0
 48
50.0
100
AcDbPoint
 10
8224.185342486009
 20
9644.838861615765
 30
0.0
  0
POINT
  5
1A967
330
19C9F
100
AcDbEntity
  8
DEFPOINTS
 62
     0
 48
50.0
100
AcDbPoint
 10
9707.185342486081
 20
9644.838861615758
 30
0.0
  0
POINT
  5
1A968
330
19C9F
100
AcDbEntity
  8
DEFPOINTS
 62
     0
 48
50.0
100
AcDbPoint
 10
9616.233441579353
 20
9305.401746386886
 30
0.0
  0
ENDBLK
  5
19CAA
330
19C9F
100
AcDbEntity
  8
0
 48
50.0
100
AcDbBlockEnd
  0
BLOCK
  5
19CB5
330
19CAB
100
AcDbEntity
  8
0
 48
50.0
100
AcDbBlockBegin
  2
*D22
 70
     1
 10
0.0
 20
0.0
 30
0.0
  3
*D22
  1

  0
LINE
  5
1A957
330
19CAB
100
AcDbEntity
  8
寸法
 62
     0
 48
50.0
370
    -2
100
AcDbLine
 10
8250.685342486086
 20
10144.83886161565
 30
0.0
 11
8250.685342486086
 21
10484.8388616157
 31
0.0
  0
LINE
  5
1A958
330
19CAB
100
AcDbEntity
  8
寸法
 62
     0
 48
50.0
370
    -2
100
AcDbLine
 10
11190.68534248609
 20
10144.83886161575
 30
0.0
 11
11190.68534248609
 21
10484.8388616157
 31
0.0
  0
LINE
  5
1A959
330
19CAB
100
AcDbEntity
  8
寸法
 62
     0
 48
50.0
370
    -2
100
AcDbLine
 10
8250.685342486086
 20
10424.8388616157
 30
0.0
 11
11190.68534248609
 21
10424.8388616157
 31
0.0
  0
INSERT
  5
1A95A
330
19CAB
100
AcDbEntity
  8
寸法
 62
     0
 48
50.0
370
    -2
100
AcDbBlockReference
  2
_DOTSMALL
 10
8250.685342486086
 20
10424.8388616157
 30
0.0
 41
100.0
 42
100.0
 43
100.0
 50
180.0
  0
INSERT
  5
1A95B
330
19CAB
100
AcDbEntity
  8
寸法
 62
     0
 48
50.0
370
    -2
100
AcDbBlockReference
  2
_DOTSMALL
 10
11190.68534248609
 20
10424.8388616157
 30
0.0
 41
100.0
 42
100.0
 43
100.0
  0
MTEXT
  5
1A95C
330
19CAB
100
AcDbEntity
  8
寸法
 62
     7
 48
50.0
100
AcDbMText
 10
9720.685342486085
 20
10524.85067263932
 30
0.0
 40
120.0
 41
0.0
 71
     5
 72
     1
  1
\A1;7X420=2940
  7
STYLE1
 73
     1
 44
1.0
1001
ACAD
1000
MTEXTBEGIN
1070
    73
1070
     1
1070
    44
1040
1.0
1070
    74
1070
     0
1000
MTEXTEND
  0
POINT
  5
1A95D
330
19CAB
100
AcDbEntity
  8
DEFPOINTS
 62
     0
 48
50.0
100
AcDbPoint
 10
8250.685342486086
 20
10124.83886161565
 30
0.0
  0
POINT
  5
1A95E
330
19CAB
100
AcDbEntity
  8
DEFPOINTS
 62
     0
 48
50.0
100
AcDbPoint
 10
11190.68534248609
 20
10124.83886161575
 30
0.0
  0
POINT
  5
1A95F
330
19CAB
100
AcDbEntity
  8
DEFPOINTS
 62
     0
 48
50.0
100
AcDbPoint
 10
11190.68534248609
 20
10424.8388616157
 30
0.0
  0
ENDBLK
  5
19CB6
330
19CAB
100
AcDbEntity
  8
0
 48
50.0
100
AcDbBlockEnd
  0
BLOCK
  5
19CCD
330
19CC3
100
AcDbEntity
  8
0
 48
50.0
100
AcDbBlockBegin
  2
*D23
 70
     1
 10
0.0
 20
0.0
 30
0.0
  3
*D23
  1

  0
LINE
  5
1A94E
330
19CC3
100
AcDbEntity
  8
寸法
 62
     0
 48
50.0
370
    -2
100
AcDbLine
 10
9728.826358637457
 20
9624.838861615822
 30
0.0
 11
9627.156490033467
 21
9245.401746386887
 31
0.0
  0
LINE
  5
1A94F
330
19CC3
100
AcDbEntity
  8
寸法
 62
     0
 48
50.0
370
    -2
100
AcDbLine
 10
11211.82635863747
 20
9624.838861615815
 30
0.0
 11
11110.15649003348
 21
9245.401746386887
 31
0.0
  0
LINE
  5
1A950
330
19CC3
100
AcDbEntity
  8
寸法
 62
     0
 48
50.0
370
    -2
100
AcDbLine
 10
9643.233441579333
 20
9305.401746386886
 30
0.0
 11
11126.23344157935
 21
9305.401746386886
 31
0.0
  0
INSERT
  5
1A951
330
19CC3
100
AcDbEntity
  8
寸法
 62
     0
 48
50.0
370
    -2
100
AcDbBlockReference
  2
_DOTSMALL
 10
9643.233441579333
 20
9305.401746386886
 30
0.0
 41
100.0
 42
100.0
 43
100.0
 50
180.0
  0
INSERT
  5
1A952
330
19CC3
100
AcDbEntity
  8
寸法
 62
     0
 48
50.0
370
    -2
100
AcDbBlockReference
  2
_DOTSMALL
 10
11126.23344157935
 20
9305.401746386886
 30
0.0
 41
100.0
 42
100.0
 43
100.0
  0
MTEXT
  5
1A953
330
19CC3
100
AcDbEntity
  8
寸法
 62
     7
 48
50.0
100
AcDbMText
 10
10232.90809799884
 20
9405.401746386885
 30
0.0
 40
120.0
 41
0.0
 71
     5
 72
     1
  1
\A1;1483
  7
STYLE1
 73
     1
 44
1.0
1001
ACAD
1000
MTEXTBEGIN
1070
    73
1070
     1
1070
    44
1040
1.0
1070
    74
1070
     0
1000
MTEXTEND
  0
POINT
  5
1A954
330
19CC3
100
AcDbEntity
  8
DEFPOINTS
 62
     0
 48
50.0
100
AcDbPoint
 10
9734.185342486078
 20
9644.838861615824
 30
0.0
  0
POINT
  5
1A955
330
19CC3
100
AcDbEntity
  8
DEFPOINTS
 62
     0
 48
50.0
100
AcDbPoint
 10
11217.18534248609
 20
9644.838861615816
 30
0.0
  0
POINT
  5
1A956
330
19CC3
100
AcDbEntity
  8
DEFPOINTS
 62
     0
 48
50.0
100
AcDbPoint
 10
11126.23344157935
 20
9305.401746386886
 30
0.0
  0
ENDBLK
  5
19CCE
330
19CC3
100
AcDbEntity
  8
0
 48
50.0
100
AcDbBlockEnd
  0
BLOCK
  5
19CDB
330
19CCF
100
AcDbEntity
  8
0
 48
50.0
100
AcDbBlockBegin
  2
*D24
 70
     1
 10
0.0
 20
0.0
 30
0.0
  3
*D24
  1

  0
LINE
  5
1A943
330
19CCF
100
AcDbEntity
  8
寸法
 62
     0
 48
50.0
370
    -2
100
AcDbLine
 10
8195.685342486052
 20
10144.83886161565
 30
0.0
 11
8195.685342486052
 21
10484.83886161565
 31
0.0
  0
LINE
  5
1A944
330
19CCF
100
AcDbEntity
  8
寸法
 62
     0
 48
50.0
370
    -2
100
AcDbLine
 10
8250.685342486086
 20
10144.83886161565
 30
0.0
 11
8250.685342486086
 21
10484.83886161565
 31
0.0
  0
LINE
  5
1A945
330
19CCF
100
AcDbEntity
  8
寸法
 62
     0
 48
50.0
370
    -2
100
AcDbLine
 10
8250.685342486086
 20
10424.83886161565
 30
0.0
 11
8350.685342486086
 21
10424.83886161565
 31
0.0
  0
LINE
  5
1A946
330
19CCF
100
AcDbEntity
  8
寸法
 62
     0
 48
50.0
370
    -2
100
AcDbLine
 10
8195.685342486052
 20
10424.83886161565
 30
0.0
 11
7778.714779737573
 21
10424.83886161565
 31
0.0
  0
LINE
  5
1A947
330
19CCF
100
AcDbEntity
  8
寸法
 62
     0
 48
50.0
370
    -2
100
AcDbLine
 10
8250.685342486086
 20
10424.83886161565
 30
0.0
 11
8195.685342486052
 21
10424.83886161565
 31
0.0
  0
INSERT
  5
1A948
330
19CCF
100
AcDbEntity
  8
寸法
 62
     0
 48
50.0
370
    -2
100
AcDbBlockReference
  2
_DOTSMALL
 10
8250.685342486086
 20
10424.83886161565
 30
0.0
 41
100.0
 42
100.0
 43
100.0
 50
180.0
  0
INSERT
  5
1A949
330
19CCF
100
AcDbEntity
  8
寸法
 62
     0
 48
50.0
370
    -2
100
AcDbBlockReference
  2
_DOTSMALL
 10
8195.685342486052
 20
10424.83886161565
 30
0.0
 41
100.0
 42
100.0
 43
100.0
  0
MTEXT
  5
1A94A
330
19CCF
100
AcDbEntity
  8
寸法
 62
     7
 48
50.0
100
AcDbMText
 10
7887.200061111812
 20
10524.83886161565
 30
0.0
 40
120.0
 41
0.0
 71
     5
 72
     1
  1
\A1;55
  7
STYLE1
 73
     1
 44
1.0
1001
ACAD
1000
MTEXTBEGIN
1070
    73
1070
     1
1070
    44
1040
1.0
1070
    74
1070
     0
1000
MTEXTEND
  0
POINT
  5
1A94B
330
19CCF
100
AcDbEntity
  8
DEFPOINTS
 62
     0
 48
50.0
100
AcDbPoint
 10
8195.685342486052
 20
10124.83886161565
 30
0.0
  0
POINT
  5
1A94C
330
19CCF
100
AcDbEntity
  8
DEFPOINTS
 62
     0
 48
50.0
100
AcDbPoint
 10
8250.685342486086
 20
10124.83886161565
 30
0.0
  0
POINT
  5
1A94D
330
19CCF
100
AcDbEntity
  8
DEFPOINTS
 62
     0
 48
50.0
100
AcDbPoint
 10
8250.685342486086
 20
10424.83886161565
 30
0.0
  0
ENDBLK
  5
19CDC
330
19CCF
100
AcDbEntity
  8
0
 48
50.0
100
AcDbBlockEnd
  0
BLOCK
  5
19CE9
330
19CDD
100
AcDbEntity
  8
0
 48
50.0
100
AcDbBlockBegin
  2
*D25
 70
     1
 10
0.0
 20
0.0
 30
0.0
  3
*D25
  1

  0
LINE
  5
1A2CD
330
19CDD
100
AcDbEntity
  8
寸法
 62
     0
 48
50.0
370
    -2
100
AcDbLine
 10
6143.588313148837
 20
4748.44685723649
 30
0.0
 11
6143.588313148837
 21
5193.067116663758
 31
0.0
  0
LINE
  5
1A2CE
330
19CDD
100
AcDbEntity
  8
寸法
 62
     0
 48
50.0
370
    -2
100
AcDbLine
 10
6093.588313148837
 20
4748.446857236493
 30
0.0
 11
6093.588313148837
 21
5193.067116663758
 31
0.0
  0
LINE
  5
1A2CF
330
19CDD
100
AcDbEntity
  8
寸法
 62
     0
 48
50.0
370
    -2
100
AcDbLine
 10
6093.588313148837
 20
5133.067116663759
 30
0.0
 11
5993.588313148837
 21
5133.067116663759
 31
0.0
  0
LINE
  5
1A2D0
330
19CDD
100
AcDbEntity
  8
寸法
 62
     0
 48
50.0
370
    -2
100
AcDbLine
 10
6143.588313148837
 20
5133.067116663759
 30
0.0
 11
6563.120838617557
 21
5133.067116663759
 31
0.0
  0
LINE
  5
1A2D1
330
19CDD
100
AcDbEntity
  8
寸法
 62
     0
 48
50.0
370
    -2
100
AcDbLine
 10
6093.588313148837
 20
5133.067116663759
 30
0.0
 11
6143.588313148837
 21
5133.067116663759
 31
0.0
  0
INSERT
  5
1A2D2
330
19CDD
100
AcDbEntity
  8
寸法
 62
     0
 48
50.0
370
    -2
100
AcDbBlockReference
  2
_DOTSMALL
 10
6093.588313148837
 20
5133.067116663759
 30
0.0
 41
100.0
 42
100.0
 43
100.0
  0
INSERT
  5
1A2D3
330
19CDD
100
AcDbEntity
  8
寸法
 62
     0
 48
50.0
370
    -2
100
AcDbBlockReference
  2
_DOTSMALL
 10
6143.588313148837
 20
5133.067116663759
 30
0.0
 41
100.0
 42
100.0
 43
100.0
 50
180.0
  0
MTEXT
  5
1A2D4
330
19CDD
100
AcDbEntity
  8
寸法
 62
     7
 48
50.0
100
AcDbMText
 10
6457.07359452307
 20
5233.067116663758
 30
0.0
 40
120.0
 41
0.0
 71
     5
 72
     1
  1
\A1;50
  7
STYLE1
 73
     1
 44
1.0
1001
ACAD
1000
MTEXTBEGIN
1070
    73
1070
     1
1070
    44
1040
1.0
1070
    74
1070
     0
1000
MTEXTEND
  0
POINT
  5
1A2D5
330
19CDD
100
AcDbEntity
  8
DEFPOINTS
 62
     0
 48
50.0
100
AcDbPoint
 10
6143.588313148837
 20
4728.446857236489
 30
0.0
  0
POINT
  5
1A2D6
330
19CDD
100
AcDbEntity
  8
DEFPOINTS
 62
     0
 48
50.0
100
AcDbPoint
 10
6093.588313148837
 20
4728.446857236493
 30
0.0
  0
POINT
  5
1A2D7
330
19CDD
100
AcDbEntity
  8
DEFPOINTS
 62
     0
 48
50.0
100
AcDbPoint
 10
6093.588313148837
 20
5133.067116663759
 30
0.0
  0
ENDBLK
  5
19CEA
330
19CDD
100
AcDbEntity
  8
0
 48
50.0
100
AcDbBlockEnd
  0
BLOCK
  5
19CF5
330
19CEB
100
AcDbEntity
  8
0
 48
50.0
100
AcDbBlockBegin
  2
*D26
 70
     1
 10
0.0
 20
0.0
 30
0.0
  3
*D26
  1

  0
LINE
  5
1A2C4
330
19CEB
100
AcDbEntity
  8
寸法
 62
     0
 48
50.0
370
    -2
100
AcDbLine
 10
6093.588313148837
 20
4748.446857236493
 30
0.0
 11
6093.588313148837
 21
5193.067116663758
 31
0.0
  0
LINE
  5
1A2C5
330
19CEB
100
AcDbEntity
  8
寸法
 62
     0
 48
50.0
370
    -2
100
AcDbLine
 10
3883.588313148834
 20
4748.446857236493
 30
0.0
 11
3883.588313148834
 21
5193.067116663758
 31
0.0
  0
LINE
  5
1A2C6
330
19CEB
100
AcDbEntity
  8
寸法
 62
     0
 48
50.0
370
    -2
100
AcDbLine
 10
6093.588313148837
 20
5133.067116663759
 30
0.0
 11
3883.588313148834
 21
5133.067116663759
 31
0.0
  0
INSERT
  5
1A2C7
330
19CEB
100
AcDbEntity
  8
寸法
 62
     0
 48
50.0
370
    -2
100
AcDbBlockReference
  2
_DOTSMALL
 10
6093.588313148837
 20
5133.067116663759
 30
0.0
 41
100.0
 42
100.0
 43
100.0
  0
INSERT
  5
1A2C8
330
19CEB
100
AcDbEntity
  8
寸法
 62
     0
 48
50.0
370
    -2
100
AcDbBlockReference
  2
_DOTSMALL
 10
3883.588313148834
 20
5133.067116663759
 30
0.0
 41
100.0
 42
100.0
 43
100.0
 50
180.0
  0
MTEXT
  5
1A2C9
330
19CEB
100
AcDbEntity
  8
寸法
 62
     7
 48
50.0
100
AcDbMText
 10
4988.588313148833
 20
5233.07892768738
 30
0.0
 40
120.0
 41
0.0
 71
     5
 72
     1
  1
\A1;柱外寸法2210
  7
STYLE1
 73
     1
 44
1.0
1001
ACAD
1000
MTEXTBEGIN
1070
    73
1070
     1
1070
    44
1040
1.0
1070
    74
1070
     0
1000
MTEXTEND
  0
POINT
  5
1A2CA
330
19CEB
100
AcDbEntity
  8
DEFPOINTS
 62
     0
 48
50.0
100
AcDbPoint
 10
6093.588313148837
 20
4728.446857236493
 30
0.0
  0
POINT
  5
1A2CB
330
19CEB
100
AcDbEntity
  8
DEFPOINTS
 62
     0
 48
50.0
100
AcDbPoint
 10
3883.588313148834
 20
4728.446857236493
 30
0.0
  0
POINT
  5
1A2CC
330
19CEB
100
AcDbEntity
  8
DEFPOINTS
 62
     0
 48
50.0
100
AcDbPoint
 10
3883.588313148834
 20
5133.067116663759
 30
0.0
  0
ENDBLK
  5
19CF6
330
19CEB
100
AcDbEntity
  8
0
 48
50.0
100
AcDbBlockEnd
  0
BLOCK
  5
19D03
330
19CF7
100
AcDbEntity
  8
0
 48
50.0
100
AcDbBlockBegin
  2
*D27
 70
     1
 10
0.0
 20
0.0
 30
0.0
  3
*D27
  1

  0
LINE
  5
1A2B9
330
19CF7
100
AcDbEntity
  8
寸法
 62
     0
 48
50.0
370
    -2
100
AcDbLine
 10
3883.588313148834
 20
4748.446857236493
 30
0.0
 11
3883.588313148834
 21
5193.067116663758
 31
0.0
  0
LINE
  5
1A2BA
330
19CF7
100
AcDbEntity
  8
寸法
 62
     0
 48
50.0
370
    -2
100
AcDbLine
 10
3833.588313148834
 20
4748.446857236493
 30
0.0
 11
3833.588313148834
 21
5193.067116663758
 31
0.0
  0
LINE
  5
1A2BB
330
19CF7
100
AcDbEntity
  8
寸法
 62
     0
 48
50.0
370
    -2
100
AcDbLine
 10
3883.588313148834
 20
5133.067116663759
 30
0.0
 11
3983.588313148834
 21
5133.067116663759
 31
0.0
  0
LINE
  5
1A2BC
330
19CF7
100
AcDbEntity
  8
寸法
 62
     0
 48
50.0
370
    -2
100
AcDbLine
 10
3833.588313148834
 20
5133.067116663759
 30
0.0
 11
3414.055787680098
 21
5133.067116663759
 31
0.0
  0
LINE
  5
1A2BD
330
19CF7
100
AcDbEntity
  8
寸法
 62
     0
 48
50.0
370
    -2
100
AcDbLine
 10
3883.588313148834
 20
5133.067116663759
 30
0.0
 11
3833.588313148834
 21
5133.067116663759
 31
0.0
  0
INSERT
  5
1A2BE
330
19CF7
100
AcDbEntity
  8
寸法
 62
     0
 48
50.0
370
    -2
100
AcDbBlockReference
  2
_DOTSMALL
 10
3883.588313148834
 20
5133.067116663759
 30
0.0
 41
100.0
 42
100.0
 43
100.0
 50
180.0
  0
INSERT
  5
1A2BF
330
19CF7
100
AcDbEntity
  8
寸法
 62
     0
 48
50.0
370
    -2
100
AcDbBlockReference
  2
_DOTSMALL
 10
3833.588313148834
 20
5133.067116663759
 30
0.0
 41
100.0
 42
100.0
 43
100.0
  0
MTEXT
  5
1A2C0
330
19CF7
100
AcDbEntity
  8
寸法
 62
     7
 48
50.0
100
AcDbMText
 10
3520.103031774586
 20
5233.067116663758
 30
0.0
 40
120.0
 41
0.0
 71
     5
 72
     1
  1
\A1;50
  7
STYLE1
 73
     1
 44
1.0
1001
ACAD
1000
MTEXTBEGIN
1070
    73
1070
     1
1070
    44
1040
1.0
1070
    74
1070
     0
1000
MTEXTEND
  0
POINT
  5
1A2C1
330
19CF7
100
AcDbEntity
  8
DEFPOINTS
 62
     0
 48
50.0
100
AcDbPoint
 10
3883.588313148834
 20
4728.446857236493
 30
0.0
  0
POINT
  5
1A2C2
330
19CF7
100
AcDbEntity
  8
DEFPOINTS
 62
     0
 48
50.0
100
AcDbPoint
 10
3833.588313148834
 20
4728.446857236493
 30
0.0
  0
POINT
  5
1A2C3
330
19CF7
100
AcDbEntity
  8
DEFPOINTS
 62
     0
 48
50.0
100
AcDbPoint
 10
3833.588313148834
 20
5133.067116663759
 30
0.0
  0
ENDBLK
  5
19D04
330
19CF7
100
AcDbEntity
  8
0
 48
50.0
100
AcDbBlockEnd
  0
BLOCK
  5
19D0F
330
19D05
100
AcDbEntity
  8
0
 48
50.0
100
AcDbBlockBegin
  2
*D28
 70
     1
 10
0.0
 20
0.0
 30
0.0
  3
*D28
  1

  0
LINE
  5
1A2B0
330
19D05
100
AcDbEntity
  8
寸法
 62
     0
 48
50.0
370
    -2
100
AcDbLine
 10
3833.588313148834
 20
4748.446857236493
 30
0.0
 11
3833.588313148834
 21
5402.660991085209
 31
0.0
  0
LINE
  5
1A2B1
330
19D05
100
AcDbEntity
  8
寸法
 62
     0
 48
50.0
370
    -2
100
AcDbLine
 10
6143.588313148837
 20
4748.44685723649
 30
0.0
 11
6143.588313148837
 21
5402.660991085209
 31
0.0
  0
LINE
  5
1A2B2
330
19D05
100
AcDbEntity
  8
寸法
 62
     0
 48
50.0
370
    -2
100
AcDbLine
 10
3833.588313148834
 20
5342.660991085209
 30
0.0
 11
6143.588313148837
 21
5342.660991085209
 31
0.0
  0
INSERT
  5
1A2B3
330
19D05
100
AcDbEntity
  8
寸法
 62
     0
 48
50.0
370
    -2
100
AcDbBlockReference
  2
_DOTSMALL
 10
3833.588313148834
 20
5342.660991085209
 30
0.0
 41
100.0
 42
100.0
 43
100.0
 50
180.0
  0
INSERT
  5
1A2B4
330
19D05
100
AcDbEntity
  8
寸法
 62
     0
 48
50.0
370
    -2
100
AcDbBlockReference
  2
_DOTSMALL
 10
6143.588313148837
 20
5342.660991085209
 30
0.0
 41
100.0
 42
100.0
 43
100.0
  0
MTEXT
  5
1A2B5
330
19D05
100
AcDbEntity
  8
寸法
 62
     7
 48
50.0
100
AcDbMText
 10
4988.588313148833
 20
5442.67280210883
 30
0.0
 40
120.0
 41
0.0
 71
     5
 72
     1
  1
\A1;2310
  7
STYLE1
 73
     1
 44
1.0
1001
ACAD
1000
MTEXTBEGIN
1070
    73
1070
     1
1070
    44
1040
1.0
1070
    74
1070
     0
1000
MTEXTEND
  0
POINT
  5
1A2B6
330
19D05
100
AcDbEntity
  8
DEFPOINTS
 62
     0
 48
50.0
100
AcDbPoint
 10
3833.588313148834
 20
4728.446857236493
 30
0.0
  0
POINT
  5
1A2B7
330
19D05
100
AcDbEntity
  8
DEFPOINTS
 62
     0
 48
50.0
100
AcDbPoint
 10
6143.588313148837
 20
4728.446857236489
 30
0.0
  0
POINT
  5
1A2B8
330
19D05
100
AcDbEntity
  8
DEFPOINTS
 62
     0
 48
50.0
100
AcDbPoint
 10
6143.588313148837
 20
5342.660991085209
 30
0.0
  0
ENDBLK
  5
19D10
330
19D05
100
AcDbEntity
  8
0
 48
50.0
100
AcDbBlockEnd
  0
BLOCK
  5
19D1B
330
19D11
100
AcDbEntity
  8
0
 48
50.0
100
AcDbBlockBegin
  2
*D29
 70
     1
 10
0.0
 20
0.0
 30
0.0
  3
*D29
  1

  0
LINE
  5
1A2A7
330
19D11
100
AcDbEntity
  8
寸法
 62
     0
 48
50.0
370
    -2
100
AcDbLine
 10
4011.088313148833
 20
2033.446857236486
 30
0.0
 11
4011.088313148833
 21
1707.399527936112
 31
0.0
  0
LINE
  5
1A2A8
330
19D11
100
AcDbEntity
  8
寸法
 62
     0
 48
50.0
370
    -2
100
AcDbLine
 10
3811.088313148837
 20
2033.446857236489
 30
0.0
 11
3811.088313148837
 21
1707.399527936112
 31
0.0
  0
LINE
  5
1A2A9
330
19D11
100
AcDbEntity
  8
寸法
 62
     0
 48
50.0
370
    -2
100
AcDbLine
 10
4011.088313148833
 20
1767.399527936111
 30
0.0
 11
3811.088313148837
 21
1767.399527936111
 31
0.0
  0
INSERT
  5
1A2AA
330
19D11
100
AcDbEntity
  8
寸法
 62
     0
 48
50.0
370
    -2
100
AcDbBlockReference
  2
_DOTSMALL
 10
4011.088313148833
 20
1767.399527936111
 30
0.0
 41
100.0
 42
100.0
 43
100.0
  0
INSERT
  5
1A2AB
330
19D11
100
AcDbEntity
  8
寸法
 62
     0
 48
50.0
370
    -2
100
AcDbBlockReference
  2
_DOTSMALL
 10
3811.088313148837
 20
1767.399527936111
 30
0.0
 41
100.0
 42
100.0
 43
100.0
 50
180.0
  0
MTEXT
  5
1A2AC
330
19D11
100
AcDbEntity
  8
寸法
 62
     7
 48
50.0
100
AcDbMText
 10
3911.088313148836
 20
1867.411338959733
 30
0.0
 40
120.0
 41
0.0
 71
     5
 72
     1
  1
\A1;200
  7
STYLE1
 73
     1
 44
1.0
1001
ACAD
1000
MTEXTBEGIN
1070
    73
1070
     1
1070
    44
1040
1.0
1070
    74
1070
     0
1000
MTEXTEND
  0
POINT
  5
1A2AD
330
19D11
100
AcDbEntity
  8
DEFPOINTS
 62
     0
 48
50.0
100
AcDbPoint
 10
4011.088313148833
 20
2053.446857236486
 30
0.0
  0
POINT
  5
1A2AE
330
19D11
100
AcDbEntity
  8
DEFPOINTS
 62
     0
 48
50.0
100
AcDbPoint
 10
3811.088313148837
 20
2053.446857236489
 30
0.0
  0
POINT
  5
1A2AF
330
19D11
100
AcDbEntity
  8
DEFPOINTS
 62
     0
 48
50.0
100
AcDbPoint
 10
3811.088313148837
 20
1767.399527936111
 30
0.0
  0
ENDBLK
  5
19D1C
330
19D11
100
AcDbEntity
  8
0
 48
50.0
100
AcDbBlockEnd
  0
BLOCK
  5
19D27
330
19D1D
100
AcDbEntity
  8
0
 48
50.0
100
AcDbBlockBegin
  2
*D30
 70
     1
 10
0.0
 20
0.0
 30
0.0
  3
*D30
  1

  0
LINE
  5
1A29E
330
19D1D
100
AcDbEntity
  8
寸法
 62
     0
 48
50.0
370
    -2
100
AcDbLine
 10
3791.088313148838
 20
2053.446857236489
 30
0.0
 11
3601.5883099022
 21
2053.446857236489
 31
0.0
  0
LINE
  5
1A29F
330
19D1D
100
AcDbEntity
  8
寸法
 62
     0
 48
50.0
370
    -2
100
AcDbLine
 10
3766.088313148833
 20
2253.44685723649
 30
0.0
 11
3601.5883099022
 21
2253.44685723649
 31
0.0
  0
LINE
  5
1A2A0
330
19D1D
100
AcDbEntity
  8
寸法
 62
     0
 48
50.0
370
    -2
100
AcDbLine
 10
3661.5883099022
 20
2053.446857236489
 30
0.0
 11
3661.5883099022
 21
2253.44685723649
 31
0.0
  0
INSERT
  5
1A2A1
330
19D1D
100
AcDbEntity
  8
寸法
 62
     0
 48
50.0
370
    -2
100
AcDbBlockReference
  2
_DOTSMALL
 10
3661.5883099022
 20
2053.446857236489
 30
0.0
 41
100.0
 42
100.0
 43
100.0
 50
270.0
  0
INSERT
  5
1A2A2
330
19D1D
100
AcDbEntity
  8
寸法
 62
     0
 48
50.0
370
    -2
100
AcDbBlockReference
  2
_DOTSMALL
 10
3661.5883099022
 20
2253.44685723649
 30
0.0
 41
100.0
 42
100.0
 43
100.0
 50
90.0
  0
MTEXT
  5
1A2A3
330
19D1D
100
AcDbEntity
  8
寸法
 62
     7
 48
50.0
100
AcDbMText
 10
3561.576498878577
 20
2153.44685723649
 30
0.0
 40
120.0
 41
0.0
 71
     5
 72
     1
  1
\A1;200
  7
STYLE1
 11
0.0000000000000001
 21
1.0
 31
0.0
 73
     1
 44
1.0
1001
ACAD
1000
MTEXTBEGIN
1070
    73
1070
     1
1070
    44
1040
1.0
1070
    74
1070
     0
1000
MTEXTEND
  0
POINT
  5
1A2A4
330
19D1D
100
AcDbEntity
  8
DEFPOINTS
 62
     0
 48
50.0
100
AcDbPoint
 10
3811.088313148837
 20
2053.446857236489
 30
0.0
  0
POINT
  5
1A2A5
330
19D1D
100
AcDbEntity
  8
DEFPOINTS
 62
     0
 48
50.0
100
AcDbPoint
 10
3786.088313148834
 20
2253.44685723649
 30
0.0
  0
POINT
  5
1A2A6
330
19D1D
100
AcDbEntity
  8
DEFPOINTS
 62
     0
 48
50.0
100
AcDbPoint
 10
3661.5883099022
 20
2253.44685723649
 30
0.0
  0
ENDBLK
  5
19D28
330
19D1D
100
AcDbEntity
  8
0
 48
50.0
100
AcDbBlockEnd
  0
BLOCK
  5
1A489
330
1A47F
100
AcDbEntity
  8
0
 48
50.0
100
AcDbBlockBegin
  2
*D31
 70
     1
 10
0.0
 20
0.0
 30
0.0
  3
*D31
  1

  0
LINE
  5
1A93A
330
1A47F
100
AcDbEntity
  8
寸法
 62
     0
 48
50.0
370
    -2
100
AcDbLine
 10
8682.685342486058
 20
7817.83886161561
 30
0.0
 11
8682.685342486058
 21
7156.967428724979
 31
0.0
  0
LINE
  5
1A93B
330
1A47F
100
AcDbEntity
  8
寸法
 62
     0
 48
50.0
370
    -2
100
AcDbLine
 10
9948.685342486058
 20
7817.83886161561
 30
0.0
 11
9948.685342486058
 21
7156.967428724979
 31
0.0
  0
LINE
  5
1A93C
330
1A47F
100
AcDbEntity
  8
寸法
 62
     0
 48
50.0
370
    -2
100
AcDbLine
 10
8702.685342486056
 20
7196.96742872498
 30
0.0
 11
9928.685342486057
 21
7196.96742872498
 31
0.0
  0
INSERT
  5
1A93D
330
1A47F
100
AcDbEntity
  8
寸法
 62
     0
 48
50.0
370
    -2
100
AcDbBlockReference
  2
_DOT
 10
8682.685342486058
 20
7196.96742872498
 30
0.0
 41
20.0
 42
20.0
 43
20.0
 50
180.0
  0
INSERT
  5
1A93E
330
1A47F
100
AcDbEntity
  8
寸法
 62
     0
 48
50.0
370
    -2
100
AcDbBlockReference
  2
_DOT
 10
9948.685342486058
 20
7196.96742872498
 30
0.0
 41
20.0
 42
20.0
 43
20.0
  0
MTEXT
  5
1A93F
330
1A47F
100
AcDbEntity
  8
寸法
 62
     7
 48
50.0
100
AcDbMText
 10
9320.730751132316
 20
7388.979239748602
 30
0.0
 40
120.0
 41
0.0
 71
     5
 72
     1
  1
\A1;有効開口部間口\P1266
  7
STYLE1
 73
     1
 44
1.0
1001
ACAD
1000
MTEXTBEGIN
1070
    73
1070
     1
1070
    44
1040
1.0
1070
    74
1070
     0
1000
MTEXTEND
  0
POINT
  5
1A940
330
1A47F
100
AcDbEntity
  8
DEFPOINTS
 62
     0
 48
50.0
100
AcDbPoint
 10
8682.685342486058
 20
7837.83886161561
 30
0.0
  0
POINT
  5
1A941
330
1A47F
100
AcDbEntity
  8
DEFPOINTS
 62
     0
 48
50.0
100
AcDbPoint
 10
9948.685342486058
 20
7837.83886161561
 30
0.0
  0
POINT
  5
1A942
330
1A47F
100
AcDbEntity
  8
DEFPOINTS
 62
     0
 48
50.0
100
AcDbPoint
 10
9948.685342486058
 20
7196.96742872498
 30
0.0
  0
ENDBLK
  5
1A48A
330
1A47F
100
AcDbEntity
  8
0
 48
50.0
100
AcDbBlockEnd
  0
BLOCK
  5
1A7D2
330
1A7C6
100
AcDbEntity
  8
0
 48
50.0
100
AcDbBlockBegin
  2
*D32
 70
     1
 10
0.0
 20
0.0
 30
0.0
  3
*D32
  1

  0
LINE
  5
1A92F
330
1A7C6
100
AcDbEntity
  8
寸法
 62
     0
 48
50.0
370
    -2
100
AcDbLine
 10
8175.685342486081
 20
7914.838861615577
 30
0.0
 11
7861.074096859363
 21
7914.838861615577
 31
0.0
  0
LINE
  5
1A930
330
1A7C6
100
AcDbEntity
  8
寸法
 62
     0
 48
50.0
370
    -2
100
AcDbLine
 10
8623.685342486053
 20
7839.838861615577
 30
0.0
 11
7861.074096859363
 21
7839.838861615577
 31
0.0
  0
LINE
  5
1A931
330
1A7C6
100
AcDbEntity
  8
寸法
 62
     0
 48
50.0
370
    -2
100
AcDbLine
 10
7901.074096859362
 20
7934.838861615578
 30
0.0
 11
7901.074096859362
 21
7954.838861615577
 31
0.0
  0
LINE
  5
1A932
330
1A7C6
100
AcDbEntity
  8
寸法
 62
     0
 48
50.0
370
    -2
100
AcDbLine
 10
7901.074096859362
 20
7819.838861615576
 30
0.0
 11
7901.074096859362
 21
7598.868298867099
 31
0.0
  0
LINE
  5
1A933
330
1A7C6
100
AcDbEntity
  8
寸法
 62
     0
 48
50.0
370
    -2
100
AcDbLine
 10
7901.074096859362
 20
7914.838861615577
 30
0.0
 11
7901.074096859362
 21
7839.838861615577
 31
0.0
  0
INSERT
  5
1A934
330
1A7C6
100
AcDbEntity
  8
寸法
 62
     0
 48
50.0
370
    -2
100
AcDbBlockReference
  2
_DOT
 10
7901.074096859362
 20
7914.838861615577
 30
0.0
 41
20.0
 42
20.0
 43
20.0
 50
270.0
  0
INSERT
  5
1A935
330
1A7C6
100
AcDbEntity
  8
寸法
 62
     0
 48
50.0
370
    -2
100
AcDbBlockReference
  2
_DOT
 10
7901.074096859362
 20
7839.838861615577
 30
0.0
 41
20.0
 42
20.0
 43
20.0
 50
90.0
  0
MTEXT
  5
1A936
330
1A7C6
100
AcDbEntity
  8
寸法
 62
     7
 48
50.0
100
AcDbMText
 10
7809.074096859362
 20
7699.353580241339
 30
0.0
 40
120.0
 41
0.0
 71
     5
 72
     1
  1
\A1;75
  7
STYLE1
 11
0.0000000000000001
 21
1.0
 31
0.0
 73
     1
 44
1.0
1001
ACAD
1000
MTEXTBEGIN
1070
    73
1070
     1
1070
    44
1040
1.0
1070
    74
1070
     0
1000
MTEXTEND
  0
POINT
  5
1A937
330
1A7C6
100
AcDbEntity
  8
DEFPOINTS
 62
     0
 48
50.0
100
AcDbPoint
 10
8195.685342486079
 20
7914.838861615577
 30
0.0
  0
POINT
  5
1A938
330
1A7C6
100
AcDbEntity
  8
DEFPOINTS
 62
     0
 48
50.0
100
AcDbPoint
 10
8643.685342486055
 20
7839.838861615577
 30
0.0
  0
POINT
  5
1A939
330
1A7C6
100
AcDbEntity
  8
DEFPOINTS
 62
     0
 48
50.0
100
AcDbPoint
 10
7901.074096859362
 20
7839.838861615577
 30
0.0
  0
ENDBLK
  5
1A7D3
330
1A7C6
100
AcDbEntity
  8
0
 48
50.0
100
AcDbBlockEnd
  0
BLOCK
  5
1A7DE
330
1A7D4
100
AcDbEntity
  8
0
 48
50.0
100
AcDbBlockBegin
  2
*D33
 70
     1
 10
0.0
 20
0.0
 30
0.0
  3
*D33
  1

  0
LINE
  5
1A926
330
1A7D4
100
AcDbEntity
  8
寸法
 62
     0
 48
50.0
370
    -2
100
AcDbLine
 10
8643.685342486056
 20
7817.83886161561
 30
0.0
 11
8643.685342486056
 21
6857.709146187842
 31
0.0
  0
LINE
  5
1A927
330
1A7D4
100
AcDbEntity
  8
寸法
 62
     0
 48
50.0
370
    -2
100
AcDbLine
 10
10797.68534248605
 20
7817.83886161561
 30
0.0
 11
10797.68534248605
 21
6857.709146187842
 31
0.0
  0
LINE
  5
1A928
330
1A7D4
100
AcDbEntity
  8
寸法
 62
     0
 48
50.0
370
    -2
100
AcDbLine
 10
8643.685342486056
 20
6917.709146187842
 30
0.0
 11
10797.68534248605
 21
6917.709146187842
 31
0.0
  0
INSERT
  5
1A929
330
1A7D4
100
AcDbEntity
  8
寸法
 62
     0
 48
50.0
370
    -2
100
AcDbBlockReference
  2
_DOTSMALL
 10
8643.685342486056
 20
6917.709146187842
 30
0.0
 41
100.0
 42
100.0
 43
100.0
 50
180.0
  0
INSERT
  5
1A92A
330
1A7D4
100
AcDbEntity
  8
寸法
 62
     0
 48
50.0
370
    -2
100
AcDbBlockReference
  2
_DOTSMALL
 10
10797.68534248605
 20
6917.709146187842
 30
0.0
 41
100.0
 42
100.0
 43
100.0
  0
MTEXT
  5
1A92B
330
1A7D4
100
AcDbEntity
  8
寸法
 62
     7
 48
50.0
100
AcDbMText
 10
9742.818099233369
 20
7017.720957211463
 30
0.0
 40
120.0
 41
0.0
 71
     5
 72
     1
  1
\A1;2154
  7
STYLE1
 73
     1
 44
1.0
1001
ACAD
1000
MTEXTBEGIN
1070
    73
1070
     1
1070
    44
1040
1.0
1070
    74
1070
     0
1000
MTEXTEND
  0
POINT
  5
1A92C
330
1A7D4
100
AcDbEntity
  8
DEFPOINTS
 62
     0
 48
50.0
100
AcDbPoint
 10
8643.685342486056
 20
7837.83886161561
 30
0.0
  0
POINT
  5
1A92D
330
1A7D4
100
AcDbEntity
  8
DEFPOINTS
 62
     0
 48
50.0
100
AcDbPoint
 10
10797.68534248605
 20
7837.83886161561
 30
0.0
  0
POINT
  5
1A92E
330
1A7D4
100
AcDbEntity
  8
DEFPOINTS
 62
     0
 48
50.0
100
AcDbPoint
 10
10797.68534248605
 20
6917.709146187842
 30
0.0
  0
ENDBLK
  5
1A7DF
330
1A7D4
100
AcDbEntity
  8
0
 48
50.0
100
AcDbBlockEnd
  0
BLOCK
  5
1A85C
330
1A852
100
AcDbEntity
  8
0
 48
50.0
100
AcDbBlockBegin
  2
*D34
 70
     1
 10
0.0
 20
0.0
 30
0.0
  3
*D34
  1

  0
LINE
  5
1A91D
330
1A852
100
AcDbEntity
  8
寸法
 62
     0
 48
50.0
370
    -2
100
AcDbLine
 10
8195.685342486079
 20
7894.838861615577
 30
0.0
 11
8195.685342486079
 21
6570.733996061282
 31
0.0
  0
LINE
  5
1A91E
330
1A852
100
AcDbEntity
  8
寸法
 62
     0
 48
50.0
370
    -2
100
AcDbLine
 10
11245.68534248606
 20
7894.838861615742
 30
0.0
 11
11245.68534248606
 21
6570.733996061282
 31
0.0
  0
LINE
  5
1A91F
330
1A852
100
AcDbEntity
  8
寸法
 62
     0
 48
50.0
370
    -2
100
AcDbLine
 10
8195.685342486079
 20
6630.73399606128
 30
0.0
 11
11245.68534248606
 21
6630.73399606128
 31
0.0
  0
INSERT
  5
1A920
330
1A852
100
AcDbEntity
  8
寸法
 62
     0
 48
50.0
370
    -2
100
AcDbBlockReference
  2
_DOTSMALL
 10
8195.685342486079
 20
6630.73399606128
 30
0.0
 41
100.0
 42
100.0
 43
100.0
 50
180.0
  0
INSERT
  5
1A921
330
1A852
100
AcDbEntity
  8
寸法
 62
     0
 48
50.0
370
    -2
100
AcDbBlockReference
  2
_DOTSMALL
 10
11245.68534248606
 20
6630.73399606128
 30
0.0
 41
100.0
 42
100.0
 43
100.0
  0
MTEXT
  5
1A922
330
1A852
100
AcDbEntity
  8
寸法
 62
     7
 48
50.0
100
AcDbMText
 10
9740.401172860012
 20
6730.733996061281
 30
0.0
 40
120.0
 41
0.0
 71
     5
 72
     1
  1
\A1;3050
  7
STYLE1
 73
     1
 44
1.0
1001
ACAD
1000
MTEXTBEGIN
1070
    73
1070
     1
1070
    44
1040
1.0
1070
    74
1070
     0
1000
MTEXTEND
  0
POINT
  5
1A923
330
1A852
100
AcDbEntity
  8
DEFPOINTS
 62
     0
 48
50.0
100
AcDbPoint
 10
8195.685342486079
 20
7914.838861615577
 30
0.0
  0
POINT
  5
1A924
330
1A852
100
AcDbEntity
  8
DEFPOINTS
 62
     0
 48
50.0
100
AcDbPoint
 10
11245.68534248606
 20
7914.838861615741
 30
0.0
  0
POINT
  5
1A925
330
1A852
100
AcDbEntity
  8
DEFPOINTS
 62
     0
 48
50.0
100
AcDbPoint
 10
11245.68534248606
 20
6630.73399606128
 30
0.0
  0
ENDBLK
  5
1A85D
330
1A852
100
AcDbEntity
  8
0
 48
50.0
100
AcDbBlockEnd
  0
ENDSEC
  0
SECTION
  2
ENTITIES
  0
LINE
  5
10B57
330
747D
100
AcDbEntity
  8
補助
  6
PHANTOM
 62
   230
 48
50.0
100
AcDbLine
 10
139.9999999999995
 20
11409.6
 30
0.0
 11
16307.2
 21
11409.6
 31
0.0
  0
LINE
  5
10B59
330
747D
100
AcDbEntity
  8
仕様書枠
  6
Continuous
 48
50.0
100
AcDbLine
 10
13107.2
 20
1200.0
 30
0.0
 11
13107.2
 21
-0.0000000000000729
 31
0.0
  0
LINE
  5
10B5C
330
747D
100
AcDbEntity
  8
仕様書枠
 48
50.0
100
AcDbLine
 10
16307.2
 20
1200.0
 30
0.0
 11
16307.2
 21
-0.0000000000000909
 31
0.0
  0
LINE
  5
10B5D
330
747D
100
AcDbEntity
  8
仕様書枠
 48
50.0
100
AcDbLine
 10
140.0
 20
0.0
 30
0.0
 11
16307.2
 21
-0.0000000000000909
 31
0.0
  0
LINE
  5
10B5E
330
747D
100
AcDbEntity
  8
補助
  6
PHANTOM
 62
   230
 48
50.0
100
AcDbLine
 10
16307.2
 20
11409.6
 30
0.0
 11
16307.2
 21
1200.0
 31
0.0
  0
LINE
  5
10B6C
330
747D
100
AcDbEntity
  8
仕様書枠
 48
50.0
100
AcDbLine
 10
13107.2
 20
1200.0
 30
0.0
 11
16307.2
 21
1200.0
 31
0.0
  0
LINE
  5
10B6D
330
747D
100
AcDbEntity
  8
補助
  6
PHANTOM
 62
   230
 48
50.0
100
AcDbLine
 10
13107.2
 20
11409.6
 30
0.0
 11
13107.2
 21
4800.0
 31
0.0
  0
LINE
  5
10B6F
330
747D
100
AcDbEntity
  8
補助
  6
PHANTOM
 62
   230
 48
50.0
100
AcDbLine
 10
13107.2
 20
4800.0
 30
0.0
 11
16307.2
 21
4800.0
 31
0.0
  0
LINE
  5
10B72
330
747D
100
AcDbEntity
  8
文字
 62
     7
 48
50.0
100
AcDbLine
 10
13187.2
 20
400.0
 30
0.0
 11
16227.2
 21
400.0
 31
0.0
  0
TEXT
  5
10B73
330
747D
100
AcDbEntity
  8
文字
 62
     7
 48
50.0
100
AcDbText
 10
13162.9790565769
 20
895.0906074299405
 30
0.0
 40
200.0
  1
外 形 図
  7
STYLE2
100
AcDbText
  0
TEXT
  5
10B74
330
747D
100
AcDbEntity
  8
文字
 62
     7
 48
50.0
100
AcDbText
 10
13201.43669998441
 20
477.2740661031255
 30
0.0
 40
160.0
  1
機種名
  7
STYLE2
100
AcDbText
  0
TEXT
  5
10B76
330
747D
100
AcDbEntity
  8
文字
 62
     7
 48
50.0
100
AcDbText
 10
13209.4053442172
 20
76.09434707649343
 30
0.0
 40
100.0
  1
○床面積 ： 6.91㎡(2.09坪) 　
  7
STYLE2
100
AcDbText
  0
TEXT
  5
10B79
330
747D
100
AcDbEntity
  8
文字
 62
     7
 48
50.0
100
AcDbText
 10
14524.131837222
 20
1031.557706291228
 30
0.0
 40
100.0
  1
NO.30     <縮尺> S=1/40
  7
STYLE2
100
AcDbText
  0
LINE
  5
10B7B
330
747D
100
AcDbEntity
  8
仕様書枠
 48
50.0
100
AcDbLine
 10
13107.2
 20
800.0
 30
0.0
 11
14251.2
 21
800.0
 31
0.0
  0
LINE
  5
10B88
330
747D
100
AcDbEntity
  8
仕様書枠
  6
Continuous
 48
50.0
100
AcDbLine
 10
14251.2
 20
1200.0
 30
0.0
 11
14251.2
 21
800.0
 31
0.0
  0
TEXT
  5
15729
330
747D
100
AcDbEntity
  8
文字
 62
     7
 48
50.0
100
AcDbText
 10
14624.8638298946
 20
869.7247441969318
 30
0.0
 40
100.0
  1
～一般型・多雪地型～
  7
STYLE2
100
AcDbText
  0
LINE
  5
198CB
330
747D
100
AcDbEntity
  8
部品1
100
AcDbLine
 10
11217.68534248609
 20
8809.838861615752
 30
0.0
 11
11245.68534248608
 21
8809.838861615752
 31
0.0
  0
LINE
  5
198CC
330
747D
100
AcDbEntity
  8
部品1
100
AcDbLine
 10
8223.68534248606
 20
8809.838861615624
 30
0.0
 11
8195.68534248606
 21
8809.838861615624
 31
0.0
  0
LINE
  5
198CD
330
747D
100
AcDbEntity
  8
部品1
100
AcDbLine
 10
11189.18534248607
 20
8809.838861615725
 30
0.0
 11
8252.18534248607
 21
8809.838861615624
 31
0.0
  0
TEXT
  5
198CE
330
747D
100
AcDbEntity
  8
文字
 62
     7
 48
50.0
100
AcDbText
 10
14798.72402257234
 20
9740.013745883722
 30
0.0
 40
100.0
  1
F12(一般型1.0/多雪地型2.3)
  7
STYLE1
100
AcDbText
  0
TEXT
  5
198CF
330
747D
100
AcDbEntity
  8
文字
 62
     7
 48
50.0
100
AcDbText
 10
13248.77747366447
 20
8380.013745883728
 30
0.0
 40
100.0
  1
17
  7
STYLE1
100
AcDbText
  0
TEXT
  5
198D0
330
747D
100
AcDbEntity
  8
文字
 62
     7
 48
50.0
100
AcDbText
 10
13248.77747366447
 20
8550.013745883727
 30
0.0
 40
100.0
  1
16
  7
STYLE1
100
AcDbText
  0
TEXT
  5
198D1
330
747D
100
AcDbEntity
  8
文字
 62
     7
 48
50.0
100
AcDbText
 10
15022.63965474517
 20
9060.013745883722
 30
0.0
 40
100.0
  1
F12            1.0
  7
STYLE1
100
AcDbText
  0
TEXT
  5
198D2
330
747D
100
AcDbEntity
  8
文字
 62
     7
 48
50.0
100
AcDbText
 10
13583.11819016569
 20
9060.013745883729
 30
0.0
 40
100.0
  1
壁面扉枠左右
  7
STYLE1
100
AcDbText
  0
TEXT
  5
198D3
330
747D
100
AcDbEntity
  8
文字
 62
     7
 48
50.0
100
AcDbText
 10
15022.63965474517
 20
9230.013745883722
 30
0.0
 40
100.0
  1
F12            1.0
  7
STYLE1
100
AcDbText
  0
TEXT
  5
198D4
330
747D
100
AcDbEntity
  8
文字
 62
     7
 48
50.0
100
AcDbText
 10
15022.63965474515
 20
9400.013745883725
 30
0.0
 40
100.0
  1
F12            0.7
  7
STYLE1
100
AcDbText
  0
TEXT
  5
198D5
330
747D
100
AcDbEntity
  8
文字
 62
     7
 48
50.0
100
AcDbText
 10
13583.11819016569
 20
9230.013745883729
 30
0.0
 40
100.0
  1
壁面扉敷居
  7
STYLE1
100
AcDbText
  0
TEXT
  5
198D6
330
747D
100
AcDbEntity
  8
文字
 62
     7
 48
50.0
100
AcDbText
 10
13583.11819016569
 20
9400.013745883729
 30
0.0
 40
100.0
  1
壁面扉鴨居
  7
STYLE1
100
AcDbText
  0
LINE
  5
198D7
330
747D
100
AcDbEntity
  8
仕様書枠
 48
50.0
100
AcDbLine
 10
16307.19999999999
 20
8689.600000000003
 30
0.0
 11
13127.2
 21
8689.600000000003
 31
0.0
  0
LINE
  5
198D8
330
747D
100
AcDbEntity
  8
仕様書枠
 48
50.0
100
AcDbLine
 10
16307.19999999999
 20
8519.600000000002
 30
0.0
 11
13127.2
 21
8519.600000000004
 31
0.0
  0
TEXT
  5
198D9
330
747D
100
AcDbEntity
  8
文字
 62
     7
 48
50.0
100
AcDbText
 10
13583.11819016569
 20
8380.013745883728
 30
0.0
 40
100.0
  1
アンカープレート
  7
STYLE1
100
AcDbText
  0
TEXT
  5
198DA
330
747D
100
AcDbEntity
  8
文字
 62
     7
 48
50.0
100
AcDbText
 10
15022.63965474515
 20
8380.01374588372
 30
0.0
 40
100.0
  1
F12            2.3
  7
STYLE1
100
AcDbText
  0
LINE
  5
198DB
330
747D
100
AcDbEntity
  8
仕様書枠
 48
50.0
100
AcDbLine
 10
16307.2
 20
10049.59999999999
 30
0.0
 11
13127.2
 21
10049.6
 31
0.0
  0
LINE
  5
198DC
330
747D
100
AcDbEntity
  8
仕様書枠
 48
50.0
100
AcDbLine
 10
16307.2
 20
11409.59999999999
 30
0.0
 11
13127.2
 21
11409.6
 31
0.0
  0
LINE
  5
198DD
330
747D
100
AcDbEntity
  8
仕様書枠
 48
50.0
100
AcDbLine
 10
16307.19999999999
 20
8009.600000000002
 30
0.0
 11
16307.2
 21
11409.6
 31
0.0
  0
LINE
  5
198DE
330
747D
100
AcDbEntity
  8
仕様書枠
 48
50.0
100
AcDbLine
 10
14785.2
 20
11409.59999999999
 30
0.0
 11
14785.2
 21
8349.600000000002
 31
0.0
  0
LINE
  5
198DF
330
747D
100
AcDbEntity
  8
仕様書枠
 48
50.0
100
AcDbLine
 10
13490.2
 20
11409.59999999999
 30
0.0
 11
13490.20000000001
 21
8349.600000000004
 31
0.0
  0
LINE
  5
198E0
330
747D
100
AcDbEntity
  8
仕様書枠
 48
50.0
100
AcDbLine
 10
16307.2
 20
11239.59999999999
 30
0.0
 11
13127.2
 21
11239.6
 31
0.0
  0
LINE
  5
198E1
330
747D
100
AcDbEntity
  8
仕様書枠
 48
50.0
100
AcDbLine
 10
16307.2
 20
10899.59999999999
 30
0.0
 11
13127.2
 21
10899.6
 31
0.0
  0
LINE
  5
198E2
330
747D
100
AcDbEntity
  8
仕様書枠
 48
50.0
100
AcDbLine
 10
16307.2
 20
11069.59999999999
 30
0.0
 11
13127.2
 21
11069.6
 31
0.0
  0
LINE
  5
198E3
330
747D
100
AcDbEntity
  8
仕様書枠
 48
50.0
100
AcDbLine
 10
16307.19999999999
 20
10559.6
 30
0.0
 11
13127.2
 21
10559.6
 31
0.0
  0
LINE
  5
198E4
330
747D
100
AcDbEntity
  8
仕様書枠
 48
50.0
100
AcDbLine
 10
16307.19999999999
 20
10389.59999999999
 30
0.0
 11
13127.2
 21
10389.6
 31
0.0
  0
LINE
  5
198E5
330
747D
100
AcDbEntity
  8
仕様書枠
 48
50.0
100
AcDbLine
 10
16307.19999999999
 20
10729.59999999999
 30
0.0
 11
13127.2
 21
10729.6
 31
0.0
  0
TEXT
  5
198E6
330
747D
100
AcDbEntity
  8
文字
 62
     7
 48
50.0
100
AcDbText
 10
13197.42518560407
 20
11270.01374588372
 30
0.0
 40
100.0
  1
品番
  7
STYLE1
100
AcDbText
  0
TEXT
  5
198E7
330
747D
100
AcDbEntity
  8
文字
 62
     7
 48
50.0
100
AcDbText
 10
13271.19032244792
 20
11100.01374588373
 30
0.0
 40
100.0
  1
1
  7
STYLE1
100
AcDbText
  0
TEXT
  5
198E8
330
747D
100
AcDbEntity
  8
文字
 62
     7
 48
50.0
100
AcDbText
 10
13271.19032244792
 20
10930.01374588373
 30
0.0
 40
100.0
  1
2
  7
STYLE1
100
AcDbText
  0
TEXT
  5
198E9
330
747D
100
AcDbEntity
  8
文字
 62
     7
 48
50.0
100
AcDbText
 10
13271.19032244792
 20
10590.01374588373
 30
0.0
 40
100.0
  1
4
  7
STYLE1
100
AcDbText
  0
TEXT
  5
198EA
330
747D
100
AcDbEntity
  8
文字
 62
     7
 48
50.0
100
AcDbText
 10
13271.19032244792
 20
10760.01374588373
 30
0.0
 40
100.0
  1
3
  7
STYLE1
100
AcDbText
  0
TEXT
  5
198EB
330
747D
100
AcDbEntity
  8
文字
 62
     7
 48
50.0
100
AcDbText
 10
13732.03840939434
 20
11270.01374588372
 30
0.0
 40
100.0
  1
部　　品　　名
  7
STYLE1
100
AcDbText
  0
TEXT
  5
198EC
330
747D
100
AcDbEntity
  8
文字
 62
     7
 48
50.0
100
AcDbText
 10
14859.79774614482
 20
11270.01374588372
 30
0.0
 40
100.0
  1
材料（材質）　　単位mm
  7
STYLE1
100
AcDbText
  0
TEXT
  5
198ED
330
747D
100
AcDbEntity
  8
文字
 62
     7
 48
50.0
100
AcDbText
 10
13583.11819016569
 20
11100.01374588372
 30
0.0
 40
100.0
  1
土台枠
  7
STYLE1
100
AcDbText
  0
TEXT
  5
198EE
330
747D
100
AcDbEntity
  8
文字
 62
     7
 48
50.0
100
AcDbText
 10
13583.1181901657
 20
10760.01374588372
 30
0.0
 40
100.0
  1
柱
  7
STYLE1
100
AcDbText
  0
TEXT
  5
198EF
330
747D
100
AcDbEntity
  8
文字
 62
     7
 48
50.0
100
AcDbText
 10
13583.11819016569
 20
10420.01374588373
 30
0.0
 40
100.0
  1
桁前後
  7
STYLE1
100
AcDbText
  0
TEXT
  5
198F0
330
747D
100
AcDbEntity
  8
文字
 62
     7
 48
50.0
100
AcDbText
 10
13271.19032244792
 20
10420.01374588372
 30
0.0
 40
100.0
  1
5
  7
STYLE1
100
AcDbText
  0
TEXT
  5
198F1
330
747D
100
AcDbEntity
  8
文字
 62
     7
 48
50.0
100
AcDbText
 10
13583.11819016569
 20
10250.01374588372
 30
0.0
 40
100.0
  1
妻板左右
  7
STYLE1
100
AcDbText
  0
TEXT
  5
198F2
330
747D
100
AcDbEntity
  8
文字
 62
     7
 48
50.0
100
AcDbText
 10
13248.77747366447
 20
9570.013745883725
 30
0.0
 40
100.0
  1
10
  7
STYLE1
100
AcDbText
  0
TEXT
  5
198F3
330
747D
100
AcDbEntity
  8
文字
 62
     7
 48
50.0
100
AcDbText
 10
13583.11819016568
 20
9570.013745883729
 30
0.0
 40
100.0
  1
壁パネル
  7
STYLE1
100
AcDbText
  0
TEXT
  5
198F4
330
747D
100
AcDbEntity
  8
文字
 62
     7
 48
50.0
100
AcDbText
 10
13583.11819016569
 20
9910.013745883725
 30
0.0
 40
100.0
  1
屋根パネル
  7
STYLE1
100
AcDbText
  0
TEXT
  5
198F5
330
747D
100
AcDbEntity
  8
文字
 62
     7
 48
50.0
100
AcDbText
 10
13583.11819016569
 20
10080.01374588372
 30
0.0
 40
100.0
  1
鼻隠シ前後
  7
STYLE1
100
AcDbText
  0
TEXT
  5
198F6
330
747D
100
AcDbEntity
  8
文字
 62
     7
 48
50.0
100
AcDbText
 10
13271.19032244792
 20
9910.01374588373
 30
0.0
 40
100.0
  1
8
  7
STYLE1
100
AcDbText
  0
TEXT
  5
198F7
330
747D
100
AcDbEntity
  8
文字
 62
     7
 48
50.0
100
AcDbText
 10
13271.19032244792
 20
9740.013745883729
 30
0.0
 40
100.0
  1
9
  7
STYLE1
100
AcDbText
  0
TEXT
  5
198F8
330
747D
100
AcDbEntity
  8
文字
 62
     7
 48
50.0
100
AcDbText
 10
13271.19032244792
 20
10080.01374588373
 30
0.0
 40
100.0
  1
7
  7
STYLE1
100
AcDbText
  0
TEXT
  5
198F9
330
747D
100
AcDbEntity
  8
文字
 62
     7
 48
50.0
100
AcDbText
 10
13271.19032244792
 20
10250.01374588373
 30
0.0
 40
100.0
  1
6
  7
STYLE1
100
AcDbText
  0
LINE
  5
198FA
330
747D
100
AcDbEntity
  8
仕様書枠
 48
50.0
100
AcDbLine
 10
16307.19999999999
 20
9709.599999999998
 30
0.0
 11
13127.2
 21
9709.600000000001
 31
0.0
  0
LINE
  5
198FB
330
747D
100
AcDbEntity
  8
仕様書枠
 48
50.0
100
AcDbLine
 10
16307.19999999999
 20
9369.599999999996
 30
0.0
 11
13127.2
 21
9369.600000000001
 31
0.0
  0
LINE
  5
198FC
330
747D
100
AcDbEntity
  8
仕様書枠
 48
50.0
100
AcDbLine
 10
16307.19999999999
 20
9539.599999999998
 30
0.0
 11
13127.2
 21
9539.6
 31
0.0
  0
LINE
  5
198FD
330
747D
100
AcDbEntity
  8
仕様書枠
 48
50.0
100
AcDbLine
 10
16307.2
 20
10219.59999999999
 30
0.0
 11
13127.2
 21
10219.6
 31
0.0
  0
LINE
  5
198FE
330
747D
100
AcDbEntity
  8
仕様書枠
 48
50.0
100
AcDbLine
 10
16307.2
 20
9879.599999999996
 30
0.0
 11
13127.2
 21
9879.600000000001
 31
0.0
  0
TEXT
  5
198FF
330
747D
100
AcDbEntity
  8
文字
 62
     7
 48
50.0
100
AcDbText
 10
13248.77747366447
 20
9400.013745883725
 30
0.0
 40
100.0
  1
11
  7
STYLE1
100
AcDbText
  0
LINE
  5
19900
330
747D
100
AcDbEntity
  8
仕様書枠
 48
50.0
100
AcDbLine
 10
16307.19999999999
 20
9199.599999999996
 30
0.0
 11
13127.2
 21
9199.600000000001
 31
0.0
  0
LINE
  5
19901
330
747D
100
AcDbEntity
  8
仕様書枠
 48
50.0
100
AcDbLine
 10
16307.19999999999
 20
8859.6
 30
0.0
 11
13127.2
 21
8859.6
 31
0.0
  0
TEXT
  5
19902
330
747D
100
AcDbEntity
  8
文字
 62
     7
 48
50.0
100
AcDbText
 10
13248.77747366448
 20
9060.013745883725
 30
0.0
 40
100.0
  1
13
  7
STYLE1
100
AcDbText
  0
TEXT
  5
19903
330
747D
100
AcDbEntity
  8
文字
 62
     7
 48
50.0
100
AcDbText
 10
13248.77747366448
 20
9230.013745883725
 30
0.0
 40
100.0
  1
12
  7
STYLE1
100
AcDbText
  0
TEXT
  5
19904
330
747D
100
AcDbEntity
  8
文字
 62
     7
 48
50.0
100
AcDbText
 10
15022.63965474517
 20
11100.01374588372
 30
0.0
 40
100.0
  1
F12            1.2
  7
STYLE1
100
AcDbText
  0
TEXT
  5
19905
330
747D
100
AcDbEntity
  8
文字
 62
     7
 48
50.0
100
AcDbText
 10
15022.63965474518
 20
10760.01374588372
 30
0.0
 40
100.0
  1
F12            1.0
  7
STYLE1
100
AcDbText
  0
TEXT
  5
19906
330
747D
100
AcDbEntity
  8
文字
 62
     7
 48
50.0
100
AcDbText
 10
15022.63965474516
 20
10420.01374588372
 30
0.0
 40
100.0
  1
Y10            1.0
  7
STYLE1
100
AcDbText
  0
TEXT
  5
19907
330
747D
100
AcDbEntity
  8
文字
 62
     7
 48
50.0
100
AcDbText
 10
15022.63965474516
 20
10250.01374588372
 30
0.0
 40
100.0
  1
Y10            0.7
  7
STYLE1
100
AcDbText
  0
TEXT
  5
19908
330
747D
100
AcDbEntity
  8
文字
 62
     7
 48
50.0
100
AcDbText
 10
15022.63965474516
 20
10080.01374588372
 30
0.0
 40
100.0
  1
Y10            0.7
  7
STYLE1
100
AcDbText
  0
TEXT
  5
19909
330
747D
100
AcDbEntity
  8
文字
 62
     7
 48
50.0
100
AcDbText
 10
15022.63965474517
 20
9910.013745883723
 30
0.0
 40
100.0
  1
Y10            0.5
  7
STYLE1
100
AcDbText
  0
TEXT
  5
1990A
330
747D
100
AcDbEntity
  8
文字
 62
     7
 48
50.0
100
AcDbText
 10
15022.63965474515
 20
9570.013745883722
 30
0.0
 40
100.0
  1
F12            0.7
  7
STYLE1
100
AcDbText
  0
LINE
  5
1990B
330
747D
100
AcDbEntity
  8
仕様書枠
 48
50.0
100
AcDbLine
 10
16307.19999999999
 20
8349.600000000002
 30
0.0
 11
13127.19999999999
 21
8349.600000000004
 31
0.0
  0
LINE
  5
1990C
330
747D
100
AcDbEntity
  8
仕様書枠
 48
50.0
100
AcDbLine
 10
16307.19999999999
 20
8179.600000000002
 30
0.0
 11
13127.19999999999
 21
8179.600000000004
 31
0.0
  0
TEXT
  5
1990D
330
747D
100
AcDbEntity
  8
文字
 62
     7
 48
50.0
100
AcDbText
 10
13229.83081656554
 20
8210.013745883731
 30
0.0
 40
100.0
  1
F12→溶融亜鉛めっき鋼板(JIS G 3302)
  7
STYLE1
100
AcDbText
  0
TEXT
  5
1990E
330
747D
100
AcDbEntity
  8
文字
 62
     7
 48
50.0
100
AcDbText
 10
13229.83081656554
 20
8040.013745883731
 30
0.0
 40
100.0
  1
Y10→溶融亜鉛-5％アルミニウム合金めっき鋼板(JIS G 3317)
 41
0.9
  7
STYLE1
100
AcDbText
  0
LINE
  5
1990F
330
747D
100
AcDbEntity
  8
仕様書枠
 48
50.0
100
AcDbLine
 10
13127.2
 20
11409.6
 30
0.0
 11
13127.19999999999
 21
8009.600000000004
 31
0.0
  0
LINE
  5
19910
330
747D
100
AcDbEntity
  8
仕様書枠
 48
50.0
100
AcDbLine
 10
16307.19999999999
 20
9029.6
 30
0.0
 11
13127.2
 21
9029.6
 31
0.0
  0
TEXT
  5
19911
330
747D
100
AcDbEntity
  8
文字
 62
     7
 48
50.0
100
AcDbText
 10
13583.1181901657
 20
10590.01374588372
 30
0.0
 40
100.0
  1
床パネル
 41
0.9
  7
STYLE1
100
AcDbText
  0
TEXT
  5
19912
330
747D
100
AcDbEntity
  8
文字
 62
     7
 48
50.0
100
AcDbText
 10
13583.11819016569
 20
10930.01374588372
 30
0.0
 40
100.0
  1
根太
  7
STYLE1
100
AcDbText
  0
TEXT
  5
19913
330
747D
100
AcDbEntity
  8
文字
 62
     7
 48
50.0
100
AcDbText
 10
13248.77747366448
 20
8890.013745883726
 30
0.0
 40
100.0
  1
14
  7
STYLE1
100
AcDbText
  0
TEXT
  5
19914
330
747D
100
AcDbEntity
  8
文字
 62
     7
 48
50.0
100
AcDbText
 10
15022.63965474516
 20
10930.01374588372
 30
0.0
 40
100.0
  1
F12            1.2
  7
STYLE1
100
AcDbText
  0
TEXT
  5
19915
330
747D
100
AcDbEntity
  8
文字
 62
     7
 48
50.0
100
AcDbText
 10
15022.63965474517
 20
10590.01374588372
 30
0.0
 40
100.0
  1
F12            1.0
  7
STYLE1
100
AcDbText
  0
TEXT
  5
19916
330
747D
100
AcDbEntity
  8
文字
 62
     7
 48
50.0
100
AcDbText
 10
15022.63965474515
 20
8890.013745883726
 30
0.0
 40
100.0
  1
F12            0.7
  7
STYLE1
100
AcDbText
  0
TEXT
  5
19917
330
747D
100
AcDbEntity
  8
文字
 62
     7
 48
50.0
100
AcDbText
 10
13583.11819016568
 20
8890.013745883729
 30
0.0
 40
100.0
  1
正面パネル
  7
STYLE1
100
AcDbText
  0
TEXT
  5
19918
330
747D
100
AcDbEntity
  8
文字
 62
     7
 48
50.0
100
AcDbText
 10
15022.63965474516
 20
8720.013745883726
 30
0.0
 40
100.0
  1
F12            0.8
  7
STYLE1
100
AcDbText
  0
TEXT
  5
19919
330
747D
100
AcDbEntity
  8
文字
 62
     7
 48
50.0
100
AcDbText
 10
13583.11819016569
 20
8720.013745883729
 30
0.0
 40
100.0
  1
扉
  7
STYLE1
100
AcDbText
  0
LINE
  5
1991A
330
747D
100
AcDbEntity
  8
仕様書枠
 48
50.0
100
AcDbLine
 10
16307.19999999999
 20
8009.600000000002
 30
0.0
 11
13127.19999999999
 21
8009.600000000004
 31
0.0
  0
TEXT
  5
1991B
330
747D
100
AcDbEntity
  8
文字
 62
     7
 48
50.0
100
AcDbText
 10
13248.77747366447
 20
8720.013745883727
 30
0.0
 40
100.0
  1
15
  7
STYLE1
100
AcDbText
  0
TEXT
  5
1991C
330
747D
100
AcDbEntity
  8
文字
 62
     7
 48
50.0
100
AcDbText
 10
13583.11819016569
 20
9740.013745883725
 30
0.0
 40
100.0
  1
母屋中
  7
STYLE1
100
AcDbText
  0
TEXT
  5
1991D
330
747D
100
AcDbEntity
  8
文字
 62
     7
 48
50.0
100
AcDbText
 10
15022.63965474516
 20
8550.013745883726
 30
0.0
 40
100.0
  1
F12            0.6
  7
STYLE1
100
AcDbText
  0
TEXT
  5
1991E
330
747D
100
AcDbEntity
  8
文字
 62
     7
 48
50.0
100
AcDbText
 10
13583.11819016569
 20
8550.013745883729
 30
0.0
 40
100.0
  1
棚板
  7
STYLE1
100
AcDbText
  0
ARC
  5
1991F
330
747D
100
AcDbEntity
  8
部品1
100
AcDbCircle
 10
6136.179892042404
 20
4721.446857236492
 30
0.0
 40
7.0
100
AcDbArc
 50
356.7526572096623
 51
90.0
  0
ARC
  5
19920
330
747D
100
AcDbEntity
  8
部品1
100
AcDbCircle
 10
6122.964568581366
 20
4594.446857236493
 30
0.0
 40
7.0
100
AcDbArc
 50
270.0
 51
356.7526572096623
  0
ARC
  5
19921
330
747D
100
AcDbEntity
  8
部品1
 48
50.0
100
AcDbCircle
 10
6141.336378792046
 20
4701.113856398176
 30
0.0
 40
0.7
100
AcDbArc
 50
277.6581272073652
 51
356.7526572095583
  0
ARC
  5
19922
330
747D
100
AcDbEntity
  8
部品1
 48
50.0
100
AcDbCircle
 10
6133.100348267202
 20
4608.913856398176
 30
0.0
 40
0.7
100
AcDbArc
 50
277.6581272073652
 51
356.7526572096623
  0
ARC
  5
19923
330
747D
100
AcDbEntity
  8
部品1
 48
50.0
100
AcDbCircle
 10
6133.593417375763
 20
4605.246857236489
 30
0.0
 40
3.0
100
AcDbArc
 50
97.65812720736519
 51
176.7526572096623
  0
ARC
  5
19924
330
747D
100
AcDbEntity
  8
部品1
 48
50.0
100
AcDbCircle
 10
6141.829447900607
 20
4697.446857236493
 30
0.0
 40
3.0
100
AcDbArc
 50
97.65812720736519
 51
176.7526572096623
  0
LINE
  5
19925
330
747D
100
AcDbEntity
  8
部品1
100
AcDbLine
 10
6138.834265004422
 20
4697.616796691597
 30
0.0
 11
6133.799224276314
 21
4608.87420385865
 31
0.0
  0
LINE
  5
19926
330
747D
100
AcDbEntity
  8
部品1
100
AcDbLine
 10
6130.598234479577
 20
4605.416796691591
 30
0.0
 11
6129.953328672469
 21
4594.050331841252
 31
0.0
  0
LINE
  5
19927
330
747D
100
AcDbEntity
  8
細線
 48
50.0
100
AcDbLine
 10
6110.588313148838
 20
4728.446857236493
 30
0.0
 11
6110.588313148838
 21
4587.446857236493
 31
0.0
  0
LINE
  5
19928
330
747D
100
AcDbEntity
  8
部品1
100
AcDbLine
 10
6143.1686521335
 20
4721.050331841252
 30
0.0
 11
6142.035254801157
 21
4701.074203858654
 31
0.0
  0
DIMENSION
  5
19929
330
747D
100
AcDbEntity
  8
寸法
 48
50.0
100
AcDbDimension
  2
*D25
 10
6093.588313148837
 20
5133.067116663759
 30
0.0
 11
6457.07359452307
 21
5133.067116663759
 31
0.0
 70
   160
 71
     5
 42
50.0
  3
INABA_S40G
100
AcDbAlignedDimension
 13
6143.588313148837
 23
4728.446857236489
 33
0.0
 14
6093.588313148837
 24
4728.446857236493
 34
0.0
100
AcDbRotatedDimension
  0
ARC
  5
1992A
330
747D
100
AcDbEntity
  8
部品1
 48
0.01
100
AcDbCircle
 10
4461.58831314883
 20
4525.94685723649
 30
0.0
 40
2.0
100
AcDbArc
 50
270.0
 51
0.0
  0
ARC
  5
1992B
330
747D
100
AcDbEntity
  8
部品1
 48
0.01
100
AcDbCircle
 10
4461.588313148833
 20
4557.446857236489
 30
0.0
 40
2.0
100
AcDbArc
 50
0.0
 51
90.0
  0
ARC
  5
1992C
330
747D
100
AcDbEntity
  8
部品1
 48
0.01
100
AcDbCircle
 10
4285.588313148833
 20
4525.94685723649
 30
0.0
 40
2.0
100
AcDbArc
 50
180.0
 51
270.0
  0
ARC
  5
1992D
330
747D
100
AcDbEntity
  8
部品1
 48
0.01
100
AcDbCircle
 10
4285.588313148833
 20
4557.446857236489
 30
0.0
 40
2.0
100
AcDbArc
 50
90.0
 51
180.0
  0
LINE
  5
1992E
330
747D
100
AcDbEntity
  8
細線
100
AcDbLine
 10
4373.58831314883
 20
4529.946857236489
 30
0.0
 11
4447.588313148833
 21
4529.946857236489
 31
0.0
  0
LINE
  5
1992F
330
747D
100
AcDbEntity
  8
細線
100
AcDbLine
 10
4373.588313148833
 20
4552.94685723649
 30
0.0
 11
4299.588313148833
 21
4552.94685723649
 31
0.0
  0
LINE
  5
19930
330
747D
100
AcDbEntity
  8
細線
100
AcDbLine
 10
4299.588313148833
 20
4529.946857236489
 30
0.0
 11
4373.588313148833
 21
4529.946857236489
 31
0.0
  0
LINE
  5
19931
330
747D
100
AcDbEntity
  8
細線
100
AcDbLine
 10
4447.588313148833
 20
4552.94685723649
 30
0.0
 11
4373.588313148833
 21
4552.94685723649
 31
0.0
  0
LINE
  5
19932
330
747D
100
AcDbEntity
  8
細線
100
AcDbLine
 10
4447.588313148833
 20
4529.946857236489
 30
0.0
 11
4447.588313148833
 21
4552.94685723649
 31
0.0
  0
LINE
  5
19933
330
747D
100
AcDbEntity
  8
細線
100
AcDbLine
 10
4299.588313148833
 20
4552.94685723649
 30
0.0
 11
4299.588313148833
 21
4529.946857236489
 31
0.0
  0
LINE
  5
19934
330
747D
100
AcDbEntity
  8
部品1
 48
0.01
100
AcDbLine
 10
4463.58831314883
 20
4525.94685723649
 30
0.0
 11
4463.588313148833
 21
4557.446857236489
 31
0.0
  0
LINE
  5
19935
330
747D
100
AcDbEntity
  8
部品1
 48
0.01
100
AcDbLine
 10
4285.588313148833
 20
4523.946857236489
 30
0.0
 11
4461.58831314883
 21
4523.946857236489
 31
0.0
  0
LINE
  5
19936
330
747D
100
AcDbEntity
  8
部品1
 48
0.01
100
AcDbLine
 10
4283.588313148833
 20
4557.446857236489
 30
0.0
 11
4283.588313148833
 21
4525.94685723649
 31
0.0
  0
LINE
  5
19937
330
747D
100
AcDbEntity
  8
部品1
 48
0.01
100
AcDbLine
 10
4461.588313148833
 20
4559.44685723649
 30
0.0
 11
4285.588313148833
 21
4559.44685723649
 31
0.0
  0
LINE
  5
19938
330
747D
100
AcDbEntity
  8
細線
100
AcDbLine
 10
4299.588313148833
 20
4546.946857236489
 30
0.0
 11
4373.588313148833
 21
4546.946857236489
 31
0.0
  0
LINE
  5
19939
330
747D
100
AcDbEntity
  8
細線
100
AcDbLine
 10
4299.588313148833
 20
4540.946857236489
 30
0.0
 11
4373.588313148833
 21
4540.946857236489
 31
0.0
  0
LINE
  5
1993A
330
747D
100
AcDbEntity
  8
細線
100
AcDbLine
 10
4299.58831314883
 20
4534.94685723649
 30
0.0
 11
4373.588313148833
 21
4534.94685723649
 31
0.0
  0
LINE
  5
1993B
330
747D
100
AcDbEntity
  8
細線
100
AcDbLine
 10
4299.588313148833
 20
4546.946857236489
 30
0.0
 11
4368.588313148833
 21
4546.946857236489
 31
0.0
  0
LINE
  5
1993C
330
747D
100
AcDbEntity
  8
細線
100
AcDbLine
 10
4447.58831314883
 20
4546.946857236486
 30
0.0
 11
4373.588313148833
 21
4546.946857236489
 31
0.0
  0
LINE
  5
1993D
330
747D
100
AcDbEntity
  8
細線
100
AcDbLine
 10
4447.58831314883
 20
4534.946857236485
 30
0.0
 11
4373.588313148833
 21
4534.94685723649
 31
0.0
  0
LINE
  5
1993E
330
747D
100
AcDbEntity
  8
細線
100
AcDbLine
 10
4447.58831314883
 20
4540.946857236489
 30
0.0
 11
4373.588313148833
 21
4540.946857236489
 31
0.0
  0
LINE
  5
1993F
330
747D
100
AcDbEntity
  8
細線
100
AcDbLine
 10
4373.588313148833
 20
4552.94685723649
 30
0.0
 11
4373.58831314883
 21
4529.946857236489
 31
0.0
  0
LINE
  5
19940
330
747D
100
AcDbEntity
  8
部品1
 48
0.01
100
AcDbLine
 10
5693.588313148834
 20
4557.446857236489
 30
0.0
 11
5693.588313148834
 21
4525.94685723649
 31
0.0
  0
LINE
  5
19941
330
747D
100
AcDbEntity
  8
部品1
 48
0.01
100
AcDbLine
 10
5691.588313148834
 20
4523.946857236489
 30
0.0
 11
5515.588313148834
 21
4523.946857236489
 31
0.0
  0
LINE
  5
19942
330
747D
100
AcDbEntity
  8
部品1
 48
0.01
100
AcDbLine
 10
5513.588313148833
 20
4525.94685723649
 30
0.0
 11
5513.588313148833
 21
4557.446857236489
 31
0.0
  0
ARC
  5
19943
330
747D
100
AcDbEntity
  8
部品1
 48
0.01
100
AcDbCircle
 10
5691.588313148834
 20
4525.94685723649
 30
0.0
 40
2.0
100
AcDbArc
 50
270.0
 51
0.0
  0
ARC
  5
19944
330
747D
100
AcDbEntity
  8
部品1
 48
0.01
100
AcDbCircle
 10
5515.588313148834
 20
4525.94685723649
 30
0.0
 40
2.0
100
AcDbArc
 50
180.0
 51
270.0
  0
LINE
  5
19945
330
747D
100
AcDbEntity
  8
細線
100
AcDbLine
 10
5603.588313148833
 20
4552.94685723649
 30
0.0
 11
5603.588313148833
 21
4529.946857236489
 31
0.0
  0
LINE
  5
19946
330
747D
100
AcDbEntity
  8
細線
100
AcDbLine
 10
5529.588313148834
 20
4540.946857236489
 30
0.0
 11
5603.588313148833
 21
4540.946857236489
 31
0.0
  0
LINE
  5
19947
330
747D
100
AcDbEntity
  8
細線
100
AcDbLine
 10
5529.588313148834
 20
4534.946857236485
 30
0.0
 11
5603.588313148833
 21
4534.94685723649
 31
0.0
  0
LINE
  5
19948
330
747D
100
AcDbEntity
  8
細線
100
AcDbLine
 10
5529.588313148834
 20
4546.946857236486
 30
0.0
 11
5603.588313148833
 21
4546.946857236489
 31
0.0
  0
LINE
  5
19949
330
747D
100
AcDbEntity
  8
細線
100
AcDbLine
 10
5677.588313148834
 20
4546.946857236489
 30
0.0
 11
5608.588313148834
 21
4546.946857236489
 31
0.0
  0
LINE
  5
1994A
330
747D
100
AcDbEntity
  8
細線
100
AcDbLine
 10
5677.588313148834
 20
4534.94685723649
 30
0.0
 11
5603.588313148833
 21
4534.94685723649
 31
0.0
  0
LINE
  5
1994B
330
747D
100
AcDbEntity
  8
細線
100
AcDbLine
 10
5677.588313148834
 20
4540.946857236489
 30
0.0
 11
5603.588313148833
 21
4540.946857236489
 31
0.0
  0
LINE
  5
1994C
330
747D
100
AcDbEntity
  8
細線
100
AcDbLine
 10
5677.588313148834
 20
4546.946857236489
 30
0.0
 11
5603.588313148833
 21
4546.946857236489
 31
0.0
  0
LINE
  5
1994D
330
747D
100
AcDbEntity
  8
部品1
 48
0.01
100
AcDbLine
 10
5515.588313148834
 20
4559.44685723649
 30
0.0
 11
5691.588313148834
 21
4559.44685723649
 31
0.0
  0
LINE
  5
1994E
330
747D
100
AcDbEntity
  8
細線
100
AcDbLine
 10
5677.588313148834
 20
4552.94685723649
 30
0.0
 11
5677.588313148834
 21
4529.946857236489
 31
0.0
  0
LINE
  5
1994F
330
747D
100
AcDbEntity
  8
細線
100
AcDbLine
 10
5529.588313148834
 20
4529.946857236489
 30
0.0
 11
5529.588313148834
 21
4552.94685723649
 31
0.0
  0
LINE
  5
19950
330
747D
100
AcDbEntity
  8
細線
100
AcDbLine
 10
5529.588313148834
 20
4552.94685723649
 30
0.0
 11
5603.588313148833
 21
4552.94685723649
 31
0.0
  0
LINE
  5
19951
330
747D
100
AcDbEntity
  8
細線
100
AcDbLine
 10
5677.588313148834
 20
4529.946857236489
 30
0.0
 11
5603.588313148833
 21
4529.946857236489
 31
0.0
  0
LINE
  5
19952
330
747D
100
AcDbEntity
  8
細線
100
AcDbLine
 10
5603.588313148833
 20
4552.94685723649
 30
0.0
 11
5677.588313148834
 21
4552.94685723649
 31
0.0
  0
LINE
  5
19953
330
747D
100
AcDbEntity
  8
細線
100
AcDbLine
 10
5603.588313148833
 20
4529.946857236489
 30
0.0
 11
5529.588313148834
 21
4529.946857236489
 31
0.0
  0
ARC
  5
19954
330
747D
100
AcDbEntity
  8
部品1
 48
0.01
100
AcDbCircle
 10
5691.588313148834
 20
4557.446857236489
 30
0.0
 40
2.0
100
AcDbArc
 50
0.0
 51
90.0
  0
ARC
  5
19955
330
747D
100
AcDbEntity
  8
部品1
 48
0.01
100
AcDbCircle
 10
5515.588313148834
 20
4557.446857236489
 30
0.0
 40
2.0
100
AcDbArc
 50
90.0
 51
180.0
  0
LINE
  5
19956
330
747D
100
AcDbEntity
  8
部品1
100
AcDbLine
 10
3834.007974164168
 20
4721.050331841252
 30
0.0
 11
3835.141371496513
 21
4701.074203858654
 31
0.0
  0
LINE
  5
19957
330
747D
100
AcDbEntity
  8
部品1
100
AcDbLine
 10
3846.57839181809
 20
4605.416796691591
 30
0.0
 11
3847.223297625198
 21
4594.050331841252
 31
0.0
  0
LINE
  5
19958
330
747D
100
AcDbEntity
  8
部品1
100
AcDbLine
 10
3838.342361293242
 20
4697.616796691597
 30
0.0
 11
3843.377402021353
 21
4608.87420385865
 31
0.0
  0
ARC
  5
19959
330
747D
100
AcDbEntity
  8
部品1
 48
50.0
100
AcDbCircle
 10
3835.34717839706
 20
4697.446857236493
 30
0.0
 40
3.0
100
AcDbArc
 50
3.247342790337682
 51
82.3418727926348
  0
ARC
  5
1995A
330
747D
100
AcDbEntity
  8
部品1
 48
50.0
100
AcDbCircle
 10
3843.583208921901
 20
4605.246857236489
 30
0.0
 40
3.0
100
AcDbArc
 50
3.247342790337682
 51
82.3418727926348
  0
ARC
  5
1995B
330
747D
100
AcDbEntity
  8
部品1
 48
50.0
100
AcDbCircle
 10
3844.076278030462
 20
4608.913856398176
 30
0.0
 40
0.7
100
AcDbArc
 50
183.2473427903377
 51
262.3418727926349
  0
ARC
  5
1995C
330
747D
100
AcDbEntity
  8
部品1
 48
50.0
100
AcDbCircle
 10
3835.840247505621
 20
4701.113856398176
 30
0.0
 40
0.7
100
AcDbArc
 50
183.2473427904417
 51
262.3418727926349
  0
ARC
  5
1995D
330
747D
100
AcDbEntity
  8
部品1
100
AcDbCircle
 10
3854.212057716297
 20
4594.446857236493
 30
0.0
 40
7.0
100
AcDbArc
 50
183.2473427903377
 51
270.0
  0
ARC
  5
1995E
330
747D
100
AcDbEntity
  8
部品1
100
AcDbCircle
 10
3840.996734255263
 20
4721.446857236492
 30
0.0
 40
7.0
100
AcDbArc
 50
90.0
 51
183.2473427903377
  0
LINE
  5
1995F
330
747D
100
AcDbEntity
  8
細線
 48
50.0
100
AcDbLine
 10
3866.588313148834
 20
4728.446857236493
 30
0.0
 11
3866.588313148834
 21
4587.446857236493
 31
0.0
  0
LINE
  5
19960
330
747D
100
AcDbEntity
  8
細線
 48
50.0
100
AcDbLine
 10
6133.312744402548
 20
4608.246857236489
 30
0.0
 11
3843.863881895101
 21
4608.246857236492
 31
0.0
  0
LINE
  5
19961
330
747D
100
AcDbEntity
  8
細線
 48
50.0
100
AcDbLine
 10
6141.548774927397
 20
4700.446857236493
 30
0.0
 11
3835.627851370271
 21
4700.446857236489
 31
0.0
  0
LINE
  5
19962
330
747D
100
AcDbEntity
  8
部品1
 48
50.0
100
AcDbLine
 10
6122.964568581366
 20
4587.446857236496
 30
0.0
 11
3854.212057716297
 21
4587.446857236493
 31
0.0
  0
LINE
  5
19963
330
747D
100
AcDbEntity
  8
部品1
 48
50.0
100
AcDbLine
 10
6136.179892042404
 20
4728.446857236489
 30
0.0
 11
3840.996734255263
 21
4728.446857236493
 31
0.0
  0
DIMENSION
  5
19964
330
747D
100
AcDbEntity
  8
寸法
 48
50.0
100
AcDbDimension
  2
*D26
 10
3883.588313148834
 20
5133.067116663759
 30
0.0
 11
4988.588313148833
 21
5133.067116663759
 31
0.0
 70
   160
  1
柱外寸法<>
 71
     5
 42
2210.000000000004
  3
INABA_S40G
100
AcDbAlignedDimension
 13
6093.588313148837
 23
4728.446857236493
 33
0.0
 14
3883.588313148834
 24
4728.446857236493
 34
0.0
100
AcDbRotatedDimension
  0
DIMENSION
  5
19965
330
747D
100
AcDbEntity
  8
寸法
 48
50.0
100
AcDbDimension
  2
*D27
 10
3833.588313148834
 20
5133.067116663759
 30
0.0
 11
3520.103031774586
 21
5133.067116663759
 31
0.0
 70
   160
 71
     5
 42
50.0
  3
INABA_S40G
100
AcDbAlignedDimension
 13
3883.588313148834
 23
4728.446857236493
 33
0.0
 14
3833.588313148834
 24
4728.446857236493
 34
0.0
100
AcDbRotatedDimension
1001
ACAD
1000
DSTYLE
1002
{
1002
}
  0
DIMENSION
  5
19966
330
747D
100
AcDbEntity
  8
寸法
 48
50.0
100
AcDbDimension
  2
*D28
 10
6143.588313148837
 20
5342.660991085209
 30
0.0
 11
4988.588313148833
 21
5342.660991085209
 31
0.0
 70
   160
 71
     5
 42
2310.000000000004
  3
INABA_S40G
100
AcDbAlignedDimension
 13
3833.588313148834
 23
4728.446857236493
 33
0.0
 14
6143.588313148837
 24
4728.446857236489
 34
0.0
100
AcDbRotatedDimension
  0
TEXT
  5
19967
330
747D
100
AcDbEntity
  8
部品1
100
AcDbText
 10
2763.749008953353
 20
2289.553760842391
 30
0.0
 40
125.0
  1
▽G.L
  7
STYLE2
100
AcDbText
  0
LINE
  5
19968
330
747D
100
AcDbEntity
  8
部品1
100
AcDbLine
 10
4083.588313148833
 20
2353.446857236489
 30
0.0
 11
4083.588313148833
 21
2253.44685723649
 31
0.0
  0
LINE
  5
19969
330
747D
100
AcDbEntity
  8
部品1
 48
50.0
100
AcDbLine
 10
4888.588313148833
 20
2353.446857236489
 30
0.0
 11
4888.588313148833
 21
2253.44685723649
 31
0.0
  0
LINE
  5
1996A
330
747D
100
AcDbEntity
  8
部品1
 48
50.0
100
AcDbLine
 10
5088.588313148833
 20
2353.446857236489
 30
0.0
 11
5088.588313148833
 21
2253.44685723649
 31
0.0
  0
LINE
  5
1996B
330
747D
100
AcDbEntity
  8
部品1
100
AcDbLine
 10
5893.588313148834
 20
2353.446857236489
 30
0.0
 11
5893.588313148834
 21
2253.44685723649
 31
0.0
  0
LINE
  5
1996C
330
747D
100
AcDbEntity
  8
部品1
 48
50.0
100
AcDbLine
 10
6170.588313148837
 20
2353.446857236489
 30
0.0
 11
6086.088313148837
 21
2353.446857236489
 31
0.0
  0
LINE
  5
1996D
330
747D
100
AcDbEntity
  8
部品1
 48
50.0
100
AcDbLine
 10
6170.588313148837
 20
4478.446857236489
 30
0.0
 11
6170.588313148837
 21
2253.44685723649
 31
0.0
  0
LINE
  5
1996E
330
747D
100
AcDbEntity
  8
部品1
 48
50.0
100
AcDbLine
 10
6093.588313148837
 20
4488.446857236489
 30
0.0
 11
6170.588313148837
 21
4478.446857236489
 31
0.0
  0
LINE
  5
1996F
330
747D
100
AcDbEntity
  8
破線
 48
5.0
100
AcDbLine
 10
5966.088313148841
 20
2253.44685723649
 30
0.0
 11
5966.088313148841
 21
2053.446857236489
 31
0.0
  0
LINE
  5
19970
330
747D
100
AcDbEntity
  8
破線
 48
5.0
100
AcDbLine
 10
6166.088313148837
 20
2053.446857236486
 30
0.0
 11
5966.088313148841
 21
2053.446857236489
 31
0.0
  0
LINE
  5
19971
330
747D
100
AcDbEntity
  8
破線
 48
5.0
100
AcDbLine
 10
6166.088313148841
 20
2253.44685723649
 30
0.0
 11
6166.088313148837
 21
2053.446857236486
 31
0.0
  0
DIMENSION
  5
19972
330
747D
100
AcDbEntity
  8
寸法
 48
50.0
100
AcDbDimension
  2
*D29
 10
3811.088313148837
 20
1767.399527936111
 30
0.0
 11
3911.088313148836
 21
1767.399527936111
 31
0.0
 70
   160
 71
     5
 42
199.9999999999963
  3
INABA_S40G
100
AcDbAlignedDimension
 13
4011.088313148833
 23
2053.446857236486
 33
0.0
 14
3811.088313148837
 24
2053.446857236489
 34
0.0
100
AcDbRotatedDimension
  0
LINE
  5
19973
330
747D
100
AcDbEntity
  8
破線
 48
5.0
100
AcDbLine
 10
3811.088313148834
 20
2253.44685723649
 30
0.0
 11
3811.088313148837
 21
2053.446857236486
 31
0.0
  0
LINE
  5
19974
330
747D
100
AcDbEntity
  8
破線
 48
5.0
100
AcDbLine
 10
4011.088313148833
 20
2253.44685723649
 30
0.0
 11
4011.088313148833
 21
2053.446857236486
 31
0.0
  0
LINE
  5
19975
330
747D
100
AcDbEntity
  8
破線
 48
5.0
100
AcDbLine
 10
4011.088313148833
 20
2053.446857236486
 30
0.0
 11
3811.088313148837
 21
2053.446857236486
 31
0.0
  0
DIMENSION
  5
19976
330
747D
100
AcDbEntity
  8
寸法
 48
50.0
100
AcDbDimension
  2
*D30
 10
3661.5883099022
 20
2253.44685723649
 30
0.0
 11
3661.588309902199
 21
2153.44685723649
 31
0.0
 70
   160
 71
     5
 42
200.0
  3
INABA_S40G
100
AcDbAlignedDimension
 13
3811.088313148837
 23
2053.446857236489
 33
0.0
 14
3786.088313148834
 24
2253.44685723649
 34
0.0
 50
90.0
100
AcDbRotatedDimension
1001
ACAD
1000
DSTYLE
1002
{
1070
   174
1070
     0
1070
   272
1070
     1
1070
   288
1070
     0
1070
   341
1005
0
1002
}
  0
LINE
  5
19977
330
747D
100
AcDbEntity
  8
部品1
100
AcDbLine
 10
6086.088313148834
 20
2353.446857236489
 30
0.0
 11
6093.588313148837
 21
2353.446857236489
 31
0.0
  0
LINE
  5
19978
330
747D
100
AcDbEntity
  8
破線
  6
HIDDEN
 48
5.0
100
AcDbLine
 10
3931.088313148834
 20
2253.44685723649
 30
0.0
 11
3931.088313148834
 21
2248.44685723649
 31
0.0
  0
LINE
  5
19979
330
747D
100
AcDbEntity
  8
破線
  6
HIDDEN
 48
5.0
100
AcDbLine
 10
3891.088313148841
 20
2253.44685723649
 30
0.0
 11
3891.088313148841
 21
2248.44685723649
 31
0.0
  0
LINE
  5
1997A
330
747D
100
AcDbEntity
  8
破線
  6
HIDDEN
 48
5.0
100
AcDbLine
 10
6086.088313148834
 20
2253.44685723649
 30
0.0
 11
6086.088313148834
 21
2248.44685723649
 31
0.0
  0
LINE
  5
1997B
330
747D
100
AcDbEntity
  8
破線
  6
HIDDEN
 48
5.0
100
AcDbLine
 10
6046.088313148834
 20
2253.44685723649
 30
0.0
 11
6046.088313148834
 21
2248.44685723649
 31
0.0
  0
ARC
  5
1997C
330
747D
100
AcDbEntity
  8
部品1
 48
50.0
100
AcDbCircle
 10
6081.088313148834
 20
2393.44685723649
 30
0.0
 40
5.0
100
AcDbArc
 50
0.0
 51
90.0
  0
ARC
  5
1997D
330
747D
100
AcDbEntity
  8
部品1
 48
50.0
100
AcDbCircle
 10
6051.088313148833
 20
2393.44685723649
 30
0.0
 40
5.0
100
AcDbArc
 50
90.0
 51
180.0
  0
LINE
  5
1997E
330
747D
100
AcDbEntity
  8
部品1
100
AcDbLine
 10
6081.088313148834
 20
2398.44685723649
 30
0.0
 11
6051.088313148833
 21
2398.44685723649
 31
0.0
  0
LINE
  5
1997F
330
747D
100
AcDbEntity
  8
部品1
 48
50.0
100
AcDbLine
 10
6086.088313148834
 20
2393.44685723649
 30
0.0
 11
6086.088313148834
 21
2253.44685723649
 31
0.0
  0
LINE
  5
19980
330
747D
100
AcDbEntity
  8
部品1
 48
50.0
100
AcDbLine
 10
6046.088313148834
 20
2393.44685723649
 30
0.0
 11
6046.088313148834
 21
2253.44685723649
 31
0.0
  0
ARC
  5
19981
330
747D
100
AcDbEntity
  8
部品1
 48
50.0
100
AcDbCircle
 10
3926.088313148833
 20
2393.44685723649
 30
0.0
 40
5.0
100
AcDbArc
 50
0.0
 51
90.0
  0
ARC
  5
19982
330
747D
100
AcDbEntity
  8
部品1
 48
50.0
100
AcDbCircle
 10
3896.088313148834
 20
2393.44685723649
 30
0.0
 40
5.0
100
AcDbArc
 50
90.0
 51
180.0
  0
LINE
  5
19983
330
747D
100
AcDbEntity
  8
部品1
100
AcDbLine
 10
3896.088313148834
 20
2398.44685723649
 30
0.0
 11
3926.088313148833
 21
2398.44685723649
 31
0.0
  0
LINE
  5
19984
330
747D
100
AcDbEntity
  8
部品1
 48
50.0
100
AcDbLine
 10
3931.088313148834
 20
2393.44685723649
 30
0.0
 11
3931.088313148834
 21
2253.44685723649
 31
0.0
  0
LINE
  5
19985
330
747D
100
AcDbEntity
  8
部品1
 48
50.0
100
AcDbLine
 10
3891.088313148833
 20
2393.44685723649
 30
0.0
 11
3891.088313148833
 21
2253.44685723649
 31
0.0
  0
LINE
  5
19986
330
747D
100
AcDbEntity
  8
破線
  6
HIDDEN
 48
5.0
100
AcDbLine
 10
3931.088313148834
 20
2248.44685723649
 30
0.0
 11
3946.088313148834
 21
2100.746857236489
 31
0.0
  0
LINE
  5
19987
330
747D
100
AcDbEntity
  8
破線
  6
HIDDEN
 48
5.0
100
AcDbLine
 10
3891.088313148833
 20
2248.44685723649
 30
0.0
 11
3876.088313148834
 21
2100.746857236489
 31
0.0
  0
LINE
  5
19988
330
747D
100
AcDbEntity
  8
破線
  6
HIDDEN
 48
5.0
100
AcDbLine
 10
3946.088313148834
 20
2100.746857236489
 30
0.0
 11
3946.088313148834
 21
2098.44685723649
 31
0.0
  0
LINE
  5
19989
330
747D
100
AcDbEntity
  8
破線
  6
HIDDEN
 48
5.0
100
AcDbLine
 10
3876.088313148834
 20
2100.746857236489
 30
0.0
 11
3876.088313148834
 21
2098.44685723649
 31
0.0
  0
LINE
  5
1998A
330
747D
100
AcDbEntity
  8
破線
  6
HIDDEN
 48
5.0
100
AcDbLine
 10
3876.088313148834
 20
2098.44685723649
 30
0.0
 11
3946.088313148834
 21
2098.44685723649
 31
0.0
  0
LINE
  5
1998B
330
747D
100
AcDbEntity
  8
破線
  6
HIDDEN
 48
5.0
100
AcDbLine
 10
6101.088313148833
 20
2100.746857236489
 30
0.0
 11
6101.088313148833
 21
2098.44685723649
 31
0.0
  0
LINE
  5
1998C
330
747D
100
AcDbEntity
  8
破線
  6
HIDDEN
 48
5.0
100
AcDbLine
 10
6086.088313148834
 20
2248.44685723649
 30
0.0
 11
6101.088313148833
 21
2100.746857236489
 31
0.0
  0
LINE
  5
1998D
330
747D
100
AcDbEntity
  8
破線
  6
HIDDEN
 48
5.0
100
AcDbLine
 10
6031.088313148834
 20
2100.746857236489
 30
0.0
 11
6031.088313148834
 21
2098.44685723649
 31
0.0
  0
LINE
  5
1998E
330
747D
100
AcDbEntity
  8
破線
  6
HIDDEN
 48
5.0
100
AcDbLine
 10
6046.088313148834
 20
2248.44685723649
 30
0.0
 11
6031.088313148834
 21
2100.746857236489
 31
0.0
  0
LINE
  5
1998F
330
747D
100
AcDbEntity
  8
破線
  6
HIDDEN
 48
5.0
100
AcDbLine
 10
6101.088313148833
 20
2098.44685723649
 30
0.0
 11
6031.088313148834
 21
2098.44685723649
 31
0.0
  0
LINE
  5
19990
330
747D
100
AcDbEntity
  8
部品1
100
AcDbLine
 10
3883.588313148834
 20
2353.446857236489
 30
0.0
 11
3891.088313148833
 21
2353.446857236489
 31
0.0
  0
LINE
  5
19991
330
747D
100
AcDbEntity
  8
部品1
100
AcDbLine
 10
5370.323646263052
 20
1564.408594259079
 30
0.0
 11
4606.852980034615
 21
1564.408594259079
 31
0.0
  0
LINE
  5
19992
330
747D
100
AcDbEntity
  8
部品1
100
AcDbLine
 10
5370.323646263052
 20
1324.516272713547
 30
0.0
 11
5370.323646263052
 21
1564.408594259079
 31
0.0
  0
LINE
  5
19993
330
747D
100
AcDbEntity
  8
部品1
100
AcDbLine
 10
4606.852980034615
 20
1324.516272713547
 30
0.0
 11
5370.323646263052
 21
1324.516272713547
 31
0.0
  0
LINE
  5
19994
330
747D
100
AcDbEntity
  8
部品1
100
AcDbLine
 10
4606.852980034615
 20
1564.408594259079
 30
0.0
 11
4606.852980034615
 21
1324.516272713547
 31
0.0
  0
TEXT
  5
19995
330
747D
100
AcDbEntity
  8
部品1
100
AcDbText
 10
4696.299081458223
 20
1371.515065040556
 30
0.0
 40
135.0
  1
側面図
  7
STYLE2
100
AcDbText
  0
LINE
  5
19996
330
747D
100
AcDbEntity
  8
細線
 48
50.0
100
AcDbLine
 10
5961.088313148841
 20
4493.446857236489
 30
0.0
 11
5961.088313148841
 21
2403.446857236489
 31
0.0
  0
LINE
  5
19997
330
747D
100
AcDbEntity
  8
細線
 48
50.0
100
AcDbLine
 10
5976.088313148841
 20
4493.446857236489
 30
0.0
 11
5976.088313148841
 21
2403.446857236489
 31
0.0
  0
LINE
  5
19998
330
747D
100
AcDbEntity
  8
細線
 48
50.0
100
AcDbLine
 10
5836.088313148841
 20
4493.446857236489
 30
0.0
 11
5836.088313148841
 21
2403.446857236489
 31
0.0
  0
LINE
  5
19999
330
747D
100
AcDbEntity
  8
細線
 48
50.0
100
AcDbLine
 10
5821.088313148841
 20
4493.446857236489
 30
0.0
 11
5821.088313148841
 21
2403.446857236489
 31
0.0
  0
LINE
  5
1999A
330
747D
100
AcDbEntity
  8
細線
 48
50.0
100
AcDbLine
 10
5681.08831314884
 20
4493.446857236489
 30
0.0
 11
5681.08831314884
 21
2403.446857236489
 31
0.0
  0
LINE
  5
1999B
330
747D
100
AcDbEntity
  8
細線
 48
50.0
100
AcDbLine
 10
5696.088313148841
 20
4493.446857236489
 30
0.0
 11
5696.088313148841
 21
2403.446857236489
 31
0.0
  0
LINE
  5
1999C
330
747D
100
AcDbEntity
  8
部品1
100
AcDbLine
 10
5198.588313148833
 20
4493.446857236489
 30
0.0
 11
5198.588313148833
 21
2403.446857236489
 31
0.0
  0
LINE
  5
1999D
330
747D
100
AcDbEntity
  8
細線
 48
50.0
100
AcDbLine
 10
4856.088313148838
 20
4493.446857236489
 30
0.0
 11
4856.088313148838
 21
2403.446857236489
 31
0.0
  0
LINE
  5
1999E
330
747D
100
AcDbEntity
  8
細線
 48
50.0
100
AcDbLine
 10
4841.088313148837
 20
4493.446857236489
 30
0.0
 11
4841.088313148837
 21
2403.446857236489
 31
0.0
  0
LINE
  5
1999F
330
747D
100
AcDbEntity
  8
細線
 48
50.0
100
AcDbLine
 10
4981.088313148838
 20
4493.446857236489
 30
0.0
 11
4981.088313148838
 21
2403.446857236489
 31
0.0
  0
LINE
  5
199A0
330
747D
100
AcDbEntity
  8
細線
 48
50.0
100
AcDbLine
 10
4996.088313148837
 20
4493.446857236489
 30
0.0
 11
4996.088313148837
 21
2403.446857236489
 31
0.0
  0
LINE
  5
199A1
330
747D
100
AcDbEntity
  8
細線
 48
50.0
100
AcDbLine
 10
5136.088313148837
 20
4493.446857236489
 30
0.0
 11
5136.088313148837
 21
2403.446857236489
 31
0.0
  0
LINE
  5
199A2
330
747D
100
AcDbEntity
  8
細線
 48
50.0
100
AcDbLine
 10
5121.088313148837
 20
4493.446857236489
 30
0.0
 11
5121.088313148837
 21
2403.446857236489
 31
0.0
  0
LINE
  5
199A3
330
747D
100
AcDbEntity
  8
部品1
100
AcDbLine
 10
4778.588313148833
 20
4493.446857236489
 30
0.0
 11
4778.588313148833
 21
2403.446857236489
 31
0.0
  0
LINE
  5
199A4
330
747D
100
AcDbEntity
  8
細線
 48
50.0
100
AcDbLine
 10
4016.088313148833
 20
4493.446857236489
 30
0.0
 11
4016.088313148833
 21
2403.446857236489
 31
0.0
  0
LINE
  5
199A5
330
747D
100
AcDbEntity
  8
細線
 48
50.0
100
AcDbLine
 10
4001.088313148833
 20
4493.446857236489
 30
0.0
 11
4001.088313148833
 21
2403.446857236489
 31
0.0
  0
LINE
  5
199A6
330
747D
100
AcDbEntity
  8
細線
 48
50.0
100
AcDbLine
 10
4141.088313148833
 20
4493.446857236489
 30
0.0
 11
4141.088313148833
 21
2403.446857236489
 31
0.0
  0
LINE
  5
199A7
330
747D
100
AcDbEntity
  8
細線
 48
50.0
100
AcDbLine
 10
4156.088313148834
 20
4493.446857236489
 30
0.0
 11
4156.088313148834
 21
2403.446857236489
 31
0.0
  0
LINE
  5
199A8
330
747D
100
AcDbEntity
  8
細線
 48
50.0
100
AcDbLine
 10
4296.088313148834
 20
4493.446857236489
 30
0.0
 11
4296.088313148834
 21
2403.446857236489
 31
0.0
  0
LINE
  5
199A9
330
747D
100
AcDbEntity
  8
細線
 48
50.0
100
AcDbLine
 10
4281.088313148834
 20
4493.446857236489
 30
0.0
 11
4281.088313148834
 21
2403.446857236489
 31
0.0
  0
LINE
  5
199AA
330
747D
100
AcDbEntity
  8
細線
 48
50.0
100
AcDbLine
 10
4701.088313148833
 20
4493.446857236489
 30
0.0
 11
4701.088313148833
 21
2403.446857236489
 31
0.0
  0
LINE
  5
199AB
330
747D
100
AcDbEntity
  8
細線
 48
50.0
100
AcDbLine
 10
4716.088313148833
 20
4493.446857236489
 30
0.0
 11
4716.088313148833
 21
2403.446857236489
 31
0.0
  0
LINE
  5
199AC
330
747D
100
AcDbEntity
  8
細線
 48
50.0
100
AcDbLine
 10
4576.088313148833
 20
4493.446857236489
 30
0.0
 11
4576.088313148833
 21
2403.446857236489
 31
0.0
  0
LINE
  5
199AD
330
747D
100
AcDbEntity
  8
細線
 48
50.0
100
AcDbLine
 10
4561.088313148833
 20
4493.446857236489
 30
0.0
 11
4561.088313148833
 21
2403.446857236489
 31
0.0
  0
LINE
  5
199AE
330
747D
100
AcDbEntity
  8
細線
 48
50.0
100
AcDbLine
 10
4421.088313148834
 20
4493.446857236489
 30
0.0
 11
4421.088313148834
 21
2403.446857236489
 31
0.0
  0
LINE
  5
199AF
330
747D
100
AcDbEntity
  8
細線
 48
50.0
100
AcDbLine
 10
4436.088313148833
 20
4493.446857236489
 30
0.0
 11
4436.088313148833
 21
2403.446857236489
 31
0.0
  0
LINE
  5
199B0
330
747D
100
AcDbEntity
  8
部品1
100
AcDbLine
 10
3883.588313148834
 20
2353.446857236489
 30
0.0
 11
3891.088313148833
 21
2353.446857236489
 31
0.0
  0
LINE
  5
199B1
330
747D
100
AcDbEntity
  8
部品1
100
AcDbLine
 10
6038.588313148837
 20
4493.446857236489
 30
0.0
 11
6038.588313148837
 21
2403.446857236489
 31
0.0
  0
LINE
  5
199B2
330
747D
100
AcDbEntity
  8
部品1
100
AcDbLine
 10
6093.588313148834
 20
4587.446857236496
 30
0.0
 11
6093.588313148837
 21
2253.44685723649
 31
0.0
  0
LINE
  5
199B3
330
747D
100
AcDbEntity
  8
部品1
100
AcDbLine
 10
4358.588313148834
 20
4493.446857236489
 30
0.0
 11
4358.588313148834
 21
2403.446857236489
 31
0.0
  0
LINE
  5
199B4
330
747D
100
AcDbEntity
  8
部品1
100
AcDbLine
 10
3883.588313148838
 20
4587.446857236493
 30
0.0
 11
3883.588313148834
 21
2253.44685723649
 31
0.0
  0
LINE
  5
199B5
330
747D
100
AcDbEntity
  8
部品1
100
AcDbLine
 10
3938.588313148834
 20
4493.446857236489
 30
0.0
 11
3938.588313148834
 21
2403.446857236489
 31
0.0
  0
LINE
  5
199B6
330
747D
100
AcDbEntity
  8
部品1
100
AcDbLine
 10
3883.588313148834
 20
2403.446857236489
 30
0.0
 11
6093.588313148837
 21
2403.446857236489
 31
0.0
  0
LINE
  5
199B7
330
747D
100
AcDbEntity
  8
部品1
100
AcDbLine
 10
3883.588313148834
 20
4493.446857236489
 30
0.0
 11
6093.588313148837
 21
4493.446857236489
 31
0.0
  0
LINE
  5
199B8
330
747D
100
AcDbEntity
  8
部品1
100
AcDbLine
 10
5618.588313148833
 20
4493.446857236489
 30
0.0
 11
5618.588313148833
 21
2403.446857236489
 31
0.0
  0
LINE
  5
199B9
330
747D
100
AcDbEntity
  8
細線
 48
50.0
100
AcDbLine
 10
5541.088313148837
 20
4493.446857236489
 30
0.0
 11
5541.088313148837
 21
2403.446857236489
 31
0.0
  0
LINE
  5
199BA
330
747D
100
AcDbEntity
  8
細線
 48
50.0
100
AcDbLine
 10
5556.088313148837
 20
4493.446857236489
 30
0.0
 11
5556.088313148837
 21
2403.446857236489
 31
0.0
  0
LINE
  5
199BB
330
747D
100
AcDbEntity
  8
細線
 48
50.0
100
AcDbLine
 10
5416.088313148837
 20
4493.446857236489
 30
0.0
 11
5416.088313148837
 21
2403.446857236489
 31
0.0
  0
LINE
  5
199BC
330
747D
100
AcDbEntity
  8
細線
 48
50.0
100
AcDbLine
 10
5401.088313148837
 20
4493.446857236489
 30
0.0
 11
5401.088313148837
 21
2403.446857236489
 31
0.0
  0
LINE
  5
199BD
330
747D
100
AcDbEntity
  8
細線
 48
50.0
100
AcDbLine
 10
5261.088313148837
 20
4493.446857236489
 30
0.0
 11
5261.088313148837
 21
2403.446857236489
 31
0.0
  0
LINE
  5
199BE
330
747D
100
AcDbEntity
  8
細線
 48
50.0
100
AcDbLine
 10
5276.088313148837
 20
4493.446857236489
 30
0.0
 11
5276.088313148837
 21
2403.446857236489
 31
0.0
  0
LINE
  5
199BF
330
747D
100
AcDbEntity
  8
部品1
100
AcDbLine
 10
3931.088313148834
 20
2353.446857236489
 30
0.0
 11
6046.088313148834
 21
2353.446857236489
 31
0.0
  0
LINE
  5
199C0
330
747D
100
AcDbEntity
  8
部品1
100
AcDbLine
 10
6086.088313148834
 20
2353.446857236489
 30
0.0
 11
6093.588313148837
 21
2353.446857236489
 31
0.0
  0
MTEXT
  5
19A73
330
747D
100
AcDbEntity
  8
寸法
 62
     7
 48
50.0
100
AcDbMText
 10
10490.78787957923
 20
9711.073679813061
 30
0.0
 40
96.0
 41
0.0
 71
     5
 72
     1
  1
棚 3段
  7
STYLE1
 73
     1
 44
1.0
1001
ACAD
1000
MTEXTBEGIN
1070
    73
1070
     1
1070
    44
1040
1.0
1070
    74
1070
     0
1000
MTEXTEND
  0
LINE
  5
19A75
330
747D
100
AcDbEntity
  8
細線
 48
50.0
100
AcDbLine
 10
8328.185342486092
 20
4493.446857236487
 30
0.0
 11
8328.18534248609
 21
2403.446857236488
 31
0.0
  0
LINE
  5
19A76
330
747D
100
AcDbEntity
  8
細線
 48
50.0
100
AcDbLine
 10
8313.185342486091
 20
4493.446857236487
 30
0.0
 11
8313.185342486089
 21
2403.446857236488
 31
0.0
  0
LINE
  5
19A77
330
747D
100
AcDbEntity
  8
細線
 48
50.0
100
AcDbLine
 10
8453.185342486092
 20
4493.446857236487
 30
0.0
 11
8453.18534248609
 21
2403.446857236488
 31
0.0
  0
LINE
  5
19A78
330
747D
100
AcDbEntity
  8
細線
 48
50.0
100
AcDbLine
 10
8468.185342486092
 20
4493.446857236487
 30
0.0
 11
8468.185342486089
 21
2403.446857236488
 31
0.0
  0
LINE
  5
19A79
330
747D
100
AcDbEntity
  8
細線
 48
50.0
100
AcDbLine
 10
8608.185342486091
 20
4493.446857236487
 30
0.0
 11
8608.185342486089
 21
2403.446857236488
 31
0.0
  0
LINE
  5
19A7A
330
747D
100
AcDbEntity
  8
細線
 48
50.0
100
AcDbLine
 10
8593.185342486092
 20
4493.446857236487
 30
0.0
 11
8593.185342486089
 21
2403.446857236488
 31
0.0
  0
LINE
  5
19A7B
330
747D
100
AcDbEntity
  8
細線
 48
50.0
100
AcDbLine
 10
11113.1853424861
 20
4493.446857236489
 30
0.0
 11
11113.1853424861
 21
2403.446857236488
 31
0.0
  0
LINE
  5
19A7C
330
747D
100
AcDbEntity
  8
細線
 48
50.0
100
AcDbLine
 10
11128.1853424861
 20
4493.446857236489
 30
0.0
 11
11128.1853424861
 21
2403.446857236488
 31
0.0
  0
LINE
  5
19A7D
330
747D
100
AcDbEntity
  8
細線
 48
50.0
100
AcDbLine
 10
10988.1853424861
 20
4493.446857236489
 30
0.0
 11
10988.1853424861
 21
2403.446857236488
 31
0.0
  0
LINE
  5
19A7E
330
747D
100
AcDbEntity
  8
細線
 48
50.0
100
AcDbLine
 10
10973.1853424861
 20
4493.446857236489
 30
0.0
 11
10973.1853424861
 21
2403.446857236488
 31
0.0
  0
LINE
  5
19A7F
330
747D
100
AcDbEntity
  8
細線
 48
50.0
100
AcDbLine
 10
10833.1853424861
 20
4493.446857236489
 30
0.0
 11
10833.1853424861
 21
2403.446857236488
 31
0.0
  0
LINE
  5
19A80
330
747D
100
AcDbEntity
  8
細線
 48
50.0
100
AcDbLine
 10
10848.1853424861
 20
4493.446857236489
 30
0.0
 11
10848.1853424861
 21
2403.446857236488
 31
0.0
  0
LINE
  5
19A81
330
747D
100
AcDbEntity
  8
部品1
 48
50.0
100
AcDbLine
 10
11190.68534248609
 20
2403.446857236488
 30
0.0
 11
11190.68534248609
 21
4493.446857236487
 31
0.0
  0
LINE
  5
19A82
330
747D
100
AcDbEntity
  8
部品1
100
AcDbLine
 10
8670.685342486091
 20
4493.446857236487
 30
0.0
 11
8670.685342486093
 21
4488.446857236487
 31
0.0
  0
LINE
  5
19A83
330
747D
100
AcDbEntity
  8
部品1
 48
50.0
100
AcDbLine
 10
10797.68534248609
 20
4444.446857236488
 30
0.0
 11
10767.68534248609
 21
4444.446857236488
 31
0.0
  0
LINE
  5
19A84
330
747D
100
AcDbEntity
  8
部品1
 48
50.0
100
AcDbLine
 10
10797.68534248609
 20
4488.446857236487
 30
0.0
 11
8643.68534248609
 21
4488.446857236487
 31
0.0
  0
LINE
  5
19A85
330
747D
100
AcDbEntity
  8
細線
 48
50.0
100
AcDbLine
 10
10797.68534248609
 20
4478.446857236487
 30
0.0
 11
8643.68534248609
 21
4478.446857236487
 31
0.0
  0
LINE
  5
19A86
330
747D
100
AcDbEntity
  8
細線
 48
50.0
100
AcDbLine
 10
10767.68534248609
 20
4436.446857236488
 30
0.0
 11
8673.68534248609
 21
4436.446857236488
 31
0.0
  0
LINE
  5
19A87
330
747D
100
AcDbEntity
  8
細線
 48
50.0
100
AcDbLine
 10
10767.68534248609
 20
4445.946857236488
 30
0.0
 11
8673.68534248609
 21
4445.946857236488
 31
0.0
  0
LINE
  5
19A88
330
747D
100
AcDbEntity
  8
部品1
 48
50.0
100
AcDbLine
 10
8673.68534248609
 20
4444.446857236488
 30
0.0
 11
8643.68534248609
 21
4444.446857236488
 31
0.0
  0
LINE
  5
19A89
330
747D
100
AcDbEntity
  8
部品1
 48
50.0
100
AcDbLine
 10
8643.68534248609
 20
2353.446857236487
 30
0.0
 11
10797.68534248609
 21
2353.446857236487
 31
0.0
  0
LINE
  5
19A8A
330
747D
100
AcDbEntity
  8
部品1
 48
50.0
100
AcDbLine
 10
8643.68534248609
 20
2353.446857236487
 30
0.0
 11
10797.68534248609
 21
2353.446857236487
 31
0.0
  0
LINE
  5
19A8B
330
747D
100
AcDbEntity
  8
細線
 48
50.0
100
AcDbLine
 10
8673.68534248609
 20
2396.446857236488
 30
0.0
 11
10767.68534248609
 21
2396.446857236488
 31
0.0
  0
LINE
  5
19A8C
330
747D
100
AcDbEntity
  8
細線
 48
50.0
100
AcDbLine
 10
8673.68534248609
 20
2400.446857236488
 30
0.0
 11
10767.68534248609
 21
2400.446857236488
 31
0.0
  0
LINE
  5
19A8D
330
747D
100
AcDbEntity
  8
細線
 48
50.0
100
AcDbLine
 10
9477.685342486088
 20
2410.946857236488
 30
0.0
 11
10741.68534248609
 21
2410.946857236488
 31
0.0
  0
LINE
  5
19A8E
330
747D
100
AcDbEntity
  8
部品1
 48
50.0
100
AcDbLine
 10
8673.68534248609
 20
2403.446857236488
 30
0.0
 11
9477.685342486086
 21
2403.446857236484
 31
0.0
  0
LINE
  5
19A8F
330
747D
100
AcDbEntity
  8
部品1
 48
50.0
100
AcDbLine
 10
8682.68534248609
 20
2403.446857236488
 30
0.0
 11
8682.68534248609
 21
2400.446857236488
 31
0.0
  0
LINE
  5
19A90
330
747D
100
AcDbEntity
  8
細線
 48
50.0
100
AcDbLine
 10
10745.68534248609
 20
2400.446857236488
 30
0.0
 11
10741.68534248609
 21
2410.946857236488
 31
0.0
  0
LINE
  5
19AAE
330
747D
100
AcDbEntity
  8
部品1
 48
50.0
100
AcDbLine
 10
8673.68534248609
 20
2403.446857236488
 30
0.0
 11
8673.68534248609
 21
4436.446857236488
 31
0.0
  0
LINE
  5
19AAF
330
747D
100
AcDbEntity
  8
細線
 48
50.0
100
AcDbLine
 10
8673.68534248609
 20
4445.946857236488
 30
0.0
 11
8673.68534248609
 21
2353.446857236487
 31
0.0
  0
LINE
  5
19AB0
330
747D
100
AcDbEntity
  8
部品1
 48
50.0
100
AcDbLine
 10
8643.68534248609
 20
4488.446857236487
 30
0.0
 11
8643.68534248609
 21
2353.446857236487
 31
0.0
  0
LINE
  5
19AB1
330
747D
100
AcDbEntity
  8
部品1
 48
50.0
100
AcDbLine
 10
9477.685342486088
 20
4436.446857261254
 30
0.0
 11
9477.685342486088
 21
2403.446857261255
 31
0.0
  0
LINE
  5
19AB2
330
747D
100
AcDbEntity
  8
部品1
 48
50.0
100
AcDbLine
 10
10758.68534248609
 20
2400.446857236488
 30
0.0
 11
10758.68534248609
 21
4436.446857236488
 31
0.0
  0
LINE
  5
19AB3
330
747D
100
AcDbEntity
  8
細線
 48
50.0
100
AcDbLine
 10
10767.68534248609
 20
2353.446857236487
 30
0.0
 11
10767.68534248609
 21
4445.946857236488
 31
0.0
  0
LINE
  5
19AB4
330
747D
100
AcDbEntity
  8
部品1
 48
50.0
100
AcDbLine
 10
10797.68534248609
 20
2353.446857236487
 30
0.0
 11
10797.68534248609
 21
4488.446857236487
 31
0.0
  0
LINE
  5
19AB5
330
747D
100
AcDbEntity
  8
部品1
 48
50.0
100
AcDbLine
 10
10131.68533279095
 20
4436.446857273635
 30
0.0
 11
10131.68533279095
 21
2410.946857273635
 31
0.0
  0
LINE
  5
19AB6
330
747D
100
AcDbEntity
  8
細線
100
AcDbLine
 10
10254.43534248609
 20
4436.446857236488
 30
0.0
 11
10254.43534248609
 21
2410.946857236506
 31
0.0
  0
LINE
  5
19AB7
330
747D
100
AcDbEntity
  8
細線
100
AcDbLine
 10
9539.185352236334
 20
4436.446857236488
 30
0.0
 11
9539.185352236334
 21
2410.946857236499
 31
0.0
  0
LINE
  5
19AB8
330
747D
100
AcDbEntity
  8
細線
100
AcDbLine
 10
9609.185352236332
 20
4436.446857236488
 30
0.0
 11
9609.185352236332
 21
2410.946857236499
 31
0.0
  0
LINE
  5
19AB9
330
747D
100
AcDbEntity
  8
細線
100
AcDbLine
 10
8887.68534248609
 20
4436.446857236488
 30
0.0
 11
8887.685342486085
 21
2403.446857236492
 31
0.0
  0
LINE
  5
19ABA
330
747D
100
AcDbEntity
  8
細線
100
AcDbLine
 10
8957.68534248609
 20
4436.446857236488
 30
0.0
 11
8957.685342486085
 21
2403.446857236492
 31
0.0
  0
LINE
  5
19ABB
330
747D
100
AcDbEntity
  8
細線
100
AcDbLine
 10
10324.43534248609
 20
4436.446857236488
 30
0.0
 11
10324.43534248609
 21
2410.946857236506
 31
0.0
  0
LINE
  5
19ABC
330
747D
100
AcDbEntity
  8
細線
100
AcDbLine
 10
10394.43534248609
 20
4436.446857236488
 30
0.0
 11
10394.43534248609
 21
2410.946857236506
 31
0.0
  0
LINE
  5
19ABD
330
747D
100
AcDbEntity
  8
細線
100
AcDbLine
 10
10464.43534248609
 20
4436.446857236488
 30
0.0
 11
10464.43534248609
 21
2410.946857236506
 31
0.0
  0
LINE
  5
19ABE
330
747D
100
AcDbEntity
  8
細線
100
AcDbLine
 10
10534.43534248609
 20
4436.446857236488
 30
0.0
 11
10534.43534248609
 21
2410.946857236506
 31
0.0
  0
LINE
  5
19ABF
330
747D
100
AcDbEntity
  8
細線
100
AcDbLine
 10
10604.43534248609
 20
4436.446857236488
 30
0.0
 11
10604.43534248609
 21
2410.946857236506
 31
0.0
  0
LINE
  5
19AC0
330
747D
100
AcDbEntity
  8
細線
100
AcDbLine
 10
9679.185352236332
 20
4436.446857236488
 30
0.0
 11
9679.185352236332
 21
2410.946857236499
 31
0.0
  0
LINE
  5
19AC1
330
747D
100
AcDbEntity
  8
細線
100
AcDbLine
 10
9749.185352236333
 20
4436.446857236488
 30
0.0
 11
9749.185352236333
 21
2410.946857236499
 31
0.0
  0
LINE
  5
19AC2
330
747D
100
AcDbEntity
  8
細線
100
AcDbLine
 10
9819.185352236333
 20
4436.446857236488
 30
0.0
 11
9819.185352236333
 21
2410.946857236499
 31
0.0
  0
LINE
  5
19AC3
330
747D
100
AcDbEntity
  8
細線
100
AcDbLine
 10
9889.185352236333
 20
4436.446857236488
 30
0.0
 11
9889.185352236333
 21
2410.946857236499
 31
0.0
  0
LINE
  5
19AC4
330
747D
100
AcDbEntity
  8
細線
100
AcDbLine
 10
9959.185352236332
 20
4436.446857236488
 30
0.0
 11
9959.185352236332
 21
2410.946857236499
 31
0.0
  0
LINE
  5
19AC5
330
747D
100
AcDbEntity
  8
細線
100
AcDbLine
 10
10029.18535223633
 20
4436.446857236488
 30
0.0
 11
10029.18535223633
 21
2410.946857236499
 31
0.0
  0
LINE
  5
19AC6
330
747D
100
AcDbEntity
  8
細線
100
AcDbLine
 10
8801.685342486086
 20
4436.446857236488
 30
0.0
 11
8801.68534248609
 21
2403.446857236492
 31
0.0
  0
LINE
  5
19AC7
330
747D
100
AcDbEntity
  8
細線
100
AcDbLine
 10
8835.685342486085
 20
4436.446857236488
 30
0.0
 11
8835.685342486089
 21
2403.446857236492
 31
0.0
  0
LINE
  5
19AC8
330
747D
100
AcDbEntity
  8
部品1
100
AcDbLine
 10
8793.685342486085
 20
4436.446857236488
 30
0.0
 11
8793.685342486091
 21
2403.446857236492
 31
0.0
  0
LINE
  5
19AC9
330
747D
100
AcDbEntity
  8
部品1
100
AcDbLine
 10
8843.685342486086
 20
4436.446857236488
 30
0.0
 11
8843.685342486089
 21
2403.446857236492
 31
0.0
  0
LINE
  5
19ACA
330
747D
100
AcDbEntity
  8
細線
100
AcDbLine
 10
9027.685342486089
 20
4436.446857236488
 30
0.0
 11
9027.685342486085
 21
2403.446857236492
 31
0.0
  0
LINE
  5
19ACB
330
747D
100
AcDbEntity
  8
細線
100
AcDbLine
 10
9097.685342486089
 20
4436.446857236488
 30
0.0
 11
9097.685342486085
 21
2403.446857236492
 31
0.0
  0
LINE
  5
19ACC
330
747D
100
AcDbEntity
  8
細線
100
AcDbLine
 10
9167.685342486089
 20
4436.446857236488
 30
0.0
 11
9167.685342486086
 21
2403.446857236492
 31
0.0
  0
LINE
  5
19ACD
330
747D
100
AcDbEntity
  8
細線
100
AcDbLine
 10
9237.68534248609
 20
4436.446857236488
 30
0.0
 11
9237.685342486086
 21
2403.446857236492
 31
0.0
  0
LINE
  5
19ACE
330
747D
100
AcDbEntity
  8
細線
100
AcDbLine
 10
9307.68534248609
 20
4436.446857236488
 30
0.0
 11
9307.685342486086
 21
2403.446857236495
 31
0.0
  0
LINE
  5
19ACF
330
747D
100
AcDbEntity
  8
細線
100
AcDbLine
 10
9377.685342486088
 20
4436.446857236488
 30
0.0
 11
9377.685342486087
 21
2403.446857236495
 31
0.0
  0
LINE
  5
19AD0
330
747D
100
AcDbEntity
  8
部品1
100
AcDbLine
 10
10131.68533279094
 20
4436.446857273638
 30
0.0
 11
10131.68533279094
 21
2410.946857273653
 31
0.0
  0
LINE
  5
19AD1
330
747D
100
AcDbEntity
  8
部品1
 48
50.0
100
AcDbLine
 10
9477.685342486088
 20
4436.446857261254
 30
0.0
 11
9477.685342486086
 21
2403.446857236484
 31
0.0
  0
DIMENSION
  5
19AD2
330
747D
100
AcDbEntity
  8
寸法
100
AcDbDimension
  2
*D4
 10
7287.045960556735
 20
2253.44685723649
 30
0.0
 11
7287.045960556735
 21
2017.399613141999
 31
0.0
 70
   160
 71
     5
 42
100.0
  3
INABA_S40G
100
AcDbAlignedDimension
 13
8140.685342486092
 23
2353.446857236489
 33
0.0
 14
7572.032633327795
 24
2253.44685723649
 34
0.0
 50
90.0
100
AcDbRotatedDimension
1001
ACAD
1000
DSTYLE
1002
{
1070
   174
1070
     0
1070
   272
1070
     1
1070
   288
1070
     0
1070
   341
1005
0
1002
}
  0
DIMENSION
  5
19AD3
330
747D
100
AcDbEntity
  8
寸法
100
AcDbDimension
  2
*D5
 10
7572.032633327797
 20
2353.446857236489
 30
0.0
 11
7572.032633327795
 21
2047.399613141999
 31
0.0
 70
   160
 71
     5
 42
50.0
  3
INABA_S40G
100
AcDbAlignedDimension
 13
8195.685342486092
 23
2403.446857236489
 33
0.0
 14
8140.685342486092
 24
2353.446857236489
 34
0.0
 50
90.0
100
AcDbRotatedDimension
1001
ACAD
1000
DSTYLE
1002
{
1070
   174
1070
     0
1070
   272
1070
     1
1070
   288
1070
     0
1070
   341
1005
0
1002
}
  0
DIMENSION
  5
19AD4
330
747D
100
AcDbEntity
  8
寸法
100
AcDbDimension
  2
*D6
 10
7572.032633327797
 20
2403.446857236489
 30
0.0
 11
7572.032633327797
 21
3423.946857236489
 31
0.0
 70
   160
 71
     5
 42
2090.0
  3
INABA_S40G
100
AcDbAlignedDimension
 13
8195.685342486092
 23
4493.446857236489
 33
0.0
 14
8195.685342486092
 24
2403.446857236489
 34
0.0
 50
90.0
100
AcDbRotatedDimension
1001
ACAD
1000
DSTYLE
1002
{
1070
   174
1070
     0
1070
   272
1070
     1
1070
   288
1070
     0
1070
   341
1005
0
1002
}
  0
DIMENSION
  5
19AD5
330
747D
100
AcDbEntity
  8
寸法
100
AcDbDimension
  2
*D7
 10
7287.045960556736
 20
4728.446857236493
 30
0.0
 11
7287.045960556735
 21
3423.946857236489
 31
0.0
 70
   160
 71
     5
 42
2375.000000000003
  3
INABA_S40G
100
AcDbAlignedDimension
 13
8195.685342486092
 23
2353.446857236489
 33
0.0
 14
8135.685342486093
 24
4728.446857236493
 34
0.0
 50
90.0
100
AcDbRotatedDimension
1001
ACAD
1000
DSTYLE
1002
{
1070
   174
1070
     0
1070
   272
1070
     1
1070
   288
1070
     0
1070
   341
1005
0
1002
}
  0
DIMENSION
  5
19AD6
330
747D
100
AcDbEntity
  8
寸法
 48
50.0
100
AcDbDimension
  2
*D8
 10
7575.076935717728
 20
4602.792116109817
 30
0.0
 11
7585.742410976651
 21
4973.638779351528
 31
0.0
 70
   161
 71
     5
 42
141.0000000000018
  3
INABA_S40G
100
AcDbAlignedDimension
 13
8155.081362644672
 23
4727.169606071169
 33
0.0
 14
8151.027907088046
 24
4586.227882305455
 34
0.0
1001
ACAD
1000
DSTYLE
1002
{
1070
   174
1070
     0
1070
   272
1070
     1
1070
   288
1070
     0
1070
   341
1005
0
1002
}
  0
DIMENSION
  5
19AD7
330
747D
100
AcDbEntity
  8
寸法
 48
50.0
100
AcDbDimension
  2
*D9
 10
7903.212652906704
 20
2411.446857236488
 30
0.0
 11
7903.212652906704
 21
3423.946857236489
 31
0.0
 70
   160
  1
有効開口部高サ<>
 71
     5
 42
2025.000000000002
  3
INABA_S40G
100
AcDbAlignedDimension
 13
8643.685342486094
 23
4436.446857236489
 33
0.0
 14
8643.685342486094
 24
2411.446857236488
 34
0.0
 50
90.0
100
AcDbRotatedDimension
  0
LINE
  5
19AD8
330
747D
100
AcDbEntity
  8
細線
 48
50.0
100
AcDbLine
 10
11292.65462567978
 20
4672.60027971596
 30
0.0
 11
11287.93765959809
 21
4547.668063781044
 31
0.0
  0
LINE
  5
19AD9
330
747D
100
AcDbEntity
  8
部品1
 48
50.0
100
AcDbLine
 10
11324.8992452968
 20
4664.388009510711
 30
0.0
 11
11322.86862410583
 21
4644.44296825293
 31
0.0
  0
LINE
  5
19ADA
330
747D
100
AcDbEntity
  8
部品1
 48
50.0
100
AcDbLine
 10
11319.51605762134
 20
4641.132334180022
 30
0.0
 11
11312.00927835651
 21
4567.39971343501
 31
0.0
  0
LINE
  5
19ADB
330
747D
100
AcDbEntity
  8
部品1
 48
50.0
100
AcDbLine
 10
11308.65671187202
 20
4564.089079362097
 30
0.0
 11
11307.57714883228
 21
4553.485462368539
 31
0.0
  0
ARC
  5
19ADC
330
747D
100
AcDbEntity
  8
部品1
 48
50.0
100
AcDbCircle
 10
11317.93524473204
 20
4665.097020183486
 30
0.0
 40
7.0
100
AcDbArc
 50
354.1866997665532
 51
87.03587545283228
  0
ARC
  5
19ADD
330
747D
100
AcDbEntity
  8
部品1
 48
50.0
100
AcDbCircle
 10
11300.61314826752
 20
4554.194473041312
 30
0.0
 40
7.0
100
AcDbArc
 50
267.8377559869492
 51
354.1866997665532
  0
ARC
  5
19ADE
330
747D
100
AcDbEntity
  8
部品1
100
AcDbCircle
 10
11311.64128354263
 20
4563.785217645194
 30
0.0
 40
3.0
100
AcDbArc
 50
95.09216976420788
 51
174.1866997665532
  0
ARC
  5
19ADF
330
747D
100
AcDbEntity
  8
部品1
100
AcDbCircle
 10
11322.50062929196
 20
4640.828472463119
 30
0.0
 40
3.0
100
AcDbArc
 50
95.09216976420788
 51
174.1866997665532
  0
ARC
  5
19AE0
330
747D
100
AcDbEntity
  8
部品1
100
AcDbCircle
 10
11322.17222404935
 20
4644.513869320208
 30
0.0
 40
0.7
100
AcDbArc
 50
275.0921697642079
 51
354.1866997665532
  0
ARC
  5
19AE1
330
747D
100
AcDbEntity
  8
部品1
100
AcDbCircle
 10
11311.31287830003
 20
4567.470614502284
 30
0.0
 40
0.7
100
AcDbArc
 50
275.0921697642079
 51
354.1866997667087
  0
LINE
  5
19AE2
330
747D
100
AcDbEntity
  8
細線
 48
50.0
100
AcDbLine
 10
8168.685342486092
 20
4725.846533611897
 30
0.0
 11
8163.396240930586
 21
4585.760900984541
 31
0.0
  0
LINE
  5
19AE3
330
747D
100
AcDbEntity
  8
部品1
 48
50.0
100
AcDbLine
 10
8135.869628399198
 20
4720.040403401184
 30
0.0
 11
8136.249888177012
 21
4700.113438954773
 31
0.0
  0
LINE
  5
19AE4
330
747D
100
AcDbEntity
  8
部品1
 48
50.0
100
AcDbLine
 10
8139.318660283256
 20
4696.5381574613
 30
0.0
 11
8141.022561774622
 21
4607.247660754652
 31
0.0
  0
LINE
  5
19AE5
330
747D
100
AcDbEntity
  8
部品1
 48
50.0
100
AcDbLine
 10
8144.091333880863
 20
4603.672379261181
 30
0.0
 11
8144.293286501294
 21
4593.089343868089
 31
0.0
  0
ARC
  5
19AE6
330
747D
100
AcDbEntity
  8
部品1
 48
50.0
100
AcDbCircle
 10
8142.868354227539
 20
4720.173957808612
 30
0.0
 40
7.0
100
AcDbArc
 50
87.03587545283228
 51
181.0932240293156
  0
ARC
  5
19AE7
330
747D
100
AcDbEntity
  8
部品1
 48
50.0
100
AcDbCircle
 10
8151.292012329635
 20
4593.222898275516
 30
0.0
 40
7.0
100
AcDbArc
 50
181.0932240293156
 51
267.8377559869492
  0
ARC
  5
19AE8
330
747D
100
AcDbEntity
  8
部品1
100
AcDbCircle
 10
8141.091879954435
 20
4603.615141657997
 30
0.0
 40
3.0
100
AcDbArc
 50
1.093224029315636
 51
80.18775403169875
  0
ARC
  5
19AE9
330
747D
100
AcDbEntity
  8
部品1
100
AcDbCircle
 10
8136.319206356828
 20
4696.480919858116
 30
0.0
 40
3.0
100
AcDbArc
 50
1.093224029315636
 51
80.18775403169875
  0
ARC
  5
19AEA
330
747D
100
AcDbEntity
  8
部品1
100
AcDbCircle
 10
8136.949760759851
 20
4700.126794395513
 30
0.0
 40
0.7
100
AcDbArc
 50
181.0932240292114
 51
260.1877540314845
  0
ARC
  5
19AEB
330
747D
100
AcDbEntity
  8
部品1
100
AcDbCircle
 10
8141.722434357459
 20
4607.261016195396
 30
0.0
 40
0.7
100
AcDbArc
 50
181.0932240292635
 51
260.1877540314845
  0
LINE
  5
19AEC
330
747D
100
AcDbEntity
  8
部品1
100
AcDbLine
 10
8143.230328843056
 20
4727.164592570757
 30
0.0
 11
11318.29721934756
 21
4672.08765494563
 31
0.0
  0
LINE
  5
19AED
330
747D
100
AcDbEntity
  8
部品1
100
AcDbLine
 10
8151.027907088046
 20
4586.227882305458
 30
0.0
 11
11300.34904302594
 21
4547.199457071252
 31
0.0
  0
LINE
  5
19AEE
330
747D
100
AcDbEntity
  8
細線
 48
50.0
100
AcDbLine
 10
8136.724765586906
 20
4699.463939077854
 30
0.0
 11
11322.36075033208
 21
4643.839734437024
 31
0.0
  0
LINE
  5
19AEF
330
747D
100
AcDbEntity
  8
細線
 48
50.0
100
AcDbLine
 10
8141.485240824193
 20
4606.602427379988
 30
0.0
 11
11311.48890525483
 21
4566.793108405496
 31
0.0
  0
TEXT
  5
19AF0
330
747D
100
AcDbEntity
  8
部品1
 48
50.0
100
AcDbText
 10
10065.55448654146
 20
4750.715950174799
 30
0.0
 40
120.0
  1
32
 50
90.0
  7
STYLE1
100
AcDbText
  0
TEXT
  5
19AF1
330
747D
100
AcDbEntity
  8
部品1
 48
50.0
100
AcDbText
 10
9587.921463876369
 20
4888.217208393082
 30
0.0
 40
120.0
  1
1000
  7
STYLE1
100
AcDbText
  0
LINE
  5
19AF2
330
747D
100
AcDbEntity
  8
部品1
 48
50.0
100
AcDbLine
 10
9899.653628652643
 20
4852.333186240649
 30
0.0
 11
9899.653628652643
 21
4836.133186240648
 31
0.0
  0
LINE
  5
19AF3
330
747D
100
AcDbEntity
  8
部品1
 48
50.0
100
AcDbLine
 10
9599.653628652642
 20
4852.333186240649
 30
0.0
 11
9899.653628652643
 21
4852.333186240649
 31
0.0
  0
LINE
  5
19AF4
330
747D
100
AcDbEntity
  8
部品1
100
AcDbLine
 10
9574.198615009605
 20
4853.651245199509
 30
0.0
 11
9899.653628652643
 21
4836.133186240648
 31
0.0
  0
DIMENSION
  5
19AF5
330
747D
100
AcDbEntity
  8
寸法
 48
50.0
100
AcDbDimension
  2
*D10
 10
7575.076935717721
 20
4602.792116109823
 30
0.0
 11
7585.742410976646
 21
4973.638779351521
 31
0.0
 70
   161
 71
     5
 42
141.0
  3
INABA_S40G
100
AcDbAlignedDimension
 13
8155.081362644672
 23
4727.16960607117
 33
0.0
 14
8151.027907088046
 24
4586.227882305458
 34
0.0
1001
ACAD
1000
DSTYLE
1002
{
1070
   174
1070
     0
1070
   272
1070
     1
1070
   288
1070
     0
1070
   341
1005
0
1002
}
  0
DIMENSION
  5
19AF6
330
747D
100
AcDbEntity
  8
寸法
 48
50.0
100
AcDbDimension
  2
*D11
 10
8135.685342486093
 20
5127.104310815795
 30
0.0
 11
7826.047547210503
 21
5127.104310815795
 31
0.0
 70
   160
 71
     5
 42
60.0
  3
INABA_S40G
100
AcDbAlignedDimension
 13
8195.685342486092
 23
4724.448475359468
 33
0.0
 14
8135.685342486093
 24
4728.446857236496
 34
0.0
100
AcDbRotatedDimension
1001
ACAD
1000
DSTYLE
1002
{
1070
   174
1070
     0
1070
   272
1070
     1
1070
   288
1070
     0
1070
   341
1005
0
1002
}
  0
DIMENSION
  5
19AF7
330
747D
100
AcDbEntity
  8
寸法
 48
50.0
100
AcDbDimension
  2
*D12
 10
11325.68534248609
 20
5127.104310815798
 30
0.0
 11
11531.73258658058
 21
5127.104310815798
 31
0.0
 70
   160
 71
     5
 42
80.0
  3
INABA_S40G
100
AcDbAlignedDimension
 13
11245.68534248609
 23
4675.257536848146
 33
0.0
 14
11325.68534248609
 24
4673.446857236495
 34
0.0
100
AcDbRotatedDimension
1001
ACAD
1000
DSTYLE
1002
{
1070
   174
1070
     0
1070
   272
1070
     1
1070
   288
1070
     0
1070
   341
1005
0
1002
}
  0
DIMENSION
  5
19AF8
330
747D
100
AcDbEntity
  8
寸法
 48
50.0
100
AcDbDimension
  2
*D13
 10
8135.685342486093
 20
5357.217903602073
 30
0.0
 11
9807.391148795618
 21
5357.217903602073
 31
0.0
 70
   160
 71
     5
 42
3189.999999999996
  3
INABA_S40G
100
AcDbAlignedDimension
 13
11325.68534248609
 23
4673.446857236493
 33
0.0
 14
8135.685342486093
 24
4728.446857236496
 34
0.0
100
AcDbRotatedDimension
1001
ACAD
1000
DSTYLE
1002
{
1070
   174
1070
     0
1070
   272
1070
     1
1070
   288
1070
     0
1070
   341
1005
0
1002
}
  0
DIMENSION
  5
19AF9
330
747D
100
AcDbEntity
  8
寸法
 48
50.0
100
AcDbDimension
  2
*D14
 10
8195.685342486092
 20
5127.104310815798
 30
0.0
 11
9765.743717045506
 21
5127.104310815798
 31
0.0
 70
   160
  1
柱外寸法<>
 71
     5
 42
3049.999999999997
  3
INABA_S40G
100
AcDbAlignedDimension
 13
11245.68534248609
 23
4675.257536848146
 33
0.0
 14
8195.685342486092
 24
4724.448475359468
 34
0.0
100
AcDbRotatedDimension
1001
ACAD
1000
DSTYLE
1002
{
1070
   174
1070
     0
1070
   272
1070
     1
1070
   288
1070
     0
1070
   341
1005
0
1002
}
  0
TEXT
  5
19AFA
330
747D
100
AcDbEntity
  8
文字
 62
     7
 48
50.0
100
AcDbText
 10
13209.4053442172
 20
228.543524256902
 30
0.0
 40
100.0
  1
○有効開口寸法 ： 1266×2025(mm)
  7
STYLE2
100
AcDbText
  0
TEXT
  5
19AFB
330
747D
100
AcDbEntity
  8
文字
 62
     7
 48
50.0
100
AcDbText
 10
14491.96323844892
 20
483.8967129911416
 30
0.0
 40
160.0
  1
ＮＸＮ－６５ＨＢ
  7
STYLE2
100
AcDbText
  0
LINE
  5
19AFC
330
747D
100
AcDbEntity
  8
部品1
100
AcDbLine
 10
11190.68534248609
 20
10124.83886161577
 30
0.0
 11
11190.68534248609
 21
10096.83886161577
 31
0.0
  0
LINE
  5
19AFD
330
747D
100
AcDbEntity
  8
部品1
100
AcDbLine
 10
11190.68534248609
 20
10124.83886161575
 30
0.0
 11
11190.68534248609
 21
10096.83886161575
 31
0.0
  0
LINE
  5
19AFE
330
747D
100
AcDbEntity
  8
部品1
100
AcDbLine
 10
11217.68534248609
 20
10069.83886161575
 30
0.0
 11
11245.68534248608
 21
10069.83886161575
 31
0.0
  0
LINE
  5
19AFF
330
747D
100
AcDbEntity
  8
部品1
100
AcDbLine
 10
10770.68534248605
 20
10124.83886161562
 30
0.0
 11
10770.68534248605
 21
10096.83886161562
 31
0.0
  0
LINE
  5
19B00
330
747D
100
AcDbEntity
  8
部品1
100
AcDbLine
 10
11217.68534248609
 20
9649.83886161575
 30
0.0
 11
11245.68534248608
 21
9649.83886161575
 31
0.0
  0
LINE
  5
19B01
330
747D
100
AcDbEntity
  8
部品1
100
AcDbLine
 10
11217.68534248609
 20
10096.83886161575
 30
0.0
 11
11217.68534248608
 21
9644.338861615628
 31
0.0
  0
LINE
  5
19B02
330
747D
100
AcDbEntity
  8
部品1
100
AcDbLine
 10
11217.18534248609
 20
10094.83886161575
 30
0.0
 11
11217.18534248609
 21
9644.838861615751
 31
0.0
  0
DIMENSION
  5
19B03
330
747D
100
AcDbEntity
  8
寸法
100
AcDbDimension
  2
*D15
 10
11645.68534248608
 20
9530.022632659015
 30
0.0
 11
11645.68534248608
 21
9755.022632659017
 31
0.0
 70
   160
 71
     5
 42
450.0
  3
INABA_S40G
100
AcDbAlignedDimension
 13
11217.18534248609
 23
10094.83886161575
 33
0.0
 14
11217.18534248609
 24
9644.838861615751
 34
0.0
 50
90.0
100
AcDbRotatedDimension
1001
ACAD
1000
DSTYLE
1002
{
1002
}
  0
DIMENSION
  5
19B04
330
747D
100
AcDbEntity
  8
寸法
100
AcDbDimension
  2
*D16
 10
11245.68534248608
 20
10424.83886161575
 30
0.0
 11
11554.17062386032
 21
10424.83886161575
 31
0.0
 70
   160
 71
     5
 42
55.0
  3
INABA_S40G
100
AcDbAlignedDimension
 13
11190.68534248609
 23
10124.83886161575
 33
0.0
 14
11245.68534248608
 24
10124.83886161575
 34
0.0
100
AcDbRotatedDimension
1001
ACAD
1000
DSTYLE
1002
{
1002
}
  0
DIMENSION
  5
19B05
330
747D
100
AcDbEntity
  8
寸法
100
AcDbDimension
  2
*D17
 10
11945.68534248609
 20
10069.83886161575
 30
0.0
 11
11945.68534248608
 21
10433.32414298999
 31
0.0
 70
   160
 71
     5
 42
55.0
  3
INABA_S40G
100
AcDbAlignedDimension
 13
11245.68534248608
 23
10124.83886161575
 33
0.0
 14
11245.68534248608
 24
10069.83886161575
 34
0.0
 50
90.0
100
AcDbRotatedDimension
1001
ACAD
1000
DSTYLE
1002
{
1002
}
  0
LINE
  5
19B06
330
747D
100
AcDbEntity
  8
部品1
100
AcDbLine
 10
11217.68534248609
 20
9229.838861615752
 30
0.0
 11
11245.68534248608
 21
9229.838861615752
 31
0.0
  0
LINE
  5
19B07
330
747D
100
AcDbEntity
  8
部品1
100
AcDbLine
 10
11217.68534248606
 20
7969.838861615738
 30
0.0
 11
11245.68534248606
 21
7969.838861615738
 31
0.0
  0
LINE
  5
19B08
330
747D
100
AcDbEntity
  8
部品1
100
AcDbLine
 10
11245.68534248606
 20
7914.838861615741
 30
0.0
 11
11194.68534248606
 21
7914.838861615741
 31
0.0
  0
LINE
  5
19B09
330
747D
100
AcDbEntity
  8
部品1
 48
50.0
100
AcDbLine
 10
11189.18534248608
 20
7971.338861615741
 30
0.0
 11
11217.68534248608
 21
7942.83886161574
 31
0.0
  0
LINE
  5
19B0A
330
747D
100
AcDbEntity
  8
部品1
100
AcDbLine
 10
11245.68534248606
 20
7969.838861615738
 30
0.0
 11
11245.68534248606
 21
7914.838861615741
 31
0.0
  0
LINE
  5
19B0B
330
747D
100
AcDbEntity
  8
部品1
100
AcDbLine
 10
11217.68534248609
 20
7969.838861615738
 30
0.0
 11
11245.68534248608
 21
7969.838861615738
 31
0.0
  0
LINE
  5
19B0C
330
747D
100
AcDbEntity
  8
部品1
100
AcDbLine
 10
11190.68534248609
 20
7914.838861615741
 30
0.0
 11
11190.68534248609
 21
7942.83886161574
 31
0.0
  0
LINE
  5
19B0D
330
747D
100
AcDbEntity
  8
部品1
100
AcDbLine
 10
10770.68534248609
 20
7914.838861615741
 30
0.0
 11
10770.68534248609
 21
7942.83886161574
 31
0.0
  0
LINE
  5
19B0F
330
747D
100
AcDbEntity
  8
部品1
100
AcDbLine
 10
11245.68534248606
 20
7914.838861615741
 30
0.0
 11
10770.68534248609
 21
7914.838861615726
 31
0.0
  0
DIMENSION
  5
19B10
330
747D
100
AcDbEntity
  8
寸法
100
AcDbDimension
  2
*D18
 10
11945.68534248606
 20
7914.838861615741
 30
0.0
 11
11945.68534248606
 21
7606.3535802415
 31
0.0
 70
   160
 71
     5
 42
54.99999999999636
  3
INABA_S40G
100
AcDbAlignedDimension
 13
11245.68534248606
 23
7969.838861615738
 33
0.0
 14
11245.68534248606
 24
7914.838861615741
 34
0.0
 50
90.0
100
AcDbRotatedDimension
1001
ACAD
1000
DSTYLE
1002
{
1002
}
  0
DIMENSION
  5
19B11
330
747D
100
AcDbEntity
  8
寸法
100
AcDbDimension
  2
*D19
 10
12245.68534248608
 20
7914.838861615741
 30
0.0
 11
12245.68534248608
 21
9019.838861615744
 31
0.0
 70
   160
 71
     5
 42
2210.000000000008
  3
INABA_S40G
100
AcDbAlignedDimension
 13
11245.68534248608
 23
10124.83886161575
 33
0.0
 14
11245.68534248606
 24
7914.838861615741
 34
0.0
 50
90.0
100
AcDbRotatedDimension
1001
ACAD
1000
DSTYLE
1002
{
1002
}
  0
LINE
  5
19B12
330
747D
100
AcDbEntity
  8
破線
 48
10.0
100
AcDbLine
 10
11165.68534248608
 20
9644.838861615751
 30
0.0
 11
11165.68534248609
 21
7994.838861615737
 31
0.0
  0
DIMENSION
  5
19B13
330
747D
100
AcDbEntity
  8
寸法
100
AcDbDimension
  2
*D20
 10
11945.68534248608
 20
7969.838861615738
 30
0.0
 11
11945.68534248607
 21
9019.838861615744
 31
0.0
 70
   160
  1
5X420=<>
 71
     5
 42
2100.000000000012
  3
INABA_S40G
100
AcDbAlignedDimension
 13
11245.68534248608
 23
10069.83886161575
 33
0.0
 14
11245.68534248606
 24
7969.838861615738
 34
0.0
 50
90.0
100
AcDbRotatedDimension
1001
ACAD
1000
DSTYLE
1002
{
1002
}
  0
LINE
  5
19B14
330
747D
100
AcDbEntity
  8
部品1
100
AcDbLine
 10
11245.68534248608
 20
10124.83886161575
 30
0.0
 11
11245.68534248606
 21
7914.838861615741
 31
0.0
  0
LINE
  5
19B15
330
747D
100
AcDbEntity
  8
部品1
100
AcDbLine
 10
11189.18534248608
 20
9644.838861615751
 30
0.0
 11
11189.18534248608
 21
7971.338861615741
 31
0.0
  0
LINE
  5
19B16
330
747D
100
AcDbEntity
  8
部品1
100
AcDbLine
 10
11217.68534248608
 20
9649.83886161575
 30
0.0
 11
11217.68534248606
 21
7942.83886161574
 31
0.0
  0
LINE
  5
19B17
330
747D
100
AcDbEntity
  8
部品1
100
AcDbLine
 10
10350.68534248605
 20
10124.83886161562
 30
0.0
 11
10350.68534248605
 21
10096.83886161562
 31
0.0
  0
LINE
  5
19B18
330
747D
100
AcDbEntity
  8
部品1
100
AcDbLine
 10
9930.685342486054
 20
10124.83886161562
 30
0.0
 11
9930.685342486054
 21
10096.83886161562
 31
0.0
  0
LINE
  5
19B19
330
747D
100
AcDbEntity
  8
部品1
100
AcDbLine
 10
9685.685342486086
 20
10114.83886161576
 30
0.0
 11
9685.685342486086
 21
10096.83886161576
 31
0.0
  0
LINE
  5
19B1A
330
747D
100
AcDbEntity
  8
部品1
100
AcDbLine
 10
9685.685342486086
 20
10114.83886161576
 30
0.0
 11
9691.685342486087
 21
10114.83886161576
 31
0.0
  0
LINE
  5
19B1B
330
747D
100
AcDbEntity
  8
部品1
100
AcDbLine
 10
9755.685342486087
 20
10114.83886161576
 30
0.0
 11
9755.685342486087
 21
10096.83886161576
 31
0.0
  0
LINE
  5
19B1C
330
747D
100
AcDbEntity
  8
部品1
100
AcDbLine
 10
9749.685342486086
 20
10114.83886161576
 30
0.0
 11
9755.685342486087
 21
10114.83886161576
 31
0.0
  0
LINE
  5
19B1D
330
747D
100
AcDbEntity
  8
部品1
100
AcDbLine
 10
9708.185342486086
 20
10088.83886161575
 30
0.0
 11
9733.185342486086
 21
10088.83886161576
 31
0.0
  0
LINE
  5
19B1E
330
747D
100
AcDbEntity
  8
部品1
100
AcDbLine
 10
9510.685342486054
 20
10124.83886161562
 30
0.0
 11
9510.685342486054
 21
10096.83886161562
 31
0.0
  0
LINE
  5
19B1F
330
747D
100
AcDbEntity
  8
部品1
100
AcDbLine
 10
9708.185342486086
 20
9644.838861615758
 30
0.0
 11
9733.185342486086
 21
9644.838861615758
 31
0.0
  0
LINE
  5
19B20
330
747D
100
AcDbEntity
  8
部品1
 48
50.0
100
AcDbLine
 10
9707.185342486086
 20
10094.83886161576
 30
0.0
 11
9707.185342486086
 21
9644.838861615758
 31
0.0
  0
LINE
  5
19B21
330
747D
100
AcDbEntity
  8
部品1
 48
50.0
100
AcDbLine
 10
9734.185342486085
 20
10094.83886161575
 30
0.0
 11
9734.185342486085
 21
9644.838861615758
 31
0.0
  0
LINE
  5
19B22
330
747D
100
AcDbEntity
  8
部品1
 48
50.0
100
AcDbLine
 10
9708.185342486086
 20
10096.83886161576
 30
0.0
 11
9708.185342486086
 21
9644.838861615758
 31
0.0
  0
LINE
  5
19B23
330
747D
100
AcDbEntity
  8
部品1
 48
50.0
100
AcDbLine
 10
9733.185342486086
 20
10096.83886161576
 30
0.0
 11
9733.185342486086
 21
9644.838861615758
 31
0.0
  0
LINE
  5
19B24
330
747D
100
AcDbEntity
  8
部品1
100
AcDbLine
 10
9090.685342486052
 20
10124.83886161562
 30
0.0
 11
9090.685342486052
 21
10096.83886161562
 31
0.0
  0
LINE
  5
19B25
330
747D
100
AcDbEntity
  8
部品1
100
AcDbLine
 10
8670.685342486052
 20
10124.83886161562
 30
0.0
 11
8670.685342486052
 21
10096.83886161562
 31
0.0
  0
LINE
  5
19B26
330
747D
100
AcDbEntity
  8
部品1
100
AcDbLine
 10
8250.685342486086
 20
10124.83886161565
 30
0.0
 11
8250.685342486086
 21
10096.83886161565
 31
0.0
  0
LINE
  5
19B27
330
747D
100
AcDbEntity
  8
部品1
100
AcDbLine
 10
8250.685342486052
 20
10124.83886161562
 30
0.0
 11
8250.685342486052
 21
10096.83886161562
 31
0.0
  0
LINE
  5
19B28
330
747D
100
AcDbEntity
  8
部品1
100
AcDbLine
 10
8223.685342486053
 20
10069.83886161562
 30
0.0
 11
8195.685342486052
 21
10069.83886161562
 31
0.0
  0
LINE
  5
19B29
330
747D
100
AcDbEntity
  8
部品1
100
AcDbLine
 10
8223.68534248606
 20
9649.838861615627
 30
0.0
 11
8195.68534248606
 21
9649.838861615627
 31
0.0
  0
LINE
  5
19B2A
330
747D
100
AcDbEntity
  8
部品1
 48
50.0
100
AcDbLine
 10
8224.185342486016
 20
10094.83886161576
 30
0.0
 11
8224.185342486016
 21
9644.838861615758
 31
0.0
  0
LINE
  5
19B2B
330
747D
100
AcDbEntity
  8
部品1
100
AcDbLine
 10
8223.685342486078
 20
9644.338861615628
 30
0.0
 11
8223.685342486085
 21
10096.83886161565
 31
0.0
  0
LINE
  5
19B2C
330
747D
100
AcDbEntity
  8
部品1
100
AcDbLine
 10
8223.685342486085
 20
10096.83886161565
 30
0.0
 11
9195.685342486084
 21
10096.83886161565
 31
0.0
  0
LINE
  5
19B2D
330
747D
100
AcDbEntity
  8
細線
 48
50.0
100
AcDbLine
 10
9707.185342486086
 20
9644.838861615758
 30
0.0
 11
8224.185342486016
 21
10094.8388616157
 31
0.0
  0
LINE
  5
19B2E
330
747D
100
AcDbEntity
  8
細線
 48
50.0
100
AcDbLine
 10
9707.185342486086
 20
10094.83886161576
 30
0.0
 11
8224.185342486016
 21
9644.838861615703
 31
0.0
  0
LINE
  5
19B2F
330
747D
100
AcDbEntity
  8
部品1
100
AcDbLine
 10
8250.685342486086
 20
10096.83886161577
 30
0.0
 11
9708.185342486086
 21
10096.83886161577
 31
0.0
  0
LINE
  5
19B30
330
747D
100
AcDbEntity
  8
部品1
100
AcDbLine
 10
8224.185342486016
 20
10094.8388616157
 30
0.0
 11
9707.185342486086
 21
10094.83886161576
 31
0.0
  0
LINE
  5
19B31
330
747D
100
AcDbEntity
  8
部品1
100
AcDbLine
 10
8224.185342486016
 20
9644.838861615699
 30
0.0
 11
9707.185342486086
 21
9644.838861615758
 31
0.0
  0
LINE
  5
19B32
330
747D
100
AcDbEntity
  8
破線
 48
10.0
100
AcDbLine
 10
10423.18534248606
 20
7994.838861615666
 30
0.0
 11
9745.685342486064
 21
7994.838861615654
 31
0.0
  0
LINE
  5
19B33
330
747D
100
AcDbEntity
  8
部品1
100
AcDbLine
 10
8670.685342486056
 20
7914.838861615741
 30
0.0
 11
8670.685342486056
 21
7942.83886161574
 31
0.0
  0
LINE
  5
19B35
330
747D
100
AcDbEntity
  8
部品1
100
AcDbLine
 10
8223.68534248606
 20
9229.838861615624
 30
0.0
 11
8195.68534248606
 21
9229.838861615624
 31
0.0
  0
LINE
  5
19B36
330
747D
100
AcDbEntity
  8
部品1
100
AcDbLine
 10
8195.685342486077
 20
7969.838861615574
 30
0.0
 11
8195.685342486079
 21
7914.838861615577
 31
0.0
  0
LINE
  5
19B37
330
747D
100
AcDbEntity
  8
部品1
100
AcDbLine
 10
8223.685342486078
 20
7969.838861615625
 30
0.0
 11
8195.685342486077
 21
7969.838861615625
 31
0.0
  0
LINE
  5
19B38
330
747D
100
AcDbEntity
  8
部品1
100
AcDbLine
 10
8223.685342486062
 20
7969.83886161561
 30
0.0
 11
8195.685342486077
 21
7969.83886161561
 31
0.0
  0
LINE
  5
19B39
330
747D
100
AcDbEntity
  8
部品1
100
AcDbLine
 10
8223.685342486062
 20
7969.838861615574
 30
0.0
 11
8195.685342486077
 21
7969.838861615574
 31
0.0
  0
LINE
  5
19B3A
330
747D
100
AcDbEntity
  8
部品1
 48
50.0
100
AcDbLine
 10
8252.185342486075
 20
7971.338861615717
 30
0.0
 11
8223.685342486078
 21
7942.838861615719
 31
0.0
  0
LINE
  5
19B3B
330
747D
100
AcDbEntity
  8
部品1
100
AcDbLine
 10
8250.685342486056
 20
7914.838861615741
 30
0.0
 11
8250.685342486056
 21
7942.83886161574
 31
0.0
  0
LINE
  5
19B3C
330
747D
100
AcDbEntity
  8
部品1
100
AcDbLine
 10
8670.685342486057
 20
7914.83886161561
 30
0.0
 11
8195.685342486079
 21
7914.83886161561
 31
0.0
  0
LINE
  5
19B3D
330
747D
100
AcDbEntity
  8
破線
 48
10.0
100
AcDbLine
 10
8968.185342486064
 20
7994.838861615609
 30
0.0
 11
8275.685342486074
 21
7994.838861615621
 31
0.0
  0
LINE
  5
19B3E
330
747D
100
AcDbEntity
  8
破線
 48
10.0
100
AcDbLine
 10
9695.685342486065
 20
7994.838861615652
 30
0.0
 11
9018.185342486061
 21
7994.838861615628
 31
0.0
  0
LINE
  5
19B3F
330
747D
100
AcDbEntity
  8
破線
 48
10.0
100
AcDbLine
 10
8275.685342486061
 20
9644.838861615751
 30
0.0
 11
8275.685342486076
 21
7994.838861615621
 31
0.0
  0
LINE
  5
19B40
330
747D
100
AcDbEntity
  8
部品1
100
AcDbLine
 10
8223.68534248606
 20
7942.838861615701
 30
0.0
 11
8223.685342486078
 21
9649.838861615627
 31
0.0
  0
LINE
  5
19B41
330
747D
100
AcDbEntity
  8
部品1
100
AcDbLine
 10
8195.685342486052
 20
10124.83886161562
 30
0.0
 11
8195.685342486079
 21
7914.83886161561
 31
0.0
  0
LINE
  5
19B42
330
747D
100
AcDbEntity
  8
破線
 48
10.0
100
AcDbLine
 10
9695.685342486065
 20
7971.338861615651
 30
0.0
 11
9695.685342486058
 21
9644.838861615758
 31
0.0
  0
LINE
  5
19B43
330
747D
100
AcDbEntity
  8
破線
 48
10.0
100
AcDbLine
 10
9745.685342486062
 20
7971.338861615653
 30
0.0
 11
9745.685342486057
 21
9644.838861615758
 31
0.0
  0
LINE
  5
19B44
330
747D
100
AcDbEntity
  8
破線
 48
10.0
100
AcDbLine
 10
8968.185342486064
 20
7971.338861615651
 30
0.0
 11
8968.185342486064
 21
9644.838861615758
 31
0.0
  0
LINE
  5
19B45
330
747D
100
AcDbEntity
  8
破線
 48
10.0
100
AcDbLine
 10
9018.185342486061
 20
7971.338861615653
 30
0.0
 11
9018.185342486063
 21
9644.838861615758
 31
0.0
  0
LINE
  5
19B46
330
747D
100
AcDbEntity
  8
破線
 48
10.0
100
AcDbLine
 10
10423.18534248606
 20
7971.338861615651
 30
0.0
 11
10423.18534248606
 21
9644.838861615758
 31
0.0
  0
LINE
  5
19B47
330
747D
100
AcDbEntity
  8
破線
 48
10.0
100
AcDbLine
 10
10473.18534248606
 20
7971.338861615653
 30
0.0
 11
10473.18534248606
 21
9644.838861615758
 31
0.0
  0
DIMENSION
  5
19B48
330
747D
100
AcDbEntity
  8
寸法
100
AcDbDimension
  2
*D21
 10
9616.233441579353
 20
9305.401746386886
 30
0.0
 11
8781.925833873565
 21
9305.401746386886
 31
0.0
 70
   160
 71
     5
 42
1483.000000000071
  3
INABA_S40G
100
AcDbAlignedDimension
 13
8224.185342486009
 23
9644.838861615765
 33
0.0
 14
9707.185342486081
 24
9644.838861615758
 34
0.0
100
AcDbRotatedDimension
1001
ACAD
1000
DSTYLE
1002
{
1002
}
  0
LINE
  5
19B49
330
747D
100
AcDbEntity
  8
部品1
 48
50.0
100
AcDbLine
 10
9720.685342486088
 20
9644.838861615761
 30
0.0
 11
9720.685342486115
 21
7971.338861615639
 31
0.0
  0
LINE
  5
19B4A
330
747D
100
AcDbEntity
  8
部品1
100
AcDbLine
 10
8252.185342486063
 20
9644.838861615699
 30
0.0
 11
8252.185342486075
 21
7971.338861615716
 31
0.0
  0
DIMENSION
  5
19B4B
330
747D
100
AcDbEntity
  8
寸法
100
AcDbDimension
  2
*D22
 10
11190.68534248609
 20
10424.8388616157
 30
0.0
 11
9720.685342486085
 21
10424.8388616157
 31
0.0
 70
   160
  1
7X420=<>
 71
     5
 42
2940.000000000002
  3
INABA_S40G
100
AcDbAlignedDimension
 13
8250.685342486086
 23
10124.83886161565
 33
0.0
 14
11190.68534248609
 24
10124.83886161575
 34
0.0
100
AcDbRotatedDimension
1001
ACAD
1000
DSTYLE
1002
{
1002
}
  0
LINE
  5
19B4C
330
747D
100
AcDbEntity
  8
部品1
100
AcDbLine
 10
11189.18534248608
 20
7971.338861615741
 30
0.0
 11
8252.185342485979
 21
7971.33886161562
 31
0.0
  0
LINE
  5
19B4D
330
747D
100
AcDbEntity
  8
部品1
100
AcDbLine
 10
8195.685342486084
 20
10124.83886161565
 30
0.0
 11
11245.68534248608
 21
10124.83886161575
 31
0.0
  0
LINE
  5
19B4F
330
747D
100
AcDbEntity
  8
破線
 48
10.0
100
AcDbLine
 10
11165.68534248608
 20
7994.838861615739
 30
0.0
 11
10473.18534248606
 21
7994.838861615679
 31
0.0
  0
DIMENSION
  5
19B50
330
747D
100
AcDbEntity
  8
寸法
100
AcDbDimension
  2
*D23
 10
11126.23344157935
 20
9305.401746386886
 30
0.0
 11
10232.90809799884
 21
9305.401746386886
 31
0.0
 70
   160
 71
     5
 42
1483.000000000013
  3
INABA_S40G
100
AcDbAlignedDimension
 13
9734.185342486078
 23
9644.838861615824
 33
0.0
 14
11217.18534248609
 24
9644.838861615816
 34
0.0
100
AcDbRotatedDimension
1001
ACAD
1000
DSTYLE
1002
{
1002
}
  0
LINE
  5
19B51
330
747D
100
AcDbEntity
  8
細線
 48
50.0
100
AcDbLine
 10
11217.18534248609
 20
10094.83886161575
 30
0.0
 11
9734.185342486085
 21
9644.838861615758
 31
0.0
  0
LINE
  5
19B52
330
747D
100
AcDbEntity
  8
部品1
100
AcDbLine
 10
9734.185342486085
 20
10094.83886161576
 30
0.0
 11
11217.18534248609
 21
10094.83886161575
 31
0.0
  0
LINE
  5
19B53
330
747D
100
AcDbEntity
  8
部品1
100
AcDbLine
 10
9734.185342486085
 20
9644.838861615758
 30
0.0
 11
11217.18534248609
 21
9644.838861615751
 31
0.0
  0
LINE
  5
19B54
330
747D
100
AcDbEntity
  8
細線
 48
50.0
100
AcDbLine
 10
11217.18534248609
 20
9644.838861615751
 30
0.0
 11
9734.185342486085
 21
10094.83886161575
 31
0.0
  0
LINE
  5
19B55
330
747D
100
AcDbEntity
  8
部品1
100
AcDbLine
 10
9733.185342486086
 20
10096.83886161576
 30
0.0
 11
11217.68534248609
 21
10096.83886161575
 31
0.0
  0
LINE
  5
19B56
330
747D
100
AcDbEntity
  8
部品1
100
AcDbLine
 10
11189.18534248607
 20
9229.838861615723
 30
0.0
 11
8252.18534248607
 21
9229.838861615624
 31
0.0
  0
LINE
  5
19B57
330
747D
100
AcDbEntity
  8
部品1
 48
50.0
100
AcDbLine
 10
8223.685342486083
 20
7942.838861615722
 30
0.0
 11
11217.6853424861
 21
7942.838861615726
 31
0.0
  0
DIMENSION
  5
19B58
330
747D
100
AcDbEntity
  8
寸法
100
AcDbDimension
  2
*D24
 10
8250.685342486086
 20
10424.83886161565
 30
0.0
 11
7887.200061111812
 21
10424.83886161565
 31
0.0
 70
   160
 71
     5
 42
55.00000000003274
  3
INABA_S40G
100
AcDbAlignedDimension
 13
8195.685342486052
 23
10124.83886161565
 33
0.0
 14
8250.685342486086
 24
10124.83886161565
 34
0.0
100
AcDbRotatedDimension
1001
ACAD
1000
DSTYLE
1002
{
1002
}
  0
LINE
  5
19B59
330
747D
100
AcDbEntity
  8
破線
 48
5.0
100
AcDbLine
 10
11250.68534248609
 20
2253.446857236488
 30
0.0
 11
11250.68534248609
 21
2098.446857236488
 31
0.0
  0
LINE
  5
19B5A
330
747D
100
AcDbEntity
  8
破線
 48
5.0
100
AcDbLine
 10
11270.68534248609
 20
2098.446857236488
 30
0.0
 11
11250.68534248609
 21
2098.446857236488
 31
0.0
  0
LINE
  5
19B5B
330
747D
100
AcDbEntity
  8
部品1
100
AcDbLine
 10
11250.68534248609
 20
2398.44685723649
 30
0.0
 11
11250.68534248609
 21
2253.446857236488
 31
0.0
  0
LINE
  5
19B5C
330
747D
100
AcDbEntity
  8
部品1
100
AcDbLine
 10
10770.68534248609
 20
4493.446857236487
 30
0.0
 11
10770.68534248609
 21
4488.446857236487
 31
0.0
  0
DIMENSION
  5
19B5D
330
747D
100
AcDbEntity
  8
寸法
 48
50.0
100
AcDbDimension
  2
*D2
 10
11936.89892147216
 20
4673.446857236487
 30
0.0
 11
11836.88711044853
 21
3513.44685723649
 31
0.0
 70
    32
 71
     5
 42
2320.000000000001
  3
INABA_S40G
100
AcDbAlignedDimension
 13
11245.68534248609
 23
2353.446857236487
 33
0.0
 14
11325.6853424861
 24
4673.446857236487
 34
0.0
 50
90.0
100
AcDbRotatedDimension
1001
ACAD
1000
DSTYLE
1002
{
1002
}
  0
LINE
  5
19B5E
330
747D
100
AcDbEntity
  8
部品1
100
AcDbLine
 10
11245.68534248609
 20
4547.876885017613
 30
0.0
 11
11245.68534248609
 21
2253.446857236488
 31
0.0
  0
LINE
  5
19B5F
330
747D
100
AcDbEntity
  8
部品1
 48
50.0
100
AcDbLine
 10
10347.68534248609
 20
2353.446857236487
 30
0.0
 11
10347.68534248609
 21
2253.446857236488
 31
0.0
  0
LINE
  5
19B60
330
747D
100
AcDbEntity
  8
部品1
 48
50.0
100
AcDbLine
 10
10547.68534248609
 20
2353.446857236487
 30
0.0
 11
10547.68534248609
 21
2253.446857236488
 31
0.0
  0
LINE
  5
19B61
330
747D
100
AcDbEntity
  8
部品1
100
AcDbLine
 10
10845.68534248609
 20
2353.446857236487
 30
0.0
 11
10845.68534248609
 21
2253.446857236488
 31
0.0
  0
LINE
  5
19B62
330
747D
100
AcDbEntity
  8
部品1
 48
50.0
100
AcDbLine
 10
9820.685342486092
 20
2353.446857236487
 30
0.0
 11
9820.685342486092
 21
2253.446857236488
 31
0.0
  0
LINE
  5
19B63
330
747D
100
AcDbEntity
  8
部品1
 48
50.0
100
AcDbLine
 10
9093.685342486091
 20
2353.446857236487
 30
0.0
 11
9093.685342486091
 21
2253.446857236488
 31
0.0
  0
LINE
  5
19B64
330
747D
100
AcDbEntity
  8
部品1
 48
50.0
100
AcDbLine
 10
9620.68534248609
 20
2353.446857236487
 30
0.0
 11
9620.68534248609
 21
2253.446857236488
 31
0.0
  0
LINE
  5
19B65
330
747D
100
AcDbEntity
  8
部品1
100
AcDbLine
 10
8595.68534248609
 20
2353.446857236487
 30
0.0
 11
8595.68534248609
 21
2253.446857236488
 31
0.0
  0
LINE
  5
19B66
330
747D
100
AcDbEntity
  8
部品1
 48
50.0
100
AcDbLine
 10
8893.685342486092
 20
2353.446857236487
 30
0.0
 11
8893.685342486092
 21
2253.446857236488
 31
0.0
  0
LINE
  5
19B67
330
747D
100
AcDbEntity
  8
部品1
100
AcDbLine
 10
10797.68534248609
 20
2403.446857236488
 30
0.0
 11
11245.68534248609
 21
2403.446857236488
 31
0.0
  0
LINE
  5
19B68
330
747D
100
AcDbEntity
  8
破線
 48
5.0
100
AcDbLine
 10
8190.685342486093
 20
2253.446857236488
 30
0.0
 11
8190.685342486093
 21
2098.44685723649
 31
0.0
  0
LINE
  5
19B69
330
747D
100
AcDbEntity
  8
破線
 48
5.0
100
AcDbLine
 10
8170.685342486093
 20
2098.44685723649
 30
0.0
 11
8190.685342486096
 21
2098.44685723649
 31
0.0
  0
LINE
  5
19B6A
330
747D
100
AcDbEntity
  8
破線
  6
HIDDEN
 48
5.0
100
AcDbLine
 10
8188.185342486093
 20
2100.746857236487
 30
0.0
 11
8188.185342486093
 21
2098.446857236488
 31
0.0
  0
LINE
  5
19B6B
330
747D
100
AcDbEntity
  8
部品1
100
AcDbLine
 10
8190.685342486093
 20
2398.44685723649
 30
0.0
 11
8190.685342486093
 21
2253.446857236488
 31
0.0
  0
LINE
  5
19B6C
330
747D
100
AcDbEntity
  8
部品1
100
AcDbLine
 10
8250.685342486091
 20
4493.446857236487
 30
0.0
 11
8250.685342486091
 21
2403.446857236488
 31
0.0
  0
LINE
  5
19B6D
330
747D
100
AcDbEntity
  8
部品1
100
AcDbLine
 10
8195.685342486092
 20
4585.674458471128
 30
0.0
 11
8195.685342486092
 21
2253.446857236488
 31
0.0
  0
LINE
  5
19B6E
330
747D
100
AcDbEntity
  8
部品1
100
AcDbLine
 10
8195.685342486092
 20
2353.446857236489
 30
0.0
 11
11245.68534248609
 21
2353.446857236487
 31
0.0
  0
LINE
  5
19B6F
330
747D
100
AcDbEntity
  8
部品1
100
AcDbLine
 10
8195.685342486092
 20
2403.446857236488
 30
0.0
 11
8643.68534248609
 21
2403.446857236488
 31
0.0
  0
LINE
  5
19B70
330
747D
100
AcDbEntity
  8
部品1
100
AcDbLine
 10
8195.685342486092
 20
4493.446857236487
 30
0.0
 11
11245.68534248609
 21
4493.446857236487
 31
0.0
  0
LINE
  5
19B71
330
747D
100
AcDbEntity
  8
部品1
100
AcDbLine
 10
10126.17067574594
 20
1564.408594259079
 30
0.0
 11
9362.700009517503
 21
1564.408594259079
 31
0.0
  0
LINE
  5
19B72
330
747D
100
AcDbEntity
  8
部品1
100
AcDbLine
 10
10126.17067574594
 20
1324.516272713547
 30
0.0
 11
10126.17067574594
 21
1564.408594259079
 31
0.0
  0
LINE
  5
19B73
330
747D
100
AcDbEntity
  8
部品1
100
AcDbLine
 10
9362.700009517503
 20
1324.516272713547
 30
0.0
 11
10126.17067574594
 21
1324.516272713547
 31
0.0
  0
LINE
  5
19B74
330
747D
100
AcDbEntity
  8
部品1
100
AcDbLine
 10
9362.700009517503
 20
1564.408594259079
 30
0.0
 11
9362.700009517503
 21
1324.516272713547
 31
0.0
  0
TEXT
  5
19B7A
330
747D
100
AcDbEntity
  8
部品1
100
AcDbText
 10
9453.225413255459
 20
1371.515065040556
 30
0.0
 40
135.0
  1
正面図
  7
STYLE2
100
AcDbText
  0
LINE
  5
19B7B
330
747D
100
AcDbEntity
  8
Ｇ．Ｌ
100
AcDbLine
 10
2643.079800774998
 20
2253.446857236488
 30
0.0
 11
12043.03534728302
 21
2253.446857236488
 31
0.0
  0
LINE
  5
19B7C
330
747D
100
AcDbEntity
  8
部品1
100
AcDbLine
 10
11189.18534248607
 20
8389.838861615725
 30
0.0
 11
8252.18534248607
 21
8389.838861615624
 31
0.0
  0
LINE
  5
19B7D
330
747D
100
AcDbEntity
  8
部品1
100
AcDbLine
 10
8223.68534248606
 20
8389.838861615624
 30
0.0
 11
8195.68534248606
 21
8389.838861615624
 31
0.0
  0
LINE
  5
19B7E
330
747D
100
AcDbEntity
  8
部品1
100
AcDbLine
 10
11217.68534248609
 20
8389.838861615752
 30
0.0
 11
11245.68534248608
 21
8389.838861615752
 31
0.0
  0
LINE
  5
19B7F
330
747D
100
AcDbEntity
  8
破線
 48
5.0
100
AcDbLine
 10
11345.68534248609
 20
2253.446857236488
 30
0.0
 11
11345.68534248609
 21
2053.446857236488
 31
0.0
  0
LINE
  5
19B80
330
747D
100
AcDbEntity
  8
破線
 48
5.0
100
AcDbLine
 10
11145.68534248609
 20
2253.446857236488
 30
0.0
 11
11145.68534248609
 21
2053.446857236488
 31
0.0
  0
LINE
  5
19B81
330
747D
100
AcDbEntity
  8
破線
 48
5.0
100
AcDbLine
 10
8170.685342486093
 20
2098.446857236488
 30
0.0
 11
8190.685342486096
 21
2098.446857236488
 31
0.0
  0
LINE
  5
19B82
330
747D
100
AcDbEntity
  8
破線
 48
5.0
100
AcDbLine
 10
8295.685342486093
 20
2253.446857236488
 30
0.0
 11
8295.685342486093
 21
2053.446857236488
 31
0.0
  0
LINE
  5
19B83
330
747D
100
AcDbEntity
  8
破線
 48
5.0
100
AcDbLine
 10
11345.68534248609
 20
2053.446857236488
 30
0.0
 11
11145.68534248609
 21
2053.446857236488
 31
0.0
  0
LINE
  5
19B84
330
747D
100
AcDbEntity
  8
破線
 48
5.0
100
AcDbLine
 10
8095.685342486092
 20
2253.446857236488
 30
0.0
 11
8095.685342486092
 21
2053.446857236488
 31
0.0
  0
LINE
  5
19B85
330
747D
100
AcDbEntity
  8
破線
 48
5.0
100
AcDbLine
 10
8095.685342486092
 20
2053.446857236488
 30
0.0
 11
8295.685342486095
 21
2053.446857236488
 31
0.0
  0
DIMENSION
  5
19B86
330
747D
100
AcDbEntity
  8
寸法
 48
50.0
100
AcDbDimension
  2
*D3
 10
8095.685342486092
 20
1767.39952793611
 30
0.0
 11
8195.685342486092
 21
1767.39952793611
 31
0.0
 70
   160
 71
     5
 42
200.0000000000018
  3
INABA_S40G
100
AcDbAlignedDimension
 13
8295.685342486095
 23
2053.446857236488
 33
0.0
 14
8095.685342486092
 24
2053.446857236488
 34
0.0
100
AcDbRotatedDimension
  0
LINE
  5
19E5F
330
747D
100
AcDbEntity
  8
補助
  6
PHANTOM
 62
   230
 48
50.0
100
AcDbLine
 10
140.0
 20
0.0
 30
0.0
 11
139.9999999999995
 21
11409.6
 31
0.0
  0
MTEXT
  5
19F96
330
747D
100
AcDbEntity
  8
寸法
 62
     7
 48
50.0
100
AcDbMText
 10
8980.787879579199
 20
9711.07367981304
 30
0.0
 40
96.0
 41
0.0
 71
     5
 72
     1
  1
棚 3段
  7
STYLE1
 73
     1
 44
1.0
1001
ACAD
1000
MTEXTBEGIN
1070
    73
1070
     1
1070
    44
1040
1.0
1070
    74
1070
     0
1000
MTEXTEND
  0
LINE
  5
1A19E
330
747D
100
AcDbEntity
  8
部品1
 48
50.0
100
AcDbLine
 10
8717.68534248609
 20
3484.946857236491
 30
0.0
 11
8770.685342486089
 21
3484.946857236491
 31
0.0
  0
LINE
  5
1A3C2
330
747D
100
AcDbEntity
  8
寸法
 48
50.0
100
AcDbLine
 10
9105.888348767901
 20
7692.875613184473
 30
0.0
 11
9054.482340857799
 21
7692.875613184473
 31
0.0
  0
LINE
  5
1A3C3
330
747D
100
AcDbEntity
  8
寸法
 48
50.0
100
AcDbLine
 10
9054.482340857799
 20
7692.875613184473
 30
0.0
 11
9054.482340857799
 21
7724.185771836639
 31
0.0
  0
LINE
  5
1A3C4
330
747D
100
AcDbEntity
  8
寸法
 48
50.0
100
AcDbLine
 10
9054.482340857799
 20
7724.185771836639
 30
0.0
 11
9024.721008866375
 21
7724.185771836639
 31
0.0
  0
LINE
  5
1A3C5
330
747D
100
AcDbEntity
  8
寸法
 48
50.0
100
AcDbLine
 10
9024.721008866375
 20
7724.185771836639
 30
0.0
 11
9080.18534481285
 21
7761.765222765248
 31
0.0
  0
LINE
  5
1A3C6
330
747D
100
AcDbEntity
  8
寸法
 48
50.0
100
AcDbLine
 10
9135.649680759325
 20
7724.185771836639
 30
0.0
 11
9080.18534481285
 21
7761.765222765248
 31
0.0
  0
LINE
  5
1A3C7
330
747D
100
AcDbEntity
  8
寸法
 48
50.0
100
AcDbLine
 10
9105.888348767901
 20
7724.185771836639
 30
0.0
 11
9135.649680759325
 21
7724.185771836639
 31
0.0
  0
LINE
  5
1A3C8
330
747D
100
AcDbEntity
  8
寸法
 48
50.0
100
AcDbLine
 10
9105.888348767901
 20
7692.875613184473
 30
0.0
 11
9105.888348767901
 21
7724.185771836639
 31
0.0
  0
LINE
  5
1A3C9
330
747D
100
AcDbEntity
  8
寸法
 48
50.0
100
AcDbLine
 10
9054.482340857799
 20
7692.875613184473
 30
0.0
 11
9105.888348767901
 21
7692.875613184473
 31
0.0
  0
LINE
  5
1A3CA
330
747D
100
AcDbEntity
  8
寸法
 48
50.0
100
AcDbLine
 10
9385.05388304476
 20
7750.021203939296
 30
0.0
 11
9385.05388304476
 21
7696.357569357506
 31
0.0
  0
LINE
  5
1A3CB
330
747D
100
AcDbEntity
  8
寸法
 48
50.0
100
AcDbLine
 10
9474.33810164018
 20
7726.09756966981
 30
0.0
 11
9385.05388304476
 21
7750.021203939296
 31
0.0
  0
LINE
  5
1A3CC
330
747D
100
AcDbEntity
  8
寸法
 48
50.0
100
AcDbLine
 10
9255.186161464456
 20
7726.09756966981
 30
0.0
 11
9474.33810164018
 21
7726.09756966981
 31
0.0
  0
LINE
  5
1A3CD
330
747D
100
AcDbEntity
  8
細線
 48
50.0
100
AcDbLine
 10
10131.68534248606
 20
7891.338976564336
 30
0.0
 11
10758.68534248605
 21
7891.338976564336
 31
0.0
  0
LINE
  5
1A3CE
330
747D
100
AcDbEntity
  8
細線
 48
50.0
100
AcDbLine
 10
9477.685347139646
 20
7857.63020801026
 30
0.0
 11
10758.68534248605
 21
7857.63020801026
 31
0.0
  0
LINE
  5
1A3CF
330
747D
100
AcDbEntity
  8
細線
 48
50.0
100
AcDbLine
 10
9436.685347139649
 20
7887.035116006512
 30
0.0
 11
8682.685342486058
 21
7887.03511600651
 31
0.0
  0
LINE
  5
1A3D0
330
747D
100
AcDbEntity
  8
細線
100
AcDbLine
 10
10534.4353330696
 20
7910.838876529344
 30
0.0
 11
10536.7668725914
 21
7915.838879169306
 31
0.0
  0
LINE
  5
1A3D1
330
747D
100
AcDbEntity
  8
細線
100
AcDbLine
 10
10604.43534248605
 20
7910.83886161561
 30
0.0
 11
10602.10379600987
 21
7915.83887916929
 31
0.0
  0
LINE
  5
1A3D2
330
747D
100
AcDbEntity
  8
細線
100
AcDbLine
 10
10602.10379600987
 20
7915.83887916929
 30
0.0
 11
10536.76687259139
 21
7915.838879169275
 31
0.0
  0
LINE
  5
1A3D3
330
747D
100
AcDbEntity
  8
細線
100
AcDbLine
 10
10462.10379600987
 20
7915.83887916929
 30
0.0
 11
10396.76687259139
 21
7915.838879169275
 31
0.0
  0
LINE
  5
1A3D4
330
747D
100
AcDbEntity
  8
細線
100
AcDbLine
 10
10464.43534248605
 20
7910.83886161561
 30
0.0
 11
10462.10379600987
 21
7915.83887916929
 31
0.0
  0
LINE
  5
1A3D5
330
747D
100
AcDbEntity
  8
細線
100
AcDbLine
 10
10394.4353330696
 20
7910.838876529344
 30
0.0
 11
10396.76687259141
 21
7915.838879169306
 31
0.0
  0
LINE
  5
1A3D6
330
747D
100
AcDbEntity
  8
細線
100
AcDbLine
 10
10254.43534248605
 20
7910.83886161561
 30
0.0
 11
10256.76688200787
 21
7915.838864255571
 31
0.0
  0
LINE
  5
1A3D7
330
747D
100
AcDbEntity
  8
細線
100
AcDbLine
 10
10324.43535190251
 20
7910.838846701875
 30
0.0
 11
10322.10380542632
 21
7915.838864255556
 31
0.0
  0
LINE
  5
1A3D8
330
747D
100
AcDbEntity
  8
細線
100
AcDbLine
 10
10322.10380542633
 20
7915.838864255556
 30
0.0
 11
10256.76688200785
 21
7915.838864255542
 31
0.0
  0
LINE
  5
1A3D9
330
747D
100
AcDbEntity
  8
細線
100
AcDbLine
 10
10026.85382667516
 20
7881.838900952939
 30
0.0
 11
9961.516903256688
 21
7881.838900952924
 31
0.0
  0
LINE
  5
1A3DA
330
747D
100
AcDbEntity
  8
細線
100
AcDbLine
 10
10029.18537315135
 20
7876.838883399257
 30
0.0
 11
10026.85382667516
 21
7881.838900952939
 31
0.0
  0
LINE
  5
1A3DB
330
747D
100
AcDbEntity
  8
細線
100
AcDbLine
 10
9959.185363734896
 20
7876.838898312993
 30
0.0
 11
9961.516903256702
 21
7881.838900952953
 31
0.0
  0
LINE
  5
1A3DC
330
747D
100
AcDbEntity
  8
細線
 48
50.0
100
AcDbLine
 10
9800.568721734071
 20
7895.10972476869
 30
0.0
 11
9806.324239316738
 21
7876.838873478203
 31
0.0
  0
LINE
  5
1A3DD
330
747D
100
AcDbEntity
  8
細線
 48
50.0
100
AcDbLine
 10
9789.640273253642
 20
7895.10972476869
 30
0.0
 11
9800.568721734071
 21
7895.10972476869
 31
0.0
  0
ARC
  5
1A3DE
330
747D
100
AcDbEntity
  8
細線
 48
50.0
100
AcDbCircle
 10
9784.185917196319
 20
7896.609724768691
 30
0.0
 40
5.0
100
AcDbArc
 50
204.6243183521304
 51
335.3756816478695
  0
ARC
  5
1A3DF
330
747D
100
AcDbEntity
  8
細線
 48
50.0
100
AcDbCircle
 10
9789.640273253642
 20
7894.109724768689
 30
0.0
 40
1.0
100
AcDbArc
 50
90.0
 51
155.3756816478695
  0
ARC
  5
1A3E0
330
747D
100
AcDbEntity
  8
細線
 48
50.0
100
AcDbCircle
 10
9778.731561139004
 20
7894.109724768689
 30
0.0
 40
1.0
100
AcDbArc
 50
24.62431835213048
 51
90.0
  0
LINE
  5
1A3E1
330
747D
100
AcDbEntity
  8
細線
 48
50.0
100
AcDbLine
 10
9767.803112658571
 20
7895.10972476869
 30
0.0
 11
9778.731561139004
 21
7895.10972476869
 31
0.0
  0
LINE
  5
1A3E2
330
747D
100
AcDbEntity
  8
細線
 48
50.0
100
AcDbLine
 10
9762.047595075904
 20
7876.838873478196
 30
0.0
 11
9767.803112658571
 21
7895.10972476869
 31
0.0
  0
LINE
  5
1A3E3
330
747D
100
AcDbEntity
  8
細線
100
AcDbLine
 10
9819.185364965935
 20
7876.838870844001
 30
0.0
 11
9821.516904487749
 21
7881.838873483961
 31
0.0
  0
LINE
  5
1A3E4
330
747D
100
AcDbEntity
  8
細線
100
AcDbLine
 10
9889.185374382396
 20
7876.838855930266
 30
0.0
 11
9886.853827906206
 21
7881.838873483947
 31
0.0
  0
LINE
  5
1A3E5
330
747D
100
AcDbEntity
  8
細線
100
AcDbLine
 10
9886.853827906206
 20
7881.838873483947
 30
0.0
 11
9821.516904487733
 21
7881.838873483933
 31
0.0
  0
LINE
  5
1A3E6
330
747D
100
AcDbEntity
  8
細線
100
AcDbLine
 10
9746.853799541689
 20
7881.838873478168
 30
0.0
 11
9681.516876123213
 21
7881.838873478153
 31
0.0
  0
LINE
  5
1A3E7
330
747D
100
AcDbEntity
  8
細線
100
AcDbLine
 10
9749.185346017876
 20
7876.838855924487
 30
0.0
 11
9746.853799541689
 21
7881.838873478168
 31
0.0
  0
LINE
  5
1A3E8
330
747D
100
AcDbEntity
  8
細線
100
AcDbLine
 10
9679.185337832461
 20
7876.838873478196
 30
0.0
 11
9681.516876123227
 21
7881.838873478182
 31
0.0
  0
LINE
  5
1A3E9
330
747D
100
AcDbEntity
  8
細線
100
AcDbLine
 10
9539.185373151351
 20
7876.838881665566
 30
0.0
 11
9541.516911442119
 21
7881.838881665551
 31
0.0
  0
LINE
  5
1A3EA
330
747D
100
AcDbEntity
  8
細線
100
AcDbLine
 10
9609.185381336768
 20
7876.838864111856
 30
0.0
 11
9606.853834860579
 21
7881.838881665533
 31
0.0
  0
LINE
  5
1A3EB
330
747D
100
AcDbEntity
  8
細線
100
AcDbLine
 10
9606.853834860579
 20
7881.838881665533
 30
0.0
 11
9541.516911442105
 21
7881.838881665522
 31
0.0
  0
LINE
  5
1A3EC
330
747D
100
AcDbEntity
  8
細線
100
AcDbLine
 10
9167.68533895423
 20
7842.839053346279
 30
0.0
 11
9170.016877244998
 21
7847.839053346264
 31
0.0
  0
LINE
  5
1A3ED
330
747D
100
AcDbEntity
  8
細線
100
AcDbLine
 10
9237.685347139645
 20
7842.839035792565
 30
0.0
 11
9235.353800663459
 21
7847.839053346243
 31
0.0
  0
LINE
  5
1A3EE
330
747D
100
AcDbEntity
  8
細線
100
AcDbLine
 10
9235.353800663459
 20
7847.839053346243
 30
0.0
 11
9170.016877244988
 21
7847.839053346236
 31
0.0
  0
LINE
  5
1A3EF
330
747D
100
AcDbEntity
  8
細線
100
AcDbLine
 10
9375.353800663459
 20
7847.839053346243
 30
0.0
 11
9310.016877244988
 21
7847.839053346236
 31
0.0
  0
LINE
  5
1A3F0
330
747D
100
AcDbEntity
  8
細線
100
AcDbLine
 10
9377.685347139646
 20
7842.839035792565
 30
0.0
 11
9375.353800663459
 21
7847.839053346243
 31
0.0
  0
LINE
  5
1A3F1
330
747D
100
AcDbEntity
  8
細線
100
AcDbLine
 10
9307.685338954231
 20
7842.839053346279
 30
0.0
 11
9310.016877244997
 21
7847.839053346264
 31
0.0
  0
LINE
  5
1A3F2
330
747D
100
AcDbEntity
  8
細線
100
AcDbLine
 10
9095.353800663458
 20
7847.839053346243
 30
0.0
 11
9030.016877244987
 21
7847.839053346231
 31
0.0
  0
LINE
  5
1A3F3
330
747D
100
AcDbEntity
  8
細線
100
AcDbLine
 10
9097.685347139647
 20
7842.839035792565
 30
0.0
 11
9095.353800663458
 21
7847.839053346243
 31
0.0
  0
LINE
  5
1A3F4
330
747D
100
AcDbEntity
  8
細線
100
AcDbLine
 10
9027.685338954231
 20
7842.839053346276
 30
0.0
 11
9030.016877244998
 21
7847.839053346262
 31
0.0
  0
LINE
  5
1A3F5
330
747D
100
AcDbEntity
  8
細線
100
AcDbLine
 10
8887.685347139646
 20
7842.839053346279
 30
0.0
 11
8890.016885430414
 21
7847.839053346264
 31
0.0
  0
LINE
  5
1A3F6
330
747D
100
AcDbEntity
  8
細線
100
AcDbLine
 10
8957.685355325063
 20
7842.839035792565
 30
0.0
 11
8955.353808848874
 21
7847.839053346243
 31
0.0
  0
LINE
  5
1A3F7
330
747D
100
AcDbEntity
  8
細線
100
AcDbLine
 10
8955.353808848874
 20
7847.839053346243
 30
0.0
 11
8890.016885430403
 21
7847.839053346236
 31
0.0
  0
ARC
  5
1A3F8
330
747D
100
AcDbEntity
  8
部品1
 48
0.01
100
AcDbCircle
 10
8843.185235887311
 20
7841.837931161205
 30
0.0
 40
0.5
100
AcDbArc
 50
270.0
 51
0.0
  0
LINE
  5
1A3F9
330
747D
100
AcDbEntity
  8
部品1
 48
0.01
100
AcDbLine
 10
8843.685235887312
 20
7842.837931161206
 30
0.0
 11
8843.685235887312
 21
7841.837931161205
 31
0.0
  0
LINE
  5
1A3FA
330
747D
100
AcDbEntity
  8
部品1
 48
0.01
100
AcDbLine
 10
8843.685235887312
 20
7842.837931161206
 30
0.0
 11
8843.685235887312
 21
7841.837931161205
 31
0.0
  0
LINE
  5
1A3FB
330
747D
100
AcDbEntity
  8
部品1
 48
0.01
100
AcDbLine
 10
8843.185235887311
 20
7841.337931161206
 30
0.0
 11
8836.572730457247
 21
7841.337931161206
 31
0.0
  0
ARC
  5
1A3FC
330
747D
100
AcDbEntity
  8
部品1
100
AcDbCircle
 10
8836.641080010029
 20
7842.337931161207
 30
0.0
 40
1.0
100
AcDbArc
 50
160.5287793655778
 51
270.0
  0
ARC
  5
1A3FD
330
747D
100
AcDbEntity
  8
部品1
100
AcDbCircle
 10
8811.185235887311
 20
7851.337931161207
 30
0.0
 40
26.0
100
AcDbArc
 50
340.5287793655779
 51
0.0
  0
LINE
  5
1A3FE
330
747D
100
AcDbEntity
  8
部品1
100
AcDbLine
 10
8837.185235887311
 20
7851.337931161207
 30
0.0
 11
8837.185235887311
 21
7856.337931161206
 31
0.0
  0
ARC
  5
1A3FF
330
747D
100
AcDbEntity
  8
部品1
 48
0.01
100
AcDbCircle
 10
8835.185235887312
 20
7856.337931161206
 30
0.0
 40
2.0
100
AcDbArc
 50
0.0
 51
90.0
  0
ARC
  5
1A400
330
747D
100
AcDbEntity
  8
部品1
100
AcDbCircle
 10
8833.5768442625
 20
7855.337931161206
 30
0.0
 40
3.0
100
AcDbArc
 50
90.0
 51
141.6069559807873
  0
LINE
  5
1A401
330
747D
100
AcDbEntity
  8
部品1
 48
0.01
100
AcDbLine
 10
8835.185235887312
 20
7858.337931161206
 30
0.0
 11
8833.5768442625
 21
7858.337931161206
 31
0.0
  0
ARC
  5
1A402
330
747D
100
AcDbEntity
  8
部品1
100
AcDbCircle
 10
8815.11452167304
 20
7854.637931161208
 30
0.0
 40
3.0
100
AcDbArc
 50
254.0576313943215
 51
270.0
  0
ARC
  5
1A403
330
747D
100
AcDbEntity
  8
部品1
100
AcDbCircle
 10
8822.255950101583
 20
7854.637931161208
 30
0.0
 40
3.0
100
AcDbArc
 50
270.0
 51
285.9423686056786
  0
LINE
  5
1A404
330
747D
100
AcDbEntity
  8
部品1
100
AcDbLine
 10
8822.255950101583
 20
7851.63793116121
 30
0.0
 11
8815.11452167304
 21
7851.63793116121
 31
0.0
  0
ARC
  5
1A405
330
747D
100
AcDbEntity
  8
部品1
100
AcDbCircle
 10
8818.685235887311
 20
7867.137931161209
 30
0.0
 40
16.0
100
AcDbArc
 50
285.9423686056786
 51
321.6069559807873
  0
LINE
  5
1A406
330
747D
100
AcDbEntity
  8
部品1
 48
0.01
100
AcDbLine
 10
8802.185235887312
 20
7858.337931161206
 30
0.0
 11
8803.793627512121
 21
7858.337931161206
 31
0.0
  0
ARC
  5
1A407
330
747D
100
AcDbEntity
  8
部品1
100
AcDbCircle
 10
8803.793627512121
 20
7855.337931161206
 30
0.0
 40
3.0
100
AcDbArc
 50
38.39304401921267
 51
90.0
  0
ARC
  5
1A408
330
747D
100
AcDbEntity
  8
部品1
100
AcDbCircle
 10
8818.685235887311
 20
7867.137931161209
 30
0.0
 40
16.0
100
AcDbArc
 50
218.3930440192126
 51
254.0576313943215
  0
LINE
  5
1A409
330
747D
100
AcDbEntity
  8
部品1
100
AcDbLine
 10
8800.18523588731
 20
7851.337931161207
 30
0.0
 11
8800.18523588731
 21
7856.337931161206
 31
0.0
  0
ARC
  5
1A40A
330
747D
100
AcDbEntity
  8
部品1
 48
0.01
100
AcDbCircle
 10
8802.185235887312
 20
7856.337931161206
 30
0.0
 40
2.0
100
AcDbArc
 50
90.0
 51
180.0
  0
ARC
  5
1A40B
330
747D
100
AcDbEntity
  8
部品1
100
AcDbCircle
 10
8826.185235887312
 20
7851.337931161207
 30
0.0
 40
26.0
100
AcDbArc
 50
180.0
 51
199.4712206344221
  0
ARC
  5
1A40C
330
747D
100
AcDbEntity
  8
部品1
 48
0.01
100
AcDbCircle
 10
8794.18523588731
 20
7841.837931161205
 30
0.0
 40
0.5
100
AcDbArc
 50
180.0
 51
270.0
  0
LINE
  5
1A40D
330
747D
100
AcDbEntity
  8
部品1
 48
0.01
100
AcDbLine
 10
8794.18523588731
 20
7841.337931161206
 30
0.0
 11
8800.729391764596
 21
7841.337931161206
 31
0.0
  0
LINE
  5
1A40E
330
747D
100
AcDbEntity
  8
部品1
 48
0.01
100
AcDbLine
 10
8793.685235887311
 20
7842.837931161206
 30
0.0
 11
8793.685235887311
 21
7841.837931161205
 31
0.0
  0
ARC
  5
1A40F
330
747D
100
AcDbEntity
  8
部品1
100
AcDbCircle
 10
8800.729391764596
 20
7842.337931161207
 30
0.0
 40
1.0
100
AcDbArc
 50
270.0
 51
19.47122063442214
  0
LINE
  5
1A410
330
747D
100
AcDbEntity
  8
細線
100
AcDbLine
 10
8839.185235887319
 20
7860.83793116121
 30
0.0
 11
8798.185235887318
 21
7860.837931161203
 31
0.0
  0
LINE
  5
1A411
330
747D
100
AcDbEntity
  8
細線
100
AcDbLine
 10
8798.185235887318
 20
7860.837931161203
 30
0.0
 11
8798.185235887318
 21
7842.837931161184
 31
0.0
  0
LINE
  5
1A412
330
747D
100
AcDbEntity
  8
細線
100
AcDbLine
 10
8839.185235887319
 20
7860.83793116121
 30
0.0
 11
8839.185235887319
 21
7842.837931161184
 31
0.0
  0
LINE
  5
1A413
330
747D
100
AcDbEntity
  8
細線
100
AcDbLine
 10
8682.685342486058
 20
7846.83886161561
 30
0.0
 11
8682.685342486058
 21
7842.838861615657
 31
0.0
  0
DIMENSION
  5
1A414
330
747D
100
AcDbEntity
  8
寸法
 48
50.0
100
AcDbDimension
  2
*D31
 10
9948.685342486058
 20
7196.96742872498
 30
0.0
 11
9320.730751132316
 21
7196.96742872498
 31
0.0
 70
   160
  1
有効開口部間口\P<>
 71
     5
 42
1266.0
  3
INABA_S40
100
AcDbAlignedDimension
 13
8682.685342486058
 23
7837.83886161561
 33
0.0
 14
9948.685342486058
 24
7837.83886161561
 34
0.0
100
AcDbRotatedDimension
1001
ACAD
1000
DSTYLE
1002
{
1070
    41
1040
0.5
1070
    44
1040
1.0
1070
   147
1040
0.8
1070
   271
1070
     2
1070
   272
1070
     2
1070
   289
1070
     3
1070
   340
1005
F706
1070
   343
1005
19461
1070
   344
1005
19461
1002
}
  0
LINE
  5
1A415
330
747D
100
AcDbEntity
  8
部品1
100
AcDbLine
 10
10770.68534248605
 20
7914.83886161561
 30
0.0
 11
10797.68534248605
 21
7914.83886161561
 31
0.0
  0
LINE
  5
1A417
330
747D
100
AcDbEntity
  8
部品1
100
AcDbLine
 10
10797.68534248605
 20
7837.83886161561
 30
0.0
 11
10797.68534248605
 21
7914.83886161561
 31
0.0
  0
LINE
  5
1A418
330
747D
100
AcDbEntity
  8
部品1
100
AcDbLine
 10
10758.68534248605
 20
7910.83886161561
 30
0.0
 11
10770.68534248605
 21
7910.83886161561
 31
0.0
  0
LINE
  5
1A419
330
747D
100
AcDbEntity
  8
部品1
100
AcDbLine
 10
10767.68534248605
 20
7846.83886161561
 30
0.0
 11
10767.68534248605
 21
7837.83886161561
 31
0.0
  0
LINE
  5
1A41A
330
747D
100
AcDbEntity
  8
部品1
100
AcDbLine
 10
10758.68534248605
 20
7846.83886161561
 30
0.0
 11
10767.68534248605
 21
7846.83886161561
 31
0.0
  0
LINE
  5
1A41B
330
747D
100
AcDbEntity
  8
部品1
100
AcDbLine
 10
10758.68534248605
 20
7910.83886161561
 30
0.0
 11
10758.68534248605
 21
7846.83886161561
 31
0.0
  0
LINE
  5
1A41C
330
747D
100
AcDbEntity
  8
部品1
100
AcDbLine
 10
10770.68534248605
 20
7941.838861615609
 30
0.0
 11
10770.68534248605
 21
7910.83886161561
 31
0.0
  0
LINE
  5
1A41D
330
747D
100
AcDbEntity
  8
部品1
100
AcDbLine
 10
8682.685342486058
 20
7910.83886161561
 30
0.0
 11
8670.685342486057
 21
7910.83886161561
 31
0.0
  0
LINE
  5
1A41E
330
747D
100
AcDbEntity
  8
部品1
100
AcDbLine
 10
8643.685342486056
 20
7914.83886161561
 30
0.0
 11
8670.685342486057
 21
7914.83886161561
 31
0.0
  0
LINE
  5
1A41F
330
747D
100
AcDbEntity
  8
部品1
100
AcDbLine
 10
8673.685342486058
 20
7846.83886161561
 30
0.0
 11
8673.685342486058
 21
7837.83886161561
 31
0.0
  0
LINE
  5
1A420
330
747D
100
AcDbEntity
  8
部品1
100
AcDbLine
 10
8682.685342486058
 20
7846.83886161561
 30
0.0
 11
8673.685342486058
 21
7846.83886161561
 31
0.0
  0
LINE
  5
1A421
330
747D
100
AcDbEntity
  8
部品1
100
AcDbLine
 10
8673.685342486058
 20
7837.83886161561
 30
0.0
 11
8643.685342486056
 21
7837.83886161561
 31
0.0
  0
LINE
  5
1A422
330
747D
100
AcDbEntity
  8
部品1
100
AcDbLine
 10
8643.685342486056
 20
7837.83886161561
 30
0.0
 11
8643.685342486056
 21
7914.83886161561
 31
0.0
  0
LINE
  5
1A423
330
747D
100
AcDbEntity
  8
部品1
100
AcDbLine
 10
8682.685342486058
 20
7910.83886161561
 30
0.0
 11
8682.685342486058
 21
7846.83886161561
 31
0.0
  0
LINE
  5
1A424
330
747D
100
AcDbEntity
  8
部品1
100
AcDbLine
 10
8670.685342486057
 20
7941.838861615607
 30
0.0
 11
8670.685342486057
 21
7910.83886161561
 31
0.0
  0
LINE
  5
1A425
330
747D
100
AcDbEntity
  8
部品1
100
AcDbLine
 10
8670.685342486057
 20
7941.838861615607
 30
0.0
 11
10770.68534248605
 21
7941.838861615609
 31
0.0
  0
LINE
  5
1A426
330
747D
100
AcDbEntity
  8
部品1
100
AcDbLine
 10
10767.68534248605
 20
7837.83886161561
 30
0.0
 11
10797.68534248605
 21
7837.83886161561
 31
0.0
  0
LINE
  5
1A427
330
747D
100
AcDbEntity
  8
部品1
100
AcDbLine
 10
8673.685342486058
 20
7837.83886161561
 30
0.0
 11
10770.68534248605
 21
7837.83886161561
 31
0.0
  0
LINE
  5
1A428
330
747D
100
AcDbEntity
  8
細線
  6
Continuous
 62
     5
100
AcDbLine
 10
10049.68534248606
 20
7876.838861615606
 30
0.0
 11
10049.68534248606
 21
7876.838861615606
 31
0.0
  0
LINE
  5
1A429
330
747D
100
AcDbEntity
  8
細線
  6
Continuous
 62
     5
100
AcDbLine
 10
10042.18537780495
 20
7876.838871536664
 30
0.0
 11
10042.18537780495
 21
7876.838871536664
 31
0.0
  0
LINE
  5
1A42A
330
747D
100
AcDbEntity
  8
細線
  6
Continuous
 62
     5
100
AcDbLine
 10
10036.18537780495
 20
7876.838871536664
 30
0.0
 11
10036.18537780495
 21
7876.838871536664
 31
0.0
  0
LINE
  5
1A42B
330
747D
100
AcDbEntity
  8
細線
  6
Continuous
 62
     5
100
AcDbLine
 10
10103.68534248606
 20
7895.838861615605
 30
0.0
 11
10103.68534248606
 21
7895.838861615605
 31
0.0
  0
LINE
  5
1A42C
330
747D
100
AcDbEntity
  8
細線
 48
50.0
100
AcDbLine
 10
8696.68534713965
 20
7863.439035792564
 30
0.0
 11
8696.68534713965
 21
7871.835186200204
 31
0.0
  0
LINE
  5
1A42D
330
747D
100
AcDbEntity
  8
細線
 48
50.0
100
AcDbLine
 10
8696.68534713965
 20
7871.835186200204
 30
0.0
 11
8682.685342486058
 21
7871.8351862002
 31
0.0
  0
LINE
  5
1A42E
330
747D
100
AcDbEntity
  8
細線
 48
50.0
100
AcDbLine
 10
9447.685347139646
 20
7859.989035792563
 30
0.0
 11
9447.685347139646
 21
7864.839035792567
 31
0.0
  0
LINE
  5
1A42F
330
747D
100
AcDbEntity
  8
細線
 48
50.0
100
AcDbLine
 10
9447.685347139646
 20
7864.839035792567
 30
0.0
 11
9462.685347139645
 21
7864.839035792567
 31
0.0
  0
LINE
  5
1A430
330
747D
100
AcDbEntity
  8
細線
 48
50.0
100
AcDbLine
 10
9462.685347139645
 20
7864.839035792567
 30
0.0
 11
9462.68534713965
 21
7871.839035792565
 31
0.0
  0
LINE
  5
1A431
330
747D
100
AcDbEntity
  8
細線
 48
50.0
100
AcDbLine
 10
9462.68534713965
 20
7871.839035792565
 30
0.0
 11
9477.685347139646
 21
7871.839035792565
 31
0.0
  0
LINE
  5
1A432
330
747D
100
AcDbEntity
  8
細線
 48
50.0
100
AcDbLine
 10
9477.685347139646
 20
7871.839035792565
 30
0.0
 11
9477.685347139646
 21
7842.839035792565
 31
0.0
  0
LINE
  5
1A433
330
747D
100
AcDbEntity
  8
細線
 48
50.0
100
AcDbLine
 10
8673.685342486058
 20
7842.836370136033
 30
0.0
 11
8887.685347139646
 21
7842.839053346279
 31
0.0
  0
LINE
  5
1A434
330
747D
100
AcDbEntity
  8
細線
 48
50.0
100
AcDbLine
 10
9377.685347139646
 20
7842.839035792565
 30
0.0
 11
9477.685347139646
 21
7842.839035792565
 31
0.0
  0
LINE
  5
1A435
330
747D
100
AcDbEntity
  8
細線
 48
50.0
100
AcDbLine
 10
9097.685347139647
 20
7842.839035792565
 30
0.0
 11
9167.685347139647
 21
7842.839035792565
 31
0.0
  0
LINE
  5
1A436
330
747D
100
AcDbEntity
  8
細線
 48
50.0
100
AcDbLine
 10
9110.547312152176
 20
7842.839035792565
 30
0.0
 11
9116.302829734843
 21
7861.109887083059
 31
0.0
  0
LINE
  5
1A437
330
747D
100
AcDbEntity
  8
細線
 48
50.0
100
AcDbLine
 10
9116.302829734843
 20
7861.109887083059
 30
0.0
 11
9127.231278215276
 21
7861.109887083056
 31
0.0
  0
ARC
  5
1A438
330
747D
100
AcDbEntity
  8
細線
 48
50.0
100
AcDbCircle
 10
9127.231278215276
 20
7860.109887083055
 30
0.0
 40
1.0
100
AcDbArc
 50
24.62431835213048
 51
90.0
  0
ARC
  5
1A439
330
747D
100
AcDbEntity
  8
細線
 48
50.0
100
AcDbCircle
 10
9138.139990329909
 20
7860.109887083055
 30
0.0
 40
1.0
100
AcDbArc
 50
90.0
 51
155.3756816478695
  0
ARC
  5
1A43A
330
747D
100
AcDbEntity
  8
細線
 48
50.0
100
AcDbCircle
 10
9132.685634272592
 20
7862.609887083056
 30
0.0
 40
5.0
100
AcDbArc
 50
204.6243183521304
 51
335.3756816478695
  0
LINE
  5
1A43B
330
747D
100
AcDbEntity
  8
細線
 48
50.0
100
AcDbLine
 10
9138.139990329909
 20
7861.109887083056
 30
0.0
 11
9149.068438810344
 21
7861.109887083059
 31
0.0
  0
LINE
  5
1A43C
330
747D
100
AcDbEntity
  8
細線
 48
50.0
100
AcDbLine
 10
9149.068438810344
 20
7861.109887083059
 30
0.0
 11
9154.823956393011
 21
7842.839035792565
 31
0.0
  0
LINE
  5
1A43D
330
747D
100
AcDbEntity
  8
細線
 48
50.0
100
AcDbLine
 10
9447.685347139646
 20
7863.439035792564
 30
0.0
 11
8696.68534713965
 21
7863.439035792564
 31
0.0
  0
LINE
  5
1A43E
330
747D
100
AcDbEntity
  8
細線
 48
50.0
100
AcDbLine
 10
9307.685347139646
 20
7842.839035792565
 30
0.0
 11
9237.685347139645
 21
7842.839035792565
 31
0.0
  0
LINE
  5
1A43F
330
747D
100
AcDbEntity
  8
細線
100
AcDbLine
 10
9027.685347139646
 20
7842.839035792565
 30
0.0
 11
8957.685355325063
 21
7842.839035792565
 31
0.0
  0
LINE
  5
1A440
330
747D
100
AcDbEntity
  8
細線
 48
50.0
100
AcDbLine
 10
10101.68533783247
 20
7897.439079650432
 30
0.0
 11
9466.685347139646
 21
7897.439079650428
 31
0.0
  0
LINE
  5
1A441
330
747D
100
AcDbEntity
  8
細線
 48
50.0
100
AcDbLine
 10
9466.685347139646
 20
7894.335230058072
 30
0.0
 11
9466.685347139646
 21
7898.835230058072
 31
0.0
  0
LINE
  5
1A442
330
747D
100
AcDbEntity
  8
細線
 48
50.0
100
AcDbLine
 10
9466.685347139646
 20
7898.835230058072
 30
0.0
 11
9451.685347139646
 21
7898.835230058072
 31
0.0
  0
LINE
  5
1A443
330
747D
100
AcDbEntity
  8
細線
 48
50.0
100
AcDbLine
 10
9451.685347139646
 20
7898.835230058072
 30
0.0
 11
9451.685347139646
 21
7905.835230058072
 31
0.0
  0
LINE
  5
1A444
330
747D
100
AcDbEntity
  8
細線
 48
50.0
100
AcDbLine
 10
9451.685347139646
 20
7905.835230058072
 30
0.0
 11
9436.685347139649
 21
7905.835230058068
 31
0.0
  0
LINE
  5
1A445
330
747D
100
AcDbEntity
  8
細線
 48
50.0
100
AcDbLine
 10
9436.685347139649
 20
7905.835230058068
 30
0.0
 11
9436.685347139649
 21
7868.235001954957
 31
0.0
  0
LINE
  5
1A446
330
747D
100
AcDbEntity
  8
細線
 48
50.0
100
AcDbLine
 10
9436.685347139649
 20
7868.235001954957
 30
0.0
 11
9456.685354440821
 21
7868.235043504499
 31
0.0
  0
LINE
  5
1A447
330
747D
100
AcDbEntity
  8
細線
 48
50.0
100
AcDbLine
 10
9456.685309571879
 20
7876.838505140307
 30
0.0
 11
9456.685354440821
 21
7868.235043504499
 31
0.0
  0
LINE
  5
1A448
330
747D
100
AcDbEntity
  8
細線
 48
50.0
100
AcDbLine
 10
10101.68533783247
 20
7893.989079650431
 30
0.0
 11
10101.68533783247
 21
7898.83907965043
 31
0.0
  0
LINE
  5
1A449
330
747D
100
AcDbEntity
  8
細線
 48
50.0
100
AcDbLine
 10
10101.68533783247
 20
7898.83907965043
 30
0.0
 11
10116.68533783246
 21
7898.83907965043
 31
0.0
  0
LINE
  5
1A44A
330
747D
100
AcDbEntity
  8
細線
 48
50.0
100
AcDbLine
 10
10116.68533783246
 20
7898.83907965043
 30
0.0
 11
10116.68534946644
 21
7905.839079650474
 31
0.0
  0
LINE
  5
1A44B
330
747D
100
AcDbEntity
  8
細線
 48
50.0
100
AcDbLine
 10
10116.68534946644
 20
7905.839079650474
 30
0.0
 11
10131.68534763697
 21
7905.839079650474
 31
0.0
  0
LINE
  5
1A44C
330
747D
100
AcDbEntity
  8
細線
 48
50.0
100
AcDbLine
 10
10131.68534763697
 20
7905.839079650474
 30
0.0
 11
10131.68533733515
 21
7876.838873478201
 31
0.0
  0
LINE
  5
1A44D
330
747D
100
AcDbEntity
  8
細線
 48
50.0
100
AcDbLine
 10
9819.185364965935
 20
7876.838881665566
 30
0.0
 11
9749.185617048352
 21
7876.838876228228
 31
0.0
  0
LINE
  5
1A44E
330
747D
100
AcDbEntity
  8
細線
 48
50.0
100
AcDbLine
 10
9456.685309571879
 20
7876.838505140307
 30
0.0
 11
9467.917998926591
 21
7876.838688093454
 31
0.0
  0
ARC
  5
1A44F
330
747D
100
AcDbEntity
  8
細線
 48
50.0
100
AcDbCircle
 10
9474.500291233926
 20
7875.638852007067
 30
0.0
 40
1.8
100
AcDbArc
 50
270.0006665777295
 51
345.0005554812987
  0
LINE
  5
1A450
330
747D
100
AcDbEntity
  8
細線
 48
50.0
100
AcDbLine
 10
9476.486724680006
 20
7876.097692464345
 30
0.0
 11
9476.238962237806
 21
7875.172994582239
 31
0.0
  0
LINE
  5
1A451
330
747D
100
AcDbEntity
  8
細線
 48
50.0
100
AcDbLine
 10
9474.500312175081
 20
7873.838852007188
 30
0.0
 11
9470.870384756311
 21
7873.838809776707
 31
0.0
  0
ARC
  5
1A452
330
747D
100
AcDbEntity
  8
細線
 48
50.0
100
AcDbCircle
 10
9470.87036381516
 20
7875.638809776586
 30
0.0
 40
1.8
100
AcDbArc
 50
195.0010443049394
 51
270.0006665777295
  0
LINE
  5
1A453
330
747D
100
AcDbEntity
  8
細線
 48
50.0
100
AcDbLine
 10
9468.883936322901
 20
7876.09752474415
 30
0.0
 11
9469.131705819414
 21
7875.17290380557
 31
0.0
  0
ARC
  5
1A454
330
747D
100
AcDbEntity
  8
細線
 48
50.0
100
AcDbCircle
 10
9467.918015214152
 20
7875.838688093589
 30
0.0
 40
1.0
100
AcDbArc
 50
15.00104430493943
 51
90.00093320877969
  0
LINE
  5
1A455
330
747D
100
AcDbEntity
  8
細線
 48
50.0
100
AcDbLine
 10
9477.452646035109
 20
7876.838882783859
 30
0.0
 11
9478.394406186012
 21
7876.838889357708
 31
0.0
  0
ARC
  5
1A456
330
747D
100
AcDbEntity
  8
細線
 48
50.0
100
AcDbCircle
 10
9477.452653015495
 20
7875.838882783884
 30
0.0
 40
1.0
100
AcDbArc
 50
90.0003999466794
 51
165.0005554812987
  0
LINE
  5
1A457
330
747D
100
AcDbEntity
  8
細線
 48
50.0
100
AcDbLine
 10
10029.18533783246
 20
7876.838873478201
 30
0.0
 11
10131.68533733515
 21
7876.838873478201
 31
0.0
  0
LINE
  5
1A458
330
747D
100
AcDbEntity
  8
細線
 48
50.0
100
AcDbLine
 10
9539.185373151351
 20
7876.838881665566
 30
0.0
 11
9478.085311924431
 21
7876.838889357708
 31
0.0
  0
LINE
  5
1A459
330
747D
100
AcDbEntity
  8
細線
 48
50.0
100
AcDbLine
 10
9959.185373151351
 20
7876.838918506649
 30
0.0
 11
9889.185366196967
 21
7876.838873483982
 31
0.0
  0
LINE
  5
1A45A
330
747D
100
AcDbEntity
  8
細線
 48
50.0
100
AcDbLine
 10
9679.185337832461
 20
7876.838873478196
 30
0.0
 11
9609.185320544584
 21
7876.838873478203
 31
0.0
  0
ARC
  5
1A45B
330
747D
100
AcDbEntity
  8
細線
 48
50.0
100
AcDbCircle
 10
10115.88534248607
 20
7910.03886161561
 30
0.0
 40
0.8
100
AcDbArc
 50
359.9997333689499
 51
89.99986668437072
  0
ARC
  5
1A45C
330
747D
100
AcDbEntity
  8
細線
 48
50.0
100
AcDbCircle
 10
10123.48534931116
 20
7910.038872784227
 30
0.0
 40
0.8
100
AcDbArc
 50
90.00014387753465
 51
179.9997333689498
  0
LINE
  5
1A45D
330
747D
100
AcDbEntity
  8
細線
 48
50.0
100
AcDbLine
 10
10115.8853443475
 20
7910.83886161561
 30
0.0
 11
10110.68534248605
 21
7910.83886161561
 31
0.0
  0
ARC
  5
1A45E
330
747D
100
AcDbEntity
  8
細線
 48
50.0
100
AcDbCircle
 10
10117.38534248606
 20
7908.53886161561
 30
0.0
 40
0.7
100
AcDbArc
 50
180.0
 51
270.0
  0
ARC
  5
1A45F
330
747D
100
AcDbEntity
  8
細線
 48
50.0
100
AcDbCircle
 10
10121.98534248606
 20
7908.53886161561
 30
0.0
 40
0.7
100
AcDbArc
 50
270.0
 51
0.0
  0
LINE
  5
1A460
330
747D
100
AcDbEntity
  8
細線
 48
50.0
100
AcDbLine
 10
10122.68534248605
 20
7908.53886161561
 30
0.0
 11
10122.68534931117
 21
7910.038876507099
 31
0.0
  0
LINE
  5
1A461
330
747D
100
AcDbEntity
  8
細線
 48
50.0
100
AcDbLine
 10
10117.38534248606
 20
7907.83886161561
 30
0.0
 11
10121.98534248606
 21
7907.83886161561
 31
0.0
  0
LINE
  5
1A462
330
747D
100
AcDbEntity
  8
細線
 48
50.0
100
AcDbLine
 10
10116.68534248605
 20
7910.03886161561
 30
0.0
 11
10116.68534248605
 21
7908.53886161561
 31
0.0
  0
LINE
  5
1A463
330
747D
100
AcDbEntity
  8
細線
 48
50.0
100
AcDbLine
 10
10742.28534248606
 20
7940.83886161561
 30
0.0
 11
10105.68534248605
 21
7940.838861615606
 31
0.0
  0
LINE
  5
1A464
330
747D
100
AcDbEntity
  8
細線
 48
50.0
100
AcDbLine
 10
10768.18534248605
 20
7935.838861615613
 30
0.0
 11
10752.28534248606
 21
7935.838861615611
 31
0.0
  0
LINE
  5
1A465
330
747D
100
AcDbEntity
  8
細線
 48
50.0
100
AcDbLine
 10
10752.28534248606
 20
7935.838861615611
 30
0.0
 11
10742.28534248606
 21
7940.83886161561
 31
0.0
  0
LINE
  5
1A466
330
747D
100
AcDbEntity
  8
細線
100
AcDbLine
 10
10353.18534248605
 20
7910.83886161561
 30
0.0
 11
10353.18534248605
 21
7940.13886161561
 31
0.0
  0
LINE
  5
1A467
330
747D
100
AcDbEntity
  8
細線
100
AcDbLine
 10
10353.18534248605
 20
7940.13886161561
 30
0.0
 11
10373.18534248605
 21
7940.13886161561
 31
0.0
  0
LINE
  5
1A468
330
747D
100
AcDbEntity
  8
細線
100
AcDbLine
 10
10373.18534248605
 20
7910.83886161561
 30
0.0
 11
10373.18534248605
 21
7940.13886161561
 31
0.0
  0
LINE
  5
1A469
330
747D
100
AcDbEntity
  8
細線
100
AcDbLine
 10
10534.43534248605
 20
7910.83886161561
 30
0.0
 11
10464.43534248605
 21
7910.83886161561
 31
0.0
  0
LINE
  5
1A46A
330
747D
100
AcDbEntity
  8
細線
 48
50.0
100
AcDbLine
 10
10254.43534248605
 20
7910.83886161561
 30
0.0
 11
10123.4811220589
 21
7910.83886161561
 31
0.0
  0
LINE
  5
1A46B
330
747D
100
AcDbEntity
  8
細線
100
AcDbLine
 10
10394.43534248605
 20
7910.83886161561
 30
0.0
 11
10324.43534248606
 21
7910.83886161561
 31
0.0
  0
LINE
  5
1A46C
330
747D
100
AcDbEntity
  8
細線
 48
50.0
100
AcDbLine
 10
10110.68534248605
 20
7902.83886161561
 30
0.0
 11
10110.68534248605
 21
7910.83886161561
 31
0.0
  0
LINE
  5
1A46D
330
747D
100
AcDbEntity
  8
細線
 48
50.0
100
AcDbLine
 10
10090.68534248605
 20
7902.838861615613
 30
0.0
 11
10110.68534248605
 21
7902.83886161561
 31
0.0
  0
LINE
  5
1A46E
330
747D
100
AcDbEntity
  8
細線
 48
50.0
100
AcDbLine
 10
10105.68534248605
 20
7940.83886161561
 30
0.0
 11
10105.68534248605
 21
7935.838861615611
 31
0.0
  0
LINE
  5
1A46F
330
747D
100
AcDbEntity
  8
細線
 48
50.0
100
AcDbLine
 10
10090.68534248605
 20
7940.838861615606
 30
0.0
 11
10105.68534248605
 21
7940.83886161561
 31
0.0
  0
LINE
  5
1A470
330
747D
100
AcDbEntity
  8
細線
 48
50.0
100
AcDbLine
 10
10090.68534248605
 20
7902.838861615613
 30
0.0
 11
10090.68534248605
 21
7940.838861615606
 31
0.0
  0
LINE
  5
1A471
330
747D
100
AcDbEntity
  8
細線
100
AcDbLine
 10
10758.68534248605
 20
7910.83886161561
 30
0.0
 11
10604.43534248605
 21
7910.83886161561
 31
0.0
  0
LINE
  5
1A472
330
747D
100
AcDbEntity
  8
細線
 48
50.0
100
AcDbLine
 10
10768.18534248605
 20
7935.838861615613
 30
0.0
 11
10768.18534248605
 21
7910.83886161561
 31
0.0
  0
DIMENSION
  5
1A6B2
330
747D
100
AcDbEntity
  8
寸法
100
AcDbDimension
  2
*D32
 10
7901.074096859362
 20
7839.838861615577
 30
0.0
 11
7901.074096859362
 21
7699.353580241339
 31
0.0
 70
   160
 71
     5
 42
75.0
  3
INABA_S40
100
AcDbAlignedDimension
 13
8195.685342486079
 23
7914.838861615577
 33
0.0
 14
8643.685342486055
 24
7839.838861615577
 34
0.0
 50
90.0
100
AcDbRotatedDimension
1001
ACAD
1000
DSTYLE
1002
{
1070
    41
1040
0.5
1070
    44
1040
1.0
1070
   147
1040
0.8
1070
   271
1070
     2
1070
   272
1070
     2
1070
   289
1070
     3
1070
   340
1005
F706
1070
   343
1005
19461
1070
   344
1005
19461
1002
}
  0
DIMENSION
  5
1A6B3
330
747D
100
AcDbEntity
  8
寸法
 48
50.0
100
AcDbDimension
  2
*D33
 10
10797.68534248605
 20
6917.709146187842
 30
0.0
 11
9742.818099233369
 21
6917.709146187842
 31
0.0
 70
   160
 71
     5
 42
2154.0
  3
INABA_S40G
100
AcDbAlignedDimension
 13
8643.685342486056
 23
7837.83886161561
 33
0.0
 14
10797.68534248605
 24
7837.83886161561
 34
0.0
100
AcDbRotatedDimension
1001
ACAD
1000
DSTYLE
1002
{
1070
   341
1005
0
1002
}
  0
DIMENSION
  5
1A7B6
330
747D
100
AcDbEntity
  8
寸法
100
AcDbDimension
  2
*D34
 10
11245.68534248606
 20
6630.73399606128
 30
0.0
 11
9740.401172860012
 21
6630.73399606128
 31
0.0
 70
   160
 71
     5
 42
3049.999999999982
  3
INABA_S40G
100
AcDbAlignedDimension
 13
8195.685342486079
 23
7914.838861615577
 33
0.0
 14
11245.68534248606
 24
7914.838861615741
 34
0.0
100
AcDbRotatedDimension
1001
ACAD
1000
DSTYLE
1002
{
1002
}
  0
LINE
  5
1A7C1
330
747D
100
AcDbEntity
  8
部品1
100
AcDbLine
 10
10102.42067560029
 20
6300.81821702536
 30
0.0
 11
9338.95000937186
 21
6300.81821702536
 31
0.0
  0
LINE
  5
1A7C2
330
747D
100
AcDbEntity
  8
部品1
100
AcDbLine
 10
10102.42067560029
 20
6060.925895479828
 30
0.0
 11
10102.42067560029
 21
6300.81821702536
 31
0.0
  0
LINE
  5
1A7C3
330
747D
100
AcDbEntity
  8
部品1
100
AcDbLine
 10
9338.95000937186
 20
6060.925895479828
 30
0.0
 11
10102.42067560029
 21
6060.925895479828
 31
0.0
  0
LINE
  5
1A7C4
330
747D
100
AcDbEntity
  8
部品1
100
AcDbLine
 10
9338.95000937186
 20
6300.81821702536
 30
0.0
 11
9338.95000937186
 21
6060.925895479828
 31
0.0
  0
TEXT
  5
1A7C5
330
747D
100
AcDbEntity
  8
部品1
100
AcDbText
 10
9428.869619200897
 20
6107.924687806837
 30
0.0
 40
135.0
  1
平面図
  7
STYLE2
100
AcDbText
  0
LWPOLYLINE
  5
1A9E1
330
747D
100
AcDbEntity
  8
部品1
 48
50.0
100
AcDbPolyline
 90
        4
 70
     1
 43
0.0
 10
8742.735342486088
 20
3399.696857236491
 10
8745.635342486091
 20
3399.696857236491
 10
8745.635342486091
 20
3409.196857236491
 10
8742.735342486088
 20
3409.196857236491
  0
CIRCLE
  5
1A9E2
330
747D
100
AcDbEntity
  8
部品1
 48
50.0
100
AcDbCircle
 10
8744.185342486089
 20
3404.446857236491
 30
0.0
 40
9.0
  0
ARC
  5
1A9E3
330
747D
100
AcDbEntity
  8
細線
 48
50.0
100
AcDbCircle
 10
8744.185342486089
 20
3404.446857236491
 30
0.0
 40
4.0
100
AcDbArc
 50
111.2538091853132
 51
248.7461908146868
  0
ARC
  5
1A9E4
330
747D
100
AcDbEntity
  8
細線
 48
50.0
100
AcDbCircle
 10
8744.185342486089
 20
3404.446857236491
 30
0.0
 40
17.5
100
AcDbArc
 50
306.4837370612677
 51
233.5162629387323
  0
LINE
  5
1A9E5
330
747D
100
AcDbEntity
  8
細線
 48
50.0
100
AcDbLine
 10
8754.185342486087
 20
3380.587896655608
 30
0.0
 11
8754.185342486088
 21
3389.572382455849
 31
0.0
  0
LINE
  5
1A9E6
330
747D
100
AcDbEntity
  8
細線
 48
50.0
100
AcDbLine
 10
8734.185342486091
 20
3380.58789665561
 30
0.0
 11
8734.185342486091
 21
3389.572382455846
 31
0.0
  0
ARC
  5
1A9E7
330
747D
100
AcDbEntity
  8
細線
 48
50.0
100
AcDbCircle
 10
8744.185342486089
 20
3404.446857236491
 30
0.0
 40
26.5
100
AcDbArc
 50
249.3326835063939
 51
290.6673164933835
  0
ARC
  5
1A9E8
330
747D
100
AcDbEntity
  8
細線
 48
50.0
100
AcDbCircle
 10
8753.185342486082
 20
3380.587896655608
 30
0.0
 40
1.0
100
AcDbArc
 50
290.6673164936062
 51
359.9999999998958
  0
ARC
  5
1A9E9
330
747D
100
AcDbEntity
  8
細線
 48
50.0
100
AcDbCircle
 10
8735.185342486088
 20
3380.58789665561
 30
0.0
 40
1.0
100
AcDbArc
 50
180.0
 51
249.3326835066164
  0
ARC
  5
1A9EA
330
747D
100
AcDbEntity
  8
細線
 48
50.0
100
AcDbCircle
 10
8733.185342486089
 20
3389.572382455846
 30
0.0
 40
1.0
100
AcDbArc
 50
0.0
 51
53.51626293873231
  0
ARC
  5
1A9EB
330
747D
100
AcDbEntity
  8
細線
 48
50.0
100
AcDbCircle
 10
8755.185342486093
 20
3389.572382455849
 30
0.0
 40
1.0
100
AcDbArc
 50
126.4837370615127
 51
180.0
  0
ARC
  5
1A9EC
330
747D
100
AcDbEntity
  8
細線
 48
50.0
100
AcDbCircle
 10
8744.185342486089
 20
3404.446857236491
 30
0.0
 40
21.5
100
AcDbArc
 50
255.8014401250294
 51
284.1985598749706
  0
ARC
  5
1A9ED
330
747D
100
AcDbEntity
  8
細線
 48
50.0
100
AcDbCircle
 10
8744.185342486089
 20
3404.446857236491
 30
0.0
 40
16.5
100
AcDbArc
 50
251.9694646069326
 51
288.0305353930674
  0
LINE
  5
1A9EE
330
747D
100
AcDbEntity
  8
細線
 48
50.0
100
AcDbLine
 10
8749.685342486088
 20
3383.894485110684
 30
0.0
 11
8749.685342486088
 21
3388.471876798021
 31
0.0
  0
LINE
  5
1A9EF
330
747D
100
AcDbEntity
  8
細線
 48
50.0
100
AcDbLine
 10
8738.685342486089
 20
3383.894485110684
 30
0.0
 11
8738.685342486089
 21
3388.471876798019
 31
0.0
  0
ARC
  5
1A9F0
330
747D
100
AcDbEntity
  8
細線
 48
50.0
100
AcDbCircle
 10
8738.985342486092
 20
3388.471876798019
 30
0.0
 40
0.3
100
AcDbArc
 50
71.96946460693259
 51
180.0
  0
ARC
  5
1A9F1
330
747D
100
AcDbEntity
  8
細線
 48
50.0
100
AcDbCircle
 10
8749.385342486091
 20
3388.471876798021
 30
0.0
 40
0.3
100
AcDbArc
 50
0.0
 51
108.0305353930674
  0
ARC
  5
1A9F2
330
747D
100
AcDbEntity
  8
細線
 48
50.0
100
AcDbCircle
 10
8749.385342486085
 20
3383.894485110684
 30
0.0
 40
0.3
100
AcDbArc
 50
284.1985598747622
 51
0.0000000001042204
  0
ARC
  5
1A9F3
330
747D
100
AcDbEntity
  8
細線
 48
50.0
100
AcDbCircle
 10
8738.985342486092
 20
3383.894485110684
 30
0.0
 40
0.3
100
AcDbArc
 50
180.0
 51
255.8014401248081
  0
CIRCLE
  5
1A9F4
330
747D
100
AcDbEntity
  8
細線
 48
50.0
100
AcDbCircle
 10
8744.185342486089
 20
3404.446857236491
 30
0.0
 40
12.0
  0
ARC
  5
1A9F5
330
747D
100
AcDbEntity
  8
部品1
 48
50.0
100
AcDbCircle
 10
8744.185342486089
 20
3454.446857236491
 30
0.0
 40
8.5
100
AcDbArc
 50
114.315739171091
 51
245.684260828909
  0
CIRCLE
  5
1A9F6
330
747D
100
AcDbEntity
  8
細線
 48
50.0
100
AcDbCircle
 10
8744.185342486089
 20
3454.446857236491
 30
0.0
 40
4.5
  0
LWPOLYLINE
  5
1A9F7
330
747D
100
AcDbEntity
  8
部品1
 48
50.0
100
AcDbPolyline
 90
        2
 70
     0
 43
0.0
 10
8740.68534248609
 20
3473.121706633474
 10
8740.68534248609
 20
3462.192823928906
  0
CIRCLE
  5
1A9F8
330
747D
100
AcDbEntity
  8
部品1
 48
50.0
100
AcDbCircle
 10
8744.185342486089
 20
3454.446857236491
 30
0.0
 40
19.0
  0
LWPOLYLINE
  5
1A9F9
330
747D
100
AcDbEntity
  8
部品1
 48
50.0
100
AcDbPolyline
 90
        2
 70
     0
 43
0.0
 10
8740.68534248609
 20
3446.700890544076
 10
8740.68534248609
 20
3435.772007839509
  0
LWPOLYLINE
  5
1A9FA
330
747D
100
AcDbEntity
  8
部品1
 48
50.0
100
AcDbPolyline
 90
        2
 70
     0
 43
0.0
 10
8747.685342486089
 20
3462.192823928906
 10
8747.685342486089
 20
3473.121706633474
  0
ARC
  5
1A9FB
330
747D
100
AcDbEntity
  8
部品1
 48
50.0
100
AcDbCircle
 10
8744.185342486089
 20
3454.446857236491
 30
0.0
 40
8.5
100
AcDbArc
 50
294.315739171091
 51
65.68426082890896
  0
LWPOLYLINE
  5
1A9FC
330
747D
100
AcDbEntity
  8
部品1
 48
50.0
100
AcDbPolyline
 90
        2
 70
     0
 43
0.0
 10
8747.685342486089
 20
3435.772007839509
 10
8747.685342486089
 20
3446.700890544076
  0
ARC
  5
1A9FD
330
747D
100
AcDbEntity
  8
細線
 48
50.0
100
AcDbCircle
 10
8744.185342486089
 20
3454.446857236491
 30
0.0
 40
16.5
100
AcDbArc
 50
332.0012352654438
 51
27.99876473455621
  0
ARC
  5
1A9FE
330
747D
100
AcDbEntity
  8
細線
 48
50.0
100
AcDbCircle
 10
8744.185342486089
 20
3454.446857236491
 30
0.0
 40
14.0
100
AcDbArc
 50
326.4074436112986
 51
33.59255638870134
  0
LINE
  5
1A9FF
330
747D
100
AcDbEntity
  8
細線
 48
50.0
100
AcDbLine
 10
8729.616540201758
 20
3462.192823928906
 30
0.0
 11
8732.5234386964
 21
3462.192823928906
 31
0.0
  0
LINE
  5
1AA00
330
747D
100
AcDbEntity
  8
細線
 48
50.0
100
AcDbLine
 10
8729.616540201758
 20
3446.700890544076
 30
0.0
 11
8732.5234386964
 21
3446.700890544076
 31
0.0
  0
LINE
  5
1AA01
330
747D
100
AcDbEntity
  8
細線
 48
50.0
100
AcDbLine
 10
8755.847246275777
 20
3462.192823928906
 30
0.0
 11
8758.754144770424
 21
3462.192823928906
 31
0.0
  0
LINE
  5
1AA02
330
747D
100
AcDbEntity
  8
細線
 48
50.0
100
AcDbLine
 10
8755.847246275777
 20
3446.700890544076
 30
0.0
 11
8758.754144770424
 21
3446.700890544076
 31
0.0
  0
ARC
  5
1AA03
330
747D
100
AcDbEntity
  8
細線
 48
50.0
100
AcDbCircle
 10
8744.185342486089
 20
3454.446857236491
 30
0.0
 40
14.0
100
AcDbArc
 50
146.4074436112986
 51
213.5925563887013
  0
ARC
  5
1AA04
330
747D
100
AcDbEntity
  8
細線
 48
50.0
100
AcDbCircle
 10
8744.185342486089
 20
3454.446857236491
 30
0.0
 40
16.5
100
AcDbArc
 50
152.0012352654438
 51
207.9987647345562
  0
ARC
  5
1AA05
330
747D
100
AcDbEntity
  8
部品1
 48
50.0
100
AcDbCircle
 10
8717.68534248609
 20
3479.946857236491
 30
0.0
 40
5.0
100
AcDbArc
 50
90.0
 51
180.0
  0
ARC
  5
1AA06
330
747D
100
AcDbEntity
  8
部品1
 48
50.0
100
AcDbCircle
 10
8717.68534248609
 20
3368.946857236491
 30
0.0
 40
5.0
100
AcDbArc
 50
180.0
 51
270.0
  0
ARC
  5
1AA07
330
747D
100
AcDbEntity
  8
部品1
 48
50.0
100
AcDbCircle
 10
8770.685342486089
 20
3368.946857236491
 30
0.0
 40
5.0
100
AcDbArc
 50
270.0
 51
0.0
  0
ARC
  5
1AA08
330
747D
100
AcDbEntity
  8
部品1
 48
50.0
100
AcDbCircle
 10
8770.685342486089
 20
3479.946857236491
 30
0.0
 40
5.0
100
AcDbArc
 50
0.0
 51
90.0
  0
LINE
  5
1AA0A
330
747D
100
AcDbEntity
  8
部品1
 48
50.0
100
AcDbLine
 10
8712.685342486089
 20
3368.946857236491
 30
0.0
 11
8712.685342486089
 21
3479.946857236491
 31
0.0
  0
LINE
  5
1AA0B
330
747D
100
AcDbEntity
  8
部品1
 48
50.0
100
AcDbLine
 10
8770.685342486089
 20
3363.946857236491
 30
0.0
 11
8717.68534248609
 21
3363.946857236491
 31
0.0
  0
LINE
  5
1AA0C
330
747D
100
AcDbEntity
  8
部品1
 48
50.0
100
AcDbLine
 10
8775.68534248609
 20
3479.946857236491
 30
0.0
 11
8775.68534248609
 21
3368.946857236491
 31
0.0
  0
VIEWPORT
  5
1943A
102
{ACAD_XDICTIONARY
360
1AA20
102
}
330
747A
100
AcDbEntity
 67
     1
  8
0
 48
50.0
100
AcDbViewport
 10
253.0459866220736
 20
148.5
 30
0.0
 40
506.0919732441472
 41
297.0
 68
     1
 69
     1
 12
253.0459866220736
 22
148.5
 13
0.0
 23
0.0
 14
10.0
 24
10.0
 15
10.0
 25
10.0
 16
0.0
 26
0.0
 36
1.0
 17
0.0
 27
0.0
 37
0.0
 42
50.0
 43
0.0
 44
0.0
 45
297.0
 50
0.0
 51
0.0
 72
     0
 90
    32800
  1

281
     0
 71
     1
 74
     0
110
0.0
120
0.0
130
0.0
111
1.0
121
0.0
131
0.0
112
0.0
122
1.0
132
0.0
 79
     0
146
0.0
  0
ENDSEC
  0
SECTION
  2
OBJECTS
  0
DICTIONARY
  5
7471
330
0
100
AcDbDictionary
281
     1
  3
ACAD_COLOR
350
19456
  3
ACAD_GROUP
350
7472
  3
ACAD_LAYOUT
350
19457
  3
ACAD_MATERIAL
350
19455
  3
ACAD_MLINESTYLE
350
7473
  3
ACAD_PLOTSETTINGS
350
19458
  3
ACAD_PLOTSTYLENAME
350
19453
  3
ACDBHEADERROUNDTRIPXREC
350
1AA1D
  3
AcDbVariableDictionary
350
1AA19
  3
CONTENTDICTIONARY
350
E71C
  3
DRAWINGVARIABLESDICT
350
F3B9
  0
DICTIONARY
  5
195FD
330
7467
100
AcDbDictionary
280
     1
281
     1
  3
ACAD_LAYERSTATES
360
195FE
  0
DICTIONARY
  5
1AA20
330
1943A
100
AcDbDictionary
280
     1
281
     1
  3
ACAD_XREC_ROUNDTRIP
360
1AA21
  0
DICTIONARY
  5
19456
102
{ACAD_REACTORS
330
7471
102
}
330
7471
100
AcDbDictionary
281
     1
  0
DICTIONARY
  5
7472
102
{ACAD_REACTORS
330
7471
102
}
330
7471
100
AcDbDictionary
281
     1
  0
DICTIONARY
  5
19457
102
{ACAD_REACTORS
330
7471
102
}
330
7471
100
AcDbDictionary
281
     1
  3
Model
350
19459
  3
レイアウト1
350
1945A
  0
DICTIONARY
  5
19455
102
{ACAD_REACTORS
330
7471
102
}
330
7471
100
AcDbDictionary
281
     1
  0
DICTIONARY
  5
7473
102
{ACAD_REACTORS
330
7471
102
}
330
7471
100
AcDbDictionary
281
     1
  3
STANDARD
350
7480
  0
DICTIONARY
  5
19458
102
{ACAD_REACTORS
330
7471
102
}
330
7471
100
AcDbDictionary
281
     1
  0
ACDBDICTIONARYWDFLT
  5
19453
102
{ACAD_REACTORS
330
7471
102
}
330
7471
100
AcDbDictionary
281
     1
  3
Normal
350
19454
100
AcDbDictionaryWithDefault
340
19454
  0
DICTIONARY
  5
1AA1D
102
{ACAD_REACTORS
330
7471
102
}
330
7471
100
AcDbDictionary
281
     1
  3
COLORDICT
350
1AA1F
  3
MATERIALDICT
350
1AA1E
  0
DICTIONARY
  5
1AA19
102
{ACAD_REACTORS
330
7471
102
}
330
7471
100
AcDbDictionary
281
     1
  3
DIMASSOC
350
1AA1A
  3
PROJECTNAME
350
1AA1B
  0
DICTIONARY
  5
E71C
102
{ACAD_REACTORS
330
7471
102
}
330
7471
100
AcDbDictionary
281
     1
  0
DICTIONARY
  5
F3B9
102
{ACAD_REACTORS
330
7471
102
}
330
7471
100
AcDbDictionary
281
     1
1001
DRAWINGVARIABLESXDATA
1000
POLARMODE
1000
1
  0
DICTIONARY
  5
195FE
102
{ACAD_REACTORS
330
195FD
102
}
330
195FD
100
AcDbDictionary
281
     1
  0
XRECORD
  5
1AA21
102
{ACAD_REACTORS
330
1AA20
102
}
330
1AA20
100
AcDbXrecord
280
     1
102
SHADEPLOT
 70
     0
  0
LAYOUT
  5
19459
102
{ACAD_XDICTIONARY
360
1AA22
102
}
102
{ACAD_REACTORS
330
19457
102
}
330
19457
100
AcDbPlotSettings
  1

  2
Microsoft Office Document Image Writer
  4

  6

 40
0.0
 41
0.0
 42
0.0
 43
0.0
 44
0.0
 45
0.0
 46
0.0
 47
0.0
 48
0.0
 49
0.0
140
0.0
141
0.0
142
1.0
143
1.0
 70
  1712
 72
     0
 73
     0
 74
     0
  7

 75
     0
147
1.0
148
0.0
149
0.0
100
AcDbLayout
  1
Model
 70
     1
 71
     0
 10
0.0
 20
0.0
 11
12.0
 21
9.0
 12
0.0
 22
0.0
 32
0.0
 14
0.0
 24
0.0
 34
0.0
 15
0.0
 25
0.0
 35
0.0
146
0.0
 13
0.0
 23
0.0
 33
0.0
 16
1.0
 26
0.0
 36
0.0
 17
0.0
 27
1.0
 37
0.0
 76
     0
330
747D
  0
LAYOUT
  5
1945A
102
{ACAD_XDICTIONARY
360
1AA24
102
}
102
{ACAD_REACTORS
330
19457
102
}
330
19457
100
AcDbPlotSettings
  1

  2
Microsoft Office Document Image Writer
  4

  6

 40
0.0
 41
0.0
 42
0.0
 43
0.0
 44
0.0
 45
0.0
 46
0.0
 47
0.0
 48
0.0
 49
0.0
140
0.0
141
0.0
142
1.0
143
1.0
 70
   688
 72
     0
 73
     0
 74
     5
  7

 75
    16
147
1.0
148
0.0
149
0.0
100
AcDbLayout
  1
レイアウト1
 70
     0
 71
     1
 10
0.0
 20
0.0
 11
420.0
 21
297.0
 12
0.0
 22
0.0
 32
0.0
 14
1.000000000000000E+20
 24
1.000000000000000E+20
 34
1.000000000000000E+20
 15
-1.000000000000000E+20
 25
-1.000000000000000E+20
 35
-1.000000000000000E+20
146
0.0
 13
0.0
 23
0.0
 33
0.0
 16
1.0
 26
0.0
 36
0.0
 17
0.0
 27
1.0
 37
0.0
 76
     0
330
747A
331
1943A
  0
MLINESTYLE
  5
7480
102
{ACAD_REACTORS
330
7473
102
}
330
7473
100
AcDbMlineStyle
  2
STANDARD
 70
     0
  3

 62
     0
 51
90.0
 52
90.0
 71
     2
 49
0.5
 62
   256
  6
BYLAYER
 49
-0.5
 62
   256
  6
BYLAYER
  0
ACDBPLACEHOLDER
  5
19454
102
{ACAD_REACTORS
330
19453
102
}
330
19453
  0
XRECORD
  5
1AA1F
102
{ACAD_REACTORS
330
1AA1D
102
}
330
1AA1D
100
AcDbXrecord
280
     1
340
19456
  0
XRECORD
  5
1AA1E
102
{ACAD_REACTORS
330
1AA1D
102
}
330
1AA1D
100
AcDbXrecord
280
     1
340
19455
  0
DICTIONARYVAR
  5
1AA1A
102
{ACAD_REACTORS
330
1AA19
102
}
330
1AA19
100
DictionaryVariables
280
     0
  1
1
  0
DICTIONARYVAR
  5
1AA1B
102
{ACAD_REACTORS
330
1AA19
102
}
330
1AA19
100
DictionaryVariables
280
     0
  1

  0
DICTIONARY
  5
1AA22
330
19459
100
AcDbDictionary
280
     1
281
     1
  3
ACAD_XREC_ROUNDTRIP
360
1AA23
  0
DICTIONARY
  5
1AA24
330
1945A
100
AcDbDictionary
280
     1
281
     1
  3
ACAD_XREC_ROUNDTRIP
360
1AA25
  0
XRECORD
  5
1AA23
102
{ACAD_REACTORS
330
1AA22
102
}
330
1AA22
100
AcDbXrecord
280
     1
102
SHADEPLOT
 70
     0
102
SHADEPLOTRESLEVEL
 70
     2
102
SHADEPLOTCUSTOMDPI
 70
   300
  0
XRECORD
  5
1AA25
102
{ACAD_REACTORS
330
1AA24
102
}
330
1AA24
100
AcDbXrecord
280
     1
102
SHADEPLOT
 70
     0
102
SHADEPLOTRESLEVEL
 70
     2
102
SHADEPLOTCUSTOMDPI
 70
   300
  0
ENDSEC
  0
EOF
