  0
SECTION
  2
HEADER
  9
$ACADVER
  1
AC1015
  9
$ACADMAINTVER
 70
    20
  9
$DWGCODEPAGE
  3
ANSI_932
  9
$INSBASE
 10
0.0
 20
0.0
 30
0.0
  9
$EXTMIN
 10
139.9999999999995
 20
-0.0000000000000909
 30
0.0
  9
$EXTMAX
 10
16307.2
 20
11409.6
 30
0.0
  9
$LIMMIN
 10
-25.79074261211281
 20
-125.8223078213959
  9
$LIMMAX
 10
16471.10331197129
 20
11496.44801950658
  9
$ORTHOMODE
 70
     0
  9
$REGENMODE
 70
     1
  9
$FILLMODE
 70
     1
  9
$QTEXTMODE
 70
     0
  9
$MIRRTEXT
 70
     1
  9
$LTSCALE
 40
20.0
  9
$ATTMODE
 70
     1
  9
$TEXTSIZE
 40
4.0
  9
$TRACEWID
 40
1.0
  9
$TEXTSTYLE
  7
STYLE1
  9
$CLAYER
  8
部品1
  9
$CELTYPE
  6
BYLAYER
  9
$CECOLOR
 62
   256
  9
$CELTSCALE
 40
50.0
  9
$DISPSILH
 70
     0
  9
$DIMSCALE
 40
40.0
  9
$DIMASZ
 40
2.5
  9
$DIMEXO
 40
0.5
  9
$DIMDLI
 40
7.0
  9
$DIMRND
 40
0.0
  9
$DIMDLE
 40
0.0
  9
$DIMEXE
 40
1.5
  9
$DIMTP
 40
0.0
  9
$DIMTM
 40
0.0
  9
$DIMTXT
 40
3.0
  9
$DIMCEN
 40
0.0
  9
$DIMTSZ
 40
0.0
  9
$DIMTOL
 70
     0
  9
$DIMLIM
 70
     0
  9
$DIMTIH
 70
     0
  9
$DIMTOH
 70
     0
  9
$DIMSE1
 70
     0
  9
$DIMSE2
 70
     0
  9
$DIMTAD
 70
     3
  9
$DIMZIN
 70
     8
  9
$DIMBLK
  1

  9
$DIMASO
 70
     1
  9
$DIMSHO
 70
     1
  9
$DIMPOST
  1

  9
$DIMAPOST
  1

  9
$DIMALT
 70
     0
  9
$DIMALTD
 70
     2
  9
$DIMALTF
 40
0.0394
  9
$DIMLFAC
 40
1.0
  9
$DIMTOFL
 70
     1
  9
$DIMTVP
 40
0.0
  9
$DIMTIX
 70
     1
  9
$DIMSOXD
 70
     0
  9
$DIMSAH
 70
     1
  9
$DIMBLK1
  1
DOTSMALL
  9
$DIMBLK2
  1
DOTSMALL
  9
$DIMSTYLE
  2
INABA_S40G
  9
$DIMCLRD
 70
     0
  9
$DIMCLRE
 70
     0
  9
$DIMCLRT
 70
     7
  9
$DIMTFAC
 40
1.0
  9
$DIMGAP
 40
1.0
  9
$DIMJUST
 70
     0
  9
$DIMSD1
 70
     0
  9
$DIMSD2
 70
     0
  9
$DIMTOLJ
 70
     1
  9
$DIMTZIN
 70
     0
  9
$DIMALTZ
 70
     0
  9
$DIMALTTZ
 70
     0
  9
$DIMUPT
 70
     0
  9
$DIMDEC
 70
     1
  9
$DIMTDEC
 70
     4
  9
$DIMALTU
 70
     2
  9
$DIMALTTD
 70
     2
  9
$DIMTXSTY
  7
STYLE1
  9
$DIMAUNIT
 70
     0
  9
$DIMADEC
 70
     0
  9
$DIMALTRND
 40
0.0
  9
$DIMAZIN
 70
     0
  9
$DIMDSEP
 70
    46
  9
$DIMATFIT
 70
     3
  9
$DIMFRAC
 70
     0
  9
$DIMLDRBLK
  1

  9
$DIMLUNIT
 70
     2
  9
$DIMLWD
 70
    -2
  9
$DIMLWE
 70
    -2
  9
$DIMTMOVE
 70
     0
  9
$LUNITS
 70
     2
  9
$LUPREC
 70
     1
  9
$SKETCHINC
 40
1.0
  9
$FILLETRAD
 40
3.0
  9
$AUNITS
 70
     0
  9
$AUPREC
 70
     0
  9
$MENU
  1
acad
  9
$ELEVATION
 40
0.0
  9
$PELEVATION
 40
0.0
  9
$THICKNESS
 40
0.0
  9
$LIMCHECK
 70
     0
  9
$CHAMFERA
 40
0.0
  9
$CHAMFERB
 40
0.0
  9
$CHAMFERC
 40
0.0
  9
$CHAMFERD
 40
0.0
  9
$SKPOLY
 70
     0
  9
$TDCREATE
 40
2451368.612993866
  9
$TDUCREATE
 40
2451368.237993866
  9
$TDUPDATE
 40
2455575.683232778
  9
$TDUUPDATE
 40
2455575.308232778
  9
$TDINDWG
 40
0.4986850347
  9
$TDUSRTIMER
 40
0.4986850347
  9
$USRTIMER
 70
     1
  9
$ANGBASE
 50
0.0
  9
$ANGDIR
 70
     0
  9
$PDMODE
 70
     3
  9
$PDSIZE
 40
2.0
  9
$PLINEWID
 40
0.0
  9
$SPLFRAME
 70
     0
  9
$SPLINETYPE
 70
     6
  9
$SPLINESEGS
 70
     8
  9
$HANDSEED
  5
1962E
  9
$SURFTAB1
 70
     6
  9
$SURFTAB2
 70
     6
  9
$SURFTYPE
 70
     6
  9
$SURFU
 70
     6
  9
$SURFV
 70
     6
  9
$UCSBASE
  2

  9
$UCSNAME
  2

  9
$UCSORG
 10
0.0
 20
0.0
 30
0.0
  9
$UCSXDIR
 10
1.0
 20
0.0
 30
0.0
  9
$UCSYDIR
 10
0.0
 20
1.0
 30
0.0
  9
$UCSORTHOREF
  2

  9
$UCSORTHOVIEW
 70
     0
  9
$UCSORGTOP
 10
0.0
 20
0.0
 30
0.0
  9
$UCSORGBOTTOM
 10
0.0
 20
0.0
 30
0.0
  9
$UCSORGLEFT
 10
0.0
 20
0.0
 30
0.0
  9
$UCSORGRIGHT
 10
0.0
 20
0.0
 30
0.0
  9
$UCSORGFRONT
 10
0.0
 20
0.0
 30
0.0
  9
$UCSORGBACK
 10
0.0
 20
0.0
 30
0.0
  9
$PUCSBASE
  2

  9
$PUCSNAME
  2

  9
$PUCSORG
 10
0.0
 20
0.0
 30
0.0
  9
$PUCSXDIR
 10
1.0
 20
0.0
 30
0.0
  9
$PUCSYDIR
 10
0.0
 20
1.0
 30
0.0
  9
$PUCSORTHOREF
  2

  9
$PUCSORTHOVIEW
 70
     0
  9
$PUCSORGTOP
 10
0.0
 20
0.0
 30
0.0
  9
$PUCSORGBOTTOM
 10
0.0
 20
0.0
 30
0.0
  9
$PUCSORGLEFT
 10
0.0
 20
0.0
 30
0.0
  9
$PUCSORGRIGHT
 10
0.0
 20
0.0
 30
0.0
  9
$PUCSORGFRONT
 10
0.0
 20
0.0
 30
0.0
  9
$PUCSORGBACK
 10
0.0
 20
0.0
 30
0.0
  9
$USERI1
 70
     0
  9
$USERI2
 70
     0
  9
$USERI3
 70
     0
  9
$USERI4
 70
     0
  9
$USERI5
 70
     0
  9
$USERR1
 40
0.0
  9
$USERR2
 40
0.0
  9
$USERR3
 40
0.0
  9
$USERR4
 40
0.0
  9
$USERR5
 40
0.0
  9
$WORLDVIEW
 70
     1
  9
$SHADEDGE
 70
     3
  9
$SHADEDIF
 70
    70
  9
$TILEMODE
 70
     1
  9
$MAXACTVP
 70
    16
  9
$PINSBASE
 10
0.0
 20
0.0
 30
0.0
  9
$PLIMCHECK
 70
     0
  9
$PEXTMIN
 10
1.000000000000000E+20
 20
1.000000000000000E+20
 30
1.000000000000000E+20
  9
$PEXTMAX
 10
-1.000000000000000E+20
 20
-1.000000000000000E+20
 30
-1.000000000000000E+20
  9
$PLIMMIN
 10
0.0
 20
0.0
  9
$PLIMMAX
 10
420.0
 20
297.0
  9
$UNITMODE
 70
     0
  9
$VISRETAIN
 70
     0
  9
$PLINEGEN
 70
     0
  9
$PSLTSCALE
 70
     0
  9
$TREEDEPTH
 70
  3020
  9
$CMLSTYLE
  2
STANDARD
  9
$CMLJUST
 70
     0
  9
$CMLSCALE
 40
1.0
  9
$PROXYGRAPHICS
 70
     1
  9
$MEASUREMENT
 70
     1
  9
$CELWEIGHT
370
    -1
  9
$ENDCAPS
280
     0
  9
$JOINSTYLE
280
     0
  9
$LWDISPLAY
290
     0
  9
$INSUNITS
 70
     0
  9
$HYPERLINKBASE
  1

  9
$STYLESHEET
  1
inaba.ctb
  9
$XEDIT
290
     1
  9
$CEPSNTYPE
380
     0
  9
$PSTYLEMODE
290
     1
  9
$FINGERPRINTGUID
  2
{8C5B1E9D-81C7-45E8-973B-B36E66799667}
  9
$VERSIONGUID
  2
{2F52B60A-6314-4F38-875A-32223534049D}
  9
$EXTNAMES
290
     1
  9
$PSVPSCALE
 40
0.0
  9
$OLESTARTUP
290
     0
  0
ENDSEC
  0
SECTION
  2
CLASSES
  0
CLASS
  1
ACDBDICTIONARYWDFLT
  2
AcDbDictionaryWithDefault
  3
ObjectDBX Classes
 90
        0
280
     0
281
     0
  0
CLASS
  1
DICTIONARYVAR
  2
AcDbDictionaryVar
  3
ObjectDBX Classes
 90
        0
280
     0
281
     0
  0
CLASS
  1
ACDBPLACEHOLDER
  2
AcDbPlaceHolder
  3
ObjectDBX Classes
 90
        0
280
     0
281
     0
  0
CLASS
  1
LAYOUT
  2
AcDbLayout
  3
ObjectDBX Classes
 90
        0
280
     0
281
     0
  0
ENDSEC
  0
SECTION
  2
TABLES
  0
TABLE
  2
VPORT
  5
746D
330
0
100
AcDbSymbolTable
 70
     2
  0
VPORT
  5
19626
330
746D
100
AcDbSymbolTableRecord
100
AcDbViewportTableRecord
  2
*Active
 70
     0
 10
0.0
 20
0.0
 11
1.0
 21
1.0
 12
8223.761025238504
 22
5704.608037261908
 13
0.0
 23
0.0
 14
10.0
 24
10.0
 15
10.0
 25
10.0
 16
0.0
 26
0.0
 36
1.0
 17
0.0
 27
0.0
 37
0.0
 40
11495.08541324274
 41
1.525925925925925
 42
50.0
 43
0.0
 44
0.0
 50
0.0
 51
0.0
 71
     0
 72
     0
 73
     1
 74
     0
 75
     0
 76
     0
 77
     0
 78
     0
281
     0
 65
     1
110
0.0
120
0.0
130
0.0
111
1.0
121
0.0
131
0.0
112
0.0
122
1.0
132
0.0
 79
     0
146
0.0
  0
ENDTAB
  0
TABLE
  2
LTYPE
  5
746A
330
0
100
AcDbSymbolTable
 70
     4
  0
LTYPE
  5
7477
330
746A
100
AcDbSymbolTableRecord
100
AcDbLinetypeTableRecord
  2
BYBLOCK
 70
     0
  3

 72
    65
 73
     0
 40
0.0
  0
LTYPE
  5
7478
330
746A
100
AcDbSymbolTableRecord
100
AcDbLinetypeTableRecord
  2
BYLAYER
 70
     0
  3

 72
    65
 73
     0
 40
0.0
  0
LTYPE
  5
7479
330
746A
100
AcDbSymbolTableRecord
100
AcDbLinetypeTableRecord
  2
CONTINUOUS
 70
     0
  3
Solid line
 72
    65
 73
     0
 40
0.0
  0
LTYPE
  5
7816
330
746A
100
AcDbSymbolTableRecord
100
AcDbLinetypeTableRecord
  2
CENTER
 70
     0
  3
____ _ ____ _ ____ _ ____ _ ____ _ ____ _ ____ 
 72
    65
 73
     4
 40
2.0
 49
1.25
 74
     0
 49
-0.25
 74
     0
 49
0.25
 74
     0
 49
-0.25
 74
     0
  0
LTYPE
  5
781A
330
746A
100
AcDbSymbolTableRecord
100
AcDbLinetypeTableRecord
  2
HIDDEN
 70
     0
  3
__ __ __ __ __ __ __ __ __ __ __ __ __ __ __ __
 72
    65
 73
     2
 40
0.375
 49
0.25
 74
     0
 49
-0.125
 74
     0
  0
LTYPE
  5
781B
330
746A
100
AcDbSymbolTableRecord
100
AcDbLinetypeTableRecord
  2
PHANTOM
 70
     0
  3
______  __  __  ______  __  __  ______  __  __ 
 72
    65
 73
     6
 40
2.5
 49
1.25
 74
     0
 49
-0.25
 74
     0
 49
0.25
 74
     0
 49
-0.25
 74
     0
 49
0.25
 74
     0
 49
-0.25
 74
     0
  0
ENDTAB
  0
TABLE
  2
LAYER
  5
7467
102
{ACAD_XDICTIONARY
360
18029
102
}
330
0
100
AcDbSymbolTable
 70
    12
  0
LAYER
  5
7474
330
7467
100
AcDbSymbolTableRecord
100
AcDbLayerTableRecord
  2
0
 70
     0
 62
     7
  6
CONTINUOUS
370
    -3
390
17E8D
  0
LAYER
  5
DEB2
330
7467
100
AcDbSymbolTableRecord
100
AcDbLayerTableRecord
  2
センター
 70
     0
 62
     3
  6
CENTER
370
    -3
390
17E8D
  0
LAYER
  5
DEB3
330
7467
100
AcDbSymbolTableRecord
100
AcDbLayerTableRecord
  2
寸法
 70
     0
 62
     4
  6
CONTINUOUS
370
    -3
390
17E8D
  0
LAYER
  5
DEB4
330
7467
100
AcDbSymbolTableRecord
100
AcDbLayerTableRecord
  2
部品1
 70
     0
 62
     7
  6
CONTINUOUS
370
    -3
390
17E8D
  0
LAYER
  5
DEB5
330
7467
100
AcDbSymbolTableRecord
100
AcDbLayerTableRecord
  2
補助
 70
     0
 62
    -1
  6
CONTINUOUS
370
    -3
390
17E8D
  0
LAYER
  5
DEB6
330
7467
100
AcDbSymbolTableRecord
100
AcDbLayerTableRecord
  2
文字
 70
     0
 62
     7
  6
CONTINUOUS
370
    -3
390
17E8D
  0
LAYER
  5
F255
330
7467
100
AcDbSymbolTableRecord
100
AcDbLayerTableRecord
  2
DEFPOINTS
 70
     0
 62
     7
  6
CONTINUOUS
290
     0
370
    -3
390
17E8D
  0
LAYER
  5
10B54
330
7467
100
AcDbSymbolTableRecord
100
AcDbLayerTableRecord
  2
仕様書枠
 70
     0
 62
   230
  6
CONTINUOUS
370
    -3
390
17E8D
  0
LAYER
  5
11729
330
7467
100
AcDbSymbolTableRecord
100
AcDbLayerTableRecord
  2
Ｇ．Ｌ
 70
     0
 62
    30
  6
CONTINUOUS
370
    -3
390
17E8D
  0
LAYER
  5
1173F
330
7467
100
AcDbSymbolTableRecord
100
AcDbLayerTableRecord
  2
細線
 70
     0
 62
     5
  6
CONTINUOUS
370
    -3
390
17E8D
  0
LAYER
  5
12CC4
330
7467
100
AcDbSymbolTableRecord
100
AcDbLayerTableRecord
  2
想像線
 70
     0
 62
     6
  6
PHANTOM
370
    -3
390
17E8D
  0
LAYER
  5
142E2
330
7467
100
AcDbSymbolTableRecord
100
AcDbLayerTableRecord
  2
破線
 70
     0
 62
     2
  6
HIDDEN
370
    -3
390
17E8D
  0
ENDTAB
  0
TABLE
  2
STYLE
  5
7468
330
0
100
AcDbSymbolTable
 70
     4
  0
STYLE
  5
7475
330
7468
100
AcDbSymbolTableRecord
100
AcDbTextStyleTableRecord
  2
STANDARD
 70
     0
 40
0.0
 41
1.0
 50
0.0
 71
     0
 42
4.0
  3
txt
  4
C:\AutoCAD LT\bigfont.shx
  0
STYLE
  5
F706
330
7468
100
AcDbSymbolTableRecord
100
AcDbTextStyleTableRecord
  2
STYLE1
 70
     0
 40
0.0
 41
1.0
 50
0.0
 71
     0
 42
4.0
  3
isocp.shx
  4
bigfont.shx
  0
STYLE
  5
103BF
330
7468
100
AcDbSymbolTableRecord
100
AcDbTextStyleTableRecord
  2
STYLE2
 70
     0
 40
0.0
 41
1.0
 50
0.0
 71
     0
 42
100.0
  3
MS PGothic.ttf
  4

1001
ACAD
1000
MS PGothic
1071
    32818
  0
STYLE
  5
18CEF
330
7468
100
AcDbSymbolTableRecord
100
AcDbTextStyleTableRecord
  2
STYLE3
 70
     0
 40
0.0
 41
1.0
 50
0.0
 71
     0
 42
100.0
  3
DFPGothic-EB.ttf
  4

1001
ACAD
1000
DFPGothic-EB
1071
    32818
  0
ENDTAB
  0
TABLE
  2
VIEW
  5
746B
330
0
100
AcDbSymbolTable
 70
     0
  0
ENDTAB
  0
TABLE
  2
UCS
  5
746C
330
0
100
AcDbSymbolTable
 70
     0
  0
ENDTAB
  0
TABLE
  2
APPID
  5
746E
330
0
100
AcDbSymbolTable
 70
     6
  0
APPID
  5
7476
330
746E
100
AcDbSymbolTableRecord
100
AcDbRegAppTableRecord
  2
ACAD
 70
     0
  0
APPID
  5
DEA9
330
746E
100
AcDbSymbolTableRecord
100
AcDbRegAppTableRecord
  2
CONTENTBLOCKICON
 70
     0
  0
APPID
  5
DEAA
330
746E
100
AcDbSymbolTableRecord
100
AcDbRegAppTableRecord
  2
CONTENTBLOCKDESCRIPTION
 70
     0
  0
APPID
  5
E71D
330
746E
100
AcDbSymbolTableRecord
100
AcDbRegAppTableRecord
  2
CONTENTTABDATA
 70
     0
  0
APPID
  5
E71E
330
746E
100
AcDbSymbolTableRecord
100
AcDbRegAppTableRecord
  2
CONTENTCURRENTTAB
 70
     0
  0
APPID
  5
F3BA
330
746E
100
AcDbSymbolTableRecord
100
AcDbRegAppTableRecord
  2
DRAWINGVARIABLESXDATA
 70
     0
  0
ENDTAB
  0
TABLE
  2
DIMSTYLE
  5
746F
330
0
100
AcDbSymbolTable
 70
     5
100
AcDbDimStyleTable
 71
     0
  0
DIMSTYLE
105
7484
330
746F
100
AcDbSymbolTableRecord
100
AcDbDimStyleTableRecord
  2
JIS
 70
     0
 41
2.5
 42
1.0
 43
7.0
 44
1.0
 73
     0
 74
     0
 77
     1
 78
     8
140
2.5
141
0.0
143
0.0394
147
0.0
172
     1
174
     1
175
     1
340
7475
  0
DIMSTYLE
105
F71F
102
{ACAD_REACTORS
330
1861F
330
18620
330
18623
330
1862C
330
18630
330
18632
330
18653
330
18659
330
1866D
330
1866E
330
1868F
330
1869E
330
183A0
330
183A1
330
183A2
330
183A3
330
183B1
330
183C6
330
183C7
330
183C8
330
183C9
330
183E3
330
183E4
330
183E8
330
18432
330
184C3
330
184C4
330
184C5
330
192B0
330
193B2
102
}
330
746F
100
AcDbSymbolTableRecord
100
AcDbDimStyleTableRecord
  2
INABA_S40G
 70
     0
 40
40.0
 41
2.5
 42
0.5
 43
7.0
 44
1.5
 73
     0
 74
     0
 77
     3
 78
     8
140
3.0
141
0.0
143
0.0394
147
1.0
172
     1
173
     1
174
     1
178
     7
271
     1
340
F706
341
F770
343
F770
344
F770
  0
DIMSTYLE
105
18028
102
{ACAD_REACTORS
330
19014
330
192B1
102
}
330
746F
100
AcDbSymbolTableRecord
100
AcDbDimStyleTableRecord
  2
INABA_S40
 70
     0
 40
40.0
 41
2.5
 42
0.5
 43
7.0
 44
1.5
 73
     0
 74
     0
 77
     3
 78
     8
140
3.0
141
0.0
143
0.0394
147
1.0
172
     1
173
     1
174
     1
175
     1
178
     7
340
7475
  0
DIMSTYLE
105
18CF0
330
746F
100
AcDbSymbolTableRecord
100
AcDbDimStyleTableRecord
  2
INABA_S50G
 70
     0
 41
125.0
 42
25.0
 43
7.0
 44
75.0
 73
     0
 74
     0
 77
     3
 78
     8
140
150.0
141
0.0
143
0.0394
147
25.0
172
     1
173
     1
174
     1
175
     1
178
     7
271
     1
340
F706
341
F770
343
F770
344
F770
  0
DIMSTYLE
105
195AC
330
746F
100
AcDbSymbolTableRecord
100
AcDbDimStyleTableRecord
  2
INABA_S20G
 70
     0
 40
20.0
 41
2.5
 42
0.5
 43
7.0
 44
1.5
 73
     0
 74
     0
 77
     3
 78
     8
140
3.0
141
0.0
143
0.0394
147
1.0
172
     1
173
     1
174
     1
178
     7
271
     1
340
F706
341
F770
343
F770
344
F770
  0
ENDTAB
  0
TABLE
  2
BLOCK_RECORD
  5
7466
330
0
100
AcDbSymbolTable
 70
    34
  0
BLOCK_RECORD
  5
747D
330
7466
100
AcDbSymbolTableRecord
100
AcDbBlockTableRecord
  2
*MODEL_SPACE
340
17E92
  0
BLOCK_RECORD
  5
747A
330
7466
100
AcDbSymbolTableRecord
100
AcDbBlockTableRecord
  2
*PAPER_SPACE
340
17E93
  0
BLOCK_RECORD
  5
F770
330
7466
100
AcDbSymbolTableRecord
100
AcDbBlockTableRecord
  2
_DOTSMALL
340
0
102
{BLKREFS
331
18DB2
331
18DB3
331
18DBB
331
18DBC
331
18E43
331
18E44
331
18E4C
331
18E4D
331
18E57
331
18E58
331
18E62
331
18E63
331
18E6B
331
18E6C
331
18E75
331
18E76
331
18E7E
331
18E7F
331
18E89
331
18E8A
331
18E93
331
18E94
331
18E9C
331
18E9D
331
18EA5
331
18EA6
331
18EAF
331
18EB0
331
18EB8
331
18EB9
331
18EC3
331
18EC4
331
18ECC
331
18ECD
331
18ED5
331
18ED6
331
1951E
331
1951F
331
19532
331
19533
331
19544
331
19545
331
1954D
331
1954E
331
19558
331
19559
331
19561
331
19562
331
1956A
331
1956B
331
19573
331
19574
331
1957E
331
1957F
331
19587
331
19588
331
19592
331
19593
331
1959D
331
1959E
102
}
  0
BLOCK_RECORD
  5
17EA6
330
7466
100
AcDbSymbolTableRecord
100
AcDbBlockTableRecord
  2
_DOT
340
0
102
{BLKREFS
331
19529
331
1952A
331
1953B
331
1953C
102
}
  0
BLOCK_RECORD
  5
186C5
330
7466
100
AcDbSymbolTableRecord
100
AcDbBlockTableRecord
  2
*D2
340
0
  0
BLOCK_RECORD
  5
186D3
330
7466
100
AcDbSymbolTableRecord
100
AcDbBlockTableRecord
  2
*D3
340
0
  0
BLOCK_RECORD
  5
186E1
330
7466
100
AcDbSymbolTableRecord
100
AcDbBlockTableRecord
  2
*D4
340
0
  0
BLOCK_RECORD
  5
186ED
330
7466
100
AcDbSymbolTableRecord
100
AcDbBlockTableRecord
  2
*D5
340
0
  0
BLOCK_RECORD
  5
186FB
330
7466
100
AcDbSymbolTableRecord
100
AcDbBlockTableRecord
  2
*D6
340
0
  0
BLOCK_RECORD
  5
18707
330
7466
100
AcDbSymbolTableRecord
100
AcDbBlockTableRecord
  2
*D7
340
0
  0
BLOCK_RECORD
  5
18713
330
7466
100
AcDbSymbolTableRecord
100
AcDbBlockTableRecord
  2
*D8
340
0
  0
BLOCK_RECORD
  5
1871F
330
7466
100
AcDbSymbolTableRecord
100
AcDbBlockTableRecord
  2
*D9
340
0
  0
BLOCK_RECORD
  5
18739
330
7466
100
AcDbSymbolTableRecord
100
AcDbBlockTableRecord
  2
*D10
340
0
  0
BLOCK_RECORD
  5
18745
330
7466
100
AcDbSymbolTableRecord
100
AcDbBlockTableRecord
  2
*D11
340
0
  0
BLOCK_RECORD
  5
18751
330
7466
100
AcDbSymbolTableRecord
100
AcDbBlockTableRecord
  2
*D12
340
0
  0
BLOCK_RECORD
  5
1875D
330
7466
100
AcDbSymbolTableRecord
100
AcDbBlockTableRecord
  2
*D13
340
0
  0
BLOCK_RECORD
  5
18769
330
7466
100
AcDbSymbolTableRecord
100
AcDbBlockTableRecord
  2
*D14
340
0
  0
BLOCK_RECORD
  5
18775
330
7466
100
AcDbSymbolTableRecord
100
AcDbBlockTableRecord
  2
*D15
340
0
  0
BLOCK_RECORD
  5
18781
330
7466
100
AcDbSymbolTableRecord
100
AcDbBlockTableRecord
  2
*D16
340
0
  0
BLOCK_RECORD
  5
1878F
330
7466
100
AcDbSymbolTableRecord
100
AcDbBlockTableRecord
  2
*D17
340
0
  0
BLOCK_RECORD
  5
1879B
330
7466
100
AcDbSymbolTableRecord
100
AcDbBlockTableRecord
  2
*D18
340
0
  0
BLOCK_RECORD
  5
187A8
330
7466
100
AcDbSymbolTableRecord
100
AcDbBlockTableRecord
  2
*D19
340
0
  0
BLOCK_RECORD
  5
187B4
330
7466
100
AcDbSymbolTableRecord
100
AcDbBlockTableRecord
  2
*D20
340
0
  0
BLOCK_RECORD
  5
187C0
330
7466
100
AcDbSymbolTableRecord
100
AcDbBlockTableRecord
  2
*D21
340
0
  0
BLOCK_RECORD
  5
187CD
330
7466
100
AcDbSymbolTableRecord
100
AcDbBlockTableRecord
  2
*D22
340
0
  0
BLOCK_RECORD
  5
187DB
330
7466
100
AcDbSymbolTableRecord
100
AcDbBlockTableRecord
  2
*D23
340
0
  0
BLOCK_RECORD
  5
187E8
330
7466
100
AcDbSymbolTableRecord
100
AcDbBlockTableRecord
  2
*D24
340
0
  0
BLOCK_RECORD
  5
187F4
330
7466
100
AcDbSymbolTableRecord
100
AcDbBlockTableRecord
  2
*D25
340
0
  0
BLOCK_RECORD
  5
18800
330
7466
100
AcDbSymbolTableRecord
100
AcDbBlockTableRecord
  2
*D26
340
0
  0
BLOCK_RECORD
  5
1880E
330
7466
100
AcDbSymbolTableRecord
100
AcDbBlockTableRecord
  2
*D27
340
0
  0
BLOCK_RECORD
  5
1881C
330
7466
100
AcDbSymbolTableRecord
100
AcDbBlockTableRecord
  2
*D28
340
0
  0
BLOCK_RECORD
  5
18828
330
7466
100
AcDbSymbolTableRecord
100
AcDbBlockTableRecord
  2
*D29
340
0
  0
BLOCK_RECORD
  5
1907F
330
7466
100
AcDbSymbolTableRecord
100
AcDbBlockTableRecord
  2
*D30
340
0
  0
BLOCK_RECORD
  5
193C4
330
7466
100
AcDbSymbolTableRecord
100
AcDbBlockTableRecord
  2
*D31
340
0
  0
BLOCK_RECORD
  5
193D0
330
7466
100
AcDbSymbolTableRecord
100
AcDbBlockTableRecord
  2
*D32
340
0
  0
BLOCK_RECORD
  5
19452
330
7466
100
AcDbSymbolTableRecord
100
AcDbBlockTableRecord
  2
*D33
340
0
  0
ENDTAB
  0
ENDSEC
  0
SECTION
  2
BLOCKS
  0
BLOCK
  5
7489
330
747D
100
AcDbEntity
  8
0
100
AcDbBlockBegin
  2
*MODEL_SPACE
 70
     0
 10
0.0
 20
0.0
 30
0.0
  3
*MODEL_SPACE
  1

  0
ENDBLK
  5
748A
330
747D
100
AcDbEntity
  8
0
100
AcDbBlockEnd
  0
BLOCK
  5
7487
330
747A
100
AcDbEntity
 67
     1
  8
0
100
AcDbBlockBegin
  2
*PAPER_SPACE
 70
     0
 10
0.0
 20
0.0
 30
0.0
  3
*PAPER_SPACE
  1

  0
ENDBLK
  5
7488
330
747A
100
AcDbEntity
 67
     1
  8
0
100
AcDbBlockEnd
  0
BLOCK
  5
F771
330
F770
100
AcDbEntity
  8
0
 48
50.0
100
AcDbBlockBegin
  2
_DOTSMALL
 70
     0
 10
0.0
 20
0.0
 30
0.0
  3
_DOTSMALL
  1

  0
LWPOLYLINE
  5
F772
330
F770
100
AcDbEntity
  8
0
  6
ByBlock
 62
     0
 48
50.0
100
AcDbPolyline
 90
        2
 70
     1
 43
0.5
 10
-0.0625
 20
0.0
 42
1.0
 10
0.0625
 20
0.0
 42
1.0
  0
ENDBLK
  5
F776
330
F770
100
AcDbEntity
  8
0
 48
50.0
100
AcDbBlockEnd
  0
BLOCK
  5
17EA7
330
17EA6
100
AcDbEntity
  8
0
 48
50.0
100
AcDbBlockBegin
  2
_DOT
 70
     0
 10
0.0
 20
0.0
 30
0.0
  3
_DOT
  1

  0
LWPOLYLINE
  5
17EA8
330
17EA6
100
AcDbEntity
  8
0
  6
ByBlock
 62
     0
 48
50.0
100
AcDbPolyline
 90
        2
 70
     1
 43
0.5
 10
-0.25
 20
0.0
 42
1.0
 10
0.25
 20
0.0
 42
1.0
  0
LINE
  5
17EA9
330
17EA6
100
AcDbEntity
  8
0
  6
ByBlock
 62
     0
 48
50.0
100
AcDbLine
 10
-0.5
 20
0.0
 30
0.0
 11
-1.0
 21
0.0
 31
0.0
  0
ENDBLK
  5
17EAA
330
17EA6
100
AcDbEntity
  8
0
 48
50.0
100
AcDbBlockEnd
  0
BLOCK
  5
186D1
330
186C5
100
AcDbEntity
  8
0
 48
50.0
100
AcDbBlockBegin
  2
*D2
 70
     1
 10
0.0
 20
0.0
 30
0.0
  3
*D2
  1

  0
LINE
  5
19598
330
186C5
100
AcDbEntity
  8
寸法
 62
     0
 48
50.0
370
    -2
100
AcDbLine
 10
11552.02520693997
 20
9792.444819195154
 30
0.0
 11
12292.02520693997
 21
9792.444819195154
 31
0.0
  0
LINE
  5
19599
330
186C5
100
AcDbEntity
  8
寸法
 62
     0
 48
50.0
370
    -2
100
AcDbLine
 10
11552.02520693997
 20
9737.444819195159
 30
0.0
 11
12292.02520693997
 21
9737.444819195156
 31
0.0
  0
LINE
  5
1959A
330
186C5
100
AcDbEntity
  8
寸法
 62
     0
 48
50.0
370
    -2
100
AcDbLine
 10
12232.02520693997
 20
9737.444819195159
 30
0.0
 11
12232.02520693997
 21
9637.44481919516
 31
0.0
  0
LINE
  5
1959B
330
186C5
100
AcDbEntity
  8
寸法
 62
     0
 48
50.0
370
    -2
100
AcDbLine
 10
12232.02520693997
 20
9792.444819195154
 30
0.0
 11
12232.02520693997
 21
10209.41538194363
 31
0.0
  0
LINE
  5
1959C
330
186C5
100
AcDbEntity
  8
寸法
 62
     0
 48
50.0
370
    -2
100
AcDbLine
 10
12232.02520693997
 20
9737.444819195159
 30
0.0
 11
12232.02520693997
 21
9792.444819195154
 31
0.0
  0
INSERT
  5
1959D
330
186C5
100
AcDbEntity
  8
寸法
 62
     0
 48
50.0
370
    -2
100
AcDbBlockReference
  2
_DOTSMALL
 10
12232.02520693997
 20
9737.444819195159
 30
0.0
 41
100.0
 42
100.0
 43
100.0
 50
90.0
  0
INSERT
  5
1959E
330
186C5
100
AcDbEntity
  8
寸法
 62
     0
 48
50.0
370
    -2
100
AcDbBlockReference
  2
_DOTSMALL
 10
12232.02520693997
 20
9792.444819195154
 30
0.0
 41
100.0
 42
100.0
 43
100.0
 50
270.0
  0
MTEXT
  5
1959F
330
186C5
100
AcDbEntity
  8
寸法
 62
     7
 48
50.0
100
AcDbMText
 10
12132.02520693997
 20
10100.93010056939
 30
0.0
 40
120.0
 41
0.0
 71
     5
 72
     1
  1
\A1;55
  7
STYLE1
 11
0.0000000000000001
 21
1.0
 31
0.0
 73
     1
 44
1.0
1001
ACAD
1000
MTEXTBEGIN
1070
    73
1070
     1
1070
    44
1040
1.0
1070
    74
1070
     0
1000
MTEXTEND
  0
POINT
  5
195A0
330
186C5
100
AcDbEntity
  8
DEFPOINTS
 62
     0
 48
50.0
100
AcDbPoint
 10
11532.02520693997
 20
9792.444819195154
 30
0.0
  0
POINT
  5
195A1
330
186C5
100
AcDbEntity
  8
DEFPOINTS
 62
     0
 48
50.0
100
AcDbPoint
 10
11532.02520693997
 20
9737.444819195159
 30
0.0
  0
POINT
  5
195A2
330
186C5
100
AcDbEntity
  8
DEFPOINTS
 62
     0
 48
50.0
100
AcDbPoint
 10
12232.02520693997
 20
9737.444819195159
 30
0.0
  0
ENDBLK
  5
186D2
330
186C5
100
AcDbEntity
  8
0
 48
50.0
100
AcDbBlockEnd
  0
BLOCK
  5
186DF
330
186D3
100
AcDbEntity
  8
0
 48
50.0
100
AcDbBlockBegin
  2
*D3
 70
     1
 10
0.0
 20
0.0
 30
0.0
  3
*D3
  1

  0
LINE
  5
1958D
330
186D3
100
AcDbEntity
  8
寸法
 62
     0
 48
50.0
370
    -2
100
AcDbLine
 10
11477.02520693997
 20
9812.444819195155
 30
0.0
 11
11477.02520693997
 21
10352.44481919515
 31
0.0
  0
LINE
  5
1958E
330
186D3
100
AcDbEntity
  8
寸法
 62
     0
 48
50.0
370
    -2
100
AcDbLine
 10
11532.02520693997
 20
9812.444819195155
 30
0.0
 11
11532.02520693997
 21
10352.44481919515
 31
0.0
  0
LINE
  5
1958F
330
186D3
100
AcDbEntity
  8
寸法
 62
     0
 48
50.0
370
    -2
100
AcDbLine
 10
11477.02520693997
 20
10292.44481919515
 30
0.0
 11
11377.02520693997
 21
10292.44481919515
 31
0.0
  0
LINE
  5
19590
330
186D3
100
AcDbEntity
  8
寸法
 62
     0
 48
50.0
370
    -2
100
AcDbLine
 10
11532.02520693997
 20
10292.44481919515
 30
0.0
 11
11948.99576968844
 21
10292.44481919515
 31
0.0
  0
LINE
  5
19591
330
186D3
100
AcDbEntity
  8
寸法
 62
     0
 48
50.0
370
    -2
100
AcDbLine
 10
11477.02520693997
 20
10292.44481919515
 30
0.0
 11
11532.02520693997
 21
10292.44481919515
 31
0.0
  0
INSERT
  5
19592
330
186D3
100
AcDbEntity
  8
寸法
 62
     0
 48
50.0
370
    -2
100
AcDbBlockReference
  2
_DOTSMALL
 10
11477.02520693997
 20
10292.44481919515
 30
0.0
 41
100.0
 42
100.0
 43
100.0
  0
INSERT
  5
19593
330
186D3
100
AcDbEntity
  8
寸法
 62
     0
 48
50.0
370
    -2
100
AcDbBlockReference
  2
_DOTSMALL
 10
11532.02520693997
 20
10292.44481919515
 30
0.0
 41
100.0
 42
100.0
 43
100.0
 50
180.0
  0
MTEXT
  5
19594
330
186D3
100
AcDbEntity
  8
寸法
 62
     7
 48
50.0
100
AcDbMText
 10
11840.5104883142
 20
10392.44481919515
 30
0.0
 40
120.0
 41
0.0
 71
     5
 72
     1
  1
\A1;55
  7
STYLE1
 73
     1
 44
1.0
1001
ACAD
1000
MTEXTBEGIN
1070
    73
1070
     1
1070
    44
1040
1.0
1070
    74
1070
     0
1000
MTEXTEND
  0
POINT
  5
19595
330
186D3
100
AcDbEntity
  8
DEFPOINTS
 62
     0
 48
50.0
100
AcDbPoint
 10
11477.02520693997
 20
9792.444819195154
 30
0.0
  0
POINT
  5
19596
330
186D3
100
AcDbEntity
  8
DEFPOINTS
 62
     0
 48
50.0
100
AcDbPoint
 10
11532.02520693997
 20
9792.444819195154
 30
0.0
  0
POINT
  5
19597
330
186D3
100
AcDbEntity
  8
DEFPOINTS
 62
     0
 48
50.0
100
AcDbPoint
 10
11532.02520693997
 20
10292.44481919515
 30
0.0
  0
ENDBLK
  5
186E0
330
186D3
100
AcDbEntity
  8
0
 48
50.0
100
AcDbBlockEnd
  0
BLOCK
  5
186EB
330
186E1
100
AcDbEntity
  8
0
 48
50.0
100
AcDbBlockBegin
  2
*D4
 70
     1
 10
0.0
 20
0.0
 30
0.0
  3
*D4
  1

  0
LINE
  5
19584
330
186E1
100
AcDbEntity
  8
寸法
 62
     0
 48
50.0
370
    -2
100
AcDbLine
 10
11523.52520693997
 20
9757.085835346533
 30
0.0
 11
11992.02520693996
 21
9631.551638692553
 31
0.0
  0
LINE
  5
19585
330
186E1
100
AcDbEntity
  8
寸法
 62
     0
 48
50.0
370
    -2
100
AcDbLine
 10
11523.52520693997
 20
9307.085835346535
 30
0.0
 11
11992.02520693996
 21
9181.551638692555
 31
0.0
  0
LINE
  5
19586
330
186E1
100
AcDbEntity
  8
寸法
 62
     0
 48
50.0
370
    -2
100
AcDbLine
 10
11932.02520693996
 20
9647.628590238419
 30
0.0
 11
11932.02520693996
 21
9197.628590238421
 31
0.0
  0
INSERT
  5
19587
330
186E1
100
AcDbEntity
  8
寸法
 62
     0
 48
50.0
370
    -2
100
AcDbBlockReference
  2
_DOTSMALL
 10
11932.02520693996
 20
9647.628590238419
 30
0.0
 41
100.0
 42
100.0
 43
100.0
 50
90.0
  0
INSERT
  5
19588
330
186E1
100
AcDbEntity
  8
寸法
 62
     0
 48
50.0
370
    -2
100
AcDbBlockReference
  2
_DOTSMALL
 10
11932.02520693996
 20
9197.628590238421
 30
0.0
 41
100.0
 42
100.0
 43
100.0
 50
270.0
  0
MTEXT
  5
19589
330
186E1
100
AcDbEntity
  8
寸法
 62
     7
 48
50.0
100
AcDbMText
 10
11832.02520693996
 20
9422.628590238421
 30
0.0
 40
120.0
 41
0.0
 71
     5
 72
     1
  1
\A1;450
  7
STYLE1
 11
0.0000000000000001
 21
1.0
 31
0.0
 73
     1
 44
1.0
1001
ACAD
1000
MTEXTBEGIN
1070
    73
1070
     1
1070
    44
1040
1.0
1070
    74
1070
     0
1000
MTEXTEND
  0
POINT
  5
1958A
330
186E1
100
AcDbEntity
  8
DEFPOINTS
 62
     0
 48
50.0
100
AcDbPoint
 10
11503.52520693997
 20
9762.444819195154
 30
0.0
  0
POINT
  5
1958B
330
186E1
100
AcDbEntity
  8
DEFPOINTS
 62
     0
 48
50.0
100
AcDbPoint
 10
11503.52520693997
 20
9312.444819195158
 30
0.0
  0
POINT
  5
1958C
330
186E1
100
AcDbEntity
  8
DEFPOINTS
 62
     0
 48
50.0
100
AcDbPoint
 10
11932.02520693996
 20
9197.628590238421
 30
0.0
  0
ENDBLK
  5
186EC
330
186E1
100
AcDbEntity
  8
0
 48
50.0
100
AcDbBlockEnd
  0
BLOCK
  5
186F9
330
186ED
100
AcDbEntity
  8
0
 48
50.0
100
AcDbBlockBegin
  2
*D5
 70
     1
 10
0.0
 20
0.0
 30
0.0
  3
*D5
  1

  0
LINE
  5
19579
330
186ED
100
AcDbEntity
  8
寸法
 62
     0
 48
50.0
370
    -2
100
AcDbLine
 10
11552.02520693994
 20
7637.444819195143
 30
0.0
 11
12292.02520693994
 21
7637.444819195143
 31
0.0
  0
LINE
  5
1957A
330
186ED
100
AcDbEntity
  8
寸法
 62
     0
 48
50.0
370
    -2
100
AcDbLine
 10
11552.02520693994
 20
7582.444819195146
 30
0.0
 11
12292.02520693994
 21
7582.444819195146
 31
0.0
  0
LINE
  5
1957B
330
186ED
100
AcDbEntity
  8
寸法
 62
     0
 48
50.0
370
    -2
100
AcDbLine
 10
12232.02520693994
 20
7637.444819195143
 30
0.0
 11
12232.02520693994
 21
7737.444819195143
 31
0.0
  0
LINE
  5
1957C
330
186ED
100
AcDbEntity
  8
寸法
 62
     0
 48
50.0
370
    -2
100
AcDbLine
 10
12232.02520693994
 20
7582.444819195146
 30
0.0
 11
12232.02520693994
 21
7165.474256446664
 31
0.0
  0
LINE
  5
1957D
330
186ED
100
AcDbEntity
  8
寸法
 62
     0
 48
50.0
370
    -2
100
AcDbLine
 10
12232.02520693994
 20
7637.444819195143
 30
0.0
 11
12232.02520693994
 21
7582.444819195146
 31
0.0
  0
INSERT
  5
1957E
330
186ED
100
AcDbEntity
  8
寸法
 62
     0
 48
50.0
370
    -2
100
AcDbBlockReference
  2
_DOTSMALL
 10
12232.02520693994
 20
7637.444819195143
 30
0.0
 41
100.0
 42
100.0
 43
100.0
 50
270.0
  0
INSERT
  5
1957F
330
186ED
100
AcDbEntity
  8
寸法
 62
     0
 48
50.0
370
    -2
100
AcDbBlockReference
  2
_DOTSMALL
 10
12232.02520693994
 20
7582.444819195146
 30
0.0
 41
100.0
 42
100.0
 43
100.0
 50
90.0
  0
MTEXT
  5
19580
330
186ED
100
AcDbEntity
  8
寸法
 62
     7
 48
50.0
100
AcDbMText
 10
12132.02520693994
 20
7273.959537820904
 30
0.0
 40
120.0
 41
0.0
 71
     5
 72
     1
  1
\A1;55
  7
STYLE1
 11
0.0000000000000001
 21
1.0
 31
0.0
 73
     1
 44
1.0
1001
ACAD
1000
MTEXTBEGIN
1070
    73
1070
     1
1070
    44
1040
1.0
1070
    74
1070
     0
1000
MTEXTEND
  0
POINT
  5
19581
330
186ED
100
AcDbEntity
  8
DEFPOINTS
 62
     0
 48
50.0
100
AcDbPoint
 10
11532.02520693994
 20
7637.444819195143
 30
0.0
  0
POINT
  5
19582
330
186ED
100
AcDbEntity
  8
DEFPOINTS
 62
     0
 48
50.0
100
AcDbPoint
 10
11532.02520693994
 20
7582.444819195146
 30
0.0
  0
POINT
  5
19583
330
186ED
100
AcDbEntity
  8
DEFPOINTS
 62
     0
 48
50.0
100
AcDbPoint
 10
12232.02520693994
 20
7582.444819195146
 30
0.0
  0
ENDBLK
  5
186FA
330
186ED
100
AcDbEntity
  8
0
 48
50.0
100
AcDbBlockEnd
  0
BLOCK
  5
18705
330
186FB
100
AcDbEntity
  8
0
 48
50.0
100
AcDbBlockBegin
  2
*D6
 70
     1
 10
0.0
 20
0.0
 30
0.0
  3
*D6
  1

  0
LINE
  5
19570
330
186FB
100
AcDbEntity
  8
寸法
 62
     0
 48
50.0
370
    -2
100
AcDbLine
 10
11552.02520693997
 20
9737.444819195159
 30
0.0
 11
12292.02520693996
 21
9737.444819195156
 31
0.0
  0
LINE
  5
19571
330
186FB
100
AcDbEntity
  8
寸法
 62
     0
 48
50.0
370
    -2
100
AcDbLine
 10
11552.02520693994
 20
7637.444819195143
 30
0.0
 11
12292.02520693996
 21
7637.444819195143
 31
0.0
  0
LINE
  5
19572
330
186FB
100
AcDbEntity
  8
寸法
 62
     0
 48
50.0
370
    -2
100
AcDbLine
 10
12232.02520693996
 20
9737.444819195159
 30
0.0
 11
12232.02520693996
 21
7637.444819195143
 31
0.0
  0
INSERT
  5
19573
330
186FB
100
AcDbEntity
  8
寸法
 62
     0
 48
50.0
370
    -2
100
AcDbBlockReference
  2
_DOTSMALL
 10
12232.02520693996
 20
9737.444819195159
 30
0.0
 41
100.0
 42
100.0
 43
100.0
 50
90.0
  0
INSERT
  5
19574
330
186FB
100
AcDbEntity
  8
寸法
 62
     0
 48
50.0
370
    -2
100
AcDbBlockReference
  2
_DOTSMALL
 10
12232.02520693996
 20
7637.444819195143
 30
0.0
 41
100.0
 42
100.0
 43
100.0
 50
270.0
  0
MTEXT
  5
19575
330
186FB
100
AcDbEntity
  8
寸法
 62
     7
 48
50.0
100
AcDbMText
 10
12132.01339591633
 20
8687.44481919515
 30
0.0
 40
120.0
 41
0.0
 71
     5
 72
     1
  1
\A1;5X420=2100
  7
STYLE1
 11
0.0000000000000001
 21
1.0
 31
0.0
 73
     1
 44
1.0
1001
ACAD
1000
MTEXTBEGIN
1070
    73
1070
     1
1070
    44
1040
1.0
1070
    74
1070
     0
1000
MTEXTEND
  0
POINT
  5
19576
330
186FB
100
AcDbEntity
  8
DEFPOINTS
 62
     0
 48
50.0
100
AcDbPoint
 10
11532.02520693997
 20
9737.444819195159
 30
0.0
  0
POINT
  5
19577
330
186FB
100
AcDbEntity
  8
DEFPOINTS
 62
     0
 48
50.0
100
AcDbPoint
 10
11532.02520693994
 20
7637.444819195143
 30
0.0
  0
POINT
  5
19578
330
186FB
100
AcDbEntity
  8
DEFPOINTS
 62
     0
 48
50.0
100
AcDbPoint
 10
12232.02520693996
 20
7637.444819195143
 30
0.0
  0
ENDBLK
  5
18706
330
186FB
100
AcDbEntity
  8
0
 48
50.0
100
AcDbBlockEnd
  0
BLOCK
  5
18711
330
18707
100
AcDbEntity
  8
0
 48
50.0
100
AcDbBlockBegin
  2
*D7
 70
     1
 10
0.0
 20
0.0
 30
0.0
  3
*D7
  1

  0
LINE
  5
19567
330
18707
100
AcDbEntity
  8
寸法
 62
     0
 48
50.0
370
    -2
100
AcDbLine
 10
11552.02520693997
 20
9792.444819195154
 30
0.0
 11
12592.02520693996
 21
9792.444819195154
 31
0.0
  0
LINE
  5
19568
330
18707
100
AcDbEntity
  8
寸法
 62
     0
 48
50.0
370
    -2
100
AcDbLine
 10
11552.02520693994
 20
7582.444819195146
 30
0.0
 11
12592.02520693996
 21
7582.444819195146
 31
0.0
  0
LINE
  5
19569
330
18707
100
AcDbEntity
  8
寸法
 62
     0
 48
50.0
370
    -2
100
AcDbLine
 10
12532.02520693996
 20
9792.444819195154
 30
0.0
 11
12532.02520693996
 21
7582.444819195146
 31
0.0
  0
INSERT
  5
1956A
330
18707
100
AcDbEntity
  8
寸法
 62
     0
 48
50.0
370
    -2
100
AcDbBlockReference
  2
_DOTSMALL
 10
12532.02520693996
 20
9792.444819195154
 30
0.0
 41
100.0
 42
100.0
 43
100.0
 50
90.0
  0
INSERT
  5
1956B
330
18707
100
AcDbEntity
  8
寸法
 62
     0
 48
50.0
370
    -2
100
AcDbBlockReference
  2
_DOTSMALL
 10
12532.02520693996
 20
7582.444819195146
 30
0.0
 41
100.0
 42
100.0
 43
100.0
 50
270.0
  0
MTEXT
  5
1956C
330
18707
100
AcDbEntity
  8
寸法
 62
     7
 48
50.0
100
AcDbMText
 10
12432.01339591633
 20
8687.44481919515
 30
0.0
 40
120.0
 41
0.0
 71
     5
 72
     1
  1
\A1;2210
  7
STYLE1
 11
0.0000000000000001
 21
1.0
 31
0.0
 73
     1
 44
1.0
1001
ACAD
1000
MTEXTBEGIN
1070
    73
1070
     1
1070
    44
1040
1.0
1070
    74
1070
     0
1000
MTEXTEND
  0
POINT
  5
1956D
330
18707
100
AcDbEntity
  8
DEFPOINTS
 62
     0
 48
50.0
100
AcDbPoint
 10
11532.02520693997
 20
9792.444819195154
 30
0.0
  0
POINT
  5
1956E
330
18707
100
AcDbEntity
  8
DEFPOINTS
 62
     0
 48
50.0
100
AcDbPoint
 10
11532.02520693994
 20
7582.444819195146
 30
0.0
  0
POINT
  5
1956F
330
18707
100
AcDbEntity
  8
DEFPOINTS
 62
     0
 48
50.0
100
AcDbPoint
 10
12532.02520693996
 20
7582.444819195146
 30
0.0
  0
ENDBLK
  5
18712
330
18707
100
AcDbEntity
  8
0
 48
50.0
100
AcDbBlockEnd
  0
BLOCK
  5
1871D
330
18713
100
AcDbEntity
  8
0
 48
50.0
100
AcDbBlockBegin
  2
*D8
 70
     1
 10
0.0
 20
0.0
 30
0.0
  3
*D8
  1

  0
LINE
  5
1955E
330
18713
100
AcDbEntity
  8
寸法
 62
     0
 48
50.0
370
    -2
100
AcDbLine
 10
10015.16622309134
 20
9292.44481919523
 30
0.0
 11
9933.518249075406
 21
8987.730431832718
 31
0.0
  0
LINE
  5
1955F
330
18713
100
AcDbEntity
  8
寸法
 62
     0
 48
50.0
370
    -2
100
AcDbLine
 10
11498.16622309135
 20
9292.444819195223
 30
0.0
 11
11416.51824907542
 21
8987.730431832718
 31
0.0
  0
LINE
  5
19560
330
18713
100
AcDbEntity
  8
寸法
 62
     0
 48
50.0
370
    -2
100
AcDbLine
 10
9949.595200621274
 20
9047.730431832716
 30
0.0
 11
11432.59520062129
 21
9047.730431832716
 31
0.0
  0
INSERT
  5
19561
330
18713
100
AcDbEntity
  8
寸法
 62
     0
 48
50.0
370
    -2
100
AcDbBlockReference
  2
_DOTSMALL
 10
9949.595200621274
 20
9047.730431832716
 30
0.0
 41
100.0
 42
100.0
 43
100.0
 50
180.0
  0
INSERT
  5
19562
330
18713
100
AcDbEntity
  8
寸法
 62
     0
 48
50.0
370
    -2
100
AcDbBlockReference
  2
_DOTSMALL
 10
11432.59520062129
 20
9047.730431832716
 30
0.0
 41
100.0
 42
100.0
 43
100.0
  0
MTEXT
  5
19563
330
18713
100
AcDbEntity
  8
寸法
 62
     7
 48
50.0
100
AcDbMText
 10
10532.08891793801
 20
9147.730431832718
 30
0.0
 40
120.0
 41
0.0
 71
     5
 72
     1
  1
\A1;1483
  7
STYLE1
 73
     1
 44
1.0
1001
ACAD
1000
MTEXTBEGIN
1070
    73
1070
     1
1070
    44
1040
1.0
1070
    74
1070
     0
1000
MTEXTEND
  0
POINT
  5
19564
330
18713
100
AcDbEntity
  8
DEFPOINTS
 62
     0
 48
50.0
100
AcDbPoint
 10
10020.52520693996
 20
9312.444819195231
 30
0.0
  0
POINT
  5
19565
330
18713
100
AcDbEntity
  8
DEFPOINTS
 62
     0
 48
50.0
100
AcDbPoint
 10
11503.52520693997
 20
9312.444819195224
 30
0.0
  0
POINT
  5
19566
330
18713
100
AcDbEntity
  8
DEFPOINTS
 62
     0
 48
50.0
100
AcDbPoint
 10
11432.59520062129
 20
9047.730431832716
 30
0.0
  0
ENDBLK
  5
1871E
330
18713
100
AcDbEntity
  8
0
 48
50.0
100
AcDbBlockEnd
  0
BLOCK
  5
1872B
330
1871F
100
AcDbEntity
  8
0
 48
50.0
100
AcDbBlockBegin
  2
*D9
 70
     1
 10
0.0
 20
0.0
 30
0.0
  3
*D9
  1

  0
LINE
  5
19553
330
1871F
100
AcDbEntity
  8
寸法
 62
     0
 48
50.0
370
    -2
100
AcDbLine
 10
8482.025206939935
 20
9812.444819195059
 30
0.0
 11
8482.025206939935
 21
10352.44481919506
 31
0.0
  0
LINE
  5
19554
330
1871F
100
AcDbEntity
  8
寸法
 62
     0
 48
50.0
370
    -2
100
AcDbLine
 10
8537.025206939967
 20
9812.444819195059
 30
0.0
 11
8537.025206939967
 21
10352.44481919506
 31
0.0
  0
LINE
  5
19555
330
1871F
100
AcDbEntity
  8
寸法
 62
     0
 48
50.0
370
    -2
100
AcDbLine
 10
8537.025206939967
 20
10292.44481919506
 30
0.0
 11
8637.025206939966
 21
10292.44481919506
 31
0.0
  0
LINE
  5
19556
330
1871F
100
AcDbEntity
  8
寸法
 62
     0
 48
50.0
370
    -2
100
AcDbLine
 10
8482.025206939935
 20
10292.44481919506
 30
0.0
 11
8065.054644191455
 21
10292.44481919506
 31
0.0
  0
LINE
  5
19557
330
1871F
100
AcDbEntity
  8
寸法
 62
     0
 48
50.0
370
    -2
100
AcDbLine
 10
8537.025206939967
 20
10292.44481919506
 30
0.0
 11
8482.025206939935
 21
10292.44481919506
 31
0.0
  0
INSERT
  5
19558
330
1871F
100
AcDbEntity
  8
寸法
 62
     0
 48
50.0
370
    -2
100
AcDbBlockReference
  2
_DOTSMALL
 10
8537.025206939967
 20
10292.44481919506
 30
0.0
 41
100.0
 42
100.0
 43
100.0
 50
180.0
  0
INSERT
  5
19559
330
1871F
100
AcDbEntity
  8
寸法
 62
     0
 48
50.0
370
    -2
100
AcDbBlockReference
  2
_DOTSMALL
 10
8482.025206939935
 20
10292.44481919506
 30
0.0
 41
100.0
 42
100.0
 43
100.0
  0
MTEXT
  5
1955A
330
1871F
100
AcDbEntity
  8
寸法
 62
     7
 48
50.0
100
AcDbMText
 10
8173.539925565695
 20
10392.44481919506
 30
0.0
 40
120.0
 41
0.0
 71
     5
 72
     1
  1
\A1;55
  7
STYLE1
 73
     1
 44
1.0
1001
ACAD
1000
MTEXTBEGIN
1070
    73
1070
     1
1070
    44
1040
1.0
1070
    74
1070
     0
1000
MTEXTEND
  0
POINT
  5
1955B
330
1871F
100
AcDbEntity
  8
DEFPOINTS
 62
     0
 48
50.0
100
AcDbPoint
 10
8482.025206939935
 20
9792.444819195061
 30
0.0
  0
POINT
  5
1955C
330
1871F
100
AcDbEntity
  8
DEFPOINTS
 62
     0
 48
50.0
100
AcDbPoint
 10
8537.025206939967
 20
9792.444819195061
 30
0.0
  0
POINT
  5
1955D
330
1871F
100
AcDbEntity
  8
DEFPOINTS
 62
     0
 48
50.0
100
AcDbPoint
 10
8537.025206939967
 20
10292.44481919506
 30
0.0
  0
ENDBLK
  5
1872C
330
1871F
100
AcDbEntity
  8
0
 48
50.0
100
AcDbBlockEnd
  0
BLOCK
  5
18743
330
18739
100
AcDbEntity
  8
0
 48
50.0
100
AcDbBlockBegin
  2
*D10
 70
     1
 10
0.0
 20
0.0
 30
0.0
  3
*D10
  1

  0
LINE
  5
1954A
330
18739
100
AcDbEntity
  8
寸法
 62
     0
 48
50.0
370
    -2
100
AcDbLine
 10
8537.025206939967
 20
9812.444819195059
 30
0.0
 11
8537.025206939967
 21
10352.44481919511
 31
0.0
  0
LINE
  5
1954B
330
18739
100
AcDbEntity
  8
寸法
 62
     0
 48
50.0
370
    -2
100
AcDbLine
 10
11477.02520693997
 20
9812.444819195155
 30
0.0
 11
11477.02520693997
 21
10352.44481919511
 31
0.0
  0
LINE
  5
1954C
330
18739
100
AcDbEntity
  8
寸法
 62
     0
 48
50.0
370
    -2
100
AcDbLine
 10
8537.025206939967
 20
10292.44481919511
 30
0.0
 11
11477.02520693997
 21
10292.44481919511
 31
0.0
  0
INSERT
  5
1954D
330
18739
100
AcDbEntity
  8
寸法
 62
     0
 48
50.0
370
    -2
100
AcDbBlockReference
  2
_DOTSMALL
 10
8537.025206939967
 20
10292.44481919511
 30
0.0
 41
100.0
 42
100.0
 43
100.0
 50
180.0
  0
INSERT
  5
1954E
330
18739
100
AcDbEntity
  8
寸法
 62
     0
 48
50.0
370
    -2
100
AcDbBlockReference
  2
_DOTSMALL
 10
11477.02520693997
 20
10292.44481919511
 30
0.0
 41
100.0
 42
100.0
 43
100.0
  0
MTEXT
  5
1954F
330
18739
100
AcDbEntity
  8
寸法
 62
     7
 48
50.0
100
AcDbMText
 10
10007.02520693997
 20
10392.45663021873
 30
0.0
 40
120.0
 41
0.0
 71
     5
 72
     1
  1
\A1;7X420=2940
  7
STYLE1
 73
     1
 44
1.0
1001
ACAD
1000
MTEXTBEGIN
1070
    73
1070
     1
1070
    44
1040
1.0
1070
    74
1070
     0
1000
MTEXTEND
  0
POINT
  5
19550
330
18739
100
AcDbEntity
  8
DEFPOINTS
 62
     0
 48
50.0
100
AcDbPoint
 10
8537.025206939967
 20
9792.444819195061
 30
0.0
  0
POINT
  5
19551
330
18739
100
AcDbEntity
  8
DEFPOINTS
 62
     0
 48
50.0
100
AcDbPoint
 10
11477.02520693997
 20
9792.444819195154
 30
0.0
  0
POINT
  5
19552
330
18739
100
AcDbEntity
  8
DEFPOINTS
 62
     0
 48
50.0
100
AcDbPoint
 10
11477.02520693997
 20
10292.44481919511
 30
0.0
  0
ENDBLK
  5
18744
330
18739
100
AcDbEntity
  8
0
 48
50.0
100
AcDbBlockEnd
  0
BLOCK
  5
1874F
330
18745
100
AcDbEntity
  8
0
 48
50.0
100
AcDbBlockBegin
  2
*D11
 70
     1
 10
0.0
 20
0.0
 30
0.0
  3
*D11
  1

  0
LINE
  5
19541
330
18745
100
AcDbEntity
  8
寸法
 62
     0
 48
50.0
370
    -2
100
AcDbLine
 10
8505.166223091269
 20
9292.444819195173
 30
0.0
 11
8423.518249075353
 21
8987.730431832718
 31
0.0
  0
LINE
  5
19542
330
18745
100
AcDbEntity
  8
寸法
 62
     0
 48
50.0
370
    -2
100
AcDbLine
 10
9988.16622309134
 20
9292.444819195166
 30
0.0
 11
9906.518249075425
 21
8987.730431832718
 31
0.0
  0
LINE
  5
19543
330
18745
100
AcDbEntity
  8
寸法
 62
     0
 48
50.0
370
    -2
100
AcDbLine
 10
8439.595200621221
 20
9047.730431832716
 30
0.0
 11
9922.595200621294
 21
9047.730431832716
 31
0.0
  0
INSERT
  5
19544
330
18745
100
AcDbEntity
  8
寸法
 62
     0
 48
50.0
370
    -2
100
AcDbBlockReference
  2
_DOTSMALL
 10
8439.595200621221
 20
9047.730431832716
 30
0.0
 41
100.0
 42
100.0
 43
100.0
 50
180.0
  0
INSERT
  5
19545
330
18745
100
AcDbEntity
  8
寸法
 62
     0
 48
50.0
370
    -2
100
AcDbBlockReference
  2
_DOTSMALL
 10
9922.595200621294
 20
9047.730431832716
 30
0.0
 41
100.0
 42
100.0
 43
100.0
  0
MTEXT
  5
19546
330
18745
100
AcDbEntity
  8
寸法
 62
     7
 48
50.0
100
AcDbMText
 10
9070.210757770681
 20
9147.730431832718
 30
0.0
 40
120.0
 41
0.0
 71
     5
 72
     1
  1
\A1;1483
  7
STYLE1
 73
     1
 44
1.0
1001
ACAD
1000
MTEXTBEGIN
1070
    73
1070
     1
1070
    44
1040
1.0
1070
    74
1070
     0
1000
MTEXTEND
  0
POINT
  5
19547
330
18745
100
AcDbEntity
  8
DEFPOINTS
 62
     0
 48
50.0
100
AcDbPoint
 10
8510.52520693989
 20
9312.444819195173
 30
0.0
  0
POINT
  5
19548
330
18745
100
AcDbEntity
  8
DEFPOINTS
 62
     0
 48
50.0
100
AcDbPoint
 10
9993.525206939962
 20
9312.444819195166
 30
0.0
  0
POINT
  5
19549
330
18745
100
AcDbEntity
  8
DEFPOINTS
 62
     0
 48
50.0
100
AcDbPoint
 10
9922.595200621294
 20
9047.730431832716
 30
0.0
  0
ENDBLK
  5
18750
330
18745
100
AcDbEntity
  8
0
 48
50.0
100
AcDbBlockEnd
  0
BLOCK
  5
1875B
330
18751
100
AcDbEntity
  8
0
 48
50.0
100
AcDbBlockBegin
  2
*D12
 70
     1
 10
0.0
 20
0.0
 30
0.0
  3
*D12
  1

  0
LINE
  5
18DB8
330
18751
100
AcDbEntity
  8
寸法
 62
     0
 48
50.0
370
    -2
100
AcDbLine
 10
8910.025206939961
 20
4216.448847332318
 30
0.0
 11
8114.281921872084
 21
4216.448847332318
 31
0.0
  0
LINE
  5
18DB9
330
18751
100
AcDbEntity
  8
寸法
 62
     0
 48
50.0
370
    -2
100
AcDbLine
 10
8910.025206939961
 20
2191.44884733232
 30
0.0
 11
8114.281921872084
 21
2191.44884733232
 31
0.0
  0
LINE
  5
18DBA
330
18751
100
AcDbEntity
  8
寸法
 62
     0
 48
50.0
370
    -2
100
AcDbLine
 10
8174.281921872085
 20
4216.448847332318
 30
0.0
 11
8174.281921872085
 21
2191.44884733232
 31
0.0
  0
INSERT
  5
18DBB
330
18751
100
AcDbEntity
  8
寸法
 62
     0
 48
50.0
370
    -2
100
AcDbBlockReference
  2
_DOTSMALL
 10
8174.281921872085
 20
4216.448847332318
 30
0.0
 41
100.0
 42
100.0
 43
100.0
 50
90.0
  0
INSERT
  5
18DBC
330
18751
100
AcDbEntity
  8
寸法
 62
     0
 48
50.0
370
    -2
100
AcDbBlockReference
  2
_DOTSMALL
 10
8174.281921872085
 20
2191.44884733232
 30
0.0
 41
100.0
 42
100.0
 43
100.0
 50
270.0
  0
MTEXT
  5
18DBD
330
18751
100
AcDbEntity
  8
寸法
 62
     7
 48
50.0
100
AcDbMText
 10
8074.270110848463
 20
3229.279706451278
 30
0.0
 40
120.0
 41
0.0
 71
     5
 72
     1
  1
\A1;有効開口部高サ2025
  7
STYLE1
 11
0.0000000000000001
 21
1.0
 31
0.0
 73
     1
 44
1.0
1001
ACAD
1000
MTEXTBEGIN
1070
    73
1070
     1
1070
    44
1040
1.0
1070
    74
1070
     0
1000
MTEXTEND
  0
POINT
  5
18DBE
330
18751
100
AcDbEntity
  8
DEFPOINTS
 62
     0
 48
50.0
100
AcDbPoint
 10
8930.025206939959
 20
4216.448847332318
 30
0.0
  0
POINT
  5
18DBF
330
18751
100
AcDbEntity
  8
DEFPOINTS
 62
     0
 48
50.0
100
AcDbPoint
 10
8930.025206939959
 20
2191.44884733232
 30
0.0
  0
POINT
  5
18DC0
330
18751
100
AcDbEntity
  8
DEFPOINTS
 62
     0
 48
50.0
100
AcDbPoint
 10
8174.281921872085
 20
2191.44884733232
 30
0.0
  0
ENDBLK
  5
1875C
330
18751
100
AcDbEntity
  8
0
 48
50.0
100
AcDbBlockEnd
  0
BLOCK
  5
18767
330
1875D
100
AcDbEntity
  8
0
 48
50.0
100
AcDbBlockBegin
  2
*D13
 70
     1
 10
0.0
 20
0.0
 30
0.0
  3
*D13
  1

  0
LINE
  5
18DAF
330
1875D
100
AcDbEntity
  8
寸法
 62
     0
 48
50.0
370
    -2
100
AcDbLine
 10
8572.02520693996
 20
1813.44884733232
 30
0.0
 11
8572.02520693996
 21
1487.401518031942
 31
0.0
  0
LINE
  5
18DB0
330
1875D
100
AcDbEntity
  8
寸法
 62
     0
 48
50.0
370
    -2
100
AcDbLine
 10
8372.025206939957
 20
1813.44884733232
 30
0.0
 11
8372.025206939957
 21
1487.401518031942
 31
0.0
  0
LINE
  5
18DB1
330
1875D
100
AcDbEntity
  8
寸法
 62
     0
 48
50.0
370
    -2
100
AcDbLine
 10
8572.02520693996
 20
1547.401518031942
 30
0.0
 11
8372.025206939957
 21
1547.401518031942
 31
0.0
  0
INSERT
  5
18DB2
330
1875D
100
AcDbEntity
  8
寸法
 62
     0
 48
50.0
370
    -2
100
AcDbBlockReference
  2
_DOTSMALL
 10
8572.02520693996
 20
1547.401518031942
 30
0.0
 41
100.0
 42
100.0
 43
100.0
  0
INSERT
  5
18DB3
330
1875D
100
AcDbEntity
  8
寸法
 62
     0
 48
50.0
370
    -2
100
AcDbBlockReference
  2
_DOTSMALL
 10
8372.025206939957
 20
1547.401518031942
 30
0.0
 41
100.0
 42
100.0
 43
100.0
 50
180.0
  0
MTEXT
  5
18DB4
330
1875D
100
AcDbEntity
  8
寸法
 62
     7
 48
50.0
100
AcDbMText
 10
8472.025206939958
 20
1647.413329055564
 30
0.0
 40
120.0
 41
0.0
 71
     5
 72
     1
  1
\A1;200
  7
STYLE1
 73
     1
 44
1.0
1001
ACAD
1000
MTEXTBEGIN
1070
    73
1070
     1
1070
    44
1040
1.0
1070
    74
1070
     0
1000
MTEXTEND
  0
POINT
  5
18DB5
330
1875D
100
AcDbEntity
  8
DEFPOINTS
 62
     0
 48
50.0
100
AcDbPoint
 10
8572.02520693996
 20
1833.44884733232
 30
0.0
  0
POINT
  5
18DB6
330
1875D
100
AcDbEntity
  8
DEFPOINTS
 62
     0
 48
50.0
100
AcDbPoint
 10
8372.025206939957
 20
1833.44884733232
 30
0.0
  0
POINT
  5
18DB7
330
1875D
100
AcDbEntity
  8
DEFPOINTS
 62
     0
 48
50.0
100
AcDbPoint
 10
8372.025206939957
 20
1547.401518031942
 30
0.0
  0
ENDBLK
  5
18768
330
1875D
100
AcDbEntity
  8
0
 48
50.0
100
AcDbBlockEnd
  0
BLOCK
  5
18773
330
18769
100
AcDbEntity
  8
0
 48
50.0
100
AcDbBlockBegin
  2
*D14
 70
     1
 10
0.0
 20
0.0
 30
0.0
  3
*D14
  1

  0
LINE
  5
18ED2
330
18769
100
AcDbEntity
  8
寸法
 62
     0
 48
50.0
370
    -2
100
AcDbLine
 10
6476.928177602698
 20
2133.448847332318
 30
0.0
 11
7000.034801544288
 21
2133.448847332318
 31
0.0
  0
LINE
  5
18ED3
330
18769
100
AcDbEntity
  8
寸法
 62
     0
 48
50.0
370
    -2
100
AcDbLine
 10
6479.928177602698
 20
4453.44884733232
 30
0.0
 11
7000.034801544288
 21
4453.44884733232
 31
0.0
  0
LINE
  5
18ED4
330
18769
100
AcDbEntity
  8
寸法
 62
     0
 48
50.0
370
    -2
100
AcDbLine
 10
6940.034801544287
 20
2133.448847332318
 30
0.0
 11
6940.034801544287
 21
4453.44884733232
 31
0.0
  0
INSERT
  5
18ED5
330
18769
100
AcDbEntity
  8
寸法
 62
     0
 48
50.0
370
    -2
100
AcDbBlockReference
  2
_DOTSMALL
 10
6940.034801544287
 20
2133.448847332318
 30
0.0
 41
100.0
 42
100.0
 43
100.0
 50
270.0
  0
INSERT
  5
18ED6
330
18769
100
AcDbEntity
  8
寸法
 62
     0
 48
50.0
370
    -2
100
AcDbBlockReference
  2
_DOTSMALL
 10
6940.034801544287
 20
4453.44884733232
 30
0.0
 41
100.0
 42
100.0
 43
100.0
 50
90.0
  0
MTEXT
  5
18ED7
330
18769
100
AcDbEntity
  8
寸法
 62
     7
 48
50.0
100
AcDbMText
 10
6840.022990520665
 20
3293.44884733232
 30
0.0
 40
120.0
 41
0.0
 71
     5
 72
     1
  1
\A1;2320
  7
STYLE1
 11
0.0000000000000001
 21
1.0
 31
0.0
 73
     1
 44
1.0
1001
ACAD
1000
MTEXTBEGIN
1070
    73
1070
     1
1070
    44
1040
1.0
1070
    74
1070
     0
1000
MTEXTEND
  0
POINT
  5
18ED8
330
18769
100
AcDbEntity
  8
DEFPOINTS
 62
     0
 48
50.0
100
AcDbPoint
 10
6456.928177602698
 20
2133.448847332318
 30
0.0
  0
POINT
  5
18ED9
330
18769
100
AcDbEntity
  8
DEFPOINTS
 62
     0
 48
50.0
100
AcDbPoint
 10
6459.928177602698
 20
4453.44884733232
 30
0.0
  0
POINT
  5
18EDA
330
18769
100
AcDbEntity
  8
DEFPOINTS
 62
     0
 48
50.0
100
AcDbPoint
 10
6940.034801544287
 20
4453.44884733232
 30
0.0
  0
ENDBLK
  5
18774
330
18769
100
AcDbEntity
  8
0
 48
50.0
100
AcDbBlockEnd
  0
BLOCK
  5
1877F
330
18775
100
AcDbEntity
  8
0
 48
50.0
100
AcDbBlockBegin
  2
*D15
 70
     1
 10
0.0
 20
0.0
 30
0.0
  3
*D15
  1

  0
LINE
  5
18EC9
330
18775
100
AcDbEntity
  8
寸法
 62
     0
 48
50.0
370
    -2
100
AcDbLine
 10
6379.928177602699
 20
4475.259526943971
 30
0.0
 11
6379.928177602699
 21
4967.106300911623
 31
0.0
  0
LINE
  5
18ECA
330
18775
100
AcDbEntity
  8
寸法
 62
     0
 48
50.0
370
    -2
100
AcDbLine
 10
4169.928177602698
 20
4524.450465455297
 30
0.0
 11
4169.928177602698
 21
4967.106300911623
 31
0.0
  0
LINE
  5
18ECB
330
18775
100
AcDbEntity
  8
寸法
 62
     0
 48
50.0
370
    -2
100
AcDbLine
 10
6379.928177602699
 20
4907.106300911624
 30
0.0
 11
4169.928177602698
 21
4907.106300911624
 31
0.0
  0
INSERT
  5
18ECC
330
18775
100
AcDbEntity
  8
寸法
 62
     0
 48
50.0
370
    -2
100
AcDbBlockReference
  2
_DOTSMALL
 10
6379.928177602699
 20
4907.106300911624
 30
0.0
 41
100.0
 42
100.0
 43
100.0
  0
INSERT
  5
18ECD
330
18775
100
AcDbEntity
  8
寸法
 62
     0
 48
50.0
370
    -2
100
AcDbBlockReference
  2
_DOTSMALL
 10
4169.928177602698
 20
4907.106300911624
 30
0.0
 41
100.0
 42
100.0
 43
100.0
 50
180.0
  0
MTEXT
  5
18ECE
330
18775
100
AcDbEntity
  8
寸法
 62
     7
 48
50.0
100
AcDbMText
 10
5264.572914673212
 20
5007.118111935245
 30
0.0
 40
120.0
 41
0.0
 71
     5
 72
     1
  1
\A1;柱外寸法2210
  7
STYLE1
 73
     1
 44
1.0
1001
ACAD
1000
MTEXTBEGIN
1070
    73
1070
     1
1070
    44
1040
1.0
1070
    74
1070
     0
1000
MTEXTEND
  0
POINT
  5
18ECF
330
18775
100
AcDbEntity
  8
DEFPOINTS
 62
     0
 48
50.0
100
AcDbPoint
 10
6379.928177602699
 20
4455.259526943971
 30
0.0
  0
POINT
  5
18ED0
330
18775
100
AcDbEntity
  8
DEFPOINTS
 62
     0
 48
50.0
100
AcDbPoint
 10
4169.928177602698
 20
4504.450465455296
 30
0.0
  0
POINT
  5
18ED1
330
18775
100
AcDbEntity
  8
DEFPOINTS
 62
     0
 48
50.0
100
AcDbPoint
 10
4169.928177602698
 20
4907.106300911624
 30
0.0
  0
ENDBLK
  5
18780
330
18775
100
AcDbEntity
  8
0
 48
50.0
100
AcDbBlockEnd
  0
BLOCK
  5
1878D
330
18781
100
AcDbEntity
  8
0
 48
50.0
100
AcDbBlockBegin
  2
*D16
 70
     1
 10
0.0
 20
0.0
 30
0.0
  3
*D16
  1

  0
LINE
  5
18EBE
330
18781
100
AcDbEntity
  8
寸法
 62
     0
 48
50.0
370
    -2
100
AcDbLine
 10
4169.928177602698
 20
4524.450465455297
 30
0.0
 11
4169.928177602698
 21
4967.106300911623
 31
0.0
  0
LINE
  5
18EBF
330
18781
100
AcDbEntity
  8
寸法
 62
     0
 48
50.0
370
    -2
100
AcDbLine
 10
4109.928177602698
 20
4528.448847332323
 30
0.0
 11
4109.928177602698
 21
4967.106300911623
 31
0.0
  0
LINE
  5
18EC0
330
18781
100
AcDbEntity
  8
寸法
 62
     0
 48
50.0
370
    -2
100
AcDbLine
 10
4169.928177602698
 20
4907.106300911624
 30
0.0
 11
4269.928177602698
 21
4907.106300911624
 31
0.0
  0
LINE
  5
18EC1
330
18781
100
AcDbEntity
  8
寸法
 62
     0
 48
50.0
370
    -2
100
AcDbLine
 10
4109.928177602698
 20
4907.106300911624
 30
0.0
 11
3690.652587051514
 21
4907.106300911624
 31
0.0
  0
LINE
  5
18EC2
330
18781
100
AcDbEntity
  8
寸法
 62
     0
 48
50.0
370
    -2
100
AcDbLine
 10
4169.928177602698
 20
4907.106300911624
 30
0.0
 11
4109.928177602698
 21
4907.106300911624
 31
0.0
  0
INSERT
  5
18EC3
330
18781
100
AcDbEntity
  8
寸法
 62
     0
 48
50.0
370
    -2
100
AcDbBlockReference
  2
_DOTSMALL
 10
4169.928177602698
 20
4907.106300911624
 30
0.0
 41
100.0
 42
100.0
 43
100.0
 50
180.0
  0
INSERT
  5
18EC4
330
18781
100
AcDbEntity
  8
寸法
 62
     0
 48
50.0
370
    -2
100
AcDbBlockReference
  2
_DOTSMALL
 10
4109.928177602698
 20
4907.106300911624
 30
0.0
 41
100.0
 42
100.0
 43
100.0
  0
MTEXT
  5
18EC5
330
18781
100
AcDbEntity
  8
寸法
 62
     7
 48
50.0
100
AcDbMText
 10
3800.290382327105
 20
5007.106300911623
 30
0.0
 40
120.0
 41
0.0
 71
     5
 72
     1
  1
\A1;60
  7
STYLE1
 73
     1
 44
1.0
1001
ACAD
1000
MTEXTBEGIN
1070
    73
1070
     1
1070
    44
1040
1.0
1070
    74
1070
     0
1000
MTEXTEND
  0
POINT
  5
18EC6
330
18781
100
AcDbEntity
  8
DEFPOINTS
 62
     0
 48
50.0
100
AcDbPoint
 10
4169.928177602698
 20
4504.450465455296
 30
0.0
  0
POINT
  5
18EC7
330
18781
100
AcDbEntity
  8
DEFPOINTS
 62
     0
 48
50.0
100
AcDbPoint
 10
4109.928177602698
 20
4508.448847332323
 30
0.0
  0
POINT
  5
18EC8
330
18781
100
AcDbEntity
  8
DEFPOINTS
 62
     0
 48
50.0
100
AcDbPoint
 10
4109.928177602698
 20
4907.106300911624
 30
0.0
  0
ENDBLK
  5
1878E
330
18781
100
AcDbEntity
  8
0
 48
50.0
100
AcDbBlockEnd
  0
BLOCK
  5
18799
330
1878F
100
AcDbEntity
  8
0
 48
50.0
100
AcDbBlockBegin
  2
*D17
 70
     1
 10
0.0
 20
0.0
 30
0.0
  3
*D17
  1

  0
LINE
  5
18EB5
330
1878F
100
AcDbEntity
  8
寸法
 62
     0
 48
50.0
370
    -2
100
AcDbLine
 10
6459.928177602698
 20
4473.44884733232
 30
0.0
 11
6459.928177602698
 21
5186.308134585914
 31
0.0
  0
LINE
  5
18EB6
330
1878F
100
AcDbEntity
  8
寸法
 62
     0
 48
50.0
370
    -2
100
AcDbLine
 10
4109.928177602698
 20
4528.448847332323
 30
0.0
 11
4109.928177602698
 21
5186.308134585914
 31
0.0
  0
LINE
  5
18EB7
330
1878F
100
AcDbEntity
  8
寸法
 62
     0
 48
50.0
370
    -2
100
AcDbLine
 10
6459.928177602698
 20
5126.308134585915
 30
0.0
 11
4109.928177602698
 21
5126.308134585915
 31
0.0
  0
INSERT
  5
18EB8
330
1878F
100
AcDbEntity
  8
寸法
 62
     0
 48
50.0
370
    -2
100
AcDbBlockReference
  2
_DOTSMALL
 10
6459.928177602698
 20
5126.308134585915
 30
0.0
 41
100.0
 42
100.0
 43
100.0
  0
INSERT
  5
18EB9
330
1878F
100
AcDbEntity
  8
寸法
 62
     0
 48
50.0
370
    -2
100
AcDbBlockReference
  2
_DOTSMALL
 10
4109.928177602698
 20
5126.308134585915
 30
0.0
 41
100.0
 42
100.0
 43
100.0
 50
180.0
  0
MTEXT
  5
18EBA
330
1878F
100
AcDbEntity
  8
寸法
 62
     7
 48
50.0
100
AcDbMText
 10
5344.272031695167
 20
5226.319945609536
 30
0.0
 40
120.0
 41
0.0
 71
     5
 72
     1
  1
\A1;2350
  7
STYLE1
 73
     1
 44
1.0
1001
ACAD
1000
MTEXTBEGIN
1070
    73
1070
     1
1070
    44
1040
1.0
1070
    74
1070
     0
1000
MTEXTEND
  0
POINT
  5
18EBB
330
1878F
100
AcDbEntity
  8
DEFPOINTS
 62
     0
 48
50.0
100
AcDbPoint
 10
6459.928177602698
 20
4453.44884733232
 30
0.0
  0
POINT
  5
18EBC
330
1878F
100
AcDbEntity
  8
DEFPOINTS
 62
     0
 48
50.0
100
AcDbPoint
 10
4109.928177602698
 20
4508.448847332323
 30
0.0
  0
POINT
  5
18EBD
330
1878F
100
AcDbEntity
  8
DEFPOINTS
 62
     0
 48
50.0
100
AcDbPoint
 10
4109.928177602698
 20
5126.308134585915
 30
0.0
  0
ENDBLK
  5
1879A
330
1878F
100
AcDbEntity
  8
0
 48
50.0
100
AcDbBlockEnd
  0
BLOCK
  5
187A6
330
1879B
100
AcDbEntity
  8
0
 48
50.0
100
AcDbBlockBegin
  2
*D18
 70
     1
 10
0.0
 20
0.0
 30
0.0
  3
*D18
  1

  0
LINE
  5
18EAB
330
1879B
100
AcDbEntity
  8
寸法
 62
     0
 48
50.0
370
    -2
100
AcDbLine
 10
6379.928177602699
 20
4475.259526943971
 30
0.0
 11
6379.928177602699
 21
4967.106300911623
 31
0.0
  0
LINE
  5
18EAC
330
1879B
100
AcDbEntity
  8
寸法
 62
     0
 48
50.0
370
    -2
100
AcDbLine
 10
6459.928177602698
 20
4473.44884733232
 30
0.0
 11
6459.928177602698
 21
4967.106300911623
 31
0.0
  0
LINE
  5
18EAD
330
1879B
100
AcDbEntity
  8
寸法
 62
     0
 48
50.0
370
    -2
100
AcDbLine
 10
6379.928177602699
 20
4907.106300911624
 30
0.0
 11
6459.928177602698
 21
4907.106300911624
 31
0.0
  0
LINE
  5
18EAE
330
1879B
100
AcDbEntity
  8
寸法
 62
     0
 48
50.0
370
    -2
100
AcDbLine
 10
6459.928177602698
 20
4907.106300911624
 30
0.0
 11
6772.022665791675
 21
4907.106300911624
 31
0.0
  0
INSERT
  5
18EAF
330
1879B
100
AcDbEntity
  8
寸法
 62
     0
 48
50.0
370
    -2
100
AcDbBlockReference
  2
_DOTSMALL
 10
6379.928177602699
 20
4907.106300911624
 30
0.0
 41
100.0
 42
100.0
 43
100.0
 50
180.0
  0
INSERT
  5
18EB0
330
1879B
100
AcDbEntity
  8
寸法
 62
     0
 48
50.0
370
    -2
100
AcDbBlockReference
  2
_DOTSMALL
 10
6459.928177602698
 20
4907.106300911624
 30
0.0
 41
100.0
 42
100.0
 43
100.0
  0
MTEXT
  5
18EB1
330
1879B
100
AcDbEntity
  8
寸法
 62
     7
 48
50.0
100
AcDbMText
 10
6665.975421697187
 20
5007.106300911623
 30
0.0
 40
120.0
 41
0.0
 71
     5
 72
     1
  1
\A1;80
  7
STYLE1
 73
     1
 44
1.0
1001
ACAD
1000
MTEXTBEGIN
1070
    73
1070
     1
1070
    44
1040
1.0
1070
    74
1070
     0
1000
MTEXTEND
  0
POINT
  5
18EB2
330
1879B
100
AcDbEntity
  8
DEFPOINTS
 62
     0
 48
50.0
100
AcDbPoint
 10
6379.928177602699
 20
4455.259526943971
 30
0.0
  0
POINT
  5
18EB3
330
1879B
100
AcDbEntity
  8
DEFPOINTS
 62
     0
 48
50.0
100
AcDbPoint
 10
6459.928177602698
 20
4453.44884733232
 30
0.0
  0
POINT
  5
18EB4
330
1879B
100
AcDbEntity
  8
DEFPOINTS
 62
     0
 48
50.0
100
AcDbPoint
 10
6459.928177602698
 20
4907.106300911624
 30
0.0
  0
ENDBLK
  5
187A7
330
1879B
100
AcDbEntity
  8
0
 48
50.0
100
AcDbBlockEnd
  0
BLOCK
  5
187B2
330
187A8
100
AcDbEntity
  8
0
 48
50.0
100
AcDbBlockBegin
  2
*D19
 70
     1
 10
0.0
 20
0.0
 30
0.0
  3
*D19
  1

  0
LINE
  5
18EA2
330
187A8
100
AcDbEntity
  8
寸法
 62
     0
 48
50.0
370
    -2
100
AcDbLine
 10
4149.928177602698
 20
4273.44884733232
 30
0.0
 11
3486.275468444402
 21
4273.44884733232
 31
0.0
  0
LINE
  5
18EA3
330
187A8
100
AcDbEntity
  8
寸法
 62
     0
 48
50.0
370
    -2
100
AcDbLine
 10
4149.928177602698
 20
2183.44884733232
 30
0.0
 11
3486.275468444401
 21
2183.44884733232
 31
0.0
  0
LINE
  5
18EA4
330
187A8
100
AcDbEntity
  8
寸法
 62
     0
 48
50.0
370
    -2
100
AcDbLine
 10
3546.275468444402
 20
4273.44884733232
 30
0.0
 11
3546.275468444402
 21
2183.44884733232
 31
0.0
  0
INSERT
  5
18EA5
330
187A8
100
AcDbEntity
  8
寸法
 62
     0
 48
50.0
370
    -2
100
AcDbBlockReference
  2
_DOTSMALL
 10
3546.275468444402
 20
4273.44884733232
 30
0.0
 41
100.0
 42
100.0
 43
100.0
 50
90.0
  0
INSERT
  5
18EA6
330
187A8
100
AcDbEntity
  8
寸法
 62
     0
 48
50.0
370
    -2
100
AcDbBlockReference
  2
_DOTSMALL
 10
3546.275468444402
 20
2183.44884733232
 30
0.0
 41
100.0
 42
100.0
 43
100.0
 50
270.0
  0
MTEXT
  5
18EA7
330
187A8
100
AcDbEntity
  8
寸法
 62
     7
 48
50.0
100
AcDbMText
 10
3446.263657420779
 20
3293.44884733232
 30
0.0
 40
120.0
 41
0.0
 71
     5
 72
     1
  1
\A1;2090
  7
STYLE1
 11
0.0000000000000001
 21
1.0
 31
0.0
 73
     1
 44
1.0
1001
ACAD
1000
MTEXTBEGIN
1070
    73
1070
     1
1070
    44
1040
1.0
1070
    74
1070
     0
1000
MTEXTEND
  0
POINT
  5
18EA8
330
187A8
100
AcDbEntity
  8
DEFPOINTS
 62
     0
 48
50.0
100
AcDbPoint
 10
4169.928177602698
 20
4273.44884733232
 30
0.0
  0
POINT
  5
18EA9
330
187A8
100
AcDbEntity
  8
DEFPOINTS
 62
     0
 48
50.0
100
AcDbPoint
 10
4169.928177602698
 20
2183.44884733232
 30
0.0
  0
POINT
  5
18EAA
330
187A8
100
AcDbEntity
  8
DEFPOINTS
 62
     0
 48
50.0
100
AcDbPoint
 10
3546.275468444402
 20
2183.44884733232
 30
0.0
  0
ENDBLK
  5
187B3
330
187A8
100
AcDbEntity
  8
0
 48
50.0
100
AcDbBlockEnd
  0
BLOCK
  5
187BE
330
187B4
100
AcDbEntity
  8
0
 48
50.0
100
AcDbBlockBegin
  2
*D20
 70
     1
 10
0.0
 20
0.0
 30
0.0
  3
*D20
  1

  0
LINE
  5
18E99
330
187B4
100
AcDbEntity
  8
寸法
 62
     0
 48
50.0
370
    -2
100
AcDbLine
 10
4149.928177602698
 20
2133.44884733232
 30
0.0
 11
3201.28879567334
 21
2133.44884733232
 31
0.0
  0
LINE
  5
18E9A
330
187B4
100
AcDbEntity
  8
寸法
 62
     0
 48
50.0
370
    -2
100
AcDbLine
 10
4089.928177602698
 20
4508.448847332323
 30
0.0
 11
3201.28879567334
 21
4508.448847332323
 31
0.0
  0
LINE
  5
18E9B
330
187B4
100
AcDbEntity
  8
寸法
 62
     0
 48
50.0
370
    -2
100
AcDbLine
 10
3261.28879567334
 20
2133.44884733232
 30
0.0
 11
3261.28879567334
 21
4508.448847332323
 31
0.0
  0
INSERT
  5
18E9C
330
187B4
100
AcDbEntity
  8
寸法
 62
     0
 48
50.0
370
    -2
100
AcDbBlockReference
  2
_DOTSMALL
 10
3261.28879567334
 20
2133.44884733232
 30
0.0
 41
100.0
 42
100.0
 43
100.0
 50
270.0
  0
INSERT
  5
18E9D
330
187B4
100
AcDbEntity
  8
寸法
 62
     0
 48
50.0
370
    -2
100
AcDbBlockReference
  2
_DOTSMALL
 10
3261.28879567334
 20
4508.448847332323
 30
0.0
 41
100.0
 42
100.0
 43
100.0
 50
90.0
  0
MTEXT
  5
18E9E
330
187B4
100
AcDbEntity
  8
寸法
 62
     7
 48
50.0
100
AcDbMText
 10
3161.276984649717
 20
3293.44884733232
 30
0.0
 40
120.0
 41
0.0
 71
     5
 72
     1
  1
\A1;2375
  7
STYLE1
 11
0.0000000000000001
 21
1.0
 31
0.0
 73
     1
 44
1.0
1001
ACAD
1000
MTEXTBEGIN
1070
    73
1070
     1
1070
    44
1040
1.0
1070
    74
1070
     0
1000
MTEXTEND
  0
POINT
  5
18E9F
330
187B4
100
AcDbEntity
  8
DEFPOINTS
 62
     0
 48
50.0
100
AcDbPoint
 10
4169.928177602698
 20
2133.44884733232
 30
0.0
  0
POINT
  5
18EA0
330
187B4
100
AcDbEntity
  8
DEFPOINTS
 62
     0
 48
50.0
100
AcDbPoint
 10
4109.928177602698
 20
4508.448847332323
 30
0.0
  0
POINT
  5
18EA1
330
187B4
100
AcDbEntity
  8
DEFPOINTS
 62
     0
 48
50.0
100
AcDbPoint
 10
3261.28879567334
 20
4508.448847332323
 30
0.0
  0
ENDBLK
  5
187BF
330
187B4
100
AcDbEntity
  8
0
 48
50.0
100
AcDbBlockEnd
  0
BLOCK
  5
187CB
330
187C0
100
AcDbEntity
  8
0
 48
50.0
100
AcDbBlockBegin
  2
*D21
 70
     1
 10
0.0
 20
0.0
 30
0.0
  3
*D21
  1

  0
LINE
  5
18E8F
330
187C0
100
AcDbEntity
  8
寸法
 62
     0
 48
50.0
370
    -2
100
AcDbLine
 10
4094.928177602698
 20
2133.44884733232
 30
0.0
 11
3201.28879567334
 21
2133.44884733232
 31
0.0
  0
LINE
  5
18E90
330
187C0
100
AcDbEntity
  8
寸法
 62
     0
 48
50.0
370
    -2
100
AcDbLine
 10
3526.275468444401
 20
2033.44884733232
 30
0.0
 11
3201.28879567334
 21
2033.44884733232
 31
0.0
  0
LINE
  5
18E91
330
187C0
100
AcDbEntity
  8
寸法
 62
     0
 48
50.0
370
    -2
100
AcDbLine
 10
3261.28879567334
 20
2133.44884733232
 30
0.0
 11
3261.28879567334
 21
2033.44884733232
 31
0.0
  0
LINE
  5
18E92
330
187C0
100
AcDbEntity
  8
寸法
 62
     0
 48
50.0
370
    -2
100
AcDbLine
 10
3261.28879567334
 20
2033.44884733232
 30
0.0
 11
3261.28879567334
 21
1661.354359143337
 31
0.0
  0
INSERT
  5
18E93
330
187C0
100
AcDbEntity
  8
寸法
 62
     0
 48
50.0
370
    -2
100
AcDbBlockReference
  2
_DOTSMALL
 10
3261.28879567334
 20
2133.44884733232
 30
0.0
 41
100.0
 42
100.0
 43
100.0
 50
90.0
  0
INSERT
  5
18E94
330
187C0
100
AcDbEntity
  8
寸法
 62
     0
 48
50.0
370
    -2
100
AcDbBlockReference
  2
_DOTSMALL
 10
3261.28879567334
 20
2033.44884733232
 30
0.0
 41
100.0
 42
100.0
 43
100.0
 50
270.0
  0
MTEXT
  5
18E95
330
187C0
100
AcDbEntity
  8
寸法
 62
     7
 48
50.0
100
AcDbMText
 10
3161.288795673339
 20
1797.401603237826
 30
0.0
 40
120.0
 41
0.0
 71
     5
 72
     1
  1
\A1;100
  7
STYLE1
 11
0.0000000000000001
 21
1.0
 31
0.0
 73
     1
 44
1.0
1001
ACAD
1000
MTEXTBEGIN
1070
    73
1070
     1
1070
    44
1040
1.0
1070
    74
1070
     0
1000
MTEXTEND
  0
POINT
  5
18E96
330
187C0
100
AcDbEntity
  8
DEFPOINTS
 62
     0
 48
50.0
100
AcDbPoint
 10
4114.928177602698
 20
2133.44884733232
 30
0.0
  0
POINT
  5
18E97
330
187C0
100
AcDbEntity
  8
DEFPOINTS
 62
     0
 48
50.0
100
AcDbPoint
 10
3546.275468444401
 20
2033.44884733232
 30
0.0
  0
POINT
  5
18E98
330
187C0
100
AcDbEntity
  8
DEFPOINTS
 62
     0
 48
50.0
100
AcDbPoint
 10
3261.28879567334
 20
2033.44884733232
 30
0.0
  0
ENDBLK
  5
187CC
330
187C0
100
AcDbEntity
  8
0
 48
50.0
100
AcDbBlockEnd
  0
BLOCK
  5
187D9
330
187CD
100
AcDbEntity
  8
0
 48
50.0
100
AcDbBlockBegin
  2
*D22
 70
     1
 10
0.0
 20
0.0
 30
0.0
  3
*D22
  1

  0
LINE
  5
18E84
330
187CD
100
AcDbEntity
  8
寸法
 62
     0
 48
50.0
370
    -2
100
AcDbLine
 10
4149.928177602698
 20
2183.44884733232
 30
0.0
 11
3486.275468444401
 21
2183.44884733232
 31
0.0
  0
LINE
  5
18E85
330
187CD
100
AcDbEntity
  8
寸法
 62
     0
 48
50.0
370
    -2
100
AcDbLine
 10
4094.928177602698
 20
2133.44884733232
 30
0.0
 11
3486.275468444401
 21
2133.44884733232
 31
0.0
  0
LINE
  5
18E86
330
187CD
100
AcDbEntity
  8
寸法
 62
     0
 48
50.0
370
    -2
100
AcDbLine
 10
3546.275468444402
 20
2183.44884733232
 30
0.0
 11
3546.275468444402
 21
2283.44884733232
 31
0.0
  0
LINE
  5
18E87
330
187CD
100
AcDbEntity
  8
寸法
 62
     0
 48
50.0
370
    -2
100
AcDbLine
 10
3546.275468444402
 20
2133.44884733232
 30
0.0
 11
3546.275468444402
 21
1721.354359143337
 31
0.0
  0
LINE
  5
18E88
330
187CD
100
AcDbEntity
  8
寸法
 62
     0
 48
50.0
370
    -2
100
AcDbLine
 10
3546.275468444402
 20
2183.44884733232
 30
0.0
 11
3546.275468444402
 21
2133.44884733232
 31
0.0
  0
INSERT
  5
18E89
330
187CD
100
AcDbEntity
  8
寸法
 62
     0
 48
50.0
370
    -2
100
AcDbBlockReference
  2
_DOTSMALL
 10
3546.275468444402
 20
2183.44884733232
 30
0.0
 41
100.0
 42
100.0
 43
100.0
 50
270.0
  0
INSERT
  5
18E8A
330
187CD
100
AcDbEntity
  8
寸法
 62
     0
 48
50.0
370
    -2
100
AcDbBlockReference
  2
_DOTSMALL
 10
3546.275468444402
 20
2133.44884733232
 30
0.0
 41
100.0
 42
100.0
 43
100.0
 50
90.0
  0
MTEXT
  5
18E8B
330
187CD
100
AcDbEntity
  8
寸法
 62
     7
 48
50.0
100
AcDbMText
 10
3446.275468444401
 20
1827.401603237826
 30
0.0
 40
120.0
 41
0.0
 71
     5
 72
     1
  1
\A1;50
  7
STYLE1
 11
0.0000000000000001
 21
1.0
 31
0.0
 73
     1
 44
1.0
1001
ACAD
1000
MTEXTBEGIN
1070
    73
1070
     1
1070
    44
1040
1.0
1070
    74
1070
     0
1000
MTEXTEND
  0
POINT
  5
18E8C
330
187CD
100
AcDbEntity
  8
DEFPOINTS
 62
     0
 48
50.0
100
AcDbPoint
 10
4169.928177602698
 20
2183.44884733232
 30
0.0
  0
POINT
  5
18E8D
330
187CD
100
AcDbEntity
  8
DEFPOINTS
 62
     0
 48
50.0
100
AcDbPoint
 10
4114.928177602698
 20
2133.44884733232
 30
0.0
  0
POINT
  5
18E8E
330
187CD
100
AcDbEntity
  8
DEFPOINTS
 62
     0
 48
50.0
100
AcDbPoint
 10
3546.275468444402
 20
2133.44884733232
 30
0.0
  0
ENDBLK
  5
187DA
330
187CD
100
AcDbEntity
  8
0
 48
50.0
100
AcDbBlockEnd
  0
BLOCK
  5
187E6
330
187DB
100
AcDbEntity
  8
0
 48
50.0
100
AcDbBlockBegin
  2
*D23
 70
     1
 10
0.0
 20
0.0
 30
0.0
  3
*D23
  1

  0
LINE
  5
18E7A
330
187DB
100
AcDbEntity
  8
寸法
 62
     0
 48
50.0
370
    -2
100
AcDbLine
 10
4109.332463893801
 20
4507.746554401982
 30
0.0
 11
3493.398024788525
 21
4525.46070467631
 31
0.0
  0
LINE
  5
18E7B
330
187DB
100
AcDbEntity
  8
寸法
 62
     0
 48
50.0
370
    -2
100
AcDbLine
 10
4105.279008337173
 20
4366.804830636268
 30
0.0
 11
3489.344569231899
 21
4384.518980910597
 31
0.0
  0
LINE
  5
18E7C
330
187DB
100
AcDbEntity
  8
寸法
 62
     0
 48
50.0
370
    -2
100
AcDbLine
 10
3549.31977083433
 20
4382.79410620565
 30
0.0
 11
3553.373226390956
 21
4523.735829971363
 31
0.0
  0
LINE
  5
18E7D
330
187DB
100
AcDbEntity
  8
寸法
 62
     0
 48
50.0
370
    -2
100
AcDbLine
 10
3553.373226390956
 20
4523.735829971363
 30
0.0
 11
3563.722474620641
 21
4883.587039585956
 31
0.0
  0
INSERT
  5
18E7E
330
187DB
100
AcDbEntity
  8
寸法
 62
     0
 48
50.0
370
    -2
100
AcDbBlockReference
  2
_DOTSMALL
 10
3549.31977083433
 20
4382.79410620565
 30
0.0
 41
100.0
 42
100.0
 43
100.0
 50
268.3526390256379
  0
INSERT
  5
18E7F
330
187DB
100
AcDbEntity
  8
寸法
 62
     0
 48
50.0
370
    -2
100
AcDbBlockReference
  2
_DOTSMALL
 10
3553.373226390956
 20
4523.735829971363
 30
0.0
 41
100.0
 42
100.0
 43
100.0
 50
88.35263902563784
  0
MTEXT
  5
18E80
330
187DB
100
AcDbEntity
  8
寸法
 62
     7
 48
50.0
100
AcDbMText
 10
3460.02657675587
 20
4756.515560622267
 30
0.0
 40
120.0
 41
0.0
 71
     5
 72
     1
  1
\A1;141
  7
STYLE1
 11
0.0287479117491228
 21
0.9995866933738486
 31
0.0
 73
     1
 44
1.0
1001
ACAD
1000
MTEXTBEGIN
1070
    73
1070
     1
1070
    44
1040
1.0
1070
    74
1070
     0
1000
MTEXTEND
  0
POINT
  5
18E81
330
187DB
100
AcDbEntity
  8
DEFPOINTS
 62
     0
 48
50.0
100
AcDbPoint
 10
4129.324197761278
 20
4507.171596166998
 30
0.0
  0
POINT
  5
18E82
330
187DB
100
AcDbEntity
  8
DEFPOINTS
 62
     0
 48
50.0
100
AcDbPoint
 10
4125.270742204651
 20
4366.229872401286
 30
0.0
  0
POINT
  5
18E83
330
187DB
100
AcDbEntity
  8
DEFPOINTS
 62
     0
 48
50.0
100
AcDbPoint
 10
3549.31977083433
 20
4382.79410620565
 30
0.0
  0
ENDBLK
  5
187E7
330
187DB
100
AcDbEntity
  8
0
 48
50.0
100
AcDbBlockEnd
  0
BLOCK
  5
187F2
330
187E8
100
AcDbEntity
  8
0
 48
50.0
100
AcDbBlockBegin
  2
*D24
 70
     1
 10
0.0
 20
0.0
 30
0.0
  3
*D24
  1

  0
LINE
  5
18E71
330
187E8
100
AcDbEntity
  8
寸法
 62
     0
 48
50.0
370
    -2
100
AcDbLine
 10
4077.428177602699
 20
1833.448847332318
 30
0.0
 11
3887.928174356064
 21
1833.448847332318
 31
0.0
  0
LINE
  5
18E72
330
187E8
100
AcDbEntity
  8
寸法
 62
     0
 48
50.0
370
    -2
100
AcDbLine
 10
4052.428177602698
 20
2033.448847332318
 30
0.0
 11
3887.928174356064
 21
2033.448847332318
 31
0.0
  0
LINE
  5
18E73
330
187E8
100
AcDbEntity
  8
寸法
 62
     0
 48
50.0
370
    -2
100
AcDbLine
 10
3947.928174356064
 20
1833.448847332318
 30
0.0
 11
3947.928174356064
 21
2033.448847332318
 31
0.0
  0
MTEXT
  5
18E74
330
187E8
100
AcDbEntity
  8
寸法
 62
     7
 48
50.0
100
AcDbMText
 10
3812.659754216929
 20
1903.593200599251
 30
0.0
 40
120.0
 41
0.0
 71
     5
 72
     1
  1
\A1;200
  7
STYLE1
 11
0.0000000000000001
 21
1.0
 31
0.0
 73
     1
 44
1.0
1001
ACAD
1000
MTEXTBEGIN
1070
    73
1070
     1
1070
    44
1040
1.0
1070
    74
1070
     0
1000
MTEXTEND
  0
INSERT
  5
18E75
330
187E8
100
AcDbEntity
  8
寸法
 62
     0
 48
50.0
370
    -2
100
AcDbBlockReference
  2
_DOTSMALL
 10
3947.928174356064
 20
1833.448847332318
 30
0.0
 41
100.0
 42
100.0
 43
100.0
 50
270.0
  0
INSERT
  5
18E76
330
187E8
100
AcDbEntity
  8
寸法
 62
     0
 48
50.0
370
    -2
100
AcDbBlockReference
  2
_DOTSMALL
 10
3947.928174356064
 20
2033.448847332318
 30
0.0
 41
100.0
 42
100.0
 43
100.0
 50
90.0
  0
POINT
  5
18E77
330
187E8
100
AcDbEntity
  8
DEFPOINTS
 62
     0
 48
50.0
100
AcDbPoint
 10
4097.428177602698
 20
1833.448847332318
 30
0.0
  0
POINT
  5
18E78
330
187E8
100
AcDbEntity
  8
DEFPOINTS
 62
     0
 48
50.0
100
AcDbPoint
 10
4072.428177602698
 20
2033.448847332318
 30
0.0
  0
POINT
  5
18E79
330
187E8
100
AcDbEntity
  8
DEFPOINTS
 62
     0
 48
50.0
100
AcDbPoint
 10
3947.928174356064
 20
2033.448847332318
 30
0.0
  0
ENDBLK
  5
187F3
330
187E8
100
AcDbEntity
  8
0
 48
50.0
100
AcDbBlockEnd
  0
BLOCK
  5
187FE
330
187F4
100
AcDbEntity
  8
0
 48
50.0
100
AcDbBlockBegin
  2
*D25
 70
     1
 10
0.0
 20
0.0
 30
0.0
  3
*D25
  1

  0
LINE
  5
18E68
330
187F4
100
AcDbEntity
  8
寸法
 62
     0
 48
50.0
370
    -2
100
AcDbLine
 10
4297.428177602698
 20
1813.448847332316
 30
0.0
 11
4297.428177602698
 21
1487.40151803194
 31
0.0
  0
LINE
  5
18E69
330
187F4
100
AcDbEntity
  8
寸法
 62
     0
 48
50.0
370
    -2
100
AcDbLine
 10
4097.428177602698
 20
1813.448847332318
 30
0.0
 11
4097.428177602698
 21
1487.40151803194
 31
0.0
  0
LINE
  5
18E6A
330
187F4
100
AcDbEntity
  8
寸法
 62
     0
 48
50.0
370
    -2
100
AcDbLine
 10
4297.428177602698
 20
1547.40151803194
 30
0.0
 11
4097.428177602698
 21
1547.40151803194
 31
0.0
  0
INSERT
  5
18E6B
330
187F4
100
AcDbEntity
  8
寸法
 62
     0
 48
50.0
370
    -2
100
AcDbBlockReference
  2
_DOTSMALL
 10
4297.428177602698
 20
1547.40151803194
 30
0.0
 41
100.0
 42
100.0
 43
100.0
  0
INSERT
  5
18E6C
330
187F4
100
AcDbEntity
  8
寸法
 62
     0
 48
50.0
370
    -2
100
AcDbBlockReference
  2
_DOTSMALL
 10
4097.428177602698
 20
1547.40151803194
 30
0.0
 41
100.0
 42
100.0
 43
100.0
 50
180.0
  0
MTEXT
  5
18E6D
330
187F4
100
AcDbEntity
  8
寸法
 62
     7
 48
50.0
100
AcDbMText
 10
4197.428177602698
 20
1647.413329055562
 30
0.0
 40
120.0
 41
0.0
 71
     5
 72
     1
  1
\A1;200
  7
STYLE1
 73
     1
 44
1.0
1001
ACAD
1000
MTEXTBEGIN
1070
    73
1070
     1
1070
    44
1040
1.0
1070
    74
1070
     0
1000
MTEXTEND
  0
POINT
  5
18E6E
330
187F4
100
AcDbEntity
  8
DEFPOINTS
 62
     0
 48
50.0
100
AcDbPoint
 10
4297.428177602698
 20
1833.448847332316
 30
0.0
  0
POINT
  5
18E6F
330
187F4
100
AcDbEntity
  8
DEFPOINTS
 62
     0
 48
50.0
100
AcDbPoint
 10
4097.428177602698
 20
1833.448847332318
 30
0.0
  0
POINT
  5
18E70
330
187F4
100
AcDbEntity
  8
DEFPOINTS
 62
     0
 48
50.0
100
AcDbPoint
 10
4097.428177602698
 20
1547.40151803194
 30
0.0
  0
ENDBLK
  5
187FF
330
187F4
100
AcDbEntity
  8
0
 48
50.0
100
AcDbBlockEnd
  0
BLOCK
  5
1880C
330
18800
100
AcDbEntity
  8
0
 48
50.0
100
AcDbBlockBegin
  2
*D26
 70
     1
 10
0.0
 20
0.0
 30
0.0
  3
*D26
  1

  0
LINE
  5
18E5D
330
18800
100
AcDbEntity
  8
寸法
 62
     0
 48
50.0
370
    -2
100
AcDbLine
 10
11582.02520693995
 20
4528.448847332323
 30
0.0
 11
11582.02520693995
 21
4967.542016671793
 31
0.0
  0
LINE
  5
18E5E
330
18800
100
AcDbEntity
  8
寸法
 62
     0
 48
50.0
370
    -2
100
AcDbLine
 10
11532.02520693995
 20
4528.448847332326
 30
0.0
 11
11532.02520693995
 21
4967.542016671793
 31
0.0
  0
LINE
  5
18E5F
330
18800
100
AcDbEntity
  8
寸法
 62
     0
 48
50.0
370
    -2
100
AcDbLine
 10
11532.02520693995
 20
4907.542016671794
 30
0.0
 11
11432.02520693995
 21
4907.542016671794
 31
0.0
  0
LINE
  5
18E60
330
18800
100
AcDbEntity
  8
寸法
 62
     0
 48
50.0
370
    -2
100
AcDbLine
 10
11582.02520693995
 20
4907.542016671794
 30
0.0
 11
12001.55773240868
 21
4907.542016671794
 31
0.0
  0
LINE
  5
18E61
330
18800
100
AcDbEntity
  8
寸法
 62
     0
 48
50.0
370
    -2
100
AcDbLine
 10
11532.02520693995
 20
4907.542016671794
 30
0.0
 11
11582.02520693995
 21
4907.542016671794
 31
0.0
  0
INSERT
  5
18E62
330
18800
100
AcDbEntity
  8
寸法
 62
     0
 48
50.0
370
    -2
100
AcDbBlockReference
  2
_DOTSMALL
 10
11532.02520693995
 20
4907.542016671794
 30
0.0
 41
100.0
 42
100.0
 43
100.0
  0
INSERT
  5
18E63
330
18800
100
AcDbEntity
  8
寸法
 62
     0
 48
50.0
370
    -2
100
AcDbBlockReference
  2
_DOTSMALL
 10
11582.02520693995
 20
4907.542016671794
 30
0.0
 41
100.0
 42
100.0
 43
100.0
 50
180.0
  0
MTEXT
  5
18E64
330
18800
100
AcDbEntity
  8
寸法
 62
     7
 48
50.0
100
AcDbMText
 10
11895.51048831419
 20
5007.542016671793
 30
0.0
 40
120.0
 41
0.0
 71
     5
 72
     1
  1
\A1;50
  7
STYLE1
 73
     1
 44
1.0
1001
ACAD
1000
MTEXTBEGIN
1070
    73
1070
     1
1070
    44
1040
1.0
1070
    74
1070
     0
1000
MTEXTEND
  0
POINT
  5
18E65
330
18800
100
AcDbEntity
  8
DEFPOINTS
 62
     0
 48
50.0
100
AcDbPoint
 10
11582.02520693995
 20
4508.448847332322
 30
0.0
  0
POINT
  5
18E66
330
18800
100
AcDbEntity
  8
DEFPOINTS
 62
     0
 48
50.0
100
AcDbPoint
 10
11532.02520693995
 20
4508.448847332325
 30
0.0
  0
POINT
  5
18E67
330
18800
100
AcDbEntity
  8
DEFPOINTS
 62
     0
 48
50.0
100
AcDbPoint
 10
11532.02520693995
 20
4907.542016671794
 30
0.0
  0
ENDBLK
  5
1880D
330
18800
100
AcDbEntity
  8
0
 48
50.0
100
AcDbBlockEnd
  0
BLOCK
  5
1881A
330
1880E
100
AcDbEntity
  8
0
 48
50.0
100
AcDbBlockBegin
  2
*D27
 70
     1
 10
0.0
 20
0.0
 30
0.0
  3
*D27
  1

  0
LINE
  5
18E52
330
1880E
100
AcDbEntity
  8
寸法
 62
     0
 48
50.0
370
    -2
100
AcDbLine
 10
8482.02520693996
 20
4528.448847332326
 30
0.0
 11
8482.02520693996
 21
4967.542016671793
 31
0.0
  0
LINE
  5
18E53
330
1880E
100
AcDbEntity
  8
寸法
 62
     0
 48
50.0
370
    -2
100
AcDbLine
 10
8432.025206939959
 20
4528.448847332326
 30
0.0
 11
8432.025206939959
 21
4967.542016671793
 31
0.0
  0
LINE
  5
18E54
330
1880E
100
AcDbEntity
  8
寸法
 62
     0
 48
50.0
370
    -2
100
AcDbLine
 10
8482.02520693996
 20
4907.542016671794
 30
0.0
 11
8582.02520693996
 21
4907.542016671794
 31
0.0
  0
LINE
  5
18E55
330
1880E
100
AcDbEntity
  8
寸法
 62
     0
 48
50.0
370
    -2
100
AcDbLine
 10
8432.025206939959
 20
4907.542016671794
 30
0.0
 11
8012.492681471224
 21
4907.542016671794
 31
0.0
  0
LINE
  5
18E56
330
1880E
100
AcDbEntity
  8
寸法
 62
     0
 48
50.0
370
    -2
100
AcDbLine
 10
8482.02520693996
 20
4907.542016671794
 30
0.0
 11
8432.025206939959
 21
4907.542016671794
 31
0.0
  0
INSERT
  5
18E57
330
1880E
100
AcDbEntity
  8
寸法
 62
     0
 48
50.0
370
    -2
100
AcDbBlockReference
  2
_DOTSMALL
 10
8482.02520693996
 20
4907.542016671794
 30
0.0
 41
100.0
 42
100.0
 43
100.0
 50
180.0
  0
INSERT
  5
18E58
330
1880E
100
AcDbEntity
  8
寸法
 62
     0
 48
50.0
370
    -2
100
AcDbBlockReference
  2
_DOTSMALL
 10
8432.025206939959
 20
4907.542016671794
 30
0.0
 41
100.0
 42
100.0
 43
100.0
  0
MTEXT
  5
18E59
330
1880E
100
AcDbEntity
  8
寸法
 62
     7
 48
50.0
100
AcDbMText
 10
8118.539925565711
 20
5007.542016671793
 30
0.0
 40
120.0
 41
0.0
 71
     5
 72
     1
  1
\A1;50
  7
STYLE1
 73
     1
 44
1.0
1001
ACAD
1000
MTEXTBEGIN
1070
    73
1070
     1
1070
    44
1040
1.0
1070
    74
1070
     0
1000
MTEXTEND
  0
POINT
  5
18E5A
330
1880E
100
AcDbEntity
  8
DEFPOINTS
 62
     0
 48
50.0
100
AcDbPoint
 10
8482.02520693996
 20
4508.448847332326
 30
0.0
  0
POINT
  5
18E5B
330
1880E
100
AcDbEntity
  8
DEFPOINTS
 62
     0
 48
50.0
100
AcDbPoint
 10
8432.025206939959
 20
4508.448847332325
 30
0.0
  0
POINT
  5
18E5C
330
1880E
100
AcDbEntity
  8
DEFPOINTS
 62
     0
 48
50.0
100
AcDbPoint
 10
8432.025206939959
 20
4907.542016671794
 30
0.0
  0
ENDBLK
  5
1881B
330
1880E
100
AcDbEntity
  8
0
 48
50.0
100
AcDbBlockEnd
  0
BLOCK
  5
18826
330
1881C
100
AcDbEntity
  8
0
 48
50.0
100
AcDbBlockBegin
  2
*D28
 70
     1
 10
0.0
 20
0.0
 30
0.0
  3
*D28
  1

  0
LINE
  5
18E49
330
1881C
100
AcDbEntity
  8
寸法
 62
     0
 48
50.0
370
    -2
100
AcDbLine
 10
8432.025206939959
 20
4528.448847332326
 30
0.0
 11
8432.025206939959
 21
5184.068116290238
 31
0.0
  0
LINE
  5
18E4A
330
1881C
100
AcDbEntity
  8
寸法
 62
     0
 48
50.0
370
    -2
100
AcDbLine
 10
11582.02520693995
 20
4528.448847332323
 30
0.0
 11
11582.02520693995
 21
5184.068116290238
 31
0.0
  0
LINE
  5
18E4B
330
1881C
100
AcDbEntity
  8
寸法
 62
     0
 48
50.0
370
    -2
100
AcDbLine
 10
8432.025206939959
 20
5124.068116290239
 30
0.0
 11
11582.02520693995
 21
5124.068116290239
 31
0.0
  0
INSERT
  5
18E4C
330
1881C
100
AcDbEntity
  8
寸法
 62
     0
 48
50.0
370
    -2
100
AcDbBlockReference
  2
_DOTSMALL
 10
8432.025206939959
 20
5124.068116290239
 30
0.0
 41
100.0
 42
100.0
 43
100.0
 50
180.0
  0
INSERT
  5
18E4D
330
1881C
100
AcDbEntity
  8
寸法
 62
     0
 48
50.0
370
    -2
100
AcDbBlockReference
  2
_DOTSMALL
 10
11582.02520693995
 20
5124.068116290239
 30
0.0
 41
100.0
 42
100.0
 43
100.0
  0
MTEXT
  5
18E4E
330
1881C
100
AcDbEntity
  8
寸法
 62
     7
 48
50.0
100
AcDbMText
 10
10007.02520693996
 20
5224.068116290238
 30
0.0
 40
120.0
 41
0.0
 71
     5
 72
     1
  1
\A1;3150
  7
STYLE1
 73
     1
 44
1.0
1001
ACAD
1000
MTEXTBEGIN
1070
    73
1070
     1
1070
    44
1040
1.0
1070
    74
1070
     0
1000
MTEXTEND
  0
POINT
  5
18E4F
330
1881C
100
AcDbEntity
  8
DEFPOINTS
 62
     0
 48
50.0
100
AcDbPoint
 10
8432.025206939959
 20
4508.448847332325
 30
0.0
  0
POINT
  5
18E50
330
1881C
100
AcDbEntity
  8
DEFPOINTS
 62
     0
 48
50.0
100
AcDbPoint
 10
11582.02520693995
 20
4508.448847332322
 30
0.0
  0
POINT
  5
18E51
330
1881C
100
AcDbEntity
  8
DEFPOINTS
 62
     0
 48
50.0
100
AcDbPoint
 10
11582.02520693995
 20
5124.068116290239
 30
0.0
  0
ENDBLK
  5
18827
330
1881C
100
AcDbEntity
  8
0
 48
50.0
100
AcDbBlockEnd
  0
BLOCK
  5
18832
330
18828
100
AcDbEntity
  8
0
 48
50.0
100
AcDbBlockBegin
  2
*D29
 70
     1
 10
0.0
 20
0.0
 30
0.0
  3
*D29
  1

  0
LINE
  5
18E40
330
18828
100
AcDbEntity
  8
寸法
 62
     0
 48
50.0
370
    -2
100
AcDbLine
 10
11532.02520693995
 20
4528.448847332326
 30
0.0
 11
11532.02520693995
 21
4967.542016671792
 31
0.0
  0
LINE
  5
18E41
330
18828
100
AcDbEntity
  8
寸法
 62
     0
 48
50.0
370
    -2
100
AcDbLine
 10
8482.02520693996
 20
4528.448847332326
 30
0.0
 11
8482.02520693996
 21
4967.542016671792
 31
0.0
  0
LINE
  5
18E42
330
18828
100
AcDbEntity
  8
寸法
 62
     0
 48
50.0
370
    -2
100
AcDbLine
 10
11532.02520693995
 20
4907.542016671793
 30
0.0
 11
8482.02520693996
 21
4907.542016671793
 31
0.0
  0
INSERT
  5
18E43
330
18828
100
AcDbEntity
  8
寸法
 62
     0
 48
50.0
370
    -2
100
AcDbBlockReference
  2
_DOTSMALL
 10
11532.02520693995
 20
4907.542016671793
 30
0.0
 41
100.0
 42
100.0
 43
100.0
  0
INSERT
  5
18E44
330
18828
100
AcDbEntity
  8
寸法
 62
     0
 48
50.0
370
    -2
100
AcDbBlockReference
  2
_DOTSMALL
 10
8482.02520693996
 20
4907.542016671793
 30
0.0
 41
100.0
 42
100.0
 43
100.0
 50
180.0
  0
MTEXT
  5
18E45
330
18828
100
AcDbEntity
  8
寸法
 62
     7
 48
50.0
100
AcDbMText
 10
10007.02520693996
 20
5007.542016671792
 30
0.0
 40
120.0
 41
0.0
 71
     5
 72
     1
  1
\A1;柱外寸法3050
  7
STYLE1
 73
     1
 44
1.0
1001
ACAD
1000
MTEXTBEGIN
1070
    73
1070
     1
1070
    44
1040
1.0
1070
    74
1070
     0
1000
MTEXTEND
  0
POINT
  5
18E46
330
18828
100
AcDbEntity
  8
DEFPOINTS
 62
     0
 48
50.0
100
AcDbPoint
 10
11532.02520693995
 20
4508.448847332325
 30
0.0
  0
POINT
  5
18E47
330
18828
100
AcDbEntity
  8
DEFPOINTS
 62
     0
 48
50.0
100
AcDbPoint
 10
8482.02520693996
 20
4508.448847332326
 30
0.0
  0
POINT
  5
18E48
330
18828
100
AcDbEntity
  8
DEFPOINTS
 62
     0
 48
50.0
100
AcDbPoint
 10
8482.02520693996
 20
4907.542016671793
 30
0.0
  0
ENDBLK
  5
18833
330
18828
100
AcDbEntity
  8
0
 48
50.0
100
AcDbBlockEnd
  0
BLOCK
  5
19089
330
1907F
100
AcDbEntity
  8
0
 48
50.0
100
AcDbBlockBegin
  2
*D30
 70
     1
 10
0.0
 20
0.0
 30
0.0
  3
*D30
  1

  0
LINE
  5
19538
330
1907F
100
AcDbEntity
  8
寸法
 62
     0
 48
50.0
370
    -2
100
AcDbLine
 10
8969.025206939937
 20
7485.444819195016
 30
0.0
 11
8969.025206939937
 21
6799.846264740671
 31
0.0
  0
LINE
  5
19539
330
1907F
100
AcDbEntity
  8
寸法
 62
     0
 48
50.0
370
    -2
100
AcDbLine
 10
10235.02520693994
 20
7485.444819195016
 30
0.0
 11
10235.02520693994
 21
6799.846264740671
 31
0.0
  0
LINE
  5
1953A
330
1907F
100
AcDbEntity
  8
寸法
 62
     0
 48
50.0
370
    -2
100
AcDbLine
 10
8989.025206939938
 20
6839.84626474067
 30
0.0
 11
10215.02520693994
 21
6839.84626474067
 31
0.0
  0
INSERT
  5
1953B
330
1907F
100
AcDbEntity
  8
寸法
 62
     0
 48
50.0
370
    -2
100
AcDbBlockReference
  2
_DOT
 10
8969.025206939937
 20
6839.84626474067
 30
0.0
 41
20.0
 42
20.0
 43
20.0
 50
180.0
  0
INSERT
  5
1953C
330
1907F
100
AcDbEntity
  8
寸法
 62
     0
 48
50.0
370
    -2
100
AcDbBlockReference
  2
_DOT
 10
10235.02520693994
 20
6839.84626474067
 30
0.0
 41
20.0
 42
20.0
 43
20.0
  0
MTEXT
  5
1953D
330
1907F
100
AcDbEntity
  8
寸法
 62
     7
 48
50.0
100
AcDbMText
 10
9616.671058362264
 20
7031.858075764292
 30
0.0
 40
120.0
 41
0.0
 71
     5
 72
     1
  1
\A1;有効開口部間口\P1266
  7
STYLE1
 73
     1
 44
1.0
1001
ACAD
1000
MTEXTBEGIN
1070
    73
1070
     1
1070
    44
1040
1.0
1070
    74
1070
     0
1000
MTEXTEND
  0
POINT
  5
1953E
330
1907F
100
AcDbEntity
  8
DEFPOINTS
 62
     0
 48
50.0
100
AcDbPoint
 10
8969.025206939937
 20
7505.444819195016
 30
0.0
  0
POINT
  5
1953F
330
1907F
100
AcDbEntity
  8
DEFPOINTS
 62
     0
 48
50.0
100
AcDbPoint
 10
10235.02520693994
 20
7505.444819195016
 30
0.0
  0
POINT
  5
19540
330
1907F
100
AcDbEntity
  8
DEFPOINTS
 62
     0
 48
50.0
100
AcDbPoint
 10
10235.02520693994
 20
6839.84626474067
 30
0.0
  0
ENDBLK
  5
1908A
330
1907F
100
AcDbEntity
  8
0
 48
50.0
100
AcDbBlockEnd
  0
BLOCK
  5
193CE
330
193C4
100
AcDbEntity
  8
0
 48
50.0
100
AcDbBlockBegin
  2
*D31
 70
     1
 10
0.0
 20
0.0
 30
0.0
  3
*D31
  1

  0
LINE
  5
1952F
330
193C4
100
AcDbEntity
  8
寸法
 62
     0
 48
50.0
370
    -2
100
AcDbLine
 10
8930.025206939935
 20
7487.444819194981
 30
0.0
 11
8930.025206939935
 21
6485.101014955787
 31
0.0
  0
LINE
  5
19530
330
193C4
100
AcDbEntity
  8
寸法
 62
     0
 48
50.0
370
    -2
100
AcDbLine
 10
11084.02520693993
 20
7487.444819194981
 30
0.0
 11
11084.02520693993
 21
6485.101014955787
 31
0.0
  0
LINE
  5
19531
330
193C4
100
AcDbEntity
  8
寸法
 62
     0
 48
50.0
370
    -2
100
AcDbLine
 10
8930.025206939935
 20
6545.101014955787
 30
0.0
 11
11084.02520693993
 21
6545.101014955787
 31
0.0
  0
INSERT
  5
19532
330
193C4
100
AcDbEntity
  8
寸法
 62
     0
 48
50.0
370
    -2
100
AcDbBlockReference
  2
_DOTSMALL
 10
8930.025206939935
 20
6545.101014955787
 30
0.0
 41
100.0
 42
100.0
 43
100.0
 50
180.0
  0
INSERT
  5
19533
330
193C4
100
AcDbEntity
  8
寸法
 62
     0
 48
50.0
370
    -2
100
AcDbBlockReference
  2
_DOTSMALL
 10
11084.02520693993
 20
6545.101014955787
 30
0.0
 41
100.0
 42
100.0
 43
100.0
  0
MTEXT
  5
19534
330
193C4
100
AcDbEntity
  8
寸法
 62
     7
 48
50.0
100
AcDbMText
 10
9985.161953136401
 20
6645.112825979409
 30
0.0
 40
120.0
 41
0.0
 71
     5
 72
     1
  1
\A1;2154
  7
STYLE1
 73
     1
 44
1.0
1001
ACAD
1000
MTEXTBEGIN
1070
    73
1070
     1
1070
    44
1040
1.0
1070
    74
1070
     0
1000
MTEXTEND
  0
POINT
  5
19535
330
193C4
100
AcDbEntity
  8
DEFPOINTS
 62
     0
 48
50.0
100
AcDbPoint
 10
8930.025206939935
 20
7507.444819194981
 30
0.0
  0
POINT
  5
19536
330
193C4
100
AcDbEntity
  8
DEFPOINTS
 62
     0
 48
50.0
100
AcDbPoint
 10
11084.02520693993
 20
7507.444819194981
 30
0.0
  0
POINT
  5
19537
330
193C4
100
AcDbEntity
  8
DEFPOINTS
 62
     0
 48
50.0
100
AcDbPoint
 10
11084.02520693993
 20
6545.101014955787
 30
0.0
  0
ENDBLK
  5
193CF
330
193C4
100
AcDbEntity
  8
0
 48
50.0
100
AcDbBlockEnd
  0
BLOCK
  5
193DC
330
193D0
100
AcDbEntity
  8
0
 48
50.0
100
AcDbBlockBegin
  2
*D32
 70
     1
 10
0.0
 20
0.0
 30
0.0
  3
*D32
  1

  0
LINE
  5
19524
330
193D0
100
AcDbEntity
  8
寸法
 62
     0
 48
50.0
370
    -2
100
AcDbLine
 10
8462.02520693996
 20
7582.444819194981
 30
0.0
 11
8147.413961313246
 21
7582.444819194981
 31
0.0
  0
LINE
  5
19525
330
193D0
100
AcDbEntity
  8
寸法
 62
     0
 48
50.0
370
    -2
100
AcDbLine
 10
8910.025206939936
 20
7507.444819194981
 30
0.0
 11
8147.413961313246
 21
7507.444819194981
 31
0.0
  0
LINE
  5
19526
330
193D0
100
AcDbEntity
  8
寸法
 62
     0
 48
50.0
370
    -2
100
AcDbLine
 10
8187.413961313245
 20
7602.444819194982
 30
0.0
 11
8187.413961313245
 21
7622.444819194981
 31
0.0
  0
LINE
  5
19527
330
193D0
100
AcDbEntity
  8
寸法
 62
     0
 48
50.0
370
    -2
100
AcDbLine
 10
8187.413961313245
 20
7487.444819194981
 30
0.0
 11
8187.413961313245
 21
7266.474256446503
 31
0.0
  0
LINE
  5
19528
330
193D0
100
AcDbEntity
  8
寸法
 62
     0
 48
50.0
370
    -2
100
AcDbLine
 10
8187.413961313245
 20
7582.444819194981
 30
0.0
 11
8187.413961313245
 21
7507.444819194981
 31
0.0
  0
INSERT
  5
19529
330
193D0
100
AcDbEntity
  8
寸法
 62
     0
 48
50.0
370
    -2
100
AcDbBlockReference
  2
_DOT
 10
8187.413961313245
 20
7582.444819194981
 30
0.0
 41
20.0
 42
20.0
 43
20.0
 50
270.0
  0
INSERT
  5
1952A
330
193D0
100
AcDbEntity
  8
寸法
 62
     0
 48
50.0
370
    -2
100
AcDbBlockReference
  2
_DOT
 10
8187.413961313245
 20
7507.444819194981
 30
0.0
 41
20.0
 42
20.0
 43
20.0
 50
90.0
  0
MTEXT
  5
1952B
330
193D0
100
AcDbEntity
  8
寸法
 62
     7
 48
50.0
100
AcDbMText
 10
8095.413961313242
 20
7366.959537820743
 30
0.0
 40
120.0
 41
0.0
 71
     5
 72
     1
  1
\A1;75
  7
STYLE1
 11
0.0000000000000001
 21
1.0
 31
0.0
 73
     1
 44
1.0
1001
ACAD
1000
MTEXTBEGIN
1070
    73
1070
     1
1070
    44
1040
1.0
1070
    74
1070
     0
1000
MTEXTEND
  0
POINT
  5
1952C
330
193D0
100
AcDbEntity
  8
DEFPOINTS
 62
     0
 48
50.0
100
AcDbPoint
 10
8482.025206939962
 20
7582.444819194981
 30
0.0
  0
POINT
  5
1952D
330
193D0
100
AcDbEntity
  8
DEFPOINTS
 62
     0
 48
50.0
100
AcDbPoint
 10
8930.025206939935
 20
7507.444819194981
 30
0.0
  0
POINT
  5
1952E
330
193D0
100
AcDbEntity
  8
DEFPOINTS
 62
     0
 48
50.0
100
AcDbPoint
 10
8187.413961313245
 20
7507.444819194981
 30
0.0
  0
ENDBLK
  5
193DD
330
193D0
100
AcDbEntity
  8
0
 48
50.0
100
AcDbBlockEnd
  0
BLOCK
  5
1945C
330
19452
100
AcDbEntity
  8
0
 48
50.0
100
AcDbBlockBegin
  2
*D33
 70
     1
 10
0.0
 20
0.0
 30
0.0
  3
*D33
  1

  0
LINE
  5
1951B
330
19452
100
AcDbEntity
  8
寸法
 62
     0
 48
50.0
370
    -2
100
AcDbLine
 10
8482.025206939962
 20
7562.444819194984
 30
0.0
 11
8482.025206939962
 21
6226.987902832526
 31
0.0
  0
LINE
  5
1951C
330
19452
100
AcDbEntity
  8
寸法
 62
     0
 48
50.0
370
    -2
100
AcDbLine
 10
11532.02520693994
 20
7562.444819195147
 30
0.0
 11
11532.02520693994
 21
6226.987902832526
 31
0.0
  0
LINE
  5
1951D
330
19452
100
AcDbEntity
  8
寸法
 62
     0
 48
50.0
370
    -2
100
AcDbLine
 10
8482.025206939962
 20
6286.987902832525
 30
0.0
 11
11532.02520693994
 21
6286.987902832525
 31
0.0
  0
INSERT
  5
1951E
330
19452
100
AcDbEntity
  8
寸法
 62
     0
 48
50.0
370
    -2
100
AcDbBlockReference
  2
_DOTSMALL
 10
8482.025206939962
 20
6286.987902832525
 30
0.0
 41
100.0
 42
100.0
 43
100.0
 50
180.0
  0
INSERT
  5
1951F
330
19452
100
AcDbEntity
  8
寸法
 62
     0
 48
50.0
370
    -2
100
AcDbBlockReference
  2
_DOTSMALL
 10
11532.02520693994
 20
6286.987902832525
 30
0.0
 41
100.0
 42
100.0
 43
100.0
  0
MTEXT
  5
19520
330
19452
100
AcDbEntity
  8
寸法
 62
     7
 48
50.0
100
AcDbMText
 10
9980.97087603741
 20
6386.987902832526
 30
0.0
 40
120.0
 41
0.0
 71
     5
 72
     1
  1
\A1;3050
  7
STYLE1
 73
     1
 44
1.0
1001
ACAD
1000
MTEXTBEGIN
1070
    73
1070
     1
1070
    44
1040
1.0
1070
    74
1070
     0
1000
MTEXTEND
  0
POINT
  5
19521
330
19452
100
AcDbEntity
  8
DEFPOINTS
 62
     0
 48
50.0
100
AcDbPoint
 10
8482.025206939962
 20
7582.444819194982
 30
0.0
  0
POINT
  5
19522
330
19452
100
AcDbEntity
  8
DEFPOINTS
 62
     0
 48
50.0
100
AcDbPoint
 10
11532.02520693994
 20
7582.444819195147
 30
0.0
  0
POINT
  5
19523
330
19452
100
AcDbEntity
  8
DEFPOINTS
 62
     0
 48
50.0
100
AcDbPoint
 10
11532.02520693994
 20
6286.987902832525
 30
0.0
  0
ENDBLK
  5
1945D
330
19452
100
AcDbEntity
  8
0
 48
50.0
100
AcDbBlockEnd
  0
ENDSEC
  0
SECTION
  2
ENTITIES
  0
LINE
  5
10B57
330
747D
100
AcDbEntity
  8
補助
  6
PHANTOM
 62
   230
 48
50.0
100
AcDbLine
 10
139.9999999999995
 20
11409.6
 30
0.0
 11
16307.2
 21
11409.6
 31
0.0
  0
LINE
  5
10B59
330
747D
100
AcDbEntity
  8
仕様書枠
  6
Continuous
 48
50.0
100
AcDbLine
 10
13107.2
 20
1200.0
 30
0.0
 11
13107.2
 21
-0.0000000000000729
 31
0.0
  0
LINE
  5
10B5C
330
747D
100
AcDbEntity
  8
仕様書枠
 48
50.0
100
AcDbLine
 10
16307.2
 20
1200.0
 30
0.0
 11
16307.2
 21
-0.0000000000000909
 31
0.0
  0
LINE
  5
10B5D
330
747D
100
AcDbEntity
  8
仕様書枠
 48
50.0
100
AcDbLine
 10
140.0
 20
0.0
 30
0.0
 11
16307.2
 21
-0.0000000000000909
 31
0.0
  0
LINE
  5
10B5E
330
747D
100
AcDbEntity
  8
補助
  6
PHANTOM
 62
   230
 48
50.0
100
AcDbLine
 10
16307.2
 20
11409.6
 30
0.0
 11
16307.2
 21
1200.0
 31
0.0
  0
LINE
  5
10B6C
330
747D
100
AcDbEntity
  8
仕様書枠
 48
50.0
100
AcDbLine
 10
13107.2
 20
1200.0
 30
0.0
 11
16307.2
 21
1200.0
 31
0.0
  0
LINE
  5
10B6D
330
747D
100
AcDbEntity
  8
補助
  6
PHANTOM
 62
   230
 48
50.0
100
AcDbLine
 10
13107.2
 20
11409.6
 30
0.0
 11
13107.2
 21
4800.0
 31
0.0
  0
LINE
  5
10B6F
330
747D
100
AcDbEntity
  8
補助
  6
PHANTOM
 62
   230
 48
50.0
100
AcDbLine
 10
13107.2
 20
4800.0
 30
0.0
 11
16307.2
 21
4800.0
 31
0.0
  0
LINE
  5
10B72
330
747D
100
AcDbEntity
  8
文字
 62
     7
 48
50.0
100
AcDbLine
 10
13187.2
 20
400.0
 30
0.0
 11
16227.2
 21
400.0
 31
0.0
  0
TEXT
  5
10B73
330
747D
100
AcDbEntity
  8
文字
 62
     7
 48
50.0
100
AcDbText
 10
13162.9790565769
 20
895.0906074299405
 30
0.0
 40
200.0
  1
外 形 図
  7
STYLE2
100
AcDbText
  0
TEXT
  5
10B74
330
747D
100
AcDbEntity
  8
文字
 62
     7
 48
50.0
100
AcDbText
 10
13201.43669998441
 20
477.2740661031255
 30
0.0
 40
160.0
  1
機種名
  7
STYLE2
100
AcDbText
  0
TEXT
  5
10B76
330
747D
100
AcDbEntity
  8
文字
 62
     7
 48
50.0
100
AcDbText
 10
13209.4053442172
 20
76.09434707649343
 30
0.0
 40
100.0
  1
○床面積 ： 6.91㎡(2.09坪) 　
  7
STYLE2
100
AcDbText
  0
TEXT
  5
10B79
330
747D
100
AcDbEntity
  8
文字
 62
     7
 48
50.0
100
AcDbText
 10
14524.131837222
 20
1031.557706291228
 30
0.0
 40
100.0
  1
NO.30      <縮尺> S=1/40
  7
STYLE2
100
AcDbText
  0
LINE
  5
10B7B
330
747D
100
AcDbEntity
  8
仕様書枠
 48
50.0
100
AcDbLine
 10
13107.2
 20
800.0
 30
0.0
 11
14251.2
 21
800.0
 31
0.0
  0
LINE
  5
10B88
330
747D
100
AcDbEntity
  8
仕様書枠
  6
Continuous
 48
50.0
100
AcDbLine
 10
14251.2
 20
1200.0
 30
0.0
 11
14251.2
 21
800.0
 31
0.0
  0
TEXT
  5
154D3
330
747D
100
AcDbEntity
  8
文字
 62
     7
 48
50.0
100
AcDbText
 10
14643.63059855437
 20
863.0097378581719
 30
0.0
 40
100.0
  1
～一般型・多雪地型～
  7
STYLE2
100
AcDbText
  0
LINE
  5
1836D
330
747D
100
AcDbEntity
  8
破線
 48
5.0
100
AcDbLine
 10
8572.025206939958
 20
2033.44884733232
 30
0.0
 11
8572.025206939958
 21
1833.44884733232
 31
0.0
  0
LINE
  5
1836E
330
747D
100
AcDbEntity
  8
破線
 48
5.0
100
AcDbLine
 10
8572.025206939958
 20
1833.44884733232
 30
0.0
 11
8372.025206939957
 21
1833.44884733232
 31
0.0
  0
LINE
  5
1836F
330
747D
100
AcDbEntity
  8
破線
 48
5.0
100
AcDbLine
 10
8372.025206939957
 20
2033.44884733232
 30
0.0
 11
8372.025206939957
 21
1833.44884733232
 31
0.0
  0
LINE
  5
18370
330
747D
100
AcDbEntity
  8
破線
 48
5.0
100
AcDbLine
 10
11432.02520693995
 20
2033.44884733232
 30
0.0
 11
11432.02520693995
 21
1833.44884733232
 31
0.0
  0
LINE
  5
18371
330
747D
100
AcDbEntity
  8
破線
 48
5.0
100
AcDbLine
 10
11632.02520693995
 20
1833.44884733232
 30
0.0
 11
11432.02520693995
 21
1833.44884733232
 31
0.0
  0
LINE
  5
18372
330
747D
100
AcDbEntity
  8
破線
 48
5.0
100
AcDbLine
 10
11632.02520693995
 20
2033.44884733232
 30
0.0
 11
11632.02520693995
 21
1833.44884733232
 31
0.0
  0
LINE
  5
18373
330
747D
100
AcDbEntity
  8
部品1
100
AcDbLine
 10
6372.428177602698
 20
2133.44884733232
 30
0.0
 11
6379.928177602699
 21
2133.44884733232
 31
0.0
  0
LINE
  5
18374
330
747D
100
AcDbEntity
  8
部品1
100
AcDbLine
 10
4217.428177602697
 20
2133.44884733232
 30
0.0
 11
6332.428177602698
 21
2133.44884733232
 31
0.0
  0
LINE
  5
18375
330
747D
100
AcDbEntity
  8
部品1
100
AcDbLine
 10
5099.473163959657
 20
4640.199329632292
 30
0.0
 11
5424.928177602698
 21
4622.681270673431
 31
0.0
  0
ARC
  5
18376
330
747D
100
AcDbEntity
  8
部品1
100
AcDbCircle
 10
6445.555713416637
 20
4347.472604598111
 30
0.0
 40
0.7
100
AcDbArc
 50
275.0921697642102
 51
354.1866997666569
  0
ARC
  5
18377
330
747D
100
AcDbEntity
  8
部品1
100
AcDbCircle
 10
6456.415059165957
 20
4424.515859416035
 30
0.0
 40
0.7
100
AcDbArc
 50
275.0921697642102
 51
354.1866997665532
  0
ARC
  5
18378
330
747D
100
AcDbEntity
  8
部品1
100
AcDbCircle
 10
6456.743464408559
 20
4420.830462558946
 30
0.0
 40
3.0
100
AcDbArc
 50
95.09216976442012
 51
174.1866997665532
  0
ARC
  5
18379
330
747D
100
AcDbEntity
  8
部品1
100
AcDbCircle
 10
6445.884118659233
 20
4343.787207741021
 30
0.0
 40
3.0
100
AcDbArc
 50
95.0921697642102
 51
174.1866997665532
  0
ARC
  5
1837A
330
747D
100
AcDbEntity
  8
部品1
 48
50.0
100
AcDbCircle
 10
6434.855983384128
 20
4334.196463137139
 30
0.0
 40
7.0
100
AcDbArc
 50
267.8377559871574
 51
354.1866997665532
  0
ARC
  5
1837B
330
747D
100
AcDbEntity
  8
部品1
 48
50.0
100
AcDbCircle
 10
6452.178079848643
 20
4445.099010279313
 30
0.0
 40
7.0
100
AcDbArc
 50
354.1866997665532
 51
87.03587545283093
  0
LINE
  5
1837C
330
747D
100
AcDbEntity
  8
部品1
 48
50.0
100
AcDbLine
 10
6442.899546988629
 20
4344.091069457923
 30
0.0
 11
6441.819983948888
 21
4333.487452464366
 31
0.0
  0
LINE
  5
1837D
330
747D
100
AcDbEntity
  8
部品1
 48
50.0
100
AcDbLine
 10
6453.758892737948
 20
4421.134324275849
 30
0.0
 11
6446.252113473114
 21
4347.401703530837
 31
0.0
  0
LINE
  5
1837E
330
747D
100
AcDbEntity
  8
部品1
 48
50.0
100
AcDbLine
 10
6459.142080413403
 20
4444.389999606538
 30
0.0
 11
6457.111459222433
 21
4424.444958348757
 31
0.0
  0
ARC
  5
1837F
330
747D
100
AcDbEntity
  8
部品1
100
AcDbCircle
 10
4115.965269474065
 20
4387.263006291223
 30
0.0
 40
0.7
100
AcDbArc
 50
181.0932240293156
 51
260.1877540316988
  0
ARC
  5
18380
330
747D
100
AcDbEntity
  8
部品1
100
AcDbCircle
 10
4111.192595876455
 20
4480.128784491342
 30
0.0
 40
0.7
100
AcDbArc
 50
181.0932240292114
 51
260.1877540316988
  0
ARC
  5
18381
330
747D
100
AcDbEntity
  8
部品1
100
AcDbCircle
 10
4110.562041473429
 20
4476.482909953944
 30
0.0
 40
3.0
100
AcDbArc
 50
1.093224029315636
 51
80.18775403169875
  0
ARC
  5
18382
330
747D
100
AcDbEntity
  8
部品1
100
AcDbCircle
 10
4115.334715071039
 20
4383.617131753826
 30
0.0
 40
3.0
100
AcDbArc
 50
1.093224029315636
 51
80.18775403169875
  0
ARC
  5
18383
330
747D
100
AcDbEntity
  8
部品1
 48
50.0
100
AcDbCircle
 10
4125.534847446237
 20
4373.224888371345
 30
0.0
 40
7.0
100
AcDbArc
 50
181.0932240293156
 51
267.8377559871574
  0
ARC
  5
18384
330
747D
100
AcDbEntity
  8
部品1
 48
50.0
100
AcDbCircle
 10
4117.111189344141
 20
4500.175947904439
 30
0.0
 40
7.0
100
AcDbArc
 50
87.03587545283093
 51
181.0932240293156
  0
LINE
  5
18385
330
747D
100
AcDbEntity
  8
部品1
 48
50.0
100
AcDbLine
 10
4118.33416899747
 20
4383.674369357008
 30
0.0
 11
4118.536121617901
 21
4373.091333963917
 31
0.0
  0
LINE
  5
18386
330
747D
100
AcDbEntity
  8
細線
 48
50.0
100
AcDbLine
 10
4115.728075940795
 20
4386.604417475817
 30
0.0
 11
6445.731740371432
 21
4346.795098501325
 31
0.0
  0
LINE
  5
18387
330
747D
100
AcDbEntity
  8
細線
 48
50.0
100
AcDbLine
 10
4110.967600703508
 20
4479.46592917368
 30
0.0
 11
6456.603585448684
 21
4423.841724532852
 31
0.0
  0
LINE
  5
18388
330
747D
100
AcDbEntity
  8
部品1
 48
50.0
100
AcDbLine
 10
4113.561495399859
 20
4476.540147557129
 30
0.0
 11
4115.265396891227
 21
4387.24965085048
 31
0.0
  0
LINE
  5
18389
330
747D
100
AcDbEntity
  8
部品1
 48
50.0
100
AcDbLine
 10
4110.112463515805
 20
4500.042393497011
 30
0.0
 11
4110.492723293616
 21
4480.1154290506
 31
0.0
  0
LINE
  5
1838A
330
747D
100
AcDbEntity
  8
細線
 48
50.0
100
AcDbLine
 10
6426.928177602698
 20
4453.415826367616
 30
0.0
 11
6422.180494714703
 21
4327.670053876871
 31
0.0
  0
LINE
  5
1838B
330
747D
100
AcDbEntity
  8
細線
 48
50.0
100
AcDbLine
 10
4142.928177602698
 20
4505.848523707724
 30
0.0
 11
4137.639076047191
 21
4365.762891080371
 31
0.0
  0
LINE
  5
1838C
330
747D
100
AcDbEntity
  8
部品1
100
AcDbLine
 10
4125.270742204651
 20
4366.229872401286
 30
0.0
 11
6434.591878142542
 21
4327.20144716708
 31
0.0
  0
LINE
  5
1838D
330
747D
100
AcDbEntity
  8
部品1
100
AcDbLine
 10
4117.473163959657
 20
4507.166582666587
 30
0.0
 11
6452.54005446416
 21
4452.089645041458
 31
0.0
  0
LINE
  5
1838E
330
747D
100
AcDbEntity
  8
部品1
 48
50.0
100
AcDbLine
 10
5124.928177602698
 20
4638.881270673429
 30
0.0
 11
5424.928177602698
 21
4638.881270673429
 31
0.0
  0
LINE
  5
1838F
330
747D
100
AcDbEntity
  8
部品1
 48
50.0
100
AcDbLine
 10
5424.928177602698
 20
4638.881270673429
 30
0.0
 11
5424.928177602698
 21
4622.681270673431
 31
0.0
  0
TEXT
  5
18390
330
747D
100
AcDbEntity
  8
部品1
 48
50.0
100
AcDbText
 10
5113.196012826425
 20
4674.765292825862
 30
0.0
 40
120.0
  1
1000
  7
STYLE1
100
AcDbText
  0
TEXT
  5
18391
330
747D
100
AcDbEntity
  8
部品1
 48
50.0
100
AcDbText
 10
5590.829035491515
 20
4537.26403460758
 30
0.0
 40
120.0
  1
44
 50
90.0
  7
STYLE1
100
AcDbText
  0
LINE
  5
18392
330
747D
100
AcDbEntity
  8
細線
 48
50.0
100
AcDbLine
 10
5562.428177602698
 20
4273.44884733232
 30
0.0
 11
5562.428177602698
 21
2183.44884733232
 31
0.0
  0
LINE
  5
18393
330
747D
100
AcDbEntity
  8
細線
 48
50.0
100
AcDbLine
 10
5547.428177602698
 20
4273.44884733232
 30
0.0
 11
5547.428177602698
 21
2183.44884733232
 31
0.0
  0
LINE
  5
18394
330
747D
100
AcDbEntity
  8
細線
 48
50.0
100
AcDbLine
 10
5687.428177602698
 20
4273.44884733232
 30
0.0
 11
5687.428177602698
 21
2183.44884733232
 31
0.0
  0
LINE
  5
18395
330
747D
100
AcDbEntity
  8
細線
 48
50.0
100
AcDbLine
 10
5702.428177602698
 20
4273.44884733232
 30
0.0
 11
5702.428177602698
 21
2183.44884733232
 31
0.0
  0
LINE
  5
18396
330
747D
100
AcDbEntity
  8
細線
 48
50.0
100
AcDbLine
 10
5842.428177602698
 20
4273.44884733232
 30
0.0
 11
5842.428177602698
 21
2183.44884733232
 31
0.0
  0
LINE
  5
18397
330
747D
100
AcDbEntity
  8
細線
 48
50.0
100
AcDbLine
 10
5827.428177602698
 20
4273.44884733232
 30
0.0
 11
5827.428177602698
 21
2183.44884733232
 31
0.0
  0
LINE
  5
18398
330
747D
100
AcDbEntity
  8
部品1
100
AcDbLine
 10
5904.928177602698
 20
4273.44884733232
 30
0.0
 11
5904.928177602698
 21
2183.44884733232
 31
0.0
  0
LINE
  5
18399
330
747D
100
AcDbEntity
  8
部品1
100
AcDbLine
 10
4169.928177602698
 20
4273.44884733232
 30
0.0
 11
6379.928177602699
 21
4273.44884733232
 31
0.0
  0
LINE
  5
1839A
330
747D
100
AcDbEntity
  8
部品1
100
AcDbLine
 10
4169.928177602698
 20
2183.44884733232
 30
0.0
 11
6379.928177602699
 21
2183.44884733232
 31
0.0
  0
LINE
  5
1839B
330
747D
100
AcDbEntity
  8
部品1
100
AcDbLine
 10
4224.928177602698
 20
4273.44884733232
 30
0.0
 11
4224.928177602698
 21
2183.44884733232
 31
0.0
  0
LINE
  5
1839C
330
747D
100
AcDbEntity
  8
部品1
100
AcDbLine
 10
4169.928177602698
 20
4365.307366774566
 30
0.0
 11
4169.928177602698
 21
2033.44884733232
 31
0.0
  0
LINE
  5
1839D
330
747D
100
AcDbEntity
  8
部品1
100
AcDbLine
 10
4644.928177602698
 20
4273.44884733232
 30
0.0
 11
4644.928177602698
 21
2183.44884733232
 31
0.0
  0
LINE
  5
1839E
330
747D
100
AcDbEntity
  8
部品1
100
AcDbLine
 10
6379.928177602699
 20
4328.125284963539
 30
0.0
 11
6379.928177602699
 21
2033.44884733232
 31
0.0
  0
LINE
  5
1839F
330
747D
100
AcDbEntity
  8
部品1
100
AcDbLine
 10
6324.928177602698
 20
4273.44884733232
 30
0.0
 11
6324.928177602698
 21
2183.44884733232
 31
0.0
  0
DIMENSION
  5
183A0
330
747D
100
AcDbEntity
  8
寸法
100
AcDbDimension
  2
*D14
 10
6940.034801544287
 20
4453.44884733232
 30
0.0
 11
6940.034801544287
 21
3293.44884733232
 31
0.0
 70
   160
 71
     5
 42
2320.000000000002
  3
INABA_S40G
100
AcDbAlignedDimension
 13
6456.928177602698
 23
2133.448847332318
 33
0.0
 14
6459.928177602698
 24
4453.44884733232
 34
0.0
 50
90.0
100
AcDbRotatedDimension
1001
ACAD
1000
DSTYLE
1002
{
1070
   174
1070
     0
1070
   272
1070
     1
1070
   288
1070
     0
1070
   341
1005
0
1002
}
  0
DIMENSION
  5
183A1
330
747D
100
AcDbEntity
  8
寸法
 48
50.0
100
AcDbDimension
  2
*D15
 10
4169.928177602698
 20
4907.106300911624
 30
0.0
 11
5264.572914673212
 21
4907.106300911624
 31
0.0
 70
   160
  1
柱外寸法<>
 71
     5
 42
2210.0
  3
INABA_S40G
100
AcDbAlignedDimension
 13
6379.928177602699
 23
4455.259526943971
 33
0.0
 14
4169.928177602698
 24
4504.450465455296
 34
0.0
100
AcDbRotatedDimension
1001
ACAD
1000
DSTYLE
1002
{
1070
   174
1070
     0
1070
   272
1070
     1
1070
   288
1070
     0
1070
   341
1005
0
1002
}
  0
DIMENSION
  5
183A2
330
747D
100
AcDbEntity
  8
寸法
 48
50.0
100
AcDbDimension
  2
*D16
 10
4109.928177602698
 20
4907.106300911624
 30
0.0
 11
3800.290382327105
 21
4907.106300911624
 31
0.0
 70
   160
 71
     5
 42
60.0
  3
INABA_S40G
100
AcDbAlignedDimension
 13
4169.928177602698
 23
4504.450465455296
 33
0.0
 14
4109.928177602698
 24
4508.448847332323
 34
0.0
100
AcDbRotatedDimension
1001
ACAD
1000
DSTYLE
1002
{
1070
   174
1070
     0
1070
   272
1070
     1
1070
   288
1070
     0
1070
   341
1005
0
1002
}
  0
DIMENSION
  5
183A3
330
747D
100
AcDbEntity
  8
寸法
 48
50.0
100
AcDbDimension
  2
*D17
 10
4109.928177602698
 20
5126.308134585915
 30
0.0
 11
5344.272031695167
 21
5126.308134585915
 31
0.0
 70
   160
 71
     5
 42
2350.0
  3
INABA_S40G
100
AcDbAlignedDimension
 13
6459.928177602698
 23
4453.44884733232
 33
0.0
 14
4109.928177602698
 24
4508.448847332323
 34
0.0
100
AcDbRotatedDimension
1001
ACAD
1000
DSTYLE
1002
{
1070
   174
1070
     0
1070
   272
1070
     1
1070
   288
1070
     0
1070
   341
1005
0
1002
}
  0
LINE
  5
183A4
330
747D
100
AcDbEntity
  8
部品1
100
AcDbLine
 10
4169.928177602698
 20
2133.44884733232
 30
0.0
 11
4177.428177602698
 21
2133.44884733232
 31
0.0
  0
LINE
  5
183A5
330
747D
100
AcDbEntity
  8
細線
 48
50.0
100
AcDbLine
 10
4722.428177602698
 20
4273.44884733232
 30
0.0
 11
4722.428177602698
 21
2183.44884733232
 31
0.0
  0
LINE
  5
183A6
330
747D
100
AcDbEntity
  8
細線
 48
50.0
100
AcDbLine
 10
4707.428177602698
 20
4273.44884733232
 30
0.0
 11
4707.428177602698
 21
2183.44884733232
 31
0.0
  0
LINE
  5
183A7
330
747D
100
AcDbEntity
  8
細線
 48
50.0
100
AcDbLine
 10
4847.428177602698
 20
4273.44884733232
 30
0.0
 11
4847.428177602698
 21
2183.44884733232
 31
0.0
  0
LINE
  5
183A8
330
747D
100
AcDbEntity
  8
細線
 48
50.0
100
AcDbLine
 10
4862.428177602698
 20
4273.44884733232
 30
0.0
 11
4862.428177602698
 21
2183.44884733232
 31
0.0
  0
LINE
  5
183A9
330
747D
100
AcDbEntity
  8
細線
 48
50.0
100
AcDbLine
 10
5002.428177602698
 20
4273.44884733232
 30
0.0
 11
5002.428177602698
 21
2183.44884733232
 31
0.0
  0
LINE
  5
183AA
330
747D
100
AcDbEntity
  8
細線
 48
50.0
100
AcDbLine
 10
4987.428177602698
 20
4273.44884733232
 30
0.0
 11
4987.428177602698
 21
2183.44884733232
 31
0.0
  0
LINE
  5
183AB
330
747D
100
AcDbEntity
  8
細線
 48
50.0
100
AcDbLine
 10
4567.428177602698
 20
4273.44884733232
 30
0.0
 11
4567.428177602698
 21
2183.44884733232
 31
0.0
  0
LINE
  5
183AC
330
747D
100
AcDbEntity
  8
細線
 48
50.0
100
AcDbLine
 10
4582.428177602698
 20
4273.44884733232
 30
0.0
 11
4582.428177602698
 21
2183.44884733232
 31
0.0
  0
LINE
  5
183AD
330
747D
100
AcDbEntity
  8
細線
 48
50.0
100
AcDbLine
 10
4442.428177602698
 20
4273.44884733232
 30
0.0
 11
4442.428177602698
 21
2183.44884733232
 31
0.0
  0
LINE
  5
183AE
330
747D
100
AcDbEntity
  8
細線
 48
50.0
100
AcDbLine
 10
4427.428177602698
 20
4273.44884733232
 30
0.0
 11
4427.428177602698
 21
2183.44884733232
 31
0.0
  0
LINE
  5
183AF
330
747D
100
AcDbEntity
  8
細線
 48
50.0
100
AcDbLine
 10
4287.428177602698
 20
4273.44884733232
 30
0.0
 11
4287.428177602698
 21
2183.44884733232
 31
0.0
  0
LINE
  5
183B0
330
747D
100
AcDbEntity
  8
細線
 48
50.0
100
AcDbLine
 10
4302.428177602698
 20
4273.44884733232
 30
0.0
 11
4302.428177602698
 21
2183.44884733232
 31
0.0
  0
DIMENSION
  5
183B1
330
747D
100
AcDbEntity
  8
寸法
 48
50.0
100
AcDbDimension
  2
*D18
 10
6459.928177602698
 20
4907.106300911624
 30
0.0
 11
6665.975421697187
 21
4907.106300911624
 31
0.0
 70
   160
 71
     5
 42
80.0
  3
INABA_S40G
100
AcDbAlignedDimension
 13
6379.928177602699
 23
4455.259526943971
 33
0.0
 14
6459.928177602698
 24
4453.44884733232
 34
0.0
100
AcDbRotatedDimension
1001
ACAD
1000
DSTYLE
1002
{
1070
   174
1070
     0
1070
   272
1070
     1
1070
   288
1070
     0
1070
   341
1005
0
1002
}
  0
LINE
  5
183B2
330
747D
100
AcDbEntity
  8
部品1
100
AcDbLine
 10
5064.928177602698
 20
4273.44884733232
 30
0.0
 11
5064.928177602698
 21
2183.44884733232
 31
0.0
  0
LINE
  5
183B3
330
747D
100
AcDbEntity
  8
細線
 48
50.0
100
AcDbLine
 10
5407.428177602699
 20
4273.44884733232
 30
0.0
 11
5407.428177602699
 21
2183.44884733232
 31
0.0
  0
LINE
  5
183B4
330
747D
100
AcDbEntity
  8
細線
 48
50.0
100
AcDbLine
 10
5422.428177602698
 20
4273.44884733232
 30
0.0
 11
5422.428177602698
 21
2183.44884733232
 31
0.0
  0
LINE
  5
183B5
330
747D
100
AcDbEntity
  8
細線
 48
50.0
100
AcDbLine
 10
5282.428177602699
 20
4273.44884733232
 30
0.0
 11
5282.428177602699
 21
2183.44884733232
 31
0.0
  0
LINE
  5
183B6
330
747D
100
AcDbEntity
  8
細線
 48
50.0
100
AcDbLine
 10
5267.428177602699
 20
4273.44884733232
 30
0.0
 11
5267.428177602699
 21
2183.44884733232
 31
0.0
  0
LINE
  5
183B7
330
747D
100
AcDbEntity
  8
細線
 48
50.0
100
AcDbLine
 10
5127.428177602698
 20
4273.44884733232
 30
0.0
 11
5127.428177602698
 21
2183.44884733232
 31
0.0
  0
LINE
  5
183B8
330
747D
100
AcDbEntity
  8
細線
 48
50.0
100
AcDbLine
 10
5142.428177602699
 20
4273.44884733232
 30
0.0
 11
5142.428177602699
 21
2183.44884733232
 31
0.0
  0
LINE
  5
183B9
330
747D
100
AcDbEntity
  8
部品1
100
AcDbLine
 10
5484.928177602698
 20
4273.44884733232
 30
0.0
 11
5484.928177602698
 21
2183.44884733232
 31
0.0
  0
LINE
  5
183BA
330
747D
100
AcDbEntity
  8
細線
 48
50.0
100
AcDbLine
 10
5982.428177602706
 20
4273.44884733232
 30
0.0
 11
5982.428177602706
 21
2183.44884733232
 31
0.0
  0
LINE
  5
183BB
330
747D
100
AcDbEntity
  8
細線
 48
50.0
100
AcDbLine
 10
5967.428177602705
 20
4273.44884733232
 30
0.0
 11
5967.428177602705
 21
2183.44884733232
 31
0.0
  0
LINE
  5
183BC
330
747D
100
AcDbEntity
  8
細線
 48
50.0
100
AcDbLine
 10
6107.428177602706
 20
4273.44884733232
 30
0.0
 11
6107.428177602706
 21
2183.44884733232
 31
0.0
  0
LINE
  5
183BD
330
747D
100
AcDbEntity
  8
細線
 48
50.0
100
AcDbLine
 10
6122.428177602706
 20
4273.44884733232
 30
0.0
 11
6122.428177602706
 21
2183.44884733232
 31
0.0
  0
LINE
  5
183BE
330
747D
100
AcDbEntity
  8
細線
 48
50.0
100
AcDbLine
 10
6262.428177602705
 20
4273.44884733232
 30
0.0
 11
6262.428177602705
 21
2183.44884733232
 31
0.0
  0
LINE
  5
183BF
330
747D
100
AcDbEntity
  8
細線
 48
50.0
100
AcDbLine
 10
6247.428177602706
 20
4273.44884733232
 30
0.0
 11
6247.428177602706
 21
2183.44884733232
 31
0.0
  0
TEXT
  5
183C0
330
747D
100
AcDbEntity
  8
部品1
100
AcDbText
 10
4982.638945912084
 20
1151.517055136384
 30
0.0
 40
135.0
  1
側面図
  7
STYLE2
100
AcDbText
  0
LINE
  5
183C1
330
747D
100
AcDbEntity
  8
部品1
100
AcDbLine
 10
4893.192844488476
 20
1344.410584354909
 30
0.0
 11
4893.192844488476
 21
1104.518262809377
 31
0.0
  0
LINE
  5
183C2
330
747D
100
AcDbEntity
  8
部品1
100
AcDbLine
 10
4893.192844488476
 20
1104.518262809377
 30
0.0
 11
5656.663510716917
 21
1104.518262809377
 31
0.0
  0
LINE
  5
183C3
330
747D
100
AcDbEntity
  8
部品1
100
AcDbLine
 10
5656.663510716917
 20
1104.518262809377
 30
0.0
 11
5656.663510716917
 21
1344.410584354909
 31
0.0
  0
LINE
  5
183C4
330
747D
100
AcDbEntity
  8
部品1
100
AcDbLine
 10
5656.663510716917
 20
1344.410584354909
 30
0.0
 11
4893.192844488476
 21
1344.410584354909
 31
0.0
  0
LINE
  5
183C5
330
747D
100
AcDbEntity
  8
部品1
100
AcDbLine
 10
4169.928177602698
 20
2133.44884733232
 30
0.0
 11
4177.428177602698
 21
2133.44884733232
 31
0.0
  0
DIMENSION
  5
183C6
330
747D
100
AcDbEntity
  8
寸法
100
AcDbDimension
  2
*D19
 10
3546.275468444402
 20
2183.44884733232
 30
0.0
 11
3546.275468444401
 21
3293.44884733232
 31
0.0
 70
   160
 71
     5
 42
2090.0
  3
INABA_S40G
100
AcDbAlignedDimension
 13
4169.928177602698
 23
4273.44884733232
 33
0.0
 14
4169.928177602698
 24
2183.44884733232
 34
0.0
 50
90.0
100
AcDbRotatedDimension
1001
ACAD
1000
DSTYLE
1002
{
1070
   174
1070
     0
1070
   272
1070
     1
1070
   288
1070
     0
1070
   341
1005
0
1002
}
  0
DIMENSION
  5
183C7
330
747D
100
AcDbEntity
  8
寸法
100
AcDbDimension
  2
*D20
 10
3261.28879567334
 20
4508.448847332323
 30
0.0
 11
3261.28879567334
 21
3293.44884733232
 31
0.0
 70
   160
 71
     5
 42
2375.000000000003
  3
INABA_S40G
100
AcDbAlignedDimension
 13
4169.928177602698
 23
2133.44884733232
 33
0.0
 14
4109.928177602698
 24
4508.448847332323
 34
0.0
 50
90.0
100
AcDbRotatedDimension
1001
ACAD
1000
DSTYLE
1002
{
1070
   174
1070
     0
1070
   272
1070
     1
1070
   288
1070
     0
1070
   341
1005
0
1002
}
  0
DIMENSION
  5
183C8
330
747D
100
AcDbEntity
  8
寸法
100
AcDbDimension
  2
*D21
 10
3261.28879567334
 20
2033.44884733232
 30
0.0
 11
3261.28879567334
 21
1797.401603237826
 31
0.0
 70
   160
 71
     5
 42
100.0000000000002
  3
INABA_S40G
100
AcDbAlignedDimension
 13
4114.928177602698
 23
2133.44884733232
 33
0.0
 14
3546.275468444401
 24
2033.44884733232
 34
0.0
 50
90.0
100
AcDbRotatedDimension
1001
ACAD
1000
DSTYLE
1002
{
1070
   174
1070
     0
1070
   272
1070
     1
1070
   288
1070
     0
1070
   341
1005
0
1002
}
  0
DIMENSION
  5
183C9
330
747D
100
AcDbEntity
  8
寸法
100
AcDbDimension
  2
*D22
 10
3546.275468444402
 20
2133.44884733232
 30
0.0
 11
3546.275468444401
 21
1827.401603237826
 31
0.0
 70
   160
 71
     5
 42
50.0
  3
INABA_S40G
100
AcDbAlignedDimension
 13
4169.928177602698
 23
2183.44884733232
 33
0.0
 14
4114.928177602698
 24
2133.44884733232
 34
0.0
 50
90.0
100
AcDbRotatedDimension
1001
ACAD
1000
DSTYLE
1002
{
1070
   174
1070
     0
1070
   272
1070
     1
1070
   288
1070
     0
1070
   341
1005
0
1002
}
  0
LINE
  5
183CA
330
747D
100
AcDbEntity
  8
破線
  6
HIDDEN
 48
5.0
100
AcDbLine
 10
6387.428177602698
 20
1878.44884733232
 30
0.0
 11
6317.428177602699
 21
1878.44884733232
 31
0.0
  0
LINE
  5
183CB
330
747D
100
AcDbEntity
  8
破線
  6
HIDDEN
 48
5.0
100
AcDbLine
 10
6332.428177602698
 20
2028.44884733232
 30
0.0
 11
6317.428177602699
 21
1880.748847332319
 31
0.0
  0
LINE
  5
183CC
330
747D
100
AcDbEntity
  8
破線
  6
HIDDEN
 48
5.0
100
AcDbLine
 10
6317.428177602699
 20
1880.748847332319
 30
0.0
 11
6317.428177602699
 21
1878.44884733232
 31
0.0
  0
LINE
  5
183CD
330
747D
100
AcDbEntity
  8
破線
  6
HIDDEN
 48
5.0
100
AcDbLine
 10
6372.428177602698
 20
2028.44884733232
 30
0.0
 11
6387.428177602698
 21
1880.748847332319
 31
0.0
  0
LINE
  5
183CE
330
747D
100
AcDbEntity
  8
破線
  6
HIDDEN
 48
5.0
100
AcDbLine
 10
6387.428177602698
 20
1880.748847332319
 30
0.0
 11
6387.428177602698
 21
1878.44884733232
 31
0.0
  0
LINE
  5
183CF
330
747D
100
AcDbEntity
  8
破線
  6
HIDDEN
 48
5.0
100
AcDbLine
 10
4162.428177602698
 20
1878.44884733232
 30
0.0
 11
4232.428177602698
 21
1878.44884733232
 31
0.0
  0
LINE
  5
183D0
330
747D
100
AcDbEntity
  8
破線
  6
HIDDEN
 48
5.0
100
AcDbLine
 10
4162.428177602698
 20
1880.748847332319
 30
0.0
 11
4162.428177602698
 21
1878.44884733232
 31
0.0
  0
LINE
  5
183D1
330
747D
100
AcDbEntity
  8
破線
  6
HIDDEN
 48
5.0
100
AcDbLine
 10
4232.428177602698
 20
1880.748847332319
 30
0.0
 11
4232.428177602698
 21
1878.44884733232
 31
0.0
  0
LINE
  5
183D2
330
747D
100
AcDbEntity
  8
破線
  6
HIDDEN
 48
5.0
100
AcDbLine
 10
4177.428177602698
 20
2028.44884733232
 30
0.0
 11
4162.428177602698
 21
1880.748847332319
 31
0.0
  0
LINE
  5
183D3
330
747D
100
AcDbEntity
  8
破線
  6
HIDDEN
 48
5.0
100
AcDbLine
 10
4217.428177602697
 20
2028.44884733232
 30
0.0
 11
4232.428177602698
 21
1880.748847332319
 31
0.0
  0
LINE
  5
183D4
330
747D
100
AcDbEntity
  8
部品1
 48
50.0
100
AcDbLine
 10
4177.428177602698
 20
2173.44884733232
 30
0.0
 11
4177.428177602698
 21
2033.44884733232
 31
0.0
  0
LINE
  5
183D5
330
747D
100
AcDbEntity
  8
部品1
 48
50.0
100
AcDbLine
 10
4217.428177602697
 20
2173.44884733232
 30
0.0
 11
4217.428177602697
 21
2033.44884733232
 31
0.0
  0
LINE
  5
183D6
330
747D
100
AcDbEntity
  8
部品1
100
AcDbLine
 10
4182.428177602698
 20
2178.44884733232
 30
0.0
 11
4212.428177602698
 21
2178.44884733232
 31
0.0
  0
ARC
  5
183D7
330
747D
100
AcDbEntity
  8
部品1
 48
50.0
100
AcDbCircle
 10
4182.428177602698
 20
2173.44884733232
 30
0.0
 40
5.0
100
AcDbArc
 50
90.0
 51
180.0
  0
ARC
  5
183D8
330
747D
100
AcDbEntity
  8
部品1
 48
50.0
100
AcDbCircle
 10
4212.428177602698
 20
2173.44884733232
 30
0.0
 40
5.0
100
AcDbArc
 50
0.0
 51
90.0
  0
LINE
  5
183D9
330
747D
100
AcDbEntity
  8
部品1
 48
50.0
100
AcDbLine
 10
6332.428177602698
 20
2173.44884733232
 30
0.0
 11
6332.428177602698
 21
2033.44884733232
 31
0.0
  0
LINE
  5
183DA
330
747D
100
AcDbEntity
  8
部品1
 48
50.0
100
AcDbLine
 10
6372.428177602698
 20
2173.44884733232
 30
0.0
 11
6372.428177602698
 21
2033.44884733232
 31
0.0
  0
LINE
  5
183DB
330
747D
100
AcDbEntity
  8
部品1
100
AcDbLine
 10
6367.428177602699
 20
2178.44884733232
 30
0.0
 11
6337.428177602698
 21
2178.44884733232
 31
0.0
  0
ARC
  5
183DC
330
747D
100
AcDbEntity
  8
部品1
 48
50.0
100
AcDbCircle
 10
6337.428177602698
 20
2173.44884733232
 30
0.0
 40
5.0
100
AcDbArc
 50
90.0
 51
180.0
  0
ARC
  5
183DD
330
747D
100
AcDbEntity
  8
部品1
 48
50.0
100
AcDbCircle
 10
6367.428177602699
 20
2173.44884733232
 30
0.0
 40
5.0
100
AcDbArc
 50
0.0
 51
90.0
  0
LINE
  5
183DE
330
747D
100
AcDbEntity
  8
破線
  6
HIDDEN
 48
5.0
100
AcDbLine
 10
6332.428177602698
 20
2033.44884733232
 30
0.0
 11
6332.428177602698
 21
2028.44884733232
 31
0.0
  0
LINE
  5
183DF
330
747D
100
AcDbEntity
  8
破線
  6
HIDDEN
 48
5.0
100
AcDbLine
 10
6372.428177602698
 20
2033.44884733232
 30
0.0
 11
6372.428177602698
 21
2028.44884733232
 31
0.0
  0
LINE
  5
183E0
330
747D
100
AcDbEntity
  8
破線
  6
HIDDEN
 48
5.0
100
AcDbLine
 10
4177.428177602705
 20
2033.44884733232
 30
0.0
 11
4177.428177602705
 21
2028.44884733232
 31
0.0
  0
LINE
  5
183E1
330
747D
100
AcDbEntity
  8
破線
  6
HIDDEN
 48
5.0
100
AcDbLine
 10
4217.428177602697
 20
2033.44884733232
 30
0.0
 11
4217.428177602697
 21
2028.44884733232
 31
0.0
  0
LINE
  5
183E2
330
747D
100
AcDbEntity
  8
部品1
100
AcDbLine
 10
6372.428177602698
 20
2133.44884733232
 30
0.0
 11
6379.928177602699
 21
2133.44884733232
 31
0.0
  0
DIMENSION
  5
183E3
330
747D
100
AcDbEntity
  8
寸法
 48
50.0
100
AcDbDimension
  2
*D23
 10
3549.31977083433
 20
4382.79410620565
 30
0.0
 11
3559.985246093255
 21
4753.640769447355
 31
0.0
 70
   161
 71
     5
 42
141.0000000000009
  3
INABA_S40G
100
AcDbAlignedDimension
 13
4129.324197761278
 23
4507.171596167
 33
0.0
 14
4125.270742204651
 24
4366.229872401286
 34
0.0
1001
ACAD
1000
DSTYLE
1002
{
1070
   174
1070
     0
1070
   272
1070
     1
1070
   288
1070
     0
1070
   341
1005
0
1002
}
  0
DIMENSION
  5
183E4
330
747D
100
AcDbEntity
  8
寸法
 48
50.0
100
AcDbDimension
  2
*D24
 10
3947.928174356064
 20
2033.448847332318
 30
0.0
 11
3812.659754216929
 21
1903.593200599251
 31
0.0
 70
   160
 71
     5
 42
200.0
  3
INABA_S40G
100
AcDbAlignedDimension
 13
4097.428177602698
 23
1833.448847332318
 33
0.0
 14
4072.428177602698
 24
2033.448847332318
 34
0.0
 50
90.0
100
AcDbRotatedDimension
1001
ACAD
1000
DSTYLE
1002
{
1070
   174
1070
     0
1070
   272
1070
     1
1070
   279
1070
     2
1070
   341
1005
0
1002
}
  0
LINE
  5
183E5
330
747D
100
AcDbEntity
  8
破線
 48
5.0
100
AcDbLine
 10
4297.428177602698
 20
1833.448847332316
 30
0.0
 11
4097.428177602698
 21
1833.448847332316
 31
0.0
  0
LINE
  5
183E6
330
747D
100
AcDbEntity
  8
破線
 48
5.0
100
AcDbLine
 10
4297.428177602698
 20
2033.44884733232
 30
0.0
 11
4297.428177602698
 21
1833.448847332316
 31
0.0
  0
LINE
  5
183E7
330
747D
100
AcDbEntity
  8
破線
 48
5.0
100
AcDbLine
 10
4097.428177602698
 20
2033.44884733232
 30
0.0
 11
4097.428177602698
 21
1833.448847332316
 31
0.0
  0
DIMENSION
  5
183E8
330
747D
100
AcDbEntity
  8
寸法
 48
50.0
100
AcDbDimension
  2
*D25
 10
4097.428177602698
 20
1547.40151803194
 30
0.0
 11
4197.428177602698
 21
1547.40151803194
 31
0.0
 70
   160
 71
     5
 42
200.0
  3
INABA_S40G
100
AcDbAlignedDimension
 13
4297.428177602698
 23
1833.448847332316
 33
0.0
 14
4097.428177602698
 24
1833.448847332318
 34
0.0
100
AcDbRotatedDimension
  0
LINE
  5
183E9
330
747D
100
AcDbEntity
  8
破線
 48
5.0
100
AcDbLine
 10
6452.428177602705
 20
2033.44884733232
 30
0.0
 11
6452.428177602698
 21
1833.448847332316
 31
0.0
  0
LINE
  5
183EA
330
747D
100
AcDbEntity
  8
破線
 48
5.0
100
AcDbLine
 10
6452.428177602698
 20
1833.448847332316
 30
0.0
 11
6252.428177602705
 21
1833.44884733232
 31
0.0
  0
LINE
  5
183EB
330
747D
100
AcDbEntity
  8
破線
 48
5.0
100
AcDbLine
 10
6252.428177602705
 20
2033.44884733232
 30
0.0
 11
6252.428177602705
 21
1833.44884733232
 31
0.0
  0
LINE
  5
183EC
330
747D
100
AcDbEntity
  8
部品1
 48
50.0
100
AcDbLine
 10
6379.928177602699
 20
4268.44884733232
 30
0.0
 11
6456.928177602698
 21
4258.44884733232
 31
0.0
  0
LINE
  5
183ED
330
747D
100
AcDbEntity
  8
部品1
 48
50.0
100
AcDbLine
 10
6456.928177602698
 20
4258.44884733232
 30
0.0
 11
6456.928177602698
 21
2033.44884733232
 31
0.0
  0
LINE
  5
183EE
330
747D
100
AcDbEntity
  8
部品1
 48
50.0
100
AcDbLine
 10
6456.928177602698
 20
2133.44884733232
 30
0.0
 11
6372.428177602698
 21
2133.44884733232
 31
0.0
  0
LINE
  5
183EF
330
747D
100
AcDbEntity
  8
部品1
100
AcDbLine
 10
6179.928177602699
 20
2133.44884733232
 30
0.0
 11
6179.928177602699
 21
2033.44884733232
 31
0.0
  0
LINE
  5
183F0
330
747D
100
AcDbEntity
  8
部品1
 48
50.0
100
AcDbLine
 10
5374.928177602698
 20
2133.44884733232
 30
0.0
 11
5374.928177602698
 21
2033.44884733232
 31
0.0
  0
LINE
  5
183F1
330
747D
100
AcDbEntity
  8
部品1
 48
50.0
100
AcDbLine
 10
5174.928177602698
 20
2133.44884733232
 30
0.0
 11
5174.928177602698
 21
2033.44884733232
 31
0.0
  0
LINE
  5
183F2
330
747D
100
AcDbEntity
  8
部品1
100
AcDbLine
 10
4369.928177602698
 20
2133.44884733232
 30
0.0
 11
4369.928177602698
 21
2033.44884733232
 31
0.0
  0
TEXT
  5
183F3
330
747D
100
AcDbEntity
  8
部品1
100
AcDbText
 10
2378.557822612362
 20
2069.555750938222
 30
0.0
 40
125.0
  1
▽G.L
  7
STYLE2
100
AcDbText
  0
LINE
  5
183F4
330
747D
100
AcDbEntity
  8
部品1
100
AcDbLine
 10
11504.02520693997
 20
8477.444819195158
 30
0.0
 11
11532.02520693997
 21
8477.444819195158
 31
0.0
  0
LINE
  5
183F5
330
747D
100
AcDbEntity
  8
部品1
100
AcDbLine
 10
8510.025206939941
 20
8477.444819195032
 30
0.0
 11
8482.025206939942
 21
8477.444819195032
 31
0.0
  0
LINE
  5
183F6
330
747D
100
AcDbEntity
  8
部品1
100
AcDbLine
 10
11475.52520693995
 20
8477.444819195129
 30
0.0
 11
8538.525206939953
 21
8477.444819195032
 31
0.0
  0
LINE
  5
183F7
330
747D
100
AcDbEntity
  8
細線
 48
50.0
100
AcDbLine
 10
8614.525206939962
 20
4273.44884733232
 30
0.0
 11
8614.525206939962
 21
2183.44884733232
 31
0.0
  0
LINE
  5
183F8
330
747D
100
AcDbEntity
  8
細線
 48
50.0
100
AcDbLine
 10
8599.525206939961
 20
4273.44884733232
 30
0.0
 11
8599.525206939961
 21
2183.44884733232
 31
0.0
  0
LINE
  5
183F9
330
747D
100
AcDbEntity
  8
細線
 48
50.0
100
AcDbLine
 10
8739.525206939962
 20
4273.44884733232
 30
0.0
 11
8739.525206939962
 21
2183.44884733232
 31
0.0
  0
LINE
  5
183FA
330
747D
100
AcDbEntity
  8
細線
 48
50.0
100
AcDbLine
 10
8754.525206939961
 20
4273.44884733232
 30
0.0
 11
8754.525206939961
 21
2183.44884733232
 31
0.0
  0
LINE
  5
183FB
330
747D
100
AcDbEntity
  8
細線
 48
50.0
100
AcDbLine
 10
8894.525206939961
 20
4273.44884733232
 30
0.0
 11
8894.525206939961
 21
2183.44884733232
 31
0.0
  0
LINE
  5
183FC
330
747D
100
AcDbEntity
  8
細線
 48
50.0
100
AcDbLine
 10
8879.525206939961
 20
4273.44884733232
 30
0.0
 11
8879.525206939961
 21
2183.44884733232
 31
0.0
  0
LINE
  5
183FD
330
747D
100
AcDbEntity
  8
細線
 48
50.0
100
AcDbLine
 10
11134.52520693996
 20
4273.44884733232
 30
0.0
 11
11134.52520693996
 21
2183.44884733232
 31
0.0
  0
LINE
  5
183FE
330
747D
100
AcDbEntity
  8
細線
 48
50.0
100
AcDbLine
 10
11119.52520693996
 20
4273.44884733232
 30
0.0
 11
11119.52520693996
 21
2183.44884733232
 31
0.0
  0
LINE
  5
183FF
330
747D
100
AcDbEntity
  8
細線
 48
50.0
100
AcDbLine
 10
11259.52520693996
 20
4273.44884733232
 30
0.0
 11
11259.52520693996
 21
2183.44884733232
 31
0.0
  0
LINE
  5
18400
330
747D
100
AcDbEntity
  8
細線
 48
50.0
100
AcDbLine
 10
11274.52520693996
 20
4273.44884733232
 30
0.0
 11
11274.52520693996
 21
2183.44884733232
 31
0.0
  0
LINE
  5
18401
330
747D
100
AcDbEntity
  8
細線
 48
50.0
100
AcDbLine
 10
11414.52520693996
 20
4273.44884733232
 30
0.0
 11
11414.52520693996
 21
2183.44884733232
 31
0.0
  0
LINE
  5
18402
330
747D
100
AcDbEntity
  8
細線
 48
50.0
100
AcDbLine
 10
11399.52520693996
 20
4273.44884733232
 30
0.0
 11
11399.52520693996
 21
2183.44884733232
 31
0.0
  0
LINE
  5
18403
330
747D
100
AcDbEntity
  8
部品1
100
AcDbLine
 10
11048.02520693994
 20
4503.448847340797
 30
0.0
 11
11048.02520693994
 21
4406.037779832231
 31
0.0
  0
LINE
  5
18404
330
747D
100
AcDbEntity
  8
部品1
100
AcDbLine
 10
11066.02520693994
 20
4503.448847340807
 30
0.0
 11
11066.02520693994
 21
4406.037779832231
 31
0.0
  0
LINE
  5
18405
330
747D
100
AcDbEntity
  8
部品1
 48
50.0
100
AcDbLine
 10
11045.02520693995
 20
4503.448847340807
 30
0.0
 11
11069.02520693995
 21
4503.448847340807
 31
0.0
  0
LINE
  5
18406
330
747D
100
AcDbEntity
  8
部品1
 48
50.0
100
AcDbLine
 10
11045.02520693995
 20
4503.448847340807
 30
0.0
 11
11043.81386673376
 21
4494.048847340805
 31
0.0
  0
LINE
  5
18407
330
747D
100
AcDbEntity
  8
部品1
 48
50.0
100
AcDbLine
 10
11029.81386673376
 20
4494.048847340805
 30
0.0
 11
11043.81386673376
 21
4494.048847340805
 31
0.0
  0
LINE
  5
18408
330
747D
100
AcDbEntity
  8
部品1
 48
50.0
100
AcDbLine
 10
11029.81386673376
 20
4494.048847340805
 30
0.0
 11
11028.52520693995
 21
4484.048847340805
 31
0.0
  0
LINE
  5
18409
330
747D
100
AcDbEntity
  8
部品1
 48
50.0
100
AcDbLine
 10
11069.02520693995
 20
4503.448847340807
 30
0.0
 11
11071.52520693995
 21
4484.048847340805
 31
0.0
  0
LINE
  5
1840A
330
747D
100
AcDbEntity
  8
部品1
100
AcDbLine
 10
11215.02520693995
 20
4484.048847340805
 30
0.0
 11
11071.52520693994
 21
4484.048847340805
 31
0.0
  0
LINE
  5
1840B
330
747D
100
AcDbEntity
  8
部品1
100
AcDbLine
 10
11288.02520693994
 20
4484.048847340805
 30
0.0
 11
11264.02520693995
 21
4484.048847340805
 31
0.0
  0
LINE
  5
1840C
330
747D
100
AcDbEntity
  8
部品1
 48
50.0
100
AcDbLine
 10
11253.52520693995
 20
4503.448847340811
 30
0.0
 11
11264.02520693995
 21
4484.048847340809
 31
0.0
  0
LINE
  5
1840D
330
747D
100
AcDbEntity
  8
部品1
 48
50.0
100
AcDbLine
 10
11225.52520693995
 20
4503.448847340811
 30
0.0
 11
11215.02520693995
 21
4484.048847340809
 31
0.0
  0
LINE
  5
1840E
330
747D
100
AcDbEntity
  8
部品1
 48
50.0
100
AcDbLine
 10
11225.52520693995
 20
4503.448847340811
 30
0.0
 11
11253.52520693994
 21
4503.448847340811
 31
0.0
  0
LINE
  5
1840F
330
747D
100
AcDbEntity
  8
部品1
 48
50.0
100
AcDbLine
 10
11298.52520693995
 20
4503.448847340811
 30
0.0
 11
11288.02520693995
 21
4484.048847340809
 31
0.0
  0
LINE
  5
18410
330
747D
100
AcDbEntity
  8
部品1
 48
50.0
100
AcDbLine
 10
11326.52520693995
 20
4503.448847340811
 30
0.0
 11
11337.02520693995
 21
4484.048847340809
 31
0.0
  0
LINE
  5
18411
330
747D
100
AcDbEntity
  8
部品1
 48
50.0
100
AcDbLine
 10
11298.52520693995
 20
4503.448847340811
 30
0.0
 11
11326.52520693995
 21
4503.448847340811
 31
0.0
  0
LINE
  5
18412
330
747D
100
AcDbEntity
  8
部品1
100
AcDbLine
 10
11252.02520693995
 20
4503.448847340807
 30
0.0
 11
11252.02520693995
 21
4406.037779832234
 31
0.0
  0
LINE
  5
18413
330
747D
100
AcDbEntity
  8
部品1
100
AcDbLine
 10
11227.02520693996
 20
4503.448847340807
 30
0.0
 11
11227.02520693996
 21
4406.037779832234
 31
0.0
  0
LINE
  5
18414
330
747D
100
AcDbEntity
  8
部品1
100
AcDbLine
 10
11300.02520693996
 20
4503.448847340807
 30
0.0
 11
11300.02520693996
 21
4406.037779832234
 31
0.0
  0
LINE
  5
18415
330
747D
100
AcDbEntity
  8
部品1
100
AcDbLine
 10
11325.02520693996
 20
4503.448847340807
 30
0.0
 11
11325.02520693996
 21
4406.037779832234
 31
0.0
  0
LINE
  5
18416
330
747D
100
AcDbEntity
  8
部品1
100
AcDbLine
 10
11448.52520693995
 20
4484.048847340791
 30
0.0
 11
11337.02520693996
 21
4484.048847340791
 31
0.0
  0
LINE
  5
18417
330
747D
100
AcDbEntity
  8
部品1
100
AcDbLine
 10
11532.09583493315
 20
4484.048847340788
 30
0.0
 11
11491.52520693994
 21
4484.048847340788
 31
0.0
  0
LINE
  5
18418
330
747D
100
AcDbEntity
  8
部品1
 48
50.0
100
AcDbLine
 10
11489.02520693994
 20
4503.448847340792
 30
0.0
 11
11491.52520693994
 21
4484.048847340791
 31
0.0
  0
LINE
  5
18419
330
747D
100
AcDbEntity
  8
部品1
 48
50.0
100
AcDbLine
 10
11449.81386673376
 20
4494.048847340791
 30
0.0
 11
11448.52520693995
 21
4484.048847340791
 31
0.0
  0
LINE
  5
1841A
330
747D
100
AcDbEntity
  8
部品1
 48
50.0
100
AcDbLine
 10
11449.81386673376
 20
4494.048847340791
 30
0.0
 11
11463.81386673376
 21
4494.048847340791
 31
0.0
  0
LINE
  5
1841B
330
747D
100
AcDbEntity
  8
部品1
 48
50.0
100
AcDbLine
 10
11465.02520693994
 20
4503.448847340792
 30
0.0
 11
11463.81386673376
 21
4494.048847340791
 31
0.0
  0
LINE
  5
1841C
330
747D
100
AcDbEntity
  8
細線
 48
50.0
100
AcDbLine
 10
11532.09583493315
 20
4425.42068008027
 30
0.0
 11
11580.1590762171
 21
4425.420680080277
 31
0.0
  0
LINE
  5
1841D
330
747D
100
AcDbEntity
  8
細線
 48
50.0
100
AcDbLine
 10
11549.53629684423
 20
4453.44884733232
 30
0.0
 11
11549.53629684423
 21
4326.94884733232
 31
0.0
  0
ARC
  5
1841E
330
747D
100
AcDbEntity
  8
部品1
100
AcDbCircle
 10
11575.03916312274
 20
4501.448847349219
 30
0.0
 40
7.0
100
AcDbArc
 50
356.3813705198622
 51
90.0
  0
LINE
  5
1841F
330
747D
100
AcDbEntity
  8
部品1
100
AcDbLine
 10
11537.09583493315
 20
4508.448847349218
 30
0.0
 11
11575.03916312274
 21
4508.448847349218
 31
0.0
  0
ARC
  5
18420
330
747D
100
AcDbEntity
  8
部品1
100
AcDbCircle
 10
11537.09583493315
 20
4503.448847349218
 30
0.0
 40
5.0
100
AcDbArc
 50
90.0
 51
180.0
  0
LINE
  5
18421
330
747D
100
AcDbEntity
  8
部品1
 48
50.0
100
AcDbLine
 10
11582.02520693994
 20
4446.00704218973
 30
0.0
 11
11582.02520693994
 21
4501.007042206629
 31
0.0
  0
LINE
  5
18422
330
747D
100
AcDbEntity
  8
部品1
100
AcDbLine
 10
11532.09583493315
 20
4503.448847349218
 30
0.0
 11
11532.09583493315
 21
4406.037779832217
 31
0.0
  0
ARC
  5
18423
330
747D
100
AcDbEntity
  8
部品1
100
AcDbCircle
 10
11537.09583493315
 20
4448.44884733232
 30
0.0
 40
5.0
100
AcDbArc
 50
90.0
 51
180.0
  0
LINE
  5
18424
330
747D
100
AcDbEntity
  8
部品1
100
AcDbLine
 10
11537.09583493315
 20
4453.44884733232
 30
0.0
 11
11575.03916312274
 21
4453.44884733232
 31
0.0
  0
LINE
  5
18425
330
747D
100
AcDbEntity
  8
部品1
100
AcDbLine
 10
11580.76466888138
 20
4426.074784138648
 30
0.0
 11
11582.02520693994
 21
4446.00704218973
 31
0.0
  0
LINE
  5
18426
330
747D
100
AcDbEntity
  8
部品1
100
AcDbLine
 10
11568.89859609397
 20
4333.50704218973
 30
0.0
 11
11569.57092179856
 21
4344.138192393431
 31
0.0
  0
ARC
  5
18427
330
747D
100
AcDbEntity
  8
部品1
100
AcDbCircle
 10
11575.03916312274
 20
4446.44884733232
 30
0.0
 40
7.0
100
AcDbArc
 50
356.3813705198622
 51
90.0
  0
ARC
  5
18428
330
747D
100
AcDbEntity
  8
部品1
100
AcDbCircle
 10
11561.91255227676
 20
4333.94884733232
 30
0.0
 40
7.0
100
AcDbArc
 50
270.0
 51
356.3813705198622
  0
ARC
  5
18429
330
747D
100
AcDbEntity
  8
部品1
100
AcDbCircle
 10
11572.56494057736
 20
4343.94884733232
 30
0.0
 40
3.0
100
AcDbArc
 50
90.0
 51
176.3813705198622
  0
ARC
  5
1842A
330
747D
100
AcDbEntity
  8
部品1
100
AcDbCircle
 10
11572.09564445216
 20
4347.618964652909
 30
0.0
 40
0.7
100
AcDbArc
 50
277.2868405166456
 51
356.3813705198622
  0
LINE
  5
1842B
330
747D
100
AcDbEntity
  8
部品1
100
AcDbLine
 10
11577.54134184605
 20
4422.638192393431
 30
0.0
 11
11572.79424883389
 21
4347.574784138649
 31
0.0
  0
ARC
  5
1842C
330
747D
100
AcDbEntity
  8
部品1
100
AcDbCircle
 10
11580.53536062485
 20
4422.44884733232
 30
0.0
 40
3.0
100
AcDbArc
 50
90.0
 51
176.3813705198622
  0
ARC
  5
1842D
330
747D
100
AcDbEntity
  8
部品1
100
AcDbCircle
 10
11580.06606449966
 20
4426.118964652909
 30
0.0
 40
0.7
100
AcDbArc
 50
277.2868405166456
 51
356.3813705198622
  0
LINE
  5
1842E
330
747D
100
AcDbEntity
  8
部品1
 48
50.0
100
AcDbLine
 10
11537.09583493315
 20
4453.44884733232
 30
0.0
 11
11575.03916312274
 21
4453.44884733232
 31
0.0
  0
LINE
  5
1842F
330
747D
100
AcDbEntity
  8
部品1
 48
50.0
100
AcDbLine
 10
11465.02520693994
 20
4503.448847340792
 30
0.0
 11
11489.02520693994
 21
4503.448847340792
 31
0.0
  0
LINE
  5
18430
330
747D
100
AcDbEntity
  8
部品1
100
AcDbLine
 10
11486.02520693994
 20
4503.448847340792
 30
0.0
 11
11486.02520693994
 21
4406.037779832217
 31
0.0
  0
LINE
  5
18431
330
747D
100
AcDbEntity
  8
部品1
100
AcDbLine
 10
11468.02520693994
 20
4503.448847340782
 30
0.0
 11
11468.02520693994
 21
4406.037779832217
 31
0.0
  0
DIMENSION
  5
18432
330
747D
100
AcDbEntity
  8
寸法
 48
50.0
100
AcDbDimension
  2
*D26
 10
11532.02520693995
 20
4907.542016671794
 30
0.0
 11
11895.51048831419
 21
4907.542016671794
 31
0.0
 70
   160
 71
     5
 42
50.0
  3
INABA_S40G
100
AcDbAlignedDimension
 13
11582.02520693995
 23
4508.448847332322
 33
0.0
 14
11532.02520693995
 24
4508.448847332325
 34
0.0
100
AcDbRotatedDimension
  0
LINE
  5
18433
330
747D
100
AcDbEntity
  8
部品1
100
AcDbLine
 10
11028.52520693995
 20
4484.048847340791
 30
0.0
 11
10917.02520693996
 21
4484.048847340791
 31
0.0
  0
LINE
  5
18434
330
747D
100
AcDbEntity
  8
部品1
100
AcDbLine
 10
10905.02520693996
 20
4503.448847340807
 30
0.0
 11
10905.02520693996
 21
4406.037779832234
 31
0.0
  0
LINE
  5
18435
330
747D
100
AcDbEntity
  8
部品1
100
AcDbLine
 10
10880.02520693996
 20
4503.448847340807
 30
0.0
 11
10880.02520693996
 21
4406.037779832234
 31
0.0
  0
LINE
  5
18436
330
747D
100
AcDbEntity
  8
部品1
100
AcDbLine
 10
10807.02520693996
 20
4503.448847340807
 30
0.0
 11
10807.02520693996
 21
4406.037779832234
 31
0.0
  0
LINE
  5
18437
330
747D
100
AcDbEntity
  8
部品1
100
AcDbLine
 10
10832.02520693996
 20
4503.448847340807
 30
0.0
 11
10832.02520693996
 21
4406.037779832234
 31
0.0
  0
LINE
  5
18438
330
747D
100
AcDbEntity
  8
部品1
 48
50.0
100
AcDbLine
 10
10878.52520693995
 20
4503.448847340811
 30
0.0
 11
10906.52520693995
 21
4503.448847340811
 31
0.0
  0
LINE
  5
18439
330
747D
100
AcDbEntity
  8
部品1
 48
50.0
100
AcDbLine
 10
10906.52520693995
 20
4503.448847340811
 30
0.0
 11
10917.02520693995
 21
4484.048847340809
 31
0.0
  0
LINE
  5
1843A
330
747D
100
AcDbEntity
  8
部品1
 48
50.0
100
AcDbLine
 10
10878.52520693995
 20
4503.448847340811
 30
0.0
 11
10868.02520693995
 21
4484.048847340809
 31
0.0
  0
LINE
  5
1843B
330
747D
100
AcDbEntity
  8
部品1
 48
50.0
100
AcDbLine
 10
10805.52520693995
 20
4503.448847340811
 30
0.0
 11
10833.52520693995
 21
4503.448847340811
 31
0.0
  0
LINE
  5
1843C
330
747D
100
AcDbEntity
  8
部品1
 48
50.0
100
AcDbLine
 10
10805.52520693995
 20
4503.448847340811
 30
0.0
 11
10795.02520693995
 21
4484.048847340809
 31
0.0
  0
LINE
  5
1843D
330
747D
100
AcDbEntity
  8
部品1
 48
50.0
100
AcDbLine
 10
10833.52520693995
 20
4503.448847340811
 30
0.0
 11
10844.02520693995
 21
4484.048847340809
 31
0.0
  0
LINE
  5
1843E
330
747D
100
AcDbEntity
  8
部品1
100
AcDbLine
 10
10868.02520693995
 20
4484.048847340805
 30
0.0
 11
10844.02520693995
 21
4484.048847340805
 31
0.0
  0
LINE
  5
1843F
330
747D
100
AcDbEntity
  8
部品1
100
AcDbLine
 10
10795.02520693995
 20
4484.048847340805
 30
0.0
 11
10651.52520693995
 21
4484.048847340805
 31
0.0
  0
LINE
  5
18440
330
747D
100
AcDbEntity
  8
部品1
 48
50.0
100
AcDbLine
 10
10649.02520693995
 20
4503.448847340807
 30
0.0
 11
10651.52520693995
 21
4484.048847340805
 31
0.0
  0
LINE
  5
18441
330
747D
100
AcDbEntity
  8
部品1
 48
50.0
100
AcDbLine
 10
10609.81386673376
 20
4494.048847340805
 30
0.0
 11
10608.52520693995
 21
4484.048847340805
 31
0.0
  0
LINE
  5
18442
330
747D
100
AcDbEntity
  8
部品1
 48
50.0
100
AcDbLine
 10
10609.81386673376
 20
4494.048847340805
 30
0.0
 11
10623.81386673376
 21
4494.048847340805
 31
0.0
  0
LINE
  5
18443
330
747D
100
AcDbEntity
  8
部品1
 48
50.0
100
AcDbLine
 10
10625.02520693995
 20
4503.448847340807
 30
0.0
 11
10623.81386673376
 21
4494.048847340805
 31
0.0
  0
LINE
  5
18444
330
747D
100
AcDbEntity
  8
部品1
 48
50.0
100
AcDbLine
 10
10625.02520693995
 20
4503.448847340807
 30
0.0
 11
10649.02520693995
 21
4503.448847340807
 31
0.0
  0
LINE
  5
18445
330
747D
100
AcDbEntity
  8
部品1
100
AcDbLine
 10
10646.02520693994
 20
4503.448847340807
 30
0.0
 11
10646.02520693994
 21
4406.037779832231
 31
0.0
  0
LINE
  5
18446
330
747D
100
AcDbEntity
  8
部品1
100
AcDbLine
 10
10628.02520693994
 20
4503.448847340797
 30
0.0
 11
10628.02520693994
 21
4406.037779832231
 31
0.0
  0
LINE
  5
18447
330
747D
100
AcDbEntity
  8
部品1
100
AcDbLine
 10
10208.02520693996
 20
4503.448847340785
 30
0.0
 11
10208.02520693996
 21
4406.03777983222
 31
0.0
  0
LINE
  5
18448
330
747D
100
AcDbEntity
  8
部品1
100
AcDbLine
 10
10226.02520693996
 20
4503.448847340797
 30
0.0
 11
10226.02520693996
 21
4406.03777983222
 31
0.0
  0
LINE
  5
18449
330
747D
100
AcDbEntity
  8
部品1
 48
50.0
100
AcDbLine
 10
10205.02520693997
 20
4503.448847340797
 30
0.0
 11
10229.02520693997
 21
4503.448847340797
 31
0.0
  0
LINE
  5
1844A
330
747D
100
AcDbEntity
  8
部品1
 48
50.0
100
AcDbLine
 10
10205.02520693997
 20
4503.448847340797
 30
0.0
 11
10203.81386673378
 21
4494.048847340795
 31
0.0
  0
LINE
  5
1844B
330
747D
100
AcDbEntity
  8
部品1
 48
50.0
100
AcDbLine
 10
10189.81386673378
 20
4494.048847340795
 30
0.0
 11
10203.81386673378
 21
4494.048847340795
 31
0.0
  0
LINE
  5
1844C
330
747D
100
AcDbEntity
  8
部品1
 48
50.0
100
AcDbLine
 10
10189.81386673378
 20
4494.048847340795
 30
0.0
 11
10188.52520693997
 21
4484.048847340795
 31
0.0
  0
LINE
  5
1844D
330
747D
100
AcDbEntity
  8
部品1
 48
50.0
100
AcDbLine
 10
10229.02520693997
 20
4503.448847340797
 30
0.0
 11
10231.52520693997
 21
4484.048847340795
 31
0.0
  0
LINE
  5
1844E
330
747D
100
AcDbEntity
  8
部品1
100
AcDbLine
 10
10375.02520693996
 20
4484.048847340795
 30
0.0
 11
10231.52520693996
 21
4484.048847340795
 31
0.0
  0
LINE
  5
1844F
330
747D
100
AcDbEntity
  8
部品1
100
AcDbLine
 10
10448.02520693997
 20
4484.048847340795
 30
0.0
 11
10424.02520693997
 21
4484.048847340795
 31
0.0
  0
LINE
  5
18450
330
747D
100
AcDbEntity
  8
部品1
 48
50.0
100
AcDbLine
 10
10413.52520693997
 20
4503.4488473408
 30
0.0
 11
10424.02520693997
 21
4484.048847340798
 31
0.0
  0
LINE
  5
18451
330
747D
100
AcDbEntity
  8
部品1
 48
50.0
100
AcDbLine
 10
10385.52520693997
 20
4503.4488473408
 30
0.0
 11
10375.02520693997
 21
4484.048847340798
 31
0.0
  0
LINE
  5
18452
330
747D
100
AcDbEntity
  8
部品1
 48
50.0
100
AcDbLine
 10
10385.52520693997
 20
4503.4488473408
 30
0.0
 11
10413.52520693996
 21
4503.4488473408
 31
0.0
  0
LINE
  5
18453
330
747D
100
AcDbEntity
  8
部品1
 48
50.0
100
AcDbLine
 10
10458.52520693997
 20
4503.4488473408
 30
0.0
 11
10448.02520693997
 21
4484.048847340798
 31
0.0
  0
LINE
  5
18454
330
747D
100
AcDbEntity
  8
部品1
 48
50.0
100
AcDbLine
 10
10486.52520693997
 20
4503.4488473408
 30
0.0
 11
10497.02520693997
 21
4484.048847340798
 31
0.0
  0
LINE
  5
18455
330
747D
100
AcDbEntity
  8
部品1
 48
50.0
100
AcDbLine
 10
10458.52520693997
 20
4503.4488473408
 30
0.0
 11
10486.52520693996
 21
4503.4488473408
 31
0.0
  0
LINE
  5
18456
330
747D
100
AcDbEntity
  8
部品1
100
AcDbLine
 10
10412.02520693998
 20
4503.448847340797
 30
0.0
 11
10412.02520693998
 21
4406.037779832224
 31
0.0
  0
LINE
  5
18457
330
747D
100
AcDbEntity
  8
部品1
100
AcDbLine
 10
10387.02520693997
 20
4503.448847340797
 30
0.0
 11
10387.02520693997
 21
4406.037779832224
 31
0.0
  0
LINE
  5
18458
330
747D
100
AcDbEntity
  8
部品1
100
AcDbLine
 10
10460.02520693998
 20
4503.448847340797
 30
0.0
 11
10460.02520693998
 21
4406.037779832224
 31
0.0
  0
LINE
  5
18459
330
747D
100
AcDbEntity
  8
部品1
100
AcDbLine
 10
10485.02520693997
 20
4503.448847340797
 30
0.0
 11
10485.02520693998
 21
4406.037779832224
 31
0.0
  0
LINE
  5
1845A
330
747D
100
AcDbEntity
  8
部品1
100
AcDbLine
 10
10608.52520693996
 20
4484.04884734078
 30
0.0
 11
10497.02520693998
 21
4484.04884734078
 31
0.0
  0
LINE
  5
1845B
330
747D
100
AcDbEntity
  8
部品1
100
AcDbLine
 10
10065.02520693997
 20
4503.448847340792
 30
0.0
 11
10065.02520693997
 21
4406.03777983222
 31
0.0
  0
LINE
  5
1845C
330
747D
100
AcDbEntity
  8
部品1
100
AcDbLine
 10
10040.02520693997
 20
4503.448847340792
 30
0.0
 11
10040.02520693997
 21
4406.03777983222
 31
0.0
  0
LINE
  5
1845D
330
747D
100
AcDbEntity
  8
部品1
100
AcDbLine
 10
9967.025206939977
 20
4503.448847340792
 30
0.0
 11
9967.025206939977
 21
4406.03777983222
 31
0.0
  0
LINE
  5
1845E
330
747D
100
AcDbEntity
  8
部品1
100
AcDbLine
 10
9992.025206939977
 20
4503.448847340792
 30
0.0
 11
9992.025206939977
 21
4406.03777983222
 31
0.0
  0
LINE
  5
1845F
330
747D
100
AcDbEntity
  8
部品1
100
AcDbLine
 10
9955.025206939964
 20
4484.048847340791
 30
0.0
 11
9811.525206939965
 21
4484.048847340791
 31
0.0
  0
LINE
  5
18460
330
747D
100
AcDbEntity
  8
部品1
100
AcDbLine
 10
10188.52520693996
 20
4484.048847340776
 30
0.0
 11
10077.02520693997
 21
4484.048847340776
 31
0.0
  0
LINE
  5
18461
330
747D
100
AcDbEntity
  8
部品1
 48
50.0
100
AcDbLine
 10
10038.52520693997
 20
4503.448847340797
 30
0.0
 11
10066.52520693996
 21
4503.448847340797
 31
0.0
  0
LINE
  5
18462
330
747D
100
AcDbEntity
  8
部品1
 48
50.0
100
AcDbLine
 10
10066.52520693997
 20
4503.448847340797
 30
0.0
 11
10077.02520693997
 21
4484.048847340795
 31
0.0
  0
LINE
  5
18463
330
747D
100
AcDbEntity
  8
部品1
 48
50.0
100
AcDbLine
 10
10038.52520693997
 20
4503.448847340797
 30
0.0
 11
10028.02520693997
 21
4484.048847340795
 31
0.0
  0
LINE
  5
18464
330
747D
100
AcDbEntity
  8
部品1
 48
50.0
100
AcDbLine
 10
9965.52520693997
 20
4503.448847340797
 30
0.0
 11
9993.525206939965
 21
4503.448847340797
 31
0.0
  0
LINE
  5
18465
330
747D
100
AcDbEntity
  8
部品1
 48
50.0
100
AcDbLine
 10
9965.52520693997
 20
4503.448847340797
 30
0.0
 11
9955.02520693997
 21
4484.048847340795
 31
0.0
  0
LINE
  5
18466
330
747D
100
AcDbEntity
  8
部品1
 48
50.0
100
AcDbLine
 10
9993.525206939969
 20
4503.448847340797
 30
0.0
 11
10004.02520693997
 21
4484.048847340795
 31
0.0
  0
LINE
  5
18467
330
747D
100
AcDbEntity
  8
部品1
100
AcDbLine
 10
10028.02520693996
 20
4484.048847340791
 30
0.0
 11
10004.02520693997
 21
4484.048847340791
 31
0.0
  0
LINE
  5
18468
330
747D
100
AcDbEntity
  8
部品1
 48
50.0
100
AcDbLine
 10
8464.514117035685
 20
4406.037779832217
 30
0.0
 11
11549.53629684423
 21
4406.037779832217
 31
0.0
  0
LINE
  5
18469
330
747D
100
AcDbEntity
  8
部品1
 48
50.0
100
AcDbLine
 10
9809.025206939969
 20
4503.448847340792
 30
0.0
 11
9811.525206939968
 21
4484.048847340791
 31
0.0
  0
LINE
  5
1846A
330
747D
100
AcDbEntity
  8
部品1
 48
50.0
100
AcDbLine
 10
9769.813866733784
 20
4494.048847340791
 30
0.0
 11
9768.525206939969
 21
4484.048847340791
 31
0.0
  0
LINE
  5
1846B
330
747D
100
AcDbEntity
  8
部品1
 48
50.0
100
AcDbLine
 10
9769.813866733784
 20
4494.048847340791
 30
0.0
 11
9783.813866733783
 21
4494.048847340791
 31
0.0
  0
LINE
  5
1846C
330
747D
100
AcDbEntity
  8
部品1
 48
50.0
100
AcDbLine
 10
9785.02520693997
 20
4503.448847340792
 30
0.0
 11
9783.813866733783
 21
4494.048847340791
 31
0.0
  0
LINE
  5
1846D
330
747D
100
AcDbEntity
  8
部品1
 48
50.0
100
AcDbLine
 10
9785.02520693997
 20
4503.448847340792
 30
0.0
 11
9809.025206939969
 21
4503.448847340792
 31
0.0
  0
LINE
  5
1846E
330
747D
100
AcDbEntity
  8
部品1
100
AcDbLine
 10
9806.025206939962
 20
4503.448847340792
 30
0.0
 11
9806.025206939962
 21
4406.037779832217
 31
0.0
  0
LINE
  5
1846F
330
747D
100
AcDbEntity
  8
部品1
100
AcDbLine
 10
9788.025206939963
 20
4503.448847340782
 30
0.0
 11
9788.025206939963
 21
4406.037779832217
 31
0.0
  0
LINE
  5
18470
330
747D
100
AcDbEntity
  8
細線
 48
50.0
100
AcDbLine
 10
8481.95457894676
 20
4425.42068008027
 30
0.0
 11
8433.891337662814
 21
4425.420680080277
 31
0.0
  0
LINE
  5
18471
330
747D
100
AcDbEntity
  8
細線
 48
50.0
100
AcDbLine
 10
8464.514117035683
 20
4453.44884733232
 30
0.0
 11
8464.514117035683
 21
4326.94884733232
 31
0.0
  0
LINE
  5
18472
330
747D
100
AcDbEntity
  8
細線
 48
50.0
100
AcDbLine
 10
11572.80356461302
 20
4347.722089896101
 30
0.0
 11
8441.908798572486
 21
4347.722089896105
 31
0.0
  0
ARC
  5
18473
330
747D
100
AcDbEntity
  8
部品1
100
AcDbCircle
 10
8439.011250757177
 20
4501.448847349219
 30
0.0
 40
7.0
100
AcDbArc
 50
90.0
 51
183.6186294801377
  0
LINE
  5
18474
330
747D
100
AcDbEntity
  8
部品1
100
AcDbLine
 10
8476.954578946761
 20
4508.448847349218
 30
0.0
 11
8439.011250757177
 21
4508.448847349218
 31
0.0
  0
ARC
  5
18475
330
747D
100
AcDbEntity
  8
部品1
100
AcDbCircle
 10
8476.954578946761
 20
4503.448847349218
 30
0.0
 40
5.0
100
AcDbArc
 50
0.0
 51
90.0
  0
LINE
  5
18476
330
747D
100
AcDbEntity
  8
部品1
 48
50.0
100
AcDbLine
 10
8432.025206939966
 20
4446.00704218973
 30
0.0
 11
8432.025206939966
 21
4501.007042206629
 31
0.0
  0
LINE
  5
18477
330
747D
100
AcDbEntity
  8
部品1
100
AcDbLine
 10
11561.91255227676
 20
4326.94884733232
 30
0.0
 11
8452.137861603148
 21
4326.94884733232
 31
0.0
  0
LINE
  5
18478
330
747D
100
AcDbEntity
  8
部品1
100
AcDbLine
 10
8481.95457894676
 20
4503.448847349218
 30
0.0
 11
8481.95457894676
 21
4406.044818659649
 31
0.0
  0
ARC
  5
18479
330
747D
100
AcDbEntity
  8
部品1
100
AcDbCircle
 10
8476.954578946761
 20
4448.44884733232
 30
0.0
 40
5.0
100
AcDbArc
 50
0.0
 51
90.0
  0
LINE
  5
1847A
330
747D
100
AcDbEntity
  8
部品1
100
AcDbLine
 10
8476.954578946761
 20
4453.44884733232
 30
0.0
 11
8439.011250757177
 21
4453.44884733232
 31
0.0
  0
LINE
  5
1847B
330
747D
100
AcDbEntity
  8
部品1
100
AcDbLine
 10
8433.285744998533
 20
4426.074784138648
 30
0.0
 11
8432.025206939966
 21
4446.00704218973
 31
0.0
  0
LINE
  5
1847C
330
747D
100
AcDbEntity
  8
部品1
100
AcDbLine
 10
8445.151817785939
 20
4333.50704218973
 30
0.0
 11
8444.479492081356
 21
4344.138192393431
 31
0.0
  0
ARC
  5
1847D
330
747D
100
AcDbEntity
  8
部品1
100
AcDbCircle
 10
8439.011250757177
 20
4446.44884733232
 30
0.0
 40
7.0
100
AcDbArc
 50
90.0
 51
183.6186294801377
  0
ARC
  5
1847E
330
747D
100
AcDbEntity
  8
部品1
100
AcDbCircle
 10
8452.137861603148
 20
4333.94884733232
 30
0.0
 40
7.0
100
AcDbArc
 50
183.6186294801377
 51
270.0
  0
ARC
  5
1847F
330
747D
100
AcDbEntity
  8
部品1
100
AcDbCircle
 10
8441.485473302552
 20
4343.94884733232
 30
0.0
 40
3.0
100
AcDbArc
 50
3.618629480137788
 51
90.0
  0
ARC
  5
18480
330
747D
100
AcDbEntity
  8
部品1
100
AcDbCircle
 10
8441.954769427747
 20
4347.618964652909
 30
0.0
 40
0.7
100
AcDbArc
 50
183.6186294801377
 51
262.7131594833544
  0
LINE
  5
18481
330
747D
100
AcDbEntity
  8
部品1
100
AcDbLine
 10
8436.509072033866
 20
4422.638192393431
 30
0.0
 11
8441.256165046025
 21
4347.574784138649
 31
0.0
  0
ARC
  5
18482
330
747D
100
AcDbEntity
  8
部品1
100
AcDbCircle
 10
8433.51505325506
 20
4422.44884733232
 30
0.0
 40
3.0
100
AcDbArc
 50
3.618629480137788
 51
90.0
  0
ARC
  5
18483
330
747D
100
AcDbEntity
  8
部品1
100
AcDbCircle
 10
8433.984349380255
 20
4426.118964652909
 30
0.0
 40
0.7
100
AcDbArc
 50
183.6186294801377
 51
262.7131594833544
  0
LINE
  5
18484
330
747D
100
AcDbEntity
  8
部品1
 48
50.0
100
AcDbLine
 10
8476.954578946761
 20
4453.44884733232
 30
0.0
 11
8439.011250757177
 21
4453.44884733232
 31
0.0
  0
LINE
  5
18485
330
747D
100
AcDbEntity
  8
部品1
100
AcDbLine
 10
9768.525206939964
 20
4484.048847340773
 30
0.0
 11
9657.025206939975
 21
4484.048847340773
 31
0.0
  0
LINE
  5
18486
330
747D
100
AcDbEntity
  8
部品1
100
AcDbLine
 10
11537.09554418069
 20
4508.448847340764
 30
0.0
 11
8456.457367320874
 21
4508.448847340793
 31
0.0
  0
LINE
  5
18487
330
747D
100
AcDbEntity
  8
部品1
 48
50.0
100
AcDbLine
 10
8929.813866733779
 20
4494.048847340791
 30
0.0
 11
8943.81386673378
 21
4494.048847340791
 31
0.0
  0
LINE
  5
18488
330
747D
100
AcDbEntity
  8
部品1
100
AcDbLine
 10
8695.025206939966
 20
4484.048847340788
 30
0.0
 11
8551.525206939967
 21
4484.048847340791
 31
0.0
  0
LINE
  5
18489
330
747D
100
AcDbEntity
  8
部品1
 48
50.0
100
AcDbLine
 10
8549.025206939967
 20
4503.448847340792
 30
0.0
 11
8525.025206939966
 21
4503.448847340792
 31
0.0
  0
LINE
  5
1848A
330
747D
100
AcDbEntity
  8
部品1
 48
50.0
100
AcDbLine
 10
8525.025206939966
 20
4503.448847340792
 30
0.0
 11
8523.81386673378
 21
4494.048847340791
 31
0.0
  0
LINE
  5
1848B
330
747D
100
AcDbEntity
  8
部品1
 48
50.0
100
AcDbLine
 10
8509.813866733779
 20
4494.048847340791
 30
0.0
 11
8508.525206939967
 21
4484.048847340791
 31
0.0
  0
LINE
  5
1848C
330
747D
100
AcDbEntity
  8
部品1
 48
50.0
100
AcDbLine
 10
8509.813866733779
 20
4494.048847340791
 30
0.0
 11
8523.81386673378
 21
4494.048847340791
 31
0.0
  0
LINE
  5
1848D
330
747D
100
AcDbEntity
  8
部品1
100
AcDbLine
 10
8508.525206939967
 20
4484.048847340791
 30
0.0
 11
8482.025206939967
 21
4484.048847340791
 31
0.0
  0
LINE
  5
1848E
330
747D
100
AcDbEntity
  8
部品1
 48
50.0
100
AcDbLine
 10
8549.025206939967
 20
4503.448847340792
 30
0.0
 11
8551.525206939967
 21
4484.048847340791
 31
0.0
  0
LINE
  5
1848F
330
747D
100
AcDbEntity
  8
部品1
100
AcDbLine
 10
8528.025206939974
 20
4503.448847340792
 30
0.0
 11
8528.025206939977
 21
4406.037779832217
 31
0.0
  0
LINE
  5
18490
330
747D
100
AcDbEntity
  8
部品1
100
AcDbLine
 10
8546.025206939974
 20
4503.448847340782
 30
0.0
 11
8546.025206939974
 21
4406.037779832217
 31
0.0
  0
LINE
  5
18491
330
747D
100
AcDbEntity
  8
部品1
 48
50.0
100
AcDbLine
 10
8778.525206939967
 20
4503.448847340792
 30
0.0
 11
8768.025206939967
 21
4484.048847340791
 31
0.0
  0
LINE
  5
18492
330
747D
100
AcDbEntity
  8
部品1
 48
50.0
100
AcDbLine
 10
8705.525206939967
 20
4503.448847340792
 30
0.0
 11
8733.525206939964
 21
4503.448847340792
 31
0.0
  0
LINE
  5
18493
330
747D
100
AcDbEntity
  8
部品1
 48
50.0
100
AcDbLine
 10
8705.525206939967
 20
4503.448847340792
 30
0.0
 11
8695.025206939966
 21
4484.048847340791
 31
0.0
  0
LINE
  5
18494
330
747D
100
AcDbEntity
  8
部品1
100
AcDbLine
 10
8707.025206939974
 20
4503.448847340789
 30
0.0
 11
8707.025206939972
 21
4406.037779832217
 31
0.0
  0
LINE
  5
18495
330
747D
100
AcDbEntity
  8
部品1
 48
50.0
100
AcDbLine
 10
8733.525206939967
 20
4503.448847340792
 30
0.0
 11
8744.025206939966
 21
4484.048847340791
 31
0.0
  0
LINE
  5
18496
330
747D
100
AcDbEntity
  8
部品1
100
AcDbLine
 10
8732.025206939974
 20
4503.448847340789
 30
0.0
 11
8732.025206939976
 21
4406.037779832217
 31
0.0
  0
LINE
  5
18497
330
747D
100
AcDbEntity
  8
部品1
100
AcDbLine
 10
8768.025206939963
 20
4484.048847340788
 30
0.0
 11
8744.025206939966
 21
4484.048847340791
 31
0.0
  0
LINE
  5
18498
330
747D
100
AcDbEntity
  8
部品1
 48
50.0
100
AcDbLine
 10
8929.813866733779
 20
4494.048847340791
 30
0.0
 11
8928.525206939967
 21
4484.048847340791
 31
0.0
  0
LINE
  5
18499
330
747D
100
AcDbEntity
  8
部品1
 48
50.0
100
AcDbLine
 10
8778.525206939967
 20
4503.448847340792
 30
0.0
 11
8806.525206939964
 21
4503.448847340792
 31
0.0
  0
LINE
  5
1849A
330
747D
100
AcDbEntity
  8
部品1
 48
50.0
100
AcDbLine
 10
8806.525206939966
 20
4503.448847340792
 30
0.0
 11
8817.025206939966
 21
4484.048847340791
 31
0.0
  0
LINE
  5
1849B
330
747D
100
AcDbEntity
  8
部品1
100
AcDbLine
 10
8805.025206939975
 20
4503.448847340789
 30
0.0
 11
8805.025206939975
 21
4406.037779832217
 31
0.0
  0
LINE
  5
1849C
330
747D
100
AcDbEntity
  8
部品1
100
AcDbLine
 10
8780.025206939974
 20
4503.448847340789
 30
0.0
 11
8780.025206939974
 21
4406.037779832217
 31
0.0
  0
LINE
  5
1849D
330
747D
100
AcDbEntity
  8
部品1
100
AcDbLine
 10
8928.525206939967
 20
4484.048847340788
 30
0.0
 11
8817.025206939966
 21
4484.048847340788
 31
0.0
  0
LINE
  5
1849E
330
747D
100
AcDbEntity
  8
部品1
100
AcDbLine
 10
9608.025206939963
 20
4484.048847340788
 30
0.0
 11
9584.025206939967
 21
4484.048847340788
 31
0.0
  0
LINE
  5
1849F
330
747D
100
AcDbEntity
  8
部品1
100
AcDbLine
 10
9348.525206939966
 20
4484.048847340788
 30
0.0
 11
9237.025206939966
 21
4484.048847340788
 31
0.0
  0
LINE
  5
184A0
330
747D
100
AcDbEntity
  8
部品1
100
AcDbLine
 10
9115.025206939963
 20
4484.048847340788
 30
0.0
 11
8971.525206939963
 21
4484.048847340788
 31
0.0
  0
LINE
  5
184A1
330
747D
100
AcDbEntity
  8
部品1
 48
50.0
100
AcDbLine
 10
8969.025206939965
 20
4503.448847340792
 30
0.0
 11
8971.525206939967
 21
4484.048847340791
 31
0.0
  0
LINE
  5
184A2
330
747D
100
AcDbEntity
  8
部品1
 48
50.0
100
AcDbLine
 10
8945.025206939966
 20
4503.448847340792
 30
0.0
 11
8943.81386673378
 21
4494.048847340791
 31
0.0
  0
LINE
  5
184A3
330
747D
100
AcDbEntity
  8
部品1
 48
50.0
100
AcDbLine
 10
8969.025206939965
 20
4503.448847340792
 30
0.0
 11
8945.025206939966
 21
4503.448847340792
 31
0.0
  0
LINE
  5
184A4
330
747D
100
AcDbEntity
  8
部品1
100
AcDbLine
 10
8948.025206939973
 20
4503.448847340782
 30
0.0
 11
8948.025206939975
 21
4406.037779832217
 31
0.0
  0
LINE
  5
184A5
330
747D
100
AcDbEntity
  8
部品1
100
AcDbLine
 10
8966.025206939974
 20
4503.448847340782
 30
0.0
 11
8966.025206939976
 21
4406.037779832217
 31
0.0
  0
LINE
  5
184A6
330
747D
100
AcDbEntity
  8
部品1
 48
50.0
100
AcDbLine
 10
9198.525206939967
 20
4503.448847340792
 30
0.0
 11
9226.525206939964
 21
4503.448847340792
 31
0.0
  0
LINE
  5
184A7
330
747D
100
AcDbEntity
  8
部品1
 48
50.0
100
AcDbLine
 10
9125.525206939967
 20
4503.448847340792
 30
0.0
 11
9153.525206939963
 21
4503.448847340792
 31
0.0
  0
LINE
  5
184A8
330
747D
100
AcDbEntity
  8
部品1
 48
50.0
100
AcDbLine
 10
9198.525206939967
 20
4503.448847340792
 30
0.0
 11
9188.025206939967
 21
4484.048847340791
 31
0.0
  0
LINE
  5
184A9
330
747D
100
AcDbEntity
  8
部品1
 48
50.0
100
AcDbLine
 10
9153.525206939967
 20
4503.448847340792
 30
0.0
 11
9164.025206939966
 21
4484.048847340791
 31
0.0
  0
LINE
  5
184AA
330
747D
100
AcDbEntity
  8
部品1
100
AcDbLine
 10
9188.025206939963
 20
4484.048847340788
 30
0.0
 11
9164.025206939966
 21
4484.048847340788
 31
0.0
  0
LINE
  5
184AB
330
747D
100
AcDbEntity
  8
部品1
 48
50.0
100
AcDbLine
 10
9125.525206939967
 20
4503.448847340792
 30
0.0
 11
9115.025206939966
 21
4484.048847340791
 31
0.0
  0
LINE
  5
184AC
330
747D
100
AcDbEntity
  8
部品1
100
AcDbLine
 10
9200.025206939974
 20
4503.448847340789
 30
0.0
 11
9200.025206939974
 21
4406.037779832217
 31
0.0
  0
LINE
  5
184AD
330
747D
100
AcDbEntity
  8
部品1
100
AcDbLine
 10
9152.025206939974
 20
4503.448847340789
 30
0.0
 11
9152.025206939974
 21
4406.037779832217
 31
0.0
  0
LINE
  5
184AE
330
747D
100
AcDbEntity
  8
部品1
100
AcDbLine
 10
9127.025206939974
 20
4503.448847340789
 30
0.0
 11
9127.025206939974
 21
4406.037779832217
 31
0.0
  0
LINE
  5
184AF
330
747D
100
AcDbEntity
  8
部品1
 48
50.0
100
AcDbLine
 10
9226.525206939966
 20
4503.448847340792
 30
0.0
 11
9237.025206939966
 21
4484.048847340791
 31
0.0
  0
LINE
  5
184B0
330
747D
100
AcDbEntity
  8
部品1
100
AcDbLine
 10
9225.025206939973
 20
4503.448847340789
 30
0.0
 11
9225.025206939976
 21
4406.037779832217
 31
0.0
  0
LINE
  5
184B1
330
747D
100
AcDbEntity
  8
部品1
100
AcDbLine
 10
9535.025206939963
 20
4484.048847340788
 30
0.0
 11
9391.525206939963
 21
4484.048847340788
 31
0.0
  0
LINE
  5
184B2
330
747D
100
AcDbEntity
  8
部品1
 48
50.0
100
AcDbLine
 10
9389.025206939967
 20
4503.448847340792
 30
0.0
 11
9365.025206939966
 21
4503.448847340792
 31
0.0
  0
LINE
  5
184B3
330
747D
100
AcDbEntity
  8
部品1
 48
50.0
100
AcDbLine
 10
9365.025206939966
 20
4503.448847340792
 30
0.0
 11
9363.813866733778
 21
4494.048847340791
 31
0.0
  0
LINE
  5
184B4
330
747D
100
AcDbEntity
  8
部品1
 48
50.0
100
AcDbLine
 10
9349.813866733779
 20
4494.048847340791
 30
0.0
 11
9363.813866733778
 21
4494.048847340791
 31
0.0
  0
LINE
  5
184B5
330
747D
100
AcDbEntity
  8
部品1
 48
50.0
100
AcDbLine
 10
9349.813866733779
 20
4494.048847340791
 30
0.0
 11
9348.525206939966
 21
4484.048847340791
 31
0.0
  0
LINE
  5
184B6
330
747D
100
AcDbEntity
  8
部品1
100
AcDbLine
 10
9368.025206939973
 20
4503.448847340782
 30
0.0
 11
9368.025206939975
 21
4406.037779832217
 31
0.0
  0
LINE
  5
184B7
330
747D
100
AcDbEntity
  8
部品1
 48
50.0
100
AcDbLine
 10
9389.025206939967
 20
4503.448847340792
 30
0.0
 11
9391.525206939967
 21
4484.048847340791
 31
0.0
  0
LINE
  5
184B8
330
747D
100
AcDbEntity
  8
部品1
100
AcDbLine
 10
9386.025206939974
 20
4503.448847340782
 30
0.0
 11
9386.025206939976
 21
4406.037779832217
 31
0.0
  0
LINE
  5
184B9
330
747D
100
AcDbEntity
  8
部品1
 48
50.0
100
AcDbLine
 10
9573.525206939967
 20
4503.448847340792
 30
0.0
 11
9584.025206939967
 21
4484.048847340791
 31
0.0
  0
LINE
  5
184BA
330
747D
100
AcDbEntity
  8
部品1
100
AcDbLine
 10
9572.025206939974
 20
4503.448847340789
 30
0.0
 11
9572.025206939974
 21
4406.037779832217
 31
0.0
  0
LINE
  5
184BB
330
747D
100
AcDbEntity
  8
部品1
 48
50.0
100
AcDbLine
 10
9545.525206939966
 20
4503.448847340792
 30
0.0
 11
9535.025206939968
 21
4484.048847340791
 31
0.0
  0
LINE
  5
184BC
330
747D
100
AcDbEntity
  8
部品1
100
AcDbLine
 10
9547.025206939974
 20
4503.448847340789
 30
0.0
 11
9547.025206939974
 21
4406.037779832217
 31
0.0
  0
LINE
  5
184BD
330
747D
100
AcDbEntity
  8
部品1
 48
50.0
100
AcDbLine
 10
9545.525206939966
 20
4503.448847340792
 30
0.0
 11
9573.525206939963
 21
4503.448847340792
 31
0.0
  0
LINE
  5
184BE
330
747D
100
AcDbEntity
  8
部品1
 48
50.0
100
AcDbLine
 10
9618.525206939967
 20
4503.448847340792
 30
0.0
 11
9608.025206939966
 21
4484.048847340791
 31
0.0
  0
LINE
  5
184BF
330
747D
100
AcDbEntity
  8
部品1
 48
50.0
100
AcDbLine
 10
9646.525206939967
 20
4503.448847340792
 30
0.0
 11
9657.025206939968
 21
4484.048847340791
 31
0.0
  0
LINE
  5
184C0
330
747D
100
AcDbEntity
  8
部品1
 48
50.0
100
AcDbLine
 10
9618.525206939967
 20
4503.448847340792
 30
0.0
 11
9646.525206939964
 21
4503.448847340792
 31
0.0
  0
LINE
  5
184C1
330
747D
100
AcDbEntity
  8
部品1
100
AcDbLine
 10
9620.025206939974
 20
4503.448847340789
 30
0.0
 11
9620.025206939978
 21
4406.037779832217
 31
0.0
  0
LINE
  5
184C2
330
747D
100
AcDbEntity
  8
部品1
100
AcDbLine
 10
9645.025206939974
 20
4503.448847340789
 30
0.0
 11
9645.025206939976
 21
4406.037779832217
 31
0.0
  0
DIMENSION
  5
184C3
330
747D
100
AcDbEntity
  8
寸法
 48
50.0
100
AcDbDimension
  2
*D27
 10
8432.025206939959
 20
4907.542016671794
 30
0.0
 11
8118.539925565711
 21
4907.542016671794
 31
0.0
 70
   160
 71
     5
 42
50.0
  3
INABA_S40G
100
AcDbAlignedDimension
 13
8482.02520693996
 23
4508.448847332326
 33
0.0
 14
8432.025206939959
 24
4508.448847332325
 34
0.0
100
AcDbRotatedDimension
1001
ACAD
1000
DSTYLE
1002
{
1002
}
  0
DIMENSION
  5
184C4
330
747D
100
AcDbEntity
  8
寸法
 48
50.0
100
AcDbDimension
  2
*D28
 10
11582.02520693995
 20
5124.068116290239
 30
0.0
 11
10007.02520693996
 21
5124.068116290239
 31
0.0
 70
   160
 71
     5
 42
3149.999999999997
  3
INABA_S40G
100
AcDbAlignedDimension
 13
8432.025206939959
 23
4508.448847332325
 33
0.0
 14
11582.02520693995
 24
4508.448847332322
 34
0.0
100
AcDbRotatedDimension
  0
DIMENSION
  5
184C5
330
747D
100
AcDbEntity
  8
寸法
 48
50.0
100
AcDbDimension
  2
*D29
 10
8482.02520693996
 20
4907.542016671793
 30
0.0
 11
10007.02520693996
 21
4907.542016671793
 31
0.0
 70
   160
  1
柱外寸法<>
 71
     5
 42
3049.999999999997
  3
INABA_S40G
100
AcDbAlignedDimension
 13
11532.02520693995
 23
4508.448847332325
 33
0.0
 14
8482.02520693996
 24
4508.448847332326
 34
0.0
100
AcDbRotatedDimension
  0
MTEXT
  5
184C6
330
747D
100
AcDbEntity
  8
寸法
 62
     7
 48
50.0
100
AcDbMText
 10
9267.127744033071
 20
9378.679637392441
 30
0.0
 40
96.0
 41
0.0
 71
     5
 72
     1
  1
棚 3段
  7
STYLE1
 73
     1
 44
1.0
1001
ACAD
1000
MTEXTBEGIN
1070
    73
1070
     1
1070
    44
1040
1.0
1070
    74
1070
     0
1000
MTEXTEND
  0
LINE
  5
184C7
330
747D
100
AcDbEntity
  8
部品1
 48
50.0
100
AcDbLine
 10
9764.025206939956
 20
4216.448847357088
 30
0.0
 11
9764.025206939956
 21
2183.448847332316
 31
0.0
  0
LINE
  5
184C8
330
747D
100
AcDbEntity
  8
部品1
100
AcDbLine
 10
10418.02519724481
 20
4216.448847369471
 30
0.0
 11
10418.02519724482
 21
2190.948847369486
 31
0.0
  0
LINE
  5
184C9
330
747D
100
AcDbEntity
  8
細線
100
AcDbLine
 10
9664.02520693996
 20
4216.44884733232
 30
0.0
 11
9664.025206939957
 21
2183.448847332327
 31
0.0
  0
LINE
  5
184CA
330
747D
100
AcDbEntity
  8
細線
100
AcDbLine
 10
9594.025206939958
 20
4216.44884733232
 30
0.0
 11
9594.025206939956
 21
2183.448847332327
 31
0.0
  0
LINE
  5
184CB
330
747D
100
AcDbEntity
  8
細線
100
AcDbLine
 10
9524.02520693996
 20
4216.44884733232
 30
0.0
 11
9524.025206939956
 21
2183.448847332324
 31
0.0
  0
LINE
  5
184CC
330
747D
100
AcDbEntity
  8
細線
100
AcDbLine
 10
9454.025206939959
 20
4216.44884733232
 30
0.0
 11
9454.025206939956
 21
2183.448847332324
 31
0.0
  0
LINE
  5
184CD
330
747D
100
AcDbEntity
  8
細線
100
AcDbLine
 10
9384.025206939959
 20
4216.44884733232
 30
0.0
 11
9384.025206939956
 21
2183.448847332324
 31
0.0
  0
LINE
  5
184CE
330
747D
100
AcDbEntity
  8
細線
100
AcDbLine
 10
9314.025206939959
 20
4216.44884733232
 30
0.0
 11
9314.025206939957
 21
2183.448847332324
 31
0.0
  0
LINE
  5
184CF
330
747D
100
AcDbEntity
  8
部品1
100
AcDbLine
 10
9130.025206939956
 20
4216.44884733232
 30
0.0
 11
9130.02520693996
 21
2183.448847332324
 31
0.0
  0
LINE
  5
184D0
330
747D
100
AcDbEntity
  8
部品1
100
AcDbLine
 10
9080.025206939955
 20
4216.44884733232
 30
0.0
 11
9080.025206939959
 21
2183.448847332324
 31
0.0
  0
LINE
  5
184D1
330
747D
100
AcDbEntity
  8
細線
100
AcDbLine
 10
9122.025206939957
 20
4216.44884733232
 30
0.0
 11
9122.025206939959
 21
2183.448847332324
 31
0.0
  0
LINE
  5
184D2
330
747D
100
AcDbEntity
  8
細線
100
AcDbLine
 10
9088.025206939956
 20
4216.44884733232
 30
0.0
 11
9088.025206939958
 21
2183.448847332324
 31
0.0
  0
LINE
  5
184D3
330
747D
100
AcDbEntity
  8
細線
100
AcDbLine
 10
10315.5252166902
 20
4216.44884733232
 30
0.0
 11
10315.5252166902
 21
2190.948847332331
 31
0.0
  0
LINE
  5
184D4
330
747D
100
AcDbEntity
  8
細線
100
AcDbLine
 10
10245.5252166902
 20
4216.44884733232
 30
0.0
 11
10245.5252166902
 21
2190.948847332331
 31
0.0
  0
LINE
  5
184D5
330
747D
100
AcDbEntity
  8
細線
100
AcDbLine
 10
10175.5252166902
 20
4216.44884733232
 30
0.0
 11
10175.5252166902
 21
2190.948847332331
 31
0.0
  0
LINE
  5
184D6
330
747D
100
AcDbEntity
  8
細線
100
AcDbLine
 10
10105.5252166902
 20
4216.44884733232
 30
0.0
 11
10105.5252166902
 21
2190.948847332331
 31
0.0
  0
LINE
  5
184D7
330
747D
100
AcDbEntity
  8
細線
100
AcDbLine
 10
10035.5252166902
 20
4216.44884733232
 30
0.0
 11
10035.5252166902
 21
2190.948847332331
 31
0.0
  0
LINE
  5
184D8
330
747D
100
AcDbEntity
  8
細線
100
AcDbLine
 10
9965.525216690203
 20
4216.44884733232
 30
0.0
 11
9965.525216690203
 21
2190.948847332331
 31
0.0
  0
LINE
  5
184D9
330
747D
100
AcDbEntity
  8
細線
100
AcDbLine
 10
10890.77520693996
 20
4216.44884733232
 30
0.0
 11
10890.77520693996
 21
2190.948847332338
 31
0.0
  0
LINE
  5
184DA
330
747D
100
AcDbEntity
  8
細線
100
AcDbLine
 10
10820.77520693996
 20
4216.44884733232
 30
0.0
 11
10820.77520693996
 21
2190.948847332338
 31
0.0
  0
LINE
  5
184DB
330
747D
100
AcDbEntity
  8
細線
100
AcDbLine
 10
10750.77520693996
 20
4216.44884733232
 30
0.0
 11
10750.77520693996
 21
2190.948847332338
 31
0.0
  0
LINE
  5
184DC
330
747D
100
AcDbEntity
  8
細線
100
AcDbLine
 10
10680.77520693996
 20
4216.44884733232
 30
0.0
 11
10680.77520693996
 21
2190.948847332338
 31
0.0
  0
LINE
  5
184DD
330
747D
100
AcDbEntity
  8
細線
100
AcDbLine
 10
10610.77520693996
 20
4216.44884733232
 30
0.0
 11
10610.77520693996
 21
2190.948847332338
 31
0.0
  0
LINE
  5
184DE
330
747D
100
AcDbEntity
  8
細線
100
AcDbLine
 10
9244.025206939959
 20
4216.44884733232
 30
0.0
 11
9244.025206939957
 21
2183.448847332324
 31
0.0
  0
LINE
  5
184DF
330
747D
100
AcDbEntity
  8
細線
100
AcDbLine
 10
9174.02520693996
 20
4216.44884733232
 30
0.0
 11
9174.025206939957
 21
2183.448847332324
 31
0.0
  0
LINE
  5
184E0
330
747D
100
AcDbEntity
  8
細線
100
AcDbLine
 10
9895.525216690202
 20
4216.44884733232
 30
0.0
 11
9895.525216690202
 21
2190.948847332331
 31
0.0
  0
LINE
  5
184E1
330
747D
100
AcDbEntity
  8
細線
100
AcDbLine
 10
9825.525216690202
 20
4216.44884733232
 30
0.0
 11
9825.525216690202
 21
2190.948847332331
 31
0.0
  0
LINE
  5
184E2
330
747D
100
AcDbEntity
  8
細線
100
AcDbLine
 10
10540.77520693996
 20
4216.44884733232
 30
0.0
 11
10540.77520693996
 21
2190.948847332338
 31
0.0
  0
LINE
  5
184E3
330
747D
100
AcDbEntity
  8
部品1
 48
50.0
100
AcDbLine
 10
11084.02520693996
 20
4224.44884733232
 30
0.0
 11
11054.02520693996
 21
4224.44884733232
 31
0.0
  0
LINE
  5
184E4
330
747D
100
AcDbEntity
  8
部品1
 48
50.0
100
AcDbLine
 10
11057.02520693996
 20
4268.44884733232
 30
0.0
 11
11057.02520693996
 21
4273.44884733232
 31
0.0
  0
LINE
  5
184E5
330
747D
100
AcDbEntity
  8
細線
 48
50.0
100
AcDbLine
 10
11032.02520693996
 20
2180.44884733232
 30
0.0
 11
11028.02520693996
 21
2190.94884733232
 31
0.0
  0
LINE
  5
184E6
330
747D
100
AcDbEntity
  8
部品1
 48
50.0
100
AcDbLine
 10
10418.02519724482
 20
4216.448847369467
 30
0.0
 11
10418.02519724482
 21
2190.948847369467
 31
0.0
  0
LINE
  5
184E7
330
747D
100
AcDbEntity
  8
部品1
 48
50.0
100
AcDbLine
 10
11084.02520693996
 20
2133.44884733232
 30
0.0
 11
11084.02520693996
 21
4268.44884733232
 31
0.0
  0
LINE
  5
184E8
330
747D
100
AcDbEntity
  8
細線
 48
50.0
100
AcDbLine
 10
11054.02520693996
 20
2133.44884733232
 30
0.0
 11
11054.02520693996
 21
4225.94884733232
 31
0.0
  0
LINE
  5
184E9
330
747D
100
AcDbEntity
  8
部品1
 48
50.0
100
AcDbLine
 10
11045.02520693996
 20
2180.44884733232
 30
0.0
 11
11045.02520693996
 21
4216.44884733232
 31
0.0
  0
LINE
  5
184EA
330
747D
100
AcDbEntity
  8
部品1
 48
50.0
100
AcDbLine
 10
8960.02520693996
 20
4224.44884733232
 30
0.0
 11
8930.025206939959
 21
4224.44884733232
 31
0.0
  0
LINE
  5
184EB
330
747D
100
AcDbEntity
  8
部品1
 48
50.0
100
AcDbLine
 10
8957.02520693996
 20
4268.44884733232
 30
0.0
 11
8957.02520693996
 21
4273.44884733232
 31
0.0
  0
LINE
  5
184EC
330
747D
100
AcDbEntity
  8
部品1
 48
50.0
100
AcDbLine
 10
8969.025206939958
 20
2183.44884733232
 30
0.0
 11
8969.025206939958
 21
2180.44884733232
 31
0.0
  0
LINE
  5
184ED
330
747D
100
AcDbEntity
  8
部品1
 48
50.0
100
AcDbLine
 10
8960.02520693996
 20
2183.44884733232
 30
0.0
 11
9764.025206939956
 21
2183.448847332316
 31
0.0
  0
LINE
  5
184EE
330
747D
100
AcDbEntity
  8
部品1
 48
50.0
100
AcDbLine
 10
9764.025206939956
 20
4216.448847357088
 30
0.0
 11
9764.025206939956
 21
2183.448847357087
 31
0.0
  0
LINE
  5
184EF
330
747D
100
AcDbEntity
  8
部品1
 48
50.0
100
AcDbLine
 10
8930.025206939959
 20
4268.44884733232
 30
0.0
 11
8930.025206939959
 21
2133.44884733232
 31
0.0
  0
LINE
  5
184F0
330
747D
100
AcDbEntity
  8
細線
 48
50.0
100
AcDbLine
 10
8960.02520693996
 20
4225.94884733232
 30
0.0
 11
8960.02520693996
 21
2133.44884733232
 31
0.0
  0
LINE
  5
184F1
330
747D
100
AcDbEntity
  8
部品1
 48
50.0
100
AcDbLine
 10
8960.02520693996
 20
2183.44884733232
 30
0.0
 11
8960.02520693996
 21
4216.44884733232
 31
0.0
  0
LINE
  5
184F2
330
747D
100
AcDbEntity
  8
細線
 48
50.0
100
AcDbLine
 10
9764.025206939956
 20
2190.94884733232
 30
0.0
 11
11028.02520693996
 21
2190.94884733232
 31
0.0
  0
LINE
  5
184F3
330
747D
100
AcDbEntity
  8
細線
 48
50.0
100
AcDbLine
 10
8960.02520693996
 20
2180.44884733232
 30
0.0
 11
11054.02520693996
 21
2180.44884733232
 31
0.0
  0
LINE
  5
184F4
330
747D
100
AcDbEntity
  8
細線
 48
50.0
100
AcDbLine
 10
8960.02520693996
 20
2176.44884733232
 30
0.0
 11
11054.02520693996
 21
2176.44884733232
 31
0.0
  0
LINE
  5
184F5
330
747D
100
AcDbEntity
  8
部品1
 48
50.0
100
AcDbLine
 10
8930.025206939959
 20
2133.44884733232
 30
0.0
 11
11084.02520693996
 21
2133.44884733232
 31
0.0
  0
LINE
  5
184F6
330
747D
100
AcDbEntity
  8
細線
 48
50.0
100
AcDbLine
 10
11054.02520693996
 20
4225.94884733232
 30
0.0
 11
8960.02520693996
 21
4225.94884733232
 31
0.0
  0
LINE
  5
184F7
330
747D
100
AcDbEntity
  8
細線
 48
50.0
100
AcDbLine
 10
11054.02520693996
 20
4216.44884733232
 30
0.0
 11
8960.02520693996
 21
4216.44884733232
 31
0.0
  0
LINE
  5
184F8
330
747D
100
AcDbEntity
  8
細線
 48
50.0
100
AcDbLine
 10
11084.02520693996
 20
4258.44884733232
 30
0.0
 11
8930.025206939959
 21
4258.44884733232
 31
0.0
  0
LINE
  5
184F9
330
747D
100
AcDbEntity
  8
部品1
 48
50.0
100
AcDbLine
 10
11084.02520693996
 20
4268.44884733232
 30
0.0
 11
8930.025206939959
 21
4268.44884733232
 31
0.0
  0
TEXT
  5
185C7
330
747D
100
AcDbEntity
  8
文字
 62
     7
 48
50.0
100
AcDbText
 10
13583.11819016569
 20
8550.013745883731
 30
0.0
 40
100.0
  1
棚板
  7
STYLE1
100
AcDbText
  0
TEXT
  5
185C8
330
747D
100
AcDbEntity
  8
文字
 62
     7
 48
50.0
100
AcDbText
 10
15022.63965474516
 20
8550.013745883727
 30
0.0
 40
100.0
  1
F12            0.6
  7
STYLE1
100
AcDbText
  0
TEXT
  5
185C9
330
747D
100
AcDbEntity
  8
文字
 62
     7
 48
50.0
100
AcDbText
 10
13583.11819016569
 20
9740.013745883729
 30
0.0
 40
100.0
  1
母屋中
  7
STYLE1
100
AcDbText
  0
TEXT
  5
185CA
330
747D
100
AcDbEntity
  8
文字
 62
     7
 48
50.0
100
AcDbText
 10
13248.77747366447
 20
8720.013745883729
 30
0.0
 40
100.0
  1
15
  7
STYLE1
100
AcDbText
  0
LINE
  5
185CB
330
747D
100
AcDbEntity
  8
仕様書枠
 48
50.0
100
AcDbLine
 10
16307.19999999999
 20
8009.600000000004
 30
0.0
 11
13127.19999999999
 21
8009.600000000006
 31
0.0
  0
TEXT
  5
185CC
330
747D
100
AcDbEntity
  8
文字
 62
     7
 48
50.0
100
AcDbText
 10
13583.11819016569
 20
8720.013745883731
 30
0.0
 40
100.0
  1
扉
  7
STYLE1
100
AcDbText
  0
TEXT
  5
185CD
330
747D
100
AcDbEntity
  8
文字
 62
     7
 48
50.0
100
AcDbText
 10
15022.63965474516
 20
8720.013745883727
 30
0.0
 40
100.0
  1
F12            0.8
  7
STYLE1
100
AcDbText
  0
TEXT
  5
185CE
330
747D
100
AcDbEntity
  8
文字
 62
     7
 48
50.0
100
AcDbText
 10
13583.11819016568
 20
8890.013745883731
 30
0.0
 40
100.0
  1
正面パネル
  7
STYLE1
100
AcDbText
  0
TEXT
  5
185CF
330
747D
100
AcDbEntity
  8
文字
 62
     7
 48
50.0
100
AcDbText
 10
15022.63965474515
 20
8890.013745883727
 30
0.0
 40
100.0
  1
F12            0.7
  7
STYLE1
100
AcDbText
  0
TEXT
  5
185D0
330
747D
100
AcDbEntity
  8
文字
 62
     7
 48
50.0
100
AcDbText
 10
15022.63965474517
 20
10590.01374588372
 30
0.0
 40
100.0
  1
F12            1.0
  7
STYLE1
100
AcDbText
  0
TEXT
  5
185D1
330
747D
100
AcDbEntity
  8
文字
 62
     7
 48
50.0
100
AcDbText
 10
15022.63965474516
 20
10930.01374588372
 30
0.0
 40
100.0
  1
F12            1.2
  7
STYLE1
100
AcDbText
  0
TEXT
  5
185D2
330
747D
100
AcDbEntity
  8
文字
 62
     7
 48
50.0
100
AcDbText
 10
13248.77747366448
 20
8890.013745883727
 30
0.0
 40
100.0
  1
14
  7
STYLE1
100
AcDbText
  0
TEXT
  5
185D3
330
747D
100
AcDbEntity
  8
文字
 62
     7
 48
50.0
100
AcDbText
 10
13583.11819016569
 20
10930.01374588372
 30
0.0
 40
100.0
  1
根太
  7
STYLE1
100
AcDbText
  0
TEXT
  5
185D4
330
747D
100
AcDbEntity
  8
文字
 62
     7
 48
50.0
100
AcDbText
 10
13583.1181901657
 20
10590.01374588372
 30
0.0
 40
100.0
  1
床パネル
 41
0.9
  7
STYLE1
100
AcDbText
  0
LINE
  5
185D5
330
747D
100
AcDbEntity
  8
仕様書枠
 48
50.0
100
AcDbLine
 10
16307.19999999999
 20
9029.6
 30
0.0
 11
13127.2
 21
9029.600000000002
 31
0.0
  0
LINE
  5
185D6
330
747D
100
AcDbEntity
  8
仕様書枠
 48
50.0
100
AcDbLine
 10
13127.2
 20
11409.6
 30
0.0
 11
13127.19999999999
 21
8009.600000000006
 31
0.0
  0
TEXT
  5
185D7
330
747D
100
AcDbEntity
  8
文字
 62
     7
 48
50.0
100
AcDbText
 10
13229.83081656554
 20
8040.013745883731
 30
0.0
 40
100.0
  1
Y10→溶融亜鉛-5％アルミニウム合金めっき鋼板(JIS G 3317)
 41
0.9
  7
STYLE1
100
AcDbText
  0
TEXT
  5
185D8
330
747D
100
AcDbEntity
  8
文字
 62
     7
 48
50.0
100
AcDbText
 10
13229.83081656554
 20
8210.013745883733
 30
0.0
 40
100.0
  1
F12→溶融亜鉛めっき鋼板(JIS G 3302)
  7
STYLE1
100
AcDbText
  0
LINE
  5
185D9
330
747D
100
AcDbEntity
  8
仕様書枠
 48
50.0
100
AcDbLine
 10
16307.19999999999
 20
8179.600000000004
 30
0.0
 11
13127.19999999999
 21
8179.600000000005
 31
0.0
  0
LINE
  5
185DA
330
747D
100
AcDbEntity
  8
仕様書枠
 48
50.0
100
AcDbLine
 10
16307.19999999999
 20
8349.600000000004
 30
0.0
 11
13127.19999999999
 21
8349.600000000007
 31
0.0
  0
TEXT
  5
185DB
330
747D
100
AcDbEntity
  8
文字
 62
     7
 48
50.0
100
AcDbText
 10
15022.63965474515
 20
9570.013745883725
 30
0.0
 40
100.0
  1
F12            0.7
  7
STYLE1
100
AcDbText
  0
TEXT
  5
185DC
330
747D
100
AcDbEntity
  8
文字
 62
     7
 48
50.0
100
AcDbText
 10
15022.63965474517
 20
9910.013745883725
 30
0.0
 40
100.0
  1
Y10            0.5
  7
STYLE1
100
AcDbText
  0
TEXT
  5
185DD
330
747D
100
AcDbEntity
  8
文字
 62
     7
 48
50.0
100
AcDbText
 10
15022.63965474516
 20
10080.01374588372
 30
0.0
 40
100.0
  1
Y10            0.7
  7
STYLE1
100
AcDbText
  0
TEXT
  5
185DE
330
747D
100
AcDbEntity
  8
文字
 62
     7
 48
50.0
100
AcDbText
 10
15022.63965474516
 20
10250.01374588372
 30
0.0
 40
100.0
  1
Y10            0.7
  7
STYLE1
100
AcDbText
  0
TEXT
  5
185DF
330
747D
100
AcDbEntity
  8
文字
 62
     7
 48
50.0
100
AcDbText
 10
15022.63965474516
 20
10420.01374588372
 30
0.0
 40
100.0
  1
Y10            1.0
  7
STYLE1
100
AcDbText
  0
TEXT
  5
185E0
330
747D
100
AcDbEntity
  8
文字
 62
     7
 48
50.0
100
AcDbText
 10
15022.63965474518
 20
10760.01374588372
 30
0.0
 40
100.0
  1
F12            1.0
  7
STYLE1
100
AcDbText
  0
TEXT
  5
185E1
330
747D
100
AcDbEntity
  8
文字
 62
     7
 48
50.0
100
AcDbText
 10
15022.63965474517
 20
11100.01374588372
 30
0.0
 40
100.0
  1
F12            1.2
  7
STYLE1
100
AcDbText
  0
TEXT
  5
185E2
330
747D
100
AcDbEntity
  8
文字
 62
     7
 48
50.0
100
AcDbText
 10
13248.77747366448
 20
9230.013745883727
 30
0.0
 40
100.0
  1
12
  7
STYLE1
100
AcDbText
  0
TEXT
  5
185E3
330
747D
100
AcDbEntity
  8
文字
 62
     7
 48
50.0
100
AcDbText
 10
13248.77747366448
 20
9060.013745883727
 30
0.0
 40
100.0
  1
13
  7
STYLE1
100
AcDbText
  0
LINE
  5
185E4
330
747D
100
AcDbEntity
  8
仕様書枠
 48
50.0
100
AcDbLine
 10
16307.19999999999
 20
8859.6
 30
0.0
 11
13127.2
 21
8859.600000000002
 31
0.0
  0
LINE
  5
185E5
330
747D
100
AcDbEntity
  8
仕様書枠
 48
50.0
100
AcDbLine
 10
16307.19999999999
 20
9199.599999999998
 30
0.0
 11
13127.2
 21
9199.600000000001
 31
0.0
  0
TEXT
  5
185E6
330
747D
100
AcDbEntity
  8
文字
 62
     7
 48
50.0
100
AcDbText
 10
13248.77747366447
 20
9400.013745883727
 30
0.0
 40
100.0
  1
11
  7
STYLE1
100
AcDbText
  0
LINE
  5
185E7
330
747D
100
AcDbEntity
  8
仕様書枠
 48
50.0
100
AcDbLine
 10
16307.2
 20
9879.599999999999
 30
0.0
 11
13127.2
 21
9879.600000000001
 31
0.0
  0
LINE
  5
185E8
330
747D
100
AcDbEntity
  8
仕様書枠
 48
50.0
100
AcDbLine
 10
16307.2
 20
10219.6
 30
0.0
 11
13127.2
 21
10219.6
 31
0.0
  0
LINE
  5
185E9
330
747D
100
AcDbEntity
  8
仕様書枠
 48
50.0
100
AcDbLine
 10
16307.19999999999
 20
9539.599999999998
 30
0.0
 11
13127.2
 21
9539.6
 31
0.0
  0
LINE
  5
185EA
330
747D
100
AcDbEntity
  8
仕様書枠
 48
50.0
100
AcDbLine
 10
16307.19999999999
 20
9369.599999999998
 30
0.0
 11
13127.2
 21
9369.600000000001
 31
0.0
  0
LINE
  5
185EB
330
747D
100
AcDbEntity
  8
仕様書枠
 48
50.0
100
AcDbLine
 10
16307.19999999999
 20
9709.6
 30
0.0
 11
13127.2
 21
9709.600000000001
 31
0.0
  0
TEXT
  5
185EC
330
747D
100
AcDbEntity
  8
文字
 62
     7
 48
50.0
100
AcDbText
 10
13271.19032244792
 20
10250.01374588373
 30
0.0
 40
100.0
  1
6
  7
STYLE1
100
AcDbText
  0
TEXT
  5
185ED
330
747D
100
AcDbEntity
  8
文字
 62
     7
 48
50.0
100
AcDbText
 10
13271.19032244792
 20
10080.01374588373
 30
0.0
 40
100.0
  1
7
  7
STYLE1
100
AcDbText
  0
TEXT
  5
185EE
330
747D
100
AcDbEntity
  8
文字
 62
     7
 48
50.0
100
AcDbText
 10
13271.19032244792
 20
9740.013745883729
 30
0.0
 40
100.0
  1
9
  7
STYLE1
100
AcDbText
  0
TEXT
  5
185EF
330
747D
100
AcDbEntity
  8
文字
 62
     7
 48
50.0
100
AcDbText
 10
13271.19032244792
 20
9910.01374588373
 30
0.0
 40
100.0
  1
8
  7
STYLE1
100
AcDbText
  0
TEXT
  5
185F0
330
747D
100
AcDbEntity
  8
文字
 62
     7
 48
50.0
100
AcDbText
 10
13583.11819016569
 20
10080.01374588372
 30
0.0
 40
100.0
  1
鼻隠シ前後
  7
STYLE1
100
AcDbText
  0
TEXT
  5
185F1
330
747D
100
AcDbEntity
  8
文字
 62
     7
 48
50.0
100
AcDbText
 10
13583.11819016569
 20
9910.013745883727
 30
0.0
 40
100.0
  1
屋根パネル
  7
STYLE1
100
AcDbText
  0
TEXT
  5
185F2
330
747D
100
AcDbEntity
  8
文字
 62
     7
 48
50.0
100
AcDbText
 10
13583.11819016568
 20
9570.013745883729
 30
0.0
 40
100.0
  1
壁パネル
  7
STYLE1
100
AcDbText
  0
TEXT
  5
185F3
330
747D
100
AcDbEntity
  8
文字
 62
     7
 48
50.0
100
AcDbText
 10
13248.77747366447
 20
9570.013745883727
 30
0.0
 40
100.0
  1
10
  7
STYLE1
100
AcDbText
  0
TEXT
  5
185F4
330
747D
100
AcDbEntity
  8
文字
 62
     7
 48
50.0
100
AcDbText
 10
13583.11819016569
 20
10250.01374588373
 30
0.0
 40
100.0
  1
妻板左右
  7
STYLE1
100
AcDbText
  0
TEXT
  5
185F5
330
747D
100
AcDbEntity
  8
文字
 62
     7
 48
50.0
100
AcDbText
 10
13271.19032244792
 20
10420.01374588372
 30
0.0
 40
100.0
  1
5
  7
STYLE1
100
AcDbText
  0
TEXT
  5
185F6
330
747D
100
AcDbEntity
  8
文字
 62
     7
 48
50.0
100
AcDbText
 10
13583.11819016569
 20
10420.01374588373
 30
0.0
 40
100.0
  1
桁前後
  7
STYLE1
100
AcDbText
  0
TEXT
  5
185F7
330
747D
100
AcDbEntity
  8
文字
 62
     7
 48
50.0
100
AcDbText
 10
13583.1181901657
 20
10760.01374588372
 30
0.0
 40
100.0
  1
柱
  7
STYLE1
100
AcDbText
  0
TEXT
  5
185F8
330
747D
100
AcDbEntity
  8
文字
 62
     7
 48
50.0
100
AcDbText
 10
13583.11819016569
 20
11100.01374588372
 30
0.0
 40
100.0
  1
土台枠
  7
STYLE1
100
AcDbText
  0
TEXT
  5
185F9
330
747D
100
AcDbEntity
  8
文字
 62
     7
 48
50.0
100
AcDbText
 10
14859.79774614482
 20
11270.01374588372
 30
0.0
 40
100.0
  1
材料（材質）　　単位mm
  7
STYLE1
100
AcDbText
  0
TEXT
  5
185FA
330
747D
100
AcDbEntity
  8
文字
 62
     7
 48
50.0
100
AcDbText
 10
13732.03840939434
 20
11270.01374588372
 30
0.0
 40
100.0
  1
部　　品　　名
  7
STYLE1
100
AcDbText
  0
TEXT
  5
185FB
330
747D
100
AcDbEntity
  8
文字
 62
     7
 48
50.0
100
AcDbText
 10
13271.19032244792
 20
10760.01374588373
 30
0.0
 40
100.0
  1
3
  7
STYLE1
100
AcDbText
  0
TEXT
  5
185FC
330
747D
100
AcDbEntity
  8
文字
 62
     7
 48
50.0
100
AcDbText
 10
13271.19032244792
 20
10590.01374588373
 30
0.0
 40
100.0
  1
4
  7
STYLE1
100
AcDbText
  0
TEXT
  5
185FD
330
747D
100
AcDbEntity
  8
文字
 62
     7
 48
50.0
100
AcDbText
 10
13271.19032244792
 20
10930.01374588373
 30
0.0
 40
100.0
  1
2
  7
STYLE1
100
AcDbText
  0
TEXT
  5
185FE
330
747D
100
AcDbEntity
  8
文字
 62
     7
 48
50.0
100
AcDbText
 10
13271.19032244792
 20
11100.01374588373
 30
0.0
 40
100.0
  1
1
  7
STYLE1
100
AcDbText
  0
TEXT
  5
185FF
330
747D
100
AcDbEntity
  8
文字
 62
     7
 48
50.0
100
AcDbText
 10
13197.42518560407
 20
11270.01374588372
 30
0.0
 40
100.0
  1
品番
  7
STYLE1
100
AcDbText
  0
LINE
  5
18600
330
747D
100
AcDbEntity
  8
仕様書枠
 48
50.0
100
AcDbLine
 10
16307.19999999999
 20
10729.59999999999
 30
0.0
 11
13127.2
 21
10729.6
 31
0.0
  0
LINE
  5
18601
330
747D
100
AcDbEntity
  8
仕様書枠
 48
50.0
100
AcDbLine
 10
16307.19999999999
 20
10389.6
 30
0.0
 11
13127.2
 21
10389.6
 31
0.0
  0
LINE
  5
18602
330
747D
100
AcDbEntity
  8
仕様書枠
 48
50.0
100
AcDbLine
 10
16307.19999999999
 20
10559.6
 30
0.0
 11
13127.2
 21
10559.6
 31
0.0
  0
LINE
  5
18603
330
747D
100
AcDbEntity
  8
仕様書枠
 48
50.0
100
AcDbLine
 10
16307.2
 20
11069.59999999999
 30
0.0
 11
13127.2
 21
11069.6
 31
0.0
  0
LINE
  5
18604
330
747D
100
AcDbEntity
  8
仕様書枠
 48
50.0
100
AcDbLine
 10
16307.2
 20
10899.6
 30
0.0
 11
13127.2
 21
10899.6
 31
0.0
  0
LINE
  5
18605
330
747D
100
AcDbEntity
  8
仕様書枠
 48
50.0
100
AcDbLine
 10
16307.2
 20
11239.59999999999
 30
0.0
 11
13127.2
 21
11239.6
 31
0.0
  0
LINE
  5
18606
330
747D
100
AcDbEntity
  8
仕様書枠
 48
50.0
100
AcDbLine
 10
13490.2
 20
11409.59999999999
 30
0.0
 11
13490.20000000001
 21
8349.600000000007
 31
0.0
  0
LINE
  5
18607
330
747D
100
AcDbEntity
  8
仕様書枠
 48
50.0
100
AcDbLine
 10
14785.2
 20
11409.59999999999
 30
0.0
 11
14785.2
 21
8349.600000000004
 31
0.0
  0
LINE
  5
18608
330
747D
100
AcDbEntity
  8
仕様書枠
 48
50.0
100
AcDbLine
 10
16307.19999999999
 20
8009.600000000004
 30
0.0
 11
16307.2
 21
11409.6
 31
0.0
  0
LINE
  5
18609
330
747D
100
AcDbEntity
  8
仕様書枠
 48
50.0
100
AcDbLine
 10
16307.2
 20
11409.59999999999
 30
0.0
 11
13127.2
 21
11409.6
 31
0.0
  0
LINE
  5
1860A
330
747D
100
AcDbEntity
  8
仕様書枠
 48
50.0
100
AcDbLine
 10
16307.2
 20
10049.6
 30
0.0
 11
13127.2
 21
10049.6
 31
0.0
  0
TEXT
  5
1860B
330
747D
100
AcDbEntity
  8
文字
 62
     7
 48
50.0
100
AcDbText
 10
15022.63965474515
 20
8380.013745883724
 30
0.0
 40
100.0
  1
F12            2.3
  7
STYLE1
100
AcDbText
  0
TEXT
  5
1860C
330
747D
100
AcDbEntity
  8
文字
 62
     7
 48
50.0
100
AcDbText
 10
13583.11819016569
 20
8380.013745883728
 30
0.0
 40
100.0
  1
アンカープレート
  7
STYLE1
100
AcDbText
  0
LINE
  5
1860D
330
747D
100
AcDbEntity
  8
仕様書枠
 48
50.0
100
AcDbLine
 10
16307.19999999999
 20
8519.600000000004
 30
0.0
 11
13127.2
 21
8519.600000000005
 31
0.0
  0
LINE
  5
1860E
330
747D
100
AcDbEntity
  8
仕様書枠
 48
50.0
100
AcDbLine
 10
16307.19999999999
 20
8689.600000000003
 30
0.0
 11
13127.2
 21
8689.600000000005
 31
0.0
  0
TEXT
  5
1860F
330
747D
100
AcDbEntity
  8
文字
 62
     7
 48
50.0
100
AcDbText
 10
13583.11819016569
 20
9400.013745883729
 30
0.0
 40
100.0
  1
壁面扉鴨居
  7
STYLE1
100
AcDbText
  0
TEXT
  5
18610
330
747D
100
AcDbEntity
  8
文字
 62
     7
 48
50.0
100
AcDbText
 10
13583.11819016569
 20
9230.013745883733
 30
0.0
 40
100.0
  1
壁面扉敷居
  7
STYLE1
100
AcDbText
  0
TEXT
  5
18611
330
747D
100
AcDbEntity
  8
文字
 62
     7
 48
50.0
100
AcDbText
 10
15022.63965474515
 20
9400.013745883727
 30
0.0
 40
100.0
  1
F12            0.7
  7
STYLE1
100
AcDbText
  0
TEXT
  5
18612
330
747D
100
AcDbEntity
  8
文字
 62
     7
 48
50.0
100
AcDbText
 10
15022.63965474517
 20
9230.013745883725
 30
0.0
 40
100.0
  1
F12            1.0
  7
STYLE1
100
AcDbText
  0
TEXT
  5
18613
330
747D
100
AcDbEntity
  8
文字
 62
     7
 48
50.0
100
AcDbText
 10
13583.11819016569
 20
9060.013745883733
 30
0.0
 40
100.0
  1
壁面扉枠左右
  7
STYLE1
100
AcDbText
  0
TEXT
  5
18614
330
747D
100
AcDbEntity
  8
文字
 62
     7
 48
50.0
100
AcDbText
 10
15022.63965474517
 20
9060.013745883725
 30
0.0
 40
100.0
  1
F12            1.0
  7
STYLE1
100
AcDbText
  0
TEXT
  5
18615
330
747D
100
AcDbEntity
  8
文字
 62
     7
 48
50.0
100
AcDbText
 10
13248.77747366447
 20
8550.013745883729
 30
0.0
 40
100.0
  1
16
  7
STYLE1
100
AcDbText
  0
TEXT
  5
18616
330
747D
100
AcDbEntity
  8
文字
 62
     7
 48
50.0
100
AcDbText
 10
13248.77747366447
 20
8380.013745883728
 30
0.0
 40
100.0
  1
17
  7
STYLE1
100
AcDbText
  0
TEXT
  5
18617
330
747D
100
AcDbEntity
  8
文字
 62
     7
 48
50.0
100
AcDbText
 10
14892.7563502105
 20
9740.013745883725
 30
0.0
 40
100.0
  1
F12  1.0(多雪地型2.3,1.6)
  7
STYLE1
100
AcDbText
  0
TEXT
  5
18618
330
747D
100
AcDbEntity
  8
文字
 62
     7
 48
50.0
100
AcDbText
 10
14491.96323844892
 20
483.8967129911416
 30
0.0
 40
160.0
  1
ＮＸＮ－６５ＨＡ
  7
STYLE2
100
AcDbText
  0
TEXT
  5
18619
330
747D
100
AcDbEntity
  8
文字
 62
     7
 48
50.0
100
AcDbText
 10
13209.4053442172
 20
243.236973410656
 30
0.0
 40
100.0
  1
○有効開口寸法 ： 1266×2025(mm)
  7
STYLE2
100
AcDbText
  0
MTEXT
  5
1861A
330
747D
100
AcDbEntity
  8
寸法
 62
     7
 48
50.0
100
AcDbMText
 10
10777.1277440331
 20
9378.679637392464
 30
0.0
 40
96.0
 41
0.0
 71
     5
 72
     1
  1
棚 3段
  7
STYLE1
 73
     1
 44
1.0
1001
ACAD
1000
MTEXTBEGIN
1070
    73
1070
     1
1070
    44
1040
1.0
1070
    74
1070
     0
1000
MTEXTEND
  0
LINE
  5
1861C
330
747D
100
AcDbEntity
  8
部品1
100
AcDbLine
 10
11477.02520693997
 20
9792.444819195157
 30
0.0
 11
11477.02520693997
 21
9764.444819195157
 31
0.0
  0
LINE
  5
1861D
330
747D
100
AcDbEntity
  8
部品1
100
AcDbLine
 10
11477.02520693997
 20
9792.444819195178
 30
0.0
 11
11477.02520693997
 21
9764.444819195178
 31
0.0
  0
LINE
  5
1861E
330
747D
100
AcDbEntity
  8
部品1
100
AcDbLine
 10
11504.02520693997
 20
9737.444819195156
 30
0.0
 11
11532.02520693997
 21
9737.444819195156
 31
0.0
  0
DIMENSION
  5
1861F
330
747D
100
AcDbEntity
  8
寸法
100
AcDbDimension
  2
*D2
 10
12232.02520693997
 20
9737.444819195159
 30
0.0
 11
12232.02520693997
 21
10100.93010056939
 31
0.0
 70
   160
 71
     5
 42
54.99999999999636
  3
INABA_S40G
100
AcDbAlignedDimension
 13
11532.02520693997
 23
9792.444819195154
 33
0.0
 14
11532.02520693997
 24
9737.444819195159
 34
0.0
 50
90.0
100
AcDbRotatedDimension
1001
ACAD
1000
DSTYLE
1002
{
1002
}
  0
DIMENSION
  5
18620
330
747D
100
AcDbEntity
  8
寸法
100
AcDbDimension
  2
*D3
 10
11532.02520693997
 20
10292.44481919515
 30
0.0
 11
11840.5104883142
 21
10292.44481919515
 31
0.0
 70
   160
 71
     5
 42
55.0
  3
INABA_S40G
100
AcDbAlignedDimension
 13
11477.02520693997
 23
9792.444819195154
 33
0.0
 14
11532.02520693997
 24
9792.444819195154
 34
0.0
100
AcDbRotatedDimension
1001
ACAD
1000
DSTYLE
1002
{
1002
}
  0
LINE
  5
18621
330
747D
100
AcDbEntity
  8
部品1
100
AcDbLine
 10
11504.02520693997
 20
9317.444819195157
 30
0.0
 11
11532.02520693997
 21
9317.444819195157
 31
0.0
  0
LINE
  5
18622
330
747D
100
AcDbEntity
  8
部品1
100
AcDbLine
 10
11504.02520693997
 20
8897.444819195158
 30
0.0
 11
11532.02520693997
 21
8897.444819195158
 31
0.0
  0
DIMENSION
  5
18623
330
747D
100
AcDbEntity
  8
寸法
100
AcDbDimension
  2
*D4
 10
11932.02520693996
 20
9197.628590238421
 30
0.0
 11
11932.02520693996
 21
9422.628590238421
 31
0.0
 70
   160
 71
     5
 42
449.9999999999963
  3
INABA_S40G
100
AcDbAlignedDimension
 13
11503.52520693997
 23
9762.444819195154
 33
0.0
 14
11503.52520693997
 24
9312.444819195158
 34
0.0
 50
90.0
100
AcDbRotatedDimension
1001
ACAD
1000
DSTYLE
1002
{
1002
}
  0
LINE
  5
18624
330
747D
100
AcDbEntity
  8
部品1
100
AcDbLine
 10
11503.52520693997
 20
9762.444819195156
 30
0.0
 11
11503.52520693997
 21
9312.444819195158
 31
0.0
  0
LINE
  5
18625
330
747D
100
AcDbEntity
  8
部品1
100
AcDbLine
 10
11504.02520693997
 20
9764.444819195157
 30
0.0
 11
11504.02520693996
 21
9311.944819195032
 31
0.0
  0
LINE
  5
18626
330
747D
100
AcDbEntity
  8
部品1
100
AcDbLine
 10
11477.02520693997
 20
7582.444819195147
 30
0.0
 11
11477.02520693997
 21
7610.444819195148
 31
0.0
  0
LINE
  5
18627
330
747D
100
AcDbEntity
  8
部品1
100
AcDbLine
 10
11504.02520693997
 20
7637.444819195143
 30
0.0
 11
11532.02520693997
 21
7637.444819195143
 31
0.0
  0
LINE
  5
18628
330
747D
100
AcDbEntity
  8
部品1
100
AcDbLine
 10
11532.02520693994
 20
7637.444819195143
 30
0.0
 11
11532.02520693994
 21
7582.444819195147
 31
0.0
  0
LINE
  5
18629
330
747D
100
AcDbEntity
  8
部品1
 48
50.0
100
AcDbLine
 10
11475.52520693997
 20
7638.944819195147
 30
0.0
 11
11504.02520693996
 21
7610.444819195148
 31
0.0
  0
LINE
  5
1862A
330
747D
100
AcDbEntity
  8
部品1
100
AcDbLine
 10
11532.02520693994
 20
7582.444819195147
 30
0.0
 11
11481.02520693994
 21
7582.444819195147
 31
0.0
  0
LINE
  5
1862B
330
747D
100
AcDbEntity
  8
部品1
100
AcDbLine
 10
11504.02520693994
 20
7637.444819195143
 30
0.0
 11
11532.02520693994
 21
7637.444819195143
 31
0.0
  0
DIMENSION
  5
1862C
330
747D
100
AcDbEntity
  8
寸法
100
AcDbDimension
  2
*D5
 10
12232.02520693994
 20
7582.444819195146
 30
0.0
 11
12232.02520693994
 21
7273.959537820904
 31
0.0
 70
   160
 71
     5
 42
54.99999999999636
  3
INABA_S40G
100
AcDbAlignedDimension
 13
11532.02520693994
 23
7637.444819195143
 33
0.0
 14
11532.02520693994
 24
7582.444819195146
 34
0.0
 50
90.0
100
AcDbRotatedDimension
1001
ACAD
1000
DSTYLE
1002
{
1002
}
  0
LINE
  5
1862D
330
747D
100
AcDbEntity
  8
部品1
100
AcDbLine
 10
11504.02520693996
 20
9317.444819195157
 30
0.0
 11
11504.02520693994
 21
7610.444819195148
 31
0.0
  0
LINE
  5
1862E
330
747D
100
AcDbEntity
  8
部品1
100
AcDbLine
 10
11475.52520693996
 20
9312.444819195158
 30
0.0
 11
11475.52520693997
 21
7638.944819195147
 31
0.0
  0
LINE
  5
1862F
330
747D
100
AcDbEntity
  8
部品1
100
AcDbLine
 10
11532.02520693997
 20
9792.444819195157
 30
0.0
 11
11532.02520693994
 21
7582.444819195147
 31
0.0
  0
DIMENSION
  5
18630
330
747D
100
AcDbEntity
  8
寸法
100
AcDbDimension
  2
*D6
 10
12232.02520693996
 20
7637.444819195143
 30
0.0
 11
12232.02520693996
 21
8687.44481919515
 31
0.0
 70
   160
  1
5X420=<>
 71
     5
 42
2100.000000000015
  3
INABA_S40G
100
AcDbAlignedDimension
 13
11532.02520693997
 23
9737.444819195159
 33
0.0
 14
11532.02520693994
 24
7637.444819195143
 34
0.0
 50
90.0
100
AcDbRotatedDimension
1001
ACAD
1000
DSTYLE
1002
{
1002
}
  0
LINE
  5
18631
330
747D
100
AcDbEntity
  8
破線
 48
10.0
100
AcDbLine
 10
11452.02520693996
 20
9312.444819195158
 30
0.0
 11
11452.02520693997
 21
7662.444819195143
 31
0.0
  0
DIMENSION
  5
18632
330
747D
100
AcDbEntity
  8
寸法
100
AcDbDimension
  2
*D7
 10
12532.02520693996
 20
7582.444819195146
 30
0.0
 11
12532.02520693995
 21
8687.44481919515
 31
0.0
 70
   160
 71
     5
 42
2210.000000000007
  3
INABA_S40G
100
AcDbAlignedDimension
 13
11532.02520693997
 23
9792.444819195154
 33
0.0
 14
11532.02520693994
 24
7582.444819195146
 34
0.0
 50
90.0
100
AcDbRotatedDimension
1001
ACAD
1000
DSTYLE
1002
{
1002
}
  0
LINE
  5
18633
330
747D
100
AcDbEntity
  8
部品1
100
AcDbLine
 10
11057.02520693993
 20
9792.444819195026
 30
0.0
 11
11057.02520693993
 21
9764.444819195025
 31
0.0
  0
LINE
  5
18634
330
747D
100
AcDbEntity
  8
部品1
100
AcDbLine
 10
10637.02520693993
 20
9792.444819195026
 30
0.0
 11
10637.02520693993
 21
9764.444819195025
 31
0.0
  0
LINE
  5
18635
330
747D
100
AcDbEntity
  8
部品1
100
AcDbLine
 10
10217.02520693993
 20
9792.444819195026
 30
0.0
 11
10217.02520693993
 21
9764.444819195025
 31
0.0
  0
LINE
  5
18636
330
747D
100
AcDbEntity
  8
部品1
100
AcDbLine
 10
10036.02520693996
 20
9782.444819195163
 30
0.0
 11
10042.02520693996
 21
9782.444819195163
 31
0.0
  0
LINE
  5
18637
330
747D
100
AcDbEntity
  8
部品1
100
AcDbLine
 10
10042.02520693996
 20
9782.444819195163
 30
0.0
 11
10042.02520693996
 21
9764.444819195164
 31
0.0
  0
LINE
  5
18638
330
747D
100
AcDbEntity
  8
部品1
100
AcDbLine
 10
9972.025206939967
 20
9782.444819195163
 30
0.0
 11
9978.025206939967
 21
9782.444819195163
 31
0.0
  0
LINE
  5
18639
330
747D
100
AcDbEntity
  8
部品1
100
AcDbLine
 10
9972.025206939967
 20
9782.444819195163
 30
0.0
 11
9972.025206939967
 21
9764.444819195164
 31
0.0
  0
LINE
  5
1863A
330
747D
100
AcDbEntity
  8
部品1
100
AcDbLine
 10
9994.525206939968
 20
9756.444819195156
 30
0.0
 11
10019.52520693996
 21
9756.444819195165
 31
0.0
  0
LINE
  5
1863B
330
747D
100
AcDbEntity
  8
部品1
100
AcDbLine
 10
9994.525206939968
 20
9312.444819195166
 30
0.0
 11
10019.52520693996
 21
9312.444819195166
 31
0.0
  0
LINE
  5
1863C
330
747D
100
AcDbEntity
  8
部品1
 48
50.0
100
AcDbLine
 10
10019.52520693996
 20
9764.444819195164
 30
0.0
 11
10019.52520693996
 21
9312.444819195166
 31
0.0
  0
LINE
  5
1863D
330
747D
100
AcDbEntity
  8
部品1
 48
50.0
100
AcDbLine
 10
9994.525206939968
 20
9764.444819195171
 30
0.0
 11
9994.525206939968
 21
9312.444819195166
 31
0.0
  0
LINE
  5
1863E
330
747D
100
AcDbEntity
  8
部品1
 48
50.0
100
AcDbLine
 10
10020.52520693996
 20
9762.444819195156
 30
0.0
 11
10020.52520693996
 21
9312.444819195166
 31
0.0
  0
LINE
  5
1863F
330
747D
100
AcDbEntity
  8
部品1
 48
50.0
100
AcDbLine
 10
9993.525206939967
 20
9762.444819195163
 30
0.0
 11
9993.525206939967
 21
9312.444819195166
 31
0.0
  0
LINE
  5
18640
330
747D
100
AcDbEntity
  8
部品1
100
AcDbLine
 10
9797.025206939935
 20
9792.444819195026
 30
0.0
 11
9797.025206939935
 21
9764.444819195025
 31
0.0
  0
LINE
  5
18641
330
747D
100
AcDbEntity
  8
部品1
100
AcDbLine
 10
9377.025206939935
 20
9792.444819195026
 30
0.0
 11
9377.025206939935
 21
9764.444819195025
 31
0.0
  0
LINE
  5
18642
330
747D
100
AcDbEntity
  8
部品1
100
AcDbLine
 10
8957.025206939935
 20
9792.444819195026
 30
0.0
 11
8957.025206939935
 21
9764.444819195025
 31
0.0
  0
LINE
  5
18643
330
747D
100
AcDbEntity
  8
部品1
100
AcDbLine
 10
11057.02520693997
 20
7582.444819195147
 30
0.0
 11
11057.02520693997
 21
7610.444819195148
 31
0.0
  0
LINE
  5
18644
330
747D
100
AcDbEntity
  8
破線
 48
10.0
100
AcDbLine
 10
10709.52520693994
 20
7662.44481919507
 30
0.0
 11
10032.02520693994
 21
7662.444819195059
 31
0.0
  0
LINE
  5
18645
330
747D
100
AcDbEntity
  8
部品1
100
AcDbLine
 10
8957.025206939936
 20
7582.444819195147
 30
0.0
 11
8957.025206939936
 21
7610.444819195148
 31
0.0
  0
LINE
  5
18646
330
747D
100
AcDbEntity
  8
破線
 48
10.0
100
AcDbLine
 10
9982.025206939944
 20
7662.444819195056
 30
0.0
 11
9304.52520693994
 21
7662.444819195035
 31
0.0
  0
LINE
  5
18647
330
747D
100
AcDbEntity
  8
部品1
 48
50.0
100
AcDbLine
 10
10007.02520693997
 20
9312.444819195166
 30
0.0
 11
10007.02520693999
 21
7638.944819195045
 31
0.0
  0
LINE
  5
18648
330
747D
100
AcDbEntity
  8
破線
 48
10.0
100
AcDbLine
 10
10759.52520693994
 20
7638.944819195059
 30
0.0
 11
10759.52520693994
 21
9312.444819195166
 31
0.0
  0
LINE
  5
18649
330
747D
100
AcDbEntity
  8
破線
 48
10.0
100
AcDbLine
 10
10709.52520693994
 20
7638.944819195057
 30
0.0
 11
10709.52520693994
 21
9312.444819195166
 31
0.0
  0
LINE
  5
1864A
330
747D
100
AcDbEntity
  8
破線
 48
10.0
100
AcDbLine
 10
9304.525206939944
 20
7638.944819195059
 30
0.0
 11
9304.525206939946
 21
9312.444819195166
 31
0.0
  0
LINE
  5
1864B
330
747D
100
AcDbEntity
  8
破線
 48
10.0
100
AcDbLine
 10
9254.525206939945
 20
7638.944819195057
 30
0.0
 11
9254.525206939945
 21
9312.444819195166
 31
0.0
  0
LINE
  5
1864C
330
747D
100
AcDbEntity
  8
破線
 48
10.0
100
AcDbLine
 10
10032.02520693994
 20
7638.944819195059
 30
0.0
 11
10032.02520693994
 21
9312.444819195162
 31
0.0
  0
LINE
  5
1864D
330
747D
100
AcDbEntity
  8
破線
 48
10.0
100
AcDbLine
 10
9982.025206939944
 20
7638.944819195057
 30
0.0
 11
9982.025206939937
 21
9312.444819195166
 31
0.0
  0
LINE
  5
1864E
330
747D
100
AcDbEntity
  8
部品1
100
AcDbLine
 10
10019.52520693996
 20
9764.444819195171
 30
0.0
 11
11504.02520693997
 21
9764.444819195157
 31
0.0
  0
LINE
  5
1864F
330
747D
100
AcDbEntity
  8
細線
 48
50.0
100
AcDbLine
 10
11503.52520693997
 20
9312.444819195158
 30
0.0
 11
10020.52520693996
 21
9762.444819195156
 31
0.0
  0
LINE
  5
18650
330
747D
100
AcDbEntity
  8
部品1
100
AcDbLine
 10
10020.52520693996
 20
9312.444819195166
 30
0.0
 11
11503.52520693997
 21
9312.444819195158
 31
0.0
  0
LINE
  5
18651
330
747D
100
AcDbEntity
  8
部品1
100
AcDbLine
 10
10020.52520693996
 20
9762.444819195163
 30
0.0
 11
11503.52520693997
 21
9762.444819195156
 31
0.0
  0
LINE
  5
18652
330
747D
100
AcDbEntity
  8
細線
 48
50.0
100
AcDbLine
 10
11503.52520693997
 20
9762.444819195156
 30
0.0
 11
10020.52520693996
 21
9312.444819195166
 31
0.0
  0
DIMENSION
  5
18653
330
747D
100
AcDbEntity
  8
寸法
100
AcDbDimension
  2
*D8
 10
11432.59520062129
 20
9047.730431832716
 30
0.0
 11
10532.08891793801
 21
9047.730431832716
 31
0.0
 70
   160
 71
     5
 42
1483.000000000013
  3
INABA_S40G
100
AcDbAlignedDimension
 13
10020.52520693996
 23
9312.444819195231
 33
0.0
 14
11503.52520693997
 24
9312.444819195224
 34
0.0
100
AcDbRotatedDimension
1001
ACAD
1000
DSTYLE
1002
{
1002
}
  0
LINE
  5
18654
330
747D
100
AcDbEntity
  8
破線
 48
10.0
100
AcDbLine
 10
11452.02520693997
 20
7662.444819195143
 30
0.0
 11
10759.52520693994
 21
7662.444819195084
 31
0.0
  0
LINE
  5
18655
330
747D
100
AcDbEntity
  8
部品1
100
AcDbLine
 10
11532.02520693994
 20
7582.444819195147
 30
0.0
 11
11057.02520693997
 21
7582.444819195131
 31
0.0
  0
LINE
  5
18656
330
747D
100
AcDbEntity
  8
部品1
100
AcDbLine
 10
8537.025206939935
 20
9792.444819195026
 30
0.0
 11
8537.025206939935
 21
9764.444819195025
 31
0.0
  0
LINE
  5
18657
330
747D
100
AcDbEntity
  8
部品1
100
AcDbLine
 10
8537.025206939967
 20
9792.444819195061
 30
0.0
 11
8537.025206939967
 21
9764.444819195063
 31
0.0
  0
LINE
  5
18658
330
747D
100
AcDbEntity
  8
部品1
100
AcDbLine
 10
8510.025206939934
 20
9737.444819195033
 30
0.0
 11
8482.025206939935
 21
9737.444819195033
 31
0.0
  0
DIMENSION
  5
18659
330
747D
100
AcDbEntity
  8
寸法
100
AcDbDimension
  2
*D9
 10
8537.025206939967
 20
10292.44481919506
 30
0.0
 11
8173.539925565695
 21
10292.44481919506
 31
0.0
 70
   160
 71
     5
 42
55.00000000003274
  3
INABA_S40G
100
AcDbAlignedDimension
 13
8482.025206939935
 23
9792.444819195061
 33
0.0
 14
8537.025206939967
 24
9792.444819195061
 34
0.0
100
AcDbRotatedDimension
1001
ACAD
1000
DSTYLE
1002
{
1002
}
  0
LINE
  5
1865A
330
747D
100
AcDbEntity
  8
部品1
100
AcDbLine
 10
8510.025206939941
 20
9317.44481919503
 30
0.0
 11
8482.025206939942
 21
9317.44481919503
 31
0.0
  0
LINE
  5
1865B
330
747D
100
AcDbEntity
  8
部品1
100
AcDbLine
 10
8510.025206939941
 20
8897.44481919503
 30
0.0
 11
8482.025206939942
 21
8897.44481919503
 31
0.0
  0
LINE
  5
1865C
330
747D
100
AcDbEntity
  8
部品1
100
AcDbLine
 10
8510.02520693996
 20
9311.944819195032
 30
0.0
 11
8510.025206939968
 21
9764.444819195063
 31
0.0
  0
LINE
  5
1865D
330
747D
100
AcDbEntity
  8
部品1
 48
50.0
100
AcDbLine
 10
8510.525206939897
 20
9762.444819195163
 30
0.0
 11
8510.525206939897
 21
9312.444819195166
 31
0.0
  0
LINE
  5
1865E
330
747D
100
AcDbEntity
  8
部品1
100
AcDbLine
 10
8537.025206939935
 20
7582.444819195147
 30
0.0
 11
8537.025206939935
 21
7610.444819195148
 31
0.0
  0
LINE
  5
1865F
330
747D
100
AcDbEntity
  8
部品1
 48
50.0
100
AcDbLine
 10
8538.525206939956
 20
7638.944819195121
 30
0.0
 11
8510.02520693996
 21
7610.444819195125
 31
0.0
  0
LINE
  5
18660
330
747D
100
AcDbEntity
  8
部品1
100
AcDbLine
 10
8482.02520693996
 20
7637.444819194979
 30
0.0
 11
8482.025206939962
 21
7582.444819194982
 31
0.0
  0
LINE
  5
18661
330
747D
100
AcDbEntity
  8
部品1
100
AcDbLine
 10
8510.025206939943
 20
7637.444819194979
 30
0.0
 11
8482.02520693996
 21
7637.444819194979
 31
0.0
  0
LINE
  5
18662
330
747D
100
AcDbEntity
  8
部品1
100
AcDbLine
 10
8510.025206939943
 20
7637.444819195017
 30
0.0
 11
8482.02520693996
 21
7637.444819195017
 31
0.0
  0
LINE
  5
18663
330
747D
100
AcDbEntity
  8
部品1
100
AcDbLine
 10
8510.02520693996
 20
7637.444819195031
 30
0.0
 11
8482.02520693996
 21
7637.444819195031
 31
0.0
  0
LINE
  5
18664
330
747D
100
AcDbEntity
  8
部品1
100
AcDbLine
 10
8538.525206939945
 20
9312.444819195107
 30
0.0
 11
8538.525206939956
 21
7638.944819195121
 31
0.0
  0
LINE
  5
18665
330
747D
100
AcDbEntity
  8
部品1
100
AcDbLine
 10
8482.025206939935
 20
9792.444819195026
 30
0.0
 11
8482.025206939962
 21
7582.444819195017
 31
0.0
  0
LINE
  5
18666
330
747D
100
AcDbEntity
  8
部品1
100
AcDbLine
 10
8510.025206939941
 20
7610.444819195106
 30
0.0
 11
8510.02520693996
 21
9317.44481919503
 31
0.0
  0
LINE
  5
18667
330
747D
100
AcDbEntity
  8
破線
 48
10.0
100
AcDbLine
 10
8562.025206939942
 20
9312.444819195158
 30
0.0
 11
8562.025206939955
 21
7662.444819195027
 31
0.0
  0
LINE
  5
18668
330
747D
100
AcDbEntity
  8
部品1
 48
50.0
100
AcDbLine
 10
8510.025206939962
 20
7610.444819195129
 30
0.0
 11
11504.02520693998
 21
7610.444819195132
 31
0.0
  0
LINE
  5
18669
330
747D
100
AcDbEntity
  8
部品1
100
AcDbLine
 10
11475.52520693995
 20
8897.444819195127
 30
0.0
 11
8538.525206939953
 21
8897.44481919503
 31
0.0
  0
LINE
  5
1866B
330
747D
100
AcDbEntity
  8
部品1
100
AcDbLine
 10
8482.025206939967
 20
9792.444819195061
 30
0.0
 11
11532.02520693997
 21
9792.444819195157
 31
0.0
  0
LINE
  5
1866C
330
747D
100
AcDbEntity
  8
部品1
100
AcDbLine
 10
11475.52520693997
 20
7638.944819195147
 30
0.0
 11
8538.525206939862
 21
7638.944819195026
 31
0.0
  0
DIMENSION
  5
1866D
330
747D
100
AcDbEntity
  8
寸法
100
AcDbDimension
  2
*D10
 10
11477.02520693997
 20
10292.44481919511
 30
0.0
 11
10007.02520693997
 21
10292.44481919511
 31
0.0
 70
   160
  1
7X420=<>
 71
     5
 42
2940.000000000002
  3
INABA_S40G
100
AcDbAlignedDimension
 13
8537.025206939967
 23
9792.444819195061
 33
0.0
 14
11477.02520693997
 24
9792.444819195154
 34
0.0
100
AcDbRotatedDimension
1001
ACAD
1000
DSTYLE
1002
{
1002
}
  0
DIMENSION
  5
1866E
330
747D
100
AcDbEntity
  8
寸法
100
AcDbDimension
  2
*D11
 10
9922.595200621294
 20
9047.730431832716
 30
0.0
 11
9070.210757770681
 21
9047.730431832716
 31
0.0
 70
   160
 71
     5
 42
1483.000000000071
  3
INABA_S40G
100
AcDbAlignedDimension
 13
8510.52520693989
 23
9312.444819195173
 33
0.0
 14
9993.525206939962
 24
9312.444819195166
 34
0.0
100
AcDbRotatedDimension
1001
ACAD
1000
DSTYLE
1002
{
1002
}
  0
LINE
  5
1866F
330
747D
100
AcDbEntity
  8
破線
 48
10.0
100
AcDbLine
 10
9254.525206939945
 20
7662.444819195016
 30
0.0
 11
8562.025206939955
 21
7662.444819195027
 31
0.0
  0
LINE
  5
18670
330
747D
100
AcDbEntity
  8
部品1
100
AcDbLine
 10
8957.025206939936
 20
7582.444819195017
 30
0.0
 11
8482.025206939962
 21
7582.444819195017
 31
0.0
  0
LINE
  5
18671
330
747D
100
AcDbEntity
  8
部品1
100
AcDbLine
 10
8510.525206939897
 20
9312.444819195107
 30
0.0
 11
9993.525206939967
 21
9312.444819195166
 31
0.0
  0
LINE
  5
18672
330
747D
100
AcDbEntity
  8
部品1
100
AcDbLine
 10
8510.525206939897
 20
9762.444819195104
 30
0.0
 11
9993.525206939967
 21
9762.444819195163
 31
0.0
  0
LINE
  5
18673
330
747D
100
AcDbEntity
  8
部品1
100
AcDbLine
 10
8537.025206939967
 20
9764.444819195178
 30
0.0
 11
9994.525206939968
 21
9764.444819195178
 31
0.0
  0
LINE
  5
18674
330
747D
100
AcDbEntity
  8
細線
 48
50.0
100
AcDbLine
 10
9993.525206939967
 20
9762.444819195163
 30
0.0
 11
8510.525206939897
 21
9312.444819195107
 31
0.0
  0
LINE
  5
18675
330
747D
100
AcDbEntity
  8
細線
 48
50.0
100
AcDbLine
 10
9993.525206939967
 20
9312.444819195166
 30
0.0
 11
8510.525206939897
 21
9762.444819195104
 31
0.0
  0
LINE
  5
18676
330
747D
100
AcDbEntity
  8
部品1
100
AcDbLine
 10
8510.025206939968
 20
9764.444819195063
 30
0.0
 11
9482.025206939967
 21
9764.444819195063
 31
0.0
  0
LINE
  5
18677
330
747D
100
AcDbEntity
  8
部品1
 48
50.0
100
AcDbLine
 10
10634.02520693996
 20
2133.44884733232
 30
0.0
 11
10634.02520693996
 21
2033.44884733232
 31
0.0
  0
LINE
  5
18678
330
747D
100
AcDbEntity
  8
部品1
 48
50.0
100
AcDbLine
 10
10834.02520693996
 20
2133.44884733232
 30
0.0
 11
10834.02520693996
 21
2033.44884733232
 31
0.0
  0
LINE
  5
18679
330
747D
100
AcDbEntity
  8
部品1
100
AcDbLine
 10
11477.02520693996
 20
4273.44884733232
 30
0.0
 11
11477.02520693996
 21
2183.44884733234
 31
0.0
  0
LINE
  5
1867A
330
747D
100
AcDbEntity
  8
部品1
100
AcDbLine
 10
11084.02520693996
 20
2183.44884733234
 30
0.0
 11
11532.02520693995
 21
2183.44884733234
 31
0.0
  0
LINE
  5
1867B
330
747D
100
AcDbEntity
  8
破線
 48
5.0
100
AcDbLine
 10
11557.02520693995
 20
1878.44884733232
 30
0.0
 11
11537.02520693995
 21
1878.44884733232
 31
0.0
  0
LINE
  5
1867C
330
747D
100
AcDbEntity
  8
破線
 48
5.0
100
AcDbLine
 10
11537.02520693995
 20
2033.44884733232
 30
0.0
 11
11537.02520693995
 21
1878.44884733232
 31
0.0
  0
LINE
  5
1867D
330
747D
100
AcDbEntity
  8
部品1
100
AcDbLine
 10
11537.02520693995
 20
2178.44884733232
 30
0.0
 11
11537.02520693995
 21
2033.44884733232
 31
0.0
  0
LINE
  5
1867E
330
747D
100
AcDbEntity
  8
部品1
100
AcDbLine
 10
11532.02520693996
 20
4326.94884733232
 30
0.0
 11
11532.02520693995
 21
2033.44884733232
 31
0.0
  0
LINE
  5
1867F
330
747D
100
AcDbEntity
  8
部品1
100
AcDbLine
 10
11132.02520693995
 20
2133.44884733232
 30
0.0
 11
11132.02520693995
 21
2033.44884733232
 31
0.0
  0
LINE
  5
18680
330
747D
100
AcDbEntity
  8
部品1
 48
50.0
100
AcDbLine
 10
10107.02520693996
 20
2133.44884733232
 30
0.0
 11
10107.02520693996
 21
2033.44884733232
 31
0.0
  0
LINE
  5
18681
330
747D
100
AcDbEntity
  8
部品1
 48
50.0
100
AcDbLine
 10
9907.025206939957
 20
2133.44884733232
 30
0.0
 11
9907.025206939957
 21
2033.44884733232
 31
0.0
  0
LINE
  5
18682
330
747D
100
AcDbEntity
  8
部品1
 48
50.0
100
AcDbLine
 10
9380.025206939958
 20
2133.44884733232
 30
0.0
 11
9380.025206939958
 21
2033.44884733232
 31
0.0
  0
LINE
  5
18683
330
747D
100
AcDbEntity
  8
部品1
 48
50.0
100
AcDbLine
 10
9180.025206939957
 20
2133.44884733232
 30
0.0
 11
9180.025206939957
 21
2033.44884733232
 31
0.0
  0
LINE
  5
18684
330
747D
100
AcDbEntity
  8
部品1
100
AcDbLine
 10
8482.025206939956
 20
2183.44884733234
 30
0.0
 11
8930.025206939959
 21
2183.44884733234
 31
0.0
  0
LINE
  5
18685
330
747D
100
AcDbEntity
  8
部品1
100
AcDbLine
 10
8882.025206939957
 20
2133.44884733232
 30
0.0
 11
8882.025206939957
 21
2033.44884733232
 31
0.0
  0
LINE
  5
18686
330
747D
100
AcDbEntity
  8
破線
 48
5.0
100
AcDbLine
 10
8457.025206939958
 20
1878.44884733232
 30
0.0
 11
8477.025206939959
 21
1878.44884733232
 31
0.0
  0
LINE
  5
18687
330
747D
100
AcDbEntity
  8
破線
 48
5.0
100
AcDbLine
 10
8477.025206939957
 20
2033.44884733232
 30
0.0
 11
8477.025206939957
 21
1878.44884733232
 31
0.0
  0
LINE
  5
18688
330
747D
100
AcDbEntity
  8
部品1
100
AcDbLine
 10
8477.025206939957
 20
2178.448847332322
 30
0.0
 11
8477.025206939957
 21
2033.44884733232
 31
0.0
  0
LINE
  5
18689
330
747D
100
AcDbEntity
  8
部品1
100
AcDbLine
 10
8482.025206939956
 20
4326.94884733232
 30
0.0
 11
8482.025206939956
 21
2033.44884733232
 31
0.0
  0
LINE
  5
1868A
330
747D
100
AcDbEntity
  8
部品1
 48
50.0
100
AcDbLine
 10
8537.02520693996
 20
2183.44884733234
 30
0.0
 11
8537.02520693996
 21
4273.44884733232
 31
0.0
  0
LINE
  5
1868B
330
747D
100
AcDbEntity
  8
部品1
100
AcDbLine
 10
8482.025206939956
 20
2133.44884733232
 30
0.0
 11
11532.02520693995
 21
2133.44884733232
 31
0.0
  0
LINE
  5
1868C
330
747D
100
AcDbEntity
  8
部品1
100
AcDbLine
 10
8482.025206939956
 20
4273.44884733232
 30
0.0
 11
11532.02520693995
 21
4273.44884733232
 31
0.0
  0
LINE
  5
1868D
330
747D
100
AcDbEntity
  8
部品1
 48
50.0
100
AcDbLine
 10
8510.02520693996
 20
2133.44884733232
 30
0.0
 11
11084.02520693996
 21
2133.44884733232
 31
0.0
  0
LINE
  5
1868E
330
747D
100
AcDbEntity
  8
部品1
100
AcDbLine
 10
8482.025206939956
 20
4273.44884733232
 30
0.0
 11
11532.02520693995
 21
4273.44884733232
 31
0.0
  0
DIMENSION
  5
1868F
330
747D
100
AcDbEntity
  8
寸法
 48
50.0
100
AcDbDimension
  2
*D12
 10
8174.281921872085
 20
2191.44884733232
 30
0.0
 11
8174.281921872085
 21
3229.279706451278
 31
0.0
 70
   160
  1
有効開口部高サ<>
 71
     5
 42
2024.999999999999
  3
INABA_S40G
100
AcDbAlignedDimension
 13
8930.025206939959
 23
4216.448847332318
 33
0.0
 14
8930.025206939959
 24
2191.44884733232
 34
0.0
 50
90.0
100
AcDbRotatedDimension
  0
LINE
  5
18690
330
747D
100
AcDbEntity
  8
部品1
100
AcDbLine
 10
10388.76054005417
 20
1344.410584354909
 30
0.0
 11
9625.289873825739
 21
1344.410584354909
 31
0.0
  0
LINE
  5
18691
330
747D
100
AcDbEntity
  8
部品1
100
AcDbLine
 10
10388.76054005417
 20
1104.518262809377
 30
0.0
 11
10388.76054005417
 21
1344.410584354909
 31
0.0
  0
LINE
  5
18692
330
747D
100
AcDbEntity
  8
部品1
100
AcDbLine
 10
9625.289873825739
 20
1104.518262809377
 30
0.0
 11
10388.76054005417
 21
1104.518262809377
 31
0.0
  0
LINE
  5
18693
330
747D
100
AcDbEntity
  8
部品1
100
AcDbLine
 10
9625.289873825739
 20
1344.410584354909
 30
0.0
 11
9625.289873825739
 21
1104.518262809377
 31
0.0
  0
TEXT
  5
18699
330
747D
100
AcDbEntity
  8
部品1
100
AcDbText
 10
9715.815277563693
 20
1151.517055136386
 30
0.0
 40
135.0
  1
正面図
  7
STYLE2
100
AcDbText
  0
LINE
  5
1869A
330
747D
100
AcDbEntity
  8
Ｇ．Ｌ
100
AcDbLine
 10
2261.670905545099
 20
2033.44884733232
 30
0.0
 11
12155.3377599688
 21
2033.44884733232
 31
0.0
  0
LINE
  5
1869B
330
747D
100
AcDbEntity
  8
部品1
100
AcDbLine
 10
11475.52520693995
 20
8057.444819195129
 30
0.0
 11
8538.525206939953
 21
8057.444819195032
 31
0.0
  0
LINE
  5
1869C
330
747D
100
AcDbEntity
  8
部品1
100
AcDbLine
 10
8510.025206939941
 20
8057.444819195032
 30
0.0
 11
8482.025206939942
 21
8057.444819195032
 31
0.0
  0
LINE
  5
1869D
330
747D
100
AcDbEntity
  8
部品1
100
AcDbLine
 10
11504.02520693997
 20
8057.444819195158
 30
0.0
 11
11532.02520693997
 21
8057.444819195158
 31
0.0
  0
DIMENSION
  5
1869E
330
747D
100
AcDbEntity
  8
寸法
 48
50.0
100
AcDbDimension
  2
*D13
 10
8372.025206939957
 20
1547.401518031942
 30
0.0
 11
8472.025206939958
 21
1547.401518031942
 31
0.0
 70
   160
 71
     5
 42
200.0000000000018
  3
INABA_S40G
100
AcDbAlignedDimension
 13
8572.02520693996
 23
1833.44884733232
 33
0.0
 14
8372.025206939957
 24
1833.44884733232
 34
0.0
100
AcDbRotatedDimension
  0
LINE
  5
18A8C
330
747D
100
AcDbEntity
  8
補助
  6
PHANTOM
 62
   230
 48
50.0
100
AcDbLine
 10
140.0
 20
0.0
 30
0.0
 11
140.0
 21
11409.6
 31
0.0
  0
LINE
  5
18D62
330
747D
100
AcDbEntity
  8
部品1
 48
50.0
100
AcDbLine
 10
9004.02520693996
 20
3264.948847332322
 30
0.0
 11
9057.025206939959
 21
3264.948847332322
 31
0.0
  0
LINE
  5
18FC2
330
747D
100
AcDbEntity
  8
寸法
 48
50.0
100
AcDbLine
 10
9392.228213221782
 20
7360.481570763879
 30
0.0
 11
9340.822205311679
 21
7360.481570763879
 31
0.0
  0
LINE
  5
18FC3
330
747D
100
AcDbEntity
  8
寸法
 48
50.0
100
AcDbLine
 10
9340.822205311679
 20
7360.481570763879
 30
0.0
 11
9340.822205311679
 21
7391.791729416046
 31
0.0
  0
LINE
  5
18FC4
330
747D
100
AcDbEntity
  8
寸法
 48
50.0
100
AcDbLine
 10
9340.822205311679
 20
7391.791729416046
 30
0.0
 11
9311.060873320256
 21
7391.791729416046
 31
0.0
  0
LINE
  5
18FC5
330
747D
100
AcDbEntity
  8
寸法
 48
50.0
100
AcDbLine
 10
9311.060873320256
 20
7391.791729416046
 30
0.0
 11
9366.525209266731
 21
7429.371180344656
 31
0.0
  0
LINE
  5
18FC6
330
747D
100
AcDbEntity
  8
寸法
 48
50.0
100
AcDbLine
 10
9421.989545213206
 20
7391.791729416046
 30
0.0
 11
9366.525209266731
 21
7429.371180344656
 31
0.0
  0
LINE
  5
18FC7
330
747D
100
AcDbEntity
  8
寸法
 48
50.0
100
AcDbLine
 10
9392.228213221782
 20
7391.791729416046
 30
0.0
 11
9421.989545213206
 21
7391.791729416046
 31
0.0
  0
LINE
  5
18FC8
330
747D
100
AcDbEntity
  8
寸法
 48
50.0
100
AcDbLine
 10
9392.228213221782
 20
7360.481570763879
 30
0.0
 11
9392.228213221782
 21
7391.791729416046
 31
0.0
  0
LINE
  5
18FC9
330
747D
100
AcDbEntity
  8
寸法
 48
50.0
100
AcDbLine
 10
9340.822205311679
 20
7360.481570763879
 30
0.0
 11
9392.228213221782
 21
7360.481570763879
 31
0.0
  0
LINE
  5
18FCA
330
747D
100
AcDbEntity
  8
寸法
 48
50.0
100
AcDbLine
 10
9671.39374749864
 20
7417.627161518701
 30
0.0
 11
9671.39374749864
 21
7363.963526936912
 31
0.0
  0
LINE
  5
18FCB
330
747D
100
AcDbEntity
  8
寸法
 48
50.0
100
AcDbLine
 10
9760.677966094062
 20
7393.703527249215
 30
0.0
 11
9671.39374749864
 21
7417.627161518701
 31
0.0
  0
LINE
  5
18FCC
330
747D
100
AcDbEntity
  8
寸法
 48
50.0
100
AcDbLine
 10
9541.526025918335
 20
7393.703527249215
 30
0.0
 11
9760.677966094062
 21
7393.703527249215
 31
0.0
  0
LINE
  5
18FCD
330
747D
100
AcDbEntity
  8
細線
 48
50.0
100
AcDbLine
 10
10418.02520693994
 20
7558.944934143742
 30
0.0
 11
11045.02520693994
 21
7558.944934143742
 31
0.0
  0
LINE
  5
18FCE
330
747D
100
AcDbEntity
  8
細線
 48
50.0
100
AcDbLine
 10
9764.025211593526
 20
7525.236165589666
 30
0.0
 11
11045.02520693994
 21
7525.236165589666
 31
0.0
  0
LINE
  5
18FCF
330
747D
100
AcDbEntity
  8
細線
 48
50.0
100
AcDbLine
 10
9723.025211593531
 20
7554.641073585919
 30
0.0
 11
8969.025206939937
 21
7554.641073585916
 31
0.0
  0
LINE
  5
18FD0
330
747D
100
AcDbEntity
  8
細線
100
AcDbLine
 10
10820.77519752348
 20
7578.44483410875
 30
0.0
 11
10823.10673704529
 21
7583.444836748711
 31
0.0
  0
LINE
  5
18FD1
330
747D
100
AcDbEntity
  8
細線
100
AcDbLine
 10
10890.77520693994
 20
7578.444819195016
 30
0.0
 11
10888.44366046375
 21
7583.444836748697
 31
0.0
  0
LINE
  5
18FD2
330
747D
100
AcDbEntity
  8
細線
100
AcDbLine
 10
10888.44366046375
 20
7583.444836748697
 30
0.0
 11
10823.10673704527
 21
7583.444836748682
 31
0.0
  0
LINE
  5
18FD3
330
747D
100
AcDbEntity
  8
細線
100
AcDbLine
 10
10748.44366046375
 20
7583.444836748697
 30
0.0
 11
10683.10673704528
 21
7583.444836748682
 31
0.0
  0
LINE
  5
18FD4
330
747D
100
AcDbEntity
  8
細線
100
AcDbLine
 10
10750.77520693994
 20
7578.444819195016
 30
0.0
 11
10748.44366046375
 21
7583.444836748697
 31
0.0
  0
LINE
  5
18FD5
330
747D
100
AcDbEntity
  8
細線
100
AcDbLine
 10
10680.77519752348
 20
7578.44483410875
 30
0.0
 11
10683.10673704529
 21
7583.444836748711
 31
0.0
  0
LINE
  5
18FD6
330
747D
100
AcDbEntity
  8
細線
100
AcDbLine
 10
10540.77520693994
 20
7578.444819195016
 30
0.0
 11
10543.10674646175
 21
7583.444821834977
 31
0.0
  0
LINE
  5
18FD7
330
747D
100
AcDbEntity
  8
細線
100
AcDbLine
 10
10610.7752163564
 20
7578.444804281282
 30
0.0
 11
10608.44366988021
 21
7583.444821834962
 31
0.0
  0
LINE
  5
18FD8
330
747D
100
AcDbEntity
  8
細線
100
AcDbLine
 10
10608.44366988021
 20
7583.444821834962
 30
0.0
 11
10543.10674646173
 21
7583.444821834948
 31
0.0
  0
LINE
  5
18FD9
330
747D
100
AcDbEntity
  8
細線
100
AcDbLine
 10
10313.19369112904
 20
7549.444858532344
 30
0.0
 11
10247.85676771057
 21
7549.444858532329
 31
0.0
  0
LINE
  5
18FDA
330
747D
100
AcDbEntity
  8
細線
100
AcDbLine
 10
10315.52523760523
 20
7544.444840978664
 30
0.0
 11
10313.19369112904
 21
7549.444858532344
 31
0.0
  0
LINE
  5
18FDB
330
747D
100
AcDbEntity
  8
細線
100
AcDbLine
 10
10245.52522818877
 20
7544.444855892398
 30
0.0
 11
10247.85676771058
 21
7549.44485853236
 31
0.0
  0
LINE
  5
18FDC
330
747D
100
AcDbEntity
  8
細線
 48
50.0
100
AcDbLine
 10
10086.90858618795
 20
7562.715682348096
 30
0.0
 11
10092.66410377062
 21
7544.44483105761
 31
0.0
  0
LINE
  5
18FDD
330
747D
100
AcDbEntity
  8
細線
 48
50.0
100
AcDbLine
 10
10075.98013770752
 20
7562.715682348096
 30
0.0
 11
10086.90858618795
 21
7562.715682348096
 31
0.0
  0
ARC
  5
18FDE
330
747D
100
AcDbEntity
  8
細線
 48
50.0
100
AcDbCircle
 10
10070.5257816502
 20
7564.215682348096
 30
0.0
 40
5.0
100
AcDbArc
 50
204.6243183521304
 51
335.3756816478695
  0
ARC
  5
18FDF
330
747D
100
AcDbEntity
  8
細線
 48
50.0
100
AcDbCircle
 10
10075.98013770752
 20
7561.715682348097
 30
0.0
 40
1.0
100
AcDbArc
 50
90.0
 51
155.3756816478695
  0
ARC
  5
18FE0
330
747D
100
AcDbEntity
  8
細線
 48
50.0
100
AcDbCircle
 10
10065.07142559288
 20
7561.715682348097
 30
0.0
 40
1.0
100
AcDbArc
 50
24.62431835213048
 51
90.0
  0
LINE
  5
18FE1
330
747D
100
AcDbEntity
  8
細線
 48
50.0
100
AcDbLine
 10
10054.14297711245
 20
7562.715682348096
 30
0.0
 11
10065.07142559288
 21
7562.715682348096
 31
0.0
  0
LINE
  5
18FE2
330
747D
100
AcDbEntity
  8
細線
 48
50.0
100
AcDbLine
 10
10048.38745952978
 20
7544.444831057602
 30
0.0
 11
10054.14297711245
 21
7562.715682348096
 31
0.0
  0
LINE
  5
18FE3
330
747D
100
AcDbEntity
  8
細線
100
AcDbLine
 10
10105.52522941981
 20
7544.444828423407
 30
0.0
 11
10107.85676894163
 21
7549.444831063368
 31
0.0
  0
LINE
  5
18FE4
330
747D
100
AcDbEntity
  8
細線
100
AcDbLine
 10
10175.52523883628
 20
7544.444813509674
 30
0.0
 11
10173.19369236008
 21
7549.444831063353
 31
0.0
  0
LINE
  5
18FE5
330
747D
100
AcDbEntity
  8
細線
100
AcDbLine
 10
10173.19369236008
 20
7549.444831063353
 30
0.0
 11
10107.85676894161
 21
7549.444831063339
 31
0.0
  0
LINE
  5
18FE6
330
747D
100
AcDbEntity
  8
細線
100
AcDbLine
 10
10033.19366399557
 20
7549.444831057574
 30
0.0
 11
9967.856740577094
 21
7549.444831057559
 31
0.0
  0
LINE
  5
18FE7
330
747D
100
AcDbEntity
  8
細線
100
AcDbLine
 10
10035.52521047175
 20
7544.444813503893
 30
0.0
 11
10033.19366399557
 21
7549.444831057574
 31
0.0
  0
LINE
  5
18FE8
330
747D
100
AcDbEntity
  8
細線
100
AcDbLine
 10
9965.525202286341
 20
7544.444831057602
 30
0.0
 11
9967.85674057711
 21
7549.444831057588
 31
0.0
  0
LINE
  5
18FE9
330
747D
100
AcDbEntity
  8
細線
100
AcDbLine
 10
9825.525237605233
 20
7544.444839244973
 30
0.0
 11
9827.856775896
 21
7549.444839244959
 31
0.0
  0
LINE
  5
18FEA
330
747D
100
AcDbEntity
  8
細線
100
AcDbLine
 10
9895.525245790649
 20
7544.444821691262
 30
0.0
 11
9893.193699314462
 21
7549.44483924494
 31
0.0
  0
LINE
  5
18FEB
330
747D
100
AcDbEntity
  8
細線
100
AcDbLine
 10
9893.193699314462
 20
7549.44483924494
 30
0.0
 11
9827.856775895986
 21
7549.444839244928
 31
0.0
  0
LINE
  5
18FEC
330
747D
100
AcDbEntity
  8
細線
100
AcDbLine
 10
9454.025203408113
 20
7510.445010925685
 30
0.0
 11
9456.356741698879
 21
7515.44501092567
 31
0.0
  0
LINE
  5
18FED
330
747D
100
AcDbEntity
  8
細線
100
AcDbLine
 10
9524.025211593528
 20
7510.444993371972
 30
0.0
 11
9521.693665117339
 21
7515.445010925649
 31
0.0
  0
LINE
  5
18FEE
330
747D
100
AcDbEntity
  8
細線
100
AcDbLine
 10
9521.693665117339
 20
7515.445010925649
 30
0.0
 11
9456.356741698867
 21
7515.445010925642
 31
0.0
  0
LINE
  5
18FEF
330
747D
100
AcDbEntity
  8
細線
100
AcDbLine
 10
9661.69366511734
 20
7515.445010925649
 30
0.0
 11
9596.356741698867
 21
7515.445010925642
 31
0.0
  0
LINE
  5
18FF0
330
747D
100
AcDbEntity
  8
細線
100
AcDbLine
 10
9664.025211593527
 20
7510.444993371972
 30
0.0
 11
9661.69366511734
 21
7515.445010925649
 31
0.0
  0
LINE
  5
18FF1
330
747D
100
AcDbEntity
  8
細線
100
AcDbLine
 10
9594.025203408111
 20
7510.445010925685
 30
0.0
 11
9596.35674169888
 21
7515.44501092567
 31
0.0
  0
LINE
  5
18FF2
330
747D
100
AcDbEntity
  8
細線
100
AcDbLine
 10
9381.693665117341
 20
7515.445010925649
 30
0.0
 11
9316.356741698868
 21
7515.445010925637
 31
0.0
  0
LINE
  5
18FF3
330
747D
100
AcDbEntity
  8
細線
100
AcDbLine
 10
9384.025211593527
 20
7510.444993371972
 30
0.0
 11
9381.693665117341
 21
7515.445010925649
 31
0.0
  0
LINE
  5
18FF4
330
747D
100
AcDbEntity
  8
細線
100
AcDbLine
 10
9314.025203408112
 20
7510.445010925682
 30
0.0
 11
9316.35674169888
 21
7515.445010925667
 31
0.0
  0
LINE
  5
18FF5
330
747D
100
AcDbEntity
  8
細線
100
AcDbLine
 10
9174.025211593528
 20
7510.445010925685
 30
0.0
 11
9176.356749884295
 21
7515.44501092567
 31
0.0
  0
LINE
  5
18FF6
330
747D
100
AcDbEntity
  8
細線
100
AcDbLine
 10
9244.025219778944
 20
7510.444993371972
 30
0.0
 11
9241.693673302755
 21
7515.445010925649
 31
0.0
  0
LINE
  5
18FF7
330
747D
100
AcDbEntity
  8
細線
100
AcDbLine
 10
9241.693673302755
 20
7515.445010925649
 30
0.0
 11
9176.356749884284
 21
7515.445010925642
 31
0.0
  0
ARC
  5
18FF8
330
747D
100
AcDbEntity
  8
部品1
 48
0.01
100
AcDbCircle
 10
9129.525100341192
 20
7509.443888740612
 30
0.0
 40
0.5
100
AcDbArc
 50
270.0
 51
0.0
  0
LINE
  5
18FF9
330
747D
100
AcDbEntity
  8
部品1
 48
0.01
100
AcDbLine
 10
9130.025100341192
 20
7510.443888740612
 30
0.0
 11
9130.025100341192
 21
7509.443888740612
 31
0.0
  0
LINE
  5
18FFA
330
747D
100
AcDbEntity
  8
部品1
 48
0.01
100
AcDbLine
 10
9130.025100341192
 20
7510.443888740612
 30
0.0
 11
9130.025100341192
 21
7509.443888740612
 31
0.0
  0
LINE
  5
18FFB
330
747D
100
AcDbEntity
  8
部品1
 48
0.01
100
AcDbLine
 10
9129.525100341192
 20
7508.943888740612
 30
0.0
 11
9122.912594911127
 21
7508.943888740612
 31
0.0
  0
ARC
  5
18FFC
330
747D
100
AcDbEntity
  8
部品1
100
AcDbCircle
 10
9122.980944463909
 20
7509.943888740612
 30
0.0
 40
1.0
100
AcDbArc
 50
160.5287793655778
 51
270.0
  0
ARC
  5
18FFD
330
747D
100
AcDbEntity
  8
部品1
100
AcDbCircle
 10
9097.525100341192
 20
7518.943888740612
 30
0.0
 40
26.0
100
AcDbArc
 50
340.5287793655779
 51
0.0
  0
LINE
  5
18FFE
330
747D
100
AcDbEntity
  8
部品1
100
AcDbLine
 10
9123.525100341192
 20
7518.943888740612
 30
0.0
 11
9123.525100341192
 21
7523.943888740612
 31
0.0
  0
ARC
  5
18FFF
330
747D
100
AcDbEntity
  8
部品1
 48
0.01
100
AcDbCircle
 10
9121.525100341193
 20
7523.943888740612
 30
0.0
 40
2.0
100
AcDbArc
 50
0.0
 51
90.0
  0
ARC
  5
19000
330
747D
100
AcDbEntity
  8
部品1
100
AcDbCircle
 10
9119.916708716383
 20
7522.943888740612
 30
0.0
 40
3.0
100
AcDbArc
 50
90.0
 51
141.6069559807873
  0
LINE
  5
19001
330
747D
100
AcDbEntity
  8
部品1
 48
0.01
100
AcDbLine
 10
9121.525100341193
 20
7525.943888740612
 30
0.0
 11
9119.916708716383
 21
7525.943888740612
 31
0.0
  0
ARC
  5
19002
330
747D
100
AcDbEntity
  8
部品1
100
AcDbCircle
 10
9101.454386126922
 20
7522.243888740615
 30
0.0
 40
3.0
100
AcDbArc
 50
254.0576313943215
 51
270.0
  0
ARC
  5
19003
330
747D
100
AcDbEntity
  8
部品1
100
AcDbCircle
 10
9108.595814555462
 20
7522.243888740615
 30
0.0
 40
3.0
100
AcDbArc
 50
270.0
 51
285.9423686056786
  0
LINE
  5
19004
330
747D
100
AcDbEntity
  8
部品1
100
AcDbLine
 10
9108.595814555462
 20
7519.243888740615
 30
0.0
 11
9101.454386126922
 21
7519.243888740615
 31
0.0
  0
ARC
  5
19005
330
747D
100
AcDbEntity
  8
部品1
100
AcDbCircle
 10
9105.025100341192
 20
7534.743888740615
 30
0.0
 40
16.0
100
AcDbArc
 50
285.9423686056786
 51
321.6069559807873
  0
LINE
  5
19006
330
747D
100
AcDbEntity
  8
部品1
 48
0.01
100
AcDbLine
 10
9088.525100341191
 20
7525.943888740612
 30
0.0
 11
9090.133491966001
 21
7525.943888740612
 31
0.0
  0
ARC
  5
19007
330
747D
100
AcDbEntity
  8
部品1
100
AcDbCircle
 10
9090.133491966001
 20
7522.943888740612
 30
0.0
 40
3.0
100
AcDbArc
 50
38.39304401921267
 51
90.0
  0
ARC
  5
19008
330
747D
100
AcDbEntity
  8
部品1
100
AcDbCircle
 10
9105.025100341192
 20
7534.743888740615
 30
0.0
 40
16.0
100
AcDbArc
 50
218.3930440192126
 51
254.0576313943215
  0
LINE
  5
19009
330
747D
100
AcDbEntity
  8
部品1
100
AcDbLine
 10
9086.525100341193
 20
7518.943888740612
 30
0.0
 11
9086.525100341193
 21
7523.943888740612
 31
0.0
  0
ARC
  5
1900A
330
747D
100
AcDbEntity
  8
部品1
 48
0.01
100
AcDbCircle
 10
9088.525100341191
 20
7523.943888740612
 30
0.0
 40
2.0
100
AcDbArc
 50
90.0
 51
180.0
  0
ARC
  5
1900B
330
747D
100
AcDbEntity
  8
部品1
100
AcDbCircle
 10
9112.525100341192
 20
7518.943888740612
 30
0.0
 40
26.0
100
AcDbArc
 50
180.0
 51
199.4712206344221
  0
ARC
  5
1900C
330
747D
100
AcDbEntity
  8
部品1
 48
0.01
100
AcDbCircle
 10
9080.525100341192
 20
7509.443888740612
 30
0.0
 40
0.5
100
AcDbArc
 50
180.0
 51
270.0
  0
LINE
  5
1900D
330
747D
100
AcDbEntity
  8
部品1
 48
0.01
100
AcDbLine
 10
9080.525100341192
 20
7508.943888740612
 30
0.0
 11
9087.069256218475
 21
7508.943888740612
 31
0.0
  0
LINE
  5
1900E
330
747D
100
AcDbEntity
  8
部品1
 48
0.01
100
AcDbLine
 10
9080.025100341194
 20
7510.443888740612
 30
0.0
 11
9080.025100341194
 21
7509.443888740612
 31
0.0
  0
ARC
  5
1900F
330
747D
100
AcDbEntity
  8
部品1
100
AcDbCircle
 10
9087.069256218475
 20
7509.943888740612
 30
0.0
 40
1.0
100
AcDbArc
 50
270.0
 51
19.47122063442214
  0
LINE
  5
19010
330
747D
100
AcDbEntity
  8
細線
100
AcDbLine
 10
9125.525100341199
 20
7528.443888740615
 30
0.0
 11
9084.525100341201
 21
7528.443888740608
 31
0.0
  0
LINE
  5
19011
330
747D
100
AcDbEntity
  8
細線
100
AcDbLine
 10
9084.525100341201
 20
7528.443888740608
 30
0.0
 11
9084.525100341201
 21
7510.44388874059
 31
0.0
  0
LINE
  5
19012
330
747D
100
AcDbEntity
  8
細線
100
AcDbLine
 10
9125.525100341199
 20
7528.443888740615
 30
0.0
 11
9125.525100341199
 21
7510.44388874059
 31
0.0
  0
LINE
  5
19013
330
747D
100
AcDbEntity
  8
細線
100
AcDbLine
 10
8969.025206939937
 20
7514.444819195016
 30
0.0
 11
8969.025206939937
 21
7510.444819195064
 31
0.0
  0
DIMENSION
  5
19014
330
747D
100
AcDbEntity
  8
寸法
 48
50.0
100
AcDbDimension
  2
*D30
 10
10235.02520693994
 20
6839.84626474067
 30
0.0
 11
9616.671058362264
 21
6839.84626474067
 31
0.0
 70
   160
  1
有効開口部間口\P<>
 71
     5
 42
1266.0
  3
INABA_S40
100
AcDbAlignedDimension
 13
8969.025206939937
 23
7505.444819195016
 33
0.0
 14
10235.02520693994
 24
7505.444819195016
 34
0.0
100
AcDbRotatedDimension
1001
ACAD
1000
DSTYLE
1002
{
1070
    41
1040
0.5
1070
    44
1040
1.0
1070
   147
1040
0.8
1070
   271
1070
     2
1070
   272
1070
     2
1070
   289
1070
     3
1070
   340
1005
F706
1070
   343
1005
17EA6
1070
   344
1005
17EA6
1002
}
  0
LINE
  5
19015
330
747D
100
AcDbEntity
  8
部品1
100
AcDbLine
 10
11057.02520693994
 20
7582.444819195017
 30
0.0
 11
11084.02520693994
 21
7582.444819195017
 31
0.0
  0
LINE
  5
19017
330
747D
100
AcDbEntity
  8
部品1
100
AcDbLine
 10
11084.02520693994
 20
7505.444819195016
 30
0.0
 11
11084.02520693994
 21
7582.444819195017
 31
0.0
  0
LINE
  5
19018
330
747D
100
AcDbEntity
  8
部品1
100
AcDbLine
 10
11045.02520693994
 20
7578.444819195016
 30
0.0
 11
11057.02520693994
 21
7578.444819195016
 31
0.0
  0
LINE
  5
19019
330
747D
100
AcDbEntity
  8
部品1
100
AcDbLine
 10
11054.02520693994
 20
7514.444819195016
 30
0.0
 11
11054.02520693994
 21
7505.444819195016
 31
0.0
  0
LINE
  5
1901A
330
747D
100
AcDbEntity
  8
部品1
100
AcDbLine
 10
11045.02520693994
 20
7514.444819195016
 30
0.0
 11
11054.02520693994
 21
7514.444819195016
 31
0.0
  0
LINE
  5
1901B
330
747D
100
AcDbEntity
  8
部品1
100
AcDbLine
 10
11045.02520693994
 20
7578.444819195016
 30
0.0
 11
11045.02520693994
 21
7514.444819195016
 31
0.0
  0
LINE
  5
1901C
330
747D
100
AcDbEntity
  8
部品1
100
AcDbLine
 10
11057.02520693994
 20
7609.444819195016
 30
0.0
 11
11057.02520693994
 21
7578.444819195016
 31
0.0
  0
LINE
  5
1901D
330
747D
100
AcDbEntity
  8
部品1
100
AcDbLine
 10
8969.025206939937
 20
7578.444819195016
 30
0.0
 11
8957.025206939936
 21
7578.444819195016
 31
0.0
  0
LINE
  5
1901E
330
747D
100
AcDbEntity
  8
部品1
100
AcDbLine
 10
8930.025206939937
 20
7582.444819195017
 30
0.0
 11
8957.025206939936
 21
7582.444819195017
 31
0.0
  0
LINE
  5
1901F
330
747D
100
AcDbEntity
  8
部品1
100
AcDbLine
 10
8960.025206939937
 20
7514.444819195016
 30
0.0
 11
8960.025206939937
 21
7505.444819195016
 31
0.0
  0
LINE
  5
19020
330
747D
100
AcDbEntity
  8
部品1
100
AcDbLine
 10
8969.025206939937
 20
7514.444819195016
 30
0.0
 11
8960.025206939937
 21
7514.444819195016
 31
0.0
  0
LINE
  5
19021
330
747D
100
AcDbEntity
  8
部品1
100
AcDbLine
 10
8960.025206939937
 20
7505.444819195016
 30
0.0
 11
8930.025206939937
 21
7505.444819195016
 31
0.0
  0
LINE
  5
19022
330
747D
100
AcDbEntity
  8
部品1
100
AcDbLine
 10
8930.025206939937
 20
7505.444819195016
 30
0.0
 11
8930.025206939937
 21
7582.444819195017
 31
0.0
  0
LINE
  5
19023
330
747D
100
AcDbEntity
  8
部品1
100
AcDbLine
 10
8969.025206939937
 20
7578.444819195016
 30
0.0
 11
8969.025206939937
 21
7514.444819195016
 31
0.0
  0
LINE
  5
19024
330
747D
100
AcDbEntity
  8
部品1
100
AcDbLine
 10
8957.025206939936
 20
7609.444819195012
 30
0.0
 11
8957.025206939936
 21
7578.444819195016
 31
0.0
  0
LINE
  5
19025
330
747D
100
AcDbEntity
  8
部品1
100
AcDbLine
 10
8957.025206939936
 20
7609.444819195012
 30
0.0
 11
11057.02520693994
 21
7609.444819195016
 31
0.0
  0
LINE
  5
19026
330
747D
100
AcDbEntity
  8
部品1
100
AcDbLine
 10
11054.02520693994
 20
7505.444819195016
 30
0.0
 11
11084.02520693994
 21
7505.444819195016
 31
0.0
  0
LINE
  5
19027
330
747D
100
AcDbEntity
  8
部品1
100
AcDbLine
 10
8960.025206939937
 20
7505.444819195016
 30
0.0
 11
11057.02520693994
 21
7505.444819195016
 31
0.0
  0
LINE
  5
19028
330
747D
100
AcDbEntity
  8
細線
  6
Continuous
 62
     5
100
AcDbLine
 10
10336.02520693994
 20
7544.444819195013
 30
0.0
 11
10336.02520693994
 21
7544.444819195013
 31
0.0
  0
LINE
  5
19029
330
747D
100
AcDbEntity
  8
細線
  6
Continuous
 62
     5
100
AcDbLine
 10
10328.52524225883
 20
7544.44482911607
 30
0.0
 11
10328.52524225883
 21
7544.44482911607
 31
0.0
  0
LINE
  5
1902A
330
747D
100
AcDbEntity
  8
細線
  6
Continuous
 62
     5
100
AcDbLine
 10
10322.52524225883
 20
7544.44482911607
 30
0.0
 11
10322.52524225883
 21
7544.44482911607
 31
0.0
  0
LINE
  5
1902B
330
747D
100
AcDbEntity
  8
細線
  6
Continuous
 62
     5
100
AcDbLine
 10
10390.02520693994
 20
7563.444819195012
 30
0.0
 11
10390.02520693994
 21
7563.444819195012
 31
0.0
  0
LINE
  5
1902C
330
747D
100
AcDbEntity
  8
細線
 48
50.0
100
AcDbLine
 10
8983.025211593531
 20
7531.04499337197
 30
0.0
 11
8983.025211593531
 21
7539.441143779609
 31
0.0
  0
LINE
  5
1902D
330
747D
100
AcDbEntity
  8
細線
 48
50.0
100
AcDbLine
 10
8983.025211593531
 20
7539.441143779609
 30
0.0
 11
8969.025206939937
 21
7539.441143779606
 31
0.0
  0
LINE
  5
1902E
330
747D
100
AcDbEntity
  8
細線
 48
50.0
100
AcDbLine
 10
9734.025211593527
 20
7527.59499337197
 30
0.0
 11
9734.025211593527
 21
7532.444993371972
 31
0.0
  0
LINE
  5
1902F
330
747D
100
AcDbEntity
  8
細線
 48
50.0
100
AcDbLine
 10
9734.025211593527
 20
7532.444993371972
 30
0.0
 11
9749.025211593528
 21
7532.444993371972
 31
0.0
  0
LINE
  5
19030
330
747D
100
AcDbEntity
  8
細線
 48
50.0
100
AcDbLine
 10
9749.025211593528
 20
7532.444993371972
 30
0.0
 11
9749.025211593531
 21
7539.444993371971
 31
0.0
  0
LINE
  5
19031
330
747D
100
AcDbEntity
  8
細線
 48
50.0
100
AcDbLine
 10
9749.025211593531
 20
7539.444993371971
 30
0.0
 11
9764.025211593526
 21
7539.444993371971
 31
0.0
  0
LINE
  5
19032
330
747D
100
AcDbEntity
  8
細線
 48
50.0
100
AcDbLine
 10
9764.025211593526
 20
7539.444993371971
 30
0.0
 11
9764.025211593526
 21
7510.444993371972
 31
0.0
  0
LINE
  5
19033
330
747D
100
AcDbEntity
  8
細線
 48
50.0
100
AcDbLine
 10
8960.025206939937
 20
7510.442327715439
 30
0.0
 11
9174.025211593528
 21
7510.445010925685
 31
0.0
  0
LINE
  5
19034
330
747D
100
AcDbEntity
  8
細線
 48
50.0
100
AcDbLine
 10
9664.025211593527
 20
7510.444993371972
 30
0.0
 11
9764.025211593526
 21
7510.444993371972
 31
0.0
  0
LINE
  5
19035
330
747D
100
AcDbEntity
  8
細線
 48
50.0
100
AcDbLine
 10
9384.025211593527
 20
7510.444993371972
 30
0.0
 11
9454.025211593528
 21
7510.444993371972
 31
0.0
  0
LINE
  5
19036
330
747D
100
AcDbEntity
  8
細線
 48
50.0
100
AcDbLine
 10
9396.887176606057
 20
7510.444993371972
 30
0.0
 11
9402.642694188724
 21
7528.715844662466
 31
0.0
  0
LINE
  5
19037
330
747D
100
AcDbEntity
  8
細線
 48
50.0
100
AcDbLine
 10
9402.642694188724
 20
7528.715844662466
 30
0.0
 11
9413.571142669159
 21
7528.715844662461
 31
0.0
  0
ARC
  5
19038
330
747D
100
AcDbEntity
  8
細線
 48
50.0
100
AcDbCircle
 10
9413.571142669159
 20
7527.715844662463
 30
0.0
 40
1.0
100
AcDbArc
 50
24.62431835213048
 51
90.0
  0
ARC
  5
19039
330
747D
100
AcDbEntity
  8
細線
 48
50.0
100
AcDbCircle
 10
9424.479854783792
 20
7527.715844662463
 30
0.0
 40
1.0
100
AcDbArc
 50
90.0
 51
155.3756816478695
  0
ARC
  5
1903A
330
747D
100
AcDbEntity
  8
細線
 48
50.0
100
AcDbCircle
 10
9419.025498726472
 20
7530.215844662461
 30
0.0
 40
5.0
100
AcDbArc
 50
204.6243183521304
 51
335.3756816478695
  0
LINE
  5
1903B
330
747D
100
AcDbEntity
  8
細線
 48
50.0
100
AcDbLine
 10
9424.479854783792
 20
7528.715844662461
 30
0.0
 11
9435.408303264225
 21
7528.715844662466
 31
0.0
  0
LINE
  5
1903C
330
747D
100
AcDbEntity
  8
細線
 48
50.0
100
AcDbLine
 10
9435.408303264225
 20
7528.715844662466
 30
0.0
 11
9441.163820846893
 21
7510.444993371972
 31
0.0
  0
LINE
  5
1903D
330
747D
100
AcDbEntity
  8
細線
 48
50.0
100
AcDbLine
 10
9734.025211593527
 20
7531.04499337197
 30
0.0
 11
8983.025211593531
 21
7531.04499337197
 31
0.0
  0
LINE
  5
1903E
330
747D
100
AcDbEntity
  8
細線
 48
50.0
100
AcDbLine
 10
9594.025211593528
 20
7510.444993371972
 30
0.0
 11
9524.025211593528
 21
7510.444993371972
 31
0.0
  0
LINE
  5
1903F
330
747D
100
AcDbEntity
  8
細線
100
AcDbLine
 10
9314.025211593527
 20
7510.444993371972
 30
0.0
 11
9244.025219778944
 21
7510.444993371972
 31
0.0
  0
LINE
  5
19040
330
747D
100
AcDbEntity
  8
細線
 48
50.0
100
AcDbLine
 10
10388.02520228635
 20
7565.045037229838
 30
0.0
 11
9753.025211593527
 21
7565.045037229835
 31
0.0
  0
LINE
  5
19041
330
747D
100
AcDbEntity
  8
細線
 48
50.0
100
AcDbLine
 10
9753.025211593527
 20
7561.941187637478
 30
0.0
 11
9753.025211593527
 21
7566.441187637479
 31
0.0
  0
LINE
  5
19042
330
747D
100
AcDbEntity
  8
細線
 48
50.0
100
AcDbLine
 10
9753.025211593527
 20
7566.441187637479
 30
0.0
 11
9738.025211593528
 21
7566.441187637479
 31
0.0
  0
LINE
  5
19043
330
747D
100
AcDbEntity
  8
細線
 48
50.0
100
AcDbLine
 10
9738.025211593528
 20
7566.441187637479
 30
0.0
 11
9738.025211593528
 21
7573.441187637477
 31
0.0
  0
LINE
  5
19044
330
747D
100
AcDbEntity
  8
細線
 48
50.0
100
AcDbLine
 10
9738.025211593528
 20
7573.441187637477
 30
0.0
 11
9723.025211593531
 21
7573.441187637475
 31
0.0
  0
LINE
  5
19045
330
747D
100
AcDbEntity
  8
細線
 48
50.0
100
AcDbLine
 10
9723.025211593531
 20
7573.441187637475
 30
0.0
 11
9723.025211593531
 21
7535.840959534365
 31
0.0
  0
LINE
  5
19046
330
747D
100
AcDbEntity
  8
細線
 48
50.0
100
AcDbLine
 10
9723.025211593531
 20
7535.840959534365
 30
0.0
 11
9743.025218894704
 21
7535.841001083905
 31
0.0
  0
LINE
  5
19047
330
747D
100
AcDbEntity
  8
細線
 48
50.0
100
AcDbLine
 10
9743.025174025762
 20
7544.444462719714
 30
0.0
 11
9743.025218894704
 21
7535.841001083905
 31
0.0
  0
LINE
  5
19048
330
747D
100
AcDbEntity
  8
細線
 48
50.0
100
AcDbLine
 10
10388.02520228635
 20
7561.595037229837
 30
0.0
 11
10388.02520228635
 21
7566.445037229836
 31
0.0
  0
LINE
  5
19049
330
747D
100
AcDbEntity
  8
細線
 48
50.0
100
AcDbLine
 10
10388.02520228635
 20
7566.445037229836
 30
0.0
 11
10403.02520228635
 21
7566.445037229836
 31
0.0
  0
LINE
  5
1904A
330
747D
100
AcDbEntity
  8
細線
 48
50.0
100
AcDbLine
 10
10403.02520228635
 20
7566.445037229836
 30
0.0
 11
10403.02521392032
 21
7573.44503722988
 31
0.0
  0
LINE
  5
1904B
330
747D
100
AcDbEntity
  8
細線
 48
50.0
100
AcDbLine
 10
10403.02521392032
 20
7573.44503722988
 30
0.0
 11
10418.02521209085
 21
7573.44503722988
 31
0.0
  0
LINE
  5
1904C
330
747D
100
AcDbEntity
  8
細線
 48
50.0
100
AcDbLine
 10
10418.02521209085
 20
7573.44503722988
 30
0.0
 11
10418.02520178903
 21
7544.444831057607
 31
0.0
  0
LINE
  5
1904D
330
747D
100
AcDbEntity
  8
細線
 48
50.0
100
AcDbLine
 10
10105.52522941981
 20
7544.444839244973
 30
0.0
 11
10035.52548150223
 21
7544.444833807634
 31
0.0
  0
LINE
  5
1904E
330
747D
100
AcDbEntity
  8
細線
 48
50.0
100
AcDbLine
 10
9743.025174025762
 20
7544.444462719714
 30
0.0
 11
9754.257863380473
 21
7544.44464567286
 31
0.0
  0
ARC
  5
1904F
330
747D
100
AcDbEntity
  8
細線
 48
50.0
100
AcDbCircle
 10
9760.840155687809
 20
7543.244809586473
 30
0.0
 40
1.8
100
AcDbArc
 50
270.0006665777295
 51
345.0005554812987
  0
LINE
  5
19050
330
747D
100
AcDbEntity
  8
細線
 48
50.0
100
AcDbLine
 10
9762.826589133887
 20
7543.703650043751
 30
0.0
 11
9762.578826691688
 21
7542.778952161644
 31
0.0
  0
LINE
  5
19051
330
747D
100
AcDbEntity
  8
細線
 48
50.0
100
AcDbLine
 10
9760.840176628963
 20
7541.444809586593
 30
0.0
 11
9757.210249210194
 21
7541.444767356114
 31
0.0
  0
ARC
  5
19052
330
747D
100
AcDbEntity
  8
細線
 48
50.0
100
AcDbCircle
 10
9757.210228269041
 20
7543.244767355993
 30
0.0
 40
1.8
100
AcDbArc
 50
195.0010443049394
 51
270.0006665777295
  0
LINE
  5
19053
330
747D
100
AcDbEntity
  8
細線
 48
50.0
100
AcDbLine
 10
9755.223800776782
 20
7543.703482323557
 30
0.0
 11
9755.471570273297
 21
7542.778861384975
 31
0.0
  0
ARC
  5
19054
330
747D
100
AcDbEntity
  8
細線
 48
50.0
100
AcDbCircle
 10
9754.257879668035
 20
7543.444645672995
 30
0.0
 40
1.0
100
AcDbArc
 50
15.00104430493943
 51
90.00093320877969
  0
LINE
  5
19055
330
747D
100
AcDbEntity
  8
細線
 48
50.0
100
AcDbLine
 10
9763.79251048899
 20
7544.444840363265
 30
0.0
 11
9764.734270639895
 21
7544.444846937115
 31
0.0
  0
ARC
  5
19056
330
747D
100
AcDbEntity
  8
細線
 48
50.0
100
AcDbCircle
 10
9763.792517469376
 20
7543.444840363291
 30
0.0
 40
1.0
100
AcDbArc
 50
90.0003999466794
 51
165.0005554812987
  0
LINE
  5
19057
330
747D
100
AcDbEntity
  8
細線
 48
50.0
100
AcDbLine
 10
10315.52520228634
 20
7544.444831057607
 30
0.0
 11
10418.02520178903
 21
7544.444831057607
 31
0.0
  0
LINE
  5
19058
330
747D
100
AcDbEntity
  8
細線
 48
50.0
100
AcDbLine
 10
9825.525237605233
 20
7544.444839244973
 30
0.0
 11
9764.425176378313
 21
7544.444846937115
 31
0.0
  0
LINE
  5
19059
330
747D
100
AcDbEntity
  8
細線
 48
50.0
100
AcDbLine
 10
10245.52523760523
 20
7544.444876086055
 30
0.0
 11
10175.52523065084
 21
7544.444831063387
 31
0.0
  0
LINE
  5
1905A
330
747D
100
AcDbEntity
  8
細線
 48
50.0
100
AcDbLine
 10
9965.525202286341
 20
7544.444831057602
 30
0.0
 11
9895.525184998465
 21
7544.44483105761
 31
0.0
  0
ARC
  5
1905B
330
747D
100
AcDbEntity
  8
細線
 48
50.0
100
AcDbCircle
 10
10402.22520693995
 20
7577.644819195016
 30
0.0
 40
0.8
100
AcDbArc
 50
359.9997333689499
 51
89.99986668437072
  0
ARC
  5
1905C
330
747D
100
AcDbEntity
  8
細線
 48
50.0
100
AcDbCircle
 10
10409.82521376504
 20
7577.644830363635
 30
0.0
 40
0.8
100
AcDbArc
 50
90.00014387753465
 51
179.9997333689498
  0
LINE
  5
1905D
330
747D
100
AcDbEntity
  8
細線
 48
50.0
100
AcDbLine
 10
10402.22520880138
 20
7578.444819195016
 30
0.0
 11
10397.02520693994
 21
7578.444819195016
 31
0.0
  0
ARC
  5
1905E
330
747D
100
AcDbEntity
  8
細線
 48
50.0
100
AcDbCircle
 10
10403.72520693993
 20
7576.144819195016
 30
0.0
 40
0.7
100
AcDbArc
 50
180.0
 51
270.0
  0
ARC
  5
1905F
330
747D
100
AcDbEntity
  8
細線
 48
50.0
100
AcDbCircle
 10
10408.32520693994
 20
7576.144819195016
 30
0.0
 40
0.7
100
AcDbArc
 50
270.0
 51
0.0
  0
LINE
  5
19060
330
747D
100
AcDbEntity
  8
細線
 48
50.0
100
AcDbLine
 10
10409.02520693994
 20
7576.144819195016
 30
0.0
 11
10409.02521376505
 21
7577.644834086505
 31
0.0
  0
LINE
  5
19061
330
747D
100
AcDbEntity
  8
細線
 48
50.0
100
AcDbLine
 10
10403.72520693993
 20
7575.444819195016
 30
0.0
 11
10408.32520693994
 21
7575.444819195016
 31
0.0
  0
LINE
  5
19062
330
747D
100
AcDbEntity
  8
細線
 48
50.0
100
AcDbLine
 10
10403.02520693993
 20
7577.644819195016
 30
0.0
 11
10403.02520693993
 21
7576.144819195016
 31
0.0
  0
LINE
  5
19063
330
747D
100
AcDbEntity
  8
細線
 48
50.0
100
AcDbLine
 10
11028.62520693994
 20
7608.444819195016
 30
0.0
 11
10392.02520693994
 21
7608.444819195013
 31
0.0
  0
LINE
  5
19064
330
747D
100
AcDbEntity
  8
細線
 48
50.0
100
AcDbLine
 10
11054.52520693994
 20
7603.44481919502
 30
0.0
 11
11038.62520693994
 21
7603.444819195016
 31
0.0
  0
LINE
  5
19065
330
747D
100
AcDbEntity
  8
細線
 48
50.0
100
AcDbLine
 10
11038.62520693994
 20
7603.444819195016
 30
0.0
 11
11028.62520693994
 21
7608.444819195016
 31
0.0
  0
LINE
  5
19066
330
747D
100
AcDbEntity
  8
細線
100
AcDbLine
 10
10639.52520693994
 20
7578.444819195016
 30
0.0
 11
10639.52520693994
 21
7607.744819195016
 31
0.0
  0
LINE
  5
19067
330
747D
100
AcDbEntity
  8
細線
100
AcDbLine
 10
10639.52520693994
 20
7607.744819195016
 30
0.0
 11
10659.52520693994
 21
7607.744819195016
 31
0.0
  0
LINE
  5
19068
330
747D
100
AcDbEntity
  8
細線
100
AcDbLine
 10
10659.52520693994
 20
7578.444819195016
 30
0.0
 11
10659.52520693994
 21
7607.744819195016
 31
0.0
  0
LINE
  5
19069
330
747D
100
AcDbEntity
  8
細線
100
AcDbLine
 10
10820.77520693994
 20
7578.444819195016
 30
0.0
 11
10750.77520693994
 21
7578.444819195016
 31
0.0
  0
LINE
  5
1906A
330
747D
100
AcDbEntity
  8
細線
 48
50.0
100
AcDbLine
 10
10540.77520693994
 20
7578.444819195016
 30
0.0
 11
10409.82098651278
 21
7578.444819195016
 31
0.0
  0
LINE
  5
1906B
330
747D
100
AcDbEntity
  8
細線
100
AcDbLine
 10
10680.77520693994
 20
7578.444819195016
 30
0.0
 11
10610.77520693994
 21
7578.444819195016
 31
0.0
  0
LINE
  5
1906C
330
747D
100
AcDbEntity
  8
細線
 48
50.0
100
AcDbLine
 10
10397.02520693994
 20
7570.444819195016
 30
0.0
 11
10397.02520693994
 21
7578.444819195016
 31
0.0
  0
LINE
  5
1906D
330
747D
100
AcDbEntity
  8
細線
 48
50.0
100
AcDbLine
 10
10377.02520693994
 20
7570.444819195019
 30
0.0
 11
10397.02520693994
 21
7570.444819195016
 31
0.0
  0
LINE
  5
1906E
330
747D
100
AcDbEntity
  8
細線
 48
50.0
100
AcDbLine
 10
10392.02520693994
 20
7608.444819195016
 30
0.0
 11
10392.02520693994
 21
7603.444819195016
 31
0.0
  0
LINE
  5
1906F
330
747D
100
AcDbEntity
  8
細線
 48
50.0
100
AcDbLine
 10
10377.02520693994
 20
7608.444819195013
 30
0.0
 11
10392.02520693994
 21
7608.444819195016
 31
0.0
  0
LINE
  5
19070
330
747D
100
AcDbEntity
  8
細線
 48
50.0
100
AcDbLine
 10
10377.02520693994
 20
7570.444819195019
 30
0.0
 11
10377.02520693994
 21
7608.444819195013
 31
0.0
  0
LINE
  5
19071
330
747D
100
AcDbEntity
  8
細線
100
AcDbLine
 10
11045.02520693994
 20
7578.444819195016
 30
0.0
 11
10890.77520693994
 21
7578.444819195016
 31
0.0
  0
LINE
  5
19072
330
747D
100
AcDbEntity
  8
細線
 48
50.0
100
AcDbLine
 10
11054.52520693994
 20
7603.44481919502
 30
0.0
 11
11054.52520693994
 21
7578.444819195016
 31
0.0
  0
DIMENSION
  5
192B0
330
747D
100
AcDbEntity
  8
寸法
 48
50.0
100
AcDbDimension
  2
*D31
 10
11084.02520693993
 20
6545.101014955787
 30
0.0
 11
9985.161953136401
 21
6545.101014955787
 31
0.0
 70
   160
 71
     5
 42
2154.0
  3
INABA_S40G
100
AcDbAlignedDimension
 13
8930.025206939935
 23
7507.444819194981
 33
0.0
 14
11084.02520693993
 24
7507.444819194981
 34
0.0
100
AcDbRotatedDimension
1001
ACAD
1000
DSTYLE
1002
{
1070
   341
1005
0
1002
}
  0
DIMENSION
  5
192B1
330
747D
100
AcDbEntity
  8
寸法
100
AcDbDimension
  2
*D32
 10
8187.413961313245
 20
7507.444819194981
 30
0.0
 11
8187.413961313243
 21
7366.959537820743
 31
0.0
 70
   160
 71
     5
 42
75.0
  3
INABA_S40
100
AcDbAlignedDimension
 13
8482.025206939962
 23
7582.444819194981
 33
0.0
 14
8930.025206939935
 24
7507.444819194981
 34
0.0
 50
90.0
100
AcDbRotatedDimension
1001
ACAD
1000
DSTYLE
1002
{
1070
    41
1040
0.5
1070
    44
1040
1.0
1070
   147
1040
0.8
1070
   271
1070
     2
1070
   272
1070
     2
1070
   289
1070
     3
1070
   340
1005
F706
1070
   343
1005
17EA6
1070
   344
1005
17EA6
1002
}
  0
DIMENSION
  5
193B2
330
747D
100
AcDbEntity
  8
寸法
100
AcDbDimension
  2
*D33
 10
11532.02520693994
 20
6286.987902832525
 30
0.0
 11
9980.97087603741
 21
6286.987902832525
 31
0.0
 70
   160
 71
     5
 42
3049.999999999982
  3
INABA_S40G
100
AcDbAlignedDimension
 13
8482.025206939962
 23
7582.444819194982
 33
0.0
 14
11532.02520693994
 24
7582.444819195147
 34
0.0
100
AcDbRotatedDimension
1001
ACAD
1000
DSTYLE
1002
{
1002
}
  0
LINE
  5
193BF
330
747D
100
AcDbEntity
  8
部品1
100
AcDbLine
 10
10388.76054005417
 20
6047.561419053437
 30
0.0
 11
9625.289873825739
 21
6047.561419053437
 31
0.0
  0
LINE
  5
193C0
330
747D
100
AcDbEntity
  8
部品1
100
AcDbLine
 10
10388.76054005417
 20
5807.669097507904
 30
0.0
 11
10388.76054005417
 21
6047.561419053437
 31
0.0
  0
LINE
  5
193C1
330
747D
100
AcDbEntity
  8
部品1
100
AcDbLine
 10
9625.289873825739
 20
5807.669097507904
 30
0.0
 11
10388.76054005417
 21
5807.669097507904
 31
0.0
  0
LINE
  5
193C2
330
747D
100
AcDbEntity
  8
部品1
100
AcDbLine
 10
9625.289873825739
 20
6047.561419053437
 30
0.0
 11
9625.289873825739
 21
5807.669097507904
 31
0.0
  0
TEXT
  5
193C3
330
747D
100
AcDbEntity
  8
部品1
100
AcDbText
 10
9715.209483654778
 20
5854.667889834914
 30
0.0
 40
135.0
  1
平面図
  7
STYLE2
100
AcDbText
  0
LWPOLYLINE
  5
195DD
330
747D
100
AcDbEntity
  8
部品1
 48
50.0
100
AcDbPolyline
 90
        4
 70
     1
 43
0.0
 10
9029.075206939959
 20
3179.698847332322
 10
9031.975206939959
 20
3179.698847332322
 10
9031.975206939959
 20
3189.198847332322
 10
9029.075206939959
 20
3189.198847332322
  0
CIRCLE
  5
195DE
330
747D
100
AcDbEntity
  8
部品1
 48
50.0
100
AcDbCircle
 10
9030.525206939961
 20
3184.448847332322
 30
0.0
 40
9.0
  0
ARC
  5
195DF
330
747D
100
AcDbEntity
  8
細線
 48
50.0
100
AcDbCircle
 10
9030.525206939961
 20
3184.448847332322
 30
0.0
 40
4.0
100
AcDbArc
 50
111.2538091853132
 51
248.7461908146868
  0
ARC
  5
195E0
330
747D
100
AcDbEntity
  8
細線
 48
50.0
100
AcDbCircle
 10
9030.525206939961
 20
3184.448847332322
 30
0.0
 40
17.5
100
AcDbArc
 50
306.4837370612677
 51
233.5162629387323
  0
LINE
  5
195E1
330
747D
100
AcDbEntity
  8
細線
 48
50.0
100
AcDbLine
 10
9040.525206939957
 20
3160.589886751439
 30
0.0
 11
9040.525206939959
 21
3169.574372551681
 31
0.0
  0
LINE
  5
195E2
330
747D
100
AcDbEntity
  8
細線
 48
50.0
100
AcDbLine
 10
9020.525206939959
 20
3160.589886751441
 30
0.0
 11
9020.525206939959
 21
3169.574372551677
 31
0.0
  0
ARC
  5
195E3
330
747D
100
AcDbEntity
  8
細線
 48
50.0
100
AcDbCircle
 10
9030.525206939961
 20
3184.448847332322
 30
0.0
 40
26.5
100
AcDbArc
 50
249.3326835063939
 51
290.6673164933835
  0
ARC
  5
195E4
330
747D
100
AcDbEntity
  8
細線
 48
50.0
100
AcDbCircle
 10
9039.525206939952
 20
3160.589886751439
 30
0.0
 40
1.0
100
AcDbArc
 50
290.6673164936062
 51
359.9999999998958
  0
ARC
  5
195E5
330
747D
100
AcDbEntity
  8
細線
 48
50.0
100
AcDbCircle
 10
9021.52520693996
 20
3160.589886751441
 30
0.0
 40
1.0
100
AcDbArc
 50
180.0
 51
249.3326835066164
  0
ARC
  5
195E6
330
747D
100
AcDbEntity
  8
細線
 48
50.0
100
AcDbCircle
 10
9019.52520693996
 20
3169.574372551677
 30
0.0
 40
1.0
100
AcDbArc
 50
0.0
 51
53.51626293873231
  0
ARC
  5
195E7
330
747D
100
AcDbEntity
  8
細線
 48
50.0
100
AcDbCircle
 10
9041.525206939963
 20
3169.574372551681
 30
0.0
 40
1.0
100
AcDbArc
 50
126.4837370615127
 51
180.0
  0
ARC
  5
195E8
330
747D
100
AcDbEntity
  8
細線
 48
50.0
100
AcDbCircle
 10
9030.525206939961
 20
3184.448847332322
 30
0.0
 40
21.5
100
AcDbArc
 50
255.8014401250294
 51
284.1985598749706
  0
ARC
  5
195E9
330
747D
100
AcDbEntity
  8
細線
 48
50.0
100
AcDbCircle
 10
9030.525206939961
 20
3184.448847332322
 30
0.0
 40
16.5
100
AcDbArc
 50
251.9694646069326
 51
288.0305353930674
  0
LINE
  5
195EA
330
747D
100
AcDbEntity
  8
細線
 48
50.0
100
AcDbLine
 10
9036.025206939958
 20
3163.896475206515
 30
0.0
 11
9036.025206939958
 21
3168.473866893852
 31
0.0
  0
LINE
  5
195EB
330
747D
100
AcDbEntity
  8
細線
 48
50.0
100
AcDbLine
 10
9025.025206939959
 20
3163.896475206515
 30
0.0
 11
9025.025206939959
 21
3168.47386689385
 31
0.0
  0
ARC
  5
195EC
330
747D
100
AcDbEntity
  8
細線
 48
50.0
100
AcDbCircle
 10
9025.325206939962
 20
3168.47386689385
 30
0.0
 40
0.3
100
AcDbArc
 50
71.96946460693259
 51
180.0
  0
ARC
  5
195ED
330
747D
100
AcDbEntity
  8
細線
 48
50.0
100
AcDbCircle
 10
9035.725206939961
 20
3168.473866893852
 30
0.0
 40
0.3
100
AcDbArc
 50
0.0
 51
108.0305353930674
  0
ARC
  5
195EE
330
747D
100
AcDbEntity
  8
細線
 48
50.0
100
AcDbCircle
 10
9035.725206939956
 20
3163.896475206515
 30
0.0
 40
0.3
100
AcDbArc
 50
284.1985598747622
 51
0.0000000001042204
  0
ARC
  5
195EF
330
747D
100
AcDbEntity
  8
細線
 48
50.0
100
AcDbCircle
 10
9025.325206939962
 20
3163.896475206515
 30
0.0
 40
0.3
100
AcDbArc
 50
180.0
 51
255.8014401248081
  0
CIRCLE
  5
195F0
330
747D
100
AcDbEntity
  8
細線
 48
50.0
100
AcDbCircle
 10
9030.525206939961
 20
3184.448847332322
 30
0.0
 40
12.0
  0
ARC
  5
195F1
330
747D
100
AcDbEntity
  8
部品1
 48
50.0
100
AcDbCircle
 10
9030.525206939961
 20
3234.448847332322
 30
0.0
 40
8.5
100
AcDbArc
 50
114.315739171091
 51
245.684260828909
  0
CIRCLE
  5
195F2
330
747D
100
AcDbEntity
  8
細線
 48
50.0
100
AcDbCircle
 10
9030.525206939961
 20
3234.448847332322
 30
0.0
 40
4.5
  0
LWPOLYLINE
  5
195F3
330
747D
100
AcDbEntity
  8
部品1
 48
50.0
100
AcDbPolyline
 90
        2
 70
     0
 43
0.0
 10
9027.025206939958
 20
3253.123696729305
 10
9027.025206939958
 20
3242.194814024737
  0
CIRCLE
  5
195F4
330
747D
100
AcDbEntity
  8
部品1
 48
50.0
100
AcDbCircle
 10
9030.525206939961
 20
3234.448847332322
 30
0.0
 40
19.0
  0
LWPOLYLINE
  5
195F5
330
747D
100
AcDbEntity
  8
部品1
 48
50.0
100
AcDbPolyline
 90
        2
 70
     0
 43
0.0
 10
9027.025206939958
 20
3226.702880639907
 10
9027.025206939958
 20
3215.77399793534
  0
LWPOLYLINE
  5
195F6
330
747D
100
AcDbEntity
  8
部品1
 48
50.0
100
AcDbPolyline
 90
        2
 70
     0
 43
0.0
 10
9034.02520693996
 20
3242.194814024737
 10
9034.02520693996
 20
3253.123696729305
  0
ARC
  5
195F7
330
747D
100
AcDbEntity
  8
部品1
 48
50.0
100
AcDbCircle
 10
9030.525206939961
 20
3234.448847332322
 30
0.0
 40
8.5
100
AcDbArc
 50
294.315739171091
 51
65.68426082890896
  0
LWPOLYLINE
  5
195F8
330
747D
100
AcDbEntity
  8
部品1
 48
50.0
100
AcDbPolyline
 90
        2
 70
     0
 43
0.0
 10
9034.02520693996
 20
3215.77399793534
 10
9034.02520693996
 20
3226.702880639907
  0
ARC
  5
195F9
330
747D
100
AcDbEntity
  8
細線
 48
50.0
100
AcDbCircle
 10
9030.525206939961
 20
3234.448847332322
 30
0.0
 40
16.5
100
AcDbArc
 50
332.0012352654438
 51
27.99876473455621
  0
ARC
  5
195FA
330
747D
100
AcDbEntity
  8
細線
 48
50.0
100
AcDbCircle
 10
9030.525206939961
 20
3234.448847332322
 30
0.0
 40
14.0
100
AcDbArc
 50
326.4074436112986
 51
33.59255638870134
  0
LINE
  5
195FB
330
747D
100
AcDbEntity
  8
細線
 48
50.0
100
AcDbLine
 10
9015.956404655629
 20
3242.194814024737
 30
0.0
 11
9018.86330315027
 21
3242.194814024737
 31
0.0
  0
LINE
  5
195FC
330
747D
100
AcDbEntity
  8
細線
 48
50.0
100
AcDbLine
 10
9015.956404655629
 20
3226.702880639907
 30
0.0
 11
9018.86330315027
 21
3226.702880639907
 31
0.0
  0
LINE
  5
195FD
330
747D
100
AcDbEntity
  8
細線
 48
50.0
100
AcDbLine
 10
9042.187110729647
 20
3242.194814024737
 30
0.0
 11
9045.094009224294
 21
3242.194814024737
 31
0.0
  0
LINE
  5
195FE
330
747D
100
AcDbEntity
  8
細線
 48
50.0
100
AcDbLine
 10
9042.187110729647
 20
3226.702880639907
 30
0.0
 11
9045.094009224294
 21
3226.702880639907
 31
0.0
  0
ARC
  5
195FF
330
747D
100
AcDbEntity
  8
細線
 48
50.0
100
AcDbCircle
 10
9030.525206939961
 20
3234.448847332322
 30
0.0
 40
14.0
100
AcDbArc
 50
146.4074436112986
 51
213.5925563887013
  0
ARC
  5
19600
330
747D
100
AcDbEntity
  8
細線
 48
50.0
100
AcDbCircle
 10
9030.525206939961
 20
3234.448847332322
 30
0.0
 40
16.5
100
AcDbArc
 50
152.0012352654438
 51
207.9987647345562
  0
ARC
  5
19601
330
747D
100
AcDbEntity
  8
部品1
 48
50.0
100
AcDbCircle
 10
9004.02520693996
 20
3259.948847332322
 30
0.0
 40
5.0
100
AcDbArc
 50
90.0
 51
180.0
  0
ARC
  5
19602
330
747D
100
AcDbEntity
  8
部品1
 48
50.0
100
AcDbCircle
 10
9004.02520693996
 20
3148.948847332322
 30
0.0
 40
5.0
100
AcDbArc
 50
180.0
 51
270.0
  0
ARC
  5
19603
330
747D
100
AcDbEntity
  8
部品1
 48
50.0
100
AcDbCircle
 10
9057.025206939959
 20
3148.948847332322
 30
0.0
 40
5.0
100
AcDbArc
 50
270.0
 51
0.0
  0
ARC
  5
19604
330
747D
100
AcDbEntity
  8
部品1
 48
50.0
100
AcDbCircle
 10
9057.025206939959
 20
3259.948847332322
 30
0.0
 40
5.0
100
AcDbArc
 50
0.0
 51
90.0
  0
LINE
  5
19606
330
747D
100
AcDbEntity
  8
部品1
 48
50.0
100
AcDbLine
 10
8999.025206939959
 20
3148.948847332322
 30
0.0
 11
8999.025206939959
 21
3259.948847332322
 31
0.0
  0
LINE
  5
19607
330
747D
100
AcDbEntity
  8
部品1
 48
50.0
100
AcDbLine
 10
9057.025206939959
 20
3143.948847332322
 30
0.0
 11
9004.02520693996
 21
3143.948847332322
 31
0.0
  0
LINE
  5
19608
330
747D
100
AcDbEntity
  8
部品1
 48
50.0
100
AcDbLine
 10
9062.02520693996
 20
3259.948847332322
 30
0.0
 11
9062.02520693996
 21
3148.948847332322
 31
0.0
  0
ENDSEC
  0
SECTION
  2
OBJECTS
  0
DICTIONARY
  5
7471
330
0
100
AcDbDictionary
281
     1
  3
ACAD_COLOR
350
17E8F
  3
ACAD_GROUP
350
7472
  3
ACAD_LAYOUT
350
17E90
  3
ACAD_MATERIAL
350
17E8E
  3
ACAD_MLINESTYLE
350
7473
  3
ACAD_PLOTSETTINGS
350
17E91
  3
ACAD_PLOTSTYLENAME
350
17E8C
  3
ACDBHEADERROUNDTRIPXREC
350
19627
  3
AcDbVariableDictionary
350
19623
  3
CONTENTDICTIONARY
350
E71C
  3
DRAWINGVARIABLESDICT
350
F3B9
  0
DICTIONARY
  5
18029
330
7467
100
AcDbDictionary
280
     1
281
     1
  3
ACAD_LAYERSTATES
360
1802A
  0
DICTIONARY
  5
17E8F
102
{ACAD_REACTORS
330
7471
102
}
330
7471
100
AcDbDictionary
281
     1
  0
DICTIONARY
  5
7472
102
{ACAD_REACTORS
330
7471
102
}
330
7471
100
AcDbDictionary
281
     1
  0
DICTIONARY
  5
17E90
102
{ACAD_REACTORS
330
7471
102
}
330
7471
100
AcDbDictionary
281
     1
  3
Model
350
17E92
  3
レイアウト1
350
17E93
  0
DICTIONARY
  5
17E8E
102
{ACAD_REACTORS
330
7471
102
}
330
7471
100
AcDbDictionary
281
     1
  0
DICTIONARY
  5
7473
102
{ACAD_REACTORS
330
7471
102
}
330
7471
100
AcDbDictionary
281
     1
  3
STANDARD
350
7480
  0
DICTIONARY
  5
17E91
102
{ACAD_REACTORS
330
7471
102
}
330
7471
100
AcDbDictionary
281
     1
  0
ACDBDICTIONARYWDFLT
  5
17E8C
102
{ACAD_REACTORS
330
7471
102
}
330
7471
100
AcDbDictionary
281
     1
  3
Normal
350
17E8D
100
AcDbDictionaryWithDefault
340
17E8D
  0
DICTIONARY
  5
19627
102
{ACAD_REACTORS
330
7471
102
}
330
7471
100
AcDbDictionary
281
     1
  3
COLORDICT
350
19629
  3
MATERIALDICT
350
19628
  0
DICTIONARY
  5
19623
102
{ACAD_REACTORS
330
7471
102
}
330
7471
100
AcDbDictionary
281
     1
  3
DIMASSOC
350
19624
  3
PROJECTNAME
350
19625
  0
DICTIONARY
  5
E71C
102
{ACAD_REACTORS
330
7471
102
}
330
7471
100
AcDbDictionary
281
     1
  0
DICTIONARY
  5
F3B9
102
{ACAD_REACTORS
330
7471
102
}
330
7471
100
AcDbDictionary
281
     1
1001
DRAWINGVARIABLESXDATA
1000
POLARMODE
1000
1
  0
DICTIONARY
  5
1802A
102
{ACAD_REACTORS
330
18029
102
}
330
18029
100
AcDbDictionary
281
     1
  0
LAYOUT
  5
17E92
102
{ACAD_XDICTIONARY
360
1962A
102
}
102
{ACAD_REACTORS
330
17E90
102
}
330
17E90
100
AcDbPlotSettings
  1

  2
クセロPDF
  4
A3
  6

 40
3.174999952316284
 41
3.174999952316284
 42
3.17498779296875
 43
3.17498779296875
 44
419.9466552734374
 45
296.9259948730469
 46
0.0
 47
0.0
 48
3.619013395666115
 49
-4.192117100517862
140
820.022926294543
141
573.2392198881443
142
1.0
143
39.99735023620806
 70
 11952
 72
     1
 73
     0
 74
     2
  7
inaba.ctb
 75
     0
147
0.0250016562120842
148
25.79074261211281
149
125.8223078213959
100
AcDbLayout
  1
Model
 70
     1
 71
     0
 10
0.0
 20
0.0
 11
12.0
 21
9.0
 12
0.0
 22
0.0
 32
0.0
 14
0.0
 24
0.0
 34
0.0
 15
0.0
 25
0.0
 35
0.0
146
0.0
 13
0.0
 23
0.0
 33
0.0
 16
1.0
 26
0.0
 36
0.0
 17
0.0
 27
1.0
 37
0.0
 76
     0
330
747D
  0
LAYOUT
  5
17E93
102
{ACAD_XDICTIONARY
360
1962C
102
}
102
{ACAD_REACTORS
330
17E90
102
}
330
17E90
100
AcDbPlotSettings
  1

  2
Microsoft Office Document Image Writer
  4

  6

 40
0.0
 41
0.0
 42
0.0
 43
0.0
 44
0.0
 45
0.0
 46
0.0
 47
0.0
 48
0.0
 49
0.0
140
0.0
141
0.0
142
1.0
143
1.0
 70
   688
 72
     0
 73
     0
 74
     5
  7

 75
    16
147
1.0
148
0.0
149
0.0
100
AcDbLayout
  1
レイアウト1
 70
     0
 71
     1
 10
0.0
 20
0.0
 11
420.0
 21
297.0
 12
0.0
 22
0.0
 32
0.0
 14
1.000000000000000E+20
 24
1.000000000000000E+20
 34
1.000000000000000E+20
 15
-1.000000000000000E+20
 25
-1.000000000000000E+20
 35
-1.000000000000000E+20
146
0.0
 13
0.0
 23
0.0
 33
0.0
 16
1.0
 26
0.0
 36
0.0
 17
0.0
 27
1.0
 37
0.0
 76
     0
330
747A
  0
MLINESTYLE
  5
7480
102
{ACAD_REACTORS
330
7473
102
}
330
7473
100
AcDbMlineStyle
  2
STANDARD
 70
     0
  3

 62
     0
 51
90.0
 52
90.0
 71
     2
 49
0.5
 62
   256
  6
BYLAYER
 49
-0.5
 62
   256
  6
BYLAYER
  0
ACDBPLACEHOLDER
  5
17E8D
102
{ACAD_REACTORS
330
17E8C
102
}
330
17E8C
  0
XRECORD
  5
19629
102
{ACAD_REACTORS
330
19627
102
}
330
19627
100
AcDbXrecord
280
     1
340
17E8F
  0
XRECORD
  5
19628
102
{ACAD_REACTORS
330
19627
102
}
330
19627
100
AcDbXrecord
280
     1
340
17E8E
  0
DICTIONARYVAR
  5
19624
102
{ACAD_REACTORS
330
19623
102
}
330
19623
100
DictionaryVariables
280
     0
  1
1
  0
DICTIONARYVAR
  5
19625
102
{ACAD_REACTORS
330
19623
102
}
330
19623
100
DictionaryVariables
280
     0
  1

  0
DICTIONARY
  5
1962A
330
17E92
100
AcDbDictionary
280
     1
281
     1
  3
ACAD_XREC_ROUNDTRIP
360
1962B
  0
DICTIONARY
  5
1962C
330
17E93
100
AcDbDictionary
280
     1
281
     1
  3
ACAD_XREC_ROUNDTRIP
360
1962D
  0
XRECORD
  5
1962B
102
{ACAD_REACTORS
330
1962A
102
}
330
1962A
100
AcDbXrecord
280
     1
102
SHADEPLOT
 70
     0
102
SHADEPLOTRESLEVEL
 70
     2
102
SHADEPLOTCUSTOMDPI
 70
   150
  0
XRECORD
  5
1962D
102
{ACAD_REACTORS
330
1962C
102
}
330
1962C
100
AcDbXrecord
280
     1
102
SHADEPLOT
 70
     0
102
SHADEPLOTRESLEVEL
 70
     2
102
SHADEPLOTCUSTOMDPI
 70
   300
  0
ENDSEC
  0
EOF
