  0
SECTION
  2
HEADER
  9
$ACADVER
  1
AC1015
  9
$ACADMAINTVER
 70
    20
  9
$DWGCODEPAGE
  3
ANSI_932
  9
$INSBASE
 10
0.0
 20
0.0
 30
0.0
  9
$EXTMIN
 10
139.9999999999995
 20
-0.0000000000000909
 30
0.0
  9
$EXTMAX
 10
16307.2
 20
11409.6
 30
0.0
  9
$LIMMIN
 10
-25.79074261211281
 20
-125.8223078213959
  9
$LIMMAX
 10
16471.10331197129
 20
11496.44801950658
  9
$ORTHOMODE
 70
     0
  9
$REGENMODE
 70
     1
  9
$FILLMODE
 70
     1
  9
$QTEXTMODE
 70
     0
  9
$MIRRTEXT
 70
     1
  9
$LTSCALE
 40
20.0
  9
$ATTMODE
 70
     1
  9
$TEXTSIZE
 40
4.0
  9
$TRACEWID
 40
1.0
  9
$TEXTSTYLE
  7
STYLE1
  9
$CLAYER
  8
寸法
  9
$CELTYPE
  6
BYLAYER
  9
$CECOLOR
 62
   256
  9
$CELTSCALE
 40
50.0
  9
$DISPSILH
 70
     0
  9
$DIMSCALE
 40
40.0
  9
$DIMASZ
 40
2.5
  9
$DIMEXO
 40
0.5
  9
$DIMDLI
 40
7.0
  9
$DIMRND
 40
0.0
  9
$DIMDLE
 40
0.0
  9
$DIMEXE
 40
1.5
  9
$DIMTP
 40
0.0
  9
$DIMTM
 40
0.0
  9
$DIMTXT
 40
3.0
  9
$DIMCEN
 40
0.0
  9
$DIMTSZ
 40
0.0
  9
$DIMTOL
 70
     0
  9
$DIMLIM
 70
     0
  9
$DIMTIH
 70
     0
  9
$DIMTOH
 70
     0
  9
$DIMSE1
 70
     0
  9
$DIMSE2
 70
     0
  9
$DIMTAD
 70
     3
  9
$DIMZIN
 70
     8
  9
$DIMBLK
  1

  9
$DIMASO
 70
     1
  9
$DIMSHO
 70
     1
  9
$DIMPOST
  1

  9
$DIMAPOST
  1

  9
$DIMALT
 70
     0
  9
$DIMALTD
 70
     2
  9
$DIMALTF
 40
0.0394
  9
$DIMLFAC
 40
1.0
  9
$DIMTOFL
 70
     1
  9
$DIMTVP
 40
0.0
  9
$DIMTIX
 70
     1
  9
$DIMSOXD
 70
     0
  9
$DIMSAH
 70
     1
  9
$DIMBLK1
  1
DOTSMALL
  9
$DIMBLK2
  1
DOTSMALL
  9
$DIMSTYLE
  2
INABA_S40G
  9
$DIMCLRD
 70
     0
  9
$DIMCLRE
 70
     0
  9
$DIMCLRT
 70
     7
  9
$DIMTFAC
 40
1.0
  9
$DIMGAP
 40
1.0
  9
$DIMJUST
 70
     0
  9
$DIMSD1
 70
     0
  9
$DIMSD2
 70
     0
  9
$DIMTOLJ
 70
     1
  9
$DIMTZIN
 70
     0
  9
$DIMALTZ
 70
     0
  9
$DIMALTTZ
 70
     0
  9
$DIMUPT
 70
     0
  9
$DIMDEC
 70
     1
  9
$DIMTDEC
 70
     4
  9
$DIMALTU
 70
     2
  9
$DIMALTTD
 70
     2
  9
$DIMTXSTY
  7
STYLE1
  9
$DIMAUNIT
 70
     0
  9
$DIMADEC
 70
     0
  9
$DIMALTRND
 40
0.0
  9
$DIMAZIN
 70
     0
  9
$DIMDSEP
 70
    46
  9
$DIMATFIT
 70
     3
  9
$DIMFRAC
 70
     0
  9
$DIMLDRBLK
  1

  9
$DIMLUNIT
 70
     2
  9
$DIMLWD
 70
    -2
  9
$DIMLWE
 70
    -2
  9
$DIMTMOVE
 70
     0
  9
$LUNITS
 70
     2
  9
$LUPREC
 70
     1
  9
$SKETCHINC
 40
1.0
  9
$FILLETRAD
 40
3.0
  9
$AUNITS
 70
     0
  9
$AUPREC
 70
     0
  9
$MENU
  1
acad
  9
$ELEVATION
 40
0.0
  9
$PELEVATION
 40
0.0
  9
$THICKNESS
 40
0.0
  9
$LIMCHECK
 70
     0
  9
$CHAMFERA
 40
0.0
  9
$CHAMFERB
 40
0.0
  9
$CHAMFERC
 40
0.0
  9
$CHAMFERD
 40
0.0
  9
$SKPOLY
 70
     0
  9
$TDCREATE
 40
2451368.612993866
  9
$TDUCREATE
 40
2451368.237993866
  9
$TDUPDATE
 40
2455575.682987917
  9
$TDUUPDATE
 40
2455575.307987917
  9
$TDINDWG
 40
0.5100634028
  9
$TDUSRTIMER
 40
0.5100634028
  9
$USRTIMER
 70
     1
  9
$ANGBASE
 50
0.0
  9
$ANGDIR
 70
     0
  9
$PDMODE
 70
     3
  9
$PDSIZE
 40
2.0
  9
$PLINEWID
 40
0.0
  9
$SPLFRAME
 70
     0
  9
$SPLINETYPE
 70
     6
  9
$SPLINESEGS
 70
     8
  9
$HANDSEED
  5
18EDD
  9
$SURFTAB1
 70
     6
  9
$SURFTAB2
 70
     6
  9
$SURFTYPE
 70
     6
  9
$SURFU
 70
     6
  9
$SURFV
 70
     6
  9
$UCSBASE
  2

  9
$UCSNAME
  2

  9
$UCSORG
 10
0.0
 20
0.0
 30
0.0
  9
$UCSXDIR
 10
1.0
 20
0.0
 30
0.0
  9
$UCSYDIR
 10
0.0
 20
1.0
 30
0.0
  9
$UCSORTHOREF
  2

  9
$UCSORTHOVIEW
 70
     0
  9
$UCSORGTOP
 10
0.0
 20
0.0
 30
0.0
  9
$UCSORGBOTTOM
 10
0.0
 20
0.0
 30
0.0
  9
$UCSORGLEFT
 10
0.0
 20
0.0
 30
0.0
  9
$UCSORGRIGHT
 10
0.0
 20
0.0
 30
0.0
  9
$UCSORGFRONT
 10
0.0
 20
0.0
 30
0.0
  9
$UCSORGBACK
 10
0.0
 20
0.0
 30
0.0
  9
$PUCSBASE
  2

  9
$PUCSNAME
  2

  9
$PUCSORG
 10
0.0
 20
0.0
 30
0.0
  9
$PUCSXDIR
 10
1.0
 20
0.0
 30
0.0
  9
$PUCSYDIR
 10
0.0
 20
1.0
 30
0.0
  9
$PUCSORTHOREF
  2

  9
$PUCSORTHOVIEW
 70
     0
  9
$PUCSORGTOP
 10
0.0
 20
0.0
 30
0.0
  9
$PUCSORGBOTTOM
 10
0.0
 20
0.0
 30
0.0
  9
$PUCSORGLEFT
 10
0.0
 20
0.0
 30
0.0
  9
$PUCSORGRIGHT
 10
0.0
 20
0.0
 30
0.0
  9
$PUCSORGFRONT
 10
0.0
 20
0.0
 30
0.0
  9
$PUCSORGBACK
 10
0.0
 20
0.0
 30
0.0
  9
$USERI1
 70
     0
  9
$USERI2
 70
     0
  9
$USERI3
 70
     0
  9
$USERI4
 70
     0
  9
$USERI5
 70
     0
  9
$USERR1
 40
0.0
  9
$USERR2
 40
0.0
  9
$USERR3
 40
0.0
  9
$USERR4
 40
0.0
  9
$USERR5
 40
0.0
  9
$WORLDVIEW
 70
     1
  9
$SHADEDGE
 70
     3
  9
$SHADEDIF
 70
    70
  9
$TILEMODE
 70
     1
  9
$MAXACTVP
 70
    16
  9
$PINSBASE
 10
0.0
 20
0.0
 30
0.0
  9
$PLIMCHECK
 70
     0
  9
$PEXTMIN
 10
1.000000000000000E+20
 20
1.000000000000000E+20
 30
1.000000000000000E+20
  9
$PEXTMAX
 10
-1.000000000000000E+20
 20
-1.000000000000000E+20
 30
-1.000000000000000E+20
  9
$PLIMMIN
 10
0.0
 20
0.0
  9
$PLIMMAX
 10
420.0
 20
297.0
  9
$UNITMODE
 70
     0
  9
$VISRETAIN
 70
     0
  9
$PLINEGEN
 70
     0
  9
$PSLTSCALE
 70
     0
  9
$TREEDEPTH
 70
  3020
  9
$CMLSTYLE
  2
STANDARD
  9
$CMLJUST
 70
     0
  9
$CMLSCALE
 40
1.0
  9
$PROXYGRAPHICS
 70
     1
  9
$MEASUREMENT
 70
     1
  9
$CELWEIGHT
370
    -1
  9
$ENDCAPS
280
     0
  9
$JOINSTYLE
280
     0
  9
$LWDISPLAY
290
     0
  9
$INSUNITS
 70
     0
  9
$HYPERLINKBASE
  1

  9
$STYLESHEET
  1
inaba.ctb
  9
$XEDIT
290
     1
  9
$CEPSNTYPE
380
     0
  9
$PSTYLEMODE
290
     1
  9
$FINGERPRINTGUID
  2
{D0209B89-ABB4-40F9-BD48-6BAC47B7313C}
  9
$VERSIONGUID
  2
{2B2B2FB5-ED9D-4EE4-934A-A0DE97D26FA8}
  9
$EXTNAMES
290
     1
  9
$PSVPSCALE
 40
0.0
  9
$OLESTARTUP
290
     0
  0
ENDSEC
  0
SECTION
  2
CLASSES
  0
CLASS
  1
ACDBDICTIONARYWDFLT
  2
AcDbDictionaryWithDefault
  3
ObjectDBX Classes
 90
        0
280
     0
281
     0
  0
CLASS
  1
DICTIONARYVAR
  2
AcDbDictionaryVar
  3
ObjectDBX Classes
 90
        0
280
     0
281
     0
  0
CLASS
  1
ACDBPLACEHOLDER
  2
AcDbPlaceHolder
  3
ObjectDBX Classes
 90
        0
280
     0
281
     0
  0
CLASS
  1
LAYOUT
  2
AcDbLayout
  3
ObjectDBX Classes
 90
        0
280
     0
281
     0
  0
ENDSEC
  0
SECTION
  2
TABLES
  0
TABLE
  2
VPORT
  5
746D
330
0
100
AcDbSymbolTable
 70
     2
  0
VPORT
  5
18ED5
330
746D
100
AcDbSymbolTableRecord
100
AcDbViewportTableRecord
  2
*Active
 70
     0
 10
0.0
 20
0.0
 11
1.0
 21
1.0
 12
8223.761025238504
 22
5704.608037261908
 13
0.0
 23
0.0
 14
10.0
 24
10.0
 15
10.0
 25
10.0
 16
0.0
 26
0.0
 36
1.0
 17
0.0
 27
0.0
 37
0.0
 40
11495.08541324274
 41
1.525925925925925
 42
50.0
 43
0.0
 44
0.0
 50
0.0
 51
0.0
 71
     0
 72
     0
 73
     1
 74
     0
 75
     0
 76
     0
 77
     0
 78
     0
281
     0
 65
     1
110
0.0
120
0.0
130
0.0
111
1.0
121
0.0
131
0.0
112
0.0
122
1.0
132
0.0
 79
     0
146
0.0
  0
ENDTAB
  0
TABLE
  2
LTYPE
  5
746A
330
0
100
AcDbSymbolTable
 70
     4
  0
LTYPE
  5
7477
330
746A
100
AcDbSymbolTableRecord
100
AcDbLinetypeTableRecord
  2
BYBLOCK
 70
     0
  3

 72
    65
 73
     0
 40
0.0
  0
LTYPE
  5
7478
330
746A
100
AcDbSymbolTableRecord
100
AcDbLinetypeTableRecord
  2
BYLAYER
 70
     0
  3

 72
    65
 73
     0
 40
0.0
  0
LTYPE
  5
7479
330
746A
100
AcDbSymbolTableRecord
100
AcDbLinetypeTableRecord
  2
CONTINUOUS
 70
     0
  3
Solid line
 72
    65
 73
     0
 40
0.0
  0
LTYPE
  5
7816
330
746A
100
AcDbSymbolTableRecord
100
AcDbLinetypeTableRecord
  2
CENTER
 70
     0
  3
____ _ ____ _ ____ _ ____ _ ____ _ ____ _ ____ 
 72
    65
 73
     4
 40
2.0
 49
1.25
 74
     0
 49
-0.25
 74
     0
 49
0.25
 74
     0
 49
-0.25
 74
     0
  0
LTYPE
  5
781A
330
746A
100
AcDbSymbolTableRecord
100
AcDbLinetypeTableRecord
  2
HIDDEN
 70
     0
  3
__ __ __ __ __ __ __ __ __ __ __ __ __ __ __ __
 72
    65
 73
     2
 40
0.375
 49
0.25
 74
     0
 49
-0.125
 74
     0
  0
LTYPE
  5
781B
330
746A
100
AcDbSymbolTableRecord
100
AcDbLinetypeTableRecord
  2
PHANTOM
 70
     0
  3
______  __  __  ______  __  __  ______  __  __ 
 72
    65
 73
     6
 40
2.5
 49
1.25
 74
     0
 49
-0.25
 74
     0
 49
0.25
 74
     0
 49
-0.25
 74
     0
 49
0.25
 74
     0
 49
-0.25
 74
     0
  0
ENDTAB
  0
TABLE
  2
LAYER
  5
7467
102
{ACAD_XDICTIONARY
360
17061
102
}
330
0
100
AcDbSymbolTable
 70
    12
  0
LAYER
  5
7474
330
7467
100
AcDbSymbolTableRecord
100
AcDbLayerTableRecord
  2
0
 70
     0
 62
     7
  6
CONTINUOUS
370
    -3
390
16EC5
  0
LAYER
  5
DEB2
330
7467
100
AcDbSymbolTableRecord
100
AcDbLayerTableRecord
  2
センター
 70
     0
 62
     3
  6
CENTER
370
    -3
390
16EC5
  0
LAYER
  5
DEB3
330
7467
100
AcDbSymbolTableRecord
100
AcDbLayerTableRecord
  2
寸法
 70
     0
 62
     4
  6
CONTINUOUS
370
    -3
390
16EC5
  0
LAYER
  5
DEB4
330
7467
100
AcDbSymbolTableRecord
100
AcDbLayerTableRecord
  2
部品1
 70
     0
 62
     7
  6
CONTINUOUS
370
    -3
390
16EC5
  0
LAYER
  5
DEB5
330
7467
100
AcDbSymbolTableRecord
100
AcDbLayerTableRecord
  2
補助
 70
     0
 62
    -1
  6
CONTINUOUS
370
    -3
390
16EC5
  0
LAYER
  5
DEB6
330
7467
100
AcDbSymbolTableRecord
100
AcDbLayerTableRecord
  2
文字
 70
     0
 62
     7
  6
CONTINUOUS
370
    -3
390
16EC5
  0
LAYER
  5
F255
330
7467
100
AcDbSymbolTableRecord
100
AcDbLayerTableRecord
  2
DEFPOINTS
 70
     0
 62
     7
  6
CONTINUOUS
290
     0
370
    -3
390
16EC5
  0
LAYER
  5
10B54
330
7467
100
AcDbSymbolTableRecord
100
AcDbLayerTableRecord
  2
仕様書枠
 70
     0
 62
   230
  6
CONTINUOUS
370
    -3
390
16EC5
  0
LAYER
  5
11729
330
7467
100
AcDbSymbolTableRecord
100
AcDbLayerTableRecord
  2
Ｇ．Ｌ
 70
     0
 62
    30
  6
CONTINUOUS
370
    -3
390
16EC5
  0
LAYER
  5
1173F
330
7467
100
AcDbSymbolTableRecord
100
AcDbLayerTableRecord
  2
細線
 70
     0
 62
     5
  6
CONTINUOUS
370
    -3
390
16EC5
  0
LAYER
  5
12CC4
330
7467
100
AcDbSymbolTableRecord
100
AcDbLayerTableRecord
  2
想像線
 70
     0
 62
     6
  6
PHANTOM
370
    -3
390
16EC5
  0
LAYER
  5
142E2
330
7467
100
AcDbSymbolTableRecord
100
AcDbLayerTableRecord
  2
破線
 70
     0
 62
     2
  6
HIDDEN
370
    -3
390
16EC5
  0
ENDTAB
  0
TABLE
  2
STYLE
  5
7468
330
0
100
AcDbSymbolTable
 70
     4
  0
STYLE
  5
7475
330
7468
100
AcDbSymbolTableRecord
100
AcDbTextStyleTableRecord
  2
STANDARD
 70
     0
 40
0.0
 41
1.0
 50
0.0
 71
     0
 42
4.0
  3
txt
  4
C:\AutoCAD LT\bigfont.shx
  0
STYLE
  5
F706
330
7468
100
AcDbSymbolTableRecord
100
AcDbTextStyleTableRecord
  2
STYLE1
 70
     0
 40
0.0
 41
1.0
 50
0.0
 71
     0
 42
4.0
  3
isocp.shx
  4
bigfont.shx
  0
STYLE
  5
103BF
330
7468
100
AcDbSymbolTableRecord
100
AcDbTextStyleTableRecord
  2
STYLE2
 70
     0
 40
0.0
 41
1.0
 50
0.0
 71
     0
 42
100.0
  3
MS PGothic.ttf
  4

1001
ACAD
1000
MS PGothic
1071
    32818
  0
STYLE
  5
187C5
330
7468
100
AcDbSymbolTableRecord
100
AcDbTextStyleTableRecord
  2
STYLE3
 70
     0
 40
0.0
 41
1.0
 50
0.0
 71
     0
 42
100.0
  3
DFPGothic-EB.ttf
  4

1001
ACAD
1000
DFPGothic-EB
1071
    32818
  0
ENDTAB
  0
TABLE
  2
VIEW
  5
746B
330
0
100
AcDbSymbolTable
 70
     0
  0
ENDTAB
  0
TABLE
  2
UCS
  5
746C
330
0
100
AcDbSymbolTable
 70
     0
  0
ENDTAB
  0
TABLE
  2
APPID
  5
746E
330
0
100
AcDbSymbolTable
 70
     6
  0
APPID
  5
7476
330
746E
100
AcDbSymbolTableRecord
100
AcDbRegAppTableRecord
  2
ACAD
 70
     0
  0
APPID
  5
DEA9
330
746E
100
AcDbSymbolTableRecord
100
AcDbRegAppTableRecord
  2
CONTENTBLOCKICON
 70
     0
  0
APPID
  5
DEAA
330
746E
100
AcDbSymbolTableRecord
100
AcDbRegAppTableRecord
  2
CONTENTBLOCKDESCRIPTION
 70
     0
  0
APPID
  5
E71D
330
746E
100
AcDbSymbolTableRecord
100
AcDbRegAppTableRecord
  2
CONTENTTABDATA
 70
     0
  0
APPID
  5
E71E
330
746E
100
AcDbSymbolTableRecord
100
AcDbRegAppTableRecord
  2
CONTENTCURRENTTAB
 70
     0
  0
APPID
  5
F3BA
330
746E
100
AcDbSymbolTableRecord
100
AcDbRegAppTableRecord
  2
DRAWINGVARIABLESXDATA
 70
     0
  0
ENDTAB
  0
TABLE
  2
DIMSTYLE
  5
746F
330
0
100
AcDbSymbolTable
 70
     5
100
AcDbDimStyleTable
 71
     0
  0
DIMSTYLE
105
7484
330
746F
100
AcDbSymbolTableRecord
100
AcDbDimStyleTableRecord
  2
JIS
 70
     0
 41
2.5
 42
1.0
 43
7.0
 44
1.0
 73
     0
 74
     0
 77
     1
 78
     8
140
2.5
141
0.0
143
0.0394
147
0.0
172
     1
174
     1
175
     1
340
7475
  0
DIMSTYLE
105
F71F
102
{ACAD_REACTORS
330
1754D
330
1754E
330
1754F
330
175CC
330
17385
330
17386
330
173A5
330
173A6
330
173A7
330
173A8
330
173AC
330
173E3
330
173E4
330
173E8
330
173F3
330
173F4
330
1814D
330
1814E
330
1814F
330
18150
330
1815E
330
18173
330
18174
330
18175
330
18176
330
18190
330
18191
330
18195
330
18B66
330
18C67
102
}
330
746F
100
AcDbSymbolTableRecord
100
AcDbDimStyleTableRecord
  2
INABA_S40G
 70
     0
 40
40.0
 41
2.5
 42
0.5
 43
7.0
 44
1.5
 73
     0
 74
     0
 77
     3
 78
     8
140
3.0
141
0.0
143
0.0394
147
1.0
172
     1
173
     1
174
     1
178
     7
271
     1
340
F706
341
F770
343
F770
344
F770
  0
DIMSTYLE
105
17060
102
{ACAD_REACTORS
330
188D1
330
18B67
102
}
330
746F
100
AcDbSymbolTableRecord
100
AcDbDimStyleTableRecord
  2
INABA_S40
 70
     0
 40
40.0
 41
2.5
 42
0.5
 43
7.0
 44
1.5
 73
     0
 74
     0
 77
     3
 78
     8
140
3.0
141
0.0
143
0.0394
147
1.0
172
     1
173
     1
174
     1
175
     1
178
     7
340
7475
  0
DIMSTYLE
105
187C6
330
746F
100
AcDbSymbolTableRecord
100
AcDbDimStyleTableRecord
  2
INABA_S50G
 70
     0
 41
125.0
 42
25.0
 43
7.0
 44
75.0
 73
     0
 74
     0
 77
     3
 78
     8
140
150.0
141
0.0
143
0.0394
147
25.0
172
     1
173
     1
174
     1
175
     1
178
     7
271
     1
340
F706
341
F770
343
F770
344
F770
  0
DIMSTYLE
105
18E5B
330
746F
100
AcDbSymbolTableRecord
100
AcDbDimStyleTableRecord
  2
INABA_S20G
 70
     0
 40
20.0
 41
2.5
 42
0.5
 43
7.0
 44
1.5
 73
     0
 74
     0
 77
     3
 78
     8
140
3.0
141
0.0
143
0.0394
147
1.0
172
     1
173
     1
174
     1
178
     7
271
     1
340
F706
341
F770
343
F770
344
F770
  0
ENDTAB
  0
TABLE
  2
BLOCK_RECORD
  5
7466
330
0
100
AcDbSymbolTable
 70
    34
  0
BLOCK_RECORD
  5
747D
330
7466
100
AcDbSymbolTableRecord
100
AcDbBlockTableRecord
  2
*MODEL_SPACE
340
16ECA
  0
BLOCK_RECORD
  5
747A
330
7466
100
AcDbSymbolTableRecord
100
AcDbBlockTableRecord
  2
*PAPER_SPACE
340
16ECB
  0
BLOCK_RECORD
  5
F770
330
7466
100
AcDbSymbolTableRecord
100
AcDbBlockTableRecord
  2
_DOTSMALL
340
0
102
{BLKREFS
331
1866D
331
1866E
331
18677
331
18678
331
18680
331
18681
331
1868B
331
1868C
331
18695
331
18696
331
1869E
331
1869F
331
186A7
331
186A8
331
186B1
331
186B2
331
186BA
331
186BB
331
186C5
331
186C6
331
186CE
331
186CF
331
186D7
331
186D8
331
186ED
331
186EE
331
186F6
331
186F7
331
18701
331
18702
331
1870A
331
1870B
331
18787
331
18788
331
18790
331
18791
331
18DCD
331
18DCE
331
18DE1
331
18DE2
331
18DF5
331
18DF6
331
18DFE
331
18DFF
331
18E09
331
18E0A
331
18E12
331
18E13
331
18E1B
331
18E1C
331
18E24
331
18E25
331
18E2D
331
18E2E
331
18E38
331
18E39
331
18E41
331
18E42
331
18E4C
331
18E4D
102
}
  0
BLOCK_RECORD
  5
16ED2
330
7466
100
AcDbSymbolTableRecord
100
AcDbBlockTableRecord
  2
_DOT
340
0
102
{BLKREFS
331
18DD8
331
18DD9
331
18DEA
331
18DEB
102
}
  0
BLOCK_RECORD
  5
17693
330
7466
100
AcDbSymbolTableRecord
100
AcDbBlockTableRecord
  2
*D2
340
0
  0
BLOCK_RECORD
  5
1769F
330
7466
100
AcDbSymbolTableRecord
100
AcDbBlockTableRecord
  2
*D3
340
0
  0
BLOCK_RECORD
  5
176AD
330
7466
100
AcDbSymbolTableRecord
100
AcDbBlockTableRecord
  2
*D4
340
0
  0
BLOCK_RECORD
  5
176B9
330
7466
100
AcDbSymbolTableRecord
100
AcDbBlockTableRecord
  2
*D5
340
0
  0
BLOCK_RECORD
  5
1776C
330
7466
100
AcDbSymbolTableRecord
100
AcDbBlockTableRecord
  2
*D6
340
0
  0
BLOCK_RECORD
  5
17778
330
7466
100
AcDbSymbolTableRecord
100
AcDbBlockTableRecord
  2
*D7
340
0
  0
BLOCK_RECORD
  5
17784
330
7466
100
AcDbSymbolTableRecord
100
AcDbBlockTableRecord
  2
*D8
340
0
  0
BLOCK_RECORD
  5
17792
330
7466
100
AcDbSymbolTableRecord
100
AcDbBlockTableRecord
  2
*D9
340
0
  0
BLOCK_RECORD
  5
1779E
330
7466
100
AcDbSymbolTableRecord
100
AcDbBlockTableRecord
  2
*D10
340
0
  0
BLOCK_RECORD
  5
177AC
330
7466
100
AcDbSymbolTableRecord
100
AcDbBlockTableRecord
  2
*D11
340
0
  0
BLOCK_RECORD
  5
177C4
330
7466
100
AcDbSymbolTableRecord
100
AcDbBlockTableRecord
  2
*D12
340
0
  0
BLOCK_RECORD
  5
177D0
330
7466
100
AcDbSymbolTableRecord
100
AcDbBlockTableRecord
  2
*D13
340
0
  0
BLOCK_RECORD
  5
177DC
330
7466
100
AcDbSymbolTableRecord
100
AcDbBlockTableRecord
  2
*D14
340
0
  0
BLOCK_RECORD
  5
177E8
330
7466
100
AcDbSymbolTableRecord
100
AcDbBlockTableRecord
  2
*D15
340
0
  0
BLOCK_RECORD
  5
177F6
330
7466
100
AcDbSymbolTableRecord
100
AcDbBlockTableRecord
  2
*D16
340
0
  0
BLOCK_RECORD
  5
17802
330
7466
100
AcDbSymbolTableRecord
100
AcDbBlockTableRecord
  2
*D17
340
0
  0
BLOCK_RECORD
  5
182C0
330
7466
100
AcDbSymbolTableRecord
100
AcDbBlockTableRecord
  2
*D18
340
0
  0
BLOCK_RECORD
  5
182CC
330
7466
100
AcDbSymbolTableRecord
100
AcDbBlockTableRecord
  2
*D19
340
0
  0
BLOCK_RECORD
  5
182D8
330
7466
100
AcDbSymbolTableRecord
100
AcDbBlockTableRecord
  2
*D20
340
0
  0
BLOCK_RECORD
  5
182E6
330
7466
100
AcDbSymbolTableRecord
100
AcDbBlockTableRecord
  2
*D21
340
0
  0
BLOCK_RECORD
  5
182F2
330
7466
100
AcDbSymbolTableRecord
100
AcDbBlockTableRecord
  2
*D22
340
0
  0
BLOCK_RECORD
  5
182FF
330
7466
100
AcDbSymbolTableRecord
100
AcDbBlockTableRecord
  2
*D23
340
0
  0
BLOCK_RECORD
  5
1830B
330
7466
100
AcDbSymbolTableRecord
100
AcDbBlockTableRecord
  2
*D24
340
0
  0
BLOCK_RECORD
  5
18317
330
7466
100
AcDbSymbolTableRecord
100
AcDbBlockTableRecord
  2
*D25
340
0
  0
BLOCK_RECORD
  5
18324
330
7466
100
AcDbSymbolTableRecord
100
AcDbBlockTableRecord
  2
*D26
340
0
  0
BLOCK_RECORD
  5
18332
330
7466
100
AcDbSymbolTableRecord
100
AcDbBlockTableRecord
  2
*D27
340
0
  0
BLOCK_RECORD
  5
1833F
330
7466
100
AcDbSymbolTableRecord
100
AcDbBlockTableRecord
  2
*D28
340
0
  0
BLOCK_RECORD
  5
1834B
330
7466
100
AcDbSymbolTableRecord
100
AcDbBlockTableRecord
  2
*D29
340
0
  0
BLOCK_RECORD
  5
1893C
330
7466
100
AcDbSymbolTableRecord
100
AcDbBlockTableRecord
  2
*D30
340
0
  0
BLOCK_RECORD
  5
18C73
330
7466
100
AcDbSymbolTableRecord
100
AcDbBlockTableRecord
  2
*D31
340
0
  0
BLOCK_RECORD
  5
18C7F
330
7466
100
AcDbSymbolTableRecord
100
AcDbBlockTableRecord
  2
*D32
340
0
  0
BLOCK_RECORD
  5
18CE5
330
7466
100
AcDbSymbolTableRecord
100
AcDbBlockTableRecord
  2
*D33
340
0
  0
ENDTAB
  0
ENDSEC
  0
SECTION
  2
BLOCKS
  0
BLOCK
  5
7489
330
747D
100
AcDbEntity
  8
0
100
AcDbBlockBegin
  2
*MODEL_SPACE
 70
     0
 10
0.0
 20
0.0
 30
0.0
  3
*MODEL_SPACE
  1

  0
ENDBLK
  5
748A
330
747D
100
AcDbEntity
  8
0
100
AcDbBlockEnd
  0
BLOCK
  5
7487
330
747A
100
AcDbEntity
 67
     1
  8
0
100
AcDbBlockBegin
  2
*PAPER_SPACE
 70
     0
 10
0.0
 20
0.0
 30
0.0
  3
*PAPER_SPACE
  1

  0
ENDBLK
  5
7488
330
747A
100
AcDbEntity
 67
     1
  8
0
100
AcDbBlockEnd
  0
BLOCK
  5
F771
330
F770
100
AcDbEntity
  8
0
 48
50.0
100
AcDbBlockBegin
  2
_DOTSMALL
 70
     0
 10
0.0
 20
0.0
 30
0.0
  3
_DOTSMALL
  1

  0
LWPOLYLINE
  5
F772
330
F770
100
AcDbEntity
  8
0
  6
ByBlock
 62
     0
 48
50.0
100
AcDbPolyline
 90
        2
 70
     1
 43
0.5
 10
-0.0625
 20
0.0
 42
1.0
 10
0.0625
 20
0.0
 42
1.0
  0
ENDBLK
  5
F776
330
F770
100
AcDbEntity
  8
0
 48
50.0
100
AcDbBlockEnd
  0
BLOCK
  5
16ED3
330
16ED2
100
AcDbEntity
  8
0
 48
50.0
100
AcDbBlockBegin
  2
_DOT
 70
     0
 10
0.0
 20
0.0
 30
0.0
  3
_DOT
  1

  0
LWPOLYLINE
  5
16ED4
330
16ED2
100
AcDbEntity
  8
0
  6
ByBlock
 62
     0
 48
50.0
100
AcDbPolyline
 90
        2
 70
     1
 43
0.5
 10
-0.25
 20
0.0
 42
1.0
 10
0.25
 20
0.0
 42
1.0
  0
LINE
  5
16ED5
330
16ED2
100
AcDbEntity
  8
0
  6
ByBlock
 62
     0
 48
50.0
100
AcDbLine
 10
-0.5
 20
0.0
 30
0.0
 11
-1.0
 21
0.0
 31
0.0
  0
ENDBLK
  5
16ED6
330
16ED2
100
AcDbEntity
  8
0
 48
50.0
100
AcDbBlockEnd
  0
BLOCK
  5
1769D
330
17693
100
AcDbEntity
  8
0
 48
50.0
100
AcDbBlockBegin
  2
*D2
 70
     1
 10
0.0
 20
0.0
 30
0.0
  3
*D2
  1

  0
LINE
  5
18707
330
17693
100
AcDbEntity
  8
寸法
 62
     0
 48
50.0
370
    -2
100
AcDbLine
 10
11441.49457900991
 20
4433.326805657116
 30
0.0
 11
11441.49457900991
 21
4872.419974996582
 31
0.0
  0
LINE
  5
18708
330
17693
100
AcDbEntity
  8
寸法
 62
     0
 48
50.0
370
    -2
100
AcDbLine
 10
8811.494579009911
 20
4433.326805657119
 30
0.0
 11
8811.494579009911
 21
4872.419974996582
 31
0.0
  0
LINE
  5
18709
330
17693
100
AcDbEntity
  8
寸法
 62
     0
 48
50.0
370
    -2
100
AcDbLine
 10
11441.49457900991
 20
4812.419974996583
 30
0.0
 11
8811.494579009911
 21
4812.419974996583
 31
0.0
  0
INSERT
  5
1870A
330
17693
100
AcDbEntity
  8
寸法
 62
     0
 48
50.0
370
    -2
100
AcDbBlockReference
  2
_DOTSMALL
 10
11441.49457900991
 20
4812.419974996583
 30
0.0
 41
100.0
 42
100.0
 43
100.0
  0
INSERT
  5
1870B
330
17693
100
AcDbEntity
  8
寸法
 62
     0
 48
50.0
370
    -2
100
AcDbBlockReference
  2
_DOTSMALL
 10
8811.494579009911
 20
4812.419974996583
 30
0.0
 41
100.0
 42
100.0
 43
100.0
 50
180.0
  0
MTEXT
  5
1870C
330
17693
100
AcDbEntity
  8
寸法
 62
     7
 48
50.0
100
AcDbMText
 10
10126.49457900991
 20
4912.431786020205
 30
0.0
 40
120.0
 41
0.0
 71
     5
 72
     1
  1
\A1;柱外寸法2630
  7
STYLE1
 73
     1
 44
1.0
1001
ACAD
1000
MTEXTBEGIN
1070
    73
1070
     1
1070
    44
1040
1.0
1070
    74
1070
     0
1000
MTEXTEND
  0
POINT
  5
1870D
330
17693
100
AcDbEntity
  8
DEFPOINTS
 62
     0
 48
50.0
100
AcDbPoint
 10
11441.49457900991
 20
4413.326805657116
 30
0.0
  0
POINT
  5
1870E
330
17693
100
AcDbEntity
  8
DEFPOINTS
 62
     0
 48
50.0
100
AcDbPoint
 10
8811.494579009911
 20
4413.32680565712
 30
0.0
  0
POINT
  5
1870F
330
17693
100
AcDbEntity
  8
DEFPOINTS
 62
     0
 48
50.0
100
AcDbPoint
 10
8811.494579009911
 20
4812.419974996583
 30
0.0
  0
ENDBLK
  5
1769E
330
17693
100
AcDbEntity
  8
0
 48
50.0
100
AcDbBlockEnd
  0
BLOCK
  5
176AB
330
1769F
100
AcDbEntity
  8
0
 48
50.0
100
AcDbBlockBegin
  2
*D3
 70
     1
 10
0.0
 20
0.0
 30
0.0
  3
*D3
  1

  0
LINE
  5
186FC
330
1769F
100
AcDbEntity
  8
寸法
 62
     0
 48
50.0
370
    -2
100
AcDbLine
 10
8811.494579009911
 20
4433.326805657119
 30
0.0
 11
8811.494579009911
 21
4872.419974996586
 31
0.0
  0
LINE
  5
186FD
330
1769F
100
AcDbEntity
  8
寸法
 62
     0
 48
50.0
370
    -2
100
AcDbLine
 10
8761.494579009911
 20
4433.326805657116
 30
0.0
 11
8761.494579009911
 21
4872.419974996586
 31
0.0
  0
LINE
  5
186FE
330
1769F
100
AcDbEntity
  8
寸法
 62
     0
 48
50.0
370
    -2
100
AcDbLine
 10
8811.494579009911
 20
4812.419974996586
 30
0.0
 11
8911.494579009911
 21
4812.419974996586
 31
0.0
  0
LINE
  5
186FF
330
1769F
100
AcDbEntity
  8
寸法
 62
     0
 48
50.0
370
    -2
100
AcDbLine
 10
8761.494579009911
 20
4812.419974996586
 30
0.0
 11
8341.962053541179
 21
4812.419974996586
 31
0.0
  0
LINE
  5
18700
330
1769F
100
AcDbEntity
  8
寸法
 62
     0
 48
50.0
370
    -2
100
AcDbLine
 10
8811.494579009911
 20
4812.419974996586
 30
0.0
 11
8761.494579009911
 21
4812.419974996586
 31
0.0
  0
INSERT
  5
18701
330
1769F
100
AcDbEntity
  8
寸法
 62
     0
 48
50.0
370
    -2
100
AcDbBlockReference
  2
_DOTSMALL
 10
8811.494579009911
 20
4812.419974996586
 30
0.0
 41
100.0
 42
100.0
 43
100.0
 50
180.0
  0
INSERT
  5
18702
330
1769F
100
AcDbEntity
  8
寸法
 62
     0
 48
50.0
370
    -2
100
AcDbBlockReference
  2
_DOTSMALL
 10
8761.494579009911
 20
4812.419974996586
 30
0.0
 41
100.0
 42
100.0
 43
100.0
  0
MTEXT
  5
18703
330
1769F
100
AcDbEntity
  8
寸法
 62
     7
 48
50.0
100
AcDbMText
 10
8448.009297635664
 20
4912.419974996587
 30
0.0
 40
120.0
 41
0.0
 71
     5
 72
     1
  1
\A1;50
  7
STYLE1
 73
     1
 44
1.0
1001
ACAD
1000
MTEXTBEGIN
1070
    73
1070
     1
1070
    44
1040
1.0
1070
    74
1070
     0
1000
MTEXTEND
  0
POINT
  5
18704
330
1769F
100
AcDbEntity
  8
DEFPOINTS
 62
     0
 48
50.0
100
AcDbPoint
 10
8811.494579009911
 20
4413.32680565712
 30
0.0
  0
POINT
  5
18705
330
1769F
100
AcDbEntity
  8
DEFPOINTS
 62
     0
 48
50.0
100
AcDbPoint
 10
8761.494579009911
 20
4413.326805657116
 30
0.0
  0
POINT
  5
18706
330
1769F
100
AcDbEntity
  8
DEFPOINTS
 62
     0
 48
50.0
100
AcDbPoint
 10
8761.494579009911
 20
4812.419974996586
 30
0.0
  0
ENDBLK
  5
176AC
330
1769F
100
AcDbEntity
  8
0
 48
50.0
100
AcDbBlockEnd
  0
BLOCK
  5
176B7
330
176AD
100
AcDbEntity
  8
0
 48
50.0
100
AcDbBlockBegin
  2
*D4
 70
     1
 10
0.0
 20
0.0
 30
0.0
  3
*D4
  1

  0
LINE
  5
186F3
330
176AD
100
AcDbEntity
  8
寸法
 62
     0
 48
50.0
370
    -2
100
AcDbLine
 10
8761.494579009911
 20
4433.326805657116
 30
0.0
 11
8761.494579009911
 21
5088.94607461503
 31
0.0
  0
LINE
  5
186F4
330
176AD
100
AcDbEntity
  8
寸法
 62
     0
 48
50.0
370
    -2
100
AcDbLine
 10
11491.49457900991
 20
4433.326805657116
 30
0.0
 11
11491.49457900991
 21
5088.94607461503
 31
0.0
  0
LINE
  5
186F5
330
176AD
100
AcDbEntity
  8
寸法
 62
     0
 48
50.0
370
    -2
100
AcDbLine
 10
8761.494579009911
 20
5028.946074615031
 30
0.0
 11
11491.49457900991
 21
5028.946074615031
 31
0.0
  0
INSERT
  5
186F6
330
176AD
100
AcDbEntity
  8
寸法
 62
     0
 48
50.0
370
    -2
100
AcDbBlockReference
  2
_DOTSMALL
 10
8761.494579009911
 20
5028.946074615031
 30
0.0
 41
100.0
 42
100.0
 43
100.0
 50
180.0
  0
INSERT
  5
186F7
330
176AD
100
AcDbEntity
  8
寸法
 62
     0
 48
50.0
370
    -2
100
AcDbBlockReference
  2
_DOTSMALL
 10
11491.49457900991
 20
5028.946074615031
 30
0.0
 41
100.0
 42
100.0
 43
100.0
  0
MTEXT
  5
186F8
330
176AD
100
AcDbEntity
  8
寸法
 62
     7
 48
50.0
100
AcDbMText
 10
10126.49457900991
 20
5128.957885638652
 30
0.0
 40
120.0
 41
0.0
 71
     5
 72
     1
  1
\A1;2730
  7
STYLE1
 73
     1
 44
1.0
1001
ACAD
1000
MTEXTBEGIN
1070
    73
1070
     1
1070
    44
1040
1.0
1070
    74
1070
     0
1000
MTEXTEND
  0
POINT
  5
186F9
330
176AD
100
AcDbEntity
  8
DEFPOINTS
 62
     0
 48
50.0
100
AcDbPoint
 10
8761.494579009911
 20
4413.326805657116
 30
0.0
  0
POINT
  5
186FA
330
176AD
100
AcDbEntity
  8
DEFPOINTS
 62
     0
 48
50.0
100
AcDbPoint
 10
11491.49457900991
 20
4413.326805657116
 30
0.0
  0
POINT
  5
186FB
330
176AD
100
AcDbEntity
  8
DEFPOINTS
 62
     0
 48
50.0
100
AcDbPoint
 10
11491.49457900991
 20
5028.946074615031
 30
0.0
  0
ENDBLK
  5
176B8
330
176AD
100
AcDbEntity
  8
0
 48
50.0
100
AcDbBlockEnd
  0
BLOCK
  5
176C5
330
176B9
100
AcDbEntity
  8
0
 48
50.0
100
AcDbBlockBegin
  2
*D5
 70
     1
 10
0.0
 20
0.0
 30
0.0
  3
*D5
  1

  0
LINE
  5
186E8
330
176B9
100
AcDbEntity
  8
寸法
 62
     0
 48
50.0
370
    -2
100
AcDbLine
 10
11491.49457900991
 20
4433.326805657116
 30
0.0
 11
11491.49457900991
 21
4872.419974996586
 31
0.0
  0
LINE
  5
186E9
330
176B9
100
AcDbEntity
  8
寸法
 62
     0
 48
50.0
370
    -2
100
AcDbLine
 10
11441.49457900991
 20
4433.326805657116
 30
0.0
 11
11441.49457900991
 21
4872.419974996586
 31
0.0
  0
LINE
  5
186EA
330
176B9
100
AcDbEntity
  8
寸法
 62
     0
 48
50.0
370
    -2
100
AcDbLine
 10
11441.49457900991
 20
4812.419974996586
 30
0.0
 11
11341.49457900991
 21
4812.419974996586
 31
0.0
  0
LINE
  5
186EB
330
176B9
100
AcDbEntity
  8
寸法
 62
     0
 48
50.0
370
    -2
100
AcDbLine
 10
11491.49457900991
 20
4812.419974996586
 30
0.0
 11
11911.02710447863
 21
4812.419974996586
 31
0.0
  0
LINE
  5
186EC
330
176B9
100
AcDbEntity
  8
寸法
 62
     0
 48
50.0
370
    -2
100
AcDbLine
 10
11441.49457900991
 20
4812.419974996586
 30
0.0
 11
11491.49457900991
 21
4812.419974996586
 31
0.0
  0
INSERT
  5
186ED
330
176B9
100
AcDbEntity
  8
寸法
 62
     0
 48
50.0
370
    -2
100
AcDbBlockReference
  2
_DOTSMALL
 10
11441.49457900991
 20
4812.419974996586
 30
0.0
 41
100.0
 42
100.0
 43
100.0
  0
INSERT
  5
186EE
330
176B9
100
AcDbEntity
  8
寸法
 62
     0
 48
50.0
370
    -2
100
AcDbBlockReference
  2
_DOTSMALL
 10
11491.49457900991
 20
4812.419974996586
 30
0.0
 41
100.0
 42
100.0
 43
100.0
 50
180.0
  0
MTEXT
  5
186EF
330
176B9
100
AcDbEntity
  8
寸法
 62
     7
 48
50.0
100
AcDbMText
 10
11804.97986038414
 20
4912.419974996587
 30
0.0
 40
120.0
 41
0.0
 71
     5
 72
     1
  1
\A1;50
  7
STYLE1
 73
     1
 44
1.0
1001
ACAD
1000
MTEXTBEGIN
1070
    73
1070
     1
1070
    44
1040
1.0
1070
    74
1070
     0
1000
MTEXTEND
  0
POINT
  5
186F0
330
176B9
100
AcDbEntity
  8
DEFPOINTS
 62
     0
 48
50.0
100
AcDbPoint
 10
11491.49457900991
 20
4413.326805657116
 30
0.0
  0
POINT
  5
186F1
330
176B9
100
AcDbEntity
  8
DEFPOINTS
 62
     0
 48
50.0
100
AcDbPoint
 10
11441.49457900991
 20
4413.326805657116
 30
0.0
  0
POINT
  5
186F2
330
176B9
100
AcDbEntity
  8
DEFPOINTS
 62
     0
 48
50.0
100
AcDbPoint
 10
11441.49457900991
 20
4812.419974996586
 30
0.0
  0
ENDBLK
  5
176C6
330
176B9
100
AcDbEntity
  8
0
 48
50.0
100
AcDbBlockEnd
  0
BLOCK
  5
17776
330
1776C
100
AcDbEntity
  8
0
 48
50.0
100
AcDbBlockBegin
  2
*D6
 70
     1
 10
0.0
 20
0.0
 30
0.0
  3
*D6
  1

  0
LINE
  5
1878D
330
1776C
100
AcDbEntity
  8
寸法
 62
     0
 48
50.0
370
    -2
100
AcDbLine
 10
9239.494579009914
 20
4121.326805657112
 30
0.0
 11
8418.111206790907
 21
4121.326805657112
 31
0.0
  0
LINE
  5
1878E
330
1776C
100
AcDbEntity
  8
寸法
 62
     0
 48
50.0
370
    -2
100
AcDbLine
 10
9239.494579009914
 20
2396.326805657112
 30
0.0
 11
8418.111206790905
 21
2396.326805657113
 31
0.0
  0
LINE
  5
1878F
330
1776C
100
AcDbEntity
  8
寸法
 62
     0
 48
50.0
370
    -2
100
AcDbLine
 10
8478.111206790908
 20
4121.326805657112
 30
0.0
 11
8478.111206790904
 21
2396.326805657113
 31
0.0
  0
INSERT
  5
18790
330
1776C
100
AcDbEntity
  8
寸法
 62
     0
 48
50.0
370
    -2
100
AcDbBlockReference
  2
_DOTSMALL
 10
8478.111206790908
 20
4121.326805657112
 30
0.0
 41
100.0
 42
100.0
 43
100.0
 50
90.0
  0
INSERT
  5
18791
330
1776C
100
AcDbEntity
  8
寸法
 62
     0
 48
50.0
370
    -2
100
AcDbBlockReference
  2
_DOTSMALL
 10
8478.111206790904
 20
2396.326805657113
 30
0.0
 41
100.0
 42
100.0
 43
100.0
 50
270.0
  0
MTEXT
  5
18792
330
1776C
100
AcDbEntity
  8
寸法
 62
     7
 48
50.0
100
AcDbMText
 10
8378.099395767284
 20
3253.275749858853
 30
0.0
 40
120.0
 41
0.0
 71
     5
 72
     1
  1
\A1;有効開口部高サ1725
  7
STYLE1
 11
0.0000000000000001
 21
1.0
 31
0.0
 73
     1
 44
1.0
1001
ACAD
1000
MTEXTBEGIN
1070
    73
1070
     1
1070
    44
1040
1.0
1070
    74
1070
     0
1000
MTEXTEND
  0
POINT
  5
18793
330
1776C
100
AcDbEntity
  8
DEFPOINTS
 62
     0
 48
50.0
100
AcDbPoint
 10
9259.494579009913
 20
4121.326805657112
 30
0.0
  0
POINT
  5
18794
330
1776C
100
AcDbEntity
  8
DEFPOINTS
 62
     0
 48
50.0
100
AcDbPoint
 10
9259.494579009913
 20
2396.326805657112
 30
0.0
  0
POINT
  5
18795
330
1776C
100
AcDbEntity
  8
DEFPOINTS
 62
     0
 48
50.0
100
AcDbPoint
 10
8478.111206790904
 20
2396.326805657113
 30
0.0
  0
ENDBLK
  5
17777
330
1776C
100
AcDbEntity
  8
0
 48
50.0
100
AcDbBlockEnd
  0
BLOCK
  5
17782
330
17778
100
AcDbEntity
  8
0
 48
50.0
100
AcDbBlockBegin
  2
*D7
 70
     1
 10
0.0
 20
0.0
 30
0.0
  3
*D7
  1

  0
LINE
  5
18784
330
17778
100
AcDbEntity
  8
寸法
 62
     0
 48
50.0
370
    -2
100
AcDbLine
 10
8911.494579009914
 20
2018.326805657112
 30
0.0
 11
8911.494579009914
 21
1692.279476356734
 31
0.0
  0
LINE
  5
18785
330
17778
100
AcDbEntity
  8
寸法
 62
     0
 48
50.0
370
    -2
100
AcDbLine
 10
8711.494579009912
 20
2018.326805657112
 30
0.0
 11
8711.494579009912
 21
1692.279476356734
 31
0.0
  0
LINE
  5
18786
330
17778
100
AcDbEntity
  8
寸法
 62
     0
 48
50.0
370
    -2
100
AcDbLine
 10
8911.494579009914
 20
1752.279476356734
 30
0.0
 11
8711.494579009912
 21
1752.279476356734
 31
0.0
  0
INSERT
  5
18787
330
17778
100
AcDbEntity
  8
寸法
 62
     0
 48
50.0
370
    -2
100
AcDbBlockReference
  2
_DOTSMALL
 10
8911.494579009914
 20
1752.279476356734
 30
0.0
 41
100.0
 42
100.0
 43
100.0
  0
INSERT
  5
18788
330
17778
100
AcDbEntity
  8
寸法
 62
     0
 48
50.0
370
    -2
100
AcDbBlockReference
  2
_DOTSMALL
 10
8711.494579009912
 20
1752.279476356734
 30
0.0
 41
100.0
 42
100.0
 43
100.0
 50
180.0
  0
MTEXT
  5
18789
330
17778
100
AcDbEntity
  8
寸法
 62
     7
 48
50.0
100
AcDbMText
 10
8811.494579009911
 20
1852.291287380356
 30
0.0
 40
120.0
 41
0.0
 71
     5
 72
     1
  1
\A1;200
  7
STYLE1
 73
     1
 44
1.0
1001
ACAD
1000
MTEXTBEGIN
1070
    73
1070
     1
1070
    44
1040
1.0
1070
    74
1070
     0
1000
MTEXTEND
  0
POINT
  5
1878A
330
17778
100
AcDbEntity
  8
DEFPOINTS
 62
     0
 48
50.0
100
AcDbPoint
 10
8911.494579009914
 20
2038.326805657112
 30
0.0
  0
POINT
  5
1878B
330
17778
100
AcDbEntity
  8
DEFPOINTS
 62
     0
 48
50.0
100
AcDbPoint
 10
8711.494579009912
 20
2038.326805657112
 30
0.0
  0
POINT
  5
1878C
330
17778
100
AcDbEntity
  8
DEFPOINTS
 62
     0
 48
50.0
100
AcDbPoint
 10
8711.494579009912
 20
1752.279476356734
 30
0.0
  0
ENDBLK
  5
17783
330
17778
100
AcDbEntity
  8
0
 48
50.0
100
AcDbBlockEnd
  0
BLOCK
  5
17790
330
17784
100
AcDbEntity
  8
0
 48
50.0
100
AcDbBlockBegin
  2
*D8
 70
     1
 10
0.0
 20
0.0
 30
0.0
  3
*D8
  1

  0
LINE
  5
18E47
330
17784
100
AcDbEntity
  8
寸法
 62
     0
 48
50.0
370
    -2
100
AcDbLine
 10
8811.494579009886
 20
9622.682228198071
 30
0.0
 11
8811.494579009886
 21
9962.682228198069
 31
0.0
  0
LINE
  5
18E48
330
17784
100
AcDbEntity
  8
寸法
 62
     0
 48
50.0
370
    -2
100
AcDbLine
 10
8866.494579009922
 20
9622.682228198071
 30
0.0
 11
8866.494579009922
 21
9962.682228198069
 31
0.0
  0
LINE
  5
18E49
330
17784
100
AcDbEntity
  8
寸法
 62
     0
 48
50.0
370
    -2
100
AcDbLine
 10
8866.494579009922
 20
9902.68222819807
 30
0.0
 11
8966.494579009923
 21
9902.68222819807
 31
0.0
  0
LINE
  5
18E4A
330
17784
100
AcDbEntity
  8
寸法
 62
     0
 48
50.0
370
    -2
100
AcDbLine
 10
8811.494579009886
 20
9902.68222819807
 30
0.0
 11
8394.52401626141
 21
9902.68222819807
 31
0.0
  0
LINE
  5
18E4B
330
17784
100
AcDbEntity
  8
寸法
 62
     0
 48
50.0
370
    -2
100
AcDbLine
 10
8866.494579009922
 20
9902.68222819807
 30
0.0
 11
8811.494579009886
 21
9902.68222819807
 31
0.0
  0
INSERT
  5
18E4C
330
17784
100
AcDbEntity
  8
寸法
 62
     0
 48
50.0
370
    -2
100
AcDbBlockReference
  2
_DOTSMALL
 10
8866.494579009922
 20
9902.68222819807
 30
0.0
 41
100.0
 42
100.0
 43
100.0
 50
180.0
  0
INSERT
  5
18E4D
330
17784
100
AcDbEntity
  8
寸法
 62
     0
 48
50.0
370
    -2
100
AcDbBlockReference
  2
_DOTSMALL
 10
8811.494579009886
 20
9902.68222819807
 30
0.0
 41
100.0
 42
100.0
 43
100.0
  0
MTEXT
  5
18E4E
330
17784
100
AcDbEntity
  8
寸法
 62
     7
 48
50.0
100
AcDbMText
 10
8503.009297635648
 20
10002.68222819807
 30
0.0
 40
120.0
 41
0.0
 71
     5
 72
     1
  1
\A1;55
  7
STYLE1
 73
     1
 44
1.0
1001
ACAD
1000
MTEXTBEGIN
1070
    73
1070
     1
1070
    44
1040
1.0
1070
    74
1070
     0
1000
MTEXTEND
  0
POINT
  5
18E4F
330
17784
100
AcDbEntity
  8
DEFPOINTS
 62
     0
 48
50.0
100
AcDbPoint
 10
8811.494579009886
 20
9602.682228198069
 30
0.0
  0
POINT
  5
18E50
330
17784
100
AcDbEntity
  8
DEFPOINTS
 62
     0
 48
50.0
100
AcDbPoint
 10
8866.494579009922
 20
9602.682228198069
 30
0.0
  0
POINT
  5
18E51
330
17784
100
AcDbEntity
  8
DEFPOINTS
 62
     0
 48
50.0
100
AcDbPoint
 10
8866.494579009922
 20
9902.68222819807
 30
0.0
  0
ENDBLK
  5
17791
330
17784
100
AcDbEntity
  8
0
 48
50.0
100
AcDbBlockEnd
  0
BLOCK
  5
1779C
330
17792
100
AcDbEntity
  8
0
 48
50.0
100
AcDbBlockBegin
  2
*D9
 70
     1
 10
0.0
 20
0.0
 30
0.0
  3
*D9
  1

  0
LINE
  5
18E3E
330
17792
100
AcDbEntity
  8
寸法
 62
     0
 48
50.0
370
    -2
100
AcDbLine
 10
8833.635595161231
 20
9102.682228198117
 30
0.0
 11
8737.183695627987
 21
8742.718838653518
 31
0.0
  0
LINE
  5
18E3F
330
17792
100
AcDbEntity
  8
寸法
 62
     0
 48
50.0
370
    -2
100
AcDbLine
 10
10106.6355951613
 20
9102.68222819811
 30
0.0
 11
10010.18369562805
 21
8742.718838653518
 31
0.0
  0
LINE
  5
18E40
330
17792
100
AcDbEntity
  8
寸法
 62
     0
 48
50.0
370
    -2
100
AcDbLine
 10
8753.260647173853
 20
8802.718838653518
 30
0.0
 11
10026.26064717392
 21
8802.718838653518
 31
0.0
  0
INSERT
  5
18E41
330
17792
100
AcDbEntity
  8
寸法
 62
     0
 48
50.0
370
    -2
100
AcDbBlockReference
  2
_DOTSMALL
 10
8753.260647173853
 20
8802.718838653518
 30
0.0
 41
100.0
 42
100.0
 43
100.0
 50
180.0
  0
INSERT
  5
18E42
330
17792
100
AcDbEntity
  8
寸法
 62
     0
 48
50.0
370
    -2
100
AcDbBlockReference
  2
_DOTSMALL
 10
10026.26064717392
 20
8802.718838653518
 30
0.0
 41
100.0
 42
100.0
 43
100.0
  0
MTEXT
  5
18E43
330
17792
100
AcDbEntity
  8
寸法
 62
     7
 48
50.0
100
AcDbMText
 10
9389.76064717389
 20
8902.73064967714
 30
0.0
 40
120.0
 41
0.0
 71
     5
 72
     1
  1
\A1;1273
  7
STYLE1
 73
     1
 44
1.0
1001
ACAD
1000
MTEXTBEGIN
1070
    73
1070
     1
1070
    44
1040
1.0
1070
    74
1070
     0
1000
MTEXTEND
  0
POINT
  5
18E44
330
17792
100
AcDbEntity
  8
DEFPOINTS
 62
     0
 48
50.0
100
AcDbPoint
 10
8838.994579009854
 20
9122.682228198117
 30
0.0
  0
POINT
  5
18E45
330
17792
100
AcDbEntity
  8
DEFPOINTS
 62
     0
 48
50.0
100
AcDbPoint
 10
10111.99457900992
 20
9122.68222819811
 30
0.0
  0
POINT
  5
18E46
330
17792
100
AcDbEntity
  8
DEFPOINTS
 62
     0
 48
50.0
100
AcDbPoint
 10
10026.26064717392
 20
8802.718838653518
 30
0.0
  0
ENDBLK
  5
1779D
330
17792
100
AcDbEntity
  8
0
 48
50.0
100
AcDbBlockEnd
  0
BLOCK
  5
177AA
330
1779E
100
AcDbEntity
  8
0
 48
50.0
100
AcDbBlockBegin
  2
*D10
 70
     1
 10
0.0
 20
0.0
 30
0.0
  3
*D10
  1

  0
LINE
  5
18E33
330
1779E
100
AcDbEntity
  8
寸法
 62
     0
 48
50.0
370
    -2
100
AcDbLine
 10
11386.49457900992
 20
9622.682228198165
 30
0.0
 11
11386.49457900992
 21
9962.682228198069
 31
0.0
  0
LINE
  5
18E34
330
1779E
100
AcDbEntity
  8
寸法
 62
     0
 48
50.0
370
    -2
100
AcDbLine
 10
11441.49457900992
 20
9622.682228198165
 30
0.0
 11
11441.49457900992
 21
9962.682228198069
 31
0.0
  0
LINE
  5
18E35
330
1779E
100
AcDbEntity
  8
寸法
 62
     0
 48
50.0
370
    -2
100
AcDbLine
 10
11386.49457900992
 20
9902.68222819807
 30
0.0
 11
11286.49457900992
 21
9902.68222819807
 31
0.0
  0
LINE
  5
18E36
330
1779E
100
AcDbEntity
  8
寸法
 62
     0
 48
50.0
370
    -2
100
AcDbLine
 10
11441.49457900992
 20
9902.68222819807
 30
0.0
 11
11858.4651417584
 21
9902.68222819807
 31
0.0
  0
LINE
  5
18E37
330
1779E
100
AcDbEntity
  8
寸法
 62
     0
 48
50.0
370
    -2
100
AcDbLine
 10
11386.49457900992
 20
9902.68222819807
 30
0.0
 11
11441.49457900992
 21
9902.68222819807
 31
0.0
  0
INSERT
  5
18E38
330
1779E
100
AcDbEntity
  8
寸法
 62
     0
 48
50.0
370
    -2
100
AcDbBlockReference
  2
_DOTSMALL
 10
11386.49457900992
 20
9902.68222819807
 30
0.0
 41
100.0
 42
100.0
 43
100.0
  0
INSERT
  5
18E39
330
1779E
100
AcDbEntity
  8
寸法
 62
     0
 48
50.0
370
    -2
100
AcDbBlockReference
  2
_DOTSMALL
 10
11441.49457900992
 20
9902.68222819807
 30
0.0
 41
100.0
 42
100.0
 43
100.0
 50
180.0
  0
MTEXT
  5
18E3A
330
1779E
100
AcDbEntity
  8
寸法
 62
     7
 48
50.0
100
AcDbMText
 10
11749.97986038416
 20
10002.68222819807
 30
0.0
 40
120.0
 41
0.0
 71
     5
 72
     1
  1
\A1;55
  7
STYLE1
 73
     1
 44
1.0
1001
ACAD
1000
MTEXTBEGIN
1070
    73
1070
     1
1070
    44
1040
1.0
1070
    74
1070
     0
1000
MTEXTEND
  0
POINT
  5
18E3B
330
1779E
100
AcDbEntity
  8
DEFPOINTS
 62
     0
 48
50.0
100
AcDbPoint
 10
11386.49457900992
 20
9602.682228198164
 30
0.0
  0
POINT
  5
18E3C
330
1779E
100
AcDbEntity
  8
DEFPOINTS
 62
     0
 48
50.0
100
AcDbPoint
 10
11441.49457900992
 20
9602.682228198164
 30
0.0
  0
POINT
  5
18E3D
330
1779E
100
AcDbEntity
  8
DEFPOINTS
 62
     0
 48
50.0
100
AcDbPoint
 10
11441.49457900992
 20
9902.68222819807
 30
0.0
  0
ENDBLK
  5
177AB
330
1779E
100
AcDbEntity
  8
0
 48
50.0
100
AcDbBlockEnd
  0
BLOCK
  5
177B6
330
177AC
100
AcDbEntity
  8
0
 48
50.0
100
AcDbBlockBegin
  2
*D11
 70
     1
 10
0.0
 20
0.0
 30
0.0
  3
*D11
  1

  0
LINE
  5
18E2A
330
177AC
100
AcDbEntity
  8
寸法
 62
     0
 48
50.0
370
    -2
100
AcDbLine
 10
8866.494579009922
 20
9622.682228198071
 30
0.0
 11
8866.494579009922
 21
9962.682228198069
 31
0.0
  0
LINE
  5
18E2B
330
177AC
100
AcDbEntity
  8
寸法
 62
     0
 48
50.0
370
    -2
100
AcDbLine
 10
11386.49457900992
 20
9622.682228198165
 30
0.0
 11
11386.49457900992
 21
9962.682228198069
 31
0.0
  0
LINE
  5
18E2C
330
177AC
100
AcDbEntity
  8
寸法
 62
     0
 48
50.0
370
    -2
100
AcDbLine
 10
8866.494579009922
 20
9902.68222819807
 30
0.0
 11
11386.49457900992
 21
9902.68222819807
 31
0.0
  0
INSERT
  5
18E2D
330
177AC
100
AcDbEntity
  8
寸法
 62
     0
 48
50.0
370
    -2
100
AcDbBlockReference
  2
_DOTSMALL
 10
8866.494579009922
 20
9902.68222819807
 30
0.0
 41
100.0
 42
100.0
 43
100.0
 50
180.0
  0
INSERT
  5
18E2E
330
177AC
100
AcDbEntity
  8
寸法
 62
     0
 48
50.0
370
    -2
100
AcDbBlockReference
  2
_DOTSMALL
 10
11386.49457900992
 20
9902.68222819807
 30
0.0
 41
100.0
 42
100.0
 43
100.0
  0
MTEXT
  5
18E2F
330
177AC
100
AcDbEntity
  8
寸法
 62
     7
 48
50.0
100
AcDbMText
 10
10126.49457900992
 20
10002.69403922169
 30
0.0
 40
120.0
 41
0.0
 71
     5
 72
     1
  1
\A1;6X420=2520
  7
STYLE1
 73
     1
 44
1.0
1001
ACAD
1000
MTEXTBEGIN
1070
    73
1070
     1
1070
    44
1040
1.0
1070
    74
1070
     0
1000
MTEXTEND
  0
POINT
  5
18E30
330
177AC
100
AcDbEntity
  8
DEFPOINTS
 62
     0
 48
50.0
100
AcDbPoint
 10
8866.494579009922
 20
9602.682228198069
 30
0.0
  0
POINT
  5
18E31
330
177AC
100
AcDbEntity
  8
DEFPOINTS
 62
     0
 48
50.0
100
AcDbPoint
 10
11386.49457900992
 20
9602.682228198164
 30
0.0
  0
POINT
  5
18E32
330
177AC
100
AcDbEntity
  8
DEFPOINTS
 62
     0
 48
50.0
100
AcDbPoint
 10
11386.49457900992
 20
9902.68222819807
 30
0.0
  0
ENDBLK
  5
177B7
330
177AC
100
AcDbEntity
  8
0
 48
50.0
100
AcDbBlockEnd
  0
BLOCK
  5
177CE
330
177C4
100
AcDbEntity
  8
0
 48
50.0
100
AcDbBlockBegin
  2
*D12
 70
     1
 10
0.0
 20
0.0
 30
0.0
  3
*D12
  1

  0
LINE
  5
18E21
330
177C4
100
AcDbEntity
  8
寸法
 62
     0
 48
50.0
370
    -2
100
AcDbLine
 10
10133.6355951613
 20
9102.682228198174
 30
0.0
 11
10037.18369562804
 21
8742.718838653518
 31
0.0
  0
LINE
  5
18E22
330
177C4
100
AcDbEntity
  8
寸法
 62
     0
 48
50.0
370
    -2
100
AcDbLine
 10
11406.63559516131
 20
9102.682228198167
 30
0.0
 11
11310.18369562805
 21
8742.718838653518
 31
0.0
  0
LINE
  5
18E23
330
177C4
100
AcDbEntity
  8
寸法
 62
     0
 48
50.0
370
    -2
100
AcDbLine
 10
10053.2606471739
 20
8802.718838653518
 30
0.0
 11
11326.26064717392
 21
8802.718838653518
 31
0.0
  0
INSERT
  5
18E24
330
177C4
100
AcDbEntity
  8
寸法
 62
     0
 48
50.0
370
    -2
100
AcDbBlockReference
  2
_DOTSMALL
 10
10053.2606471739
 20
8802.718838653518
 30
0.0
 41
100.0
 42
100.0
 43
100.0
 50
180.0
  0
INSERT
  5
18E25
330
177C4
100
AcDbEntity
  8
寸法
 62
     0
 48
50.0
370
    -2
100
AcDbBlockReference
  2
_DOTSMALL
 10
11326.26064717392
 20
8802.718838653518
 30
0.0
 41
100.0
 42
100.0
 43
100.0
  0
MTEXT
  5
18E26
330
177C4
100
AcDbEntity
  8
寸法
 62
     7
 48
50.0
100
AcDbMText
 10
10759.38248632393
 20
8902.73064967714
 30
0.0
 40
120.0
 41
0.0
 71
     5
 72
     1
  1
\A1;1273
  7
STYLE1
 73
     1
 44
1.0
1001
ACAD
1000
MTEXTBEGIN
1070
    73
1070
     1
1070
    44
1040
1.0
1070
    74
1070
     0
1000
MTEXTEND
  0
POINT
  5
18E27
330
177C4
100
AcDbEntity
  8
DEFPOINTS
 62
     0
 48
50.0
100
AcDbPoint
 10
10138.99457900992
 20
9122.682228198176
 30
0.0
  0
POINT
  5
18E28
330
177C4
100
AcDbEntity
  8
DEFPOINTS
 62
     0
 48
50.0
100
AcDbPoint
 10
11411.99457900993
 20
9122.682228198168
 30
0.0
  0
POINT
  5
18E29
330
177C4
100
AcDbEntity
  8
DEFPOINTS
 62
     0
 48
50.0
100
AcDbPoint
 10
11326.26064717392
 20
8802.718838653518
 30
0.0
  0
ENDBLK
  5
177CF
330
177C4
100
AcDbEntity
  8
0
 48
50.0
100
AcDbBlockEnd
  0
BLOCK
  5
177DA
330
177D0
100
AcDbEntity
  8
0
 48
50.0
100
AcDbBlockBegin
  2
*D13
 70
     1
 10
0.0
 20
0.0
 30
0.0
  3
*D13
  1

  0
LINE
  5
18E18
330
177D0
100
AcDbEntity
  8
寸法
 62
     0
 48
50.0
370
    -2
100
AcDbLine
 10
11461.49457900992
 20
9602.682228198164
 30
0.0
 11
12501.49457900993
 21
9602.682228198162
 31
0.0
  0
LINE
  5
18E19
330
177D0
100
AcDbEntity
  8
寸法
 62
     0
 48
50.0
370
    -2
100
AcDbLine
 10
11461.4945790099
 20
7392.682228198153
 30
0.0
 11
12501.49457900993
 21
7392.682228198153
 31
0.0
  0
LINE
  5
18E1A
330
177D0
100
AcDbEntity
  8
寸法
 62
     0
 48
50.0
370
    -2
100
AcDbLine
 10
12441.49457900993
 20
9602.682228198162
 30
0.0
 11
12441.49457900993
 21
7392.682228198153
 31
0.0
  0
INSERT
  5
18E1B
330
177D0
100
AcDbEntity
  8
寸法
 62
     0
 48
50.0
370
    -2
100
AcDbBlockReference
  2
_DOTSMALL
 10
12441.49457900993
 20
9602.682228198162
 30
0.0
 41
100.0
 42
100.0
 43
100.0
 50
90.0
  0
INSERT
  5
18E1C
330
177D0
100
AcDbEntity
  8
寸法
 62
     0
 48
50.0
370
    -2
100
AcDbBlockReference
  2
_DOTSMALL
 10
12441.49457900993
 20
7392.682228198153
 30
0.0
 41
100.0
 42
100.0
 43
100.0
 50
270.0
  0
MTEXT
  5
18E1D
330
177D0
100
AcDbEntity
  8
寸法
 62
     7
 48
50.0
100
AcDbMText
 10
12341.4827679863
 20
8497.682228198158
 30
0.0
 40
120.0
 41
0.0
 71
     5
 72
     1
  1
\A1;2210
  7
STYLE1
 11
0.0000000000000001
 21
1.0
 31
0.0
 73
     1
 44
1.0
1001
ACAD
1000
MTEXTBEGIN
1070
    73
1070
     1
1070
    44
1040
1.0
1070
    74
1070
     0
1000
MTEXTEND
  0
POINT
  5
18E1E
330
177D0
100
AcDbEntity
  8
DEFPOINTS
 62
     0
 48
50.0
100
AcDbPoint
 10
11441.49457900992
 20
9602.682228198164
 30
0.0
  0
POINT
  5
18E1F
330
177D0
100
AcDbEntity
  8
DEFPOINTS
 62
     0
 48
50.0
100
AcDbPoint
 10
11441.4945790099
 20
7392.682228198153
 30
0.0
  0
POINT
  5
18E20
330
177D0
100
AcDbEntity
  8
DEFPOINTS
 62
     0
 48
50.0
100
AcDbPoint
 10
12441.49457900993
 20
7392.682228198153
 30
0.0
  0
ENDBLK
  5
177DB
330
177D0
100
AcDbEntity
  8
0
 48
50.0
100
AcDbBlockEnd
  0
BLOCK
  5
177E6
330
177DC
100
AcDbEntity
  8
0
 48
50.0
100
AcDbBlockBegin
  2
*D14
 70
     1
 10
0.0
 20
0.0
 30
0.0
  3
*D14
  1

  0
LINE
  5
18E0F
330
177DC
100
AcDbEntity
  8
寸法
 62
     0
 48
50.0
370
    -2
100
AcDbLine
 10
11461.49457900992
 20
9547.682228198167
 30
0.0
 11
12201.49457900991
 21
9547.682228198167
 31
0.0
  0
LINE
  5
18E10
330
177DC
100
AcDbEntity
  8
寸法
 62
     0
 48
50.0
370
    -2
100
AcDbLine
 10
11461.4945790099
 20
7447.68222819815
 30
0.0
 11
12201.49457900991
 21
7447.68222819815
 31
0.0
  0
LINE
  5
18E11
330
177DC
100
AcDbEntity
  8
寸法
 62
     0
 48
50.0
370
    -2
100
AcDbLine
 10
12141.49457900991
 20
9547.682228198167
 30
0.0
 11
12141.49457900991
 21
7447.68222819815
 31
0.0
  0
INSERT
  5
18E12
330
177DC
100
AcDbEntity
  8
寸法
 62
     0
 48
50.0
370
    -2
100
AcDbBlockReference
  2
_DOTSMALL
 10
12141.49457900991
 20
9547.682228198167
 30
0.0
 41
100.0
 42
100.0
 43
100.0
 50
90.0
  0
INSERT
  5
18E13
330
177DC
100
AcDbEntity
  8
寸法
 62
     0
 48
50.0
370
    -2
100
AcDbBlockReference
  2
_DOTSMALL
 10
12141.49457900991
 20
7447.68222819815
 30
0.0
 41
100.0
 42
100.0
 43
100.0
 50
270.0
  0
MTEXT
  5
18E14
330
177DC
100
AcDbEntity
  8
寸法
 62
     7
 48
50.0
100
AcDbMText
 10
12041.48276798629
 20
8497.682228198158
 30
0.0
 40
120.0
 41
0.0
 71
     5
 72
     1
  1
\A1;5X420=2100
  7
STYLE1
 11
0.0000000000000001
 21
1.0
 31
0.0
 73
     1
 44
1.0
1001
ACAD
1000
MTEXTBEGIN
1070
    73
1070
     1
1070
    44
1040
1.0
1070
    74
1070
     0
1000
MTEXTEND
  0
POINT
  5
18E15
330
177DC
100
AcDbEntity
  8
DEFPOINTS
 62
     0
 48
50.0
100
AcDbPoint
 10
11441.49457900992
 20
9547.682228198167
 30
0.0
  0
POINT
  5
18E16
330
177DC
100
AcDbEntity
  8
DEFPOINTS
 62
     0
 48
50.0
100
AcDbPoint
 10
11441.4945790099
 20
7447.68222819815
 30
0.0
  0
POINT
  5
18E17
330
177DC
100
AcDbEntity
  8
DEFPOINTS
 62
     0
 48
50.0
100
AcDbPoint
 10
12141.49457900991
 20
7447.68222819815
 30
0.0
  0
ENDBLK
  5
177E7
330
177DC
100
AcDbEntity
  8
0
 48
50.0
100
AcDbBlockEnd
  0
BLOCK
  5
177F4
330
177E8
100
AcDbEntity
  8
0
 48
50.0
100
AcDbBlockBegin
  2
*D15
 70
     1
 10
0.0
 20
0.0
 30
0.0
  3
*D15
  1

  0
LINE
  5
18E04
330
177E8
100
AcDbEntity
  8
寸法
 62
     0
 48
50.0
370
    -2
100
AcDbLine
 10
11461.4945790099
 20
7447.68222819815
 30
0.0
 11
12201.4945790099
 21
7447.68222819815
 31
0.0
  0
LINE
  5
18E05
330
177E8
100
AcDbEntity
  8
寸法
 62
     0
 48
50.0
370
    -2
100
AcDbLine
 10
11461.4945790099
 20
7392.682228198153
 30
0.0
 11
12201.4945790099
 21
7392.682228198153
 31
0.0
  0
LINE
  5
18E06
330
177E8
100
AcDbEntity
  8
寸法
 62
     0
 48
50.0
370
    -2
100
AcDbLine
 10
12141.4945790099
 20
7447.68222819815
 30
0.0
 11
12141.4945790099
 21
7547.68222819815
 31
0.0
  0
LINE
  5
18E07
330
177E8
100
AcDbEntity
  8
寸法
 62
     0
 48
50.0
370
    -2
100
AcDbLine
 10
12141.4945790099
 20
7392.682228198153
 30
0.0
 11
12141.4945790099
 21
6975.711665449662
 31
0.0
  0
LINE
  5
18E08
330
177E8
100
AcDbEntity
  8
寸法
 62
     0
 48
50.0
370
    -2
100
AcDbLine
 10
12141.4945790099
 20
7447.68222819815
 30
0.0
 11
12141.4945790099
 21
7392.682228198153
 31
0.0
  0
INSERT
  5
18E09
330
177E8
100
AcDbEntity
  8
寸法
 62
     0
 48
50.0
370
    -2
100
AcDbBlockReference
  2
_DOTSMALL
 10
12141.4945790099
 20
7447.68222819815
 30
0.0
 41
100.0
 42
100.0
 43
100.0
 50
270.0
  0
INSERT
  5
18E0A
330
177E8
100
AcDbEntity
  8
寸法
 62
     0
 48
50.0
370
    -2
100
AcDbBlockReference
  2
_DOTSMALL
 10
12141.4945790099
 20
7392.682228198153
 30
0.0
 41
100.0
 42
100.0
 43
100.0
 50
90.0
  0
MTEXT
  5
18E0B
330
177E8
100
AcDbEntity
  8
寸法
 62
     7
 48
50.0
100
AcDbMText
 10
12041.49457900989
 20
7084.196946823903
 30
0.0
 40
120.0
 41
0.0
 71
     5
 72
     1
  1
\A1;55
  7
STYLE1
 11
0.0000000000000001
 21
1.0
 31
0.0
 73
     1
 44
1.0
1001
ACAD
1000
MTEXTBEGIN
1070
    73
1070
     1
1070
    44
1040
1.0
1070
    74
1070
     0
1000
MTEXTEND
  0
POINT
  5
18E0C
330
177E8
100
AcDbEntity
  8
DEFPOINTS
 62
     0
 48
50.0
100
AcDbPoint
 10
11441.4945790099
 20
7447.68222819815
 30
0.0
  0
POINT
  5
18E0D
330
177E8
100
AcDbEntity
  8
DEFPOINTS
 62
     0
 48
50.0
100
AcDbPoint
 10
11441.4945790099
 20
7392.682228198153
 30
0.0
  0
POINT
  5
18E0E
330
177E8
100
AcDbEntity
  8
DEFPOINTS
 62
     0
 48
50.0
100
AcDbPoint
 10
12141.4945790099
 20
7392.682228198153
 30
0.0
  0
ENDBLK
  5
177F5
330
177E8
100
AcDbEntity
  8
0
 48
50.0
100
AcDbBlockEnd
  0
BLOCK
  5
17800
330
177F6
100
AcDbEntity
  8
0
 48
50.0
100
AcDbBlockBegin
  2
*D16
 70
     1
 10
0.0
 20
0.0
 30
0.0
  3
*D16
  1

  0
LINE
  5
18DFB
330
177F6
100
AcDbEntity
  8
寸法
 62
     0
 48
50.0
370
    -2
100
AcDbLine
 10
11432.99457900992
 20
9567.323244349543
 30
0.0
 11
11901.49457900991
 21
9441.789047695563
 31
0.0
  0
LINE
  5
18DFC
330
177F6
100
AcDbEntity
  8
寸法
 62
     0
 48
50.0
370
    -2
100
AcDbLine
 10
11432.99457900992
 20
9117.323244349545
 30
0.0
 11
11901.49457900991
 21
8991.789047695567
 31
0.0
  0
LINE
  5
18DFD
330
177F6
100
AcDbEntity
  8
寸法
 62
     0
 48
50.0
370
    -2
100
AcDbLine
 10
11841.49457900991
 20
9457.865999241429
 30
0.0
 11
11841.49457900991
 21
9007.865999241433
 31
0.0
  0
INSERT
  5
18DFE
330
177F6
100
AcDbEntity
  8
寸法
 62
     0
 48
50.0
370
    -2
100
AcDbBlockReference
  2
_DOTSMALL
 10
11841.49457900991
 20
9457.865999241429
 30
0.0
 41
100.0
 42
100.0
 43
100.0
 50
90.0
  0
INSERT
  5
18DFF
330
177F6
100
AcDbEntity
  8
寸法
 62
     0
 48
50.0
370
    -2
100
AcDbBlockReference
  2
_DOTSMALL
 10
11841.49457900991
 20
9007.865999241433
 30
0.0
 41
100.0
 42
100.0
 43
100.0
 50
270.0
  0
MTEXT
  5
18E00
330
177F6
100
AcDbEntity
  8
寸法
 62
     7
 48
50.0
100
AcDbMText
 10
11741.49457900991
 20
9232.865999241431
 30
0.0
 40
120.0
 41
0.0
 71
     5
 72
     1
  1
\A1;450
  7
STYLE1
 11
0.0000000000000001
 21
1.0
 31
0.0
 73
     1
 44
1.0
1001
ACAD
1000
MTEXTBEGIN
1070
    73
1070
     1
1070
    44
1040
1.0
1070
    74
1070
     0
1000
MTEXTEND
  0
POINT
  5
18E01
330
177F6
100
AcDbEntity
  8
DEFPOINTS
 62
     0
 48
50.0
100
AcDbPoint
 10
11412.99457900992
 20
9572.682228198164
 30
0.0
  0
POINT
  5
18E02
330
177F6
100
AcDbEntity
  8
DEFPOINTS
 62
     0
 48
50.0
100
AcDbPoint
 10
11412.99457900992
 20
9122.682228198168
 30
0.0
  0
POINT
  5
18E03
330
177F6
100
AcDbEntity
  8
DEFPOINTS
 62
     0
 48
50.0
100
AcDbPoint
 10
11841.49457900991
 20
9007.865999241433
 30
0.0
  0
ENDBLK
  5
17801
330
177F6
100
AcDbEntity
  8
0
 48
50.0
100
AcDbBlockEnd
  0
BLOCK
  5
1780E
330
17802
100
AcDbEntity
  8
0
 48
50.0
100
AcDbBlockBegin
  2
*D17
 70
     1
 10
0.0
 20
0.0
 30
0.0
  3
*D17
  1

  0
LINE
  5
18DF0
330
17802
100
AcDbEntity
  8
寸法
 62
     0
 48
50.0
370
    -2
100
AcDbLine
 10
11461.49457900992
 20
9602.682228198164
 30
0.0
 11
12201.49457900991
 21
9602.682228198164
 31
0.0
  0
LINE
  5
18DF1
330
17802
100
AcDbEntity
  8
寸法
 62
     0
 48
50.0
370
    -2
100
AcDbLine
 10
11461.49457900992
 20
9547.682228198167
 30
0.0
 11
12201.49457900991
 21
9547.682228198167
 31
0.0
  0
LINE
  5
18DF2
330
17802
100
AcDbEntity
  8
寸法
 62
     0
 48
50.0
370
    -2
100
AcDbLine
 10
12141.49457900991
 20
9547.682228198167
 30
0.0
 11
12141.49457900991
 21
9447.682228198168
 31
0.0
  0
LINE
  5
18DF3
330
17802
100
AcDbEntity
  8
寸法
 62
     0
 48
50.0
370
    -2
100
AcDbLine
 10
12141.49457900991
 20
9602.682228198164
 30
0.0
 11
12141.49457900991
 21
10019.65279094664
 31
0.0
  0
LINE
  5
18DF4
330
17802
100
AcDbEntity
  8
寸法
 62
     0
 48
50.0
370
    -2
100
AcDbLine
 10
12141.49457900991
 20
9547.682228198167
 30
0.0
 11
12141.49457900991
 21
9602.682228198164
 31
0.0
  0
INSERT
  5
18DF5
330
17802
100
AcDbEntity
  8
寸法
 62
     0
 48
50.0
370
    -2
100
AcDbBlockReference
  2
_DOTSMALL
 10
12141.49457900991
 20
9547.682228198167
 30
0.0
 41
100.0
 42
100.0
 43
100.0
 50
90.0
  0
INSERT
  5
18DF6
330
17802
100
AcDbEntity
  8
寸法
 62
     0
 48
50.0
370
    -2
100
AcDbBlockReference
  2
_DOTSMALL
 10
12141.49457900991
 20
9602.682228198164
 30
0.0
 41
100.0
 42
100.0
 43
100.0
 50
270.0
  0
MTEXT
  5
18DF7
330
17802
100
AcDbEntity
  8
寸法
 62
     7
 48
50.0
100
AcDbMText
 10
12041.49457900991
 20
9911.167509572404
 30
0.0
 40
120.0
 41
0.0
 71
     5
 72
     1
  1
\A1;55
  7
STYLE1
 11
0.0000000000000001
 21
1.0
 31
0.0
 73
     1
 44
1.0
1001
ACAD
1000
MTEXTBEGIN
1070
    73
1070
     1
1070
    44
1040
1.0
1070
    74
1070
     0
1000
MTEXTEND
  0
POINT
  5
18DF8
330
17802
100
AcDbEntity
  8
DEFPOINTS
 62
     0
 48
50.0
100
AcDbPoint
 10
11441.49457900992
 20
9602.682228198164
 30
0.0
  0
POINT
  5
18DF9
330
17802
100
AcDbEntity
  8
DEFPOINTS
 62
     0
 48
50.0
100
AcDbPoint
 10
11441.49457900992
 20
9547.682228198167
 30
0.0
  0
POINT
  5
18DFA
330
17802
100
AcDbEntity
  8
DEFPOINTS
 62
     0
 48
50.0
100
AcDbPoint
 10
12141.49457900991
 20
9547.682228198167
 30
0.0
  0
ENDBLK
  5
1780F
330
17802
100
AcDbEntity
  8
0
 48
50.0
100
AcDbBlockEnd
  0
BLOCK
  5
182CA
330
182C0
100
AcDbEntity
  8
0
 48
50.0
100
AcDbBlockBegin
  2
*D18
 70
     1
 10
0.0
 20
0.0
 30
0.0
  3
*D18
  1

  0
LINE
  5
186D4
330
182C0
100
AcDbEntity
  8
寸法
 62
     0
 48
50.0
370
    -2
100
AcDbLine
 10
6806.397549672652
 20
2338.326805657111
 30
0.0
 11
7329.504173614243
 21
2338.32680565711
 31
0.0
  0
LINE
  5
186D5
330
182C0
100
AcDbEntity
  8
寸法
 62
     0
 48
50.0
370
    -2
100
AcDbLine
 10
6809.397549672652
 20
4358.326805657112
 30
0.0
 11
7329.504173614243
 21
4358.326805657112
 31
0.0
  0
LINE
  5
186D6
330
182C0
100
AcDbEntity
  8
寸法
 62
     0
 48
50.0
370
    -2
100
AcDbLine
 10
7269.504173614243
 20
2338.32680565711
 30
0.0
 11
7269.504173614243
 21
4358.326805657112
 31
0.0
  0
INSERT
  5
186D7
330
182C0
100
AcDbEntity
  8
寸法
 62
     0
 48
50.0
370
    -2
100
AcDbBlockReference
  2
_DOTSMALL
 10
7269.504173614243
 20
2338.32680565711
 30
0.0
 41
100.0
 42
100.0
 43
100.0
 50
270.0
  0
INSERT
  5
186D8
330
182C0
100
AcDbEntity
  8
寸法
 62
     0
 48
50.0
370
    -2
100
AcDbBlockReference
  2
_DOTSMALL
 10
7269.504173614243
 20
4358.326805657112
 30
0.0
 41
100.0
 42
100.0
 43
100.0
 50
90.0
  0
MTEXT
  5
186D9
330
182C0
100
AcDbEntity
  8
寸法
 62
     7
 48
50.0
100
AcDbMText
 10
7169.49236259062
 20
3360.379486904049
 30
0.0
 40
120.0
 41
0.0
 71
     5
 72
     1
  1
\A1;2020
  7
STYLE1
 11
0.0000000000000001
 21
1.0
 31
0.0
 73
     1
 44
1.0
1001
ACAD
1000
MTEXTBEGIN
1070
    73
1070
     1
1070
    44
1040
1.0
1070
    74
1070
     0
1000
MTEXTEND
  0
POINT
  5
186DA
330
182C0
100
AcDbEntity
  8
DEFPOINTS
 62
     0
 48
50.0
100
AcDbPoint
 10
6786.397549672653
 20
2338.326805657111
 30
0.0
  0
POINT
  5
186DB
330
182C0
100
AcDbEntity
  8
DEFPOINTS
 62
     0
 48
50.0
100
AcDbPoint
 10
6789.397549672653
 20
4358.326805657112
 30
0.0
  0
POINT
  5
186DC
330
182C0
100
AcDbEntity
  8
DEFPOINTS
 62
     0
 48
50.0
100
AcDbPoint
 10
7269.504173614243
 20
4358.326805657112
 30
0.0
  0
ENDBLK
  5
182CB
330
182C0
100
AcDbEntity
  8
0
 48
50.0
100
AcDbBlockEnd
  0
BLOCK
  5
182D6
330
182CC
100
AcDbEntity
  8
0
 48
50.0
100
AcDbBlockBegin
  2
*D19
 70
     1
 10
0.0
 20
0.0
 30
0.0
  3
*D19
  1

  0
LINE
  5
186CB
330
182CC
100
AcDbEntity
  8
寸法
 62
     0
 48
50.0
370
    -2
100
AcDbLine
 10
6709.397549672653
 20
4380.137485268764
 30
0.0
 11
6709.397549672653
 21
4871.984259236416
 31
0.0
  0
LINE
  5
186CC
330
182CC
100
AcDbEntity
  8
寸法
 62
     0
 48
50.0
370
    -2
100
AcDbLine
 10
4499.397549672653
 20
4429.328423780089
 30
0.0
 11
4499.397549672653
 21
4871.984259236416
 31
0.0
  0
LINE
  5
186CD
330
182CC
100
AcDbEntity
  8
寸法
 62
     0
 48
50.0
370
    -2
100
AcDbLine
 10
6709.397549672653
 20
4811.984259236416
 30
0.0
 11
4499.397549672653
 21
4811.984259236416
 31
0.0
  0
INSERT
  5
186CE
330
182CC
100
AcDbEntity
  8
寸法
 62
     0
 48
50.0
370
    -2
100
AcDbBlockReference
  2
_DOTSMALL
 10
6709.397549672653
 20
4811.984259236416
 30
0.0
 41
100.0
 42
100.0
 43
100.0
  0
INSERT
  5
186CF
330
182CC
100
AcDbEntity
  8
寸法
 62
     0
 48
50.0
370
    -2
100
AcDbBlockReference
  2
_DOTSMALL
 10
4499.397549672653
 20
4811.984259236416
 30
0.0
 41
100.0
 42
100.0
 43
100.0
 50
180.0
  0
MTEXT
  5
186D0
330
182CC
100
AcDbEntity
  8
寸法
 62
     7
 48
50.0
100
AcDbMText
 10
5594.042286743166
 20
4911.996070260038
 30
0.0
 40
120.0
 41
0.0
 71
     5
 72
     1
  1
\A1;柱外寸法2210
  7
STYLE1
 73
     1
 44
1.0
1001
ACAD
1000
MTEXTBEGIN
1070
    73
1070
     1
1070
    44
1040
1.0
1070
    74
1070
     0
1000
MTEXTEND
  0
POINT
  5
186D1
330
182CC
100
AcDbEntity
  8
DEFPOINTS
 62
     0
 48
50.0
100
AcDbPoint
 10
6709.397549672653
 20
4360.137485268764
 30
0.0
  0
POINT
  5
186D2
330
182CC
100
AcDbEntity
  8
DEFPOINTS
 62
     0
 48
50.0
100
AcDbPoint
 10
4499.397549672653
 20
4409.328423780089
 30
0.0
  0
POINT
  5
186D3
330
182CC
100
AcDbEntity
  8
DEFPOINTS
 62
     0
 48
50.0
100
AcDbPoint
 10
4499.397549672653
 20
4811.984259236416
 30
0.0
  0
ENDBLK
  5
182D7
330
182CC
100
AcDbEntity
  8
0
 48
50.0
100
AcDbBlockEnd
  0
BLOCK
  5
182E4
330
182D8
100
AcDbEntity
  8
0
 48
50.0
100
AcDbBlockBegin
  2
*D20
 70
     1
 10
0.0
 20
0.0
 30
0.0
  3
*D20
  1

  0
LINE
  5
186C0
330
182D8
100
AcDbEntity
  8
寸法
 62
     0
 48
50.0
370
    -2
100
AcDbLine
 10
4499.397549672653
 20
4429.328423780089
 30
0.0
 11
4499.397549672653
 21
4871.984259236416
 31
0.0
  0
LINE
  5
186C1
330
182D8
100
AcDbEntity
  8
寸法
 62
     0
 48
50.0
370
    -2
100
AcDbLine
 10
4439.397549672652
 20
4433.326805657116
 30
0.0
 11
4439.397549672652
 21
4871.984259236416
 31
0.0
  0
LINE
  5
186C2
330
182D8
100
AcDbEntity
  8
寸法
 62
     0
 48
50.0
370
    -2
100
AcDbLine
 10
4499.397549672653
 20
4811.984259236416
 30
0.0
 11
4599.397549672652
 21
4811.984259236416
 31
0.0
  0
LINE
  5
186C3
330
182D8
100
AcDbEntity
  8
寸法
 62
     0
 48
50.0
370
    -2
100
AcDbLine
 10
4439.397549672652
 20
4811.984259236416
 30
0.0
 11
4020.121959121467
 21
4811.984259236416
 31
0.0
  0
LINE
  5
186C4
330
182D8
100
AcDbEntity
  8
寸法
 62
     0
 48
50.0
370
    -2
100
AcDbLine
 10
4499.397549672653
 20
4811.984259236416
 30
0.0
 11
4439.397549672652
 21
4811.984259236416
 31
0.0
  0
INSERT
  5
186C5
330
182D8
100
AcDbEntity
  8
寸法
 62
     0
 48
50.0
370
    -2
100
AcDbBlockReference
  2
_DOTSMALL
 10
4499.397549672653
 20
4811.984259236416
 30
0.0
 41
100.0
 42
100.0
 43
100.0
 50
180.0
  0
INSERT
  5
186C6
330
182D8
100
AcDbEntity
  8
寸法
 62
     0
 48
50.0
370
    -2
100
AcDbBlockReference
  2
_DOTSMALL
 10
4439.397549672652
 20
4811.984259236416
 30
0.0
 41
100.0
 42
100.0
 43
100.0
  0
MTEXT
  5
186C7
330
182D8
100
AcDbEntity
  8
寸法
 62
     7
 48
50.0
100
AcDbMText
 10
4129.759754397059
 20
4911.984259236415
 30
0.0
 40
120.0
 41
0.0
 71
     5
 72
     1
  1
\A1;60
  7
STYLE1
 73
     1
 44
1.0
1001
ACAD
1000
MTEXTBEGIN
1070
    73
1070
     1
1070
    44
1040
1.0
1070
    74
1070
     0
1000
MTEXTEND
  0
POINT
  5
186C8
330
182D8
100
AcDbEntity
  8
DEFPOINTS
 62
     0
 48
50.0
100
AcDbPoint
 10
4499.397549672653
 20
4409.328423780089
 30
0.0
  0
POINT
  5
186C9
330
182D8
100
AcDbEntity
  8
DEFPOINTS
 62
     0
 48
50.0
100
AcDbPoint
 10
4439.397549672652
 20
4413.326805657116
 30
0.0
  0
POINT
  5
186CA
330
182D8
100
AcDbEntity
  8
DEFPOINTS
 62
     0
 48
50.0
100
AcDbPoint
 10
4439.397549672652
 20
4811.984259236416
 30
0.0
  0
ENDBLK
  5
182E5
330
182D8
100
AcDbEntity
  8
0
 48
50.0
100
AcDbBlockEnd
  0
BLOCK
  5
182F0
330
182E6
100
AcDbEntity
  8
0
 48
50.0
100
AcDbBlockBegin
  2
*D21
 70
     1
 10
0.0
 20
0.0
 30
0.0
  3
*D21
  1

  0
LINE
  5
186B7
330
182E6
100
AcDbEntity
  8
寸法
 62
     0
 48
50.0
370
    -2
100
AcDbLine
 10
6789.397549672653
 20
4378.326805657112
 30
0.0
 11
6789.397549672653
 21
5091.186092910707
 31
0.0
  0
LINE
  5
186B8
330
182E6
100
AcDbEntity
  8
寸法
 62
     0
 48
50.0
370
    -2
100
AcDbLine
 10
4439.397549672652
 20
4433.326805657116
 30
0.0
 11
4439.397549672652
 21
5091.186092910707
 31
0.0
  0
LINE
  5
186B9
330
182E6
100
AcDbEntity
  8
寸法
 62
     0
 48
50.0
370
    -2
100
AcDbLine
 10
6789.397549672653
 20
5031.186092910707
 30
0.0
 11
4439.397549672652
 21
5031.186092910707
 31
0.0
  0
INSERT
  5
186BA
330
182E6
100
AcDbEntity
  8
寸法
 62
     0
 48
50.0
370
    -2
100
AcDbBlockReference
  2
_DOTSMALL
 10
6789.397549672653
 20
5031.186092910707
 30
0.0
 41
100.0
 42
100.0
 43
100.0
  0
INSERT
  5
186BB
330
182E6
100
AcDbEntity
  8
寸法
 62
     0
 48
50.0
370
    -2
100
AcDbBlockReference
  2
_DOTSMALL
 10
4439.397549672652
 20
5031.186092910707
 30
0.0
 41
100.0
 42
100.0
 43
100.0
 50
180.0
  0
MTEXT
  5
186BC
330
182E6
100
AcDbEntity
  8
寸法
 62
     7
 48
50.0
100
AcDbMText
 10
5673.741403765121
 20
5131.197903934328
 30
0.0
 40
120.0
 41
0.0
 71
     5
 72
     1
  1
\A1;2350
  7
STYLE1
 73
     1
 44
1.0
1001
ACAD
1000
MTEXTBEGIN
1070
    73
1070
     1
1070
    44
1040
1.0
1070
    74
1070
     0
1000
MTEXTEND
  0
POINT
  5
186BD
330
182E6
100
AcDbEntity
  8
DEFPOINTS
 62
     0
 48
50.0
100
AcDbPoint
 10
6789.397549672653
 20
4358.326805657112
 30
0.0
  0
POINT
  5
186BE
330
182E6
100
AcDbEntity
  8
DEFPOINTS
 62
     0
 48
50.0
100
AcDbPoint
 10
4439.397549672652
 20
4413.326805657116
 30
0.0
  0
POINT
  5
186BF
330
182E6
100
AcDbEntity
  8
DEFPOINTS
 62
     0
 48
50.0
100
AcDbPoint
 10
4439.397549672652
 20
5031.186092910707
 30
0.0
  0
ENDBLK
  5
182F1
330
182E6
100
AcDbEntity
  8
0
 48
50.0
100
AcDbBlockEnd
  0
BLOCK
  5
182FD
330
182F2
100
AcDbEntity
  8
0
 48
50.0
100
AcDbBlockBegin
  2
*D22
 70
     1
 10
0.0
 20
0.0
 30
0.0
  3
*D22
  1

  0
LINE
  5
186AD
330
182F2
100
AcDbEntity
  8
寸法
 62
     0
 48
50.0
370
    -2
100
AcDbLine
 10
6709.397549672653
 20
4380.137485268764
 30
0.0
 11
6709.397549672653
 21
4871.984259236416
 31
0.0
  0
LINE
  5
186AE
330
182F2
100
AcDbEntity
  8
寸法
 62
     0
 48
50.0
370
    -2
100
AcDbLine
 10
6789.397549672653
 20
4378.326805657112
 30
0.0
 11
6789.397549672653
 21
4871.984259236416
 31
0.0
  0
LINE
  5
186AF
330
182F2
100
AcDbEntity
  8
寸法
 62
     0
 48
50.0
370
    -2
100
AcDbLine
 10
6709.397549672653
 20
4811.984259236416
 30
0.0
 11
6789.397549672653
 21
4811.984259236416
 31
0.0
  0
LINE
  5
186B0
330
182F2
100
AcDbEntity
  8
寸法
 62
     0
 48
50.0
370
    -2
100
AcDbLine
 10
6789.397549672653
 20
4811.984259236416
 30
0.0
 11
7101.492037861629
 21
4811.984259236416
 31
0.0
  0
INSERT
  5
186B1
330
182F2
100
AcDbEntity
  8
寸法
 62
     0
 48
50.0
370
    -2
100
AcDbBlockReference
  2
_DOTSMALL
 10
6709.397549672653
 20
4811.984259236416
 30
0.0
 41
100.0
 42
100.0
 43
100.0
 50
180.0
  0
INSERT
  5
186B2
330
182F2
100
AcDbEntity
  8
寸法
 62
     0
 48
50.0
370
    -2
100
AcDbBlockReference
  2
_DOTSMALL
 10
6789.397549672653
 20
4811.984259236416
 30
0.0
 41
100.0
 42
100.0
 43
100.0
  0
MTEXT
  5
186B3
330
182F2
100
AcDbEntity
  8
寸法
 62
     7
 48
50.0
100
AcDbMText
 10
6995.444793767141
 20
4911.984259236415
 30
0.0
 40
120.0
 41
0.0
 71
     5
 72
     1
  1
\A1;80
  7
STYLE1
 73
     1
 44
1.0
1001
ACAD
1000
MTEXTBEGIN
1070
    73
1070
     1
1070
    44
1040
1.0
1070
    74
1070
     0
1000
MTEXTEND
  0
POINT
  5
186B4
330
182F2
100
AcDbEntity
  8
DEFPOINTS
 62
     0
 48
50.0
100
AcDbPoint
 10
6709.397549672653
 20
4360.137485268764
 30
0.0
  0
POINT
  5
186B5
330
182F2
100
AcDbEntity
  8
DEFPOINTS
 62
     0
 48
50.0
100
AcDbPoint
 10
6789.397549672653
 20
4358.326805657112
 30
0.0
  0
POINT
  5
186B6
330
182F2
100
AcDbEntity
  8
DEFPOINTS
 62
     0
 48
50.0
100
AcDbPoint
 10
6789.397549672653
 20
4811.984259236416
 30
0.0
  0
ENDBLK
  5
182FE
330
182F2
100
AcDbEntity
  8
0
 48
50.0
100
AcDbBlockEnd
  0
BLOCK
  5
18309
330
182FF
100
AcDbEntity
  8
0
 48
50.0
100
AcDbBlockBegin
  2
*D23
 70
     1
 10
0.0
 20
0.0
 30
0.0
  3
*D23
  1

  0
LINE
  5
186A4
330
182FF
100
AcDbEntity
  8
寸法
 62
     0
 48
50.0
370
    -2
100
AcDbLine
 10
4479.397549672652
 20
4178.326805657112
 30
0.0
 11
3815.744840514356
 21
4178.326805657112
 31
0.0
  0
LINE
  5
186A5
330
182FF
100
AcDbEntity
  8
寸法
 62
     0
 48
50.0
370
    -2
100
AcDbLine
 10
4479.397549672652
 20
2388.326805657112
 30
0.0
 11
3815.744840514355
 21
2388.326805657112
 31
0.0
  0
LINE
  5
186A6
330
182FF
100
AcDbEntity
  8
寸法
 62
     0
 48
50.0
370
    -2
100
AcDbLine
 10
3875.744840514356
 20
4178.326805657112
 30
0.0
 11
3875.744840514356
 21
2388.326805657112
 31
0.0
  0
INSERT
  5
186A7
330
182FF
100
AcDbEntity
  8
寸法
 62
     0
 48
50.0
370
    -2
100
AcDbBlockReference
  2
_DOTSMALL
 10
3875.744840514356
 20
4178.326805657112
 30
0.0
 41
100.0
 42
100.0
 43
100.0
 50
90.0
  0
INSERT
  5
186A8
330
182FF
100
AcDbEntity
  8
寸法
 62
     0
 48
50.0
370
    -2
100
AcDbBlockReference
  2
_DOTSMALL
 10
3875.744840514356
 20
2388.326805657112
 30
0.0
 41
100.0
 42
100.0
 43
100.0
 50
270.0
  0
MTEXT
  5
186A9
330
182FF
100
AcDbEntity
  8
寸法
 62
     7
 48
50.0
100
AcDbMText
 10
3775.744840514355
 20
3278.78110419907
 30
0.0
 40
120.0
 41
0.0
 71
     5
 72
     1
  1
\A1;1790
  7
STYLE1
 11
0.0000000000000001
 21
1.0
 31
0.0
 73
     1
 44
1.0
1001
ACAD
1000
MTEXTBEGIN
1070
    73
1070
     1
1070
    44
1040
1.0
1070
    74
1070
     0
1000
MTEXTEND
  0
POINT
  5
186AA
330
182FF
100
AcDbEntity
  8
DEFPOINTS
 62
     0
 48
50.0
100
AcDbPoint
 10
4499.397549672653
 20
4178.326805657112
 30
0.0
  0
POINT
  5
186AB
330
182FF
100
AcDbEntity
  8
DEFPOINTS
 62
     0
 48
50.0
100
AcDbPoint
 10
4499.397549672653
 20
2388.326805657112
 30
0.0
  0
POINT
  5
186AC
330
182FF
100
AcDbEntity
  8
DEFPOINTS
 62
     0
 48
50.0
100
AcDbPoint
 10
3875.744840514356
 20
2388.326805657112
 30
0.0
  0
ENDBLK
  5
1830A
330
182FF
100
AcDbEntity
  8
0
 48
50.0
100
AcDbBlockEnd
  0
BLOCK
  5
18315
330
1830B
100
AcDbEntity
  8
0
 48
50.0
100
AcDbBlockBegin
  2
*D24
 70
     1
 10
0.0
 20
0.0
 30
0.0
  3
*D24
  1

  0
LINE
  5
1869B
330
1830B
100
AcDbEntity
  8
寸法
 62
     0
 48
50.0
370
    -2
100
AcDbLine
 10
4479.397549672652
 20
2338.326805657112
 30
0.0
 11
3530.758167743294
 21
2338.326805657112
 31
0.0
  0
LINE
  5
1869C
330
1830B
100
AcDbEntity
  8
寸法
 62
     0
 48
50.0
370
    -2
100
AcDbLine
 10
4419.397549672652
 20
4413.326805657116
 30
0.0
 11
3530.758167743294
 21
4413.326805657116
 31
0.0
  0
LINE
  5
1869D
330
1830B
100
AcDbEntity
  8
寸法
 62
     0
 48
50.0
370
    -2
100
AcDbLine
 10
3590.758167743294
 20
2338.326805657112
 30
0.0
 11
3590.758167743294
 21
4413.326805657116
 31
0.0
  0
INSERT
  5
1869E
330
1830B
100
AcDbEntity
  8
寸法
 62
     0
 48
50.0
370
    -2
100
AcDbBlockReference
  2
_DOTSMALL
 10
3590.758167743294
 20
2338.326805657112
 30
0.0
 41
100.0
 42
100.0
 43
100.0
 50
270.0
  0
INSERT
  5
1869F
330
1830B
100
AcDbEntity
  8
寸法
 62
     0
 48
50.0
370
    -2
100
AcDbBlockReference
  2
_DOTSMALL
 10
3590.758167743294
 20
4413.326805657116
 30
0.0
 41
100.0
 42
100.0
 43
100.0
 50
90.0
  0
MTEXT
  5
186A0
330
1830B
100
AcDbEntity
  8
寸法
 62
     7
 48
50.0
100
AcDbMText
 10
3490.746356719672
 20
3332.532683150223
 30
0.0
 40
120.0
 41
0.0
 71
     5
 72
     1
  1
\A1;2075
  7
STYLE1
 11
0.0000000000000001
 21
1.0
 31
0.0
 73
     1
 44
1.0
1001
ACAD
1000
MTEXTBEGIN
1070
    73
1070
     1
1070
    44
1040
1.0
1070
    74
1070
     0
1000
MTEXTEND
  0
POINT
  5
186A1
330
1830B
100
AcDbEntity
  8
DEFPOINTS
 62
     0
 48
50.0
100
AcDbPoint
 10
4499.397549672653
 20
2338.326805657112
 30
0.0
  0
POINT
  5
186A2
330
1830B
100
AcDbEntity
  8
DEFPOINTS
 62
     0
 48
50.0
100
AcDbPoint
 10
4439.397549672652
 20
4413.326805657116
 30
0.0
  0
POINT
  5
186A3
330
1830B
100
AcDbEntity
  8
DEFPOINTS
 62
     0
 48
50.0
100
AcDbPoint
 10
3590.758167743294
 20
4413.326805657116
 30
0.0
  0
ENDBLK
  5
18316
330
1830B
100
AcDbEntity
  8
0
 48
50.0
100
AcDbBlockEnd
  0
BLOCK
  5
18322
330
18317
100
AcDbEntity
  8
0
 48
50.0
100
AcDbBlockBegin
  2
*D25
 70
     1
 10
0.0
 20
0.0
 30
0.0
  3
*D25
  1

  0
LINE
  5
18691
330
18317
100
AcDbEntity
  8
寸法
 62
     0
 48
50.0
370
    -2
100
AcDbLine
 10
4424.397549672653
 20
2338.326805657112
 30
0.0
 11
3530.758167743294
 21
2338.326805657112
 31
0.0
  0
LINE
  5
18692
330
18317
100
AcDbEntity
  8
寸法
 62
     0
 48
50.0
370
    -2
100
AcDbLine
 10
3855.744840514356
 20
2238.326805657112
 30
0.0
 11
3530.758167743294
 21
2238.326805657112
 31
0.0
  0
LINE
  5
18693
330
18317
100
AcDbEntity
  8
寸法
 62
     0
 48
50.0
370
    -2
100
AcDbLine
 10
3590.758167743294
 20
2338.326805657112
 30
0.0
 11
3590.758167743294
 21
2238.326805657112
 31
0.0
  0
LINE
  5
18694
330
18317
100
AcDbEntity
  8
寸法
 62
     0
 48
50.0
370
    -2
100
AcDbLine
 10
3590.758167743294
 20
2238.326805657112
 30
0.0
 11
3590.758167743294
 21
1866.23231746813
 31
0.0
  0
INSERT
  5
18695
330
18317
100
AcDbEntity
  8
寸法
 62
     0
 48
50.0
370
    -2
100
AcDbBlockReference
  2
_DOTSMALL
 10
3590.758167743294
 20
2338.326805657112
 30
0.0
 41
100.0
 42
100.0
 43
100.0
 50
90.0
  0
INSERT
  5
18696
330
18317
100
AcDbEntity
  8
寸法
 62
     0
 48
50.0
370
    -2
100
AcDbBlockReference
  2
_DOTSMALL
 10
3590.758167743294
 20
2238.326805657112
 30
0.0
 41
100.0
 42
100.0
 43
100.0
 50
270.0
  0
MTEXT
  5
18697
330
18317
100
AcDbEntity
  8
寸法
 62
     7
 48
50.0
100
AcDbMText
 10
3490.758167743294
 20
2002.279561562618
 30
0.0
 40
120.0
 41
0.0
 71
     5
 72
     1
  1
\A1;100
  7
STYLE1
 11
0.0000000000000001
 21
1.0
 31
0.0
 73
     1
 44
1.0
1001
ACAD
1000
MTEXTBEGIN
1070
    73
1070
     1
1070
    44
1040
1.0
1070
    74
1070
     0
1000
MTEXTEND
  0
POINT
  5
18698
330
18317
100
AcDbEntity
  8
DEFPOINTS
 62
     0
 48
50.0
100
AcDbPoint
 10
4444.397549672652
 20
2338.326805657112
 30
0.0
  0
POINT
  5
18699
330
18317
100
AcDbEntity
  8
DEFPOINTS
 62
     0
 48
50.0
100
AcDbPoint
 10
3875.744840514355
 20
2238.326805657112
 30
0.0
  0
POINT
  5
1869A
330
18317
100
AcDbEntity
  8
DEFPOINTS
 62
     0
 48
50.0
100
AcDbPoint
 10
3590.758167743294
 20
2238.326805657112
 30
0.0
  0
ENDBLK
  5
18323
330
18317
100
AcDbEntity
  8
0
 48
50.0
100
AcDbBlockEnd
  0
BLOCK
  5
18330
330
18324
100
AcDbEntity
  8
0
 48
50.0
100
AcDbBlockBegin
  2
*D26
 70
     1
 10
0.0
 20
0.0
 30
0.0
  3
*D26
  1

  0
LINE
  5
18686
330
18324
100
AcDbEntity
  8
寸法
 62
     0
 48
50.0
370
    -2
100
AcDbLine
 10
4479.397549672652
 20
2388.326805657112
 30
0.0
 11
3815.744840514355
 21
2388.326805657112
 31
0.0
  0
LINE
  5
18687
330
18324
100
AcDbEntity
  8
寸法
 62
     0
 48
50.0
370
    -2
100
AcDbLine
 10
4424.397549672653
 20
2338.326805657112
 30
0.0
 11
3815.744840514355
 21
2338.326805657112
 31
0.0
  0
LINE
  5
18688
330
18324
100
AcDbEntity
  8
寸法
 62
     0
 48
50.0
370
    -2
100
AcDbLine
 10
3875.744840514356
 20
2388.326805657112
 30
0.0
 11
3875.744840514356
 21
2488.326805657113
 31
0.0
  0
LINE
  5
18689
330
18324
100
AcDbEntity
  8
寸法
 62
     0
 48
50.0
370
    -2
100
AcDbLine
 10
3875.744840514356
 20
2338.326805657112
 30
0.0
 11
3875.744840514356
 21
1926.232317468129
 31
0.0
  0
LINE
  5
1868A
330
18324
100
AcDbEntity
  8
寸法
 62
     0
 48
50.0
370
    -2
100
AcDbLine
 10
3875.744840514356
 20
2388.326805657112
 30
0.0
 11
3875.744840514356
 21
2338.326805657112
 31
0.0
  0
INSERT
  5
1868B
330
18324
100
AcDbEntity
  8
寸法
 62
     0
 48
50.0
370
    -2
100
AcDbBlockReference
  2
_DOTSMALL
 10
3875.744840514356
 20
2388.326805657112
 30
0.0
 41
100.0
 42
100.0
 43
100.0
 50
270.0
  0
INSERT
  5
1868C
330
18324
100
AcDbEntity
  8
寸法
 62
     0
 48
50.0
370
    -2
100
AcDbBlockReference
  2
_DOTSMALL
 10
3875.744840514356
 20
2338.326805657112
 30
0.0
 41
100.0
 42
100.0
 43
100.0
 50
90.0
  0
MTEXT
  5
1868D
330
18324
100
AcDbEntity
  8
寸法
 62
     7
 48
50.0
100
AcDbMText
 10
3775.744840514355
 20
2032.279561562619
 30
0.0
 40
120.0
 41
0.0
 71
     5
 72
     1
  1
\A1;50
  7
STYLE1
 11
0.0000000000000001
 21
1.0
 31
0.0
 73
     1
 44
1.0
1001
ACAD
1000
MTEXTBEGIN
1070
    73
1070
     1
1070
    44
1040
1.0
1070
    74
1070
     0
1000
MTEXTEND
  0
POINT
  5
1868E
330
18324
100
AcDbEntity
  8
DEFPOINTS
 62
     0
 48
50.0
100
AcDbPoint
 10
4499.397549672653
 20
2388.326805657112
 30
0.0
  0
POINT
  5
1868F
330
18324
100
AcDbEntity
  8
DEFPOINTS
 62
     0
 48
50.0
100
AcDbPoint
 10
4444.397549672652
 20
2338.326805657112
 30
0.0
  0
POINT
  5
18690
330
18324
100
AcDbEntity
  8
DEFPOINTS
 62
     0
 48
50.0
100
AcDbPoint
 10
3875.744840514356
 20
2338.326805657112
 30
0.0
  0
ENDBLK
  5
18331
330
18324
100
AcDbEntity
  8
0
 48
50.0
100
AcDbBlockEnd
  0
BLOCK
  5
1833D
330
18332
100
AcDbEntity
  8
0
 48
50.0
100
AcDbBlockBegin
  2
*D27
 70
     1
 10
0.0
 20
0.0
 30
0.0
  3
*D27
  1

  0
LINE
  5
1867C
330
18332
100
AcDbEntity
  8
寸法
 62
     0
 48
50.0
370
    -2
100
AcDbLine
 10
4438.801835963754
 20
4412.624512726774
 30
0.0
 11
3822.867396858479
 21
4430.338663001102
 31
0.0
  0
LINE
  5
1867D
330
18332
100
AcDbEntity
  8
寸法
 62
     0
 48
50.0
370
    -2
100
AcDbLine
 10
4434.748380407127
 20
4271.682788961061
 30
0.0
 11
3818.813941301853
 21
4289.396939235389
 31
0.0
  0
LINE
  5
1867E
330
18332
100
AcDbEntity
  8
寸法
 62
     0
 48
50.0
370
    -2
100
AcDbLine
 10
3878.789142904285
 20
4287.672064530442
 30
0.0
 11
3882.842598460911
 21
4428.613788296154
 31
0.0
  0
LINE
  5
1867F
330
18332
100
AcDbEntity
  8
寸法
 62
     0
 48
50.0
370
    -2
100
AcDbLine
 10
3882.842598460911
 20
4428.613788296154
 30
0.0
 11
3893.191846690595
 21
4788.464997910744
 31
0.0
  0
INSERT
  5
18680
330
18332
100
AcDbEntity
  8
寸法
 62
     0
 48
50.0
370
    -2
100
AcDbBlockReference
  2
_DOTSMALL
 10
3878.789142904285
 20
4287.672064530442
 30
0.0
 41
100.0
 42
100.0
 43
100.0
 50
268.3526390256379
  0
INSERT
  5
18681
330
18332
100
AcDbEntity
  8
寸法
 62
     0
 48
50.0
370
    -2
100
AcDbBlockReference
  2
_DOTSMALL
 10
3882.842598460911
 20
4428.613788296154
 30
0.0
 41
100.0
 42
100.0
 43
100.0
 50
88.35263902563784
  0
MTEXT
  5
18682
330
18332
100
AcDbEntity
  8
寸法
 62
     7
 48
50.0
100
AcDbMText
 10
3789.495948825825
 20
4661.393518947057
 30
0.0
 40
120.0
 41
0.0
 71
     5
 72
     1
  1
\A1;141
  7
STYLE1
 11
0.0287479117491228
 21
0.9995866933738486
 31
0.0
 73
     1
 44
1.0
1001
ACAD
1000
MTEXTBEGIN
1070
    73
1070
     1
1070
    44
1040
1.0
1070
    74
1070
     0
1000
MTEXTEND
  0
POINT
  5
18683
330
18332
100
AcDbEntity
  8
DEFPOINTS
 62
     0
 48
50.0
100
AcDbPoint
 10
4458.793569831231
 20
4412.049554491791
 30
0.0
  0
POINT
  5
18684
330
18332
100
AcDbEntity
  8
DEFPOINTS
 62
     0
 48
50.0
100
AcDbPoint
 10
4454.740114274605
 20
4271.107830726077
 30
0.0
  0
POINT
  5
18685
330
18332
100
AcDbEntity
  8
DEFPOINTS
 62
     0
 48
50.0
100
AcDbPoint
 10
3878.789142904285
 20
4287.672064530442
 30
0.0
  0
ENDBLK
  5
1833E
330
18332
100
AcDbEntity
  8
0
 48
50.0
100
AcDbBlockEnd
  0
BLOCK
  5
18349
330
1833F
100
AcDbEntity
  8
0
 48
50.0
100
AcDbBlockBegin
  2
*D28
 70
     1
 10
0.0
 20
0.0
 30
0.0
  3
*D28
  1

  0
LINE
  5
18673
330
1833F
100
AcDbEntity
  8
寸法
 62
     0
 48
50.0
370
    -2
100
AcDbLine
 10
4406.897549672652
 20
2038.32680565711
 30
0.0
 11
4217.397546426017
 21
2038.32680565711
 31
0.0
  0
LINE
  5
18674
330
1833F
100
AcDbEntity
  8
寸法
 62
     0
 48
50.0
370
    -2
100
AcDbLine
 10
4381.897549672652
 20
2238.326805657111
 30
0.0
 11
4217.397546426019
 21
2238.326805657111
 31
0.0
  0
LINE
  5
18675
330
1833F
100
AcDbEntity
  8
寸法
 62
     0
 48
50.0
370
    -2
100
AcDbLine
 10
4277.397546426017
 20
2038.32680565711
 30
0.0
 11
4277.397546426018
 21
2238.326805657111
 31
0.0
  0
MTEXT
  5
18676
330
1833F
100
AcDbEntity
  8
寸法
 62
     7
 48
50.0
100
AcDbMText
 10
4142.129126286883
 20
2108.471158924043
 30
0.0
 40
120.0
 41
0.0
 71
     5
 72
     1
  1
\A1;200
  7
STYLE1
 11
0.0000000000000001
 21
1.0
 31
0.0
 73
     1
 44
1.0
1001
ACAD
1000
MTEXTBEGIN
1070
    73
1070
     1
1070
    44
1040
1.0
1070
    74
1070
     0
1000
MTEXTEND
  0
INSERT
  5
18677
330
1833F
100
AcDbEntity
  8
寸法
 62
     0
 48
50.0
370
    -2
100
AcDbBlockReference
  2
_DOTSMALL
 10
4277.397546426017
 20
2038.32680565711
 30
0.0
 41
100.0
 42
100.0
 43
100.0
 50
270.0
  0
INSERT
  5
18678
330
1833F
100
AcDbEntity
  8
寸法
 62
     0
 48
50.0
370
    -2
100
AcDbBlockReference
  2
_DOTSMALL
 10
4277.397546426018
 20
2238.326805657111
 30
0.0
 41
100.0
 42
100.0
 43
100.0
 50
90.0
  0
POINT
  5
18679
330
1833F
100
AcDbEntity
  8
DEFPOINTS
 62
     0
 48
50.0
100
AcDbPoint
 10
4426.897549672652
 20
2038.32680565711
 30
0.0
  0
POINT
  5
1867A
330
1833F
100
AcDbEntity
  8
DEFPOINTS
 62
     0
 48
50.0
100
AcDbPoint
 10
4401.897549672653
 20
2238.326805657111
 30
0.0
  0
POINT
  5
1867B
330
1833F
100
AcDbEntity
  8
DEFPOINTS
 62
     0
 48
50.0
100
AcDbPoint
 10
4277.397546426018
 20
2238.326805657111
 30
0.0
  0
ENDBLK
  5
1834A
330
1833F
100
AcDbEntity
  8
0
 48
50.0
100
AcDbBlockEnd
  0
BLOCK
  5
18355
330
1834B
100
AcDbEntity
  8
0
 48
50.0
100
AcDbBlockBegin
  2
*D29
 70
     1
 10
0.0
 20
0.0
 30
0.0
  3
*D29
  1

  0
LINE
  5
1866A
330
1834B
100
AcDbEntity
  8
寸法
 62
     0
 48
50.0
370
    -2
100
AcDbLine
 10
4626.897549672652
 20
2018.326805657109
 30
0.0
 11
4626.897549672652
 21
1692.279476356732
 31
0.0
  0
LINE
  5
1866B
330
1834B
100
AcDbEntity
  8
寸法
 62
     0
 48
50.0
370
    -2
100
AcDbLine
 10
4426.897549672652
 20
2018.32680565711
 30
0.0
 11
4426.897549672652
 21
1692.279476356732
 31
0.0
  0
LINE
  5
1866C
330
1834B
100
AcDbEntity
  8
寸法
 62
     0
 48
50.0
370
    -2
100
AcDbLine
 10
4626.897549672652
 20
1752.279476356732
 30
0.0
 11
4426.897549672652
 21
1752.279476356732
 31
0.0
  0
INSERT
  5
1866D
330
1834B
100
AcDbEntity
  8
寸法
 62
     0
 48
50.0
370
    -2
100
AcDbBlockReference
  2
_DOTSMALL
 10
4626.897549672652
 20
1752.279476356732
 30
0.0
 41
100.0
 42
100.0
 43
100.0
  0
INSERT
  5
1866E
330
1834B
100
AcDbEntity
  8
寸法
 62
     0
 48
50.0
370
    -2
100
AcDbBlockReference
  2
_DOTSMALL
 10
4426.897549672652
 20
1752.279476356732
 30
0.0
 41
100.0
 42
100.0
 43
100.0
 50
180.0
  0
MTEXT
  5
1866F
330
1834B
100
AcDbEntity
  8
寸法
 62
     7
 48
50.0
100
AcDbMText
 10
4526.897549672653
 20
1852.291287380355
 30
0.0
 40
120.0
 41
0.0
 71
     5
 72
     1
  1
\A1;200
  7
STYLE1
 73
     1
 44
1.0
1001
ACAD
1000
MTEXTBEGIN
1070
    73
1070
     1
1070
    44
1040
1.0
1070
    74
1070
     0
1000
MTEXTEND
  0
POINT
  5
18670
330
1834B
100
AcDbEntity
  8
DEFPOINTS
 62
     0
 48
50.0
100
AcDbPoint
 10
4626.897549672652
 20
2038.326805657109
 30
0.0
  0
POINT
  5
18671
330
1834B
100
AcDbEntity
  8
DEFPOINTS
 62
     0
 48
50.0
100
AcDbPoint
 10
4426.897549672652
 20
2038.32680565711
 30
0.0
  0
POINT
  5
18672
330
1834B
100
AcDbEntity
  8
DEFPOINTS
 62
     0
 48
50.0
100
AcDbPoint
 10
4426.897549672652
 20
1752.279476356732
 30
0.0
  0
ENDBLK
  5
18356
330
1834B
100
AcDbEntity
  8
0
 48
50.0
100
AcDbBlockEnd
  0
BLOCK
  5
18946
330
1893C
100
AcDbEntity
  8
0
 48
50.0
100
AcDbBlockBegin
  2
*D30
 70
     1
 10
0.0
 20
0.0
 30
0.0
  3
*D30
  1

  0
LINE
  5
18DE7
330
1893C
100
AcDbEntity
  8
寸法
 62
     0
 48
50.0
370
    -2
100
AcDbLine
 10
9298.49457900989
 20
7295.682228198028
 30
0.0
 11
9298.49457900989
 21
6626.307982014994
 31
0.0
  0
LINE
  5
18DE8
330
1893C
100
AcDbEntity
  8
寸法
 62
     0
 48
50.0
370
    -2
100
AcDbLine
 10
10564.49457900989
 20
7295.682228198028
 30
0.0
 11
10564.49457900989
 21
6626.307982014994
 31
0.0
  0
LINE
  5
18DE9
330
1893C
100
AcDbEntity
  8
寸法
 62
     0
 48
50.0
370
    -2
100
AcDbLine
 10
9318.494579009891
 20
6666.307982014995
 30
0.0
 11
10544.49457900989
 21
6666.307982014995
 31
0.0
  0
INSERT
  5
18DEA
330
1893C
100
AcDbEntity
  8
寸法
 62
     0
 48
50.0
370
    -2
100
AcDbBlockReference
  2
_DOT
 10
9298.49457900989
 20
6666.307982014995
 30
0.0
 41
20.0
 42
20.0
 43
20.0
 50
180.0
  0
INSERT
  5
18DEB
330
1893C
100
AcDbEntity
  8
寸法
 62
     0
 48
50.0
370
    -2
100
AcDbBlockReference
  2
_DOT
 10
10564.49457900989
 20
6666.307982014995
 30
0.0
 41
20.0
 42
20.0
 43
20.0
  0
MTEXT
  5
18DEC
330
1893C
100
AcDbEntity
  8
寸法
 62
     7
 48
50.0
100
AcDbMText
 10
9924.574071671669
 20
6858.319793038616
 30
0.0
 40
120.0
 41
0.0
 71
     5
 72
     1
  1
\A1;有効開口部間口\P1266
  7
STYLE1
 73
     1
 44
1.0
1001
ACAD
1000
MTEXTBEGIN
1070
    73
1070
     1
1070
    44
1040
1.0
1070
    74
1070
     0
1000
MTEXTEND
  0
POINT
  5
18DED
330
1893C
100
AcDbEntity
  8
DEFPOINTS
 62
     0
 48
50.0
100
AcDbPoint
 10
9298.49457900989
 20
7315.682228198028
 30
0.0
  0
POINT
  5
18DEE
330
1893C
100
AcDbEntity
  8
DEFPOINTS
 62
     0
 48
50.0
100
AcDbPoint
 10
10564.49457900989
 20
7315.682228198028
 30
0.0
  0
POINT
  5
18DEF
330
1893C
100
AcDbEntity
  8
DEFPOINTS
 62
     0
 48
50.0
100
AcDbPoint
 10
10564.49457900989
 20
6666.307982014995
 30
0.0
  0
ENDBLK
  5
18947
330
1893C
100
AcDbEntity
  8
0
 48
50.0
100
AcDbBlockEnd
  0
BLOCK
  5
18C7D
330
18C73
100
AcDbEntity
  8
0
 48
50.0
100
AcDbBlockBegin
  2
*D31
 70
     1
 10
0.0
 20
0.0
 30
0.0
  3
*D31
  1

  0
LINE
  5
18DDE
330
18C73
100
AcDbEntity
  8
寸法
 62
     0
 48
50.0
370
    -2
100
AcDbLine
 10
9259.49457900989
 20
7295.682228198024
 30
0.0
 11
9259.49457900989
 21
6317.826858808698
 31
0.0
  0
LINE
  5
18DDF
330
18C73
100
AcDbEntity
  8
寸法
 62
     0
 48
50.0
370
    -2
100
AcDbLine
 10
11413.49457900989
 20
7295.682228198024
 30
0.0
 11
11413.49457900989
 21
6317.826858808698
 31
0.0
  0
LINE
  5
18DE0
330
18C73
100
AcDbEntity
  8
寸法
 62
     0
 48
50.0
370
    -2
100
AcDbLine
 10
9259.49457900989
 20
6377.826858808698
 30
0.0
 11
11413.49457900989
 21
6377.826858808698
 31
0.0
  0
INSERT
  5
18DE1
330
18C73
100
AcDbEntity
  8
寸法
 62
     0
 48
50.0
370
    -2
100
AcDbBlockReference
  2
_DOTSMALL
 10
9259.49457900989
 20
6377.826858808698
 30
0.0
 41
100.0
 42
100.0
 43
100.0
 50
180.0
  0
INSERT
  5
18DE2
330
18C73
100
AcDbEntity
  8
寸法
 62
     0
 48
50.0
370
    -2
100
AcDbBlockReference
  2
_DOTSMALL
 10
11413.49457900989
 20
6377.826858808698
 30
0.0
 41
100.0
 42
100.0
 43
100.0
  0
MTEXT
  5
18DE3
330
18C73
100
AcDbEntity
  8
寸法
 62
     7
 48
50.0
100
AcDbMText
 10
10338.29455028033
 20
6477.838669832319
 30
0.0
 40
120.0
 41
0.0
 71
     5
 72
     1
  1
\A1;2154
  7
STYLE1
 73
     1
 44
1.0
1001
ACAD
1000
MTEXTBEGIN
1070
    73
1070
     1
1070
    44
1040
1.0
1070
    74
1070
     0
1000
MTEXTEND
  0
POINT
  5
18DE4
330
18C73
100
AcDbEntity
  8
DEFPOINTS
 62
     0
 48
50.0
100
AcDbPoint
 10
9259.49457900989
 20
7315.682228198024
 30
0.0
  0
POINT
  5
18DE5
330
18C73
100
AcDbEntity
  8
DEFPOINTS
 62
     0
 48
50.0
100
AcDbPoint
 10
11413.49457900989
 20
7315.682228198024
 30
0.0
  0
POINT
  5
18DE6
330
18C73
100
AcDbEntity
  8
DEFPOINTS
 62
     0
 48
50.0
100
AcDbPoint
 10
11413.49457900989
 20
6377.826858808698
 30
0.0
  0
ENDBLK
  5
18C7E
330
18C73
100
AcDbEntity
  8
0
 48
50.0
100
AcDbBlockEnd
  0
BLOCK
  5
18C8B
330
18C7F
100
AcDbEntity
  8
0
 48
50.0
100
AcDbBlockBegin
  2
*D32
 70
     1
 10
0.0
 20
0.0
 30
0.0
  3
*D32
  1

  0
LINE
  5
18DD3
330
18C7F
100
AcDbEntity
  8
寸法
 62
     0
 48
50.0
370
    -2
100
AcDbLine
 10
8791.494579009915
 20
7392.682228198021
 30
0.0
 11
8476.883333383199
 21
7392.682228198021
 31
0.0
  0
LINE
  5
18DD4
330
18C7F
100
AcDbEntity
  8
寸法
 62
     0
 48
50.0
370
    -2
100
AcDbLine
 10
9239.494579009891
 20
7317.68222819802
 30
0.0
 11
8476.883333383199
 21
7317.68222819802
 31
0.0
  0
LINE
  5
18DD5
330
18C7F
100
AcDbEntity
  8
寸法
 62
     0
 48
50.0
370
    -2
100
AcDbLine
 10
8516.8833333832
 20
7412.682228198021
 30
0.0
 11
8516.8833333832
 21
7432.68222819802
 31
0.0
  0
LINE
  5
18DD6
330
18C7F
100
AcDbEntity
  8
寸法
 62
     0
 48
50.0
370
    -2
100
AcDbLine
 10
8516.8833333832
 20
7297.68222819802
 30
0.0
 11
8516.8833333832
 21
7076.711665449542
 31
0.0
  0
LINE
  5
18DD7
330
18C7F
100
AcDbEntity
  8
寸法
 62
     0
 48
50.0
370
    -2
100
AcDbLine
 10
8516.8833333832
 20
7392.682228198021
 30
0.0
 11
8516.8833333832
 21
7317.68222819802
 31
0.0
  0
INSERT
  5
18DD8
330
18C7F
100
AcDbEntity
  8
寸法
 62
     0
 48
50.0
370
    -2
100
AcDbBlockReference
  2
_DOT
 10
8516.8833333832
 20
7392.682228198021
 30
0.0
 41
20.0
 42
20.0
 43
20.0
 50
270.0
  0
INSERT
  5
18DD9
330
18C7F
100
AcDbEntity
  8
寸法
 62
     0
 48
50.0
370
    -2
100
AcDbBlockReference
  2
_DOT
 10
8516.8833333832
 20
7317.68222819802
 30
0.0
 41
20.0
 42
20.0
 43
20.0
 50
90.0
  0
MTEXT
  5
18DDA
330
18C7F
100
AcDbEntity
  8
寸法
 62
     7
 48
50.0
100
AcDbMText
 10
8424.883333383197
 20
7177.196946823783
 30
0.0
 40
120.0
 41
0.0
 71
     5
 72
     1
  1
\A1;75
  7
STYLE1
 11
0.0000000000000001
 21
1.0
 31
0.0
 73
     1
 44
1.0
1001
ACAD
1000
MTEXTBEGIN
1070
    73
1070
     1
1070
    44
1040
1.0
1070
    74
1070
     0
1000
MTEXTEND
  0
POINT
  5
18DDB
330
18C7F
100
AcDbEntity
  8
DEFPOINTS
 62
     0
 48
50.0
100
AcDbPoint
 10
8811.494579009915
 20
7392.682228198021
 30
0.0
  0
POINT
  5
18DDC
330
18C7F
100
AcDbEntity
  8
DEFPOINTS
 62
     0
 48
50.0
100
AcDbPoint
 10
9259.49457900989
 20
7317.68222819802
 30
0.0
  0
POINT
  5
18DDD
330
18C7F
100
AcDbEntity
  8
DEFPOINTS
 62
     0
 48
50.0
100
AcDbPoint
 10
8516.8833333832
 20
7317.68222819802
 30
0.0
  0
ENDBLK
  5
18C8C
330
18C7F
100
AcDbEntity
  8
0
 48
50.0
100
AcDbBlockEnd
  0
BLOCK
  5
18CEF
330
18CE5
100
AcDbEntity
  8
0
 48
50.0
100
AcDbBlockBegin
  2
*D33
 70
     1
 10
0.0
 20
0.0
 30
0.0
  3
*D33
  1

  0
LINE
  5
18DCA
330
18CE5
100
AcDbEntity
  8
寸法
 62
     0
 48
50.0
370
    -2
100
AcDbLine
 10
8811.494579009915
 20
7372.682228197987
 30
0.0
 11
8811.494579009915
 21
6051.485270917019
 31
0.0
  0
LINE
  5
18DCB
330
18CE5
100
AcDbEntity
  8
寸法
 62
     0
 48
50.0
370
    -2
100
AcDbLine
 10
11441.4945790099
 20
7372.682228198151
 30
0.0
 11
11441.4945790099
 21
6051.485270917019
 31
0.0
  0
LINE
  5
18DCC
330
18CE5
100
AcDbEntity
  8
寸法
 62
     0
 48
50.0
370
    -2
100
AcDbLine
 10
8811.494579009915
 20
6111.485270917019
 30
0.0
 11
11441.4945790099
 21
6111.485270917019
 31
0.0
  0
INSERT
  5
18DCD
330
18CE5
100
AcDbEntity
  8
寸法
 62
     0
 48
50.0
370
    -2
100
AcDbBlockReference
  2
_DOTSMALL
 10
8811.494579009915
 20
6111.485270917019
 30
0.0
 41
100.0
 42
100.0
 43
100.0
 50
180.0
  0
INSERT
  5
18DCE
330
18CE5
100
AcDbEntity
  8
寸法
 62
     0
 48
50.0
370
    -2
100
AcDbBlockReference
  2
_DOTSMALL
 10
11441.4945790099
 20
6111.485270917019
 30
0.0
 41
100.0
 42
100.0
 43
100.0
  0
MTEXT
  5
18DCF
330
18CE5
100
AcDbEntity
  8
寸法
 62
     7
 48
50.0
100
AcDbMText
 10
10110.93392371243
 20
6211.497081940641
 30
0.0
 40
120.0
 41
0.0
 71
     5
 72
     1
  1
\A1;2630
  7
STYLE1
 73
     1
 44
1.0
1001
ACAD
1000
MTEXTBEGIN
1070
    73
1070
     1
1070
    44
1040
1.0
1070
    74
1070
     0
1000
MTEXTEND
  0
POINT
  5
18DD0
330
18CE5
100
AcDbEntity
  8
DEFPOINTS
 62
     0
 48
50.0
100
AcDbPoint
 10
8811.494579009915
 20
7392.682228197988
 30
0.0
  0
POINT
  5
18DD1
330
18CE5
100
AcDbEntity
  8
DEFPOINTS
 62
     0
 48
50.0
100
AcDbPoint
 10
11441.4945790099
 20
7392.682228198151
 30
0.0
  0
POINT
  5
18DD2
330
18CE5
100
AcDbEntity
  8
DEFPOINTS
 62
     0
 48
50.0
100
AcDbPoint
 10
11441.4945790099
 20
6111.485270917019
 30
0.0
  0
ENDBLK
  5
18CF0
330
18CE5
100
AcDbEntity
  8
0
 48
50.0
100
AcDbBlockEnd
  0
ENDSEC
  0
SECTION
  2
ENTITIES
  0
LINE
  5
10B57
330
747D
100
AcDbEntity
  8
補助
  6
PHANTOM
 62
   230
 48
50.0
100
AcDbLine
 10
139.9999999999995
 20
11409.6
 30
0.0
 11
16307.2
 21
11409.6
 31
0.0
  0
LINE
  5
10B59
330
747D
100
AcDbEntity
  8
仕様書枠
  6
Continuous
 48
50.0
100
AcDbLine
 10
13107.2
 20
1200.0
 30
0.0
 11
13107.2
 21
-0.0000000000000729
 31
0.0
  0
LINE
  5
10B5C
330
747D
100
AcDbEntity
  8
仕様書枠
 48
50.0
100
AcDbLine
 10
16307.2
 20
1200.0
 30
0.0
 11
16307.2
 21
-0.0000000000000909
 31
0.0
  0
LINE
  5
10B5D
330
747D
100
AcDbEntity
  8
仕様書枠
 48
50.0
100
AcDbLine
 10
140.0
 20
0.0
 30
0.0
 11
16307.2
 21
-0.0000000000000909
 31
0.0
  0
LINE
  5
10B5E
330
747D
100
AcDbEntity
  8
補助
  6
PHANTOM
 62
   230
 48
50.0
100
AcDbLine
 10
16307.2
 20
11409.6
 30
0.0
 11
16307.2
 21
1200.0
 31
0.0
  0
LINE
  5
10B6C
330
747D
100
AcDbEntity
  8
仕様書枠
 48
50.0
100
AcDbLine
 10
13107.2
 20
1200.0
 30
0.0
 11
16307.2
 21
1200.0
 31
0.0
  0
LINE
  5
10B6D
330
747D
100
AcDbEntity
  8
補助
  6
PHANTOM
 62
   230
 48
50.0
100
AcDbLine
 10
13107.2
 20
11409.6
 30
0.0
 11
13107.2
 21
4800.0
 31
0.0
  0
LINE
  5
10B6F
330
747D
100
AcDbEntity
  8
補助
  6
PHANTOM
 62
   230
 48
50.0
100
AcDbLine
 10
13107.2
 20
4800.0
 30
0.0
 11
16307.2
 21
4800.0
 31
0.0
  0
LINE
  5
10B72
330
747D
100
AcDbEntity
  8
文字
 62
     7
 48
50.0
100
AcDbLine
 10
13187.2
 20
400.0
 30
0.0
 11
16227.2
 21
400.0
 31
0.0
  0
TEXT
  5
10B73
330
747D
100
AcDbEntity
  8
文字
 62
     7
 48
50.0
100
AcDbText
 10
13162.9790565769
 20
895.0906074299405
 30
0.0
 40
200.0
  1
外 形 図
  7
STYLE2
100
AcDbText
  0
TEXT
  5
10B74
330
747D
100
AcDbEntity
  8
文字
 62
     7
 48
50.0
100
AcDbText
 10
13201.43669998441
 20
477.2740661031255
 30
0.0
 40
160.0
  1
機種名
  7
STYLE2
100
AcDbText
  0
TEXT
  5
10B76
330
747D
100
AcDbEntity
  8
文字
 62
     7
 48
50.0
100
AcDbText
 10
13209.4053442172
 20
76.09434707649343
 30
0.0
 40
100.0
  1
○床面積 ： 5.98㎡(1.81坪) 　
  7
STYLE2
100
AcDbText
  0
TEXT
  5
10B79
330
747D
100
AcDbEntity
  8
文字
 62
     7
 48
50.0
100
AcDbText
 10
14524.131837222
 20
1031.557706291228
 30
0.0
 40
100.0
  1
NO.22      <縮尺> S=1/40
  7
STYLE2
100
AcDbText
  0
LINE
  5
10B7B
330
747D
100
AcDbEntity
  8
仕様書枠
 48
50.0
100
AcDbLine
 10
13107.2
 20
800.0
 30
0.0
 11
14251.2
 21
800.0
 31
0.0
  0
LINE
  5
10B88
330
747D
100
AcDbEntity
  8
仕様書枠
  6
Continuous
 48
50.0
100
AcDbLine
 10
14251.2
 20
1200.0
 30
0.0
 11
14251.2
 21
800.0
 31
0.0
  0
TEXT
  5
154D3
330
747D
100
AcDbEntity
  8
文字
 62
     7
 48
50.0
100
AcDbText
 10
14643.63059855437
 20
863.0097378581719
 30
0.0
 40
100.0
  1
～一般型・多雪地型～
  7
STYLE2
100
AcDbText
  0
LINE
  5
17377
330
747D
100
AcDbEntity
  8
部品1
100
AcDbLine
 10
11413.49457900992
 20
7867.682228198166
 30
0.0
 11
11441.49457900992
 21
7867.682228198166
 31
0.0
  0
LINE
  5
17378
330
747D
100
AcDbEntity
  8
部品1
100
AcDbLine
 10
8839.494579009897
 20
7867.682228198042
 30
0.0
 11
8811.494579009897
 21
7867.682228198042
 31
0.0
  0
LINE
  5
17379
330
747D
100
AcDbEntity
  8
部品1
100
AcDbLine
 10
11384.99457900991
 20
7867.682228198138
 30
0.0
 11
8867.994579009907
 21
7867.682228198042
 31
0.0
  0
LINE
  5
1737A
330
747D
100
AcDbEntity
  8
Ｇ．Ｌ
100
AcDbLine
 10
2513.415642185475
 20
2238.326805657112
 30
0.0
 11
12091.00713203876
 21
2238.326805657112
 31
0.0
  0
TEXT
  5
1737B
330
747D
100
AcDbEntity
  8
部品1
100
AcDbText
 10
9835.284649633649
 20
1356.395013461179
 30
0.0
 40
135.0
  1
正面図
  7
STYLE2
100
AcDbText
  0
LINE
  5
17381
330
747D
100
AcDbEntity
  8
部品1
100
AcDbLine
 10
9744.759245895693
 20
1549.288542679702
 30
0.0
 11
9744.759245895693
 21
1309.396221134169
 31
0.0
  0
LINE
  5
17382
330
747D
100
AcDbEntity
  8
部品1
100
AcDbLine
 10
9744.759245895693
 20
1309.396221134169
 30
0.0
 11
10508.22991212413
 21
1309.396221134169
 31
0.0
  0
LINE
  5
17383
330
747D
100
AcDbEntity
  8
部品1
100
AcDbLine
 10
10508.22991212413
 20
1309.396221134169
 30
0.0
 11
10508.22991212413
 21
1549.288542679702
 31
0.0
  0
LINE
  5
17384
330
747D
100
AcDbEntity
  8
部品1
100
AcDbLine
 10
10508.22991212413
 20
1549.288542679702
 30
0.0
 11
9744.759245895693
 21
1549.288542679702
 31
0.0
  0
DIMENSION
  5
17385
330
747D
100
AcDbEntity
  8
寸法
 48
50.0
100
AcDbDimension
  2
*D6
 10
8478.111206790904
 20
2396.326805657113
 30
0.0
 11
8478.111206790904
 21
3253.275749858853
 31
0.0
 70
   160
  1
有効開口部高サ<>
 71
     5
 42
1724.999999999999
  3
INABA_S40G
100
AcDbAlignedDimension
 13
9259.494579009913
 23
4121.326805657112
 33
0.0
 14
9259.494579009913
 24
2396.326805657112
 34
0.0
 50
90.0
100
AcDbRotatedDimension
  0
DIMENSION
  5
17386
330
747D
100
AcDbEntity
  8
寸法
 48
50.0
100
AcDbDimension
  2
*D7
 10
8711.494579009912
 20
1752.279476356734
 30
0.0
 11
8811.494579009911
 21
1752.279476356734
 31
0.0
 70
   160
 71
     5
 42
200.0000000000018
  3
INABA_S40G
100
AcDbAlignedDimension
 13
8911.494579009914
 23
2038.326805657112
 33
0.0
 14
8711.494579009912
 24
2038.326805657112
 34
0.0
100
AcDbRotatedDimension
  0
LINE
  5
17387
330
747D
100
AcDbEntity
  8
破線
 48
5.0
100
AcDbLine
 10
8711.494579009912
 20
2038.326805657112
 30
0.0
 11
8911.494579009914
 21
2038.326805657112
 31
0.0
  0
LINE
  5
17388
330
747D
100
AcDbEntity
  8
破線
 48
5.0
100
AcDbLine
 10
8711.494579009912
 20
2238.326805657112
 30
0.0
 11
8711.494579009912
 21
2038.326805657112
 31
0.0
  0
LINE
  5
17389
330
747D
100
AcDbEntity
  8
部品1
100
AcDbLine
 10
8811.494579009911
 20
4178.326805657112
 30
0.0
 11
11441.49457900991
 21
4178.326805657112
 31
0.0
  0
LINE
  5
1738A
330
747D
100
AcDbEntity
  8
部品1
 48
50.0
100
AcDbLine
 10
9259.494579009913
 20
2338.326805657112
 30
0.0
 11
11413.49457900991
 21
2338.326805657112
 31
0.0
  0
LINE
  5
1738B
330
747D
100
AcDbEntity
  8
部品1
 48
50.0
100
AcDbLine
 10
8839.494579009913
 20
2338.326805657112
 30
0.0
 11
11413.49457900991
 21
2338.326805657112
 31
0.0
  0
LINE
  5
1738C
330
747D
100
AcDbEntity
  8
破線
 48
5.0
100
AcDbLine
 10
11541.49457900991
 20
2038.326805657112
 30
0.0
 11
11341.49457900991
 21
2038.326805657112
 31
0.0
  0
LINE
  5
1738D
330
747D
100
AcDbEntity
  8
部品1
100
AcDbLine
 10
8811.494579009911
 20
4178.326805657112
 30
0.0
 11
11441.49457900991
 21
4178.326805657112
 31
0.0
  0
LINE
  5
1738E
330
747D
100
AcDbEntity
  8
部品1
100
AcDbLine
 10
8811.494579009911
 20
2338.326805657112
 30
0.0
 11
11441.49457900991
 21
2338.326805657112
 31
0.0
  0
LINE
  5
1738F
330
747D
100
AcDbEntity
  8
部品1
 48
50.0
100
AcDbLine
 10
8866.494579009915
 20
2388.326805657133
 30
0.0
 11
8866.494579009915
 21
4178.326805657112
 31
0.0
  0
LINE
  5
17390
330
747D
100
AcDbEntity
  8
部品1
100
AcDbLine
 10
8811.494579009909
 20
4231.826805657112
 30
0.0
 11
8811.494579009911
 21
2238.326805657112
 31
0.0
  0
LINE
  5
17391
330
747D
100
AcDbEntity
  8
部品1
100
AcDbLine
 10
8806.494579009912
 20
2383.326805657114
 30
0.0
 11
8806.494579009912
 21
2238.326805657112
 31
0.0
  0
LINE
  5
17392
330
747D
100
AcDbEntity
  8
破線
 48
5.0
100
AcDbLine
 10
8806.494579009912
 20
2238.326805657112
 30
0.0
 11
8806.494579009912
 21
2083.326805657113
 31
0.0
  0
LINE
  5
17393
330
747D
100
AcDbEntity
  8
破線
 48
5.0
100
AcDbLine
 10
8911.494579009911
 20
2238.326805657112
 30
0.0
 11
8911.494579009911
 21
2038.326805657112
 31
0.0
  0
LINE
  5
17394
330
747D
100
AcDbEntity
  8
破線
 48
5.0
100
AcDbLine
 10
8786.494579009911
 20
2083.326805657113
 30
0.0
 11
8806.494579009914
 21
2083.326805657113
 31
0.0
  0
LINE
  5
17395
330
747D
100
AcDbEntity
  8
部品1
100
AcDbLine
 10
9211.494579009912
 20
2338.326805657112
 30
0.0
 11
9211.494579009912
 21
2238.326805657112
 31
0.0
  0
LINE
  5
17396
330
747D
100
AcDbEntity
  8
部品1
100
AcDbLine
 10
8811.494579009911
 20
2388.326805657133
 30
0.0
 11
9259.494579009913
 21
2388.326805657133
 31
0.0
  0
LINE
  5
17397
330
747D
100
AcDbEntity
  8
部品1
 48
50.0
100
AcDbLine
 10
9611.494579009912
 20
2338.326805657112
 30
0.0
 11
9611.494579009912
 21
2238.326805657112
 31
0.0
  0
LINE
  5
17398
330
747D
100
AcDbEntity
  8
部品1
 48
50.0
100
AcDbLine
 10
9811.494579009911
 20
2338.326805657112
 30
0.0
 11
9811.494579009911
 21
2238.326805657112
 31
0.0
  0
LINE
  5
17399
330
747D
100
AcDbEntity
  8
部品1
 48
50.0
100
AcDbLine
 10
10441.49457900991
 20
2338.326805657112
 30
0.0
 11
10441.49457900991
 21
2238.326805657112
 31
0.0
  0
LINE
  5
1739A
330
747D
100
AcDbEntity
  8
部品1
 48
50.0
100
AcDbLine
 10
10641.49457900991
 20
2338.326805657112
 30
0.0
 11
10641.49457900991
 21
2238.326805657112
 31
0.0
  0
LINE
  5
1739B
330
747D
100
AcDbEntity
  8
部品1
100
AcDbLine
 10
11041.49457900991
 20
2338.326805657112
 30
0.0
 11
11041.49457900991
 21
2238.326805657112
 31
0.0
  0
LINE
  5
1739C
330
747D
100
AcDbEntity
  8
破線
 48
5.0
100
AcDbLine
 10
11341.49457900991
 20
2238.326805657112
 30
0.0
 11
11341.49457900991
 21
2038.326805657112
 31
0.0
  0
LINE
  5
1739D
330
747D
100
AcDbEntity
  8
部品1
 48
50.0
100
AcDbLine
 10
9286.494579009914
 20
4173.326805657112
 30
0.0
 11
9286.494579009914
 21
4178.326805657112
 31
0.0
  0
LINE
  5
1739E
330
747D
100
AcDbEntity
  8
部品1
100
AcDbLine
 10
11441.49457900991
 20
4231.826805657112
 30
0.0
 11
11441.49457900991
 21
2238.326805657112
 31
0.0
  0
LINE
  5
1739F
330
747D
100
AcDbEntity
  8
部品1
100
AcDbLine
 10
11446.49457900991
 20
2383.326805657112
 30
0.0
 11
11446.49457900991
 21
2238.326805657112
 31
0.0
  0
LINE
  5
173A0
330
747D
100
AcDbEntity
  8
破線
 48
5.0
100
AcDbLine
 10
11446.49457900991
 20
2238.326805657112
 30
0.0
 11
11446.49457900991
 21
2083.326805657113
 31
0.0
  0
LINE
  5
173A1
330
747D
100
AcDbEntity
  8
破線
 48
5.0
100
AcDbLine
 10
11541.49457900991
 20
2238.326805657112
 30
0.0
 11
11541.49457900991
 21
2038.326805657112
 31
0.0
  0
LINE
  5
173A2
330
747D
100
AcDbEntity
  8
破線
 48
5.0
100
AcDbLine
 10
11466.49457900991
 20
2083.326805657113
 30
0.0
 11
11446.49457900991
 21
2083.326805657113
 31
0.0
  0
LINE
  5
173A3
330
747D
100
AcDbEntity
  8
部品1
100
AcDbLine
 10
11413.49457900991
 20
2388.326805657133
 30
0.0
 11
11441.49457900991
 21
2388.326805657133
 31
0.0
  0
LINE
  5
173A4
330
747D
100
AcDbEntity
  8
部品1
 48
50.0
100
AcDbLine
 10
11386.49457900991
 20
4173.326805657112
 30
0.0
 11
11386.49457900991
 21
4178.326805657112
 31
0.0
  0
DIMENSION
  5
173A5
330
747D
100
AcDbEntity
  8
寸法
100
AcDbDimension
  2
*D8
 10
8866.494579009922
 20
9902.68222819807
 30
0.0
 11
8503.009297635648
 21
9902.68222819807
 31
0.0
 70
   160
 71
     5
 42
55.00000000003637
  3
INABA_S40G
100
AcDbAlignedDimension
 13
8811.494579009886
 23
9602.682228198069
 33
0.0
 14
8866.494579009922
 24
9602.682228198069
 34
0.0
100
AcDbRotatedDimension
1001
ACAD
1000
DSTYLE
1002
{
1002
}
  0
DIMENSION
  5
173A6
330
747D
100
AcDbEntity
  8
寸法
100
AcDbDimension
  2
*D9
 10
10026.26064717392
 20
8802.718838653518
 30
0.0
 11
9389.76064717389
 21
8802.718838653518
 31
0.0
 70
   160
 71
     5
 42
1273.000000000069
  3
INABA_S40G
100
AcDbAlignedDimension
 13
8838.994579009854
 23
9122.682228198117
 33
0.0
 14
10111.99457900992
 24
9122.68222819811
 34
0.0
100
AcDbRotatedDimension
1001
ACAD
1000
DSTYLE
1002
{
1002
}
  0
DIMENSION
  5
173A7
330
747D
100
AcDbEntity
  8
寸法
100
AcDbDimension
  2
*D10
 10
11441.49457900992
 20
9902.68222819807
 30
0.0
 11
11749.97986038416
 21
9902.68222819807
 31
0.0
 70
   160
 71
     5
 42
55.0
  3
INABA_S40G
100
AcDbAlignedDimension
 13
11386.49457900992
 23
9602.682228198164
 33
0.0
 14
11441.49457900992
 24
9602.682228198164
 34
0.0
100
AcDbRotatedDimension
1001
ACAD
1000
DSTYLE
1002
{
1002
}
  0
DIMENSION
  5
173A8
330
747D
100
AcDbEntity
  8
寸法
100
AcDbDimension
  2
*D11
 10
11386.49457900992
 20
9902.68222819807
 30
0.0
 11
10126.49457900992
 21
9902.68222819807
 31
0.0
 70
   160
  1
6X420=<>
 71
     5
 42
2520.0
  3
INABA_S40G
100
AcDbAlignedDimension
 13
8866.494579009922
 23
9602.682228198069
 33
0.0
 14
11386.49457900992
 24
9602.682228198164
 34
0.0
100
AcDbRotatedDimension
1001
ACAD
1000
DSTYLE
1002
{
1002
}
  0
LINE
  5
173A9
330
747D
100
AcDbEntity
  8
部品1
100
AcDbLine
 10
11384.99457900992
 20
7449.182228198151
 30
0.0
 11
8867.994579009815
 21
7449.182228198035
 31
0.0
  0
LINE
  5
173AA
330
747D
100
AcDbEntity
  8
部品1
100
AcDbLine
 10
8811.494579009922
 20
9602.682228198071
 30
0.0
 11
11441.49457900992
 21
9602.682228198167
 31
0.0
  0
DIMENSION
  5
173AC
330
747D
100
AcDbEntity
  8
寸法
100
AcDbDimension
  2
*D12
 10
11326.26064717392
 20
8802.718838653518
 30
0.0
 11
10759.38248632393
 21
8802.718838653518
 31
0.0
 70
   160
 71
     5
 42
1273.000000000011
  3
INABA_S40G
100
AcDbAlignedDimension
 13
10138.99457900992
 23
9122.682228198176
 33
0.0
 14
11411.99457900993
 24
9122.682228198168
 34
0.0
100
AcDbRotatedDimension
1001
ACAD
1000
DSTYLE
1002
{
1002
}
  0
LINE
  5
173AD
330
747D
100
AcDbEntity
  8
細線
 48
50.0
100
AcDbLine
 10
11412.99457900992
 20
9572.682228198166
 30
0.0
 11
10139.99457900992
 21
9122.682228198174
 31
0.0
  0
LINE
  5
173AE
330
747D
100
AcDbEntity
  8
部品1
100
AcDbLine
 10
10139.99457900992
 20
9572.682228198173
 30
0.0
 11
11412.99457900992
 21
9572.682228198166
 31
0.0
  0
LINE
  5
173AF
330
747D
100
AcDbEntity
  8
部品1
100
AcDbLine
 10
10139.99457900992
 20
9122.682228198174
 30
0.0
 11
11412.99457900992
 21
9122.682228198165
 31
0.0
  0
LINE
  5
173B0
330
747D
100
AcDbEntity
  8
細線
 48
50.0
100
AcDbLine
 10
11412.99457900992
 20
9122.682228198165
 30
0.0
 11
10139.99457900992
 21
9572.682228198166
 31
0.0
  0
LINE
  5
173B1
330
747D
100
AcDbEntity
  8
部品1
100
AcDbLine
 10
10138.99457900992
 20
9574.682228198181
 30
0.0
 11
11413.49457900992
 21
9574.682228198167
 31
0.0
  0
LINE
  5
173B2
330
747D
100
AcDbEntity
  8
部品1
100
AcDbLine
 10
11384.99457900991
 20
8707.682228198136
 30
0.0
 11
8867.994579009907
 21
8707.682228198043
 31
0.0
  0
LINE
  5
173B3
330
747D
100
AcDbEntity
  8
部品1
 48
50.0
100
AcDbLine
 10
8839.494579009915
 20
7420.682228198137
 30
0.0
 11
11413.49457900993
 21
7420.682228198145
 31
0.0
  0
LINE
  5
173B4
330
747D
100
AcDbEntity
  8
破線
 48
10.0
100
AcDbLine
 10
11361.49457900991
 20
9122.682228198165
 30
0.0
 11
11361.49457900992
 21
7472.682228198151
 31
0.0
  0
LINE
  5
173B5
330
747D
100
AcDbEntity
  8
破線
 48
10.0
100
AcDbLine
 10
8891.494579009897
 20
9122.682228198165
 30
0.0
 11
8891.494579009913
 21
7472.682228198035
 31
0.0
  0
LINE
  5
173B6
330
747D
100
AcDbEntity
  8
部品1
100
AcDbLine
 10
8839.494579009897
 20
7420.682228198114
 30
0.0
 11
8839.494579009915
 21
9127.682228198043
 31
0.0
  0
LINE
  5
173B7
330
747D
100
AcDbEntity
  8
部品1
100
AcDbLine
 10
8811.494579009886
 20
9602.682228198034
 30
0.0
 11
8811.494579009915
 21
7392.682228198028
 31
0.0
  0
LINE
  5
173B8
330
747D
100
AcDbEntity
  8
破線
 48
10.0
100
AcDbLine
 10
9685.9945790099
 20
7449.182228198065
 30
0.0
 11
9685.994579009898
 21
9122.682228198174
 31
0.0
  0
LINE
  5
173B9
330
747D
100
AcDbEntity
  8
破線
 48
10.0
100
AcDbLine
 10
9735.994579009897
 20
7449.182228198072
 30
0.0
 11
9735.994579009897
 21
9122.682228198174
 31
0.0
  0
LINE
  5
173BA
330
747D
100
AcDbEntity
  8
部品1
100
AcDbLine
 10
8867.9945790099
 20
9122.682228198115
 30
0.0
 11
8867.994579009913
 21
7449.18222819813
 31
0.0
  0
LINE
  5
173BB
330
747D
100
AcDbEntity
  8
破線
 48
10.0
100
AcDbLine
 10
10566.9945790099
 20
7449.182228198072
 30
0.0
 11
10566.9945790099
 21
9122.682228198174
 31
0.0
  0
LINE
  5
173BC
330
747D
100
AcDbEntity
  8
破線
 48
10.0
100
AcDbLine
 10
10516.9945790099
 20
7449.182228198065
 30
0.0
 11
10516.99457900989
 21
9122.682228198174
 31
0.0
  0
LINE
  5
173BD
330
747D
100
AcDbEntity
  8
破線
 48
10.0
100
AcDbLine
 10
10516.9945790099
 20
7472.682228198071
 30
0.0
 11
9735.994579009897
 21
7472.682228198049
 31
0.0
  0
LINE
  5
173BE
330
747D
100
AcDbEntity
  8
破線
 48
10.0
100
AcDbLine
 10
9685.9945790099
 20
7472.682228198021
 30
0.0
 11
8891.494579009908
 21
7472.682228198035
 31
0.0
  0
LINE
  5
173BF
330
747D
100
AcDbEntity
  8
部品1
100
AcDbLine
 10
9286.49457900989
 20
7392.682228198028
 30
0.0
 11
8811.494579009915
 21
7392.682228198028
 31
0.0
  0
LINE
  5
173C0
330
747D
100
AcDbEntity
  8
部品1
100
AcDbLine
 10
8811.494579009915
 20
7447.682228197992
 30
0.0
 11
8811.494579009915
 21
7392.68222819799
 31
0.0
  0
LINE
  5
173C1
330
747D
100
AcDbEntity
  8
部品1
100
AcDbLine
 10
8839.494579009913
 20
7447.682228198035
 30
0.0
 11
8811.494579009915
 21
7447.682228198035
 31
0.0
  0
LINE
  5
173C2
330
747D
100
AcDbEntity
  8
部品1
100
AcDbLine
 10
8839.494579009897
 20
7447.68222819802
 30
0.0
 11
8811.494579009915
 21
7447.68222819802
 31
0.0
  0
LINE
  5
173C3
330
747D
100
AcDbEntity
  8
部品1
100
AcDbLine
 10
8839.494579009897
 20
7447.682228197992
 30
0.0
 11
8811.494579009915
 21
7447.682228197992
 31
0.0
  0
LINE
  5
173C4
330
747D
100
AcDbEntity
  8
部品1
100
AcDbLine
 10
8866.49457900989
 20
7392.682228198158
 30
0.0
 11
8866.49457900989
 21
7420.682228198159
 31
0.0
  0
LINE
  5
173C5
330
747D
100
AcDbEntity
  8
部品1
 48
50.0
100
AcDbLine
 10
8867.994579009913
 20
7449.18222819813
 30
0.0
 11
8839.494579009912
 21
7420.682228198137
 31
0.0
  0
LINE
  5
173C6
330
747D
100
AcDbEntity
  8
部品1
100
AcDbLine
 10
9286.49457900989
 20
7392.682228198158
 30
0.0
 11
9286.49457900989
 21
7420.682228198159
 31
0.0
  0
LINE
  5
173C7
330
747D
100
AcDbEntity
  8
破線
 48
10.0
100
AcDbLine
 10
11361.49457900992
 20
7472.682228198151
 30
0.0
 11
10566.9945790099
 21
7472.682228197976
 31
0.0
  0
LINE
  5
173C8
330
747D
100
AcDbEntity
  8
細線
 48
50.0
100
AcDbLine
 10
10112.99457900992
 20
9122.682228198174
 30
0.0
 11
8839.994579009852
 21
9572.682228198116
 31
0.0
  0
LINE
  5
173C9
330
747D
100
AcDbEntity
  8
細線
 48
50.0
100
AcDbLine
 10
10112.99457900992
 20
9572.682228198173
 30
0.0
 11
8839.994579009854
 21
9122.682228198115
 31
0.0
  0
LINE
  5
173CA
330
747D
100
AcDbEntity
  8
部品1
100
AcDbLine
 10
8839.494579009924
 20
9574.682228198181
 30
0.0
 11
10113.99457900992
 21
9574.682228198188
 31
0.0
  0
LINE
  5
173CB
330
747D
100
AcDbEntity
  8
部品1
100
AcDbLine
 10
8839.994579009854
 20
9572.682228198116
 30
0.0
 11
10112.99457900992
 21
9572.682228198173
 31
0.0
  0
LINE
  5
173CC
330
747D
100
AcDbEntity
  8
部品1
100
AcDbLine
 10
8839.994579009854
 20
9122.682228198115
 30
0.0
 11
10112.99457900992
 21
9122.682228198174
 31
0.0
  0
LINE
  5
173CD
330
747D
100
AcDbEntity
  8
部品1
 48
50.0
100
AcDbLine
 10
8839.994579009854
 20
9572.682228198173
 30
0.0
 11
8839.994579009854
 21
9122.682228198174
 31
0.0
  0
LINE
  5
173CE
330
747D
100
AcDbEntity
  8
部品1
100
AcDbLine
 10
8839.494579009912
 20
9122.182228198042
 30
0.0
 11
8839.494579009922
 21
9574.682228198071
 31
0.0
  0
LINE
  5
173CF
330
747D
100
AcDbEntity
  8
部品1
100
AcDbLine
 10
8839.494579009897
 20
8707.682228198043
 30
0.0
 11
8811.494579009897
 21
8707.682228198043
 31
0.0
  0
LINE
  5
173D0
330
747D
100
AcDbEntity
  8
部品1
100
AcDbLine
 10
8839.494579009897
 20
9127.682228198043
 30
0.0
 11
8811.494579009897
 21
9127.682228198043
 31
0.0
  0
LINE
  5
173D1
330
747D
100
AcDbEntity
  8
部品1
100
AcDbLine
 10
8839.49457900989
 20
9547.682228198041
 30
0.0
 11
8811.49457900989
 21
9547.682228198041
 31
0.0
  0
LINE
  5
173D2
330
747D
100
AcDbEntity
  8
部品1
100
AcDbLine
 10
8866.494579009922
 20
9602.682228198071
 30
0.0
 11
8866.494579009922
 21
9574.682228198071
 31
0.0
  0
LINE
  5
173D3
330
747D
100
AcDbEntity
  8
部品1
100
AcDbLine
 10
8866.494579009886
 20
9602.682228198034
 30
0.0
 11
8866.49457900989
 21
9574.682228198035
 31
0.0
  0
LINE
  5
173D4
330
747D
100
AcDbEntity
  8
部品1
100
AcDbLine
 10
9286.494579009888
 20
9602.682228198034
 30
0.0
 11
9286.49457900989
 21
9574.682228198035
 31
0.0
  0
LINE
  5
173D5
330
747D
100
AcDbEntity
  8
部品1
100
AcDbLine
 10
9706.494579009886
 20
9602.682228198034
 30
0.0
 11
9706.494579009891
 21
9574.682228198035
 31
0.0
  0
LINE
  5
173D6
330
747D
100
AcDbEntity
  8
部品1
 48
50.0
100
AcDbLine
 10
10112.99457900992
 20
9572.682228198173
 30
0.0
 11
10112.99457900992
 21
9122.682228198174
 31
0.0
  0
LINE
  5
173D7
330
747D
100
AcDbEntity
  8
部品1
 48
50.0
100
AcDbLine
 10
10139.99457900992
 20
9572.682228198166
 30
0.0
 11
10139.99457900992
 21
9122.682228198174
 31
0.0
  0
LINE
  5
173D8
330
747D
100
AcDbEntity
  8
部品1
 48
50.0
100
AcDbLine
 10
10113.99457900992
 20
9574.682228198181
 30
0.0
 11
10113.99457900992
 21
9122.682228198174
 31
0.0
  0
LINE
  5
173D9
330
747D
100
AcDbEntity
  8
部品1
 48
50.0
100
AcDbLine
 10
10138.99457900992
 20
9574.682228198174
 30
0.0
 11
10138.99457900992
 21
9122.682228198174
 31
0.0
  0
LINE
  5
173DA
330
747D
100
AcDbEntity
  8
部品1
100
AcDbLine
 10
10113.99457900992
 20
9122.682228198174
 30
0.0
 11
10138.99457900992
 21
9122.682228198174
 31
0.0
  0
LINE
  5
173DB
330
747D
100
AcDbEntity
  8
部品1
100
AcDbLine
 10
10113.99457900992
 20
9566.682228198166
 30
0.0
 11
10138.99457900992
 21
9566.682228198173
 31
0.0
  0
LINE
  5
173DC
330
747D
100
AcDbEntity
  8
部品1
100
AcDbLine
 10
10091.49457900992
 20
9592.682228198173
 30
0.0
 11
10091.49457900992
 21
9574.682228198174
 31
0.0
  0
LINE
  5
173DD
330
747D
100
AcDbEntity
  8
部品1
100
AcDbLine
 10
10091.49457900992
 20
9592.682228198173
 30
0.0
 11
10097.49457900992
 21
9592.682228198173
 31
0.0
  0
LINE
  5
173DE
330
747D
100
AcDbEntity
  8
部品1
100
AcDbLine
 10
10161.49457900992
 20
9592.682228198173
 30
0.0
 11
10161.49457900992
 21
9574.682228198174
 31
0.0
  0
LINE
  5
173DF
330
747D
100
AcDbEntity
  8
部品1
100
AcDbLine
 10
10155.49457900992
 20
9592.682228198173
 30
0.0
 11
10161.49457900992
 21
9592.682228198173
 31
0.0
  0
LINE
  5
173E0
330
747D
100
AcDbEntity
  8
部品1
100
AcDbLine
 10
10126.49457900988
 20
9602.682228198034
 30
0.0
 11
10126.49457900989
 21
9574.682228198035
 31
0.0
  0
LINE
  5
173E1
330
747D
100
AcDbEntity
  8
部品1
100
AcDbLine
 10
10546.49457900988
 20
9602.682228198034
 30
0.0
 11
10546.49457900989
 21
9574.682228198035
 31
0.0
  0
LINE
  5
173E2
330
747D
100
AcDbEntity
  8
部品1
100
AcDbLine
 10
10966.49457900988
 20
9602.682228198034
 30
0.0
 11
10966.49457900989
 21
9574.682228198035
 31
0.0
  0
DIMENSION
  5
173E3
330
747D
100
AcDbEntity
  8
寸法
100
AcDbDimension
  2
*D13
 10
12441.49457900993
 20
7392.682228198153
 30
0.0
 11
12441.49457900992
 21
8497.682228198158
 31
0.0
 70
   160
 71
     5
 42
2210.00000000001
  3
INABA_S40G
100
AcDbAlignedDimension
 13
11441.49457900992
 23
9602.682228198164
 33
0.0
 14
11441.4945790099
 24
7392.682228198153
 34
0.0
 50
90.0
100
AcDbRotatedDimension
1001
ACAD
1000
DSTYLE
1002
{
1002
}
  0
DIMENSION
  5
173E4
330
747D
100
AcDbEntity
  8
寸法
100
AcDbDimension
  2
*D14
 10
12141.49457900991
 20
7447.68222819815
 30
0.0
 11
12141.49457900991
 21
8497.682228198158
 31
0.0
 70
   160
  1
5X420=<>
 71
     5
 42
2100.000000000017
  3
INABA_S40G
100
AcDbAlignedDimension
 13
11441.49457900992
 23
9547.682228198167
 33
0.0
 14
11441.4945790099
 24
7447.68222819815
 34
0.0
 50
90.0
100
AcDbRotatedDimension
1001
ACAD
1000
DSTYLE
1002
{
1002
}
  0
LINE
  5
173E5
330
747D
100
AcDbEntity
  8
部品1
100
AcDbLine
 10
11441.49457900992
 20
9602.682228198167
 30
0.0
 11
11441.4945790099
 21
7392.682228198151
 31
0.0
  0
LINE
  5
173E6
330
747D
100
AcDbEntity
  8
部品1
100
AcDbLine
 10
11384.99457900991
 20
9122.682228198165
 30
0.0
 11
11384.99457900992
 21
7449.182228198151
 31
0.0
  0
LINE
  5
173E7
330
747D
100
AcDbEntity
  8
部品1
100
AcDbLine
 10
11413.49457900991
 20
9127.682228198166
 30
0.0
 11
11413.4945790099
 21
7420.682228198159
 31
0.0
  0
DIMENSION
  5
173E8
330
747D
100
AcDbEntity
  8
寸法
100
AcDbDimension
  2
*D15
 10
12141.4945790099
 20
7392.682228198153
 30
0.0
 11
12141.49457900989
 21
7084.196946823903
 31
0.0
 70
   160
 71
     5
 42
54.99999999999636
  3
INABA_S40G
100
AcDbAlignedDimension
 13
11441.4945790099
 23
7447.68222819815
 33
0.0
 14
11441.4945790099
 24
7392.682228198153
 34
0.0
 50
90.0
100
AcDbRotatedDimension
1001
ACAD
1000
DSTYLE
1002
{
1002
}
  0
LINE
  5
173E9
330
747D
100
AcDbEntity
  8
部品1
100
AcDbLine
 10
11441.4945790099
 20
7392.682228198151
 30
0.0
 11
11386.49457900992
 21
7392.682228198144
 31
0.0
  0
LINE
  5
173EA
330
747D
100
AcDbEntity
  8
部品1
100
AcDbLine
 10
11413.4945790099
 20
7447.682228198151
 30
0.0
 11
11441.4945790099
 21
7447.682228198151
 31
0.0
  0
LINE
  5
173EB
330
747D
100
AcDbEntity
  8
部品1
100
AcDbLine
 10
11441.4945790099
 20
7392.682228198151
 30
0.0
 11
11390.49457900989
 21
7392.682228198151
 31
0.0
  0
LINE
  5
173EC
330
747D
100
AcDbEntity
  8
部品1
 48
50.0
100
AcDbLine
 10
11384.99457900992
 20
7449.182228198151
 30
0.0
 11
11413.49457900992
 21
7420.682228198159
 31
0.0
  0
LINE
  5
173ED
330
747D
100
AcDbEntity
  8
部品1
100
AcDbLine
 10
11441.4945790099
 20
7447.682228198151
 30
0.0
 11
11441.4945790099
 21
7392.682228198151
 31
0.0
  0
LINE
  5
173EE
330
747D
100
AcDbEntity
  8
部品1
100
AcDbLine
 10
11413.49457900992
 20
7447.682228198151
 30
0.0
 11
11441.49457900992
 21
7447.682228198151
 31
0.0
  0
LINE
  5
173EF
330
747D
100
AcDbEntity
  8
部品1
 48
50.0
100
AcDbLine
 10
11386.49457900992
 20
7392.682228198144
 30
0.0
 11
11386.49457900992
 21
7420.682228198145
 31
0.0
  0
LINE
  5
173F1
330
747D
100
AcDbEntity
  8
部品1
100
AcDbLine
 10
11413.49457900992
 20
9574.682228198167
 30
0.0
 11
11413.49457900991
 21
9122.182228198042
 31
0.0
  0
LINE
  5
173F2
330
747D
100
AcDbEntity
  8
部品1
100
AcDbLine
 10
11412.99457900992
 20
9572.682228198166
 30
0.0
 11
11412.99457900992
 21
9122.682228198165
 31
0.0
  0
DIMENSION
  5
173F3
330
747D
100
AcDbEntity
  8
寸法
100
AcDbDimension
  2
*D16
 10
11841.49457900991
 20
9007.865999241433
 30
0.0
 11
11841.49457900991
 21
9232.865999241431
 31
0.0
 70
   160
 71
     5
 42
449.9999999999963
  3
INABA_S40G
100
AcDbAlignedDimension
 13
11412.99457900992
 23
9572.682228198164
 33
0.0
 14
11412.99457900992
 24
9122.682228198168
 34
0.0
 50
90.0
100
AcDbRotatedDimension
1001
ACAD
1000
DSTYLE
1002
{
1002
}
  0
DIMENSION
  5
173F4
330
747D
100
AcDbEntity
  8
寸法
100
AcDbDimension
  2
*D17
 10
12141.49457900991
 20
9547.682228198167
 30
0.0
 11
12141.49457900991
 21
9911.167509572404
 31
0.0
 70
   160
 71
     5
 42
54.99999999999636
  3
INABA_S40G
100
AcDbAlignedDimension
 13
11441.49457900992
 23
9602.682228198164
 33
0.0
 14
11441.49457900992
 24
9547.682228198167
 34
0.0
 50
90.0
100
AcDbRotatedDimension
1001
ACAD
1000
DSTYLE
1002
{
1002
}
  0
LINE
  5
173F5
330
747D
100
AcDbEntity
  8
部品1
100
AcDbLine
 10
11413.49457900992
 20
8707.682228198166
 30
0.0
 11
11441.49457900992
 21
8707.682228198166
 31
0.0
  0
LINE
  5
173F6
330
747D
100
AcDbEntity
  8
部品1
100
AcDbLine
 10
11413.49457900992
 20
9127.682228198166
 30
0.0
 11
11441.49457900992
 21
9127.682228198166
 31
0.0
  0
LINE
  5
173F7
330
747D
100
AcDbEntity
  8
部品1
100
AcDbLine
 10
11413.49457900992
 20
9547.682228198166
 30
0.0
 11
11441.49457900992
 21
9547.682228198166
 31
0.0
  0
LINE
  5
173F8
330
747D
100
AcDbEntity
  8
部品1
100
AcDbLine
 10
11386.49457900992
 20
9602.682228198188
 30
0.0
 11
11386.49457900992
 21
9574.682228198188
 31
0.0
  0
LINE
  5
173F9
330
747D
100
AcDbEntity
  8
部品1
100
AcDbLine
 10
11386.49457900992
 20
9602.682228198167
 30
0.0
 11
11386.49457900992
 21
9574.682228198167
 31
0.0
  0
TEXT
  5
173FA
330
747D
100
AcDbEntity
  8
文字
 62
     7
 48
50.0
100
AcDbText
 10
13583.11819016569
 20
8550.013745883733
 30
0.0
 40
100.0
  1
棚板
  7
STYLE1
100
AcDbText
  0
TEXT
  5
173FB
330
747D
100
AcDbEntity
  8
文字
 62
     7
 48
50.0
100
AcDbText
 10
15022.63965474516
 20
8550.013745883729
 30
0.0
 40
100.0
  1
F12            0.6
  7
STYLE1
100
AcDbText
  0
TEXT
  5
173FC
330
747D
100
AcDbEntity
  8
文字
 62
     7
 48
50.0
100
AcDbText
 10
13583.11819016569
 20
9740.013745883729
 30
0.0
 40
100.0
  1
母屋中
  7
STYLE1
100
AcDbText
  0
TEXT
  5
173FD
330
747D
100
AcDbEntity
  8
文字
 62
     7
 48
50.0
100
AcDbText
 10
13248.77747366447
 20
8720.013745883729
 30
0.0
 40
100.0
  1
15
  7
STYLE1
100
AcDbText
  0
LINE
  5
173FE
330
747D
100
AcDbEntity
  8
仕様書枠
 48
50.0
100
AcDbLine
 10
16307.19999999999
 20
8009.600000000007
 30
0.0
 11
13127.19999999999
 21
8009.600000000007
 31
0.0
  0
TEXT
  5
173FF
330
747D
100
AcDbEntity
  8
文字
 62
     7
 48
50.0
100
AcDbText
 10
13583.11819016569
 20
8720.013745883733
 30
0.0
 40
100.0
  1
扉
  7
STYLE1
100
AcDbText
  0
TEXT
  5
17400
330
747D
100
AcDbEntity
  8
文字
 62
     7
 48
50.0
100
AcDbText
 10
15022.63965474516
 20
8720.013745883729
 30
0.0
 40
100.0
  1
F12            0.8
  7
STYLE1
100
AcDbText
  0
TEXT
  5
17401
330
747D
100
AcDbEntity
  8
文字
 62
     7
 48
50.0
100
AcDbText
 10
13583.11819016568
 20
8890.013745883733
 30
0.0
 40
100.0
  1
正面パネル
  7
STYLE1
100
AcDbText
  0
TEXT
  5
17402
330
747D
100
AcDbEntity
  8
文字
 62
     7
 48
50.0
100
AcDbText
 10
15022.63965474515
 20
8890.013745883729
 30
0.0
 40
100.0
  1
F12            0.7
  7
STYLE1
100
AcDbText
  0
TEXT
  5
17403
330
747D
100
AcDbEntity
  8
文字
 62
     7
 48
50.0
100
AcDbText
 10
15022.63965474517
 20
10590.01374588373
 30
0.0
 40
100.0
  1
F12            1.0
  7
STYLE1
100
AcDbText
  0
TEXT
  5
17404
330
747D
100
AcDbEntity
  8
文字
 62
     7
 48
50.0
100
AcDbText
 10
15022.63965474516
 20
10930.01374588373
 30
0.0
 40
100.0
  1
F12            1.2
  7
STYLE1
100
AcDbText
  0
TEXT
  5
17405
330
747D
100
AcDbEntity
  8
文字
 62
     7
 48
50.0
100
AcDbText
 10
13248.77747366448
 20
8890.013745883729
 30
0.0
 40
100.0
  1
14
  7
STYLE1
100
AcDbText
  0
TEXT
  5
17406
330
747D
100
AcDbEntity
  8
文字
 62
     7
 48
50.0
100
AcDbText
 10
13583.11819016569
 20
10930.01374588373
 30
0.0
 40
100.0
  1
根太
  7
STYLE1
100
AcDbText
  0
TEXT
  5
17407
330
747D
100
AcDbEntity
  8
文字
 62
     7
 48
50.0
100
AcDbText
 10
13583.1181901657
 20
10590.01374588373
 30
0.0
 40
100.0
  1
床パネル
 41
0.9
  7
STYLE1
100
AcDbText
  0
LINE
  5
17408
330
747D
100
AcDbEntity
  8
仕様書枠
 48
50.0
100
AcDbLine
 10
16307.19999999999
 20
9029.6
 30
0.0
 11
13127.2
 21
9029.600000000003
 31
0.0
  0
LINE
  5
17409
330
747D
100
AcDbEntity
  8
仕様書枠
 48
50.0
100
AcDbLine
 10
13127.2
 20
11409.6
 30
0.0
 11
13127.19999999999
 21
8009.600000000007
 31
0.0
  0
TEXT
  5
1740A
330
747D
100
AcDbEntity
  8
文字
 62
     7
 48
50.0
100
AcDbText
 10
13229.83081656554
 20
8040.013745883737
 30
0.0
 40
100.0
  1
Y10→溶融亜鉛-5％アルミニウム合金めっき鋼板(JIS G 3317)
 41
0.9
  7
STYLE1
100
AcDbText
  0
TEXT
  5
1740B
330
747D
100
AcDbEntity
  8
文字
 62
     7
 48
50.0
100
AcDbText
 10
13229.83081656554
 20
8210.013745883737
 30
0.0
 40
100.0
  1
F12→溶融亜鉛めっき鋼板(JIS G 3302)
  7
STYLE1
100
AcDbText
  0
LINE
  5
1740C
330
747D
100
AcDbEntity
  8
仕様書枠
 48
50.0
100
AcDbLine
 10
16307.19999999999
 20
8179.600000000007
 30
0.0
 11
13127.19999999999
 21
8179.600000000007
 31
0.0
  0
LINE
  5
1740D
330
747D
100
AcDbEntity
  8
仕様書枠
 48
50.0
100
AcDbLine
 10
16307.19999999999
 20
8349.600000000007
 30
0.0
 11
13127.19999999999
 21
8349.600000000007
 31
0.0
  0
TEXT
  5
1740E
330
747D
100
AcDbEntity
  8
文字
 62
     7
 48
50.0
100
AcDbText
 10
15022.63965474515
 20
9570.013745883729
 30
0.0
 40
100.0
  1
F12            0.6
  7
STYLE1
100
AcDbText
  0
TEXT
  5
1740F
330
747D
100
AcDbEntity
  8
文字
 62
     7
 48
50.0
100
AcDbText
 10
15022.63965474517
 20
9910.01374588373
 30
0.0
 40
100.0
  1
Y10            0.5
  7
STYLE1
100
AcDbText
  0
TEXT
  5
17410
330
747D
100
AcDbEntity
  8
文字
 62
     7
 48
50.0
100
AcDbText
 10
15022.63965474516
 20
10080.01374588373
 30
0.0
 40
100.0
  1
Y10            0.7
  7
STYLE1
100
AcDbText
  0
TEXT
  5
17411
330
747D
100
AcDbEntity
  8
文字
 62
     7
 48
50.0
100
AcDbText
 10
15022.63965474516
 20
10250.01374588373
 30
0.0
 40
100.0
  1
Y10            0.7
  7
STYLE1
100
AcDbText
  0
TEXT
  5
17412
330
747D
100
AcDbEntity
  8
文字
 62
     7
 48
50.0
100
AcDbText
 10
15022.63965474516
 20
10420.01374588373
 30
0.0
 40
100.0
  1
Y10            1.0
  7
STYLE1
100
AcDbText
  0
TEXT
  5
17413
330
747D
100
AcDbEntity
  8
文字
 62
     7
 48
50.0
100
AcDbText
 10
15022.63965474518
 20
10760.01374588373
 30
0.0
 40
100.0
  1
F12            1.0
  7
STYLE1
100
AcDbText
  0
TEXT
  5
17414
330
747D
100
AcDbEntity
  8
文字
 62
     7
 48
50.0
100
AcDbText
 10
15022.63965474517
 20
11100.01374588373
 30
0.0
 40
100.0
  1
F12            1.2
  7
STYLE1
100
AcDbText
  0
TEXT
  5
17415
330
747D
100
AcDbEntity
  8
文字
 62
     7
 48
50.0
100
AcDbText
 10
13248.77747366448
 20
9230.013745883729
 30
0.0
 40
100.0
  1
12
  7
STYLE1
100
AcDbText
  0
TEXT
  5
17416
330
747D
100
AcDbEntity
  8
文字
 62
     7
 48
50.0
100
AcDbText
 10
13248.77747366448
 20
9060.013745883729
 30
0.0
 40
100.0
  1
13
  7
STYLE1
100
AcDbText
  0
LINE
  5
17417
330
747D
100
AcDbEntity
  8
仕様書枠
 48
50.0
100
AcDbLine
 10
16307.19999999999
 20
8859.6
 30
0.0
 11
13127.2
 21
8859.600000000005
 31
0.0
  0
LINE
  5
17418
330
747D
100
AcDbEntity
  8
仕様書枠
 48
50.0
100
AcDbLine
 10
16307.19999999999
 20
9199.600000000001
 30
0.0
 11
13127.2
 21
9199.600000000001
 31
0.0
  0
TEXT
  5
17419
330
747D
100
AcDbEntity
  8
文字
 62
     7
 48
50.0
100
AcDbText
 10
13248.77747366447
 20
9400.013745883729
 30
0.0
 40
100.0
  1
11
  7
STYLE1
100
AcDbText
  0
LINE
  5
1741A
330
747D
100
AcDbEntity
  8
仕様書枠
 48
50.0
100
AcDbLine
 10
16307.2
 20
9879.600000000001
 30
0.0
 11
13127.2
 21
9879.600000000001
 31
0.0
  0
LINE
  5
1741B
330
747D
100
AcDbEntity
  8
仕様書枠
 48
50.0
100
AcDbLine
 10
16307.2
 20
10219.6
 30
0.0
 11
13127.2
 21
10219.6
 31
0.0
  0
LINE
  5
1741C
330
747D
100
AcDbEntity
  8
仕様書枠
 48
50.0
100
AcDbLine
 10
16307.19999999999
 20
9539.6
 30
0.0
 11
13127.2
 21
9539.6
 31
0.0
  0
LINE
  5
1741D
330
747D
100
AcDbEntity
  8
仕様書枠
 48
50.0
100
AcDbLine
 10
16307.19999999999
 20
9369.600000000001
 30
0.0
 11
13127.2
 21
9369.600000000001
 31
0.0
  0
LINE
  5
1741E
330
747D
100
AcDbEntity
  8
仕様書枠
 48
50.0
100
AcDbLine
 10
16307.19999999999
 20
9709.600000000001
 30
0.0
 11
13127.2
 21
9709.600000000001
 31
0.0
  0
TEXT
  5
1741F
330
747D
100
AcDbEntity
  8
文字
 62
     7
 48
50.0
100
AcDbText
 10
13271.19032244792
 20
10250.01374588373
 30
0.0
 40
100.0
  1
6
  7
STYLE1
100
AcDbText
  0
TEXT
  5
17420
330
747D
100
AcDbEntity
  8
文字
 62
     7
 48
50.0
100
AcDbText
 10
13271.19032244792
 20
10080.01374588373
 30
0.0
 40
100.0
  1
7
  7
STYLE1
100
AcDbText
  0
TEXT
  5
17421
330
747D
100
AcDbEntity
  8
文字
 62
     7
 48
50.0
100
AcDbText
 10
13271.19032244792
 20
9740.013745883729
 30
0.0
 40
100.0
  1
9
  7
STYLE1
100
AcDbText
  0
TEXT
  5
17422
330
747D
100
AcDbEntity
  8
文字
 62
     7
 48
50.0
100
AcDbText
 10
13271.19032244792
 20
9910.01374588373
 30
0.0
 40
100.0
  1
8
  7
STYLE1
100
AcDbText
  0
TEXT
  5
17423
330
747D
100
AcDbEntity
  8
文字
 62
     7
 48
50.0
100
AcDbText
 10
13583.11819016569
 20
10080.01374588373
 30
0.0
 40
100.0
  1
鼻隠シ前後
  7
STYLE1
100
AcDbText
  0
TEXT
  5
17424
330
747D
100
AcDbEntity
  8
文字
 62
     7
 48
50.0
100
AcDbText
 10
13583.11819016569
 20
9910.01374588373
 30
0.0
 40
100.0
  1
屋根パネル
  7
STYLE1
100
AcDbText
  0
TEXT
  5
17425
330
747D
100
AcDbEntity
  8
文字
 62
     7
 48
50.0
100
AcDbText
 10
13583.11819016568
 20
9570.013745883729
 30
0.0
 40
100.0
  1
壁パネル
  7
STYLE1
100
AcDbText
  0
TEXT
  5
17426
330
747D
100
AcDbEntity
  8
文字
 62
     7
 48
50.0
100
AcDbText
 10
13248.77747366447
 20
9570.013745883729
 30
0.0
 40
100.0
  1
10
  7
STYLE1
100
AcDbText
  0
TEXT
  5
17427
330
747D
100
AcDbEntity
  8
文字
 62
     7
 48
50.0
100
AcDbText
 10
13583.11819016569
 20
10250.01374588373
 30
0.0
 40
100.0
  1
妻板左右
  7
STYLE1
100
AcDbText
  0
TEXT
  5
17428
330
747D
100
AcDbEntity
  8
文字
 62
     7
 48
50.0
100
AcDbText
 10
13271.19032244792
 20
10420.01374588373
 30
0.0
 40
100.0
  1
5
  7
STYLE1
100
AcDbText
  0
TEXT
  5
17429
330
747D
100
AcDbEntity
  8
文字
 62
     7
 48
50.0
100
AcDbText
 10
13583.11819016569
 20
10420.01374588373
 30
0.0
 40
100.0
  1
桁前後
  7
STYLE1
100
AcDbText
  0
TEXT
  5
1742A
330
747D
100
AcDbEntity
  8
文字
 62
     7
 48
50.0
100
AcDbText
 10
13583.1181901657
 20
10760.01374588373
 30
0.0
 40
100.0
  1
柱
  7
STYLE1
100
AcDbText
  0
TEXT
  5
1742B
330
747D
100
AcDbEntity
  8
文字
 62
     7
 48
50.0
100
AcDbText
 10
13583.11819016569
 20
11100.01374588373
 30
0.0
 40
100.0
  1
土台枠
  7
STYLE1
100
AcDbText
  0
TEXT
  5
1742C
330
747D
100
AcDbEntity
  8
文字
 62
     7
 48
50.0
100
AcDbText
 10
14859.79774614482
 20
11270.01374588373
 30
0.0
 40
100.0
  1
材料（材質）　　単位mm
  7
STYLE1
100
AcDbText
  0
TEXT
  5
1742D
330
747D
100
AcDbEntity
  8
文字
 62
     7
 48
50.0
100
AcDbText
 10
13732.03840939434
 20
11270.01374588373
 30
0.0
 40
100.0
  1
部　　品　　名
  7
STYLE1
100
AcDbText
  0
TEXT
  5
1742E
330
747D
100
AcDbEntity
  8
文字
 62
     7
 48
50.0
100
AcDbText
 10
13271.19032244792
 20
10760.01374588373
 30
0.0
 40
100.0
  1
3
  7
STYLE1
100
AcDbText
  0
TEXT
  5
1742F
330
747D
100
AcDbEntity
  8
文字
 62
     7
 48
50.0
100
AcDbText
 10
13271.19032244792
 20
10590.01374588373
 30
0.0
 40
100.0
  1
4
  7
STYLE1
100
AcDbText
  0
TEXT
  5
17430
330
747D
100
AcDbEntity
  8
文字
 62
     7
 48
50.0
100
AcDbText
 10
13271.19032244792
 20
10930.01374588373
 30
0.0
 40
100.0
  1
2
  7
STYLE1
100
AcDbText
  0
TEXT
  5
17431
330
747D
100
AcDbEntity
  8
文字
 62
     7
 48
50.0
100
AcDbText
 10
13271.19032244792
 20
11100.01374588373
 30
0.0
 40
100.0
  1
1
  7
STYLE1
100
AcDbText
  0
TEXT
  5
17432
330
747D
100
AcDbEntity
  8
文字
 62
     7
 48
50.0
100
AcDbText
 10
13197.42518560407
 20
11270.01374588373
 30
0.0
 40
100.0
  1
品番
  7
STYLE1
100
AcDbText
  0
LINE
  5
17433
330
747D
100
AcDbEntity
  8
仕様書枠
 48
50.0
100
AcDbLine
 10
16307.19999999999
 20
10729.6
 30
0.0
 11
13127.2
 21
10729.6
 31
0.0
  0
LINE
  5
17434
330
747D
100
AcDbEntity
  8
仕様書枠
 48
50.0
100
AcDbLine
 10
16307.19999999999
 20
10389.6
 30
0.0
 11
13127.2
 21
10389.6
 31
0.0
  0
LINE
  5
17435
330
747D
100
AcDbEntity
  8
仕様書枠
 48
50.0
100
AcDbLine
 10
16307.19999999999
 20
10559.6
 30
0.0
 11
13127.2
 21
10559.6
 31
0.0
  0
LINE
  5
17436
330
747D
100
AcDbEntity
  8
仕様書枠
 48
50.0
100
AcDbLine
 10
16307.2
 20
11069.6
 30
0.0
 11
13127.2
 21
11069.6
 31
0.0
  0
LINE
  5
17437
330
747D
100
AcDbEntity
  8
仕様書枠
 48
50.0
100
AcDbLine
 10
16307.2
 20
10899.6
 30
0.0
 11
13127.2
 21
10899.6
 31
0.0
  0
LINE
  5
17438
330
747D
100
AcDbEntity
  8
仕様書枠
 48
50.0
100
AcDbLine
 10
16307.2
 20
11239.6
 30
0.0
 11
13127.2
 21
11239.6
 31
0.0
  0
LINE
  5
17439
330
747D
100
AcDbEntity
  8
仕様書枠
 48
50.0
100
AcDbLine
 10
13490.2
 20
11409.6
 30
0.0
 11
13490.20000000001
 21
8349.600000000007
 31
0.0
  0
LINE
  5
1743A
330
747D
100
AcDbEntity
  8
仕様書枠
 48
50.0
100
AcDbLine
 10
14785.2
 20
11409.6
 30
0.0
 11
14785.2
 21
8349.600000000007
 31
0.0
  0
LINE
  5
1743B
330
747D
100
AcDbEntity
  8
仕様書枠
 48
50.0
100
AcDbLine
 10
16307.19999999999
 20
8009.600000000007
 30
0.0
 11
16307.2
 21
11409.6
 31
0.0
  0
LINE
  5
1743C
330
747D
100
AcDbEntity
  8
仕様書枠
 48
50.0
100
AcDbLine
 10
16307.2
 20
11409.6
 30
0.0
 11
13127.2
 21
11409.6
 31
0.0
  0
LINE
  5
1743D
330
747D
100
AcDbEntity
  8
仕様書枠
 48
50.0
100
AcDbLine
 10
16307.2
 20
10049.6
 30
0.0
 11
13127.2
 21
10049.6
 31
0.0
  0
TEXT
  5
1743E
330
747D
100
AcDbEntity
  8
文字
 62
     7
 48
50.0
100
AcDbText
 10
15022.63965474515
 20
8380.013745883726
 30
0.0
 40
100.0
  1
F12            2.3
  7
STYLE1
100
AcDbText
  0
TEXT
  5
1743F
330
747D
100
AcDbEntity
  8
文字
 62
     7
 48
50.0
100
AcDbText
 10
13583.11819016569
 20
8380.013745883728
 30
0.0
 40
100.0
  1
アンカープレート
  7
STYLE1
100
AcDbText
  0
LINE
  5
17440
330
747D
100
AcDbEntity
  8
仕様書枠
 48
50.0
100
AcDbLine
 10
16307.19999999999
 20
8519.600000000009
 30
0.0
 11
13127.2
 21
8519.600000000009
 31
0.0
  0
LINE
  5
17441
330
747D
100
AcDbEntity
  8
仕様書枠
 48
50.0
100
AcDbLine
 10
16307.19999999999
 20
8689.600000000007
 30
0.0
 11
13127.2
 21
8689.600000000007
 31
0.0
  0
TEXT
  5
17442
330
747D
100
AcDbEntity
  8
文字
 62
     7
 48
50.0
100
AcDbText
 10
13583.11819016569
 20
9400.013745883729
 30
0.0
 40
100.0
  1
壁面扉鴨居
  7
STYLE1
100
AcDbText
  0
TEXT
  5
17443
330
747D
100
AcDbEntity
  8
文字
 62
     7
 48
50.0
100
AcDbText
 10
13583.11819016569
 20
9230.013745883736
 30
0.0
 40
100.0
  1
壁面扉敷居
  7
STYLE1
100
AcDbText
  0
TEXT
  5
17444
330
747D
100
AcDbEntity
  8
文字
 62
     7
 48
50.0
100
AcDbText
 10
15022.63965474515
 20
9400.013745883729
 30
0.0
 40
100.0
  1
F12            0.7
  7
STYLE1
100
AcDbText
  0
TEXT
  5
17445
330
747D
100
AcDbEntity
  8
文字
 62
     7
 48
50.0
100
AcDbText
 10
15022.63965474517
 20
9230.013745883729
 30
0.0
 40
100.0
  1
F12            1.0
  7
STYLE1
100
AcDbText
  0
TEXT
  5
17446
330
747D
100
AcDbEntity
  8
文字
 62
     7
 48
50.0
100
AcDbText
 10
13583.11819016569
 20
9060.013745883736
 30
0.0
 40
100.0
  1
壁面扉枠左右
  7
STYLE1
100
AcDbText
  0
TEXT
  5
17447
330
747D
100
AcDbEntity
  8
文字
 62
     7
 48
50.0
100
AcDbText
 10
15022.63965474517
 20
9060.013745883729
 30
0.0
 40
100.0
  1
F12            1.0
  7
STYLE1
100
AcDbText
  0
TEXT
  5
17448
330
747D
100
AcDbEntity
  8
文字
 62
     7
 48
50.0
100
AcDbText
 10
13248.77747366447
 20
8550.013745883729
 30
0.0
 40
100.0
  1
16
  7
STYLE1
100
AcDbText
  0
TEXT
  5
17449
330
747D
100
AcDbEntity
  8
文字
 62
     7
 48
50.0
100
AcDbText
 10
13248.77747366447
 20
8380.013745883728
 30
0.0
 40
100.0
  1
17
  7
STYLE1
100
AcDbText
  0
TEXT
  5
1744A
330
747D
100
AcDbEntity
  8
文字
 62
     7
 48
50.0
100
AcDbText
 10
14798.72402257234
 20
9740.013745883729
 30
0.0
 40
100.0
  1
F12(一般型1.2/多雪地型2.3)
  7
STYLE1
100
AcDbText
  0
TEXT
  5
1744B
330
747D
100
AcDbEntity
  8
文字
 62
     7
 48
50.0
100
AcDbText
 10
14491.96323844892
 20
483.8967129911416
 30
0.0
 40
160.0
  1
ＮＸＮ－６０ＳＡ
  7
STYLE2
100
AcDbText
  0
TEXT
  5
1744C
330
747D
100
AcDbEntity
  8
文字
 62
     7
 48
50.0
100
AcDbText
 10
13209.4053442172
 20
243.7062907158852
 30
0.0
 40
100.0
  1
○有効開口寸法 ： 1266×1725(mm)
  7
STYLE2
100
AcDbText
  0
MTEXT
  5
1744D
330
747D
100
AcDbEntity
  8
寸法
 62
     7
 48
50.0
100
AcDbMText
 10
9491.597116103028
 20
9188.917046395449
 30
0.0
 40
96.0
 41
0.0
 71
     5
 72
     1
  1
棚 2段
  7
STYLE1
 73
     1
 44
1.0
1001
ACAD
1000
MTEXTBEGIN
1070
    73
1070
     1
1070
    44
1040
1.0
1070
    74
1070
     0
1000
MTEXTEND
  0
MTEXT
  5
1744E
330
747D
100
AcDbEntity
  8
寸法
 62
     7
 48
50.0
100
AcDbMText
 10
10791.59711610306
 20
9188.917046395474
 30
0.0
 40
96.0
 41
0.0
 71
     5
 72
     1
  1
棚 2段
  7
STYLE1
 73
     1
 44
1.0
1001
ACAD
1000
MTEXTBEGIN
1070
    73
1070
     1
1070
    44
1040
1.0
1070
    74
1070
     0
1000
MTEXTEND
  0
LINE
  5
17452
330
747D
100
AcDbEntity
  8
部品1
 48
50.0
100
AcDbLine
 10
9333.494579009913
 20
3319.826805657112
 30
0.0
 11
9386.494579009914
 21
3319.826805657112
 31
0.0
  0
LINE
  5
1746C
330
747D
100
AcDbEntity
  8
部品1
 48
50.0
100
AcDbLine
 10
11413.49457900991
 20
4173.326805657112
 30
0.0
 11
9259.494579009913
 21
4173.326805657112
 31
0.0
  0
LINE
  5
1746D
330
747D
100
AcDbEntity
  8
細線
 48
50.0
100
AcDbLine
 10
11413.49457900991
 20
4163.326805657113
 30
0.0
 11
9259.494579009913
 21
4163.326805657113
 31
0.0
  0
LINE
  5
1746E
330
747D
100
AcDbEntity
  8
細線
 48
50.0
100
AcDbLine
 10
11383.49457900991
 20
4121.326805657112
 30
0.0
 11
9289.494579009915
 21
4121.326805657112
 31
0.0
  0
LINE
  5
1746F
330
747D
100
AcDbEntity
  8
細線
 48
50.0
100
AcDbLine
 10
11383.49457900991
 20
4130.826805657112
 30
0.0
 11
9289.494579009915
 21
4130.826805657112
 31
0.0
  0
LINE
  5
17470
330
747D
100
AcDbEntity
  8
部品1
 48
50.0
100
AcDbLine
 10
9259.494579009913
 20
2338.326805657112
 30
0.0
 11
11413.49457900991
 21
2338.326805657112
 31
0.0
  0
LINE
  5
17471
330
747D
100
AcDbEntity
  8
細線
 48
50.0
100
AcDbLine
 10
9289.494579009915
 20
2381.326805657113
 30
0.0
 11
11383.49457900991
 21
2381.326805657113
 31
0.0
  0
LINE
  5
17472
330
747D
100
AcDbEntity
  8
細線
 48
50.0
100
AcDbLine
 10
9289.494579009915
 20
2385.326805657113
 30
0.0
 11
11383.49457900991
 21
2385.326805657113
 31
0.0
  0
LINE
  5
17473
330
747D
100
AcDbEntity
  8
細線
 48
50.0
100
AcDbLine
 10
10093.49457900991
 20
2395.826805657113
 30
0.0
 11
11357.49457900991
 21
2395.826805657113
 31
0.0
  0
LINE
  5
17474
330
747D
100
AcDbEntity
  8
部品1
 48
50.0
100
AcDbLine
 10
9289.494579009915
 20
2388.326805657112
 30
0.0
 11
9289.494579009915
 21
4121.326805657112
 31
0.0
  0
LINE
  5
17475
330
747D
100
AcDbEntity
  8
細線
 48
50.0
100
AcDbLine
 10
9289.494579009915
 20
4130.826805657112
 30
0.0
 11
9289.494579009915
 21
2338.326805657112
 31
0.0
  0
LINE
  5
17476
330
747D
100
AcDbEntity
  8
部品1
 48
50.0
100
AcDbLine
 10
9259.494579009913
 20
4173.326805657112
 30
0.0
 11
9259.494579009913
 21
2338.326805657112
 31
0.0
  0
LINE
  5
17477
330
747D
100
AcDbEntity
  8
部品1
 48
50.0
100
AcDbLine
 10
10093.49457900991
 20
4121.32680568188
 30
0.0
 11
10093.49457900991
 21
2388.32680568188
 31
0.0
  0
LINE
  5
17478
330
747D
100
AcDbEntity
  8
部品1
 48
50.0
100
AcDbLine
 10
9289.494579009915
 20
2388.326805657112
 30
0.0
 11
10093.49457900991
 21
2388.326805657109
 31
0.0
  0
LINE
  5
17479
330
747D
100
AcDbEntity
  8
部品1
 48
50.0
100
AcDbLine
 10
9298.494579009913
 20
2388.326805657112
 30
0.0
 11
9298.494579009913
 21
2385.326805657113
 31
0.0
  0
LINE
  5
1747A
330
747D
100
AcDbEntity
  8
部品1
 48
50.0
100
AcDbLine
 10
9289.494579009915
 20
4129.326805657112
 30
0.0
 11
9259.494579009913
 21
4129.326805657112
 31
0.0
  0
LINE
  5
1747B
330
747D
100
AcDbEntity
  8
部品1
 48
50.0
100
AcDbLine
 10
11374.49457900991
 20
2385.326805657113
 30
0.0
 11
11374.49457900991
 21
4121.326805657112
 31
0.0
  0
LINE
  5
1747C
330
747D
100
AcDbEntity
  8
細線
 48
50.0
100
AcDbLine
 10
11383.49457900991
 20
2338.326805657112
 30
0.0
 11
11383.49457900991
 21
4130.826805657112
 31
0.0
  0
LINE
  5
1747D
330
747D
100
AcDbEntity
  8
部品1
 48
50.0
100
AcDbLine
 10
11413.49457900991
 20
2338.326805657112
 30
0.0
 11
11413.49457900991
 21
4173.326805657112
 31
0.0
  0
LINE
  5
1747E
330
747D
100
AcDbEntity
  8
部品1
 48
50.0
100
AcDbLine
 10
10747.49456931477
 20
4121.326805694259
 30
0.0
 11
10747.49456931477
 21
2395.82680569426
 31
0.0
  0
LINE
  5
1747F
330
747D
100
AcDbEntity
  8
細線
 48
50.0
100
AcDbLine
 10
11361.49457900991
 20
2385.326805657113
 30
0.0
 11
11357.49457900991
 21
2395.826805657113
 31
0.0
  0
LINE
  5
17480
330
747D
100
AcDbEntity
  8
部品1
 48
50.0
100
AcDbLine
 10
11413.49457900991
 20
4129.326805657112
 30
0.0
 11
11383.49457900991
 21
4129.326805657112
 31
0.0
  0
LINE
  5
17481
330
747D
100
AcDbEntity
  8
細線
100
AcDbLine
 10
10870.24457900991
 20
4121.326805657112
 30
0.0
 11
10870.24457900991
 21
2395.826805657131
 31
0.0
  0
LINE
  5
17482
330
747D
100
AcDbEntity
  8
細線
100
AcDbLine
 10
10154.99458876016
 20
4121.326805657112
 30
0.0
 11
10154.99458876016
 21
2395.826805657123
 31
0.0
  0
LINE
  5
17483
330
747D
100
AcDbEntity
  8
細線
100
AcDbLine
 10
10224.99458876015
 20
4121.326805657112
 30
0.0
 11
10224.99458876015
 21
2395.826805657123
 31
0.0
  0
LINE
  5
17484
330
747D
100
AcDbEntity
  8
細線
100
AcDbLine
 10
9503.494579009915
 20
4121.326805657112
 30
0.0
 11
9503.49457900991
 21
2388.326805657116
 31
0.0
  0
LINE
  5
17485
330
747D
100
AcDbEntity
  8
細線
100
AcDbLine
 10
9573.494579009913
 20
4121.326805657112
 30
0.0
 11
9573.49457900991
 21
2388.326805657116
 31
0.0
  0
LINE
  5
17486
330
747D
100
AcDbEntity
  8
細線
100
AcDbLine
 10
10940.24457900991
 20
4121.326805657112
 30
0.0
 11
10940.24457900991
 21
2395.826805657131
 31
0.0
  0
LINE
  5
17487
330
747D
100
AcDbEntity
  8
細線
100
AcDbLine
 10
11010.24457900991
 20
4121.326805657112
 30
0.0
 11
11010.24457900991
 21
2395.826805657131
 31
0.0
  0
LINE
  5
17488
330
747D
100
AcDbEntity
  8
細線
100
AcDbLine
 10
11080.24457900991
 20
4121.326805657112
 30
0.0
 11
11080.24457900991
 21
2395.826805657131
 31
0.0
  0
LINE
  5
17489
330
747D
100
AcDbEntity
  8
細線
100
AcDbLine
 10
11150.24457900991
 20
4121.326805657112
 30
0.0
 11
11150.24457900991
 21
2395.826805657131
 31
0.0
  0
LINE
  5
1748A
330
747D
100
AcDbEntity
  8
細線
100
AcDbLine
 10
11220.24457900991
 20
4121.326805657112
 30
0.0
 11
11220.24457900991
 21
2395.826805657131
 31
0.0
  0
LINE
  5
1748B
330
747D
100
AcDbEntity
  8
細線
100
AcDbLine
 10
10294.99458876016
 20
4121.326805657112
 30
0.0
 11
10294.99458876016
 21
2395.826805657123
 31
0.0
  0
LINE
  5
1748C
330
747D
100
AcDbEntity
  8
細線
100
AcDbLine
 10
10364.99458876015
 20
4121.326805657112
 30
0.0
 11
10364.99458876015
 21
2395.826805657123
 31
0.0
  0
LINE
  5
1748D
330
747D
100
AcDbEntity
  8
細線
100
AcDbLine
 10
10434.99458876016
 20
4121.326805657112
 30
0.0
 11
10434.99458876016
 21
2395.826805657123
 31
0.0
  0
LINE
  5
1748E
330
747D
100
AcDbEntity
  8
細線
100
AcDbLine
 10
10504.99458876015
 20
4121.326805657112
 30
0.0
 11
10504.99458876015
 21
2395.826805657123
 31
0.0
  0
LINE
  5
1748F
330
747D
100
AcDbEntity
  8
細線
100
AcDbLine
 10
10574.99458876016
 20
4121.326805657112
 30
0.0
 11
10574.99458876016
 21
2395.826805657123
 31
0.0
  0
LINE
  5
17490
330
747D
100
AcDbEntity
  8
細線
100
AcDbLine
 10
10644.99458876015
 20
4121.326805657112
 30
0.0
 11
10644.99458876015
 21
2395.826805657123
 31
0.0
  0
LINE
  5
17491
330
747D
100
AcDbEntity
  8
細線
100
AcDbLine
 10
9417.494579009909
 20
4121.326805657112
 30
0.0
 11
9417.494579009915
 21
2388.326805657116
 31
0.0
  0
LINE
  5
17492
330
747D
100
AcDbEntity
  8
細線
100
AcDbLine
 10
9451.49457900991
 20
4121.326805657112
 30
0.0
 11
9451.494579009914
 21
2388.326805657116
 31
0.0
  0
LINE
  5
17493
330
747D
100
AcDbEntity
  8
部品1
100
AcDbLine
 10
9409.49457900991
 20
4121.326805657112
 30
0.0
 11
9409.494579009914
 21
2388.326805657116
 31
0.0
  0
LINE
  5
17494
330
747D
100
AcDbEntity
  8
部品1
100
AcDbLine
 10
9459.494579009911
 20
4121.326805657112
 30
0.0
 11
9459.494579009913
 21
2388.326805657116
 31
0.0
  0
LINE
  5
17495
330
747D
100
AcDbEntity
  8
細線
100
AcDbLine
 10
9643.494579009914
 20
4121.326805657112
 30
0.0
 11
9643.49457900991
 21
2388.326805657116
 31
0.0
  0
LINE
  5
17496
330
747D
100
AcDbEntity
  8
細線
100
AcDbLine
 10
9713.494579009914
 20
4121.326805657112
 30
0.0
 11
9713.49457900991
 21
2388.326805657116
 31
0.0
  0
LINE
  5
17497
330
747D
100
AcDbEntity
  8
細線
100
AcDbLine
 10
9783.494579009914
 20
4121.326805657112
 30
0.0
 11
9783.494579009911
 21
2388.326805657116
 31
0.0
  0
LINE
  5
17498
330
747D
100
AcDbEntity
  8
細線
100
AcDbLine
 10
9853.494579009915
 20
4121.326805657112
 30
0.0
 11
9853.494579009911
 21
2388.326805657116
 31
0.0
  0
LINE
  5
17499
330
747D
100
AcDbEntity
  8
細線
100
AcDbLine
 10
9923.494579009913
 20
4121.326805657112
 30
0.0
 11
9923.494579009911
 21
2388.32680565712
 31
0.0
  0
LINE
  5
1749A
330
747D
100
AcDbEntity
  8
細線
100
AcDbLine
 10
9993.494579009913
 20
4121.326805657112
 30
0.0
 11
9993.494579009912
 21
2388.32680565712
 31
0.0
  0
LINE
  5
1749B
330
747D
100
AcDbEntity
  8
部品1
100
AcDbLine
 10
10747.49456931477
 20
4121.326805694263
 30
0.0
 11
10747.49456931477
 21
2395.826805694278
 31
0.0
  0
LINE
  5
1749C
330
747D
100
AcDbEntity
  8
部品1
 48
50.0
100
AcDbLine
 10
10093.49457900991
 20
4121.32680568188
 30
0.0
 11
10093.49457900991
 21
2388.326805657109
 31
0.0
  0
DIMENSION
  5
1754D
330
747D
100
AcDbEntity
  8
寸法
 48
50.0
100
AcDbDimension
  2
*D2
 10
8811.494579009911
 20
4812.419974996583
 30
0.0
 11
10126.49457900991
 21
4812.419974996583
 31
0.0
 70
   160
  1
柱外寸法<>
 71
     5
 42
2629.999999999999
  3
INABA_S40G
100
AcDbAlignedDimension
 13
11441.49457900991
 23
4413.326805657116
 33
0.0
 14
8811.494579009911
 24
4413.32680565712
 34
0.0
100
AcDbRotatedDimension
  0
DIMENSION
  5
1754E
330
747D
100
AcDbEntity
  8
寸法
 48
50.0
100
AcDbDimension
  2
*D3
 10
8761.494579009911
 20
4812.419974996586
 30
0.0
 11
8448.009297635664
 21
4812.419974996586
 31
0.0
 70
   160
 71
     5
 42
50.0
  3
INABA_S40G
100
AcDbAlignedDimension
 13
8811.494579009911
 23
4413.32680565712
 33
0.0
 14
8761.494579009911
 24
4413.326805657116
 34
0.0
100
AcDbRotatedDimension
1001
ACAD
1000
DSTYLE
1002
{
1002
}
  0
DIMENSION
  5
1754F
330
747D
100
AcDbEntity
  8
寸法
 48
50.0
100
AcDbDimension
  2
*D4
 10
11491.49457900991
 20
5028.946074615031
 30
0.0
 11
10126.49457900991
 21
5028.946074615031
 31
0.0
 70
   160
 71
     5
 42
2729.999999999999
  3
INABA_S40G
100
AcDbAlignedDimension
 13
8761.494579009911
 23
4413.326805657116
 33
0.0
 14
11491.49457900991
 24
4413.326805657116
 34
0.0
100
AcDbRotatedDimension
  0
LINE
  5
17550
330
747D
100
AcDbEntity
  8
部品1
100
AcDbLine
 10
9974.494579009927
 20
4408.326805665581
 30
0.0
 11
9974.494579009927
 21
4310.915738157009
 31
0.0
  0
LINE
  5
17551
330
747D
100
AcDbEntity
  8
部品1
100
AcDbLine
 10
9949.494579009927
 20
4408.326805665581
 30
0.0
 11
9949.494579009929
 21
4310.915738157009
 31
0.0
  0
LINE
  5
17552
330
747D
100
AcDbEntity
  8
部品1
 48
50.0
100
AcDbLine
 10
9947.99457900992
 20
4408.326805665585
 30
0.0
 11
9975.994579009915
 21
4408.326805665585
 31
0.0
  0
LINE
  5
17553
330
747D
100
AcDbEntity
  8
部品1
 48
50.0
100
AcDbLine
 10
9975.99457900992
 20
4408.326805665585
 30
0.0
 11
9986.494579009921
 21
4388.926805665583
 31
0.0
  0
LINE
  5
17554
330
747D
100
AcDbEntity
  8
部品1
 48
50.0
100
AcDbLine
 10
9947.99457900992
 20
4408.326805665585
 30
0.0
 11
9937.49457900992
 21
4388.926805665583
 31
0.0
  0
LINE
  5
17555
330
747D
100
AcDbEntity
  8
部品1
 48
50.0
100
AcDbLine
 10
9874.99457900992
 20
4408.326805665585
 30
0.0
 11
9902.994579009916
 21
4408.326805665585
 31
0.0
  0
LINE
  5
17556
330
747D
100
AcDbEntity
  8
部品1
100
AcDbLine
 10
9876.494579009927
 20
4408.326805665581
 30
0.0
 11
9876.494579009927
 21
4310.915738157009
 31
0.0
  0
LINE
  5
17557
330
747D
100
AcDbEntity
  8
部品1
 48
50.0
100
AcDbLine
 10
9874.99457900992
 20
4408.326805665585
 30
0.0
 11
9864.494579009921
 21
4388.926805665583
 31
0.0
  0
LINE
  5
17558
330
747D
100
AcDbEntity
  8
部品1
100
AcDbLine
 10
9901.494579009927
 20
4408.326805665581
 30
0.0
 11
9901.494579009927
 21
4310.915738157009
 31
0.0
  0
LINE
  5
17559
330
747D
100
AcDbEntity
  8
部品1
 48
50.0
100
AcDbLine
 10
9902.99457900992
 20
4408.326805665585
 30
0.0
 11
9913.49457900992
 21
4388.926805665583
 31
0.0
  0
LINE
  5
1755A
330
747D
100
AcDbEntity
  8
部品1
100
AcDbLine
 10
9715.494579009927
 20
4408.326805665574
 30
0.0
 11
9715.494579009929
 21
4310.915738157009
 31
0.0
  0
LINE
  5
1755B
330
747D
100
AcDbEntity
  8
部品1
 48
50.0
100
AcDbLine
 10
9718.49457900992
 20
4408.326805665585
 30
0.0
 11
9720.99457900992
 21
4388.926805665583
 31
0.0
  0
LINE
  5
1755C
330
747D
100
AcDbEntity
  8
部品1
100
AcDbLine
 10
9697.494579009926
 20
4408.326805665574
 30
0.0
 11
9697.494579009928
 21
4310.915738157009
 31
0.0
  0
LINE
  5
1755D
330
747D
100
AcDbEntity
  8
部品1
 48
50.0
100
AcDbLine
 10
9679.283238803732
 20
4398.926805665584
 30
0.0
 11
9677.994579009919
 21
4388.926805665583
 31
0.0
  0
LINE
  5
1755E
330
747D
100
AcDbEntity
  8
部品1
 48
50.0
100
AcDbLine
 10
9679.283238803732
 20
4398.926805665584
 30
0.0
 11
9693.283238803731
 21
4398.926805665584
 31
0.0
  0
LINE
  5
1755F
330
747D
100
AcDbEntity
  8
部品1
 48
50.0
100
AcDbLine
 10
9694.494579009919
 20
4408.326805665585
 30
0.0
 11
9693.283238803731
 21
4398.926805665584
 31
0.0
  0
LINE
  5
17560
330
747D
100
AcDbEntity
  8
部品1
 48
50.0
100
AcDbLine
 10
9718.49457900992
 20
4408.326805665585
 30
0.0
 11
9694.494579009919
 21
4408.326805665585
 31
0.0
  0
LINE
  5
17561
330
747D
100
AcDbEntity
  8
部品1
100
AcDbLine
 10
9864.494579009916
 20
4388.92680566558
 30
0.0
 11
9720.994579009916
 21
4388.92680566558
 31
0.0
  0
LINE
  5
17562
330
747D
100
AcDbEntity
  8
部品1
100
AcDbLine
 10
9554.494579009926
 20
4408.326805665581
 30
0.0
 11
9554.494579009928
 21
4310.915738157009
 31
0.0
  0
LINE
  5
17563
330
747D
100
AcDbEntity
  8
部品1
 48
50.0
100
AcDbLine
 10
9555.994579009919
 20
4408.326805665585
 30
0.0
 11
9566.494579009919
 21
4388.926805665583
 31
0.0
  0
LINE
  5
17564
330
747D
100
AcDbEntity
  8
部品1
100
AcDbLine
 10
9456.494579009925
 20
4408.326805665581
 30
0.0
 11
9456.494579009925
 21
4310.915738157009
 31
0.0
  0
LINE
  5
17565
330
747D
100
AcDbEntity
  8
部品1
100
AcDbLine
 10
9481.494579009925
 20
4408.326805665581
 30
0.0
 11
9481.494579009925
 21
4310.915738157009
 31
0.0
  0
LINE
  5
17566
330
747D
100
AcDbEntity
  8
部品1
100
AcDbLine
 10
9529.494579009925
 20
4408.326805665581
 30
0.0
 11
9529.494579009925
 21
4310.915738157009
 31
0.0
  0
LINE
  5
17567
330
747D
100
AcDbEntity
  8
部品1
 48
50.0
100
AcDbLine
 10
9454.994579009918
 20
4408.326805665585
 30
0.0
 11
9444.494579009919
 21
4388.926805665583
 31
0.0
  0
LINE
  5
17568
330
747D
100
AcDbEntity
  8
部品1
100
AcDbLine
 10
9517.494579009916
 20
4388.92680566558
 30
0.0
 11
9493.494579009919
 21
4388.92680566558
 31
0.0
  0
LINE
  5
17569
330
747D
100
AcDbEntity
  8
部品1
 48
50.0
100
AcDbLine
 10
9482.994579009918
 20
4408.326805665585
 30
0.0
 11
9493.494579009919
 21
4388.926805665583
 31
0.0
  0
LINE
  5
1756A
330
747D
100
AcDbEntity
  8
部品1
 48
50.0
100
AcDbLine
 10
9527.994579009918
 20
4408.326805665585
 30
0.0
 11
9517.494579009918
 21
4388.926805665583
 31
0.0
  0
LINE
  5
1756B
330
747D
100
AcDbEntity
  8
部品1
 48
50.0
100
AcDbLine
 10
9454.994579009918
 20
4408.326805665585
 30
0.0
 11
9482.994579009917
 21
4408.326805665585
 31
0.0
  0
LINE
  5
1756C
330
747D
100
AcDbEntity
  8
部品1
 48
50.0
100
AcDbLine
 10
9527.994579009918
 20
4408.326805665585
 30
0.0
 11
9555.994579009915
 21
4408.326805665585
 31
0.0
  0
LINE
  5
1756D
330
747D
100
AcDbEntity
  8
部品1
100
AcDbLine
 10
9295.494579009925
 20
4408.326805665574
 30
0.0
 11
9295.494579009929
 21
4310.915738157009
 31
0.0
  0
LINE
  5
1756E
330
747D
100
AcDbEntity
  8
部品1
100
AcDbLine
 10
9277.494579009927
 20
4408.326805665574
 30
0.0
 11
9277.494579009928
 21
4310.915738157009
 31
0.0
  0
LINE
  5
1756F
330
747D
100
AcDbEntity
  8
部品1
 48
50.0
100
AcDbLine
 10
9298.494579009918
 20
4408.326805665585
 30
0.0
 11
9274.494579009919
 21
4408.326805665585
 31
0.0
  0
LINE
  5
17570
330
747D
100
AcDbEntity
  8
部品1
 48
50.0
100
AcDbLine
 10
9274.494579009919
 20
4408.326805665585
 30
0.0
 11
9273.283238803731
 21
4398.926805665584
 31
0.0
  0
LINE
  5
17571
330
747D
100
AcDbEntity
  8
部品1
 48
50.0
100
AcDbLine
 10
9298.494579009918
 20
4408.326805665585
 30
0.0
 11
9300.99457900992
 21
4388.926805665583
 31
0.0
  0
LINE
  5
17572
330
747D
100
AcDbEntity
  8
部品1
100
AcDbLine
 10
9444.494579009916
 20
4388.92680566558
 30
0.0
 11
9300.994579009914
 21
4388.92680566558
 31
0.0
  0
LINE
  5
17573
330
747D
100
AcDbEntity
  8
部品1
100
AcDbLine
 10
9677.994579009919
 20
4388.92680566558
 30
0.0
 11
9566.494579009919
 21
4388.92680566558
 31
0.0
  0
LINE
  5
17574
330
747D
100
AcDbEntity
  8
部品1
100
AcDbLine
 10
9937.494579009916
 20
4388.92680566558
 30
0.0
 11
9913.49457900992
 21
4388.92680566558
 31
0.0
  0
LINE
  5
17575
330
747D
100
AcDbEntity
  8
部品1
100
AcDbLine
 10
9257.994579009919
 20
4388.92680566558
 30
0.0
 11
9146.494579009919
 21
4388.92680566558
 31
0.0
  0
LINE
  5
17576
330
747D
100
AcDbEntity
  8
部品1
100
AcDbLine
 10
9109.494579009925
 20
4408.326805665581
 30
0.0
 11
9109.494579009925
 21
4310.915738157009
 31
0.0
  0
LINE
  5
17577
330
747D
100
AcDbEntity
  8
部品1
100
AcDbLine
 10
9134.494579009926
 20
4408.326805665581
 30
0.0
 11
9134.494579009926
 21
4310.915738157009
 31
0.0
  0
LINE
  5
17578
330
747D
100
AcDbEntity
  8
部品1
 48
50.0
100
AcDbLine
 10
9135.994579009919
 20
4408.326805665585
 30
0.0
 11
9146.494579009919
 21
4388.926805665583
 31
0.0
  0
LINE
  5
17579
330
747D
100
AcDbEntity
  8
部品1
 48
50.0
100
AcDbLine
 10
9107.994579009918
 20
4408.326805665585
 30
0.0
 11
9135.994579009915
 21
4408.326805665585
 31
0.0
  0
LINE
  5
1757A
330
747D
100
AcDbEntity
  8
部品1
 48
50.0
100
AcDbLine
 10
9259.28323880373
 20
4398.926805665584
 30
0.0
 11
9257.994579009919
 21
4388.926805665583
 31
0.0
  0
LINE
  5
1757B
330
747D
100
AcDbEntity
  8
部品1
100
AcDbLine
 10
9097.494579009916
 20
4388.92680566558
 30
0.0
 11
9073.494579009919
 21
4388.926805665583
 31
0.0
  0
LINE
  5
1757C
330
747D
100
AcDbEntity
  8
部品1
100
AcDbLine
 10
9061.494579009927
 20
4408.326805665581
 30
0.0
 11
9061.494579009929
 21
4310.915738157009
 31
0.0
  0
LINE
  5
1757D
330
747D
100
AcDbEntity
  8
部品1
 48
50.0
100
AcDbLine
 10
9062.99457900992
 20
4408.326805665585
 30
0.0
 11
9073.494579009919
 21
4388.926805665583
 31
0.0
  0
LINE
  5
1757E
330
747D
100
AcDbEntity
  8
部品1
100
AcDbLine
 10
9036.494579009927
 20
4408.326805665581
 30
0.0
 11
9036.494579009923
 21
4310.915738157009
 31
0.0
  0
LINE
  5
1757F
330
747D
100
AcDbEntity
  8
部品1
 48
50.0
100
AcDbLine
 10
9034.99457900992
 20
4408.326805665585
 30
0.0
 11
9024.494579009919
 21
4388.926805665583
 31
0.0
  0
LINE
  5
17580
330
747D
100
AcDbEntity
  8
部品1
 48
50.0
100
AcDbLine
 10
9034.99457900992
 20
4408.326805665585
 30
0.0
 11
9062.994579009915
 21
4408.326805665585
 31
0.0
  0
LINE
  5
17581
330
747D
100
AcDbEntity
  8
部品1
 48
50.0
100
AcDbLine
 10
9107.994579009918
 20
4408.326805665585
 30
0.0
 11
9097.49457900992
 21
4388.926805665583
 31
0.0
  0
LINE
  5
17582
330
747D
100
AcDbEntity
  8
部品1
100
AcDbLine
 10
8875.494579009927
 20
4408.326805665574
 30
0.0
 11
8875.494579009927
 21
4310.915738157009
 31
0.0
  0
LINE
  5
17583
330
747D
100
AcDbEntity
  8
部品1
100
AcDbLine
 10
8857.494579009927
 20
4408.326805665585
 30
0.0
 11
8857.494579009928
 21
4310.915738157009
 31
0.0
  0
LINE
  5
17584
330
747D
100
AcDbEntity
  8
部品1
 48
50.0
100
AcDbLine
 10
8878.494579009919
 20
4408.326805665585
 30
0.0
 11
8880.99457900992
 21
4388.926805665583
 31
0.0
  0
LINE
  5
17585
330
747D
100
AcDbEntity
  8
部品1
100
AcDbLine
 10
8837.994579009921
 20
4388.926805665583
 30
0.0
 11
8811.49457900992
 21
4388.926805665583
 31
0.0
  0
LINE
  5
17586
330
747D
100
AcDbEntity
  8
部品1
 48
50.0
100
AcDbLine
 10
8839.283238803732
 20
4398.926805665584
 30
0.0
 11
8853.283238803731
 21
4398.926805665584
 31
0.0
  0
LINE
  5
17587
330
747D
100
AcDbEntity
  8
部品1
 48
50.0
100
AcDbLine
 10
8839.283238803732
 20
4398.926805665584
 30
0.0
 11
8837.994579009921
 21
4388.926805665583
 31
0.0
  0
LINE
  5
17588
330
747D
100
AcDbEntity
  8
部品1
 48
50.0
100
AcDbLine
 10
8854.494579009919
 20
4408.326805665585
 30
0.0
 11
8853.283238803731
 21
4398.926805665584
 31
0.0
  0
LINE
  5
17589
330
747D
100
AcDbEntity
  8
部品1
 48
50.0
100
AcDbLine
 10
8878.494579009919
 20
4408.326805665585
 30
0.0
 11
8854.494579009919
 21
4408.326805665585
 31
0.0
  0
LINE
  5
1758A
330
747D
100
AcDbEntity
  8
部品1
100
AcDbLine
 10
9024.494579009919
 20
4388.92680566558
 30
0.0
 11
8880.99457900992
 21
4388.926805665583
 31
0.0
  0
LINE
  5
1758B
330
747D
100
AcDbEntity
  8
部品1
 48
50.0
100
AcDbLine
 10
9259.28323880373
 20
4398.926805665584
 30
0.0
 11
9273.283238803731
 21
4398.926805665584
 31
0.0
  0
LINE
  5
1758C
330
747D
100
AcDbEntity
  8
部品1
100
AcDbLine
 10
11446.56491630454
 20
4413.326805665559
 30
0.0
 11
8785.926739390827
 21
4413.326805665585
 31
0.0
  0
LINE
  5
1758D
330
747D
100
AcDbEntity
  8
部品1
100
AcDbLine
 10
10097.99457900991
 20
4388.926805665565
 30
0.0
 11
9986.494579009928
 21
4388.926805665565
 31
0.0
  0
LINE
  5
1758E
330
747D
100
AcDbEntity
  8
部品1
 48
50.0
100
AcDbLine
 10
8806.423951016714
 20
4358.326805657112
 30
0.0
 11
8768.48062282713
 21
4358.326805657112
 31
0.0
  0
ARC
  5
1758F
330
747D
100
AcDbEntity
  8
部品1
100
AcDbCircle
 10
8763.453721450208
 20
4330.996922977703
 30
0.0
 40
0.7
100
AcDbArc
 50
183.6186294801377
 51
262.7131594833544
  0
ARC
  5
17590
330
747D
100
AcDbEntity
  8
部品1
100
AcDbCircle
 10
8762.984425325013
 20
4327.326805657112
 30
0.0
 40
3.0
100
AcDbArc
 50
3.618629480137788
 51
90.0
  0
LINE
  5
17591
330
747D
100
AcDbEntity
  8
部品1
100
AcDbLine
 10
8765.978444103817
 20
4327.516150718225
 30
0.0
 11
8770.725537115977
 21
4252.452742463441
 31
0.0
  0
ARC
  5
17592
330
747D
100
AcDbEntity
  8
部品1
100
AcDbCircle
 10
8771.424141497698
 20
4252.496922977703
 30
0.0
 40
0.7
100
AcDbArc
 50
183.6186294801377
 51
262.7131594833544
  0
ARC
  5
17593
330
747D
100
AcDbEntity
  8
部品1
100
AcDbCircle
 10
8770.954845372504
 20
4248.826805657112
 30
0.0
 40
3.0
100
AcDbArc
 50
3.618629480137788
 51
90.0
  0
ARC
  5
17594
330
747D
100
AcDbEntity
  8
部品1
100
AcDbCircle
 10
8781.607233673101
 20
4238.826805657112
 30
0.0
 40
7.0
100
AcDbArc
 50
183.6186294801377
 51
270.0
  0
ARC
  5
17595
330
747D
100
AcDbEntity
  8
部品1
100
AcDbCircle
 10
8768.48062282713
 20
4351.326805657111
 30
0.0
 40
7.0
100
AcDbArc
 50
90.0
 51
183.6186294801377
  0
LINE
  5
17596
330
747D
100
AcDbEntity
  8
部品1
100
AcDbLine
 10
8774.62118985589
 20
4238.385000514523
 30
0.0
 11
8773.948864151309
 21
4249.016150718225
 31
0.0
  0
LINE
  5
17597
330
747D
100
AcDbEntity
  8
部品1
100
AcDbLine
 10
8762.755117068484
 20
4330.952742463441
 30
0.0
 11
8761.494579009919
 21
4350.885000514523
 31
0.0
  0
LINE
  5
17598
330
747D
100
AcDbEntity
  8
部品1
100
AcDbLine
 10
8806.423951016714
 20
4358.326805657112
 30
0.0
 11
8768.48062282713
 21
4358.326805657112
 31
0.0
  0
ARC
  5
17599
330
747D
100
AcDbEntity
  8
部品1
100
AcDbCircle
 10
8806.423951016714
 20
4353.326805657112
 30
0.0
 40
5.0
100
AcDbArc
 50
0.0
 51
90.0
  0
LINE
  5
1759A
330
747D
100
AcDbEntity
  8
部品1
100
AcDbLine
 10
8811.423951016713
 20
4408.32680567401
 30
0.0
 11
8811.423951016712
 21
4310.922776984442
 31
0.0
  0
LINE
  5
1759B
330
747D
100
AcDbEntity
  8
部品1
100
AcDbLine
 10
11471.38192434672
 20
4231.826805657112
 30
0.0
 11
8781.607233673101
 21
4231.826805657112
 31
0.0
  0
LINE
  5
1759C
330
747D
100
AcDbEntity
  8
部品1
 48
50.0
100
AcDbLine
 10
8761.494579009919
 20
4350.885000514523
 30
0.0
 11
8761.494579009919
 21
4405.885000531422
 31
0.0
  0
ARC
  5
1759D
330
747D
100
AcDbEntity
  8
部品1
100
AcDbCircle
 10
8806.423951016714
 20
4408.32680567401
 30
0.0
 40
5.0
100
AcDbArc
 50
0.0
 51
90.0
  0
LINE
  5
1759E
330
747D
100
AcDbEntity
  8
部品1
100
AcDbLine
 10
8806.423951016714
 20
4413.32680567401
 30
0.0
 11
8768.48062282713
 21
4413.32680567401
 31
0.0
  0
ARC
  5
1759F
330
747D
100
AcDbEntity
  8
部品1
100
AcDbCircle
 10
8768.48062282713
 20
4406.326805674011
 30
0.0
 40
7.0
100
AcDbArc
 50
90.0
 51
183.6186294801377
  0
LINE
  5
175A0
330
747D
100
AcDbEntity
  8
細線
 48
50.0
100
AcDbLine
 10
11482.27293668297
 20
4252.600048220896
 30
0.0
 11
8771.378170642439
 21
4252.600048220896
 31
0.0
  0
LINE
  5
175A1
330
747D
100
AcDbEntity
  8
細線
 48
50.0
100
AcDbLine
 10
8793.983489105636
 20
4358.326805657112
 30
0.0
 11
8793.983489105636
 21
4231.826805657112
 31
0.0
  0
LINE
  5
175A2
330
747D
100
AcDbEntity
  8
細線
 48
50.0
100
AcDbLine
 10
8811.423951016712
 20
4330.298638405062
 30
0.0
 11
8763.360709732765
 21
4330.298638405069
 31
0.0
  0
LINE
  5
175A3
330
747D
100
AcDbEntity
  8
部品1
100
AcDbLine
 10
10117.49457900991
 20
4408.326805665574
 30
0.0
 11
10117.49457900991
 21
4310.915738157009
 31
0.0
  0
LINE
  5
175A4
330
747D
100
AcDbEntity
  8
部品1
100
AcDbLine
 10
10135.49457900991
 20
4408.326805665585
 30
0.0
 11
10135.49457900991
 21
4310.915738157009
 31
0.0
  0
LINE
  5
175A5
330
747D
100
AcDbEntity
  8
部品1
 48
50.0
100
AcDbLine
 10
10114.49457900992
 20
4408.326805665585
 30
0.0
 11
10138.49457900992
 21
4408.326805665585
 31
0.0
  0
LINE
  5
175A6
330
747D
100
AcDbEntity
  8
部品1
 48
50.0
100
AcDbLine
 10
10114.49457900992
 20
4408.326805665585
 30
0.0
 11
10113.28323880373
 21
4398.926805665584
 31
0.0
  0
LINE
  5
175A7
330
747D
100
AcDbEntity
  8
部品1
 48
50.0
100
AcDbLine
 10
10099.28323880373
 20
4398.926805665584
 30
0.0
 11
10113.28323880373
 21
4398.926805665584
 31
0.0
  0
LINE
  5
175A8
330
747D
100
AcDbEntity
  8
部品1
 48
50.0
100
AcDbLine
 10
10099.28323880373
 20
4398.926805665584
 30
0.0
 11
10097.99457900992
 21
4388.926805665583
 31
0.0
  0
LINE
  5
175A9
330
747D
100
AcDbEntity
  8
部品1
 48
50.0
100
AcDbLine
 10
10138.49457900992
 20
4408.326805665585
 30
0.0
 11
10140.99457900992
 21
4388.926805665583
 31
0.0
  0
LINE
  5
175AA
330
747D
100
AcDbEntity
  8
部品1
 48
50.0
100
AcDbLine
 10
8793.983489105638
 20
4310.915738157009
 30
0.0
 11
11459.00566891418
 21
4310.915738157013
 31
0.0
  0
LINE
  5
175AB
330
747D
100
AcDbEntity
  8
部品1
100
AcDbLine
 10
10357.49457900992
 20
4388.926805665583
 30
0.0
 11
10333.49457900992
 21
4388.926805665583
 31
0.0
  0
LINE
  5
175AC
330
747D
100
AcDbEntity
  8
部品1
 48
50.0
100
AcDbLine
 10
10322.99457900992
 20
4408.326805665589
 30
0.0
 11
10333.49457900992
 21
4388.926805665587
 31
0.0
  0
LINE
  5
175AD
330
747D
100
AcDbEntity
  8
部品1
 48
50.0
100
AcDbLine
 10
10294.99457900992
 20
4408.326805665589
 30
0.0
 11
10284.49457900992
 21
4388.926805665587
 31
0.0
  0
LINE
  5
175AE
330
747D
100
AcDbEntity
  8
部品1
 48
50.0
100
AcDbLine
 10
10294.99457900992
 20
4408.326805665589
 30
0.0
 11
10322.99457900992
 21
4408.326805665589
 31
0.0
  0
LINE
  5
175AF
330
747D
100
AcDbEntity
  8
部品1
 48
50.0
100
AcDbLine
 10
10367.99457900992
 20
4408.326805665589
 30
0.0
 11
10357.49457900992
 21
4388.926805665587
 31
0.0
  0
LINE
  5
175B0
330
747D
100
AcDbEntity
  8
部品1
 48
50.0
100
AcDbLine
 10
10395.99457900992
 20
4408.326805665589
 30
0.0
 11
10406.49457900992
 21
4388.926805665587
 31
0.0
  0
LINE
  5
175B1
330
747D
100
AcDbEntity
  8
部品1
 48
50.0
100
AcDbLine
 10
10367.99457900992
 20
4408.326805665589
 30
0.0
 11
10395.99457900991
 21
4408.326805665589
 31
0.0
  0
LINE
  5
175B2
330
747D
100
AcDbEntity
  8
部品1
100
AcDbLine
 10
10517.99457900991
 20
4388.926805665569
 30
0.0
 11
10406.49457900993
 21
4388.926805665569
 31
0.0
  0
LINE
  5
175B3
330
747D
100
AcDbEntity
  8
部品1
100
AcDbLine
 10
10284.49457900991
 20
4388.926805665583
 30
0.0
 11
10140.99457900992
 21
4388.926805665583
 31
0.0
  0
LINE
  5
175B4
330
747D
100
AcDbEntity
  8
部品1
100
AcDbLine
 10
10321.49457900993
 20
4408.326805665585
 30
0.0
 11
10321.49457900993
 21
4310.915738157013
 31
0.0
  0
LINE
  5
175B5
330
747D
100
AcDbEntity
  8
部品1
100
AcDbLine
 10
10296.49457900993
 20
4408.326805665585
 30
0.0
 11
10296.49457900993
 21
4310.915738157013
 31
0.0
  0
LINE
  5
175B6
330
747D
100
AcDbEntity
  8
部品1
100
AcDbLine
 10
10369.49457900993
 20
4408.326805665585
 30
0.0
 11
10369.49457900993
 21
4310.915738157013
 31
0.0
  0
LINE
  5
175B7
330
747D
100
AcDbEntity
  8
部品1
100
AcDbLine
 10
10394.49457900993
 20
4408.326805665585
 30
0.0
 11
10394.49457900993
 21
4310.915738157013
 31
0.0
  0
LINE
  5
175B8
330
747D
100
AcDbEntity
  8
部品1
100
AcDbLine
 10
10937.99457900992
 20
4388.926805665573
 30
0.0
 11
10826.49457900993
 21
4388.926805665573
 31
0.0
  0
LINE
  5
175B9
330
747D
100
AcDbEntity
  8
部品1
100
AcDbLine
 10
10814.49457900993
 20
4408.326805665589
 30
0.0
 11
10814.49457900993
 21
4310.915738157016
 31
0.0
  0
LINE
  5
175BA
330
747D
100
AcDbEntity
  8
部品1
100
AcDbLine
 10
10789.49457900993
 20
4408.326805665589
 30
0.0
 11
10789.49457900993
 21
4310.915738157016
 31
0.0
  0
LINE
  5
175BB
330
747D
100
AcDbEntity
  8
部品1
100
AcDbLine
 10
10716.49457900993
 20
4408.326805665589
 30
0.0
 11
10716.49457900993
 21
4310.915738157016
 31
0.0
  0
LINE
  5
175BC
330
747D
100
AcDbEntity
  8
部品1
100
AcDbLine
 10
10741.49457900993
 20
4408.326805665589
 30
0.0
 11
10741.49457900993
 21
4310.915738157016
 31
0.0
  0
LINE
  5
175BD
330
747D
100
AcDbEntity
  8
部品1
 48
50.0
100
AcDbLine
 10
10787.99457900992
 20
4408.326805665592
 30
0.0
 11
10815.99457900992
 21
4408.326805665592
 31
0.0
  0
LINE
  5
175BE
330
747D
100
AcDbEntity
  8
部品1
 48
50.0
100
AcDbLine
 10
10815.99457900992
 20
4408.326805665592
 30
0.0
 11
10826.49457900992
 21
4388.92680566559
 31
0.0
  0
LINE
  5
175BF
330
747D
100
AcDbEntity
  8
部品1
 48
50.0
100
AcDbLine
 10
10787.99457900992
 20
4408.326805665592
 30
0.0
 11
10777.49457900992
 21
4388.92680566559
 31
0.0
  0
LINE
  5
175C0
330
747D
100
AcDbEntity
  8
部品1
 48
50.0
100
AcDbLine
 10
10714.99457900992
 20
4408.326805665592
 30
0.0
 11
10742.99457900992
 21
4408.326805665592
 31
0.0
  0
LINE
  5
175C1
330
747D
100
AcDbEntity
  8
部品1
 48
50.0
100
AcDbLine
 10
10714.99457900992
 20
4408.326805665592
 30
0.0
 11
10704.49457900992
 21
4388.92680566559
 31
0.0
  0
LINE
  5
175C2
330
747D
100
AcDbEntity
  8
部品1
 48
50.0
100
AcDbLine
 10
10742.99457900992
 20
4408.326805665592
 30
0.0
 11
10753.49457900992
 21
4388.92680566559
 31
0.0
  0
LINE
  5
175C3
330
747D
100
AcDbEntity
  8
部品1
100
AcDbLine
 10
10777.49457900992
 20
4388.926805665587
 30
0.0
 11
10753.49457900992
 21
4388.926805665587
 31
0.0
  0
LINE
  5
175C4
330
747D
100
AcDbEntity
  8
部品1
100
AcDbLine
 10
10704.49457900992
 20
4388.926805665587
 30
0.0
 11
10560.99457900992
 21
4388.926805665587
 31
0.0
  0
LINE
  5
175C5
330
747D
100
AcDbEntity
  8
部品1
 48
50.0
100
AcDbLine
 10
10558.49457900992
 20
4408.326805665589
 30
0.0
 11
10560.99457900992
 21
4388.926805665587
 31
0.0
  0
LINE
  5
175C6
330
747D
100
AcDbEntity
  8
部品1
 48
50.0
100
AcDbLine
 10
10519.28323880374
 20
4398.926805665587
 30
0.0
 11
10517.99457900992
 21
4388.926805665587
 31
0.0
  0
LINE
  5
175C7
330
747D
100
AcDbEntity
  8
部品1
 48
50.0
100
AcDbLine
 10
10519.28323880374
 20
4398.926805665587
 30
0.0
 11
10533.28323880373
 21
4398.926805665587
 31
0.0
  0
LINE
  5
175C8
330
747D
100
AcDbEntity
  8
部品1
 48
50.0
100
AcDbLine
 10
10534.49457900992
 20
4408.326805665589
 30
0.0
 11
10533.28323880373
 21
4398.926805665587
 31
0.0
  0
LINE
  5
175C9
330
747D
100
AcDbEntity
  8
部品1
 48
50.0
100
AcDbLine
 10
10534.49457900992
 20
4408.326805665589
 30
0.0
 11
10558.49457900992
 21
4408.326805665589
 31
0.0
  0
LINE
  5
175CA
330
747D
100
AcDbEntity
  8
部品1
100
AcDbLine
 10
10555.49457900991
 20
4408.326805665589
 30
0.0
 11
10555.49457900991
 21
4310.915738157013
 31
0.0
  0
LINE
  5
175CB
330
747D
100
AcDbEntity
  8
部品1
100
AcDbLine
 10
10537.49457900991
 20
4408.326805665578
 30
0.0
 11
10537.49457900991
 21
4310.915738157013
 31
0.0
  0
DIMENSION
  5
175CC
330
747D
100
AcDbEntity
  8
寸法
 48
50.0
100
AcDbDimension
  2
*D5
 10
11441.49457900991
 20
4812.419974996586
 30
0.0
 11
11804.97986038414
 21
4812.419974996586
 31
0.0
 70
   160
 71
     5
 42
50.0
  3
INABA_S40G
100
AcDbAlignedDimension
 13
11491.49457900991
 23
4413.326805657116
 33
0.0
 14
11441.49457900991
 24
4413.326805657116
 34
0.0
100
AcDbRotatedDimension
  0
LINE
  5
175CD
330
747D
100
AcDbEntity
  8
部品1
100
AcDbLine
 10
11377.49457900989
 20
4408.326805665574
 30
0.0
 11
11377.49457900989
 21
4310.915738157009
 31
0.0
  0
LINE
  5
175CE
330
747D
100
AcDbEntity
  8
部品1
100
AcDbLine
 10
11395.49457900989
 20
4408.326805665585
 30
0.0
 11
11395.49457900989
 21
4310.915738157009
 31
0.0
  0
LINE
  5
175CF
330
747D
100
AcDbEntity
  8
部品1
 48
50.0
100
AcDbLine
 10
11374.4945790099
 20
4408.326805665585
 30
0.0
 11
11398.4945790099
 21
4408.326805665585
 31
0.0
  0
LINE
  5
175D0
330
747D
100
AcDbEntity
  8
部品1
 48
50.0
100
AcDbLine
 10
11446.56520700311
 20
4358.326805657112
 30
0.0
 11
11484.50853519269
 21
4358.326805657112
 31
0.0
  0
ARC
  5
175D1
330
747D
100
AcDbEntity
  8
部品1
100
AcDbCircle
 10
11489.53543656961
 20
4330.996922977703
 30
0.0
 40
0.7
100
AcDbArc
 50
277.2868405166456
 51
356.3813705198622
  0
ARC
  5
175D2
330
747D
100
AcDbEntity
  8
部品1
100
AcDbCircle
 10
11490.0047326948
 20
4327.326805657112
 30
0.0
 40
3.0
100
AcDbArc
 50
90.0
 51
176.3813705198622
  0
LINE
  5
175D3
330
747D
100
AcDbEntity
  8
部品1
100
AcDbLine
 10
11487.010713916
 20
4327.516150718225
 30
0.0
 11
11482.26362090384
 21
4252.452742463441
 31
0.0
  0
ARC
  5
175D4
330
747D
100
AcDbEntity
  8
部品1
100
AcDbCircle
 10
11481.56501652212
 20
4252.496922977703
 30
0.0
 40
0.7
100
AcDbArc
 50
277.2868405166456
 51
356.3813705198622
  0
ARC
  5
175D5
330
747D
100
AcDbEntity
  8
部品1
100
AcDbCircle
 10
11482.03431264732
 20
4248.826805657112
 30
0.0
 40
3.0
100
AcDbArc
 50
90.0
 51
176.3813705198622
  0
ARC
  5
175D6
330
747D
100
AcDbEntity
  8
部品1
100
AcDbCircle
 10
11471.38192434672
 20
4238.826805657112
 30
0.0
 40
7.0
100
AcDbArc
 50
270.0
 51
356.3813705198622
  0
ARC
  5
175D7
330
747D
100
AcDbEntity
  8
部品1
100
AcDbCircle
 10
11484.50853519269
 20
4351.326805657111
 30
0.0
 40
7.0
100
AcDbArc
 50
356.3813705198622
 51
90.0
  0
LINE
  5
175D8
330
747D
100
AcDbEntity
  8
部品1
100
AcDbLine
 10
11478.36796816393
 20
4238.385000514523
 30
0.0
 11
11479.04029386851
 21
4249.016150718225
 31
0.0
  0
LINE
  5
175D9
330
747D
100
AcDbEntity
  8
部品1
100
AcDbLine
 10
11490.23404095133
 20
4330.952742463441
 30
0.0
 11
11491.4945790099
 21
4350.885000514523
 31
0.0
  0
LINE
  5
175DA
330
747D
100
AcDbEntity
  8
部品1
100
AcDbLine
 10
11446.56520700311
 20
4358.326805657112
 30
0.0
 11
11484.50853519269
 21
4358.326805657112
 31
0.0
  0
ARC
  5
175DB
330
747D
100
AcDbEntity
  8
部品1
100
AcDbCircle
 10
11446.56520700311
 20
4353.326805657112
 30
0.0
 40
5.0
100
AcDbArc
 50
90.0
 51
180.0
  0
LINE
  5
175DC
330
747D
100
AcDbEntity
  8
部品1
100
AcDbLine
 10
11441.56520700311
 20
4408.32680567401
 30
0.0
 11
11441.5652070031
 21
4310.915738157009
 31
0.0
  0
LINE
  5
175DD
330
747D
100
AcDbEntity
  8
部品1
 48
50.0
100
AcDbLine
 10
11491.4945790099
 20
4350.885000514523
 30
0.0
 11
11491.4945790099
 21
4405.885000531422
 31
0.0
  0
ARC
  5
175DE
330
747D
100
AcDbEntity
  8
部品1
100
AcDbCircle
 10
11446.56520700311
 20
4408.32680567401
 30
0.0
 40
5.0
100
AcDbArc
 50
90.0
 51
180.0
  0
LINE
  5
175DF
330
747D
100
AcDbEntity
  8
部品1
100
AcDbLine
 10
11446.56520700311
 20
4413.32680567401
 30
0.0
 11
11484.50853519269
 21
4413.32680567401
 31
0.0
  0
ARC
  5
175E0
330
747D
100
AcDbEntity
  8
部品1
100
AcDbCircle
 10
11484.50853519269
 20
4406.326805674011
 30
0.0
 40
7.0
100
AcDbArc
 50
356.3813705198622
 51
90.0
  0
LINE
  5
175E1
330
747D
100
AcDbEntity
  8
細線
 48
50.0
100
AcDbLine
 10
11459.00566891418
 20
4358.326805657112
 30
0.0
 11
11459.00566891418
 21
4231.826805657112
 31
0.0
  0
LINE
  5
175E2
330
747D
100
AcDbEntity
  8
細線
 48
50.0
100
AcDbLine
 10
11441.56520700311
 20
4330.298638405062
 30
0.0
 11
11489.62844828705
 21
4330.298638405069
 31
0.0
  0
LINE
  5
175E3
330
747D
100
AcDbEntity
  8
部品1
 48
50.0
100
AcDbLine
 10
11374.4945790099
 20
4408.326805665585
 30
0.0
 11
11373.28323880371
 21
4398.926805665584
 31
0.0
  0
LINE
  5
175E4
330
747D
100
AcDbEntity
  8
部品1
 48
50.0
100
AcDbLine
 10
11359.28323880371
 20
4398.926805665584
 30
0.0
 11
11373.28323880371
 21
4398.926805665584
 31
0.0
  0
LINE
  5
175E5
330
747D
100
AcDbEntity
  8
部品1
 48
50.0
100
AcDbLine
 10
11359.28323880371
 20
4398.926805665584
 30
0.0
 11
11357.9945790099
 21
4388.926805665583
 31
0.0
  0
LINE
  5
175E6
330
747D
100
AcDbEntity
  8
部品1
 48
50.0
100
AcDbLine
 10
11398.4945790099
 20
4408.326805665585
 30
0.0
 11
11400.9945790099
 21
4388.926805665583
 31
0.0
  0
LINE
  5
175E7
330
747D
100
AcDbEntity
  8
部品1
100
AcDbLine
 10
11441.56520700311
 20
4388.92680566558
 30
0.0
 11
11400.9945790099
 21
4388.92680566558
 31
0.0
  0
LINE
  5
175E8
330
747D
100
AcDbEntity
  8
部品1
100
AcDbLine
 10
10957.4945790099
 20
4408.326805665589
 30
0.0
 11
10957.4945790099
 21
4310.915738157024
 31
0.0
  0
LINE
  5
175E9
330
747D
100
AcDbEntity
  8
部品1
100
AcDbLine
 10
10975.49457900989
 20
4408.326805665599
 30
0.0
 11
10975.49457900989
 21
4310.915738157024
 31
0.0
  0
LINE
  5
175EA
330
747D
100
AcDbEntity
  8
部品1
 48
50.0
100
AcDbLine
 10
10954.4945790099
 20
4408.326805665599
 30
0.0
 11
10978.4945790099
 21
4408.326805665599
 31
0.0
  0
LINE
  5
175EB
330
747D
100
AcDbEntity
  8
部品1
 48
50.0
100
AcDbLine
 10
10954.4945790099
 20
4408.326805665599
 30
0.0
 11
10953.28323880372
 21
4398.926805665598
 31
0.0
  0
LINE
  5
175EC
330
747D
100
AcDbEntity
  8
部品1
 48
50.0
100
AcDbLine
 10
10939.28323880372
 20
4398.926805665598
 30
0.0
 11
10953.28323880372
 21
4398.926805665598
 31
0.0
  0
LINE
  5
175ED
330
747D
100
AcDbEntity
  8
部品1
 48
50.0
100
AcDbLine
 10
10939.28323880372
 20
4398.926805665598
 30
0.0
 11
10937.9945790099
 21
4388.926805665598
 31
0.0
  0
LINE
  5
175EE
330
747D
100
AcDbEntity
  8
部品1
 48
50.0
100
AcDbLine
 10
10978.4945790099
 20
4408.326805665599
 30
0.0
 11
10980.9945790099
 21
4388.926805665598
 31
0.0
  0
LINE
  5
175EF
330
747D
100
AcDbEntity
  8
部品1
100
AcDbLine
 10
11124.4945790099
 20
4388.926805665598
 30
0.0
 11
10980.9945790099
 21
4388.926805665598
 31
0.0
  0
LINE
  5
175F0
330
747D
100
AcDbEntity
  8
部品1
100
AcDbLine
 10
11197.4945790099
 20
4388.926805665598
 30
0.0
 11
11173.4945790099
 21
4388.926805665598
 31
0.0
  0
LINE
  5
175F1
330
747D
100
AcDbEntity
  8
部品1
 48
50.0
100
AcDbLine
 10
11162.9945790099
 20
4408.326805665603
 30
0.0
 11
11173.4945790099
 21
4388.926805665602
 31
0.0
  0
LINE
  5
175F2
330
747D
100
AcDbEntity
  8
部品1
 48
50.0
100
AcDbLine
 10
11134.9945790099
 20
4408.326805665603
 30
0.0
 11
11124.4945790099
 21
4388.926805665602
 31
0.0
  0
LINE
  5
175F3
330
747D
100
AcDbEntity
  8
部品1
 48
50.0
100
AcDbLine
 10
11134.9945790099
 20
4408.326805665603
 30
0.0
 11
11162.9945790099
 21
4408.326805665603
 31
0.0
  0
LINE
  5
175F4
330
747D
100
AcDbEntity
  8
部品1
 48
50.0
100
AcDbLine
 10
11207.9945790099
 20
4408.326805665603
 30
0.0
 11
11197.4945790099
 21
4388.926805665602
 31
0.0
  0
LINE
  5
175F5
330
747D
100
AcDbEntity
  8
部品1
 48
50.0
100
AcDbLine
 10
11235.9945790099
 20
4408.326805665603
 30
0.0
 11
11246.4945790099
 21
4388.926805665602
 31
0.0
  0
LINE
  5
175F6
330
747D
100
AcDbEntity
  8
部品1
 48
50.0
100
AcDbLine
 10
11207.9945790099
 20
4408.326805665603
 30
0.0
 11
11235.9945790099
 21
4408.326805665603
 31
0.0
  0
LINE
  5
175F7
330
747D
100
AcDbEntity
  8
部品1
100
AcDbLine
 10
11161.49457900991
 20
4408.326805665599
 30
0.0
 11
11161.49457900991
 21
4310.915738157027
 31
0.0
  0
LINE
  5
175F8
330
747D
100
AcDbEntity
  8
部品1
100
AcDbLine
 10
11136.49457900991
 20
4408.326805665599
 30
0.0
 11
11136.49457900991
 21
4310.915738157027
 31
0.0
  0
LINE
  5
175F9
330
747D
100
AcDbEntity
  8
部品1
100
AcDbLine
 10
11209.49457900991
 20
4408.326805665599
 30
0.0
 11
11209.49457900991
 21
4310.915738157027
 31
0.0
  0
LINE
  5
175FA
330
747D
100
AcDbEntity
  8
部品1
100
AcDbLine
 10
11234.49457900991
 20
4408.326805665599
 30
0.0
 11
11234.49457900991
 21
4310.915738157027
 31
0.0
  0
LINE
  5
175FB
330
747D
100
AcDbEntity
  8
部品1
100
AcDbLine
 10
11357.9945790099
 20
4388.926805665583
 30
0.0
 11
11246.49457900991
 21
4388.926805665583
 31
0.0
  0
LINE
  5
175FC
330
747D
100
AcDbEntity
  8
細線
 48
50.0
100
AcDbLine
 10
8943.994579009915
 20
4178.326805657112
 30
0.0
 11
8943.994579009915
 21
2388.326805657112
 31
0.0
  0
LINE
  5
175FD
330
747D
100
AcDbEntity
  8
細線
 48
50.0
100
AcDbLine
 10
8928.994579009915
 20
4178.326805657112
 30
0.0
 11
8928.994579009915
 21
2388.326805657112
 31
0.0
  0
LINE
  5
175FE
330
747D
100
AcDbEntity
  8
細線
 48
50.0
100
AcDbLine
 10
9068.994579009915
 20
4178.326805657112
 30
0.0
 11
9068.994579009915
 21
2388.326805657112
 31
0.0
  0
LINE
  5
175FF
330
747D
100
AcDbEntity
  8
細線
 48
50.0
100
AcDbLine
 10
9083.994579009914
 20
4178.326805657112
 30
0.0
 11
9083.994579009914
 21
2388.326805657112
 31
0.0
  0
LINE
  5
17600
330
747D
100
AcDbEntity
  8
細線
 48
50.0
100
AcDbLine
 10
9223.994579009914
 20
4178.326805657112
 30
0.0
 11
9223.994579009914
 21
2388.326805657112
 31
0.0
  0
LINE
  5
17601
330
747D
100
AcDbEntity
  8
細線
 48
50.0
100
AcDbLine
 10
9208.994579009914
 20
4178.326805657112
 30
0.0
 11
9208.994579009914
 21
2388.326805657112
 31
0.0
  0
LINE
  5
18120
330
747D
100
AcDbEntity
  8
部品1
100
AcDbLine
 10
6701.897549672652
 20
2338.326805657112
 30
0.0
 11
6709.397549672653
 21
2338.326805657112
 31
0.0
  0
LINE
  5
18121
330
747D
100
AcDbEntity
  8
部品1
100
AcDbLine
 10
4546.897549672652
 20
2338.326805657112
 30
0.0
 11
6661.897549672652
 21
2338.326805657112
 31
0.0
  0
LINE
  5
18122
330
747D
100
AcDbEntity
  8
部品1
100
AcDbLine
 10
5428.942536029612
 20
4545.077287957084
 30
0.0
 11
5754.397549672653
 21
4527.559228998224
 31
0.0
  0
ARC
  5
18123
330
747D
100
AcDbEntity
  8
部品1
100
AcDbCircle
 10
6775.025085486593
 20
4252.350562922904
 30
0.0
 40
0.7
100
AcDbArc
 50
275.0921697642102
 51
354.1866997666569
  0
ARC
  5
18124
330
747D
100
AcDbEntity
  8
部品1
100
AcDbCircle
 10
6785.884431235911
 20
4329.393817740827
 30
0.0
 40
0.7
100
AcDbArc
 50
275.0921697642102
 51
354.1866997665532
  0
ARC
  5
18125
330
747D
100
AcDbEntity
  8
部品1
100
AcDbCircle
 10
6786.212836478513
 20
4325.708420883739
 30
0.0
 40
3.0
100
AcDbArc
 50
95.09216976441781
 51
174.1866997665532
  0
ARC
  5
18126
330
747D
100
AcDbEntity
  8
部品1
100
AcDbCircle
 10
6775.353490729187
 20
4248.665166065813
 30
0.0
 40
3.0
100
AcDbArc
 50
95.0921697642102
 51
174.1866997665532
  0
ARC
  5
18127
330
747D
100
AcDbEntity
  8
部品1
 48
50.0
100
AcDbCircle
 10
6764.325355454082
 20
4239.074421461931
 30
0.0
 40
7.0
100
AcDbArc
 50
267.8377559871574
 51
354.1866997665532
  0
ARC
  5
18128
330
747D
100
AcDbEntity
  8
部品1
 48
50.0
100
AcDbCircle
 10
6781.647451918598
 20
4349.976968604106
 30
0.0
 40
7.0
100
AcDbArc
 50
354.1866997665532
 51
87.03587545283093
  0
LINE
  5
18129
330
747D
100
AcDbEntity
  8
部品1
 48
50.0
100
AcDbLine
 10
6772.368919058583
 20
4248.969027782716
 30
0.0
 11
6771.289356018842
 21
4238.365410789158
 31
0.0
  0
LINE
  5
1812A
330
747D
100
AcDbEntity
  8
部品1
 48
50.0
100
AcDbLine
 10
6783.228264807902
 20
4326.012282600641
 30
0.0
 11
6775.721485543069
 21
4252.279661855629
 31
0.0
  0
LINE
  5
1812B
330
747D
100
AcDbEntity
  8
部品1
 48
50.0
100
AcDbLine
 10
6788.611452483357
 20
4349.26795793133
 30
0.0
 11
6786.580831292387
 21
4329.322916673549
 31
0.0
  0
ARC
  5
1812C
330
747D
100
AcDbEntity
  8
部品1
100
AcDbCircle
 10
4445.43464154402
 20
4292.140964616016
 30
0.0
 40
0.7
100
AcDbArc
 50
181.0932240293156
 51
260.1877540316944
  0
ARC
  5
1812D
330
747D
100
AcDbEntity
  8
部品1
100
AcDbCircle
 10
4440.661967946409
 20
4385.006742816134
 30
0.0
 40
0.7
100
AcDbArc
 50
181.0932240292114
 51
260.1877540316944
  0
ARC
  5
1812E
330
747D
100
AcDbEntity
  8
部品1
100
AcDbCircle
 10
4440.031413543383
 20
4381.360868278735
 30
0.0
 40
3.0
100
AcDbArc
 50
1.093224029315636
 51
80.18775403169431
  0
ARC
  5
1812F
330
747D
100
AcDbEntity
  8
部品1
100
AcDbCircle
 10
4444.804087140993
 20
4288.495090078618
 30
0.0
 40
3.0
100
AcDbArc
 50
1.093224029315636
 51
80.18775403169431
  0
ARC
  5
18130
330
747D
100
AcDbEntity
  8
部品1
 48
50.0
100
AcDbCircle
 10
4455.004219516191
 20
4278.102846696138
 30
0.0
 40
7.0
100
AcDbArc
 50
181.0932240293156
 51
267.8377559871574
  0
ARC
  5
18131
330
747D
100
AcDbEntity
  8
部品1
 48
50.0
100
AcDbCircle
 10
4446.580561414095
 20
4405.053906229232
 30
0.0
 40
7.0
100
AcDbArc
 50
87.03587545283093
 51
181.0932240293156
  0
LINE
  5
18132
330
747D
100
AcDbEntity
  8
部品1
 48
50.0
100
AcDbLine
 10
4447.803541067424
 20
4288.5523276818
 30
0.0
 11
4448.005493687855
 21
4277.96929228871
 31
0.0
  0
LINE
  5
18133
330
747D
100
AcDbEntity
  8
細線
 48
50.0
100
AcDbLine
 10
4445.197448010749
 20
4291.482375800609
 30
0.0
 11
6775.201112441388
 21
4251.673056826117
 31
0.0
  0
LINE
  5
18134
330
747D
100
AcDbEntity
  8
細線
 48
50.0
100
AcDbLine
 10
4440.436972773463
 20
4384.343887498473
 30
0.0
 11
6786.072957518638
 21
4328.719682857645
 31
0.0
  0
LINE
  5
18135
330
747D
100
AcDbEntity
  8
部品1
 48
50.0
100
AcDbLine
 10
4443.030867469814
 20
4381.418105881921
 30
0.0
 11
4444.734768961182
 21
4292.127609175273
 31
0.0
  0
LINE
  5
18136
330
747D
100
AcDbEntity
  8
部品1
 48
50.0
100
AcDbLine
 10
4439.581835585759
 20
4404.920351821803
 30
0.0
 11
4439.962095363571
 21
4384.993387375392
 31
0.0
  0
LINE
  5
18137
330
747D
100
AcDbEntity
  8
細線
 48
50.0
100
AcDbLine
 10
6756.397549672652
 20
4358.293784692409
 30
0.0
 11
6751.649866784657
 21
4232.548012201664
 31
0.0
  0
LINE
  5
18138
330
747D
100
AcDbEntity
  8
細線
 48
50.0
100
AcDbLine
 10
4472.397549672652
 20
4410.726482032516
 30
0.0
 11
4467.108448117145
 21
4270.640849405163
 31
0.0
  0
LINE
  5
18139
330
747D
100
AcDbEntity
  8
部品1
100
AcDbLine
 10
4454.740114274605
 20
4271.107830726077
 30
0.0
 11
6764.061250212496
 21
4232.079405491873
 31
0.0
  0
LINE
  5
1813A
330
747D
100
AcDbEntity
  8
部品1
100
AcDbLine
 10
4446.942536029612
 20
4412.044540991379
 30
0.0
 11
6782.009426534114
 21
4356.967603366251
 31
0.0
  0
LINE
  5
1813B
330
747D
100
AcDbEntity
  8
部品1
 48
50.0
100
AcDbLine
 10
5454.397549672652
 20
4543.759228998221
 30
0.0
 11
5754.397549672653
 21
4543.759228998221
 31
0.0
  0
LINE
  5
1813C
330
747D
100
AcDbEntity
  8
部品1
 48
50.0
100
AcDbLine
 10
5754.397549672653
 20
4543.759228998221
 30
0.0
 11
5754.397549672653
 21
4527.559228998224
 31
0.0
  0
TEXT
  5
1813D
330
747D
100
AcDbEntity
  8
部品1
 48
50.0
100
AcDbText
 10
5442.665384896379
 20
4579.643251150655
 30
0.0
 40
120.0
  1
1000
  7
STYLE1
100
AcDbText
  0
TEXT
  5
1813E
330
747D
100
AcDbEntity
  8
部品1
 48
50.0
100
AcDbText
 10
5920.298407561469
 20
4442.141992932373
 30
0.0
 40
120.0
  1
44
 50
90.0
  7
STYLE1
100
AcDbText
  0
LINE
  5
1813F
330
747D
100
AcDbEntity
  8
細線
 48
50.0
100
AcDbLine
 10
5891.897549672652
 20
4178.326805657112
 30
0.0
 11
5891.897549672652
 21
2388.326805657112
 31
0.0
  0
LINE
  5
18140
330
747D
100
AcDbEntity
  8
細線
 48
50.0
100
AcDbLine
 10
5876.897549672652
 20
4178.326805657112
 30
0.0
 11
5876.897549672652
 21
2388.326805657112
 31
0.0
  0
LINE
  5
18141
330
747D
100
AcDbEntity
  8
細線
 48
50.0
100
AcDbLine
 10
6016.897549672652
 20
4178.326805657112
 30
0.0
 11
6016.897549672652
 21
2388.326805657112
 31
0.0
  0
LINE
  5
18142
330
747D
100
AcDbEntity
  8
細線
 48
50.0
100
AcDbLine
 10
6031.897549672653
 20
4178.326805657112
 30
0.0
 11
6031.897549672653
 21
2388.326805657112
 31
0.0
  0
LINE
  5
18143
330
747D
100
AcDbEntity
  8
細線
 48
50.0
100
AcDbLine
 10
6171.897549672653
 20
4178.326805657112
 30
0.0
 11
6171.897549672653
 21
2388.326805657112
 31
0.0
  0
LINE
  5
18144
330
747D
100
AcDbEntity
  8
細線
 48
50.0
100
AcDbLine
 10
6156.897549672653
 20
4178.326805657112
 30
0.0
 11
6156.897549672653
 21
2388.326805657112
 31
0.0
  0
LINE
  5
18145
330
747D
100
AcDbEntity
  8
部品1
100
AcDbLine
 10
6234.397549672653
 20
4178.326805657112
 30
0.0
 11
6234.397549672653
 21
2388.326805657112
 31
0.0
  0
LINE
  5
18146
330
747D
100
AcDbEntity
  8
部品1
100
AcDbLine
 10
4499.397549672653
 20
4178.326805657112
 30
0.0
 11
6709.397549672653
 21
4178.326805657112
 31
0.0
  0
LINE
  5
18147
330
747D
100
AcDbEntity
  8
部品1
100
AcDbLine
 10
4499.397549672653
 20
2388.326805657112
 30
0.0
 11
6709.397549672653
 21
2388.326805657112
 31
0.0
  0
LINE
  5
18148
330
747D
100
AcDbEntity
  8
部品1
100
AcDbLine
 10
4554.397549672652
 20
4178.326805657112
 30
0.0
 11
4554.397549672652
 21
2388.326805657112
 31
0.0
  0
LINE
  5
18149
330
747D
100
AcDbEntity
  8
部品1
100
AcDbLine
 10
4499.397549672653
 20
4270.185325099359
 30
0.0
 11
4499.397549672653
 21
2238.326805657112
 31
0.0
  0
LINE
  5
1814A
330
747D
100
AcDbEntity
  8
部品1
100
AcDbLine
 10
4974.397549672652
 20
4178.326805657112
 30
0.0
 11
4974.397549672652
 21
2388.326805657112
 31
0.0
  0
LINE
  5
1814B
330
747D
100
AcDbEntity
  8
部品1
100
AcDbLine
 10
6709.397549672653
 20
4233.003243288332
 30
0.0
 11
6709.397549672653
 21
2238.326805657112
 31
0.0
  0
LINE
  5
1814C
330
747D
100
AcDbEntity
  8
部品1
100
AcDbLine
 10
6654.397549672653
 20
4178.326805657112
 30
0.0
 11
6654.397549672653
 21
2388.326805657112
 31
0.0
  0
DIMENSION
  5
1814D
330
747D
100
AcDbEntity
  8
寸法
100
AcDbDimension
  2
*D18
 10
7269.504173614243
 20
4358.326805657112
 30
0.0
 11
7269.504173614241
 21
3360.379486904049
 31
0.0
 70
   160
 71
     5
 42
2020.000000000003
  3
INABA_S40G
100
AcDbAlignedDimension
 13
6786.397549672653
 23
2338.326805657111
 33
0.0
 14
6789.397549672653
 24
4358.326805657112
 34
0.0
 50
90.0
100
AcDbRotatedDimension
1001
ACAD
1000
DSTYLE
1002
{
1070
   174
1070
     0
1070
   272
1070
     1
1070
   288
1070
     0
1070
   341
1005
0
1002
}
  0
DIMENSION
  5
1814E
330
747D
100
AcDbEntity
  8
寸法
 48
50.0
100
AcDbDimension
  2
*D19
 10
4499.397549672653
 20
4811.984259236416
 30
0.0
 11
5594.042286743166
 21
4811.984259236416
 31
0.0
 70
   160
  1
柱外寸法<>
 71
     5
 42
2210.0
  3
INABA_S40G
100
AcDbAlignedDimension
 13
6709.397549672653
 23
4360.137485268764
 33
0.0
 14
4499.397549672653
 24
4409.328423780089
 34
0.0
100
AcDbRotatedDimension
1001
ACAD
1000
DSTYLE
1002
{
1070
   174
1070
     0
1070
   272
1070
     1
1070
   288
1070
     0
1070
   341
1005
0
1002
}
  0
DIMENSION
  5
1814F
330
747D
100
AcDbEntity
  8
寸法
 48
50.0
100
AcDbDimension
  2
*D20
 10
4439.397549672652
 20
4811.984259236416
 30
0.0
 11
4129.759754397059
 21
4811.984259236416
 31
0.0
 70
   160
 71
     5
 42
60.0
  3
INABA_S40G
100
AcDbAlignedDimension
 13
4499.397549672653
 23
4409.328423780089
 33
0.0
 14
4439.397549672652
 24
4413.326805657116
 34
0.0
100
AcDbRotatedDimension
1001
ACAD
1000
DSTYLE
1002
{
1070
   174
1070
     0
1070
   272
1070
     1
1070
   288
1070
     0
1070
   341
1005
0
1002
}
  0
DIMENSION
  5
18150
330
747D
100
AcDbEntity
  8
寸法
 48
50.0
100
AcDbDimension
  2
*D21
 10
4439.397549672652
 20
5031.186092910707
 30
0.0
 11
5673.741403765121
 21
5031.186092910707
 31
0.0
 70
   160
 71
     5
 42
2350.0
  3
INABA_S40G
100
AcDbAlignedDimension
 13
6789.397549672653
 23
4358.326805657112
 33
0.0
 14
4439.397549672652
 24
4413.326805657116
 34
0.0
100
AcDbRotatedDimension
1001
ACAD
1000
DSTYLE
1002
{
1070
   174
1070
     0
1070
   272
1070
     1
1070
   288
1070
     0
1070
   341
1005
0
1002
}
  0
LINE
  5
18151
330
747D
100
AcDbEntity
  8
部品1
100
AcDbLine
 10
4499.397549672653
 20
2338.326805657112
 30
0.0
 11
4506.897549672652
 21
2338.326805657112
 31
0.0
  0
LINE
  5
18152
330
747D
100
AcDbEntity
  8
細線
 48
50.0
100
AcDbLine
 10
5051.897549672652
 20
4178.326805657112
 30
0.0
 11
5051.897549672652
 21
2388.326805657112
 31
0.0
  0
LINE
  5
18153
330
747D
100
AcDbEntity
  8
細線
 48
50.0
100
AcDbLine
 10
5036.897549672652
 20
4178.326805657112
 30
0.0
 11
5036.897549672652
 21
2388.326805657112
 31
0.0
  0
LINE
  5
18154
330
747D
100
AcDbEntity
  8
細線
 48
50.0
100
AcDbLine
 10
5176.897549672652
 20
4178.326805657112
 30
0.0
 11
5176.897549672652
 21
2388.326805657112
 31
0.0
  0
LINE
  5
18155
330
747D
100
AcDbEntity
  8
細線
 48
50.0
100
AcDbLine
 10
5191.897549672653
 20
4178.326805657112
 30
0.0
 11
5191.897549672653
 21
2388.326805657112
 31
0.0
  0
LINE
  5
18156
330
747D
100
AcDbEntity
  8
細線
 48
50.0
100
AcDbLine
 10
5331.897549672652
 20
4178.326805657112
 30
0.0
 11
5331.897549672652
 21
2388.326805657112
 31
0.0
  0
LINE
  5
18157
330
747D
100
AcDbEntity
  8
細線
 48
50.0
100
AcDbLine
 10
5316.897549672653
 20
4178.326805657112
 30
0.0
 11
5316.897549672653
 21
2388.326805657112
 31
0.0
  0
LINE
  5
18158
330
747D
100
AcDbEntity
  8
細線
 48
50.0
100
AcDbLine
 10
4896.897549672653
 20
4178.326805657112
 30
0.0
 11
4896.897549672653
 21
2388.326805657112
 31
0.0
  0
LINE
  5
18159
330
747D
100
AcDbEntity
  8
細線
 48
50.0
100
AcDbLine
 10
4911.897549672652
 20
4178.326805657112
 30
0.0
 11
4911.897549672652
 21
2388.326805657112
 31
0.0
  0
LINE
  5
1815A
330
747D
100
AcDbEntity
  8
細線
 48
50.0
100
AcDbLine
 10
4771.897549672653
 20
4178.326805657112
 30
0.0
 11
4771.897549672653
 21
2388.326805657112
 31
0.0
  0
LINE
  5
1815B
330
747D
100
AcDbEntity
  8
細線
 48
50.0
100
AcDbLine
 10
4756.897549672652
 20
4178.326805657112
 30
0.0
 11
4756.897549672652
 21
2388.326805657112
 31
0.0
  0
LINE
  5
1815C
330
747D
100
AcDbEntity
  8
細線
 48
50.0
100
AcDbLine
 10
4616.897549672652
 20
4178.326805657112
 30
0.0
 11
4616.897549672652
 21
2388.326805657112
 31
0.0
  0
LINE
  5
1815D
330
747D
100
AcDbEntity
  8
細線
 48
50.0
100
AcDbLine
 10
4631.897549672652
 20
4178.326805657112
 30
0.0
 11
4631.897549672652
 21
2388.326805657112
 31
0.0
  0
DIMENSION
  5
1815E
330
747D
100
AcDbEntity
  8
寸法
 48
50.0
100
AcDbDimension
  2
*D22
 10
6789.397549672653
 20
4811.984259236416
 30
0.0
 11
6995.444793767141
 21
4811.984259236416
 31
0.0
 70
   160
 71
     5
 42
80.0
  3
INABA_S40G
100
AcDbAlignedDimension
 13
6709.397549672653
 23
4360.137485268764
 33
0.0
 14
6789.397549672653
 24
4358.326805657112
 34
0.0
100
AcDbRotatedDimension
1001
ACAD
1000
DSTYLE
1002
{
1070
   174
1070
     0
1070
   272
1070
     1
1070
   288
1070
     0
1070
   341
1005
0
1002
}
  0
LINE
  5
1815F
330
747D
100
AcDbEntity
  8
部品1
100
AcDbLine
 10
5394.397549672652
 20
4178.326805657112
 30
0.0
 11
5394.397549672652
 21
2388.326805657112
 31
0.0
  0
LINE
  5
18160
330
747D
100
AcDbEntity
  8
細線
 48
50.0
100
AcDbLine
 10
5736.897549672653
 20
4178.326805657112
 30
0.0
 11
5736.897549672653
 21
2388.326805657112
 31
0.0
  0
LINE
  5
18161
330
747D
100
AcDbEntity
  8
細線
 48
50.0
100
AcDbLine
 10
5751.897549672652
 20
4178.326805657112
 30
0.0
 11
5751.897549672652
 21
2388.326805657112
 31
0.0
  0
LINE
  5
18162
330
747D
100
AcDbEntity
  8
細線
 48
50.0
100
AcDbLine
 10
5611.897549672653
 20
4178.326805657112
 30
0.0
 11
5611.897549672653
 21
2388.326805657112
 31
0.0
  0
LINE
  5
18163
330
747D
100
AcDbEntity
  8
細線
 48
50.0
100
AcDbLine
 10
5596.897549672653
 20
4178.326805657112
 30
0.0
 11
5596.897549672653
 21
2388.326805657112
 31
0.0
  0
LINE
  5
18164
330
747D
100
AcDbEntity
  8
細線
 48
50.0
100
AcDbLine
 10
5456.897549672652
 20
4178.326805657112
 30
0.0
 11
5456.897549672652
 21
2388.326805657112
 31
0.0
  0
LINE
  5
18165
330
747D
100
AcDbEntity
  8
細線
 48
50.0
100
AcDbLine
 10
5471.897549672653
 20
4178.326805657112
 30
0.0
 11
5471.897549672653
 21
2388.326805657112
 31
0.0
  0
LINE
  5
18166
330
747D
100
AcDbEntity
  8
部品1
100
AcDbLine
 10
5814.397549672652
 20
4178.326805657112
 30
0.0
 11
5814.397549672652
 21
2388.326805657112
 31
0.0
  0
LINE
  5
18167
330
747D
100
AcDbEntity
  8
細線
 48
50.0
100
AcDbLine
 10
6311.89754967266
 20
4178.326805657112
 30
0.0
 11
6311.89754967266
 21
2388.326805657112
 31
0.0
  0
LINE
  5
18168
330
747D
100
AcDbEntity
  8
細線
 48
50.0
100
AcDbLine
 10
6296.89754967266
 20
4178.326805657112
 30
0.0
 11
6296.89754967266
 21
2388.326805657112
 31
0.0
  0
LINE
  5
18169
330
747D
100
AcDbEntity
  8
細線
 48
50.0
100
AcDbLine
 10
6436.897549672661
 20
4178.326805657112
 30
0.0
 11
6436.897549672661
 21
2388.326805657112
 31
0.0
  0
LINE
  5
1816A
330
747D
100
AcDbEntity
  8
細線
 48
50.0
100
AcDbLine
 10
6451.89754967266
 20
4178.326805657112
 30
0.0
 11
6451.89754967266
 21
2388.326805657112
 31
0.0
  0
LINE
  5
1816B
330
747D
100
AcDbEntity
  8
細線
 48
50.0
100
AcDbLine
 10
6591.89754967266
 20
4178.326805657112
 30
0.0
 11
6591.89754967266
 21
2388.326805657112
 31
0.0
  0
LINE
  5
1816C
330
747D
100
AcDbEntity
  8
細線
 48
50.0
100
AcDbLine
 10
6576.89754967266
 20
4178.326805657112
 30
0.0
 11
6576.89754967266
 21
2388.326805657112
 31
0.0
  0
TEXT
  5
1816D
330
747D
100
AcDbEntity
  8
部品1
100
AcDbText
 10
5312.108317982038
 20
1356.395013461177
 30
0.0
 40
135.0
  1
側面図
  7
STYLE2
100
AcDbText
  0
LINE
  5
1816E
330
747D
100
AcDbEntity
  8
部品1
100
AcDbLine
 10
5222.66221655843
 20
1549.288542679702
 30
0.0
 11
5222.66221655843
 21
1309.396221134169
 31
0.0
  0
LINE
  5
1816F
330
747D
100
AcDbEntity
  8
部品1
100
AcDbLine
 10
5222.66221655843
 20
1309.396221134169
 30
0.0
 11
5986.132882786871
 21
1309.396221134169
 31
0.0
  0
LINE
  5
18170
330
747D
100
AcDbEntity
  8
部品1
100
AcDbLine
 10
5986.132882786871
 20
1309.396221134169
 30
0.0
 11
5986.132882786871
 21
1549.288542679702
 31
0.0
  0
LINE
  5
18171
330
747D
100
AcDbEntity
  8
部品1
100
AcDbLine
 10
5986.132882786871
 20
1549.288542679702
 30
0.0
 11
5222.66221655843
 21
1549.288542679702
 31
0.0
  0
LINE
  5
18172
330
747D
100
AcDbEntity
  8
部品1
100
AcDbLine
 10
4499.397549672653
 20
2338.326805657112
 30
0.0
 11
4506.897549672652
 21
2338.326805657112
 31
0.0
  0
DIMENSION
  5
18173
330
747D
100
AcDbEntity
  8
寸法
100
AcDbDimension
  2
*D23
 10
3875.744840514356
 20
2388.326805657112
 30
0.0
 11
3875.744840514355
 21
3278.78110419907
 31
0.0
 70
   160
 71
     5
 42
1790.0
  3
INABA_S40G
100
AcDbAlignedDimension
 13
4499.397549672653
 23
4178.326805657112
 33
0.0
 14
4499.397549672653
 24
2388.326805657112
 34
0.0
 50
90.0
100
AcDbRotatedDimension
1001
ACAD
1000
DSTYLE
1002
{
1070
   174
1070
     0
1070
   272
1070
     1
1070
   288
1070
     0
1070
   341
1005
0
1002
}
  0
DIMENSION
  5
18174
330
747D
100
AcDbEntity
  8
寸法
100
AcDbDimension
  2
*D24
 10
3590.758167743294
 20
4413.326805657116
 30
0.0
 11
3590.758167743294
 21
3332.532683150223
 31
0.0
 70
   160
 71
     5
 42
2075.000000000004
  3
INABA_S40G
100
AcDbAlignedDimension
 13
4499.397549672653
 23
2338.326805657112
 33
0.0
 14
4439.397549672652
 24
4413.326805657116
 34
0.0
 50
90.0
100
AcDbRotatedDimension
1001
ACAD
1000
DSTYLE
1002
{
1070
   174
1070
     0
1070
   272
1070
     1
1070
   288
1070
     0
1070
   341
1005
0
1002
}
  0
DIMENSION
  5
18175
330
747D
100
AcDbEntity
  8
寸法
100
AcDbDimension
  2
*D25
 10
3590.758167743294
 20
2238.326805657112
 30
0.0
 11
3590.758167743294
 21
2002.279561562618
 31
0.0
 70
   160
 71
     5
 42
100.0
  3
INABA_S40G
100
AcDbAlignedDimension
 13
4444.397549672652
 23
2338.326805657112
 33
0.0
 14
3875.744840514355
 24
2238.326805657112
 34
0.0
 50
90.0
100
AcDbRotatedDimension
1001
ACAD
1000
DSTYLE
1002
{
1070
   174
1070
     0
1070
   272
1070
     1
1070
   288
1070
     0
1070
   341
1005
0
1002
}
  0
DIMENSION
  5
18176
330
747D
100
AcDbEntity
  8
寸法
100
AcDbDimension
  2
*D26
 10
3875.744840514356
 20
2338.326805657112
 30
0.0
 11
3875.744840514355
 21
2032.279561562619
 31
0.0
 70
   160
 71
     5
 42
50.0
  3
INABA_S40G
100
AcDbAlignedDimension
 13
4499.397549672653
 23
2388.326805657112
 33
0.0
 14
4444.397549672652
 24
2338.326805657112
 34
0.0
 50
90.0
100
AcDbRotatedDimension
1001
ACAD
1000
DSTYLE
1002
{
1070
   174
1070
     0
1070
   272
1070
     1
1070
   288
1070
     0
1070
   341
1005
0
1002
}
  0
LINE
  5
18177
330
747D
100
AcDbEntity
  8
破線
  6
HIDDEN
 48
5.0
100
AcDbLine
 10
6716.897549672653
 20
2083.326805657113
 30
0.0
 11
6646.897549672653
 21
2083.326805657113
 31
0.0
  0
LINE
  5
18178
330
747D
100
AcDbEntity
  8
破線
  6
HIDDEN
 48
5.0
100
AcDbLine
 10
6661.897549672652
 20
2233.326805657112
 30
0.0
 11
6646.897549672653
 21
2085.626805657112
 31
0.0
  0
LINE
  5
18179
330
747D
100
AcDbEntity
  8
破線
  6
HIDDEN
 48
5.0
100
AcDbLine
 10
6646.897549672653
 20
2085.626805657112
 30
0.0
 11
6646.897549672653
 21
2083.326805657113
 31
0.0
  0
LINE
  5
1817A
330
747D
100
AcDbEntity
  8
破線
  6
HIDDEN
 48
5.0
100
AcDbLine
 10
6701.897549672652
 20
2233.326805657112
 30
0.0
 11
6716.897549672653
 21
2085.626805657112
 31
0.0
  0
LINE
  5
1817B
330
747D
100
AcDbEntity
  8
破線
  6
HIDDEN
 48
5.0
100
AcDbLine
 10
6716.897549672653
 20
2085.626805657112
 30
0.0
 11
6716.897549672653
 21
2083.326805657113
 31
0.0
  0
LINE
  5
1817C
330
747D
100
AcDbEntity
  8
破線
  6
HIDDEN
 48
5.0
100
AcDbLine
 10
4491.897549672652
 20
2083.326805657113
 30
0.0
 11
4561.897549672653
 21
2083.326805657113
 31
0.0
  0
LINE
  5
1817D
330
747D
100
AcDbEntity
  8
破線
  6
HIDDEN
 48
5.0
100
AcDbLine
 10
4491.897549672652
 20
2085.626805657112
 30
0.0
 11
4491.897549672652
 21
2083.326805657113
 31
0.0
  0
LINE
  5
1817E
330
747D
100
AcDbEntity
  8
破線
  6
HIDDEN
 48
5.0
100
AcDbLine
 10
4561.897549672653
 20
2085.626805657112
 30
0.0
 11
4561.897549672653
 21
2083.326805657113
 31
0.0
  0
LINE
  5
1817F
330
747D
100
AcDbEntity
  8
破線
  6
HIDDEN
 48
5.0
100
AcDbLine
 10
4506.897549672652
 20
2233.326805657112
 30
0.0
 11
4491.897549672652
 21
2085.626805657112
 31
0.0
  0
LINE
  5
18180
330
747D
100
AcDbEntity
  8
破線
  6
HIDDEN
 48
5.0
100
AcDbLine
 10
4546.897549672652
 20
2233.326805657112
 30
0.0
 11
4561.897549672653
 21
2085.626805657112
 31
0.0
  0
LINE
  5
18181
330
747D
100
AcDbEntity
  8
部品1
 48
50.0
100
AcDbLine
 10
4506.897549672652
 20
2378.326805657112
 30
0.0
 11
4506.897549672652
 21
2238.326805657112
 31
0.0
  0
LINE
  5
18182
330
747D
100
AcDbEntity
  8
部品1
 48
50.0
100
AcDbLine
 10
4546.897549672652
 20
2378.326805657112
 30
0.0
 11
4546.897549672652
 21
2238.326805657112
 31
0.0
  0
LINE
  5
18183
330
747D
100
AcDbEntity
  8
部品1
100
AcDbLine
 10
4511.897549672652
 20
2383.326805657112
 30
0.0
 11
4541.897549672652
 21
2383.326805657112
 31
0.0
  0
ARC
  5
18184
330
747D
100
AcDbEntity
  8
部品1
 48
50.0
100
AcDbCircle
 10
4511.897549672652
 20
2378.326805657112
 30
0.0
 40
5.0
100
AcDbArc
 50
90.0
 51
180.0
  0
ARC
  5
18185
330
747D
100
AcDbEntity
  8
部品1
 48
50.0
100
AcDbCircle
 10
4541.897549672652
 20
2378.326805657112
 30
0.0
 40
5.0
100
AcDbArc
 50
0.0
 51
90.0
  0
LINE
  5
18186
330
747D
100
AcDbEntity
  8
部品1
 48
50.0
100
AcDbLine
 10
6661.897549672652
 20
2378.326805657112
 30
0.0
 11
6661.897549672652
 21
2238.326805657112
 31
0.0
  0
LINE
  5
18187
330
747D
100
AcDbEntity
  8
部品1
 48
50.0
100
AcDbLine
 10
6701.897549672652
 20
2378.326805657112
 30
0.0
 11
6701.897549672652
 21
2238.326805657112
 31
0.0
  0
LINE
  5
18188
330
747D
100
AcDbEntity
  8
部品1
100
AcDbLine
 10
6696.897549672653
 20
2383.326805657112
 30
0.0
 11
6666.897549672653
 21
2383.326805657112
 31
0.0
  0
ARC
  5
18189
330
747D
100
AcDbEntity
  8
部品1
 48
50.0
100
AcDbCircle
 10
6666.897549672653
 20
2378.326805657112
 30
0.0
 40
5.0
100
AcDbArc
 50
90.0
 51
180.0
  0
ARC
  5
1818A
330
747D
100
AcDbEntity
  8
部品1
 48
50.0
100
AcDbCircle
 10
6696.897549672653
 20
2378.326805657112
 30
0.0
 40
5.0
100
AcDbArc
 50
0.0
 51
90.0
  0
LINE
  5
1818B
330
747D
100
AcDbEntity
  8
破線
  6
HIDDEN
 48
5.0
100
AcDbLine
 10
6661.897549672652
 20
2238.326805657112
 30
0.0
 11
6661.897549672652
 21
2233.326805657112
 31
0.0
  0
LINE
  5
1818C
330
747D
100
AcDbEntity
  8
破線
  6
HIDDEN
 48
5.0
100
AcDbLine
 10
6701.897549672652
 20
2238.326805657112
 30
0.0
 11
6701.897549672652
 21
2233.326805657112
 31
0.0
  0
LINE
  5
1818D
330
747D
100
AcDbEntity
  8
破線
  6
HIDDEN
 48
5.0
100
AcDbLine
 10
4506.89754967266
 20
2238.326805657112
 30
0.0
 11
4506.89754967266
 21
2233.326805657112
 31
0.0
  0
LINE
  5
1818E
330
747D
100
AcDbEntity
  8
破線
  6
HIDDEN
 48
5.0
100
AcDbLine
 10
4546.897549672652
 20
2238.326805657112
 30
0.0
 11
4546.897549672652
 21
2233.326805657112
 31
0.0
  0
LINE
  5
1818F
330
747D
100
AcDbEntity
  8
部品1
100
AcDbLine
 10
6701.897549672652
 20
2338.326805657112
 30
0.0
 11
6709.397549672653
 21
2338.326805657112
 31
0.0
  0
DIMENSION
  5
18190
330
747D
100
AcDbEntity
  8
寸法
 48
50.0
100
AcDbDimension
  2
*D27
 10
3878.789142904285
 20
4287.672064530442
 30
0.0
 11
3889.45461816321
 21
4658.518727772145
 31
0.0
 70
   161
 71
     5
 42
141.0000000000009
  3
INABA_S40G
100
AcDbAlignedDimension
 13
4458.793569831231
 23
4412.049554491792
 33
0.0
 14
4454.740114274605
 24
4271.107830726077
 34
0.0
1001
ACAD
1000
DSTYLE
1002
{
1070
   174
1070
     0
1070
   272
1070
     1
1070
   288
1070
     0
1070
   341
1005
0
1002
}
  0
DIMENSION
  5
18191
330
747D
100
AcDbEntity
  8
寸法
 48
50.0
100
AcDbDimension
  2
*D28
 10
4277.397546426018
 20
2238.326805657111
 30
0.0
 11
4142.129126286883
 21
2108.471158924043
 31
0.0
 70
   160
 71
     5
 42
200.0
  3
INABA_S40G
100
AcDbAlignedDimension
 13
4426.897549672652
 23
2038.32680565711
 33
0.0
 14
4401.897549672653
 24
2238.326805657111
 34
0.0
 50
90.0
100
AcDbRotatedDimension
1001
ACAD
1000
DSTYLE
1002
{
1070
   174
1070
     0
1070
   272
1070
     1
1070
   279
1070
     2
1070
   341
1005
0
1002
}
  0
LINE
  5
18192
330
747D
100
AcDbEntity
  8
破線
 48
5.0
100
AcDbLine
 10
4626.897549672652
 20
2038.326805657109
 30
0.0
 11
4426.897549672652
 21
2038.326805657109
 31
0.0
  0
LINE
  5
18193
330
747D
100
AcDbEntity
  8
破線
 48
5.0
100
AcDbLine
 10
4626.897549672652
 20
2238.326805657112
 30
0.0
 11
4626.897549672652
 21
2038.326805657109
 31
0.0
  0
LINE
  5
18194
330
747D
100
AcDbEntity
  8
破線
 48
5.0
100
AcDbLine
 10
4426.897549672652
 20
2238.326805657112
 30
0.0
 11
4426.897549672652
 21
2038.326805657109
 31
0.0
  0
DIMENSION
  5
18195
330
747D
100
AcDbEntity
  8
寸法
 48
50.0
100
AcDbDimension
  2
*D29
 10
4426.897549672652
 20
1752.279476356732
 30
0.0
 11
4526.897549672653
 21
1752.279476356732
 31
0.0
 70
   160
 71
     5
 42
200.0
  3
INABA_S40G
100
AcDbAlignedDimension
 13
4626.897549672652
 23
2038.326805657109
 33
0.0
 14
4426.897549672652
 24
2038.32680565711
 34
0.0
100
AcDbRotatedDimension
  0
LINE
  5
18196
330
747D
100
AcDbEntity
  8
破線
 48
5.0
100
AcDbLine
 10
6781.89754967266
 20
2238.326805657112
 30
0.0
 11
6781.897549672653
 21
2038.326805657109
 31
0.0
  0
LINE
  5
18197
330
747D
100
AcDbEntity
  8
破線
 48
5.0
100
AcDbLine
 10
6781.897549672653
 20
2038.326805657109
 30
0.0
 11
6581.897549672659
 21
2038.326805657112
 31
0.0
  0
LINE
  5
18198
330
747D
100
AcDbEntity
  8
破線
 48
5.0
100
AcDbLine
 10
6581.897549672659
 20
2238.326805657112
 30
0.0
 11
6581.897549672659
 21
2038.326805657112
 31
0.0
  0
LINE
  5
18199
330
747D
100
AcDbEntity
  8
部品1
 48
50.0
100
AcDbLine
 10
6709.397549672653
 20
4173.326805657112
 30
0.0
 11
6786.397549672653
 21
4163.326805657113
 31
0.0
  0
LINE
  5
1819A
330
747D
100
AcDbEntity
  8
部品1
 48
50.0
100
AcDbLine
 10
6786.397549672653
 20
4163.326805657113
 30
0.0
 11
6786.397549672653
 21
2238.326805657112
 31
0.0
  0
LINE
  5
1819B
330
747D
100
AcDbEntity
  8
部品1
 48
50.0
100
AcDbLine
 10
6786.397549672653
 20
2338.326805657112
 30
0.0
 11
6701.897549672652
 21
2338.326805657112
 31
0.0
  0
LINE
  5
1819C
330
747D
100
AcDbEntity
  8
部品1
100
AcDbLine
 10
6509.397549672653
 20
2338.326805657112
 30
0.0
 11
6509.397549672653
 21
2238.326805657112
 31
0.0
  0
LINE
  5
1819D
330
747D
100
AcDbEntity
  8
部品1
 48
50.0
100
AcDbLine
 10
5704.397549672652
 20
2338.326805657112
 30
0.0
 11
5704.397549672652
 21
2238.326805657112
 31
0.0
  0
LINE
  5
1819E
330
747D
100
AcDbEntity
  8
部品1
 48
50.0
100
AcDbLine
 10
5504.397549672653
 20
2338.326805657112
 30
0.0
 11
5504.397549672653
 21
2238.326805657112
 31
0.0
  0
LINE
  5
1819F
330
747D
100
AcDbEntity
  8
部品1
100
AcDbLine
 10
4699.397549672652
 20
2338.326805657112
 30
0.0
 11
4699.397549672652
 21
2238.326805657112
 31
0.0
  0
TEXT
  5
181A0
330
747D
100
AcDbEntity
  8
部品1
100
AcDbText
 10
2708.027194682316
 20
2274.433709263014
 30
0.0
 40
125.0
  1
▽G.L
  7
STYLE2
100
AcDbText
  0
LINE
  5
184AB
330
747D
100
AcDbEntity
  8
補助
  6
PHANTOM
 62
   230
 48
50.0
100
AcDbLine
 10
140.0
 20
0.0
 30
0.0
 11
140.0
 21
11409.6
 31
0.0
  0
LINE
  5
1850C
330
747D
100
AcDbEntity
  8
部品1
100
AcDbLine
 10
11384.99457900991
 20
8287.682228198137
 30
0.0
 11
8867.994579009907
 21
8287.682228198042
 31
0.0
  0
LINE
  5
1850D
330
747D
100
AcDbEntity
  8
部品1
100
AcDbLine
 10
8839.494579009897
 20
8287.682228198042
 30
0.0
 11
8811.494579009897
 21
8287.682228198042
 31
0.0
  0
LINE
  5
1850E
330
747D
100
AcDbEntity
  8
部品1
100
AcDbLine
 10
11413.49457900992
 20
8287.682228198166
 30
0.0
 11
11441.49457900992
 21
8287.682228198166
 31
0.0
  0
LINE
  5
1887F
330
747D
100
AcDbEntity
  8
寸法
 48
50.0
100
AcDbLine
 10
9721.697585291735
 20
7170.71897976689
 30
0.0
 11
9670.291577381632
 21
7170.71897976689
 31
0.0
  0
LINE
  5
18880
330
747D
100
AcDbEntity
  8
寸法
 48
50.0
100
AcDbLine
 10
9670.291577381632
 20
7170.71897976689
 30
0.0
 11
9670.291577381632
 21
7202.029138419057
 31
0.0
  0
LINE
  5
18881
330
747D
100
AcDbEntity
  8
寸法
 48
50.0
100
AcDbLine
 10
9670.291577381632
 20
7202.029138419057
 30
0.0
 11
9640.530245390209
 21
7202.029138419057
 31
0.0
  0
LINE
  5
18882
330
747D
100
AcDbEntity
  8
寸法
 48
50.0
100
AcDbLine
 10
9640.530245390209
 20
7202.029138419057
 30
0.0
 11
9695.994581336684
 21
7239.608589347667
 31
0.0
  0
LINE
  5
18883
330
747D
100
AcDbEntity
  8
寸法
 48
50.0
100
AcDbLine
 10
9751.458917283159
 20
7202.029138419057
 30
0.0
 11
9695.994581336684
 21
7239.608589347667
 31
0.0
  0
LINE
  5
18884
330
747D
100
AcDbEntity
  8
寸法
 48
50.0
100
AcDbLine
 10
9721.697585291735
 20
7202.029138419057
 30
0.0
 11
9751.458917283159
 21
7202.029138419057
 31
0.0
  0
LINE
  5
18885
330
747D
100
AcDbEntity
  8
寸法
 48
50.0
100
AcDbLine
 10
9721.697585291735
 20
7170.71897976689
 30
0.0
 11
9721.697585291735
 21
7202.029138419057
 31
0.0
  0
LINE
  5
18886
330
747D
100
AcDbEntity
  8
寸法
 48
50.0
100
AcDbLine
 10
9670.291577381632
 20
7170.71897976689
 30
0.0
 11
9721.697585291735
 21
7170.71897976689
 31
0.0
  0
LINE
  5
18887
330
747D
100
AcDbEntity
  8
寸法
 48
50.0
100
AcDbLine
 10
10000.86311956859
 20
7227.864570521713
 30
0.0
 11
10000.86311956859
 21
7174.200935939923
 31
0.0
  0
LINE
  5
18888
330
747D
100
AcDbEntity
  8
寸法
 48
50.0
100
AcDbLine
 10
10090.14733816401
 20
7203.940936252227
 30
0.0
 11
10000.86311956859
 21
7227.864570521713
 31
0.0
  0
LINE
  5
18889
330
747D
100
AcDbEntity
  8
寸法
 48
50.0
100
AcDbLine
 10
9870.995397988288
 20
7203.940936252227
 30
0.0
 11
10090.14733816401
 21
7203.940936252227
 31
0.0
  0
LINE
  5
1888A
330
747D
100
AcDbEntity
  8
細線
 48
50.0
100
AcDbLine
 10
10747.49457900989
 20
7369.182343146753
 30
0.0
 11
11374.49457900989
 21
7369.182343146753
 31
0.0
  0
LINE
  5
1888B
330
747D
100
AcDbEntity
  8
細線
 48
50.0
100
AcDbLine
 10
10093.49458366348
 20
7335.473574592677
 30
0.0
 11
11374.49457900989
 21
7335.473574592677
 31
0.0
  0
LINE
  5
1888C
330
747D
100
AcDbEntity
  8
細線
 48
50.0
100
AcDbLine
 10
10052.49458366348
 20
7364.878482588931
 30
0.0
 11
9298.49457900989
 21
7364.878482588927
 31
0.0
  0
LINE
  5
1888D
330
747D
100
AcDbEntity
  8
細線
100
AcDbLine
 10
11150.24456959343
 20
7388.682243111762
 30
0.0
 11
11152.57610911524
 21
7393.682245751723
 31
0.0
  0
LINE
  5
1888E
330
747D
100
AcDbEntity
  8
細線
100
AcDbLine
 10
11220.24457900989
 20
7388.682228198027
 30
0.0
 11
11217.9130325337
 21
7393.682245751708
 31
0.0
  0
LINE
  5
1888F
330
747D
100
AcDbEntity
  8
細線
100
AcDbLine
 10
11217.9130325337
 20
7393.682245751708
 30
0.0
 11
11152.57610911523
 21
7393.682245751694
 31
0.0
  0
LINE
  5
18890
330
747D
100
AcDbEntity
  8
細線
100
AcDbLine
 10
11077.9130325337
 20
7393.682245751708
 30
0.0
 11
11012.57610911523
 21
7393.682245751694
 31
0.0
  0
LINE
  5
18891
330
747D
100
AcDbEntity
  8
細線
100
AcDbLine
 10
11080.24457900989
 20
7388.682228198027
 30
0.0
 11
11077.9130325337
 21
7393.682245751708
 31
0.0
  0
LINE
  5
18892
330
747D
100
AcDbEntity
  8
細線
100
AcDbLine
 10
11010.24456959343
 20
7388.682243111762
 30
0.0
 11
11012.57610911524
 21
7393.682245751723
 31
0.0
  0
LINE
  5
18893
330
747D
100
AcDbEntity
  8
細線
100
AcDbLine
 10
10870.24457900989
 20
7388.682228198027
 30
0.0
 11
10872.5761185317
 21
7393.682230837988
 31
0.0
  0
LINE
  5
18894
330
747D
100
AcDbEntity
  8
細線
100
AcDbLine
 10
10940.24458842635
 20
7388.682213284294
 30
0.0
 11
10937.91304195016
 21
7393.682230837974
 31
0.0
  0
LINE
  5
18895
330
747D
100
AcDbEntity
  8
細線
100
AcDbLine
 10
10937.91304195016
 20
7393.682230837974
 30
0.0
 11
10872.57611853169
 21
7393.68223083796
 31
0.0
  0
LINE
  5
18896
330
747D
100
AcDbEntity
  8
細線
100
AcDbLine
 10
10642.663063199
 20
7359.682267535356
 30
0.0
 11
10577.32613978052
 21
7359.682267535342
 31
0.0
  0
LINE
  5
18897
330
747D
100
AcDbEntity
  8
細線
100
AcDbLine
 10
10644.99460967518
 20
7354.682249981675
 30
0.0
 11
10642.663063199
 21
7359.682267535356
 31
0.0
  0
LINE
  5
18898
330
747D
100
AcDbEntity
  8
細線
100
AcDbLine
 10
10574.99460025873
 20
7354.682264895409
 30
0.0
 11
10577.32613978053
 21
7359.682267535371
 31
0.0
  0
LINE
  5
18899
330
747D
100
AcDbEntity
  8
細線
 48
50.0
100
AcDbLine
 10
10416.3779582579
 20
7372.953091351108
 30
0.0
 11
10422.13347584057
 21
7354.682240060622
 31
0.0
  0
LINE
  5
1889A
330
747D
100
AcDbEntity
  8
細線
 48
50.0
100
AcDbLine
 10
10405.44950977747
 20
7372.953091351108
 30
0.0
 11
10416.3779582579
 21
7372.953091351108
 31
0.0
  0
ARC
  5
1889B
330
747D
100
AcDbEntity
  8
細線
 48
50.0
100
AcDbCircle
 10
10399.99515372015
 20
7374.453091351108
 30
0.0
 40
5.0
100
AcDbArc
 50
204.6243183521304
 51
335.3756816478695
  0
ARC
  5
1889C
330
747D
100
AcDbEntity
  8
細線
 48
50.0
100
AcDbCircle
 10
10405.44950977747
 20
7371.953091351108
 30
0.0
 40
1.0
100
AcDbArc
 50
90.0
 51
155.3756816478695
  0
ARC
  5
1889D
330
747D
100
AcDbEntity
  8
細線
 48
50.0
100
AcDbCircle
 10
10394.54079766284
 20
7371.953091351108
 30
0.0
 40
1.0
100
AcDbArc
 50
24.62431835213048
 51
90.0
  0
LINE
  5
1889E
330
747D
100
AcDbEntity
  8
細線
 48
50.0
100
AcDbLine
 10
10383.6123491824
 20
7372.953091351108
 30
0.0
 11
10394.54079766284
 21
7372.953091351108
 31
0.0
  0
LINE
  5
1889F
330
747D
100
AcDbEntity
  8
細線
 48
50.0
100
AcDbLine
 10
10377.85683159973
 20
7354.682240060615
 30
0.0
 11
10383.6123491824
 21
7372.953091351108
 31
0.0
  0
LINE
  5
188A0
330
747D
100
AcDbEntity
  8
細線
100
AcDbLine
 10
10434.99460148977
 20
7354.682237426418
 30
0.0
 11
10437.32614101158
 21
7359.68224006638
 31
0.0
  0
LINE
  5
188A1
330
747D
100
AcDbEntity
  8
細線
100
AcDbLine
 10
10504.99461090623
 20
7354.682222512685
 30
0.0
 11
10502.66306443004
 21
7359.682240066366
 31
0.0
  0
LINE
  5
188A2
330
747D
100
AcDbEntity
  8
細線
100
AcDbLine
 10
10502.66306443004
 20
7359.682240066366
 30
0.0
 11
10437.32614101156
 21
7359.682240066351
 31
0.0
  0
LINE
  5
188A3
330
747D
100
AcDbEntity
  8
細線
100
AcDbLine
 10
10362.66303606552
 20
7359.682240060585
 30
0.0
 11
10297.32611264704
 21
7359.68224006057
 31
0.0
  0
LINE
  5
188A4
330
747D
100
AcDbEntity
  8
細線
100
AcDbLine
 10
10364.99458254171
 20
7354.682222506905
 30
0.0
 11
10362.66303606552
 21
7359.682240060585
 31
0.0
  0
LINE
  5
188A5
330
747D
100
AcDbEntity
  8
細線
100
AcDbLine
 10
10294.99457435629
 20
7354.682240060615
 30
0.0
 11
10297.32611264706
 21
7359.6822400606
 31
0.0
  0
LINE
  5
188A6
330
747D
100
AcDbEntity
  8
細線
100
AcDbLine
 10
10154.99460967518
 20
7354.682248247984
 30
0.0
 11
10157.32614796595
 21
7359.68224824797
 31
0.0
  0
LINE
  5
188A7
330
747D
100
AcDbEntity
  8
細線
100
AcDbLine
 10
10224.9946178606
 20
7354.682230694274
 30
0.0
 11
10222.66307138441
 21
7359.682248247951
 31
0.0
  0
LINE
  5
188A8
330
747D
100
AcDbEntity
  8
細線
100
AcDbLine
 10
10222.66307138441
 20
7359.682248247951
 30
0.0
 11
10157.32614796593
 21
7359.682248247939
 31
0.0
  0
LINE
  5
188A9
330
747D
100
AcDbEntity
  8
細線
100
AcDbLine
 10
9783.494575478064
 20
7320.682419928697
 30
0.0
 11
9785.826113768832
 21
7325.682419928682
 31
0.0
  0
LINE
  5
188AA
330
747D
100
AcDbEntity
  8
細線
100
AcDbLine
 10
9853.494583663481
 20
7320.682402374983
 30
0.0
 11
9851.163037187292
 21
7325.68241992866
 31
0.0
  0
LINE
  5
188AB
330
747D
100
AcDbEntity
  8
細線
100
AcDbLine
 10
9851.163037187292
 20
7325.68241992866
 30
0.0
 11
9785.82611376882
 21
7325.682419928653
 31
0.0
  0
LINE
  5
188AC
330
747D
100
AcDbEntity
  8
細線
100
AcDbLine
 10
9991.163037187293
 20
7325.68241992866
 30
0.0
 11
9925.82611376882
 21
7325.682419928653
 31
0.0
  0
LINE
  5
188AD
330
747D
100
AcDbEntity
  8
細線
100
AcDbLine
 10
9993.49458366348
 20
7320.682402374983
 30
0.0
 11
9991.163037187293
 21
7325.68241992866
 31
0.0
  0
LINE
  5
188AE
330
747D
100
AcDbEntity
  8
細線
100
AcDbLine
 10
9923.494575478065
 20
7320.682419928697
 30
0.0
 11
9925.826113768833
 21
7325.682419928682
 31
0.0
  0
LINE
  5
188AF
330
747D
100
AcDbEntity
  8
細線
100
AcDbLine
 10
9711.163037187294
 20
7325.68241992866
 30
0.0
 11
9645.826113768821
 21
7325.68241992865
 31
0.0
  0
LINE
  5
188B0
330
747D
100
AcDbEntity
  8
細線
100
AcDbLine
 10
9713.49458366348
 20
7320.682402374983
 30
0.0
 11
9711.163037187294
 21
7325.68241992866
 31
0.0
  0
LINE
  5
188B1
330
747D
100
AcDbEntity
  8
細線
100
AcDbLine
 10
9643.494575478065
 20
7320.682419928693
 30
0.0
 11
9645.826113768832
 21
7325.682419928678
 31
0.0
  0
LINE
  5
188B2
330
747D
100
AcDbEntity
  8
細線
100
AcDbLine
 10
9503.49458366348
 20
7320.682419928697
 30
0.0
 11
9505.826121954248
 21
7325.682419928682
 31
0.0
  0
LINE
  5
188B3
330
747D
100
AcDbEntity
  8
細線
100
AcDbLine
 10
9573.494591848897
 20
7320.682402374983
 30
0.0
 11
9571.163045372708
 21
7325.68241992866
 31
0.0
  0
LINE
  5
188B4
330
747D
100
AcDbEntity
  8
細線
100
AcDbLine
 10
9571.163045372708
 20
7325.68241992866
 30
0.0
 11
9505.826121954235
 21
7325.682419928653
 31
0.0
  0
ARC
  5
188B5
330
747D
100
AcDbEntity
  8
部品1
 48
0.01
100
AcDbCircle
 10
9458.994472411145
 20
7319.681297743624
 30
0.0
 40
0.5
100
AcDbArc
 50
270.0
 51
0.0
  0
LINE
  5
188B6
330
747D
100
AcDbEntity
  8
部品1
 48
0.01
100
AcDbLine
 10
9459.494472411144
 20
7320.681297743624
 30
0.0
 11
9459.494472411144
 21
7319.681297743624
 31
0.0
  0
LINE
  5
188B7
330
747D
100
AcDbEntity
  8
部品1
 48
0.01
100
AcDbLine
 10
9459.494472411144
 20
7320.681297743624
 30
0.0
 11
9459.494472411144
 21
7319.681297743624
 31
0.0
  0
LINE
  5
188B8
330
747D
100
AcDbEntity
  8
部品1
 48
0.01
100
AcDbLine
 10
9458.994472411145
 20
7319.181297743624
 30
0.0
 11
9452.38196698108
 21
7319.181297743624
 31
0.0
  0
ARC
  5
188B9
330
747D
100
AcDbEntity
  8
部品1
100
AcDbCircle
 10
9452.450316533861
 20
7320.181297743623
 30
0.0
 40
1.0
100
AcDbArc
 50
160.5287793655778
 51
270.0
  0
ARC
  5
188BA
330
747D
100
AcDbEntity
  8
部品1
100
AcDbCircle
 10
9426.994472411145
 20
7329.181297743623
 30
0.0
 40
26.0
100
AcDbArc
 50
340.5287793655779
 51
0.0
  0
LINE
  5
188BB
330
747D
100
AcDbEntity
  8
部品1
100
AcDbLine
 10
9452.994472411145
 20
7329.181297743623
 30
0.0
 11
9452.994472411145
 21
7334.181297743623
 31
0.0
  0
ARC
  5
188BC
330
747D
100
AcDbEntity
  8
部品1
 48
0.01
100
AcDbCircle
 10
9450.994472411144
 20
7334.181297743623
 30
0.0
 40
2.0
100
AcDbArc
 50
0.0
 51
90.0
  0
ARC
  5
188BD
330
747D
100
AcDbEntity
  8
部品1
100
AcDbCircle
 10
9449.386080786336
 20
7333.181297743625
 30
0.0
 40
3.0
100
AcDbArc
 50
90.0
 51
141.6069559807873
  0
LINE
  5
188BE
330
747D
100
AcDbEntity
  8
部品1
 48
0.01
100
AcDbLine
 10
9450.994472411144
 20
7336.181297743625
 30
0.0
 11
9449.386080786336
 21
7336.181297743625
 31
0.0
  0
ARC
  5
188BF
330
747D
100
AcDbEntity
  8
部品1
100
AcDbCircle
 10
9430.923758196874
 20
7332.481297743626
 30
0.0
 40
3.0
100
AcDbArc
 50
254.0576313943215
 51
270.0
  0
ARC
  5
188C0
330
747D
100
AcDbEntity
  8
部品1
100
AcDbCircle
 10
9438.065186625415
 20
7332.481297743626
 30
0.0
 40
3.0
100
AcDbArc
 50
270.0
 51
285.9423686056786
  0
LINE
  5
188C1
330
747D
100
AcDbEntity
  8
部品1
100
AcDbLine
 10
9438.065186625415
 20
7329.481297743626
 30
0.0
 11
9430.923758196874
 21
7329.481297743626
 31
0.0
  0
ARC
  5
188C2
330
747D
100
AcDbEntity
  8
部品1
100
AcDbCircle
 10
9434.494472411143
 20
7344.981297743626
 30
0.0
 40
16.0
100
AcDbArc
 50
285.9423686056786
 51
321.6069559807873
  0
LINE
  5
188C3
330
747D
100
AcDbEntity
  8
部品1
 48
0.01
100
AcDbLine
 10
9417.994472411145
 20
7336.181297743625
 30
0.0
 11
9419.602864035955
 21
7336.181297743625
 31
0.0
  0
ARC
  5
188C4
330
747D
100
AcDbEntity
  8
部品1
100
AcDbCircle
 10
9419.602864035955
 20
7333.181297743625
 30
0.0
 40
3.0
100
AcDbArc
 50
38.39304401921267
 51
90.0
  0
ARC
  5
188C5
330
747D
100
AcDbEntity
  8
部品1
100
AcDbCircle
 10
9434.494472411143
 20
7344.981297743626
 30
0.0
 40
16.0
100
AcDbArc
 50
218.3930440192126
 51
254.0576313943215
  0
LINE
  5
188C6
330
747D
100
AcDbEntity
  8
部品1
100
AcDbLine
 10
9415.994472411146
 20
7329.181297743623
 30
0.0
 11
9415.994472411146
 21
7334.181297743623
 31
0.0
  0
ARC
  5
188C7
330
747D
100
AcDbEntity
  8
部品1
 48
0.01
100
AcDbCircle
 10
9417.994472411145
 20
7334.181297743623
 30
0.0
 40
2.0
100
AcDbArc
 50
90.0
 51
180.0
  0
ARC
  5
188C8
330
747D
100
AcDbEntity
  8
部品1
100
AcDbCircle
 10
9441.994472411144
 20
7329.181297743623
 30
0.0
 40
26.0
100
AcDbArc
 50
180.0
 51
199.4712206344221
  0
ARC
  5
188C9
330
747D
100
AcDbEntity
  8
部品1
 48
0.01
100
AcDbCircle
 10
9409.994472411145
 20
7319.681297743624
 30
0.0
 40
0.5
100
AcDbArc
 50
180.0
 51
270.0
  0
LINE
  5
188CA
330
747D
100
AcDbEntity
  8
部品1
 48
0.01
100
AcDbLine
 10
9409.994472411145
 20
7319.181297743624
 30
0.0
 11
9416.538628288428
 21
7319.181297743624
 31
0.0
  0
LINE
  5
188CB
330
747D
100
AcDbEntity
  8
部品1
 48
0.01
100
AcDbLine
 10
9409.494472411145
 20
7320.681297743624
 30
0.0
 11
9409.494472411145
 21
7319.681297743624
 31
0.0
  0
ARC
  5
188CC
330
747D
100
AcDbEntity
  8
部品1
100
AcDbCircle
 10
9416.538628288428
 20
7320.181297743623
 30
0.0
 40
1.0
100
AcDbArc
 50
270.0
 51
19.47122063442214
  0
LINE
  5
188CD
330
747D
100
AcDbEntity
  8
細線
100
AcDbLine
 10
9454.994472411152
 20
7338.681297743628
 30
0.0
 11
9413.994472411152
 21
7338.681297743621
 31
0.0
  0
LINE
  5
188CE
330
747D
100
AcDbEntity
  8
細線
100
AcDbLine
 10
9413.994472411152
 20
7338.681297743621
 30
0.0
 11
9413.994472411152
 21
7320.681297743601
 31
0.0
  0
LINE
  5
188CF
330
747D
100
AcDbEntity
  8
細線
100
AcDbLine
 10
9454.994472411152
 20
7338.681297743628
 30
0.0
 11
9454.994472411152
 21
7320.681297743601
 31
0.0
  0
LINE
  5
188D0
330
747D
100
AcDbEntity
  8
細線
100
AcDbLine
 10
9298.49457900989
 20
7324.682228198027
 30
0.0
 11
9298.49457900989
 21
7320.682228198075
 31
0.0
  0
DIMENSION
  5
188D1
330
747D
100
AcDbEntity
  8
寸法
 48
50.0
100
AcDbDimension
  2
*D30
 10
10564.49457900989
 20
6666.307982014995
 30
0.0
 11
9924.574071671669
 21
6666.307982014995
 31
0.0
 70
   160
  1
有効開口部間口\P<>
 71
     5
 42
1266.0
  3
INABA_S40
100
AcDbAlignedDimension
 13
9298.49457900989
 23
7315.682228198028
 33
0.0
 14
10564.49457900989
 24
7315.682228198028
 34
0.0
100
AcDbRotatedDimension
1001
ACAD
1000
DSTYLE
1002
{
1070
    41
1040
0.5
1070
    44
1040
1.0
1070
   147
1040
0.8
1070
   271
1070
     2
1070
   272
1070
     2
1070
   289
1070
     3
1070
   340
1005
F706
1070
   343
1005
16ED2
1070
   344
1005
16ED2
1002
}
  0
LINE
  5
188D2
330
747D
100
AcDbEntity
  8
部品1
100
AcDbLine
 10
11386.49457900989
 20
7392.682228198028
 30
0.0
 11
11413.49457900989
 21
7392.682228198028
 31
0.0
  0
LINE
  5
188D4
330
747D
100
AcDbEntity
  8
部品1
100
AcDbLine
 10
11413.49457900989
 20
7315.682228198028
 30
0.0
 11
11413.49457900989
 21
7392.682228198028
 31
0.0
  0
LINE
  5
188D5
330
747D
100
AcDbEntity
  8
部品1
100
AcDbLine
 10
11374.49457900989
 20
7388.682228198027
 30
0.0
 11
11386.49457900989
 21
7388.682228198027
 31
0.0
  0
LINE
  5
188D6
330
747D
100
AcDbEntity
  8
部品1
100
AcDbLine
 10
11383.49457900989
 20
7324.682228198027
 30
0.0
 11
11383.49457900989
 21
7315.682228198028
 31
0.0
  0
LINE
  5
188D7
330
747D
100
AcDbEntity
  8
部品1
100
AcDbLine
 10
11374.49457900989
 20
7324.682228198027
 30
0.0
 11
11383.49457900989
 21
7324.682228198027
 31
0.0
  0
LINE
  5
188D8
330
747D
100
AcDbEntity
  8
部品1
100
AcDbLine
 10
11374.49457900989
 20
7388.682228198027
 30
0.0
 11
11374.49457900989
 21
7324.682228198027
 31
0.0
  0
LINE
  5
188D9
330
747D
100
AcDbEntity
  8
部品1
100
AcDbLine
 10
11386.49457900989
 20
7419.682228198027
 30
0.0
 11
11386.49457900989
 21
7388.682228198027
 31
0.0
  0
LINE
  5
188DA
330
747D
100
AcDbEntity
  8
部品1
100
AcDbLine
 10
9298.49457900989
 20
7388.682228198027
 30
0.0
 11
9286.49457900989
 21
7388.682228198027
 31
0.0
  0
LINE
  5
188DB
330
747D
100
AcDbEntity
  8
部品1
100
AcDbLine
 10
9259.49457900989
 20
7392.682228198028
 30
0.0
 11
9286.49457900989
 21
7392.682228198028
 31
0.0
  0
LINE
  5
188DC
330
747D
100
AcDbEntity
  8
部品1
100
AcDbLine
 10
9289.49457900989
 20
7324.682228198027
 30
0.0
 11
9289.49457900989
 21
7315.682228198028
 31
0.0
  0
LINE
  5
188DD
330
747D
100
AcDbEntity
  8
部品1
100
AcDbLine
 10
9298.49457900989
 20
7324.682228198027
 30
0.0
 11
9289.49457900989
 21
7324.682228198027
 31
0.0
  0
LINE
  5
188DE
330
747D
100
AcDbEntity
  8
部品1
100
AcDbLine
 10
9289.49457900989
 20
7315.682228198028
 30
0.0
 11
9259.49457900989
 21
7315.682228198028
 31
0.0
  0
LINE
  5
188DF
330
747D
100
AcDbEntity
  8
部品1
100
AcDbLine
 10
9259.49457900989
 20
7315.682228198028
 30
0.0
 11
9259.49457900989
 21
7392.682228198028
 31
0.0
  0
LINE
  5
188E0
330
747D
100
AcDbEntity
  8
部品1
100
AcDbLine
 10
9298.49457900989
 20
7388.682228198027
 30
0.0
 11
9298.49457900989
 21
7324.682228198027
 31
0.0
  0
LINE
  5
188E1
330
747D
100
AcDbEntity
  8
部品1
100
AcDbLine
 10
9286.49457900989
 20
7419.682228198024
 30
0.0
 11
9286.49457900989
 21
7388.682228198027
 31
0.0
  0
LINE
  5
188E2
330
747D
100
AcDbEntity
  8
部品1
100
AcDbLine
 10
9286.49457900989
 20
7419.682228198024
 30
0.0
 11
11386.49457900989
 21
7419.682228198027
 31
0.0
  0
LINE
  5
188E3
330
747D
100
AcDbEntity
  8
部品1
100
AcDbLine
 10
11383.49457900989
 20
7315.682228198028
 30
0.0
 11
11413.49457900989
 21
7315.682228198028
 31
0.0
  0
LINE
  5
188E4
330
747D
100
AcDbEntity
  8
部品1
100
AcDbLine
 10
9289.49457900989
 20
7315.682228198028
 30
0.0
 11
11386.49457900989
 21
7315.682228198028
 31
0.0
  0
LINE
  5
188E5
330
747D
100
AcDbEntity
  8
細線
  6
Continuous
 62
     5
100
AcDbLine
 10
10665.49457900989
 20
7354.682228198024
 30
0.0
 11
10665.49457900989
 21
7354.682228198024
 31
0.0
  0
LINE
  5
188E6
330
747D
100
AcDbEntity
  8
細線
  6
Continuous
 62
     5
100
AcDbLine
 10
10657.99461432878
 20
7354.682238119082
 30
0.0
 11
10657.99461432878
 21
7354.682238119082
 31
0.0
  0
LINE
  5
188E7
330
747D
100
AcDbEntity
  8
細線
  6
Continuous
 62
     5
100
AcDbLine
 10
10651.99461432878
 20
7354.682238119082
 30
0.0
 11
10651.99461432878
 21
7354.682238119082
 31
0.0
  0
LINE
  5
188E8
330
747D
100
AcDbEntity
  8
細線
  6
Continuous
 62
     5
100
AcDbLine
 10
10719.49457900989
 20
7373.682228198024
 30
0.0
 11
10719.49457900989
 21
7373.682228198024
 31
0.0
  0
LINE
  5
188E9
330
747D
100
AcDbEntity
  8
細線
 48
50.0
100
AcDbLine
 10
9312.494583663484
 20
7341.282402374982
 30
0.0
 11
9312.494583663484
 21
7349.678552782622
 31
0.0
  0
LINE
  5
188EA
330
747D
100
AcDbEntity
  8
細線
 48
50.0
100
AcDbLine
 10
9312.494583663484
 20
7349.678552782622
 30
0.0
 11
9298.49457900989
 21
7349.678552782617
 31
0.0
  0
LINE
  5
188EB
330
747D
100
AcDbEntity
  8
細線
 48
50.0
100
AcDbLine
 10
10063.49458366348
 20
7337.832402374981
 30
0.0
 11
10063.49458366348
 21
7342.682402374983
 31
0.0
  0
LINE
  5
188EC
330
747D
100
AcDbEntity
  8
細線
 48
50.0
100
AcDbLine
 10
10063.49458366348
 20
7342.682402374983
 30
0.0
 11
10078.49458366348
 21
7342.682402374983
 31
0.0
  0
LINE
  5
188ED
330
747D
100
AcDbEntity
  8
細線
 48
50.0
100
AcDbLine
 10
10078.49458366348
 20
7342.682402374983
 30
0.0
 11
10078.49458366348
 21
7349.682402374984
 31
0.0
  0
LINE
  5
188EE
330
747D
100
AcDbEntity
  8
細線
 48
50.0
100
AcDbLine
 10
10078.49458366348
 20
7349.682402374984
 30
0.0
 11
10093.49458366348
 21
7349.682402374984
 31
0.0
  0
LINE
  5
188EF
330
747D
100
AcDbEntity
  8
細線
 48
50.0
100
AcDbLine
 10
10093.49458366348
 20
7349.682402374984
 30
0.0
 11
10093.49458366348
 21
7320.682402374983
 31
0.0
  0
LINE
  5
188F0
330
747D
100
AcDbEntity
  8
細線
 48
50.0
100
AcDbLine
 10
9289.49457900989
 20
7320.679736718452
 30
0.0
 11
9503.49458366348
 21
7320.682419928697
 31
0.0
  0
LINE
  5
188F1
330
747D
100
AcDbEntity
  8
細線
 48
50.0
100
AcDbLine
 10
9993.49458366348
 20
7320.682402374983
 30
0.0
 11
10093.49458366348
 21
7320.682402374983
 31
0.0
  0
LINE
  5
188F2
330
747D
100
AcDbEntity
  8
細線
 48
50.0
100
AcDbLine
 10
9713.49458366348
 20
7320.682402374983
 30
0.0
 11
9783.494583663481
 21
7320.682402374983
 31
0.0
  0
LINE
  5
188F3
330
747D
100
AcDbEntity
  8
細線
 48
50.0
100
AcDbLine
 10
9726.356548676008
 20
7320.682402374983
 30
0.0
 11
9732.112066258677
 21
7338.953253665477
 31
0.0
  0
LINE
  5
188F4
330
747D
100
AcDbEntity
  8
細線
 48
50.0
100
AcDbLine
 10
9732.112066258677
 20
7338.953253665477
 30
0.0
 11
9743.04051473911
 21
7338.953253665474
 31
0.0
  0
ARC
  5
188F5
330
747D
100
AcDbEntity
  8
細線
 48
50.0
100
AcDbCircle
 10
9743.04051473911
 20
7337.953253665474
 30
0.0
 40
1.0
100
AcDbArc
 50
24.62431835213048
 51
90.0
  0
ARC
  5
188F6
330
747D
100
AcDbEntity
  8
細線
 48
50.0
100
AcDbCircle
 10
9753.949226853743
 20
7337.953253665474
 30
0.0
 40
1.0
100
AcDbArc
 50
90.0
 51
155.3756816478695
  0
ARC
  5
188F7
330
747D
100
AcDbEntity
  8
細線
 48
50.0
100
AcDbCircle
 10
9748.494870796426
 20
7340.453253665474
 30
0.0
 40
5.0
100
AcDbArc
 50
204.6243183521304
 51
335.3756816478695
  0
LINE
  5
188F8
330
747D
100
AcDbEntity
  8
細線
 48
50.0
100
AcDbLine
 10
9753.949226853743
 20
7338.953253665474
 30
0.0
 11
9764.877675334178
 21
7338.953253665477
 31
0.0
  0
LINE
  5
188F9
330
747D
100
AcDbEntity
  8
細線
 48
50.0
100
AcDbLine
 10
9764.877675334178
 20
7338.953253665477
 30
0.0
 11
9770.633192916845
 21
7320.682402374983
 31
0.0
  0
LINE
  5
188FA
330
747D
100
AcDbEntity
  8
細線
 48
50.0
100
AcDbLine
 10
10063.49458366348
 20
7341.282402374982
 30
0.0
 11
9312.494583663484
 21
7341.282402374982
 31
0.0
  0
LINE
  5
188FB
330
747D
100
AcDbEntity
  8
細線
 48
50.0
100
AcDbLine
 10
9923.49458366348
 20
7320.682402374983
 30
0.0
 11
9853.494583663481
 21
7320.682402374983
 31
0.0
  0
LINE
  5
188FC
330
747D
100
AcDbEntity
  8
細線
100
AcDbLine
 10
9643.49458366348
 20
7320.682402374983
 30
0.0
 11
9573.494591848897
 21
7320.682402374983
 31
0.0
  0
LINE
  5
188FD
330
747D
100
AcDbEntity
  8
細線
 48
50.0
100
AcDbLine
 10
10717.4945743563
 20
7375.282446232851
 30
0.0
 11
10082.49458366348
 21
7375.282446232846
 31
0.0
  0
LINE
  5
188FE
330
747D
100
AcDbEntity
  8
細線
 48
50.0
100
AcDbLine
 10
10082.49458366348
 20
7372.178596640489
 30
0.0
 11
10082.49458366348
 21
7376.678596640489
 31
0.0
  0
LINE
  5
188FF
330
747D
100
AcDbEntity
  8
細線
 48
50.0
100
AcDbLine
 10
10082.49458366348
 20
7376.678596640489
 30
0.0
 11
10067.49458366348
 21
7376.678596640489
 31
0.0
  0
LINE
  5
18900
330
747D
100
AcDbEntity
  8
細線
 48
50.0
100
AcDbLine
 10
10067.49458366348
 20
7376.678596640489
 30
0.0
 11
10067.49458366348
 21
7383.67859664049
 31
0.0
  0
LINE
  5
18901
330
747D
100
AcDbEntity
  8
細線
 48
50.0
100
AcDbLine
 10
10067.49458366348
 20
7383.67859664049
 30
0.0
 11
10052.49458366348
 21
7383.678596640486
 31
0.0
  0
LINE
  5
18902
330
747D
100
AcDbEntity
  8
細線
 48
50.0
100
AcDbLine
 10
10052.49458366348
 20
7383.678596640486
 30
0.0
 11
10052.49458366348
 21
7346.078368537376
 31
0.0
  0
LINE
  5
18903
330
747D
100
AcDbEntity
  8
細線
 48
50.0
100
AcDbLine
 10
10052.49458366348
 20
7346.078368537376
 30
0.0
 11
10072.49459096465
 21
7346.078410086917
 31
0.0
  0
LINE
  5
18904
330
747D
100
AcDbEntity
  8
細線
 48
50.0
100
AcDbLine
 10
10072.49454609571
 20
7354.681871722725
 30
0.0
 11
10072.49459096465
 21
7346.078410086917
 31
0.0
  0
LINE
  5
18905
330
747D
100
AcDbEntity
  8
細線
 48
50.0
100
AcDbLine
 10
10717.4945743563
 20
7371.83244623285
 30
0.0
 11
10717.4945743563
 21
7376.682446232847
 31
0.0
  0
LINE
  5
18906
330
747D
100
AcDbEntity
  8
細線
 48
50.0
100
AcDbLine
 10
10717.4945743563
 20
7376.682446232847
 30
0.0
 11
10732.4945743563
 21
7376.682446232847
 31
0.0
  0
LINE
  5
18907
330
747D
100
AcDbEntity
  8
細線
 48
50.0
100
AcDbLine
 10
10732.4945743563
 20
7376.682446232847
 30
0.0
 11
10732.49458599027
 21
7383.682446232892
 31
0.0
  0
LINE
  5
18908
330
747D
100
AcDbEntity
  8
細線
 48
50.0
100
AcDbLine
 10
10732.49458599027
 20
7383.682446232892
 30
0.0
 11
10747.4945841608
 21
7383.682446232892
 31
0.0
  0
LINE
  5
18909
330
747D
100
AcDbEntity
  8
細線
 48
50.0
100
AcDbLine
 10
10747.4945841608
 20
7383.682446232892
 30
0.0
 11
10747.49457385898
 21
7354.682240060617
 31
0.0
  0
LINE
  5
1890A
330
747D
100
AcDbEntity
  8
細線
 48
50.0
100
AcDbLine
 10
10434.99460148977
 20
7354.682248247984
 30
0.0
 11
10364.99485357218
 21
7354.682242810646
 31
0.0
  0
LINE
  5
1890B
330
747D
100
AcDbEntity
  8
細線
 48
50.0
100
AcDbLine
 10
10072.49454609571
 20
7354.681871722725
 30
0.0
 11
10083.72723545042
 21
7354.682054675873
 31
0.0
  0
ARC
  5
1890C
330
747D
100
AcDbEntity
  8
細線
 48
50.0
100
AcDbCircle
 10
10090.30952775776
 20
7353.482218589485
 30
0.0
 40
1.8
100
AcDbArc
 50
270.0006665777295
 51
345.0005554812987
  0
LINE
  5
1890D
330
747D
100
AcDbEntity
  8
細線
 48
50.0
100
AcDbLine
 10
10092.29596120384
 20
7353.941059046764
 30
0.0
 11
10092.04819876164
 21
7353.016361164657
 31
0.0
  0
LINE
  5
1890E
330
747D
100
AcDbEntity
  8
細線
 48
50.0
100
AcDbLine
 10
10090.30954869891
 20
7351.682218589606
 30
0.0
 11
10086.67962128014
 21
7351.682176359125
 31
0.0
  0
ARC
  5
1890F
330
747D
100
AcDbEntity
  8
細線
 48
50.0
100
AcDbCircle
 10
10086.67960033899
 20
7353.482176359005
 30
0.0
 40
1.8
100
AcDbArc
 50
195.0010443049394
 51
270.0006665777295
  0
LINE
  5
18910
330
747D
100
AcDbEntity
  8
細線
 48
50.0
100
AcDbLine
 10
10084.69317284673
 20
7353.940891326569
 30
0.0
 11
10084.94094234325
 21
7353.016270387986
 31
0.0
  0
ARC
  5
18911
330
747D
100
AcDbEntity
  8
細線
 48
50.0
100
AcDbCircle
 10
10083.72725173798
 20
7353.682054676006
 30
0.0
 40
1.0
100
AcDbArc
 50
15.00104430493943
 51
90.00093320877969
  0
LINE
  5
18912
330
747D
100
AcDbEntity
  8
細線
 48
50.0
100
AcDbLine
 10
10093.26188255894
 20
7354.682249366277
 30
0.0
 11
10094.20364270984
 21
7354.682255940126
 31
0.0
  0
ARC
  5
18913
330
747D
100
AcDbEntity
  8
細線
 48
50.0
100
AcDbCircle
 10
10093.26188953933
 20
7353.682249366302
 30
0.0
 40
1.0
100
AcDbArc
 50
90.0003999466794
 51
165.0005554812987
  0
LINE
  5
18914
330
747D
100
AcDbEntity
  8
細線
 48
50.0
100
AcDbLine
 10
10644.99457435629
 20
7354.682240060617
 30
0.0
 11
10747.49457385898
 21
7354.682240060617
 31
0.0
  0
LINE
  5
18915
330
747D
100
AcDbEntity
  8
細線
 48
50.0
100
AcDbLine
 10
10154.99460967518
 20
7354.682248247984
 30
0.0
 11
10093.89454844826
 21
7354.682255940126
 31
0.0
  0
LINE
  5
18916
330
747D
100
AcDbEntity
  8
細線
 48
50.0
100
AcDbLine
 10
10574.99460967518
 20
7354.682285089066
 30
0.0
 11
10504.9946027208
 21
7354.682240066399
 31
0.0
  0
LINE
  5
18917
330
747D
100
AcDbEntity
  8
細線
 48
50.0
100
AcDbLine
 10
10294.99457435629
 20
7354.682240060615
 30
0.0
 11
10224.99455706842
 21
7354.682240060622
 31
0.0
  0
ARC
  5
18918
330
747D
100
AcDbEntity
  8
細線
 48
50.0
100
AcDbCircle
 10
10731.6945790099
 20
7387.882228198029
 30
0.0
 40
0.8
100
AcDbArc
 50
359.9997333689499
 51
89.99986668437072
  0
ARC
  5
18919
330
747D
100
AcDbEntity
  8
細線
 48
50.0
100
AcDbCircle
 10
10739.29458583499
 20
7387.882239366645
 30
0.0
 40
0.8
100
AcDbArc
 50
90.00014387753465
 51
179.9997333689498
  0
LINE
  5
1891A
330
747D
100
AcDbEntity
  8
細線
 48
50.0
100
AcDbLine
 10
10731.69458087133
 20
7388.682228198027
 30
0.0
 11
10726.49457900989
 21
7388.682228198027
 31
0.0
  0
ARC
  5
1891B
330
747D
100
AcDbEntity
  8
細線
 48
50.0
100
AcDbCircle
 10
10733.19457900989
 20
7386.382228198029
 30
0.0
 40
0.7
100
AcDbArc
 50
180.0
 51
270.0
  0
ARC
  5
1891C
330
747D
100
AcDbEntity
  8
細線
 48
50.0
100
AcDbCircle
 10
10737.79457900989
 20
7386.382228198029
 30
0.0
 40
0.7
100
AcDbArc
 50
270.0
 51
0.0
  0
LINE
  5
1891D
330
747D
100
AcDbEntity
  8
細線
 48
50.0
100
AcDbLine
 10
10738.49457900989
 20
7386.382228198029
 30
0.0
 11
10738.49458583501
 21
7387.882243089517
 31
0.0
  0
LINE
  5
1891E
330
747D
100
AcDbEntity
  8
細線
 48
50.0
100
AcDbLine
 10
10733.19457900989
 20
7385.682228198027
 30
0.0
 11
10737.79457900989
 21
7385.682228198027
 31
0.0
  0
LINE
  5
1891F
330
747D
100
AcDbEntity
  8
細線
 48
50.0
100
AcDbLine
 10
10732.49457900989
 20
7387.882228198029
 30
0.0
 11
10732.49457900989
 21
7386.382228198029
 31
0.0
  0
LINE
  5
18920
330
747D
100
AcDbEntity
  8
細線
 48
50.0
100
AcDbLine
 10
11358.09457900989
 20
7418.682228198028
 30
0.0
 11
10721.49457900989
 21
7418.682228198024
 31
0.0
  0
LINE
  5
18921
330
747D
100
AcDbEntity
  8
細線
 48
50.0
100
AcDbLine
 10
11383.99457900989
 20
7413.682228198031
 30
0.0
 11
11368.09457900989
 21
7413.682228198027
 31
0.0
  0
LINE
  5
18922
330
747D
100
AcDbEntity
  8
細線
 48
50.0
100
AcDbLine
 10
11368.09457900989
 20
7413.682228198027
 30
0.0
 11
11358.09457900989
 21
7418.682228198028
 31
0.0
  0
LINE
  5
18923
330
747D
100
AcDbEntity
  8
細線
100
AcDbLine
 10
10968.99457900989
 20
7388.682228198027
 30
0.0
 11
10968.99457900989
 21
7417.982228198026
 31
0.0
  0
LINE
  5
18924
330
747D
100
AcDbEntity
  8
細線
100
AcDbLine
 10
10968.99457900989
 20
7417.982228198026
 30
0.0
 11
10988.99457900989
 21
7417.982228198026
 31
0.0
  0
LINE
  5
18925
330
747D
100
AcDbEntity
  8
細線
100
AcDbLine
 10
10988.99457900989
 20
7388.682228198027
 30
0.0
 11
10988.99457900989
 21
7417.982228198026
 31
0.0
  0
LINE
  5
18926
330
747D
100
AcDbEntity
  8
細線
100
AcDbLine
 10
11150.24457900989
 20
7388.682228198027
 30
0.0
 11
11080.24457900989
 21
7388.682228198027
 31
0.0
  0
LINE
  5
18927
330
747D
100
AcDbEntity
  8
細線
 48
50.0
100
AcDbLine
 10
10870.24457900989
 20
7388.682228198027
 30
0.0
 11
10739.29035858273
 21
7388.682228198027
 31
0.0
  0
LINE
  5
18928
330
747D
100
AcDbEntity
  8
細線
100
AcDbLine
 10
11010.24457900989
 20
7388.682228198027
 30
0.0
 11
10940.24457900989
 21
7388.682228198027
 31
0.0
  0
LINE
  5
18929
330
747D
100
AcDbEntity
  8
細線
 48
50.0
100
AcDbLine
 10
10726.49457900989
 20
7380.682228198027
 30
0.0
 11
10726.49457900989
 21
7388.682228198027
 31
0.0
  0
LINE
  5
1892A
330
747D
100
AcDbEntity
  8
細線
 48
50.0
100
AcDbLine
 10
10706.49457900989
 20
7380.682228198032
 30
0.0
 11
10726.49457900989
 21
7380.682228198027
 31
0.0
  0
LINE
  5
1892B
330
747D
100
AcDbEntity
  8
細線
 48
50.0
100
AcDbLine
 10
10721.49457900989
 20
7418.682228198028
 30
0.0
 11
10721.49457900989
 21
7413.682228198027
 31
0.0
  0
LINE
  5
1892C
330
747D
100
AcDbEntity
  8
細線
 48
50.0
100
AcDbLine
 10
10706.49457900989
 20
7418.682228198024
 30
0.0
 11
10721.49457900989
 21
7418.682228198028
 31
0.0
  0
LINE
  5
1892D
330
747D
100
AcDbEntity
  8
細線
 48
50.0
100
AcDbLine
 10
10706.49457900989
 20
7380.682228198032
 30
0.0
 11
10706.49457900989
 21
7418.682228198024
 31
0.0
  0
LINE
  5
1892E
330
747D
100
AcDbEntity
  8
細線
100
AcDbLine
 10
11374.49457900989
 20
7388.682228198027
 30
0.0
 11
11220.24457900989
 21
7388.682228198027
 31
0.0
  0
LINE
  5
1892F
330
747D
100
AcDbEntity
  8
細線
 48
50.0
100
AcDbLine
 10
11383.99457900989
 20
7413.682228198031
 30
0.0
 11
11383.99457900989
 21
7388.682228198027
 31
0.0
  0
DIMENSION
  5
18B66
330
747D
100
AcDbEntity
  8
寸法
 48
50.0
100
AcDbDimension
  2
*D31
 10
11413.49457900989
 20
6377.826858808698
 30
0.0
 11
10338.29455028033
 21
6377.826858808698
 31
0.0
 70
   160
 71
     5
 42
2154.0
  3
INABA_S40G
100
AcDbAlignedDimension
 13
9259.49457900989
 23
7315.682228198024
 33
0.0
 14
11413.49457900989
 24
7315.682228198024
 34
0.0
100
AcDbRotatedDimension
1001
ACAD
1000
DSTYLE
1002
{
1070
   341
1005
0
1002
}
  0
DIMENSION
  5
18B67
330
747D
100
AcDbEntity
  8
寸法
100
AcDbDimension
  2
*D32
 10
8516.8833333832
 20
7317.68222819802
 30
0.0
 11
8516.883333383196
 21
7177.196946823783
 31
0.0
 70
   160
 71
     5
 42
75.0
  3
INABA_S40
100
AcDbAlignedDimension
 13
8811.494579009915
 23
7392.682228198021
 33
0.0
 14
9259.49457900989
 24
7317.68222819802
 34
0.0
 50
90.0
100
AcDbRotatedDimension
1001
ACAD
1000
DSTYLE
1002
{
1070
    41
1040
0.5
1070
    44
1040
1.0
1070
   147
1040
0.8
1070
   271
1070
     2
1070
   272
1070
     2
1070
   289
1070
     3
1070
   340
1005
F706
1070
   343
1005
16ED2
1070
   344
1005
16ED2
1002
}
  0
DIMENSION
  5
18C67
330
747D
100
AcDbEntity
  8
寸法
100
AcDbDimension
  2
*D33
 10
11441.4945790099
 20
6111.485270917019
 30
0.0
 11
10110.93392371243
 21
6111.485270917019
 31
0.0
 70
   160
 71
     5
 42
2629.999999999982
  3
INABA_S40G
100
AcDbAlignedDimension
 13
8811.494579009915
 23
7392.682228197988
 33
0.0
 14
11441.4945790099
 24
7392.682228198151
 34
0.0
100
AcDbRotatedDimension
1001
ACAD
1000
DSTYLE
1002
{
1002
}
  0
LINE
  5
18C6E
330
747D
100
AcDbEntity
  8
部品1
100
AcDbLine
 10
10508.22991212413
 20
5942.131811030062
 30
0.0
 11
9744.759245895693
 21
5942.131811030062
 31
0.0
  0
LINE
  5
18C6F
330
747D
100
AcDbEntity
  8
部品1
100
AcDbLine
 10
10508.22991212413
 20
5702.239489484529
 30
0.0
 11
10508.22991212413
 21
5942.131811030062
 31
0.0
  0
LINE
  5
18C70
330
747D
100
AcDbEntity
  8
部品1
100
AcDbLine
 10
9744.759245895693
 20
5702.239489484529
 30
0.0
 11
10508.22991212413
 21
5702.239489484529
 31
0.0
  0
LINE
  5
18C71
330
747D
100
AcDbEntity
  8
部品1
100
AcDbLine
 10
9744.759245895693
 20
5942.131811030062
 30
0.0
 11
9744.759245895693
 21
5702.239489484529
 31
0.0
  0
TEXT
  5
18C72
330
747D
100
AcDbEntity
  8
部品1
100
AcDbText
 10
9834.678855724732
 20
5749.238281811539
 30
0.0
 40
135.0
  1
平面図
  7
STYLE2
100
AcDbText
  0
LWPOLYLINE
  5
18E8C
330
747D
100
AcDbEntity
  8
部品1
 48
50.0
100
AcDbPolyline
 90
        4
 70
     1
 43
0.0
 10
9358.544579009913
 20
3234.576805657113
 10
9361.444579009914
 20
3234.576805657113
 10
9361.444579009914
 20
3244.076805657112
 10
9358.544579009913
 20
3244.076805657112
  0
CIRCLE
  5
18E8D
330
747D
100
AcDbEntity
  8
部品1
 48
50.0
100
AcDbCircle
 10
9359.994579009914
 20
3239.326805657113
 30
0.0
 40
9.0
  0
ARC
  5
18E8E
330
747D
100
AcDbEntity
  8
細線
 48
50.0
100
AcDbCircle
 10
9359.994579009914
 20
3239.326805657113
 30
0.0
 40
4.0
100
AcDbArc
 50
111.2538091853132
 51
248.7461908146868
  0
ARC
  5
18E8F
330
747D
100
AcDbEntity
  8
細線
 48
50.0
100
AcDbCircle
 10
9359.994579009914
 20
3239.326805657113
 30
0.0
 40
17.5
100
AcDbArc
 50
306.4837370612677
 51
233.5162629387323
  0
LINE
  5
18E90
330
747D
100
AcDbEntity
  8
細線
 48
50.0
100
AcDbLine
 10
9369.99457900991
 20
3215.46784507623
 30
0.0
 11
9369.994579009913
 21
3224.452330876471
 31
0.0
  0
LINE
  5
18E91
330
747D
100
AcDbEntity
  8
細線
 48
50.0
100
AcDbLine
 10
9349.994579009914
 20
3215.467845076231
 30
0.0
 11
9349.994579009914
 21
3224.452330876468
 31
0.0
  0
ARC
  5
18E92
330
747D
100
AcDbEntity
  8
細線
 48
50.0
100
AcDbCircle
 10
9359.994579009914
 20
3239.326805657113
 30
0.0
 40
26.5
100
AcDbArc
 50
249.3326835063939
 51
290.6673164933835
  0
ARC
  5
18E93
330
747D
100
AcDbEntity
  8
細線
 48
50.0
100
AcDbCircle
 10
9368.994579009905
 20
3215.46784507623
 30
0.0
 40
1.0
100
AcDbArc
 50
290.6673164936062
 51
359.9999999998958
  0
ARC
  5
18E94
330
747D
100
AcDbEntity
  8
細線
 48
50.0
100
AcDbCircle
 10
9350.994579009913
 20
3215.467845076231
 30
0.0
 40
1.0
100
AcDbArc
 50
180.0
 51
249.3326835066164
  0
ARC
  5
18E95
330
747D
100
AcDbEntity
  8
細線
 48
50.0
100
AcDbCircle
 10
9348.994579009914
 20
3224.452330876468
 30
0.0
 40
1.0
100
AcDbArc
 50
0.0
 51
53.51626293873231
  0
ARC
  5
18E96
330
747D
100
AcDbEntity
  8
細線
 48
50.0
100
AcDbCircle
 10
9370.994579009916
 20
3224.452330876471
 30
0.0
 40
1.0
100
AcDbArc
 50
126.4837370615127
 51
180.0
  0
ARC
  5
18E97
330
747D
100
AcDbEntity
  8
細線
 48
50.0
100
AcDbCircle
 10
9359.994579009914
 20
3239.326805657113
 30
0.0
 40
21.5
100
AcDbArc
 50
255.8014401250294
 51
284.1985598749706
  0
ARC
  5
18E98
330
747D
100
AcDbEntity
  8
細線
 48
50.0
100
AcDbCircle
 10
9359.994579009914
 20
3239.326805657113
 30
0.0
 40
16.5
100
AcDbArc
 50
251.9694646069326
 51
288.0305353930674
  0
LINE
  5
18E99
330
747D
100
AcDbEntity
  8
細線
 48
50.0
100
AcDbLine
 10
9365.494579009913
 20
3218.774433531306
 30
0.0
 11
9365.494579009913
 21
3223.351825218642
 31
0.0
  0
LINE
  5
18E9A
330
747D
100
AcDbEntity
  8
細線
 48
50.0
100
AcDbLine
 10
9354.494579009914
 20
3218.774433531306
 30
0.0
 11
9354.494579009914
 21
3223.351825218641
 31
0.0
  0
ARC
  5
18E9B
330
747D
100
AcDbEntity
  8
細線
 48
50.0
100
AcDbCircle
 10
9354.794579009917
 20
3223.351825218641
 30
0.0
 40
0.3
100
AcDbArc
 50
71.96946460693259
 51
180.0
  0
ARC
  5
18E9C
330
747D
100
AcDbEntity
  8
細線
 48
50.0
100
AcDbCircle
 10
9365.194579009914
 20
3223.351825218642
 30
0.0
 40
0.3
100
AcDbArc
 50
0.0
 51
108.0305353930674
  0
ARC
  5
18E9D
330
747D
100
AcDbEntity
  8
細線
 48
50.0
100
AcDbCircle
 10
9365.19457900991
 20
3218.774433531306
 30
0.0
 40
0.3
100
AcDbArc
 50
284.1985598747622
 51
0.0000000001042204
  0
ARC
  5
18E9E
330
747D
100
AcDbEntity
  8
細線
 48
50.0
100
AcDbCircle
 10
9354.794579009917
 20
3218.774433531306
 30
0.0
 40
0.3
100
AcDbArc
 50
180.0
 51
255.8014401248081
  0
CIRCLE
  5
18E9F
330
747D
100
AcDbEntity
  8
細線
 48
50.0
100
AcDbCircle
 10
9359.994579009914
 20
3239.326805657113
 30
0.0
 40
12.0
  0
ARC
  5
18EA0
330
747D
100
AcDbEntity
  8
部品1
 48
50.0
100
AcDbCircle
 10
9359.994579009914
 20
3289.326805657112
 30
0.0
 40
8.5
100
AcDbArc
 50
114.315739171091
 51
245.684260828909
  0
CIRCLE
  5
18EA1
330
747D
100
AcDbEntity
  8
細線
 48
50.0
100
AcDbCircle
 10
9359.994579009914
 20
3289.326805657112
 30
0.0
 40
4.5
  0
LWPOLYLINE
  5
18EA2
330
747D
100
AcDbEntity
  8
部品1
 48
50.0
100
AcDbPolyline
 90
        2
 70
     0
 43
0.0
 10
9356.494579009915
 20
3308.001655054095
 10
9356.494579009915
 20
3297.072772349527
  0
CIRCLE
  5
18EA3
330
747D
100
AcDbEntity
  8
部品1
 48
50.0
100
AcDbCircle
 10
9359.994579009914
 20
3289.326805657112
 30
0.0
 40
19.0
  0
LWPOLYLINE
  5
18EA4
330
747D
100
AcDbEntity
  8
部品1
 48
50.0
100
AcDbPolyline
 90
        2
 70
     0
 43
0.0
 10
9356.494579009915
 20
3281.580838964698
 10
9356.494579009915
 20
3270.65195626013
  0
LWPOLYLINE
  5
18EA5
330
747D
100
AcDbEntity
  8
部品1
 48
50.0
100
AcDbPolyline
 90
        2
 70
     0
 43
0.0
 10
9363.494579009914
 20
3297.072772349527
 10
9363.494579009914
 20
3308.001655054095
  0
ARC
  5
18EA6
330
747D
100
AcDbEntity
  8
部品1
 48
50.0
100
AcDbCircle
 10
9359.994579009914
 20
3289.326805657112
 30
0.0
 40
8.5
100
AcDbArc
 50
294.315739171091
 51
65.68426082890896
  0
LWPOLYLINE
  5
18EA7
330
747D
100
AcDbEntity
  8
部品1
 48
50.0
100
AcDbPolyline
 90
        2
 70
     0
 43
0.0
 10
9363.494579009914
 20
3270.65195626013
 10
9363.494579009914
 20
3281.580838964698
  0
ARC
  5
18EA8
330
747D
100
AcDbEntity
  8
細線
 48
50.0
100
AcDbCircle
 10
9359.994579009914
 20
3289.326805657112
 30
0.0
 40
16.5
100
AcDbArc
 50
332.0012352654438
 51
27.99876473455621
  0
ARC
  5
18EA9
330
747D
100
AcDbEntity
  8
細線
 48
50.0
100
AcDbCircle
 10
9359.994579009914
 20
3289.326805657112
 30
0.0
 40
14.0
100
AcDbArc
 50
326.4074436112986
 51
33.59255638870134
  0
LINE
  5
18EAA
330
747D
100
AcDbEntity
  8
細線
 48
50.0
100
AcDbLine
 10
9345.425776725582
 20
3297.072772349527
 30
0.0
 11
9348.332675220225
 21
3297.072772349527
 31
0.0
  0
LINE
  5
18EAB
330
747D
100
AcDbEntity
  8
細線
 48
50.0
100
AcDbLine
 10
9345.425776725582
 20
3281.580838964698
 30
0.0
 11
9348.332675220225
 21
3281.580838964698
 31
0.0
  0
LINE
  5
18EAC
330
747D
100
AcDbEntity
  8
細線
 48
50.0
100
AcDbLine
 10
9371.656482799602
 20
3297.072772349527
 30
0.0
 11
9374.563381294249
 21
3297.072772349527
 31
0.0
  0
LINE
  5
18EAD
330
747D
100
AcDbEntity
  8
細線
 48
50.0
100
AcDbLine
 10
9371.656482799602
 20
3281.580838964698
 30
0.0
 11
9374.563381294249
 21
3281.580838964698
 31
0.0
  0
ARC
  5
18EAE
330
747D
100
AcDbEntity
  8
細線
 48
50.0
100
AcDbCircle
 10
9359.994579009914
 20
3289.326805657112
 30
0.0
 40
14.0
100
AcDbArc
 50
146.4074436112986
 51
213.5925563887013
  0
ARC
  5
18EAF
330
747D
100
AcDbEntity
  8
細線
 48
50.0
100
AcDbCircle
 10
9359.994579009914
 20
3289.326805657112
 30
0.0
 40
16.5
100
AcDbArc
 50
152.0012352654438
 51
207.9987647345562
  0
ARC
  5
18EB0
330
747D
100
AcDbEntity
  8
部品1
 48
50.0
100
AcDbCircle
 10
9333.494579009913
 20
3314.826805657113
 30
0.0
 40
5.0
100
AcDbArc
 50
90.0
 51
180.0
  0
ARC
  5
18EB1
330
747D
100
AcDbEntity
  8
部品1
 48
50.0
100
AcDbCircle
 10
9333.494579009913
 20
3203.826805657113
 30
0.0
 40
5.0
100
AcDbArc
 50
180.0
 51
270.0
  0
ARC
  5
18EB2
330
747D
100
AcDbEntity
  8
部品1
 48
50.0
100
AcDbCircle
 10
9386.494579009914
 20
3203.826805657113
 30
0.0
 40
5.0
100
AcDbArc
 50
270.0
 51
0.0
  0
ARC
  5
18EB3
330
747D
100
AcDbEntity
  8
部品1
 48
50.0
100
AcDbCircle
 10
9386.494579009914
 20
3314.826805657113
 30
0.0
 40
5.0
100
AcDbArc
 50
0.0
 51
90.0
  0
LINE
  5
18EB5
330
747D
100
AcDbEntity
  8
部品1
 48
50.0
100
AcDbLine
 10
9328.494579009914
 20
3203.826805657113
 30
0.0
 11
9328.494579009914
 21
3314.826805657113
 31
0.0
  0
LINE
  5
18EB6
330
747D
100
AcDbEntity
  8
部品1
 48
50.0
100
AcDbLine
 10
9386.494579009914
 20
3198.826805657112
 30
0.0
 11
9333.494579009913
 21
3198.826805657112
 31
0.0
  0
LINE
  5
18EB7
330
747D
100
AcDbEntity
  8
部品1
 48
50.0
100
AcDbLine
 10
9391.494579009913
 20
3314.826805657113
 30
0.0
 11
9391.494579009913
 21
3203.826805657113
 31
0.0
  0
ENDSEC
  0
SECTION
  2
OBJECTS
  0
DICTIONARY
  5
7471
330
0
100
AcDbDictionary
281
     1
  3
ACAD_COLOR
350
16EC7
  3
ACAD_GROUP
350
7472
  3
ACAD_LAYOUT
350
16EC8
  3
ACAD_MATERIAL
350
16EC6
  3
ACAD_MLINESTYLE
350
7473
  3
ACAD_PLOTSETTINGS
350
16EC9
  3
ACAD_PLOTSTYLENAME
350
16EC4
  3
ACDBHEADERROUNDTRIPXREC
350
18ED6
  3
AcDbVariableDictionary
350
18ED2
  3
CONTENTDICTIONARY
350
E71C
  3
DRAWINGVARIABLESDICT
350
F3B9
  0
DICTIONARY
  5
17061
330
7467
100
AcDbDictionary
280
     1
281
     1
  3
ACAD_LAYERSTATES
360
17062
  0
DICTIONARY
  5
16EC7
102
{ACAD_REACTORS
330
7471
102
}
330
7471
100
AcDbDictionary
281
     1
  0
DICTIONARY
  5
7472
102
{ACAD_REACTORS
330
7471
102
}
330
7471
100
AcDbDictionary
281
     1
  0
DICTIONARY
  5
16EC8
102
{ACAD_REACTORS
330
7471
102
}
330
7471
100
AcDbDictionary
281
     1
  3
Model
350
16ECA
  3
レイアウト1
350
16ECB
  0
DICTIONARY
  5
16EC6
102
{ACAD_REACTORS
330
7471
102
}
330
7471
100
AcDbDictionary
281
     1
  0
DICTIONARY
  5
7473
102
{ACAD_REACTORS
330
7471
102
}
330
7471
100
AcDbDictionary
281
     1
  3
STANDARD
350
7480
  0
DICTIONARY
  5
16EC9
102
{ACAD_REACTORS
330
7471
102
}
330
7471
100
AcDbDictionary
281
     1
  0
ACDBDICTIONARYWDFLT
  5
16EC4
102
{ACAD_REACTORS
330
7471
102
}
330
7471
100
AcDbDictionary
281
     1
  3
Normal
350
16EC5
100
AcDbDictionaryWithDefault
340
16EC5
  0
DICTIONARY
  5
18ED6
102
{ACAD_REACTORS
330
7471
102
}
330
7471
100
AcDbDictionary
281
     1
  3
COLORDICT
350
18ED8
  3
MATERIALDICT
350
18ED7
  0
DICTIONARY
  5
18ED2
102
{ACAD_REACTORS
330
7471
102
}
330
7471
100
AcDbDictionary
281
     1
  3
DIMASSOC
350
18ED3
  3
PROJECTNAME
350
18ED4
  0
DICTIONARY
  5
E71C
102
{ACAD_REACTORS
330
7471
102
}
330
7471
100
AcDbDictionary
281
     1
  0
DICTIONARY
  5
F3B9
102
{ACAD_REACTORS
330
7471
102
}
330
7471
100
AcDbDictionary
281
     1
1001
DRAWINGVARIABLESXDATA
1000
POLARMODE
1000
1
  0
DICTIONARY
  5
17062
102
{ACAD_REACTORS
330
17061
102
}
330
17061
100
AcDbDictionary
281
     1
  0
LAYOUT
  5
16ECA
102
{ACAD_XDICTIONARY
360
18ED9
102
}
102
{ACAD_REACTORS
330
16EC8
102
}
330
16EC8
100
AcDbPlotSettings
  1

  2
クセロPDF
  4
A3
  6

 40
3.174999952316284
 41
3.174999952316284
 42
3.17498779296875
 43
3.17498779296875
 44
419.9466552734374
 45
296.9259948730469
 46
0.0
 47
0.0
 48
3.619013395666115
 49
-4.192117100517862
140
820.022926294543
141
573.2392198881443
142
1.0
143
39.99735023620806
 70
 11952
 72
     1
 73
     0
 74
     2
  7
inaba.ctb
 75
     0
147
0.0250016562120842
148
25.79074261211281
149
125.8223078213959
100
AcDbLayout
  1
Model
 70
     1
 71
     0
 10
0.0
 20
0.0
 11
12.0
 21
9.0
 12
0.0
 22
0.0
 32
0.0
 14
0.0
 24
0.0
 34
0.0
 15
0.0
 25
0.0
 35
0.0
146
0.0
 13
0.0
 23
0.0
 33
0.0
 16
1.0
 26
0.0
 36
0.0
 17
0.0
 27
1.0
 37
0.0
 76
     0
330
747D
  0
LAYOUT
  5
16ECB
102
{ACAD_XDICTIONARY
360
18EDB
102
}
102
{ACAD_REACTORS
330
16EC8
102
}
330
16EC8
100
AcDbPlotSettings
  1

  2
Microsoft Office Document Image Writer
  4

  6

 40
0.0
 41
0.0
 42
0.0
 43
0.0
 44
0.0
 45
0.0
 46
0.0
 47
0.0
 48
0.0
 49
0.0
140
0.0
141
0.0
142
1.0
143
1.0
 70
   688
 72
     0
 73
     0
 74
     5
  7

 75
    16
147
1.0
148
0.0
149
0.0
100
AcDbLayout
  1
レイアウト1
 70
     0
 71
     1
 10
0.0
 20
0.0
 11
420.0
 21
297.0
 12
0.0
 22
0.0
 32
0.0
 14
1.000000000000000E+20
 24
1.000000000000000E+20
 34
1.000000000000000E+20
 15
-1.000000000000000E+20
 25
-1.000000000000000E+20
 35
-1.000000000000000E+20
146
0.0
 13
0.0
 23
0.0
 33
0.0
 16
1.0
 26
0.0
 36
0.0
 17
0.0
 27
1.0
 37
0.0
 76
     0
330
747A
  0
MLINESTYLE
  5
7480
102
{ACAD_REACTORS
330
7473
102
}
330
7473
100
AcDbMlineStyle
  2
STANDARD
 70
     0
  3

 62
     0
 51
90.0
 52
90.0
 71
     2
 49
0.5
 62
   256
  6
BYLAYER
 49
-0.5
 62
   256
  6
BYLAYER
  0
ACDBPLACEHOLDER
  5
16EC5
102
{ACAD_REACTORS
330
16EC4
102
}
330
16EC4
  0
XRECORD
  5
18ED8
102
{ACAD_REACTORS
330
18ED6
102
}
330
18ED6
100
AcDbXrecord
280
     1
340
16EC7
  0
XRECORD
  5
18ED7
102
{ACAD_REACTORS
330
18ED6
102
}
330
18ED6
100
AcDbXrecord
280
     1
340
16EC6
  0
DICTIONARYVAR
  5
18ED3
102
{ACAD_REACTORS
330
18ED2
102
}
330
18ED2
100
DictionaryVariables
280
     0
  1
1
  0
DICTIONARYVAR
  5
18ED4
102
{ACAD_REACTORS
330
18ED2
102
}
330
18ED2
100
DictionaryVariables
280
     0
  1

  0
DICTIONARY
  5
18ED9
330
16ECA
100
AcDbDictionary
280
     1
281
     1
  3
ACAD_XREC_ROUNDTRIP
360
18EDA
  0
DICTIONARY
  5
18EDB
330
16ECB
100
AcDbDictionary
280
     1
281
     1
  3
ACAD_XREC_ROUNDTRIP
360
18EDC
  0
XRECORD
  5
18EDA
102
{ACAD_REACTORS
330
18ED9
102
}
330
18ED9
100
AcDbXrecord
280
     1
102
SHADEPLOT
 70
     0
102
SHADEPLOTRESLEVEL
 70
     2
102
SHADEPLOTCUSTOMDPI
 70
   150
  0
XRECORD
  5
18EDC
102
{ACAD_REACTORS
330
18EDB
102
}
330
18EDB
100
AcDbXrecord
280
     1
102
SHADEPLOT
 70
     0
102
SHADEPLOTRESLEVEL
 70
     2
102
SHADEPLOTCUSTOMDPI
 70
   300
  0
ENDSEC
  0
EOF
