  0
SECTION
  2
HEADER
  9
$ACADVER
  1
AC1015
  9
$ACADMAINTVER
 70
    20
  9
$DWGCODEPAGE
  3
ANSI_932
  9
$INSBASE
 10
0.0
 20
0.0
 30
0.0
  9
$EXTMIN
 10
139.9999999999995
 20
-0.0000000000000909
 30
0.0
  9
$EXTMAX
 10
16307.2
 20
11409.6
 30
0.0
  9
$LIMMIN
 10
0.0
 20
0.0
  9
$LIMMAX
 10
16800.0
 20
11880.0
  9
$ORTHOMODE
 70
     0
  9
$REGENMODE
 70
     1
  9
$FILLMODE
 70
     1
  9
$QTEXTMODE
 70
     0
  9
$MIRRTEXT
 70
     1
  9
$LTSCALE
 40
20.0
  9
$ATTMODE
 70
     1
  9
$TEXTSIZE
 40
4.0
  9
$TRACEWID
 40
1.0
  9
$TEXTSTYLE
  7
STYLE1
  9
$CLAYER
  8
部品1
  9
$CELTYPE
  6
BYLAYER
  9
$CECOLOR
 62
   256
  9
$CELTSCALE
 40
50.0
  9
$DISPSILH
 70
     0
  9
$DIMSCALE
 40
40.0
  9
$DIMASZ
 40
2.5
  9
$DIMEXO
 40
0.5
  9
$DIMDLI
 40
7.0
  9
$DIMRND
 40
0.0
  9
$DIMDLE
 40
0.0
  9
$DIMEXE
 40
1.5
  9
$DIMTP
 40
0.0
  9
$DIMTM
 40
0.0
  9
$DIMTXT
 40
3.0
  9
$DIMCEN
 40
0.0
  9
$DIMTSZ
 40
0.0
  9
$DIMTOL
 70
     0
  9
$DIMLIM
 70
     0
  9
$DIMTIH
 70
     0
  9
$DIMTOH
 70
     0
  9
$DIMSE1
 70
     0
  9
$DIMSE2
 70
     0
  9
$DIMTAD
 70
     3
  9
$DIMZIN
 70
     8
  9
$DIMBLK
  1

  9
$DIMASO
 70
     1
  9
$DIMSHO
 70
     1
  9
$DIMPOST
  1

  9
$DIMAPOST
  1

  9
$DIMALT
 70
     0
  9
$DIMALTD
 70
     2
  9
$DIMALTF
 40
0.0394
  9
$DIMLFAC
 40
1.0
  9
$DIMTOFL
 70
     1
  9
$DIMTVP
 40
0.0
  9
$DIMTIX
 70
     1
  9
$DIMSOXD
 70
     0
  9
$DIMSAH
 70
     1
  9
$DIMBLK1
  1
DOTSMALL
  9
$DIMBLK2
  1
DOTSMALL
  9
$DIMSTYLE
  2
INABA_S40G
  9
$DIMCLRD
 70
     0
  9
$DIMCLRE
 70
     0
  9
$DIMCLRT
 70
     7
  9
$DIMTFAC
 40
1.0
  9
$DIMGAP
 40
1.0
  9
$DIMJUST
 70
     0
  9
$DIMSD1
 70
     0
  9
$DIMSD2
 70
     0
  9
$DIMTOLJ
 70
     1
  9
$DIMTZIN
 70
     0
  9
$DIMALTZ
 70
     0
  9
$DIMALTTZ
 70
     0
  9
$DIMUPT
 70
     0
  9
$DIMDEC
 70
     1
  9
$DIMTDEC
 70
     4
  9
$DIMALTU
 70
     2
  9
$DIMALTTD
 70
     2
  9
$DIMTXSTY
  7
STYLE1
  9
$DIMAUNIT
 70
     0
  9
$DIMADEC
 70
     0
  9
$DIMALTRND
 40
0.0
  9
$DIMAZIN
 70
     0
  9
$DIMDSEP
 70
    46
  9
$DIMATFIT
 70
     3
  9
$DIMFRAC
 70
     0
  9
$DIMLDRBLK
  1

  9
$DIMLUNIT
 70
     2
  9
$DIMLWD
 70
    -2
  9
$DIMLWE
 70
    -2
  9
$DIMTMOVE
 70
     0
  9
$LUNITS
 70
     2
  9
$LUPREC
 70
     1
  9
$SKETCHINC
 40
1.0
  9
$FILLETRAD
 40
3.0
  9
$AUNITS
 70
     0
  9
$AUPREC
 70
     0
  9
$MENU
  1
acad
  9
$ELEVATION
 40
0.0
  9
$PELEVATION
 40
0.0
  9
$THICKNESS
 40
0.0
  9
$LIMCHECK
 70
     0
  9
$CHAMFERA
 40
0.0
  9
$CHAMFERB
 40
0.0
  9
$CHAMFERC
 40
0.0
  9
$CHAMFERD
 40
0.0
  9
$SKPOLY
 70
     0
  9
$TDCREATE
 40
2451368.612993866
  9
$TDUCREATE
 40
2451368.237993866
  9
$TDUPDATE
 40
2455575.686445313
  9
$TDUUPDATE
 40
2455575.311445313
  9
$TDINDWG
 40
0.7463373727
  9
$TDUSRTIMER
 40
0.7463373727
  9
$USRTIMER
 70
     1
  9
$ANGBASE
 50
0.0
  9
$ANGDIR
 70
     0
  9
$PDMODE
 70
     3
  9
$PDSIZE
 40
2.0
  9
$PLINEWID
 40
0.0
  9
$SPLFRAME
 70
     0
  9
$SPLINETYPE
 70
     6
  9
$SPLINESEGS
 70
     8
  9
$HANDSEED
  5
1A87B
  9
$SURFTAB1
 70
     6
  9
$SURFTAB2
 70
     6
  9
$SURFTYPE
 70
     6
  9
$SURFU
 70
     6
  9
$SURFV
 70
     6
  9
$UCSBASE
  2

  9
$UCSNAME
  2

  9
$UCSORG
 10
0.0
 20
0.0
 30
0.0
  9
$UCSXDIR
 10
1.0
 20
0.0
 30
0.0
  9
$UCSYDIR
 10
0.0
 20
1.0
 30
0.0
  9
$UCSORTHOREF
  2

  9
$UCSORTHOVIEW
 70
     0
  9
$UCSORGTOP
 10
0.0
 20
0.0
 30
0.0
  9
$UCSORGBOTTOM
 10
0.0
 20
0.0
 30
0.0
  9
$UCSORGLEFT
 10
0.0
 20
0.0
 30
0.0
  9
$UCSORGRIGHT
 10
0.0
 20
0.0
 30
0.0
  9
$UCSORGFRONT
 10
0.0
 20
0.0
 30
0.0
  9
$UCSORGBACK
 10
0.0
 20
0.0
 30
0.0
  9
$PUCSBASE
  2

  9
$PUCSNAME
  2

  9
$PUCSORG
 10
0.0
 20
0.0
 30
0.0
  9
$PUCSXDIR
 10
1.0
 20
0.0
 30
0.0
  9
$PUCSYDIR
 10
0.0
 20
1.0
 30
0.0
  9
$PUCSORTHOREF
  2

  9
$PUCSORTHOVIEW
 70
     0
  9
$PUCSORGTOP
 10
0.0
 20
0.0
 30
0.0
  9
$PUCSORGBOTTOM
 10
0.0
 20
0.0
 30
0.0
  9
$PUCSORGLEFT
 10
0.0
 20
0.0
 30
0.0
  9
$PUCSORGRIGHT
 10
0.0
 20
0.0
 30
0.0
  9
$PUCSORGFRONT
 10
0.0
 20
0.0
 30
0.0
  9
$PUCSORGBACK
 10
0.0
 20
0.0
 30
0.0
  9
$USERI1
 70
     0
  9
$USERI2
 70
     0
  9
$USERI3
 70
     0
  9
$USERI4
 70
     0
  9
$USERI5
 70
     0
  9
$USERR1
 40
0.0
  9
$USERR2
 40
0.0
  9
$USERR3
 40
0.0
  9
$USERR4
 40
0.0
  9
$USERR5
 40
0.0
  9
$WORLDVIEW
 70
     1
  9
$SHADEDGE
 70
     3
  9
$SHADEDIF
 70
    70
  9
$TILEMODE
 70
     1
  9
$MAXACTVP
 70
    16
  9
$PINSBASE
 10
0.0
 20
0.0
 30
0.0
  9
$PLIMCHECK
 70
     0
  9
$PEXTMIN
 10
1.000000000000000E+20
 20
1.000000000000000E+20
 30
1.000000000000000E+20
  9
$PEXTMAX
 10
-1.000000000000000E+20
 20
-1.000000000000000E+20
 30
-1.000000000000000E+20
  9
$PLIMMIN
 10
0.0
 20
0.0
  9
$PLIMMAX
 10
420.0
 20
297.0
  9
$UNITMODE
 70
     0
  9
$VISRETAIN
 70
     0
  9
$PLINEGEN
 70
     0
  9
$PSLTSCALE
 70
     0
  9
$TREEDEPTH
 70
  3020
  9
$CMLSTYLE
  2
STANDARD
  9
$CMLJUST
 70
     0
  9
$CMLSCALE
 40
1.0
  9
$PROXYGRAPHICS
 70
     1
  9
$MEASUREMENT
 70
     1
  9
$CELWEIGHT
370
    -1
  9
$ENDCAPS
280
     0
  9
$JOINSTYLE
280
     0
  9
$LWDISPLAY
290
     0
  9
$INSUNITS
 70
     0
  9
$HYPERLINKBASE
  1

  9
$STYLESHEET
  1

  9
$XEDIT
290
     1
  9
$CEPSNTYPE
380
     0
  9
$PSTYLEMODE
290
     1
  9
$FINGERPRINTGUID
  2
{0332C87E-33DA-49BD-811F-9ED83D8E2637}
  9
$VERSIONGUID
  2
{9CD9AB50-DD5E-47DA-A0DA-A5708280CF39}
  9
$EXTNAMES
290
     1
  9
$PSVPSCALE
 40
0.0
  9
$OLESTARTUP
290
     0
  0
ENDSEC
  0
SECTION
  2
CLASSES
  0
CLASS
  1
ACDBDICTIONARYWDFLT
  2
AcDbDictionaryWithDefault
  3
ObjectDBX Classes
 90
        0
280
     0
281
     0
  0
CLASS
  1
DICTIONARYVAR
  2
AcDbDictionaryVar
  3
ObjectDBX Classes
 90
        0
280
     0
281
     0
  0
CLASS
  1
ACDBPLACEHOLDER
  2
AcDbPlaceHolder
  3
ObjectDBX Classes
 90
        0
280
     0
281
     0
  0
CLASS
  1
LAYOUT
  2
AcDbLayout
  3
ObjectDBX Classes
 90
        0
280
     0
281
     0
  0
ENDSEC
  0
SECTION
  2
TABLES
  0
TABLE
  2
VPORT
  5
746D
330
0
100
AcDbSymbolTable
 70
     2
  0
VPORT
  5
1A873
330
746D
100
AcDbSymbolTableRecord
100
AcDbViewportTableRecord
  2
*Active
 70
     0
 10
0.0
 20
0.0
 11
1.0
 21
1.0
 12
8223.761025238502
 22
6348.703162895247
 13
0.0
 23
0.0
 14
10.0
 24
10.0
 15
10.0
 25
10.0
 16
0.0
 26
0.0
 36
1.0
 17
0.0
 27
0.0
 37
0.0
 40
12805.60689082044
 41
1.525925925925925
 42
50.0
 43
0.0
 44
0.0
 50
0.0
 51
0.0
 71
     0
 72
     0
 73
     1
 74
     0
 75
     0
 76
     0
 77
     0
 78
     0
281
     0
 65
     1
110
0.0
120
0.0
130
0.0
111
1.0
121
0.0
131
0.0
112
0.0
122
1.0
132
0.0
 79
     0
146
0.0
  0
ENDTAB
  0
TABLE
  2
LTYPE
  5
746A
330
0
100
AcDbSymbolTable
 70
     4
  0
LTYPE
  5
7477
330
746A
100
AcDbSymbolTableRecord
100
AcDbLinetypeTableRecord
  2
BYBLOCK
 70
     0
  3

 72
    65
 73
     0
 40
0.0
  0
LTYPE
  5
7478
330
746A
100
AcDbSymbolTableRecord
100
AcDbLinetypeTableRecord
  2
BYLAYER
 70
     0
  3

 72
    65
 73
     0
 40
0.0
  0
LTYPE
  5
7479
330
746A
100
AcDbSymbolTableRecord
100
AcDbLinetypeTableRecord
  2
CONTINUOUS
 70
     0
  3
Solid line
 72
    65
 73
     0
 40
0.0
  0
LTYPE
  5
7816
330
746A
100
AcDbSymbolTableRecord
100
AcDbLinetypeTableRecord
  2
CENTER
 70
     0
  3
____ _ ____ _ ____ _ ____ _ ____ _ ____ _ ____ 
 72
    65
 73
     4
 40
2.0
 49
1.25
 74
     0
 49
-0.25
 74
     0
 49
0.25
 74
     0
 49
-0.25
 74
     0
  0
LTYPE
  5
781A
330
746A
100
AcDbSymbolTableRecord
100
AcDbLinetypeTableRecord
  2
HIDDEN
 70
     0
  3
__ __ __ __ __ __ __ __ __ __ __ __ __ __ __ __
 72
    65
 73
     2
 40
0.375
 49
0.25
 74
     0
 49
-0.125
 74
     0
  0
LTYPE
  5
781B
330
746A
100
AcDbSymbolTableRecord
100
AcDbLinetypeTableRecord
  2
PHANTOM
 70
     0
  3
______  __  __  ______  __  __  ______  __  __ 
 72
    65
 73
     6
 40
2.5
 49
1.25
 74
     0
 49
-0.25
 74
     0
 49
0.25
 74
     0
 49
-0.25
 74
     0
 49
0.25
 74
     0
 49
-0.25
 74
     0
  0
ENDTAB
  0
TABLE
  2
LAYER
  5
7467
102
{ACAD_XDICTIONARY
360
18BF5
102
}
330
0
100
AcDbSymbolTable
 70
    12
  0
LAYER
  5
7474
330
7467
100
AcDbSymbolTableRecord
100
AcDbLayerTableRecord
  2
0
 70
     0
 62
     7
  6
CONTINUOUS
370
    -3
390
18A4C
  0
LAYER
  5
DEB2
330
7467
100
AcDbSymbolTableRecord
100
AcDbLayerTableRecord
  2
センター
 70
     0
 62
     3
  6
CENTER
370
    -3
390
18A4C
  0
LAYER
  5
DEB3
330
7467
100
AcDbSymbolTableRecord
100
AcDbLayerTableRecord
  2
寸法
 70
     0
 62
     4
  6
CONTINUOUS
370
    -3
390
18A4C
  0
LAYER
  5
DEB4
330
7467
100
AcDbSymbolTableRecord
100
AcDbLayerTableRecord
  2
部品1
 70
     0
 62
     7
  6
CONTINUOUS
370
    -3
390
18A4C
  0
LAYER
  5
DEB5
330
7467
100
AcDbSymbolTableRecord
100
AcDbLayerTableRecord
  2
補助
 70
     0
 62
    -1
  6
CONTINUOUS
370
    -3
390
18A4C
  0
LAYER
  5
DEB6
330
7467
100
AcDbSymbolTableRecord
100
AcDbLayerTableRecord
  2
文字
 70
     0
 62
     7
  6
CONTINUOUS
370
    -3
390
18A4C
  0
LAYER
  5
F255
330
7467
100
AcDbSymbolTableRecord
100
AcDbLayerTableRecord
  2
DEFPOINTS
 70
     0
 62
     7
  6
CONTINUOUS
290
     0
370
    -3
390
18A4C
  0
LAYER
  5
10B54
330
7467
100
AcDbSymbolTableRecord
100
AcDbLayerTableRecord
  2
仕様書枠
 70
     0
 62
   230
  6
CONTINUOUS
370
    -3
390
18A4C
  0
LAYER
  5
11729
330
7467
100
AcDbSymbolTableRecord
100
AcDbLayerTableRecord
  2
Ｇ．Ｌ
 70
     0
 62
    30
  6
CONTINUOUS
370
    -3
390
18A4C
  0
LAYER
  5
1173F
330
7467
100
AcDbSymbolTableRecord
100
AcDbLayerTableRecord
  2
細線
 70
     0
 62
     5
  6
CONTINUOUS
370
    -3
390
18A4C
  0
LAYER
  5
12CC4
330
7467
100
AcDbSymbolTableRecord
100
AcDbLayerTableRecord
  2
想像線
 70
     0
 62
     6
  6
PHANTOM
370
    -3
390
18A4C
  0
LAYER
  5
142E2
330
7467
100
AcDbSymbolTableRecord
100
AcDbLayerTableRecord
  2
破線
 70
     0
 62
     2
  6
HIDDEN
370
    -3
390
18A4C
  0
ENDTAB
  0
TABLE
  2
STYLE
  5
7468
330
0
100
AcDbSymbolTable
 70
     4
  0
STYLE
  5
7475
330
7468
100
AcDbSymbolTableRecord
100
AcDbTextStyleTableRecord
  2
STANDARD
 70
     0
 40
0.0
 41
1.0
 50
0.0
 71
     0
 42
4.0
  3
txt
  4
C:\AutoCAD LT\bigfont.shx
  0
STYLE
  5
F706
330
7468
100
AcDbSymbolTableRecord
100
AcDbTextStyleTableRecord
  2
STYLE1
 70
     0
 40
0.0
 41
1.0
 50
0.0
 71
     0
 42
4.0
  3
isocp.shx
  4
bigfont.shx
  0
STYLE
  5
103BF
330
7468
100
AcDbSymbolTableRecord
100
AcDbTextStyleTableRecord
  2
STYLE2
 70
     0
 40
0.0
 41
1.0
 50
0.0
 71
     0
 42
100.0
  3
MS PGothic.ttf
  4

1001
ACAD
1000
MS PGothic
1071
    32818
  0
STYLE
  5
1A164
330
7468
100
AcDbSymbolTableRecord
100
AcDbTextStyleTableRecord
  2
STYLE3
 70
     0
 40
0.0
 41
1.0
 50
0.0
 71
     0
 42
100.0
  3

  4

1001
ACAD
1000
DFPGothic-EB
1071
    32818
  0
ENDTAB
  0
TABLE
  2
VIEW
  5
746B
330
0
100
AcDbSymbolTable
 70
     0
  0
ENDTAB
  0
TABLE
  2
UCS
  5
746C
330
0
100
AcDbSymbolTable
 70
     0
  0
ENDTAB
  0
TABLE
  2
APPID
  5
746E
330
0
100
AcDbSymbolTable
 70
     6
  0
APPID
  5
7476
330
746E
100
AcDbSymbolTableRecord
100
AcDbRegAppTableRecord
  2
ACAD
 70
     0
  0
APPID
  5
DEA9
330
746E
100
AcDbSymbolTableRecord
100
AcDbRegAppTableRecord
  2
CONTENTBLOCKICON
 70
     0
  0
APPID
  5
DEAA
330
746E
100
AcDbSymbolTableRecord
100
AcDbRegAppTableRecord
  2
CONTENTBLOCKDESCRIPTION
 70
     0
  0
APPID
  5
E71D
330
746E
100
AcDbSymbolTableRecord
100
AcDbRegAppTableRecord
  2
CONTENTTABDATA
 70
     0
  0
APPID
  5
E71E
330
746E
100
AcDbSymbolTableRecord
100
AcDbRegAppTableRecord
  2
CONTENTCURRENTTAB
 70
     0
  0
APPID
  5
F3BA
330
746E
100
AcDbSymbolTableRecord
100
AcDbRegAppTableRecord
  2
DRAWINGVARIABLESXDATA
 70
     0
  0
ENDTAB
  0
TABLE
  2
DIMSTYLE
  5
746F
330
0
100
AcDbSymbolTable
 70
     5
100
AcDbDimStyleTable
 71
     0
  0
DIMSTYLE
105
7484
330
746F
100
AcDbSymbolTableRecord
100
AcDbDimStyleTableRecord
  2
JIS
 70
     0
 41
2.5
 42
1.0
 43
7.0
 44
1.0
 73
     0
 74
     0
 77
     1
 78
     8
140
2.5
141
0.0
143
0.0394
147
0.0
172
     1
174
     1
175
     1
340
7475
  0
DIMSTYLE
105
F71F
102
{ACAD_REACTORS
330
18FC1
330
18FC2
330
18FC3
330
18FC4
330
18FC5
330
18FC6
330
18FE4
330
18FE5
330
18FE6
330
18FE7
330
18FE8
330
190CD
330
190CE
330
190CF
330
190DA
330
190DB
330
190DD
330
19112
330
19115
330
1911A
330
19122
330
1912A
330
19650
330
1968B
330
1968C
330
1968D
330
19698
330
1969C
330
19F6E
330
1A50D
330
1A610
102
}
330
746F
100
AcDbSymbolTableRecord
100
AcDbDimStyleTableRecord
  2
INABA_S40G
 70
     0
 40
40.0
 41
2.5
 42
0.5
 43
7.0
 44
1.5
 73
     0
 74
     0
 77
     3
 78
     8
140
3.0
141
0.0
143
0.0394
147
1.0
172
     1
173
     1
174
     1
178
     7
271
     1
340
F706
341
F770
343
F770
344
F770
  0
DIMSTYLE
105
18BF4
102
{ACAD_REACTORS
330
1A270
330
1A50C
102
}
330
746F
100
AcDbSymbolTableRecord
100
AcDbDimStyleTableRecord
  2
INABA_S40
 70
     0
 40
40.0
 41
2.5
 42
0.5
 43
7.0
 44
1.5
 73
     0
 74
     0
 77
     3
 78
     8
140
3.0
141
0.0
143
0.0394
147
1.0
172
     1
173
     1
174
     1
175
     1
178
     7
340
7475
  0
DIMSTYLE
105
1A165
330
746F
100
AcDbSymbolTableRecord
100
AcDbDimStyleTableRecord
  2
INABA_S50G
 70
     0
 41
125.0
 42
25.0
 43
7.0
 44
75.0
 73
     0
 74
     0
 77
     3
 78
     8
140
150.0
141
0.0
143
0.0394
147
25.0
172
     1
173
     1
174
     1
175
     1
178
     7
271
     1
340
F706
341
F770
343
F770
344
F770
  0
DIMSTYLE
105
1A808
330
746F
100
AcDbSymbolTableRecord
100
AcDbDimStyleTableRecord
  2
INABA_S20G
 70
     0
 40
20.0
 41
2.5
 42
0.5
 43
7.0
 44
1.5
 73
     0
 74
     0
 77
     3
 78
     8
140
3.0
141
0.0
143
0.0394
147
1.0
172
     1
173
     1
174
     1
178
     7
271
     1
340
F706
341
F770
343
F770
344
F770
  0
ENDTAB
  0
TABLE
  2
BLOCK_RECORD
  5
7466
330
0
100
AcDbSymbolTable
 70
    35
  0
BLOCK_RECORD
  5
747D
330
7466
100
AcDbSymbolTableRecord
100
AcDbBlockTableRecord
  2
*MODEL_SPACE
340
18A51
  0
BLOCK_RECORD
  5
747A
330
7466
100
AcDbSymbolTableRecord
100
AcDbBlockTableRecord
  2
*PAPER_SPACE
340
18A52
  0
BLOCK_RECORD
  5
F770
330
7466
100
AcDbSymbolTableRecord
100
AcDbBlockTableRecord
  2
_DOTSMALL
340
0
102
{BLKREFS
331
19B0E
331
19B0F
331
19B17
331
19B18
331
19B20
331
19B21
331
19B29
331
19B2A
331
19B34
331
19B35
331
19B3F
331
19B40
331
19B51
331
19B52
331
19BC5
331
19BC6
331
19BCE
331
19BCF
331
19BD8
331
19BD9
331
19BE3
331
19BE4
331
19BED
331
19BEE
331
19BF6
331
19BF7
331
19C00
331
19C01
331
19C09
331
19C0A
331
19C12
331
19C13
331
19C1D
331
19C1E
331
19C27
331
19C28
331
1A12F
331
1A130
331
1A77A
331
1A77B
331
1A783
331
1A784
331
1A7A2
331
1A7A3
331
1A7AB
331
1A7AC
331
1A7B4
331
1A7B5
331
1A7BD
331
1A7BE
331
1A7C6
331
1A7C7
331
1A7CF
331
1A7D0
331
1A7DA
331
1A7DB
331
1A7E5
331
1A7E6
331
1A7F0
331
1A7F1
331
1A7F9
331
1A7FA
102
}
  0
BLOCK_RECORD
  5
18AFD
330
7466
100
AcDbSymbolTableRecord
100
AcDbBlockTableRecord
  2
_DOT
340
0
102
{BLKREFS
331
1A78E
331
1A78F
331
1A797
331
1A798
102
}
  0
BLOCK_RECORD
  5
19173
330
7466
100
AcDbSymbolTableRecord
100
AcDbBlockTableRecord
  2
*D2
340
0
  0
BLOCK_RECORD
  5
19180
330
7466
100
AcDbSymbolTableRecord
100
AcDbBlockTableRecord
  2
*D3
340
0
  0
BLOCK_RECORD
  5
1918E
330
7466
100
AcDbSymbolTableRecord
100
AcDbBlockTableRecord
  2
*D4
340
0
  0
BLOCK_RECORD
  5
1919A
330
7466
100
AcDbSymbolTableRecord
100
AcDbBlockTableRecord
  2
*D5
340
0
  0
BLOCK_RECORD
  5
191A6
330
7466
100
AcDbSymbolTableRecord
100
AcDbBlockTableRecord
  2
*D6
340
0
  0
BLOCK_RECORD
  5
191B3
330
7466
100
AcDbSymbolTableRecord
100
AcDbBlockTableRecord
  2
*D7
340
0
  0
BLOCK_RECORD
  5
191BF
330
7466
100
AcDbSymbolTableRecord
100
AcDbBlockTableRecord
  2
*D8
340
0
  0
BLOCK_RECORD
  5
191CC
330
7466
100
AcDbSymbolTableRecord
100
AcDbBlockTableRecord
  2
*D9
340
0
  0
BLOCK_RECORD
  5
191DA
330
7466
100
AcDbSymbolTableRecord
100
AcDbBlockTableRecord
  2
*D10
340
0
  0
BLOCK_RECORD
  5
191E7
330
7466
100
AcDbSymbolTableRecord
100
AcDbBlockTableRecord
  2
*D11
340
0
  0
BLOCK_RECORD
  5
191F3
330
7466
100
AcDbSymbolTableRecord
100
AcDbBlockTableRecord
  2
*D12
340
0
  0
BLOCK_RECORD
  5
1924B
330
7466
100
AcDbSymbolTableRecord
100
AcDbBlockTableRecord
  2
*D13
340
0
  0
BLOCK_RECORD
  5
19257
330
7466
100
AcDbSymbolTableRecord
100
AcDbBlockTableRecord
  2
*D14
340
0
  0
BLOCK_RECORD
  5
19265
330
7466
100
AcDbSymbolTableRecord
100
AcDbBlockTableRecord
  2
*D15
340
0
  0
BLOCK_RECORD
  5
19273
330
7466
100
AcDbSymbolTableRecord
100
AcDbBlockTableRecord
  2
*D16
340
0
  0
BLOCK_RECORD
  5
19281
330
7466
100
AcDbSymbolTableRecord
100
AcDbBlockTableRecord
  2
*D17
340
0
  0
BLOCK_RECORD
  5
1928D
330
7466
100
AcDbSymbolTableRecord
100
AcDbBlockTableRecord
  2
*D18
340
0
  0
BLOCK_RECORD
  5
19299
330
7466
100
AcDbSymbolTableRecord
100
AcDbBlockTableRecord
  2
*D19
340
0
  0
BLOCK_RECORD
  5
192A5
330
7466
100
AcDbSymbolTableRecord
100
AcDbBlockTableRecord
  2
*D20
340
0
  0
BLOCK_RECORD
  5
192BD
330
7466
100
AcDbSymbolTableRecord
100
AcDbBlockTableRecord
  2
*D21
340
0
  0
BLOCK_RECORD
  5
192C9
330
7466
100
AcDbSymbolTableRecord
100
AcDbBlockTableRecord
  2
*D22
340
0
  0
BLOCK_RECORD
  5
192D7
330
7466
100
AcDbSymbolTableRecord
100
AcDbBlockTableRecord
  2
*D23
340
0
  0
BLOCK_RECORD
  5
19780
330
7466
100
AcDbSymbolTableRecord
100
AcDbBlockTableRecord
  2
*D24
340
0
  0
BLOCK_RECORD
  5
1978E
330
7466
100
AcDbSymbolTableRecord
100
AcDbBlockTableRecord
  2
*D25
340
0
  0
BLOCK_RECORD
  5
1979C
330
7466
100
AcDbSymbolTableRecord
100
AcDbBlockTableRecord
  2
*D26
340
0
  0
BLOCK_RECORD
  5
197A8
330
7466
100
AcDbSymbolTableRecord
100
AcDbBlockTableRecord
  2
*D27
340
0
  0
BLOCK_RECORD
  5
197B4
330
7466
100
AcDbSymbolTableRecord
100
AcDbBlockTableRecord
  2
*D28
340
0
  0
BLOCK_RECORD
  5
197C0
330
7466
100
AcDbSymbolTableRecord
100
AcDbBlockTableRecord
  2
*D29
340
0
  0
BLOCK_RECORD
  5
19FF4
330
7466
100
AcDbSymbolTableRecord
100
AcDbBlockTableRecord
  2
*D30
340
0
  0
BLOCK_RECORD
  5
1A2DB
330
7466
100
AcDbSymbolTableRecord
100
AcDbBlockTableRecord
  2
*D31
340
0
  0
BLOCK_RECORD
  5
1A620
330
7466
100
AcDbSymbolTableRecord
100
AcDbBlockTableRecord
  2
*D32
340
0
  0
BLOCK_RECORD
  5
1A62E
330
7466
100
AcDbSymbolTableRecord
100
AcDbBlockTableRecord
  2
*D33
340
0
  0
BLOCK_RECORD
  5
1A6AC
330
7466
100
AcDbSymbolTableRecord
100
AcDbBlockTableRecord
  2
*D34
340
0
  0
ENDTAB
  0
ENDSEC
  0
SECTION
  2
BLOCKS
  0
BLOCK
  5
7489
330
747D
100
AcDbEntity
  8
0
100
AcDbBlockBegin
  2
*MODEL_SPACE
 70
     0
 10
0.0
 20
0.0
 30
0.0
  3
*MODEL_SPACE
  1

  0
ENDBLK
  5
748A
330
747D
100
AcDbEntity
  8
0
100
AcDbBlockEnd
  0
BLOCK
  5
7487
330
747A
100
AcDbEntity
 67
     1
  8
0
100
AcDbBlockBegin
  2
*PAPER_SPACE
 70
     0
 10
0.0
 20
0.0
 30
0.0
  3
*PAPER_SPACE
  1

  0
ENDBLK
  5
7488
330
747A
100
AcDbEntity
 67
     1
  8
0
100
AcDbBlockEnd
  0
BLOCK
  5
F771
330
F770
100
AcDbEntity
  8
0
 48
50.0
100
AcDbBlockBegin
  2
_DOTSMALL
 70
     0
 10
0.0
 20
0.0
 30
0.0
  3
_DOTSMALL
  1

  0
LWPOLYLINE
  5
F772
330
F770
100
AcDbEntity
  8
0
  6
ByBlock
 62
     0
 48
50.0
100
AcDbPolyline
 90
        2
 70
     1
 43
0.5
 10
-0.0625
 20
0.0
 42
1.0
 10
0.0625
 20
0.0
 42
1.0
  0
ENDBLK
  5
F776
330
F770
100
AcDbEntity
  8
0
 48
50.0
100
AcDbBlockEnd
  0
BLOCK
  5
18AFE
330
18AFD
100
AcDbEntity
  8
0
 48
50.0
100
AcDbBlockBegin
  2
_DOT
 70
     0
 10
0.0
 20
0.0
 30
0.0
  3
_DOT
  1

  0
LWPOLYLINE
  5
18AFF
330
18AFD
100
AcDbEntity
  8
0
  6
ByBlock
 62
     0
 48
50.0
100
AcDbPolyline
 90
        2
 70
     1
 43
0.5
 10
-0.25
 20
0.0
 42
1.0
 10
0.25
 20
0.0
 42
1.0
  0
LINE
  5
18B00
330
18AFD
100
AcDbEntity
  8
0
  6
ByBlock
 62
     0
 48
50.0
100
AcDbLine
 10
-0.5
 20
0.0
 30
0.0
 11
-1.0
 21
0.0
 31
0.0
  0
ENDBLK
  5
18B01
330
18AFD
100
AcDbEntity
  8
0
 48
50.0
100
AcDbBlockEnd
  0
BLOCK
  5
1917E
330
19173
100
AcDbEntity
  8
0
 48
50.0
100
AcDbBlockBegin
  2
*D2
 70
     1
 10
0.0
 20
0.0
 30
0.0
  3
*D2
  1

  0
LINE
  5
19C23
330
19173
100
AcDbEntity
  8
寸法
 62
     0
 48
50.0
370
    -2
100
AcDbLine
 10
7599.129529479736
 20
2649.652601329416
 30
0.0
 11
6705.490147550377
 21
2649.652601329417
 31
0.0
  0
LINE
  5
19C24
330
19173
100
AcDbEntity
  8
寸法
 62
     0
 48
50.0
370
    -2
100
AcDbLine
 10
7030.476820321438
 20
2549.652601329416
 30
0.0
 11
6705.490147550377
 21
2549.652601329416
 31
0.0
  0
LINE
  5
19C25
330
19173
100
AcDbEntity
  8
寸法
 62
     0
 48
50.0
370
    -2
100
AcDbLine
 10
6765.490147550377
 20
2649.652601329417
 30
0.0
 11
6765.490147550377
 21
2549.652601329416
 31
0.0
  0
LINE
  5
19C26
330
19173
100
AcDbEntity
  8
寸法
 62
     0
 48
50.0
370
    -2
100
AcDbLine
 10
6765.490147550377
 20
2549.652601329416
 30
0.0
 11
6765.490147550377
 21
2177.558113140436
 31
0.0
  0
INSERT
  5
19C27
330
19173
100
AcDbEntity
  8
寸法
 62
     0
 48
50.0
370
    -2
100
AcDbBlockReference
  2
_DOTSMALL
 10
6765.490147550377
 20
2649.652601329417
 30
0.0
 41
100.0
 42
100.0
 43
100.0
 50
90.0
  0
INSERT
  5
19C28
330
19173
100
AcDbEntity
  8
寸法
 62
     0
 48
50.0
370
    -2
100
AcDbBlockReference
  2
_DOTSMALL
 10
6765.490147550377
 20
2549.652601329416
 30
0.0
 41
100.0
 42
100.0
 43
100.0
 50
270.0
  0
MTEXT
  5
19C29
330
19173
100
AcDbEntity
  8
寸法
 62
     7
 48
50.0
100
AcDbMText
 10
6665.490147550376
 20
2313.605357234925
 30
0.0
 40
120.0
 41
0.0
 71
     5
 72
     1
  1
\A1;100
  7
STYLE1
 11
0.0000000000000001
 21
1.0
 31
0.0
 73
     1
 44
1.0
1001
ACAD
1000
MTEXTBEGIN
1070
    73
1070
     1
1070
    44
1040
1.0
1070
    74
1070
     0
1000
MTEXTEND
  0
POINT
  5
19C2A
330
19173
100
AcDbEntity
  8
DEFPOINTS
 62
     0
 48
50.0
100
AcDbPoint
 10
7619.129529479734
 20
2649.652601329416
 30
0.0
  0
POINT
  5
19C2B
330
19173
100
AcDbEntity
  8
DEFPOINTS
 62
     0
 48
50.0
100
AcDbPoint
 10
7050.476820321437
 20
2549.652601329416
 30
0.0
  0
POINT
  5
19C2C
330
19173
100
AcDbEntity
  8
DEFPOINTS
 62
     0
 48
50.0
100
AcDbPoint
 10
6765.490147550377
 20
2549.652601329416
 30
0.0
  0
ENDBLK
  5
1917F
330
19173
100
AcDbEntity
  8
0
 48
50.0
100
AcDbBlockEnd
  0
BLOCK
  5
1918C
330
19180
100
AcDbEntity
  8
0
 48
50.0
100
AcDbBlockBegin
  2
*D3
 70
     1
 10
0.0
 20
0.0
 30
0.0
  3
*D3
  1

  0
LINE
  5
19C18
330
19180
100
AcDbEntity
  8
寸法
 62
     0
 48
50.0
370
    -2
100
AcDbLine
 10
7654.129529479735
 20
2699.652601329416
 30
0.0
 11
6990.476820321439
 21
2699.652601329417
 31
0.0
  0
LINE
  5
19C19
330
19180
100
AcDbEntity
  8
寸法
 62
     0
 48
50.0
370
    -2
100
AcDbLine
 10
7599.129529479736
 20
2649.652601329416
 30
0.0
 11
6990.476820321439
 21
2649.652601329417
 31
0.0
  0
LINE
  5
19C1A
330
19180
100
AcDbEntity
  8
寸法
 62
     0
 48
50.0
370
    -2
100
AcDbLine
 10
7050.476820321438
 20
2699.652601329417
 30
0.0
 11
7050.476820321438
 21
2799.652601329416
 31
0.0
  0
LINE
  5
19C1B
330
19180
100
AcDbEntity
  8
寸法
 62
     0
 48
50.0
370
    -2
100
AcDbLine
 10
7050.476820321438
 20
2649.652601329417
 30
0.0
 11
7050.476820321438
 21
2237.558113140437
 31
0.0
  0
LINE
  5
19C1C
330
19180
100
AcDbEntity
  8
寸法
 62
     0
 48
50.0
370
    -2
100
AcDbLine
 10
7050.476820321438
 20
2699.652601329417
 30
0.0
 11
7050.476820321438
 21
2649.652601329417
 31
0.0
  0
INSERT
  5
19C1D
330
19180
100
AcDbEntity
  8
寸法
 62
     0
 48
50.0
370
    -2
100
AcDbBlockReference
  2
_DOTSMALL
 10
7050.476820321438
 20
2699.652601329417
 30
0.0
 41
100.0
 42
100.0
 43
100.0
 50
270.0
  0
INSERT
  5
19C1E
330
19180
100
AcDbEntity
  8
寸法
 62
     0
 48
50.0
370
    -2
100
AcDbBlockReference
  2
_DOTSMALL
 10
7050.476820321438
 20
2649.652601329417
 30
0.0
 41
100.0
 42
100.0
 43
100.0
 50
90.0
  0
MTEXT
  5
19C1F
330
19180
100
AcDbEntity
  8
寸法
 62
     7
 48
50.0
100
AcDbMText
 10
6950.476820321437
 20
2343.605357234926
 30
0.0
 40
120.0
 41
0.0
 71
     5
 72
     1
  1
\A1;50
  7
STYLE1
 11
0.0000000000000001
 21
1.0
 31
0.0
 73
     1
 44
1.0
1001
ACAD
1000
MTEXTBEGIN
1070
    73
1070
     1
1070
    44
1040
1.0
1070
    74
1070
     0
1000
MTEXTEND
  0
POINT
  5
19C20
330
19180
100
AcDbEntity
  8
DEFPOINTS
 62
     0
 48
50.0
100
AcDbPoint
 10
7674.129529479735
 20
2699.652601329416
 30
0.0
  0
POINT
  5
19C21
330
19180
100
AcDbEntity
  8
DEFPOINTS
 62
     0
 48
50.0
100
AcDbPoint
 10
7619.129529479734
 20
2649.652601329416
 30
0.0
  0
POINT
  5
19C22
330
19180
100
AcDbEntity
  8
DEFPOINTS
 62
     0
 48
50.0
100
AcDbPoint
 10
7050.476820321438
 20
2649.652601329417
 30
0.0
  0
ENDBLK
  5
1918D
330
19180
100
AcDbEntity
  8
0
 48
50.0
100
AcDbBlockEnd
  0
BLOCK
  5
19198
330
1918E
100
AcDbEntity
  8
0
 48
50.0
100
AcDbBlockBegin
  2
*D4
 70
     1
 10
0.0
 20
0.0
 30
0.0
  3
*D4
  1

  0
LINE
  5
19C0F
330
1918E
100
AcDbEntity
  8
寸法
 62
     0
 48
50.0
370
    -2
100
AcDbLine
 10
7654.129529479735
 20
4489.652601329416
 30
0.0
 11
6990.476820321439
 21
4489.652601329416
 31
0.0
  0
LINE
  5
19C10
330
1918E
100
AcDbEntity
  8
寸法
 62
     0
 48
50.0
370
    -2
100
AcDbLine
 10
7654.129529479735
 20
2699.652601329416
 30
0.0
 11
6990.476820321439
 21
2699.652601329417
 31
0.0
  0
LINE
  5
19C11
330
1918E
100
AcDbEntity
  8
寸法
 62
     0
 48
50.0
370
    -2
100
AcDbLine
 10
7050.476820321438
 20
4489.652601329416
 30
0.0
 11
7050.476820321438
 21
2699.652601329417
 31
0.0
  0
INSERT
  5
19C12
330
1918E
100
AcDbEntity
  8
寸法
 62
     0
 48
50.0
370
    -2
100
AcDbBlockReference
  2
_DOTSMALL
 10
7050.476820321438
 20
4489.652601329416
 30
0.0
 41
100.0
 42
100.0
 43
100.0
 50
90.0
  0
INSERT
  5
19C13
330
1918E
100
AcDbEntity
  8
寸法
 62
     0
 48
50.0
370
    -2
100
AcDbBlockReference
  2
_DOTSMALL
 10
7050.476820321438
 20
2699.652601329417
 30
0.0
 41
100.0
 42
100.0
 43
100.0
 50
270.0
  0
MTEXT
  5
19C14
330
1918E
100
AcDbEntity
  8
寸法
 62
     7
 48
50.0
100
AcDbMText
 10
6950.476820321437
 20
3590.106899871374
 30
0.0
 40
120.0
 41
0.0
 71
     5
 72
     1
  1
\A1;1790
  7
STYLE1
 11
0.0000000000000001
 21
1.0
 31
0.0
 73
     1
 44
1.0
1001
ACAD
1000
MTEXTBEGIN
1070
    73
1070
     1
1070
    44
1040
1.0
1070
    74
1070
     0
1000
MTEXTEND
  0
POINT
  5
19C15
330
1918E
100
AcDbEntity
  8
DEFPOINTS
 62
     0
 48
50.0
100
AcDbPoint
 10
7674.129529479735
 20
4489.652601329416
 30
0.0
  0
POINT
  5
19C16
330
1918E
100
AcDbEntity
  8
DEFPOINTS
 62
     0
 48
50.0
100
AcDbPoint
 10
7674.129529479735
 20
2699.652601329416
 30
0.0
  0
POINT
  5
19C17
330
1918E
100
AcDbEntity
  8
DEFPOINTS
 62
     0
 48
50.0
100
AcDbPoint
 10
7050.476820321438
 20
2699.652601329417
 30
0.0
  0
ENDBLK
  5
19199
330
1918E
100
AcDbEntity
  8
0
 48
50.0
100
AcDbBlockEnd
  0
BLOCK
  5
191A4
330
1919A
100
AcDbEntity
  8
0
 48
50.0
100
AcDbBlockBegin
  2
*D5
 70
     1
 10
0.0
 20
0.0
 30
0.0
  3
*D5
  1

  0
LINE
  5
19C06
330
1919A
100
AcDbEntity
  8
寸法
 62
     0
 48
50.0
370
    -2
100
AcDbLine
 10
7654.129529479735
 20
2649.652601329416
 30
0.0
 11
6705.490147550377
 21
2649.652601329417
 31
0.0
  0
LINE
  5
19C07
330
1919A
100
AcDbEntity
  8
寸法
 62
     0
 48
50.0
370
    -2
100
AcDbLine
 10
7594.129529479734
 20
4724.652601329421
 30
0.0
 11
6705.490147550377
 21
4724.652601329421
 31
0.0
  0
LINE
  5
19C08
330
1919A
100
AcDbEntity
  8
寸法
 62
     0
 48
50.0
370
    -2
100
AcDbLine
 10
6765.490147550377
 20
2649.652601329417
 30
0.0
 11
6765.490147550377
 21
4724.652601329421
 31
0.0
  0
INSERT
  5
19C09
330
1919A
100
AcDbEntity
  8
寸法
 62
     0
 48
50.0
370
    -2
100
AcDbBlockReference
  2
_DOTSMALL
 10
6765.490147550377
 20
2649.652601329417
 30
0.0
 41
100.0
 42
100.0
 43
100.0
 50
270.0
  0
INSERT
  5
19C0A
330
1919A
100
AcDbEntity
  8
寸法
 62
     0
 48
50.0
370
    -2
100
AcDbBlockReference
  2
_DOTSMALL
 10
6765.490147550377
 20
4724.652601329421
 30
0.0
 41
100.0
 42
100.0
 43
100.0
 50
90.0
  0
MTEXT
  5
19C0B
330
1919A
100
AcDbEntity
  8
寸法
 62
     7
 48
50.0
100
AcDbMText
 10
6665.478336526755
 20
3643.858478822526
 30
0.0
 40
120.0
 41
0.0
 71
     5
 72
     1
  1
\A1;2075
  7
STYLE1
 11
0.0000000000000001
 21
1.0
 31
0.0
 73
     1
 44
1.0
1001
ACAD
1000
MTEXTBEGIN
1070
    73
1070
     1
1070
    44
1040
1.0
1070
    74
1070
     0
1000
MTEXTEND
  0
POINT
  5
19C0C
330
1919A
100
AcDbEntity
  8
DEFPOINTS
 62
     0
 48
50.0
100
AcDbPoint
 10
7674.129529479735
 20
2649.652601329416
 30
0.0
  0
POINT
  5
19C0D
330
1919A
100
AcDbEntity
  8
DEFPOINTS
 62
     0
 48
50.0
100
AcDbPoint
 10
7614.129529479734
 20
4724.652601329421
 30
0.0
  0
POINT
  5
19C0E
330
1919A
100
AcDbEntity
  8
DEFPOINTS
 62
     0
 48
50.0
100
AcDbPoint
 10
6765.490147550377
 20
4724.652601329421
 30
0.0
  0
ENDBLK
  5
191A5
330
1919A
100
AcDbEntity
  8
0
 48
50.0
100
AcDbBlockEnd
  0
BLOCK
  5
191B1
330
191A6
100
AcDbEntity
  8
0
 48
50.0
100
AcDbBlockBegin
  2
*D6
 70
     1
 10
0.0
 20
0.0
 30
0.0
  3
*D6
  1

  0
LINE
  5
19BFC
330
191A6
100
AcDbEntity
  8
寸法
 62
     0
 48
50.0
370
    -2
100
AcDbLine
 10
7613.533815770836
 20
4723.950308399078
 30
0.0
 11
6997.599376665563
 21
4741.664458673407
 31
0.0
  0
LINE
  5
19BFD
330
191A6
100
AcDbEntity
  8
寸法
 62
     0
 48
50.0
370
    -2
100
AcDbLine
 10
7609.48036021421
 20
4583.008584633363
 30
0.0
 11
6993.545921108936
 21
4600.722734907692
 31
0.0
  0
LINE
  5
19BFE
330
191A6
100
AcDbEntity
  8
寸法
 62
     0
 48
50.0
370
    -2
100
AcDbLine
 10
7053.521122711366
 20
4598.997860202744
 30
0.0
 11
7057.574578267993
 21
4739.939583968459
 31
0.0
  0
LINE
  5
19BFF
330
191A6
100
AcDbEntity
  8
寸法
 62
     0
 48
50.0
370
    -2
100
AcDbLine
 10
7057.574578267993
 20
4739.939583968459
 30
0.0
 11
7067.923826497677
 21
5099.790793583048
 31
0.0
  0
INSERT
  5
19C00
330
191A6
100
AcDbEntity
  8
寸法
 62
     0
 48
50.0
370
    -2
100
AcDbBlockReference
  2
_DOTSMALL
 10
7053.521122711366
 20
4598.997860202744
 30
0.0
 41
100.0
 42
100.0
 43
100.0
 50
268.3526390256379
  0
INSERT
  5
19C01
330
191A6
100
AcDbEntity
  8
寸法
 62
     0
 48
50.0
370
    -2
100
AcDbBlockReference
  2
_DOTSMALL
 10
7057.574578267993
 20
4739.939583968459
 30
0.0
 41
100.0
 42
100.0
 43
100.0
 50
88.35263902563784
  0
MTEXT
  5
19C02
330
191A6
100
AcDbEntity
  8
寸法
 62
     7
 48
50.0
100
AcDbMText
 10
6964.227928632907
 20
4972.719314619361
 30
0.0
 40
120.0
 41
0.0
 71
     5
 72
     1
  1
\A1;141
  7
STYLE1
 11
0.0287479117491228
 21
0.9995866933738486
 31
0.0
 73
     1
 44
1.0
1001
ACAD
1000
MTEXTBEGIN
1070
    73
1070
     1
1070
    44
1040
1.0
1070
    74
1070
     0
1000
MTEXTEND
  0
POINT
  5
19C03
330
191A6
100
AcDbEntity
  8
DEFPOINTS
 62
     0
 48
50.0
100
AcDbPoint
 10
7633.525549638313
 20
4723.375350164096
 30
0.0
  0
POINT
  5
19C04
330
191A6
100
AcDbEntity
  8
DEFPOINTS
 62
     0
 48
50.0
100
AcDbPoint
 10
7629.472094081688
 20
4582.43362639838
 30
0.0
  0
POINT
  5
19C05
330
191A6
100
AcDbEntity
  8
DEFPOINTS
 62
     0
 48
50.0
100
AcDbPoint
 10
7053.521122711366
 20
4598.997860202744
 30
0.0
  0
ENDBLK
  5
191B2
330
191A6
100
AcDbEntity
  8
0
 48
50.0
100
AcDbBlockEnd
  0
BLOCK
  5
191BD
330
191B3
100
AcDbEntity
  8
0
 48
50.0
100
AcDbBlockBegin
  2
*D7
 70
     1
 10
0.0
 20
0.0
 30
0.0
  3
*D7
  1

  0
LINE
  5
19BF3
330
191B3
100
AcDbEntity
  8
寸法
 62
     0
 48
50.0
370
    -2
100
AcDbLine
 10
8102.129529479737
 20
4432.652601329416
 30
0.0
 11
7321.656839900345
 21
4432.652601329416
 31
0.0
  0
LINE
  5
19BF4
330
191B3
100
AcDbEntity
  8
寸法
 62
     0
 48
50.0
370
    -2
100
AcDbLine
 10
8102.129529479737
 20
2707.652601329415
 30
0.0
 11
7321.656839900345
 21
2707.652601329415
 31
0.0
  0
LINE
  5
19BF5
330
191B3
100
AcDbEntity
  8
寸法
 62
     0
 48
50.0
370
    -2
100
AcDbLine
 10
7381.656839900346
 20
4432.652601329416
 30
0.0
 11
7381.656839900346
 21
2707.652601329415
 31
0.0
  0
INSERT
  5
19BF6
330
191B3
100
AcDbEntity
  8
寸法
 62
     0
 48
50.0
370
    -2
100
AcDbBlockReference
  2
_DOTSMALL
 10
7381.656839900346
 20
4432.652601329416
 30
0.0
 41
100.0
 42
100.0
 43
100.0
 50
90.0
  0
INSERT
  5
19BF7
330
191B3
100
AcDbEntity
  8
寸法
 62
     0
 48
50.0
370
    -2
100
AcDbBlockReference
  2
_DOTSMALL
 10
7381.656839900346
 20
2707.652601329415
 30
0.0
 41
100.0
 42
100.0
 43
100.0
 50
270.0
  0
MTEXT
  5
19BF8
330
191B3
100
AcDbEntity
  8
寸法
 62
     7
 48
50.0
100
AcDbMText
 10
7281.645028876723
 20
3549.099820847707
 30
0.0
 40
120.0
 41
0.0
 71
     5
 72
     1
  1
\A1;有効開口部高サ1725
  7
STYLE1
 11
0.0000000000000001
 21
1.0
 31
0.0
 73
     1
 44
1.0
1001
ACAD
1000
MTEXTBEGIN
1070
    73
1070
     1
1070
    44
1040
1.0
1070
    74
1070
     0
1000
MTEXTEND
  0
POINT
  5
19BF9
330
191B3
100
AcDbEntity
  8
DEFPOINTS
 62
     0
 48
50.0
100
AcDbPoint
 10
8122.129529479737
 20
4432.652601329416
 30
0.0
  0
POINT
  5
19BFA
330
191B3
100
AcDbEntity
  8
DEFPOINTS
 62
     0
 48
50.0
100
AcDbPoint
 10
8122.129529479737
 20
2707.652601329415
 30
0.0
  0
POINT
  5
19BFB
330
191B3
100
AcDbEntity
  8
DEFPOINTS
 62
     0
 48
50.0
100
AcDbPoint
 10
7381.656839900346
 20
2707.652601329415
 30
0.0
  0
ENDBLK
  5
191BE
330
191B3
100
AcDbEntity
  8
0
 48
50.0
100
AcDbBlockEnd
  0
BLOCK
  5
191CA
330
191BF
100
AcDbEntity
  8
0
 48
50.0
100
AcDbBlockBegin
  2
*D8
 70
     1
 10
0.0
 20
0.0
 30
0.0
  3
*D8
  1

  0
LINE
  5
19BE9
330
191BF
100
AcDbEntity
  8
寸法
 62
     0
 48
50.0
370
    -2
100
AcDbLine
 10
7613.533815770836
 20
4723.950308399081
 30
0.0
 11
6997.599376665556
 21
4741.664458673411
 31
0.0
  0
LINE
  5
19BEA
330
191BF
100
AcDbEntity
  8
寸法
 62
     0
 48
50.0
370
    -2
100
AcDbLine
 10
7609.48036021421
 20
4583.008584633367
 30
0.0
 11
6993.545921108931
 21
4600.722734907696
 31
0.0
  0
LINE
  5
19BEB
330
191BF
100
AcDbEntity
  8
寸法
 62
     0
 48
50.0
370
    -2
100
AcDbLine
 10
7053.521122711361
 20
4598.997860202749
 30
0.0
 11
7057.574578267987
 21
4739.939583968463
 31
0.0
  0
LINE
  5
19BEC
330
191BF
100
AcDbEntity
  8
寸法
 62
     0
 48
50.0
370
    -2
100
AcDbLine
 10
7057.574578267987
 20
4739.939583968463
 30
0.0
 11
7067.923826497672
 21
5099.790793583049
 31
0.0
  0
INSERT
  5
19BED
330
191BF
100
AcDbEntity
  8
寸法
 62
     0
 48
50.0
370
    -2
100
AcDbBlockReference
  2
_DOTSMALL
 10
7053.521122711361
 20
4598.997860202749
 30
0.0
 41
100.0
 42
100.0
 43
100.0
 50
268.3526390256378
  0
INSERT
  5
19BEE
330
191BF
100
AcDbEntity
  8
寸法
 62
     0
 48
50.0
370
    -2
100
AcDbBlockReference
  2
_DOTSMALL
 10
7057.574578267987
 20
4739.939583968463
 30
0.0
 41
100.0
 42
100.0
 43
100.0
 50
88.35263902563776
  0
MTEXT
  5
19BEF
330
191BF
100
AcDbEntity
  8
寸法
 62
     7
 48
50.0
100
AcDbMText
 10
6964.2279286329
 20
4972.719314619362
 30
0.0
 40
120.0
 41
0.0
 71
     5
 72
     1
  1
\A1;141
  7
STYLE1
 11
0.0287479117491237
 21
0.9995866933738488
 31
0.0
 73
     1
 44
1.0
1001
ACAD
1000
MTEXTBEGIN
1070
    73
1070
     1
1070
    44
1040
1.0
1070
    74
1070
     0
1000
MTEXTEND
  0
POINT
  5
19BF0
330
191BF
100
AcDbEntity
  8
DEFPOINTS
 62
     0
 48
50.0
100
AcDbPoint
 10
7633.525549638314
 20
4723.3753501641
 30
0.0
  0
POINT
  5
19BF1
330
191BF
100
AcDbEntity
  8
DEFPOINTS
 62
     0
 48
50.0
100
AcDbPoint
 10
7629.472094081688
 20
4582.433626398385
 30
0.0
  0
POINT
  5
19BF2
330
191BF
100
AcDbEntity
  8
DEFPOINTS
 62
     0
 48
50.0
100
AcDbPoint
 10
7053.521122711361
 20
4598.997860202749
 30
0.0
  0
ENDBLK
  5
191CB
330
191BF
100
AcDbEntity
  8
0
 48
50.0
100
AcDbBlockEnd
  0
BLOCK
  5
191D8
330
191CC
100
AcDbEntity
  8
0
 48
50.0
100
AcDbBlockBegin
  2
*D9
 70
     1
 10
0.0
 20
0.0
 30
0.0
  3
*D9
  1

  0
LINE
  5
19BDE
330
191CC
100
AcDbEntity
  8
寸法
 62
     0
 48
50.0
370
    -2
100
AcDbLine
 10
7674.129529479735
 20
4740.654219452395
 30
0.0
 11
7674.129529479735
 21
5183.310054908723
 31
0.0
  0
LINE
  5
19BDF
330
191CC
100
AcDbEntity
  8
寸法
 62
     0
 48
50.0
370
    -2
100
AcDbLine
 10
7614.129529479734
 20
4744.652601329423
 30
0.0
 11
7614.129529479734
 21
5183.310054908723
 31
0.0
  0
LINE
  5
19BE0
330
191CC
100
AcDbEntity
  8
寸法
 62
     0
 48
50.0
370
    -2
100
AcDbLine
 10
7674.129529479735
 20
5123.310054908723
 30
0.0
 11
7774.129529479735
 21
5123.310054908723
 31
0.0
  0
LINE
  5
19BE1
330
191CC
100
AcDbEntity
  8
寸法
 62
     0
 48
50.0
370
    -2
100
AcDbLine
 10
7614.129529479734
 20
5123.310054908723
 30
0.0
 11
7194.853938928552
 21
5123.310054908723
 31
0.0
  0
LINE
  5
19BE2
330
191CC
100
AcDbEntity
  8
寸法
 62
     0
 48
50.0
370
    -2
100
AcDbLine
 10
7674.129529479735
 20
5123.310054908723
 30
0.0
 11
7614.129529479734
 21
5123.310054908723
 31
0.0
  0
INSERT
  5
19BE3
330
191CC
100
AcDbEntity
  8
寸法
 62
     0
 48
50.0
370
    -2
100
AcDbBlockReference
  2
_DOTSMALL
 10
7674.129529479735
 20
5123.310054908723
 30
0.0
 41
100.0
 42
100.0
 43
100.0
 50
180.0
  0
INSERT
  5
19BE4
330
191CC
100
AcDbEntity
  8
寸法
 62
     0
 48
50.0
370
    -2
100
AcDbBlockReference
  2
_DOTSMALL
 10
7614.129529479734
 20
5123.310054908723
 30
0.0
 41
100.0
 42
100.0
 43
100.0
  0
MTEXT
  5
19BE5
330
191CC
100
AcDbEntity
  8
寸法
 62
     7
 48
50.0
100
AcDbMText
 10
7304.491734204145
 20
5223.310054908723
 30
0.0
 40
120.0
 41
0.0
 71
     5
 72
     1
  1
\A1;60
  7
STYLE1
 73
     1
 44
1.0
1001
ACAD
1000
MTEXTBEGIN
1070
    73
1070
     1
1070
    44
1040
1.0
1070
    74
1070
     0
1000
MTEXTEND
  0
POINT
  5
19BE6
330
191CC
100
AcDbEntity
  8
DEFPOINTS
 62
     0
 48
50.0
100
AcDbPoint
 10
7674.129529479735
 20
4720.654219452395
 30
0.0
  0
POINT
  5
19BE7
330
191CC
100
AcDbEntity
  8
DEFPOINTS
 62
     0
 48
50.0
100
AcDbPoint
 10
7614.129529479734
 20
4724.652601329423
 30
0.0
  0
POINT
  5
19BE8
330
191CC
100
AcDbEntity
  8
DEFPOINTS
 62
     0
 48
50.0
100
AcDbPoint
 10
7614.129529479734
 20
5123.310054908723
 30
0.0
  0
ENDBLK
  5
191D9
330
191CC
100
AcDbEntity
  8
0
 48
50.0
100
AcDbBlockEnd
  0
BLOCK
  5
191E5
330
191DA
100
AcDbEntity
  8
0
 48
50.0
100
AcDbBlockBegin
  2
*D10
 70
     1
 10
0.0
 20
0.0
 30
0.0
  3
*D10
  1

  0
LINE
  5
19BD4
330
191DA
100
AcDbEntity
  8
寸法
 62
     0
 48
50.0
370
    -2
100
AcDbLine
 10
10724.12952947973
 20
4691.463280941074
 30
0.0
 11
10724.12952947973
 21
5183.310054908725
 31
0.0
  0
LINE
  5
19BD5
330
191DA
100
AcDbEntity
  8
寸法
 62
     0
 48
50.0
370
    -2
100
AcDbLine
 10
10804.12952947973
 20
4689.652601329423
 30
0.0
 11
10804.12952947973
 21
5183.310054908725
 31
0.0
  0
LINE
  5
19BD6
330
191DA
100
AcDbEntity
  8
寸法
 62
     0
 48
50.0
370
    -2
100
AcDbLine
 10
10724.12952947973
 20
5123.310054908724
 30
0.0
 11
10804.12952947973
 21
5123.310054908724
 31
0.0
  0
LINE
  5
19BD7
330
191DA
100
AcDbEntity
  8
寸法
 62
     0
 48
50.0
370
    -2
100
AcDbLine
 10
10804.12952947973
 20
5123.310054908724
 30
0.0
 11
11116.22401766871
 21
5123.310054908724
 31
0.0
  0
INSERT
  5
19BD8
330
191DA
100
AcDbEntity
  8
寸法
 62
     0
 48
50.0
370
    -2
100
AcDbBlockReference
  2
_DOTSMALL
 10
10724.12952947973
 20
5123.310054908724
 30
0.0
 41
100.0
 42
100.0
 43
100.0
 50
180.0
  0
INSERT
  5
19BD9
330
191DA
100
AcDbEntity
  8
寸法
 62
     0
 48
50.0
370
    -2
100
AcDbBlockReference
  2
_DOTSMALL
 10
10804.12952947973
 20
5123.310054908724
 30
0.0
 41
100.0
 42
100.0
 43
100.0
  0
MTEXT
  5
19BDA
330
191DA
100
AcDbEntity
  8
寸法
 62
     7
 48
50.0
100
AcDbMText
 10
11010.17677357422
 20
5223.310054908725
 30
0.0
 40
120.0
 41
0.0
 71
     5
 72
     1
  1
\A1;80
  7
STYLE1
 73
     1
 44
1.0
1001
ACAD
1000
MTEXTBEGIN
1070
    73
1070
     1
1070
    44
1040
1.0
1070
    74
1070
     0
1000
MTEXTEND
  0
POINT
  5
19BDB
330
191DA
100
AcDbEntity
  8
DEFPOINTS
 62
     0
 48
50.0
100
AcDbPoint
 10
10724.12952947973
 20
4671.463280941074
 30
0.0
  0
POINT
  5
19BDC
330
191DA
100
AcDbEntity
  8
DEFPOINTS
 62
     0
 48
50.0
100
AcDbPoint
 10
10804.12952947973
 20
4669.652601329422
 30
0.0
  0
POINT
  5
19BDD
330
191DA
100
AcDbEntity
  8
DEFPOINTS
 62
     0
 48
50.0
100
AcDbPoint
 10
10804.12952947973
 20
5123.310054908724
 30
0.0
  0
ENDBLK
  5
191E6
330
191DA
100
AcDbEntity
  8
0
 48
50.0
100
AcDbBlockEnd
  0
BLOCK
  5
191F1
330
191E7
100
AcDbEntity
  8
0
 48
50.0
100
AcDbBlockBegin
  2
*D11
 70
     1
 10
0.0
 20
0.0
 30
0.0
  3
*D11
  1

  0
LINE
  5
19BCB
330
191E7
100
AcDbEntity
  8
寸法
 62
     0
 48
50.0
370
    -2
100
AcDbLine
 10
10804.12952947973
 20
4689.65260132942
 30
0.0
 11
10804.12952947973
 21
5413.423647695001
 31
0.0
  0
LINE
  5
19BCC
330
191E7
100
AcDbEntity
  8
寸法
 62
     0
 48
50.0
370
    -2
100
AcDbLine
 10
7614.129529479734
 20
4744.652601329423
 30
0.0
 11
7614.129529479734
 21
5413.423647695001
 31
0.0
  0
LINE
  5
19BCD
330
191E7
100
AcDbEntity
  8
寸法
 62
     0
 48
50.0
370
    -2
100
AcDbLine
 10
10804.12952947973
 20
5353.423647695001
 30
0.0
 11
7614.129529479734
 21
5353.423647695001
 31
0.0
  0
INSERT
  5
19BCE
330
191E7
100
AcDbEntity
  8
寸法
 62
     0
 48
50.0
370
    -2
100
AcDbBlockReference
  2
_DOTSMALL
 10
10804.12952947973
 20
5353.423647695001
 30
0.0
 41
100.0
 42
100.0
 43
100.0
  0
INSERT
  5
19BCF
330
191E7
100
AcDbEntity
  8
寸法
 62
     0
 48
50.0
370
    -2
100
AcDbBlockReference
  2
_DOTSMALL
 10
7614.129529479734
 20
5353.423647695001
 30
0.0
 41
100.0
 42
100.0
 43
100.0
 50
180.0
  0
MTEXT
  5
19BD0
330
191E7
100
AcDbEntity
  8
寸法
 62
     7
 48
50.0
100
AcDbMText
 10
9285.83533578926
 20
5453.423647695001
 30
0.0
 40
120.0
 41
0.0
 71
     5
 72
     1
  1
\A1;3190
  7
STYLE1
 73
     1
 44
1.0
1001
ACAD
1000
MTEXTBEGIN
1070
    73
1070
     1
1070
    44
1040
1.0
1070
    74
1070
     0
1000
MTEXTEND
  0
POINT
  5
19BD1
330
191E7
100
AcDbEntity
  8
DEFPOINTS
 62
     0
 48
50.0
100
AcDbPoint
 10
10804.12952947973
 20
4669.65260132942
 30
0.0
  0
POINT
  5
19BD2
330
191E7
100
AcDbEntity
  8
DEFPOINTS
 62
     0
 48
50.0
100
AcDbPoint
 10
7614.129529479734
 20
4724.652601329423
 30
0.0
  0
POINT
  5
19BD3
330
191E7
100
AcDbEntity
  8
DEFPOINTS
 62
     0
 48
50.0
100
AcDbPoint
 10
7614.129529479734
 20
5353.423647695001
 30
0.0
  0
ENDBLK
  5
191F2
330
191E7
100
AcDbEntity
  8
0
 48
50.0
100
AcDbBlockEnd
  0
BLOCK
  5
191FD
330
191F3
100
AcDbEntity
  8
0
 48
50.0
100
AcDbBlockBegin
  2
*D12
 70
     1
 10
0.0
 20
0.0
 30
0.0
  3
*D12
  1

  0
LINE
  5
19BC2
330
191F3
100
AcDbEntity
  8
寸法
 62
     0
 48
50.0
370
    -2
100
AcDbLine
 10
10724.12952947973
 20
4691.463280941074
 30
0.0
 11
10724.12952947973
 21
5183.310054908725
 31
0.0
  0
LINE
  5
19BC3
330
191F3
100
AcDbEntity
  8
寸法
 62
     0
 48
50.0
370
    -2
100
AcDbLine
 10
7674.129529479735
 20
4740.654219452395
 30
0.0
 11
7674.129529479735
 21
5183.310054908725
 31
0.0
  0
LINE
  5
19BC4
330
191F3
100
AcDbEntity
  8
寸法
 62
     0
 48
50.0
370
    -2
100
AcDbLine
 10
10724.12952947973
 20
5123.310054908724
 30
0.0
 11
7674.129529479735
 21
5123.310054908724
 31
0.0
  0
INSERT
  5
19BC5
330
191F3
100
AcDbEntity
  8
寸法
 62
     0
 48
50.0
370
    -2
100
AcDbBlockReference
  2
_DOTSMALL
 10
10724.12952947973
 20
5123.310054908724
 30
0.0
 41
100.0
 42
100.0
 43
100.0
  0
INSERT
  5
19BC6
330
191F3
100
AcDbEntity
  8
寸法
 62
     0
 48
50.0
370
    -2
100
AcDbBlockReference
  2
_DOTSMALL
 10
7674.129529479735
 20
5123.310054908724
 30
0.0
 41
100.0
 42
100.0
 43
100.0
 50
180.0
  0
MTEXT
  5
19BC7
330
191F3
100
AcDbEntity
  8
寸法
 62
     7
 48
50.0
100
AcDbMText
 10
9244.187904039147
 20
5223.310054908725
 30
0.0
 40
120.0
 41
0.0
 71
     5
 72
     1
  1
\A1;柱外寸法3050
  7
STYLE1
 73
     1
 44
1.0
1001
ACAD
1000
MTEXTBEGIN
1070
    73
1070
     1
1070
    44
1040
1.0
1070
    74
1070
     0
1000
MTEXTEND
  0
POINT
  5
19BC8
330
191F3
100
AcDbEntity
  8
DEFPOINTS
 62
     0
 48
50.0
100
AcDbPoint
 10
10724.12952947973
 20
4671.463280941074
 30
0.0
  0
POINT
  5
19BC9
330
191F3
100
AcDbEntity
  8
DEFPOINTS
 62
     0
 48
50.0
100
AcDbPoint
 10
7674.129529479735
 20
4720.654219452395
 30
0.0
  0
POINT
  5
19BCA
330
191F3
100
AcDbEntity
  8
DEFPOINTS
 62
     0
 48
50.0
100
AcDbPoint
 10
7674.129529479735
 20
5123.310054908724
 30
0.0
  0
ENDBLK
  5
191FE
330
191F3
100
AcDbEntity
  8
0
 48
50.0
100
AcDbBlockEnd
  0
BLOCK
  5
19255
330
1924B
100
AcDbEntity
  8
0
 48
50.0
100
AcDbBlockBegin
  2
*D13
 70
     1
 10
0.0
 20
0.0
 30
0.0
  3
*D13
  1

  0
LINE
  5
1A7F6
330
1924B
100
AcDbEntity
  8
寸法
 62
     0
 48
50.0
370
    -2
100
AcDbLine
 10
10715.62952947973
 20
9558.625399751306
 30
0.0
 11
11184.12952947972
 21
9433.091203097326
 31
0.0
  0
LINE
  5
1A7F7
330
1924B
100
AcDbEntity
  8
寸法
 62
     0
 48
50.0
370
    -2
100
AcDbLine
 10
10715.62952947973
 20
9108.625399751311
 30
0.0
 11
11184.12952947972
 21
8983.09120309733
 31
0.0
  0
LINE
  5
1A7F8
330
1924B
100
AcDbEntity
  8
寸法
 62
     0
 48
50.0
370
    -2
100
AcDbLine
 10
11124.12952947972
 20
9449.168154643194
 30
0.0
 11
11124.12952947972
 21
8999.168154643198
 31
0.0
  0
INSERT
  5
1A7F9
330
1924B
100
AcDbEntity
  8
寸法
 62
     0
 48
50.0
370
    -2
100
AcDbBlockReference
  2
_DOTSMALL
 10
11124.12952947972
 20
9449.168154643194
 30
0.0
 41
100.0
 42
100.0
 43
100.0
 50
90.0
  0
INSERT
  5
1A7FA
330
1924B
100
AcDbEntity
  8
寸法
 62
     0
 48
50.0
370
    -2
100
AcDbBlockReference
  2
_DOTSMALL
 10
11124.12952947972
 20
8999.168154643198
 30
0.0
 41
100.0
 42
100.0
 43
100.0
 50
270.0
  0
MTEXT
  5
1A7FB
330
1924B
100
AcDbEntity
  8
寸法
 62
     7
 48
50.0
100
AcDbMText
 10
11024.12952947972
 20
9224.168154643196
 30
0.0
 40
120.0
 41
0.0
 71
     5
 72
     1
  1
\A1;450
  7
STYLE1
 11
0.0000000000000001
 21
1.0
 31
0.0
 73
     1
 44
1.0
1001
ACAD
1000
MTEXTBEGIN
1070
    73
1070
     1
1070
    44
1040
1.0
1070
    74
1070
     0
1000
MTEXTEND
  0
POINT
  5
1A7FC
330
1924B
100
AcDbEntity
  8
DEFPOINTS
 62
     0
 48
50.0
100
AcDbPoint
 10
10695.62952947973
 20
9563.984383599928
 30
0.0
  0
POINT
  5
1A7FD
330
1924B
100
AcDbEntity
  8
DEFPOINTS
 62
     0
 48
50.0
100
AcDbPoint
 10
10695.62952947973
 20
9113.984383599932
 30
0.0
  0
POINT
  5
1A7FE
330
1924B
100
AcDbEntity
  8
DEFPOINTS
 62
     0
 48
50.0
100
AcDbPoint
 10
11124.12952947972
 20
8999.168154643198
 30
0.0
  0
ENDBLK
  5
19256
330
1924B
100
AcDbEntity
  8
0
 48
50.0
100
AcDbBlockEnd
  0
BLOCK
  5
19263
330
19257
100
AcDbEntity
  8
0
 48
50.0
100
AcDbBlockBegin
  2
*D14
 70
     1
 10
0.0
 20
0.0
 30
0.0
  3
*D14
  1

  0
LINE
  5
1A7EB
330
19257
100
AcDbEntity
  8
寸法
 62
     0
 48
50.0
370
    -2
100
AcDbLine
 10
10669.12952947973
 20
9613.984383599929
 30
0.0
 11
10669.12952947973
 21
9953.98438359993
 31
0.0
  0
LINE
  5
1A7EC
330
19257
100
AcDbEntity
  8
寸法
 62
     0
 48
50.0
370
    -2
100
AcDbLine
 10
10724.12952947973
 20
9613.984383599929
 30
0.0
 11
10724.12952947973
 21
9953.98438359993
 31
0.0
  0
LINE
  5
1A7ED
330
19257
100
AcDbEntity
  8
寸法
 62
     0
 48
50.0
370
    -2
100
AcDbLine
 10
10669.12952947973
 20
9893.98438359993
 30
0.0
 11
10569.12952947973
 21
9893.98438359993
 31
0.0
  0
LINE
  5
1A7EE
330
19257
100
AcDbEntity
  8
寸法
 62
     0
 48
50.0
370
    -2
100
AcDbLine
 10
10724.12952947973
 20
9893.98438359993
 30
0.0
 11
11141.1000922282
 21
9893.98438359993
 31
0.0
  0
LINE
  5
1A7EF
330
19257
100
AcDbEntity
  8
寸法
 62
     0
 48
50.0
370
    -2
100
AcDbLine
 10
10669.12952947973
 20
9893.98438359993
 30
0.0
 11
10724.12952947973
 21
9893.98438359993
 31
0.0
  0
INSERT
  5
1A7F0
330
19257
100
AcDbEntity
  8
寸法
 62
     0
 48
50.0
370
    -2
100
AcDbBlockReference
  2
_DOTSMALL
 10
10669.12952947973
 20
9893.98438359993
 30
0.0
 41
100.0
 42
100.0
 43
100.0
  0
INSERT
  5
1A7F1
330
19257
100
AcDbEntity
  8
寸法
 62
     0
 48
50.0
370
    -2
100
AcDbBlockReference
  2
_DOTSMALL
 10
10724.12952947973
 20
9893.98438359993
 30
0.0
 41
100.0
 42
100.0
 43
100.0
 50
180.0
  0
MTEXT
  5
1A7F2
330
19257
100
AcDbEntity
  8
寸法
 62
     7
 48
50.0
100
AcDbMText
 10
11032.61481085396
 20
9993.984383599929
 30
0.0
 40
120.0
 41
0.0
 71
     5
 72
     1
  1
\A1;55
  7
STYLE1
 73
     1
 44
1.0
1001
ACAD
1000
MTEXTBEGIN
1070
    73
1070
     1
1070
    44
1040
1.0
1070
    74
1070
     0
1000
MTEXTEND
  0
POINT
  5
1A7F3
330
19257
100
AcDbEntity
  8
DEFPOINTS
 62
     0
 48
50.0
100
AcDbPoint
 10
10669.12952947973
 20
9593.984383599929
 30
0.0
  0
POINT
  5
1A7F4
330
19257
100
AcDbEntity
  8
DEFPOINTS
 62
     0
 48
50.0
100
AcDbPoint
 10
10724.12952947973
 20
9593.984383599929
 30
0.0
  0
POINT
  5
1A7F5
330
19257
100
AcDbEntity
  8
DEFPOINTS
 62
     0
 48
50.0
100
AcDbPoint
 10
10724.12952947973
 20
9893.98438359993
 30
0.0
  0
ENDBLK
  5
19264
330
19257
100
AcDbEntity
  8
0
 48
50.0
100
AcDbBlockEnd
  0
BLOCK
  5
19271
330
19265
100
AcDbEntity
  8
0
 48
50.0
100
AcDbBlockBegin
  2
*D15
 70
     1
 10
0.0
 20
0.0
 30
0.0
  3
*D15
  1

  0
LINE
  5
1A7E0
330
19265
100
AcDbEntity
  8
寸法
 62
     0
 48
50.0
370
    -2
100
AcDbLine
 10
10744.12952947973
 20
9593.984383599929
 30
0.0
 11
11484.12952947973
 21
9593.984383599929
 31
0.0
  0
LINE
  5
1A7E1
330
19265
100
AcDbEntity
  8
寸法
 62
     0
 48
50.0
370
    -2
100
AcDbLine
 10
10744.12952947973
 20
9538.984383599933
 30
0.0
 11
11484.12952947973
 21
9538.984383599933
 31
0.0
  0
LINE
  5
1A7E2
330
19265
100
AcDbEntity
  8
寸法
 62
     0
 48
50.0
370
    -2
100
AcDbLine
 10
11424.12952947973
 20
9538.984383599933
 30
0.0
 11
11424.12952947973
 21
9438.984383599933
 31
0.0
  0
LINE
  5
1A7E3
330
19265
100
AcDbEntity
  8
寸法
 62
     0
 48
50.0
370
    -2
100
AcDbLine
 10
11424.12952947973
 20
9593.984383599929
 30
0.0
 11
11424.12952947973
 21
10010.9549463484
 31
0.0
  0
LINE
  5
1A7E4
330
19265
100
AcDbEntity
  8
寸法
 62
     0
 48
50.0
370
    -2
100
AcDbLine
 10
11424.12952947973
 20
9538.984383599933
 30
0.0
 11
11424.12952947973
 21
9593.984383599929
 31
0.0
  0
INSERT
  5
1A7E5
330
19265
100
AcDbEntity
  8
寸法
 62
     0
 48
50.0
370
    -2
100
AcDbBlockReference
  2
_DOTSMALL
 10
11424.12952947973
 20
9538.984383599933
 30
0.0
 41
100.0
 42
100.0
 43
100.0
 50
90.0
  0
INSERT
  5
1A7E6
330
19265
100
AcDbEntity
  8
寸法
 62
     0
 48
50.0
370
    -2
100
AcDbBlockReference
  2
_DOTSMALL
 10
11424.12952947973
 20
9593.984383599929
 30
0.0
 41
100.0
 42
100.0
 43
100.0
 50
270.0
  0
MTEXT
  5
1A7E7
330
19265
100
AcDbEntity
  8
寸法
 62
     7
 48
50.0
100
AcDbMText
 10
11324.12952947973
 20
9902.469664974169
 30
0.0
 40
120.0
 41
0.0
 71
     5
 72
     1
  1
\A1;55
  7
STYLE1
 11
0.0000000000000001
 21
1.0
 31
0.0
 73
     1
 44
1.0
1001
ACAD
1000
MTEXTBEGIN
1070
    73
1070
     1
1070
    44
1040
1.0
1070
    74
1070
     0
1000
MTEXTEND
  0
POINT
  5
1A7E8
330
19265
100
AcDbEntity
  8
DEFPOINTS
 62
     0
 48
50.0
100
AcDbPoint
 10
10724.12952947973
 20
9593.984383599929
 30
0.0
  0
POINT
  5
1A7E9
330
19265
100
AcDbEntity
  8
DEFPOINTS
 62
     0
 48
50.0
100
AcDbPoint
 10
10724.12952947973
 20
9538.984383599933
 30
0.0
  0
POINT
  5
1A7EA
330
19265
100
AcDbEntity
  8
DEFPOINTS
 62
     0
 48
50.0
100
AcDbPoint
 10
11424.12952947973
 20
9538.984383599933
 30
0.0
  0
ENDBLK
  5
19272
330
19265
100
AcDbEntity
  8
0
 48
50.0
100
AcDbBlockEnd
  0
BLOCK
  5
1927F
330
19273
100
AcDbEntity
  8
0
 48
50.0
100
AcDbBlockBegin
  2
*D16
 70
     1
 10
0.0
 20
0.0
 30
0.0
  3
*D16
  1

  0
LINE
  5
1A7D5
330
19273
100
AcDbEntity
  8
寸法
 62
     0
 48
50.0
370
    -2
100
AcDbLine
 10
10744.1295294797
 20
7858.984383599919
 30
0.0
 11
11484.1295294797
 21
7858.984383599919
 31
0.0
  0
LINE
  5
1A7D6
330
19273
100
AcDbEntity
  8
寸法
 62
     0
 48
50.0
370
    -2
100
AcDbLine
 10
10744.1295294797
 20
7803.984383599922
 30
0.0
 11
11484.1295294797
 21
7803.984383599922
 31
0.0
  0
LINE
  5
1A7D7
330
19273
100
AcDbEntity
  8
寸法
 62
     0
 48
50.0
370
    -2
100
AcDbLine
 10
11424.1295294797
 20
7858.984383599919
 30
0.0
 11
11424.1295294797
 21
7958.984383599918
 31
0.0
  0
LINE
  5
1A7D8
330
19273
100
AcDbEntity
  8
寸法
 62
     0
 48
50.0
370
    -2
100
AcDbLine
 10
11424.1295294797
 20
7803.984383599922
 30
0.0
 11
11424.1295294797
 21
7387.01382085144
 31
0.0
  0
LINE
  5
1A7D9
330
19273
100
AcDbEntity
  8
寸法
 62
     0
 48
50.0
370
    -2
100
AcDbLine
 10
11424.1295294797
 20
7858.984383599919
 30
0.0
 11
11424.1295294797
 21
7803.984383599922
 31
0.0
  0
INSERT
  5
1A7DA
330
19273
100
AcDbEntity
  8
寸法
 62
     0
 48
50.0
370
    -2
100
AcDbBlockReference
  2
_DOTSMALL
 10
11424.1295294797
 20
7858.984383599919
 30
0.0
 41
100.0
 42
100.0
 43
100.0
 50
270.0
  0
INSERT
  5
1A7DB
330
19273
100
AcDbEntity
  8
寸法
 62
     0
 48
50.0
370
    -2
100
AcDbBlockReference
  2
_DOTSMALL
 10
11424.1295294797
 20
7803.984383599922
 30
0.0
 41
100.0
 42
100.0
 43
100.0
 50
90.0
  0
MTEXT
  5
1A7DC
330
19273
100
AcDbEntity
  8
寸法
 62
     7
 48
50.0
100
AcDbMText
 10
11324.1295294797
 20
7495.499102225682
 30
0.0
 40
120.0
 41
0.0
 71
     5
 72
     1
  1
\A1;55
  7
STYLE1
 11
0.0000000000000001
 21
1.0
 31
0.0
 73
     1
 44
1.0
1001
ACAD
1000
MTEXTBEGIN
1070
    73
1070
     1
1070
    44
1040
1.0
1070
    74
1070
     0
1000
MTEXTEND
  0
POINT
  5
1A7DD
330
19273
100
AcDbEntity
  8
DEFPOINTS
 62
     0
 48
50.0
100
AcDbPoint
 10
10724.1295294797
 20
7858.984383599919
 30
0.0
  0
POINT
  5
1A7DE
330
19273
100
AcDbEntity
  8
DEFPOINTS
 62
     0
 48
50.0
100
AcDbPoint
 10
10724.1295294797
 20
7803.984383599922
 30
0.0
  0
POINT
  5
1A7DF
330
19273
100
AcDbEntity
  8
DEFPOINTS
 62
     0
 48
50.0
100
AcDbPoint
 10
11424.1295294797
 20
7803.984383599922
 30
0.0
  0
ENDBLK
  5
19280
330
19273
100
AcDbEntity
  8
0
 48
50.0
100
AcDbBlockEnd
  0
BLOCK
  5
1928B
330
19281
100
AcDbEntity
  8
0
 48
50.0
100
AcDbBlockBegin
  2
*D17
 70
     1
 10
0.0
 20
0.0
 30
0.0
  3
*D17
  1

  0
LINE
  5
1A7CC
330
19281
100
AcDbEntity
  8
寸法
 62
     0
 48
50.0
370
    -2
100
AcDbLine
 10
10744.12952947973
 20
9593.984383599929
 30
0.0
 11
11784.12952947972
 21
9593.984383599929
 31
0.0
  0
LINE
  5
1A7CD
330
19281
100
AcDbEntity
  8
寸法
 62
     0
 48
50.0
370
    -2
100
AcDbLine
 10
10744.1295294797
 20
7803.984383599922
 30
0.0
 11
11784.12952947972
 21
7803.984383599922
 31
0.0
  0
LINE
  5
1A7CE
330
19281
100
AcDbEntity
  8
寸法
 62
     0
 48
50.0
370
    -2
100
AcDbLine
 10
11724.12952947972
 20
9593.984383599929
 30
0.0
 11
11724.12952947972
 21
7803.984383599922
 31
0.0
  0
INSERT
  5
1A7CF
330
19281
100
AcDbEntity
  8
寸法
 62
     0
 48
50.0
370
    -2
100
AcDbBlockReference
  2
_DOTSMALL
 10
11724.12952947972
 20
9593.984383599929
 30
0.0
 41
100.0
 42
100.0
 43
100.0
 50
90.0
  0
INSERT
  5
1A7D0
330
19281
100
AcDbEntity
  8
寸法
 62
     0
 48
50.0
370
    -2
100
AcDbBlockReference
  2
_DOTSMALL
 10
11724.12952947972
 20
7803.984383599922
 30
0.0
 41
100.0
 42
100.0
 43
100.0
 50
270.0
  0
MTEXT
  5
1A7D1
330
19281
100
AcDbEntity
  8
寸法
 62
     7
 48
50.0
100
AcDbMText
 10
11624.12952947972
 20
8698.984383599926
 30
0.0
 40
120.0
 41
0.0
 71
     5
 72
     1
  1
\A1;1790
  7
STYLE1
 11
0.0000000000000001
 21
1.0
 31
0.0
 73
     1
 44
1.0
1001
ACAD
1000
MTEXTBEGIN
1070
    73
1070
     1
1070
    44
1040
1.0
1070
    74
1070
     0
1000
MTEXTEND
  0
POINT
  5
1A7D2
330
19281
100
AcDbEntity
  8
DEFPOINTS
 62
     0
 48
50.0
100
AcDbPoint
 10
10724.12952947973
 20
9593.984383599929
 30
0.0
  0
POINT
  5
1A7D3
330
19281
100
AcDbEntity
  8
DEFPOINTS
 62
     0
 48
50.0
100
AcDbPoint
 10
10724.1295294797
 20
7803.984383599922
 30
0.0
  0
POINT
  5
1A7D4
330
19281
100
AcDbEntity
  8
DEFPOINTS
 62
     0
 48
50.0
100
AcDbPoint
 10
11724.12952947972
 20
7803.984383599922
 30
0.0
  0
ENDBLK
  5
1928C
330
19281
100
AcDbEntity
  8
0
 48
50.0
100
AcDbBlockEnd
  0
BLOCK
  5
19297
330
1928D
100
AcDbEntity
  8
0
 48
50.0
100
AcDbBlockBegin
  2
*D18
 70
     1
 10
0.0
 20
0.0
 30
0.0
  3
*D18
  1

  0
LINE
  5
1A7C3
330
1928D
100
AcDbEntity
  8
寸法
 62
     0
 48
50.0
370
    -2
100
AcDbLine
 10
10744.12952947973
 20
9538.984383599933
 30
0.0
 11
11484.12952947972
 21
9538.984383599933
 31
0.0
  0
LINE
  5
1A7C4
330
1928D
100
AcDbEntity
  8
寸法
 62
     0
 48
50.0
370
    -2
100
AcDbLine
 10
10744.1295294797
 20
7858.984383599919
 30
0.0
 11
11484.12952947972
 21
7858.984383599919
 31
0.0
  0
LINE
  5
1A7C5
330
1928D
100
AcDbEntity
  8
寸法
 62
     0
 48
50.0
370
    -2
100
AcDbLine
 10
11424.12952947972
 20
9538.984383599933
 30
0.0
 11
11424.12952947972
 21
7858.984383599919
 31
0.0
  0
INSERT
  5
1A7C6
330
1928D
100
AcDbEntity
  8
寸法
 62
     0
 48
50.0
370
    -2
100
AcDbBlockReference
  2
_DOTSMALL
 10
11424.12952947972
 20
9538.984383599933
 30
0.0
 41
100.0
 42
100.0
 43
100.0
 50
90.0
  0
INSERT
  5
1A7C7
330
1928D
100
AcDbEntity
  8
寸法
 62
     0
 48
50.0
370
    -2
100
AcDbBlockReference
  2
_DOTSMALL
 10
11424.12952947972
 20
7858.984383599919
 30
0.0
 41
100.0
 42
100.0
 43
100.0
 50
270.0
  0
MTEXT
  5
1A7C8
330
1928D
100
AcDbEntity
  8
寸法
 62
     7
 48
50.0
100
AcDbMText
 10
11324.11771845609
 20
8698.984383599926
 30
0.0
 40
120.0
 41
0.0
 71
     5
 72
     1
  1
\A1;4X420=1680
  7
STYLE1
 11
0.0000000000000001
 21
1.0
 31
0.0
 73
     1
 44
1.0
1001
ACAD
1000
MTEXTBEGIN
1070
    73
1070
     1
1070
    44
1040
1.0
1070
    74
1070
     0
1000
MTEXTEND
  0
POINT
  5
1A7C9
330
1928D
100
AcDbEntity
  8
DEFPOINTS
 62
     0
 48
50.0
100
AcDbPoint
 10
10724.12952947973
 20
9538.984383599933
 30
0.0
  0
POINT
  5
1A7CA
330
1928D
100
AcDbEntity
  8
DEFPOINTS
 62
     0
 48
50.0
100
AcDbPoint
 10
10724.1295294797
 20
7858.984383599919
 30
0.0
  0
POINT
  5
1A7CB
330
1928D
100
AcDbEntity
  8
DEFPOINTS
 62
     0
 48
50.0
100
AcDbPoint
 10
11424.12952947972
 20
7858.984383599919
 30
0.0
  0
ENDBLK
  5
19298
330
1928D
100
AcDbEntity
  8
0
 48
50.0
100
AcDbBlockEnd
  0
BLOCK
  5
192A3
330
19299
100
AcDbEntity
  8
0
 48
50.0
100
AcDbBlockBegin
  2
*D19
 70
     1
 10
0.0
 20
0.0
 30
0.0
  3
*D19
  1

  0
LINE
  5
1A7BA
330
19299
100
AcDbEntity
  8
寸法
 62
     0
 48
50.0
370
    -2
100
AcDbLine
 10
7697.270545631029
 20
9093.984383599947
 30
0.0
 11
7595.600677027054
 21
8714.547268371067
 31
0.0
  0
LINE
  5
1A7BB
330
19299
100
AcDbEntity
  8
寸法
 62
     0
 48
50.0
370
    -2
100
AcDbLine
 10
9180.270545631101
 20
9093.98438359994
 30
0.0
 11
9078.600677027127
 21
8714.547268371067
 31
0.0
  0
LINE
  5
1A7BC
330
19299
100
AcDbEntity
  8
寸法
 62
     0
 48
50.0
370
    -2
100
AcDbLine
 10
7611.677628572921
 20
8774.547268371067
 30
0.0
 11
9094.677628572995
 21
8774.547268371067
 31
0.0
  0
INSERT
  5
1A7BD
330
19299
100
AcDbEntity
  8
寸法
 62
     0
 48
50.0
370
    -2
100
AcDbBlockReference
  2
_DOTSMALL
 10
7611.677628572921
 20
8774.547268371067
 30
0.0
 41
100.0
 42
100.0
 43
100.0
 50
180.0
  0
INSERT
  5
1A7BE
330
19299
100
AcDbEntity
  8
寸法
 62
     0
 48
50.0
370
    -2
100
AcDbBlockReference
  2
_DOTSMALL
 10
9094.677628572995
 20
8774.547268371067
 30
0.0
 41
100.0
 42
100.0
 43
100.0
  0
MTEXT
  5
1A7BF
330
19299
100
AcDbEntity
  8
寸法
 62
     7
 48
50.0
100
AcDbMText
 10
8260.370020867206
 20
8874.547268371067
 30
0.0
 40
120.0
 41
0.0
 71
     5
 72
     1
  1
\A1;1483
  7
STYLE1
 73
     1
 44
1.0
1001
ACAD
1000
MTEXTBEGIN
1070
    73
1070
     1
1070
    44
1040
1.0
1070
    74
1070
     0
1000
MTEXTEND
  0
POINT
  5
1A7C0
330
19299
100
AcDbEntity
  8
DEFPOINTS
 62
     0
 48
50.0
100
AcDbPoint
 10
7702.629529479651
 20
9113.984383599946
 30
0.0
  0
POINT
  5
1A7C1
330
19299
100
AcDbEntity
  8
DEFPOINTS
 62
     0
 48
50.0
100
AcDbPoint
 10
9185.629529479722
 20
9113.984383599939
 30
0.0
  0
POINT
  5
1A7C2
330
19299
100
AcDbEntity
  8
DEFPOINTS
 62
     0
 48
50.0
100
AcDbPoint
 10
9094.677628572995
 20
8774.547268371067
 30
0.0
  0
ENDBLK
  5
192A4
330
19299
100
AcDbEntity
  8
0
 48
50.0
100
AcDbBlockEnd
  0
BLOCK
  5
192AF
330
192A5
100
AcDbEntity
  8
0
 48
50.0
100
AcDbBlockBegin
  2
*D20
 70
     1
 10
0.0
 20
0.0
 30
0.0
  3
*D20
  1

  0
LINE
  5
1A7B1
330
192A5
100
AcDbEntity
  8
寸法
 62
     0
 48
50.0
370
    -2
100
AcDbLine
 10
7729.129529479727
 20
9613.984383599834
 30
0.0
 11
7729.129529479727
 21
9953.984383599882
 31
0.0
  0
LINE
  5
1A7B2
330
192A5
100
AcDbEntity
  8
寸法
 62
     0
 48
50.0
370
    -2
100
AcDbLine
 10
10669.12952947973
 20
9613.984383599929
 30
0.0
 11
10669.12952947973
 21
9953.984383599882
 31
0.0
  0
LINE
  5
1A7B3
330
192A5
100
AcDbEntity
  8
寸法
 62
     0
 48
50.0
370
    -2
100
AcDbLine
 10
7729.129529479727
 20
9893.984383599882
 30
0.0
 11
10669.12952947973
 21
9893.984383599882
 31
0.0
  0
INSERT
  5
1A7B4
330
192A5
100
AcDbEntity
  8
寸法
 62
     0
 48
50.0
370
    -2
100
AcDbBlockReference
  2
_DOTSMALL
 10
7729.129529479727
 20
9893.984383599882
 30
0.0
 41
100.0
 42
100.0
 43
100.0
 50
180.0
  0
INSERT
  5
1A7B5
330
192A5
100
AcDbEntity
  8
寸法
 62
     0
 48
50.0
370
    -2
100
AcDbBlockReference
  2
_DOTSMALL
 10
10669.12952947973
 20
9893.984383599882
 30
0.0
 41
100.0
 42
100.0
 43
100.0
  0
MTEXT
  5
1A7B6
330
192A5
100
AcDbEntity
  8
寸法
 62
     7
 48
50.0
100
AcDbMText
 10
9199.129529479726
 20
9993.996194623504
 30
0.0
 40
120.0
 41
0.0
 71
     5
 72
     1
  1
\A1;7X420=2940
  7
STYLE1
 73
     1
 44
1.0
1001
ACAD
1000
MTEXTBEGIN
1070
    73
1070
     1
1070
    44
1040
1.0
1070
    74
1070
     0
1000
MTEXTEND
  0
POINT
  5
1A7B7
330
192A5
100
AcDbEntity
  8
DEFPOINTS
 62
     0
 48
50.0
100
AcDbPoint
 10
7729.129529479727
 20
9593.984383599835
 30
0.0
  0
POINT
  5
1A7B8
330
192A5
100
AcDbEntity
  8
DEFPOINTS
 62
     0
 48
50.0
100
AcDbPoint
 10
10669.12952947973
 20
9593.984383599929
 30
0.0
  0
POINT
  5
1A7B9
330
192A5
100
AcDbEntity
  8
DEFPOINTS
 62
     0
 48
50.0
100
AcDbPoint
 10
10669.12952947973
 20
9893.984383599882
 30
0.0
  0
ENDBLK
  5
192B0
330
192A5
100
AcDbEntity
  8
0
 48
50.0
100
AcDbBlockEnd
  0
BLOCK
  5
192C7
330
192BD
100
AcDbEntity
  8
0
 48
50.0
100
AcDbBlockBegin
  2
*D21
 70
     1
 10
0.0
 20
0.0
 30
0.0
  3
*D21
  1

  0
LINE
  5
1A7A8
330
192BD
100
AcDbEntity
  8
寸法
 62
     0
 48
50.0
370
    -2
100
AcDbLine
 10
9207.270545631098
 20
9093.984383600005
 30
0.0
 11
9105.600677027108
 21
8714.547268371067
 31
0.0
  0
LINE
  5
1A7A9
330
192BD
100
AcDbEntity
  8
寸法
 62
     0
 48
50.0
370
    -2
100
AcDbLine
 10
10690.27054563111
 20
9093.984383599998
 30
0.0
 11
10588.60067702712
 21
8714.547268371067
 31
0.0
  0
LINE
  5
1A7AA
330
192BD
100
AcDbEntity
  8
寸法
 62
     0
 48
50.0
370
    -2
100
AcDbLine
 10
9121.677628572976
 20
8774.547268371067
 30
0.0
 11
10604.67762857299
 21
8774.547268371067
 31
0.0
  0
INSERT
  5
1A7AB
330
192BD
100
AcDbEntity
  8
寸法
 62
     0
 48
50.0
370
    -2
100
AcDbBlockReference
  2
_DOTSMALL
 10
9121.677628572976
 20
8774.547268371067
 30
0.0
 41
100.0
 42
100.0
 43
100.0
 50
180.0
  0
INSERT
  5
1A7AC
330
192BD
100
AcDbEntity
  8
寸法
 62
     0
 48
50.0
370
    -2
100
AcDbBlockReference
  2
_DOTSMALL
 10
10604.67762857299
 20
8774.547268371067
 30
0.0
 41
100.0
 42
100.0
 43
100.0
  0
MTEXT
  5
1A7AD
330
192BD
100
AcDbEntity
  8
寸法
 62
     7
 48
50.0
100
AcDbMText
 10
9711.352284992482
 20
8874.547268371067
 30
0.0
 40
120.0
 41
0.0
 71
     5
 72
     1
  1
\A1;1483
  7
STYLE1
 73
     1
 44
1.0
1001
ACAD
1000
MTEXTBEGIN
1070
    73
1070
     1
1070
    44
1040
1.0
1070
    74
1070
     0
1000
MTEXTEND
  0
POINT
  5
1A7AE
330
192BD
100
AcDbEntity
  8
DEFPOINTS
 62
     0
 48
50.0
100
AcDbPoint
 10
9212.62952947972
 20
9113.984383600005
 30
0.0
  0
POINT
  5
1A7AF
330
192BD
100
AcDbEntity
  8
DEFPOINTS
 62
     0
 48
50.0
100
AcDbPoint
 10
10695.62952947973
 20
9113.984383599998
 30
0.0
  0
POINT
  5
1A7B0
330
192BD
100
AcDbEntity
  8
DEFPOINTS
 62
     0
 48
50.0
100
AcDbPoint
 10
10604.67762857299
 20
8774.547268371067
 30
0.0
  0
ENDBLK
  5
192C8
330
192BD
100
AcDbEntity
  8
0
 48
50.0
100
AcDbBlockEnd
  0
BLOCK
  5
192D5
330
192C9
100
AcDbEntity
  8
0
 48
50.0
100
AcDbBlockBegin
  2
*D22
 70
     1
 10
0.0
 20
0.0
 30
0.0
  3
*D22
  1

  0
LINE
  5
1A79D
330
192C9
100
AcDbEntity
  8
寸法
 62
     0
 48
50.0
370
    -2
100
AcDbLine
 10
7674.129529479694
 20
9613.984383599834
 30
0.0
 11
7674.129529479694
 21
9953.984383599834
 31
0.0
  0
LINE
  5
1A79E
330
192C9
100
AcDbEntity
  8
寸法
 62
     0
 48
50.0
370
    -2
100
AcDbLine
 10
7729.129529479727
 20
9613.984383599834
 30
0.0
 11
7729.129529479727
 21
9953.984383599834
 31
0.0
  0
LINE
  5
1A79F
330
192C9
100
AcDbEntity
  8
寸法
 62
     0
 48
50.0
370
    -2
100
AcDbLine
 10
7729.129529479727
 20
9893.984383599836
 30
0.0
 11
7829.129529479728
 21
9893.984383599836
 31
0.0
  0
LINE
  5
1A7A0
330
192C9
100
AcDbEntity
  8
寸法
 62
     0
 48
50.0
370
    -2
100
AcDbLine
 10
7674.129529479694
 20
9893.984383599836
 30
0.0
 11
7257.158966731215
 21
9893.984383599836
 31
0.0
  0
LINE
  5
1A7A1
330
192C9
100
AcDbEntity
  8
寸法
 62
     0
 48
50.0
370
    -2
100
AcDbLine
 10
7729.129529479727
 20
9893.984383599836
 30
0.0
 11
7674.129529479694
 21
9893.984383599836
 31
0.0
  0
INSERT
  5
1A7A2
330
192C9
100
AcDbEntity
  8
寸法
 62
     0
 48
50.0
370
    -2
100
AcDbBlockReference
  2
_DOTSMALL
 10
7729.129529479727
 20
9893.984383599836
 30
0.0
 41
100.0
 42
100.0
 43
100.0
 50
180.0
  0
INSERT
  5
1A7A3
330
192C9
100
AcDbEntity
  8
寸法
 62
     0
 48
50.0
370
    -2
100
AcDbBlockReference
  2
_DOTSMALL
 10
7674.129529479694
 20
9893.984383599836
 30
0.0
 41
100.0
 42
100.0
 43
100.0
  0
MTEXT
  5
1A7A4
330
192C9
100
AcDbEntity
  8
寸法
 62
     7
 48
50.0
100
AcDbMText
 10
7365.644248105455
 20
9993.984383599835
 30
0.0
 40
120.0
 41
0.0
 71
     5
 72
     1
  1
\A1;55
  7
STYLE1
 73
     1
 44
1.0
1001
ACAD
1000
MTEXTBEGIN
1070
    73
1070
     1
1070
    44
1040
1.0
1070
    74
1070
     0
1000
MTEXTEND
  0
POINT
  5
1A7A5
330
192C9
100
AcDbEntity
  8
DEFPOINTS
 62
     0
 48
50.0
100
AcDbPoint
 10
7674.129529479694
 20
9593.984383599835
 30
0.0
  0
POINT
  5
1A7A6
330
192C9
100
AcDbEntity
  8
DEFPOINTS
 62
     0
 48
50.0
100
AcDbPoint
 10
7729.129529479727
 20
9593.984383599835
 30
0.0
  0
POINT
  5
1A7A7
330
192C9
100
AcDbEntity
  8
DEFPOINTS
 62
     0
 48
50.0
100
AcDbPoint
 10
7729.129529479727
 20
9893.984383599836
 30
0.0
  0
ENDBLK
  5
192D6
330
192C9
100
AcDbEntity
  8
0
 48
50.0
100
AcDbBlockEnd
  0
BLOCK
  5
192E1
330
192D7
100
AcDbEntity
  8
0
 48
50.0
100
AcDbBlockBegin
  2
*D23
 70
     1
 10
0.0
 20
0.0
 30
0.0
  3
*D23
  1

  0
LINE
  5
19B4E
330
192D7
100
AcDbEntity
  8
寸法
 62
     0
 48
50.0
370
    -2
100
AcDbLine
 10
10744.12952947973
 20
2649.652601329415
 30
0.0
 11
11475.3431084658
 21
2649.652601329415
 31
0.0
  0
LINE
  5
19B4F
330
192D7
100
AcDbEntity
  8
寸法
 62
     0
 48
50.0
370
    -2
100
AcDbLine
 10
10824.12952947974
 20
4669.652601329415
 30
0.0
 11
11475.3431084658
 21
4669.652601329415
 31
0.0
  0
LINE
  5
19B50
330
192D7
100
AcDbEntity
  8
寸法
 62
     0
 48
50.0
370
    -2
100
AcDbLine
 10
11415.3431084658
 20
2649.652601329415
 30
0.0
 11
11415.3431084658
 21
4669.652601329415
 31
0.0
  0
INSERT
  5
19B51
330
192D7
100
AcDbEntity
  8
寸法
 62
     0
 48
50.0
370
    -2
100
AcDbBlockReference
  2
_DOTSMALL
 10
11415.3431084658
 20
2649.652601329415
 30
0.0
 41
100.0
 42
100.0
 43
100.0
 50
270.0
  0
INSERT
  5
19B52
330
192D7
100
AcDbEntity
  8
寸法
 62
     0
 48
50.0
370
    -2
100
AcDbBlockReference
  2
_DOTSMALL
 10
11415.3431084658
 20
4669.652601329415
 30
0.0
 41
100.0
 42
100.0
 43
100.0
 50
90.0
  0
MTEXT
  5
19B53
330
192D7
100
AcDbEntity
  8
寸法
 62
     7
 48
50.0
100
AcDbMText
 10
11315.33129744218
 20
3659.652601329418
 30
0.0
 40
120.0
 41
0.0
 71
     5
 72
     1
  1
\A1;2020
  7
STYLE1
 11
0.0000000000000001
 21
1.0
 31
0.0
 73
     1
 44
1.0
1001
ACAD
1000
MTEXTBEGIN
1070
    73
1070
     1
1070
    44
1040
1.0
1070
    74
1070
     0
1000
MTEXTEND
  0
POINT
  5
19B54
330
192D7
100
AcDbEntity
  8
DEFPOINTS
 62
     0
 48
50.0
100
AcDbPoint
 10
10724.12952947973
 20
2649.652601329415
 30
0.0
  0
POINT
  5
19B55
330
192D7
100
AcDbEntity
  8
DEFPOINTS
 62
     0
 48
50.0
100
AcDbPoint
 10
10804.12952947974
 20
4669.652601329415
 30
0.0
  0
POINT
  5
19B56
330
192D7
100
AcDbEntity
  8
DEFPOINTS
 62
     0
 48
50.0
100
AcDbPoint
 10
11415.3431084658
 20
4669.652601329415
 30
0.0
  0
ENDBLK
  5
192E2
330
192D7
100
AcDbEntity
  8
0
 48
50.0
100
AcDbBlockEnd
  0
BLOCK
  5
1978C
330
19780
100
AcDbEntity
  8
0
 48
50.0
100
AcDbBlockBegin
  2
*D24
 70
     1
 10
0.0
 20
0.0
 30
0.0
  3
*D24
  1

  0
LINE
  5
19B3A
330
19780
100
AcDbEntity
  8
寸法
 62
     0
 48
50.0
370
    -2
100
AcDbLine
 10
5572.669183382193
 20
4744.652601329419
 30
0.0
 11
5572.669183382193
 21
5189.272860756688
 31
0.0
  0
LINE
  5
19B3B
330
19780
100
AcDbEntity
  8
寸法
 62
     0
 48
50.0
370
    -2
100
AcDbLine
 10
5522.669183382193
 20
4744.65260132942
 30
0.0
 11
5522.669183382193
 21
5189.272860756688
 31
0.0
  0
LINE
  5
19B3C
330
19780
100
AcDbEntity
  8
寸法
 62
     0
 48
50.0
370
    -2
100
AcDbLine
 10
5522.669183382193
 20
5129.272860756688
 30
0.0
 11
5422.669183382193
 21
5129.272860756688
 31
0.0
  0
LINE
  5
19B3D
330
19780
100
AcDbEntity
  8
寸法
 62
     0
 48
50.0
370
    -2
100
AcDbLine
 10
5572.669183382193
 20
5129.272860756688
 30
0.0
 11
5992.201708850917
 21
5129.272860756688
 31
0.0
  0
LINE
  5
19B3E
330
19780
100
AcDbEntity
  8
寸法
 62
     0
 48
50.0
370
    -2
100
AcDbLine
 10
5522.669183382193
 20
5129.272860756688
 30
0.0
 11
5572.669183382193
 21
5129.272860756688
 31
0.0
  0
INSERT
  5
19B3F
330
19780
100
AcDbEntity
  8
寸法
 62
     0
 48
50.0
370
    -2
100
AcDbBlockReference
  2
_DOTSMALL
 10
5522.669183382193
 20
5129.272860756688
 30
0.0
 41
100.0
 42
100.0
 43
100.0
  0
INSERT
  5
19B40
330
19780
100
AcDbEntity
  8
寸法
 62
     0
 48
50.0
370
    -2
100
AcDbBlockReference
  2
_DOTSMALL
 10
5572.669183382193
 20
5129.272860756688
 30
0.0
 41
100.0
 42
100.0
 43
100.0
 50
180.0
  0
MTEXT
  5
19B41
330
19780
100
AcDbEntity
  8
寸法
 62
     7
 48
50.0
100
AcDbMText
 10
5886.15446475643
 20
5229.272860756688
 30
0.0
 40
120.0
 41
0.0
 71
     5
 72
     1
  1
\A1;50
  7
STYLE1
 73
     1
 44
1.0
1001
ACAD
1000
MTEXTBEGIN
1070
    73
1070
     1
1070
    44
1040
1.0
1070
    74
1070
     0
1000
MTEXTEND
  0
POINT
  5
19B42
330
19780
100
AcDbEntity
  8
DEFPOINTS
 62
     0
 48
50.0
100
AcDbPoint
 10
5572.669183382193
 20
4724.652601329418
 30
0.0
  0
POINT
  5
19B43
330
19780
100
AcDbEntity
  8
DEFPOINTS
 62
     0
 48
50.0
100
AcDbPoint
 10
5522.669183382193
 20
4724.65260132942
 30
0.0
  0
POINT
  5
19B44
330
19780
100
AcDbEntity
  8
DEFPOINTS
 62
     0
 48
50.0
100
AcDbPoint
 10
5522.669183382193
 20
5129.272860756688
 30
0.0
  0
ENDBLK
  5
1978D
330
19780
100
AcDbEntity
  8
0
 48
50.0
100
AcDbBlockEnd
  0
BLOCK
  5
1979A
330
1978E
100
AcDbEntity
  8
0
 48
50.0
100
AcDbBlockBegin
  2
*D25
 70
     1
 10
0.0
 20
0.0
 30
0.0
  3
*D25
  1

  0
LINE
  5
19B2F
330
1978E
100
AcDbEntity
  8
寸法
 62
     0
 48
50.0
370
    -2
100
AcDbLine
 10
3732.669183382205
 20
4744.652601329423
 30
0.0
 11
3732.669183382205
 21
5189.272860756688
 31
0.0
  0
LINE
  5
19B30
330
1978E
100
AcDbEntity
  8
寸法
 62
     0
 48
50.0
370
    -2
100
AcDbLine
 10
3682.669183382205
 20
4744.65260132942
 30
0.0
 11
3682.669183382205
 21
5189.272860756688
 31
0.0
  0
LINE
  5
19B31
330
1978E
100
AcDbEntity
  8
寸法
 62
     0
 48
50.0
370
    -2
100
AcDbLine
 10
3732.669183382205
 20
5129.272860756688
 30
0.0
 11
3832.669183382204
 21
5129.272860756688
 31
0.0
  0
LINE
  5
19B32
330
1978E
100
AcDbEntity
  8
寸法
 62
     0
 48
50.0
370
    -2
100
AcDbLine
 10
3682.669183382205
 20
5129.272860756688
 30
0.0
 11
3263.136657913469
 21
5129.272860756688
 31
0.0
  0
LINE
  5
19B33
330
1978E
100
AcDbEntity
  8
寸法
 62
     0
 48
50.0
370
    -2
100
AcDbLine
 10
3732.669183382205
 20
5129.272860756688
 30
0.0
 11
3682.669183382205
 21
5129.272860756688
 31
0.0
  0
INSERT
  5
19B34
330
1978E
100
AcDbEntity
  8
寸法
 62
     0
 48
50.0
370
    -2
100
AcDbBlockReference
  2
_DOTSMALL
 10
3732.669183382205
 20
5129.272860756688
 30
0.0
 41
100.0
 42
100.0
 43
100.0
 50
180.0
  0
INSERT
  5
19B35
330
1978E
100
AcDbEntity
  8
寸法
 62
     0
 48
50.0
370
    -2
100
AcDbBlockReference
  2
_DOTSMALL
 10
3682.669183382205
 20
5129.272860756688
 30
0.0
 41
100.0
 42
100.0
 43
100.0
  0
MTEXT
  5
19B36
330
1978E
100
AcDbEntity
  8
寸法
 62
     7
 48
50.0
100
AcDbMText
 10
3369.183902007957
 20
5229.272860756688
 30
0.0
 40
120.0
 41
0.0
 71
     5
 72
     1
  1
\A1;50
  7
STYLE1
 73
     1
 44
1.0
1001
ACAD
1000
MTEXTBEGIN
1070
    73
1070
     1
1070
    44
1040
1.0
1070
    74
1070
     0
1000
MTEXTEND
  0
POINT
  5
19B37
330
1978E
100
AcDbEntity
  8
DEFPOINTS
 62
     0
 48
50.0
100
AcDbPoint
 10
3732.669183382205
 20
4724.652601329422
 30
0.0
  0
POINT
  5
19B38
330
1978E
100
AcDbEntity
  8
DEFPOINTS
 62
     0
 48
50.0
100
AcDbPoint
 10
3682.669183382205
 20
4724.65260132942
 30
0.0
  0
POINT
  5
19B39
330
1978E
100
AcDbEntity
  8
DEFPOINTS
 62
     0
 48
50.0
100
AcDbPoint
 10
3682.669183382205
 20
5129.272860756688
 30
0.0
  0
ENDBLK
  5
1979B
330
1978E
100
AcDbEntity
  8
0
 48
50.0
100
AcDbBlockEnd
  0
BLOCK
  5
197A6
330
1979C
100
AcDbEntity
  8
0
 48
50.0
100
AcDbBlockBegin
  2
*D26
 70
     1
 10
0.0
 20
0.0
 30
0.0
  3
*D26
  1

  0
LINE
  5
19B26
330
1979C
100
AcDbEntity
  8
寸法
 62
     0
 48
50.0
370
    -2
100
AcDbLine
 10
3682.669183382205
 20
4744.65260132942
 30
0.0
 11
3682.669183382205
 21
5398.866735178138
 31
0.0
  0
LINE
  5
19B27
330
1979C
100
AcDbEntity
  8
寸法
 62
     0
 48
50.0
370
    -2
100
AcDbLine
 10
5572.669183382193
 20
4744.652601329419
 30
0.0
 11
5572.669183382193
 21
5398.866735178138
 31
0.0
  0
LINE
  5
19B28
330
1979C
100
AcDbEntity
  8
寸法
 62
     0
 48
50.0
370
    -2
100
AcDbLine
 10
3682.669183382205
 20
5338.866735178139
 30
0.0
 11
5572.669183382193
 21
5338.866735178139
 31
0.0
  0
INSERT
  5
19B29
330
1979C
100
AcDbEntity
  8
寸法
 62
     0
 48
50.0
370
    -2
100
AcDbBlockReference
  2
_DOTSMALL
 10
3682.669183382205
 20
5338.866735178139
 30
0.0
 41
100.0
 42
100.0
 43
100.0
 50
180.0
  0
INSERT
  5
19B2A
330
1979C
100
AcDbEntity
  8
寸法
 62
     0
 48
50.0
370
    -2
100
AcDbBlockReference
  2
_DOTSMALL
 10
5572.669183382193
 20
5338.866735178139
 30
0.0
 41
100.0
 42
100.0
 43
100.0
  0
MTEXT
  5
19B2B
330
1979C
100
AcDbEntity
  8
寸法
 62
     7
 48
50.0
100
AcDbMText
 10
4627.669183382197
 20
5438.866735178138
 30
0.0
 40
120.0
 41
0.0
 71
     5
 72
     1
  1
\A1;1890
  7
STYLE1
 73
     1
 44
1.0
1001
ACAD
1000
MTEXTBEGIN
1070
    73
1070
     1
1070
    44
1040
1.0
1070
    74
1070
     0
1000
MTEXTEND
  0
POINT
  5
19B2C
330
1979C
100
AcDbEntity
  8
DEFPOINTS
 62
     0
 48
50.0
100
AcDbPoint
 10
3682.669183382205
 20
4724.65260132942
 30
0.0
  0
POINT
  5
19B2D
330
1979C
100
AcDbEntity
  8
DEFPOINTS
 62
     0
 48
50.0
100
AcDbPoint
 10
5572.669183382193
 20
4724.652601329418
 30
0.0
  0
POINT
  5
19B2E
330
1979C
100
AcDbEntity
  8
DEFPOINTS
 62
     0
 48
50.0
100
AcDbPoint
 10
5572.669183382193
 20
5338.866735178139
 30
0.0
  0
ENDBLK
  5
197A7
330
1979C
100
AcDbEntity
  8
0
 48
50.0
100
AcDbBlockEnd
  0
BLOCK
  5
197B2
330
197A8
100
AcDbEntity
  8
0
 48
50.0
100
AcDbBlockBegin
  2
*D27
 70
     1
 10
0.0
 20
0.0
 30
0.0
  3
*D27
  1

  0
LINE
  5
19B1D
330
197A8
100
AcDbEntity
  8
寸法
 62
     0
 48
50.0
370
    -2
100
AcDbLine
 10
5522.669183382193
 20
4744.65260132942
 30
0.0
 11
5522.669183382193
 21
5189.272860756688
 31
0.0
  0
LINE
  5
19B1E
330
197A8
100
AcDbEntity
  8
寸法
 62
     0
 48
50.0
370
    -2
100
AcDbLine
 10
3732.669183382205
 20
4744.652601329423
 30
0.0
 11
3732.669183382205
 21
5189.272860756688
 31
0.0
  0
LINE
  5
19B1F
330
197A8
100
AcDbEntity
  8
寸法
 62
     0
 48
50.0
370
    -2
100
AcDbLine
 10
5522.669183382193
 20
5129.272860756688
 30
0.0
 11
3732.669183382205
 21
5129.272860756688
 31
0.0
  0
INSERT
  5
19B20
330
197A8
100
AcDbEntity
  8
寸法
 62
     0
 48
50.0
370
    -2
100
AcDbBlockReference
  2
_DOTSMALL
 10
5522.669183382193
 20
5129.272860756688
 30
0.0
 41
100.0
 42
100.0
 43
100.0
  0
INSERT
  5
19B21
330
197A8
100
AcDbEntity
  8
寸法
 62
     0
 48
50.0
370
    -2
100
AcDbBlockReference
  2
_DOTSMALL
 10
3732.669183382205
 20
5129.272860756688
 30
0.0
 41
100.0
 42
100.0
 43
100.0
 50
180.0
  0
MTEXT
  5
19B22
330
197A8
100
AcDbEntity
  8
寸法
 62
     7
 48
50.0
100
AcDbMText
 10
4627.669183382197
 20
5229.272860756688
 30
0.0
 40
120.0
 41
0.0
 71
     5
 72
     1
  1
\A1;柱外寸法1790
  7
STYLE1
 73
     1
 44
1.0
1001
ACAD
1000
MTEXTBEGIN
1070
    73
1070
     1
1070
    44
1040
1.0
1070
    74
1070
     0
1000
MTEXTEND
  0
POINT
  5
19B23
330
197A8
100
AcDbEntity
  8
DEFPOINTS
 62
     0
 48
50.0
100
AcDbPoint
 10
5522.669183382193
 20
4724.65260132942
 30
0.0
  0
POINT
  5
19B24
330
197A8
100
AcDbEntity
  8
DEFPOINTS
 62
     0
 48
50.0
100
AcDbPoint
 10
3732.669183382205
 20
4724.652601329422
 30
0.0
  0
POINT
  5
19B25
330
197A8
100
AcDbEntity
  8
DEFPOINTS
 62
     0
 48
50.0
100
AcDbPoint
 10
3732.669183382205
 20
5129.272860756688
 30
0.0
  0
ENDBLK
  5
197B3
330
197A8
100
AcDbEntity
  8
0
 48
50.0
100
AcDbBlockEnd
  0
BLOCK
  5
197BE
330
197B4
100
AcDbEntity
  8
0
 48
50.0
100
AcDbBlockBegin
  2
*D28
 70
     1
 10
0.0
 20
0.0
 30
0.0
  3
*D28
  1

  0
LINE
  5
19B14
330
197B4
100
AcDbEntity
  8
寸法
 62
     0
 48
50.0
370
    -2
100
AcDbLine
 10
3860.169183382197
 20
2329.652601329414
 30
0.0
 11
3860.169183382197
 21
2003.605272029037
 31
0.0
  0
LINE
  5
19B15
330
197B4
100
AcDbEntity
  8
寸法
 62
     0
 48
50.0
370
    -2
100
AcDbLine
 10
3660.169183382201
 20
2329.652601329415
 30
0.0
 11
3660.169183382201
 21
2003.605272029037
 31
0.0
  0
LINE
  5
19B16
330
197B4
100
AcDbEntity
  8
寸法
 62
     0
 48
50.0
370
    -2
100
AcDbLine
 10
3860.169183382197
 20
2063.605272029037
 30
0.0
 11
3660.169183382201
 21
2063.605272029037
 31
0.0
  0
INSERT
  5
19B17
330
197B4
100
AcDbEntity
  8
寸法
 62
     0
 48
50.0
370
    -2
100
AcDbBlockReference
  2
_DOTSMALL
 10
3860.169183382197
 20
2063.605272029037
 30
0.0
 41
100.0
 42
100.0
 43
100.0
  0
INSERT
  5
19B18
330
197B4
100
AcDbEntity
  8
寸法
 62
     0
 48
50.0
370
    -2
100
AcDbBlockReference
  2
_DOTSMALL
 10
3660.169183382201
 20
2063.605272029037
 30
0.0
 41
100.0
 42
100.0
 43
100.0
 50
180.0
  0
MTEXT
  5
19B19
330
197B4
100
AcDbEntity
  8
寸法
 62
     7
 48
50.0
100
AcDbMText
 10
3760.169183382199
 20
2163.61708305266
 30
0.0
 40
120.0
 41
0.0
 71
     5
 72
     1
  1
\A1;200
  7
STYLE1
 73
     1
 44
1.0
1001
ACAD
1000
MTEXTBEGIN
1070
    73
1070
     1
1070
    44
1040
1.0
1070
    74
1070
     0
1000
MTEXTEND
  0
POINT
  5
19B1A
330
197B4
100
AcDbEntity
  8
DEFPOINTS
 62
     0
 48
50.0
100
AcDbPoint
 10
3860.169183382197
 20
2349.652601329413
 30
0.0
  0
POINT
  5
19B1B
330
197B4
100
AcDbEntity
  8
DEFPOINTS
 62
     0
 48
50.0
100
AcDbPoint
 10
3660.169183382201
 20
2349.652601329415
 30
0.0
  0
POINT
  5
19B1C
330
197B4
100
AcDbEntity
  8
DEFPOINTS
 62
     0
 48
50.0
100
AcDbPoint
 10
3660.169183382201
 20
2063.605272029037
 30
0.0
  0
ENDBLK
  5
197BF
330
197B4
100
AcDbEntity
  8
0
 48
50.0
100
AcDbBlockEnd
  0
BLOCK
  5
197CA
330
197C0
100
AcDbEntity
  8
0
 48
50.0
100
AcDbBlockBegin
  2
*D29
 70
     1
 10
0.0
 20
0.0
 30
0.0
  3
*D29
  1

  0
LINE
  5
19B0B
330
197C0
100
AcDbEntity
  8
寸法
 62
     0
 48
50.0
370
    -2
100
AcDbLine
 10
3640.169183382201
 20
2349.652601329415
 30
0.0
 11
3450.669180135564
 21
2349.652601329415
 31
0.0
  0
LINE
  5
19B0C
330
197C0
100
AcDbEntity
  8
寸法
 62
     0
 48
50.0
370
    -2
100
AcDbLine
 10
3615.169183382197
 20
2549.652601329415
 30
0.0
 11
3450.669180135564
 21
2549.652601329415
 31
0.0
  0
LINE
  5
19B0D
330
197C0
100
AcDbEntity
  8
寸法
 62
     0
 48
50.0
370
    -2
100
AcDbLine
 10
3510.669180135563
 20
2349.652601329415
 30
0.0
 11
3510.669180135563
 21
2549.652601329415
 31
0.0
  0
INSERT
  5
19B0E
330
197C0
100
AcDbEntity
  8
寸法
 62
     0
 48
50.0
370
    -2
100
AcDbBlockReference
  2
_DOTSMALL
 10
3510.669180135563
 20
2349.652601329415
 30
0.0
 41
100.0
 42
100.0
 43
100.0
 50
270.0
  0
INSERT
  5
19B0F
330
197C0
100
AcDbEntity
  8
寸法
 62
     0
 48
50.0
370
    -2
100
AcDbBlockReference
  2
_DOTSMALL
 10
3510.669180135563
 20
2549.652601329415
 30
0.0
 41
100.0
 42
100.0
 43
100.0
 50
90.0
  0
MTEXT
  5
19B10
330
197C0
100
AcDbEntity
  8
寸法
 62
     7
 48
50.0
100
AcDbMText
 10
3410.657369111941
 20
2449.652601329416
 30
0.0
 40
120.0
 41
0.0
 71
     5
 72
     1
  1
\A1;200
  7
STYLE1
 11
0.0000000000000001
 21
1.0
 31
0.0
 73
     1
 44
1.0
1001
ACAD
1000
MTEXTBEGIN
1070
    73
1070
     1
1070
    44
1040
1.0
1070
    74
1070
     0
1000
MTEXTEND
  0
POINT
  5
19B11
330
197C0
100
AcDbEntity
  8
DEFPOINTS
 62
     0
 48
50.0
100
AcDbPoint
 10
3660.169183382201
 20
2349.652601329415
 30
0.0
  0
POINT
  5
19B12
330
197C0
100
AcDbEntity
  8
DEFPOINTS
 62
     0
 48
50.0
100
AcDbPoint
 10
3635.169183382197
 20
2549.652601329415
 30
0.0
  0
POINT
  5
19B13
330
197C0
100
AcDbEntity
  8
DEFPOINTS
 62
     0
 48
50.0
100
AcDbPoint
 10
3510.669180135563
 20
2549.652601329415
 30
0.0
  0
ENDBLK
  5
197CB
330
197C0
100
AcDbEntity
  8
0
 48
50.0
100
AcDbBlockEnd
  0
BLOCK
  5
19FFE
330
19FF4
100
AcDbEntity
  8
0
 48
50.0
100
AcDbBlockBegin
  2
*D30
 70
     1
 10
0.0
 20
0.0
 30
0.0
  3
*D30
  1

  0
LINE
  5
1A12C
330
19FF4
100
AcDbEntity
  8
寸法
 62
     0
 48
50.0
370
    -2
100
AcDbLine
 10
7774.129529479736
 20
2329.652601329415
 30
0.0
 11
7774.129529479736
 21
2003.605272029037
 31
0.0
  0
LINE
  5
1A12D
330
19FF4
100
AcDbEntity
  8
寸法
 62
     0
 48
50.0
370
    -2
100
AcDbLine
 10
7574.129529479735
 20
2329.652601329415
 30
0.0
 11
7574.129529479735
 21
2003.605272029037
 31
0.0
  0
LINE
  5
1A12E
330
19FF4
100
AcDbEntity
  8
寸法
 62
     0
 48
50.0
370
    -2
100
AcDbLine
 10
7774.129529479736
 20
2063.605272029037
 30
0.0
 11
7574.129529479735
 21
2063.605272029037
 31
0.0
  0
INSERT
  5
1A12F
330
19FF4
100
AcDbEntity
  8
寸法
 62
     0
 48
50.0
370
    -2
100
AcDbBlockReference
  2
_DOTSMALL
 10
7774.129529479736
 20
2063.605272029037
 30
0.0
 41
100.0
 42
100.0
 43
100.0
  0
INSERT
  5
1A130
330
19FF4
100
AcDbEntity
  8
寸法
 62
     0
 48
50.0
370
    -2
100
AcDbBlockReference
  2
_DOTSMALL
 10
7574.129529479735
 20
2063.605272029037
 30
0.0
 41
100.0
 42
100.0
 43
100.0
 50
180.0
  0
MTEXT
  5
1A131
330
19FF4
100
AcDbEntity
  8
寸法
 62
     7
 48
50.0
100
AcDbMText
 10
7674.129529479735
 20
2163.61708305266
 30
0.0
 40
120.0
 41
0.0
 71
     5
 72
     1
  1
\A1;200
  7
STYLE1
 73
     1
 44
1.0
1001
ACAD
1000
MTEXTBEGIN
1070
    73
1070
     1
1070
    44
1040
1.0
1070
    74
1070
     0
1000
MTEXTEND
  0
POINT
  5
1A132
330
19FF4
100
AcDbEntity
  8
DEFPOINTS
 62
     0
 48
50.0
100
AcDbPoint
 10
7774.129529479736
 20
2349.652601329415
 30
0.0
  0
POINT
  5
1A133
330
19FF4
100
AcDbEntity
  8
DEFPOINTS
 62
     0
 48
50.0
100
AcDbPoint
 10
7574.129529479735
 20
2349.652601329415
 30
0.0
  0
POINT
  5
1A134
330
19FF4
100
AcDbEntity
  8
DEFPOINTS
 62
     0
 48
50.0
100
AcDbPoint
 10
7574.129529479735
 20
2063.605272029037
 30
0.0
  0
ENDBLK
  5
19FFF
330
19FF4
100
AcDbEntity
  8
0
 48
50.0
100
AcDbBlockEnd
  0
BLOCK
  5
1A2E5
330
1A2DB
100
AcDbEntity
  8
0
 48
50.0
100
AcDbBlockBegin
  2
*D31
 70
     1
 10
0.0
 20
0.0
 30
0.0
  3
*D31
  1

  0
LINE
  5
1A794
330
1A2DB
100
AcDbEntity
  8
寸法
 62
     0
 48
50.0
370
    -2
100
AcDbLine
 10
8161.129529479699
 20
7706.984383599792
 30
0.0
 11
8161.129529479699
 21
7043.865475513128
 31
0.0
  0
LINE
  5
1A795
330
1A2DB
100
AcDbEntity
  8
寸法
 62
     0
 48
50.0
370
    -2
100
AcDbLine
 10
9427.129529479698
 20
7706.984383599792
 30
0.0
 11
9427.129529479698
 21
7043.865475513128
 31
0.0
  0
LINE
  5
1A796
330
1A2DB
100
AcDbEntity
  8
寸法
 62
     0
 48
50.0
370
    -2
100
AcDbLine
 10
8181.129529479697
 20
7083.865475513128
 30
0.0
 11
9407.129529479698
 21
7083.865475513128
 31
0.0
  0
INSERT
  5
1A797
330
1A2DB
100
AcDbEntity
  8
寸法
 62
     0
 48
50.0
370
    -2
100
AcDbBlockReference
  2
_DOT
 10
8161.129529479699
 20
7083.865475513128
 30
0.0
 41
20.0
 42
20.0
 43
20.0
 50
180.0
  0
INSERT
  5
1A798
330
1A2DB
100
AcDbEntity
  8
寸法
 62
     0
 48
50.0
370
    -2
100
AcDbBlockReference
  2
_DOT
 10
9427.129529479698
 20
7083.865475513128
 30
0.0
 41
20.0
 42
20.0
 43
20.0
  0
MTEXT
  5
1A799
330
1A2DB
100
AcDbEntity
  8
寸法
 62
     7
 48
50.0
100
AcDbMText
 10
8815.822349164562
 20
7275.877286536751
 30
0.0
 40
120.0
 41
0.0
 71
     5
 72
     1
  1
\A1;有効開口部間口\P1266
  7
STYLE1
 73
     1
 44
1.0
1001
ACAD
1000
MTEXTBEGIN
1070
    73
1070
     1
1070
    44
1040
1.0
1070
    74
1070
     0
1000
MTEXTEND
  0
POINT
  5
1A79A
330
1A2DB
100
AcDbEntity
  8
DEFPOINTS
 62
     0
 48
50.0
100
AcDbPoint
 10
8161.129529479699
 20
7726.98438359979
 30
0.0
  0
POINT
  5
1A79B
330
1A2DB
100
AcDbEntity
  8
DEFPOINTS
 62
     0
 48
50.0
100
AcDbPoint
 10
9427.129529479698
 20
7726.98438359979
 30
0.0
  0
POINT
  5
1A79C
330
1A2DB
100
AcDbEntity
  8
DEFPOINTS
 62
     0
 48
50.0
100
AcDbPoint
 10
9427.129529479698
 20
7083.865475513128
 30
0.0
  0
ENDBLK
  5
1A2E6
330
1A2DB
100
AcDbEntity
  8
0
 48
50.0
100
AcDbBlockEnd
  0
BLOCK
  5
1A62C
330
1A620
100
AcDbEntity
  8
0
 48
50.0
100
AcDbBlockBegin
  2
*D32
 70
     1
 10
0.0
 20
0.0
 30
0.0
  3
*D32
  1

  0
LINE
  5
1A789
330
1A620
100
AcDbEntity
  8
寸法
 62
     0
 48
50.0
370
    -2
100
AcDbLine
 10
7654.129529479722
 20
7803.984383599758
 30
0.0
 11
7339.518283853005
 21
7803.984383599758
 31
0.0
  0
LINE
  5
1A78A
330
1A620
100
AcDbEntity
  8
寸法
 62
     0
 48
50.0
370
    -2
100
AcDbLine
 10
8102.129529479697
 20
7728.984383599758
 30
0.0
 11
7339.518283853005
 21
7728.984383599758
 31
0.0
  0
LINE
  5
1A78B
330
1A620
100
AcDbEntity
  8
寸法
 62
     0
 48
50.0
370
    -2
100
AcDbLine
 10
7379.518283853006
 20
7823.984383599757
 30
0.0
 11
7379.518283853006
 21
7843.984383599758
 31
0.0
  0
LINE
  5
1A78C
330
1A620
100
AcDbEntity
  8
寸法
 62
     0
 48
50.0
370
    -2
100
AcDbLine
 10
7379.518283853006
 20
7708.984383599759
 30
0.0
 11
7379.518283853006
 21
7488.013820851278
 31
0.0
  0
LINE
  5
1A78D
330
1A620
100
AcDbEntity
  8
寸法
 62
     0
 48
50.0
370
    -2
100
AcDbLine
 10
7379.518283853006
 20
7803.984383599758
 30
0.0
 11
7379.518283853006
 21
7728.984383599758
 31
0.0
  0
INSERT
  5
1A78E
330
1A620
100
AcDbEntity
  8
寸法
 62
     0
 48
50.0
370
    -2
100
AcDbBlockReference
  2
_DOT
 10
7379.518283853006
 20
7803.984383599758
 30
0.0
 41
20.0
 42
20.0
 43
20.0
 50
270.0
  0
INSERT
  5
1A78F
330
1A620
100
AcDbEntity
  8
寸法
 62
     0
 48
50.0
370
    -2
100
AcDbBlockReference
  2
_DOT
 10
7379.518283853006
 20
7728.984383599758
 30
0.0
 41
20.0
 42
20.0
 43
20.0
 50
90.0
  0
MTEXT
  5
1A790
330
1A620
100
AcDbEntity
  8
寸法
 62
     7
 48
50.0
100
AcDbMText
 10
7287.518283853003
 20
7588.499102225521
 30
0.0
 40
120.0
 41
0.0
 71
     5
 72
     1
  1
\A1;75
  7
STYLE1
 11
0.0000000000000001
 21
1.0
 31
0.0
 73
     1
 44
1.0
1001
ACAD
1000
MTEXTBEGIN
1070
    73
1070
     1
1070
    44
1040
1.0
1070
    74
1070
     0
1000
MTEXTEND
  0
POINT
  5
1A791
330
1A620
100
AcDbEntity
  8
DEFPOINTS
 62
     0
 48
50.0
100
AcDbPoint
 10
7674.129529479722
 20
7803.984383599758
 30
0.0
  0
POINT
  5
1A792
330
1A620
100
AcDbEntity
  8
DEFPOINTS
 62
     0
 48
50.0
100
AcDbPoint
 10
8122.129529479696
 20
7728.984383599758
 30
0.0
  0
POINT
  5
1A793
330
1A620
100
AcDbEntity
  8
DEFPOINTS
 62
     0
 48
50.0
100
AcDbPoint
 10
7379.518283853006
 20
7728.984383599758
 30
0.0
  0
ENDBLK
  5
1A62D
330
1A620
100
AcDbEntity
  8
0
 48
50.0
100
AcDbBlockEnd
  0
BLOCK
  5
1A638
330
1A62E
100
AcDbEntity
  8
0
 48
50.0
100
AcDbBlockBegin
  2
*D33
 70
     1
 10
0.0
 20
0.0
 30
0.0
  3
*D33
  1

  0
LINE
  5
1A780
330
1A62E
100
AcDbEntity
  8
寸法
 62
     0
 48
50.0
370
    -2
100
AcDbLine
 10
8122.129529479698
 20
7706.984383599792
 30
0.0
 11
8122.129529479698
 21
6746.854668172023
 31
0.0
  0
LINE
  5
1A781
330
1A62E
100
AcDbEntity
  8
寸法
 62
     0
 48
50.0
370
    -2
100
AcDbLine
 10
10276.1295294797
 20
7706.984383599792
 30
0.0
 11
10276.1295294797
 21
6746.854668172023
 31
0.0
  0
LINE
  5
1A782
330
1A62E
100
AcDbEntity
  8
寸法
 62
     0
 48
50.0
370
    -2
100
AcDbLine
 10
8122.129529479698
 20
6806.854668172022
 30
0.0
 11
10276.1295294797
 21
6806.854668172022
 31
0.0
  0
INSERT
  5
1A783
330
1A62E
100
AcDbEntity
  8
寸法
 62
     0
 48
50.0
370
    -2
100
AcDbBlockReference
  2
_DOTSMALL
 10
8122.129529479698
 20
6806.854668172022
 30
0.0
 41
100.0
 42
100.0
 43
100.0
 50
180.0
  0
INSERT
  5
1A784
330
1A62E
100
AcDbEntity
  8
寸法
 62
     0
 48
50.0
370
    -2
100
AcDbBlockReference
  2
_DOTSMALL
 10
10276.1295294797
 20
6806.854668172022
 30
0.0
 41
100.0
 42
100.0
 43
100.0
  0
MTEXT
  5
1A785
330
1A62E
100
AcDbEntity
  8
寸法
 62
     7
 48
50.0
100
AcDbMText
 10
9221.262286227011
 20
6906.866479195645
 30
0.0
 40
120.0
 41
0.0
 71
     5
 72
     1
  1
\A1;2154
  7
STYLE1
 73
     1
 44
1.0
1001
ACAD
1000
MTEXTBEGIN
1070
    73
1070
     1
1070
    44
1040
1.0
1070
    74
1070
     0
1000
MTEXTEND
  0
POINT
  5
1A786
330
1A62E
100
AcDbEntity
  8
DEFPOINTS
 62
     0
 48
50.0
100
AcDbPoint
 10
8122.129529479698
 20
7726.98438359979
 30
0.0
  0
POINT
  5
1A787
330
1A62E
100
AcDbEntity
  8
DEFPOINTS
 62
     0
 48
50.0
100
AcDbPoint
 10
10276.1295294797
 20
7726.98438359979
 30
0.0
  0
POINT
  5
1A788
330
1A62E
100
AcDbEntity
  8
DEFPOINTS
 62
     0
 48
50.0
100
AcDbPoint
 10
10276.1295294797
 20
6806.854668172022
 30
0.0
  0
ENDBLK
  5
1A639
330
1A62E
100
AcDbEntity
  8
0
 48
50.0
100
AcDbBlockEnd
  0
BLOCK
  5
1A6B6
330
1A6AC
100
AcDbEntity
  8
0
 48
50.0
100
AcDbBlockBegin
  2
*D34
 70
     1
 10
0.0
 20
0.0
 30
0.0
  3
*D34
  1

  0
LINE
  5
1A777
330
1A6AC
100
AcDbEntity
  8
寸法
 62
     0
 48
50.0
370
    -2
100
AcDbLine
 10
7674.129529479722
 20
7783.984383599758
 30
0.0
 11
7674.129529479722
 21
6459.879518045461
 31
0.0
  0
LINE
  5
1A778
330
1A6AC
100
AcDbEntity
  8
寸法
 62
     0
 48
50.0
370
    -2
100
AcDbLine
 10
10724.1295294797
 20
7783.984383599921
 30
0.0
 11
10724.1295294797
 21
6459.879518045461
 31
0.0
  0
LINE
  5
1A779
330
1A6AC
100
AcDbEntity
  8
寸法
 62
     0
 48
50.0
370
    -2
100
AcDbLine
 10
7674.129529479722
 20
6519.879518045462
 30
0.0
 11
10724.1295294797
 21
6519.879518045462
 31
0.0
  0
INSERT
  5
1A77A
330
1A6AC
100
AcDbEntity
  8
寸法
 62
     0
 48
50.0
370
    -2
100
AcDbBlockReference
  2
_DOTSMALL
 10
7674.129529479722
 20
6519.879518045462
 30
0.0
 41
100.0
 42
100.0
 43
100.0
 50
180.0
  0
INSERT
  5
1A77B
330
1A6AC
100
AcDbEntity
  8
寸法
 62
     0
 48
50.0
370
    -2
100
AcDbBlockReference
  2
_DOTSMALL
 10
10724.1295294797
 20
6519.879518045462
 30
0.0
 41
100.0
 42
100.0
 43
100.0
  0
MTEXT
  5
1A77C
330
1A6AC
100
AcDbEntity
  8
寸法
 62
     7
 48
50.0
100
AcDbMText
 10
9218.845359853654
 20
6619.879518045462
 30
0.0
 40
120.0
 41
0.0
 71
     5
 72
     1
  1
\A1;3050
  7
STYLE1
 73
     1
 44
1.0
1001
ACAD
1000
MTEXTBEGIN
1070
    73
1070
     1
1070
    44
1040
1.0
1070
    74
1070
     0
1000
MTEXTEND
  0
POINT
  5
1A77D
330
1A6AC
100
AcDbEntity
  8
DEFPOINTS
 62
     0
 48
50.0
100
AcDbPoint
 10
7674.129529479722
 20
7803.984383599758
 30
0.0
  0
POINT
  5
1A77E
330
1A6AC
100
AcDbEntity
  8
DEFPOINTS
 62
     0
 48
50.0
100
AcDbPoint
 10
10724.1295294797
 20
7803.984383599922
 30
0.0
  0
POINT
  5
1A77F
330
1A6AC
100
AcDbEntity
  8
DEFPOINTS
 62
     0
 48
50.0
100
AcDbPoint
 10
10724.1295294797
 20
6519.879518045462
 30
0.0
  0
ENDBLK
  5
1A6B7
330
1A6AC
100
AcDbEntity
  8
0
 48
50.0
100
AcDbBlockEnd
  0
ENDSEC
  0
SECTION
  2
ENTITIES
  0
LINE
  5
10B57
330
747D
100
AcDbEntity
  8
補助
  6
PHANTOM
 62
   230
 48
50.0
100
AcDbLine
 10
139.9999999999995
 20
11409.6
 30
0.0
 11
16307.2
 21
11409.6
 31
0.0
  0
LINE
  5
10B59
330
747D
100
AcDbEntity
  8
仕様書枠
  6
Continuous
 48
50.0
100
AcDbLine
 10
13107.2
 20
1200.0
 30
0.0
 11
13107.2
 21
-0.0000000000000729
 31
0.0
  0
LINE
  5
10B5C
330
747D
100
AcDbEntity
  8
仕様書枠
 48
50.0
100
AcDbLine
 10
16307.2
 20
1200.0
 30
0.0
 11
16307.2
 21
-0.0000000000000909
 31
0.0
  0
LINE
  5
10B5D
330
747D
100
AcDbEntity
  8
仕様書枠
 48
50.0
100
AcDbLine
 10
140.0
 20
0.0
 30
0.0
 11
16307.2
 21
-0.0000000000000909
 31
0.0
  0
LINE
  5
10B5E
330
747D
100
AcDbEntity
  8
補助
  6
PHANTOM
 62
   230
 48
50.0
100
AcDbLine
 10
16307.2
 20
11409.6
 30
0.0
 11
16307.2
 21
1200.0
 31
0.0
  0
LINE
  5
10B6C
330
747D
100
AcDbEntity
  8
仕様書枠
 48
50.0
100
AcDbLine
 10
13107.2
 20
1200.0
 30
0.0
 11
16307.2
 21
1200.0
 31
0.0
  0
LINE
  5
10B6D
330
747D
100
AcDbEntity
  8
補助
  6
PHANTOM
 62
   230
 48
50.0
100
AcDbLine
 10
13107.2
 20
11409.6
 30
0.0
 11
13107.2
 21
4800.0
 31
0.0
  0
LINE
  5
10B6F
330
747D
100
AcDbEntity
  8
補助
  6
PHANTOM
 62
   230
 48
50.0
100
AcDbLine
 10
13107.2
 20
4800.0
 30
0.0
 11
16307.2
 21
4800.0
 31
0.0
  0
LINE
  5
10B72
330
747D
100
AcDbEntity
  8
文字
 62
     7
 48
50.0
100
AcDbLine
 10
13187.2
 20
400.0
 30
0.0
 11
16227.2
 21
400.0
 31
0.0
  0
TEXT
  5
10B73
330
747D
100
AcDbEntity
  8
文字
 62
     7
 48
50.0
100
AcDbText
 10
13162.9790565769
 20
895.0906074299405
 30
0.0
 40
200.0
  1
外 形 図
  7
STYLE2
100
AcDbText
  0
TEXT
  5
10B74
330
747D
100
AcDbEntity
  8
文字
 62
     7
 48
50.0
100
AcDbText
 10
13201.43669998441
 20
477.2740661031255
 30
0.0
 40
160.0
  1
機種名
  7
STYLE2
100
AcDbText
  0
TEXT
  5
10B76
330
747D
100
AcDbEntity
  8
文字
 62
     7
 48
50.0
100
AcDbText
 10
13209.4053442172
 20
76.09434707649343
 30
0.0
 40
100.0
  1
○床面積 ： 5.63㎡(1.70坪) 　
  7
STYLE2
100
AcDbText
  0
TEXT
  5
10B79
330
747D
100
AcDbEntity
  8
文字
 62
     7
 48
50.0
100
AcDbText
 10
14524.131837222
 20
1031.557706291228
 30
0.0
 40
100.0
  1
NO.27     <縮尺> S=1/40
  7
STYLE2
100
AcDbText
  0
LINE
  5
10B7B
330
747D
100
AcDbEntity
  8
仕様書枠
 48
50.0
100
AcDbLine
 10
13107.2
 20
800.0
 30
0.0
 11
14251.2
 21
800.0
 31
0.0
  0
LINE
  5
10B88
330
747D
100
AcDbEntity
  8
仕様書枠
  6
Continuous
 48
50.0
100
AcDbLine
 10
14251.2
 20
1200.0
 30
0.0
 11
14251.2
 21
800.0
 31
0.0
  0
TEXT
  5
15729
330
747D
100
AcDbEntity
  8
文字
 62
     7
 48
50.0
100
AcDbText
 10
14615.57307782431
 20
869.7247441969318
 30
0.0
 40
100.0
  1
～一般型・多雪地型～
  7
STYLE2
100
AcDbText
  0
MTEXT
  5
18F5C
330
747D
100
AcDbEntity
  8
寸法
 62
     7
 48
50.0
100
AcDbMText
 10
9969.232066572871
 20
9180.219201797241
 30
0.0
 40
96.0
 41
0.0
 71
     5
 72
     1
  1
棚 2段
  7
STYLE1
 73
     1
 44
1.0
1001
ACAD
1000
MTEXTBEGIN
1070
    73
1070
     1
1070
    44
1040
1.0
1070
    74
1070
     0
1000
MTEXTEND
  0
MTEXT
  5
18F5D
330
747D
100
AcDbEntity
  8
寸法
 62
     7
 48
50.0
100
AcDbMText
 10
8459.232066572836
 20
9180.219201797216
 30
0.0
 40
96.0
 41
0.0
 71
     5
 72
     1
  1
棚 2段
  7
STYLE1
 73
     1
 44
1.0
1001
ACAD
1000
MTEXTBEGIN
1070
    73
1070
     1
1070
    44
1040
1.0
1070
    74
1070
     0
1000
MTEXTEND
  0
LINE
  5
18F64
330
747D
100
AcDbEntity
  8
細線
 48
50.0
100
AcDbLine
 10
7806.629529479732
 20
4489.652601329415
 30
0.0
 11
7806.629529479732
 21
2699.652601329415
 31
0.0
  0
LINE
  5
18F65
330
747D
100
AcDbEntity
  8
細線
 48
50.0
100
AcDbLine
 10
7791.629529479734
 20
4489.652601329415
 30
0.0
 11
7791.629529479731
 21
2699.652601329415
 31
0.0
  0
LINE
  5
18F66
330
747D
100
AcDbEntity
  8
細線
 48
50.0
100
AcDbLine
 10
7931.629529479732
 20
4489.652601329415
 30
0.0
 11
7931.629529479732
 21
2699.652601329415
 31
0.0
  0
LINE
  5
18F67
330
747D
100
AcDbEntity
  8
細線
 48
50.0
100
AcDbLine
 10
7946.629529479733
 20
4489.652601329415
 30
0.0
 11
7946.62952947973
 21
2699.652601329415
 31
0.0
  0
LINE
  5
18F68
330
747D
100
AcDbEntity
  8
細線
 48
50.0
100
AcDbLine
 10
8086.629529479733
 20
4489.652601329415
 30
0.0
 11
8086.629529479731
 21
2699.652601329415
 31
0.0
  0
LINE
  5
18F69
330
747D
100
AcDbEntity
  8
細線
 48
50.0
100
AcDbLine
 10
8071.629529479734
 20
4489.652601329415
 30
0.0
 11
8071.62952947973
 21
2699.652601329415
 31
0.0
  0
LINE
  5
18F6A
330
747D
100
AcDbEntity
  8
細線
 48
50.0
100
AcDbLine
 10
10591.62952947974
 20
4489.652601329416
 30
0.0
 11
10591.62952947974
 21
2699.652601329415
 31
0.0
  0
LINE
  5
18F6B
330
747D
100
AcDbEntity
  8
細線
 48
50.0
100
AcDbLine
 10
10606.62952947974
 20
4489.652601329416
 30
0.0
 11
10606.62952947974
 21
2699.652601329415
 31
0.0
  0
LINE
  5
18F6C
330
747D
100
AcDbEntity
  8
細線
 48
50.0
100
AcDbLine
 10
10466.62952947974
 20
4489.652601329416
 30
0.0
 11
10466.62952947974
 21
2699.652601329415
 31
0.0
  0
LINE
  5
18F6D
330
747D
100
AcDbEntity
  8
細線
 48
50.0
100
AcDbLine
 10
10451.62952947974
 20
4489.652601329416
 30
0.0
 11
10451.62952947974
 21
2699.652601329415
 31
0.0
  0
LINE
  5
18F6E
330
747D
100
AcDbEntity
  8
細線
 48
50.0
100
AcDbLine
 10
10311.62952947974
 20
4489.652601329416
 30
0.0
 11
10311.62952947974
 21
2699.652601329415
 31
0.0
  0
LINE
  5
18F6F
330
747D
100
AcDbEntity
  8
細線
 48
50.0
100
AcDbLine
 10
10326.62952947974
 20
4489.652601329416
 30
0.0
 11
10326.62952947974
 21
2699.652601329415
 31
0.0
  0
LINE
  5
18F70
330
747D
100
AcDbEntity
  8
部品1
 48
50.0
100
AcDbLine
 10
10669.12952947973
 20
2699.652601329415
 30
0.0
 11
10669.12952947973
 21
4489.652601329415
 31
0.0
  0
LINE
  5
18F71
330
747D
100
AcDbEntity
  8
部品1
100
AcDbLine
 10
8149.129529479733
 20
4489.652601329415
 30
0.0
 11
8149.129529479735
 21
4484.652601329415
 31
0.0
  0
LINE
  5
18F72
330
747D
100
AcDbEntity
  8
部品1
 48
50.0
100
AcDbLine
 10
10276.12952947973
 20
4440.652601329415
 30
0.0
 11
10246.12952947973
 21
4440.652601329415
 31
0.0
  0
LINE
  5
18F73
330
747D
100
AcDbEntity
  8
部品1
 48
50.0
100
AcDbLine
 10
10276.12952947973
 20
4484.652601329415
 30
0.0
 11
8122.129529479732
 21
4484.652601329415
 31
0.0
  0
LINE
  5
18F74
330
747D
100
AcDbEntity
  8
細線
 48
50.0
100
AcDbLine
 10
10276.12952947973
 20
4474.652601329415
 30
0.0
 11
8122.129529479732
 21
4474.652601329415
 31
0.0
  0
LINE
  5
18F75
330
747D
100
AcDbEntity
  8
細線
 48
50.0
100
AcDbLine
 10
10246.12952947973
 20
4432.652601329414
 30
0.0
 11
8152.129529479731
 21
4432.652601329414
 31
0.0
  0
LINE
  5
18F76
330
747D
100
AcDbEntity
  8
細線
 48
50.0
100
AcDbLine
 10
10246.12952947973
 20
4442.152601329415
 30
0.0
 11
8152.129529479731
 21
4442.152601329415
 31
0.0
  0
LINE
  5
18F77
330
747D
100
AcDbEntity
  8
部品1
 48
50.0
100
AcDbLine
 10
8152.129529479731
 20
4440.652601329415
 30
0.0
 11
8122.129529479732
 21
4440.652601329415
 31
0.0
  0
LINE
  5
18F78
330
747D
100
AcDbEntity
  8
部品1
 48
50.0
100
AcDbLine
 10
8122.129529479732
 20
2649.652601329415
 30
0.0
 11
10276.12952947973
 21
2649.652601329415
 31
0.0
  0
LINE
  5
18F79
330
747D
100
AcDbEntity
  8
部品1
 48
50.0
100
AcDbLine
 10
8122.129529479732
 20
2649.652601329415
 30
0.0
 11
10276.12952947973
 21
2649.652601329415
 31
0.0
  0
LINE
  5
18F7A
330
747D
100
AcDbEntity
  8
細線
 48
50.0
100
AcDbLine
 10
8152.129529479731
 20
2692.652601329415
 30
0.0
 11
10246.12952947973
 21
2692.652601329415
 31
0.0
  0
LINE
  5
18F7B
330
747D
100
AcDbEntity
  8
細線
 48
50.0
100
AcDbLine
 10
8152.129529479731
 20
2696.652601329415
 30
0.0
 11
10246.12952947973
 21
2696.652601329415
 31
0.0
  0
LINE
  5
18F7C
330
747D
100
AcDbEntity
  8
細線
 48
50.0
100
AcDbLine
 10
8956.12952947973
 20
2707.152601329415
 30
0.0
 11
10220.12952947973
 21
2707.152601329415
 31
0.0
  0
LINE
  5
18F7D
330
747D
100
AcDbEntity
  8
部品1
 48
50.0
100
AcDbLine
 10
8152.129529479731
 20
2699.652601329415
 30
0.0
 11
8956.129529479728
 21
2699.652601329411
 31
0.0
  0
LINE
  5
18F7E
330
747D
100
AcDbEntity
  8
部品1
 48
50.0
100
AcDbLine
 10
8161.129529479731
 20
2699.652601329415
 30
0.0
 11
8161.129529479731
 21
2696.652601329415
 31
0.0
  0
LINE
  5
18F7F
330
747D
100
AcDbEntity
  8
細線
 48
50.0
100
AcDbLine
 10
10224.12952947973
 20
2696.652601329415
 30
0.0
 11
10220.12952947973
 21
2707.152601329415
 31
0.0
  0
LINE
  5
18F83
330
747D
100
AcDbEntity
  8
部品1
 48
50.0
100
AcDbLine
 10
8196.129529479732
 20
3631.152601329415
 30
0.0
 11
8249.129529479731
 21
3631.152601329415
 31
0.0
  0
LINE
  5
18F9D
330
747D
100
AcDbEntity
  8
部品1
 48
50.0
100
AcDbLine
 10
8152.129529479731
 20
2699.652601329415
 30
0.0
 11
8152.129529479731
 21
4432.652601329414
 31
0.0
  0
LINE
  5
18F9E
330
747D
100
AcDbEntity
  8
細線
 48
50.0
100
AcDbLine
 10
8152.129529479731
 20
4442.152601329415
 30
0.0
 11
8152.129529479731
 21
2649.652601329415
 31
0.0
  0
LINE
  5
18F9F
330
747D
100
AcDbEntity
  8
部品1
 48
50.0
100
AcDbLine
 10
8122.129529479732
 20
4484.652601329415
 30
0.0
 11
8122.129529479732
 21
2649.652601329415
 31
0.0
  0
LINE
  5
18FA0
330
747D
100
AcDbEntity
  8
部品1
 48
50.0
100
AcDbLine
 10
8956.12952947973
 20
4432.652601354182
 30
0.0
 11
8956.12952947973
 21
2699.652601354183
 31
0.0
  0
LINE
  5
18FA1
330
747D
100
AcDbEntity
  8
部品1
 48
50.0
100
AcDbLine
 10
10237.12952947973
 20
2696.652601329415
 30
0.0
 11
10237.12952947973
 21
4432.652601329414
 31
0.0
  0
LINE
  5
18FA2
330
747D
100
AcDbEntity
  8
細線
 48
50.0
100
AcDbLine
 10
10246.12952947973
 20
2649.652601329415
 30
0.0
 11
10246.12952947973
 21
4442.152601329415
 31
0.0
  0
LINE
  5
18FA3
330
747D
100
AcDbEntity
  8
部品1
 48
50.0
100
AcDbLine
 10
10276.12952947973
 20
2649.652601329415
 30
0.0
 11
10276.12952947973
 21
4484.652601329415
 31
0.0
  0
LINE
  5
18FA4
330
747D
100
AcDbEntity
  8
部品1
 48
50.0
100
AcDbLine
 10
9610.129519784592
 20
4432.652601366562
 30
0.0
 11
9610.129519784592
 21
2707.152601366562
 31
0.0
  0
LINE
  5
18FA5
330
747D
100
AcDbEntity
  8
細線
100
AcDbLine
 10
9732.879529479733
 20
4432.652601329414
 30
0.0
 11
9732.879529479733
 21
2707.152601329434
 31
0.0
  0
LINE
  5
18FA6
330
747D
100
AcDbEntity
  8
細線
100
AcDbLine
 10
9017.629539229975
 20
4432.652601329414
 30
0.0
 11
9017.629539229975
 21
2707.152601329426
 31
0.0
  0
LINE
  5
18FA7
330
747D
100
AcDbEntity
  8
細線
100
AcDbLine
 10
9087.629539229975
 20
4432.652601329414
 30
0.0
 11
9087.629539229975
 21
2707.152601329426
 31
0.0
  0
LINE
  5
18FA8
330
747D
100
AcDbEntity
  8
細線
100
AcDbLine
 10
8366.129529479731
 20
4432.652601329414
 30
0.0
 11
8366.129529479726
 21
2699.652601329419
 31
0.0
  0
LINE
  5
18FA9
330
747D
100
AcDbEntity
  8
細線
100
AcDbLine
 10
8436.129529479732
 20
4432.652601329414
 30
0.0
 11
8436.129529479726
 21
2699.652601329419
 31
0.0
  0
LINE
  5
18FAA
330
747D
100
AcDbEntity
  8
細線
100
AcDbLine
 10
9802.879529479733
 20
4432.652601329414
 30
0.0
 11
9802.879529479733
 21
2707.152601329434
 31
0.0
  0
LINE
  5
18FAB
330
747D
100
AcDbEntity
  8
細線
100
AcDbLine
 10
9872.879529479734
 20
4432.652601329414
 30
0.0
 11
9872.879529479734
 21
2707.152601329434
 31
0.0
  0
LINE
  5
18FAC
330
747D
100
AcDbEntity
  8
細線
100
AcDbLine
 10
9942.879529479732
 20
4432.652601329414
 30
0.0
 11
9942.879529479732
 21
2707.152601329434
 31
0.0
  0
LINE
  5
18FAD
330
747D
100
AcDbEntity
  8
細線
100
AcDbLine
 10
10012.87952947973
 20
4432.652601329414
 30
0.0
 11
10012.87952947973
 21
2707.152601329434
 31
0.0
  0
LINE
  5
18FAE
330
747D
100
AcDbEntity
  8
細線
100
AcDbLine
 10
10082.87952947973
 20
4432.652601329414
 30
0.0
 11
10082.87952947973
 21
2707.152601329434
 31
0.0
  0
LINE
  5
18FAF
330
747D
100
AcDbEntity
  8
細線
100
AcDbLine
 10
9157.629539229974
 20
4432.652601329414
 30
0.0
 11
9157.629539229974
 21
2707.152601329426
 31
0.0
  0
LINE
  5
18FB0
330
747D
100
AcDbEntity
  8
細線
100
AcDbLine
 10
9227.629539229974
 20
4432.652601329414
 30
0.0
 11
9227.629539229974
 21
2707.152601329426
 31
0.0
  0
LINE
  5
18FB1
330
747D
100
AcDbEntity
  8
細線
100
AcDbLine
 10
9297.629539229975
 20
4432.652601329414
 30
0.0
 11
9297.629539229975
 21
2707.152601329426
 31
0.0
  0
LINE
  5
18FB2
330
747D
100
AcDbEntity
  8
細線
100
AcDbLine
 10
9367.629539229975
 20
4432.652601329414
 30
0.0
 11
9367.629539229975
 21
2707.152601329426
 31
0.0
  0
LINE
  5
18FB3
330
747D
100
AcDbEntity
  8
細線
100
AcDbLine
 10
9437.629539229975
 20
4432.652601329414
 30
0.0
 11
9437.629539229975
 21
2707.152601329426
 31
0.0
  0
LINE
  5
18FB4
330
747D
100
AcDbEntity
  8
細線
100
AcDbLine
 10
9507.629539229974
 20
4432.652601329414
 30
0.0
 11
9507.629539229974
 21
2707.152601329426
 31
0.0
  0
LINE
  5
18FB5
330
747D
100
AcDbEntity
  8
細線
100
AcDbLine
 10
8280.129529479728
 20
4432.652601329414
 30
0.0
 11
8280.129529479731
 21
2699.652601329419
 31
0.0
  0
LINE
  5
18FB6
330
747D
100
AcDbEntity
  8
細線
100
AcDbLine
 10
8314.129529479727
 20
4432.652601329414
 30
0.0
 11
8314.129529479732
 21
2699.652601329419
 31
0.0
  0
LINE
  5
18FB7
330
747D
100
AcDbEntity
  8
部品1
100
AcDbLine
 10
8272.129529479727
 20
4432.652601329414
 30
0.0
 11
8272.129529479732
 21
2699.652601329419
 31
0.0
  0
LINE
  5
18FB8
330
747D
100
AcDbEntity
  8
部品1
100
AcDbLine
 10
8322.129529479727
 20
4432.652601329414
 30
0.0
 11
8322.129529479731
 21
2699.652601329419
 31
0.0
  0
LINE
  5
18FB9
330
747D
100
AcDbEntity
  8
細線
100
AcDbLine
 10
8506.129529479732
 20
4432.652601329414
 30
0.0
 11
8506.129529479727
 21
2699.652601329419
 31
0.0
  0
LINE
  5
18FBA
330
747D
100
AcDbEntity
  8
細線
100
AcDbLine
 10
8576.129529479731
 20
4432.652601329414
 30
0.0
 11
8576.129529479727
 21
2699.652601329419
 31
0.0
  0
LINE
  5
18FBB
330
747D
100
AcDbEntity
  8
細線
100
AcDbLine
 10
8646.129529479731
 20
4432.652601329414
 30
0.0
 11
8646.129529479727
 21
2699.652601329419
 31
0.0
  0
LINE
  5
18FBC
330
747D
100
AcDbEntity
  8
細線
100
AcDbLine
 10
8716.129529479731
 20
4432.652601329414
 30
0.0
 11
8716.129529479728
 21
2699.652601329419
 31
0.0
  0
LINE
  5
18FBD
330
747D
100
AcDbEntity
  8
細線
100
AcDbLine
 10
8786.129529479731
 20
4432.652601329414
 30
0.0
 11
8786.129529479728
 21
2699.652601329423
 31
0.0
  0
LINE
  5
18FBE
330
747D
100
AcDbEntity
  8
細線
100
AcDbLine
 10
8856.129529479732
 20
4432.652601329414
 30
0.0
 11
8856.129529479728
 21
2699.652601329423
 31
0.0
  0
LINE
  5
18FBF
330
747D
100
AcDbEntity
  8
部品1
100
AcDbLine
 10
9610.129519784585
 20
4432.652601366566
 30
0.0
 11
9610.129519784589
 21
2707.152601366581
 31
0.0
  0
LINE
  5
18FC0
330
747D
100
AcDbEntity
  8
部品1
 48
50.0
100
AcDbLine
 10
8956.12952947973
 20
4432.652601354182
 30
0.0
 11
8956.129529479728
 21
2699.652601329411
 31
0.0
  0
DIMENSION
  5
18FC1
330
747D
100
AcDbEntity
  8
寸法
100
AcDbDimension
  2
*D2
 10
6765.490147550377
 20
2549.652601329416
 30
0.0
 11
6765.490147550377
 21
2313.605357234925
 31
0.0
 70
   160
 71
     5
 42
100.0000000000004
  3
INABA_S40G
100
AcDbAlignedDimension
 13
7619.129529479734
 23
2649.652601329416
 33
0.0
 14
7050.476820321437
 24
2549.652601329416
 34
0.0
 50
90.0
100
AcDbRotatedDimension
1001
ACAD
1000
DSTYLE
1002
{
1070
   174
1070
     0
1070
   272
1070
     1
1070
   288
1070
     0
1070
   341
1005
0
1002
}
  0
DIMENSION
  5
18FC2
330
747D
100
AcDbEntity
  8
寸法
100
AcDbDimension
  2
*D3
 10
7050.476820321438
 20
2649.652601329417
 30
0.0
 11
7050.476820321437
 21
2343.605357234926
 31
0.0
 70
   160
 71
     5
 42
50.0
  3
INABA_S40G
100
AcDbAlignedDimension
 13
7674.129529479735
 23
2699.652601329416
 33
0.0
 14
7619.129529479734
 24
2649.652601329416
 34
0.0
 50
90.0
100
AcDbRotatedDimension
1001
ACAD
1000
DSTYLE
1002
{
1070
   174
1070
     0
1070
   272
1070
     1
1070
   288
1070
     0
1070
   341
1005
0
1002
}
  0
DIMENSION
  5
18FC3
330
747D
100
AcDbEntity
  8
寸法
100
AcDbDimension
  2
*D4
 10
7050.476820321438
 20
2699.652601329417
 30
0.0
 11
7050.476820321437
 21
3590.106899871374
 31
0.0
 70
   160
 71
     5
 42
1790.0
  3
INABA_S40G
100
AcDbAlignedDimension
 13
7674.129529479735
 23
4489.652601329416
 33
0.0
 14
7674.129529479735
 24
2699.652601329416
 34
0.0
 50
90.0
100
AcDbRotatedDimension
1001
ACAD
1000
DSTYLE
1002
{
1070
   174
1070
     0
1070
   272
1070
     1
1070
   288
1070
     0
1070
   341
1005
0
1002
}
  0
DIMENSION
  5
18FC4
330
747D
100
AcDbEntity
  8
寸法
100
AcDbDimension
  2
*D5
 10
6765.490147550377
 20
4724.652601329421
 30
0.0
 11
6765.490147550377
 21
3643.858478822526
 31
0.0
 70
   160
 71
     5
 42
2075.000000000005
  3
INABA_S40G
100
AcDbAlignedDimension
 13
7674.129529479735
 23
2649.652601329416
 33
0.0
 14
7614.129529479734
 24
4724.652601329421
 34
0.0
 50
90.0
100
AcDbRotatedDimension
1001
ACAD
1000
DSTYLE
1002
{
1070
   174
1070
     0
1070
   272
1070
     1
1070
   288
1070
     0
1070
   341
1005
0
1002
}
  0
DIMENSION
  5
18FC5
330
747D
100
AcDbEntity
  8
寸法
 48
50.0
100
AcDbDimension
  2
*D6
 10
7053.521122711366
 20
4598.997860202744
 30
0.0
 11
7064.186597970291
 21
4969.844523444449
 31
0.0
 70
   161
 71
     5
 42
141.0000000000018
  3
INABA_S40G
100
AcDbAlignedDimension
 13
7633.525549638314
 23
4723.375350164096
 33
0.0
 14
7629.472094081688
 24
4582.433626398382
 34
0.0
1001
ACAD
1000
DSTYLE
1002
{
1070
   174
1070
     0
1070
   272
1070
     1
1070
   288
1070
     0
1070
   341
1005
0
1002
}
  0
DIMENSION
  5
18FC6
330
747D
100
AcDbEntity
  8
寸法
 48
50.0
100
AcDbDimension
  2
*D7
 10
7381.656839900346
 20
2707.652601329415
 30
0.0
 11
7381.656839900344
 21
3549.099820847707
 31
0.0
 70
   160
  1
有効開口部高サ<>
 71
     5
 42
1725.000000000001
  3
INABA_S40G
100
AcDbAlignedDimension
 13
8122.129529479737
 23
4432.652601329416
 33
0.0
 14
8122.129529479737
 24
2707.652601329415
 34
0.0
 50
90.0
100
AcDbRotatedDimension
  0
LINE
  5
18FC7
330
747D
100
AcDbEntity
  8
細線
 48
50.0
100
AcDbLine
 10
10771.09881267342
 20
4668.806023808889
 30
0.0
 11
10766.38184659174
 21
4543.873807873971
 31
0.0
  0
LINE
  5
18FC8
330
747D
100
AcDbEntity
  8
部品1
 48
50.0
100
AcDbLine
 10
10803.34343229044
 20
4660.593753603637
 30
0.0
 11
10801.31281109947
 21
4640.648712345858
 31
0.0
  0
LINE
  5
18FC9
330
747D
100
AcDbEntity
  8
部品1
 48
50.0
100
AcDbLine
 10
10797.96024461499
 20
4637.338078272949
 30
0.0
 11
10790.45346535015
 21
4563.605457527937
 31
0.0
  0
LINE
  5
18FCA
330
747D
100
AcDbEntity
  8
部品1
 48
50.0
100
AcDbLine
 10
10787.10089886566
 20
4560.294823455024
 30
0.0
 11
10786.02133582592
 21
4549.691206461466
 31
0.0
  0
ARC
  5
18FCB
330
747D
100
AcDbEntity
  8
部品1
 48
50.0
100
AcDbCircle
 10
10796.37943172568
 20
4661.302764276412
 30
0.0
 40
7.0
100
AcDbArc
 50
354.1866997665532
 51
87.03587545283093
  0
ARC
  5
18FCC
330
747D
100
AcDbEntity
  8
部品1
 48
50.0
100
AcDbCircle
 10
10779.05733526117
 20
4550.40021713424
 30
0.0
 40
7.0
100
AcDbArc
 50
267.8377559869487
 51
354.1866997665532
  0
ARC
  5
18FCD
330
747D
100
AcDbEntity
  8
部品1
100
AcDbCircle
 10
10790.08547053627
 20
4559.990961738122
 30
0.0
 40
3.0
100
AcDbArc
 50
95.0921697642102
 51
174.1866997665532
  0
ARC
  5
18FCE
330
747D
100
AcDbEntity
  8
部品1
100
AcDbCircle
 10
10800.9448162856
 20
4637.034216556045
 30
0.0
 40
3.0
100
AcDbArc
 50
95.0921697642102
 51
174.1866997665532
  0
ARC
  5
18FCF
330
747D
100
AcDbEntity
  8
部品1
100
AcDbCircle
 10
10800.61641104299
 20
4640.719613413135
 30
0.0
 40
0.7
100
AcDbArc
 50
275.0921697642102
 51
354.1866997665532
  0
ARC
  5
18FD0
330
747D
100
AcDbEntity
  8
部品1
100
AcDbCircle
 10
10789.75706529367
 20
4563.676358595212
 30
0.0
 40
0.7
100
AcDbArc
 50
275.0921697642102
 51
354.1866997667087
  0
LINE
  5
18FD1
330
747D
100
AcDbEntity
  8
細線
 48
50.0
100
AcDbLine
 10
7647.129529479734
 20
4722.052277704824
 30
0.0
 11
7641.840427924228
 21
4581.96664507747
 31
0.0
  0
LINE
  5
18FD2
330
747D
100
AcDbEntity
  8
部品1
 48
50.0
100
AcDbLine
 10
7614.313815392842
 20
4716.246147494111
 30
0.0
 11
7614.694075170653
 21
4696.3191830477
 31
0.0
  0
LINE
  5
18FD3
330
747D
100
AcDbEntity
  8
部品1
 48
50.0
100
AcDbLine
 10
7617.7628472769
 20
4692.743901554227
 30
0.0
 11
7619.466748768264
 21
4603.45340484758
 31
0.0
  0
LINE
  5
18FD4
330
747D
100
AcDbEntity
  8
部品1
 48
50.0
100
AcDbLine
 10
7622.535520874506
 20
4599.878123354108
 30
0.0
 11
7622.737473494938
 21
4589.295087961016
 31
0.0
  0
ARC
  5
18FD5
330
747D
100
AcDbEntity
  8
部品1
 48
50.0
100
AcDbCircle
 10
7621.312541221181
 20
4716.379701901539
 30
0.0
 40
7.0
100
AcDbArc
 50
87.03587545283093
 51
181.0932240293156
  0
ARC
  5
18FD6
330
747D
100
AcDbEntity
  8
部品1
 48
50.0
100
AcDbCircle
 10
7629.736199323277
 20
4589.428642368444
 30
0.0
 40
7.0
100
AcDbArc
 50
181.0932240293156
 51
267.8377559869487
  0
ARC
  5
18FD7
330
747D
100
AcDbEntity
  8
部品1
100
AcDbCircle
 10
7619.536066948076
 20
4599.820885750925
 30
0.0
 40
3.0
100
AcDbArc
 50
1.093224029315636
 51
80.18775403169653
  0
ARC
  5
18FD8
330
747D
100
AcDbEntity
  8
部品1
100
AcDbCircle
 10
7614.763393350469
 20
4692.686663951044
 30
0.0
 40
3.0
100
AcDbArc
 50
1.093224029315636
 51
80.18775403169653
  0
ARC
  5
18FD9
330
747D
100
AcDbEntity
  8
部品1
100
AcDbCircle
 10
7615.393947753492
 20
4696.332538488442
 30
0.0
 40
0.7
100
AcDbArc
 50
181.0932240292114
 51
260.1877540314867
  0
ARC
  5
18FDA
330
747D
100
AcDbEntity
  8
部品1
100
AcDbCircle
 10
7620.166621351102
 20
4603.466760288323
 30
0.0
 40
0.7
100
AcDbArc
 50
181.0932240292635
 51
260.1877540314867
  0
LINE
  5
18FDB
330
747D
100
AcDbEntity
  8
部品1
100
AcDbLine
 10
7621.674515836698
 20
4723.370336663685
 30
0.0
 11
10796.7414063412
 21
4668.293399038558
 31
0.0
  0
LINE
  5
18FDC
330
747D
100
AcDbEntity
  8
部品1
100
AcDbLine
 10
7629.472094081688
 20
4582.433626398386
 30
0.0
 11
10778.79323001958
 21
4543.405201164181
 31
0.0
  0
LINE
  5
18FDD
330
747D
100
AcDbEntity
  8
細線
 48
50.0
100
AcDbLine
 10
7615.16895258055
 20
4695.66968317078
 30
0.0
 11
10800.80493732572
 21
4640.045478529952
 31
0.0
  0
LINE
  5
18FDE
330
747D
100
AcDbEntity
  8
細線
 48
50.0
100
AcDbLine
 10
7619.929427817836
 20
4602.808171472917
 30
0.0
 11
10789.93309224848
 21
4562.998852498423
 31
0.0
  0
TEXT
  5
18FDF
330
747D
100
AcDbEntity
  8
部品1
 48
50.0
100
AcDbText
 10
9543.998673535101
 20
4746.921694267725
 30
0.0
 40
120.0
  1
32
 50
90.0
  7
STYLE1
100
AcDbText
  0
TEXT
  5
18FE0
330
747D
100
AcDbEntity
  8
部品1
 48
50.0
100
AcDbText
 10
9066.365650870011
 20
4884.422952486009
 30
0.0
 40
120.0
  1
1000
  7
STYLE1
100
AcDbText
  0
LINE
  5
18FE1
330
747D
100
AcDbEntity
  8
部品1
 48
50.0
100
AcDbLine
 10
9378.097815646285
 20
4848.538930333575
 30
0.0
 11
9378.097815646285
 21
4832.338930333577
 31
0.0
  0
LINE
  5
18FE2
330
747D
100
AcDbEntity
  8
部品1
 48
50.0
100
AcDbLine
 10
9078.097815646286
 20
4848.538930333575
 30
0.0
 11
9378.097815646285
 21
4848.538930333575
 31
0.0
  0
LINE
  5
18FE3
330
747D
100
AcDbEntity
  8
部品1
100
AcDbLine
 10
9052.642802003246
 20
4849.856989292437
 30
0.0
 11
9378.097815646285
 21
4832.338930333577
 31
0.0
  0
DIMENSION
  5
18FE4
330
747D
100
AcDbEntity
  8
寸法
 48
50.0
100
AcDbDimension
  2
*D8
 10
7053.521122711361
 20
4598.997860202749
 30
0.0
 11
7064.186597970286
 21
4969.84452344445
 31
0.0
 70
   161
 71
     5
 42
141.0000000000009
  3
INABA_S40G
100
AcDbAlignedDimension
 13
7633.525549638314
 23
4723.375350164098
 33
0.0
 14
7629.472094081688
 24
4582.433626398386
 34
0.0
1001
ACAD
1000
DSTYLE
1002
{
1070
   174
1070
     0
1070
   272
1070
     1
1070
   288
1070
     0
1070
   341
1005
0
1002
}
  0
DIMENSION
  5
18FE5
330
747D
100
AcDbEntity
  8
寸法
 48
50.0
100
AcDbDimension
  2
*D9
 10
7614.129529479734
 20
5123.310054908723
 30
0.0
 11
7304.491734204145
 21
5123.310054908723
 31
0.0
 70
   160
 71
     5
 42
60.0
  3
INABA_S40G
100
AcDbAlignedDimension
 13
7674.129529479735
 23
4720.654219452395
 33
0.0
 14
7614.129529479734
 24
4724.652601329423
 34
0.0
100
AcDbRotatedDimension
1001
ACAD
1000
DSTYLE
1002
{
1070
   174
1070
     0
1070
   272
1070
     1
1070
   288
1070
     0
1070
   341
1005
0
1002
}
  0
DIMENSION
  5
18FE6
330
747D
100
AcDbEntity
  8
寸法
 48
50.0
100
AcDbDimension
  2
*D10
 10
10804.12952947973
 20
5123.310054908724
 30
0.0
 11
11010.17677357422
 21
5123.310054908724
 31
0.0
 70
   160
 71
     5
 42
80.0
  3
INABA_S40G
100
AcDbAlignedDimension
 13
10724.12952947973
 23
4671.463280941074
 33
0.0
 14
10804.12952947973
 24
4669.652601329422
 34
0.0
100
AcDbRotatedDimension
1001
ACAD
1000
DSTYLE
1002
{
1070
   174
1070
     0
1070
   272
1070
     1
1070
   288
1070
     0
1070
   341
1005
0
1002
}
  0
DIMENSION
  5
18FE7
330
747D
100
AcDbEntity
  8
寸法
 48
50.0
100
AcDbDimension
  2
*D11
 10
7614.129529479734
 20
5353.423647695001
 30
0.0
 11
9285.83533578926
 21
5353.423647695001
 31
0.0
 70
   160
 71
     5
 42
3189.999999999996
  3
INABA_S40G
100
AcDbAlignedDimension
 13
10804.12952947973
 23
4669.65260132942
 33
0.0
 14
7614.129529479734
 24
4724.652601329423
 34
0.0
100
AcDbRotatedDimension
1001
ACAD
1000
DSTYLE
1002
{
1070
   174
1070
     0
1070
   272
1070
     1
1070
   288
1070
     0
1070
   341
1005
0
1002
}
  0
DIMENSION
  5
18FE8
330
747D
100
AcDbEntity
  8
寸法
 48
50.0
100
AcDbDimension
  2
*D12
 10
7674.129529479735
 20
5123.310054908724
 30
0.0
 11
9244.187904039147
 21
5123.310054908724
 31
0.0
 70
   160
  1
柱外寸法<>
 71
     5
 42
3049.999999999997
  3
INABA_S40G
100
AcDbAlignedDimension
 13
10724.12952947973
 23
4671.463280941074
 33
0.0
 14
7674.129529479735
 24
4720.654219452395
 34
0.0
100
AcDbRotatedDimension
1001
ACAD
1000
DSTYLE
1002
{
1070
   174
1070
     0
1070
   272
1070
     1
1070
   288
1070
     0
1070
   341
1005
0
1002
}
  0
TEXT
  5
19025
330
747D
100
AcDbEntity
  8
文字
 62
     7
 48
50.0
100
AcDbText
 10
13583.11819016569
 20
8550.013745883733
 30
0.0
 40
100.0
  1
棚板
  7
STYLE1
100
AcDbText
  0
TEXT
  5
19026
330
747D
100
AcDbEntity
  8
文字
 62
     7
 48
50.0
100
AcDbText
 10
15022.63965474516
 20
8550.013745883729
 30
0.0
 40
100.0
  1
F12            0.6
  7
STYLE1
100
AcDbText
  0
TEXT
  5
19027
330
747D
100
AcDbEntity
  8
文字
 62
     7
 48
50.0
100
AcDbText
 10
15022.63965474515
 20
9740.013745883725
 30
0.0
 40
100.0
  1
F12            1.0
  7
STYLE1
100
AcDbText
  0
TEXT
  5
19028
330
747D
100
AcDbEntity
  8
文字
 62
     7
 48
50.0
100
AcDbText
 10
13583.11819016569
 20
9740.013745883729
 30
0.0
 40
100.0
  1
母屋中
  7
STYLE1
100
AcDbText
  0
TEXT
  5
19029
330
747D
100
AcDbEntity
  8
文字
 62
     7
 48
50.0
100
AcDbText
 10
13248.77747366447
 20
8720.013745883729
 30
0.0
 40
100.0
  1
15
  7
STYLE1
100
AcDbText
  0
LINE
  5
1902A
330
747D
100
AcDbEntity
  8
仕様書枠
 48
50.0
100
AcDbLine
 10
16307.19999999999
 20
8009.600000000007
 30
0.0
 11
13127.19999999999
 21
8009.600000000007
 31
0.0
  0
TEXT
  5
1902B
330
747D
100
AcDbEntity
  8
文字
 62
     7
 48
50.0
100
AcDbText
 10
13583.11819016569
 20
8720.013745883733
 30
0.0
 40
100.0
  1
扉
  7
STYLE1
100
AcDbText
  0
TEXT
  5
1902C
330
747D
100
AcDbEntity
  8
文字
 62
     7
 48
50.0
100
AcDbText
 10
15022.63965474516
 20
8720.013745883729
 30
0.0
 40
100.0
  1
F12            0.8
  7
STYLE1
100
AcDbText
  0
TEXT
  5
1902D
330
747D
100
AcDbEntity
  8
文字
 62
     7
 48
50.0
100
AcDbText
 10
13583.11819016568
 20
8890.013745883733
 30
0.0
 40
100.0
  1
正面パネル
  7
STYLE1
100
AcDbText
  0
TEXT
  5
1902E
330
747D
100
AcDbEntity
  8
文字
 62
     7
 48
50.0
100
AcDbText
 10
15022.63965474515
 20
8890.013745883729
 30
0.0
 40
100.0
  1
F12            0.7
  7
STYLE1
100
AcDbText
  0
TEXT
  5
1902F
330
747D
100
AcDbEntity
  8
文字
 62
     7
 48
50.0
100
AcDbText
 10
15022.63965474517
 20
10590.01374588373
 30
0.0
 40
100.0
  1
F12            1.0
  7
STYLE1
100
AcDbText
  0
TEXT
  5
19030
330
747D
100
AcDbEntity
  8
文字
 62
     7
 48
50.0
100
AcDbText
 10
15022.63965474516
 20
10930.01374588373
 30
0.0
 40
100.0
  1
F12            1.2
  7
STYLE1
100
AcDbText
  0
TEXT
  5
19031
330
747D
100
AcDbEntity
  8
文字
 62
     7
 48
50.0
100
AcDbText
 10
13248.77747366448
 20
8890.013745883729
 30
0.0
 40
100.0
  1
14
  7
STYLE1
100
AcDbText
  0
TEXT
  5
19032
330
747D
100
AcDbEntity
  8
文字
 62
     7
 48
50.0
100
AcDbText
 10
13583.11819016569
 20
10930.01374588373
 30
0.0
 40
100.0
  1
根太
  7
STYLE1
100
AcDbText
  0
TEXT
  5
19033
330
747D
100
AcDbEntity
  8
文字
 62
     7
 48
50.0
100
AcDbText
 10
13583.1181901657
 20
10590.01374588373
 30
0.0
 40
100.0
  1
床パネル
 41
0.9
  7
STYLE1
100
AcDbText
  0
LINE
  5
19034
330
747D
100
AcDbEntity
  8
仕様書枠
 48
50.0
100
AcDbLine
 10
16307.19999999999
 20
9029.6
 30
0.0
 11
13127.2
 21
9029.600000000003
 31
0.0
  0
LINE
  5
19035
330
747D
100
AcDbEntity
  8
仕様書枠
 48
50.0
100
AcDbLine
 10
13127.2
 20
11409.6
 30
0.0
 11
13127.19999999999
 21
8009.600000000007
 31
0.0
  0
TEXT
  5
19036
330
747D
100
AcDbEntity
  8
文字
 62
     7
 48
50.0
100
AcDbText
 10
13229.83081656554
 20
8040.013745883737
 30
0.0
 40
100.0
  1
Y10→溶融亜鉛-5％アルミニウム合金めっき鋼板(JIS G 3317)
 41
0.9
  7
STYLE1
100
AcDbText
  0
TEXT
  5
19037
330
747D
100
AcDbEntity
  8
文字
 62
     7
 48
50.0
100
AcDbText
 10
13229.83081656554
 20
8210.013745883737
 30
0.0
 40
100.0
  1
F12→溶融亜鉛めっき鋼板(JIS G 3302)
  7
STYLE1
100
AcDbText
  0
LINE
  5
19038
330
747D
100
AcDbEntity
  8
仕様書枠
 48
50.0
100
AcDbLine
 10
16307.19999999999
 20
8179.600000000007
 30
0.0
 11
13127.19999999999
 21
8179.600000000007
 31
0.0
  0
LINE
  5
19039
330
747D
100
AcDbEntity
  8
仕様書枠
 48
50.0
100
AcDbLine
 10
16307.19999999999
 20
8349.600000000007
 30
0.0
 11
13127.19999999999
 21
8349.600000000007
 31
0.0
  0
TEXT
  5
1903A
330
747D
100
AcDbEntity
  8
文字
 62
     7
 48
50.0
100
AcDbText
 10
15022.63965474515
 20
9570.013745883729
 30
0.0
 40
100.0
  1
F12            0.6
  7
STYLE1
100
AcDbText
  0
TEXT
  5
1903B
330
747D
100
AcDbEntity
  8
文字
 62
     7
 48
50.0
100
AcDbText
 10
15022.63965474517
 20
9910.01374588373
 30
0.0
 40
100.0
  1
Y10            0.5
  7
STYLE1
100
AcDbText
  0
TEXT
  5
1903C
330
747D
100
AcDbEntity
  8
文字
 62
     7
 48
50.0
100
AcDbText
 10
15022.63965474516
 20
10080.01374588373
 30
0.0
 40
100.0
  1
Y10            0.7
  7
STYLE1
100
AcDbText
  0
TEXT
  5
1903D
330
747D
100
AcDbEntity
  8
文字
 62
     7
 48
50.0
100
AcDbText
 10
15022.63965474516
 20
10250.01374588373
 30
0.0
 40
100.0
  1
Y10            0.7
  7
STYLE1
100
AcDbText
  0
TEXT
  5
1903E
330
747D
100
AcDbEntity
  8
文字
 62
     7
 48
50.0
100
AcDbText
 10
15022.63965474516
 20
10420.01374588373
 30
0.0
 40
100.0
  1
Y10            1.0
  7
STYLE1
100
AcDbText
  0
TEXT
  5
1903F
330
747D
100
AcDbEntity
  8
文字
 62
     7
 48
50.0
100
AcDbText
 10
15022.63965474518
 20
10760.01374588373
 30
0.0
 40
100.0
  1
F12            1.0
  7
STYLE1
100
AcDbText
  0
TEXT
  5
19040
330
747D
100
AcDbEntity
  8
文字
 62
     7
 48
50.0
100
AcDbText
 10
15022.63965474517
 20
11100.01374588373
 30
0.0
 40
100.0
  1
F12            1.2
  7
STYLE1
100
AcDbText
  0
TEXT
  5
19041
330
747D
100
AcDbEntity
  8
文字
 62
     7
 48
50.0
100
AcDbText
 10
13248.77747366448
 20
9230.013745883729
 30
0.0
 40
100.0
  1
12
  7
STYLE1
100
AcDbText
  0
TEXT
  5
19042
330
747D
100
AcDbEntity
  8
文字
 62
     7
 48
50.0
100
AcDbText
 10
13248.77747366448
 20
9060.013745883729
 30
0.0
 40
100.0
  1
13
  7
STYLE1
100
AcDbText
  0
LINE
  5
19043
330
747D
100
AcDbEntity
  8
仕様書枠
 48
50.0
100
AcDbLine
 10
16307.19999999999
 20
8859.6
 30
0.0
 11
13127.2
 21
8859.600000000005
 31
0.0
  0
LINE
  5
19044
330
747D
100
AcDbEntity
  8
仕様書枠
 48
50.0
100
AcDbLine
 10
16307.19999999999
 20
9199.600000000001
 30
0.0
 11
13127.2
 21
9199.600000000001
 31
0.0
  0
TEXT
  5
19045
330
747D
100
AcDbEntity
  8
文字
 62
     7
 48
50.0
100
AcDbText
 10
13248.77747366447
 20
9400.013745883729
 30
0.0
 40
100.0
  1
11
  7
STYLE1
100
AcDbText
  0
LINE
  5
19046
330
747D
100
AcDbEntity
  8
仕様書枠
 48
50.0
100
AcDbLine
 10
16307.2
 20
9879.600000000001
 30
0.0
 11
13127.2
 21
9879.600000000001
 31
0.0
  0
LINE
  5
19047
330
747D
100
AcDbEntity
  8
仕様書枠
 48
50.0
100
AcDbLine
 10
16307.2
 20
10219.6
 30
0.0
 11
13127.2
 21
10219.6
 31
0.0
  0
LINE
  5
19048
330
747D
100
AcDbEntity
  8
仕様書枠
 48
50.0
100
AcDbLine
 10
16307.19999999999
 20
9539.6
 30
0.0
 11
13127.2
 21
9539.6
 31
0.0
  0
LINE
  5
19049
330
747D
100
AcDbEntity
  8
仕様書枠
 48
50.0
100
AcDbLine
 10
16307.19999999999
 20
9369.600000000001
 30
0.0
 11
13127.2
 21
9369.600000000001
 31
0.0
  0
LINE
  5
1904A
330
747D
100
AcDbEntity
  8
仕様書枠
 48
50.0
100
AcDbLine
 10
16307.19999999999
 20
9709.600000000001
 30
0.0
 11
13127.2
 21
9709.600000000001
 31
0.0
  0
TEXT
  5
1904B
330
747D
100
AcDbEntity
  8
文字
 62
     7
 48
50.0
100
AcDbText
 10
13271.19032244792
 20
10250.01374588373
 30
0.0
 40
100.0
  1
6
  7
STYLE1
100
AcDbText
  0
TEXT
  5
1904C
330
747D
100
AcDbEntity
  8
文字
 62
     7
 48
50.0
100
AcDbText
 10
13271.19032244792
 20
10080.01374588373
 30
0.0
 40
100.0
  1
7
  7
STYLE1
100
AcDbText
  0
TEXT
  5
1904D
330
747D
100
AcDbEntity
  8
文字
 62
     7
 48
50.0
100
AcDbText
 10
13271.19032244792
 20
9740.013745883729
 30
0.0
 40
100.0
  1
9
  7
STYLE1
100
AcDbText
  0
TEXT
  5
1904E
330
747D
100
AcDbEntity
  8
文字
 62
     7
 48
50.0
100
AcDbText
 10
13271.19032244792
 20
9910.01374588373
 30
0.0
 40
100.0
  1
8
  7
STYLE1
100
AcDbText
  0
TEXT
  5
1904F
330
747D
100
AcDbEntity
  8
文字
 62
     7
 48
50.0
100
AcDbText
 10
13583.11819016569
 20
10080.01374588373
 30
0.0
 40
100.0
  1
鼻隠シ前後
  7
STYLE1
100
AcDbText
  0
TEXT
  5
19050
330
747D
100
AcDbEntity
  8
文字
 62
     7
 48
50.0
100
AcDbText
 10
13583.11819016569
 20
9910.01374588373
 30
0.0
 40
100.0
  1
屋根パネル
  7
STYLE1
100
AcDbText
  0
TEXT
  5
19051
330
747D
100
AcDbEntity
  8
文字
 62
     7
 48
50.0
100
AcDbText
 10
13583.11819016568
 20
9570.013745883729
 30
0.0
 40
100.0
  1
壁パネル
  7
STYLE1
100
AcDbText
  0
TEXT
  5
19052
330
747D
100
AcDbEntity
  8
文字
 62
     7
 48
50.0
100
AcDbText
 10
13248.77747366447
 20
9570.013745883729
 30
0.0
 40
100.0
  1
10
  7
STYLE1
100
AcDbText
  0
TEXT
  5
19053
330
747D
100
AcDbEntity
  8
文字
 62
     7
 48
50.0
100
AcDbText
 10
13583.11819016569
 20
10250.01374588373
 30
0.0
 40
100.0
  1
妻板左右
  7
STYLE1
100
AcDbText
  0
TEXT
  5
19054
330
747D
100
AcDbEntity
  8
文字
 62
     7
 48
50.0
100
AcDbText
 10
13271.19032244792
 20
10420.01374588373
 30
0.0
 40
100.0
  1
5
  7
STYLE1
100
AcDbText
  0
TEXT
  5
19055
330
747D
100
AcDbEntity
  8
文字
 62
     7
 48
50.0
100
AcDbText
 10
13583.11819016569
 20
10420.01374588373
 30
0.0
 40
100.0
  1
桁前後
  7
STYLE1
100
AcDbText
  0
TEXT
  5
19056
330
747D
100
AcDbEntity
  8
文字
 62
     7
 48
50.0
100
AcDbText
 10
13583.1181901657
 20
10760.01374588373
 30
0.0
 40
100.0
  1
柱
  7
STYLE1
100
AcDbText
  0
TEXT
  5
19057
330
747D
100
AcDbEntity
  8
文字
 62
     7
 48
50.0
100
AcDbText
 10
13583.11819016569
 20
11100.01374588373
 30
0.0
 40
100.0
  1
土台枠
  7
STYLE1
100
AcDbText
  0
TEXT
  5
19058
330
747D
100
AcDbEntity
  8
文字
 62
     7
 48
50.0
100
AcDbText
 10
14859.79774614482
 20
11270.01374588373
 30
0.0
 40
100.0
  1
材料（材質）　　単位mm
  7
STYLE1
100
AcDbText
  0
TEXT
  5
19059
330
747D
100
AcDbEntity
  8
文字
 62
     7
 48
50.0
100
AcDbText
 10
13732.03840939434
 20
11270.01374588373
 30
0.0
 40
100.0
  1
部　　品　　名
  7
STYLE1
100
AcDbText
  0
TEXT
  5
1905A
330
747D
100
AcDbEntity
  8
文字
 62
     7
 48
50.0
100
AcDbText
 10
13271.19032244792
 20
10760.01374588373
 30
0.0
 40
100.0
  1
3
  7
STYLE1
100
AcDbText
  0
TEXT
  5
1905B
330
747D
100
AcDbEntity
  8
文字
 62
     7
 48
50.0
100
AcDbText
 10
13271.19032244792
 20
10590.01374588373
 30
0.0
 40
100.0
  1
4
  7
STYLE1
100
AcDbText
  0
TEXT
  5
1905C
330
747D
100
AcDbEntity
  8
文字
 62
     7
 48
50.0
100
AcDbText
 10
13271.19032244792
 20
10930.01374588373
 30
0.0
 40
100.0
  1
2
  7
STYLE1
100
AcDbText
  0
TEXT
  5
1905D
330
747D
100
AcDbEntity
  8
文字
 62
     7
 48
50.0
100
AcDbText
 10
13271.19032244792
 20
11100.01374588373
 30
0.0
 40
100.0
  1
1
  7
STYLE1
100
AcDbText
  0
TEXT
  5
1905E
330
747D
100
AcDbEntity
  8
文字
 62
     7
 48
50.0
100
AcDbText
 10
13197.42518560407
 20
11270.01374588373
 30
0.0
 40
100.0
  1
品番
  7
STYLE1
100
AcDbText
  0
LINE
  5
1905F
330
747D
100
AcDbEntity
  8
仕様書枠
 48
50.0
100
AcDbLine
 10
16307.19999999999
 20
10729.6
 30
0.0
 11
13127.2
 21
10729.6
 31
0.0
  0
LINE
  5
19060
330
747D
100
AcDbEntity
  8
仕様書枠
 48
50.0
100
AcDbLine
 10
16307.19999999999
 20
10389.6
 30
0.0
 11
13127.2
 21
10389.6
 31
0.0
  0
LINE
  5
19061
330
747D
100
AcDbEntity
  8
仕様書枠
 48
50.0
100
AcDbLine
 10
16307.19999999999
 20
10559.6
 30
0.0
 11
13127.2
 21
10559.6
 31
0.0
  0
LINE
  5
19062
330
747D
100
AcDbEntity
  8
仕様書枠
 48
50.0
100
AcDbLine
 10
16307.2
 20
11069.6
 30
0.0
 11
13127.2
 21
11069.6
 31
0.0
  0
LINE
  5
19063
330
747D
100
AcDbEntity
  8
仕様書枠
 48
50.0
100
AcDbLine
 10
16307.2
 20
10899.6
 30
0.0
 11
13127.2
 21
10899.6
 31
0.0
  0
LINE
  5
19064
330
747D
100
AcDbEntity
  8
仕様書枠
 48
50.0
100
AcDbLine
 10
16307.2
 20
11239.6
 30
0.0
 11
13127.2
 21
11239.6
 31
0.0
  0
LINE
  5
19065
330
747D
100
AcDbEntity
  8
仕様書枠
 48
50.0
100
AcDbLine
 10
13490.2
 20
11409.6
 30
0.0
 11
13490.20000000001
 21
8349.600000000007
 31
0.0
  0
LINE
  5
19066
330
747D
100
AcDbEntity
  8
仕様書枠
 48
50.0
100
AcDbLine
 10
14785.2
 20
11409.6
 30
0.0
 11
14785.2
 21
8349.600000000007
 31
0.0
  0
LINE
  5
19067
330
747D
100
AcDbEntity
  8
仕様書枠
 48
50.0
100
AcDbLine
 10
16307.19999999999
 20
8009.600000000007
 30
0.0
 11
16307.2
 21
11409.6
 31
0.0
  0
LINE
  5
19068
330
747D
100
AcDbEntity
  8
仕様書枠
 48
50.0
100
AcDbLine
 10
16307.2
 20
11409.6
 30
0.0
 11
13127.2
 21
11409.6
 31
0.0
  0
LINE
  5
19069
330
747D
100
AcDbEntity
  8
仕様書枠
 48
50.0
100
AcDbLine
 10
16307.2
 20
10049.6
 30
0.0
 11
13127.2
 21
10049.6
 31
0.0
  0
TEXT
  5
1906A
330
747D
100
AcDbEntity
  8
文字
 62
     7
 48
50.0
100
AcDbText
 10
15022.63965474515
 20
8380.013745883726
 30
0.0
 40
100.0
  1
F12            2.3
  7
STYLE1
100
AcDbText
  0
TEXT
  5
1906B
330
747D
100
AcDbEntity
  8
文字
 62
     7
 48
50.0
100
AcDbText
 10
13583.11819016569
 20
8380.013745883728
 30
0.0
 40
100.0
  1
アンカープレート
  7
STYLE1
100
AcDbText
  0
LINE
  5
1906C
330
747D
100
AcDbEntity
  8
仕様書枠
 48
50.0
100
AcDbLine
 10
16307.19999999999
 20
8519.600000000009
 30
0.0
 11
13127.2
 21
8519.600000000009
 31
0.0
  0
LINE
  5
1906D
330
747D
100
AcDbEntity
  8
仕様書枠
 48
50.0
100
AcDbLine
 10
16307.19999999999
 20
8689.600000000007
 30
0.0
 11
13127.2
 21
8689.600000000007
 31
0.0
  0
TEXT
  5
1906E
330
747D
100
AcDbEntity
  8
文字
 62
     7
 48
50.0
100
AcDbText
 10
13583.11819016569
 20
9400.013745883729
 30
0.0
 40
100.0
  1
壁面扉鴨居
  7
STYLE1
100
AcDbText
  0
TEXT
  5
1906F
330
747D
100
AcDbEntity
  8
文字
 62
     7
 48
50.0
100
AcDbText
 10
13583.11819016569
 20
9230.013745883736
 30
0.0
 40
100.0
  1
壁面扉敷居
  7
STYLE1
100
AcDbText
  0
TEXT
  5
19070
330
747D
100
AcDbEntity
  8
文字
 62
     7
 48
50.0
100
AcDbText
 10
15022.63965474515
 20
9400.013745883729
 30
0.0
 40
100.0
  1
F12            0.7
  7
STYLE1
100
AcDbText
  0
TEXT
  5
19071
330
747D
100
AcDbEntity
  8
文字
 62
     7
 48
50.0
100
AcDbText
 10
15022.63965474517
 20
9230.013745883729
 30
0.0
 40
100.0
  1
F12            1.0
  7
STYLE1
100
AcDbText
  0
TEXT
  5
19072
330
747D
100
AcDbEntity
  8
文字
 62
     7
 48
50.0
100
AcDbText
 10
13583.11819016569
 20
9060.013745883736
 30
0.0
 40
100.0
  1
壁面扉枠左右
  7
STYLE1
100
AcDbText
  0
TEXT
  5
19073
330
747D
100
AcDbEntity
  8
文字
 62
     7
 48
50.0
100
AcDbText
 10
15022.63965474517
 20
9060.013745883729
 30
0.0
 40
100.0
  1
F12            1.0
  7
STYLE1
100
AcDbText
  0
TEXT
  5
19074
330
747D
100
AcDbEntity
  8
文字
 62
     7
 48
50.0
100
AcDbText
 10
13248.77747366447
 20
8550.013745883729
 30
0.0
 40
100.0
  1
16
  7
STYLE1
100
AcDbText
  0
TEXT
  5
19075
330
747D
100
AcDbEntity
  8
文字
 62
     7
 48
50.0
100
AcDbText
 10
13248.77747366447
 20
8380.013745883728
 30
0.0
 40
100.0
  1
17
  7
STYLE1
100
AcDbText
  0
TEXT
  5
190BF
330
747D
100
AcDbEntity
  8
文字
 62
     7
 48
50.0
100
AcDbText
 10
13209.4053442172
 20
228.5435242569015
 30
0.0
 40
100.0
  1
○有効開口寸法 ： 1266×1725(mm)
  7
STYLE2
100
AcDbText
  0
TEXT
  5
190C0
330
747D
100
AcDbEntity
  8
文字
 62
     7
 48
50.0
100
AcDbText
 10
14491.96323844892
 20
483.8967129911416
 30
0.0
 40
160.0
  1
ＮＸＮ－５５ＳＢ
  7
STYLE2
100
AcDbText
  0
LINE
  5
190C6
330
747D
100
AcDbEntity
  8
部品1
100
AcDbLine
 10
10669.12952947973
 20
9593.98438359995
 30
0.0
 11
10669.12952947973
 21
9565.984383599952
 31
0.0
  0
LINE
  5
190C7
330
747D
100
AcDbEntity
  8
部品1
100
AcDbLine
 10
10669.12952947973
 20
9593.984383599929
 30
0.0
 11
10669.12952947973
 21
9565.98438359993
 31
0.0
  0
LINE
  5
190C8
330
747D
100
AcDbEntity
  8
部品1
100
AcDbLine
 10
10696.12952947973
 20
9538.984383599933
 30
0.0
 11
10724.12952947973
 21
9538.984383599933
 31
0.0
  0
LINE
  5
190C9
330
747D
100
AcDbEntity
  8
部品1
100
AcDbLine
 10
10249.12952947969
 20
9593.984383599801
 30
0.0
 11
10249.12952947969
 21
9565.984383599802
 31
0.0
  0
LINE
  5
190CA
330
747D
100
AcDbEntity
  8
部品1
100
AcDbLine
 10
10696.12952947973
 20
9118.984383599933
 30
0.0
 11
10724.12952947973
 21
9118.984383599933
 31
0.0
  0
LINE
  5
190CB
330
747D
100
AcDbEntity
  8
部品1
100
AcDbLine
 10
10696.12952947973
 20
9565.98438359993
 30
0.0
 11
10696.12952947972
 21
9113.484383599805
 31
0.0
  0
LINE
  5
190CC
330
747D
100
AcDbEntity
  8
部品1
100
AcDbLine
 10
10695.62952947973
 20
9563.984383599928
 30
0.0
 11
10695.62952947973
 21
9113.984383599932
 31
0.0
  0
DIMENSION
  5
190CD
330
747D
100
AcDbEntity
  8
寸法
100
AcDbDimension
  2
*D13
 10
11124.12952947972
 20
8999.168154643198
 30
0.0
 11
11124.12952947972
 21
9224.168154643196
 31
0.0
 70
   160
 71
     5
 42
449.9999999999963
  3
INABA_S40G
100
AcDbAlignedDimension
 13
10695.62952947973
 23
9563.984383599928
 33
0.0
 14
10695.62952947973
 24
9113.984383599932
 34
0.0
 50
90.0
100
AcDbRotatedDimension
1001
ACAD
1000
DSTYLE
1002
{
1002
}
  0
DIMENSION
  5
190CE
330
747D
100
AcDbEntity
  8
寸法
100
AcDbDimension
  2
*D14
 10
10724.12952947973
 20
9893.98438359993
 30
0.0
 11
11032.61481085396
 21
9893.98438359993
 31
0.0
 70
   160
 71
     5
 42
55.0
  3
INABA_S40G
100
AcDbAlignedDimension
 13
10669.12952947973
 23
9593.984383599929
 33
0.0
 14
10724.12952947973
 24
9593.984383599929
 34
0.0
100
AcDbRotatedDimension
1001
ACAD
1000
DSTYLE
1002
{
1002
}
  0
DIMENSION
  5
190CF
330
747D
100
AcDbEntity
  8
寸法
100
AcDbDimension
  2
*D15
 10
11424.12952947973
 20
9538.984383599933
 30
0.0
 11
11424.12952947973
 21
9902.469664974169
 31
0.0
 70
   160
 71
     5
 42
54.99999999999636
  3
INABA_S40G
100
AcDbAlignedDimension
 13
10724.12952947973
 23
9593.984383599929
 33
0.0
 14
10724.12952947973
 24
9538.984383599933
 34
0.0
 50
90.0
100
AcDbRotatedDimension
1001
ACAD
1000
DSTYLE
1002
{
1002
}
  0
LINE
  5
190D0
330
747D
100
AcDbEntity
  8
部品1
100
AcDbLine
 10
10696.12952947973
 20
8698.984383599933
 30
0.0
 11
10724.12952947973
 21
8698.984383599933
 31
0.0
  0
LINE
  5
190D1
330
747D
100
AcDbEntity
  8
部品1
100
AcDbLine
 10
10696.1295294797
 20
7858.984383599919
 30
0.0
 11
10724.1295294797
 21
7858.984383599919
 31
0.0
  0
LINE
  5
190D2
330
747D
100
AcDbEntity
  8
部品1
100
AcDbLine
 10
10724.1295294797
 20
7803.984383599922
 30
0.0
 11
10673.1295294797
 21
7803.984383599922
 31
0.0
  0
LINE
  5
190D3
330
747D
100
AcDbEntity
  8
部品1
 48
50.0
100
AcDbLine
 10
10667.62952947973
 20
7860.484383599922
 30
0.0
 11
10696.12952947972
 21
7831.984383599922
 31
0.0
  0
LINE
  5
190D4
330
747D
100
AcDbEntity
  8
部品1
100
AcDbLine
 10
10724.1295294797
 20
7858.984383599919
 30
0.0
 11
10724.1295294797
 21
7803.984383599922
 31
0.0
  0
LINE
  5
190D5
330
747D
100
AcDbEntity
  8
部品1
100
AcDbLine
 10
10696.12952947973
 20
7858.984383599919
 30
0.0
 11
10724.12952947973
 21
7858.984383599919
 31
0.0
  0
LINE
  5
190D6
330
747D
100
AcDbEntity
  8
部品1
100
AcDbLine
 10
10669.12952947973
 20
7803.984383599922
 30
0.0
 11
10669.12952947973
 21
7831.984383599922
 31
0.0
  0
LINE
  5
190D7
330
747D
100
AcDbEntity
  8
部品1
100
AcDbLine
 10
10249.12952947973
 20
7803.984383599922
 30
0.0
 11
10249.12952947973
 21
7831.984383599922
 31
0.0
  0
LINE
  5
190D9
330
747D
100
AcDbEntity
  8
部品1
100
AcDbLine
 10
10724.1295294797
 20
7803.984383599922
 30
0.0
 11
10249.12952947973
 21
7803.984383599908
 31
0.0
  0
DIMENSION
  5
190DA
330
747D
100
AcDbEntity
  8
寸法
100
AcDbDimension
  2
*D16
 10
11424.1295294797
 20
7803.984383599922
 30
0.0
 11
11424.1295294797
 21
7495.499102225682
 31
0.0
 70
   160
 71
     5
 42
54.99999999999636
  3
INABA_S40G
100
AcDbAlignedDimension
 13
10724.1295294797
 23
7858.984383599919
 33
0.0
 14
10724.1295294797
 24
7803.984383599922
 34
0.0
 50
90.0
100
AcDbRotatedDimension
1001
ACAD
1000
DSTYLE
1002
{
1002
}
  0
DIMENSION
  5
190DB
330
747D
100
AcDbEntity
  8
寸法
100
AcDbDimension
  2
*D17
 10
11724.12952947972
 20
7803.984383599922
 30
0.0
 11
11724.12952947972
 21
8698.984383599926
 31
0.0
 70
   160
 71
     5
 42
1790.000000000006
  3
INABA_S40G
100
AcDbAlignedDimension
 13
10724.12952947973
 23
9593.984383599929
 33
0.0
 14
10724.1295294797
 24
7803.984383599922
 34
0.0
 50
90.0
100
AcDbRotatedDimension
1001
ACAD
1000
DSTYLE
1002
{
1002
}
  0
LINE
  5
190DC
330
747D
100
AcDbEntity
  8
破線
 48
10.0
100
AcDbLine
 10
10644.12952947972
 20
9113.984383599932
 30
0.0
 11
10644.12952947973
 21
7883.984383599919
 31
0.0
  0
DIMENSION
  5
190DD
330
747D
100
AcDbEntity
  8
寸法
100
AcDbDimension
  2
*D18
 10
11424.12952947972
 20
7858.984383599919
 30
0.0
 11
11424.12952947971
 21
8698.984383599926
 31
0.0
 70
   160
  1
4X420=<>
 71
     5
 42
1680.000000000013
  3
INABA_S40G
100
AcDbAlignedDimension
 13
10724.12952947973
 23
9538.984383599933
 33
0.0
 14
10724.1295294797
 24
7858.984383599919
 34
0.0
 50
90.0
100
AcDbRotatedDimension
1001
ACAD
1000
DSTYLE
1002
{
1002
}
  0
LINE
  5
190DE
330
747D
100
AcDbEntity
  8
部品1
100
AcDbLine
 10
10724.12952947973
 20
9593.984383599929
 30
0.0
 11
10724.1295294797
 21
7803.984383599922
 31
0.0
  0
LINE
  5
190DF
330
747D
100
AcDbEntity
  8
部品1
100
AcDbLine
 10
10667.62952947972
 20
9113.984383599932
 30
0.0
 11
10667.62952947973
 21
7860.484383599922
 31
0.0
  0
LINE
  5
190E0
330
747D
100
AcDbEntity
  8
部品1
100
AcDbLine
 10
10696.12952947972
 20
9118.984383599933
 30
0.0
 11
10696.1295294797
 21
7831.984383599922
 31
0.0
  0
LINE
  5
190E1
330
747D
100
AcDbEntity
  8
部品1
100
AcDbLine
 10
9829.129529479695
 20
9593.984383599801
 30
0.0
 11
9829.129529479695
 21
9565.984383599802
 31
0.0
  0
LINE
  5
190E2
330
747D
100
AcDbEntity
  8
部品1
100
AcDbLine
 10
9409.129529479695
 20
9593.984383599801
 30
0.0
 11
9409.129529479695
 21
9565.984383599802
 31
0.0
  0
LINE
  5
190E3
330
747D
100
AcDbEntity
  8
部品1
100
AcDbLine
 10
9164.129529479728
 20
9583.984383599936
 30
0.0
 11
9164.129529479728
 21
9565.984383599937
 31
0.0
  0
LINE
  5
190E4
330
747D
100
AcDbEntity
  8
部品1
100
AcDbLine
 10
9164.129529479728
 20
9583.984383599936
 30
0.0
 11
9170.129529479728
 21
9583.984383599936
 31
0.0
  0
LINE
  5
190E5
330
747D
100
AcDbEntity
  8
部品1
100
AcDbLine
 10
9234.129529479728
 20
9583.984383599936
 30
0.0
 11
9234.129529479728
 21
9565.984383599937
 31
0.0
  0
LINE
  5
190E6
330
747D
100
AcDbEntity
  8
部品1
100
AcDbLine
 10
9228.129529479728
 20
9583.984383599936
 30
0.0
 11
9234.129529479728
 21
9583.984383599936
 31
0.0
  0
LINE
  5
190E7
330
747D
100
AcDbEntity
  8
部品1
100
AcDbLine
 10
9186.629529479727
 20
9557.984383599933
 30
0.0
 11
9211.629529479727
 21
9557.984383599936
 31
0.0
  0
LINE
  5
190E8
330
747D
100
AcDbEntity
  8
部品1
100
AcDbLine
 10
8989.129529479695
 20
9593.984383599801
 30
0.0
 11
8989.129529479695
 21
9565.984383599802
 31
0.0
  0
LINE
  5
190E9
330
747D
100
AcDbEntity
  8
部品1
100
AcDbLine
 10
9186.629529479727
 20
9113.984383599939
 30
0.0
 11
9211.629529479727
 21
9113.984383599939
 31
0.0
  0
LINE
  5
190EA
330
747D
100
AcDbEntity
  8
部品1
 48
50.0
100
AcDbLine
 10
9185.629529479728
 20
9563.984383599937
 30
0.0
 11
9185.629529479728
 21
9113.984383599939
 31
0.0
  0
LINE
  5
190EB
330
747D
100
AcDbEntity
  8
部品1
 48
50.0
100
AcDbLine
 10
9212.629529479727
 20
9563.984383599933
 30
0.0
 11
9212.629529479727
 21
9113.984383599939
 31
0.0
  0
LINE
  5
190EC
330
747D
100
AcDbEntity
  8
部品1
 48
50.0
100
AcDbLine
 10
9186.629529479727
 20
9565.984383599944
 30
0.0
 11
9186.629529479727
 21
9113.984383599939
 31
0.0
  0
LINE
  5
190ED
330
747D
100
AcDbEntity
  8
部品1
 48
50.0
100
AcDbLine
 10
9211.629529479727
 20
9565.984383599939
 30
0.0
 11
9211.629529479727
 21
9113.984383599939
 31
0.0
  0
LINE
  5
190EE
330
747D
100
AcDbEntity
  8
部品1
100
AcDbLine
 10
8569.129529479694
 20
9593.984383599801
 30
0.0
 11
8569.129529479694
 21
9565.984383599802
 31
0.0
  0
LINE
  5
190EF
330
747D
100
AcDbEntity
  8
部品1
100
AcDbLine
 10
8149.129529479694
 20
9593.984383599801
 30
0.0
 11
8149.129529479694
 21
9565.984383599802
 31
0.0
  0
LINE
  5
190F0
330
747D
100
AcDbEntity
  8
部品1
100
AcDbLine
 10
7729.129529479727
 20
9593.984383599835
 30
0.0
 11
7729.129529479727
 21
9565.984383599834
 31
0.0
  0
LINE
  5
190F1
330
747D
100
AcDbEntity
  8
部品1
100
AcDbLine
 10
7729.129529479696
 20
9593.984383599801
 30
0.0
 11
7729.129529479696
 21
9565.984383599802
 31
0.0
  0
LINE
  5
190F2
330
747D
100
AcDbEntity
  8
部品1
100
AcDbLine
 10
7702.129529479694
 20
9538.984383599805
 30
0.0
 11
7674.129529479694
 21
9538.984383599805
 31
0.0
  0
LINE
  5
190F3
330
747D
100
AcDbEntity
  8
部品1
100
AcDbLine
 10
7702.129529479702
 20
9118.984383599807
 30
0.0
 11
7674.129529479703
 21
9118.984383599807
 31
0.0
  0
LINE
  5
190F4
330
747D
100
AcDbEntity
  8
部品1
 48
50.0
100
AcDbLine
 10
7702.629529479658
 20
9563.984383599937
 30
0.0
 11
7702.629529479658
 21
9113.984383599939
 31
0.0
  0
LINE
  5
190F5
330
747D
100
AcDbEntity
  8
部品1
100
AcDbLine
 10
7702.129529479719
 20
9113.484383599805
 30
0.0
 11
7702.129529479726
 21
9565.984383599834
 31
0.0
  0
LINE
  5
190F6
330
747D
100
AcDbEntity
  8
部品1
100
AcDbLine
 10
7702.129529479726
 20
9565.984383599834
 30
0.0
 11
8674.129529479726
 21
9565.984383599838
 31
0.0
  0
LINE
  5
190F7
330
747D
100
AcDbEntity
  8
細線
 48
50.0
100
AcDbLine
 10
9185.629529479728
 20
9113.984383599939
 30
0.0
 11
7702.629529479658
 21
9563.984383599883
 31
0.0
  0
LINE
  5
190F8
330
747D
100
AcDbEntity
  8
細線
 48
50.0
100
AcDbLine
 10
9185.629529479728
 20
9563.984383599937
 30
0.0
 11
7702.629529479658
 21
9113.984383599882
 31
0.0
  0
LINE
  5
190F9
330
747D
100
AcDbEntity
  8
部品1
100
AcDbLine
 10
7729.129529479727
 20
9565.984383599952
 30
0.0
 11
9186.629529479727
 21
9565.984383599952
 31
0.0
  0
LINE
  5
190FA
330
747D
100
AcDbEntity
  8
部品1
100
AcDbLine
 10
7702.629529479658
 20
9563.984383599882
 30
0.0
 11
9185.629529479728
 21
9563.98438359994
 31
0.0
  0
LINE
  5
190FB
330
747D
100
AcDbEntity
  8
部品1
100
AcDbLine
 10
7702.629529479658
 20
9113.984383599882
 30
0.0
 11
9185.629529479728
 21
9113.984383599939
 31
0.0
  0
LINE
  5
190FC
330
747D
100
AcDbEntity
  8
破線
 48
10.0
100
AcDbLine
 10
9901.629529479706
 20
7883.984383599848
 30
0.0
 11
9224.129529479705
 21
7883.984383599835
 31
0.0
  0
LINE
  5
190FD
330
747D
100
AcDbEntity
  8
部品1
100
AcDbLine
 10
8149.129529479697
 20
7803.984383599922
 30
0.0
 11
8149.129529479697
 21
7831.984383599922
 31
0.0
  0
LINE
  5
190FF
330
747D
100
AcDbEntity
  8
部品1
100
AcDbLine
 10
7702.129529479702
 20
8698.984383599805
 30
0.0
 11
7674.129529479703
 21
8698.984383599805
 31
0.0
  0
LINE
  5
19100
330
747D
100
AcDbEntity
  8
部品1
100
AcDbLine
 10
7674.12952947972
 20
7858.984383599754
 30
0.0
 11
7674.129529479722
 21
7803.984383599758
 31
0.0
  0
LINE
  5
19101
330
747D
100
AcDbEntity
  8
部品1
100
AcDbLine
 10
7702.129529479719
 20
7858.984383599805
 30
0.0
 11
7674.12952947972
 21
7858.984383599805
 31
0.0
  0
LINE
  5
19102
330
747D
100
AcDbEntity
  8
部品1
100
AcDbLine
 10
7702.129529479704
 20
7858.984383599791
 30
0.0
 11
7674.12952947972
 21
7858.984383599791
 31
0.0
  0
LINE
  5
19103
330
747D
100
AcDbEntity
  8
部品1
100
AcDbLine
 10
7702.129529479704
 20
7858.984383599754
 30
0.0
 11
7674.12952947972
 21
7858.984383599754
 31
0.0
  0
LINE
  5
19104
330
747D
100
AcDbEntity
  8
部品1
 48
50.0
100
AcDbLine
 10
7730.629529479717
 20
7860.484383599898
 30
0.0
 11
7702.129529479719
 21
7831.984383599899
 31
0.0
  0
LINE
  5
19105
330
747D
100
AcDbEntity
  8
部品1
100
AcDbLine
 10
7729.129529479696
 20
7803.984383599922
 30
0.0
 11
7729.129529479696
 21
7831.984383599922
 31
0.0
  0
LINE
  5
19106
330
747D
100
AcDbEntity
  8
部品1
100
AcDbLine
 10
8149.129529479699
 20
7803.984383599791
 30
0.0
 11
7674.129529479722
 21
7803.984383599791
 31
0.0
  0
LINE
  5
19107
330
747D
100
AcDbEntity
  8
破線
 48
10.0
100
AcDbLine
 10
8446.629529479706
 20
7883.984383599791
 30
0.0
 11
7754.129529479715
 21
7883.984383599802
 31
0.0
  0
LINE
  5
19108
330
747D
100
AcDbEntity
  8
破線
 48
10.0
100
AcDbLine
 10
9174.129529479705
 20
7883.984383599832
 30
0.0
 11
8496.629529479703
 21
7883.984383599809
 31
0.0
  0
LINE
  5
19109
330
747D
100
AcDbEntity
  8
破線
 48
10.0
100
AcDbLine
 10
7754.129529479704
 20
9113.984383599932
 30
0.0
 11
7754.129529479716
 21
7883.984383599802
 31
0.0
  0
LINE
  5
1910A
330
747D
100
AcDbEntity
  8
部品1
100
AcDbLine
 10
7702.129529479702
 20
7831.984383599882
 30
0.0
 11
7702.129529479719
 21
9118.984383599807
 31
0.0
  0
LINE
  5
1910B
330
747D
100
AcDbEntity
  8
部品1
100
AcDbLine
 10
7674.129529479694
 20
9593.984383599801
 30
0.0
 11
7674.129529479722
 21
7803.984383599791
 31
0.0
  0
LINE
  5
1910C
330
747D
100
AcDbEntity
  8
破線
 48
10.0
100
AcDbLine
 10
9174.129529479705
 20
7860.484383599831
 30
0.0
 11
9174.129529479698
 21
9113.984383599939
 31
0.0
  0
LINE
  5
1910D
330
747D
100
AcDbEntity
  8
破線
 48
10.0
100
AcDbLine
 10
9224.129529479704
 20
7860.484383599835
 30
0.0
 11
9224.129529479698
 21
9113.984383599939
 31
0.0
  0
LINE
  5
1910E
330
747D
100
AcDbEntity
  8
破線
 48
10.0
100
AcDbLine
 10
8446.629529479706
 20
7860.484383599831
 30
0.0
 11
8446.629529479706
 21
9113.984383599939
 31
0.0
  0
LINE
  5
1910F
330
747D
100
AcDbEntity
  8
破線
 48
10.0
100
AcDbLine
 10
8496.629529479703
 20
7860.484383599835
 30
0.0
 11
8496.629529479706
 21
9113.984383599939
 31
0.0
  0
LINE
  5
19110
330
747D
100
AcDbEntity
  8
破線
 48
10.0
100
AcDbLine
 10
9901.629529479706
 20
7860.484383599831
 30
0.0
 11
9901.629529479706
 21
9113.984383599939
 31
0.0
  0
LINE
  5
19111
330
747D
100
AcDbEntity
  8
破線
 48
10.0
100
AcDbLine
 10
9951.629529479703
 20
7860.484383599835
 30
0.0
 11
9951.629529479706
 21
9113.984383599939
 31
0.0
  0
DIMENSION
  5
19112
330
747D
100
AcDbEntity
  8
寸法
100
AcDbDimension
  2
*D19
 10
9094.677628572995
 20
8774.547268371067
 30
0.0
 11
8260.370020867206
 21
8774.547268371067
 31
0.0
 70
   160
 71
     5
 42
1483.000000000071
  3
INABA_S40G
100
AcDbAlignedDimension
 13
7702.629529479651
 23
9113.984383599946
 33
0.0
 14
9185.629529479722
 24
9113.984383599939
 34
0.0
100
AcDbRotatedDimension
1001
ACAD
1000
DSTYLE
1002
{
1002
}
  0
LINE
  5
19113
330
747D
100
AcDbEntity
  8
部品1
 48
50.0
100
AcDbLine
 10
9199.12952947973
 20
9113.984383599941
 30
0.0
 11
9199.129529479757
 21
7860.484383599819
 31
0.0
  0
LINE
  5
19114
330
747D
100
AcDbEntity
  8
部品1
100
AcDbLine
 10
7730.629529479705
 20
9113.984383599882
 30
0.0
 11
7730.629529479717
 21
7860.484383599896
 31
0.0
  0
DIMENSION
  5
19115
330
747D
100
AcDbEntity
  8
寸法
100
AcDbDimension
  2
*D20
 10
10669.12952947973
 20
9893.984383599882
 30
0.0
 11
9199.129529479726
 21
9893.984383599882
 31
0.0
 70
   160
  1
7X420=<>
 71
     5
 42
2940.000000000002
  3
INABA_S40G
100
AcDbAlignedDimension
 13
7729.129529479727
 23
9593.984383599835
 33
0.0
 14
10669.12952947973
 24
9593.984383599929
 34
0.0
100
AcDbRotatedDimension
1001
ACAD
1000
DSTYLE
1002
{
1002
}
  0
LINE
  5
19116
330
747D
100
AcDbEntity
  8
部品1
100
AcDbLine
 10
10667.62952947973
 20
7860.484383599922
 30
0.0
 11
7730.629529479621
 21
7860.484383599803
 31
0.0
  0
LINE
  5
19117
330
747D
100
AcDbEntity
  8
部品1
100
AcDbLine
 10
7674.129529479727
 20
9593.984383599835
 30
0.0
 11
10724.12952947973
 21
9593.984383599929
 31
0.0
  0
LINE
  5
19119
330
747D
100
AcDbEntity
  8
破線
 48
10.0
100
AcDbLine
 10
10644.12952947973
 20
7883.98438359992
 30
0.0
 11
9951.629529479703
 21
7883.984383599861
 31
0.0
  0
DIMENSION
  5
1911A
330
747D
100
AcDbEntity
  8
寸法
100
AcDbDimension
  2
*D21
 10
10604.67762857299
 20
8774.547268371067
 30
0.0
 11
9711.352284992482
 21
8774.547268371067
 31
0.0
 70
   160
 71
     5
 42
1483.000000000013
  3
INABA_S40G
100
AcDbAlignedDimension
 13
9212.62952947972
 23
9113.984383600005
 33
0.0
 14
10695.62952947973
 24
9113.984383599998
 34
0.0
100
AcDbRotatedDimension
1001
ACAD
1000
DSTYLE
1002
{
1002
}
  0
LINE
  5
1911B
330
747D
100
AcDbEntity
  8
細線
 48
50.0
100
AcDbLine
 10
10695.62952947973
 20
9563.984383599928
 30
0.0
 11
9212.629529479727
 21
9113.984383599939
 31
0.0
  0
LINE
  5
1911C
330
747D
100
AcDbEntity
  8
部品1
100
AcDbLine
 10
9212.629529479727
 20
9563.984383599937
 30
0.0
 11
10695.62952947973
 21
9563.984383599928
 31
0.0
  0
LINE
  5
1911D
330
747D
100
AcDbEntity
  8
部品1
100
AcDbLine
 10
9212.629529479727
 20
9113.984383599939
 30
0.0
 11
10695.62952947973
 21
9113.984383599932
 31
0.0
  0
LINE
  5
1911E
330
747D
100
AcDbEntity
  8
細線
 48
50.0
100
AcDbLine
 10
10695.62952947973
 20
9113.984383599932
 30
0.0
 11
9212.629529479727
 21
9563.984383599933
 31
0.0
  0
LINE
  5
1911F
330
747D
100
AcDbEntity
  8
部品1
100
AcDbLine
 10
9211.629529479727
 20
9565.984383599948
 30
0.0
 11
10696.12952947973
 21
9565.98438359993
 31
0.0
  0
LINE
  5
19120
330
747D
100
AcDbEntity
  8
部品1
100
AcDbLine
 10
10667.62952947971
 20
8698.984383599905
 30
0.0
 11
7730.629529479712
 21
8698.984383599805
 31
0.0
  0
LINE
  5
19121
330
747D
100
AcDbEntity
  8
部品1
 48
50.0
100
AcDbLine
 10
7702.129529479724
 20
7831.984383599904
 30
0.0
 11
10696.12952947974
 21
7831.984383599908
 31
0.0
  0
DIMENSION
  5
19122
330
747D
100
AcDbEntity
  8
寸法
100
AcDbDimension
  2
*D22
 10
7729.129529479727
 20
9893.984383599836
 30
0.0
 11
7365.644248105455
 21
9893.984383599836
 31
0.0
 70
   160
 71
     5
 42
55.00000000003274
  3
INABA_S40G
100
AcDbAlignedDimension
 13
7674.129529479694
 23
9593.984383599835
 33
0.0
 14
7729.129529479727
 24
9593.984383599835
 34
0.0
100
AcDbRotatedDimension
1001
ACAD
1000
DSTYLE
1002
{
1002
}
  0
LINE
  5
19126
330
747D
100
AcDbEntity
  8
破線
 48
5.0
100
AcDbLine
 10
10729.12952947973
 20
2549.652601329415
 30
0.0
 11
10729.12952947973
 21
2394.652601329415
 31
0.0
  0
LINE
  5
19127
330
747D
100
AcDbEntity
  8
破線
 48
5.0
100
AcDbLine
 10
10749.12952947973
 20
2394.652601329415
 30
0.0
 11
10729.12952947973
 21
2394.652601329415
 31
0.0
  0
LINE
  5
19128
330
747D
100
AcDbEntity
  8
部品1
100
AcDbLine
 10
10729.12952947973
 20
2694.652601329416
 30
0.0
 11
10729.12952947973
 21
2549.652601329415
 31
0.0
  0
LINE
  5
19129
330
747D
100
AcDbEntity
  8
部品1
100
AcDbLine
 10
10249.12952947973
 20
4489.652601329415
 30
0.0
 11
10249.12952947973
 21
4484.652601329415
 31
0.0
  0
DIMENSION
  5
1912A
330
747D
100
AcDbEntity
  8
寸法
 48
50.0
100
AcDbDimension
  2
*D23
 10
11415.3431084658
 20
4669.652601329415
 30
0.0
 11
11315.33129744218
 21
3659.652601329418
 31
0.0
 70
    32
 71
     5
 42
2020.000000000001
  3
INABA_S40G
100
AcDbAlignedDimension
 13
10724.12952947973
 23
2649.652601329415
 33
0.0
 14
10804.12952947974
 24
4669.652601329415
 34
0.0
 50
90.0
100
AcDbRotatedDimension
1001
ACAD
1000
DSTYLE
1002
{
1002
}
  0
LINE
  5
1912B
330
747D
100
AcDbEntity
  8
部品1
100
AcDbLine
 10
10724.12952947973
 20
4544.08262911054
 30
0.0
 11
10724.12952947973
 21
2549.652601329415
 31
0.0
  0
LINE
  5
1912C
330
747D
100
AcDbEntity
  8
部品1
 48
50.0
100
AcDbLine
 10
9826.129529479734
 20
2649.652601329415
 30
0.0
 11
9826.129529479734
 21
2549.652601329415
 31
0.0
  0
LINE
  5
1912D
330
747D
100
AcDbEntity
  8
部品1
 48
50.0
100
AcDbLine
 10
10026.12952947973
 20
2649.652601329415
 30
0.0
 11
10026.12952947973
 21
2549.652601329415
 31
0.0
  0
LINE
  5
1912E
330
747D
100
AcDbEntity
  8
部品1
100
AcDbLine
 10
10324.12952947973
 20
2649.652601329415
 30
0.0
 11
10324.12952947973
 21
2549.652601329415
 31
0.0
  0
LINE
  5
1912F
330
747D
100
AcDbEntity
  8
部品1
 48
50.0
100
AcDbLine
 10
9299.129529479733
 20
2649.652601329415
 30
0.0
 11
9299.129529479733
 21
2549.652601329415
 31
0.0
  0
LINE
  5
19130
330
747D
100
AcDbEntity
  8
部品1
 48
50.0
100
AcDbLine
 10
8572.129529479733
 20
2649.652601329415
 30
0.0
 11
8572.129529479733
 21
2549.652601329415
 31
0.0
  0
LINE
  5
19131
330
747D
100
AcDbEntity
  8
部品1
 48
50.0
100
AcDbLine
 10
9099.129529479732
 20
2649.652601329415
 30
0.0
 11
9099.129529479732
 21
2549.652601329415
 31
0.0
  0
LINE
  5
19132
330
747D
100
AcDbEntity
  8
部品1
100
AcDbLine
 10
8074.129529479732
 20
2649.652601329415
 30
0.0
 11
8074.129529479732
 21
2549.652601329415
 31
0.0
  0
LINE
  5
19133
330
747D
100
AcDbEntity
  8
部品1
 48
50.0
100
AcDbLine
 10
8372.129529479733
 20
2649.652601329415
 30
0.0
 11
8372.129529479733
 21
2549.652601329415
 31
0.0
  0
LINE
  5
19134
330
747D
100
AcDbEntity
  8
部品1
100
AcDbLine
 10
10276.12952947973
 20
2699.652601329415
 30
0.0
 11
10724.12952947973
 21
2699.652601329415
 31
0.0
  0
LINE
  5
19135
330
747D
100
AcDbEntity
  8
破線
 48
5.0
100
AcDbLine
 10
7669.129529479734
 20
2549.652601329415
 30
0.0
 11
7669.129529479734
 21
2394.652601329416
 31
0.0
  0
LINE
  5
19136
330
747D
100
AcDbEntity
  8
破線
 48
5.0
100
AcDbLine
 10
7649.129529479735
 20
2394.652601329416
 30
0.0
 11
7669.129529479737
 21
2394.652601329416
 31
0.0
  0
LINE
  5
19137
330
747D
100
AcDbEntity
  8
破線
  6
HIDDEN
 48
5.0
100
AcDbLine
 10
7666.629529479735
 20
2396.952601329414
 30
0.0
 11
7666.629529479735
 21
2394.652601329415
 31
0.0
  0
LINE
  5
1913C
330
747D
100
AcDbEntity
  8
部品1
100
AcDbLine
 10
7669.129529479734
 20
2694.652601329417
 30
0.0
 11
7669.129529479734
 21
2549.652601329415
 31
0.0
  0
LINE
  5
1913D
330
747D
100
AcDbEntity
  8
部品1
100
AcDbLine
 10
7729.129529479734
 20
4489.652601329415
 30
0.0
 11
7729.129529479734
 21
2699.652601329415
 31
0.0
  0
LINE
  5
1913E
330
747D
100
AcDbEntity
  8
部品1
100
AcDbLine
 10
7674.129529479735
 20
4581.880202564057
 30
0.0
 11
7674.129529479735
 21
2549.652601329415
 31
0.0
  0
LINE
  5
1913F
330
747D
100
AcDbEntity
  8
部品1
100
AcDbLine
 10
7674.129529479735
 20
2649.652601329416
 30
0.0
 11
10724.12952947973
 21
2649.652601329415
 31
0.0
  0
LINE
  5
19140
330
747D
100
AcDbEntity
  8
部品1
100
AcDbLine
 10
7674.129529479735
 20
2699.652601329415
 30
0.0
 11
8122.129529479732
 21
2699.652601329415
 31
0.0
  0
LINE
  5
19141
330
747D
100
AcDbEntity
  8
部品1
100
AcDbLine
 10
7674.129529479735
 20
4489.652601329415
 30
0.0
 11
10724.12952947973
 21
4489.652601329415
 31
0.0
  0
LINE
  5
19142
330
747D
100
AcDbEntity
  8
部品1
100
AcDbLine
 10
9604.614862739584
 20
1860.614338352007
 30
0.0
 11
8841.144196511145
 21
1860.614338352007
 31
0.0
  0
LINE
  5
19143
330
747D
100
AcDbEntity
  8
部品1
100
AcDbLine
 10
9604.614862739584
 20
1620.722016806474
 30
0.0
 11
9604.614862739584
 21
1860.614338352007
 31
0.0
  0
LINE
  5
19144
330
747D
100
AcDbEntity
  8
部品1
100
AcDbLine
 10
8841.144196511145
 20
1620.722016806474
 30
0.0
 11
9604.614862739584
 21
1620.722016806474
 31
0.0
  0
LINE
  5
19145
330
747D
100
AcDbEntity
  8
部品1
100
AcDbLine
 10
8841.144196511145
 20
1860.614338352007
 30
0.0
 11
8841.144196511145
 21
1620.722016806474
 31
0.0
  0
TEXT
  5
1914C
330
747D
100
AcDbEntity
  8
部品1
100
AcDbText
 10
8931.669600249101
 20
1667.720809133483
 30
0.0
 40
135.0
  1
正面図
  7
STYLE2
100
AcDbText
  0
LINE
  5
1914D
330
747D
100
AcDbEntity
  8
Ｇ．Ｌ
100
AcDbLine
 10
2430.200351363452
 20
2549.652601329415
 30
0.0
 11
11521.47953427666
 21
2549.652601329415
 31
0.0
  0
ARC
  5
19646
330
747D
100
AcDbEntity
  8
部品1
100
AcDbCircle
 10
5565.260762275761
 20
4717.652601329418
 30
0.0
 40
7.0
100
AcDbArc
 50
356.7526572096682
 51
90.0
  0
ARC
  5
19647
330
747D
100
AcDbEntity
  8
部品1
100
AcDbCircle
 10
5552.045438814726
 20
4590.652601329423
 30
0.0
 40
7.0
100
AcDbArc
 50
270.0
 51
356.7526572096682
  0
ARC
  5
19648
330
747D
100
AcDbEntity
  8
部品1
 48
50.0
100
AcDbCircle
 10
5570.417249025406
 20
4697.319600491105
 30
0.0
 40
0.7
100
AcDbArc
 50
277.6581272073652
 51
356.7526572096162
  0
ARC
  5
19649
330
747D
100
AcDbEntity
  8
部品1
 48
50.0
100
AcDbCircle
 10
5562.181218500562
 20
4605.119600491102
 30
0.0
 40
0.7
100
AcDbArc
 50
277.6581272073652
 51
356.7526572096682
  0
ARC
  5
1964A
330
747D
100
AcDbEntity
  8
部品1
 48
50.0
100
AcDbCircle
 10
5562.674287609123
 20
4601.452601329418
 30
0.0
 40
3.0
100
AcDbArc
 50
97.65812720736519
 51
176.7526572096682
  0
ARC
  5
1964B
330
747D
100
AcDbEntity
  8
部品1
 48
50.0
100
AcDbCircle
 10
5570.910318133967
 20
4693.652601329422
 30
0.0
 40
3.0
100
AcDbArc
 50
97.65812720736519
 51
176.7526572096682
  0
LINE
  5
1964C
330
747D
100
AcDbEntity
  8
部品1
100
AcDbLine
 10
5567.915135237782
 20
4693.822540784522
 30
0.0
 11
5562.88009450967
 21
4605.079947951579
 31
0.0
  0
LINE
  5
1964D
330
747D
100
AcDbEntity
  8
部品1
100
AcDbLine
 10
5559.679104712937
 20
4601.622540784521
 30
0.0
 11
5559.034198905825
 21
4590.256075934181
 31
0.0
  0
LINE
  5
1964E
330
747D
100
AcDbEntity
  8
細線
 48
50.0
100
AcDbLine
 10
5539.669183382193
 20
4724.652601329418
 30
0.0
 11
5539.669183382193
 21
4583.652601329418
 31
0.0
  0
LINE
  5
1964F
330
747D
100
AcDbEntity
  8
部品1
100
AcDbLine
 10
5572.24952236686
 20
4717.256075934181
 30
0.0
 11
5571.116125034514
 21
4697.27994795158
 31
0.0
  0
DIMENSION
  5
19650
330
747D
100
AcDbEntity
  8
寸法
 48
50.0
100
AcDbDimension
  2
*D24
 10
5522.669183382193
 20
5129.272860756688
 30
0.0
 11
5886.15446475643
 21
5129.272860756688
 31
0.0
 70
   160
 71
     5
 42
50.0
  3
INABA_S40G
100
AcDbAlignedDimension
 13
5572.669183382193
 23
4724.652601329418
 33
0.0
 14
5522.669183382193
 24
4724.65260132942
 34
0.0
100
AcDbRotatedDimension
  0
LINE
  5
19651
330
747D
100
AcDbEntity
  8
部品1
 48
0.01
100
AcDbLine
 10
5122.669183382197
 20
4553.652601329415
 30
0.0
 11
5122.669183382197
 21
4522.152601329415
 31
0.0
  0
LINE
  5
19652
330
747D
100
AcDbEntity
  8
部品1
 48
0.01
100
AcDbLine
 10
5120.669183382197
 20
4520.152601329415
 30
0.0
 11
4944.669183382197
 21
4520.152601329415
 31
0.0
  0
LINE
  5
19653
330
747D
100
AcDbEntity
  8
部品1
 48
0.01
100
AcDbLine
 10
4942.669183382196
 20
4522.152601329415
 30
0.0
 11
4942.669183382196
 21
4553.652601329415
 31
0.0
  0
ARC
  5
19654
330
747D
100
AcDbEntity
  8
部品1
 48
0.01
100
AcDbCircle
 10
5120.669183382197
 20
4522.152601329415
 30
0.0
 40
2.0
100
AcDbArc
 50
270.0
 51
0.0
  0
ARC
  5
19655
330
747D
100
AcDbEntity
  8
部品1
 48
0.01
100
AcDbCircle
 10
4944.669183382197
 20
4522.152601329415
 30
0.0
 40
2.0
100
AcDbArc
 50
180.0
 51
270.0
  0
LINE
  5
19656
330
747D
100
AcDbEntity
  8
細線
100
AcDbLine
 10
5032.669183382196
 20
4549.152601329415
 30
0.0
 11
5032.669183382196
 21
4526.152601329415
 31
0.0
  0
LINE
  5
19657
330
747D
100
AcDbEntity
  8
細線
100
AcDbLine
 10
4958.669183382197
 20
4537.152601329415
 30
0.0
 11
5032.669183382196
 21
4537.152601329415
 31
0.0
  0
LINE
  5
19658
330
747D
100
AcDbEntity
  8
細線
100
AcDbLine
 10
4958.669183382197
 20
4531.152601329415
 30
0.0
 11
5032.669183382196
 21
4531.152601329415
 31
0.0
  0
LINE
  5
19659
330
747D
100
AcDbEntity
  8
細線
100
AcDbLine
 10
4958.669183382197
 20
4543.152601329415
 30
0.0
 11
5032.669183382196
 21
4543.152601329415
 31
0.0
  0
LINE
  5
1965A
330
747D
100
AcDbEntity
  8
細線
100
AcDbLine
 10
5106.669183382197
 20
4543.152601329415
 30
0.0
 11
5037.669183382197
 21
4543.152601329415
 31
0.0
  0
LINE
  5
1965B
330
747D
100
AcDbEntity
  8
細線
100
AcDbLine
 10
5106.669183382197
 20
4531.152601329415
 30
0.0
 11
5032.669183382196
 21
4531.152601329415
 31
0.0
  0
LINE
  5
1965C
330
747D
100
AcDbEntity
  8
細線
100
AcDbLine
 10
5106.669183382197
 20
4537.152601329415
 30
0.0
 11
5032.669183382196
 21
4537.152601329415
 31
0.0
  0
LINE
  5
1965D
330
747D
100
AcDbEntity
  8
細線
100
AcDbLine
 10
5106.669183382197
 20
4543.152601329415
 30
0.0
 11
5032.669183382196
 21
4543.152601329415
 31
0.0
  0
LINE
  5
1965E
330
747D
100
AcDbEntity
  8
部品1
 48
0.01
100
AcDbLine
 10
4944.669183382197
 20
4555.652601329415
 30
0.0
 11
5120.669183382197
 21
4555.652601329415
 31
0.0
  0
LINE
  5
1965F
330
747D
100
AcDbEntity
  8
細線
100
AcDbLine
 10
5106.669183382197
 20
4549.152601329415
 30
0.0
 11
5106.669183382197
 21
4526.152601329415
 31
0.0
  0
LINE
  5
19660
330
747D
100
AcDbEntity
  8
細線
100
AcDbLine
 10
4958.669183382197
 20
4526.152601329415
 30
0.0
 11
4958.669183382197
 21
4549.152601329415
 31
0.0
  0
LINE
  5
19661
330
747D
100
AcDbEntity
  8
細線
100
AcDbLine
 10
4958.669183382197
 20
4549.152601329415
 30
0.0
 11
5032.669183382196
 21
4549.152601329415
 31
0.0
  0
LINE
  5
19662
330
747D
100
AcDbEntity
  8
細線
100
AcDbLine
 10
5106.669183382197
 20
4526.152601329415
 30
0.0
 11
5032.669183382196
 21
4526.152601329415
 31
0.0
  0
LINE
  5
19663
330
747D
100
AcDbEntity
  8
細線
100
AcDbLine
 10
5032.669183382196
 20
4549.152601329415
 30
0.0
 11
5106.669183382197
 21
4549.152601329415
 31
0.0
  0
LINE
  5
19664
330
747D
100
AcDbEntity
  8
細線
100
AcDbLine
 10
5032.669183382196
 20
4526.152601329415
 30
0.0
 11
4958.669183382197
 21
4526.152601329415
 31
0.0
  0
ARC
  5
19665
330
747D
100
AcDbEntity
  8
部品1
 48
0.01
100
AcDbCircle
 10
5120.669183382197
 20
4553.652601329415
 30
0.0
 40
2.0
100
AcDbArc
 50
0.0
 51
90.0
  0
ARC
  5
19666
330
747D
100
AcDbEntity
  8
部品1
 48
0.01
100
AcDbCircle
 10
4944.669183382197
 20
4553.652601329415
 30
0.0
 40
2.0
100
AcDbArc
 50
90.0
 51
180.0
  0
ARC
  5
19667
330
747D
100
AcDbEntity
  8
部品1
 48
0.01
100
AcDbCircle
 10
4310.669183382193
 20
4522.152601329415
 30
0.0
 40
2.0
100
AcDbArc
 50
270.0
 51
0.0
  0
ARC
  5
19668
330
747D
100
AcDbEntity
  8
部品1
 48
0.01
100
AcDbCircle
 10
4310.669183382197
 20
4553.652601329415
 30
0.0
 40
2.0
100
AcDbArc
 50
0.0
 51
90.0
  0
ARC
  5
19669
330
747D
100
AcDbEntity
  8
部品1
 48
0.01
100
AcDbCircle
 10
4134.669183382197
 20
4522.152601329415
 30
0.0
 40
2.0
100
AcDbArc
 50
180.0
 51
270.0
  0
ARC
  5
1966A
330
747D
100
AcDbEntity
  8
部品1
 48
0.01
100
AcDbCircle
 10
4134.669183382197
 20
4553.652601329415
 30
0.0
 40
2.0
100
AcDbArc
 50
90.0
 51
180.0
  0
LINE
  5
1966B
330
747D
100
AcDbEntity
  8
細線
100
AcDbLine
 10
4222.669183382193
 20
4526.152601329415
 30
0.0
 11
4296.669183382197
 21
4526.152601329415
 31
0.0
  0
LINE
  5
1966C
330
747D
100
AcDbEntity
  8
細線
100
AcDbLine
 10
4222.669183382197
 20
4549.152601329415
 30
0.0
 11
4148.669183382197
 21
4549.152601329415
 31
0.0
  0
LINE
  5
1966D
330
747D
100
AcDbEntity
  8
細線
100
AcDbLine
 10
4148.669183382197
 20
4526.152601329415
 30
0.0
 11
4222.669183382197
 21
4526.152601329415
 31
0.0
  0
LINE
  5
1966E
330
747D
100
AcDbEntity
  8
細線
100
AcDbLine
 10
4296.669183382197
 20
4549.152601329415
 30
0.0
 11
4222.669183382197
 21
4549.152601329415
 31
0.0
  0
LINE
  5
1966F
330
747D
100
AcDbEntity
  8
細線
100
AcDbLine
 10
4296.669183382197
 20
4526.152601329415
 30
0.0
 11
4296.669183382197
 21
4549.152601329415
 31
0.0
  0
LINE
  5
19670
330
747D
100
AcDbEntity
  8
細線
100
AcDbLine
 10
4148.669183382197
 20
4549.152601329415
 30
0.0
 11
4148.669183382197
 21
4526.152601329415
 31
0.0
  0
LINE
  5
19671
330
747D
100
AcDbEntity
  8
部品1
 48
0.01
100
AcDbLine
 10
4312.669183382193
 20
4522.152601329415
 30
0.0
 11
4312.669183382197
 21
4553.652601329415
 31
0.0
  0
LINE
  5
19672
330
747D
100
AcDbEntity
  8
部品1
 48
0.01
100
AcDbLine
 10
4134.669183382197
 20
4520.152601329415
 30
0.0
 11
4310.669183382193
 21
4520.152601329415
 31
0.0
  0
LINE
  5
19673
330
747D
100
AcDbEntity
  8
部品1
 48
0.01
100
AcDbLine
 10
4132.669183382197
 20
4553.652601329415
 30
0.0
 11
4132.669183382197
 21
4522.152601329415
 31
0.0
  0
LINE
  5
19674
330
747D
100
AcDbEntity
  8
部品1
 48
0.01
100
AcDbLine
 10
4310.669183382197
 20
4555.652601329415
 30
0.0
 11
4134.669183382197
 21
4555.652601329415
 31
0.0
  0
LINE
  5
19675
330
747D
100
AcDbEntity
  8
細線
100
AcDbLine
 10
4148.669183382197
 20
4543.152601329415
 30
0.0
 11
4222.669183382197
 21
4543.152601329415
 31
0.0
  0
LINE
  5
19676
330
747D
100
AcDbEntity
  8
細線
100
AcDbLine
 10
4148.669183382197
 20
4537.152601329415
 30
0.0
 11
4222.669183382197
 21
4537.152601329415
 31
0.0
  0
LINE
  5
19677
330
747D
100
AcDbEntity
  8
細線
100
AcDbLine
 10
4148.669183382193
 20
4531.152601329415
 30
0.0
 11
4222.669183382197
 21
4531.152601329415
 31
0.0
  0
LINE
  5
19678
330
747D
100
AcDbEntity
  8
細線
100
AcDbLine
 10
4148.669183382197
 20
4543.152601329415
 30
0.0
 11
4217.669183382197
 21
4543.152601329415
 31
0.0
  0
LINE
  5
19679
330
747D
100
AcDbEntity
  8
細線
100
AcDbLine
 10
4296.669183382193
 20
4543.152601329415
 30
0.0
 11
4222.669183382197
 21
4543.152601329415
 31
0.0
  0
LINE
  5
1967A
330
747D
100
AcDbEntity
  8
細線
100
AcDbLine
 10
4296.669183382193
 20
4531.152601329415
 30
0.0
 11
4222.669183382197
 21
4531.152601329415
 31
0.0
  0
LINE
  5
1967B
330
747D
100
AcDbEntity
  8
細線
100
AcDbLine
 10
4296.669183382193
 20
4537.152601329415
 30
0.0
 11
4222.669183382197
 21
4537.152601329415
 31
0.0
  0
LINE
  5
1967C
330
747D
100
AcDbEntity
  8
細線
100
AcDbLine
 10
4222.669183382197
 20
4549.152601329415
 30
0.0
 11
4222.669183382193
 21
4526.152601329415
 31
0.0
  0
LINE
  5
1967D
330
747D
100
AcDbEntity
  8
細線
 48
50.0
100
AcDbLine
 10
5562.393614635912
 20
4604.452601329418
 30
0.0
 11
3692.944752128467
 21
4604.452601329422
 31
0.0
  0
LINE
  5
1967E
330
747D
100
AcDbEntity
  8
細線
 48
50.0
100
AcDbLine
 10
5570.629645160757
 20
4696.652601329421
 30
0.0
 11
3684.708721603638
 21
4696.652601329418
 31
0.0
  0
LINE
  5
1967F
330
747D
100
AcDbEntity
  8
部品1
 48
50.0
100
AcDbLine
 10
5552.045438814726
 20
4583.652601329422
 30
0.0
 11
3703.292927949668
 21
4583.652601329418
 31
0.0
  0
LINE
  5
19680
330
747D
100
AcDbEntity
  8
部品1
 48
50.0
100
AcDbLine
 10
5565.260762275761
 20
4724.652601329418
 30
0.0
 11
3690.07760448863
 21
4724.652601329422
 31
0.0
  0
LINE
  5
19681
330
747D
100
AcDbEntity
  8
部品1
100
AcDbLine
 10
3683.088844397535
 20
4717.256075934181
 30
0.0
 11
3684.222241729884
 21
4697.27994795158
 31
0.0
  0
LINE
  5
19682
330
747D
100
AcDbEntity
  8
部品1
100
AcDbLine
 10
3695.659262051457
 20
4601.622540784521
 30
0.0
 11
3696.304167858566
 21
4590.256075934181
 31
0.0
  0
LINE
  5
19683
330
747D
100
AcDbEntity
  8
部品1
100
AcDbLine
 10
3687.423231526613
 20
4693.822540784522
 30
0.0
 11
3692.45827225472
 21
4605.079947951579
 31
0.0
  0
ARC
  5
19684
330
747D
100
AcDbEntity
  8
部品1
 48
50.0
100
AcDbCircle
 10
3684.428048630427
 20
4693.652601329422
 30
0.0
 40
3.0
100
AcDbArc
 50
3.247342790331777
 51
82.3418727926348
  0
ARC
  5
19685
330
747D
100
AcDbEntity
  8
部品1
 48
50.0
100
AcDbCircle
 10
3692.664079155271
 20
4601.452601329418
 30
0.0
 40
3.0
100
AcDbArc
 50
3.247342790331777
 51
82.3418727926348
  0
ARC
  5
19686
330
747D
100
AcDbEntity
  8
部品1
 48
50.0
100
AcDbCircle
 10
3693.157148263832
 20
4605.119600491102
 30
0.0
 40
0.7
100
AcDbArc
 50
183.2473427903317
 51
262.3418727926349
  0
ARC
  5
19687
330
747D
100
AcDbEntity
  8
部品1
 48
50.0
100
AcDbCircle
 10
3684.921117738988
 20
4697.319600491105
 30
0.0
 40
0.7
100
AcDbArc
 50
183.2473427903838
 51
262.3418727926349
  0
ARC
  5
19688
330
747D
100
AcDbEntity
  8
部品1
100
AcDbCircle
 10
3703.292927949668
 20
4590.652601329423
 30
0.0
 40
7.0
100
AcDbArc
 50
183.2473427903317
 51
270.0
  0
ARC
  5
19689
330
747D
100
AcDbEntity
  8
部品1
100
AcDbCircle
 10
3690.07760448863
 20
4717.652601329418
 30
0.0
 40
7.0
100
AcDbArc
 50
90.0
 51
183.2473427903317
  0
LINE
  5
1968A
330
747D
100
AcDbEntity
  8
細線
 48
50.0
100
AcDbLine
 10
3715.669183382205
 20
4724.652601329418
 30
0.0
 11
3715.669183382205
 21
4583.652601329418
 31
0.0
  0
DIMENSION
  5
1968B
330
747D
100
AcDbEntity
  8
寸法
 48
50.0
100
AcDbDimension
  2
*D25
 10
3682.669183382205
 20
5129.272860756688
 30
0.0
 11
3369.183902007957
 21
5129.272860756688
 31
0.0
 70
   160
 71
     5
 42
50.0
  3
INABA_S40G
100
AcDbAlignedDimension
 13
3732.669183382205
 23
4724.652601329422
 33
0.0
 14
3682.669183382205
 24
4724.65260132942
 34
0.0
100
AcDbRotatedDimension
1001
ACAD
1000
DSTYLE
1002
{
1002
}
  0
DIMENSION
  5
1968C
330
747D
100
AcDbEntity
  8
寸法
 48
50.0
100
AcDbDimension
  2
*D26
 10
5572.669183382193
 20
5338.866735178139
 30
0.0
 11
4627.669183382197
 21
5338.866735178139
 31
0.0
 70
   160
 71
     5
 42
1889.999999999989
  3
INABA_S40G
100
AcDbAlignedDimension
 13
3682.669183382205
 23
4724.65260132942
 33
0.0
 14
5572.669183382193
 24
4724.652601329418
 34
0.0
100
AcDbRotatedDimension
  0
DIMENSION
  5
1968D
330
747D
100
AcDbEntity
  8
寸法
 48
50.0
100
AcDbDimension
  2
*D27
 10
3732.669183382205
 20
5129.272860756688
 30
0.0
 11
4627.669183382197
 21
5129.272860756688
 31
0.0
 70
   160
  1
柱外寸法<>
 71
     5
 42
1789.999999999989
  3
INABA_S40G
100
AcDbAlignedDimension
 13
5522.669183382193
 23
4724.65260132942
 33
0.0
 14
3732.669183382205
 24
4724.652601329422
 34
0.0
100
AcDbRotatedDimension
  0
LINE
  5
1968E
330
747D
100
AcDbEntity
  8
部品1
100
AcDbLine
 10
3932.669183382197
 20
2649.652601329415
 30
0.0
 11
3932.669183382197
 21
2549.652601329415
 31
0.0
  0
LINE
  5
1968F
330
747D
100
AcDbEntity
  8
部品1
 48
50.0
100
AcDbLine
 10
4527.669183382196
 20
2649.652601329415
 30
0.0
 11
4527.669183382196
 21
2549.652601329415
 31
0.0
  0
LINE
  5
19690
330
747D
100
AcDbEntity
  8
部品1
 48
50.0
100
AcDbLine
 10
4727.669183382197
 20
2649.652601329415
 30
0.0
 11
4727.669183382197
 21
2549.652601329415
 31
0.0
  0
LINE
  5
19691
330
747D
100
AcDbEntity
  8
部品1
100
AcDbLine
 10
5322.669183382197
 20
2649.652601329415
 30
0.0
 11
5322.669183382197
 21
2549.652601329415
 31
0.0
  0
LINE
  5
19692
330
747D
100
AcDbEntity
  8
部品1
 48
50.0
100
AcDbLine
 10
5599.6691833822
 20
2649.652601329415
 30
0.0
 11
5515.169183382201
 21
2649.652601329415
 31
0.0
  0
LINE
  5
19693
330
747D
100
AcDbEntity
  8
部品1
 48
50.0
100
AcDbLine
 10
5599.6691833822
 20
4474.652601329417
 30
0.0
 11
5599.6691833822
 21
2549.652601329415
 31
0.0
  0
LINE
  5
19694
330
747D
100
AcDbEntity
  8
部品1
 48
50.0
100
AcDbLine
 10
5522.669183382201
 20
4484.652601329417
 30
0.0
 11
5599.6691833822
 21
4474.652601329417
 31
0.0
  0
LINE
  5
19695
330
747D
100
AcDbEntity
  8
破線
 48
5.0
100
AcDbLine
 10
5395.169183382204
 20
2549.652601329415
 30
0.0
 11
5395.169183382204
 21
2349.652601329415
 31
0.0
  0
LINE
  5
19696
330
747D
100
AcDbEntity
  8
破線
 48
5.0
100
AcDbLine
 10
5595.1691833822
 20
2349.652601329415
 30
0.0
 11
5395.169183382204
 21
2349.652601329415
 31
0.0
  0
LINE
  5
19697
330
747D
100
AcDbEntity
  8
破線
 48
5.0
100
AcDbLine
 10
5595.169183382204
 20
2549.652601329415
 30
0.0
 11
5595.1691833822
 21
2349.652601329415
 31
0.0
  0
DIMENSION
  5
19698
330
747D
100
AcDbEntity
  8
寸法
 48
50.0
100
AcDbDimension
  2
*D28
 10
3660.169183382201
 20
2063.605272029037
 30
0.0
 11
3760.169183382199
 21
2063.605272029037
 31
0.0
 70
   160
 71
     5
 42
199.9999999999963
  3
INABA_S40G
100
AcDbAlignedDimension
 13
3860.169183382197
 23
2349.652601329413
 33
0.0
 14
3660.169183382201
 24
2349.652601329415
 34
0.0
100
AcDbRotatedDimension
  0
LINE
  5
19699
330
747D
100
AcDbEntity
  8
破線
 48
5.0
100
AcDbLine
 10
3660.169183382197
 20
2549.652601329415
 30
0.0
 11
3660.169183382201
 21
2349.652601329415
 31
0.0
  0
LINE
  5
1969A
330
747D
100
AcDbEntity
  8
破線
 48
5.0
100
AcDbLine
 10
3860.169183382197
 20
2549.652601329415
 30
0.0
 11
3860.169183382197
 21
2349.652601329415
 31
0.0
  0
LINE
  5
1969B
330
747D
100
AcDbEntity
  8
破線
 48
5.0
100
AcDbLine
 10
3860.169183382197
 20
2349.652601329415
 30
0.0
 11
3660.169183382201
 21
2349.652601329415
 31
0.0
  0
DIMENSION
  5
1969C
330
747D
100
AcDbEntity
  8
寸法
 48
50.0
100
AcDbDimension
  2
*D29
 10
3510.669180135563
 20
2549.652601329415
 30
0.0
 11
3510.669180135563
 21
2449.652601329416
 31
0.0
 70
   160
 71
     5
 42
200.0
  3
INABA_S40G
100
AcDbAlignedDimension
 13
3660.169183382201
 23
2349.652601329415
 33
0.0
 14
3635.169183382197
 24
2549.652601329415
 34
0.0
 50
90.0
100
AcDbRotatedDimension
1001
ACAD
1000
DSTYLE
1002
{
1070
   174
1070
     0
1070
   272
1070
     1
1070
   288
1070
     0
1070
   341
1005
0
1002
}
  0
LINE
  5
1969D
330
747D
100
AcDbEntity
  8
細線
 48
50.0
100
AcDbLine
 10
5390.169183382204
 20
4489.652601329415
 30
0.0
 11
5390.169183382204
 21
2699.652601329415
 31
0.0
  0
LINE
  5
1969E
330
747D
100
AcDbEntity
  8
細線
 48
50.0
100
AcDbLine
 10
5405.169183382204
 20
4489.652601329415
 30
0.0
 11
5405.169183382204
 21
2699.652601329415
 31
0.0
  0
LINE
  5
1969F
330
747D
100
AcDbEntity
  8
細線
 48
50.0
100
AcDbLine
 10
5265.169183382204
 20
4489.652601329415
 30
0.0
 11
5265.169183382204
 21
2699.652601329415
 31
0.0
  0
LINE
  5
196A0
330
747D
100
AcDbEntity
  8
細線
 48
50.0
100
AcDbLine
 10
5250.169183382205
 20
4489.652601329415
 30
0.0
 11
5250.169183382205
 21
2699.652601329415
 31
0.0
  0
LINE
  5
196A1
330
747D
100
AcDbEntity
  8
細線
 48
50.0
100
AcDbLine
 10
5110.169183382204
 20
4489.652601329415
 30
0.0
 11
5110.169183382204
 21
2699.652601329415
 31
0.0
  0
LINE
  5
196A2
330
747D
100
AcDbEntity
  8
細線
 48
50.0
100
AcDbLine
 10
5125.169183382205
 20
4489.652601329415
 30
0.0
 11
5125.169183382205
 21
2699.652601329415
 31
0.0
  0
LINE
  5
196A3
330
747D
100
AcDbEntity
  8
部品1
100
AcDbLine
 10
5047.669183382197
 20
4489.652601329415
 30
0.0
 11
5047.669183382197
 21
2699.652601329415
 31
0.0
  0
LINE
  5
196A4
330
747D
100
AcDbEntity
  8
細線
 48
50.0
100
AcDbLine
 10
4705.1691833822
 20
4489.652601329415
 30
0.0
 11
4705.1691833822
 21
2699.652601329415
 31
0.0
  0
LINE
  5
196A5
330
747D
100
AcDbEntity
  8
細線
 48
50.0
100
AcDbLine
 10
4690.169183382201
 20
4489.652601329415
 30
0.0
 11
4690.169183382201
 21
2699.652601329415
 31
0.0
  0
LINE
  5
196A6
330
747D
100
AcDbEntity
  8
細線
 48
50.0
100
AcDbLine
 10
4830.1691833822
 20
4489.652601329415
 30
0.0
 11
4830.1691833822
 21
2699.652601329415
 31
0.0
  0
LINE
  5
196A7
330
747D
100
AcDbEntity
  8
細線
 48
50.0
100
AcDbLine
 10
4845.1691833822
 20
4489.652601329415
 30
0.0
 11
4845.1691833822
 21
2699.652601329415
 31
0.0
  0
LINE
  5
196A8
330
747D
100
AcDbEntity
  8
細線
 48
50.0
100
AcDbLine
 10
4985.1691833822
 20
4489.652601329415
 30
0.0
 11
4985.1691833822
 21
2699.652601329415
 31
0.0
  0
LINE
  5
196A9
330
747D
100
AcDbEntity
  8
細線
 48
50.0
100
AcDbLine
 10
4970.1691833822
 20
4489.652601329415
 30
0.0
 11
4970.1691833822
 21
2699.652601329415
 31
0.0
  0
LINE
  5
196AA
330
747D
100
AcDbEntity
  8
部品1
100
AcDbLine
 10
4627.669183382197
 20
4489.652601329415
 30
0.0
 11
4627.669183382197
 21
2699.652601329415
 31
0.0
  0
LINE
  5
196AB
330
747D
100
AcDbEntity
  8
細線
 48
50.0
100
AcDbLine
 10
3865.169183382197
 20
4489.652601329415
 30
0.0
 11
3865.169183382197
 21
2699.652601329415
 31
0.0
  0
LINE
  5
196AC
330
747D
100
AcDbEntity
  8
細線
 48
50.0
100
AcDbLine
 10
3850.169183382197
 20
4489.652601329415
 30
0.0
 11
3850.169183382197
 21
2699.652601329415
 31
0.0
  0
LINE
  5
196AD
330
747D
100
AcDbEntity
  8
細線
 48
50.0
100
AcDbLine
 10
3990.169183382197
 20
4489.652601329415
 30
0.0
 11
3990.169183382197
 21
2699.652601329415
 31
0.0
  0
LINE
  5
196AE
330
747D
100
AcDbEntity
  8
細線
 48
50.0
100
AcDbLine
 10
4005.169183382196
 20
4489.652601329415
 30
0.0
 11
4005.169183382196
 21
2699.652601329415
 31
0.0
  0
LINE
  5
196AF
330
747D
100
AcDbEntity
  8
細線
 48
50.0
100
AcDbLine
 10
4145.169183382196
 20
4489.652601329415
 30
0.0
 11
4145.169183382196
 21
2699.652601329415
 31
0.0
  0
LINE
  5
196B0
330
747D
100
AcDbEntity
  8
細線
 48
50.0
100
AcDbLine
 10
4130.169183382196
 20
4489.652601329415
 30
0.0
 11
4130.169183382196
 21
2699.652601329415
 31
0.0
  0
LINE
  5
196B1
330
747D
100
AcDbEntity
  8
細線
 48
50.0
100
AcDbLine
 10
4550.169183382197
 20
4489.652601329415
 30
0.0
 11
4550.169183382197
 21
2699.652601329415
 31
0.0
  0
LINE
  5
196B2
330
747D
100
AcDbEntity
  8
細線
 48
50.0
100
AcDbLine
 10
4565.169183382197
 20
4489.652601329415
 30
0.0
 11
4565.169183382197
 21
2699.652601329415
 31
0.0
  0
LINE
  5
196B3
330
747D
100
AcDbEntity
  8
細線
 48
50.0
100
AcDbLine
 10
4425.169183382197
 20
4489.652601329415
 30
0.0
 11
4425.169183382197
 21
2699.652601329415
 31
0.0
  0
LINE
  5
196B4
330
747D
100
AcDbEntity
  8
細線
 48
50.0
100
AcDbLine
 10
4410.169183382197
 20
4489.652601329415
 30
0.0
 11
4410.169183382197
 21
2699.652601329415
 31
0.0
  0
LINE
  5
196B5
330
747D
100
AcDbEntity
  8
細線
 48
50.0
100
AcDbLine
 10
4270.169183382196
 20
4489.652601329415
 30
0.0
 11
4270.169183382196
 21
2699.652601329415
 31
0.0
  0
LINE
  5
196B6
330
747D
100
AcDbEntity
  8
細線
 48
50.0
100
AcDbLine
 10
4285.169183382197
 20
4489.652601329415
 30
0.0
 11
4285.169183382197
 21
2699.652601329415
 31
0.0
  0
LINE
  5
196B7
330
747D
100
AcDbEntity
  8
部品1
100
AcDbLine
 10
3780.169183382197
 20
2649.652601329415
 30
0.0
 11
5475.169183382197
 21
2649.652601329415
 31
0.0
  0
LINE
  5
196B8
330
747D
100
AcDbEntity
  8
部品1
100
AcDbLine
 10
5515.169183382197
 20
2649.652601329415
 30
0.0
 11
5522.669183382201
 21
2649.652601329415
 31
0.0
  0
LINE
  5
196B9
330
747D
100
AcDbEntity
  8
破線
  6
HIDDEN
 48
5.0
100
AcDbLine
 10
3780.169183382197
 20
2549.652601329415
 30
0.0
 11
3780.169183382197
 21
2544.652601329415
 31
0.0
  0
LINE
  5
196BA
330
747D
100
AcDbEntity
  8
破線
  6
HIDDEN
 48
5.0
100
AcDbLine
 10
3740.169183382204
 20
2549.652601329415
 30
0.0
 11
3740.169183382204
 21
2544.652601329415
 31
0.0
  0
LINE
  5
196BB
330
747D
100
AcDbEntity
  8
破線
  6
HIDDEN
 48
5.0
100
AcDbLine
 10
5515.169183382197
 20
2549.652601329415
 30
0.0
 11
5515.169183382197
 21
2544.652601329415
 31
0.0
  0
LINE
  5
196BC
330
747D
100
AcDbEntity
  8
破線
  6
HIDDEN
 48
5.0
100
AcDbLine
 10
5475.169183382197
 20
2549.652601329415
 30
0.0
 11
5475.169183382197
 21
2544.652601329415
 31
0.0
  0
ARC
  5
196BD
330
747D
100
AcDbEntity
  8
部品1
 48
50.0
100
AcDbCircle
 10
5510.169183382197
 20
2689.652601329415
 30
0.0
 40
5.0
100
AcDbArc
 50
0.0
 51
90.0
  0
ARC
  5
196BE
330
747D
100
AcDbEntity
  8
部品1
 48
50.0
100
AcDbCircle
 10
5480.169183382197
 20
2689.652601329415
 30
0.0
 40
5.0
100
AcDbArc
 50
90.0
 51
180.0
  0
LINE
  5
196BF
330
747D
100
AcDbEntity
  8
部品1
100
AcDbLine
 10
5510.169183382197
 20
2694.652601329415
 30
0.0
 11
5480.169183382197
 21
2694.652601329415
 31
0.0
  0
LINE
  5
196C0
330
747D
100
AcDbEntity
  8
部品1
 48
50.0
100
AcDbLine
 10
5515.169183382197
 20
2689.652601329415
 30
0.0
 11
5515.169183382197
 21
2549.652601329415
 31
0.0
  0
LINE
  5
196C1
330
747D
100
AcDbEntity
  8
部品1
 48
50.0
100
AcDbLine
 10
5475.169183382197
 20
2689.652601329415
 30
0.0
 11
5475.169183382197
 21
2549.652601329415
 31
0.0
  0
ARC
  5
196C2
330
747D
100
AcDbEntity
  8
部品1
 48
50.0
100
AcDbCircle
 10
3775.169183382197
 20
2689.652601329415
 30
0.0
 40
5.0
100
AcDbArc
 50
0.0
 51
90.0
  0
ARC
  5
196C3
330
747D
100
AcDbEntity
  8
部品1
 48
50.0
100
AcDbCircle
 10
3745.169183382197
 20
2689.652601329415
 30
0.0
 40
5.0
100
AcDbArc
 50
90.0
 51
180.0
  0
LINE
  5
196C4
330
747D
100
AcDbEntity
  8
部品1
100
AcDbLine
 10
3745.169183382197
 20
2694.652601329415
 30
0.0
 11
3775.169183382197
 21
2694.652601329415
 31
0.0
  0
LINE
  5
196C5
330
747D
100
AcDbEntity
  8
部品1
 48
50.0
100
AcDbLine
 10
3780.169183382197
 20
2689.652601329415
 30
0.0
 11
3780.169183382197
 21
2549.652601329415
 31
0.0
  0
LINE
  5
196C6
330
747D
100
AcDbEntity
  8
部品1
 48
50.0
100
AcDbLine
 10
3740.169183382197
 20
2689.652601329415
 30
0.0
 11
3740.169183382197
 21
2549.652601329415
 31
0.0
  0
LINE
  5
196C7
330
747D
100
AcDbEntity
  8
破線
  6
HIDDEN
 48
5.0
100
AcDbLine
 10
3780.169183382197
 20
2544.652601329415
 30
0.0
 11
3795.169183382197
 21
2396.952601329414
 31
0.0
  0
LINE
  5
196C8
330
747D
100
AcDbEntity
  8
破線
  6
HIDDEN
 48
5.0
100
AcDbLine
 10
3740.169183382197
 20
2544.652601329415
 30
0.0
 11
3725.169183382198
 21
2396.952601329414
 31
0.0
  0
LINE
  5
196C9
330
747D
100
AcDbEntity
  8
破線
  6
HIDDEN
 48
5.0
100
AcDbLine
 10
3795.169183382197
 20
2396.952601329414
 30
0.0
 11
3795.169183382197
 21
2394.652601329415
 31
0.0
  0
LINE
  5
196CA
330
747D
100
AcDbEntity
  8
破線
  6
HIDDEN
 48
5.0
100
AcDbLine
 10
3725.169183382198
 20
2396.952601329414
 30
0.0
 11
3725.169183382198
 21
2394.652601329415
 31
0.0
  0
LINE
  5
196CB
330
747D
100
AcDbEntity
  8
破線
  6
HIDDEN
 48
5.0
100
AcDbLine
 10
3725.169183382198
 20
2394.652601329415
 30
0.0
 11
3795.169183382197
 21
2394.652601329415
 31
0.0
  0
LINE
  5
196CC
330
747D
100
AcDbEntity
  8
破線
  6
HIDDEN
 48
5.0
100
AcDbLine
 10
5530.169183382197
 20
2396.952601329414
 30
0.0
 11
5530.169183382197
 21
2394.652601329415
 31
0.0
  0
LINE
  5
196CD
330
747D
100
AcDbEntity
  8
破線
  6
HIDDEN
 48
5.0
100
AcDbLine
 10
5515.169183382197
 20
2544.652601329415
 30
0.0
 11
5530.169183382197
 21
2396.952601329414
 31
0.0
  0
LINE
  5
196CE
330
747D
100
AcDbEntity
  8
破線
  6
HIDDEN
 48
5.0
100
AcDbLine
 10
5460.169183382197
 20
2396.952601329414
 30
0.0
 11
5460.169183382197
 21
2394.652601329415
 31
0.0
  0
LINE
  5
196CF
330
747D
100
AcDbEntity
  8
破線
  6
HIDDEN
 48
5.0
100
AcDbLine
 10
5475.169183382197
 20
2544.652601329415
 30
0.0
 11
5460.169183382197
 21
2396.952601329414
 31
0.0
  0
LINE
  5
196D0
330
747D
100
AcDbEntity
  8
破線
  6
HIDDEN
 48
5.0
100
AcDbLine
 10
5530.169183382197
 20
2394.652601329415
 30
0.0
 11
5460.169183382197
 21
2394.652601329415
 31
0.0
  0
LINE
  5
196D1
330
747D
100
AcDbEntity
  8
部品1
100
AcDbLine
 10
5467.6691833822
 20
4489.652601329415
 30
0.0
 11
5467.6691833822
 21
2699.652601329415
 31
0.0
  0
LINE
  5
196D2
330
747D
100
AcDbEntity
  8
部品1
100
AcDbLine
 10
5522.669183382197
 20
4583.652601329422
 30
0.0
 11
5522.669183382201
 21
2549.652601329415
 31
0.0
  0
LINE
  5
196D3
330
747D
100
AcDbEntity
  8
部品1
100
AcDbLine
 10
4207.669183382196
 20
4489.652601329415
 30
0.0
 11
4207.669183382196
 21
2699.652601329415
 31
0.0
  0
LINE
  5
196D4
330
747D
100
AcDbEntity
  8
部品1
100
AcDbLine
 10
3732.669183382197
 20
4583.652601329418
 30
0.0
 11
3732.669183382197
 21
2549.652601329415
 31
0.0
  0
LINE
  5
196D5
330
747D
100
AcDbEntity
  8
部品1
100
AcDbLine
 10
3787.669183382198
 20
4489.652601329415
 30
0.0
 11
3787.669183382198
 21
2699.652601329415
 31
0.0
  0
LINE
  5
196D6
330
747D
100
AcDbEntity
  8
部品1
100
AcDbLine
 10
3732.669183382197
 20
2649.652601329415
 30
0.0
 11
3740.169183382197
 21
2649.652601329415
 31
0.0
  0
LINE
  5
196D7
330
747D
100
AcDbEntity
  8
部品1
100
AcDbLine
 10
3732.669183382197
 20
2699.652601329415
 30
0.0
 11
5522.669183382201
 21
2699.652601329415
 31
0.0
  0
LINE
  5
196D8
330
747D
100
AcDbEntity
  8
部品1
100
AcDbLine
 10
3732.669183382197
 20
4489.652601329415
 30
0.0
 11
5522.669183382197
 21
4489.652601329415
 31
0.0
  0
LINE
  5
196D9
330
747D
100
AcDbEntity
  8
部品1
100
AcDbLine
 10
5009.404516496416
 20
1860.614338352007
 30
0.0
 11
4245.933850267978
 21
1860.614338352007
 31
0.0
  0
LINE
  5
196DA
330
747D
100
AcDbEntity
  8
部品1
100
AcDbLine
 10
5009.404516496416
 20
1620.722016806474
 30
0.0
 11
5009.404516496416
 21
1860.614338352007
 31
0.0
  0
LINE
  5
196DB
330
747D
100
AcDbEntity
  8
部品1
100
AcDbLine
 10
4245.933850267978
 20
1620.722016806474
 30
0.0
 11
5009.404516496416
 21
1620.722016806474
 31
0.0
  0
LINE
  5
196DC
330
747D
100
AcDbEntity
  8
部品1
100
AcDbLine
 10
4245.933850267978
 20
1860.614338352007
 30
0.0
 11
4245.933850267978
 21
1620.722016806474
 31
0.0
  0
TEXT
  5
196DD
330
747D
100
AcDbEntity
  8
部品1
100
AcDbText
 10
4335.379951691586
 20
1667.720809133482
 30
0.0
 40
135.0
  1
側面図
  7
STYLE2
100
AcDbText
  0
TEXT
  5
196DE
330
747D
100
AcDbEntity
  8
部品1
100
AcDbText
 10
2718.169903341001
 20
2585.759504935317
 30
0.0
 40
125.0
  1
▽G.L
  7
STYLE2
100
AcDbText
  0
LINE
  5
19910
330
747D
100
AcDbEntity
  8
補助
  6
PHANTOM
 62
   230
 48
50.0
100
AcDbLine
 10
140.0
 20
0.0
 30
0.0
 11
140.0
 21
11409.6
 31
0.0
  0
LINE
  5
19AD8
330
747D
100
AcDbEntity
  8
部品1
100
AcDbLine
 10
10667.62952947971
 20
8278.984383599905
 30
0.0
 11
7730.629529479712
 21
8278.984383599805
 31
0.0
  0
LINE
  5
19AD9
330
747D
100
AcDbEntity
  8
部品1
100
AcDbLine
 10
7702.129529479702
 20
8278.984383599805
 30
0.0
 11
7674.129529479703
 21
8278.984383599805
 31
0.0
  0
LINE
  5
19ADA
330
747D
100
AcDbEntity
  8
部品1
100
AcDbLine
 10
10696.12952947973
 20
8278.984383599933
 30
0.0
 11
10724.12952947973
 21
8278.984383599933
 31
0.0
  0
LINE
  5
19F53
330
747D
100
AcDbEntity
  8
破線
 48
5.0
100
AcDbLine
 10
10824.12952947973
 20
2549.652601329415
 30
0.0
 11
10824.12952947973
 21
2349.652601329415
 31
0.0
  0
LINE
  5
19F58
330
747D
100
AcDbEntity
  8
破線
 48
5.0
100
AcDbLine
 10
10624.12952947973
 20
2549.652601329415
 30
0.0
 11
10624.12952947973
 21
2349.652601329415
 31
0.0
  0
LINE
  5
19F60
330
747D
100
AcDbEntity
  8
破線
 48
5.0
100
AcDbLine
 10
7649.129529479735
 20
2394.652601329415
 30
0.0
 11
7669.129529479737
 21
2394.652601329415
 31
0.0
  0
LINE
  5
19F61
330
747D
100
AcDbEntity
  8
破線
 48
5.0
100
AcDbLine
 10
7774.129529479735
 20
2549.652601329415
 30
0.0
 11
7774.129529479735
 21
2349.652601329415
 31
0.0
  0
LINE
  5
19F68
330
747D
100
AcDbEntity
  8
破線
 48
5.0
100
AcDbLine
 10
10824.12952947973
 20
2349.652601329415
 30
0.0
 11
10624.12952947973
 21
2349.652601329415
 31
0.0
  0
LINE
  5
19F6C
330
747D
100
AcDbEntity
  8
破線
 48
5.0
100
AcDbLine
 10
7574.129529479735
 20
2549.652601329415
 30
0.0
 11
7574.129529479735
 21
2349.652601329415
 31
0.0
  0
LINE
  5
19F6D
330
747D
100
AcDbEntity
  8
破線
 48
5.0
100
AcDbLine
 10
7574.129529479735
 20
2349.652601329415
 30
0.0
 11
7774.129529479736
 21
2349.652601329415
 31
0.0
  0
DIMENSION
  5
19F6E
330
747D
100
AcDbEntity
  8
寸法
 48
50.0
100
AcDbDimension
  2
*D30
 10
7574.129529479735
 20
2063.605272029037
 30
0.0
 11
7674.129529479735
 21
2063.605272029037
 31
0.0
 70
   160
 71
     5
 42
200.0000000000018
  3
INABA_S40G
100
AcDbAlignedDimension
 13
7774.129529479736
 23
2349.652601329415
 33
0.0
 14
7574.129529479735
 24
2349.652601329415
 34
0.0
100
AcDbRotatedDimension
  0
LINE
  5
1A21E
330
747D
100
AcDbEntity
  8
寸法
 48
50.0
100
AcDbLine
 10
8584.332535761543
 20
7582.021135168654
 30
0.0
 11
8532.92652785144
 21
7582.021135168654
 31
0.0
  0
LINE
  5
1A21F
330
747D
100
AcDbEntity
  8
寸法
 48
50.0
100
AcDbLine
 10
8532.92652785144
 20
7582.021135168654
 30
0.0
 11
8532.92652785144
 21
7613.33129382082
 31
0.0
  0
LINE
  5
1A220
330
747D
100
AcDbEntity
  8
寸法
 48
50.0
100
AcDbLine
 10
8532.92652785144
 20
7613.33129382082
 30
0.0
 11
8503.165195860017
 21
7613.33129382082
 31
0.0
  0
LINE
  5
1A221
330
747D
100
AcDbEntity
  8
寸法
 48
50.0
100
AcDbLine
 10
8503.165195860017
 20
7613.33129382082
 30
0.0
 11
8558.629531806491
 21
7650.91074474943
 31
0.0
  0
LINE
  5
1A222
330
747D
100
AcDbEntity
  8
寸法
 48
50.0
100
AcDbLine
 10
8614.093867752966
 20
7613.33129382082
 30
0.0
 11
8558.629531806491
 21
7650.91074474943
 31
0.0
  0
LINE
  5
1A223
330
747D
100
AcDbEntity
  8
寸法
 48
50.0
100
AcDbLine
 10
8584.332535761543
 20
7613.33129382082
 30
0.0
 11
8614.093867752966
 21
7613.33129382082
 31
0.0
  0
LINE
  5
1A224
330
747D
100
AcDbEntity
  8
寸法
 48
50.0
100
AcDbLine
 10
8584.332535761543
 20
7582.021135168654
 30
0.0
 11
8584.332535761543
 21
7613.33129382082
 31
0.0
  0
LINE
  5
1A225
330
747D
100
AcDbEntity
  8
寸法
 48
50.0
100
AcDbLine
 10
8532.92652785144
 20
7582.021135168654
 30
0.0
 11
8584.332535761543
 21
7582.021135168654
 31
0.0
  0
LINE
  5
1A226
330
747D
100
AcDbEntity
  8
寸法
 48
50.0
100
AcDbLine
 10
8863.498070038401
 20
7639.166725923477
 30
0.0
 11
8863.498070038401
 21
7585.503091341687
 31
0.0
  0
LINE
  5
1A227
330
747D
100
AcDbEntity
  8
寸法
 48
50.0
100
AcDbLine
 10
8952.782288633821
 20
7615.243091653991
 30
0.0
 11
8863.498070038401
 21
7639.166725923477
 31
0.0
  0
LINE
  5
1A228
330
747D
100
AcDbEntity
  8
寸法
 48
50.0
100
AcDbLine
 10
8733.630348458097
 20
7615.243091653991
 30
0.0
 11
8952.782288633821
 21
7615.243091653991
 31
0.0
  0
LINE
  5
1A229
330
747D
100
AcDbEntity
  8
細線
 48
50.0
100
AcDbLine
 10
9610.129529479703
 20
7780.484498548516
 30
0.0
 11
10237.1295294797
 21
7780.484498548516
 31
0.0
  0
LINE
  5
1A22A
330
747D
100
AcDbEntity
  8
細線
 48
50.0
100
AcDbLine
 10
8956.129534133287
 20
7746.775729994441
 30
0.0
 11
10237.1295294797
 21
7746.775729994441
 31
0.0
  0
LINE
  5
1A22B
330
747D
100
AcDbEntity
  8
細線
 48
50.0
100
AcDbLine
 10
8915.12953413329
 20
7776.180637990695
 30
0.0
 11
8161.129529479699
 21
7776.18063799069
 31
0.0
  0
LINE
  5
1A22C
330
747D
100
AcDbEntity
  8
細線
100
AcDbLine
 10
10012.87952006324
 20
7799.984398513526
 30
0.0
 11
10015.21105958505
 21
7804.984401153486
 31
0.0
  0
LINE
  5
1A22D
330
747D
100
AcDbEntity
  8
細線
100
AcDbLine
 10
10082.8795294797
 20
7799.984383599791
 30
0.0
 11
10080.54798300351
 21
7804.984401153472
 31
0.0
  0
LINE
  5
1A22E
330
747D
100
AcDbEntity
  8
細線
100
AcDbLine
 10
10080.54798300351
 20
7804.984401153472
 30
0.0
 11
10015.21105958503
 21
7804.984401153458
 31
0.0
  0
LINE
  5
1A22F
330
747D
100
AcDbEntity
  8
細線
100
AcDbLine
 10
9940.547983003511
 20
7804.984401153472
 30
0.0
 11
9875.211059585035
 21
7804.984401153458
 31
0.0
  0
LINE
  5
1A230
330
747D
100
AcDbEntity
  8
細線
100
AcDbLine
 10
9942.879529479698
 20
7799.984383599791
 30
0.0
 11
9940.547983003511
 21
7804.984401153472
 31
0.0
  0
LINE
  5
1A231
330
747D
100
AcDbEntity
  8
細線
100
AcDbLine
 10
9872.879520063243
 20
7799.984398513526
 30
0.0
 11
9875.211059585049
 21
7804.984401153486
 31
0.0
  0
LINE
  5
1A232
330
747D
100
AcDbEntity
  8
細線
100
AcDbLine
 10
9732.879529479699
 20
7799.984383599791
 30
0.0
 11
9735.211069001511
 21
7804.984386239752
 31
0.0
  0
LINE
  5
1A233
330
747D
100
AcDbEntity
  8
細線
100
AcDbLine
 10
9802.87953889616
 20
7799.984368686057
 30
0.0
 11
9800.547992419968
 21
7804.984386239738
 31
0.0
  0
LINE
  5
1A234
330
747D
100
AcDbEntity
  8
細線
100
AcDbLine
 10
9800.547992419971
 20
7804.984386239738
 30
0.0
 11
9735.211069001497
 21
7804.984386239723
 31
0.0
  0
LINE
  5
1A235
330
747D
100
AcDbEntity
  8
細線
100
AcDbLine
 10
9505.298013668806
 20
7770.98442293712
 30
0.0
 11
9439.96109025033
 21
7770.984422937104
 31
0.0
  0
LINE
  5
1A236
330
747D
100
AcDbEntity
  8
細線
100
AcDbLine
 10
9507.629560144993
 20
7765.984405383439
 30
0.0
 11
9505.298013668806
 21
7770.98442293712
 31
0.0
  0
LINE
  5
1A237
330
747D
100
AcDbEntity
  8
細線
100
AcDbLine
 10
9437.629550728535
 20
7765.984420297172
 30
0.0
 11
9439.961090250346
 21
7770.984422937134
 31
0.0
  0
LINE
  5
1A238
330
747D
100
AcDbEntity
  8
細線
 48
50.0
100
AcDbLine
 10
9279.012908727713
 20
7784.255246752872
 30
0.0
 11
9284.76842631038
 21
7765.984395462385
 31
0.0
  0
LINE
  5
1A239
330
747D
100
AcDbEntity
  8
細線
 48
50.0
100
AcDbLine
 10
9268.084460247283
 20
7784.255246752872
 30
0.0
 11
9279.012908727713
 21
7784.255246752872
 31
0.0
  0
ARC
  5
1A23A
330
747D
100
AcDbEntity
  8
細線
 48
50.0
100
AcDbCircle
 10
9262.630104189961
 20
7785.755246752872
 30
0.0
 40
5.0
100
AcDbArc
 50
204.6243183521304
 51
335.3756816478695
  0
ARC
  5
1A23B
330
747D
100
AcDbEntity
  8
細線
 48
50.0
100
AcDbCircle
 10
9268.084460247283
 20
7783.255246752871
 30
0.0
 40
1.0
100
AcDbArc
 50
90.0
 51
155.3756816478695
  0
ARC
  5
1A23C
330
747D
100
AcDbEntity
  8
細線
 48
50.0
100
AcDbCircle
 10
9257.175748132645
 20
7783.255246752871
 30
0.0
 40
1.0
100
AcDbArc
 50
24.62431835213048
 51
90.0
  0
LINE
  5
1A23D
330
747D
100
AcDbEntity
  8
細線
 48
50.0
100
AcDbLine
 10
9246.247299652212
 20
7784.255246752872
 30
0.0
 11
9257.175748132645
 21
7784.255246752872
 31
0.0
  0
LINE
  5
1A23E
330
747D
100
AcDbEntity
  8
細線
 48
50.0
100
AcDbLine
 10
9240.491782069545
 20
7765.984395462378
 30
0.0
 11
9246.247299652212
 21
7784.255246752872
 31
0.0
  0
LINE
  5
1A23F
330
747D
100
AcDbEntity
  8
細線
100
AcDbLine
 10
9297.629551959577
 20
7765.984392828181
 30
0.0
 11
9299.961091481391
 21
7770.984395468143
 31
0.0
  0
LINE
  5
1A240
330
747D
100
AcDbEntity
  8
細線
100
AcDbLine
 10
9367.629561376038
 20
7765.984377914448
 30
0.0
 11
9365.298014899847
 21
7770.984395468129
 31
0.0
  0
LINE
  5
1A241
330
747D
100
AcDbEntity
  8
細線
100
AcDbLine
 10
9365.298014899847
 20
7770.984395468129
 30
0.0
 11
9299.961091481375
 21
7770.984395468113
 31
0.0
  0
LINE
  5
1A242
330
747D
100
AcDbEntity
  8
細線
100
AcDbLine
 10
9225.297986535329
 20
7770.984395462348
 30
0.0
 11
9159.961063116854
 21
7770.984395462334
 31
0.0
  0
LINE
  5
1A243
330
747D
100
AcDbEntity
  8
細線
100
AcDbLine
 10
9227.629533011517
 20
7765.984377908669
 30
0.0
 11
9225.297986535329
 21
7770.984395462348
 31
0.0
  0
LINE
  5
1A244
330
747D
100
AcDbEntity
  8
細線
100
AcDbLine
 10
9157.629524826102
 20
7765.984395462378
 30
0.0
 11
9159.961063116869
 21
7770.984395462363
 31
0.0
  0
LINE
  5
1A245
330
747D
100
AcDbEntity
  8
細線
100
AcDbLine
 10
9017.629560144994
 20
7765.984403649747
 30
0.0
 11
9019.961098435761
 21
7770.984403649733
 31
0.0
  0
LINE
  5
1A246
330
747D
100
AcDbEntity
  8
細線
100
AcDbLine
 10
9087.62956833041
 20
7765.984386096038
 30
0.0
 11
9085.298021854221
 21
7770.984403649714
 31
0.0
  0
LINE
  5
1A247
330
747D
100
AcDbEntity
  8
細線
100
AcDbLine
 10
9085.298021854221
 20
7770.984403649714
 30
0.0
 11
9019.961098435747
 21
7770.984403649703
 31
0.0
  0
LINE
  5
1A248
330
747D
100
AcDbEntity
  8
細線
100
AcDbLine
 10
8646.129525947872
 20
7731.984575330461
 30
0.0
 11
8648.46106423864
 21
7736.984575330446
 31
0.0
  0
LINE
  5
1A249
330
747D
100
AcDbEntity
  8
細線
100
AcDbLine
 10
8716.129534133289
 20
7731.984557776747
 30
0.0
 11
8713.7979876571
 21
7736.984575330423
 31
0.0
  0
LINE
  5
1A24A
330
747D
100
AcDbEntity
  8
細線
100
AcDbLine
 10
8713.7979876571
 20
7736.984575330423
 30
0.0
 11
8648.461064238629
 21
7736.984575330416
 31
0.0
  0
LINE
  5
1A24B
330
747D
100
AcDbEntity
  8
細線
100
AcDbLine
 10
8853.797987657101
 20
7736.984575330423
 30
0.0
 11
8788.46106423863
 21
7736.984575330416
 31
0.0
  0
LINE
  5
1A24C
330
747D
100
AcDbEntity
  8
細線
100
AcDbLine
 10
8856.129534133287
 20
7731.984557776747
 30
0.0
 11
8853.797987657101
 21
7736.984575330423
 31
0.0
  0
LINE
  5
1A24D
330
747D
100
AcDbEntity
  8
細線
100
AcDbLine
 10
8786.129525947872
 20
7731.984575330461
 30
0.0
 11
8788.461064238639
 21
7736.984575330446
 31
0.0
  0
LINE
  5
1A24E
330
747D
100
AcDbEntity
  8
細線
100
AcDbLine
 10
8573.797987657099
 20
7736.984575330423
 30
0.0
 11
8508.461064238629
 21
7736.984575330414
 31
0.0
  0
LINE
  5
1A24F
330
747D
100
AcDbEntity
  8
細線
100
AcDbLine
 10
8576.129534133288
 20
7731.984557776747
 30
0.0
 11
8573.797987657099
 21
7736.984575330423
 31
0.0
  0
LINE
  5
1A250
330
747D
100
AcDbEntity
  8
細線
100
AcDbLine
 10
8506.129525947873
 20
7731.984575330456
 30
0.0
 11
8508.461064238639
 21
7736.984575330442
 31
0.0
  0
LINE
  5
1A251
330
747D
100
AcDbEntity
  8
細線
100
AcDbLine
 10
8366.129534133289
 20
7731.984575330461
 30
0.0
 11
8368.461072424056
 21
7736.984575330446
 31
0.0
  0
LINE
  5
1A252
330
747D
100
AcDbEntity
  8
細線
100
AcDbLine
 10
8436.129542318704
 20
7731.984557776747
 30
0.0
 11
8433.797995842516
 21
7736.984575330423
 31
0.0
  0
LINE
  5
1A253
330
747D
100
AcDbEntity
  8
細線
100
AcDbLine
 10
8433.797995842516
 20
7736.984575330423
 30
0.0
 11
8368.461072424045
 21
7736.984575330416
 31
0.0
  0
ARC
  5
1A254
330
747D
100
AcDbEntity
  8
部品1
 48
0.01
100
AcDbCircle
 10
8321.629422880953
 20
7730.983453145388
 30
0.0
 40
0.5
100
AcDbArc
 50
270.0
 51
0.0
  0
LINE
  5
1A255
330
747D
100
AcDbEntity
  8
部品1
 48
0.01
100
AcDbLine
 10
8322.129422880953
 20
7731.983453145388
 30
0.0
 11
8322.129422880953
 21
7730.983453145388
 31
0.0
  0
LINE
  5
1A256
330
747D
100
AcDbEntity
  8
部品1
 48
0.01
100
AcDbLine
 10
8322.129422880953
 20
7731.983453145388
 30
0.0
 11
8322.129422880953
 21
7730.983453145388
 31
0.0
  0
LINE
  5
1A257
330
747D
100
AcDbEntity
  8
部品1
 48
0.01
100
AcDbLine
 10
8321.629422880953
 20
7730.483453145388
 30
0.0
 11
8315.016917450888
 21
7730.483453145388
 31
0.0
  0
ARC
  5
1A258
330
747D
100
AcDbEntity
  8
部品1
100
AcDbCircle
 10
8315.08526700367
 20
7731.483453145386
 30
0.0
 40
1.0
100
AcDbArc
 50
160.5287793655778
 51
270.0
  0
ARC
  5
1A259
330
747D
100
AcDbEntity
  8
部品1
100
AcDbCircle
 10
8289.629422880954
 20
7740.483453145387
 30
0.0
 40
26.0
100
AcDbArc
 50
340.5287793655779
 51
0.0
  0
LINE
  5
1A25A
330
747D
100
AcDbEntity
  8
部品1
100
AcDbLine
 10
8315.629422880952
 20
7740.483453145387
 30
0.0
 11
8315.629422880952
 21
7745.483453145387
 31
0.0
  0
ARC
  5
1A25B
330
747D
100
AcDbEntity
  8
部品1
 48
0.01
100
AcDbCircle
 10
8313.629422880953
 20
7745.483453145387
 30
0.0
 40
2.0
100
AcDbArc
 50
0.0
 51
90.0
  0
ARC
  5
1A25C
330
747D
100
AcDbEntity
  8
部品1
100
AcDbCircle
 10
8312.021031256142
 20
7744.483453145388
 30
0.0
 40
3.0
100
AcDbArc
 50
90.0
 51
141.6069559807873
  0
LINE
  5
1A25D
330
747D
100
AcDbEntity
  8
部品1
 48
0.01
100
AcDbLine
 10
8313.629422880953
 20
7747.483453145388
 30
0.0
 11
8312.021031256142
 21
7747.483453145388
 31
0.0
  0
ARC
  5
1A25E
330
747D
100
AcDbEntity
  8
部品1
100
AcDbCircle
 10
8293.558708666681
 20
7743.78345314539
 30
0.0
 40
3.0
100
AcDbArc
 50
254.0576313943215
 51
270.0
  0
ARC
  5
1A25F
330
747D
100
AcDbEntity
  8
部品1
100
AcDbCircle
 10
8300.700137095224
 20
7743.78345314539
 30
0.0
 40
3.0
100
AcDbArc
 50
270.0
 51
285.9423686056786
  0
LINE
  5
1A260
330
747D
100
AcDbEntity
  8
部品1
100
AcDbLine
 10
8300.700137095224
 20
7740.78345314539
 30
0.0
 11
8293.558708666681
 21
7740.78345314539
 31
0.0
  0
ARC
  5
1A261
330
747D
100
AcDbEntity
  8
部品1
100
AcDbCircle
 10
8297.129422880953
 20
7756.28345314539
 30
0.0
 40
16.0
100
AcDbArc
 50
285.9423686056786
 51
321.6069559807873
  0
LINE
  5
1A262
330
747D
100
AcDbEntity
  8
部品1
 48
0.01
100
AcDbLine
 10
8280.629422880954
 20
7747.483453145388
 30
0.0
 11
8282.237814505762
 21
7747.483453145388
 31
0.0
  0
ARC
  5
1A263
330
747D
100
AcDbEntity
  8
部品1
100
AcDbCircle
 10
8282.237814505762
 20
7744.483453145388
 30
0.0
 40
3.0
100
AcDbArc
 50
38.39304401921267
 51
90.0
  0
ARC
  5
1A264
330
747D
100
AcDbEntity
  8
部品1
100
AcDbCircle
 10
8297.129422880953
 20
7756.28345314539
 30
0.0
 40
16.0
100
AcDbArc
 50
218.3930440192126
 51
254.0576313943215
  0
LINE
  5
1A265
330
747D
100
AcDbEntity
  8
部品1
100
AcDbLine
 10
8278.629422880952
 20
7740.483453145387
 30
0.0
 11
8278.629422880952
 21
7745.483453145387
 31
0.0
  0
ARC
  5
1A266
330
747D
100
AcDbEntity
  8
部品1
 48
0.01
100
AcDbCircle
 10
8280.629422880954
 20
7745.483453145387
 30
0.0
 40
2.0
100
AcDbArc
 50
90.0
 51
180.0
  0
ARC
  5
1A267
330
747D
100
AcDbEntity
  8
部品1
100
AcDbCircle
 10
8304.629422880953
 20
7740.483453145387
 30
0.0
 40
26.0
100
AcDbArc
 50
180.0
 51
199.4712206344221
  0
ARC
  5
1A268
330
747D
100
AcDbEntity
  8
部品1
 48
0.01
100
AcDbCircle
 10
8272.629422880953
 20
7730.983453145388
 30
0.0
 40
0.5
100
AcDbArc
 50
180.0
 51
270.0
  0
LINE
  5
1A269
330
747D
100
AcDbEntity
  8
部品1
 48
0.01
100
AcDbLine
 10
8272.629422880953
 20
7730.483453145388
 30
0.0
 11
8279.173578758237
 21
7730.483453145388
 31
0.0
  0
LINE
  5
1A26A
330
747D
100
AcDbEntity
  8
部品1
 48
0.01
100
AcDbLine
 10
8272.129422880952
 20
7731.983453145388
 30
0.0
 11
8272.129422880952
 21
7730.983453145388
 31
0.0
  0
ARC
  5
1A26B
330
747D
100
AcDbEntity
  8
部品1
100
AcDbCircle
 10
8279.173578758237
 20
7731.483453145386
 30
0.0
 40
1.0
100
AcDbArc
 50
270.0
 51
19.47122063442214
  0
LINE
  5
1A26C
330
747D
100
AcDbEntity
  8
細線
100
AcDbLine
 10
8317.62942288096
 20
7749.983453145391
 30
0.0
 11
8276.62942288096
 21
7749.983453145384
 31
0.0
  0
LINE
  5
1A26D
330
747D
100
AcDbEntity
  8
細線
100
AcDbLine
 10
8276.62942288096
 20
7749.983453145384
 30
0.0
 11
8276.62942288096
 21
7731.983453145365
 31
0.0
  0
LINE
  5
1A26E
330
747D
100
AcDbEntity
  8
細線
100
AcDbLine
 10
8317.62942288096
 20
7749.983453145391
 30
0.0
 11
8317.62942288096
 21
7731.983453145365
 31
0.0
  0
LINE
  5
1A26F
330
747D
100
AcDbEntity
  8
細線
100
AcDbLine
 10
8161.129529479699
 20
7735.984383599791
 30
0.0
 11
8161.129529479699
 21
7731.984383599838
 31
0.0
  0
DIMENSION
  5
1A270
330
747D
100
AcDbEntity
  8
寸法
 48
50.0
100
AcDbDimension
  2
*D31
 10
9427.129529479698
 20
7083.865475513128
 30
0.0
 11
8815.822349164562
 21
7083.865475513128
 31
0.0
 70
   160
  1
有効開口部間口\P<>
 71
     5
 42
1266.0
  3
INABA_S40
100
AcDbAlignedDimension
 13
8161.129529479699
 23
7726.98438359979
 33
0.0
 14
9427.129529479698
 24
7726.98438359979
 34
0.0
100
AcDbRotatedDimension
1001
ACAD
1000
DSTYLE
1002
{
1070
    41
1040
0.5
1070
    44
1040
1.0
1070
   147
1040
0.8
1070
   271
1070
     2
1070
   272
1070
     2
1070
   289
1070
     3
1070
   340
1005
F706
1070
   343
1005
18AFD
1070
   344
1005
18AFD
1002
}
  0
LINE
  5
1A271
330
747D
100
AcDbEntity
  8
部品1
100
AcDbLine
 10
10249.1295294797
 20
7803.984383599791
 30
0.0
 11
10276.1295294797
 21
7803.984383599791
 31
0.0
  0
LINE
  5
1A273
330
747D
100
AcDbEntity
  8
部品1
100
AcDbLine
 10
10276.1295294797
 20
7726.98438359979
 30
0.0
 11
10276.1295294797
 21
7803.984383599791
 31
0.0
  0
LINE
  5
1A274
330
747D
100
AcDbEntity
  8
部品1
100
AcDbLine
 10
10237.1295294797
 20
7799.984383599791
 30
0.0
 11
10249.1295294797
 21
7799.984383599791
 31
0.0
  0
LINE
  5
1A275
330
747D
100
AcDbEntity
  8
部品1
100
AcDbLine
 10
10246.1295294797
 20
7735.984383599791
 30
0.0
 11
10246.1295294797
 21
7726.98438359979
 31
0.0
  0
LINE
  5
1A276
330
747D
100
AcDbEntity
  8
部品1
100
AcDbLine
 10
10237.1295294797
 20
7735.984383599791
 30
0.0
 11
10246.1295294797
 21
7735.984383599791
 31
0.0
  0
LINE
  5
1A277
330
747D
100
AcDbEntity
  8
部品1
100
AcDbLine
 10
10237.1295294797
 20
7799.984383599791
 30
0.0
 11
10237.1295294797
 21
7735.984383599791
 31
0.0
  0
LINE
  5
1A278
330
747D
100
AcDbEntity
  8
部品1
100
AcDbLine
 10
10249.1295294797
 20
7830.98438359979
 30
0.0
 11
10249.1295294797
 21
7799.984383599791
 31
0.0
  0
LINE
  5
1A279
330
747D
100
AcDbEntity
  8
部品1
100
AcDbLine
 10
8161.129529479699
 20
7799.984383599791
 30
0.0
 11
8149.129529479699
 21
7799.984383599791
 31
0.0
  0
LINE
  5
1A27A
330
747D
100
AcDbEntity
  8
部品1
100
AcDbLine
 10
8122.129529479698
 20
7803.984383599791
 30
0.0
 11
8149.129529479699
 21
7803.984383599791
 31
0.0
  0
LINE
  5
1A27B
330
747D
100
AcDbEntity
  8
部品1
100
AcDbLine
 10
8152.129529479699
 20
7735.984383599791
 30
0.0
 11
8152.129529479699
 21
7726.98438359979
 31
0.0
  0
LINE
  5
1A27C
330
747D
100
AcDbEntity
  8
部品1
100
AcDbLine
 10
8161.129529479699
 20
7735.984383599791
 30
0.0
 11
8152.129529479699
 21
7735.984383599791
 31
0.0
  0
LINE
  5
1A27D
330
747D
100
AcDbEntity
  8
部品1
100
AcDbLine
 10
8152.129529479699
 20
7726.98438359979
 30
0.0
 11
8122.129529479698
 21
7726.98438359979
 31
0.0
  0
LINE
  5
1A27E
330
747D
100
AcDbEntity
  8
部品1
100
AcDbLine
 10
8122.129529479698
 20
7726.98438359979
 30
0.0
 11
8122.129529479698
 21
7803.984383599791
 31
0.0
  0
LINE
  5
1A27F
330
747D
100
AcDbEntity
  8
部品1
100
AcDbLine
 10
8161.129529479699
 20
7799.984383599791
 30
0.0
 11
8161.129529479699
 21
7735.984383599791
 31
0.0
  0
LINE
  5
1A280
330
747D
100
AcDbEntity
  8
部品1
100
AcDbLine
 10
8149.129529479699
 20
7830.984383599787
 30
0.0
 11
8149.129529479699
 21
7799.984383599791
 31
0.0
  0
LINE
  5
1A281
330
747D
100
AcDbEntity
  8
部品1
100
AcDbLine
 10
8149.129529479699
 20
7830.984383599787
 30
0.0
 11
10249.1295294797
 21
7830.98438359979
 31
0.0
  0
LINE
  5
1A282
330
747D
100
AcDbEntity
  8
部品1
100
AcDbLine
 10
10246.1295294797
 20
7726.98438359979
 30
0.0
 11
10276.1295294797
 21
7726.98438359979
 31
0.0
  0
LINE
  5
1A283
330
747D
100
AcDbEntity
  8
部品1
100
AcDbLine
 10
8152.129529479699
 20
7726.98438359979
 30
0.0
 11
10249.1295294797
 21
7726.98438359979
 31
0.0
  0
LINE
  5
1A284
330
747D
100
AcDbEntity
  8
細線
  6
Continuous
 62
     5
100
AcDbLine
 10
9528.129529479702
 20
7765.984383599787
 30
0.0
 11
9528.129529479702
 21
7765.984383599787
 31
0.0
  0
LINE
  5
1A285
330
747D
100
AcDbEntity
  8
細線
  6
Continuous
 62
     5
100
AcDbLine
 10
9520.629564798595
 20
7765.984393520844
 30
0.0
 11
9520.629564798595
 21
7765.984393520844
 31
0.0
  0
LINE
  5
1A286
330
747D
100
AcDbEntity
  8
細線
  6
Continuous
 62
     5
100
AcDbLine
 10
9514.629564798594
 20
7765.984393520844
 30
0.0
 11
9514.629564798594
 21
7765.984393520844
 31
0.0
  0
LINE
  5
1A287
330
747D
100
AcDbEntity
  8
細線
  6
Continuous
 62
     5
100
AcDbLine
 10
9582.129529479702
 20
7784.984383599788
 30
0.0
 11
9582.129529479702
 21
7784.984383599788
 31
0.0
  0
LINE
  5
1A288
330
747D
100
AcDbEntity
  8
細線
 48
50.0
100
AcDbLine
 10
8175.129534133292
 20
7752.584557776746
 30
0.0
 11
8175.129534133292
 21
7760.980708184385
 31
0.0
  0
LINE
  5
1A289
330
747D
100
AcDbEntity
  8
細線
 48
50.0
100
AcDbLine
 10
8175.129534133292
 20
7760.980708184385
 30
0.0
 11
8161.129529479699
 21
7760.980708184381
 31
0.0
  0
LINE
  5
1A28A
330
747D
100
AcDbEntity
  8
細線
 48
50.0
100
AcDbLine
 10
8926.129534133288
 20
7749.134557776745
 30
0.0
 11
8926.129534133288
 21
7753.984557776746
 31
0.0
  0
LINE
  5
1A28B
330
747D
100
AcDbEntity
  8
細線
 48
50.0
100
AcDbLine
 10
8926.129534133288
 20
7753.984557776746
 30
0.0
 11
8941.129534133288
 21
7753.984557776746
 31
0.0
  0
LINE
  5
1A28C
330
747D
100
AcDbEntity
  8
細線
 48
50.0
100
AcDbLine
 10
8941.129534133288
 20
7753.984557776746
 30
0.0
 11
8941.129534133292
 21
7760.984557776748
 31
0.0
  0
LINE
  5
1A28D
330
747D
100
AcDbEntity
  8
細線
 48
50.0
100
AcDbLine
 10
8941.129534133292
 20
7760.984557776748
 30
0.0
 11
8956.129534133287
 21
7760.984557776748
 31
0.0
  0
LINE
  5
1A28E
330
747D
100
AcDbEntity
  8
細線
 48
50.0
100
AcDbLine
 10
8956.129534133287
 20
7760.984557776748
 30
0.0
 11
8956.129534133287
 21
7731.984557776747
 31
0.0
  0
LINE
  5
1A28F
330
747D
100
AcDbEntity
  8
細線
 48
50.0
100
AcDbLine
 10
8152.129529479699
 20
7731.981892120216
 30
0.0
 11
8366.129534133289
 21
7731.984575330461
 31
0.0
  0
LINE
  5
1A290
330
747D
100
AcDbEntity
  8
細線
 48
50.0
100
AcDbLine
 10
8856.129534133287
 20
7731.984557776747
 30
0.0
 11
8956.129534133287
 21
7731.984557776747
 31
0.0
  0
LINE
  5
1A291
330
747D
100
AcDbEntity
  8
細線
 48
50.0
100
AcDbLine
 10
8576.129534133288
 20
7731.984557776747
 30
0.0
 11
8646.129534133288
 21
7731.984557776747
 31
0.0
  0
LINE
  5
1A292
330
747D
100
AcDbEntity
  8
細線
 48
50.0
100
AcDbLine
 10
8588.991499145818
 20
7731.984557776747
 30
0.0
 11
8594.747016728485
 21
7750.25540906724
 31
0.0
  0
LINE
  5
1A293
330
747D
100
AcDbEntity
  8
細線
 48
50.0
100
AcDbLine
 10
8594.747016728485
 20
7750.25540906724
 30
0.0
 11
8605.675465208918
 21
7750.255409067236
 31
0.0
  0
ARC
  5
1A294
330
747D
100
AcDbEntity
  8
細線
 48
50.0
100
AcDbCircle
 10
8605.675465208918
 20
7749.255409067237
 30
0.0
 40
1.0
100
AcDbArc
 50
24.62431835213048
 51
90.0
  0
ARC
  5
1A295
330
747D
100
AcDbEntity
  8
細線
 48
50.0
100
AcDbCircle
 10
8616.58417732355
 20
7749.255409067237
 30
0.0
 40
1.0
100
AcDbArc
 50
90.0
 51
155.3756816478695
  0
ARC
  5
1A296
330
747D
100
AcDbEntity
  8
細線
 48
50.0
100
AcDbCircle
 10
8611.129821266233
 20
7751.755409067236
 30
0.0
 40
5.0
100
AcDbArc
 50
204.6243183521304
 51
335.3756816478695
  0
LINE
  5
1A297
330
747D
100
AcDbEntity
  8
細線
 48
50.0
100
AcDbLine
 10
8616.58417732355
 20
7750.255409067236
 30
0.0
 11
8627.512625803985
 21
7750.25540906724
 31
0.0
  0
LINE
  5
1A298
330
747D
100
AcDbEntity
  8
細線
 48
50.0
100
AcDbLine
 10
8627.512625803985
 20
7750.25540906724
 30
0.0
 11
8633.268143386652
 21
7731.984557776747
 31
0.0
  0
LINE
  5
1A299
330
747D
100
AcDbEntity
  8
細線
 48
50.0
100
AcDbLine
 10
8926.129534133288
 20
7752.584557776746
 30
0.0
 11
8175.129534133292
 21
7752.584557776746
 31
0.0
  0
LINE
  5
1A29A
330
747D
100
AcDbEntity
  8
細線
 48
50.0
100
AcDbLine
 10
8786.129534133287
 20
7731.984557776747
 30
0.0
 11
8716.129534133289
 21
7731.984557776747
 31
0.0
  0
LINE
  5
1A29B
330
747D
100
AcDbEntity
  8
細線
100
AcDbLine
 10
8506.129534133288
 20
7731.984557776747
 30
0.0
 11
8436.129542318704
 21
7731.984557776747
 31
0.0
  0
LINE
  5
1A29C
330
747D
100
AcDbEntity
  8
細線
 48
50.0
100
AcDbLine
 10
9580.129524826112
 20
7786.584601634614
 30
0.0
 11
8945.129534133288
 21
7786.58460163461
 31
0.0
  0
LINE
  5
1A29D
330
747D
100
AcDbEntity
  8
細線
 48
50.0
100
AcDbLine
 10
8945.129534133288
 20
7783.480752042253
 30
0.0
 11
8945.129534133288
 21
7787.980752042253
 31
0.0
  0
LINE
  5
1A29E
330
747D
100
AcDbEntity
  8
細線
 48
50.0
100
AcDbLine
 10
8945.129534133288
 20
7787.980752042253
 30
0.0
 11
8930.129534133287
 21
7787.980752042253
 31
0.0
  0
LINE
  5
1A29F
330
747D
100
AcDbEntity
  8
細線
 48
50.0
100
AcDbLine
 10
8930.129534133287
 20
7787.980752042253
 30
0.0
 11
8930.129534133287
 21
7794.980752042253
 31
0.0
  0
LINE
  5
1A2A0
330
747D
100
AcDbEntity
  8
細線
 48
50.0
100
AcDbLine
 10
8930.129534133287
 20
7794.980752042253
 30
0.0
 11
8915.12953413329
 21
7794.980752042249
 31
0.0
  0
LINE
  5
1A2A1
330
747D
100
AcDbEntity
  8
細線
 48
50.0
100
AcDbLine
 10
8915.12953413329
 20
7794.980752042249
 30
0.0
 11
8915.12953413329
 21
7757.380523939139
 31
0.0
  0
LINE
  5
1A2A2
330
747D
100
AcDbEntity
  8
細線
 48
50.0
100
AcDbLine
 10
8915.12953413329
 20
7757.380523939139
 30
0.0
 11
8935.129541434465
 21
7757.38056548868
 31
0.0
  0
LINE
  5
1A2A3
330
747D
100
AcDbEntity
  8
細線
 48
50.0
100
AcDbLine
 10
8935.129496565521
 20
7765.984027124488
 30
0.0
 11
8935.129541434465
 21
7757.38056548868
 31
0.0
  0
LINE
  5
1A2A4
330
747D
100
AcDbEntity
  8
細線
 48
50.0
100
AcDbLine
 10
9580.129524826112
 20
7783.134601634613
 30
0.0
 11
9580.129524826112
 21
7787.984601634611
 31
0.0
  0
LINE
  5
1A2A5
330
747D
100
AcDbEntity
  8
細線
 48
50.0
100
AcDbLine
 10
9580.129524826112
 20
7787.984601634611
 30
0.0
 11
9595.129524826109
 21
7787.984601634611
 31
0.0
  0
LINE
  5
1A2A6
330
747D
100
AcDbEntity
  8
細線
 48
50.0
100
AcDbLine
 10
9595.129524826109
 20
7787.984601634611
 30
0.0
 11
9595.129536460085
 21
7794.984601634654
 31
0.0
  0
LINE
  5
1A2A7
330
747D
100
AcDbEntity
  8
細線
 48
50.0
100
AcDbLine
 10
9595.129536460085
 20
7794.984601634654
 30
0.0
 11
9610.129534630615
 21
7794.984601634654
 31
0.0
  0
LINE
  5
1A2A8
330
747D
100
AcDbEntity
  8
細線
 48
50.0
100
AcDbLine
 10
9610.129534630615
 20
7794.984601634654
 30
0.0
 11
9610.129524328794
 21
7765.984395462381
 31
0.0
  0
LINE
  5
1A2A9
330
747D
100
AcDbEntity
  8
細線
 48
50.0
100
AcDbLine
 10
9297.629551959577
 20
7765.984403649747
 30
0.0
 11
9227.629804041994
 21
7765.98439821241
 31
0.0
  0
LINE
  5
1A2AA
330
747D
100
AcDbEntity
  8
細線
 48
50.0
100
AcDbLine
 10
8935.129496565521
 20
7765.984027124488
 30
0.0
 11
8946.362185920232
 21
7765.984210077634
 31
0.0
  0
ARC
  5
1A2AB
330
747D
100
AcDbEntity
  8
細線
 48
50.0
100
AcDbCircle
 10
8952.944478227568
 20
7764.784373991247
 30
0.0
 40
1.8
100
AcDbArc
 50
270.0006665777295
 51
345.0005554812987
  0
LINE
  5
1A2AC
330
747D
100
AcDbEntity
  8
細線
 48
50.0
100
AcDbLine
 10
8954.930911673647
 20
7765.243214448526
 30
0.0
 11
8954.683149231447
 21
7764.318516566421
 31
0.0
  0
LINE
  5
1A2AD
330
747D
100
AcDbEntity
  8
細線
 48
50.0
100
AcDbLine
 10
8952.944499168722
 20
7762.984373991368
 30
0.0
 11
8949.314571749955
 21
7762.984331760889
 31
0.0
  0
ARC
  5
1A2AE
330
747D
100
AcDbEntity
  8
細線
 48
50.0
100
AcDbCircle
 10
8949.314550808802
 20
7764.784331760768
 30
0.0
 40
1.8
100
AcDbArc
 50
195.0010443049394
 51
270.0006665777295
  0
LINE
  5
1A2AF
330
747D
100
AcDbEntity
  8
細線
 48
50.0
100
AcDbLine
 10
8947.328123316543
 20
7765.243046728333
 30
0.0
 11
8947.575892813055
 21
7764.31842578975
 31
0.0
  0
ARC
  5
1A2B0
330
747D
100
AcDbEntity
  8
細線
 48
50.0
100
AcDbCircle
 10
8946.362202207794
 20
7764.98421007777
 30
0.0
 40
1.0
100
AcDbArc
 50
15.00104430493943
 51
90.00093320877969
  0
LINE
  5
1A2B1
330
747D
100
AcDbEntity
  8
細線
 48
50.0
100
AcDbLine
 10
8955.89683302875
 20
7765.984404768039
 30
0.0
 11
8956.838593179655
 21
7765.984411341889
 31
0.0
  0
ARC
  5
1A2B2
330
747D
100
AcDbEntity
  8
細線
 48
50.0
100
AcDbCircle
 10
8955.896840009136
 20
7764.984404768066
 30
0.0
 40
1.0
100
AcDbArc
 50
90.0003999466794
 51
165.0005554812987
  0
LINE
  5
1A2B3
330
747D
100
AcDbEntity
  8
細線
 48
50.0
100
AcDbLine
 10
9507.629524826102
 20
7765.984395462381
 30
0.0
 11
9610.129524328794
 21
7765.984395462381
 31
0.0
  0
LINE
  5
1A2B4
330
747D
100
AcDbEntity
  8
細線
 48
50.0
100
AcDbLine
 10
9017.629560144994
 20
7765.984403649747
 30
0.0
 11
8956.529498918072
 21
7765.984411341889
 31
0.0
  0
LINE
  5
1A2B5
330
747D
100
AcDbEntity
  8
細線
 48
50.0
100
AcDbLine
 10
9437.629560144992
 20
7765.98444049083
 30
0.0
 11
9367.629553190608
 21
7765.984395468162
 31
0.0
  0
LINE
  5
1A2B6
330
747D
100
AcDbEntity
  8
細線
 48
50.0
100
AcDbLine
 10
9157.629524826102
 20
7765.984395462378
 30
0.0
 11
9087.629507538226
 21
7765.984395462385
 31
0.0
  0
ARC
  5
1A2B7
330
747D
100
AcDbEntity
  8
細線
 48
50.0
100
AcDbCircle
 10
9594.329529479709
 20
7799.184383599791
 30
0.0
 40
0.8
100
AcDbArc
 50
359.9997333689499
 51
89.99986668437072
  0
ARC
  5
1A2B8
330
747D
100
AcDbEntity
  8
細線
 48
50.0
100
AcDbCircle
 10
9601.929536304805
 20
7799.184394768409
 30
0.0
 40
0.8
100
AcDbArc
 50
90.00014387753465
 51
179.9997333689498
  0
LINE
  5
1A2B9
330
747D
100
AcDbEntity
  8
細線
 48
50.0
100
AcDbLine
 10
9594.329531341143
 20
7799.984383599791
 30
0.0
 11
9589.129529479698
 21
7799.984383599791
 31
0.0
  0
ARC
  5
1A2BA
330
747D
100
AcDbEntity
  8
細線
 48
50.0
100
AcDbCircle
 10
9595.829529479699
 20
7797.684383599791
 30
0.0
 40
0.7
100
AcDbArc
 50
180.0
 51
270.0
  0
ARC
  5
1A2BB
330
747D
100
AcDbEntity
  8
細線
 48
50.0
100
AcDbCircle
 10
9600.429529479702
 20
7797.684383599791
 30
0.0
 40
0.7
100
AcDbArc
 50
270.0
 51
0.0
  0
LINE
  5
1A2BC
330
747D
100
AcDbEntity
  8
細線
 48
50.0
100
AcDbLine
 10
9601.129529479699
 20
7797.684383599791
 30
0.0
 11
9601.129536304817
 21
7799.184398491279
 31
0.0
  0
LINE
  5
1A2BD
330
747D
100
AcDbEntity
  8
細線
 48
50.0
100
AcDbLine
 10
9595.829529479699
 20
7796.984383599791
 30
0.0
 11
9600.429529479702
 21
7796.984383599791
 31
0.0
  0
LINE
  5
1A2BE
330
747D
100
AcDbEntity
  8
細線
 48
50.0
100
AcDbLine
 10
9595.129529479697
 20
7799.184383599791
 30
0.0
 11
9595.129529479697
 21
7797.684383599791
 31
0.0
  0
LINE
  5
1A2BF
330
747D
100
AcDbEntity
  8
細線
 48
50.0
100
AcDbLine
 10
10220.7295294797
 20
7829.98438359979
 30
0.0
 11
9584.129529479698
 21
7829.984383599787
 31
0.0
  0
LINE
  5
1A2C0
330
747D
100
AcDbEntity
  8
細線
 48
50.0
100
AcDbLine
 10
10246.6295294797
 20
7824.984383599795
 30
0.0
 11
10230.7295294797
 21
7824.98438359979
 31
0.0
  0
LINE
  5
1A2C1
330
747D
100
AcDbEntity
  8
細線
 48
50.0
100
AcDbLine
 10
10230.7295294797
 20
7824.98438359979
 30
0.0
 11
10220.7295294797
 21
7829.98438359979
 31
0.0
  0
LINE
  5
1A2C2
330
747D
100
AcDbEntity
  8
細線
100
AcDbLine
 10
9831.629529479698
 20
7799.984383599791
 30
0.0
 11
9831.629529479698
 21
7829.28438359979
 31
0.0
  0
LINE
  5
1A2C3
330
747D
100
AcDbEntity
  8
細線
100
AcDbLine
 10
9831.629529479698
 20
7829.28438359979
 30
0.0
 11
9851.6295294797
 21
7829.28438359979
 31
0.0
  0
LINE
  5
1A2C4
330
747D
100
AcDbEntity
  8
細線
100
AcDbLine
 10
9851.6295294797
 20
7799.984383599791
 30
0.0
 11
9851.6295294797
 21
7829.28438359979
 31
0.0
  0
LINE
  5
1A2C5
330
747D
100
AcDbEntity
  8
細線
100
AcDbLine
 10
10012.8795294797
 20
7799.984383599791
 30
0.0
 11
9942.879529479698
 21
7799.984383599791
 31
0.0
  0
LINE
  5
1A2C6
330
747D
100
AcDbEntity
  8
細線
 48
50.0
100
AcDbLine
 10
9732.879529479699
 20
7799.984383599791
 30
0.0
 11
9601.925309052543
 21
7799.984383599791
 31
0.0
  0
LINE
  5
1A2C7
330
747D
100
AcDbEntity
  8
細線
100
AcDbLine
 10
9872.879529479698
 20
7799.984383599791
 30
0.0
 11
9802.879529479698
 21
7799.984383599791
 31
0.0
  0
LINE
  5
1A2C8
330
747D
100
AcDbEntity
  8
細線
 48
50.0
100
AcDbLine
 10
9589.129529479698
 20
7791.984383599791
 30
0.0
 11
9589.129529479698
 21
7799.984383599791
 31
0.0
  0
LINE
  5
1A2C9
330
747D
100
AcDbEntity
  8
細線
 48
50.0
100
AcDbLine
 10
9569.129529479699
 20
7791.984383599795
 30
0.0
 11
9589.129529479698
 21
7791.984383599791
 31
0.0
  0
LINE
  5
1A2CA
330
747D
100
AcDbEntity
  8
細線
 48
50.0
100
AcDbLine
 10
9584.129529479698
 20
7829.98438359979
 30
0.0
 11
9584.129529479698
 21
7824.98438359979
 31
0.0
  0
LINE
  5
1A2CB
330
747D
100
AcDbEntity
  8
細線
 48
50.0
100
AcDbLine
 10
9569.129529479699
 20
7829.984383599787
 30
0.0
 11
9584.129529479698
 21
7829.98438359979
 31
0.0
  0
LINE
  5
1A2CC
330
747D
100
AcDbEntity
  8
細線
 48
50.0
100
AcDbLine
 10
9569.129529479699
 20
7791.984383599795
 30
0.0
 11
9569.129529479699
 21
7829.984383599787
 31
0.0
  0
LINE
  5
1A2CD
330
747D
100
AcDbEntity
  8
細線
100
AcDbLine
 10
10237.1295294797
 20
7799.984383599791
 30
0.0
 11
10082.8795294797
 21
7799.984383599791
 31
0.0
  0
LINE
  5
1A2CE
330
747D
100
AcDbEntity
  8
細線
 48
50.0
100
AcDbLine
 10
10246.6295294797
 20
7824.984383599795
 30
0.0
 11
10246.6295294797
 21
7799.984383599791
 31
0.0
  0
DIMENSION
  5
1A50C
330
747D
100
AcDbEntity
  8
寸法
100
AcDbDimension
  2
*D32
 10
7379.518283853006
 20
7728.984383599758
 30
0.0
 11
7379.518283853004
 21
7588.499102225521
 31
0.0
 70
   160
 71
     5
 42
75.0
  3
INABA_S40
100
AcDbAlignedDimension
 13
7674.129529479722
 23
7803.984383599758
 33
0.0
 14
8122.129529479696
 24
7728.984383599758
 34
0.0
 50
90.0
100
AcDbRotatedDimension
1001
ACAD
1000
DSTYLE
1002
{
1070
    41
1040
0.5
1070
    44
1040
1.0
1070
   147
1040
0.8
1070
   271
1070
     2
1070
   272
1070
     2
1070
   289
1070
     3
1070
   340
1005
F706
1070
   343
1005
18AFD
1070
   344
1005
18AFD
1002
}
  0
DIMENSION
  5
1A50D
330
747D
100
AcDbEntity
  8
寸法
 48
50.0
100
AcDbDimension
  2
*D33
 10
10276.1295294797
 20
6806.854668172022
 30
0.0
 11
9221.262286227011
 21
6806.854668172022
 31
0.0
 70
   160
 71
     5
 42
2154.0
  3
INABA_S40G
100
AcDbAlignedDimension
 13
8122.129529479698
 23
7726.98438359979
 33
0.0
 14
10276.1295294797
 24
7726.98438359979
 34
0.0
100
AcDbRotatedDimension
1001
ACAD
1000
DSTYLE
1002
{
1070
   341
1005
0
1002
}
  0
DIMENSION
  5
1A610
330
747D
100
AcDbEntity
  8
寸法
100
AcDbDimension
  2
*D34
 10
10724.1295294797
 20
6519.879518045462
 30
0.0
 11
9218.845359853654
 21
6519.879518045462
 31
0.0
 70
   160
 71
     5
 42
3049.999999999982
  3
INABA_S40G
100
AcDbAlignedDimension
 13
7674.129529479722
 23
7803.984383599758
 33
0.0
 14
10724.1295294797
 24
7803.984383599922
 34
0.0
100
AcDbRotatedDimension
1001
ACAD
1000
DSTYLE
1002
{
1002
}
  0
LINE
  5
1A61B
330
747D
100
AcDbEntity
  8
部品1
100
AcDbLine
 10
9580.864862593939
 20
6189.963739009542
 30
0.0
 11
8817.394196365501
 21
6189.963739009542
 31
0.0
  0
LINE
  5
1A61C
330
747D
100
AcDbEntity
  8
部品1
100
AcDbLine
 10
9580.864862593939
 20
5950.071417464009
 30
0.0
 11
9580.864862593939
 21
6189.963739009542
 31
0.0
  0
LINE
  5
1A61D
330
747D
100
AcDbEntity
  8
部品1
100
AcDbLine
 10
8817.394196365501
 20
5950.071417464009
 30
0.0
 11
9580.864862593939
 21
5950.071417464009
 31
0.0
  0
LINE
  5
1A61E
330
747D
100
AcDbEntity
  8
部品1
100
AcDbLine
 10
8817.394196365501
 20
6189.963739009542
 30
0.0
 11
8817.394196365501
 21
5950.071417464009
 31
0.0
  0
TEXT
  5
1A61F
330
747D
100
AcDbEntity
  8
部品1
100
AcDbText
 10
8907.31380619454
 20
5997.070209791019
 30
0.0
 40
135.0
  1
平面図
  7
STYLE2
100
AcDbText
  0
LWPOLYLINE
  5
1A839
330
747D
100
AcDbEntity
  8
部品1
 48
50.0
100
AcDbPolyline
 90
        4
 70
     1
 43
0.0
 10
8221.17952947973
 20
3545.902601329415
 10
8224.079529479732
 20
3545.902601329415
 10
8224.079529479732
 20
3555.402601329415
 10
8221.17952947973
 20
3555.402601329415
  0
CIRCLE
  5
1A83A
330
747D
100
AcDbEntity
  8
部品1
 48
50.0
100
AcDbCircle
 10
8222.62952947973
 20
3550.652601329415
 30
0.0
 40
9.0
  0
ARC
  5
1A83B
330
747D
100
AcDbEntity
  8
細線
 48
50.0
100
AcDbCircle
 10
8222.62952947973
 20
3550.652601329415
 30
0.0
 40
4.0
100
AcDbArc
 50
111.2538091853132
 51
248.7461908146868
  0
ARC
  5
1A83C
330
747D
100
AcDbEntity
  8
細線
 48
50.0
100
AcDbCircle
 10
8222.62952947973
 20
3550.652601329415
 30
0.0
 40
17.5
100
AcDbArc
 50
306.4837370612677
 51
233.5162629387323
  0
LINE
  5
1A83D
330
747D
100
AcDbEntity
  8
細線
 48
50.0
100
AcDbLine
 10
8232.629529479728
 20
3526.793640748532
 30
0.0
 11
8232.62952947973
 21
3535.778126548774
 31
0.0
  0
LINE
  5
1A83E
330
747D
100
AcDbEntity
  8
細線
 48
50.0
100
AcDbLine
 10
8212.629529479732
 20
3526.793640748535
 30
0.0
 11
8212.629529479732
 21
3535.77812654877
 31
0.0
  0
ARC
  5
1A83F
330
747D
100
AcDbEntity
  8
細線
 48
50.0
100
AcDbCircle
 10
8222.62952947973
 20
3550.652601329415
 30
0.0
 40
26.5
100
AcDbArc
 50
249.3326835063939
 51
290.6673164933835
  0
ARC
  5
1A840
330
747D
100
AcDbEntity
  8
細線
 48
50.0
100
AcDbCircle
 10
8231.629529479723
 20
3526.793640748532
 30
0.0
 40
1.0
100
AcDbArc
 50
290.6673164936062
 51
359.9999999998958
  0
ARC
  5
1A841
330
747D
100
AcDbEntity
  8
細線
 48
50.0
100
AcDbCircle
 10
8213.62952947973
 20
3526.793640748535
 30
0.0
 40
1.0
100
AcDbArc
 50
180.0
 51
249.3326835066164
  0
ARC
  5
1A842
330
747D
100
AcDbEntity
  8
細線
 48
50.0
100
AcDbCircle
 10
8211.629529479731
 20
3535.77812654877
 30
0.0
 40
1.0
100
AcDbArc
 50
0.0
 51
53.51626293873231
  0
ARC
  5
1A843
330
747D
100
AcDbEntity
  8
細線
 48
50.0
100
AcDbCircle
 10
8233.629529479735
 20
3535.778126548774
 30
0.0
 40
1.0
100
AcDbArc
 50
126.4837370615127
 51
180.0
  0
ARC
  5
1A844
330
747D
100
AcDbEntity
  8
細線
 48
50.0
100
AcDbCircle
 10
8222.62952947973
 20
3550.652601329415
 30
0.0
 40
21.5
100
AcDbArc
 50
255.8014401250294
 51
284.1985598749706
  0
ARC
  5
1A845
330
747D
100
AcDbEntity
  8
細線
 48
50.0
100
AcDbCircle
 10
8222.62952947973
 20
3550.652601329415
 30
0.0
 40
16.5
100
AcDbArc
 50
251.9694646069326
 51
288.0305353930674
  0
LINE
  5
1A846
330
747D
100
AcDbEntity
  8
細線
 48
50.0
100
AcDbLine
 10
8228.129529479732
 20
3530.100229203608
 30
0.0
 11
8228.129529479732
 21
3534.677620890946
 31
0.0
  0
LINE
  5
1A847
330
747D
100
AcDbEntity
  8
細線
 48
50.0
100
AcDbLine
 10
8217.129529479732
 20
3530.100229203608
 30
0.0
 11
8217.129529479732
 21
3534.677620890943
 31
0.0
  0
ARC
  5
1A848
330
747D
100
AcDbEntity
  8
細線
 48
50.0
100
AcDbCircle
 10
8217.429529479735
 20
3534.677620890943
 30
0.0
 40
0.3
100
AcDbArc
 50
71.96946460693259
 51
180.0
  0
ARC
  5
1A849
330
747D
100
AcDbEntity
  8
細線
 48
50.0
100
AcDbCircle
 10
8227.829529479732
 20
3534.677620890946
 30
0.0
 40
0.3
100
AcDbArc
 50
0.0
 51
108.0305353930674
  0
ARC
  5
1A84A
330
747D
100
AcDbEntity
  8
細線
 48
50.0
100
AcDbCircle
 10
8227.829529479729
 20
3530.100229203608
 30
0.0
 40
0.3
100
AcDbArc
 50
284.1985598747622
 51
0.0000000001042204
  0
ARC
  5
1A84B
330
747D
100
AcDbEntity
  8
細線
 48
50.0
100
AcDbCircle
 10
8217.429529479735
 20
3530.100229203608
 30
0.0
 40
0.3
100
AcDbArc
 50
180.0
 51
255.8014401248081
  0
CIRCLE
  5
1A84C
330
747D
100
AcDbEntity
  8
細線
 48
50.0
100
AcDbCircle
 10
8222.62952947973
 20
3550.652601329415
 30
0.0
 40
12.0
  0
ARC
  5
1A84D
330
747D
100
AcDbEntity
  8
部品1
 48
50.0
100
AcDbCircle
 10
8222.62952947973
 20
3600.652601329415
 30
0.0
 40
8.5
100
AcDbArc
 50
114.315739171091
 51
245.684260828909
  0
CIRCLE
  5
1A84E
330
747D
100
AcDbEntity
  8
細線
 48
50.0
100
AcDbCircle
 10
8222.62952947973
 20
3600.652601329415
 30
0.0
 40
4.5
  0
LWPOLYLINE
  5
1A84F
330
747D
100
AcDbEntity
  8
部品1
 48
50.0
100
AcDbPolyline
 90
        2
 70
     0
 43
0.0
 10
8219.129529479731
 20
3619.327450726398
 10
8219.129529479731
 20
3608.398568021831
  0
CIRCLE
  5
1A850
330
747D
100
AcDbEntity
  8
部品1
 48
50.0
100
AcDbCircle
 10
8222.62952947973
 20
3600.652601329415
 30
0.0
 40
19.0
  0
LWPOLYLINE
  5
1A851
330
747D
100
AcDbEntity
  8
部品1
 48
50.0
100
AcDbPolyline
 90
        2
 70
     0
 43
0.0
 10
8219.129529479731
 20
3592.906634637
 10
8219.129529479731
 20
3581.977751932433
  0
LWPOLYLINE
  5
1A852
330
747D
100
AcDbEntity
  8
部品1
 48
50.0
100
AcDbPolyline
 90
        2
 70
     0
 43
0.0
 10
8226.129529479731
 20
3608.398568021831
 10
8226.129529479731
 20
3619.327450726398
  0
ARC
  5
1A853
330
747D
100
AcDbEntity
  8
部品1
 48
50.0
100
AcDbCircle
 10
8222.62952947973
 20
3600.652601329415
 30
0.0
 40
8.5
100
AcDbArc
 50
294.315739171091
 51
65.68426082890896
  0
LWPOLYLINE
  5
1A854
330
747D
100
AcDbEntity
  8
部品1
 48
50.0
100
AcDbPolyline
 90
        2
 70
     0
 43
0.0
 10
8226.129529479731
 20
3581.977751932433
 10
8226.129529479731
 20
3592.906634637
  0
ARC
  5
1A855
330
747D
100
AcDbEntity
  8
細線
 48
50.0
100
AcDbCircle
 10
8222.62952947973
 20
3600.652601329415
 30
0.0
 40
16.5
100
AcDbArc
 50
332.0012352654438
 51
27.99876473455621
  0
ARC
  5
1A856
330
747D
100
AcDbEntity
  8
細線
 48
50.0
100
AcDbCircle
 10
8222.62952947973
 20
3600.652601329415
 30
0.0
 40
14.0
100
AcDbArc
 50
326.4074436112986
 51
33.59255638870134
  0
LINE
  5
1A857
330
747D
100
AcDbEntity
  8
細線
 48
50.0
100
AcDbLine
 10
8208.0607271954
 20
3608.398568021831
 30
0.0
 11
8210.967625690043
 21
3608.398568021831
 31
0.0
  0
LINE
  5
1A858
330
747D
100
AcDbEntity
  8
細線
 48
50.0
100
AcDbLine
 10
8208.0607271954
 20
3592.906634637
 30
0.0
 11
8210.967625690043
 21
3592.906634637
 31
0.0
  0
LINE
  5
1A859
330
747D
100
AcDbEntity
  8
細線
 48
50.0
100
AcDbLine
 10
8234.291433269421
 20
3608.398568021831
 30
0.0
 11
8237.198331764068
 21
3608.398568021831
 31
0.0
  0
LINE
  5
1A85A
330
747D
100
AcDbEntity
  8
細線
 48
50.0
100
AcDbLine
 10
8234.291433269421
 20
3592.906634637
 30
0.0
 11
8237.198331764068
 21
3592.906634637
 31
0.0
  0
ARC
  5
1A85B
330
747D
100
AcDbEntity
  8
細線
 48
50.0
100
AcDbCircle
 10
8222.62952947973
 20
3600.652601329415
 30
0.0
 40
14.0
100
AcDbArc
 50
146.4074436112986
 51
213.5925563887013
  0
ARC
  5
1A85C
330
747D
100
AcDbEntity
  8
細線
 48
50.0
100
AcDbCircle
 10
8222.62952947973
 20
3600.652601329415
 30
0.0
 40
16.5
100
AcDbArc
 50
152.0012352654438
 51
207.9987647345562
  0
ARC
  5
1A85D
330
747D
100
AcDbEntity
  8
部品1
 48
50.0
100
AcDbCircle
 10
8196.129529479732
 20
3626.152601329415
 30
0.0
 40
5.0
100
AcDbArc
 50
90.0
 51
180.0
  0
ARC
  5
1A85E
330
747D
100
AcDbEntity
  8
部品1
 48
50.0
100
AcDbCircle
 10
8196.129529479732
 20
3515.152601329415
 30
0.0
 40
5.0
100
AcDbArc
 50
180.0
 51
270.0
  0
ARC
  5
1A85F
330
747D
100
AcDbEntity
  8
部品1
 48
50.0
100
AcDbCircle
 10
8249.129529479731
 20
3515.152601329415
 30
0.0
 40
5.0
100
AcDbArc
 50
270.0
 51
0.0
  0
ARC
  5
1A860
330
747D
100
AcDbEntity
  8
部品1
 48
50.0
100
AcDbCircle
 10
8249.129529479731
 20
3626.152601329415
 30
0.0
 40
5.0
100
AcDbArc
 50
0.0
 51
90.0
  0
LINE
  5
1A862
330
747D
100
AcDbEntity
  8
部品1
 48
50.0
100
AcDbLine
 10
8191.129529479731
 20
3515.152601329415
 30
0.0
 11
8191.129529479731
 21
3626.152601329415
 31
0.0
  0
LINE
  5
1A863
330
747D
100
AcDbEntity
  8
部品1
 48
50.0
100
AcDbLine
 10
8249.129529479731
 20
3510.152601329416
 30
0.0
 11
8196.129529479732
 21
3510.152601329416
 31
0.0
  0
LINE
  5
1A864
330
747D
100
AcDbEntity
  8
部品1
 48
50.0
100
AcDbLine
 10
8254.129529479731
 20
3626.152601329415
 30
0.0
 11
8254.129529479731
 21
3515.152601329415
 31
0.0
  0
ENDSEC
  0
SECTION
  2
OBJECTS
  0
DICTIONARY
  5
7471
330
0
100
AcDbDictionary
281
     1
  3
ACAD_COLOR
350
18A4E
  3
ACAD_GROUP
350
7472
  3
ACAD_LAYOUT
350
18A4F
  3
ACAD_MATERIAL
350
18A4D
  3
ACAD_MLINESTYLE
350
7473
  3
ACAD_PLOTSETTINGS
350
18A50
  3
ACAD_PLOTSTYLENAME
350
18A4B
  3
ACDBHEADERROUNDTRIPXREC
350
1A874
  3
AcDbVariableDictionary
350
1A870
  3
CONTENTDICTIONARY
350
E71C
  3
DRAWINGVARIABLESDICT
350
F3B9
  0
DICTIONARY
  5
18BF5
330
7467
100
AcDbDictionary
280
     1
281
     1
  3
ACAD_LAYERSTATES
360
18BF6
  0
DICTIONARY
  5
18A4E
102
{ACAD_REACTORS
330
7471
102
}
330
7471
100
AcDbDictionary
281
     1
  0
DICTIONARY
  5
7472
102
{ACAD_REACTORS
330
7471
102
}
330
7471
100
AcDbDictionary
281
     1
  0
DICTIONARY
  5
18A4F
102
{ACAD_REACTORS
330
7471
102
}
330
7471
100
AcDbDictionary
281
     1
  3
Model
350
18A51
  3
レイアウト1
350
18A52
  0
DICTIONARY
  5
18A4D
102
{ACAD_REACTORS
330
7471
102
}
330
7471
100
AcDbDictionary
281
     1
  0
DICTIONARY
  5
7473
102
{ACAD_REACTORS
330
7471
102
}
330
7471
100
AcDbDictionary
281
     1
  3
STANDARD
350
7480
  0
DICTIONARY
  5
18A50
102
{ACAD_REACTORS
330
7471
102
}
330
7471
100
AcDbDictionary
281
     1
  0
ACDBDICTIONARYWDFLT
  5
18A4B
102
{ACAD_REACTORS
330
7471
102
}
330
7471
100
AcDbDictionary
281
     1
  3
Normal
350
18A4C
100
AcDbDictionaryWithDefault
340
18A4C
  0
DICTIONARY
  5
1A874
102
{ACAD_REACTORS
330
7471
102
}
330
7471
100
AcDbDictionary
281
     1
  3
COLORDICT
350
1A876
  3
MATERIALDICT
350
1A875
  0
DICTIONARY
  5
1A870
102
{ACAD_REACTORS
330
7471
102
}
330
7471
100
AcDbDictionary
281
     1
  3
DIMASSOC
350
1A871
  3
PROJECTNAME
350
1A872
  0
DICTIONARY
  5
E71C
102
{ACAD_REACTORS
330
7471
102
}
330
7471
100
AcDbDictionary
281
     1
  0
DICTIONARY
  5
F3B9
102
{ACAD_REACTORS
330
7471
102
}
330
7471
100
AcDbDictionary
281
     1
1001
DRAWINGVARIABLESXDATA
1000
POLARMODE
1000
1
  0
DICTIONARY
  5
18BF6
102
{ACAD_REACTORS
330
18BF5
102
}
330
18BF5
100
AcDbDictionary
281
     1
  0
LAYOUT
  5
18A51
102
{ACAD_XDICTIONARY
360
1A877
102
}
102
{ACAD_REACTORS
330
18A4F
102
}
330
18A4F
100
AcDbPlotSettings
  1

  2
Microsoft Office Document Image Writer
  4

  6

 40
0.0
 41
0.0
 42
0.0
 43
0.0
 44
0.0
 45
0.0
 46
0.0
 47
0.0
 48
0.0
 49
0.0
140
0.0
141
0.0
142
1.0
143
1.0
 70
  1712
 72
     0
 73
     0
 74
     0
  7

 75
     0
147
1.0
148
0.0
149
0.0
100
AcDbLayout
  1
Model
 70
     1
 71
     0
 10
0.0
 20
0.0
 11
12.0
 21
9.0
 12
0.0
 22
0.0
 32
0.0
 14
0.0
 24
0.0
 34
0.0
 15
0.0
 25
0.0
 35
0.0
146
0.0
 13
0.0
 23
0.0
 33
0.0
 16
1.0
 26
0.0
 36
0.0
 17
0.0
 27
1.0
 37
0.0
 76
     0
330
747D
  0
LAYOUT
  5
18A52
102
{ACAD_XDICTIONARY
360
1A879
102
}
102
{ACAD_REACTORS
330
18A4F
102
}
330
18A4F
100
AcDbPlotSettings
  1

  2
Microsoft Office Document Image Writer
  4

  6

 40
0.0
 41
0.0
 42
0.0
 43
0.0
 44
0.0
 45
0.0
 46
0.0
 47
0.0
 48
0.0
 49
0.0
140
0.0
141
0.0
142
1.0
143
1.0
 70
   688
 72
     0
 73
     0
 74
     5
  7

 75
    16
147
1.0
148
0.0
149
0.0
100
AcDbLayout
  1
レイアウト1
 70
     0
 71
     1
 10
0.0
 20
0.0
 11
420.0
 21
297.0
 12
0.0
 22
0.0
 32
0.0
 14
1.000000000000000E+20
 24
1.000000000000000E+20
 34
1.000000000000000E+20
 15
-1.000000000000000E+20
 25
-1.000000000000000E+20
 35
-1.000000000000000E+20
146
0.0
 13
0.0
 23
0.0
 33
0.0
 16
1.0
 26
0.0
 36
0.0
 17
0.0
 27
1.0
 37
0.0
 76
     0
330
747A
  0
MLINESTYLE
  5
7480
102
{ACAD_REACTORS
330
7473
102
}
330
7473
100
AcDbMlineStyle
  2
STANDARD
 70
     0
  3

 62
     0
 51
90.0
 52
90.0
 71
     2
 49
0.5
 62
   256
  6
BYLAYER
 49
-0.5
 62
   256
  6
BYLAYER
  0
ACDBPLACEHOLDER
  5
18A4C
102
{ACAD_REACTORS
330
18A4B
102
}
330
18A4B
  0
XRECORD
  5
1A876
102
{ACAD_REACTORS
330
1A874
102
}
330
1A874
100
AcDbXrecord
280
     1
340
18A4E
  0
XRECORD
  5
1A875
102
{ACAD_REACTORS
330
1A874
102
}
330
1A874
100
AcDbXrecord
280
     1
340
18A4D
  0
DICTIONARYVAR
  5
1A871
102
{ACAD_REACTORS
330
1A870
102
}
330
1A870
100
DictionaryVariables
280
     0
  1
1
  0
DICTIONARYVAR
  5
1A872
102
{ACAD_REACTORS
330
1A870
102
}
330
1A870
100
DictionaryVariables
280
     0
  1

  0
DICTIONARY
  5
1A877
330
18A51
100
AcDbDictionary
280
     1
281
     1
  3
ACAD_XREC_ROUNDTRIP
360
1A878
  0
DICTIONARY
  5
1A879
330
18A52
100
AcDbDictionary
280
     1
281
     1
  3
ACAD_XREC_ROUNDTRIP
360
1A87A
  0
XRECORD
  5
1A878
102
{ACAD_REACTORS
330
1A877
102
}
330
1A877
100
AcDbXrecord
280
     1
102
SHADEPLOT
 70
     0
102
SHADEPLOTRESLEVEL
 70
     2
102
SHADEPLOTCUSTOMDPI
 70
   300
  0
XRECORD
  5
1A87A
102
{ACAD_REACTORS
330
1A879
102
}
330
1A879
100
AcDbXrecord
280
     1
102
SHADEPLOT
 70
     0
102
SHADEPLOTRESLEVEL
 70
     2
102
SHADEPLOTCUSTOMDPI
 70
   300
  0
ENDSEC
  0
EOF
