  0
SECTION
  2
HEADER
  9
$ACADVER
  1
AC1015
  9
$ACADMAINTVER
 70
    20
  9
$DWGCODEPAGE
  3
ANSI_932
  9
$INSBASE
 10
0.0
 20
0.0
 30
0.0
  9
$EXTMIN
 10
139.9999999999995
 20
-0.0000000000000909
 30
0.0
  9
$EXTMAX
 10
16307.2
 20
11409.6
 30
0.0
  9
$LIMMIN
 10
-25.79074261211281
 20
-125.8223078213959
  9
$LIMMAX
 10
16471.10331197129
 20
11496.44801950658
  9
$ORTHOMODE
 70
     0
  9
$REGENMODE
 70
     1
  9
$FILLMODE
 70
     1
  9
$QTEXTMODE
 70
     0
  9
$MIRRTEXT
 70
     1
  9
$LTSCALE
 40
20.0
  9
$ATTMODE
 70
     1
  9
$TEXTSIZE
 40
4.0
  9
$TRACEWID
 40
1.0
  9
$TEXTSTYLE
  7
STYLE1
  9
$CLAYER
  8
部品1
  9
$CELTYPE
  6
BYLAYER
  9
$CECOLOR
 62
   256
  9
$CELTSCALE
 40
50.0
  9
$DISPSILH
 70
     0
  9
$DIMSCALE
 40
40.0
  9
$DIMASZ
 40
2.5
  9
$DIMEXO
 40
0.5
  9
$DIMDLI
 40
7.0
  9
$DIMRND
 40
0.0
  9
$DIMDLE
 40
0.0
  9
$DIMEXE
 40
1.5
  9
$DIMTP
 40
0.0
  9
$DIMTM
 40
0.0
  9
$DIMTXT
 40
3.0
  9
$DIMCEN
 40
0.0
  9
$DIMTSZ
 40
0.0
  9
$DIMTOL
 70
     0
  9
$DIMLIM
 70
     0
  9
$DIMTIH
 70
     0
  9
$DIMTOH
 70
     0
  9
$DIMSE1
 70
     0
  9
$DIMSE2
 70
     0
  9
$DIMTAD
 70
     3
  9
$DIMZIN
 70
     8
  9
$DIMBLK
  1

  9
$DIMASO
 70
     1
  9
$DIMSHO
 70
     1
  9
$DIMPOST
  1

  9
$DIMAPOST
  1

  9
$DIMALT
 70
     0
  9
$DIMALTD
 70
     2
  9
$DIMALTF
 40
0.0394
  9
$DIMLFAC
 40
1.0
  9
$DIMTOFL
 70
     1
  9
$DIMTVP
 40
0.0
  9
$DIMTIX
 70
     1
  9
$DIMSOXD
 70
     0
  9
$DIMSAH
 70
     1
  9
$DIMBLK1
  1
DOTSMALL
  9
$DIMBLK2
  1
DOTSMALL
  9
$DIMSTYLE
  2
INABA_S40G
  9
$DIMCLRD
 70
     0
  9
$DIMCLRE
 70
     0
  9
$DIMCLRT
 70
     7
  9
$DIMTFAC
 40
1.0
  9
$DIMGAP
 40
1.0
  9
$DIMJUST
 70
     0
  9
$DIMSD1
 70
     0
  9
$DIMSD2
 70
     0
  9
$DIMTOLJ
 70
     1
  9
$DIMTZIN
 70
     0
  9
$DIMALTZ
 70
     0
  9
$DIMALTTZ
 70
     0
  9
$DIMUPT
 70
     0
  9
$DIMDEC
 70
     1
  9
$DIMTDEC
 70
     4
  9
$DIMALTU
 70
     2
  9
$DIMALTTD
 70
     2
  9
$DIMTXSTY
  7
STYLE1
  9
$DIMAUNIT
 70
     0
  9
$DIMADEC
 70
     0
  9
$DIMALTRND
 40
0.0
  9
$DIMAZIN
 70
     0
  9
$DIMDSEP
 70
    46
  9
$DIMATFIT
 70
     3
  9
$DIMFRAC
 70
     0
  9
$DIMLDRBLK
  1

  9
$DIMLUNIT
 70
     2
  9
$DIMLWD
 70
    -2
  9
$DIMLWE
 70
    -2
  9
$DIMTMOVE
 70
     0
  9
$LUNITS
 70
     2
  9
$LUPREC
 70
     1
  9
$SKETCHINC
 40
1.0
  9
$FILLETRAD
 40
3.0
  9
$AUNITS
 70
     0
  9
$AUPREC
 70
     0
  9
$MENU
  1
acad
  9
$ELEVATION
 40
0.0
  9
$PELEVATION
 40
0.0
  9
$THICKNESS
 40
0.0
  9
$LIMCHECK
 70
     0
  9
$CHAMFERA
 40
0.0
  9
$CHAMFERB
 40
0.0
  9
$CHAMFERC
 40
0.0
  9
$CHAMFERD
 40
0.0
  9
$SKPOLY
 70
     0
  9
$TDCREATE
 40
2451368.612993866
  9
$TDUCREATE
 40
2451368.237993866
  9
$TDUPDATE
 40
2455575.683142535
  9
$TDUUPDATE
 40
2455575.308142535
  9
$TDINDWG
 40
0.4875131829
  9
$TDUSRTIMER
 40
0.4875131829
  9
$USRTIMER
 70
     1
  9
$ANGBASE
 50
0.0
  9
$ANGDIR
 70
     0
  9
$PDMODE
 70
     3
  9
$PDSIZE
 40
2.0
  9
$PLINEWID
 40
0.0
  9
$SPLFRAME
 70
     0
  9
$SPLINETYPE
 70
     6
  9
$SPLINESEGS
 70
     8
  9
$HANDSEED
  5
1959D
  9
$SURFTAB1
 70
     6
  9
$SURFTAB2
 70
     6
  9
$SURFTYPE
 70
     6
  9
$SURFU
 70
     6
  9
$SURFV
 70
     6
  9
$UCSBASE
  2

  9
$UCSNAME
  2

  9
$UCSORG
 10
0.0
 20
0.0
 30
0.0
  9
$UCSXDIR
 10
1.0
 20
0.0
 30
0.0
  9
$UCSYDIR
 10
0.0
 20
1.0
 30
0.0
  9
$UCSORTHOREF
  2

  9
$UCSORTHOVIEW
 70
     0
  9
$UCSORGTOP
 10
0.0
 20
0.0
 30
0.0
  9
$UCSORGBOTTOM
 10
0.0
 20
0.0
 30
0.0
  9
$UCSORGLEFT
 10
0.0
 20
0.0
 30
0.0
  9
$UCSORGRIGHT
 10
0.0
 20
0.0
 30
0.0
  9
$UCSORGFRONT
 10
0.0
 20
0.0
 30
0.0
  9
$UCSORGBACK
 10
0.0
 20
0.0
 30
0.0
  9
$PUCSBASE
  2

  9
$PUCSNAME
  2

  9
$PUCSORG
 10
0.0
 20
0.0
 30
0.0
  9
$PUCSXDIR
 10
1.0
 20
0.0
 30
0.0
  9
$PUCSYDIR
 10
0.0
 20
1.0
 30
0.0
  9
$PUCSORTHOREF
  2

  9
$PUCSORTHOVIEW
 70
     0
  9
$PUCSORGTOP
 10
0.0
 20
0.0
 30
0.0
  9
$PUCSORGBOTTOM
 10
0.0
 20
0.0
 30
0.0
  9
$PUCSORGLEFT
 10
0.0
 20
0.0
 30
0.0
  9
$PUCSORGRIGHT
 10
0.0
 20
0.0
 30
0.0
  9
$PUCSORGFRONT
 10
0.0
 20
0.0
 30
0.0
  9
$PUCSORGBACK
 10
0.0
 20
0.0
 30
0.0
  9
$USERI1
 70
     0
  9
$USERI2
 70
     0
  9
$USERI3
 70
     0
  9
$USERI4
 70
     0
  9
$USERI5
 70
     0
  9
$USERR1
 40
0.0
  9
$USERR2
 40
0.0
  9
$USERR3
 40
0.0
  9
$USERR4
 40
0.0
  9
$USERR5
 40
0.0
  9
$WORLDVIEW
 70
     1
  9
$SHADEDGE
 70
     3
  9
$SHADEDIF
 70
    70
  9
$TILEMODE
 70
     1
  9
$MAXACTVP
 70
    16
  9
$PINSBASE
 10
0.0
 20
0.0
 30
0.0
  9
$PLIMCHECK
 70
     0
  9
$PEXTMIN
 10
1.000000000000000E+20
 20
1.000000000000000E+20
 30
1.000000000000000E+20
  9
$PEXTMAX
 10
-1.000000000000000E+20
 20
-1.000000000000000E+20
 30
-1.000000000000000E+20
  9
$PLIMMIN
 10
0.0
 20
0.0
  9
$PLIMMAX
 10
420.0
 20
297.0
  9
$UNITMODE
 70
     0
  9
$VISRETAIN
 70
     0
  9
$PLINEGEN
 70
     0
  9
$PSLTSCALE
 70
     0
  9
$TREEDEPTH
 70
  3020
  9
$CMLSTYLE
  2
STANDARD
  9
$CMLJUST
 70
     0
  9
$CMLSCALE
 40
1.0
  9
$PROXYGRAPHICS
 70
     1
  9
$MEASUREMENT
 70
     1
  9
$CELWEIGHT
370
    -1
  9
$ENDCAPS
280
     0
  9
$JOINSTYLE
280
     0
  9
$LWDISPLAY
290
     0
  9
$INSUNITS
 70
     0
  9
$HYPERLINKBASE
  1

  9
$STYLESHEET
  1
inaba.ctb
  9
$XEDIT
290
     1
  9
$CEPSNTYPE
380
     0
  9
$PSTYLEMODE
290
     1
  9
$FINGERPRINTGUID
  2
{B64AD4F0-95E9-464C-95FC-FD8FEC0DF053}
  9
$VERSIONGUID
  2
{FDFFD07D-A6B3-4BAE-819F-1AD5FD25A46A}
  9
$EXTNAMES
290
     1
  9
$PSVPSCALE
 40
0.0
  9
$OLESTARTUP
290
     0
  0
ENDSEC
  0
SECTION
  2
CLASSES
  0
CLASS
  1
ACDBDICTIONARYWDFLT
  2
AcDbDictionaryWithDefault
  3
ObjectDBX Classes
 90
        0
280
     0
281
     0
  0
CLASS
  1
DICTIONARYVAR
  2
AcDbDictionaryVar
  3
ObjectDBX Classes
 90
        0
280
     0
281
     0
  0
CLASS
  1
ACDBPLACEHOLDER
  2
AcDbPlaceHolder
  3
ObjectDBX Classes
 90
        0
280
     0
281
     0
  0
CLASS
  1
LAYOUT
  2
AcDbLayout
  3
ObjectDBX Classes
 90
        0
280
     0
281
     0
  0
ENDSEC
  0
SECTION
  2
TABLES
  0
TABLE
  2
VPORT
  5
746D
330
0
100
AcDbSymbolTable
 70
     2
  0
VPORT
  5
19595
330
746D
100
AcDbSymbolTableRecord
100
AcDbViewportTableRecord
  2
*Active
 70
     0
 10
0.0
 20
0.0
 11
1.0
 21
1.0
 12
8223.761025238504
 22
5704.608037261908
 13
0.0
 23
0.0
 14
10.0
 24
10.0
 15
10.0
 25
10.0
 16
0.0
 26
0.0
 36
1.0
 17
0.0
 27
0.0
 37
0.0
 40
11495.08541324274
 41
1.525925925925925
 42
50.0
 43
0.0
 44
0.0
 50
0.0
 51
0.0
 71
     0
 72
     0
 73
     1
 74
     0
 75
     0
 76
     0
 77
     0
 78
     0
281
     0
 65
     1
110
0.0
120
0.0
130
0.0
111
1.0
121
0.0
131
0.0
112
0.0
122
1.0
132
0.0
 79
     0
146
0.0
  0
ENDTAB
  0
TABLE
  2
LTYPE
  5
746A
330
0
100
AcDbSymbolTable
 70
     4
  0
LTYPE
  5
7477
330
746A
100
AcDbSymbolTableRecord
100
AcDbLinetypeTableRecord
  2
BYBLOCK
 70
     0
  3

 72
    65
 73
     0
 40
0.0
  0
LTYPE
  5
7478
330
746A
100
AcDbSymbolTableRecord
100
AcDbLinetypeTableRecord
  2
BYLAYER
 70
     0
  3

 72
    65
 73
     0
 40
0.0
  0
LTYPE
  5
7479
330
746A
100
AcDbSymbolTableRecord
100
AcDbLinetypeTableRecord
  2
CONTINUOUS
 70
     0
  3
Solid line
 72
    65
 73
     0
 40
0.0
  0
LTYPE
  5
7816
330
746A
100
AcDbSymbolTableRecord
100
AcDbLinetypeTableRecord
  2
CENTER
 70
     0
  3
____ _ ____ _ ____ _ ____ _ ____ _ ____ _ ____ 
 72
    65
 73
     4
 40
2.0
 49
1.25
 74
     0
 49
-0.25
 74
     0
 49
0.25
 74
     0
 49
-0.25
 74
     0
  0
LTYPE
  5
781A
330
746A
100
AcDbSymbolTableRecord
100
AcDbLinetypeTableRecord
  2
HIDDEN
 70
     0
  3
__ __ __ __ __ __ __ __ __ __ __ __ __ __ __ __
 72
    65
 73
     2
 40
0.375
 49
0.25
 74
     0
 49
-0.125
 74
     0
  0
LTYPE
  5
781B
330
746A
100
AcDbSymbolTableRecord
100
AcDbLinetypeTableRecord
  2
PHANTOM
 70
     0
  3
______  __  __  ______  __  __  ______  __  __ 
 72
    65
 73
     6
 40
2.5
 49
1.25
 74
     0
 49
-0.25
 74
     0
 49
0.25
 74
     0
 49
-0.25
 74
     0
 49
0.25
 74
     0
 49
-0.25
 74
     0
  0
ENDTAB
  0
TABLE
  2
LAYER
  5
7467
102
{ACAD_XDICTIONARY
360
1764B
102
}
330
0
100
AcDbSymbolTable
 70
    12
  0
LAYER
  5
7474
330
7467
100
AcDbSymbolTableRecord
100
AcDbLayerTableRecord
  2
0
 70
     0
 62
     7
  6
CONTINUOUS
370
    -3
390
174AE
  0
LAYER
  5
DEB2
330
7467
100
AcDbSymbolTableRecord
100
AcDbLayerTableRecord
  2
センター
 70
     0
 62
     3
  6
CENTER
370
    -3
390
174AE
  0
LAYER
  5
DEB3
330
7467
100
AcDbSymbolTableRecord
100
AcDbLayerTableRecord
  2
寸法
 70
     0
 62
     4
  6
CONTINUOUS
370
    -3
390
174AE
  0
LAYER
  5
DEB4
330
7467
100
AcDbSymbolTableRecord
100
AcDbLayerTableRecord
  2
部品1
 70
     0
 62
     7
  6
CONTINUOUS
370
    -3
390
174AE
  0
LAYER
  5
DEB5
330
7467
100
AcDbSymbolTableRecord
100
AcDbLayerTableRecord
  2
補助
 70
     0
 62
    -1
  6
CONTINUOUS
370
    -3
390
174AE
  0
LAYER
  5
DEB6
330
7467
100
AcDbSymbolTableRecord
100
AcDbLayerTableRecord
  2
文字
 70
     0
 62
     7
  6
CONTINUOUS
370
    -3
390
174AE
  0
LAYER
  5
F255
330
7467
100
AcDbSymbolTableRecord
100
AcDbLayerTableRecord
  2
DEFPOINTS
 70
     0
 62
     7
  6
CONTINUOUS
290
     0
370
    -3
390
174AE
  0
LAYER
  5
10B54
330
7467
100
AcDbSymbolTableRecord
100
AcDbLayerTableRecord
  2
仕様書枠
 70
     0
 62
   230
  6
CONTINUOUS
370
    -3
390
174AE
  0
LAYER
  5
11729
330
7467
100
AcDbSymbolTableRecord
100
AcDbLayerTableRecord
  2
Ｇ．Ｌ
 70
     0
 62
    30
  6
CONTINUOUS
370
    -3
390
174AE
  0
LAYER
  5
1173F
330
7467
100
AcDbSymbolTableRecord
100
AcDbLayerTableRecord
  2
細線
 70
     0
 62
     5
  6
CONTINUOUS
370
    -3
390
174AE
  0
LAYER
  5
12CC4
330
7467
100
AcDbSymbolTableRecord
100
AcDbLayerTableRecord
  2
想像線
 70
     0
 62
     6
  6
PHANTOM
370
    -3
390
174AE
  0
LAYER
  5
142E2
330
7467
100
AcDbSymbolTableRecord
100
AcDbLayerTableRecord
  2
破線
 70
     0
 62
     2
  6
HIDDEN
370
    -3
390
174AE
  0
ENDTAB
  0
TABLE
  2
STYLE
  5
7468
330
0
100
AcDbSymbolTable
 70
     4
  0
STYLE
  5
7475
330
7468
100
AcDbSymbolTableRecord
100
AcDbTextStyleTableRecord
  2
STANDARD
 70
     0
 40
0.0
 41
1.0
 50
0.0
 71
     0
 42
4.0
  3
txt
  4
C:\AutoCAD LT\bigfont.shx
  0
STYLE
  5
F706
330
7468
100
AcDbSymbolTableRecord
100
AcDbTextStyleTableRecord
  2
STYLE1
 70
     0
 40
0.0
 41
1.0
 50
0.0
 71
     0
 42
4.0
  3
isocp.shx
  4
bigfont.shx
  0
STYLE
  5
103BF
330
7468
100
AcDbSymbolTableRecord
100
AcDbTextStyleTableRecord
  2
STYLE2
 70
     0
 40
0.0
 41
1.0
 50
0.0
 71
     0
 42
100.0
  3
MS PGothic.ttf
  4

1001
ACAD
1000
MS PGothic
1071
    32818
  0
STYLE
  5
18E77
330
7468
100
AcDbSymbolTableRecord
100
AcDbTextStyleTableRecord
  2
STYLE3
 70
     0
 40
0.0
 41
1.0
 50
0.0
 71
     0
 42
100.0
  3
DFPGothic-EB.ttf
  4

1001
ACAD
1000
DFPGothic-EB
1071
    32818
  0
ENDTAB
  0
TABLE
  2
VIEW
  5
746B
330
0
100
AcDbSymbolTable
 70
     0
  0
ENDTAB
  0
TABLE
  2
UCS
  5
746C
330
0
100
AcDbSymbolTable
 70
     0
  0
ENDTAB
  0
TABLE
  2
APPID
  5
746E
330
0
100
AcDbSymbolTable
 70
     6
  0
APPID
  5
7476
330
746E
100
AcDbSymbolTableRecord
100
AcDbRegAppTableRecord
  2
ACAD
 70
     0
  0
APPID
  5
DEA9
330
746E
100
AcDbSymbolTableRecord
100
AcDbRegAppTableRecord
  2
CONTENTBLOCKICON
 70
     0
  0
APPID
  5
DEAA
330
746E
100
AcDbSymbolTableRecord
100
AcDbRegAppTableRecord
  2
CONTENTBLOCKDESCRIPTION
 70
     0
  0
APPID
  5
E71D
330
746E
100
AcDbSymbolTableRecord
100
AcDbRegAppTableRecord
  2
CONTENTTABDATA
 70
     0
  0
APPID
  5
E71E
330
746E
100
AcDbSymbolTableRecord
100
AcDbRegAppTableRecord
  2
CONTENTCURRENTTAB
 70
     0
  0
APPID
  5
F3BA
330
746E
100
AcDbSymbolTableRecord
100
AcDbRegAppTableRecord
  2
DRAWINGVARIABLESXDATA
 70
     0
  0
ENDTAB
  0
TABLE
  2
DIMSTYLE
  5
746F
330
0
100
AcDbSymbolTable
 70
     5
100
AcDbDimStyleTable
 71
     0
  0
DIMSTYLE
105
7484
330
746F
100
AcDbSymbolTableRecord
100
AcDbDimStyleTableRecord
  2
JIS
 70
     0
 41
2.5
 42
1.0
 43
7.0
 44
1.0
 73
     0
 74
     0
 77
     1
 78
     8
140
2.5
141
0.0
143
0.0394
147
0.0
172
     1
174
     1
175
     1
340
7475
  0
DIMSTYLE
105
F71F
102
{ACAD_REACTORS
330
179BA
330
17A4B
330
17A4C
330
17A4D
330
17C0E
330
17C0F
330
17C12
330
17C1B
330
17C1F
330
17C21
330
17C42
330
17C48
330
17C5C
330
17C5D
330
17C85
330
1830E
330
1830F
330
18310
330
18311
330
18315
330
18316
330
18317
330
18318
330
18357
330
1836A
330
1836C
330
18370
330
18E2C
330
1921F
330
19321
102
}
330
746F
100
AcDbSymbolTableRecord
100
AcDbDimStyleTableRecord
  2
INABA_S40G
 70
     0
 40
40.0
 41
2.5
 42
0.5
 43
7.0
 44
1.5
 73
     0
 74
     0
 77
     3
 78
     8
140
3.0
141
0.0
143
0.0394
147
1.0
172
     1
173
     1
174
     1
178
     7
271
     1
340
F706
341
F770
343
F770
344
F770
  0
DIMSTYLE
105
1764A
102
{ACAD_REACTORS
330
18F83
330
19220
102
}
330
746F
100
AcDbSymbolTableRecord
100
AcDbDimStyleTableRecord
  2
INABA_S40
 70
     0
 40
40.0
 41
2.5
 42
0.5
 43
7.0
 44
1.5
 73
     0
 74
     0
 77
     3
 78
     8
140
3.0
141
0.0
143
0.0394
147
1.0
172
     1
173
     1
174
     1
175
     1
178
     7
340
7475
  0
DIMSTYLE
105
18E78
330
746F
100
AcDbSymbolTableRecord
100
AcDbDimStyleTableRecord
  2
INABA_S50G
 70
     0
 41
125.0
 42
25.0
 43
7.0
 44
75.0
 73
     0
 74
     0
 77
     3
 78
     8
140
150.0
141
0.0
143
0.0394
147
25.0
172
     1
173
     1
174
     1
175
     1
178
     7
271
     1
340
F706
341
F770
343
F770
344
F770
  0
DIMSTYLE
105
1951B
330
746F
100
AcDbSymbolTableRecord
100
AcDbDimStyleTableRecord
  2
INABA_S20G
 70
     0
 40
20.0
 41
2.5
 42
0.5
 43
7.0
 44
1.5
 73
     0
 74
     0
 77
     3
 78
     8
140
3.0
141
0.0
143
0.0394
147
1.0
172
     1
173
     1
174
     1
178
     7
271
     1
340
F706
341
F770
343
F770
344
F770
  0
ENDTAB
  0
TABLE
  2
BLOCK_RECORD
  5
7466
330
0
100
AcDbSymbolTable
 70
    34
  0
BLOCK_RECORD
  5
747D
330
7466
100
AcDbSymbolTableRecord
100
AcDbBlockTableRecord
  2
*MODEL_SPACE
340
174B3
  0
BLOCK_RECORD
  5
747A
330
7466
100
AcDbSymbolTableRecord
100
AcDbBlockTableRecord
  2
*PAPER_SPACE
340
174B4
  0
BLOCK_RECORD
  5
F770
330
7466
100
AcDbSymbolTableRecord
100
AcDbBlockTableRecord
  2
_DOTSMALL
340
0
102
{BLKREFS
331
1872E
331
1872F
331
18737
331
18738
331
18741
331
18742
331
1874B
331
1874C
331
18754
331
18755
331
1875F
331
18760
331
18768
331
18769
331
18771
331
18772
331
1877C
331
1877D
331
18786
331
18787
331
1878F
331
18790
331
18798
331
18799
331
187A1
331
187A2
331
18832
331
18833
331
1883B
331
1883C
331
18846
331
18847
331
18851
331
18852
331
18E3F
331
18E40
331
1948D
331
1948E
331
194A1
331
194A2
331
194B3
331
194B4
331
194BC
331
194BD
331
194C7
331
194C8
331
194D0
331
194D1
331
194D9
331
194DA
331
194E2
331
194E3
331
194ED
331
194EE
331
194F6
331
194F7
331
19501
331
19502
331
1950C
331
1950D
102
}
  0
BLOCK_RECORD
  5
17560
330
7466
100
AcDbSymbolTableRecord
100
AcDbBlockTableRecord
  2
_DOT
340
0
102
{BLKREFS
331
19498
331
19499
331
194AA
331
194AB
102
}
  0
BLOCK_RECORD
  5
17CB5
330
7466
100
AcDbSymbolTableRecord
100
AcDbBlockTableRecord
  2
*D2
340
0
  0
BLOCK_RECORD
  5
17CC3
330
7466
100
AcDbSymbolTableRecord
100
AcDbBlockTableRecord
  2
*D3
340
0
  0
BLOCK_RECORD
  5
17CD1
330
7466
100
AcDbSymbolTableRecord
100
AcDbBlockTableRecord
  2
*D4
340
0
  0
BLOCK_RECORD
  5
17CDD
330
7466
100
AcDbSymbolTableRecord
100
AcDbBlockTableRecord
  2
*D5
340
0
  0
BLOCK_RECORD
  5
17D82
330
7466
100
AcDbSymbolTableRecord
100
AcDbBlockTableRecord
  2
*D6
340
0
  0
BLOCK_RECORD
  5
17D90
330
7466
100
AcDbSymbolTableRecord
100
AcDbBlockTableRecord
  2
*D7
340
0
  0
BLOCK_RECORD
  5
17D9E
330
7466
100
AcDbSymbolTableRecord
100
AcDbBlockTableRecord
  2
*D8
340
0
  0
BLOCK_RECORD
  5
17DAA
330
7466
100
AcDbSymbolTableRecord
100
AcDbBlockTableRecord
  2
*D9
340
0
  0
BLOCK_RECORD
  5
17DB8
330
7466
100
AcDbSymbolTableRecord
100
AcDbBlockTableRecord
  2
*D10
340
0
  0
BLOCK_RECORD
  5
17DC4
330
7466
100
AcDbSymbolTableRecord
100
AcDbBlockTableRecord
  2
*D11
340
0
  0
BLOCK_RECORD
  5
17DD0
330
7466
100
AcDbSymbolTableRecord
100
AcDbBlockTableRecord
  2
*D12
340
0
  0
BLOCK_RECORD
  5
17DDC
330
7466
100
AcDbSymbolTableRecord
100
AcDbBlockTableRecord
  2
*D13
340
0
  0
BLOCK_RECORD
  5
17DF6
330
7466
100
AcDbSymbolTableRecord
100
AcDbBlockTableRecord
  2
*D14
340
0
  0
BLOCK_RECORD
  5
17E02
330
7466
100
AcDbSymbolTableRecord
100
AcDbBlockTableRecord
  2
*D15
340
0
  0
BLOCK_RECORD
  5
17E1A
330
7466
100
AcDbSymbolTableRecord
100
AcDbBlockTableRecord
  2
*D16
340
0
  0
BLOCK_RECORD
  5
183C7
330
7466
100
AcDbSymbolTableRecord
100
AcDbBlockTableRecord
  2
*D17
340
0
  0
BLOCK_RECORD
  5
183D3
330
7466
100
AcDbSymbolTableRecord
100
AcDbBlockTableRecord
  2
*D18
340
0
  0
BLOCK_RECORD
  5
183DF
330
7466
100
AcDbSymbolTableRecord
100
AcDbBlockTableRecord
  2
*D19
340
0
  0
BLOCK_RECORD
  5
183EC
330
7466
100
AcDbSymbolTableRecord
100
AcDbBlockTableRecord
  2
*D20
340
0
  0
BLOCK_RECORD
  5
183FA
330
7466
100
AcDbSymbolTableRecord
100
AcDbBlockTableRecord
  2
*D21
340
0
  0
BLOCK_RECORD
  5
18406
330
7466
100
AcDbSymbolTableRecord
100
AcDbBlockTableRecord
  2
*D22
340
0
  0
BLOCK_RECORD
  5
18412
330
7466
100
AcDbSymbolTableRecord
100
AcDbBlockTableRecord
  2
*D23
340
0
  0
BLOCK_RECORD
  5
18420
330
7466
100
AcDbSymbolTableRecord
100
AcDbBlockTableRecord
  2
*D24
340
0
  0
BLOCK_RECORD
  5
1842C
330
7466
100
AcDbSymbolTableRecord
100
AcDbBlockTableRecord
  2
*D25
340
0
  0
BLOCK_RECORD
  5
18439
330
7466
100
AcDbSymbolTableRecord
100
AcDbBlockTableRecord
  2
*D26
340
0
  0
BLOCK_RECORD
  5
18446
330
7466
100
AcDbSymbolTableRecord
100
AcDbBlockTableRecord
  2
*D27
340
0
  0
BLOCK_RECORD
  5
18452
330
7466
100
AcDbSymbolTableRecord
100
AcDbBlockTableRecord
  2
*D28
340
0
  0
BLOCK_RECORD
  5
18E30
330
7466
100
AcDbSymbolTableRecord
100
AcDbBlockTableRecord
  2
*D29
340
0
  0
BLOCK_RECORD
  5
18FEE
330
7466
100
AcDbSymbolTableRecord
100
AcDbBlockTableRecord
  2
*D30
340
0
  0
BLOCK_RECORD
  5
19333
330
7466
100
AcDbSymbolTableRecord
100
AcDbBlockTableRecord
  2
*D31
340
0
  0
BLOCK_RECORD
  5
1933F
330
7466
100
AcDbSymbolTableRecord
100
AcDbBlockTableRecord
  2
*D32
340
0
  0
BLOCK_RECORD
  5
193C1
330
7466
100
AcDbSymbolTableRecord
100
AcDbBlockTableRecord
  2
*D33
340
0
  0
ENDTAB
  0
ENDSEC
  0
SECTION
  2
BLOCKS
  0
BLOCK
  5
7489
330
747D
100
AcDbEntity
  8
0
100
AcDbBlockBegin
  2
*MODEL_SPACE
 70
     0
 10
0.0
 20
0.0
 30
0.0
  3
*MODEL_SPACE
  1

  0
ENDBLK
  5
748A
330
747D
100
AcDbEntity
  8
0
100
AcDbBlockEnd
  0
BLOCK
  5
7487
330
747A
100
AcDbEntity
 67
     1
  8
0
100
AcDbBlockBegin
  2
*PAPER_SPACE
 70
     0
 10
0.0
 20
0.0
 30
0.0
  3
*PAPER_SPACE
  1

  0
ENDBLK
  5
7488
330
747A
100
AcDbEntity
 67
     1
  8
0
100
AcDbBlockEnd
  0
BLOCK
  5
F771
330
F770
100
AcDbEntity
  8
0
 48
50.0
100
AcDbBlockBegin
  2
_DOTSMALL
 70
     0
 10
0.0
 20
0.0
 30
0.0
  3
_DOTSMALL
  1

  0
LWPOLYLINE
  5
F772
330
F770
100
AcDbEntity
  8
0
  6
ByBlock
 62
     0
 48
50.0
100
AcDbPolyline
 90
        2
 70
     1
 43
0.5
 10
-0.0625
 20
0.0
 42
1.0
 10
0.0625
 20
0.0
 42
1.0
  0
ENDBLK
  5
F776
330
F770
100
AcDbEntity
  8
0
 48
50.0
100
AcDbBlockEnd
  0
BLOCK
  5
17561
330
17560
100
AcDbEntity
  8
0
 48
50.0
100
AcDbBlockBegin
  2
_DOT
 70
     0
 10
0.0
 20
0.0
 30
0.0
  3
_DOT
  1

  0
LWPOLYLINE
  5
17562
330
17560
100
AcDbEntity
  8
0
  6
ByBlock
 62
     0
 48
50.0
100
AcDbPolyline
 90
        2
 70
     1
 43
0.5
 10
-0.25
 20
0.0
 42
1.0
 10
0.25
 20
0.0
 42
1.0
  0
LINE
  5
17563
330
17560
100
AcDbEntity
  8
0
  6
ByBlock
 62
     0
 48
50.0
100
AcDbLine
 10
-0.5
 20
0.0
 30
0.0
 11
-1.0
 21
0.0
 31
0.0
  0
ENDBLK
  5
17564
330
17560
100
AcDbEntity
  8
0
 48
50.0
100
AcDbBlockEnd
  0
BLOCK
  5
17CC1
330
17CB5
100
AcDbEntity
  8
0
 48
50.0
100
AcDbBlockBegin
  2
*D2
 70
     1
 10
0.0
 20
0.0
 30
0.0
  3
*D2
  1

  0
LINE
  5
1884C
330
17CB5
100
AcDbEntity
  8
寸法
 62
     0
 48
50.0
370
    -2
100
AcDbLine
 10
11404.34510545911
 20
4736.746374670299
 30
0.0
 11
11404.34510545911
 21
5175.839544009769
 31
0.0
  0
LINE
  5
1884D
330
17CB5
100
AcDbEntity
  8
寸法
 62
     0
 48
50.0
370
    -2
100
AcDbLine
 10
11354.34510545911
 20
4736.746374670302
 30
0.0
 11
11354.34510545911
 21
5175.839544009769
 31
0.0
  0
LINE
  5
1884E
330
17CB5
100
AcDbEntity
  8
寸法
 62
     0
 48
50.0
370
    -2
100
AcDbLine
 10
11354.34510545911
 20
5115.839544009769
 30
0.0
 11
11254.34510545911
 21
5115.839544009769
 31
0.0
  0
LINE
  5
1884F
330
17CB5
100
AcDbEntity
  8
寸法
 62
     0
 48
50.0
370
    -2
100
AcDbLine
 10
11404.34510545911
 20
5115.839544009769
 30
0.0
 11
11823.87763092783
 21
5115.839544009769
 31
0.0
  0
LINE
  5
18850
330
17CB5
100
AcDbEntity
  8
寸法
 62
     0
 48
50.0
370
    -2
100
AcDbLine
 10
11354.34510545911
 20
5115.839544009769
 30
0.0
 11
11404.34510545911
 21
5115.839544009769
 31
0.0
  0
INSERT
  5
18851
330
17CB5
100
AcDbEntity
  8
寸法
 62
     0
 48
50.0
370
    -2
100
AcDbBlockReference
  2
_DOTSMALL
 10
11354.34510545911
 20
5115.839544009769
 30
0.0
 41
100.0
 42
100.0
 43
100.0
  0
INSERT
  5
18852
330
17CB5
100
AcDbEntity
  8
寸法
 62
     0
 48
50.0
370
    -2
100
AcDbBlockReference
  2
_DOTSMALL
 10
11404.34510545911
 20
5115.839544009769
 30
0.0
 41
100.0
 42
100.0
 43
100.0
 50
180.0
  0
MTEXT
  5
18853
330
17CB5
100
AcDbEntity
  8
寸法
 62
     7
 48
50.0
100
AcDbMText
 10
11717.83038683334
 20
5215.839544009769
 30
0.0
 40
120.0
 41
0.0
 71
     5
 72
     1
  1
\A1;50
  7
STYLE1
 73
     1
 44
1.0
1001
ACAD
1000
MTEXTBEGIN
1070
    73
1070
     1
1070
    44
1040
1.0
1070
    74
1070
     0
1000
MTEXTEND
  0
POINT
  5
18854
330
17CB5
100
AcDbEntity
  8
DEFPOINTS
 62
     0
 48
50.0
100
AcDbPoint
 10
11404.34510545911
 20
4716.746374670298
 30
0.0
  0
POINT
  5
18855
330
17CB5
100
AcDbEntity
  8
DEFPOINTS
 62
     0
 48
50.0
100
AcDbPoint
 10
11354.34510545911
 20
4716.746374670301
 30
0.0
  0
POINT
  5
18856
330
17CB5
100
AcDbEntity
  8
DEFPOINTS
 62
     0
 48
50.0
100
AcDbPoint
 10
11354.34510545911
 20
5115.839544009769
 30
0.0
  0
ENDBLK
  5
17CC2
330
17CB5
100
AcDbEntity
  8
0
 48
50.0
100
AcDbBlockEnd
  0
BLOCK
  5
17CCF
330
17CC3
100
AcDbEntity
  8
0
 48
50.0
100
AcDbBlockBegin
  2
*D3
 70
     1
 10
0.0
 20
0.0
 30
0.0
  3
*D3
  1

  0
LINE
  5
18841
330
17CC3
100
AcDbEntity
  8
寸法
 62
     0
 48
50.0
370
    -2
100
AcDbLine
 10
8304.345105459111
 20
4736.746374670302
 30
0.0
 11
8304.345105459111
 21
5175.839544009769
 31
0.0
  0
LINE
  5
18842
330
17CC3
100
AcDbEntity
  8
寸法
 62
     0
 48
50.0
370
    -2
100
AcDbLine
 10
8254.345105459112
 20
4736.746374670302
 30
0.0
 11
8254.345105459112
 21
5175.839544009769
 31
0.0
  0
LINE
  5
18843
330
17CC3
100
AcDbEntity
  8
寸法
 62
     0
 48
50.0
370
    -2
100
AcDbLine
 10
8304.345105459111
 20
5115.839544009769
 30
0.0
 11
8404.345105459112
 21
5115.839544009769
 31
0.0
  0
LINE
  5
18844
330
17CC3
100
AcDbEntity
  8
寸法
 62
     0
 48
50.0
370
    -2
100
AcDbLine
 10
8254.345105459112
 20
5115.839544009769
 30
0.0
 11
7834.812579990376
 21
5115.839544009769
 31
0.0
  0
LINE
  5
18845
330
17CC3
100
AcDbEntity
  8
寸法
 62
     0
 48
50.0
370
    -2
100
AcDbLine
 10
8304.345105459111
 20
5115.839544009769
 30
0.0
 11
8254.345105459112
 21
5115.839544009769
 31
0.0
  0
INSERT
  5
18846
330
17CC3
100
AcDbEntity
  8
寸法
 62
     0
 48
50.0
370
    -2
100
AcDbBlockReference
  2
_DOTSMALL
 10
8304.345105459111
 20
5115.839544009769
 30
0.0
 41
100.0
 42
100.0
 43
100.0
 50
180.0
  0
INSERT
  5
18847
330
17CC3
100
AcDbEntity
  8
寸法
 62
     0
 48
50.0
370
    -2
100
AcDbBlockReference
  2
_DOTSMALL
 10
8254.345105459112
 20
5115.839544009769
 30
0.0
 41
100.0
 42
100.0
 43
100.0
  0
MTEXT
  5
18848
330
17CC3
100
AcDbEntity
  8
寸法
 62
     7
 48
50.0
100
AcDbMText
 10
7940.859824084864
 20
5215.839544009769
 30
0.0
 40
120.0
 41
0.0
 71
     5
 72
     1
  1
\A1;50
  7
STYLE1
 73
     1
 44
1.0
1001
ACAD
1000
MTEXTBEGIN
1070
    73
1070
     1
1070
    44
1040
1.0
1070
    74
1070
     0
1000
MTEXTEND
  0
POINT
  5
18849
330
17CC3
100
AcDbEntity
  8
DEFPOINTS
 62
     0
 48
50.0
100
AcDbPoint
 10
8304.345105459111
 20
4716.746374670303
 30
0.0
  0
POINT
  5
1884A
330
17CC3
100
AcDbEntity
  8
DEFPOINTS
 62
     0
 48
50.0
100
AcDbPoint
 10
8254.345105459112
 20
4716.746374670301
 30
0.0
  0
POINT
  5
1884B
330
17CC3
100
AcDbEntity
  8
DEFPOINTS
 62
     0
 48
50.0
100
AcDbPoint
 10
8254.345105459112
 20
5115.839544009769
 30
0.0
  0
ENDBLK
  5
17CD0
330
17CC3
100
AcDbEntity
  8
0
 48
50.0
100
AcDbBlockEnd
  0
BLOCK
  5
17CDB
330
17CD1
100
AcDbEntity
  8
0
 48
50.0
100
AcDbBlockBegin
  2
*D4
 70
     1
 10
0.0
 20
0.0
 30
0.0
  3
*D4
  1

  0
LINE
  5
18838
330
17CD1
100
AcDbEntity
  8
寸法
 62
     0
 48
50.0
370
    -2
100
AcDbLine
 10
8254.345105459112
 20
4736.746374670302
 30
0.0
 11
8254.345105459112
 21
5392.365643628214
 31
0.0
  0
LINE
  5
18839
330
17CD1
100
AcDbEntity
  8
寸法
 62
     0
 48
50.0
370
    -2
100
AcDbLine
 10
11404.34510545911
 20
4736.746374670299
 30
0.0
 11
11404.34510545911
 21
5392.365643628214
 31
0.0
  0
LINE
  5
1883A
330
17CD1
100
AcDbEntity
  8
寸法
 62
     0
 48
50.0
370
    -2
100
AcDbLine
 10
8254.345105459112
 20
5332.365643628214
 30
0.0
 11
11404.34510545911
 21
5332.365643628214
 31
0.0
  0
INSERT
  5
1883B
330
17CD1
100
AcDbEntity
  8
寸法
 62
     0
 48
50.0
370
    -2
100
AcDbBlockReference
  2
_DOTSMALL
 10
8254.345105459112
 20
5332.365643628214
 30
0.0
 41
100.0
 42
100.0
 43
100.0
 50
180.0
  0
INSERT
  5
1883C
330
17CD1
100
AcDbEntity
  8
寸法
 62
     0
 48
50.0
370
    -2
100
AcDbBlockReference
  2
_DOTSMALL
 10
11404.34510545911
 20
5332.365643628214
 30
0.0
 41
100.0
 42
100.0
 43
100.0
  0
MTEXT
  5
1883D
330
17CD1
100
AcDbEntity
  8
寸法
 62
     7
 48
50.0
100
AcDbMText
 10
9829.345105459111
 20
5432.365643628214
 30
0.0
 40
120.0
 41
0.0
 71
     5
 72
     1
  1
\A1;3150
  7
STYLE1
 73
     1
 44
1.0
1001
ACAD
1000
MTEXTBEGIN
1070
    73
1070
     1
1070
    44
1040
1.0
1070
    74
1070
     0
1000
MTEXTEND
  0
POINT
  5
1883E
330
17CD1
100
AcDbEntity
  8
DEFPOINTS
 62
     0
 48
50.0
100
AcDbPoint
 10
8254.345105459112
 20
4716.746374670301
 30
0.0
  0
POINT
  5
1883F
330
17CD1
100
AcDbEntity
  8
DEFPOINTS
 62
     0
 48
50.0
100
AcDbPoint
 10
11404.34510545911
 20
4716.746374670298
 30
0.0
  0
POINT
  5
18840
330
17CD1
100
AcDbEntity
  8
DEFPOINTS
 62
     0
 48
50.0
100
AcDbPoint
 10
11404.34510545911
 20
5332.365643628214
 30
0.0
  0
ENDBLK
  5
17CDC
330
17CD1
100
AcDbEntity
  8
0
 48
50.0
100
AcDbBlockEnd
  0
BLOCK
  5
17CE7
330
17CDD
100
AcDbEntity
  8
0
 48
50.0
100
AcDbBlockBegin
  2
*D5
 70
     1
 10
0.0
 20
0.0
 30
0.0
  3
*D5
  1

  0
LINE
  5
1882F
330
17CDD
100
AcDbEntity
  8
寸法
 62
     0
 48
50.0
370
    -2
100
AcDbLine
 10
11354.34510545911
 20
4736.746374670302
 30
0.0
 11
11354.34510545911
 21
5175.839544009768
 31
0.0
  0
LINE
  5
18830
330
17CDD
100
AcDbEntity
  8
寸法
 62
     0
 48
50.0
370
    -2
100
AcDbLine
 10
8304.345105459111
 20
4736.746374670302
 30
0.0
 11
8304.345105459111
 21
5175.839544009768
 31
0.0
  0
LINE
  5
18831
330
17CDD
100
AcDbEntity
  8
寸法
 62
     0
 48
50.0
370
    -2
100
AcDbLine
 10
11354.34510545911
 20
5115.839544009769
 30
0.0
 11
8304.345105459111
 21
5115.839544009769
 31
0.0
  0
INSERT
  5
18832
330
17CDD
100
AcDbEntity
  8
寸法
 62
     0
 48
50.0
370
    -2
100
AcDbBlockReference
  2
_DOTSMALL
 10
11354.34510545911
 20
5115.839544009769
 30
0.0
 41
100.0
 42
100.0
 43
100.0
  0
INSERT
  5
18833
330
17CDD
100
AcDbEntity
  8
寸法
 62
     0
 48
50.0
370
    -2
100
AcDbBlockReference
  2
_DOTSMALL
 10
8304.345105459111
 20
5115.839544009769
 30
0.0
 41
100.0
 42
100.0
 43
100.0
 50
180.0
  0
MTEXT
  5
18834
330
17CDD
100
AcDbEntity
  8
寸法
 62
     7
 48
50.0
100
AcDbMText
 10
9829.345105459111
 20
5215.839544009768
 30
0.0
 40
120.0
 41
0.0
 71
     5
 72
     1
  1
\A1;柱外寸法3050
  7
STYLE1
 73
     1
 44
1.0
1001
ACAD
1000
MTEXTBEGIN
1070
    73
1070
     1
1070
    44
1040
1.0
1070
    74
1070
     0
1000
MTEXTEND
  0
POINT
  5
18835
330
17CDD
100
AcDbEntity
  8
DEFPOINTS
 62
     0
 48
50.0
100
AcDbPoint
 10
11354.34510545911
 20
4716.746374670301
 30
0.0
  0
POINT
  5
18836
330
17CDD
100
AcDbEntity
  8
DEFPOINTS
 62
     0
 48
50.0
100
AcDbPoint
 10
8304.345105459111
 20
4716.746374670303
 30
0.0
  0
POINT
  5
18837
330
17CDD
100
AcDbEntity
  8
DEFPOINTS
 62
     0
 48
50.0
100
AcDbPoint
 10
8304.345105459111
 20
5115.839544009769
 30
0.0
  0
ENDBLK
  5
17CE8
330
17CDD
100
AcDbEntity
  8
0
 48
50.0
100
AcDbBlockEnd
  0
BLOCK
  5
17D8E
330
17D82
100
AcDbEntity
  8
0
 48
50.0
100
AcDbBlockBegin
  2
*D6
 70
     1
 10
0.0
 20
0.0
 30
0.0
  3
*D6
  1

  0
LINE
  5
19507
330
17D82
100
AcDbEntity
  8
寸法
 62
     0
 48
50.0
370
    -2
100
AcDbLine
 10
11374.34510545912
 20
9524.694702477441
 30
0.0
 11
12114.34510545912
 21
9524.694702477441
 31
0.0
  0
LINE
  5
19508
330
17D82
100
AcDbEntity
  8
寸法
 62
     0
 48
50.0
370
    -2
100
AcDbLine
 10
11374.34510545912
 20
9469.694702477445
 30
0.0
 11
12114.34510545912
 21
9469.694702477445
 31
0.0
  0
LINE
  5
19509
330
17D82
100
AcDbEntity
  8
寸法
 62
     0
 48
50.0
370
    -2
100
AcDbLine
 10
12054.34510545912
 20
9469.694702477445
 30
0.0
 11
12054.34510545912
 21
9369.694702477445
 31
0.0
  0
LINE
  5
1950A
330
17D82
100
AcDbEntity
  8
寸法
 62
     0
 48
50.0
370
    -2
100
AcDbLine
 10
12054.34510545912
 20
9524.694702477441
 30
0.0
 11
12054.34510545912
 21
9941.665265225919
 31
0.0
  0
LINE
  5
1950B
330
17D82
100
AcDbEntity
  8
寸法
 62
     0
 48
50.0
370
    -2
100
AcDbLine
 10
12054.34510545912
 20
9469.694702477445
 30
0.0
 11
12054.34510545912
 21
9524.694702477441
 31
0.0
  0
INSERT
  5
1950C
330
17D82
100
AcDbEntity
  8
寸法
 62
     0
 48
50.0
370
    -2
100
AcDbBlockReference
  2
_DOTSMALL
 10
12054.34510545912
 20
9469.694702477445
 30
0.0
 41
100.0
 42
100.0
 43
100.0
 50
90.0
  0
INSERT
  5
1950D
330
17D82
100
AcDbEntity
  8
寸法
 62
     0
 48
50.0
370
    -2
100
AcDbBlockReference
  2
_DOTSMALL
 10
12054.34510545912
 20
9524.694702477441
 30
0.0
 41
100.0
 42
100.0
 43
100.0
 50
270.0
  0
MTEXT
  5
1950E
330
17D82
100
AcDbEntity
  8
寸法
 62
     7
 48
50.0
100
AcDbMText
 10
11954.34510545912
 20
9833.179983851682
 30
0.0
 40
120.0
 41
0.0
 71
     5
 72
     1
  1
\A1;55
  7
STYLE1
 11
0.0000000000000001
 21
1.0
 31
0.0
 73
     1
 44
1.0
1001
ACAD
1000
MTEXTBEGIN
1070
    73
1070
     1
1070
    44
1040
1.0
1070
    74
1070
     0
1000
MTEXTEND
  0
POINT
  5
1950F
330
17D82
100
AcDbEntity
  8
DEFPOINTS
 62
     0
 48
50.0
100
AcDbPoint
 10
11354.34510545912
 20
9524.694702477441
 30
0.0
  0
POINT
  5
19510
330
17D82
100
AcDbEntity
  8
DEFPOINTS
 62
     0
 48
50.0
100
AcDbPoint
 10
11354.34510545912
 20
9469.694702477445
 30
0.0
  0
POINT
  5
19511
330
17D82
100
AcDbEntity
  8
DEFPOINTS
 62
     0
 48
50.0
100
AcDbPoint
 10
12054.34510545912
 20
9469.694702477445
 30
0.0
  0
ENDBLK
  5
17D8F
330
17D82
100
AcDbEntity
  8
0
 48
50.0
100
AcDbBlockEnd
  0
BLOCK
  5
17D9C
330
17D90
100
AcDbEntity
  8
0
 48
50.0
100
AcDbBlockBegin
  2
*D7
 70
     1
 10
0.0
 20
0.0
 30
0.0
  3
*D7
  1

  0
LINE
  5
194FC
330
17D90
100
AcDbEntity
  8
寸法
 62
     0
 48
50.0
370
    -2
100
AcDbLine
 10
11299.34510545912
 20
9544.694702477441
 30
0.0
 11
11299.34510545912
 21
10084.69470247744
 31
0.0
  0
LINE
  5
194FD
330
17D90
100
AcDbEntity
  8
寸法
 62
     0
 48
50.0
370
    -2
100
AcDbLine
 10
11354.34510545912
 20
9544.694702477441
 30
0.0
 11
11354.34510545912
 21
10084.69470247744
 31
0.0
  0
LINE
  5
194FE
330
17D90
100
AcDbEntity
  8
寸法
 62
     0
 48
50.0
370
    -2
100
AcDbLine
 10
11299.34510545912
 20
10024.69470247744
 30
0.0
 11
11199.34510545912
 21
10024.69470247744
 31
0.0
  0
LINE
  5
194FF
330
17D90
100
AcDbEntity
  8
寸法
 62
     0
 48
50.0
370
    -2
100
AcDbLine
 10
11354.34510545912
 20
10024.69470247744
 30
0.0
 11
11771.3156682076
 21
10024.69470247744
 31
0.0
  0
LINE
  5
19500
330
17D90
100
AcDbEntity
  8
寸法
 62
     0
 48
50.0
370
    -2
100
AcDbLine
 10
11299.34510545912
 20
10024.69470247744
 30
0.0
 11
11354.34510545912
 21
10024.69470247744
 31
0.0
  0
INSERT
  5
19501
330
17D90
100
AcDbEntity
  8
寸法
 62
     0
 48
50.0
370
    -2
100
AcDbBlockReference
  2
_DOTSMALL
 10
11299.34510545912
 20
10024.69470247744
 30
0.0
 41
100.0
 42
100.0
 43
100.0
  0
INSERT
  5
19502
330
17D90
100
AcDbEntity
  8
寸法
 62
     0
 48
50.0
370
    -2
100
AcDbBlockReference
  2
_DOTSMALL
 10
11354.34510545912
 20
10024.69470247744
 30
0.0
 41
100.0
 42
100.0
 43
100.0
 50
180.0
  0
MTEXT
  5
19503
330
17D90
100
AcDbEntity
  8
寸法
 62
     7
 48
50.0
100
AcDbMText
 10
11662.83038683336
 20
10124.69470247744
 30
0.0
 40
120.0
 41
0.0
 71
     5
 72
     1
  1
\A1;55
  7
STYLE1
 73
     1
 44
1.0
1001
ACAD
1000
MTEXTBEGIN
1070
    73
1070
     1
1070
    44
1040
1.0
1070
    74
1070
     0
1000
MTEXTEND
  0
POINT
  5
19504
330
17D90
100
AcDbEntity
  8
DEFPOINTS
 62
     0
 48
50.0
100
AcDbPoint
 10
11299.34510545912
 20
9524.694702477441
 30
0.0
  0
POINT
  5
19505
330
17D90
100
AcDbEntity
  8
DEFPOINTS
 62
     0
 48
50.0
100
AcDbPoint
 10
11354.34510545912
 20
9524.694702477441
 30
0.0
  0
POINT
  5
19506
330
17D90
100
AcDbEntity
  8
DEFPOINTS
 62
     0
 48
50.0
100
AcDbPoint
 10
11354.34510545912
 20
10024.69470247744
 30
0.0
  0
ENDBLK
  5
17D9D
330
17D90
100
AcDbEntity
  8
0
 48
50.0
100
AcDbBlockEnd
  0
BLOCK
  5
17DA8
330
17D9E
100
AcDbEntity
  8
0
 48
50.0
100
AcDbBlockBegin
  2
*D8
 70
     1
 10
0.0
 20
0.0
 30
0.0
  3
*D8
  1

  0
LINE
  5
194F3
330
17D9E
100
AcDbEntity
  8
寸法
 62
     0
 48
50.0
370
    -2
100
AcDbLine
 10
11345.84510545912
 20
9489.33571862882
 30
0.0
 11
11814.34510545911
 21
9363.80152197484
 31
0.0
  0
LINE
  5
194F4
330
17D9E
100
AcDbEntity
  8
寸法
 62
     0
 48
50.0
370
    -2
100
AcDbLine
 10
11345.84510545912
 20
9039.335718628823
 30
0.0
 11
11814.34510545911
 21
8913.801521974844
 31
0.0
  0
LINE
  5
194F5
330
17D9E
100
AcDbEntity
  8
寸法
 62
     0
 48
50.0
370
    -2
100
AcDbLine
 10
11754.34510545911
 20
9379.878473520706
 30
0.0
 11
11754.34510545911
 21
8929.878473520711
 31
0.0
  0
INSERT
  5
194F6
330
17D9E
100
AcDbEntity
  8
寸法
 62
     0
 48
50.0
370
    -2
100
AcDbBlockReference
  2
_DOTSMALL
 10
11754.34510545911
 20
9379.878473520706
 30
0.0
 41
100.0
 42
100.0
 43
100.0
 50
90.0
  0
INSERT
  5
194F7
330
17D9E
100
AcDbEntity
  8
寸法
 62
     0
 48
50.0
370
    -2
100
AcDbBlockReference
  2
_DOTSMALL
 10
11754.34510545911
 20
8929.878473520711
 30
0.0
 41
100.0
 42
100.0
 43
100.0
 50
270.0
  0
MTEXT
  5
194F8
330
17D9E
100
AcDbEntity
  8
寸法
 62
     7
 48
50.0
100
AcDbMText
 10
11654.34510545911
 20
9154.878473520708
 30
0.0
 40
120.0
 41
0.0
 71
     5
 72
     1
  1
\A1;450
  7
STYLE1
 11
0.0000000000000001
 21
1.0
 31
0.0
 73
     1
 44
1.0
1001
ACAD
1000
MTEXTBEGIN
1070
    73
1070
     1
1070
    44
1040
1.0
1070
    74
1070
     0
1000
MTEXTEND
  0
POINT
  5
194F9
330
17D9E
100
AcDbEntity
  8
DEFPOINTS
 62
     0
 48
50.0
100
AcDbPoint
 10
11325.84510545912
 20
9494.694702477442
 30
0.0
  0
POINT
  5
194FA
330
17D9E
100
AcDbEntity
  8
DEFPOINTS
 62
     0
 48
50.0
100
AcDbPoint
 10
11325.84510545912
 20
9044.694702477446
 30
0.0
  0
POINT
  5
194FB
330
17D9E
100
AcDbEntity
  8
DEFPOINTS
 62
     0
 48
50.0
100
AcDbPoint
 10
11754.34510545911
 20
8929.878473520711
 30
0.0
  0
ENDBLK
  5
17DA9
330
17D9E
100
AcDbEntity
  8
0
 48
50.0
100
AcDbBlockEnd
  0
BLOCK
  5
17DB6
330
17DAA
100
AcDbEntity
  8
0
 48
50.0
100
AcDbBlockBegin
  2
*D9
 70
     1
 10
0.0
 20
0.0
 30
0.0
  3
*D9
  1

  0
LINE
  5
194E8
330
17DAA
100
AcDbEntity
  8
寸法
 62
     0
 48
50.0
370
    -2
100
AcDbLine
 10
11374.34510545909
 20
7789.69470247743
 30
0.0
 11
12114.34510545909
 21
7789.69470247743
 31
0.0
  0
LINE
  5
194E9
330
17DAA
100
AcDbEntity
  8
寸法
 62
     0
 48
50.0
370
    -2
100
AcDbLine
 10
11374.34510545909
 20
7734.694702477433
 30
0.0
 11
12114.34510545909
 21
7734.694702477433
 31
0.0
  0
LINE
  5
194EA
330
17DAA
100
AcDbEntity
  8
寸法
 62
     0
 48
50.0
370
    -2
100
AcDbLine
 10
12054.34510545909
 20
7789.69470247743
 30
0.0
 11
12054.34510545909
 21
7889.694702477431
 31
0.0
  0
LINE
  5
194EB
330
17DAA
100
AcDbEntity
  8
寸法
 62
     0
 48
50.0
370
    -2
100
AcDbLine
 10
12054.34510545909
 20
7734.694702477433
 30
0.0
 11
12054.34510545909
 21
7317.724139728953
 31
0.0
  0
LINE
  5
194EC
330
17DAA
100
AcDbEntity
  8
寸法
 62
     0
 48
50.0
370
    -2
100
AcDbLine
 10
12054.34510545909
 20
7789.69470247743
 30
0.0
 11
12054.34510545909
 21
7734.694702477433
 31
0.0
  0
INSERT
  5
194ED
330
17DAA
100
AcDbEntity
  8
寸法
 62
     0
 48
50.0
370
    -2
100
AcDbBlockReference
  2
_DOTSMALL
 10
12054.34510545909
 20
7789.69470247743
 30
0.0
 41
100.0
 42
100.0
 43
100.0
 50
270.0
  0
INSERT
  5
194EE
330
17DAA
100
AcDbEntity
  8
寸法
 62
     0
 48
50.0
370
    -2
100
AcDbBlockReference
  2
_DOTSMALL
 10
12054.34510545909
 20
7734.694702477433
 30
0.0
 41
100.0
 42
100.0
 43
100.0
 50
90.0
  0
MTEXT
  5
194EF
330
17DAA
100
AcDbEntity
  8
寸法
 62
     7
 48
50.0
100
AcDbMText
 10
11954.34510545909
 20
7426.209421103194
 30
0.0
 40
120.0
 41
0.0
 71
     5
 72
     1
  1
\A1;55
  7
STYLE1
 11
0.0000000000000001
 21
1.0
 31
0.0
 73
     1
 44
1.0
1001
ACAD
1000
MTEXTBEGIN
1070
    73
1070
     1
1070
    44
1040
1.0
1070
    74
1070
     0
1000
MTEXTEND
  0
POINT
  5
194F0
330
17DAA
100
AcDbEntity
  8
DEFPOINTS
 62
     0
 48
50.0
100
AcDbPoint
 10
11354.34510545909
 20
7789.69470247743
 30
0.0
  0
POINT
  5
194F1
330
17DAA
100
AcDbEntity
  8
DEFPOINTS
 62
     0
 48
50.0
100
AcDbPoint
 10
11354.34510545909
 20
7734.694702477433
 30
0.0
  0
POINT
  5
194F2
330
17DAA
100
AcDbEntity
  8
DEFPOINTS
 62
     0
 48
50.0
100
AcDbPoint
 10
12054.34510545909
 20
7734.694702477433
 30
0.0
  0
ENDBLK
  5
17DB7
330
17DAA
100
AcDbEntity
  8
0
 48
50.0
100
AcDbBlockEnd
  0
BLOCK
  5
17DC2
330
17DB8
100
AcDbEntity
  8
0
 48
50.0
100
AcDbBlockBegin
  2
*D10
 70
     1
 10
0.0
 20
0.0
 30
0.0
  3
*D10
  1

  0
LINE
  5
194DF
330
17DB8
100
AcDbEntity
  8
寸法
 62
     0
 48
50.0
370
    -2
100
AcDbLine
 10
11374.34510545912
 20
9469.694702477445
 30
0.0
 11
12114.34510545911
 21
9469.694702477445
 31
0.0
  0
LINE
  5
194E0
330
17DB8
100
AcDbEntity
  8
寸法
 62
     0
 48
50.0
370
    -2
100
AcDbLine
 10
11374.34510545909
 20
7789.69470247743
 30
0.0
 11
12114.34510545911
 21
7789.69470247743
 31
0.0
  0
LINE
  5
194E1
330
17DB8
100
AcDbEntity
  8
寸法
 62
     0
 48
50.0
370
    -2
100
AcDbLine
 10
12054.34510545911
 20
9469.694702477445
 30
0.0
 11
12054.34510545911
 21
7789.69470247743
 31
0.0
  0
INSERT
  5
194E2
330
17DB8
100
AcDbEntity
  8
寸法
 62
     0
 48
50.0
370
    -2
100
AcDbBlockReference
  2
_DOTSMALL
 10
12054.34510545911
 20
9469.694702477445
 30
0.0
 41
100.0
 42
100.0
 43
100.0
 50
90.0
  0
INSERT
  5
194E3
330
17DB8
100
AcDbEntity
  8
寸法
 62
     0
 48
50.0
370
    -2
100
AcDbBlockReference
  2
_DOTSMALL
 10
12054.34510545911
 20
7789.69470247743
 30
0.0
 41
100.0
 42
100.0
 43
100.0
 50
270.0
  0
MTEXT
  5
194E4
330
17DB8
100
AcDbEntity
  8
寸法
 62
     7
 48
50.0
100
AcDbMText
 10
11954.33329443548
 20
8629.694702477438
 30
0.0
 40
120.0
 41
0.0
 71
     5
 72
     1
  1
\A1;4X420=1680
  7
STYLE1
 11
0.0000000000000001
 21
1.0
 31
0.0
 73
     1
 44
1.0
1001
ACAD
1000
MTEXTBEGIN
1070
    73
1070
     1
1070
    44
1040
1.0
1070
    74
1070
     0
1000
MTEXTEND
  0
POINT
  5
194E5
330
17DB8
100
AcDbEntity
  8
DEFPOINTS
 62
     0
 48
50.0
100
AcDbPoint
 10
11354.34510545912
 20
9469.694702477445
 30
0.0
  0
POINT
  5
194E6
330
17DB8
100
AcDbEntity
  8
DEFPOINTS
 62
     0
 48
50.0
100
AcDbPoint
 10
11354.34510545909
 20
7789.69470247743
 30
0.0
  0
POINT
  5
194E7
330
17DB8
100
AcDbEntity
  8
DEFPOINTS
 62
     0
 48
50.0
100
AcDbPoint
 10
12054.34510545911
 20
7789.69470247743
 30
0.0
  0
ENDBLK
  5
17DC3
330
17DB8
100
AcDbEntity
  8
0
 48
50.0
100
AcDbBlockEnd
  0
BLOCK
  5
17DCE
330
17DC4
100
AcDbEntity
  8
0
 48
50.0
100
AcDbBlockBegin
  2
*D11
 70
     1
 10
0.0
 20
0.0
 30
0.0
  3
*D11
  1

  0
LINE
  5
194D6
330
17DC4
100
AcDbEntity
  8
寸法
 62
     0
 48
50.0
370
    -2
100
AcDbLine
 10
11374.34510545912
 20
9524.694702477441
 30
0.0
 11
12414.34510545911
 21
9524.694702477439
 31
0.0
  0
LINE
  5
194D7
330
17DC4
100
AcDbEntity
  8
寸法
 62
     0
 48
50.0
370
    -2
100
AcDbLine
 10
11374.34510545909
 20
7734.694702477433
 30
0.0
 11
12414.34510545911
 21
7734.694702477433
 31
0.0
  0
LINE
  5
194D8
330
17DC4
100
AcDbEntity
  8
寸法
 62
     0
 48
50.0
370
    -2
100
AcDbLine
 10
12354.34510545911
 20
9524.694702477439
 30
0.0
 11
12354.34510545911
 21
7734.694702477433
 31
0.0
  0
INSERT
  5
194D9
330
17DC4
100
AcDbEntity
  8
寸法
 62
     0
 48
50.0
370
    -2
100
AcDbBlockReference
  2
_DOTSMALL
 10
12354.34510545911
 20
9524.694702477439
 30
0.0
 41
100.0
 42
100.0
 43
100.0
 50
90.0
  0
INSERT
  5
194DA
330
17DC4
100
AcDbEntity
  8
寸法
 62
     0
 48
50.0
370
    -2
100
AcDbBlockReference
  2
_DOTSMALL
 10
12354.34510545911
 20
7734.694702477433
 30
0.0
 41
100.0
 42
100.0
 43
100.0
 50
270.0
  0
MTEXT
  5
194DB
330
17DC4
100
AcDbEntity
  8
寸法
 62
     7
 48
50.0
100
AcDbMText
 10
12254.34510545911
 20
8629.694702477438
 30
0.0
 40
120.0
 41
0.0
 71
     5
 72
     1
  1
\A1;1790
  7
STYLE1
 11
0.0000000000000001
 21
1.0
 31
0.0
 73
     1
 44
1.0
1001
ACAD
1000
MTEXTBEGIN
1070
    73
1070
     1
1070
    44
1040
1.0
1070
    74
1070
     0
1000
MTEXTEND
  0
POINT
  5
194DC
330
17DC4
100
AcDbEntity
  8
DEFPOINTS
 62
     0
 48
50.0
100
AcDbPoint
 10
11354.34510545912
 20
9524.694702477441
 30
0.0
  0
POINT
  5
194DD
330
17DC4
100
AcDbEntity
  8
DEFPOINTS
 62
     0
 48
50.0
100
AcDbPoint
 10
11354.34510545909
 20
7734.694702477433
 30
0.0
  0
POINT
  5
194DE
330
17DC4
100
AcDbEntity
  8
DEFPOINTS
 62
     0
 48
50.0
100
AcDbPoint
 10
12354.34510545911
 20
7734.694702477433
 30
0.0
  0
ENDBLK
  5
17DCF
330
17DC4
100
AcDbEntity
  8
0
 48
50.0
100
AcDbBlockEnd
  0
BLOCK
  5
17DDA
330
17DD0
100
AcDbEntity
  8
0
 48
50.0
100
AcDbBlockBegin
  2
*D12
 70
     1
 10
0.0
 20
0.0
 30
0.0
  3
*D12
  1

  0
LINE
  5
194CD
330
17DD0
100
AcDbEntity
  8
寸法
 62
     0
 48
50.0
370
    -2
100
AcDbLine
 10
9837.486121610488
 20
9024.694702477518
 30
0.0
 11
9755.838147594559
 21
8719.980315115005
 31
0.0
  0
LINE
  5
194CE
330
17DD0
100
AcDbEntity
  8
寸法
 62
     0
 48
50.0
370
    -2
100
AcDbLine
 10
11320.4861216105
 20
9024.694702477511
 30
0.0
 11
11238.83814759457
 21
8719.980315115005
 31
0.0
  0
LINE
  5
194CF
330
17DD0
100
AcDbEntity
  8
寸法
 62
     0
 48
50.0
370
    -2
100
AcDbLine
 10
9771.915099140427
 20
8779.980315115004
 30
0.0
 11
11254.91509914044
 21
8779.980315115004
 31
0.0
  0
INSERT
  5
194D0
330
17DD0
100
AcDbEntity
  8
寸法
 62
     0
 48
50.0
370
    -2
100
AcDbBlockReference
  2
_DOTSMALL
 10
9771.915099140427
 20
8779.980315115004
 30
0.0
 41
100.0
 42
100.0
 43
100.0
 50
180.0
  0
INSERT
  5
194D1
330
17DD0
100
AcDbEntity
  8
寸法
 62
     0
 48
50.0
370
    -2
100
AcDbBlockReference
  2
_DOTSMALL
 10
11254.91509914044
 20
8779.980315115004
 30
0.0
 41
100.0
 42
100.0
 43
100.0
  0
MTEXT
  5
194D2
330
17DD0
100
AcDbEntity
  8
寸法
 62
     7
 48
50.0
100
AcDbMText
 10
10354.40881645716
 20
8879.980315115004
 30
0.0
 40
120.0
 41
0.0
 71
     5
 72
     1
  1
\A1;1483
  7
STYLE1
 73
     1
 44
1.0
1001
ACAD
1000
MTEXTBEGIN
1070
    73
1070
     1
1070
    44
1040
1.0
1070
    74
1070
     0
1000
MTEXTEND
  0
POINT
  5
194D3
330
17DD0
100
AcDbEntity
  8
DEFPOINTS
 62
     0
 48
50.0
100
AcDbPoint
 10
9842.845105459112
 20
9044.694702477519
 30
0.0
  0
POINT
  5
194D4
330
17DD0
100
AcDbEntity
  8
DEFPOINTS
 62
     0
 48
50.0
100
AcDbPoint
 10
11325.84510545912
 20
9044.694702477512
 30
0.0
  0
POINT
  5
194D5
330
17DD0
100
AcDbEntity
  8
DEFPOINTS
 62
     0
 48
50.0
100
AcDbPoint
 10
11254.91509914044
 20
8779.980315115004
 30
0.0
  0
ENDBLK
  5
17DDB
330
17DD0
100
AcDbEntity
  8
0
 48
50.0
100
AcDbBlockEnd
  0
BLOCK
  5
17DE8
330
17DDC
100
AcDbEntity
  8
0
 48
50.0
100
AcDbBlockBegin
  2
*D13
 70
     1
 10
0.0
 20
0.0
 30
0.0
  3
*D13
  1

  0
LINE
  5
194C2
330
17DDC
100
AcDbEntity
  8
寸法
 62
     0
 48
50.0
370
    -2
100
AcDbLine
 10
8304.345105459086
 20
9544.694702477348
 30
0.0
 11
8304.345105459086
 21
10084.69470247735
 31
0.0
  0
LINE
  5
194C3
330
17DDC
100
AcDbEntity
  8
寸法
 62
     0
 48
50.0
370
    -2
100
AcDbLine
 10
8359.345105459118
 20
9544.694702477348
 30
0.0
 11
8359.345105459118
 21
10084.69470247735
 31
0.0
  0
LINE
  5
194C4
330
17DDC
100
AcDbEntity
  8
寸法
 62
     0
 48
50.0
370
    -2
100
AcDbLine
 10
8359.345105459118
 20
10024.69470247735
 30
0.0
 11
8459.345105459119
 21
10024.69470247735
 31
0.0
  0
LINE
  5
194C5
330
17DDC
100
AcDbEntity
  8
寸法
 62
     0
 48
50.0
370
    -2
100
AcDbLine
 10
8304.345105459086
 20
10024.69470247735
 30
0.0
 11
7887.374542710607
 21
10024.69470247735
 31
0.0
  0
LINE
  5
194C6
330
17DDC
100
AcDbEntity
  8
寸法
 62
     0
 48
50.0
370
    -2
100
AcDbLine
 10
8359.345105459118
 20
10024.69470247735
 30
0.0
 11
8304.345105459086
 21
10024.69470247735
 31
0.0
  0
INSERT
  5
194C7
330
17DDC
100
AcDbEntity
  8
寸法
 62
     0
 48
50.0
370
    -2
100
AcDbBlockReference
  2
_DOTSMALL
 10
8359.345105459118
 20
10024.69470247735
 30
0.0
 41
100.0
 42
100.0
 43
100.0
 50
180.0
  0
INSERT
  5
194C8
330
17DDC
100
AcDbEntity
  8
寸法
 62
     0
 48
50.0
370
    -2
100
AcDbBlockReference
  2
_DOTSMALL
 10
8304.345105459086
 20
10024.69470247735
 30
0.0
 41
100.0
 42
100.0
 43
100.0
  0
MTEXT
  5
194C9
330
17DDC
100
AcDbEntity
  8
寸法
 62
     7
 48
50.0
100
AcDbMText
 10
7995.859824084845
 20
10124.69470247735
 30
0.0
 40
120.0
 41
0.0
 71
     5
 72
     1
  1
\A1;55
  7
STYLE1
 73
     1
 44
1.0
1001
ACAD
1000
MTEXTBEGIN
1070
    73
1070
     1
1070
    44
1040
1.0
1070
    74
1070
     0
1000
MTEXTEND
  0
POINT
  5
194CA
330
17DDC
100
AcDbEntity
  8
DEFPOINTS
 62
     0
 48
50.0
100
AcDbPoint
 10
8304.345105459086
 20
9524.694702477347
 30
0.0
  0
POINT
  5
194CB
330
17DDC
100
AcDbEntity
  8
DEFPOINTS
 62
     0
 48
50.0
100
AcDbPoint
 10
8359.345105459118
 20
9524.694702477347
 30
0.0
  0
POINT
  5
194CC
330
17DDC
100
AcDbEntity
  8
DEFPOINTS
 62
     0
 48
50.0
100
AcDbPoint
 10
8359.345105459118
 20
10024.69470247735
 30
0.0
  0
ENDBLK
  5
17DE9
330
17DDC
100
AcDbEntity
  8
0
 48
50.0
100
AcDbBlockEnd
  0
BLOCK
  5
17E00
330
17DF6
100
AcDbEntity
  8
0
 48
50.0
100
AcDbBlockBegin
  2
*D14
 70
     1
 10
0.0
 20
0.0
 30
0.0
  3
*D14
  1

  0
LINE
  5
194B9
330
17DF6
100
AcDbEntity
  8
寸法
 62
     0
 48
50.0
370
    -2
100
AcDbLine
 10
8359.345105459118
 20
9544.694702477348
 30
0.0
 11
8359.345105459118
 21
10084.69470247739
 31
0.0
  0
LINE
  5
194BA
330
17DF6
100
AcDbEntity
  8
寸法
 62
     0
 48
50.0
370
    -2
100
AcDbLine
 10
11299.34510545912
 20
9544.694702477441
 30
0.0
 11
11299.34510545912
 21
10084.69470247739
 31
0.0
  0
LINE
  5
194BB
330
17DF6
100
AcDbEntity
  8
寸法
 62
     0
 48
50.0
370
    -2
100
AcDbLine
 10
8359.345105459118
 20
10024.69470247739
 30
0.0
 11
11299.34510545912
 21
10024.69470247739
 31
0.0
  0
INSERT
  5
194BC
330
17DF6
100
AcDbEntity
  8
寸法
 62
     0
 48
50.0
370
    -2
100
AcDbBlockReference
  2
_DOTSMALL
 10
8359.345105459118
 20
10024.69470247739
 30
0.0
 41
100.0
 42
100.0
 43
100.0
 50
180.0
  0
INSERT
  5
194BD
330
17DF6
100
AcDbEntity
  8
寸法
 62
     0
 48
50.0
370
    -2
100
AcDbBlockReference
  2
_DOTSMALL
 10
11299.34510545912
 20
10024.69470247739
 30
0.0
 41
100.0
 42
100.0
 43
100.0
  0
MTEXT
  5
194BE
330
17DF6
100
AcDbEntity
  8
寸法
 62
     7
 48
50.0
100
AcDbMText
 10
9829.345105459118
 20
10124.70651350101
 30
0.0
 40
120.0
 41
0.0
 71
     5
 72
     1
  1
\A1;7X420=2940
  7
STYLE1
 73
     1
 44
1.0
1001
ACAD
1000
MTEXTBEGIN
1070
    73
1070
     1
1070
    44
1040
1.0
1070
    74
1070
     0
1000
MTEXTEND
  0
POINT
  5
194BF
330
17DF6
100
AcDbEntity
  8
DEFPOINTS
 62
     0
 48
50.0
100
AcDbPoint
 10
8359.345105459118
 20
9524.694702477347
 30
0.0
  0
POINT
  5
194C0
330
17DF6
100
AcDbEntity
  8
DEFPOINTS
 62
     0
 48
50.0
100
AcDbPoint
 10
11299.34510545912
 20
9524.694702477441
 30
0.0
  0
POINT
  5
194C1
330
17DF6
100
AcDbEntity
  8
DEFPOINTS
 62
     0
 48
50.0
100
AcDbPoint
 10
11299.34510545912
 20
10024.69470247739
 30
0.0
  0
ENDBLK
  5
17E01
330
17DF6
100
AcDbEntity
  8
0
 48
50.0
100
AcDbBlockEnd
  0
BLOCK
  5
17E0C
330
17E02
100
AcDbEntity
  8
0
 48
50.0
100
AcDbBlockBegin
  2
*D15
 70
     1
 10
0.0
 20
0.0
 30
0.0
  3
*D15
  1

  0
LINE
  5
194B0
330
17E02
100
AcDbEntity
  8
寸法
 62
     0
 48
50.0
370
    -2
100
AcDbLine
 10
8327.486121610419
 20
9024.694702477459
 30
0.0
 11
8245.838147594504
 21
8719.980315115005
 31
0.0
  0
LINE
  5
194B1
330
17E02
100
AcDbEntity
  8
寸法
 62
     0
 48
50.0
370
    -2
100
AcDbLine
 10
9810.486121610491
 20
9024.694702477452
 30
0.0
 11
9728.838147594577
 21
8719.980315115005
 31
0.0
  0
LINE
  5
194B2
330
17E02
100
AcDbEntity
  8
寸法
 62
     0
 48
50.0
370
    -2
100
AcDbLine
 10
8261.915099140372
 20
8779.980315115004
 30
0.0
 11
9744.915099140447
 21
8779.980315115004
 31
0.0
  0
INSERT
  5
194B3
330
17E02
100
AcDbEntity
  8
寸法
 62
     0
 48
50.0
370
    -2
100
AcDbBlockReference
  2
_DOTSMALL
 10
8261.915099140372
 20
8779.980315115004
 30
0.0
 41
100.0
 42
100.0
 43
100.0
 50
180.0
  0
INSERT
  5
194B4
330
17E02
100
AcDbEntity
  8
寸法
 62
     0
 48
50.0
370
    -2
100
AcDbBlockReference
  2
_DOTSMALL
 10
9744.915099140447
 20
8779.980315115004
 30
0.0
 41
100.0
 42
100.0
 43
100.0
  0
MTEXT
  5
194B5
330
17E02
100
AcDbEntity
  8
寸法
 62
     7
 48
50.0
100
AcDbMText
 10
8892.530656289833
 20
8879.980315115004
 30
0.0
 40
120.0
 41
0.0
 71
     5
 72
     1
  1
\A1;1483
  7
STYLE1
 73
     1
 44
1.0
1001
ACAD
1000
MTEXTBEGIN
1070
    73
1070
     1
1070
    44
1040
1.0
1070
    74
1070
     0
1000
MTEXTEND
  0
POINT
  5
194B6
330
17E02
100
AcDbEntity
  8
DEFPOINTS
 62
     0
 48
50.0
100
AcDbPoint
 10
8332.845105459043
 20
9044.69470247746
 30
0.0
  0
POINT
  5
194B7
330
17E02
100
AcDbEntity
  8
DEFPOINTS
 62
     0
 48
50.0
100
AcDbPoint
 10
9815.845105459114
 20
9044.694702477453
 30
0.0
  0
POINT
  5
194B8
330
17E02
100
AcDbEntity
  8
DEFPOINTS
 62
     0
 48
50.0
100
AcDbPoint
 10
9744.915099140447
 20
8779.980315115004
 30
0.0
  0
ENDBLK
  5
17E0D
330
17E02
100
AcDbEntity
  8
0
 48
50.0
100
AcDbBlockEnd
  0
BLOCK
  5
17E24
330
17E1A
100
AcDbEntity
  8
0
 48
50.0
100
AcDbBlockBegin
  2
*D16
 70
     1
 10
0.0
 20
0.0
 30
0.0
  3
*D16
  1

  0
LINE
  5
1879E
330
17E1A
100
AcDbEntity
  8
寸法
 62
     0
 48
50.0
370
    -2
100
AcDbLine
 10
8732.345105459112
 20
4424.746374670295
 30
0.0
 11
7941.044045714713
 21
4424.746374670295
 31
0.0
  0
LINE
  5
1879F
330
17E1A
100
AcDbEntity
  8
寸法
 62
     0
 48
50.0
370
    -2
100
AcDbLine
 10
8732.345105459112
 20
2699.746374670296
 30
0.0
 11
7941.044045714713
 21
2699.746374670296
 31
0.0
  0
LINE
  5
187A0
330
17E1A
100
AcDbEntity
  8
寸法
 62
     0
 48
50.0
370
    -2
100
AcDbLine
 10
8001.044045714714
 20
4424.746374670295
 30
0.0
 11
8001.044045714714
 21
2699.746374670296
 31
0.0
  0
INSERT
  5
187A1
330
17E1A
100
AcDbEntity
  8
寸法
 62
     0
 48
50.0
370
    -2
100
AcDbBlockReference
  2
_DOTSMALL
 10
8001.044045714714
 20
4424.746374670295
 30
0.0
 41
100.0
 42
100.0
 43
100.0
 50
90.0
  0
INSERT
  5
187A2
330
17E1A
100
AcDbEntity
  8
寸法
 62
     0
 48
50.0
370
    -2
100
AcDbBlockReference
  2
_DOTSMALL
 10
8001.044045714714
 20
2699.746374670296
 30
0.0
 41
100.0
 42
100.0
 43
100.0
 50
270.0
  0
MTEXT
  5
187A3
330
17E1A
100
AcDbEntity
  8
寸法
 62
     7
 48
50.0
100
AcDbMText
 10
7901.032234691091
 20
3535.822301024993
 30
0.0
 40
120.0
 41
0.0
 71
     5
 72
     1
  1
\A1;有効開口部高サ1725
  7
STYLE1
 11
0.0000000000000001
 21
1.0
 31
0.0
 73
     1
 44
1.0
1001
ACAD
1000
MTEXTBEGIN
1070
    73
1070
     1
1070
    44
1040
1.0
1070
    74
1070
     0
1000
MTEXTEND
  0
POINT
  5
187A4
330
17E1A
100
AcDbEntity
  8
DEFPOINTS
 62
     0
 48
50.0
100
AcDbPoint
 10
8752.345105459111
 20
4424.746374670295
 30
0.0
  0
POINT
  5
187A5
330
17E1A
100
AcDbEntity
  8
DEFPOINTS
 62
     0
 48
50.0
100
AcDbPoint
 10
8752.345105459111
 20
2699.746374670296
 30
0.0
  0
POINT
  5
187A6
330
17E1A
100
AcDbEntity
  8
DEFPOINTS
 62
     0
 48
50.0
100
AcDbPoint
 10
8001.044045714714
 20
2699.746374670296
 30
0.0
  0
ENDBLK
  5
17E25
330
17E1A
100
AcDbEntity
  8
0
 48
50.0
100
AcDbBlockEnd
  0
BLOCK
  5
183D1
330
183C7
100
AcDbEntity
  8
0
 48
50.0
100
AcDbBlockBegin
  2
*D17
 70
     1
 10
0.0
 20
0.0
 30
0.0
  3
*D17
  1

  0
LINE
  5
18795
330
183C7
100
AcDbEntity
  8
寸法
 62
     0
 48
50.0
370
    -2
100
AcDbLine
 10
4367.884759361571
 20
4481.746374670296
 30
0.0
 11
3704.232050203275
 21
4481.746374670296
 31
0.0
  0
LINE
  5
18796
330
183C7
100
AcDbEntity
  8
寸法
 62
     0
 48
50.0
370
    -2
100
AcDbLine
 10
4367.884759361571
 20
2691.746374670296
 30
0.0
 11
3704.232050203275
 21
2691.746374670296
 31
0.0
  0
LINE
  5
18797
330
183C7
100
AcDbEntity
  8
寸法
 62
     0
 48
50.0
370
    -2
100
AcDbLine
 10
3764.232050203276
 20
4481.746374670296
 30
0.0
 11
3764.232050203276
 21
2691.746374670296
 31
0.0
  0
INSERT
  5
18798
330
183C7
100
AcDbEntity
  8
寸法
 62
     0
 48
50.0
370
    -2
100
AcDbBlockReference
  2
_DOTSMALL
 10
3764.232050203276
 20
4481.746374670296
 30
0.0
 41
100.0
 42
100.0
 43
100.0
 50
90.0
  0
INSERT
  5
18799
330
183C7
100
AcDbEntity
  8
寸法
 62
     0
 48
50.0
370
    -2
100
AcDbBlockReference
  2
_DOTSMALL
 10
3764.232050203276
 20
2691.746374670296
 30
0.0
 41
100.0
 42
100.0
 43
100.0
 50
270.0
  0
MTEXT
  5
1879A
330
183C7
100
AcDbEntity
  8
寸法
 62
     7
 48
50.0
100
AcDbMText
 10
3664.232050203275
 20
3582.200673212254
 30
0.0
 40
120.0
 41
0.0
 71
     5
 72
     1
  1
\A1;1790
  7
STYLE1
 11
0.0000000000000001
 21
1.0
 31
0.0
 73
     1
 44
1.0
1001
ACAD
1000
MTEXTBEGIN
1070
    73
1070
     1
1070
    44
1040
1.0
1070
    74
1070
     0
1000
MTEXTEND
  0
POINT
  5
1879B
330
183C7
100
AcDbEntity
  8
DEFPOINTS
 62
     0
 48
50.0
100
AcDbPoint
 10
4387.884759361571
 20
4481.746374670296
 30
0.0
  0
POINT
  5
1879C
330
183C7
100
AcDbEntity
  8
DEFPOINTS
 62
     0
 48
50.0
100
AcDbPoint
 10
4387.884759361571
 20
2691.746374670296
 30
0.0
  0
POINT
  5
1879D
330
183C7
100
AcDbEntity
  8
DEFPOINTS
 62
     0
 48
50.0
100
AcDbPoint
 10
3764.232050203276
 20
2691.746374670296
 30
0.0
  0
ENDBLK
  5
183D2
330
183C7
100
AcDbEntity
  8
0
 48
50.0
100
AcDbBlockEnd
  0
BLOCK
  5
183DD
330
183D3
100
AcDbEntity
  8
0
 48
50.0
100
AcDbBlockBegin
  2
*D18
 70
     1
 10
0.0
 20
0.0
 30
0.0
  3
*D18
  1

  0
LINE
  5
1878C
330
183D3
100
AcDbEntity
  8
寸法
 62
     0
 48
50.0
370
    -2
100
AcDbLine
 10
4367.884759361571
 20
2641.746374670296
 30
0.0
 11
3419.245377432214
 21
2641.746374670296
 31
0.0
  0
LINE
  5
1878D
330
183D3
100
AcDbEntity
  8
寸法
 62
     0
 48
50.0
370
    -2
100
AcDbLine
 10
4307.884759361572
 20
4716.746374670299
 30
0.0
 11
3419.245377432214
 21
4716.746374670299
 31
0.0
  0
LINE
  5
1878E
330
183D3
100
AcDbEntity
  8
寸法
 62
     0
 48
50.0
370
    -2
100
AcDbLine
 10
3479.245377432214
 20
2641.746374670296
 30
0.0
 11
3479.245377432214
 21
4716.746374670299
 31
0.0
  0
INSERT
  5
1878F
330
183D3
100
AcDbEntity
  8
寸法
 62
     0
 48
50.0
370
    -2
100
AcDbBlockReference
  2
_DOTSMALL
 10
3479.245377432214
 20
2641.746374670296
 30
0.0
 41
100.0
 42
100.0
 43
100.0
 50
270.0
  0
INSERT
  5
18790
330
183D3
100
AcDbEntity
  8
寸法
 62
     0
 48
50.0
370
    -2
100
AcDbBlockReference
  2
_DOTSMALL
 10
3479.245377432214
 20
4716.746374670299
 30
0.0
 41
100.0
 42
100.0
 43
100.0
 50
90.0
  0
MTEXT
  5
18791
330
183D3
100
AcDbEntity
  8
寸法
 62
     7
 48
50.0
100
AcDbMText
 10
3379.233566408591
 20
3635.952252163406
 30
0.0
 40
120.0
 41
0.0
 71
     5
 72
     1
  1
\A1;2075
  7
STYLE1
 11
0.0000000000000001
 21
1.0
 31
0.0
 73
     1
 44
1.0
1001
ACAD
1000
MTEXTBEGIN
1070
    73
1070
     1
1070
    44
1040
1.0
1070
    74
1070
     0
1000
MTEXTEND
  0
POINT
  5
18792
330
183D3
100
AcDbEntity
  8
DEFPOINTS
 62
     0
 48
50.0
100
AcDbPoint
 10
4387.884759361571
 20
2641.746374670296
 30
0.0
  0
POINT
  5
18793
330
183D3
100
AcDbEntity
  8
DEFPOINTS
 62
     0
 48
50.0
100
AcDbPoint
 10
4327.884759361572
 20
4716.746374670299
 30
0.0
  0
POINT
  5
18794
330
183D3
100
AcDbEntity
  8
DEFPOINTS
 62
     0
 48
50.0
100
AcDbPoint
 10
3479.245377432214
 20
4716.746374670299
 30
0.0
  0
ENDBLK
  5
183DE
330
183D3
100
AcDbEntity
  8
0
 48
50.0
100
AcDbBlockEnd
  0
BLOCK
  5
183EA
330
183DF
100
AcDbEntity
  8
0
 48
50.0
100
AcDbBlockBegin
  2
*D19
 70
     1
 10
0.0
 20
0.0
 30
0.0
  3
*D19
  1

  0
LINE
  5
18782
330
183DF
100
AcDbEntity
  8
寸法
 62
     0
 48
50.0
370
    -2
100
AcDbLine
 10
4312.884759361572
 20
2641.746374670296
 30
0.0
 11
3419.245377432214
 21
2641.746374670296
 31
0.0
  0
LINE
  5
18783
330
183DF
100
AcDbEntity
  8
寸法
 62
     0
 48
50.0
370
    -2
100
AcDbLine
 10
3744.232050203275
 20
2541.746374670296
 30
0.0
 11
3419.245377432214
 21
2541.746374670296
 31
0.0
  0
LINE
  5
18784
330
183DF
100
AcDbEntity
  8
寸法
 62
     0
 48
50.0
370
    -2
100
AcDbLine
 10
3479.245377432214
 20
2641.746374670296
 30
0.0
 11
3479.245377432214
 21
2541.746374670296
 31
0.0
  0
LINE
  5
18785
330
183DF
100
AcDbEntity
  8
寸法
 62
     0
 48
50.0
370
    -2
100
AcDbLine
 10
3479.245377432214
 20
2541.746374670296
 30
0.0
 11
3479.245377432214
 21
2169.651886481316
 31
0.0
  0
INSERT
  5
18786
330
183DF
100
AcDbEntity
  8
寸法
 62
     0
 48
50.0
370
    -2
100
AcDbBlockReference
  2
_DOTSMALL
 10
3479.245377432214
 20
2641.746374670296
 30
0.0
 41
100.0
 42
100.0
 43
100.0
 50
90.0
  0
INSERT
  5
18787
330
183DF
100
AcDbEntity
  8
寸法
 62
     0
 48
50.0
370
    -2
100
AcDbBlockReference
  2
_DOTSMALL
 10
3479.245377432214
 20
2541.746374670296
 30
0.0
 41
100.0
 42
100.0
 43
100.0
 50
270.0
  0
MTEXT
  5
18788
330
183DF
100
AcDbEntity
  8
寸法
 62
     7
 48
50.0
100
AcDbMText
 10
3379.245377432213
 20
2305.699130575805
 30
0.0
 40
120.0
 41
0.0
 71
     5
 72
     1
  1
\A1;100
  7
STYLE1
 11
0.0000000000000001
 21
1.0
 31
0.0
 73
     1
 44
1.0
1001
ACAD
1000
MTEXTBEGIN
1070
    73
1070
     1
1070
    44
1040
1.0
1070
    74
1070
     0
1000
MTEXTEND
  0
POINT
  5
18789
330
183DF
100
AcDbEntity
  8
DEFPOINTS
 62
     0
 48
50.0
100
AcDbPoint
 10
4332.884759361571
 20
2641.746374670296
 30
0.0
  0
POINT
  5
1878A
330
183DF
100
AcDbEntity
  8
DEFPOINTS
 62
     0
 48
50.0
100
AcDbPoint
 10
3764.232050203275
 20
2541.746374670296
 30
0.0
  0
POINT
  5
1878B
330
183DF
100
AcDbEntity
  8
DEFPOINTS
 62
     0
 48
50.0
100
AcDbPoint
 10
3479.245377432214
 20
2541.746374670296
 30
0.0
  0
ENDBLK
  5
183EB
330
183DF
100
AcDbEntity
  8
0
 48
50.0
100
AcDbBlockEnd
  0
BLOCK
  5
183F8
330
183EC
100
AcDbEntity
  8
0
 48
50.0
100
AcDbBlockBegin
  2
*D20
 70
     1
 10
0.0
 20
0.0
 30
0.0
  3
*D20
  1

  0
LINE
  5
18777
330
183EC
100
AcDbEntity
  8
寸法
 62
     0
 48
50.0
370
    -2
100
AcDbLine
 10
4367.884759361571
 20
2691.746374670296
 30
0.0
 11
3704.232050203275
 21
2691.746374670296
 31
0.0
  0
LINE
  5
18778
330
183EC
100
AcDbEntity
  8
寸法
 62
     0
 48
50.0
370
    -2
100
AcDbLine
 10
4312.884759361572
 20
2641.746374670296
 30
0.0
 11
3704.232050203275
 21
2641.746374670296
 31
0.0
  0
LINE
  5
18779
330
183EC
100
AcDbEntity
  8
寸法
 62
     0
 48
50.0
370
    -2
100
AcDbLine
 10
3764.232050203276
 20
2691.746374670296
 30
0.0
 11
3764.232050203276
 21
2791.746374670296
 31
0.0
  0
LINE
  5
1877A
330
183EC
100
AcDbEntity
  8
寸法
 62
     0
 48
50.0
370
    -2
100
AcDbLine
 10
3764.232050203276
 20
2641.746374670296
 30
0.0
 11
3764.232050203276
 21
2229.651886481316
 31
0.0
  0
LINE
  5
1877B
330
183EC
100
AcDbEntity
  8
寸法
 62
     0
 48
50.0
370
    -2
100
AcDbLine
 10
3764.232050203276
 20
2691.746374670296
 30
0.0
 11
3764.232050203276
 21
2641.746374670296
 31
0.0
  0
INSERT
  5
1877C
330
183EC
100
AcDbEntity
  8
寸法
 62
     0
 48
50.0
370
    -2
100
AcDbBlockReference
  2
_DOTSMALL
 10
3764.232050203276
 20
2691.746374670296
 30
0.0
 41
100.0
 42
100.0
 43
100.0
 50
270.0
  0
INSERT
  5
1877D
330
183EC
100
AcDbEntity
  8
寸法
 62
     0
 48
50.0
370
    -2
100
AcDbBlockReference
  2
_DOTSMALL
 10
3764.232050203276
 20
2641.746374670296
 30
0.0
 41
100.0
 42
100.0
 43
100.0
 50
90.0
  0
MTEXT
  5
1877E
330
183EC
100
AcDbEntity
  8
寸法
 62
     7
 48
50.0
100
AcDbMText
 10
3664.232050203275
 20
2335.699130575805
 30
0.0
 40
120.0
 41
0.0
 71
     5
 72
     1
  1
\A1;50
  7
STYLE1
 11
0.0000000000000001
 21
1.0
 31
0.0
 73
     1
 44
1.0
1001
ACAD
1000
MTEXTBEGIN
1070
    73
1070
     1
1070
    44
1040
1.0
1070
    74
1070
     0
1000
MTEXTEND
  0
POINT
  5
1877F
330
183EC
100
AcDbEntity
  8
DEFPOINTS
 62
     0
 48
50.0
100
AcDbPoint
 10
4387.884759361571
 20
2691.746374670296
 30
0.0
  0
POINT
  5
18780
330
183EC
100
AcDbEntity
  8
DEFPOINTS
 62
     0
 48
50.0
100
AcDbPoint
 10
4332.884759361571
 20
2641.746374670296
 30
0.0
  0
POINT
  5
18781
330
183EC
100
AcDbEntity
  8
DEFPOINTS
 62
     0
 48
50.0
100
AcDbPoint
 10
3764.232050203276
 20
2641.746374670296
 30
0.0
  0
ENDBLK
  5
183F9
330
183EC
100
AcDbEntity
  8
0
 48
50.0
100
AcDbBlockEnd
  0
BLOCK
  5
18404
330
183FA
100
AcDbEntity
  8
0
 48
50.0
100
AcDbBlockBegin
  2
*D21
 70
     1
 10
0.0
 20
0.0
 30
0.0
  3
*D21
  1

  0
LINE
  5
1876E
330
183FA
100
AcDbEntity
  8
寸法
 62
     0
 48
50.0
370
    -2
100
AcDbLine
 10
6274.884759361576
 20
2641.746374670296
 30
0.0
 11
6850.054855124
 21
2641.746374670296
 31
0.0
  0
LINE
  5
1876F
330
183FA
100
AcDbEntity
  8
寸法
 62
     0
 48
50.0
370
    -2
100
AcDbLine
 10
6277.884759361572
 20
4661.746374670296
 30
0.0
 11
6850.054855124
 21
4661.746374670296
 31
0.0
  0
LINE
  5
18770
330
183FA
100
AcDbEntity
  8
寸法
 62
     0
 48
50.0
370
    -2
100
AcDbLine
 10
6790.054855124001
 20
2641.746374670296
 30
0.0
 11
6790.054855124001
 21
4661.746374670296
 31
0.0
  0
INSERT
  5
18771
330
183FA
100
AcDbEntity
  8
寸法
 62
     0
 48
50.0
370
    -2
100
AcDbBlockReference
  2
_DOTSMALL
 10
6790.054855124001
 20
2641.746374670296
 30
0.0
 41
100.0
 42
100.0
 43
100.0
 50
270.0
  0
INSERT
  5
18772
330
183FA
100
AcDbEntity
  8
寸法
 62
     0
 48
50.0
370
    -2
100
AcDbBlockReference
  2
_DOTSMALL
 10
6790.054855124001
 20
4661.746374670296
 30
0.0
 41
100.0
 42
100.0
 43
100.0
 50
90.0
  0
MTEXT
  5
18773
330
183FA
100
AcDbEntity
  8
寸法
 62
     7
 48
50.0
100
AcDbMText
 10
6690.043044100377
 20
3624.002702099984
 30
0.0
 40
120.0
 41
0.0
 71
     5
 72
     1
  1
\A1;2020
  7
STYLE1
 11
0.0000000000000001
 21
1.0
 31
0.0
 73
     1
 44
1.0
1001
ACAD
1000
MTEXTBEGIN
1070
    73
1070
     1
1070
    44
1040
1.0
1070
    74
1070
     0
1000
MTEXTEND
  0
POINT
  5
18774
330
183FA
100
AcDbEntity
  8
DEFPOINTS
 62
     0
 48
50.0
100
AcDbPoint
 10
6254.884759361575
 20
2641.746374670296
 30
0.0
  0
POINT
  5
18775
330
183FA
100
AcDbEntity
  8
DEFPOINTS
 62
     0
 48
50.0
100
AcDbPoint
 10
6257.884759361572
 20
4661.746374670296
 30
0.0
  0
POINT
  5
18776
330
183FA
100
AcDbEntity
  8
DEFPOINTS
 62
     0
 48
50.0
100
AcDbPoint
 10
6790.054855124001
 20
4661.746374670296
 30
0.0
  0
ENDBLK
  5
18405
330
183FA
100
AcDbEntity
  8
0
 48
50.0
100
AcDbBlockEnd
  0
BLOCK
  5
18410
330
18406
100
AcDbEntity
  8
0
 48
50.0
100
AcDbBlockBegin
  2
*D22
 70
     1
 10
0.0
 20
0.0
 30
0.0
  3
*D22
  1

  0
LINE
  5
18765
330
18406
100
AcDbEntity
  8
寸法
 62
     0
 48
50.0
370
    -2
100
AcDbLine
 10
6177.884759361572
 20
4683.557054281947
 30
0.0
 11
6177.884759361572
 21
5175.83954400977
 31
0.0
  0
LINE
  5
18766
330
18406
100
AcDbEntity
  8
寸法
 62
     0
 48
50.0
370
    -2
100
AcDbLine
 10
4387.884759361571
 20
4732.747992793273
 30
0.0
 11
4387.884759361571
 21
5175.83954400977
 31
0.0
  0
LINE
  5
18767
330
18406
100
AcDbEntity
  8
寸法
 62
     0
 48
50.0
370
    -2
100
AcDbLine
 10
6177.884759361572
 20
5115.83954400977
 30
0.0
 11
4387.884759361571
 21
5115.83954400977
 31
0.0
  0
INSERT
  5
18768
330
18406
100
AcDbEntity
  8
寸法
 62
     0
 48
50.0
370
    -2
100
AcDbBlockReference
  2
_DOTSMALL
 10
6177.884759361572
 20
5115.83954400977
 30
0.0
 41
100.0
 42
100.0
 43
100.0
  0
INSERT
  5
18769
330
18406
100
AcDbEntity
  8
寸法
 62
     0
 48
50.0
370
    -2
100
AcDbBlockReference
  2
_DOTSMALL
 10
4387.884759361571
 20
5115.83954400977
 30
0.0
 41
100.0
 42
100.0
 43
100.0
 50
180.0
  0
MTEXT
  5
1876A
330
18406
100
AcDbEntity
  8
寸法
 62
     7
 48
50.0
100
AcDbMText
 10
5297.480408038053
 20
5215.839544009771
 30
0.0
 40
120.0
 41
0.0
 71
     5
 72
     1
  1
\A1;柱外寸法1790
  7
STYLE1
 73
     1
 44
1.0
1001
ACAD
1000
MTEXTBEGIN
1070
    73
1070
     1
1070
    44
1040
1.0
1070
    74
1070
     0
1000
MTEXTEND
  0
POINT
  5
1876B
330
18406
100
AcDbEntity
  8
DEFPOINTS
 62
     0
 48
50.0
100
AcDbPoint
 10
6177.884759361572
 20
4663.557054281947
 30
0.0
  0
POINT
  5
1876C
330
18406
100
AcDbEntity
  8
DEFPOINTS
 62
     0
 48
50.0
100
AcDbPoint
 10
4387.884759361571
 20
4712.747992793272
 30
0.0
  0
POINT
  5
1876D
330
18406
100
AcDbEntity
  8
DEFPOINTS
 62
     0
 48
50.0
100
AcDbPoint
 10
4387.884759361571
 20
5115.83954400977
 30
0.0
  0
ENDBLK
  5
18411
330
18406
100
AcDbEntity
  8
0
 48
50.0
100
AcDbBlockEnd
  0
BLOCK
  5
1841E
330
18412
100
AcDbEntity
  8
0
 48
50.0
100
AcDbBlockBegin
  2
*D23
 70
     1
 10
0.0
 20
0.0
 30
0.0
  3
*D23
  1

  0
LINE
  5
1875A
330
18412
100
AcDbEntity
  8
寸法
 62
     0
 48
50.0
370
    -2
100
AcDbLine
 10
4387.884759361571
 20
4732.747992793273
 30
0.0
 11
4387.884759361571
 21
5175.4038282496
 31
0.0
  0
LINE
  5
1875B
330
18412
100
AcDbEntity
  8
寸法
 62
     0
 48
50.0
370
    -2
100
AcDbLine
 10
4327.884759361572
 20
4736.746374670299
 30
0.0
 11
4327.884759361572
 21
5175.4038282496
 31
0.0
  0
LINE
  5
1875C
330
18412
100
AcDbEntity
  8
寸法
 62
     0
 48
50.0
370
    -2
100
AcDbLine
 10
4387.884759361571
 20
5115.403828249601
 30
0.0
 11
4487.884759361572
 21
5115.403828249601
 31
0.0
  0
LINE
  5
1875D
330
18412
100
AcDbEntity
  8
寸法
 62
     0
 48
50.0
370
    -2
100
AcDbLine
 10
4327.884759361572
 20
5115.403828249601
 30
0.0
 11
3908.609168810391
 21
5115.403828249601
 31
0.0
  0
LINE
  5
1875E
330
18412
100
AcDbEntity
  8
寸法
 62
     0
 48
50.0
370
    -2
100
AcDbLine
 10
4387.884759361571
 20
5115.403828249601
 30
0.0
 11
4327.884759361572
 21
5115.403828249601
 31
0.0
  0
INSERT
  5
1875F
330
18412
100
AcDbEntity
  8
寸法
 62
     0
 48
50.0
370
    -2
100
AcDbBlockReference
  2
_DOTSMALL
 10
4387.884759361571
 20
5115.403828249601
 30
0.0
 41
100.0
 42
100.0
 43
100.0
 50
180.0
  0
INSERT
  5
18760
330
18412
100
AcDbEntity
  8
寸法
 62
     0
 48
50.0
370
    -2
100
AcDbBlockReference
  2
_DOTSMALL
 10
4327.884759361572
 20
5115.403828249601
 30
0.0
 41
100.0
 42
100.0
 43
100.0
  0
MTEXT
  5
18761
330
18412
100
AcDbEntity
  8
寸法
 62
     7
 48
50.0
100
AcDbMText
 10
4018.246964085981
 20
5215.4038282496
 30
0.0
 40
120.0
 41
0.0
 71
     5
 72
     1
  1
\A1;60
  7
STYLE1
 73
     1
 44
1.0
1001
ACAD
1000
MTEXTBEGIN
1070
    73
1070
     1
1070
    44
1040
1.0
1070
    74
1070
     0
1000
MTEXTEND
  0
POINT
  5
18762
330
18412
100
AcDbEntity
  8
DEFPOINTS
 62
     0
 48
50.0
100
AcDbPoint
 10
4387.884759361571
 20
4712.747992793272
 30
0.0
  0
POINT
  5
18763
330
18412
100
AcDbEntity
  8
DEFPOINTS
 62
     0
 48
50.0
100
AcDbPoint
 10
4327.884759361572
 20
4716.746374670299
 30
0.0
  0
POINT
  5
18764
330
18412
100
AcDbEntity
  8
DEFPOINTS
 62
     0
 48
50.0
100
AcDbPoint
 10
4327.884759361572
 20
5115.403828249601
 30
0.0
  0
ENDBLK
  5
1841F
330
18412
100
AcDbEntity
  8
0
 48
50.0
100
AcDbBlockEnd
  0
BLOCK
  5
1842A
330
18420
100
AcDbEntity
  8
0
 48
50.0
100
AcDbBlockBegin
  2
*D24
 70
     1
 10
0.0
 20
0.0
 30
0.0
  3
*D24
  1

  0
LINE
  5
18751
330
18420
100
AcDbEntity
  8
寸法
 62
     0
 48
50.0
370
    -2
100
AcDbLine
 10
6257.884759361572
 20
4681.746374670296
 30
0.0
 11
6257.884759361572
 21
5392.365643628214
 31
0.0
  0
LINE
  5
18752
330
18420
100
AcDbEntity
  8
寸法
 62
     0
 48
50.0
370
    -2
100
AcDbLine
 10
4327.884759361572
 20
4736.746374670299
 30
0.0
 11
4327.884759361572
 21
5392.365643628214
 31
0.0
  0
LINE
  5
18753
330
18420
100
AcDbEntity
  8
寸法
 62
     0
 48
50.0
370
    -2
100
AcDbLine
 10
6257.884759361572
 20
5332.365643628214
 30
0.0
 11
4327.884759361572
 21
5332.365643628214
 31
0.0
  0
INSERT
  5
18754
330
18420
100
AcDbEntity
  8
寸法
 62
     0
 48
50.0
370
    -2
100
AcDbBlockReference
  2
_DOTSMALL
 10
6257.884759361572
 20
5332.365643628214
 30
0.0
 41
100.0
 42
100.0
 43
100.0
  0
INSERT
  5
18755
330
18420
100
AcDbEntity
  8
寸法
 62
     0
 48
50.0
370
    -2
100
AcDbBlockReference
  2
_DOTSMALL
 10
4327.884759361572
 20
5332.365643628214
 30
0.0
 41
100.0
 42
100.0
 43
100.0
 50
180.0
  0
MTEXT
  5
18756
330
18420
100
AcDbEntity
  8
寸法
 62
     7
 48
50.0
100
AcDbMText
 10
5233.690510612541
 20
5432.365643628214
 30
0.0
 40
120.0
 41
0.0
 71
     5
 72
     1
  1
\A1;1930
  7
STYLE1
 73
     1
 44
1.0
1001
ACAD
1000
MTEXTBEGIN
1070
    73
1070
     1
1070
    44
1040
1.0
1070
    74
1070
     0
1000
MTEXTEND
  0
POINT
  5
18757
330
18420
100
AcDbEntity
  8
DEFPOINTS
 62
     0
 48
50.0
100
AcDbPoint
 10
6257.884759361572
 20
4661.746374670296
 30
0.0
  0
POINT
  5
18758
330
18420
100
AcDbEntity
  8
DEFPOINTS
 62
     0
 48
50.0
100
AcDbPoint
 10
4327.884759361572
 20
4716.746374670299
 30
0.0
  0
POINT
  5
18759
330
18420
100
AcDbEntity
  8
DEFPOINTS
 62
     0
 48
50.0
100
AcDbPoint
 10
4327.884759361572
 20
5332.365643628214
 30
0.0
  0
ENDBLK
  5
1842B
330
18420
100
AcDbEntity
  8
0
 48
50.0
100
AcDbBlockEnd
  0
BLOCK
  5
18437
330
1842C
100
AcDbEntity
  8
0
 48
50.0
100
AcDbBlockBegin
  2
*D25
 70
     1
 10
0.0
 20
0.0
 30
0.0
  3
*D25
  1

  0
LINE
  5
18747
330
1842C
100
AcDbEntity
  8
寸法
 62
     0
 48
50.0
370
    -2
100
AcDbLine
 10
6177.884759361572
 20
4683.557054281947
 30
0.0
 11
6177.884759361572
 21
5175.4038282496
 31
0.0
  0
LINE
  5
18748
330
1842C
100
AcDbEntity
  8
寸法
 62
     0
 48
50.0
370
    -2
100
AcDbLine
 10
6257.884759361572
 20
4681.746374670296
 30
0.0
 11
6257.884759361572
 21
5175.4038282496
 31
0.0
  0
LINE
  5
18749
330
1842C
100
AcDbEntity
  8
寸法
 62
     0
 48
50.0
370
    -2
100
AcDbLine
 10
6177.884759361572
 20
5115.403828249601
 30
0.0
 11
6257.884759361572
 21
5115.403828249601
 31
0.0
  0
LINE
  5
1874A
330
1842C
100
AcDbEntity
  8
寸法
 62
     0
 48
50.0
370
    -2
100
AcDbLine
 10
6257.884759361572
 20
5115.403828249601
 30
0.0
 11
6569.97924755055
 21
5115.403828249601
 31
0.0
  0
INSERT
  5
1874B
330
1842C
100
AcDbEntity
  8
寸法
 62
     0
 48
50.0
370
    -2
100
AcDbBlockReference
  2
_DOTSMALL
 10
6177.884759361572
 20
5115.403828249601
 30
0.0
 41
100.0
 42
100.0
 43
100.0
 50
180.0
  0
INSERT
  5
1874C
330
1842C
100
AcDbEntity
  8
寸法
 62
     0
 48
50.0
370
    -2
100
AcDbBlockReference
  2
_DOTSMALL
 10
6257.884759361572
 20
5115.403828249601
 30
0.0
 41
100.0
 42
100.0
 43
100.0
  0
MTEXT
  5
1874D
330
1842C
100
AcDbEntity
  8
寸法
 62
     7
 48
50.0
100
AcDbMText
 10
6463.932003456062
 20
5215.4038282496
 30
0.0
 40
120.0
 41
0.0
 71
     5
 72
     1
  1
\A1;80
  7
STYLE1
 73
     1
 44
1.0
1001
ACAD
1000
MTEXTBEGIN
1070
    73
1070
     1
1070
    44
1040
1.0
1070
    74
1070
     0
1000
MTEXTEND
  0
POINT
  5
1874E
330
1842C
100
AcDbEntity
  8
DEFPOINTS
 62
     0
 48
50.0
100
AcDbPoint
 10
6177.884759361572
 20
4663.557054281947
 30
0.0
  0
POINT
  5
1874F
330
1842C
100
AcDbEntity
  8
DEFPOINTS
 62
     0
 48
50.0
100
AcDbPoint
 10
6257.884759361572
 20
4661.746374670296
 30
0.0
  0
POINT
  5
18750
330
1842C
100
AcDbEntity
  8
DEFPOINTS
 62
     0
 48
50.0
100
AcDbPoint
 10
6257.884759361572
 20
5115.403828249601
 30
0.0
  0
ENDBLK
  5
18438
330
1842C
100
AcDbEntity
  8
0
 48
50.0
100
AcDbBlockEnd
  0
BLOCK
  5
18444
330
18439
100
AcDbEntity
  8
0
 48
50.0
100
AcDbBlockBegin
  2
*D26
 70
     1
 10
0.0
 20
0.0
 30
0.0
  3
*D26
  1

  0
LINE
  5
1873D
330
18439
100
AcDbEntity
  8
寸法
 62
     0
 48
50.0
370
    -2
100
AcDbLine
 10
4327.289045652674
 20
4716.044081739958
 30
0.0
 11
3711.354606547406
 21
4733.758232014287
 31
0.0
  0
LINE
  5
1873E
330
18439
100
AcDbEntity
  8
寸法
 62
     0
 48
50.0
370
    -2
100
AcDbLine
 10
4323.235590096048
 20
4575.102357974247
 30
0.0
 11
3707.30115099078
 21
4592.816508248577
 31
0.0
  0
LINE
  5
1873F
330
18439
100
AcDbEntity
  8
寸法
 62
     0
 48
50.0
370
    -2
100
AcDbLine
 10
3767.27635259321
 20
4591.091633543629
 30
0.0
 11
3771.329808149837
 21
4732.03335730934
 31
0.0
  0
LINE
  5
18740
330
18439
100
AcDbEntity
  8
寸法
 62
     0
 48
50.0
370
    -2
100
AcDbLine
 10
3771.329808149837
 20
4732.03335730934
 30
0.0
 11
3781.679056379522
 21
5091.884566923926
 31
0.0
  0
INSERT
  5
18741
330
18439
100
AcDbEntity
  8
寸法
 62
     0
 48
50.0
370
    -2
100
AcDbBlockReference
  2
_DOTSMALL
 10
3767.27635259321
 20
4591.091633543629
 30
0.0
 41
100.0
 42
100.0
 43
100.0
 50
268.3526390256377
  0
INSERT
  5
18742
330
18439
100
AcDbEntity
  8
寸法
 62
     0
 48
50.0
370
    -2
100
AcDbBlockReference
  2
_DOTSMALL
 10
3771.329808149837
 20
4732.03335730934
 30
0.0
 41
100.0
 42
100.0
 43
100.0
 50
88.35263902563776
  0
MTEXT
  5
18743
330
18439
100
AcDbEntity
  8
寸法
 62
     7
 48
50.0
100
AcDbMText
 10
3677.983158514751
 20
4964.813087960237
 30
0.0
 40
120.0
 41
0.0
 71
     5
 72
     1
  1
\A1;141
  7
STYLE1
 11
0.0287479117491245
 21
0.9995866933738486
 31
0.0
 73
     1
 44
1.0
1001
ACAD
1000
MTEXTBEGIN
1070
    73
1070
     1
1070
    44
1040
1.0
1070
    74
1070
     0
1000
MTEXTEND
  0
POINT
  5
18744
330
18439
100
AcDbEntity
  8
DEFPOINTS
 62
     0
 48
50.0
100
AcDbPoint
 10
4347.280779520152
 20
4715.469123504975
 30
0.0
  0
POINT
  5
18745
330
18439
100
AcDbEntity
  8
DEFPOINTS
 62
     0
 48
50.0
100
AcDbPoint
 10
4343.227323963525
 20
4574.527399739264
 30
0.0
  0
POINT
  5
18746
330
18439
100
AcDbEntity
  8
DEFPOINTS
 62
     0
 48
50.0
100
AcDbPoint
 10
3767.27635259321
 20
4591.091633543629
 30
0.0
  0
ENDBLK
  5
18445
330
18439
100
AcDbEntity
  8
0
 48
50.0
100
AcDbBlockEnd
  0
BLOCK
  5
18450
330
18446
100
AcDbEntity
  8
0
 48
50.0
100
AcDbBlockBegin
  2
*D27
 70
     1
 10
0.0
 20
0.0
 30
0.0
  3
*D27
  1

  0
LINE
  5
18734
330
18446
100
AcDbEntity
  8
寸法
 62
     0
 48
50.0
370
    -2
100
AcDbLine
 10
4295.384759361575
 20
2341.746374670296
 30
0.0
 11
4105.884756114938
 21
2341.746374670296
 31
0.0
  0
LINE
  5
18735
330
18446
100
AcDbEntity
  8
寸法
 62
     0
 48
50.0
370
    -2
100
AcDbLine
 10
4270.384759361571
 20
2541.746374670296
 30
0.0
 11
4105.884756114938
 21
2541.746374670296
 31
0.0
  0
LINE
  5
18736
330
18446
100
AcDbEntity
  8
寸法
 62
     0
 48
50.0
370
    -2
100
AcDbLine
 10
4165.884756114938
 20
2341.746374670296
 30
0.0
 11
4165.884756114938
 21
2541.746374670296
 31
0.0
  0
INSERT
  5
18737
330
18446
100
AcDbEntity
  8
寸法
 62
     0
 48
50.0
370
    -2
100
AcDbBlockReference
  2
_DOTSMALL
 10
4165.884756114938
 20
2341.746374670296
 30
0.0
 41
100.0
 42
100.0
 43
100.0
 50
270.0
  0
INSERT
  5
18738
330
18446
100
AcDbEntity
  8
寸法
 62
     0
 48
50.0
370
    -2
100
AcDbBlockReference
  2
_DOTSMALL
 10
4165.884756114938
 20
2541.746374670296
 30
0.0
 41
100.0
 42
100.0
 43
100.0
 50
90.0
  0
MTEXT
  5
18739
330
18446
100
AcDbEntity
  8
寸法
 62
     7
 48
50.0
100
AcDbMText
 10
4065.872945091316
 20
2441.746374670297
 30
0.0
 40
120.0
 41
0.0
 71
     5
 72
     1
  1
\A1;200
  7
STYLE1
 11
0.0000000000000001
 21
1.0
 31
0.0
 73
     1
 44
1.0
1001
ACAD
1000
MTEXTBEGIN
1070
    73
1070
     1
1070
    44
1040
1.0
1070
    74
1070
     0
1000
MTEXTEND
  0
POINT
  5
1873A
330
18446
100
AcDbEntity
  8
DEFPOINTS
 62
     0
 48
50.0
100
AcDbPoint
 10
4315.384759361576
 20
2341.746374670296
 30
0.0
  0
POINT
  5
1873B
330
18446
100
AcDbEntity
  8
DEFPOINTS
 62
     0
 48
50.0
100
AcDbPoint
 10
4290.384759361572
 20
2541.746374670296
 30
0.0
  0
POINT
  5
1873C
330
18446
100
AcDbEntity
  8
DEFPOINTS
 62
     0
 48
50.0
100
AcDbPoint
 10
4165.884756114938
 20
2541.746374670296
 30
0.0
  0
ENDBLK
  5
18451
330
18446
100
AcDbEntity
  8
0
 48
50.0
100
AcDbBlockEnd
  0
BLOCK
  5
1845C
330
18452
100
AcDbEntity
  8
0
 48
50.0
100
AcDbBlockBegin
  2
*D28
 70
     1
 10
0.0
 20
0.0
 30
0.0
  3
*D28
  1

  0
LINE
  5
1872B
330
18452
100
AcDbEntity
  8
寸法
 62
     0
 48
50.0
370
    -2
100
AcDbLine
 10
4515.384759361572
 20
2321.746374670293
 30
0.0
 11
4515.384759361572
 21
1995.699045369918
 31
0.0
  0
LINE
  5
1872C
330
18452
100
AcDbEntity
  8
寸法
 62
     0
 48
50.0
370
    -2
100
AcDbLine
 10
4315.384759361576
 20
2321.746374670296
 30
0.0
 11
4315.384759361576
 21
1995.699045369918
 31
0.0
  0
LINE
  5
1872D
330
18452
100
AcDbEntity
  8
寸法
 62
     0
 48
50.0
370
    -2
100
AcDbLine
 10
4515.384759361572
 20
2055.699045369918
 30
0.0
 11
4315.384759361576
 21
2055.699045369918
 31
0.0
  0
INSERT
  5
1872E
330
18452
100
AcDbEntity
  8
寸法
 62
     0
 48
50.0
370
    -2
100
AcDbBlockReference
  2
_DOTSMALL
 10
4515.384759361572
 20
2055.699045369918
 30
0.0
 41
100.0
 42
100.0
 43
100.0
  0
INSERT
  5
1872F
330
18452
100
AcDbEntity
  8
寸法
 62
     0
 48
50.0
370
    -2
100
AcDbBlockReference
  2
_DOTSMALL
 10
4315.384759361576
 20
2055.699045369918
 30
0.0
 41
100.0
 42
100.0
 43
100.0
 50
180.0
  0
MTEXT
  5
18730
330
18452
100
AcDbEntity
  8
寸法
 62
     7
 48
50.0
100
AcDbMText
 10
4415.384759361574
 20
2155.71085639354
 30
0.0
 40
120.0
 41
0.0
 71
     5
 72
     1
  1
\A1;200
  7
STYLE1
 73
     1
 44
1.0
1001
ACAD
1000
MTEXTBEGIN
1070
    73
1070
     1
1070
    44
1040
1.0
1070
    74
1070
     0
1000
MTEXTEND
  0
POINT
  5
18731
330
18452
100
AcDbEntity
  8
DEFPOINTS
 62
     0
 48
50.0
100
AcDbPoint
 10
4515.384759361572
 20
2341.746374670293
 30
0.0
  0
POINT
  5
18732
330
18452
100
AcDbEntity
  8
DEFPOINTS
 62
     0
 48
50.0
100
AcDbPoint
 10
4315.384759361576
 20
2341.746374670296
 30
0.0
  0
POINT
  5
18733
330
18452
100
AcDbEntity
  8
DEFPOINTS
 62
     0
 48
50.0
100
AcDbPoint
 10
4315.384759361576
 20
2055.699045369918
 30
0.0
  0
ENDBLK
  5
1845D
330
18452
100
AcDbEntity
  8
0
 48
50.0
100
AcDbBlockEnd
  0
BLOCK
  5
18E3A
330
18E30
100
AcDbEntity
  8
0
 48
50.0
100
AcDbBlockBegin
  2
*D29
 70
     1
 10
0.0
 20
0.0
 30
0.0
  3
*D29
  1

  0
LINE
  5
18E3C
330
18E30
100
AcDbEntity
  8
寸法
 62
     0
 48
50.0
370
    -2
100
AcDbLine
 10
8404.345105459112
 20
2321.746374670296
 30
0.0
 11
8404.345105459112
 21
1995.699045369918
 31
0.0
  0
LINE
  5
18E3D
330
18E30
100
AcDbEntity
  8
寸法
 62
     0
 48
50.0
370
    -2
100
AcDbLine
 10
8204.345105459109
 20
2321.746374670296
 30
0.0
 11
8204.345105459109
 21
1995.699045369918
 31
0.0
  0
LINE
  5
18E3E
330
18E30
100
AcDbEntity
  8
寸法
 62
     0
 48
50.0
370
    -2
100
AcDbLine
 10
8404.345105459112
 20
2055.699045369918
 30
0.0
 11
8204.345105459109
 21
2055.699045369918
 31
0.0
  0
INSERT
  5
18E3F
330
18E30
100
AcDbEntity
  8
寸法
 62
     0
 48
50.0
370
    -2
100
AcDbBlockReference
  2
_DOTSMALL
 10
8404.345105459112
 20
2055.699045369918
 30
0.0
 41
100.0
 42
100.0
 43
100.0
  0
INSERT
  5
18E40
330
18E30
100
AcDbEntity
  8
寸法
 62
     0
 48
50.0
370
    -2
100
AcDbBlockReference
  2
_DOTSMALL
 10
8204.345105459109
 20
2055.699045369918
 30
0.0
 41
100.0
 42
100.0
 43
100.0
 50
180.0
  0
MTEXT
  5
18E41
330
18E30
100
AcDbEntity
  8
寸法
 62
     7
 48
50.0
100
AcDbMText
 10
8304.345105459111
 20
2155.71085639354
 30
0.0
 40
120.0
 41
0.0
 71
     5
 72
     1
  1
\A1;200
  7
STYLE1
 73
     1
 44
1.0
1001
ACAD
1000
MTEXTBEGIN
1070
    73
1070
     1
1070
    44
1040
1.0
1070
    74
1070
     0
1000
MTEXTEND
  0
POINT
  5
18E42
330
18E30
100
AcDbEntity
  8
DEFPOINTS
 62
     0
 48
50.0
100
AcDbPoint
 10
8404.345105459112
 20
2341.746374670296
 30
0.0
  0
POINT
  5
18E43
330
18E30
100
AcDbEntity
  8
DEFPOINTS
 62
     0
 48
50.0
100
AcDbPoint
 10
8204.345105459109
 20
2341.746374670296
 30
0.0
  0
POINT
  5
18E44
330
18E30
100
AcDbEntity
  8
DEFPOINTS
 62
     0
 48
50.0
100
AcDbPoint
 10
8204.345105459109
 20
2055.699045369918
 30
0.0
  0
ENDBLK
  5
18E3B
330
18E30
100
AcDbEntity
  8
0
 48
50.0
100
AcDbBlockEnd
  0
BLOCK
  5
18FF8
330
18FEE
100
AcDbEntity
  8
0
 48
50.0
100
AcDbBlockBegin
  2
*D30
 70
     1
 10
0.0
 20
0.0
 30
0.0
  3
*D30
  1

  0
LINE
  5
194A7
330
18FEE
100
AcDbEntity
  8
寸法
 62
     0
 48
50.0
370
    -2
100
AcDbLine
 10
8791.345105459088
 20
7637.694702477435
 30
0.0
 11
8791.345105459088
 21
6987.792881344373
 31
0.0
  0
LINE
  5
194A8
330
18FEE
100
AcDbEntity
  8
寸法
 62
     0
 48
50.0
370
    -2
100
AcDbLine
 10
10057.34510545909
 20
7637.694702477435
 30
0.0
 11
10057.34510545909
 21
6987.792881344373
 31
0.0
  0
LINE
  5
194A9
330
18FEE
100
AcDbEntity
  8
寸法
 62
     0
 48
50.0
370
    -2
100
AcDbLine
 10
8811.345105459087
 20
7027.792881344372
 30
0.0
 11
10037.34510545909
 21
7027.792881344372
 31
0.0
  0
INSERT
  5
194AA
330
18FEE
100
AcDbEntity
  8
寸法
 62
     0
 48
50.0
370
    -2
100
AcDbBlockReference
  2
_DOT
 10
8791.345105459088
 20
7027.792881344372
 30
0.0
 41
20.0
 42
20.0
 43
20.0
 50
180.0
  0
INSERT
  5
194AB
330
18FEE
100
AcDbEntity
  8
寸法
 62
     0
 48
50.0
370
    -2
100
AcDbBlockReference
  2
_DOT
 10
10057.34510545909
 20
7027.792881344372
 30
0.0
 41
20.0
 42
20.0
 43
20.0
  0
MTEXT
  5
194AC
330
18FEE
100
AcDbEntity
  8
寸法
 62
     7
 48
50.0
100
AcDbMText
 10
9436.091191438944
 20
7219.804692367993
 30
0.0
 40
120.0
 41
0.0
 71
     5
 72
     1
  1
\A1;有効開口部間口\P1266
  7
STYLE1
 73
     1
 44
1.0
1001
ACAD
1000
MTEXTBEGIN
1070
    73
1070
     1
1070
    44
1040
1.0
1070
    74
1070
     0
1000
MTEXTEND
  0
POINT
  5
194AD
330
18FEE
100
AcDbEntity
  8
DEFPOINTS
 62
     0
 48
50.0
100
AcDbPoint
 10
8791.345105459088
 20
7657.694702477434
 30
0.0
  0
POINT
  5
194AE
330
18FEE
100
AcDbEntity
  8
DEFPOINTS
 62
     0
 48
50.0
100
AcDbPoint
 10
10057.34510545909
 20
7657.694702477434
 30
0.0
  0
POINT
  5
194AF
330
18FEE
100
AcDbEntity
  8
DEFPOINTS
 62
     0
 48
50.0
100
AcDbPoint
 10
10057.34510545909
 20
7027.792881344372
 30
0.0
  0
ENDBLK
  5
18FF9
330
18FEE
100
AcDbEntity
  8
0
 48
50.0
100
AcDbBlockEnd
  0
BLOCK
  5
1933D
330
19333
100
AcDbEntity
  8
0
 48
50.0
100
AcDbBlockBegin
  2
*D31
 70
     1
 10
0.0
 20
0.0
 30
0.0
  3
*D31
  1

  0
LINE
  5
1949E
330
19333
100
AcDbEntity
  8
寸法
 62
     0
 48
50.0
370
    -2
100
AcDbLine
 10
8752.345105459088
 20
7639.694702477271
 30
0.0
 11
8752.345105459088
 21
6637.350898238077
 31
0.0
  0
LINE
  5
1949F
330
19333
100
AcDbEntity
  8
寸法
 62
     0
 48
50.0
370
    -2
100
AcDbLine
 10
10906.34510545908
 20
7639.694702477271
 30
0.0
 11
10906.34510545908
 21
6637.350898238077
 31
0.0
  0
LINE
  5
194A0
330
19333
100
AcDbEntity
  8
寸法
 62
     0
 48
50.0
370
    -2
100
AcDbLine
 10
8752.345105459088
 20
6697.350898238077
 30
0.0
 11
10906.34510545908
 21
6697.350898238077
 31
0.0
  0
INSERT
  5
194A1
330
19333
100
AcDbEntity
  8
寸法
 62
     0
 48
50.0
370
    -2
100
AcDbBlockReference
  2
_DOTSMALL
 10
8752.345105459088
 20
6697.350898238077
 30
0.0
 41
100.0
 42
100.0
 43
100.0
 50
180.0
  0
INSERT
  5
194A2
330
19333
100
AcDbEntity
  8
寸法
 62
     0
 48
50.0
370
    -2
100
AcDbBlockReference
  2
_DOTSMALL
 10
10906.34510545908
 20
6697.350898238077
 30
0.0
 41
100.0
 42
100.0
 43
100.0
  0
MTEXT
  5
194A3
330
19333
100
AcDbEntity
  8
寸法
 62
     7
 48
50.0
100
AcDbMText
 10
9807.481851655554
 20
6797.362709261699
 30
0.0
 40
120.0
 41
0.0
 71
     5
 72
     1
  1
\A1;2154
  7
STYLE1
 73
     1
 44
1.0
1001
ACAD
1000
MTEXTBEGIN
1070
    73
1070
     1
1070
    44
1040
1.0
1070
    74
1070
     0
1000
MTEXTEND
  0
POINT
  5
194A4
330
19333
100
AcDbEntity
  8
DEFPOINTS
 62
     0
 48
50.0
100
AcDbPoint
 10
8752.345105459088
 20
7659.694702477271
 30
0.0
  0
POINT
  5
194A5
330
19333
100
AcDbEntity
  8
DEFPOINTS
 62
     0
 48
50.0
100
AcDbPoint
 10
10906.34510545908
 20
7659.694702477271
 30
0.0
  0
POINT
  5
194A6
330
19333
100
AcDbEntity
  8
DEFPOINTS
 62
     0
 48
50.0
100
AcDbPoint
 10
10906.34510545908
 20
6697.350898238077
 30
0.0
  0
ENDBLK
  5
1933E
330
19333
100
AcDbEntity
  8
0
 48
50.0
100
AcDbBlockEnd
  0
BLOCK
  5
1934B
330
1933F
100
AcDbEntity
  8
0
 48
50.0
100
AcDbBlockBegin
  2
*D32
 70
     1
 10
0.0
 20
0.0
 30
0.0
  3
*D32
  1

  0
LINE
  5
19493
330
1933F
100
AcDbEntity
  8
寸法
 62
     0
 48
50.0
370
    -2
100
AcDbLine
 10
8284.345105459113
 20
7734.69470247727
 30
0.0
 11
7969.733859832397
 21
7734.69470247727
 31
0.0
  0
LINE
  5
19494
330
1933F
100
AcDbEntity
  8
寸法
 62
     0
 48
50.0
370
    -2
100
AcDbLine
 10
8732.345105459087
 20
7659.694702477271
 30
0.0
 11
7969.733859832397
 21
7659.694702477271
 31
0.0
  0
LINE
  5
19495
330
1933F
100
AcDbEntity
  8
寸法
 62
     0
 48
50.0
370
    -2
100
AcDbLine
 10
8009.733859832396
 20
7754.69470247727
 30
0.0
 11
8009.733859832396
 21
7774.694702477271
 31
0.0
  0
LINE
  5
19496
330
1933F
100
AcDbEntity
  8
寸法
 62
     0
 48
50.0
370
    -2
100
AcDbLine
 10
8009.733859832396
 20
7639.694702477271
 30
0.0
 11
8009.733859832396
 21
7418.724139728793
 31
0.0
  0
LINE
  5
19497
330
1933F
100
AcDbEntity
  8
寸法
 62
     0
 48
50.0
370
    -2
100
AcDbLine
 10
8009.733859832396
 20
7734.69470247727
 30
0.0
 11
8009.733859832396
 21
7659.694702477271
 31
0.0
  0
INSERT
  5
19498
330
1933F
100
AcDbEntity
  8
寸法
 62
     0
 48
50.0
370
    -2
100
AcDbBlockReference
  2
_DOT
 10
8009.733859832396
 20
7734.69470247727
 30
0.0
 41
20.0
 42
20.0
 43
20.0
 50
270.0
  0
INSERT
  5
19499
330
1933F
100
AcDbEntity
  8
寸法
 62
     0
 48
50.0
370
    -2
100
AcDbBlockReference
  2
_DOT
 10
8009.733859832396
 20
7659.694702477271
 30
0.0
 41
20.0
 42
20.0
 43
20.0
 50
90.0
  0
MTEXT
  5
1949A
330
1933F
100
AcDbEntity
  8
寸法
 62
     7
 48
50.0
100
AcDbMText
 10
7917.733859832395
 20
7519.209421103032
 30
0.0
 40
120.0
 41
0.0
 71
     5
 72
     1
  1
\A1;75
  7
STYLE1
 11
0.0000000000000001
 21
1.0
 31
0.0
 73
     1
 44
1.0
1001
ACAD
1000
MTEXTBEGIN
1070
    73
1070
     1
1070
    44
1040
1.0
1070
    74
1070
     0
1000
MTEXTEND
  0
POINT
  5
1949B
330
1933F
100
AcDbEntity
  8
DEFPOINTS
 62
     0
 48
50.0
100
AcDbPoint
 10
8304.345105459113
 20
7734.69470247727
 30
0.0
  0
POINT
  5
1949C
330
1933F
100
AcDbEntity
  8
DEFPOINTS
 62
     0
 48
50.0
100
AcDbPoint
 10
8752.345105459088
 20
7659.694702477271
 30
0.0
  0
POINT
  5
1949D
330
1933F
100
AcDbEntity
  8
DEFPOINTS
 62
     0
 48
50.0
100
AcDbPoint
 10
8009.733859832396
 20
7659.694702477271
 30
0.0
  0
ENDBLK
  5
1934C
330
1933F
100
AcDbEntity
  8
0
 48
50.0
100
AcDbBlockEnd
  0
BLOCK
  5
193CB
330
193C1
100
AcDbEntity
  8
0
 48
50.0
100
AcDbBlockBegin
  2
*D33
 70
     1
 10
0.0
 20
0.0
 30
0.0
  3
*D33
  1

  0
LINE
  5
1948A
330
193C1
100
AcDbEntity
  8
寸法
 62
     0
 48
50.0
370
    -2
100
AcDbLine
 10
8304.345105459113
 20
7714.694702477274
 30
0.0
 11
8304.345105459113
 21
6379.237786114816
 31
0.0
  0
LINE
  5
1948B
330
193C1
100
AcDbEntity
  8
寸法
 62
     0
 48
50.0
370
    -2
100
AcDbLine
 10
11354.34510545909
 20
7714.694702477437
 30
0.0
 11
11354.34510545909
 21
6379.237786114816
 31
0.0
  0
LINE
  5
1948C
330
193C1
100
AcDbEntity
  8
寸法
 62
     0
 48
50.0
370
    -2
100
AcDbLine
 10
8304.345105459113
 20
6439.237786114816
 30
0.0
 11
11354.34510545909
 21
6439.237786114816
 31
0.0
  0
INSERT
  5
1948D
330
193C1
100
AcDbEntity
  8
寸法
 62
     0
 48
50.0
370
    -2
100
AcDbBlockReference
  2
_DOTSMALL
 10
8304.345105459113
 20
6439.237786114816
 30
0.0
 41
100.0
 42
100.0
 43
100.0
 50
180.0
  0
INSERT
  5
1948E
330
193C1
100
AcDbEntity
  8
寸法
 62
     0
 48
50.0
370
    -2
100
AcDbBlockReference
  2
_DOTSMALL
 10
11354.34510545909
 20
6439.237786114816
 30
0.0
 41
100.0
 42
100.0
 43
100.0
  0
MTEXT
  5
1948F
330
193C1
100
AcDbEntity
  8
寸法
 62
     7
 48
50.0
100
AcDbMText
 10
9803.290774556561
 20
6539.237786114816
 30
0.0
 40
120.0
 41
0.0
 71
     5
 72
     1
  1
\A1;3050
  7
STYLE1
 73
     1
 44
1.0
1001
ACAD
1000
MTEXTBEGIN
1070
    73
1070
     1
1070
    44
1040
1.0
1070
    74
1070
     0
1000
MTEXTEND
  0
POINT
  5
19490
330
193C1
100
AcDbEntity
  8
DEFPOINTS
 62
     0
 48
50.0
100
AcDbPoint
 10
8304.345105459113
 20
7734.694702477274
 30
0.0
  0
POINT
  5
19491
330
193C1
100
AcDbEntity
  8
DEFPOINTS
 62
     0
 48
50.0
100
AcDbPoint
 10
11354.34510545909
 20
7734.694702477438
 30
0.0
  0
POINT
  5
19492
330
193C1
100
AcDbEntity
  8
DEFPOINTS
 62
     0
 48
50.0
100
AcDbPoint
 10
11354.34510545909
 20
6439.237786114816
 30
0.0
  0
ENDBLK
  5
193CC
330
193C1
100
AcDbEntity
  8
0
 48
50.0
100
AcDbBlockEnd
  0
ENDSEC
  0
SECTION
  2
ENTITIES
  0
LINE
  5
10B57
330
747D
100
AcDbEntity
  8
補助
  6
PHANTOM
 62
   230
 48
50.0
100
AcDbLine
 10
139.9999999999995
 20
11409.6
 30
0.0
 11
16307.2
 21
11409.6
 31
0.0
  0
LINE
  5
10B59
330
747D
100
AcDbEntity
  8
仕様書枠
  6
Continuous
 48
50.0
100
AcDbLine
 10
13107.2
 20
1200.0
 30
0.0
 11
13107.2
 21
-0.0000000000000729
 31
0.0
  0
LINE
  5
10B5C
330
747D
100
AcDbEntity
  8
仕様書枠
 48
50.0
100
AcDbLine
 10
16307.2
 20
1200.0
 30
0.0
 11
16307.2
 21
-0.0000000000000909
 31
0.0
  0
LINE
  5
10B5D
330
747D
100
AcDbEntity
  8
仕様書枠
 48
50.0
100
AcDbLine
 10
140.0
 20
0.0
 30
0.0
 11
16307.2
 21
-0.0000000000000909
 31
0.0
  0
LINE
  5
10B5E
330
747D
100
AcDbEntity
  8
補助
  6
PHANTOM
 62
   230
 48
50.0
100
AcDbLine
 10
16307.2
 20
11409.6
 30
0.0
 11
16307.2
 21
1200.0
 31
0.0
  0
LINE
  5
10B6C
330
747D
100
AcDbEntity
  8
仕様書枠
 48
50.0
100
AcDbLine
 10
13107.2
 20
1200.0
 30
0.0
 11
16307.2
 21
1200.0
 31
0.0
  0
LINE
  5
10B6D
330
747D
100
AcDbEntity
  8
補助
  6
PHANTOM
 62
   230
 48
50.0
100
AcDbLine
 10
13107.2
 20
11409.6
 30
0.0
 11
13107.2
 21
4800.0
 31
0.0
  0
LINE
  5
10B6F
330
747D
100
AcDbEntity
  8
補助
  6
PHANTOM
 62
   230
 48
50.0
100
AcDbLine
 10
13107.2
 20
4800.0
 30
0.0
 11
16307.2
 21
4800.0
 31
0.0
  0
LINE
  5
10B72
330
747D
100
AcDbEntity
  8
文字
 62
     7
 48
50.0
100
AcDbLine
 10
13187.2
 20
400.0
 30
0.0
 11
16227.2
 21
400.0
 31
0.0
  0
TEXT
  5
10B73
330
747D
100
AcDbEntity
  8
文字
 62
     7
 48
50.0
100
AcDbText
 10
13162.9790565769
 20
895.0906074299405
 30
0.0
 40
200.0
  1
外 形 図
  7
STYLE2
100
AcDbText
  0
TEXT
  5
10B74
330
747D
100
AcDbEntity
  8
文字
 62
     7
 48
50.0
100
AcDbText
 10
13201.43669998441
 20
477.2740661031255
 30
0.0
 40
160.0
  1
機種名
  7
STYLE2
100
AcDbText
  0
TEXT
  5
10B76
330
747D
100
AcDbEntity
  8
文字
 62
     7
 48
50.0
100
AcDbText
 10
13209.4053442172
 20
76.09434707649343
 30
0.0
 40
100.0
  1
○床面積 ： 5.63㎡(1.70坪) 　
  7
STYLE2
100
AcDbText
  0
TEXT
  5
10B79
330
747D
100
AcDbEntity
  8
文字
 62
     7
 48
50.0
100
AcDbText
 10
14524.131837222
 20
1031.557706291228
 30
0.0
 40
100.0
  1
NO.27      <縮尺> S=1/40
  7
STYLE2
100
AcDbText
  0
LINE
  5
10B7B
330
747D
100
AcDbEntity
  8
仕様書枠
 48
50.0
100
AcDbLine
 10
13107.2
 20
800.0
 30
0.0
 11
14251.2
 21
800.0
 31
0.0
  0
LINE
  5
10B88
330
747D
100
AcDbEntity
  8
仕様書枠
  6
Continuous
 48
50.0
100
AcDbLine
 10
14251.2
 20
1200.0
 30
0.0
 11
14251.2
 21
800.0
 31
0.0
  0
TEXT
  5
154D3
330
747D
100
AcDbEntity
  8
文字
 62
     7
 48
50.0
100
AcDbText
 10
14643.63059855437
 20
863.0097378581719
 30
0.0
 40
100.0
  1
～一般型・多雪地型～
  7
STYLE2
100
AcDbText
  0
LINE
  5
174BB
330
747D
100
AcDbEntity
  8
補助
  6
PHANTOM
 62
   230
 48
50.0
100
AcDbLine
 10
140.0
 20
0.0
 30
0.0
 11
139.9999999999995
 21
11409.6
 31
0.0
  0
LINE
  5
1797F
330
747D
100
AcDbEntity
  8
細線
 48
50.0
100
AcDbLine
 10
8436.845105459113
 20
4481.746374670296
 30
0.0
 11
8436.845105459113
 21
2691.746374670296
 31
0.0
  0
LINE
  5
17980
330
747D
100
AcDbEntity
  8
細線
 48
50.0
100
AcDbLine
 10
8421.845105459112
 20
4481.746374670296
 30
0.0
 11
8421.845105459112
 21
2691.746374670296
 31
0.0
  0
LINE
  5
17981
330
747D
100
AcDbEntity
  8
細線
 48
50.0
100
AcDbLine
 10
8561.845105459113
 20
4481.746374670296
 30
0.0
 11
8561.845105459113
 21
2691.746374670296
 31
0.0
  0
LINE
  5
17982
330
747D
100
AcDbEntity
  8
細線
 48
50.0
100
AcDbLine
 10
8576.845105459113
 20
4481.746374670296
 30
0.0
 11
8576.845105459113
 21
2691.746374670296
 31
0.0
  0
LINE
  5
17983
330
747D
100
AcDbEntity
  8
細線
 48
50.0
100
AcDbLine
 10
8716.845105459112
 20
4481.746374670296
 30
0.0
 11
8716.845105459112
 21
2691.746374670296
 31
0.0
  0
LINE
  5
17984
330
747D
100
AcDbEntity
  8
細線
 48
50.0
100
AcDbLine
 10
8701.845105459113
 20
4481.746374670296
 30
0.0
 11
8701.845105459113
 21
2691.746374670296
 31
0.0
  0
LINE
  5
17985
330
747D
100
AcDbEntity
  8
細線
 48
50.0
100
AcDbLine
 10
10956.84510545911
 20
4481.746374670296
 30
0.0
 11
10956.84510545911
 21
2691.746374670296
 31
0.0
  0
LINE
  5
17986
330
747D
100
AcDbEntity
  8
細線
 48
50.0
100
AcDbLine
 10
10941.84510545912
 20
4481.746374670296
 30
0.0
 11
10941.84510545912
 21
2691.746374670296
 31
0.0
  0
LINE
  5
17987
330
747D
100
AcDbEntity
  8
細線
 48
50.0
100
AcDbLine
 10
11081.84510545912
 20
4481.746374670296
 30
0.0
 11
11081.84510545912
 21
2691.746374670296
 31
0.0
  0
LINE
  5
17988
330
747D
100
AcDbEntity
  8
細線
 48
50.0
100
AcDbLine
 10
11096.84510545911
 20
4481.746374670296
 30
0.0
 11
11096.84510545911
 21
2691.746374670296
 31
0.0
  0
LINE
  5
17989
330
747D
100
AcDbEntity
  8
細線
 48
50.0
100
AcDbLine
 10
11236.84510545911
 20
4481.746374670296
 30
0.0
 11
11236.84510545911
 21
2691.746374670296
 31
0.0
  0
LINE
  5
1798A
330
747D
100
AcDbEntity
  8
細線
 48
50.0
100
AcDbLine
 10
11221.84510545912
 20
4481.746374670296
 30
0.0
 11
11221.84510545912
 21
2691.746374670296
 31
0.0
  0
LINE
  5
1798B
330
747D
100
AcDbEntity
  8
部品1
100
AcDbLine
 10
10870.34510545909
 20
4711.746374678773
 30
0.0
 11
10870.34510545909
 21
4614.335307170208
 31
0.0
  0
LINE
  5
1798C
330
747D
100
AcDbEntity
  8
部品1
100
AcDbLine
 10
10888.34510545909
 20
4711.746374678783
 30
0.0
 11
10888.34510545909
 21
4614.335307170208
 31
0.0
  0
LINE
  5
1798D
330
747D
100
AcDbEntity
  8
部品1
 48
50.0
100
AcDbLine
 10
10867.3451054591
 20
4711.746374678783
 30
0.0
 11
10891.3451054591
 21
4711.746374678783
 31
0.0
  0
LINE
  5
1798E
330
747D
100
AcDbEntity
  8
部品1
 48
50.0
100
AcDbLine
 10
10867.3451054591
 20
4711.746374678783
 30
0.0
 11
10866.13376525291
 21
4702.346374678781
 31
0.0
  0
LINE
  5
1798F
330
747D
100
AcDbEntity
  8
部品1
 48
50.0
100
AcDbLine
 10
10852.13376525291
 20
4702.346374678781
 30
0.0
 11
10866.13376525291
 21
4702.346374678781
 31
0.0
  0
LINE
  5
17990
330
747D
100
AcDbEntity
  8
部品1
 48
50.0
100
AcDbLine
 10
10852.13376525291
 20
4702.346374678781
 30
0.0
 11
10850.8451054591
 21
4692.346374678782
 31
0.0
  0
LINE
  5
17991
330
747D
100
AcDbEntity
  8
部品1
 48
50.0
100
AcDbLine
 10
10891.3451054591
 20
4711.746374678783
 30
0.0
 11
10893.8451054591
 21
4692.346374678782
 31
0.0
  0
LINE
  5
17992
330
747D
100
AcDbEntity
  8
部品1
100
AcDbLine
 10
11037.3451054591
 20
4692.346374678782
 30
0.0
 11
10893.8451054591
 21
4692.346374678782
 31
0.0
  0
LINE
  5
17993
330
747D
100
AcDbEntity
  8
部品1
100
AcDbLine
 10
11110.3451054591
 20
4692.346374678782
 30
0.0
 11
11086.3451054591
 21
4692.346374678782
 31
0.0
  0
LINE
  5
17994
330
747D
100
AcDbEntity
  8
部品1
 48
50.0
100
AcDbLine
 10
11075.8451054591
 20
4711.746374678787
 30
0.0
 11
11086.3451054591
 21
4692.346374678786
 31
0.0
  0
LINE
  5
17995
330
747D
100
AcDbEntity
  8
部品1
 48
50.0
100
AcDbLine
 10
11047.8451054591
 20
4711.746374678787
 30
0.0
 11
11037.3451054591
 21
4692.346374678786
 31
0.0
  0
LINE
  5
17996
330
747D
100
AcDbEntity
  8
部品1
 48
50.0
100
AcDbLine
 10
11047.8451054591
 20
4711.746374678787
 30
0.0
 11
11075.8451054591
 21
4711.746374678787
 31
0.0
  0
LINE
  5
17997
330
747D
100
AcDbEntity
  8
部品1
 48
50.0
100
AcDbLine
 10
11120.8451054591
 20
4711.746374678787
 30
0.0
 11
11110.3451054591
 21
4692.346374678786
 31
0.0
  0
LINE
  5
17998
330
747D
100
AcDbEntity
  8
部品1
 48
50.0
100
AcDbLine
 10
11148.8451054591
 20
4711.746374678787
 30
0.0
 11
11159.3451054591
 21
4692.346374678786
 31
0.0
  0
LINE
  5
17999
330
747D
100
AcDbEntity
  8
部品1
 48
50.0
100
AcDbLine
 10
11120.8451054591
 20
4711.746374678787
 30
0.0
 11
11148.8451054591
 21
4711.746374678787
 31
0.0
  0
LINE
  5
1799A
330
747D
100
AcDbEntity
  8
部品1
100
AcDbLine
 10
11074.34510545911
 20
4711.746374678783
 30
0.0
 11
11074.34510545911
 21
4614.335307170211
 31
0.0
  0
LINE
  5
1799B
330
747D
100
AcDbEntity
  8
部品1
100
AcDbLine
 10
11049.34510545911
 20
4711.746374678783
 30
0.0
 11
11049.34510545911
 21
4614.335307170211
 31
0.0
  0
LINE
  5
1799C
330
747D
100
AcDbEntity
  8
部品1
100
AcDbLine
 10
11122.34510545911
 20
4711.746374678783
 30
0.0
 11
11122.34510545911
 21
4614.335307170211
 31
0.0
  0
LINE
  5
1799D
330
747D
100
AcDbEntity
  8
部品1
100
AcDbLine
 10
11147.34510545911
 20
4711.746374678783
 30
0.0
 11
11147.34510545911
 21
4614.335307170211
 31
0.0
  0
LINE
  5
1799E
330
747D
100
AcDbEntity
  8
部品1
100
AcDbLine
 10
11270.8451054591
 20
4692.346374678767
 30
0.0
 11
11159.34510545911
 21
4692.346374678767
 31
0.0
  0
LINE
  5
1799F
330
747D
100
AcDbEntity
  8
部品1
100
AcDbLine
 10
11354.4157334523
 20
4692.346374678764
 30
0.0
 11
11313.84510545909
 21
4692.346374678764
 31
0.0
  0
LINE
  5
179A0
330
747D
100
AcDbEntity
  8
部品1
 48
50.0
100
AcDbLine
 10
11311.3451054591
 20
4711.746374678769
 30
0.0
 11
11313.8451054591
 21
4692.346374678767
 31
0.0
  0
LINE
  5
179A1
330
747D
100
AcDbEntity
  8
部品1
 48
50.0
100
AcDbLine
 10
11272.13376525291
 20
4702.346374678767
 30
0.0
 11
11270.8451054591
 21
4692.346374678767
 31
0.0
  0
LINE
  5
179A2
330
747D
100
AcDbEntity
  8
部品1
 48
50.0
100
AcDbLine
 10
11272.13376525291
 20
4702.346374678767
 30
0.0
 11
11286.13376525291
 21
4702.346374678767
 31
0.0
  0
LINE
  5
179A3
330
747D
100
AcDbEntity
  8
部品1
 48
50.0
100
AcDbLine
 10
11287.3451054591
 20
4711.746374678769
 30
0.0
 11
11286.13376525291
 21
4702.346374678767
 31
0.0
  0
LINE
  5
179A4
330
747D
100
AcDbEntity
  8
細線
 48
50.0
100
AcDbLine
 10
11354.4157334523
 20
4633.718207418246
 30
0.0
 11
11402.47897473625
 21
4633.718207418253
 31
0.0
  0
LINE
  5
179A5
330
747D
100
AcDbEntity
  8
細線
 48
50.0
100
AcDbLine
 10
11371.85619536338
 20
4661.746374670296
 30
0.0
 11
11371.85619536338
 21
4535.246374670296
 31
0.0
  0
ARC
  5
179A6
330
747D
100
AcDbEntity
  8
部品1
100
AcDbCircle
 10
11397.35906164189
 20
4709.746374687195
 30
0.0
 40
7.0
100
AcDbArc
 50
356.3813705198622
 51
90.0
  0
LINE
  5
179A7
330
747D
100
AcDbEntity
  8
部品1
100
AcDbLine
 10
11359.4157334523
 20
4716.746374687194
 30
0.0
 11
11397.35906164189
 21
4716.746374687194
 31
0.0
  0
ARC
  5
179A8
330
747D
100
AcDbEntity
  8
部品1
100
AcDbCircle
 10
11359.4157334523
 20
4711.746374687194
 30
0.0
 40
5.0
100
AcDbArc
 50
90.0
 51
180.0
  0
LINE
  5
179A9
330
747D
100
AcDbEntity
  8
部品1
 48
50.0
100
AcDbLine
 10
11404.3451054591
 20
4654.304569527707
 30
0.0
 11
11404.3451054591
 21
4709.304569544605
 31
0.0
  0
LINE
  5
179AA
330
747D
100
AcDbEntity
  8
部品1
100
AcDbLine
 10
11354.4157334523
 20
4711.746374687194
 30
0.0
 11
11354.4157334523
 21
4614.335307170192
 31
0.0
  0
ARC
  5
179AB
330
747D
100
AcDbEntity
  8
部品1
100
AcDbCircle
 10
11359.4157334523
 20
4656.746374670296
 30
0.0
 40
5.0
100
AcDbArc
 50
90.0
 51
180.0
  0
LINE
  5
179AC
330
747D
100
AcDbEntity
  8
部品1
100
AcDbLine
 10
11359.4157334523
 20
4661.746374670296
 30
0.0
 11
11397.35906164189
 21
4661.746374670296
 31
0.0
  0
LINE
  5
179AD
330
747D
100
AcDbEntity
  8
部品1
100
AcDbLine
 10
11403.08456740053
 20
4634.372311476625
 30
0.0
 11
11404.3451054591
 21
4654.304569527707
 31
0.0
  0
LINE
  5
179AE
330
747D
100
AcDbEntity
  8
部品1
100
AcDbLine
 10
11391.21849461313
 20
4541.804569527707
 30
0.0
 11
11391.89082031771
 21
4552.435719731407
 31
0.0
  0
ARC
  5
179AF
330
747D
100
AcDbEntity
  8
部品1
100
AcDbCircle
 10
11397.35906164189
 20
4654.746374670295
 30
0.0
 40
7.0
100
AcDbArc
 50
356.3813705198622
 51
90.0
  0
ARC
  5
179B0
330
747D
100
AcDbEntity
  8
部品1
100
AcDbCircle
 10
11384.23245079592
 20
4542.246374670296
 30
0.0
 40
7.0
100
AcDbArc
 50
270.0
 51
356.3813705198622
  0
ARC
  5
179B1
330
747D
100
AcDbEntity
  8
部品1
100
AcDbCircle
 10
11394.88483909651
 20
4552.246374670295
 30
0.0
 40
3.0
100
AcDbArc
 50
90.0
 51
176.3813705198622
  0
ARC
  5
179B2
330
747D
100
AcDbEntity
  8
部品1
100
AcDbCircle
 10
11394.41554297132
 20
4555.916491990885
 30
0.0
 40
0.7
100
AcDbArc
 50
277.2868405166456
 51
356.3813705198622
  0
LINE
  5
179B3
330
747D
100
AcDbEntity
  8
部品1
100
AcDbLine
 10
11399.8612403652
 20
4630.935719731407
 30
0.0
 11
11395.11414735304
 21
4555.872311476625
 31
0.0
  0
ARC
  5
179B4
330
747D
100
AcDbEntity
  8
部品1
100
AcDbCircle
 10
11402.855259144
 20
4630.746374670296
 30
0.0
 40
3.0
100
AcDbArc
 50
90.0
 51
176.3813705198622
  0
ARC
  5
179B5
330
747D
100
AcDbEntity
  8
部品1
100
AcDbCircle
 10
11402.38596301881
 20
4634.416491990886
 30
0.0
 40
0.7
100
AcDbArc
 50
277.2868405166456
 51
356.3813705198622
  0
LINE
  5
179B6
330
747D
100
AcDbEntity
  8
部品1
 48
50.0
100
AcDbLine
 10
11359.4157334523
 20
4661.746374670296
 30
0.0
 11
11397.35906164189
 21
4661.746374670296
 31
0.0
  0
LINE
  5
179B7
330
747D
100
AcDbEntity
  8
部品1
 48
50.0
100
AcDbLine
 10
11287.3451054591
 20
4711.746374678769
 30
0.0
 11
11311.3451054591
 21
4711.746374678769
 31
0.0
  0
LINE
  5
179B8
330
747D
100
AcDbEntity
  8
部品1
100
AcDbLine
 10
11308.34510545909
 20
4711.746374678769
 30
0.0
 11
11308.34510545909
 21
4614.335307170192
 31
0.0
  0
LINE
  5
179B9
330
747D
100
AcDbEntity
  8
部品1
100
AcDbLine
 10
11290.34510545909
 20
4711.746374678758
 30
0.0
 11
11290.34510545909
 21
4614.335307170192
 31
0.0
  0
DIMENSION
  5
179BA
330
747D
100
AcDbEntity
  8
寸法
 48
50.0
100
AcDbDimension
  2
*D2
 10
11354.34510545911
 20
5115.839544009769
 30
0.0
 11
11717.83038683334
 21
5115.839544009769
 31
0.0
 70
   160
 71
     5
 42
50.0
  3
INABA_S40G
100
AcDbAlignedDimension
 13
11404.34510545911
 23
4716.746374670298
 33
0.0
 14
11354.34510545911
 24
4716.746374670301
 34
0.0
100
AcDbRotatedDimension
  0
LINE
  5
179BB
330
747D
100
AcDbEntity
  8
部品1
100
AcDbLine
 10
10850.8451054591
 20
4692.346374678767
 30
0.0
 11
10739.34510545911
 21
4692.346374678767
 31
0.0
  0
LINE
  5
179BC
330
747D
100
AcDbEntity
  8
部品1
100
AcDbLine
 10
10727.34510545911
 20
4711.746374678783
 30
0.0
 11
10727.34510545911
 21
4614.335307170211
 31
0.0
  0
LINE
  5
179BD
330
747D
100
AcDbEntity
  8
部品1
100
AcDbLine
 10
10702.34510545911
 20
4711.746374678783
 30
0.0
 11
10702.34510545911
 21
4614.335307170211
 31
0.0
  0
LINE
  5
179BE
330
747D
100
AcDbEntity
  8
部品1
100
AcDbLine
 10
10629.34510545911
 20
4711.746374678783
 30
0.0
 11
10629.34510545911
 21
4614.335307170211
 31
0.0
  0
LINE
  5
179BF
330
747D
100
AcDbEntity
  8
部品1
100
AcDbLine
 10
10654.34510545911
 20
4711.746374678783
 30
0.0
 11
10654.34510545911
 21
4614.335307170211
 31
0.0
  0
LINE
  5
179C0
330
747D
100
AcDbEntity
  8
部品1
 48
50.0
100
AcDbLine
 10
10700.8451054591
 20
4711.746374678787
 30
0.0
 11
10728.8451054591
 21
4711.746374678787
 31
0.0
  0
LINE
  5
179C1
330
747D
100
AcDbEntity
  8
部品1
 48
50.0
100
AcDbLine
 10
10728.8451054591
 20
4711.746374678787
 30
0.0
 11
10739.3451054591
 21
4692.346374678786
 31
0.0
  0
LINE
  5
179C2
330
747D
100
AcDbEntity
  8
部品1
 48
50.0
100
AcDbLine
 10
10700.8451054591
 20
4711.746374678787
 30
0.0
 11
10690.3451054591
 21
4692.346374678786
 31
0.0
  0
LINE
  5
179C3
330
747D
100
AcDbEntity
  8
部品1
 48
50.0
100
AcDbLine
 10
10627.8451054591
 20
4711.746374678787
 30
0.0
 11
10655.8451054591
 21
4711.746374678787
 31
0.0
  0
LINE
  5
179C4
330
747D
100
AcDbEntity
  8
部品1
 48
50.0
100
AcDbLine
 10
10627.8451054591
 20
4711.746374678787
 30
0.0
 11
10617.3451054591
 21
4692.346374678786
 31
0.0
  0
LINE
  5
179C5
330
747D
100
AcDbEntity
  8
部品1
 48
50.0
100
AcDbLine
 10
10655.8451054591
 20
4711.746374678787
 30
0.0
 11
10666.3451054591
 21
4692.346374678786
 31
0.0
  0
LINE
  5
179C6
330
747D
100
AcDbEntity
  8
部品1
100
AcDbLine
 10
10690.3451054591
 20
4692.346374678782
 30
0.0
 11
10666.3451054591
 21
4692.346374678782
 31
0.0
  0
LINE
  5
179C7
330
747D
100
AcDbEntity
  8
部品1
100
AcDbLine
 10
10617.3451054591
 20
4692.346374678782
 30
0.0
 11
10473.8451054591
 21
4692.346374678782
 31
0.0
  0
LINE
  5
179C8
330
747D
100
AcDbEntity
  8
部品1
 48
50.0
100
AcDbLine
 10
10471.3451054591
 20
4711.746374678783
 30
0.0
 11
10473.8451054591
 21
4692.346374678782
 31
0.0
  0
LINE
  5
179C9
330
747D
100
AcDbEntity
  8
部品1
 48
50.0
100
AcDbLine
 10
10432.13376525292
 20
4702.346374678781
 30
0.0
 11
10430.8451054591
 21
4692.346374678782
 31
0.0
  0
LINE
  5
179CA
330
747D
100
AcDbEntity
  8
部品1
 48
50.0
100
AcDbLine
 10
10432.13376525292
 20
4702.346374678781
 30
0.0
 11
10446.13376525292
 21
4702.346374678781
 31
0.0
  0
LINE
  5
179CB
330
747D
100
AcDbEntity
  8
部品1
 48
50.0
100
AcDbLine
 10
10447.3451054591
 20
4711.746374678783
 30
0.0
 11
10446.13376525292
 21
4702.346374678781
 31
0.0
  0
LINE
  5
179CC
330
747D
100
AcDbEntity
  8
部品1
 48
50.0
100
AcDbLine
 10
10447.3451054591
 20
4711.746374678783
 30
0.0
 11
10471.3451054591
 21
4711.746374678783
 31
0.0
  0
LINE
  5
179CD
330
747D
100
AcDbEntity
  8
部品1
100
AcDbLine
 10
10468.3451054591
 20
4711.746374678783
 30
0.0
 11
10468.3451054591
 21
4614.335307170208
 31
0.0
  0
LINE
  5
179CE
330
747D
100
AcDbEntity
  8
部品1
100
AcDbLine
 10
10450.3451054591
 20
4711.746374678773
 30
0.0
 11
10450.3451054591
 21
4614.335307170208
 31
0.0
  0
LINE
  5
179CF
330
747D
100
AcDbEntity
  8
部品1
100
AcDbLine
 10
10030.34510545911
 20
4711.746374678761
 30
0.0
 11
10030.34510545911
 21
4614.335307170196
 31
0.0
  0
LINE
  5
179D0
330
747D
100
AcDbEntity
  8
部品1
100
AcDbLine
 10
10048.34510545911
 20
4711.746374678773
 30
0.0
 11
10048.34510545911
 21
4614.335307170196
 31
0.0
  0
LINE
  5
179D1
330
747D
100
AcDbEntity
  8
部品1
 48
50.0
100
AcDbLine
 10
10027.34510545912
 20
4711.746374678773
 30
0.0
 11
10051.34510545912
 21
4711.746374678773
 31
0.0
  0
LINE
  5
179D2
330
747D
100
AcDbEntity
  8
部品1
 48
50.0
100
AcDbLine
 10
10027.34510545912
 20
4711.746374678773
 30
0.0
 11
10026.13376525293
 21
4702.346374678771
 31
0.0
  0
LINE
  5
179D3
330
747D
100
AcDbEntity
  8
部品1
 48
50.0
100
AcDbLine
 10
10012.13376525293
 20
4702.346374678771
 30
0.0
 11
10026.13376525293
 21
4702.346374678771
 31
0.0
  0
LINE
  5
179D4
330
747D
100
AcDbEntity
  8
部品1
 48
50.0
100
AcDbLine
 10
10012.13376525293
 20
4702.346374678771
 30
0.0
 11
10010.84510545912
 21
4692.346374678771
 31
0.0
  0
LINE
  5
179D5
330
747D
100
AcDbEntity
  8
部品1
 48
50.0
100
AcDbLine
 10
10051.34510545912
 20
4711.746374678773
 30
0.0
 11
10053.84510545912
 21
4692.346374678771
 31
0.0
  0
LINE
  5
179D6
330
747D
100
AcDbEntity
  8
部品1
100
AcDbLine
 10
10197.34510545912
 20
4692.346374678771
 30
0.0
 11
10053.84510545912
 21
4692.346374678771
 31
0.0
  0
LINE
  5
179D7
330
747D
100
AcDbEntity
  8
部品1
100
AcDbLine
 10
10270.34510545912
 20
4692.346374678771
 30
0.0
 11
10246.34510545912
 21
4692.346374678771
 31
0.0
  0
LINE
  5
179D8
330
747D
100
AcDbEntity
  8
部品1
 48
50.0
100
AcDbLine
 10
10235.84510545912
 20
4711.746374678776
 30
0.0
 11
10246.34510545912
 21
4692.346374678774
 31
0.0
  0
LINE
  5
179D9
330
747D
100
AcDbEntity
  8
部品1
 48
50.0
100
AcDbLine
 10
10207.84510545912
 20
4711.746374678776
 30
0.0
 11
10197.34510545912
 21
4692.346374678774
 31
0.0
  0
LINE
  5
179DA
330
747D
100
AcDbEntity
  8
部品1
 48
50.0
100
AcDbLine
 10
10207.84510545912
 20
4711.746374678776
 30
0.0
 11
10235.84510545912
 21
4711.746374678776
 31
0.0
  0
LINE
  5
179DB
330
747D
100
AcDbEntity
  8
部品1
 48
50.0
100
AcDbLine
 10
10280.84510545912
 20
4711.746374678776
 30
0.0
 11
10270.34510545912
 21
4692.346374678774
 31
0.0
  0
LINE
  5
179DC
330
747D
100
AcDbEntity
  8
部品1
 48
50.0
100
AcDbLine
 10
10308.84510545912
 20
4711.746374678776
 30
0.0
 11
10319.34510545912
 21
4692.346374678774
 31
0.0
  0
LINE
  5
179DD
330
747D
100
AcDbEntity
  8
部品1
 48
50.0
100
AcDbLine
 10
10280.84510545912
 20
4711.746374678776
 30
0.0
 11
10308.84510545912
 21
4711.746374678776
 31
0.0
  0
LINE
  5
179DE
330
747D
100
AcDbEntity
  8
部品1
100
AcDbLine
 10
10234.34510545913
 20
4711.746374678773
 30
0.0
 11
10234.34510545913
 21
4614.3353071702
 31
0.0
  0
LINE
  5
179DF
330
747D
100
AcDbEntity
  8
部品1
100
AcDbLine
 10
10209.34510545913
 20
4711.746374678773
 30
0.0
 11
10209.34510545913
 21
4614.3353071702
 31
0.0
  0
LINE
  5
179E0
330
747D
100
AcDbEntity
  8
部品1
100
AcDbLine
 10
10282.34510545913
 20
4711.746374678773
 30
0.0
 11
10282.34510545913
 21
4614.3353071702
 31
0.0
  0
LINE
  5
179E1
330
747D
100
AcDbEntity
  8
部品1
100
AcDbLine
 10
10307.34510545913
 20
4711.746374678773
 30
0.0
 11
10307.34510545913
 21
4614.3353071702
 31
0.0
  0
LINE
  5
179E2
330
747D
100
AcDbEntity
  8
部品1
100
AcDbLine
 10
10430.84510545912
 20
4692.346374678757
 30
0.0
 11
10319.34510545913
 21
4692.346374678757
 31
0.0
  0
LINE
  5
179E3
330
747D
100
AcDbEntity
  8
部品1
100
AcDbLine
 10
9887.345105459129
 20
4711.746374678769
 30
0.0
 11
9887.345105459131
 21
4614.335307170196
 31
0.0
  0
LINE
  5
179E4
330
747D
100
AcDbEntity
  8
部品1
100
AcDbLine
 10
9862.345105459128
 20
4711.746374678769
 30
0.0
 11
9862.34510545913
 21
4614.335307170196
 31
0.0
  0
LINE
  5
179E5
330
747D
100
AcDbEntity
  8
部品1
100
AcDbLine
 10
9789.345105459128
 20
4711.746374678769
 30
0.0
 11
9789.345105459128
 21
4614.335307170196
 31
0.0
  0
LINE
  5
179E6
330
747D
100
AcDbEntity
  8
部品1
100
AcDbLine
 10
9814.345105459128
 20
4711.746374678769
 30
0.0
 11
9814.345105459128
 21
4614.335307170196
 31
0.0
  0
LINE
  5
179E7
330
747D
100
AcDbEntity
  8
部品1
100
AcDbLine
 10
9777.345105459119
 20
4692.346374678767
 30
0.0
 11
9633.845105459117
 21
4692.346374678767
 31
0.0
  0
LINE
  5
179E8
330
747D
100
AcDbEntity
  8
部品1
100
AcDbLine
 10
10010.84510545911
 20
4692.346374678753
 30
0.0
 11
9899.345105459127
 21
4692.346374678753
 31
0.0
  0
LINE
  5
179E9
330
747D
100
AcDbEntity
  8
部品1
 48
50.0
100
AcDbLine
 10
9860.845105459121
 20
4711.746374678773
 30
0.0
 11
9888.845105459118
 21
4711.746374678773
 31
0.0
  0
LINE
  5
179EA
330
747D
100
AcDbEntity
  8
部品1
 48
50.0
100
AcDbLine
 10
9888.84510545912
 20
4711.746374678773
 30
0.0
 11
9899.34510545912
 21
4692.346374678771
 31
0.0
  0
LINE
  5
179EB
330
747D
100
AcDbEntity
  8
部品1
 48
50.0
100
AcDbLine
 10
9860.845105459121
 20
4711.746374678773
 30
0.0
 11
9850.345105459121
 21
4692.346374678771
 31
0.0
  0
LINE
  5
179EC
330
747D
100
AcDbEntity
  8
部品1
 48
50.0
100
AcDbLine
 10
9787.845105459121
 20
4711.746374678773
 30
0.0
 11
9815.845105459118
 21
4711.746374678773
 31
0.0
  0
LINE
  5
179ED
330
747D
100
AcDbEntity
  8
部品1
 48
50.0
100
AcDbLine
 10
9787.845105459121
 20
4711.746374678773
 30
0.0
 11
9777.34510545912
 21
4692.346374678771
 31
0.0
  0
LINE
  5
179EE
330
747D
100
AcDbEntity
  8
部品1
 48
50.0
100
AcDbLine
 10
9815.845105459121
 20
4711.746374678773
 30
0.0
 11
9826.34510545912
 21
4692.346374678771
 31
0.0
  0
LINE
  5
179EF
330
747D
100
AcDbEntity
  8
部品1
100
AcDbLine
 10
9850.345105459117
 20
4692.346374678767
 30
0.0
 11
9826.34510545912
 21
4692.346374678767
 31
0.0
  0
LINE
  5
179F0
330
747D
100
AcDbEntity
  8
部品1
 48
50.0
100
AcDbLine
 10
8286.834015554838
 20
4614.335307170192
 30
0.0
 11
11371.85619536338
 21
4614.335307170192
 31
0.0
  0
LINE
  5
179F1
330
747D
100
AcDbEntity
  8
部品1
 48
50.0
100
AcDbLine
 10
9631.345105459121
 20
4711.746374678769
 30
0.0
 11
9633.845105459121
 21
4692.346374678767
 31
0.0
  0
LINE
  5
179F2
330
747D
100
AcDbEntity
  8
部品1
 48
50.0
100
AcDbLine
 10
9592.133765252935
 20
4702.346374678767
 30
0.0
 11
9590.845105459122
 21
4692.346374678767
 31
0.0
  0
LINE
  5
179F3
330
747D
100
AcDbEntity
  8
部品1
 48
50.0
100
AcDbLine
 10
9592.133765252935
 20
4702.346374678767
 30
0.0
 11
9606.133765252934
 21
4702.346374678767
 31
0.0
  0
LINE
  5
179F4
330
747D
100
AcDbEntity
  8
部品1
 48
50.0
100
AcDbLine
 10
9607.345105459121
 20
4711.746374678769
 30
0.0
 11
9606.133765252934
 21
4702.346374678767
 31
0.0
  0
LINE
  5
179F5
330
747D
100
AcDbEntity
  8
部品1
 48
50.0
100
AcDbLine
 10
9607.345105459121
 20
4711.746374678769
 30
0.0
 11
9631.345105459121
 21
4711.746374678769
 31
0.0
  0
LINE
  5
179F6
330
747D
100
AcDbEntity
  8
部品1
100
AcDbLine
 10
9628.345105459114
 20
4711.746374678769
 30
0.0
 11
9628.345105459114
 21
4614.335307170192
 31
0.0
  0
LINE
  5
179F7
330
747D
100
AcDbEntity
  8
部品1
100
AcDbLine
 10
9610.345105459114
 20
4711.746374678758
 30
0.0
 11
9610.345105459114
 21
4614.335307170192
 31
0.0
  0
LINE
  5
179F8
330
747D
100
AcDbEntity
  8
細線
 48
50.0
100
AcDbLine
 10
8304.274477465911
 20
4633.718207418246
 30
0.0
 11
8256.211236181966
 21
4633.718207418253
 31
0.0
  0
LINE
  5
179F9
330
747D
100
AcDbEntity
  8
細線
 48
50.0
100
AcDbLine
 10
8286.834015554836
 20
4661.746374670296
 30
0.0
 11
8286.834015554836
 21
4535.246374670296
 31
0.0
  0
LINE
  5
179FA
330
747D
100
AcDbEntity
  8
細線
 48
50.0
100
AcDbLine
 10
11395.12346313217
 20
4556.019617234077
 30
0.0
 11
8264.228697091636
 21
4556.019617234082
 31
0.0
  0
ARC
  5
179FB
330
747D
100
AcDbEntity
  8
部品1
100
AcDbCircle
 10
8261.33114927633
 20
4709.746374687195
 30
0.0
 40
7.0
100
AcDbArc
 50
90.0
 51
183.6186294801377
  0
LINE
  5
179FC
330
747D
100
AcDbEntity
  8
部品1
100
AcDbLine
 10
8299.274477465912
 20
4716.746374687194
 30
0.0
 11
8261.33114927633
 21
4716.746374687194
 31
0.0
  0
ARC
  5
179FD
330
747D
100
AcDbEntity
  8
部品1
100
AcDbCircle
 10
8299.274477465912
 20
4711.746374687194
 30
0.0
 40
5.0
100
AcDbArc
 50
0.0
 51
90.0
  0
LINE
  5
179FE
330
747D
100
AcDbEntity
  8
部品1
 48
50.0
100
AcDbLine
 10
8254.345105459119
 20
4654.304569527707
 30
0.0
 11
8254.345105459119
 21
4709.304569544605
 31
0.0
  0
LINE
  5
179FF
330
747D
100
AcDbEntity
  8
部品1
100
AcDbLine
 10
11384.23245079592
 20
4535.246374670296
 30
0.0
 11
8274.457760122301
 21
4535.246374670296
 31
0.0
  0
LINE
  5
17A00
330
747D
100
AcDbEntity
  8
部品1
100
AcDbLine
 10
8304.274477465913
 20
4711.746374687194
 30
0.0
 11
8304.274477465911
 21
4614.342345997625
 31
0.0
  0
ARC
  5
17A01
330
747D
100
AcDbEntity
  8
部品1
100
AcDbCircle
 10
8299.274477465912
 20
4656.746374670296
 30
0.0
 40
5.0
100
AcDbArc
 50
0.0
 51
90.0
  0
LINE
  5
17A02
330
747D
100
AcDbEntity
  8
部品1
100
AcDbLine
 10
8299.274477465912
 20
4661.746374670296
 30
0.0
 11
8261.33114927633
 21
4661.746374670296
 31
0.0
  0
LINE
  5
17A03
330
747D
100
AcDbEntity
  8
部品1
100
AcDbLine
 10
8255.605643517686
 20
4634.372311476625
 30
0.0
 11
8254.345105459119
 21
4654.304569527707
 31
0.0
  0
LINE
  5
17A04
330
747D
100
AcDbEntity
  8
部品1
100
AcDbLine
 10
8267.47171630509
 20
4541.804569527707
 30
0.0
 11
8266.799390600509
 21
4552.435719731407
 31
0.0
  0
ARC
  5
17A05
330
747D
100
AcDbEntity
  8
部品1
100
AcDbCircle
 10
8261.33114927633
 20
4654.746374670295
 30
0.0
 40
7.0
100
AcDbArc
 50
90.0
 51
183.6186294801377
  0
ARC
  5
17A06
330
747D
100
AcDbEntity
  8
部品1
100
AcDbCircle
 10
8274.457760122301
 20
4542.246374670296
 30
0.0
 40
7.0
100
AcDbArc
 50
183.6186294801377
 51
270.0
  0
ARC
  5
17A07
330
747D
100
AcDbEntity
  8
部品1
100
AcDbCircle
 10
8263.805371821703
 20
4552.246374670295
 30
0.0
 40
3.0
100
AcDbArc
 50
3.618629480137788
 51
90.0
  0
ARC
  5
17A08
330
747D
100
AcDbEntity
  8
部品1
100
AcDbCircle
 10
8264.274667946898
 20
4555.916491990885
 30
0.0
 40
0.7
100
AcDbArc
 50
183.6186294801377
 51
262.7131594833544
  0
LINE
  5
17A09
330
747D
100
AcDbEntity
  8
部品1
100
AcDbLine
 10
8258.828970553016
 20
4630.935719731407
 30
0.0
 11
8263.576063565176
 21
4555.872311476625
 31
0.0
  0
ARC
  5
17A0A
330
747D
100
AcDbEntity
  8
部品1
100
AcDbCircle
 10
8255.834951774211
 20
4630.746374670296
 30
0.0
 40
3.0
100
AcDbArc
 50
3.618629480137788
 51
90.0
  0
ARC
  5
17A0B
330
747D
100
AcDbEntity
  8
部品1
100
AcDbCircle
 10
8256.304247899405
 20
4634.416491990886
 30
0.0
 40
0.7
100
AcDbArc
 50
183.6186294801377
 51
262.7131594833544
  0
LINE
  5
17A0C
330
747D
100
AcDbEntity
  8
部品1
 48
50.0
100
AcDbLine
 10
8299.274477465912
 20
4661.746374670296
 30
0.0
 11
8261.33114927633
 21
4661.746374670296
 31
0.0
  0
LINE
  5
17A0D
330
747D
100
AcDbEntity
  8
部品1
100
AcDbLine
 10
9590.845105459115
 20
4692.346374678749
 30
0.0
 11
9479.345105459126
 21
4692.346374678749
 31
0.0
  0
LINE
  5
17A0E
330
747D
100
AcDbEntity
  8
部品1
100
AcDbLine
 10
11359.41544269984
 20
4716.74637467874
 30
0.0
 11
8278.777265840027
 21
4716.746374678769
 31
0.0
  0
LINE
  5
17A0F
330
747D
100
AcDbEntity
  8
部品1
 48
50.0
100
AcDbLine
 10
8752.133765252931
 20
4702.346374678767
 30
0.0
 11
8766.133765252931
 21
4702.346374678767
 31
0.0
  0
LINE
  5
17A10
330
747D
100
AcDbEntity
  8
部品1
100
AcDbLine
 10
8517.345105459119
 20
4692.346374678764
 30
0.0
 11
8373.845105459119
 21
4692.346374678767
 31
0.0
  0
LINE
  5
17A11
330
747D
100
AcDbEntity
  8
部品1
 48
50.0
100
AcDbLine
 10
8371.345105459118
 20
4711.746374678769
 30
0.0
 11
8347.345105459119
 21
4711.746374678769
 31
0.0
  0
LINE
  5
17A12
330
747D
100
AcDbEntity
  8
部品1
 48
50.0
100
AcDbLine
 10
8347.345105459119
 20
4711.746374678769
 30
0.0
 11
8346.133765252931
 21
4702.346374678767
 31
0.0
  0
LINE
  5
17A13
330
747D
100
AcDbEntity
  8
部品1
 48
50.0
100
AcDbLine
 10
8332.133765252931
 20
4702.346374678767
 30
0.0
 11
8330.845105459118
 21
4692.346374678767
 31
0.0
  0
LINE
  5
17A14
330
747D
100
AcDbEntity
  8
部品1
 48
50.0
100
AcDbLine
 10
8332.133765252931
 20
4702.346374678767
 30
0.0
 11
8346.133765252931
 21
4702.346374678767
 31
0.0
  0
LINE
  5
17A15
330
747D
100
AcDbEntity
  8
部品1
100
AcDbLine
 10
8330.845105459118
 20
4692.346374678767
 30
0.0
 11
8304.345105459118
 21
4692.346374678767
 31
0.0
  0
LINE
  5
17A16
330
747D
100
AcDbEntity
  8
部品1
 48
50.0
100
AcDbLine
 10
8371.345105459118
 20
4711.746374678769
 30
0.0
 11
8373.845105459119
 21
4692.346374678767
 31
0.0
  0
LINE
  5
17A17
330
747D
100
AcDbEntity
  8
部品1
100
AcDbLine
 10
8350.345105459126
 20
4711.746374678769
 30
0.0
 11
8350.345105459128
 21
4614.335307170192
 31
0.0
  0
LINE
  5
17A18
330
747D
100
AcDbEntity
  8
部品1
100
AcDbLine
 10
8368.345105459125
 20
4711.746374678758
 30
0.0
 11
8368.345105459125
 21
4614.335307170192
 31
0.0
  0
LINE
  5
17A19
330
747D
100
AcDbEntity
  8
部品1
 48
50.0
100
AcDbLine
 10
8600.84510545912
 20
4711.746374678769
 30
0.0
 11
8590.345105459119
 21
4692.346374678767
 31
0.0
  0
LINE
  5
17A1A
330
747D
100
AcDbEntity
  8
部品1
 48
50.0
100
AcDbLine
 10
8527.845105459119
 20
4711.746374678769
 30
0.0
 11
8555.845105459114
 21
4711.746374678769
 31
0.0
  0
LINE
  5
17A1B
330
747D
100
AcDbEntity
  8
部品1
 48
50.0
100
AcDbLine
 10
8527.845105459119
 20
4711.746374678769
 30
0.0
 11
8517.345105459119
 21
4692.346374678767
 31
0.0
  0
LINE
  5
17A1C
330
747D
100
AcDbEntity
  8
部品1
100
AcDbLine
 10
8529.345105459126
 20
4711.746374678766
 30
0.0
 11
8529.345105459125
 21
4614.335307170192
 31
0.0
  0
LINE
  5
17A1D
330
747D
100
AcDbEntity
  8
部品1
 48
50.0
100
AcDbLine
 10
8555.845105459118
 20
4711.746374678769
 30
0.0
 11
8566.345105459118
 21
4692.346374678767
 31
0.0
  0
LINE
  5
17A1E
330
747D
100
AcDbEntity
  8
部品1
100
AcDbLine
 10
8554.345105459125
 20
4711.746374678766
 30
0.0
 11
8554.345105459127
 21
4614.335307170192
 31
0.0
  0
LINE
  5
17A1F
330
747D
100
AcDbEntity
  8
部品1
100
AcDbLine
 10
8590.345105459116
 20
4692.346374678764
 30
0.0
 11
8566.345105459118
 21
4692.346374678767
 31
0.0
  0
LINE
  5
17A20
330
747D
100
AcDbEntity
  8
部品1
 48
50.0
100
AcDbLine
 10
8752.133765252931
 20
4702.346374678767
 30
0.0
 11
8750.845105459118
 21
4692.346374678767
 31
0.0
  0
LINE
  5
17A21
330
747D
100
AcDbEntity
  8
部品1
 48
50.0
100
AcDbLine
 10
8600.84510545912
 20
4711.746374678769
 30
0.0
 11
8628.845105459115
 21
4711.746374678769
 31
0.0
  0
LINE
  5
17A22
330
747D
100
AcDbEntity
  8
部品1
 48
50.0
100
AcDbLine
 10
8628.845105459118
 20
4711.746374678769
 30
0.0
 11
8639.345105459119
 21
4692.346374678767
 31
0.0
  0
LINE
  5
17A23
330
747D
100
AcDbEntity
  8
部品1
100
AcDbLine
 10
8627.345105459125
 20
4711.746374678766
 30
0.0
 11
8627.345105459125
 21
4614.335307170192
 31
0.0
  0
LINE
  5
17A24
330
747D
100
AcDbEntity
  8
部品1
100
AcDbLine
 10
8602.345105459127
 20
4711.746374678766
 30
0.0
 11
8602.345105459127
 21
4614.335307170192
 31
0.0
  0
LINE
  5
17A25
330
747D
100
AcDbEntity
  8
部品1
100
AcDbLine
 10
8750.845105459118
 20
4692.346374678764
 30
0.0
 11
8639.345105459119
 21
4692.346374678764
 31
0.0
  0
LINE
  5
17A26
330
747D
100
AcDbEntity
  8
部品1
100
AcDbLine
 10
9430.345105459116
 20
4692.346374678764
 30
0.0
 11
9406.345105459118
 21
4692.346374678764
 31
0.0
  0
LINE
  5
17A27
330
747D
100
AcDbEntity
  8
部品1
100
AcDbLine
 10
9170.84510545912
 20
4692.346374678764
 30
0.0
 11
9059.345105459119
 21
4692.346374678764
 31
0.0
  0
LINE
  5
17A28
330
747D
100
AcDbEntity
  8
部品1
100
AcDbLine
 10
8937.345105459115
 20
4692.346374678764
 30
0.0
 11
8793.845105459116
 21
4692.346374678764
 31
0.0
  0
LINE
  5
17A29
330
747D
100
AcDbEntity
  8
部品1
 48
50.0
100
AcDbLine
 10
8791.34510545912
 20
4711.746374678769
 30
0.0
 11
8793.845105459118
 21
4692.346374678767
 31
0.0
  0
LINE
  5
17A2A
330
747D
100
AcDbEntity
  8
部品1
 48
50.0
100
AcDbLine
 10
8767.345105459119
 20
4711.746374678769
 30
0.0
 11
8766.133765252931
 21
4702.346374678767
 31
0.0
  0
LINE
  5
17A2B
330
747D
100
AcDbEntity
  8
部品1
 48
50.0
100
AcDbLine
 10
8791.34510545912
 20
4711.746374678769
 30
0.0
 11
8767.345105459119
 21
4711.746374678769
 31
0.0
  0
LINE
  5
17A2C
330
747D
100
AcDbEntity
  8
部品1
100
AcDbLine
 10
8770.345105459126
 20
4711.746374678758
 30
0.0
 11
8770.345105459128
 21
4614.335307170192
 31
0.0
  0
LINE
  5
17A2D
330
747D
100
AcDbEntity
  8
部品1
100
AcDbLine
 10
8788.345105459127
 20
4711.746374678758
 30
0.0
 11
8788.345105459127
 21
4614.335307170192
 31
0.0
  0
LINE
  5
17A2E
330
747D
100
AcDbEntity
  8
部品1
 48
50.0
100
AcDbLine
 10
9020.84510545912
 20
4711.746374678769
 30
0.0
 11
9048.845105459115
 21
4711.746374678769
 31
0.0
  0
LINE
  5
17A2F
330
747D
100
AcDbEntity
  8
部品1
 48
50.0
100
AcDbLine
 10
8947.845105459119
 20
4711.746374678769
 30
0.0
 11
8975.845105459114
 21
4711.746374678769
 31
0.0
  0
LINE
  5
17A30
330
747D
100
AcDbEntity
  8
部品1
 48
50.0
100
AcDbLine
 10
9020.84510545912
 20
4711.746374678769
 30
0.0
 11
9010.345105459119
 21
4692.346374678767
 31
0.0
  0
LINE
  5
17A31
330
747D
100
AcDbEntity
  8
部品1
 48
50.0
100
AcDbLine
 10
8975.84510545912
 20
4711.746374678769
 30
0.0
 11
8986.34510545912
 21
4692.346374678767
 31
0.0
  0
LINE
  5
17A32
330
747D
100
AcDbEntity
  8
部品1
100
AcDbLine
 10
9010.345105459114
 20
4692.346374678764
 30
0.0
 11
8986.34510545912
 21
4692.346374678764
 31
0.0
  0
LINE
  5
17A33
330
747D
100
AcDbEntity
  8
部品1
 48
50.0
100
AcDbLine
 10
8947.845105459119
 20
4711.746374678769
 30
0.0
 11
8937.345105459119
 21
4692.346374678767
 31
0.0
  0
LINE
  5
17A34
330
747D
100
AcDbEntity
  8
部品1
100
AcDbLine
 10
9022.345105459127
 20
4711.746374678766
 30
0.0
 11
9022.345105459127
 21
4614.335307170192
 31
0.0
  0
LINE
  5
17A35
330
747D
100
AcDbEntity
  8
部品1
100
AcDbLine
 10
8974.345105459127
 20
4711.746374678766
 30
0.0
 11
8974.345105459127
 21
4614.335307170192
 31
0.0
  0
LINE
  5
17A36
330
747D
100
AcDbEntity
  8
部品1
100
AcDbLine
 10
8949.345105459126
 20
4711.746374678766
 30
0.0
 11
8949.345105459126
 21
4614.335307170192
 31
0.0
  0
LINE
  5
17A37
330
747D
100
AcDbEntity
  8
部品1
 48
50.0
100
AcDbLine
 10
9048.84510545912
 20
4711.746374678769
 30
0.0
 11
9059.345105459119
 21
4692.346374678767
 31
0.0
  0
LINE
  5
17A38
330
747D
100
AcDbEntity
  8
部品1
100
AcDbLine
 10
9047.345105459127
 20
4711.746374678766
 30
0.0
 11
9047.345105459127
 21
4614.335307170192
 31
0.0
  0
LINE
  5
17A39
330
747D
100
AcDbEntity
  8
部品1
100
AcDbLine
 10
9357.345105459115
 20
4692.346374678764
 30
0.0
 11
9213.845105459116
 21
4692.346374678764
 31
0.0
  0
LINE
  5
17A3A
330
747D
100
AcDbEntity
  8
部品1
 48
50.0
100
AcDbLine
 10
9211.34510545912
 20
4711.746374678769
 30
0.0
 11
9187.345105459119
 21
4711.746374678769
 31
0.0
  0
LINE
  5
17A3B
330
747D
100
AcDbEntity
  8
部品1
 48
50.0
100
AcDbLine
 10
9187.345105459119
 20
4711.746374678769
 30
0.0
 11
9186.133765252931
 21
4702.346374678767
 31
0.0
  0
LINE
  5
17A3C
330
747D
100
AcDbEntity
  8
部品1
 48
50.0
100
AcDbLine
 10
9172.133765252931
 20
4702.346374678767
 30
0.0
 11
9186.133765252931
 21
4702.346374678767
 31
0.0
  0
LINE
  5
17A3D
330
747D
100
AcDbEntity
  8
部品1
 48
50.0
100
AcDbLine
 10
9172.133765252931
 20
4702.346374678767
 30
0.0
 11
9170.84510545912
 21
4692.346374678767
 31
0.0
  0
LINE
  5
17A3E
330
747D
100
AcDbEntity
  8
部品1
100
AcDbLine
 10
9190.345105459126
 20
4711.746374678758
 30
0.0
 11
9190.345105459128
 21
4614.335307170192
 31
0.0
  0
LINE
  5
17A3F
330
747D
100
AcDbEntity
  8
部品1
 48
50.0
100
AcDbLine
 10
9211.34510545912
 20
4711.746374678769
 30
0.0
 11
9213.845105459119
 21
4692.346374678767
 31
0.0
  0
LINE
  5
17A40
330
747D
100
AcDbEntity
  8
部品1
100
AcDbLine
 10
9208.345105459127
 20
4711.746374678758
 30
0.0
 11
9208.345105459128
 21
4614.335307170192
 31
0.0
  0
LINE
  5
17A41
330
747D
100
AcDbEntity
  8
部品1
 48
50.0
100
AcDbLine
 10
9395.84510545912
 20
4711.746374678769
 30
0.0
 11
9406.345105459118
 21
4692.346374678767
 31
0.0
  0
LINE
  5
17A42
330
747D
100
AcDbEntity
  8
部品1
100
AcDbLine
 10
9394.345105459127
 20
4711.746374678766
 30
0.0
 11
9394.345105459127
 21
4614.335307170192
 31
0.0
  0
LINE
  5
17A43
330
747D
100
AcDbEntity
  8
部品1
 48
50.0
100
AcDbLine
 10
9367.845105459119
 20
4711.746374678769
 30
0.0
 11
9357.345105459119
 21
4692.346374678767
 31
0.0
  0
LINE
  5
17A44
330
747D
100
AcDbEntity
  8
部品1
100
AcDbLine
 10
9369.345105459126
 20
4711.746374678766
 30
0.0
 11
9369.345105459126
 21
4614.335307170192
 31
0.0
  0
LINE
  5
17A45
330
747D
100
AcDbEntity
  8
部品1
 48
50.0
100
AcDbLine
 10
9367.845105459119
 20
4711.746374678769
 30
0.0
 11
9395.845105459114
 21
4711.746374678769
 31
0.0
  0
LINE
  5
17A46
330
747D
100
AcDbEntity
  8
部品1
 48
50.0
100
AcDbLine
 10
9440.845105459118
 20
4711.746374678769
 30
0.0
 11
9430.345105459119
 21
4692.346374678767
 31
0.0
  0
LINE
  5
17A47
330
747D
100
AcDbEntity
  8
部品1
 48
50.0
100
AcDbLine
 10
9468.845105459118
 20
4711.746374678769
 30
0.0
 11
9479.345105459119
 21
4692.346374678767
 31
0.0
  0
LINE
  5
17A48
330
747D
100
AcDbEntity
  8
部品1
 48
50.0
100
AcDbLine
 10
9440.845105459118
 20
4711.746374678769
 30
0.0
 11
9468.845105459115
 21
4711.746374678769
 31
0.0
  0
LINE
  5
17A49
330
747D
100
AcDbEntity
  8
部品1
100
AcDbLine
 10
9442.345105459127
 20
4711.746374678766
 30
0.0
 11
9442.345105459128
 21
4614.335307170192
 31
0.0
  0
LINE
  5
17A4A
330
747D
100
AcDbEntity
  8
部品1
100
AcDbLine
 10
9467.345105459127
 20
4711.746374678766
 30
0.0
 11
9467.345105459129
 21
4614.335307170192
 31
0.0
  0
DIMENSION
  5
17A4B
330
747D
100
AcDbEntity
  8
寸法
 48
50.0
100
AcDbDimension
  2
*D3
 10
8254.345105459112
 20
5115.839544009769
 30
0.0
 11
7940.859824084864
 21
5115.839544009769
 31
0.0
 70
   160
 71
     5
 42
50.0
  3
INABA_S40G
100
AcDbAlignedDimension
 13
8304.345105459111
 23
4716.746374670303
 33
0.0
 14
8254.345105459112
 24
4716.746374670301
 34
0.0
100
AcDbRotatedDimension
1001
ACAD
1000
DSTYLE
1002
{
1002
}
  0
DIMENSION
  5
17A4C
330
747D
100
AcDbEntity
  8
寸法
 48
50.0
100
AcDbDimension
  2
*D4
 10
11404.34510545911
 20
5332.365643628214
 30
0.0
 11
9829.345105459111
 21
5332.365643628214
 31
0.0
 70
   160
 71
     5
 42
3149.999999999997
  3
INABA_S40G
100
AcDbAlignedDimension
 13
8254.345105459112
 23
4716.746374670301
 33
0.0
 14
11404.34510545911
 24
4716.746374670298
 34
0.0
100
AcDbRotatedDimension
  0
DIMENSION
  5
17A4D
330
747D
100
AcDbEntity
  8
寸法
 48
50.0
100
AcDbDimension
  2
*D5
 10
8304.345105459111
 20
5115.839544009769
 30
0.0
 11
9829.345105459111
 21
5115.839544009769
 31
0.0
 70
   160
  1
柱外寸法<>
 71
     5
 42
3049.999999999997
  3
INABA_S40G
100
AcDbAlignedDimension
 13
11354.34510545911
 23
4716.746374670301
 33
0.0
 14
8304.345105459111
 24
4716.746374670303
 34
0.0
100
AcDbRotatedDimension
  0
MTEXT
  5
17A4E
330
747D
100
AcDbEntity
  8
寸法
 62
     7
 48
50.0
100
AcDbMText
 10
9089.447642552222
 20
9110.929520674728
 30
0.0
 40
96.0
 41
0.0
 71
     5
 72
     1
  1
棚 2段
  7
STYLE1
 73
     1
 44
1.0
1001
ACAD
1000
MTEXTBEGIN
1070
    73
1070
     1
1070
    44
1040
1.0
1070
    74
1070
     0
1000
MTEXTEND
  0
LINE
  5
17A4F
330
747D
100
AcDbEntity
  8
部品1
 48
50.0
100
AcDbLine
 10
9586.345105459107
 20
4424.746374695064
 30
0.0
 11
9586.345105459107
 21
2691.746374670293
 31
0.0
  0
LINE
  5
17A50
330
747D
100
AcDbEntity
  8
部品1
100
AcDbLine
 10
10240.34509576396
 20
4424.746374707447
 30
0.0
 11
10240.34509576397
 21
2699.246374707462
 31
0.0
  0
LINE
  5
17A51
330
747D
100
AcDbEntity
  8
細線
100
AcDbLine
 10
9486.345105459111
 20
4424.746374670296
 30
0.0
 11
9486.345105459108
 21
2691.746374670304
 31
0.0
  0
LINE
  5
17A52
330
747D
100
AcDbEntity
  8
細線
100
AcDbLine
 10
9416.345105459113
 20
4424.746374670296
 30
0.0
 11
9416.345105459107
 21
2691.746374670304
 31
0.0
  0
LINE
  5
17A53
330
747D
100
AcDbEntity
  8
細線
100
AcDbLine
 10
9346.345105459112
 20
4424.746374670296
 30
0.0
 11
9346.345105459107
 21
2691.7463746703
 31
0.0
  0
LINE
  5
17A54
330
747D
100
AcDbEntity
  8
細線
100
AcDbLine
 10
9276.345105459112
 20
4424.746374670296
 30
0.0
 11
9276.345105459107
 21
2691.7463746703
 31
0.0
  0
LINE
  5
17A55
330
747D
100
AcDbEntity
  8
細線
100
AcDbLine
 10
9206.345105459112
 20
4424.746374670296
 30
0.0
 11
9206.345105459108
 21
2691.7463746703
 31
0.0
  0
LINE
  5
17A56
330
747D
100
AcDbEntity
  8
細線
100
AcDbLine
 10
9136.345105459112
 20
4424.746374670296
 30
0.0
 11
9136.345105459108
 21
2691.7463746703
 31
0.0
  0
LINE
  5
17A57
330
747D
100
AcDbEntity
  8
部品1
100
AcDbLine
 10
8952.345105459107
 20
4424.746374670296
 30
0.0
 11
8952.345105459112
 21
2691.7463746703
 31
0.0
  0
LINE
  5
17A58
330
747D
100
AcDbEntity
  8
部品1
100
AcDbLine
 10
8902.345105459108
 20
4424.746374670296
 30
0.0
 11
8902.345105459112
 21
2691.7463746703
 31
0.0
  0
LINE
  5
17A59
330
747D
100
AcDbEntity
  8
細線
100
AcDbLine
 10
8944.345105459108
 20
4424.746374670296
 30
0.0
 11
8944.345105459111
 21
2691.7463746703
 31
0.0
  0
LINE
  5
17A5A
330
747D
100
AcDbEntity
  8
細線
100
AcDbLine
 10
8910.345105459107
 20
4424.746374670296
 30
0.0
 11
8910.345105459112
 21
2691.7463746703
 31
0.0
  0
LINE
  5
17A5B
330
747D
100
AcDbEntity
  8
細線
100
AcDbLine
 10
10137.84511520935
 20
4424.746374670296
 30
0.0
 11
10137.84511520935
 21
2699.246374670307
 31
0.0
  0
LINE
  5
17A5C
330
747D
100
AcDbEntity
  8
細線
100
AcDbLine
 10
10067.84511520935
 20
4424.746374670296
 30
0.0
 11
10067.84511520935
 21
2699.246374670307
 31
0.0
  0
LINE
  5
17A5D
330
747D
100
AcDbEntity
  8
細線
100
AcDbLine
 10
9997.845115209353
 20
4424.746374670296
 30
0.0
 11
9997.845115209353
 21
2699.246374670307
 31
0.0
  0
LINE
  5
17A5E
330
747D
100
AcDbEntity
  8
細線
100
AcDbLine
 10
9927.845115209354
 20
4424.746374670296
 30
0.0
 11
9927.845115209354
 21
2699.246374670307
 31
0.0
  0
LINE
  5
17A5F
330
747D
100
AcDbEntity
  8
細線
100
AcDbLine
 10
9857.845115209354
 20
4424.746374670296
 30
0.0
 11
9857.845115209354
 21
2699.246374670307
 31
0.0
  0
LINE
  5
17A60
330
747D
100
AcDbEntity
  8
細線
100
AcDbLine
 10
9787.845115209353
 20
4424.746374670296
 30
0.0
 11
9787.845115209353
 21
2699.246374670307
 31
0.0
  0
LINE
  5
17A61
330
747D
100
AcDbEntity
  8
細線
100
AcDbLine
 10
10713.09510545911
 20
4424.746374670296
 30
0.0
 11
10713.09510545911
 21
2699.246374670315
 31
0.0
  0
LINE
  5
17A62
330
747D
100
AcDbEntity
  8
細線
100
AcDbLine
 10
10643.09510545911
 20
4424.746374670296
 30
0.0
 11
10643.09510545911
 21
2699.246374670315
 31
0.0
  0
LINE
  5
17A63
330
747D
100
AcDbEntity
  8
細線
100
AcDbLine
 10
10573.09510545911
 20
4424.746374670296
 30
0.0
 11
10573.09510545911
 21
2699.246374670315
 31
0.0
  0
LINE
  5
17A64
330
747D
100
AcDbEntity
  8
細線
100
AcDbLine
 10
10503.09510545911
 20
4424.746374670296
 30
0.0
 11
10503.09510545911
 21
2699.246374670315
 31
0.0
  0
LINE
  5
17A65
330
747D
100
AcDbEntity
  8
細線
100
AcDbLine
 10
10433.09510545911
 20
4424.746374670296
 30
0.0
 11
10433.09510545911
 21
2699.246374670315
 31
0.0
  0
LINE
  5
17A66
330
747D
100
AcDbEntity
  8
細線
100
AcDbLine
 10
9066.345105459111
 20
4424.746374670296
 30
0.0
 11
9066.345105459108
 21
2691.7463746703
 31
0.0
  0
LINE
  5
17A67
330
747D
100
AcDbEntity
  8
細線
100
AcDbLine
 10
8996.345105459111
 20
4424.746374670296
 30
0.0
 11
8996.345105459107
 21
2691.7463746703
 31
0.0
  0
LINE
  5
17A68
330
747D
100
AcDbEntity
  8
細線
100
AcDbLine
 10
9717.845115209353
 20
4424.746374670296
 30
0.0
 11
9717.845115209353
 21
2699.246374670307
 31
0.0
  0
LINE
  5
17A69
330
747D
100
AcDbEntity
  8
細線
100
AcDbLine
 10
9647.845115209353
 20
4424.746374670296
 30
0.0
 11
9647.845115209353
 21
2699.246374670307
 31
0.0
  0
LINE
  5
17A6A
330
747D
100
AcDbEntity
  8
細線
100
AcDbLine
 10
10363.09510545911
 20
4424.746374670296
 30
0.0
 11
10363.09510545911
 21
2699.246374670315
 31
0.0
  0
LINE
  5
17A6B
330
747D
100
AcDbEntity
  8
部品1
 48
50.0
100
AcDbLine
 10
10906.34510545911
 20
4432.746374670296
 30
0.0
 11
10876.34510545911
 21
4432.746374670296
 31
0.0
  0
LINE
  5
17A6C
330
747D
100
AcDbEntity
  8
部品1
 48
50.0
100
AcDbLine
 10
10879.34510545911
 20
4476.746374670296
 30
0.0
 11
10879.34510545911
 21
4481.746374670296
 31
0.0
  0
LINE
  5
17A6D
330
747D
100
AcDbEntity
  8
細線
 48
50.0
100
AcDbLine
 10
10854.34510545911
 20
2688.746374670297
 30
0.0
 11
10850.34510545911
 21
2699.246374670296
 31
0.0
  0
LINE
  5
17A6E
330
747D
100
AcDbEntity
  8
部品1
 48
50.0
100
AcDbLine
 10
10240.34509576397
 20
4424.746374707443
 30
0.0
 11
10240.34509576397
 21
2699.246374707444
 31
0.0
  0
LINE
  5
17A6F
330
747D
100
AcDbEntity
  8
部品1
 48
50.0
100
AcDbLine
 10
10906.34510545911
 20
2641.746374670296
 30
0.0
 11
10906.34510545911
 21
4476.746374670296
 31
0.0
  0
LINE
  5
17A70
330
747D
100
AcDbEntity
  8
細線
 48
50.0
100
AcDbLine
 10
10876.34510545911
 20
2641.746374670296
 30
0.0
 11
10876.34510545911
 21
4434.246374670296
 31
0.0
  0
LINE
  5
17A71
330
747D
100
AcDbEntity
  8
部品1
 48
50.0
100
AcDbLine
 10
10867.34510545911
 20
2688.746374670297
 30
0.0
 11
10867.34510545911
 21
4424.746374670296
 31
0.0
  0
LINE
  5
17A72
330
747D
100
AcDbEntity
  8
部品1
 48
50.0
100
AcDbLine
 10
8782.345105459112
 20
4432.746374670296
 30
0.0
 11
8752.345105459111
 21
4432.746374670296
 31
0.0
  0
LINE
  5
17A73
330
747D
100
AcDbEntity
  8
部品1
 48
50.0
100
AcDbLine
 10
8779.345105459112
 20
4476.746374670296
 30
0.0
 11
8779.345105459112
 21
4481.746374670296
 31
0.0
  0
LINE
  5
17A74
330
747D
100
AcDbEntity
  8
部品1
 48
50.0
100
AcDbLine
 10
8791.345105459113
 20
2691.746374670296
 30
0.0
 11
8791.345105459113
 21
2688.746374670297
 31
0.0
  0
LINE
  5
17A75
330
747D
100
AcDbEntity
  8
部品1
 48
50.0
100
AcDbLine
 10
8782.345105459112
 20
2691.746374670296
 30
0.0
 11
9586.345105459107
 21
2691.746374670293
 31
0.0
  0
LINE
  5
17A76
330
747D
100
AcDbEntity
  8
部品1
 48
50.0
100
AcDbLine
 10
9586.345105459107
 20
4424.746374695064
 30
0.0
 11
9586.345105459107
 21
2691.746374695064
 31
0.0
  0
LINE
  5
17A77
330
747D
100
AcDbEntity
  8
部品1
 48
50.0
100
AcDbLine
 10
8752.345105459111
 20
4476.746374670296
 30
0.0
 11
8752.345105459111
 21
2641.746374670296
 31
0.0
  0
LINE
  5
17A78
330
747D
100
AcDbEntity
  8
細線
 48
50.0
100
AcDbLine
 10
8782.345105459112
 20
4434.246374670296
 30
0.0
 11
8782.345105459112
 21
2641.746374670296
 31
0.0
  0
LINE
  5
17A79
330
747D
100
AcDbEntity
  8
部品1
 48
50.0
100
AcDbLine
 10
8782.345105459112
 20
2691.746374670296
 30
0.0
 11
8782.345105459112
 21
4424.746374670296
 31
0.0
  0
LINE
  5
17A7A
330
747D
100
AcDbEntity
  8
細線
 48
50.0
100
AcDbLine
 10
9586.345105459107
 20
2699.246374670296
 30
0.0
 11
10850.34510545911
 21
2699.246374670296
 31
0.0
  0
LINE
  5
17A7B
330
747D
100
AcDbEntity
  8
細線
 48
50.0
100
AcDbLine
 10
8782.345105459112
 20
2688.746374670297
 30
0.0
 11
10876.34510545911
 21
2688.746374670297
 31
0.0
  0
LINE
  5
17A7C
330
747D
100
AcDbEntity
  8
細線
 48
50.0
100
AcDbLine
 10
8782.345105459112
 20
2684.746374670296
 30
0.0
 11
10876.34510545911
 21
2684.746374670296
 31
0.0
  0
LINE
  5
17A7D
330
747D
100
AcDbEntity
  8
部品1
 48
50.0
100
AcDbLine
 10
8752.345105459111
 20
2641.746374670296
 30
0.0
 11
10906.34510545911
 21
2641.746374670296
 31
0.0
  0
LINE
  5
17A7E
330
747D
100
AcDbEntity
  8
細線
 48
50.0
100
AcDbLine
 10
10876.34510545911
 20
4434.246374670296
 30
0.0
 11
8782.345105459112
 21
4434.246374670296
 31
0.0
  0
LINE
  5
17A7F
330
747D
100
AcDbEntity
  8
細線
 48
50.0
100
AcDbLine
 10
10876.34510545911
 20
4424.746374670296
 30
0.0
 11
8782.345105459112
 21
4424.746374670296
 31
0.0
  0
LINE
  5
17A80
330
747D
100
AcDbEntity
  8
細線
 48
50.0
100
AcDbLine
 10
10906.34510545911
 20
4466.746374670296
 30
0.0
 11
8752.345105459111
 21
4466.746374670296
 31
0.0
  0
LINE
  5
17A81
330
747D
100
AcDbEntity
  8
部品1
 48
50.0
100
AcDbLine
 10
10906.34510545911
 20
4476.746374670296
 30
0.0
 11
8752.345105459111
 21
4476.746374670296
 31
0.0
  0
LINE
  5
17A9B
330
747D
100
AcDbEntity
  8
部品1
 48
50.0
100
AcDbLine
 10
8826.345105459111
 20
3623.246374670296
 30
0.0
 11
8879.345105459112
 21
3623.246374670296
 31
0.0
  0
TEXT
  5
17B55
330
747D
100
AcDbEntity
  8
文字
 62
     7
 48
50.0
100
AcDbText
 10
13583.11819016569
 20
8550.013745883731
 30
0.0
 40
100.0
  1
棚板
  7
STYLE1
100
AcDbText
  0
TEXT
  5
17B56
330
747D
100
AcDbEntity
  8
文字
 62
     7
 48
50.0
100
AcDbText
 10
15022.63965474516
 20
8550.013745883727
 30
0.0
 40
100.0
  1
F12            0.6
  7
STYLE1
100
AcDbText
  0
TEXT
  5
17B57
330
747D
100
AcDbEntity
  8
文字
 62
     7
 48
50.0
100
AcDbText
 10
13583.11819016569
 20
9740.013745883729
 30
0.0
 40
100.0
  1
母屋中
  7
STYLE1
100
AcDbText
  0
TEXT
  5
17B58
330
747D
100
AcDbEntity
  8
文字
 62
     7
 48
50.0
100
AcDbText
 10
13248.77747366447
 20
8720.013745883729
 30
0.0
 40
100.0
  1
15
  7
STYLE1
100
AcDbText
  0
LINE
  5
17B59
330
747D
100
AcDbEntity
  8
仕様書枠
 48
50.0
100
AcDbLine
 10
16307.19999999999
 20
8009.600000000004
 30
0.0
 11
13127.19999999999
 21
8009.600000000006
 31
0.0
  0
TEXT
  5
17B5A
330
747D
100
AcDbEntity
  8
文字
 62
     7
 48
50.0
100
AcDbText
 10
13583.11819016569
 20
8720.013745883731
 30
0.0
 40
100.0
  1
扉
  7
STYLE1
100
AcDbText
  0
TEXT
  5
17B5B
330
747D
100
AcDbEntity
  8
文字
 62
     7
 48
50.0
100
AcDbText
 10
15022.63965474516
 20
8720.013745883727
 30
0.0
 40
100.0
  1
F12            0.8
  7
STYLE1
100
AcDbText
  0
TEXT
  5
17B5C
330
747D
100
AcDbEntity
  8
文字
 62
     7
 48
50.0
100
AcDbText
 10
13583.11819016568
 20
8890.013745883731
 30
0.0
 40
100.0
  1
正面パネル
  7
STYLE1
100
AcDbText
  0
TEXT
  5
17B5D
330
747D
100
AcDbEntity
  8
文字
 62
     7
 48
50.0
100
AcDbText
 10
15022.63965474515
 20
8890.013745883727
 30
0.0
 40
100.0
  1
F12            0.7
  7
STYLE1
100
AcDbText
  0
TEXT
  5
17B5E
330
747D
100
AcDbEntity
  8
文字
 62
     7
 48
50.0
100
AcDbText
 10
15022.63965474517
 20
10590.01374588372
 30
0.0
 40
100.0
  1
F12            1.0
  7
STYLE1
100
AcDbText
  0
TEXT
  5
17B5F
330
747D
100
AcDbEntity
  8
文字
 62
     7
 48
50.0
100
AcDbText
 10
15022.63965474516
 20
10930.01374588372
 30
0.0
 40
100.0
  1
F12            1.2
  7
STYLE1
100
AcDbText
  0
TEXT
  5
17B60
330
747D
100
AcDbEntity
  8
文字
 62
     7
 48
50.0
100
AcDbText
 10
13248.77747366448
 20
8890.013745883727
 30
0.0
 40
100.0
  1
14
  7
STYLE1
100
AcDbText
  0
TEXT
  5
17B61
330
747D
100
AcDbEntity
  8
文字
 62
     7
 48
50.0
100
AcDbText
 10
13583.11819016569
 20
10930.01374588372
 30
0.0
 40
100.0
  1
根太
  7
STYLE1
100
AcDbText
  0
TEXT
  5
17B62
330
747D
100
AcDbEntity
  8
文字
 62
     7
 48
50.0
100
AcDbText
 10
13583.1181901657
 20
10590.01374588372
 30
0.0
 40
100.0
  1
床パネル
 41
0.9
  7
STYLE1
100
AcDbText
  0
LINE
  5
17B63
330
747D
100
AcDbEntity
  8
仕様書枠
 48
50.0
100
AcDbLine
 10
16307.19999999999
 20
9029.6
 30
0.0
 11
13127.2
 21
9029.600000000002
 31
0.0
  0
LINE
  5
17B64
330
747D
100
AcDbEntity
  8
仕様書枠
 48
50.0
100
AcDbLine
 10
13127.2
 20
11409.6
 30
0.0
 11
13127.19999999999
 21
8009.600000000006
 31
0.0
  0
TEXT
  5
17B65
330
747D
100
AcDbEntity
  8
文字
 62
     7
 48
50.0
100
AcDbText
 10
13229.83081656554
 20
8040.013745883731
 30
0.0
 40
100.0
  1
Y10→溶融亜鉛-5％アルミニウム合金めっき鋼板(JIS G 3317)
 41
0.9
  7
STYLE1
100
AcDbText
  0
TEXT
  5
17B66
330
747D
100
AcDbEntity
  8
文字
 62
     7
 48
50.0
100
AcDbText
 10
13229.83081656554
 20
8210.013745883733
 30
0.0
 40
100.0
  1
F12→溶融亜鉛めっき鋼板(JIS G 3302)
  7
STYLE1
100
AcDbText
  0
LINE
  5
17B67
330
747D
100
AcDbEntity
  8
仕様書枠
 48
50.0
100
AcDbLine
 10
16307.19999999999
 20
8179.600000000004
 30
0.0
 11
13127.19999999999
 21
8179.600000000005
 31
0.0
  0
LINE
  5
17B68
330
747D
100
AcDbEntity
  8
仕様書枠
 48
50.0
100
AcDbLine
 10
16307.19999999999
 20
8349.600000000004
 30
0.0
 11
13127.19999999999
 21
8349.600000000007
 31
0.0
  0
TEXT
  5
17B69
330
747D
100
AcDbEntity
  8
文字
 62
     7
 48
50.0
100
AcDbText
 10
15022.63965474515
 20
9570.013745883725
 30
0.0
 40
100.0
  1
F12            0.6
  7
STYLE1
100
AcDbText
  0
TEXT
  5
17B6A
330
747D
100
AcDbEntity
  8
文字
 62
     7
 48
50.0
100
AcDbText
 10
15022.63965474517
 20
9910.013745883725
 30
0.0
 40
100.0
  1
Y10            0.5
  7
STYLE1
100
AcDbText
  0
TEXT
  5
17B6B
330
747D
100
AcDbEntity
  8
文字
 62
     7
 48
50.0
100
AcDbText
 10
15022.63965474516
 20
10080.01374588372
 30
0.0
 40
100.0
  1
Y10            0.7
  7
STYLE1
100
AcDbText
  0
TEXT
  5
17B6C
330
747D
100
AcDbEntity
  8
文字
 62
     7
 48
50.0
100
AcDbText
 10
15022.63965474516
 20
10250.01374588372
 30
0.0
 40
100.0
  1
Y10            0.7
  7
STYLE1
100
AcDbText
  0
TEXT
  5
17B6D
330
747D
100
AcDbEntity
  8
文字
 62
     7
 48
50.0
100
AcDbText
 10
15022.63965474516
 20
10420.01374588372
 30
0.0
 40
100.0
  1
Y10            1.0
  7
STYLE1
100
AcDbText
  0
TEXT
  5
17B6E
330
747D
100
AcDbEntity
  8
文字
 62
     7
 48
50.0
100
AcDbText
 10
15022.63965474518
 20
10760.01374588372
 30
0.0
 40
100.0
  1
F12            1.0
  7
STYLE1
100
AcDbText
  0
TEXT
  5
17B6F
330
747D
100
AcDbEntity
  8
文字
 62
     7
 48
50.0
100
AcDbText
 10
15022.63965474517
 20
11100.01374588372
 30
0.0
 40
100.0
  1
F12            1.2
  7
STYLE1
100
AcDbText
  0
TEXT
  5
17B70
330
747D
100
AcDbEntity
  8
文字
 62
     7
 48
50.0
100
AcDbText
 10
13248.77747366448
 20
9230.013745883727
 30
0.0
 40
100.0
  1
12
  7
STYLE1
100
AcDbText
  0
TEXT
  5
17B71
330
747D
100
AcDbEntity
  8
文字
 62
     7
 48
50.0
100
AcDbText
 10
13248.77747366448
 20
9060.013745883727
 30
0.0
 40
100.0
  1
13
  7
STYLE1
100
AcDbText
  0
LINE
  5
17B72
330
747D
100
AcDbEntity
  8
仕様書枠
 48
50.0
100
AcDbLine
 10
16307.19999999999
 20
8859.6
 30
0.0
 11
13127.2
 21
8859.600000000002
 31
0.0
  0
LINE
  5
17B73
330
747D
100
AcDbEntity
  8
仕様書枠
 48
50.0
100
AcDbLine
 10
16307.19999999999
 20
9199.599999999998
 30
0.0
 11
13127.2
 21
9199.600000000001
 31
0.0
  0
TEXT
  5
17B74
330
747D
100
AcDbEntity
  8
文字
 62
     7
 48
50.0
100
AcDbText
 10
13248.77747366447
 20
9400.013745883727
 30
0.0
 40
100.0
  1
11
  7
STYLE1
100
AcDbText
  0
LINE
  5
17B75
330
747D
100
AcDbEntity
  8
仕様書枠
 48
50.0
100
AcDbLine
 10
16307.2
 20
9879.599999999999
 30
0.0
 11
13127.2
 21
9879.600000000001
 31
0.0
  0
LINE
  5
17B76
330
747D
100
AcDbEntity
  8
仕様書枠
 48
50.0
100
AcDbLine
 10
16307.2
 20
10219.6
 30
0.0
 11
13127.2
 21
10219.6
 31
0.0
  0
LINE
  5
17B77
330
747D
100
AcDbEntity
  8
仕様書枠
 48
50.0
100
AcDbLine
 10
16307.19999999999
 20
9539.599999999998
 30
0.0
 11
13127.2
 21
9539.6
 31
0.0
  0
LINE
  5
17B78
330
747D
100
AcDbEntity
  8
仕様書枠
 48
50.0
100
AcDbLine
 10
16307.19999999999
 20
9369.599999999998
 30
0.0
 11
13127.2
 21
9369.600000000001
 31
0.0
  0
LINE
  5
17B79
330
747D
100
AcDbEntity
  8
仕様書枠
 48
50.0
100
AcDbLine
 10
16307.19999999999
 20
9709.6
 30
0.0
 11
13127.2
 21
9709.600000000001
 31
0.0
  0
TEXT
  5
17B7A
330
747D
100
AcDbEntity
  8
文字
 62
     7
 48
50.0
100
AcDbText
 10
13271.19032244792
 20
10250.01374588373
 30
0.0
 40
100.0
  1
6
  7
STYLE1
100
AcDbText
  0
TEXT
  5
17B7B
330
747D
100
AcDbEntity
  8
文字
 62
     7
 48
50.0
100
AcDbText
 10
13271.19032244792
 20
10080.01374588373
 30
0.0
 40
100.0
  1
7
  7
STYLE1
100
AcDbText
  0
TEXT
  5
17B7C
330
747D
100
AcDbEntity
  8
文字
 62
     7
 48
50.0
100
AcDbText
 10
13271.19032244792
 20
9740.013745883729
 30
0.0
 40
100.0
  1
9
  7
STYLE1
100
AcDbText
  0
TEXT
  5
17B7D
330
747D
100
AcDbEntity
  8
文字
 62
     7
 48
50.0
100
AcDbText
 10
13271.19032244792
 20
9910.01374588373
 30
0.0
 40
100.0
  1
8
  7
STYLE1
100
AcDbText
  0
TEXT
  5
17B7E
330
747D
100
AcDbEntity
  8
文字
 62
     7
 48
50.0
100
AcDbText
 10
13583.11819016569
 20
10080.01374588372
 30
0.0
 40
100.0
  1
鼻隠シ前後
  7
STYLE1
100
AcDbText
  0
TEXT
  5
17B7F
330
747D
100
AcDbEntity
  8
文字
 62
     7
 48
50.0
100
AcDbText
 10
13583.11819016569
 20
9910.013745883727
 30
0.0
 40
100.0
  1
屋根パネル
  7
STYLE1
100
AcDbText
  0
TEXT
  5
17B80
330
747D
100
AcDbEntity
  8
文字
 62
     7
 48
50.0
100
AcDbText
 10
13583.11819016568
 20
9570.013745883729
 30
0.0
 40
100.0
  1
壁パネル
  7
STYLE1
100
AcDbText
  0
TEXT
  5
17B81
330
747D
100
AcDbEntity
  8
文字
 62
     7
 48
50.0
100
AcDbText
 10
13248.77747366447
 20
9570.013745883727
 30
0.0
 40
100.0
  1
10
  7
STYLE1
100
AcDbText
  0
TEXT
  5
17B82
330
747D
100
AcDbEntity
  8
文字
 62
     7
 48
50.0
100
AcDbText
 10
13583.11819016569
 20
10250.01374588373
 30
0.0
 40
100.0
  1
妻板左右
  7
STYLE1
100
AcDbText
  0
TEXT
  5
17B83
330
747D
100
AcDbEntity
  8
文字
 62
     7
 48
50.0
100
AcDbText
 10
13271.19032244792
 20
10420.01374588372
 30
0.0
 40
100.0
  1
5
  7
STYLE1
100
AcDbText
  0
TEXT
  5
17B84
330
747D
100
AcDbEntity
  8
文字
 62
     7
 48
50.0
100
AcDbText
 10
13583.11819016569
 20
10420.01374588373
 30
0.0
 40
100.0
  1
桁前後
  7
STYLE1
100
AcDbText
  0
TEXT
  5
17B85
330
747D
100
AcDbEntity
  8
文字
 62
     7
 48
50.0
100
AcDbText
 10
13583.1181901657
 20
10760.01374588372
 30
0.0
 40
100.0
  1
柱
  7
STYLE1
100
AcDbText
  0
TEXT
  5
17B86
330
747D
100
AcDbEntity
  8
文字
 62
     7
 48
50.0
100
AcDbText
 10
13583.11819016569
 20
11100.01374588372
 30
0.0
 40
100.0
  1
土台枠
  7
STYLE1
100
AcDbText
  0
TEXT
  5
17B87
330
747D
100
AcDbEntity
  8
文字
 62
     7
 48
50.0
100
AcDbText
 10
14859.79774614482
 20
11270.01374588372
 30
0.0
 40
100.0
  1
材料（材質）　　単位mm
  7
STYLE1
100
AcDbText
  0
TEXT
  5
17B88
330
747D
100
AcDbEntity
  8
文字
 62
     7
 48
50.0
100
AcDbText
 10
13732.03840939434
 20
11270.01374588372
 30
0.0
 40
100.0
  1
部　　品　　名
  7
STYLE1
100
AcDbText
  0
TEXT
  5
17B89
330
747D
100
AcDbEntity
  8
文字
 62
     7
 48
50.0
100
AcDbText
 10
13271.19032244792
 20
10760.01374588373
 30
0.0
 40
100.0
  1
3
  7
STYLE1
100
AcDbText
  0
TEXT
  5
17B8A
330
747D
100
AcDbEntity
  8
文字
 62
     7
 48
50.0
100
AcDbText
 10
13271.19032244792
 20
10590.01374588373
 30
0.0
 40
100.0
  1
4
  7
STYLE1
100
AcDbText
  0
TEXT
  5
17B8B
330
747D
100
AcDbEntity
  8
文字
 62
     7
 48
50.0
100
AcDbText
 10
13271.19032244792
 20
10930.01374588373
 30
0.0
 40
100.0
  1
2
  7
STYLE1
100
AcDbText
  0
TEXT
  5
17B8C
330
747D
100
AcDbEntity
  8
文字
 62
     7
 48
50.0
100
AcDbText
 10
13271.19032244792
 20
11100.01374588373
 30
0.0
 40
100.0
  1
1
  7
STYLE1
100
AcDbText
  0
TEXT
  5
17B8D
330
747D
100
AcDbEntity
  8
文字
 62
     7
 48
50.0
100
AcDbText
 10
13197.42518560407
 20
11270.01374588372
 30
0.0
 40
100.0
  1
品番
  7
STYLE1
100
AcDbText
  0
LINE
  5
17B8E
330
747D
100
AcDbEntity
  8
仕様書枠
 48
50.0
100
AcDbLine
 10
16307.19999999999
 20
10729.59999999999
 30
0.0
 11
13127.2
 21
10729.6
 31
0.0
  0
LINE
  5
17B8F
330
747D
100
AcDbEntity
  8
仕様書枠
 48
50.0
100
AcDbLine
 10
16307.19999999999
 20
10389.6
 30
0.0
 11
13127.2
 21
10389.6
 31
0.0
  0
LINE
  5
17B90
330
747D
100
AcDbEntity
  8
仕様書枠
 48
50.0
100
AcDbLine
 10
16307.19999999999
 20
10559.6
 30
0.0
 11
13127.2
 21
10559.6
 31
0.0
  0
LINE
  5
17B91
330
747D
100
AcDbEntity
  8
仕様書枠
 48
50.0
100
AcDbLine
 10
16307.2
 20
11069.59999999999
 30
0.0
 11
13127.2
 21
11069.6
 31
0.0
  0
LINE
  5
17B92
330
747D
100
AcDbEntity
  8
仕様書枠
 48
50.0
100
AcDbLine
 10
16307.2
 20
10899.6
 30
0.0
 11
13127.2
 21
10899.6
 31
0.0
  0
LINE
  5
17B93
330
747D
100
AcDbEntity
  8
仕様書枠
 48
50.0
100
AcDbLine
 10
16307.2
 20
11239.59999999999
 30
0.0
 11
13127.2
 21
11239.6
 31
0.0
  0
LINE
  5
17B94
330
747D
100
AcDbEntity
  8
仕様書枠
 48
50.0
100
AcDbLine
 10
13490.2
 20
11409.59999999999
 30
0.0
 11
13490.20000000001
 21
8349.600000000007
 31
0.0
  0
LINE
  5
17B95
330
747D
100
AcDbEntity
  8
仕様書枠
 48
50.0
100
AcDbLine
 10
14785.2
 20
11409.59999999999
 30
0.0
 11
14785.2
 21
8349.600000000004
 31
0.0
  0
LINE
  5
17B96
330
747D
100
AcDbEntity
  8
仕様書枠
 48
50.0
100
AcDbLine
 10
16307.19999999999
 20
8009.600000000004
 30
0.0
 11
16307.2
 21
11409.6
 31
0.0
  0
LINE
  5
17B97
330
747D
100
AcDbEntity
  8
仕様書枠
 48
50.0
100
AcDbLine
 10
16307.2
 20
11409.59999999999
 30
0.0
 11
13127.2
 21
11409.6
 31
0.0
  0
LINE
  5
17B98
330
747D
100
AcDbEntity
  8
仕様書枠
 48
50.0
100
AcDbLine
 10
16307.2
 20
10049.6
 30
0.0
 11
13127.2
 21
10049.6
 31
0.0
  0
TEXT
  5
17B99
330
747D
100
AcDbEntity
  8
文字
 62
     7
 48
50.0
100
AcDbText
 10
15022.63965474515
 20
8380.013745883724
 30
0.0
 40
100.0
  1
F12            2.3
  7
STYLE1
100
AcDbText
  0
TEXT
  5
17B9A
330
747D
100
AcDbEntity
  8
文字
 62
     7
 48
50.0
100
AcDbText
 10
13583.11819016569
 20
8380.013745883728
 30
0.0
 40
100.0
  1
アンカープレート
  7
STYLE1
100
AcDbText
  0
LINE
  5
17B9B
330
747D
100
AcDbEntity
  8
仕様書枠
 48
50.0
100
AcDbLine
 10
16307.19999999999
 20
8519.600000000004
 30
0.0
 11
13127.2
 21
8519.600000000005
 31
0.0
  0
LINE
  5
17B9C
330
747D
100
AcDbEntity
  8
仕様書枠
 48
50.0
100
AcDbLine
 10
16307.19999999999
 20
8689.600000000003
 30
0.0
 11
13127.2
 21
8689.600000000005
 31
0.0
  0
TEXT
  5
17B9D
330
747D
100
AcDbEntity
  8
文字
 62
     7
 48
50.0
100
AcDbText
 10
13583.11819016569
 20
9400.013745883729
 30
0.0
 40
100.0
  1
壁面扉鴨居
  7
STYLE1
100
AcDbText
  0
TEXT
  5
17B9E
330
747D
100
AcDbEntity
  8
文字
 62
     7
 48
50.0
100
AcDbText
 10
13583.11819016569
 20
9230.013745883733
 30
0.0
 40
100.0
  1
壁面扉敷居
  7
STYLE1
100
AcDbText
  0
TEXT
  5
17B9F
330
747D
100
AcDbEntity
  8
文字
 62
     7
 48
50.0
100
AcDbText
 10
15022.63965474515
 20
9400.013745883727
 30
0.0
 40
100.0
  1
F12            0.7
  7
STYLE1
100
AcDbText
  0
TEXT
  5
17BA0
330
747D
100
AcDbEntity
  8
文字
 62
     7
 48
50.0
100
AcDbText
 10
15022.63965474517
 20
9230.013745883725
 30
0.0
 40
100.0
  1
F12            1.0
  7
STYLE1
100
AcDbText
  0
TEXT
  5
17BA1
330
747D
100
AcDbEntity
  8
文字
 62
     7
 48
50.0
100
AcDbText
 10
13583.11819016569
 20
9060.013745883733
 30
0.0
 40
100.0
  1
壁面扉枠左右
  7
STYLE1
100
AcDbText
  0
TEXT
  5
17BA2
330
747D
100
AcDbEntity
  8
文字
 62
     7
 48
50.0
100
AcDbText
 10
15022.63965474517
 20
9060.013745883725
 30
0.0
 40
100.0
  1
F12            1.0
  7
STYLE1
100
AcDbText
  0
TEXT
  5
17BA3
330
747D
100
AcDbEntity
  8
文字
 62
     7
 48
50.0
100
AcDbText
 10
13248.77747366447
 20
8550.013745883729
 30
0.0
 40
100.0
  1
16
  7
STYLE1
100
AcDbText
  0
TEXT
  5
17BA4
330
747D
100
AcDbEntity
  8
文字
 62
     7
 48
50.0
100
AcDbText
 10
13248.77747366447
 20
8380.013745883728
 30
0.0
 40
100.0
  1
17
  7
STYLE1
100
AcDbText
  0
TEXT
  5
17BA5
330
747D
100
AcDbEntity
  8
文字
 62
     7
 48
50.0
100
AcDbText
 10
14892.7563502105
 20
9740.013745883725
 30
0.0
 40
100.0
  1
F12  1.0(多雪地型2.3,1.6)
  7
STYLE1
100
AcDbText
  0
TEXT
  5
17C07
330
747D
100
AcDbEntity
  8
文字
 62
     7
 48
50.0
100
AcDbText
 10
14491.96323844892
 20
483.8967129911416
 30
0.0
 40
160.0
  1
ＮＸＮ－５５ＳＡ
  7
STYLE2
100
AcDbText
  0
TEXT
  5
17C08
330
747D
100
AcDbEntity
  8
文字
 62
     7
 48
50.0
100
AcDbText
 10
13209.4053442172
 20
243.236973410656
 30
0.0
 40
100.0
  1
○有効開口寸法 ： 1266×1725(mm)
  7
STYLE2
100
AcDbText
  0
MTEXT
  5
17C09
330
747D
100
AcDbEntity
  8
寸法
 62
     7
 48
50.0
100
AcDbMText
 10
10599.44764255225
 20
9110.929520674751
 30
0.0
 40
96.0
 41
0.0
 71
     5
 72
     1
  1
棚 2段
  7
STYLE1
 73
     1
 44
1.0
1001
ACAD
1000
MTEXTBEGIN
1070
    73
1070
     1
1070
    44
1040
1.0
1070
    74
1070
     0
1000
MTEXTEND
  0
LINE
  5
17C0B
330
747D
100
AcDbEntity
  8
部品1
100
AcDbLine
 10
11299.34510545912
 20
9524.694702477441
 30
0.0
 11
11299.34510545912
 21
9496.694702477441
 31
0.0
  0
LINE
  5
17C0C
330
747D
100
AcDbEntity
  8
部品1
100
AcDbLine
 10
11299.34510545912
 20
9524.694702477464
 30
0.0
 11
11299.34510545912
 21
9496.694702477464
 31
0.0
  0
LINE
  5
17C0D
330
747D
100
AcDbEntity
  8
部品1
100
AcDbLine
 10
11326.34510545912
 20
9469.694702477445
 30
0.0
 11
11354.34510545912
 21
9469.694702477445
 31
0.0
  0
DIMENSION
  5
17C0E
330
747D
100
AcDbEntity
  8
寸法
100
AcDbDimension
  2
*D6
 10
12054.34510545912
 20
9469.694702477445
 30
0.0
 11
12054.34510545912
 21
9833.179983851682
 31
0.0
 70
   160
 71
     5
 42
54.99999999999636
  3
INABA_S40G
100
AcDbAlignedDimension
 13
11354.34510545912
 23
9524.694702477441
 33
0.0
 14
11354.34510545912
 24
9469.694702477445
 34
0.0
 50
90.0
100
AcDbRotatedDimension
1001
ACAD
1000
DSTYLE
1002
{
1002
}
  0
DIMENSION
  5
17C0F
330
747D
100
AcDbEntity
  8
寸法
100
AcDbDimension
  2
*D7
 10
11354.34510545912
 20
10024.69470247744
 30
0.0
 11
11662.83038683336
 21
10024.69470247744
 31
0.0
 70
   160
 71
     5
 42
55.0
  3
INABA_S40G
100
AcDbAlignedDimension
 13
11299.34510545912
 23
9524.694702477441
 33
0.0
 14
11354.34510545912
 24
9524.694702477441
 34
0.0
100
AcDbRotatedDimension
1001
ACAD
1000
DSTYLE
1002
{
1002
}
  0
LINE
  5
17C10
330
747D
100
AcDbEntity
  8
部品1
100
AcDbLine
 10
11326.34510545912
 20
9049.694702477445
 30
0.0
 11
11354.34510545912
 21
9049.694702477445
 31
0.0
  0
LINE
  5
17C11
330
747D
100
AcDbEntity
  8
部品1
100
AcDbLine
 10
11326.34510545912
 20
8629.694702477445
 30
0.0
 11
11354.34510545912
 21
8629.694702477445
 31
0.0
  0
DIMENSION
  5
17C12
330
747D
100
AcDbEntity
  8
寸法
100
AcDbDimension
  2
*D8
 10
11754.34510545911
 20
8929.878473520711
 30
0.0
 11
11754.34510545911
 21
9154.878473520708
 31
0.0
 70
   160
 71
     5
 42
449.9999999999963
  3
INABA_S40G
100
AcDbAlignedDimension
 13
11325.84510545912
 23
9494.694702477442
 33
0.0
 14
11325.84510545912
 24
9044.694702477446
 34
0.0
 50
90.0
100
AcDbRotatedDimension
1001
ACAD
1000
DSTYLE
1002
{
1002
}
  0
LINE
  5
17C13
330
747D
100
AcDbEntity
  8
部品1
100
AcDbLine
 10
11325.84510545912
 20
9494.694702477442
 30
0.0
 11
11325.84510545912
 21
9044.694702477446
 31
0.0
  0
LINE
  5
17C14
330
747D
100
AcDbEntity
  8
部品1
100
AcDbLine
 10
11326.34510545912
 20
9496.694702477441
 30
0.0
 11
11326.34510545911
 21
9044.194702477318
 31
0.0
  0
LINE
  5
17C15
330
747D
100
AcDbEntity
  8
部品1
100
AcDbLine
 10
11299.34510545912
 20
7734.694702477435
 30
0.0
 11
11299.34510545912
 21
7762.694702477435
 31
0.0
  0
LINE
  5
17C16
330
747D
100
AcDbEntity
  8
部品1
100
AcDbLine
 10
11326.34510545912
 20
7789.69470247743
 30
0.0
 11
11354.34510545912
 21
7789.69470247743
 31
0.0
  0
LINE
  5
17C17
330
747D
100
AcDbEntity
  8
部品1
100
AcDbLine
 10
11354.3451054591
 20
7789.69470247743
 30
0.0
 11
11354.34510545909
 21
7734.694702477435
 31
0.0
  0
LINE
  5
17C18
330
747D
100
AcDbEntity
  8
部品1
 48
50.0
100
AcDbLine
 10
11297.84510545912
 20
7791.194702477435
 30
0.0
 11
11326.34510545912
 21
7762.694702477435
 31
0.0
  0
LINE
  5
17C19
330
747D
100
AcDbEntity
  8
部品1
100
AcDbLine
 10
11354.34510545909
 20
7734.694702477435
 30
0.0
 11
11303.34510545909
 21
7734.694702477435
 31
0.0
  0
LINE
  5
17C1A
330
747D
100
AcDbEntity
  8
部品1
100
AcDbLine
 10
11326.34510545909
 20
7789.69470247743
 30
0.0
 11
11354.34510545909
 21
7789.69470247743
 31
0.0
  0
DIMENSION
  5
17C1B
330
747D
100
AcDbEntity
  8
寸法
100
AcDbDimension
  2
*D9
 10
12054.34510545909
 20
7734.694702477433
 30
0.0
 11
12054.34510545909
 21
7426.209421103194
 31
0.0
 70
   160
 71
     5
 42
54.99999999999636
  3
INABA_S40G
100
AcDbAlignedDimension
 13
11354.34510545909
 23
7789.69470247743
 33
0.0
 14
11354.34510545909
 24
7734.694702477433
 34
0.0
 50
90.0
100
AcDbRotatedDimension
1001
ACAD
1000
DSTYLE
1002
{
1002
}
  0
LINE
  5
17C1C
330
747D
100
AcDbEntity
  8
部品1
100
AcDbLine
 10
11326.34510545911
 20
9049.694702477445
 30
0.0
 11
11326.34510545909
 21
7762.694702477435
 31
0.0
  0
LINE
  5
17C1D
330
747D
100
AcDbEntity
  8
部品1
100
AcDbLine
 10
11297.84510545911
 20
9044.694702477446
 30
0.0
 11
11297.84510545912
 21
7791.194702477435
 31
0.0
  0
LINE
  5
17C1E
330
747D
100
AcDbEntity
  8
部品1
100
AcDbLine
 10
11354.34510545912
 20
9524.694702477441
 30
0.0
 11
11354.34510545909
 21
7734.694702477435
 31
0.0
  0
DIMENSION
  5
17C1F
330
747D
100
AcDbEntity
  8
寸法
100
AcDbDimension
  2
*D10
 10
12054.34510545911
 20
7789.69470247743
 30
0.0
 11
12054.3451054591
 21
8629.694702477438
 31
0.0
 70
   160
  1
4X420=<>
 71
     5
 42
1680.000000000014
  3
INABA_S40G
100
AcDbAlignedDimension
 13
11354.34510545912
 23
9469.694702477445
 33
0.0
 14
11354.34510545909
 24
7789.69470247743
 34
0.0
 50
90.0
100
AcDbRotatedDimension
1001
ACAD
1000
DSTYLE
1002
{
1002
}
  0
LINE
  5
17C20
330
747D
100
AcDbEntity
  8
破線
 48
10.0
100
AcDbLine
 10
11274.34510545911
 20
9044.694702477446
 30
0.0
 11
11274.34510545912
 21
7814.694702477431
 31
0.0
  0
DIMENSION
  5
17C21
330
747D
100
AcDbEntity
  8
寸法
100
AcDbDimension
  2
*D11
 10
12354.34510545911
 20
7734.694702477433
 30
0.0
 11
12354.34510545911
 21
8629.694702477438
 31
0.0
 70
   160
 71
     5
 42
1790.000000000007
  3
INABA_S40G
100
AcDbAlignedDimension
 13
11354.34510545912
 23
9524.694702477441
 33
0.0
 14
11354.34510545909
 24
7734.694702477433
 34
0.0
 50
90.0
100
AcDbRotatedDimension
1001
ACAD
1000
DSTYLE
1002
{
1002
}
  0
LINE
  5
17C22
330
747D
100
AcDbEntity
  8
部品1
100
AcDbLine
 10
10879.34510545908
 20
9524.694702477315
 30
0.0
 11
10879.34510545908
 21
9496.694702477315
 31
0.0
  0
LINE
  5
17C23
330
747D
100
AcDbEntity
  8
部品1
100
AcDbLine
 10
10459.34510545908
 20
9524.694702477315
 30
0.0
 11
10459.34510545908
 21
9496.694702477315
 31
0.0
  0
LINE
  5
17C24
330
747D
100
AcDbEntity
  8
部品1
100
AcDbLine
 10
10039.34510545908
 20
9524.694702477315
 30
0.0
 11
10039.34510545908
 21
9496.694702477315
 31
0.0
  0
LINE
  5
17C25
330
747D
100
AcDbEntity
  8
部品1
100
AcDbLine
 10
9858.34510545912
 20
9514.694702477449
 30
0.0
 11
9864.34510545912
 21
9514.694702477449
 31
0.0
  0
LINE
  5
17C26
330
747D
100
AcDbEntity
  8
部品1
100
AcDbLine
 10
9864.34510545912
 20
9514.694702477449
 30
0.0
 11
9864.34510545912
 21
9496.69470247745
 31
0.0
  0
LINE
  5
17C27
330
747D
100
AcDbEntity
  8
部品1
100
AcDbLine
 10
9794.34510545912
 20
9514.694702477449
 30
0.0
 11
9800.34510545912
 21
9514.694702477449
 31
0.0
  0
LINE
  5
17C28
330
747D
100
AcDbEntity
  8
部品1
100
AcDbLine
 10
9794.34510545912
 20
9514.694702477449
 30
0.0
 11
9794.34510545912
 21
9496.69470247745
 31
0.0
  0
LINE
  5
17C29
330
747D
100
AcDbEntity
  8
部品1
100
AcDbLine
 10
9816.845105459119
 20
9488.694702477445
 30
0.0
 11
9841.845105459119
 21
9488.694702477449
 31
0.0
  0
LINE
  5
17C2A
330
747D
100
AcDbEntity
  8
部品1
100
AcDbLine
 10
9816.845105459119
 20
9044.694702477453
 30
0.0
 11
9841.845105459119
 21
9044.694702477453
 31
0.0
  0
LINE
  5
17C2B
330
747D
100
AcDbEntity
  8
部品1
 48
50.0
100
AcDbLine
 10
9841.845105459119
 20
9496.694702477453
 30
0.0
 11
9841.845105459119
 21
9044.694702477453
 31
0.0
  0
LINE
  5
17C2C
330
747D
100
AcDbEntity
  8
部品1
 48
50.0
100
AcDbLine
 10
9816.845105459119
 20
9496.694702477457
 30
0.0
 11
9816.845105459119
 21
9044.694702477453
 31
0.0
  0
LINE
  5
17C2D
330
747D
100
AcDbEntity
  8
部品1
 48
50.0
100
AcDbLine
 10
9842.845105459119
 20
9494.694702477445
 30
0.0
 11
9842.845105459119
 21
9044.694702477453
 31
0.0
  0
LINE
  5
17C2E
330
747D
100
AcDbEntity
  8
部品1
 48
50.0
100
AcDbLine
 10
9815.845105459118
 20
9494.694702477449
 30
0.0
 11
9815.845105459118
 21
9044.694702477453
 31
0.0
  0
LINE
  5
17C2F
330
747D
100
AcDbEntity
  8
部品1
100
AcDbLine
 10
9619.345105459087
 20
9524.694702477315
 30
0.0
 11
9619.345105459087
 21
9496.694702477315
 31
0.0
  0
LINE
  5
17C30
330
747D
100
AcDbEntity
  8
部品1
100
AcDbLine
 10
9199.345105459086
 20
9524.694702477315
 30
0.0
 11
9199.345105459086
 21
9496.694702477315
 31
0.0
  0
LINE
  5
17C31
330
747D
100
AcDbEntity
  8
部品1
100
AcDbLine
 10
8779.345105459086
 20
9524.694702477315
 30
0.0
 11
8779.345105459086
 21
9496.694702477315
 31
0.0
  0
LINE
  5
17C32
330
747D
100
AcDbEntity
  8
部品1
100
AcDbLine
 10
10879.34510545912
 20
7734.694702477435
 30
0.0
 11
10879.34510545912
 21
7762.694702477435
 31
0.0
  0
LINE
  5
17C33
330
747D
100
AcDbEntity
  8
破線
 48
10.0
100
AcDbLine
 10
10531.84510545909
 20
7814.694702477358
 30
0.0
 11
9854.345105459097
 21
7814.694702477346
 31
0.0
  0
LINE
  5
17C34
330
747D
100
AcDbEntity
  8
部品1
100
AcDbLine
 10
8779.345105459087
 20
7734.694702477435
 30
0.0
 11
8779.345105459087
 21
7762.694702477435
 31
0.0
  0
LINE
  5
17C35
330
747D
100
AcDbEntity
  8
破線
 48
10.0
100
AcDbLine
 10
9804.345105459098
 20
7814.694702477344
 30
0.0
 11
9126.845105459095
 21
7814.694702477321
 31
0.0
  0
LINE
  5
17C36
330
747D
100
AcDbEntity
  8
部品1
 48
50.0
100
AcDbLine
 10
9829.34510545912
 20
9044.694702477453
 30
0.0
 11
9829.345105459148
 21
7791.194702477333
 31
0.0
  0
LINE
  5
17C37
330
747D
100
AcDbEntity
  8
破線
 48
10.0
100
AcDbLine
 10
10581.84510545909
 20
7791.194702477347
 30
0.0
 11
10581.8451054591
 21
9044.694702477453
 31
0.0
  0
LINE
  5
17C38
330
747D
100
AcDbEntity
  8
破線
 48
10.0
100
AcDbLine
 10
10531.84510545909
 20
7791.194702477344
 30
0.0
 11
10531.84510545909
 21
9044.694702477453
 31
0.0
  0
LINE
  5
17C39
330
747D
100
AcDbEntity
  8
破線
 48
10.0
100
AcDbLine
 10
9126.845105459095
 20
7791.194702477347
 30
0.0
 11
9126.845105459096
 21
9044.694702477453
 31
0.0
  0
LINE
  5
17C3A
330
747D
100
AcDbEntity
  8
破線
 48
10.0
100
AcDbLine
 10
9076.845105459097
 20
7791.194702477344
 30
0.0
 11
9076.845105459097
 21
9044.694702477453
 31
0.0
  0
LINE
  5
17C3B
330
747D
100
AcDbEntity
  8
破線
 48
10.0
100
AcDbLine
 10
9854.345105459096
 20
7791.194702477347
 30
0.0
 11
9854.34510545909
 21
9044.694702477448
 31
0.0
  0
LINE
  5
17C3C
330
747D
100
AcDbEntity
  8
破線
 48
10.0
100
AcDbLine
 10
9804.345105459098
 20
7791.194702477344
 30
0.0
 11
9804.345105459091
 21
9044.694702477453
 31
0.0
  0
LINE
  5
17C3D
330
747D
100
AcDbEntity
  8
部品1
100
AcDbLine
 10
9841.845105459119
 20
9496.69470247746
 30
0.0
 11
11326.34510545912
 21
9496.694702477441
 31
0.0
  0
LINE
  5
17C3E
330
747D
100
AcDbEntity
  8
細線
 48
50.0
100
AcDbLine
 10
11325.84510545912
 20
9044.694702477446
 30
0.0
 11
9842.845105459119
 21
9494.694702477445
 31
0.0
  0
LINE
  5
17C3F
330
747D
100
AcDbEntity
  8
部品1
100
AcDbLine
 10
9842.845105459119
 20
9044.694702477453
 30
0.0
 11
11325.84510545912
 21
9044.694702477446
 31
0.0
  0
LINE
  5
17C40
330
747D
100
AcDbEntity
  8
部品1
100
AcDbLine
 10
9842.845105459119
 20
9494.694702477449
 30
0.0
 11
11325.84510545912
 21
9494.694702477442
 31
0.0
  0
LINE
  5
17C41
330
747D
100
AcDbEntity
  8
細線
 48
50.0
100
AcDbLine
 10
11325.84510545912
 20
9494.694702477442
 30
0.0
 11
9842.845105459119
 21
9044.694702477453
 31
0.0
  0
DIMENSION
  5
17C42
330
747D
100
AcDbEntity
  8
寸法
100
AcDbDimension
  2
*D12
 10
11254.91509914044
 20
8779.980315115004
 30
0.0
 11
10354.40881645716
 21
8779.980315115004
 31
0.0
 70
   160
 71
     5
 42
1483.000000000013
  3
INABA_S40G
100
AcDbAlignedDimension
 13
9842.845105459112
 23
9044.694702477519
 33
0.0
 14
11325.84510545912
 24
9044.694702477512
 34
0.0
100
AcDbRotatedDimension
1001
ACAD
1000
DSTYLE
1002
{
1002
}
  0
LINE
  5
17C43
330
747D
100
AcDbEntity
  8
破線
 48
10.0
100
AcDbLine
 10
11274.34510545912
 20
7814.694702477431
 30
0.0
 11
10581.84510545909
 21
7814.694702477372
 31
0.0
  0
LINE
  5
17C44
330
747D
100
AcDbEntity
  8
部品1
100
AcDbLine
 10
11354.34510545909
 20
7734.694702477435
 30
0.0
 11
10879.34510545912
 21
7734.694702477419
 31
0.0
  0
LINE
  5
17C45
330
747D
100
AcDbEntity
  8
部品1
100
AcDbLine
 10
8359.345105459086
 20
9524.694702477315
 30
0.0
 11
8359.345105459086
 21
9496.694702477315
 31
0.0
  0
LINE
  5
17C46
330
747D
100
AcDbEntity
  8
部品1
100
AcDbLine
 10
8359.345105459118
 20
9524.694702477347
 30
0.0
 11
8359.345105459118
 21
9496.694702477347
 31
0.0
  0
LINE
  5
17C47
330
747D
100
AcDbEntity
  8
部品1
100
AcDbLine
 10
8332.345105459086
 20
9469.694702477317
 30
0.0
 11
8304.345105459086
 21
9469.694702477317
 31
0.0
  0
DIMENSION
  5
17C48
330
747D
100
AcDbEntity
  8
寸法
100
AcDbDimension
  2
*D13
 10
8359.345105459118
 20
10024.69470247735
 30
0.0
 11
7995.859824084845
 21
10024.69470247735
 31
0.0
 70
   160
 71
     5
 42
55.00000000003274
  3
INABA_S40G
100
AcDbAlignedDimension
 13
8304.345105459086
 23
9524.694702477347
 33
0.0
 14
8359.345105459118
 24
9524.694702477347
 34
0.0
100
AcDbRotatedDimension
1001
ACAD
1000
DSTYLE
1002
{
1002
}
  0
LINE
  5
17C49
330
747D
100
AcDbEntity
  8
部品1
100
AcDbLine
 10
8332.345105459094
 20
9049.694702477317
 30
0.0
 11
8304.345105459093
 21
9049.694702477317
 31
0.0
  0
LINE
  5
17C4A
330
747D
100
AcDbEntity
  8
部品1
100
AcDbLine
 10
8332.345105459094
 20
8629.694702477319
 30
0.0
 11
8304.345105459093
 21
8629.694702477319
 31
0.0
  0
LINE
  5
17C4B
330
747D
100
AcDbEntity
  8
部品1
100
AcDbLine
 10
8332.345105459111
 20
9044.194702477318
 30
0.0
 11
8332.345105459118
 21
9496.694702477347
 31
0.0
  0
LINE
  5
17C4C
330
747D
100
AcDbEntity
  8
部品1
 48
50.0
100
AcDbLine
 10
8332.84510545905
 20
9494.694702477449
 30
0.0
 11
8332.84510545905
 21
9044.694702477453
 31
0.0
  0
LINE
  5
17C4D
330
747D
100
AcDbEntity
  8
部品1
100
AcDbLine
 10
8359.345105459089
 20
7734.694702477435
 30
0.0
 11
8359.345105459089
 21
7762.694702477435
 31
0.0
  0
LINE
  5
17C4E
330
747D
100
AcDbEntity
  8
部品1
 48
50.0
100
AcDbLine
 10
8360.845105459109
 20
7791.194702477409
 30
0.0
 11
8332.345105459111
 21
7762.694702477412
 31
0.0
  0
LINE
  5
17C4F
330
747D
100
AcDbEntity
  8
部品1
100
AcDbLine
 10
8304.345105459111
 20
7789.694702477267
 30
0.0
 11
8304.345105459113
 21
7734.69470247727
 31
0.0
  0
LINE
  5
17C50
330
747D
100
AcDbEntity
  8
部品1
100
AcDbLine
 10
8332.345105459095
 20
7789.694702477267
 30
0.0
 11
8304.345105459111
 21
7789.694702477267
 31
0.0
  0
LINE
  5
17C51
330
747D
100
AcDbEntity
  8
部品1
100
AcDbLine
 10
8332.345105459095
 20
7789.694702477304
 30
0.0
 11
8304.345105459111
 21
7789.694702477304
 31
0.0
  0
LINE
  5
17C52
330
747D
100
AcDbEntity
  8
部品1
100
AcDbLine
 10
8332.345105459111
 20
7789.694702477318
 30
0.0
 11
8304.345105459111
 21
7789.694702477318
 31
0.0
  0
LINE
  5
17C53
330
747D
100
AcDbEntity
  8
部品1
100
AcDbLine
 10
8360.845105459096
 20
9044.694702477395
 30
0.0
 11
8360.845105459109
 21
7791.194702477409
 31
0.0
  0
LINE
  5
17C54
330
747D
100
AcDbEntity
  8
部品1
100
AcDbLine
 10
8304.345105459086
 20
9524.694702477315
 30
0.0
 11
8304.345105459113
 21
7734.694702477303
 31
0.0
  0
LINE
  5
17C55
330
747D
100
AcDbEntity
  8
部品1
100
AcDbLine
 10
8332.345105459094
 20
7762.694702477394
 30
0.0
 11
8332.345105459111
 21
9049.694702477317
 31
0.0
  0
LINE
  5
17C56
330
747D
100
AcDbEntity
  8
破線
 48
10.0
100
AcDbLine
 10
8384.345105459095
 20
9044.694702477446
 30
0.0
 11
8384.345105459109
 21
7814.694702477314
 31
0.0
  0
LINE
  5
17C57
330
747D
100
AcDbEntity
  8
部品1
 48
50.0
100
AcDbLine
 10
8332.345105459115
 20
7762.694702477417
 30
0.0
 11
11326.34510545913
 21
7762.694702477419
 31
0.0
  0
LINE
  5
17C58
330
747D
100
AcDbEntity
  8
部品1
100
AcDbLine
 10
11297.8451054591
 20
8629.694702477417
 30
0.0
 11
8360.845105459103
 21
8629.694702477319
 31
0.0
  0
LINE
  5
17C5A
330
747D
100
AcDbEntity
  8
部品1
100
AcDbLine
 10
8304.345105459118
 20
9524.694702477347
 30
0.0
 11
11354.34510545912
 21
9524.694702477441
 31
0.0
  0
LINE
  5
17C5B
330
747D
100
AcDbEntity
  8
部品1
100
AcDbLine
 10
11297.84510545912
 20
7791.194702477435
 30
0.0
 11
8360.845105459013
 21
7791.194702477314
 31
0.0
  0
DIMENSION
  5
17C5C
330
747D
100
AcDbEntity
  8
寸法
100
AcDbDimension
  2
*D14
 10
11299.34510545912
 20
10024.69470247739
 30
0.0
 11
9829.345105459118
 21
10024.69470247739
 31
0.0
 70
   160
  1
7X420=<>
 71
     5
 42
2940.000000000002
  3
INABA_S40G
100
AcDbAlignedDimension
 13
8359.345105459118
 23
9524.694702477347
 33
0.0
 14
11299.34510545912
 24
9524.694702477441
 34
0.0
100
AcDbRotatedDimension
1001
ACAD
1000
DSTYLE
1002
{
1002
}
  0
DIMENSION
  5
17C5D
330
747D
100
AcDbEntity
  8
寸法
100
AcDbDimension
  2
*D15
 10
9744.915099140447
 20
8779.980315115004
 30
0.0
 11
8892.530656289833
 21
8779.980315115004
 31
0.0
 70
   160
 71
     5
 42
1483.000000000071
  3
INABA_S40G
100
AcDbAlignedDimension
 13
8332.845105459043
 23
9044.69470247746
 33
0.0
 14
9815.845105459114
 24
9044.694702477453
 34
0.0
100
AcDbRotatedDimension
1001
ACAD
1000
DSTYLE
1002
{
1002
}
  0
LINE
  5
17C5E
330
747D
100
AcDbEntity
  8
破線
 48
10.0
100
AcDbLine
 10
9076.845105459097
 20
7814.694702477304
 30
0.0
 11
8384.345105459106
 21
7814.694702477314
 31
0.0
  0
LINE
  5
17C5F
330
747D
100
AcDbEntity
  8
部品1
100
AcDbLine
 10
8779.345105459091
 20
7734.694702477303
 30
0.0
 11
8304.345105459113
 21
7734.694702477303
 31
0.0
  0
LINE
  5
17C60
330
747D
100
AcDbEntity
  8
部品1
100
AcDbLine
 10
8332.84510545905
 20
9044.694702477395
 30
0.0
 11
9815.845105459118
 21
9044.694702477453
 31
0.0
  0
LINE
  5
17C61
330
747D
100
AcDbEntity
  8
部品1
100
AcDbLine
 10
8332.84510545905
 20
9494.694702477394
 30
0.0
 11
9815.845105459118
 21
9494.694702477453
 31
0.0
  0
LINE
  5
17C62
330
747D
100
AcDbEntity
  8
部品1
100
AcDbLine
 10
8359.345105459118
 20
9496.694702477464
 30
0.0
 11
9816.845105459119
 21
9496.694702477464
 31
0.0
  0
LINE
  5
17C63
330
747D
100
AcDbEntity
  8
細線
 48
50.0
100
AcDbLine
 10
9815.845105459118
 20
9494.694702477449
 30
0.0
 11
8332.84510545905
 21
9044.694702477395
 31
0.0
  0
LINE
  5
17C64
330
747D
100
AcDbEntity
  8
細線
 48
50.0
100
AcDbLine
 10
9815.845105459118
 20
9044.694702477453
 30
0.0
 11
8332.84510545905
 21
9494.694702477394
 31
0.0
  0
LINE
  5
17C65
330
747D
100
AcDbEntity
  8
部品1
100
AcDbLine
 10
8332.345105459118
 20
9496.694702477347
 30
0.0
 11
9304.345105459118
 21
9496.69470247735
 31
0.0
  0
LINE
  5
17C69
330
747D
100
AcDbEntity
  8
部品1
 48
50.0
100
AcDbLine
 10
10456.34510545911
 20
2641.746374670296
 30
0.0
 11
10456.34510545911
 21
2541.746374670296
 31
0.0
  0
LINE
  5
17C6A
330
747D
100
AcDbEntity
  8
部品1
 48
50.0
100
AcDbLine
 10
10656.34510545911
 20
2641.746374670296
 30
0.0
 11
10656.34510545911
 21
2541.746374670296
 31
0.0
  0
LINE
  5
17C6B
330
747D
100
AcDbEntity
  8
部品1
100
AcDbLine
 10
11299.34510545911
 20
4481.746374670296
 30
0.0
 11
11299.34510545911
 21
2691.746374670316
 31
0.0
  0
LINE
  5
17C6C
330
747D
100
AcDbEntity
  8
部品1
100
AcDbLine
 10
10906.34510545911
 20
2691.746374670316
 30
0.0
 11
11354.34510545911
 21
2691.746374670316
 31
0.0
  0
LINE
  5
17C6D
330
747D
100
AcDbEntity
  8
破線
 48
5.0
100
AcDbLine
 10
11379.34510545911
 20
2386.746374670296
 30
0.0
 11
11359.34510545911
 21
2386.746374670296
 31
0.0
  0
LINE
  5
17C6E
330
747D
100
AcDbEntity
  8
破線
 48
5.0
100
AcDbLine
 10
11359.34510545911
 20
2541.746374670296
 30
0.0
 11
11359.34510545911
 21
2386.746374670296
 31
0.0
  0
LINE
  5
17C6F
330
747D
100
AcDbEntity
  8
部品1
100
AcDbLine
 10
11359.34510545911
 20
2686.746374670296
 30
0.0
 11
11359.34510545911
 21
2541.746374670296
 31
0.0
  0
LINE
  5
17C70
330
747D
100
AcDbEntity
  8
部品1
100
AcDbLine
 10
11354.34510545911
 20
4535.246374670296
 30
0.0
 11
11354.34510545911
 21
2541.746374670296
 31
0.0
  0
LINE
  5
17C71
330
747D
100
AcDbEntity
  8
部品1
100
AcDbLine
 10
10954.34510545911
 20
2641.746374670296
 30
0.0
 11
10954.34510545911
 21
2541.746374670296
 31
0.0
  0
LINE
  5
17C72
330
747D
100
AcDbEntity
  8
部品1
 48
50.0
100
AcDbLine
 10
9929.345105459111
 20
2641.746374670296
 30
0.0
 11
9929.345105459111
 21
2541.746374670296
 31
0.0
  0
LINE
  5
17C73
330
747D
100
AcDbEntity
  8
部品1
 48
50.0
100
AcDbLine
 10
9729.34510545911
 20
2641.746374670296
 30
0.0
 11
9729.34510545911
 21
2541.746374670296
 31
0.0
  0
LINE
  5
17C74
330
747D
100
AcDbEntity
  8
部品1
 48
50.0
100
AcDbLine
 10
9202.345105459109
 20
2641.746374670296
 30
0.0
 11
9202.345105459109
 21
2541.746374670296
 31
0.0
  0
LINE
  5
17C75
330
747D
100
AcDbEntity
  8
部品1
 48
50.0
100
AcDbLine
 10
9002.345105459109
 20
2641.746374670296
 30
0.0
 11
9002.345105459109
 21
2541.746374670296
 31
0.0
  0
LINE
  5
17C76
330
747D
100
AcDbEntity
  8
部品1
100
AcDbLine
 10
8304.345105459111
 20
2691.746374670316
 30
0.0
 11
8752.345105459111
 21
2691.746374670316
 31
0.0
  0
LINE
  5
17C77
330
747D
100
AcDbEntity
  8
部品1
100
AcDbLine
 10
8704.345105459109
 20
2641.746374670296
 30
0.0
 11
8704.345105459109
 21
2541.746374670296
 31
0.0
  0
LINE
  5
17C78
330
747D
100
AcDbEntity
  8
破線
 48
5.0
100
AcDbLine
 10
8279.34510545911
 20
2386.746374670296
 30
0.0
 11
8299.345105459112
 21
2386.746374670296
 31
0.0
  0
LINE
  5
17C7A
330
747D
100
AcDbEntity
  8
破線
 48
5.0
100
AcDbLine
 10
8299.345105459108
 20
2541.746374670296
 30
0.0
 11
8299.345105459108
 21
2386.746374670296
 31
0.0
  0
LINE
  5
17C7B
330
747D
100
AcDbEntity
  8
部品1
100
AcDbLine
 10
8299.345105459108
 20
2686.746374670298
 30
0.0
 11
8299.345105459108
 21
2541.746374670296
 31
0.0
  0
LINE
  5
17C7C
330
747D
100
AcDbEntity
  8
部品1
100
AcDbLine
 10
8304.345105459111
 20
4535.246374670296
 30
0.0
 11
8304.345105459111
 21
2541.746374670296
 31
0.0
  0
LINE
  5
17C7D
330
747D
100
AcDbEntity
  8
部品1
 48
50.0
100
AcDbLine
 10
8359.345105459111
 20
2691.746374670316
 30
0.0
 11
8359.345105459111
 21
4481.746374670296
 31
0.0
  0
LINE
  5
17C7E
330
747D
100
AcDbEntity
  8
部品1
100
AcDbLine
 10
8304.345105459111
 20
2641.746374670296
 30
0.0
 11
11354.34510545911
 21
2641.746374670296
 31
0.0
  0
LINE
  5
17C7F
330
747D
100
AcDbEntity
  8
部品1
100
AcDbLine
 10
8304.345105459111
 20
4481.746374670296
 30
0.0
 11
11354.34510545911
 21
4481.746374670296
 31
0.0
  0
LINE
  5
17C80
330
747D
100
AcDbEntity
  8
部品1
 48
50.0
100
AcDbLine
 10
8332.345105459111
 20
2641.746374670296
 30
0.0
 11
10906.34510545911
 21
2641.746374670296
 31
0.0
  0
LINE
  5
17C81
330
747D
100
AcDbEntity
  8
部品1
100
AcDbLine
 10
8304.345105459111
 20
4481.746374670296
 30
0.0
 11
11354.34510545911
 21
4481.746374670296
 31
0.0
  0
DIMENSION
  5
17C85
330
747D
100
AcDbEntity
  8
寸法
 48
50.0
100
AcDbDimension
  2
*D16
 10
8001.044045714714
 20
2699.746374670296
 30
0.0
 11
8001.044045714712
 21
3535.822301024993
 31
0.0
 70
   160
  1
有効開口部高サ<>
 71
     5
 42
1724.999999999999
  3
INABA_S40G
100
AcDbAlignedDimension
 13
8752.345105459111
 23
4424.746374670295
 33
0.0
 14
8752.345105459111
 24
2699.746374670296
 34
0.0
 50
90.0
100
AcDbRotatedDimension
  0
LINE
  5
17C86
330
747D
100
AcDbEntity
  8
部品1
100
AcDbLine
 10
10211.08043857333
 20
1852.708111692886
 30
0.0
 11
9447.609772344891
 21
1852.708111692886
 31
0.0
  0
LINE
  5
17C87
330
747D
100
AcDbEntity
  8
部品1
100
AcDbLine
 10
10211.08043857333
 20
1612.815790147353
 30
0.0
 11
10211.08043857333
 21
1852.708111692886
 31
0.0
  0
LINE
  5
17C88
330
747D
100
AcDbEntity
  8
部品1
100
AcDbLine
 10
9447.609772344891
 20
1612.815790147353
 30
0.0
 11
10211.08043857333
 21
1612.815790147353
 31
0.0
  0
LINE
  5
17C89
330
747D
100
AcDbEntity
  8
部品1
100
AcDbLine
 10
9447.609772344891
 20
1852.708111692886
 30
0.0
 11
9447.609772344891
 21
1612.815790147353
 31
0.0
  0
TEXT
  5
17C90
330
747D
100
AcDbEntity
  8
部品1
100
AcDbText
 10
9538.135176082844
 20
1659.814582474362
 30
0.0
 40
135.0
  1
正面図
  7
STYLE2
100
AcDbText
  0
LINE
  5
17C91
330
747D
100
AcDbEntity
  8
Ｇ．Ｌ
100
AcDbLine
 10
2440.060131758568
 20
2541.746374670296
 30
0.0
 11
11977.65765848795
 21
2541.746374670296
 31
0.0
  0
TEXT
  5
18303
330
747D
100
AcDbEntity
  8
部品1
100
AcDbText
 10
2507.3167177904
 20
2577.853278276198
 30
0.0
 40
125.0
  1
▽G.L
  7
STYLE2
100
AcDbText
  0
TEXT
  5
18304
330
747D
100
AcDbEntity
  8
部品1
100
AcDbText
 10
4990.595527670961
 20
1659.814582474362
 30
0.0
 40
135.0
  1
側面図
  7
STYLE2
100
AcDbText
  0
LINE
  5
18305
330
747D
100
AcDbEntity
  8
部品1
100
AcDbLine
 10
4901.149426247354
 20
1852.708111692886
 30
0.0
 11
4901.149426247354
 21
1612.815790147353
 31
0.0
  0
LINE
  5
18306
330
747D
100
AcDbEntity
  8
部品1
100
AcDbLine
 10
4901.149426247354
 20
1612.815790147353
 30
0.0
 11
5664.62009247579
 21
1612.815790147353
 31
0.0
  0
LINE
  5
18307
330
747D
100
AcDbEntity
  8
部品1
100
AcDbLine
 10
5664.62009247579
 20
1612.815790147353
 30
0.0
 11
5664.62009247579
 21
1852.708111692886
 31
0.0
  0
LINE
  5
18308
330
747D
100
AcDbEntity
  8
部品1
100
AcDbLine
 10
5664.62009247579
 20
1852.708111692886
 30
0.0
 11
4901.149426247354
 21
1852.708111692886
 31
0.0
  0
LINE
  5
18309
330
747D
100
AcDbEntity
  8
部品1
100
AcDbLine
 10
4387.884759361571
 20
4481.746374670296
 30
0.0
 11
6177.884759361572
 21
4481.746374670296
 31
0.0
  0
LINE
  5
1830A
330
747D
100
AcDbEntity
  8
部品1
100
AcDbLine
 10
4387.884759361571
 20
2691.746374670296
 30
0.0
 11
6177.884759361575
 21
2691.746374670296
 31
0.0
  0
LINE
  5
1830B
330
747D
100
AcDbEntity
  8
部品1
100
AcDbLine
 10
4387.884759361571
 20
2641.746374670296
 30
0.0
 11
4395.384759361571
 21
2641.746374670296
 31
0.0
  0
LINE
  5
1830C
330
747D
100
AcDbEntity
  8
部品1
100
AcDbLine
 10
4442.884759361572
 20
4481.746374670296
 30
0.0
 11
4442.884759361572
 21
2691.746374670296
 31
0.0
  0
LINE
  5
1830D
330
747D
100
AcDbEntity
  8
部品1
100
AcDbLine
 10
4387.884759361571
 20
4573.604894112544
 30
0.0
 11
4387.884759361571
 21
2541.746374670296
 31
0.0
  0
DIMENSION
  5
1830E
330
747D
100
AcDbEntity
  8
寸法
100
AcDbDimension
  2
*D17
 10
3764.232050203276
 20
2691.746374670296
 30
0.0
 11
3764.232050203275
 21
3582.200673212254
 31
0.0
 70
   160
 71
     5
 42
1790.0
  3
INABA_S40G
100
AcDbAlignedDimension
 13
4387.884759361571
 23
4481.746374670296
 33
0.0
 14
4387.884759361571
 24
2691.746374670296
 34
0.0
 50
90.0
100
AcDbRotatedDimension
1001
ACAD
1000
DSTYLE
1002
{
1070
   174
1070
     0
1070
   272
1070
     1
1070
   288
1070
     0
1070
   341
1005
0
1002
}
  0
DIMENSION
  5
1830F
330
747D
100
AcDbEntity
  8
寸法
100
AcDbDimension
  2
*D18
 10
3479.245377432214
 20
4716.746374670299
 30
0.0
 11
3479.245377432214
 21
3635.952252163406
 31
0.0
 70
   160
 71
     5
 42
2075.000000000004
  3
INABA_S40G
100
AcDbAlignedDimension
 13
4387.884759361571
 23
2641.746374670296
 33
0.0
 14
4327.884759361572
 24
4716.746374670299
 34
0.0
 50
90.0
100
AcDbRotatedDimension
1001
ACAD
1000
DSTYLE
1002
{
1070
   174
1070
     0
1070
   272
1070
     1
1070
   288
1070
     0
1070
   341
1005
0
1002
}
  0
DIMENSION
  5
18310
330
747D
100
AcDbEntity
  8
寸法
100
AcDbDimension
  2
*D19
 10
3479.245377432214
 20
2541.746374670296
 30
0.0
 11
3479.245377432214
 21
2305.699130575805
 31
0.0
 70
   160
 71
     5
 42
100.0
  3
INABA_S40G
100
AcDbAlignedDimension
 13
4332.884759361571
 23
2641.746374670296
 33
0.0
 14
3764.232050203275
 24
2541.746374670296
 34
0.0
 50
90.0
100
AcDbRotatedDimension
1001
ACAD
1000
DSTYLE
1002
{
1070
   174
1070
     0
1070
   272
1070
     1
1070
   288
1070
     0
1070
   341
1005
0
1002
}
  0
DIMENSION
  5
18311
330
747D
100
AcDbEntity
  8
寸法
100
AcDbDimension
  2
*D20
 10
3764.232050203276
 20
2641.746374670296
 30
0.0
 11
3764.232050203275
 21
2335.699130575805
 31
0.0
 70
   160
 71
     5
 42
50.0
  3
INABA_S40G
100
AcDbAlignedDimension
 13
4387.884759361571
 23
2691.746374670296
 33
0.0
 14
4332.884759361571
 24
2641.746374670296
 34
0.0
 50
90.0
100
AcDbRotatedDimension
1001
ACAD
1000
DSTYLE
1002
{
1070
   174
1070
     0
1070
   272
1070
     1
1070
   288
1070
     0
1070
   341
1005
0
1002
}
  0
LINE
  5
18312
330
747D
100
AcDbEntity
  8
部品1
100
AcDbLine
 10
4862.884759361572
 20
4481.746374670296
 30
0.0
 11
4862.884759361572
 21
2691.746374670296
 31
0.0
  0
LINE
  5
18313
330
747D
100
AcDbEntity
  8
部品1
100
AcDbLine
 10
6177.884759361572
 20
4536.628183356304
 30
0.0
 11
6177.884759361575
 21
2541.746374670296
 31
0.0
  0
LINE
  5
18314
330
747D
100
AcDbEntity
  8
部品1
100
AcDbLine
 10
6122.884759361575
 20
4481.746374670296
 30
0.0
 11
6122.884759361575
 21
2691.746374670296
 31
0.0
  0
DIMENSION
  5
18315
330
747D
100
AcDbEntity
  8
寸法
100
AcDbDimension
  2
*D21
 10
6790.054855124001
 20
4661.746374670296
 30
0.0
 11
6790.054855123999
 21
3624.002702099984
 31
0.0
 70
   160
 71
     5
 42
2020.000000000001
  3
INABA_S40G
100
AcDbAlignedDimension
 13
6254.884759361575
 23
2641.746374670296
 33
0.0
 14
6257.884759361572
 24
4661.746374670296
 34
0.0
 50
90.0
100
AcDbRotatedDimension
1001
ACAD
1000
DSTYLE
1002
{
1070
   174
1070
     0
1070
   272
1070
     1
1070
   288
1070
     0
1070
   341
1005
0
1002
}
  0
DIMENSION
  5
18316
330
747D
100
AcDbEntity
  8
寸法
 48
50.0
100
AcDbDimension
  2
*D22
 10
4387.884759361571
 20
5115.83954400977
 30
0.0
 11
5297.480408038053
 21
5115.83954400977
 31
0.0
 70
   160
  1
柱外寸法<>
 71
     5
 42
1790.0
  3
INABA_S40G
100
AcDbAlignedDimension
 13
6177.884759361572
 23
4663.557054281947
 33
0.0
 14
4387.884759361571
 24
4712.747992793272
 34
0.0
100
AcDbRotatedDimension
1001
ACAD
1000
DSTYLE
1002
{
1070
   174
1070
     0
1070
   272
1070
     1
1070
   288
1070
     0
1070
   341
1005
0
1002
}
  0
DIMENSION
  5
18317
330
747D
100
AcDbEntity
  8
寸法
 48
50.0
100
AcDbDimension
  2
*D23
 10
4327.884759361572
 20
5115.403828249601
 30
0.0
 11
4018.246964085981
 21
5115.403828249601
 31
0.0
 70
   160
 71
     5
 42
60.0
  3
INABA_S40G
100
AcDbAlignedDimension
 13
4387.884759361571
 23
4712.747992793272
 33
0.0
 14
4327.884759361572
 24
4716.746374670299
 34
0.0
100
AcDbRotatedDimension
1001
ACAD
1000
DSTYLE
1002
{
1070
   174
1070
     0
1070
   272
1070
     1
1070
   288
1070
     0
1070
   341
1005
0
1002
}
  0
DIMENSION
  5
18318
330
747D
100
AcDbEntity
  8
寸法
 48
50.0
100
AcDbDimension
  2
*D24
 10
4327.884759361572
 20
5332.365643628214
 30
0.0
 11
5233.690510612541
 21
5332.365643628214
 31
0.0
 70
   160
 71
     5
 42
1930.0
  3
INABA_S40G
100
AcDbAlignedDimension
 13
6257.884759361572
 23
4661.746374670296
 33
0.0
 14
4327.884759361572
 24
4716.746374670299
 34
0.0
100
AcDbRotatedDimension
1001
ACAD
1000
DSTYLE
1002
{
1070
   174
1070
     0
1070
   272
1070
     1
1070
   288
1070
     0
1070
   341
1005
0
1002
}
  0
LINE
  5
18319
330
747D
100
AcDbEntity
  8
破線
  6
HIDDEN
 48
5.0
100
AcDbLine
 10
6185.384759361571
 20
2386.746374670296
 30
0.0
 11
6115.384759361572
 21
2386.746374670296
 31
0.0
  0
LINE
  5
1831A
330
747D
100
AcDbEntity
  8
破線
  6
HIDDEN
 48
5.0
100
AcDbLine
 10
6130.384759361572
 20
2536.746374670296
 30
0.0
 11
6115.384759361572
 21
2389.046374670295
 31
0.0
  0
LINE
  5
1831B
330
747D
100
AcDbEntity
  8
破線
  6
HIDDEN
 48
5.0
100
AcDbLine
 10
6115.384759361572
 20
2389.046374670295
 30
0.0
 11
6115.384759361572
 21
2386.746374670296
 31
0.0
  0
LINE
  5
1831C
330
747D
100
AcDbEntity
  8
破線
  6
HIDDEN
 48
5.0
100
AcDbLine
 10
6170.384759361572
 20
2536.746374670296
 30
0.0
 11
6185.384759361571
 21
2389.046374670295
 31
0.0
  0
LINE
  5
1831D
330
747D
100
AcDbEntity
  8
破線
  6
HIDDEN
 48
5.0
100
AcDbLine
 10
6185.384759361571
 20
2389.046374670295
 30
0.0
 11
6185.384759361571
 21
2386.746374670296
 31
0.0
  0
LINE
  5
1831E
330
747D
100
AcDbEntity
  8
破線
  6
HIDDEN
 48
5.0
100
AcDbLine
 10
4380.384759361572
 20
2386.746374670296
 30
0.0
 11
4450.384759361571
 21
2386.746374670296
 31
0.0
  0
LINE
  5
1831F
330
747D
100
AcDbEntity
  8
破線
  6
HIDDEN
 48
5.0
100
AcDbLine
 10
4380.384759361572
 20
2389.046374670295
 30
0.0
 11
4380.384759361572
 21
2386.746374670296
 31
0.0
  0
LINE
  5
18320
330
747D
100
AcDbEntity
  8
破線
  6
HIDDEN
 48
5.0
100
AcDbLine
 10
4450.384759361571
 20
2389.046374670295
 30
0.0
 11
4450.384759361571
 21
2386.746374670296
 31
0.0
  0
LINE
  5
18321
330
747D
100
AcDbEntity
  8
破線
  6
HIDDEN
 48
5.0
100
AcDbLine
 10
4395.384759361571
 20
2536.746374670296
 30
0.0
 11
4380.384759361572
 21
2389.046374670295
 31
0.0
  0
LINE
  5
18322
330
747D
100
AcDbEntity
  8
破線
  6
HIDDEN
 48
5.0
100
AcDbLine
 10
4435.384759361571
 20
2536.746374670296
 30
0.0
 11
4450.384759361571
 21
2389.046374670295
 31
0.0
  0
LINE
  5
18323
330
747D
100
AcDbEntity
  8
部品1
 48
50.0
100
AcDbLine
 10
4395.384759361571
 20
2681.746374670296
 30
0.0
 11
4395.384759361571
 21
2541.746374670296
 31
0.0
  0
LINE
  5
18324
330
747D
100
AcDbEntity
  8
部品1
 48
50.0
100
AcDbLine
 10
4435.384759361571
 20
2681.746374670296
 30
0.0
 11
4435.384759361571
 21
2541.746374670296
 31
0.0
  0
LINE
  5
18325
330
747D
100
AcDbEntity
  8
部品1
100
AcDbLine
 10
4400.384759361571
 20
2686.746374670296
 30
0.0
 11
4430.384759361571
 21
2686.746374670296
 31
0.0
  0
ARC
  5
18326
330
747D
100
AcDbEntity
  8
部品1
 48
50.0
100
AcDbCircle
 10
4400.384759361571
 20
2681.746374670296
 30
0.0
 40
5.0
100
AcDbArc
 50
90.0
 51
180.0
  0
ARC
  5
18327
330
747D
100
AcDbEntity
  8
部品1
 48
50.0
100
AcDbCircle
 10
4430.384759361571
 20
2681.746374670296
 30
0.0
 40
5.0
100
AcDbArc
 50
0.0
 51
90.0
  0
LINE
  5
18328
330
747D
100
AcDbEntity
  8
部品1
 48
50.0
100
AcDbLine
 10
6130.384759361572
 20
2681.746374670296
 30
0.0
 11
6130.384759361572
 21
2541.746374670296
 31
0.0
  0
LINE
  5
18329
330
747D
100
AcDbEntity
  8
部品1
 48
50.0
100
AcDbLine
 10
6170.384759361572
 20
2681.746374670296
 30
0.0
 11
6170.384759361572
 21
2541.746374670296
 31
0.0
  0
LINE
  5
1832A
330
747D
100
AcDbEntity
  8
部品1
100
AcDbLine
 10
6165.384759361572
 20
2686.746374670296
 30
0.0
 11
6135.384759361572
 21
2686.746374670296
 31
0.0
  0
ARC
  5
1832B
330
747D
100
AcDbEntity
  8
部品1
 48
50.0
100
AcDbCircle
 10
6135.384759361572
 20
2681.746374670296
 30
0.0
 40
5.0
100
AcDbArc
 50
90.0
 51
180.0
  0
ARC
  5
1832C
330
747D
100
AcDbEntity
  8
部品1
 48
50.0
100
AcDbCircle
 10
6165.384759361572
 20
2681.746374670296
 30
0.0
 40
5.0
100
AcDbArc
 50
0.0
 51
90.0
  0
LINE
  5
1832D
330
747D
100
AcDbEntity
  8
破線
  6
HIDDEN
 48
5.0
100
AcDbLine
 10
6130.384759361572
 20
2541.746374670296
 30
0.0
 11
6130.384759361572
 21
2536.746374670296
 31
0.0
  0
LINE
  5
1832E
330
747D
100
AcDbEntity
  8
破線
  6
HIDDEN
 48
5.0
100
AcDbLine
 10
6170.384759361572
 20
2541.746374670296
 30
0.0
 11
6170.384759361572
 21
2536.746374670296
 31
0.0
  0
LINE
  5
1832F
330
747D
100
AcDbEntity
  8
破線
  6
HIDDEN
 48
5.0
100
AcDbLine
 10
4395.384759361578
 20
2541.746374670296
 30
0.0
 11
4395.384759361578
 21
2536.746374670296
 31
0.0
  0
LINE
  5
18330
330
747D
100
AcDbEntity
  8
破線
  6
HIDDEN
 48
5.0
100
AcDbLine
 10
4435.384759361571
 20
2541.746374670296
 30
0.0
 11
4435.384759361571
 21
2536.746374670296
 31
0.0
  0
LINE
  5
18331
330
747D
100
AcDbEntity
  8
部品1
100
AcDbLine
 10
6170.384759361572
 20
2641.746374670296
 30
0.0
 11
6177.884759361575
 21
2641.746374670296
 31
0.0
  0
LINE
  5
18332
330
747D
100
AcDbEntity
  8
部品1
100
AcDbLine
 10
4435.384759361571
 20
2641.746374670296
 30
0.0
 11
6130.384759361572
 21
2641.746374670296
 31
0.0
  0
LINE
  5
18333
330
747D
100
AcDbEntity
  8
細線
 48
50.0
100
AcDbLine
 10
4940.384759361572
 20
4481.746374670296
 30
0.0
 11
4940.384759361572
 21
2691.746374670296
 31
0.0
  0
LINE
  5
18334
330
747D
100
AcDbEntity
  8
細線
 48
50.0
100
AcDbLine
 10
4925.384759361572
 20
4481.746374670296
 30
0.0
 11
4925.384759361572
 21
2691.746374670296
 31
0.0
  0
LINE
  5
18335
330
747D
100
AcDbEntity
  8
細線
 48
50.0
100
AcDbLine
 10
5065.384759361572
 20
4481.746374670296
 30
0.0
 11
5065.384759361572
 21
2691.746374670296
 31
0.0
  0
LINE
  5
18336
330
747D
100
AcDbEntity
  8
細線
 48
50.0
100
AcDbLine
 10
5080.384759361572
 20
4481.746374670296
 30
0.0
 11
5080.384759361572
 21
2691.746374670296
 31
0.0
  0
LINE
  5
18337
330
747D
100
AcDbEntity
  8
細線
 48
50.0
100
AcDbLine
 10
5220.384759361571
 20
4481.746374670296
 30
0.0
 11
5220.384759361571
 21
2691.746374670296
 31
0.0
  0
LINE
  5
18338
330
747D
100
AcDbEntity
  8
細線
 48
50.0
100
AcDbLine
 10
5205.384759361572
 20
4481.746374670296
 30
0.0
 11
5205.384759361572
 21
2691.746374670296
 31
0.0
  0
LINE
  5
18339
330
747D
100
AcDbEntity
  8
細線
 48
50.0
100
AcDbLine
 10
4785.384759361572
 20
4481.746374670296
 30
0.0
 11
4785.384759361572
 21
2691.746374670296
 31
0.0
  0
LINE
  5
1833A
330
747D
100
AcDbEntity
  8
細線
 48
50.0
100
AcDbLine
 10
4800.384759361572
 20
4481.746374670296
 30
0.0
 11
4800.384759361572
 21
2691.746374670296
 31
0.0
  0
LINE
  5
1833B
330
747D
100
AcDbEntity
  8
細線
 48
50.0
100
AcDbLine
 10
4660.384759361572
 20
4481.746374670296
 30
0.0
 11
4660.384759361572
 21
2691.746374670296
 31
0.0
  0
LINE
  5
1833C
330
747D
100
AcDbEntity
  8
細線
 48
50.0
100
AcDbLine
 10
4645.384759361571
 20
4481.746374670296
 30
0.0
 11
4645.384759361571
 21
2691.746374670296
 31
0.0
  0
LINE
  5
1833D
330
747D
100
AcDbEntity
  8
細線
 48
50.0
100
AcDbLine
 10
4505.384759361572
 20
4481.746374670296
 30
0.0
 11
4505.384759361572
 21
2691.746374670296
 31
0.0
  0
LINE
  5
1833E
330
747D
100
AcDbEntity
  8
細線
 48
50.0
100
AcDbLine
 10
4520.384759361571
 20
4481.746374670296
 30
0.0
 11
4520.384759361571
 21
2691.746374670296
 31
0.0
  0
LINE
  5
1833F
330
747D
100
AcDbEntity
  8
部品1
100
AcDbLine
 10
4335.429745718534
 20
4715.464110004563
 30
0.0
 11
6250.496636223033
 21
4660.387172379436
 31
0.0
  0
LINE
  5
18340
330
747D
100
AcDbEntity
  8
部品1
100
AcDbLine
 10
4343.227323963525
 20
4574.527399739265
 30
0.0
 11
6232.548459901416
 21
4535.498974505059
 31
0.0
  0
LINE
  5
18341
330
747D
100
AcDbEntity
  8
細線
 48
50.0
100
AcDbLine
 10
4360.884759361572
 20
4714.1460510457
 30
0.0
 11
4355.595657806065
 21
4574.060418418347
 31
0.0
  0
LINE
  5
18342
330
747D
100
AcDbEntity
  8
細線
 48
50.0
100
AcDbLine
 10
6224.884759361572
 20
4661.713353705592
 30
0.0
 11
6220.137076473573
 21
4535.967581214848
 31
0.0
  0
LINE
  5
18343
330
747D
100
AcDbEntity
  8
部品1
 48
50.0
100
AcDbLine
 10
4328.069045274679
 20
4708.339920834987
 30
0.0
 11
4328.44930505249
 21
4688.412956388576
 31
0.0
  0
LINE
  5
18344
330
747D
100
AcDbEntity
  8
部品1
 48
50.0
100
AcDbLine
 10
4331.518077158736
 20
4684.837674895105
 30
0.0
 11
4333.2219786501
 21
4595.547178188459
 31
0.0
  0
LINE
  5
18345
330
747D
100
AcDbEntity
  8
細線
 48
50.0
100
AcDbLine
 10
4328.924182462386
 20
4687.763456511657
 30
0.0
 11
6254.560167207554
 21
4632.139251870831
 31
0.0
  0
LINE
  5
18346
330
747D
100
AcDbEntity
  8
細線
 48
50.0
100
AcDbLine
 10
4333.684657699672
 20
4594.901944813795
 30
0.0
 11
6243.688322130307
 21
4555.092625839301
 31
0.0
  0
LINE
  5
18347
330
747D
100
AcDbEntity
  8
部品1
 48
50.0
100
AcDbLine
 10
4336.290750756343
 20
4591.971896694988
 30
0.0
 11
4336.492703376774
 21
4581.388861301894
 31
0.0
  0
ARC
  5
18348
330
747D
100
AcDbEntity
  8
部品1
 48
50.0
100
AcDbCircle
 10
4335.067771103019
 20
4708.473475242415
 30
0.0
 40
7.0
100
AcDbArc
 50
87.03587545282958
 51
181.0932240292114
  0
ARC
  5
18349
330
747D
100
AcDbEntity
  8
部品1
 48
50.0
100
AcDbCircle
 10
4343.491429205115
 20
4581.522415709321
 30
0.0
 40
7.0
100
AcDbArc
 50
181.0932240292114
 51
267.8377559869492
  0
ARC
  5
1834A
330
747D
100
AcDbEntity
  8
部品1
100
AcDbCircle
 10
4333.291296829913
 20
4591.914659091802
 30
0.0
 40
3.0
100
AcDbArc
 50
1.093224029211435
 51
80.18775403148449
  0
ARC
  5
1834B
330
747D
100
AcDbEntity
  8
部品1
100
AcDbCircle
 10
4328.518623232307
 20
4684.780437291919
 30
0.0
 40
3.0
100
AcDbArc
 50
1.093224029211435
 51
80.18775403168987
  0
ARC
  5
1834C
330
747D
100
AcDbEntity
  8
部品1
100
AcDbCircle
 10
4329.149177635328
 20
4688.42631182932
 30
0.0
 40
0.7
100
AcDbArc
 50
181.0932240292114
 51
260.1877540314845
  0
ARC
  5
1834D
330
747D
100
AcDbEntity
  8
部品1
100
AcDbCircle
 10
4333.921851232939
 20
4595.560533629199
 30
0.0
 40
0.7
100
AcDbArc
 50
181.0932240292114
 51
260.1877540314845
  0
LINE
  5
1834E
330
747D
100
AcDbEntity
  8
部品1
 48
50.0
100
AcDbLine
 10
6257.098662172273
 20
4652.687526944515
 30
0.0
 11
6255.068040981303
 21
4632.742485686736
 31
0.0
  0
LINE
  5
1834F
330
747D
100
AcDbEntity
  8
部品1
 48
50.0
100
AcDbLine
 10
6251.715474496821
 20
4629.431851613826
 30
0.0
 11
6244.208695231984
 21
4555.699230868813
 31
0.0
  0
LINE
  5
18350
330
747D
100
AcDbEntity
  8
部品1
 48
50.0
100
AcDbLine
 10
6240.856128747498
 20
4552.388596795899
 30
0.0
 11
6239.776565707757
 21
4541.784979802342
 31
0.0
  0
ARC
  5
18351
330
747D
100
AcDbEntity
  8
部品1
 48
50.0
100
AcDbCircle
 10
6250.134661607518
 20
4653.396537617289
 30
0.0
 40
7.0
100
AcDbArc
 50
354.1866997665532
 51
87.03587545282958
  0
ARC
  5
18352
330
747D
100
AcDbEntity
  8
部品1
 48
50.0
100
AcDbCircle
 10
6232.812565143002
 20
4542.493990475115
 30
0.0
 40
7.0
100
AcDbArc
 50
267.8377559869492
 51
354.1866997665532
  0
ARC
  5
18353
330
747D
100
AcDbEntity
  8
部品1
100
AcDbCircle
 10
6243.840700418107
 20
4552.084735078999
 30
0.0
 40
3.0
100
AcDbArc
 50
95.09216976420788
 51
174.1866997665532
  0
ARC
  5
18354
330
747D
100
AcDbEntity
  8
部品1
100
AcDbCircle
 10
6254.700046167432
 20
4629.127989896922
 30
0.0
 40
3.0
100
AcDbArc
 50
95.09216976420788
 51
174.1866997665532
  0
ARC
  5
18355
330
747D
100
AcDbEntity
  8
部品1
100
AcDbCircle
 10
6254.37164092483
 20
4632.813386754013
 30
0.0
 40
0.7
100
AcDbArc
 50
275.0921697642079
 51
354.1866997665532
  0
ARC
  5
18356
330
747D
100
AcDbEntity
  8
部品1
100
AcDbCircle
 10
6243.512295175511
 20
4555.770131936089
 30
0.0
 40
0.7
100
AcDbArc
 50
275.0921697642079
 51
354.1866997667606
  0
DIMENSION
  5
18357
330
747D
100
AcDbEntity
  8
寸法
 48
50.0
100
AcDbDimension
  2
*D25
 10
6257.884759361572
 20
5115.403828249601
 30
0.0
 11
6463.932003456062
 21
5115.403828249601
 31
0.0
 70
   160
 71
     5
 42
80.0
  3
INABA_S40G
100
AcDbAlignedDimension
 13
6177.884759361572
 23
4663.557054281947
 33
0.0
 14
6257.884759361572
 24
4661.746374670296
 34
0.0
100
AcDbRotatedDimension
1001
ACAD
1000
DSTYLE
1002
{
1070
   174
1070
     0
1070
   272
1070
     1
1070
   288
1070
     0
1070
   341
1005
0
1002
}
  0
LINE
  5
18358
330
747D
100
AcDbEntity
  8
部品1
 48
50.0
100
AcDbLine
 10
5132.884759361572
 20
4847.614513771576
 30
0.0
 11
5432.884759361572
 21
4847.614513771576
 31
0.0
  0
LINE
  5
18359
330
747D
100
AcDbEntity
  8
部品1
 48
50.0
100
AcDbLine
 10
5432.884759361572
 20
4847.614513771576
 30
0.0
 11
5432.884759361572
 21
4831.414513771575
 31
0.0
  0
TEXT
  5
1835A
330
747D
100
AcDbEntity
  8
部品1
 48
50.0
100
AcDbText
 10
5121.152594585299
 20
4883.498535924009
 30
0.0
 40
120.0
  1
1000
  7
STYLE1
100
AcDbText
  0
TEXT
  5
1835B
330
747D
100
AcDbEntity
  8
部品1
 48
50.0
100
AcDbText
 10
5609.97760664943
 20
4745.997277705726
 30
0.0
 40
120.0
  1
54
 50
90.0
  7
STYLE1
100
AcDbText
  0
LINE
  5
1835C
330
747D
100
AcDbEntity
  8
部品1
100
AcDbLine
 10
5282.884759361571
 20
4481.746374670296
 30
0.0
 11
5282.884759361571
 21
2691.746374670296
 31
0.0
  0
LINE
  5
1835D
330
747D
100
AcDbEntity
  8
細線
 48
50.0
100
AcDbLine
 10
5625.384759361576
 20
4481.746374670296
 30
0.0
 11
5625.384759361576
 21
2691.746374670296
 31
0.0
  0
LINE
  5
1835E
330
747D
100
AcDbEntity
  8
細線
 48
50.0
100
AcDbLine
 10
5640.384759361576
 20
4481.746374670296
 30
0.0
 11
5640.384759361576
 21
2691.746374670296
 31
0.0
  0
LINE
  5
1835F
330
747D
100
AcDbEntity
  8
細線
 48
50.0
100
AcDbLine
 10
5500.384759361576
 20
4481.746374670296
 30
0.0
 11
5500.384759361576
 21
2691.746374670296
 31
0.0
  0
LINE
  5
18360
330
747D
100
AcDbEntity
  8
細線
 48
50.0
100
AcDbLine
 10
5485.384759361576
 20
4481.746374670296
 30
0.0
 11
5485.384759361576
 21
2691.746374670296
 31
0.0
  0
LINE
  5
18361
330
747D
100
AcDbEntity
  8
細線
 48
50.0
100
AcDbLine
 10
5345.384759361575
 20
4481.746374670296
 30
0.0
 11
5345.384759361575
 21
2691.746374670296
 31
0.0
  0
LINE
  5
18362
330
747D
100
AcDbEntity
  8
細線
 48
50.0
100
AcDbLine
 10
5360.384759361576
 20
4481.746374670296
 30
0.0
 11
5360.384759361576
 21
2691.746374670296
 31
0.0
  0
LINE
  5
18363
330
747D
100
AcDbEntity
  8
部品1
100
AcDbLine
 10
5702.884759361572
 20
4481.746374670296
 30
0.0
 11
5702.884759361572
 21
2691.746374670296
 31
0.0
  0
LINE
  5
18364
330
747D
100
AcDbEntity
  8
細線
 48
50.0
100
AcDbLine
 10
5780.384759361579
 20
4481.746374670296
 30
0.0
 11
5780.384759361579
 21
2691.746374670296
 31
0.0
  0
LINE
  5
18365
330
747D
100
AcDbEntity
  8
細線
 48
50.0
100
AcDbLine
 10
5765.384759361579
 20
4481.746374670296
 30
0.0
 11
5765.384759361579
 21
2691.746374670296
 31
0.0
  0
LINE
  5
18366
330
747D
100
AcDbEntity
  8
細線
 48
50.0
100
AcDbLine
 10
5905.384759361579
 20
4481.746374670296
 30
0.0
 11
5905.384759361579
 21
2691.746374670296
 31
0.0
  0
LINE
  5
18367
330
747D
100
AcDbEntity
  8
細線
 48
50.0
100
AcDbLine
 10
5920.384759361579
 20
4481.746374670296
 30
0.0
 11
5920.384759361579
 21
2691.746374670296
 31
0.0
  0
LINE
  5
18368
330
747D
100
AcDbEntity
  8
細線
 48
50.0
100
AcDbLine
 10
6060.384759361579
 20
4481.746374670296
 30
0.0
 11
6060.384759361579
 21
2691.746374670296
 31
0.0
  0
LINE
  5
18369
330
747D
100
AcDbEntity
  8
細線
 48
50.0
100
AcDbLine
 10
6045.384759361579
 20
4481.746374670296
 30
0.0
 11
6045.384759361579
 21
2691.746374670296
 31
0.0
  0
DIMENSION
  5
1836A
330
747D
100
AcDbEntity
  8
寸法
 48
50.0
100
AcDbDimension
  2
*D26
 10
3767.27635259321
 20
4591.091633543629
 30
0.0
 11
3777.941827852135
 21
4961.938296785326
 31
0.0
 70
   161
 71
     5
 42
140.9999999999982
  3
INABA_S40G
100
AcDbAlignedDimension
 13
4347.280779520152
 23
4715.469123504976
 33
0.0
 14
4343.227323963525
 24
4574.527399739265
 34
0.0
1001
ACAD
1000
DSTYLE
1002
{
1070
   174
1070
     0
1070
   272
1070
     1
1070
   288
1070
     0
1070
   341
1005
0
1002
}
  0
LINE
  5
1836B
330
747D
100
AcDbEntity
  8
部品1
 48
50.0
100
AcDbLine
 10
5132.884759361572
 20
4847.614513771576
 30
0.0
 11
5432.884759361572
 21
4831.414513771575
 31
0.0
  0
DIMENSION
  5
1836C
330
747D
100
AcDbEntity
  8
寸法
 48
50.0
100
AcDbDimension
  2
*D27
 10
4165.884756114938
 20
2541.746374670296
 30
0.0
 11
4165.884756114937
 21
2441.746374670297
 31
0.0
 70
   160
 71
     5
 42
200.0
  3
INABA_S40G
100
AcDbAlignedDimension
 13
4315.384759361576
 23
2341.746374670296
 33
0.0
 14
4290.384759361572
 24
2541.746374670296
 34
0.0
 50
90.0
100
AcDbRotatedDimension
1001
ACAD
1000
DSTYLE
1002
{
1070
   174
1070
     0
1070
   272
1070
     1
1070
   288
1070
     0
1070
   341
1005
0
1002
}
  0
LINE
  5
1836D
330
747D
100
AcDbEntity
  8
破線
 48
5.0
100
AcDbLine
 10
4515.384759361572
 20
2341.746374670294
 30
0.0
 11
4315.384759361576
 21
2341.746374670294
 31
0.0
  0
LINE
  5
1836E
330
747D
100
AcDbEntity
  8
破線
 48
5.0
100
AcDbLine
 10
4515.384759361572
 20
2541.746374670296
 30
0.0
 11
4515.384759361572
 21
2341.746374670294
 31
0.0
  0
LINE
  5
1836F
330
747D
100
AcDbEntity
  8
破線
 48
5.0
100
AcDbLine
 10
4315.384759361572
 20
2541.746374670296
 30
0.0
 11
4315.384759361576
 21
2341.746374670294
 31
0.0
  0
DIMENSION
  5
18370
330
747D
100
AcDbEntity
  8
寸法
 48
50.0
100
AcDbDimension
  2
*D28
 10
4315.384759361576
 20
2055.699045369918
 30
0.0
 11
4415.384759361574
 21
2055.699045369918
 31
0.0
 70
   160
 71
     5
 42
199.9999999999963
  3
INABA_S40G
100
AcDbAlignedDimension
 13
4515.384759361572
 23
2341.746374670293
 33
0.0
 14
4315.384759361576
 24
2341.746374670296
 34
0.0
100
AcDbRotatedDimension
  0
LINE
  5
18371
330
747D
100
AcDbEntity
  8
破線
 48
5.0
100
AcDbLine
 10
6250.38475936158
 20
2541.746374670296
 30
0.0
 11
6250.384759361576
 21
2341.746374670294
 31
0.0
  0
LINE
  5
18372
330
747D
100
AcDbEntity
  8
破線
 48
5.0
100
AcDbLine
 10
6250.384759361576
 20
2341.746374670294
 30
0.0
 11
6050.38475936158
 21
2341.746374670296
 31
0.0
  0
LINE
  5
18373
330
747D
100
AcDbEntity
  8
破線
 48
5.0
100
AcDbLine
 10
6050.38475936158
 20
2541.746374670296
 30
0.0
 11
6050.38475936158
 21
2341.746374670296
 31
0.0
  0
LINE
  5
18374
330
747D
100
AcDbEntity
  8
部品1
 48
50.0
100
AcDbLine
 10
6177.884759361575
 20
4476.746374670296
 30
0.0
 11
6254.884759361575
 21
4466.746374670296
 31
0.0
  0
LINE
  5
18375
330
747D
100
AcDbEntity
  8
部品1
 48
50.0
100
AcDbLine
 10
6254.884759361575
 20
4466.746374670296
 30
0.0
 11
6254.884759361575
 21
2541.746374670296
 31
0.0
  0
LINE
  5
18376
330
747D
100
AcDbEntity
  8
部品1
 48
50.0
100
AcDbLine
 10
6254.884759361575
 20
2641.746374670296
 30
0.0
 11
6170.384759361575
 21
2641.746374670296
 31
0.0
  0
LINE
  5
18377
330
747D
100
AcDbEntity
  8
部品1
100
AcDbLine
 10
5977.884759361572
 20
2641.746374670296
 30
0.0
 11
5977.884759361572
 21
2541.746374670296
 31
0.0
  0
LINE
  5
18378
330
747D
100
AcDbEntity
  8
部品1
 48
50.0
100
AcDbLine
 10
5382.884759361572
 20
2641.746374670296
 30
0.0
 11
5382.884759361572
 21
2541.746374670296
 31
0.0
  0
LINE
  5
18379
330
747D
100
AcDbEntity
  8
部品1
 48
50.0
100
AcDbLine
 10
5182.884759361572
 20
2641.746374670296
 30
0.0
 11
5182.884759361572
 21
2541.746374670296
 31
0.0
  0
LINE
  5
1837A
330
747D
100
AcDbEntity
  8
部品1
100
AcDbLine
 10
4587.884759361571
 20
2641.746374670296
 30
0.0
 11
4587.884759361571
 21
2541.746374670296
 31
0.0
  0
LINE
  5
18701
330
747D
100
AcDbEntity
  8
部品1
100
AcDbLine
 10
11297.8451054591
 20
8209.694702477417
 30
0.0
 11
8360.845105459103
 21
8209.694702477319
 31
0.0
  0
LINE
  5
18702
330
747D
100
AcDbEntity
  8
部品1
100
AcDbLine
 10
8332.345105459094
 20
8209.694702477319
 30
0.0
 11
8304.345105459093
 21
8209.694702477319
 31
0.0
  0
LINE
  5
18703
330
747D
100
AcDbEntity
  8
部品1
100
AcDbLine
 10
11326.34510545912
 20
8209.694702477445
 30
0.0
 11
11354.34510545912
 21
8209.694702477445
 31
0.0
  0
DIMENSION
  5
18E2C
330
747D
100
AcDbEntity
  8
寸法
 48
50.0
100
AcDbDimension
  2
*D29
 10
8204.345105459109
 20
2055.699045369918
 30
0.0
 11
8304.345105459111
 21
2055.699045369918
 31
0.0
 70
   160
 71
     5
 42
200.0000000000018
  3
INABA_S40G
100
AcDbAlignedDimension
 13
8404.345105459112
 23
2341.746374670296
 33
0.0
 14
8204.345105459109
 24
2341.746374670296
 34
0.0
100
AcDbRotatedDimension
  0
LINE
  5
18E2D
330
747D
100
AcDbEntity
  8
破線
 48
5.0
100
AcDbLine
 10
8204.345105459109
 20
2341.746374670296
 30
0.0
 11
8404.345105459112
 21
2341.746374670296
 31
0.0
  0
LINE
  5
18E2E
330
747D
100
AcDbEntity
  8
破線
 48
5.0
100
AcDbLine
 10
8204.345105459109
 20
2541.746374670296
 30
0.0
 11
8204.345105459109
 21
2341.746374670296
 31
0.0
  0
LINE
  5
18E2F
330
747D
100
AcDbEntity
  8
破線
 48
5.0
100
AcDbLine
 10
8404.34510545911
 20
2541.746374670296
 30
0.0
 11
8404.34510545911
 21
2341.746374670296
 31
0.0
  0
LINE
  5
18E45
330
747D
100
AcDbEntity
  8
破線
 48
5.0
100
AcDbLine
 10
11464.34510545911
 20
2541.746374670296
 30
0.0
 11
11464.34510545911
 21
2341.746374670296
 31
0.0
  0
LINE
  5
18E46
330
747D
100
AcDbEntity
  8
破線
 48
5.0
100
AcDbLine
 10
11264.34510545911
 20
2541.746374670296
 30
0.0
 11
11264.34510545911
 21
2341.746374670296
 31
0.0
  0
LINE
  5
18E47
330
747D
100
AcDbEntity
  8
破線
 48
5.0
100
AcDbLine
 10
11264.34510545911
 20
2341.746374670296
 30
0.0
 11
11464.34510545911
 21
2341.746374670296
 31
0.0
  0
LINE
  5
18F31
330
747D
100
AcDbEntity
  8
寸法
 48
50.0
100
AcDbLine
 10
9214.548111740933
 20
7512.731454046297
 30
0.0
 11
9163.142103830828
 21
7512.731454046297
 31
0.0
  0
LINE
  5
18F32
330
747D
100
AcDbEntity
  8
寸法
 48
50.0
100
AcDbLine
 10
9163.142103830828
 20
7512.731454046297
 30
0.0
 11
9163.142103830828
 21
7544.041612698464
 31
0.0
  0
LINE
  5
18F33
330
747D
100
AcDbEntity
  8
寸法
 48
50.0
100
AcDbLine
 10
9163.142103830828
 20
7544.041612698464
 30
0.0
 11
9133.380771839405
 21
7544.041612698464
 31
0.0
  0
LINE
  5
18F34
330
747D
100
AcDbEntity
  8
寸法
 48
50.0
100
AcDbLine
 10
9133.380771839405
 20
7544.041612698464
 30
0.0
 11
9188.84510778588
 21
7581.621063627074
 31
0.0
  0
LINE
  5
18F35
330
747D
100
AcDbEntity
  8
寸法
 48
50.0
100
AcDbLine
 10
9244.309443732356
 20
7544.041612698464
 30
0.0
 11
9188.84510778588
 21
7581.621063627074
 31
0.0
  0
LINE
  5
18F36
330
747D
100
AcDbEntity
  8
寸法
 48
50.0
100
AcDbLine
 10
9214.548111740933
 20
7544.041612698464
 30
0.0
 11
9244.309443732356
 21
7544.041612698464
 31
0.0
  0
LINE
  5
18F37
330
747D
100
AcDbEntity
  8
寸法
 48
50.0
100
AcDbLine
 10
9214.548111740933
 20
7512.731454046297
 30
0.0
 11
9214.548111740933
 21
7544.041612698464
 31
0.0
  0
LINE
  5
18F38
330
747D
100
AcDbEntity
  8
寸法
 48
50.0
100
AcDbLine
 10
9163.142103830828
 20
7512.731454046297
 30
0.0
 11
9214.548111740933
 21
7512.731454046297
 31
0.0
  0
LINE
  5
18F39
330
747D
100
AcDbEntity
  8
寸法
 48
50.0
100
AcDbLine
 10
9493.713646017789
 20
7569.877044801121
 30
0.0
 11
9493.713646017789
 21
7516.21341021933
 31
0.0
  0
LINE
  5
18F3A
330
747D
100
AcDbEntity
  8
寸法
 48
50.0
100
AcDbLine
 10
9582.997864613211
 20
7545.953410531635
 30
0.0
 11
9493.713646017789
 21
7569.877044801121
 31
0.0
  0
LINE
  5
18F3B
330
747D
100
AcDbEntity
  8
寸法
 48
50.0
100
AcDbLine
 10
9363.845924437486
 20
7545.953410531635
 30
0.0
 11
9582.997864613211
 21
7545.953410531635
 31
0.0
  0
LINE
  5
18F3C
330
747D
100
AcDbEntity
  8
細線
 48
50.0
100
AcDbLine
 10
10240.34510545909
 20
7711.19481742616
 30
0.0
 11
10867.34510545908
 21
7711.19481742616
 31
0.0
  0
LINE
  5
18F3D
330
747D
100
AcDbEntity
  8
細線
 48
50.0
100
AcDbLine
 10
9586.345110112677
 20
7677.486048872085
 30
0.0
 11
10867.34510545908
 21
7677.486048872085
 31
0.0
  0
LINE
  5
18F3E
330
747D
100
AcDbEntity
  8
細線
 48
50.0
100
AcDbLine
 10
9545.345110112682
 20
7706.890956868338
 30
0.0
 11
8791.345105459088
 21
7706.890956868334
 31
0.0
  0
LINE
  5
18F3F
330
747D
100
AcDbEntity
  8
細線
100
AcDbLine
 10
10643.09509604263
 20
7730.694717391168
 30
0.0
 11
10645.42663556444
 21
7735.69472003113
 31
0.0
  0
LINE
  5
18F40
330
747D
100
AcDbEntity
  8
細線
100
AcDbLine
 10
10713.09510545908
 20
7730.694702477435
 30
0.0
 11
10710.7635589829
 21
7735.694720031116
 31
0.0
  0
LINE
  5
18F41
330
747D
100
AcDbEntity
  8
細線
100
AcDbLine
 10
10710.7635589829
 20
7735.694720031116
 30
0.0
 11
10645.42663556442
 21
7735.694720031101
 31
0.0
  0
LINE
  5
18F42
330
747D
100
AcDbEntity
  8
細線
100
AcDbLine
 10
10570.7635589829
 20
7735.694720031116
 30
0.0
 11
10505.42663556442
 21
7735.694720031101
 31
0.0
  0
LINE
  5
18F43
330
747D
100
AcDbEntity
  8
細線
100
AcDbLine
 10
10573.09510545909
 20
7730.694702477435
 30
0.0
 11
10570.7635589829
 21
7735.694720031116
 31
0.0
  0
LINE
  5
18F44
330
747D
100
AcDbEntity
  8
細線
100
AcDbLine
 10
10503.09509604263
 20
7730.694717391168
 30
0.0
 11
10505.42663556444
 21
7735.69472003113
 31
0.0
  0
LINE
  5
18F45
330
747D
100
AcDbEntity
  8
細線
100
AcDbLine
 10
10363.09510545909
 20
7730.694702477435
 30
0.0
 11
10365.4266449809
 21
7735.694705117396
 31
0.0
  0
LINE
  5
18F46
330
747D
100
AcDbEntity
  8
細線
100
AcDbLine
 10
10433.09511487555
 20
7730.694687563701
 30
0.0
 11
10430.76356839935
 21
7735.694705117381
 31
0.0
  0
LINE
  5
18F47
330
747D
100
AcDbEntity
  8
細線
100
AcDbLine
 10
10430.76356839936
 20
7735.694705117381
 30
0.0
 11
10365.42664498088
 21
7735.694705117366
 31
0.0
  0
LINE
  5
18F48
330
747D
100
AcDbEntity
  8
細線
100
AcDbLine
 10
10135.51358964819
 20
7701.694741814764
 30
0.0
 11
10070.17666622972
 21
7701.694741814748
 31
0.0
  0
LINE
  5
18F49
330
747D
100
AcDbEntity
  8
細線
100
AcDbLine
 10
10137.84513612438
 20
7696.694724261083
 30
0.0
 11
10135.51358964819
 21
7701.694741814764
 31
0.0
  0
LINE
  5
18F4A
330
747D
100
AcDbEntity
  8
細線
100
AcDbLine
 10
10067.84512670792
 20
7696.694739174816
 30
0.0
 11
10070.17666622973
 21
7701.694741814778
 31
0.0
  0
LINE
  5
18F4B
330
747D
100
AcDbEntity
  8
細線
 48
50.0
100
AcDbLine
 10
9909.228484707103
 20
7714.965565630516
 30
0.0
 11
9914.98400228977
 21
7696.694714340029
 31
0.0
  0
LINE
  5
18F4C
330
747D
100
AcDbEntity
  8
細線
 48
50.0
100
AcDbLine
 10
9898.300036226672
 20
7714.965565630516
 30
0.0
 11
9909.228484707103
 21
7714.965565630516
 31
0.0
  0
ARC
  5
18F4D
330
747D
100
AcDbEntity
  8
細線
 48
50.0
100
AcDbCircle
 10
9892.845680169351
 20
7716.465565630516
 30
0.0
 40
5.0
100
AcDbArc
 50
204.6243183521304
 51
335.3756816478695
  0
ARC
  5
18F4E
330
747D
100
AcDbEntity
  8
細線
 48
50.0
100
AcDbCircle
 10
9898.300036226672
 20
7713.965565630515
 30
0.0
 40
1.0
100
AcDbArc
 50
90.0
 51
155.3756816478695
  0
ARC
  5
18F4F
330
747D
100
AcDbEntity
  8
細線
 48
50.0
100
AcDbCircle
 10
9887.391324112037
 20
7713.965565630515
 30
0.0
 40
1.0
100
AcDbArc
 50
24.62431835213048
 51
90.0
  0
LINE
  5
18F50
330
747D
100
AcDbEntity
  8
細線
 48
50.0
100
AcDbLine
 10
9876.462875631602
 20
7714.965565630516
 30
0.0
 11
9887.391324112037
 21
7714.965565630516
 31
0.0
  0
LINE
  5
18F51
330
747D
100
AcDbEntity
  8
細線
 48
50.0
100
AcDbLine
 10
9870.707358048935
 20
7696.694714340022
 30
0.0
 11
9876.462875631602
 21
7714.965565630516
 31
0.0
  0
LINE
  5
18F52
330
747D
100
AcDbEntity
  8
細線
100
AcDbLine
 10
9927.845127938967
 20
7696.694711705825
 30
0.0
 11
9930.176667460779
 21
7701.694714345787
 31
0.0
  0
LINE
  5
18F53
330
747D
100
AcDbEntity
  8
細線
100
AcDbLine
 10
9997.845137355428
 20
7696.694696792092
 30
0.0
 11
9995.513590879237
 21
7701.694714345773
 31
0.0
  0
LINE
  5
18F54
330
747D
100
AcDbEntity
  8
細線
100
AcDbLine
 10
9995.513590879237
 20
7701.694714345773
 30
0.0
 11
9930.176667460765
 21
7701.694714345757
 31
0.0
  0
LINE
  5
18F55
330
747D
100
AcDbEntity
  8
細線
100
AcDbLine
 10
9855.513562514721
 20
7701.694714339992
 30
0.0
 11
9790.176639096245
 21
7701.694714339978
 31
0.0
  0
LINE
  5
18F56
330
747D
100
AcDbEntity
  8
細線
100
AcDbLine
 10
9857.845108990908
 20
7696.694696786311
 30
0.0
 11
9855.513562514721
 21
7701.694714339992
 31
0.0
  0
LINE
  5
18F57
330
747D
100
AcDbEntity
  8
細線
100
AcDbLine
 10
9787.84510080549
 20
7696.694714340022
 30
0.0
 11
9790.176639096259
 21
7701.694714340007
 31
0.0
  0
LINE
  5
18F58
330
747D
100
AcDbEntity
  8
細線
100
AcDbLine
 10
9647.845136124383
 20
7696.694722527391
 30
0.0
 11
9650.176674415149
 21
7701.694722527377
 31
0.0
  0
LINE
  5
18F59
330
747D
100
AcDbEntity
  8
細線
100
AcDbLine
 10
9717.845144309798
 20
7696.694704973682
 30
0.0
 11
9715.513597833613
 21
7701.694722527358
 31
0.0
  0
LINE
  5
18F5A
330
747D
100
AcDbEntity
  8
細線
100
AcDbLine
 10
9715.513597833613
 20
7701.694722527358
 30
0.0
 11
9650.176674415135
 21
7701.694722527347
 31
0.0
  0
LINE
  5
18F5B
330
747D
100
AcDbEntity
  8
細線
100
AcDbLine
 10
9276.345101927262
 20
7662.694894208105
 30
0.0
 11
9278.676640218028
 21
7667.694894208089
 31
0.0
  0
LINE
  5
18F5C
330
747D
100
AcDbEntity
  8
細線
100
AcDbLine
 10
9346.345110112677
 20
7662.69487665439
 30
0.0
 11
9344.01356363649
 21
7667.694894208067
 31
0.0
  0
LINE
  5
18F5D
330
747D
100
AcDbEntity
  8
細線
100
AcDbLine
 10
9344.01356363649
 20
7667.694894208067
 30
0.0
 11
9278.676640218019
 21
7667.69489420806
 31
0.0
  0
LINE
  5
18F5E
330
747D
100
AcDbEntity
  8
細線
100
AcDbLine
 10
9484.013563636491
 20
7667.694894208067
 30
0.0
 11
9418.676640218018
 21
7667.69489420806
 31
0.0
  0
LINE
  5
18F5F
330
747D
100
AcDbEntity
  8
細線
100
AcDbLine
 10
9486.345110112678
 20
7662.69487665439
 30
0.0
 11
9484.013563636491
 21
7667.694894208067
 31
0.0
  0
LINE
  5
18F60
330
747D
100
AcDbEntity
  8
細線
100
AcDbLine
 10
9416.345101927261
 20
7662.694894208105
 30
0.0
 11
9418.676640218029
 21
7667.694894208089
 31
0.0
  0
LINE
  5
18F61
330
747D
100
AcDbEntity
  8
細線
100
AcDbLine
 10
9204.013563636491
 20
7667.694894208067
 30
0.0
 11
9138.676640218019
 21
7667.694894208056
 31
0.0
  0
LINE
  5
18F62
330
747D
100
AcDbEntity
  8
細線
100
AcDbLine
 10
9206.345110112676
 20
7662.69487665439
 30
0.0
 11
9204.013563636491
 21
7667.694894208067
 31
0.0
  0
LINE
  5
18F63
330
747D
100
AcDbEntity
  8
細線
100
AcDbLine
 10
9136.345101927261
 20
7662.6948942081
 30
0.0
 11
9138.676640218029
 21
7667.694894208086
 31
0.0
  0
LINE
  5
18F64
330
747D
100
AcDbEntity
  8
細線
100
AcDbLine
 10
8996.345110112677
 20
7662.694894208105
 30
0.0
 11
8998.676648403444
 21
7667.694894208089
 31
0.0
  0
LINE
  5
18F65
330
747D
100
AcDbEntity
  8
細線
100
AcDbLine
 10
9066.345118298093
 20
7662.69487665439
 30
0.0
 11
9064.013571821908
 21
7667.694894208067
 31
0.0
  0
LINE
  5
18F66
330
747D
100
AcDbEntity
  8
細線
100
AcDbLine
 10
9064.013571821908
 20
7667.694894208067
 30
0.0
 11
8998.676648403435
 21
7667.69489420806
 31
0.0
  0
ARC
  5
18F67
330
747D
100
AcDbEntity
  8
部品1
 48
0.01
100
AcDbCircle
 10
8951.844998860343
 20
7661.693772023031
 30
0.0
 40
0.5
100
AcDbArc
 50
270.0
 51
0.0
  0
LINE
  5
18F68
330
747D
100
AcDbEntity
  8
部品1
 48
0.01
100
AcDbLine
 10
8952.344998860343
 20
7662.693772023032
 30
0.0
 11
8952.344998860343
 21
7661.693772023031
 31
0.0
  0
LINE
  5
18F69
330
747D
100
AcDbEntity
  8
部品1
 48
0.01
100
AcDbLine
 10
8952.344998860343
 20
7662.693772023032
 30
0.0
 11
8952.344998860343
 21
7661.693772023031
 31
0.0
  0
LINE
  5
18F6A
330
747D
100
AcDbEntity
  8
部品1
 48
0.01
100
AcDbLine
 10
8951.844998860343
 20
7661.193772023032
 30
0.0
 11
8945.232493430278
 21
7661.193772023032
 31
0.0
  0
ARC
  5
18F6B
330
747D
100
AcDbEntity
  8
部品1
100
AcDbCircle
 10
8945.300842983058
 20
7662.19377202303
 30
0.0
 40
1.0
100
AcDbArc
 50
160.5287793655778
 51
270.0
  0
ARC
  5
18F6C
330
747D
100
AcDbEntity
  8
部品1
100
AcDbCircle
 10
8919.844998860343
 20
7671.19377202303
 30
0.0
 40
26.0
100
AcDbArc
 50
340.5287793655779
 51
0.0
  0
LINE
  5
18F6D
330
747D
100
AcDbEntity
  8
部品1
100
AcDbLine
 10
8945.844998860343
 20
7671.19377202303
 30
0.0
 11
8945.844998860343
 21
7676.19377202303
 31
0.0
  0
ARC
  5
18F6E
330
747D
100
AcDbEntity
  8
部品1
 48
0.01
100
AcDbCircle
 10
8943.844998860342
 20
7676.19377202303
 30
0.0
 40
2.0
100
AcDbArc
 50
0.0
 51
90.0
  0
ARC
  5
18F6F
330
747D
100
AcDbEntity
  8
部品1
100
AcDbCircle
 10
8942.236607235534
 20
7675.193772023032
 30
0.0
 40
3.0
100
AcDbArc
 50
90.0
 51
141.6069559807873
  0
LINE
  5
18F70
330
747D
100
AcDbEntity
  8
部品1
 48
0.01
100
AcDbLine
 10
8943.844998860342
 20
7678.19377202303
 30
0.0
 11
8942.236607235534
 21
7678.19377202303
 31
0.0
  0
ARC
  5
18F71
330
747D
100
AcDbEntity
  8
部品1
100
AcDbCircle
 10
8923.774284646071
 20
7674.493772023033
 30
0.0
 40
3.0
100
AcDbArc
 50
254.0576313943215
 51
270.0
  0
ARC
  5
18F72
330
747D
100
AcDbEntity
  8
部品1
100
AcDbCircle
 10
8930.915713074613
 20
7674.493772023033
 30
0.0
 40
3.0
100
AcDbArc
 50
270.0
 51
285.9423686056786
  0
LINE
  5
18F73
330
747D
100
AcDbEntity
  8
部品1
100
AcDbLine
 10
8930.915713074613
 20
7671.493772023033
 30
0.0
 11
8923.774284646071
 21
7671.493772023033
 31
0.0
  0
ARC
  5
18F74
330
747D
100
AcDbEntity
  8
部品1
100
AcDbCircle
 10
8927.344998860343
 20
7686.993772023034
 30
0.0
 40
16.0
100
AcDbArc
 50
285.9423686056786
 51
321.6069559807873
  0
LINE
  5
18F75
330
747D
100
AcDbEntity
  8
部品1
 48
0.01
100
AcDbLine
 10
8910.844998860342
 20
7678.19377202303
 30
0.0
 11
8912.453390485152
 21
7678.19377202303
 31
0.0
  0
ARC
  5
18F76
330
747D
100
AcDbEntity
  8
部品1
100
AcDbCircle
 10
8912.453390485152
 20
7675.193772023032
 30
0.0
 40
3.0
100
AcDbArc
 50
38.39304401921267
 51
90.0
  0
ARC
  5
18F77
330
747D
100
AcDbEntity
  8
部品1
100
AcDbCircle
 10
8927.344998860343
 20
7686.993772023034
 30
0.0
 40
16.0
100
AcDbArc
 50
218.3930440192126
 51
254.0576313943215
  0
LINE
  5
18F78
330
747D
100
AcDbEntity
  8
部品1
100
AcDbLine
 10
8908.844998860343
 20
7671.19377202303
 30
0.0
 11
8908.844998860343
 21
7676.19377202303
 31
0.0
  0
ARC
  5
18F79
330
747D
100
AcDbEntity
  8
部品1
 48
0.01
100
AcDbCircle
 10
8910.844998860342
 20
7676.19377202303
 30
0.0
 40
2.0
100
AcDbArc
 50
90.0
 51
180.0
  0
ARC
  5
18F7A
330
747D
100
AcDbEntity
  8
部品1
100
AcDbCircle
 10
8934.844998860342
 20
7671.19377202303
 30
0.0
 40
26.0
100
AcDbArc
 50
180.0
 51
199.4712206344221
  0
ARC
  5
18F7B
330
747D
100
AcDbEntity
  8
部品1
 48
0.01
100
AcDbCircle
 10
8902.844998860343
 20
7661.693772023031
 30
0.0
 40
0.5
100
AcDbArc
 50
180.0
 51
270.0
  0
LINE
  5
18F7C
330
747D
100
AcDbEntity
  8
部品1
 48
0.01
100
AcDbLine
 10
8902.844998860343
 20
7661.193772023032
 30
0.0
 11
8909.389154737626
 21
7661.193772023032
 31
0.0
  0
LINE
  5
18F7D
330
747D
100
AcDbEntity
  8
部品1
 48
0.01
100
AcDbLine
 10
8902.344998860343
 20
7662.693772023032
 30
0.0
 11
8902.344998860343
 21
7661.693772023031
 31
0.0
  0
ARC
  5
18F7E
330
747D
100
AcDbEntity
  8
部品1
100
AcDbCircle
 10
8909.389154737626
 20
7662.19377202303
 30
0.0
 40
1.0
100
AcDbArc
 50
270.0
 51
19.47122063442214
  0
LINE
  5
18F7F
330
747D
100
AcDbEntity
  8
細線
100
AcDbLine
 10
8947.84499886035
 20
7680.693772023035
 30
0.0
 11
8906.84499886035
 21
7680.693772023026
 31
0.0
  0
LINE
  5
18F80
330
747D
100
AcDbEntity
  8
細線
100
AcDbLine
 10
8906.84499886035
 20
7680.693772023026
 30
0.0
 11
8906.84499886035
 21
7662.693772023009
 31
0.0
  0
LINE
  5
18F81
330
747D
100
AcDbEntity
  8
細線
100
AcDbLine
 10
8947.84499886035
 20
7680.693772023035
 30
0.0
 11
8947.84499886035
 21
7662.693772023009
 31
0.0
  0
LINE
  5
18F82
330
747D
100
AcDbEntity
  8
細線
100
AcDbLine
 10
8791.345105459088
 20
7666.694702477435
 30
0.0
 11
8791.345105459088
 21
7662.694702477482
 31
0.0
  0
DIMENSION
  5
18F83
330
747D
100
AcDbEntity
  8
寸法
 48
50.0
100
AcDbDimension
  2
*D30
 10
10057.34510545909
 20
7027.792881344372
 30
0.0
 11
9436.091191438944
 21
7027.792881344372
 31
0.0
 70
   160
  1
有効開口部間口\P<>
 71
     5
 42
1266.0
  3
INABA_S40
100
AcDbAlignedDimension
 13
8791.345105459088
 23
7657.694702477434
 33
0.0
 14
10057.34510545909
 24
7657.694702477434
 34
0.0
100
AcDbRotatedDimension
1001
ACAD
1000
DSTYLE
1002
{
1070
    41
1040
0.5
1070
    44
1040
1.0
1070
   147
1040
0.8
1070
   271
1070
     2
1070
   272
1070
     2
1070
   289
1070
     3
1070
   340
1005
F706
1070
   343
1005
17560
1070
   344
1005
17560
1002
}
  0
LINE
  5
18F84
330
747D
100
AcDbEntity
  8
部品1
100
AcDbLine
 10
10879.34510545909
 20
7734.694702477435
 30
0.0
 11
10906.34510545908
 21
7734.694702477435
 31
0.0
  0
LINE
  5
18F86
330
747D
100
AcDbEntity
  8
部品1
100
AcDbLine
 10
10906.34510545908
 20
7657.694702477434
 30
0.0
 11
10906.34510545908
 21
7734.694702477435
 31
0.0
  0
LINE
  5
18F87
330
747D
100
AcDbEntity
  8
部品1
100
AcDbLine
 10
10867.34510545908
 20
7730.694702477435
 30
0.0
 11
10879.34510545909
 21
7730.694702477435
 31
0.0
  0
LINE
  5
18F88
330
747D
100
AcDbEntity
  8
部品1
100
AcDbLine
 10
10876.34510545909
 20
7666.694702477435
 30
0.0
 11
10876.34510545909
 21
7657.694702477434
 31
0.0
  0
LINE
  5
18F89
330
747D
100
AcDbEntity
  8
部品1
100
AcDbLine
 10
10867.34510545908
 20
7666.694702477435
 30
0.0
 11
10876.34510545909
 21
7666.694702477435
 31
0.0
  0
LINE
  5
18F8A
330
747D
100
AcDbEntity
  8
部品1
100
AcDbLine
 10
10867.34510545908
 20
7730.694702477435
 30
0.0
 11
10867.34510545908
 21
7666.694702477435
 31
0.0
  0
LINE
  5
18F8B
330
747D
100
AcDbEntity
  8
部品1
100
AcDbLine
 10
10879.34510545909
 20
7761.694702477434
 30
0.0
 11
10879.34510545909
 21
7730.694702477435
 31
0.0
  0
LINE
  5
18F8C
330
747D
100
AcDbEntity
  8
部品1
100
AcDbLine
 10
8791.345105459088
 20
7730.694702477435
 30
0.0
 11
8779.345105459087
 21
7730.694702477435
 31
0.0
  0
LINE
  5
18F8D
330
747D
100
AcDbEntity
  8
部品1
100
AcDbLine
 10
8752.345105459088
 20
7734.694702477435
 30
0.0
 11
8779.345105459087
 21
7734.694702477435
 31
0.0
  0
LINE
  5
18F8E
330
747D
100
AcDbEntity
  8
部品1
100
AcDbLine
 10
8782.345105459087
 20
7666.694702477435
 30
0.0
 11
8782.345105459087
 21
7657.694702477434
 31
0.0
  0
LINE
  5
18F8F
330
747D
100
AcDbEntity
  8
部品1
100
AcDbLine
 10
8791.345105459088
 20
7666.694702477435
 30
0.0
 11
8782.345105459087
 21
7666.694702477435
 31
0.0
  0
LINE
  5
18F90
330
747D
100
AcDbEntity
  8
部品1
100
AcDbLine
 10
8782.345105459087
 20
7657.694702477434
 30
0.0
 11
8752.345105459088
 21
7657.694702477434
 31
0.0
  0
LINE
  5
18F91
330
747D
100
AcDbEntity
  8
部品1
100
AcDbLine
 10
8752.345105459088
 20
7657.694702477434
 30
0.0
 11
8752.345105459088
 21
7734.694702477435
 31
0.0
  0
LINE
  5
18F92
330
747D
100
AcDbEntity
  8
部品1
100
AcDbLine
 10
8791.345105459088
 20
7730.694702477435
 30
0.0
 11
8791.345105459088
 21
7666.694702477435
 31
0.0
  0
LINE
  5
18F93
330
747D
100
AcDbEntity
  8
部品1
100
AcDbLine
 10
8779.345105459087
 20
7761.694702477431
 30
0.0
 11
8779.345105459087
 21
7730.694702477435
 31
0.0
  0
LINE
  5
18F94
330
747D
100
AcDbEntity
  8
部品1
100
AcDbLine
 10
8779.345105459087
 20
7761.694702477431
 30
0.0
 11
10879.34510545909
 21
7761.694702477434
 31
0.0
  0
LINE
  5
18F95
330
747D
100
AcDbEntity
  8
部品1
100
AcDbLine
 10
10876.34510545909
 20
7657.694702477434
 30
0.0
 11
10906.34510545908
 21
7657.694702477434
 31
0.0
  0
LINE
  5
18F96
330
747D
100
AcDbEntity
  8
部品1
100
AcDbLine
 10
8782.345105459087
 20
7657.694702477434
 30
0.0
 11
10879.34510545909
 21
7657.694702477434
 31
0.0
  0
LINE
  5
18F97
330
747D
100
AcDbEntity
  8
細線
  6
Continuous
 62
     5
100
AcDbLine
 10
10158.34510545909
 20
7696.694702477431
 30
0.0
 11
10158.34510545909
 21
7696.694702477431
 31
0.0
  0
LINE
  5
18F98
330
747D
100
AcDbEntity
  8
細線
  6
Continuous
 62
     5
100
AcDbLine
 10
10150.84514077798
 20
7696.694712398488
 30
0.0
 11
10150.84514077798
 21
7696.694712398488
 31
0.0
  0
LINE
  5
18F99
330
747D
100
AcDbEntity
  8
細線
  6
Continuous
 62
     5
100
AcDbLine
 10
10144.84514077798
 20
7696.694712398488
 30
0.0
 11
10144.84514077798
 21
7696.694712398488
 31
0.0
  0
LINE
  5
18F9A
330
747D
100
AcDbEntity
  8
細線
  6
Continuous
 62
     5
100
AcDbLine
 10
10212.34510545909
 20
7715.694702477431
 30
0.0
 11
10212.34510545909
 21
7715.694702477431
 31
0.0
  0
LINE
  5
18F9B
330
747D
100
AcDbEntity
  8
細線
 48
50.0
100
AcDbLine
 10
8805.34511011268
 20
7683.29487665439
 30
0.0
 11
8805.34511011268
 21
7691.691027062027
 31
0.0
  0
LINE
  5
18F9C
330
747D
100
AcDbEntity
  8
細線
 48
50.0
100
AcDbLine
 10
8805.34511011268
 20
7691.691027062027
 30
0.0
 11
8791.345105459088
 21
7691.691027062025
 31
0.0
  0
LINE
  5
18F9D
330
747D
100
AcDbEntity
  8
細線
 48
50.0
100
AcDbLine
 10
9556.345110112678
 20
7679.844876654389
 30
0.0
 11
9556.345110112678
 21
7684.69487665439
 31
0.0
  0
LINE
  5
18F9E
330
747D
100
AcDbEntity
  8
細線
 48
50.0
100
AcDbLine
 10
9556.345110112678
 20
7684.69487665439
 30
0.0
 11
9571.345110112678
 21
7684.69487665439
 31
0.0
  0
LINE
  5
18F9F
330
747D
100
AcDbEntity
  8
細線
 48
50.0
100
AcDbLine
 10
9571.345110112678
 20
7684.69487665439
 30
0.0
 11
9571.34511011268
 21
7691.69487665439
 31
0.0
  0
LINE
  5
18FA0
330
747D
100
AcDbEntity
  8
細線
 48
50.0
100
AcDbLine
 10
9571.34511011268
 20
7691.69487665439
 30
0.0
 11
9586.345110112677
 21
7691.69487665439
 31
0.0
  0
LINE
  5
18FA1
330
747D
100
AcDbEntity
  8
細線
 48
50.0
100
AcDbLine
 10
9586.345110112677
 20
7691.69487665439
 30
0.0
 11
9586.345110112677
 21
7662.69487665439
 31
0.0
  0
LINE
  5
18FA2
330
747D
100
AcDbEntity
  8
細線
 48
50.0
100
AcDbLine
 10
8782.345105459087
 20
7662.692210997859
 30
0.0
 11
8996.345110112677
 21
7662.694894208105
 31
0.0
  0
LINE
  5
18FA3
330
747D
100
AcDbEntity
  8
細線
 48
50.0
100
AcDbLine
 10
9486.345110112678
 20
7662.69487665439
 30
0.0
 11
9586.345110112677
 21
7662.69487665439
 31
0.0
  0
LINE
  5
18FA4
330
747D
100
AcDbEntity
  8
細線
 48
50.0
100
AcDbLine
 10
9206.345110112676
 20
7662.69487665439
 30
0.0
 11
9276.345110112677
 21
7662.69487665439
 31
0.0
  0
LINE
  5
18FA5
330
747D
100
AcDbEntity
  8
細線
 48
50.0
100
AcDbLine
 10
9219.207075125208
 20
7662.69487665439
 30
0.0
 11
9224.962592707873
 21
7680.965727944884
 31
0.0
  0
LINE
  5
18FA6
330
747D
100
AcDbEntity
  8
細線
 48
50.0
100
AcDbLine
 10
9224.962592707873
 20
7680.965727944884
 30
0.0
 11
9235.891041188308
 21
7680.965727944879
 31
0.0
  0
ARC
  5
18FA7
330
747D
100
AcDbEntity
  8
細線
 48
50.0
100
AcDbCircle
 10
9235.891041188308
 20
7679.965727944881
 30
0.0
 40
1.0
100
AcDbArc
 50
24.62431835213048
 51
90.0
  0
ARC
  5
18FA8
330
747D
100
AcDbEntity
  8
細線
 48
50.0
100
AcDbCircle
 10
9246.799753302942
 20
7679.965727944881
 30
0.0
 40
1.0
100
AcDbArc
 50
90.0
 51
155.3756816478695
  0
ARC
  5
18FA9
330
747D
100
AcDbEntity
  8
細線
 48
50.0
100
AcDbCircle
 10
9241.345397245622
 20
7682.46572794488
 30
0.0
 40
5.0
100
AcDbArc
 50
204.6243183521304
 51
335.3756816478695
  0
LINE
  5
18FAA
330
747D
100
AcDbEntity
  8
細線
 48
50.0
100
AcDbLine
 10
9246.799753302942
 20
7680.965727944879
 30
0.0
 11
9257.728201783375
 21
7680.965727944884
 31
0.0
  0
LINE
  5
18FAB
330
747D
100
AcDbEntity
  8
細線
 48
50.0
100
AcDbLine
 10
9257.728201783375
 20
7680.965727944884
 30
0.0
 11
9263.483719366043
 21
7662.69487665439
 31
0.0
  0
LINE
  5
18FAC
330
747D
100
AcDbEntity
  8
細線
 48
50.0
100
AcDbLine
 10
9556.345110112678
 20
7683.29487665439
 30
0.0
 11
8805.34511011268
 21
7683.29487665439
 31
0.0
  0
LINE
  5
18FAD
330
747D
100
AcDbEntity
  8
細線
 48
50.0
100
AcDbLine
 10
9416.345110112677
 20
7662.69487665439
 30
0.0
 11
9346.345110112677
 21
7662.69487665439
 31
0.0
  0
LINE
  5
18FAE
330
747D
100
AcDbEntity
  8
細線
100
AcDbLine
 10
9136.345110112676
 20
7662.69487665439
 30
0.0
 11
9066.345118298093
 21
7662.69487665439
 31
0.0
  0
LINE
  5
18FAF
330
747D
100
AcDbEntity
  8
細線
 48
50.0
100
AcDbLine
 10
10210.3451008055
 20
7717.294920512256
 30
0.0
 11
9575.345110112676
 21
7717.294920512253
 31
0.0
  0
LINE
  5
18FB0
330
747D
100
AcDbEntity
  8
細線
 48
50.0
100
AcDbLine
 10
9575.345110112676
 20
7714.191070919897
 30
0.0
 11
9575.345110112676
 21
7718.691070919897
 31
0.0
  0
LINE
  5
18FB1
330
747D
100
AcDbEntity
  8
細線
 48
50.0
100
AcDbLine
 10
9575.345110112676
 20
7718.691070919897
 30
0.0
 11
9560.345110112677
 21
7718.691070919897
 31
0.0
  0
LINE
  5
18FB2
330
747D
100
AcDbEntity
  8
細線
 48
50.0
100
AcDbLine
 10
9560.345110112677
 20
7718.691070919897
 30
0.0
 11
9560.345110112677
 21
7725.691070919896
 31
0.0
  0
LINE
  5
18FB3
330
747D
100
AcDbEntity
  8
細線
 48
50.0
100
AcDbLine
 10
9560.345110112677
 20
7725.691070919896
 30
0.0
 11
9545.345110112682
 21
7725.691070919893
 31
0.0
  0
LINE
  5
18FB4
330
747D
100
AcDbEntity
  8
細線
 48
50.0
100
AcDbLine
 10
9545.345110112682
 20
7725.691070919893
 30
0.0
 11
9545.345110112682
 21
7688.090842816783
 31
0.0
  0
LINE
  5
18FB5
330
747D
100
AcDbEntity
  8
細線
 48
50.0
100
AcDbLine
 10
9545.345110112682
 20
7688.090842816783
 30
0.0
 11
9565.345117413853
 21
7688.090884366324
 31
0.0
  0
LINE
  5
18FB6
330
747D
100
AcDbEntity
  8
細線
 48
50.0
100
AcDbLine
 10
9565.345072544912
 20
7696.694346002132
 30
0.0
 11
9565.345117413853
 21
7688.090884366324
 31
0.0
  0
LINE
  5
18FB7
330
747D
100
AcDbEntity
  8
細線
 48
50.0
100
AcDbLine
 10
10210.3451008055
 20
7713.844920512257
 30
0.0
 11
10210.3451008055
 21
7718.694920512255
 31
0.0
  0
LINE
  5
18FB8
330
747D
100
AcDbEntity
  8
細線
 48
50.0
100
AcDbLine
 10
10210.3451008055
 20
7718.694920512255
 30
0.0
 11
10225.3451008055
 21
7718.694920512255
 31
0.0
  0
LINE
  5
18FB9
330
747D
100
AcDbEntity
  8
細線
 48
50.0
100
AcDbLine
 10
10225.3451008055
 20
7718.694920512255
 30
0.0
 11
10225.34511243947
 21
7725.694920512298
 31
0.0
  0
LINE
  5
18FBA
330
747D
100
AcDbEntity
  8
細線
 48
50.0
100
AcDbLine
 10
10225.34511243947
 20
7725.694920512298
 30
0.0
 11
10240.34511061
 21
7725.694920512298
 31
0.0
  0
LINE
  5
18FBB
330
747D
100
AcDbEntity
  8
細線
 48
50.0
100
AcDbLine
 10
10240.34511061
 20
7725.694920512298
 30
0.0
 11
10240.34510030818
 21
7696.694714340025
 31
0.0
  0
LINE
  5
18FBC
330
747D
100
AcDbEntity
  8
細線
 48
50.0
100
AcDbLine
 10
9927.845127938967
 20
7696.694722527391
 30
0.0
 11
9857.845380021384
 21
7696.694717090053
 31
0.0
  0
LINE
  5
18FBD
330
747D
100
AcDbEntity
  8
細線
 48
50.0
100
AcDbLine
 10
9565.345072544912
 20
7696.694346002132
 30
0.0
 11
9576.577761899622
 21
7696.694528955278
 31
0.0
  0
ARC
  5
18FBE
330
747D
100
AcDbEntity
  8
細線
 48
50.0
100
AcDbCircle
 10
9583.160054206958
 20
7695.494692868891
 30
0.0
 40
1.8
100
AcDbArc
 50
270.0006665777295
 51
345.0005554812987
  0
LINE
  5
18FBF
330
747D
100
AcDbEntity
  8
細線
 48
50.0
100
AcDbLine
 10
9585.146487653037
 20
7695.95353332617
 30
0.0
 11
9584.898725210839
 21
7695.028835444064
 31
0.0
  0
LINE
  5
18FC0
330
747D
100
AcDbEntity
  8
細線
 48
50.0
100
AcDbLine
 10
9583.160075148112
 20
7693.694692869012
 30
0.0
 11
9579.530147729343
 21
7693.694650638533
 31
0.0
  0
ARC
  5
18FC1
330
747D
100
AcDbEntity
  8
細線
 48
50.0
100
AcDbCircle
 10
9579.53012678819
 20
7695.494650638412
 30
0.0
 40
1.8
100
AcDbArc
 50
195.0010443049394
 51
270.0006665777295
  0
LINE
  5
18FC2
330
747D
100
AcDbEntity
  8
細線
 48
50.0
100
AcDbLine
 10
9577.543699295933
 20
7695.953365605976
 30
0.0
 11
9577.791468792446
 21
7695.028744667394
 31
0.0
  0
ARC
  5
18FC3
330
747D
100
AcDbEntity
  8
細線
 48
50.0
100
AcDbCircle
 10
9576.577778187184
 20
7695.694528955413
 30
0.0
 40
1.0
100
AcDbArc
 50
15.00104430493943
 51
90.00093320877969
  0
LINE
  5
18FC4
330
747D
100
AcDbEntity
  8
細線
 48
50.0
100
AcDbLine
 10
9586.112409008139
 20
7696.694723645683
 30
0.0
 11
9587.054169159044
 21
7696.694730219533
 31
0.0
  0
ARC
  5
18FC5
330
747D
100
AcDbEntity
  8
細線
 48
50.0
100
AcDbCircle
 10
9586.112415988527
 20
7695.69472364571
 30
0.0
 40
1.0
100
AcDbArc
 50
90.0003999466794
 51
165.0005554812987
  0
LINE
  5
18FC6
330
747D
100
AcDbEntity
  8
細線
 48
50.0
100
AcDbLine
 10
10137.84510080549
 20
7696.694714340025
 30
0.0
 11
10240.34510030818
 21
7696.694714340025
 31
0.0
  0
LINE
  5
18FC7
330
747D
100
AcDbEntity
  8
細線
 48
50.0
100
AcDbLine
 10
9647.845136124383
 20
7696.694722527391
 30
0.0
 11
9586.745074897462
 21
7696.694730219533
 31
0.0
  0
LINE
  5
18FC8
330
747D
100
AcDbEntity
  8
細線
 48
50.0
100
AcDbLine
 10
10067.84513612438
 20
7696.694759368473
 30
0.0
 11
9997.845129169997
 21
7696.694714345806
 31
0.0
  0
LINE
  5
18FC9
330
747D
100
AcDbEntity
  8
細線
 48
50.0
100
AcDbLine
 10
9787.84510080549
 20
7696.694714340022
 30
0.0
 11
9717.845083517616
 21
7696.694714340029
 31
0.0
  0
ARC
  5
18FCA
330
747D
100
AcDbEntity
  8
細線
 48
50.0
100
AcDbCircle
 10
10224.5451054591
 20
7729.894702477435
 30
0.0
 40
0.8
100
AcDbArc
 50
359.9997333689499
 51
89.99986668437072
  0
ARC
  5
18FCB
330
747D
100
AcDbEntity
  8
細線
 48
50.0
100
AcDbCircle
 10
10232.14511228419
 20
7729.894713646053
 30
0.0
 40
0.8
100
AcDbArc
 50
90.00014387753465
 51
179.9997333689498
  0
LINE
  5
18FCC
330
747D
100
AcDbEntity
  8
細線
 48
50.0
100
AcDbLine
 10
10224.54510732053
 20
7730.694702477435
 30
0.0
 11
10219.34510545909
 21
7730.694702477435
 31
0.0
  0
ARC
  5
18FCD
330
747D
100
AcDbEntity
  8
細線
 48
50.0
100
AcDbCircle
 10
10226.04510545909
 20
7728.394702477435
 30
0.0
 40
0.7
100
AcDbArc
 50
180.0
 51
270.0
  0
ARC
  5
18FCE
330
747D
100
AcDbEntity
  8
細線
 48
50.0
100
AcDbCircle
 10
10230.64510545909
 20
7728.394702477435
 30
0.0
 40
0.7
100
AcDbArc
 50
270.0
 51
0.0
  0
LINE
  5
18FCF
330
747D
100
AcDbEntity
  8
細線
 48
50.0
100
AcDbLine
 10
10231.34510545909
 20
7728.394702477435
 30
0.0
 11
10231.3451122842
 21
7729.894717368923
 31
0.0
  0
LINE
  5
18FD0
330
747D
100
AcDbEntity
  8
細線
 48
50.0
100
AcDbLine
 10
10226.04510545909
 20
7727.694702477434
 30
0.0
 11
10230.64510545909
 21
7727.694702477434
 31
0.0
  0
LINE
  5
18FD1
330
747D
100
AcDbEntity
  8
細線
 48
50.0
100
AcDbLine
 10
10225.34510545909
 20
7729.894702477435
 30
0.0
 11
10225.34510545909
 21
7728.394702477435
 31
0.0
  0
LINE
  5
18FD2
330
747D
100
AcDbEntity
  8
細線
 48
50.0
100
AcDbLine
 10
10850.94510545909
 20
7760.694702477434
 30
0.0
 11
10214.34510545909
 21
7760.694702477431
 31
0.0
  0
LINE
  5
18FD3
330
747D
100
AcDbEntity
  8
細線
 48
50.0
100
AcDbLine
 10
10876.84510545908
 20
7755.694702477438
 30
0.0
 11
10860.94510545909
 21
7755.694702477434
 31
0.0
  0
LINE
  5
18FD4
330
747D
100
AcDbEntity
  8
細線
 48
50.0
100
AcDbLine
 10
10860.94510545909
 20
7755.694702477434
 30
0.0
 11
10850.94510545909
 21
7760.694702477434
 31
0.0
  0
LINE
  5
18FD5
330
747D
100
AcDbEntity
  8
細線
100
AcDbLine
 10
10461.84510545909
 20
7730.694702477435
 30
0.0
 11
10461.84510545909
 21
7759.994702477434
 31
0.0
  0
LINE
  5
18FD6
330
747D
100
AcDbEntity
  8
細線
100
AcDbLine
 10
10461.84510545909
 20
7759.994702477434
 30
0.0
 11
10481.84510545909
 21
7759.994702477434
 31
0.0
  0
LINE
  5
18FD7
330
747D
100
AcDbEntity
  8
細線
100
AcDbLine
 10
10481.84510545909
 20
7730.694702477435
 30
0.0
 11
10481.84510545909
 21
7759.994702477434
 31
0.0
  0
LINE
  5
18FD8
330
747D
100
AcDbEntity
  8
細線
100
AcDbLine
 10
10643.09510545909
 20
7730.694702477435
 30
0.0
 11
10573.09510545909
 21
7730.694702477435
 31
0.0
  0
LINE
  5
18FD9
330
747D
100
AcDbEntity
  8
細線
 48
50.0
100
AcDbLine
 10
10363.09510545909
 20
7730.694702477435
 30
0.0
 11
10232.14088503193
 21
7730.694702477435
 31
0.0
  0
LINE
  5
18FDA
330
747D
100
AcDbEntity
  8
細線
100
AcDbLine
 10
10503.09510545909
 20
7730.694702477435
 30
0.0
 11
10433.09510545909
 21
7730.694702477435
 31
0.0
  0
LINE
  5
18FDB
330
747D
100
AcDbEntity
  8
細線
 48
50.0
100
AcDbLine
 10
10219.34510545909
 20
7722.694702477435
 30
0.0
 11
10219.34510545909
 21
7730.694702477435
 31
0.0
  0
LINE
  5
18FDC
330
747D
100
AcDbEntity
  8
細線
 48
50.0
100
AcDbLine
 10
10199.34510545909
 20
7722.694702477439
 30
0.0
 11
10219.34510545909
 21
7722.694702477435
 31
0.0
  0
LINE
  5
18FDD
330
747D
100
AcDbEntity
  8
細線
 48
50.0
100
AcDbLine
 10
10214.34510545909
 20
7760.694702477434
 30
0.0
 11
10214.34510545909
 21
7755.694702477434
 31
0.0
  0
LINE
  5
18FDE
330
747D
100
AcDbEntity
  8
細線
 48
50.0
100
AcDbLine
 10
10199.34510545909
 20
7760.694702477431
 30
0.0
 11
10214.34510545909
 21
7760.694702477434
 31
0.0
  0
LINE
  5
18FDF
330
747D
100
AcDbEntity
  8
細線
 48
50.0
100
AcDbLine
 10
10199.34510545909
 20
7722.694702477439
 30
0.0
 11
10199.34510545909
 21
7760.694702477431
 31
0.0
  0
LINE
  5
18FE0
330
747D
100
AcDbEntity
  8
細線
100
AcDbLine
 10
10867.34510545908
 20
7730.694702477435
 30
0.0
 11
10713.09510545908
 21
7730.694702477435
 31
0.0
  0
LINE
  5
18FE1
330
747D
100
AcDbEntity
  8
細線
 48
50.0
100
AcDbLine
 10
10876.84510545908
 20
7755.694702477438
 30
0.0
 11
10876.84510545908
 21
7730.694702477435
 31
0.0
  0
DIMENSION
  5
1921F
330
747D
100
AcDbEntity
  8
寸法
 48
50.0
100
AcDbDimension
  2
*D31
 10
10906.34510545908
 20
6697.350898238077
 30
0.0
 11
9807.481851655554
 21
6697.350898238077
 31
0.0
 70
   160
 71
     5
 42
2154.0
  3
INABA_S40G
100
AcDbAlignedDimension
 13
8752.345105459088
 23
7659.694702477271
 33
0.0
 14
10906.34510545908
 24
7659.694702477271
 34
0.0
100
AcDbRotatedDimension
1001
ACAD
1000
DSTYLE
1002
{
1070
   341
1005
0
1002
}
  0
DIMENSION
  5
19220
330
747D
100
AcDbEntity
  8
寸法
100
AcDbDimension
  2
*D32
 10
8009.733859832396
 20
7659.694702477271
 30
0.0
 11
8009.733859832396
 21
7519.209421103032
 31
0.0
 70
   160
 71
     5
 42
75.0
  3
INABA_S40
100
AcDbAlignedDimension
 13
8304.345105459113
 23
7734.69470247727
 33
0.0
 14
8752.345105459088
 24
7659.694702477271
 34
0.0
 50
90.0
100
AcDbRotatedDimension
1001
ACAD
1000
DSTYLE
1002
{
1070
    41
1040
0.5
1070
    44
1040
1.0
1070
   147
1040
0.8
1070
   271
1070
     2
1070
   272
1070
     2
1070
   289
1070
     3
1070
   340
1005
F706
1070
   343
1005
17560
1070
   344
1005
17560
1002
}
  0
DIMENSION
  5
19321
330
747D
100
AcDbEntity
  8
寸法
100
AcDbDimension
  2
*D33
 10
11354.34510545909
 20
6439.237786114816
 30
0.0
 11
9803.290774556561
 21
6439.237786114816
 31
0.0
 70
   160
 71
     5
 42
3049.999999999982
  3
INABA_S40G
100
AcDbAlignedDimension
 13
8304.345105459113
 23
7734.694702477274
 33
0.0
 14
11354.34510545909
 24
7734.694702477438
 34
0.0
100
AcDbRotatedDimension
1001
ACAD
1000
DSTYLE
1002
{
1002
}
  0
LINE
  5
1932E
330
747D
100
AcDbEntity
  8
部品1
100
AcDbLine
 10
10211.08043857333
 20
6199.811302335728
 30
0.0
 11
9447.609772344891
 21
6199.811302335728
 31
0.0
  0
LINE
  5
1932F
330
747D
100
AcDbEntity
  8
部品1
100
AcDbLine
 10
10211.08043857333
 20
5959.918980790195
 30
0.0
 11
10211.08043857333
 21
6199.811302335728
 31
0.0
  0
LINE
  5
19330
330
747D
100
AcDbEntity
  8
部品1
100
AcDbLine
 10
9447.609772344891
 20
5959.918980790195
 30
0.0
 11
10211.08043857333
 21
5959.918980790195
 31
0.0
  0
LINE
  5
19331
330
747D
100
AcDbEntity
  8
部品1
100
AcDbLine
 10
9447.609772344891
 20
6199.811302335728
 30
0.0
 11
9447.609772344891
 21
5959.918980790195
 31
0.0
  0
TEXT
  5
19332
330
747D
100
AcDbEntity
  8
部品1
100
AcDbText
 10
9537.529382173929
 20
6006.917773117204
 30
0.0
 40
135.0
  1
平面図
  7
STYLE2
100
AcDbText
  0
LWPOLYLINE
  5
1954C
330
747D
100
AcDbEntity
  8
部品1
 48
50.0
100
AcDbPolyline
 90
        4
 70
     1
 43
0.0
 10
8851.39510545911
 20
3537.996374670296
 10
8854.295105459113
 20
3537.996374670296
 10
8854.295105459113
 20
3547.496374670296
 10
8851.39510545911
 20
3547.496374670296
  0
CIRCLE
  5
1954D
330
747D
100
AcDbEntity
  8
部品1
 48
50.0
100
AcDbCircle
 10
8852.845105459111
 20
3542.746374670296
 30
0.0
 40
9.0
  0
ARC
  5
1954E
330
747D
100
AcDbEntity
  8
細線
 48
50.0
100
AcDbCircle
 10
8852.845105459111
 20
3542.746374670296
 30
0.0
 40
4.0
100
AcDbArc
 50
111.2538091853132
 51
248.7461908146868
  0
ARC
  5
1954F
330
747D
100
AcDbEntity
  8
細線
 48
50.0
100
AcDbCircle
 10
8852.845105459111
 20
3542.746374670296
 30
0.0
 40
17.5
100
AcDbArc
 50
306.4837370612677
 51
233.5162629387323
  0
LINE
  5
19550
330
747D
100
AcDbEntity
  8
細線
 48
50.0
100
AcDbLine
 10
8862.845105459108
 20
3518.887414089414
 30
0.0
 11
8862.845105459111
 21
3527.871899889655
 31
0.0
  0
LINE
  5
19551
330
747D
100
AcDbEntity
  8
細線
 48
50.0
100
AcDbLine
 10
8842.845105459112
 20
3518.887414089415
 30
0.0
 11
8842.845105459112
 21
3527.871899889652
 31
0.0
  0
ARC
  5
19552
330
747D
100
AcDbEntity
  8
細線
 48
50.0
100
AcDbCircle
 10
8852.845105459111
 20
3542.746374670296
 30
0.0
 40
26.5
100
AcDbArc
 50
249.3326835063939
 51
290.6673164933835
  0
ARC
  5
19553
330
747D
100
AcDbEntity
  8
細線
 48
50.0
100
AcDbCircle
 10
8861.845105459105
 20
3518.887414089414
 30
0.0
 40
1.0
100
AcDbArc
 50
290.6673164936062
 51
359.9999999998958
  0
ARC
  5
19554
330
747D
100
AcDbEntity
  8
細線
 48
50.0
100
AcDbCircle
 10
8843.845105459111
 20
3518.887414089415
 30
0.0
 40
1.0
100
AcDbArc
 50
180.0
 51
249.3326835066164
  0
ARC
  5
19555
330
747D
100
AcDbEntity
  8
細線
 48
50.0
100
AcDbCircle
 10
8841.845105459112
 20
3527.871899889652
 30
0.0
 40
1.0
100
AcDbArc
 50
0.0
 51
53.51626293873231
  0
ARC
  5
19556
330
747D
100
AcDbEntity
  8
細線
 48
50.0
100
AcDbCircle
 10
8863.845105459116
 20
3527.871899889655
 30
0.0
 40
1.0
100
AcDbArc
 50
126.4837370615127
 51
180.0
  0
ARC
  5
19557
330
747D
100
AcDbEntity
  8
細線
 48
50.0
100
AcDbCircle
 10
8852.845105459111
 20
3542.746374670296
 30
0.0
 40
21.5
100
AcDbArc
 50
255.8014401250294
 51
284.1985598749706
  0
ARC
  5
19558
330
747D
100
AcDbEntity
  8
細線
 48
50.0
100
AcDbCircle
 10
8852.845105459111
 20
3542.746374670296
 30
0.0
 40
16.5
100
AcDbArc
 50
251.9694646069326
 51
288.0305353930674
  0
LINE
  5
19559
330
747D
100
AcDbEntity
  8
細線
 48
50.0
100
AcDbLine
 10
8858.345105459113
 20
3522.19400254449
 30
0.0
 11
8858.345105459113
 21
3526.771394231826
 31
0.0
  0
LINE
  5
1955A
330
747D
100
AcDbEntity
  8
細線
 48
50.0
100
AcDbLine
 10
8847.34510545911
 20
3522.19400254449
 30
0.0
 11
8847.34510545911
 21
3526.771394231825
 31
0.0
  0
ARC
  5
1955B
330
747D
100
AcDbEntity
  8
細線
 48
50.0
100
AcDbCircle
 10
8847.645105459115
 20
3526.771394231825
 30
0.0
 40
0.3
100
AcDbArc
 50
71.96946460693259
 51
180.0
  0
ARC
  5
1955C
330
747D
100
AcDbEntity
  8
細線
 48
50.0
100
AcDbCircle
 10
8858.045105459112
 20
3526.771394231826
 30
0.0
 40
0.3
100
AcDbArc
 50
0.0
 51
108.0305353930674
  0
ARC
  5
1955D
330
747D
100
AcDbEntity
  8
細線
 48
50.0
100
AcDbCircle
 10
8858.045105459108
 20
3522.19400254449
 30
0.0
 40
0.3
100
AcDbArc
 50
284.1985598747622
 51
0.0000000001042204
  0
ARC
  5
1955E
330
747D
100
AcDbEntity
  8
細線
 48
50.0
100
AcDbCircle
 10
8847.645105459115
 20
3522.19400254449
 30
0.0
 40
0.3
100
AcDbArc
 50
180.0
 51
255.8014401248081
  0
CIRCLE
  5
1955F
330
747D
100
AcDbEntity
  8
細線
 48
50.0
100
AcDbCircle
 10
8852.845105459111
 20
3542.746374670296
 30
0.0
 40
12.0
  0
ARC
  5
19560
330
747D
100
AcDbEntity
  8
部品1
 48
50.0
100
AcDbCircle
 10
8852.845105459111
 20
3592.746374670297
 30
0.0
 40
8.5
100
AcDbArc
 50
114.315739171091
 51
245.684260828909
  0
CIRCLE
  5
19561
330
747D
100
AcDbEntity
  8
細線
 48
50.0
100
AcDbCircle
 10
8852.845105459111
 20
3592.746374670297
 30
0.0
 40
4.5
  0
LWPOLYLINE
  5
19562
330
747D
100
AcDbEntity
  8
部品1
 48
50.0
100
AcDbPolyline
 90
        2
 70
     0
 43
0.0
 10
8849.345105459113
 20
3611.421224067278
 10
8849.345105459113
 20
3600.492341362711
  0
CIRCLE
  5
19563
330
747D
100
AcDbEntity
  8
部品1
 48
50.0
100
AcDbCircle
 10
8852.845105459111
 20
3592.746374670297
 30
0.0
 40
19.0
  0
LWPOLYLINE
  5
19564
330
747D
100
AcDbEntity
  8
部品1
 48
50.0
100
AcDbPolyline
 90
        2
 70
     0
 43
0.0
 10
8849.345105459113
 20
3585.000407977882
 10
8849.345105459113
 20
3574.071525273313
  0
LWPOLYLINE
  5
19565
330
747D
100
AcDbEntity
  8
部品1
 48
50.0
100
AcDbPolyline
 90
        2
 70
     0
 43
0.0
 10
8856.34510545911
 20
3600.492341362711
 10
8856.34510545911
 20
3611.421224067278
  0
ARC
  5
19566
330
747D
100
AcDbEntity
  8
部品1
 48
50.0
100
AcDbCircle
 10
8852.845105459111
 20
3592.746374670297
 30
0.0
 40
8.5
100
AcDbArc
 50
294.315739171091
 51
65.68426082890896
  0
LWPOLYLINE
  5
19567
330
747D
100
AcDbEntity
  8
部品1
 48
50.0
100
AcDbPolyline
 90
        2
 70
     0
 43
0.0
 10
8856.34510545911
 20
3574.071525273313
 10
8856.34510545911
 20
3585.000407977882
  0
ARC
  5
19568
330
747D
100
AcDbEntity
  8
細線
 48
50.0
100
AcDbCircle
 10
8852.845105459111
 20
3592.746374670297
 30
0.0
 40
16.5
100
AcDbArc
 50
332.0012352654438
 51
27.99876473455621
  0
ARC
  5
19569
330
747D
100
AcDbEntity
  8
細線
 48
50.0
100
AcDbCircle
 10
8852.845105459111
 20
3592.746374670297
 30
0.0
 40
14.0
100
AcDbArc
 50
326.4074436112986
 51
33.59255638870134
  0
LINE
  5
1956A
330
747D
100
AcDbEntity
  8
細線
 48
50.0
100
AcDbLine
 10
8838.276303174779
 20
3600.492341362711
 30
0.0
 11
8841.183201669421
 21
3600.492341362711
 31
0.0
  0
LINE
  5
1956B
330
747D
100
AcDbEntity
  8
細線
 48
50.0
100
AcDbLine
 10
8838.276303174779
 20
3585.000407977882
 30
0.0
 11
8841.183201669421
 21
3585.000407977882
 31
0.0
  0
LINE
  5
1956C
330
747D
100
AcDbEntity
  8
細線
 48
50.0
100
AcDbLine
 10
8864.507009248802
 20
3600.492341362711
 30
0.0
 11
8867.413907743445
 21
3600.492341362711
 31
0.0
  0
LINE
  5
1956D
330
747D
100
AcDbEntity
  8
細線
 48
50.0
100
AcDbLine
 10
8864.507009248802
 20
3585.000407977882
 30
0.0
 11
8867.413907743445
 21
3585.000407977882
 31
0.0
  0
ARC
  5
1956E
330
747D
100
AcDbEntity
  8
細線
 48
50.0
100
AcDbCircle
 10
8852.845105459111
 20
3592.746374670297
 30
0.0
 40
14.0
100
AcDbArc
 50
146.4074436112986
 51
213.5925563887013
  0
ARC
  5
1956F
330
747D
100
AcDbEntity
  8
細線
 48
50.0
100
AcDbCircle
 10
8852.845105459111
 20
3592.746374670297
 30
0.0
 40
16.5
100
AcDbArc
 50
152.0012352654438
 51
207.9987647345562
  0
ARC
  5
19570
330
747D
100
AcDbEntity
  8
部品1
 48
50.0
100
AcDbCircle
 10
8826.345105459111
 20
3618.246374670297
 30
0.0
 40
5.0
100
AcDbArc
 50
90.0
 51
180.0
  0
ARC
  5
19571
330
747D
100
AcDbEntity
  8
部品1
 48
50.0
100
AcDbCircle
 10
8826.345105459111
 20
3507.246374670296
 30
0.0
 40
5.0
100
AcDbArc
 50
180.0
 51
270.0
  0
ARC
  5
19572
330
747D
100
AcDbEntity
  8
部品1
 48
50.0
100
AcDbCircle
 10
8879.345105459112
 20
3507.246374670296
 30
0.0
 40
5.0
100
AcDbArc
 50
270.0
 51
0.0
  0
ARC
  5
19573
330
747D
100
AcDbEntity
  8
部品1
 48
50.0
100
AcDbCircle
 10
8879.345105459112
 20
3618.246374670297
 30
0.0
 40
5.0
100
AcDbArc
 50
0.0
 51
90.0
  0
LINE
  5
19575
330
747D
100
AcDbEntity
  8
部品1
 48
50.0
100
AcDbLine
 10
8821.345105459112
 20
3507.246374670296
 30
0.0
 11
8821.345105459112
 21
3618.246374670297
 31
0.0
  0
LINE
  5
19576
330
747D
100
AcDbEntity
  8
部品1
 48
50.0
100
AcDbLine
 10
8879.345105459112
 20
3502.246374670296
 30
0.0
 11
8826.345105459111
 21
3502.246374670296
 31
0.0
  0
LINE
  5
19577
330
747D
100
AcDbEntity
  8
部品1
 48
50.0
100
AcDbLine
 10
8884.345105459111
 20
3618.246374670297
 30
0.0
 11
8884.345105459111
 21
3507.246374670296
 31
0.0
  0
ENDSEC
  0
SECTION
  2
OBJECTS
  0
DICTIONARY
  5
7471
330
0
100
AcDbDictionary
281
     1
  3
ACAD_COLOR
350
174B0
  3
ACAD_GROUP
350
7472
  3
ACAD_LAYOUT
350
174B1
  3
ACAD_MATERIAL
350
174AF
  3
ACAD_MLINESTYLE
350
7473
  3
ACAD_PLOTSETTINGS
350
174B2
  3
ACAD_PLOTSTYLENAME
350
174AD
  3
ACDBHEADERROUNDTRIPXREC
350
19596
  3
AcDbVariableDictionary
350
19592
  3
CONTENTDICTIONARY
350
E71C
  3
DRAWINGVARIABLESDICT
350
F3B9
  0
DICTIONARY
  5
1764B
330
7467
100
AcDbDictionary
280
     1
281
     1
  3
ACAD_LAYERSTATES
360
1764C
  0
DICTIONARY
  5
174B0
102
{ACAD_REACTORS
330
7471
102
}
330
7471
100
AcDbDictionary
281
     1
  0
DICTIONARY
  5
7472
102
{ACAD_REACTORS
330
7471
102
}
330
7471
100
AcDbDictionary
281
     1
  0
DICTIONARY
  5
174B1
102
{ACAD_REACTORS
330
7471
102
}
330
7471
100
AcDbDictionary
281
     1
  3
Model
350
174B3
  3
レイアウト1
350
174B4
  0
DICTIONARY
  5
174AF
102
{ACAD_REACTORS
330
7471
102
}
330
7471
100
AcDbDictionary
281
     1
  0
DICTIONARY
  5
7473
102
{ACAD_REACTORS
330
7471
102
}
330
7471
100
AcDbDictionary
281
     1
  3
STANDARD
350
7480
  0
DICTIONARY
  5
174B2
102
{ACAD_REACTORS
330
7471
102
}
330
7471
100
AcDbDictionary
281
     1
  0
ACDBDICTIONARYWDFLT
  5
174AD
102
{ACAD_REACTORS
330
7471
102
}
330
7471
100
AcDbDictionary
281
     1
  3
Normal
350
174AE
100
AcDbDictionaryWithDefault
340
174AE
  0
DICTIONARY
  5
19596
102
{ACAD_REACTORS
330
7471
102
}
330
7471
100
AcDbDictionary
281
     1
  3
COLORDICT
350
19598
  3
MATERIALDICT
350
19597
  0
DICTIONARY
  5
19592
102
{ACAD_REACTORS
330
7471
102
}
330
7471
100
AcDbDictionary
281
     1
  3
DIMASSOC
350
19593
  3
PROJECTNAME
350
19594
  0
DICTIONARY
  5
E71C
102
{ACAD_REACTORS
330
7471
102
}
330
7471
100
AcDbDictionary
281
     1
  0
DICTIONARY
  5
F3B9
102
{ACAD_REACTORS
330
7471
102
}
330
7471
100
AcDbDictionary
281
     1
1001
DRAWINGVARIABLESXDATA
1000
POLARMODE
1000
1
  0
DICTIONARY
  5
1764C
102
{ACAD_REACTORS
330
1764B
102
}
330
1764B
100
AcDbDictionary
281
     1
  0
LAYOUT
  5
174B3
102
{ACAD_XDICTIONARY
360
19599
102
}
102
{ACAD_REACTORS
330
174B1
102
}
330
174B1
100
AcDbPlotSettings
  1

  2
クセロPDF
  4
A3
  6

 40
3.174999952316284
 41
3.174999952316284
 42
3.17498779296875
 43
3.17498779296875
 44
419.9466552734374
 45
296.9259948730469
 46
0.0
 47
0.0
 48
3.619013395666115
 49
-4.192117100517862
140
820.022926294543
141
573.2392198881443
142
1.0
143
39.99735023620806
 70
 11952
 72
     1
 73
     0
 74
     2
  7
inaba.ctb
 75
     0
147
0.0250016562120842
148
25.79074261211281
149
125.8223078213959
100
AcDbLayout
  1
Model
 70
     1
 71
     0
 10
0.0
 20
0.0
 11
12.0
 21
9.0
 12
0.0
 22
0.0
 32
0.0
 14
0.0
 24
0.0
 34
0.0
 15
0.0
 25
0.0
 35
0.0
146
0.0
 13
0.0
 23
0.0
 33
0.0
 16
1.0
 26
0.0
 36
0.0
 17
0.0
 27
1.0
 37
0.0
 76
     0
330
747D
  0
LAYOUT
  5
174B4
102
{ACAD_XDICTIONARY
360
1959B
102
}
102
{ACAD_REACTORS
330
174B1
102
}
330
174B1
100
AcDbPlotSettings
  1

  2
Microsoft Office Document Image Writer
  4

  6

 40
0.0
 41
0.0
 42
0.0
 43
0.0
 44
0.0
 45
0.0
 46
0.0
 47
0.0
 48
0.0
 49
0.0
140
0.0
141
0.0
142
1.0
143
1.0
 70
   688
 72
     0
 73
     0
 74
     5
  7

 75
    16
147
1.0
148
0.0
149
0.0
100
AcDbLayout
  1
レイアウト1
 70
     0
 71
     1
 10
0.0
 20
0.0
 11
420.0
 21
297.0
 12
0.0
 22
0.0
 32
0.0
 14
1.000000000000000E+20
 24
1.000000000000000E+20
 34
1.000000000000000E+20
 15
-1.000000000000000E+20
 25
-1.000000000000000E+20
 35
-1.000000000000000E+20
146
0.0
 13
0.0
 23
0.0
 33
0.0
 16
1.0
 26
0.0
 36
0.0
 17
0.0
 27
1.0
 37
0.0
 76
     0
330
747A
  0
MLINESTYLE
  5
7480
102
{ACAD_REACTORS
330
7473
102
}
330
7473
100
AcDbMlineStyle
  2
STANDARD
 70
     0
  3

 62
     0
 51
90.0
 52
90.0
 71
     2
 49
0.5
 62
   256
  6
BYLAYER
 49
-0.5
 62
   256
  6
BYLAYER
  0
ACDBPLACEHOLDER
  5
174AE
102
{ACAD_REACTORS
330
174AD
102
}
330
174AD
  0
XRECORD
  5
19598
102
{ACAD_REACTORS
330
19596
102
}
330
19596
100
AcDbXrecord
280
     1
340
174B0
  0
XRECORD
  5
19597
102
{ACAD_REACTORS
330
19596
102
}
330
19596
100
AcDbXrecord
280
     1
340
174AF
  0
DICTIONARYVAR
  5
19593
102
{ACAD_REACTORS
330
19592
102
}
330
19592
100
DictionaryVariables
280
     0
  1
1
  0
DICTIONARYVAR
  5
19594
102
{ACAD_REACTORS
330
19592
102
}
330
19592
100
DictionaryVariables
280
     0
  1

  0
DICTIONARY
  5
19599
330
174B3
100
AcDbDictionary
280
     1
281
     1
  3
ACAD_XREC_ROUNDTRIP
360
1959A
  0
DICTIONARY
  5
1959B
330
174B4
100
AcDbDictionary
280
     1
281
     1
  3
ACAD_XREC_ROUNDTRIP
360
1959C
  0
XRECORD
  5
1959A
102
{ACAD_REACTORS
330
19599
102
}
330
19599
100
AcDbXrecord
280
     1
102
SHADEPLOT
 70
     0
102
SHADEPLOTRESLEVEL
 70
     2
102
SHADEPLOTCUSTOMDPI
 70
   150
  0
XRECORD
  5
1959C
102
{ACAD_REACTORS
330
1959B
102
}
330
1959B
100
AcDbXrecord
280
     1
102
SHADEPLOT
 70
     0
102
SHADEPLOTRESLEVEL
 70
     2
102
SHADEPLOTCUSTOMDPI
 70
   300
  0
ENDSEC
  0
EOF
