  0
SECTION
  2
HEADER
  9
$ACADVER
  1
AC1015
  9
$ACADMAINTVER
 70
    20
  9
$DWGCODEPAGE
  3
ANSI_932
  9
$INSBASE
 10
0.0
 20
0.0
 30
0.0
  9
$EXTMIN
 10
139.9999999999995
 20
-0.0000000000000909
 30
0.0
  9
$EXTMAX
 10
16307.2
 20
11409.6
 30
0.0
  9
$LIMMIN
 10
0.0
 20
0.0
  9
$LIMMAX
 10
16800.0
 20
11880.0
  9
$ORTHOMODE
 70
     0
  9
$REGENMODE
 70
     1
  9
$FILLMODE
 70
     1
  9
$QTEXTMODE
 70
     0
  9
$MIRRTEXT
 70
     1
  9
$LTSCALE
 40
20.0
  9
$ATTMODE
 70
     1
  9
$TEXTSIZE
 40
4.0
  9
$TRACEWID
 40
1.0
  9
$TEXTSTYLE
  7
STYLE1
  9
$CLAYER
  8
部品1
  9
$CELTYPE
  6
BYLAYER
  9
$CECOLOR
 62
   256
  9
$CELTSCALE
 40
50.0
  9
$DISPSILH
 70
     0
  9
$DIMSCALE
 40
40.0
  9
$DIMASZ
 40
2.5
  9
$DIMEXO
 40
0.5
  9
$DIMDLI
 40
7.0
  9
$DIMRND
 40
0.0
  9
$DIMDLE
 40
0.0
  9
$DIMEXE
 40
1.5
  9
$DIMTP
 40
0.0
  9
$DIMTM
 40
0.0
  9
$DIMTXT
 40
3.0
  9
$DIMCEN
 40
0.0
  9
$DIMTSZ
 40
0.0
  9
$DIMTOL
 70
     0
  9
$DIMLIM
 70
     0
  9
$DIMTIH
 70
     0
  9
$DIMTOH
 70
     0
  9
$DIMSE1
 70
     0
  9
$DIMSE2
 70
     0
  9
$DIMTAD
 70
     3
  9
$DIMZIN
 70
     8
  9
$DIMBLK
  1

  9
$DIMASO
 70
     1
  9
$DIMSHO
 70
     1
  9
$DIMPOST
  1

  9
$DIMAPOST
  1

  9
$DIMALT
 70
     0
  9
$DIMALTD
 70
     2
  9
$DIMALTF
 40
0.0394
  9
$DIMLFAC
 40
1.0
  9
$DIMTOFL
 70
     1
  9
$DIMTVP
 40
0.0
  9
$DIMTIX
 70
     1
  9
$DIMSOXD
 70
     0
  9
$DIMSAH
 70
     1
  9
$DIMBLK1
  1
DOTSMALL
  9
$DIMBLK2
  1
DOTSMALL
  9
$DIMSTYLE
  2
INABA_S40G
  9
$DIMCLRD
 70
     0
  9
$DIMCLRE
 70
     0
  9
$DIMCLRT
 70
     7
  9
$DIMTFAC
 40
1.0
  9
$DIMGAP
 40
1.0
  9
$DIMJUST
 70
     0
  9
$DIMSD1
 70
     0
  9
$DIMSD2
 70
     0
  9
$DIMTOLJ
 70
     1
  9
$DIMTZIN
 70
     0
  9
$DIMALTZ
 70
     0
  9
$DIMALTTZ
 70
     0
  9
$DIMUPT
 70
     0
  9
$DIMDEC
 70
     1
  9
$DIMTDEC
 70
     4
  9
$DIMALTU
 70
     2
  9
$DIMALTTD
 70
     2
  9
$DIMTXSTY
  7
STYLE1
  9
$DIMAUNIT
 70
     0
  9
$DIMADEC
 70
     0
  9
$DIMALTRND
 40
0.0
  9
$DIMAZIN
 70
     0
  9
$DIMDSEP
 70
    46
  9
$DIMATFIT
 70
     3
  9
$DIMFRAC
 70
     0
  9
$DIMLDRBLK
  1

  9
$DIMLUNIT
 70
     2
  9
$DIMLWD
 70
    -2
  9
$DIMLWE
 70
    -2
  9
$DIMTMOVE
 70
     0
  9
$LUNITS
 70
     2
  9
$LUPREC
 70
     1
  9
$SKETCHINC
 40
1.0
  9
$FILLETRAD
 40
3.0
  9
$AUNITS
 70
     0
  9
$AUPREC
 70
     0
  9
$MENU
  1
acad
  9
$ELEVATION
 40
0.0
  9
$PELEVATION
 40
0.0
  9
$THICKNESS
 40
0.0
  9
$LIMCHECK
 70
     0
  9
$CHAMFERA
 40
0.0
  9
$CHAMFERB
 40
0.0
  9
$CHAMFERC
 40
0.0
  9
$CHAMFERD
 40
0.0
  9
$SKPOLY
 70
     0
  9
$TDCREATE
 40
2451368.612993866
  9
$TDUCREATE
 40
2451368.237993866
  9
$TDUPDATE
 40
2455575.686476227
  9
$TDUUPDATE
 40
2455575.311476227
  9
$TDINDWG
 40
0.7507131829
  9
$TDUSRTIMER
 40
0.7507131829
  9
$USRTIMER
 70
     1
  9
$ANGBASE
 50
0.0
  9
$ANGDIR
 70
     0
  9
$PDMODE
 70
     3
  9
$PDSIZE
 40
2.0
  9
$PLINEWID
 40
0.0
  9
$SPLFRAME
 70
     0
  9
$SPLINETYPE
 70
     6
  9
$SPLINESEGS
 70
     8
  9
$HANDSEED
  5
1A3A3
  9
$SURFTAB1
 70
     6
  9
$SURFTAB2
 70
     6
  9
$SURFTYPE
 70
     6
  9
$SURFU
 70
     6
  9
$SURFV
 70
     6
  9
$UCSBASE
  2

  9
$UCSNAME
  2

  9
$UCSORG
 10
0.0
 20
0.0
 30
0.0
  9
$UCSXDIR
 10
1.0
 20
0.0
 30
0.0
  9
$UCSYDIR
 10
0.0
 20
1.0
 30
0.0
  9
$UCSORTHOREF
  2

  9
$UCSORTHOVIEW
 70
     0
  9
$UCSORGTOP
 10
0.0
 20
0.0
 30
0.0
  9
$UCSORGBOTTOM
 10
0.0
 20
0.0
 30
0.0
  9
$UCSORGLEFT
 10
0.0
 20
0.0
 30
0.0
  9
$UCSORGRIGHT
 10
0.0
 20
0.0
 30
0.0
  9
$UCSORGFRONT
 10
0.0
 20
0.0
 30
0.0
  9
$UCSORGBACK
 10
0.0
 20
0.0
 30
0.0
  9
$PUCSBASE
  2

  9
$PUCSNAME
  2

  9
$PUCSORG
 10
0.0
 20
0.0
 30
0.0
  9
$PUCSXDIR
 10
1.0
 20
0.0
 30
0.0
  9
$PUCSYDIR
 10
0.0
 20
1.0
 30
0.0
  9
$PUCSORTHOREF
  2

  9
$PUCSORTHOVIEW
 70
     0
  9
$PUCSORGTOP
 10
0.0
 20
0.0
 30
0.0
  9
$PUCSORGBOTTOM
 10
0.0
 20
0.0
 30
0.0
  9
$PUCSORGLEFT
 10
0.0
 20
0.0
 30
0.0
  9
$PUCSORGRIGHT
 10
0.0
 20
0.0
 30
0.0
  9
$PUCSORGFRONT
 10
0.0
 20
0.0
 30
0.0
  9
$PUCSORGBACK
 10
0.0
 20
0.0
 30
0.0
  9
$USERI1
 70
     0
  9
$USERI2
 70
     0
  9
$USERI3
 70
     0
  9
$USERI4
 70
     0
  9
$USERI5
 70
     0
  9
$USERR1
 40
0.0
  9
$USERR2
 40
0.0
  9
$USERR3
 40
0.0
  9
$USERR4
 40
0.0
  9
$USERR5
 40
0.0
  9
$WORLDVIEW
 70
     1
  9
$SHADEDGE
 70
     3
  9
$SHADEDIF
 70
    70
  9
$TILEMODE
 70
     1
  9
$MAXACTVP
 70
    16
  9
$PINSBASE
 10
0.0
 20
0.0
 30
0.0
  9
$PLIMCHECK
 70
     0
  9
$PEXTMIN
 10
1.000000000000000E+20
 20
1.000000000000000E+20
 30
1.000000000000000E+20
  9
$PEXTMAX
 10
-1.000000000000000E+20
 20
-1.000000000000000E+20
 30
-1.000000000000000E+20
  9
$PLIMMIN
 10
0.0
 20
0.0
  9
$PLIMMAX
 10
420.0
 20
297.0
  9
$UNITMODE
 70
     0
  9
$VISRETAIN
 70
     0
  9
$PLINEGEN
 70
     0
  9
$PSLTSCALE
 70
     0
  9
$TREEDEPTH
 70
  3020
  9
$CMLSTYLE
  2
STANDARD
  9
$CMLJUST
 70
     0
  9
$CMLSCALE
 40
1.0
  9
$PROXYGRAPHICS
 70
     1
  9
$MEASUREMENT
 70
     1
  9
$CELWEIGHT
370
    -1
  9
$ENDCAPS
280
     0
  9
$JOINSTYLE
280
     0
  9
$LWDISPLAY
290
     0
  9
$INSUNITS
 70
     0
  9
$HYPERLINKBASE
  1

  9
$STYLESHEET
  1

  9
$XEDIT
290
     1
  9
$CEPSNTYPE
380
     0
  9
$PSTYLEMODE
290
     1
  9
$FINGERPRINTGUID
  2
{42907A5C-17A5-4A8E-BEEF-866C230EF5D4}
  9
$VERSIONGUID
  2
{0663395C-B0C6-4682-91BE-3C9E5784CF0C}
  9
$EXTNAMES
290
     1
  9
$PSVPSCALE
 40
0.0
  9
$OLESTARTUP
290
     0
  0
ENDSEC
  0
SECTION
  2
CLASSES
  0
CLASS
  1
ACDBDICTIONARYWDFLT
  2
AcDbDictionaryWithDefault
  3
ObjectDBX Classes
 90
        0
280
     0
281
     0
  0
CLASS
  1
DICTIONARYVAR
  2
AcDbDictionaryVar
  3
ObjectDBX Classes
 90
        0
280
     0
281
     0
  0
CLASS
  1
ACDBPLACEHOLDER
  2
AcDbPlaceHolder
  3
ObjectDBX Classes
 90
        0
280
     0
281
     0
  0
CLASS
  1
LAYOUT
  2
AcDbLayout
  3
ObjectDBX Classes
 90
        0
280
     0
281
     0
  0
ENDSEC
  0
SECTION
  2
TABLES
  0
TABLE
  2
VPORT
  5
746D
330
0
100
AcDbSymbolTable
 70
     2
  0
VPORT
  5
1A39B
330
746D
100
AcDbSymbolTableRecord
100
AcDbViewportTableRecord
  2
*Active
 70
     0
 10
0.0
 20
0.0
 11
1.0
 21
1.0
 12
8223.761025238502
 22
6348.703162895247
 13
0.0
 23
0.0
 14
10.0
 24
10.0
 15
10.0
 25
10.0
 16
0.0
 26
0.0
 36
1.0
 17
0.0
 27
0.0
 37
0.0
 40
12805.60689082044
 41
1.525925925925925
 42
50.0
 43
0.0
 44
0.0
 50
0.0
 51
0.0
 71
     0
 72
     0
 73
     1
 74
     0
 75
     0
 76
     0
 77
     0
 78
     0
281
     0
 65
     1
110
0.0
120
0.0
130
0.0
111
1.0
121
0.0
131
0.0
112
0.0
122
1.0
132
0.0
 79
     0
146
0.0
  0
ENDTAB
  0
TABLE
  2
LTYPE
  5
746A
330
0
100
AcDbSymbolTable
 70
     4
  0
LTYPE
  5
7477
330
746A
100
AcDbSymbolTableRecord
100
AcDbLinetypeTableRecord
  2
BYBLOCK
 70
     0
  3

 72
    65
 73
     0
 40
0.0
  0
LTYPE
  5
7478
330
746A
100
AcDbSymbolTableRecord
100
AcDbLinetypeTableRecord
  2
BYLAYER
 70
     0
  3

 72
    65
 73
     0
 40
0.0
  0
LTYPE
  5
7479
330
746A
100
AcDbSymbolTableRecord
100
AcDbLinetypeTableRecord
  2
CONTINUOUS
 70
     0
  3
Solid line
 72
    65
 73
     0
 40
0.0
  0
LTYPE
  5
7816
330
746A
100
AcDbSymbolTableRecord
100
AcDbLinetypeTableRecord
  2
CENTER
 70
     0
  3
____ _ ____ _ ____ _ ____ _ ____ _ ____ _ ____ 
 72
    65
 73
     4
 40
2.0
 49
1.25
 74
     0
 49
-0.25
 74
     0
 49
0.25
 74
     0
 49
-0.25
 74
     0
  0
LTYPE
  5
781A
330
746A
100
AcDbSymbolTableRecord
100
AcDbLinetypeTableRecord
  2
HIDDEN
 70
     0
  3
__ __ __ __ __ __ __ __ __ __ __ __ __ __ __ __
 72
    65
 73
     2
 40
0.375
 49
0.25
 74
     0
 49
-0.125
 74
     0
  0
LTYPE
  5
781B
330
746A
100
AcDbSymbolTableRecord
100
AcDbLinetypeTableRecord
  2
PHANTOM
 70
     0
  3
______  __  __  ______  __  __  ______  __  __ 
 72
    65
 73
     6
 40
2.5
 49
1.25
 74
     0
 49
-0.25
 74
     0
 49
0.25
 74
     0
 49
-0.25
 74
     0
 49
0.25
 74
     0
 49
-0.25
 74
     0
  0
ENDTAB
  0
TABLE
  2
LAYER
  5
7467
102
{ACAD_XDICTIONARY
360
18FBA
102
}
330
0
100
AcDbSymbolTable
 70
    12
  0
LAYER
  5
7474
330
7467
100
AcDbSymbolTableRecord
100
AcDbLayerTableRecord
  2
0
 70
     0
 62
     7
  6
CONTINUOUS
370
    -3
390
18E11
  0
LAYER
  5
DEB2
330
7467
100
AcDbSymbolTableRecord
100
AcDbLayerTableRecord
  2
センター
 70
     0
 62
     3
  6
CENTER
370
    -3
390
18E11
  0
LAYER
  5
DEB3
330
7467
100
AcDbSymbolTableRecord
100
AcDbLayerTableRecord
  2
寸法
 70
     0
 62
     4
  6
CONTINUOUS
370
    -3
390
18E11
  0
LAYER
  5
DEB4
330
7467
100
AcDbSymbolTableRecord
100
AcDbLayerTableRecord
  2
部品1
 70
     0
 62
     7
  6
CONTINUOUS
370
    -3
390
18E11
  0
LAYER
  5
DEB5
330
7467
100
AcDbSymbolTableRecord
100
AcDbLayerTableRecord
  2
補助
 70
     0
 62
    -1
  6
CONTINUOUS
370
    -3
390
18E11
  0
LAYER
  5
DEB6
330
7467
100
AcDbSymbolTableRecord
100
AcDbLayerTableRecord
  2
文字
 70
     0
 62
     7
  6
CONTINUOUS
370
    -3
390
18E11
  0
LAYER
  5
F255
330
7467
100
AcDbSymbolTableRecord
100
AcDbLayerTableRecord
  2
DEFPOINTS
 70
     0
 62
     7
  6
CONTINUOUS
290
     0
370
    -3
390
18E11
  0
LAYER
  5
10B54
330
7467
100
AcDbSymbolTableRecord
100
AcDbLayerTableRecord
  2
仕様書枠
 70
     0
 62
   230
  6
CONTINUOUS
370
    -3
390
18E11
  0
LAYER
  5
11729
330
7467
100
AcDbSymbolTableRecord
100
AcDbLayerTableRecord
  2
Ｇ．Ｌ
 70
     0
 62
    30
  6
CONTINUOUS
370
    -3
390
18E11
  0
LAYER
  5
1173F
330
7467
100
AcDbSymbolTableRecord
100
AcDbLayerTableRecord
  2
細線
 70
     0
 62
     5
  6
CONTINUOUS
370
    -3
390
18E11
  0
LAYER
  5
12CC4
330
7467
100
AcDbSymbolTableRecord
100
AcDbLayerTableRecord
  2
想像線
 70
     0
 62
     6
  6
PHANTOM
370
    -3
390
18E11
  0
LAYER
  5
142E2
330
7467
100
AcDbSymbolTableRecord
100
AcDbLayerTableRecord
  2
破線
 70
     0
 62
     2
  6
HIDDEN
370
    -3
390
18E11
  0
ENDTAB
  0
TABLE
  2
STYLE
  5
7468
330
0
100
AcDbSymbolTable
 70
     4
  0
STYLE
  5
7475
330
7468
100
AcDbSymbolTableRecord
100
AcDbTextStyleTableRecord
  2
STANDARD
 70
     0
 40
0.0
 41
1.0
 50
0.0
 71
     0
 42
4.0
  3
txt
  4
C:\AutoCAD LT\bigfont.shx
  0
STYLE
  5
F706
330
7468
100
AcDbSymbolTableRecord
100
AcDbTextStyleTableRecord
  2
STYLE1
 70
     0
 40
0.0
 41
1.0
 50
0.0
 71
     0
 42
4.0
  3
isocp.shx
  4
bigfont.shx
  0
STYLE
  5
103BF
330
7468
100
AcDbSymbolTableRecord
100
AcDbTextStyleTableRecord
  2
STYLE2
 70
     0
 40
0.0
 41
1.0
 50
0.0
 71
     0
 42
100.0
  3
MS PGothic.ttf
  4

1001
ACAD
1000
MS PGothic
1071
    32818
  0
STYLE
  5
19A6A
330
7468
100
AcDbSymbolTableRecord
100
AcDbTextStyleTableRecord
  2
STYLE3
 70
     0
 40
0.0
 41
1.0
 50
0.0
 71
     0
 42
100.0
  3

  4

1001
ACAD
1000
DFPGothic-EB
1071
    32818
  0
ENDTAB
  0
TABLE
  2
VIEW
  5
746B
330
0
100
AcDbSymbolTable
 70
     0
  0
ENDTAB
  0
TABLE
  2
UCS
  5
746C
330
0
100
AcDbSymbolTable
 70
     0
  0
ENDTAB
  0
TABLE
  2
APPID
  5
746E
330
0
100
AcDbSymbolTable
 70
     6
  0
APPID
  5
7476
330
746E
100
AcDbSymbolTableRecord
100
AcDbRegAppTableRecord
  2
ACAD
 70
     0
  0
APPID
  5
DEA9
330
746E
100
AcDbSymbolTableRecord
100
AcDbRegAppTableRecord
  2
CONTENTBLOCKICON
 70
     0
  0
APPID
  5
DEAA
330
746E
100
AcDbSymbolTableRecord
100
AcDbRegAppTableRecord
  2
CONTENTBLOCKDESCRIPTION
 70
     0
  0
APPID
  5
E71D
330
746E
100
AcDbSymbolTableRecord
100
AcDbRegAppTableRecord
  2
CONTENTTABDATA
 70
     0
  0
APPID
  5
E71E
330
746E
100
AcDbSymbolTableRecord
100
AcDbRegAppTableRecord
  2
CONTENTCURRENTTAB
 70
     0
  0
APPID
  5
F3BA
330
746E
100
AcDbSymbolTableRecord
100
AcDbRegAppTableRecord
  2
DRAWINGVARIABLESXDATA
 70
     0
  0
ENDTAB
  0
TABLE
  2
DIMSTYLE
  5
746F
330
0
100
AcDbSymbolTable
 70
     5
100
AcDbDimStyleTable
 71
     0
  0
DIMSTYLE
105
7484
330
746F
100
AcDbSymbolTableRecord
100
AcDbDimStyleTableRecord
  2
JIS
 70
     0
 41
2.5
 42
1.0
 43
7.0
 44
1.0
 73
     0
 74
     0
 77
     1
 78
     8
140
2.5
141
0.0
143
0.0394
147
0.0
172
     1
174
     1
175
     1
340
7475
  0
DIMSTYLE
105
F71F
102
{ACAD_REACTORS
330
1933E
330
19343
330
1934B
330
19350
330
19353
330
19388
330
1938A
330
1938B
330
19396
330
19397
330
19398
330
193F3
330
193F4
330
193F5
330
193F6
330
193F7
330
19415
330
19416
330
19417
330
19418
330
19419
330
1941A
330
1927C
330
192C9
330
192CD
330
192D8
330
192D9
330
192DA
330
19315
330
1A036
330
1A139
102
}
330
746F
100
AcDbSymbolTableRecord
100
AcDbDimStyleTableRecord
  2
INABA_S40G
 70
     0
 40
40.0
 41
2.5
 42
0.5
 43
7.0
 44
1.5
 73
     0
 74
     0
 77
     3
 78
     8
140
3.0
141
0.0
143
0.0394
147
1.0
172
     1
173
     1
174
     1
178
     7
271
     1
340
F706
341
F770
343
F770
344
F770
  0
DIMSTYLE
105
18FB9
102
{ACAD_REACTORS
330
19D99
330
1A035
102
}
330
746F
100
AcDbSymbolTableRecord
100
AcDbDimStyleTableRecord
  2
INABA_S40
 70
     0
 40
40.0
 41
2.5
 42
0.5
 43
7.0
 44
1.5
 73
     0
 74
     0
 77
     3
 78
     8
140
3.0
141
0.0
143
0.0394
147
1.0
172
     1
173
     1
174
     1
175
     1
178
     7
340
7475
  0
DIMSTYLE
105
19A6B
330
746F
100
AcDbSymbolTableRecord
100
AcDbDimStyleTableRecord
  2
INABA_S50G
 70
     0
 41
125.0
 42
25.0
 43
7.0
 44
75.0
 73
     0
 74
     0
 77
     3
 78
     8
140
150.0
141
0.0
143
0.0394
147
25.0
172
     1
173
     1
174
     1
175
     1
178
     7
271
     1
340
F706
341
F770
343
F770
344
F770
  0
DIMSTYLE
105
1A331
330
746F
100
AcDbSymbolTableRecord
100
AcDbDimStyleTableRecord
  2
INABA_S20G
 70
     0
 40
20.0
 41
2.5
 42
0.5
 43
7.0
 44
1.5
 73
     0
 74
     0
 77
     3
 78
     8
140
3.0
141
0.0
143
0.0394
147
1.0
172
     1
173
     1
174
     1
178
     7
271
     1
340
F706
341
F770
343
F770
344
F770
  0
ENDTAB
  0
TABLE
  2
BLOCK_RECORD
  5
7466
330
0
100
AcDbSymbolTable
 70
    35
  0
BLOCK_RECORD
  5
747D
330
7466
100
AcDbSymbolTableRecord
100
AcDbBlockTableRecord
  2
*MODEL_SPACE
340
18E16
  0
BLOCK_RECORD
  5
747A
330
7466
100
AcDbSymbolTableRecord
100
AcDbBlockTableRecord
  2
*PAPER_SPACE
340
18E17
  0
BLOCK_RECORD
  5
F770
330
7466
100
AcDbSymbolTableRecord
100
AcDbBlockTableRecord
  2
_DOTSMALL
340
0
102
{BLKREFS
331
19B42
331
19B43
331
19B4D
331
19B4E
331
19B56
331
19B57
331
19B5F
331
19B60
331
19B69
331
19B6A
331
19B72
331
19B73
331
19B7C
331
19B7D
331
19B87
331
19B88
331
19B91
331
19B92
331
19B9A
331
19B9B
331
19BA3
331
19BA4
331
19C17
331
19C18
331
19C22
331
19C23
331
19C2D
331
19C2E
331
19C36
331
19C37
331
19C3F
331
19C40
331
19C48
331
19C49
331
19C51
331
19C52
331
19C5A
331
19C5B
331
1A2A3
331
1A2A4
331
1A2AC
331
1A2AD
331
1A2C9
331
1A2CA
331
1A2D4
331
1A2D5
331
1A2DF
331
1A2E0
331
1A2EA
331
1A2EB
331
1A2F3
331
1A2F4
331
1A2FC
331
1A2FD
331
1A305
331
1A306
331
1A30E
331
1A30F
331
1A317
331
1A318
331
1A322
331
1A323
102
}
  0
BLOCK_RECORD
  5
18E1E
330
7466
100
AcDbSymbolTableRecord
100
AcDbBlockTableRecord
  2
_DOT
340
0
102
{BLKREFS
331
1A2B7
331
1A2B8
331
1A2C0
331
1A2C1
102
}
  0
BLOCK_RECORD
  5
19538
330
7466
100
AcDbSymbolTableRecord
100
AcDbBlockTableRecord
  2
*D2
340
0
  0
BLOCK_RECORD
  5
19544
330
7466
100
AcDbSymbolTableRecord
100
AcDbBlockTableRecord
  2
*D3
340
0
  0
BLOCK_RECORD
  5
19552
330
7466
100
AcDbSymbolTableRecord
100
AcDbBlockTableRecord
  2
*D4
340
0
  0
BLOCK_RECORD
  5
1956A
330
7466
100
AcDbSymbolTableRecord
100
AcDbBlockTableRecord
  2
*D5
340
0
  0
BLOCK_RECORD
  5
19576
330
7466
100
AcDbSymbolTableRecord
100
AcDbBlockTableRecord
  2
*D6
340
0
  0
BLOCK_RECORD
  5
19582
330
7466
100
AcDbSymbolTableRecord
100
AcDbBlockTableRecord
  2
*D7
340
0
  0
BLOCK_RECORD
  5
1958E
330
7466
100
AcDbSymbolTableRecord
100
AcDbBlockTableRecord
  2
*D8
340
0
  0
BLOCK_RECORD
  5
1959A
330
7466
100
AcDbSymbolTableRecord
100
AcDbBlockTableRecord
  2
*D9
340
0
  0
BLOCK_RECORD
  5
195A8
330
7466
100
AcDbSymbolTableRecord
100
AcDbBlockTableRecord
  2
*D10
340
0
  0
BLOCK_RECORD
  5
195B6
330
7466
100
AcDbSymbolTableRecord
100
AcDbBlockTableRecord
  2
*D11
340
0
  0
BLOCK_RECORD
  5
195C4
330
7466
100
AcDbSymbolTableRecord
100
AcDbBlockTableRecord
  2
*D12
340
0
  0
BLOCK_RECORD
  5
195D0
330
7466
100
AcDbSymbolTableRecord
100
AcDbBlockTableRecord
  2
*D13
340
0
  0
BLOCK_RECORD
  5
195DC
330
7466
100
AcDbSymbolTableRecord
100
AcDbBlockTableRecord
  2
*D14
340
0
  0
BLOCK_RECORD
  5
195E8
330
7466
100
AcDbSymbolTableRecord
100
AcDbBlockTableRecord
  2
*D15
340
0
  0
BLOCK_RECORD
  5
195F5
330
7466
100
AcDbSymbolTableRecord
100
AcDbBlockTableRecord
  2
*D16
340
0
  0
BLOCK_RECORD
  5
19603
330
7466
100
AcDbSymbolTableRecord
100
AcDbBlockTableRecord
  2
*D17
340
0
  0
BLOCK_RECORD
  5
19610
330
7466
100
AcDbSymbolTableRecord
100
AcDbBlockTableRecord
  2
*D18
340
0
  0
BLOCK_RECORD
  5
1961C
330
7466
100
AcDbSymbolTableRecord
100
AcDbBlockTableRecord
  2
*D19
340
0
  0
BLOCK_RECORD
  5
19629
330
7466
100
AcDbSymbolTableRecord
100
AcDbBlockTableRecord
  2
*D20
340
0
  0
BLOCK_RECORD
  5
19635
330
7466
100
AcDbSymbolTableRecord
100
AcDbBlockTableRecord
  2
*D21
340
0
  0
BLOCK_RECORD
  5
19641
330
7466
100
AcDbSymbolTableRecord
100
AcDbBlockTableRecord
  2
*D22
340
0
  0
BLOCK_RECORD
  5
1964F
330
7466
100
AcDbSymbolTableRecord
100
AcDbBlockTableRecord
  2
*D23
340
0
  0
BLOCK_RECORD
  5
19676
330
7466
100
AcDbSymbolTableRecord
100
AcDbBlockTableRecord
  2
*D24
340
0
  0
BLOCK_RECORD
  5
19682
330
7466
100
AcDbSymbolTableRecord
100
AcDbBlockTableRecord
  2
*D25
340
0
  0
BLOCK_RECORD
  5
1968E
330
7466
100
AcDbSymbolTableRecord
100
AcDbBlockTableRecord
  2
*D26
340
0
  0
BLOCK_RECORD
  5
1969A
330
7466
100
AcDbSymbolTableRecord
100
AcDbBlockTableRecord
  2
*D27
340
0
  0
BLOCK_RECORD
  5
196A6
330
7466
100
AcDbSymbolTableRecord
100
AcDbBlockTableRecord
  2
*D28
340
0
  0
BLOCK_RECORD
  5
196B2
330
7466
100
AcDbSymbolTableRecord
100
AcDbBlockTableRecord
  2
*D29
340
0
  0
BLOCK_RECORD
  5
196C0
330
7466
100
AcDbSymbolTableRecord
100
AcDbBlockTableRecord
  2
*D30
340
0
  0
BLOCK_RECORD
  5
19E04
330
7466
100
AcDbSymbolTableRecord
100
AcDbBlockTableRecord
  2
*D31
340
0
  0
BLOCK_RECORD
  5
1A149
330
7466
100
AcDbSymbolTableRecord
100
AcDbBlockTableRecord
  2
*D32
340
0
  0
BLOCK_RECORD
  5
1A157
330
7466
100
AcDbSymbolTableRecord
100
AcDbBlockTableRecord
  2
*D33
340
0
  0
BLOCK_RECORD
  5
1A1D5
330
7466
100
AcDbSymbolTableRecord
100
AcDbBlockTableRecord
  2
*D34
340
0
  0
ENDTAB
  0
ENDSEC
  0
SECTION
  2
BLOCKS
  0
BLOCK
  5
7489
330
747D
100
AcDbEntity
  8
0
100
AcDbBlockBegin
  2
*MODEL_SPACE
 70
     0
 10
0.0
 20
0.0
 30
0.0
  3
*MODEL_SPACE
  1

  0
ENDBLK
  5
748A
330
747D
100
AcDbEntity
  8
0
100
AcDbBlockEnd
  0
BLOCK
  5
7487
330
747A
100
AcDbEntity
 67
     1
  8
0
100
AcDbBlockBegin
  2
*PAPER_SPACE
 70
     0
 10
0.0
 20
0.0
 30
0.0
  3
*PAPER_SPACE
  1

  0
ENDBLK
  5
7488
330
747A
100
AcDbEntity
 67
     1
  8
0
100
AcDbBlockEnd
  0
BLOCK
  5
F771
330
F770
100
AcDbEntity
  8
0
 48
50.0
100
AcDbBlockBegin
  2
_DOTSMALL
 70
     0
 10
0.0
 20
0.0
 30
0.0
  3
_DOTSMALL
  1

  0
LWPOLYLINE
  5
F772
330
F770
100
AcDbEntity
  8
0
  6
ByBlock
 62
     0
 48
50.0
100
AcDbPolyline
 90
        2
 70
     1
 43
0.5
 10
-0.0625
 20
0.0
 42
1.0
 10
0.0625
 20
0.0
 42
1.0
  0
ENDBLK
  5
F776
330
F770
100
AcDbEntity
  8
0
 48
50.0
100
AcDbBlockEnd
  0
BLOCK
  5
18E1F
330
18E1E
100
AcDbEntity
  8
0
 48
50.0
100
AcDbBlockBegin
  2
_DOT
 70
     0
 10
0.0
 20
0.0
 30
0.0
  3
_DOT
  1

  0
LWPOLYLINE
  5
18E20
330
18E1E
100
AcDbEntity
  8
0
  6
ByBlock
 62
     0
 48
50.0
100
AcDbPolyline
 90
        2
 70
     1
 43
0.5
 10
-0.25
 20
0.0
 42
1.0
 10
0.25
 20
0.0
 42
1.0
  0
LINE
  5
18E21
330
18E1E
100
AcDbEntity
  8
0
  6
ByBlock
 62
     0
 48
50.0
100
AcDbLine
 10
-0.5
 20
0.0
 30
0.0
 11
-1.0
 21
0.0
 31
0.0
  0
ENDBLK
  5
18E22
330
18E1E
100
AcDbEntity
  8
0
 48
50.0
100
AcDbBlockEnd
  0
BLOCK
  5
19542
330
19538
100
AcDbEntity
  8
0
 48
50.0
100
AcDbBlockBegin
  2
*D2
 70
     1
 10
0.0
 20
0.0
 30
0.0
  3
*D2
  1

  0
LINE
  5
19C14
330
19538
100
AcDbEntity
  8
寸法
 62
     0
 48
50.0
370
    -2
100
AcDbLine
 10
11207.14505183166
 20
2336.621024879349
 30
0.0
 11
11938.35863081773
 21
2336.621024879348
 31
0.0
  0
LINE
  5
19C15
330
19538
100
AcDbEntity
  8
寸法
 62
     0
 48
50.0
370
    -2
100
AcDbLine
 10
11287.14505183167
 20
4656.621024879348
 30
0.0
 11
11938.35863081773
 21
4656.621024879348
 31
0.0
  0
LINE
  5
19C16
330
19538
100
AcDbEntity
  8
寸法
 62
     0
 48
50.0
370
    -2
100
AcDbLine
 10
11878.35863081773
 20
2336.621024879348
 30
0.0
 11
11878.35863081773
 21
4656.621024879348
 31
0.0
  0
INSERT
  5
19C17
330
19538
100
AcDbEntity
  8
寸法
 62
     0
 48
50.0
370
    -2
100
AcDbBlockReference
  2
_DOTSMALL
 10
11878.35863081773
 20
2336.621024879348
 30
0.0
 41
100.0
 42
100.0
 43
100.0
 50
270.0
  0
INSERT
  5
19C18
330
19538
100
AcDbEntity
  8
寸法
 62
     0
 48
50.0
370
    -2
100
AcDbBlockReference
  2
_DOTSMALL
 10
11878.35863081773
 20
4656.621024879348
 30
0.0
 41
100.0
 42
100.0
 43
100.0
 50
90.0
  0
MTEXT
  5
19C19
330
19538
100
AcDbEntity
  8
寸法
 62
     7
 48
50.0
100
AcDbMText
 10
11778.3468197941
 20
3496.621024879351
 30
0.0
 40
120.0
 41
0.0
 71
     5
 72
     1
  1
\A1;2320
  7
STYLE1
 11
0.0000000000000001
 21
1.0
 31
0.0
 73
     1
 44
1.0
1001
ACAD
1000
MTEXTBEGIN
1070
    73
1070
     1
1070
    44
1040
1.0
1070
    74
1070
     0
1000
MTEXTEND
  0
POINT
  5
19C1A
330
19538
100
AcDbEntity
  8
DEFPOINTS
 62
     0
 48
50.0
100
AcDbPoint
 10
11187.14505183166
 20
2336.621024879349
 30
0.0
  0
POINT
  5
19C1B
330
19538
100
AcDbEntity
  8
DEFPOINTS
 62
     0
 48
50.0
100
AcDbPoint
 10
11267.14505183167
 20
4656.621024879348
 30
0.0
  0
POINT
  5
19C1C
330
19538
100
AcDbEntity
  8
DEFPOINTS
 62
     0
 48
50.0
100
AcDbPoint
 10
11878.35863081773
 20
4656.621024879348
 30
0.0
  0
ENDBLK
  5
19543
330
19538
100
AcDbEntity
  8
0
 48
50.0
100
AcDbBlockEnd
  0
BLOCK
  5
19550
330
19544
100
AcDbEntity
  8
0
 48
50.0
100
AcDbBlockBegin
  2
*D3
 70
     1
 10
0.0
 20
0.0
 30
0.0
  3
*D3
  1

  0
LINE
  5
1A31D
330
19544
100
AcDbEntity
  8
寸法
 62
     0
 48
50.0
370
    -2
100
AcDbLine
 10
8137.145051831623
 20
9604.836388399371
 30
0.0
 11
8137.145051831623
 21
9944.836388399373
 31
0.0
  0
LINE
  5
1A31E
330
19544
100
AcDbEntity
  8
寸法
 62
     0
 48
50.0
370
    -2
100
AcDbLine
 10
8192.145051831657
 20
9604.836388399371
 30
0.0
 11
8192.145051831657
 21
9944.836388399373
 31
0.0
  0
LINE
  5
1A31F
330
19544
100
AcDbEntity
  8
寸法
 62
     0
 48
50.0
370
    -2
100
AcDbLine
 10
8192.145051831657
 20
9884.836388399371
 30
0.0
 11
8292.145051831656
 21
9884.836388399371
 31
0.0
  0
LINE
  5
1A320
330
19544
100
AcDbEntity
  8
寸法
 62
     0
 48
50.0
370
    -2
100
AcDbLine
 10
8137.145051831623
 20
9884.836388399371
 30
0.0
 11
7720.174489083145
 21
9884.836388399371
 31
0.0
  0
LINE
  5
1A321
330
19544
100
AcDbEntity
  8
寸法
 62
     0
 48
50.0
370
    -2
100
AcDbLine
 10
8192.145051831657
 20
9884.836388399371
 30
0.0
 11
8137.145051831623
 21
9884.836388399371
 31
0.0
  0
INSERT
  5
1A322
330
19544
100
AcDbEntity
  8
寸法
 62
     0
 48
50.0
370
    -2
100
AcDbBlockReference
  2
_DOTSMALL
 10
8192.145051831657
 20
9884.836388399371
 30
0.0
 41
100.0
 42
100.0
 43
100.0
 50
180.0
  0
INSERT
  5
1A323
330
19544
100
AcDbEntity
  8
寸法
 62
     0
 48
50.0
370
    -2
100
AcDbBlockReference
  2
_DOTSMALL
 10
8137.145051831623
 20
9884.836388399371
 30
0.0
 41
100.0
 42
100.0
 43
100.0
  0
MTEXT
  5
1A324
330
19544
100
AcDbEntity
  8
寸法
 62
     7
 48
50.0
100
AcDbMText
 10
7828.659770457384
 20
9984.836388399372
 30
0.0
 40
120.0
 41
0.0
 71
     5
 72
     1
  1
\A1;55
  7
STYLE1
 73
     1
 44
1.0
1001
ACAD
1000
MTEXTBEGIN
1070
    73
1070
     1
1070
    44
1040
1.0
1070
    74
1070
     0
1000
MTEXTEND
  0
POINT
  5
1A325
330
19544
100
AcDbEntity
  8
DEFPOINTS
 62
     0
 48
50.0
100
AcDbPoint
 10
8137.145051831623
 20
9584.836388399372
 30
0.0
  0
POINT
  5
1A326
330
19544
100
AcDbEntity
  8
DEFPOINTS
 62
     0
 48
50.0
100
AcDbPoint
 10
8192.145051831657
 20
9584.836388399372
 30
0.0
  0
POINT
  5
1A327
330
19544
100
AcDbEntity
  8
DEFPOINTS
 62
     0
 48
50.0
100
AcDbPoint
 10
8192.145051831657
 20
9884.836388399371
 30
0.0
  0
ENDBLK
  5
19551
330
19544
100
AcDbEntity
  8
0
 48
50.0
100
AcDbBlockEnd
  0
BLOCK
  5
1955C
330
19552
100
AcDbEntity
  8
0
 48
50.0
100
AcDbBlockBegin
  2
*D4
 70
     1
 10
0.0
 20
0.0
 30
0.0
  3
*D4
  1

  0
LINE
  5
1A314
330
19552
100
AcDbEntity
  8
寸法
 62
     0
 48
50.0
370
    -2
100
AcDbLine
 10
9670.286067983028
 20
9084.836388399542
 30
0.0
 11
9568.616199379038
 21
8705.399273170604
 31
0.0
  0
LINE
  5
1A315
330
19552
100
AcDbEntity
  8
寸法
 62
     0
 48
50.0
370
    -2
100
AcDbLine
 10
11153.28606798304
 20
9084.836388399535
 30
0.0
 11
11051.61619937905
 21
8705.399273170604
 31
0.0
  0
LINE
  5
1A316
330
19552
100
AcDbEntity
  8
寸法
 62
     0
 48
50.0
370
    -2
100
AcDbLine
 10
9584.693150924904
 20
8765.399273170604
 30
0.0
 11
11067.69315092492
 21
8765.399273170604
 31
0.0
  0
INSERT
  5
1A317
330
19552
100
AcDbEntity
  8
寸法
 62
     0
 48
50.0
370
    -2
100
AcDbBlockReference
  2
_DOTSMALL
 10
9584.693150924904
 20
8765.399273170604
 30
0.0
 41
100.0
 42
100.0
 43
100.0
 50
180.0
  0
INSERT
  5
1A318
330
19552
100
AcDbEntity
  8
寸法
 62
     0
 48
50.0
370
    -2
100
AcDbBlockReference
  2
_DOTSMALL
 10
11067.69315092492
 20
8765.399273170604
 30
0.0
 41
100.0
 42
100.0
 43
100.0
  0
MTEXT
  5
1A319
330
19552
100
AcDbEntity
  8
寸法
 62
     7
 48
50.0
100
AcDbMText
 10
10174.36780734441
 20
8865.399273170604
 30
0.0
 40
120.0
 41
0.0
 71
     5
 72
     1
  1
\A1;1483
  7
STYLE1
 73
     1
 44
1.0
1001
ACAD
1000
MTEXTBEGIN
1070
    73
1070
     1
1070
    44
1040
1.0
1070
    74
1070
     0
1000
MTEXTEND
  0
POINT
  5
1A31A
330
19552
100
AcDbEntity
  8
DEFPOINTS
 62
     0
 48
50.0
100
AcDbPoint
 10
9675.645051831649
 20
9104.836388399542
 30
0.0
  0
POINT
  5
1A31B
330
19552
100
AcDbEntity
  8
DEFPOINTS
 62
     0
 48
50.0
100
AcDbPoint
 10
11158.64505183166
 20
9104.836388399535
 30
0.0
  0
POINT
  5
1A31C
330
19552
100
AcDbEntity
  8
DEFPOINTS
 62
     0
 48
50.0
100
AcDbPoint
 10
11067.69315092492
 20
8765.399273170604
 30
0.0
  0
ENDBLK
  5
1955D
330
19552
100
AcDbEntity
  8
0
 48
50.0
100
AcDbBlockEnd
  0
BLOCK
  5
19574
330
1956A
100
AcDbEntity
  8
0
 48
50.0
100
AcDbBlockBegin
  2
*D5
 70
     1
 10
0.0
 20
0.0
 30
0.0
  3
*D5
  1

  0
LINE
  5
1A30B
330
1956A
100
AcDbEntity
  8
寸法
 62
     0
 48
50.0
370
    -2
100
AcDbLine
 10
8192.145051831657
 20
9604.836388399371
 30
0.0
 11
8192.145051831657
 21
9944.836388399419
 31
0.0
  0
LINE
  5
1A30C
330
1956A
100
AcDbEntity
  8
寸法
 62
     0
 48
50.0
370
    -2
100
AcDbLine
 10
11132.14505183166
 20
9604.836388399467
 30
0.0
 11
11132.14505183166
 21
9944.836388399419
 31
0.0
  0
LINE
  5
1A30D
330
1956A
100
AcDbEntity
  8
寸法
 62
     0
 48
50.0
370
    -2
100
AcDbLine
 10
8192.145051831657
 20
9884.836388399421
 30
0.0
 11
11132.14505183166
 21
9884.836388399421
 31
0.0
  0
INSERT
  5
1A30E
330
1956A
100
AcDbEntity
  8
寸法
 62
     0
 48
50.0
370
    -2
100
AcDbBlockReference
  2
_DOTSMALL
 10
8192.145051831657
 20
9884.836388399421
 30
0.0
 41
100.0
 42
100.0
 43
100.0
 50
180.0
  0
INSERT
  5
1A30F
330
1956A
100
AcDbEntity
  8
寸法
 62
     0
 48
50.0
370
    -2
100
AcDbBlockReference
  2
_DOTSMALL
 10
11132.14505183166
 20
9884.836388399421
 30
0.0
 41
100.0
 42
100.0
 43
100.0
  0
MTEXT
  5
1A310
330
1956A
100
AcDbEntity
  8
寸法
 62
     7
 48
50.0
100
AcDbMText
 10
9662.145051831657
 20
9984.848199423041
 30
0.0
 40
120.0
 41
0.0
 71
     5
 72
     1
  1
\A1;7X420=2940
  7
STYLE1
 73
     1
 44
1.0
1001
ACAD
1000
MTEXTBEGIN
1070
    73
1070
     1
1070
    44
1040
1.0
1070
    74
1070
     0
1000
MTEXTEND
  0
POINT
  5
1A311
330
1956A
100
AcDbEntity
  8
DEFPOINTS
 62
     0
 48
50.0
100
AcDbPoint
 10
8192.145051831657
 20
9584.836388399372
 30
0.0
  0
POINT
  5
1A312
330
1956A
100
AcDbEntity
  8
DEFPOINTS
 62
     0
 48
50.0
100
AcDbPoint
 10
11132.14505183166
 20
9584.836388399466
 30
0.0
  0
POINT
  5
1A313
330
1956A
100
AcDbEntity
  8
DEFPOINTS
 62
     0
 48
50.0
100
AcDbPoint
 10
11132.14505183166
 20
9884.836388399421
 30
0.0
  0
ENDBLK
  5
19575
330
1956A
100
AcDbEntity
  8
0
 48
50.0
100
AcDbBlockEnd
  0
BLOCK
  5
19580
330
19576
100
AcDbEntity
  8
0
 48
50.0
100
AcDbBlockBegin
  2
*D6
 70
     1
 10
0.0
 20
0.0
 30
0.0
  3
*D6
  1

  0
LINE
  5
1A302
330
19576
100
AcDbEntity
  8
寸法
 62
     0
 48
50.0
370
    -2
100
AcDbLine
 10
8160.286067982957
 20
9084.836388399486
 30
0.0
 11
8058.616199378983
 21
8705.399273170604
 31
0.0
  0
LINE
  5
1A303
330
19576
100
AcDbEntity
  8
寸法
 62
     0
 48
50.0
370
    -2
100
AcDbLine
 10
9643.286067983028
 20
9084.836388399478
 30
0.0
 11
9541.616199379054
 21
8705.399273170604
 31
0.0
  0
LINE
  5
1A304
330
19576
100
AcDbEntity
  8
寸法
 62
     0
 48
50.0
370
    -2
100
AcDbLine
 10
8074.693150924851
 20
8765.399273170604
 30
0.0
 11
9557.693150924924
 21
8765.399273170604
 31
0.0
  0
INSERT
  5
1A305
330
19576
100
AcDbEntity
  8
寸法
 62
     0
 48
50.0
370
    -2
100
AcDbBlockReference
  2
_DOTSMALL
 10
8074.693150924851
 20
8765.399273170604
 30
0.0
 41
100.0
 42
100.0
 43
100.0
 50
180.0
  0
INSERT
  5
1A306
330
19576
100
AcDbEntity
  8
寸法
 62
     0
 48
50.0
370
    -2
100
AcDbBlockReference
  2
_DOTSMALL
 10
9557.693150924924
 20
8765.399273170604
 30
0.0
 41
100.0
 42
100.0
 43
100.0
  0
MTEXT
  5
1A307
330
19576
100
AcDbEntity
  8
寸法
 62
     7
 48
50.0
100
AcDbMText
 10
8723.385543219135
 20
8865.399273170604
 30
0.0
 40
120.0
 41
0.0
 71
     5
 72
     1
  1
\A1;1483
  7
STYLE1
 73
     1
 44
1.0
1001
ACAD
1000
MTEXTBEGIN
1070
    73
1070
     1
1070
    44
1040
1.0
1070
    74
1070
     0
1000
MTEXTEND
  0
POINT
  5
1A308
330
19576
100
AcDbEntity
  8
DEFPOINTS
 62
     0
 48
50.0
100
AcDbPoint
 10
8165.64505183158
 20
9104.836388399483
 30
0.0
  0
POINT
  5
1A309
330
19576
100
AcDbEntity
  8
DEFPOINTS
 62
     0
 48
50.0
100
AcDbPoint
 10
9648.64505183165
 20
9104.836388399476
 30
0.0
  0
POINT
  5
1A30A
330
19576
100
AcDbEntity
  8
DEFPOINTS
 62
     0
 48
50.0
100
AcDbPoint
 10
9557.693150924924
 20
8765.399273170604
 30
0.0
  0
ENDBLK
  5
19581
330
19576
100
AcDbEntity
  8
0
 48
50.0
100
AcDbBlockEnd
  0
BLOCK
  5
1958C
330
19582
100
AcDbEntity
  8
0
 48
50.0
100
AcDbBlockBegin
  2
*D7
 70
     1
 10
0.0
 20
0.0
 30
0.0
  3
*D7
  1

  0
LINE
  5
1A2F9
330
19582
100
AcDbEntity
  8
寸法
 62
     0
 48
50.0
370
    -2
100
AcDbLine
 10
11207.14505183165
 20
9529.83638839947
 30
0.0
 11
11947.14505183164
 21
9529.83638839947
 31
0.0
  0
LINE
  5
1A2FA
330
19582
100
AcDbEntity
  8
寸法
 62
     0
 48
50.0
370
    -2
100
AcDbLine
 10
11207.14505183163
 20
7849.836388399456
 30
0.0
 11
11947.14505183164
 21
7849.836388399456
 31
0.0
  0
LINE
  5
1A2FB
330
19582
100
AcDbEntity
  8
寸法
 62
     0
 48
50.0
370
    -2
100
AcDbLine
 10
11887.14505183164
 20
9529.83638839947
 30
0.0
 11
11887.14505183164
 21
7849.836388399456
 31
0.0
  0
INSERT
  5
1A2FC
330
19582
100
AcDbEntity
  8
寸法
 62
     0
 48
50.0
370
    -2
100
AcDbBlockReference
  2
_DOTSMALL
 10
11887.14505183164
 20
9529.83638839947
 30
0.0
 41
100.0
 42
100.0
 43
100.0
 50
90.0
  0
INSERT
  5
1A2FD
330
19582
100
AcDbEntity
  8
寸法
 62
     0
 48
50.0
370
    -2
100
AcDbBlockReference
  2
_DOTSMALL
 10
11887.14505183164
 20
7849.836388399456
 30
0.0
 41
100.0
 42
100.0
 43
100.0
 50
270.0
  0
MTEXT
  5
1A2FE
330
19582
100
AcDbEntity
  8
寸法
 62
     7
 48
50.0
100
AcDbMText
 10
11787.13324080802
 20
8689.836388399463
 30
0.0
 40
120.0
 41
0.0
 71
     5
 72
     1
  1
\A1;4X420=1680
  7
STYLE1
 11
0.0000000000000001
 21
1.0
 31
0.0
 73
     1
 44
1.0
1001
ACAD
1000
MTEXTBEGIN
1070
    73
1070
     1
1070
    44
1040
1.0
1070
    74
1070
     0
1000
MTEXTEND
  0
POINT
  5
1A2FF
330
19582
100
AcDbEntity
  8
DEFPOINTS
 62
     0
 48
50.0
100
AcDbPoint
 10
11187.14505183165
 20
9529.83638839947
 30
0.0
  0
POINT
  5
1A300
330
19582
100
AcDbEntity
  8
DEFPOINTS
 62
     0
 48
50.0
100
AcDbPoint
 10
11187.14505183163
 20
7849.836388399456
 30
0.0
  0
POINT
  5
1A301
330
19582
100
AcDbEntity
  8
DEFPOINTS
 62
     0
 48
50.0
100
AcDbPoint
 10
11887.14505183164
 20
7849.836388399456
 30
0.0
  0
ENDBLK
  5
1958D
330
19582
100
AcDbEntity
  8
0
 48
50.0
100
AcDbBlockEnd
  0
BLOCK
  5
19598
330
1958E
100
AcDbEntity
  8
0
 48
50.0
100
AcDbBlockBegin
  2
*D8
 70
     1
 10
0.0
 20
0.0
 30
0.0
  3
*D8
  1

  0
LINE
  5
1A2F0
330
1958E
100
AcDbEntity
  8
寸法
 62
     0
 48
50.0
370
    -2
100
AcDbLine
 10
11207.14505183165
 20
9584.836388399466
 30
0.0
 11
12247.14505183165
 21
9584.836388399466
 31
0.0
  0
LINE
  5
1A2F1
330
1958E
100
AcDbEntity
  8
寸法
 62
     0
 48
50.0
370
    -2
100
AcDbLine
 10
11207.14505183163
 20
7794.836388399459
 30
0.0
 11
12247.14505183165
 21
7794.836388399459
 31
0.0
  0
LINE
  5
1A2F2
330
1958E
100
AcDbEntity
  8
寸法
 62
     0
 48
50.0
370
    -2
100
AcDbLine
 10
12187.14505183165
 20
9584.836388399466
 30
0.0
 11
12187.14505183165
 21
7794.836388399459
 31
0.0
  0
INSERT
  5
1A2F3
330
1958E
100
AcDbEntity
  8
寸法
 62
     0
 48
50.0
370
    -2
100
AcDbBlockReference
  2
_DOTSMALL
 10
12187.14505183165
 20
9584.836388399466
 30
0.0
 41
100.0
 42
100.0
 43
100.0
 50
90.0
  0
INSERT
  5
1A2F4
330
1958E
100
AcDbEntity
  8
寸法
 62
     0
 48
50.0
370
    -2
100
AcDbBlockReference
  2
_DOTSMALL
 10
12187.14505183165
 20
7794.836388399459
 30
0.0
 41
100.0
 42
100.0
 43
100.0
 50
270.0
  0
MTEXT
  5
1A2F5
330
1958E
100
AcDbEntity
  8
寸法
 62
     7
 48
50.0
100
AcDbMText
 10
12087.14505183164
 20
8689.836388399463
 30
0.0
 40
120.0
 41
0.0
 71
     5
 72
     1
  1
\A1;1790
  7
STYLE1
 11
0.0000000000000001
 21
1.0
 31
0.0
 73
     1
 44
1.0
1001
ACAD
1000
MTEXTBEGIN
1070
    73
1070
     1
1070
    44
1040
1.0
1070
    74
1070
     0
1000
MTEXTEND
  0
POINT
  5
1A2F6
330
1958E
100
AcDbEntity
  8
DEFPOINTS
 62
     0
 48
50.0
100
AcDbPoint
 10
11187.14505183165
 20
9584.836388399466
 30
0.0
  0
POINT
  5
1A2F7
330
1958E
100
AcDbEntity
  8
DEFPOINTS
 62
     0
 48
50.0
100
AcDbPoint
 10
11187.14505183163
 20
7794.836388399459
 30
0.0
  0
POINT
  5
1A2F8
330
1958E
100
AcDbEntity
  8
DEFPOINTS
 62
     0
 48
50.0
100
AcDbPoint
 10
12187.14505183165
 20
7794.836388399459
 30
0.0
  0
ENDBLK
  5
19599
330
1958E
100
AcDbEntity
  8
0
 48
50.0
100
AcDbBlockEnd
  0
BLOCK
  5
195A6
330
1959A
100
AcDbEntity
  8
0
 48
50.0
100
AcDbBlockBegin
  2
*D9
 70
     1
 10
0.0
 20
0.0
 30
0.0
  3
*D9
  1

  0
LINE
  5
1A2E5
330
1959A
100
AcDbEntity
  8
寸法
 62
     0
 48
50.0
370
    -2
100
AcDbLine
 10
11207.14505183163
 20
7849.836388399456
 30
0.0
 11
11947.14505183163
 21
7849.836388399456
 31
0.0
  0
LINE
  5
1A2E6
330
1959A
100
AcDbEntity
  8
寸法
 62
     0
 48
50.0
370
    -2
100
AcDbLine
 10
11207.14505183163
 20
7794.836388399459
 30
0.0
 11
11947.14505183163
 21
7794.836388399459
 31
0.0
  0
LINE
  5
1A2E7
330
1959A
100
AcDbEntity
  8
寸法
 62
     0
 48
50.0
370
    -2
100
AcDbLine
 10
11887.14505183163
 20
7849.836388399456
 30
0.0
 11
11887.14505183163
 21
7949.836388399456
 31
0.0
  0
LINE
  5
1A2E8
330
1959A
100
AcDbEntity
  8
寸法
 62
     0
 48
50.0
370
    -2
100
AcDbLine
 10
11887.14505183163
 20
7794.836388399459
 30
0.0
 11
11887.14505183163
 21
7377.865825650978
 31
0.0
  0
LINE
  5
1A2E9
330
1959A
100
AcDbEntity
  8
寸法
 62
     0
 48
50.0
370
    -2
100
AcDbLine
 10
11887.14505183163
 20
7849.836388399456
 30
0.0
 11
11887.14505183163
 21
7794.836388399459
 31
0.0
  0
INSERT
  5
1A2EA
330
1959A
100
AcDbEntity
  8
寸法
 62
     0
 48
50.0
370
    -2
100
AcDbBlockReference
  2
_DOTSMALL
 10
11887.14505183163
 20
7849.836388399456
 30
0.0
 41
100.0
 42
100.0
 43
100.0
 50
270.0
  0
INSERT
  5
1A2EB
330
1959A
100
AcDbEntity
  8
寸法
 62
     0
 48
50.0
370
    -2
100
AcDbBlockReference
  2
_DOTSMALL
 10
11887.14505183163
 20
7794.836388399459
 30
0.0
 41
100.0
 42
100.0
 43
100.0
 50
90.0
  0
MTEXT
  5
1A2EC
330
1959A
100
AcDbEntity
  8
寸法
 62
     7
 48
50.0
100
AcDbMText
 10
11787.14505183163
 20
7486.351107025218
 30
0.0
 40
120.0
 41
0.0
 71
     5
 72
     1
  1
\A1;55
  7
STYLE1
 11
0.0000000000000001
 21
1.0
 31
0.0
 73
     1
 44
1.0
1001
ACAD
1000
MTEXTBEGIN
1070
    73
1070
     1
1070
    44
1040
1.0
1070
    74
1070
     0
1000
MTEXTEND
  0
POINT
  5
1A2ED
330
1959A
100
AcDbEntity
  8
DEFPOINTS
 62
     0
 48
50.0
100
AcDbPoint
 10
11187.14505183163
 20
7849.836388399456
 30
0.0
  0
POINT
  5
1A2EE
330
1959A
100
AcDbEntity
  8
DEFPOINTS
 62
     0
 48
50.0
100
AcDbPoint
 10
11187.14505183163
 20
7794.836388399459
 30
0.0
  0
POINT
  5
1A2EF
330
1959A
100
AcDbEntity
  8
DEFPOINTS
 62
     0
 48
50.0
100
AcDbPoint
 10
11887.14505183163
 20
7794.836388399459
 30
0.0
  0
ENDBLK
  5
195A7
330
1959A
100
AcDbEntity
  8
0
 48
50.0
100
AcDbBlockEnd
  0
BLOCK
  5
195B4
330
195A8
100
AcDbEntity
  8
0
 48
50.0
100
AcDbBlockBegin
  2
*D10
 70
     1
 10
0.0
 20
0.0
 30
0.0
  3
*D10
  1

  0
LINE
  5
1A2DA
330
195A8
100
AcDbEntity
  8
寸法
 62
     0
 48
50.0
370
    -2
100
AcDbLine
 10
11207.14505183165
 20
9584.836388399466
 30
0.0
 11
11947.14505183166
 21
9584.836388399466
 31
0.0
  0
LINE
  5
1A2DB
330
195A8
100
AcDbEntity
  8
寸法
 62
     0
 48
50.0
370
    -2
100
AcDbLine
 10
11207.14505183165
 20
9529.83638839947
 30
0.0
 11
11947.14505183166
 21
9529.83638839947
 31
0.0
  0
LINE
  5
1A2DC
330
195A8
100
AcDbEntity
  8
寸法
 62
     0
 48
50.0
370
    -2
100
AcDbLine
 10
11887.14505183166
 20
9529.83638839947
 30
0.0
 11
11887.14505183166
 21
9429.83638839947
 31
0.0
  0
LINE
  5
1A2DD
330
195A8
100
AcDbEntity
  8
寸法
 62
     0
 48
50.0
370
    -2
100
AcDbLine
 10
11887.14505183166
 20
9584.836388399466
 30
0.0
 11
11887.14505183166
 21
10001.80695114794
 31
0.0
  0
LINE
  5
1A2DE
330
195A8
100
AcDbEntity
  8
寸法
 62
     0
 48
50.0
370
    -2
100
AcDbLine
 10
11887.14505183166
 20
9529.83638839947
 30
0.0
 11
11887.14505183166
 21
9584.836388399466
 31
0.0
  0
INSERT
  5
1A2DF
330
195A8
100
AcDbEntity
  8
寸法
 62
     0
 48
50.0
370
    -2
100
AcDbBlockReference
  2
_DOTSMALL
 10
11887.14505183166
 20
9529.83638839947
 30
0.0
 41
100.0
 42
100.0
 43
100.0
 50
90.0
  0
INSERT
  5
1A2E0
330
195A8
100
AcDbEntity
  8
寸法
 62
     0
 48
50.0
370
    -2
100
AcDbBlockReference
  2
_DOTSMALL
 10
11887.14505183166
 20
9584.836388399466
 30
0.0
 41
100.0
 42
100.0
 43
100.0
 50
270.0
  0
MTEXT
  5
1A2E1
330
195A8
100
AcDbEntity
  8
寸法
 62
     7
 48
50.0
100
AcDbMText
 10
11787.14505183166
 20
9893.321669773706
 30
0.0
 40
120.0
 41
0.0
 71
     5
 72
     1
  1
\A1;55
  7
STYLE1
 11
0.0000000000000001
 21
1.0
 31
0.0
 73
     1
 44
1.0
1001
ACAD
1000
MTEXTBEGIN
1070
    73
1070
     1
1070
    44
1040
1.0
1070
    74
1070
     0
1000
MTEXTEND
  0
POINT
  5
1A2E2
330
195A8
100
AcDbEntity
  8
DEFPOINTS
 62
     0
 48
50.0
100
AcDbPoint
 10
11187.14505183165
 20
9584.836388399466
 30
0.0
  0
POINT
  5
1A2E3
330
195A8
100
AcDbEntity
  8
DEFPOINTS
 62
     0
 48
50.0
100
AcDbPoint
 10
11187.14505183165
 20
9529.83638839947
 30
0.0
  0
POINT
  5
1A2E4
330
195A8
100
AcDbEntity
  8
DEFPOINTS
 62
     0
 48
50.0
100
AcDbPoint
 10
11887.14505183166
 20
9529.83638839947
 30
0.0
  0
ENDBLK
  5
195B5
330
195A8
100
AcDbEntity
  8
0
 48
50.0
100
AcDbBlockEnd
  0
BLOCK
  5
195C2
330
195B6
100
AcDbEntity
  8
0
 48
50.0
100
AcDbBlockBegin
  2
*D11
 70
     1
 10
0.0
 20
0.0
 30
0.0
  3
*D11
  1

  0
LINE
  5
1A2CF
330
195B6
100
AcDbEntity
  8
寸法
 62
     0
 48
50.0
370
    -2
100
AcDbLine
 10
11132.14505183166
 20
9604.836388399467
 30
0.0
 11
11132.14505183166
 21
9944.836388399465
 31
0.0
  0
LINE
  5
1A2D0
330
195B6
100
AcDbEntity
  8
寸法
 62
     0
 48
50.0
370
    -2
100
AcDbLine
 10
11187.14505183165
 20
9604.836388399467
 30
0.0
 11
11187.14505183165
 21
9944.836388399465
 31
0.0
  0
LINE
  5
1A2D1
330
195B6
100
AcDbEntity
  8
寸法
 62
     0
 48
50.0
370
    -2
100
AcDbLine
 10
11132.14505183166
 20
9884.836388399467
 30
0.0
 11
11032.14505183166
 21
9884.836388399467
 31
0.0
  0
LINE
  5
1A2D2
330
195B6
100
AcDbEntity
  8
寸法
 62
     0
 48
50.0
370
    -2
100
AcDbLine
 10
11187.14505183165
 20
9884.836388399467
 30
0.0
 11
11604.11561458013
 21
9884.836388399467
 31
0.0
  0
LINE
  5
1A2D3
330
195B6
100
AcDbEntity
  8
寸法
 62
     0
 48
50.0
370
    -2
100
AcDbLine
 10
11132.14505183166
 20
9884.836388399467
 30
0.0
 11
11187.14505183165
 21
9884.836388399467
 31
0.0
  0
INSERT
  5
1A2D4
330
195B6
100
AcDbEntity
  8
寸法
 62
     0
 48
50.0
370
    -2
100
AcDbBlockReference
  2
_DOTSMALL
 10
11132.14505183166
 20
9884.836388399467
 30
0.0
 41
100.0
 42
100.0
 43
100.0
  0
INSERT
  5
1A2D5
330
195B6
100
AcDbEntity
  8
寸法
 62
     0
 48
50.0
370
    -2
100
AcDbBlockReference
  2
_DOTSMALL
 10
11187.14505183165
 20
9884.836388399467
 30
0.0
 41
100.0
 42
100.0
 43
100.0
 50
180.0
  0
MTEXT
  5
1A2D6
330
195B6
100
AcDbEntity
  8
寸法
 62
     7
 48
50.0
100
AcDbMText
 10
11495.63033320589
 20
9984.836388399466
 30
0.0
 40
120.0
 41
0.0
 71
     5
 72
     1
  1
\A1;55
  7
STYLE1
 73
     1
 44
1.0
1001
ACAD
1000
MTEXTBEGIN
1070
    73
1070
     1
1070
    44
1040
1.0
1070
    74
1070
     0
1000
MTEXTEND
  0
POINT
  5
1A2D7
330
195B6
100
AcDbEntity
  8
DEFPOINTS
 62
     0
 48
50.0
100
AcDbPoint
 10
11132.14505183166
 20
9584.836388399466
 30
0.0
  0
POINT
  5
1A2D8
330
195B6
100
AcDbEntity
  8
DEFPOINTS
 62
     0
 48
50.0
100
AcDbPoint
 10
11187.14505183165
 20
9584.836388399466
 30
0.0
  0
POINT
  5
1A2D9
330
195B6
100
AcDbEntity
  8
DEFPOINTS
 62
     0
 48
50.0
100
AcDbPoint
 10
11187.14505183165
 20
9884.836388399467
 30
0.0
  0
ENDBLK
  5
195C3
330
195B6
100
AcDbEntity
  8
0
 48
50.0
100
AcDbBlockEnd
  0
BLOCK
  5
195CE
330
195C4
100
AcDbEntity
  8
0
 48
50.0
100
AcDbBlockBegin
  2
*D12
 70
     1
 10
0.0
 20
0.0
 30
0.0
  3
*D12
  1

  0
LINE
  5
1A2C6
330
195C4
100
AcDbEntity
  8
寸法
 62
     0
 48
50.0
370
    -2
100
AcDbLine
 10
11178.64505183166
 20
9549.477404550843
 30
0.0
 11
11647.14505183165
 21
9423.943207896865
 31
0.0
  0
LINE
  5
1A2C7
330
195C4
100
AcDbEntity
  8
寸法
 62
     0
 48
50.0
370
    -2
100
AcDbLine
 10
11178.64505183166
 20
9099.477404550848
 30
0.0
 11
11647.14505183165
 21
8973.943207896867
 31
0.0
  0
LINE
  5
1A2C8
330
195C4
100
AcDbEntity
  8
寸法
 62
     0
 48
50.0
370
    -2
100
AcDbLine
 10
11587.14505183165
 20
9440.020159442731
 30
0.0
 11
11587.14505183165
 21
8990.020159442734
 31
0.0
  0
INSERT
  5
1A2C9
330
195C4
100
AcDbEntity
  8
寸法
 62
     0
 48
50.0
370
    -2
100
AcDbBlockReference
  2
_DOTSMALL
 10
11587.14505183165
 20
9440.020159442731
 30
0.0
 41
100.0
 42
100.0
 43
100.0
 50
90.0
  0
INSERT
  5
1A2CA
330
195C4
100
AcDbEntity
  8
寸法
 62
     0
 48
50.0
370
    -2
100
AcDbBlockReference
  2
_DOTSMALL
 10
11587.14505183165
 20
8990.020159442734
 30
0.0
 41
100.0
 42
100.0
 43
100.0
 50
270.0
  0
MTEXT
  5
1A2CB
330
195C4
100
AcDbEntity
  8
寸法
 62
     7
 48
50.0
100
AcDbMText
 10
11487.14505183165
 20
9215.020159442733
 30
0.0
 40
120.0
 41
0.0
 71
     5
 72
     1
  1
\A1;450
  7
STYLE1
 11
0.0000000000000001
 21
1.0
 31
0.0
 73
     1
 44
1.0
1001
ACAD
1000
MTEXTBEGIN
1070
    73
1070
     1
1070
    44
1040
1.0
1070
    74
1070
     0
1000
MTEXTEND
  0
POINT
  5
1A2CC
330
195C4
100
AcDbEntity
  8
DEFPOINTS
 62
     0
 48
50.0
100
AcDbPoint
 10
11158.64505183166
 20
9554.836388399467
 30
0.0
  0
POINT
  5
1A2CD
330
195C4
100
AcDbEntity
  8
DEFPOINTS
 62
     0
 48
50.0
100
AcDbPoint
 10
11158.64505183166
 20
9104.836388399469
 30
0.0
  0
POINT
  5
1A2CE
330
195C4
100
AcDbEntity
  8
DEFPOINTS
 62
     0
 48
50.0
100
AcDbPoint
 10
11587.14505183165
 20
8990.020159442734
 30
0.0
  0
ENDBLK
  5
195CF
330
195C4
100
AcDbEntity
  8
0
 48
50.0
100
AcDbBlockEnd
  0
BLOCK
  5
195DA
330
195D0
100
AcDbEntity
  8
0
 48
50.0
100
AcDbBlockBegin
  2
*D13
 70
     1
 10
0.0
 20
0.0
 30
0.0
  3
*D13
  1

  0
LINE
  5
19BA0
330
195D0
100
AcDbEntity
  8
寸法
 62
     0
 48
50.0
370
    -2
100
AcDbLine
 10
11187.14505183166
 20
4678.431704491007
 30
0.0
 11
11187.14505183166
 21
5170.278478458659
 31
0.0
  0
LINE
  5
19BA1
330
195D0
100
AcDbEntity
  8
寸法
 62
     0
 48
50.0
370
    -2
100
AcDbLine
 10
8137.145051831664
 20
4727.622643002329
 30
0.0
 11
8137.145051831664
 21
5170.278478458659
 31
0.0
  0
LINE
  5
19BA2
330
195D0
100
AcDbEntity
  8
寸法
 62
     0
 48
50.0
370
    -2
100
AcDbLine
 10
11187.14505183166
 20
5110.278478458658
 30
0.0
 11
8137.145051831664
 21
5110.278478458658
 31
0.0
  0
INSERT
  5
19BA3
330
195D0
100
AcDbEntity
  8
寸法
 62
     0
 48
50.0
370
    -2
100
AcDbBlockReference
  2
_DOTSMALL
 10
11187.14505183166
 20
5110.278478458658
 30
0.0
 41
100.0
 42
100.0
 43
100.0
  0
INSERT
  5
19BA4
330
195D0
100
AcDbEntity
  8
寸法
 62
     0
 48
50.0
370
    -2
100
AcDbBlockReference
  2
_DOTSMALL
 10
8137.145051831664
 20
5110.278478458658
 30
0.0
 41
100.0
 42
100.0
 43
100.0
 50
180.0
  0
MTEXT
  5
19BA5
330
195D0
100
AcDbEntity
  8
寸法
 62
     7
 48
50.0
100
AcDbMText
 10
9707.203426391075
 20
5210.278478458658
 30
0.0
 40
120.0
 41
0.0
 71
     5
 72
     1
  1
\A1;柱外寸法3050
  7
STYLE1
 73
     1
 44
1.0
1001
ACAD
1000
MTEXTBEGIN
1070
    73
1070
     1
1070
    44
1040
1.0
1070
    74
1070
     0
1000
MTEXTEND
  0
POINT
  5
19BA6
330
195D0
100
AcDbEntity
  8
DEFPOINTS
 62
     0
 48
50.0
100
AcDbPoint
 10
11187.14505183166
 20
4658.431704491007
 30
0.0
  0
POINT
  5
19BA7
330
195D0
100
AcDbEntity
  8
DEFPOINTS
 62
     0
 48
50.0
100
AcDbPoint
 10
8137.145051831664
 20
4707.622643002329
 30
0.0
  0
POINT
  5
19BA8
330
195D0
100
AcDbEntity
  8
DEFPOINTS
 62
     0
 48
50.0
100
AcDbPoint
 10
8137.145051831664
 20
5110.278478458658
 30
0.0
  0
ENDBLK
  5
195DB
330
195D0
100
AcDbEntity
  8
0
 48
50.0
100
AcDbBlockEnd
  0
BLOCK
  5
195E6
330
195DC
100
AcDbEntity
  8
0
 48
50.0
100
AcDbBlockBegin
  2
*D14
 70
     1
 10
0.0
 20
0.0
 30
0.0
  3
*D14
  1

  0
LINE
  5
19B97
330
195DC
100
AcDbEntity
  8
寸法
 62
     0
 48
50.0
370
    -2
100
AcDbLine
 10
11267.14505183166
 20
4676.621024879354
 30
0.0
 11
11267.14505183166
 21
5400.392071244934
 31
0.0
  0
LINE
  5
19B98
330
195DC
100
AcDbEntity
  8
寸法
 62
     0
 48
50.0
370
    -2
100
AcDbLine
 10
8077.145051831664
 20
4731.621024879356
 30
0.0
 11
8077.145051831664
 21
5400.392071244934
 31
0.0
  0
LINE
  5
19B99
330
195DC
100
AcDbEntity
  8
寸法
 62
     0
 48
50.0
370
    -2
100
AcDbLine
 10
11267.14505183166
 20
5340.392071244934
 30
0.0
 11
8077.145051831664
 21
5340.392071244934
 31
0.0
  0
INSERT
  5
19B9A
330
195DC
100
AcDbEntity
  8
寸法
 62
     0
 48
50.0
370
    -2
100
AcDbBlockReference
  2
_DOTSMALL
 10
11267.14505183166
 20
5340.392071244934
 30
0.0
 41
100.0
 42
100.0
 43
100.0
  0
INSERT
  5
19B9B
330
195DC
100
AcDbEntity
  8
寸法
 62
     0
 48
50.0
370
    -2
100
AcDbBlockReference
  2
_DOTSMALL
 10
8077.145051831664
 20
5340.392071244934
 30
0.0
 41
100.0
 42
100.0
 43
100.0
 50
180.0
  0
MTEXT
  5
19B9C
330
195DC
100
AcDbEntity
  8
寸法
 62
     7
 48
50.0
100
AcDbMText
 10
9748.850858141189
 20
5440.392071244935
 30
0.0
 40
120.0
 41
0.0
 71
     5
 72
     1
  1
\A1;3190
  7
STYLE1
 73
     1
 44
1.0
1001
ACAD
1000
MTEXTBEGIN
1070
    73
1070
     1
1070
    44
1040
1.0
1070
    74
1070
     0
1000
MTEXTEND
  0
POINT
  5
19B9D
330
195DC
100
AcDbEntity
  8
DEFPOINTS
 62
     0
 48
50.0
100
AcDbPoint
 10
11267.14505183166
 20
4656.621024879354
 30
0.0
  0
POINT
  5
19B9E
330
195DC
100
AcDbEntity
  8
DEFPOINTS
 62
     0
 48
50.0
100
AcDbPoint
 10
8077.145051831664
 20
4711.621024879357
 30
0.0
  0
POINT
  5
19B9F
330
195DC
100
AcDbEntity
  8
DEFPOINTS
 62
     0
 48
50.0
100
AcDbPoint
 10
8077.145051831664
 20
5340.392071244934
 30
0.0
  0
ENDBLK
  5
195E7
330
195DC
100
AcDbEntity
  8
0
 48
50.0
100
AcDbBlockEnd
  0
BLOCK
  5
195F3
330
195E8
100
AcDbEntity
  8
0
 48
50.0
100
AcDbBlockBegin
  2
*D15
 70
     1
 10
0.0
 20
0.0
 30
0.0
  3
*D15
  1

  0
LINE
  5
19B8D
330
195E8
100
AcDbEntity
  8
寸法
 62
     0
 48
50.0
370
    -2
100
AcDbLine
 10
11187.14505183166
 20
4678.431704491007
 30
0.0
 11
11187.14505183166
 21
5170.278478458659
 31
0.0
  0
LINE
  5
19B8E
330
195E8
100
AcDbEntity
  8
寸法
 62
     0
 48
50.0
370
    -2
100
AcDbLine
 10
11267.14505183166
 20
4676.621024879356
 30
0.0
 11
11267.14505183166
 21
5170.278478458659
 31
0.0
  0
LINE
  5
19B8F
330
195E8
100
AcDbEntity
  8
寸法
 62
     0
 48
50.0
370
    -2
100
AcDbLine
 10
11187.14505183166
 20
5110.278478458658
 30
0.0
 11
11267.14505183166
 21
5110.278478458658
 31
0.0
  0
LINE
  5
19B90
330
195E8
100
AcDbEntity
  8
寸法
 62
     0
 48
50.0
370
    -2
100
AcDbLine
 10
11267.14505183166
 20
5110.278478458658
 30
0.0
 11
11579.23954002064
 21
5110.278478458658
 31
0.0
  0
INSERT
  5
19B91
330
195E8
100
AcDbEntity
  8
寸法
 62
     0
 48
50.0
370
    -2
100
AcDbBlockReference
  2
_DOTSMALL
 10
11187.14505183166
 20
5110.278478458658
 30
0.0
 41
100.0
 42
100.0
 43
100.0
 50
180.0
  0
INSERT
  5
19B92
330
195E8
100
AcDbEntity
  8
寸法
 62
     0
 48
50.0
370
    -2
100
AcDbBlockReference
  2
_DOTSMALL
 10
11267.14505183166
 20
5110.278478458658
 30
0.0
 41
100.0
 42
100.0
 43
100.0
  0
MTEXT
  5
19B93
330
195E8
100
AcDbEntity
  8
寸法
 62
     7
 48
50.0
100
AcDbMText
 10
11473.19229592615
 20
5210.278478458658
 30
0.0
 40
120.0
 41
0.0
 71
     5
 72
     1
  1
\A1;80
  7
STYLE1
 73
     1
 44
1.0
1001
ACAD
1000
MTEXTBEGIN
1070
    73
1070
     1
1070
    44
1040
1.0
1070
    74
1070
     0
1000
MTEXTEND
  0
POINT
  5
19B94
330
195E8
100
AcDbEntity
  8
DEFPOINTS
 62
     0
 48
50.0
100
AcDbPoint
 10
11187.14505183166
 20
4658.431704491007
 30
0.0
  0
POINT
  5
19B95
330
195E8
100
AcDbEntity
  8
DEFPOINTS
 62
     0
 48
50.0
100
AcDbPoint
 10
11267.14505183166
 20
4656.621024879355
 30
0.0
  0
POINT
  5
19B96
330
195E8
100
AcDbEntity
  8
DEFPOINTS
 62
     0
 48
50.0
100
AcDbPoint
 10
11267.14505183166
 20
5110.278478458658
 30
0.0
  0
ENDBLK
  5
195F4
330
195E8
100
AcDbEntity
  8
0
 48
50.0
100
AcDbBlockEnd
  0
BLOCK
  5
19601
330
195F5
100
AcDbEntity
  8
0
 48
50.0
100
AcDbBlockBegin
  2
*D16
 70
     1
 10
0.0
 20
0.0
 30
0.0
  3
*D16
  1

  0
LINE
  5
19B82
330
195F5
100
AcDbEntity
  8
寸法
 62
     0
 48
50.0
370
    -2
100
AcDbLine
 10
8137.145051831664
 20
4727.622643002329
 30
0.0
 11
8137.145051831664
 21
5170.278478458657
 31
0.0
  0
LINE
  5
19B83
330
195F5
100
AcDbEntity
  8
寸法
 62
     0
 48
50.0
370
    -2
100
AcDbLine
 10
8077.145051831664
 20
4731.621024879356
 30
0.0
 11
8077.145051831664
 21
5170.278478458657
 31
0.0
  0
LINE
  5
19B84
330
195F5
100
AcDbEntity
  8
寸法
 62
     0
 48
50.0
370
    -2
100
AcDbLine
 10
8137.145051831664
 20
5110.278478458656
 30
0.0
 11
8237.145051831664
 21
5110.278478458656
 31
0.0
  0
LINE
  5
19B85
330
195F5
100
AcDbEntity
  8
寸法
 62
     0
 48
50.0
370
    -2
100
AcDbLine
 10
8077.145051831664
 20
5110.278478458656
 30
0.0
 11
7657.869461280482
 21
5110.278478458656
 31
0.0
  0
LINE
  5
19B86
330
195F5
100
AcDbEntity
  8
寸法
 62
     0
 48
50.0
370
    -2
100
AcDbLine
 10
8137.145051831664
 20
5110.278478458656
 30
0.0
 11
8077.145051831664
 21
5110.278478458656
 31
0.0
  0
INSERT
  5
19B87
330
195F5
100
AcDbEntity
  8
寸法
 62
     0
 48
50.0
370
    -2
100
AcDbBlockReference
  2
_DOTSMALL
 10
8137.145051831664
 20
5110.278478458656
 30
0.0
 41
100.0
 42
100.0
 43
100.0
 50
180.0
  0
INSERT
  5
19B88
330
195F5
100
AcDbEntity
  8
寸法
 62
     0
 48
50.0
370
    -2
100
AcDbBlockReference
  2
_DOTSMALL
 10
8077.145051831664
 20
5110.278478458656
 30
0.0
 41
100.0
 42
100.0
 43
100.0
  0
MTEXT
  5
19B89
330
195F5
100
AcDbEntity
  8
寸法
 62
     7
 48
50.0
100
AcDbMText
 10
7767.507256556074
 20
5210.278478458657
 30
0.0
 40
120.0
 41
0.0
 71
     5
 72
     1
  1
\A1;60
  7
STYLE1
 73
     1
 44
1.0
1001
ACAD
1000
MTEXTBEGIN
1070
    73
1070
     1
1070
    44
1040
1.0
1070
    74
1070
     0
1000
MTEXTEND
  0
POINT
  5
19B8A
330
195F5
100
AcDbEntity
  8
DEFPOINTS
 62
     0
 48
50.0
100
AcDbPoint
 10
8137.145051831664
 20
4707.622643002329
 30
0.0
  0
POINT
  5
19B8B
330
195F5
100
AcDbEntity
  8
DEFPOINTS
 62
     0
 48
50.0
100
AcDbPoint
 10
8077.145051831664
 20
4711.621024879357
 30
0.0
  0
POINT
  5
19B8C
330
195F5
100
AcDbEntity
  8
DEFPOINTS
 62
     0
 48
50.0
100
AcDbPoint
 10
8077.145051831664
 20
5110.278478458656
 30
0.0
  0
ENDBLK
  5
19602
330
195F5
100
AcDbEntity
  8
0
 48
50.0
100
AcDbBlockEnd
  0
BLOCK
  5
1960E
330
19603
100
AcDbEntity
  8
0
 48
50.0
100
AcDbBlockBegin
  2
*D17
 70
     1
 10
0.0
 20
0.0
 30
0.0
  3
*D17
  1

  0
LINE
  5
19B78
330
19603
100
AcDbEntity
  8
寸法
 62
     0
 48
50.0
370
    -2
100
AcDbLine
 10
8076.549338122765
 20
4710.918731949013
 30
0.0
 11
7460.614899017485
 21
4728.632882223343
 31
0.0
  0
LINE
  5
19B79
330
19603
100
AcDbEntity
  8
寸法
 62
     0
 48
50.0
370
    -2
100
AcDbLine
 10
8072.495882566139
 20
4569.977008183302
 30
0.0
 11
7456.56144346086
 21
4587.691158457632
 31
0.0
  0
LINE
  5
19B7A
330
19603
100
AcDbEntity
  8
寸法
 62
     0
 48
50.0
370
    -2
100
AcDbLine
 10
7516.536645063291
 20
4585.966283752684
 30
0.0
 11
7520.590100619917
 21
4726.908007518395
 31
0.0
  0
LINE
  5
19B7B
330
19603
100
AcDbEntity
  8
寸法
 62
     0
 48
50.0
370
    -2
100
AcDbLine
 10
7520.590100619917
 20
4726.908007518395
 30
0.0
 11
7530.939348849603
 21
5086.759217132982
 31
0.0
  0
INSERT
  5
19B7C
330
19603
100
AcDbEntity
  8
寸法
 62
     0
 48
50.0
370
    -2
100
AcDbBlockReference
  2
_DOTSMALL
 10
7516.536645063291
 20
4585.966283752684
 30
0.0
 41
100.0
 42
100.0
 43
100.0
 50
268.3526390256378
  0
INSERT
  5
19B7D
330
19603
100
AcDbEntity
  8
寸法
 62
     0
 48
50.0
370
    -2
100
AcDbBlockReference
  2
_DOTSMALL
 10
7520.590100619917
 20
4726.908007518395
 30
0.0
 41
100.0
 42
100.0
 43
100.0
 50
88.35263902563776
  0
MTEXT
  5
19B7E
330
19603
100
AcDbEntity
  8
寸法
 62
     7
 48
50.0
100
AcDbMText
 10
7427.243450984831
 20
4959.687738169295
 30
0.0
 40
120.0
 41
0.0
 71
     5
 72
     1
  1
\A1;141
  7
STYLE1
 11
0.0287479117491237
 21
0.9995866933738488
 31
0.0
 73
     1
 44
1.0
1001
ACAD
1000
MTEXTBEGIN
1070
    73
1070
     1
1070
    44
1040
1.0
1070
    74
1070
     0
1000
MTEXTEND
  0
POINT
  5
19B7F
330
19603
100
AcDbEntity
  8
DEFPOINTS
 62
     0
 48
50.0
100
AcDbPoint
 10
8096.541071990243
 20
4710.343773714031
 30
0.0
  0
POINT
  5
19B80
330
19603
100
AcDbEntity
  8
DEFPOINTS
 62
     0
 48
50.0
100
AcDbPoint
 10
8092.487616433615
 20
4569.402049948319
 30
0.0
  0
POINT
  5
19B81
330
19603
100
AcDbEntity
  8
DEFPOINTS
 62
     0
 48
50.0
100
AcDbPoint
 10
7516.536645063291
 20
4585.966283752684
 30
0.0
  0
ENDBLK
  5
1960F
330
19603
100
AcDbEntity
  8
0
 48
50.0
100
AcDbBlockEnd
  0
BLOCK
  5
1961A
330
19610
100
AcDbEntity
  8
0
 48
50.0
100
AcDbBlockBegin
  2
*D18
 70
     1
 10
0.0
 20
0.0
 30
0.0
  3
*D18
  1

  0
LINE
  5
19B6F
330
19610
100
AcDbEntity
  8
寸法
 62
     0
 48
50.0
370
    -2
100
AcDbLine
 10
8565.145051831665
 20
4419.62102487935
 30
0.0
 11
7784.672362252274
 21
4419.62102487935
 31
0.0
  0
LINE
  5
19B70
330
19610
100
AcDbEntity
  8
寸法
 62
     0
 48
50.0
370
    -2
100
AcDbLine
 10
8565.145051831665
 20
2394.621024879349
 30
0.0
 11
7784.672362252274
 21
2394.621024879349
 31
0.0
  0
LINE
  5
19B71
330
19610
100
AcDbEntity
  8
寸法
 62
     0
 48
50.0
370
    -2
100
AcDbLine
 10
7844.672362252274
 20
4419.62102487935
 30
0.0
 11
7844.672362252274
 21
2394.621024879349
 31
0.0
  0
INSERT
  5
19B72
330
19610
100
AcDbEntity
  8
寸法
 62
     0
 48
50.0
370
    -2
100
AcDbBlockReference
  2
_DOTSMALL
 10
7844.672362252274
 20
4419.62102487935
 30
0.0
 41
100.0
 42
100.0
 43
100.0
 50
90.0
  0
INSERT
  5
19B73
330
19610
100
AcDbEntity
  8
寸法
 62
     0
 48
50.0
370
    -2
100
AcDbBlockReference
  2
_DOTSMALL
 10
7844.672362252274
 20
2394.621024879349
 30
0.0
 41
100.0
 42
100.0
 43
100.0
 50
270.0
  0
MTEXT
  5
19B74
330
19610
100
AcDbEntity
  8
寸法
 62
     7
 48
50.0
100
AcDbMText
 10
7744.660551228651
 20
3407.121024879349
 30
0.0
 40
120.0
 41
0.0
 71
     5
 72
     1
  1
\A1;有効開口部高サ2025
  7
STYLE1
 11
0.0000000000000001
 21
1.0
 31
0.0
 73
     1
 44
1.0
1001
ACAD
1000
MTEXTBEGIN
1070
    73
1070
     1
1070
    44
1040
1.0
1070
    74
1070
     0
1000
MTEXTEND
  0
POINT
  5
19B75
330
19610
100
AcDbEntity
  8
DEFPOINTS
 62
     0
 48
50.0
100
AcDbPoint
 10
8585.145051831664
 20
4419.62102487935
 30
0.0
  0
POINT
  5
19B76
330
19610
100
AcDbEntity
  8
DEFPOINTS
 62
     0
 48
50.0
100
AcDbPoint
 10
8585.145051831664
 20
2394.621024879349
 30
0.0
  0
POINT
  5
19B77
330
19610
100
AcDbEntity
  8
DEFPOINTS
 62
     0
 48
50.0
100
AcDbPoint
 10
7844.672362252274
 20
2394.621024879349
 30
0.0
  0
ENDBLK
  5
1961B
330
19610
100
AcDbEntity
  8
0
 48
50.0
100
AcDbBlockEnd
  0
BLOCK
  5
19627
330
1961C
100
AcDbEntity
  8
0
 48
50.0
100
AcDbBlockBegin
  2
*D19
 70
     1
 10
0.0
 20
0.0
 30
0.0
  3
*D19
  1

  0
LINE
  5
19B65
330
1961C
100
AcDbEntity
  8
寸法
 62
     0
 48
50.0
370
    -2
100
AcDbLine
 10
8076.549338122765
 20
4710.918731949011
 30
0.0
 11
7460.614899017489
 21
4728.632882223339
 31
0.0
  0
LINE
  5
19B66
330
1961C
100
AcDbEntity
  8
寸法
 62
     0
 48
50.0
370
    -2
100
AcDbLine
 10
8072.495882566139
 20
4569.977008183297
 30
0.0
 11
7456.561443460862
 21
4587.691158457626
 31
0.0
  0
LINE
  5
19B67
330
1961C
100
AcDbEntity
  8
寸法
 62
     0
 48
50.0
370
    -2
100
AcDbLine
 10
7516.536645063293
 20
4585.966283752678
 30
0.0
 11
7520.590100619919
 21
4726.908007518392
 31
0.0
  0
LINE
  5
19B68
330
1961C
100
AcDbEntity
  8
寸法
 62
     0
 48
50.0
370
    -2
100
AcDbLine
 10
7520.590100619919
 20
4726.908007518392
 30
0.0
 11
7530.939348849604
 21
5086.759217132982
 31
0.0
  0
INSERT
  5
19B69
330
1961C
100
AcDbEntity
  8
寸法
 62
     0
 48
50.0
370
    -2
100
AcDbBlockReference
  2
_DOTSMALL
 10
7516.536645063293
 20
4585.966283752678
 30
0.0
 41
100.0
 42
100.0
 43
100.0
 50
268.3526390256379
  0
INSERT
  5
19B6A
330
1961C
100
AcDbEntity
  8
寸法
 62
     0
 48
50.0
370
    -2
100
AcDbBlockReference
  2
_DOTSMALL
 10
7520.590100619919
 20
4726.908007518392
 30
0.0
 41
100.0
 42
100.0
 43
100.0
 50
88.35263902563784
  0
MTEXT
  5
19B6B
330
1961C
100
AcDbEntity
  8
寸法
 62
     7
 48
50.0
100
AcDbMText
 10
7427.243450984834
 20
4959.687738169296
 30
0.0
 40
120.0
 41
0.0
 71
     5
 72
     1
  1
\A1;141
  7
STYLE1
 11
0.0287479117491228
 21
0.9995866933738486
 31
0.0
 73
     1
 44
1.0
1001
ACAD
1000
MTEXTBEGIN
1070
    73
1070
     1
1070
    44
1040
1.0
1070
    74
1070
     0
1000
MTEXTEND
  0
POINT
  5
19B6C
330
1961C
100
AcDbEntity
  8
DEFPOINTS
 62
     0
 48
50.0
100
AcDbPoint
 10
8096.541071990243
 20
4710.343773714028
 30
0.0
  0
POINT
  5
19B6D
330
1961C
100
AcDbEntity
  8
DEFPOINTS
 62
     0
 48
50.0
100
AcDbPoint
 10
8092.487616433615
 20
4569.402049948315
 30
0.0
  0
POINT
  5
19B6E
330
1961C
100
AcDbEntity
  8
DEFPOINTS
 62
     0
 48
50.0
100
AcDbPoint
 10
7516.536645063293
 20
4585.966283752678
 30
0.0
  0
ENDBLK
  5
19628
330
1961C
100
AcDbEntity
  8
0
 48
50.0
100
AcDbBlockEnd
  0
BLOCK
  5
19633
330
19629
100
AcDbEntity
  8
0
 48
50.0
100
AcDbBlockBegin
  2
*D20
 70
     1
 10
0.0
 20
0.0
 30
0.0
  3
*D20
  1

  0
LINE
  5
19B5C
330
19629
100
AcDbEntity
  8
寸法
 62
     0
 48
50.0
370
    -2
100
AcDbLine
 10
8117.145051831663
 20
2336.62102487935
 30
0.0
 11
7168.505669902305
 21
2336.62102487935
 31
0.0
  0
LINE
  5
19B5D
330
19629
100
AcDbEntity
  8
寸法
 62
     0
 48
50.0
370
    -2
100
AcDbLine
 10
8057.145051831664
 20
4711.621024879355
 30
0.0
 11
7168.505669902305
 21
4711.621024879355
 31
0.0
  0
LINE
  5
19B5E
330
19629
100
AcDbEntity
  8
寸法
 62
     0
 48
50.0
370
    -2
100
AcDbLine
 10
7228.505669902306
 20
2336.62102487935
 30
0.0
 11
7228.505669902306
 21
4711.621024879355
 31
0.0
  0
INSERT
  5
19B5F
330
19629
100
AcDbEntity
  8
寸法
 62
     0
 48
50.0
370
    -2
100
AcDbBlockReference
  2
_DOTSMALL
 10
7228.505669902306
 20
2336.62102487935
 30
0.0
 41
100.0
 42
100.0
 43
100.0
 50
270.0
  0
INSERT
  5
19B60
330
19629
100
AcDbEntity
  8
寸法
 62
     0
 48
50.0
370
    -2
100
AcDbBlockReference
  2
_DOTSMALL
 10
7228.505669902306
 20
4711.621024879355
 30
0.0
 41
100.0
 42
100.0
 43
100.0
 50
90.0
  0
MTEXT
  5
19B61
330
19629
100
AcDbEntity
  8
寸法
 62
     7
 48
50.0
100
AcDbMText
 10
7128.493858878683
 20
3407.121024879349
 30
0.0
 40
120.0
 41
0.0
 71
     5
 72
     1
  1
\A1;2375
  7
STYLE1
 11
0.0000000000000001
 21
1.0
 31
0.0
 73
     1
 44
1.0
1001
ACAD
1000
MTEXTBEGIN
1070
    73
1070
     1
1070
    44
1040
1.0
1070
    74
1070
     0
1000
MTEXTEND
  0
POINT
  5
19B62
330
19629
100
AcDbEntity
  8
DEFPOINTS
 62
     0
 48
50.0
100
AcDbPoint
 10
8137.145051831664
 20
2336.62102487935
 30
0.0
  0
POINT
  5
19B63
330
19629
100
AcDbEntity
  8
DEFPOINTS
 62
     0
 48
50.0
100
AcDbPoint
 10
8077.145051831664
 20
4711.621024879355
 30
0.0
  0
POINT
  5
19B64
330
19629
100
AcDbEntity
  8
DEFPOINTS
 62
     0
 48
50.0
100
AcDbPoint
 10
7228.505669902306
 20
4711.621024879355
 30
0.0
  0
ENDBLK
  5
19634
330
19629
100
AcDbEntity
  8
0
 48
50.0
100
AcDbBlockEnd
  0
BLOCK
  5
1963F
330
19635
100
AcDbEntity
  8
0
 48
50.0
100
AcDbBlockBegin
  2
*D21
 70
     1
 10
0.0
 20
0.0
 30
0.0
  3
*D21
  1

  0
LINE
  5
19B53
330
19635
100
AcDbEntity
  8
寸法
 62
     0
 48
50.0
370
    -2
100
AcDbLine
 10
8117.145051831663
 20
4476.621024879349
 30
0.0
 11
7453.492342673367
 21
4476.621024879349
 31
0.0
  0
LINE
  5
19B54
330
19635
100
AcDbEntity
  8
寸法
 62
     0
 48
50.0
370
    -2
100
AcDbLine
 10
8117.145051831663
 20
2386.62102487935
 30
0.0
 11
7453.492342673367
 21
2386.62102487935
 31
0.0
  0
LINE
  5
19B55
330
19635
100
AcDbEntity
  8
寸法
 62
     0
 48
50.0
370
    -2
100
AcDbLine
 10
7513.492342673366
 20
4476.621024879349
 30
0.0
 11
7513.492342673366
 21
2386.62102487935
 31
0.0
  0
INSERT
  5
19B56
330
19635
100
AcDbEntity
  8
寸法
 62
     0
 48
50.0
370
    -2
100
AcDbBlockReference
  2
_DOTSMALL
 10
7513.492342673366
 20
4476.621024879349
 30
0.0
 41
100.0
 42
100.0
 43
100.0
 50
90.0
  0
INSERT
  5
19B57
330
19635
100
AcDbEntity
  8
寸法
 62
     0
 48
50.0
370
    -2
100
AcDbBlockReference
  2
_DOTSMALL
 10
7513.492342673366
 20
2386.62102487935
 30
0.0
 41
100.0
 42
100.0
 43
100.0
 50
270.0
  0
MTEXT
  5
19B58
330
19635
100
AcDbEntity
  8
寸法
 62
     7
 48
50.0
100
AcDbMText
 10
7413.480531649745
 20
3407.121024879349
 30
0.0
 40
120.0
 41
0.0
 71
     5
 72
     1
  1
\A1;2090
  7
STYLE1
 11
0.0000000000000001
 21
1.0
 31
0.0
 73
     1
 44
1.0
1001
ACAD
1000
MTEXTBEGIN
1070
    73
1070
     1
1070
    44
1040
1.0
1070
    74
1070
     0
1000
MTEXTEND
  0
POINT
  5
19B59
330
19635
100
AcDbEntity
  8
DEFPOINTS
 62
     0
 48
50.0
100
AcDbPoint
 10
8137.145051831664
 20
4476.621024879349
 30
0.0
  0
POINT
  5
19B5A
330
19635
100
AcDbEntity
  8
DEFPOINTS
 62
     0
 48
50.0
100
AcDbPoint
 10
8137.145051831664
 20
2386.62102487935
 30
0.0
  0
POINT
  5
19B5B
330
19635
100
AcDbEntity
  8
DEFPOINTS
 62
     0
 48
50.0
100
AcDbPoint
 10
7513.492342673366
 20
2386.62102487935
 30
0.0
  0
ENDBLK
  5
19640
330
19635
100
AcDbEntity
  8
0
 48
50.0
100
AcDbBlockEnd
  0
BLOCK
  5
1964D
330
19641
100
AcDbEntity
  8
0
 48
50.0
100
AcDbBlockBegin
  2
*D22
 70
     1
 10
0.0
 20
0.0
 30
0.0
  3
*D22
  1

  0
LINE
  5
19B48
330
19641
100
AcDbEntity
  8
寸法
 62
     0
 48
50.0
370
    -2
100
AcDbLine
 10
8117.145051831663
 20
2386.62102487935
 30
0.0
 11
7453.492342673367
 21
2386.62102487935
 31
0.0
  0
LINE
  5
19B49
330
19641
100
AcDbEntity
  8
寸法
 62
     0
 48
50.0
370
    -2
100
AcDbLine
 10
8062.145051831663
 20
2336.62102487935
 30
0.0
 11
7453.492342673367
 21
2336.62102487935
 31
0.0
  0
LINE
  5
19B4A
330
19641
100
AcDbEntity
  8
寸法
 62
     0
 48
50.0
370
    -2
100
AcDbLine
 10
7513.492342673366
 20
2386.62102487935
 30
0.0
 11
7513.492342673366
 21
2486.62102487935
 31
0.0
  0
LINE
  5
19B4B
330
19641
100
AcDbEntity
  8
寸法
 62
     0
 48
50.0
370
    -2
100
AcDbLine
 10
7513.492342673366
 20
2336.62102487935
 30
0.0
 11
7513.492342673366
 21
1924.52653669037
 31
0.0
  0
LINE
  5
19B4C
330
19641
100
AcDbEntity
  8
寸法
 62
     0
 48
50.0
370
    -2
100
AcDbLine
 10
7513.492342673366
 20
2386.62102487935
 30
0.0
 11
7513.492342673366
 21
2336.62102487935
 31
0.0
  0
INSERT
  5
19B4D
330
19641
100
AcDbEntity
  8
寸法
 62
     0
 48
50.0
370
    -2
100
AcDbBlockReference
  2
_DOTSMALL
 10
7513.492342673366
 20
2386.62102487935
 30
0.0
 41
100.0
 42
100.0
 43
100.0
 50
270.0
  0
INSERT
  5
19B4E
330
19641
100
AcDbEntity
  8
寸法
 62
     0
 48
50.0
370
    -2
100
AcDbBlockReference
  2
_DOTSMALL
 10
7513.492342673366
 20
2336.62102487935
 30
0.0
 41
100.0
 42
100.0
 43
100.0
 50
90.0
  0
MTEXT
  5
19B4F
330
19641
100
AcDbEntity
  8
寸法
 62
     7
 48
50.0
100
AcDbMText
 10
7413.492342673366
 20
2030.573780784859
 30
0.0
 40
120.0
 41
0.0
 71
     5
 72
     1
  1
\A1;50
  7
STYLE1
 11
0.0000000000000001
 21
1.0
 31
0.0
 73
     1
 44
1.0
1001
ACAD
1000
MTEXTBEGIN
1070
    73
1070
     1
1070
    44
1040
1.0
1070
    74
1070
     0
1000
MTEXTEND
  0
POINT
  5
19B50
330
19641
100
AcDbEntity
  8
DEFPOINTS
 62
     0
 48
50.0
100
AcDbPoint
 10
8137.145051831664
 20
2386.62102487935
 30
0.0
  0
POINT
  5
19B51
330
19641
100
AcDbEntity
  8
DEFPOINTS
 62
     0
 48
50.0
100
AcDbPoint
 10
8082.145051831664
 20
2336.62102487935
 30
0.0
  0
POINT
  5
19B52
330
19641
100
AcDbEntity
  8
DEFPOINTS
 62
     0
 48
50.0
100
AcDbPoint
 10
7513.492342673366
 20
2336.62102487935
 30
0.0
  0
ENDBLK
  5
1964E
330
19641
100
AcDbEntity
  8
0
 48
50.0
100
AcDbBlockEnd
  0
BLOCK
  5
1965A
330
1964F
100
AcDbEntity
  8
0
 48
50.0
100
AcDbBlockBegin
  2
*D23
 70
     1
 10
0.0
 20
0.0
 30
0.0
  3
*D23
  1

  0
LINE
  5
19B3E
330
1964F
100
AcDbEntity
  8
寸法
 62
     0
 48
50.0
370
    -2
100
AcDbLine
 10
8062.145051831663
 20
2336.62102487935
 30
0.0
 11
7168.505669902305
 21
2336.62102487935
 31
0.0
  0
LINE
  5
19B3F
330
1964F
100
AcDbEntity
  8
寸法
 62
     0
 48
50.0
370
    -2
100
AcDbLine
 10
7493.492342673366
 20
2236.62102487935
 30
0.0
 11
7168.505669902305
 21
2236.62102487935
 31
0.0
  0
LINE
  5
19B40
330
1964F
100
AcDbEntity
  8
寸法
 62
     0
 48
50.0
370
    -2
100
AcDbLine
 10
7228.505669902306
 20
2336.62102487935
 30
0.0
 11
7228.505669902306
 21
2236.62102487935
 31
0.0
  0
LINE
  5
19B41
330
1964F
100
AcDbEntity
  8
寸法
 62
     0
 48
50.0
370
    -2
100
AcDbLine
 10
7228.505669902306
 20
2236.62102487935
 30
0.0
 11
7228.505669902304
 21
1864.52653669037
 31
0.0
  0
INSERT
  5
19B42
330
1964F
100
AcDbEntity
  8
寸法
 62
     0
 48
50.0
370
    -2
100
AcDbBlockReference
  2
_DOTSMALL
 10
7228.505669902306
 20
2336.62102487935
 30
0.0
 41
100.0
 42
100.0
 43
100.0
 50
90.0
  0
INSERT
  5
19B43
330
1964F
100
AcDbEntity
  8
寸法
 62
     0
 48
50.0
370
    -2
100
AcDbBlockReference
  2
_DOTSMALL
 10
7228.505669902306
 20
2236.62102487935
 30
0.0
 41
100.0
 42
100.0
 43
100.0
 50
270.0
  0
MTEXT
  5
19B44
330
1964F
100
AcDbEntity
  8
寸法
 62
     7
 48
50.0
100
AcDbMText
 10
7128.505669902304
 20
2000.573780784859
 30
0.0
 40
120.0
 41
0.0
 71
     5
 72
     1
  1
\A1;100
  7
STYLE1
 11
0.0000000000000001
 21
1.0
 31
0.0
 73
     1
 44
1.0
1001
ACAD
1000
MTEXTBEGIN
1070
    73
1070
     1
1070
    44
1040
1.0
1070
    74
1070
     0
1000
MTEXTEND
  0
POINT
  5
19B45
330
1964F
100
AcDbEntity
  8
DEFPOINTS
 62
     0
 48
50.0
100
AcDbPoint
 10
8082.145051831664
 20
2336.62102487935
 30
0.0
  0
POINT
  5
19B46
330
1964F
100
AcDbEntity
  8
DEFPOINTS
 62
     0
 48
50.0
100
AcDbPoint
 10
7513.492342673366
 20
2236.62102487935
 30
0.0
  0
POINT
  5
19B47
330
1964F
100
AcDbEntity
  8
DEFPOINTS
 62
     0
 48
50.0
100
AcDbPoint
 10
7228.505669902306
 20
2236.62102487935
 30
0.0
  0
ENDBLK
  5
1965B
330
1964F
100
AcDbEntity
  8
0
 48
50.0
100
AcDbBlockEnd
  0
BLOCK
  5
19680
330
19676
100
AcDbEntity
  8
0
 48
50.0
100
AcDbBlockBegin
  2
*D24
 70
     1
 10
0.0
 20
0.0
 30
0.0
  3
*D24
  1

  0
LINE
  5
19C57
330
19676
100
AcDbEntity
  8
寸法
 62
     0
 48
50.0
370
    -2
100
AcDbLine
 10
8237.145051831666
 20
2016.621024879349
 30
0.0
 11
8237.145051831666
 21
1690.57369557897
 31
0.0
  0
LINE
  5
19C58
330
19676
100
AcDbEntity
  8
寸法
 62
     0
 48
50.0
370
    -2
100
AcDbLine
 10
8037.145051831663
 20
2016.621024879349
 30
0.0
 11
8037.145051831663
 21
1690.57369557897
 31
0.0
  0
LINE
  5
19C59
330
19676
100
AcDbEntity
  8
寸法
 62
     0
 48
50.0
370
    -2
100
AcDbLine
 10
8237.145051831666
 20
1750.573695578971
 30
0.0
 11
8037.145051831663
 21
1750.573695578971
 31
0.0
  0
INSERT
  5
19C5A
330
19676
100
AcDbEntity
  8
寸法
 62
     0
 48
50.0
370
    -2
100
AcDbBlockReference
  2
_DOTSMALL
 10
8237.145051831666
 20
1750.573695578971
 30
0.0
 41
100.0
 42
100.0
 43
100.0
  0
INSERT
  5
19C5B
330
19676
100
AcDbEntity
  8
寸法
 62
     0
 48
50.0
370
    -2
100
AcDbBlockReference
  2
_DOTSMALL
 10
8037.145051831663
 20
1750.573695578971
 30
0.0
 41
100.0
 42
100.0
 43
100.0
 50
180.0
  0
MTEXT
  5
19C5C
330
19676
100
AcDbEntity
  8
寸法
 62
     7
 48
50.0
100
AcDbMText
 10
8137.145051831664
 20
1850.585506602593
 30
0.0
 40
120.0
 41
0.0
 71
     5
 72
     1
  1
\A1;200
  7
STYLE1
 73
     1
 44
1.0
1001
ACAD
1000
MTEXTBEGIN
1070
    73
1070
     1
1070
    44
1040
1.0
1070
    74
1070
     0
1000
MTEXTEND
  0
POINT
  5
19C5D
330
19676
100
AcDbEntity
  8
DEFPOINTS
 62
     0
 48
50.0
100
AcDbPoint
 10
8237.145051831666
 20
2036.621024879349
 30
0.0
  0
POINT
  5
19C5E
330
19676
100
AcDbEntity
  8
DEFPOINTS
 62
     0
 48
50.0
100
AcDbPoint
 10
8037.145051831663
 20
2036.621024879349
 30
0.0
  0
POINT
  5
19C5F
330
19676
100
AcDbEntity
  8
DEFPOINTS
 62
     0
 48
50.0
100
AcDbPoint
 10
8037.145051831663
 20
1750.573695578971
 30
0.0
  0
ENDBLK
  5
19681
330
19676
100
AcDbEntity
  8
0
 48
50.0
100
AcDbBlockEnd
  0
BLOCK
  5
1968C
330
19682
100
AcDbEntity
  8
0
 48
50.0
100
AcDbBlockBegin
  2
*D25
 70
     1
 10
0.0
 20
0.0
 30
0.0
  3
*D25
  1

  0
LINE
  5
19C4E
330
19682
100
AcDbEntity
  8
寸法
 62
     0
 48
50.0
370
    -2
100
AcDbLine
 10
4103.184705734129
 20
2036.621024879349
 30
0.0
 11
3913.684702487492
 21
2036.621024879349
 31
0.0
  0
LINE
  5
19C4F
330
19682
100
AcDbEntity
  8
寸法
 62
     0
 48
50.0
370
    -2
100
AcDbLine
 10
4078.184705734125
 20
2236.621024879349
 30
0.0
 11
3913.684702487492
 21
2236.621024879349
 31
0.0
  0
LINE
  5
19C50
330
19682
100
AcDbEntity
  8
寸法
 62
     0
 48
50.0
370
    -2
100
AcDbLine
 10
3973.684702487492
 20
2036.621024879349
 30
0.0
 11
3973.684702487492
 21
2236.621024879349
 31
0.0
  0
INSERT
  5
19C51
330
19682
100
AcDbEntity
  8
寸法
 62
     0
 48
50.0
370
    -2
100
AcDbBlockReference
  2
_DOTSMALL
 10
3973.684702487492
 20
2036.621024879349
 30
0.0
 41
100.0
 42
100.0
 43
100.0
 50
270.0
  0
INSERT
  5
19C52
330
19682
100
AcDbEntity
  8
寸法
 62
     0
 48
50.0
370
    -2
100
AcDbBlockReference
  2
_DOTSMALL
 10
3973.684702487492
 20
2236.621024879349
 30
0.0
 41
100.0
 42
100.0
 43
100.0
 50
90.0
  0
MTEXT
  5
19C53
330
19682
100
AcDbEntity
  8
寸法
 62
     7
 48
50.0
100
AcDbMText
 10
3873.67289146387
 20
2136.621024879349
 30
0.0
 40
120.0
 41
0.0
 71
     5
 72
     1
  1
\A1;200
  7
STYLE1
 11
0.0000000000000001
 21
1.0
 31
0.0
 73
     1
 44
1.0
1001
ACAD
1000
MTEXTBEGIN
1070
    73
1070
     1
1070
    44
1040
1.0
1070
    74
1070
     0
1000
MTEXTEND
  0
POINT
  5
19C54
330
19682
100
AcDbEntity
  8
DEFPOINTS
 62
     0
 48
50.0
100
AcDbPoint
 10
4123.184705734129
 20
2036.621024879349
 30
0.0
  0
POINT
  5
19C55
330
19682
100
AcDbEntity
  8
DEFPOINTS
 62
     0
 48
50.0
100
AcDbPoint
 10
4098.184705734126
 20
2236.621024879349
 30
0.0
  0
POINT
  5
19C56
330
19682
100
AcDbEntity
  8
DEFPOINTS
 62
     0
 48
50.0
100
AcDbPoint
 10
3973.684702487492
 20
2236.621024879349
 30
0.0
  0
ENDBLK
  5
1968D
330
19682
100
AcDbEntity
  8
0
 48
50.0
100
AcDbBlockEnd
  0
BLOCK
  5
19698
330
1968E
100
AcDbEntity
  8
0
 48
50.0
100
AcDbBlockBegin
  2
*D26
 70
     1
 10
0.0
 20
0.0
 30
0.0
  3
*D26
  1

  0
LINE
  5
19C45
330
1968E
100
AcDbEntity
  8
寸法
 62
     0
 48
50.0
370
    -2
100
AcDbLine
 10
4323.184705734125
 20
2016.621024879347
 30
0.0
 11
4323.184705734125
 21
1690.57369557897
 31
0.0
  0
LINE
  5
19C46
330
1968E
100
AcDbEntity
  8
寸法
 62
     0
 48
50.0
370
    -2
100
AcDbLine
 10
4123.184705734129
 20
2016.621024879349
 30
0.0
 11
4123.184705734129
 21
1690.57369557897
 31
0.0
  0
LINE
  5
19C47
330
1968E
100
AcDbEntity
  8
寸法
 62
     0
 48
50.0
370
    -2
100
AcDbLine
 10
4323.184705734125
 20
1750.573695578971
 30
0.0
 11
4123.184705734129
 21
1750.573695578971
 31
0.0
  0
INSERT
  5
19C48
330
1968E
100
AcDbEntity
  8
寸法
 62
     0
 48
50.0
370
    -2
100
AcDbBlockReference
  2
_DOTSMALL
 10
4323.184705734125
 20
1750.573695578971
 30
0.0
 41
100.0
 42
100.0
 43
100.0
  0
INSERT
  5
19C49
330
1968E
100
AcDbEntity
  8
寸法
 62
     0
 48
50.0
370
    -2
100
AcDbBlockReference
  2
_DOTSMALL
 10
4123.184705734129
 20
1750.573695578971
 30
0.0
 41
100.0
 42
100.0
 43
100.0
 50
180.0
  0
MTEXT
  5
19C4A
330
1968E
100
AcDbEntity
  8
寸法
 62
     7
 48
50.0
100
AcDbMText
 10
4223.184705734127
 20
1850.585506602593
 30
0.0
 40
120.0
 41
0.0
 71
     5
 72
     1
  1
\A1;200
  7
STYLE1
 73
     1
 44
1.0
1001
ACAD
1000
MTEXTBEGIN
1070
    73
1070
     1
1070
    44
1040
1.0
1070
    74
1070
     0
1000
MTEXTEND
  0
POINT
  5
19C4B
330
1968E
100
AcDbEntity
  8
DEFPOINTS
 62
     0
 48
50.0
100
AcDbPoint
 10
4323.184705734125
 20
2036.621024879347
 30
0.0
  0
POINT
  5
19C4C
330
1968E
100
AcDbEntity
  8
DEFPOINTS
 62
     0
 48
50.0
100
AcDbPoint
 10
4123.184705734129
 20
2036.621024879349
 30
0.0
  0
POINT
  5
19C4D
330
1968E
100
AcDbEntity
  8
DEFPOINTS
 62
     0
 48
50.0
100
AcDbPoint
 10
4123.184705734129
 20
1750.573695578971
 30
0.0
  0
ENDBLK
  5
19699
330
1968E
100
AcDbEntity
  8
0
 48
50.0
100
AcDbBlockEnd
  0
BLOCK
  5
196A4
330
1969A
100
AcDbEntity
  8
0
 48
50.0
100
AcDbBlockBegin
  2
*D27
 70
     1
 10
0.0
 20
0.0
 30
0.0
  3
*D27
  1

  0
LINE
  5
19C3C
330
1969A
100
AcDbEntity
  8
寸法
 62
     0
 48
50.0
370
    -2
100
AcDbLine
 10
5985.684705734122
 20
4731.621024879354
 30
0.0
 11
5985.684705734122
 21
5176.241284306621
 31
0.0
  0
LINE
  5
19C3D
330
1969A
100
AcDbEntity
  8
寸法
 62
     0
 48
50.0
370
    -2
100
AcDbLine
 10
4195.684705734133
 20
4731.621024879355
 30
0.0
 11
4195.684705734133
 21
5176.241284306621
 31
0.0
  0
LINE
  5
19C3E
330
1969A
100
AcDbEntity
  8
寸法
 62
     0
 48
50.0
370
    -2
100
AcDbLine
 10
5985.684705734122
 20
5116.241284306621
 30
0.0
 11
4195.684705734133
 21
5116.241284306621
 31
0.0
  0
INSERT
  5
19C3F
330
1969A
100
AcDbEntity
  8
寸法
 62
     0
 48
50.0
370
    -2
100
AcDbBlockReference
  2
_DOTSMALL
 10
5985.684705734122
 20
5116.241284306621
 30
0.0
 41
100.0
 42
100.0
 43
100.0
  0
INSERT
  5
19C40
330
1969A
100
AcDbEntity
  8
寸法
 62
     0
 48
50.0
370
    -2
100
AcDbBlockReference
  2
_DOTSMALL
 10
4195.684705734133
 20
5116.241284306621
 30
0.0
 41
100.0
 42
100.0
 43
100.0
 50
180.0
  0
MTEXT
  5
19C41
330
1969A
100
AcDbEntity
  8
寸法
 62
     7
 48
50.0
100
AcDbMText
 10
5090.684705734126
 20
5216.241284306621
 30
0.0
 40
120.0
 41
0.0
 71
     5
 72
     1
  1
\A1;柱外寸法1790
  7
STYLE1
 73
     1
 44
1.0
1001
ACAD
1000
MTEXTBEGIN
1070
    73
1070
     1
1070
    44
1040
1.0
1070
    74
1070
     0
1000
MTEXTEND
  0
POINT
  5
19C42
330
1969A
100
AcDbEntity
  8
DEFPOINTS
 62
     0
 48
50.0
100
AcDbPoint
 10
5985.684705734122
 20
4711.621024879354
 30
0.0
  0
POINT
  5
19C43
330
1969A
100
AcDbEntity
  8
DEFPOINTS
 62
     0
 48
50.0
100
AcDbPoint
 10
4195.684705734133
 20
4711.621024879355
 30
0.0
  0
POINT
  5
19C44
330
1969A
100
AcDbEntity
  8
DEFPOINTS
 62
     0
 48
50.0
100
AcDbPoint
 10
4195.684705734133
 20
5116.241284306621
 30
0.0
  0
ENDBLK
  5
196A5
330
1969A
100
AcDbEntity
  8
0
 48
50.0
100
AcDbBlockEnd
  0
BLOCK
  5
196B0
330
196A6
100
AcDbEntity
  8
0
 48
50.0
100
AcDbBlockBegin
  2
*D28
 70
     1
 10
0.0
 20
0.0
 30
0.0
  3
*D28
  1

  0
LINE
  5
19C33
330
196A6
100
AcDbEntity
  8
寸法
 62
     0
 48
50.0
370
    -2
100
AcDbLine
 10
4145.684705734132
 20
4731.621024879354
 30
0.0
 11
4145.684705734132
 21
5385.835158728072
 31
0.0
  0
LINE
  5
19C34
330
196A6
100
AcDbEntity
  8
寸法
 62
     0
 48
50.0
370
    -2
100
AcDbLine
 10
6035.684705734122
 20
4731.621024879352
 30
0.0
 11
6035.684705734122
 21
5385.835158728072
 31
0.0
  0
LINE
  5
19C35
330
196A6
100
AcDbEntity
  8
寸法
 62
     0
 48
50.0
370
    -2
100
AcDbLine
 10
4145.684705734132
 20
5325.835158728072
 30
0.0
 11
6035.684705734122
 21
5325.835158728072
 31
0.0
  0
INSERT
  5
19C36
330
196A6
100
AcDbEntity
  8
寸法
 62
     0
 48
50.0
370
    -2
100
AcDbBlockReference
  2
_DOTSMALL
 10
4145.684705734132
 20
5325.835158728072
 30
0.0
 41
100.0
 42
100.0
 43
100.0
 50
180.0
  0
INSERT
  5
19C37
330
196A6
100
AcDbEntity
  8
寸法
 62
     0
 48
50.0
370
    -2
100
AcDbBlockReference
  2
_DOTSMALL
 10
6035.684705734122
 20
5325.835158728072
 30
0.0
 41
100.0
 42
100.0
 43
100.0
  0
MTEXT
  5
19C38
330
196A6
100
AcDbEntity
  8
寸法
 62
     7
 48
50.0
100
AcDbMText
 10
5090.684705734126
 20
5425.835158728072
 30
0.0
 40
120.0
 41
0.0
 71
     5
 72
     1
  1
\A1;1890
  7
STYLE1
 73
     1
 44
1.0
1001
ACAD
1000
MTEXTBEGIN
1070
    73
1070
     1
1070
    44
1040
1.0
1070
    74
1070
     0
1000
MTEXTEND
  0
POINT
  5
19C39
330
196A6
100
AcDbEntity
  8
DEFPOINTS
 62
     0
 48
50.0
100
AcDbPoint
 10
4145.684705734132
 20
4711.621024879354
 30
0.0
  0
POINT
  5
19C3A
330
196A6
100
AcDbEntity
  8
DEFPOINTS
 62
     0
 48
50.0
100
AcDbPoint
 10
6035.684705734122
 20
4711.621024879351
 30
0.0
  0
POINT
  5
19C3B
330
196A6
100
AcDbEntity
  8
DEFPOINTS
 62
     0
 48
50.0
100
AcDbPoint
 10
6035.684705734122
 20
5325.835158728072
 30
0.0
  0
ENDBLK
  5
196B1
330
196A6
100
AcDbEntity
  8
0
 48
50.0
100
AcDbBlockEnd
  0
BLOCK
  5
196BE
330
196B2
100
AcDbEntity
  8
0
 48
50.0
100
AcDbBlockBegin
  2
*D29
 70
     1
 10
0.0
 20
0.0
 30
0.0
  3
*D29
  1

  0
LINE
  5
19C28
330
196B2
100
AcDbEntity
  8
寸法
 62
     0
 48
50.0
370
    -2
100
AcDbLine
 10
4195.684705734133
 20
4731.621024879355
 30
0.0
 11
4195.684705734133
 21
5176.241284306621
 31
0.0
  0
LINE
  5
19C29
330
196B2
100
AcDbEntity
  8
寸法
 62
     0
 48
50.0
370
    -2
100
AcDbLine
 10
4145.684705734132
 20
4731.621024879354
 30
0.0
 11
4145.684705734132
 21
5176.241284306621
 31
0.0
  0
LINE
  5
19C2A
330
196B2
100
AcDbEntity
  8
寸法
 62
     0
 48
50.0
370
    -2
100
AcDbLine
 10
4195.684705734133
 20
5116.241284306621
 30
0.0
 11
4295.684705734132
 21
5116.241284306621
 31
0.0
  0
LINE
  5
19C2B
330
196B2
100
AcDbEntity
  8
寸法
 62
     0
 48
50.0
370
    -2
100
AcDbLine
 10
4145.684705734132
 20
5116.241284306621
 30
0.0
 11
3726.152180265398
 21
5116.241284306621
 31
0.0
  0
LINE
  5
19C2C
330
196B2
100
AcDbEntity
  8
寸法
 62
     0
 48
50.0
370
    -2
100
AcDbLine
 10
4195.684705734133
 20
5116.241284306621
 30
0.0
 11
4145.684705734132
 21
5116.241284306621
 31
0.0
  0
INSERT
  5
19C2D
330
196B2
100
AcDbEntity
  8
寸法
 62
     0
 48
50.0
370
    -2
100
AcDbBlockReference
  2
_DOTSMALL
 10
4195.684705734133
 20
5116.241284306621
 30
0.0
 41
100.0
 42
100.0
 43
100.0
 50
180.0
  0
INSERT
  5
19C2E
330
196B2
100
AcDbEntity
  8
寸法
 62
     0
 48
50.0
370
    -2
100
AcDbBlockReference
  2
_DOTSMALL
 10
4145.684705734132
 20
5116.241284306621
 30
0.0
 41
100.0
 42
100.0
 43
100.0
  0
MTEXT
  5
19C2F
330
196B2
100
AcDbEntity
  8
寸法
 62
     7
 48
50.0
100
AcDbMText
 10
3832.199424359886
 20
5216.241284306621
 30
0.0
 40
120.0
 41
0.0
 71
     5
 72
     1
  1
\A1;50
  7
STYLE1
 73
     1
 44
1.0
1001
ACAD
1000
MTEXTBEGIN
1070
    73
1070
     1
1070
    44
1040
1.0
1070
    74
1070
     0
1000
MTEXTEND
  0
POINT
  5
19C30
330
196B2
100
AcDbEntity
  8
DEFPOINTS
 62
     0
 48
50.0
100
AcDbPoint
 10
4195.684705734133
 20
4711.621024879355
 30
0.0
  0
POINT
  5
19C31
330
196B2
100
AcDbEntity
  8
DEFPOINTS
 62
     0
 48
50.0
100
AcDbPoint
 10
4145.684705734132
 20
4711.621024879354
 30
0.0
  0
POINT
  5
19C32
330
196B2
100
AcDbEntity
  8
DEFPOINTS
 62
     0
 48
50.0
100
AcDbPoint
 10
4145.684705734132
 20
5116.241284306621
 30
0.0
  0
ENDBLK
  5
196BF
330
196B2
100
AcDbEntity
  8
0
 48
50.0
100
AcDbBlockEnd
  0
BLOCK
  5
196CC
330
196C0
100
AcDbEntity
  8
0
 48
50.0
100
AcDbBlockBegin
  2
*D30
 70
     1
 10
0.0
 20
0.0
 30
0.0
  3
*D30
  1

  0
LINE
  5
19C1D
330
196C0
100
AcDbEntity
  8
寸法
 62
     0
 48
50.0
370
    -2
100
AcDbLine
 10
6035.684705734122
 20
4731.621024879352
 30
0.0
 11
6035.684705734122
 21
5176.241284306621
 31
0.0
  0
LINE
  5
19C1E
330
196C0
100
AcDbEntity
  8
寸法
 62
     0
 48
50.0
370
    -2
100
AcDbLine
 10
5985.684705734122
 20
4731.621024879354
 30
0.0
 11
5985.684705734122
 21
5176.241284306621
 31
0.0
  0
LINE
  5
19C1F
330
196C0
100
AcDbEntity
  8
寸法
 62
     0
 48
50.0
370
    -2
100
AcDbLine
 10
5985.684705734122
 20
5116.241284306621
 30
0.0
 11
5885.684705734122
 21
5116.241284306621
 31
0.0
  0
LINE
  5
19C20
330
196C0
100
AcDbEntity
  8
寸法
 62
     0
 48
50.0
370
    -2
100
AcDbLine
 10
6035.684705734122
 20
5116.241284306621
 30
0.0
 11
6455.217231202846
 21
5116.241284306621
 31
0.0
  0
LINE
  5
19C21
330
196C0
100
AcDbEntity
  8
寸法
 62
     0
 48
50.0
370
    -2
100
AcDbLine
 10
5985.684705734122
 20
5116.241284306621
 30
0.0
 11
6035.684705734122
 21
5116.241284306621
 31
0.0
  0
INSERT
  5
19C22
330
196C0
100
AcDbEntity
  8
寸法
 62
     0
 48
50.0
370
    -2
100
AcDbBlockReference
  2
_DOTSMALL
 10
5985.684705734122
 20
5116.241284306621
 30
0.0
 41
100.0
 42
100.0
 43
100.0
  0
INSERT
  5
19C23
330
196C0
100
AcDbEntity
  8
寸法
 62
     0
 48
50.0
370
    -2
100
AcDbBlockReference
  2
_DOTSMALL
 10
6035.684705734122
 20
5116.241284306621
 30
0.0
 41
100.0
 42
100.0
 43
100.0
 50
180.0
  0
MTEXT
  5
19C24
330
196C0
100
AcDbEntity
  8
寸法
 62
     7
 48
50.0
100
AcDbMText
 10
6349.169987108358
 20
5216.241284306621
 30
0.0
 40
120.0
 41
0.0
 71
     5
 72
     1
  1
\A1;50
  7
STYLE1
 73
     1
 44
1.0
1001
ACAD
1000
MTEXTBEGIN
1070
    73
1070
     1
1070
    44
1040
1.0
1070
    74
1070
     0
1000
MTEXTEND
  0
POINT
  5
19C25
330
196C0
100
AcDbEntity
  8
DEFPOINTS
 62
     0
 48
50.0
100
AcDbPoint
 10
6035.684705734122
 20
4711.621024879351
 30
0.0
  0
POINT
  5
19C26
330
196C0
100
AcDbEntity
  8
DEFPOINTS
 62
     0
 48
50.0
100
AcDbPoint
 10
5985.684705734122
 20
4711.621024879354
 30
0.0
  0
POINT
  5
19C27
330
196C0
100
AcDbEntity
  8
DEFPOINTS
 62
     0
 48
50.0
100
AcDbPoint
 10
5985.684705734122
 20
5116.241284306621
 30
0.0
  0
ENDBLK
  5
196CD
330
196C0
100
AcDbEntity
  8
0
 48
50.0
100
AcDbBlockEnd
  0
BLOCK
  5
19E0E
330
19E04
100
AcDbEntity
  8
0
 48
50.0
100
AcDbBlockBegin
  2
*D31
 70
     1
 10
0.0
 20
0.0
 30
0.0
  3
*D31
  1

  0
LINE
  5
1A2BD
330
19E04
100
AcDbEntity
  8
寸法
 62
     0
 48
50.0
370
    -2
100
AcDbLine
 10
8624.145051831625
 20
7697.836388399328
 30
0.0
 11
8624.145051831625
 21
7032.326410648348
 31
0.0
  0
LINE
  5
1A2BE
330
19E04
100
AcDbEntity
  8
寸法
 62
     0
 48
50.0
370
    -2
100
AcDbLine
 10
9890.145051831625
 20
7697.836388399328
 30
0.0
 11
9890.145051831625
 21
7032.326410648348
 31
0.0
  0
LINE
  5
1A2BF
330
19E04
100
AcDbEntity
  8
寸法
 62
     0
 48
50.0
370
    -2
100
AcDbLine
 10
8644.145051831626
 20
7072.326410648348
 30
0.0
 11
9870.145051831626
 21
7072.326410648348
 31
0.0
  0
INSERT
  5
1A2C0
330
19E04
100
AcDbEntity
  8
寸法
 62
     0
 48
50.0
370
    -2
100
AcDbBlockReference
  2
_DOT
 10
8624.145051831625
 20
7072.326410648348
 30
0.0
 41
20.0
 42
20.0
 43
20.0
 50
180.0
  0
INSERT
  5
1A2C1
330
19E04
100
AcDbEntity
  8
寸法
 62
     0
 48
50.0
370
    -2
100
AcDbBlockReference
  2
_DOT
 10
9890.145051831625
 20
7072.326410648348
 30
0.0
 41
20.0
 42
20.0
 43
20.0
  0
MTEXT
  5
1A2C2
330
19E04
100
AcDbEntity
  8
寸法
 62
     7
 48
50.0
100
AcDbMText
 10
9285.924242156864
 20
7264.33822167197
 30
0.0
 40
120.0
 41
0.0
 71
     5
 72
     1
  1
\A1;有効開口部間口\P1266
  7
STYLE1
 73
     1
 44
1.0
1001
ACAD
1000
MTEXTBEGIN
1070
    73
1070
     1
1070
    44
1040
1.0
1070
    74
1070
     0
1000
MTEXTEND
  0
POINT
  5
1A2C3
330
19E04
100
AcDbEntity
  8
DEFPOINTS
 62
     0
 48
50.0
100
AcDbPoint
 10
8624.145051831625
 20
7717.836388399328
 30
0.0
  0
POINT
  5
1A2C4
330
19E04
100
AcDbEntity
  8
DEFPOINTS
 62
     0
 48
50.0
100
AcDbPoint
 10
9890.145051831625
 20
7717.836388399328
 30
0.0
  0
POINT
  5
1A2C5
330
19E04
100
AcDbEntity
  8
DEFPOINTS
 62
     0
 48
50.0
100
AcDbPoint
 10
9890.145051831625
 20
7072.326410648348
 30
0.0
  0
ENDBLK
  5
19E0F
330
19E04
100
AcDbEntity
  8
0
 48
50.0
100
AcDbBlockEnd
  0
BLOCK
  5
1A155
330
1A149
100
AcDbEntity
  8
0
 48
50.0
100
AcDbBlockBegin
  2
*D32
 70
     1
 10
0.0
 20
0.0
 30
0.0
  3
*D32
  1

  0
LINE
  5
1A2B2
330
1A149
100
AcDbEntity
  8
寸法
 62
     0
 48
50.0
370
    -2
100
AcDbLine
 10
8117.14505183165
 20
7794.836388399295
 30
0.0
 11
7802.533806204933
 21
7794.836388399295
 31
0.0
  0
LINE
  5
1A2B3
330
1A149
100
AcDbEntity
  8
寸法
 62
     0
 48
50.0
370
    -2
100
AcDbLine
 10
8565.145051831626
 20
7719.836388399295
 30
0.0
 11
7802.533806204933
 21
7719.836388399295
 31
0.0
  0
LINE
  5
1A2B4
330
1A149
100
AcDbEntity
  8
寸法
 62
     0
 48
50.0
370
    -2
100
AcDbLine
 10
7842.533806204933
 20
7814.836388399296
 30
0.0
 11
7842.533806204933
 21
7834.836388399295
 31
0.0
  0
LINE
  5
1A2B5
330
1A149
100
AcDbEntity
  8
寸法
 62
     0
 48
50.0
370
    -2
100
AcDbLine
 10
7842.533806204933
 20
7699.836388399295
 30
0.0
 11
7842.533806204933
 21
7478.865825650817
 31
0.0
  0
LINE
  5
1A2B6
330
1A149
100
AcDbEntity
  8
寸法
 62
     0
 48
50.0
370
    -2
100
AcDbLine
 10
7842.533806204933
 20
7794.836388399295
 30
0.0
 11
7842.533806204933
 21
7719.836388399295
 31
0.0
  0
INSERT
  5
1A2B7
330
1A149
100
AcDbEntity
  8
寸法
 62
     0
 48
50.0
370
    -2
100
AcDbBlockReference
  2
_DOT
 10
7842.533806204933
 20
7794.836388399295
 30
0.0
 41
20.0
 42
20.0
 43
20.0
 50
270.0
  0
INSERT
  5
1A2B8
330
1A149
100
AcDbEntity
  8
寸法
 62
     0
 48
50.0
370
    -2
100
AcDbBlockReference
  2
_DOT
 10
7842.533806204933
 20
7719.836388399295
 30
0.0
 41
20.0
 42
20.0
 43
20.0
 50
90.0
  0
MTEXT
  5
1A2B9
330
1A149
100
AcDbEntity
  8
寸法
 62
     7
 48
50.0
100
AcDbMText
 10
7750.533806204932
 20
7579.351107025058
 30
0.0
 40
120.0
 41
0.0
 71
     5
 72
     1
  1
\A1;75
  7
STYLE1
 11
0.0000000000000001
 21
1.0
 31
0.0
 73
     1
 44
1.0
1001
ACAD
1000
MTEXTBEGIN
1070
    73
1070
     1
1070
    44
1040
1.0
1070
    74
1070
     0
1000
MTEXTEND
  0
POINT
  5
1A2BA
330
1A149
100
AcDbEntity
  8
DEFPOINTS
 62
     0
 48
50.0
100
AcDbPoint
 10
8137.14505183165
 20
7794.836388399295
 30
0.0
  0
POINT
  5
1A2BB
330
1A149
100
AcDbEntity
  8
DEFPOINTS
 62
     0
 48
50.0
100
AcDbPoint
 10
8585.145051831625
 20
7719.836388399295
 30
0.0
  0
POINT
  5
1A2BC
330
1A149
100
AcDbEntity
  8
DEFPOINTS
 62
     0
 48
50.0
100
AcDbPoint
 10
7842.533806204933
 20
7719.836388399295
 30
0.0
  0
ENDBLK
  5
1A156
330
1A149
100
AcDbEntity
  8
0
 48
50.0
100
AcDbBlockEnd
  0
BLOCK
  5
1A161
330
1A157
100
AcDbEntity
  8
0
 48
50.0
100
AcDbBlockBegin
  2
*D33
 70
     1
 10
0.0
 20
0.0
 30
0.0
  3
*D33
  1

  0
LINE
  5
1A2A9
330
1A157
100
AcDbEntity
  8
寸法
 62
     0
 48
50.0
370
    -2
100
AcDbLine
 10
8585.145051831627
 20
7697.836388399328
 30
0.0
 11
8585.145051831627
 21
6737.706672971559
 31
0.0
  0
LINE
  5
1A2AA
330
1A157
100
AcDbEntity
  8
寸法
 62
     0
 48
50.0
370
    -2
100
AcDbLine
 10
10739.14505183162
 20
7697.836388399328
 30
0.0
 11
10739.14505183162
 21
6737.706672971559
 31
0.0
  0
LINE
  5
1A2AB
330
1A157
100
AcDbEntity
  8
寸法
 62
     0
 48
50.0
370
    -2
100
AcDbLine
 10
8585.145051831627
 20
6797.70667297156
 30
0.0
 11
10739.14505183162
 21
6797.70667297156
 31
0.0
  0
INSERT
  5
1A2AC
330
1A157
100
AcDbEntity
  8
寸法
 62
     0
 48
50.0
370
    -2
100
AcDbBlockReference
  2
_DOTSMALL
 10
8585.145051831627
 20
6797.70667297156
 30
0.0
 41
100.0
 42
100.0
 43
100.0
 50
180.0
  0
INSERT
  5
1A2AD
330
1A157
100
AcDbEntity
  8
寸法
 62
     0
 48
50.0
370
    -2
100
AcDbBlockReference
  2
_DOTSMALL
 10
10739.14505183162
 20
6797.70667297156
 30
0.0
 41
100.0
 42
100.0
 43
100.0
  0
MTEXT
  5
1A2AE
330
1A157
100
AcDbEntity
  8
寸法
 62
     7
 48
50.0
100
AcDbMText
 10
9684.27780857894
 20
6897.718483995181
 30
0.0
 40
120.0
 41
0.0
 71
     5
 72
     1
  1
\A1;2154
  7
STYLE1
 73
     1
 44
1.0
1001
ACAD
1000
MTEXTBEGIN
1070
    73
1070
     1
1070
    44
1040
1.0
1070
    74
1070
     0
1000
MTEXTEND
  0
POINT
  5
1A2AF
330
1A157
100
AcDbEntity
  8
DEFPOINTS
 62
     0
 48
50.0
100
AcDbPoint
 10
8585.145051831627
 20
7717.836388399328
 30
0.0
  0
POINT
  5
1A2B0
330
1A157
100
AcDbEntity
  8
DEFPOINTS
 62
     0
 48
50.0
100
AcDbPoint
 10
10739.14505183162
 20
7717.836388399328
 30
0.0
  0
POINT
  5
1A2B1
330
1A157
100
AcDbEntity
  8
DEFPOINTS
 62
     0
 48
50.0
100
AcDbPoint
 10
10739.14505183162
 20
6797.70667297156
 30
0.0
  0
ENDBLK
  5
1A162
330
1A157
100
AcDbEntity
  8
0
 48
50.0
100
AcDbBlockEnd
  0
BLOCK
  5
1A1DF
330
1A1D5
100
AcDbEntity
  8
0
 48
50.0
100
AcDbBlockBegin
  2
*D34
 70
     1
 10
0.0
 20
0.0
 30
0.0
  3
*D34
  1

  0
LINE
  5
1A2A0
330
1A1D5
100
AcDbEntity
  8
寸法
 62
     0
 48
50.0
370
    -2
100
AcDbLine
 10
8137.14505183165
 20
7774.836388399295
 30
0.0
 11
8137.14505183165
 21
6450.731522844998
 31
0.0
  0
LINE
  5
1A2A1
330
1A1D5
100
AcDbEntity
  8
寸法
 62
     0
 48
50.0
370
    -2
100
AcDbLine
 10
11187.14505183163
 20
7774.836388399458
 30
0.0
 11
11187.14505183163
 21
6450.731522844998
 31
0.0
  0
LINE
  5
1A2A2
330
1A1D5
100
AcDbEntity
  8
寸法
 62
     0
 48
50.0
370
    -2
100
AcDbLine
 10
8137.14505183165
 20
6510.731522844999
 30
0.0
 11
11187.14505183163
 21
6510.731522844999
 31
0.0
  0
INSERT
  5
1A2A3
330
1A1D5
100
AcDbEntity
  8
寸法
 62
     0
 48
50.0
370
    -2
100
AcDbBlockReference
  2
_DOTSMALL
 10
8137.14505183165
 20
6510.731522844999
 30
0.0
 41
100.0
 42
100.0
 43
100.0
 50
180.0
  0
INSERT
  5
1A2A4
330
1A1D5
100
AcDbEntity
  8
寸法
 62
     0
 48
50.0
370
    -2
100
AcDbBlockReference
  2
_DOTSMALL
 10
11187.14505183163
 20
6510.731522844999
 30
0.0
 41
100.0
 42
100.0
 43
100.0
  0
MTEXT
  5
1A2A5
330
1A1D5
100
AcDbEntity
  8
寸法
 62
     7
 48
50.0
100
AcDbMText
 10
9681.860882205583
 20
6610.731522844999
 30
0.0
 40
120.0
 41
0.0
 71
     5
 72
     1
  1
\A1;3050
  7
STYLE1
 73
     1
 44
1.0
1001
ACAD
1000
MTEXTBEGIN
1070
    73
1070
     1
1070
    44
1040
1.0
1070
    74
1070
     0
1000
MTEXTEND
  0
POINT
  5
1A2A6
330
1A1D5
100
AcDbEntity
  8
DEFPOINTS
 62
     0
 48
50.0
100
AcDbPoint
 10
8137.14505183165
 20
7794.836388399295
 30
0.0
  0
POINT
  5
1A2A7
330
1A1D5
100
AcDbEntity
  8
DEFPOINTS
 62
     0
 48
50.0
100
AcDbPoint
 10
11187.14505183163
 20
7794.836388399459
 30
0.0
  0
POINT
  5
1A2A8
330
1A1D5
100
AcDbEntity
  8
DEFPOINTS
 62
     0
 48
50.0
100
AcDbPoint
 10
11187.14505183163
 20
6510.731522844999
 30
0.0
  0
ENDBLK
  5
1A1E0
330
1A1D5
100
AcDbEntity
  8
0
 48
50.0
100
AcDbBlockEnd
  0
ENDSEC
  0
SECTION
  2
ENTITIES
  0
LINE
  5
10B57
330
747D
100
AcDbEntity
  8
補助
  6
PHANTOM
 62
   230
 48
50.0
100
AcDbLine
 10
139.9999999999995
 20
11409.6
 30
0.0
 11
16307.2
 21
11409.6
 31
0.0
  0
LINE
  5
10B59
330
747D
100
AcDbEntity
  8
仕様書枠
  6
Continuous
 48
50.0
100
AcDbLine
 10
13107.2
 20
1200.0
 30
0.0
 11
13107.2
 21
-0.0000000000000729
 31
0.0
  0
LINE
  5
10B5C
330
747D
100
AcDbEntity
  8
仕様書枠
 48
50.0
100
AcDbLine
 10
16307.2
 20
1200.0
 30
0.0
 11
16307.2
 21
-0.0000000000000909
 31
0.0
  0
LINE
  5
10B5D
330
747D
100
AcDbEntity
  8
仕様書枠
 48
50.0
100
AcDbLine
 10
140.0
 20
0.0
 30
0.0
 11
16307.2
 21
-0.0000000000000909
 31
0.0
  0
LINE
  5
10B5E
330
747D
100
AcDbEntity
  8
補助
  6
PHANTOM
 62
   230
 48
50.0
100
AcDbLine
 10
16307.2
 20
11409.6
 30
0.0
 11
16307.2
 21
1200.0
 31
0.0
  0
LINE
  5
10B6C
330
747D
100
AcDbEntity
  8
仕様書枠
 48
50.0
100
AcDbLine
 10
13107.2
 20
1200.0
 30
0.0
 11
16307.2
 21
1200.0
 31
0.0
  0
LINE
  5
10B6D
330
747D
100
AcDbEntity
  8
補助
  6
PHANTOM
 62
   230
 48
50.0
100
AcDbLine
 10
13107.2
 20
11409.6
 30
0.0
 11
13107.2
 21
4800.0
 31
0.0
  0
LINE
  5
10B6F
330
747D
100
AcDbEntity
  8
補助
  6
PHANTOM
 62
   230
 48
50.0
100
AcDbLine
 10
13107.2
 20
4800.0
 30
0.0
 11
16307.2
 21
4800.0
 31
0.0
  0
LINE
  5
10B72
330
747D
100
AcDbEntity
  8
文字
 62
     7
 48
50.0
100
AcDbLine
 10
13187.2
 20
400.0
 30
0.0
 11
16227.2
 21
400.0
 31
0.0
  0
TEXT
  5
10B73
330
747D
100
AcDbEntity
  8
文字
 62
     7
 48
50.0
100
AcDbText
 10
13162.9790565769
 20
895.0906074299405
 30
0.0
 40
200.0
  1
外 形 図
  7
STYLE2
100
AcDbText
  0
TEXT
  5
10B74
330
747D
100
AcDbEntity
  8
文字
 62
     7
 48
50.0
100
AcDbText
 10
13201.43669998441
 20
477.2740661031255
 30
0.0
 40
160.0
  1
機種名
  7
STYLE2
100
AcDbText
  0
TEXT
  5
10B76
330
747D
100
AcDbEntity
  8
文字
 62
     7
 48
50.0
100
AcDbText
 10
13209.4053442172
 20
76.09434707649343
 30
0.0
 40
100.0
  1
○床面積 ： 5.63㎡(1.70坪) 　
  7
STYLE2
100
AcDbText
  0
TEXT
  5
10B79
330
747D
100
AcDbEntity
  8
文字
 62
     7
 48
50.0
100
AcDbText
 10
14524.131837222
 20
1031.557706291228
 30
0.0
 40
100.0
  1
NO.28     <縮尺> S=1/40
  7
STYLE2
100
AcDbText
  0
LINE
  5
10B7B
330
747D
100
AcDbEntity
  8
仕様書枠
 48
50.0
100
AcDbLine
 10
13107.2
 20
800.0
 30
0.0
 11
14251.2
 21
800.0
 31
0.0
  0
LINE
  5
10B88
330
747D
100
AcDbEntity
  8
仕様書枠
  6
Continuous
 48
50.0
100
AcDbLine
 10
14251.2
 20
1200.0
 30
0.0
 11
14251.2
 21
800.0
 31
0.0
  0
TEXT
  5
15729
330
747D
100
AcDbEntity
  8
文字
 62
     7
 48
50.0
100
AcDbText
 10
14621.9326827841
 20
869.7247441969318
 30
0.0
 40
100.0
  1
～一般型・多雪地型～
  7
STYLE2
100
AcDbText
  0
DIMENSION
  5
1927C
330
747D
100
AcDbEntity
  8
寸法
 48
50.0
100
AcDbDimension
  2
*D24
 10
8037.145051831663
 20
1750.573695578971
 30
0.0
 11
8137.145051831664
 21
1750.573695578971
 31
0.0
 70
   160
 71
     5
 42
200.0000000000018
  3
INABA_S40G
100
AcDbAlignedDimension
 13
8237.145051831666
 23
2036.621024879349
 33
0.0
 14
8037.145051831663
 24
2036.621024879349
 34
0.0
100
AcDbRotatedDimension
  0
LINE
  5
1927D
330
747D
100
AcDbEntity
  8
破線
 48
5.0
100
AcDbLine
 10
8037.145051831663
 20
2036.621024879349
 30
0.0
 11
8237.145051831666
 21
2036.621024879349
 31
0.0
  0
LINE
  5
1927E
330
747D
100
AcDbEntity
  8
破線
 48
5.0
100
AcDbLine
 10
8037.145051831663
 20
2236.621024879349
 30
0.0
 11
8037.145051831663
 21
2036.621024879349
 31
0.0
  0
LINE
  5
1927F
330
747D
100
AcDbEntity
  8
破線
 48
5.0
100
AcDbLine
 10
11287.14505183166
 20
2036.621024879349
 30
0.0
 11
11087.14505183166
 21
2036.621024879349
 31
0.0
  0
LINE
  5
19280
330
747D
100
AcDbEntity
  8
破線
 48
5.0
100
AcDbLine
 10
8237.145051831664
 20
2236.621024879349
 30
0.0
 11
8237.145051831664
 21
2036.621024879349
 31
0.0
  0
LINE
  5
19281
330
747D
100
AcDbEntity
  8
破線
 48
5.0
100
AcDbLine
 10
8112.145051831664
 20
2081.621024879348
 30
0.0
 11
8132.145051831665
 21
2081.621024879348
 31
0.0
  0
LINE
  5
19282
330
747D
100
AcDbEntity
  8
破線
 48
5.0
100
AcDbLine
 10
11087.14505183166
 20
2236.621024879349
 30
0.0
 11
11087.14505183166
 21
2036.621024879349
 31
0.0
  0
LINE
  5
19283
330
747D
100
AcDbEntity
  8
破線
 48
5.0
100
AcDbLine
 10
11287.14505183166
 20
2236.621024879349
 30
0.0
 11
11287.14505183166
 21
2036.621024879349
 31
0.0
  0
LINE
  5
19284
330
747D
100
AcDbEntity
  8
部品1
100
AcDbLine
 10
11159.14505183166
 20
8269.83638839947
 30
0.0
 11
11187.14505183165
 21
8269.83638839947
 31
0.0
  0
LINE
  5
19285
330
747D
100
AcDbEntity
  8
部品1
100
AcDbLine
 10
8165.145051831631
 20
8269.836388399342
 30
0.0
 11
8137.14505183163
 21
8269.836388399342
 31
0.0
  0
LINE
  5
19286
330
747D
100
AcDbEntity
  8
部品1
100
AcDbLine
 10
11130.64505183164
 20
8269.836388399443
 30
0.0
 11
8193.645051831643
 21
8269.836388399342
 31
0.0
  0
TEXT
  5
19287
330
747D
100
AcDbEntity
  8
部品1
100
AcDbText
 10
3181.185425692929
 20
2272.727928485251
 30
0.0
 40
125.0
  1
▽G.L
  7
STYLE2
100
AcDbText
  0
TEXT
  5
19288
330
747D
100
AcDbEntity
  8
部品1
100
AcDbText
 10
4798.395474043514
 20
1354.689232683416
 30
0.0
 40
135.0
  1
側面図
  7
STYLE2
100
AcDbText
  0
LINE
  5
19289
330
747D
100
AcDbEntity
  8
部品1
100
AcDbLine
 10
4708.949372619907
 20
1547.58276190194
 30
0.0
 11
4708.949372619907
 21
1307.690440356408
 31
0.0
  0
LINE
  5
1928A
330
747D
100
AcDbEntity
  8
部品1
100
AcDbLine
 10
4708.949372619907
 20
1307.690440356408
 30
0.0
 11
5472.420038848344
 21
1307.690440356408
 31
0.0
  0
LINE
  5
1928B
330
747D
100
AcDbEntity
  8
部品1
100
AcDbLine
 10
5472.420038848344
 20
1307.690440356408
 30
0.0
 11
5472.420038848344
 21
1547.58276190194
 31
0.0
  0
LINE
  5
1928C
330
747D
100
AcDbEntity
  8
部品1
100
AcDbLine
 10
5472.420038848344
 20
1547.58276190194
 30
0.0
 11
4708.949372619907
 21
1547.58276190194
 31
0.0
  0
LINE
  5
1928D
330
747D
100
AcDbEntity
  8
部品1
100
AcDbLine
 10
4195.684705734126
 20
4476.621024879348
 30
0.0
 11
5985.684705734126
 21
4476.621024879348
 31
0.0
  0
LINE
  5
1928E
330
747D
100
AcDbEntity
  8
部品1
100
AcDbLine
 10
4195.684705734126
 20
2386.621024879349
 30
0.0
 11
5985.684705734129
 21
2386.621024879349
 31
0.0
  0
LINE
  5
1928F
330
747D
100
AcDbEntity
  8
部品1
100
AcDbLine
 10
4195.684705734126
 20
2336.621024879349
 30
0.0
 11
4203.184705734126
 21
2336.621024879349
 31
0.0
  0
LINE
  5
19290
330
747D
100
AcDbEntity
  8
部品1
100
AcDbLine
 10
4250.684705734125
 20
4476.621024879348
 30
0.0
 11
4250.684705734125
 21
2386.621024879349
 31
0.0
  0
LINE
  5
19291
330
747D
100
AcDbEntity
  8
部品1
100
AcDbLine
 10
4195.684705734126
 20
4570.621024879352
 30
0.0
 11
4195.684705734126
 21
2236.621024879349
 31
0.0
  0
LINE
  5
19292
330
747D
100
AcDbEntity
  8
部品1
100
AcDbLine
 10
4670.684705734125
 20
4476.621024879348
 30
0.0
 11
4670.684705734125
 21
2386.621024879349
 31
0.0
  0
LINE
  5
19293
330
747D
100
AcDbEntity
  8
部品1
100
AcDbLine
 10
5985.684705734126
 20
4570.621024879356
 30
0.0
 11
5985.684705734129
 21
2236.621024879349
 31
0.0
  0
LINE
  5
19294
330
747D
100
AcDbEntity
  8
部品1
100
AcDbLine
 10
5930.68470573413
 20
4476.621024879348
 30
0.0
 11
5930.68470573413
 21
2386.621024879349
 31
0.0
  0
LINE
  5
19295
330
747D
100
AcDbEntity
  8
破線
  6
HIDDEN
 48
5.0
100
AcDbLine
 10
5993.184705734126
 20
2081.621024879348
 30
0.0
 11
5923.184705734126
 21
2081.621024879348
 31
0.0
  0
LINE
  5
19296
330
747D
100
AcDbEntity
  8
破線
  6
HIDDEN
 48
5.0
100
AcDbLine
 10
5938.184705734125
 20
2231.621024879348
 30
0.0
 11
5923.184705734126
 21
2083.921024879348
 31
0.0
  0
LINE
  5
19297
330
747D
100
AcDbEntity
  8
破線
  6
HIDDEN
 48
5.0
100
AcDbLine
 10
5923.184705734126
 20
2083.921024879348
 30
0.0
 11
5923.184705734126
 21
2081.621024879348
 31
0.0
  0
LINE
  5
19298
330
747D
100
AcDbEntity
  8
破線
  6
HIDDEN
 48
5.0
100
AcDbLine
 10
5978.184705734125
 20
2231.621024879348
 30
0.0
 11
5993.184705734126
 21
2083.921024879348
 31
0.0
  0
LINE
  5
19299
330
747D
100
AcDbEntity
  8
破線
  6
HIDDEN
 48
5.0
100
AcDbLine
 10
5993.184705734126
 20
2083.921024879348
 30
0.0
 11
5993.184705734126
 21
2081.621024879348
 31
0.0
  0
LINE
  5
1929A
330
747D
100
AcDbEntity
  8
破線
  6
HIDDEN
 48
5.0
100
AcDbLine
 10
4188.184705734125
 20
2081.621024879348
 30
0.0
 11
4258.184705734126
 21
2081.621024879348
 31
0.0
  0
LINE
  5
1929B
330
747D
100
AcDbEntity
  8
破線
  6
HIDDEN
 48
5.0
100
AcDbLine
 10
4188.184705734125
 20
2083.921024879348
 30
0.0
 11
4188.184705734125
 21
2081.621024879348
 31
0.0
  0
LINE
  5
1929C
330
747D
100
AcDbEntity
  8
破線
  6
HIDDEN
 48
5.0
100
AcDbLine
 10
4258.184705734126
 20
2083.921024879348
 30
0.0
 11
4258.184705734126
 21
2081.621024879348
 31
0.0
  0
LINE
  5
1929D
330
747D
100
AcDbEntity
  8
破線
  6
HIDDEN
 48
5.0
100
AcDbLine
 10
4203.184705734126
 20
2231.621024879348
 30
0.0
 11
4188.184705734125
 21
2083.921024879348
 31
0.0
  0
LINE
  5
1929E
330
747D
100
AcDbEntity
  8
破線
  6
HIDDEN
 48
5.0
100
AcDbLine
 10
4243.184705734125
 20
2231.621024879348
 30
0.0
 11
4258.184705734126
 21
2083.921024879348
 31
0.0
  0
LINE
  5
1929F
330
747D
100
AcDbEntity
  8
部品1
 48
50.0
100
AcDbLine
 10
4203.184705734126
 20
2376.621024879349
 30
0.0
 11
4203.184705734126
 21
2236.621024879349
 31
0.0
  0
LINE
  5
192A0
330
747D
100
AcDbEntity
  8
部品1
 48
50.0
100
AcDbLine
 10
4243.184705734125
 20
2376.621024879349
 30
0.0
 11
4243.184705734125
 21
2236.621024879349
 31
0.0
  0
LINE
  5
192A1
330
747D
100
AcDbEntity
  8
部品1
100
AcDbLine
 10
4208.184705734125
 20
2381.621024879349
 30
0.0
 11
4238.184705734125
 21
2381.621024879349
 31
0.0
  0
ARC
  5
192A2
330
747D
100
AcDbEntity
  8
部品1
 48
50.0
100
AcDbCircle
 10
4208.184705734125
 20
2376.621024879349
 30
0.0
 40
5.0
100
AcDbArc
 50
90.0
 51
180.0
  0
ARC
  5
192A3
330
747D
100
AcDbEntity
  8
部品1
 48
50.0
100
AcDbCircle
 10
4238.184705734125
 20
2376.621024879349
 30
0.0
 40
5.0
100
AcDbArc
 50
0.0
 51
90.0
  0
LINE
  5
192A4
330
747D
100
AcDbEntity
  8
部品1
 48
50.0
100
AcDbLine
 10
5938.184705734125
 20
2376.621024879349
 30
0.0
 11
5938.184705734125
 21
2236.621024879349
 31
0.0
  0
LINE
  5
192A5
330
747D
100
AcDbEntity
  8
部品1
 48
50.0
100
AcDbLine
 10
5978.184705734125
 20
2376.621024879349
 30
0.0
 11
5978.184705734125
 21
2236.621024879349
 31
0.0
  0
LINE
  5
192A6
330
747D
100
AcDbEntity
  8
部品1
100
AcDbLine
 10
5973.184705734126
 20
2381.621024879349
 30
0.0
 11
5943.184705734125
 21
2381.621024879349
 31
0.0
  0
ARC
  5
192A7
330
747D
100
AcDbEntity
  8
部品1
 48
50.0
100
AcDbCircle
 10
5943.184705734125
 20
2376.621024879349
 30
0.0
 40
5.0
100
AcDbArc
 50
90.0
 51
180.0
  0
ARC
  5
192A8
330
747D
100
AcDbEntity
  8
部品1
 48
50.0
100
AcDbCircle
 10
5973.184705734126
 20
2376.621024879349
 30
0.0
 40
5.0
100
AcDbArc
 50
0.0
 51
90.0
  0
LINE
  5
192A9
330
747D
100
AcDbEntity
  8
破線
  6
HIDDEN
 48
5.0
100
AcDbLine
 10
5938.184705734125
 20
2236.621024879349
 30
0.0
 11
5938.184705734125
 21
2231.621024879348
 31
0.0
  0
LINE
  5
192AA
330
747D
100
AcDbEntity
  8
破線
  6
HIDDEN
 48
5.0
100
AcDbLine
 10
5978.184705734125
 20
2236.621024879349
 30
0.0
 11
5978.184705734125
 21
2231.621024879348
 31
0.0
  0
LINE
  5
192AB
330
747D
100
AcDbEntity
  8
破線
  6
HIDDEN
 48
5.0
100
AcDbLine
 10
4203.184705734133
 20
2236.621024879349
 30
0.0
 11
4203.184705734133
 21
2231.621024879348
 31
0.0
  0
LINE
  5
192AC
330
747D
100
AcDbEntity
  8
破線
  6
HIDDEN
 48
5.0
100
AcDbLine
 10
4243.184705734125
 20
2236.621024879349
 30
0.0
 11
4243.184705734125
 21
2231.621024879348
 31
0.0
  0
LINE
  5
192AD
330
747D
100
AcDbEntity
  8
部品1
100
AcDbLine
 10
5978.184705734125
 20
2336.621024879349
 30
0.0
 11
5985.684705734129
 21
2336.621024879349
 31
0.0
  0
LINE
  5
192AE
330
747D
100
AcDbEntity
  8
部品1
100
AcDbLine
 10
4243.184705734125
 20
2336.621024879349
 30
0.0
 11
5938.184705734125
 21
2336.621024879349
 31
0.0
  0
LINE
  5
192AF
330
747D
100
AcDbEntity
  8
細線
 48
50.0
100
AcDbLine
 10
4748.184705734125
 20
4476.621024879348
 30
0.0
 11
4748.184705734125
 21
2386.621024879349
 31
0.0
  0
LINE
  5
192B0
330
747D
100
AcDbEntity
  8
細線
 48
50.0
100
AcDbLine
 10
4733.184705734125
 20
4476.621024879348
 30
0.0
 11
4733.184705734125
 21
2386.621024879349
 31
0.0
  0
LINE
  5
192B1
330
747D
100
AcDbEntity
  8
細線
 48
50.0
100
AcDbLine
 10
4873.184705734125
 20
4476.621024879348
 30
0.0
 11
4873.184705734125
 21
2386.621024879349
 31
0.0
  0
LINE
  5
192B2
330
747D
100
AcDbEntity
  8
細線
 48
50.0
100
AcDbLine
 10
4888.184705734126
 20
4476.621024879348
 30
0.0
 11
4888.184705734126
 21
2386.621024879349
 31
0.0
  0
LINE
  5
192B3
330
747D
100
AcDbEntity
  8
細線
 48
50.0
100
AcDbLine
 10
5028.184705734126
 20
4476.621024879348
 30
0.0
 11
5028.184705734126
 21
2386.621024879349
 31
0.0
  0
LINE
  5
192B4
330
747D
100
AcDbEntity
  8
細線
 48
50.0
100
AcDbLine
 10
5013.184705734126
 20
4476.621024879348
 30
0.0
 11
5013.184705734126
 21
2386.621024879349
 31
0.0
  0
LINE
  5
192B5
330
747D
100
AcDbEntity
  8
細線
 48
50.0
100
AcDbLine
 10
4593.184705734126
 20
4476.621024879348
 30
0.0
 11
4593.184705734126
 21
2386.621024879349
 31
0.0
  0
LINE
  5
192B6
330
747D
100
AcDbEntity
  8
細線
 48
50.0
100
AcDbLine
 10
4608.184705734125
 20
4476.621024879348
 30
0.0
 11
4608.184705734125
 21
2386.621024879349
 31
0.0
  0
LINE
  5
192B7
330
747D
100
AcDbEntity
  8
細線
 48
50.0
100
AcDbLine
 10
4468.184705734126
 20
4476.621024879348
 30
0.0
 11
4468.184705734126
 21
2386.621024879349
 31
0.0
  0
LINE
  5
192B8
330
747D
100
AcDbEntity
  8
細線
 48
50.0
100
AcDbLine
 10
4453.184705734126
 20
4476.621024879348
 30
0.0
 11
4453.184705734126
 21
2386.621024879349
 31
0.0
  0
LINE
  5
192B9
330
747D
100
AcDbEntity
  8
細線
 48
50.0
100
AcDbLine
 10
4313.184705734125
 20
4476.621024879348
 30
0.0
 11
4313.184705734125
 21
2386.621024879349
 31
0.0
  0
LINE
  5
192BA
330
747D
100
AcDbEntity
  8
細線
 48
50.0
100
AcDbLine
 10
4328.184705734126
 20
4476.621024879348
 30
0.0
 11
4328.184705734126
 21
2386.621024879349
 31
0.0
  0
LINE
  5
192BB
330
747D
100
AcDbEntity
  8
部品1
100
AcDbLine
 10
5090.684705734126
 20
4476.621024879348
 30
0.0
 11
5090.684705734126
 21
2386.621024879349
 31
0.0
  0
LINE
  5
192BC
330
747D
100
AcDbEntity
  8
細線
 48
50.0
100
AcDbLine
 10
5433.184705734129
 20
4476.621024879348
 30
0.0
 11
5433.184705734129
 21
2386.621024879349
 31
0.0
  0
LINE
  5
192BD
330
747D
100
AcDbEntity
  8
細線
 48
50.0
100
AcDbLine
 10
5448.184705734129
 20
4476.621024879348
 30
0.0
 11
5448.184705734129
 21
2386.621024879349
 31
0.0
  0
LINE
  5
192BE
330
747D
100
AcDbEntity
  8
細線
 48
50.0
100
AcDbLine
 10
5308.184705734129
 20
4476.621024879348
 30
0.0
 11
5308.184705734129
 21
2386.621024879349
 31
0.0
  0
LINE
  5
192BF
330
747D
100
AcDbEntity
  8
細線
 48
50.0
100
AcDbLine
 10
5293.184705734129
 20
4476.621024879348
 30
0.0
 11
5293.184705734129
 21
2386.621024879349
 31
0.0
  0
LINE
  5
192C0
330
747D
100
AcDbEntity
  8
細線
 48
50.0
100
AcDbLine
 10
5153.18470573413
 20
4476.621024879348
 30
0.0
 11
5153.18470573413
 21
2386.621024879349
 31
0.0
  0
LINE
  5
192C1
330
747D
100
AcDbEntity
  8
細線
 48
50.0
100
AcDbLine
 10
5168.184705734129
 20
4476.621024879348
 30
0.0
 11
5168.184705734129
 21
2386.621024879349
 31
0.0
  0
LINE
  5
192C2
330
747D
100
AcDbEntity
  8
部品1
100
AcDbLine
 10
5510.684705734125
 20
4476.621024879348
 30
0.0
 11
5510.684705734125
 21
2386.621024879349
 31
0.0
  0
LINE
  5
192C3
330
747D
100
AcDbEntity
  8
細線
 48
50.0
100
AcDbLine
 10
5588.184705734133
 20
4476.621024879348
 30
0.0
 11
5588.184705734133
 21
2386.621024879349
 31
0.0
  0
LINE
  5
192C4
330
747D
100
AcDbEntity
  8
細線
 48
50.0
100
AcDbLine
 10
5573.184705734132
 20
4476.621024879348
 30
0.0
 11
5573.184705734132
 21
2386.621024879349
 31
0.0
  0
LINE
  5
192C5
330
747D
100
AcDbEntity
  8
細線
 48
50.0
100
AcDbLine
 10
5713.184705734133
 20
4476.621024879348
 30
0.0
 11
5713.184705734133
 21
2386.621024879349
 31
0.0
  0
LINE
  5
192C6
330
747D
100
AcDbEntity
  8
細線
 48
50.0
100
AcDbLine
 10
5728.184705734133
 20
4476.621024879348
 30
0.0
 11
5728.184705734133
 21
2386.621024879349
 31
0.0
  0
LINE
  5
192C7
330
747D
100
AcDbEntity
  8
細線
 48
50.0
100
AcDbLine
 10
5868.184705734133
 20
4476.621024879348
 30
0.0
 11
5868.184705734133
 21
2386.621024879349
 31
0.0
  0
LINE
  5
192C8
330
747D
100
AcDbEntity
  8
細線
 48
50.0
100
AcDbLine
 10
5853.184705734133
 20
4476.621024879348
 30
0.0
 11
5853.184705734133
 21
2386.621024879349
 31
0.0
  0
DIMENSION
  5
192C9
330
747D
100
AcDbEntity
  8
寸法
 48
50.0
100
AcDbDimension
  2
*D25
 10
3973.684702487492
 20
2236.621024879349
 30
0.0
 11
3973.684702487491
 21
2136.621024879349
 31
0.0
 70
   160
 71
     5
 42
200.0
  3
INABA_S40G
100
AcDbAlignedDimension
 13
4123.184705734129
 23
2036.621024879349
 33
0.0
 14
4098.184705734126
 24
2236.621024879349
 34
0.0
 50
90.0
100
AcDbRotatedDimension
1001
ACAD
1000
DSTYLE
1002
{
1070
   174
1070
     0
1070
   272
1070
     1
1070
   288
1070
     0
1070
   341
1005
0
1002
}
  0
LINE
  5
192CA
330
747D
100
AcDbEntity
  8
破線
 48
5.0
100
AcDbLine
 10
4323.184705734125
 20
2036.621024879349
 30
0.0
 11
4123.184705734129
 21
2036.621024879349
 31
0.0
  0
LINE
  5
192CB
330
747D
100
AcDbEntity
  8
破線
 48
5.0
100
AcDbLine
 10
4323.184705734125
 20
2236.621024879349
 30
0.0
 11
4323.184705734125
 21
2036.621024879349
 31
0.0
  0
LINE
  5
192CC
330
747D
100
AcDbEntity
  8
破線
 48
5.0
100
AcDbLine
 10
4123.184705734125
 20
2236.621024879349
 30
0.0
 11
4123.184705734129
 21
2036.621024879349
 31
0.0
  0
DIMENSION
  5
192CD
330
747D
100
AcDbEntity
  8
寸法
 48
50.0
100
AcDbDimension
  2
*D26
 10
4123.184705734129
 20
1750.573695578971
 30
0.0
 11
4223.184705734127
 21
1750.573695578971
 31
0.0
 70
   160
 71
     5
 42
199.9999999999963
  3
INABA_S40G
100
AcDbAlignedDimension
 13
4323.184705734125
 23
2036.621024879347
 33
0.0
 14
4123.184705734129
 24
2036.621024879349
 34
0.0
100
AcDbRotatedDimension
  0
LINE
  5
192CE
330
747D
100
AcDbEntity
  8
破線
 48
5.0
100
AcDbLine
 10
6058.184705734133
 20
2236.621024879349
 30
0.0
 11
6058.184705734129
 21
2036.621024879349
 31
0.0
  0
LINE
  5
192CF
330
747D
100
AcDbEntity
  8
破線
 48
5.0
100
AcDbLine
 10
6058.184705734129
 20
2036.621024879349
 30
0.0
 11
5858.184705734132
 21
2036.621024879349
 31
0.0
  0
LINE
  5
192D0
330
747D
100
AcDbEntity
  8
破線
 48
5.0
100
AcDbLine
 10
5858.184705734132
 20
2236.621024879349
 30
0.0
 11
5858.184705734132
 21
2036.621024879349
 31
0.0
  0
LINE
  5
192D1
330
747D
100
AcDbEntity
  8
部品1
 48
50.0
100
AcDbLine
 10
5985.684705734129
 20
4471.62102487935
 30
0.0
 11
6062.684705734129
 21
4461.621024879351
 31
0.0
  0
LINE
  5
192D2
330
747D
100
AcDbEntity
  8
部品1
 48
50.0
100
AcDbLine
 10
6062.684705734129
 20
4461.621024879351
 30
0.0
 11
6062.684705734129
 21
2236.621024879349
 31
0.0
  0
LINE
  5
192D3
330
747D
100
AcDbEntity
  8
部品1
 48
50.0
100
AcDbLine
 10
6062.684705734129
 20
2336.621024879349
 30
0.0
 11
5978.184705734129
 21
2336.621024879349
 31
0.0
  0
LINE
  5
192D4
330
747D
100
AcDbEntity
  8
部品1
100
AcDbLine
 10
5785.684705734126
 20
2336.621024879349
 30
0.0
 11
5785.684705734126
 21
2236.621024879349
 31
0.0
  0
LINE
  5
192D5
330
747D
100
AcDbEntity
  8
部品1
 48
50.0
100
AcDbLine
 10
5190.684705734126
 20
2336.621024879349
 30
0.0
 11
5190.684705734126
 21
2236.621024879349
 31
0.0
  0
LINE
  5
192D6
330
747D
100
AcDbEntity
  8
部品1
 48
50.0
100
AcDbLine
 10
4990.684705734126
 20
2336.621024879349
 30
0.0
 11
4990.684705734126
 21
2236.621024879349
 31
0.0
  0
LINE
  5
192D7
330
747D
100
AcDbEntity
  8
部品1
100
AcDbLine
 10
4395.684705734125
 20
2336.621024879349
 30
0.0
 11
4395.684705734125
 21
2236.621024879349
 31
0.0
  0
DIMENSION
  5
192D8
330
747D
100
AcDbEntity
  8
寸法
 48
50.0
100
AcDbDimension
  2
*D27
 10
4195.684705734133
 20
5116.241284306621
 30
0.0
 11
5090.684705734126
 21
5116.241284306621
 31
0.0
 70
   160
  1
柱外寸法<>
 71
     5
 42
1789.999999999989
  3
INABA_S40G
100
AcDbAlignedDimension
 13
5985.684705734122
 23
4711.621024879354
 33
0.0
 14
4195.684705734133
 24
4711.621024879355
 34
0.0
100
AcDbRotatedDimension
  0
DIMENSION
  5
192D9
330
747D
100
AcDbEntity
  8
寸法
 48
50.0
100
AcDbDimension
  2
*D28
 10
6035.684705734122
 20
5325.835158728072
 30
0.0
 11
5090.684705734126
 21
5325.835158728072
 31
0.0
 70
   160
 71
     5
 42
1889.999999999989
  3
INABA_S40G
100
AcDbAlignedDimension
 13
4145.684705734132
 23
4711.621024879354
 33
0.0
 14
6035.684705734122
 24
4711.621024879351
 34
0.0
100
AcDbRotatedDimension
  0
DIMENSION
  5
192DA
330
747D
100
AcDbEntity
  8
寸法
 48
50.0
100
AcDbDimension
  2
*D29
 10
4145.684705734132
 20
5116.241284306621
 30
0.0
 11
3832.199424359886
 21
5116.241284306621
 31
0.0
 70
   160
 71
     5
 42
50.0
  3
INABA_S40G
100
AcDbAlignedDimension
 13
4195.684705734133
 23
4711.621024879355
 33
0.0
 14
4145.684705734132
 24
4711.621024879354
 34
0.0
100
AcDbRotatedDimension
1001
ACAD
1000
DSTYLE
1002
{
1002
}
  0
LINE
  5
192DB
330
747D
100
AcDbEntity
  8
細線
 48
50.0
100
AcDbLine
 10
4178.684705734132
 20
4711.621024879351
 30
0.0
 11
4178.684705734132
 21
4570.621024879352
 31
0.0
  0
ARC
  5
192DC
330
747D
100
AcDbEntity
  8
部品1
100
AcDbCircle
 10
4153.093126840558
 20
4704.621024879352
 30
0.0
 40
7.0
100
AcDbArc
 50
90.0
 51
183.2473427903377
  0
ARC
  5
192DD
330
747D
100
AcDbEntity
  8
部品1
100
AcDbCircle
 10
4166.308450301595
 20
4577.621024879356
 30
0.0
 40
7.0
100
AcDbArc
 50
183.2473427903377
 51
270.0
  0
ARC
  5
192DE
330
747D
100
AcDbEntity
  8
部品1
 48
50.0
100
AcDbCircle
 10
4147.936640090916
 20
4684.288024041039
 30
0.0
 40
0.7
100
AcDbArc
 50
183.2473427903897
 51
262.3418727926365
  0
ARC
  5
192DF
330
747D
100
AcDbEntity
  8
部品1
 48
50.0
100
AcDbCircle
 10
4156.17267061576
 20
4592.088024041035
 30
0.0
 40
0.7
100
AcDbArc
 50
183.2473427903377
 51
262.3418727926365
  0
ARC
  5
192E0
330
747D
100
AcDbEntity
  8
部品1
 48
50.0
100
AcDbCircle
 10
4155.679601507199
 20
4588.421024879351
 30
0.0
 40
3.0
100
AcDbArc
 50
3.247342790337682
 51
82.34187279263654
  0
ARC
  5
192E1
330
747D
100
AcDbEntity
  8
部品1
 48
50.0
100
AcDbCircle
 10
4147.443570982356
 20
4680.621024879356
 30
0.0
 40
3.0
100
AcDbArc
 50
3.247342790337682
 51
82.34187279263654
  0
LINE
  5
192E2
330
747D
100
AcDbEntity
  8
部品1
100
AcDbLine
 10
4150.438753878542
 20
4680.790964334455
 30
0.0
 11
4155.473794606648
 21
4592.048371501512
 31
0.0
  0
LINE
  5
192E3
330
747D
100
AcDbEntity
  8
部品1
100
AcDbLine
 10
4158.674784403385
 20
4588.590964334454
 30
0.0
 11
4159.319690210494
 21
4577.224499484115
 31
0.0
  0
LINE
  5
192E4
330
747D
100
AcDbEntity
  8
部品1
100
AcDbLine
 10
4146.104366749463
 20
4704.224499484115
 30
0.0
 11
4147.237764081812
 21
4684.248371501513
 31
0.0
  0
LINE
  5
192E5
330
747D
100
AcDbEntity
  8
部品1
 48
50.0
100
AcDbLine
 10
6028.27628462769
 20
4711.621024879351
 30
0.0
 11
4153.093126840558
 21
4711.621024879355
 31
0.0
  0
LINE
  5
192E6
330
747D
100
AcDbEntity
  8
部品1
 48
50.0
100
AcDbLine
 10
6015.060961166655
 20
4570.621024879356
 30
0.0
 11
4166.308450301595
 21
4570.621024879352
 31
0.0
  0
LINE
  5
192E7
330
747D
100
AcDbEntity
  8
細線
 48
50.0
100
AcDbLine
 10
6033.645167512687
 20
4683.621024879354
 30
0.0
 11
4147.724243955567
 21
4683.621024879352
 31
0.0
  0
LINE
  5
192E8
330
747D
100
AcDbEntity
  8
細線
 48
50.0
100
AcDbLine
 10
6025.409136987841
 20
4591.421024879351
 30
0.0
 11
4155.960274480396
 21
4591.421024879354
 31
0.0
  0
LINE
  5
192E9
330
747D
100
AcDbEntity
  8
細線
100
AcDbLine
 10
4685.684705734125
 20
4536.121024879348
 30
0.0
 11
4685.684705734121
 21
4513.121024879349
 31
0.0
  0
LINE
  5
192EA
330
747D
100
AcDbEntity
  8
細線
100
AcDbLine
 10
4759.684705734122
 20
4524.121024879348
 30
0.0
 11
4685.684705734125
 21
4524.121024879348
 31
0.0
  0
LINE
  5
192EB
330
747D
100
AcDbEntity
  8
細線
100
AcDbLine
 10
4759.684705734122
 20
4518.121024879348
 30
0.0
 11
4685.684705734125
 21
4518.121024879348
 31
0.0
  0
LINE
  5
192EC
330
747D
100
AcDbEntity
  8
細線
100
AcDbLine
 10
4759.684705734122
 20
4530.121024879348
 30
0.0
 11
4685.684705734125
 21
4530.121024879348
 31
0.0
  0
LINE
  5
192ED
330
747D
100
AcDbEntity
  8
細線
100
AcDbLine
 10
4611.684705734125
 20
4530.121024879348
 30
0.0
 11
4680.684705734125
 21
4530.121024879348
 31
0.0
  0
LINE
  5
192EE
330
747D
100
AcDbEntity
  8
細線
100
AcDbLine
 10
4611.684705734122
 20
4518.121024879348
 30
0.0
 11
4685.684705734125
 21
4518.121024879348
 31
0.0
  0
LINE
  5
192EF
330
747D
100
AcDbEntity
  8
細線
100
AcDbLine
 10
4611.684705734125
 20
4524.121024879348
 30
0.0
 11
4685.684705734125
 21
4524.121024879348
 31
0.0
  0
LINE
  5
192F0
330
747D
100
AcDbEntity
  8
細線
100
AcDbLine
 10
4611.684705734125
 20
4530.121024879348
 30
0.0
 11
4685.684705734125
 21
4530.121024879348
 31
0.0
  0
LINE
  5
192F1
330
747D
100
AcDbEntity
  8
部品1
 48
0.01
100
AcDbLine
 10
4773.684705734125
 20
4542.621024879348
 30
0.0
 11
4597.684705734126
 21
4542.621024879348
 31
0.0
  0
LINE
  5
192F2
330
747D
100
AcDbEntity
  8
部品1
 48
0.01
100
AcDbLine
 10
4595.684705734125
 20
4540.621024879349
 30
0.0
 11
4595.684705734125
 21
4509.121024879348
 31
0.0
  0
LINE
  5
192F3
330
747D
100
AcDbEntity
  8
部品1
 48
0.01
100
AcDbLine
 10
4597.684705734126
 20
4507.121024879348
 30
0.0
 11
4773.684705734122
 21
4507.121024879348
 31
0.0
  0
LINE
  5
192F4
330
747D
100
AcDbEntity
  8
部品1
 48
0.01
100
AcDbLine
 10
4775.684705734121
 20
4509.121024879348
 30
0.0
 11
4775.684705734125
 21
4540.621024879349
 31
0.0
  0
LINE
  5
192F5
330
747D
100
AcDbEntity
  8
細線
100
AcDbLine
 10
4611.684705734125
 20
4536.121024879348
 30
0.0
 11
4611.684705734125
 21
4513.121024879349
 31
0.0
  0
LINE
  5
192F6
330
747D
100
AcDbEntity
  8
細線
100
AcDbLine
 10
4759.684705734126
 20
4513.121024879349
 30
0.0
 11
4759.684705734126
 21
4536.121024879348
 31
0.0
  0
LINE
  5
192F7
330
747D
100
AcDbEntity
  8
細線
100
AcDbLine
 10
4759.684705734126
 20
4536.121024879348
 30
0.0
 11
4685.684705734125
 21
4536.121024879348
 31
0.0
  0
LINE
  5
192F8
330
747D
100
AcDbEntity
  8
細線
100
AcDbLine
 10
4611.684705734125
 20
4513.121024879349
 30
0.0
 11
4685.684705734125
 21
4513.121024879349
 31
0.0
  0
LINE
  5
192F9
330
747D
100
AcDbEntity
  8
細線
100
AcDbLine
 10
4685.684705734125
 20
4536.121024879348
 30
0.0
 11
4611.684705734125
 21
4536.121024879348
 31
0.0
  0
LINE
  5
192FA
330
747D
100
AcDbEntity
  8
細線
100
AcDbLine
 10
4685.684705734121
 20
4513.121024879349
 30
0.0
 11
4759.684705734126
 21
4513.121024879349
 31
0.0
  0
ARC
  5
192FB
330
747D
100
AcDbEntity
  8
部品1
 48
0.01
100
AcDbCircle
 10
4597.684705734126
 20
4540.621024879349
 30
0.0
 40
2.0
100
AcDbArc
 50
90.0
 51
180.0
  0
ARC
  5
192FC
330
747D
100
AcDbEntity
  8
部品1
 48
0.01
100
AcDbCircle
 10
4597.684705734126
 20
4509.121024879348
 30
0.0
 40
2.0
100
AcDbArc
 50
180.0
 51
270.0
  0
ARC
  5
192FD
330
747D
100
AcDbEntity
  8
部品1
 48
0.01
100
AcDbCircle
 10
4773.684705734125
 20
4540.621024879349
 30
0.0
 40
2.0
100
AcDbArc
 50
0.0
 51
90.0
  0
ARC
  5
192FE
330
747D
100
AcDbEntity
  8
部品1
 48
0.01
100
AcDbCircle
 10
4773.684705734122
 20
4509.121024879348
 30
0.0
 40
2.0
100
AcDbArc
 50
270.0
 51
0.0
  0
ARC
  5
192FF
330
747D
100
AcDbEntity
  8
部品1
 48
0.01
100
AcDbCircle
 10
5407.684705734125
 20
4540.621024879349
 30
0.0
 40
2.0
100
AcDbArc
 50
90.0
 51
180.0
  0
ARC
  5
19300
330
747D
100
AcDbEntity
  8
部品1
 48
0.01
100
AcDbCircle
 10
5583.684705734126
 20
4540.621024879349
 30
0.0
 40
2.0
100
AcDbArc
 50
0.0
 51
90.0
  0
LINE
  5
19301
330
747D
100
AcDbEntity
  8
細線
100
AcDbLine
 10
5495.684705734126
 20
4513.121024879349
 30
0.0
 11
5421.684705734126
 21
4513.121024879349
 31
0.0
  0
LINE
  5
19302
330
747D
100
AcDbEntity
  8
細線
100
AcDbLine
 10
5495.684705734126
 20
4536.121024879348
 30
0.0
 11
5569.684705734125
 21
4536.121024879348
 31
0.0
  0
LINE
  5
19303
330
747D
100
AcDbEntity
  8
細線
100
AcDbLine
 10
5569.684705734125
 20
4513.121024879349
 30
0.0
 11
5495.684705734126
 21
4513.121024879349
 31
0.0
  0
LINE
  5
19304
330
747D
100
AcDbEntity
  8
細線
100
AcDbLine
 10
5421.684705734126
 20
4536.121024879348
 30
0.0
 11
5495.684705734126
 21
4536.121024879348
 31
0.0
  0
LINE
  5
19305
330
747D
100
AcDbEntity
  8
細線
100
AcDbLine
 10
5421.684705734126
 20
4513.121024879349
 30
0.0
 11
5421.684705734126
 21
4536.121024879348
 31
0.0
  0
LINE
  5
19306
330
747D
100
AcDbEntity
  8
細線
100
AcDbLine
 10
5569.684705734125
 20
4536.121024879348
 30
0.0
 11
5569.684705734125
 21
4513.121024879349
 31
0.0
  0
LINE
  5
19307
330
747D
100
AcDbEntity
  8
部品1
 48
0.01
100
AcDbLine
 10
5407.684705734125
 20
4542.621024879348
 30
0.0
 11
5583.684705734126
 21
4542.621024879348
 31
0.0
  0
LINE
  5
19308
330
747D
100
AcDbEntity
  8
細線
100
AcDbLine
 10
5569.684705734125
 20
4530.121024879348
 30
0.0
 11
5495.684705734126
 21
4530.121024879348
 31
0.0
  0
LINE
  5
19309
330
747D
100
AcDbEntity
  8
細線
100
AcDbLine
 10
5569.684705734125
 20
4524.121024879348
 30
0.0
 11
5495.684705734126
 21
4524.121024879348
 31
0.0
  0
LINE
  5
1930A
330
747D
100
AcDbEntity
  8
細線
100
AcDbLine
 10
5569.684705734125
 20
4518.121024879348
 30
0.0
 11
5495.684705734126
 21
4518.121024879348
 31
0.0
  0
LINE
  5
1930B
330
747D
100
AcDbEntity
  8
細線
100
AcDbLine
 10
5569.684705734125
 20
4530.121024879348
 30
0.0
 11
5500.684705734125
 21
4530.121024879348
 31
0.0
  0
LINE
  5
1930C
330
747D
100
AcDbEntity
  8
細線
100
AcDbLine
 10
5421.684705734126
 20
4530.121024879348
 30
0.0
 11
5495.684705734126
 21
4530.121024879348
 31
0.0
  0
LINE
  5
1930D
330
747D
100
AcDbEntity
  8
細線
100
AcDbLine
 10
5421.684705734126
 20
4518.121024879348
 30
0.0
 11
5495.684705734126
 21
4518.121024879348
 31
0.0
  0
LINE
  5
1930E
330
747D
100
AcDbEntity
  8
細線
100
AcDbLine
 10
5421.684705734126
 20
4524.121024879348
 30
0.0
 11
5495.684705734126
 21
4524.121024879348
 31
0.0
  0
LINE
  5
1930F
330
747D
100
AcDbEntity
  8
細線
100
AcDbLine
 10
5495.684705734126
 20
4536.121024879348
 30
0.0
 11
5495.684705734126
 21
4513.121024879349
 31
0.0
  0
ARC
  5
19310
330
747D
100
AcDbEntity
  8
部品1
 48
0.01
100
AcDbCircle
 10
5407.684705734125
 20
4509.121024879348
 30
0.0
 40
2.0
100
AcDbArc
 50
180.0
 51
270.0
  0
ARC
  5
19311
330
747D
100
AcDbEntity
  8
部品1
 48
0.01
100
AcDbCircle
 10
5583.684705734126
 20
4509.121024879348
 30
0.0
 40
2.0
100
AcDbArc
 50
270.0
 51
0.0
  0
LINE
  5
19312
330
747D
100
AcDbEntity
  8
部品1
 48
0.01
100
AcDbLine
 10
5405.684705734126
 20
4509.121024879348
 30
0.0
 11
5405.684705734126
 21
4540.621024879349
 31
0.0
  0
LINE
  5
19313
330
747D
100
AcDbEntity
  8
部品1
 48
0.01
100
AcDbLine
 10
5583.684705734126
 20
4507.121024879348
 30
0.0
 11
5407.684705734125
 21
4507.121024879348
 31
0.0
  0
LINE
  5
19314
330
747D
100
AcDbEntity
  8
部品1
 48
0.01
100
AcDbLine
 10
5585.684705734125
 20
4540.621024879349
 30
0.0
 11
5585.684705734125
 21
4509.121024879348
 31
0.0
  0
DIMENSION
  5
19315
330
747D
100
AcDbEntity
  8
寸法
 48
50.0
100
AcDbDimension
  2
*D30
 10
5985.684705734122
 20
5116.241284306621
 30
0.0
 11
6349.169987108358
 21
5116.241284306621
 31
0.0
 70
   160
 71
     5
 42
50.0
  3
INABA_S40G
100
AcDbAlignedDimension
 13
6035.684705734122
 23
4711.621024879351
 33
0.0
 14
5985.684705734122
 24
4711.621024879354
 34
0.0
100
AcDbRotatedDimension
  0
LINE
  5
19316
330
747D
100
AcDbEntity
  8
部品1
100
AcDbLine
 10
6035.265044718788
 20
4704.224499484115
 30
0.0
 11
6034.131647386442
 21
4684.248371501513
 31
0.0
  0
LINE
  5
19317
330
747D
100
AcDbEntity
  8
細線
 48
50.0
100
AcDbLine
 10
6002.684705734122
 20
4711.621024879351
 30
0.0
 11
6002.684705734122
 21
4570.621024879352
 31
0.0
  0
LINE
  5
19318
330
747D
100
AcDbEntity
  8
部品1
100
AcDbLine
 10
6022.694627064866
 20
4588.590964334454
 30
0.0
 11
6022.049721257754
 21
4577.224499484115
 31
0.0
  0
LINE
  5
19319
330
747D
100
AcDbEntity
  8
部品1
100
AcDbLine
 10
6030.93065758971
 20
4680.790964334455
 30
0.0
 11
6025.895616861599
 21
4592.048371501512
 31
0.0
  0
ARC
  5
1931A
330
747D
100
AcDbEntity
  8
部品1
 48
50.0
100
AcDbCircle
 10
6033.925840485895
 20
4680.621024879356
 30
0.0
 40
3.0
100
AcDbArc
 50
97.65812720736347
 51
176.7526572096623
  0
ARC
  5
1931B
330
747D
100
AcDbEntity
  8
部品1
 48
50.0
100
AcDbCircle
 10
6025.689809961051
 20
4588.421024879351
 30
0.0
 40
3.0
100
AcDbArc
 50
97.65812720736347
 51
176.7526572096623
  0
ARC
  5
1931C
330
747D
100
AcDbEntity
  8
部品1
 48
50.0
100
AcDbCircle
 10
6025.19674085249
 20
4592.088024041035
 30
0.0
 40
0.7
100
AcDbArc
 50
277.6581272073635
 51
356.7526572096623
  0
ARC
  5
1931D
330
747D
100
AcDbEntity
  8
部品1
 48
50.0
100
AcDbCircle
 10
6033.432771377334
 20
4684.288024041039
 30
0.0
 40
0.7
100
AcDbArc
 50
277.6581272073635
 51
356.7526572096103
  0
ARC
  5
1931E
330
747D
100
AcDbEntity
  8
部品1
100
AcDbCircle
 10
6015.060961166655
 20
4577.621024879356
 30
0.0
 40
7.0
100
AcDbArc
 50
270.0
 51
356.7526572096623
  0
ARC
  5
1931F
330
747D
100
AcDbEntity
  8
部品1
100
AcDbCircle
 10
6028.27628462769
 20
4704.621024879352
 30
0.0
 40
7.0
100
AcDbArc
 50
356.7526572096623
 51
90.0
  0
LINE
  5
19320
330
747D
100
AcDbEntity
  8
Ｇ．Ｌ
100
AcDbLine
 10
2893.21587371538
 20
2236.621024879349
 30
0.0
 11
11984.49505662859
 21
2236.621024879349
 31
0.0
  0
TEXT
  5
19321
330
747D
100
AcDbEntity
  8
部品1
100
AcDbText
 10
9394.68512260103
 20
1354.689232683417
 30
0.0
 40
135.0
  1
正面図
  7
STYLE2
100
AcDbText
  0
LINE
  5
19327
330
747D
100
AcDbEntity
  8
部品1
100
AcDbLine
 10
9304.159718863074
 20
1547.58276190194
 30
0.0
 11
9304.159718863074
 21
1307.690440356408
 31
0.0
  0
LINE
  5
19328
330
747D
100
AcDbEntity
  8
部品1
100
AcDbLine
 10
9304.159718863074
 20
1307.690440356408
 30
0.0
 11
10067.63038509151
 21
1307.690440356408
 31
0.0
  0
LINE
  5
19329
330
747D
100
AcDbEntity
  8
部品1
100
AcDbLine
 10
10067.63038509151
 20
1307.690440356408
 30
0.0
 11
10067.63038509151
 21
1547.58276190194
 31
0.0
  0
LINE
  5
1932A
330
747D
100
AcDbEntity
  8
部品1
100
AcDbLine
 10
10067.63038509151
 20
1547.58276190194
 30
0.0
 11
9304.159718863074
 21
1547.58276190194
 31
0.0
  0
LINE
  5
1932B
330
747D
100
AcDbEntity
  8
部品1
100
AcDbLine
 10
8137.145051831664
 20
4476.621024879348
 30
0.0
 11
11187.14505183166
 21
4476.621024879348
 31
0.0
  0
LINE
  5
1932C
330
747D
100
AcDbEntity
  8
部品1
100
AcDbLine
 10
8137.145051831664
 20
2386.621024879349
 30
0.0
 11
8585.145051831659
 21
2386.621024879349
 31
0.0
  0
LINE
  5
1932D
330
747D
100
AcDbEntity
  8
部品1
100
AcDbLine
 10
8137.145051831664
 20
2336.62102487935
 30
0.0
 11
11187.14505183166
 21
2336.621024879349
 31
0.0
  0
LINE
  5
1932E
330
747D
100
AcDbEntity
  8
部品1
100
AcDbLine
 10
8137.145051831664
 20
4568.84862611399
 30
0.0
 11
8137.145051831664
 21
2236.621024879349
 31
0.0
  0
LINE
  5
1932F
330
747D
100
AcDbEntity
  8
部品1
100
AcDbLine
 10
8192.145051831662
 20
4476.621024879348
 30
0.0
 11
8192.145051831662
 21
2386.621024879349
 31
0.0
  0
LINE
  5
19330
330
747D
100
AcDbEntity
  8
部品1
100
AcDbLine
 10
8132.145051831663
 20
2381.621024879351
 30
0.0
 11
8132.145051831663
 21
2236.621024879349
 31
0.0
  0
LINE
  5
19331
330
747D
100
AcDbEntity
  8
破線
  6
HIDDEN
 48
5.0
100
AcDbLine
 10
8129.645051831664
 20
2083.921024879348
 30
0.0
 11
8129.645051831664
 21
2081.621024879348
 31
0.0
  0
LINE
  5
19332
330
747D
100
AcDbEntity
  8
破線
 48
5.0
100
AcDbLine
 10
8112.145051831664
 20
2081.62102487935
 30
0.0
 11
8132.145051831665
 21
2081.62102487935
 31
0.0
  0
LINE
  5
19333
330
747D
100
AcDbEntity
  8
破線
 48
5.0
100
AcDbLine
 10
8132.145051831663
 20
2236.621024879349
 30
0.0
 11
8132.145051831663
 21
2081.62102487935
 31
0.0
  0
LINE
  5
19334
330
747D
100
AcDbEntity
  8
部品1
100
AcDbLine
 10
10739.14505183166
 20
2386.621024879349
 30
0.0
 11
11187.14505183166
 21
2386.621024879349
 31
0.0
  0
LINE
  5
19335
330
747D
100
AcDbEntity
  8
部品1
 48
50.0
100
AcDbLine
 10
8835.145051831661
 20
2336.621024879349
 30
0.0
 11
8835.145051831661
 21
2236.621024879349
 31
0.0
  0
LINE
  5
19336
330
747D
100
AcDbEntity
  8
部品1
100
AcDbLine
 10
8537.145051831663
 20
2336.621024879349
 30
0.0
 11
8537.145051831663
 21
2236.621024879349
 31
0.0
  0
LINE
  5
19337
330
747D
100
AcDbEntity
  8
部品1
 48
50.0
100
AcDbLine
 10
9562.145051831661
 20
2336.621024879349
 30
0.0
 11
9562.145051831661
 21
2236.621024879349
 31
0.0
  0
LINE
  5
19338
330
747D
100
AcDbEntity
  8
部品1
 48
50.0
100
AcDbLine
 10
9035.14505183166
 20
2336.621024879349
 30
0.0
 11
9035.14505183166
 21
2236.621024879349
 31
0.0
  0
LINE
  5
19339
330
747D
100
AcDbEntity
  8
部品1
 48
50.0
100
AcDbLine
 10
9762.145051831662
 20
2336.621024879349
 30
0.0
 11
9762.145051831662
 21
2236.621024879349
 31
0.0
  0
LINE
  5
1933A
330
747D
100
AcDbEntity
  8
部品1
100
AcDbLine
 10
10787.14505183166
 20
2336.621024879349
 30
0.0
 11
10787.14505183166
 21
2236.621024879349
 31
0.0
  0
LINE
  5
1933B
330
747D
100
AcDbEntity
  8
部品1
 48
50.0
100
AcDbLine
 10
10489.14505183166
 20
2336.621024879349
 30
0.0
 11
10489.14505183166
 21
2236.621024879349
 31
0.0
  0
LINE
  5
1933C
330
747D
100
AcDbEntity
  8
部品1
 48
50.0
100
AcDbLine
 10
10289.14505183166
 20
2336.621024879349
 30
0.0
 11
10289.14505183166
 21
2236.621024879349
 31
0.0
  0
LINE
  5
1933D
330
747D
100
AcDbEntity
  8
部品1
100
AcDbLine
 10
11187.14505183166
 20
4531.051052660473
 30
0.0
 11
11187.14505183166
 21
2236.621024879349
 31
0.0
  0
DIMENSION
  5
1933E
330
747D
100
AcDbEntity
  8
寸法
 48
50.0
100
AcDbDimension
  2
*D2
 10
11878.35863081773
 20
4656.621024879348
 30
0.0
 11
11778.3468197941
 21
3496.621024879351
 31
0.0
 70
    32
 71
     5
 42
2320.000000000001
  3
INABA_S40G
100
AcDbAlignedDimension
 13
11187.14505183166
 23
2336.621024879349
 33
0.0
 14
11267.14505183167
 24
4656.621024879348
 34
0.0
 50
90.0
100
AcDbRotatedDimension
1001
ACAD
1000
DSTYLE
1002
{
1002
}
  0
LINE
  5
1933F
330
747D
100
AcDbEntity
  8
部品1
100
AcDbLine
 10
10712.14505183166
 20
4476.621024879348
 30
0.0
 11
10712.14505183166
 21
4471.621024879349
 31
0.0
  0
LINE
  5
19340
330
747D
100
AcDbEntity
  8
部品1
100
AcDbLine
 10
11192.14505183166
 20
2381.62102487935
 30
0.0
 11
11192.14505183166
 21
2236.621024879349
 31
0.0
  0
LINE
  5
19341
330
747D
100
AcDbEntity
  8
破線
 48
5.0
100
AcDbLine
 10
11212.14505183166
 20
2081.621024879348
 30
0.0
 11
11192.14505183166
 21
2081.621024879348
 31
0.0
  0
LINE
  5
19342
330
747D
100
AcDbEntity
  8
破線
 48
5.0
100
AcDbLine
 10
11192.14505183166
 20
2236.621024879349
 30
0.0
 11
11192.14505183166
 21
2081.621024879348
 31
0.0
  0
DIMENSION
  5
19343
330
747D
100
AcDbEntity
  8
寸法
100
AcDbDimension
  2
*D3
 10
8192.145051831657
 20
9884.836388399371
 30
0.0
 11
7828.659770457384
 21
9884.836388399371
 31
0.0
 70
   160
 71
     5
 42
55.00000000003274
  3
INABA_S40G
100
AcDbAlignedDimension
 13
8137.145051831623
 23
9584.836388399372
 33
0.0
 14
8192.145051831657
 24
9584.836388399372
 34
0.0
100
AcDbRotatedDimension
1001
ACAD
1000
DSTYLE
1002
{
1002
}
  0
LINE
  5
19344
330
747D
100
AcDbEntity
  8
部品1
 48
50.0
100
AcDbLine
 10
8165.145051831652
 20
7822.836388399441
 30
0.0
 11
11159.14505183167
 21
7822.836388399444
 31
0.0
  0
LINE
  5
19345
330
747D
100
AcDbEntity
  8
部品1
100
AcDbLine
 10
11130.64505183164
 20
8689.836388399442
 30
0.0
 11
8193.645051831643
 21
8689.836388399342
 31
0.0
  0
LINE
  5
19346
330
747D
100
AcDbEntity
  8
部品1
100
AcDbLine
 10
9674.645051831657
 20
9556.836388399485
 30
0.0
 11
11159.14505183166
 21
9556.836388399466
 31
0.0
  0
LINE
  5
19347
330
747D
100
AcDbEntity
  8
細線
 48
50.0
100
AcDbLine
 10
11158.64505183166
 20
9104.836388399469
 30
0.0
 11
9675.645051831658
 21
9554.83638839947
 31
0.0
  0
LINE
  5
19348
330
747D
100
AcDbEntity
  8
部品1
100
AcDbLine
 10
9675.645051831658
 20
9104.836388399476
 30
0.0
 11
11158.64505183166
 21
9104.836388399469
 31
0.0
  0
LINE
  5
19349
330
747D
100
AcDbEntity
  8
部品1
100
AcDbLine
 10
9675.645051831658
 20
9554.836388399474
 30
0.0
 11
11158.64505183166
 21
9554.836388399467
 31
0.0
  0
LINE
  5
1934A
330
747D
100
AcDbEntity
  8
細線
 48
50.0
100
AcDbLine
 10
11158.64505183166
 20
9554.836388399467
 30
0.0
 11
9675.645051831658
 21
9104.836388399476
 31
0.0
  0
DIMENSION
  5
1934B
330
747D
100
AcDbEntity
  8
寸法
100
AcDbDimension
  2
*D4
 10
11067.69315092492
 20
8765.399273170604
 30
0.0
 11
10174.36780734441
 21
8765.399273170604
 31
0.0
 70
   160
 71
     5
 42
1483.000000000013
  3
INABA_S40G
100
AcDbAlignedDimension
 13
9675.645051831649
 23
9104.836388399542
 33
0.0
 14
11158.64505183166
 24
9104.836388399535
 34
0.0
100
AcDbRotatedDimension
1001
ACAD
1000
DSTYLE
1002
{
1002
}
  0
LINE
  5
1934C
330
747D
100
AcDbEntity
  8
破線
 48
10.0
100
AcDbLine
 10
11107.14505183166
 20
7874.836388399457
 30
0.0
 11
10414.64505183163
 21
7874.836388399398
 31
0.0
  0
LINE
  5
1934E
330
747D
100
AcDbEntity
  8
部品1
100
AcDbLine
 10
8137.145051831657
 20
9584.836388399372
 30
0.0
 11
11187.14505183165
 21
9584.836388399466
 31
0.0
  0
LINE
  5
1934F
330
747D
100
AcDbEntity
  8
部品1
100
AcDbLine
 10
11130.64505183166
 20
7851.336388399459
 30
0.0
 11
8193.64505183155
 21
7851.336388399339
 31
0.0
  0
DIMENSION
  5
19350
330
747D
100
AcDbEntity
  8
寸法
100
AcDbDimension
  2
*D5
 10
11132.14505183166
 20
9884.836388399421
 30
0.0
 11
9662.145051831657
 21
9884.836388399421
 31
0.0
 70
   160
  1
7X420=<>
 71
     5
 42
2940.000000000002
  3
INABA_S40G
100
AcDbAlignedDimension
 13
8192.145051831657
 23
9584.836388399372
 33
0.0
 14
11132.14505183166
 24
9584.836388399466
 34
0.0
100
AcDbRotatedDimension
1001
ACAD
1000
DSTYLE
1002
{
1002
}
  0
LINE
  5
19351
330
747D
100
AcDbEntity
  8
部品1
100
AcDbLine
 10
8193.645051831635
 20
9104.836388399418
 30
0.0
 11
8193.645051831644
 21
7851.336388399433
 31
0.0
  0
LINE
  5
19352
330
747D
100
AcDbEntity
  8
部品1
 48
50.0
100
AcDbLine
 10
9662.145051831657
 20
9104.83638839948
 30
0.0
 11
9662.145051831686
 21
7851.336388399357
 31
0.0
  0
DIMENSION
  5
19353
330
747D
100
AcDbEntity
  8
寸法
100
AcDbDimension
  2
*D6
 10
9557.693150924924
 20
8765.399273170604
 30
0.0
 11
8723.385543219135
 21
8765.399273170604
 31
0.0
 70
   160
 71
     5
 42
1483.000000000071
  3
INABA_S40G
100
AcDbAlignedDimension
 13
8165.64505183158
 23
9104.836388399483
 33
0.0
 14
9648.64505183165
 24
9104.836388399476
 34
0.0
100
AcDbRotatedDimension
1001
ACAD
1000
DSTYLE
1002
{
1002
}
  0
LINE
  5
19354
330
747D
100
AcDbEntity
  8
破線
 48
10.0
100
AcDbLine
 10
10414.64505183163
 20
7851.336388399372
 30
0.0
 11
10414.64505183163
 21
9104.836388399476
 31
0.0
  0
LINE
  5
19355
330
747D
100
AcDbEntity
  8
破線
 48
10.0
100
AcDbLine
 10
10364.64505183163
 20
7851.336388399367
 30
0.0
 11
10364.64505183163
 21
9104.836388399476
 31
0.0
  0
LINE
  5
19356
330
747D
100
AcDbEntity
  8
破線
 48
10.0
100
AcDbLine
 10
8959.645051831634
 20
7851.336388399372
 30
0.0
 11
8959.645051831634
 21
9104.836388399476
 31
0.0
  0
LINE
  5
19357
330
747D
100
AcDbEntity
  8
破線
 48
10.0
100
AcDbLine
 10
8909.645051831635
 20
7851.336388399367
 30
0.0
 11
8909.645051831635
 21
9104.836388399476
 31
0.0
  0
LINE
  5
19358
330
747D
100
AcDbEntity
  8
破線
 48
10.0
100
AcDbLine
 10
9687.145051831633
 20
7851.336388399372
 30
0.0
 11
9687.145051831627
 21
9104.836388399474
 31
0.0
  0
LINE
  5
19359
330
747D
100
AcDbEntity
  8
破線
 48
10.0
100
AcDbLine
 10
9637.145051831636
 20
7851.336388399367
 30
0.0
 11
9637.145051831627
 21
9104.836388399476
 31
0.0
  0
LINE
  5
1935A
330
747D
100
AcDbEntity
  8
部品1
100
AcDbLine
 10
8137.145051831623
 20
9584.836388399338
 30
0.0
 11
8137.14505183165
 21
7794.836388399328
 31
0.0
  0
LINE
  5
1935B
330
747D
100
AcDbEntity
  8
部品1
100
AcDbLine
 10
8165.145051831631
 20
7822.836388399419
 30
0.0
 11
8165.145051831649
 21
9109.836388399342
 31
0.0
  0
LINE
  5
1935C
330
747D
100
AcDbEntity
  8
破線
 48
10.0
100
AcDbLine
 10
8217.145051831632
 20
9104.836388399469
 30
0.0
 11
8217.145051831645
 21
7874.836388399339
 31
0.0
  0
LINE
  5
1935D
330
747D
100
AcDbEntity
  8
破線
 48
10.0
100
AcDbLine
 10
9637.145051831636
 20
7874.83638839937
 30
0.0
 11
8959.64505183163
 21
7874.836388399346
 31
0.0
  0
LINE
  5
1935E
330
747D
100
AcDbEntity
  8
破線
 48
10.0
100
AcDbLine
 10
8909.645051831635
 20
7874.836388399327
 30
0.0
 11
8217.145051831643
 21
7874.836388399339
 31
0.0
  0
LINE
  5
1935F
330
747D
100
AcDbEntity
  8
部品1
100
AcDbLine
 10
8612.145051831626
 20
7794.836388399328
 30
0.0
 11
8137.14505183165
 21
7794.836388399328
 31
0.0
  0
LINE
  5
19360
330
747D
100
AcDbEntity
  8
部品1
100
AcDbLine
 10
8192.145051831625
 20
7794.836388399459
 30
0.0
 11
8192.145051831625
 21
7822.836388399458
 31
0.0
  0
LINE
  5
19361
330
747D
100
AcDbEntity
  8
部品1
 48
50.0
100
AcDbLine
 10
8193.645051831644
 20
7851.336388399436
 30
0.0
 11
8165.145051831649
 21
7822.836388399437
 31
0.0
  0
LINE
  5
19362
330
747D
100
AcDbEntity
  8
部品1
100
AcDbLine
 10
8165.145051831633
 20
7849.836388399292
 30
0.0
 11
8137.14505183165
 21
7849.836388399292
 31
0.0
  0
LINE
  5
19363
330
747D
100
AcDbEntity
  8
部品1
100
AcDbLine
 10
8165.145051831633
 20
7849.836388399328
 30
0.0
 11
8137.14505183165
 21
7849.836388399328
 31
0.0
  0
LINE
  5
19364
330
747D
100
AcDbEntity
  8
部品1
100
AcDbLine
 10
8165.145051831649
 20
7849.836388399342
 30
0.0
 11
8137.14505183165
 21
7849.836388399342
 31
0.0
  0
LINE
  5
19365
330
747D
100
AcDbEntity
  8
部品1
100
AcDbLine
 10
8137.14505183165
 20
7849.836388399292
 30
0.0
 11
8137.14505183165
 21
7794.836388399295
 31
0.0
  0
LINE
  5
19366
330
747D
100
AcDbEntity
  8
部品1
100
AcDbLine
 10
8165.145051831631
 20
8689.836388399342
 30
0.0
 11
8137.14505183163
 21
8689.836388399342
 31
0.0
  0
LINE
  5
19368
330
747D
100
AcDbEntity
  8
部品1
100
AcDbLine
 10
8612.145051831625
 20
7794.836388399459
 30
0.0
 11
8612.145051831625
 21
7822.836388399458
 31
0.0
  0
LINE
  5
19369
330
747D
100
AcDbEntity
  8
破線
 48
10.0
100
AcDbLine
 10
10364.64505183163
 20
7874.836388399384
 30
0.0
 11
9687.145051831635
 21
7874.836388399372
 31
0.0
  0
LINE
  5
1936A
330
747D
100
AcDbEntity
  8
部品1
100
AcDbLine
 10
8165.645051831587
 20
9104.836388399418
 30
0.0
 11
9648.645051831657
 21
9104.836388399476
 31
0.0
  0
LINE
  5
1936B
330
747D
100
AcDbEntity
  8
部品1
100
AcDbLine
 10
8165.645051831587
 20
9554.836388399419
 30
0.0
 11
9648.645051831657
 21
9554.836388399477
 31
0.0
  0
LINE
  5
1936C
330
747D
100
AcDbEntity
  8
部品1
100
AcDbLine
 10
8192.145051831657
 20
9556.836388399487
 30
0.0
 11
9649.645051831656
 21
9556.836388399487
 31
0.0
  0
LINE
  5
1936D
330
747D
100
AcDbEntity
  8
細線
 48
50.0
100
AcDbLine
 10
9648.645051831657
 20
9554.836388399474
 30
0.0
 11
8165.645051831587
 21
9104.836388399421
 31
0.0
  0
LINE
  5
1936E
330
747D
100
AcDbEntity
  8
細線
 48
50.0
100
AcDbLine
 10
9648.645051831657
 20
9104.836388399476
 30
0.0
 11
8165.645051831587
 21
9554.83638839942
 31
0.0
  0
LINE
  5
1936F
330
747D
100
AcDbEntity
  8
部品1
100
AcDbLine
 10
8165.145051831656
 20
9556.836388399371
 30
0.0
 11
9137.145051831657
 21
9556.836388399375
 31
0.0
  0
LINE
  5
19370
330
747D
100
AcDbEntity
  8
部品1
100
AcDbLine
 10
8165.145051831649
 20
9104.336388399342
 30
0.0
 11
8165.145051831656
 21
9556.836388399371
 31
0.0
  0
LINE
  5
19371
330
747D
100
AcDbEntity
  8
部品1
 48
50.0
100
AcDbLine
 10
8165.645051831587
 20
9554.836388399474
 30
0.0
 11
8165.645051831587
 21
9104.836388399476
 31
0.0
  0
LINE
  5
19372
330
747D
100
AcDbEntity
  8
部品1
100
AcDbLine
 10
8165.145051831631
 20
9109.836388399342
 30
0.0
 11
8137.14505183163
 21
9109.836388399342
 31
0.0
  0
LINE
  5
19373
330
747D
100
AcDbEntity
  8
部品1
100
AcDbLine
 10
8165.145051831624
 20
9529.836388399344
 30
0.0
 11
8137.145051831623
 21
9529.836388399344
 31
0.0
  0
LINE
  5
19374
330
747D
100
AcDbEntity
  8
部品1
100
AcDbLine
 10
8192.145051831623
 20
9584.836388399338
 30
0.0
 11
8192.145051831623
 21
9556.836388399338
 31
0.0
  0
LINE
  5
19375
330
747D
100
AcDbEntity
  8
部品1
100
AcDbLine
 10
8192.145051831657
 20
9584.836388399372
 30
0.0
 11
8192.145051831657
 21
9556.836388399371
 31
0.0
  0
LINE
  5
19376
330
747D
100
AcDbEntity
  8
部品1
100
AcDbLine
 10
8612.145051831623
 20
9584.836388399338
 30
0.0
 11
8612.145051831623
 21
9556.836388399338
 31
0.0
  0
LINE
  5
19377
330
747D
100
AcDbEntity
  8
部品1
100
AcDbLine
 10
9032.145051831625
 20
9584.836388399338
 30
0.0
 11
9032.145051831625
 21
9556.836388399338
 31
0.0
  0
LINE
  5
19378
330
747D
100
AcDbEntity
  8
部品1
 48
50.0
100
AcDbLine
 10
9674.645051831657
 20
9556.836388399478
 30
0.0
 11
9674.645051831657
 21
9104.836388399476
 31
0.0
  0
LINE
  5
19379
330
747D
100
AcDbEntity
  8
部品1
 48
50.0
100
AcDbLine
 10
9649.645051831656
 20
9556.83638839948
 30
0.0
 11
9649.645051831656
 21
9104.836388399476
 31
0.0
  0
LINE
  5
1937A
330
747D
100
AcDbEntity
  8
部品1
 48
50.0
100
AcDbLine
 10
9675.645051831658
 20
9554.83638839947
 30
0.0
 11
9675.645051831658
 21
9104.836388399476
 31
0.0
  0
LINE
  5
1937B
330
747D
100
AcDbEntity
  8
部品1
 48
50.0
100
AcDbLine
 10
9648.645051831657
 20
9554.836388399474
 30
0.0
 11
9648.645051831657
 21
9104.836388399476
 31
0.0
  0
LINE
  5
1937C
330
747D
100
AcDbEntity
  8
部品1
100
AcDbLine
 10
9649.645051831656
 20
9104.836388399476
 30
0.0
 11
9674.645051831657
 21
9104.836388399476
 31
0.0
  0
LINE
  5
1937D
330
747D
100
AcDbEntity
  8
部品1
100
AcDbLine
 10
9452.145051831623
 20
9584.836388399338
 30
0.0
 11
9452.145051831623
 21
9556.836388399338
 31
0.0
  0
LINE
  5
1937E
330
747D
100
AcDbEntity
  8
部品1
100
AcDbLine
 10
9649.645051831656
 20
9548.83638839947
 30
0.0
 11
9674.645051831657
 21
9548.836388399474
 31
0.0
  0
LINE
  5
1937F
330
747D
100
AcDbEntity
  8
部品1
100
AcDbLine
 10
9691.145051831655
 20
9574.836388399473
 30
0.0
 11
9697.145051831656
 21
9574.836388399473
 31
0.0
  0
LINE
  5
19380
330
747D
100
AcDbEntity
  8
部品1
100
AcDbLine
 10
9697.145051831656
 20
9574.836388399473
 30
0.0
 11
9697.145051831656
 21
9556.836388399473
 31
0.0
  0
LINE
  5
19381
330
747D
100
AcDbEntity
  8
部品1
100
AcDbLine
 10
9627.145051831655
 20
9574.836388399473
 30
0.0
 11
9633.145051831656
 21
9574.836388399473
 31
0.0
  0
LINE
  5
19382
330
747D
100
AcDbEntity
  8
部品1
100
AcDbLine
 10
9627.145051831655
 20
9574.836388399473
 30
0.0
 11
9627.145051831655
 21
9556.836388399473
 31
0.0
  0
LINE
  5
19383
330
747D
100
AcDbEntity
  8
部品1
100
AcDbLine
 10
9872.145051831623
 20
9584.836388399338
 30
0.0
 11
9872.145051831623
 21
9556.836388399338
 31
0.0
  0
LINE
  5
19384
330
747D
100
AcDbEntity
  8
部品1
100
AcDbLine
 10
10292.14505183162
 20
9584.836388399338
 30
0.0
 11
10292.14505183162
 21
9556.836388399338
 31
0.0
  0
LINE
  5
19385
330
747D
100
AcDbEntity
  8
部品1
100
AcDbLine
 10
11159.14505183165
 20
9109.83638839947
 30
0.0
 11
11159.14505183163
 21
7822.836388399458
 31
0.0
  0
LINE
  5
19386
330
747D
100
AcDbEntity
  8
部品1
100
AcDbLine
 10
11130.64505183165
 20
9104.836388399469
 30
0.0
 11
11130.64505183166
 21
7851.336388399459
 31
0.0
  0
LINE
  5
19387
330
747D
100
AcDbEntity
  8
部品1
100
AcDbLine
 10
11187.14505183165
 20
9584.836388399466
 30
0.0
 11
11187.14505183163
 21
7794.836388399459
 31
0.0
  0
DIMENSION
  5
19388
330
747D
100
AcDbEntity
  8
寸法
100
AcDbDimension
  2
*D7
 10
11887.14505183164
 20
7849.836388399456
 30
0.0
 11
11887.14505183164
 21
8689.836388399463
 31
0.0
 70
   160
  1
4X420=<>
 71
     5
 42
1680.000000000013
  3
INABA_S40G
100
AcDbAlignedDimension
 13
11187.14505183165
 23
9529.83638839947
 33
0.0
 14
11187.14505183163
 24
7849.836388399456
 34
0.0
 50
90.0
100
AcDbRotatedDimension
1001
ACAD
1000
DSTYLE
1002
{
1002
}
  0
LINE
  5
19389
330
747D
100
AcDbEntity
  8
破線
 48
10.0
100
AcDbLine
 10
11107.14505183165
 20
9104.836388399469
 30
0.0
 11
11107.14505183166
 21
7874.836388399455
 31
0.0
  0
DIMENSION
  5
1938A
330
747D
100
AcDbEntity
  8
寸法
100
AcDbDimension
  2
*D8
 10
12187.14505183165
 20
7794.836388399459
 30
0.0
 11
12187.14505183164
 21
8689.836388399463
 31
0.0
 70
   160
 71
     5
 42
1790.000000000006
  3
INABA_S40G
100
AcDbAlignedDimension
 13
11187.14505183165
 23
9584.836388399466
 33
0.0
 14
11187.14505183163
 24
7794.836388399459
 34
0.0
 50
90.0
100
AcDbRotatedDimension
1001
ACAD
1000
DSTYLE
1002
{
1002
}
  0
DIMENSION
  5
1938B
330
747D
100
AcDbEntity
  8
寸法
100
AcDbDimension
  2
*D9
 10
11887.14505183163
 20
7794.836388399459
 30
0.0
 11
11887.14505183163
 21
7486.351107025218
 31
0.0
 70
   160
 71
     5
 42
54.99999999999636
  3
INABA_S40G
100
AcDbAlignedDimension
 13
11187.14505183163
 23
7849.836388399456
 33
0.0
 14
11187.14505183163
 24
7794.836388399459
 34
0.0
 50
90.0
100
AcDbRotatedDimension
1001
ACAD
1000
DSTYLE
1002
{
1002
}
  0
LINE
  5
1938C
330
747D
100
AcDbEntity
  8
部品1
100
AcDbLine
 10
11187.14505183163
 20
7794.836388399459
 30
0.0
 11
10712.14505183166
 21
7794.836388399445
 31
0.0
  0
LINE
  5
1938E
330
747D
100
AcDbEntity
  8
部品1
100
AcDbLine
 10
10712.14505183166
 20
7794.836388399459
 30
0.0
 11
10712.14505183166
 21
7822.836388399458
 31
0.0
  0
LINE
  5
1938F
330
747D
100
AcDbEntity
  8
部品1
100
AcDbLine
 10
11132.14505183166
 20
7794.836388399459
 30
0.0
 11
11132.14505183166
 21
7822.836388399458
 31
0.0
  0
LINE
  5
19390
330
747D
100
AcDbEntity
  8
部品1
100
AcDbLine
 10
11159.14505183166
 20
7849.836388399456
 30
0.0
 11
11187.14505183165
 21
7849.836388399456
 31
0.0
  0
LINE
  5
19391
330
747D
100
AcDbEntity
  8
部品1
100
AcDbLine
 10
11187.14505183163
 20
7849.836388399456
 30
0.0
 11
11187.14505183163
 21
7794.836388399459
 31
0.0
  0
LINE
  5
19392
330
747D
100
AcDbEntity
  8
部品1
 48
50.0
100
AcDbLine
 10
11130.64505183166
 20
7851.336388399459
 30
0.0
 11
11159.14505183165
 21
7822.836388399458
 31
0.0
  0
LINE
  5
19393
330
747D
100
AcDbEntity
  8
部品1
100
AcDbLine
 10
11187.14505183163
 20
7794.836388399459
 30
0.0
 11
11136.14505183163
 21
7794.836388399459
 31
0.0
  0
LINE
  5
19394
330
747D
100
AcDbEntity
  8
部品1
100
AcDbLine
 10
11159.14505183163
 20
7849.836388399456
 30
0.0
 11
11187.14505183163
 21
7849.836388399456
 31
0.0
  0
LINE
  5
19395
330
747D
100
AcDbEntity
  8
部品1
100
AcDbLine
 10
11159.14505183166
 20
8689.83638839947
 30
0.0
 11
11187.14505183165
 21
8689.83638839947
 31
0.0
  0
DIMENSION
  5
19396
330
747D
100
AcDbEntity
  8
寸法
100
AcDbDimension
  2
*D10
 10
11887.14505183166
 20
9529.83638839947
 30
0.0
 11
11887.14505183166
 21
9893.321669773706
 31
0.0
 70
   160
 71
     5
 42
54.99999999999636
  3
INABA_S40G
100
AcDbAlignedDimension
 13
11187.14505183165
 23
9584.836388399466
 33
0.0
 14
11187.14505183165
 24
9529.83638839947
 34
0.0
 50
90.0
100
AcDbRotatedDimension
1001
ACAD
1000
DSTYLE
1002
{
1002
}
  0
DIMENSION
  5
19397
330
747D
100
AcDbEntity
  8
寸法
100
AcDbDimension
  2
*D11
 10
11187.14505183165
 20
9884.836388399467
 30
0.0
 11
11495.63033320589
 21
9884.836388399467
 31
0.0
 70
   160
 71
     5
 42
55.0
  3
INABA_S40G
100
AcDbAlignedDimension
 13
11132.14505183166
 23
9584.836388399466
 33
0.0
 14
11187.14505183165
 24
9584.836388399466
 34
0.0
100
AcDbRotatedDimension
1001
ACAD
1000
DSTYLE
1002
{
1002
}
  0
DIMENSION
  5
19398
330
747D
100
AcDbEntity
  8
寸法
100
AcDbDimension
  2
*D12
 10
11587.14505183165
 20
8990.020159442734
 30
0.0
 11
11587.14505183165
 21
9215.020159442733
 31
0.0
 70
   160
 71
     5
 42
449.9999999999963
  3
INABA_S40G
100
AcDbAlignedDimension
 13
11158.64505183166
 23
9554.836388399467
 33
0.0
 14
11158.64505183166
 24
9104.836388399469
 34
0.0
 50
90.0
100
AcDbRotatedDimension
1001
ACAD
1000
DSTYLE
1002
{
1002
}
  0
LINE
  5
19399
330
747D
100
AcDbEntity
  8
部品1
100
AcDbLine
 10
11158.64505183166
 20
9554.836388399467
 30
0.0
 11
11158.64505183166
 21
9104.836388399469
 31
0.0
  0
LINE
  5
1939A
330
747D
100
AcDbEntity
  8
部品1
100
AcDbLine
 10
11159.14505183166
 20
9556.836388399466
 30
0.0
 11
11159.14505183165
 21
9104.336388399342
 31
0.0
  0
LINE
  5
1939B
330
747D
100
AcDbEntity
  8
部品1
100
AcDbLine
 10
11159.14505183166
 20
9109.83638839947
 30
0.0
 11
11187.14505183165
 21
9109.83638839947
 31
0.0
  0
LINE
  5
1939C
330
747D
100
AcDbEntity
  8
部品1
100
AcDbLine
 10
10712.14505183162
 20
9584.836388399338
 30
0.0
 11
10712.14505183162
 21
9556.836388399338
 31
0.0
  0
LINE
  5
1939D
330
747D
100
AcDbEntity
  8
部品1
100
AcDbLine
 10
11159.14505183166
 20
9529.83638839947
 30
0.0
 11
11187.14505183165
 21
9529.83638839947
 31
0.0
  0
LINE
  5
1939E
330
747D
100
AcDbEntity
  8
部品1
100
AcDbLine
 10
11132.14505183166
 20
9584.836388399466
 30
0.0
 11
11132.14505183166
 21
9556.836388399466
 31
0.0
  0
LINE
  5
1939F
330
747D
100
AcDbEntity
  8
部品1
100
AcDbLine
 10
11132.14505183166
 20
9584.836388399487
 30
0.0
 11
11132.14505183166
 21
9556.836388399487
 31
0.0
  0
TEXT
  5
193A0
330
747D
100
AcDbEntity
  8
文字
 62
     7
 48
50.0
100
AcDbText
 10
14491.96323844892
 20
483.8967129911416
 30
0.0
 40
160.0
  1
ＮＸＮ－５５ＨＢ
  7
STYLE2
100
AcDbText
  0
TEXT
  5
193A1
330
747D
100
AcDbEntity
  8
文字
 62
     7
 48
50.0
100
AcDbText
 10
13209.4053442172
 20
228.5435242569015
 30
0.0
 40
100.0
  1
○有効開口寸法 ： 1266×2025(mm)
  7
STYLE2
100
AcDbText
  0
TEXT
  5
193A2
330
747D
100
AcDbEntity
  8
文字
 62
     7
 48
50.0
100
AcDbText
 10
13248.77747366447
 20
8380.013745883728
 30
0.0
 40
100.0
  1
17
  7
STYLE1
100
AcDbText
  0
TEXT
  5
193A3
330
747D
100
AcDbEntity
  8
文字
 62
     7
 48
50.0
100
AcDbText
 10
13248.77747366447
 20
8550.013745883729
 30
0.0
 40
100.0
  1
16
  7
STYLE1
100
AcDbText
  0
TEXT
  5
193A4
330
747D
100
AcDbEntity
  8
文字
 62
     7
 48
50.0
100
AcDbText
 10
15022.63965474517
 20
9060.013745883729
 30
0.0
 40
100.0
  1
F12            1.0
  7
STYLE1
100
AcDbText
  0
TEXT
  5
193A5
330
747D
100
AcDbEntity
  8
文字
 62
     7
 48
50.0
100
AcDbText
 10
13583.11819016569
 20
9060.013745883736
 30
0.0
 40
100.0
  1
壁面扉枠左右
  7
STYLE1
100
AcDbText
  0
TEXT
  5
193A6
330
747D
100
AcDbEntity
  8
文字
 62
     7
 48
50.0
100
AcDbText
 10
15022.63965474517
 20
9230.013745883729
 30
0.0
 40
100.0
  1
F12            1.0
  7
STYLE1
100
AcDbText
  0
TEXT
  5
193A7
330
747D
100
AcDbEntity
  8
文字
 62
     7
 48
50.0
100
AcDbText
 10
15022.63965474515
 20
9400.013745883729
 30
0.0
 40
100.0
  1
F12            0.7
  7
STYLE1
100
AcDbText
  0
TEXT
  5
193A8
330
747D
100
AcDbEntity
  8
文字
 62
     7
 48
50.0
100
AcDbText
 10
13583.11819016569
 20
9230.013745883736
 30
0.0
 40
100.0
  1
壁面扉敷居
  7
STYLE1
100
AcDbText
  0
TEXT
  5
193A9
330
747D
100
AcDbEntity
  8
文字
 62
     7
 48
50.0
100
AcDbText
 10
13583.11819016569
 20
9400.013745883729
 30
0.0
 40
100.0
  1
壁面扉鴨居
  7
STYLE1
100
AcDbText
  0
LINE
  5
193AA
330
747D
100
AcDbEntity
  8
仕様書枠
 48
50.0
100
AcDbLine
 10
16307.19999999999
 20
8689.600000000007
 30
0.0
 11
13127.2
 21
8689.600000000007
 31
0.0
  0
LINE
  5
193AB
330
747D
100
AcDbEntity
  8
仕様書枠
 48
50.0
100
AcDbLine
 10
16307.19999999999
 20
8519.600000000009
 30
0.0
 11
13127.2
 21
8519.600000000009
 31
0.0
  0
TEXT
  5
193AC
330
747D
100
AcDbEntity
  8
文字
 62
     7
 48
50.0
100
AcDbText
 10
13583.11819016569
 20
8380.013745883728
 30
0.0
 40
100.0
  1
アンカープレート
  7
STYLE1
100
AcDbText
  0
TEXT
  5
193AD
330
747D
100
AcDbEntity
  8
文字
 62
     7
 48
50.0
100
AcDbText
 10
15022.63965474515
 20
8380.013745883726
 30
0.0
 40
100.0
  1
F12            2.3
  7
STYLE1
100
AcDbText
  0
LINE
  5
193AE
330
747D
100
AcDbEntity
  8
仕様書枠
 48
50.0
100
AcDbLine
 10
16307.2
 20
10049.6
 30
0.0
 11
13127.2
 21
10049.6
 31
0.0
  0
LINE
  5
193AF
330
747D
100
AcDbEntity
  8
仕様書枠
 48
50.0
100
AcDbLine
 10
16307.2
 20
11409.6
 30
0.0
 11
13127.2
 21
11409.6
 31
0.0
  0
LINE
  5
193B0
330
747D
100
AcDbEntity
  8
仕様書枠
 48
50.0
100
AcDbLine
 10
16307.19999999999
 20
8009.600000000007
 30
0.0
 11
16307.2
 21
11409.6
 31
0.0
  0
LINE
  5
193B1
330
747D
100
AcDbEntity
  8
仕様書枠
 48
50.0
100
AcDbLine
 10
14785.2
 20
11409.6
 30
0.0
 11
14785.2
 21
8349.600000000007
 31
0.0
  0
LINE
  5
193B2
330
747D
100
AcDbEntity
  8
仕様書枠
 48
50.0
100
AcDbLine
 10
13490.2
 20
11409.6
 30
0.0
 11
13490.20000000001
 21
8349.600000000007
 31
0.0
  0
LINE
  5
193B3
330
747D
100
AcDbEntity
  8
仕様書枠
 48
50.0
100
AcDbLine
 10
16307.2
 20
11239.6
 30
0.0
 11
13127.2
 21
11239.6
 31
0.0
  0
LINE
  5
193B4
330
747D
100
AcDbEntity
  8
仕様書枠
 48
50.0
100
AcDbLine
 10
16307.2
 20
10899.6
 30
0.0
 11
13127.2
 21
10899.6
 31
0.0
  0
LINE
  5
193B5
330
747D
100
AcDbEntity
  8
仕様書枠
 48
50.0
100
AcDbLine
 10
16307.2
 20
11069.6
 30
0.0
 11
13127.2
 21
11069.6
 31
0.0
  0
LINE
  5
193B6
330
747D
100
AcDbEntity
  8
仕様書枠
 48
50.0
100
AcDbLine
 10
16307.19999999999
 20
10559.6
 30
0.0
 11
13127.2
 21
10559.6
 31
0.0
  0
LINE
  5
193B7
330
747D
100
AcDbEntity
  8
仕様書枠
 48
50.0
100
AcDbLine
 10
16307.19999999999
 20
10389.6
 30
0.0
 11
13127.2
 21
10389.6
 31
0.0
  0
LINE
  5
193B8
330
747D
100
AcDbEntity
  8
仕様書枠
 48
50.0
100
AcDbLine
 10
16307.19999999999
 20
10729.6
 30
0.0
 11
13127.2
 21
10729.6
 31
0.0
  0
TEXT
  5
193B9
330
747D
100
AcDbEntity
  8
文字
 62
     7
 48
50.0
100
AcDbText
 10
13197.42518560407
 20
11270.01374588373
 30
0.0
 40
100.0
  1
品番
  7
STYLE1
100
AcDbText
  0
TEXT
  5
193BA
330
747D
100
AcDbEntity
  8
文字
 62
     7
 48
50.0
100
AcDbText
 10
13271.19032244792
 20
11100.01374588373
 30
0.0
 40
100.0
  1
1
  7
STYLE1
100
AcDbText
  0
TEXT
  5
193BB
330
747D
100
AcDbEntity
  8
文字
 62
     7
 48
50.0
100
AcDbText
 10
13271.19032244792
 20
10930.01374588373
 30
0.0
 40
100.0
  1
2
  7
STYLE1
100
AcDbText
  0
TEXT
  5
193BC
330
747D
100
AcDbEntity
  8
文字
 62
     7
 48
50.0
100
AcDbText
 10
13271.19032244792
 20
10590.01374588373
 30
0.0
 40
100.0
  1
4
  7
STYLE1
100
AcDbText
  0
TEXT
  5
193BD
330
747D
100
AcDbEntity
  8
文字
 62
     7
 48
50.0
100
AcDbText
 10
13271.19032244792
 20
10760.01374588373
 30
0.0
 40
100.0
  1
3
  7
STYLE1
100
AcDbText
  0
TEXT
  5
193BE
330
747D
100
AcDbEntity
  8
文字
 62
     7
 48
50.0
100
AcDbText
 10
13732.03840939434
 20
11270.01374588373
 30
0.0
 40
100.0
  1
部　　品　　名
  7
STYLE1
100
AcDbText
  0
TEXT
  5
193BF
330
747D
100
AcDbEntity
  8
文字
 62
     7
 48
50.0
100
AcDbText
 10
14859.79774614482
 20
11270.01374588373
 30
0.0
 40
100.0
  1
材料（材質）　　単位mm
  7
STYLE1
100
AcDbText
  0
TEXT
  5
193C0
330
747D
100
AcDbEntity
  8
文字
 62
     7
 48
50.0
100
AcDbText
 10
13583.11819016569
 20
11100.01374588373
 30
0.0
 40
100.0
  1
土台枠
  7
STYLE1
100
AcDbText
  0
TEXT
  5
193C1
330
747D
100
AcDbEntity
  8
文字
 62
     7
 48
50.0
100
AcDbText
 10
13583.1181901657
 20
10760.01374588373
 30
0.0
 40
100.0
  1
柱
  7
STYLE1
100
AcDbText
  0
TEXT
  5
193C2
330
747D
100
AcDbEntity
  8
文字
 62
     7
 48
50.0
100
AcDbText
 10
13583.11819016569
 20
10420.01374588373
 30
0.0
 40
100.0
  1
桁前後
  7
STYLE1
100
AcDbText
  0
TEXT
  5
193C3
330
747D
100
AcDbEntity
  8
文字
 62
     7
 48
50.0
100
AcDbText
 10
13271.19032244792
 20
10420.01374588373
 30
0.0
 40
100.0
  1
5
  7
STYLE1
100
AcDbText
  0
TEXT
  5
193C4
330
747D
100
AcDbEntity
  8
文字
 62
     7
 48
50.0
100
AcDbText
 10
13583.11819016569
 20
10250.01374588373
 30
0.0
 40
100.0
  1
妻板左右
  7
STYLE1
100
AcDbText
  0
TEXT
  5
193C5
330
747D
100
AcDbEntity
  8
文字
 62
     7
 48
50.0
100
AcDbText
 10
13248.77747366447
 20
9570.013745883729
 30
0.0
 40
100.0
  1
10
  7
STYLE1
100
AcDbText
  0
TEXT
  5
193C6
330
747D
100
AcDbEntity
  8
文字
 62
     7
 48
50.0
100
AcDbText
 10
13583.11819016568
 20
9570.013745883729
 30
0.0
 40
100.0
  1
壁パネル
  7
STYLE1
100
AcDbText
  0
TEXT
  5
193C7
330
747D
100
AcDbEntity
  8
文字
 62
     7
 48
50.0
100
AcDbText
 10
13583.11819016569
 20
9910.01374588373
 30
0.0
 40
100.0
  1
屋根パネル
  7
STYLE1
100
AcDbText
  0
TEXT
  5
193C8
330
747D
100
AcDbEntity
  8
文字
 62
     7
 48
50.0
100
AcDbText
 10
13583.11819016569
 20
10080.01374588373
 30
0.0
 40
100.0
  1
鼻隠シ前後
  7
STYLE1
100
AcDbText
  0
TEXT
  5
193C9
330
747D
100
AcDbEntity
  8
文字
 62
     7
 48
50.0
100
AcDbText
 10
13271.19032244792
 20
9910.01374588373
 30
0.0
 40
100.0
  1
8
  7
STYLE1
100
AcDbText
  0
TEXT
  5
193CA
330
747D
100
AcDbEntity
  8
文字
 62
     7
 48
50.0
100
AcDbText
 10
13271.19032244792
 20
9740.013745883729
 30
0.0
 40
100.0
  1
9
  7
STYLE1
100
AcDbText
  0
TEXT
  5
193CB
330
747D
100
AcDbEntity
  8
文字
 62
     7
 48
50.0
100
AcDbText
 10
13271.19032244792
 20
10080.01374588373
 30
0.0
 40
100.0
  1
7
  7
STYLE1
100
AcDbText
  0
TEXT
  5
193CC
330
747D
100
AcDbEntity
  8
文字
 62
     7
 48
50.0
100
AcDbText
 10
13271.19032244792
 20
10250.01374588373
 30
0.0
 40
100.0
  1
6
  7
STYLE1
100
AcDbText
  0
LINE
  5
193CD
330
747D
100
AcDbEntity
  8
仕様書枠
 48
50.0
100
AcDbLine
 10
16307.19999999999
 20
9709.600000000001
 30
0.0
 11
13127.2
 21
9709.600000000001
 31
0.0
  0
LINE
  5
193CE
330
747D
100
AcDbEntity
  8
仕様書枠
 48
50.0
100
AcDbLine
 10
16307.19999999999
 20
9369.600000000001
 30
0.0
 11
13127.2
 21
9369.600000000001
 31
0.0
  0
LINE
  5
193CF
330
747D
100
AcDbEntity
  8
仕様書枠
 48
50.0
100
AcDbLine
 10
16307.19999999999
 20
9539.6
 30
0.0
 11
13127.2
 21
9539.6
 31
0.0
  0
LINE
  5
193D0
330
747D
100
AcDbEntity
  8
仕様書枠
 48
50.0
100
AcDbLine
 10
16307.2
 20
10219.6
 30
0.0
 11
13127.2
 21
10219.6
 31
0.0
  0
LINE
  5
193D1
330
747D
100
AcDbEntity
  8
仕様書枠
 48
50.0
100
AcDbLine
 10
16307.2
 20
9879.600000000001
 30
0.0
 11
13127.2
 21
9879.600000000001
 31
0.0
  0
TEXT
  5
193D2
330
747D
100
AcDbEntity
  8
文字
 62
     7
 48
50.0
100
AcDbText
 10
13248.77747366447
 20
9400.013745883729
 30
0.0
 40
100.0
  1
11
  7
STYLE1
100
AcDbText
  0
LINE
  5
193D3
330
747D
100
AcDbEntity
  8
仕様書枠
 48
50.0
100
AcDbLine
 10
16307.19999999999
 20
9199.600000000001
 30
0.0
 11
13127.2
 21
9199.600000000001
 31
0.0
  0
LINE
  5
193D4
330
747D
100
AcDbEntity
  8
仕様書枠
 48
50.0
100
AcDbLine
 10
16307.19999999999
 20
8859.6
 30
0.0
 11
13127.2
 21
8859.600000000005
 31
0.0
  0
TEXT
  5
193D5
330
747D
100
AcDbEntity
  8
文字
 62
     7
 48
50.0
100
AcDbText
 10
13248.77747366448
 20
9060.013745883729
 30
0.0
 40
100.0
  1
13
  7
STYLE1
100
AcDbText
  0
TEXT
  5
193D6
330
747D
100
AcDbEntity
  8
文字
 62
     7
 48
50.0
100
AcDbText
 10
13248.77747366448
 20
9230.013745883729
 30
0.0
 40
100.0
  1
12
  7
STYLE1
100
AcDbText
  0
TEXT
  5
193D7
330
747D
100
AcDbEntity
  8
文字
 62
     7
 48
50.0
100
AcDbText
 10
15022.63965474517
 20
11100.01374588373
 30
0.0
 40
100.0
  1
F12            1.2
  7
STYLE1
100
AcDbText
  0
TEXT
  5
193D8
330
747D
100
AcDbEntity
  8
文字
 62
     7
 48
50.0
100
AcDbText
 10
15022.63965474518
 20
10760.01374588373
 30
0.0
 40
100.0
  1
F12            1.0
  7
STYLE1
100
AcDbText
  0
TEXT
  5
193D9
330
747D
100
AcDbEntity
  8
文字
 62
     7
 48
50.0
100
AcDbText
 10
15022.63965474516
 20
10420.01374588373
 30
0.0
 40
100.0
  1
Y10            1.0
  7
STYLE1
100
AcDbText
  0
TEXT
  5
193DA
330
747D
100
AcDbEntity
  8
文字
 62
     7
 48
50.0
100
AcDbText
 10
15022.63965474516
 20
10250.01374588373
 30
0.0
 40
100.0
  1
Y10            0.7
  7
STYLE1
100
AcDbText
  0
TEXT
  5
193DB
330
747D
100
AcDbEntity
  8
文字
 62
     7
 48
50.0
100
AcDbText
 10
15022.63965474516
 20
10080.01374588373
 30
0.0
 40
100.0
  1
Y10            0.7
  7
STYLE1
100
AcDbText
  0
TEXT
  5
193DC
330
747D
100
AcDbEntity
  8
文字
 62
     7
 48
50.0
100
AcDbText
 10
15022.63965474517
 20
9910.01374588373
 30
0.0
 40
100.0
  1
Y10            0.5
  7
STYLE1
100
AcDbText
  0
TEXT
  5
193DD
330
747D
100
AcDbEntity
  8
文字
 62
     7
 48
50.0
100
AcDbText
 10
15022.63965474515
 20
9570.013745883729
 30
0.0
 40
100.0
  1
F12            0.7
  7
STYLE1
100
AcDbText
  0
LINE
  5
193DE
330
747D
100
AcDbEntity
  8
仕様書枠
 48
50.0
100
AcDbLine
 10
16307.19999999999
 20
8349.600000000007
 30
0.0
 11
13127.19999999999
 21
8349.600000000007
 31
0.0
  0
LINE
  5
193DF
330
747D
100
AcDbEntity
  8
仕様書枠
 48
50.0
100
AcDbLine
 10
16307.19999999999
 20
8179.600000000007
 30
0.0
 11
13127.19999999999
 21
8179.600000000007
 31
0.0
  0
TEXT
  5
193E0
330
747D
100
AcDbEntity
  8
文字
 62
     7
 48
50.0
100
AcDbText
 10
13229.83081656554
 20
8210.013745883737
 30
0.0
 40
100.0
  1
F12→溶融亜鉛めっき鋼板(JIS G 3302)
  7
STYLE1
100
AcDbText
  0
TEXT
  5
193E1
330
747D
100
AcDbEntity
  8
文字
 62
     7
 48
50.0
100
AcDbText
 10
13229.83081656554
 20
8040.013745883737
 30
0.0
 40
100.0
  1
Y10→溶融亜鉛-5％アルミニウム合金めっき鋼板(JIS G 3317)
 41
0.9
  7
STYLE1
100
AcDbText
  0
LINE
  5
193E2
330
747D
100
AcDbEntity
  8
仕様書枠
 48
50.0
100
AcDbLine
 10
13127.2
 20
11409.6
 30
0.0
 11
13127.19999999999
 21
8009.600000000007
 31
0.0
  0
LINE
  5
193E3
330
747D
100
AcDbEntity
  8
仕様書枠
 48
50.0
100
AcDbLine
 10
16307.19999999999
 20
9029.6
 30
0.0
 11
13127.2
 21
9029.600000000003
 31
0.0
  0
TEXT
  5
193E4
330
747D
100
AcDbEntity
  8
文字
 62
     7
 48
50.0
100
AcDbText
 10
13583.1181901657
 20
10590.01374588373
 30
0.0
 40
100.0
  1
床パネル
 41
0.9
  7
STYLE1
100
AcDbText
  0
TEXT
  5
193E5
330
747D
100
AcDbEntity
  8
文字
 62
     7
 48
50.0
100
AcDbText
 10
13583.11819016569
 20
10930.01374588373
 30
0.0
 40
100.0
  1
根太
  7
STYLE1
100
AcDbText
  0
TEXT
  5
193E6
330
747D
100
AcDbEntity
  8
文字
 62
     7
 48
50.0
100
AcDbText
 10
13248.77747366448
 20
8890.013745883729
 30
0.0
 40
100.0
  1
14
  7
STYLE1
100
AcDbText
  0
TEXT
  5
193E7
330
747D
100
AcDbEntity
  8
文字
 62
     7
 48
50.0
100
AcDbText
 10
15022.63965474516
 20
10930.01374588373
 30
0.0
 40
100.0
  1
F12            1.2
  7
STYLE1
100
AcDbText
  0
TEXT
  5
193E8
330
747D
100
AcDbEntity
  8
文字
 62
     7
 48
50.0
100
AcDbText
 10
15022.63965474517
 20
10590.01374588373
 30
0.0
 40
100.0
  1
F12            1.0
  7
STYLE1
100
AcDbText
  0
TEXT
  5
193E9
330
747D
100
AcDbEntity
  8
文字
 62
     7
 48
50.0
100
AcDbText
 10
15022.63965474515
 20
8890.013745883729
 30
0.0
 40
100.0
  1
F12            0.7
  7
STYLE1
100
AcDbText
  0
TEXT
  5
193EA
330
747D
100
AcDbEntity
  8
文字
 62
     7
 48
50.0
100
AcDbText
 10
13583.11819016568
 20
8890.013745883733
 30
0.0
 40
100.0
  1
正面パネル
  7
STYLE1
100
AcDbText
  0
TEXT
  5
193EB
330
747D
100
AcDbEntity
  8
文字
 62
     7
 48
50.0
100
AcDbText
 10
15022.63965474516
 20
8720.013745883729
 30
0.0
 40
100.0
  1
F12            0.8
  7
STYLE1
100
AcDbText
  0
TEXT
  5
193EC
330
747D
100
AcDbEntity
  8
文字
 62
     7
 48
50.0
100
AcDbText
 10
13583.11819016569
 20
8720.013745883733
 30
0.0
 40
100.0
  1
扉
  7
STYLE1
100
AcDbText
  0
LINE
  5
193ED
330
747D
100
AcDbEntity
  8
仕様書枠
 48
50.0
100
AcDbLine
 10
16307.19999999999
 20
8009.600000000007
 30
0.0
 11
13127.19999999999
 21
8009.600000000007
 31
0.0
  0
TEXT
  5
193EE
330
747D
100
AcDbEntity
  8
文字
 62
     7
 48
50.0
100
AcDbText
 10
13248.77747366447
 20
8720.013745883729
 30
0.0
 40
100.0
  1
15
  7
STYLE1
100
AcDbText
  0
TEXT
  5
193EF
330
747D
100
AcDbEntity
  8
文字
 62
     7
 48
50.0
100
AcDbText
 10
13583.11819016569
 20
9740.013745883729
 30
0.0
 40
100.0
  1
母屋中
  7
STYLE1
100
AcDbText
  0
TEXT
  5
193F0
330
747D
100
AcDbEntity
  8
文字
 62
     7
 48
50.0
100
AcDbText
 10
15022.63965474515
 20
9740.013745883725
 30
0.0
 40
100.0
  1
F12            1.0
  7
STYLE1
100
AcDbText
  0
TEXT
  5
193F1
330
747D
100
AcDbEntity
  8
文字
 62
     7
 48
50.0
100
AcDbText
 10
15022.63965474516
 20
8550.013745883729
 30
0.0
 40
100.0
  1
F12            0.6
  7
STYLE1
100
AcDbText
  0
TEXT
  5
193F2
330
747D
100
AcDbEntity
  8
文字
 62
     7
 48
50.0
100
AcDbText
 10
13583.11819016569
 20
8550.013745883733
 30
0.0
 40
100.0
  1
棚板
  7
STYLE1
100
AcDbText
  0
DIMENSION
  5
193F3
330
747D
100
AcDbEntity
  8
寸法
 48
50.0
100
AcDbDimension
  2
*D13
 10
8137.145051831664
 20
5110.278478458658
 30
0.0
 11
9707.203426391075
 21
5110.278478458658
 31
0.0
 70
   160
  1
柱外寸法<>
 71
     5
 42
3049.999999999997
  3
INABA_S40G
100
AcDbAlignedDimension
 13
11187.14505183166
 23
4658.431704491007
 33
0.0
 14
8137.145051831664
 24
4707.622643002329
 34
0.0
100
AcDbRotatedDimension
1001
ACAD
1000
DSTYLE
1002
{
1070
   174
1070
     0
1070
   272
1070
     1
1070
   288
1070
     0
1070
   341
1005
0
1002
}
  0
DIMENSION
  5
193F4
330
747D
100
AcDbEntity
  8
寸法
 48
50.0
100
AcDbDimension
  2
*D14
 10
8077.145051831664
 20
5340.392071244934
 30
0.0
 11
9748.850858141189
 21
5340.392071244934
 31
0.0
 70
   160
 71
     5
 42
3189.999999999996
  3
INABA_S40G
100
AcDbAlignedDimension
 13
11267.14505183166
 23
4656.621024879354
 33
0.0
 14
8077.145051831664
 24
4711.621024879357
 34
0.0
100
AcDbRotatedDimension
1001
ACAD
1000
DSTYLE
1002
{
1070
   174
1070
     0
1070
   272
1070
     1
1070
   288
1070
     0
1070
   341
1005
0
1002
}
  0
DIMENSION
  5
193F5
330
747D
100
AcDbEntity
  8
寸法
 48
50.0
100
AcDbDimension
  2
*D15
 10
11267.14505183166
 20
5110.278478458658
 30
0.0
 11
11473.19229592615
 21
5110.278478458658
 31
0.0
 70
   160
 71
     5
 42
80.0
  3
INABA_S40G
100
AcDbAlignedDimension
 13
11187.14505183166
 23
4658.431704491007
 33
0.0
 14
11267.14505183166
 24
4656.621024879355
 34
0.0
100
AcDbRotatedDimension
1001
ACAD
1000
DSTYLE
1002
{
1070
   174
1070
     0
1070
   272
1070
     1
1070
   288
1070
     0
1070
   341
1005
0
1002
}
  0
DIMENSION
  5
193F6
330
747D
100
AcDbEntity
  8
寸法
 48
50.0
100
AcDbDimension
  2
*D16
 10
8077.145051831664
 20
5110.278478458656
 30
0.0
 11
7767.507256556074
 21
5110.278478458656
 31
0.0
 70
   160
 71
     5
 42
60.0
  3
INABA_S40G
100
AcDbAlignedDimension
 13
8137.145051831664
 23
4707.622643002329
 33
0.0
 14
8077.145051831664
 24
4711.621024879357
 34
0.0
100
AcDbRotatedDimension
1001
ACAD
1000
DSTYLE
1002
{
1070
   174
1070
     0
1070
   272
1070
     1
1070
   288
1070
     0
1070
   341
1005
0
1002
}
  0
DIMENSION
  5
193F7
330
747D
100
AcDbEntity
  8
寸法
 48
50.0
100
AcDbDimension
  2
*D17
 10
7516.536645063291
 20
4585.966283752684
 30
0.0
 11
7527.202120322215
 21
4956.812946994382
 31
0.0
 70
   161
 71
     5
 42
140.9999999999991
  3
INABA_S40G
100
AcDbAlignedDimension
 13
8096.541071990243
 23
4710.343773714032
 33
0.0
 14
8092.487616433617
 24
4569.402049948319
 34
0.0
1001
ACAD
1000
DSTYLE
1002
{
1070
   174
1070
     0
1070
   272
1070
     1
1070
   288
1070
     0
1070
   341
1005
0
1002
}
  0
LINE
  5
193F8
330
747D
100
AcDbEntity
  8
部品1
100
AcDbLine
 10
9515.658324355177
 20
4836.825412842371
 30
0.0
 11
9841.113337998214
 21
4819.307353883509
 31
0.0
  0
LINE
  5
193F9
330
747D
100
AcDbEntity
  8
部品1
 48
50.0
100
AcDbLine
 10
9541.113337998213
 20
4835.507353883509
 30
0.0
 11
9841.113337998214
 21
4835.507353883509
 31
0.0
  0
LINE
  5
193FA
330
747D
100
AcDbEntity
  8
部品1
 48
50.0
100
AcDbLine
 10
9841.113337998214
 20
4835.507353883509
 30
0.0
 11
9841.113337998214
 21
4819.307353883509
 31
0.0
  0
TEXT
  5
193FB
330
747D
100
AcDbEntity
  8
部品1
 48
50.0
100
AcDbText
 10
9529.38117322194
 20
4871.391376035943
 30
0.0
 40
120.0
  1
1000
  7
STYLE1
100
AcDbText
  0
TEXT
  5
193FC
330
747D
100
AcDbEntity
  8
部品1
 48
50.0
100
AcDbText
 10
10007.01419588703
 20
4733.890117817661
 30
0.0
 40
120.0
  1
32
 50
90.0
  7
STYLE1
100
AcDbText
  0
LINE
  5
193FD
330
747D
100
AcDbEntity
  8
細線
 48
50.0
100
AcDbLine
 10
8082.944950169764
 20
4589.77659502285
 30
0.0
 11
11252.9486146004
 21
4549.967276048357
 31
0.0
  0
LINE
  5
193FE
330
747D
100
AcDbEntity
  8
細線
 48
50.0
100
AcDbLine
 10
8078.184474932477
 20
4682.638106720715
 30
0.0
 11
11263.82045967765
 21
4627.013902079885
 31
0.0
  0
LINE
  5
193FF
330
747D
100
AcDbEntity
  8
部品1
100
AcDbLine
 10
8092.487616433617
 20
4569.402049948319
 30
0.0
 11
11241.80875237151
 21
4530.373624714113
 31
0.0
  0
LINE
  5
19400
330
747D
100
AcDbEntity
  8
部品1
100
AcDbLine
 10
8084.690038188625
 20
4710.338760213619
 30
0.0
 11
11259.75692869313
 21
4655.26182258849
 31
0.0
  0
ARC
  5
19401
330
747D
100
AcDbEntity
  8
部品1
100
AcDbCircle
 10
8083.18214370303
 20
4590.435183838257
 30
0.0
 40
0.7
100
AcDbArc
 50
181.0932240292635
 51
260.1877540314867
  0
ARC
  5
19402
330
747D
100
AcDbEntity
  8
部品1
100
AcDbCircle
 10
8078.40947010542
 20
4683.300962038375
 30
0.0
 40
0.7
100
AcDbArc
 50
181.0932240292114
 51
260.1877540314867
  0
ARC
  5
19403
330
747D
100
AcDbEntity
  8
部品1
100
AcDbCircle
 10
8077.778915702399
 20
4679.655087500978
 30
0.0
 40
3.0
100
AcDbArc
 50
1.093224029315636
 51
80.18775403169653
  0
ARC
  5
19404
330
747D
100
AcDbEntity
  8
部品1
100
AcDbCircle
 10
8082.551589300004
 20
4586.789309300859
 30
0.0
 40
3.0
100
AcDbArc
 50
1.093224029315636
 51
80.18775403169653
  0
ARC
  5
19405
330
747D
100
AcDbEntity
  8
部品1
 48
50.0
100
AcDbCircle
 10
8092.751721675206
 20
4576.397065918377
 30
0.0
 40
7.0
100
AcDbArc
 50
181.0932240293156
 51
267.8377559869487
  0
ARC
  5
19406
330
747D
100
AcDbEntity
  8
部品1
 48
50.0
100
AcDbCircle
 10
8084.32806357311
 20
4703.348125451474
 30
0.0
 40
7.0
100
AcDbArc
 50
87.03587545283093
 51
181.0932240293156
  0
LINE
  5
19407
330
747D
100
AcDbEntity
  8
部品1
 48
50.0
100
AcDbLine
 10
8085.551043226436
 20
4586.846546904042
 30
0.0
 11
8085.752995846865
 21
4576.26351151095
 31
0.0
  0
LINE
  5
19408
330
747D
100
AcDbEntity
  8
部品1
 48
50.0
100
AcDbLine
 10
8080.778369628829
 20
4679.712325104161
 30
0.0
 11
8082.482271120191
 21
4590.421828397513
 31
0.0
  0
LINE
  5
19409
330
747D
100
AcDbEntity
  8
部品1
 48
50.0
100
AcDbLine
 10
8077.329337744769
 20
4703.214571044045
 30
0.0
 11
8077.709597522582
 21
4683.287606597634
 31
0.0
  0
LINE
  5
1940A
330
747D
100
AcDbEntity
  8
細線
 48
50.0
100
AcDbLine
 10
8110.145051831663
 20
4709.020701254758
 30
0.0
 11
8104.855950276157
 21
4568.935068627403
 31
0.0
  0
ARC
  5
1940B
330
747D
100
AcDbEntity
  8
部品1
100
AcDbCircle
 10
11252.7725876456
 20
4550.644782145146
 30
0.0
 40
0.7
100
AcDbArc
 50
275.0921697642102
 51
354.1866997667087
  0
ARC
  5
1940C
330
747D
100
AcDbEntity
  8
部品1
100
AcDbCircle
 10
11263.63193339492
 20
4627.688036963069
 30
0.0
 40
0.7
100
AcDbArc
 50
275.0921697642102
 51
354.1866997665532
  0
ARC
  5
1940D
330
747D
100
AcDbEntity
  8
部品1
100
AcDbCircle
 10
11263.96033863753
 20
4624.00264010598
 30
0.0
 40
3.0
100
AcDbArc
 50
95.0921697642102
 51
174.1866997665532
  0
ARC
  5
1940E
330
747D
100
AcDbEntity
  8
部品1
100
AcDbCircle
 10
11253.1009928882
 20
4546.959385288055
 30
0.0
 40
3.0
100
AcDbArc
 50
95.0921697642102
 51
174.1866997665532
  0
ARC
  5
1940F
330
747D
100
AcDbEntity
  8
部品1
 48
50.0
100
AcDbCircle
 10
11242.07285761309
 20
4537.368640684174
 30
0.0
 40
7.0
100
AcDbArc
 50
267.8377559869487
 51
354.1866997665532
  0
ARC
  5
19410
330
747D
100
AcDbEntity
  8
部品1
 48
50.0
100
AcDbCircle
 10
11259.39495407761
 20
4648.271187826347
 30
0.0
 40
7.0
100
AcDbArc
 50
354.1866997665532
 51
87.03587545283093
  0
LINE
  5
19411
330
747D
100
AcDbEntity
  8
部品1
 48
50.0
100
AcDbLine
 10
11250.11642121759
 20
4547.263247004957
 30
0.0
 11
11249.03685817785
 21
4536.659630011399
 31
0.0
  0
LINE
  5
19412
330
747D
100
AcDbEntity
  8
部品1
 48
50.0
100
AcDbLine
 10
11260.97576696691
 20
4624.306501822882
 30
0.0
 11
11253.46898770208
 21
4550.573881077871
 31
0.0
  0
LINE
  5
19413
330
747D
100
AcDbEntity
  8
部品1
 48
50.0
100
AcDbLine
 10
11266.35895464237
 20
4647.562177153571
 30
0.0
 11
11264.3283334514
 21
4627.617135895791
 31
0.0
  0
LINE
  5
19414
330
747D
100
AcDbEntity
  8
細線
 48
50.0
100
AcDbLine
 10
11234.11433502535
 20
4655.774447358821
 30
0.0
 11
11229.39736894366
 21
4530.842231423905
 31
0.0
  0
DIMENSION
  5
19415
330
747D
100
AcDbEntity
  8
寸法
 48
50.0
100
AcDbDimension
  2
*D18
 10
7844.672362252274
 20
2394.621024879349
 30
0.0
 11
7844.672362252274
 21
3407.121024879349
 31
0.0
 70
   160
  1
有効開口部高サ<>
 71
     5
 42
2025.000000000001
  3
INABA_S40G
100
AcDbAlignedDimension
 13
8585.145051831664
 23
4419.62102487935
 33
0.0
 14
8585.145051831664
 24
2394.621024879349
 34
0.0
 50
90.0
100
AcDbRotatedDimension
  0
DIMENSION
  5
19416
330
747D
100
AcDbEntity
  8
寸法
 48
50.0
100
AcDbDimension
  2
*D19
 10
7516.536645063293
 20
4585.966283752678
 30
0.0
 11
7527.202120322218
 21
4956.812946994383
 31
0.0
 70
   161
 71
     5
 42
141.0000000000009
  3
INABA_S40G
100
AcDbAlignedDimension
 13
8096.541071990243
 23
4710.343773714029
 33
0.0
 14
8092.487616433617
 24
4569.402049948315
 34
0.0
1001
ACAD
1000
DSTYLE
1002
{
1070
   174
1070
     0
1070
   272
1070
     1
1070
   288
1070
     0
1070
   341
1005
0
1002
}
  0
DIMENSION
  5
19417
330
747D
100
AcDbEntity
  8
寸法
100
AcDbDimension
  2
*D20
 10
7228.505669902306
 20
4711.621024879355
 30
0.0
 11
7228.505669902304
 21
3407.121024879349
 31
0.0
 70
   160
 71
     5
 42
2375.000000000005
  3
INABA_S40G
100
AcDbAlignedDimension
 13
8137.145051831664
 23
2336.62102487935
 33
0.0
 14
8077.145051831664
 24
4711.621024879355
 34
0.0
 50
90.0
100
AcDbRotatedDimension
1001
ACAD
1000
DSTYLE
1002
{
1070
   174
1070
     0
1070
   272
1070
     1
1070
   288
1070
     0
1070
   341
1005
0
1002
}
  0
DIMENSION
  5
19418
330
747D
100
AcDbEntity
  8
寸法
100
AcDbDimension
  2
*D21
 10
7513.492342673366
 20
2386.62102487935
 30
0.0
 11
7513.492342673366
 21
3407.121024879349
 31
0.0
 70
   160
 71
     5
 42
2090.0
  3
INABA_S40G
100
AcDbAlignedDimension
 13
8137.145051831664
 23
4476.621024879349
 33
0.0
 14
8137.145051831664
 24
2386.62102487935
 34
0.0
 50
90.0
100
AcDbRotatedDimension
1001
ACAD
1000
DSTYLE
1002
{
1070
   174
1070
     0
1070
   272
1070
     1
1070
   288
1070
     0
1070
   341
1005
0
1002
}
  0
DIMENSION
  5
19419
330
747D
100
AcDbEntity
  8
寸法
100
AcDbDimension
  2
*D22
 10
7513.492342673366
 20
2336.62102487935
 30
0.0
 11
7513.492342673366
 21
2030.573780784859
 31
0.0
 70
   160
 71
     5
 42
50.0
  3
INABA_S40G
100
AcDbAlignedDimension
 13
8137.145051831664
 23
2386.62102487935
 33
0.0
 14
8082.145051831664
 24
2336.62102487935
 34
0.0
 50
90.0
100
AcDbRotatedDimension
1001
ACAD
1000
DSTYLE
1002
{
1070
   174
1070
     0
1070
   272
1070
     1
1070
   288
1070
     0
1070
   341
1005
0
1002
}
  0
DIMENSION
  5
1941A
330
747D
100
AcDbEntity
  8
寸法
100
AcDbDimension
  2
*D23
 10
7228.505669902306
 20
2236.62102487935
 30
0.0
 11
7228.505669902304
 21
2000.573780784859
 31
0.0
 70
   160
 71
     5
 42
100.0
  3
INABA_S40G
100
AcDbAlignedDimension
 13
8082.145051831664
 23
2336.62102487935
 33
0.0
 14
7513.492342673366
 24
2236.62102487935
 34
0.0
 50
90.0
100
AcDbRotatedDimension
1001
ACAD
1000
DSTYLE
1002
{
1070
   174
1070
     0
1070
   272
1070
     1
1070
   288
1070
     0
1070
   341
1005
0
1002
}
  0
LINE
  5
1941B
330
747D
100
AcDbEntity
  8
部品1
 48
50.0
100
AcDbLine
 10
9419.145051831659
 20
4419.621024904116
 30
0.0
 11
9419.145051831655
 21
2386.621024879345
 31
0.0
  0
LINE
  5
1941C
330
747D
100
AcDbEntity
  8
部品1
100
AcDbLine
 10
10073.14504213651
 20
4419.6210249165
 30
0.0
 11
10073.14504213651
 21
2394.121024916514
 31
0.0
  0
LINE
  5
1941D
330
747D
100
AcDbEntity
  8
細線
100
AcDbLine
 10
9319.145051831659
 20
4419.621024879348
 30
0.0
 11
9319.145051831656
 21
2386.621024879356
 31
0.0
  0
LINE
  5
1941E
330
747D
100
AcDbEntity
  8
細線
100
AcDbLine
 10
9249.145051831659
 20
4419.621024879348
 30
0.0
 11
9249.145051831657
 21
2386.621024879356
 31
0.0
  0
LINE
  5
1941F
330
747D
100
AcDbEntity
  8
細線
100
AcDbLine
 10
9179.145051831659
 20
4419.621024879348
 30
0.0
 11
9179.145051831657
 21
2386.621024879352
 31
0.0
  0
LINE
  5
19420
330
747D
100
AcDbEntity
  8
細線
100
AcDbLine
 10
9109.145051831658
 20
4419.621024879348
 30
0.0
 11
9109.145051831657
 21
2386.621024879352
 31
0.0
  0
LINE
  5
19421
330
747D
100
AcDbEntity
  8
細線
100
AcDbLine
 10
9039.14505183166
 20
4419.621024879348
 30
0.0
 11
9039.145051831656
 21
2386.621024879352
 31
0.0
  0
LINE
  5
19422
330
747D
100
AcDbEntity
  8
細線
100
AcDbLine
 10
8969.145051831659
 20
4419.621024879348
 30
0.0
 11
8969.145051831656
 21
2386.621024879352
 31
0.0
  0
LINE
  5
19423
330
747D
100
AcDbEntity
  8
部品1
100
AcDbLine
 10
8785.145051831657
 20
4419.621024879348
 30
0.0
 11
8785.14505183166
 21
2386.621024879352
 31
0.0
  0
LINE
  5
19424
330
747D
100
AcDbEntity
  8
部品1
100
AcDbLine
 10
8735.145051831656
 20
4419.621024879348
 30
0.0
 11
8735.14505183166
 21
2386.621024879352
 31
0.0
  0
LINE
  5
19425
330
747D
100
AcDbEntity
  8
細線
100
AcDbLine
 10
8777.145051831656
 20
4419.621024879348
 30
0.0
 11
8777.145051831659
 21
2386.621024879352
 31
0.0
  0
LINE
  5
19426
330
747D
100
AcDbEntity
  8
細線
100
AcDbLine
 10
8743.145051831657
 20
4419.621024879348
 30
0.0
 11
8743.145051831659
 21
2386.621024879352
 31
0.0
  0
LINE
  5
19427
330
747D
100
AcDbEntity
  8
細線
100
AcDbLine
 10
9970.645061581905
 20
4419.621024879348
 30
0.0
 11
9970.645061581905
 21
2394.12102487936
 31
0.0
  0
LINE
  5
19428
330
747D
100
AcDbEntity
  8
細線
100
AcDbLine
 10
9900.645061581904
 20
4419.621024879348
 30
0.0
 11
9900.645061581904
 21
2394.12102487936
 31
0.0
  0
LINE
  5
19429
330
747D
100
AcDbEntity
  8
細線
100
AcDbLine
 10
9830.645061581904
 20
4419.621024879348
 30
0.0
 11
9830.645061581904
 21
2394.12102487936
 31
0.0
  0
LINE
  5
1942A
330
747D
100
AcDbEntity
  8
細線
100
AcDbLine
 10
9760.645061581904
 20
4419.621024879348
 30
0.0
 11
9760.645061581904
 21
2394.12102487936
 31
0.0
  0
LINE
  5
1942B
330
747D
100
AcDbEntity
  8
細線
100
AcDbLine
 10
9690.645061581903
 20
4419.621024879348
 30
0.0
 11
9690.645061581903
 21
2394.12102487936
 31
0.0
  0
LINE
  5
1942C
330
747D
100
AcDbEntity
  8
細線
100
AcDbLine
 10
9620.645061581903
 20
4419.621024879348
 30
0.0
 11
9620.645061581903
 21
2394.12102487936
 31
0.0
  0
LINE
  5
1942D
330
747D
100
AcDbEntity
  8
細線
100
AcDbLine
 10
10545.89505183166
 20
4419.621024879348
 30
0.0
 11
10545.89505183166
 21
2394.121024879367
 31
0.0
  0
LINE
  5
1942E
330
747D
100
AcDbEntity
  8
細線
100
AcDbLine
 10
10475.89505183166
 20
4419.621024879348
 30
0.0
 11
10475.89505183166
 21
2394.121024879367
 31
0.0
  0
LINE
  5
1942F
330
747D
100
AcDbEntity
  8
細線
100
AcDbLine
 10
10405.89505183166
 20
4419.621024879348
 30
0.0
 11
10405.89505183166
 21
2394.121024879367
 31
0.0
  0
LINE
  5
19430
330
747D
100
AcDbEntity
  8
細線
100
AcDbLine
 10
10335.89505183166
 20
4419.621024879348
 30
0.0
 11
10335.89505183166
 21
2394.121024879367
 31
0.0
  0
LINE
  5
19431
330
747D
100
AcDbEntity
  8
細線
100
AcDbLine
 10
10265.89505183166
 20
4419.621024879348
 30
0.0
 11
10265.89505183166
 21
2394.121024879367
 31
0.0
  0
LINE
  5
19432
330
747D
100
AcDbEntity
  8
細線
100
AcDbLine
 10
8899.145051831659
 20
4419.621024879348
 30
0.0
 11
8899.145051831657
 21
2386.621024879352
 31
0.0
  0
LINE
  5
19433
330
747D
100
AcDbEntity
  8
細線
100
AcDbLine
 10
8829.145051831659
 20
4419.621024879348
 30
0.0
 11
8829.145051831657
 21
2386.621024879352
 31
0.0
  0
LINE
  5
19434
330
747D
100
AcDbEntity
  8
細線
100
AcDbLine
 10
9550.645061581903
 20
4419.621024879348
 30
0.0
 11
9550.645061581903
 21
2394.12102487936
 31
0.0
  0
LINE
  5
19435
330
747D
100
AcDbEntity
  8
細線
100
AcDbLine
 10
9480.645061581903
 20
4419.621024879348
 30
0.0
 11
9480.645061581903
 21
2394.12102487936
 31
0.0
  0
LINE
  5
19436
330
747D
100
AcDbEntity
  8
細線
100
AcDbLine
 10
10195.89505183166
 20
4419.621024879348
 30
0.0
 11
10195.89505183166
 21
2394.121024879367
 31
0.0
  0
LINE
  5
19437
330
747D
100
AcDbEntity
  8
部品1
 48
50.0
100
AcDbLine
 10
10073.14504213652
 20
4419.621024916496
 30
0.0
 11
10073.14504213652
 21
2394.121024916496
 31
0.0
  0
LINE
  5
19438
330
747D
100
AcDbEntity
  8
部品1
 48
50.0
100
AcDbLine
 10
10739.14505183166
 20
2336.621024879349
 30
0.0
 11
10739.14505183166
 21
4471.621024879349
 31
0.0
  0
LINE
  5
19439
330
747D
100
AcDbEntity
  8
細線
 48
50.0
100
AcDbLine
 10
10709.14505183166
 20
2336.621024879349
 30
0.0
 11
10709.14505183166
 21
4429.121024879349
 31
0.0
  0
LINE
  5
1943A
330
747D
100
AcDbEntity
  8
部品1
 48
50.0
100
AcDbLine
 10
10700.14505183166
 20
2383.621024879349
 30
0.0
 11
10700.14505183166
 21
4419.621024879348
 31
0.0
  0
LINE
  5
1943B
330
747D
100
AcDbEntity
  8
部品1
 48
50.0
100
AcDbLine
 10
9419.145051831659
 20
4419.621024904116
 30
0.0
 11
9419.145051831659
 21
2386.621024904116
 31
0.0
  0
LINE
  5
1943C
330
747D
100
AcDbEntity
  8
部品1
 48
50.0
100
AcDbLine
 10
8585.145051831659
 20
4471.621024879349
 30
0.0
 11
8585.145051831659
 21
2336.621024879349
 31
0.0
  0
LINE
  5
1943D
330
747D
100
AcDbEntity
  8
細線
 48
50.0
100
AcDbLine
 10
8615.145051831659
 20
4429.121024879349
 30
0.0
 11
8615.145051831659
 21
2336.621024879349
 31
0.0
  0
LINE
  5
1943E
330
747D
100
AcDbEntity
  8
部品1
 48
50.0
100
AcDbLine
 10
8615.145051831659
 20
2386.621024879349
 30
0.0
 11
8615.145051831659
 21
4419.621024879348
 31
0.0
  0
LINE
  5
1945C
330
747D
100
AcDbEntity
  8
細線
 48
50.0
100
AcDbLine
 10
10687.14505183166
 20
2383.621024879349
 30
0.0
 11
10683.14505183166
 21
2394.121024879348
 31
0.0
  0
LINE
  5
1945D
330
747D
100
AcDbEntity
  8
部品1
 48
50.0
100
AcDbLine
 10
8624.145051831659
 20
2386.621024879349
 30
0.0
 11
8624.145051831659
 21
2383.621024879349
 31
0.0
  0
LINE
  5
1945E
330
747D
100
AcDbEntity
  8
部品1
 48
50.0
100
AcDbLine
 10
8615.145051831659
 20
2386.621024879349
 30
0.0
 11
9419.145051831655
 21
2386.621024879345
 31
0.0
  0
LINE
  5
1945F
330
747D
100
AcDbEntity
  8
細線
 48
50.0
100
AcDbLine
 10
9419.145051831659
 20
2394.121024879348
 30
0.0
 11
10683.14505183166
 21
2394.121024879348
 31
0.0
  0
LINE
  5
19460
330
747D
100
AcDbEntity
  8
細線
 48
50.0
100
AcDbLine
 10
8615.145051831659
 20
2383.621024879349
 30
0.0
 11
10709.14505183166
 21
2383.621024879349
 31
0.0
  0
LINE
  5
19461
330
747D
100
AcDbEntity
  8
細線
 48
50.0
100
AcDbLine
 10
8615.145051831659
 20
2379.621024879349
 30
0.0
 11
10709.14505183166
 21
2379.621024879349
 31
0.0
  0
LINE
  5
19462
330
747D
100
AcDbEntity
  8
部品1
 48
50.0
100
AcDbLine
 10
8585.145051831659
 20
2336.621024879349
 30
0.0
 11
10739.14505183166
 21
2336.621024879349
 31
0.0
  0
LINE
  5
19463
330
747D
100
AcDbEntity
  8
部品1
 48
50.0
100
AcDbLine
 10
8585.145051831659
 20
2336.621024879349
 30
0.0
 11
10739.14505183166
 21
2336.621024879349
 31
0.0
  0
LINE
  5
19464
330
747D
100
AcDbEntity
  8
部品1
 48
50.0
100
AcDbLine
 10
8615.145051831659
 20
4427.621024879349
 30
0.0
 11
8585.145051831659
 21
4427.621024879349
 31
0.0
  0
LINE
  5
19465
330
747D
100
AcDbEntity
  8
細線
 48
50.0
100
AcDbLine
 10
10709.14505183166
 20
4429.121024879349
 30
0.0
 11
8615.145051831659
 21
4429.121024879349
 31
0.0
  0
LINE
  5
19466
330
747D
100
AcDbEntity
  8
細線
 48
50.0
100
AcDbLine
 10
10709.14505183166
 20
4419.621024879348
 30
0.0
 11
8615.145051831659
 21
4419.621024879348
 31
0.0
  0
LINE
  5
19467
330
747D
100
AcDbEntity
  8
細線
 48
50.0
100
AcDbLine
 10
10739.14505183166
 20
4461.621024879348
 30
0.0
 11
8585.145051831659
 21
4461.621024879348
 31
0.0
  0
LINE
  5
19468
330
747D
100
AcDbEntity
  8
部品1
 48
50.0
100
AcDbLine
 10
10739.14505183166
 20
4471.621024879349
 30
0.0
 11
8585.145051831659
 21
4471.621024879349
 31
0.0
  0
LINE
  5
19469
330
747D
100
AcDbEntity
  8
部品1
 48
50.0
100
AcDbLine
 10
10739.14505183166
 20
4427.621024879349
 30
0.0
 11
10709.14505183166
 21
4427.621024879349
 31
0.0
  0
LINE
  5
1946A
330
747D
100
AcDbEntity
  8
部品1
100
AcDbLine
 10
8612.145051831662
 20
4476.621024879348
 30
0.0
 11
8612.145051831664
 21
4471.621024879349
 31
0.0
  0
LINE
  5
1946B
330
747D
100
AcDbEntity
  8
部品1
 48
50.0
100
AcDbLine
 10
11132.14505183166
 20
2386.621024879349
 30
0.0
 11
11132.14505183166
 21
4476.621024879348
 31
0.0
  0
LINE
  5
1946C
330
747D
100
AcDbEntity
  8
細線
 48
50.0
100
AcDbLine
 10
10789.64505183167
 20
4476.62102487935
 30
0.0
 11
10789.64505183167
 21
2386.621024879349
 31
0.0
  0
LINE
  5
1946D
330
747D
100
AcDbEntity
  8
細線
 48
50.0
100
AcDbLine
 10
10774.64505183167
 20
4476.62102487935
 30
0.0
 11
10774.64505183167
 21
2386.621024879349
 31
0.0
  0
LINE
  5
1946E
330
747D
100
AcDbEntity
  8
細線
 48
50.0
100
AcDbLine
 10
10914.64505183167
 20
4476.62102487935
 30
0.0
 11
10914.64505183167
 21
2386.621024879349
 31
0.0
  0
LINE
  5
1946F
330
747D
100
AcDbEntity
  8
細線
 48
50.0
100
AcDbLine
 10
10929.64505183167
 20
4476.62102487935
 30
0.0
 11
10929.64505183167
 21
2386.621024879349
 31
0.0
  0
LINE
  5
19470
330
747D
100
AcDbEntity
  8
細線
 48
50.0
100
AcDbLine
 10
11069.64505183167
 20
4476.62102487935
 30
0.0
 11
11069.64505183167
 21
2386.621024879349
 31
0.0
  0
LINE
  5
19471
330
747D
100
AcDbEntity
  8
細線
 48
50.0
100
AcDbLine
 10
11054.64505183167
 20
4476.62102487935
 30
0.0
 11
11054.64505183167
 21
2386.621024879349
 31
0.0
  0
LINE
  5
19472
330
747D
100
AcDbEntity
  8
細線
 48
50.0
100
AcDbLine
 10
8534.645051831661
 20
4476.621024879348
 30
0.0
 11
8534.64505183166
 21
2386.621024879349
 31
0.0
  0
LINE
  5
19473
330
747D
100
AcDbEntity
  8
細線
 48
50.0
100
AcDbLine
 10
8549.645051831662
 20
4476.621024879348
 30
0.0
 11
8549.645051831658
 21
2386.621024879349
 31
0.0
  0
LINE
  5
19474
330
747D
100
AcDbEntity
  8
細線
 48
50.0
100
AcDbLine
 10
8409.645051831661
 20
4476.621024879348
 30
0.0
 11
8409.64505183166
 21
2386.621024879349
 31
0.0
  0
LINE
  5
19475
330
747D
100
AcDbEntity
  8
細線
 48
50.0
100
AcDbLine
 10
8394.645051831661
 20
4476.621024879348
 30
0.0
 11
8394.645051831659
 21
2386.621024879349
 31
0.0
  0
LINE
  5
19476
330
747D
100
AcDbEntity
  8
細線
 48
50.0
100
AcDbLine
 10
8254.645051831662
 20
4476.621024879348
 30
0.0
 11
8254.64505183166
 21
2386.621024879349
 31
0.0
  0
LINE
  5
19477
330
747D
100
AcDbEntity
  8
細線
 48
50.0
100
AcDbLine
 10
8269.645051831661
 20
4476.621024879348
 30
0.0
 11
8269.645051831659
 21
2386.621024879349
 31
0.0
  0
MTEXT
  5
19479
330
747D
100
AcDbEntity
  8
寸法
 62
     7
 48
50.0
100
AcDbMText
 10
10432.2475889248
 20
9171.071206596778
 30
0.0
 40
96.0
 41
0.0
 71
     5
 72
     1
  1
棚 3段
  7
STYLE1
 73
     1
 44
1.0
1001
ACAD
1000
MTEXTBEGIN
1070
    73
1070
     1
1070
    44
1040
1.0
1070
    74
1070
     0
1000
MTEXTEND
  0
LINE
  5
19804
330
747D
100
AcDbEntity
  8
補助
  6
PHANTOM
 62
   230
 48
50.0
100
AcDbLine
 10
140.0
 20
0.0
 30
0.0
 11
139.9999999999995
 21
11409.6
 31
0.0
  0
MTEXT
  5
1993B
330
747D
100
AcDbEntity
  8
寸法
 62
     7
 48
50.0
100
AcDbMText
 10
8922.247588924767
 20
9171.071206596757
 30
0.0
 40
96.0
 41
0.0
 71
     5
 72
     1
  1
棚 3段
  7
STYLE1
 73
     1
 44
1.0
1001
ACAD
1000
MTEXTBEGIN
1070
    73
1070
     1
1070
    44
1040
1.0
1070
    74
1070
     0
1000
MTEXTEND
  0
LINE
  5
19ADD
330
747D
100
AcDbEntity
  8
部品1
 48
50.0
100
AcDbLine
 10
8659.145051831659
 20
3468.121024879351
 30
0.0
 11
8712.14505183166
 21
3468.121024879351
 31
0.0
  0
LINE
  5
19D47
330
747D
100
AcDbEntity
  8
寸法
 48
50.0
100
AcDbLine
 10
9047.348058113469
 20
7572.873139968191
 30
0.0
 11
8995.942050203366
 21
7572.873139968191
 31
0.0
  0
LINE
  5
19D48
330
747D
100
AcDbEntity
  8
寸法
 48
50.0
100
AcDbLine
 10
8995.942050203366
 20
7572.873139968191
 30
0.0
 11
8995.942050203366
 21
7604.183298620357
 31
0.0
  0
LINE
  5
19D49
330
747D
100
AcDbEntity
  8
寸法
 48
50.0
100
AcDbLine
 10
8995.942050203366
 20
7604.183298620357
 30
0.0
 11
8966.180718211942
 21
7604.183298620357
 31
0.0
  0
LINE
  5
19D4A
330
747D
100
AcDbEntity
  8
寸法
 48
50.0
100
AcDbLine
 10
8966.180718211942
 20
7604.183298620357
 30
0.0
 11
9021.645054158417
 21
7641.762749548966
 31
0.0
  0
LINE
  5
19D4B
330
747D
100
AcDbEntity
  8
寸法
 48
50.0
100
AcDbLine
 10
9077.109390104894
 20
7604.183298620357
 30
0.0
 11
9021.645054158417
 21
7641.762749548966
 31
0.0
  0
LINE
  5
19D4C
330
747D
100
AcDbEntity
  8
寸法
 48
50.0
100
AcDbLine
 10
9047.348058113469
 20
7604.183298620357
 30
0.0
 11
9077.109390104894
 21
7604.183298620357
 31
0.0
  0
LINE
  5
19D4D
330
747D
100
AcDbEntity
  8
寸法
 48
50.0
100
AcDbLine
 10
9047.348058113469
 20
7572.873139968191
 30
0.0
 11
9047.348058113469
 21
7604.183298620357
 31
0.0
  0
LINE
  5
19D4E
330
747D
100
AcDbEntity
  8
寸法
 48
50.0
100
AcDbLine
 10
8995.942050203366
 20
7572.873139968191
 30
0.0
 11
9047.348058113469
 21
7572.873139968191
 31
0.0
  0
LINE
  5
19D4F
330
747D
100
AcDbEntity
  8
寸法
 48
50.0
100
AcDbLine
 10
9326.513592390327
 20
7630.018730723013
 30
0.0
 11
9326.513592390327
 21
7576.355096141224
 31
0.0
  0
LINE
  5
19D50
330
747D
100
AcDbEntity
  8
寸法
 48
50.0
100
AcDbLine
 10
9415.797810985749
 20
7606.095096453528
 30
0.0
 11
9326.513592390327
 21
7630.018730723013
 31
0.0
  0
LINE
  5
19D51
330
747D
100
AcDbEntity
  8
寸法
 48
50.0
100
AcDbLine
 10
9196.645870810023
 20
7606.095096453528
 30
0.0
 11
9415.797810985749
 21
7606.095096453528
 31
0.0
  0
LINE
  5
19D52
330
747D
100
AcDbEntity
  8
細線
 48
50.0
100
AcDbLine
 10
10073.14505183163
 20
7771.336503348052
 30
0.0
 11
10700.14505183162
 21
7771.336503348052
 31
0.0
  0
LINE
  5
19D53
330
747D
100
AcDbEntity
  8
細線
 48
50.0
100
AcDbLine
 10
9419.145056485215
 20
7737.627734793978
 30
0.0
 11
10700.14505183162
 21
7737.627734793978
 31
0.0
  0
LINE
  5
19D54
330
747D
100
AcDbEntity
  8
細線
 48
50.0
100
AcDbLine
 10
9378.14505648522
 20
7767.032642790231
 30
0.0
 11
8624.145051831625
 21
7767.032642790228
 31
0.0
  0
LINE
  5
19D55
330
747D
100
AcDbEntity
  8
細線
100
AcDbLine
 10
10475.89504241517
 20
7790.836403313062
 30
0.0
 11
10478.22658193698
 21
7795.836405953024
 31
0.0
  0
LINE
  5
19D56
330
747D
100
AcDbEntity
  8
細線
100
AcDbLine
 10
10545.89505183162
 20
7790.836388399327
 30
0.0
 11
10543.56350535544
 21
7795.836405953008
 31
0.0
  0
LINE
  5
19D57
330
747D
100
AcDbEntity
  8
細線
100
AcDbLine
 10
10543.56350535544
 20
7795.836405953008
 30
0.0
 11
10478.22658193696
 21
7795.836405952994
 31
0.0
  0
LINE
  5
19D58
330
747D
100
AcDbEntity
  8
細線
100
AcDbLine
 10
10403.56350535544
 20
7795.836405953008
 30
0.0
 11
10338.22658193696
 21
7795.836405952994
 31
0.0
  0
LINE
  5
19D59
330
747D
100
AcDbEntity
  8
細線
100
AcDbLine
 10
10405.89505183163
 20
7790.836388399327
 30
0.0
 11
10403.56350535544
 21
7795.836405953008
 31
0.0
  0
LINE
  5
19D5A
330
747D
100
AcDbEntity
  8
細線
100
AcDbLine
 10
10335.89504241517
 20
7790.836403313062
 30
0.0
 11
10338.22658193698
 21
7795.836405953024
 31
0.0
  0
LINE
  5
19D5B
330
747D
100
AcDbEntity
  8
細線
100
AcDbLine
 10
10195.89505183162
 20
7790.836388399327
 30
0.0
 11
10198.22659135344
 21
7795.836391039289
 31
0.0
  0
LINE
  5
19D5C
330
747D
100
AcDbEntity
  8
細線
100
AcDbLine
 10
10265.89506124808
 20
7790.836373485594
 30
0.0
 11
10263.56351477189
 21
7795.836391039275
 31
0.0
  0
LINE
  5
19D5D
330
747D
100
AcDbEntity
  8
細線
100
AcDbLine
 10
10263.5635147719
 20
7795.836391039275
 30
0.0
 11
10198.22659135342
 21
7795.83639103926
 31
0.0
  0
LINE
  5
19D5E
330
747D
100
AcDbEntity
  8
細線
100
AcDbLine
 10
9968.313536020733
 20
7761.836427736657
 30
0.0
 11
9902.976612602257
 21
7761.836427736643
 31
0.0
  0
LINE
  5
19D5F
330
747D
100
AcDbEntity
  8
細線
100
AcDbLine
 10
9970.64508249692
 20
7756.836410182976
 30
0.0
 11
9968.313536020733
 21
7761.836427736657
 31
0.0
  0
LINE
  5
19D60
330
747D
100
AcDbEntity
  8
細線
100
AcDbLine
 10
9900.645073080463
 20
7756.836425096709
 30
0.0
 11
9902.976612602273
 21
7761.836427736671
 31
0.0
  0
LINE
  5
19D61
330
747D
100
AcDbEntity
  8
細線
 48
50.0
100
AcDbLine
 10
9742.02843107964
 20
7775.107251552409
 30
0.0
 11
9747.783948662307
 21
7756.836400261922
 31
0.0
  0
LINE
  5
19D62
330
747D
100
AcDbEntity
  8
細線
 48
50.0
100
AcDbLine
 10
9731.099982599211
 20
7775.107251552409
 30
0.0
 11
9742.02843107964
 21
7775.107251552409
 31
0.0
  0
ARC
  5
19D63
330
747D
100
AcDbEntity
  8
細線
 48
50.0
100
AcDbCircle
 10
9725.645626541888
 20
7776.607251552409
 30
0.0
 40
5.0
100
AcDbArc
 50
204.6243183521304
 51
335.3756816478695
  0
ARC
  5
19D64
330
747D
100
AcDbEntity
  8
細線
 48
50.0
100
AcDbCircle
 10
9731.099982599211
 20
7774.107251552408
 30
0.0
 40
1.0
100
AcDbArc
 50
90.0
 51
155.3756816478695
  0
ARC
  5
19D65
330
747D
100
AcDbEntity
  8
細線
 48
50.0
100
AcDbCircle
 10
9720.191270484573
 20
7774.107251552408
 30
0.0
 40
1.0
100
AcDbArc
 50
24.62431835213048
 51
90.0
  0
LINE
  5
19D66
330
747D
100
AcDbEntity
  8
細線
 48
50.0
100
AcDbLine
 10
9709.26282200414
 20
7775.107251552409
 30
0.0
 11
9720.191270484573
 21
7775.107251552409
 31
0.0
  0
LINE
  5
19D67
330
747D
100
AcDbEntity
  8
細線
 48
50.0
100
AcDbLine
 10
9703.507304421471
 20
7756.836400261915
 30
0.0
 11
9709.26282200414
 21
7775.107251552409
 31
0.0
  0
LINE
  5
19D68
330
747D
100
AcDbEntity
  8
細線
100
AcDbLine
 10
9760.645074311504
 20
7756.836397627719
 30
0.0
 11
9762.976613833316
 21
7761.83640026768
 31
0.0
  0
LINE
  5
19D69
330
747D
100
AcDbEntity
  8
細線
100
AcDbLine
 10
9830.645083727965
 20
7756.836382713984
 30
0.0
 11
9828.313537251773
 21
7761.836400267665
 31
0.0
  0
LINE
  5
19D6A
330
747D
100
AcDbEntity
  8
細線
100
AcDbLine
 10
9828.313537251773
 20
7761.836400267665
 30
0.0
 11
9762.976613833302
 21
7761.836400267651
 31
0.0
  0
LINE
  5
19D6B
330
747D
100
AcDbEntity
  8
細線
100
AcDbLine
 10
9688.313508887256
 20
7761.836400261886
 30
0.0
 11
9622.976585468782
 21
7761.83640026187
 31
0.0
  0
LINE
  5
19D6C
330
747D
100
AcDbEntity
  8
細線
100
AcDbLine
 10
9690.645055363445
 20
7756.836382708205
 30
0.0
 11
9688.313508887256
 21
7761.836400261886
 31
0.0
  0
LINE
  5
19D6D
330
747D
100
AcDbEntity
  8
細線
100
AcDbLine
 10
9620.64504717803
 20
7756.836400261915
 30
0.0
 11
9622.976585468796
 21
7761.8364002619
 31
0.0
  0
LINE
  5
19D6E
330
747D
100
AcDbEntity
  8
細線
100
AcDbLine
 10
9480.64508249692
 20
7756.836408449284
 30
0.0
 11
9482.976620787686
 21
7761.836408449269
 31
0.0
  0
LINE
  5
19D6F
330
747D
100
AcDbEntity
  8
細線
100
AcDbLine
 10
9550.645090682335
 20
7756.836390895575
 30
0.0
 11
9548.313544206148
 21
7761.836408449251
 31
0.0
  0
LINE
  5
19D70
330
747D
100
AcDbEntity
  8
細線
100
AcDbLine
 10
9548.313544206148
 20
7761.836408449251
 30
0.0
 11
9482.976620787672
 21
7761.836408449241
 31
0.0
  0
LINE
  5
19D71
330
747D
100
AcDbEntity
  8
細線
100
AcDbLine
 10
9109.145048299799
 20
7722.836580129997
 30
0.0
 11
9111.476586590567
 21
7727.836580129983
 31
0.0
  0
LINE
  5
19D72
330
747D
100
AcDbEntity
  8
細線
100
AcDbLine
 10
9179.145056485216
 20
7722.836562576283
 30
0.0
 11
9176.813510009028
 21
7727.836580129961
 31
0.0
  0
LINE
  5
19D73
330
747D
100
AcDbEntity
  8
細線
100
AcDbLine
 10
9176.813510009028
 20
7727.836580129961
 30
0.0
 11
9111.476586590555
 21
7727.836580129952
 31
0.0
  0
LINE
  5
19D74
330
747D
100
AcDbEntity
  8
細線
100
AcDbLine
 10
9316.813510009028
 20
7727.836580129961
 30
0.0
 11
9251.476586590555
 21
7727.836580129952
 31
0.0
  0
LINE
  5
19D75
330
747D
100
AcDbEntity
  8
細線
100
AcDbLine
 10
9319.145056485215
 20
7722.836562576283
 30
0.0
 11
9316.813510009028
 21
7727.836580129961
 31
0.0
  0
LINE
  5
19D76
330
747D
100
AcDbEntity
  8
細線
100
AcDbLine
 10
9249.1450482998
 20
7722.836580129997
 30
0.0
 11
9251.476586590568
 21
7727.836580129983
 31
0.0
  0
LINE
  5
19D77
330
747D
100
AcDbEntity
  8
細線
100
AcDbLine
 10
9036.813510009027
 20
7727.836580129961
 30
0.0
 11
8971.476586590556
 21
7727.83658012995
 31
0.0
  0
LINE
  5
19D78
330
747D
100
AcDbEntity
  8
細線
100
AcDbLine
 10
9039.145056485216
 20
7722.836562576283
 30
0.0
 11
9036.813510009027
 21
7727.836580129961
 31
0.0
  0
LINE
  5
19D79
330
747D
100
AcDbEntity
  8
細線
100
AcDbLine
 10
8969.145048299798
 20
7722.836580129992
 30
0.0
 11
8971.476586590567
 21
7727.836580129978
 31
0.0
  0
LINE
  5
19D7A
330
747D
100
AcDbEntity
  8
細線
100
AcDbLine
 10
8829.145056485215
 20
7722.836580129997
 30
0.0
 11
8831.476594775983
 21
7727.836580129983
 31
0.0
  0
LINE
  5
19D7B
330
747D
100
AcDbEntity
  8
細線
100
AcDbLine
 10
8899.145064670632
 20
7722.836562576283
 30
0.0
 11
8896.813518194443
 21
7727.836580129961
 31
0.0
  0
LINE
  5
19D7C
330
747D
100
AcDbEntity
  8
細線
100
AcDbLine
 10
8896.813518194443
 20
7727.836580129961
 30
0.0
 11
8831.476594775971
 21
7727.836580129952
 31
0.0
  0
ARC
  5
19D7D
330
747D
100
AcDbEntity
  8
部品1
 48
0.01
100
AcDbCircle
 10
8784.64494523288
 20
7721.835457944924
 30
0.0
 40
0.5
100
AcDbArc
 50
270.0
 51
0.0
  0
LINE
  5
19D7E
330
747D
100
AcDbEntity
  8
部品1
 48
0.01
100
AcDbLine
 10
8785.144945232879
 20
7722.835457944924
 30
0.0
 11
8785.144945232879
 21
7721.835457944924
 31
0.0
  0
LINE
  5
19D7F
330
747D
100
AcDbEntity
  8
部品1
 48
0.01
100
AcDbLine
 10
8785.144945232879
 20
7722.835457944924
 30
0.0
 11
8785.144945232879
 21
7721.835457944924
 31
0.0
  0
LINE
  5
19D80
330
747D
100
AcDbEntity
  8
部品1
 48
0.01
100
AcDbLine
 10
8784.64494523288
 20
7721.335457944924
 30
0.0
 11
8778.032439802816
 21
7721.335457944924
 31
0.0
  0
ARC
  5
19D81
330
747D
100
AcDbEntity
  8
部品1
100
AcDbCircle
 10
8778.100789355596
 20
7722.335457944925
 30
0.0
 40
1.0
100
AcDbArc
 50
160.5287793655778
 51
270.0
  0
ARC
  5
19D82
330
747D
100
AcDbEntity
  8
部品1
100
AcDbCircle
 10
8752.64494523288
 20
7731.335457944924
 30
0.0
 40
26.0
100
AcDbArc
 50
340.5287793655779
 51
0.0
  0
LINE
  5
19D83
330
747D
100
AcDbEntity
  8
部品1
100
AcDbLine
 10
8778.64494523288
 20
7731.335457944924
 30
0.0
 11
8778.64494523288
 21
7736.335457944925
 31
0.0
  0
ARC
  5
19D84
330
747D
100
AcDbEntity
  8
部品1
 48
0.01
100
AcDbCircle
 10
8776.644945232879
 20
7736.335457944925
 30
0.0
 40
2.0
100
AcDbArc
 50
0.0
 51
90.0
  0
ARC
  5
19D85
330
747D
100
AcDbEntity
  8
部品1
100
AcDbCircle
 10
8775.036553608071
 20
7735.335457944924
 30
0.0
 40
3.0
100
AcDbArc
 50
90.0
 51
141.6069559807873
  0
LINE
  5
19D86
330
747D
100
AcDbEntity
  8
部品1
 48
0.01
100
AcDbLine
 10
8776.644945232879
 20
7738.335457944924
 30
0.0
 11
8775.036553608071
 21
7738.335457944924
 31
0.0
  0
ARC
  5
19D87
330
747D
100
AcDbEntity
  8
部品1
100
AcDbCircle
 10
8756.574231018609
 20
7734.635457944927
 30
0.0
 40
3.0
100
AcDbArc
 50
254.0576313943215
 51
270.0
  0
ARC
  5
19D88
330
747D
100
AcDbEntity
  8
部品1
100
AcDbCircle
 10
8763.71565944715
 20
7734.635457944927
 30
0.0
 40
3.0
100
AcDbArc
 50
270.0
 51
285.9423686056786
  0
LINE
  5
19D89
330
747D
100
AcDbEntity
  8
部品1
100
AcDbLine
 10
8763.71565944715
 20
7731.635457944927
 30
0.0
 11
8756.574231018609
 21
7731.635457944927
 31
0.0
  0
ARC
  5
19D8A
330
747D
100
AcDbEntity
  8
部品1
100
AcDbCircle
 10
8760.144945232879
 20
7747.135457944927
 30
0.0
 40
16.0
100
AcDbArc
 50
285.9423686056786
 51
321.6069559807873
  0
LINE
  5
19D8B
330
747D
100
AcDbEntity
  8
部品1
 48
0.01
100
AcDbLine
 10
8743.64494523288
 20
7738.335457944924
 30
0.0
 11
8745.25333685769
 21
7738.335457944924
 31
0.0
  0
ARC
  5
19D8C
330
747D
100
AcDbEntity
  8
部品1
100
AcDbCircle
 10
8745.25333685769
 20
7735.335457944924
 30
0.0
 40
3.0
100
AcDbArc
 50
38.39304401921267
 51
90.0
  0
ARC
  5
19D8D
330
747D
100
AcDbEntity
  8
部品1
100
AcDbCircle
 10
8760.144945232879
 20
7747.135457944927
 30
0.0
 40
16.0
100
AcDbArc
 50
218.3930440192126
 51
254.0576313943215
  0
LINE
  5
19D8E
330
747D
100
AcDbEntity
  8
部品1
100
AcDbLine
 10
8741.644945232881
 20
7731.335457944924
 30
0.0
 11
8741.644945232881
 21
7736.335457944925
 31
0.0
  0
ARC
  5
19D8F
330
747D
100
AcDbEntity
  8
部品1
 48
0.01
100
AcDbCircle
 10
8743.64494523288
 20
7736.335457944925
 30
0.0
 40
2.0
100
AcDbArc
 50
90.0
 51
180.0
  0
ARC
  5
19D90
330
747D
100
AcDbEntity
  8
部品1
100
AcDbCircle
 10
8767.644945232879
 20
7731.335457944924
 30
0.0
 40
26.0
100
AcDbArc
 50
180.0
 51
199.4712206344221
  0
ARC
  5
19D91
330
747D
100
AcDbEntity
  8
部品1
 48
0.01
100
AcDbCircle
 10
8735.644945232881
 20
7721.835457944924
 30
0.0
 40
0.5
100
AcDbArc
 50
180.0
 51
270.0
  0
LINE
  5
19D92
330
747D
100
AcDbEntity
  8
部品1
 48
0.01
100
AcDbLine
 10
8735.644945232881
 20
7721.335457944924
 30
0.0
 11
8742.189101110163
 21
7721.335457944924
 31
0.0
  0
LINE
  5
19D93
330
747D
100
AcDbEntity
  8
部品1
 48
0.01
100
AcDbLine
 10
8735.14494523288
 20
7722.835457944924
 30
0.0
 11
8735.14494523288
 21
7721.835457944924
 31
0.0
  0
ARC
  5
19D94
330
747D
100
AcDbEntity
  8
部品1
100
AcDbCircle
 10
8742.189101110163
 20
7722.335457944925
 30
0.0
 40
1.0
100
AcDbArc
 50
270.0
 51
19.47122063442214
  0
LINE
  5
19D95
330
747D
100
AcDbEntity
  8
細線
100
AcDbLine
 10
8780.644945232888
 20
7740.835457944928
 30
0.0
 11
8739.644945232887
 21
7740.835457944921
 31
0.0
  0
LINE
  5
19D96
330
747D
100
AcDbEntity
  8
細線
100
AcDbLine
 10
8739.644945232887
 20
7740.835457944921
 30
0.0
 11
8739.644945232887
 21
7722.835457944903
 31
0.0
  0
LINE
  5
19D97
330
747D
100
AcDbEntity
  8
細線
100
AcDbLine
 10
8780.644945232888
 20
7740.835457944928
 30
0.0
 11
8780.644945232888
 21
7722.835457944903
 31
0.0
  0
LINE
  5
19D98
330
747D
100
AcDbEntity
  8
細線
100
AcDbLine
 10
8624.145051831625
 20
7726.836388399327
 30
0.0
 11
8624.145051831625
 21
7722.836388399375
 31
0.0
  0
DIMENSION
  5
19D99
330
747D
100
AcDbEntity
  8
寸法
 48
50.0
100
AcDbDimension
  2
*D31
 10
9890.145051831625
 20
7072.326410648348
 30
0.0
 11
9285.924242156864
 21
7072.326410648348
 31
0.0
 70
   160
  1
有効開口部間口\P<>
 71
     5
 42
1266.0
  3
INABA_S40
100
AcDbAlignedDimension
 13
8624.145051831625
 23
7717.836388399328
 33
0.0
 14
9890.145051831625
 24
7717.836388399328
 34
0.0
100
AcDbRotatedDimension
1001
ACAD
1000
DSTYLE
1002
{
1070
    41
1040
0.5
1070
    44
1040
1.0
1070
   147
1040
0.8
1070
   271
1070
     2
1070
   272
1070
     2
1070
   289
1070
     3
1070
   340
1005
F706
1070
   343
1005
18E1E
1070
   344
1005
18E1E
1002
}
  0
LINE
  5
19D9A
330
747D
100
AcDbEntity
  8
部品1
100
AcDbLine
 10
10712.14505183162
 20
7794.836388399328
 30
0.0
 11
10739.14505183162
 21
7794.836388399328
 31
0.0
  0
LINE
  5
19D9C
330
747D
100
AcDbEntity
  8
部品1
100
AcDbLine
 10
10739.14505183162
 20
7717.836388399328
 30
0.0
 11
10739.14505183162
 21
7794.836388399328
 31
0.0
  0
LINE
  5
19D9D
330
747D
100
AcDbEntity
  8
部品1
100
AcDbLine
 10
10700.14505183162
 20
7790.836388399327
 30
0.0
 11
10712.14505183162
 21
7790.836388399327
 31
0.0
  0
LINE
  5
19D9E
330
747D
100
AcDbEntity
  8
部品1
100
AcDbLine
 10
10709.14505183162
 20
7726.836388399327
 30
0.0
 11
10709.14505183162
 21
7717.836388399328
 31
0.0
  0
LINE
  5
19D9F
330
747D
100
AcDbEntity
  8
部品1
100
AcDbLine
 10
10700.14505183162
 20
7726.836388399327
 30
0.0
 11
10709.14505183162
 21
7726.836388399327
 31
0.0
  0
LINE
  5
19DA0
330
747D
100
AcDbEntity
  8
部品1
100
AcDbLine
 10
10700.14505183162
 20
7790.836388399327
 30
0.0
 11
10700.14505183162
 21
7726.836388399327
 31
0.0
  0
LINE
  5
19DA1
330
747D
100
AcDbEntity
  8
部品1
100
AcDbLine
 10
10712.14505183162
 20
7821.836388399328
 30
0.0
 11
10712.14505183162
 21
7790.836388399327
 31
0.0
  0
LINE
  5
19DA2
330
747D
100
AcDbEntity
  8
部品1
100
AcDbLine
 10
8624.145051831625
 20
7790.836388399327
 30
0.0
 11
8612.145051831625
 21
7790.836388399327
 31
0.0
  0
LINE
  5
19DA3
330
747D
100
AcDbEntity
  8
部品1
100
AcDbLine
 10
8585.145051831625
 20
7794.836388399328
 30
0.0
 11
8612.145051831625
 21
7794.836388399328
 31
0.0
  0
LINE
  5
19DA4
330
747D
100
AcDbEntity
  8
部品1
100
AcDbLine
 10
8615.145051831625
 20
7726.836388399327
 30
0.0
 11
8615.145051831625
 21
7717.836388399328
 31
0.0
  0
LINE
  5
19DA5
330
747D
100
AcDbEntity
  8
部品1
100
AcDbLine
 10
8624.145051831625
 20
7726.836388399327
 30
0.0
 11
8615.145051831625
 21
7726.836388399327
 31
0.0
  0
LINE
  5
19DA6
330
747D
100
AcDbEntity
  8
部品1
100
AcDbLine
 10
8615.145051831625
 20
7717.836388399328
 30
0.0
 11
8585.145051831625
 21
7717.836388399328
 31
0.0
  0
LINE
  5
19DA7
330
747D
100
AcDbEntity
  8
部品1
100
AcDbLine
 10
8585.145051831625
 20
7717.836388399328
 30
0.0
 11
8585.145051831625
 21
7794.836388399328
 31
0.0
  0
LINE
  5
19DA8
330
747D
100
AcDbEntity
  8
部品1
100
AcDbLine
 10
8624.145051831625
 20
7790.836388399327
 30
0.0
 11
8624.145051831625
 21
7726.836388399327
 31
0.0
  0
LINE
  5
19DA9
330
747D
100
AcDbEntity
  8
部品1
100
AcDbLine
 10
8612.145051831625
 20
7821.836388399325
 30
0.0
 11
8612.145051831625
 21
7790.836388399327
 31
0.0
  0
LINE
  5
19DAA
330
747D
100
AcDbEntity
  8
部品1
100
AcDbLine
 10
8612.145051831625
 20
7821.836388399325
 30
0.0
 11
10712.14505183162
 21
7821.836388399328
 31
0.0
  0
LINE
  5
19DAB
330
747D
100
AcDbEntity
  8
部品1
100
AcDbLine
 10
10709.14505183162
 20
7717.836388399328
 30
0.0
 11
10739.14505183162
 21
7717.836388399328
 31
0.0
  0
LINE
  5
19DAC
330
747D
100
AcDbEntity
  8
部品1
100
AcDbLine
 10
8615.145051831625
 20
7717.836388399328
 30
0.0
 11
10712.14505183162
 21
7717.836388399328
 31
0.0
  0
LINE
  5
19DAD
330
747D
100
AcDbEntity
  8
細線
  6
Continuous
 62
     5
100
AcDbLine
 10
9991.14505183163
 20
7756.836388399324
 30
0.0
 11
9991.14505183163
 21
7756.836388399324
 31
0.0
  0
LINE
  5
19DAE
330
747D
100
AcDbEntity
  8
細線
  6
Continuous
 62
     5
100
AcDbLine
 10
9983.64508715052
 20
7756.836398320382
 30
0.0
 11
9983.64508715052
 21
7756.836398320382
 31
0.0
  0
LINE
  5
19DAF
330
747D
100
AcDbEntity
  8
細線
  6
Continuous
 62
     5
100
AcDbLine
 10
9977.64508715052
 20
7756.836398320382
 30
0.0
 11
9977.64508715052
 21
7756.836398320382
 31
0.0
  0
LINE
  5
19DB0
330
747D
100
AcDbEntity
  8
細線
  6
Continuous
 62
     5
100
AcDbLine
 10
10045.14505183163
 20
7775.836388399324
 30
0.0
 11
10045.14505183163
 21
7775.836388399324
 31
0.0
  0
LINE
  5
19DB1
330
747D
100
AcDbEntity
  8
細線
 48
50.0
100
AcDbLine
 10
8638.145056485219
 20
7743.436562576282
 30
0.0
 11
8638.145056485219
 21
7751.832712983922
 31
0.0
  0
LINE
  5
19DB2
330
747D
100
AcDbEntity
  8
細線
 48
50.0
100
AcDbLine
 10
8638.145056485219
 20
7751.832712983922
 30
0.0
 11
8624.145051831625
 21
7751.832712983918
 31
0.0
  0
LINE
  5
19DB3
330
747D
100
AcDbEntity
  8
細線
 48
50.0
100
AcDbLine
 10
9389.145056485215
 20
7739.986562576281
 30
0.0
 11
9389.145056485215
 21
7744.836562576283
 31
0.0
  0
LINE
  5
19DB4
330
747D
100
AcDbEntity
  8
細線
 48
50.0
100
AcDbLine
 10
9389.145056485215
 20
7744.836562576283
 30
0.0
 11
9404.145056485216
 21
7744.836562576283
 31
0.0
  0
LINE
  5
19DB5
330
747D
100
AcDbEntity
  8
細線
 48
50.0
100
AcDbLine
 10
9404.145056485216
 20
7744.836562576283
 30
0.0
 11
9404.145056485218
 21
7751.836562576284
 31
0.0
  0
LINE
  5
19DB6
330
747D
100
AcDbEntity
  8
細線
 48
50.0
100
AcDbLine
 10
9404.145056485218
 20
7751.836562576284
 30
0.0
 11
9419.145056485215
 21
7751.836562576284
 31
0.0
  0
LINE
  5
19DB7
330
747D
100
AcDbEntity
  8
細線
 48
50.0
100
AcDbLine
 10
9419.145056485215
 20
7751.836562576284
 30
0.0
 11
9419.145056485215
 21
7722.836562576283
 31
0.0
  0
LINE
  5
19DB8
330
747D
100
AcDbEntity
  8
細線
 48
50.0
100
AcDbLine
 10
8615.145051831625
 20
7722.833896919752
 30
0.0
 11
8829.145056485215
 21
7722.836580129997
 31
0.0
  0
LINE
  5
19DB9
330
747D
100
AcDbEntity
  8
細線
 48
50.0
100
AcDbLine
 10
9319.145056485215
 20
7722.836562576283
 30
0.0
 11
9419.145056485215
 21
7722.836562576283
 31
0.0
  0
LINE
  5
19DBA
330
747D
100
AcDbEntity
  8
細線
 48
50.0
100
AcDbLine
 10
9039.145056485216
 20
7722.836562576283
 30
0.0
 11
9109.145056485216
 21
7722.836562576283
 31
0.0
  0
LINE
  5
19DBB
330
747D
100
AcDbEntity
  8
細線
 48
50.0
100
AcDbLine
 10
9052.007021497743
 20
7722.836562576283
 30
0.0
 11
9057.762539080412
 21
7741.107413866777
 31
0.0
  0
LINE
  5
19DBC
330
747D
100
AcDbEntity
  8
細線
 48
50.0
100
AcDbLine
 10
9057.762539080412
 20
7741.107413866777
 30
0.0
 11
9068.690987560845
 21
7741.107413866775
 31
0.0
  0
ARC
  5
19DBD
330
747D
100
AcDbEntity
  8
細線
 48
50.0
100
AcDbCircle
 10
9068.690987560845
 20
7740.107413866773
 30
0.0
 40
1.0
100
AcDbArc
 50
24.62431835213048
 51
90.0
  0
ARC
  5
19DBE
330
747D
100
AcDbEntity
  8
細線
 48
50.0
100
AcDbCircle
 10
9079.599699675478
 20
7740.107413866773
 30
0.0
 40
1.0
100
AcDbArc
 50
90.0
 51
155.3756816478695
  0
ARC
  5
19DBF
330
747D
100
AcDbEntity
  8
細線
 48
50.0
100
AcDbCircle
 10
9074.145343618161
 20
7742.607413866775
 30
0.0
 40
5.0
100
AcDbArc
 50
204.6243183521304
 51
335.3756816478695
  0
LINE
  5
19DC0
330
747D
100
AcDbEntity
  8
細線
 48
50.0
100
AcDbLine
 10
9079.599699675478
 20
7741.107413866775
 30
0.0
 11
9090.528148155913
 21
7741.107413866777
 31
0.0
  0
LINE
  5
19DC1
330
747D
100
AcDbEntity
  8
細線
 48
50.0
100
AcDbLine
 10
9090.528148155913
 20
7741.107413866777
 30
0.0
 11
9096.28366573858
 21
7722.836562576283
 31
0.0
  0
LINE
  5
19DC2
330
747D
100
AcDbEntity
  8
細線
 48
50.0
100
AcDbLine
 10
9389.145056485215
 20
7743.436562576282
 30
0.0
 11
8638.145056485219
 21
7743.436562576282
 31
0.0
  0
LINE
  5
19DC3
330
747D
100
AcDbEntity
  8
細線
 48
50.0
100
AcDbLine
 10
9249.145056485215
 20
7722.836562576283
 30
0.0
 11
9179.145056485216
 21
7722.836562576283
 31
0.0
  0
LINE
  5
19DC4
330
747D
100
AcDbEntity
  8
細線
100
AcDbLine
 10
8969.145056485215
 20
7722.836562576283
 30
0.0
 11
8899.145064670632
 21
7722.836562576283
 31
0.0
  0
LINE
  5
19DC5
330
747D
100
AcDbEntity
  8
細線
 48
50.0
100
AcDbLine
 10
10043.14504717804
 20
7777.43660643415
 30
0.0
 11
9408.145056485215
 21
7777.436606434147
 31
0.0
  0
LINE
  5
19DC6
330
747D
100
AcDbEntity
  8
細線
 48
50.0
100
AcDbLine
 10
9408.145056485215
 20
7774.33275684179
 30
0.0
 11
9408.145056485215
 21
7778.83275684179
 31
0.0
  0
LINE
  5
19DC7
330
747D
100
AcDbEntity
  8
細線
 48
50.0
100
AcDbLine
 10
9408.145056485215
 20
7778.83275684179
 30
0.0
 11
9393.145056485215
 21
7778.83275684179
 31
0.0
  0
LINE
  5
19DC8
330
747D
100
AcDbEntity
  8
細線
 48
50.0
100
AcDbLine
 10
9393.145056485215
 20
7778.83275684179
 30
0.0
 11
9393.145056485215
 21
7785.832756841791
 31
0.0
  0
LINE
  5
19DC9
330
747D
100
AcDbEntity
  8
細線
 48
50.0
100
AcDbLine
 10
9393.145056485215
 20
7785.832756841791
 30
0.0
 11
9378.14505648522
 21
7785.832756841786
 31
0.0
  0
LINE
  5
19DCA
330
747D
100
AcDbEntity
  8
細線
 48
50.0
100
AcDbLine
 10
9378.14505648522
 20
7785.832756841786
 30
0.0
 11
9378.14505648522
 21
7748.232528738675
 31
0.0
  0
LINE
  5
19DCB
330
747D
100
AcDbEntity
  8
細線
 48
50.0
100
AcDbLine
 10
9378.14505648522
 20
7748.232528738675
 30
0.0
 11
9398.145063786392
 21
7748.232570288218
 31
0.0
  0
LINE
  5
19DCC
330
747D
100
AcDbEntity
  8
細線
 48
50.0
100
AcDbLine
 10
9398.145018917448
 20
7756.836031924025
 30
0.0
 11
9398.145063786392
 21
7748.232570288218
 31
0.0
  0
LINE
  5
19DCD
330
747D
100
AcDbEntity
  8
細線
 48
50.0
100
AcDbLine
 10
10043.14504717804
 20
7773.986606434149
 30
0.0
 11
10043.14504717804
 21
7778.836606434149
 31
0.0
  0
LINE
  5
19DCE
330
747D
100
AcDbEntity
  8
細線
 48
50.0
100
AcDbLine
 10
10043.14504717804
 20
7778.836606434149
 30
0.0
 11
10058.14504717803
 21
7778.836606434149
 31
0.0
  0
LINE
  5
19DCF
330
747D
100
AcDbEntity
  8
細線
 48
50.0
100
AcDbLine
 10
10058.14504717803
 20
7778.836606434149
 30
0.0
 11
10058.14505881201
 21
7785.836606434192
 31
0.0
  0
LINE
  5
19DD0
330
747D
100
AcDbEntity
  8
細線
 48
50.0
100
AcDbLine
 10
10058.14505881201
 20
7785.836606434192
 30
0.0
 11
10073.14505698254
 21
7785.836606434192
 31
0.0
  0
LINE
  5
19DD1
330
747D
100
AcDbEntity
  8
細線
 48
50.0
100
AcDbLine
 10
10073.14505698254
 20
7785.836606434192
 30
0.0
 11
10073.14504668072
 21
7756.836400261919
 31
0.0
  0
LINE
  5
19DD2
330
747D
100
AcDbEntity
  8
細線
 48
50.0
100
AcDbLine
 10
9760.645074311504
 20
7756.836408449284
 30
0.0
 11
9690.645326393919
 21
7756.836403011947
 31
0.0
  0
LINE
  5
19DD3
330
747D
100
AcDbEntity
  8
細線
 48
50.0
100
AcDbLine
 10
9398.145018917448
 20
7756.836031924025
 30
0.0
 11
9409.377708272158
 21
7756.836214877172
 31
0.0
  0
ARC
  5
19DD4
330
747D
100
AcDbEntity
  8
細線
 48
50.0
100
AcDbCircle
 10
9415.960000579493
 20
7755.636378790786
 30
0.0
 40
1.8
100
AcDbArc
 50
270.0006665777295
 51
345.0005554812987
  0
LINE
  5
19DD5
330
747D
100
AcDbEntity
  8
細線
 48
50.0
100
AcDbLine
 10
9417.946434025575
 20
7756.095219248064
 30
0.0
 11
9417.698671583377
 21
7755.170521365958
 31
0.0
  0
LINE
  5
19DD6
330
747D
100
AcDbEntity
  8
細線
 48
50.0
100
AcDbLine
 10
9415.960021520652
 20
7753.836378790906
 30
0.0
 11
9412.33009410188
 21
7753.836336560425
 31
0.0
  0
ARC
  5
19DD7
330
747D
100
AcDbEntity
  8
細線
 48
50.0
100
AcDbCircle
 10
9412.330073160729
 20
7755.636336560304
 30
0.0
 40
1.8
100
AcDbArc
 50
195.0010443049394
 51
270.0006665777295
  0
LINE
  5
19DD8
330
747D
100
AcDbEntity
  8
細線
 48
50.0
100
AcDbLine
 10
9410.34364566847
 20
7756.095051527869
 30
0.0
 11
9410.591415164983
 21
7755.170430589287
 31
0.0
  0
ARC
  5
19DD9
330
747D
100
AcDbEntity
  8
細線
 48
50.0
100
AcDbCircle
 10
9409.377724559721
 20
7755.836214877307
 30
0.0
 40
1.0
100
AcDbArc
 50
15.00104430493943
 51
90.00093320877969
  0
LINE
  5
19DDA
330
747D
100
AcDbEntity
  8
細線
 48
50.0
100
AcDbLine
 10
9418.912355380676
 20
7756.836409567577
 30
0.0
 11
9419.854115531583
 21
7756.836416141426
 31
0.0
  0
ARC
  5
19DDB
330
747D
100
AcDbEntity
  8
細線
 48
50.0
100
AcDbCircle
 10
9418.912362361062
 20
7755.836409567603
 30
0.0
 40
1.0
100
AcDbArc
 50
90.0003999466794
 51
165.0005554812987
  0
LINE
  5
19DDC
330
747D
100
AcDbEntity
  8
細線
 48
50.0
100
AcDbLine
 10
9970.645047178029
 20
7756.836400261919
 30
0.0
 11
10073.14504668072
 21
7756.836400261919
 31
0.0
  0
LINE
  5
19DDD
330
747D
100
AcDbEntity
  8
細線
 48
50.0
100
AcDbLine
 10
9480.64508249692
 20
7756.836408449284
 30
0.0
 11
9419.54502127
 21
7756.836416141426
 31
0.0
  0
LINE
  5
19DDE
330
747D
100
AcDbEntity
  8
細線
 48
50.0
100
AcDbLine
 10
9900.64508249692
 20
7756.836445290367
 30
0.0
 11
9830.645075542534
 21
7756.836400267698
 31
0.0
  0
LINE
  5
19DDF
330
747D
100
AcDbEntity
  8
細線
 48
50.0
100
AcDbLine
 10
9620.64504717803
 20
7756.836400261915
 30
0.0
 11
9550.645029890153
 21
7756.836400261922
 31
0.0
  0
ARC
  5
19DE0
330
747D
100
AcDbEntity
  8
細線
 48
50.0
100
AcDbCircle
 10
10057.34505183163
 20
7790.036388399329
 30
0.0
 40
0.8
100
AcDbArc
 50
359.9997333689499
 51
89.99986668437072
  0
ARC
  5
19DE1
330
747D
100
AcDbEntity
  8
細線
 48
50.0
100
AcDbCircle
 10
10064.94505865673
 20
7790.036399567945
 30
0.0
 40
0.8
100
AcDbArc
 50
90.00014387753465
 51
179.9997333689498
  0
LINE
  5
19DE2
330
747D
100
AcDbEntity
  8
細線
 48
50.0
100
AcDbLine
 10
10057.34505369307
 20
7790.836388399327
 30
0.0
 11
10052.14505183162
 21
7790.836388399327
 31
0.0
  0
ARC
  5
19DE3
330
747D
100
AcDbEntity
  8
細線
 48
50.0
100
AcDbCircle
 10
10058.84505183162
 20
7788.536388399329
 30
0.0
 40
0.7
100
AcDbArc
 50
180.0
 51
270.0
  0
ARC
  5
19DE4
330
747D
100
AcDbEntity
  8
細線
 48
50.0
100
AcDbCircle
 10
10063.44505183162
 20
7788.536388399329
 30
0.0
 40
0.7
100
AcDbArc
 50
270.0
 51
0.0
  0
LINE
  5
19DE5
330
747D
100
AcDbEntity
  8
細線
 48
50.0
100
AcDbLine
 10
10064.14505183162
 20
7788.536388399329
 30
0.0
 11
10064.14505865674
 21
7790.036403290817
 31
0.0
  0
LINE
  5
19DE6
330
747D
100
AcDbEntity
  8
細線
 48
50.0
100
AcDbLine
 10
10058.84505183162
 20
7787.836388399329
 30
0.0
 11
10063.44505183162
 21
7787.836388399329
 31
0.0
  0
LINE
  5
19DE7
330
747D
100
AcDbEntity
  8
細線
 48
50.0
100
AcDbLine
 10
10058.14505183162
 20
7790.036388399329
 30
0.0
 11
10058.14505183162
 21
7788.536388399329
 31
0.0
  0
LINE
  5
19DE8
330
747D
100
AcDbEntity
  8
細線
 48
50.0
100
AcDbLine
 10
10683.74505183163
 20
7820.836388399328
 30
0.0
 11
10047.14505183162
 21
7820.836388399325
 31
0.0
  0
LINE
  5
19DE9
330
747D
100
AcDbEntity
  8
細線
 48
50.0
100
AcDbLine
 10
10709.64505183162
 20
7815.836388399332
 30
0.0
 11
10693.74505183163
 21
7815.836388399327
 31
0.0
  0
LINE
  5
19DEA
330
747D
100
AcDbEntity
  8
細線
 48
50.0
100
AcDbLine
 10
10693.74505183162
 20
7815.836388399327
 30
0.0
 11
10683.74505183163
 21
7820.836388399328
 31
0.0
  0
LINE
  5
19DEB
330
747D
100
AcDbEntity
  8
細線
100
AcDbLine
 10
10294.64505183163
 20
7790.836388399327
 30
0.0
 11
10294.64505183163
 21
7820.136388399326
 31
0.0
  0
LINE
  5
19DEC
330
747D
100
AcDbEntity
  8
細線
100
AcDbLine
 10
10294.64505183163
 20
7820.136388399326
 30
0.0
 11
10314.64505183163
 21
7820.136388399326
 31
0.0
  0
LINE
  5
19DED
330
747D
100
AcDbEntity
  8
細線
100
AcDbLine
 10
10314.64505183163
 20
7790.836388399327
 30
0.0
 11
10314.64505183163
 21
7820.136388399326
 31
0.0
  0
LINE
  5
19DEE
330
747D
100
AcDbEntity
  8
細線
100
AcDbLine
 10
10475.89505183162
 20
7790.836388399327
 30
0.0
 11
10405.89505183163
 21
7790.836388399327
 31
0.0
  0
LINE
  5
19DEF
330
747D
100
AcDbEntity
  8
細線
 48
50.0
100
AcDbLine
 10
10195.89505183162
 20
7790.836388399327
 30
0.0
 11
10064.94083140447
 21
7790.836388399327
 31
0.0
  0
LINE
  5
19DF0
330
747D
100
AcDbEntity
  8
細線
100
AcDbLine
 10
10335.89505183162
 20
7790.836388399327
 30
0.0
 11
10265.89505183163
 21
7790.836388399327
 31
0.0
  0
LINE
  5
19DF1
330
747D
100
AcDbEntity
  8
細線
 48
50.0
100
AcDbLine
 10
10052.14505183162
 20
7782.836388399328
 30
0.0
 11
10052.14505183162
 21
7790.836388399327
 31
0.0
  0
LINE
  5
19DF2
330
747D
100
AcDbEntity
  8
細線
 48
50.0
100
AcDbLine
 10
10032.14505183162
 20
7782.836388399331
 30
0.0
 11
10052.14505183162
 21
7782.836388399328
 31
0.0
  0
LINE
  5
19DF3
330
747D
100
AcDbEntity
  8
細線
 48
50.0
100
AcDbLine
 10
10047.14505183162
 20
7820.836388399328
 30
0.0
 11
10047.14505183162
 21
7815.836388399327
 31
0.0
  0
LINE
  5
19DF4
330
747D
100
AcDbEntity
  8
細線
 48
50.0
100
AcDbLine
 10
10032.14505183162
 20
7820.836388399325
 30
0.0
 11
10047.14505183162
 21
7820.836388399328
 31
0.0
  0
LINE
  5
19DF5
330
747D
100
AcDbEntity
  8
細線
 48
50.0
100
AcDbLine
 10
10032.14505183162
 20
7782.836388399331
 30
0.0
 11
10032.14505183162
 21
7820.836388399325
 31
0.0
  0
LINE
  5
19DF6
330
747D
100
AcDbEntity
  8
細線
100
AcDbLine
 10
10700.14505183162
 20
7790.836388399327
 30
0.0
 11
10545.89505183162
 21
7790.836388399327
 31
0.0
  0
LINE
  5
19DF7
330
747D
100
AcDbEntity
  8
細線
 48
50.0
100
AcDbLine
 10
10709.64505183162
 20
7815.836388399332
 30
0.0
 11
10709.64505183162
 21
7790.836388399327
 31
0.0
  0
DIMENSION
  5
1A035
330
747D
100
AcDbEntity
  8
寸法
100
AcDbDimension
  2
*D32
 10
7842.533806204933
 20
7719.836388399295
 30
0.0
 11
7842.533806204932
 21
7579.351107025058
 31
0.0
 70
   160
 71
     5
 42
75.0
  3
INABA_S40
100
AcDbAlignedDimension
 13
8137.14505183165
 23
7794.836388399295
 33
0.0
 14
8585.145051831625
 24
7719.836388399295
 34
0.0
 50
90.0
100
AcDbRotatedDimension
1001
ACAD
1000
DSTYLE
1002
{
1070
    41
1040
0.5
1070
    44
1040
1.0
1070
   147
1040
0.8
1070
   271
1070
     2
1070
   272
1070
     2
1070
   289
1070
     3
1070
   340
1005
F706
1070
   343
1005
18E1E
1070
   344
1005
18E1E
1002
}
  0
DIMENSION
  5
1A036
330
747D
100
AcDbEntity
  8
寸法
 48
50.0
100
AcDbDimension
  2
*D33
 10
10739.14505183162
 20
6797.70667297156
 30
0.0
 11
9684.27780857894
 21
6797.70667297156
 31
0.0
 70
   160
 71
     5
 42
2154.0
  3
INABA_S40G
100
AcDbAlignedDimension
 13
8585.145051831627
 23
7717.836388399328
 33
0.0
 14
10739.14505183162
 24
7717.836388399328
 34
0.0
100
AcDbRotatedDimension
1001
ACAD
1000
DSTYLE
1002
{
1070
   341
1005
0
1002
}
  0
DIMENSION
  5
1A139
330
747D
100
AcDbEntity
  8
寸法
100
AcDbDimension
  2
*D34
 10
11187.14505183163
 20
6510.731522844999
 30
0.0
 11
9681.860882205583
 21
6510.731522844999
 31
0.0
 70
   160
 71
     5
 42
3049.999999999982
  3
INABA_S40G
100
AcDbAlignedDimension
 13
8137.14505183165
 23
7794.836388399295
 33
0.0
 14
11187.14505183163
 24
7794.836388399459
 34
0.0
100
AcDbRotatedDimension
1001
ACAD
1000
DSTYLE
1002
{
1002
}
  0
LINE
  5
1A144
330
747D
100
AcDbEntity
  8
部品1
100
AcDbLine
 10
10043.88038494586
 20
6180.815743809079
 30
0.0
 11
9280.409718717431
 21
6180.815743809079
 31
0.0
  0
LINE
  5
1A145
330
747D
100
AcDbEntity
  8
部品1
100
AcDbLine
 10
10043.88038494586
 20
5940.923422263546
 30
0.0
 11
10043.88038494586
 21
6180.815743809079
 31
0.0
  0
LINE
  5
1A146
330
747D
100
AcDbEntity
  8
部品1
100
AcDbLine
 10
9280.409718717431
 20
5940.923422263546
 30
0.0
 11
10043.88038494586
 21
5940.923422263546
 31
0.0
  0
LINE
  5
1A147
330
747D
100
AcDbEntity
  8
部品1
100
AcDbLine
 10
9280.409718717431
 20
6180.815743809079
 30
0.0
 11
9280.409718717431
 21
5940.923422263546
 31
0.0
  0
TEXT
  5
1A148
330
747D
100
AcDbEntity
  8
部品1
100
AcDbText
 10
9370.329328546468
 20
5987.922214590555
 30
0.0
 40
135.0
  1
平面図
  7
STYLE2
100
AcDbText
  0
LWPOLYLINE
  5
1A362
330
747D
100
AcDbEntity
  8
部品1
 48
50.0
100
AcDbPolyline
 90
        4
 70
     1
 43
0.0
 10
8684.195051831659
 20
3382.871024879351
 10
8687.09505183166
 20
3382.871024879351
 10
8687.09505183166
 20
3392.371024879351
 10
8684.195051831659
 20
3392.371024879351
  0
CIRCLE
  5
1A363
330
747D
100
AcDbEntity
  8
部品1
 48
50.0
100
AcDbCircle
 10
8685.645051831659
 20
3387.621024879351
 30
0.0
 40
9.0
  0
ARC
  5
1A364
330
747D
100
AcDbEntity
  8
細線
 48
50.0
100
AcDbCircle
 10
8685.645051831659
 20
3387.621024879351
 30
0.0
 40
4.0
100
AcDbArc
 50
111.2538091853132
 51
248.7461908146868
  0
ARC
  5
1A365
330
747D
100
AcDbEntity
  8
細線
 48
50.0
100
AcDbCircle
 10
8685.645051831659
 20
3387.621024879351
 30
0.0
 40
17.5
100
AcDbArc
 50
306.4837370612677
 51
233.5162629387323
  0
LINE
  5
1A366
330
747D
100
AcDbEntity
  8
細線
 48
50.0
100
AcDbLine
 10
8695.645051831656
 20
3363.762064298468
 30
0.0
 11
8695.645051831659
 21
3372.746550098709
 31
0.0
  0
LINE
  5
1A367
330
747D
100
AcDbEntity
  8
細線
 48
50.0
100
AcDbLine
 10
8675.64505183166
 20
3363.76206429847
 30
0.0
 11
8675.64505183166
 21
3372.746550098706
 31
0.0
  0
ARC
  5
1A368
330
747D
100
AcDbEntity
  8
細線
 48
50.0
100
AcDbCircle
 10
8685.645051831659
 20
3387.621024879351
 30
0.0
 40
26.5
100
AcDbArc
 50
249.3326835063939
 51
290.6673164933835
  0
ARC
  5
1A369
330
747D
100
AcDbEntity
  8
細線
 48
50.0
100
AcDbCircle
 10
8694.645051831653
 20
3363.762064298468
 30
0.0
 40
1.0
100
AcDbArc
 50
290.6673164936062
 51
359.9999999998958
  0
ARC
  5
1A36A
330
747D
100
AcDbEntity
  8
細線
 48
50.0
100
AcDbCircle
 10
8676.645051831661
 20
3363.76206429847
 30
0.0
 40
1.0
100
AcDbArc
 50
180.0
 51
249.3326835066164
  0
ARC
  5
1A36B
330
747D
100
AcDbEntity
  8
細線
 48
50.0
100
AcDbCircle
 10
8674.645051831658
 20
3372.746550098706
 30
0.0
 40
1.0
100
AcDbArc
 50
0.0
 51
53.51626293873231
  0
ARC
  5
1A36C
330
747D
100
AcDbEntity
  8
細線
 48
50.0
100
AcDbCircle
 10
8696.645051831664
 20
3372.746550098709
 30
0.0
 40
1.0
100
AcDbArc
 50
126.4837370615127
 51
180.0
  0
ARC
  5
1A36D
330
747D
100
AcDbEntity
  8
細線
 48
50.0
100
AcDbCircle
 10
8685.645051831659
 20
3387.621024879351
 30
0.0
 40
21.5
100
AcDbArc
 50
255.8014401250294
 51
284.1985598749706
  0
ARC
  5
1A36E
330
747D
100
AcDbEntity
  8
細線
 48
50.0
100
AcDbCircle
 10
8685.645051831659
 20
3387.621024879351
 30
0.0
 40
16.5
100
AcDbArc
 50
251.9694646069326
 51
288.0305353930674
  0
LINE
  5
1A36F
330
747D
100
AcDbEntity
  8
細線
 48
50.0
100
AcDbLine
 10
8691.145051831659
 20
3367.068652753544
 30
0.0
 11
8691.145051831659
 21
3371.64604444088
 31
0.0
  0
LINE
  5
1A370
330
747D
100
AcDbEntity
  8
細線
 48
50.0
100
AcDbLine
 10
8680.14505183166
 20
3367.068652753544
 30
0.0
 11
8680.14505183166
 21
3371.646044440879
 31
0.0
  0
ARC
  5
1A371
330
747D
100
AcDbEntity
  8
細線
 48
50.0
100
AcDbCircle
 10
8680.445051831663
 20
3371.646044440879
 30
0.0
 40
0.3
100
AcDbArc
 50
71.96946460693259
 51
180.0
  0
ARC
  5
1A372
330
747D
100
AcDbEntity
  8
細線
 48
50.0
100
AcDbCircle
 10
8690.84505183166
 20
3371.64604444088
 30
0.0
 40
0.3
100
AcDbArc
 50
0.0
 51
108.0305353930674
  0
ARC
  5
1A373
330
747D
100
AcDbEntity
  8
細線
 48
50.0
100
AcDbCircle
 10
8690.845051831656
 20
3367.068652753544
 30
0.0
 40
0.3
100
AcDbArc
 50
284.1985598747622
 51
0.0000000001042204
  0
ARC
  5
1A374
330
747D
100
AcDbEntity
  8
細線
 48
50.0
100
AcDbCircle
 10
8680.445051831663
 20
3367.068652753544
 30
0.0
 40
0.3
100
AcDbArc
 50
180.0
 51
255.8014401248081
  0
CIRCLE
  5
1A375
330
747D
100
AcDbEntity
  8
細線
 48
50.0
100
AcDbCircle
 10
8685.645051831659
 20
3387.621024879351
 30
0.0
 40
12.0
  0
ARC
  5
1A376
330
747D
100
AcDbEntity
  8
部品1
 48
50.0
100
AcDbCircle
 10
8685.645051831659
 20
3437.621024879351
 30
0.0
 40
8.5
100
AcDbArc
 50
114.315739171091
 51
245.684260828909
  0
CIRCLE
  5
1A377
330
747D
100
AcDbEntity
  8
細線
 48
50.0
100
AcDbCircle
 10
8685.645051831659
 20
3437.621024879351
 30
0.0
 40
4.5
  0
LWPOLYLINE
  5
1A378
330
747D
100
AcDbEntity
  8
部品1
 48
50.0
100
AcDbPolyline
 90
        2
 70
     0
 43
0.0
 10
8682.145051831659
 20
3456.295874276333
 10
8682.145051831659
 20
3445.366991571765
  0
CIRCLE
  5
1A379
330
747D
100
AcDbEntity
  8
部品1
 48
50.0
100
AcDbCircle
 10
8685.645051831659
 20
3437.621024879351
 30
0.0
 40
19.0
  0
LWPOLYLINE
  5
1A37A
330
747D
100
AcDbEntity
  8
部品1
 48
50.0
100
AcDbPolyline
 90
        2
 70
     0
 43
0.0
 10
8682.145051831659
 20
3429.875058186936
 10
8682.145051831659
 20
3418.946175482368
  0
LWPOLYLINE
  5
1A37B
330
747D
100
AcDbEntity
  8
部品1
 48
50.0
100
AcDbPolyline
 90
        2
 70
     0
 43
0.0
 10
8689.14505183166
 20
3445.366991571765
 10
8689.14505183166
 20
3456.295874276333
  0
ARC
  5
1A37C
330
747D
100
AcDbEntity
  8
部品1
 48
50.0
100
AcDbCircle
 10
8685.645051831659
 20
3437.621024879351
 30
0.0
 40
8.5
100
AcDbArc
 50
294.315739171091
 51
65.68426082890896
  0
LWPOLYLINE
  5
1A37D
330
747D
100
AcDbEntity
  8
部品1
 48
50.0
100
AcDbPolyline
 90
        2
 70
     0
 43
0.0
 10
8689.14505183166
 20
3418.946175482368
 10
8689.14505183166
 20
3429.875058186936
  0
ARC
  5
1A37E
330
747D
100
AcDbEntity
  8
細線
 48
50.0
100
AcDbCircle
 10
8685.645051831659
 20
3437.621024879351
 30
0.0
 40
16.5
100
AcDbArc
 50
332.0012352654438
 51
27.99876473455621
  0
ARC
  5
1A37F
330
747D
100
AcDbEntity
  8
細線
 48
50.0
100
AcDbCircle
 10
8685.645051831659
 20
3437.621024879351
 30
0.0
 40
14.0
100
AcDbArc
 50
326.4074436112986
 51
33.59255638870134
  0
LINE
  5
1A380
330
747D
100
AcDbEntity
  8
細線
 48
50.0
100
AcDbLine
 10
8671.076249547329
 20
3445.366991571765
 30
0.0
 11
8673.983148041971
 21
3445.366991571765
 31
0.0
  0
LINE
  5
1A381
330
747D
100
AcDbEntity
  8
細線
 48
50.0
100
AcDbLine
 10
8671.076249547329
 20
3429.875058186936
 30
0.0
 11
8673.983148041971
 21
3429.875058186936
 31
0.0
  0
LINE
  5
1A382
330
747D
100
AcDbEntity
  8
細線
 48
50.0
100
AcDbLine
 10
8697.306955621348
 20
3445.366991571765
 30
0.0
 11
8700.213854115995
 21
3445.366991571765
 31
0.0
  0
LINE
  5
1A383
330
747D
100
AcDbEntity
  8
細線
 48
50.0
100
AcDbLine
 10
8697.306955621348
 20
3429.875058186936
 30
0.0
 11
8700.213854115995
 21
3429.875058186936
 31
0.0
  0
ARC
  5
1A384
330
747D
100
AcDbEntity
  8
細線
 48
50.0
100
AcDbCircle
 10
8685.645051831659
 20
3437.621024879351
 30
0.0
 40
14.0
100
AcDbArc
 50
146.4074436112986
 51
213.5925563887013
  0
ARC
  5
1A385
330
747D
100
AcDbEntity
  8
細線
 48
50.0
100
AcDbCircle
 10
8685.645051831659
 20
3437.621024879351
 30
0.0
 40
16.5
100
AcDbArc
 50
152.0012352654438
 51
207.9987647345562
  0
ARC
  5
1A386
330
747D
100
AcDbEntity
  8
部品1
 48
50.0
100
AcDbCircle
 10
8659.145051831659
 20
3463.121024879351
 30
0.0
 40
5.0
100
AcDbArc
 50
90.0
 51
180.0
  0
ARC
  5
1A387
330
747D
100
AcDbEntity
  8
部品1
 48
50.0
100
AcDbCircle
 10
8659.145051831659
 20
3352.121024879351
 30
0.0
 40
5.0
100
AcDbArc
 50
180.0
 51
270.0
  0
ARC
  5
1A388
330
747D
100
AcDbEntity
  8
部品1
 48
50.0
100
AcDbCircle
 10
8712.14505183166
 20
3352.121024879351
 30
0.0
 40
5.0
100
AcDbArc
 50
270.0
 51
0.0
  0
ARC
  5
1A389
330
747D
100
AcDbEntity
  8
部品1
 48
50.0
100
AcDbCircle
 10
8712.14505183166
 20
3463.121024879351
 30
0.0
 40
5.0
100
AcDbArc
 50
0.0
 51
90.0
  0
LINE
  5
1A38B
330
747D
100
AcDbEntity
  8
部品1
 48
50.0
100
AcDbLine
 10
8654.14505183166
 20
3352.121024879351
 30
0.0
 11
8654.14505183166
 21
3463.121024879351
 31
0.0
  0
LINE
  5
1A38C
330
747D
100
AcDbEntity
  8
部品1
 48
50.0
100
AcDbLine
 10
8712.14505183166
 20
3347.121024879351
 30
0.0
 11
8659.145051831659
 21
3347.121024879351
 31
0.0
  0
LINE
  5
1A38D
330
747D
100
AcDbEntity
  8
部品1
 48
50.0
100
AcDbLine
 10
8717.145051831661
 20
3463.121024879351
 30
0.0
 11
8717.145051831661
 21
3352.121024879351
 31
0.0
  0
ENDSEC
  0
SECTION
  2
OBJECTS
  0
DICTIONARY
  5
7471
330
0
100
AcDbDictionary
281
     1
  3
ACAD_COLOR
350
18E13
  3
ACAD_GROUP
350
7472
  3
ACAD_LAYOUT
350
18E14
  3
ACAD_MATERIAL
350
18E12
  3
ACAD_MLINESTYLE
350
7473
  3
ACAD_PLOTSETTINGS
350
18E15
  3
ACAD_PLOTSTYLENAME
350
18E10
  3
ACDBHEADERROUNDTRIPXREC
350
1A39C
  3
AcDbVariableDictionary
350
1A398
  3
CONTENTDICTIONARY
350
E71C
  3
DRAWINGVARIABLESDICT
350
F3B9
  0
DICTIONARY
  5
18FBA
330
7467
100
AcDbDictionary
280
     1
281
     1
  3
ACAD_LAYERSTATES
360
18FBB
  0
DICTIONARY
  5
18E13
102
{ACAD_REACTORS
330
7471
102
}
330
7471
100
AcDbDictionary
281
     1
  0
DICTIONARY
  5
7472
102
{ACAD_REACTORS
330
7471
102
}
330
7471
100
AcDbDictionary
281
     1
  0
DICTIONARY
  5
18E14
102
{ACAD_REACTORS
330
7471
102
}
330
7471
100
AcDbDictionary
281
     1
  3
Model
350
18E16
  3
レイアウト1
350
18E17
  0
DICTIONARY
  5
18E12
102
{ACAD_REACTORS
330
7471
102
}
330
7471
100
AcDbDictionary
281
     1
  0
DICTIONARY
  5
7473
102
{ACAD_REACTORS
330
7471
102
}
330
7471
100
AcDbDictionary
281
     1
  3
STANDARD
350
7480
  0
DICTIONARY
  5
18E15
102
{ACAD_REACTORS
330
7471
102
}
330
7471
100
AcDbDictionary
281
     1
  0
ACDBDICTIONARYWDFLT
  5
18E10
102
{ACAD_REACTORS
330
7471
102
}
330
7471
100
AcDbDictionary
281
     1
  3
Normal
350
18E11
100
AcDbDictionaryWithDefault
340
18E11
  0
DICTIONARY
  5
1A39C
102
{ACAD_REACTORS
330
7471
102
}
330
7471
100
AcDbDictionary
281
     1
  3
COLORDICT
350
1A39E
  3
MATERIALDICT
350
1A39D
  0
DICTIONARY
  5
1A398
102
{ACAD_REACTORS
330
7471
102
}
330
7471
100
AcDbDictionary
281
     1
  3
DIMASSOC
350
1A399
  3
PROJECTNAME
350
1A39A
  0
DICTIONARY
  5
E71C
102
{ACAD_REACTORS
330
7471
102
}
330
7471
100
AcDbDictionary
281
     1
  0
DICTIONARY
  5
F3B9
102
{ACAD_REACTORS
330
7471
102
}
330
7471
100
AcDbDictionary
281
     1
1001
DRAWINGVARIABLESXDATA
1000
POLARMODE
1000
1
  0
DICTIONARY
  5
18FBB
102
{ACAD_REACTORS
330
18FBA
102
}
330
18FBA
100
AcDbDictionary
281
     1
  0
LAYOUT
  5
18E16
102
{ACAD_XDICTIONARY
360
1A39F
102
}
102
{ACAD_REACTORS
330
18E14
102
}
330
18E14
100
AcDbPlotSettings
  1

  2
Microsoft Office Document Image Writer
  4

  6

 40
0.0
 41
0.0
 42
0.0
 43
0.0
 44
0.0
 45
0.0
 46
0.0
 47
0.0
 48
0.0
 49
0.0
140
0.0
141
0.0
142
1.0
143
1.0
 70
  1712
 72
     0
 73
     0
 74
     0
  7

 75
     0
147
1.0
148
0.0
149
0.0
100
AcDbLayout
  1
Model
 70
     1
 71
     0
 10
0.0
 20
0.0
 11
12.0
 21
9.0
 12
0.0
 22
0.0
 32
0.0
 14
0.0
 24
0.0
 34
0.0
 15
0.0
 25
0.0
 35
0.0
146
0.0
 13
0.0
 23
0.0
 33
0.0
 16
1.0
 26
0.0
 36
0.0
 17
0.0
 27
1.0
 37
0.0
 76
     0
330
747D
  0
LAYOUT
  5
18E17
102
{ACAD_XDICTIONARY
360
1A3A1
102
}
102
{ACAD_REACTORS
330
18E14
102
}
330
18E14
100
AcDbPlotSettings
  1

  2
Microsoft Office Document Image Writer
  4

  6

 40
0.0
 41
0.0
 42
0.0
 43
0.0
 44
0.0
 45
0.0
 46
0.0
 47
0.0
 48
0.0
 49
0.0
140
0.0
141
0.0
142
1.0
143
1.0
 70
   688
 72
     0
 73
     0
 74
     5
  7

 75
    16
147
1.0
148
0.0
149
0.0
100
AcDbLayout
  1
レイアウト1
 70
     0
 71
     1
 10
0.0
 20
0.0
 11
420.0
 21
297.0
 12
0.0
 22
0.0
 32
0.0
 14
1.000000000000000E+20
 24
1.000000000000000E+20
 34
1.000000000000000E+20
 15
-1.000000000000000E+20
 25
-1.000000000000000E+20
 35
-1.000000000000000E+20
146
0.0
 13
0.0
 23
0.0
 33
0.0
 16
1.0
 26
0.0
 36
0.0
 17
0.0
 27
1.0
 37
0.0
 76
     0
330
747A
  0
MLINESTYLE
  5
7480
102
{ACAD_REACTORS
330
7473
102
}
330
7473
100
AcDbMlineStyle
  2
STANDARD
 70
     0
  3

 62
     0
 51
90.0
 52
90.0
 71
     2
 49
0.5
 62
   256
  6
BYLAYER
 49
-0.5
 62
   256
  6
BYLAYER
  0
ACDBPLACEHOLDER
  5
18E11
102
{ACAD_REACTORS
330
18E10
102
}
330
18E10
  0
XRECORD
  5
1A39E
102
{ACAD_REACTORS
330
1A39C
102
}
330
1A39C
100
AcDbXrecord
280
     1
340
18E13
  0
XRECORD
  5
1A39D
102
{ACAD_REACTORS
330
1A39C
102
}
330
1A39C
100
AcDbXrecord
280
     1
340
18E12
  0
DICTIONARYVAR
  5
1A399
102
{ACAD_REACTORS
330
1A398
102
}
330
1A398
100
DictionaryVariables
280
     0
  1
1
  0
DICTIONARYVAR
  5
1A39A
102
{ACAD_REACTORS
330
1A398
102
}
330
1A398
100
DictionaryVariables
280
     0
  1

  0
DICTIONARY
  5
1A39F
330
18E16
100
AcDbDictionary
280
     1
281
     1
  3
ACAD_XREC_ROUNDTRIP
360
1A3A0
  0
DICTIONARY
  5
1A3A1
330
18E17
100
AcDbDictionary
280
     1
281
     1
  3
ACAD_XREC_ROUNDTRIP
360
1A3A2
  0
XRECORD
  5
1A3A0
102
{ACAD_REACTORS
330
1A39F
102
}
330
1A39F
100
AcDbXrecord
280
     1
102
SHADEPLOT
 70
     0
102
SHADEPLOTRESLEVEL
 70
     2
102
SHADEPLOTCUSTOMDPI
 70
   300
  0
XRECORD
  5
1A3A2
102
{ACAD_REACTORS
330
1A3A1
102
}
330
1A3A1
100
AcDbXrecord
280
     1
102
SHADEPLOT
 70
     0
102
SHADEPLOTRESLEVEL
 70
     2
102
SHADEPLOTCUSTOMDPI
 70
   300
  0
ENDSEC
  0
EOF
