  0
SECTION
  2
HEADER
  9
$ACADVER
  1
AC1015
  9
$ACADMAINTVER
 70
    20
  9
$DWGCODEPAGE
  3
ANSI_932
  9
$INSBASE
 10
0.0
 20
0.0
 30
0.0
  9
$EXTMIN
 10
139.9999999999995
 20
-0.0000000000000909
 30
0.0
  9
$EXTMAX
 10
16307.2
 20
11409.6
 30
0.0
  9
$LIMMIN
 10
-25.79074261211281
 20
-125.8223078213959
  9
$LIMMAX
 10
16471.10331197129
 20
11496.44801950658
  9
$ORTHOMODE
 70
     0
  9
$REGENMODE
 70
     1
  9
$FILLMODE
 70
     1
  9
$QTEXTMODE
 70
     0
  9
$MIRRTEXT
 70
     1
  9
$LTSCALE
 40
20.0
  9
$ATTMODE
 70
     1
  9
$TEXTSIZE
 40
4.0
  9
$TRACEWID
 40
1.0
  9
$TEXTSTYLE
  7
STYLE1
  9
$CLAYER
  8
寸法
  9
$CELTYPE
  6
BYLAYER
  9
$CECOLOR
 62
   256
  9
$CELTSCALE
 40
50.0
  9
$DISPSILH
 70
     0
  9
$DIMSCALE
 40
40.0
  9
$DIMASZ
 40
2.5
  9
$DIMEXO
 40
0.5
  9
$DIMDLI
 40
7.0
  9
$DIMRND
 40
0.0
  9
$DIMDLE
 40
0.0
  9
$DIMEXE
 40
1.5
  9
$DIMTP
 40
0.0
  9
$DIMTM
 40
0.0
  9
$DIMTXT
 40
3.0
  9
$DIMCEN
 40
0.0
  9
$DIMTSZ
 40
0.0
  9
$DIMTOL
 70
     0
  9
$DIMLIM
 70
     0
  9
$DIMTIH
 70
     0
  9
$DIMTOH
 70
     0
  9
$DIMSE1
 70
     0
  9
$DIMSE2
 70
     0
  9
$DIMTAD
 70
     3
  9
$DIMZIN
 70
     8
  9
$DIMBLK
  1

  9
$DIMASO
 70
     1
  9
$DIMSHO
 70
     1
  9
$DIMPOST
  1

  9
$DIMAPOST
  1

  9
$DIMALT
 70
     0
  9
$DIMALTD
 70
     2
  9
$DIMALTF
 40
0.0394
  9
$DIMLFAC
 40
1.0
  9
$DIMTOFL
 70
     1
  9
$DIMTVP
 40
0.0
  9
$DIMTIX
 70
     1
  9
$DIMSOXD
 70
     0
  9
$DIMSAH
 70
     1
  9
$DIMBLK1
  1
DOTSMALL
  9
$DIMBLK2
  1
DOTSMALL
  9
$DIMSTYLE
  2
INABA_S40G
  9
$DIMCLRD
 70
     0
  9
$DIMCLRE
 70
     0
  9
$DIMCLRT
 70
     7
  9
$DIMTFAC
 40
1.0
  9
$DIMGAP
 40
1.0
  9
$DIMJUST
 70
     0
  9
$DIMSD1
 70
     0
  9
$DIMSD2
 70
     0
  9
$DIMTOLJ
 70
     1
  9
$DIMTZIN
 70
     0
  9
$DIMALTZ
 70
     0
  9
$DIMALTTZ
 70
     0
  9
$DIMUPT
 70
     0
  9
$DIMDEC
 70
     1
  9
$DIMTDEC
 70
     4
  9
$DIMALTU
 70
     2
  9
$DIMALTTD
 70
     2
  9
$DIMTXSTY
  7
STYLE1
  9
$DIMAUNIT
 70
     0
  9
$DIMADEC
 70
     0
  9
$DIMALTRND
 40
0.0
  9
$DIMAZIN
 70
     0
  9
$DIMDSEP
 70
    46
  9
$DIMATFIT
 70
     3
  9
$DIMFRAC
 70
     0
  9
$DIMLDRBLK
  1

  9
$DIMLUNIT
 70
     2
  9
$DIMLWD
 70
    -2
  9
$DIMLWE
 70
    -2
  9
$DIMTMOVE
 70
     0
  9
$LUNITS
 70
     2
  9
$LUPREC
 70
     1
  9
$SKETCHINC
 40
1.0
  9
$FILLETRAD
 40
3.0
  9
$AUNITS
 70
     0
  9
$AUPREC
 70
     0
  9
$MENU
  1
acad
  9
$ELEVATION
 40
0.0
  9
$PELEVATION
 40
0.0
  9
$THICKNESS
 40
0.0
  9
$LIMCHECK
 70
     0
  9
$CHAMFERA
 40
0.0
  9
$CHAMFERB
 40
0.0
  9
$CHAMFERC
 40
0.0
  9
$CHAMFERD
 40
0.0
  9
$SKPOLY
 70
     0
  9
$TDCREATE
 40
2451368.612993866
  9
$TDUCREATE
 40
2451368.237993866
  9
$TDUPDATE
 40
2455575.682925706
  9
$TDUUPDATE
 40
2455575.307925706
  9
$TDINDWG
 40
0.5991687847
  9
$TDUSRTIMER
 40
0.5991687847
  9
$USRTIMER
 70
     1
  9
$ANGBASE
 50
0.0
  9
$ANGDIR
 70
     0
  9
$PDMODE
 70
     3
  9
$PDSIZE
 40
2.0
  9
$PLINEWID
 40
0.0
  9
$SPLFRAME
 70
     0
  9
$SPLINETYPE
 70
     6
  9
$SPLINESEGS
 70
     8
  9
$HANDSEED
  5
18A50
  9
$SURFTAB1
 70
     6
  9
$SURFTAB2
 70
     6
  9
$SURFTYPE
 70
     6
  9
$SURFU
 70
     6
  9
$SURFV
 70
     6
  9
$UCSBASE
  2

  9
$UCSNAME
  2

  9
$UCSORG
 10
0.0
 20
0.0
 30
0.0
  9
$UCSXDIR
 10
1.0
 20
0.0
 30
0.0
  9
$UCSYDIR
 10
0.0
 20
1.0
 30
0.0
  9
$UCSORTHOREF
  2

  9
$UCSORTHOVIEW
 70
     0
  9
$UCSORGTOP
 10
0.0
 20
0.0
 30
0.0
  9
$UCSORGBOTTOM
 10
0.0
 20
0.0
 30
0.0
  9
$UCSORGLEFT
 10
0.0
 20
0.0
 30
0.0
  9
$UCSORGRIGHT
 10
0.0
 20
0.0
 30
0.0
  9
$UCSORGFRONT
 10
0.0
 20
0.0
 30
0.0
  9
$UCSORGBACK
 10
0.0
 20
0.0
 30
0.0
  9
$PUCSBASE
  2

  9
$PUCSNAME
  2

  9
$PUCSORG
 10
0.0
 20
0.0
 30
0.0
  9
$PUCSXDIR
 10
1.0
 20
0.0
 30
0.0
  9
$PUCSYDIR
 10
0.0
 20
1.0
 30
0.0
  9
$PUCSORTHOREF
  2

  9
$PUCSORTHOVIEW
 70
     0
  9
$PUCSORGTOP
 10
0.0
 20
0.0
 30
0.0
  9
$PUCSORGBOTTOM
 10
0.0
 20
0.0
 30
0.0
  9
$PUCSORGLEFT
 10
0.0
 20
0.0
 30
0.0
  9
$PUCSORGRIGHT
 10
0.0
 20
0.0
 30
0.0
  9
$PUCSORGFRONT
 10
0.0
 20
0.0
 30
0.0
  9
$PUCSORGBACK
 10
0.0
 20
0.0
 30
0.0
  9
$USERI1
 70
     0
  9
$USERI2
 70
     0
  9
$USERI3
 70
     0
  9
$USERI4
 70
     0
  9
$USERI5
 70
     0
  9
$USERR1
 40
0.0
  9
$USERR2
 40
0.0
  9
$USERR3
 40
0.0
  9
$USERR4
 40
0.0
  9
$USERR5
 40
0.0
  9
$WORLDVIEW
 70
     1
  9
$SHADEDGE
 70
     3
  9
$SHADEDIF
 70
    70
  9
$TILEMODE
 70
     1
  9
$MAXACTVP
 70
    16
  9
$PINSBASE
 10
0.0
 20
0.0
 30
0.0
  9
$PLIMCHECK
 70
     0
  9
$PEXTMIN
 10
1.000000000000000E+20
 20
1.000000000000000E+20
 30
1.000000000000000E+20
  9
$PEXTMAX
 10
-1.000000000000000E+20
 20
-1.000000000000000E+20
 30
-1.000000000000000E+20
  9
$PLIMMIN
 10
0.0
 20
0.0
  9
$PLIMMAX
 10
420.0
 20
297.0
  9
$UNITMODE
 70
     0
  9
$VISRETAIN
 70
     0
  9
$PLINEGEN
 70
     0
  9
$PSLTSCALE
 70
     0
  9
$TREEDEPTH
 70
  3020
  9
$CMLSTYLE
  2
STANDARD
  9
$CMLJUST
 70
     0
  9
$CMLSCALE
 40
1.0
  9
$PROXYGRAPHICS
 70
     1
  9
$MEASUREMENT
 70
     1
  9
$CELWEIGHT
370
    -1
  9
$ENDCAPS
280
     0
  9
$JOINSTYLE
280
     0
  9
$LWDISPLAY
290
     0
  9
$INSUNITS
 70
     0
  9
$HYPERLINKBASE
  1

  9
$STYLESHEET
  1
inaba.ctb
  9
$XEDIT
290
     1
  9
$CEPSNTYPE
380
     0
  9
$PSTYLEMODE
290
     1
  9
$FINGERPRINTGUID
  2
{E4AF0839-5FAA-40CA-AAB3-55762394590B}
  9
$VERSIONGUID
  2
{25B660A0-2428-4EDE-9EDD-5BF85E96BB07}
  9
$EXTNAMES
290
     1
  9
$PSVPSCALE
 40
0.0
  9
$OLESTARTUP
290
     0
  0
ENDSEC
  0
SECTION
  2
CLASSES
  0
CLASS
  1
ACDBDICTIONARYWDFLT
  2
AcDbDictionaryWithDefault
  3
ObjectDBX Classes
 90
        0
280
     0
281
     0
  0
CLASS
  1
DICTIONARYVAR
  2
AcDbDictionaryVar
  3
ObjectDBX Classes
 90
        0
280
     0
281
     0
  0
CLASS
  1
ACDBPLACEHOLDER
  2
AcDbPlaceHolder
  3
ObjectDBX Classes
 90
        0
280
     0
281
     0
  0
CLASS
  1
LAYOUT
  2
AcDbLayout
  3
ObjectDBX Classes
 90
        0
280
     0
281
     0
  0
ENDSEC
  0
SECTION
  2
TABLES
  0
TABLE
  2
VPORT
  5
746D
330
0
100
AcDbSymbolTable
 70
     2
  0
VPORT
  5
18A48
330
746D
100
AcDbSymbolTableRecord
100
AcDbViewportTableRecord
  2
*Active
 70
     0
 10
0.0
 20
0.0
 11
1.0
 21
1.0
 12
8223.761025238504
 22
5704.608037261908
 13
0.0
 23
0.0
 14
10.0
 24
10.0
 15
10.0
 25
10.0
 16
0.0
 26
0.0
 36
1.0
 17
0.0
 27
0.0
 37
0.0
 40
11495.08541324274
 41
1.525925925925925
 42
50.0
 43
0.0
 44
0.0
 50
0.0
 51
0.0
 71
     0
 72
     0
 73
     1
 74
     0
 75
     0
 76
     0
 77
     0
 78
     0
281
     0
 65
     1
110
0.0
120
0.0
130
0.0
111
1.0
121
0.0
131
0.0
112
0.0
122
1.0
132
0.0
 79
     0
146
0.0
  0
ENDTAB
  0
TABLE
  2
LTYPE
  5
746A
330
0
100
AcDbSymbolTable
 70
     4
  0
LTYPE
  5
7477
330
746A
100
AcDbSymbolTableRecord
100
AcDbLinetypeTableRecord
  2
BYBLOCK
 70
     0
  3

 72
    65
 73
     0
 40
0.0
  0
LTYPE
  5
7478
330
746A
100
AcDbSymbolTableRecord
100
AcDbLinetypeTableRecord
  2
BYLAYER
 70
     0
  3

 72
    65
 73
     0
 40
0.0
  0
LTYPE
  5
7479
330
746A
100
AcDbSymbolTableRecord
100
AcDbLinetypeTableRecord
  2
CONTINUOUS
 70
     0
  3
Solid line
 72
    65
 73
     0
 40
0.0
  0
LTYPE
  5
7816
330
746A
100
AcDbSymbolTableRecord
100
AcDbLinetypeTableRecord
  2
CENTER
 70
     0
  3
____ _ ____ _ ____ _ ____ _ ____ _ ____ _ ____ 
 72
    65
 73
     4
 40
2.0
 49
1.25
 74
     0
 49
-0.25
 74
     0
 49
0.25
 74
     0
 49
-0.25
 74
     0
  0
LTYPE
  5
781A
330
746A
100
AcDbSymbolTableRecord
100
AcDbLinetypeTableRecord
  2
HIDDEN
 70
     0
  3
__ __ __ __ __ __ __ __ __ __ __ __ __ __ __ __
 72
    65
 73
     2
 40
0.375
 49
0.25
 74
     0
 49
-0.125
 74
     0
  0
LTYPE
  5
781B
330
746A
100
AcDbSymbolTableRecord
100
AcDbLinetypeTableRecord
  2
PHANTOM
 70
     0
  3
______  __  __  ______  __  __  ______  __  __ 
 72
    65
 73
     6
 40
2.5
 49
1.25
 74
     0
 49
-0.25
 74
     0
 49
0.25
 74
     0
 49
-0.25
 74
     0
 49
0.25
 74
     0
 49
-0.25
 74
     0
  0
ENDTAB
  0
TABLE
  2
LAYER
  5
7467
102
{ACAD_XDICTIONARY
360
16A7D
102
}
330
0
100
AcDbSymbolTable
 70
    12
  0
LAYER
  5
7474
330
7467
100
AcDbSymbolTableRecord
100
AcDbLayerTableRecord
  2
0
 70
     0
 62
     7
  6
CONTINUOUS
370
    -3
390
168E1
  0
LAYER
  5
DEB2
330
7467
100
AcDbSymbolTableRecord
100
AcDbLayerTableRecord
  2
センター
 70
     0
 62
     3
  6
CENTER
370
    -3
390
168E1
  0
LAYER
  5
DEB3
330
7467
100
AcDbSymbolTableRecord
100
AcDbLayerTableRecord
  2
寸法
 70
     0
 62
     4
  6
CONTINUOUS
370
    -3
390
168E1
  0
LAYER
  5
DEB4
330
7467
100
AcDbSymbolTableRecord
100
AcDbLayerTableRecord
  2
部品1
 70
     0
 62
     7
  6
CONTINUOUS
370
    -3
390
168E1
  0
LAYER
  5
DEB5
330
7467
100
AcDbSymbolTableRecord
100
AcDbLayerTableRecord
  2
補助
 70
     0
 62
    -1
  6
CONTINUOUS
370
    -3
390
168E1
  0
LAYER
  5
DEB6
330
7467
100
AcDbSymbolTableRecord
100
AcDbLayerTableRecord
  2
文字
 70
     0
 62
     7
  6
CONTINUOUS
370
    -3
390
168E1
  0
LAYER
  5
F255
330
7467
100
AcDbSymbolTableRecord
100
AcDbLayerTableRecord
  2
DEFPOINTS
 70
     0
 62
     7
  6
CONTINUOUS
290
     0
370
    -3
390
168E1
  0
LAYER
  5
10B54
330
7467
100
AcDbSymbolTableRecord
100
AcDbLayerTableRecord
  2
仕様書枠
 70
     0
 62
   230
  6
CONTINUOUS
370
    -3
390
168E1
  0
LAYER
  5
11729
330
7467
100
AcDbSymbolTableRecord
100
AcDbLayerTableRecord
  2
Ｇ．Ｌ
 70
     0
 62
    30
  6
CONTINUOUS
370
    -3
390
168E1
  0
LAYER
  5
1173F
330
7467
100
AcDbSymbolTableRecord
100
AcDbLayerTableRecord
  2
細線
 70
     0
 62
     5
  6
CONTINUOUS
370
    -3
390
168E1
  0
LAYER
  5
12CC4
330
7467
100
AcDbSymbolTableRecord
100
AcDbLayerTableRecord
  2
想像線
 70
     0
 62
     6
  6
PHANTOM
370
    -3
390
168E1
  0
LAYER
  5
142E2
330
7467
100
AcDbSymbolTableRecord
100
AcDbLayerTableRecord
  2
破線
 70
     0
 62
     2
  6
HIDDEN
370
    -3
390
168E1
  0
ENDTAB
  0
TABLE
  2
STYLE
  5
7468
330
0
100
AcDbSymbolTable
 70
     4
  0
STYLE
  5
7475
330
7468
100
AcDbSymbolTableRecord
100
AcDbTextStyleTableRecord
  2
STANDARD
 70
     0
 40
0.0
 41
1.0
 50
0.0
 71
     0
 42
4.0
  3
txt
  4
C:\AutoCAD LT\bigfont.shx
  0
STYLE
  5
F706
330
7468
100
AcDbSymbolTableRecord
100
AcDbTextStyleTableRecord
  2
STYLE1
 70
     0
 40
0.0
 41
1.0
 50
0.0
 71
     0
 42
4.0
  3
isocp.shx
  4
bigfont.shx
  0
STYLE
  5
103BF
330
7468
100
AcDbSymbolTableRecord
100
AcDbTextStyleTableRecord
  2
STYLE2
 70
     0
 40
0.0
 41
1.0
 50
0.0
 71
     0
 42
100.0
  3
MS PGothic.ttf
  4

1001
ACAD
1000
MS PGothic
1071
    32818
  0
STYLE
  5
18342
330
7468
100
AcDbSymbolTableRecord
100
AcDbTextStyleTableRecord
  2
STYLE3
 70
     0
 40
0.0
 41
1.0
 50
0.0
 71
     0
 42
100.0
  3
DFPGothic-EB.ttf
  4

1001
ACAD
1000
DFPGothic-EB
1071
    32818
  0
ENDTAB
  0
TABLE
  2
VIEW
  5
746B
330
0
100
AcDbSymbolTable
 70
     0
  0
ENDTAB
  0
TABLE
  2
UCS
  5
746C
330
0
100
AcDbSymbolTable
 70
     0
  0
ENDTAB
  0
TABLE
  2
APPID
  5
746E
330
0
100
AcDbSymbolTable
 70
     6
  0
APPID
  5
7476
330
746E
100
AcDbSymbolTableRecord
100
AcDbRegAppTableRecord
  2
ACAD
 70
     0
  0
APPID
  5
DEA9
330
746E
100
AcDbSymbolTableRecord
100
AcDbRegAppTableRecord
  2
CONTENTBLOCKICON
 70
     0
  0
APPID
  5
DEAA
330
746E
100
AcDbSymbolTableRecord
100
AcDbRegAppTableRecord
  2
CONTENTBLOCKDESCRIPTION
 70
     0
  0
APPID
  5
E71D
330
746E
100
AcDbSymbolTableRecord
100
AcDbRegAppTableRecord
  2
CONTENTTABDATA
 70
     0
  0
APPID
  5
E71E
330
746E
100
AcDbSymbolTableRecord
100
AcDbRegAppTableRecord
  2
CONTENTCURRENTTAB
 70
     0
  0
APPID
  5
F3BA
330
746E
100
AcDbSymbolTableRecord
100
AcDbRegAppTableRecord
  2
DRAWINGVARIABLESXDATA
 70
     0
  0
ENDTAB
  0
TABLE
  2
DIMSTYLE
  5
746F
330
0
100
AcDbSymbolTable
 70
     5
100
AcDbDimStyleTable
 71
     0
  0
DIMSTYLE
105
7484
330
746F
100
AcDbSymbolTableRecord
100
AcDbDimStyleTableRecord
  2
JIS
 70
     0
 41
2.5
 42
1.0
 43
7.0
 44
1.0
 73
     0
 74
     0
 77
     1
 78
     8
140
2.5
141
0.0
143
0.0394
147
0.0
172
     1
174
     1
175
     1
340
7475
  0
DIMSTYLE
105
F71F
102
{ACAD_REACTORS
330
16D86
330
16D8A
330
16D8C
330
16D9F
330
16DDE
330
16DDF
330
16DE0
330
16DE1
330
16DE5
330
16DE6
330
16DE7
330
16DE8
330
17916
330
17993
330
17994
330
17995
330
17BA1
330
17BA5
330
17BA6
330
17BA7
330
17BA8
330
17BC7
330
17BC8
330
17B59
330
17B5A
330
17B65
330
17B69
330
17B6A
330
186D8
330
187D9
102
}
330
746F
100
AcDbSymbolTableRecord
100
AcDbDimStyleTableRecord
  2
INABA_S40G
 70
     0
 40
40.0
 41
2.5
 42
0.5
 43
7.0
 44
1.5
 73
     0
 74
     0
 77
     3
 78
     8
140
3.0
141
0.0
143
0.0394
147
1.0
172
     1
173
     1
174
     1
178
     7
271
     1
340
F706
341
F770
343
F770
344
F770
  0
DIMSTYLE
105
16A7C
102
{ACAD_REACTORS
330
1844E
330
186D9
102
}
330
746F
100
AcDbSymbolTableRecord
100
AcDbDimStyleTableRecord
  2
INABA_S40
 70
     0
 40
40.0
 41
2.5
 42
0.5
 43
7.0
 44
1.5
 73
     0
 74
     0
 77
     3
 78
     8
140
3.0
141
0.0
143
0.0394
147
1.0
172
     1
173
     1
174
     1
175
     1
178
     7
340
7475
  0
DIMSTYLE
105
18343
330
746F
100
AcDbSymbolTableRecord
100
AcDbDimStyleTableRecord
  2
INABA_S50G
 70
     0
 41
125.0
 42
25.0
 43
7.0
 44
75.0
 73
     0
 74
     0
 77
     3
 78
     8
140
150.0
141
0.0
143
0.0394
147
25.0
172
     1
173
     1
174
     1
175
     1
178
     7
271
     1
340
F706
341
F770
343
F770
344
F770
  0
DIMSTYLE
105
189CE
330
746F
100
AcDbSymbolTableRecord
100
AcDbDimStyleTableRecord
  2
INABA_S20G
 70
     0
 40
20.0
 41
2.5
 42
0.5
 43
7.0
 44
1.5
 73
     0
 74
     0
 77
     3
 78
     8
140
3.0
141
0.0
143
0.0394
147
1.0
172
     1
173
     1
174
     1
178
     7
271
     1
340
F706
341
F770
343
F770
344
F770
  0
ENDTAB
  0
TABLE
  2
BLOCK_RECORD
  5
7466
330
0
100
AcDbSymbolTable
 70
    34
  0
BLOCK_RECORD
  5
747D
330
7466
100
AcDbSymbolTableRecord
100
AcDbBlockTableRecord
  2
*MODEL_SPACE
340
168E6
  0
BLOCK_RECORD
  5
747A
330
7466
100
AcDbSymbolTableRecord
100
AcDbBlockTableRecord
  2
*PAPER_SPACE
340
168E7
  0
BLOCK_RECORD
  5
F770
330
7466
100
AcDbSymbolTableRecord
100
AcDbBlockTableRecord
  2
_DOTSMALL
340
0
102
{BLKREFS
331
181E0
331
181E1
331
181E9
331
181EA
331
18266
331
18267
331
18271
331
18272
331
1827A
331
1827B
331
18285
331
18286
331
18299
331
1829A
331
182A2
331
182A3
331
182AC
331
182AD
331
182B7
331
182B8
331
182C0
331
182C1
331
182C9
331
182CA
331
182D4
331
182D5
331
182DD
331
182DE
331
182E7
331
182E8
331
182F1
331
182F2
331
182FA
331
182FB
331
18303
331
18304
331
18940
331
18941
331
18954
331
18955
331
18968
331
18969
331
18971
331
18972
331
1897C
331
1897D
331
18985
331
18986
331
1898E
331
1898F
331
18997
331
18998
331
189A0
331
189A1
331
189AB
331
189AC
331
189B4
331
189B5
331
189BF
331
189C0
102
}
  0
BLOCK_RECORD
  5
168EE
330
7466
100
AcDbSymbolTableRecord
100
AcDbBlockTableRecord
  2
_DOT
340
0
102
{BLKREFS
331
1894B
331
1894C
331
1895D
331
1895E
102
}
  0
BLOCK_RECORD
  5
1709D
330
7466
100
AcDbSymbolTableRecord
100
AcDbBlockTableRecord
  2
*D2
340
0
  0
BLOCK_RECORD
  5
170A9
330
7466
100
AcDbSymbolTableRecord
100
AcDbBlockTableRecord
  2
*D3
340
0
  0
BLOCK_RECORD
  5
170B5
330
7466
100
AcDbSymbolTableRecord
100
AcDbBlockTableRecord
  2
*D4
340
0
  0
BLOCK_RECORD
  5
170C2
330
7466
100
AcDbSymbolTableRecord
100
AcDbBlockTableRecord
  2
*D5
340
0
  0
BLOCK_RECORD
  5
170CF
330
7466
100
AcDbSymbolTableRecord
100
AcDbBlockTableRecord
  2
*D6
340
0
  0
BLOCK_RECORD
  5
170DB
330
7466
100
AcDbSymbolTableRecord
100
AcDbBlockTableRecord
  2
*D7
340
0
  0
BLOCK_RECORD
  5
170E9
330
7466
100
AcDbSymbolTableRecord
100
AcDbBlockTableRecord
  2
*D8
340
0
  0
BLOCK_RECORD
  5
170F5
330
7466
100
AcDbSymbolTableRecord
100
AcDbBlockTableRecord
  2
*D9
340
0
  0
BLOCK_RECORD
  5
17101
330
7466
100
AcDbSymbolTableRecord
100
AcDbBlockTableRecord
  2
*D10
340
0
  0
BLOCK_RECORD
  5
1710F
330
7466
100
AcDbSymbolTableRecord
100
AcDbBlockTableRecord
  2
*D11
340
0
  0
BLOCK_RECORD
  5
1711C
330
7466
100
AcDbSymbolTableRecord
100
AcDbBlockTableRecord
  2
*D12
340
0
  0
BLOCK_RECORD
  5
17128
330
7466
100
AcDbSymbolTableRecord
100
AcDbBlockTableRecord
  2
*D13
340
0
  0
BLOCK_RECORD
  5
17BF4
330
7466
100
AcDbSymbolTableRecord
100
AcDbBlockTableRecord
  2
*D14
340
0
  0
BLOCK_RECORD
  5
17C02
330
7466
100
AcDbSymbolTableRecord
100
AcDbBlockTableRecord
  2
*D15
340
0
  0
BLOCK_RECORD
  5
17C0E
330
7466
100
AcDbSymbolTableRecord
100
AcDbBlockTableRecord
  2
*D16
340
0
  0
BLOCK_RECORD
  5
17C1C
330
7466
100
AcDbSymbolTableRecord
100
AcDbBlockTableRecord
  2
*D17
340
0
  0
BLOCK_RECORD
  5
17C28
330
7466
100
AcDbSymbolTableRecord
100
AcDbBlockTableRecord
  2
*D18
340
0
  0
BLOCK_RECORD
  5
17C40
330
7466
100
AcDbSymbolTableRecord
100
AcDbBlockTableRecord
  2
*D19
340
0
  0
BLOCK_RECORD
  5
17C4C
330
7466
100
AcDbSymbolTableRecord
100
AcDbBlockTableRecord
  2
*D20
340
0
  0
BLOCK_RECORD
  5
17C5A
330
7466
100
AcDbSymbolTableRecord
100
AcDbBlockTableRecord
  2
*D21
340
0
  0
BLOCK_RECORD
  5
17C66
330
7466
100
AcDbSymbolTableRecord
100
AcDbBlockTableRecord
  2
*D22
340
0
  0
BLOCK_RECORD
  5
17C74
330
7466
100
AcDbSymbolTableRecord
100
AcDbBlockTableRecord
  2
*D23
340
0
  0
BLOCK_RECORD
  5
17C80
330
7466
100
AcDbSymbolTableRecord
100
AcDbBlockTableRecord
  2
*D24
340
0
  0
BLOCK_RECORD
  5
17D2F
330
7466
100
AcDbSymbolTableRecord
100
AcDbBlockTableRecord
  2
*D25
340
0
  0
BLOCK_RECORD
  5
17D3D
330
7466
100
AcDbSymbolTableRecord
100
AcDbBlockTableRecord
  2
*D26
340
0
  0
BLOCK_RECORD
  5
17D49
330
7466
100
AcDbSymbolTableRecord
100
AcDbBlockTableRecord
  2
*D27
340
0
  0
BLOCK_RECORD
  5
17D57
330
7466
100
AcDbSymbolTableRecord
100
AcDbBlockTableRecord
  2
*D28
340
0
  0
BLOCK_RECORD
  5
17D63
330
7466
100
AcDbSymbolTableRecord
100
AcDbBlockTableRecord
  2
*D29
340
0
  0
BLOCK_RECORD
  5
184B9
330
7466
100
AcDbSymbolTableRecord
100
AcDbBlockTableRecord
  2
*D30
340
0
  0
BLOCK_RECORD
  5
187E5
330
7466
100
AcDbSymbolTableRecord
100
AcDbBlockTableRecord
  2
*D31
340
0
  0
BLOCK_RECORD
  5
187F1
330
7466
100
AcDbSymbolTableRecord
100
AcDbBlockTableRecord
  2
*D32
340
0
  0
BLOCK_RECORD
  5
18857
330
7466
100
AcDbSymbolTableRecord
100
AcDbBlockTableRecord
  2
*D33
340
0
  0
ENDTAB
  0
ENDSEC
  0
SECTION
  2
BLOCKS
  0
BLOCK
  5
7489
330
747D
100
AcDbEntity
  8
0
100
AcDbBlockBegin
  2
*MODEL_SPACE
 70
     0
 10
0.0
 20
0.0
 30
0.0
  3
*MODEL_SPACE
  1

  0
ENDBLK
  5
748A
330
747D
100
AcDbEntity
  8
0
100
AcDbBlockEnd
  0
BLOCK
  5
7487
330
747A
100
AcDbEntity
 67
     1
  8
0
100
AcDbBlockBegin
  2
*PAPER_SPACE
 70
     0
 10
0.0
 20
0.0
 30
0.0
  3
*PAPER_SPACE
  1

  0
ENDBLK
  5
7488
330
747A
100
AcDbEntity
 67
     1
  8
0
100
AcDbBlockEnd
  0
BLOCK
  5
F771
330
F770
100
AcDbEntity
  8
0
 48
50.0
100
AcDbBlockBegin
  2
_DOTSMALL
 70
     0
 10
0.0
 20
0.0
 30
0.0
  3
_DOTSMALL
  1

  0
LWPOLYLINE
  5
F772
330
F770
100
AcDbEntity
  8
0
  6
ByBlock
 62
     0
 48
50.0
100
AcDbPolyline
 90
        2
 70
     1
 43
0.5
 10
-0.0625
 20
0.0
 42
1.0
 10
0.0625
 20
0.0
 42
1.0
  0
ENDBLK
  5
F776
330
F770
100
AcDbEntity
  8
0
 48
50.0
100
AcDbBlockEnd
  0
BLOCK
  5
168EF
330
168EE
100
AcDbEntity
  8
0
 48
50.0
100
AcDbBlockBegin
  2
_DOT
 70
     0
 10
0.0
 20
0.0
 30
0.0
  3
_DOT
  1

  0
LWPOLYLINE
  5
168F0
330
168EE
100
AcDbEntity
  8
0
  6
ByBlock
 62
     0
 48
50.0
100
AcDbPolyline
 90
        2
 70
     1
 43
0.5
 10
-0.25
 20
0.0
 42
1.0
 10
0.25
 20
0.0
 42
1.0
  0
LINE
  5
168F1
330
168EE
100
AcDbEntity
  8
0
  6
ByBlock
 62
     0
 48
50.0
100
AcDbLine
 10
-0.5
 20
0.0
 30
0.0
 11
-1.0
 21
0.0
 31
0.0
  0
ENDBLK
  5
168F2
330
168EE
100
AcDbEntity
  8
0
 48
50.0
100
AcDbBlockEnd
  0
BLOCK
  5
170A7
330
1709D
100
AcDbEntity
  8
0
 48
50.0
100
AcDbBlockBegin
  2
*D2
 70
     1
 10
0.0
 20
0.0
 30
0.0
  3
*D2
  1

  0
LINE
  5
18300
330
1709D
100
AcDbEntity
  8
寸法
 62
     0
 48
50.0
370
    -2
100
AcDbLine
 10
5070.311038414097
 20
2403.926253444277
 30
0.0
 11
5070.311038414097
 21
2077.878924143902
 31
0.0
  0
LINE
  5
18301
330
1709D
100
AcDbEntity
  8
寸法
 62
     0
 48
50.0
370
    -2
100
AcDbLine
 10
4870.3110384141
 20
2403.926253444281
 30
0.0
 11
4870.3110384141
 21
2077.878924143902
 31
0.0
  0
LINE
  5
18302
330
1709D
100
AcDbEntity
  8
寸法
 62
     0
 48
50.0
370
    -2
100
AcDbLine
 10
5070.311038414097
 20
2137.878924143903
 30
0.0
 11
4870.3110384141
 21
2137.878924143903
 31
0.0
  0
INSERT
  5
18303
330
1709D
100
AcDbEntity
  8
寸法
 62
     0
 48
50.0
370
    -2
100
AcDbBlockReference
  2
_DOTSMALL
 10
5070.311038414097
 20
2137.878924143903
 30
0.0
 41
100.0
 42
100.0
 43
100.0
  0
INSERT
  5
18304
330
1709D
100
AcDbEntity
  8
寸法
 62
     0
 48
50.0
370
    -2
100
AcDbBlockReference
  2
_DOTSMALL
 10
4870.3110384141
 20
2137.878924143903
 30
0.0
 41
100.0
 42
100.0
 43
100.0
 50
180.0
  0
MTEXT
  5
18305
330
1709D
100
AcDbEntity
  8
寸法
 62
     7
 48
50.0
100
AcDbMText
 10
4970.311038414099
 20
2237.890735167525
 30
0.0
 40
120.0
 41
0.0
 71
     5
 72
     1
  1
\A1;200
  7
STYLE1
 73
     1
 44
1.0
1001
ACAD
1000
MTEXTBEGIN
1070
    73
1070
     1
1070
    44
1040
1.0
1070
    74
1070
     0
1000
MTEXTEND
  0
POINT
  5
18306
330
1709D
100
AcDbEntity
  8
DEFPOINTS
 62
     0
 48
50.0
100
AcDbPoint
 10
5070.311038414097
 20
2423.926253444277
 30
0.0
  0
POINT
  5
18307
330
1709D
100
AcDbEntity
  8
DEFPOINTS
 62
     0
 48
50.0
100
AcDbPoint
 10
4870.3110384141
 20
2423.92625344428
 30
0.0
  0
POINT
  5
18308
330
1709D
100
AcDbEntity
  8
DEFPOINTS
 62
     0
 48
50.0
100
AcDbPoint
 10
4870.3110384141
 20
2137.878924143903
 30
0.0
  0
ENDBLK
  5
170A8
330
1709D
100
AcDbEntity
  8
0
 48
50.0
100
AcDbBlockEnd
  0
BLOCK
  5
170B3
330
170A9
100
AcDbEntity
  8
0
 48
50.0
100
AcDbBlockBegin
  2
*D3
 70
     1
 10
0.0
 20
0.0
 30
0.0
  3
*D3
  1

  0
LINE
  5
182F7
330
170A9
100
AcDbEntity
  8
寸法
 62
     0
 48
50.0
370
    -2
100
AcDbLine
 10
4850.3110384141
 20
2423.92625344428
 30
0.0
 11
4660.811035167463
 21
2423.92625344428
 31
0.0
  0
LINE
  5
182F8
330
170A9
100
AcDbEntity
  8
寸法
 62
     0
 48
50.0
370
    -2
100
AcDbLine
 10
4825.311038414096
 20
2623.926253444281
 30
0.0
 11
4660.811035167463
 21
2623.926253444281
 31
0.0
  0
LINE
  5
182F9
330
170A9
100
AcDbEntity
  8
寸法
 62
     0
 48
50.0
370
    -2
100
AcDbLine
 10
4720.811035167463
 20
2423.92625344428
 30
0.0
 11
4720.811035167463
 21
2623.926253444281
 31
0.0
  0
INSERT
  5
182FA
330
170A9
100
AcDbEntity
  8
寸法
 62
     0
 48
50.0
370
    -2
100
AcDbBlockReference
  2
_DOTSMALL
 10
4720.811035167463
 20
2423.92625344428
 30
0.0
 41
100.0
 42
100.0
 43
100.0
 50
270.0
  0
INSERT
  5
182FB
330
170A9
100
AcDbEntity
  8
寸法
 62
     0
 48
50.0
370
    -2
100
AcDbBlockReference
  2
_DOTSMALL
 10
4720.811035167463
 20
2623.926253444281
 30
0.0
 41
100.0
 42
100.0
 43
100.0
 50
90.0
  0
MTEXT
  5
182FC
330
170A9
100
AcDbEntity
  8
寸法
 62
     7
 48
50.0
100
AcDbMText
 10
4620.79922414384
 20
2523.926253444281
 30
0.0
 40
120.0
 41
0.0
 71
     5
 72
     1
  1
\A1;200
  7
STYLE1
 11
0.0000000000000001
 21
1.0
 31
0.0
 73
     1
 44
1.0
1001
ACAD
1000
MTEXTBEGIN
1070
    73
1070
     1
1070
    44
1040
1.0
1070
    74
1070
     0
1000
MTEXTEND
  0
POINT
  5
182FD
330
170A9
100
AcDbEntity
  8
DEFPOINTS
 62
     0
 48
50.0
100
AcDbPoint
 10
4870.3110384141
 20
2423.92625344428
 30
0.0
  0
POINT
  5
182FE
330
170A9
100
AcDbEntity
  8
DEFPOINTS
 62
     0
 48
50.0
100
AcDbPoint
 10
4845.311038414096
 20
2623.926253444281
 30
0.0
  0
POINT
  5
182FF
330
170A9
100
AcDbEntity
  8
DEFPOINTS
 62
     0
 48
50.0
100
AcDbPoint
 10
4720.811035167463
 20
2623.926253444281
 30
0.0
  0
ENDBLK
  5
170B4
330
170A9
100
AcDbEntity
  8
0
 48
50.0
100
AcDbBlockEnd
  0
BLOCK
  5
170C0
330
170B5
100
AcDbEntity
  8
0
 48
50.0
100
AcDbBlockBegin
  2
*D4
 70
     1
 10
0.0
 20
0.0
 30
0.0
  3
*D4
  1

  0
LINE
  5
182ED
330
170B5
100
AcDbEntity
  8
寸法
 62
     0
 48
50.0
370
    -2
100
AcDbLine
 10
4882.215324705199
 20
4798.223960513942
 30
0.0
 11
4266.280885599928
 21
4815.938110788273
 31
0.0
  0
LINE
  5
182EE
330
170B5
100
AcDbEntity
  8
寸法
 62
     0
 48
50.0
370
    -2
100
AcDbLine
 10
4878.161869148573
 20
4657.282236748232
 30
0.0
 11
4262.227430043302
 21
4674.996387022562
 31
0.0
  0
LINE
  5
182EF
330
170B5
100
AcDbEntity
  8
寸法
 62
     0
 48
50.0
370
    -2
100
AcDbLine
 10
4322.202631645732
 20
4673.271512317614
 30
0.0
 11
4326.256087202358
 21
4814.213236083325
 31
0.0
  0
LINE
  5
182F0
330
170B5
100
AcDbEntity
  8
寸法
 62
     0
 48
50.0
370
    -2
100
AcDbLine
 10
4326.256087202358
 20
4814.213236083325
 30
0.0
 11
4336.605335432044
 21
5174.06444569791
 31
0.0
  0
INSERT
  5
182F1
330
170B5
100
AcDbEntity
  8
寸法
 62
     0
 48
50.0
370
    -2
100
AcDbBlockReference
  2
_DOTSMALL
 10
4322.202631645732
 20
4673.271512317614
 30
0.0
 41
100.0
 42
100.0
 43
100.0
 50
268.3526390256377
  0
INSERT
  5
182F2
330
170B5
100
AcDbEntity
  8
寸法
 62
     0
 48
50.0
370
    -2
100
AcDbBlockReference
  2
_DOTSMALL
 10
4326.256087202358
 20
4814.213236083325
 30
0.0
 41
100.0
 42
100.0
 43
100.0
 50
88.35263902563776
  0
MTEXT
  5
182F3
330
170B5
100
AcDbEntity
  8
寸法
 62
     7
 48
50.0
100
AcDbMText
 10
4232.909437567272
 20
5046.992966734222
 30
0.0
 40
120.0
 41
0.0
 71
     5
 72
     1
  1
\A1;141
  7
STYLE1
 11
0.0287479117491245
 21
0.9995866933738486
 31
0.0
 73
     1
 44
1.0
1001
ACAD
1000
MTEXTBEGIN
1070
    73
1070
     1
1070
    44
1040
1.0
1070
    74
1070
     0
1000
MTEXTEND
  0
POINT
  5
182F4
330
170B5
100
AcDbEntity
  8
DEFPOINTS
 62
     0
 48
50.0
100
AcDbPoint
 10
4902.207058572675
 20
4797.64900227896
 30
0.0
  0
POINT
  5
182F5
330
170B5
100
AcDbEntity
  8
DEFPOINTS
 62
     0
 48
50.0
100
AcDbPoint
 10
4898.15360301605
 20
4656.707278513249
 30
0.0
  0
POINT
  5
182F6
330
170B5
100
AcDbEntity
  8
DEFPOINTS
 62
     0
 48
50.0
100
AcDbPoint
 10
4322.202631645732
 20
4673.271512317614
 30
0.0
  0
ENDBLK
  5
170C1
330
170B5
100
AcDbEntity
  8
0
 48
50.0
100
AcDbBlockEnd
  0
BLOCK
  5
170CD
330
170C2
100
AcDbEntity
  8
0
 48
50.0
100
AcDbBlockBegin
  2
*D5
 70
     1
 10
0.0
 20
0.0
 30
0.0
  3
*D5
  1

  0
LINE
  5
182E3
330
170C2
100
AcDbEntity
  8
寸法
 62
     0
 48
50.0
370
    -2
100
AcDbLine
 10
6732.811038414097
 20
4765.736933055932
 30
0.0
 11
6732.811038414097
 21
5257.583707023584
 31
0.0
  0
LINE
  5
182E4
330
170C2
100
AcDbEntity
  8
寸法
 62
     0
 48
50.0
370
    -2
100
AcDbLine
 10
6812.811038414096
 20
4763.926253444281
 30
0.0
 11
6812.811038414096
 21
5257.583707023584
 31
0.0
  0
LINE
  5
182E5
330
170C2
100
AcDbEntity
  8
寸法
 62
     0
 48
50.0
370
    -2
100
AcDbLine
 10
6732.811038414097
 20
5197.583707023585
 30
0.0
 11
6812.811038414096
 21
5197.583707023585
 31
0.0
  0
LINE
  5
182E6
330
170C2
100
AcDbEntity
  8
寸法
 62
     0
 48
50.0
370
    -2
100
AcDbLine
 10
6812.811038414096
 20
5197.583707023585
 30
0.0
 11
7124.905526603075
 21
5197.583707023585
 31
0.0
  0
INSERT
  5
182E7
330
170C2
100
AcDbEntity
  8
寸法
 62
     0
 48
50.0
370
    -2
100
AcDbBlockReference
  2
_DOTSMALL
 10
6732.811038414097
 20
5197.583707023585
 30
0.0
 41
100.0
 42
100.0
 43
100.0
 50
180.0
  0
INSERT
  5
182E8
330
170C2
100
AcDbEntity
  8
寸法
 62
     0
 48
50.0
370
    -2
100
AcDbBlockReference
  2
_DOTSMALL
 10
6812.811038414096
 20
5197.583707023585
 30
0.0
 41
100.0
 42
100.0
 43
100.0
  0
MTEXT
  5
182E9
330
170C2
100
AcDbEntity
  8
寸法
 62
     7
 48
50.0
100
AcDbMText
 10
7018.858282508587
 20
5297.583707023584
 30
0.0
 40
120.0
 41
0.0
 71
     5
 72
     1
  1
\A1;80
  7
STYLE1
 73
     1
 44
1.0
1001
ACAD
1000
MTEXTBEGIN
1070
    73
1070
     1
1070
    44
1040
1.0
1070
    74
1070
     0
1000
MTEXTEND
  0
POINT
  5
182EA
330
170C2
100
AcDbEntity
  8
DEFPOINTS
 62
     0
 48
50.0
100
AcDbPoint
 10
6732.811038414097
 20
4745.736933055932
 30
0.0
  0
POINT
  5
182EB
330
170C2
100
AcDbEntity
  8
DEFPOINTS
 62
     0
 48
50.0
100
AcDbPoint
 10
6812.811038414096
 20
4743.92625344428
 30
0.0
  0
POINT
  5
182EC
330
170C2
100
AcDbEntity
  8
DEFPOINTS
 62
     0
 48
50.0
100
AcDbPoint
 10
6812.811038414096
 20
5197.583707023585
 30
0.0
  0
ENDBLK
  5
170CE
330
170C2
100
AcDbEntity
  8
0
 48
50.0
100
AcDbBlockEnd
  0
BLOCK
  5
170D9
330
170CF
100
AcDbEntity
  8
0
 48
50.0
100
AcDbBlockBegin
  2
*D6
 70
     1
 10
0.0
 20
0.0
 30
0.0
  3
*D6
  1

  0
LINE
  5
182DA
330
170CF
100
AcDbEntity
  8
寸法
 62
     0
 48
50.0
370
    -2
100
AcDbLine
 10
6812.811038414096
 20
4763.926253444281
 30
0.0
 11
6812.811038414096
 21
5474.545522402198
 31
0.0
  0
LINE
  5
182DB
330
170CF
100
AcDbEntity
  8
寸法
 62
     0
 48
50.0
370
    -2
100
AcDbLine
 10
4882.811038414097
 20
4818.926253444284
 30
0.0
 11
4882.811038414097
 21
5474.545522402198
 31
0.0
  0
LINE
  5
182DC
330
170CF
100
AcDbEntity
  8
寸法
 62
     0
 48
50.0
370
    -2
100
AcDbLine
 10
6812.811038414096
 20
5414.545522402199
 30
0.0
 11
4882.811038414097
 21
5414.545522402199
 31
0.0
  0
INSERT
  5
182DD
330
170CF
100
AcDbEntity
  8
寸法
 62
     0
 48
50.0
370
    -2
100
AcDbBlockReference
  2
_DOTSMALL
 10
6812.811038414096
 20
5414.545522402199
 30
0.0
 41
100.0
 42
100.0
 43
100.0
  0
INSERT
  5
182DE
330
170CF
100
AcDbEntity
  8
寸法
 62
     0
 48
50.0
370
    -2
100
AcDbBlockReference
  2
_DOTSMALL
 10
4882.811038414097
 20
5414.545522402199
 30
0.0
 41
100.0
 42
100.0
 43
100.0
 50
180.0
  0
MTEXT
  5
182DF
330
170CF
100
AcDbEntity
  8
寸法
 62
     7
 48
50.0
100
AcDbMText
 10
5788.616789665066
 20
5514.545522402198
 30
0.0
 40
120.0
 41
0.0
 71
     5
 72
     1
  1
\A1;1930
  7
STYLE1
 73
     1
 44
1.0
1001
ACAD
1000
MTEXTBEGIN
1070
    73
1070
     1
1070
    44
1040
1.0
1070
    74
1070
     0
1000
MTEXTEND
  0
POINT
  5
182E0
330
170CF
100
AcDbEntity
  8
DEFPOINTS
 62
     0
 48
50.0
100
AcDbPoint
 10
6812.811038414096
 20
4743.92625344428
 30
0.0
  0
POINT
  5
182E1
330
170CF
100
AcDbEntity
  8
DEFPOINTS
 62
     0
 48
50.0
100
AcDbPoint
 10
4882.811038414097
 20
4798.926253444284
 30
0.0
  0
POINT
  5
182E2
330
170CF
100
AcDbEntity
  8
DEFPOINTS
 62
     0
 48
50.0
100
AcDbPoint
 10
4882.811038414097
 20
5414.545522402199
 30
0.0
  0
ENDBLK
  5
170DA
330
170CF
100
AcDbEntity
  8
0
 48
50.0
100
AcDbBlockEnd
  0
BLOCK
  5
170E7
330
170DB
100
AcDbEntity
  8
0
 48
50.0
100
AcDbBlockBegin
  2
*D7
 70
     1
 10
0.0
 20
0.0
 30
0.0
  3
*D7
  1

  0
LINE
  5
182CF
330
170DB
100
AcDbEntity
  8
寸法
 62
     0
 48
50.0
370
    -2
100
AcDbLine
 10
4942.811038414096
 20
4814.927871567257
 30
0.0
 11
4942.811038414096
 21
5257.583707023584
 31
0.0
  0
LINE
  5
182D0
330
170DB
100
AcDbEntity
  8
寸法
 62
     0
 48
50.0
370
    -2
100
AcDbLine
 10
4882.811038414097
 20
4818.926253444284
 30
0.0
 11
4882.811038414097
 21
5257.583707023584
 31
0.0
  0
LINE
  5
182D1
330
170DB
100
AcDbEntity
  8
寸法
 62
     0
 48
50.0
370
    -2
100
AcDbLine
 10
4942.811038414096
 20
5197.583707023585
 30
0.0
 11
5042.811038414097
 21
5197.583707023585
 31
0.0
  0
LINE
  5
182D2
330
170DB
100
AcDbEntity
  8
寸法
 62
     0
 48
50.0
370
    -2
100
AcDbLine
 10
4882.811038414097
 20
5197.583707023585
 30
0.0
 11
4463.535447862915
 21
5197.583707023585
 31
0.0
  0
LINE
  5
182D3
330
170DB
100
AcDbEntity
  8
寸法
 62
     0
 48
50.0
370
    -2
100
AcDbLine
 10
4942.811038414096
 20
5197.583707023585
 30
0.0
 11
4882.811038414097
 21
5197.583707023585
 31
0.0
  0
INSERT
  5
182D4
330
170DB
100
AcDbEntity
  8
寸法
 62
     0
 48
50.0
370
    -2
100
AcDbBlockReference
  2
_DOTSMALL
 10
4942.811038414096
 20
5197.583707023585
 30
0.0
 41
100.0
 42
100.0
 43
100.0
 50
180.0
  0
INSERT
  5
182D5
330
170DB
100
AcDbEntity
  8
寸法
 62
     0
 48
50.0
370
    -2
100
AcDbBlockReference
  2
_DOTSMALL
 10
4882.811038414097
 20
5197.583707023585
 30
0.0
 41
100.0
 42
100.0
 43
100.0
  0
MTEXT
  5
182D6
330
170DB
100
AcDbEntity
  8
寸法
 62
     7
 48
50.0
100
AcDbMText
 10
4573.173243138506
 20
5297.583707023584
 30
0.0
 40
120.0
 41
0.0
 71
     5
 72
     1
  1
\A1;60
  7
STYLE1
 73
     1
 44
1.0
1001
ACAD
1000
MTEXTBEGIN
1070
    73
1070
     1
1070
    44
1040
1.0
1070
    74
1070
     0
1000
MTEXTEND
  0
POINT
  5
182D7
330
170DB
100
AcDbEntity
  8
DEFPOINTS
 62
     0
 48
50.0
100
AcDbPoint
 10
4942.811038414096
 20
4794.927871567256
 30
0.0
  0
POINT
  5
182D8
330
170DB
100
AcDbEntity
  8
DEFPOINTS
 62
     0
 48
50.0
100
AcDbPoint
 10
4882.811038414097
 20
4798.926253444284
 30
0.0
  0
POINT
  5
182D9
330
170DB
100
AcDbEntity
  8
DEFPOINTS
 62
     0
 48
50.0
100
AcDbPoint
 10
4882.811038414097
 20
5197.583707023585
 30
0.0
  0
ENDBLK
  5
170E8
330
170DB
100
AcDbEntity
  8
0
 48
50.0
100
AcDbBlockEnd
  0
BLOCK
  5
170F3
330
170E9
100
AcDbEntity
  8
0
 48
50.0
100
AcDbBlockBegin
  2
*D8
 70
     1
 10
0.0
 20
0.0
 30
0.0
  3
*D8
  1

  0
LINE
  5
182C6
330
170E9
100
AcDbEntity
  8
寸法
 62
     0
 48
50.0
370
    -2
100
AcDbLine
 10
6732.811038414097
 20
4765.736933055932
 30
0.0
 11
6732.811038414097
 21
5258.019422783754
 31
0.0
  0
LINE
  5
182C7
330
170E9
100
AcDbEntity
  8
寸法
 62
     0
 48
50.0
370
    -2
100
AcDbLine
 10
4942.811038414096
 20
4814.927871567257
 30
0.0
 11
4942.811038414096
 21
5258.019422783754
 31
0.0
  0
LINE
  5
182C8
330
170E9
100
AcDbEntity
  8
寸法
 62
     0
 48
50.0
370
    -2
100
AcDbLine
 10
6732.811038414097
 20
5198.019422783755
 30
0.0
 11
4942.811038414096
 21
5198.019422783755
 31
0.0
  0
INSERT
  5
182C9
330
170E9
100
AcDbEntity
  8
寸法
 62
     0
 48
50.0
370
    -2
100
AcDbBlockReference
  2
_DOTSMALL
 10
6732.811038414097
 20
5198.019422783755
 30
0.0
 41
100.0
 42
100.0
 43
100.0
  0
INSERT
  5
182CA
330
170E9
100
AcDbEntity
  8
寸法
 62
     0
 48
50.0
370
    -2
100
AcDbBlockReference
  2
_DOTSMALL
 10
4942.811038414096
 20
5198.019422783755
 30
0.0
 41
100.0
 42
100.0
 43
100.0
 50
180.0
  0
MTEXT
  5
182CB
330
170E9
100
AcDbEntity
  8
寸法
 62
     7
 48
50.0
100
AcDbMText
 10
5852.406687090577
 20
5298.019422783755
 30
0.0
 40
120.0
 41
0.0
 71
     5
 72
     1
  1
\A1;柱外寸法1790
  7
STYLE1
 73
     1
 44
1.0
1001
ACAD
1000
MTEXTBEGIN
1070
    73
1070
     1
1070
    44
1040
1.0
1070
    74
1070
     0
1000
MTEXTEND
  0
POINT
  5
182CC
330
170E9
100
AcDbEntity
  8
DEFPOINTS
 62
     0
 48
50.0
100
AcDbPoint
 10
6732.811038414097
 20
4745.736933055932
 30
0.0
  0
POINT
  5
182CD
330
170E9
100
AcDbEntity
  8
DEFPOINTS
 62
     0
 48
50.0
100
AcDbPoint
 10
4942.811038414096
 20
4794.927871567256
 30
0.0
  0
POINT
  5
182CE
330
170E9
100
AcDbEntity
  8
DEFPOINTS
 62
     0
 48
50.0
100
AcDbPoint
 10
4942.811038414096
 20
5198.019422783755
 30
0.0
  0
ENDBLK
  5
170F4
330
170E9
100
AcDbEntity
  8
0
 48
50.0
100
AcDbBlockEnd
  0
BLOCK
  5
170FF
330
170F5
100
AcDbEntity
  8
0
 48
50.0
100
AcDbBlockBegin
  2
*D9
 70
     1
 10
0.0
 20
0.0
 30
0.0
  3
*D9
  1

  0
LINE
  5
182BD
330
170F5
100
AcDbEntity
  8
寸法
 62
     0
 48
50.0
370
    -2
100
AcDbLine
 10
6829.811038414099
 20
2723.926253444281
 30
0.0
 11
7404.981134176525
 21
2723.92625344428
 31
0.0
  0
LINE
  5
182BE
330
170F5
100
AcDbEntity
  8
寸法
 62
     0
 48
50.0
370
    -2
100
AcDbLine
 10
6832.811038414097
 20
4743.92625344428
 30
0.0
 11
7404.981134176525
 21
4743.92625344428
 31
0.0
  0
LINE
  5
182BF
330
170F5
100
AcDbEntity
  8
寸法
 62
     0
 48
50.0
370
    -2
100
AcDbLine
 10
7344.981134176524
 20
2723.92625344428
 30
0.0
 11
7344.981134176524
 21
4743.92625344428
 31
0.0
  0
INSERT
  5
182C0
330
170F5
100
AcDbEntity
  8
寸法
 62
     0
 48
50.0
370
    -2
100
AcDbBlockReference
  2
_DOTSMALL
 10
7344.981134176524
 20
2723.92625344428
 30
0.0
 41
100.0
 42
100.0
 43
100.0
 50
270.0
  0
INSERT
  5
182C1
330
170F5
100
AcDbEntity
  8
寸法
 62
     0
 48
50.0
370
    -2
100
AcDbBlockReference
  2
_DOTSMALL
 10
7344.981134176524
 20
4743.92625344428
 30
0.0
 41
100.0
 42
100.0
 43
100.0
 50
90.0
  0
MTEXT
  5
182C2
330
170F5
100
AcDbEntity
  8
寸法
 62
     7
 48
50.0
100
AcDbMText
 10
7244.969323152902
 20
3706.182580873969
 30
0.0
 40
120.0
 41
0.0
 71
     5
 72
     1
  1
\A1;2020
  7
STYLE1
 11
0.0000000000000001
 21
1.0
 31
0.0
 73
     1
 44
1.0
1001
ACAD
1000
MTEXTBEGIN
1070
    73
1070
     1
1070
    44
1040
1.0
1070
    74
1070
     0
1000
MTEXTEND
  0
POINT
  5
182C3
330
170F5
100
AcDbEntity
  8
DEFPOINTS
 62
     0
 48
50.0
100
AcDbPoint
 10
6809.8110384141
 20
2723.926253444281
 30
0.0
  0
POINT
  5
182C4
330
170F5
100
AcDbEntity
  8
DEFPOINTS
 62
     0
 48
50.0
100
AcDbPoint
 10
6812.811038414096
 20
4743.92625344428
 30
0.0
  0
POINT
  5
182C5
330
170F5
100
AcDbEntity
  8
DEFPOINTS
 62
     0
 48
50.0
100
AcDbPoint
 10
7344.981134176524
 20
4743.92625344428
 30
0.0
  0
ENDBLK
  5
17100
330
170F5
100
AcDbEntity
  8
0
 48
50.0
100
AcDbBlockEnd
  0
BLOCK
  5
1710D
330
17101
100
AcDbEntity
  8
0
 48
50.0
100
AcDbBlockBegin
  2
*D10
 70
     1
 10
0.0
 20
0.0
 30
0.0
  3
*D10
  1

  0
LINE
  5
182B2
330
17101
100
AcDbEntity
  8
寸法
 62
     0
 48
50.0
370
    -2
100
AcDbLine
 10
4922.811038414096
 20
2773.926253444281
 30
0.0
 11
4259.158329255799
 21
2773.926253444281
 31
0.0
  0
LINE
  5
182B3
330
17101
100
AcDbEntity
  8
寸法
 62
     0
 48
50.0
370
    -2
100
AcDbLine
 10
4867.811038414096
 20
2723.926253444281
 30
0.0
 11
4259.158329255799
 21
2723.926253444281
 31
0.0
  0
LINE
  5
182B4
330
17101
100
AcDbEntity
  8
寸法
 62
     0
 48
50.0
370
    -2
100
AcDbLine
 10
4319.1583292558
 20
2773.926253444281
 30
0.0
 11
4319.1583292558
 21
2873.926253444281
 31
0.0
  0
LINE
  5
182B5
330
17101
100
AcDbEntity
  8
寸法
 62
     0
 48
50.0
370
    -2
100
AcDbLine
 10
4319.1583292558
 20
2723.926253444281
 30
0.0
 11
4319.1583292558
 21
2311.831765255301
 31
0.0
  0
LINE
  5
182B6
330
17101
100
AcDbEntity
  8
寸法
 62
     0
 48
50.0
370
    -2
100
AcDbLine
 10
4319.1583292558
 20
2773.926253444281
 30
0.0
 11
4319.1583292558
 21
2723.926253444281
 31
0.0
  0
INSERT
  5
182B7
330
17101
100
AcDbEntity
  8
寸法
 62
     0
 48
50.0
370
    -2
100
AcDbBlockReference
  2
_DOTSMALL
 10
4319.1583292558
 20
2773.926253444281
 30
0.0
 41
100.0
 42
100.0
 43
100.0
 50
270.0
  0
INSERT
  5
182B8
330
17101
100
AcDbEntity
  8
寸法
 62
     0
 48
50.0
370
    -2
100
AcDbBlockReference
  2
_DOTSMALL
 10
4319.1583292558
 20
2723.926253444281
 30
0.0
 41
100.0
 42
100.0
 43
100.0
 50
90.0
  0
MTEXT
  5
182B9
330
17101
100
AcDbEntity
  8
寸法
 62
     7
 48
50.0
100
AcDbMText
 10
4219.158329255798
 20
2417.87900934979
 30
0.0
 40
120.0
 41
0.0
 71
     5
 72
     1
  1
\A1;50
  7
STYLE1
 11
0.0000000000000001
 21
1.0
 31
0.0
 73
     1
 44
1.0
1001
ACAD
1000
MTEXTBEGIN
1070
    73
1070
     1
1070
    44
1040
1.0
1070
    74
1070
     0
1000
MTEXTEND
  0
POINT
  5
182BA
330
17101
100
AcDbEntity
  8
DEFPOINTS
 62
     0
 48
50.0
100
AcDbPoint
 10
4942.811038414096
 20
2773.926253444281
 30
0.0
  0
POINT
  5
182BB
330
17101
100
AcDbEntity
  8
DEFPOINTS
 62
     0
 48
50.0
100
AcDbPoint
 10
4887.811038414096
 20
2723.926253444281
 30
0.0
  0
POINT
  5
182BC
330
17101
100
AcDbEntity
  8
DEFPOINTS
 62
     0
 48
50.0
100
AcDbPoint
 10
4319.1583292558
 20
2723.926253444281
 30
0.0
  0
ENDBLK
  5
1710E
330
17101
100
AcDbEntity
  8
0
 48
50.0
100
AcDbBlockEnd
  0
BLOCK
  5
1711A
330
1710F
100
AcDbEntity
  8
0
 48
50.0
100
AcDbBlockBegin
  2
*D11
 70
     1
 10
0.0
 20
0.0
 30
0.0
  3
*D11
  1

  0
LINE
  5
182A8
330
1710F
100
AcDbEntity
  8
寸法
 62
     0
 48
50.0
370
    -2
100
AcDbLine
 10
4867.811038414096
 20
2723.926253444281
 30
0.0
 11
3974.171656484738
 21
2723.926253444281
 31
0.0
  0
LINE
  5
182A9
330
1710F
100
AcDbEntity
  8
寸法
 62
     0
 48
50.0
370
    -2
100
AcDbLine
 10
4299.158329255798
 20
2623.926253444281
 30
0.0
 11
3974.171656484738
 21
2623.926253444281
 31
0.0
  0
LINE
  5
182AA
330
1710F
100
AcDbEntity
  8
寸法
 62
     0
 48
50.0
370
    -2
100
AcDbLine
 10
4034.171656484738
 20
2723.926253444281
 30
0.0
 11
4034.171656484738
 21
2623.926253444281
 31
0.0
  0
LINE
  5
182AB
330
1710F
100
AcDbEntity
  8
寸法
 62
     0
 48
50.0
370
    -2
100
AcDbLine
 10
4034.171656484738
 20
2623.926253444281
 30
0.0
 11
4034.171656484738
 21
2251.831765255301
 31
0.0
  0
INSERT
  5
182AC
330
1710F
100
AcDbEntity
  8
寸法
 62
     0
 48
50.0
370
    -2
100
AcDbBlockReference
  2
_DOTSMALL
 10
4034.171656484738
 20
2723.926253444281
 30
0.0
 41
100.0
 42
100.0
 43
100.0
 50
90.0
  0
INSERT
  5
182AD
330
1710F
100
AcDbEntity
  8
寸法
 62
     0
 48
50.0
370
    -2
100
AcDbBlockReference
  2
_DOTSMALL
 10
4034.171656484738
 20
2623.926253444281
 30
0.0
 41
100.0
 42
100.0
 43
100.0
 50
270.0
  0
MTEXT
  5
182AE
330
1710F
100
AcDbEntity
  8
寸法
 62
     7
 48
50.0
100
AcDbMText
 10
3934.171656484738
 20
2387.87900934979
 30
0.0
 40
120.0
 41
0.0
 71
     5
 72
     1
  1
\A1;100
  7
STYLE1
 11
0.0000000000000001
 21
1.0
 31
0.0
 73
     1
 44
1.0
1001
ACAD
1000
MTEXTBEGIN
1070
    73
1070
     1
1070
    44
1040
1.0
1070
    74
1070
     0
1000
MTEXTEND
  0
POINT
  5
182AF
330
1710F
100
AcDbEntity
  8
DEFPOINTS
 62
     0
 48
50.0
100
AcDbPoint
 10
4887.811038414096
 20
2723.926253444281
 30
0.0
  0
POINT
  5
182B0
330
1710F
100
AcDbEntity
  8
DEFPOINTS
 62
     0
 48
50.0
100
AcDbPoint
 10
4319.158329255798
 20
2623.926253444281
 30
0.0
  0
POINT
  5
182B1
330
1710F
100
AcDbEntity
  8
DEFPOINTS
 62
     0
 48
50.0
100
AcDbPoint
 10
4034.171656484738
 20
2623.926253444281
 30
0.0
  0
ENDBLK
  5
1711B
330
1710F
100
AcDbEntity
  8
0
 48
50.0
100
AcDbBlockEnd
  0
BLOCK
  5
17126
330
1711C
100
AcDbEntity
  8
0
 48
50.0
100
AcDbBlockBegin
  2
*D12
 70
     1
 10
0.0
 20
0.0
 30
0.0
  3
*D12
  1

  0
LINE
  5
1829F
330
1711C
100
AcDbEntity
  8
寸法
 62
     0
 48
50.0
370
    -2
100
AcDbLine
 10
4922.811038414096
 20
2723.926253444281
 30
0.0
 11
3974.171656484737
 21
2723.926253444281
 31
0.0
  0
LINE
  5
182A0
330
1711C
100
AcDbEntity
  8
寸法
 62
     0
 48
50.0
370
    -2
100
AcDbLine
 10
4862.811038414097
 20
4798.926253444284
 30
0.0
 11
3974.171656484738
 21
4798.926253444284
 31
0.0
  0
LINE
  5
182A1
330
1711C
100
AcDbEntity
  8
寸法
 62
     0
 48
50.0
370
    -2
100
AcDbLine
 10
4034.171656484737
 20
2723.926253444281
 30
0.0
 11
4034.171656484738
 21
4798.926253444284
 31
0.0
  0
INSERT
  5
182A2
330
1711C
100
AcDbEntity
  8
寸法
 62
     0
 48
50.0
370
    -2
100
AcDbBlockReference
  2
_DOTSMALL
 10
4034.171656484737
 20
2723.926253444281
 30
0.0
 41
100.0
 42
100.0
 43
100.0
 50
270.0
  0
INSERT
  5
182A3
330
1711C
100
AcDbEntity
  8
寸法
 62
     0
 48
50.0
370
    -2
100
AcDbBlockReference
  2
_DOTSMALL
 10
4034.171656484738
 20
4798.926253444284
 30
0.0
 41
100.0
 42
100.0
 43
100.0
 50
90.0
  0
MTEXT
  5
182A4
330
1711C
100
AcDbEntity
  8
寸法
 62
     7
 48
50.0
100
AcDbMText
 10
3934.159845461115
 20
3718.132130937391
 30
0.0
 40
120.0
 41
0.0
 71
     5
 72
     1
  1
\A1;2075
  7
STYLE1
 11
0.0000000000000001
 21
1.0
 31
0.0
 73
     1
 44
1.0
1001
ACAD
1000
MTEXTBEGIN
1070
    73
1070
     1
1070
    44
1040
1.0
1070
    74
1070
     0
1000
MTEXTEND
  0
POINT
  5
182A5
330
1711C
100
AcDbEntity
  8
DEFPOINTS
 62
     0
 48
50.0
100
AcDbPoint
 10
4942.811038414096
 20
2723.926253444281
 30
0.0
  0
POINT
  5
182A6
330
1711C
100
AcDbEntity
  8
DEFPOINTS
 62
     0
 48
50.0
100
AcDbPoint
 10
4882.811038414097
 20
4798.926253444284
 30
0.0
  0
POINT
  5
182A7
330
1711C
100
AcDbEntity
  8
DEFPOINTS
 62
     0
 48
50.0
100
AcDbPoint
 10
4034.171656484738
 20
4798.926253444284
 30
0.0
  0
ENDBLK
  5
17127
330
1711C
100
AcDbEntity
  8
0
 48
50.0
100
AcDbBlockEnd
  0
BLOCK
  5
17132
330
17128
100
AcDbEntity
  8
0
 48
50.0
100
AcDbBlockBegin
  2
*D13
 70
     1
 10
0.0
 20
0.0
 30
0.0
  3
*D13
  1

  0
LINE
  5
18296
330
17128
100
AcDbEntity
  8
寸法
 62
     0
 48
50.0
370
    -2
100
AcDbLine
 10
4922.811038414096
 20
4563.926253444281
 30
0.0
 11
4259.158329255799
 21
4563.926253444281
 31
0.0
  0
LINE
  5
18297
330
17128
100
AcDbEntity
  8
寸法
 62
     0
 48
50.0
370
    -2
100
AcDbLine
 10
4922.811038414096
 20
2773.926253444281
 30
0.0
 11
4259.158329255799
 21
2773.926253444281
 31
0.0
  0
LINE
  5
18298
330
17128
100
AcDbEntity
  8
寸法
 62
     0
 48
50.0
370
    -2
100
AcDbLine
 10
4319.1583292558
 20
4563.926253444281
 30
0.0
 11
4319.1583292558
 21
2773.926253444281
 31
0.0
  0
INSERT
  5
18299
330
17128
100
AcDbEntity
  8
寸法
 62
     0
 48
50.0
370
    -2
100
AcDbBlockReference
  2
_DOTSMALL
 10
4319.1583292558
 20
4563.926253444281
 30
0.0
 41
100.0
 42
100.0
 43
100.0
 50
90.0
  0
INSERT
  5
1829A
330
17128
100
AcDbEntity
  8
寸法
 62
     0
 48
50.0
370
    -2
100
AcDbBlockReference
  2
_DOTSMALL
 10
4319.1583292558
 20
2773.926253444281
 30
0.0
 41
100.0
 42
100.0
 43
100.0
 50
270.0
  0
MTEXT
  5
1829B
330
17128
100
AcDbEntity
  8
寸法
 62
     7
 48
50.0
100
AcDbMText
 10
4219.158329255798
 20
3664.380551986238
 30
0.0
 40
120.0
 41
0.0
 71
     5
 72
     1
  1
\A1;1790
  7
STYLE1
 11
0.0000000000000001
 21
1.0
 31
0.0
 73
     1
 44
1.0
1001
ACAD
1000
MTEXTBEGIN
1070
    73
1070
     1
1070
    44
1040
1.0
1070
    74
1070
     0
1000
MTEXTEND
  0
POINT
  5
1829C
330
17128
100
AcDbEntity
  8
DEFPOINTS
 62
     0
 48
50.0
100
AcDbPoint
 10
4942.811038414096
 20
4563.926253444281
 30
0.0
  0
POINT
  5
1829D
330
17128
100
AcDbEntity
  8
DEFPOINTS
 62
     0
 48
50.0
100
AcDbPoint
 10
4942.811038414096
 20
2773.926253444281
 30
0.0
  0
POINT
  5
1829E
330
17128
100
AcDbEntity
  8
DEFPOINTS
 62
     0
 48
50.0
100
AcDbPoint
 10
4319.1583292558
 20
2773.926253444281
 30
0.0
  0
ENDBLK
  5
17133
330
17128
100
AcDbEntity
  8
0
 48
50.0
100
AcDbBlockEnd
  0
BLOCK
  5
17C00
330
17BF4
100
AcDbEntity
  8
0
 48
50.0
100
AcDbBlockBegin
  2
*D14
 70
     1
 10
0.0
 20
0.0
 30
0.0
  3
*D14
  1

  0
LINE
  5
18280
330
17BF4
100
AcDbEntity
  8
寸法
 62
     0
 48
50.0
370
    -2
100
AcDbLine
 10
11539.27138451163
 20
4818.926253444284
 30
0.0
 11
11539.27138451163
 21
5258.019422783754
 31
0.0
  0
LINE
  5
18281
330
17BF4
100
AcDbEntity
  8
寸法
 62
     0
 48
50.0
370
    -2
100
AcDbLine
 10
11489.27138451163
 20
4818.926253444284
 30
0.0
 11
11489.27138451163
 21
5258.019422783754
 31
0.0
  0
LINE
  5
18282
330
17BF4
100
AcDbEntity
  8
寸法
 62
     0
 48
50.0
370
    -2
100
AcDbLine
 10
11489.27138451163
 20
5198.019422783755
 30
0.0
 11
11389.27138451163
 21
5198.019422783755
 31
0.0
  0
LINE
  5
18283
330
17BF4
100
AcDbEntity
  8
寸法
 62
     0
 48
50.0
370
    -2
100
AcDbLine
 10
11539.27138451163
 20
5198.019422783755
 30
0.0
 11
11958.80390998036
 21
5198.019422783755
 31
0.0
  0
LINE
  5
18284
330
17BF4
100
AcDbEntity
  8
寸法
 62
     0
 48
50.0
370
    -2
100
AcDbLine
 10
11489.27138451163
 20
5198.019422783755
 30
0.0
 11
11539.27138451163
 21
5198.019422783755
 31
0.0
  0
INSERT
  5
18285
330
17BF4
100
AcDbEntity
  8
寸法
 62
     0
 48
50.0
370
    -2
100
AcDbBlockReference
  2
_DOTSMALL
 10
11489.27138451163
 20
5198.019422783755
 30
0.0
 41
100.0
 42
100.0
 43
100.0
  0
INSERT
  5
18286
330
17BF4
100
AcDbEntity
  8
寸法
 62
     0
 48
50.0
370
    -2
100
AcDbBlockReference
  2
_DOTSMALL
 10
11539.27138451163
 20
5198.019422783755
 30
0.0
 41
100.0
 42
100.0
 43
100.0
 50
180.0
  0
MTEXT
  5
18287
330
17BF4
100
AcDbEntity
  8
寸法
 62
     7
 48
50.0
100
AcDbMText
 10
11852.75666588587
 20
5298.019422783755
 30
0.0
 40
120.0
 41
0.0
 71
     5
 72
     1
  1
\A1;50
  7
STYLE1
 73
     1
 44
1.0
1001
ACAD
1000
MTEXTBEGIN
1070
    73
1070
     1
1070
    44
1040
1.0
1070
    74
1070
     0
1000
MTEXTEND
  0
POINT
  5
18288
330
17BF4
100
AcDbEntity
  8
DEFPOINTS
 62
     0
 48
50.0
100
AcDbPoint
 10
11539.27138451163
 20
4798.926253444284
 30
0.0
  0
POINT
  5
18289
330
17BF4
100
AcDbEntity
  8
DEFPOINTS
 62
     0
 48
50.0
100
AcDbPoint
 10
11489.27138451163
 20
4798.926253444284
 30
0.0
  0
POINT
  5
1828A
330
17BF4
100
AcDbEntity
  8
DEFPOINTS
 62
     0
 48
50.0
100
AcDbPoint
 10
11489.27138451163
 20
5198.019422783755
 30
0.0
  0
ENDBLK
  5
17C01
330
17BF4
100
AcDbEntity
  8
0
 48
50.0
100
AcDbBlockEnd
  0
BLOCK
  5
17C0C
330
17C02
100
AcDbEntity
  8
0
 48
50.0
100
AcDbBlockBegin
  2
*D15
 70
     1
 10
0.0
 20
0.0
 30
0.0
  3
*D15
  1

  0
LINE
  5
18277
330
17C02
100
AcDbEntity
  8
寸法
 62
     0
 48
50.0
370
    -2
100
AcDbLine
 10
8809.271384511633
 20
4818.926253444284
 30
0.0
 11
8809.271384511633
 21
5474.545522402198
 31
0.0
  0
LINE
  5
18278
330
17C02
100
AcDbEntity
  8
寸法
 62
     0
 48
50.0
370
    -2
100
AcDbLine
 10
11539.27138451163
 20
4818.926253444284
 30
0.0
 11
11539.27138451163
 21
5474.545522402198
 31
0.0
  0
LINE
  5
18279
330
17C02
100
AcDbEntity
  8
寸法
 62
     0
 48
50.0
370
    -2
100
AcDbLine
 10
8809.271384511633
 20
5414.545522402199
 30
0.0
 11
11539.27138451163
 21
5414.545522402199
 31
0.0
  0
INSERT
  5
1827A
330
17C02
100
AcDbEntity
  8
寸法
 62
     0
 48
50.0
370
    -2
100
AcDbBlockReference
  2
_DOTSMALL
 10
8809.271384511633
 20
5414.545522402199
 30
0.0
 41
100.0
 42
100.0
 43
100.0
 50
180.0
  0
INSERT
  5
1827B
330
17C02
100
AcDbEntity
  8
寸法
 62
     0
 48
50.0
370
    -2
100
AcDbBlockReference
  2
_DOTSMALL
 10
11539.27138451163
 20
5414.545522402199
 30
0.0
 41
100.0
 42
100.0
 43
100.0
  0
MTEXT
  5
1827C
330
17C02
100
AcDbEntity
  8
寸法
 62
     7
 48
50.0
100
AcDbMText
 10
10174.27138451163
 20
5514.557333425821
 30
0.0
 40
120.0
 41
0.0
 71
     5
 72
     1
  1
\A1;2730
  7
STYLE1
 73
     1
 44
1.0
1001
ACAD
1000
MTEXTBEGIN
1070
    73
1070
     1
1070
    44
1040
1.0
1070
    74
1070
     0
1000
MTEXTEND
  0
POINT
  5
1827D
330
17C02
100
AcDbEntity
  8
DEFPOINTS
 62
     0
 48
50.0
100
AcDbPoint
 10
8809.271384511633
 20
4798.926253444284
 30
0.0
  0
POINT
  5
1827E
330
17C02
100
AcDbEntity
  8
DEFPOINTS
 62
     0
 48
50.0
100
AcDbPoint
 10
11539.27138451163
 20
4798.926253444284
 30
0.0
  0
POINT
  5
1827F
330
17C02
100
AcDbEntity
  8
DEFPOINTS
 62
     0
 48
50.0
100
AcDbPoint
 10
11539.27138451163
 20
5414.545522402199
 30
0.0
  0
ENDBLK
  5
17C0D
330
17C02
100
AcDbEntity
  8
0
 48
50.0
100
AcDbBlockEnd
  0
BLOCK
  5
17C1A
330
17C0E
100
AcDbEntity
  8
0
 48
50.0
100
AcDbBlockBegin
  2
*D16
 70
     1
 10
0.0
 20
0.0
 30
0.0
  3
*D16
  1

  0
LINE
  5
1826C
330
17C0E
100
AcDbEntity
  8
寸法
 62
     0
 48
50.0
370
    -2
100
AcDbLine
 10
8859.271384511634
 20
4818.926253444288
 30
0.0
 11
8859.271384511634
 21
5258.019422783754
 31
0.0
  0
LINE
  5
1826D
330
17C0E
100
AcDbEntity
  8
寸法
 62
     0
 48
50.0
370
    -2
100
AcDbLine
 10
8809.271384511633
 20
4818.926253444284
 30
0.0
 11
8809.271384511633
 21
5258.019422783754
 31
0.0
  0
LINE
  5
1826E
330
17C0E
100
AcDbEntity
  8
寸法
 62
     0
 48
50.0
370
    -2
100
AcDbLine
 10
8859.271384511634
 20
5198.019422783755
 30
0.0
 11
8959.271384511634
 21
5198.019422783755
 31
0.0
  0
LINE
  5
1826F
330
17C0E
100
AcDbEntity
  8
寸法
 62
     0
 48
50.0
370
    -2
100
AcDbLine
 10
8809.271384511633
 20
5198.019422783755
 30
0.0
 11
8389.7388590429
 21
5198.019422783755
 31
0.0
  0
LINE
  5
18270
330
17C0E
100
AcDbEntity
  8
寸法
 62
     0
 48
50.0
370
    -2
100
AcDbLine
 10
8859.271384511634
 20
5198.019422783755
 30
0.0
 11
8809.271384511633
 21
5198.019422783755
 31
0.0
  0
INSERT
  5
18271
330
17C0E
100
AcDbEntity
  8
寸法
 62
     0
 48
50.0
370
    -2
100
AcDbBlockReference
  2
_DOTSMALL
 10
8859.271384511634
 20
5198.019422783755
 30
0.0
 41
100.0
 42
100.0
 43
100.0
 50
180.0
  0
INSERT
  5
18272
330
17C0E
100
AcDbEntity
  8
寸法
 62
     0
 48
50.0
370
    -2
100
AcDbBlockReference
  2
_DOTSMALL
 10
8809.271384511633
 20
5198.019422783755
 30
0.0
 41
100.0
 42
100.0
 43
100.0
  0
MTEXT
  5
18273
330
17C0E
100
AcDbEntity
  8
寸法
 62
     7
 48
50.0
100
AcDbMText
 10
8495.786103137387
 20
5298.019422783755
 30
0.0
 40
120.0
 41
0.0
 71
     5
 72
     1
  1
\A1;50
  7
STYLE1
 73
     1
 44
1.0
1001
ACAD
1000
MTEXTBEGIN
1070
    73
1070
     1
1070
    44
1040
1.0
1070
    74
1070
     0
1000
MTEXTEND
  0
POINT
  5
18274
330
17C0E
100
AcDbEntity
  8
DEFPOINTS
 62
     0
 48
50.0
100
AcDbPoint
 10
8859.271384511634
 20
4798.926253444288
 30
0.0
  0
POINT
  5
18275
330
17C0E
100
AcDbEntity
  8
DEFPOINTS
 62
     0
 48
50.0
100
AcDbPoint
 10
8809.271384511633
 20
4798.926253444284
 30
0.0
  0
POINT
  5
18276
330
17C0E
100
AcDbEntity
  8
DEFPOINTS
 62
     0
 48
50.0
100
AcDbPoint
 10
8809.271384511633
 20
5198.019422783755
 30
0.0
  0
ENDBLK
  5
17C1B
330
17C0E
100
AcDbEntity
  8
0
 48
50.0
100
AcDbBlockEnd
  0
BLOCK
  5
17C26
330
17C1C
100
AcDbEntity
  8
0
 48
50.0
100
AcDbBlockBegin
  2
*D17
 70
     1
 10
0.0
 20
0.0
 30
0.0
  3
*D17
  1

  0
LINE
  5
18263
330
17C1C
100
AcDbEntity
  8
寸法
 62
     0
 48
50.0
370
    -2
100
AcDbLine
 10
11489.27138451163
 20
4818.926253444284
 30
0.0
 11
11489.27138451163
 21
5258.019422783751
 31
0.0
  0
LINE
  5
18264
330
17C1C
100
AcDbEntity
  8
寸法
 62
     0
 48
50.0
370
    -2
100
AcDbLine
 10
8859.271384511634
 20
4818.926253444288
 30
0.0
 11
8859.271384511634
 21
5258.019422783751
 31
0.0
  0
LINE
  5
18265
330
17C1C
100
AcDbEntity
  8
寸法
 62
     0
 48
50.0
370
    -2
100
AcDbLine
 10
11489.27138451163
 20
5198.019422783751
 30
0.0
 11
8859.271384511634
 21
5198.019422783751
 31
0.0
  0
INSERT
  5
18266
330
17C1C
100
AcDbEntity
  8
寸法
 62
     0
 48
50.0
370
    -2
100
AcDbBlockReference
  2
_DOTSMALL
 10
11489.27138451163
 20
5198.019422783751
 30
0.0
 41
100.0
 42
100.0
 43
100.0
  0
INSERT
  5
18267
330
17C1C
100
AcDbEntity
  8
寸法
 62
     0
 48
50.0
370
    -2
100
AcDbBlockReference
  2
_DOTSMALL
 10
8859.271384511634
 20
5198.019422783751
 30
0.0
 41
100.0
 42
100.0
 43
100.0
 50
180.0
  0
MTEXT
  5
18268
330
17C1C
100
AcDbEntity
  8
寸法
 62
     7
 48
50.0
100
AcDbMText
 10
10174.27138451163
 20
5298.031233807373
 30
0.0
 40
120.0
 41
0.0
 71
     5
 72
     1
  1
\A1;柱外寸法2630
  7
STYLE1
 73
     1
 44
1.0
1001
ACAD
1000
MTEXTBEGIN
1070
    73
1070
     1
1070
    44
1040
1.0
1070
    74
1070
     0
1000
MTEXTEND
  0
POINT
  5
18269
330
17C1C
100
AcDbEntity
  8
DEFPOINTS
 62
     0
 48
50.0
100
AcDbPoint
 10
11489.27138451163
 20
4798.926253444284
 30
0.0
  0
POINT
  5
1826A
330
17C1C
100
AcDbEntity
  8
DEFPOINTS
 62
     0
 48
50.0
100
AcDbPoint
 10
8859.271384511634
 20
4798.926253444288
 30
0.0
  0
POINT
  5
1826B
330
17C1C
100
AcDbEntity
  8
DEFPOINTS
 62
     0
 48
50.0
100
AcDbPoint
 10
8859.271384511634
 20
5198.019422783751
 30
0.0
  0
ENDBLK
  5
17C27
330
17C1C
100
AcDbEntity
  8
0
 48
50.0
100
AcDbBlockEnd
  0
BLOCK
  5
17C32
330
17C28
100
AcDbEntity
  8
0
 48
50.0
100
AcDbBlockBegin
  2
*D18
 70
     1
 10
0.0
 20
0.0
 30
0.0
  3
*D18
  1

  0
LINE
  5
1898B
330
17C28
100
AcDbEntity
  8
寸法
 62
     0
 48
50.0
370
    -2
100
AcDbLine
 10
10181.41240066302
 20
9079.570249698509
 30
0.0
 11
10084.96050112976
 21
8719.606860153851
 31
0.0
  0
LINE
  5
1898C
330
17C28
100
AcDbEntity
  8
寸法
 62
     0
 48
50.0
370
    -2
100
AcDbLine
 10
11454.41240066303
 20
9079.570249698502
 30
0.0
 11
11357.96050112977
 21
8719.606860153851
 31
0.0
  0
LINE
  5
1898D
330
17C28
100
AcDbEntity
  8
寸法
 62
     0
 48
50.0
370
    -2
100
AcDbLine
 10
10101.03745267563
 20
8779.606860153853
 30
0.0
 11
11374.03745267564
 21
8779.606860153853
 31
0.0
  0
INSERT
  5
1898E
330
17C28
100
AcDbEntity
  8
寸法
 62
     0
 48
50.0
370
    -2
100
AcDbBlockReference
  2
_DOTSMALL
 10
10101.03745267563
 20
8779.606860153853
 30
0.0
 41
100.0
 42
100.0
 43
100.0
 50
180.0
  0
INSERT
  5
1898F
330
17C28
100
AcDbEntity
  8
寸法
 62
     0
 48
50.0
370
    -2
100
AcDbBlockReference
  2
_DOTSMALL
 10
11374.03745267564
 20
8779.606860153853
 30
0.0
 41
100.0
 42
100.0
 43
100.0
  0
MTEXT
  5
18990
330
17C28
100
AcDbEntity
  8
寸法
 62
     7
 48
50.0
100
AcDbMText
 10
10807.15929182566
 20
8879.618671177473
 30
0.0
 40
120.0
 41
0.0
 71
     5
 72
     1
  1
\A1;1273
  7
STYLE1
 73
     1
 44
1.0
1001
ACAD
1000
MTEXTBEGIN
1070
    73
1070
     1
1070
    44
1040
1.0
1070
    74
1070
     0
1000
MTEXTEND
  0
POINT
  5
18991
330
17C28
100
AcDbEntity
  8
DEFPOINTS
 62
     0
 48
50.0
100
AcDbPoint
 10
10186.77138451164
 20
9099.570249698508
 30
0.0
  0
POINT
  5
18992
330
17C28
100
AcDbEntity
  8
DEFPOINTS
 62
     0
 48
50.0
100
AcDbPoint
 10
11459.77138451165
 20
9099.570249698501
 30
0.0
  0
POINT
  5
18993
330
17C28
100
AcDbEntity
  8
DEFPOINTS
 62
     0
 48
50.0
100
AcDbPoint
 10
11374.03745267564
 20
8779.606860153853
 30
0.0
  0
ENDBLK
  5
17C33
330
17C28
100
AcDbEntity
  8
0
 48
50.0
100
AcDbBlockEnd
  0
BLOCK
  5
17C4A
330
17C40
100
AcDbEntity
  8
0
 48
50.0
100
AcDbBlockBegin
  2
*D19
 70
     1
 10
0.0
 20
0.0
 30
0.0
  3
*D19
  1

  0
LINE
  5
18982
330
17C40
100
AcDbEntity
  8
寸法
 62
     0
 48
50.0
370
    -2
100
AcDbLine
 10
8914.271384511645
 20
9599.570249698404
 30
0.0
 11
8914.271384511645
 21
9939.570249698403
 31
0.0
  0
LINE
  5
18983
330
17C40
100
AcDbEntity
  8
寸法
 62
     0
 48
50.0
370
    -2
100
AcDbLine
 10
11434.27138451164
 20
9599.570249698498
 30
0.0
 11
11434.27138451164
 21
9939.570249698403
 31
0.0
  0
LINE
  5
18984
330
17C40
100
AcDbEntity
  8
寸法
 62
     0
 48
50.0
370
    -2
100
AcDbLine
 10
8914.271384511645
 20
9879.570249698403
 30
0.0
 11
11434.27138451164
 21
9879.570249698403
 31
0.0
  0
INSERT
  5
18985
330
17C40
100
AcDbEntity
  8
寸法
 62
     0
 48
50.0
370
    -2
100
AcDbBlockReference
  2
_DOTSMALL
 10
8914.271384511645
 20
9879.570249698403
 30
0.0
 41
100.0
 42
100.0
 43
100.0
 50
180.0
  0
INSERT
  5
18986
330
17C40
100
AcDbEntity
  8
寸法
 62
     0
 48
50.0
370
    -2
100
AcDbBlockReference
  2
_DOTSMALL
 10
11434.27138451164
 20
9879.570249698403
 30
0.0
 41
100.0
 42
100.0
 43
100.0
  0
MTEXT
  5
18987
330
17C40
100
AcDbEntity
  8
寸法
 62
     7
 48
50.0
100
AcDbMText
 10
10174.27138451164
 20
9979.582060722025
 30
0.0
 40
120.0
 41
0.0
 71
     5
 72
     1
  1
\A1;6X420=2520
  7
STYLE1
 73
     1
 44
1.0
1001
ACAD
1000
MTEXTBEGIN
1070
    73
1070
     1
1070
    44
1040
1.0
1070
    74
1070
     0
1000
MTEXTEND
  0
POINT
  5
18988
330
17C40
100
AcDbEntity
  8
DEFPOINTS
 62
     0
 48
50.0
100
AcDbPoint
 10
8914.271384511645
 20
9579.570249698404
 30
0.0
  0
POINT
  5
18989
330
17C40
100
AcDbEntity
  8
DEFPOINTS
 62
     0
 48
50.0
100
AcDbPoint
 10
11434.27138451164
 20
9579.570249698496
 30
0.0
  0
POINT
  5
1898A
330
17C40
100
AcDbEntity
  8
DEFPOINTS
 62
     0
 48
50.0
100
AcDbPoint
 10
11434.27138451164
 20
9879.570249698403
 30
0.0
  0
ENDBLK
  5
17C4B
330
17C40
100
AcDbEntity
  8
0
 48
50.0
100
AcDbBlockEnd
  0
BLOCK
  5
17C58
330
17C4C
100
AcDbEntity
  8
0
 48
50.0
100
AcDbBlockBegin
  2
*D20
 70
     1
 10
0.0
 20
0.0
 30
0.0
  3
*D20
  1

  0
LINE
  5
18977
330
17C4C
100
AcDbEntity
  8
寸法
 62
     0
 48
50.0
370
    -2
100
AcDbLine
 10
11434.27138451164
 20
9599.570249698498
 30
0.0
 11
11434.27138451164
 21
9939.570249698403
 31
0.0
  0
LINE
  5
18978
330
17C4C
100
AcDbEntity
  8
寸法
 62
     0
 48
50.0
370
    -2
100
AcDbLine
 10
11489.27138451164
 20
9599.570249698498
 30
0.0
 11
11489.27138451164
 21
9939.570249698403
 31
0.0
  0
LINE
  5
18979
330
17C4C
100
AcDbEntity
  8
寸法
 62
     0
 48
50.0
370
    -2
100
AcDbLine
 10
11434.27138451164
 20
9879.570249698403
 30
0.0
 11
11334.27138451164
 21
9879.570249698403
 31
0.0
  0
LINE
  5
1897A
330
17C4C
100
AcDbEntity
  8
寸法
 62
     0
 48
50.0
370
    -2
100
AcDbLine
 10
11489.27138451164
 20
9879.570249698403
 30
0.0
 11
11906.24194726012
 21
9879.570249698403
 31
0.0
  0
LINE
  5
1897B
330
17C4C
100
AcDbEntity
  8
寸法
 62
     0
 48
50.0
370
    -2
100
AcDbLine
 10
11434.27138451164
 20
9879.570249698403
 30
0.0
 11
11489.27138451164
 21
9879.570249698403
 31
0.0
  0
INSERT
  5
1897C
330
17C4C
100
AcDbEntity
  8
寸法
 62
     0
 48
50.0
370
    -2
100
AcDbBlockReference
  2
_DOTSMALL
 10
11434.27138451164
 20
9879.570249698403
 30
0.0
 41
100.0
 42
100.0
 43
100.0
  0
INSERT
  5
1897D
330
17C4C
100
AcDbEntity
  8
寸法
 62
     0
 48
50.0
370
    -2
100
AcDbBlockReference
  2
_DOTSMALL
 10
11489.27138451164
 20
9879.570249698403
 30
0.0
 41
100.0
 42
100.0
 43
100.0
 50
180.0
  0
MTEXT
  5
1897E
330
17C4C
100
AcDbEntity
  8
寸法
 62
     7
 48
50.0
100
AcDbMText
 10
11797.75666588588
 20
9979.570249698404
 30
0.0
 40
120.0
 41
0.0
 71
     5
 72
     1
  1
\A1;55
  7
STYLE1
 73
     1
 44
1.0
1001
ACAD
1000
MTEXTBEGIN
1070
    73
1070
     1
1070
    44
1040
1.0
1070
    74
1070
     0
1000
MTEXTEND
  0
POINT
  5
1897F
330
17C4C
100
AcDbEntity
  8
DEFPOINTS
 62
     0
 48
50.0
100
AcDbPoint
 10
11434.27138451164
 20
9579.570249698496
 30
0.0
  0
POINT
  5
18980
330
17C4C
100
AcDbEntity
  8
DEFPOINTS
 62
     0
 48
50.0
100
AcDbPoint
 10
11489.27138451164
 20
9579.570249698496
 30
0.0
  0
POINT
  5
18981
330
17C4C
100
AcDbEntity
  8
DEFPOINTS
 62
     0
 48
50.0
100
AcDbPoint
 10
11489.27138451164
 20
9879.570249698403
 30
0.0
  0
ENDBLK
  5
17C59
330
17C4C
100
AcDbEntity
  8
0
 48
50.0
100
AcDbBlockEnd
  0
BLOCK
  5
17C64
330
17C5A
100
AcDbEntity
  8
0
 48
50.0
100
AcDbBlockBegin
  2
*D21
 70
     1
 10
0.0
 20
0.0
 30
0.0
  3
*D21
  1

  0
LINE
  5
1896E
330
17C5A
100
AcDbEntity
  8
寸法
 62
     0
 48
50.0
370
    -2
100
AcDbLine
 10
8881.412400662954
 20
9079.57024969845
 30
0.0
 11
8784.960501129708
 21
8719.606860153851
 31
0.0
  0
LINE
  5
1896F
330
17C5A
100
AcDbEntity
  8
寸法
 62
     0
 48
50.0
370
    -2
100
AcDbLine
 10
10154.41240066302
 20
9079.570249698443
 30
0.0
 11
10057.96050112978
 21
8719.606860153851
 31
0.0
  0
LINE
  5
18970
330
17C5A
100
AcDbEntity
  8
寸法
 62
     0
 48
50.0
370
    -2
100
AcDbLine
 10
8801.037452675576
 20
8779.606860153853
 30
0.0
 11
10074.03745267564
 21
8779.606860153853
 31
0.0
  0
INSERT
  5
18971
330
17C5A
100
AcDbEntity
  8
寸法
 62
     0
 48
50.0
370
    -2
100
AcDbBlockReference
  2
_DOTSMALL
 10
8801.037452675576
 20
8779.606860153853
 30
0.0
 41
100.0
 42
100.0
 43
100.0
 50
180.0
  0
INSERT
  5
18972
330
17C5A
100
AcDbEntity
  8
寸法
 62
     0
 48
50.0
370
    -2
100
AcDbBlockReference
  2
_DOTSMALL
 10
10074.03745267564
 20
8779.606860153853
 30
0.0
 41
100.0
 42
100.0
 43
100.0
  0
MTEXT
  5
18973
330
17C5A
100
AcDbEntity
  8
寸法
 62
     7
 48
50.0
100
AcDbMText
 10
9437.537452675611
 20
8879.618671177473
 30
0.0
 40
120.0
 41
0.0
 71
     5
 72
     1
  1
\A1;1273
  7
STYLE1
 73
     1
 44
1.0
1001
ACAD
1000
MTEXTBEGIN
1070
    73
1070
     1
1070
    44
1040
1.0
1070
    74
1070
     0
1000
MTEXTEND
  0
POINT
  5
18974
330
17C5A
100
AcDbEntity
  8
DEFPOINTS
 62
     0
 48
50.0
100
AcDbPoint
 10
8886.771384511575
 20
9099.57024969845
 30
0.0
  0
POINT
  5
18975
330
17C5A
100
AcDbEntity
  8
DEFPOINTS
 62
     0
 48
50.0
100
AcDbPoint
 10
10159.77138451164
 20
9099.570249698443
 30
0.0
  0
POINT
  5
18976
330
17C5A
100
AcDbEntity
  8
DEFPOINTS
 62
     0
 48
50.0
100
AcDbPoint
 10
10074.03745267564
 20
8779.606860153853
 30
0.0
  0
ENDBLK
  5
17C65
330
17C5A
100
AcDbEntity
  8
0
 48
50.0
100
AcDbBlockEnd
  0
BLOCK
  5
17C72
330
17C66
100
AcDbEntity
  8
0
 48
50.0
100
AcDbBlockBegin
  2
*D22
 70
     1
 10
0.0
 20
0.0
 30
0.0
  3
*D22
  1

  0
LINE
  5
18963
330
17C66
100
AcDbEntity
  8
寸法
 62
     0
 48
50.0
370
    -2
100
AcDbLine
 10
8859.271384511609
 20
9599.570249698404
 30
0.0
 11
8859.271384511609
 21
9939.570249698403
 31
0.0
  0
LINE
  5
18964
330
17C66
100
AcDbEntity
  8
寸法
 62
     0
 48
50.0
370
    -2
100
AcDbLine
 10
8914.271384511645
 20
9599.570249698404
 30
0.0
 11
8914.271384511645
 21
9939.570249698403
 31
0.0
  0
LINE
  5
18965
330
17C66
100
AcDbEntity
  8
寸法
 62
     0
 48
50.0
370
    -2
100
AcDbLine
 10
8914.271384511645
 20
9879.570249698403
 30
0.0
 11
9014.271384511644
 21
9879.570249698403
 31
0.0
  0
LINE
  5
18966
330
17C66
100
AcDbEntity
  8
寸法
 62
     0
 48
50.0
370
    -2
100
AcDbLine
 10
8859.271384511609
 20
9879.570249698403
 30
0.0
 11
8442.300821763131
 21
9879.570249698403
 31
0.0
  0
LINE
  5
18967
330
17C66
100
AcDbEntity
  8
寸法
 62
     0
 48
50.0
370
    -2
100
AcDbLine
 10
8914.271384511645
 20
9879.570249698403
 30
0.0
 11
8859.271384511609
 21
9879.570249698403
 31
0.0
  0
INSERT
  5
18968
330
17C66
100
AcDbEntity
  8
寸法
 62
     0
 48
50.0
370
    -2
100
AcDbBlockReference
  2
_DOTSMALL
 10
8914.271384511645
 20
9879.570249698403
 30
0.0
 41
100.0
 42
100.0
 43
100.0
 50
180.0
  0
INSERT
  5
18969
330
17C66
100
AcDbEntity
  8
寸法
 62
     0
 48
50.0
370
    -2
100
AcDbBlockReference
  2
_DOTSMALL
 10
8859.271384511609
 20
9879.570249698403
 30
0.0
 41
100.0
 42
100.0
 43
100.0
  0
MTEXT
  5
1896A
330
17C66
100
AcDbEntity
  8
寸法
 62
     7
 48
50.0
100
AcDbMText
 10
8550.786103137371
 20
9979.570249698404
 30
0.0
 40
120.0
 41
0.0
 71
     5
 72
     1
  1
\A1;55
  7
STYLE1
 73
     1
 44
1.0
1001
ACAD
1000
MTEXTBEGIN
1070
    73
1070
     1
1070
    44
1040
1.0
1070
    74
1070
     0
1000
MTEXTEND
  0
POINT
  5
1896B
330
17C66
100
AcDbEntity
  8
DEFPOINTS
 62
     0
 48
50.0
100
AcDbPoint
 10
8859.271384511609
 20
9579.570249698404
 30
0.0
  0
POINT
  5
1896C
330
17C66
100
AcDbEntity
  8
DEFPOINTS
 62
     0
 48
50.0
100
AcDbPoint
 10
8914.271384511645
 20
9579.570249698404
 30
0.0
  0
POINT
  5
1896D
330
17C66
100
AcDbEntity
  8
DEFPOINTS
 62
     0
 48
50.0
100
AcDbPoint
 10
8914.271384511645
 20
9879.570249698403
 30
0.0
  0
ENDBLK
  5
17C73
330
17C66
100
AcDbEntity
  8
0
 48
50.0
100
AcDbBlockEnd
  0
BLOCK
  5
17C7E
330
17C74
100
AcDbEntity
  8
0
 48
50.0
100
AcDbBlockBegin
  2
*D23
 70
     1
 10
0.0
 20
0.0
 30
0.0
  3
*D23
  1

  0
LINE
  5
181E6
330
17C74
100
AcDbEntity
  8
寸法
 62
     0
 48
50.0
370
    -2
100
AcDbLine
 10
8959.271384511636
 20
2403.926253444281
 30
0.0
 11
8959.271384511636
 21
2077.878924143902
 31
0.0
  0
LINE
  5
181E7
330
17C74
100
AcDbEntity
  8
寸法
 62
     0
 48
50.0
370
    -2
100
AcDbLine
 10
8759.271384511633
 20
2403.926253444281
 30
0.0
 11
8759.271384511633
 21
2077.878924143902
 31
0.0
  0
LINE
  5
181E8
330
17C74
100
AcDbEntity
  8
寸法
 62
     0
 48
50.0
370
    -2
100
AcDbLine
 10
8959.271384511636
 20
2137.878924143903
 30
0.0
 11
8759.271384511633
 21
2137.878924143903
 31
0.0
  0
INSERT
  5
181E9
330
17C74
100
AcDbEntity
  8
寸法
 62
     0
 48
50.0
370
    -2
100
AcDbBlockReference
  2
_DOTSMALL
 10
8959.271384511636
 20
2137.878924143903
 30
0.0
 41
100.0
 42
100.0
 43
100.0
  0
INSERT
  5
181EA
330
17C74
100
AcDbEntity
  8
寸法
 62
     0
 48
50.0
370
    -2
100
AcDbBlockReference
  2
_DOTSMALL
 10
8759.271384511633
 20
2137.878924143903
 30
0.0
 41
100.0
 42
100.0
 43
100.0
 50
180.0
  0
MTEXT
  5
181EB
330
17C74
100
AcDbEntity
  8
寸法
 62
     7
 48
50.0
100
AcDbMText
 10
8859.271384511634
 20
2237.890735167525
 30
0.0
 40
120.0
 41
0.0
 71
     5
 72
     1
  1
\A1;200
  7
STYLE1
 73
     1
 44
1.0
1001
ACAD
1000
MTEXTBEGIN
1070
    73
1070
     1
1070
    44
1040
1.0
1070
    74
1070
     0
1000
MTEXTEND
  0
POINT
  5
181EC
330
17C74
100
AcDbEntity
  8
DEFPOINTS
 62
     0
 48
50.0
100
AcDbPoint
 10
8959.271384511636
 20
2423.92625344428
 30
0.0
  0
POINT
  5
181ED
330
17C74
100
AcDbEntity
  8
DEFPOINTS
 62
     0
 48
50.0
100
AcDbPoint
 10
8759.271384511633
 20
2423.92625344428
 30
0.0
  0
POINT
  5
181EE
330
17C74
100
AcDbEntity
  8
DEFPOINTS
 62
     0
 48
50.0
100
AcDbPoint
 10
8759.271384511633
 20
2137.878924143903
 30
0.0
  0
ENDBLK
  5
17C7F
330
17C74
100
AcDbEntity
  8
0
 48
50.0
100
AcDbBlockEnd
  0
BLOCK
  5
17C8A
330
17C80
100
AcDbEntity
  8
0
 48
50.0
100
AcDbBlockBegin
  2
*D24
 70
     1
 10
0.0
 20
0.0
 30
0.0
  3
*D24
  1

  0
LINE
  5
181DD
330
17C80
100
AcDbEntity
  8
寸法
 62
     0
 48
50.0
370
    -2
100
AcDbLine
 10
9287.271384511637
 20
4506.92625344428
 30
0.0
 11
8465.888012292628
 21
4506.92625344428
 31
0.0
  0
LINE
  5
181DE
330
17C80
100
AcDbEntity
  8
寸法
 62
     0
 48
50.0
370
    -2
100
AcDbLine
 10
9287.271384511637
 20
2781.926253444281
 30
0.0
 11
8465.888012292628
 21
2781.926253444281
 31
0.0
  0
LINE
  5
181DF
330
17C80
100
AcDbEntity
  8
寸法
 62
     0
 48
50.0
370
    -2
100
AcDbLine
 10
8525.888012292631
 20
4506.92625344428
 30
0.0
 11
8525.888012292627
 21
2781.926253444281
 31
0.0
  0
INSERT
  5
181E0
330
17C80
100
AcDbEntity
  8
寸法
 62
     0
 48
50.0
370
    -2
100
AcDbBlockReference
  2
_DOTSMALL
 10
8525.888012292631
 20
4506.92625344428
 30
0.0
 41
100.0
 42
100.0
 43
100.0
 50
90.0
  0
INSERT
  5
181E1
330
17C80
100
AcDbEntity
  8
寸法
 62
     0
 48
50.0
370
    -2
100
AcDbBlockReference
  2
_DOTSMALL
 10
8525.888012292627
 20
2781.926253444281
 30
0.0
 41
100.0
 42
100.0
 43
100.0
 50
270.0
  0
MTEXT
  5
181E2
330
17C80
100
AcDbEntity
  8
寸法
 62
     7
 48
50.0
100
AcDbMText
 10
8425.876201269005
 20
3638.875197646021
 30
0.0
 40
120.0
 41
0.0
 71
     5
 72
     1
  1
\A1;有効開口部高サ1725
  7
STYLE1
 11
0.0000000000000001
 21
1.0
 31
0.0
 73
     1
 44
1.0
1001
ACAD
1000
MTEXTBEGIN
1070
    73
1070
     1
1070
    44
1040
1.0
1070
    74
1070
     0
1000
MTEXTEND
  0
POINT
  5
181E3
330
17C80
100
AcDbEntity
  8
DEFPOINTS
 62
     0
 48
50.0
100
AcDbPoint
 10
9307.271384511635
 20
4506.92625344428
 30
0.0
  0
POINT
  5
181E4
330
17C80
100
AcDbEntity
  8
DEFPOINTS
 62
     0
 48
50.0
100
AcDbPoint
 10
9307.271384511635
 20
2781.926253444281
 30
0.0
  0
POINT
  5
181E5
330
17C80
100
AcDbEntity
  8
DEFPOINTS
 62
     0
 48
50.0
100
AcDbPoint
 10
8525.888012292627
 20
2781.926253444281
 30
0.0
  0
ENDBLK
  5
17C8B
330
17C80
100
AcDbEntity
  8
0
 48
50.0
100
AcDbBlockEnd
  0
BLOCK
  5
17D3B
330
17D2F
100
AcDbEntity
  8
0
 48
50.0
100
AcDbBlockBegin
  2
*D25
 70
     1
 10
0.0
 20
0.0
 30
0.0
  3
*D25
  1

  0
LINE
  5
189BA
330
17D2F
100
AcDbEntity
  8
寸法
 62
     0
 48
50.0
370
    -2
100
AcDbLine
 10
11509.27138451164
 20
9579.570249698496
 30
0.0
 11
12249.27138451163
 21
9579.570249698496
 31
0.0
  0
LINE
  5
189BB
330
17D2F
100
AcDbEntity
  8
寸法
 62
     0
 48
50.0
370
    -2
100
AcDbLine
 10
11509.27138451164
 20
9524.570249698502
 30
0.0
 11
12249.27138451163
 21
9524.570249698502
 31
0.0
  0
LINE
  5
189BC
330
17D2F
100
AcDbEntity
  8
寸法
 62
     0
 48
50.0
370
    -2
100
AcDbLine
 10
12189.27138451163
 20
9524.570249698502
 30
0.0
 11
12189.27138451163
 21
9424.570249698502
 31
0.0
  0
LINE
  5
189BD
330
17D2F
100
AcDbEntity
  8
寸法
 62
     0
 48
50.0
370
    -2
100
AcDbLine
 10
12189.27138451163
 20
9579.570249698496
 30
0.0
 11
12189.27138451163
 21
9996.540812446975
 31
0.0
  0
LINE
  5
189BE
330
17D2F
100
AcDbEntity
  8
寸法
 62
     0
 48
50.0
370
    -2
100
AcDbLine
 10
12189.27138451163
 20
9524.570249698502
 30
0.0
 11
12189.27138451163
 21
9579.570249698496
 31
0.0
  0
INSERT
  5
189BF
330
17D2F
100
AcDbEntity
  8
寸法
 62
     0
 48
50.0
370
    -2
100
AcDbBlockReference
  2
_DOTSMALL
 10
12189.27138451163
 20
9524.570249698502
 30
0.0
 41
100.0
 42
100.0
 43
100.0
 50
90.0
  0
INSERT
  5
189C0
330
17D2F
100
AcDbEntity
  8
寸法
 62
     0
 48
50.0
370
    -2
100
AcDbBlockReference
  2
_DOTSMALL
 10
12189.27138451163
 20
9579.570249698496
 30
0.0
 41
100.0
 42
100.0
 43
100.0
 50
270.0
  0
MTEXT
  5
189C1
330
17D2F
100
AcDbEntity
  8
寸法
 62
     7
 48
50.0
100
AcDbMText
 10
12089.27138451163
 20
9888.055531072737
 30
0.0
 40
120.0
 41
0.0
 71
     5
 72
     1
  1
\A1;55
  7
STYLE1
 11
0.0000000000000001
 21
1.0
 31
0.0
 73
     1
 44
1.0
1001
ACAD
1000
MTEXTBEGIN
1070
    73
1070
     1
1070
    44
1040
1.0
1070
    74
1070
     0
1000
MTEXTEND
  0
POINT
  5
189C2
330
17D2F
100
AcDbEntity
  8
DEFPOINTS
 62
     0
 48
50.0
100
AcDbPoint
 10
11489.27138451164
 20
9579.570249698496
 30
0.0
  0
POINT
  5
189C3
330
17D2F
100
AcDbEntity
  8
DEFPOINTS
 62
     0
 48
50.0
100
AcDbPoint
 10
11489.27138451164
 20
9524.570249698502
 30
0.0
  0
POINT
  5
189C4
330
17D2F
100
AcDbEntity
  8
DEFPOINTS
 62
     0
 48
50.0
100
AcDbPoint
 10
12189.27138451163
 20
9524.570249698502
 30
0.0
  0
ENDBLK
  5
17D3C
330
17D2F
100
AcDbEntity
  8
0
 48
50.0
100
AcDbBlockEnd
  0
BLOCK
  5
17D47
330
17D3D
100
AcDbEntity
  8
0
 48
50.0
100
AcDbBlockBegin
  2
*D26
 70
     1
 10
0.0
 20
0.0
 30
0.0
  3
*D26
  1

  0
LINE
  5
189B1
330
17D3D
100
AcDbEntity
  8
寸法
 62
     0
 48
50.0
370
    -2
100
AcDbLine
 10
11480.77138451164
 20
9544.211265849876
 30
0.0
 11
11949.27138451164
 21
9418.677069195895
 31
0.0
  0
LINE
  5
189B2
330
17D3D
100
AcDbEntity
  8
寸法
 62
     0
 48
50.0
370
    -2
100
AcDbLine
 10
11480.77138451164
 20
9094.211265849878
 30
0.0
 11
11949.27138451164
 21
8968.6770691959
 31
0.0
  0
LINE
  5
189B3
330
17D3D
100
AcDbEntity
  8
寸法
 62
     0
 48
50.0
370
    -2
100
AcDbLine
 10
11889.27138451164
 20
9434.754020741761
 30
0.0
 11
11889.27138451164
 21
8984.754020741766
 31
0.0
  0
INSERT
  5
189B4
330
17D3D
100
AcDbEntity
  8
寸法
 62
     0
 48
50.0
370
    -2
100
AcDbBlockReference
  2
_DOTSMALL
 10
11889.27138451164
 20
9434.754020741761
 30
0.0
 41
100.0
 42
100.0
 43
100.0
 50
90.0
  0
INSERT
  5
189B5
330
17D3D
100
AcDbEntity
  8
寸法
 62
     0
 48
50.0
370
    -2
100
AcDbBlockReference
  2
_DOTSMALL
 10
11889.27138451164
 20
8984.754020741766
 30
0.0
 41
100.0
 42
100.0
 43
100.0
 50
270.0
  0
MTEXT
  5
189B6
330
17D3D
100
AcDbEntity
  8
寸法
 62
     7
 48
50.0
100
AcDbMText
 10
11789.27138451164
 20
9209.754020741764
 30
0.0
 40
120.0
 41
0.0
 71
     5
 72
     1
  1
\A1;450
  7
STYLE1
 11
0.0000000000000001
 21
1.0
 31
0.0
 73
     1
 44
1.0
1001
ACAD
1000
MTEXTBEGIN
1070
    73
1070
     1
1070
    44
1040
1.0
1070
    74
1070
     0
1000
MTEXTEND
  0
POINT
  5
189B7
330
17D3D
100
AcDbEntity
  8
DEFPOINTS
 62
     0
 48
50.0
100
AcDbPoint
 10
11460.77138451164
 20
9549.570249698497
 30
0.0
  0
POINT
  5
189B8
330
17D3D
100
AcDbEntity
  8
DEFPOINTS
 62
     0
 48
50.0
100
AcDbPoint
 10
11460.77138451164
 20
9099.570249698501
 30
0.0
  0
POINT
  5
189B9
330
17D3D
100
AcDbEntity
  8
DEFPOINTS
 62
     0
 48
50.0
100
AcDbPoint
 10
11889.27138451164
 20
8984.754020741766
 30
0.0
  0
ENDBLK
  5
17D48
330
17D3D
100
AcDbEntity
  8
0
 48
50.0
100
AcDbBlockEnd
  0
BLOCK
  5
17D55
330
17D49
100
AcDbEntity
  8
0
 48
50.0
100
AcDbBlockBegin
  2
*D27
 70
     1
 10
0.0
 20
0.0
 30
0.0
  3
*D27
  1

  0
LINE
  5
189A6
330
17D49
100
AcDbEntity
  8
寸法
 62
     0
 48
50.0
370
    -2
100
AcDbLine
 10
11509.27138451162
 20
7844.570249698484
 30
0.0
 11
12249.27138451162
 21
7844.570249698484
 31
0.0
  0
LINE
  5
189A7
330
17D49
100
AcDbEntity
  8
寸法
 62
     0
 48
50.0
370
    -2
100
AcDbLine
 10
11509.27138451162
 20
7789.570249698487
 30
0.0
 11
12249.27138451162
 21
7789.570249698487
 31
0.0
  0
LINE
  5
189A8
330
17D49
100
AcDbEntity
  8
寸法
 62
     0
 48
50.0
370
    -2
100
AcDbLine
 10
12189.27138451162
 20
7844.570249698484
 30
0.0
 11
12189.27138451162
 21
7944.570249698483
 31
0.0
  0
LINE
  5
189A9
330
17D49
100
AcDbEntity
  8
寸法
 62
     0
 48
50.0
370
    -2
100
AcDbLine
 10
12189.27138451162
 20
7789.570249698487
 30
0.0
 11
12189.27138451162
 21
7372.599686949995
 31
0.0
  0
LINE
  5
189AA
330
17D49
100
AcDbEntity
  8
寸法
 62
     0
 48
50.0
370
    -2
100
AcDbLine
 10
12189.27138451162
 20
7844.570249698484
 30
0.0
 11
12189.27138451162
 21
7789.570249698487
 31
0.0
  0
INSERT
  5
189AB
330
17D49
100
AcDbEntity
  8
寸法
 62
     0
 48
50.0
370
    -2
100
AcDbBlockReference
  2
_DOTSMALL
 10
12189.27138451162
 20
7844.570249698484
 30
0.0
 41
100.0
 42
100.0
 43
100.0
 50
270.0
  0
INSERT
  5
189AC
330
17D49
100
AcDbEntity
  8
寸法
 62
     0
 48
50.0
370
    -2
100
AcDbBlockReference
  2
_DOTSMALL
 10
12189.27138451162
 20
7789.570249698487
 30
0.0
 41
100.0
 42
100.0
 43
100.0
 50
90.0
  0
MTEXT
  5
189AD
330
17D49
100
AcDbEntity
  8
寸法
 62
     7
 48
50.0
100
AcDbMText
 10
12089.27138451162
 20
7481.084968324236
 30
0.0
 40
120.0
 41
0.0
 71
     5
 72
     1
  1
\A1;55
  7
STYLE1
 11
0.0000000000000001
 21
1.0
 31
0.0
 73
     1
 44
1.0
1001
ACAD
1000
MTEXTBEGIN
1070
    73
1070
     1
1070
    44
1040
1.0
1070
    74
1070
     0
1000
MTEXTEND
  0
POINT
  5
189AE
330
17D49
100
AcDbEntity
  8
DEFPOINTS
 62
     0
 48
50.0
100
AcDbPoint
 10
11489.27138451162
 20
7844.570249698484
 30
0.0
  0
POINT
  5
189AF
330
17D49
100
AcDbEntity
  8
DEFPOINTS
 62
     0
 48
50.0
100
AcDbPoint
 10
11489.27138451162
 20
7789.570249698487
 30
0.0
  0
POINT
  5
189B0
330
17D49
100
AcDbEntity
  8
DEFPOINTS
 62
     0
 48
50.0
100
AcDbPoint
 10
12189.27138451162
 20
7789.570249698487
 30
0.0
  0
ENDBLK
  5
17D56
330
17D49
100
AcDbEntity
  8
0
 48
50.0
100
AcDbBlockEnd
  0
BLOCK
  5
17D61
330
17D57
100
AcDbEntity
  8
0
 48
50.0
100
AcDbBlockBegin
  2
*D28
 70
     1
 10
0.0
 20
0.0
 30
0.0
  3
*D28
  1

  0
LINE
  5
1899D
330
17D57
100
AcDbEntity
  8
寸法
 62
     0
 48
50.0
370
    -2
100
AcDbLine
 10
11509.27138451164
 20
9524.570249698502
 30
0.0
 11
12249.27138451163
 21
9524.570249698502
 31
0.0
  0
LINE
  5
1899E
330
17D57
100
AcDbEntity
  8
寸法
 62
     0
 48
50.0
370
    -2
100
AcDbLine
 10
11509.27138451162
 20
7844.570249698484
 30
0.0
 11
12249.27138451163
 21
7844.570249698484
 31
0.0
  0
LINE
  5
1899F
330
17D57
100
AcDbEntity
  8
寸法
 62
     0
 48
50.0
370
    -2
100
AcDbLine
 10
12189.27138451163
 20
9524.570249698502
 30
0.0
 11
12189.27138451163
 21
7844.570249698484
 31
0.0
  0
INSERT
  5
189A0
330
17D57
100
AcDbEntity
  8
寸法
 62
     0
 48
50.0
370
    -2
100
AcDbBlockReference
  2
_DOTSMALL
 10
12189.27138451163
 20
9524.570249698502
 30
0.0
 41
100.0
 42
100.0
 43
100.0
 50
90.0
  0
INSERT
  5
189A1
330
17D57
100
AcDbEntity
  8
寸法
 62
     0
 48
50.0
370
    -2
100
AcDbBlockReference
  2
_DOTSMALL
 10
12189.27138451163
 20
7844.570249698484
 30
0.0
 41
100.0
 42
100.0
 43
100.0
 50
270.0
  0
MTEXT
  5
189A2
330
17D57
100
AcDbEntity
  8
寸法
 62
     7
 48
50.0
100
AcDbMText
 10
12089.25957348801
 20
8684.570249698493
 30
0.0
 40
120.0
 41
0.0
 71
     5
 72
     1
  1
\A1;4X420=1680
  7
STYLE1
 11
0.0000000000000001
 21
1.0
 31
0.0
 73
     1
 44
1.0
1001
ACAD
1000
MTEXTBEGIN
1070
    73
1070
     1
1070
    44
1040
1.0
1070
    74
1070
     0
1000
MTEXTEND
  0
POINT
  5
189A3
330
17D57
100
AcDbEntity
  8
DEFPOINTS
 62
     0
 48
50.0
100
AcDbPoint
 10
11489.27138451164
 20
9524.570249698502
 30
0.0
  0
POINT
  5
189A4
330
17D57
100
AcDbEntity
  8
DEFPOINTS
 62
     0
 48
50.0
100
AcDbPoint
 10
11489.27138451162
 20
7844.570249698484
 30
0.0
  0
POINT
  5
189A5
330
17D57
100
AcDbEntity
  8
DEFPOINTS
 62
     0
 48
50.0
100
AcDbPoint
 10
12189.27138451163
 20
7844.570249698484
 30
0.0
  0
ENDBLK
  5
17D62
330
17D57
100
AcDbEntity
  8
0
 48
50.0
100
AcDbBlockEnd
  0
BLOCK
  5
17D6D
330
17D63
100
AcDbEntity
  8
0
 48
50.0
100
AcDbBlockBegin
  2
*D29
 70
     1
 10
0.0
 20
0.0
 30
0.0
  3
*D29
  1

  0
LINE
  5
18994
330
17D63
100
AcDbEntity
  8
寸法
 62
     0
 48
50.0
370
    -2
100
AcDbLine
 10
11509.27138451164
 20
9579.570249698496
 30
0.0
 11
12549.27138451165
 21
9579.570249698496
 31
0.0
  0
LINE
  5
18995
330
17D63
100
AcDbEntity
  8
寸法
 62
     0
 48
50.0
370
    -2
100
AcDbLine
 10
11509.27138451162
 20
7789.570249698487
 30
0.0
 11
12549.27138451165
 21
7789.570249698487
 31
0.0
  0
LINE
  5
18996
330
17D63
100
AcDbEntity
  8
寸法
 62
     0
 48
50.0
370
    -2
100
AcDbLine
 10
12489.27138451165
 20
9579.570249698496
 30
0.0
 11
12489.27138451165
 21
7789.570249698487
 31
0.0
  0
INSERT
  5
18997
330
17D63
100
AcDbEntity
  8
寸法
 62
     0
 48
50.0
370
    -2
100
AcDbBlockReference
  2
_DOTSMALL
 10
12489.27138451165
 20
9579.570249698496
 30
0.0
 41
100.0
 42
100.0
 43
100.0
 50
90.0
  0
INSERT
  5
18998
330
17D63
100
AcDbEntity
  8
寸法
 62
     0
 48
50.0
370
    -2
100
AcDbBlockReference
  2
_DOTSMALL
 10
12489.27138451165
 20
7789.570249698487
 30
0.0
 41
100.0
 42
100.0
 43
100.0
 50
270.0
  0
MTEXT
  5
18999
330
17D63
100
AcDbEntity
  8
寸法
 62
     7
 48
50.0
100
AcDbMText
 10
12389.27138451164
 20
8684.570249698493
 30
0.0
 40
120.0
 41
0.0
 71
     5
 72
     1
  1
\A1;1790
  7
STYLE1
 11
0.0000000000000001
 21
1.0
 31
0.0
 73
     1
 44
1.0
1001
ACAD
1000
MTEXTBEGIN
1070
    73
1070
     1
1070
    44
1040
1.0
1070
    74
1070
     0
1000
MTEXTEND
  0
POINT
  5
1899A
330
17D63
100
AcDbEntity
  8
DEFPOINTS
 62
     0
 48
50.0
100
AcDbPoint
 10
11489.27138451164
 20
9579.570249698496
 30
0.0
  0
POINT
  5
1899B
330
17D63
100
AcDbEntity
  8
DEFPOINTS
 62
     0
 48
50.0
100
AcDbPoint
 10
11489.27138451162
 20
7789.570249698487
 30
0.0
  0
POINT
  5
1899C
330
17D63
100
AcDbEntity
  8
DEFPOINTS
 62
     0
 48
50.0
100
AcDbPoint
 10
12489.27138451165
 20
7789.570249698487
 30
0.0
  0
ENDBLK
  5
17D6E
330
17D63
100
AcDbEntity
  8
0
 48
50.0
100
AcDbBlockEnd
  0
BLOCK
  5
184C3
330
184B9
100
AcDbEntity
  8
0
 48
50.0
100
AcDbBlockBegin
  2
*D30
 70
     1
 10
0.0
 20
0.0
 30
0.0
  3
*D30
  1

  0
LINE
  5
1895A
330
184B9
100
AcDbEntity
  8
寸法
 62
     0
 48
50.0
370
    -2
100
AcDbLine
 10
9346.271384511613
 20
7692.570249698362
 30
0.0
 11
9346.271384511613
 21
7022.567001796561
 31
0.0
  0
LINE
  5
1895B
330
184B9
100
AcDbEntity
  8
寸法
 62
     0
 48
50.0
370
    -2
100
AcDbLine
 10
10612.27138451161
 20
7692.570249698362
 30
0.0
 11
10612.27138451161
 21
7022.567001796561
 31
0.0
  0
LINE
  5
1895C
330
184B9
100
AcDbEntity
  8
寸法
 62
     0
 48
50.0
370
    -2
100
AcDbLine
 10
9366.271384511613
 20
7062.56700179656
 30
0.0
 11
10592.27138451161
 21
7062.56700179656
 31
0.0
  0
INSERT
  5
1895D
330
184B9
100
AcDbEntity
  8
寸法
 62
     0
 48
50.0
370
    -2
100
AcDbBlockReference
  2
_DOT
 10
9346.271384511613
 20
7062.56700179656
 30
0.0
 41
20.0
 42
20.0
 43
20.0
 50
180.0
  0
INSERT
  5
1895E
330
184B9
100
AcDbEntity
  8
寸法
 62
     0
 48
50.0
370
    -2
100
AcDbBlockReference
  2
_DOT
 10
10612.27138451161
 20
7062.56700179656
 30
0.0
 41
20.0
 42
20.0
 43
20.0
  0
MTEXT
  5
1895F
330
184B9
100
AcDbEntity
  8
寸法
 62
     7
 48
50.0
100
AcDbMText
 10
9981.897824766836
 20
7254.578812820182
 30
0.0
 40
120.0
 41
0.0
 71
     5
 72
     1
  1
\A1;有効開口部間口\P1266
  7
STYLE1
 73
     1
 44
1.0
1001
ACAD
1000
MTEXTBEGIN
1070
    73
1070
     1
1070
    44
1040
1.0
1070
    74
1070
     0
1000
MTEXTEND
  0
POINT
  5
18960
330
184B9
100
AcDbEntity
  8
DEFPOINTS
 62
     0
 48
50.0
100
AcDbPoint
 10
9346.271384511613
 20
7712.570249698362
 30
0.0
  0
POINT
  5
18961
330
184B9
100
AcDbEntity
  8
DEFPOINTS
 62
     0
 48
50.0
100
AcDbPoint
 10
10612.27138451161
 20
7712.570249698362
 30
0.0
  0
POINT
  5
18962
330
184B9
100
AcDbEntity
  8
DEFPOINTS
 62
     0
 48
50.0
100
AcDbPoint
 10
10612.27138451161
 20
7062.56700179656
 30
0.0
  0
ENDBLK
  5
184C4
330
184B9
100
AcDbEntity
  8
0
 48
50.0
100
AcDbBlockEnd
  0
BLOCK
  5
187EF
330
187E5
100
AcDbEntity
  8
0
 48
50.0
100
AcDbBlockBegin
  2
*D31
 70
     1
 10
0.0
 20
0.0
 30
0.0
  3
*D31
  1

  0
LINE
  5
18951
330
187E5
100
AcDbEntity
  8
寸法
 62
     0
 48
50.0
370
    -2
100
AcDbLine
 10
9307.271384511613
 20
7692.570249698359
 30
0.0
 11
9307.271384511613
 21
6714.714880309033
 31
0.0
  0
LINE
  5
18952
330
187E5
100
AcDbEntity
  8
寸法
 62
     0
 48
50.0
370
    -2
100
AcDbLine
 10
11461.27138451161
 20
7692.570249698359
 30
0.0
 11
11461.27138451161
 21
6714.714880309033
 31
0.0
  0
LINE
  5
18953
330
187E5
100
AcDbEntity
  8
寸法
 62
     0
 48
50.0
370
    -2
100
AcDbLine
 10
9307.271384511613
 20
6774.714880309033
 30
0.0
 11
11461.27138451161
 21
6774.714880309033
 31
0.0
  0
INSERT
  5
18954
330
187E5
100
AcDbEntity
  8
寸法
 62
     0
 48
50.0
370
    -2
100
AcDbBlockReference
  2
_DOTSMALL
 10
9307.271384511613
 20
6774.714880309033
 30
0.0
 41
100.0
 42
100.0
 43
100.0
 50
180.0
  0
INSERT
  5
18955
330
187E5
100
AcDbEntity
  8
寸法
 62
     0
 48
50.0
370
    -2
100
AcDbBlockReference
  2
_DOTSMALL
 10
11461.27138451161
 20
6774.714880309033
 30
0.0
 41
100.0
 42
100.0
 43
100.0
  0
MTEXT
  5
18956
330
187E5
100
AcDbEntity
  8
寸法
 62
     7
 48
50.0
100
AcDbMText
 10
10386.07135578205
 20
6874.726691332655
 30
0.0
 40
120.0
 41
0.0
 71
     5
 72
     1
  1
\A1;2154
  7
STYLE1
 73
     1
 44
1.0
1001
ACAD
1000
MTEXTBEGIN
1070
    73
1070
     1
1070
    44
1040
1.0
1070
    74
1070
     0
1000
MTEXTEND
  0
POINT
  5
18957
330
187E5
100
AcDbEntity
  8
DEFPOINTS
 62
     0
 48
50.0
100
AcDbPoint
 10
9307.271384511613
 20
7712.570249698359
 30
0.0
  0
POINT
  5
18958
330
187E5
100
AcDbEntity
  8
DEFPOINTS
 62
     0
 48
50.0
100
AcDbPoint
 10
11461.27138451161
 20
7712.570249698359
 30
0.0
  0
POINT
  5
18959
330
187E5
100
AcDbEntity
  8
DEFPOINTS
 62
     0
 48
50.0
100
AcDbPoint
 10
11461.27138451161
 20
6774.714880309033
 30
0.0
  0
ENDBLK
  5
187F0
330
187E5
100
AcDbEntity
  8
0
 48
50.0
100
AcDbBlockEnd
  0
BLOCK
  5
187FD
330
187F1
100
AcDbEntity
  8
0
 48
50.0
100
AcDbBlockBegin
  2
*D32
 70
     1
 10
0.0
 20
0.0
 30
0.0
  3
*D32
  1

  0
LINE
  5
18946
330
187F1
100
AcDbEntity
  8
寸法
 62
     0
 48
50.0
370
    -2
100
AcDbLine
 10
8839.271384511638
 20
7789.570249698356
 30
0.0
 11
8524.660138884922
 21
7789.570249698356
 31
0.0
  0
LINE
  5
18947
330
187F1
100
AcDbEntity
  8
寸法
 62
     0
 48
50.0
370
    -2
100
AcDbLine
 10
9287.271384511612
 20
7714.570249698356
 30
0.0
 11
8524.660138884922
 21
7714.570249698356
 31
0.0
  0
LINE
  5
18948
330
187F1
100
AcDbEntity
  8
寸法
 62
     0
 48
50.0
370
    -2
100
AcDbLine
 10
8564.660138884923
 20
7809.570249698357
 30
0.0
 11
8564.660138884923
 21
7829.570249698356
 31
0.0
  0
LINE
  5
18949
330
187F1
100
AcDbEntity
  8
寸法
 62
     0
 48
50.0
370
    -2
100
AcDbLine
 10
8564.660138884923
 20
7694.570249698355
 30
0.0
 11
8564.660138884923
 21
7473.599686949878
 31
0.0
  0
LINE
  5
1894A
330
187F1
100
AcDbEntity
  8
寸法
 62
     0
 48
50.0
370
    -2
100
AcDbLine
 10
8564.660138884923
 20
7789.570249698356
 30
0.0
 11
8564.660138884923
 21
7714.570249698356
 31
0.0
  0
INSERT
  5
1894B
330
187F1
100
AcDbEntity
  8
寸法
 62
     0
 48
50.0
370
    -2
100
AcDbBlockReference
  2
_DOT
 10
8564.660138884923
 20
7789.570249698356
 30
0.0
 41
20.0
 42
20.0
 43
20.0
 50
270.0
  0
INSERT
  5
1894C
330
187F1
100
AcDbEntity
  8
寸法
 62
     0
 48
50.0
370
    -2
100
AcDbBlockReference
  2
_DOT
 10
8564.660138884923
 20
7714.570249698356
 30
0.0
 41
20.0
 42
20.0
 43
20.0
 50
90.0
  0
MTEXT
  5
1894D
330
187F1
100
AcDbEntity
  8
寸法
 62
     7
 48
50.0
100
AcDbMText
 10
8472.660138884918
 20
7574.084968324118
 30
0.0
 40
120.0
 41
0.0
 71
     5
 72
     1
  1
\A1;75
  7
STYLE1
 11
0.0000000000000001
 21
1.0
 31
0.0
 73
     1
 44
1.0
1001
ACAD
1000
MTEXTBEGIN
1070
    73
1070
     1
1070
    44
1040
1.0
1070
    74
1070
     0
1000
MTEXTEND
  0
POINT
  5
1894E
330
187F1
100
AcDbEntity
  8
DEFPOINTS
 62
     0
 48
50.0
100
AcDbPoint
 10
8859.271384511638
 20
7789.570249698356
 30
0.0
  0
POINT
  5
1894F
330
187F1
100
AcDbEntity
  8
DEFPOINTS
 62
     0
 48
50.0
100
AcDbPoint
 10
9307.271384511613
 20
7714.570249698356
 30
0.0
  0
POINT
  5
18950
330
187F1
100
AcDbEntity
  8
DEFPOINTS
 62
     0
 48
50.0
100
AcDbPoint
 10
8564.660138884923
 20
7714.570249698356
 30
0.0
  0
ENDBLK
  5
187FE
330
187F1
100
AcDbEntity
  8
0
 48
50.0
100
AcDbBlockEnd
  0
BLOCK
  5
18861
330
18857
100
AcDbEntity
  8
0
 48
50.0
100
AcDbBlockBegin
  2
*D33
 70
     1
 10
0.0
 20
0.0
 30
0.0
  3
*D33
  1

  0
LINE
  5
1893D
330
18857
100
AcDbEntity
  8
寸法
 62
     0
 48
50.0
370
    -2
100
AcDbLine
 10
8859.271384511638
 20
7769.570249698323
 30
0.0
 11
8859.271384511638
 21
6448.373292417355
 31
0.0
  0
LINE
  5
1893E
330
18857
100
AcDbEntity
  8
寸法
 62
     0
 48
50.0
370
    -2
100
AcDbLine
 10
11489.27138451162
 20
7769.570249698486
 30
0.0
 11
11489.27138451162
 21
6448.373292417355
 31
0.0
  0
LINE
  5
1893F
330
18857
100
AcDbEntity
  8
寸法
 62
     0
 48
50.0
370
    -2
100
AcDbLine
 10
8859.271384511638
 20
6508.373292417354
 30
0.0
 11
11489.27138451162
 21
6508.373292417354
 31
0.0
  0
INSERT
  5
18940
330
18857
100
AcDbEntity
  8
寸法
 62
     0
 48
50.0
370
    -2
100
AcDbBlockReference
  2
_DOTSMALL
 10
8859.271384511638
 20
6508.373292417354
 30
0.0
 41
100.0
 42
100.0
 43
100.0
 50
180.0
  0
INSERT
  5
18941
330
18857
100
AcDbEntity
  8
寸法
 62
     0
 48
50.0
370
    -2
100
AcDbBlockReference
  2
_DOTSMALL
 10
11489.27138451162
 20
6508.373292417354
 30
0.0
 41
100.0
 42
100.0
 43
100.0
  0
MTEXT
  5
18942
330
18857
100
AcDbEntity
  8
寸法
 62
     7
 48
50.0
100
AcDbMText
 10
10158.71072921416
 20
6608.385103440976
 30
0.0
 40
120.0
 41
0.0
 71
     5
 72
     1
  1
\A1;2630
  7
STYLE1
 73
     1
 44
1.0
1001
ACAD
1000
MTEXTBEGIN
1070
    73
1070
     1
1070
    44
1040
1.0
1070
    74
1070
     0
1000
MTEXTEND
  0
POINT
  5
18943
330
18857
100
AcDbEntity
  8
DEFPOINTS
 62
     0
 48
50.0
100
AcDbPoint
 10
8859.271384511638
 20
7789.570249698323
 30
0.0
  0
POINT
  5
18944
330
18857
100
AcDbEntity
  8
DEFPOINTS
 62
     0
 48
50.0
100
AcDbPoint
 10
11489.27138451162
 20
7789.570249698487
 30
0.0
  0
POINT
  5
18945
330
18857
100
AcDbEntity
  8
DEFPOINTS
 62
     0
 48
50.0
100
AcDbPoint
 10
11489.27138451162
 20
6508.373292417354
 30
0.0
  0
ENDBLK
  5
18862
330
18857
100
AcDbEntity
  8
0
 48
50.0
100
AcDbBlockEnd
  0
ENDSEC
  0
SECTION
  2
ENTITIES
  0
LINE
  5
10B57
330
747D
100
AcDbEntity
  8
補助
  6
PHANTOM
 62
   230
 48
50.0
100
AcDbLine
 10
139.9999999999995
 20
11409.6
 30
0.0
 11
16307.2
 21
11409.6
 31
0.0
  0
LINE
  5
10B59
330
747D
100
AcDbEntity
  8
仕様書枠
  6
Continuous
 48
50.0
100
AcDbLine
 10
13107.2
 20
1200.0
 30
0.0
 11
13107.2
 21
-0.0000000000000729
 31
0.0
  0
LINE
  5
10B5C
330
747D
100
AcDbEntity
  8
仕様書枠
 48
50.0
100
AcDbLine
 10
16307.2
 20
1200.0
 30
0.0
 11
16307.2
 21
-0.0000000000000909
 31
0.0
  0
LINE
  5
10B5D
330
747D
100
AcDbEntity
  8
仕様書枠
 48
50.0
100
AcDbLine
 10
140.0
 20
0.0
 30
0.0
 11
16307.2
 21
-0.0000000000000909
 31
0.0
  0
LINE
  5
10B5E
330
747D
100
AcDbEntity
  8
補助
  6
PHANTOM
 62
   230
 48
50.0
100
AcDbLine
 10
16307.2
 20
11409.6
 30
0.0
 11
16307.2
 21
1200.0
 31
0.0
  0
LINE
  5
10B6C
330
747D
100
AcDbEntity
  8
仕様書枠
 48
50.0
100
AcDbLine
 10
13107.2
 20
1200.0
 30
0.0
 11
16307.2
 21
1200.0
 31
0.0
  0
LINE
  5
10B6D
330
747D
100
AcDbEntity
  8
補助
  6
PHANTOM
 62
   230
 48
50.0
100
AcDbLine
 10
13107.2
 20
11409.6
 30
0.0
 11
13107.2
 21
4800.0
 31
0.0
  0
LINE
  5
10B6F
330
747D
100
AcDbEntity
  8
補助
  6
PHANTOM
 62
   230
 48
50.0
100
AcDbLine
 10
13107.2
 20
4800.0
 30
0.0
 11
16307.2
 21
4800.0
 31
0.0
  0
LINE
  5
10B72
330
747D
100
AcDbEntity
  8
文字
 62
     7
 48
50.0
100
AcDbLine
 10
13187.2
 20
400.0
 30
0.0
 11
16227.2
 21
400.0
 31
0.0
  0
TEXT
  5
10B73
330
747D
100
AcDbEntity
  8
文字
 62
     7
 48
50.0
100
AcDbText
 10
13162.9790565769
 20
895.0906074299405
 30
0.0
 40
200.0
  1
外 形 図
  7
STYLE2
100
AcDbText
  0
TEXT
  5
10B74
330
747D
100
AcDbEntity
  8
文字
 62
     7
 48
50.0
100
AcDbText
 10
13201.43669998441
 20
477.2740661031255
 30
0.0
 40
160.0
  1
機種名
  7
STYLE2
100
AcDbText
  0
TEXT
  5
10B76
330
747D
100
AcDbEntity
  8
文字
 62
     7
 48
50.0
100
AcDbText
 10
13209.4053442172
 20
76.09434707649343
 30
0.0
 40
100.0
  1
○床面積 ： 4.87㎡(1.48坪) 　
  7
STYLE2
100
AcDbText
  0
TEXT
  5
10B79
330
747D
100
AcDbEntity
  8
文字
 62
     7
 48
50.0
100
AcDbText
 10
14524.131837222
 20
1031.557706291228
 30
0.0
 40
100.0
  1
NO.20      <縮尺> S=1/40
  7
STYLE2
100
AcDbText
  0
LINE
  5
10B7B
330
747D
100
AcDbEntity
  8
仕様書枠
 48
50.0
100
AcDbLine
 10
13107.2
 20
800.0
 30
0.0
 11
14251.2
 21
800.0
 31
0.0
  0
LINE
  5
10B88
330
747D
100
AcDbEntity
  8
仕様書枠
  6
Continuous
 48
50.0
100
AcDbLine
 10
14251.2
 20
1200.0
 30
0.0
 11
14251.2
 21
800.0
 31
0.0
  0
TEXT
  5
154D3
330
747D
100
AcDbEntity
  8
文字
 62
     7
 48
50.0
100
AcDbText
 10
14643.63059855437
 20
863.0097378581719
 30
0.0
 40
100.0
  1
～一般型・多雪地型～
  7
STYLE2
100
AcDbText
  0
LINE
  5
16D7C
330
747D
100
AcDbEntity
  8
部品1
100
AcDbLine
 10
5142.811038414096
 20
2723.926253444281
 30
0.0
 11
5142.811038414096
 21
2623.926253444281
 31
0.0
  0
LINE
  5
16D7D
330
747D
100
AcDbEntity
  8
部品1
 48
50.0
100
AcDbLine
 10
5737.811038414097
 20
2723.926253444281
 30
0.0
 11
5737.811038414097
 21
2623.926253444281
 31
0.0
  0
LINE
  5
16D7E
330
747D
100
AcDbEntity
  8
部品1
 48
50.0
100
AcDbLine
 10
5937.811038414096
 20
2723.926253444281
 30
0.0
 11
5937.811038414096
 21
2623.926253444281
 31
0.0
  0
LINE
  5
16D7F
330
747D
100
AcDbEntity
  8
部品1
100
AcDbLine
 10
6532.811038414097
 20
2723.926253444281
 30
0.0
 11
6532.811038414097
 21
2623.926253444281
 31
0.0
  0
LINE
  5
16D80
330
747D
100
AcDbEntity
  8
部品1
 48
50.0
100
AcDbLine
 10
6809.8110384141
 20
2723.926253444281
 30
0.0
 11
6725.311038414099
 21
2723.926253444281
 31
0.0
  0
LINE
  5
16D81
330
747D
100
AcDbEntity
  8
部品1
 48
50.0
100
AcDbLine
 10
6809.8110384141
 20
4548.926253444281
 30
0.0
 11
6809.8110384141
 21
2623.926253444281
 31
0.0
  0
LINE
  5
16D82
330
747D
100
AcDbEntity
  8
部品1
 48
50.0
100
AcDbLine
 10
6732.8110384141
 20
4558.92625344428
 30
0.0
 11
6809.8110384141
 21
4548.926253444281
 31
0.0
  0
LINE
  5
16D83
330
747D
100
AcDbEntity
  8
破線
 48
5.0
100
AcDbLine
 10
6605.311038414104
 20
2623.926253444281
 30
0.0
 11
6605.311038414104
 21
2423.92625344428
 31
0.0
  0
LINE
  5
16D84
330
747D
100
AcDbEntity
  8
破線
 48
5.0
100
AcDbLine
 10
6805.3110384141
 20
2423.926253444279
 30
0.0
 11
6605.311038414104
 21
2423.92625344428
 31
0.0
  0
LINE
  5
16D85
330
747D
100
AcDbEntity
  8
破線
 48
5.0
100
AcDbLine
 10
6805.311038414103
 20
2623.926253444281
 30
0.0
 11
6805.3110384141
 21
2423.926253444279
 31
0.0
  0
DIMENSION
  5
16D86
330
747D
100
AcDbEntity
  8
寸法
 48
50.0
100
AcDbDimension
  2
*D2
 10
4870.3110384141
 20
2137.878924143903
 30
0.0
 11
4970.311038414099
 21
2137.878924143903
 31
0.0
 70
   160
 71
     5
 42
199.9999999999963
  3
INABA_S40G
100
AcDbAlignedDimension
 13
5070.311038414097
 23
2423.926253444277
 33
0.0
 14
4870.3110384141
 24
2423.92625344428
 34
0.0
100
AcDbRotatedDimension
  0
LINE
  5
16D87
330
747D
100
AcDbEntity
  8
破線
 48
5.0
100
AcDbLine
 10
4870.311038414096
 20
2623.926253444281
 30
0.0
 11
4870.3110384141
 21
2423.926253444279
 31
0.0
  0
LINE
  5
16D88
330
747D
100
AcDbEntity
  8
破線
 48
5.0
100
AcDbLine
 10
5070.311038414097
 20
2623.926253444281
 30
0.0
 11
5070.311038414097
 21
2423.926253444279
 31
0.0
  0
LINE
  5
16D89
330
747D
100
AcDbEntity
  8
破線
 48
5.0
100
AcDbLine
 10
5070.311038414097
 20
2423.926253444279
 30
0.0
 11
4870.3110384141
 21
2423.926253444279
 31
0.0
  0
DIMENSION
  5
16D8A
330
747D
100
AcDbEntity
  8
寸法
 48
50.0
100
AcDbDimension
  2
*D3
 10
4720.811035167463
 20
2623.926253444281
 30
0.0
 11
4720.811035167463
 21
2523.926253444281
 31
0.0
 70
   160
 71
     5
 42
200.0
  3
INABA_S40G
100
AcDbAlignedDimension
 13
4870.3110384141
 23
2423.92625344428
 33
0.0
 14
4845.311038414096
 24
2623.926253444281
 34
0.0
 50
90.0
100
AcDbRotatedDimension
1001
ACAD
1000
DSTYLE
1002
{
1070
   174
1070
     0
1070
   272
1070
     1
1070
   288
1070
     0
1070
   341
1005
0
1002
}
  0
LINE
  5
16D8B
330
747D
100
AcDbEntity
  8
部品1
 48
50.0
100
AcDbLine
 10
5687.811038414096
 20
4929.79439254556
 30
0.0
 11
5987.811038414097
 21
4913.594392545559
 31
0.0
  0
DIMENSION
  5
16D8C
330
747D
100
AcDbEntity
  8
寸法
 48
50.0
100
AcDbDimension
  2
*D4
 10
4322.202631645732
 20
4673.271512317614
 30
0.0
 11
4332.868106904657
 21
5044.11817555931
 31
0.0
 70
   161
 71
     5
 42
140.9999999999982
  3
INABA_S40G
100
AcDbAlignedDimension
 13
4902.207058572676
 23
4797.64900227896
 33
0.0
 14
4898.15360301605
 24
4656.707278513249
 34
0.0
1001
ACAD
1000
DSTYLE
1002
{
1070
   174
1070
     0
1070
   272
1070
     1
1070
   288
1070
     0
1070
   341
1005
0
1002
}
  0
LINE
  5
16D8D
330
747D
100
AcDbEntity
  8
細線
 48
50.0
100
AcDbLine
 10
6600.311038414104
 20
4563.926253444281
 30
0.0
 11
6600.311038414104
 21
2773.926253444281
 31
0.0
  0
LINE
  5
16D8E
330
747D
100
AcDbEntity
  8
細線
 48
50.0
100
AcDbLine
 10
6615.311038414104
 20
4563.926253444281
 30
0.0
 11
6615.311038414104
 21
2773.926253444281
 31
0.0
  0
LINE
  5
16D8F
330
747D
100
AcDbEntity
  8
細線
 48
50.0
100
AcDbLine
 10
6475.311038414104
 20
4563.926253444281
 30
0.0
 11
6475.311038414104
 21
2773.926253444281
 31
0.0
  0
LINE
  5
16D90
330
747D
100
AcDbEntity
  8
細線
 48
50.0
100
AcDbLine
 10
6460.311038414103
 20
4563.926253444281
 30
0.0
 11
6460.311038414103
 21
2773.926253444281
 31
0.0
  0
LINE
  5
16D91
330
747D
100
AcDbEntity
  8
細線
 48
50.0
100
AcDbLine
 10
6320.311038414104
 20
4563.926253444281
 30
0.0
 11
6320.311038414104
 21
2773.926253444281
 31
0.0
  0
LINE
  5
16D92
330
747D
100
AcDbEntity
  8
細線
 48
50.0
100
AcDbLine
 10
6335.311038414104
 20
4563.926253444281
 30
0.0
 11
6335.311038414104
 21
2773.926253444281
 31
0.0
  0
LINE
  5
16D93
330
747D
100
AcDbEntity
  8
部品1
100
AcDbLine
 10
6257.811038414097
 20
4563.926253444281
 30
0.0
 11
6257.811038414097
 21
2773.926253444281
 31
0.0
  0
LINE
  5
16D94
330
747D
100
AcDbEntity
  8
細線
 48
50.0
100
AcDbLine
 10
5915.3110384141
 20
4563.926253444281
 30
0.0
 11
5915.3110384141
 21
2773.926253444281
 31
0.0
  0
LINE
  5
16D95
330
747D
100
AcDbEntity
  8
細線
 48
50.0
100
AcDbLine
 10
5900.3110384141
 20
4563.926253444281
 30
0.0
 11
5900.3110384141
 21
2773.926253444281
 31
0.0
  0
LINE
  5
16D96
330
747D
100
AcDbEntity
  8
細線
 48
50.0
100
AcDbLine
 10
6040.3110384141
 20
4563.926253444281
 30
0.0
 11
6040.3110384141
 21
2773.926253444281
 31
0.0
  0
LINE
  5
16D97
330
747D
100
AcDbEntity
  8
細線
 48
50.0
100
AcDbLine
 10
6055.3110384141
 20
4563.926253444281
 30
0.0
 11
6055.3110384141
 21
2773.926253444281
 31
0.0
  0
LINE
  5
16D98
330
747D
100
AcDbEntity
  8
細線
 48
50.0
100
AcDbLine
 10
6195.3110384141
 20
4563.926253444281
 30
0.0
 11
6195.3110384141
 21
2773.926253444281
 31
0.0
  0
LINE
  5
16D99
330
747D
100
AcDbEntity
  8
細線
 48
50.0
100
AcDbLine
 10
6180.3110384141
 20
4563.926253444281
 30
0.0
 11
6180.3110384141
 21
2773.926253444281
 31
0.0
  0
LINE
  5
16D9A
330
747D
100
AcDbEntity
  8
部品1
100
AcDbLine
 10
5837.811038414097
 20
4563.926253444281
 30
0.0
 11
5837.811038414097
 21
2773.926253444281
 31
0.0
  0
TEXT
  5
16D9B
330
747D
100
AcDbEntity
  8
部品1
 48
50.0
100
AcDbText
 10
6164.903885701956
 20
4828.177156479711
 30
0.0
 40
120.0
  1
54
 50
90.0
  7
STYLE1
100
AcDbText
  0
TEXT
  5
16D9C
330
747D
100
AcDbEntity
  8
部品1
 48
50.0
100
AcDbText
 10
5676.078873637823
 20
4965.678414697993
 30
0.0
 40
120.0
  1
1000
  7
STYLE1
100
AcDbText
  0
LINE
  5
16D9D
330
747D
100
AcDbEntity
  8
部品1
 48
50.0
100
AcDbLine
 10
5987.811038414097
 20
4929.79439254556
 30
0.0
 11
5987.811038414097
 21
4913.594392545559
 31
0.0
  0
LINE
  5
16D9E
330
747D
100
AcDbEntity
  8
部品1
 48
50.0
100
AcDbLine
 10
5687.811038414096
 20
4929.79439254556
 30
0.0
 11
5987.811038414097
 21
4929.79439254556
 31
0.0
  0
DIMENSION
  5
16D9F
330
747D
100
AcDbEntity
  8
寸法
 48
50.0
100
AcDbDimension
  2
*D5
 10
6812.811038414096
 20
5197.583707023585
 30
0.0
 11
7018.858282508587
 21
5197.583707023585
 31
0.0
 70
   160
 71
     5
 42
80.0
  3
INABA_S40G
100
AcDbAlignedDimension
 13
6732.811038414097
 23
4745.736933055932
 33
0.0
 14
6812.811038414096
 24
4743.92625344428
 34
0.0
100
AcDbRotatedDimension
1001
ACAD
1000
DSTYLE
1002
{
1070
   174
1070
     0
1070
   272
1070
     1
1070
   288
1070
     0
1070
   341
1005
0
1002
}
  0
ARC
  5
16DA0
330
747D
100
AcDbEntity
  8
部品1
100
AcDbCircle
 10
6798.438574228035
 20
4637.950010710073
 30
0.0
 40
0.7
100
AcDbArc
 50
275.0921697642102
 51
354.1866997667087
  0
ARC
  5
16DA1
330
747D
100
AcDbEntity
  8
部品1
100
AcDbCircle
 10
6809.297919977355
 20
4714.993265527997
 30
0.0
 40
0.7
100
AcDbArc
 50
275.0921697642102
 51
354.1866997665532
  0
ARC
  5
16DA2
330
747D
100
AcDbEntity
  8
部品1
100
AcDbCircle
 10
6809.626325219958
 20
4711.307868670906
 30
0.0
 40
3.0
100
AcDbArc
 50
95.0921697642102
 51
174.1866997665532
  0
ARC
  5
16DA3
330
747D
100
AcDbEntity
  8
部品1
100
AcDbCircle
 10
6798.766979470631
 20
4634.264613852983
 30
0.0
 40
3.0
100
AcDbArc
 50
95.0921697642102
 51
174.1866997665532
  0
ARC
  5
16DA4
330
747D
100
AcDbEntity
  8
部品1
 48
50.0
100
AcDbCircle
 10
6787.738844195526
 20
4624.673869249099
 30
0.0
 40
7.0
100
AcDbArc
 50
267.8377559869492
 51
354.1866997665532
  0
ARC
  5
16DA5
330
747D
100
AcDbEntity
  8
部品1
 48
50.0
100
AcDbCircle
 10
6805.060940660041
 20
4735.576416391274
 30
0.0
 40
7.0
100
AcDbArc
 50
354.1866997665532
 51
87.03587545283093
  0
LINE
  5
16DA6
330
747D
100
AcDbEntity
  8
部品1
 48
50.0
100
AcDbLine
 10
6795.782407800023
 20
4634.568475569884
 30
0.0
 11
6794.702844760283
 21
4623.964858576326
 31
0.0
  0
LINE
  5
16DA7
330
747D
100
AcDbEntity
  8
部品1
 48
50.0
100
AcDbLine
 10
6806.641753549346
 20
4711.611730387811
 30
0.0
 11
6799.134974284509
 21
4637.879109642797
 31
0.0
  0
LINE
  5
16DA8
330
747D
100
AcDbEntity
  8
部品1
 48
50.0
100
AcDbLine
 10
6812.024941224797
 20
4734.8674057185
 30
0.0
 11
6809.994320033827
 21
4714.922364460721
 31
0.0
  0
ARC
  5
16DA9
330
747D
100
AcDbEntity
  8
部品1
100
AcDbCircle
 10
4888.848130285463
 20
4677.740412403184
 30
0.0
 40
0.7
100
AcDbArc
 50
181.0932240292114
 51
260.1877540314845
  0
ARC
  5
16DAA
330
747D
100
AcDbEntity
  8
部品1
100
AcDbCircle
 10
4884.075456687853
 20
4770.606190603305
 30
0.0
 40
0.7
100
AcDbArc
 50
181.0932240292114
 51
260.1877540314845
  0
ARC
  5
16DAB
330
747D
100
AcDbEntity
  8
部品1
100
AcDbCircle
 10
4883.444902284831
 20
4766.960316065904
 30
0.0
 40
3.0
100
AcDbArc
 50
1.093224029263536
 51
80.18775403169875
  0
ARC
  5
16DAC
330
747D
100
AcDbEntity
  8
部品1
100
AcDbCircle
 10
4888.217575882438
 20
4674.094537865786
 30
0.0
 40
3.0
100
AcDbArc
 50
1.093224029263536
 51
80.18775403148449
  0
ARC
  5
16DAD
330
747D
100
AcDbEntity
  8
部品1
 48
50.0
100
AcDbCircle
 10
4898.417708257639
 20
4663.702294483306
 30
0.0
 40
7.0
100
AcDbArc
 50
181.0932240292635
 51
267.8377559869492
  0
ARC
  5
16DAE
330
747D
100
AcDbEntity
  8
部品1
 48
50.0
100
AcDbCircle
 10
4889.994050155543
 20
4790.6533540164
 30
0.0
 40
7.0
100
AcDbArc
 50
87.03587545283093
 51
181.0932240292635
  0
LINE
  5
16DAF
330
747D
100
AcDbEntity
  8
部品1
 48
50.0
100
AcDbLine
 10
4891.217029808867
 20
4674.151775468972
 30
0.0
 11
4891.418982429299
 21
4663.568740075878
 31
0.0
  0
LINE
  5
16DB0
330
747D
100
AcDbEntity
  8
細線
 48
50.0
100
AcDbLine
 10
4888.610936752197
 20
4677.081823587779
 30
0.0
 11
6798.614601182831
 21
4637.272504613285
 31
0.0
  0
LINE
  5
16DB1
330
747D
100
AcDbEntity
  8
細線
 48
50.0
100
AcDbLine
 10
4883.85046151491
 20
4769.943335285641
 30
0.0
 11
6809.486446260078
 21
4714.319130644815
 31
0.0
  0
LINE
  5
16DB2
330
747D
100
AcDbEntity
  8
部品1
 48
50.0
100
AcDbLine
 10
4886.444356211261
 20
4767.01755366909
 30
0.0
 11
4888.148257702625
 21
4677.727056962443
 31
0.0
  0
LINE
  5
16DB3
330
747D
100
AcDbEntity
  8
部品1
 48
50.0
100
AcDbLine
 10
4882.995324327203
 20
4790.519799608971
 30
0.0
 11
4883.375584105015
 21
4770.592835162561
 31
0.0
  0
LINE
  5
16DB4
330
747D
100
AcDbEntity
  8
細線
 48
50.0
100
AcDbLine
 10
6779.811038414097
 20
4743.893232479577
 30
0.0
 11
6775.063355526097
 21
4618.147459988833
 31
0.0
  0
LINE
  5
16DB5
330
747D
100
AcDbEntity
  8
細線
 48
50.0
100
AcDbLine
 10
4915.811038414097
 20
4796.325929819684
 30
0.0
 11
4910.521936858589
 21
4656.240297192331
 31
0.0
  0
LINE
  5
16DB6
330
747D
100
AcDbEntity
  8
部品1
100
AcDbLine
 10
4898.15360301605
 20
4656.707278513249
 30
0.0
 11
6787.474738953941
 21
4617.678853279043
 31
0.0
  0
LINE
  5
16DB7
330
747D
100
AcDbEntity
  8
部品1
100
AcDbLine
 10
4890.356024771059
 20
4797.643988778547
 30
0.0
 11
6805.422915275558
 21
4742.567051153421
 31
0.0
  0
LINE
  5
16DB8
330
747D
100
AcDbEntity
  8
細線
 48
50.0
100
AcDbLine
 10
5075.311038414096
 20
4563.926253444281
 30
0.0
 11
5075.311038414096
 21
2773.926253444281
 31
0.0
  0
LINE
  5
16DB9
330
747D
100
AcDbEntity
  8
細線
 48
50.0
100
AcDbLine
 10
5060.311038414096
 20
4563.926253444281
 30
0.0
 11
5060.311038414096
 21
2773.926253444281
 31
0.0
  0
LINE
  5
16DBA
330
747D
100
AcDbEntity
  8
細線
 48
50.0
100
AcDbLine
 10
5200.311038414096
 20
4563.926253444281
 30
0.0
 11
5200.311038414096
 21
2773.926253444281
 31
0.0
  0
LINE
  5
16DBB
330
747D
100
AcDbEntity
  8
細線
 48
50.0
100
AcDbLine
 10
5215.311038414096
 20
4563.926253444281
 30
0.0
 11
5215.311038414096
 21
2773.926253444281
 31
0.0
  0
LINE
  5
16DBC
330
747D
100
AcDbEntity
  8
細線
 48
50.0
100
AcDbLine
 10
5355.311038414097
 20
4563.926253444281
 30
0.0
 11
5355.311038414097
 21
2773.926253444281
 31
0.0
  0
LINE
  5
16DBD
330
747D
100
AcDbEntity
  8
細線
 48
50.0
100
AcDbLine
 10
5340.311038414096
 20
4563.926253444281
 30
0.0
 11
5340.311038414096
 21
2773.926253444281
 31
0.0
  0
LINE
  5
16DBE
330
747D
100
AcDbEntity
  8
細線
 48
50.0
100
AcDbLine
 10
5760.311038414096
 20
4563.926253444281
 30
0.0
 11
5760.311038414096
 21
2773.926253444281
 31
0.0
  0
LINE
  5
16DBF
330
747D
100
AcDbEntity
  8
細線
 48
50.0
100
AcDbLine
 10
5775.311038414097
 20
4563.926253444281
 30
0.0
 11
5775.311038414097
 21
2773.926253444281
 31
0.0
  0
LINE
  5
16DC0
330
747D
100
AcDbEntity
  8
細線
 48
50.0
100
AcDbLine
 10
5635.311038414096
 20
4563.926253444281
 30
0.0
 11
5635.311038414096
 21
2773.926253444281
 31
0.0
  0
LINE
  5
16DC1
330
747D
100
AcDbEntity
  8
細線
 48
50.0
100
AcDbLine
 10
5620.311038414096
 20
4563.926253444281
 30
0.0
 11
5620.311038414096
 21
2773.926253444281
 31
0.0
  0
LINE
  5
16DC2
330
747D
100
AcDbEntity
  8
細線
 48
50.0
100
AcDbLine
 10
5480.311038414097
 20
4563.926253444281
 30
0.0
 11
5480.311038414097
 21
2773.926253444281
 31
0.0
  0
LINE
  5
16DC3
330
747D
100
AcDbEntity
  8
細線
 48
50.0
100
AcDbLine
 10
5495.311038414096
 20
4563.926253444281
 30
0.0
 11
5495.311038414096
 21
2773.926253444281
 31
0.0
  0
LINE
  5
16DC4
330
747D
100
AcDbEntity
  8
部品1
100
AcDbLine
 10
4990.311038414096
 20
2723.926253444281
 30
0.0
 11
6685.311038414096
 21
2723.926253444281
 31
0.0
  0
LINE
  5
16DC5
330
747D
100
AcDbEntity
  8
部品1
100
AcDbLine
 10
6725.311038414097
 20
2723.926253444281
 30
0.0
 11
6732.8110384141
 21
2723.926253444281
 31
0.0
  0
LINE
  5
16DC6
330
747D
100
AcDbEntity
  8
破線
  6
HIDDEN
 48
5.0
100
AcDbLine
 10
4990.311038414096
 20
2623.926253444281
 30
0.0
 11
4990.311038414096
 21
2618.926253444281
 31
0.0
  0
LINE
  5
16DC7
330
747D
100
AcDbEntity
  8
破線
  6
HIDDEN
 48
5.0
100
AcDbLine
 10
4950.311038414104
 20
2623.926253444281
 30
0.0
 11
4950.311038414104
 21
2618.926253444281
 31
0.0
  0
LINE
  5
16DC8
330
747D
100
AcDbEntity
  8
破線
  6
HIDDEN
 48
5.0
100
AcDbLine
 10
6725.311038414097
 20
2623.926253444281
 30
0.0
 11
6725.311038414097
 21
2618.926253444281
 31
0.0
  0
LINE
  5
16DC9
330
747D
100
AcDbEntity
  8
破線
  6
HIDDEN
 48
5.0
100
AcDbLine
 10
6685.311038414096
 20
2623.926253444281
 30
0.0
 11
6685.311038414096
 21
2618.926253444281
 31
0.0
  0
ARC
  5
16DCA
330
747D
100
AcDbEntity
  8
部品1
 48
50.0
100
AcDbCircle
 10
6720.311038414097
 20
2763.926253444281
 30
0.0
 40
5.0
100
AcDbArc
 50
0.0
 51
90.0
  0
ARC
  5
16DCB
330
747D
100
AcDbEntity
  8
部品1
 48
50.0
100
AcDbCircle
 10
6690.311038414096
 20
2763.926253444281
 30
0.0
 40
5.0
100
AcDbArc
 50
90.0
 51
180.0
  0
LINE
  5
16DCC
330
747D
100
AcDbEntity
  8
部品1
100
AcDbLine
 10
6720.311038414097
 20
2768.926253444281
 30
0.0
 11
6690.311038414096
 21
2768.926253444281
 31
0.0
  0
LINE
  5
16DCD
330
747D
100
AcDbEntity
  8
部品1
 48
50.0
100
AcDbLine
 10
6725.311038414097
 20
2763.926253444281
 30
0.0
 11
6725.311038414097
 21
2623.926253444281
 31
0.0
  0
LINE
  5
16DCE
330
747D
100
AcDbEntity
  8
部品1
 48
50.0
100
AcDbLine
 10
6685.311038414096
 20
2763.926253444281
 30
0.0
 11
6685.311038414096
 21
2623.926253444281
 31
0.0
  0
ARC
  5
16DCF
330
747D
100
AcDbEntity
  8
部品1
 48
50.0
100
AcDbCircle
 10
4985.311038414096
 20
2763.926253444281
 30
0.0
 40
5.0
100
AcDbArc
 50
0.0
 51
90.0
  0
ARC
  5
16DD0
330
747D
100
AcDbEntity
  8
部品1
 48
50.0
100
AcDbCircle
 10
4955.311038414096
 20
2763.926253444281
 30
0.0
 40
5.0
100
AcDbArc
 50
90.0
 51
180.0
  0
LINE
  5
16DD1
330
747D
100
AcDbEntity
  8
部品1
100
AcDbLine
 10
4955.311038414096
 20
2768.926253444281
 30
0.0
 11
4985.311038414096
 21
2768.926253444281
 31
0.0
  0
LINE
  5
16DD2
330
747D
100
AcDbEntity
  8
部品1
 48
50.0
100
AcDbLine
 10
4990.311038414096
 20
2763.926253444281
 30
0.0
 11
4990.311038414096
 21
2623.926253444281
 31
0.0
  0
LINE
  5
16DD3
330
747D
100
AcDbEntity
  8
部品1
 48
50.0
100
AcDbLine
 10
4950.311038414096
 20
2763.926253444281
 30
0.0
 11
4950.311038414096
 21
2623.926253444281
 31
0.0
  0
LINE
  5
16DD4
330
747D
100
AcDbEntity
  8
破線
  6
HIDDEN
 48
5.0
100
AcDbLine
 10
4990.311038414096
 20
2618.926253444281
 30
0.0
 11
5005.311038414096
 21
2471.22625344428
 31
0.0
  0
LINE
  5
16DD5
330
747D
100
AcDbEntity
  8
破線
  6
HIDDEN
 48
5.0
100
AcDbLine
 10
4950.311038414096
 20
2618.926253444281
 30
0.0
 11
4935.311038414096
 21
2471.22625344428
 31
0.0
  0
LINE
  5
16DD6
330
747D
100
AcDbEntity
  8
破線
  6
HIDDEN
 48
5.0
100
AcDbLine
 10
5005.311038414096
 20
2471.22625344428
 30
0.0
 11
5005.311038414096
 21
2468.92625344428
 31
0.0
  0
LINE
  5
16DD7
330
747D
100
AcDbEntity
  8
破線
  6
HIDDEN
 48
5.0
100
AcDbLine
 10
4935.311038414096
 20
2471.22625344428
 30
0.0
 11
4935.311038414096
 21
2468.92625344428
 31
0.0
  0
LINE
  5
16DD8
330
747D
100
AcDbEntity
  8
破線
  6
HIDDEN
 48
5.0
100
AcDbLine
 10
4935.311038414096
 20
2468.92625344428
 30
0.0
 11
5005.311038414096
 21
2468.92625344428
 31
0.0
  0
LINE
  5
16DD9
330
747D
100
AcDbEntity
  8
破線
  6
HIDDEN
 48
5.0
100
AcDbLine
 10
6740.311038414096
 20
2471.22625344428
 30
0.0
 11
6740.311038414096
 21
2468.92625344428
 31
0.0
  0
LINE
  5
16DDA
330
747D
100
AcDbEntity
  8
破線
  6
HIDDEN
 48
5.0
100
AcDbLine
 10
6725.311038414097
 20
2618.926253444281
 30
0.0
 11
6740.311038414096
 21
2471.22625344428
 31
0.0
  0
LINE
  5
16DDB
330
747D
100
AcDbEntity
  8
破線
  6
HIDDEN
 48
5.0
100
AcDbLine
 10
6670.311038414097
 20
2471.22625344428
 30
0.0
 11
6670.311038414097
 21
2468.92625344428
 31
0.0
  0
LINE
  5
16DDC
330
747D
100
AcDbEntity
  8
破線
  6
HIDDEN
 48
5.0
100
AcDbLine
 10
6685.311038414096
 20
2618.926253444281
 30
0.0
 11
6670.311038414097
 21
2471.22625344428
 31
0.0
  0
LINE
  5
16DDD
330
747D
100
AcDbEntity
  8
破線
  6
HIDDEN
 48
5.0
100
AcDbLine
 10
6740.311038414096
 20
2468.92625344428
 30
0.0
 11
6670.311038414097
 21
2468.92625344428
 31
0.0
  0
DIMENSION
  5
16DDE
330
747D
100
AcDbEntity
  8
寸法
 48
50.0
100
AcDbDimension
  2
*D6
 10
4882.811038414097
 20
5414.545522402199
 30
0.0
 11
5788.616789665066
 21
5414.545522402199
 31
0.0
 70
   160
 71
     5
 42
1930.0
  3
INABA_S40G
100
AcDbAlignedDimension
 13
6812.811038414096
 23
4743.92625344428
 33
0.0
 14
4882.811038414097
 24
4798.926253444284
 34
0.0
100
AcDbRotatedDimension
1001
ACAD
1000
DSTYLE
1002
{
1070
   174
1070
     0
1070
   272
1070
     1
1070
   288
1070
     0
1070
   341
1005
0
1002
}
  0
DIMENSION
  5
16DDF
330
747D
100
AcDbEntity
  8
寸法
 48
50.0
100
AcDbDimension
  2
*D7
 10
4882.811038414097
 20
5197.583707023585
 30
0.0
 11
4573.173243138506
 21
5197.583707023585
 31
0.0
 70
   160
 71
     5
 42
60.0
  3
INABA_S40G
100
AcDbAlignedDimension
 13
4942.811038414096
 23
4794.927871567256
 33
0.0
 14
4882.811038414097
 24
4798.926253444284
 34
0.0
100
AcDbRotatedDimension
1001
ACAD
1000
DSTYLE
1002
{
1070
   174
1070
     0
1070
   272
1070
     1
1070
   288
1070
     0
1070
   341
1005
0
1002
}
  0
DIMENSION
  5
16DE0
330
747D
100
AcDbEntity
  8
寸法
 48
50.0
100
AcDbDimension
  2
*D8
 10
4942.811038414096
 20
5198.019422783755
 30
0.0
 11
5852.406687090577
 21
5198.019422783755
 31
0.0
 70
   160
  1
柱外寸法<>
 71
     5
 42
1790.0
  3
INABA_S40G
100
AcDbAlignedDimension
 13
6732.811038414097
 23
4745.736933055932
 33
0.0
 14
4942.811038414096
 24
4794.927871567256
 34
0.0
100
AcDbRotatedDimension
1001
ACAD
1000
DSTYLE
1002
{
1070
   174
1070
     0
1070
   272
1070
     1
1070
   288
1070
     0
1070
   341
1005
0
1002
}
  0
DIMENSION
  5
16DE1
330
747D
100
AcDbEntity
  8
寸法
100
AcDbDimension
  2
*D9
 10
7344.981134176524
 20
4743.92625344428
 30
0.0
 11
7344.981134176524
 21
3706.182580873969
 31
0.0
 70
   160
 71
     5
 42
2020.000000000001
  3
INABA_S40G
100
AcDbAlignedDimension
 13
6809.8110384141
 23
2723.926253444281
 33
0.0
 14
6812.811038414096
 24
4743.92625344428
 34
0.0
 50
90.0
100
AcDbRotatedDimension
1001
ACAD
1000
DSTYLE
1002
{
1070
   174
1070
     0
1070
   272
1070
     1
1070
   288
1070
     0
1070
   341
1005
0
1002
}
  0
LINE
  5
16DE2
330
747D
100
AcDbEntity
  8
部品1
100
AcDbLine
 10
6677.8110384141
 20
4563.926253444281
 30
0.0
 11
6677.8110384141
 21
2773.926253444281
 31
0.0
  0
LINE
  5
16DE3
330
747D
100
AcDbEntity
  8
部品1
100
AcDbLine
 10
6732.811038414097
 20
4618.808062130288
 30
0.0
 11
6732.8110384141
 21
2623.926253444281
 31
0.0
  0
LINE
  5
16DE4
330
747D
100
AcDbEntity
  8
部品1
100
AcDbLine
 10
5417.811038414097
 20
4563.926253444281
 30
0.0
 11
5417.811038414097
 21
2773.926253444281
 31
0.0
  0
DIMENSION
  5
16DE5
330
747D
100
AcDbEntity
  8
寸法
100
AcDbDimension
  2
*D10
 10
4319.1583292558
 20
2723.926253444281
 30
0.0
 11
4319.158329255798
 21
2417.87900934979
 31
0.0
 70
   160
 71
     5
 42
50.0
  3
INABA_S40G
100
AcDbAlignedDimension
 13
4942.811038414096
 23
2773.926253444281
 33
0.0
 14
4887.811038414096
 24
2723.926253444281
 34
0.0
 50
90.0
100
AcDbRotatedDimension
1001
ACAD
1000
DSTYLE
1002
{
1070
   174
1070
     0
1070
   272
1070
     1
1070
   288
1070
     0
1070
   341
1005
0
1002
}
  0
DIMENSION
  5
16DE6
330
747D
100
AcDbEntity
  8
寸法
100
AcDbDimension
  2
*D11
 10
4034.171656484738
 20
2623.926253444281
 30
0.0
 11
4034.171656484737
 21
2387.87900934979
 31
0.0
 70
   160
 71
     5
 42
100.0
  3
INABA_S40G
100
AcDbAlignedDimension
 13
4887.811038414096
 23
2723.926253444281
 33
0.0
 14
4319.158329255798
 24
2623.926253444281
 34
0.0
 50
90.0
100
AcDbRotatedDimension
1001
ACAD
1000
DSTYLE
1002
{
1070
   174
1070
     0
1070
   272
1070
     1
1070
   288
1070
     0
1070
   341
1005
0
1002
}
  0
DIMENSION
  5
16DE7
330
747D
100
AcDbEntity
  8
寸法
100
AcDbDimension
  2
*D12
 10
4034.171656484738
 20
4798.926253444284
 30
0.0
 11
4034.171656484737
 21
3718.132130937391
 31
0.0
 70
   160
 71
     5
 42
2075.000000000004
  3
INABA_S40G
100
AcDbAlignedDimension
 13
4942.811038414096
 23
2723.926253444281
 33
0.0
 14
4882.811038414097
 24
4798.926253444284
 34
0.0
 50
90.0
100
AcDbRotatedDimension
1001
ACAD
1000
DSTYLE
1002
{
1070
   174
1070
     0
1070
   272
1070
     1
1070
   288
1070
     0
1070
   341
1005
0
1002
}
  0
DIMENSION
  5
16DE8
330
747D
100
AcDbEntity
  8
寸法
100
AcDbDimension
  2
*D13
 10
4319.1583292558
 20
2773.926253444281
 30
0.0
 11
4319.158329255798
 21
3664.380551986238
 31
0.0
 70
   160
 71
     5
 42
1790.0
  3
INABA_S40G
100
AcDbAlignedDimension
 13
4942.811038414096
 23
4563.926253444281
 33
0.0
 14
4942.811038414096
 24
2773.926253444281
 34
0.0
 50
90.0
100
AcDbRotatedDimension
1001
ACAD
1000
DSTYLE
1002
{
1070
   174
1070
     0
1070
   272
1070
     1
1070
   288
1070
     0
1070
   341
1005
0
1002
}
  0
LINE
  5
16DE9
330
747D
100
AcDbEntity
  8
部品1
100
AcDbLine
 10
4942.811038414096
 20
4655.784772886529
 30
0.0
 11
4942.811038414096
 21
2623.926253444281
 31
0.0
  0
LINE
  5
16DEA
330
747D
100
AcDbEntity
  8
部品1
100
AcDbLine
 10
4997.811038414096
 20
4563.926253444281
 30
0.0
 11
4997.811038414096
 21
2773.926253444281
 31
0.0
  0
LINE
  5
16DEB
330
747D
100
AcDbEntity
  8
部品1
100
AcDbLine
 10
4942.811038414096
 20
2723.926253444281
 30
0.0
 11
4950.311038414096
 21
2723.926253444281
 31
0.0
  0
LINE
  5
16DEC
330
747D
100
AcDbEntity
  8
部品1
100
AcDbLine
 10
4942.811038414096
 20
2773.926253444281
 30
0.0
 11
6732.8110384141
 21
2773.926253444281
 31
0.0
  0
LINE
  5
16DED
330
747D
100
AcDbEntity
  8
部品1
100
AcDbLine
 10
4942.811038414096
 20
4563.926253444281
 30
0.0
 11
6732.811038414097
 21
4563.926253444281
 31
0.0
  0
LINE
  5
16DEE
330
747D
100
AcDbEntity
  8
部品1
100
AcDbLine
 10
6219.546371528315
 20
1934.88799046687
 30
0.0
 11
5456.075705299876
 21
1934.88799046687
 31
0.0
  0
LINE
  5
16DEF
330
747D
100
AcDbEntity
  8
部品1
100
AcDbLine
 10
6219.546371528315
 20
1694.995668921337
 30
0.0
 11
6219.546371528315
 21
1934.88799046687
 31
0.0
  0
LINE
  5
16DF0
330
747D
100
AcDbEntity
  8
部品1
100
AcDbLine
 10
5456.075705299876
 20
1694.995668921337
 30
0.0
 11
6219.546371528315
 21
1694.995668921337
 31
0.0
  0
LINE
  5
16DF1
330
747D
100
AcDbEntity
  8
部品1
100
AcDbLine
 10
5456.075705299876
 20
1934.88799046687
 30
0.0
 11
5456.075705299876
 21
1694.995668921337
 31
0.0
  0
TEXT
  5
16DF2
330
747D
100
AcDbEntity
  8
部品1
100
AcDbText
 10
5545.521806723484
 20
1741.994461248347
 30
0.0
 40
135.0
  1
側面図
  7
STYLE2
100
AcDbText
  0
TEXT
  5
16DF3
330
747D
100
AcDbEntity
  8
部品1
100
AcDbText
 10
3062.242996842924
 20
2660.033157050182
 30
0.0
 40
125.0
  1
▽G.L
  7
STYLE2
100
AcDbText
  0
LINE
  5
17312
330
747D
100
AcDbEntity
  8
補助
  6
PHANTOM
 62
   230
 48
50.0
100
AcDbLine
 10
140.0
 20
0.0
 30
0.0
 11
140.0
 21
11409.6
 31
0.0
  0
LINE
  5
178E1
330
747D
100
AcDbEntity
  8
細線
 48
50.0
100
AcDbLine
 10
9256.771384511635
 20
4563.926253444281
 30
0.0
 11
9256.771384511635
 21
2773.926253444281
 31
0.0
  0
LINE
  5
178E2
330
747D
100
AcDbEntity
  8
細線
 48
50.0
100
AcDbLine
 10
9271.771384511636
 20
4563.926253444281
 30
0.0
 11
9271.771384511636
 21
2773.926253444281
 31
0.0
  0
LINE
  5
178E3
330
747D
100
AcDbEntity
  8
細線
 48
50.0
100
AcDbLine
 10
9131.771384511635
 20
4563.926253444281
 30
0.0
 11
9131.771384511635
 21
2773.926253444281
 31
0.0
  0
LINE
  5
178E4
330
747D
100
AcDbEntity
  8
細線
 48
50.0
100
AcDbLine
 10
9116.771384511636
 20
4563.926253444281
 30
0.0
 11
9116.771384511636
 21
2773.926253444281
 31
0.0
  0
LINE
  5
178E5
330
747D
100
AcDbEntity
  8
細線
 48
50.0
100
AcDbLine
 10
8976.771384511636
 20
4563.926253444281
 30
0.0
 11
8976.771384511636
 21
2773.926253444281
 31
0.0
  0
LINE
  5
178E6
330
747D
100
AcDbEntity
  8
細線
 48
50.0
100
AcDbLine
 10
8991.771384511636
 20
4563.926253444281
 30
0.0
 11
8991.771384511636
 21
2773.926253444281
 31
0.0
  0
LINE
  5
178E7
330
747D
100
AcDbEntity
  8
部品1
100
AcDbLine
 10
11405.77138451162
 20
4774.526253452751
 30
0.0
 11
11294.27138451163
 21
4774.526253452751
 31
0.0
  0
LINE
  5
178E8
330
747D
100
AcDbEntity
  8
部品1
100
AcDbLine
 10
11282.27138451163
 20
4793.926253452768
 30
0.0
 11
11282.27138451163
 21
4696.515185944195
 31
0.0
  0
LINE
  5
178E9
330
747D
100
AcDbEntity
  8
部品1
100
AcDbLine
 10
11257.27138451163
 20
4793.926253452768
 30
0.0
 11
11257.27138451163
 21
4696.515185944195
 31
0.0
  0
LINE
  5
178EA
330
747D
100
AcDbEntity
  8
部品1
100
AcDbLine
 10
11184.27138451163
 20
4793.926253452768
 30
0.0
 11
11184.27138451163
 21
4696.515185944195
 31
0.0
  0
LINE
  5
178EB
330
747D
100
AcDbEntity
  8
部品1
100
AcDbLine
 10
11209.27138451163
 20
4793.926253452768
 30
0.0
 11
11209.27138451163
 21
4696.515185944195
 31
0.0
  0
LINE
  5
178EC
330
747D
100
AcDbEntity
  8
部品1
 48
50.0
100
AcDbLine
 10
11255.77138451163
 20
4793.926253452771
 30
0.0
 11
11283.77138451162
 21
4793.926253452771
 31
0.0
  0
LINE
  5
178ED
330
747D
100
AcDbEntity
  8
部品1
 48
50.0
100
AcDbLine
 10
11283.77138451162
 20
4793.926253452771
 30
0.0
 11
11294.27138451162
 21
4774.52625345277
 31
0.0
  0
LINE
  5
178EE
330
747D
100
AcDbEntity
  8
部品1
 48
50.0
100
AcDbLine
 10
11255.77138451163
 20
4793.926253452771
 30
0.0
 11
11245.27138451163
 21
4774.52625345277
 31
0.0
  0
LINE
  5
178EF
330
747D
100
AcDbEntity
  8
部品1
 48
50.0
100
AcDbLine
 10
11182.77138451162
 20
4793.926253452771
 30
0.0
 11
11210.77138451162
 21
4793.926253452771
 31
0.0
  0
LINE
  5
178F0
330
747D
100
AcDbEntity
  8
部品1
 48
50.0
100
AcDbLine
 10
11182.77138451162
 20
4793.926253452771
 30
0.0
 11
11172.27138451162
 21
4774.52625345277
 31
0.0
  0
LINE
  5
178F1
330
747D
100
AcDbEntity
  8
部品1
 48
50.0
100
AcDbLine
 10
11210.77138451162
 20
4793.926253452771
 30
0.0
 11
11221.27138451162
 21
4774.52625345277
 31
0.0
  0
LINE
  5
178F2
330
747D
100
AcDbEntity
  8
部品1
100
AcDbLine
 10
11245.27138451162
 20
4774.526253452767
 30
0.0
 11
11221.27138451162
 21
4774.526253452767
 31
0.0
  0
LINE
  5
178F3
330
747D
100
AcDbEntity
  8
部品1
100
AcDbLine
 10
11172.27138451162
 20
4774.526253452767
 30
0.0
 11
11028.77138451162
 21
4774.526253452767
 31
0.0
  0
LINE
  5
178F4
330
747D
100
AcDbEntity
  8
部品1
 48
50.0
100
AcDbLine
 10
11026.27138451163
 20
4793.926253452768
 30
0.0
 11
11028.77138451162
 21
4774.526253452767
 31
0.0
  0
LINE
  5
178F5
330
747D
100
AcDbEntity
  8
部品1
 48
50.0
100
AcDbLine
 10
10987.06004430544
 20
4784.526253452766
 30
0.0
 11
10985.77138451162
 21
4774.526253452767
 31
0.0
  0
LINE
  5
178F6
330
747D
100
AcDbEntity
  8
部品1
 48
50.0
100
AcDbLine
 10
10987.06004430544
 20
4784.526253452766
 30
0.0
 11
11001.06004430544
 21
4784.526253452766
 31
0.0
  0
LINE
  5
178F7
330
747D
100
AcDbEntity
  8
部品1
 48
50.0
100
AcDbLine
 10
11002.27138451163
 20
4793.926253452768
 30
0.0
 11
11001.06004430544
 21
4784.526253452766
 31
0.0
  0
LINE
  5
178F8
330
747D
100
AcDbEntity
  8
部品1
 48
50.0
100
AcDbLine
 10
11002.27138451163
 20
4793.926253452768
 30
0.0
 11
11026.27138451163
 21
4793.926253452768
 31
0.0
  0
LINE
  5
178F9
330
747D
100
AcDbEntity
  8
部品1
100
AcDbLine
 10
11023.27138451162
 20
4793.926253452768
 30
0.0
 11
11023.27138451162
 21
4696.515185944192
 31
0.0
  0
LINE
  5
178FA
330
747D
100
AcDbEntity
  8
部品1
100
AcDbLine
 10
11005.27138451162
 20
4793.926253452757
 30
0.0
 11
11005.27138451162
 21
4696.515185944192
 31
0.0
  0
LINE
  5
178FB
330
747D
100
AcDbEntity
  8
部品1
100
AcDbLine
 10
11489.34201250483
 20
4774.526253452748
 30
0.0
 11
11448.77138451162
 21
4774.526253452748
 31
0.0
  0
LINE
  5
178FC
330
747D
100
AcDbEntity
  8
部品1
 48
50.0
100
AcDbLine
 10
11446.27138451162
 20
4793.926253452753
 30
0.0
 11
11448.77138451162
 21
4774.526253452751
 31
0.0
  0
LINE
  5
178FD
330
747D
100
AcDbEntity
  8
部品1
 48
50.0
100
AcDbLine
 10
11407.06004430543
 20
4784.526253452752
 30
0.0
 11
11405.77138451162
 21
4774.526253452751
 31
0.0
  0
LINE
  5
178FE
330
747D
100
AcDbEntity
  8
部品1
 48
50.0
100
AcDbLine
 10
11407.06004430543
 20
4784.526253452752
 30
0.0
 11
11421.06004430543
 21
4784.526253452752
 31
0.0
  0
LINE
  5
178FF
330
747D
100
AcDbEntity
  8
部品1
 48
50.0
100
AcDbLine
 10
11422.27138451162
 20
4793.926253452753
 30
0.0
 11
11421.06004430543
 21
4784.526253452752
 31
0.0
  0
LINE
  5
17900
330
747D
100
AcDbEntity
  8
細線
 48
50.0
100
AcDbLine
 10
11489.34201250483
 20
4715.89808619223
 30
0.0
 11
11537.40525378877
 21
4715.898086192237
 31
0.0
  0
LINE
  5
17901
330
747D
100
AcDbEntity
  8
細線
 48
50.0
100
AcDbLine
 10
11506.78247441591
 20
4743.92625344428
 30
0.0
 11
11506.7824744159
 21
4617.42625344428
 31
0.0
  0
ARC
  5
17902
330
747D
100
AcDbEntity
  8
部品1
100
AcDbCircle
 10
11532.28534069441
 20
4791.926253461179
 30
0.0
 40
7.0
100
AcDbArc
 50
356.3813705198688
 51
90.0
  0
LINE
  5
17903
330
747D
100
AcDbEntity
  8
部品1
100
AcDbLine
 10
11494.34201250483
 20
4798.926253461178
 30
0.0
 11
11532.28534069441
 21
4798.926253461178
 31
0.0
  0
ARC
  5
17904
330
747D
100
AcDbEntity
  8
部品1
100
AcDbCircle
 10
11494.34201250483
 20
4793.926253461179
 30
0.0
 40
5.0
100
AcDbArc
 50
90.0
 51
180.0
  0
LINE
  5
17905
330
747D
100
AcDbEntity
  8
部品1
 48
50.0
100
AcDbLine
 10
11539.27138451162
 20
4736.484448301691
 30
0.0
 11
11539.27138451162
 21
4791.48444831859
 31
0.0
  0
LINE
  5
17906
330
747D
100
AcDbEntity
  8
部品1
100
AcDbLine
 10
11489.34201250483
 20
4793.926253461179
 30
0.0
 11
11489.34201250483
 21
4696.515185944178
 31
0.0
  0
ARC
  5
17907
330
747D
100
AcDbEntity
  8
部品1
100
AcDbCircle
 10
11494.34201250483
 20
4738.92625344428
 30
0.0
 40
5.0
100
AcDbArc
 50
90.0
 51
180.0
  0
LINE
  5
17908
330
747D
100
AcDbEntity
  8
部品1
100
AcDbLine
 10
11494.34201250483
 20
4743.92625344428
 30
0.0
 11
11532.28534069441
 21
4743.92625344428
 31
0.0
  0
LINE
  5
17909
330
747D
100
AcDbEntity
  8
部品1
100
AcDbLine
 10
11538.01084645306
 20
4716.55219025061
 30
0.0
 11
11539.27138451162
 21
4736.484448301691
 31
0.0
  0
LINE
  5
1790A
330
747D
100
AcDbEntity
  8
部品1
100
AcDbLine
 10
11526.14477366565
 20
4623.984448301691
 30
0.0
 11
11526.81709937023
 21
4634.615598505393
 31
0.0
  0
ARC
  5
1790B
330
747D
100
AcDbEntity
  8
部品1
100
AcDbCircle
 10
11532.28534069441
 20
4736.92625344428
 30
0.0
 40
7.0
100
AcDbArc
 50
356.3813705198688
 51
90.0
  0
ARC
  5
1790C
330
747D
100
AcDbEntity
  8
部品1
100
AcDbCircle
 10
11519.15872984844
 20
4624.42625344428
 30
0.0
 40
7.0
100
AcDbArc
 50
270.0
 51
356.3813705198688
  0
ARC
  5
1790D
330
747D
100
AcDbEntity
  8
部品1
100
AcDbCircle
 10
11529.81111814904
 20
4634.426253444281
 30
0.0
 40
3.0
100
AcDbArc
 50
90.0
 51
176.3813705198687
  0
ARC
  5
1790E
330
747D
100
AcDbEntity
  8
部品1
100
AcDbCircle
 10
11529.34182202384
 20
4638.096370764872
 30
0.0
 40
0.7
100
AcDbArc
 50
277.2868405166456
 51
356.3813705198688
  0
LINE
  5
1790F
330
747D
100
AcDbEntity
  8
部品1
100
AcDbLine
 10
11534.78751941772
 20
4713.115598505393
 30
0.0
 11
11530.04042640557
 21
4638.052190250609
 31
0.0
  0
ARC
  5
17910
330
747D
100
AcDbEntity
  8
部品1
100
AcDbCircle
 10
11537.78153819653
 20
4712.926253444281
 30
0.0
 40
3.0
100
AcDbArc
 50
90.0
 51
176.3813705198687
  0
ARC
  5
17911
330
747D
100
AcDbEntity
  8
部品1
100
AcDbCircle
 10
11537.31224207133
 20
4716.596370764871
 30
0.0
 40
0.7
100
AcDbArc
 50
277.2868405166456
 51
356.3813705198688
  0
LINE
  5
17912
330
747D
100
AcDbEntity
  8
部品1
 48
50.0
100
AcDbLine
 10
11494.34201250483
 20
4743.92625344428
 30
0.0
 11
11532.28534069441
 21
4743.92625344428
 31
0.0
  0
LINE
  5
17913
330
747D
100
AcDbEntity
  8
部品1
 48
50.0
100
AcDbLine
 10
11422.27138451162
 20
4793.926253452753
 30
0.0
 11
11446.27138451162
 21
4793.926253452753
 31
0.0
  0
LINE
  5
17914
330
747D
100
AcDbEntity
  8
部品1
100
AcDbLine
 10
11443.27138451161
 20
4793.926253452753
 30
0.0
 11
11443.27138451161
 21
4696.515185944178
 31
0.0
  0
LINE
  5
17915
330
747D
100
AcDbEntity
  8
部品1
100
AcDbLine
 10
11425.27138451161
 20
4793.926253452742
 30
0.0
 11
11425.27138451161
 21
4696.515185944178
 31
0.0
  0
DIMENSION
  5
17916
330
747D
100
AcDbEntity
  8
寸法
 48
50.0
100
AcDbDimension
  2
*D14
 10
11489.27138451163
 20
5198.019422783755
 30
0.0
 11
11852.75666588587
 21
5198.019422783755
 31
0.0
 70
   160
 71
     5
 42
50.0
  3
INABA_S40G
100
AcDbAlignedDimension
 13
11539.27138451163
 23
4798.926253444284
 33
0.0
 14
11489.27138451163
 24
4798.926253444284
 34
0.0
100
AcDbRotatedDimension
  0
LINE
  5
17917
330
747D
100
AcDbEntity
  8
部品1
100
AcDbLine
 10
10585.27138451164
 20
4793.926253452746
 30
0.0
 11
10585.27138451164
 21
4696.515185944181
 31
0.0
  0
LINE
  5
17918
330
747D
100
AcDbEntity
  8
部品1
100
AcDbLine
 10
10603.27138451164
 20
4793.926253452757
 30
0.0
 11
10603.27138451164
 21
4696.515185944181
 31
0.0
  0
LINE
  5
17919
330
747D
100
AcDbEntity
  8
部品1
 48
50.0
100
AcDbLine
 10
10582.27138451164
 20
4793.926253452757
 30
0.0
 11
10606.27138451164
 21
4793.926253452757
 31
0.0
  0
LINE
  5
1791A
330
747D
100
AcDbEntity
  8
部品1
 48
50.0
100
AcDbLine
 10
10582.27138451164
 20
4793.926253452757
 30
0.0
 11
10581.06004430546
 21
4784.526253452756
 31
0.0
  0
LINE
  5
1791B
330
747D
100
AcDbEntity
  8
部品1
 48
50.0
100
AcDbLine
 10
10567.06004430546
 20
4784.526253452756
 30
0.0
 11
10581.06004430546
 21
4784.526253452756
 31
0.0
  0
LINE
  5
1791C
330
747D
100
AcDbEntity
  8
部品1
 48
50.0
100
AcDbLine
 10
10567.06004430546
 20
4784.526253452756
 30
0.0
 11
10565.77138451164
 21
4774.526253452755
 31
0.0
  0
LINE
  5
1791D
330
747D
100
AcDbEntity
  8
部品1
 48
50.0
100
AcDbLine
 10
10606.27138451164
 20
4793.926253452757
 30
0.0
 11
10608.77138451164
 21
4774.526253452755
 31
0.0
  0
LINE
  5
1791E
330
747D
100
AcDbEntity
  8
部品1
100
AcDbLine
 10
10752.27138451164
 20
4774.526253452755
 30
0.0
 11
10608.77138451164
 21
4774.526253452755
 31
0.0
  0
LINE
  5
1791F
330
747D
100
AcDbEntity
  8
部品1
100
AcDbLine
 10
10825.27138451164
 20
4774.526253452755
 30
0.0
 11
10801.27138451164
 21
4774.526253452755
 31
0.0
  0
LINE
  5
17920
330
747D
100
AcDbEntity
  8
部品1
 48
50.0
100
AcDbLine
 10
10790.77138451164
 20
4793.92625345276
 30
0.0
 11
10801.27138451164
 21
4774.526253452759
 31
0.0
  0
LINE
  5
17921
330
747D
100
AcDbEntity
  8
部品1
 48
50.0
100
AcDbLine
 10
10762.77138451164
 20
4793.92625345276
 30
0.0
 11
10752.27138451164
 21
4774.526253452759
 31
0.0
  0
LINE
  5
17922
330
747D
100
AcDbEntity
  8
部品1
 48
50.0
100
AcDbLine
 10
10762.77138451164
 20
4793.92625345276
 30
0.0
 11
10790.77138451164
 21
4793.92625345276
 31
0.0
  0
LINE
  5
17923
330
747D
100
AcDbEntity
  8
部品1
 48
50.0
100
AcDbLine
 10
10835.77138451164
 20
4793.92625345276
 30
0.0
 11
10825.27138451164
 21
4774.526253452759
 31
0.0
  0
LINE
  5
17924
330
747D
100
AcDbEntity
  8
部品1
 48
50.0
100
AcDbLine
 10
10863.77138451164
 20
4793.92625345276
 30
0.0
 11
10874.27138451164
 21
4774.526253452759
 31
0.0
  0
LINE
  5
17925
330
747D
100
AcDbEntity
  8
部品1
 48
50.0
100
AcDbLine
 10
10835.77138451164
 20
4793.92625345276
 30
0.0
 11
10863.77138451164
 21
4793.92625345276
 31
0.0
  0
LINE
  5
17926
330
747D
100
AcDbEntity
  8
部品1
100
AcDbLine
 10
10789.27138451165
 20
4793.926253452757
 30
0.0
 11
10789.27138451165
 21
4696.515185944185
 31
0.0
  0
LINE
  5
17927
330
747D
100
AcDbEntity
  8
部品1
100
AcDbLine
 10
10764.27138451165
 20
4793.926253452757
 30
0.0
 11
10764.27138451165
 21
4696.515185944185
 31
0.0
  0
LINE
  5
17928
330
747D
100
AcDbEntity
  8
部品1
100
AcDbLine
 10
10837.27138451165
 20
4793.926253452757
 30
0.0
 11
10837.27138451165
 21
4696.515185944185
 31
0.0
  0
LINE
  5
17929
330
747D
100
AcDbEntity
  8
部品1
100
AcDbLine
 10
10862.27138451165
 20
4793.926253452757
 30
0.0
 11
10862.27138451165
 21
4696.515185944185
 31
0.0
  0
LINE
  5
1792A
330
747D
100
AcDbEntity
  8
部品1
100
AcDbLine
 10
10985.77138451164
 20
4774.526253452741
 30
0.0
 11
10874.27138451165
 21
4774.526253452741
 31
0.0
  0
LINE
  5
1792B
330
747D
100
AcDbEntity
  8
部品1
100
AcDbLine
 10
10442.27138451165
 20
4793.926253452753
 30
0.0
 11
10442.27138451165
 21
4696.515185944181
 31
0.0
  0
LINE
  5
1792C
330
747D
100
AcDbEntity
  8
部品1
100
AcDbLine
 10
10417.27138451165
 20
4793.926253452753
 30
0.0
 11
10417.27138451165
 21
4696.515185944181
 31
0.0
  0
LINE
  5
1792D
330
747D
100
AcDbEntity
  8
部品1
100
AcDbLine
 10
10344.27138451165
 20
4793.926253452753
 30
0.0
 11
10344.27138451165
 21
4696.515185944181
 31
0.0
  0
LINE
  5
1792E
330
747D
100
AcDbEntity
  8
部品1
100
AcDbLine
 10
10369.27138451165
 20
4793.926253452753
 30
0.0
 11
10369.27138451165
 21
4696.515185944181
 31
0.0
  0
LINE
  5
1792F
330
747D
100
AcDbEntity
  8
部品1
100
AcDbLine
 10
10332.27138451164
 20
4774.526253452751
 30
0.0
 11
10188.77138451164
 21
4774.526253452751
 31
0.0
  0
LINE
  5
17930
330
747D
100
AcDbEntity
  8
部品1
100
AcDbLine
 10
10565.77138451164
 20
4774.526253452737
 30
0.0
 11
10454.27138451165
 21
4774.526253452737
 31
0.0
  0
LINE
  5
17931
330
747D
100
AcDbEntity
  8
部品1
 48
50.0
100
AcDbLine
 10
10415.77138451164
 20
4793.926253452757
 30
0.0
 11
10443.77138451164
 21
4793.926253452757
 31
0.0
  0
LINE
  5
17932
330
747D
100
AcDbEntity
  8
部品1
 48
50.0
100
AcDbLine
 10
10443.77138451164
 20
4793.926253452757
 30
0.0
 11
10454.27138451164
 21
4774.526253452755
 31
0.0
  0
LINE
  5
17933
330
747D
100
AcDbEntity
  8
部品1
 48
50.0
100
AcDbLine
 10
10415.77138451164
 20
4793.926253452757
 30
0.0
 11
10405.27138451164
 21
4774.526253452755
 31
0.0
  0
LINE
  5
17934
330
747D
100
AcDbEntity
  8
部品1
 48
50.0
100
AcDbLine
 10
10342.77138451164
 20
4793.926253452757
 30
0.0
 11
10370.77138451164
 21
4793.926253452757
 31
0.0
  0
LINE
  5
17935
330
747D
100
AcDbEntity
  8
部品1
 48
50.0
100
AcDbLine
 10
10342.77138451164
 20
4793.926253452757
 30
0.0
 11
10332.27138451164
 21
4774.526253452755
 31
0.0
  0
LINE
  5
17936
330
747D
100
AcDbEntity
  8
部品1
 48
50.0
100
AcDbLine
 10
10370.77138451164
 20
4793.926253452757
 30
0.0
 11
10381.27138451164
 21
4774.526253452755
 31
0.0
  0
LINE
  5
17937
330
747D
100
AcDbEntity
  8
部品1
100
AcDbLine
 10
10405.27138451164
 20
4774.526253452751
 30
0.0
 11
10381.27138451164
 21
4774.526253452751
 31
0.0
  0
LINE
  5
17938
330
747D
100
AcDbEntity
  8
部品1
 48
50.0
100
AcDbLine
 10
8841.760294607359
 20
4696.515185944178
 30
0.0
 11
11506.7824744159
 21
4696.515185944181
 31
0.0
  0
LINE
  5
17939
330
747D
100
AcDbEntity
  8
部品1
 48
50.0
100
AcDbLine
 10
10186.27138451164
 20
4793.926253452753
 30
0.0
 11
10188.77138451164
 21
4774.526253452751
 31
0.0
  0
LINE
  5
1793A
330
747D
100
AcDbEntity
  8
部品1
 48
50.0
100
AcDbLine
 10
10147.06004430546
 20
4784.526253452752
 30
0.0
 11
10145.77138451164
 21
4774.526253452751
 31
0.0
  0
LINE
  5
1793B
330
747D
100
AcDbEntity
  8
部品1
 48
50.0
100
AcDbLine
 10
10147.06004430546
 20
4784.526253452752
 30
0.0
 11
10161.06004430546
 21
4784.526253452752
 31
0.0
  0
LINE
  5
1793C
330
747D
100
AcDbEntity
  8
部品1
 48
50.0
100
AcDbLine
 10
10162.27138451164
 20
4793.926253452753
 30
0.0
 11
10161.06004430546
 21
4784.526253452752
 31
0.0
  0
LINE
  5
1793D
330
747D
100
AcDbEntity
  8
部品1
 48
50.0
100
AcDbLine
 10
10162.27138451164
 20
4793.926253452753
 30
0.0
 11
10186.27138451164
 21
4793.926253452753
 31
0.0
  0
LINE
  5
1793E
330
747D
100
AcDbEntity
  8
部品1
100
AcDbLine
 10
10183.27138451163
 20
4793.926253452753
 30
0.0
 11
10183.27138451163
 21
4696.515185944178
 31
0.0
  0
LINE
  5
1793F
330
747D
100
AcDbEntity
  8
部品1
100
AcDbLine
 10
10165.27138451163
 20
4793.926253452742
 30
0.0
 11
10165.27138451163
 21
4696.515185944178
 31
0.0
  0
LINE
  5
17940
330
747D
100
AcDbEntity
  8
細線
 48
50.0
100
AcDbLine
 10
8859.200756518434
 20
4715.89808619223
 30
0.0
 11
8811.137515234488
 21
4715.898086192237
 31
0.0
  0
LINE
  5
17941
330
747D
100
AcDbEntity
  8
細線
 48
50.0
100
AcDbLine
 10
8841.760294607359
 20
4743.92625344428
 30
0.0
 11
8841.760294607359
 21
4617.42625344428
 31
0.0
  0
LINE
  5
17942
330
747D
100
AcDbEntity
  8
細線
 48
50.0
100
AcDbLine
 10
11530.04974218469
 20
4638.199496008065
 30
0.0
 11
8819.15497614416
 21
4638.199496008065
 31
0.0
  0
ARC
  5
17943
330
747D
100
AcDbEntity
  8
部品1
100
AcDbCircle
 10
8816.257428328851
 20
4791.926253461179
 30
0.0
 40
7.0
100
AcDbArc
 50
90.0
 51
183.6186294801312
  0
LINE
  5
17944
330
747D
100
AcDbEntity
  8
部品1
100
AcDbLine
 10
8854.200756518435
 20
4798.926253461178
 30
0.0
 11
8816.257428328851
 21
4798.926253461178
 31
0.0
  0
ARC
  5
17945
330
747D
100
AcDbEntity
  8
部品1
100
AcDbCircle
 10
8854.200756518435
 20
4793.926253461179
 30
0.0
 40
5.0
100
AcDbArc
 50
0.0
 51
90.0
  0
LINE
  5
17946
330
747D
100
AcDbEntity
  8
部品1
 48
50.0
100
AcDbLine
 10
8809.271384511642
 20
4736.484448301691
 30
0.0
 11
8809.271384511642
 21
4791.48444831859
 31
0.0
  0
LINE
  5
17947
330
747D
100
AcDbEntity
  8
部品1
100
AcDbLine
 10
11519.15872984844
 20
4617.42625344428
 30
0.0
 11
8829.384039174824
 21
4617.42625344428
 31
0.0
  0
LINE
  5
17948
330
747D
100
AcDbEntity
  8
部品1
100
AcDbLine
 10
8859.200756518436
 20
4793.926253461179
 30
0.0
 11
8859.200756518434
 21
4696.52222477161
 31
0.0
  0
ARC
  5
17949
330
747D
100
AcDbEntity
  8
部品1
100
AcDbCircle
 10
8854.200756518435
 20
4738.92625344428
 30
0.0
 40
5.0
100
AcDbArc
 50
0.0
 51
90.0
  0
LINE
  5
1794A
330
747D
100
AcDbEntity
  8
部品1
100
AcDbLine
 10
8854.200756518435
 20
4743.92625344428
 30
0.0
 11
8816.257428328851
 21
4743.92625344428
 31
0.0
  0
LINE
  5
1794B
330
747D
100
AcDbEntity
  8
部品1
100
AcDbLine
 10
8810.531922570207
 20
4716.55219025061
 30
0.0
 11
8809.271384511642
 21
4736.484448301691
 31
0.0
  0
LINE
  5
1794C
330
747D
100
AcDbEntity
  8
部品1
100
AcDbLine
 10
8822.397995357613
 20
4623.984448301691
 30
0.0
 11
8821.725669653032
 21
4634.615598505393
 31
0.0
  0
ARC
  5
1794D
330
747D
100
AcDbEntity
  8
部品1
100
AcDbCircle
 10
8816.257428328851
 20
4736.92625344428
 30
0.0
 40
7.0
100
AcDbArc
 50
90.0
 51
183.6186294801312
  0
ARC
  5
1794E
330
747D
100
AcDbEntity
  8
部品1
100
AcDbCircle
 10
8829.384039174824
 20
4624.42625344428
 30
0.0
 40
7.0
100
AcDbArc
 50
183.6186294801312
 51
270.0
  0
ARC
  5
1794F
330
747D
100
AcDbEntity
  8
部品1
100
AcDbCircle
 10
8818.731650874225
 20
4634.426253444281
 30
0.0
 40
3.0
100
AcDbArc
 50
3.61862948013121
 51
90.0
  0
ARC
  5
17950
330
747D
100
AcDbEntity
  8
部品1
100
AcDbCircle
 10
8819.200946999421
 20
4638.096370764872
 30
0.0
 40
0.7
100
AcDbArc
 50
183.6186294801312
 51
262.7131594833544
  0
LINE
  5
17951
330
747D
100
AcDbEntity
  8
部品1
100
AcDbLine
 10
8813.75524960554
 20
4713.115598505393
 30
0.0
 11
8818.5023426177
 21
4638.052190250609
 31
0.0
  0
ARC
  5
17952
330
747D
100
AcDbEntity
  8
部品1
100
AcDbCircle
 10
8810.761230826734
 20
4712.926253444281
 30
0.0
 40
3.0
100
AcDbArc
 50
3.61862948013121
 51
90.0
  0
ARC
  5
17953
330
747D
100
AcDbEntity
  8
部品1
100
AcDbCircle
 10
8811.230526951929
 20
4716.596370764871
 30
0.0
 40
0.7
100
AcDbArc
 50
183.6186294801312
 51
262.7131594833544
  0
LINE
  5
17954
330
747D
100
AcDbEntity
  8
部品1
 48
50.0
100
AcDbLine
 10
8854.200756518435
 20
4743.92625344428
 30
0.0
 11
8816.257428328851
 21
4743.92625344428
 31
0.0
  0
LINE
  5
17955
330
747D
100
AcDbEntity
  8
部品1
100
AcDbLine
 10
10145.77138451164
 20
4774.526253452733
 30
0.0
 11
10034.27138451165
 21
4774.526253452733
 31
0.0
  0
LINE
  5
17956
330
747D
100
AcDbEntity
  8
部品1
100
AcDbLine
 10
11494.34172180627
 20
4798.926253452727
 30
0.0
 11
8833.703544892548
 21
4798.926253452753
 31
0.0
  0
LINE
  5
17957
330
747D
100
AcDbEntity
  8
部品1
 48
50.0
100
AcDbLine
 10
9307.060044305455
 20
4784.526253452752
 30
0.0
 11
9321.060044305452
 21
4784.526253452752
 31
0.0
  0
LINE
  5
17958
330
747D
100
AcDbEntity
  8
部品1
100
AcDbLine
 10
9072.271384511642
 20
4774.526253452748
 30
0.0
 11
8928.771384511641
 21
4774.526253452751
 31
0.0
  0
LINE
  5
17959
330
747D
100
AcDbEntity
  8
部品1
 48
50.0
100
AcDbLine
 10
8926.271384511641
 20
4793.926253452753
 30
0.0
 11
8902.271384511641
 21
4793.926253452753
 31
0.0
  0
LINE
  5
1795A
330
747D
100
AcDbEntity
  8
部品1
 48
50.0
100
AcDbLine
 10
8902.271384511641
 20
4793.926253452753
 30
0.0
 11
8901.060044305454
 21
4784.526253452752
 31
0.0
  0
LINE
  5
1795B
330
747D
100
AcDbEntity
  8
部品1
 48
50.0
100
AcDbLine
 10
8887.060044305455
 20
4784.526253452752
 30
0.0
 11
8885.771384511642
 21
4774.526253452751
 31
0.0
  0
LINE
  5
1795C
330
747D
100
AcDbEntity
  8
部品1
 48
50.0
100
AcDbLine
 10
8887.060044305455
 20
4784.526253452752
 30
0.0
 11
8901.060044305454
 21
4784.526253452752
 31
0.0
  0
LINE
  5
1795D
330
747D
100
AcDbEntity
  8
部品1
100
AcDbLine
 10
8885.771384511642
 20
4774.526253452751
 30
0.0
 11
8859.271384511641
 21
4774.526253452751
 31
0.0
  0
LINE
  5
1795E
330
747D
100
AcDbEntity
  8
部品1
 48
50.0
100
AcDbLine
 10
8926.271384511641
 20
4793.926253452753
 30
0.0
 11
8928.771384511641
 21
4774.526253452751
 31
0.0
  0
LINE
  5
1795F
330
747D
100
AcDbEntity
  8
部品1
100
AcDbLine
 10
8905.271384511648
 20
4793.926253452753
 30
0.0
 11
8905.27138451165
 21
4696.515185944178
 31
0.0
  0
LINE
  5
17960
330
747D
100
AcDbEntity
  8
部品1
100
AcDbLine
 10
8923.271384511648
 20
4793.926253452742
 30
0.0
 11
8923.271384511648
 21
4696.515185944178
 31
0.0
  0
LINE
  5
17961
330
747D
100
AcDbEntity
  8
部品1
 48
50.0
100
AcDbLine
 10
9155.771384511641
 20
4793.926253452753
 30
0.0
 11
9145.271384511643
 21
4774.526253452751
 31
0.0
  0
LINE
  5
17962
330
747D
100
AcDbEntity
  8
部品1
 48
50.0
100
AcDbLine
 10
9082.771384511643
 20
4793.926253452753
 30
0.0
 11
9110.771384511638
 21
4793.926253452753
 31
0.0
  0
LINE
  5
17963
330
747D
100
AcDbEntity
  8
部品1
 48
50.0
100
AcDbLine
 10
9082.771384511643
 20
4793.926253452753
 30
0.0
 11
9072.271384511642
 21
4774.526253452751
 31
0.0
  0
LINE
  5
17964
330
747D
100
AcDbEntity
  8
部品1
100
AcDbLine
 10
9084.27138451165
 20
4793.92625345275
 30
0.0
 11
9084.271384511646
 21
4696.515185944178
 31
0.0
  0
LINE
  5
17965
330
747D
100
AcDbEntity
  8
部品1
 48
50.0
100
AcDbLine
 10
9110.771384511641
 20
4793.926253452753
 30
0.0
 11
9121.271384511642
 21
4774.526253452751
 31
0.0
  0
LINE
  5
17966
330
747D
100
AcDbEntity
  8
部品1
100
AcDbLine
 10
9109.271384511648
 20
4793.92625345275
 30
0.0
 11
9109.27138451165
 21
4696.515185944178
 31
0.0
  0
LINE
  5
17967
330
747D
100
AcDbEntity
  8
部品1
100
AcDbLine
 10
9145.271384511637
 20
4774.526253452748
 30
0.0
 11
9121.271384511642
 21
4774.526253452751
 31
0.0
  0
LINE
  5
17968
330
747D
100
AcDbEntity
  8
部品1
 48
50.0
100
AcDbLine
 10
9307.060044305455
 20
4784.526253452752
 30
0.0
 11
9305.771384511642
 21
4774.526253452751
 31
0.0
  0
LINE
  5
17969
330
747D
100
AcDbEntity
  8
部品1
 48
50.0
100
AcDbLine
 10
9155.771384511641
 20
4793.926253452753
 30
0.0
 11
9183.771384511638
 21
4793.926253452753
 31
0.0
  0
LINE
  5
1796A
330
747D
100
AcDbEntity
  8
部品1
 48
50.0
100
AcDbLine
 10
9183.771384511642
 20
4793.926253452753
 30
0.0
 11
9194.271384511642
 21
4774.526253452751
 31
0.0
  0
LINE
  5
1796B
330
747D
100
AcDbEntity
  8
部品1
100
AcDbLine
 10
9182.271384511649
 20
4793.92625345275
 30
0.0
 11
9182.271384511649
 21
4696.515185944178
 31
0.0
  0
LINE
  5
1796C
330
747D
100
AcDbEntity
  8
部品1
100
AcDbLine
 10
9157.271384511648
 20
4793.92625345275
 30
0.0
 11
9157.271384511648
 21
4696.515185944178
 31
0.0
  0
LINE
  5
1796D
330
747D
100
AcDbEntity
  8
部品1
100
AcDbLine
 10
9305.771384511642
 20
4774.526253452748
 30
0.0
 11
9194.271384511642
 21
4774.526253452748
 31
0.0
  0
LINE
  5
1796E
330
747D
100
AcDbEntity
  8
部品1
100
AcDbLine
 10
9985.271384511639
 20
4774.526253452748
 30
0.0
 11
9961.271384511642
 21
4774.526253452748
 31
0.0
  0
LINE
  5
1796F
330
747D
100
AcDbEntity
  8
部品1
100
AcDbLine
 10
9725.771384511642
 20
4774.526253452748
 30
0.0
 11
9614.271384511642
 21
4774.526253452748
 31
0.0
  0
LINE
  5
17970
330
747D
100
AcDbEntity
  8
部品1
100
AcDbLine
 10
9492.271384511637
 20
4774.526253452748
 30
0.0
 11
9348.771384511637
 21
4774.526253452748
 31
0.0
  0
LINE
  5
17971
330
747D
100
AcDbEntity
  8
部品1
 48
50.0
100
AcDbLine
 10
9346.271384511641
 20
4793.926253452753
 30
0.0
 11
9348.771384511641
 21
4774.526253452751
 31
0.0
  0
LINE
  5
17972
330
747D
100
AcDbEntity
  8
部品1
 48
50.0
100
AcDbLine
 10
9322.271384511642
 20
4793.926253452753
 30
0.0
 11
9321.060044305452
 21
4784.526253452752
 31
0.0
  0
LINE
  5
17973
330
747D
100
AcDbEntity
  8
部品1
 48
50.0
100
AcDbLine
 10
9346.271384511641
 20
4793.926253452753
 30
0.0
 11
9322.271384511642
 21
4793.926253452753
 31
0.0
  0
LINE
  5
17974
330
747D
100
AcDbEntity
  8
部品1
100
AcDbLine
 10
9325.271384511649
 20
4793.926253452742
 30
0.0
 11
9325.271384511649
 21
4696.515185944178
 31
0.0
  0
LINE
  5
17975
330
747D
100
AcDbEntity
  8
部品1
100
AcDbLine
 10
9343.271384511648
 20
4793.926253452742
 30
0.0
 11
9343.27138451165
 21
4696.515185944178
 31
0.0
  0
LINE
  5
17976
330
747D
100
AcDbEntity
  8
部品1
 48
50.0
100
AcDbLine
 10
9575.771384511641
 20
4793.926253452753
 30
0.0
 11
9603.771384511638
 21
4793.926253452753
 31
0.0
  0
LINE
  5
17977
330
747D
100
AcDbEntity
  8
部品1
 48
50.0
100
AcDbLine
 10
9502.771384511641
 20
4793.926253452753
 30
0.0
 11
9530.771384511638
 21
4793.926253452753
 31
0.0
  0
LINE
  5
17978
330
747D
100
AcDbEntity
  8
部品1
 48
50.0
100
AcDbLine
 10
9575.771384511641
 20
4793.926253452753
 30
0.0
 11
9565.271384511641
 21
4774.526253452751
 31
0.0
  0
LINE
  5
17979
330
747D
100
AcDbEntity
  8
部品1
 48
50.0
100
AcDbLine
 10
9530.771384511641
 20
4793.926253452753
 30
0.0
 11
9541.271384511642
 21
4774.526253452751
 31
0.0
  0
LINE
  5
1797A
330
747D
100
AcDbEntity
  8
部品1
100
AcDbLine
 10
9565.271384511637
 20
4774.526253452748
 30
0.0
 11
9541.271384511642
 21
4774.526253452748
 31
0.0
  0
LINE
  5
1797B
330
747D
100
AcDbEntity
  8
部品1
 48
50.0
100
AcDbLine
 10
9502.771384511641
 20
4793.926253452753
 30
0.0
 11
9492.271384511642
 21
4774.526253452751
 31
0.0
  0
LINE
  5
1797C
330
747D
100
AcDbEntity
  8
部品1
100
AcDbLine
 10
9577.271384511648
 20
4793.92625345275
 30
0.0
 11
9577.271384511648
 21
4696.515185944178
 31
0.0
  0
LINE
  5
1797D
330
747D
100
AcDbEntity
  8
部品1
100
AcDbLine
 10
9529.27138451165
 20
4793.92625345275
 30
0.0
 11
9529.27138451165
 21
4696.515185944178
 31
0.0
  0
LINE
  5
1797E
330
747D
100
AcDbEntity
  8
部品1
100
AcDbLine
 10
9504.27138451165
 20
4793.92625345275
 30
0.0
 11
9504.27138451165
 21
4696.515185944178
 31
0.0
  0
LINE
  5
1797F
330
747D
100
AcDbEntity
  8
部品1
 48
50.0
100
AcDbLine
 10
9603.771384511642
 20
4793.926253452753
 30
0.0
 11
9614.271384511642
 21
4774.526253452751
 31
0.0
  0
LINE
  5
17980
330
747D
100
AcDbEntity
  8
部品1
100
AcDbLine
 10
9602.271384511649
 20
4793.92625345275
 30
0.0
 11
9602.271384511652
 21
4696.515185944178
 31
0.0
  0
LINE
  5
17981
330
747D
100
AcDbEntity
  8
部品1
100
AcDbLine
 10
9912.271384511639
 20
4774.526253452748
 30
0.0
 11
9768.771384511637
 21
4774.526253452748
 31
0.0
  0
LINE
  5
17982
330
747D
100
AcDbEntity
  8
部品1
 48
50.0
100
AcDbLine
 10
9766.271384511641
 20
4793.926253452753
 30
0.0
 11
9742.271384511642
 21
4793.926253452753
 31
0.0
  0
LINE
  5
17983
330
747D
100
AcDbEntity
  8
部品1
 48
50.0
100
AcDbLine
 10
9742.271384511642
 20
4793.926253452753
 30
0.0
 11
9741.060044305454
 21
4784.526253452752
 31
0.0
  0
LINE
  5
17984
330
747D
100
AcDbEntity
  8
部品1
 48
50.0
100
AcDbLine
 10
9727.060044305453
 20
4784.526253452752
 30
0.0
 11
9741.060044305454
 21
4784.526253452752
 31
0.0
  0
LINE
  5
17985
330
747D
100
AcDbEntity
  8
部品1
 48
50.0
100
AcDbLine
 10
9727.060044305453
 20
4784.526253452752
 30
0.0
 11
9725.771384511642
 21
4774.526253452751
 31
0.0
  0
LINE
  5
17986
330
747D
100
AcDbEntity
  8
部品1
100
AcDbLine
 10
9745.271384511649
 20
4793.926253452742
 30
0.0
 11
9745.271384511651
 21
4696.515185944178
 31
0.0
  0
LINE
  5
17987
330
747D
100
AcDbEntity
  8
部品1
 48
50.0
100
AcDbLine
 10
9766.271384511641
 20
4793.926253452753
 30
0.0
 11
9768.771384511643
 21
4774.526253452751
 31
0.0
  0
LINE
  5
17988
330
747D
100
AcDbEntity
  8
部品1
100
AcDbLine
 10
9763.271384511648
 20
4793.926253452742
 30
0.0
 11
9763.271384511652
 21
4696.515185944178
 31
0.0
  0
LINE
  5
17989
330
747D
100
AcDbEntity
  8
部品1
 48
50.0
100
AcDbLine
 10
9950.771384511641
 20
4793.926253452753
 30
0.0
 11
9961.271384511642
 21
4774.526253452751
 31
0.0
  0
LINE
  5
1798A
330
747D
100
AcDbEntity
  8
部品1
100
AcDbLine
 10
9949.271384511648
 20
4793.92625345275
 30
0.0
 11
9949.271384511648
 21
4696.515185944178
 31
0.0
  0
LINE
  5
1798B
330
747D
100
AcDbEntity
  8
部品1
 48
50.0
100
AcDbLine
 10
9922.771384511641
 20
4793.926253452753
 30
0.0
 11
9912.271384511642
 21
4774.526253452751
 31
0.0
  0
LINE
  5
1798C
330
747D
100
AcDbEntity
  8
部品1
100
AcDbLine
 10
9924.271384511648
 20
4793.92625345275
 30
0.0
 11
9924.271384511648
 21
4696.515185944178
 31
0.0
  0
LINE
  5
1798D
330
747D
100
AcDbEntity
  8
部品1
 48
50.0
100
AcDbLine
 10
9922.771384511641
 20
4793.926253452753
 30
0.0
 11
9950.771384511639
 21
4793.926253452753
 31
0.0
  0
LINE
  5
1798E
330
747D
100
AcDbEntity
  8
部品1
 48
50.0
100
AcDbLine
 10
9995.771384511641
 20
4793.926253452753
 30
0.0
 11
9985.271384511641
 21
4774.526253452751
 31
0.0
  0
LINE
  5
1798F
330
747D
100
AcDbEntity
  8
部品1
 48
50.0
100
AcDbLine
 10
10023.77138451164
 20
4793.926253452753
 30
0.0
 11
10034.27138451164
 21
4774.526253452751
 31
0.0
  0
LINE
  5
17990
330
747D
100
AcDbEntity
  8
部品1
 48
50.0
100
AcDbLine
 10
9995.771384511641
 20
4793.926253452753
 30
0.0
 11
10023.77138451163
 21
4793.926253452753
 31
0.0
  0
LINE
  5
17991
330
747D
100
AcDbEntity
  8
部品1
100
AcDbLine
 10
9997.271384511648
 20
4793.92625345275
 30
0.0
 11
9997.27138451165
 21
4696.515185944178
 31
0.0
  0
LINE
  5
17992
330
747D
100
AcDbEntity
  8
部品1
100
AcDbLine
 10
10022.27138451165
 20
4793.92625345275
 30
0.0
 11
10022.27138451165
 21
4696.515185944178
 31
0.0
  0
DIMENSION
  5
17993
330
747D
100
AcDbEntity
  8
寸法
 48
50.0
100
AcDbDimension
  2
*D15
 10
11539.27138451163
 20
5414.545522402199
 30
0.0
 11
10174.27138451163
 21
5414.545522402199
 31
0.0
 70
   160
 71
     5
 42
2729.999999999999
  3
INABA_S40G
100
AcDbAlignedDimension
 13
8809.271384511633
 23
4798.926253444284
 33
0.0
 14
11539.27138451163
 24
4798.926253444284
 34
0.0
100
AcDbRotatedDimension
  0
DIMENSION
  5
17994
330
747D
100
AcDbEntity
  8
寸法
 48
50.0
100
AcDbDimension
  2
*D16
 10
8809.271384511633
 20
5198.019422783755
 30
0.0
 11
8495.786103137387
 21
5198.019422783755
 31
0.0
 70
   160
 71
     5
 42
50.0
  3
INABA_S40G
100
AcDbAlignedDimension
 13
8859.271384511634
 23
4798.926253444288
 33
0.0
 14
8809.271384511633
 24
4798.926253444284
 34
0.0
100
AcDbRotatedDimension
1001
ACAD
1000
DSTYLE
1002
{
1002
}
  0
DIMENSION
  5
17995
330
747D
100
AcDbEntity
  8
寸法
 48
50.0
100
AcDbDimension
  2
*D17
 10
8859.271384511634
 20
5198.019422783751
 30
0.0
 11
10174.27138451163
 21
5198.019422783751
 31
0.0
 70
   160
  1
柱外寸法<>
 71
     5
 42
2629.999999999999
  3
INABA_S40G
100
AcDbAlignedDimension
 13
11489.27138451163
 23
4798.926253444284
 33
0.0
 14
8859.271384511634
 24
4798.926253444288
 34
0.0
100
AcDbRotatedDimension
  0
LINE
  5
17A46
330
747D
100
AcDbEntity
  8
部品1
 48
50.0
100
AcDbLine
 10
10141.27138451163
 20
4506.926253469048
 30
0.0
 11
10141.27138451163
 21
2773.926253444277
 31
0.0
  0
LINE
  5
17A47
330
747D
100
AcDbEntity
  8
部品1
100
AcDbLine
 10
10795.27137481649
 20
4506.926253481431
 30
0.0
 11
10795.27137481649
 21
2781.426253481446
 31
0.0
  0
LINE
  5
17A48
330
747D
100
AcDbEntity
  8
細線
100
AcDbLine
 10
10041.27138451163
 20
4506.92625344428
 30
0.0
 11
10041.27138451163
 21
2773.926253444288
 31
0.0
  0
LINE
  5
17A49
330
747D
100
AcDbEntity
  8
細線
100
AcDbLine
 10
9971.271384511636
 20
4506.92625344428
 30
0.0
 11
9971.271384511632
 21
2773.926253444288
 31
0.0
  0
LINE
  5
17A4A
330
747D
100
AcDbEntity
  8
細線
100
AcDbLine
 10
9901.271384511638
 20
4506.92625344428
 30
0.0
 11
9901.271384511632
 21
2773.926253444285
 31
0.0
  0
LINE
  5
17A4B
330
747D
100
AcDbEntity
  8
細線
100
AcDbLine
 10
9831.271384511637
 20
4506.92625344428
 30
0.0
 11
9831.271384511632
 21
2773.926253444285
 31
0.0
  0
LINE
  5
17A4C
330
747D
100
AcDbEntity
  8
細線
100
AcDbLine
 10
9761.271384511637
 20
4506.92625344428
 30
0.0
 11
9761.271384511633
 21
2773.926253444285
 31
0.0
  0
LINE
  5
17A4D
330
747D
100
AcDbEntity
  8
細線
100
AcDbLine
 10
9691.271384511637
 20
4506.92625344428
 30
0.0
 11
9691.271384511633
 21
2773.926253444285
 31
0.0
  0
LINE
  5
17A4E
330
747D
100
AcDbEntity
  8
部品1
100
AcDbLine
 10
9507.271384511632
 20
4506.92625344428
 30
0.0
 11
9507.271384511636
 21
2773.926253444285
 31
0.0
  0
LINE
  5
17A4F
330
747D
100
AcDbEntity
  8
部品1
100
AcDbLine
 10
9457.271384511633
 20
4506.92625344428
 30
0.0
 11
9457.271384511635
 21
2773.926253444285
 31
0.0
  0
LINE
  5
17A50
330
747D
100
AcDbEntity
  8
細線
100
AcDbLine
 10
9499.271384511633
 20
4506.92625344428
 30
0.0
 11
9499.271384511635
 21
2773.926253444285
 31
0.0
  0
LINE
  5
17A51
330
747D
100
AcDbEntity
  8
細線
100
AcDbLine
 10
9465.271384511632
 20
4506.92625344428
 30
0.0
 11
9465.271384511636
 21
2773.926253444285
 31
0.0
  0
LINE
  5
17A52
330
747D
100
AcDbEntity
  8
細線
100
AcDbLine
 10
10692.77139426188
 20
4506.92625344428
 30
0.0
 11
10692.77139426188
 21
2781.426253444291
 31
0.0
  0
LINE
  5
17A53
330
747D
100
AcDbEntity
  8
細線
100
AcDbLine
 10
10622.77139426188
 20
4506.92625344428
 30
0.0
 11
10622.77139426188
 21
2781.426253444291
 31
0.0
  0
LINE
  5
17A54
330
747D
100
AcDbEntity
  8
細線
100
AcDbLine
 10
10552.77139426188
 20
4506.92625344428
 30
0.0
 11
10552.77139426188
 21
2781.426253444291
 31
0.0
  0
LINE
  5
17A55
330
747D
100
AcDbEntity
  8
細線
100
AcDbLine
 10
10482.77139426188
 20
4506.92625344428
 30
0.0
 11
10482.77139426188
 21
2781.426253444291
 31
0.0
  0
LINE
  5
17A56
330
747D
100
AcDbEntity
  8
細線
100
AcDbLine
 10
10412.77139426188
 20
4506.92625344428
 30
0.0
 11
10412.77139426188
 21
2781.426253444291
 31
0.0
  0
LINE
  5
17A57
330
747D
100
AcDbEntity
  8
細線
100
AcDbLine
 10
10342.77139426188
 20
4506.92625344428
 30
0.0
 11
10342.77139426188
 21
2781.426253444291
 31
0.0
  0
LINE
  5
17A58
330
747D
100
AcDbEntity
  8
細線
100
AcDbLine
 10
11268.02138451163
 20
4506.92625344428
 30
0.0
 11
11268.02138451163
 21
2781.426253444299
 31
0.0
  0
LINE
  5
17A59
330
747D
100
AcDbEntity
  8
細線
100
AcDbLine
 10
11198.02138451164
 20
4506.92625344428
 30
0.0
 11
11198.02138451164
 21
2781.426253444299
 31
0.0
  0
LINE
  5
17A5A
330
747D
100
AcDbEntity
  8
細線
100
AcDbLine
 10
11128.02138451164
 20
4506.92625344428
 30
0.0
 11
11128.02138451164
 21
2781.426253444299
 31
0.0
  0
LINE
  5
17A5B
330
747D
100
AcDbEntity
  8
細線
100
AcDbLine
 10
11058.02138451164
 20
4506.92625344428
 30
0.0
 11
11058.02138451164
 21
2781.426253444299
 31
0.0
  0
LINE
  5
17A5C
330
747D
100
AcDbEntity
  8
細線
100
AcDbLine
 10
10988.02138451164
 20
4506.92625344428
 30
0.0
 11
10988.02138451164
 21
2781.426253444299
 31
0.0
  0
LINE
  5
17A5D
330
747D
100
AcDbEntity
  8
細線
100
AcDbLine
 10
9621.271384511636
 20
4506.92625344428
 30
0.0
 11
9621.271384511633
 21
2773.926253444285
 31
0.0
  0
LINE
  5
17A5E
330
747D
100
AcDbEntity
  8
細線
100
AcDbLine
 10
9551.271384511636
 20
4506.92625344428
 30
0.0
 11
9551.271384511633
 21
2773.926253444285
 31
0.0
  0
LINE
  5
17A5F
330
747D
100
AcDbEntity
  8
細線
100
AcDbLine
 10
10272.77139426188
 20
4506.92625344428
 30
0.0
 11
10272.77139426188
 21
2781.426253444291
 31
0.0
  0
LINE
  5
17A60
330
747D
100
AcDbEntity
  8
細線
100
AcDbLine
 10
10202.77139426188
 20
4506.92625344428
 30
0.0
 11
10202.77139426188
 21
2781.426253444291
 31
0.0
  0
LINE
  5
17A61
330
747D
100
AcDbEntity
  8
細線
100
AcDbLine
 10
10918.02138451164
 20
4506.92625344428
 30
0.0
 11
10918.02138451164
 21
2781.426253444299
 31
0.0
  0
LINE
  5
17A62
330
747D
100
AcDbEntity
  8
部品1
 48
50.0
100
AcDbLine
 10
11461.27138451163
 20
4514.92625344428
 30
0.0
 11
11431.27138451163
 21
4514.92625344428
 31
0.0
  0
LINE
  5
17A63
330
747D
100
AcDbEntity
  8
細線
 48
50.0
100
AcDbLine
 10
11409.27138451163
 20
2770.926253444281
 30
0.0
 11
11405.27138451163
 21
2781.42625344428
 31
0.0
  0
LINE
  5
17A64
330
747D
100
AcDbEntity
  8
部品1
 48
50.0
100
AcDbLine
 10
10795.27137481649
 20
4506.926253481427
 30
0.0
 11
10795.27137481649
 21
2781.426253481428
 31
0.0
  0
LINE
  5
17A65
330
747D
100
AcDbEntity
  8
部品1
 48
50.0
100
AcDbLine
 10
11461.27138451163
 20
2723.926253444281
 30
0.0
 11
11461.27138451163
 21
4558.92625344428
 31
0.0
  0
LINE
  5
17A66
330
747D
100
AcDbEntity
  8
細線
 48
50.0
100
AcDbLine
 10
11431.27138451163
 20
2723.926253444281
 30
0.0
 11
11431.27138451163
 21
4516.42625344428
 31
0.0
  0
LINE
  5
17A67
330
747D
100
AcDbEntity
  8
部品1
 48
50.0
100
AcDbLine
 10
11422.27138451163
 20
2770.926253444281
 30
0.0
 11
11422.27138451163
 21
4506.92625344428
 31
0.0
  0
LINE
  5
17A68
330
747D
100
AcDbEntity
  8
部品1
 48
50.0
100
AcDbLine
 10
9337.271384511636
 20
4514.92625344428
 30
0.0
 11
9307.271384511635
 21
4514.92625344428
 31
0.0
  0
LINE
  5
17A69
330
747D
100
AcDbEntity
  8
部品1
 48
50.0
100
AcDbLine
 10
9346.271384511636
 20
2773.926253444281
 30
0.0
 11
9346.271384511636
 21
2770.926253444281
 31
0.0
  0
LINE
  5
17A6A
330
747D
100
AcDbEntity
  8
部品1
 48
50.0
100
AcDbLine
 10
9337.271384511636
 20
2773.926253444281
 30
0.0
 11
10141.27138451163
 21
2773.926253444277
 31
0.0
  0
LINE
  5
17A6B
330
747D
100
AcDbEntity
  8
部品1
 48
50.0
100
AcDbLine
 10
10141.27138451163
 20
4506.926253469048
 30
0.0
 11
10141.27138451163
 21
2773.926253469048
 31
0.0
  0
LINE
  5
17A6C
330
747D
100
AcDbEntity
  8
部品1
 48
50.0
100
AcDbLine
 10
9307.271384511635
 20
4558.92625344428
 30
0.0
 11
9307.271384511635
 21
2723.926253444281
 31
0.0
  0
LINE
  5
17A6D
330
747D
100
AcDbEntity
  8
細線
 48
50.0
100
AcDbLine
 10
9337.271384511636
 20
4516.42625344428
 30
0.0
 11
9337.271384511636
 21
2723.926253444281
 31
0.0
  0
LINE
  5
17A6E
330
747D
100
AcDbEntity
  8
部品1
 48
50.0
100
AcDbLine
 10
9337.271384511636
 20
2773.926253444281
 30
0.0
 11
9337.271384511636
 21
4506.92625344428
 31
0.0
  0
LINE
  5
17A6F
330
747D
100
AcDbEntity
  8
細線
 48
50.0
100
AcDbLine
 10
10141.27138451163
 20
2781.42625344428
 30
0.0
 11
11405.27138451163
 21
2781.42625344428
 31
0.0
  0
LINE
  5
17A70
330
747D
100
AcDbEntity
  8
細線
 48
50.0
100
AcDbLine
 10
9337.271384511636
 20
2770.926253444281
 30
0.0
 11
11431.27138451163
 21
2770.926253444281
 31
0.0
  0
LINE
  5
17A71
330
747D
100
AcDbEntity
  8
細線
 48
50.0
100
AcDbLine
 10
9337.271384511636
 20
2766.92625344428
 30
0.0
 11
11431.27138451163
 21
2766.92625344428
 31
0.0
  0
LINE
  5
17A72
330
747D
100
AcDbEntity
  8
部品1
 48
50.0
100
AcDbLine
 10
9307.271384511635
 20
2723.926253444281
 30
0.0
 11
11461.27138451163
 21
2723.926253444281
 31
0.0
  0
LINE
  5
17A73
330
747D
100
AcDbEntity
  8
細線
 48
50.0
100
AcDbLine
 10
11431.27138451163
 20
4516.42625344428
 30
0.0
 11
9337.271384511636
 21
4516.42625344428
 31
0.0
  0
LINE
  5
17A74
330
747D
100
AcDbEntity
  8
細線
 48
50.0
100
AcDbLine
 10
11431.27138451163
 20
4506.92625344428
 30
0.0
 11
9337.271384511636
 21
4506.92625344428
 31
0.0
  0
LINE
  5
17A75
330
747D
100
AcDbEntity
  8
細線
 48
50.0
100
AcDbLine
 10
11461.27138451163
 20
4548.926253444281
 30
0.0
 11
9307.271384511635
 21
4548.926253444281
 31
0.0
  0
LINE
  5
17A76
330
747D
100
AcDbEntity
  8
部品1
 48
50.0
100
AcDbLine
 10
11461.27138451163
 20
4558.92625344428
 30
0.0
 11
9307.271384511635
 21
4558.92625344428
 31
0.0
  0
LINE
  5
17A90
330
747D
100
AcDbEntity
  8
部品1
 48
50.0
100
AcDbLine
 10
9381.271384511636
 20
3705.426253444281
 30
0.0
 11
9434.271384511637
 21
3705.426253444281
 31
0.0
  0
MTEXT
  5
17A94
330
747D
100
AcDbEntity
  8
寸法
 62
     7
 48
50.0
100
AcDbMText
 10
10839.37392160478
 20
9165.805067895808
 30
0.0
 40
96.0
 41
0.0
 71
     5
 72
     1
  1
棚 2段
  7
STYLE1
 73
     1
 44
1.0
1001
ACAD
1000
MTEXTBEGIN
1070
    73
1070
     1
1070
    44
1040
1.0
1070
    74
1070
     0
1000
MTEXTEND
  0
MTEXT
  5
17A95
330
747D
100
AcDbEntity
  8
寸法
 62
     7
 48
50.0
100
AcDbMText
 10
9539.373921604749
 20
9165.805067895782
 30
0.0
 40
96.0
 41
0.0
 71
     5
 72
     1
  1
棚 2段
  7
STYLE1
 73
     1
 44
1.0
1001
ACAD
1000
MTEXTBEGIN
1070
    73
1070
     1
1070
    44
1040
1.0
1070
    74
1070
     0
1000
MTEXTEND
  0
TEXT
  5
17A96
330
747D
100
AcDbEntity
  8
文字
 62
     7
 48
50.0
100
AcDbText
 10
13209.4053442172
 20
243.7062907158852
 30
0.0
 40
100.0
  1
○有効開口寸法 ： 1266×1725(mm)
  7
STYLE2
100
AcDbText
  0
TEXT
  5
17A97
330
747D
100
AcDbEntity
  8
文字
 62
     7
 48
50.0
100
AcDbText
 10
14491.96323844892
 20
483.8967129911416
 30
0.0
 40
160.0
  1
ＮＸＮ－５０ＳＡ
  7
STYLE2
100
AcDbText
  0
TEXT
  5
17B03
330
747D
100
AcDbEntity
  8
文字
 62
     7
 48
50.0
100
AcDbText
 10
14798.72402257234
 20
9740.013745883729
 30
0.0
 40
100.0
  1
F12(一般型1.2/多雪地型2.3)
  7
STYLE1
100
AcDbText
  0
TEXT
  5
17B04
330
747D
100
AcDbEntity
  8
文字
 62
     7
 48
50.0
100
AcDbText
 10
13248.77747366447
 20
8380.013745883728
 30
0.0
 40
100.0
  1
17
  7
STYLE1
100
AcDbText
  0
TEXT
  5
17B05
330
747D
100
AcDbEntity
  8
文字
 62
     7
 48
50.0
100
AcDbText
 10
13248.77747366447
 20
8550.013745883729
 30
0.0
 40
100.0
  1
16
  7
STYLE1
100
AcDbText
  0
TEXT
  5
17B06
330
747D
100
AcDbEntity
  8
文字
 62
     7
 48
50.0
100
AcDbText
 10
15022.63965474517
 20
9060.013745883729
 30
0.0
 40
100.0
  1
F12            1.0
  7
STYLE1
100
AcDbText
  0
TEXT
  5
17B07
330
747D
100
AcDbEntity
  8
文字
 62
     7
 48
50.0
100
AcDbText
 10
13583.11819016569
 20
9060.013745883736
 30
0.0
 40
100.0
  1
壁面扉枠左右
  7
STYLE1
100
AcDbText
  0
TEXT
  5
17B08
330
747D
100
AcDbEntity
  8
文字
 62
     7
 48
50.0
100
AcDbText
 10
15022.63965474517
 20
9230.013745883729
 30
0.0
 40
100.0
  1
F12            1.0
  7
STYLE1
100
AcDbText
  0
TEXT
  5
17B09
330
747D
100
AcDbEntity
  8
文字
 62
     7
 48
50.0
100
AcDbText
 10
15022.63965474515
 20
9400.013745883729
 30
0.0
 40
100.0
  1
F12            0.7
  7
STYLE1
100
AcDbText
  0
TEXT
  5
17B0A
330
747D
100
AcDbEntity
  8
文字
 62
     7
 48
50.0
100
AcDbText
 10
13583.11819016569
 20
9230.013745883736
 30
0.0
 40
100.0
  1
壁面扉敷居
  7
STYLE1
100
AcDbText
  0
TEXT
  5
17B0B
330
747D
100
AcDbEntity
  8
文字
 62
     7
 48
50.0
100
AcDbText
 10
13583.11819016569
 20
9400.013745883729
 30
0.0
 40
100.0
  1
壁面扉鴨居
  7
STYLE1
100
AcDbText
  0
LINE
  5
17B0C
330
747D
100
AcDbEntity
  8
仕様書枠
 48
50.0
100
AcDbLine
 10
16307.19999999999
 20
8689.600000000007
 30
0.0
 11
13127.2
 21
8689.600000000007
 31
0.0
  0
LINE
  5
17B0D
330
747D
100
AcDbEntity
  8
仕様書枠
 48
50.0
100
AcDbLine
 10
16307.19999999999
 20
8519.600000000009
 30
0.0
 11
13127.2
 21
8519.600000000009
 31
0.0
  0
TEXT
  5
17B0E
330
747D
100
AcDbEntity
  8
文字
 62
     7
 48
50.0
100
AcDbText
 10
13583.11819016569
 20
8380.013745883728
 30
0.0
 40
100.0
  1
アンカープレート
  7
STYLE1
100
AcDbText
  0
TEXT
  5
17B0F
330
747D
100
AcDbEntity
  8
文字
 62
     7
 48
50.0
100
AcDbText
 10
15022.63965474515
 20
8380.013745883726
 30
0.0
 40
100.0
  1
F12            2.3
  7
STYLE1
100
AcDbText
  0
LINE
  5
17B10
330
747D
100
AcDbEntity
  8
仕様書枠
 48
50.0
100
AcDbLine
 10
16307.2
 20
10049.6
 30
0.0
 11
13127.2
 21
10049.6
 31
0.0
  0
LINE
  5
17B11
330
747D
100
AcDbEntity
  8
仕様書枠
 48
50.0
100
AcDbLine
 10
16307.2
 20
11409.6
 30
0.0
 11
13127.2
 21
11409.6
 31
0.0
  0
LINE
  5
17B12
330
747D
100
AcDbEntity
  8
仕様書枠
 48
50.0
100
AcDbLine
 10
16307.19999999999
 20
8009.600000000007
 30
0.0
 11
16307.2
 21
11409.6
 31
0.0
  0
LINE
  5
17B13
330
747D
100
AcDbEntity
  8
仕様書枠
 48
50.0
100
AcDbLine
 10
14785.2
 20
11409.6
 30
0.0
 11
14785.2
 21
8349.600000000007
 31
0.0
  0
LINE
  5
17B14
330
747D
100
AcDbEntity
  8
仕様書枠
 48
50.0
100
AcDbLine
 10
13490.2
 20
11409.6
 30
0.0
 11
13490.20000000001
 21
8349.600000000007
 31
0.0
  0
LINE
  5
17B15
330
747D
100
AcDbEntity
  8
仕様書枠
 48
50.0
100
AcDbLine
 10
16307.2
 20
11239.6
 30
0.0
 11
13127.2
 21
11239.6
 31
0.0
  0
LINE
  5
17B16
330
747D
100
AcDbEntity
  8
仕様書枠
 48
50.0
100
AcDbLine
 10
16307.2
 20
10899.6
 30
0.0
 11
13127.2
 21
10899.6
 31
0.0
  0
LINE
  5
17B17
330
747D
100
AcDbEntity
  8
仕様書枠
 48
50.0
100
AcDbLine
 10
16307.2
 20
11069.6
 30
0.0
 11
13127.2
 21
11069.6
 31
0.0
  0
LINE
  5
17B18
330
747D
100
AcDbEntity
  8
仕様書枠
 48
50.0
100
AcDbLine
 10
16307.19999999999
 20
10559.6
 30
0.0
 11
13127.2
 21
10559.6
 31
0.0
  0
LINE
  5
17B19
330
747D
100
AcDbEntity
  8
仕様書枠
 48
50.0
100
AcDbLine
 10
16307.19999999999
 20
10389.6
 30
0.0
 11
13127.2
 21
10389.6
 31
0.0
  0
LINE
  5
17B1A
330
747D
100
AcDbEntity
  8
仕様書枠
 48
50.0
100
AcDbLine
 10
16307.19999999999
 20
10729.6
 30
0.0
 11
13127.2
 21
10729.6
 31
0.0
  0
TEXT
  5
17B1B
330
747D
100
AcDbEntity
  8
文字
 62
     7
 48
50.0
100
AcDbText
 10
13197.42518560407
 20
11270.01374588373
 30
0.0
 40
100.0
  1
品番
  7
STYLE1
100
AcDbText
  0
TEXT
  5
17B1C
330
747D
100
AcDbEntity
  8
文字
 62
     7
 48
50.0
100
AcDbText
 10
13271.19032244792
 20
11100.01374588373
 30
0.0
 40
100.0
  1
1
  7
STYLE1
100
AcDbText
  0
TEXT
  5
17B1D
330
747D
100
AcDbEntity
  8
文字
 62
     7
 48
50.0
100
AcDbText
 10
13271.19032244792
 20
10930.01374588373
 30
0.0
 40
100.0
  1
2
  7
STYLE1
100
AcDbText
  0
TEXT
  5
17B1E
330
747D
100
AcDbEntity
  8
文字
 62
     7
 48
50.0
100
AcDbText
 10
13271.19032244792
 20
10590.01374588373
 30
0.0
 40
100.0
  1
4
  7
STYLE1
100
AcDbText
  0
TEXT
  5
17B1F
330
747D
100
AcDbEntity
  8
文字
 62
     7
 48
50.0
100
AcDbText
 10
13271.19032244792
 20
10760.01374588373
 30
0.0
 40
100.0
  1
3
  7
STYLE1
100
AcDbText
  0
TEXT
  5
17B20
330
747D
100
AcDbEntity
  8
文字
 62
     7
 48
50.0
100
AcDbText
 10
13732.03840939434
 20
11270.01374588373
 30
0.0
 40
100.0
  1
部　　品　　名
  7
STYLE1
100
AcDbText
  0
TEXT
  5
17B21
330
747D
100
AcDbEntity
  8
文字
 62
     7
 48
50.0
100
AcDbText
 10
14859.79774614482
 20
11270.01374588373
 30
0.0
 40
100.0
  1
材料（材質）　　単位mm
  7
STYLE1
100
AcDbText
  0
TEXT
  5
17B22
330
747D
100
AcDbEntity
  8
文字
 62
     7
 48
50.0
100
AcDbText
 10
13583.11819016569
 20
11100.01374588373
 30
0.0
 40
100.0
  1
土台枠
  7
STYLE1
100
AcDbText
  0
TEXT
  5
17B23
330
747D
100
AcDbEntity
  8
文字
 62
     7
 48
50.0
100
AcDbText
 10
13583.1181901657
 20
10760.01374588373
 30
0.0
 40
100.0
  1
柱
  7
STYLE1
100
AcDbText
  0
TEXT
  5
17B24
330
747D
100
AcDbEntity
  8
文字
 62
     7
 48
50.0
100
AcDbText
 10
13583.11819016569
 20
10420.01374588373
 30
0.0
 40
100.0
  1
桁前後
  7
STYLE1
100
AcDbText
  0
TEXT
  5
17B25
330
747D
100
AcDbEntity
  8
文字
 62
     7
 48
50.0
100
AcDbText
 10
13271.19032244792
 20
10420.01374588373
 30
0.0
 40
100.0
  1
5
  7
STYLE1
100
AcDbText
  0
TEXT
  5
17B26
330
747D
100
AcDbEntity
  8
文字
 62
     7
 48
50.0
100
AcDbText
 10
13583.11819016569
 20
10250.01374588373
 30
0.0
 40
100.0
  1
妻板左右
  7
STYLE1
100
AcDbText
  0
TEXT
  5
17B27
330
747D
100
AcDbEntity
  8
文字
 62
     7
 48
50.0
100
AcDbText
 10
13248.77747366447
 20
9570.013745883729
 30
0.0
 40
100.0
  1
10
  7
STYLE1
100
AcDbText
  0
TEXT
  5
17B28
330
747D
100
AcDbEntity
  8
文字
 62
     7
 48
50.0
100
AcDbText
 10
13583.11819016568
 20
9570.013745883729
 30
0.0
 40
100.0
  1
壁パネル
  7
STYLE1
100
AcDbText
  0
TEXT
  5
17B29
330
747D
100
AcDbEntity
  8
文字
 62
     7
 48
50.0
100
AcDbText
 10
13583.11819016569
 20
9910.01374588373
 30
0.0
 40
100.0
  1
屋根パネル
  7
STYLE1
100
AcDbText
  0
TEXT
  5
17B2A
330
747D
100
AcDbEntity
  8
文字
 62
     7
 48
50.0
100
AcDbText
 10
13583.11819016569
 20
10080.01374588373
 30
0.0
 40
100.0
  1
鼻隠シ前後
  7
STYLE1
100
AcDbText
  0
TEXT
  5
17B2B
330
747D
100
AcDbEntity
  8
文字
 62
     7
 48
50.0
100
AcDbText
 10
13271.19032244792
 20
9910.01374588373
 30
0.0
 40
100.0
  1
8
  7
STYLE1
100
AcDbText
  0
TEXT
  5
17B2C
330
747D
100
AcDbEntity
  8
文字
 62
     7
 48
50.0
100
AcDbText
 10
13271.19032244792
 20
9740.013745883729
 30
0.0
 40
100.0
  1
9
  7
STYLE1
100
AcDbText
  0
TEXT
  5
17B2D
330
747D
100
AcDbEntity
  8
文字
 62
     7
 48
50.0
100
AcDbText
 10
13271.19032244792
 20
10080.01374588373
 30
0.0
 40
100.0
  1
7
  7
STYLE1
100
AcDbText
  0
TEXT
  5
17B2E
330
747D
100
AcDbEntity
  8
文字
 62
     7
 48
50.0
100
AcDbText
 10
13271.19032244792
 20
10250.01374588373
 30
0.0
 40
100.0
  1
6
  7
STYLE1
100
AcDbText
  0
LINE
  5
17B2F
330
747D
100
AcDbEntity
  8
仕様書枠
 48
50.0
100
AcDbLine
 10
16307.19999999999
 20
9709.600000000001
 30
0.0
 11
13127.2
 21
9709.600000000001
 31
0.0
  0
LINE
  5
17B30
330
747D
100
AcDbEntity
  8
仕様書枠
 48
50.0
100
AcDbLine
 10
16307.19999999999
 20
9369.600000000001
 30
0.0
 11
13127.2
 21
9369.600000000001
 31
0.0
  0
LINE
  5
17B31
330
747D
100
AcDbEntity
  8
仕様書枠
 48
50.0
100
AcDbLine
 10
16307.19999999999
 20
9539.6
 30
0.0
 11
13127.2
 21
9539.6
 31
0.0
  0
LINE
  5
17B32
330
747D
100
AcDbEntity
  8
仕様書枠
 48
50.0
100
AcDbLine
 10
16307.2
 20
10219.6
 30
0.0
 11
13127.2
 21
10219.6
 31
0.0
  0
LINE
  5
17B33
330
747D
100
AcDbEntity
  8
仕様書枠
 48
50.0
100
AcDbLine
 10
16307.2
 20
9879.600000000001
 30
0.0
 11
13127.2
 21
9879.600000000001
 31
0.0
  0
TEXT
  5
17B34
330
747D
100
AcDbEntity
  8
文字
 62
     7
 48
50.0
100
AcDbText
 10
13248.77747366447
 20
9400.013745883729
 30
0.0
 40
100.0
  1
11
  7
STYLE1
100
AcDbText
  0
LINE
  5
17B35
330
747D
100
AcDbEntity
  8
仕様書枠
 48
50.0
100
AcDbLine
 10
16307.19999999999
 20
9199.600000000001
 30
0.0
 11
13127.2
 21
9199.600000000001
 31
0.0
  0
LINE
  5
17B36
330
747D
100
AcDbEntity
  8
仕様書枠
 48
50.0
100
AcDbLine
 10
16307.19999999999
 20
8859.6
 30
0.0
 11
13127.2
 21
8859.600000000005
 31
0.0
  0
TEXT
  5
17B37
330
747D
100
AcDbEntity
  8
文字
 62
     7
 48
50.0
100
AcDbText
 10
13248.77747366448
 20
9060.013745883729
 30
0.0
 40
100.0
  1
13
  7
STYLE1
100
AcDbText
  0
TEXT
  5
17B38
330
747D
100
AcDbEntity
  8
文字
 62
     7
 48
50.0
100
AcDbText
 10
13248.77747366448
 20
9230.013745883729
 30
0.0
 40
100.0
  1
12
  7
STYLE1
100
AcDbText
  0
TEXT
  5
17B39
330
747D
100
AcDbEntity
  8
文字
 62
     7
 48
50.0
100
AcDbText
 10
15022.63965474517
 20
11100.01374588373
 30
0.0
 40
100.0
  1
F12            1.2
  7
STYLE1
100
AcDbText
  0
TEXT
  5
17B3A
330
747D
100
AcDbEntity
  8
文字
 62
     7
 48
50.0
100
AcDbText
 10
15022.63965474518
 20
10760.01374588373
 30
0.0
 40
100.0
  1
F12            1.0
  7
STYLE1
100
AcDbText
  0
TEXT
  5
17B3B
330
747D
100
AcDbEntity
  8
文字
 62
     7
 48
50.0
100
AcDbText
 10
15022.63965474516
 20
10420.01374588373
 30
0.0
 40
100.0
  1
Y10            1.0
  7
STYLE1
100
AcDbText
  0
TEXT
  5
17B3C
330
747D
100
AcDbEntity
  8
文字
 62
     7
 48
50.0
100
AcDbText
 10
15022.63965474516
 20
10250.01374588373
 30
0.0
 40
100.0
  1
Y10            0.7
  7
STYLE1
100
AcDbText
  0
TEXT
  5
17B3D
330
747D
100
AcDbEntity
  8
文字
 62
     7
 48
50.0
100
AcDbText
 10
15022.63965474516
 20
10080.01374588373
 30
0.0
 40
100.0
  1
Y10            0.7
  7
STYLE1
100
AcDbText
  0
TEXT
  5
17B3E
330
747D
100
AcDbEntity
  8
文字
 62
     7
 48
50.0
100
AcDbText
 10
15022.63965474517
 20
9910.01374588373
 30
0.0
 40
100.0
  1
Y10            0.5
  7
STYLE1
100
AcDbText
  0
TEXT
  5
17B3F
330
747D
100
AcDbEntity
  8
文字
 62
     7
 48
50.0
100
AcDbText
 10
15022.63965474515
 20
9570.013745883729
 30
0.0
 40
100.0
  1
F12            0.6
  7
STYLE1
100
AcDbText
  0
LINE
  5
17B40
330
747D
100
AcDbEntity
  8
仕様書枠
 48
50.0
100
AcDbLine
 10
16307.19999999999
 20
8349.600000000007
 30
0.0
 11
13127.19999999999
 21
8349.600000000007
 31
0.0
  0
LINE
  5
17B41
330
747D
100
AcDbEntity
  8
仕様書枠
 48
50.0
100
AcDbLine
 10
16307.19999999999
 20
8179.600000000007
 30
0.0
 11
13127.19999999999
 21
8179.600000000007
 31
0.0
  0
TEXT
  5
17B42
330
747D
100
AcDbEntity
  8
文字
 62
     7
 48
50.0
100
AcDbText
 10
13229.83081656554
 20
8210.013745883737
 30
0.0
 40
100.0
  1
F12→溶融亜鉛めっき鋼板(JIS G 3302)
  7
STYLE1
100
AcDbText
  0
TEXT
  5
17B43
330
747D
100
AcDbEntity
  8
文字
 62
     7
 48
50.0
100
AcDbText
 10
13229.83081656554
 20
8040.013745883737
 30
0.0
 40
100.0
  1
Y10→溶融亜鉛-5％アルミニウム合金めっき鋼板(JIS G 3317)
 41
0.9
  7
STYLE1
100
AcDbText
  0
LINE
  5
17B44
330
747D
100
AcDbEntity
  8
仕様書枠
 48
50.0
100
AcDbLine
 10
13127.2
 20
11409.6
 30
0.0
 11
13127.19999999999
 21
8009.600000000007
 31
0.0
  0
LINE
  5
17B45
330
747D
100
AcDbEntity
  8
仕様書枠
 48
50.0
100
AcDbLine
 10
16307.19999999999
 20
9029.6
 30
0.0
 11
13127.2
 21
9029.600000000003
 31
0.0
  0
TEXT
  5
17B46
330
747D
100
AcDbEntity
  8
文字
 62
     7
 48
50.0
100
AcDbText
 10
13583.1181901657
 20
10590.01374588373
 30
0.0
 40
100.0
  1
床パネル
 41
0.9
  7
STYLE1
100
AcDbText
  0
TEXT
  5
17B47
330
747D
100
AcDbEntity
  8
文字
 62
     7
 48
50.0
100
AcDbText
 10
13583.11819016569
 20
10930.01374588373
 30
0.0
 40
100.0
  1
根太
  7
STYLE1
100
AcDbText
  0
TEXT
  5
17B48
330
747D
100
AcDbEntity
  8
文字
 62
     7
 48
50.0
100
AcDbText
 10
13248.77747366448
 20
8890.013745883729
 30
0.0
 40
100.0
  1
14
  7
STYLE1
100
AcDbText
  0
TEXT
  5
17B49
330
747D
100
AcDbEntity
  8
文字
 62
     7
 48
50.0
100
AcDbText
 10
15022.63965474516
 20
10930.01374588373
 30
0.0
 40
100.0
  1
F12            1.2
  7
STYLE1
100
AcDbText
  0
TEXT
  5
17B4A
330
747D
100
AcDbEntity
  8
文字
 62
     7
 48
50.0
100
AcDbText
 10
15022.63965474517
 20
10590.01374588373
 30
0.0
 40
100.0
  1
F12            1.0
  7
STYLE1
100
AcDbText
  0
TEXT
  5
17B4B
330
747D
100
AcDbEntity
  8
文字
 62
     7
 48
50.0
100
AcDbText
 10
15022.63965474515
 20
8890.013745883729
 30
0.0
 40
100.0
  1
F12            0.7
  7
STYLE1
100
AcDbText
  0
TEXT
  5
17B4C
330
747D
100
AcDbEntity
  8
文字
 62
     7
 48
50.0
100
AcDbText
 10
13583.11819016568
 20
8890.013745883733
 30
0.0
 40
100.0
  1
正面パネル
  7
STYLE1
100
AcDbText
  0
TEXT
  5
17B4D
330
747D
100
AcDbEntity
  8
文字
 62
     7
 48
50.0
100
AcDbText
 10
15022.63965474516
 20
8720.013745883729
 30
0.0
 40
100.0
  1
F12            0.8
  7
STYLE1
100
AcDbText
  0
TEXT
  5
17B4E
330
747D
100
AcDbEntity
  8
文字
 62
     7
 48
50.0
100
AcDbText
 10
13583.11819016569
 20
8720.013745883733
 30
0.0
 40
100.0
  1
扉
  7
STYLE1
100
AcDbText
  0
LINE
  5
17B4F
330
747D
100
AcDbEntity
  8
仕様書枠
 48
50.0
100
AcDbLine
 10
16307.19999999999
 20
8009.600000000007
 30
0.0
 11
13127.19999999999
 21
8009.600000000007
 31
0.0
  0
TEXT
  5
17B50
330
747D
100
AcDbEntity
  8
文字
 62
     7
 48
50.0
100
AcDbText
 10
13248.77747366447
 20
8720.013745883729
 30
0.0
 40
100.0
  1
15
  7
STYLE1
100
AcDbText
  0
TEXT
  5
17B51
330
747D
100
AcDbEntity
  8
文字
 62
     7
 48
50.0
100
AcDbText
 10
13583.11819016569
 20
9740.013745883729
 30
0.0
 40
100.0
  1
母屋中
  7
STYLE1
100
AcDbText
  0
TEXT
  5
17B52
330
747D
100
AcDbEntity
  8
文字
 62
     7
 48
50.0
100
AcDbText
 10
15022.63965474516
 20
8550.013745883729
 30
0.0
 40
100.0
  1
F12            0.6
  7
STYLE1
100
AcDbText
  0
TEXT
  5
17B53
330
747D
100
AcDbEntity
  8
文字
 62
     7
 48
50.0
100
AcDbText
 10
13583.11819016569
 20
8550.013745883733
 30
0.0
 40
100.0
  1
棚板
  7
STYLE1
100
AcDbText
  0
LINE
  5
17B54
330
747D
100
AcDbEntity
  8
部品1
100
AcDbLine
 10
11434.27138451164
 20
9579.5702496985
 30
0.0
 11
11434.27138451164
 21
9551.570249698499
 31
0.0
  0
LINE
  5
17B55
330
747D
100
AcDbEntity
  8
部品1
100
AcDbLine
 10
11434.27138451164
 20
9579.570249698521
 30
0.0
 11
11434.27138451164
 21
9551.570249698521
 31
0.0
  0
LINE
  5
17B56
330
747D
100
AcDbEntity
  8
部品1
100
AcDbLine
 10
11461.27138451164
 20
9524.5702496985
 30
0.0
 11
11489.27138451164
 21
9524.5702496985
 31
0.0
  0
LINE
  5
17B57
330
747D
100
AcDbEntity
  8
部品1
100
AcDbLine
 10
11461.27138451164
 20
9104.5702496985
 30
0.0
 11
11489.27138451164
 21
9104.5702496985
 31
0.0
  0
LINE
  5
17B58
330
747D
100
AcDbEntity
  8
部品1
100
AcDbLine
 10
11461.27138451164
 20
8684.5702496985
 30
0.0
 11
11489.27138451164
 21
8684.5702496985
 31
0.0
  0
DIMENSION
  5
17B59
330
747D
100
AcDbEntity
  8
寸法
100
AcDbDimension
  2
*D25
 10
12189.27138451163
 20
9524.570249698502
 30
0.0
 11
12189.27138451163
 21
9888.055531072737
 31
0.0
 70
   160
 71
     5
 42
54.99999999999636
  3
INABA_S40G
100
AcDbAlignedDimension
 13
11489.27138451164
 23
9579.570249698496
 33
0.0
 14
11489.27138451164
 24
9524.570249698502
 34
0.0
 50
90.0
100
AcDbRotatedDimension
1001
ACAD
1000
DSTYLE
1002
{
1002
}
  0
DIMENSION
  5
17B5A
330
747D
100
AcDbEntity
  8
寸法
100
AcDbDimension
  2
*D26
 10
11889.27138451164
 20
8984.754020741766
 30
0.0
 11
11889.27138451164
 21
9209.754020741764
 31
0.0
 70
   160
 71
     5
 42
449.9999999999963
  3
INABA_S40G
100
AcDbAlignedDimension
 13
11460.77138451164
 23
9549.570249698497
 33
0.0
 14
11460.77138451164
 24
9099.570249698501
 34
0.0
 50
90.0
100
AcDbRotatedDimension
1001
ACAD
1000
DSTYLE
1002
{
1002
}
  0
LINE
  5
17B5B
330
747D
100
AcDbEntity
  8
部品1
100
AcDbLine
 10
11460.77138451164
 20
9549.570249698501
 30
0.0
 11
11460.77138451164
 21
9099.5702496985
 31
0.0
  0
LINE
  5
17B5C
330
747D
100
AcDbEntity
  8
部品1
100
AcDbLine
 10
11461.27138451164
 20
9551.570249698499
 30
0.0
 11
11461.27138451163
 21
9099.070249698376
 31
0.0
  0
LINE
  5
17B5E
330
747D
100
AcDbEntity
  8
部品1
 48
50.0
100
AcDbLine
 10
11434.27138451164
 20
7789.570249698478
 30
0.0
 11
11434.27138451164
 21
7817.570249698478
 31
0.0
  0
LINE
  5
17B5F
330
747D
100
AcDbEntity
  8
部品1
100
AcDbLine
 10
11461.27138451164
 20
7844.570249698485
 30
0.0
 11
11489.27138451164
 21
7844.570249698485
 31
0.0
  0
LINE
  5
17B60
330
747D
100
AcDbEntity
  8
部品1
100
AcDbLine
 10
11489.27138451162
 20
7844.570249698485
 30
0.0
 11
11489.27138451162
 21
7789.570249698485
 31
0.0
  0
LINE
  5
17B61
330
747D
100
AcDbEntity
  8
部品1
 48
50.0
100
AcDbLine
 10
11432.77138451164
 20
7846.070249698485
 30
0.0
 11
11461.27138451164
 21
7817.570249698492
 31
0.0
  0
LINE
  5
17B62
330
747D
100
AcDbEntity
  8
部品1
100
AcDbLine
 10
11489.27138451162
 20
7789.570249698485
 30
0.0
 11
11438.27138451162
 21
7789.570249698485
 31
0.0
  0
LINE
  5
17B63
330
747D
100
AcDbEntity
  8
部品1
100
AcDbLine
 10
11461.27138451162
 20
7844.570249698485
 30
0.0
 11
11489.27138451162
 21
7844.570249698485
 31
0.0
  0
LINE
  5
17B64
330
747D
100
AcDbEntity
  8
部品1
100
AcDbLine
 10
11489.27138451162
 20
7789.570249698485
 30
0.0
 11
11434.27138451164
 21
7789.570249698478
 31
0.0
  0
DIMENSION
  5
17B65
330
747D
100
AcDbEntity
  8
寸法
100
AcDbDimension
  2
*D27
 10
12189.27138451162
 20
7789.570249698487
 30
0.0
 11
12189.27138451162
 21
7481.084968324236
 31
0.0
 70
   160
 71
     5
 42
54.99999999999636
  3
INABA_S40G
100
AcDbAlignedDimension
 13
11489.27138451162
 23
7844.570249698484
 33
0.0
 14
11489.27138451162
 24
7789.570249698487
 34
0.0
 50
90.0
100
AcDbRotatedDimension
1001
ACAD
1000
DSTYLE
1002
{
1002
}
  0
LINE
  5
17B66
330
747D
100
AcDbEntity
  8
部品1
100
AcDbLine
 10
11461.27138451163
 20
9104.5702496985
 30
0.0
 11
11461.27138451162
 21
7817.570249698492
 31
0.0
  0
LINE
  5
17B67
330
747D
100
AcDbEntity
  8
部品1
100
AcDbLine
 10
11432.77138451163
 20
9099.5702496985
 30
0.0
 11
11432.77138451164
 21
7846.070249698485
 31
0.0
  0
LINE
  5
17B68
330
747D
100
AcDbEntity
  8
部品1
100
AcDbLine
 10
11489.27138451164
 20
9579.5702496985
 30
0.0
 11
11489.27138451162
 21
7789.570249698485
 31
0.0
  0
DIMENSION
  5
17B69
330
747D
100
AcDbEntity
  8
寸法
100
AcDbDimension
  2
*D28
 10
12189.27138451163
 20
7844.570249698484
 30
0.0
 11
12189.27138451163
 21
8684.570249698493
 31
0.0
 70
   160
  1
4X420=<>
 71
     5
 42
1680.000000000017
  3
INABA_S40G
100
AcDbAlignedDimension
 13
11489.27138451164
 23
9524.570249698502
 33
0.0
 14
11489.27138451162
 24
7844.570249698484
 34
0.0
 50
90.0
100
AcDbRotatedDimension
1001
ACAD
1000
DSTYLE
1002
{
1002
}
  0
DIMENSION
  5
17B6A
330
747D
100
AcDbEntity
  8
寸法
100
AcDbDimension
  2
*D29
 10
12489.27138451165
 20
7789.570249698487
 30
0.0
 11
12489.27138451164
 21
8684.570249698493
 31
0.0
 70
   160
 71
     5
 42
1790.00000000001
  3
INABA_S40G
100
AcDbAlignedDimension
 13
11489.27138451164
 23
9579.570249698496
 33
0.0
 14
11489.27138451162
 24
7789.570249698487
 34
0.0
 50
90.0
100
AcDbRotatedDimension
1001
ACAD
1000
DSTYLE
1002
{
1002
}
  0
LINE
  5
17B6B
330
747D
100
AcDbEntity
  8
部品1
100
AcDbLine
 10
11014.27138451161
 20
9579.570249698369
 30
0.0
 11
11014.27138451161
 21
9551.57024969837
 31
0.0
  0
LINE
  5
17B6C
330
747D
100
AcDbEntity
  8
部品1
100
AcDbLine
 10
10594.27138451161
 20
9579.570249698369
 30
0.0
 11
10594.27138451161
 21
9551.57024969837
 31
0.0
  0
LINE
  5
17B6D
330
747D
100
AcDbEntity
  8
部品1
100
AcDbLine
 10
10174.27138451161
 20
9579.570249698369
 30
0.0
 11
10174.27138451161
 21
9551.57024969837
 31
0.0
  0
LINE
  5
17B6E
330
747D
100
AcDbEntity
  8
部品1
100
AcDbLine
 10
10203.27138451164
 20
9569.570249698506
 30
0.0
 11
10209.27138451164
 21
9569.570249698506
 31
0.0
  0
LINE
  5
17B6F
330
747D
100
AcDbEntity
  8
部品1
100
AcDbLine
 10
10209.27138451164
 20
9569.570249698506
 30
0.0
 11
10209.27138451164
 21
9551.570249698507
 31
0.0
  0
LINE
  5
17B70
330
747D
100
AcDbEntity
  8
部品1
100
AcDbLine
 10
10139.27138451164
 20
9569.570249698506
 30
0.0
 11
10145.27138451164
 21
9569.570249698506
 31
0.0
  0
LINE
  5
17B71
330
747D
100
AcDbEntity
  8
部品1
100
AcDbLine
 10
10139.27138451164
 20
9569.570249698506
 30
0.0
 11
10139.27138451164
 21
9551.570249698507
 31
0.0
  0
LINE
  5
17B72
330
747D
100
AcDbEntity
  8
部品1
100
AcDbLine
 10
10161.77138451164
 20
9543.5702496985
 30
0.0
 11
10186.77138451164
 21
9543.570249698507
 31
0.0
  0
LINE
  5
17B73
330
747D
100
AcDbEntity
  8
部品1
100
AcDbLine
 10
10161.77138451164
 20
9099.570249698507
 30
0.0
 11
10186.77138451164
 21
9099.570249698507
 31
0.0
  0
LINE
  5
17B74
330
747D
100
AcDbEntity
  8
部品1
 48
50.0
100
AcDbLine
 10
10186.77138451164
 20
9551.570249698507
 30
0.0
 11
10186.77138451164
 21
9099.570249698507
 31
0.0
  0
LINE
  5
17B75
330
747D
100
AcDbEntity
  8
部品1
 48
50.0
100
AcDbLine
 10
10161.77138451164
 20
9551.570249698514
 30
0.0
 11
10161.77138451164
 21
9099.570249698507
 31
0.0
  0
LINE
  5
17B76
330
747D
100
AcDbEntity
  8
部品1
 48
50.0
100
AcDbLine
 10
10187.77138451164
 20
9549.570249698501
 30
0.0
 11
10187.77138451164
 21
9099.570249698507
 31
0.0
  0
LINE
  5
17B77
330
747D
100
AcDbEntity
  8
部品1
 48
50.0
100
AcDbLine
 10
10160.77138451164
 20
9549.570249698508
 30
0.0
 11
10160.77138451164
 21
9099.570249698507
 31
0.0
  0
LINE
  5
17B78
330
747D
100
AcDbEntity
  8
部品1
100
AcDbLine
 10
9754.271384511609
 20
9579.570249698369
 30
0.0
 11
9754.271384511612
 21
9551.57024969837
 31
0.0
  0
LINE
  5
17B79
330
747D
100
AcDbEntity
  8
部品1
100
AcDbLine
 10
9334.271384511609
 20
9579.570249698369
 30
0.0
 11
9334.271384511612
 21
9551.57024969837
 31
0.0
  0
LINE
  5
17B7A
330
747D
100
AcDbEntity
  8
部品1
100
AcDbLine
 10
8914.271384511609
 20
9579.570249698369
 30
0.0
 11
8914.271384511613
 21
9551.57024969837
 31
0.0
  0
LINE
  5
17B7B
330
747D
100
AcDbEntity
  8
部品1
100
AcDbLine
 10
8914.271384511645
 20
9579.570249698404
 30
0.0
 11
8914.271384511645
 21
9551.570249698405
 31
0.0
  0
LINE
  5
17B7C
330
747D
100
AcDbEntity
  8
部品1
100
AcDbLine
 10
8887.271384511612
 20
9524.570249698376
 30
0.0
 11
8859.271384511613
 21
9524.570249698376
 31
0.0
  0
LINE
  5
17B7D
330
747D
100
AcDbEntity
  8
部品1
100
AcDbLine
 10
8887.271384511619
 20
9104.570249698376
 30
0.0
 11
8859.27138451162
 21
9104.570249698376
 31
0.0
  0
LINE
  5
17B7E
330
747D
100
AcDbEntity
  8
部品1
100
AcDbLine
 10
8887.271384511619
 20
8684.570249698376
 30
0.0
 11
8859.27138451162
 21
8684.570249698376
 31
0.0
  0
LINE
  5
17B7F
330
747D
100
AcDbEntity
  8
部品1
100
AcDbLine
 10
8887.271384511633
 20
9099.070249698376
 30
0.0
 11
8887.271384511645
 21
9551.570249698405
 31
0.0
  0
LINE
  5
17B80
330
747D
100
AcDbEntity
  8
部品1
 48
50.0
100
AcDbLine
 10
8887.771384511577
 20
9549.570249698508
 30
0.0
 11
8887.771384511577
 21
9099.570249698507
 31
0.0
  0
LINE
  5
17B81
330
747D
100
AcDbEntity
  8
部品1
100
AcDbLine
 10
8887.771384511577
 20
9099.57024969845
 30
0.0
 11
10160.77138451164
 21
9099.570249698507
 31
0.0
  0
LINE
  5
17B82
330
747D
100
AcDbEntity
  8
部品1
100
AcDbLine
 10
8887.771384511577
 20
9549.570249698449
 30
0.0
 11
10160.77138451164
 21
9549.570249698508
 31
0.0
  0
LINE
  5
17B83
330
747D
100
AcDbEntity
  8
部品1
100
AcDbLine
 10
8887.271384511647
 20
9551.570249698514
 30
0.0
 11
10161.77138451164
 21
9551.570249698521
 31
0.0
  0
LINE
  5
17B84
330
747D
100
AcDbEntity
  8
細線
 48
50.0
100
AcDbLine
 10
10160.77138451164
 20
9549.570249698508
 30
0.0
 11
8887.771384511577
 21
9099.57024969845
 31
0.0
  0
LINE
  5
17B85
330
747D
100
AcDbEntity
  8
細線
 48
50.0
100
AcDbLine
 10
10160.77138451164
 20
9099.570249698507
 30
0.0
 11
8887.771384511573
 21
9549.570249698449
 31
0.0
  0
LINE
  5
17B86
330
747D
100
AcDbEntity
  8
破線
 48
10.0
100
AcDbLine
 10
11409.27138451164
 20
7869.570249698485
 30
0.0
 11
10614.77138451162
 21
7869.57024969831
 31
0.0
  0
LINE
  5
17B87
330
747D
100
AcDbEntity
  8
部品1
100
AcDbLine
 10
9334.271384511612
 20
7789.570249698492
 30
0.0
 11
9334.271384511612
 21
7817.570249698492
 31
0.0
  0
LINE
  5
17B88
330
747D
100
AcDbEntity
  8
部品1
 48
50.0
100
AcDbLine
 10
8915.771384511634
 20
7846.070249698463
 30
0.0
 11
8887.271384511633
 21
7817.570249698471
 31
0.0
  0
LINE
  5
17B89
330
747D
100
AcDbEntity
  8
部品1
100
AcDbLine
 10
8914.271384511613
 20
7789.570249698492
 30
0.0
 11
8914.271384511613
 21
7817.570249698492
 31
0.0
  0
LINE
  5
17B8A
330
747D
100
AcDbEntity
  8
部品1
100
AcDbLine
 10
8887.271384511619
 20
7844.570249698325
 30
0.0
 11
8859.271384511636
 21
7844.570249698325
 31
0.0
  0
LINE
  5
17B8B
330
747D
100
AcDbEntity
  8
部品1
100
AcDbLine
 10
8887.271384511619
 20
7844.570249698354
 30
0.0
 11
8859.271384511636
 21
7844.570249698354
 31
0.0
  0
LINE
  5
17B8C
330
747D
100
AcDbEntity
  8
部品1
100
AcDbLine
 10
8887.271384511636
 20
7844.570249698368
 30
0.0
 11
8859.271384511636
 21
7844.570249698368
 31
0.0
  0
LINE
  5
17B8D
330
747D
100
AcDbEntity
  8
部品1
100
AcDbLine
 10
8859.271384511636
 20
7844.570249698325
 30
0.0
 11
8859.271384511638
 21
7789.570249698325
 31
0.0
  0
LINE
  5
17B8E
330
747D
100
AcDbEntity
  8
部品1
100
AcDbLine
 10
9334.271384511612
 20
7789.570249698361
 30
0.0
 11
8859.271384511638
 21
7789.570249698361
 31
0.0
  0
LINE
  5
17B8F
330
747D
100
AcDbEntity
  8
破線
 48
10.0
100
AcDbLine
 10
9733.771384511625
 20
7869.570249698354
 30
0.0
 11
8939.271384511631
 21
7869.570249698369
 31
0.0
  0
LINE
  5
17B90
330
747D
100
AcDbEntity
  8
破線
 48
10.0
100
AcDbLine
 10
10564.77138451162
 20
7869.570249698405
 30
0.0
 11
9783.77138451162
 21
7869.570249698383
 31
0.0
  0
LINE
  5
17B91
330
747D
100
AcDbEntity
  8
破線
 48
10.0
100
AcDbLine
 10
10564.77138451162
 20
7846.070249698398
 30
0.0
 11
10564.77138451162
 21
9099.570249698507
 31
0.0
  0
LINE
  5
17B92
330
747D
100
AcDbEntity
  8
破線
 48
10.0
100
AcDbLine
 10
10614.77138451162
 20
7846.070249698406
 30
0.0
 11
10614.77138451162
 21
9099.570249698507
 31
0.0
  0
LINE
  5
17B93
330
747D
100
AcDbEntity
  8
部品1
100
AcDbLine
 10
8915.771384511621
 20
9099.57024969845
 30
0.0
 11
8915.771384511634
 21
7846.070249698463
 31
0.0
  0
LINE
  5
17B94
330
747D
100
AcDbEntity
  8
破線
 48
10.0
100
AcDbLine
 10
9783.77138451162
 20
7846.070249698406
 30
0.0
 11
9783.77138451162
 21
9099.570249698507
 31
0.0
  0
LINE
  5
17B95
330
747D
100
AcDbEntity
  8
破線
 48
10.0
100
AcDbLine
 10
9733.771384511625
 20
7846.070249698398
 30
0.0
 11
9733.771384511619
 21
9099.570249698507
 31
0.0
  0
LINE
  5
17B96
330
747D
100
AcDbEntity
  8
部品1
100
AcDbLine
 10
8859.271384511609
 20
9579.570249698369
 30
0.0
 11
8859.271384511638
 21
7789.570249698361
 31
0.0
  0
LINE
  5
17B97
330
747D
100
AcDbEntity
  8
部品1
100
AcDbLine
 10
8887.271384511619
 20
7817.570249698448
 30
0.0
 11
8887.271384511638
 21
9104.570249698376
 31
0.0
  0
LINE
  5
17B98
330
747D
100
AcDbEntity
  8
破線
 48
10.0
100
AcDbLine
 10
8939.271384511618
 20
9099.5702496985
 30
0.0
 11
8939.271384511634
 21
7869.570249698369
 31
0.0
  0
LINE
  5
17B99
330
747D
100
AcDbEntity
  8
破線
 48
10.0
100
AcDbLine
 10
11409.27138451164
 20
9099.5702496985
 30
0.0
 11
11409.27138451165
 21
7869.570249698485
 31
0.0
  0
LINE
  5
17B9A
330
747D
100
AcDbEntity
  8
部品1
 48
50.0
100
AcDbLine
 10
8887.271384511638
 20
7817.570249698471
 30
0.0
 11
11461.27138451166
 21
7817.570249698478
 31
0.0
  0
LINE
  5
17B9B
330
747D
100
AcDbEntity
  8
部品1
100
AcDbLine
 10
11432.77138451163
 20
8684.57024969847
 30
0.0
 11
8915.771384511629
 21
8684.570249698376
 31
0.0
  0
LINE
  5
17B9C
330
747D
100
AcDbEntity
  8
部品1
100
AcDbLine
 10
10186.77138451164
 20
9551.570249698514
 30
0.0
 11
11461.27138451164
 21
9551.570249698499
 31
0.0
  0
LINE
  5
17B9D
330
747D
100
AcDbEntity
  8
細線
 48
50.0
100
AcDbLine
 10
11460.77138451164
 20
9099.5702496985
 30
0.0
 11
10187.77138451164
 21
9549.570249698501
 31
0.0
  0
LINE
  5
17B9E
330
747D
100
AcDbEntity
  8
部品1
100
AcDbLine
 10
10187.77138451164
 20
9099.570249698507
 30
0.0
 11
11460.77138451164
 21
9099.5702496985
 31
0.0
  0
LINE
  5
17B9F
330
747D
100
AcDbEntity
  8
部品1
100
AcDbLine
 10
10187.77138451164
 20
9549.570249698508
 30
0.0
 11
11460.77138451164
 21
9549.570249698501
 31
0.0
  0
LINE
  5
17BA0
330
747D
100
AcDbEntity
  8
細線
 48
50.0
100
AcDbLine
 10
11460.77138451164
 20
9549.570249698501
 30
0.0
 11
10187.77138451164
 21
9099.570249698507
 31
0.0
  0
DIMENSION
  5
17BA1
330
747D
100
AcDbEntity
  8
寸法
100
AcDbDimension
  2
*D18
 10
11374.03745267564
 20
8779.606860153853
 30
0.0
 11
10807.15929182566
 21
8779.606860153853
 31
0.0
 70
   160
 71
     5
 42
1273.000000000011
  3
INABA_S40G
100
AcDbAlignedDimension
 13
10186.77138451164
 23
9099.570249698508
 33
0.0
 14
11459.77138451165
 24
9099.570249698501
 34
0.0
100
AcDbRotatedDimension
1001
ACAD
1000
DSTYLE
1002
{
1002
}
  0
LINE
  5
17BA3
330
747D
100
AcDbEntity
  8
部品1
100
AcDbLine
 10
8859.271384511645
 20
9579.570249698404
 30
0.0
 11
11489.27138451164
 21
9579.5702496985
 31
0.0
  0
LINE
  5
17BA4
330
747D
100
AcDbEntity
  8
部品1
100
AcDbLine
 10
11432.77138451164
 20
7846.070249698485
 30
0.0
 11
8915.771384511538
 21
7846.070249698368
 31
0.0
  0
DIMENSION
  5
17BA5
330
747D
100
AcDbEntity
  8
寸法
100
AcDbDimension
  2
*D19
 10
11434.27138451164
 20
9879.570249698403
 30
0.0
 11
10174.27138451164
 21
9879.570249698403
 31
0.0
 70
   160
  1
6X420=<>
 71
     5
 42
2520.0
  3
INABA_S40G
100
AcDbAlignedDimension
 13
8914.271384511645
 23
9579.570249698404
 33
0.0
 14
11434.27138451164
 24
9579.570249698496
 34
0.0
100
AcDbRotatedDimension
1001
ACAD
1000
DSTYLE
1002
{
1002
}
  0
DIMENSION
  5
17BA6
330
747D
100
AcDbEntity
  8
寸法
100
AcDbDimension
  2
*D20
 10
11489.27138451164
 20
9879.570249698403
 30
0.0
 11
11797.75666588588
 21
9879.570249698403
 31
0.0
 70
   160
 71
     5
 42
55.0
  3
INABA_S40G
100
AcDbAlignedDimension
 13
11434.27138451164
 23
9579.570249698496
 33
0.0
 14
11489.27138451164
 24
9579.570249698496
 34
0.0
100
AcDbRotatedDimension
1001
ACAD
1000
DSTYLE
1002
{
1002
}
  0
DIMENSION
  5
17BA7
330
747D
100
AcDbEntity
  8
寸法
100
AcDbDimension
  2
*D21
 10
10074.03745267564
 20
8779.606860153853
 30
0.0
 11
9437.537452675611
 21
8779.606860153853
 31
0.0
 70
   160
 71
     5
 42
1273.000000000069
  3
INABA_S40G
100
AcDbAlignedDimension
 13
8886.771384511575
 23
9099.57024969845
 33
0.0
 14
10159.77138451164
 24
9099.570249698443
 34
0.0
100
AcDbRotatedDimension
1001
ACAD
1000
DSTYLE
1002
{
1002
}
  0
DIMENSION
  5
17BA8
330
747D
100
AcDbEntity
  8
寸法
100
AcDbDimension
  2
*D22
 10
8914.271384511645
 20
9879.570249698403
 30
0.0
 11
8550.786103137371
 21
9879.570249698403
 31
0.0
 70
   160
 71
     5
 42
55.00000000003637
  3
INABA_S40G
100
AcDbAlignedDimension
 13
8859.271384511609
 23
9579.570249698404
 33
0.0
 14
8914.271384511645
 24
9579.570249698404
 34
0.0
100
AcDbRotatedDimension
1001
ACAD
1000
DSTYLE
1002
{
1002
}
  0
LINE
  5
17BA9
330
747D
100
AcDbEntity
  8
部品1
 48
50.0
100
AcDbLine
 10
11434.27138451163
 20
4558.92625344428
 30
0.0
 11
11434.27138451163
 21
4563.926253444281
 31
0.0
  0
LINE
  5
17BAA
330
747D
100
AcDbEntity
  8
部品1
100
AcDbLine
 10
11461.27138451163
 20
2773.926253444301
 30
0.0
 11
11489.27138451163
 21
2773.926253444301
 31
0.0
  0
LINE
  5
17BAB
330
747D
100
AcDbEntity
  8
破線
 48
5.0
100
AcDbLine
 10
11514.27138451163
 20
2468.92625344428
 30
0.0
 11
11494.27138451163
 21
2468.92625344428
 31
0.0
  0
LINE
  5
17BAC
330
747D
100
AcDbEntity
  8
破線
 48
5.0
100
AcDbLine
 10
11589.27138451163
 20
2623.926253444281
 30
0.0
 11
11589.27138451163
 21
2423.92625344428
 31
0.0
  0
LINE
  5
17BAD
330
747D
100
AcDbEntity
  8
破線
 48
5.0
100
AcDbLine
 10
11494.27138451163
 20
2623.926253444281
 30
0.0
 11
11494.27138451163
 21
2468.92625344428
 31
0.0
  0
LINE
  5
17BAE
330
747D
100
AcDbEntity
  8
部品1
100
AcDbLine
 10
11494.27138451163
 20
2768.926253444281
 30
0.0
 11
11494.27138451163
 21
2623.926253444281
 31
0.0
  0
LINE
  5
17BAF
330
747D
100
AcDbEntity
  8
部品1
100
AcDbLine
 10
11489.27138451164
 20
4617.42625344428
 30
0.0
 11
11489.27138451163
 21
2623.926253444281
 31
0.0
  0
LINE
  5
17BB0
330
747D
100
AcDbEntity
  8
部品1
 48
50.0
100
AcDbLine
 10
9334.271384511636
 20
4558.92625344428
 30
0.0
 11
9334.271384511636
 21
4563.926253444281
 31
0.0
  0
LINE
  5
17BB1
330
747D
100
AcDbEntity
  8
破線
 48
5.0
100
AcDbLine
 10
11389.27138451163
 20
2623.926253444281
 30
0.0
 11
11389.27138451163
 21
2423.92625344428
 31
0.0
  0
LINE
  5
17BB2
330
747D
100
AcDbEntity
  8
部品1
100
AcDbLine
 10
11089.27138451163
 20
2723.926253444281
 30
0.0
 11
11089.27138451163
 21
2623.926253444281
 31
0.0
  0
LINE
  5
17BB3
330
747D
100
AcDbEntity
  8
部品1
 48
50.0
100
AcDbLine
 10
10689.27138451163
 20
2723.926253444281
 30
0.0
 11
10689.27138451163
 21
2623.926253444281
 31
0.0
  0
LINE
  5
17BB4
330
747D
100
AcDbEntity
  8
部品1
 48
50.0
100
AcDbLine
 10
10489.27138451163
 20
2723.926253444281
 30
0.0
 11
10489.27138451163
 21
2623.926253444281
 31
0.0
  0
LINE
  5
17BB5
330
747D
100
AcDbEntity
  8
部品1
 48
50.0
100
AcDbLine
 10
9859.271384511636
 20
2723.926253444281
 30
0.0
 11
9859.271384511636
 21
2623.926253444281
 31
0.0
  0
LINE
  5
17BB6
330
747D
100
AcDbEntity
  8
部品1
 48
50.0
100
AcDbLine
 10
9659.271384511635
 20
2723.926253444281
 30
0.0
 11
9659.271384511635
 21
2623.926253444281
 31
0.0
  0
LINE
  5
17BB7
330
747D
100
AcDbEntity
  8
部品1
100
AcDbLine
 10
8859.271384511634
 20
2773.926253444301
 30
0.0
 11
9307.271384511635
 21
2773.926253444301
 31
0.0
  0
LINE
  5
17BB8
330
747D
100
AcDbEntity
  8
部品1
100
AcDbLine
 10
9259.271384511633
 20
2723.926253444281
 30
0.0
 11
9259.271384511633
 21
2623.926253444281
 31
0.0
  0
LINE
  5
17BB9
330
747D
100
AcDbEntity
  8
破線
 48
5.0
100
AcDbLine
 10
8834.271384511634
 20
2468.92625344428
 30
0.0
 11
8854.271384511637
 21
2468.92625344428
 31
0.0
  0
LINE
  5
17BBA
330
747D
100
AcDbEntity
  8
破線
 48
5.0
100
AcDbLine
 10
8959.271384511634
 20
2623.926253444281
 30
0.0
 11
8959.271384511634
 21
2423.92625344428
 31
0.0
  0
LINE
  5
17BBB
330
747D
100
AcDbEntity
  8
破線
 48
5.0
100
AcDbLine
 10
8854.271384511633
 20
2623.926253444281
 30
0.0
 11
8854.271384511633
 21
2468.92625344428
 31
0.0
  0
LINE
  5
17BBC
330
747D
100
AcDbEntity
  8
部品1
100
AcDbLine
 10
8854.271384511633
 20
2768.926253444283
 30
0.0
 11
8854.271384511633
 21
2623.926253444281
 31
0.0
  0
LINE
  5
17BBD
330
747D
100
AcDbEntity
  8
部品1
100
AcDbLine
 10
8859.271384511632
 20
4617.42625344428
 30
0.0
 11
8859.271384511634
 21
2623.926253444281
 31
0.0
  0
LINE
  5
17BBE
330
747D
100
AcDbEntity
  8
部品1
 48
50.0
100
AcDbLine
 10
8914.271384511636
 20
2773.926253444301
 30
0.0
 11
8914.271384511636
 21
4563.926253444281
 31
0.0
  0
LINE
  5
17BBF
330
747D
100
AcDbEntity
  8
部品1
100
AcDbLine
 10
8859.271384511634
 20
2723.926253444281
 30
0.0
 11
11489.27138451163
 21
2723.926253444281
 31
0.0
  0
LINE
  5
17BC0
330
747D
100
AcDbEntity
  8
部品1
100
AcDbLine
 10
8859.271384511634
 20
4563.926253444281
 30
0.0
 11
11489.27138451163
 21
4563.926253444281
 31
0.0
  0
LINE
  5
17BC1
330
747D
100
AcDbEntity
  8
破線
 48
5.0
100
AcDbLine
 10
11589.27138451163
 20
2423.92625344428
 30
0.0
 11
11389.27138451163
 21
2423.92625344428
 31
0.0
  0
LINE
  5
17BC2
330
747D
100
AcDbEntity
  8
部品1
 48
50.0
100
AcDbLine
 10
8887.271384511636
 20
2723.926253444281
 30
0.0
 11
11461.27138451163
 21
2723.926253444281
 31
0.0
  0
LINE
  5
17BC3
330
747D
100
AcDbEntity
  8
部品1
 48
50.0
100
AcDbLine
 10
9307.271384511635
 20
2723.926253444281
 30
0.0
 11
11461.27138451163
 21
2723.926253444281
 31
0.0
  0
LINE
  5
17BC4
330
747D
100
AcDbEntity
  8
部品1
100
AcDbLine
 10
8859.271384511634
 20
4563.926253444281
 30
0.0
 11
11489.27138451163
 21
4563.926253444281
 31
0.0
  0
LINE
  5
17BC5
330
747D
100
AcDbEntity
  8
破線
 48
5.0
100
AcDbLine
 10
8759.271384511633
 20
2623.926253444281
 30
0.0
 11
8759.271384511633
 21
2423.92625344428
 31
0.0
  0
LINE
  5
17BC6
330
747D
100
AcDbEntity
  8
破線
 48
5.0
100
AcDbLine
 10
8759.271384511633
 20
2423.92625344428
 30
0.0
 11
8959.271384511636
 21
2423.92625344428
 31
0.0
  0
DIMENSION
  5
17BC7
330
747D
100
AcDbEntity
  8
寸法
 48
50.0
100
AcDbDimension
  2
*D23
 10
8759.271384511633
 20
2137.878924143903
 30
0.0
 11
8859.271384511634
 21
2137.878924143903
 31
0.0
 70
   160
 71
     5
 42
200.0000000000018
  3
INABA_S40G
100
AcDbAlignedDimension
 13
8959.271384511636
 23
2423.92625344428
 33
0.0
 14
8759.271384511633
 24
2423.92625344428
 34
0.0
100
AcDbRotatedDimension
  0
DIMENSION
  5
17BC8
330
747D
100
AcDbEntity
  8
寸法
 48
50.0
100
AcDbDimension
  2
*D24
 10
8525.888012292627
 20
2781.926253444281
 30
0.0
 11
8525.888012292627
 21
3638.875197646021
 31
0.0
 70
   160
  1
有効開口部高サ<>
 71
     5
 42
1724.999999999999
  3
INABA_S40G
100
AcDbAlignedDimension
 13
9307.271384511635
 23
4506.92625344428
 33
0.0
 14
9307.271384511635
 24
2781.926253444281
 34
0.0
 50
90.0
100
AcDbRotatedDimension
  0
LINE
  5
17BCD
330
747D
100
AcDbEntity
  8
部品1
100
AcDbLine
 10
10556.00671762585
 20
1934.88799046687
 30
0.0
 11
9792.536051397416
 21
1934.88799046687
 31
0.0
  0
LINE
  5
17BCE
330
747D
100
AcDbEntity
  8
部品1
100
AcDbLine
 10
10556.00671762585
 20
1694.995668921337
 30
0.0
 11
10556.00671762585
 21
1934.88799046687
 31
0.0
  0
LINE
  5
17BCF
330
747D
100
AcDbEntity
  8
部品1
100
AcDbLine
 10
9792.536051397416
 20
1694.995668921337
 30
0.0
 11
10556.00671762585
 21
1694.995668921337
 31
0.0
  0
LINE
  5
17BD0
330
747D
100
AcDbEntity
  8
部品1
100
AcDbLine
 10
9792.536051397416
 20
1934.88799046687
 30
0.0
 11
9792.536051397416
 21
1694.995668921337
 31
0.0
  0
TEXT
  5
17BD8
330
747D
100
AcDbEntity
  8
部品1
100
AcDbText
 10
9883.06145513537
 20
1741.994461248347
 30
0.0
 40
135.0
  1
正面図
  7
STYLE2
100
AcDbText
  0
LINE
  5
17BDA
330
747D
100
AcDbEntity
  8
Ｇ．Ｌ
100
AcDbLine
 10
2988.762414985875
 20
2623.926253444281
 30
0.0
 11
12138.78393754048
 21
2623.926253444281
 31
0.0
  0
LINE
  5
181BD
330
747D
100
AcDbEntity
  8
部品1
100
AcDbLine
 10
11432.77138451163
 20
8264.57024969847
 30
0.0
 11
8915.771384511629
 21
8264.570249698376
 31
0.0
  0
LINE
  5
181BE
330
747D
100
AcDbEntity
  8
部品1
100
AcDbLine
 10
8887.271384511619
 20
8264.570249698376
 30
0.0
 11
8859.27138451162
 21
8264.570249698376
 31
0.0
  0
LINE
  5
181BF
330
747D
100
AcDbEntity
  8
部品1
100
AcDbLine
 10
11461.27138451164
 20
8264.570249698499
 30
0.0
 11
11489.27138451164
 21
8264.570249698499
 31
0.0
  0
LINE
  5
183FC
330
747D
100
AcDbEntity
  8
寸法
 48
50.0
100
AcDbLine
 10
9769.474390793458
 20
7567.607001267224
 30
0.0
 11
9718.068382883354
 21
7567.607001267224
 31
0.0
  0
LINE
  5
183FD
330
747D
100
AcDbEntity
  8
寸法
 48
50.0
100
AcDbLine
 10
9718.068382883354
 20
7567.607001267224
 30
0.0
 11
9718.068382883354
 21
7598.917159919391
 31
0.0
  0
LINE
  5
183FE
330
747D
100
AcDbEntity
  8
寸法
 48
50.0
100
AcDbLine
 10
9718.068382883354
 20
7598.917159919391
 30
0.0
 11
9688.30705089193
 21
7598.917159919391
 31
0.0
  0
LINE
  5
183FF
330
747D
100
AcDbEntity
  8
寸法
 48
50.0
100
AcDbLine
 10
9688.30705089193
 20
7598.917159919391
 30
0.0
 11
9743.771386838405
 21
7636.496610848
 31
0.0
  0
LINE
  5
18400
330
747D
100
AcDbEntity
  8
寸法
 48
50.0
100
AcDbLine
 10
9799.235722784882
 20
7598.917159919391
 30
0.0
 11
9743.771386838405
 21
7636.496610848
 31
0.0
  0
LINE
  5
18401
330
747D
100
AcDbEntity
  8
寸法
 48
50.0
100
AcDbLine
 10
9769.474390793458
 20
7598.917159919391
 30
0.0
 11
9799.235722784882
 21
7598.917159919391
 31
0.0
  0
LINE
  5
18402
330
747D
100
AcDbEntity
  8
寸法
 48
50.0
100
AcDbLine
 10
9769.474390793458
 20
7567.607001267224
 30
0.0
 11
9769.474390793458
 21
7598.917159919391
 31
0.0
  0
LINE
  5
18403
330
747D
100
AcDbEntity
  8
寸法
 48
50.0
100
AcDbLine
 10
9718.068382883354
 20
7567.607001267224
 30
0.0
 11
9769.474390793458
 21
7567.607001267224
 31
0.0
  0
LINE
  5
18404
330
747D
100
AcDbEntity
  8
寸法
 48
50.0
100
AcDbLine
 10
10048.63992507031
 20
7624.752592022047
 30
0.0
 11
10048.63992507031
 21
7571.088957440257
 31
0.0
  0
LINE
  5
18405
330
747D
100
AcDbEntity
  8
寸法
 48
50.0
100
AcDbLine
 10
10137.92414366573
 20
7600.828957752561
 30
0.0
 11
10048.63992507031
 21
7624.752592022047
 31
0.0
  0
LINE
  5
18406
330
747D
100
AcDbEntity
  8
寸法
 48
50.0
100
AcDbLine
 10
9918.772203490011
 20
7600.828957752561
 30
0.0
 11
10137.92414366573
 21
7600.828957752561
 31
0.0
  0
LINE
  5
18407
330
747D
100
AcDbEntity
  8
細線
 48
50.0
100
AcDbLine
 10
10795.27138451161
 20
7766.070364647086
 30
0.0
 11
11422.27138451161
 21
7766.070364647086
 31
0.0
  0
LINE
  5
18408
330
747D
100
AcDbEntity
  8
細線
 48
50.0
100
AcDbLine
 10
10141.2713891652
 20
7732.361596093011
 30
0.0
 11
11422.27138451161
 21
7732.361596093011
 31
0.0
  0
LINE
  5
18409
330
747D
100
AcDbEntity
  8
細線
 48
50.0
100
AcDbLine
 10
10100.2713891652
 20
7761.766504089265
 30
0.0
 11
9346.271384511613
 21
7761.76650408926
 31
0.0
  0
LINE
  5
1840A
330
747D
100
AcDbEntity
  8
細線
100
AcDbLine
 10
11198.02137509515
 20
7785.570264612096
 30
0.0
 11
11200.35291461696
 21
7790.570267252056
 31
0.0
  0
LINE
  5
1840B
330
747D
100
AcDbEntity
  8
細線
100
AcDbLine
 10
11268.02138451161
 20
7785.570249698361
 30
0.0
 11
11265.68983803542
 21
7790.570267252042
 31
0.0
  0
LINE
  5
1840C
330
747D
100
AcDbEntity
  8
細線
100
AcDbLine
 10
11265.68983803542
 20
7790.570267252042
 30
0.0
 11
11200.35291461695
 21
7790.570267252028
 31
0.0
  0
LINE
  5
1840D
330
747D
100
AcDbEntity
  8
細線
100
AcDbLine
 10
11125.68983803542
 20
7790.570267252042
 30
0.0
 11
11060.35291461695
 21
7790.570267252028
 31
0.0
  0
LINE
  5
1840E
330
747D
100
AcDbEntity
  8
細線
100
AcDbLine
 10
11128.02138451161
 20
7785.570249698361
 30
0.0
 11
11125.68983803542
 21
7790.570267252042
 31
0.0
  0
LINE
  5
1840F
330
747D
100
AcDbEntity
  8
細線
100
AcDbLine
 10
11058.02137509515
 20
7785.570264612096
 30
0.0
 11
11060.35291461696
 21
7790.570267252056
 31
0.0
  0
LINE
  5
18410
330
747D
100
AcDbEntity
  8
細線
100
AcDbLine
 10
10918.02138451161
 20
7785.570249698361
 30
0.0
 11
10920.35292403342
 21
7790.570252338323
 31
0.0
  0
LINE
  5
18411
330
747D
100
AcDbEntity
  8
細線
100
AcDbLine
 10
10988.02139392807
 20
7785.570234784628
 30
0.0
 11
10985.68984745188
 21
7790.570252338309
 31
0.0
  0
LINE
  5
18412
330
747D
100
AcDbEntity
  8
細線
100
AcDbLine
 10
10985.68984745188
 20
7790.570252338309
 30
0.0
 11
10920.35292403341
 21
7790.570252338294
 31
0.0
  0
LINE
  5
18413
330
747D
100
AcDbEntity
  8
細線
100
AcDbLine
 10
10690.43986870072
 20
7756.57028903569
 30
0.0
 11
10625.10294528224
 21
7756.570289035675
 31
0.0
  0
LINE
  5
18414
330
747D
100
AcDbEntity
  8
細線
100
AcDbLine
 10
10692.7714151769
 20
7751.570271482009
 30
0.0
 11
10690.43986870072
 21
7756.57028903569
 31
0.0
  0
LINE
  5
18415
330
747D
100
AcDbEntity
  8
細線
100
AcDbLine
 10
10622.77140576045
 20
7751.570286395743
 30
0.0
 11
10625.10294528226
 21
7756.570289035704
 31
0.0
  0
LINE
  5
18416
330
747D
100
AcDbEntity
  8
細線
 48
50.0
100
AcDbLine
 10
10464.15476375962
 20
7769.841112851442
 30
0.0
 11
10469.91028134229
 21
7751.570261560956
 31
0.0
  0
LINE
  5
18417
330
747D
100
AcDbEntity
  8
細線
 48
50.0
100
AcDbLine
 10
10453.22631527919
 20
7769.841112851442
 30
0.0
 11
10464.15476375962
 21
7769.841112851442
 31
0.0
  0
ARC
  5
18418
330
747D
100
AcDbEntity
  8
細線
 48
50.0
100
AcDbCircle
 10
10447.77195922187
 20
7771.341112851442
 30
0.0
 40
5.0
100
AcDbArc
 50
204.6243183521304
 51
335.3756816478695
  0
ARC
  5
18419
330
747D
100
AcDbEntity
  8
細線
 48
50.0
100
AcDbCircle
 10
10453.22631527919
 20
7768.841112851442
 30
0.0
 40
1.0
100
AcDbArc
 50
90.0
 51
155.3756816478695
  0
ARC
  5
1841A
330
747D
100
AcDbEntity
  8
細線
 48
50.0
100
AcDbCircle
 10
10442.31760316456
 20
7768.841112851442
 30
0.0
 40
1.0
100
AcDbArc
 50
24.62431835213048
 51
90.0
  0
LINE
  5
1841B
330
747D
100
AcDbEntity
  8
細線
 48
50.0
100
AcDbLine
 10
10431.38915468412
 20
7769.841112851442
 30
0.0
 11
10442.31760316456
 21
7769.841112851442
 31
0.0
  0
LINE
  5
1841C
330
747D
100
AcDbEntity
  8
細線
 48
50.0
100
AcDbLine
 10
10425.63363710146
 20
7751.570261560948
 30
0.0
 11
10431.38915468412
 21
7769.841112851442
 31
0.0
  0
LINE
  5
1841D
330
747D
100
AcDbEntity
  8
細線
100
AcDbLine
 10
10482.77140699149
 20
7751.570258926752
 30
0.0
 11
10485.1029465133
 21
7756.570261566714
 31
0.0
  0
LINE
  5
1841E
330
747D
100
AcDbEntity
  8
細線
100
AcDbLine
 10
10552.77141640795
 20
7751.570244013018
 30
0.0
 11
10550.43986993176
 21
7756.570261566699
 31
0.0
  0
LINE
  5
1841F
330
747D
100
AcDbEntity
  8
細線
100
AcDbLine
 10
10550.43986993176
 20
7756.570261566699
 30
0.0
 11
10485.10294651329
 21
7756.570261566683
 31
0.0
  0
LINE
  5
18420
330
747D
100
AcDbEntity
  8
細線
100
AcDbLine
 10
10410.43984156724
 20
7756.57026156092
 30
0.0
 11
10345.10291814877
 21
7756.570261560904
 31
0.0
  0
LINE
  5
18421
330
747D
100
AcDbEntity
  8
細線
100
AcDbLine
 10
10412.77138804343
 20
7751.570244007239
 30
0.0
 11
10410.43984156724
 21
7756.57026156092
 31
0.0
  0
LINE
  5
18422
330
747D
100
AcDbEntity
  8
細線
100
AcDbLine
 10
10342.77137985801
 20
7751.570261560948
 30
0.0
 11
10345.10291814878
 21
7756.570261560934
 31
0.0
  0
LINE
  5
18423
330
747D
100
AcDbEntity
  8
細線
100
AcDbLine
 10
10202.7714151769
 20
7751.570269748317
 30
0.0
 11
10205.10295346767
 21
7756.570269748303
 31
0.0
  0
LINE
  5
18424
330
747D
100
AcDbEntity
  8
細線
100
AcDbLine
 10
10272.77142336232
 20
7751.570252194608
 30
0.0
 11
10270.43987688613
 21
7756.570269748285
 31
0.0
  0
LINE
  5
18425
330
747D
100
AcDbEntity
  8
細線
100
AcDbLine
 10
10270.43987688613
 20
7756.570269748285
 30
0.0
 11
10205.10295346766
 21
7756.570269748273
 31
0.0
  0
LINE
  5
18426
330
747D
100
AcDbEntity
  8
細線
100
AcDbLine
 10
9831.271380979785
 20
7717.570441429031
 30
0.0
 11
9833.602919270553
 21
7722.570441429017
 31
0.0
  0
LINE
  5
18427
330
747D
100
AcDbEntity
  8
細線
100
AcDbLine
 10
9901.271389165202
 20
7717.570423875317
 30
0.0
 11
9898.939842689015
 21
7722.570441428993
 31
0.0
  0
LINE
  5
18428
330
747D
100
AcDbEntity
  8
細線
100
AcDbLine
 10
9898.939842689015
 20
7722.570441428993
 30
0.0
 11
9833.602919270543
 21
7722.570441428986
 31
0.0
  0
LINE
  5
18429
330
747D
100
AcDbEntity
  8
細線
100
AcDbLine
 10
10038.93984268901
 20
7722.570441428993
 30
0.0
 11
9973.602919270543
 21
7722.570441428986
 31
0.0
  0
LINE
  5
1842A
330
747D
100
AcDbEntity
  8
細線
100
AcDbLine
 10
10041.2713891652
 20
7717.570423875317
 30
0.0
 11
10038.93984268901
 21
7722.570441428993
 31
0.0
  0
LINE
  5
1842B
330
747D
100
AcDbEntity
  8
細線
100
AcDbLine
 10
9971.271380979786
 20
7717.570441429031
 30
0.0
 11
9973.602919270554
 21
7722.570441429017
 31
0.0
  0
LINE
  5
1842C
330
747D
100
AcDbEntity
  8
細線
100
AcDbLine
 10
9758.939842689017
 20
7722.570441428993
 30
0.0
 11
9693.602919270544
 21
7722.570441428984
 31
0.0
  0
LINE
  5
1842D
330
747D
100
AcDbEntity
  8
細線
100
AcDbLine
 10
9761.271389165202
 20
7717.570423875317
 30
0.0
 11
9758.939842689017
 21
7722.570441428993
 31
0.0
  0
LINE
  5
1842E
330
747D
100
AcDbEntity
  8
細線
100
AcDbLine
 10
9691.271380979786
 20
7717.570441429026
 30
0.0
 11
9693.602919270553
 21
7722.570441429012
 31
0.0
  0
LINE
  5
1842F
330
747D
100
AcDbEntity
  8
細線
100
AcDbLine
 10
9551.271389165203
 20
7717.570441429031
 30
0.0
 11
9553.602927455969
 21
7722.570441429017
 31
0.0
  0
LINE
  5
18430
330
747D
100
AcDbEntity
  8
細線
100
AcDbLine
 10
9621.271397350618
 20
7717.570423875317
 30
0.0
 11
9618.939850874431
 21
7722.570441428993
 31
0.0
  0
LINE
  5
18431
330
747D
100
AcDbEntity
  8
細線
100
AcDbLine
 10
9618.939850874431
 20
7722.570441428993
 30
0.0
 11
9553.60292745596
 21
7722.570441428986
 31
0.0
  0
ARC
  5
18432
330
747D
100
AcDbEntity
  8
部品1
 48
0.01
100
AcDbCircle
 10
9506.771277912866
 20
7716.569319243958
 30
0.0
 40
0.5
100
AcDbArc
 50
270.0
 51
0.0
  0
LINE
  5
18433
330
747D
100
AcDbEntity
  8
部品1
 48
0.01
100
AcDbLine
 10
9507.271277912867
 20
7717.569319243958
 30
0.0
 11
9507.271277912867
 21
7716.569319243958
 31
0.0
  0
LINE
  5
18434
330
747D
100
AcDbEntity
  8
部品1
 48
0.01
100
AcDbLine
 10
9507.271277912867
 20
7717.569319243958
 30
0.0
 11
9507.271277912867
 21
7716.569319243958
 31
0.0
  0
LINE
  5
18435
330
747D
100
AcDbEntity
  8
部品1
 48
0.01
100
AcDbLine
 10
9506.771277912866
 20
7716.069319243958
 30
0.0
 11
9500.158772482803
 21
7716.069319243958
 31
0.0
  0
ARC
  5
18436
330
747D
100
AcDbEntity
  8
部品1
100
AcDbCircle
 10
9500.227122035584
 20
7717.069319243957
 30
0.0
 40
1.0
100
AcDbArc
 50
160.5287793655778
 51
270.0
  0
ARC
  5
18437
330
747D
100
AcDbEntity
  8
部品1
100
AcDbCircle
 10
9474.771277912868
 20
7726.069319243958
 30
0.0
 40
26.0
100
AcDbArc
 50
340.5287793655779
 51
0.0
  0
LINE
  5
18438
330
747D
100
AcDbEntity
  8
部品1
100
AcDbLine
 10
9500.771277912866
 20
7726.069319243958
 30
0.0
 11
9500.771277912866
 21
7731.069319243957
 31
0.0
  0
ARC
  5
18439
330
747D
100
AcDbEntity
  8
部品1
 48
0.01
100
AcDbCircle
 10
9498.771277912867
 20
7731.069319243957
 30
0.0
 40
2.0
100
AcDbArc
 50
0.0
 51
90.0
  0
ARC
  5
1843A
330
747D
100
AcDbEntity
  8
部品1
100
AcDbCircle
 10
9497.162886288057
 20
7730.069319243958
 30
0.0
 40
3.0
100
AcDbArc
 50
90.0
 51
141.6069559807873
  0
LINE
  5
1843B
330
747D
100
AcDbEntity
  8
部品1
 48
0.01
100
AcDbLine
 10
9498.771277912867
 20
7733.069319243958
 30
0.0
 11
9497.162886288057
 21
7733.069319243958
 31
0.0
  0
ARC
  5
1843C
330
747D
100
AcDbEntity
  8
部品1
100
AcDbCircle
 10
9478.700563698597
 20
7729.369319243961
 30
0.0
 40
3.0
100
AcDbArc
 50
254.0576313943215
 51
270.0
  0
ARC
  5
1843D
330
747D
100
AcDbEntity
  8
部品1
100
AcDbCircle
 10
9485.841992127138
 20
7729.369319243961
 30
0.0
 40
3.0
100
AcDbArc
 50
270.0
 51
285.9423686056786
  0
LINE
  5
1843E
330
747D
100
AcDbEntity
  8
部品1
100
AcDbLine
 10
9485.841992127138
 20
7726.369319243961
 30
0.0
 11
9478.700563698597
 21
7726.369319243961
 31
0.0
  0
ARC
  5
1843F
330
747D
100
AcDbEntity
  8
部品1
100
AcDbCircle
 10
9482.271277912866
 20
7741.86931924396
 30
0.0
 40
16.0
100
AcDbArc
 50
285.9423686056786
 51
321.6069559807873
  0
LINE
  5
18440
330
747D
100
AcDbEntity
  8
部品1
 48
0.01
100
AcDbLine
 10
9465.771277912867
 20
7733.069319243958
 30
0.0
 11
9467.379669537676
 21
7733.069319243958
 31
0.0
  0
ARC
  5
18441
330
747D
100
AcDbEntity
  8
部品1
100
AcDbCircle
 10
9467.379669537676
 20
7730.069319243958
 30
0.0
 40
3.0
100
AcDbArc
 50
38.39304401921267
 51
90.0
  0
ARC
  5
18442
330
747D
100
AcDbEntity
  8
部品1
100
AcDbCircle
 10
9482.271277912866
 20
7741.86931924396
 30
0.0
 40
16.0
100
AcDbArc
 50
218.3930440192126
 51
254.0576313943215
  0
LINE
  5
18443
330
747D
100
AcDbEntity
  8
部品1
100
AcDbLine
 10
9463.771277912867
 20
7726.069319243958
 30
0.0
 11
9463.771277912867
 21
7731.069319243957
 31
0.0
  0
ARC
  5
18444
330
747D
100
AcDbEntity
  8
部品1
 48
0.01
100
AcDbCircle
 10
9465.771277912867
 20
7731.069319243957
 30
0.0
 40
2.0
100
AcDbArc
 50
90.0
 51
180.0
  0
ARC
  5
18445
330
747D
100
AcDbEntity
  8
部品1
100
AcDbCircle
 10
9489.771277912867
 20
7726.069319243958
 30
0.0
 40
26.0
100
AcDbArc
 50
180.0
 51
199.4712206344221
  0
ARC
  5
18446
330
747D
100
AcDbEntity
  8
部品1
 48
0.01
100
AcDbCircle
 10
9457.771277912867
 20
7716.569319243958
 30
0.0
 40
0.5
100
AcDbArc
 50
180.0
 51
270.0
  0
LINE
  5
18447
330
747D
100
AcDbEntity
  8
部品1
 48
0.01
100
AcDbLine
 10
9457.771277912867
 20
7716.069319243958
 30
0.0
 11
9464.315433790151
 21
7716.069319243958
 31
0.0
  0
LINE
  5
18448
330
747D
100
AcDbEntity
  8
部品1
 48
0.01
100
AcDbLine
 10
9457.271277912866
 20
7717.569319243958
 30
0.0
 11
9457.271277912866
 21
7716.569319243958
 31
0.0
  0
ARC
  5
18449
330
747D
100
AcDbEntity
  8
部品1
100
AcDbCircle
 10
9464.315433790151
 20
7717.069319243957
 30
0.0
 40
1.0
100
AcDbArc
 50
270.0
 51
19.47122063442214
  0
LINE
  5
1844A
330
747D
100
AcDbEntity
  8
細線
100
AcDbLine
 10
9502.771277912875
 20
7735.569319243961
 30
0.0
 11
9461.771277912873
 21
7735.569319243954
 31
0.0
  0
LINE
  5
1844B
330
747D
100
AcDbEntity
  8
細線
100
AcDbLine
 10
9461.771277912873
 20
7735.569319243954
 30
0.0
 11
9461.771277912873
 21
7717.569319243935
 31
0.0
  0
LINE
  5
1844C
330
747D
100
AcDbEntity
  8
細線
100
AcDbLine
 10
9502.771277912875
 20
7735.569319243961
 30
0.0
 11
9502.771277912875
 21
7717.569319243935
 31
0.0
  0
LINE
  5
1844D
330
747D
100
AcDbEntity
  8
細線
100
AcDbLine
 10
9346.271384511613
 20
7721.570249698361
 30
0.0
 11
9346.271384511613
 21
7717.570249698408
 31
0.0
  0
DIMENSION
  5
1844E
330
747D
100
AcDbEntity
  8
寸法
 48
50.0
100
AcDbDimension
  2
*D30
 10
10612.27138451161
 20
7062.56700179656
 30
0.0
 11
9981.897824766836
 21
7062.56700179656
 31
0.0
 70
   160
  1
有効開口部間口\P<>
 71
     5
 42
1266.0
  3
INABA_S40
100
AcDbAlignedDimension
 13
9346.271384511613
 23
7712.570249698362
 33
0.0
 14
10612.27138451161
 24
7712.570249698362
 34
0.0
100
AcDbRotatedDimension
1001
ACAD
1000
DSTYLE
1002
{
1070
    41
1040
0.5
1070
    44
1040
1.0
1070
   147
1040
0.8
1070
   271
1070
     2
1070
   272
1070
     2
1070
   289
1070
     3
1070
   340
1005
F706
1070
   343
1005
168EE
1070
   344
1005
168EE
1002
}
  0
LINE
  5
1844F
330
747D
100
AcDbEntity
  8
部品1
100
AcDbLine
 10
11434.27138451161
 20
7789.570249698361
 30
0.0
 11
11461.27138451161
 21
7789.570249698361
 31
0.0
  0
LINE
  5
18451
330
747D
100
AcDbEntity
  8
部品1
100
AcDbLine
 10
11461.27138451161
 20
7712.570249698362
 30
0.0
 11
11461.27138451161
 21
7789.570249698361
 31
0.0
  0
LINE
  5
18452
330
747D
100
AcDbEntity
  8
部品1
100
AcDbLine
 10
11422.27138451161
 20
7785.570249698361
 30
0.0
 11
11434.27138451161
 21
7785.570249698361
 31
0.0
  0
LINE
  5
18453
330
747D
100
AcDbEntity
  8
部品1
100
AcDbLine
 10
11431.27138451161
 20
7721.570249698361
 30
0.0
 11
11431.27138451161
 21
7712.570249698362
 31
0.0
  0
LINE
  5
18454
330
747D
100
AcDbEntity
  8
部品1
100
AcDbLine
 10
11422.27138451161
 20
7721.570249698361
 30
0.0
 11
11431.27138451161
 21
7721.570249698361
 31
0.0
  0
LINE
  5
18455
330
747D
100
AcDbEntity
  8
部品1
100
AcDbLine
 10
11422.27138451161
 20
7785.570249698361
 30
0.0
 11
11422.27138451161
 21
7721.570249698361
 31
0.0
  0
LINE
  5
18456
330
747D
100
AcDbEntity
  8
部品1
100
AcDbLine
 10
11434.27138451161
 20
7816.570249698362
 30
0.0
 11
11434.27138451161
 21
7785.570249698361
 31
0.0
  0
LINE
  5
18457
330
747D
100
AcDbEntity
  8
部品1
100
AcDbLine
 10
9346.271384511613
 20
7785.570249698361
 30
0.0
 11
9334.271384511612
 21
7785.570249698361
 31
0.0
  0
LINE
  5
18458
330
747D
100
AcDbEntity
  8
部品1
100
AcDbLine
 10
9307.271384511613
 20
7789.570249698361
 30
0.0
 11
9334.271384511612
 21
7789.570249698361
 31
0.0
  0
LINE
  5
18459
330
747D
100
AcDbEntity
  8
部品1
100
AcDbLine
 10
9337.271384511613
 20
7721.570249698361
 30
0.0
 11
9337.271384511613
 21
7712.570249698362
 31
0.0
  0
LINE
  5
1845A
330
747D
100
AcDbEntity
  8
部品1
100
AcDbLine
 10
9346.271384511613
 20
7721.570249698361
 30
0.0
 11
9337.271384511613
 21
7721.570249698361
 31
0.0
  0
LINE
  5
1845B
330
747D
100
AcDbEntity
  8
部品1
100
AcDbLine
 10
9337.271384511613
 20
7712.570249698362
 30
0.0
 11
9307.271384511613
 21
7712.570249698362
 31
0.0
  0
LINE
  5
1845C
330
747D
100
AcDbEntity
  8
部品1
100
AcDbLine
 10
9307.271384511613
 20
7712.570249698362
 30
0.0
 11
9307.271384511613
 21
7789.570249698361
 31
0.0
  0
LINE
  5
1845D
330
747D
100
AcDbEntity
  8
部品1
100
AcDbLine
 10
9346.271384511613
 20
7785.570249698361
 30
0.0
 11
9346.271384511613
 21
7721.570249698361
 31
0.0
  0
LINE
  5
1845E
330
747D
100
AcDbEntity
  8
部品1
100
AcDbLine
 10
9334.271384511612
 20
7816.570249698358
 30
0.0
 11
9334.271384511612
 21
7785.570249698361
 31
0.0
  0
LINE
  5
1845F
330
747D
100
AcDbEntity
  8
部品1
100
AcDbLine
 10
9334.271384511612
 20
7816.570249698358
 30
0.0
 11
11434.27138451161
 21
7816.570249698362
 31
0.0
  0
LINE
  5
18460
330
747D
100
AcDbEntity
  8
部品1
100
AcDbLine
 10
11431.27138451161
 20
7712.570249698362
 30
0.0
 11
11461.27138451161
 21
7712.570249698362
 31
0.0
  0
LINE
  5
18461
330
747D
100
AcDbEntity
  8
部品1
100
AcDbLine
 10
9337.271384511613
 20
7712.570249698362
 30
0.0
 11
11434.27138451161
 21
7712.570249698362
 31
0.0
  0
LINE
  5
18462
330
747D
100
AcDbEntity
  8
細線
  6
Continuous
 62
     5
100
AcDbLine
 10
10713.27138451161
 20
7751.570249698358
 30
0.0
 11
10713.27138451161
 21
7751.570249698358
 31
0.0
  0
LINE
  5
18463
330
747D
100
AcDbEntity
  8
細線
  6
Continuous
 62
     5
100
AcDbLine
 10
10705.7714198305
 20
7751.570259619414
 30
0.0
 11
10705.7714198305
 21
7751.570259619414
 31
0.0
  0
LINE
  5
18464
330
747D
100
AcDbEntity
  8
細線
  6
Continuous
 62
     5
100
AcDbLine
 10
10699.77141983051
 20
7751.570259619414
 30
0.0
 11
10699.77141983051
 21
7751.570259619414
 31
0.0
  0
LINE
  5
18465
330
747D
100
AcDbEntity
  8
細線
  6
Continuous
 62
     5
100
AcDbLine
 10
10767.27138451161
 20
7770.570249698358
 30
0.0
 11
10767.27138451161
 21
7770.570249698358
 31
0.0
  0
LINE
  5
18466
330
747D
100
AcDbEntity
  8
細線
 48
50.0
100
AcDbLine
 10
9360.271389165205
 20
7738.170423875316
 30
0.0
 11
9360.271389165205
 21
7746.566574282955
 31
0.0
  0
LINE
  5
18467
330
747D
100
AcDbEntity
  8
細線
 48
50.0
100
AcDbLine
 10
9360.271389165205
 20
7746.566574282955
 30
0.0
 11
9346.271384511613
 21
7746.566574282951
 31
0.0
  0
LINE
  5
18468
330
747D
100
AcDbEntity
  8
細線
 48
50.0
100
AcDbLine
 10
10111.2713891652
 20
7734.720423875315
 30
0.0
 11
10111.2713891652
 21
7739.570423875317
 31
0.0
  0
LINE
  5
18469
330
747D
100
AcDbEntity
  8
細線
 48
50.0
100
AcDbLine
 10
10111.2713891652
 20
7739.570423875317
 30
0.0
 11
10126.2713891652
 21
7739.570423875317
 31
0.0
  0
LINE
  5
1846A
330
747D
100
AcDbEntity
  8
細線
 48
50.0
100
AcDbLine
 10
10126.2713891652
 20
7739.570423875317
 30
0.0
 11
10126.2713891652
 21
7746.570423875318
 31
0.0
  0
LINE
  5
1846B
330
747D
100
AcDbEntity
  8
細線
 48
50.0
100
AcDbLine
 10
10126.2713891652
 20
7746.570423875318
 30
0.0
 11
10141.2713891652
 21
7746.570423875318
 31
0.0
  0
LINE
  5
1846C
330
747D
100
AcDbEntity
  8
細線
 48
50.0
100
AcDbLine
 10
10141.2713891652
 20
7746.570423875318
 30
0.0
 11
10141.2713891652
 21
7717.570423875317
 31
0.0
  0
LINE
  5
1846D
330
747D
100
AcDbEntity
  8
細線
 48
50.0
100
AcDbLine
 10
9337.271384511613
 20
7717.567758218786
 30
0.0
 11
9551.271389165203
 21
7717.570441429031
 31
0.0
  0
LINE
  5
1846E
330
747D
100
AcDbEntity
  8
細線
 48
50.0
100
AcDbLine
 10
10041.2713891652
 20
7717.570423875317
 30
0.0
 11
10141.2713891652
 21
7717.570423875317
 31
0.0
  0
LINE
  5
1846F
330
747D
100
AcDbEntity
  8
細線
 48
50.0
100
AcDbLine
 10
9761.271389165202
 20
7717.570423875317
 30
0.0
 11
9831.271389165202
 21
7717.570423875317
 31
0.0
  0
LINE
  5
18470
330
747D
100
AcDbEntity
  8
細線
 48
50.0
100
AcDbLine
 10
9774.133354177731
 20
7717.570423875317
 30
0.0
 11
9779.888871760398
 21
7735.84127516581
 31
0.0
  0
LINE
  5
18471
330
747D
100
AcDbEntity
  8
細線
 48
50.0
100
AcDbLine
 10
9779.888871760398
 20
7735.84127516581
 30
0.0
 11
9790.817320240833
 21
7735.841275165807
 31
0.0
  0
ARC
  5
18472
330
747D
100
AcDbEntity
  8
細線
 48
50.0
100
AcDbCircle
 10
9790.817320240833
 20
7734.841275165807
 30
0.0
 40
1.0
100
AcDbArc
 50
24.62431835213048
 51
90.0
  0
ARC
  5
18473
330
747D
100
AcDbEntity
  8
細線
 48
50.0
100
AcDbCircle
 10
9801.726032355466
 20
7734.841275165807
 30
0.0
 40
1.0
100
AcDbArc
 50
90.0
 51
155.3756816478695
  0
ARC
  5
18474
330
747D
100
AcDbEntity
  8
細線
 48
50.0
100
AcDbCircle
 10
9796.271676298147
 20
7737.341275165807
 30
0.0
 40
5.0
100
AcDbArc
 50
204.6243183521304
 51
335.3756816478695
  0
LINE
  5
18475
330
747D
100
AcDbEntity
  8
細線
 48
50.0
100
AcDbLine
 10
9801.726032355466
 20
7735.841275165807
 30
0.0
 11
9812.654480835901
 21
7735.84127516581
 31
0.0
  0
LINE
  5
18476
330
747D
100
AcDbEntity
  8
細線
 48
50.0
100
AcDbLine
 10
9812.654480835901
 20
7735.84127516581
 30
0.0
 11
9818.409998418566
 21
7717.570423875317
 31
0.0
  0
LINE
  5
18477
330
747D
100
AcDbEntity
  8
細線
 48
50.0
100
AcDbLine
 10
10111.2713891652
 20
7738.170423875316
 30
0.0
 11
9360.271389165205
 21
7738.170423875316
 31
0.0
  0
LINE
  5
18478
330
747D
100
AcDbEntity
  8
細線
 48
50.0
100
AcDbLine
 10
9971.271389165202
 20
7717.570423875317
 30
0.0
 11
9901.271389165202
 21
7717.570423875317
 31
0.0
  0
LINE
  5
18479
330
747D
100
AcDbEntity
  8
細線
100
AcDbLine
 10
9691.271389165201
 20
7717.570423875317
 30
0.0
 11
9621.271397350618
 21
7717.570423875317
 31
0.0
  0
LINE
  5
1847A
330
747D
100
AcDbEntity
  8
細線
 48
50.0
100
AcDbLine
 10
10765.27137985802
 20
7772.170467733184
 30
0.0
 11
10130.2713891652
 21
7772.17046773318
 31
0.0
  0
LINE
  5
1847B
330
747D
100
AcDbEntity
  8
細線
 48
50.0
100
AcDbLine
 10
10130.2713891652
 20
7769.066618140823
 30
0.0
 11
10130.2713891652
 21
7773.566618140823
 31
0.0
  0
LINE
  5
1847C
330
747D
100
AcDbEntity
  8
細線
 48
50.0
100
AcDbLine
 10
10130.2713891652
 20
7773.566618140823
 30
0.0
 11
10115.2713891652
 21
7773.566618140823
 31
0.0
  0
LINE
  5
1847D
330
747D
100
AcDbEntity
  8
細線
 48
50.0
100
AcDbLine
 10
10115.2713891652
 20
7773.566618140823
 30
0.0
 11
10115.2713891652
 21
7780.566618140823
 31
0.0
  0
LINE
  5
1847E
330
747D
100
AcDbEntity
  8
細線
 48
50.0
100
AcDbLine
 10
10115.2713891652
 20
7780.566618140823
 30
0.0
 11
10100.2713891652
 21
7780.56661814082
 31
0.0
  0
LINE
  5
1847F
330
747D
100
AcDbEntity
  8
細線
 48
50.0
100
AcDbLine
 10
10100.2713891652
 20
7780.56661814082
 30
0.0
 11
10100.2713891652
 21
7742.966390037709
 31
0.0
  0
LINE
  5
18480
330
747D
100
AcDbEntity
  8
細線
 48
50.0
100
AcDbLine
 10
10100.2713891652
 20
7742.966390037709
 30
0.0
 11
10120.27139646638
 21
7742.96643158725
 31
0.0
  0
LINE
  5
18481
330
747D
100
AcDbEntity
  8
細線
 48
50.0
100
AcDbLine
 10
10120.27135159743
 20
7751.569893223059
 30
0.0
 11
10120.27139646638
 21
7742.96643158725
 31
0.0
  0
LINE
  5
18482
330
747D
100
AcDbEntity
  8
細線
 48
50.0
100
AcDbLine
 10
10765.27137985802
 20
7768.720467733183
 30
0.0
 11
10765.27137985802
 21
7773.570467733181
 31
0.0
  0
LINE
  5
18483
330
747D
100
AcDbEntity
  8
細線
 48
50.0
100
AcDbLine
 10
10765.27137985802
 20
7773.570467733181
 30
0.0
 11
10780.27137985802
 21
7773.570467733181
 31
0.0
  0
LINE
  5
18484
330
747D
100
AcDbEntity
  8
細線
 48
50.0
100
AcDbLine
 10
10780.27137985802
 20
7773.570467733181
 30
0.0
 11
10780.271391492
 21
7780.570467733226
 31
0.0
  0
LINE
  5
18485
330
747D
100
AcDbEntity
  8
細線
 48
50.0
100
AcDbLine
 10
10780.271391492
 20
7780.570467733226
 30
0.0
 11
10795.27138966253
 21
7780.570467733226
 31
0.0
  0
LINE
  5
18486
330
747D
100
AcDbEntity
  8
細線
 48
50.0
100
AcDbLine
 10
10795.27138966253
 20
7780.570467733226
 30
0.0
 11
10795.2713793607
 21
7751.570261560951
 31
0.0
  0
LINE
  5
18487
330
747D
100
AcDbEntity
  8
細線
 48
50.0
100
AcDbLine
 10
10482.77140699149
 20
7751.570269748317
 30
0.0
 11
10412.7716590739
 21
7751.570264310981
 31
0.0
  0
LINE
  5
18488
330
747D
100
AcDbEntity
  8
細線
 48
50.0
100
AcDbLine
 10
10120.27135159743
 20
7751.569893223059
 30
0.0
 11
10131.50404095214
 21
7751.570076176206
 31
0.0
  0
ARC
  5
18489
330
747D
100
AcDbEntity
  8
細線
 48
50.0
100
AcDbCircle
 10
10138.08633325948
 20
7750.370240089818
 30
0.0
 40
1.8
100
AcDbArc
 50
270.0006665777295
 51
345.0005554812987
  0
LINE
  5
1848A
330
747D
100
AcDbEntity
  8
細線
 48
50.0
100
AcDbLine
 10
10140.07276670556
 20
7750.829080547098
 30
0.0
 11
10139.82500426336
 21
7749.904382664991
 31
0.0
  0
LINE
  5
1848B
330
747D
100
AcDbEntity
  8
細線
 48
50.0
100
AcDbLine
 10
10138.08635420063
 20
7748.570240089939
 30
0.0
 11
10134.45642678187
 21
7748.570197859459
 31
0.0
  0
ARC
  5
1848C
330
747D
100
AcDbEntity
  8
細線
 48
50.0
100
AcDbCircle
 10
10134.45640584071
 20
7750.370197859338
 30
0.0
 40
1.8
100
AcDbArc
 50
195.0010443049394
 51
270.0006665777295
  0
LINE
  5
1848D
330
747D
100
AcDbEntity
  8
細線
 48
50.0
100
AcDbLine
 10
10132.46997834845
 20
7750.828912826903
 30
0.0
 11
10132.71774784497
 21
7749.90429188832
 31
0.0
  0
ARC
  5
1848E
330
747D
100
AcDbEntity
  8
細線
 48
50.0
100
AcDbCircle
 10
10131.50405723971
 20
7750.570076176341
 30
0.0
 40
1.0
100
AcDbArc
 50
15.00104430493943
 51
90.00093320877969
  0
LINE
  5
1848F
330
747D
100
AcDbEntity
  8
細線
 48
50.0
100
AcDbLine
 10
10141.03868806066
 20
7751.570270866611
 30
0.0
 11
10141.98044821157
 21
7751.57027744046
 31
0.0
  0
ARC
  5
18490
330
747D
100
AcDbEntity
  8
細線
 48
50.0
100
AcDbCircle
 10
10141.03869504105
 20
7750.570270866636
 30
0.0
 40
1.0
100
AcDbArc
 50
90.0003999466794
 51
165.0005554812987
  0
LINE
  5
18491
330
747D
100
AcDbEntity
  8
細線
 48
50.0
100
AcDbLine
 10
10692.77137985801
 20
7751.570261560951
 30
0.0
 11
10795.2713793607
 21
7751.570261560951
 31
0.0
  0
LINE
  5
18492
330
747D
100
AcDbEntity
  8
細線
 48
50.0
100
AcDbLine
 10
10202.7714151769
 20
7751.570269748317
 30
0.0
 11
10141.67135394999
 21
7751.57027744046
 31
0.0
  0
LINE
  5
18493
330
747D
100
AcDbEntity
  8
細線
 48
50.0
100
AcDbLine
 10
10622.77141517691
 20
7751.5703065894
 30
0.0
 11
10552.77140822252
 21
7751.570261566732
 31
0.0
  0
LINE
  5
18494
330
747D
100
AcDbEntity
  8
細線
 48
50.0
100
AcDbLine
 10
10342.77137985801
 20
7751.570261560948
 30
0.0
 11
10272.77136257014
 21
7751.570261560956
 31
0.0
  0
ARC
  5
18495
330
747D
100
AcDbEntity
  8
細線
 48
50.0
100
AcDbCircle
 10
10779.47138451162
 20
7784.770249698361
 30
0.0
 40
0.8
100
AcDbArc
 50
359.9997333689499
 51
89.99986668437072
  0
ARC
  5
18496
330
747D
100
AcDbEntity
  8
細線
 48
50.0
100
AcDbCircle
 10
10787.07139133671
 20
7784.770260866979
 30
0.0
 40
0.8
100
AcDbArc
 50
90.00014387753465
 51
179.9997333689498
  0
LINE
  5
18497
330
747D
100
AcDbEntity
  8
細線
 48
50.0
100
AcDbLine
 10
10779.47138637306
 20
7785.570249698361
 30
0.0
 11
10774.27138451161
 21
7785.570249698361
 31
0.0
  0
ARC
  5
18498
330
747D
100
AcDbEntity
  8
細線
 48
50.0
100
AcDbCircle
 10
10780.97138451161
 20
7783.270249698363
 30
0.0
 40
0.7
100
AcDbArc
 50
180.0
 51
270.0
  0
ARC
  5
18499
330
747D
100
AcDbEntity
  8
細線
 48
50.0
100
AcDbCircle
 10
10785.57138451161
 20
7783.270249698363
 30
0.0
 40
0.7
100
AcDbArc
 50
270.0
 51
0.0
  0
LINE
  5
1849A
330
747D
100
AcDbEntity
  8
細線
 48
50.0
100
AcDbLine
 10
10786.27138451161
 20
7783.270249698363
 30
0.0
 11
10786.27139133673
 21
7784.770264589849
 31
0.0
  0
LINE
  5
1849B
330
747D
100
AcDbEntity
  8
細線
 48
50.0
100
AcDbLine
 10
10780.97138451161
 20
7782.570249698361
 30
0.0
 11
10785.57138451161
 21
7782.570249698361
 31
0.0
  0
LINE
  5
1849C
330
747D
100
AcDbEntity
  8
細線
 48
50.0
100
AcDbLine
 10
10780.27138451161
 20
7784.770249698361
 30
0.0
 11
10780.27138451161
 21
7783.270249698363
 31
0.0
  0
LINE
  5
1849D
330
747D
100
AcDbEntity
  8
細線
 48
50.0
100
AcDbLine
 10
11405.87138451162
 20
7815.57024969836
 30
0.0
 11
10769.27138451161
 21
7815.570249698358
 31
0.0
  0
LINE
  5
1849E
330
747D
100
AcDbEntity
  8
細線
 48
50.0
100
AcDbLine
 10
11431.77138451161
 20
7810.570249698365
 30
0.0
 11
11415.87138451161
 21
7810.570249698361
 31
0.0
  0
LINE
  5
1849F
330
747D
100
AcDbEntity
  8
細線
 48
50.0
100
AcDbLine
 10
11415.87138451161
 20
7810.570249698361
 30
0.0
 11
11405.87138451162
 21
7815.57024969836
 31
0.0
  0
LINE
  5
184A0
330
747D
100
AcDbEntity
  8
細線
100
AcDbLine
 10
11016.77138451161
 20
7785.570249698361
 30
0.0
 11
11016.77138451161
 21
7814.87024969836
 31
0.0
  0
LINE
  5
184A1
330
747D
100
AcDbEntity
  8
細線
100
AcDbLine
 10
11016.77138451161
 20
7814.87024969836
 30
0.0
 11
11036.77138451161
 21
7814.87024969836
 31
0.0
  0
LINE
  5
184A2
330
747D
100
AcDbEntity
  8
細線
100
AcDbLine
 10
11036.77138451161
 20
7785.570249698361
 30
0.0
 11
11036.77138451161
 21
7814.87024969836
 31
0.0
  0
LINE
  5
184A3
330
747D
100
AcDbEntity
  8
細線
100
AcDbLine
 10
11198.02138451161
 20
7785.570249698361
 30
0.0
 11
11128.02138451161
 21
7785.570249698361
 31
0.0
  0
LINE
  5
184A4
330
747D
100
AcDbEntity
  8
細線
 48
50.0
100
AcDbLine
 10
10918.02138451161
 20
7785.570249698361
 30
0.0
 11
10787.06716408445
 21
7785.570249698361
 31
0.0
  0
LINE
  5
184A5
330
747D
100
AcDbEntity
  8
細線
100
AcDbLine
 10
11058.02138451161
 20
7785.570249698361
 30
0.0
 11
10988.02138451161
 21
7785.570249698361
 31
0.0
  0
LINE
  5
184A6
330
747D
100
AcDbEntity
  8
細線
 48
50.0
100
AcDbLine
 10
10774.27138451161
 20
7777.570249698361
 30
0.0
 11
10774.27138451161
 21
7785.570249698361
 31
0.0
  0
LINE
  5
184A7
330
747D
100
AcDbEntity
  8
細線
 48
50.0
100
AcDbLine
 10
10754.27138451161
 20
7777.570249698365
 30
0.0
 11
10774.27138451161
 21
7777.570249698361
 31
0.0
  0
LINE
  5
184A8
330
747D
100
AcDbEntity
  8
細線
 48
50.0
100
AcDbLine
 10
10769.27138451161
 20
7815.57024969836
 30
0.0
 11
10769.27138451161
 21
7810.570249698361
 31
0.0
  0
LINE
  5
184A9
330
747D
100
AcDbEntity
  8
細線
 48
50.0
100
AcDbLine
 10
10754.27138451161
 20
7815.570249698358
 30
0.0
 11
10769.27138451161
 21
7815.57024969836
 31
0.0
  0
LINE
  5
184AA
330
747D
100
AcDbEntity
  8
細線
 48
50.0
100
AcDbLine
 10
10754.27138451161
 20
7777.570249698365
 30
0.0
 11
10754.27138451161
 21
7815.570249698358
 31
0.0
  0
LINE
  5
184AB
330
747D
100
AcDbEntity
  8
細線
100
AcDbLine
 10
11422.27138451161
 20
7785.570249698361
 30
0.0
 11
11268.02138451161
 21
7785.570249698361
 31
0.0
  0
LINE
  5
184AC
330
747D
100
AcDbEntity
  8
細線
 48
50.0
100
AcDbLine
 10
11431.77138451161
 20
7810.570249698365
 30
0.0
 11
11431.77138451161
 21
7785.570249698361
 31
0.0
  0
DIMENSION
  5
186D8
330
747D
100
AcDbEntity
  8
寸法
 48
50.0
100
AcDbDimension
  2
*D31
 10
11461.27138451161
 20
6774.714880309033
 30
0.0
 11
10386.07135578205
 21
6774.714880309033
 31
0.0
 70
   160
 71
     5
 42
2154.0
  3
INABA_S40G
100
AcDbAlignedDimension
 13
9307.271384511613
 23
7712.570249698359
 33
0.0
 14
11461.27138451161
 24
7712.570249698359
 34
0.0
100
AcDbRotatedDimension
1001
ACAD
1000
DSTYLE
1002
{
1070
   341
1005
0
1002
}
  0
DIMENSION
  5
186D9
330
747D
100
AcDbEntity
  8
寸法
100
AcDbDimension
  2
*D32
 10
8564.660138884923
 20
7714.570249698356
 30
0.0
 11
8564.660138884919
 21
7574.084968324118
 31
0.0
 70
   160
 71
     5
 42
75.0
  3
INABA_S40
100
AcDbAlignedDimension
 13
8859.271384511638
 23
7789.570249698356
 33
0.0
 14
9307.271384511613
 24
7714.570249698356
 34
0.0
 50
90.0
100
AcDbRotatedDimension
1001
ACAD
1000
DSTYLE
1002
{
1070
    41
1040
0.5
1070
    44
1040
1.0
1070
   147
1040
0.8
1070
   271
1070
     2
1070
   272
1070
     2
1070
   289
1070
     3
1070
   340
1005
F706
1070
   343
1005
168EE
1070
   344
1005
168EE
1002
}
  0
DIMENSION
  5
187D9
330
747D
100
AcDbEntity
  8
寸法
100
AcDbDimension
  2
*D33
 10
11489.27138451162
 20
6508.373292417354
 30
0.0
 11
10158.71072921416
 21
6508.373292417354
 31
0.0
 70
   160
 71
     5
 42
2629.999999999982
  3
INABA_S40G
100
AcDbAlignedDimension
 13
8859.271384511638
 23
7789.570249698323
 33
0.0
 14
11489.27138451162
 24
7789.570249698487
 34
0.0
100
AcDbRotatedDimension
1001
ACAD
1000
DSTYLE
1002
{
1002
}
  0
LINE
  5
187E0
330
747D
100
AcDbEntity
  8
部品1
100
AcDbLine
 10
10556.00671762585
 20
6339.019832530397
 30
0.0
 11
9792.536051397416
 21
6339.019832530397
 31
0.0
  0
LINE
  5
187E1
330
747D
100
AcDbEntity
  8
部品1
100
AcDbLine
 10
10556.00671762585
 20
6099.127510984865
 30
0.0
 11
10556.00671762585
 21
6339.019832530397
 31
0.0
  0
LINE
  5
187E2
330
747D
100
AcDbEntity
  8
部品1
100
AcDbLine
 10
9792.536051397416
 20
6099.127510984865
 30
0.0
 11
10556.00671762585
 21
6099.127510984865
 31
0.0
  0
LINE
  5
187E3
330
747D
100
AcDbEntity
  8
部品1
100
AcDbLine
 10
9792.536051397416
 20
6339.019832530397
 30
0.0
 11
9792.536051397416
 21
6099.127510984865
 31
0.0
  0
TEXT
  5
187E4
330
747D
100
AcDbEntity
  8
部品1
100
AcDbText
 10
9882.455661226453
 20
6146.126303311874
 30
0.0
 40
135.0
  1
平面図
  7
STYLE2
100
AcDbText
  0
LWPOLYLINE
  5
189FF
330
747D
100
AcDbEntity
  8
部品1
 48
50.0
100
AcDbPolyline
 90
        4
 70
     1
 43
0.0
 10
9406.321384511635
 20
3620.176253444281
 10
9409.221384511637
 20
3620.176253444281
 10
9409.221384511637
 20
3629.676253444281
 10
9406.321384511635
 20
3629.676253444281
  0
CIRCLE
  5
18A00
330
747D
100
AcDbEntity
  8
部品1
 48
50.0
100
AcDbCircle
 10
9407.771384511637
 20
3624.926253444281
 30
0.0
 40
9.0
  0
ARC
  5
18A01
330
747D
100
AcDbEntity
  8
細線
 48
50.0
100
AcDbCircle
 10
9407.771384511637
 20
3624.926253444281
 30
0.0
 40
4.0
100
AcDbArc
 50
111.2538091853132
 51
248.7461908146868
  0
ARC
  5
18A02
330
747D
100
AcDbEntity
  8
細線
 48
50.0
100
AcDbCircle
 10
9407.771384511637
 20
3624.926253444281
 30
0.0
 40
17.5
100
AcDbArc
 50
306.4837370612677
 51
233.5162629387323
  0
LINE
  5
18A03
330
747D
100
AcDbEntity
  8
細線
 48
50.0
100
AcDbLine
 10
9417.771384511633
 20
3601.067292863398
 30
0.0
 11
9417.771384511636
 21
3610.05177866364
 31
0.0
  0
LINE
  5
18A04
330
747D
100
AcDbEntity
  8
細線
 48
50.0
100
AcDbLine
 10
9397.771384511635
 20
3601.0672928634
 30
0.0
 11
9397.771384511635
 21
3610.051778663636
 31
0.0
  0
ARC
  5
18A05
330
747D
100
AcDbEntity
  8
細線
 48
50.0
100
AcDbCircle
 10
9407.771384511637
 20
3624.926253444281
 30
0.0
 40
26.5
100
AcDbArc
 50
249.3326835063939
 51
290.6673164933835
  0
ARC
  5
18A06
330
747D
100
AcDbEntity
  8
細線
 48
50.0
100
AcDbCircle
 10
9416.771384511628
 20
3601.067292863398
 30
0.0
 40
1.0
100
AcDbArc
 50
290.6673164936062
 51
359.9999999998958
  0
ARC
  5
18A07
330
747D
100
AcDbEntity
  8
細線
 48
50.0
100
AcDbCircle
 10
9398.771384511636
 20
3601.0672928634
 30
0.0
 40
1.0
100
AcDbArc
 50
180.0
 51
249.3326835066164
  0
ARC
  5
18A08
330
747D
100
AcDbEntity
  8
細線
 48
50.0
100
AcDbCircle
 10
9396.771384511636
 20
3610.051778663636
 30
0.0
 40
1.0
100
AcDbArc
 50
0.0
 51
53.51626293873231
  0
ARC
  5
18A09
330
747D
100
AcDbEntity
  8
細線
 48
50.0
100
AcDbCircle
 10
9418.771384511639
 20
3610.05177866364
 30
0.0
 40
1.0
100
AcDbArc
 50
126.4837370615127
 51
180.0
  0
ARC
  5
18A0A
330
747D
100
AcDbEntity
  8
細線
 48
50.0
100
AcDbCircle
 10
9407.771384511637
 20
3624.926253444281
 30
0.0
 40
21.5
100
AcDbArc
 50
255.8014401250294
 51
284.1985598749706
  0
ARC
  5
18A0B
330
747D
100
AcDbEntity
  8
細線
 48
50.0
100
AcDbCircle
 10
9407.771384511637
 20
3624.926253444281
 30
0.0
 40
16.5
100
AcDbArc
 50
251.9694646069326
 51
288.0305353930674
  0
LINE
  5
18A0C
330
747D
100
AcDbEntity
  8
細線
 48
50.0
100
AcDbLine
 10
9413.271384511636
 20
3604.373881318474
 30
0.0
 11
9413.271384511636
 21
3608.951273005811
 31
0.0
  0
LINE
  5
18A0D
330
747D
100
AcDbEntity
  8
細線
 48
50.0
100
AcDbLine
 10
9402.271384511635
 20
3604.373881318474
 30
0.0
 11
9402.271384511635
 21
3608.951273005809
 31
0.0
  0
ARC
  5
18A0E
330
747D
100
AcDbEntity
  8
細線
 48
50.0
100
AcDbCircle
 10
9402.571384511638
 20
3608.951273005809
 30
0.0
 40
0.3
100
AcDbArc
 50
71.96946460693259
 51
180.0
  0
ARC
  5
18A0F
330
747D
100
AcDbEntity
  8
細線
 48
50.0
100
AcDbCircle
 10
9412.971384511637
 20
3608.951273005811
 30
0.0
 40
0.3
100
AcDbArc
 50
0.0
 51
108.0305353930674
  0
ARC
  5
18A10
330
747D
100
AcDbEntity
  8
細線
 48
50.0
100
AcDbCircle
 10
9412.971384511633
 20
3604.373881318474
 30
0.0
 40
0.3
100
AcDbArc
 50
284.1985598747622
 51
0.0000000001042204
  0
ARC
  5
18A11
330
747D
100
AcDbEntity
  8
細線
 48
50.0
100
AcDbCircle
 10
9402.571384511638
 20
3604.373881318474
 30
0.0
 40
0.3
100
AcDbArc
 50
180.0
 51
255.8014401248081
  0
CIRCLE
  5
18A12
330
747D
100
AcDbEntity
  8
細線
 48
50.0
100
AcDbCircle
 10
9407.771384511637
 20
3624.926253444281
 30
0.0
 40
12.0
  0
ARC
  5
18A13
330
747D
100
AcDbEntity
  8
部品1
 48
50.0
100
AcDbCircle
 10
9407.771384511637
 20
3674.926253444281
 30
0.0
 40
8.5
100
AcDbArc
 50
114.315739171091
 51
245.684260828909
  0
CIRCLE
  5
18A14
330
747D
100
AcDbEntity
  8
細線
 48
50.0
100
AcDbCircle
 10
9407.771384511637
 20
3674.926253444281
 30
0.0
 40
4.5
  0
LWPOLYLINE
  5
18A15
330
747D
100
AcDbEntity
  8
部品1
 48
50.0
100
AcDbPolyline
 90
        2
 70
     0
 43
0.0
 10
9404.271384511636
 20
3693.601102841263
 10
9404.271384511636
 20
3682.672220136696
  0
CIRCLE
  5
18A16
330
747D
100
AcDbEntity
  8
部品1
 48
50.0
100
AcDbCircle
 10
9407.771384511637
 20
3674.926253444281
 30
0.0
 40
19.0
  0
LWPOLYLINE
  5
18A17
330
747D
100
AcDbEntity
  8
部品1
 48
50.0
100
AcDbPolyline
 90
        2
 70
     0
 43
0.0
 10
9404.271384511636
 20
3667.180286751866
 10
9404.271384511636
 20
3656.251404047298
  0
LWPOLYLINE
  5
18A18
330
747D
100
AcDbEntity
  8
部品1
 48
50.0
100
AcDbPolyline
 90
        2
 70
     0
 43
0.0
 10
9411.271384511636
 20
3682.672220136696
 10
9411.271384511636
 20
3693.601102841263
  0
ARC
  5
18A19
330
747D
100
AcDbEntity
  8
部品1
 48
50.0
100
AcDbCircle
 10
9407.771384511637
 20
3674.926253444281
 30
0.0
 40
8.5
100
AcDbArc
 50
294.315739171091
 51
65.68426082890896
  0
LWPOLYLINE
  5
18A1A
330
747D
100
AcDbEntity
  8
部品1
 48
50.0
100
AcDbPolyline
 90
        2
 70
     0
 43
0.0
 10
9411.271384511636
 20
3656.251404047298
 10
9411.271384511636
 20
3667.180286751866
  0
ARC
  5
18A1B
330
747D
100
AcDbEntity
  8
細線
 48
50.0
100
AcDbCircle
 10
9407.771384511637
 20
3674.926253444281
 30
0.0
 40
16.5
100
AcDbArc
 50
332.0012352654438
 51
27.99876473455621
  0
ARC
  5
18A1C
330
747D
100
AcDbEntity
  8
細線
 48
50.0
100
AcDbCircle
 10
9407.771384511637
 20
3674.926253444281
 30
0.0
 40
14.0
100
AcDbArc
 50
326.4074436112986
 51
33.59255638870134
  0
LINE
  5
18A1D
330
747D
100
AcDbEntity
  8
細線
 48
50.0
100
AcDbLine
 10
9393.202582227305
 20
3682.672220136696
 30
0.0
 11
9396.109480721946
 21
3682.672220136696
 31
0.0
  0
LINE
  5
18A1E
330
747D
100
AcDbEntity
  8
細線
 48
50.0
100
AcDbLine
 10
9393.202582227305
 20
3667.180286751866
 30
0.0
 11
9396.109480721946
 21
3667.180286751866
 31
0.0
  0
LINE
  5
18A1F
330
747D
100
AcDbEntity
  8
細線
 48
50.0
100
AcDbLine
 10
9419.433288301325
 20
3682.672220136696
 30
0.0
 11
9422.34018679597
 21
3682.672220136696
 31
0.0
  0
LINE
  5
18A20
330
747D
100
AcDbEntity
  8
細線
 48
50.0
100
AcDbLine
 10
9419.433288301325
 20
3667.180286751866
 30
0.0
 11
9422.34018679597
 21
3667.180286751866
 31
0.0
  0
ARC
  5
18A21
330
747D
100
AcDbEntity
  8
細線
 48
50.0
100
AcDbCircle
 10
9407.771384511637
 20
3674.926253444281
 30
0.0
 40
14.0
100
AcDbArc
 50
146.4074436112986
 51
213.5925563887013
  0
ARC
  5
18A22
330
747D
100
AcDbEntity
  8
細線
 48
50.0
100
AcDbCircle
 10
9407.771384511637
 20
3674.926253444281
 30
0.0
 40
16.5
100
AcDbArc
 50
152.0012352654438
 51
207.9987647345562
  0
ARC
  5
18A23
330
747D
100
AcDbEntity
  8
部品1
 48
50.0
100
AcDbCircle
 10
9381.271384511636
 20
3700.426253444281
 30
0.0
 40
5.0
100
AcDbArc
 50
90.0
 51
180.0
  0
ARC
  5
18A24
330
747D
100
AcDbEntity
  8
部品1
 48
50.0
100
AcDbCircle
 10
9381.271384511636
 20
3589.426253444281
 30
0.0
 40
5.0
100
AcDbArc
 50
180.0
 51
270.0
  0
ARC
  5
18A25
330
747D
100
AcDbEntity
  8
部品1
 48
50.0
100
AcDbCircle
 10
9434.271384511637
 20
3589.426253444281
 30
0.0
 40
5.0
100
AcDbArc
 50
270.0
 51
0.0
  0
ARC
  5
18A26
330
747D
100
AcDbEntity
  8
部品1
 48
50.0
100
AcDbCircle
 10
9434.271384511637
 20
3700.426253444281
 30
0.0
 40
5.0
100
AcDbArc
 50
0.0
 51
90.0
  0
LINE
  5
18A28
330
747D
100
AcDbEntity
  8
部品1
 48
50.0
100
AcDbLine
 10
9376.271384511637
 20
3589.426253444281
 30
0.0
 11
9376.271384511637
 21
3700.426253444281
 31
0.0
  0
LINE
  5
18A29
330
747D
100
AcDbEntity
  8
部品1
 48
50.0
100
AcDbLine
 10
9434.271384511637
 20
3584.426253444281
 30
0.0
 11
9381.271384511636
 21
3584.426253444281
 31
0.0
  0
LINE
  5
18A2A
330
747D
100
AcDbEntity
  8
部品1
 48
50.0
100
AcDbLine
 10
9439.271384511636
 20
3700.426253444281
 30
0.0
 11
9439.271384511636
 21
3589.426253444281
 31
0.0
  0
ENDSEC
  0
SECTION
  2
OBJECTS
  0
DICTIONARY
  5
7471
330
0
100
AcDbDictionary
281
     1
  3
ACAD_COLOR
350
168E3
  3
ACAD_GROUP
350
7472
  3
ACAD_LAYOUT
350
168E4
  3
ACAD_MATERIAL
350
168E2
  3
ACAD_MLINESTYLE
350
7473
  3
ACAD_PLOTSETTINGS
350
168E5
  3
ACAD_PLOTSTYLENAME
350
168E0
  3
ACDBHEADERROUNDTRIPXREC
350
18A49
  3
AcDbVariableDictionary
350
18A45
  3
CONTENTDICTIONARY
350
E71C
  3
DRAWINGVARIABLESDICT
350
F3B9
  0
DICTIONARY
  5
16A7D
330
7467
100
AcDbDictionary
280
     1
281
     1
  3
ACAD_LAYERSTATES
360
16A7E
  0
DICTIONARY
  5
168E3
102
{ACAD_REACTORS
330
7471
102
}
330
7471
100
AcDbDictionary
281
     1
  0
DICTIONARY
  5
7472
102
{ACAD_REACTORS
330
7471
102
}
330
7471
100
AcDbDictionary
281
     1
  0
DICTIONARY
  5
168E4
102
{ACAD_REACTORS
330
7471
102
}
330
7471
100
AcDbDictionary
281
     1
  3
Model
350
168E6
  3
レイアウト1
350
168E7
  0
DICTIONARY
  5
168E2
102
{ACAD_REACTORS
330
7471
102
}
330
7471
100
AcDbDictionary
281
     1
  0
DICTIONARY
  5
7473
102
{ACAD_REACTORS
330
7471
102
}
330
7471
100
AcDbDictionary
281
     1
  3
STANDARD
350
7480
  0
DICTIONARY
  5
168E5
102
{ACAD_REACTORS
330
7471
102
}
330
7471
100
AcDbDictionary
281
     1
  0
ACDBDICTIONARYWDFLT
  5
168E0
102
{ACAD_REACTORS
330
7471
102
}
330
7471
100
AcDbDictionary
281
     1
  3
Normal
350
168E1
100
AcDbDictionaryWithDefault
340
168E1
  0
DICTIONARY
  5
18A49
102
{ACAD_REACTORS
330
7471
102
}
330
7471
100
AcDbDictionary
281
     1
  3
COLORDICT
350
18A4B
  3
MATERIALDICT
350
18A4A
  0
DICTIONARY
  5
18A45
102
{ACAD_REACTORS
330
7471
102
}
330
7471
100
AcDbDictionary
281
     1
  3
DIMASSOC
350
18A46
  3
PROJECTNAME
350
18A47
  0
DICTIONARY
  5
E71C
102
{ACAD_REACTORS
330
7471
102
}
330
7471
100
AcDbDictionary
281
     1
  0
DICTIONARY
  5
F3B9
102
{ACAD_REACTORS
330
7471
102
}
330
7471
100
AcDbDictionary
281
     1
1001
DRAWINGVARIABLESXDATA
1000
POLARMODE
1000
1
  0
DICTIONARY
  5
16A7E
102
{ACAD_REACTORS
330
16A7D
102
}
330
16A7D
100
AcDbDictionary
281
     1
  0
LAYOUT
  5
168E6
102
{ACAD_XDICTIONARY
360
18A4C
102
}
102
{ACAD_REACTORS
330
168E4
102
}
330
168E4
100
AcDbPlotSettings
  1

  2
クセロPDF
  4
A3
  6

 40
3.174999952316284
 41
3.174999952316284
 42
3.17498779296875
 43
3.17498779296875
 44
419.9466552734374
 45
296.9259948730469
 46
0.0
 47
0.0
 48
3.619013395666115
 49
-4.192117100517862
140
820.022926294543
141
573.2392198881443
142
1.0
143
39.99735023620806
 70
 11952
 72
     1
 73
     0
 74
     2
  7
inaba.ctb
 75
     0
147
0.0250016562120842
148
25.79074261211281
149
125.8223078213959
100
AcDbLayout
  1
Model
 70
     1
 71
     0
 10
0.0
 20
0.0
 11
12.0
 21
9.0
 12
0.0
 22
0.0
 32
0.0
 14
0.0
 24
0.0
 34
0.0
 15
0.0
 25
0.0
 35
0.0
146
0.0
 13
0.0
 23
0.0
 33
0.0
 16
1.0
 26
0.0
 36
0.0
 17
0.0
 27
1.0
 37
0.0
 76
     0
330
747D
  0
LAYOUT
  5
168E7
102
{ACAD_XDICTIONARY
360
18A4E
102
}
102
{ACAD_REACTORS
330
168E4
102
}
330
168E4
100
AcDbPlotSettings
  1

  2
Microsoft Office Document Image Writer
  4

  6

 40
0.0
 41
0.0
 42
0.0
 43
0.0
 44
0.0
 45
0.0
 46
0.0
 47
0.0
 48
0.0
 49
0.0
140
0.0
141
0.0
142
1.0
143
1.0
 70
   688
 72
     0
 73
     0
 74
     5
  7

 75
    16
147
1.0
148
0.0
149
0.0
100
AcDbLayout
  1
レイアウト1
 70
     0
 71
     1
 10
0.0
 20
0.0
 11
420.0
 21
297.0
 12
0.0
 22
0.0
 32
0.0
 14
1.000000000000000E+20
 24
1.000000000000000E+20
 34
1.000000000000000E+20
 15
-1.000000000000000E+20
 25
-1.000000000000000E+20
 35
-1.000000000000000E+20
146
0.0
 13
0.0
 23
0.0
 33
0.0
 16
1.0
 26
0.0
 36
0.0
 17
0.0
 27
1.0
 37
0.0
 76
     0
330
747A
  0
MLINESTYLE
  5
7480
102
{ACAD_REACTORS
330
7473
102
}
330
7473
100
AcDbMlineStyle
  2
STANDARD
 70
     0
  3

 62
     0
 51
90.0
 52
90.0
 71
     2
 49
0.5
 62
   256
  6
BYLAYER
 49
-0.5
 62
   256
  6
BYLAYER
  0
ACDBPLACEHOLDER
  5
168E1
102
{ACAD_REACTORS
330
168E0
102
}
330
168E0
  0
XRECORD
  5
18A4B
102
{ACAD_REACTORS
330
18A49
102
}
330
18A49
100
AcDbXrecord
280
     1
340
168E3
  0
XRECORD
  5
18A4A
102
{ACAD_REACTORS
330
18A49
102
}
330
18A49
100
AcDbXrecord
280
     1
340
168E2
  0
DICTIONARYVAR
  5
18A46
102
{ACAD_REACTORS
330
18A45
102
}
330
18A45
100
DictionaryVariables
280
     0
  1
1
  0
DICTIONARYVAR
  5
18A47
102
{ACAD_REACTORS
330
18A45
102
}
330
18A45
100
DictionaryVariables
280
     0
  1

  0
DICTIONARY
  5
18A4C
330
168E6
100
AcDbDictionary
280
     1
281
     1
  3
ACAD_XREC_ROUNDTRIP
360
18A4D
  0
DICTIONARY
  5
18A4E
330
168E7
100
AcDbDictionary
280
     1
281
     1
  3
ACAD_XREC_ROUNDTRIP
360
18A4F
  0
XRECORD
  5
18A4D
102
{ACAD_REACTORS
330
18A4C
102
}
330
18A4C
100
AcDbXrecord
280
     1
102
SHADEPLOT
 70
     0
102
SHADEPLOTRESLEVEL
 70
     2
102
SHADEPLOTCUSTOMDPI
 70
   150
  0
XRECORD
  5
18A4F
102
{ACAD_REACTORS
330
18A4E
102
}
330
18A4E
100
AcDbXrecord
280
     1
102
SHADEPLOT
 70
     0
102
SHADEPLOTRESLEVEL
 70
     2
102
SHADEPLOTCUSTOMDPI
 70
   300
  0
ENDSEC
  0
EOF
